  0
SECTION
  2
HEADER
  9
$ACADVER
  1
AC1024
  9
$DWGCODEPAGE
  3
ANSI_1252
  9
$EXTMAX
 10
297.0
 20
210.0
 30
0.0
  9
$EXTMIN
 10
0.0
 20
0.0
 30
0.0
  9
$LIMMIN
 10
0.0
 20
0.0
  9
$LIMMAX
 10
297.0
 20
210.0
  9
$VIEWCTR
 10
148.5
 20
105.0
  9
$VIEWSIZE
 40
210.0
  9
$CLAYER
  8
0
  9
$LTSCALE
 40
16.335
  9
$CELTYPE
  6
BYLAYER
  9
$DIMSCALE
 40
1.0
  9
$DIMASZ
 40
3.0
  9
$DIMEXO
 40
0.5
  9
$DIMDLI
 40
11.286
  9
$DIMEXE
 40
1.5
  9
$DIMCEN
 40
2.673
  9
$DIMLFAC
 40
1.0
  9
$DIMBLK
  1
_FILLED
  9
$DIMALT
 70
0
  9
$DIMALTF
 40
0.0393700787
  9
$DIMTXT
 40
3.0
  9
$DIMTOL
 70
1
  9
$DIMLIM
 70
0
  9
$DIMTFAC
 40
1.0
  9
$DIMTP
 40
0.01
  9
$DIMTM
 40
0.01
  9
$DIMGAP
 40
0.625
  9
$DIMDSEP
 70
44
  9
$AUNITS
 70
0
  9
$PDMODE
 70
3
  9
$PDSIZE
 40
3.0
  9
$HANDSEED
  5
387
  9
$TILEMODE
 70
1
  9
$MEASUREMENT
 70
1
  9
$INSUNITS
 70
4
  0
ENDSEC
  0
SECTION
  2
CLASSES
  0
CLASS
  1
ACDBDICTIONARYWDFLT
  2
AcDbDictionaryWithDefault
  3
AutoCAD 2000
 90
0
 91
1
280
0
281
0
  0
CLASS
  1
ACDBPLACEHOLDER
  2
AcDbPlaceHolder
  3
AutoCAD 2000
 90
0
 91
1
280
0
281
0
  0
CLASS
  1
LAYOUT
  2
AcDbLayout
  3
AutoCAD 2000
 90
0
 91
0
280
0
281
0
  0
ENDSEC
  0
SECTION
  2
TABLES
  0
TABLE
  2
VPORT
  5
8
100
AcDbSymbolTable
 70
2
  0
VPORT
  5
1F4
100
AcDbSymbolTableRecord
100
AcDbViewportTableRecord
  2
*ACTIVE
 70
0
 10
0.0
 20
0.0
 11
1.0
 21
1.0
 12
148.5
 22
105.0
 13
0.0
 23
0.0
 14
1.0
 24
1.0
 15
0.0
 25
0.0
 16
0.0
 26
0.0
 36
1.0
 17
0.0
 27
0.0
 37
0.0
 40
210.0
 41
1.4142857143
 42
50.0
 43
0.0
 44
0.0
 50
0.0
 51
0.0
 71
0
 72
100
 73
1
 74
1
 75
0
 76
0
 77
0
 78
0
  0
ENDTAB
  0
TABLE
  2
LTYPE
  5
5
100
AcDbSymbolTable
 70
6
  0
LTYPE
  5
14
100
AcDbSymbolTableRecord
100
AcDbLinetypeTableRecord
  2
BYBLOCK
 70
0
  3

 72
65
 73
0
 40
0.0
  0
LTYPE
  5
15
100
AcDbSymbolTableRecord
100
AcDbLinetypeTableRecord
  2
BYLAYER
 70
0
  3

 72
65
 73
0
 40
0.0
  0
LTYPE
  5
16
100
AcDbSymbolTableRecord
100
AcDbLinetypeTableRecord
  2
CONTINUOUS
 70
64
  3
Solid line
 72
65
 73
0
 40
0.0
  0
LTYPE
  5
1F5
100
AcDbSymbolTableRecord
100
AcDbLinetypeTableRecord
  2
CENTER
 70
64
  3
____ _ ____ _ ____ _ ____ _ ____ _ ____ _ ____
 72
65
 73
4
 40
0.6
 49
0.375
 74
0
 49
-0.075
 74
0
 49
0.075
 74
0
 49
-0.075
 74
0
  0
LTYPE
  5
1F6
100
AcDbSymbolTableRecord
100
AcDbLinetypeTableRecord
  2
HIDDEN
 70
64
  3
- - - - - - - - - - - - - - - - - - - -
 72
65
 73
2
 40
0.2
 49
0.1
 74
0
 49
-0.1
 74
0
  0
LTYPE
  5
1F7
100
AcDbSymbolTableRecord
100
AcDbLinetypeTableRecord
  2
PHANTOM
 70
64
  3
_____ _ _ _____ _ _ _____ _ _ _____
 72
65
 73
6
 40
0.8
 49
0.45
 74
0
 49
-0.05
 74
0
 49
0.1
 74
0
 49
-0.05
 74
0
 49
0.1
 74
0
 49
-0.05
 74
0
  0
LTYPE
  5
1F8
100
AcDbSymbolTableRecord
100
AcDbLinetypeTableRecord
  2
DOT
 70
64
  3
. . . . . . . . . . . . . . . . . . . .
 72
65
 73
2
 40
0.2
 49
0.1
 74
0
 49
-0.1
 74
0
  0
LTYPE
  5
1F9
100
AcDbSymbolTableRecord
100
AcDbLinetypeTableRecord
  2
DASHED
 70
64
  3
- - - - - - - - - - - - - - - - - - - -
 72
65
 73
2
 40
0.2
 49
0.1
 74
0
 49
-0.1
 74
0
  0
ENDTAB
  0
TABLE
  2
LAYER
  5
2
100
AcDbSymbolTable
 70
36
  0
LAYER
  5
10
100
AcDbSymbolTableRecord
100
AcDbLayerTableRecord
  2
0
 70
0
 62
7
  6
CONTINUOUS
370
-3
390
F
  0
LAYER
  5
1FA
100
AcDbSymbolTableRecord
100
AcDbLayerTableRecord
  2
DEFAULT_1
 70
0
 62
7
  6
CENTER
370
-3
390
F
  0
LAYER
  5
1FB
100
AcDbSymbolTableRecord
100
AcDbLayerTableRecord
  2
DEFAULT_2
 70
0
 62
7
  6
HIDDEN
370
-3
390
F
  0
LAYER
  5
1FC
100
AcDbSymbolTableRecord
100
AcDbLayerTableRecord
  2
DEFAULT_3
 70
0
 62
7
  6
PHANTOM
370
-3
390
F
  0
LAYER
  5
1FD
100
AcDbSymbolTableRecord
100
AcDbLayerTableRecord
  2
255013570
 70
0
 62
7
  6
CONTINUOUS
370
-3
390
F
  0
LAYER
  5
1FE
100
AcDbSymbolTableRecord
100
AcDbLayerTableRecord
  2
261013570
 70
0
 62
7
  6
CONTINUOUS
370
-3
390
F
  0
LAYER
  5
1FF
100
AcDbSymbolTableRecord
100
AcDbLayerTableRecord
  2
280013570
 70
0
 62
7
  6
CONTINUOUS
370
-3
390
F
  0
LAYER
  5
200
100
AcDbSymbolTableRecord
100
AcDbLayerTableRecord
  2
ASSI
 70
0
 62
7
  6
CONTINUOUS
370
-3
390
F
  0
LAYER
  5
201
100
AcDbSymbolTableRecord
100
AcDbLayerTableRecord
  2
COLOR5
 70
0
 62
7
  6
CONTINUOUS
370
-3
390
F
  0
LAYER
  5
202
100
AcDbSymbolTableRecord
100
AcDbLayerTableRecord
  2
COORDINATE
 70
0
 62
7
  6
CONTINUOUS
370
-3
390
F
  0
LAYER
  5
203
100
AcDbSymbolTableRecord
100
AcDbLayerTableRecord
  2
COORD_ORIGINE
 70
0
 62
7
  6
CONTINUOUS
370
-3
390
F
  0
LAYER
  5
204
100
AcDbSymbolTableRecord
100
AcDbLayerTableRecord
  2
COPY-PUBBLISH
 70
0
 62
7
  6
CONTINUOUS
370
-3
390
F
  0
LAYER
  5
205
100
AcDbSymbolTableRecord
100
AcDbLayerTableRecord
  2
COPY_PUBLISH
 70
0
 62
7
  6
CONTINUOUS
370
-3
390
F
  0
LAYER
  5
206
100
AcDbSymbolTableRecord
100
AcDbLayerTableRecord
  2
COSMETICHE
 70
0
 62
7
  6
CONTINUOUS
370
-3
390
F
  0
LAYER
  5
207
100
AcDbSymbolTableRecord
100
AcDbLayerTableRecord
  2
COSMETICI
 70
0
 62
7
  6
CONTINUOUS
370
-3
390
F
  0
LAYER
  5
208
100
AcDbSymbolTableRecord
100
AcDbLayerTableRecord
  2
CURVE
 70
0
 62
7
  6
CONTINUOUS
370
-3
390
F
  0
LAYER
  5
209
100
AcDbSymbolTableRecord
100
AcDbLayerTableRecord
  2
DRAFT
 70
0
 62
7
  6
CONTINUOUS
370
-3
390
F
  0
LAYER
  5
20A
100
AcDbSymbolTableRecord
100
AcDbLayerTableRecord
  2
IGES
 70
0
 62
7
  6
CONTINUOUS
370
-3
390
F
  0
LAYER
  5
20B
100
AcDbSymbolTableRecord
100
AcDbLayerTableRecord
  2
IMPORT_IGES
 70
0
 62
7
  6
CONTINUOUS
370
-3
390
F
  0
LAYER
  5
20C
100
AcDbSymbolTableRecord
100
AcDbLayerTableRecord
  2
INTF_1
 70
0
 62
7
  6
CONTINUOUS
370
-3
390
F
  0
LAYER
  5
20D
100
AcDbSymbolTableRecord
100
AcDbLayerTableRecord
  2
INTF_11
 70
0
 62
7
  6
CONTINUOUS
370
-3
390
F
  0
LAYER
  5
20E
100
AcDbSymbolTableRecord
100
AcDbLayerTableRecord
  2
NOTE
 70
0
 62
7
  6
CONTINUOUS
370
-3
390
F
  0
LAYER
  5
20F
100
AcDbSymbolTableRecord
100
AcDbLayerTableRecord
  2
PIANI
 70
0
 62
7
  6
CONTINUOUS
370
-3
390
F
  0
LAYER
  5
210
100
AcDbSymbolTableRecord
100
AcDbLayerTableRecord
  2
PIANI_ORIGINE
 70
0
 62
7
  6
CONTINUOUS
370
-3
390
F
  0
LAYER
  5
211
100
AcDbSymbolTableRecord
100
AcDbLayerTableRecord
  2
PIANI_SFORMI
 70
0
 62
7
  6
CONTINUOUS
370
-3
390
F
  0
LAYER
  5
212
100
AcDbSymbolTableRecord
100
AcDbLayerTableRecord
  2
PUNTI
 70
0
 62
7
  6
CONTINUOUS
370
-3
390
F
  0
LAYER
  5
213
100
AcDbSymbolTableRecord
100
AcDbLayerTableRecord
  2
RACCORDO
 70
0
 62
7
  6
CONTINUOUS
370
-3
390
F
  0
LAYER
  5
214
100
AcDbSymbolTableRecord
100
AcDbLayerTableRecord
  2
SIMBOLI
 70
0
 62
7
  6
CONTINUOUS
370
-3
390
F
  0
LAYER
  5
215
100
AcDbSymbolTableRecord
100
AcDbLayerTableRecord
  2
SMUSSO
 70
0
 62
7
  6
CONTINUOUS
370
-3
390
F
  0
LAYER
  5
216
100
AcDbSymbolTableRecord
100
AcDbLayerTableRecord
  2
SNAPLINE
 70
0
 62
7
  6
CONTINUOUS
370
-3
390
F
  0
LAYER
  5
217
100
AcDbSymbolTableRecord
100
AcDbLayerTableRecord
  2
SUP-SCAVI-INCLINATI
 70
0
 62
7
  6
CONTINUOUS
370
-3
390
F
  0
LAYER
  5
218
100
AcDbSymbolTableRecord
100
AcDbLayerTableRecord
  2
SUP-SCAVI-INCLINATI-SUP
 70
0
 62
7
  6
CONTINUOUS
370
-3
390
F
  0
LAYER
  5
219
100
AcDbSymbolTableRecord
100
AcDbLayerTableRecord
  2
SUPERFICI
 70
0
 62
7
  6
CONTINUOUS
370
-3
390
F
  0
LAYER
  5
21A
100
AcDbSymbolTableRecord
100
AcDbLayerTableRecord
  2
SUP_COLORE
 70
0
 62
7
  6
CONTINUOUS
370
-3
390
F
  0
LAYER
  5
21B
100
AcDbSymbolTableRecord
100
AcDbLayerTableRecord
  2
TRASH
 70
0
 62
7
  6
CONTINUOUS
370
-3
390
F
  0
LAYER
  5
21C
100
AcDbSymbolTableRecord
100
AcDbLayerTableRecord
  2
XSEC_DATUMS
 70
0
 62
7
  6
CONTINUOUS
370
-3
390
F
  0
ENDTAB
  0
TABLE
  2
STYLE
  5
3
100
AcDbSymbolTable
 70
1
  0
STYLE
  5
11
100
AcDbSymbolTableRecord
100
AcDbTextStyleTableRecord
  2
STANDARD
 70
0
 40
0.0
 41
0.8
 50
0.0
 71
0
 42
0.2
  3
txt
  4

  0
STYLE
  5
21D
100
AcDbSymbolTableRecord
100
AcDbTextStyleTableRecord
  2
TEXTSTYLE_1
 70
0
 40
0.0
 41
0.8
 50
0.0
 71
0
 42
0.2
  3
gdt
  4

  0
ENDTAB
  0
TABLE
  2
VIEW
  5
6
100
AcDbSymbolTable
 70
0
  0
ENDTAB
  0
TABLE
  2
UCS
  5
7
100
AcDbSymbolTable
 70
0
  0
ENDTAB
  0
TABLE
  2
APPID
  5
9
100
AcDbSymbolTable
 70
1
  0
APPID
  5
21E
100
AcDbSymbolTableRecord
100
AcDbRegAppTableRecord
  2
ACAD
 70
0
  0
ENDTAB
  0
TABLE
  2
BLOCK_RECORD
  5
1
100
AcDbSymbolTable
 70
0
  0
BLOCK_RECORD
  5
21F
100
AcDbSymbolTableRecord
100
AcDbBlockTableRecord
  2
*Model_Space
  0
BLOCK_RECORD
  5
220
100
AcDbSymbolTableRecord
100
AcDbBlockTableRecord
  2
*Paper_Space
  0
BLOCK_RECORD
  5
221
100
AcDbSymbolTableRecord
100
AcDbBlockTableRecord
  2
_FILLED
  0
BLOCK_RECORD
  5
222
100
AcDbSymbolTableRecord
100
AcDbBlockTableRecord
  2
*D0
  0
BLOCK_RECORD
  5
223
100
AcDbSymbolTableRecord
100
AcDbBlockTableRecord
  2
*D1
  0
BLOCK_RECORD
  5
224
100
AcDbSymbolTableRecord
100
AcDbBlockTableRecord
  2
*D2
  0
ENDTAB
  0
TABLE
  2
DIMSTYLE
  5
A
100
AcDbSymbolTable
 70
1
100
AcDbDimStyleTable
 71
0
  0
DIMSTYLE
105
225
100
AcDbSymbolTableRecord
100
AcDbDimStyleTableRecord
  2
STANDARD
 70
0
  3

  4

 40
1.0
 41
3.0
 42
0.5
 43
0.38
 44
1.5
 45
0.0
 46
0.0
 47
0.01
 48
0.01
140
3.0
141
0.09
142
0.0
143
25.4
144
1.0
145
0.0
146
1.0
147
0.625
 71
1
 72
0
 73
0
 74
0
 75
0
 76
0
 77
1
 78
8
 79
2
170
0
171
1
172
0
173
0
174
0
175
0
176
0
177
0
178
0
270
2
179
2
271
2
272
2
273
2
274
2
275
0
280
0
281
0
282
0
283
1
284
8
285
0
286
0
287
3
288
0
340
11
278
44
341
221
342
221
343
221
344
221
  0
DIMSTYLE
105
226
100
AcDbSymbolTableRecord
100
AcDbDimStyleTableRecord
  2
DIMSTYLE_1
 70
0
  3

  4

 40
1.0
 41
3.0
 42
0.5
 43
0.38
 44
1.5
 45
0.0
 46
0.0
 47
0.0
 48
0.0
140
3.0
141
0.09
142
0.0
143
25.4
144
1.0
145
0.0
146
1.0
147
0.75
 71
0
 72
0
 73
0
 74
0
 75
0
 76
0
 77
1
 78
8
 79
2
170
0
171
1
172
0
173
0
174
0
175
0
176
0
177
0
178
0
270
2
179
2
271
2
272
2
273
2
274
2
275
0
280
0
281
0
282
0
283
1
284
8
285
0
286
0
287
3
288
0
340
11
278
44
341
221
342
221
343
221
344
221
  0
ENDTAB
  0
ENDSEC
  0
SECTION
  2
BLOCKS
  0
BLOCK
  5
20
100
AcDbEntity
  8
0
100
AcDbBlockBegin
  2
*Model_Space
 70
0
 10
0.0
 20
0.0
 30
0.0
  3
*Model_Space
  1

  0
ENDBLK
  5
21
100
AcDbEntity
  8
0
100
AcDbBlockEnd
  0
BLOCK
  5
1C
100
AcDbEntity
  8
0
100
AcDbBlockBegin
  2
*Paper_Space
 70
0
 10
0.0
 20
0.0
 30
0.0
  3
*Paper_Space
  1

  0
ENDBLK
  5
1D
100
AcDbEntity
  8
0
100
AcDbBlockEnd
  0
BLOCK
  5
227
100
AcDbEntity
  8
0
100
AcDbBlockBegin
  2
_FILLED
 70
64
 10
0.0
 20
0.0
  3
_FILLED
  1

  0
SOLID
  5
228
100
AcDbEntity
  8
0
  6
BYBLOCK
 62
0
100
AcDbTrace
 10
0.0
 20
0.0
 11
-1.0
 21
0.3166666667
 12
-1.0
 22
-0.3166666667
 13
-1.0
 23
-0.3166666667
  0
ENDBLK
  5
229
100
AcDbEntity
  8
0
  6
BYBLOCK
 62
0
100
AcDbBlockEnd
  0
BLOCK
  5
22A
100
AcDbEntity
  8
0
100
AcDbBlockBegin
 62
7
  6
CONTINUOUS
  2
*D0
 70
65
 10
0.0
 20
0.0
  3
*D0
  1

  0
LINE
  5
22B
100
AcDbEntity
  8
0
100
AcDbLine
 62
7
  6
CONTINUOUS
 10
-89.5943667763
 20
-17.1986430921
 11
-89.5943667763
 21
40.8013569079
  0
LINE
  5
22C
100
AcDbEntity
  8
0
100
AcDbLine
 62
7
  6
CONTINUOUS
 10
-45.5943667763
 20
-17.1986430921
 11
-45.5943667763
 21
40.8013569079
  0
LINE
  5
22D
100
AcDbEntity
  8
0
100
AcDbLine
 62
7
  6
CONTINUOUS
 10
-89.5943667763
 20
39.3013569079
 11
-67.5943667763
 21
39.3013569079
  0
LINE
  5
22E
100
AcDbEntity
  8
0
100
AcDbLine
 62
7
  6
CONTINUOUS
 10
-45.5943667763
 20
39.3013569079
 11
-67.5943667763
 21
39.3013569079
  0
INSERT
  5
22F
100
AcDbEntity
  8
0
100
AcDbBlockReference
 62
7
  6
CONTINUOUS
  2
_FILLED
 10
-89.5943667763
 20
39.3013569079
 41
3.0
 42
3.0
 43
3.0
 50
180.0
  0
INSERT
  5
230
100
AcDbEntity
  8
0
100
AcDbBlockReference
 62
7
  6
CONTINUOUS
  2
_FILLED
 10
-45.5943667763
 20
39.3013569079
 41
3.0
 42
3.0
 43
3.0
  0
ENDBLK
  5
231
100
AcDbEntity
  8
0
  6
BYBLOCK
 62
0
100
AcDbBlockEnd
  0
BLOCK
  5
232
100
AcDbEntity
  8
0
100
AcDbBlockBegin
 62
7
  6
CONTINUOUS
  2
*D1
 70
65
 10
0.0
 20
0.0
  3
*D1
  1

  0
LINE
  5
233
100
AcDbEntity
  8
0
100
AcDbLine
 62
7
  6
CONTINUOUS
 10
-72.5943667763
 20
31.3013569079
 11
-99.0943667763
 21
31.3013569079
  0
LINE
  5
234
100
AcDbEntity
  8
0
100
AcDbLine
 62
7
  6
CONTINUOUS
 10
-89.3115185605
 20
-34.3986430921
 11
-99.0943667763
 21
-34.3986430921
  0
LINE
  5
235
100
AcDbEntity
  8
0
100
AcDbLine
 62
7
  6
CONTINUOUS
 10
-97.5943667763
 20
31.3013569079
 11
-97.5943667763
 21
-1.5486430921
  0
LINE
  5
236
100
AcDbEntity
  8
0
100
AcDbLine
 62
7
  6
CONTINUOUS
 10
-97.5943667763
 20
-34.3986430921
 11
-97.5943667763
 21
-1.5486430921
  0
INSERT
  5
237
100
AcDbEntity
  8
0
100
AcDbBlockReference
 62
7
  6
CONTINUOUS
  2
_FILLED
 10
-97.5943667763
 20
31.3013569079
 41
3.0
 42
3.0
 43
3.0
 50
90.0
  0
INSERT
  5
238
100
AcDbEntity
  8
0
100
AcDbBlockReference
 62
7
  6
CONTINUOUS
  2
_FILLED
 10
-97.5943667763
 20
-34.3986430921
 41
3.0
 42
3.0
 43
3.0
 50
270.0
  0
ENDBLK
  5
239
100
AcDbEntity
  8
0
  6
BYBLOCK
 62
0
100
AcDbBlockEnd
  0
BLOCK
  5
23A
100
AcDbEntity
  8
0
100
AcDbBlockBegin
 62
7
  6
CONTINUOUS
  2
*D2
 70
65
 10
0.0
 20
0.0
  3
*D2
  1

  0
LINE
  5
23B
100
AcDbEntity
  8
0
100
AcDbLine
 62
7
  6
CONTINUOUS
 10
-21.9991228424
 20
-17.2488954154
 11
-21.9991228424
 21
40.8013569079
  0
LINE
  5
23C
100
AcDbEntity
  8
0
100
AcDbLine
 62
7
  6
CONTINUOUS
 10
21.9978135022
 20
-17.1986430921
 11
21.9978135022
 21
40.8013569079
  0
LINE
  5
23D
100
AcDbEntity
  8
0
100
AcDbLine
 62
7
  6
CONTINUOUS
 10
-21.9991228424
 20
39.3013569079
 11
-0.0006546701
 21
39.3013569079
  0
LINE
  5
23E
100
AcDbEntity
  8
0
100
AcDbLine
 62
7
  6
CONTINUOUS
 10
21.9978135022
 20
39.3013569079
 11
-0.0006546701
 21
39.3013569079
  0
INSERT
  5
23F
100
AcDbEntity
  8
0
100
AcDbBlockReference
 62
7
  6
CONTINUOUS
  2
_FILLED
 10
-21.9991228424
 20
39.3013569079
 41
3.0
 42
3.0
 43
3.0
 50
180.0
  0
INSERT
  5
240
100
AcDbEntity
  8
0
100
AcDbBlockReference
 62
7
  6
CONTINUOUS
  2
_FILLED
 10
21.9978135022
 20
39.3013569079
 41
3.0
 42
3.0
 43
3.0
  0
ENDBLK
  5
241
100
AcDbEntity
  8
0
  6
BYBLOCK
 62
0
100
AcDbBlockEnd
  0
ENDSEC
  0
SECTION
  2
ENTITIES
  0
DIMENSION
  5
242
100
AcDbEntity
  8
0
100
AcDbDimension
 62
7
  6
CONTINUOUS
  2
*D0
 10
-45.5943667763
 20
39.3013569079
 11
-69.9515096335
 21
39.3013569079
 70
160
 71
2
 72
2
 41
0.9
 42
44.0
  3
DIMSTYLE_1
100
AcDbAlignedDimension
 13
-89.5943667763
 23
-17.6986430921
 14
-45.5943667763
 24
-17.6986430921
100
AcDbRotatedDimension
  0
DIMENSION
  5
243
100
AcDbEntity
  8
0
100
AcDbDimension
 62
7
  6
CONTINUOUS
  2
*D1
 10
-97.5943667763
 20
-34.3986430921
 11
-97.5943667763
 21
-5.8343573778
 70
160
 71
2
 72
2
 41
0.9
 42
65.7
  3
DIMSTYLE_1
100
AcDbAlignedDimension
 13
-72.0943667763
 23
31.3013569079
 14
-88.8115185605
 24
-34.3986430921
 50
270.0
100
AcDbRotatedDimension
  0
DIMENSION
  5
244
100
AcDbEntity
  8
0
100
AcDbDimension
 62
7
  6
CONTINUOUS
  2
*D2
 10
21.9978135022
 20
39.3013569079
 11
-2.3577975273
 21
39.3013569079
 70
160
 71
2
 72
2
 41
0.9
 42
43.9969363446
  3
DIMSTYLE_1
100
AcDbAlignedDimension
 13
-21.9991228424
 23
-17.7488954154
 14
21.9978135022
 24
-17.6986430921
100
AcDbRotatedDimension
  0
LWPOLYLINE
  5
245
100
AcDbEntity
  8
ASSI
100
AcDbPolyline
 62
250
  6
CONTINUOUS
 90
43
 70
0
 10
-60.1383855711
 20
-34.3986430921
 10
-60.1274250961
 20
-34.3983011705
 10
-60.1164796115
 20
-34.3972758732
 10
-60.1055640874
 20
-34.3955686026
 10
-60.0946934526
 20
-34.3931816936
 10
-60.083882575
 20
-34.3901184107
 10
-60.0731462403
 20
-34.3863829437
 10
-60.0624991325
 20
-34.3819804013
 10
-60.0519558135
 20
-34.3769168049
 10
-60.0415307032
 20
-34.3711990799
 10
-60.0312380601
 20
-34.3648350464
 10
-60.021091961
 20
-34.3578334083
 10
-60.0111062829
 20
-34.3502037416
 10
-60.0012946829
 20
-34.3419564814
 10
-59.9916705802
 20
-34.3331029074
 10
-59.9822471376
 20
-34.3236551283
 10
-59.9730372434
 20
-34.3136260658
 10
-59.9640534939
 20
-34.3030294366
 10
-59.9553081761
 20
-34.2918797334
 10
-59.9468132507
 20
-34.2801922056
 10
-59.9385803362
 20
-34.2679828381
 10
-59.9306206927
 20
-34.2552683294
 10
-59.9229452064
 20
-34.242066069
 10
-59.9155643751
 20
-34.2283941134
 10
-59.9084882934
 20
-34.2142711616
 10
-59.9017266391
 20
-34.1997165294
 10
-59.8952886601
 20
-34.184750123
 10
-59.8891831615
 20
-34.1693924116
 10
-59.8834184938
 20
-34.1536643999
 10
-59.8780025412
 20
-34.1375875988
 10
-59.8729427111
 20
-34.1211839963
 10
-59.8682459237
 20
-34.1044760276
 10
-59.8639186027
 20
-34.0874865437
 10
-59.8599666667
 20
-34.0702387811
 10
-59.8563955205
 20
-34.0527563292
 10
-59.8532100484
 20
-34.0350630986
 10
-59.8504146072
 20
-34.0171832882
 10
-59.8480130201
 20
-33.9991413518
 10
-59.8460085718
 20
-33.9809619652
 10
-59.8444040037
 20
-33.9626699921
 10
-59.8432015103
 20
-33.9442904502
 10
-59.8424027364
 20
-33.925848477
 10
-59.8420087744
 20
-33.9073692953
  0
LWPOLYLINE
  5
246
100
AcDbEntity
  8
ASSI
100
AcDbPolyline
 62
250
  6
CONTINUOUS
 90
43
 70
0
 10
-54.1668113095
 20
-34.3986430921
 10
-54.1551109569
 20
-34.3983011704
 10
-54.1434266068
 20
-34.3972758729
 10
-54.1317742396
 20
-34.395568602
 10
-54.1201697922
 20
-34.3931816925
 10
-54.1086291357
 20
-34.3901184092
 10
-54.0971680543
 20
-34.3863829415
 10
-54.085802223
 20
-34.3819803985
 10
-54.0745471868
 20
-34.3769168013
 10
-54.063418339
 20
-34.3711990756
 10
-54.0524309004
 20
-34.3648350412
 10
-54.0415998983
 20
-34.3578334023
 10
-54.0309401463
 20
-34.3502037348
 10
-54.0204662235
 20
-34.3419564738
 10
-54.0101924549
 20
-34.3331028989
 10
-54.0001328919
 20
-34.3236551191
 10
-53.9903012927
 20
-34.3136260559
 10
-53.980711104
 20
-34.303029426
 10
-53.971375442
 20
-34.2918797222
 10
-53.9623070751
 20
-34.2801921939
 10
-53.953518406
 20
-34.2679828258
 10
-53.9450214548
 20
-34.2552683167
 10
-53.9368278426
 20
-34.242066056
 10
-53.9289487758
 20
-34.2283941002
 10
-53.9213950304
 20
-34.2142711483
 10
-53.9141769376
 20
-34.1997165161
 10
-53.9073043696
 20
-34.1847501097
 10
-53.9007867258
 20
-34.1693923985
 10
-53.8946329202
 20
-34.153664387
 10
-53.8888513695
 20
-34.1375875863
 10
-53.883449981
 20
-34.1211839844
 10
-53.8784361419
 20
-34.1044760162
 10
-53.8738167099
 20
-34.087486533
 10
-53.8695980026
 20
-34.0702387711
 10
-53.8657857901
 20
-34.0527563201
 10
-53.8623852862
 20
-34.0350630905
 10
-53.8594011418
 20
-34.017183281
 10
-53.8568374382
 20
-33.9991413457
 10
-53.8546976818
 20
-33.9809619602
 10
-53.8529847991
 20
-33.9626699883
 10
-53.8517011328
 20
-33.9442904476
 10
-53.8508484385
 20
-33.9258484757
 10
-53.8504278825
 20
-33.9073692953
  0
LINE
  5
247
100
AcDbEntity
  8
ASSI
100
AcDbLine
 62
7
  6
CONTINUOUS
 10
-46.3772149922
 20
-34.3986430921
 11
-88.8115185605
 21
-34.3986430921
  0
LINE
  5
248
100
AcDbEntity
  8
ASSI
100
AcDbLine
 62
250
  6
CONTINUOUS
 10
-59.8420087744
 20
-33.9073692953
 11
-60.2070580532
 21
-33.9078276108
  0
LINE
  5
249
100
AcDbEntity
  8
ASSI
100
AcDbLine
 62
250
  6
CONTINUOUS
 10
-45.8772911446
 20
-33.9073692953
 11
-59.8420087744
 21
-33.9073692953
  0
LWPOLYLINE
  5
24A
100
AcDbEntity
  8
ASSI
100
AcDbPolyline
 62
250
  6
CONTINUOUS
 90
3
 70
0
 10
-60.2070580532
 20
-33.9078276108
 10
-60.5782224691
 20
-33.9074418734
 10
-74.9816749859
 20
-33.9078276108
  0
LINE
  5
24B
100
AcDbEntity
  8
ASSI
100
AcDbLine
 62
250
  6
CONTINUOUS
 10
-74.9816749859
 20
-33.9078276108
 11
-89.311442408
 21
-33.9073692953
  0
LWPOLYLINE
  5
24C
100
AcDbEntity
  8
ASSI
100
AcDbPolyline
 62
250
  6
CONTINUOUS
 90
43
 70
0
 10
-81.0219222432
 20
-34.3986430921
 10
-81.0336225955
 20
-34.3983011704
 10
-81.0453069455
 20
-34.397275873
 10
-81.0569593125
 20
-34.3955686021
 10
-81.0685637598
 20
-34.3931816927
 10
-81.0801044161
 20
-34.3901184094
 10
-81.0915654974
 20
-34.3863829418
 10
-81.1029313286
 20
-34.3819803989
 10
-81.1141863647
 20
-34.3769168019
 10
-81.1253152125
 20
-34.3711990763
 10
-81.136302651
 20
-34.364835042
 10
-81.147133653
 20
-34.3578334032
 10
-81.157793405
 20
-34.3502037359
 10
-81.1682673278
 20
-34.341956475
 10
-81.1785410963
 20
-34.3331029002
 10
-81.1886006594
 20
-34.3236551205
 10
-81.1984322585
 20
-34.3136260574
 10
-81.2080224473
 20
-34.3030294276
 10
-81.2173581093
 20
-34.2918797239
 10
-81.2264264762
 20
-34.2801921956
 10
-81.2352151454
 20
-34.2679828276
 10
-81.2437120967
 20
-34.2552683186
 10
-81.2519057089
 20
-34.2420660579
 10
-81.2597847758
 20
-34.2283941021
 10
-81.2673385212
 20
-34.2142711502
 10
-81.2745566141
 20
-34.199716518
 10
-81.2814291822
 20
-34.1847501116
 10
-81.2879468261
 20
-34.1693924004
 10
-81.2941006317
 20
-34.1536643889
 10
-81.2998821825
 20
-34.1375875881
 10
-81.3052835711
 20
-34.1211839861
 10
-81.3102974102
 20
-34.1044760178
 10
-81.3149168424
 20
-34.0874865345
 10
-81.3191355497
 20
-34.0702387725
 10
-81.3229477623
 20
-34.0527563214
 10
-81.3263482662
 20
-34.0350630916
 10
-81.3293324107
 20
-34.017183282
 10
-81.3318961143
 20
-33.9991413465
 10
-81.3340358708
 20
-33.9809619609
 10
-81.3357487535
 20
-33.9626699888
 10
-81.3370324198
 20
-33.944290448
 10
-81.3378851141
 20
-33.9258484759
 10
-81.3383056702
 20
-33.9073692953
  0
LWPOLYLINE
  5
24D
100
AcDbEntity
  8
ASSI
100
AcDbPolyline
 62
250
  6
CONTINUOUS
 90
43
 70
0
 10
-75.0503479815
 20
-34.3986430921
 10
-75.0613084576
 20
-34.3983011704
 10
-75.0722539432
 20
-34.3972758729
 10
-75.0831694684
 20
-34.395568602
 10
-75.094040104
 20
-34.3931816926
 10
-75.1048509825
 20
-34.3901184092
 10
-75.1155873179
 20
-34.3863829416
 10
-75.1262344264
 20
-34.3819803985
 10
-75.136777746
 20
-34.3769168015
 10
-75.1472028567
 20
-34.3711990757
 10
-75.1574955003
 20
-34.3648350414
 10
-75.1676415996
 20
-34.3578334025
 10
-75.177627278
 20
-34.350203735
 10
-75.1874388782
 20
-34.3419564741
 10
-75.197062981
 20
-34.3331028992
 10
-75.2064864237
 20
-34.3236551194
 10
-75.2156963178
 20
-34.3136260562
 10
-75.2246800672
 20
-34.3030294263
 10
-75.2334253849
 20
-34.2918797225
 10
-75.24192031
 20
-34.2801921942
 10
-75.2501532242
 20
-34.2679828262
 10
-75.2581128674
 20
-34.2552683171
 10
-75.2657883533
 20
-34.2420660564
 10
-75.2731691843
 20
-34.2283941006
 10
-75.2802452656
 20
-34.2142711487
 10
-75.2870069194
 20
-34.1997165165
 10
-75.293444898
 20
-34.1847501101
 10
-75.2995503961
 20
-34.1693923989
 10
-75.3053150633
 20
-34.1536643874
 10
-75.3107310154
 20
-34.1375875867
 10
-75.315790845
 20
-34.1211839847
 10
-75.320487632
 20
-34.1044760165
 10
-75.3248149525
 20
-34.0874865333
 10
-75.3287668881
 20
-34.0702387714
 10
-75.3323380339
 20
-34.0527563204
 10
-75.3355235056
 20
-34.0350630907
 10
-75.3383189465
 20
-34.0171832812
 10
-75.3407205333
 20
-33.9991413458
 10
-75.3427249813
 20
-33.9809619603
 10
-75.3443295493
 20
-33.9626699884
 10
-75.3455320424
 20
-33.9442904477
 10
-75.3463308163
 20
-33.9258484757
 10
-75.3467247783
 20
-33.9073692953
  0
LWPOLYLINE
  5
24E
100
AcDbEntity
  8
0
100
AcDbPolyline
 62
7
  6
CONTINUOUS
 90
8
 70
0
 43
0.3500000006
 10
-98.3443697205
 20
-3.4772140617
 10
-98.3443697205
 20
-2.6200715904
 10
-98.7729386902
 20
-2.1915003548
 10
-99.6300766296
 20
-2.1915003548
 10
-100.0586546631
 20
-2.6200715904
 10
-100.0586546631
 20
-3.4772140617
 10
-101.344370636
 20
-3.4772140617
 10
-101.344370636
 20
-2.1915003548
  0
LWPOLYLINE
  5
24F
100
AcDbEntity
  8
0
100
AcDbPolyline
 62
7
  6
CONTINUOUS
 90
10
 70
0
 43
0.3500000006
 10
-101.344370636
 20
-4.7629289017
 10
-100.7015081177
 20
-5.4057857552
 10
-99.8443701782
 20
-5.8343569908
 10
-98.7729386902
 20
-5.8343569908
 10
-98.3443697205
 20
-5.4057857552
 10
-98.3443697205
 20
-4.7629289017
 10
-98.7729386902
 20
-4.334357666
 10
-99.6300766296
 20
-4.334357666
 10
-100.0586546631
 20
-4.7629289017
 10
-100.0586546631
 20
-5.6915002899
  0
LWPOLYLINE
  5
250
100
AcDbEntity
  8
ASSI
100
AcDbPolyline
 62
250
  6
CONTINUOUS
 90
112
 70
0
 10
-72.2921299718
 20
22.1179359884
 10
-72.4842508054
 20
22.050883431
 10
-72.675029215
 20
21.9809835785
 10
-72.8644694079
 20
21.9082355382
 10
-73.0527315543
 20
21.8325836368
 10
-73.2396641253
 20
21.7540816489
 10
-73.4248065663
 20
21.6728928631
 10
-73.6081315262
 20
21.5890093748
 10
-73.7896824328
 20
21.5024371328
 10
-73.9691095684
 20
21.4133602941
 10
-74.1463676134
 20
21.3217910208
 10
-74.3215238309
 20
21.2277151905
 10
-74.4944003705
 20
21.1312776318
 10
-74.6649978297
 20
21.032474733
 10
-74.8333412452
 20
20.9313081361
 10
-74.9992910914
 20
20.8279306518
 10
-75.1628476891
 20
20.7223421451
 10
-75.3240393979
 20
20.6145408146
 10
-75.4827697847
 20
20.5046770877
 10
-75.6390329461
 20
20.3927601881
 10
-75.7928655663
 20
20.2787790172
 10
-75.9442353841
 20
20.1628536318
 10
-76.093144442
 20
20.0449930216
 10
-76.2396223187
 20
19.9251863747
 10
-76.3836776807
 20
19.8035241377
 10
-76.5253226656
 20
19.6800099716
 10
-76.6645766844
 20
19.5546384313
 10
-76.8014586302
 20
19.4274863809
 10
-76.9359801276
 20
19.2985593235
 10
-77.0681605366
 20
19.1678500119
 10
-77.1980295612
 20
19.0354162478
 10
-77.3256032055
 20
18.9012597148
 10
-77.4508953794
 20
18.7653770136
 10
-77.5739318313
 20
18.6278183751
 10
-77.6947397721
 20
18.4885696437
 10
-77.8133205113
 20
18.3476432832
 10
-77.9296603333
 20
18.2051295297
 10
-78.0437786668
 20
18.0610178049
 10
-78.1556832807
 20
17.9153170818
 10
-78.2653425652
 20
17.7681470426
 10
-78.3727607495
 20
17.6195163517
 10
-78.4779592419
 20
17.4694148778
 10
-78.580931681
 20
17.3179342344
 10
-78.6816777992
 20
17.1650947353
 10
-78.7802212971
 20
17.0108747115
 10
-78.8765909464
 20
16.8553028754
 10
-78.9708066951
 20
16.6983676283
 10
-79.0628691724
 20
16.5400792378
 10
-79.1527773121
 20
16.3804992723
 10
-79.2405484909
 20
16.2196121268
 10
-79.3261830602
 20
16.0574321553
 10
-79.4096537307
 20
15.8940659718
 10
-79.4909672135
 20
15.7295121556
 10
-79.5701315504
 20
15.5637710247
 10
-79.6471207886
 20
15.3969519393
 10
-79.7219382443
 20
15.2290587001
 10
-79.7945920185
 20
15.0600865567
 10
-79.8650625858
 20
14.8901321758
 10
-79.9333527188
 20
14.7191991359
 10
-79.9994673742
 20
14.5472830467
 10
-80.0633894655
 20
14.3744687406
 10
-80.1251278126
 20
14.2007348785
 10
-80.1846773153
 20
14.0261021023
 10
-80.2419991922
 20
13.8507183664
 10
-80.297093768
 20
13.6745728446
 10
-80.3499603661
 20
13.4976758748
 10
-80.4005579747
 20
13.3202073676
 10
-80.4488786654
 20
13.1421788426
 10
-80.4949258269
 20
12.9635785431
 10
-80.5386746823
 20
12.7845516705
 10
-80.5801229157
 20
12.6050770792
 10
-80.6192638462
 20
12.4251758588
 10
-80.6560654973
 20
12.2450567835
 10
-80.6905190538
 20
12.0647034991
 10
-80.7226200831
 20
11.884132571
 10
-80.752342847
 20
11.7036024363
 10
-80.7796719337
 20
11.5231175282
 10
-80.8046056418
 20
11.3426739449
 10
-80.8271387905
 20
11.1625179203
 10
-80.8472550699
 20
10.9826525438
 10
-80.8649501523
 20
10.8030755361
 10
-80.8802371541
 20
10.6240253552
 10
-80.8930985874
 20
10.4455106
 10
-80.9035283283
 20
10.2675237336
 10
-80.9115572295
 20
10.0902792587
 10
-80.9171687195
 20
9.9138106238
 10
-80.9203534101
 20
9.7380856527
 10
-80.9211536888
 20
9.5632205814
 10
-80.9195572683
 20
9.3892434931
 10
-80.9155481046
 20
9.2161276521
 10
-80.909163378
 20
9.0439071325
 10
-80.90038681
 20
8.8725472982
 10
-80.889203542
 20
8.7020840949
 10
-80.8756536105
 20
8.5326575442
 10
-80.8597206368
 20
8.3642811655
 10
-80.8413886452
 20
8.1969428491
 10
-80.8206995304
 20
8.0307442772
 10
-80.7976422346
 20
7.8657161338
 10
-80.7721944544
 20
7.7018291841
 10
-80.7443820149
 20
7.5390952687
 10
-80.7141882885
 20
7.3775041758
 10
-80.6815946468
 20
7.2170674987
 10
-80.6466244431
 20
7.0578297938
 10
-80.6092605354
 20
6.8997893784
 10
-80.5694836569
 20
6.7429492936
 10
-80.5273147601
 20
6.5873612064
 10
-80.48273428
 20
6.4330203957
 10
-80.4357245503
 20
6.2799329176
 10
-80.3863104198
 20
6.1281666367
 10
-80.3344880911
 20
5.9777446277
 10
-80.280224184
 20
5.8286451451
 10
-80.2234996027
 20
5.6808688333
  0
LINE
  5
251
100
AcDbEntity
  8
ASSI
100
AcDbLine
 62
7
  6
CONTINUOUS
 10
-89.311442408
 20
-33.9073692953
 11
-89.5943667763
 21
-17.6986430921
  0
LWPOLYLINE
  5
252
100
AcDbEntity
  8
ASSI
100
AcDbPolyline
 62
250
  6
CONTINUOUS
 90
109
 70
0
 10
-71.9466999503
 20
21.2026522609
 10
-72.1296177308
 20
21.1391812191
 10
-72.3112645448
 20
21.0729825812
 10
-72.4916403924
 20
21.0040400502
 10
-72.6708929347
 20
20.932266651
 10
-72.8488745105
 20
20.8577153427
 10
-73.0251421362
 20
20.7805807732
 10
-73.1996551028
 20
20.700842501
 10
-73.3724541194
 20
20.6184888286
 10
-73.5432183288
 20
20.5337305665
 10
-73.7118897038
 20
20.4465682705
 10
-73.8785262718
 20
20.356972279
 10
-74.0429812569
 20
20.2651112512
 10
-74.2052421941
 20
20.1709711634
 10
-74.3653215486
 20
20.0745399752
 10
-74.5231099405
 20
19.9759924348
 10
-74.6785912072
 20
19.8753216162
 10
-74.8317815113
 20
19.7725122679
 10
-74.9826199612
 20
19.6677298737
 10
-75.131084428
 20
19.5609787929
 10
-75.2771970407
 20
19.4522367032
 10
-75.4209632936
 20
19.3416319759
 10
-75.5623709367
 20
19.2291690008
 10
-75.7014322201
 20
19.1148292791
 10
-75.8381893895
 20
18.9987092159
 10
-75.9726402416
 20
18.8808093953
 10
-76.1047869797
 20
18.761118659
 10
-76.2346784588
 20
18.6397177808
 10
-76.362311575
 20
18.5166114161
 10
-76.4876894323
 20
18.3917878283
 10
-76.6108701983
 20
18.2653048714
 10
-76.7318579638
 20
18.1371622143
 10
-76.850648638
 20
18.0073563491
 10
-76.9672881155
 20
17.8759418204
 10
-77.0817917066
 20
17.7429037707
 10
-77.194144101
 20
17.6082565008
 10
-77.3043452622
 20
17.4720999971
 10
-77.4123973695
 20
17.3344329175
 10
-77.5182982436
 20
17.1952601079
 10
-77.6220413093
 20
17.0546928278
 10
-77.7236155857
 20
16.9127519312
 10
-77.8230320537
 20
16.7694241978
 10
-77.9203170815
 20
16.6247714302
 10
-78.0154629267
 20
16.4788189363
 10
-78.1084773316
 20
16.3315524306
 10
-78.1994098914
 20
16.1829753238
 10
-78.2882794792
 20
16.0330703524
 10
-78.375067222
 20
15.8818685109
 10
-78.4597660949
 20
15.7294466199
 10
-78.5423789658
 20
15.5758103282
 10
-78.6229029669
 20
15.4209713413
 10
-78.7013224704
 20
15.2650168769
 10
-78.7776377495
 20
15.1079591241
 10
-78.851848531
 20
14.9498067334
 10
-78.923938367
 20
14.7906428186
 10
-78.9939060135
 20
14.630486907
 10
-79.0617527145
 20
14.4693435565
 10
-79.1274657533
 20
14.3072744285
 10
-79.1910482919
 20
14.1442918557
 10
-79.2524971684
 20
13.9804105281
 10
-79.3117901807
 20
13.8156964924
 10
-79.368938975
 20
13.650130781
 10
-79.4239319051
 20
13.483762182
 10
-79.4767118298
 20
13.3167591685
 10
-79.527270853
 20
13.1491598033
 10
-79.5756168708
 20
12.9809583996
 10
-79.6217164303
 20
12.812258378
 10
-79.6655727576
 20
12.6430640389
 10
-79.7071826265
 20
12.4734054012
 10
-79.7465029054
 20
12.3034247303
 10
-79.7835358935
 20
12.1331150668
 10
-79.8182792916
 20
11.9625190374
 10
-79.8506830699
 20
11.7918530336
 10
-79.8807418642
 20
11.6211356154
 10
-79.9084610386
 20
11.4503840211
 10
-79.9338066555
 20
11.2798117629
 10
-79.9567732875
 20
11.1094385426
 10
-79.977366362
 20
10.9392794985
 10
-79.9955682227
 20
10.7695398851
 10
-80.0113736716
 20
10.6002371845
 10
-80.0247879068
 20
10.4313867645
 10
-80.0358088661
 20
10.2631888113
 10
-80.0444318052
 20
10.0956829524
 10
-80.0506614685
 20
9.9288593253
 10
-80.0545100272
 20
9.7628419393
 10
-80.0559787468
 20
9.597685049
 10
-80.0550663618
 20
9.4333611108
 10
-80.0517812472
 20
9.2698704153
 10
-80.0461243145
 20
9.1071889281
 10
-80.0380946522
 20
8.9453661185
 10
-80.0276979001
 20
8.784511429
 10
-80.0149329495
 20
8.624639257
 10
-79.9998009091
 20
8.4657570501
 10
-79.982310744
 20
8.3079618272
 10
-79.9624677459
 20
8.1512941767
 10
-79.9402666232
 20
7.9957315501
 10
-79.9157004652
 20
7.8412750298
 10
-79.8887711989
 20
7.6879234338
 10
-79.8594768975
 20
7.5356941658
 10
-79.8278048692
 20
7.3846155071
 10
-79.7937563989
 20
7.2346902656
 10
-79.7573302018
 20
7.0859292569
 10
-79.7185097321
 20
6.938371667
 10
-79.6772929495
 20
6.7920128589
 10
-79.6336818942
 20
6.6468682803
 10
-79.5876661412
 20
6.5030056098
 10
-79.5392422154
 20
6.3604494373
 10
-79.4884135918
 20
6.2191820891
 10
-79.4351802705
 20
6.0792065613
  0
LWPOLYLINE
  5
253
100
AcDbEntity
  8
ASSI
100
AcDbPolyline
 62
7
  6
CONTINUOUS
 90
5
 70
0
 10
-53.4922075564
 20
-17.6838058536
 10
-53.5370195598
 20
-17.6903178198
 10
-53.5818398021
 20
-17.6949802216
 10
-53.6266252608
 20
-17.6977553124
 10
-53.6713756821
 20
-17.6986430921
  0
LINE
  5
254
100
AcDbEntity
  8
0
100
AcDbLine
 62
7
  6
CONTINUOUS
 10
-60.4443667763
 20
-19.0986430921
 11
-74.7443667763
 21
-19.0986898039
  0
LINE
  5
255
100
AcDbEntity
  8
0
100
AcDbLine
 62
7
  6
CONTINUOUS
 10
-74.7443667763
 20
-17.7488954154
 11
-74.6443667763
 21
-17.7488954154
  0
LINE
  5
256
100
AcDbEntity
  8
0
100
AcDbLine
 62
7
  6
CONTINUOUS
 10
-60.5443667763
 20
-17.7488954154
 11
-60.4443667763
 21
-17.7488954154
  0
LINE
  5
257
100
AcDbEntity
  8
0
100
AcDbLine
 62
7
  6
CONTINUOUS
 10
-74.7443667763
 20
-17.7317393816
 11
-74.6443667763
 21
-17.7317393816
  0
LINE
  5
258
100
AcDbEntity
  8
0
100
AcDbLine
 62
7
  6
CONTINUOUS
 10
-60.5443667763
 20
-17.7317393816
 11
-60.4443667763
 21
-17.7317393816
  0
LINE
  5
259
100
AcDbEntity
  8
ASSI
100
AcDbLine
 62
7
  6
CONTINUOUS
 10
-45.5943667763
 20
-17.6986430921
 11
-60.5187338514
 21
-17.6986430921
  0
LINE
  5
25A
100
AcDbEntity
  8
ASSI
100
AcDbLine
 62
7
  6
CONTINUOUS
 10
-74.6699997012
 20
-17.6986430921
 11
-89.5943667763
 21
-17.6986430921
  0
LINE
  5
25B
100
AcDbEntity
  8
0
100
AcDbLine
 62
7
  6
CONTINUOUS
 10
-60.5187338468
 20
-17.6986430921
 11
-74.6699997058
 21
-17.6986430921
  0
LINE
  5
25C
100
AcDbEntity
  8
0
100
AcDbLine
 62
7
  6
CONTINUOUS
 10
-74.6443667763
 20
-17.148113237
 11
-60.5443667763
 21
-17.148113237
  0
LWPOLYLINE
  5
25D
100
AcDbEntity
  8
ASSI
100
AcDbPolyline
 62
7
  6
CONTINUOUS
 90
135
 70
0
 10
-81.5173589437
 20
-17.6986430921
 10
-81.562050778
 20
-17.6977575973
 10
-81.6067777971
 20
-17.6949897259
 10
-81.6515397481
 20
-17.690339478
 10
-81.6962932817
 20
-17.6838446443
 10
-81.7410812681
 20
-17.675467434
 10
-81.7860326439
 20
-17.6650944748
 10
-81.8311481412
 20
-17.6527528869
 10
-81.8764262321
 20
-17.63841555
 10
-81.9219921742
 20
-17.6218877312
 10
-81.9678467442
 20
-17.6031994628
 10
-82.0139880479
 20
-17.5823207125
 10
-82.0605370226
 20
-17.5589666504
 10
-82.1074944649
 20
-17.5331717987
 10
-82.1548580952
 20
-17.5049016353
 10
-82.2027438902
 20
-17.4737677629
 10
-82.2511613856
 20
-17.4398025165
 10
-82.300099134
 20
-17.4029735613
 10
-82.3496412851
 20
-17.3627954952
 10
-82.399799467
 20
-17.3192993579
 10
-82.4505597138
 20
-17.2724541097
 10
-82.5019674639
 20
-17.2216812305
 10
-82.5540238691
 20
-17.1670273947
 10
-82.6067250467
 20
-17.1084459279
 10
-82.6601085652
 20
-17.0452182862
 10
-82.7141816355
 20
-16.9773963385
 10
-82.7689338439
 20
-16.9049282159
 10
-82.824375984
 20
-16.8269397678
 10
-82.88054095
 20
-16.7434470414
 10
-82.9373921263
 20
-16.6544339894
 10
-82.9948358378
 20
-16.5589783192
 10
-83.0529065945
 20
-16.4570735204
 10
-83.1115659258
 20
-16.3487261035
 10
-83.1706107931
 20
-16.2330333068
 10
-83.2300544363
 20
-16.1100185717
 10
-83.289879817
 20
-15.9796584568
 10
-83.3498388436
 20
-15.8409798763
 10
-83.409944759
 20
-15.6940181204
 10
-83.4701808562
 20
-15.5387378989
 10
-83.5302546413
 20
-15.3740602548
 10
-83.5901831249
 20
-15.2000347239
 10
-83.6499463629
 20
-15.0166117704
 10
-83.7091971233
 20
-14.8225638303
 10
-83.7679620003
 20
-14.617947019
 10
-83.8262122222
 20
-14.4027052211
 10
-83.8835184412
 20
-14.175442527
 10
-83.9399097104
 20
-13.9362833648
 10
-83.9953559055
 20
-13.6851033064
 10
-84.0493401091
 20
-13.4201331587
 10
-84.1019362508
 20
-13.1413557461
 10
-84.1530706372
 20
-12.8487882442
 10
-84.2020066712
 20
-12.5407129867
 10
-84.2488686084
 20
-12.2164480176
 10
-84.2935345697
 20
-11.8766752929
 10
-84.3349019684
 20
-11.5217230143
 10
-84.3729773746
 20
-11.1509387201
 10
-84.4077609263
 20
-10.764974872
 10
-84.4381447369
 20
-10.3661170566
 10
-84.4640427207
 20
-9.9541496948
 10
-84.4855517696
 20
-9.5292883656
 10
-84.5018421566
 20
-9.0944653926
 10
-84.5128167996
 20
-8.6494602716
 10
-84.5185852225
 20
-8.1944935068
 10
-84.518629712
 20
-7.7331589334
 10
-84.5128297354
 20
-7.2651785352
 10
-84.5013173764
 20
-6.7908303284
 10
-84.4839543669
 20
-6.3145421974
 10
-84.460597109
 20
-5.8361818226
 10
-84.4313975314
 20
-5.3558815237
 10
-84.3966598478
 20
-4.8784661435
 10
-84.3562188001
 20
-4.4038404248
 10
-84.3102431511
 20
-3.9320996248
 10
-84.2595366338
 20
-3.468354358
 10
-84.2038917762
 20
-3.0124808609
 10
-84.1435144743
 20
-2.564602897
 10
-84.0798272186
 20
-2.1302023713
 10
-84.0127581339
 20
-1.7099921919
 10
-83.9423738123
 20
-1.3032594507
 10
-83.8703043578
 20
-0.9133473289
 10
-83.7967456968
 20
-0.5415830873
 10
-83.7214957194
 20
-0.1866394652
 10
-83.6455886989
 20
0.152122139
 10
-83.5692050234
 20
0.4741892656
 10
-83.4921590426
 20
0.7800743742
 10
-83.4149375495
 20
1.0719534444
 10
-83.3375815405
 20
1.3499747548
 10
-83.2600458577
 20
1.6139900269
 10
-83.1826894293
 20
1.8657304042
 10
-83.1055274358
 20
2.1053241942
 10
-83.028541635
 20
2.3326430894
 10
-82.9520420157
 20
2.5490333119
 10
-82.8760586171
 20
2.7545267929
 10
-82.8005594302
 20
2.949091601
 10
-82.7257623946
 20
3.1339781638
 10
-82.6516847341
 20
3.3092324895
 10
-82.5783081704
 20
3.4748085698
 10
-82.5057982255
 20
3.6318188072
 10
-82.4341648727
 20
3.7803061811
 10
-82.3633978514
 20
3.9202277121
 10
-82.293633027
 20
4.0525668652
 10
-82.2248785904
 20
4.1773556557
 10
-82.1571267094
 20
4.2945620683
 10
-82.0904897974
 20
4.4050735221
 10
-82.0249846373
 20
4.5089030389
 10
-81.9605953412
 20
4.6060375969
 10
-81.8973857735
 20
4.6973255503
 10
-81.8353900647
 20
4.7827648474
 10
-81.7745753552
 20
4.8623575399
 10
-81.7149052802
 20
4.9369581374
 10
-81.6564062841
 20
5.0065888924
 10
-81.5990532905
 20
5.0712275524
 10
-81.5427326879
 20
5.1316618698
 10
-81.4874508127
 20
5.1879380078
 10
-81.4332025862
 20
5.2400098032
 10
-81.3798571778
 20
5.288526519
 10
-81.3274106298
 20
5.3335349921
 10
-81.2758679897
 20
5.3749883857
 10
-81.2251118039
 20
5.4133954522
 10
-81.1751377422
 20
5.4487930394
 10
-81.125951069
 20
5.4811442995
 10
-81.0774485965
 20
5.5108474415
 10
-81.029637874
 20
5.5379275349
 10
-80.9825121524
 20
5.56235951
 10
-80.9359466485
 20
5.5844663667
 10
-80.8899485118
 20
5.604274588
 10
-80.8445112051
 20
5.6217576909
 10
-80.7994892149
 20
5.6371592251
 10
-80.7548816081
 20
5.650508143
 10
-80.7106896943
 20
5.6617754924
 10
-80.6667710968
 20
5.6711179665
 10
-80.6231240556
 20
5.678562363
 10
-80.5797504736
 20
5.6840818843
 10
-80.536513235
 20
5.6877528306
 10
-80.4934116502
 20
5.6896007159
 10
-80.4504463172
 20
5.6896000262
  0
LINE
  5
25E
100
AcDbEntity
  8
ASSI
100
AcDbLine
 62
250
  6
CONTINUOUS
 10
-81.5173581032
 20
-17.6986430921
 11
-81.3383056702
 21
-33.9073692953
  0
LWPOLYLINE
  5
25F
100
AcDbEntity
  8
ASSI
100
AcDbPolyline
 62
7
  6
CONTINUOUS
 90
25
 70
0
 10
-80.2234988023
 20
5.6808692887
 10
-80.1959209548
 20
5.7005170118
 10
-80.167689119
 20
5.7200134624
 10
-80.1388277921
 20
5.7393423531
 10
-80.1093622641
 20
5.7584881493
 10
-80.0793178614
 20
5.7774343479
 10
-80.048719928
 20
5.7961635111
 10
-80.0175950606
 20
5.8146602786
 10
-79.985970247
 20
5.8329092782
 10
-79.9538721183
 20
5.8508934422
 10
-79.9213286022
 20
5.8685981659
 10
-79.8883679212
 20
5.8860088789
 10
-79.8550177486
 20
5.9031090195
 10
-79.82130712
 20
5.9198848649
 10
-79.7872652889
 20
5.9363227593
 10
-79.7529207487
 20
5.9524067577
 10
-79.7183034251
 20
5.968124138
 10
-79.6834433772
 20
5.9834622618
 10
-79.6483696821
 20
5.9984058849
 10
-79.6131128573
 20
6.0129432194
 10
-79.5777036102
 20
6.0270629143
 10
-79.5421715713
 20
6.0407510018
 10
-79.5065472967
 20
6.05399592
 10
-79.4708622277
 20
6.0667884912
 10
-79.4351474616
 20
6.0791189556
  0
LWPOLYLINE
  5
260
100
AcDbEntity
  8
ASSI
100
AcDbPolyline
 62
7
  6
CONTINUOUS
 90
16
 70
0
 10
-80.2234996027
 20
5.6808688333
 10
-80.2260922729
 20
5.6790553903
 10
-80.2288633172
 20
5.6773709824
 10
-80.2318126636
 20
5.6758156102
 10
-80.2349514113
 20
5.6743696245
 10
-80.2382682946
 20
5.6730526755
 10
-80.241729693
 20
5.6719237128
 10
-80.2453322863
 20
5.6709942332
 10
-80.2490792131
 20
5.6702527411
 10
-80.252946552
 20
5.6697236971
 10
-80.2569316005
 20
5.669413312
 10
-80.2610368684
 20
5.6693153755
 10
-80.2652462656
 20
5.6694357173
 10
-80.2695543656
 20
5.6697762802
 10
-80.2739663956
 20
5.6703351212
 10
-80.3214642778
 20
5.678504898
  0
LWPOLYLINE
  5
261
100
AcDbEntity
  8
0
100
AcDbPolyline
 62
7
  6
CONTINUOUS
 90
10
 70
0
 43
0.3500000006
 10
-98.844369873
 20
-0.69150103
 10
-98.7015075073
 20
-0.620072113
 10
-98.6300853882
 20
-0.620072113
 10
-98.4872230225
 20
-0.762927681
 10
-98.4872230225
 20
-0.8343565979
 10
-98.5586542053
 20
-0.9057855148
 10
-98.6300853882
 20
-0.9057855148
 10
-98.7729386902
 20
-0.8343565979
 10
-98.844369873
 20
-0.762927681
 10
-98.844369873
 20
-0.69150103
  0
LINE
  5
262
100
AcDbEntity
  8
0
100
AcDbLine
 62
7
  6
CONTINUOUS
 10
-74.6443667763
 20
-17.1318307645
 11
-60.5443667763
 21
-17.1318307645
  0
LINE
  5
263
100
AcDbEntity
  8
0
100
AcDbLine
 62
7
  6
CONTINUOUS
 10
-74.4894231047
 20
-17.1011986016
 11
-60.6993120541
 21
-17.1011986016
  0
LINE
  5
264
100
AcDbEntity
  8
ASSI
100
AcDbLine
 62
250
  6
CONTINUOUS
 10
-75.438930191
 20
-17.6986430921
 11
-75.3467247783
 21
-33.9073692953
  0
LINE
  5
265
100
AcDbEntity
  8
ASSI
100
AcDbLine
 62
7
  6
CONTINUOUS
 10
-74.8633757763
 20
8.6999559079
 11
-73.9237957763
 21
11.6264419079
  0
LINE
  5
266
100
AcDbEntity
  8
ASSI
100
AcDbLine
 62
7
  6
CONTINUOUS
 10
-74.4383547763
 20
7.3762509079
 11
-73.0737537763
 21
11.6264419079
  0
LWPOLYLINE
  5
267
100
AcDbEntity
  8
ASSI
100
AcDbPolyline
 62
7
  6
CONTINUOUS
 90
55
 70
0
 10
-64.0239567763
 20
-10.9574339329
 10
-64.0731273167
 20
-10.9638166754
 10
-64.1223803496
 20
-10.9688321162
 10
-64.1717158751
 20
-10.9724802554
 10
-64.2211719712
 20
-10.9747617954
 10
-64.27071056
 20
-10.9756760338
 10
-64.3202174072
 20
-10.975220863
 10
-64.369692442
 20
-10.9733931227
 10
-64.4191357353
 20
-10.9701959731
 10
-64.4684332657
 20
-10.9656367873
 10
-64.5175846968
 20
-10.9597124217
 10
-64.566590365
 20
-10.9524260198
 10
-64.6153372581
 20
-10.9437943849
 10
-64.6638247789
 20
-10.9338144122
 10
-64.7120535246
 20
-10.9224892064
 10
-64.7599122747
 20
-10.9098448846
 10
-64.8074001753
 20
-10.8958784025
 10
-64.8545180802
 20
-10.8805928044
 10
-64.9011573308
 20
-10.8640233405
 10
-64.9473168222
 20
-10.8461670477
 10
-64.9929976593
 20
-10.8270268892
 10
-65.0380944971
 20
-10.8066470041
 10
-65.0826059879
 20
-10.7850245312
 10
-65.1265334796
 20
-10.7621623318
 10
-65.1697756706
 20
-10.7381131283
 10
-65.2123309795
 20
-10.7128741814
 10
-65.2542009878
 20
-10.6864482306
 10
-65.295289139
 20
-10.6588962167
 10
-65.3355936285
 20
-10.6302155411
 10
-65.3751162608
 20
-10.6004088024
 10
-65.4137658926
 20
-10.5695447383
 10
-65.4515405091
 20
-10.5376209084
 10
-65.4884421252
 20
-10.504639753
 10
-65.5243856417
 20
-10.4706773301
 10
-65.5593688476
 20
-10.435731375
 10
-65.593393954
 20
-10.3998041523
 10
-65.6263824954
 20
-10.3629785141
 10
-65.6583320797
 20
-10.3252523867
 10
-65.6892450991
 20
-10.2866278438
 10
-65.7190502648
 20
-10.2471939575
 10
-65.7477450202
 20
-10.2069488599
 10
-65.775331922
 20
-10.1658944189
 10
-65.801747352
 20
-10.1241253104
 10
-65.8269886065
 20
-10.0816398849
 10
-65.8510583891
 20
-10.0384397919
 10
-65.8739011924
 20
-9.9946246552
 10
-65.8955141848
 20
-9.9501930555
 10
-65.9159001978
 20
-9.9051464121
 10
-65.9350122193
 20
-9.8595886074
 10
-65.952847309
 20
-9.8135184615
 10
-65.9694084072
 20
-9.7669371543
 10
-65.9846573221
 20
-9.7199521071
 10
-65.9985813234
 20
-9.672599127
 10
-66.0111931414
 20
-9.6248424069
 10
-66.0224927763
 20
-9.5766819467
  0
LWPOLYLINE
  5
268
100
AcDbEntity
  8
ASSI
100
AcDbPolyline
 62
7
  6
CONTINUOUS
 90
63
 70
0
 10
-68.3589567763
 20
-10.957434379
 10
-68.4083553567
 20
-10.9638434642
 10
-68.4578366682
 20
-10.9688725661
 10
-68.507400711
 20
-10.9725216848
 10
-68.5570860955
 20
-10.9747915106
 10
-68.6068542112
 20
-10.9756813532
 10
-68.6565892267
 20
-10.9751891415
 10
-68.7062910648
 20
-10.9733116563
 10
-68.7559598026
 20
-10.9700521169
 10
-68.8054798399
 20
-10.9654181096
 10
-68.8548508305
 20
-10.9594064328
 10
-68.9040731205
 20
-10.9520202881
 10
-68.953032149
 20
-10.9432768661
 10
-69.0017273026
 20
-10.9331730054
 10
-69.0501591947
 20
-10.9217118675
 10
-69.0982151036
 20
-10.9089201272
 10
-69.1458941537
 20
-10.8947946853
 10
-69.1931972206
 20
-10.8793386411
 10
-69.2400142102
 20
-10.8625879673
 10
-69.2863439901
 20
-10.8445396484
 10
-69.3321876926
 20
-10.8251967
 10
-69.37743862
 20
-10.8046041412
 10
-69.4220953916
 20
-10.7827590615
 10
-69.466159388
 20
-10.7596643714
 10
-69.5095280537
 20
-10.7353738221
 10
-69.5521997691
 20
-10.7098846281
 10
-69.5941761538
 20
-10.6831995749
 10
-69.635359511
 20
-10.65538077
 10
-69.6757479934
 20
-10.6264255725
 10
-69.7153434483
 20
-10.5963366232
 10
-69.7540537203
 20
-10.5651839519
 10
-69.7918767475
 20
-10.5329650808
 10
-69.8288145917
 20
-10.4996824878
 10
-69.864781283
 20
-10.4654136353
 10
-69.8997745593
 20
-10.4301562263
 10
-69.9337966826
 20
-10.3939125579
 10
-69.966768469
 20
-10.3567669845
 10
-69.9986874722
 20
-10.3187174054
 10
-70.0295561384
 20
-10.2797659214
 10
-70.0593026233
 20
-10.2400031889
 10
-70.0879243131
 20
-10.1994273185
 10
-70.1154238216
 20
-10.1580401997
 10
-70.1417371457
 20
-10.1159381579
 10
-70.1668615226
 20
-10.0731195279
 10
-70.1907997151
 20
-10.0295859749
 10
-70.213496009
 20
-9.9854388199
 10
-70.2349475116
 20
-9.9406766336
 10
-70.2551571155
 20
-9.8953008454
 10
-70.2740777845
 20
-9.8494170639
 10
-70.2917065162
 20
-9.8030241058
 10
-70.3080463131
 20
-9.7561231544
 10
-70.3230591453
 20
-9.7088233681
 10
-70.3367419221
 20
-9.6611238179
 10
-70.3490977343
 20
-9.6130254328
 10
-70.3600978247
 20
-9.5646401581
 10
-70.3697390355
 20
-9.5159673256
 10
-70.3780245245
 20
-9.4670076035
 10
-70.3849350079
 20
-9.4178749418
 10
-70.3904672829
 20
-9.3685689377
 10
-70.3946245523
 20
-9.319089994
 10
-70.3973971403
 20
-9.2695532692
 10
-70.3987818217
 20
-9.2199586287
 10
-70.3989569508
 20
-9.1951324179
  0
LINE
  5
269
100
AcDbEntity
  8
ASSI
100
AcDbLine
 62
7
  6
CONTINUOUS
 10
-66.0224927763
 20
-9.5766819467
 11
-64.5339567763
 21
-9.5766819467
  0
LWPOLYLINE
  5
26A
100
AcDbEntity
  8
0
100
AcDbPolyline
 62
7
  6
CONTINUOUS
 90
3
 70
0
 43
0.3500000006
 10
-98.6300853882
 20
-0.620072113
 10
-98.4157918396
 20
-0.69150103
 10
-98.1300852356
 20
-0.8343565979
  0
LINE
  5
26B
100
AcDbEntity
  8
0
100
AcDbLine
 62
7
  6
CONTINUOUS
 10
-60.6993120541
 20
-17.1011986016
 11
-60.6839673694
 21
-17.1137066019
  0
LWPOLYLINE
  5
26C
100
AcDbEntity
  8
ASSI
100
AcDbPolyline
 62
250
  6
CONTINUOUS
 90
37
 70
0
 10
-80.2784560228
 20
5.6711088623
 10
-80.1956511268
 20
5.495647612
 10
-80.1098341092
 20
5.3203407529
 10
-80.0209984941
 20
5.1451882849
 10
-79.9291814907
 20
4.9701771555
 10
-79.8343324953
 20
4.7953204173
 10
-79.7363127518
 20
4.6206572277
 10
-79.6351119701
 20
4.4461739559
 10
-79.5307253075
 20
4.2718842326
 10
-79.4230213016
 20
4.0978681076
 10
-79.3119975845
 20
3.9241285035
 10
-79.1976396911
 20
3.7506624976
 10
-79.0797970558
 20
3.5775413719
 10
-78.9584687726
 20
3.4047685462
 10
-78.8336369839
 20
3.2323406006
 10
-78.7051245434
 20
3.0603185579
 10
-78.5729192158
 20
2.8886915255
 10
-78.4370122193
 20
2.7174703959
 10
-78.2972303021
 20
2.5467488692
 10
-78.1535570106
 20
2.3765154254
 10
-78.005985443
 20
2.2067815845
 10
-77.8543553942
 20
2.0376756065
 10
-77.6986681595
 20
1.8692065245
 10
-77.5388967899
 20
1.7013653056
 10
-77.3748372592
 20
1.5342531101
 10
-77.2065045372
 20
1.3678866139
 10
-77.033855238
 20
1.2022491412
 10
-76.8565957471
 20
1.0373918257
 10
-76.6747169206
 20
0.8733048784
 10
-76.4881957074
 20
0.7099980882
 10
-76.2967150162
 20
0.5475519556
 10
-76.1002528743
 20
0.3859443418
 10
-75.8987948582
 20
0.2251973857
 10
-75.6920324172
 20
0.0654580045
 10
-75.4798486184
 20
-0.0932248293
 10
-75.2623194199
 20
-0.2509000881
 10
-75.0394239351
 20
-0.4075677719
  0
LINE
  5
26D
100
AcDbEntity
  8
0
100
AcDbLine
 62
250
  6
CONTINUOUS
 10
-74.6609882246
 20
-19.0986430921
 11
-74.5761451067
 21
-33.9073692953
  0
LINE
  5
26E
100
AcDbEntity
  8
0
100
AcDbLine
 62
7
  6
CONTINUOUS
 10
-74.7443667763
 20
-17.6986430921
 11
-74.7443667763
 21
-19.0986898039
  0
LINE
  5
26F
100
AcDbEntity
  8
0
100
AcDbLine
 62
7
  6
CONTINUOUS
 10
-74.6443667763
 20
-17.7488954154
 11
-74.6443667763
 21
-17.0698177603
  0
LINE
  5
270
100
AcDbEntity
  8
ASSI
100
AcDbLine
 62
250
  6
CONTINUOUS
 10
-74.5761451067
 20
-34.3986430921
 11
-74.5761451067
 21
-33.9073692953
  0
LINE
  5
271
100
AcDbEntity
  8
ASSI
100
AcDbLine
 62
250
  6
CONTINUOUS
 10
-74.268474377
 20
0.4810911546
 11
-74.268474377
 21
-0.4076933547
  0
LINE
  5
272
100
AcDbEntity
  8
ASSI
100
AcDbLine
 62
7
  6
CONTINUOUS
 10
-73.6443667763
 20
28.1768354394
 11
-73.6443667763
 21
29.0029209367
  0
LINE
  5
273
100
AcDbEntity
  8
ASSI
100
AcDbLine
 62
7
  6
CONTINUOUS
 10
-72.8943667763
 20
29.9316297194
 11
-72.8943667763
 21
30.5013569079
  0
LINE
  5
274
100
AcDbEntity
  8
RACCORDO
100
AcDbLine
 62
250
  6
CONTINUOUS
 10
-73.6895916263
 20
-17.1318307645
 11
-73.6893243034
 21
-17.1011986016
  0
LINE
  5
275
100
AcDbEntity
  8
ASSI
100
AcDbLine
 62
250
  6
CONTINUOUS
 10
-75.0394239351
 20
-0.4075677719
 11
-75.438121732
 21
-17.6986430921
  0
LINE
  5
276
100
AcDbEntity
  8
ASSI
100
AcDbLine
 62
250
  6
CONTINUOUS
 10
-74.2684742234
 20
-0.4076933547
 11
-74.6699997058
 21
-17.6986430921
  0
LWPOLYLINE
  5
277
100
AcDbEntity
  8
ASSI
100
AcDbPolyline
 62
250
  6
CONTINUOUS
 90
34
 70
0
 10
-74.268474377
 20
0.4810911546
 10
-74.2957912124
 20
0.4638155884
 10
-74.3230676868
 20
0.4457135269
 10
-74.3502898338
 20
0.4268118605
 10
-74.3774526062
 20
0.4071515373
 10
-74.4045337298
 20
0.3867493188
 10
-74.4314930101
 20
0.3655964431
 10
-74.4583161551
 20
0.3437234434
 10
-74.4849899615
 20
0.3211618494
 10
-74.5114750376
 20
0.2979038001
 10
-74.5377575673
 20
0.2739819416
 10
-74.5638244953
 20
0.2494299285
 10
-74.5896369909
 20
0.2242408234
 10
-74.6151819865
 20
0.1984492477
 10
-74.6404469349
 20
0.172090749
 10
-74.6653934541
 20
0.1451592265
 10
-74.6900095395
 20
0.1176910595
 10
-74.7142834489
 20
0.0897234963
 10
-74.7381771085
 20
0.0612512296
 10
-74.7616798606
 20
0.0323121565
 10
-74.7847810713
 20
0.0029450054
 10
-74.8074428663
 20
-0.0268547659
 10
-74.8296562147
 20
-0.05704806
 10
-74.8514118623
 20
-0.0875948924
 10
-74.8726720201
 20
-0.1184989638
 10
-74.8934295073
 20
-0.1497203287
 10
-74.9136767316
 20
-0.1812180443
 10
-74.9333759662
 20
-0.2129948743
 10
-74.9525221495
 20
-0.2450106191
 10
-74.9711095107
 20
-0.2772235767
 10
-74.9891002134
 20
-0.3096349796
 10
-75.006479486
 20
-0.3422181586
 10
-75.0232556055
 20
-0.3749179737
 10
-75.0394263897
 20
-0.4076933547
  0
LINE
  5
278
100
AcDbEntity
  8
ASSI
100
AcDbLine
 62
7
  6
CONTINUOUS
 10
-64.5339567763
 20
-8.8135828891
 11
-66.0224932364
 21
-8.8135828891
  0
LWPOLYLINE
  5
279
100
AcDbEntity
  8
ASSI
100
AcDbPolyline
 62
7
  6
CONTINUOUS
 90
67
 70
0
 10
-68.3589567763
 20
-6.6642191307
 10
-68.4233368876
 20
-6.6585884216
 10
-68.4877565548
 20
-6.654586895
 10
-68.5522157778
 20
-6.6522145508
 10
-68.6167559048
 20
-6.6514719568
 10
-68.6813355877
 20
-6.6523585452
 10
-68.7458307822
 20
-6.6548726131
 10
-68.8102413261
 20
-6.6590172885
 10
-68.8745673817
 20
-6.6647894435
 10
-68.9386853919
 20
-6.6721779909
 10
-69.002594957
 20
-6.6811860374
 10
-69.0662964767
 20
-6.6918104763
 10
-69.1296675937
 20
-6.7040309003
 10
-69.192707673
 20
-6.7178503768
 10
-69.2554173495
 20
-6.7332658383
 10
-69.3176761709
 20
-6.7502476751
 10
-69.3794832708
 20
-6.7687988975
 10
-69.4408395157
 20
-6.7889164951
 10
-69.5016270529
 20
-6.8105618262
 10
-69.5618447894
 20
-6.8337378269
 10
-69.6214938182
 20
-6.8584415611
 10
-69.680459566
 20
-6.884625578
 10
-69.7387407194
 20
-6.9122927226
 10
-69.7963385918
 20
-6.9414401499
 10
-69.8531425495
 20
-6.9720118737
 10
-69.9091510667
 20
-7.0040106315
 10
-69.9643656692
 20
-7.0374336858
 10
-70.0186803012
 20
-7.0722168378
 10
-70.0720932331
 20
-7.1083627017
 10
-70.1246061945
 20
-7.1458686633
 10
-70.1761183189
 20
-7.1846626815
 10
-70.2266276828
 20
-7.2247472319
 10
-70.2761362097
 20
-7.2661198389
 10
-70.324548804
 20
-7.3087010342
 10
-70.3718633594
 20
-7.3524931409
 10
-70.4180819821
 20
-7.3974938358
 10
-70.4631158959
 20
-7.4436166822
 10
-70.5069628237
 20
-7.4908638367
 10
-70.5496250425
 20
-7.5392331425
 10
-70.5910206071
 20
-7.5886316922
 10
-70.6311470829
 20
-7.6390614642
 10
-70.6700069044
 20
-7.6905204801
 10
-70.7075254301
 20
-7.7429098978
 10
-70.7437000818
 20
-7.7962315056
 10
-70.7785334376
 20
-7.8504835152
 10
-70.8119585899
 20
-7.9055617198
 10
-70.843972832
 20
-7.9614677074
 10
-70.8745788705
 20
-8.0181998899
 10
-70.9037179176
 20
-8.0756492967
 10
-70.9313871537
 20
-8.1338173062
 10
-70.9575893984
 20
-8.1927025399
 10
-70.9822743226
 20
-8.2521918914
 10
-71.0054390099
 20
-8.312286522
 10
-71.0270863768
 20
-8.3729852705
 10
-71.047174843
 20
-8.4341715472
 10
-71.0657014124
 20
-8.495846289
 10
-71.0826690812
 20
-8.5580085591
 10
-71.0980452581
 20
-8.6205389565
 10
-71.111826884
 20
-8.6834381887
 10
-71.124017018
 20
-8.7467055483
 10
-71.1345922453
 20
-8.8102195118
 10
-71.143549462
 20
-8.8739805531
 10
-71.150891772
 20
-8.9379881983
 10
-71.1566050723
 20
-9.0021195019
 10
-71.1606862318
 20
-9.0663747016
 10
-71.1631383816
 20
-9.1307535597
 10
-71.1639568115
 20
-9.1951324179
  0
LWPOLYLINE
  5
27A
100
AcDbEntity
  8
ASSI
100
AcDbPolyline
 62
250
  6
CONTINUOUS
 90
37
 70
0
 10
-79.4351802705
 20
6.0792065613
 10
-79.3529945408
 20
5.9176175235
 10
-79.2678510488
 20
5.7561218118
 10
-79.1797497943
 20
5.5947487468
 10
-79.0887417049
 20
5.4335496158
 10
-78.9947758531
 20
5.2725328617
 10
-78.8976994561
 20
5.1116652983
 10
-78.7975093619
 20
4.9509671753
 10
-78.6942087224
 20
4.7904833509
 10
-78.5876542109
 20
4.630219899
 10
-78.4778529654
 20
4.4702166573
 10
-78.3647978479
 20
4.3105027356
 10
-78.2483241168
 20
4.151070287
 10
-78.1284406006
 20
3.991961614
 10
-78.005138471
 20
3.8332083257
 10
-77.8782265016
 20
3.6747895704
 10
-77.7477037663
 20
3.5167382574
 10
-77.6135711913
 20
3.3591016836
 10
-77.4756403289
 20
3.2018837194
 10
-77.3339081392
 20
3.0451198727
 10
-77.1883776623
 20
2.8888604063
 10
-77.0388695703
 20
2.7331336076
 10
-76.8853994136
 20
2.5779960818
 10
-76.7279516419
 20
2.4234813204
 10
-76.5663002766
 20
2.2695857836
 10
-76.4004750164
 20
2.1163776741
 10
-76.2304461626
 20
1.963885597
 10
-76.055898641
 20
1.8120525546
 10
-75.8768408089
 20
1.6609302408
 10
-75.693264309
 20
1.5105755843
 10
-75.5048289951
 20
1.360947516
 10
-75.3115369669
 20
1.212097231
 10
-75.1133861246
 20
1.0640943671
 10
-74.9100300225
 20
0.9169329681
 10
-74.7013531786
 20
0.7706561334
 10
-74.4874710748
 20
0.6253530758
 10
-74.2683837112
 20
0.4810911546
  0
LWPOLYLINE
  5
27B
100
AcDbEntity
  8
ASSI
100
AcDbPolyline
 62
7
  6
CONTINUOUS
 90
67
 70
0
 10
-71.1639568115
 20
-9.1951324179
 10
-71.1631383816
 20
-9.2595112761
 10
-71.1606862318
 20
-9.3238901342
 10
-71.1566050723
 20
-9.3881453339
 10
-71.150891772
 20
-9.4522766375
 10
-71.143549462
 20
-9.5162842827
 10
-71.1345922453
 20
-9.580045324
 10
-71.124017018
 20
-9.6435592875
 10
-71.111826884
 20
-9.7068266471
 10
-71.0980452581
 20
-9.7697258793
 10
-71.0826690812
 20
-9.8322562767
 10
-71.0657014124
 20
-9.8944185468
 10
-71.047174843
 20
-9.9560932886
 10
-71.0270863768
 20
-10.0172795653
 10
-71.0054390099
 20
-10.0779783138
 10
-70.9822743226
 20
-10.1380729444
 10
-70.9575893984
 20
-10.1975622959
 10
-70.9313871537
 20
-10.2564475296
 10
-70.9037179176
 20
-10.3146155391
 10
-70.8745788705
 20
-10.3720649459
 10
-70.843972832
 20
-10.4287971284
 10
-70.8119585899
 20
-10.484703116
 10
-70.7785334376
 20
-10.5397813206
 10
-70.7437000818
 20
-10.5940333302
 10
-70.7075254301
 20
-10.647354938
 10
-70.6700069044
 20
-10.6997443557
 10
-70.6311470829
 20
-10.7512033716
 10
-70.5910206071
 20
-10.8016331436
 10
-70.5496250425
 20
-10.8510316933
 10
-70.5069628237
 20
-10.8994009991
 10
-70.4631158959
 20
-10.9466481536
 10
-70.4180819821
 20
-10.9927709999
 10
-70.3718633594
 20
-11.0377716949
 10
-70.324548804
 20
-11.0815638016
 10
-70.2761362097
 20
-11.1241449969
 10
-70.2266276828
 20
-11.1655176039
 10
-70.1761183189
 20
-11.2056021543
 10
-70.1246061945
 20
-11.2443961725
 10
-70.0720932331
 20
-11.2819021341
 10
-70.0186803012
 20
-11.318047998
 10
-69.9643656692
 20
-11.35283115
 10
-69.9091510667
 20
-11.3862542043
 10
-69.8531425495
 20
-11.4182529621
 10
-69.7963385918
 20
-11.4488246859
 10
-69.7387407194
 20
-11.4779721132
 10
-69.680459566
 20
-11.5056392578
 10
-69.6214938182
 20
-11.5318232747
 10
-69.5618447894
 20
-11.5565270089
 10
-69.5016270529
 20
-11.5797030096
 10
-69.4408395157
 20
-11.6013483406
 10
-69.3794832708
 20
-11.6214659383
 10
-69.3176761709
 20
-11.6400171607
 10
-69.2554173495
 20
-11.6569989974
 10
-69.192707673
 20
-11.672414459
 10
-69.1296675937
 20
-11.6862339355
 10
-69.0662964767
 20
-11.6984543595
 10
-69.002594957
 20
-11.7090787984
 10
-68.9386853919
 20
-11.7180868449
 10
-68.8745673817
 20
-11.7254753923
 10
-68.8102413261
 20
-11.7312475473
 10
-68.7458307822
 20
-11.7353922227
 10
-68.6813355877
 20
-11.7379062906
 10
-68.6167559048
 20
-11.738792879
 10
-68.5522157778
 20
-11.738050285
 10
-68.4877565548
 20
-11.7356779408
 10
-68.4233368876
 20
-11.7316764142
 10
-68.3589567763
 20
-11.7260457051
  0
LINE
  5
27C
100
AcDbEntity
  8
ASSI
100
AcDbLine
 62
7
  6
CONTINUOUS
 10
-72.5070797763
 20
7.3762399079
 11
-72.5070697763
 21
11.6264419079
  0
LINE
  5
27D
100
AcDbEntity
  8
ASSI
100
AcDbLine
 62
7
  6
CONTINUOUS
 10
-71.6570477763
 20
7.3762509079
 11
-71.6570377763
 21
11.6264419079
  0
LINE
  5
27E
100
AcDbEntity
  8
ASSI
100
AcDbLine
 62
7
  6
CONTINUOUS
 10
-70.8070377763
 20
7.3762509079
 11
-70.8070377763
 21
11.6264419079
  0
LINE
  5
27F
100
AcDbEntity
  8
ASSI
100
AcDbLine
 62
7
  6
CONTINUOUS
 10
-69.9570057763
 20
7.3762509079
 11
-69.9570057763
 21
10.1789659079
  0
LWPOLYLINE
  5
280
100
AcDbEntity
  8
ASSI
100
AcDbPolyline
 62
7
  6
CONTINUOUS
 90
63
 70
0
 10
-70.3989569508
 20
-9.1951324179
 10
-70.3987818217
 20
-9.1703062071
 10
-70.3973971403
 20
-9.1207115666
 10
-70.3946245523
 20
-9.0711748418
 10
-70.3904672829
 20
-9.0216958981
 10
-70.3849350079
 20
-8.972389894
 10
-70.3780245245
 20
-8.9232572323
 10
-70.3697390355
 20
-8.8742975102
 10
-70.3600978247
 20
-8.8256246777
 10
-70.3490977343
 20
-8.777239403
 10
-70.3367419221
 20
-8.7291410179
 10
-70.3230591453
 20
-8.6814414677
 10
-70.3080463131
 20
-8.6341416814
 10
-70.2917065162
 20
-8.58724073
 10
-70.2740777845
 20
-8.5408477719
 10
-70.2551571155
 20
-8.4949639904
 10
-70.2349475116
 20
-8.4495882022
 10
-70.213496009
 20
-8.4048260159
 10
-70.1907997151
 20
-8.3606788609
 10
-70.1668615226
 20
-8.3171453079
 10
-70.1417371457
 20
-8.2743266778
 10
-70.1154238216
 20
-8.2322246361
 10
-70.0879243131
 20
-8.1908375173
 10
-70.0593026233
 20
-8.1502616469
 10
-70.0295561384
 20
-8.1104989144
 10
-69.9986874722
 20
-8.0715474304
 10
-69.966768469
 20
-8.0334978513
 10
-69.9337966826
 20
-7.9963522779
 10
-69.8997745593
 20
-7.9601086095
 10
-69.864781283
 20
-7.9248512005
 10
-69.8288145917
 20
-7.890582348
 10
-69.7918767475
 20
-7.857299755
 10
-69.7540537203
 20
-7.8250808839
 10
-69.7153434483
 20
-7.7939282126
 10
-69.6757479934
 20
-7.7638392633
 10
-69.635359511
 20
-7.7348840658
 10
-69.5941761538
 20
-7.7070652608
 10
-69.5521997691
 20
-7.6803802077
 10
-69.5095280537
 20
-7.6548910137
 10
-69.466159388
 20
-7.6306004644
 10
-69.4220953916
 20
-7.6075057743
 10
-69.37743862
 20
-7.5856606946
 10
-69.3321876926
 20
-7.5650681358
 10
-69.2863439901
 20
-7.5457251873
 10
-69.2400142102
 20
-7.5276768685
 10
-69.1931972206
 20
-7.5109261947
 10
-69.1458941537
 20
-7.4954701504
 10
-69.0982151036
 20
-7.4813447086
 10
-69.0501591947
 20
-7.4685529683
 10
-69.0017273026
 20
-7.4570918304
 10
-68.953032149
 20
-7.4469879697
 10
-68.9040731205
 20
-7.4382445477
 10
-68.8548508305
 20
-7.430858403
 10
-68.8054798399
 20
-7.4248467262
 10
-68.7559598026
 20
-7.4202127189
 10
-68.7062910648
 20
-7.4169531795
 10
-68.6565892267
 20
-7.4150756943
 10
-68.6068542112
 20
-7.4145834826
 10
-68.5570860955
 20
-7.4154733252
 10
-68.507400711
 20
-7.417743151
 10
-68.4578366682
 20
-7.4213922697
 10
-68.4083553567
 20
-7.4264213716
 10
-68.3589567763
 20
-7.4328304568
  0
LINE
  5
281
100
AcDbEntity
  8
DRAFT
100
AcDbLine
 62
7
  6
CONTINUOUS
 10
-72.523814044
 20
-17.1318307645
 11
-72.5235467212
 21
-17.1011986016
  0
LINE
  5
282
100
AcDbEntity
  8
ASSI
100
AcDbLine
 62
7
  6
CONTINUOUS
 10
-72.0894202801
 20
-17.1318307645
 11
-72.0891529572
 21
-17.1011986016
  0
LINE
  5
283
100
AcDbEntity
  8
ASSI
100
AcDbLine
 62
250
  6
CONTINUOUS
 10
-71.8894278955
 20
-17.1318307645
 11
-71.8891605726
 21
-17.1011986016
  0
LINE
  5
284
100
AcDbEntity
  8
ASSI
100
AcDbLine
 62
7
  6
CONTINUOUS
 10
-68.7283407763
 20
8.8585659079
 11
-67.9346647763
 21
11.6264419079
  0
LINE
  5
285
100
AcDbEntity
  8
ASSI
100
AcDbLine
 62
7
  6
CONTINUOUS
 10
-68.3033407763
 20
7.3762609079
 11
-67.4996877763
 21
10.1789659079
  0
LWPOLYLINE
  5
286
100
AcDbEntity
  8
ASSI
100
AcDbPolyline
 62
7
  6
CONTINUOUS
 90
67
 70
0
 10
-64.0239567763
 20
-6.6642191307
 10
-64.0883368876
 20
-6.6585884216
 10
-64.1527565548
 20
-6.654586895
 10
-64.2172157778
 20
-6.6522145508
 10
-64.2817559048
 20
-6.6514719568
 10
-64.3463355877
 20
-6.6523585452
 10
-64.4108307822
 20
-6.6548726131
 10
-64.4752413261
 20
-6.6590172885
 10
-64.5395673817
 20
-6.6647894435
 10
-64.6036853919
 20
-6.6721779909
 10
-64.667594957
 20
-6.6811860374
 10
-64.7312964767
 20
-6.6918104763
 10
-64.7946675937
 20
-6.7040309003
 10
-64.857707673
 20
-6.7178503768
 10
-64.9204173495
 20
-6.7332658383
 10
-64.9826761709
 20
-6.7502476751
 10
-65.0444832708
 20
-6.7687988975
 10
-65.1058395157
 20
-6.7889164951
 10
-65.1666270529
 20
-6.8105618262
 10
-65.2268447894
 20
-6.8337378269
 10
-65.2864938182
 20
-6.8584415611
 10
-65.345459566
 20
-6.884625578
 10
-65.4037407194
 20
-6.9122927226
 10
-65.4613385918
 20
-6.9414401499
 10
-65.5181425495
 20
-6.9720118737
 10
-65.5741510667
 20
-7.0040106315
 10
-65.6293656692
 20
-7.0374336858
 10
-65.6836803012
 20
-7.0722168378
 10
-65.7370932331
 20
-7.1083627017
 10
-65.7896061945
 20
-7.1458686633
 10
-65.8411183189
 20
-7.1846626815
 10
-65.8916276828
 20
-7.2247472319
 10
-65.9411362097
 20
-7.2661198389
 10
-65.989548804
 20
-7.3087010342
 10
-66.0368633594
 20
-7.3524931409
 10
-66.0830819821
 20
-7.3974938358
 10
-66.1281158959
 20
-7.4436166822
 10
-66.1719628237
 20
-7.4908638367
 10
-66.2146250425
 20
-7.5392331425
 10
-66.2560206071
 20
-7.5886316922
 10
-66.2961470829
 20
-7.6390614642
 10
-66.3350069044
 20
-7.6905204801
 10
-66.3725254301
 20
-7.7429098978
 10
-66.4087000818
 20
-7.7962315056
 10
-66.4435334376
 20
-7.8504835152
 10
-66.4769585899
 20
-7.9055617198
 10
-66.508972832
 20
-7.9614677074
 10
-66.5395788705
 20
-8.0181998899
 10
-66.5687179176
 20
-8.0756492967
 10
-66.5963871537
 20
-8.1338173062
 10
-66.6225893984
 20
-8.1927025399
 10
-66.6472743226
 20
-8.2521918914
 10
-66.6704390099
 20
-8.312286522
 10
-66.6920863768
 20
-8.3729852705
 10
-66.712174843
 20
-8.4341715472
 10
-66.7307014124
 20
-8.495846289
 10
-66.7476690812
 20
-8.5580085591
 10
-66.7630452581
 20
-8.6205389565
 10
-66.776826884
 20
-8.6834381887
 10
-66.789017018
 20
-8.7467055483
 10
-66.7995922453
 20
-8.8102195118
 10
-66.808549462
 20
-8.8739805531
 10
-66.815891772
 20
-8.9379881983
 10
-66.8216050723
 20
-9.0021195019
 10
-66.8256862318
 20
-9.0663747016
 10
-66.8281383816
 20
-9.1307535597
 10
-66.8289568115
 20
-9.1951324179
  0
LINE
  5
287
100
AcDbEntity
  8
ASSI
100
AcDbLine
 62
7
  6
CONTINUOUS
 10
-75.2884177763
 20
7.3762399079
 11
-76.6530077763
 21
11.6264419079
  0
LINE
  5
288
100
AcDbEntity
  8
ASSI
100
AcDbLine
 62
7
  6
CONTINUOUS
 10
-74.8633757763
 20
8.6999559079
 11
-75.8029657763
 21
11.6264419079
  0
LWPOLYLINE
  5
289
100
AcDbEntity
  8
0
100
AcDbPolyline
 62
7
  6
CONTINUOUS
 90
2
 70
0
 43
0.3500000006
 10
-68.9515074921
 20
40.0513578644
 10
-68.9515074921
 20
41.5513583221
  0
LINE
  5
28A
100
AcDbEntity
  8
ASSI
100
AcDbLine
 62
7
  6
CONTINUOUS
 10
-68.3589567763
 20
-11.7260457051
 11
-68.3589567763
 21
-10.957434379
  0
LINE
  5
28B
100
AcDbEntity
  8
ASSI
100
AcDbLine
 62
7
  6
CONTINUOUS
 10
-68.3589567763
 20
-7.4328304568
 11
-68.3589567763
 21
-6.6642191307
  0
LINE
  5
28C
100
AcDbEntity
  8
ASSI
100
AcDbLine
 62
7
  6
CONTINUOUS
 10
-67.4996767763
 20
7.3762509079
 11
-67.4996877763
 21
10.1789659079
  0
LINE
  5
28D
100
AcDbEntity
  8
ASSI
100
AcDbLine
 62
7
  6
CONTINUOUS
 10
-66.0829607763
 20
7.3762509079
 11
-64.7183807763
 21
11.6264529079
  0
LINE
  5
28E
100
AcDbEntity
  8
ASSI
100
AcDbLine
 62
7
  6
CONTINUOUS
 10
-65.2329287763
 20
7.3762609079
 11
-64.9645727763
 21
8.2120879079
  0
LINE
  5
28F
100
AcDbEntity
  8
ASSI
100
AcDbLine
 62
7
  6
CONTINUOUS
 10
-64.7052907763
 20
9.0196189079
 11
-64.2933487763
 21
10.3027369079
  0
LWPOLYLINE
  5
290
100
AcDbEntity
  8
ASSI
100
AcDbPolyline
 62
7
  6
CONTINUOUS
 90
67
 70
0
 10
-66.8289568115
 20
-9.1951324179
 10
-66.8281383816
 20
-9.2595112761
 10
-66.8256862318
 20
-9.3238901342
 10
-66.8216050723
 20
-9.3881453339
 10
-66.815891772
 20
-9.4522766375
 10
-66.808549462
 20
-9.5162842827
 10
-66.7995922453
 20
-9.580045324
 10
-66.789017018
 20
-9.6435592875
 10
-66.776826884
 20
-9.7068266471
 10
-66.7630452581
 20
-9.7697258793
 10
-66.7476690812
 20
-9.8322562767
 10
-66.7307014124
 20
-9.8944185468
 10
-66.712174843
 20
-9.9560932886
 10
-66.6920863768
 20
-10.0172795653
 10
-66.6704390099
 20
-10.0779783138
 10
-66.6472743226
 20
-10.1380729444
 10
-66.6225893984
 20
-10.1975622959
 10
-66.5963871537
 20
-10.2564475296
 10
-66.5687179176
 20
-10.3146155391
 10
-66.5395788705
 20
-10.3720649459
 10
-66.508972832
 20
-10.4287971284
 10
-66.4769585899
 20
-10.484703116
 10
-66.4435334376
 20
-10.5397813206
 10
-66.4087000818
 20
-10.5940333302
 10
-66.3725254301
 20
-10.647354938
 10
-66.3350069044
 20
-10.6997443557
 10
-66.2961470829
 20
-10.7512033716
 10
-66.2560206071
 20
-10.8016331436
 10
-66.2146250425
 20
-10.8510316933
 10
-66.1719628237
 20
-10.8994009991
 10
-66.1281158959
 20
-10.9466481536
 10
-66.0830819821
 20
-10.9927709999
 10
-66.0368633594
 20
-11.0377716949
 10
-65.989548804
 20
-11.0815638016
 10
-65.9411362097
 20
-11.1241449969
 10
-65.8916276828
 20
-11.1655176039
 10
-65.8411183189
 20
-11.2056021543
 10
-65.7896061945
 20
-11.2443961725
 10
-65.7370932331
 20
-11.2819021341
 10
-65.6836803012
 20
-11.318047998
 10
-65.6293656692
 20
-11.35283115
 10
-65.5741510667
 20
-11.3862542043
 10
-65.5181425495
 20
-11.4182529621
 10
-65.4613385918
 20
-11.4488246859
 10
-65.4037407194
 20
-11.4779721132
 10
-65.345459566
 20
-11.5056392578
 10
-65.2864938182
 20
-11.5318232747
 10
-65.2268447894
 20
-11.5565270089
 10
-65.1666270529
 20
-11.5797030096
 10
-65.1058395157
 20
-11.6013483406
 10
-65.0444832708
 20
-11.6214659383
 10
-64.9826761709
 20
-11.6400171607
 10
-64.9204173495
 20
-11.6569989974
 10
-64.857707673
 20
-11.672414459
 10
-64.7946675937
 20
-11.6862339355
 10
-64.7312964767
 20
-11.6984543595
 10
-64.667594957
 20
-11.7090787984
 10
-64.6036853919
 20
-11.7180868449
 10
-64.5395673817
 20
-11.7254753923
 10
-64.4752413261
 20
-11.7312475473
 10
-64.4108307822
 20
-11.7353922227
 10
-64.3463355877
 20
-11.7379062906
 10
-64.2817559048
 20
-11.738792879
 10
-64.2172157778
 20
-11.738050285
 10
-64.1527565548
 20
-11.7356779408
 10
-64.0883368876
 20
-11.7316764142
 10
-64.0239567763
 20
-11.7260457051
  0
LINE
  5
291
100
AcDbEntity
  8
ASSI
100
AcDbLine
 62
7
  6
CONTINUOUS
 10
-66.6496447763
 20
7.3762509079
 11
-66.6496447763
 21
11.6264419079
  0
LWPOLYLINE
  5
292
100
AcDbEntity
  8
0
100
AcDbPolyline
 62
7
  6
CONTINUOUS
 90
2
 70
0
 43
0.3500000006
 10
-66.594364563
 20
40.0513578644
 10
-66.594364563
 20
41.5513583221
  0
LINE
  5
293
100
AcDbEntity
  8
ASSI
100
AcDbLine
 62
250
  6
CONTINUOUS
 10
-74.9830043975
 20
-0.4062294997
 11
-75.0394263897
 21
-0.4076933547
  0
LINE
  5
294
100
AcDbEntity
  8
ASSI
100
AcDbLine
 62
250
  6
CONTINUOUS
 10
-74.9245818896
 20
-0.4050261703
 11
-74.9830043975
 21
-0.4062294997
  0
LINE
  5
295
100
AcDbEntity
  8
ASSI
100
AcDbLine
 62
250
  6
CONTINUOUS
 10
-60.9202591756
 20
-0.4076933547
 11
-60.8172048321
 21
-0.4055952443
  0
LINE
  5
296
100
AcDbEntity
  8
ASSI
100
AcDbLine
 62
250
  6
CONTINUOUS
 10
-74.8643224351
 20
-0.4040867356
 11
-74.9245818896
 21
-0.4050261703
  0
LINE
  5
297
100
AcDbEntity
  8
ASSI
100
AcDbLine
 62
250
  6
CONTINUOUS
 10
-60.8172048321
 20
-0.4055952443
 11
-60.7147976698
 21
-0.4040866006
  0
LINE
  5
298
100
AcDbEntity
  8
ASSI
100
AcDbLine
 62
250
  6
CONTINUOUS
 10
-74.8023947463
 20
-0.4034138258
 11
-74.8643224351
 21
-0.4040867356
  0
LINE
  5
299
100
AcDbEntity
  8
ASSI
100
AcDbLine
 62
250
  6
CONTINUOUS
 10
-60.7147976698
 20
-0.4040866006
 11
-60.6136840085
 21
-0.4031779289
  0
LINE
  5
29A
100
AcDbEntity
  8
ASSI
100
AcDbLine
 62
250
  6
CONTINUOUS
 10
-74.7067557071
 20
-0.402908111
 11
-74.8023947463
 21
-0.4034138258
  0
LINE
  5
29B
100
AcDbEntity
  8
ASSI
100
AcDbLine
 62
250
  6
CONTINUOUS
 10
-60.6136840085
 20
-0.4031779289
 11
-60.5145012937
 21
-0.402874282
  0
LINE
  5
29C
100
AcDbEntity
  8
ASSI
100
AcDbLine
 62
250
  6
CONTINUOUS
 10
-74.2684742234
 20
-0.4076933547
 11
-60.9202593293
 21
-0.4076933547
  0
LWPOLYLINE
  5
29D
100
AcDbEntity
  8
0
100
AcDbPolyline
 62
7
  6
CONTINUOUS
 90
4
 70
0
 43
0.3500000006
 10
-100.7015081177
 20
0.3799281921
 10
-101.344370636
 20
0.3799281921
 10
-101.344370636
 20
1.8799286499
 10
-98.3443697205
 20
1.0227861786
  0
LINE
  5
29E
100
AcDbEntity
  8
ASSI
100
AcDbLine
 62
250
  6
CONTINUOUS
 10
-74.2683837112
 20
0.4810911546
 11
-60.9203399905
 21
0.4810911546
  0
LINE
  5
29F
100
AcDbEntity
  8
ASSI
100
AcDbLine
 62
250
  6
CONTINUOUS
 10
-74.608356533
 20
-0.4030093248
 11
-74.7067557071
 21
-0.402908111
  0
LINE
  5
2A0
100
AcDbEntity
  8
ASSI
100
AcDbLine
 62
250
  6
CONTINUOUS
 10
-60.5145012937
 20
-0.402874282
 11
-60.4178736344
 21
-0.4031779237
  0
LINE
  5
2A1
100
AcDbEntity
  8
ASSI
100
AcDbLine
 62
250
  6
CONTINUOUS
 10
-74.507816906
 20
-0.4037168298
 11
-74.608356533
 21
-0.4030093248
  0
LINE
  5
2A2
100
AcDbEntity
  8
ASSI
100
AcDbLine
 62
250
  6
CONTINUOUS
 10
-60.4178736344
 20
-0.4031779237
 11
-60.3551756727
 21
-0.4037144916
  0
LINE
  5
2A3
100
AcDbEntity
  8
ASSI
100
AcDbLine
 62
250
  6
CONTINUOUS
 10
-60.3551756727
 20
-0.4037144916
 11
-60.2940630567
 21
-0.4045248384
  0
LINE
  5
2A4
100
AcDbEntity
  8
ASSI
100
AcDbLine
 62
250
  6
CONTINUOUS
 10
-74.4057699876
 20
-0.4050261703
 11
-74.507816906
 21
-0.4037168298
  0
LINE
  5
2A5
100
AcDbEntity
  8
ASSI
100
AcDbLine
 62
250
  6
CONTINUOUS
 10
-60.2940630567
 20
-0.4045248384
 11
-60.2346999492
 21
-0.4055951686
  0
LWPOLYLINE
  5
2A6
100
AcDbEntity
  8
ASSI
100
AcDbPolyline
 62
250
  6
CONTINUOUS
 90
3
 70
0
 10
-74.268474377
 20
-0.4076933547
 10
-74.302858432
 20
-0.4069291007
 10
-74.4057699876
 20
-0.4050261703
  0
LWPOLYLINE
  5
2A7
100
AcDbEntity
  8
ASSI
100
AcDbPolyline
 62
250
  6
CONTINUOUS
 90
3
 70
0
 10
-60.2346999492
 20
-0.4055951686
 10
-60.1772617449
 20
-0.4069399134
 10
-60.1493071629
 20
-0.4076933547
  0
LINE
  5
2A8
100
AcDbEntity
  8
ASSI
100
AcDbLine
 62
7
  6
CONTINUOUS
 10
-69.1533517763
 20
7.3762509079
 11
-69.9570057763
 21
10.1789659079
  0
LINE
  5
2A9
100
AcDbEntity
  8
ASSI
100
AcDbLine
 62
7
  6
CONTINUOUS
 10
-68.7283407763
 20
8.8585659079
 11
-69.5220177763
 21
11.6264419079
  0
LINE
  5
2AA
100
AcDbEntity
  8
ASSI
100
AcDbLine
 62
250
  6
CONTINUOUS
 10
-63.2993056572
 20
-17.1318307645
 11
-63.29957298
 21
-17.1011986016
  0
LINE
  5
2AB
100
AcDbEntity
  8
ASSI
100
AcDbLine
 62
7
  6
CONTINUOUS
 10
-63.0995805954
 20
-17.1011986016
 11
-63.0993132726
 21
-17.1318307645
  0
LINE
  5
2AC
100
AcDbEntity
  8
DRAFT
100
AcDbLine
 62
7
  6
CONTINUOUS
 10
-62.6649195086
 20
-17.1318307645
 11
-62.6651868314
 21
-17.1011986016
  0
LINE
  5
2AD
100
AcDbEntity
  8
ASSI
100
AcDbLine
 62
7
  6
CONTINUOUS
 10
-64.5339567763
 20
-9.5766819467
 11
-64.5339567763
 21
-8.8135828891
  0
LINE
  5
2AE
100
AcDbEntity
  8
ASSI
100
AcDbLine
 62
7
  6
CONTINUOUS
 10
-64.0239567763
 20
-11.7260457051
 11
-64.0239567763
 21
-10.9574339329
  0
LINE
  5
2AF
100
AcDbEntity
  8
ASSI
100
AcDbLine
 62
7
  6
CONTINUOUS
 10
-64.0239567763
 20
-7.4328304568
 11
-64.0239567763
 21
-6.6642191307
  0
LINE
  5
2B0
100
AcDbEntity
  8
ASSI
100
AcDbLine
 62
7
  6
CONTINUOUS
 10
-62.2943667763
 20
30.5013569079
 11
-62.2943667763
 21
29.9316297194
  0
LWPOLYLINE
  5
2B1
100
AcDbEntity
  8
ASSI
100
AcDbPolyline
 62
7
  6
CONTINUOUS
 90
55
 70
0
 10
-66.0224932364
 20
-8.8135828891
 10
-66.0111935875
 20
-8.7654223746
 10
-65.9985817579
 20
-8.7176656109
 10
-65.9846577476
 20
-8.6703125978
 10
-65.969408827
 20
-8.6233275318
 10
-65.9528477256
 20
-8.5767462165
 10
-65.9350126324
 20
-8.5306760627
 10
-65.9159006061
 20
-8.4851182466
 10
-65.895514588
 20
-8.4400715919
 10
-65.8739015903
 20
-8.3956399811
 10
-65.8510587812
 20
-8.3518248335
 10
-65.8269889926
 20
-8.3086247297
 10
-65.8017477318
 20
-8.2661392937
 10
-65.7753322953
 20
-8.2243701747
 10
-65.7477453866
 20
-8.1833157235
 10
-65.719050624
 20
-8.1430706159
 10
-65.6892454508
 20
-8.1036367197
 10
-65.6583324238
 20
-8.0650121672
 10
-65.6263828316
 20
-8.0272860304
 10
-65.5933942819
 20
-7.990460383
 10
-65.559369167
 20
-7.9545331513
 10
-65.5243859524
 20
-7.9195871875
 10
-65.4884424269
 20
-7.8856247561
 10
-65.4515408016
 20
-7.8526435925
 10
-65.4137661757
 20
-7.8207197547
 10
-65.3751165342
 20
-7.7898556828
 10
-65.335593892
 20
-7.7600489368
 10
-65.2952893925
 20
-7.731368254
 10
-65.2542012311
 20
-7.7038162332
 10
-65.2123312124
 20
-7.6773902758
 10
-65.1697758928
 20
-7.6521513226
 10
-65.126533691
 20
-7.6281021132
 10
-65.0826061884
 20
-7.605239908
 10
-65.0380946865
 20
-7.5836174297
 10
-64.9929978374
 20
-7.5632375395
 10
-64.9473169889
 20
-7.5440973762
 10
-64.901157486
 20
-7.526241079
 10
-64.8545182238
 20
-7.509671611
 10
-64.8074003071
 20
-7.4943860091
 10
-64.7599123947
 20
-7.4804195235
 10
-64.7120536326
 20
-7.4677751985
 10
-64.6638248749
 20
-7.4564499899
 10
-64.615337342
 20
-7.4464700147
 10
-64.5665904367
 20
-7.4378383776
 10
-64.5175847563
 20
-7.4305519739
 10
-64.468433313
 20
-7.4246276069
 10
-64.4191357703
 20
-7.4200684199
 10
-64.3696924646
 20
-7.4168712695
 10
-64.3202174175
 20
-7.4150435288
 10
-64.2707105556
 20
-7.4145883581
 10
-64.2211719521
 20
-7.4155025969
 10
-64.1717158484
 20
-7.4177841371
 10
-64.1223803247
 20
-7.4214322757
 10
-64.0731273007
 20
-7.4264477156
 10
-64.0239567763
 20
-7.4328304568
  0
LWPOLYLINE
  5
2B2
100
AcDbEntity
  8
ASSI
100
AcDbPolyline
 62
7
  6
CONTINUOUS
 90
135
 70
0
 10
-54.9102743813
 20
5.6711092661
 10
-54.8672596062
 20
5.6785063251
 10
-54.8242441079
 20
5.6840539235
 10
-54.7812277147
 20
5.6877520613
 10
-54.7382551846
 20
5.6896006706
 10
-54.6952813903
 20
5.6895998193
 10
-54.6521714571
 20
5.6877497117
 10
-54.6089262429
 20
5.6840758641
 10
-54.5655447977
 20
5.6785527601
 10
-54.5218897764
 20
5.6711040546
 10
-54.47796257
 20
5.66175636
 10
-54.4337619308
 20
5.6504830638
 10
-54.3891467874
 20
5.6371279835
 10
-54.344120211
 20
5.6217208783
 10
-54.2986795037
 20
5.604231989
 10
-54.25267517
 20
5.5844158552
 10
-54.2060997282
 20
5.5622990148
 10
-54.1589612779
 20
5.5378549299
 10
-54.1111338994
 20
5.5107585265
 10
-54.0626087181
 20
5.4810332732
 10
-54.0133954173
 20
5.4486557014
 10
-53.963396059
 20
5.4132303318
 10
-53.9126170546
 20
5.3747941808
 10
-53.8610529236
 20
5.3333102319
 10
-53.8085880095
 20
5.2882719569
 10
-53.7552262436
 20
5.2397244225
 10
-53.7009647791
 20
5.187622562
 10
-53.6456779168
 20
5.1313246471
 10
-53.5893641197
 20
5.0708804762
 10
-53.5320261645
 20
5.006240251
 10
-53.4735449203
 20
4.9366128475
 10
-53.413895518
 20
4.8620220925
 10
-53.3531041893
 20
4.7824441592
 10
-53.2911284315
 20
4.697016444
 10
-53.2279307047
 20
4.6057299807
 10
-53.1635498296
 20
4.5085937355
 10
-53.0980575856
 20
4.4047720031
 10
-53.0314401871
 20
4.2942796653
 10
-52.9637123049
 20
4.1771018403
 10
-52.8949879394
 20
4.0523581782
 10
-52.8252597459
 20
3.9200809121
 10
-52.7545354168
 20
3.7802378087
 10
-52.682950926
 20
3.6318518192
 10
-52.6104956213
 20
3.4749641285
 10
-52.5371798591
 20
3.3095335515
 10
-52.4631704337
 20
3.1344594845
 10
-52.3884521135
 20
2.9497957962
 10
-52.3130390668
 20
2.7554886178
 10
-52.2371413608
 20
2.5502757384
 10
-52.1607358886
 20
2.3342248962
 10
-52.0838437936
 20
2.1072683531
 10
-52.006740526
 20
1.8679406834
 10
-51.9293920914
 20
1.6163298316
 10
-51.8518294836
 20
1.3523478532
 10
-51.7744244479
 20
1.0742654898
 10
-51.697128137
 20
0.7822090727
 10
-51.6199852539
 20
0.4760522706
 10
-51.5435064717
 20
0.1536868308
 10
-51.4675094405
 20
-0.1854014818
 10
-51.3921712287
 20
-0.5406984321
 10
-51.3185400395
 20
-0.9127695675
 10
-51.2464175102
 20
-1.3029412974
 10
-51.1759958001
 20
-1.7098872123
 10
-51.1089076748
 20
-2.1301936312
 10
-51.0452263966
 20
-2.5645319347
 10
-50.9848734231
 20
-3.0122307423
 10
-50.9292539089
 20
-3.4678622306
 10
-50.8785716983
 20
-3.9312864003
 10
-50.8326213766
 20
-4.4026432508
 10
-50.7921954985
 20
-4.8769249572
 10
-50.7574576866
 20
-5.3540654368
 10
-50.7282478079
 20
-5.8341307723
 10
-50.70487429
 20
-6.3123113868
 10
-50.6874887338
 20
-6.7884879634
 10
-50.6759478556
 20
-7.2627798191
 10
-50.6701185706
 20
-7.7307353277
 10
-50.6701339776
 20
-8.1920746682
 10
-50.6758725255
 20
-8.6470776616
 10
-50.6868186398
 20
-9.0921321455
 10
-50.7030843525
 20
-9.5270324913
 10
-50.7245700802
 20
-9.9519843276
 10
-50.750440706
 20
-10.3639923773
 10
-50.7807934475
 20
-10.7628206723
 10
-50.8155418604
 20
-11.1487051808
 10
-50.8535716157
 20
-11.5193585296
 10
-50.8948764783
 20
-11.8740941982
 10
-50.9394693198
 20
-12.2135987071
 10
-50.9862601525
 20
-12.5376442447
 10
-51.0351305855
 20
-12.8455873552
 10
-51.0862014183
 20
-13.1380714942
 10
-51.1387382811
 20
-13.4167992173
 10
-51.1926687662
 20
-13.6817550609
 10
-51.2480655481
 20
-13.9329544885
 10
-51.3044101233
 20
-14.172146446
 10
-51.3616716546
 20
-14.3994498383
 10
-51.4198799225
 20
-14.6147457605
 10
-51.4786061482
 20
-14.8194264446
 10
-51.5378216681
 20
-15.0135478937
 10
-51.5975529849
 20
-15.1970541046
 10
-51.6574531378
 20
-15.3711692994
 10
-51.7175021363
 20
-15.5359426086
 10
-51.7777170529
 20
-15.6913249016
 10
-51.8378058269
 20
-15.8383930089
 10
-51.8977517643
 20
-15.9771821305
 10
-51.9575681103
 20
-16.1076570663
 10
-52.0170071912
 20
-16.2307890463
 10
-52.0760521461
 20
-16.3466016876
 10
-52.1347160522
 20
-16.455071373
 10
-52.1927957781
 20
-16.5570984812
 10
-52.2502547961
 20
-16.6526786354
 10
-52.307125687
 20
-16.7418162123
 10
-52.3633088648
 20
-16.8254247209
 10
-52.4187651841
 20
-16.9035159382
 10
-52.4735300573
 20
-16.9760780873
 10
-52.5276159325
 20
-17.0439893468
 10
-52.5810117933
 20
-17.1073016672
 10
-52.6337254503
 20
-17.165963098
 10
-52.6857979382
 20
-17.2206959661
 10
-52.7372266695
 20
-17.2715486504
 10
-52.7880115093
 20
-17.3184727721
 10
-52.8381974932
 20
-17.3620455212
 10
-52.8877704857
 20
-17.4022977225
 10
-52.9367422896
 20
-17.4391985512
 10
-52.9851971669
 20
-17.4732327222
 10
-53.0331242278
 20
-17.5044327941
 10
-53.0805324557
 20
-17.5327662084
 10
-53.1275362744
 20
-17.558620004
 10
-53.1741329042
 20
-17.5820283095
 10
-53.2203236425
 20
-17.6029569963
 10
-53.2662293726
 20
-17.6216907182
 10
-53.3118483808
 20
-17.6382595552
 10
-53.3571812645
 20
-17.6526334272
 10
-53.4023526871
 20
-17.6650067482
 10
-53.4473612501
 20
-17.6754065764
 10
-53.4922075564
 20
-17.6838058536
  0
LINE
  5
2B3
100
AcDbEntity
  8
ASSI
100
AcDbLine
 62
250
  6
CONTINUOUS
 10
-60.5187338468
 20
-17.6986430921
 11
-60.9202593293
 21
-0.4076933547
  0
LINE
  5
2B4
100
AcDbEntity
  8
ASSI
100
AcDbLine
 62
250
  6
CONTINUOUS
 10
-59.7506118206
 20
-17.6986430921
 11
-60.1493093023
 21
-0.4075813861
  0
LINE
  5
2B5
100
AcDbEntity
  8
0
100
AcDbLine
 62
7
  6
CONTINUOUS
 10
-61.0035315029
 20
-17.1318307645
 11
-61.0035761491
 21
-17.1011986016
  0
LINE
  5
2B6
100
AcDbEntity
  8
ASSI
100
AcDbLine
 62
7
  6
CONTINUOUS
 10
-61.9370217763
 20
7.3762609079
 11
-61.9370217763
 21
11.6264529079
  0
LINE
  5
2B7
100
AcDbEntity
  8
ASSI
100
AcDbLine
 62
7
  6
CONTINUOUS
 10
-61.5443667763
 20
29.0029209367
 11
-61.5443667763
 21
28.1768354394
  0
LINE
  5
2B8
100
AcDbEntity
  8
ASSI
100
AcDbLine
 62
7
  6
CONTINUOUS
 10
-61.0986987763
 20
9.8059119079
 11
-61.0987087763
 21
10.8401709079
  0
LINE
  5
2B9
100
AcDbEntity
  8
ASSI
100
AcDbLine
 62
250
  6
CONTINUOUS
 10
-60.9202591756
 20
0.4810911546
 11
-60.9202591756
 21
-0.4076933547
  0
LINE
  5
2BA
100
AcDbEntity
  8
ASSI
100
AcDbLine
 62
250
  6
CONTINUOUS
 10
-60.6125884459
 20
-34.3986430921
 11
-60.6125884459
 21
-33.9073692953
  0
LINE
  5
2BB
100
AcDbEntity
  8
0
100
AcDbLine
 62
7
  6
CONTINUOUS
 10
-60.5443667763
 20
-17.7488954154
 11
-60.5443667763
 21
-17.0861082666
  0
LINE
  5
2BC
100
AcDbEntity
  8
0
100
AcDbLine
 62
7
  6
CONTINUOUS
 10
-60.4443667763
 20
-19.0986898039
 11
-60.4443667763
 21
-17.6986430921
  0
LINE
  5
2BD
100
AcDbEntity
  8
ASSI
100
AcDbLine
 62
7
  6
CONTINUOUS
 10
-61.0869787763
 20
7.3762609079
 11
-61.0868837763
 21
9.0196299079
  0
LINE
  5
2BE
100
AcDbEntity
  8
0
100
AcDbLine
 62
250
  6
CONTINUOUS
 10
-60.527745328
 20
-19.0986430921
 11
-60.6125884459
 21
-33.9073692953
  0
LINE
  5
2BF
100
AcDbEntity
  8
ASSI
100
AcDbLine
 62
250
  6
CONTINUOUS
 10
-59.7498033617
 20
-17.6986430921
 11
-59.8420087744
 21
-33.9073692953
  0
LWPOLYLINE
  5
2C0
100
AcDbEntity
  8
ASSI
100
AcDbPolyline
 62
250
  6
CONTINUOUS
 90
37
 70
0
 10
-55.7535763819
 20
6.0791630649
 10
-55.8357526802
 20
5.9175919664
 10
-55.9208890329
 20
5.7561097381
 10
-56.0089854401
 20
5.5947457616
 10
-56.0999916687
 20
5.4335500921
 10
-56.1939579516
 20
5.2725325519
 10
-56.2910349884
 20
5.1116638721
 10
-56.3912252304
 20
4.9509655676
 10
-56.4945262262
 20
4.7904812291
 10
-56.6010813208
 20
4.6302169824
 10
-56.7108834389
 20
4.4702125944
 10
-56.8239396557
 20
4.3104972588
 10
-56.9404145421
 20
4.1510634076
 10
-57.0602991571
 20
3.991953498
 10
-57.1836024417
 20
3.8331989837
 10
-57.3105157892
 20
3.6747788253
 10
-57.4410400802
 20
3.5167259707
 10
-57.5751744341
 20
3.3590876884
 10
-57.7131076026
 20
3.2018675713
 10
-57.8548426688
 20
3.0451010756
 10
-58.0003765496
 20
2.8888385442
 10
-58.1498887479
 20
2.7331081933
 10
-58.303364412
 20
2.5779660081
 10
-58.4608183935
 20
2.4234461476
 10
-58.6224747515
 20
2.2695468845
 10
-58.7883032033
 20
2.1163369981
 10
-58.9583340315
 20
1.9638444315
 10
-59.1328821426
 20
1.8120120882
 10
-59.3119390187
 20
1.6608917435
 10
-59.4955131778
 20
1.5105401637
 10
-59.6839450807
 20
1.3609158297
 10
-59.8772330308
 20
1.212069859
 10
-60.0753787247
 20
1.0640719112
 10
-60.2787277126
 20
0.9169157526
 10
-60.4873951779
 20
0.7706443803
 10
-60.7012659372
 20
0.6253470687
 10
-60.9203399905
 20
0.4810911546
  0
LWPOLYLINE
  5
2C1
100
AcDbEntity
  8
ASSI
100
AcDbPolyline
 62
7
  6
CONTINUOUS
 90
4
 70
0
 10
-80.4504463172
 20
5.6896000262
 10
-80.4074818097
 20
5.6877505202
 10
-80.3644728161
 20
5.6840521173
 10
-80.3214642778
 20
5.678504898
  0
LWPOLYLINE
  5
2C2
100
AcDbEntity
  8
ASSI
100
AcDbPolyline
 62
250
  6
CONTINUOUS
 90
34
 70
0
 10
-60.1493071629
 20
-0.4076933547
 10
-60.1654219964
 20
-0.3748846054
 10
-60.1822097024
 20
-0.3421905129
 10
-60.1996344307
 20
-0.3096329942
 10
-60.2176373533
 20
-0.2772280782
 10
-60.2362024945
 20
-0.2450021293
 10
-60.2553586805
 20
-0.2129931089
 10
-60.2750694137
 20
-0.1812229763
 10
-60.2952952904
 20
-0.1497120695
 10
-60.3160626513
 20
-0.1184973484
 10
-60.3373337032
 20
-0.0876000274
 10
-60.3590685403
 20
-0.0570400301
 10
-60.3812916955
 20
-0.0268534589
 10
-60.4039639111
 20
0.002939583
 10
-60.4270446361
 20
0.0323199594
 10
-60.4505573241
 20
0.0612522532
 10
-60.4744610682
 20
0.0897178262
 10
-60.4987145122
 20
0.1176986997
 10
-60.5233408106
 20
0.1451599682
 10
-60.548297232
 20
0.1720848249
 10
-60.5735414408
 20
0.1984568029
 10
-60.5990970839
 20
0.2242413069
 10
-60.624919456
 20
0.2494237391
 10
-60.6509650645
 20
0.2739894928
 10
-60.677258815
 20
0.2979040403
 10
-60.7037539215
 20
0.3211553765
 10
-60.7304055725
 20
0.343731108
 10
-60.7572406377
 20
0.3655964995
 10
-60.7842102564
 20
0.3867425475
 10
-60.8112681344
 20
0.4071594044
 10
-60.8384436042
 20
0.4268117691
 10
-60.8657133066
 20
0.4456834829
 10
-60.8930017784
 20
0.4637780704
 10
-60.9202591756
 20
0.4810911546
  0
LINE
  5
2C3
100
AcDbEntity
  8
ASSI
100
AcDbLine
 62
7
  6
CONTINUOUS
 10
-63.3537487763
 20
7.3762609079
 11
-63.6220937763
 21
8.2120879079
  0
LINE
  5
2C4
100
AcDbEntity
  8
ASSI
100
AcDbLine
 62
7
  6
CONTINUOUS
 10
-63.8813857763
 20
9.0196189079
 11
-64.2933487763
 21
10.3027369079
  0
LINE
  5
2C5
100
AcDbEntity
  8
ASSI
100
AcDbLine
 62
7
  6
CONTINUOUS
 10
-62.5037057763
 20
7.3762509079
 11
-63.8683067763
 21
11.6264529079
  0
LWPOLYLINE
  5
2C6
100
AcDbEntity
  8
ASSI
100
AcDbPolyline
 62
250
  6
CONTINUOUS
 90
157
 70
0
 10
-55.7535763819
 20
6.0791630649
 10
-55.7014159911
 20
6.2162336414
 10
-55.6515682336
 20
6.3545225678
 10
-55.6040331094
 20
6.4940267932
 10
-55.5588237079
 20
6.6347250126
 10
-55.5159269396
 20
6.776631316
 10
-55.4753035363
 20
6.9197958684
 10
-55.4369403693
 20
7.0642474251
 10
-55.4008505674
 20
7.2099495455
 10
-55.3670342482
 20
7.3568542049
 10
-55.3354891901
 20
7.50496892
 10
-55.3062176148
 20
7.6542752094
 10
-55.2792263058
 20
7.8046842164
 10
-55.2545185104
 20
7.956167657
 10
-55.2320909813
 20
8.1087388611
 10
-55.21194076
 20
8.2623698724
 10
-55.1940654235
 20
8.4170508541
 10
-55.1784673948
 20
8.5727743958
 10
-55.1651509844
 20
8.7295153465
 10
-55.1541135427
 20
8.887285219
 10
-55.1453577194
 20
9.0460530322
 10
-55.138895774
 20
9.2057286337
 10
-55.1347286822
 20
9.3663090276
 10
-55.1328554683
 20
9.5277744663
 10
-55.1332854648
 20
9.6900078781
 10
-55.1360202431
 20
9.8529962263
 10
-55.1410582319
 20
10.0167266059
 10
-55.1484040486
 20
10.1810804115
 10
-55.1580587408
 20
10.3460422473
 10
-55.1700212611
 20
10.5115989133
 10
-55.1842930843
 20
10.6776336477
 10
-55.2008766151
 20
10.8441409339
 10
-55.219769449
 20
11.0110956387
 10
-55.2409658467
 20
11.1783502889
 10
-55.2644740002
 20
11.3459172354
 10
-55.2902857176
 20
11.5137517729
 10
-55.3183706848
 20
11.6816194766
 10
-55.3487367571
 20
11.849508319
 10
-55.3813760792
 20
12.0173964774
 10
-55.4162347713
 20
12.1850336603
 10
-55.4533107023
 20
12.3523705485
 10
-55.4926060033
 20
12.5194222929
 10
-55.5340731872
 20
12.6860348577
 10
-55.5777074047
 20
12.852170784
 10
-55.6235135052
 20
13.0178345058
 10
-55.6714585494
 20
13.1829350114
 10
-55.7215414985
 20
13.347456944
 10
-55.7737633913
 20
13.5113844368
 10
-55.8280944052
 20
13.6746261799
 10
-55.8845342882
 20
13.8371693679
 10
-55.9430832924
 20
13.9989977186
 10
-56.0037123507
 20
14.1600153617
 10
-56.066419521
 20
14.3202060945
 10
-56.1312067456
 20
14.4795595229
 10
-56.198050784
 20
14.6379893147
 10
-56.2669475735
 20
14.7954776575
 10
-56.3379011768
 20
14.9520185392
 10
-56.410900542
 20
15.1075442494
 10
-56.4859440454
 20
15.2620450679
 10
-56.5630333106
 20
15.4155097761
 10
-56.642162156
 20
15.5678694156
 10
-56.723332379
 20
15.7191209498
 10
-56.8065421822
 20
15.8692495137
 10
-56.8917799926
 20
16.01816958
 10
-56.9790430064
 20
16.1658708135
 10
-57.0683340274
 20
16.3123490027
 10
-57.1596498932
 20
16.4575291154
 10
-57.2529846139
 20
16.6013994918
 10
-57.3483441795
 20
16.7439606406
 10
-57.4457433967
 20
16.8851570498
 10
-57.5451797652
 20
17.0249854892
 10
-57.6466557854
 20
17.1634412628
 10
-57.7501937656
 20
17.3004678996
 10
-57.8557895531
 20
17.4360622871
 10
-57.9634473006
 20
17.5702228719
 10
-58.073201774
 20
17.7028967981
 10
-58.1850520336
 20
17.8340868597
 10
-58.2989990191
 20
17.9637887587
 10
-58.4150803154
 20
18.0919403559
 10
-58.5333016008
 20
18.2185517617
 10
-58.653657197
 20
18.3436145843
 10
-58.7761676538
 20
18.4670405706
 10
-58.9008276508
 20
18.5888297356
 10
-59.0276425084
 20
18.7089874052
 10
-59.1566487383
 20
18.8274350939
 10
-59.2878409719
 20
18.9441763483
 10
-59.4212245777
 20
19.0592163074
 10
-59.5568521735
 20
19.172480602
 10
-59.6947315511
 20
19.2839850203
 10
-59.8348549187
 20
19.3937255591
 10
-59.9772515188
 20
19.5016000841
 10
-60.1219197471
 20
19.6076176433
 10
-60.2688612078
 20
19.7117844254
 10
-60.4181099564
 20
19.8139961555
 10
-60.5696789974
 20
19.9142722244
 10
-60.7235553263
 20
20.0126116373
 10
-60.8797339851
 20
20.1088818968
 10
-61.0382886285
 20
20.2031301323
 10
-61.1991456017
 20
20.2953308092
 10
-61.3620789823
 20
20.3852457862
 10
-61.5271409592
 20
20.4728956173
 10
-61.6942793435
 20
20.5582860507
 10
-61.8631116463
 20
20.6411609029
 10
-62.0336247316
 20
20.721506894
 10
-62.2058317355
 20
20.7993678506
 10
-62.3793895774
 20
20.8745765772
 10
-62.5542378273
 20
20.9471116029
 10
-62.7304369153
 20
21.0170266952
 10
-62.9078250511
 20
21.0842690021
 10
-63.0863921639
 20
21.1488468671
 10
-63.2661483246
 20
21.2107832635
 10
-63.4469619556
 20
21.2700475305
 10
-63.6288371717
 20
21.3266532759
 10
-63.8117698582
 20
21.3806163418
 10
-63.9956160938
 20
21.4319092752
 10
-64.1803767925
 20
21.4805433368
 10
-64.3660510403
 20
21.5265341955
 10
-64.5524921745
 20
21.5698606073
 10
-64.7396999402
 20
21.6105322595
 10
-64.9276745922
 20
21.6485632133
 10
-65.1162702329
 20
21.6839381332
 10
-65.3054861526
 20
21.7166651454
 10
-65.495323061
 20
21.7467561263
 10
-65.6856371891
 20
21.7742005063
 10
-65.8764290027
 20
21.7990047468
 10
-66.067698036
 20
21.8211781873
 10
-66.2592991227
 20
21.840713559
 10
-66.4512317459
 20
21.8576150994
 10
-66.6434964225
 20
21.8718898259
 10
-66.835949537
 20
21.8835335098
 10
-67.0285911419
 20
21.8925481834
 10
-67.2214211847
 20
21.8989382813
 10
-67.4142958925
 20
21.9027019753
 10
-67.6072151909
 20
21.9038388771
 10
-67.8001791543
 20
21.9023509181
 10
-67.993044233
 20
21.8982385145
 10
-68.1858104699
 20
21.8914987923
 10
-68.378477822
 20
21.8821312127
 10
-68.5709026111
 20
21.8701384671
 10
-68.7630850812
 20
21.8555151366
 10
-68.9550249883
 20
21.8382583426
 10
-69.1465779216
 20
21.8183734074
 10
-69.3377436129
 20
21.795852485
 10
-69.5285223303
 20
21.770690415
 10
-69.7187704676
 20
21.7428954546
 10
-69.9084893845
 20
21.7124570322
 10
-70.0976777212
 20
21.6793682829
 10
-70.2861877928
 20
21.6436420632
 10
-70.4740172559
 20
21.6052662854
 10
-70.6611684539
 20
21.5642315661
 10
-70.8475007319
 20
21.5205540293
 10
-71.0330159388
 20
21.4742186278
 10
-71.2177122257
 20
21.4252153771
 10
-71.4014433904
 20
21.3735674227
 10
-71.5841606991
 20
21.3192732374
 10
-71.7659128857
 20
21.2623064264
 10
-71.9466999503
 20
21.2026522609
  0
LWPOLYLINE
  5
2C7
100
AcDbEntity
  8
ASSI
100
AcDbPolyline
 62
250
  6
CONTINUOUS
 90
157
 70
0
 10
-54.96523668
 20
5.6808706612
 10
-54.9081697442
 20
5.8295659423
 10
-54.8536031617
 20
5.9795668783
 10
-54.8015172122
 20
6.130872826
 10
-54.7518896408
 20
6.2834624874
 10
-54.7047040905
 20
6.4373558463
 10
-54.6599502893
 20
6.5926141398
 10
-54.6175949753
 20
6.7492750429
 10
-54.5776352685
 20
6.9072994272
 10
-54.5401062288
 20
7.0666333036
 10
-54.5049861407
 20
7.2272945174
 10
-54.4722607949
 20
7.3892637454
 10
-54.4419749957
 20
7.5524312983
 10
-54.4141140787
 20
7.7167775846
 10
-54.3886567543
 20
7.8823207556
 10
-54.3656365795
 20
8.0490077924
 10
-54.3450344804
 20
8.2168339318
 10
-54.3268349923
 20
8.3858024737
 10
-54.3110763282
 20
8.5558725211
 10
-54.2977389745
 20
8.7270683729
 10
-54.2868097469
 20
8.8993642298
 10
-54.2783354138
 20
9.0726441102
 10
-54.2723012398
 20
9.2469194788
 10
-54.2686906738
 20
9.4221774287
 10
-54.2675465867
 20
9.5982655447
 10
-54.268856233
 20
9.7751848292
 10
-54.2726028592
 20
9.9529329471
 10
-54.278822361
 20
10.1313526299
 10
-54.2875029905
 20
10.3104437524
 10
-54.2986294357
 20
10.4902052344
 10
-54.3122316358
 20
10.6704785397
 10
-54.3283007268
 20
10.8512737419
 10
-54.346821539
 20
11.0325797019
 10
-54.3678142031
 20
11.2142062557
 10
-54.3912775145
 20
11.396184443
 10
-54.417192042
 20
11.5784823465
 10
-54.445550311
 20
11.7608156408
 10
-54.4763537612
 20
11.9431938787
 10
-54.509583803
 20
12.1256069653
 10
-54.5452027943
 20
12.3077414619
 10
-54.5832039574
 20
12.4895630001
 10
-54.6235807919
 20
12.6711058078
 10
-54.6662963787
 20
12.8521596623
 10
-54.7113427742
 20
13.0326995808
 10
-54.7587191335
 20
13.2127506741
 10
-54.8083999099
 20
13.3921780778
 10
-54.8603836003
 20
13.5709811602
 10
-54.9146675785
 20
13.7491608563
 10
-54.9712254777
 20
13.9265848239
 10
-55.0300589222
 20
14.103254384
 10
-55.091166639
 20
14.2791687034
 10
-55.1545187673
 20
14.4541923831
 10
-55.220117331
 20
14.6283217951
 10
-55.2879649099
 20
14.8015612482
 10
-55.3580333033
 20
14.9737874165
 10
-55.4303241032
 20
15.1449929765
 10
-55.5048443396
 20
15.3151861096
 10
-55.5815747952
 20
15.4842668933
 10
-55.6605211172
 20
15.6522346857
 10
-55.7416900807
 20
15.8190911276
 10
-55.8250649743
 20
15.9847398493
 10
-55.910657078
 20
16.149186642
 10
-55.9984710434
 20
16.3124268466
 10
-56.088480945
 20
16.4743485529
 10
-56.1806948375
 20
16.6349479713
 10
-56.2751236822
 20
16.7942301781
 10
-56.3717465555
 20
16.952096696
 10
-56.4705688701
 20
17.1085395846
 10
-56.5716069836
 20
17.2635682003
 10
-56.6748570482
 20
17.4171101173
 10
-56.7803296098
 20
17.5691653422
 10
-56.8880384377
 20
17.7197353694
 10
-56.9979852129
 20
17.868750092
 10
-57.1101797975
 20
18.0162079325
 10
-57.2246388648
 20
18.1621120482
 10
-57.3413750442
 20
18.3063995124
 10
-57.4604019651
 20
18.4490728494
 10
-57.5817345108
 20
18.590131175
 10
-57.7053879632
 20
18.7295065241
 10
-57.8313845079
 20
18.8672084745
 10
-57.9597321381
 20
19.003229145
 10
-58.0904255067
 20
19.137474469
 10
-58.2234753893
 20
19.2699408328
 10
-58.3589021921
 20
19.4006336299
 10
-58.4967156122
 20
19.5294723946
 10
-58.636925806
 20
19.6564548464
 10
-58.7795545604
 20
19.7815850955
 10
-58.9246297646
 20
19.9047923345
 10
-59.0721766225
 20
20.0260866416
 10
-59.2222024687
 20
20.1454597914
 10
-59.3747090828
 20
20.262813597
 10
-59.5297113848
 20
20.378148817
 10
-59.6872267749
 20
20.4914665906
 10
-59.8472613175
 20
20.6026693848
 10
-60.009842929
 20
20.7117661661
 10
-60.1749754383
 20
20.818749887
 10
-60.3426291362
 20
20.9234990801
 10
-60.5128973395
 20
21.0260520911
 10
-60.6857172186
 20
21.1263725111
 10
-60.8608235739
 20
21.2242268786
 10
-61.0382843814
 20
21.3196222653
 10
-61.2180575144
 20
21.4125536418
 10
-61.39970883
 20
21.5027695724
 10
-61.5832321676
 20
21.5902384386
 10
-61.7686525536
 20
21.6749939731
 10
-61.9555777514
 20
21.7568828891
 10
-62.1439453015
 20
21.835863855
 10
-62.3338299956
 20
21.9119802535
 10
-62.5250415686
 20
21.9852058881
 10
-62.7175706388
 20
22.0555336998
 10
-62.9114348343
 20
22.1229726069
 10
-63.1064816326
 20
22.1875203369
 10
-63.3027158828
 20
22.2491772185
 10
-63.5001373211
 20
22.3079445726
 10
-63.6985832792
 20
22.3638215631
 10
-63.8980536151
 20
22.4168075936
 10
-64.0985495419
 20
22.4669046953
 10
-64.2999081455
 20
22.5141159197
 10
-64.5021266443
 20
22.5584408818
 10
-64.7052057522
 20
22.5998811798
 10
-64.908985809
 20
22.6384427824
 10
-65.1134624175
 20
22.6741257869
 10
-65.3186352318
 20
22.7069310836
 10
-65.5243490196
 20
22.7368657726
 10
-65.7305998646
 20
22.7639305221
 10
-65.9373847814
 20
22.7881254234
 10
-66.1445486439
 20
22.8094566537
 10
-66.3520859316
 20
22.8279249685
 10
-66.559993634
 20
22.8435301432
 10
-66.7681194763
 20
22.8562768269
 10
-66.9764583209
 20
22.8661659641
 10
-67.1850057157
 20
22.8731969124
 10
-67.3936098903
 20
22.877371883
 10
-67.6022656312
 20
22.8786917951
 10
-67.8109680815
 20
22.8771558028
 10
-68.0195658778
 20
22.8727634134
 10
-68.2280542872
 20
22.8655154144
 10
-68.4364280772
 20
22.8554108628
 10
-68.6445354061
 20
22.8424466124
 10
-68.8523724069
 20
22.8266231628
 10
-69.0599336703
 20
22.8079396302
 10
-69.2670657049
 20
22.7863907357
 10
-69.4737650059
 20
22.7619766722
 10
-69.6800270682
 20
22.7346966339
 10
-69.8856979496
 20
22.7045437851
 10
-70.0907771073
 20
22.6715174766
 10
-70.2952588899
 20
22.6356175162
 10
-70.4989831188
 20
22.5968376949
 10
-70.7019466759
 20
22.5551775767
 10
-70.9041488581
 20
22.510636529
 10
-71.1054348764
 20
22.46320799
 10
-71.3058077766
 20
22.4128898491
 10
-71.5052634924
 20
22.3596829229
 10
-71.7036386503
 20
22.3035849831
 10
-71.9008799874
 20
22.2445947822
 10
-72.097043267
 20
22.1827120542
 10
-72.2921299718
 20
22.1179359884
  0
LWPOLYLINE
  5
2C8
100
AcDbEntity
  8
ASSI
100
AcDbPolyline
 62
250
  6
CONTINUOUS
 90
37
 70
0
 10
-54.9102743813
 20
5.6711092661
 10
-54.9930811346
 20
5.4956469551
 10
-55.0788995192
 20
5.3203393616
 10
-55.16773601
 20
5.1451864854
 10
-55.259553196
 20
4.970175445
 10
-55.3544018799
 20
4.795319122
 10
-55.4524214196
 20
4.6206561615
 10
-55.5536222667
 20
4.446172804
 10
-55.6580091035
 20
4.2718828091
 10
-55.7657135127
 20
4.0978660999
 10
-55.8767379415
 20
3.9241254785
 10
-55.9910967776
 20
3.7506581429
 10
-56.1089404717
 20
3.5775356098
 10
-56.2302698596
 20
3.4047614076
 10
-56.3551028698
 20
3.232332008
 10
-56.4836167466
 20
3.0603083432
 10
-56.6158236784
 20
2.8886795618
 10
-56.7517324954
 20
2.7174565153
 10
-56.8915166913
 20
2.5467326898
 10
-57.0351927055
 20
2.3764965548
 10
-57.1827674575
 20
2.2067596409
 10
-57.3344014431
 20
2.0376500261
 10
-57.4900941043
 20
1.8691760395
 10
-57.6498716609
 20
1.7013293521
 10
-57.8139362243
 20
1.5342130545
 10
-57.9822722643
 20
1.3678444963
 10
-58.1549237167
 20
1.2022063281
 10
-58.3321839372
 20
1.0373495919
 10
-58.5140618661
 20
0.8732646589
 10
-58.7005807455
 20
0.7099611581
 10
-58.8920580008
 20
0.5475190182
 10
-59.0885155824
 20
0.3859165864
 10
-59.2899679256
 20
0.2251755156
 10
-59.4967239714
 20
0.0654406941
 10
-59.7089007819
 20
-0.093239582
 10
-59.9264222644
 20
-0.2509136087
 10
-60.1493093023
 20
-0.4075813861
  0
LINE
  5
2C9
100
AcDbEntity
  8
ASSI
100
AcDbLine
 62
7
  6
CONTINUOUS
 10
-59.4931547763
 20
7.3762609079
 11
-58.5357257763
 21
7.3762719079
  0
LINE
  5
2CA
100
AcDbEntity
  8
ASSI
100
AcDbLine
 62
7
  6
CONTINUOUS
 10
-66.0829607763
 20
7.3762509079
 11
-65.2329287763
 21
7.3762609079
  0
LINE
  5
2CB
100
AcDbEntity
  8
ASSI
100
AcDbLine
 62
7
  6
CONTINUOUS
 10
-70.8070377763
 20
7.3762509079
 11
-69.9570057763
 21
7.3762509079
  0
LINE
  5
2CC
100
AcDbEntity
  8
ASSI
100
AcDbLine
 62
7
  6
CONTINUOUS
 10
-67.4996767763
 20
7.3762509079
 11
-66.6496447763
 21
7.3762509079
  0
LINE
  5
2CD
100
AcDbEntity
  8
ASSI
100
AcDbLine
 62
7
  6
CONTINUOUS
 10
-61.9370217763
 20
7.3762609079
 11
-61.0869787763
 21
7.3762609079
  0
LINE
  5
2CE
100
AcDbEntity
  8
ASSI
100
AcDbLine
 62
7
  6
CONTINUOUS
 10
-69.1533517763
 20
7.3762509079
 11
-68.3033407763
 21
7.3762609079
  0
LINE
  5
2CF
100
AcDbEntity
  8
ASSI
100
AcDbLine
 62
7
  6
CONTINUOUS
 10
-72.5070797763
 20
7.3762399079
 11
-71.6570477763
 21
7.3762509079
  0
LINE
  5
2D0
100
AcDbEntity
  8
ASSI
100
AcDbLine
 62
7
  6
CONTINUOUS
 10
-63.3537487763
 20
7.3762609079
 11
-62.5037057763
 21
7.3762509079
  0
LINE
  5
2D1
100
AcDbEntity
  8
ASSI
100
AcDbLine
 62
7
  6
CONTINUOUS
 10
-75.2884177763
 20
7.3762399079
 11
-74.4383547763
 21
7.3762509079
  0
LINE
  5
2D2
100
AcDbEntity
  8
ASSI
100
AcDbLine
 62
7
  6
CONTINUOUS
 10
-64.9645727763
 20
8.2120879079
 11
-63.6220937763
 21
8.2120879079
  0
LINE
  5
2D3
100
AcDbEntity
  8
ASSI
100
AcDbLine
 62
7
  6
CONTINUOUS
 10
-64.7052907763
 20
9.0196189079
 11
-63.8813857763
 21
9.0196189079
  0
LINE
  5
2D4
100
AcDbEntity
  8
ASSI
100
AcDbLine
 62
7
  6
CONTINUOUS
 10
-61.0868837763
 20
9.0196299079
 11
-60.3449927763
 21
9.0196189079
  0
LINE
  5
2D5
100
AcDbEntity
  8
ASSI
100
AcDbLine
 62
7
  6
CONTINUOUS
 10
-61.0986987763
 20
9.8059119079
 11
-60.0645177763
 21
9.8059119079
  0
LINE
  5
2D6
100
AcDbEntity
  8
ASSI
100
AcDbLine
 62
7
  6
CONTINUOUS
 10
-61.0987087763
 20
10.8401709079
 11
-60.0645177763
 21
10.8401709079
  0
LINE
  5
2D7
100
AcDbEntity
  8
ASSI
100
AcDbLine
 62
7
  6
CONTINUOUS
 10
-76.6530077763
 20
11.6264419079
 11
-75.8029657763
 21
11.6264419079
  0
LINE
  5
2D8
100
AcDbEntity
  8
ASSI
100
AcDbLine
 62
7
  6
CONTINUOUS
 10
-73.9237957763
 20
11.6264419079
 11
-73.0737537763
 21
11.6264419079
  0
LINE
  5
2D9
100
AcDbEntity
  8
ASSI
100
AcDbLine
 62
7
  6
CONTINUOUS
 10
-72.5070697763
 20
11.6264419079
 11
-71.6570377763
 21
11.6264419079
  0
LINE
  5
2DA
100
AcDbEntity
  8
ASSI
100
AcDbLine
 62
7
  6
CONTINUOUS
 10
-70.8070377763
 20
11.6264419079
 11
-69.5220177763
 21
11.6264419079
  0
LINE
  5
2DB
100
AcDbEntity
  8
ASSI
100
AcDbLine
 62
7
  6
CONTINUOUS
 10
-67.9346647763
 20
11.6264419079
 11
-66.6496447763
 21
11.6264419079
  0
LINE
  5
2DC
100
AcDbEntity
  8
ASSI
100
AcDbLine
 62
7
  6
CONTINUOUS
 10
-64.7183807763
 20
11.6264529079
 11
-63.8683067763
 21
11.6264529079
  0
LINE
  5
2DD
100
AcDbEntity
  8
ASSI
100
AcDbLine
 62
7
  6
CONTINUOUS
 10
-61.9370217763
 20
11.6264529079
 11
-59.9465347763
 21
11.6264529079
  0
LWPOLYLINE
  5
2DE
100
AcDbEntity
  8
ASSI
100
AcDbPolyline
 62
7
  6
CONTINUOUS
 90
16
 70
0
 10
-54.96523668
 20
5.6808706612
 10
-54.9626429123
 20
5.6790564888
 10
-54.9598710404
 20
5.6773715285
 10
-54.9569211365
 20
5.675815781
 10
-54.9537821913
 20
5.674369655
 10
-54.9504653803
 20
5.6730527426
 10
-54.9470040538
 20
5.6719238194
 10
-54.9434014419
 20
5.6709943241
 10
-54.9396544962
 20
5.6702528189
 10
-54.9357871375
 20
5.6697237645
 10
-54.9318021165
 20
5.6694133675
 10
-54.9276968753
 20
5.6693154217
 10
-54.9234873604
 20
5.6694357683
 10
-54.9191789506
 20
5.6697763544
 10
-54.9147664666
 20
5.6703352327
 10
-54.9102500153
 20
5.6711124029
  0
LWPOLYLINE
  5
2DF
100
AcDbEntity
  8
ASSI
100
AcDbPolyline
 62
7
  6
CONTINUOUS
 90
25
 70
0
 10
-54.9652352557
 20
5.680869796
 10
-54.9928136962
 20
5.7005157613
 10
-55.0210452181
 20
5.7200127051
 10
-55.0499057665
 20
5.7393432841
 10
-55.0793710514
 20
5.7584895991
 10
-55.1094157013
 20
5.7774352303
 10
-55.1400132964
 20
5.796165232
 10
-55.1711378767
 20
5.814662681
 10
-55.2027629455
 20
5.8329110583
 10
-55.2348606446
 20
5.8508962467
 10
-55.2674037871
 20
5.8686018576
 10
-55.3003647158
 20
5.8860119627
 10
-55.3337143394
 20
5.903113414
 10
-55.3674244637
 20
5.9198904608
 10
-55.401466478
 20
5.9363279008
 10
-55.4358102498
 20
5.9524137404
 10
-55.4704268571
 20
5.9681328344
 10
-55.5052868955
 20
5.9834709684
 10
-55.5403592061
 20
5.9984179248
 10
-55.575613317
 20
6.012961812
 10
-55.6110203103
 20
6.0270869511
 10
-55.6465511475
 20
6.0407779234
 10
-55.6821761204
 20
6.0540211156
 10
-55.717864886
 20
6.0668047093
 10
-55.7535873441
 20
6.0791165425
  0
LINE
  5
2E0
100
AcDbEntity
  8
ASSI
100
AcDbLine
 62
7
  6
CONTINUOUS
 10
-59.4931547763
 20
7.3762609079
 11
-60.3449927763
 21
9.0196189079
  0
LINE
  5
2E1
100
AcDbEntity
  8
ASSI
100
AcDbLine
 62
7
  6
CONTINUOUS
 10
-58.5357257763
 20
7.3762719079
 11
-59.4405411649
 21
9.1218455867
  0
LINE
  5
2E2
100
AcDbEntity
  8
ASSI
100
AcDbLine
 62
250
  6
CONTINUOUS
 10
-53.6713754495
 20
-17.6986430921
 11
-53.8504278825
 21
-33.9073692953
  0
LINE
  5
2E3
100
AcDbEntity
  8
ASSI
100
AcDbLine
 62
7
  6
CONTINUOUS
 10
-45.8772911446
 20
-33.9073692953
 11
-45.5943667763
 21
-17.6986430921
  0
LINE
  5
2E4
100
AcDbEntity
  8
ASSI
100
AcDbLine
 62
250
  6
CONTINUOUS
 10
-84.1107969753
 20
24.6671744028
 11
-51.0779365773
 21
24.6671744028
  0
LINE
  5
2E5
100
AcDbEntity
  8
ASSI
100
AcDbLine
 62
250
  6
CONTINUOUS
 10
-81.8192993804
 20
26.8407710607
 11
-53.3694341723
 21
26.8407710607
  0
LINE
  5
2E6
100
AcDbEntity
  8
ASSI
100
AcDbLine
 62
250
  6
CONTINUOUS
 10
-73.7811094705
 20
28.0274224418
 11
-61.4076240821
 21
28.0274224418
  0
LINE
  5
2E7
100
AcDbEntity
  8
ASSI
100
AcDbLine
 62
250
  6
CONTINUOUS
 10
-73.6443667763
 20
28.1768354394
 11
-61.5443667763
 21
28.1768354394
  0
LINE
  5
2E8
100
AcDbEntity
  8
ASSI
100
AcDbLine
 62
250
  6
CONTINUOUS
 10
-61.5443667763
 20
29.0029209383
 11
-73.6443667763
 21
29.0029209383
  0
LINE
  5
2E9
100
AcDbEntity
  8
ASSI
100
AcDbLine
 62
250
  6
CONTINUOUS
 10
-62.1759457237
 20
29.7849914907
 11
-73.0127878289
 21
29.7849914907
  0
LINE
  5
2EA
100
AcDbEntity
  8
ASSI
100
AcDbLine
 62
250
  6
CONTINUOUS
 10
-62.2943667763
 20
29.9316297193
 11
-72.8943667763
 21
29.9316297193
  0
LINE
  5
2EB
100
AcDbEntity
  8
ASSI
100
AcDbLine
 62
250
  6
CONTINUOUS
 10
-62.2943667763
 20
30.5013569079
 11
-72.8943667763
 21
30.5013569079
  0
LINE
  5
2EC
100
AcDbEntity
  8
ASSI
100
AcDbLine
 62
7
  6
CONTINUOUS
 10
-63.0943674783
 20
31.3013569079
 11
-72.094366114
 21
31.3013569079
  0
LWPOLYLINE
  5
2ED
100
AcDbEntity
  8
0
100
AcDbPolyline
 62
7
  6
CONTINUOUS
 90
3
 70
0
 43
0.3500000006
 10
-66.0943689423
 20
40.6942158508
 10
-67.5943648682
 20
40.6942158508
 10
-66.9515114136
 20
43.0513587799
  0
LWPOLYLINE
  5
2EE
100
AcDbEntity
  8
0
100
AcDbPolyline
 62
7
  6
CONTINUOUS
 90
3
 70
0
 43
0.3500000006
 10
-68.4515118713
 20
40.6942158508
 10
-69.9515077972
 20
40.6942158508
 10
-69.3086543427
 20
43.0513587799
  0
LWPOLYLINE
  5
2EF
100
AcDbEntity
  8
ASSI
100
AcDbPolyline
 62
250
  6
CONTINUOUS
 90
5
 70
0
 10
21.7170756317
 20
-33.9073692953
 10
21.7166199902
 20
-33.9074418719
 10
21.7152560498
 20
-33.9075084345
 10
21.712984807
 20
-33.9075688632
 10
21.7098079179
 20
-33.9076229957
  0
LWPOLYLINE
  5
2F0
100
AcDbEntity
  8
ASSI
100
AcDbPolyline
 62
250
  6
CONTINUOUS
 90
43
 70
0
 10
16.4276682465
 20
-34.3986430921
 10
16.4419828034
 20
-34.3983011704
 10
16.4562777825
 20
-34.397275873
 10
16.4705336327
 20
-34.3955686021
 10
16.4847308565
 20
-34.3931816927
 10
16.4988500365
 20
-34.3901184094
 10
16.5128718622
 20
-34.3863829418
 10
16.526777156
 20
-34.3819803989
 10
16.5405468999
 20
-34.3769168019
 10
16.5541622611
 20
-34.3711990763
 10
16.5676046182
 20
-34.364835042
 10
16.5808555862
 20
-34.3578334032
 10
16.5938970418
 20
-34.3502037359
 10
16.6067111486
 20
-34.341956475
 10
16.6192803807
 20
-34.3331029002
 10
16.6315875475
 20
-34.3236551205
 10
16.6436158165
 20
-34.3136260574
 10
16.6553487369
 20
-34.3030294276
 10
16.6667702617
 20
-34.2918797239
 10
16.6778647698
 20
-34.2801921956
 10
16.6886170875
 20
-34.2679828276
 10
16.6990125088
 20
-34.2552683186
 10
16.7090368162
 20
-34.2420660579
 10
16.7186762995
 20
-34.2283941021
 10
16.727917775
 20
-34.2142711502
 10
16.7367486031
 20
-34.199716518
 10
16.7451567061
 20
-34.1847501116
 10
16.7531305843
 20
-34.1693924004
 10
16.760659332
 20
-34.1536643889
 10
16.7677326521
 20
-34.1375875881
 10
16.7743408706
 20
-34.1211839861
 10
16.7804749495
 20
-34.1044760178
 10
16.7861264994
 20
-34.0874865345
 10
16.7912877906
 20
-34.0702387725
 10
16.7959517642
 20
-34.0527563214
 10
16.8001120412
 20
-34.0350630916
 10
16.8037629317
 20
-34.017183282
 10
16.8068994425
 20
-33.9991413465
 10
16.8095172838
 20
-33.9809619609
 10
16.8116128752
 20
-33.9626699888
 10
16.8131833505
 20
-33.944290448
 10
16.8142265619
 20
-33.9258484759
 10
16.8147410826
 20
-33.9073692953
  0
LWPOLYLINE
  5
2F1
100
AcDbEntity
  8
ASSI
100
AcDbPolyline
 62
250
  6
CONTINUOUS
 90
43
 70
0
 10
21.0614294307
 20
-34.3986430921
 10
21.0763181095
 20
-34.3983011704
 10
21.0911864253
 20
-34.3972758729
 10
21.1060140428
 20
-34.395568602
 10
21.1207806825
 20
-34.3931816926
 10
21.1354661483
 20
-34.3901184092
 10
21.1500503551
 20
-34.3863829416
 10
21.1645133562
 20
-34.3819803985
 10
21.1788353708
 20
-34.3769168015
 10
21.1929968108
 20
-34.3711990757
 10
21.2069783079
 20
-34.3648350414
 10
21.2207607396
 20
-34.3578334025
 10
21.2343252561
 20
-34.350203735
 10
21.2476533052
 20
-34.3419564741
 10
21.2607266584
 20
-34.3331028992
 10
21.2735274353
 20
-34.3236551194
 10
21.2860381287
 20
-34.3136260562
 10
21.2982416277
 20
-34.3030294263
 10
21.3101212417
 20
-34.2918797225
 10
21.3216607233
 20
-34.2801921942
 10
21.3328442899
 20
-34.2679828262
 10
21.3436566461
 20
-34.2552683171
 10
21.3540830037
 20
-34.2420660564
 10
21.364109103
 20
-34.2283941006
 10
21.3737212312
 20
-34.2142711487
 10
21.3829062421
 20
-34.1997165165
 10
21.3916515734
 20
-34.1847501101
 10
21.3999452641
 20
-34.1693923989
 10
21.4077759713
 20
-34.1536643874
 10
21.4151329848
 20
-34.1375875867
 10
21.4220062427
 20
-34.1211839847
 10
21.4283863444
 20
-34.1044760165
 10
21.4342645639
 20
-34.0874865333
 10
21.4396328618
 20
-34.0702387714
 10
21.4444838958
 20
-34.0527563204
 10
21.4488110313
 20
-34.0350630907
 10
21.45260835
 20
-34.0171832812
 10
21.4558706585
 20
-33.9991413458
 10
21.4585934949
 20
-33.9809619603
 10
21.4607731353
 20
-33.9626699884
 10
21.4624065985
 20
-33.9442904477
 10
21.4634916506
 20
-33.9258484757
 10
21.4640268074
 20
-33.9073692953
  0
LINE
  5
2F2
100
AcDbEntity
  8
ASSI
100
AcDbLine
 62
250
  6
CONTINUOUS
 10
21.7098079179
 20
-33.9076229957
 11
21.7007467293
 21
-33.9077123126
  0
LINE
  5
2F3
100
AcDbEntity
  8
ASSI
100
AcDbLine
 62
250
  6
CONTINUOUS
 10
21.7007467293
 20
-33.9077123126
 11
21.6718956196
 21
-33.9078147909
  0
LINE
  5
2F4
100
AcDbEntity
  8
ASSI
100
AcDbLine
 62
7
  6
CONTINUOUS
 10
21.2171517841
 20
-34.3986430921
 11
-21.2171517841
 21
-34.3986430921
  0
LWPOLYLINE
  5
2F5
100
AcDbEntity
  8
ASSI
100
AcDbPolyline
 62
250
  6
CONTINUOUS
 90
4
 70
0
 10
21.6718956196
 20
-33.9078147909
 10
21.5032941059
 20
-33.9075084369
 10
21.4840335234
 20
-33.9074418734
 10
-21.6624761882
 20
-33.9078244099
  0
LINE
  5
2F6
100
AcDbEntity
  8
ASSI
100
AcDbLine
 62
250
  6
CONTINUOUS
 10
-21.6624761882
 20
-33.9078244099
 11
-21.6948685161
 21
-33.9077475163
  0
LWPOLYLINE
  5
2F7
100
AcDbEntity
  8
ASSI
100
AcDbPolyline
 62
250
  6
CONTINUOUS
 90
7
 70
0
 10
-21.6948685161
 20
-33.9077475163
 10
-21.7057275494
 20
-33.9076707902
 10
-21.709807838
 20
-33.9076229982
 10
-21.7129847457
 20
-33.9075688658
 10
-21.7152560166
 20
-33.9075084369
 10
-21.7166199804
 20
-33.9074418734
 10
-21.7170756317
 20
-33.9073692953
  0
LWPOLYLINE
  5
2F8
100
AcDbEntity
  8
ASSI
100
AcDbPolyline
 62
250
  6
CONTINUOUS
 90
43
 70
0
 10
-21.0614294307
 20
-34.3986430921
 10
-21.076318108
 20
-34.3983011705
 10
-21.0911864224
 20
-34.3972758732
 10
-21.1060140386
 20
-34.3955686026
 10
-21.1207806771
 20
-34.3931816936
 10
-21.1354661419
 20
-34.3901184107
 10
-21.1500503476
 20
-34.3863829437
 10
-21.1645133478
 20
-34.3819804013
 10
-21.1788353617
 20
-34.3769168049
 10
-21.192996801
 20
-34.3711990799
 10
-21.2069782975
 20
-34.3648350464
 10
-21.2207607288
 20
-34.3578334083
 10
-21.234325245
 20
-34.3502037416
 10
-21.2476532938
 20
-34.3419564814
 10
-21.2607266469
 20
-34.3331029074
 10
-21.2735274238
 20
-34.3236551283
 10
-21.2860381172
 20
-34.3136260658
 10
-21.2982416163
 20
-34.3030294366
 10
-21.3101212306
 20
-34.2918797334
 10
-21.3216607125
 20
-34.2801922056
 10
-21.3328442795
 20
-34.2679828381
 10
-21.3436566361
 20
-34.2552683294
 10
-21.3540829942
 20
-34.242066069
 10
-21.364109094
 20
-34.2283941134
 10
-21.3737212228
 20
-34.2142711616
 10
-21.3829062343
 20
-34.1997165294
 10
-21.3916515662
 20
-34.184750123
 10
-21.3999452576
 20
-34.1693924116
 10
-21.4077759654
 20
-34.1536643999
 10
-21.4151329796
 20
-34.1375875988
 10
-21.4220062381
 20
-34.1211839963
 10
-21.4283863404
 20
-34.1044760276
 10
-21.4342645606
 20
-34.0874865437
 10
-21.439632859
 20
-34.0702387811
 10
-21.4444838935
 20
-34.0527563292
 10
-21.4488110295
 20
-34.0350630986
 10
-21.4526083487
 20
-34.0171832882
 10
-21.4558706576
 20
-33.9991413518
 10
-21.4585934943
 20
-33.9809619652
 10
-21.4607731349
 20
-33.9626699921
 10
-21.4624065984
 20
-33.9442904502
 10
-21.4634916505
 20
-33.925848477
 10
-21.4640268074
 20
-33.9073692953
  0
LWPOLYLINE
  5
2F9
100
AcDbEntity
  8
ASSI
100
AcDbPolyline
 62
250
  6
CONTINUOUS
 90
43
 70
0
 10
-16.4276682465
 20
-34.3986430921
 10
-16.4419828036
 20
-34.3983011704
 10
-16.4562777829
 20
-34.3972758729
 10
-16.4705336333
 20
-34.395568602
 10
-16.4847308573
 20
-34.3931816925
 10
-16.4988500375
 20
-34.3901184092
 10
-16.5128718633
 20
-34.3863829415
 10
-16.5267771573
 20
-34.3819803985
 10
-16.5405469013
 20
-34.3769168013
 10
-16.5541622626
 20
-34.3711990756
 10
-16.5676046198
 20
-34.3648350412
 10
-16.5808555878
 20
-34.3578334023
 10
-16.5938970435
 20
-34.3502037348
 10
-16.6067111503
 20
-34.3419564738
 10
-16.6192803824
 20
-34.3331028989
 10
-16.6315875492
 20
-34.3236551191
 10
-16.6436158182
 20
-34.3136260559
 10
-16.6553487386
 20
-34.303029426
 10
-16.6667702633
 20
-34.2918797222
 10
-16.6778647714
 20
-34.2801921939
 10
-16.688617089
 20
-34.2679828258
 10
-16.6990125103
 20
-34.2552683167
 10
-16.7090368176
 20
-34.242066056
 10
-16.7186763009
 20
-34.2283941002
 10
-16.7279177762
 20
-34.2142711483
 10
-16.7367486042
 20
-34.1997165161
 10
-16.7451567071
 20
-34.1847501097
 10
-16.7531305852
 20
-34.1693923985
 10
-16.7606593328
 20
-34.153664387
 10
-16.7677326528
 20
-34.1375875863
 10
-16.7743408713
 20
-34.1211839844
 10
-16.7804749501
 20
-34.1044760162
 10
-16.7861264999
 20
-34.087486533
 10
-16.791287791
 20
-34.0702387711
 10
-16.7959517645
 20
-34.0527563201
 10
-16.8001120414
 20
-34.0350630905
 10
-16.8037629319
 20
-34.017183281
 10
-16.8068994427
 20
-33.9991413457
 10
-16.8095172839
 20
-33.9809619602
 10
-16.8116128752
 20
-33.9626699883
 10
-16.8131833506
 20
-33.9442904476
 10
-16.8142265619
 20
-33.9258484757
 10
-16.8147410826
 20
-33.9073692953
  0
LINE
  5
2FA
100
AcDbEntity
  8
0
100
AcDbLine
 62
7
  6
CONTINUOUS
 10
-21.9969240052
 20
-17.7488570346
 11
-21.9978135022
 21
-17.6986430921
  0
LINE
  5
2FB
100
AcDbEntity
  8
0
100
AcDbLine
 62
7
  6
CONTINUOUS
 10
-21.7170756317
 20
-33.9073692953
 11
-21.9999954628
 21
-17.6989030307
  0
LINE
  5
2FC
100
AcDbEntity
  8
ASSI
100
AcDbLine
 62
250
  6
CONTINUOUS
 10
-21.747432639
 20
-17.6986430921
 11
-21.4640268074
 21
-33.9073692953
  0
LINE
  5
2FD
100
AcDbEntity
  8
ASSI
100
AcDbLine
 62
7
  6
CONTINUOUS
 10
-21.661419601
 20
-12.1951204477
 11
-21.5904884086
 21
-11.1908332097
  0
LINE
  5
2FE
100
AcDbEntity
  8
ASSI
100
AcDbLine
 62
7
  6
CONTINUOUS
 10
-21.5192639949
 20
-10.1823943649
 11
-21.1612040979
 21
-5.112763183
  0
LINE
  5
2FF
100
AcDbEntity
  8
0
100
AcDbLine
 62
7
  6
CONTINUOUS
 10
-21.961109174
 20
-17.148002973
 11
-21.9555870782
 21
-17.0698177603
  0
LINE
  5
300
100
AcDbEntity
  8
ASSI
100
AcDbLine
 62
7
  6
CONTINUOUS
 10
-22.0
 20
-17.6986430921
 11
-20.778768029
 21
-0.4076933547
  0
LINE
  5
301
100
AcDbEntity
  8
ASSI
100
AcDbLine
 62
250
  6
CONTINUOUS
 10
-21.7480270124
 20
-17.6986430921
 11
-20.5247028457
 21
-0.4076173332
  0
LWPOLYLINE
  5
302
100
AcDbEntity
  8
ASSI
100
AcDbPolyline
 62
7
  6
CONTINUOUS
 90
13
 70
0
 10
-16.9767011281
 20
22.8786933645
 10
-16.9806007925
 20
22.8627599331
 10
-16.9984523297
 20
22.7742308286
 10
-17.0101143191
 20
22.6846766275
 10
-17.0155306205
 20
22.5945295358
 10
-17.0146752359
 20
22.504224608
 10
-17.0075524355
 20
22.4141976475
 10
-16.9941967349
 20
22.3248830961
 10
-16.974672726
 20
22.2367119378
 10
-16.9490747641
 20
22.1501096248
 10
-16.9175265107
 20
22.0654940224
 10
-16.880180335
 20
21.9832733923
 10
-16.8372172569
 20
21.9038455818
  0
LINE
  5
303
100
AcDbEntity
  8
ASSI
100
AcDbLine
 62
7
  6
CONTINUOUS
 10
-16.516430199
 20
24.6671744028
 11
-16.9767014169
 21
22.8786934372
  0
LINE
  5
304
100
AcDbEntity
  8
ASSI
100
AcDbLine
 62
250
  6
CONTINUOUS
 10
-17.0337991215
 20
-17.6986430921
 11
-16.8147410826
 21
-33.9073692953
  0
LWPOLYLINE
  5
305
100
AcDbEntity
  8
ASSI
100
AcDbPolyline
 62
250
  6
CONTINUOUS
 90
106
 70
0
 10
-15.9562633642
 20
5.6808697114
 10
-15.8832172454
 20
5.8308704552
 10
-15.8112794214
 20
5.982199033
 10
-15.7404719112
 20
6.1348547851
 10
-15.6708174012
 20
6.288815271
 10
-15.6023339651
 20
6.4441015822
 10
-15.53503502
 20
6.6007783116
 10
-15.4689171597
 20
6.7588855507
 10
-15.4040178336
 20
6.918381713
 10
-15.340410632
 20
7.0792088528
 10
-15.2781031294
 20
7.2413871891
 10
-15.217116482
 20
7.4048949846
 10
-15.1575442054
 20
7.5696114186
 10
-15.0994081224
 20
7.7355090395
 10
-15.0427098479
 20
7.9026138303
 10
-14.9875118693
 20
8.0708851784
 10
-14.9338205686
 20
8.2403243281
 10
-14.881646721
 20
8.4109285256
 10
-14.8310582967
 20
8.582651185
 10
-14.7820532027
 20
8.755517753
 10
-14.7346442235
 20
8.9295012413
 10
-14.6889205435
 20
9.1044764809
 10
-14.6448839254
 20
9.2804534014
 10
-14.6025368474
 20
9.4574205998
 10
-14.5619684514
 20
9.6352210398
 10
-14.5231799881
 20
9.813855512
 10
-14.4861676832
 20
9.9933218669
 10
-14.4510118588
 20
10.1734588174
 10
-14.4177101705
 20
10.3542669534
 10
-14.386255333
 20
10.5357444585
 10
-14.3567188046
 20
10.717726608
 10
-14.3290936801
 20
10.9002236315
 10
-14.3033698686
 20
11.0832242217
 10
-14.2796125545
 20
11.2665315499
 10
-14.2578115192
 20
11.4501807871
 10
-14.2379525754
 20
11.6341358813
 10
-14.2200938241
 20
11.8180934624
 10
-14.2042285949
 20
12.0020595094
 10
-14.1903325483
 20
12.1860275286
 10
-14.178436793
 20
12.36967582
 10
-14.1685325084
 20
12.5529625205
 10
-14.1605917689
 20
12.7359293978
 10
-14.154616659
 20
12.9183805201
 10
-14.1505891975
 20
13.1002952604
 10
-14.1484846089
 20
13.2816943999
 10
-14.1482941091
 20
13.4624443296
 10
-14.1499949633
 20
13.6425472446
 10
-14.1535610295
 20
13.8220012807
 10
-14.1589777397
 20
14.000666918
 10
-14.1662198666
 20
14.1785440872
 10
-14.175258119
 20
14.3556333864
 10
-14.1860714198
 20
14.5317964795
 10
-14.1986315126
 20
14.7070290961
 10
-14.2129069117
 20
14.8813362343
 10
-14.2288714447
 20
15.0545936323
 10
-14.2464930301
 20
15.2267930469
 10
-14.2657390087
 20
15.3979436292
 10
-14.2865820017
 20
15.5679473565
 10
-14.3089878323
 20
15.7368055609
 10
-14.3329206898
 20
15.9045179566
 10
-14.3583503484
 20
16.0709842246
 10
-14.3852417058
 20
16.2362109376
 10
-14.4135548342
 20
16.400192709
 10
-14.4432522621
 20
16.5628114219
 10
-14.4742944868
 20
16.7240600739
 10
-14.5066417952
 20
16.8839470182
 10
-14.5402565464
 20
17.042377308
 10
-14.5750953014
 20
17.1993431249
 10
-14.611117745
 20
17.3548537613
 10
-14.648290527
 20
17.5088400398
 10
-14.6865694138
 20
17.6613051516
 10
-14.725909431
 20
17.8122474587
 10
-14.7662753982
 20
17.9615906276
 10
-14.8076180421
 20
18.1093301772
 10
-14.8498922286
 20
18.2554722296
 10
-14.8930678971
 20
18.3999564371
 10
-14.9370949198
 20
18.5427876534
 10
-14.9819226056
 20
18.683962719
 10
-15.0275185922
 20
18.8234093409
 10
-15.073833596
 20
18.9611400285
 10
-15.1208095903
 20
19.0971440257
 10
-15.1684005695
 20
19.2313142386
 10
-15.2165461464
 20
19.3636384299
 10
-15.2651951591
 20
19.4941306895
 10
-15.3143145906
 20
19.622723504
 10
-15.3638447579
 20
19.7494210673
 10
-15.4137262577
 20
19.8742210644
 10
-15.4639243871
 20
19.9970462852
 10
-15.5143818389
 20
20.1179119642
 10
-15.5650289021
 20
20.2368047723
 10
-15.6158116339
 20
20.3536047439
 10
-15.666657641
 20
20.468298019
 10
-15.7175083872
 20
20.5809004312
 10
-15.7683295149
 20
20.6913366367
 10
-15.8190657073
 20
20.7996376079
 10
-15.8696306741
 20
20.9057743266
 10
-15.9199447893
 20
21.0095815576
 10
-15.9699634657
 20
21.1110898947
 10
-16.0195888702
 20
21.2102707578
 10
-16.0686751312
 20
21.306870313
 10
-16.1171873567
 20
21.4008984107
 10
-16.1650341775
 20
21.4923473197
 10
-16.212014615
 20
21.5809370244
 10
-16.2580400508
 20
21.6665749658
 10
-16.3031124765
 20
21.7493559121
 10
-16.3471852318
 20
21.8292809072
  0
LWPOLYLINE
  5
306
100
AcDbEntity
  8
ASSI
100
AcDbPolyline
 62
250
  6
CONTINUOUS
 90
15
 70
0
 10
-20.778768029
 20
-0.4076933547
 10
-20.7782573525
 20
-0.406926383
 10
-20.7768396183
 20
-0.4062274239
 10
-20.7745163087
 20
-0.405595244
 10
-20.7712877267
 20
-0.4050263702
 10
-20.7671555226
 20
-0.4045219154
 10
-20.7621247046
 20
-0.4040866001
 10
-20.756197864
 20
-0.4037171051
 10
-20.749377382
 20
-0.403412186
 10
-20.7416712245
 20
-0.4031779284
 10
-20.7330834395
 20
-0.4030100036
 10
-20.7236177468
 20
-0.4029062227
 10
-20.7132847372
 20
-0.4028742814
 10
-20.7020900128
 20
-0.402909043
 10
-20.6900387589
 20
-0.4030072365
  0
LWPOLYLINE
  5
307
100
AcDbEntity
  8
ASSI
100
AcDbPolyline
 62
250
  6
CONTINUOUS
 90
34
 70
0
 10
-20.3357362081
 20
0.4810911546
 10
-20.3547939681
 20
0.4637780714
 10
-20.3731015109
 20
0.445683485
 10
-20.3906547237
 20
0.4268117721
 10
-20.4074629897
 20
0.4071594083
 10
-20.4235136514
 20
0.3867425522
 10
-20.4387689658
 20
0.365596505
 10
-20.4532266379
 20
0.3437311142
 10
-20.4668881248
 20
0.3211553834
 10
-20.4797183152
 20
0.2979040477
 10
-20.4917170099
 20
0.2739895007
 10
-20.5028872094
 20
0.2494237475
 10
-20.5131961183
 20
0.2242413157
 10
-20.5226458807
 20
0.198456812
 10
-20.5312413211
 20
0.1720848343
 10
-20.5389516511
 20
0.1451599778
 10
-20.5457816168
 20
0.1176987094
 10
-20.5517381241
 20
0.0897178361
 10
-20.5567920328
 20
0.061252263
 10
-20.5609509535
 20
0.032319969
 10
-20.5642241279
 20
0.0029395923
 10
-20.5665836576
 20
-0.02685345
 10
-20.5680402824
 20
-0.0570400217
 10
-20.5686058333
 20
-0.0876000195
 10
-20.568253197
 20
-0.1184973411
 10
-20.5669965055
 20
-0.1497120628
 10
-20.5648504306
 20
-0.1812229703
 10
-20.5617881493
 20
-0.2129931036
 10
-20.5578274354
 20
-0.2450021247
 10
-20.5529860511
 20
-0.2772280744
 10
-20.5472369456
 20
-0.3096329913
 10
-20.540584805
 20
-0.342190511
 10
-20.5330674119
 20
-0.3748846045
 10
-20.5247085566
 20
-0.4076933547
  0
LWPOLYLINE
  5
308
100
AcDbEntity
  8
ASSI
100
AcDbPolyline
 62
7
  6
CONTINUOUS
 90
68
 70
0
 10
-17.0337984345
 20
-17.6986430921
 10
-16.9971733237
 20
-17.6977575973
 10
-16.9603188235
 20
-17.6949897258
 10
-16.9232348828
 20
-17.6903394778
 10
-16.8859602383
 20
-17.683844644
 10
-16.8484560849
 20
-17.6754674336
 10
-16.8106059093
 20
-17.6650944743
 10
-16.7724110627
 20
-17.6527528861
 10
-16.7338697921
 20
-17.638415549
 10
-16.6948606301
 20
-17.62188773
 10
-16.6553848768
 20
-17.6031994613
 10
-16.6154405297
 20
-17.5823207107
 10
-16.5749008716
 20
-17.5589666481
 10
-16.533767296
 20
-17.5331717961
 10
-16.4920374003
 20
-17.5049016321
 10
-16.4495784797
 20
-17.4737677592
 10
-16.4063841607
 20
-17.4398025122
 10
-16.3624594839
 20
-17.4029735563
 10
-16.3176886063
 20
-17.3627954895
 10
-16.2720629749
 20
-17.3192993513
 10
-16.225589548
 20
-17.2724541022
 10
-16.1781755692
 20
-17.221681222
 10
-16.1298223675
 20
-17.1670273852
 10
-16.0805268533
 20
-17.1084459172
 10
-16.0301895159
 20
-17.0452182741
 10
-15.9788068271
 20
-16.9773963251
 10
-15.9263803864
 20
-16.904928201
 10
-15.8728182929
 20
-16.8269397511
 10
-15.8180919337
 20
-16.7434470229
 10
-15.7622278775
 20
-16.6544339689
 10
-15.705217108
 20
-16.5589782965
 10
-15.6470274955
 20
-16.4570734955
 10
-15.5876893561
 20
-16.3487260761
 10
-15.5272877872
 20
-16.2330332767
 10
-15.4658116198
 20
-16.1100185387
 10
-15.4032708417
 20
-15.9796584208
 10
-15.339782992
 20
-15.8409798369
 10
-15.2753384901
 20
-15.6940180776
 10
-15.2099465377
 20
-15.5387378523
 10
-15.1437537157
 20
-15.3740602042
 10
-15.07674923
 20
-15.2000346691
 10
-15.008944464
 20
-15.0166117111
 10
-14.9405202984
 20
-14.8225637663
 10
-14.8714592215
 20
-14.6179469498
 10
-14.801780461
 20
-14.4027051465
 10
-14.7317212387
 20
-14.1754424467
 10
-14.6612693431
 20
-13.9362832784
 10
-14.5904400164
 20
-13.6851032135
 10
-14.5195130936
 20
-13.4201330589
 10
-14.4484258731
 20
-13.1413556389
 10
-14.3772454476
 20
-12.8487881292
 10
-14.3064480816
 20
-12.5407128635
 10
-14.235867327
 20
-12.2164478856
 10
-14.1656755956
 20
-11.8766751517
 10
-14.0968595932
 20
-11.5217228639
 10
-14.0293595726
 20
-11.1509385606
 10
-13.9632428084
 20
-10.7649747033
 10
-13.8996883973
 20
-10.366116879
 10
-13.8387593505
 20
-9.9541495085
 10
-13.7803998489
 20
-9.5292881709
 10
-13.7256113671
 20
-9.0944651898
 10
-13.6744656146
 20
-8.649460061
 10
-13.6268951902
 20
-8.1944932886
 10
-13.5836922174
 20
-7.7331587083
 10
-13.5449408774
 20
-7.2651783036
 10
-13.5105564566
 20
-6.790830091
 10
-13.4810762566
 20
-6.3145419549
 10
-13.4566140201
 20
-5.8361815759
  0
LINE
  5
309
100
AcDbEntity
  8
0
100
AcDbLine
 62
7
  6
CONTINUOUS
 10
21.9755629091
 20
-19.0986430921
 11
21.9728886715
 21
-19.0986430921
  0
LINE
  5
30A
100
AcDbEntity
  8
0
100
AcDbLine
 62
7
  6
CONTINUOUS
 10
-21.9728886715
 20
-19.0986430921
 11
-21.9755629091
 21
-19.0986430921
  0
LINE
  5
30B
100
AcDbEntity
  8
ASSI
100
AcDbLine
 62
7
  6
CONTINUOUS
 10
22.0
 20
-17.6986430921
 11
-22.0
 21
-17.6986430921
  0
LWPOLYLINE
  5
30C
100
AcDbEntity
  8
ASSI
100
AcDbPolyline
 62
7
  6
CONTINUOUS
 90
135
 70
0
 10
17.0337984345
 20
-17.6986430921
 10
16.997173324
 20
-17.6977575973
 10
16.9603188241
 20
-17.6949897259
 10
16.9232348836
 20
-17.690339478
 10
16.8859602394
 20
-17.6838446443
 10
16.8484560864
 20
-17.675467434
 10
16.810605911
 20
-17.6650944748
 10
16.7724110648
 20
-17.6527528869
 10
16.7338697945
 20
-17.63841555
 10
16.6948606328
 20
-17.6218877312
 10
16.6553848799
 20
-17.6031994628
 10
16.6154405331
 20
-17.5823207125
 10
16.5749008753
 20
-17.5589666504
 10
16.5337673001
 20
-17.5331717987
 10
16.4920374048
 20
-17.5049016353
 10
16.4495784847
 20
-17.4737677629
 10
16.406384166
 20
-17.4398025165
 10
16.3624594897
 20
-17.4029735613
 10
16.3176886125
 20
-17.3627954952
 10
16.2720629816
 20
-17.3192993579
 10
16.2255895552
 20
-17.2724541097
 10
16.1781755769
 20
-17.2216812305
 10
16.1298223757
 20
-17.1670273947
 10
16.0805268621
 20
-17.1084459279
 10
16.0301895252
 20
-17.0452182862
 10
15.9788068371
 20
-16.9773963385
 10
15.9263803969
 20
-16.9049282159
 10
15.8728183041
 20
-16.8269397678
 10
15.8180919455
 20
-16.7434470414
 10
15.7622278901
 20
-16.6544339894
 10
15.7052171212
 20
-16.5589783192
 10
15.6470275095
 20
-16.4570735204
 10
15.5876893708
 20
-16.3487261035
 10
15.5272878026
 20
-16.2330333068
 10
15.4658116359
 20
-16.1100185717
 10
15.4032708586
 20
-15.9796584568
 10
15.3397830096
 20
-15.8409798763
 10
15.2753385085
 20
-15.6940181204
 10
15.2099465568
 20
-15.5387378989
 10
15.1437537356
 20
-15.3740602548
 10
15.0767492507
 20
-15.2000347239
 10
15.0089444854
 20
-15.0166117704
 10
14.9405203206
 20
-14.8225638303
 10
14.8714592443
 20
-14.617947019
 10
14.8017804846
 20
-14.4027052211
 10
14.7317212629
 20
-14.175442527
 10
14.661269368
 20
-13.9362833648
 10
14.5904400419
 20
-13.6851033064
 10
14.5195131197
 20
-13.4201331587
 10
14.4484258997
 20
-13.1413557461
 10
14.3772454747
 20
-12.8487882442
 10
14.3064481092
 20
-12.5407129867
 10
14.235867355
 20
-12.2164480176
 10
14.1656756238
 20
-11.8766752929
 10
14.0968596215
 20
-11.5217230143
 10
14.0293596007
 20
-11.1509387201
 10
13.9632428363
 20
-10.764974872
 10
13.8996884247
 20
-10.3661170566
 10
13.838759377
 20
-9.9541496948
 10
13.7803998745
 20
-9.5292883656
 10
13.7256113915
 20
-9.0944653926
 10
13.6744656377
 20
-8.6494602716
 10
13.6268952117
 20
-8.1944935068
 10
13.5836922373
 20
-7.7331589334
 10
13.5449408954
 20
-7.2651785352
 10
13.5105564725
 20
-6.7908303284
 10
13.4810762703
 20
-6.3145421974
 10
13.4566140315
 20
-5.8361818226
 10
13.4370497262
 20
-5.3558815237
 10
13.4225685697
 20
-4.8784661435
 10
13.4133018929
 20
-4.4038404248
 10
13.4091069944
 20
-3.9320996248
 10
13.4097577616
 20
-3.468354358
 10
13.4154156388
 20
-3.0124808609
 10
13.4259051418
 20
-2.564602897
 10
13.4404968637
 20
-2.1302023713
 10
13.4593116121
 20
-1.7099921919
 10
13.4822162864
 20
-1.3032594507
 10
13.5081053118
 20
-0.9133473289
 10
13.5369272661
 20
-0.5415830873
 10
13.5687265527
 20
-0.1866394652
 10
13.6025463025
 20
0.152122139
 10
13.638275217
 20
0.4741892656
 10
13.6760215949
 20
0.7800743742
 10
13.7151610911
 20
1.0719534444
 10
13.7556424159
 20
1.3499747548
 10
13.7975157918
 20
1.6139900269
 10
13.840310962
 20
1.8657304042
 10
13.8840019522
 20
2.1053241942
 10
13.928615213
 20
2.3326430894
 10
13.9737605549
 20
2.5490333119
 10
14.0194094843
 20
2.7545267929
 10
14.0655923082
 20
2.949091601
 10
14.1120081399
 20
3.1339781638
 10
14.1586389785
 20
3.3092324895
 10
14.2055054896
 20
3.4748085698
 10
14.2523655556
 20
3.6318188072
 10
14.2992082657
 20
3.7803061811
 10
14.3460477695
 20
3.9202277121
 10
14.3926801081
 20
4.0525668652
 10
14.4390973963
 20
4.1773556557
 10
14.485311153
 20
4.2945620683
 10
14.5311469563
 20
4.4050735221
 10
14.5765918365
 20
4.5089030389
 10
14.6216626504
 20
4.6060375969
 10
14.6662299868
 20
4.6973255503
 10
14.7102679591
 20
4.7827648474
 10
14.7538063805
 20
4.8623575399
 10
14.7967993927
 20
4.9369581374
 10
14.8392252519
 20
5.0065888924
 10
14.8811092969
 20
5.0712275524
 10
14.922476017
 20
5.1316618698
 10
14.9633179581
 20
5.1879380078
 10
15.0036456236
 20
5.2400098032
 10
15.0435100417
 20
5.288526519
 10
15.0829119258
 20
5.3335349921
 10
15.1218530846
 20
5.3749883857
 10
15.1603858143
 20
5.4133954522
 10
15.1985117653
 20
5.4487930394
 10
15.2362313806
 20
5.4811442995
 10
15.2735948286
 20
5.5108474415
 10
15.3105947909
 20
5.5379275349
 10
15.3472403389
 20
5.56235951
 10
15.3836059205
 20
5.5844663667
 10
15.419684169
 20
5.604274588
 10
15.4554838342
 20
5.6217576909
 10
15.4911031992
 20
5.6371592251
 10
15.5265410376
 20
5.650508143
 10
15.5617995681
 20
5.6617754924
 10
15.5969818974
 20
5.6711179665
 10
15.6320874024
 20
5.678562363
 10
15.6671173494
 20
5.6840818843
 10
15.7021773567
 20
5.6877528306
 10
15.7372657857
 20
5.6896007159
 10
15.7723846011
 20
5.6896000262
  0
LWPOLYLINE
  5
30D
100
AcDbEntity
  8
ASSI
100
AcDbPolyline
 62
7
  6
CONTINUOUS
 90
59
 70
0
 10
-13.4593116242
 20
-1.7099919501
 10
-13.4822163008
 20
-1.3032592158
 10
-13.5081053282
 20
-0.9133471012
 10
-13.5369272845
 20
-0.5415828672
 10
-13.5687265727
 20
-0.186639253
 10
-13.6025463241
 20
0.1521223433
 10
-13.6382752401
 20
0.4741894626
 10
-13.6760216193
 20
0.7800745641
 10
-13.7151611167
 20
1.0719536274
 10
-13.7556424427
 20
1.3499749311
 10
-13.7975158197
 20
1.6139901967
 10
-13.8403109908
 20
1.8657305677
 10
-13.8840019819
 20
2.1053243515
 10
-13.9286152436
 20
2.3326432406
 10
-13.9737605862
 20
2.5490334571
 10
-14.0194095163
 20
2.7545269322
 10
-14.0655923408
 20
2.9490917347
 10
-14.1120081731
 20
3.1339782919
 10
-14.1586390122
 20
3.3092326121
 10
-14.2055055237
 20
3.4748086871
 10
-14.2523655901
 20
3.6318189194
 10
-14.2992083005
 20
3.7803062882
 10
-14.3460478046
 20
3.9202278143
 10
-14.3926801434
 20
4.0525669626
 10
-14.4390974318
 20
4.1773557484
 10
-14.4853111886
 20
4.2945621564
 10
-14.531146992
 20
4.4050736058
 10
-14.5765918722
 20
4.5089031181
 10
-14.6216626861
 20
4.6060376719
 10
-14.6662300225
 20
4.6973256212
 10
-14.7102679947
 20
4.7827649144
 10
-14.753806416
 20
4.8623576031
 10
-14.796799428
 20
4.9369581969
 10
-14.8392252871
 20
5.0065889484
 10
-14.881109332
 20
5.0712276051
 10
-14.922476052
 20
5.1316619194
 10
-14.963317993
 20
5.1879380543
 10
-15.0036456583
 20
5.2400098468
 10
-15.0435100764
 20
5.2885265598
 10
-15.0829119603
 20
5.3335350302
 10
-15.1218531191
 20
5.3749884212
 10
-15.1603858486
 20
5.4133954852
 10
-15.1985117996
 20
5.44879307
 10
-15.2362314148
 20
5.4811443279
 10
-15.2735948628
 20
5.5108474675
 10
-15.3105948251
 20
5.5379275587
 10
-15.347240373
 20
5.5623595318
 10
-15.3836059547
 20
5.5844663864
 10
-15.4196842032
 20
5.6042746057
 10
-15.4554838684
 20
5.6217577066
 10
-15.4911032335
 20
5.637159239
 10
-15.526541072
 20
5.650508155
 10
-15.5617996026
 20
5.6617755025
 10
-15.5969819322
 20
5.6711179747
 10
-15.6320874373
 20
5.6785623694
 10
-15.6671173846
 20
5.6840818889
 10
-15.7021773922
 20
5.6877528334
 10
-15.7372671101
 20
5.6896005162
 10
-15.7723872133
 20
5.6895996241
  0
LWPOLYLINE
  5
30E
100
AcDbEntity
  8
ASSI
100
AcDbPolyline
 62
7
  6
CONTINUOUS
 90
10
 70
0
 10
-13.4566140201
 20
-5.8361815759
 10
-13.4370497173
 20
-5.3558812735
 10
-13.4225685634
 20
-4.8784658907
 10
-13.4133018892
 20
-4.4038401703
 10
-13.4091069935
 20
-3.9320993695
 10
-13.4097577634
 20
-3.468354103
 10
-13.4154156433
 20
-3.0124806073
 10
-13.425905149
 20
-2.5646026459
 10
-13.4404968735
 20
-2.1302021241
 10
-13.4593116242
 20
-1.7099919501
  0
LWPOLYLINE
  5
30F
100
AcDbEntity
  8
ASSI
100
AcDbPolyline
 62
250
  6
CONTINUOUS
 90
40
 70
0
 10
-20.5247028457
 20
-0.4076173332
 10
-20.3594296952
 20
-0.2630399912
 10
-20.1969163614
 20
-0.117596849
 10
-20.0371850794
 20
0.0287120931
 10
-19.8803105559
 20
0.175926123
 10
-19.72626123
 20
0.3240059529
 10
-19.5748980879
 20
0.4728337201
 10
-19.4262444823
 20
0.622393568
 10
-19.2803148843
 20
0.7727013531
 10
-19.1369541515
 20
0.9236867819
 10
-18.9961782621
 20
1.0753401378
 10
-18.8580043555
 20
1.2276711373
 10
-18.7222764311
 20
1.3806386368
 10
-18.5889943482
 20
1.5342502226
 10
-18.4581871528
 20
1.6884983084
 10
-18.3297404756
 20
1.8433189914
 10
-18.2036538501
 20
1.9987232332
 10
-18.0799533041
 20
2.1547000721
 10
-17.9585626136
 20
2.3111527205
 10
-17.8394923095
 20
2.4680792383
 10
-17.7227547306
 20
2.6254815655
 10
-17.6082750751
 20
2.7832687347
 10
-17.4960675281
 20
2.9414310917
 10
-17.386138302
 20
3.0999782906
 10
-17.2783994233
 20
3.2588483262
 10
-17.1728596497
 20
3.4180361053
 10
-17.0695282603
 20
3.577546721
 10
-16.9683169238
 20
3.7373334485
 10
-16.8692282007
 20
3.8973998856
 10
-16.7722754284
 20
4.0577424344
 10
-16.6773854556
 20
4.2183035758
 10
-16.5845624226
 20
4.3790845399
 10
-16.4938162471
 20
4.5400840966
 10
-16.4050816155
 20
4.7012410369
 10
-16.3183689818
 20
4.8625442559
 10
-16.2336803169
 20
5.0240048584
 10
-16.1509368222
 20
5.1855949504
 10
-16.0701157445
 20
5.3473052339
 10
-15.9912506463
 20
5.509145007
 10
-15.9143467035
 20
5.6711142695
  0
LINE
  5
310
100
AcDbEntity
  8
ASSI
100
AcDbLine
 62
7
  6
CONTINUOUS
 10
21.5793143823
 20
-11.7423186227
 11
21.6291901377
 21
-11.7387959783
  0
LINE
  5
311
100
AcDbEntity
  8
ASSI
100
AcDbLine
 62
7
  6
CONTINUOUS
 10
-21.6115438456
 20
-12.1986430921
 11
-21.661419601
 21
-12.1951204477
  0
LINE
  5
312
100
AcDbEntity
  8
ASSI
100
AcDbLine
 62
7
  6
CONTINUOUS
 10
-21.5406126532
 20
-11.1943558541
 11
-21.5904884086
 21
-11.1908332097
  0
LINE
  5
313
100
AcDbEntity
  8
ASSI
100
AcDbLine
 62
7
  6
CONTINUOUS
 10
-21.4693882395
 20
-10.1859170093
 11
-21.5192639949
 21
-10.1823943649
  0
LINE
  5
314
100
AcDbEntity
  8
ASSI
100
AcDbLine
 62
7
  6
CONTINUOUS
 10
-21.4683401391
 20
-10.1710773628
 11
-21.5182158945
 21
-10.1675547184
  0
LINE
  5
315
100
AcDbEntity
  8
ASSI
100
AcDbLine
 62
7
  6
CONTINUOUS
 10
-21.46264544
 20
-10.0904483268
 11
-21.5125211954
 21
-10.0869256825
  0
LINE
  5
316
100
AcDbEntity
  8
ASSI
100
AcDbLine
 62
7
  6
CONTINUOUS
 10
-6.05
 20
28.1768354394
 11
-6.05
 21
29.0029209383
  0
LINE
  5
317
100
AcDbEntity
  8
ASSI
100
AcDbLine
 62
7
  6
CONTINUOUS
 10
-5.3
 20
29.9316297194
 11
-5.3
 21
30.5013569079
  0
LINE
  5
318
100
AcDbEntity
  8
ASSI
100
AcDbLine
 62
7
  6
CONTINUOUS
 10
21.2200046496
 20
-6.6549915019
 11
21.269880405
 21
-6.6514688575
  0
LINE
  5
319
100
AcDbEntity
  8
ASSI
100
AcDbLine
 62
7
  6
CONTINUOUS
 10
-21.3673888358
 20
-8.7417470201
 11
-21.4172645912
 21
-8.7382243757
  0
LINE
  5
31A
100
AcDbEntity
  8
ASSI
100
AcDbLine
 62
7
  6
CONTINUOUS
 10
-21.2361953674
 20
-6.8842295943
 11
-21.2860711228
 21
-6.8807069499
  0
LINE
  5
31B
100
AcDbEntity
  8
ASSI
100
AcDbLine
 62
7
  6
CONTINUOUS
 10
-21.2011390794
 20
-6.387881211
 11
-21.2510148348
 21
-6.3843585666
  0
LINE
  5
31C
100
AcDbEntity
  8
ASSI
100
AcDbLine
 62
7
  6
CONTINUOUS
 10
-21.1227914801
 20
-5.2785879454
 11
-21.1726672355
 21
-5.275065301
  0
LINE
  5
31D
100
AcDbEntity
  8
ASSI
100
AcDbLine
 62
7
  6
CONTINUOUS
 10
-21.1113283425
 20
-5.1162858274
 11
-21.1612040979
 21
-5.112763183
  0
LWPOLYLINE
  5
31E
100
AcDbEntity
  8
ASSI
100
AcDbPolyline
 62
7
  6
CONTINUOUS
 90
15
 70
0
 10
-15.9562633642
 20
5.6808697114
 10
-15.9545386686
 20
5.6790559875
 10
-15.9526488464
 20
5.6773713631
 10
-15.9505938071
 20
5.6758158386
 10
-15.9483681962
 20
5.6743697856
 10
-15.9459771645
 20
5.6730528336
 10
-15.9434363935
 20
5.6719238698
 10
-15.9407462292
 20
5.6709943699
 10
-15.9379061395
 20
5.6702528592
 10
-15.9349305201
 20
5.6697238003
 10
-15.9318202817
 20
5.6694134002
 10
-15.9285743386
 20
5.6693154524
 10
-15.9252041161
 20
5.6694357986
 10
-15.9217133715
 20
5.6697763861
 10
-15.9180981808
 20
5.6703352674
  0
LWPOLYLINE
  5
31F
100
AcDbEntity
  8
ASSI
100
AcDbPolyline
 62
7
  6
CONTINUOUS
 90
25
 70
0
 10
-15.9562630303
 20
5.6808694267
 10
-15.9738152352
 20
5.7005153779
 10
-15.9904719428
 20
5.7200122987
 10
-16.0062191884
 20
5.7393428457
 10
-16.0210441052
 20
5.7584891219
 10
-16.0349340348
 20
5.7774347056
 10
-16.0478765411
 20
5.7961646455
 10
-16.059860969
 20
5.8146620205
 10
-16.0708773993
 20
5.8329103099
 10
-16.0809157607
 20
5.8508953858
 10
-16.089967943
 20
5.8686008645
 10
-16.0980265914
 20
5.8860108134
 10
-16.1050840641
 20
5.9031120603
 10
-16.111134862
 20
5.919888871
 10
-16.1161742458
 20
5.9363260274
 10
-16.120197034
 20
5.9524114655
 10
-16.1232004169
 20
5.968130135
 10
-16.1251822685
 20
5.9834677279
 10
-16.126139765
 20
5.998413676
 10
-16.1260721528
 20
6.0129551411
 10
-16.1249805845
 20
6.0270774044
 10
-16.1228664323
 20
6.0407675375
 10
-16.1197320666
 20
6.0540127366
 10
-16.1155808504
 20
6.0668003348
 10
-16.1104169751
 20
6.0791181541
  0
LWPOLYLINE
  5
320
100
AcDbEntity
  8
0
100
AcDbPolyline
 62
7
  6
CONTINUOUS
 90
2
 70
0
 43
0.3500000006
 10
-1.3577974777
 20
40.0513578644
 10
-1.3577974777
 20
41.5513583221
  0
LINE
  5
321
100
AcDbEntity
  8
ASSI
100
AcDbLine
 62
7
  6
CONTINUOUS
 10
0.0
 20
-17.6986430921
 11
-0.0
 21
31.3013569079
  0
LINE
  5
322
100
AcDbEntity
  8
ASSI
100
AcDbLine
 62
250
  6
CONTINUOUS
 10
20.5825582261
 20
-0.4055950415
 11
20.5247085566
 21
-0.4076933547
  0
LWPOLYLINE
  5
323
100
AcDbEntity
  8
ASSI
100
AcDbPolyline
 62
250
  6
CONTINUOUS
 90
3
 70
0
 10
20.6334769741
 20
-0.4040867356
 10
20.6172948763
 20
-0.4045232844
 10
20.5825582261
 20
-0.4055950415
  0
LINE
  5
324
100
AcDbEntity
  8
ASSI
100
AcDbLine
 62
250
  6
CONTINUOUS
 10
-20.6334765825
 20
-0.4040866516
 11
-20.6003171902
 21
-0.4050237904
  0
LWPOLYLINE
  5
325
100
AcDbEntity
  8
ASSI
100
AcDbPolyline
 62
250
  6
CONTINUOUS
 90
3
 70
0
 10
-20.6003171902
 20
-0.4050237904
 10
-20.544743766
 20
-0.4069399133
 10
-20.5247085566
 20
-0.4076933547
  0
LINE
  5
326
100
AcDbEntity
  8
ASSI
100
AcDbLine
 62
250
  6
CONTINUOUS
 10
-16.9326731319
 20
22.8102899827
 11
-16.9767014163
 21
22.8786934395
  0
LINE
  5
327
100
AcDbEntity
  8
ASSI
100
AcDbLine
 62
250
  6
CONTINUOUS
 10
-16.8863070295
 20
22.7375198862
 11
-16.9326731319
 21
22.8102899827
  0
LINE
  5
328
100
AcDbEntity
  8
ASSI
100
AcDbLine
 62
250
  6
CONTINUOUS
 10
-16.8465275949
 20
22.6744777698
 11
-16.8863070295
 21
22.7375198862
  0
LINE
  5
329
100
AcDbEntity
  8
ASSI
100
AcDbLine
 62
250
  6
CONTINUOUS
 10
-16.7998650428
 20
22.5997878128
 11
-16.8465275949
 21
22.6744777698
  0
LINE
  5
32A
100
AcDbEntity
  8
ASSI
100
AcDbLine
 62
250
  6
CONTINUOUS
 10
-16.7465489343
 20
22.5134255827
 11
-16.7998650428
 21
22.5997878128
  0
LINE
  5
32B
100
AcDbEntity
  8
ASSI
100
AcDbLine
 62
250
  6
CONTINUOUS
 10
-16.6868117163
 20
22.4153767027
 11
-16.7465489343
 21
22.5134255827
  0
LINE
  5
32C
100
AcDbEntity
  8
ASSI
100
AcDbLine
 62
250
  6
CONTINUOUS
 10
-16.6209529028
 20
22.3056253374
 11
-16.6868117163
 21
22.4153767027
  0
LWPOLYLINE
  5
32D
100
AcDbEntity
  8
ASSI
100
AcDbPolyline
 62
250
  6
CONTINUOUS
 90
7
 70
0
 10
-16.3471852318
 20
21.8292809072
 10
-16.3900659109
 20
21.9061121608
 10
-16.4317490865
 20
21.9800148989
 10
-16.4722015689
 20
22.0509900885
 10
-16.5114048639
 20
22.1190399829
 10
-16.5493079451
 20
22.1841641563
 10
-16.6209529028
 20
22.3056253374
  0
LWPOLYLINE
  5
32E
100
AcDbEntity
  8
0
100
AcDbPolyline
 62
7
  6
CONTINUOUS
 90
2
 70
0
 43
0.3500000006
 10
0.9993453097
 20
40.0513578644
 10
0.9993453097
 20
41.5513583221
  0
LINE
  5
32F
100
AcDbEntity
  8
ASSI
100
AcDbLine
 62
7
  6
CONTINUOUS
 10
5.3
 20
30.5013569079
 11
5.3
 21
29.9316297193
  0
LWPOLYLINE
  5
330
100
AcDbEntity
  8
ASSI
100
AcDbPolyline
 62
250
  6
CONTINUOUS
 90
111
 70
0
 10
16.4721164212
 20
22.050883431
 10
16.432258628
 20
21.9809835785
 10
16.3912313219
 20
21.9082355382
 10
16.3490309913
 20
21.8325836368
 10
16.305725649
 20
21.7540816489
 10
16.2614728812
 20
21.6728928631
 10
16.2163361281
 20
21.5890093748
 10
16.1703491963
 20
21.5024371328
 10
16.1236525928
 20
21.4133602941
 10
16.0763240777
 20
21.3217910208
 10
16.0284029115
 20
21.2277151905
 10
15.9799891351
 20
21.1312776318
 10
15.9311505137
 20
21.032474733
 10
15.8819419848
 20
20.9313081361
 10
15.8324542604
 20
20.8279306518
 10
15.7827573205
 20
20.7223421451
 10
15.7329074859
 20
20.6145408146
 10
15.6829820221
 20
20.5046770877
 10
15.6330528804
 20
20.3927601881
 10
15.5831749071
 20
20.2787790172
 10
15.533403207
 20
20.1628536318
 10
15.4838044971
 20
20.0449930216
 10
15.4344348679
 20
19.9251863747
 10
15.3853336961
 20
19.8035241377
 10
15.3365605953
 20
19.6800099716
 10
15.2881723686
 20
19.5546384313
 10
15.2402028791
 20
19.4274863809
 10
15.1927082383
 20
19.2985593235
 10
15.1457422076
 20
19.1678500119
 10
15.0993332635
 20
19.0354162478
 10
15.0535320454
 20
18.9012597148
 10
15.0083908005
 20
18.7653770136
 10
14.9639384009
 20
18.6278183751
 10
14.9202184613
 20
18.4885696437
 10
14.877283617
 20
18.3476432832
 10
14.8351754164
 20
18.2051295297
 10
14.793939065
 20
18.0610178049
 10
14.7536214823
 20
17.9153170818
 10
14.7142673629
 20
17.7681470426
 10
14.6759254714
 20
17.6195163517
 10
14.6386359661
 20
17.4694148778
 10
14.6024309379
 20
17.3179342344
 10
14.5673564788
 20
17.1650947353
 10
14.5334506953
 20
17.0108747115
 10
14.5007324837
 20
16.8553028754
 10
14.4692366562
 20
16.6983676283
 10
14.4390058965
 20
16.5400792378
 10
14.4100694989
 20
16.3804992723
 10
14.382461582
 20
16.2196121268
 10
14.3562205546
 20
16.0574321553
 10
14.3313818786
 20
15.8940659718
 10
14.3079813671
 20
15.7295121556
 10
14.2860518625
 20
15.5637710247
 10
14.2656244961
 20
15.3969519393
 10
14.2467330922
 20
15.2290587001
 10
14.2294082164
 20
15.0600865567
 10
14.2136759339
 20
14.8901321758
 10
14.1995667167
 20
14.7191991359
 10
14.1871096941
 20
14.5472830467
 10
14.1763284117
 20
14.3744687406
 10
14.1672502558
 20
14.2007348785
 10
14.1599022445
 20
14.0261021023
 10
14.1543070619
 20
13.8507183664
 10
14.1504928012
 20
13.6745728446
 10
14.148481248
 20
13.4976758748
 10
14.1482855967
 20
13.3202073676
 10
14.149931447
 20
13.1421788426
 10
14.1534383042
 20
12.9635785431
 10
14.1588098332
 20
12.7845516705
 10
14.1660699769
 20
12.6050770792
 10
14.175234135
 20
12.4251758588
 10
14.1862925544
 20
12.2450567835
 10
14.1992691811
 20
12.0647034991
 10
14.2141738097
 20
11.884132571
 10
14.230974923
 20
11.7036024363
 10
14.2496927774
 20
11.5231175282
 10
14.2703350265
 20
11.3426739449
 10
14.2928504935
 20
11.1625179203
 10
14.3172558259
 20
10.9826525438
 10
14.3435559093
 20
10.8030755361
 10
14.3716808979
 20
10.6240253552
 10
14.4016425862
 20
10.4455106
 10
14.4334441437
 20
10.2675237336
 10
14.4670016377
 20
10.0902792587
 10
14.5023159348
 20
9.9138106238
 10
14.5393945572
 20
9.7380856527
 10
14.5781622609
 20
9.5632205814
 10
14.6186128798
 20
9.3892434931
 10
14.6607542622
 20
9.2161276521
 10
14.704530733
 20
9.0439071325
 10
14.7499489961
 20
8.8725472982
 10
14.7969972742
 20
8.7020840949
 10
14.8455909671
 20
8.5326575442
 10
14.895722834
 20
8.3642811655
 10
14.9473891649
 20
8.1969428491
 10
15.0005097975
 20
8.0307442772
 10
15.0550659572
 20
7.8657161338
 10
15.111059783
 20
7.7018291841
 10
15.1684415183
 20
7.5390952687
 10
15.2272019227
 20
7.3775041758
 10
15.2873276147
 20
7.2170674987
 10
15.3487616245
 20
7.0578297938
 10
15.4114900916
 20
6.8997893784
 10
15.4754986459
 20
6.7429492936
 10
15.5407287332
 20
6.5873612064
 10
15.6071659959
 20
6.4330203957
 10
15.6747911059
 20
6.2799329176
 10
15.7435374234
 20
6.1281666367
 10
15.8133700425
 20
5.9777446277
 10
15.8842852055
 20
5.8286451451
 10
15.9562619868
 20
5.6808688333
  0
LINE
  5
331
100
AcDbEntity
  8
ASSI
100
AcDbLine
 62
250
  6
CONTINUOUS
 10
16.5484779131
 20
22.1827120542
 11
16.4721164212
 21
22.050883431
  0
LINE
  5
332
100
AcDbEntity
  8
ASSI
100
AcDbLine
 62
250
  6
CONTINUOUS
 10
16.6197426939
 20
22.3035849831
 11
16.5484779131
 21
22.1827120542
  0
LINE
  5
333
100
AcDbEntity
  8
ASSI
100
AcDbLine
 62
250
  6
CONTINUOUS
 10
16.6853124624
 20
22.4128898491
 11
16.6197426939
 21
22.3035849831
  0
LINE
  5
334
100
AcDbEntity
  8
ASSI
100
AcDbLine
 62
250
  6
CONTINUOUS
 10
16.7448297848
 20
22.510636529
 11
16.6853124624
 21
22.4128898491
  0
LINE
  5
335
100
AcDbEntity
  8
ASSI
100
AcDbLine
 62
250
  6
CONTINUOUS
 10
16.7980360795
 20
22.5968376949
 11
16.7448297848
 21
22.510636529
  0
LINE
  5
336
100
AcDbEntity
  8
ASSI
100
AcDbLine
 62
250
  6
CONTINUOUS
 10
16.8446719105
 20
22.6715174766
 11
16.7980360795
 21
22.5968376949
  0
LINE
  5
337
100
AcDbEntity
  8
ASSI
100
AcDbLine
 62
250
  6
CONTINUOUS
 10
16.9018356132
 20
22.7619766722
 11
16.8446719105
 21
22.6715174766
  0
LINE
  5
338
100
AcDbEntity
  8
ASSI
100
AcDbLine
 62
250
  6
CONTINUOUS
 10
16.9533161005
 20
22.8424466124
 11
16.9018356132
 21
22.7619766722
  0
LINE
  5
339
100
AcDbEntity
  8
ASSI
100
AcDbLine
 62
250
  6
CONTINUOUS
 10
16.9767013167
 20
22.8786938357
 11
16.9533161005
 21
22.8424466124
  0
LINE
  5
33A
100
AcDbEntity
  8
ASSI
100
AcDbLine
 62
250
  6
CONTINUOUS
 10
20.6634120807
 20
-0.4034138258
 11
20.6334769741
 21
-0.4040867356
  0
LINE
  5
33B
100
AcDbEntity
  8
ASSI
100
AcDbLine
 62
250
  6
CONTINUOUS
 10
-20.6900387589
 20
-0.4030072365
 11
-20.6634127317
 21
-0.4034150835
  0
LINE
  5
33C
100
AcDbEntity
  8
ASSI
100
AcDbLine
 62
250
  6
CONTINUOUS
 10
-20.6634127317
 20
-0.4034150835
 11
-20.6334765825
 21
-0.4040866516
  0
LINE
  5
33D
100
AcDbEntity
  8
ASSI
100
AcDbLine
 62
7
  6
CONTINUOUS
 10
6.05
 20
29.0029209383
 11
6.05
 21
28.1768354394
  0
LWPOLYLINE
  5
33E
100
AcDbEntity
  8
ASSI
100
AcDbPolyline
 62
7
  6
CONTINUOUS
 90
25
 70
0
 10
15.9562625333
 20
5.6808692887
 10
15.9738140352
 20
5.7005170118
 10
15.9904710577
 20
5.7200134624
 10
16.0062191438
 20
5.7393423531
 10
16.0210443136
 20
5.7584881493
 10
16.0349339584
 20
5.7774343479
 10
16.047876833
 20
5.7961635111
 10
16.0598615571
 20
5.8146602786
 10
16.0708776648
 20
5.8329092782
 10
16.0809164643
 20
5.8508934422
 10
16.0899690107
 20
5.8685981659
 10
16.0980273099
 20
5.8860088789
 10
16.1050853103
 20
5.9031090195
 10
16.1111365694
 20
5.9198848649
 10
16.1161756149
 20
5.9363227593
 10
16.1201990853
 20
5.9524067577
 10
16.1232030807
 20
5.968124138
 10
16.1251846902
 20
5.9834622618
 10
16.1261432814
 20
5.9984058849
 10
16.1260776017
 20
6.0129432194
 10
16.1249872377
 20
6.0270629143
 10
16.1228740655
 20
6.0407510018
 10
16.1197398646
 20
6.05399592
 10
16.1155863437
 20
6.0667884912
 10
16.1104165483
 20
6.0791189556
  0
LWPOLYLINE
  5
33F
100
AcDbEntity
  8
ASSI
100
AcDbPolyline
 62
7
  6
CONTINUOUS
 90
16
 70
0
 10
15.9562619868
 20
5.6808688333
 10
15.9545378118
 20
5.6790553903
 10
15.9526483817
 20
5.6773709824
 10
15.9505936062
 20
5.6758156102
 10
15.9483680862
 20
5.6743696245
 10
15.945977017
 20
5.6730526755
 10
15.9434362122
 20
5.6719237128
 10
15.9407460635
 20
5.6709942332
 10
15.9379059932
 20
5.6702527411
 10
15.9349303941
 20
5.6697236971
 10
15.9318201276
 20
5.669413312
 10
15.9285741571
 20
5.6693153755
 10
15.9252040528
 20
5.6694357173
 10
15.9217136203
 20
5.6697762802
 10
15.9180988876
 20
5.6703351212
 10
15.8786613292
 20
5.678504898
  0
LWPOLYLINE
  5
340
100
AcDbEntity
  8
ASSI
100
AcDbPolyline
 62
7
  6
CONTINUOUS
 90
5
 70
0
 10
-15.7723872133
 20
5.6895996241
 10
-15.8076445539
 20
5.6877505173
 10
-15.8430746947
 20
5.684053316
 10
-15.8786420725
 20
5.6785079001
 10
-15.9180981808
 20
5.6703352674
  0
LINE
  5
341
100
AcDbEntity
  8
ASSI
100
AcDbLine
 62
7
  6
CONTINUOUS
 10
15.5659801514
 20
7.3762399079
 11
15.6193360171
 21
7.3762399079
  0
LWPOLYLINE
  5
342
100
AcDbEntity
  8
ASSI
100
AcDbPolyline
 62
7
  6
CONTINUOUS
 90
4
 70
0
 10
15.7723846011
 20
5.6896000262
 10
15.8076445173
 20
5.6877505202
 10
15.8430823788
 20
5.6840521173
 10
15.8786613292
 20
5.678504898
  0
LINE
  5
343
100
AcDbEntity
  8
ASSI
100
AcDbLine
 62
7
  6
CONTINUOUS
 10
14.5827112177
 20
11.6264419079
 11
14.6329564018
 21
11.6264419079
  0
LWPOLYLINE
  5
344
100
AcDbEntity
  8
ASSI
100
AcDbPolyline
 62
250
  6
CONTINUOUS
 90
34
 70
0
 10
20.3357362081
 20
0.4810911546
 10
20.3547507109
 20
0.4638155884
 10
20.3730667469
 20
0.4457135269
 10
20.3906546443
 20
0.4268118605
 10
20.4074722083
 20
0.4071515373
 10
20.4235057767
 20
0.3867493188
 10
20.4387690068
 20
0.3655964431
 10
20.4532356091
 20
0.3437234434
 10
20.4668804695
 20
0.3211618494
 10
20.4797184424
 20
0.2979038001
 10
20.4917257141
 20
0.2739819416
 10
20.5028796711
 20
0.2494299285
 10
20.5131963046
 20
0.2242408234
 10
20.5226543297
 20
0.1984492477
 10
20.5312337779
 20
0.172090749
 10
20.5389518463
 20
0.1451592265
 10
20.5457898233
 20
0.1176910595
 10
20.5517304432
 20
0.0897234963
 10
20.5567921924
 20
0.0612512296
 10
20.5609589478
 20
0.0323121565
 10
20.5642161686
 20
0.0029450054
 10
20.5665837349
 20
-0.0268547659
 10
20.5680481072
 20
-0.05704806
 10
20.5685974519
 20
-0.0875948924
 10
20.5682531491
 20
-0.1184989638
 10
20.5670042168
 20
-0.1497203287
 10
20.5648414856
 20
-0.1812180443
 10
20.5617879497
 20
-0.2129948743
 10
20.5578351117
 20
-0.2450106191
 10
20.5529763891
 20
-0.2772235767
 10
20.5472365641
 20
-0.3096349796
 10
20.5406198388
 20
-0.3422181586
 10
20.533111541
 20
-0.3749179737
 10
20.5247085566
 20
-0.4076933547
  0
LINE
  5
345
100
AcDbEntity
  8
ASSI
100
AcDbLine
 62
250
  6
CONTINUOUS
 10
20.5246993406
 20
-0.4075677719
 11
21.7480270125
 21
-17.6986430921
  0
LINE
  5
346
100
AcDbEntity
  8
ASSI
100
AcDbLine
 62
7
  6
CONTINUOUS
 10
20.778768029
 20
-0.4076933547
 11
22.0
 21
-17.6986430921
  0
LINE
  5
347
100
AcDbEntity
  8
0
100
AcDbLine
 62
7
  6
CONTINUOUS
 10
21.961109174
 20
-17.148002973
 11
21.9555870782
 21
-17.0698177603
  0
LINE
  5
348
100
AcDbEntity
  8
ASSI
100
AcDbLine
 62
7
  6
CONTINUOUS
 10
21.269880405
 20
-6.6514688575
 11
21.6291901377
 21
-11.7387959783
  0
LINE
  5
349
100
AcDbEntity
  8
ASSI
100
AcDbLine
 62
250
  6
CONTINUOUS
 10
17.0337991215
 20
-17.6986430921
 11
16.8147410826
 21
-33.9073692953
  0
LWPOLYLINE
  5
34A
100
AcDbEntity
  8
ASSI
100
AcDbPolyline
 62
250
  6
CONTINUOUS
 90
16
 70
0
 10
20.778768029
 20
-0.4076933547
 10
20.7782578761
 20
-0.4069291007
 10
20.776840259
 20
-0.4062294997
 10
20.7745161701
 20
-0.4055950415
 10
20.7712872366
 20
-0.4050261703
 10
20.7671557188
 20
-0.4045232844
 10
20.7621245091
 20
-0.4040867356
 10
20.7561971296
 20
-0.4037168298
 10
20.7493777298
 20
-0.4034138258
 10
20.7416710839
 20
-0.4031779358
 10
20.7330825869
 20
-0.4030093248
 10
20.7236182514
 20
-0.402908111
 10
20.7132847029
 20
-0.4028743652
 10
20.7020891756
 20
-0.402908111
 10
20.6900395071
 20
-0.4030093248
 10
20.6634120807
 20
-0.4034138258
  0
LWPOLYLINE
  5
34B
100
AcDbEntity
  8
ASSI
100
AcDbPolyline
 62
250
  6
CONTINUOUS
 90
37
 70
0
 10
15.9143813794
 20
5.6711088623
 10
15.9977549577
 20
5.495647612
 10
16.0834415532
 20
5.3203407529
 10
16.1714345264
 20
5.1451882849
 10
16.261692704
 20
4.9701771555
 10
16.3542433407
 20
4.7953204173
 10
16.4491817575
 20
4.6206572277
 10
16.5465035219
 20
4.4461739559
 10
16.6461969289
 20
4.2718842326
 10
16.7483453371
 20
4.0978681076
 10
16.8529346381
 20
3.9241285035
 10
16.9599605067
 20
3.7506624976
 10
17.0695197929
 20
3.5775413719
 10
17.1815951459
 20
3.4047685462
 10
17.2961828505
 20
3.2323406006
 10
17.4133987803
 20
3.0603185579
 10
17.5332334657
 20
2.8886915255
 10
17.6556722201
 20
2.7174703959
 10
17.7808214615
 20
2.5467488692
 10
17.9086725036
 20
2.3765154254
 10
18.0392065262
 20
2.2067815845
 10
18.1725130379
 20
2.0376756065
 10
18.3085650455
 20
1.8692065245
 10
18.4473585401
 20
1.7013653056
 10
18.5890155345
 20
1.5342531101
 10
18.7334947785
 20
1.3678866139
 10
18.8808023414
 20
1.2022491412
 10
19.0311285097
 20
1.0373918257
 10
19.1844488663
 20
0.8733048784
 10
19.3407471162
 20
0.7099980882
 10
19.5002222756
 20
0.5475519556
 10
19.6628560606
 20
0.3859443418
 10
19.8286196862
 20
0.2251973857
 10
19.9976925919
 20
0.0654580045
 10
20.1701159319
 20
-0.0932248293
 10
20.3457942068
 20
-0.2509000881
 10
20.5246993406
 20
-0.4075677719
  0
LINE
  5
34C
100
AcDbEntity
  8
ASSI
100
AcDbLine
 62
250
  6
CONTINUOUS
 10
21.747432639
 20
-17.6986430921
 11
21.4640268074
 21
-33.9073692953
  0
LINE
  5
34D
100
AcDbEntity
  8
0
100
AcDbLine
 62
7
  6
CONTINUOUS
 10
21.7170756317
 20
-33.9073692953
 11
21.9999954628
 21
-17.6989030307
  0
LINE
  5
34E
100
AcDbEntity
  8
0
100
AcDbLine
 62
7
  6
CONTINUOUS
 10
21.9978135022
 20
-17.6986430921
 11
21.9969240052
 21
-17.7488570346
  0
LINE
  5
34F
100
AcDbEntity
  8
ASSI
100
AcDbLine
 62
250
  6
CONTINUOUS
 10
-16.516430199
 20
24.6671744028
 11
16.516430199
 21
24.6671744028
  0
LINE
  5
350
100
AcDbEntity
  8
ASSI
100
AcDbLine
 62
7
  6
CONTINUOUS
 10
16.9767014091
 20
22.8786934682
 11
16.516430199
 21
24.6671744028
  0
LINE
  5
351
100
AcDbEntity
  8
ASSI
100
AcDbLine
 62
250
  6
CONTINUOUS
 10
-14.2249326041
 20
26.8407710607
 11
14.2249326041
 21
26.8407710607
  0
LINE
  5
352
100
AcDbEntity
  8
ASSI
100
AcDbLine
 62
250
  6
CONTINUOUS
 10
-6.1867426942
 20
28.0274224418
 11
6.1867426942
 21
28.0274224418
  0
LINE
  5
353
100
AcDbEntity
  8
ASSI
100
AcDbLine
 62
250
  6
CONTINUOUS
 10
-6.05
 20
28.1768354394
 11
6.05
 21
28.1768354394
  0
LINE
  5
354
100
AcDbEntity
  8
ASSI
100
AcDbLine
 62
250
  6
CONTINUOUS
 10
6.05
 20
29.0029209383
 11
-6.05
 21
29.0029209383
  0
LINE
  5
355
100
AcDbEntity
  8
ASSI
100
AcDbLine
 62
250
  6
CONTINUOUS
 10
5.4184210526
 20
29.7849914907
 11
-5.4184210526
 21
29.7849914908
  0
LINE
  5
356
100
AcDbEntity
  8
ASSI
100
AcDbLine
 62
250
  6
CONTINUOUS
 10
5.3
 20
29.9316297193
 11
-5.3
 21
29.9316297194
  0
LINE
  5
357
100
AcDbEntity
  8
ASSI
100
AcDbLine
 62
250
  6
CONTINUOUS
 10
5.3
 20
30.5013569079
 11
-5.3
 21
30.5013569079
  0
LINE
  5
358
100
AcDbEntity
  8
ASSI
100
AcDbLine
 62
7
  6
CONTINUOUS
 10
4.5
 20
31.3013569079
 11
-4.5
 21
31.3013569079
  0
LWPOLYLINE
  5
359
100
AcDbEntity
  8
0
100
AcDbPolyline
 62
7
  6
CONTINUOUS
 90
3
 70
0
 43
0.3500000006
 10
1.4993453207
 20
40.6942158508
 10
-0.0006546702
 20
40.6942158508
 10
0.6422024953
 20
43.0513587799
  0
LWPOLYLINE
  5
35A
100
AcDbEntity
  8
0
100
AcDbPolyline
 62
7
  6
CONTINUOUS
 90
3
 70
0
 43
0.3500000006
 10
-0.8577975376
 20
40.6942158508
 10
-2.3577974997
 20
40.6942158508
 10
-1.7149403629
 20
43.0513587799
  0
ARC
  5
35B
100
AcDbEntity
  8
ASSI
100
AcDbCircle
 62
7
  6
CONTINUOUS
 10
-211.9943667763
 20
-17.6986430921
 40
166.4
100
AcDbArc
 50
0.0
 51
14.7500189828
  0
ARC
  5
35C
100
AcDbEntity
  8
ASSI
100
AcDbCircle
 62
7
  6
CONTINUOUS
 10
-88.8115185605
 20
-33.8986430921
 40
0.5
100
AcDbArc
 50
181.0
 51
270.0
  0
ARC
  5
35D
100
AcDbEntity
  8
ASSI
100
AcDbCircle
 62
7
  6
CONTINUOUS
 10
-81.2096594116
 20
23.903367597
 40
3.0
100
AcDbArc
 50
101.7249286284
 51
165.2499810172
  0
ARC
  5
35E
100
AcDbEntity
  8
ASSI
100
AcDbCircle
 62
7
  6
CONTINUOUS
 10
-72.0943667763
 20
30.5013569079
 40
0.8
100
AcDbArc
 50
90.0
 51
180.0
  0
ARC
  5
35F
100
AcDbEntity
  8
ASSI
100
AcDbCircle
 62
7
  6
CONTINUOUS
 10
-72.8443667763
 20
29.0029209383
 40
0.8
100
AcDbArc
 50
102.153197469
 51
180.0000001108
  0
ARC
  5
360
100
AcDbEntity
  8
ASSI
100
AcDbCircle
 62
7
  6
CONTINUOUS
 10
-73.7943667763
 20
28.1768354394
 40
0.15
100
AcDbArc
 50
275.0705337744
 51
360.0
  0
ARC
  5
361
100
AcDbEntity
  8
ASSI
100
AcDbCircle
 62
7
  6
CONTINUOUS
 10
-73.0443667763
 20
29.9316297193
 40
0.15
100
AcDbArc
 50
282.153197469
 51
360.0
  0
ARC
  5
362
100
AcDbEntity
  8
ASSI
100
AcDbCircle
 62
7
  6
CONTINUOUS
 10
76.8056332237
 20
-17.6986430921
 40
166.4
100
AcDbArc
 50
165.2499810172
 51
180.0
  0
ARC
  5
363
100
AcDbEntity
  8
ASSI
100
AcDbCircle
 62
7
  6
CONTINUOUS
 10
-67.5943667763
 20
-41.6986430921
 40
70.0
100
AcDbArc
 50
78.2750713716
 51
84.9294662257
  0
ARC
  5
364
100
AcDbEntity
  8
ASSI
100
AcDbCircle
 62
7
  6
CONTINUOUS
 10
-67.5943667763
 20
-41.6986430921
 40
70.0
100
AcDbArc
 50
95.0705337743
 51
101.7249286284
  0
ARC
  5
365
100
AcDbEntity
  8
0
100
AcDbCircle
 62
7
  6
CONTINUOUS
 10
-57.5943667763
 20
-32.0986430921
 40
2.5
100
AcDbArc
 50
247.0080521901
 51
292.9919478099
  0
ARC
  5
366
100
AcDbEntity
  8
ASSI
100
AcDbCircle
 62
7
  6
CONTINUOUS
 10
-46.3772149922
 20
-33.8986430921
 40
0.5
100
AcDbArc
 50
270.0
 51
359.0
  0
ARC
  5
367
100
AcDbEntity
  8
ASSI
100
AcDbCircle
 62
7
  6
CONTINUOUS
 10
-53.979074141
 20
23.903367597
 40
3.0
100
AcDbArc
 50
14.7500189828
 51
78.2750713716
  0
ARC
  5
368
100
AcDbEntity
  8
ASSI
100
AcDbCircle
 62
7
  6
CONTINUOUS
 10
-59.9465347763
 20
10.3230389079
 40
1.303416637
100
AcDbArc
 50
292.8428913314
 51
90.0
  0
ARC
  5
369
100
AcDbEntity
  8
ASSI
100
AcDbCircle
 62
7
  6
CONTINUOUS
 10
-62.3443667763
 20
29.0029209383
 40
0.8
100
AcDbArc
 50
359.9999998892
 51
77.846802531
  0
ARC
  5
36A
100
AcDbEntity
  8
ASSI
100
AcDbCircle
 62
7
  6
CONTINUOUS
 10
-63.0943667763
 20
30.5013569079
 40
0.8
100
AcDbArc
 50
0.0
 51
90.0
  0
ARC
  5
36B
100
AcDbEntity
  8
ASSI
100
AcDbCircle
 62
7
  6
CONTINUOUS
 10
-60.0645177763
 20
10.3230389079
 40
0.51713
100
AcDbArc
 50
270.0
 51
90.0
  0
ARC
  5
36C
100
AcDbEntity
  8
ASSI
100
AcDbCircle
 62
7
  6
CONTINUOUS
 10
-61.3943667763
 20
28.1768354394
 40
0.15
100
AcDbArc
 50
180.0
 51
264.9294662256
  0
ARC
  5
36D
100
AcDbEntity
  8
ASSI
100
AcDbCircle
 62
7
  6
CONTINUOUS
 10
-62.1443667763
 20
29.9316297193
 40
0.15
100
AcDbArc
 50
180.0
 51
257.846802531
  0
ARC
  5
36E
100
AcDbEntity
  8
ASSI
100
AcDbCircle
 62
7
  6
CONTINUOUS
 10
-21.2171517157
 20
-33.8986430921
 40
0.5
100
AcDbArc
 50
180.9999998631
 51
269.9999921572
  0
ARC
  5
36F
100
AcDbEntity
  8
ASSI
100
AcDbCircle
 62
7
  6
CONTINUOUS
 10
-31.5
 20
13.3013569079
 40
17.0
100
AcDbArc
 50
311.0503048193
 51
30.3996660716
  0
ARC
  5
370
100
AcDbEntity
  8
ASSI
100
AcDbCircle
 62
7
  6
CONTINUOUS
 10
-13.6152926353
 20
23.903367597
 40
3.0
100
AcDbArc
 50
101.7249286284
 51
165.2499810172
  0
ARC
  5
371
100
AcDbEntity
  8
ASSI
100
AcDbCircle
 62
7
  6
CONTINUOUS
 10
-19.4819983887
 20
-0.4992821088
 40
1.3
100
AcDbArc
 50
131.0503048193
 51
175.96
  0
ARC
  5
372
100
AcDbEntity
  8
ASSI
100
AcDbCircle
 62
7
  6
CONTINUOUS
 10
-5.25
 20
29.0029209383
 40
0.8
100
AcDbArc
 50
102.153197469
 51
180.0
  0
ARC
  5
373
100
AcDbEntity
  8
ASSI
100
AcDbCircle
 62
7
  6
CONTINUOUS
 10
-4.5
 20
30.5013569079
 40
0.8
100
AcDbArc
 50
90.0
 51
180.0
  0
ARC
  5
374
100
AcDbEntity
  8
ASSI
100
AcDbCircle
 62
7
  6
CONTINUOUS
 10
-6.2
 20
28.1768354394
 40
0.15
100
AcDbArc
 50
275.0705337743
 51
360.0
  0
ARC
  5
375
100
AcDbEntity
  8
ASSI
100
AcDbCircle
 62
7
  6
CONTINUOUS
 10
-5.45
 20
29.9316297194
 40
0.15
100
AcDbArc
 50
282.153197469
 51
360.0
  0
ARC
  5
376
100
AcDbEntity
  8
ASSI
100
AcDbCircle
 62
7
  6
CONTINUOUS
 10
0.0
 20
-41.6986430921
 40
70.0
100
AcDbArc
 50
95.0705337743
 51
101.7249286284
  0
ARC
  5
377
100
AcDbEntity
  8
ASSI
100
AcDbCircle
 62
7
  6
CONTINUOUS
 10
0.0
 20
-41.6986430921
 40
70.0
100
AcDbArc
 50
78.2750713716
 51
84.9294662257
  0
ARC
  5
378
100
AcDbEntity
  8
0
100
AcDbCircle
 62
7
  6
CONTINUOUS
 10
0.0
 20
-32.0986430921
 40
2.5
100
AcDbArc
 50
246.9886726115
 51
293.0113273885
  0
ARC
  5
379
100
AcDbEntity
  8
ASSI
100
AcDbCircle
 62
7
  6
CONTINUOUS
 10
21.2171517157
 20
-33.8986430921
 40
0.5
100
AcDbArc
 50
270.0000078428
 51
359.0000001369
  0
ARC
  5
37A
100
AcDbEntity
  8
ASSI
100
AcDbCircle
 62
7
  6
CONTINUOUS
 10
31.5
 20
13.3013569079
 40
17.0
100
AcDbArc
 50
149.6003366084
 51
228.9496951807
  0
ARC
  5
37B
100
AcDbEntity
  8
ASSI
100
AcDbCircle
 62
7
  6
CONTINUOUS
 10
31.5
 20
13.3013569079
 40
16.95
100
AcDbArc
 50
185.6709395485
 51
200.4606757091
  0
ARC
  5
37C
100
AcDbEntity
  8
ASSI
100
AcDbCircle
 62
7
  6
CONTINUOUS
 10
13.6152926353
 20
23.903367597
 40
3.0
100
AcDbArc
 50
14.7500189828
 51
78.2750713716
  0
ARC
  5
37D
100
AcDbEntity
  8
ASSI
100
AcDbCircle
 62
7
  6
CONTINUOUS
 10
15.7159454997
 20
22.5616829606
 40
1.3000000292
100
AcDbArc
 50
329.6003341001
 51
14.1141279946
  0
ARC
  5
37E
100
AcDbEntity
  8
ASSI
100
AcDbCircle
 62
7
  6
CONTINUOUS
 10
19.4819983887
 20
-0.4992821088
 40
1.3
100
AcDbArc
 50
4.04
 51
48.9496951807
  0
ARC
  5
37F
100
AcDbEntity
  8
ASSI
100
AcDbCircle
 62
7
  6
CONTINUOUS
 10
5.25
 20
29.0029209383
 40
0.8
100
AcDbArc
 50
0.0
 51
77.846802531
  0
ARC
  5
380
100
AcDbEntity
  8
ASSI
100
AcDbCircle
 62
7
  6
CONTINUOUS
 10
4.5
 20
30.5013569079
 40
0.8
100
AcDbArc
 50
0.0
 51
90.0
  0
ARC
  5
381
100
AcDbEntity
  8
ASSI
100
AcDbCircle
 62
7
  6
CONTINUOUS
 10
6.2
 20
28.1768354394
 40
0.15
100
AcDbArc
 50
180.0
 51
264.9294662257
  0
ARC
  5
382
100
AcDbEntity
  8
ASSI
100
AcDbCircle
 62
7
  6
CONTINUOUS
 10
5.45
 20
29.9316297193
 40
0.15
100
AcDbArc
 50
180.0
 51
257.846802531
  0
ELLIPSE
  5
383
100
AcDbEntity
  8
0
100
AcDbEllipse
 62
7
  6
CONTINUOUS
 10
-148.6008617689
 20
14.8541701759
 30
0.0
 11
148.2
 21
-0.0
 31
0.0
 40
0.2679491924
 41
5.3474559225
 42
5.3486265356
  0
ELLIPSE
  5
384
100
AcDbEntity
  8
0
100
AcDbEllipse
 62
7
  6
CONTINUOUS
 10
13.4121282162
 20
14.1140806497
 30
0.0
 11
145.9224965316
 21
-0.0
 31
0.0
 40
0.2679971882
 41
-2.2186132028
 42
-2.217282273
  0
ENDSEC
  0
SECTION
  2
OBJECTS
  0
DICTIONARY
  5
C
100
AcDbDictionary
280
0
281
1
  3
ACAD_GROUP
350
D
  3
ACAD_MLINESTYLE
350
17
  3
ACAD_LAYOUT
350
1A
  3
ACAD_PLOTSETTINGS
350
19
  3
ACAD_PLOTSTYLENAME
350
E
  0
DICTIONARY
  5
D
102
{ACAD_REACTORS
330
C
102
}
100
AcDbDictionary
280
0
281
1
  0
ACDBDICTIONARYWDFLT
  5
E
102
{ACAD_REACTORS
330
C
102
}
100
AcDbDictionary
281
1
  3
Normal
350
F
100
AcDbDictionaryWithDefault
340
F
  0
DICTIONARY
  5
17
102
{ACAD_REACTORS
330
C
102
}
100
AcDbDictionary
280
0
281
1
  3
Standard
350
18
  0
DICTIONARY
  5
19
102
{ACAD_REACTORS
330
C
102
}
100
AcDbDictionary
281
1
  0
DICTIONARY
  5
1A
102
{ACAD_REACTORS
330
C
102
}
100
AcDbDictionary
281
1
  3
Model
350
385
  3
Layout1
350
386
  0
ACDBPLACEHOLDER
  5
F
102
{ACAD_REACTORS
330
E
102
}
  0
MLINESTYLE
  5
18
102
{ACAD_REACTORS
330
17
102
}
100
AcDbMlineStyle
  2
STANDARD
 70
0
  3

 62
256
 51
90.0
 52
90.0
 71
2
 49
0.5
 62
256
  6
BYLAYER
 49
-0.5
 62
256
  6
BYLAYER
  0
LAYOUT
  5
385
102
{ACAD_REACTORS
330
1A
102
}
100
AcDbPlotSettings
  1

  2
none_device
  4
ISO_A4_(297.00_x_210.00_MM)
  6

 40
0.0
 41
0.0
 42
0.0
 43
0.0
 44
297.0
 45
210.0
 46
0.0
 47
0.0
 48
0.0
 49
0.0
140
0.0
141
0.0
142
1.0
143
1.0
 70
1024
 72
1
 73
0
 74
0
  7

 75
0
147
1.0
148
0.0
149
0.0
100
AcDbLayout
  1
Model
 70
0
 71
0
 10
0.0
 20
0.0
 11
297.0
 21
210.0
 12
0.0
 22
0.0
 32
0.0
 14
0.0
 24
0.0
 34
0.0
 15
0.0
 25
0.0
 35
0.0
146
0.0
 13
0.0
 23
0.0
 33
0.0
 16
1.0
 26
0.0
 36
0.0
 17
0.0
 27
1.0
 37
0.0
 76
0
330
21F
345
0
346
0
  0
LAYOUT
  5
386
102
{ACAD_REACTORS
330
1A
102
}
100
AcDbPlotSettings
  1

  2
none_device
  4
ISO_A4_(297.00_x_210.00_MM)
  6

 40
0.0
 41
0.0
 42
0.0
 43
0.0
 44
297.0
 45
210.0
 46
0.0
 47
0.0
 48
0.0
 49
0.0
140
0.0
141
0.0
142
1.0
143
1.0
 70
0
 72
1
 73
0
 74
0
  7

 75
0
147
1.0
148
0.0
149
0.0
100
AcDbLayout
  1
Layout1
 70
0
 71
1
 10
0.0
 20
0.0
 11
297.0
 21
210.0
 12
0.0
 22
0.0
 32
0.0
 14
0.0
 24
0.0
 34
0.0
 15
0.0
 25
0.0
 35
0.0
146
0.0
 13
0.0
 23
0.0
 33
0.0
 16
1.0
 26
0.0
 36
0.0
 17
0.0
 27
1.0
 37
0.0
 76
0
330
220
345
0
346
0
  0
ENDSEC
  0
EOF
