  0
SECTION
  2
HEADER
  9
$ACADVER
  1
AC1021
  9
$DWGCODEPAGE
  3
ANSI_1252
  9
$EXTMAX
 10
297.0
 20
210.0
 30
0.0
  9
$EXTMIN
 10
0.0
 20
0.0
 30
0.0
  9
$LIMMIN
 10
0.0
 20
0.0
  9
$LIMMAX
 10
297.0
 20
210.0
  9
$VIEWCTR
 10
148.5
 20
105.0
  9
$VIEWSIZE
 40
210.0
  9
$CLAYER
  8
0
  9
$LTSCALE
 40
16.335
  9
$CELTYPE
  6
BYLAYER
  9
$DIMSCALE
 40
1.0
  9
$DIMASZ
 40
3.0
  9
$DIMEXO
 40
0.5
  9
$DIMDLI
 40
11.286
  9
$DIMEXE
 40
1.5
  9
$DIMCEN
 40
2.673
  9
$DIMLFAC
 40
1.0
  9
$DIMBLK
  1
_FILLED
  9
$DIMALT
 70
0
  9
$DIMALTF
 40
0.0393700787
  9
$DIMTXT
 40
3.0
  9
$DIMTOL
 70
1
  9
$DIMLIM
 70
0
  9
$DIMTFAC
 40
1.0
  9
$DIMTP
 40
0.01
  9
$DIMTM
 40
0.01
  9
$DIMGAP
 40
0.625
  9
$DIMDSEP
 70
44
  9
$AUNITS
 70
0
  9
$PDMODE
 70
3
  9
$PDSIZE
 40
3.0
  9
$HANDSEED
  5
7B4
  9
$TILEMODE
 70
1
  9
$MEASUREMENT
 70
1
  9
$INSUNITS
 70
4
  0
ENDSEC
  0
SECTION
  2
CLASSES
  0
CLASS
  1
ACDBDICTIONARYWDFLT
  2
AcDbDictionaryWithDefault
  3
AutoCAD 2000
 90
0
 91
1
280
0
281
0
  0
CLASS
  1
ACDBPLACEHOLDER
  2
AcDbPlaceHolder
  3
AutoCAD 2000
 90
0
 91
1
280
0
281
0
  0
CLASS
  1
LAYOUT
  2
AcDbLayout
  3
AutoCAD 2000
 90
0
 91
0
280
0
281
0
  0
ENDSEC
  0
SECTION
  2
TABLES
  0
TABLE
  2
VPORT
  5
8
100
AcDbSymbolTable
 70
2
  0
VPORT
  5
1F4
100
AcDbSymbolTableRecord
100
AcDbViewportTableRecord
  2
*ACTIVE
 70
0
 10
0.0
 20
0.0
 11
1.0
 21
1.0
 12
148.5
 22
105.0
 13
0.0
 23
0.0
 14
1.0
 24
1.0
 15
0.0
 25
0.0
 16
0.0
 26
0.0
 36
1.0
 17
0.0
 27
0.0
 37
0.0
 40
210.0
 41
1.4142857143
 42
50.0
 43
0.0
 44
0.0
 50
0.0
 51
0.0
 71
0
 72
100
 73
1
 74
1
 75
0
 76
0
 77
0
 78
0
  0
ENDTAB
  0
TABLE
  2
LTYPE
  5
5
100
AcDbSymbolTable
 70
6
  0
LTYPE
  5
14
100
AcDbSymbolTableRecord
100
AcDbLinetypeTableRecord
  2
BYBLOCK
 70
0
  3

 72
65
 73
0
 40
0.0
  0
LTYPE
  5
15
100
AcDbSymbolTableRecord
100
AcDbLinetypeTableRecord
  2
BYLAYER
 70
0
  3

 72
65
 73
0
 40
0.0
  0
LTYPE
  5
16
100
AcDbSymbolTableRecord
100
AcDbLinetypeTableRecord
  2
CONTINUOUS
 70
64
  3
Solid line
 72
65
 73
0
 40
0.0
  0
LTYPE
  5
1F5
100
AcDbSymbolTableRecord
100
AcDbLinetypeTableRecord
  2
CENTER
 70
64
  3
____ _ ____ _ ____ _ ____ _ ____ _ ____ _ ____
 72
65
 73
4
 40
0.6
 49
0.375
 74
0
 49
-0.075
 74
0
 49
0.075
 74
0
 49
-0.075
 74
0
  0
LTYPE
  5
1F6
100
AcDbSymbolTableRecord
100
AcDbLinetypeTableRecord
  2
HIDDEN
 70
64
  3
- - - - - - - - - - - - - - - - - - - -
 72
65
 73
2
 40
0.2
 49
0.1
 74
0
 49
-0.1
 74
0
  0
LTYPE
  5
1F7
100
AcDbSymbolTableRecord
100
AcDbLinetypeTableRecord
  2
PHANTOM
 70
64
  3
_____ _ _ _____ _ _ _____ _ _ _____
 72
65
 73
6
 40
0.8
 49
0.45
 74
0
 49
-0.05
 74
0
 49
0.1
 74
0
 49
-0.05
 74
0
 49
0.1
 74
0
 49
-0.05
 74
0
  0
LTYPE
  5
1F8
100
AcDbSymbolTableRecord
100
AcDbLinetypeTableRecord
  2
DOT
 70
64
  3
. . . . . . . . . . . . . . . . . . . .
 72
65
 73
2
 40
0.2
 49
0.1
 74
0
 49
-0.1
 74
0
  0
LTYPE
  5
1F9
100
AcDbSymbolTableRecord
100
AcDbLinetypeTableRecord
  2
DASHED
 70
64
  3
- - - - - - - - - - - - - - - - - - - -
 72
65
 73
2
 40
0.2
 49
0.1
 74
0
 49
-0.1
 74
0
  0
ENDTAB
  0
TABLE
  2
LAYER
  5
2
100
AcDbSymbolTable
 70
36
  0
LAYER
  5
10
100
AcDbSymbolTableRecord
100
AcDbLayerTableRecord
  2
0
 70
0
 62
7
  6
CONTINUOUS
370
-3
390
F
  0
LAYER
  5
1FA
100
AcDbSymbolTableRecord
100
AcDbLayerTableRecord
  2
DEFAULT_1
 70
0
 62
7
  6
CENTER
370
-3
390
F
  0
LAYER
  5
1FB
100
AcDbSymbolTableRecord
100
AcDbLayerTableRecord
  2
DEFAULT_2
 70
0
 62
7
  6
HIDDEN
370
-3
390
F
  0
LAYER
  5
1FC
100
AcDbSymbolTableRecord
100
AcDbLayerTableRecord
  2
DEFAULT_3
 70
0
 62
7
  6
PHANTOM
370
-3
390
F
  0
LAYER
  5
1FD
100
AcDbSymbolTableRecord
100
AcDbLayerTableRecord
  2
ASSI
 70
0
 62
7
  6
CONTINUOUS
370
-3
390
F
  0
LAYER
  5
1FE
100
AcDbSymbolTableRecord
100
AcDbLayerTableRecord
  2
COLORI
 70
0
 62
7
  6
CONTINUOUS
370
-3
390
F
  0
LAYER
  5
1FF
100
AcDbSymbolTableRecord
100
AcDbLayerTableRecord
  2
COORDINATE
 70
0
 62
7
  6
CONTINUOUS
370
-3
390
F
  0
LAYER
  5
200
100
AcDbSymbolTableRecord
100
AcDbLayerTableRecord
  2
COPY_PUBLISH
 70
0
 62
7
  6
CONTINUOUS
370
-3
390
F
  0
LAYER
  5
201
100
AcDbSymbolTableRecord
100
AcDbLayerTableRecord
  2
COSMETICI
 70
0
 62
7
  6
CONTINUOUS
370
-3
390
F
  0
LAYER
  5
202
100
AcDbSymbolTableRecord
100
AcDbLayerTableRecord
  2
CURVE
 70
0
 62
7
  6
CONTINUOUS
370
-3
390
F
  0
LAYER
  5
203
100
AcDbSymbolTableRecord
100
AcDbLayerTableRecord
  2
DRAFT
 70
0
 62
7
  6
CONTINUOUS
370
-3
390
F
  0
LAYER
  5
204
100
AcDbSymbolTableRecord
100
AcDbLayerTableRecord
  2
IMPORT_IGES
 70
0
 62
7
  6
CONTINUOUS
370
-3
390
F
  0
LAYER
  5
205
100
AcDbSymbolTableRecord
100
AcDbLayerTableRecord
  2
NOTE
 70
0
 62
7
  6
CONTINUOUS
370
-3
390
F
  0
LAYER
  5
206
100
AcDbSymbolTableRecord
100
AcDbLayerTableRecord
  2
PIANI
 70
0
 62
7
  6
CONTINUOUS
370
-3
390
F
  0
LAYER
  5
207
100
AcDbSymbolTableRecord
100
AcDbLayerTableRecord
  2
PUNTI
 70
0
 62
7
  6
CONTINUOUS
370
-3
390
F
  0
LAYER
  5
208
100
AcDbSymbolTableRecord
100
AcDbLayerTableRecord
  2
RACCORDO
 70
0
 62
7
  6
CONTINUOUS
370
-3
390
F
  0
LAYER
  5
209
100
AcDbSymbolTableRecord
100
AcDbLayerTableRecord
  2
SCRITTE
 70
0
 62
7
  6
CONTINUOUS
370
-3
390
F
  0
LAYER
  5
20A
100
AcDbSymbolTableRecord
100
AcDbLayerTableRecord
  2
SIMBOLI
 70
0
 62
7
  6
CONTINUOUS
370
-3
390
F
  0
LAYER
  5
20B
100
AcDbSymbolTableRecord
100
AcDbLayerTableRecord
  2
SMUSSO
 70
0
 62
7
  6
CONTINUOUS
370
-3
390
F
  0
LAYER
  5
20C
100
AcDbSymbolTableRecord
100
AcDbLayerTableRecord
  2
SNAPLINE
 70
0
 62
7
  6
CONTINUOUS
370
-3
390
F
  0
LAYER
  5
20D
100
AcDbSymbolTableRecord
100
AcDbLayerTableRecord
  2
SUPERFICI
 70
0
 62
7
  6
CONTINUOUS
370
-3
390
F
  0
LAYER
  5
20E
100
AcDbSymbolTableRecord
100
AcDbLayerTableRecord
  2
TRASH
 70
0
 62
7
  6
CONTINUOUS
370
-3
390
F
  0
LAYER
  5
20F
100
AcDbSymbolTableRecord
100
AcDbLayerTableRecord
  2
XSEC_DATUMS
 70
0
 62
7
  6
CONTINUOUS
370
-3
390
F
  0
ENDTAB
  0
TABLE
  2
STYLE
  5
3
100
AcDbSymbolTable
 70
1
  0
STYLE
  5
11
100
AcDbSymbolTableRecord
100
AcDbTextStyleTableRecord
  2
STANDARD
 70
0
 40
0.0
 41
0.8
 50
0.0
 71
0
 42
0.2
  3
txt
  4

  0
STYLE
  5
210
100
AcDbSymbolTableRecord
100
AcDbTextStyleTableRecord
  2
TEXTSTYLE_1
 70
0
 40
0.0
 41
0.8
 50
0.0
 71
0
 42
0.2
  3
gdt
  4

  0
ENDTAB
  0
TABLE
  2
VIEW
  5
6
100
AcDbSymbolTable
 70
0
  0
ENDTAB
  0
TABLE
  2
UCS
  5
7
100
AcDbSymbolTable
 70
0
  0
ENDTAB
  0
TABLE
  2
APPID
  5
9
100
AcDbSymbolTable
 70
1
  0
APPID
  5
211
100
AcDbSymbolTableRecord
100
AcDbRegAppTableRecord
  2
ACAD
 70
0
  0
ENDTAB
  0
TABLE
  2
BLOCK_RECORD
  5
1
100
AcDbSymbolTable
 70
0
  0
BLOCK_RECORD
  5
212
100
AcDbSymbolTableRecord
100
AcDbBlockTableRecord
  2
*Model_Space
  0
BLOCK_RECORD
  5
213
100
AcDbSymbolTableRecord
100
AcDbBlockTableRecord
  2
*Paper_Space
  0
BLOCK_RECORD
  5
214
100
AcDbSymbolTableRecord
100
AcDbBlockTableRecord
  2
_FILLED
  0
BLOCK_RECORD
  5
215
100
AcDbSymbolTableRecord
100
AcDbBlockTableRecord
  2
*D0
  0
BLOCK_RECORD
  5
216
100
AcDbSymbolTableRecord
100
AcDbBlockTableRecord
  2
*D1
  0
BLOCK_RECORD
  5
217
100
AcDbSymbolTableRecord
100
AcDbBlockTableRecord
  2
*D2
  0
BLOCK_RECORD
  5
218
100
AcDbSymbolTableRecord
100
AcDbBlockTableRecord
  2
*D3
  0
BLOCK_RECORD
  5
219
100
AcDbSymbolTableRecord
100
AcDbBlockTableRecord
  2
*D4
  0
BLOCK_RECORD
  5
21A
100
AcDbSymbolTableRecord
100
AcDbBlockTableRecord
  2
*D5
  0
BLOCK_RECORD
  5
21B
100
AcDbSymbolTableRecord
100
AcDbBlockTableRecord
  2
*D6
  0
ENDTAB
  0
TABLE
  2
DIMSTYLE
  5
A
100
AcDbSymbolTable
 70
1
100
AcDbDimStyleTable
 71
0
  0
DIMSTYLE
105
21C
100
AcDbSymbolTableRecord
100
AcDbDimStyleTableRecord
  2
STANDARD
 70
0
  3

  4

 40
1.0
 41
3.0
 42
0.5
 43
0.38
 44
1.5
 45
0.0
 46
0.0
 47
0.01
 48
0.01
140
3.0
141
0.09
142
0.0
143
25.4
144
1.0
145
0.0
146
1.0
147
0.625
 71
1.0
 72
0.0
 73
0
 74
0
 75
0
 76
0
 77
1
 78
8
170
0
171
2
172
0
173
0
174
0
175
0
176
0
177
0
178
0
270
2
271
2
272
2
273
2
274
2
275
0
280
0
281
0
282
0
283
1
284
8
285
0
286
0
287
3
288
0
340
11
278
44
341
214
342
214
343
214
344
214
  0
DIMSTYLE
105
21D
100
AcDbSymbolTableRecord
100
AcDbDimStyleTableRecord
  2
DIMSTYLE_1
 70
0
  3

  4

 40
1.0
 41
3.0
 42
0.5
 43
0.38
 44
1.5
 45
0.0
 46
0.0
 47
0.0
 48
0.0
140
3.0
141
0.09
142
0.0
143
25.4
144
1.0
145
0.0
146
1.0
147
0.75
 71
0.0
 72
0.0
 73
0
 74
0
 75
0
 76
0
 77
1
 78
8
170
0
171
2
172
0
173
0
174
0
175
0
176
0
177
0
178
0
270
2
271
2
272
2
273
2
274
2
275
0
280
0
281
0
282
0
283
1
284
8
285
0
286
0
287
3
288
0
340
11
278
44
341
214
342
214
343
214
344
214
  0
DIMSTYLE
105
21E
100
AcDbSymbolTableRecord
100
AcDbDimStyleTableRecord
  2
DIMSTYLE_2
 70
0
  3

  4

 40
1.0
 41
3.0
 42
0.5
 43
0.38
 44
1.5
 45
0.0
 46
0.0
 47
0.0
 48
0.0
140
3.0
141
0.09
142
0.0
143
25.4
144
1.0
145
0.0
146
1.0
147
0.75
 71
0.0
 72
0.0
 73
0
 74
0
 75
0
 76
0
 77
1
 78
8
170
0
171
2
172
0
173
0
174
0
175
0
176
0
177
0
178
0
270
2
271
1
272
1
273
2
274
2
275
0
280
0
281
0
282
0
283
1
284
8
285
0
286
0
287
3
288
0
340
11
278
44
341
214
342
214
343
214
344
214
  0
ENDTAB
  0
ENDSEC
  0
SECTION
  2
BLOCKS
  0
BLOCK
  5
20
100
AcDbEntity
  8
0
100
AcDbBlockBegin
  2
*Model_Space
 70
0
 10
0.0
 20
0.0
 30
0.0
  3
*Model_Space
  1

  0
ENDBLK
  5
21
100
AcDbEntity
  8
0
100
AcDbBlockEnd
  0
BLOCK
  5
1C
100
AcDbEntity
  8
0
100
AcDbBlockBegin
  2
*Paper_Space
 70
0
 10
0.0
 20
0.0
 30
0.0
  3
*Paper_Space
  1

  0
ENDBLK
  5
1D
100
AcDbEntity
  8
0
100
AcDbBlockEnd
  0
BLOCK
  5
21F
100
AcDbEntity
  8
0
100
AcDbBlockBegin
  2
_FILLED
 70
64
 10
0.0
 20
0.0
  3
_FILLED
  1

  0
SOLID
  5
220
100
AcDbEntity
  8
0
  6
BYBLOCK
 62
0
100
AcDbTrace
 10
0.0
 20
0.0
 11
-1.0
 21
0.3166666667
 12
-1.0
 22
-0.3166666667
 13
-1.0
 23
-0.3166666667
  0
ENDBLK
  5
221
100
AcDbEntity
  8
0
  6
BYBLOCK
 62
0
100
AcDbBlockEnd
  0
BLOCK
  5
222
100
AcDbEntity
  8
0
100
AcDbBlockBegin
 62
7
  6
CONTINUOUS
  2
*D0
 70
65
 10
0.0
 20
0.0
  3
*D0
  1

  0
MTEXT
  5
223
100
AcDbEntity
  8
0
100
AcDbMText
 62
7
  6
CONTINUOUS
  7
STANDARD
 71
2
 72
1
 10
-33.3719852064
 20
19.3517251497
 30
0.0
 11
1.0
 21
0.0
 31
0.0
 44
0.9
  1
7,5
 40
3.0
 41
9.3214285714
  0
LINE
  5
224
100
AcDbEntity
  8
0
100
AcDbLine
 62
7
  6
CONTINUOUS
 10
-37.1219852064
 20
6.4269740476
 11
-37.1219852064
 21
17.1017251497
  0
LINE
  5
225
100
AcDbEntity
  8
0
100
AcDbLine
 62
7
  6
CONTINUOUS
 10
-29.6219852064
 20
6.9365654348
 11
-29.6219852064
 21
17.1017251497
  0
LINE
  5
226
100
AcDbEntity
  8
0
100
AcDbLine
 62
7
  6
CONTINUOUS
 10
-37.1219852064
 20
15.6017251497
 11
-41.1219852064
 21
15.6017251497
  0
LINE
  5
227
100
AcDbEntity
  8
0
100
AcDbLine
 62
7
  6
CONTINUOUS
 10
-41.1219852064
 20
15.6017251497
 11
-33.3719852064
 21
15.6017251497
  0
LINE
  5
228
100
AcDbEntity
  8
0
100
AcDbLine
 62
7
  6
CONTINUOUS
 10
-29.6219852064
 20
15.6017251497
 11
-25.6219852064
 21
15.6017251497
  0
LINE
  5
229
100
AcDbEntity
  8
0
100
AcDbLine
 62
7
  6
CONTINUOUS
 10
-25.6219852064
 20
15.6017251497
 11
-33.3719852064
 21
15.6017251497
  0
INSERT
  5
22A
100
AcDbEntity
  8
0
100
AcDbBlockReference
 62
7
  6
CONTINUOUS
  2
_FILLED
 10
-37.1219852064
 20
15.6017251497
 41
3.0
 42
3.0
 43
3.0
  0
INSERT
  5
22B
100
AcDbEntity
  8
0
100
AcDbBlockReference
 62
7
  6
CONTINUOUS
  2
_FILLED
 10
-29.6219852064
 20
15.6017251497
 41
3.0
 42
3.0
 43
3.0
 50
180.0
  0
ENDBLK
  5
22C
100
AcDbEntity
  8
0
  6
BYBLOCK
 62
0
100
AcDbBlockEnd
  0
BLOCK
  5
22D
100
AcDbEntity
  8
0
100
AcDbBlockBegin
 62
7
  6
CONTINUOUS
  2
*D1
 70
65
 10
0.0
 20
0.0
  3
*D1
  1

  0
MTEXT
  5
22E
100
AcDbEntity
  8
0
100
AcDbMText
 62
7
  6
CONTINUOUS
  7
STANDARD
 71
2
 72
1
 10
-25.3719852064
 20
3.228037096
 30
0.0
 11
0.0
 21
1.0
 31
0.0
 44
0.9
  1
7,5
 40
3.0
 41
9.3214285714
  0
LINE
  5
22F
100
AcDbEntity
  8
0
100
AcDbLine
 62
7
  6
CONTINUOUS
 10
-34.3719852064
 20
6.978037096
 11
-20.1219852064
 21
6.978037096
  0
LINE
  5
230
100
AcDbEntity
  8
0
100
AcDbLine
 62
7
  6
CONTINUOUS
 10
-34.3719852064
 20
-0.521962904
 11
-20.1219852064
 21
-0.521962904
  0
LINE
  5
231
100
AcDbEntity
  8
0
100
AcDbLine
 62
7
  6
CONTINUOUS
 10
-21.6219852064
 20
6.978037096
 11
-21.6219852064
 21
10.978037096
  0
LINE
  5
232
100
AcDbEntity
  8
0
100
AcDbLine
 62
7
  6
CONTINUOUS
 10
-21.6219852064
 20
10.978037096
 11
-21.6219852064
 21
3.228037096
  0
LINE
  5
233
100
AcDbEntity
  8
0
100
AcDbLine
 62
7
  6
CONTINUOUS
 10
-21.6219852064
 20
-0.521962904
 11
-21.6219852064
 21
-4.521962904
  0
LINE
  5
234
100
AcDbEntity
  8
0
100
AcDbLine
 62
7
  6
CONTINUOUS
 10
-21.6219852064
 20
-4.521962904
 11
-21.6219852064
 21
3.228037096
  0
INSERT
  5
235
100
AcDbEntity
  8
0
100
AcDbBlockReference
 62
7
  6
CONTINUOUS
  2
_FILLED
 10
-21.6219852064
 20
6.978037096
 41
3.0
 42
3.0
 43
3.0
 50
270.0
  0
INSERT
  5
236
100
AcDbEntity
  8
0
100
AcDbBlockReference
 62
7
  6
CONTINUOUS
  2
_FILLED
 10
-21.6219852064
 20
-0.521962904
 41
3.0
 42
3.0
 43
3.0
 50
90.0
  0
ENDBLK
  5
237
100
AcDbEntity
  8
0
  6
BYBLOCK
 62
0
100
AcDbBlockEnd
  0
BLOCK
  5
238
100
AcDbEntity
  8
0
100
AcDbBlockBegin
 62
7
  6
CONTINUOUS
  2
*D2
 70
65
 10
0.0
 20
0.0
  3
*D2
  1

  0
MTEXT
  5
239
100
AcDbEntity
  8
0
100
AcDbMText
 62
7
  6
CONTINUOUS
  7
STANDARD
 71
2
 72
1
 10
26.7489642802
 20
-14.8243425385
 30
0.0
 11
1.0
 21
0.0
 31
0.0
 44
0.9
  1
132,6
 40
3.0
 41
15.4285714286
  0
LINE
  5
23A
100
AcDbEntity
  8
0
100
AcDbLine
 62
7
  6
CONTINUOUS
 10
59.6899483162
 20
1.0474214674
 11
59.6899502067
 21
-20.07433959
  0
LINE
  5
23B
100
AcDbEntity
  8
0
100
AcDbLine
 62
7
  6
CONTINUOUS
 10
-6.1920228908
 20
1.3280430643
 11
-6.1920209751
 21
-20.074345487
  0
LINE
  5
23C
100
AcDbEntity
  8
0
100
AcDbLine
 62
7
  6
CONTINUOUS
 10
59.6899500725
 20
-18.57433959
 11
26.7489644815
 21
-18.5743425385
  0
LINE
  5
23D
100
AcDbEntity
  8
0
100
AcDbLine
 62
7
  6
CONTINUOUS
 10
-6.1920211094
 20
-18.574345487
 11
26.7489644815
 21
-18.5743425385
  0
INSERT
  5
23E
100
AcDbEntity
  8
0
100
AcDbBlockReference
 62
7
  6
CONTINUOUS
  2
_FILLED
 10
59.6899500725
 20
-18.57433959
 41
3.0
 42
3.0
 43
3.0
 50
0.0000051285
  0
INSERT
  5
23F
100
AcDbEntity
  8
0
100
AcDbBlockReference
 62
7
  6
CONTINUOUS
  2
_FILLED
 10
-6.1920211094
 20
-18.574345487
 41
3.0
 42
3.0
 43
3.0
 50
180.0000051285
  0
ENDBLK
  5
240
100
AcDbEntity
  8
0
  6
BYBLOCK
 62
0
100
AcDbBlockEnd
  0
BLOCK
  5
241
100
AcDbEntity
  8
0
100
AcDbBlockBegin
 62
7
  6
CONTINUOUS
  2
*D3
 70
65
 10
0.0
 20
0.0
  3
*D3
  1

  0
MTEXT
  5
242
100
AcDbEntity
  8
0
100
AcDbMText
 62
7
  6
CONTINUOUS
  7
STANDARD
 71
2
 72
1
 10
-1.1920229356
 20
-4.8243440582
 30
0.0
 11
1.0
 21
0.0
 31
0.0
 44
0.9
  1
10
 40
3.0
 41
6.1071428571
  0
LINE
  5
243
100
AcDbEntity
  8
0
100
AcDbLine
 62
7
  6
CONTINUOUS
 10
-6.1920229356
 20
1.328037096
 11
-6.1920229356
 21
-10.0743440582
  0
LINE
  5
244
100
AcDbEntity
  8
0
100
AcDbLine
 62
7
  6
CONTINUOUS
 10
3.8079770644
 20
0.978037096
 11
3.8079770644
 21
-10.0743440582
  0
LINE
  5
245
100
AcDbEntity
  8
0
100
AcDbLine
 62
7
  6
CONTINUOUS
 10
-6.1920229356
 20
-8.5743440582
 11
-10.1920229356
 21
-8.5743440582
  0
LINE
  5
246
100
AcDbEntity
  8
0
100
AcDbLine
 62
7
  6
CONTINUOUS
 10
-10.1920229356
 20
-8.5743440582
 11
-1.1920229356
 21
-8.5743440582
  0
LINE
  5
247
100
AcDbEntity
  8
0
100
AcDbLine
 62
7
  6
CONTINUOUS
 10
3.8079770644
 20
-8.5743440582
 11
7.8079770644
 21
-8.5743440582
  0
LINE
  5
248
100
AcDbEntity
  8
0
100
AcDbLine
 62
7
  6
CONTINUOUS
 10
7.8079770644
 20
-8.5743440582
 11
-1.1920229356
 21
-8.5743440582
  0
INSERT
  5
249
100
AcDbEntity
  8
0
100
AcDbBlockReference
 62
7
  6
CONTINUOUS
  2
_FILLED
 10
-6.1920229356
 20
-8.5743440582
 41
3.0
 42
3.0
 43
3.0
  0
INSERT
  5
24A
100
AcDbEntity
  8
0
100
AcDbBlockReference
 62
7
  6
CONTINUOUS
  2
_FILLED
 10
3.8079770644
 20
-8.5743440582
 41
3.0
 42
3.0
 43
3.0
 50
180.0
  0
ENDBLK
  5
24B
100
AcDbEntity
  8
0
  6
BYBLOCK
 62
0
100
AcDbBlockEnd
  0
BLOCK
  5
24C
100
AcDbEntity
  8
0
100
AcDbBlockBegin
 62
7
  6
CONTINUOUS
  2
*D4
 70
65
 10
0.0
 20
0.0
  3
*D4
  1

  0
MTEXT
  5
24D
100
AcDbEntity
  8
0
100
AcDbMText
 62
7
  6
CONTINUOUS
  7
STANDARD
 71
2
 72
1
 10
42.3968715755
 20
-4.8243440582
 30
0.0
 11
1.0
 21
0.0
 31
0.0
 44
0.9
  1
34,6
 40
3.0
 41
12.8571428571
  0
LINE
  5
24E
100
AcDbEntity
  8
0
100
AcDbLine
 62
7
  6
CONTINUOUS
 10
59.6899483162
 20
1.0474214674
 11
59.6899493117
 21
-10.0743425103
  0
LINE
  5
24F
100
AcDbEntity
  8
0
100
AcDbLine
 62
7
  6
CONTINUOUS
 10
25.1037935544
 20
0.6101746944
 11
25.1037945107
 21
-10.0743456061
  0
LINE
  5
250
100
AcDbEntity
  8
0
100
AcDbLine
 62
7
  6
CONTINUOUS
 10
59.6899491774
 20
-8.5743425103
 11
42.3968717769
 21
-8.5743440582
  0
LINE
  5
251
100
AcDbEntity
  8
0
100
AcDbLine
 62
7
  6
CONTINUOUS
 10
25.1037943765
 20
-8.5743456061
 11
42.3968717769
 21
-8.5743440582
  0
INSERT
  5
252
100
AcDbEntity
  8
0
100
AcDbBlockReference
 62
7
  6
CONTINUOUS
  2
_FILLED
 10
59.6899491774
 20
-8.5743425103
 41
3.0
 42
3.0
 43
3.0
 50
0.0000051285
  0
INSERT
  5
253
100
AcDbEntity
  8
0
100
AcDbBlockReference
 62
7
  6
CONTINUOUS
  2
_FILLED
 10
25.1037943765
 20
-8.5743456061
 41
3.0
 42
3.0
 43
3.0
 50
180.0000051285
  0
ENDBLK
  5
254
100
AcDbEntity
  8
0
  6
BYBLOCK
 62
0
100
AcDbBlockEnd
  0
BLOCK
  5
255
100
AcDbEntity
  8
0
100
AcDbBlockBegin
 62
7
  6
CONTINUOUS
  2
*D5
 70
65
 10
0.0
 20
0.0
  3
*D5
  1

  0
MTEXT
  5
256
100
AcDbEntity
  8
0
100
AcDbMText
 62
7
  6
CONTINUOUS
  7
STANDARD
 71
2
 72
1
 10
35.3462293286
 20
19.3517251497
 30
0.0
 11
1.0
 21
0.0
 31
0.0
 44
0.9
  1
20,5
 40
3.0
 41
12.8571428571
  0
LINE
  5
257
100
AcDbEntity
  8
0
100
AcDbLine
 62
7
  6
CONTINUOUS
 10
45.5886651476
 20
6.836569236
 11
45.5886651476
 21
17.1017251497
  0
LINE
  5
258
100
AcDbEntity
  8
0
100
AcDbLine
 62
7
  6
CONTINUOUS
 10
25.1037935096
 20
5.8458994977
 11
25.1037935096
 21
17.1017251497
  0
LINE
  5
259
100
AcDbEntity
  8
0
100
AcDbLine
 62
7
  6
CONTINUOUS
 10
45.5886651476
 20
15.6017251497
 11
35.3462293286
 21
15.6017251497
  0
LINE
  5
25A
100
AcDbEntity
  8
0
100
AcDbLine
 62
7
  6
CONTINUOUS
 10
25.1037935096
 20
15.6017251497
 11
35.3462293286
 21
15.6017251497
  0
INSERT
  5
25B
100
AcDbEntity
  8
0
100
AcDbBlockReference
 62
7
  6
CONTINUOUS
  2
_FILLED
 10
45.5886651476
 20
15.6017251497
 41
3.0
 42
3.0
 43
3.0
 50
0.0
  0
INSERT
  5
25C
100
AcDbEntity
  8
0
100
AcDbBlockReference
 62
7
  6
CONTINUOUS
  2
_FILLED
 10
25.1037935096
 20
15.6017251497
 41
3.0
 42
3.0
 43
3.0
 50
180.0
  0
ENDBLK
  5
25D
100
AcDbEntity
  8
0
  6
BYBLOCK
 62
0
100
AcDbBlockEnd
  0
BLOCK
  5
25E
100
AcDbEntity
  8
0
100
AcDbBlockBegin
 62
7
  6
CONTINUOUS
  2
*D6
 70
65
 10
0.0
 20
0.0
  3
*D6
  1

  0
MTEXT
  5
25F
100
AcDbEntity
  8
0
100
AcDbMText
 62
7
  6
CONTINUOUS
  7
STANDARD
 71
1
 72
1
 10
66.8418679824
 20
11.7700024605
 30
0.0
 11
0.0
 21
1.0
 31
0.0
 44
0.9
  1
5,8
 40
3.0
 41
9.3214285714
  0
LINE
  5
260
100
AcDbEntity
  8
0
100
AcDbLine
 62
7
  6
CONTINUOUS
 10
60.119249138
 20
6.1064660935
 11
72.0918611004
 21
6.106451545
  0
LINE
  5
261
100
AcDbEntity
  8
0
100
AcDbLine
 62
7
  6
CONTINUOUS
 10
60.1192490746
 20
0.3496077574
 11
72.0918541049
 21
0.3495932089
  0
LINE
  5
262
100
AcDbEntity
  8
0
100
AcDbLine
 62
7
  6
CONTINUOUS
 10
70.5918611004
 20
6.1064533677
 11
70.5918679824
 21
17.9842881748
  0
LINE
  5
263
100
AcDbEntity
  8
0
100
AcDbLine
 62
7
  6
CONTINUOUS
 10
70.5918679824
 20
17.9842881748
 11
70.5918576026
 21
3.2280241996
  0
LINE
  5
264
100
AcDbEntity
  8
0
100
AcDbLine
 62
7
  6
CONTINUOUS
 10
70.5918541049
 20
0.3495950316
 11
70.5918492443
 21
-3.6504049684
  0
LINE
  5
265
100
AcDbEntity
  8
0
100
AcDbLine
 62
7
  6
CONTINUOUS
 10
70.5918492443
 20
-3.6504049684
 11
70.5918576026
 21
3.2280241996
  0
INSERT
  5
266
100
AcDbEntity
  8
0
100
AcDbBlockReference
 62
7
  6
CONTINUOUS
  2
_FILLED
 10
70.5918611004
 20
6.1064533677
 41
3.0
 42
3.0
 43
3.0
 50
269.9999668026
  0
INSERT
  5
267
100
AcDbEntity
  8
0
100
AcDbBlockReference
 62
7
  6
CONTINUOUS
  2
_FILLED
 10
70.5918541049
 20
0.3495950316
 41
3.0
 42
3.0
 43
3.0
 50
89.999930377
  0
ENDBLK
  5
268
100
AcDbEntity
  8
0
  6
BYBLOCK
 62
0
100
AcDbBlockEnd
  0
ENDSEC
  0
SECTION
  2
ENTITIES
  0
DIMENSION
  5
269
100
AcDbEntity
  8
0
100
AcDbDimension
 62
7
  6
CONTINUOUS
  2
*D0
 10
-29.6219852064
 20
15.6017251497
 11
-33.8005564041
 21
15.6017251497
 70
160
 71
2
 42
7.5
  3
DIMSTYLE_1
100
AcDbAlignedDimension
 13
-37.1219852064
 23
5.9269740476
 14
-29.6219852064
 24
6.4365654348
100
AcDbRotatedDimension
  0
DIMENSION
  5
26A
100
AcDbEntity
  8
0
100
AcDbDimension
 62
7
  6
CONTINUOUS
  2
*D1
 10
-21.6219852064
 20
-0.521962904
 11
-21.6219852064
 21
2.7994661572
 70
160
 71
2
 42
7.5
  3
DIMSTYLE_1
100
AcDbAlignedDimension
 13
-34.8719852064
 23
6.978037096
 14
-34.8719852064
 24
-0.521962904
 50
270.0
100
AcDbRotatedDimension
  0
DIMENSION
  5
26B
100
AcDbEntity
  8
0
100
AcDbDimension
 62
7
  6
CONTINUOUS
  2
*D2
 10
-6.1920211094
 20
-18.574345487
 11
26.3203925258
 21
-18.5743425769
 70
160
 71
2
 42
132.559792399
  3
DIMSTYLE_2
100
AcDbAlignedDimension
 13
59.6899482714
 23
1.5474214674
 14
-6.1920229356
 24
1.8280430643
 50
180.0000051285
100
AcDbRotatedDimension
  0
DIMENSION
  5
26C
100
AcDbEntity
  8
0
100
AcDbDimension
 62
7
  6
CONTINUOUS
  2
*D3
 10
3.8079770644
 20
-8.5743440582
 11
-1.6205943012
 21
-8.5743440582
 70
160
 71
2
 42
10.0
  3
DIMSTYLE_1
100
AcDbAlignedDimension
 13
-6.1920229356
 23
1.828037096
 14
3.8079770644
 24
1.478037096
100
AcDbRotatedDimension
  0
DIMENSION
  5
26D
100
AcDbEntity
  8
0
100
AcDbDimension
 62
7
  6
CONTINUOUS
  2
*D4
 10
25.1037943765
 20
-8.5743456061
 11
41.9682990504
 21
-8.5743440966
 70
160
 71
2
 42
34.5861548009
  3
DIMSTYLE_2
100
AcDbAlignedDimension
 13
59.6899482714
 23
1.5474214674
 14
25.1037935096
 24
1.1101746944
 50
180.0000051285
100
AcDbRotatedDimension
  0
DIMENSION
  5
26E
100
AcDbEntity
  8
0
100
AcDbDimension
 62
7
  6
CONTINUOUS
  2
*D5
 10
25.1037935096
 20
15.6017251497
 11
34.9176577148
 21
15.6017251497
 70
160
 71
2
 42
20.484871638
  3
DIMSTYLE_2
100
AcDbAlignedDimension
 13
45.5886651476
 23
6.336569236
 14
25.1037935096
 24
5.3458994977
 50
180.0
100
AcDbRotatedDimension
  0
DIMENSION
  5
26F
100
AcDbEntity
  8
0
100
AcDbDimension
 62
7
  6
CONTINUOUS
  2
*D6
 10
70.5918541049
 20
0.3495950316
 11
70.5918659338
 21
14.4485736586
 70
160
 71
1
 42
5.7568583361
  3
DIMSTYLE_2
100
AcDbAlignedDimension
 13
59.619249138
 23
6.1064663832
 14
59.6192490746
 24
0.3496080471
 50
269.999930377
100
AcDbRotatedDimension
  0
LINE
  5
270
100
AcDbEntity
  8
0
100
AcDbLine
 62
7
  6
CONTINUOUS
 10
-6.1920229356
 20
1.828037096
 11
-6.1920229356
 21
2.628037096
  0
LINE
  5
271
100
AcDbEntity
  8
0
100
AcDbLine
 62
7
  6
CONTINUOUS
 10
-6.1920229356
 20
3.828037096
 11
-6.1920229356
 21
4.628037096
  0
LINE
  5
272
100
AcDbEntity
  8
0
100
AcDbLine
 62
7
  6
CONTINUOUS
 10
9.7710463042
 20
1.478037096
 11
3.8079770644
 21
1.478037096
  0
LINE
  5
273
100
AcDbEntity
  8
0
100
AcDbLine
 62
7
  6
CONTINUOUS
 10
3.8079770644
 20
1.828037096
 11
-6.1920229356
 21
1.828037096
  0
LINE
  5
274
100
AcDbEntity
  8
0
100
AcDbLine
 62
7
  6
CONTINUOUS
 10
3.8079770644
 20
2.628037096
 11
-6.1920229356
 21
2.628037096
  0
LINE
  5
275
100
AcDbEntity
  8
0
100
AcDbLine
 62
7
  6
CONTINUOUS
 10
9.7710463042
 20
2.978037096
 11
3.8079770644
 21
2.978037096
  0
LINE
  5
276
100
AcDbEntity
  8
0
100
AcDbLine
 62
7
  6
CONTINUOUS
 10
9.7710463042
 20
3.478037096
 11
3.8079770644
 21
3.478037096
  0
LINE
  5
277
100
AcDbEntity
  8
0
100
AcDbLine
 62
7
  6
CONTINUOUS
 10
3.8079770644
 20
3.828037096
 11
-6.1920229356
 21
3.828037096
  0
LINE
  5
278
100
AcDbEntity
  8
0
100
AcDbLine
 62
7
  6
CONTINUOUS
 10
3.8079770644
 20
4.628037096
 11
-6.1920229356
 21
4.628037096
  0
LINE
  5
279
100
AcDbEntity
  8
0
100
AcDbLine
 62
7
  6
CONTINUOUS
 10
9.7710463042
 20
4.978037096
 11
3.8079770644
 21
4.978037096
  0
LINE
  5
27A
100
AcDbEntity
  8
0
100
AcDbLine
 62
7
  6
CONTINUOUS
 10
3.8079770644
 20
1.478037096
 11
3.8079770644
 21
2.978037096
  0
LINE
  5
27B
100
AcDbEntity
  8
0
100
AcDbLine
 62
7
  6
CONTINUOUS
 10
3.8079770644
 20
3.478037096
 11
3.8079770644
 21
4.978037096
  0
LINE
  5
27C
100
AcDbEntity
  8
0
100
AcDbLine
 62
7
  6
CONTINUOUS
 10
9.7710463042
 20
1.478037096
 11
9.7710463042
 21
2.978037096
  0
LINE
  5
27D
100
AcDbEntity
  8
0
100
AcDbLine
 62
7
  6
CONTINUOUS
 10
9.7710463042
 20
3.478037096
 11
9.7710463042
 21
4.978037096
  0
LINE
  5
27E
100
AcDbEntity
  8
0
100
AcDbLine
 62
7
  6
CONTINUOUS
 10
15.2118135216
 20
4.978037096
 11
15.2118135216
 21
3.478037096
  0
LINE
  5
27F
100
AcDbEntity
  8
0
100
AcDbLine
 62
7
  6
CONTINUOUS
 10
15.2118135216
 20
2.978037096
 11
15.2118135216
 21
1.478037096
  0
LWPOLYLINE
  5
280
100
AcDbEntity
  8
0
100
AcDbPolyline
 62
7
  6
CONTINUOUS
 90
24
 70
0
 10
23.5679237725
 20
4.0183927005
 10
23.562969833
 20
4.0655996604
 10
23.5593338466
 20
4.1109738838
 10
23.5568798782
 20
4.1543054413
 10
23.5557438629
 20
4.1957103516
 10
23.5554852019
 20
4.2357510056
 10
23.5560066133
 20
4.2743806567
 10
23.5574053789
 20
4.3115992613
 10
23.5595327457
 20
4.3480465396
 10
23.5623140816
 20
4.3837126747
 10
23.5658240186
 20
4.4185779772
 10
23.5701376997
 20
4.4532642362
 10
23.5752255022
 20
4.4879386681
 10
23.5811170489
 20
4.5224012974
 10
23.587976351
 20
4.5567180731
 10
23.5958107854
 20
4.5909987126
 10
23.6046129753
 20
4.6250995573
 10
23.6145248019
 20
4.6587104426
 10
23.6255569266
 20
4.6918421476
 10
23.637698688
 20
4.7244631682
 10
23.6510599841
 20
4.7562131493
 10
23.6656774475
 20
4.7869756025
 10
23.6815144456
 20
4.8168698599
 10
23.6985709784
 20
4.8458986365
  0
LWPOLYLINE
  5
281
100
AcDbEntity
  8
RACCORDO
100
AcDbPolyline
 62
7
  6
CONTINUOUS
 90
6
 70
0
 10
23.1397313786
 20
5.6093621623
 10
23.1396296431
 20
5.6127285849
 10
23.139526701
 20
5.6153773779
 10
23.1394229226
 20
5.6172962807
 10
23.1393179376
 20
5.6184975539
 10
23.1392117459
 20
5.6189811975
  0
LWPOLYLINE
  5
282
100
AcDbEntity
  8
ASSI
100
AcDbPolyline
 62
7
  6
CONTINUOUS
 90
6
 70
0
 10
23.1397313786
 20
5.6093621623
 10
23.1396296431
 20
5.6127285849
 10
23.139526701
 20
5.6153773779
 10
23.1394229226
 20
5.6172962807
 10
23.1393179376
 20
5.6184975539
 10
23.1392117459
 20
5.6189811975
  0
LINE
  5
283
100
AcDbEntity
  8
DRAFT
100
AcDbLine
 62
7
  6
CONTINUOUS
 10
23.1301558473
 20
5.285453645
 11
23.1310343548
 21
5.2512732043
  0
LINE
  5
284
100
AcDbEntity
  8
ASSI
100
AcDbLine
 62
7
  6
CONTINUOUS
 10
23.1301558473
 20
5.285453645
 11
23.1310343548
 21
5.2512732043
  0
LINE
  5
285
100
AcDbEntity
  8
RACCORDO
100
AcDbLine
 62
7
  6
CONTINUOUS
 10
23.1399275254
 20
5.6005990332
 11
23.1397313786
 21
5.6093621623
  0
LINE
  5
286
100
AcDbEntity
  8
ASSI
100
AcDbLine
 62
7
  6
CONTINUOUS
 10
23.1399275254
 20
5.6005990332
 11
23.1397313786
 21
5.6093621623
  0
LINE
  5
287
100
AcDbEntity
  8
DRAFT
100
AcDbLine
 62
7
  6
CONTINUOUS
 10
23.1310343548
 20
5.2512732043
 11
23.132652884
 21
5.1577097805
  0
LINE
  5
288
100
AcDbEntity
  8
ASSI
100
AcDbLine
 62
7
  6
CONTINUOUS
 10
23.1310343548
 20
5.2512732043
 11
23.132652884
 21
5.1577097805
  0
LINE
  5
289
100
AcDbEntity
  8
RACCORDO
100
AcDbLine
 62
7
  6
CONTINUOUS
 10
23.1406640248
 20
5.5480869494
 11
23.1399275254
 21
5.6005990332
  0
LINE
  5
28A
100
AcDbEntity
  8
ASSI
100
AcDbLine
 62
7
  6
CONTINUOUS
 10
23.1406640248
 20
5.5480869494
 11
23.1399275254
 21
5.6005990332
  0
LINE
  5
28B
100
AcDbEntity
  8
DRAFT
100
AcDbLine
 62
7
  6
CONTINUOUS
 10
23.132652884
 20
5.1577097805
 11
23.1345338321
 21
4.978037096
  0
LINE
  5
28C
100
AcDbEntity
  8
ASSI
100
AcDbLine
 62
7
  6
CONTINUOUS
 10
23.132652884
 20
5.1577097805
 11
23.1345338321
 21
4.978037096
  0
LINE
  5
28D
100
AcDbEntity
  8
DRAFT
100
AcDbLine
 62
7
  6
CONTINUOUS
 10
23.1327652925
 20
3.1494560051
 11
23.1345321277
 21
2.978037096
  0
LINE
  5
28E
100
AcDbEntity
  8
ASSI
100
AcDbLine
 62
7
  6
CONTINUOUS
 10
23.1327652925
 20
3.1494560051
 11
23.1345321277
 21
2.978037096
  0
LINE
  5
28F
100
AcDbEntity
  8
DRAFT
100
AcDbLine
 62
7
  6
CONTINUOUS
 10
23.1400412955
 20
2.9446273963
 11
23.1379990195
 21
3.1493071531
  0
LINE
  5
290
100
AcDbEntity
  8
ASSI
100
AcDbLine
 62
7
  6
CONTINUOUS
 10
23.1400412955
 20
2.9446273963
 11
23.1379990195
 21
3.1493071531
  0
LINE
  5
291
100
AcDbEntity
  8
RACCORDO
100
AcDbLine
 62
7
  6
CONTINUOUS
 10
23.1431229672
 20
5.3021308175
 11
23.1406640248
 21
5.5480869494
  0
LINE
  5
292
100
AcDbEntity
  8
ASSI
100
AcDbLine
 62
7
  6
CONTINUOUS
 10
23.1431229672
 20
5.3021308175
 11
23.1406640248
 21
5.5480869494
  0
LINE
  5
293
100
AcDbEntity
  8
RACCORDO
100
AcDbLine
 62
7
  6
CONTINUOUS
 10
23.145839489
 20
4.7923583909
 11
23.1431229672
 21
5.3021308175
  0
LINE
  5
294
100
AcDbEntity
  8
ASSI
100
AcDbLine
 62
7
  6
CONTINUOUS
 10
23.145839489
 20
4.7923583909
 11
23.1431229672
 21
5.3021308175
  0
LINE
  5
295
100
AcDbEntity
  8
DRAFT
100
AcDbLine
 62
7
  6
CONTINUOUS
 10
23.1420913124
 20
2.4858135976
 11
23.1400412955
 21
2.9446273963
  0
LINE
  5
296
100
AcDbEntity
  8
ASSI
100
AcDbLine
 62
7
  6
CONTINUOUS
 10
23.1420913124
 20
2.4858135976
 11
23.1400412955
 21
2.9446273963
  0
LINE
  5
297
100
AcDbEntity
  8
RACCORDO
100
AcDbLine
 62
7
  6
CONTINUOUS
 10
23.1464472518
 20
2.5521780966
 11
23.143673762
 21
3.228037096
  0
LINE
  5
298
100
AcDbEntity
  8
ASSI
100
AcDbLine
 62
7
  6
CONTINUOUS
 10
23.1464472518
 20
2.5521780966
 11
23.143673762
 21
3.228037096
  0
LINE
  5
299
100
AcDbEntity
  8
DRAFT
100
AcDbLine
 62
7
  6
CONTINUOUS
 10
23.1301558473
 20
0.828037096
 11
23.1301558473
 21
1.1290270512
  0
LINE
  5
29A
100
AcDbEntity
  8
ASSI
100
AcDbLine
 62
7
  6
CONTINUOUS
 10
23.1301558473
 20
0.828037096
 11
23.1301558473
 21
1.1290270512
  0
LINE
  5
29B
100
AcDbEntity
  8
DRAFT
100
AcDbLine
 62
7
  6
CONTINUOUS
 10
23.1301558473
 20
5.3270471409
 11
23.1301558473
 21
5.628037096
  0
LINE
  5
29C
100
AcDbEntity
  8
ASSI
100
AcDbLine
 62
7
  6
CONTINUOUS
 10
23.1301558473
 20
5.3270471409
 11
23.1301558473
 21
5.628037096
  0
LINE
  5
29D
100
AcDbEntity
  8
DRAFT
100
AcDbLine
 62
7
  6
CONTINUOUS
 10
23.1327652925
 20
3.3066181869
 11
23.1327652925
 21
3.1494560051
  0
LINE
  5
29E
100
AcDbEntity
  8
ASSI
100
AcDbLine
 62
7
  6
CONTINUOUS
 10
23.1327652925
 20
3.3066181869
 11
23.1327652925
 21
3.1494560051
  0
LINE
  5
29F
100
AcDbEntity
  8
DRAFT
100
AcDbLine
 62
7
  6
CONTINUOUS
 10
23.1379990195
 20
3.1493071531
 11
23.1379990195
 21
3.306767039
  0
LINE
  5
2A0
100
AcDbEntity
  8
ASSI
100
AcDbLine
 62
7
  6
CONTINUOUS
 10
23.1379990195
 20
3.1493071531
 11
23.1379990195
 21
3.306767039
  0
LINE
  5
2A1
100
AcDbEntity
  8
RACCORDO
100
AcDbLine
 62
7
  6
CONTINUOUS
 10
23.146564874
 20
3.9777359284
 11
23.145839489
 21
4.7923583909
  0
LINE
  5
2A2
100
AcDbEntity
  8
ASSI
100
AcDbLine
 62
7
  6
CONTINUOUS
 10
23.146564874
 20
3.9777359284
 11
23.145839489
 21
4.7923583909
  0
LINE
  5
2A3
100
AcDbEntity
  8
DRAFT
100
AcDbLine
 62
7
  6
CONTINUOUS
 10
23.1418367209
 20
1.8703211127
 11
23.1420913124
 21
2.4858135976
  0
LINE
  5
2A4
100
AcDbEntity
  8
ASSI
100
AcDbLine
 62
7
  6
CONTINUOUS
 10
23.1418367209
 20
1.8703211127
 11
23.1420913124
 21
2.4858135976
  0
LINE
  5
2A5
100
AcDbEntity
  8
RACCORDO
100
AcDbLine
 62
7
  6
CONTINUOUS
 10
23.14605693
 20
1.734821611
 11
23.1464472518
 21
2.5521780966
  0
LINE
  5
2A6
100
AcDbEntity
  8
ASSI
100
AcDbLine
 62
7
  6
CONTINUOUS
 10
23.14605693
 20
1.734821611
 11
23.1464472518
 21
2.5521780966
  0
LINE
  5
2A7
100
AcDbEntity
  8
RACCORDO
100
AcDbLine
 62
7
  6
CONTINUOUS
 10
23.1444472124
 20
3.3501278382
 11
23.146564874
 21
3.9777359284
  0
LINE
  5
2A8
100
AcDbEntity
  8
ASSI
100
AcDbLine
 62
7
  6
CONTINUOUS
 10
23.1444472124
 20
3.3501278382
 11
23.146564874
 21
3.9777359284
  0
LINE
  5
2A9
100
AcDbEntity
  8
RACCORDO
100
AcDbLine
 62
7
  6
CONTINUOUS
 10
23.143673762
 20
3.228037096
 11
23.1444472124
 21
3.3501278382
  0
LINE
  5
2AA
100
AcDbEntity
  8
ASSI
100
AcDbLine
 62
7
  6
CONTINUOUS
 10
23.143673762
 20
3.228037096
 11
23.1444472124
 21
3.3501278382
  0
LINE
  5
2AB
100
AcDbEntity
  8
DRAFT
100
AcDbLine
 62
7
  6
CONTINUOUS
 10
23.1400399862
 20
1.5112723744
 11
23.1418367209
 21
1.8703211127
  0
LINE
  5
2AC
100
AcDbEntity
  8
ASSI
100
AcDbLine
 62
7
  6
CONTINUOUS
 10
23.1400399862
 20
1.5112723744
 11
23.1418367209
 21
1.8703211127
  0
LINE
  5
2AD
100
AcDbEntity
  8
RACCORDO
100
AcDbLine
 62
7
  6
CONTINUOUS
 10
23.1435524011
 20
1.2109297496
 11
23.14605693
 21
1.734821611
  0
LINE
  5
2AE
100
AcDbEntity
  8
ASSI
100
AcDbLine
 62
7
  6
CONTINUOUS
 10
23.1435524011
 20
1.2109297496
 11
23.14605693
 21
1.734821611
  0
LINE
  5
2AF
100
AcDbEntity
  8
RACCORDO
100
AcDbLine
 62
7
  6
CONTINUOUS
 10
23.1411948961
 20
0.9517645784
 11
23.1435524011
 21
1.2109297496
  0
LINE
  5
2B0
100
AcDbEntity
  8
ASSI
100
AcDbLine
 62
7
  6
CONTINUOUS
 10
23.1411948961
 20
0.9517645784
 11
23.1435524011
 21
1.2109297496
  0
LINE
  5
2B1
100
AcDbEntity
  8
DRAFT
100
AcDbLine
 62
7
  6
CONTINUOUS
 10
23.1345321277
 20
3.478037096
 11
23.1327652925
 21
3.3066181869
  0
LINE
  5
2B2
100
AcDbEntity
  8
ASSI
100
AcDbLine
 62
7
  6
CONTINUOUS
 10
23.1345321277
 20
3.478037096
 11
23.1327652925
 21
3.3066181869
  0
LINE
  5
2B3
100
AcDbEntity
  8
DRAFT
100
AcDbLine
 62
7
  6
CONTINUOUS
 10
23.1379947105
 20
1.3064460523
 11
23.1400399862
 21
1.5112723744
  0
LINE
  5
2B4
100
AcDbEntity
  8
ASSI
100
AcDbLine
 62
7
  6
CONTINUOUS
 10
23.1379947105
 20
1.3064460523
 11
23.1400399862
 21
1.5112723744
  0
LINE
  5
2B5
100
AcDbEntity
  8
DRAFT
100
AcDbLine
 62
7
  6
CONTINUOUS
 10
23.1345338321
 20
1.478037096
 11
23.132652884
 21
1.2983644116
  0
LINE
  5
2B6
100
AcDbEntity
  8
ASSI
100
AcDbLine
 62
7
  6
CONTINUOUS
 10
23.1345338321
 20
1.478037096
 11
23.132652884
 21
1.2983644116
  0
LINE
  5
2B7
100
AcDbEntity
  8
RACCORDO
100
AcDbLine
 62
7
  6
CONTINUOUS
 10
23.1400219367
 20
0.8608718652
 11
23.1411948961
 21
0.9517645784
  0
LINE
  5
2B8
100
AcDbEntity
  8
ASSI
100
AcDbLine
 62
7
  6
CONTINUOUS
 10
23.1400219367
 20
0.8608718652
 11
23.1411948961
 21
0.9517645784
  0
LINE
  5
2B9
100
AcDbEntity
  8
DRAFT
100
AcDbLine
 62
7
  6
CONTINUOUS
 10
23.132652884
 20
1.2983644116
 11
23.1310343548
 21
1.2048009878
  0
LINE
  5
2BA
100
AcDbEntity
  8
ASSI
100
AcDbLine
 62
7
  6
CONTINUOUS
 10
23.132652884
 20
1.2983644116
 11
23.1310343548
 21
1.2048009878
  0
LINE
  5
2BB
100
AcDbEntity
  8
DRAFT
100
AcDbLine
 62
7
  6
CONTINUOUS
 10
23.1310343548
 20
1.2048009878
 11
23.1301558473
 21
1.1706205471
  0
LINE
  5
2BC
100
AcDbEntity
  8
ASSI
100
AcDbLine
 62
7
  6
CONTINUOUS
 10
23.1310343548
 20
1.2048009878
 11
23.1301558473
 21
1.1706205471
  0
LWPOLYLINE
  5
2BD
100
AcDbEntity
  8
DRAFT
100
AcDbPolyline
 62
7
  6
CONTINUOUS
 90
6
 70
0
 10
23.1327739077
 20
1.1290270512
 10
23.1337494116
 20
1.134881877
 10
23.1346507592
 20
1.1504776754
 10
23.1355282401
 20
1.1754697978
 10
23.1363819078
 20
1.2101291456
 10
23.1379947105
 20
1.3064460523
  0
LWPOLYLINE
  5
2BE
100
AcDbEntity
  8
ASSI
100
AcDbPolyline
 62
7
  6
CONTINUOUS
 90
6
 70
0
 10
23.1327739077
 20
1.1290270512
 10
23.1337494116
 20
1.134881877
 10
23.1346507592
 20
1.1504776754
 10
23.1355282401
 20
1.1754697978
 10
23.1363819078
 20
1.2101291456
 10
23.1379947105
 20
1.3064460523
  0
LWPOLYLINE
  5
2BF
100
AcDbEntity
  8
RACCORDO
100
AcDbPolyline
 62
7
  6
CONTINUOUS
 90
8
 70
0
 10
23.1392117459
 20
0.8370929946
 10
23.1393179376
 20
0.8375766382
 10
23.1394229226
 20
0.8387779113
 10
23.139526701
 20
0.8406968142
 10
23.1396296431
 20
0.8433456072
 10
23.1397313786
 20
0.8467120298
 10
23.1398307962
 20
0.8507593005
 10
23.1400219367
 20
0.8608718652
  0
LWPOLYLINE
  5
2C0
100
AcDbEntity
  8
ASSI
100
AcDbPolyline
 62
7
  6
CONTINUOUS
 90
8
 70
0
 10
23.1392117459
 20
0.8370929946
 10
23.1393179376
 20
0.8375766382
 10
23.1394229226
 20
0.8387779113
 10
23.139526701
 20
0.8406968142
 10
23.1396296431
 20
0.8433456072
 10
23.1397313786
 20
0.8467120298
 10
23.1398307962
 20
0.8507593005
 10
23.1400219367
 20
0.8608718652
  0
LWPOLYLINE
  5
2C1
100
AcDbEntity
  8
RACCORDO
100
AcDbPolyline
 62
253
  6
CONTINUOUS
 90
9
 70
0
 10
24.9374220947
 20
1.0447373995
 10
24.9404642416
 20
1.0100154765
 10
24.9494879892
 20
0.9763473999
 10
24.9642196543
 20
0.9447559355
 10
24.9842121686
 20
0.9162008426
 10
25.0088585353
 20
0.8915498545
 10
25.0374101706
 20
0.8715522315
 10
25.0689998088
 20
0.8568157976
 10
25.1017149206
 20
0.8480440476
  0
LWPOLYLINE
  5
2C2
100
AcDbEntity
  8
ASSI
100
AcDbPolyline
 62
253
  6
CONTINUOUS
 90
9
 70
0
 10
24.9374220947
 20
1.0447373995
 10
24.9404642416
 20
1.0100154765
 10
24.9494879892
 20
0.9763473999
 10
24.9642196543
 20
0.9447559355
 10
24.9842121686
 20
0.9162008426
 10
25.0088585353
 20
0.8915498545
 10
25.0374101706
 20
0.8715522315
 10
25.0689998088
 20
0.8568157976
 10
25.1017149206
 20
0.8480440476
  0
LWPOLYLINE
  5
2C3
100
AcDbEntity
  8
RACCORDO
100
AcDbPolyline
 62
253
  6
CONTINUOUS
 90
16
 70
0
 10
25.1406319257
 20
0.1884217915
 10
25.1439568457
 20
0.1255299406
 10
25.1538566045
 20
0.0633314276
 10
25.1702220311
 20
0.0025117201
 10
25.1928757876
 20
-0.0562658287
 10
25.2215665114
 20
-0.1123459218
 10
25.255964497
 20
-0.1650920706
 10
25.2956751134
 20
-0.2139164554
 10
25.3402631445
 20
-0.2582989554
 10
25.3892501125
 20
-0.2977688493
 10
25.4421761018
 20
-0.3319381136
 10
25.4983893913
 20
-0.360369804
 10
25.5570294431
 20
-0.3826738067
 10
25.6173443058
 20
-0.3986633612
 10
25.6787383045
 20
-0.4082760948
 10
25.7405405429
 20
-0.4114868255
  0
LWPOLYLINE
  5
2C4
100
AcDbEntity
  8
RACCORDO
100
AcDbPolyline
 62
253
  6
CONTINUOUS
 90
7
 70
0
 10
24.9404804341
 20
5.3532389848
 10
24.9400235238
 20
5.3703069549
 10
24.9395330847
 20
5.3847621913
 10
24.9390260309
 20
5.3961393296
 10
24.9385080002
 20
5.4042832486
 10
24.9379733549
 20
5.4093490696
 10
24.9374220947
 20
5.4113367926
  0
LWPOLYLINE
  5
2C5
100
AcDbEntity
  8
ASSI
100
AcDbPolyline
 62
253
  6
CONTINUOUS
 90
7
 70
0
 10
24.9404804341
 20
5.3532389848
 10
24.9400235238
 20
5.3703069549
 10
24.9395330847
 20
5.3847621913
 10
24.9390260309
 20
5.3961393296
 10
24.9385080002
 20
5.4042832486
 10
24.9379733549
 20
5.4093490696
 10
24.9374220947
 20
5.4113367926
  0
LINE
  5
2C6
100
AcDbEntity
  8
RACCORDO
100
AcDbLine
 62
253
  6
CONTINUOUS
 10
24.9412906931
 20
5.3110972655
 11
24.9404804341
 21
5.3532389848
  0
LINE
  5
2C7
100
AcDbEntity
  8
ASSI
100
AcDbLine
 62
253
  6
CONTINUOUS
 10
24.9412906931
 20
5.3110972655
 11
24.9404804341
 21
5.3532389848
  0
LINE
  5
2C8
100
AcDbEntity
  8
RACCORDO
100
AcDbLine
 62
7
  6
CONTINUOUS
 10
24.9315056385
 20
5.1915875017
 11
24.9279162891
 21
5.4160893335
  0
LINE
  5
2C9
100
AcDbEntity
  8
ASSI
100
AcDbLine
 62
7
  6
CONTINUOUS
 10
24.9315056385
 20
5.1915875017
 11
24.9279162891
 21
5.4160893335
  0
LINE
  5
2CA
100
AcDbEntity
  8
RACCORDO
100
AcDbLine
 62
253
  6
CONTINUOUS
 10
24.9419280022
 20
5.2605775418
 11
24.9412906931
 21
5.3110972655
  0
LINE
  5
2CB
100
AcDbEntity
  8
ASSI
100
AcDbLine
 62
253
  6
CONTINUOUS
 10
24.9419280022
 20
5.2605775418
 11
24.9412906931
 21
5.3110972655
  0
LINE
  5
2CC
100
AcDbEntity
  8
RACCORDO
100
AcDbLine
 62
7
  6
CONTINUOUS
 10
25.1021159181
 20
5.5868132562
 11
25.1030276235
 21
5.5152987893
  0
LINE
  5
2CD
100
AcDbEntity
  8
RACCORDO
100
AcDbLine
 62
7
  6
CONTINUOUS
 10
24.934288014
 20
4.9321692627
 11
24.9315056385
 21
5.1915875017
  0
LINE
  5
2CE
100
AcDbEntity
  8
ASSI
100
AcDbLine
 62
7
  6
CONTINUOUS
 10
24.934288014
 20
4.9321692627
 11
24.9315056385
 21
5.1915875017
  0
LINE
  5
2CF
100
AcDbEntity
  8
RACCORDO
100
AcDbLine
 62
7
  6
CONTINUOUS
 10
25.1030276235
 20
5.5152987893
 11
25.1035933688
 21
5.4344076134
  0
LINE
  5
2D0
100
AcDbEntity
  8
RACCORDO
100
AcDbLine
 62
253
  6
CONTINUOUS
 10
24.9425102097
 20
5.1736237473
 11
24.9419280022
 21
5.2605775418
  0
LINE
  5
2D1
100
AcDbEntity
  8
ASSI
100
AcDbLine
 62
253
  6
CONTINUOUS
 10
24.9425102097
 20
5.1736237473
 11
24.9419280022
 21
5.2605775418
  0
LINE
  5
2D2
100
AcDbEntity
  8
RACCORDO
100
AcDbLine
 62
253
  6
CONTINUOUS
 10
24.9426248633
 20
4.940506112
 11
24.9425102097
 21
5.1736237473
  0
LINE
  5
2D3
100
AcDbEntity
  8
ASSI
100
AcDbLine
 62
253
  6
CONTINUOUS
 10
24.9426248633
 20
4.940506112
 11
24.9425102097
 21
5.1736237473
  0
LINE
  5
2D4
100
AcDbEntity
  8
RACCORDO
100
AcDbLine
 62
7
  6
CONTINUOUS
 10
25.0301558473
 20
6.3784025998
 11
25.0301558473
 21
5.8090565442
  0
LINE
  5
2D5
100
AcDbEntity
  8
RACCORDO
100
AcDbLine
 62
7
  6
CONTINUOUS
 10
25.0301558473
 20
0.6470176478
 11
25.0301558473
 21
0.0776715923
  0
LINE
  5
2D6
100
AcDbEntity
  8
RACCORDO
100
AcDbLine
 62
7
  6
CONTINUOUS
 10
25.0601558473
 20
0.1079457131
 11
25.0601558473
 21
0.6470176478
  0
LINE
  5
2D7
100
AcDbEntity
  8
RACCORDO
100
AcDbLine
 62
7
  6
CONTINUOUS
 10
25.0601558473
 20
5.8090565442
 11
25.0601558473
 21
6.3481284789
  0
LINE
  5
2D8
100
AcDbEntity
  8
RACCORDO
100
AcDbLine
 62
7
  6
CONTINUOUS
 10
25.1037935096
 20
1.1101746944
 11
25.1035933688
 21
5.4344076134
  0
LINE
  5
2D9
100
AcDbEntity
  8
RACCORDO
100
AcDbLine
 62
253
  6
CONTINUOUS
 10
25.1406319257
 20
0.1884217915
 11
25.1406319257
 21
6.2676524005
  0
LINE
  5
2DA
100
AcDbEntity
  8
RACCORDO
100
AcDbLine
 62
253
  6
CONTINUOUS
 10
24.9425112157
 20
1.2826675933
 11
24.9426248633
 21
1.5155680801
  0
LINE
  5
2DB
100
AcDbEntity
  8
ASSI
100
AcDbLine
 62
253
  6
CONTINUOUS
 10
24.9425112157
 20
1.2826675933
 11
24.9426248633
 21
1.5155680801
  0
LINE
  5
2DC
100
AcDbEntity
  8
RACCORDO
100
AcDbLine
 62
7
  6
CONTINUOUS
 10
25.1037935096
 20
1.1101746944
 11
25.1035933688
 21
1.0216665787
  0
LINE
  5
2DD
100
AcDbEntity
  8
RACCORDO
100
AcDbLine
 62
7
  6
CONTINUOUS
 10
25.1035933688
 20
1.0216665787
 11
25.1030276235
 21
0.9407754028
  0
LINE
  5
2DE
100
AcDbEntity
  8
RACCORDO
100
AcDbLine
 62
253
  6
CONTINUOUS
 10
24.9419309378
 20
1.1957960315
 11
24.9425112157
 21
1.2826675933
  0
LINE
  5
2DF
100
AcDbEntity
  8
ASSI
100
AcDbLine
 62
253
  6
CONTINUOUS
 10
24.9419309378
 20
1.1957960315
 11
24.9425112157
 21
1.2826675933
  0
LINE
  5
2E0
100
AcDbEntity
  8
RACCORDO
100
AcDbLine
 62
7
  6
CONTINUOUS
 10
24.9315056385
 20
1.2644866904
 11
24.934288014
 21
1.5239049294
  0
LINE
  5
2E1
100
AcDbEntity
  8
ASSI
100
AcDbLine
 62
7
  6
CONTINUOUS
 10
24.9315056385
 20
1.2644866904
 11
24.934288014
 21
1.5239049294
  0
LINE
  5
2E2
100
AcDbEntity
  8
RACCORDO
100
AcDbLine
 62
253
  6
CONTINUOUS
 10
24.9412948112
 20
1.1452425811
 11
24.9419309378
 21
1.1957960315
  0
LINE
  5
2E3
100
AcDbEntity
  8
ASSI
100
AcDbLine
 62
253
  6
CONTINUOUS
 10
24.9412948112
 20
1.1452425811
 11
24.9419309378
 21
1.1957960315
  0
LWPOLYLINE
  5
2E4
100
AcDbEntity
  8
RACCORDO
100
AcDbPolyline
 62
7
  6
CONTINUOUS
 90
8
 70
0
 10
25.1030276235
 20
0.9407754028
 10
25.1021159181
 20
0.8692609359
 10
25.1015515542
 20
0.8394002824
 10
25.1009170705
 20
0.8133502803
 10
25.1002421065
 20
0.7923288906
 10
25.0995365419
 20
0.7767421004
 10
25.0987904969
 20
0.7661839226
 10
25.0980039715
 20
0.7606543572
  0
LINE
  5
2E5
100
AcDbEntity
  8
RACCORDO
100
AcDbLine
 62
7
  6
CONTINUOUS
 10
24.9279162891
 20
1.0399848586
 11
24.9315056385
 21
1.2644866904
  0
LINE
  5
2E6
100
AcDbEntity
  8
ASSI
100
AcDbLine
 62
7
  6
CONTINUOUS
 10
24.9279162891
 20
1.0399848586
 11
24.9315056385
 21
1.2644866904
  0
LWPOLYLINE
  5
2E7
100
AcDbEntity
  8
RACCORDO
100
AcDbPolyline
 62
7
  6
CONTINUOUS
 90
16
 70
0
 10
24.9279162891
 20
5.4160893335
 10
24.9282472549
 20
5.4324330322
 10
24.9298102131
 20
5.4481616197
 10
24.9324742585
 20
5.4631936325
 10
24.9360909189
 20
5.4774141386
 10
24.9405407644
 20
5.490831938
 10
24.9457715649
 20
5.5035649865
 10
24.951683841
 20
5.5155670362
 10
24.958193944
 20
5.526833593
 10
24.9653452464
 20
5.5375260386
 10
24.9731034363
 20
5.5476362304
 10
24.9814018245
 20
5.5571154574
 10
24.9902894088
 20
5.5660317253
 10
24.9997657359
 20
5.5743766631
 10
25.0097601071
 20
5.5820847864
 10
25.0202316166
 20
5.5891247724
  0
LWPOLYLINE
  5
2E8
100
AcDbEntity
  8
ASSI
100
AcDbPolyline
 62
7
  6
CONTINUOUS
 90
16
 70
0
 10
24.9279162891
 20
5.4160893335
 10
24.9282472549
 20
5.4324330322
 10
24.9298102131
 20
5.4481616197
 10
24.9324742585
 20
5.4631936325
 10
24.9360909189
 20
5.4774141386
 10
24.9405407644
 20
5.490831938
 10
24.9457715649
 20
5.5035649865
 10
24.951683841
 20
5.5155670362
 10
24.958193944
 20
5.526833593
 10
24.9653452464
 20
5.5375260386
 10
24.9731034363
 20
5.5476362304
 10
24.9814018245
 20
5.5571154574
 10
24.9902894088
 20
5.5660317253
 10
24.9997657359
 20
5.5743766631
 10
25.0097601071
 20
5.5820847864
 10
25.0202316166
 20
5.5891247724
  0
LWPOLYLINE
  5
2E9
100
AcDbEntity
  8
RACCORDO
100
AcDbPolyline
 62
253
  6
CONTINUOUS
 90
16
 70
0
 10
25.1406319257
 20
6.2676524005
 10
25.1439568429
 20
6.3305442246
 10
25.1538565938
 20
6.3927427141
 10
25.1702220082
 20
6.453562402
 10
25.1928757504
 20
6.5123399375
 10
25.221566458
 20
6.5684200218
 10
25.2559644235
 20
6.621166162
 10
25.2956750107
 20
6.6699905339
 10
25.340263007
 20
6.7143730242
 10
25.3892499467
 20
6.7538429216
 10
25.4421759201
 20
6.7880122015
 10
25.498389206
 20
6.8164439143
 10
25.557029273
 20
6.8387479441
 10
25.6173441727
 20
6.8547375253
 10
25.6787382284
 20
6.864350279
 10
25.7405405428
 20
6.8675610176
  0
LWPOLYLINE
  5
2EA
100
AcDbEntity
  8
RACCORDO
100
AcDbPolyline
 62
7
  6
CONTINUOUS
 90
16
 70
0
 10
25.0301558473
 20
6.3784025998
 10
25.0337444769
 20
6.4422648548
 10
25.0435398724
 20
6.5040962024
 10
25.0595420339
 20
6.5638966428
 10
25.0820606034
 20
6.6222704333
 10
25.1107859389
 20
6.6786133164
 10
25.1447891143
 20
6.7311125205
 10
25.1842401958
 20
6.7796430441
 10
25.2289691172
 20
6.8243298885
 10
25.2775367543
 20
6.8637352868
 10
25.3300888438
 20
6.8976890452
 10
25.386479649
 20
6.9263613575
 10
25.4448328351
 20
6.9488250373
 10
25.504522957
 20
6.9647710226
 10
25.5661754598
 20
6.9745083755
 10
25.6297903435
 20
6.978037096
  0
LWPOLYLINE
  5
2EB
100
AcDbEntity
  8
RACCORDO
100
AcDbPolyline
 62
7
  6
CONTINUOUS
 90
16
 70
0
 10
25.0601558473
 20
6.3481284789
 10
25.0637415329
 20
6.4119563693
 10
25.0735300861
 20
6.4737611672
 10
25.089521507
 20
6.5335428726
 10
25.1120227119
 20
6.5919040113
 10
25.1407267844
 20
6.6482420575
 10
25.1747129754
 20
6.7007494341
 10
25.2141581848
 20
6.7493074315
 10
25.2588855126
 20
6.7940347593
 10
25.3074435101
 20
6.8334799685
 10
25.3599508865
 20
6.8674661594
 10
25.4162889326
 20
6.8961702317
 10
25.4746500711
 20
6.9186714365
 10
25.5344317764
 20
6.9346628573
 10
25.5962365742
 20
6.9444514105
 10
25.6600644644
 20
6.948037096
  0
LWPOLYLINE
  5
2EC
100
AcDbEntity
  8
RACCORDO
100
AcDbPolyline
 62
253
  6
CONTINUOUS
 90
9
 70
0
 10
24.9374220947
 20
5.4113367926
 10
24.9404647816
 20
5.4460617724
 10
24.9494898337
 20
5.4797318555
 10
24.9642230824
 20
5.5113241913
 10
24.9842169522
 20
5.5398790484
 10
25.0088640569
 20
5.5645289697
 10
25.037415652
 20
5.5845251249
 10
25.0690043798
 20
5.5992600582
 10
25.1017149249
 20
5.6080299163
  0
LWPOLYLINE
  5
2ED
100
AcDbEntity
  8
ASSI
100
AcDbPolyline
 62
253
  6
CONTINUOUS
 90
9
 70
0
 10
24.9374220947
 20
5.4113367926
 10
24.9404647816
 20
5.4460617724
 10
24.9494898337
 20
5.4797318555
 10
24.9642230824
 20
5.5113241913
 10
24.9842169522
 20
5.5398790484
 10
25.0088640569
 20
5.5645289697
 10
25.037415652
 20
5.5845251249
 10
25.0690043798
 20
5.5992600582
 10
25.1017149249
 20
5.6080299163
  0
LWPOLYLINE
  5
2EE
100
AcDbEntity
  8
0
100
AcDbPolyline
 62
7
  6
CONTINUOUS
 90
36
 70
0
 10
24.6540516737
 20
1.9700855697
 10
24.6386209923
 20
1.8879795646
 10
24.6188767492
 20
1.8115343588
 10
24.5948189443
 20
1.7407649247
 10
24.5662709672
 20
1.6752201276
 10
24.5334094283
 20
1.6152397903
 10
24.4967641597
 20
1.5619009157
 10
24.4562643757
 20
1.5151704926
 10
24.411980862
 20
1.4746668082
 10
24.3646558081
 20
1.440839068
 10
24.3137635513
 20
1.413452943
 10
24.2598297543
 20
1.3923251522
 10
24.2051735946
 20
1.3779715507
 10
24.1499990849
 20
1.3705680906
 10
24.0941022125
 20
1.3697406159
 10
24.0391901167
 20
1.3752447003
 10
23.9853672721
 20
1.3871413178
 10
23.9325292041
 20
1.4055212261
 10
23.8820696271
 20
1.4302574149
 10
23.8338166526
 20
1.4621163654
 10
23.7879421692
 20
1.5007538624
 10
23.7463555566
 20
1.5443293082
 10
23.7098403336
 20
1.5925447103
 10
23.6776129815
 20
1.6459848516
 10
23.6492323247
 20
1.7039994682
 10
23.6245926951
 20
1.7667547901
 10
23.6037997607
 20
1.8342082461
 10
23.5867293501
 20
1.9052817206
 10
23.5733185272
 20
1.979947831
 10
23.5636302279
 20
2.0580820504
 10
23.557729089
 20
2.1383457118
 10
23.5554514711
 20
2.2207952696
 10
23.5569610135
 20
2.3049819865
 10
23.5628132709
 20
2.3887528357
 10
23.5728846858
 20
2.4720723328
 10
23.5872988156
 20
2.5545198097
  0
LWPOLYLINE
  5
2EF
100
AcDbEntity
  8
0
100
AcDbPolyline
 62
7
  6
CONTINUOUS
 90
5
 70
0
 10
23.5872988156
 20
2.5545198097
 10
23.6069818871
 20
2.633447633
 10
23.6322426425
 20
2.707949125
 10
23.6627723396
 20
2.7787770042
 10
23.6985709784
 20
2.8458986365
  0
LWPOLYLINE
  5
2F0
100
AcDbEntity
  8
0
100
AcDbPolyline
 62
7
  6
CONTINUOUS
 90
34
 70
0
 10
23.6985709784
 20
4.8458986365
 10
23.7166557592
 20
4.8734777914
 10
23.7363700289
 20
4.8997914544
 10
23.7577137874
 20
4.9248565324
 10
23.7807003166
 20
4.9488890952
 10
23.8053163346
 20
4.9717063871
 10
23.8315219957
 20
4.9927428438
 10
23.8594754132
 20
5.0120444873
 10
23.8890184738
 20
5.0296310652
 10
23.9196369923
 20
5.0449240439
 10
23.9512823512
 20
5.0578544607
 10
23.9840031679
 20
5.0685684955
 10
24.0174311094
 20
5.0768205947
 10
24.0514418589
 20
5.0826570509
 10
24.0861597331
 20
5.0860779013
 10
24.1215893485
 20
5.0867624084
 10
24.1578674991
 20
5.0848019919
 10
24.1948573908
 20
5.0801003795
 10
24.2321532585
 20
5.0720372256
 10
24.2698829495
 20
5.0605857835
 10
24.3079186165
 20
5.0456847201
 10
24.3454709516
 20
5.0266240612
 10
24.3828124356
 20
5.0029247975
 10
24.4196705877
 20
4.9748543425
 10
24.4544386581
 20
4.9428046376
 10
24.4867199928
 20
4.9067047094
 10
24.5169112457
 20
4.8664041801
 10
24.5445956289
 20
4.8222055019
 10
24.5697138458
 20
4.7739052229
 10
24.5923251929
 20
4.7215407408
 10
24.6121907718
 20
4.6658349649
 10
24.6292309496
 20
4.6070349301
 10
24.6435253591
 20
4.5448843096
 10
24.6550740004
 20
4.4794076037
  0
LINE
  5
2F1
100
AcDbEntity
  8
RACCORDO
100
AcDbLine
 62
7
  6
CONTINUOUS
 10
26.1301558473
 20
-0.491962904
 11
26.0899208726
 21
-0.4114868256
  0
LWPOLYLINE
  5
2F2
100
AcDbEntity
  8
RACCORDO
100
AcDbPolyline
 62
7
  6
CONTINUOUS
 90
7
 70
0
 10
25.0980039715
 20
5.6954198349
 10
25.0987904969
 20
5.6898902695
 10
25.0995365419
 20
5.6793320917
 10
25.1002421065
 20
5.6637453015
 10
25.1009170705
 20
5.6427239118
 10
25.1015515542
 20
5.6166739097
 10
25.1021159181
 20
5.5868132562
  0
LWPOLYLINE
  5
2F3
100
AcDbEntity
  8
0
100
AcDbPolyline
 62
7
  6
CONTINUOUS
 90
38
 70
0
 10
24.6550740004
 20
4.4794076037
 10
24.6650556149
 20
4.3998242266
 10
24.6711893572
 20
4.3192638145
 10
24.6734752274
 20
4.2379252142
 10
24.6720504529
 20
4.1553846632
 10
24.6667778063
 20
4.072494759
 10
24.6572456046
 20
3.9913607862
 10
24.6434200829
 20
3.9119234347
 10
24.6253350061
 20
3.8345989319
 10
24.6026799864
 20
3.7620662674
 10
24.5750485797
 20
3.6943800536
 10
24.54284723
 20
3.6314621265
 10
24.5069848822
 20
3.5755335739
 10
24.467269047
 20
3.5269611186
 10
24.4238922137
 20
3.4849315052
 10
24.378340794
 20
3.4497388416
 10
24.330722785
 20
3.4213779912
 10
24.2809301897
 20
3.399415842
 10
24.2301254284
 20
3.3835229547
 10
24.1783294278
 20
3.3734799777
 10
24.1255212612
 20
3.369303118
 10
24.0728005692
 20
3.3710840711
 10
24.0199734433
 20
3.378848749
 10
23.9672337919
 20
3.392650448
 10
23.9162629814
 20
3.4126950806
 10
23.8667742898
 20
3.4399357137
 10
23.8190544389
 20
3.4737929927
 10
23.7756449607
 20
3.5121400464
 10
23.7374129385
 20
3.5552688442
 10
23.7034912891
 20
3.6031691459
 10
23.6738202939
 20
3.6530421383
 10
23.6487465121
 20
3.7045117717
 10
23.6279233847
 20
3.7579296225
 10
23.6102515163
 20
3.8113889208
 10
23.5956927422
 20
3.8646758145
 10
23.5842852271
 20
3.9178440706
 10
23.5750440701
 20
3.9692968574
 10
23.5679237725
 20
4.0183927005
  0
LWPOLYLINE
  5
2F4
100
AcDbEntity
  8
RACCORDO
100
AcDbPolyline
 62
7
  6
CONTINUOUS
 90
4
 70
0
 10
26.1112332264
 20
0.7606543572
 10
26.1108400205
 20
0.7661829899
 10
26.1104670468
 20
0.7767400909
 10
26.1101143053
 20
0.7923256602
  0
LWPOLYLINE
  5
2F5
100
AcDbEntity
  8
RACCORDO
100
AcDbPolyline
 62
7
  6
CONTINUOUS
 90
5
 70
0
 10
26.0878235966
 20
-0.3565355849
 10
26.0883248012
 20
-0.3795665098
 10
26.0888388721
 20
-0.3962489741
 10
26.0893708959
 20
-0.4068890793
 10
26.0899208726
 20
-0.4114868256
  0
LINE
  5
2F6
100
AcDbEntity
  8
RACCORDO
100
AcDbLine
 62
253
  6
CONTINUOUS
 10
26.1726788641
 20
6.7648065887
 11
26.1731599334
 21
6.7388161486
  0
LINE
  5
2F7
100
AcDbEntity
  8
ASSI
100
AcDbLine
 62
253
  6
CONTINUOUS
 10
26.1726788641
 20
6.7648065887
 11
26.1731599334
 21
6.7388161486
  0
LINE
  5
2F8
100
AcDbEntity
  8
RACCORDO
100
AcDbLine
 62
253
  6
CONTINUOUS
 10
26.322426507
 20
6.9185561548
 11
26.3229232219
 21
6.8883479539
  0
LINE
  5
2F9
100
AcDbEntity
  8
ASSI
100
AcDbLine
 62
253
  6
CONTINUOUS
 10
26.322426507
 20
6.9185561548
 11
26.3229232219
 21
6.8883479539
  0
LINE
  5
2FA
100
AcDbEntity
  8
RACCORDO
100
AcDbLine
 62
7
  6
CONTINUOUS
 10
26.149090824
 20
5.5662610218
 11
26.149877294
 21
5.5136922095
  0
LINE
  5
2FB
100
AcDbEntity
  8
ASSI
100
AcDbLine
 62
7
  6
CONTINUOUS
 10
26.149090824
 20
5.5662610218
 11
26.149877294
 21
5.5136922095
  0
LINE
  5
2FC
100
AcDbEntity
  8
RACCORDO
100
AcDbLine
 62
7
  6
CONTINUOUS
 10
26.0868903062
 20
-0.2932649628
 11
26.0878235966
 21
-0.3565355849
  0
LINE
  5
2FD
100
AcDbEntity
  8
RACCORDO
100
AcDbLine
 62
7
  6
CONTINUOUS
 10
26.1101143053
 20
0.7923256602
 11
26.1094596388
 21
0.8393936861
  0
LINE
  5
2FE
100
AcDbEntity
  8
RACCORDO
100
AcDbLine
 62
253
  6
CONTINUOUS
 10
26.1731599334
 20
6.7388161486
 11
26.1737895808
 21
6.6829132206
  0
LINE
  5
2FF
100
AcDbEntity
  8
ASSI
100
AcDbLine
 62
253
  6
CONTINUOUS
 10
26.1731599334
 20
6.7388161486
 11
26.1737895808
 21
6.6829132206
  0
LINE
  5
300
100
AcDbEntity
  8
RACCORDO
100
AcDbLine
 62
253
  6
CONTINUOUS
 10
26.3229232219
 20
6.8883479539
 11
26.3235894986
 21
6.8179761262
  0
LINE
  5
301
100
AcDbEntity
  8
ASSI
100
AcDbLine
 62
253
  6
CONTINUOUS
 10
26.3229232219
 20
6.8883479539
 11
26.3235894986
 21
6.8179761262
  0
LINE
  5
302
100
AcDbEntity
  8
RACCORDO
100
AcDbLine
 62
7
  6
CONTINUOUS
 10
26.0857547301
 20
-0.1608469263
 11
26.0868903062
 21
-0.2932649628
  0
LINE
  5
303
100
AcDbEntity
  8
RACCORDO
100
AcDbLine
 62
7
  6
CONTINUOUS
 10
26.149877294
 20
5.5136922095
 11
26.1508343756
 21
5.403147004
  0
LINE
  5
304
100
AcDbEntity
  8
ASSI
100
AcDbLine
 62
7
  6
CONTINUOUS
 10
26.149877294
 20
5.5136922095
 11
26.1508343756
 21
5.403147004
  0
LINE
  5
305
100
AcDbEntity
  8
RACCORDO
100
AcDbLine
 62
7
  6
CONTINUOUS
 10
26.1094596388
 20
0.8393936861
 11
26.1087216297
 21
0.940767539
  0
LINE
  5
306
100
AcDbEntity
  8
RACCORDO
100
AcDbLine
 62
253
  6
CONTINUOUS
 10
26.1737895808
 20
6.6829132206
 11
26.1744936538
 21
6.5550058806
  0
LINE
  5
307
100
AcDbEntity
  8
ASSI
100
AcDbLine
 62
253
  6
CONTINUOUS
 10
26.1737895808
 20
6.6829132206
 11
26.1744936538
 21
6.5550058806
  0
LINE
  5
308
100
AcDbEntity
  8
RACCORDO
100
AcDbLine
 62
253
  6
CONTINUOUS
 10
26.3235894986
 20
6.8179761262
 11
26.3244864322
 21
6.6066466006
  0
LINE
  5
309
100
AcDbEntity
  8
ASSI
100
AcDbLine
 62
253
  6
CONTINUOUS
 10
26.3235894986
 20
6.8179761262
 11
26.3244864322
 21
6.6066466006
  0
LINE
  5
30A
100
AcDbEntity
  8
DRAFT
100
AcDbLine
 62
7
  6
CONTINUOUS
 10
26.1463910992
 20
2.5819127926
 11
26.143673762
 21
3.228037096
  0
LINE
  5
30B
100
AcDbEntity
  8
ASSI
100
AcDbLine
 62
7
  6
CONTINUOUS
 10
26.1463910992
 20
2.5819127926
 11
26.143673762
 21
3.228037096
  0
LINE
  5
30C
100
AcDbEntity
  8
RACCORDO
100
AcDbLine
 62
7
  6
CONTINUOUS
 10
26.0848066498
 20
0.125333022
 11
26.0857547301
 21
-0.1608469263
  0
LINE
  5
30D
100
AcDbEntity
  8
RACCORDO
100
AcDbLine
 62
7
  6
CONTINUOUS
 10
26.1508343756
 20
5.403147004
 11
26.1516332955
 21
5.1636909074
  0
LINE
  5
30E
100
AcDbEntity
  8
ASSI
100
AcDbLine
 62
7
  6
CONTINUOUS
 10
26.1508343756
 20
5.403147004
 11
26.1516332955
 21
5.1636909074
  0
LINE
  5
30F
100
AcDbEntity
  8
RACCORDO
100
AcDbLine
 62
253
  6
CONTINUOUS
 10
26.1744936538
 20
6.5550058806
 11
26.1746742963
 21
6.4365654348
  0
LINE
  5
310
100
AcDbEntity
  8
ASSI
100
AcDbLine
 62
253
  6
CONTINUOUS
 10
26.1744936538
 20
6.5550058806
 11
26.1746742963
 21
6.4365654348
  0
LINE
  5
311
100
AcDbEntity
  8
RACCORDO
100
AcDbLine
 62
253
  6
CONTINUOUS
 10
25.7405405428
 20
-0.4114868256
 11
25.7405405428
 21
6.8675610176
  0
LINE
  5
312
100
AcDbEntity
  8
RACCORDO
100
AcDbLine
 62
7
  6
CONTINUOUS
 10
26.1087216297
 20
0.940767539
 11
26.1083386778
 21
5.3458994977
  0
LINE
  5
313
100
AcDbEntity
  8
DRAFT
100
AcDbLine
 62
7
  6
CONTINUOUS
 10
26.1301558473
 20
6.948037096
 11
26.1301558473
 21
6.278037096
  0
LINE
  5
314
100
AcDbEntity
  8
DRAFT
100
AcDbLine
 62
7
  6
CONTINUOUS
 10
26.1301558473
 20
0.178037096
 11
26.1301558473
 21
-0.491962904
  0
LINE
  5
315
100
AcDbEntity
  8
RACCORDO
100
AcDbLine
 62
7
  6
CONTINUOUS
 10
26.1301558473
 20
-0.3719686155
 11
26.1301558473
 21
0.278037096
  0
LINE
  5
316
100
AcDbEntity
  8
DRAFT
100
AcDbLine
 62
7
  6
CONTINUOUS
 10
26.1301558473
 20
0.278037096
 11
26.1301558473
 21
0.828037096
  0
LINE
  5
317
100
AcDbEntity
  8
ASSI
100
AcDbLine
 62
7
  6
CONTINUOUS
 10
26.1301558473
 20
-0.3719686155
 11
26.1301558473
 21
0.828037096
  0
LINE
  5
318
100
AcDbEntity
  8
DRAFT
100
AcDbLine
 62
7
  6
CONTINUOUS
 10
26.1301558473
 20
5.628037096
 11
26.1301558473
 21
6.178037096
  0
LINE
  5
319
100
AcDbEntity
  8
RACCORDO
100
AcDbLine
 62
7
  6
CONTINUOUS
 10
26.1301558473
 20
6.178037096
 11
26.1301558473
 21
6.8280428076
  0
LINE
  5
31A
100
AcDbEntity
  8
ASSI
100
AcDbLine
 62
7
  6
CONTINUOUS
 10
26.1301558473
 20
5.628037096
 11
26.1301558473
 21
6.8280428076
  0
LINE
  5
31B
100
AcDbEntity
  8
RACCORDO
100
AcDbLine
 62
7
  6
CONTINUOUS
 10
26.1516589915
 20
4.9448640626
 11
26.1516332955
 21
5.1636909074
  0
LINE
  5
31C
100
AcDbEntity
  8
ASSI
100
AcDbLine
 62
7
  6
CONTINUOUS
 10
26.1516589915
 20
4.9448640626
 11
26.1516332955
 21
5.1636909074
  0
LINE
  5
31D
100
AcDbEntity
  8
RACCORDO
100
AcDbLine
 62
7
  6
CONTINUOUS
 10
26.1746742963
 20
6.4365654348
 11
26.1746742963
 21
0.0195087572
  0
LINE
  5
31E
100
AcDbEntity
  8
ASSI
100
AcDbLine
 62
7
  6
CONTINUOUS
 10
26.1746742963
 20
6.4365654348
 11
26.1746742963
 21
0.0195087572
  0
LINE
  5
31F
100
AcDbEntity
  8
RACCORDO
100
AcDbLine
 62
253
  6
CONTINUOUS
 10
26.3244864322
 20
6.6066466006
 11
26.3246685848
 21
0.0196219752
  0
LINE
  5
320
100
AcDbEntity
  8
ASSI
100
AcDbLine
 62
253
  6
CONTINUOUS
 10
26.3244864322
 20
6.6066466006
 11
26.3246685848
 21
0.0196219752
  0
LINE
  5
321
100
AcDbEntity
  8
DRAFT
100
AcDbLine
 62
7
  6
CONTINUOUS
 10
26.9266648343
 20
6.181528109
 11
26.9266648343
 21
0.2745460831
  0
LINE
  5
322
100
AcDbEntity
  8
ASSI
100
AcDbLine
 62
7
  6
CONTINUOUS
 10
26.9266648343
 20
6.181528109
 11
26.9266648343
 21
0.2745460831
  0
LINE
  5
323
100
AcDbEntity
  8
DRAFT
100
AcDbLine
 62
7
  6
CONTINUOUS
 10
26.9301558473
 20
6.178037096
 11
26.9301558473
 21
0.278037096
  0
LINE
  5
324
100
AcDbEntity
  8
ASSI
100
AcDbLine
 62
7
  6
CONTINUOUS
 10
26.9301558473
 20
6.178037096
 11
26.9301558473
 21
0.278037096
  0
LINE
  5
325
100
AcDbEntity
  8
DRAFT
100
AcDbLine
 62
7
  6
CONTINUOUS
 10
26.1466998884
 20
4.1132964769
 11
26.145312075
 21
4.9321692627
  0
LINE
  5
326
100
AcDbEntity
  8
ASSI
100
AcDbLine
 62
7
  6
CONTINUOUS
 10
26.1466998884
 20
4.1132964769
 11
26.145312075
 21
4.9321692627
  0
LINE
  5
327
100
AcDbEntity
  8
DRAFT
100
AcDbLine
 62
7
  6
CONTINUOUS
 10
26.1460950842
 20
1.748771289
 11
26.1463910992
 21
2.5819127926
  0
LINE
  5
328
100
AcDbEntity
  8
ASSI
100
AcDbLine
 62
7
  6
CONTINUOUS
 10
26.1460950842
 20
1.748771289
 11
26.1463910992
 21
2.5819127926
  0
LINE
  5
329
100
AcDbEntity
  8
RACCORDO
100
AcDbLine
 62
7
  6
CONTINUOUS
 10
26.0852189775
 20
6.5088900232
 11
26.0848066498
 21
0.125333022
  0
LINE
  5
32A
100
AcDbEntity
  8
RACCORDO
100
AcDbLine
 62
7
  6
CONTINUOUS
 10
26.1516589915
 20
1.5112101295
 11
26.1512858593
 21
1.1432849866
  0
LINE
  5
32B
100
AcDbEntity
  8
ASSI
100
AcDbLine
 62
7
  6
CONTINUOUS
 10
26.1516589915
 20
1.5112101295
 11
26.1512858593
 21
1.1432849866
  0
LINE
  5
32C
100
AcDbEntity
  8
DRAFT
100
AcDbLine
 62
7
  6
CONTINUOUS
 10
26.145312075
 20
1.5239049294
 11
26.1460950842
 21
1.748771289
  0
LINE
  5
32D
100
AcDbEntity
  8
ASSI
100
AcDbLine
 62
7
  6
CONTINUOUS
 10
26.145312075
 20
1.5239049294
 11
26.1460950842
 21
1.748771289
  0
LINE
  5
32E
100
AcDbEntity
  8
RACCORDO
100
AcDbLine
 62
253
  6
CONTINUOUS
 10
26.3246686744
 20
0.0196219752
 11
26.3241220772
 21
-0.2659407673
  0
LINE
  5
32F
100
AcDbEntity
  8
ASSI
100
AcDbLine
 62
253
  6
CONTINUOUS
 10
26.3246686744
 20
0.0196219752
 11
26.3241220772
 21
-0.2659407673
  0
LINE
  5
330
100
AcDbEntity
  8
RACCORDO
100
AcDbLine
 62
7
  6
CONTINUOUS
 10
26.1083386778
 20
5.3458994977
 11
26.1087216297
 21
5.5153066531
  0
LINE
  5
331
100
AcDbEntity
  8
RACCORDO
100
AcDbLine
 62
253
  6
CONTINUOUS
 10
26.1746742963
 20
0.0195087572
 11
26.1742709405
 21
-0.1543139214
  0
LINE
  5
332
100
AcDbEntity
  8
ASSI
100
AcDbLine
 62
253
  6
CONTINUOUS
 10
26.1746742963
 20
0.0195087572
 11
26.1742709405
 21
-0.1543139214
  0
LINE
  5
333
100
AcDbEntity
  8
DRAFT
100
AcDbLine
 62
7
  6
CONTINUOUS
 10
26.1448651859
 20
3.4279823071
 11
26.1466998884
 21
4.1132964769
  0
LINE
  5
334
100
AcDbEntity
  8
ASSI
100
AcDbLine
 62
7
  6
CONTINUOUS
 10
26.1448651859
 20
3.4279823071
 11
26.1466998884
 21
4.1132964769
  0
LINE
  5
335
100
AcDbEntity
  8
DRAFT
100
AcDbLine
 62
7
  6
CONTINUOUS
 10
26.143673762
 20
3.228037096
 11
26.1448651859
 21
3.4279823071
  0
LINE
  5
336
100
AcDbEntity
  8
ASSI
100
AcDbLine
 62
7
  6
CONTINUOUS
 10
26.143673762
 20
3.228037096
 11
26.1448651859
 21
3.4279823071
  0
LINE
  5
337
100
AcDbEntity
  8
RACCORDO
100
AcDbLine
 62
253
  6
CONTINUOUS
 10
26.3241220772
 20
-0.2659407673
 11
26.3233783976
 21
-0.3885614519
  0
LINE
  5
338
100
AcDbEntity
  8
ASSI
100
AcDbLine
 62
253
  6
CONTINUOUS
 10
26.3241220772
 20
-0.2659407673
 11
26.3233783976
 21
-0.3885614519
  0
LINE
  5
339
100
AcDbEntity
  8
RACCORDO
100
AcDbLine
 62
7
  6
CONTINUOUS
 10
26.0864745414
 20
6.7098542587
 11
26.0852189775
 21
6.5088900232
  0
LINE
  5
33A
100
AcDbEntity
  8
RACCORDO
100
AcDbLine
 62
7
  6
CONTINUOUS
 10
26.1512858593
 20
1.1432849866
 11
26.1502276811
 21
0.9752995679
  0
LINE
  5
33B
100
AcDbEntity
  8
ASSI
100
AcDbLine
 62
7
  6
CONTINUOUS
 10
26.1512858593
 20
1.1432849866
 11
26.1502276811
 21
0.9752995679
  0
LINE
  5
33C
100
AcDbEntity
  8
RACCORDO
100
AcDbLine
 62
7
  6
CONTINUOUS
 10
26.1087216297
 20
5.5153066531
 11
26.1094596388
 21
5.616680506
  0
LINE
  5
33D
100
AcDbEntity
  8
RACCORDO
100
AcDbLine
 62
253
  6
CONTINUOUS
 10
26.1742709405
 20
-0.1543139214
 11
26.1735938436
 21
-0.2475354559
  0
LINE
  5
33E
100
AcDbEntity
  8
ASSI
100
AcDbLine
 62
253
  6
CONTINUOUS
 10
26.1742709405
 20
-0.1543139214
 11
26.1735938436
 21
-0.2475354559
  0
LINE
  5
33F
100
AcDbEntity
  8
RACCORDO
100
AcDbLine
 62
253
  6
CONTINUOUS
 10
26.3233783976
 20
-0.3885614519
 11
26.322922642
 21
-0.4323185989
  0
LINE
  5
340
100
AcDbEntity
  8
ASSI
100
AcDbLine
 62
253
  6
CONTINUOUS
 10
26.3233783976
 20
-0.3885614519
 11
26.322922642
 21
-0.4323185989
  0
LWPOLYLINE
  5
341
100
AcDbEntity
  8
RACCORDO
100
AcDbPolyline
 62
7
  6
CONTINUOUS
 90
7
 70
0
 10
26.1502276811
 20
0.9752995679
 10
26.149498035
 20
0.9139329309
 10
26.1490908267
 20
0.8898132984
 10
26.1486686842
 20
0.8708029092
 10
26.1482359454
 20
0.8571616676
 10
26.1477882725
 20
0.8486296692
 10
26.1473256653
 20
0.845206914
  0
LWPOLYLINE
  5
342
100
AcDbEntity
  8
ASSI
100
AcDbPolyline
 62
7
  6
CONTINUOUS
 90
7
 70
0
 10
26.1502276811
 20
0.9752995679
 10
26.149498035
 20
0.9139329309
 10
26.1490908267
 20
0.8898132984
 10
26.1486686842
 20
0.8708029092
 10
26.1482359454
 20
0.8571616676
 10
26.1477882725
 20
0.8486296692
 10
26.1473256653
 20
0.845206914
  0
LINE
  5
343
100
AcDbEntity
  8
RACCORDO
100
AcDbLine
 62
253
  6
CONTINUOUS
 10
26.1735938436
 20
-0.2475354559
 11
26.1731593514
 21
-0.2827808862
  0
LINE
  5
344
100
AcDbEntity
  8
ASSI
100
AcDbLine
 62
253
  6
CONTINUOUS
 10
26.1735938436
 20
-0.2475354559
 11
26.1731593514
 21
-0.2827808862
  0
LWPOLYLINE
  5
345
100
AcDbEntity
  8
RACCORDO
100
AcDbPolyline
 62
7
  6
CONTINUOUS
 90
5
 70
0
 10
26.1094596388
 20
5.616680506
 10
26.1101143053
 20
5.6637485319
 10
26.1104670468
 20
5.6793341012
 10
26.1108400205
 20
5.6898912022
 10
26.1112332264
 20
5.6954198349
  0
LWPOLYLINE
  5
346
100
AcDbEntity
  8
RACCORDO
100
AcDbPolyline
 62
253
  6
CONTINUOUS
 90
5
 70
0
 10
26.322922642
 20
-0.4323185989
 10
26.3224259935
 20
-0.462505129
 10
26.3221703575
 20
-0.4722089089
 10
26.3219086382
 20
-0.4782130409
 10
26.3216408354
 20
-0.4804722043
  0
LWPOLYLINE
  5
347
100
AcDbEntity
  8
ASSI
100
AcDbPolyline
 62
253
  6
CONTINUOUS
 90
5
 70
0
 10
26.322922642
 20
-0.4323185989
 10
26.3224259935
 20
-0.462505129
 10
26.3221703575
 20
-0.4722089089
 10
26.3219086382
 20
-0.4782130409
 10
26.3216408354
 20
-0.4804722043
  0
LWPOLYLINE
  5
348
100
AcDbEntity
  8
RACCORDO
100
AcDbPolyline
 62
253
  6
CONTINUOUS
 90
6
 70
0
 10
26.1731593514
 20
-0.2827808862
 10
26.1726783023
 20
-0.30875496
 10
26.1724267647
 20
-0.318058192
 10
26.1721719845
 20
-0.3247378313
 10
26.1719119119
 20
-0.3288777392
 10
26.171646547
 20
-0.3304779158
  0
LWPOLYLINE
  5
349
100
AcDbEntity
  8
ASSI
100
AcDbPolyline
 62
253
  6
CONTINUOUS
 90
6
 70
0
 10
26.1731593514
 20
-0.2827808862
 10
26.1726783023
 20
-0.30875496
 10
26.1724267647
 20
-0.318058192
 10
26.1721719845
 20
-0.3247378313
 10
26.1719119119
 20
-0.3288777392
 10
26.171646547
 20
-0.3304779158
  0
LWPOLYLINE
  5
34A
100
AcDbEntity
  8
RACCORDO
100
AcDbPolyline
 62
7
  6
CONTINUOUS
 90
13
 70
0
 10
26.1301558473
 20
6.8280428076
 10
26.1316177034
 20
6.848147955
 10
26.135423591
 20
6.8672818877
 10
26.1415735102
 20
6.8854446056
 10
26.1502507704
 20
6.9029104042
 10
26.1612720621
 20
6.9194049881
 10
26.1740874565
 20
6.934105471
 10
26.1887879396
 20
6.9469208682
 10
26.2052825254
 20
6.9579421645
 10
26.2227483266
 20
6.9666194286
 10
26.2409110476
 20
6.97276935
 10
26.260044984
 20
6.9765752391
 10
26.2801501358
 20
6.978037096
  0
LWPOLYLINE
  5
34B
100
AcDbEntity
  8
ASSI
100
AcDbPolyline
 62
7
  6
CONTINUOUS
 90
13
 70
0
 10
26.1301558473
 20
6.8280428076
 10
26.1316177034
 20
6.848147955
 10
26.135423591
 20
6.8672818877
 10
26.1415735102
 20
6.8854446056
 10
26.1502507704
 20
6.9029104042
 10
26.1612720621
 20
6.9194049881
 10
26.1740874565
 20
6.934105471
 10
26.1887879396
 20
6.9469208682
 10
26.2052825254
 20
6.9579421645
 10
26.2227483266
 20
6.9666194286
 10
26.2409110476
 20
6.97276935
 10
26.260044984
 20
6.9765752391
 10
26.2801501358
 20
6.978037096
  0
LWPOLYLINE
  5
34C
100
AcDbEntity
  8
RACCORDO
100
AcDbPolyline
 62
7
  6
CONTINUOUS
 90
7
 70
0
 10
26.0899208726
 20
6.8675610176
 10
26.0893708959
 20
6.8629632714
 10
26.0888388721
 20
6.8523231661
 10
26.0883248012
 20
6.8356407019
 10
26.0878235966
 20
6.812609777
 10
26.0873403448
 20
6.7835364931
 10
26.0864745414
 20
6.7098542587
  0
LINE
  5
34D
100
AcDbEntity
  8
RACCORDO
100
AcDbLine
 62
7
  6
CONTINUOUS
 10
26.1301558473
 20
5.8090565442
 11
26.1112332264
 21
5.6954198349
  0
LWPOLYLINE
  5
34E
100
AcDbEntity
  8
RACCORDO
100
AcDbPolyline
 62
253
  6
CONTINUOUS
 90
8
 70
0
 10
24.9374220947
 20
1.0447373995
 10
24.9379755122
 20
1.0467536381
 10
24.9385117801
 20
1.0518502671
 10
24.9390308985
 20
1.0600272864
 10
24.9395383794
 20
1.0714418403
 10
24.9400287108
 20
1.0859367846
 10
24.9404853568
 20
1.1030406864
 10
24.9412948112
 20
1.1452425811
  0
LWPOLYLINE
  5
34F
100
AcDbEntity
  8
ASSI
100
AcDbPolyline
 62
253
  6
CONTINUOUS
 90
8
 70
0
 10
24.9374220947
 20
1.0447373995
 10
24.9379755122
 20
1.0467536381
 10
24.9385117801
 20
1.0518502671
 10
24.9390308985
 20
1.0600272864
 10
24.9395383794
 20
1.0714418403
 10
24.9400287108
 20
1.0859367846
 10
24.9404853568
 20
1.1030406864
 10
24.9412948112
 20
1.1452425811
  0
LINE
  5
350
100
AcDbEntity
  8
RACCORDO
100
AcDbLine
 62
7
  6
CONTINUOUS
 10
25.0980039715
 20
0.7606543572
 11
25.0601558473
 21
0.6470176478
  0
LINE
  5
351
100
AcDbEntity
  8
RACCORDO
100
AcDbLine
 62
7
  6
CONTINUOUS
 10
26.1301558473
 20
6.948037096
 11
26.0899208726
 21
6.8675610176
  0
LINE
  5
352
100
AcDbEntity
  8
DRAFT
100
AcDbLine
 62
7
  6
CONTINUOUS
 10
26.1516589915
 20
4.9448640626
 11
26.145312075
 21
4.9321692627
  0
LINE
  5
353
100
AcDbEntity
  8
ASSI
100
AcDbLine
 62
7
  6
CONTINUOUS
 10
26.1516589915
 20
4.9448640626
 11
26.145312075
 21
4.9321692627
  0
LWPOLYLINE
  5
354
100
AcDbEntity
  8
0
100
AcDbPolyline
 62
7
  6
CONTINUOUS
 90
40
 70
0
 10
23.6985709784
 20
2.8458986365
 10
23.7173452626
 20
2.8744969696
 10
23.7378736606
 20
2.9017136367
 10
23.7601561724
 20
2.9275680941
 10
23.7842107757
 20
2.9523017906
 10
23.8100194929
 20
2.9757115388
 10
23.8375283898
 20
2.9971679452
 10
23.8669273394
 20
3.0167199265
 10
23.8980264687
 20
3.0343935315
 10
23.9302022262
 20
3.049554665
 10
23.9633732158
 20
3.062117583
 10
23.9976208334
 20
3.0722527761
 10
24.0325657151
 20
3.0797201755
 10
24.0681060359
 20
3.0845799154
 10
24.1043436208
 20
3.0868162421
 10
24.14120458
 20
3.0860664282
 10
24.178805372
 20
3.0824262964
 10
24.2170295383
 20
3.0757818297
 10
24.2554538136
 20
3.0654318706
 10
24.2942975444
 20
3.0512708497
 10
24.3333413843
 20
3.0332843294
 10
24.3715040285
 20
3.010865252
 10
24.4089291537
 20
2.983508857
 10
24.4454730833
 20
2.9514720721
 10
24.4796234836
 20
2.9152811058
 10
24.5109890077
 20
2.8748856901
 10
24.5399610024
 20
2.8301072121
 10
24.5662011745
 20
2.781324262
 10
24.589669835
 20
2.7282233528
 10
24.6104066728
 20
2.6709729654
 10
24.6281924611
 20
2.610758449
 10
24.6429268344
 20
2.547842264
 10
24.6547101582
 20
2.4820238496
 10
24.6636243024
 20
2.4138776458
 10
24.6698065001
 20
2.3434359779
 10
24.6731195182
 20
2.270872669
 10
24.6732335275
 20
2.1970225553
 10
24.670038585
 20
2.1222745667
 10
24.6636446338
 20
2.0465668136
 10
24.6540516737
 20
1.9700855697
  0
LINE
  5
355
100
AcDbEntity
  8
DRAFT
100
AcDbLine
 62
7
  6
CONTINUOUS
 10
26.145312075
 20
1.5239049294
 11
26.1516589915
 21
1.5112101295
  0
LINE
  5
356
100
AcDbEntity
  8
ASSI
100
AcDbLine
 62
7
  6
CONTINUOUS
 10
26.145312075
 20
1.5239049294
 11
26.1516589915
 21
1.5112101295
  0
LINE
  5
357
100
AcDbEntity
  8
RACCORDO
100
AcDbLine
 62
7
  6
CONTINUOUS
 10
25.0980039715
 20
5.6954198349
 11
25.0601558473
 21
5.8090565442
  0
LINE
  5
358
100
AcDbEntity
  8
RACCORDO
100
AcDbLine
 62
7
  6
CONTINUOUS
 10
26.1301558473
 20
0.6470176478
 11
26.1112332264
 21
0.7606543572
  0
LWPOLYLINE
  5
359
100
AcDbEntity
  8
RACCORDO
100
AcDbPolyline
 62
253
  6
CONTINUOUS
 90
5
 70
0
 10
26.171646547
 20
6.7865521079
 10
26.1719121262
 20
6.7849475247
 10
26.1721723662
 20
6.7808023776
 10
26.1724272669
 20
6.7741166664
 10
26.1726788641
 20
6.7648065887
  0
LWPOLYLINE
  5
35A
100
AcDbEntity
  8
ASSI
100
AcDbPolyline
 62
253
  6
CONTINUOUS
 90
5
 70
0
 10
26.171646547
 20
6.7865521079
 10
26.1719121262
 20
6.7849475247
 10
26.1721723662
 20
6.7808023776
 10
26.1724272669
 20
6.7741166664
 10
26.1726788641
 20
6.7648065887
  0
LWPOLYLINE
  5
35B
100
AcDbEntity
  8
RACCORDO
100
AcDbPolyline
 62
7
  6
CONTINUOUS
 90
5
 70
0
 10
26.1473256653
 20
5.6108672781
 10
26.147788271
 20
5.6074445721
 10
26.148235943
 20
5.5989126106
 10
26.1486686813
 20
5.5852713935
 10
26.149090824
 20
5.5662610218
  0
LWPOLYLINE
  5
35C
100
AcDbEntity
  8
ASSI
100
AcDbPolyline
 62
7
  6
CONTINUOUS
 90
5
 70
0
 10
26.1473256653
 20
5.6108672781
 10
26.147788271
 20
5.6074445721
 10
26.148235943
 20
5.5989126106
 10
26.1486686813
 20
5.5852713935
 10
26.149090824
 20
5.5662610218
  0
LWPOLYLINE
  5
35D
100
AcDbEntity
  8
RACCORDO
100
AcDbPolyline
 62
253
  6
CONTINUOUS
 90
4
 70
0
 10
26.3216408354
 20
6.9365463964
 10
26.3219088586
 20
6.9342837902
 10
26.3221707491
 20
6.9282712904
 10
26.322426507
 20
6.9185561548
  0
LWPOLYLINE
  5
35E
100
AcDbEntity
  8
ASSI
100
AcDbPolyline
 62
253
  6
CONTINUOUS
 90
4
 70
0
 10
26.3216408354
 20
6.9365463964
 10
26.3219088586
 20
6.9342837902
 10
26.3221707491
 20
6.9282712904
 10
26.322426507
 20
6.9185561548
  0
LINE
  5
35F
100
AcDbEntity
  8
CURVE
100
AcDbLine
 62
253
  6
CONTINUOUS
 10
28.0301558652
 20
2.228037096
 11
28.0301558652
 21
3.628037096
  0
LINE
  5
360
100
AcDbEntity
  8
RACCORDO
100
AcDbLine
 62
7
  6
CONTINUOUS
 10
24.934288014
 20
4.9321692627
 11
24.9426248633
 21
4.940506112
  0
LINE
  5
361
100
AcDbEntity
  8
ASSI
100
AcDbLine
 62
7
  6
CONTINUOUS
 10
24.934288014
 20
4.9321692627
 11
24.9426248633
 21
4.940506112
  0
LWPOLYLINE
  5
362
100
AcDbEntity
  8
RACCORDO
100
AcDbPolyline
 62
7
  6
CONTINUOUS
 90
16
 70
0
 10
25.0202316166
 20
0.8669494197
 10
25.0097651917
 20
0.8739857003
 10
24.9997688269
 20
0.8816949465
 10
24.9902844367
 20
0.890047143
 10
24.981381339
 20
0.8989806992
 10
24.9730641928
 20
0.9084858544
 10
24.9652920657
 20
0.9186223571
 10
24.9581322588
 20
0.929339728
 10
24.9516179854
 20
0.9406303535
 10
24.9457086322
 20
0.9526487184
 10
24.9404868816
 20
0.9653875464
 10
24.9360495374
 20
0.9788012996
 10
24.9324472645
 20
0.9930057027
 10
24.9297969651
 20
1.0080085323
 10
24.9282440288
 20
1.0236952796
 10
24.9279162891
 20
1.0399848586
  0
LWPOLYLINE
  5
363
100
AcDbEntity
  8
ASSI
100
AcDbPolyline
 62
7
  6
CONTINUOUS
 90
16
 70
0
 10
25.0202316166
 20
0.8669494197
 10
25.0097651917
 20
0.8739857003
 10
24.9997688269
 20
0.8816949465
 10
24.9902844367
 20
0.890047143
 10
24.981381339
 20
0.8989806992
 10
24.9730641928
 20
0.9084858544
 10
24.9652920657
 20
0.9186223571
 10
24.9581322588
 20
0.929339728
 10
24.9516179854
 20
0.9406303535
 10
24.9457086322
 20
0.9526487184
 10
24.9404868816
 20
0.9653875464
 10
24.9360495374
 20
0.9788012996
 10
24.9324472645
 20
0.9930057027
 10
24.9297969651
 20
1.0080085323
 10
24.9282440288
 20
1.0236952796
 10
24.9279162891
 20
1.0399848586
  0
LINE
  5
364
100
AcDbEntity
  8
RACCORDO
100
AcDbLine
 62
7
  6
CONTINUOUS
 10
24.9426248633
 20
1.5155680801
 11
24.934288014
 21
1.5239049294
  0
LINE
  5
365
100
AcDbEntity
  8
ASSI
100
AcDbLine
 62
7
  6
CONTINUOUS
 10
24.9426248633
 20
1.5155680801
 11
24.934288014
 21
1.5239049294
  0
LINE
  5
366
100
AcDbEntity
  8
SCRITTE
100
AcDbLine
 62
253
  6
CONTINUOUS
 10
28.4301558831
 20
0.528037096
 11
27.6301558473
 21
1.928037096
  0
LINE
  5
367
100
AcDbEntity
  8
SCRITTE
100
AcDbLine
 62
253
  6
CONTINUOUS
 10
28.6301558473
 20
6.9710556018
 11
28.6301558473
 21
6.9588379869
  0
LINE
  5
368
100
AcDbEntity
  8
CURVE
100
AcDbLine
 62
253
  6
CONTINUOUS
 10
28.8301558592
 20
2.228037096
 11
28.8301558592
 21
3.628037096
  0
LINE
  5
369
100
AcDbEntity
  8
CURVE
100
AcDbLine
 62
253
  6
CONTINUOUS
 10
29.2301559188
 20
3.2280371199
 11
29.2301559188
 21
2.6280371139
  0
LINE
  5
36A
100
AcDbEntity
  8
SCRITTE
100
AcDbLine
 62
253
  6
CONTINUOUS
 10
29.4301558831
 20
6.9588379869
 11
29.4301558831
 21
6.9710556018
  0
LINE
  5
36B
100
AcDbEntity
  8
0
100
AcDbLine
 62
7
  6
CONTINUOUS
 10
29.4686538473
 20
5.645701096
 11
29.4686538473
 21
3.945736096
  0
LINE
  5
36C
100
AcDbEntity
  8
ASSI
100
AcDbLine
 62
7
  6
CONTINUOUS
 10
29.4686538473
 20
5.645701096
 11
29.4686538473
 21
3.945736096
  0
LINE
  5
36D
100
AcDbEntity
  8
0
100
AcDbLine
 62
7
  6
CONTINUOUS
 10
29.8234818473
 20
3.945736096
 11
29.8234818473
 21
5.645701096
  0
LINE
  5
36E
100
AcDbEntity
  8
ASSI
100
AcDbLine
 62
7
  6
CONTINUOUS
 10
29.8234818473
 20
3.945736096
 11
29.8234818473
 21
5.645701096
  0
LINE
  5
36F
100
AcDbEntity
  8
CURVE
100
AcDbLine
 62
253
  6
CONTINUOUS
 10
29.9301559188
 20
2.6280371139
 11
29.9301559188
 21
3.2280371199
  0
LINE
  5
370
100
AcDbEntity
  8
0
100
AcDbLine
 62
7
  6
CONTINUOUS
 10
30.1679838473
 20
5.645599096
 11
30.0144968473
 21
3.945736096
  0
LINE
  5
371
100
AcDbEntity
  8
ASSI
100
AcDbLine
 62
7
  6
CONTINUOUS
 10
30.1679838473
 20
5.645599096
 11
30.0144968473
 21
3.945736096
  0
LINE
  5
372
100
AcDbEntity
  8
0
100
AcDbLine
 62
7
  6
CONTINUOUS
 10
28.9823898473
 20
5.645599096
 11
28.6484678473
 21
4.475531096
  0
LINE
  5
373
100
AcDbEntity
  8
ASSI
100
AcDbLine
 62
7
  6
CONTINUOUS
 10
28.9823898473
 20
5.645599096
 11
28.6484678473
 21
4.475531096
  0
LINE
  5
374
100
AcDbEntity
  8
0
100
AcDbLine
 62
7
  6
CONTINUOUS
 10
28.7905718473
 20
3.945736096
 11
29.3369758473
 21
5.645599096
  0
LINE
  5
375
100
AcDbEntity
  8
ASSI
100
AcDbLine
 62
7
  6
CONTINUOUS
 10
28.7905718473
 20
3.945736096
 11
29.3369758473
 21
5.645599096
  0
LINE
  5
376
100
AcDbEntity
  8
RACCORDO
100
AcDbLine
 62
7
  6
CONTINUOUS
 10
23.1392117459
 20
0.8370929946
 11
23.1301558473
 21
0.828037096
  0
LINE
  5
377
100
AcDbEntity
  8
ASSI
100
AcDbLine
 62
7
  6
CONTINUOUS
 10
23.1392117459
 20
0.8370929946
 11
23.1301558473
 21
0.828037096
  0
LWPOLYLINE
  5
378
100
AcDbEntity
  8
RACCORDO
100
AcDbPolyline
 62
7
  6
CONTINUOUS
 90
6
 70
0
 10
25.0202316166
 20
0.8669494197
 10
25.0355506069
 20
0.8583886891
 10
25.0515323219
 20
0.8511141362
 10
25.0681767615
 20
0.8452422648
 10
25.0854839256
 20
0.8408827059
 10
25.1015279367
 20
0.8384306214
  0
LWPOLYLINE
  5
379
100
AcDbEntity
  8
ASSI
100
AcDbPolyline
 62
7
  6
CONTINUOUS
 90
6
 70
0
 10
25.0202316166
 20
0.8669494197
 10
25.0355506069
 20
0.8583886891
 10
25.0515323219
 20
0.8511141362
 10
25.0681767615
 20
0.8452422648
 10
25.0854839256
 20
0.8408827059
 10
25.1015279367
 20
0.8384306214
  0
LINE
  5
37A
100
AcDbEntity
  8
RACCORDO
100
AcDbLine
 62
7
  6
CONTINUOUS
 10
23.1392117459
 20
5.6189811975
 11
23.1301558473
 21
5.628037096
  0
LINE
  5
37B
100
AcDbEntity
  8
ASSI
100
AcDbLine
 62
7
  6
CONTINUOUS
 10
23.1392117459
 20
5.6189811975
 11
23.1301558473
 21
5.628037096
  0
LINE
  5
37C
100
AcDbEntity
  8
SCRITTE
100
AcDbLine
 62
253
  6
CONTINUOUS
 10
29.630155895
 20
0.528037096
 11
28.8301558592
 21
1.928037096
  0
LINE
  5
37D
100
AcDbEntity
  8
CURVE
100
AcDbLine
 62
253
  6
CONTINUOUS
 10
29.2301559188
 20
2.6280371139
 11
29.3301558712
 21
2.428037105
  0
LINE
  5
37E
100
AcDbEntity
  8
0
100
AcDbLine
 62
7
  6
CONTINUOUS
 10
27.9389898473
 20
5.645599096
 11
28.4778798473
 21
3.945736096
  0
LINE
  5
37F
100
AcDbEntity
  8
ASSI
100
AcDbLine
 62
7
  6
CONTINUOUS
 10
27.9389898473
 20
5.645599096
 11
28.4778798473
 21
3.945736096
  0
LINE
  5
380
100
AcDbEntity
  8
0
100
AcDbLine
 62
7
  6
CONTINUOUS
 10
28.6484678473
 20
4.475531096
 11
28.3244428473
 21
5.645599096
  0
LINE
  5
381
100
AcDbEntity
  8
ASSI
100
AcDbLine
 62
7
  6
CONTINUOUS
 10
28.6484678473
 20
4.475531096
 11
28.3244428473
 21
5.645599096
  0
LINE
  5
382
100
AcDbEntity
  8
0
100
AcDbLine
 62
7
  6
CONTINUOUS
 10
31.3184348473
 20
5.051088096
 11
31.3913358473
 21
3.945736096
  0
LINE
  5
383
100
AcDbEntity
  8
ASSI
100
AcDbLine
 62
7
  6
CONTINUOUS
 10
31.3184348473
 20
5.051088096
 11
31.3913358473
 21
3.945736096
  0
LINE
  5
384
100
AcDbEntity
  8
SCRITTE
100
AcDbLine
 62
253
  6
CONTINUOUS
 10
30.4301558473
 20
0.528037096
 11
30.4301558473
 21
1.3280371318
  0
LINE
  5
385
100
AcDbEntity
  8
SCRITTE
100
AcDbLine
 62
253
  6
CONTINUOUS
 10
31.0301558712
 20
6.9710556018
 11
31.0301558712
 21
6.9588379869
  0
LINE
  5
386
100
AcDbEntity
  8
SCRITTE
100
AcDbLine
 62
253
  6
CONTINUOUS
 10
31.6301559427
 20
0.528037096
 11
31.6301559427
 21
1.3280371318
  0
LINE
  5
387
100
AcDbEntity
  8
0
100
AcDbLine
 62
7
  6
CONTINUOUS
 10
30.3539518473
 20
3.945736096
 11
30.4305238473
 21
5.055715096
  0
LINE
  5
388
100
AcDbEntity
  8
ASSI
100
AcDbLine
 62
7
  6
CONTINUOUS
 10
30.3539518473
 20
3.945736096
 11
30.4305238473
 21
5.055715096
  0
LINE
  5
389
100
AcDbEntity
  8
0
100
AcDbLine
 62
7
  6
CONTINUOUS
 10
31.2284278473
 20
5.645599096
 11
30.8735998473
 21
4.701830096
  0
LINE
  5
38A
100
AcDbEntity
  8
ASSI
100
AcDbLine
 62
7
  6
CONTINUOUS
 10
31.2284278473
 20
5.645599096
 11
30.8735998473
 21
4.701830096
  0
LINE
  5
38B
100
AcDbEntity
  8
0
100
AcDbLine
 62
7
  6
CONTINUOUS
 10
30.8965438473
 20
3.945736096
 11
31.3184348473
 21
5.051088096
  0
LINE
  5
38C
100
AcDbEntity
  8
ASSI
100
AcDbLine
 62
7
  6
CONTINUOUS
 10
30.8965438473
 20
3.945736096
 11
31.3184348473
 21
5.051088096
  0
LINE
  5
38D
100
AcDbEntity
  8
CURVE
100
AcDbLine
 62
253
  6
CONTINUOUS
 10
29.3301558712
 20
3.428037108
 11
29.2301559188
 21
3.2280371199
  0
LINE
  5
38E
100
AcDbEntity
  8
CURVE
100
AcDbLine
 62
253
  6
CONTINUOUS
 10
29.8301557996
 20
2.428037105
 11
29.9301559188
 21
2.6280371139
  0
LINE
  5
38F
100
AcDbEntity
  8
SCRITTE
100
AcDbLine
 62
253
  6
CONTINUOUS
 10
28.4301558831
 20
1.928037096
 11
27.6301558473
 21
0.528037096
  0
LINE
  5
390
100
AcDbEntity
  8
SCRITTE
100
AcDbLine
 62
253
  6
CONTINUOUS
 10
29.630155895
 20
1.928037096
 11
28.8301558592
 21
0.528037096
  0
LINE
  5
391
100
AcDbEntity
  8
CURVE
100
AcDbLine
 62
253
  6
CONTINUOUS
 10
28.0301558652
 20
3.628037096
 11
27.6301558473
 21
3.2280371199
  0
LINE
  5
392
100
AcDbEntity
  8
RACCORDO
100
AcDbLine
 62
253
  6
CONTINUOUS
 10
25.0601558473
 20
0.1079457131
 11
25.1406319257
 21
0.1884217915
  0
LINE
  5
393
100
AcDbEntity
  8
CURVE
100
AcDbLine
 62
253
  6
CONTINUOUS
 10
28.8301558592
 20
3.628037096
 11
28.4301558831
 21
3.2280371199
  0
LINE
  5
394
100
AcDbEntity
  8
RACCORDO
100
AcDbLine
 62
7
  6
CONTINUOUS
 10
26.1473256653
 20
0.845206914
 11
26.1301558473
 21
0.828037096
  0
LINE
  5
395
100
AcDbEntity
  8
ASSI
100
AcDbLine
 62
7
  6
CONTINUOUS
 10
26.1473256653
 20
0.845206914
 11
26.1301558473
 21
0.828037096
  0
LINE
  5
396
100
AcDbEntity
  8
RACCORDO
100
AcDbLine
 62
7
  6
CONTINUOUS
 10
58.7472236916
 20
1.3926694358
 11
58.6950033943
 21
1.3825279567
  0
LINE
  5
397
100
AcDbEntity
  8
ASSI
100
AcDbLine
 62
7
  6
CONTINUOUS
 10
58.7472236916
 20
1.3926694358
 11
58.6950033943
 21
1.3825279567
  0
LWPOLYLINE
  5
398
100
AcDbEntity
  8
RACCORDO
100
AcDbPolyline
 62
7
  6
CONTINUOUS
 90
6
 70
0
 10
58.7335260525
 20
0.3297216852
 10
58.7311180207
 20
0.3294135448
 10
58.7262764151
 20
0.3291312735
 10
58.7190012358
 20
0.3288748715
 10
58.708946405
 20
0.3286385096
 10
58.6964580005
 20
0.328428017
  0
LINE
  5
399
100
AcDbEntity
  8
RACCORDO
100
AcDbLine
 62
253
  6
CONTINUOUS
 10
25.1406319257
 20
6.2676524005
 11
25.0601558473
 21
6.3481284789
  0
LINE
  5
39A
100
AcDbEntity
  8
CURVE
100
AcDbLine
 62
253
  6
CONTINUOUS
 10
29.3301558712
 20
2.428037105
 11
29.5301557758
 21
2.228037096
  0
LINE
  5
39B
100
AcDbEntity
  8
RACCORDO
100
AcDbLine
 62
7
  6
CONTINUOUS
 10
26.1301558473
 20
5.628037096
 11
26.1473256653
 21
5.6108672781
  0
LINE
  5
39C
100
AcDbEntity
  8
ASSI
100
AcDbLine
 62
7
  6
CONTINUOUS
 10
26.1301558473
 20
5.628037096
 11
26.1473256653
 21
5.6108672781
  0
LINE
  5
39D
100
AcDbEntity
  8
RACCORDO
100
AcDbLine
 62
253
  6
CONTINUOUS
 10
25.7405405428
 20
6.8675610176
 11
25.6600644644
 21
6.948037096
  0
LINE
  5
39E
100
AcDbEntity
  8
SCRITTE
100
AcDbLine
 62
253
  6
CONTINUOUS
 10
30.4301558473
 20
1.3280371318
 11
30.0301558712
 21
1.928037096
  0
LINE
  5
39F
100
AcDbEntity
  8
SCRITTE
100
AcDbLine
 62
253
  6
CONTINUOUS
 10
31.6301559427
 20
1.3280371318
 11
31.2301557996
 21
1.928037096
  0
LINE
  5
3A0
100
AcDbEntity
  8
CURVE
100
AcDbLine
 62
253
  6
CONTINUOUS
 10
29.9301559188
 20
3.2280371199
 11
29.8301557996
 21
3.428037108
  0
LINE
  5
3A1
100
AcDbEntity
  8
0
100
AcDbLine
 62
7
  6
CONTINUOUS
 10
30.4305238473
 20
5.055715096
 11
30.8467798473
 21
3.945736096
  0
LINE
  5
3A2
100
AcDbEntity
  8
ASSI
100
AcDbLine
 62
7
  6
CONTINUOUS
 10
30.4305238473
 20
5.055715096
 11
30.8467798473
 21
3.945736096
  0
LINE
  5
3A3
100
AcDbEntity
  8
0
100
AcDbLine
 62
7
  6
CONTINUOUS
 10
31.7384518473
 20
3.945736096
 11
31.5794948473
 21
5.645599096
  0
LINE
  5
3A4
100
AcDbEntity
  8
ASSI
100
AcDbLine
 62
7
  6
CONTINUOUS
 10
31.7384518473
 20
3.945736096
 11
31.5794948473
 21
5.645599096
  0
LINE
  5
3A5
100
AcDbEntity
  8
SCRITTE
100
AcDbLine
 62
253
  6
CONTINUOUS
 10
31.7301557043
 20
6.9605833605
 11
31.7301557043
 21
6.9693102284
  0
LINE
  5
3A6
100
AcDbEntity
  8
CURVE
100
AcDbLine
 62
253
  6
CONTINUOUS
 10
32.0301557519
 20
3.428037108
 11
32.0301557519
 21
3.2280371199
  0
LINE
  5
3A7
100
AcDbEntity
  8
SCRITTE
100
AcDbLine
 62
253
  6
CONTINUOUS
 10
32.2968225458
 20
6.9710556018
 11
32.2968225458
 21
6.9588379869
  0
LINE
  5
3A8
100
AcDbEntity
  8
CURVE
100
AcDbLine
 62
253
  6
CONTINUOUS
 10
32.430155895
 20
3.628037096
 11
32.430155895
 21
3.0280371318
  0
LINE
  5
3A9
100
AcDbEntity
  8
CURVE
100
AcDbLine
 62
253
  6
CONTINUOUS
 10
33.0301559427
 20
2.828037102
 11
33.0301559427
 21
2.428037105
  0
LINE
  5
3AA
100
AcDbEntity
  8
0
100
AcDbLine
 62
7
  6
CONTINUOUS
 10
32.3156398473
 20
4.547679096
 11
32.4923138473
 21
5.178520096
  0
LINE
  5
3AB
100
AcDbEntity
  8
ASSI
100
AcDbLine
 62
7
  6
CONTINUOUS
 10
32.3156398473
 20
4.547679096
 11
32.4923138473
 21
5.178520096
  0
LINE
  5
3AC
100
AcDbEntity
  8
0
100
AcDbLine
 62
7
  6
CONTINUOUS
 10
32.1451468473
 20
3.945736096
 11
32.2430578473
 21
4.285089096
  0
LINE
  5
3AD
100
AcDbEntity
  8
ASSI
100
AcDbLine
 62
7
  6
CONTINUOUS
 10
32.1451468473
 20
3.945736096
 11
32.2430578473
 21
4.285089096
  0
LINE
  5
3AE
100
AcDbEntity
  8
0
100
AcDbLine
 62
7
  6
CONTINUOUS
 10
32.3273538473
 20
5.645599096
 11
31.7941688473
 21
3.945736096
  0
LINE
  5
3AF
100
AcDbEntity
  8
ASSI
100
AcDbLine
 62
7
  6
CONTINUOUS
 10
32.3273538473
 20
5.645599096
 11
31.7941688473
 21
3.945736096
  0
LINE
  5
3B0
100
AcDbEntity
  8
CURVE
100
AcDbLine
 62
253
  6
CONTINUOUS
 10
31.3301557519
 20
3.3280370722
 11
31.5301559904
 21
3.628037096
  0
LINE
  5
3B1
100
AcDbEntity
  8
SCRITTE
100
AcDbLine
 62
253
  6
CONTINUOUS
 10
30.8301559904
 20
1.928037096
 11
30.4301558473
 21
1.3280371318
  0
LINE
  5
3B2
100
AcDbEntity
  8
CURVE
100
AcDbLine
 62
253
  6
CONTINUOUS
 10
29.5301557758
 20
3.628037096
 11
29.3301558712
 21
3.428037108
  0
LINE
  5
3B3
100
AcDbEntity
  8
RACCORDO
100
AcDbLine
 62
253
  6
CONTINUOUS
 10
25.6600644644
 20
-0.491962904
 11
25.7405405428
 21
-0.4114868256
  0
LINE
  5
3B4
100
AcDbEntity
  8
RACCORDO
100
AcDbLine
 62
253
  6
CONTINUOUS
 10
26.171646547
 20
-0.3304779158
 11
26.1301558473
 21
-0.3719686155
  0
LINE
  5
3B5
100
AcDbEntity
  8
ASSI
100
AcDbLine
 62
253
  6
CONTINUOUS
 10
26.171646547
 20
-0.3304779158
 11
26.1301558473
 21
-0.3719686155
  0
LINE
  5
3B6
100
AcDbEntity
  8
DRAFT
100
AcDbLine
 62
7
  6
CONTINUOUS
 10
26.9266648343
 20
0.2745460831
 11
26.9301558473
 21
0.278037096
  0
LINE
  5
3B7
100
AcDbEntity
  8
RACCORDO
100
AcDbLine
 62
253
  6
CONTINUOUS
 10
26.3216408354
 20
-0.4804722043
 11
26.2801501358
 21
-0.521962904
  0
LINE
  5
3B8
100
AcDbEntity
  8
ASSI
100
AcDbLine
 62
253
  6
CONTINUOUS
 10
26.3216408354
 20
-0.4804722043
 11
26.2801501358
 21
-0.521962904
  0
LINE
  5
3B9
100
AcDbEntity
  8
CURVE
100
AcDbLine
 62
253
  6
CONTINUOUS
 10
29.630155895
 20
2.228037096
 11
29.8301557996
 21
2.428037105
  0
LINE
  5
3BA
100
AcDbEntity
  8
SCRITTE
100
AcDbLine
 62
253
  6
CONTINUOUS
 10
43.6114058473
 20
0.528037096
 11
43.7864058473
 21
0.571787096
  0
LINE
  5
3BB
100
AcDbEntity
  8
RACCORDO
100
AcDbLine
 62
7
  6
CONTINUOUS
 10
44.8301558473
 20
-0.5088726023
 11
44.7228819092
 21
-0.5195730226
  0
LINE
  5
3BC
100
AcDbEntity
  8
ASSI
100
AcDbLine
 62
7
  6
CONTINUOUS
 10
44.8301558473
 20
-0.5088726023
 11
44.7228819092
 21
-0.5195730226
  0
LWPOLYLINE
  5
3BD
100
AcDbEntity
  8
RACCORDO
100
AcDbPolyline
 62
7
  6
CONTINUOUS
 90
6
 70
0
 10
59.6301710778
 20
0.328037096
 10
59.6475242127
 20
0.3295604636
 10
59.6643510414
 20
0.3340738483
 10
59.6801404951
 20
0.34144093
 10
59.6944127032
 20
0.3514388306
 10
59.7008296982
 20
0.3573201316
  0
LWPOLYLINE
  5
3BE
100
AcDbEntity
  8
RACCORDO
100
AcDbPolyline
 62
7
  6
CONTINUOUS
 90
16
 70
0
 10
45.0829025053
 20
-0.5743440582
 10
45.1467273285
 20
-0.570759477
 10
45.2085240992
 20
-0.5609753177
 10
45.2682928174
 20
-0.5449915801
 10
45.3266364712
 20
-0.5224993613
 10
45.3829520725
 20
-0.4938075642
 10
45.435430657
 20
-0.4598428983
 10
45.4839478467
 20
-0.4204356689
 10
45.5286280195
 20
-0.3757555706
 10
45.5680353457
 20
-0.3272383963
 10
45.602000136
 20
-0.2747597356
 10
45.6306920795
 20
-0.2184439989
 10
45.6531844141
 20
-0.1601002108
 10
45.6691682189
 20
-0.1003313793
 10
45.6789524147
 20
-0.0385344964
 10
45.6825370016
 20
0.025290438
  0
LWPOLYLINE
  5
3BF
100
AcDbEntity
  8
RACCORDO
100
AcDbPolyline
 62
7
  6
CONTINUOUS
 90
16
 70
0
 10
25.6297903435
 20
-0.521962904
 10
25.5659280886
 20
-0.5183742744
 10
25.5040967409
 20
-0.5085788789
 10
25.4442963005
 20
-0.4925767173
 10
25.3859225101
 20
-0.4700581478
 10
25.3295796269
 20
-0.4413328123
 10
25.2770804227
 20
-0.4073296369
 10
25.2285498992
 20
-0.3678785554
 10
25.1838630548
 20
-0.323149634
 10
25.1444576565
 20
-0.2745819969
 10
25.1105038981
 20
-0.2220299074
 10
25.0818315859
 20
-0.1656391022
 10
25.0593679061
 20
-0.1072859162
 10
25.0434219207
 20
-0.0475957943
 10
25.0336845678
 20
0.0140567086
 10
25.0301558473
 20
0.0776715923
  0
LWPOLYLINE
  5
3C0
100
AcDbEntity
  8
RACCORDO
100
AcDbPolyline
 62
7
  6
CONTINUOUS
 90
16
 70
0
 10
25.6600644644
 20
-0.491962904
 10
25.5962365741
 20
-0.4883772184
 10
25.5344317762
 20
-0.4785886652
 10
25.4746500707
 20
-0.4625972443
 10
25.4162889321
 20
-0.4400960394
 10
25.3599508858
 20
-0.4113919669
 10
25.3074435093
 20
-0.3774057758
 10
25.2588855118
 20
-0.3379605665
 10
25.2141581841
 20
-0.2932332386
 10
25.1747129748
 20
-0.2446752412
 10
25.140726784
 20
-0.1921678648
 10
25.1120227116
 20
-0.1358298187
 10
25.0895215069
 20
-0.0774686802
 10
25.0735300861
 20
-0.0176869749
 10
25.0637415329
 20
0.0441178229
 10
25.0601558473
 20
0.1079457131
  0
LWPOLYLINE
  5
3C1
100
AcDbEntity
  8
RACCORDO
100
AcDbPolyline
 62
7
  6
CONTINUOUS
 90
13
 70
0
 10
26.2801501358
 20
-0.521962904
 10
26.260044984
 20
-0.5205010471
 10
26.2409110476
 20
-0.5166951579
 10
26.2227483266
 20
-0.5105452365
 10
26.2052825254
 20
-0.5018679724
 10
26.1887879396
 20
-0.4908466761
 10
26.1740874565
 20
-0.478031279
 10
26.1612720621
 20
-0.463330796
 10
26.1502507704
 20
-0.4468362121
 10
26.1415735102
 20
-0.4293704135
 10
26.135423591
 20
-0.4112076956
 10
26.1316177034
 20
-0.3920737629
 10
26.1301558473
 20
-0.3719686155
  0
LWPOLYLINE
  5
3C2
100
AcDbEntity
  8
ASSI
100
AcDbPolyline
 62
7
  6
CONTINUOUS
 90
13
 70
0
 10
26.2801501358
 20
-0.521962904
 10
26.260044984
 20
-0.5205010471
 10
26.2409110476
 20
-0.5166951579
 10
26.2227483266
 20
-0.5105452365
 10
26.2052825254
 20
-0.5018679724
 10
26.1887879396
 20
-0.4908466761
 10
26.1740874565
 20
-0.478031279
 10
26.1612720621
 20
-0.463330796
 10
26.1502507704
 20
-0.4468362121
 10
26.1415735102
 20
-0.4293704135
 10
26.135423591
 20
-0.4112076956
 10
26.1316177034
 20
-0.3920737629
 10
26.1301558473
 20
-0.3719686155
  0
LWPOLYLINE
  5
3C3
100
AcDbEntity
  8
RACCORDO
100
AcDbPolyline
 62
253
  6
CONTINUOUS
 90
10
 70
0
 10
26.3216408354
 20
-0.4804722043
 10
26.2955958488
 20
-0.4781916907
 10
26.2703421499
 20
-0.4714234025
 10
26.2466469854
 20
-0.4603729711
 10
26.2252302512
 20
-0.445376126
 10
26.206742621
 20
-0.4268884948
 10
26.1917457771
 20
-0.4054717606
 10
26.1806953471
 20
-0.3817765969
 10
26.1739270601
 20
-0.3565228998
 10
26.171646547
 20
-0.3304779158
  0
LWPOLYLINE
  5
3C4
100
AcDbEntity
  8
ASSI
100
AcDbPolyline
 62
253
  6
CONTINUOUS
 90
10
 70
0
 10
26.3216408354
 20
-0.4804722043
 10
26.2955958488
 20
-0.4781916907
 10
26.2703421499
 20
-0.4714234025
 10
26.2466469854
 20
-0.4603729711
 10
26.2252302512
 20
-0.445376126
 10
26.206742621
 20
-0.4268884948
 10
26.1917457771
 20
-0.4054717606
 10
26.1806953471
 20
-0.3817765969
 10
26.1739270601
 20
-0.3565228998
 10
26.171646547
 20
-0.3304779158
  0
LWPOLYLINE
  5
3C5
100
AcDbEntity
  8
RACCORDO
100
AcDbPolyline
 62
7
  6
CONTINUOUS
 90
9
 70
0
 10
24.9426248633
 20
1.5155680801
 10
24.9448328419
 20
1.5151223745
 10
24.949898106
 20
1.5146973354
 10
24.9578206555
 20
1.5142929628
 10
24.9688115253
 20
1.5139036438
 10
24.9826596806
 20
1.5135349913
 10
24.9987320164
 20
1.5132038445
 10
25.0171315868
 20
1.5129119458
 10
25.0596610025
 20
1.5124522783
  0
LWPOLYLINE
  5
3C6
100
AcDbEntity
  8
ASSI
100
AcDbPolyline
 62
7
  6
CONTINUOUS
 90
9
 70
0
 10
24.9426248633
 20
1.5155680801
 10
24.9448328419
 20
1.5151223745
 10
24.949898106
 20
1.5146973354
 10
24.9578206555
 20
1.5142929628
 10
24.9688115253
 20
1.5139036438
 10
24.9826596806
 20
1.5135349913
 10
24.9987320164
 20
1.5132038445
 10
25.0171315868
 20
1.5129119458
 10
25.0596610025
 20
1.5124522783
  0
LINE
  5
3C7
100
AcDbEntity
  8
RACCORDO
100
AcDbLine
 62
253
  6
CONTINUOUS
 10
26.1301558473
 20
6.8280428076
 11
26.171646547
 21
6.7865521079
  0
LINE
  5
3C8
100
AcDbEntity
  8
ASSI
100
AcDbLine
 62
253
  6
CONTINUOUS
 10
26.1301558473
 20
6.8280428076
 11
26.171646547
 21
6.7865521079
  0
LINE
  5
3C9
100
AcDbEntity
  8
DRAFT
100
AcDbLine
 62
7
  6
CONTINUOUS
 10
26.9266648343
 20
6.181528109
 11
26.9301558473
 21
6.178037096
  0
LINE
  5
3CA
100
AcDbEntity
  8
RACCORDO
100
AcDbLine
 62
253
  6
CONTINUOUS
 10
26.2801501358
 20
6.978037096
 11
26.3216408354
 21
6.9365463964
  0
LINE
  5
3CB
100
AcDbEntity
  8
ASSI
100
AcDbLine
 62
253
  6
CONTINUOUS
 10
26.2801501358
 20
6.978037096
 11
26.3216408354
 21
6.9365463964
  0
LINE
  5
3CC
100
AcDbEntity
  8
CURVE
100
AcDbLine
 62
253
  6
CONTINUOUS
 10
29.8301557996
 20
3.428037108
 11
29.630155895
 21
3.628037096
  0
LINE
  5
3CD
100
AcDbEntity
  8
0
100
AcDbLine
 62
7
  6
CONTINUOUS
 10
30.8735998473
 20
4.701830096
 11
30.5225188473
 21
5.645599096
  0
LINE
  5
3CE
100
AcDbEntity
  8
ASSI
100
AcDbLine
 62
7
  6
CONTINUOUS
 10
30.8735998473
 20
4.701830096
 11
30.5225188473
 21
5.645599096
  0
LINE
  5
3CF
100
AcDbEntity
  8
0
100
AcDbLine
 62
7
  6
CONTINUOUS
 10
32.7262748473
 20
4.285089096
 11
32.8181938473
 21
3.945736096
  0
LINE
  5
3D0
100
AcDbEntity
  8
ASSI
100
AcDbLine
 62
7
  6
CONTINUOUS
 10
32.7262748473
 20
4.285089096
 11
32.8181938473
 21
3.945736096
  0
LINE
  5
3D1
100
AcDbEntity
  8
0
100
AcDbLine
 62
7
  6
CONTINUOUS
 10
32.4923138473
 20
5.178520096
 11
32.6553618473
 21
4.547679096
  0
LINE
  5
3D2
100
AcDbEntity
  8
ASSI
100
AcDbLine
 62
7
  6
CONTINUOUS
 10
32.4923138473
 20
5.178520096
 11
32.6553618473
 21
4.547679096
  0
LINE
  5
3D3
100
AcDbEntity
  8
0
100
AcDbLine
 62
7
  6
CONTINUOUS
 10
33.2963625112
 20
5.6257391782
 11
33.2963625112
 21
3.9457364093
  0
LINE
  5
3D4
100
AcDbEntity
  8
ASSI
100
AcDbLine
 62
7
  6
CONTINUOUS
 10
33.2963625112
 20
5.6257391782
 11
33.2963625112
 21
3.9457364093
  0
LINE
  5
3D5
100
AcDbEntity
  8
CURVE
100
AcDbLine
 62
253
  6
CONTINUOUS
 10
33.4301557519
 20
3.2280371199
 11
33.4301557519
 21
2.6280371139
  0
LINE
  5
3D6
100
AcDbEntity
  8
0
100
AcDbLine
 62
7
  6
CONTINUOUS
 10
33.6379972789
 20
4.8893652645
 11
33.6379972789
 21
5.356010747
  0
LINE
  5
3D7
100
AcDbEntity
  8
ASSI
100
AcDbLine
 62
7
  6
CONTINUOUS
 10
33.6379972789
 20
4.8893652645
 11
33.6379972789
 21
5.356010747
  0
LINE
  5
3D8
100
AcDbEntity
  8
0
100
AcDbLine
 62
7
  6
CONTINUOUS
 10
33.6497628433
 20
3.9457364093
 11
33.6497628433
 21
4.6109688119
  0
LINE
  5
3D9
100
AcDbEntity
  8
ASSI
100
AcDbLine
 62
7
  6
CONTINUOUS
 10
33.6497628433
 20
3.9457364093
 11
33.6497628433
 21
4.6109688119
  0
LINE
  5
3DA
100
AcDbEntity
  8
CURVE
100
AcDbLine
 62
253
  6
CONTINUOUS
 10
34.1301557519
 20
2.6280371139
 11
34.1301557519
 21
3.2280371199
  0
LINE
  5
3DB
100
AcDbEntity
  8
0
100
AcDbLine
 62
7
  6
CONTINUOUS
 10
34.2086080301
 20
4.7392172876
 11
34.2086080301
 21
4.7492619948
  0
LINE
  5
3DC
100
AcDbEntity
  8
ASSI
100
AcDbLine
 62
7
  6
CONTINUOUS
 10
34.2086080301
 20
4.7392172876
 11
34.2086080301
 21
4.7492619948
  0
LWPOLYLINE
  5
3DD
100
AcDbEntity
  8
0
100
AcDbPolyline
 62
7
  6
CONTINUOUS
 90
16
 70
0
 10
34.1164083258
 20
5.1535232173
 10
34.1145990599
 20
5.1200830016
 10
34.1100940075
 20
5.0885569861
 10
34.1028931685
 20
5.0589451709
 10
34.0928197858
 20
5.0309588647
 10
34.0800506165
 20
5.0048867587
 10
34.0651159317
 20
4.9815949265
 10
34.0481783775
 20
4.9614480053
 10
34.0290753079
 20
4.9440813579
 10
34.007849056
 20
4.9292671457
 10
33.9843363772
 20
4.9170835735
 10
33.9587005161
 20
4.9074524367
 10
33.9314735402
 20
4.8999112826
 10
33.9028328055
 20
4.8943059604
 10
33.872600956
 20
4.8907906211
 10
33.8407779918
 20
4.8893652645
  0
LWPOLYLINE
  5
3DE
100
AcDbEntity
  8
ASSI
100
AcDbPolyline
 62
7
  6
CONTINUOUS
 90
16
 70
0
 10
34.1164083258
 20
5.1535232173
 10
34.1145990599
 20
5.1200830016
 10
34.1100940075
 20
5.0885569861
 10
34.1028931685
 20
5.0589451709
 10
34.0928197858
 20
5.0309588647
 10
34.0800506165
 20
5.0048867587
 10
34.0651159317
 20
4.9815949265
 10
34.0481783775
 20
4.9614480053
 10
34.0290753079
 20
4.9440813579
 10
34.007849056
 20
4.9292671457
 10
33.9843363772
 20
4.9170835735
 10
33.9587005161
 20
4.9074524367
 10
33.9314735402
 20
4.8999112826
 10
33.9028328055
 20
4.8943059604
 10
33.872600956
 20
4.8907906211
 10
33.8407779918
 20
4.8893652645
  0
LINE
  5
3DF
100
AcDbEntity
  8
CURVE
100
AcDbLine
 62
253
  6
CONTINUOUS
 10
33.5301560381
 20
3.428037108
 11
33.4301557519
 21
3.2280371199
  0
LINE
  5
3E0
100
AcDbEntity
  8
SCRITTE
100
AcDbLine
 62
253
  6
CONTINUOUS
 10
32.430155895
 20
0.528037096
 11
33.130155895
 21
1.928037096
  0
LINE
  5
3E1
100
AcDbEntity
  8
SCRITTE
100
AcDbLine
 62
253
  6
CONTINUOUS
 10
32.0301557519
 20
1.928037096
 11
31.6301559427
 21
1.3280371318
  0
LINE
  5
3E2
100
AcDbEntity
  8
CURVE
100
AcDbLine
 62
253
  6
CONTINUOUS
 10
32.0301557519
 20
3.2280371199
 11
31.3301557519
 21
2.228037096
  0
LWPOLYLINE
  5
3E3
100
AcDbEntity
  8
0
100
AcDbPolyline
 62
7
  6
CONTINUOUS
 90
40
 70
0
 10
34.2600464084
 20
4.777237783
 10
34.280422509
 20
4.7944886405
 10
34.2906992476
 20
4.8035033429
 10
34.3009851635
 20
4.8129653974
 10
34.3112999201
 20
4.8228177655
 10
34.3216238539
 20
4.8331174857
 10
34.3318653784
 20
4.8441178762
 10
34.3420371738
 20
4.8558423953
 10
34.3521265598
 20
4.8682675849
 10
34.3620039103
 20
4.8815763886
 10
34.3716813531
 20
4.8958174908
 10
34.3811467603
 20
4.9109422073
 10
34.3902341211
 20
4.9269874287
 10
34.3989618613
 20
4.9439707014
 10
34.407311555
 20
4.961874479
 10
34.4150619146
 20
4.9806830129
 10
34.422217097
 20
5.0003856933
 10
34.4287729452
 20
5.0209931299
 10
34.4344957001
 20
5.0425214033
 10
34.4393868428
 20
5.0649672107
 10
34.4434448921
 20
5.088333855
 10
34.4464316459
 20
5.1126473248
 10
34.4483695898
 20
5.1379422203
 10
34.4492362381
 20
5.1641839413
 10
34.4487259321
 20
5.1912946761
 10
34.4469560375
 20
5.2193085409
 10
34.4438091885
 20
5.2481914195
 10
34.4386276294
 20
5.2777631509
 10
34.4314763541
 20
5.3081232575
 10
34.4222903686
 20
5.339172217
 10
34.4102169347
 20
5.3704313019
 10
34.3951479257
 20
5.4021108871
 10
34.3771914682
 20
5.4340005976
 10
34.3558192038
 20
5.4649905819
 10
34.3302169789
 20
5.4955247512
 10
34.3011989471
 20
5.5251591942
 10
34.2706792111
 20
5.5514523255
 10
34.2392958052
 20
5.5735902832
 10
34.2064106951
 20
5.5923869292
 10
34.1720238809
 20
5.6078422634
  0
LWPOLYLINE
  5
3E4
100
AcDbEntity
  8
ASSI
100
AcDbPolyline
 62
7
  6
CONTINUOUS
 90
40
 70
0
 10
34.2600464084
 20
4.777237783
 10
34.280422509
 20
4.7944886405
 10
34.2906992476
 20
4.8035033429
 10
34.3009851635
 20
4.8129653974
 10
34.3112999201
 20
4.8228177655
 10
34.3216238539
 20
4.8331174857
 10
34.3318653784
 20
4.8441178762
 10
34.3420371738
 20
4.8558423953
 10
34.3521265598
 20
4.8682675849
 10
34.3620039103
 20
4.8815763886
 10
34.3716813531
 20
4.8958174908
 10
34.3811467603
 20
4.9109422073
 10
34.3902341211
 20
4.9269874287
 10
34.3989618613
 20
4.9439707014
 10
34.407311555
 20
4.961874479
 10
34.4150619146
 20
4.9806830129
 10
34.422217097
 20
5.0003856933
 10
34.4287729452
 20
5.0209931299
 10
34.4344957001
 20
5.0425214033
 10
34.4393868428
 20
5.0649672107
 10
34.4434448921
 20
5.088333855
 10
34.4464316459
 20
5.1126473248
 10
34.4483695898
 20
5.1379422203
 10
34.4492362381
 20
5.1641839413
 10
34.4487259321
 20
5.1912946761
 10
34.4469560375
 20
5.2193085409
 10
34.4438091885
 20
5.2481914195
 10
34.4386276294
 20
5.2777631509
 10
34.4314763541
 20
5.3081232575
 10
34.4222903686
 20
5.339172217
 10
34.4102169347
 20
5.3704313019
 10
34.3951479257
 20
5.4021108871
 10
34.3771914682
 20
5.4340005976
 10
34.3558192038
 20
5.4649905819
 10
34.3302169789
 20
5.4955247512
 10
34.3011989471
 20
5.5251591942
 10
34.2706792111
 20
5.5514523255
 10
34.2392958052
 20
5.5735902832
 10
34.2064106951
 20
5.5923869292
 10
34.1720238809
 20
5.6078422634
  0
LINE
  5
3E5
100
AcDbEntity
  8
0
100
AcDbLine
 62
7
  6
CONTINUOUS
 10
34.2499470465
 20
4.7690016279
 11
34.2600464084
 21
4.777237783
  0
LINE
  5
3E6
100
AcDbEntity
  8
ASSI
100
AcDbLine
 62
7
  6
CONTINUOUS
 10
34.2499470465
 20
4.7690016279
 11
34.2600464084
 21
4.777237783
  0
LINE
  5
3E7
100
AcDbEntity
  8
RACCORDO
100
AcDbLine
 62
253
  6
CONTINUOUS
 10
24.9279162891
 20
1.0399848586
 11
24.9374220947
 21
1.0447373995
  0
LINE
  5
3E8
100
AcDbEntity
  8
ASSI
100
AcDbLine
 62
253
  6
CONTINUOUS
 10
24.9279162891
 20
1.0399848586
 11
24.9374220947
 21
1.0447373995
  0
LINE
  5
3E9
100
AcDbEntity
  8
SCRITTE
100
AcDbLine
 62
253
  6
CONTINUOUS
 10
43.6114058473
 20
1.315537096
 11
43.4364058473
 21
1.271787096
  0
LINE
  5
3EA
100
AcDbEntity
  8
RACCORDO
100
AcDbLine
 62
7
  6
CONTINUOUS
 10
58.6950033943
 20
1.3825279567
 11
58.6301558473
 21
1.378037096
  0
LINE
  5
3EB
100
AcDbEntity
  8
ASSI
100
AcDbLine
 62
7
  6
CONTINUOUS
 10
58.6950033943
 20
1.3825279567
 11
58.6301558473
 21
1.378037096
  0
LWPOLYLINE
  5
3EC
100
AcDbEntity
  8
RACCORDO
100
AcDbPolyline
 62
253
  6
CONTINUOUS
 90
19
 70
0
 10
44.9886879938
 20
0.0195087572
 10
44.9974236041
 20
0.0198925832
 10
45.0059923525
 20
0.0210126458
 10
45.0143942392
 20
0.0228689452
 10
45.022699177
 20
0.0254856827
 10
45.030837253
 20
0.0288386569
 10
45.0385987285
 20
0.0328552635
 10
45.0459693527
 20
0.0375539124
 10
45.0529633765
 20
0.0429161938
 10
45.0594138136
 20
0.0488142739
 10
45.0653040818
 20
0.0552589717
 10
45.0706507633
 20
0.0622394683
 10
45.0753366197
 20
0.0695954735
 10
45.0793468591
 20
0.0773399148
 10
45.0826962733
 20
0.0854598648
 10
45.0853119993
 20
0.0937562506
 10
45.0871697497
 20
0.1021627145
 10
45.088293812
 20
0.1107456141
 10
45.0886841861
 20
0.1195049495
  0
LWPOLYLINE
  5
3ED
100
AcDbEntity
  8
ASSI
100
AcDbPolyline
 62
253
  6
CONTINUOUS
 90
19
 70
0
 10
44.9886879938
 20
0.0195087572
 10
44.9974236041
 20
0.0198925832
 10
45.0059923525
 20
0.0210126458
 10
45.0143942392
 20
0.0228689452
 10
45.022699177
 20
0.0254856827
 10
45.030837253
 20
0.0288386569
 10
45.0385987285
 20
0.0328552635
 10
45.0459693527
 20
0.0375539124
 10
45.0529633765
 20
0.0429161938
 10
45.0594138136
 20
0.0488142739
 10
45.0653040818
 20
0.0552589717
 10
45.0706507633
 20
0.0622394683
 10
45.0753366197
 20
0.0695954735
 10
45.0793468591
 20
0.0773399148
 10
45.0826962733
 20
0.0854598648
 10
45.0853119993
 20
0.0937562506
 10
45.0871697497
 20
0.1021627145
 10
45.088293812
 20
0.1107456141
 10
45.0886841861
 20
0.1195049495
  0
LWPOLYLINE
  5
3EE
100
AcDbEntity
  8
RACCORDO
100
AcDbPolyline
 62
253
  6
CONTINUOUS
 90
19
 70
0
 10
44.9886879938
 20
-0.4804722043
 10
45.0409775828
 20
-0.4781859871
 10
45.0928691825
 20
-0.4713513534
 10
45.143967909
 20
-0.46002032
 10
45.1938849077
 20
-0.4442791254
 10
45.2422403253
 20
-0.424247559
 10
45.2886661981
 20
-0.4000780435
 10
45.3328092253
 20
-0.3719545066
 10
45.3743334906
 20
-0.3400909617
 10
45.4129230227
 20
-0.3047298514
 10
45.4482841881
 20
-0.2661402079
 10
45.4801478341
 20
-0.2246157291
 10
45.5082713967
 20
-0.1804725392
 10
45.532440847
 20
-0.1340466378
 10
45.5524723196
 20
-0.0856912732
 10
45.5682134207
 20
-0.0357743793
 10
45.579544375
 20
0.0153242018
 10
45.5863789522
 20
0.067215605
 10
45.5886651476
 20
0.1195049495
  0
LWPOLYLINE
  5
3EF
100
AcDbEntity
  8
ASSI
100
AcDbPolyline
 62
253
  6
CONTINUOUS
 90
19
 70
0
 10
44.9886879938
 20
-0.4804722043
 10
45.0409775828
 20
-0.4781859871
 10
45.0928691825
 20
-0.4713513534
 10
45.143967909
 20
-0.46002032
 10
45.1938849077
 20
-0.4442791254
 10
45.2422403253
 20
-0.424247559
 10
45.2886661981
 20
-0.4000780435
 10
45.3328092253
 20
-0.3719545066
 10
45.3743334906
 20
-0.3400909617
 10
45.4129230227
 20
-0.3047298514
 10
45.4482841881
 20
-0.2661402079
 10
45.4801478341
 20
-0.2246157291
 10
45.5082713967
 20
-0.1804725392
 10
45.532440847
 20
-0.1340466378
 10
45.5524723196
 20
-0.0856912732
 10
45.5682134207
 20
-0.0357743793
 10
45.579544375
 20
0.0153242018
 10
45.5863789522
 20
0.067215605
 10
45.5886651476
 20
0.1195049495
  0
LWPOLYLINE
  5
3F0
100
AcDbEntity
  8
RACCORDO
100
AcDbPolyline
 62
7
  6
CONTINUOUS
 90
4
 70
0
 10
44.6930843699
 20
-0.520502799
 10
44.7070822656
 20
-0.520210371
 10
44.7170147787
 20
-0.5199004456
 10
44.7228819092
 20
-0.5195730226
  0
LWPOLYLINE
  5
3F1
100
AcDbEntity
  8
ASSI
100
AcDbPolyline
 62
7
  6
CONTINUOUS
 90
4
 70
0
 10
44.6930843699
 20
-0.520502799
 10
44.7070822656
 20
-0.520210371
 10
44.7170147787
 20
-0.5199004456
 10
44.7228819092
 20
-0.5195730226
  0
LINE
  5
3F2
100
AcDbEntity
  8
RACCORDO
100
AcDbLine
 62
7
  6
CONTINUOUS
 10
44.6522236128
 20
-0.5210429411
 11
44.6930843699
 21
-0.520502799
  0
LINE
  5
3F3
100
AcDbEntity
  8
ASSI
100
AcDbLine
 62
7
  6
CONTINUOUS
 10
44.6522236128
 20
-0.5210429411
 11
44.6930843699
 21
-0.520502799
  0
LINE
  5
3F4
100
AcDbEntity
  8
RACCORDO
100
AcDbLine
 62
7
  6
CONTINUOUS
 10
58.6964580005
 20
0.328428017
 11
58.6676412477
 21
0.3281429295
  0
LINE
  5
3F5
100
AcDbEntity
  8
RACCORDO
100
AcDbLine
 62
7
  6
CONTINUOUS
 10
44.5661839693
 20
-0.5216492679
 11
44.6522236128
 21
-0.5210429411
  0
LINE
  5
3F6
100
AcDbEntity
  8
ASSI
100
AcDbLine
 62
7
  6
CONTINUOUS
 10
44.5661839693
 20
-0.5216492679
 11
44.6522236128
 21
-0.5210429411
  0
LINE
  5
3F7
100
AcDbEntity
  8
RACCORDO
100
AcDbLine
 62
7
  6
CONTINUOUS
 10
58.6676412477
 20
0.3281429295
 11
58.6335892106
 21
0.328037096
  0
LINE
  5
3F8
100
AcDbEntity
  8
RACCORDO
100
AcDbLine
 62
7
  6
CONTINUOUS
 10
44.8301558473
 20
-0.5743440582
 11
45.0829025053
 21
-0.5743440582
  0
LINE
  5
3F9
100
AcDbEntity
  8
DRAFT
100
AcDbLine
 62
7
  6
CONTINUOUS
 10
44.7777746931
 20
-0.521962904
 11
37.3825370016
 21
-0.521962904
  0
LINE
  5
3FA
100
AcDbEntity
  8
DRAFT
100
AcDbLine
 62
7
  6
CONTINUOUS
 10
37.2301558473
 20
-0.521962904
 11
34.0301558473
 21
-0.521962904
  0
LINE
  5
3FB
100
AcDbEntity
  8
RACCORDO
100
AcDbLine
 62
7
  6
CONTINUOUS
 10
25.6297903435
 20
-0.521962904
 11
34.0301558473
 21
-0.521962904
  0
LINE
  5
3FC
100
AcDbEntity
  8
RACCORDO
100
AcDbLine
 62
7
  6
CONTINUOUS
 10
37.2301558473
 20
-0.521962904
 11
44.5661839693
 21
-0.5216492679
  0
LINE
  5
3FD
100
AcDbEntity
  8
ASSI
100
AcDbLine
 62
7
  6
CONTINUOUS
 10
26.2801501358
 20
-0.521962904
 11
44.5661839693
 21
-0.5216492679
  0
LINE
  5
3FE
100
AcDbEntity
  8
RACCORDO
100
AcDbLine
 62
7
  6
CONTINUOUS
 10
45.0170883918
 20
-0.5088726023
 11
44.8301558473
 21
-0.5088726023
  0
LINE
  5
3FF
100
AcDbEntity
  8
ASSI
100
AcDbLine
 62
7
  6
CONTINUOUS
 10
45.0170883918
 20
-0.5088726023
 11
44.8301558473
 21
-0.5088726023
  0
LINE
  5
400
100
AcDbEntity
  8
RACCORDO
100
AcDbLine
 62
7
  6
CONTINUOUS
 10
26.1301558473
 20
-0.491962904
 11
25.6600644644
 21
-0.491962904
  0
LINE
  5
401
100
AcDbEntity
  8
RACCORDO
100
AcDbLine
 62
7
  6
CONTINUOUS
 10
26.3216408354
 20
-0.4804722043
 11
44.9886879938
 21
-0.4804722043
  0
LINE
  5
402
100
AcDbEntity
  8
ASSI
100
AcDbLine
 62
7
  6
CONTINUOUS
 10
26.3216408354
 20
-0.4804722043
 11
44.9886879938
 21
-0.4804722043
  0
LINE
  5
403
100
AcDbEntity
  8
RACCORDO
100
AcDbLine
 62
253
  6
CONTINUOUS
 10
25.7405405428
 20
-0.4114868256
 11
26.0899208726
 21
-0.4114868256
  0
LINE
  5
404
100
AcDbEntity
  8
RACCORDO
100
AcDbLine
 62
253
  6
CONTINUOUS
 10
26.1746742963
 20
0.0195087572
 11
44.9886879938
 21
0.0195087572
  0
LINE
  5
405
100
AcDbEntity
  8
ASSI
100
AcDbLine
 62
253
  6
CONTINUOUS
 10
26.1746742963
 20
0.0195087572
 11
44.9886879938
 21
0.0195087572
  0
LINE
  5
406
100
AcDbEntity
  8
RACCORDO
100
AcDbLine
 62
253
  6
CONTINUOUS
 10
45.0886841861
 20
0.1195049495
 11
45.5886651476
 21
0.1195049495
  0
LINE
  5
407
100
AcDbEntity
  8
ASSI
100
AcDbLine
 62
253
  6
CONTINUOUS
 10
45.0886841861
 20
0.1195049495
 11
45.5886651476
 21
0.1195049495
  0
LINE
  5
408
100
AcDbEntity
  8
RACCORDO
100
AcDbLine
 62
253
  6
CONTINUOUS
 10
25.1406319257
 20
0.1884217915
 11
26.0847761348
 21
0.1884217915
  0
LINE
  5
409
100
AcDbEntity
  8
DRAFT
100
AcDbLine
 62
7
  6
CONTINUOUS
 10
26.9266648343
 20
0.2745460831
 11
44.8336468603
 21
0.2745460831
  0
LINE
  5
40A
100
AcDbEntity
  8
ASSI
100
AcDbLine
 62
7
  6
CONTINUOUS
 10
26.9266648343
 20
0.2745460831
 11
44.8336468603
 21
0.2745460831
  0
LINE
  5
40B
100
AcDbEntity
  8
DRAFT
100
AcDbLine
 62
7
  6
CONTINUOUS
 10
26.9301558473
 20
0.278037096
 11
44.8301558473
 21
0.278037096
  0
LINE
  5
40C
100
AcDbEntity
  8
ASSI
100
AcDbLine
 62
7
  6
CONTINUOUS
 10
26.9301558473
 20
0.278037096
 11
44.8301558473
 21
0.278037096
  0
LINE
  5
40D
100
AcDbEntity
  8
RACCORDO
100
AcDbLine
 62
7
  6
CONTINUOUS
 10
59.6301710778
 20
0.328037096
 11
45.6825370016
 21
0.328037096
  0
LINE
  5
40E
100
AcDbEntity
  8
DRAFT
100
AcDbLine
 62
7
  6
CONTINUOUS
 10
58.6301558473
 20
0.328037096
 11
45.6170655456
 21
0.328037096
  0
LINE
  5
40F
100
AcDbEntity
  8
ASSI
100
AcDbLine
 62
7
  6
CONTINUOUS
 10
58.6301558473
 20
0.328037096
 11
45.6170655456
 21
0.328037096
  0
LINE
  5
410
100
AcDbEntity
  8
RACCORDO
100
AcDbLine
 62
253
  6
CONTINUOUS
 10
45.612778963
 20
0.3366109143
 11
58.6215820291
 21
0.3366109143
  0
LINE
  5
411
100
AcDbEntity
  8
ASSI
100
AcDbLine
 62
253
  6
CONTINUOUS
 10
45.612778963
 20
0.3366109143
 11
58.6215820291
 21
0.3366109143
  0
LINE
  5
412
100
AcDbEntity
  8
RACCORDO
100
AcDbLine
 62
253
  6
CONTINUOUS
 10
58.7491918421
 20
0.3375521935
 11
59.620655852
 21
0.3375523219
  0
LINE
  5
413
100
AcDbEntity
  8
RACCORDO
100
AcDbLine
 62
253
  6
CONTINUOUS
 10
58.7527098244
 20
0.349606438
 11
59.6192490746
 21
0.349608365
  0
LINE
  5
414
100
AcDbEntity
  8
RACCORDO
100
AcDbLine
 62
253
  6
CONTINUOUS
 10
45.6108111254
 20
0.3664183599
 11
58.6176460541
 21
0.3664183599
  0
LINE
  5
415
100
AcDbEntity
  8
ASSI
100
AcDbLine
 62
253
  6
CONTINUOUS
 10
45.6108111254
 20
0.3664183599
 11
58.6176460541
 21
0.3664183599
  0
LINE
  5
416
100
AcDbEntity
  8
CURVE
100
AcDbLine
 62
253
  6
CONTINUOUS
 10
39.4301558712
 20
0.528037096
 11
38.9301557758
 21
0.528037096
  0
LINE
  5
417
100
AcDbEntity
  8
SCRITTE
100
AcDbLine
 62
253
  6
CONTINUOUS
 10
34.2301560381
 20
0.528037096
 11
33.5301560381
 21
0.528037096
  0
LINE
  5
418
100
AcDbEntity
  8
SCRITTE
100
AcDbLine
 62
253
  6
CONTINUOUS
 10
33.130155895
 20
0.528037096
 11
32.430155895
 21
0.528037096
  0
LINE
  5
419
100
AcDbEntity
  8
CURVE
100
AcDbLine
 62
253
  6
CONTINUOUS
 10
37.3301558503
 20
0.528037096
 11
37.4301558652
 21
0.528037096
  0
LINE
  5
41A
100
AcDbEntity
  8
SCRITTE
100
AcDbLine
 62
253
  6
CONTINUOUS
 10
43.4801558473
 20
0.528037096
 11
43.6114058473
 21
0.528037096
  0
LINE
  5
41B
100
AcDbEntity
  8
CURVE
100
AcDbLine
 62
253
  6
CONTINUOUS
 10
38.3634891846
 20
0.5947037639
 11
38.3968224742
 21
0.5947037639
  0
LINE
  5
41C
100
AcDbEntity
  8
DRAFT
100
AcDbLine
 62
7
  6
CONTINUOUS
 10
25.0301558473
 20
0.6470176478
 11
25.0601558473
 21
0.6470176478
  0
LINE
  5
41D
100
AcDbEntity
  8
RACCORDO
100
AcDbLine
 62
253
  6
CONTINUOUS
 10
24.9374220947
 20
5.4113367926
 11
24.9279162891
 21
5.4160893335
  0
LINE
  5
41E
100
AcDbEntity
  8
ASSI
100
AcDbLine
 62
253
  6
CONTINUOUS
 10
24.9374220947
 20
5.4113367926
 11
24.9279162891
 21
5.4160893335
  0
LINE
  5
41F
100
AcDbEntity
  8
CURVE
100
AcDbLine
 62
253
  6
CONTINUOUS
 10
31.8301558473
 20
3.628037096
 11
32.0301557519
 21
3.428037108
  0
LINE
  5
420
100
AcDbEntity
  8
CURVE
100
AcDbLine
 62
253
  6
CONTINUOUS
 10
32.8301557043
 20
3.0280371318
 11
33.0301559427
 21
2.828037102
  0
LINE
  5
421
100
AcDbEntity
  8
CURVE
100
AcDbLine
 62
253
  6
CONTINUOUS
 10
33.5301560381
 20
2.428037105
 11
33.7301559427
 21
2.228037096
  0
LINE
  5
422
100
AcDbEntity
  8
CURVE
100
AcDbLine
 62
253
  6
CONTINUOUS
 10
33.4301557519
 20
2.6280371139
 11
33.5301560381
 21
2.428037105
  0
LINE
  5
423
100
AcDbEntity
  8
CURVE
100
AcDbLine
 62
253
  6
CONTINUOUS
 10
34.1301557519
 20
3.2280371199
 11
34.0301561334
 21
3.428037108
  0
LWPOLYLINE
  5
424
100
AcDbEntity
  8
0
100
AcDbPolyline
 62
7
  6
CONTINUOUS
 90
6
 70
0
 10
34.037975479
 20
4.4611905007
 10
34.0562721822
 20
4.4074979473
 10
34.0741121195
 20
4.3528393407
 10
34.091495291
 20
4.2972146807
 10
34.1081649993
 20
4.2405292709
 10
34.14090421
 20
4.1245443809
  0
LWPOLYLINE
  5
425
100
AcDbEntity
  8
ASSI
100
AcDbPolyline
 62
7
  6
CONTINUOUS
 90
6
 70
0
 10
34.037975479
 20
4.4611905007
 10
34.0562721822
 20
4.4074979473
 10
34.0741121195
 20
4.3528393407
 10
34.091495291
 20
4.2972146807
 10
34.1081649993
 20
4.2405292709
 10
34.14090421
 20
4.1245443809
  0
LINE
  5
426
100
AcDbEntity
  8
0
100
AcDbLine
 62
7
  6
CONTINUOUS
 10
33.1921678473
 20
3.945736096
 11
32.6706078473
 21
5.645599096
  0
LINE
  5
427
100
AcDbEntity
  8
ASSI
100
AcDbLine
 62
7
  6
CONTINUOUS
 10
33.1921678473
 20
3.945736096
 11
32.6706078473
 21
5.645599096
  0
LINE
  5
428
100
AcDbEntity
  8
0
100
AcDbLine
 62
7
  6
CONTINUOUS
 10
34.14090421
 20
4.1245443809
 11
34.1931330624
 21
3.9457364093
  0
LINE
  5
429
100
AcDbEntity
  8
ASSI
100
AcDbLine
 62
7
  6
CONTINUOUS
 10
34.14090421
 20
4.1245443809
 11
34.1931330624
 21
3.9457364093
  0
LINE
  5
42A
100
AcDbEntity
  8
SCRITTE
100
AcDbLine
 62
253
  6
CONTINUOUS
 10
34.6634888628
 20
6.9710556018
 11
34.6634888628
 21
6.9588379869
  0
LINE
  5
42B
100
AcDbEntity
  8
SCRITTE
100
AcDbLine
 62
253
  6
CONTINUOUS
 10
35.2968224504
 20
6.9710556018
 11
35.2968224504
 21
6.9588379869
  0
LINE
  5
42C
100
AcDbEntity
  8
CURVE
100
AcDbLine
 62
253
  6
CONTINUOUS
 10
35.6301558473
 20
5.199465693
 11
35.6301558473
 21
4.5566085438
  0
LINE
  5
42D
100
AcDbEntity
  8
SCRITTE
100
AcDbLine
 62
253
  6
CONTINUOUS
 10
35.9968224504
 20
6.9710556018
 11
35.9968224504
 21
6.9588379869
  0
LINE
  5
42E
100
AcDbEntity
  8
CURVE
100
AcDbLine
 62
253
  6
CONTINUOUS
 10
35.3301558473
 20
3.628037096
 11
34.9301560381
 21
2.228037096
  0
LINE
  5
42F
100
AcDbEntity
  8
CURVE
100
AcDbLine
 62
253
  6
CONTINUOUS
 10
34.0301561334
 20
2.428037105
 11
34.1301557519
 21
2.6280371139
  0
LINE
  5
430
100
AcDbEntity
  8
CURVE
100
AcDbLine
 62
253
  6
CONTINUOUS
 10
35.7372987092
 20
5.4137513945
 11
35.6301558473
 21
5.199465693
  0
LINE
  5
431
100
AcDbEntity
  8
SCRITTE
100
AcDbLine
 62
253
  6
CONTINUOUS
 10
33.5301560381
 20
0.528037096
 11
34.2301560381
 21
1.928037096
  0
LINE
  5
432
100
AcDbEntity
  8
CURVE
100
AcDbLine
 62
253
  6
CONTINUOUS
 10
36.2730129966
 20
4.3423228199
 11
36.3801558473
 21
4.5566085438
  0
LINE
  5
433
100
AcDbEntity
  8
CURVE
100
AcDbLine
 62
253
  6
CONTINUOUS
 10
36.9158701458
 20
5.4137513945
 11
36.8087272503
 21
5.199465693
  0
LINE
  5
434
100
AcDbEntity
  8
CURVE
100
AcDbLine
 62
253
  6
CONTINUOUS
 10
33.7301559427
 20
3.628037096
 11
33.5301560381
 21
3.428037108
  0
LINE
  5
435
100
AcDbEntity
  8
CURVE
100
AcDbLine
 62
253
  6
CONTINUOUS
 10
35.9515844219
 20
5.628037096
 11
35.7372987092
 21
5.4137513945
  0
LINE
  5
436
100
AcDbEntity
  8
CURVE
100
AcDbLine
 62
253
  6
CONTINUOUS
 10
33.0301559427
 20
2.428037105
 11
32.8301557043
 21
2.228037096
  0
LINE
  5
437
100
AcDbEntity
  8
CURVE
100
AcDbLine
 62
253
  6
CONTINUOUS
 10
37.1301558473
 20
5.628037096
 11
36.9158701458
 21
5.4137513945
  0
LINE
  5
438
100
AcDbEntity
  8
CURVE
100
AcDbLine
 62
253
  6
CONTINUOUS
 10
33.8301555612
 20
2.228037096
 11
34.0301561334
 21
2.428037105
  0
LINE
  5
439
100
AcDbEntity
  8
CURVE
100
AcDbLine
 62
253
  6
CONTINUOUS
 10
36.058727295
 20
4.128037096
 11
36.2730129966
 21
4.3423228199
  0
LWPOLYLINE
  5
43A
100
AcDbEntity
  8
0
100
AcDbPolyline
 62
7
  6
CONTINUOUS
 90
5
 70
0
 10
34.2086080301
 20
4.7492619948
 10
34.2190757813
 20
4.752274055
 10
34.229461733
 20
4.7565197639
 10
34.2397658851
 20
4.7619991216
 10
34.2499470465
 20
4.7690016279
  0
LWPOLYLINE
  5
43B
100
AcDbEntity
  8
ASSI
100
AcDbPolyline
 62
7
  6
CONTINUOUS
 90
5
 70
0
 10
34.2086080301
 20
4.7492619948
 10
34.2190757813
 20
4.752274055
 10
34.229461733
 20
4.7565197639
 10
34.2397658851
 20
4.7619991216
 10
34.2499470465
 20
4.7690016279
  0
LINE
  5
43C
100
AcDbEntity
  8
RACCORDO
100
AcDbLine
 62
7
  6
CONTINUOUS
 10
26.1094048691
 20
0.8451895707
 11
26.1473256653
 21
0.845206914
  0
LINE
  5
43D
100
AcDbEntity
  8
ASSI
100
AcDbLine
 62
7
  6
CONTINUOUS
 10
26.1094048691
 20
0.8451895707
 11
26.1473256653
 21
0.845206914
  0
LINE
  5
43E
100
AcDbEntity
  8
RACCORDO
100
AcDbLine
 62
253
  6
CONTINUOUS
 10
26.1083386778
 20
1.3451820127
 11
26.1516589915
 21
1.3452018255
  0
LINE
  5
43F
100
AcDbEntity
  8
ASSI
100
AcDbLine
 62
253
  6
CONTINUOUS
 10
26.1083386778
 20
1.3451820127
 11
26.1516589915
 21
1.3452018255
  0
LINE
  5
440
100
AcDbEntity
  8
CURVE
100
AcDbLine
 62
253
  6
CONTINUOUS
 10
38.4301558473
 20
0.7613704363
 11
38.3968224742
 21
0.7613704363
  0
LINE
  5
441
100
AcDbEntity
  8
DRAFT
100
AcDbLine
 62
7
  6
CONTINUOUS
 10
26.1301558473
 20
0.828037096
 11
26.10959794
 21
0.828037096
  0
LINE
  5
442
100
AcDbEntity
  8
ASSI
100
AcDbLine
 62
7
  6
CONTINUOUS
 10
26.1301558473
 20
0.828037096
 11
26.10959794
 21
0.828037096
  0
LINE
  5
443
100
AcDbEntity
  8
DRAFT
100
AcDbLine
 62
7
  6
CONTINUOUS
 10
25.1012747881
 20
0.828037096
 11
23.1301558473
 21
0.828037096
  0
LINE
  5
444
100
AcDbEntity
  8
ASSI
100
AcDbLine
 62
7
  6
CONTINUOUS
 10
25.1012747881
 20
0.828037096
 11
23.1301558473
 21
0.828037096
  0
LINE
  5
445
100
AcDbEntity
  8
RACCORDO
100
AcDbLine
 62
7
  6
CONTINUOUS
 10
23.1392117459
 20
0.8370929946
 11
25.101495357
 21
0.8370929946
  0
LINE
  5
446
100
AcDbEntity
  8
ASSI
100
AcDbLine
 62
7
  6
CONTINUOUS
 10
23.1392117459
 20
0.8370929946
 11
25.101495357
 21
0.8370929946
  0
LINE
  5
447
100
AcDbEntity
  8
RACCORDO
100
AcDbLine
 62
253
  6
CONTINUOUS
 10
23.1401140301
 20
0.8669494197
 11
25.0202316166
 21
0.8669494197
  0
LINE
  5
448
100
AcDbEntity
  8
ASSI
100
AcDbLine
 62
253
  6
CONTINUOUS
 10
23.1401140301
 20
0.8669494197
 11
25.0202316166
 21
0.8669494197
  0
LINE
  5
449
100
AcDbEntity
  8
SCRITTE
100
AcDbLine
 62
253
  6
CONTINUOUS
 10
43.5676558473
 20
1.315537096
 11
43.6114058473
 21
1.315537096
  0
LINE
  5
44A
100
AcDbEntity
  8
CURVE
100
AcDbLine
 62
253
  6
CONTINUOUS
 10
39.1301558473
 20
1.3280371318
 11
39.3301559188
 21
1.3280371318
  0
LINE
  5
44B
100
AcDbEntity
  8
RACCORDO
100
AcDbLine
 62
253
  6
CONTINUOUS
 10
58.5905462769
 20
1.3430724502
 11
45.5972622687
 21
1.3430724502
  0
LINE
  5
44C
100
AcDbEntity
  8
ASSI
100
AcDbLine
 62
253
  6
CONTINUOUS
 10
58.5905462769
 20
1.3430724502
 11
45.5972622687
 21
1.3430724502
  0
LINE
  5
44D
100
AcDbEntity
  8
RACCORDO
100
AcDbLine
 62
253
  6
CONTINUOUS
 10
24.9426248633
 20
1.3447355367
 11
25.1037935096
 21
1.3447355381
  0
LINE
  5
44E
100
AcDbEntity
  8
ASSI
100
AcDbLine
 62
253
  6
CONTINUOUS
 10
24.9426248633
 20
1.3447355367
 11
25.1037935096
 21
1.3447355381
  0
LINE
  5
44F
100
AcDbEntity
  8
0
100
AcDbLine
 62
7
  6
CONTINUOUS
 10
23.1397649339
 20
1.478037096
 11
15.2118135216
 21
1.478037096
  0
LINE
  5
450
100
AcDbEntity
  8
DRAFT
100
AcDbLine
 62
7
  6
CONTINUOUS
 10
26.145312075
 20
1.5239049294
 11
26.1083386778
 21
1.5239049294
  0
LINE
  5
451
100
AcDbEntity
  8
ASSI
100
AcDbLine
 62
7
  6
CONTINUOUS
 10
26.145312075
 20
1.5239049294
 11
26.1083386778
 21
1.5239049294
  0
LINE
  5
452
100
AcDbEntity
  8
DRAFT
100
AcDbLine
 62
7
  6
CONTINUOUS
 10
25.1037935096
 20
1.5239049294
 11
24.934288014
 21
1.5239049294
  0
LINE
  5
453
100
AcDbEntity
  8
ASSI
100
AcDbLine
 62
7
  6
CONTINUOUS
 10
25.1037935096
 20
1.5239049294
 11
24.934288014
 21
1.5239049294
  0
LINE
  5
454
100
AcDbEntity
  8
RACCORDO
100
AcDbLine
 62
253
  6
CONTINUOUS
 10
59.54479624
 20
1.6109207461
 11
59.203363553
 21
1.6109207461
  0
LINE
  5
455
100
AcDbEntity
  8
RACCORDO
100
AcDbLine
 62
253
  6
CONTINUOUS
 10
59.4899787324
 20
1.7205557529
 11
59.3129985598
 21
1.7205557529
  0
LINE
  5
456
100
AcDbEntity
  8
SCRITTE
100
AcDbLine
 62
253
  6
CONTINUOUS
 10
43.6114058473
 20
1.840537096
 11
43.5239058473
 21
1.840537096
  0
LINE
  5
457
100
AcDbEntity
  8
RACCORDO
100
AcDbLine
 62
253
  6
CONTINUOUS
 10
58.7781522893
 20
1.9176282742
 11
58.6073615861
 21
1.9176282742
  0
LINE
  5
458
100
AcDbEntity
  8
ASSI
100
AcDbLine
 62
253
  6
CONTINUOUS
 10
58.7781522893
 20
1.9176282742
 11
58.6073615861
 21
1.9176282742
  0
LINE
  5
459
100
AcDbEntity
  8
CURVE
100
AcDbLine
 62
253
  6
CONTINUOUS
 10
37.4301558652
 20
1.928037096
 11
37.3301558503
 21
1.928037096
  0
LINE
  5
45A
100
AcDbEntity
  8
SCRITTE
100
AcDbLine
 62
253
  6
CONTINUOUS
 10
34.2301560381
 20
1.928037096
 11
33.5301560381
 21
1.928037096
  0
LINE
  5
45B
100
AcDbEntity
  8
SCRITTE
100
AcDbLine
 62
253
  6
CONTINUOUS
 10
33.130155895
 20
1.928037096
 11
32.430155895
 21
1.928037096
  0
LINE
  5
45C
100
AcDbEntity
  8
CURVE
100
AcDbLine
 62
253
  6
CONTINUOUS
 10
38.9301557758
 20
1.928037096
 11
39.3301559188
 21
1.928037096
  0
LINE
  5
45D
100
AcDbEntity
  8
RACCORDO
100
AcDbLine
 62
253
  6
CONTINUOUS
 10
58.586518185
 20
1.9820435166
 11
45.5952483762
 21
1.9820435166
  0
LINE
  5
45E
100
AcDbEntity
  8
ASSI
100
AcDbLine
 62
253
  6
CONTINUOUS
 10
58.586518185
 20
1.9820435166
 11
45.5952483762
 21
1.9820435166
  0
LINE
  5
45F
100
AcDbEntity
  8
RACCORDO
100
AcDbLine
 62
7
  6
CONTINUOUS
 10
26.1516589915
 20
1.5112101295
 11
26.1083386778
 21
1.5112497581
  0
LINE
  5
460
100
AcDbEntity
  8
ASSI
100
AcDbLine
 62
7
  6
CONTINUOUS
 10
26.1516589915
 20
1.5112101295
 11
26.1083386778
 21
1.5112497581
  0
LINE
  5
461
100
AcDbEntity
  8
RACCORDO
100
AcDbLine
 62
7
  6
CONTINUOUS
 10
25.0596610025
 20
1.5124522783
 11
25.1037935096
 21
1.5122091967
  0
LINE
  5
462
100
AcDbEntity
  8
ASSI
100
AcDbLine
 62
7
  6
CONTINUOUS
 10
25.0596610025
 20
1.5124522783
 11
25.1037935096
 21
1.5122091967
  0
LINE
  5
463
100
AcDbEntity
  8
CURVE
100
AcDbLine
 62
253
  6
CONTINUOUS
 10
36.2301557519
 20
2.5613704304
 11
35.963489435
 21
2.7613704393
  0
LINE
  5
464
100
AcDbEntity
  8
CURVE
100
AcDbLine
 62
253
  6
CONTINUOUS
 10
34.0301561334
 20
3.428037108
 11
33.8301555612
 21
3.628037096
  0
LINE
  5
465
100
AcDbEntity
  8
CURVE
100
AcDbLine
 62
253
  6
CONTINUOUS
 10
37.1301558518
 20
0.728037105
 11
37.3301558503
 21
0.528037096
  0
LINE
  5
466
100
AcDbEntity
  8
CURVE
100
AcDbLine
 62
253
  6
CONTINUOUS
 10
38.3301558116
 20
0.6280371005
 11
38.3634891846
 21
0.5947037639
  0
LINE
  5
467
100
AcDbEntity
  8
CURVE
100
AcDbLine
 62
253
  6
CONTINUOUS
 10
37.0301558473
 20
0.9280371139
 11
37.1301558518
 21
0.728037105
  0
LINE
  5
468
100
AcDbEntity
  8
CURVE
100
AcDbLine
 62
253
  6
CONTINUOUS
 10
34.9301560381
 20
2.228037096
 11
34.5301555612
 21
3.628037096
  0
LINE
  5
469
100
AcDbEntity
  8
0
100
AcDbLine
 62
7
  6
CONTINUOUS
 10
34.4546144434
 20
4.2503529235
 11
34.4131350943
 21
4.4058171403
  0
LINE
  5
46A
100
AcDbEntity
  8
ASSI
100
AcDbLine
 62
7
  6
CONTINUOUS
 10
34.4546144434
 20
4.2503529235
 11
34.4131350943
 21
4.4058171403
  0
LINE
  5
46B
100
AcDbEntity
  8
0
100
AcDbLine
 62
7
  6
CONTINUOUS
 10
34.5344364058
 20
3.9457364093
 11
34.4546144434
 21
4.2503529235
  0
LINE
  5
46C
100
AcDbEntity
  8
ASSI
100
AcDbLine
 62
7
  6
CONTINUOUS
 10
34.5344364058
 20
3.9457364093
 11
34.4546144434
 21
4.2503529235
  0
LWPOLYLINE
  5
46D
100
AcDbEntity
  8
0
100
AcDbPolyline
 62
7
  6
CONTINUOUS
 90
13
 70
0
 10
34.4131350943
 20
4.4058171403
 10
34.4037633727
 20
4.4436297241
 10
34.3929865222
 20
4.4803881118
 10
34.3808045428
 20
4.5160923033
 10
34.3672466255
 20
4.5512734169
 10
34.3522835794
 20
4.5854003344
 10
34.3358278311
 20
4.6168797014
 10
34.3177377238
 20
4.6454675608
 10
34.2981549144
 20
4.6714078699
 10
34.2774168005
 20
4.6938391453
 10
34.2556358481
 20
4.7124742263
 10
34.2326995913
 20
4.7276002737
 10
34.2086080301
 20
4.7392172876
  0
LWPOLYLINE
  5
46E
100
AcDbEntity
  8
ASSI
100
AcDbPolyline
 62
7
  6
CONTINUOUS
 90
13
 70
0
 10
34.4131350943
 20
4.4058171403
 10
34.4037633727
 20
4.4436297241
 10
34.3929865222
 20
4.4803881118
 10
34.3808045428
 20
4.5160923033
 10
34.3672466255
 20
4.5512734169
 10
34.3522835794
 20
4.5854003344
 10
34.3358278311
 20
4.6168797014
 10
34.3177377238
 20
4.6454675608
 10
34.2981549144
 20
4.6714078699
 10
34.2774168005
 20
4.6938391453
 10
34.2556358481
 20
4.7124742263
 10
34.2326995913
 20
4.7276002737
 10
34.2086080301
 20
4.7392172876
  0
LINE
  5
46F
100
AcDbEntity
  8
CURVE
100
AcDbLine
 62
253
  6
CONTINUOUS
 10
36.3801558473
 20
4.5566085438
 11
36.3801558473
 21
5.199465693
  0
LINE
  5
470
100
AcDbEntity
  8
CURVE
100
AcDbLine
 62
253
  6
CONTINUOUS
 10
36.8087272503
 20
5.199465693
 11
36.8087272503
 21
4.5566085438
  0
LINE
  5
471
100
AcDbEntity
  8
CURVE
100
AcDbLine
 62
253
  6
CONTINUOUS
 10
37.0301558473
 20
1.5280371199
 11
37.0301558473
 21
0.9280371139
  0
LINE
  5
472
100
AcDbEntity
  8
SCRITTE
100
AcDbLine
 62
253
  6
CONTINUOUS
 10
37.4968227365
 20
6.9693102284
 11
37.4968227365
 21
6.9605833605
  0
LINE
  5
473
100
AcDbEntity
  8
CURVE
100
AcDbLine
 62
253
  6
CONTINUOUS
 10
37.5587272503
 20
4.5566085438
 11
37.5587272503
 21
5.199465693
  0
LINE
  5
474
100
AcDbEntity
  8
CURVE
100
AcDbLine
 62
253
  6
CONTINUOUS
 10
37.4515844443
 20
4.3423228199
 11
37.5587272503
 21
4.5566085438
  0
LINE
  5
475
100
AcDbEntity
  8
CURVE
100
AcDbLine
 62
253
  6
CONTINUOUS
 10
37.9872986534
 20
5.4137513945
 11
38.2015844443
 21
5.628037096
  0
LINE
  5
476
100
AcDbEntity
  8
CURVE
100
AcDbLine
 62
253
  6
CONTINUOUS
 10
37.2372986534
 20
4.128037096
 11
37.4515844443
 21
4.3423228199
  0
LINE
  5
477
100
AcDbEntity
  8
CURVE
100
AcDbLine
 62
253
  6
CONTINUOUS
 10
38.6301558473
 20
4.5566085438
 11
38.2015844443
 21
4.128037096
  0
LINE
  5
478
100
AcDbEntity
  8
CURVE
100
AcDbLine
 62
253
  6
CONTINUOUS
 10
39.7730129221
 20
5.0923227976
 11
39.5944414594
 21
4.9851799915
  0
LINE
  5
479
100
AcDbEntity
  8
CURVE
100
AcDbLine
 62
253
  6
CONTINUOUS
 10
35.963489435
 20
2.7613704393
 11
35.7301556566
 21
2.6613704453
  0
LINE
  5
47A
100
AcDbEntity
  8
CURVE
100
AcDbLine
 62
253
  6
CONTINUOUS
 10
32.8301557043
 20
2.228037096
 11
32.430155895
 21
2.228037096
  0
LINE
  5
47B
100
AcDbEntity
  8
CURVE
100
AcDbLine
 62
253
  6
CONTINUOUS
 10
29.5301557758
 20
2.228037096
 11
29.630155895
 21
2.228037096
  0
LINE
  5
47C
100
AcDbEntity
  8
CURVE
100
AcDbLine
 62
253
  6
CONTINUOUS
 10
31.3301557519
 20
2.228037096
 11
32.0301557519
 21
2.228037096
  0
LINE
  5
47D
100
AcDbEntity
  8
CURVE
100
AcDbLine
 62
253
  6
CONTINUOUS
 10
33.7301559427
 20
2.228037096
 11
33.8301555612
 21
2.228037096
  0
LINE
  5
47E
100
AcDbEntity
  8
RACCORDO
100
AcDbLine
 62
253
  6
CONTINUOUS
 10
58.7895211555
 20
2.6259573671
 11
58.6022277434
 21
2.6259573671
  0
LINE
  5
47F
100
AcDbEntity
  8
ASSI
100
AcDbLine
 62
253
  6
CONTINUOUS
 10
58.7895211555
 20
2.6259573671
 11
58.6022277434
 21
2.6259573671
  0
LINE
  5
480
100
AcDbEntity
  8
CURVE
100
AcDbLine
 62
253
  6
CONTINUOUS
 10
30.9301559427
 20
2.728037108
 11
30.330155895
 21
2.728037108
  0
LINE
  5
481
100
AcDbEntity
  8
ASSI
100
AcDbLine
 62
7
  6
CONTINUOUS
 10
50.9301558473
 20
2.728037096
 11
51.9884563717
 21
2.728037096
  0
LINE
  5
482
100
AcDbEntity
  8
0
100
AcDbLine
 62
7
  6
CONTINUOUS
 10
23.1397652844
 20
2.978037096
 11
15.2118135216
 21
2.978037096
  0
LINE
  5
483
100
AcDbEntity
  8
CURVE
100
AcDbLine
 62
253
  6
CONTINUOUS
 10
32.430155895
 20
3.0280371318
 11
32.8301557043
 21
3.0280371318
  0
LINE
  5
484
100
AcDbEntity
  8
DRAFT
100
AcDbLine
 62
7
  6
CONTINUOUS
 10
26.143673762
 20
3.228037096
 11
26.1083386778
 21
3.228037096
  0
LINE
  5
485
100
AcDbEntity
  8
ASSI
100
AcDbLine
 62
7
  6
CONTINUOUS
 10
26.143673762
 20
3.228037096
 11
26.1083386778
 21
3.228037096
  0
LINE
  5
486
100
AcDbEntity
  8
DRAFT
100
AcDbLine
 62
7
  6
CONTINUOUS
 10
25.1037935096
 20
3.228037096
 11
23.143673762
 21
3.228037096
  0
LINE
  5
487
100
AcDbEntity
  8
ASSI
100
AcDbLine
 62
7
  6
CONTINUOUS
 10
25.1037935096
 20
3.228037096
 11
23.143673762
 21
3.228037096
  0
LINE
  5
488
100
AcDbEntity
  8
0
100
AcDbLine
 62
7
  6
CONTINUOUS
 10
23.1397652844
 20
3.478037096
 11
15.2118135216
 21
3.478037096
  0
LINE
  5
489
100
AcDbEntity
  8
CURVE
100
AcDbLine
 62
253
  6
CONTINUOUS
 10
33.8301555612
 20
3.628037096
 11
33.7301559427
 21
3.628037096
  0
LINE
  5
48A
100
AcDbEntity
  8
CURVE
100
AcDbLine
 62
253
  6
CONTINUOUS
 10
33.0301559427
 20
3.628037096
 11
32.430155895
 21
3.628037096
  0
LINE
  5
48B
100
AcDbEntity
  8
CURVE
100
AcDbLine
 62
253
  6
CONTINUOUS
 10
29.630155895
 20
3.628037096
 11
29.5301557758
 21
3.628037096
  0
LINE
  5
48C
100
AcDbEntity
  8
CURVE
100
AcDbLine
 62
253
  6
CONTINUOUS
 10
31.5301559904
 20
3.628037096
 11
31.8301558473
 21
3.628037096
  0
LINE
  5
48D
100
AcDbEntity
  8
SCRITTE
100
AcDbLine
 62
253
  6
CONTINUOUS
 10
43.7864058473
 20
1.796787096
 11
43.6114058473
 21
1.840537096
  0
LINE
  5
48E
100
AcDbEntity
  8
SCRITTE
100
AcDbLine
 62
253
  6
CONTINUOUS
 10
43.3489058473
 20
0.571787096
 11
43.4801558473
 21
0.528037096
  0
LINE
  5
48F
100
AcDbEntity
  8
SCRITTE
100
AcDbLine
 62
253
  6
CONTINUOUS
 10
43.4364058473
 20
1.359287096
 11
43.5676558473
 21
1.315537096
  0
LINE
  5
490
100
AcDbEntity
  8
SCRITTE
100
AcDbLine
 62
253
  6
CONTINUOUS
 10
43.2614058473
 20
0.615537096
 11
43.3489058473
 21
0.571787096
  0
LINE
  5
491
100
AcDbEntity
  8
CURVE
100
AcDbLine
 62
253
  6
CONTINUOUS
 10
37.6301558533
 20
1.728037108
 11
37.4301558652
 21
1.928037096
  0
LINE
  5
492
100
AcDbEntity
  8
CURVE
100
AcDbLine
 62
253
  6
CONTINUOUS
 10
35.7372987092
 20
4.3423228199
 11
35.9515844219
 21
4.128037096
  0
LINE
  5
493
100
AcDbEntity
  8
CURVE
100
AcDbLine
 62
253
  6
CONTINUOUS
 10
39.3301559188
 20
1.3280371318
 11
39.5301558235
 21
1.128037102
  0
LINE
  5
494
100
AcDbEntity
  8
CURVE
100
AcDbLine
 62
253
  6
CONTINUOUS
 10
36.9158701458
 20
4.3423228199
 11
37.1301558473
 21
4.128037096
  0
LINE
  5
495
100
AcDbEntity
  8
CURVE
100
AcDbLine
 62
253
  6
CONTINUOUS
 10
35.6301558473
 20
4.5566085438
 11
35.7372987092
 21
4.3423228199
  0
LINE
  5
496
100
AcDbEntity
  8
CURVE
100
AcDbLine
 62
253
  6
CONTINUOUS
 10
37.7301558473
 20
1.5280371199
 11
37.6301558533
 21
1.728037108
  0
LINE
  5
497
100
AcDbEntity
  8
CURVE
100
AcDbLine
 62
253
  6
CONTINUOUS
 10
38.4634892204
 20
0.6947037632
 11
38.4301558473
 21
0.7613704363
  0
LINE
  5
498
100
AcDbEntity
  8
CURVE
100
AcDbLine
 62
253
  6
CONTINUOUS
 10
36.3801558473
 20
5.199465693
 11
36.2730129966
 21
5.4137513945
  0
LINE
  5
499
100
AcDbEntity
  8
CURVE
100
AcDbLine
 62
253
  6
CONTINUOUS
 10
36.8087272503
 20
4.5566085438
 11
36.9158701458
 21
4.3423228199
  0
LINE
  5
49A
100
AcDbEntity
  8
CURVE
100
AcDbLine
 62
253
  6
CONTINUOUS
 10
37.7301558473
 20
0.9280371139
 11
37.7301558473
 21
1.5280371199
  0
LINE
  5
49B
100
AcDbEntity
  8
CURVE
100
AcDbLine
 62
253
  6
CONTINUOUS
 10
37.9872986534
 20
4.9851799915
 11
37.9872986534
 21
5.4137513945
  0
LINE
  5
49C
100
AcDbEntity
  8
CURVE
100
AcDbLine
 62
253
  6
CONTINUOUS
 10
38.3301558116
 20
0.6613704319
 11
38.3301558116
 21
0.6280371005
  0
LINE
  5
49D
100
AcDbEntity
  8
CURVE
100
AcDbLine
 62
253
  6
CONTINUOUS
 10
38.4634892204
 20
0.6613704319
 11
38.4634892204
 21
0.6947037632
  0
LINE
  5
49E
100
AcDbEntity
  8
SCRITTE
100
AcDbLine
 62
253
  6
CONTINUOUS
 10
38.6634889581
 20
6.9710556018
 11
38.6634889581
 21
6.9588379869
  0
LINE
  5
49F
100
AcDbEntity
  8
CURVE
100
AcDbLine
 62
253
  6
CONTINUOUS
 10
38.7372986534
 20
5.4137513945
 11
38.7372986534
 21
4.9851799915
  0
LINE
  5
4A0
100
AcDbEntity
  8
CURVE
100
AcDbLine
 62
253
  6
CONTINUOUS
 10
38.7372986534
 20
4.9851799915
 11
38.6301558473
 21
4.5566085438
  0
LINE
  5
4A1
100
AcDbEntity
  8
CURVE
100
AcDbLine
 62
253
  6
CONTINUOUS
 10
37.1301558518
 20
1.728037108
 11
37.0301558473
 21
1.5280371199
  0
LINE
  5
4A2
100
AcDbEntity
  8
CURVE
100
AcDbLine
 62
253
  6
CONTINUOUS
 10
37.6301558533
 20
0.728037105
 11
37.7301558473
 21
0.9280371139
  0
LINE
  5
4A3
100
AcDbEntity
  8
CURVE
100
AcDbLine
 62
253
  6
CONTINUOUS
 10
40.3087273099
 20
5.4137513945
 11
40.4515842655
 21
5.628037096
  0
LINE
  5
4A4
100
AcDbEntity
  8
CURVE
100
AcDbLine
 62
253
  6
CONTINUOUS
 10
37.3301558503
 20
1.928037096
 11
37.1301558518
 21
1.728037108
  0
LINE
  5
4A5
100
AcDbEntity
  8
CURVE
100
AcDbLine
 62
253
  6
CONTINUOUS
 10
40.4515842655
 20
4.9851799915
 11
40.2372986534
 21
4.7708942453
  0
LINE
  5
4A6
100
AcDbEntity
  8
CURVE
100
AcDbLine
 62
253
  6
CONTINUOUS
 10
39.8087274292
 20
4.235179958
 11
39.7015842655
 21
4.128037096
  0
LINE
  5
4A7
100
AcDbEntity
  8
CURVE
100
AcDbLine
 62
253
  6
CONTINUOUS
 10
40.9158699968
 20
5.0923227976
 11
40.7730130413
 21
4.9851799915
  0
LINE
  5
4A8
100
AcDbEntity
  8
CURVE
100
AcDbLine
 62
253
  6
CONTINUOUS
 10
36.4968227365
 20
2.6613704453
 11
36.2301557519
 21
2.5613704304
  0
LWPOLYLINE
  5
4A9
100
AcDbEntity
  8
RACCORDO
100
AcDbPolyline
 62
7
  6
CONTINUOUS
 90
7
 70
0
 10
24.9987320164
 20
4.9428703475
 10
24.9826596806
 20
4.9425392008
 10
24.9688115253
 20
4.9421705483
 10
24.9578206555
 20
4.9417812292
 10
24.949898106
 20
4.9413768567
 10
24.9448328419
 20
4.9409518176
 10
24.9426248633
 20
4.940506112
  0
LWPOLYLINE
  5
4AA
100
AcDbEntity
  8
ASSI
100
AcDbPolyline
 62
7
  6
CONTINUOUS
 90
7
 70
0
 10
24.9987320164
 20
4.9428703475
 10
24.9826596806
 20
4.9425392008
 10
24.9688115253
 20
4.9421705483
 10
24.9578206555
 20
4.9417812292
 10
24.949898106
 20
4.9413768567
 10
24.9448328419
 20
4.9409518176
 10
24.9426248633
 20
4.940506112
  0
LINE
  5
4AB
100
AcDbEntity
  8
RACCORDO
100
AcDbLine
 62
7
  6
CONTINUOUS
 10
25.0377553379
 20
4.9434166392
 11
24.9987320164
 21
4.9428703475
  0
LINE
  5
4AC
100
AcDbEntity
  8
ASSI
100
AcDbLine
 62
7
  6
CONTINUOUS
 10
25.0377553379
 20
4.9434166392
 11
24.9987320164
 21
4.9428703475
  0
LWPOLYLINE
  5
4AD
100
AcDbEntity
  8
RACCORDO
100
AcDbPolyline
 62
7
  6
CONTINUOUS
 90
3
 70
0
 10
25.1037935096
 20
4.9438649954
 10
25.0825344917
 20
4.943774199
 10
25.0377553379
 20
4.9434166392
  0
LWPOLYLINE
  5
4AE
100
AcDbEntity
  8
ASSI
100
AcDbPolyline
 62
7
  6
CONTINUOUS
 90
3
 70
0
 10
25.1037935096
 20
4.9438649954
 10
25.0825344917
 20
4.943774199
 10
25.0377553379
 20
4.9434166392
  0
LINE
  5
4AF
100
AcDbEntity
  8
RACCORDO
100
AcDbLine
 62
7
  6
CONTINUOUS
 10
26.1516589915
 20
4.9448640626
 11
26.1083386778
 21
4.944824434
  0
LINE
  5
4B0
100
AcDbEntity
  8
ASSI
100
AcDbLine
 62
7
  6
CONTINUOUS
 10
26.1516589915
 20
4.9448640626
 11
26.1083386778
 21
4.944824434
  0
LINE
  5
4B1
100
AcDbEntity
  8
ASSI
100
AcDbLine
 62
7
  6
CONTINUOUS
 10
50.9301558473
 20
3.728037096
 11
51.9884563717
 21
3.728037096
  0
LINE
  5
4B2
100
AcDbEntity
  8
RACCORDO
100
AcDbLine
 62
253
  6
CONTINUOUS
 10
58.6022277434
 20
3.830116825
 11
58.7895211555
 21
3.830116825
  0
LINE
  5
4B3
100
AcDbEntity
  8
ASSI
100
AcDbLine
 62
253
  6
CONTINUOUS
 10
58.6022277434
 20
3.830116825
 11
58.7895211555
 21
3.830116825
  0
LINE
  5
4B4
100
AcDbEntity
  8
0
100
AcDbLine
 62
7
  6
CONTINUOUS
 10
28.4778798473
 20
3.945736096
 11
28.7905718473
 21
3.945736096
  0
LINE
  5
4B5
100
AcDbEntity
  8
ASSI
100
AcDbLine
 62
7
  6
CONTINUOUS
 10
28.4778798473
 20
3.945736096
 11
28.7905718473
 21
3.945736096
  0
LINE
  5
4B6
100
AcDbEntity
  8
0
100
AcDbLine
 62
7
  6
CONTINUOUS
 10
29.4686538473
 20
3.945736096
 11
29.8234818473
 21
3.945736096
  0
LINE
  5
4B7
100
AcDbEntity
  8
ASSI
100
AcDbLine
 62
7
  6
CONTINUOUS
 10
29.4686538473
 20
3.945736096
 11
29.8234818473
 21
3.945736096
  0
LINE
  5
4B8
100
AcDbEntity
  8
0
100
AcDbLine
 62
7
  6
CONTINUOUS
 10
30.0144968473
 20
3.945736096
 11
30.3539518473
 21
3.945736096
  0
LINE
  5
4B9
100
AcDbEntity
  8
ASSI
100
AcDbLine
 62
7
  6
CONTINUOUS
 10
30.0144968473
 20
3.945736096
 11
30.3539518473
 21
3.945736096
  0
LINE
  5
4BA
100
AcDbEntity
  8
0
100
AcDbLine
 62
7
  6
CONTINUOUS
 10
30.8467798473
 20
3.945736096
 11
30.8965438473
 21
3.945736096
  0
LINE
  5
4BB
100
AcDbEntity
  8
ASSI
100
AcDbLine
 62
7
  6
CONTINUOUS
 10
30.8467798473
 20
3.945736096
 11
30.8965438473
 21
3.945736096
  0
LINE
  5
4BC
100
AcDbEntity
  8
0
100
AcDbLine
 62
7
  6
CONTINUOUS
 10
31.3913358473
 20
3.945736096
 11
31.7384518473
 21
3.945736096
  0
LINE
  5
4BD
100
AcDbEntity
  8
ASSI
100
AcDbLine
 62
7
  6
CONTINUOUS
 10
31.3913358473
 20
3.945736096
 11
31.7384518473
 21
3.945736096
  0
LINE
  5
4BE
100
AcDbEntity
  8
0
100
AcDbLine
 62
7
  6
CONTINUOUS
 10
31.7941688473
 20
3.945736096
 11
32.1451468473
 21
3.945736096
  0
LINE
  5
4BF
100
AcDbEntity
  8
ASSI
100
AcDbLine
 62
7
  6
CONTINUOUS
 10
31.7941688473
 20
3.945736096
 11
32.1451468473
 21
3.945736096
  0
LINE
  5
4C0
100
AcDbEntity
  8
0
100
AcDbLine
 62
7
  6
CONTINUOUS
 10
32.8181938473
 20
3.945736096
 11
33.1921678473
 21
3.945736096
  0
LINE
  5
4C1
100
AcDbEntity
  8
ASSI
100
AcDbLine
 62
7
  6
CONTINUOUS
 10
32.8181938473
 20
3.945736096
 11
33.1921678473
 21
3.945736096
  0
LINE
  5
4C2
100
AcDbEntity
  8
0
100
AcDbLine
 62
7
  6
CONTINUOUS
 10
33.2963625112
 20
3.9457364093
 11
33.6497628433
 21
3.9457364093
  0
LINE
  5
4C3
100
AcDbEntity
  8
ASSI
100
AcDbLine
 62
7
  6
CONTINUOUS
 10
33.2963625112
 20
3.9457364093
 11
33.6497628433
 21
3.9457364093
  0
LINE
  5
4C4
100
AcDbEntity
  8
0
100
AcDbLine
 62
7
  6
CONTINUOUS
 10
34.1931330624
 20
3.9457364093
 11
34.5344364058
 21
3.9457364093
  0
LINE
  5
4C5
100
AcDbEntity
  8
ASSI
100
AcDbLine
 62
7
  6
CONTINUOUS
 10
34.1931330624
 20
3.9457364093
 11
34.5344364058
 21
3.9457364093
  0
LINE
  5
4C6
100
AcDbEntity
  8
CURVE
100
AcDbLine
 62
253
  6
CONTINUOUS
 10
39.7015842655
 20
4.128037096
 11
39.1658702352
 21
4.128037096
  0
LINE
  5
4C7
100
AcDbEntity
  8
CURVE
100
AcDbLine
 62
253
  6
CONTINUOUS
 10
35.9515844219
 20
4.128037096
 11
36.058727295
 21
4.128037096
  0
LINE
  5
4C8
100
AcDbEntity
  8
CURVE
100
AcDbLine
 62
253
  6
CONTINUOUS
 10
37.1301558473
 20
4.128037096
 11
37.2372986534
 21
4.128037096
  0
LINE
  5
4C9
100
AcDbEntity
  8
CURVE
100
AcDbLine
 62
253
  6
CONTINUOUS
 10
40.4515842655
 20
4.128037096
 11
40.7730130413
 21
4.128037096
  0
LINE
  5
4CA
100
AcDbEntity
  8
CURVE
100
AcDbLine
 62
253
  6
CONTINUOUS
 10
42.2730126836
 20
4.128037096
 11
42.8087270715
 21
4.128037096
  0
LINE
  5
4CB
100
AcDbEntity
  8
CURVE
100
AcDbLine
 62
253
  6
CONTINUOUS
 10
41.6658699968
 20
4.1994656688
 11
41.737299011
 21
4.1994656688
  0
LINE
  5
4CC
100
AcDbEntity
  8
0
100
AcDbLine
 62
7
  6
CONTINUOUS
 10
32.2430578473
 20
4.285089096
 11
32.7262748473
 21
4.285089096
  0
LINE
  5
4CD
100
AcDbEntity
  8
ASSI
100
AcDbLine
 62
7
  6
CONTINUOUS
 10
32.2430578473
 20
4.285089096
 11
32.7262748473
 21
4.285089096
  0
LINE
  5
4CE
100
AcDbEntity
  8
CURVE
100
AcDbLine
 62
253
  6
CONTINUOUS
 10
41.737299011
 20
4.3780371035
 11
41.6658699968
 21
4.3780371035
  0
LINE
  5
4CF
100
AcDbEntity
  8
RACCORDO
100
AcDbLine
 62
253
  6
CONTINUOUS
 10
45.5952483762
 20
4.4740306755
 11
58.586518185
 21
4.4740306755
  0
LINE
  5
4D0
100
AcDbEntity
  8
ASSI
100
AcDbLine
 62
253
  6
CONTINUOUS
 10
45.5952483762
 20
4.4740306755
 11
58.586518185
 21
4.4740306755
  0
LINE
  5
4D1
100
AcDbEntity
  8
RACCORDO
100
AcDbLine
 62
253
  6
CONTINUOUS
 10
58.6073615861
 20
4.5384459178
 11
58.7781522893
 21
4.5384459178
  0
LINE
  5
4D2
100
AcDbEntity
  8
ASSI
100
AcDbLine
 62
253
  6
CONTINUOUS
 10
58.6073615861
 20
4.5384459178
 11
58.7781522893
 21
4.5384459178
  0
LINE
  5
4D3
100
AcDbEntity
  8
0
100
AcDbLine
 62
7
  6
CONTINUOUS
 10
32.6553618473
 20
4.547679096
 11
32.3156398473
 21
4.547679096
  0
LINE
  5
4D4
100
AcDbEntity
  8
ASSI
100
AcDbLine
 62
7
  6
CONTINUOUS
 10
32.6553618473
 20
4.547679096
 11
32.3156398473
 21
4.547679096
  0
LINE
  5
4D5
100
AcDbEntity
  8
0
100
AcDbLine
 62
7
  6
CONTINUOUS
 10
33.6497628433
 20
4.6109688119
 11
33.8400131663
 21
4.6109688119
  0
LINE
  5
4D6
100
AcDbEntity
  8
ASSI
100
AcDbLine
 62
7
  6
CONTINUOUS
 10
33.6497628433
 20
4.6109688119
 11
33.8400131663
 21
4.6109688119
  0
LINE
  5
4D7
100
AcDbEntity
  8
RACCORDO
100
AcDbLine
 62
253
  6
CONTINUOUS
 10
59.3129985598
 20
4.7355184392
 11
59.4899787324
 21
4.7355184392
  0
LINE
  5
4D8
100
AcDbEntity
  8
CURVE
100
AcDbLine
 62
253
  6
CONTINUOUS
 10
38.6658699968
 20
4.7708942453
 11
38.2015844443
 21
4.7708942453
  0
LINE
  5
4D9
100
AcDbEntity
  8
RACCORDO
100
AcDbLine
 62
253
  6
CONTINUOUS
 10
59.203363553
 20
4.845153446
 11
59.5447962687
 21
4.845153446
  0
LINE
  5
4DA
100
AcDbEntity
  8
CURVE
100
AcDbLine
 62
253
  6
CONTINUOUS
 10
42.2730126836
 20
4.878037096
 11
42.8087270715
 21
4.878037096
  0
LINE
  5
4DB
100
AcDbEntity
  8
0
100
AcDbLine
 62
7
  6
CONTINUOUS
 10
33.8407779918
 20
4.8893652645
 11
33.6379972789
 21
4.8893652645
  0
LINE
  5
4DC
100
AcDbEntity
  8
ASSI
100
AcDbLine
 62
7
  6
CONTINUOUS
 10
33.8407779918
 20
4.8893652645
 11
33.6379972789
 21
4.8893652645
  0
LINE
  5
4DD
100
AcDbEntity
  8
DRAFT
100
AcDbLine
 62
7
  6
CONTINUOUS
 10
26.145312075
 20
4.9321692627
 11
26.1083386778
 21
4.9321692627
  0
LINE
  5
4DE
100
AcDbEntity
  8
ASSI
100
AcDbLine
 62
7
  6
CONTINUOUS
 10
26.145312075
 20
4.9321692627
 11
26.1083386778
 21
4.9321692627
  0
LINE
  5
4DF
100
AcDbEntity
  8
DRAFT
100
AcDbLine
 62
7
  6
CONTINUOUS
 10
25.1037935096
 20
4.9321692627
 11
24.934288014
 21
4.9321692627
  0
LINE
  5
4E0
100
AcDbEntity
  8
ASSI
100
AcDbLine
 62
7
  6
CONTINUOUS
 10
25.1037935096
 20
4.9321692627
 11
24.934288014
 21
4.9321692627
  0
LINE
  5
4E1
100
AcDbEntity
  8
0
100
AcDbLine
 62
7
  6
CONTINUOUS
 10
23.1397649339
 20
4.978037096
 11
15.2118135216
 21
4.978037096
  0
LINE
  5
4E2
100
AcDbEntity
  8
CURVE
100
AcDbLine
 62
253
  6
CONTINUOUS
 10
40.7730130413
 20
4.9851799915
 11
40.4515842655
 21
4.9851799915
  0
LINE
  5
4E3
100
AcDbEntity
  8
CURVE
100
AcDbLine
 62
253
  6
CONTINUOUS
 10
39.3801558473
 20
4.9851799915
 11
39.5944414594
 21
4.9851799915
  0
LINE
  5
4E4
100
AcDbEntity
  8
RACCORDO
100
AcDbLine
 62
253
  6
CONTINUOUS
 10
24.9426248633
 20
5.1113386553
 11
25.1037935096
 21
5.1113386564
  0
LINE
  5
4E5
100
AcDbEntity
  8
ASSI
100
AcDbLine
 62
253
  6
CONTINUOUS
 10
24.9426248633
 20
5.1113386553
 11
25.1037935096
 21
5.1113386564
  0
LINE
  5
4E6
100
AcDbEntity
  8
RACCORDO
100
AcDbLine
 62
253
  6
CONTINUOUS
 10
45.5972622687
 20
5.1130017419
 11
58.5905462769
 21
5.1130017419
  0
LINE
  5
4E7
100
AcDbEntity
  8
ASSI
100
AcDbLine
 62
253
  6
CONTINUOUS
 10
45.5972622687
 20
5.1130017419
 11
58.5905462769
 21
5.1130017419
  0
LINE
  5
4E8
100
AcDbEntity
  8
RACCORDO
100
AcDbLine
 62
253
  6
CONTINUOUS
 10
26.1083386778
 20
5.1108921794
 11
26.1516589915
 21
5.1108723666
  0
LINE
  5
4E9
100
AcDbEntity
  8
ASSI
100
AcDbLine
 62
253
  6
CONTINUOUS
 10
26.1083386778
 20
5.1108921794
 11
26.1516589915
 21
5.1108723666
  0
LWPOLYLINE
  5
4EA
100
AcDbEntity
  8
0
100
AcDbPolyline
 62
7
  6
CONTINUOUS
 90
10
 70
0
 10
33.8400131663
 20
4.6109688119
 10
33.8685576462
 20
4.6086453359
 10
33.8957283642
 20
4.6024077168
 10
33.9215253203
 20
4.5922559546
 10
33.9462997211
 20
4.5777440448
 10
33.96970036
 20
4.5593179919
 10
33.9906736172
 20
4.5383158097
 10
34.0088682862
 20
4.5151835027
 10
34.0246355734
 20
4.4894750664
 10
34.037975479
 20
4.4611905007
  0
LWPOLYLINE
  5
4EB
100
AcDbEntity
  8
ASSI
100
AcDbPolyline
 62
7
  6
CONTINUOUS
 90
10
 70
0
 10
33.8400131663
 20
4.6109688119
 10
33.8685576462
 20
4.6086453359
 10
33.8957283642
 20
4.6024077168
 10
33.9215253203
 20
4.5922559546
 10
33.9462997211
 20
4.5777440448
 10
33.96970036
 20
4.5593179919
 10
33.9906736172
 20
4.5383158097
 10
34.0088682862
 20
4.5151835027
 10
34.0246355734
 20
4.4894750664
 10
34.037975479
 20
4.4611905007
  0
LWPOLYLINE
  5
4EC
100
AcDbEntity
  8
0
100
AcDbPolyline
 62
7
  6
CONTINUOUS
 90
13
 70
0
 10
33.9159730776
 20
5.3660172129
 10
33.9452860331
 20
5.3604351604
 10
33.9724503941
 20
5.352431518
 10
33.9974661608
 20
5.3420062857
 10
34.0203986682
 20
5.329086004
 10
34.0411825812
 20
5.3137441323
 10
34.0596218939
 20
5.2962010495
 10
34.075807598
 20
5.2762203877
 10
34.0896487018
 20
5.2540385147
 10
34.1006762245
 20
5.2305849129
 10
34.1087338393
 20
5.2061694098
 10
34.1139778731
 20
5.1804821779
 10
34.1164083258
 20
5.1535232173
  0
LWPOLYLINE
  5
4ED
100
AcDbEntity
  8
ASSI
100
AcDbPolyline
 62
7
  6
CONTINUOUS
 90
13
 70
0
 10
33.9159730776
 20
5.3660172129
 10
33.9452860331
 20
5.3604351604
 10
33.9724503941
 20
5.352431518
 10
33.9974661608
 20
5.3420062857
 10
34.0203986682
 20
5.329086004
 10
34.0411825812
 20
5.3137441323
 10
34.0596218939
 20
5.2962010495
 10
34.075807598
 20
5.2762203877
 10
34.0896487018
 20
5.2540385147
 10
34.1006762245
 20
5.2305849129
 10
34.1087338393
 20
5.2061694098
 10
34.1139778731
 20
5.1804821779
 10
34.1164083258
 20
5.1535232173
  0
LWPOLYLINE
  5
4EE
100
AcDbEntity
  8
0
100
AcDbPolyline
 62
7
  6
CONTINUOUS
 90
13
 70
0
 10
34.1720238809
 20
5.6078422634
 10
34.1129219506
 20
5.6261820076
 10
34.0511078029
 20
5.6412443467
 10
33.9865814378
 20
5.6530292807
 10
33.919247819
 20
5.6614506197
 10
33.8492019826
 20
5.6665945536
 10
33.776729038
 20
5.6687196516
 10
33.7017436435
 20
5.6676473866
 10
33.6243311407
 20
5.6635562857
 10
33.5450326628
 20
5.6572404994
 10
33.4640285874
 20
5.6489647444
 10
33.3811385369
 20
5.638464304
 10
33.2963625112
 20
5.6257391782
  0
LWPOLYLINE
  5
4EF
100
AcDbEntity
  8
ASSI
100
AcDbPolyline
 62
7
  6
CONTINUOUS
 90
13
 70
0
 10
34.1720238809
 20
5.6078422634
 10
34.1129219506
 20
5.6261820076
 10
34.0511078029
 20
5.6412443467
 10
33.9865814378
 20
5.6530292807
 10
33.919247819
 20
5.6614506197
 10
33.8492019826
 20
5.6665945536
 10
33.776729038
 20
5.6687196516
 10
33.7017436435
 20
5.6676473866
 10
33.6243311407
 20
5.6635562857
 10
33.5450326628
 20
5.6572404994
 10
33.4640285874
 20
5.6489647444
 10
33.3811385369
 20
5.638464304
 10
33.2963625112
 20
5.6257391782
  0
LINE
  5
4F0
100
AcDbEntity
  8
SCRITTE
100
AcDbLine
 62
253
  6
CONTINUOUS
 10
43.9176558473
 20
1.753037096
 11
43.7864058473
 21
1.796787096
  0
LINE
  5
4F1
100
AcDbEntity
  8
SCRITTE
100
AcDbLine
 62
253
  6
CONTINUOUS
 10
43.3489058473
 20
1.403037096
 11
43.4364058473
 21
1.359287096
  0
LINE
  5
4F2
100
AcDbEntity
  8
SCRITTE
100
AcDbLine
 62
253
  6
CONTINUOUS
 10
44.0051558473
 20
1.709287096
 11
43.9176558473
 21
1.753037096
  0
LINE
  5
4F3
100
AcDbEntity
  8
CURVE
100
AcDbLine
 62
253
  6
CONTINUOUS
 10
36.2730129966
 20
5.4137513945
 11
36.058727295
 21
5.628037096
  0
LINE
  5
4F4
100
AcDbEntity
  8
CURVE
100
AcDbLine
 62
253
  6
CONTINUOUS
 10
37.4515844443
 20
5.4137513945
 11
37.2372986534
 21
5.628037096
  0
LINE
  5
4F5
100
AcDbEntity
  8
CURVE
100
AcDbLine
 62
253
  6
CONTINUOUS
 10
38.2015844443
 20
4.7708942453
 11
37.9872986534
 21
4.9851799915
  0
LINE
  5
4F6
100
AcDbEntity
  8
CURVE
100
AcDbLine
 62
253
  6
CONTINUOUS
 10
39.3301559188
 20
1.928037096
 11
39.4968224504
 21
1.728037108
  0
LINE
  5
4F7
100
AcDbEntity
  8
CURVE
100
AcDbLine
 62
253
  6
CONTINUOUS
 10
37.5587272503
 20
5.199465693
 11
37.4515844443
 21
5.4137513945
  0
LINE
  5
4F8
100
AcDbEntity
  8
SCRITTE
100
AcDbLine
 62
253
  6
CONTINUOUS
 10
39.3634889581
 20
6.9588379869
 11
39.3634889581
 21
6.9710556018
  0
LINE
  5
4F9
100
AcDbEntity
  8
CURVE
100
AcDbLine
 62
253
  6
CONTINUOUS
 10
39.4968224504
 20
1.728037108
 11
39.4968224504
 21
1.4280370841
  0
LINE
  5
4FA
100
AcDbEntity
  8
CURVE
100
AcDbLine
 62
253
  6
CONTINUOUS
 10
39.5301558235
 20
1.128037102
 11
39.5301558235
 21
0.6280371005
  0
LINE
  5
4FB
100
AcDbEntity
  8
CURVE
100
AcDbLine
 62
253
  6
CONTINUOUS
 10
39.7730129221
 20
5.4137513945
 11
39.7730129221
 21
5.0923227976
  0
LINE
  5
4FC
100
AcDbEntity
  8
CURVE
100
AcDbLine
 62
253
  6
CONTINUOUS
 10
39.8087274292
 20
4.7708942453
 11
39.8087274292
 21
4.235179958
  0
LINE
  5
4FD
100
AcDbEntity
  8
SCRITTE
100
AcDbLine
 62
253
  6
CONTINUOUS
 10
40.0301564195
 20
6.9710556018
 11
40.0301564195
 21
6.9588379869
  0
LINE
  5
4FE
100
AcDbEntity
  8
CURVE
100
AcDbLine
 62
253
  6
CONTINUOUS
 10
40.2372986534
 20
4.7708942453
 11
40.2372986534
 21
4.3423228199
  0
LINE
  5
4FF
100
AcDbEntity
  8
CURVE
100
AcDbLine
 62
253
  6
CONTINUOUS
 10
40.3087273099
 20
5.0923227976
 11
40.3087273099
 21
5.4137513945
  0
LINE
  5
500
100
AcDbEntity
  8
SCRITTE
100
AcDbLine
 62
253
  6
CONTINUOUS
 10
40.663488672
 20
6.9710556018
 11
40.663488672
 21
6.9588379869
  0
LINE
  5
501
100
AcDbEntity
  8
CURVE
100
AcDbLine
 62
253
  6
CONTINUOUS
 10
38.4301558473
 20
0.56137043
 11
38.4634892204
 21
0.6613704319
  0
LINE
  5
502
100
AcDbEntity
  8
CURVE
100
AcDbLine
 62
253
  6
CONTINUOUS
 10
38.3634891846
 20
0.728037105
 11
38.3301558116
 21
0.6613704319
  0
LINE
  5
503
100
AcDbEntity
  8
CURVE
100
AcDbLine
 62
253
  6
CONTINUOUS
 10
38.3634891846
 20
0.4280370916
 11
38.4301558473
 21
0.56137043
  0
LINE
  5
504
100
AcDbEntity
  8
CURVE
100
AcDbLine
 62
253
  6
CONTINUOUS
 10
40.7730130413
 20
4.128037096
 11
40.9872986534
 21
4.3423228199
  0
LINE
  5
505
100
AcDbEntity
  8
CURVE
100
AcDbLine
 62
253
  6
CONTINUOUS
 10
37.4301558652
 20
0.528037096
 11
37.6301558533
 21
0.728037105
  0
LINE
  5
506
100
AcDbEntity
  8
CURVE
100
AcDbLine
 62
253
  6
CONTINUOUS
 10
38.3968224742
 20
0.7613704363
 11
38.3634891846
 21
0.728037105
  0
LINE
  5
507
100
AcDbEntity
  8
DRAFT
100
AcDbLine
 62
7
  6
CONTINUOUS
 10
44.8301558473
 20
7.0304182503
 11
44.7777746931
 21
6.978037096
  0
LINE
  5
508
100
AcDbEntity
  8
CURVE
100
AcDbLine
 62
253
  6
CONTINUOUS
 10
38.3968224742
 20
0.5947037639
 11
38.4634892204
 21
0.6613704319
  0
LINE
  5
509
100
AcDbEntity
  8
CURVE
100
AcDbLine
 62
253
  6
CONTINUOUS
 10
42.7015846231
 20
4.878037096
 11
42.9158702352
 21
5.0923227976
  0
LINE
  5
50A
100
AcDbEntity
  8
RACCORDO
100
AcDbLine
 62
253
  6
CONTINUOUS
 10
45.0170883918
 20
6.9649467944
 11
44.9886879938
 21
6.9365463964
  0
LINE
  5
50B
100
AcDbEntity
  8
ASSI
100
AcDbLine
 62
253
  6
CONTINUOUS
 10
45.0170883918
 20
6.9649467944
 11
44.9886879938
 21
6.9365463964
  0
LINE
  5
50C
100
AcDbEntity
  8
CURVE
100
AcDbLine
 62
253
  6
CONTINUOUS
 10
39.4968224504
 20
1.4280370841
 11
39.3301559188
 21
1.3280371318
  0
LWPOLYLINE
  5
50D
100
AcDbEntity
  8
0
100
AcDbPolyline
 62
7
  6
CONTINUOUS
 90
10
 70
0
 10
33.6379972789
 20
5.356010747
 10
33.6691416686
 20
5.3612024749
 10
33.700221048
 20
5.3653812511
 10
33.7312354172
 20
5.3685470757
 10
33.7621841589
 20
5.3707093125
 10
33.7930678904
 20
5.3718585976
 10
33.8238884629
 20
5.3719668394
 10
33.8546464934
 20
5.371024674
 10
33.885341365
 20
5.3690414651
 10
33.9159730776
 20
5.3660172129
  0
LWPOLYLINE
  5
50E
100
AcDbEntity
  8
ASSI
100
AcDbPolyline
 62
7
  6
CONTINUOUS
 90
10
 70
0
 10
33.6379972789
 20
5.356010747
 10
33.6691416686
 20
5.3612024749
 10
33.700221048
 20
5.3653812511
 10
33.7312354172
 20
5.3685470757
 10
33.7621841589
 20
5.3707093125
 10
33.7930678904
 20
5.3718585976
 10
33.8238884629
 20
5.3719668394
 10
33.8546464934
 20
5.371024674
 10
33.885341365
 20
5.3690414651
 10
33.9159730776
 20
5.3660172129
  0
LINE
  5
50F
100
AcDbEntity
  8
RACCORDO
100
AcDbLine
 62
253
  6
CONTINUOUS
 10
25.0202316166
 20
5.5891247724
 11
23.1401140301
 21
5.5891247724
  0
LINE
  5
510
100
AcDbEntity
  8
ASSI
100
AcDbLine
 62
253
  6
CONTINUOUS
 10
25.0202316166
 20
5.5891247724
 11
23.1401140301
 21
5.5891247724
  0
LINE
  5
511
100
AcDbEntity
  8
RACCORDO
100
AcDbLine
 62
7
  6
CONTINUOUS
 10
25.101495357
 20
5.6189811975
 11
23.1392117459
 21
5.6189811975
  0
LINE
  5
512
100
AcDbEntity
  8
ASSI
100
AcDbLine
 62
7
  6
CONTINUOUS
 10
25.101495357
 20
5.6189811975
 11
23.1392117459
 21
5.6189811975
  0
LINE
  5
513
100
AcDbEntity
  8
CURVE
100
AcDbLine
 62
253
  6
CONTINUOUS
 10
42.5944414594
 20
5.628037096
 11
42.2730126836
 21
5.628037096
  0
LINE
  5
514
100
AcDbEntity
  8
CURVE
100
AcDbLine
 62
253
  6
CONTINUOUS
 10
37.2372986534
 20
5.628037096
 11
37.1301558473
 21
5.628037096
  0
LINE
  5
515
100
AcDbEntity
  8
CURVE
100
AcDbLine
 62
253
  6
CONTINUOUS
 10
36.058727295
 20
5.628037096
 11
35.9515844219
 21
5.628037096
  0
LINE
  5
516
100
AcDbEntity
  8
DRAFT
100
AcDbLine
 62
7
  6
CONTINUOUS
 10
26.1301558473
 20
5.628037096
 11
26.10959794
 21
5.628037096
  0
LINE
  5
517
100
AcDbEntity
  8
ASSI
100
AcDbLine
 62
7
  6
CONTINUOUS
 10
26.1301558473
 20
5.628037096
 11
26.10959794
 21
5.628037096
  0
LINE
  5
518
100
AcDbEntity
  8
DRAFT
100
AcDbLine
 62
7
  6
CONTINUOUS
 10
25.1012747881
 20
5.628037096
 11
23.1301558473
 21
5.628037096
  0
LINE
  5
519
100
AcDbEntity
  8
ASSI
100
AcDbLine
 62
7
  6
CONTINUOUS
 10
25.1012747881
 20
5.628037096
 11
23.1301558473
 21
5.628037096
  0
LINE
  5
51A
100
AcDbEntity
  8
CURVE
100
AcDbLine
 62
253
  6
CONTINUOUS
 10
38.2015844443
 20
5.628037096
 11
38.5230130413
 21
5.628037096
  0
LINE
  5
51B
100
AcDbEntity
  8
CURVE
100
AcDbLine
 62
253
  6
CONTINUOUS
 10
39.1658702352
 20
5.628037096
 11
39.5944414594
 21
5.628037096
  0
LINE
  5
51C
100
AcDbEntity
  8
CURVE
100
AcDbLine
 62
253
  6
CONTINUOUS
 10
40.4515842655
 20
5.628037096
 11
40.7730130413
 21
5.628037096
  0
LINE
  5
51D
100
AcDbEntity
  8
0
100
AcDbLine
 62
7
  6
CONTINUOUS
 10
32.6706078473
 20
5.645599096
 11
32.3273538473
 21
5.645599096
  0
LINE
  5
51E
100
AcDbEntity
  8
ASSI
100
AcDbLine
 62
7
  6
CONTINUOUS
 10
32.6706078473
 20
5.645599096
 11
32.3273538473
 21
5.645599096
  0
LINE
  5
51F
100
AcDbEntity
  8
0
100
AcDbLine
 62
7
  6
CONTINUOUS
 10
31.5794948473
 20
5.645599096
 11
31.2284278473
 21
5.645599096
  0
LINE
  5
520
100
AcDbEntity
  8
ASSI
100
AcDbLine
 62
7
  6
CONTINUOUS
 10
31.5794948473
 20
5.645599096
 11
31.2284278473
 21
5.645599096
  0
LINE
  5
521
100
AcDbEntity
  8
0
100
AcDbLine
 62
7
  6
CONTINUOUS
 10
30.5225188473
 20
5.645599096
 11
30.1679838473
 21
5.645599096
  0
LINE
  5
522
100
AcDbEntity
  8
ASSI
100
AcDbLine
 62
7
  6
CONTINUOUS
 10
30.5225188473
 20
5.645599096
 11
30.1679838473
 21
5.645599096
  0
LINE
  5
523
100
AcDbEntity
  8
0
100
AcDbLine
 62
7
  6
CONTINUOUS
 10
29.3369758473
 20
5.645599096
 11
28.9823898473
 21
5.645599096
  0
LINE
  5
524
100
AcDbEntity
  8
ASSI
100
AcDbLine
 62
7
  6
CONTINUOUS
 10
29.3369758473
 20
5.645599096
 11
28.9823898473
 21
5.645599096
  0
LINE
  5
525
100
AcDbEntity
  8
0
100
AcDbLine
 62
7
  6
CONTINUOUS
 10
28.3244428473
 20
5.645599096
 11
27.9389898473
 21
5.645599096
  0
LINE
  5
526
100
AcDbEntity
  8
ASSI
100
AcDbLine
 62
7
  6
CONTINUOUS
 10
28.3244428473
 20
5.645599096
 11
27.9389898473
 21
5.645599096
  0
LINE
  5
527
100
AcDbEntity
  8
0
100
AcDbLine
 62
7
  6
CONTINUOUS
 10
29.8234818473
 20
5.645701096
 11
29.4686538473
 21
5.645701096
  0
LINE
  5
528
100
AcDbEntity
  8
ASSI
100
AcDbLine
 62
7
  6
CONTINUOUS
 10
29.8234818473
 20
5.645701096
 11
29.4686538473
 21
5.645701096
  0
LINE
  5
529
100
AcDbEntity
  8
DRAFT
100
AcDbLine
 62
7
  6
CONTINUOUS
 10
25.0301558473
 20
5.8090565442
 11
25.0601558473
 21
5.8090565442
  0
LINE
  5
52A
100
AcDbEntity
  8
RACCORDO
100
AcDbLine
 62
253
  6
CONTINUOUS
 10
58.6176460541
 20
6.0896558322
 11
45.6108111254
 21
6.0896558322
  0
LINE
  5
52B
100
AcDbEntity
  8
ASSI
100
AcDbLine
 62
253
  6
CONTINUOUS
 10
58.6176460541
 20
6.0896558322
 11
45.6108111254
 21
6.0896558322
  0
LINE
  5
52C
100
AcDbEntity
  8
RACCORDO
100
AcDbLine
 62
253
  6
CONTINUOUS
 10
59.619249138
 20
6.1064667011
 11
58.7527098244
 21
6.106467754
  0
LINE
  5
52D
100
AcDbEntity
  8
RACCORDO
100
AcDbLine
 62
253
  6
CONTINUOUS
 10
59.620655852
 20
6.1185218702
 11
58.7491918421
 21
6.1185219986
  0
LINE
  5
52E
100
AcDbEntity
  8
RACCORDO
100
AcDbLine
 62
253
  6
CONTINUOUS
 10
58.6215820291
 20
6.1194632778
 11
45.612778963
 21
6.1194632778
  0
LINE
  5
52F
100
AcDbEntity
  8
ASSI
100
AcDbLine
 62
253
  6
CONTINUOUS
 10
58.6215820291
 20
6.1194632778
 11
45.612778963
 21
6.1194632778
  0
LINE
  5
530
100
AcDbEntity
  8
DRAFT
100
AcDbLine
 62
7
  6
CONTINUOUS
 10
58.6301558473
 20
6.128037096
 11
45.6170655456
 21
6.128037096
  0
LINE
  5
531
100
AcDbEntity
  8
ASSI
100
AcDbLine
 62
7
  6
CONTINUOUS
 10
58.6301558473
 20
6.128037096
 11
45.6170655456
 21
6.128037096
  0
LINE
  5
532
100
AcDbEntity
  8
RACCORDO
100
AcDbLine
 62
7
  6
CONTINUOUS
 10
45.6825370016
 20
6.128037096
 11
59.6301710778
 21
6.128037096
  0
LINE
  5
533
100
AcDbEntity
  8
DRAFT
100
AcDbLine
 62
7
  6
CONTINUOUS
 10
44.8301558473
 20
6.178037096
 11
26.9301558473
 21
6.178037096
  0
LINE
  5
534
100
AcDbEntity
  8
ASSI
100
AcDbLine
 62
7
  6
CONTINUOUS
 10
44.8301558473
 20
6.178037096
 11
26.9301558473
 21
6.178037096
  0
LINE
  5
535
100
AcDbEntity
  8
DRAFT
100
AcDbLine
 62
7
  6
CONTINUOUS
 10
44.8336468603
 20
6.181528109
 11
26.9266648343
 21
6.181528109
  0
LINE
  5
536
100
AcDbEntity
  8
ASSI
100
AcDbLine
 62
7
  6
CONTINUOUS
 10
44.8336468603
 20
6.181528109
 11
26.9266648343
 21
6.181528109
  0
LINE
  5
537
100
AcDbEntity
  8
RACCORDO
100
AcDbLine
 62
253
  6
CONTINUOUS
 10
26.0847761348
 20
6.2676524005
 11
25.1406319257
 21
6.2676524005
  0
LINE
  5
538
100
AcDbEntity
  8
RACCORDO
100
AcDbLine
 62
253
  6
CONTINUOUS
 10
45.0886841861
 20
6.3365692425
 11
45.5886651476
 21
6.336569236
  0
LINE
  5
539
100
AcDbEntity
  8
ASSI
100
AcDbLine
 62
253
  6
CONTINUOUS
 10
45.0886841861
 20
6.3365692425
 11
45.5886651476
 21
6.336569236
  0
LINE
  5
53A
100
AcDbEntity
  8
RACCORDO
100
AcDbLine
 62
253
  6
CONTINUOUS
 10
44.9886879938
 20
6.4365654348
 11
26.1746742963
 21
6.4365654348
  0
LINE
  5
53B
100
AcDbEntity
  8
ASSI
100
AcDbLine
 62
253
  6
CONTINUOUS
 10
44.9886879938
 20
6.4365654348
 11
26.1746742963
 21
6.4365654348
  0
LINE
  5
53C
100
AcDbEntity
  8
RACCORDO
100
AcDbLine
 62
7
  6
CONTINUOUS
 10
26.1094048691
 20
5.6108846214
 11
26.1473256653
 21
5.6108672781
  0
LINE
  5
53D
100
AcDbEntity
  8
ASSI
100
AcDbLine
 62
7
  6
CONTINUOUS
 10
26.1094048691
 20
5.6108846214
 11
26.1473256653
 21
5.6108672781
  0
LWPOLYLINE
  5
53E
100
AcDbEntity
  8
RACCORDO
100
AcDbPolyline
 62
7
  6
CONTINUOUS
 90
8
 70
0
 10
58.6513128994
 20
6.1280058574
 10
58.6825742555
 20
6.1278133114
 10
58.6964580005
 20
6.1276461751
 10
58.708946405
 20
6.1274356824
 10
58.7190012358
 20
6.1271993206
 10
58.7262764151
 20
6.1269429185
 10
58.7311180207
 20
6.1266606473
 10
58.7335260525
 20
6.1263525068
  0
LWPOLYLINE
  5
53F
100
AcDbEntity
  8
RACCORDO
100
AcDbPolyline
 62
253
  6
CONTINUOUS
 90
10
 70
0
 10
59.5899635254
 20
4.9676207022
 10
59.6071730153
 20
4.9665977735
 10
59.6238689183
 20
4.9638455935
 10
59.6395529909
 20
4.9594462984
 10
59.6537571549
 20
4.9535311942
 10
59.666057571
 20
4.9462767949
 10
59.6760872376
 20
4.9378995255
 10
59.6835468134
 20
4.9286493419
 10
59.6882136047
 20
4.9188023024
 10
59.6899482844
 20
4.9086522668
  0
LINE
  5
540
100
AcDbEntity
  8
RACCORDO
100
AcDbLine
 62
7
  6
CONTINUOUS
 10
58.6301558473
 20
5.078037096
 11
58.6950033926
 21
5.0735462362
  0
LINE
  5
541
100
AcDbEntity
  8
ASSI
100
AcDbLine
 62
7
  6
CONTINUOUS
 10
58.6301558473
 20
5.078037096
 11
58.6950033926
 21
5.0735462362
  0
LINE
  5
542
100
AcDbEntity
  8
CURVE
100
AcDbLine
 62
253
  6
CONTINUOUS
 10
40.4515842655
 20
4.9851799915
 11
40.3087273099
 21
5.0923227976
  0
LINE
  5
543
100
AcDbEntity
  8
SCRITTE
100
AcDbLine
 62
253
  6
CONTINUOUS
 10
43.1739058473
 20
0.703037096
 11
43.2614058473
 21
0.615537096
  0
LINE
  5
544
100
AcDbEntity
  8
CURVE
100
AcDbLine
 62
253
  6
CONTINUOUS
 10
38.5230130413
 20
5.628037096
 11
38.7372986534
 21
5.4137513945
  0
LINE
  5
545
100
AcDbEntity
  8
DRAFT
100
AcDbLine
 62
7
  6
CONTINUOUS
 10
44.8301558473
 20
-0.5743440582
 11
44.7777746931
 21
-0.521962904
  0
LINE
  5
546
100
AcDbEntity
  8
RACCORDO
100
AcDbLine
 62
253
  6
CONTINUOUS
 10
45.0170883918
 20
-0.5088726023
 11
44.9886879938
 21
-0.4804722043
  0
LINE
  5
547
100
AcDbEntity
  8
ASSI
100
AcDbLine
 62
253
  6
CONTINUOUS
 10
45.0170883918
 20
-0.5088726023
 11
44.9886879938
 21
-0.4804722043
  0
LINE
  5
548
100
AcDbEntity
  8
CURVE
100
AcDbLine
 62
253
  6
CONTINUOUS
 10
39.5944414594
 20
4.9851799915
 11
39.8087274292
 21
4.7708942453
  0
LINE
  5
549
100
AcDbEntity
  8
CURVE
100
AcDbLine
 62
253
  6
CONTINUOUS
 10
40.2372986534
 20
4.3423228199
 11
40.4515842655
 21
4.128037096
  0
LINE
  5
54A
100
AcDbEntity
  8
SCRITTE
100
AcDbLine
 62
253
  6
CONTINUOUS
 10
43.3051558473
 20
1.446787096
 11
43.3489058473
 21
1.403037096
  0
LINE
  5
54B
100
AcDbEntity
  8
DRAFT
100
AcDbLine
 62
7
  6
CONTINUOUS
 10
44.8336468603
 20
0.2745460831
 11
44.8301558473
 21
0.278037096
  0
LINE
  5
54C
100
AcDbEntity
  8
CURVE
100
AcDbLine
 62
253
  6
CONTINUOUS
 10
39.5944414594
 20
5.628037096
 11
39.7730129221
 21
5.4137513945
  0
LINE
  5
54D
100
AcDbEntity
  8
CURVE
100
AcDbLine
 62
253
  6
CONTINUOUS
 10
40.8301557043
 20
0.528037096
 11
40.5301558473
 21
1.5280371199
  0
LINE
  5
54E
100
AcDbEntity
  8
CURVE
100
AcDbLine
 62
253
  6
CONTINUOUS
 10
40.2301559904
 20
0.528037096
 11
39.9301557996
 21
1.928037096
  0
LINE
  5
54F
100
AcDbEntity
  8
CURVE
100
AcDbLine
 62
253
  6
CONTINUOUS
 10
40.9158699968
 20
5.4137513945
 11
40.9158699968
 21
5.0923227976
  0
LINE
  5
550
100
AcDbEntity
  8
CURVE
100
AcDbLine
 62
253
  6
CONTINUOUS
 10
40.9872986534
 20
4.3423228199
 11
40.9872986534
 21
4.7708942453
  0
LINE
  5
551
100
AcDbEntity
  8
SCRITTE
100
AcDbLine
 62
253
  6
CONTINUOUS
 10
41.363488672
 20
6.9710556018
 11
41.363488672
 21
6.9588379869
  0
LINE
  5
552
100
AcDbEntity
  8
CURVE
100
AcDbLine
 62
253
  6
CONTINUOUS
 10
41.6301558473
 20
4.3066085251
 11
41.6301558473
 21
4.2708942416
  0
LINE
  5
553
100
AcDbEntity
  8
CURVE
100
AcDbLine
 62
253
  6
CONTINUOUS
 10
41.7730131605
 20
4.2708942416
 11
41.7730131605
 21
4.3066085251
  0
LINE
  5
554
100
AcDbEntity
  8
CURVE
100
AcDbLine
 62
253
  6
CONTINUOUS
 10
41.130155895
 20
1.928037096
 11
40.8301557043
 21
0.528037096
  0
LINE
  5
555
100
AcDbEntity
  8
CURVE
100
AcDbLine
 62
253
  6
CONTINUOUS
 10
40.5301558473
 20
1.5280371199
 11
40.2301559904
 21
0.528037096
  0
LINE
  5
556
100
AcDbEntity
  8
CURVE
100
AcDbLine
 62
253
  6
CONTINUOUS
 10
41.6658699968
 20
4.3780371035
 11
41.6301558473
 21
4.3066085251
  0
LINE
  5
557
100
AcDbEntity
  8
CURVE
100
AcDbLine
 62
253
  6
CONTINUOUS
 10
41.737299011
 20
4.1994656688
 11
41.7730131605
 21
4.2708942416
  0
LINE
  5
558
100
AcDbEntity
  8
DRAFT
100
AcDbLine
 62
7
  6
CONTINUOUS
 10
44.8336468603
 20
6.181528109
 11
44.8301558473
 21
6.178037096
  0
LINE
  5
559
100
AcDbEntity
  8
CURVE
100
AcDbLine
 62
253
  6
CONTINUOUS
 10
42.8087270715
 20
4.128037096
 11
43.0230126836
 21
4.3423228199
  0
LINE
  5
55A
100
AcDbEntity
  8
CURVE
100
AcDbLine
 62
253
  6
CONTINUOUS
 10
39.5301558235
 20
0.6280371005
 11
39.4301558712
 21
0.528037096
  0
LINE
  5
55B
100
AcDbEntity
  8
RACCORDO
100
AcDbLine
 62
253
  6
CONTINUOUS
 10
45.6170655456
 20
6.3649696405
 11
45.5886651476
 21
6.3365692425
  0
LINE
  5
55C
100
AcDbEntity
  8
ASSI
100
AcDbLine
 62
253
  6
CONTINUOUS
 10
45.6170655456
 20
6.3649696405
 11
45.5886651476
 21
6.3365692425
  0
LINE
  5
55D
100
AcDbEntity
  8
SCRITTE
100
AcDbLine
 62
253
  6
CONTINUOUS
 10
43.4364058473
 20
1.271787096
 11
43.2614058473
 21
1.184287096
  0
LINE
  5
55E
100
AcDbEntity
  8
SCRITTE
100
AcDbLine
 62
253
  6
CONTINUOUS
 10
43.5239058473
 20
1.840537096
 11
43.3926558473
 21
1.796787096
  0
LWPOLYLINE
  5
55F
100
AcDbEntity
  8
RACCORDO
100
AcDbPolyline
 62
7
  6
CONTINUOUS
 90
6
 70
0
 10
25.1034538143
 20
5.617937912
 10
25.0854839256
 20
5.6151914862
 10
25.0681767615
 20
5.6108319273
 10
25.0515323219
 20
5.6049600559
 10
25.0355506069
 20
5.5976855029
 10
25.0202316166
 20
5.5891247724
  0
LWPOLYLINE
  5
560
100
AcDbEntity
  8
ASSI
100
AcDbPolyline
 62
7
  6
CONTINUOUS
 90
6
 70
0
 10
25.1034538143
 20
5.617937912
 10
25.0854839256
 20
5.6151914862
 10
25.0681767615
 20
5.6108319273
 10
25.0515323219
 20
5.6049600559
 10
25.0355506069
 20
5.5976855029
 10
25.0202316166
 20
5.5891247724
  0
LWPOLYLINE
  5
561
100
AcDbEntity
  8
RACCORDO
100
AcDbPolyline
 62
253
  6
CONTINUOUS
 90
10
 70
0
 10
26.3216408354
 20
6.9365463964
 10
26.2955932145
 20
6.9342654182
 10
26.2703376999
 20
6.9274959748
 10
26.2466416317
 20
6.9164440721
 10
26.2252248224
 20
6.9014457628
 10
26.2067378788
 20
6.8829570357
 10
26.1917423591
 20
6.8615400331
 10
26.1806935036
 20
6.837845725
 10
26.1739265197
 20
6.8125940286
 10
26.171646547
 20
6.7865521079
  0
LWPOLYLINE
  5
562
100
AcDbEntity
  8
ASSI
100
AcDbPolyline
 62
253
  6
CONTINUOUS
 90
10
 70
0
 10
26.3216408354
 20
6.9365463964
 10
26.2955932145
 20
6.9342654182
 10
26.2703376999
 20
6.9274959748
 10
26.2466416317
 20
6.9164440721
 10
26.2252248224
 20
6.9014457628
 10
26.2067378788
 20
6.8829570357
 10
26.1917423591
 20
6.8615400331
 10
26.1806935036
 20
6.837845725
 10
26.1739265197
 20
6.8125940286
 10
26.171646547
 20
6.7865521079
  0
LINE
  5
563
100
AcDbEntity
  8
SCRITTE
100
AcDbLine
 62
253
  6
CONTINUOUS
 10
42.1634896257
 20
6.9710556018
 11
41.7634898164
 21
6.9588379869
  0
LINE
  5
564
100
AcDbEntity
  8
SCRITTE
100
AcDbLine
 62
253
  6
CONTINUOUS
 10
30.2301559188
 20
6.9710556018
 11
29.8301558592
 21
6.9588379869
  0
LINE
  5
565
100
AcDbEntity
  8
SCRITTE
100
AcDbLine
 62
253
  6
CONTINUOUS
 10
29.4301558831
 20
6.9710556018
 11
29.0301558652
 21
6.9640741076
  0
LINE
  5
566
100
AcDbEntity
  8
SCRITTE
100
AcDbLine
 62
253
  6
CONTINUOUS
 10
37.6968226411
 20
6.9710556018
 11
37.4968227365
 21
6.9693102284
  0
LINE
  5
567
100
AcDbEntity
  8
SCRITTE
100
AcDbLine
 62
253
  6
CONTINUOUS
 10
31.5301557996
 20
6.9588379869
 11
31.7301557043
 21
6.9605833605
  0
LINE
  5
568
100
AcDbEntity
  8
RACCORDO
100
AcDbLine
 62
253
  6
CONTINUOUS
 10
26.0899208726
 20
6.8675610176
 11
25.7405405428
 21
6.8675610176
  0
LINE
  5
569
100
AcDbEntity
  8
RACCORDO
100
AcDbLine
 62
7
  6
CONTINUOUS
 10
44.9886879938
 20
6.9365463964
 11
26.3216408354
 21
6.9365463964
  0
LINE
  5
56A
100
AcDbEntity
  8
ASSI
100
AcDbLine
 62
7
  6
CONTINUOUS
 10
44.9886879938
 20
6.9365463964
 11
26.3216408354
 21
6.9365463964
  0
LINE
  5
56B
100
AcDbEntity
  8
RACCORDO
100
AcDbLine
 62
7
  6
CONTINUOUS
 10
25.6600644644
 20
6.948037096
 11
26.1301558473
 21
6.948037096
  0
LINE
  5
56C
100
AcDbEntity
  8
SCRITTE
100
AcDbLine
 62
253
  6
CONTINUOUS
 10
31.0301558712
 20
6.9588379869
 11
31.5301557996
 21
6.9588379869
  0
LINE
  5
56D
100
AcDbEntity
  8
SCRITTE
100
AcDbLine
 62
253
  6
CONTINUOUS
 10
32.2968225458
 20
6.9588379869
 11
32.8968225935
 21
6.9588379869
  0
LINE
  5
56E
100
AcDbEntity
  8
SCRITTE
100
AcDbLine
 62
253
  6
CONTINUOUS
 10
37.6968226411
 20
6.9588379869
 11
38.0968224504
 21
6.9588379869
  0
LINE
  5
56F
100
AcDbEntity
  8
SCRITTE
100
AcDbLine
 62
253
  6
CONTINUOUS
 10
42.4301552751
 20
6.9623287342
 11
41.8968226411
 21
6.9623287342
  0
LINE
  5
570
100
AcDbEntity
  8
SCRITTE
100
AcDbLine
 62
253
  6
CONTINUOUS
 10
30.4968225696
 20
6.9623287342
 11
29.9634891846
 21
6.9623287342
  0
LINE
  5
571
100
AcDbEntity
  8
RACCORDO
100
AcDbLine
 62
7
  6
CONTINUOUS
 10
44.8301558473
 20
6.9649467944
 11
45.0170883918
 21
6.9649467944
  0
LINE
  5
572
100
AcDbEntity
  8
ASSI
100
AcDbLine
 62
7
  6
CONTINUOUS
 10
44.8301558473
 20
6.9649467944
 11
45.0170883918
 21
6.9649467944
  0
LINE
  5
573
100
AcDbEntity
  8
SCRITTE
100
AcDbLine
 62
253
  6
CONTINUOUS
 10
39.3634889581
 20
6.9658194814
 11
38.6634889581
 21
6.9658194814
  0
LINE
  5
574
100
AcDbEntity
  8
SCRITTE
100
AcDbLine
 62
253
  6
CONTINUOUS
 10
32.2968225458
 20
6.9658194814
 11
32.696822355
 21
6.9658194814
  0
LINE
  5
575
100
AcDbEntity
  8
SCRITTE
100
AcDbLine
 62
253
  6
CONTINUOUS
 10
38.0968224504
 20
6.9710556018
 11
37.6968226411
 21
6.9710556018
  0
LINE
  5
576
100
AcDbEntity
  8
SCRITTE
100
AcDbLine
 62
253
  6
CONTINUOUS
 10
32.8968225935
 20
6.9710556018
 11
32.2968225458
 21
6.9710556018
  0
LINE
  5
577
100
AcDbEntity
  8
SCRITTE
100
AcDbLine
 62
253
  6
CONTINUOUS
 10
31.5301557996
 20
6.9710556018
 11
31.0301558712
 21
6.9710556018
  0
LINE
  5
578
100
AcDbEntity
  8
DRAFT
100
AcDbLine
 62
7
  6
CONTINUOUS
 10
44.7777746931
 20
6.978037096
 11
37.3825370016
 21
6.978037096
  0
LINE
  5
579
100
AcDbEntity
  8
RACCORDO
100
AcDbLine
 62
7
  6
CONTINUOUS
 10
25.6297903435
 20
6.978037096
 11
34.0301558473
 21
6.978037096
  0
LINE
  5
57A
100
AcDbEntity
  8
DRAFT
100
AcDbLine
 62
7
  6
CONTINUOUS
 10
34.0301558473
 20
6.978037096
 11
37.2301558473
 21
6.978037096
  0
LINE
  5
57B
100
AcDbEntity
  8
RACCORDO
100
AcDbLine
 62
7
  6
CONTINUOUS
 10
45.0829025053
 20
7.0304182503
 11
44.8301558473
 21
7.0304182503
  0
LINE
  5
57C
100
AcDbEntity
  8
RACCORDO
100
AcDbLine
 62
7
  6
CONTINUOUS
 10
44.5661839693
 20
6.97772346
 11
37.2301558473
 21
6.978037096
  0
LINE
  5
57D
100
AcDbEntity
  8
ASSI
100
AcDbLine
 62
7
  6
CONTINUOUS
 10
44.5661839693
 20
6.97772346
 11
26.2801501358
 21
6.978037096
  0
LINE
  5
57E
100
AcDbEntity
  8
SCRITTE
100
AcDbLine
 62
253
  6
CONTINUOUS
 10
31.7301557043
 20
6.9693102284
 11
31.5301557996
 21
6.9710556018
  0
LINE
  5
57F
100
AcDbEntity
  8
SCRITTE
100
AcDbLine
 62
253
  6
CONTINUOUS
 10
37.4968227365
 20
6.9605833605
 11
37.6968226411
 21
6.9588379869
  0
LINE
  5
580
100
AcDbEntity
  8
RACCORDO
100
AcDbLine
 62
7
  6
CONTINUOUS
 10
44.6522236128
 20
6.9771171332
 11
44.5661839693
 21
6.97772346
  0
LINE
  5
581
100
AcDbEntity
  8
ASSI
100
AcDbLine
 62
7
  6
CONTINUOUS
 10
44.6522236128
 20
6.9771171332
 11
44.5661839693
 21
6.97772346
  0
LINE
  5
582
100
AcDbEntity
  8
SCRITTE
100
AcDbLine
 62
253
  6
CONTINUOUS
 10
29.0301558652
 20
6.9640741076
 11
28.6301558473
 21
6.9710556018
  0
LINE
  5
583
100
AcDbEntity
  8
SCRITTE
100
AcDbLine
 62
253
  6
CONTINUOUS
 10
35.9968224504
 20
6.9588379869
 11
35.2968224504
 21
6.9710556018
  0
LINE
  5
584
100
AcDbEntity
  8
SCRITTE
100
AcDbLine
 62
253
  6
CONTINUOUS
 10
41.363488672
 20
6.9588379869
 11
40.663488672
 21
6.9710556018
  0
LINE
  5
585
100
AcDbEntity
  8
SCRITTE
100
AcDbLine
 62
253
  6
CONTINUOUS
 10
30.630155895
 20
6.9588379869
 11
30.2301559188
 21
6.9710556018
  0
LINE
  5
586
100
AcDbEntity
  8
SCRITTE
100
AcDbLine
 62
253
  6
CONTINUOUS
 10
42.563489435
 20
6.9588379869
 11
42.1634896257
 21
6.9710556018
  0
LWPOLYLINE
  5
587
100
AcDbEntity
  8
RACCORDO
100
AcDbPolyline
 62
7
  6
CONTINUOUS
 90
5
 70
0
 10
44.7228819092
 20
6.9756472147
 10
44.7170147787
 20
6.9759746377
 10
44.7070822656
 20
6.9762845631
 10
44.6930843699
 20
6.976576991
 10
44.6522236128
 20
6.9771171332
  0
LWPOLYLINE
  5
588
100
AcDbEntity
  8
ASSI
100
AcDbPolyline
 62
7
  6
CONTINUOUS
 90
5
 70
0
 10
44.7228819092
 20
6.9756472147
 10
44.7170147787
 20
6.9759746377
 10
44.7070822656
 20
6.9762845631
 10
44.6930843699
 20
6.976576991
 10
44.6522236128
 20
6.9771171332
  0
LWPOLYLINE
  5
589
100
AcDbEntity
  8
RACCORDO
100
AcDbPolyline
 62
7
  6
CONTINUOUS
 90
16
 70
0
 10
45.0170883918
 20
6.9649467944
 10
45.0809086795
 20
6.9613643567
 10
45.1427116668
 20
6.9515759434
 10
45.2024973536
 20
6.9355815543
 10
45.260871922
 20
6.9130722202
 10
45.3172291899
 20
6.8843569103
 10
45.3697506116
 20
6.8503625329
 10
45.4183110784
 20
6.8109169846
 10
45.4630356989
 20
6.7661923687
 10
45.5024812532
 20
6.7176319029
 10
45.5364756384
 20
6.6651104764
 10
45.5651909574
 20
6.6087532001
 10
45.5877002987
 20
6.5503786234
 10
45.603694692
 20
6.4905929294
 10
45.6134831076
 20
6.4287899352
 10
45.6170655456
 20
6.3649696405
  0
LWPOLYLINE
  5
58A
100
AcDbEntity
  8
ASSI
100
AcDbPolyline
 62
7
  6
CONTINUOUS
 90
16
 70
0
 10
45.0170883918
 20
6.9649467944
 10
45.0809086795
 20
6.9613643567
 10
45.1427116668
 20
6.9515759434
 10
45.2024973536
 20
6.9355815543
 10
45.260871922
 20
6.9130722202
 10
45.3172291899
 20
6.8843569103
 10
45.3697506116
 20
6.8503625329
 10
45.4183110784
 20
6.8109169846
 10
45.4630356989
 20
6.7661923687
 10
45.5024812532
 20
6.7176319029
 10
45.5364756384
 20
6.6651104764
 10
45.5651909574
 20
6.6087532001
 10
45.5877002987
 20
6.5503786234
 10
45.603694692
 20
6.4905929294
 10
45.6134831076
 20
6.4287899352
 10
45.6170655456
 20
6.3649696405
  0
LWPOLYLINE
  5
58B
100
AcDbEntity
  8
RACCORDO
100
AcDbPolyline
 62
7
  6
CONTINUOUS
 90
6
 70
0
 10
59.6301101512
 20
6.128037096
 10
59.6474845919
 20
6.1265207543
 10
59.6643291956
 20
6.1220083675
 10
59.6801319062
 20
6.1146382229
 10
59.6944127763
 20
6.1046352952
 10
59.7008297734
 20
6.0987540606
  0
LINE
  5
58C
100
AcDbEntity
  8
RACCORDO
100
AcDbLine
 62
7
  6
CONTINUOUS
 10
44.8301558473
 20
6.9649467944
 11
44.7228819092
 21
6.9756472147
  0
LINE
  5
58D
100
AcDbEntity
  8
ASSI
100
AcDbLine
 62
7
  6
CONTINUOUS
 10
44.8301558473
 20
6.9649467944
 11
44.7228819092
 21
6.9756472147
  0
LINE
  5
58E
100
AcDbEntity
  8
CURVE
100
AcDbLine
 62
253
  6
CONTINUOUS
 10
42.7015846231
 20
5.5923227677
 11
42.5944414594
 21
5.628037096
  0
LINE
  5
58F
100
AcDbEntity
  8
RACCORDO
100
AcDbLine
 62
253
  6
CONTINUOUS
 10
45.6170655456
 20
0.0911045516
 11
45.5886651476
 21
0.1195049495
  0
LINE
  5
590
100
AcDbEntity
  8
ASSI
100
AcDbLine
 62
253
  6
CONTINUOUS
 10
45.6170655456
 20
0.0911045516
 11
45.5886651476
 21
0.1195049495
  0
LINE
  5
591
100
AcDbEntity
  8
CURVE
100
AcDbLine
 62
253
  6
CONTINUOUS
 10
40.9872986534
 20
4.7708942453
 11
40.7730130413
 21
4.9851799915
  0
LINE
  5
592
100
AcDbEntity
  8
CURVE
100
AcDbLine
 62
253
  6
CONTINUOUS
 10
40.7730130413
 20
5.628037096
 11
40.9158699968
 21
5.4137513945
  0
LINE
  5
593
100
AcDbEntity
  8
CURVE
100
AcDbLine
 62
253
  6
CONTINUOUS
 10
41.6301558473
 20
4.2708942416
 11
41.6658699968
 21
4.1994656688
  0
LINE
  5
594
100
AcDbEntity
  8
CURVE
100
AcDbLine
 62
253
  6
CONTINUOUS
 10
41.7730131605
 20
4.3066085251
 11
41.737299011
 21
4.3780371035
  0
LINE
  5
595
100
AcDbEntity
  8
SCRITTE
100
AcDbLine
 62
253
  6
CONTINUOUS
 10
43.2614058473
 20
1.534287096
 11
43.3051558473
 21
1.446787096
  0
LINE
  5
596
100
AcDbEntity
  8
SCRITTE
100
AcDbLine
 62
253
  6
CONTINUOUS
 10
43.1301558473
 20
0.834287096
 11
43.1739058473
 21
0.703037096
  0
LINE
  5
597
100
AcDbEntity
  8
CURVE
100
AcDbLine
 62
253
  6
CONTINUOUS
 10
42.2730126836
 20
5.628037096
 11
42.2730126836
 21
4.128037096
  0
LINE
  5
598
100
AcDbEntity
  8
CURVE
100
AcDbLine
 62
253
  6
CONTINUOUS
 10
42.9158702352
 20
5.0923227976
 11
42.9158702352
 21
5.4137513945
  0
LINE
  5
599
100
AcDbEntity
  8
CURVE
100
AcDbLine
 62
253
  6
CONTINUOUS
 10
43.0230126836
 20
4.3423228199
 11
43.0230126836
 21
4.6637513945
  0
LINE
  5
59A
100
AcDbEntity
  8
SCRITTE
100
AcDbLine
 62
253
  6
CONTINUOUS
 10
43.1301558473
 20
0.965537096
 11
43.1301558473
 21
0.834287096
  0
LINE
  5
59B
100
AcDbEntity
  8
SCRITTE
100
AcDbLine
 62
253
  6
CONTINUOUS
 10
43.2614058473
 20
1.578037096
 11
43.2614058473
 21
1.534287096
  0
LINE
  5
59C
100
AcDbEntity
  8
SCRITTE
100
AcDbLine
 62
253
  6
CONTINUOUS
 10
43.3051558473
 20
1.709287096
 11
43.2614058473
 21
1.578037096
  0
LINE
  5
59D
100
AcDbEntity
  8
SCRITTE
100
AcDbLine
 62
253
  6
CONTINUOUS
 10
43.1739058473
 20
1.096787096
 11
43.1301558473
 21
0.965537096
  0
LINE
  5
59E
100
AcDbEntity
  8
RACCORDO
100
AcDbLine
 62
7
  6
CONTINUOUS
 10
45.612778963
 20
6.1194632778
 11
45.6170655456
 21
6.128037096
  0
LINE
  5
59F
100
AcDbEntity
  8
ASSI
100
AcDbLine
 62
7
  6
CONTINUOUS
 10
45.612778963
 20
6.1194632778
 11
45.6170655456
 21
6.128037096
  0
LINE
  5
5A0
100
AcDbEntity
  8
SCRITTE
100
AcDbLine
 62
253
  6
CONTINUOUS
 10
43.3926558473
 20
1.796787096
 11
43.3051558473
 21
1.709287096
  0
LINE
  5
5A1
100
AcDbEntity
  8
SCRITTE
100
AcDbLine
 62
253
  6
CONTINUOUS
 10
43.2614058473
 20
1.184287096
 11
43.1739058473
 21
1.096787096
  0
LINE
  5
5A2
100
AcDbEntity
  8
SCRITTE
100
AcDbLine
 62
253
  6
CONTINUOUS
 10
43.7864058473
 20
0.571787096
 11
43.9176558473
 21
0.659287096
  0
LINE
  5
5A3
100
AcDbEntity
  8
RACCORDO
100
AcDbLine
 62
7
  6
CONTINUOUS
 10
58.6950033926
 20
5.0735462362
 11
58.7472236907
 21
5.063404757
  0
LINE
  5
5A4
100
AcDbEntity
  8
ASSI
100
AcDbLine
 62
7
  6
CONTINUOUS
 10
58.6950033926
 20
5.0735462362
 11
58.7472236907
 21
5.063404757
  0
LINE
  5
5A5
100
AcDbEntity
  8
CURVE
100
AcDbLine
 62
253
  6
CONTINUOUS
 10
42.9158702352
 20
5.4137513945
 11
42.7015846231
 21
5.5923227677
  0
LINE
  5
5A6
100
AcDbEntity
  8
CURVE
100
AcDbLine
 62
253
  6
CONTINUOUS
 10
43.0230126836
 20
4.6637513945
 11
42.8087270715
 21
4.878037096
  0
LINE
  5
5A7
100
AcDbEntity
  8
RACCORDO
100
AcDbLine
 62
7
  6
CONTINUOUS
 10
45.6170655456
 20
0.328037096
 11
45.612778963
 21
0.3366109143
  0
LINE
  5
5A8
100
AcDbEntity
  8
ASSI
100
AcDbLine
 62
7
  6
CONTINUOUS
 10
45.6170655456
 20
0.328037096
 11
45.612778963
 21
0.3366109143
  0
LWPOLYLINE
  5
5A9
100
AcDbEntity
  8
RACCORDO
100
AcDbPolyline
 62
253
  6
CONTINUOUS
 90
19
 70
0
 10
45.0886841861
 20
6.3365692425
 10
45.0883003602
 20
6.3453048528
 10
45.0871802975
 20
6.3538736012
 10
45.0853239981
 20
6.3622754879
 10
45.0827072607
 20
6.3705804257
 10
45.0793542865
 20
6.3787185017
 10
45.0753376799
 20
6.3864799772
 10
45.070639031
 20
6.3938506015
 10
45.0652767496
 20
6.4008446252
 10
45.0593786695
 20
6.4072950624
 10
45.0529339717
 20
6.4131853305
 10
45.0459534751
 20
6.418532012
 10
45.0385974699
 20
6.4232178684
 10
45.0308530285
 20
6.4272281078
 10
45.0227330785
 20
6.430577522
 10
45.0144366928
 20
6.4331932481
 10
45.0060302289
 20
6.4350509984
 10
44.9974473292
 20
6.4361750607
 10
44.9886879938
 20
6.4365654348
  0
LWPOLYLINE
  5
5AA
100
AcDbEntity
  8
ASSI
100
AcDbPolyline
 62
253
  6
CONTINUOUS
 90
19
 70
0
 10
45.0886841861
 20
6.3365692425
 10
45.0883003602
 20
6.3453048528
 10
45.0871802975
 20
6.3538736012
 10
45.0853239981
 20
6.3622754879
 10
45.0827072607
 20
6.3705804257
 10
45.0793542865
 20
6.3787185017
 10
45.0753376799
 20
6.3864799772
 10
45.070639031
 20
6.3938506015
 10
45.0652767496
 20
6.4008446252
 10
45.0593786695
 20
6.4072950624
 10
45.0529339717
 20
6.4131853305
 10
45.0459534751
 20
6.418532012
 10
45.0385974699
 20
6.4232178684
 10
45.0308530285
 20
6.4272281078
 10
45.0227330785
 20
6.430577522
 10
45.0144366928
 20
6.4331932481
 10
45.0060302289
 20
6.4350509984
 10
44.9974473292
 20
6.4361750607
 10
44.9886879938
 20
6.4365654348
  0
LINE
  5
5AB
100
AcDbEntity
  8
DRAFT
100
AcDbLine
 62
7
  6
CONTINUOUS
 10
44.7777746931
 20
6.978037096
 11
44.7777746931
 21
6.9701717388
  0
LINE
  5
5AC
100
AcDbEntity
  8
DRAFT
100
AcDbLine
 62
7
  6
CONTINUOUS
 10
44.7777746931
 20
-0.5140975467
 11
44.7777746931
 21
-0.521962904
  0
LINE
  5
5AD
100
AcDbEntity
  8
DRAFT
100
AcDbLine
 62
7
  6
CONTINUOUS
 10
44.8301558473
 20
7.0304182503
 11
44.8301558473
 21
6.9649467944
  0
LINE
  5
5AE
100
AcDbEntity
  8
DRAFT
100
AcDbLine
 62
7
  6
CONTINUOUS
 10
44.8301558473
 20
-0.5088726023
 11
44.8301558473
 21
-0.5743440582
  0
LINE
  5
5AF
100
AcDbEntity
  8
DRAFT
100
AcDbLine
 62
7
  6
CONTINUOUS
 10
44.8301558473
 20
0.278037096
 11
44.8301558473
 21
6.178037096
  0
LINE
  5
5B0
100
AcDbEntity
  8
ASSI
100
AcDbLine
 62
7
  6
CONTINUOUS
 10
44.8301558473
 20
0.278037096
 11
44.8301558473
 21
6.178037096
  0
LINE
  5
5B1
100
AcDbEntity
  8
DRAFT
100
AcDbLine
 62
7
  6
CONTINUOUS
 10
44.8336468603
 20
0.2745460831
 11
44.8336468603
 21
6.181528109
  0
LINE
  5
5B2
100
AcDbEntity
  8
ASSI
100
AcDbLine
 62
7
  6
CONTINUOUS
 10
44.8336468603
 20
0.2745460831
 11
44.8336468603
 21
6.181528109
  0
LINE
  5
5B3
100
AcDbEntity
  8
RACCORDO
100
AcDbLine
 62
253
  6
CONTINUOUS
 10
44.9886879938
 20
0.0195087572
 11
44.9886879873
 21
-0.4804722043
  0
LINE
  5
5B4
100
AcDbEntity
  8
ASSI
100
AcDbLine
 62
253
  6
CONTINUOUS
 10
44.9886879938
 20
0.0195087572
 11
44.9886879873
 21
-0.4804722043
  0
LINE
  5
5B5
100
AcDbEntity
  8
RACCORDO
100
AcDbLine
 62
253
  6
CONTINUOUS
 10
44.9886879938
 20
6.4365654348
 11
44.9886879938
 21
6.9365463964
  0
LINE
  5
5B6
100
AcDbEntity
  8
ASSI
100
AcDbLine
 62
253
  6
CONTINUOUS
 10
44.9886879938
 20
6.4365654348
 11
44.9886879938
 21
6.9365463964
  0
LINE
  5
5B7
100
AcDbEntity
  8
RACCORDO
100
AcDbLine
 62
253
  6
CONTINUOUS
 10
45.0886841861
 20
0.1195049495
 11
45.0886841861
 21
6.3365692425
  0
LINE
  5
5B8
100
AcDbEntity
  8
ASSI
100
AcDbLine
 62
253
  6
CONTINUOUS
 10
45.0886841861
 20
0.1195049495
 11
45.0886841861
 21
6.3365692425
  0
LINE
  5
5B9
100
AcDbEntity
  8
SCRITTE
100
AcDbLine
 62
253
  6
CONTINUOUS
 10
43.9176558473
 20
0.659287096
 11
44.0051558473
 21
0.746787096
  0
LWPOLYLINE
  5
5BA
100
AcDbEntity
  8
RACCORDO
100
AcDbPolyline
 62
7
  6
CONTINUOUS
 90
10
 70
0
 10
45.612778963
 20
0.3366109143
 10
45.6125578046
 20
0.3373757496
 10
45.6123371682
 20
0.338778957
 10
45.612117054
 20
0.3408205364
 10
45.6118973214
 20
0.3435026164
 10
45.6116781109
 20
0.3468230683
 10
45.6114598439
 20
0.3507755072
 10
45.6112426609
 20
0.3553578045
 10
45.6110264214
 20
0.3605720887
 10
45.6108111254
 20
0.3664183599
  0
LWPOLYLINE
  5
5BB
100
AcDbEntity
  8
ASSI
100
AcDbPolyline
 62
7
  6
CONTINUOUS
 90
10
 70
0
 10
45.612778963
 20
0.3366109143
 10
45.6125578046
 20
0.3373757496
 10
45.6123371682
 20
0.338778957
 10
45.612117054
 20
0.3408205364
 10
45.6118973214
 20
0.3435026164
 10
45.6116781109
 20
0.3468230683
 10
45.6114598439
 20
0.3507755072
 10
45.6112426609
 20
0.3553578045
 10
45.6110264214
 20
0.3605720887
 10
45.6108111254
 20
0.3664183599
  0
LWPOLYLINE
  5
5BC
100
AcDbEntity
  8
RACCORDO
100
AcDbPolyline
 62
7
  6
CONTINUOUS
 90
16
 70
0
 10
45.6825370016
 20
6.4307837541
 10
45.6789524147
 20
6.4946086885
 10
45.6691682189
 20
6.5564055714
 10
45.6531844141
 20
6.6161744029
 10
45.6306920795
 20
6.674518191
 10
45.602000136
 20
6.7308339277
 10
45.5680353457
 20
6.7833125884
 10
45.5286280195
 20
6.8318297626
 10
45.4839478467
 20
6.8765098609
 10
45.435430657
 20
6.9159170903
 10
45.3829520725
 20
6.9498817563
 10
45.3266364712
 20
6.9785735533
 10
45.2682928174
 20
7.0010657722
 10
45.2085240992
 20
7.0170495097
 10
45.1467273285
 20
7.0268336691
 10
45.0829025053
 20
7.0304182503
  0
LWPOLYLINE
  5
5BD
100
AcDbEntity
  8
RACCORDO
100
AcDbPolyline
 62
253
  6
CONTINUOUS
 90
19
 70
0
 10
45.5886651476
 20
6.3365692425
 10
45.5863789304
 20
6.3888588316
 10
45.5795442967
 20
6.4407504312
 10
45.5682132633
 20
6.4918491577
 10
45.5524720687
 20
6.5417661564
 10
45.5324405023
 20
6.590121574
 10
45.5082709869
 20
6.6365474468
 10
45.4801474499
 20
6.680690474
 10
45.448283905
 20
6.7222147393
 10
45.4129227948
 20
6.7608042714
 10
45.3743331513
 20
6.7961654369
 10
45.3328086725
 20
6.8280290828
 10
45.2886654825
 20
6.8561526454
 10
45.2422395812
 20
6.8803220957
 10
45.1938842165
 20
6.9003535683
 10
45.1439673227
 20
6.9160946694
 10
45.0928687415
 20
6.9274256237
 10
45.0409773383
 20
6.9342602009
 10
44.9886879938
 20
6.9365463964
  0
LWPOLYLINE
  5
5BE
100
AcDbEntity
  8
ASSI
100
AcDbPolyline
 62
253
  6
CONTINUOUS
 90
19
 70
0
 10
45.5886651476
 20
6.3365692425
 10
45.5863789304
 20
6.3888588316
 10
45.5795442967
 20
6.4407504312
 10
45.5682132633
 20
6.4918491577
 10
45.5524720687
 20
6.5417661564
 10
45.5324405023
 20
6.590121574
 10
45.5082709869
 20
6.6365474468
 10
45.4801474499
 20
6.680690474
 10
45.448283905
 20
6.7222147393
 10
45.4129227948
 20
6.7608042714
 10
45.3743331513
 20
6.7961654369
 10
45.3328086725
 20
6.8280290828
 10
45.2886654825
 20
6.8561526454
 10
45.2422395812
 20
6.8803220957
 10
45.1938842165
 20
6.9003535683
 10
45.1439673227
 20
6.9160946694
 10
45.0928687415
 20
6.9274256237
 10
45.0409773383
 20
6.9342602009
 10
44.9886879938
 20
6.9365463964
  0
LINE
  5
5BF
100
AcDbEntity
  8
RACCORDO
100
AcDbLine
 62
7
  6
CONTINUOUS
 10
45.6095008115
 20
0.4082898021
 11
45.6108111254
 21
0.3664183599
  0
LINE
  5
5C0
100
AcDbEntity
  8
ASSI
100
AcDbLine
 62
7
  6
CONTINUOUS
 10
45.6095008115
 20
0.4082898021
 11
45.6108111254
 21
0.3664183599
  0
LINE
  5
5C1
100
AcDbEntity
  8
RACCORDO
100
AcDbLine
 62
7
  6
CONTINUOUS
 10
45.6069610491
 20
0.5147625457
 11
45.6095008115
 21
0.4082898021
  0
LINE
  5
5C2
100
AcDbEntity
  8
ASSI
100
AcDbLine
 62
7
  6
CONTINUOUS
 10
45.6069610491
 20
0.5147625457
 11
45.6095008115
 21
0.4082898021
  0
LINE
  5
5C3
100
AcDbEntity
  8
RACCORDO
100
AcDbLine
 62
7
  6
CONTINUOUS
 10
45.6033535688
 20
0.7312963092
 11
45.6069610491
 21
0.5147625457
  0
LINE
  5
5C4
100
AcDbEntity
  8
ASSI
100
AcDbLine
 62
7
  6
CONTINUOUS
 10
45.6033535688
 20
0.7312963092
 11
45.6069610491
 21
0.5147625457
  0
LINE
  5
5C5
100
AcDbEntity
  8
RACCORDO
100
AcDbLine
 62
7
  6
CONTINUOUS
 10
45.5991022814
 20
1.1148555932
 11
45.6033535688
 21
0.7312963092
  0
LINE
  5
5C6
100
AcDbEntity
  8
ASSI
100
AcDbLine
 62
7
  6
CONTINUOUS
 10
45.5991022814
 20
1.1148555932
 11
45.6033535688
 21
0.7312963092
  0
LINE
  5
5C7
100
AcDbEntity
  8
RACCORDO
100
AcDbLine
 62
7
  6
CONTINUOUS
 10
45.5991022814
 20
1.1148555932
 11
45.5961636848
 21
1.5362102353
  0
LINE
  5
5C8
100
AcDbEntity
  8
ASSI
100
AcDbLine
 62
7
  6
CONTINUOUS
 10
45.5991022814
 20
1.1148555932
 11
45.5961636848
 21
1.5362102353
  0
LINE
  5
5C9
100
AcDbEntity
  8
RACCORDO
100
AcDbLine
 62
7
  6
CONTINUOUS
 10
45.5886651476
 20
0.1195049495
 11
45.5886651476
 21
6.3365692425
  0
LINE
  5
5CA
100
AcDbEntity
  8
ASSI
100
AcDbLine
 62
7
  6
CONTINUOUS
 10
45.5886651476
 20
0.1195049495
 11
45.5886651476
 21
6.3365692425
  0
LINE
  5
5CB
100
AcDbEntity
  8
RACCORDO
100
AcDbLine
 62
7
  6
CONTINUOUS
 10
45.5961636848
 20
1.5362102353
 11
45.5952483762
 21
4.4740306755
  0
LINE
  5
5CC
100
AcDbEntity
  8
ASSI
100
AcDbLine
 62
7
  6
CONTINUOUS
 10
45.5961636848
 20
1.5362102353
 11
45.5952483762
 21
4.4740306755
  0
LINE
  5
5CD
100
AcDbEntity
  8
RACCORDO
100
AcDbLine
 62
7
  6
CONTINUOUS
 10
45.6170655456
 20
6.3649696405
 11
45.6170655456
 21
6.128037096
  0
LINE
  5
5CE
100
AcDbEntity
  8
ASSI
100
AcDbLine
 62
7
  6
CONTINUOUS
 10
45.6170655456
 20
6.3649696405
 11
45.6170655456
 21
6.128037096
  0
LINE
  5
5CF
100
AcDbEntity
  8
RACCORDO
100
AcDbLine
 62
7
  6
CONTINUOUS
 10
45.6170655456
 20
0.328037096
 11
45.6170655456
 21
0.0911045516
  0
LINE
  5
5D0
100
AcDbEntity
  8
ASSI
100
AcDbLine
 62
7
  6
CONTINUOUS
 10
45.6170655456
 20
0.328037096
 11
45.6170655456
 21
0.0911045516
  0
LINE
  5
5D1
100
AcDbEntity
  8
RACCORDO
100
AcDbLine
 62
7
  6
CONTINUOUS
 10
45.6825370016
 20
0.025290438
 11
45.6825370016
 21
0.328037096
  0
LINE
  5
5D2
100
AcDbEntity
  8
RACCORDO
100
AcDbLine
 62
7
  6
CONTINUOUS
 10
45.6825370016
 20
6.128037096
 11
45.6825370016
 21
6.4307837541
  0
LINE
  5
5D3
100
AcDbEntity
  8
RACCORDO
100
AcDbLine
 62
7
  6
CONTINUOUS
 10
45.5952483762
 20
4.4740306755
 11
45.5961636848
 21
4.9198639568
  0
LINE
  5
5D4
100
AcDbEntity
  8
ASSI
100
AcDbLine
 62
7
  6
CONTINUOUS
 10
45.5952483762
 20
4.4740306755
 11
45.5961636848
 21
4.9198639568
  0
LINE
  5
5D5
100
AcDbEntity
  8
RACCORDO
100
AcDbLine
 62
7
  6
CONTINUOUS
 10
45.5991022813
 20
5.3412185957
 11
45.5961636848
 21
4.9198639568
  0
LINE
  5
5D6
100
AcDbEntity
  8
ASSI
100
AcDbLine
 62
7
  6
CONTINUOUS
 10
45.5991022813
 20
5.3412185957
 11
45.5961636848
 21
4.9198639568
  0
LINE
  5
5D7
100
AcDbEntity
  8
RACCORDO
100
AcDbLine
 62
7
  6
CONTINUOUS
 10
45.6033535688
 20
5.7247778793
 11
45.5991022813
 21
5.3412185957
  0
LINE
  5
5D8
100
AcDbEntity
  8
ASSI
100
AcDbLine
 62
7
  6
CONTINUOUS
 10
45.6033535688
 20
5.7247778793
 11
45.5991022813
 21
5.3412185957
  0
LINE
  5
5D9
100
AcDbEntity
  8
RACCORDO
100
AcDbLine
 62
7
  6
CONTINUOUS
 10
45.606961049
 20
5.9413116424
 11
45.6033535688
 21
5.7247778793
  0
LINE
  5
5DA
100
AcDbEntity
  8
ASSI
100
AcDbLine
 62
7
  6
CONTINUOUS
 10
45.606961049
 20
5.9413116424
 11
45.6033535688
 21
5.7247778793
  0
LWPOLYLINE
  5
5DB
100
AcDbEntity
  8
RACCORDO
100
AcDbPolyline
 62
7
  6
CONTINUOUS
 90
3
 70
0
 10
45.6108111254
 20
6.0896558322
 10
45.6095008115
 20
6.0477843882
 10
45.606961049
 20
5.9413116424
  0
LWPOLYLINE
  5
5DC
100
AcDbEntity
  8
ASSI
100
AcDbPolyline
 62
7
  6
CONTINUOUS
 90
3
 70
0
 10
45.6108111254
 20
6.0896558322
 10
45.6095008115
 20
6.0477843882
 10
45.606961049
 20
5.9413116424
  0
LWPOLYLINE
  5
5DD
100
AcDbEntity
  8
RACCORDO
100
AcDbPolyline
 62
7
  6
CONTINUOUS
 90
10
 70
0
 10
45.6108111254
 20
6.0896558322
 10
45.6110264214
 20
6.0955021033
 10
45.6112426609
 20
6.1007163876
 10
45.6114598439
 20
6.1052986849
 10
45.6116781109
 20
6.1092511238
 10
45.6118973214
 20
6.1125715757
 10
45.612117054
 20
6.1152536556
 10
45.6123371682
 20
6.1172952351
 10
45.6125578046
 20
6.1186984425
 10
45.612778963
 20
6.1194632778
  0
LWPOLYLINE
  5
5DE
100
AcDbEntity
  8
ASSI
100
AcDbPolyline
 62
7
  6
CONTINUOUS
 90
10
 70
0
 10
45.6108111254
 20
6.0896558322
 10
45.6110264214
 20
6.0955021033
 10
45.6112426609
 20
6.1007163876
 10
45.6114598439
 20
6.1052986849
 10
45.6116781109
 20
6.1092511238
 10
45.6118973214
 20
6.1125715757
 10
45.612117054
 20
6.1152536556
 10
45.6123371682
 20
6.1172952351
 10
45.6125578046
 20
6.1186984425
 10
45.612778963
 20
6.1194632778
  0
LWPOLYLINE
  5
5DF
100
AcDbEntity
  8
RACCORDO
100
AcDbPolyline
 62
7
  6
CONTINUOUS
 90
16
 70
0
 10
45.6170655456
 20
0.0911045516
 10
45.613483108
 20
0.0272842639
 10
45.6036946946
 20
-0.0345187234
 10
45.5877003056
 20
-0.0943044103
 10
45.5651909714
 20
-0.1526789786
 10
45.5364756616
 20
-0.2090362465
 10
45.5024812841
 20
-0.2615576682
 10
45.4630357359
 20
-0.310118135
 10
45.41831112
 20
-0.3548427556
 10
45.3697506541
 20
-0.3942883099
 10
45.3172292277
 20
-0.4282826951
 10
45.2608719514
 20
-0.456998014
 10
45.2024973746
 20
-0.4795073554
 10
45.1427116807
 20
-0.4955017486
 10
45.0809086864
 20
-0.5052901643
 10
45.0170883918
 20
-0.5088726023
  0
LWPOLYLINE
  5
5E0
100
AcDbEntity
  8
ASSI
100
AcDbPolyline
 62
7
  6
CONTINUOUS
 90
16
 70
0
 10
45.6170655456
 20
0.0911045516
 10
45.613483108
 20
0.0272842639
 10
45.6036946946
 20
-0.0345187234
 10
45.5877003056
 20
-0.0943044103
 10
45.5651909714
 20
-0.1526789786
 10
45.5364756616
 20
-0.2090362465
 10
45.5024812841
 20
-0.2615576682
 10
45.4630357359
 20
-0.310118135
 10
45.41831112
 20
-0.3548427556
 10
45.3697506541
 20
-0.3942883099
 10
45.3172292277
 20
-0.4282826951
 10
45.2608719514
 20
-0.456998014
 10
45.2024973746
 20
-0.4795073554
 10
45.1427116807
 20
-0.4955017486
 10
45.0809086864
 20
-0.5052901643
 10
45.0170883918
 20
-0.5088726023
  0
LWPOLYLINE
  5
5E1
100
AcDbEntity
  8
RACCORDO
100
AcDbPolyline
 62
253
  6
CONTINUOUS
 90
22
 70
0
 10
59.5996137391
 20
4.7903359756
 10
59.6058394621
 20
4.7935669807
 10
59.6120230196
 20
4.7970417792
 10
59.6181446584
 20
4.8007603712
 10
59.6241815601
 20
4.8047211434
 10
59.630114064
 20
4.808925709
 10
59.6359249324
 20
4.8133789076
 10
59.6415899309
 20
4.8180838211
 10
59.6470831341
 20
4.8230373676
 10
59.65238191
 20
4.8282351403
 10
59.6574567473
 20
4.8336793279
 10
59.6622801479
 20
4.8393677416
 10
59.6668288752
 20
4.8452894085
 10
59.6710686996
 20
4.8514456505
 10
59.6749689319
 20
4.8578351456
 10
59.6785052624
 20
4.8644429545
 10
59.6816355281
 20
4.8712642282
 10
59.6843269556
 20
4.8783038156
 10
59.6865541559
 20
4.8855613242
 10
59.6882700674
 20
4.8930366232
 10
59.6894182652
 20
4.9007298433
 10
59.6899479705
 20
4.9086409847
  0
LINE
  5
5E2
100
AcDbEntity
  8
RACCORDO
100
AcDbLine
 62
253
  6
CONTINUOUS
 10
59.4899787324
 20
4.7355184392
 11
59.5996137391
 21
4.7903359756
  0
LINE
  5
5E3
100
AcDbEntity
  8
RACCORDO
100
AcDbLine
 62
253
  6
CONTINUOUS
 10
59.5996137391
 20
1.6657382452
 11
59.4899787324
 21
1.7205557529
  0
LINE
  5
5E4
100
AcDbEntity
  8
RACCORDO
100
AcDbLine
 62
7
  6
CONTINUOUS
 10
58.7491918421
 20
6.1185219986
 11
58.7335260525
 21
6.1263525068
  0
LINE
  5
5E5
100
AcDbEntity
  8
ASSI
100
AcDbLine
 62
7
  6
CONTINUOUS
 10
50.9301558473
 20
2.728037096
 11
50.9301558473
 21
3.728037096
  0
LINE
  5
5E6
100
AcDbEntity
  8
RACCORDO
100
AcDbLine
 62
7
  6
CONTINUOUS
 10
58.6301558473
 20
6.128037096
 11
58.6215820291
 21
6.1194632778
  0
LINE
  5
5E7
100
AcDbEntity
  8
ASSI
100
AcDbLine
 62
7
  6
CONTINUOUS
 10
58.6301558473
 20
6.128037096
 11
58.6215820291
 21
6.1194632778
  0
LINE
  5
5E8
100
AcDbEntity
  8
RACCORDO
100
AcDbLine
 62
7
  6
CONTINUOUS
 10
58.7491918421
 20
0.3375521935
 11
58.7335260525
 21
0.3297216852
  0
LINE
  5
5E9
100
AcDbEntity
  8
RACCORDO
100
AcDbLine
 62
7
  6
CONTINUOUS
 10
58.6301558473
 20
0.328037096
 11
58.6215820291
 21
0.3366109143
  0
LINE
  5
5EA
100
AcDbEntity
  8
ASSI
100
AcDbLine
 62
7
  6
CONTINUOUS
 10
58.6301558473
 20
0.328037096
 11
58.6215820291
 21
0.3366109143
  0
LINE
  5
5EB
100
AcDbEntity
  8
RACCORDO
100
AcDbLine
 62
253
  6
CONTINUOUS
 10
59.620655852
 20
0.3375523219
 11
59.6301710778
 21
0.328037096
  0
LINE
  5
5EC
100
AcDbEntity
  8
RACCORDO
100
AcDbLine
 62
253
  6
CONTINUOUS
 10
59.7206407499
 20
0.437536963
 11
59.730125384
 21
0.4280523288
  0
LINE
  5
5ED
100
AcDbEntity
  8
ASSI
100
AcDbLine
 62
7
  6
CONTINUOUS
 10
51.9884563717
 20
2.728037096
 11
51.9884563717
 21
3.728037096
  0
LWPOLYLINE
  5
5EE
100
AcDbEntity
  8
RACCORDO
100
AcDbPolyline
 62
7
  6
CONTINUOUS
 90
13
 70
0
 10
58.6301558473
 20
5.078037096
 10
58.6289474976
 20
5.0767297299
 10
58.6277444235
 20
5.0728658458
 10
58.626546625
 20
5.0664454438
 10
58.6253525368
 20
5.0574524904
 10
58.6241637243
 20
5.0459030191
 10
58.6229848831
 20
5.0318451307
 10
58.6218159627
 20
5.0152681831
 10
58.6206570135
 20
4.9961828184
 10
58.6195128833
 20
4.9746690629
 10
58.6183836549
 20
4.9507173294
 10
58.6172692454
 20
4.9243372051
 10
58.6150987566
 20
4.8646088223
  0
LWPOLYLINE
  5
5EF
100
AcDbEntity
  8
ASSI
100
AcDbPolyline
 62
7
  6
CONTINUOUS
 90
13
 70
0
 10
58.6301558473
 20
5.078037096
 10
58.6289474976
 20
5.0767297299
 10
58.6277444235
 20
5.0728658458
 10
58.626546625
 20
5.0664454438
 10
58.6253525368
 20
5.0574524904
 10
58.6241637243
 20
5.0459030191
 10
58.6229848831
 20
5.0318451307
 10
58.6218159627
 20
5.0152681831
 10
58.6206570135
 20
4.9961828184
 10
58.6195128833
 20
4.9746690629
 10
58.6183836549
 20
4.9507173294
 10
58.6172692454
 20
4.9243372051
 10
58.6150987566
 20
4.8646088223
  0
LWPOLYLINE
  5
5F0
100
AcDbEntity
  8
RACCORDO
100
AcDbPolyline
 62
253
  6
CONTINUOUS
 90
22
 70
0
 10
59.5447962687
 20
4.845153446
 10
59.5479260532
 20
4.8484985011
 10
59.5510141826
 20
4.852096428
 10
59.554060657
 20
4.8559464806
 10
59.5570761384
 20
4.8600449488
 10
59.5600499648
 20
4.8643938885
 10
59.5629501503
 20
4.8690010871
 10
59.5657786896
 20
4.8738686744
 10
59.568533588
 20
4.8789924324
 10
59.5711768758
 20
4.8843705044
 10
59.5737099135
 20
4.8900037528
 10
59.5761313405
 20
4.8958888508
 10
59.5783991048
 20
4.9020175969
 10
59.5805150883
 20
4.908390003
 10
59.582477409
 20
4.9150032729
 10
59.5842383695
 20
4.9218449927
 10
59.5858012016
 20
4.928908572
 10
59.5871626735
 20
4.9361975866
 10
59.5882653916
 20
4.943714813
 10
59.589090225
 20
4.9514600036
 10
59.5896563047
 20
4.9594299177
 10
59.5899636308
 20
4.9676227118
  0
LINE
  5
5F1
100
AcDbEntity
  8
RACCORDO
100
AcDbLine
 62
253
  6
CONTINUOUS
 10
59.6301710778
 20
6.128037096
 11
59.620655852
 21
6.1185218702
  0
LINE
  5
5F2
100
AcDbEntity
  8
RACCORDO
100
AcDbLine
 62
253
  6
CONTINUOUS
 10
59.730125384
 20
6.0280218632
 11
59.7206407499
 21
6.0185372291
  0
LINE
  5
5F3
100
AcDbEntity
  8
RACCORDO
100
AcDbLine
 62
7
  6
CONTINUOUS
 10
59.7295770448
 20
5.1277477168
 11
59.7336365375
 21
5.1318072095
  0
LWPOLYLINE
  5
5F4
100
AcDbEntity
  8
RACCORDO
100
AcDbPolyline
 62
253
  6
CONTINUOUS
 90
10
 70
0
 10
59.5447962687
 20
4.8451534402
 10
59.5515726156
 20
4.8401990418
 10
59.5582959796
 20
4.8348547654
 10
59.5649137908
 20
4.8291623978
 10
59.5713743048
 20
4.8231664476
 10
59.5776270067
 20
4.8169137972
 10
59.5836230068
 20
4.8104533359
 10
59.5893154223
 20
4.8038355782
 10
59.5946597443
 20
4.7971122683
 10
59.5996141856
 20
4.7903359757
  0
LINE
  5
5F5
100
AcDbEntity
  8
RACCORDO
100
AcDbLine
 62
7
  6
CONTINUOUS
 10
59.7336365375
 20
1.3242669825
 11
59.7295770448
 21
1.3283264752
  0
LWPOLYLINE
  5
5F6
100
AcDbEntity
  8
RACCORDO
100
AcDbPolyline
 62
253
  6
CONTINUOUS
 90
22
 70
0
 10
59.54479624
 20
1.6109207461
 10
59.5480001769
 20
1.6074903018
 10
59.5511530424
 20
1.6038075316
 10
59.5542548365
 20
1.5998731984
 10
59.5573172802
 20
1.5956870163
 10
59.5603286525
 20
1.5912509688
 10
59.5632537905
 20
1.586569296
 10
59.5660923771
 20
1.5816421398
 10
59.5688447294
 20
1.5764713745
 10
59.5714766354
 20
1.5710638882
 10
59.5739888455
 20
1.5654201265
 10
59.5763806093
 20
1.5595419541
 10
59.5786154632
 20
1.5534384101
 10
59.5806946976
 20
1.547114576
 10
59.5826170223
 20
1.540567927
 10
59.5843421028
 20
1.5337961596
 10
59.5858584069
 20
1.5269441835
 10
59.5871774669
 20
1.5198694478
 10
59.5882935457
 20
1.5121413037
 10
59.5892047311
 20
1.5036207429
 10
59.5899129354
 20
1.4944573689
 10
59.5904181585
 20
1.484656854
  0
LWPOLYLINE
  5
5F7
100
AcDbEntity
  8
RACCORDO
100
AcDbPolyline
 62
7
  6
CONTINUOUS
 90
3
 70
0
 10
59.2507889627
 20
1.6583718971
 10
59.263095595
 20
1.6706397904
 10
59.3004151051
 20
1.7080593549
  0
LINE
  5
5F8
100
AcDbEntity
  8
RACCORDO
100
AcDbLine
 62
7
  6
CONTINUOUS
 10
59.3004151051
 20
1.7080593549
 11
59.3129985598
 21
1.7205557529
  0
LWPOLYLINE
  5
5F9
100
AcDbEntity
  8
RACCORDO
100
AcDbPolyline
 62
7
  6
CONTINUOUS
 90
3
 70
0
 10
59.203363553
 20
1.6109207461
 10
59.2149559857
 20
1.6224061172
 10
59.2507889627
 20
1.6583718971
  0
LWPOLYLINE
  5
5FA
100
AcDbEntity
  8
RACCORDO
100
AcDbPolyline
 62
7
  6
CONTINUOUS
 90
10
 70
0
 10
58.7491918421
 20
6.1185219986
 10
58.7495863554
 20
6.1181967283
 10
58.7499801133
 20
6.1176174166
 10
58.7503731158
 20
6.1167840635
 10
58.7507655644
 20
6.1156959772
 10
58.7511572575
 20
6.1143538495
 10
58.7515475905
 20
6.1127597557
 10
58.7519363619
 20
6.1109143878
 10
58.7523237732
 20
6.1088170539
 10
58.7527098244
 20
6.106467754
  0
LWPOLYLINE
  5
5FB
100
AcDbEntity
  8
RACCORDO
100
AcDbPolyline
 62
7
  6
CONTINUOUS
 90
3
 70
0
 10
59.2508147041
 20
4.7977280363
 10
59.2148489241
 20
4.8335610133
 10
59.203363553
 20
4.845153446
  0
LWPOLYLINE
  5
5FC
100
AcDbEntity
  8
RACCORDO
100
AcDbPolyline
 62
7
  6
CONTINUOUS
 90
3
 70
0
 10
59.3005021618
 20
4.7481018939
 10
59.2630825974
 20
4.785421404
 10
59.2508147041
 20
4.7977280363
  0
LINE
  5
5FD
100
AcDbEntity
  8
RACCORDO
100
AcDbLine
 62
7
  6
CONTINUOUS
 10
59.3129985598
 20
4.7355184392
 11
59.3005021618
 21
4.7481018939
  0
LWPOLYLINE
  5
5FE
100
AcDbEntity
  8
RACCORDO
100
AcDbPolyline
 62
7
  6
CONTINUOUS
 90
10
 70
0
 10
58.6215820291
 20
6.1194632778
 10
58.6211396771
 20
6.1186984369
 10
58.6206983697
 20
6.1172952235
 10
58.6202581069
 20
6.1152536377
 10
58.6198186076
 20
6.1125715487
 10
58.6193801529
 20
6.1092510873
 10
58.6189435859
 20
6.1052986457
 10
58.6185091876
 20
6.1007163547
 10
58.618076677
 20
6.0955020836
 10
58.6176460541
 20
6.0896558322
  0
LWPOLYLINE
  5
5FF
100
AcDbEntity
  8
ASSI
100
AcDbPolyline
 62
7
  6
CONTINUOUS
 90
10
 70
0
 10
58.6215820291
 20
6.1194632778
 10
58.6211396771
 20
6.1186984369
 10
58.6206983697
 20
6.1172952235
 10
58.6202581069
 20
6.1152536377
 10
58.6198186076
 20
6.1125715487
 10
58.6193801529
 20
6.1092510873
 10
58.6189435859
 20
6.1052986457
 10
58.6185091876
 20
6.1007163547
 10
58.618076677
 20
6.0955020836
 10
58.6176460541
 20
6.0896558322
  0
LWPOLYLINE
  5
600
100
AcDbEntity
  8
RACCORDO
100
AcDbPolyline
 62
7
  6
CONTINUOUS
 90
10
 70
0
 10
58.858231911
 20
1.1850509808
 10
58.8473960097
 20
1.1729605609
 10
58.8375797302
 20
1.1601760219
 10
58.8287830727
 20
1.1467113826
 10
58.8209186329
 20
1.1325390105
 10
58.814073815
 20
1.1177181744
 10
58.8085108317
 20
1.1023919802
 10
58.8043170872
 20
1.0866171712
 10
58.8014051772
 20
1.0703672347
 10
58.7997751019
 20
1.0536587816
  0
LWPOLYLINE
  5
601
100
AcDbEntity
  8
RACCORDO
100
AcDbPolyline
 62
7
  6
CONTINUOUS
 90
9
 70
0
 10
59.203363553
 20
1.6109207461
 10
59.1995159608
 20
1.6069763779
 10
59.1957474316
 20
1.6029382578
 10
59.1920579655
 20
1.5988067141
 10
59.1884477214
 20
1.5945792906
 10
59.1849165403
 20
1.5902591345
 10
59.1814639456
 20
1.5858549643
 10
59.1780897785
 20
1.5813698992
 10
59.1747941978
 20
1.5768014921
  0
LINE
  5
602
100
AcDbEntity
  8
RACCORDO
100
AcDbLine
 62
253
  6
CONTINUOUS
 10
59.7336365375
 20
0.4315634823
 11
59.730125384
 21
0.4280523288
  0
LINE
  5
603
100
AcDbEntity
  8
RACCORDO
100
AcDbLine
 62
253
  6
CONTINUOUS
 10
59.730125384
 20
6.0280218632
 11
59.7336365375
 21
6.0245107097
  0
LWPOLYLINE
  5
604
100
AcDbEntity
  8
RACCORDO
100
AcDbPolyline
 62
7
  6
CONTINUOUS
 90
6
 70
0
 10
58.858231911
 20
5.2710232113
 10
58.9160901378
 20
5.2088417815
 10
58.97169476
 20
5.1457263161
 10
59.0250457777
 20
5.0816768149
 10
59.0761431909
 20
5.0166932781
 10
59.1249869995
 20
4.9507757056
  0
LINE
  5
605
100
AcDbEntity
  8
RACCORDO
100
AcDbLine
 62
253
  6
CONTINUOUS
 10
59.7067382578
 20
6.0923046245
 11
59.7102541141
 21
6.0887916113
  0
LWPOLYLINE
  5
606
100
AcDbEntity
  8
RACCORDO
100
AcDbPolyline
 62
7
  6
CONTINUOUS
 90
6
 70
0
 10
59.7008297734
 20
6.0987540606
 10
59.7067382578
 20
6.0923046245
 10
59.7167343077
 20
6.0780219523
 10
59.7240980641
 20
6.0622218853
 10
59.728607012
 20
6.0453846742
 10
59.730125384
 20
6.0280218632
  0
LWPOLYLINE
  5
607
100
AcDbEntity
  8
RACCORDO
100
AcDbPolyline
 62
253
  6
CONTINUOUS
 90
6
 70
0
 10
59.6206558779
 20
6.1185218701
 10
59.6204190898
 20
6.1179393739
 10
59.6201832351
 20
6.1167839547
 10
59.6199483138
 20
6.1150568032
 10
59.6197143258
 20
6.1127597668
 10
59.6194812712
 20
6.1098953479
  0
LINE
  5
608
100
AcDbEntity
  8
RACCORDO
100
AcDbLine
 62
7
  6
CONTINUOUS
 10
59.7337691831
 20
5.1321118421
 11
59.7336365375
 21
5.1318072095
  0
LINE
  5
609
100
AcDbEntity
  8
RACCORDO
100
AcDbLine
 62
253
  6
CONTINUOUS
 10
59.5447962687
 20
4.845153446
 11
59.4899787324
 21
4.7355184392
  0
LWPOLYLINE
  5
60A
100
AcDbEntity
  8
RACCORDO
100
AcDbPolyline
 62
253
  6
CONTINUOUS
 90
7
 70
0
 10
59.7206407499
 20
6.0185372291
 10
59.7204029397
 20
6.0180624173
 10
59.7201664693
 20
6.0171346372
 10
59.7199313387
 20
6.0157538888
 10
59.7196975479
 20
6.013920172
 10
59.7194650969
 20
6.0116334869
 10
59.7192339857
 20
6.0088938334
  0
LWPOLYLINE
  5
60B
100
AcDbEntity
  8
RACCORDO
100
AcDbPolyline
 62
7
  6
CONTINUOUS
 90
7
 70
0
 10
59.1747941978
 20
1.5768014921
 10
59.1249870918
 20
1.5052986007
 10
59.0761433385
 20
1.4393810968
 10
59.0250459438
 20
1.3743975828
 10
58.9716949077
 20
1.3103480588
 10
58.9160902301
 20
1.2472325248
 10
58.858231911
 20
1.1850509808
  0
LWPOLYLINE
  5
60C
100
AcDbEntity
  8
RACCORDO
100
AcDbPolyline
 62
253
  6
CONTINUOUS
 90
10
 70
0
 10
59.5996139538
 20
1.6657382452
 10
59.5946595599
 20
1.6589619227
 10
59.5893152784
 20
1.6522385879
 10
59.5836228965
 20
1.6456208111
 10
59.5776269236
 20
1.6391603374
 10
59.5713742427
 20
1.6329076818
 10
59.5649137441
 20
1.6269117342
 10
59.558295943
 20
1.6212193775
 10
59.5515725848
 20
1.6158751206
 10
59.54479624
 20
1.6109207506
  0
LWPOLYLINE
  5
60D
100
AcDbEntity
  8
RACCORDO
100
AcDbPolyline
 62
7
  6
CONTINUOUS
 90
4
 70
0
 10
59.7042294554
 20
0.3607337343
 10
59.7146734831
 20
0.372956267
 10
59.7228920329
 20
0.3864038694
 10
59.7292240729
 20
0.4019772038
  0
LINE
  5
60E
100
AcDbEntity
  8
RACCORDO
100
AcDbLine
 62
253
  6
CONTINUOUS
 10
59.7067338366
 20
0.3637644616
 11
59.7102554218
 21
0.3672841393
  0
LWPOLYLINE
  5
60F
100
AcDbEntity
  8
RACCORDO
100
AcDbPolyline
 62
7
  6
CONTINUOUS
 90
6
 70
0
 10
59.7008296982
 20
0.3573201316
 10
59.7067338366
 20
0.3637644616
 10
59.7167293495
 20
0.3780436485
 10
59.7240950501
 20
0.3938429851
 10
59.7286063455
 20
0.4106830051
 10
59.730125384
 20
0.4280523288
  0
LINE
  5
610
100
AcDbEntity
  8
RACCORDO
100
AcDbLine
 62
253
  6
CONTINUOUS
 10
59.7167343077
 20
6.0780219523
 11
59.7202503978
 21
6.0745134025
  0
LWPOLYLINE
  5
611
100
AcDbEntity
  8
RACCORDO
100
AcDbPolyline
 62
7
  6
CONTINUOUS
 90
10
 70
0
 10
59.1249869995
 20
4.9507757056
 10
59.1747941978
 20
4.8792727
 10
59.1780897785
 20
4.8747042929
 10
59.1814639456
 20
4.8702192277
 10
59.1849165403
 20
4.8658150575
 10
59.1884477214
 20
4.8614949015
 10
59.1920579655
 20
4.857267478
 10
59.1957474316
 20
4.8531359343
 10
59.1995159608
 20
4.8490978142
 10
59.203363553
 20
4.845153446
  0
LINE
  5
612
100
AcDbEntity
  8
RACCORDO
100
AcDbLine
 62
253
  6
CONTINUOUS
 10
59.4899787324
 20
1.7205557529
 11
59.54479624
 21
1.6109207461
  0
LWPOLYLINE
  5
613
100
AcDbEntity
  8
RACCORDO
100
AcDbPolyline
 62
7
  6
CONTINUOUS
 90
10
 70
0
 10
59.7295770448
 20
1.3283264752
 10
59.7281745129
 20
1.3314471377
 10
59.7267805482
 20
1.3379098339
 10
59.7253951508
 20
1.3477145636
 10
59.7240159146
 20
1.3608908181
 10
59.7226452456
 20
1.3774091063
 10
59.7212903618
 20
1.3971809548
 10
59.7199513186
 20
1.420223856
 10
59.7186280605
 20
1.4465203175
 10
59.7173276383
 20
1.4759293891
  0
LINE
  5
614
100
AcDbEntity
  8
RACCORDO
100
AcDbLine
 62
7
  6
CONTINUOUS
 10
59.7336365375
 20
1.3242669825
 11
59.7337691831
 21
1.3239623499
  0
LWPOLYLINE
  5
615
100
AcDbEntity
  8
RACCORDO
100
AcDbPolyline
 62
7
  6
CONTINUOUS
 90
10
 70
0
 10
58.7997751019
 20
5.4024154105
 10
58.8014045397
 20
5.3857095875
 10
58.804315796
 20
5.3694616997
 10
58.8085088709
 20
5.3536883397
 10
58.8140709346
 20
5.3383630274
 10
58.8209148168
 20
5.3235424418
 10
58.8287790067
 20
5.3093695239
 10
58.8375763338
 20
5.2959034762
 10
58.8473939686
 20
5.283116703
 10
58.858231911
 20
5.2710232113
  0
LWPOLYLINE
  5
616
100
AcDbEntity
  8
RACCORDO
100
AcDbPolyline
 62
253
  6
CONTINUOUS
 90
10
 70
0
 10
59.7192339857
 20
6.0088938334
 10
59.7176560063
 20
6.0257965868
 10
59.713102512
 20
6.0421882149
 10
59.7057111899
 20
6.0575730869
 10
59.6957055346
 20
6.0714860135
 10
59.6833880882
 20
6.0835063148
 10
59.6691312914
 20
6.0932705393
 10
59.6533662243
 20
6.1004834506
 10
59.6365695736
 20
6.1049269549
 10
59.6192492162
 20
6.1064666974
  0
LWPOLYLINE
  5
617
100
AcDbEntity
  8
RACCORDO
100
AcDbPolyline
 62
253
  6
CONTINUOUS
 90
10
 70
0
 10
59.7206407499
 20
6.0185372291
 10
59.7191170425
 20
6.0358961512
 10
59.7146027824
 20
6.0527278095
 10
59.7072350919
 20
6.0685209799
 10
59.6972377609
 20
6.0827959814
 10
59.6849144448
 20
6.0951192512
 10
59.6706394383
 20
6.1051165098
 10
59.6548463137
 20
6.1124841211
 10
59.6380147545
 20
6.1169983174
 10
59.6206559803
 20
6.1185219986
  0
LINE
  5
618
100
AcDbEntity
  8
RACCORDO
100
AcDbLine
 62
253
  6
CONTINUOUS
 10
59.7321221165
 20
6.0418769509
 11
59.7336365375
 21
6.0245107097
  0
LWPOLYLINE
  5
619
100
AcDbEntity
  8
RACCORDO
100
AcDbPolyline
 62
253
  6
CONTINUOUS
 90
7
 70
0
 10
59.7192339857
 20
0.4471803586
 10
59.7194650969
 20
0.4444407052
 10
59.7196975479
 20
0.4421540201
 10
59.7199313387
 20
0.4403203033
 10
59.7201664693
 20
0.4389395549
 10
59.7204029397
 20
0.4380117748
 10
59.7206407499
 20
0.437536963
  0
LWPOLYLINE
  5
61A
100
AcDbEntity
  8
RACCORDO
100
AcDbPolyline
 62
253
  6
CONTINUOUS
 90
6
 70
0
 10
59.6194812407
 20
0.3461792562
 10
59.6197143136
 20
0.3433145604
 10
59.6199483138
 20
0.3410173889
 10
59.6201832412
 20
0.3392901997
 10
59.6204190959
 20
0.3381347954
 10
59.6206558779
 20
0.3375523219
  0
LWPOLYLINE
  5
61B
100
AcDbEntity
  8
RACCORDO
100
AcDbPolyline
 62
7
  6
CONTINUOUS
 90
10
 70
0
 10
58.6176460541
 20
0.3664183599
 10
58.618076677
 20
0.3605721085
 10
58.6185091876
 20
0.3553578373
 10
58.6189435859
 20
0.3507755463
 10
58.6193801529
 20
0.3468231048
 10
58.6198186076
 20
0.3435026434
 10
58.6202581069
 20
0.3408205544
 10
58.6206983697
 20
0.3387789686
 10
58.6211396771
 20
0.3373757552
 10
58.6215820291
 20
0.3366109143
  0
LWPOLYLINE
  5
61C
100
AcDbEntity
  8
ASSI
100
AcDbPolyline
 62
7
  6
CONTINUOUS
 90
10
 70
0
 10
58.6176460541
 20
0.3664183599
 10
58.618076677
 20
0.3605721085
 10
58.6185091876
 20
0.3553578373
 10
58.6189435859
 20
0.3507755463
 10
58.6193801529
 20
0.3468231048
 10
58.6198186076
 20
0.3435026434
 10
58.6202581069
 20
0.3408205544
 10
58.6206983697
 20
0.3387789686
 10
58.6211396771
 20
0.3373757552
 10
58.6215820291
 20
0.3366109143
  0
LWPOLYLINE
  5
61D
100
AcDbEntity
  8
RACCORDO
100
AcDbPolyline
 62
7
  6
CONTINUOUS
 90
4
 70
0
 10
59.733778062
 20
6.024238921
 10
59.7327781265
 20
6.0383632178
 10
59.7285428183
 20
6.0562155192
 10
59.721515137
 20
6.0722939367
  0
LWPOLYLINE
  5
61E
100
AcDbEntity
  8
RACCORDO
100
AcDbPolyline
 62
253
  6
CONTINUOUS
 90
22
 70
0
 10
59.6899482714
 20
1.5474214674
 10
59.6894259238
 20
1.5552700236
 10
59.6882950634
 20
1.5629000919
 10
59.6866066605
 20
1.5703116724
 10
59.6844174841
 20
1.5775039786
 10
59.6817744743
 20
1.5844777971
 10
59.6787019482
 20
1.5912354868
 10
59.6752345473
 20
1.5977780392
 10
59.6714120427
 20
1.6041044629
 10
59.667247889
 20
1.6102141429
 10
59.6627665517
 20
1.6161106353
 10
59.65800167
 20
1.6217903841
 10
59.652970944
 20
1.6272421063
 10
59.6476980324
 20
1.6324649272
 10
59.6422103728
 20
1.6374597215
 10
59.6365274802
 20
1.6422178311
 10
59.6306694548
 20
1.6467378718
 10
59.62466183
 20
1.6510212276
 10
59.6185309326
 20
1.6550633935
 10
59.6122997834
 20
1.6588628674
 10
59.6059875065
 20
1.6624211513
 10
59.5996137391
 20
1.6657382452
  0
LWPOLYLINE
  5
61F
100
AcDbEntity
  8
RACCORDO
100
AcDbPolyline
 62
7
  6
CONTINUOUS
 90
11
 70
0
 10
58.6183836869
 20
1.5053561422
 10
58.619512912
 20
1.4814045549
 10
58.6206570381
 20
1.4598909357
 10
58.6218159824
 20
1.4408057024
 10
58.6229848983
 20
1.4242288641
 10
58.624163735
 20
1.4101710552
 10
58.6253525433
 20
1.3986216413
 10
58.6265466281
 20
1.3896287278
 10
58.6277444246
 20
1.3832083501
 10
58.6289474977
 20
1.3793444728
 10
58.6301558473
 20
1.378037096
  0
LWPOLYLINE
  5
620
100
AcDbEntity
  8
ASSI
100
AcDbPolyline
 62
7
  6
CONTINUOUS
 90
11
 70
0
 10
58.6183836869
 20
1.5053561422
 10
58.619512912
 20
1.4814045549
 10
58.6206570381
 20
1.4598909357
 10
58.6218159824
 20
1.4408057024
 10
58.6229848983
 20
1.4242288641
 10
58.624163735
 20
1.4101710552
 10
58.6253525433
 20
1.3986216413
 10
58.6265466281
 20
1.3896287278
 10
58.6277444246
 20
1.3832083501
 10
58.6289474977
 20
1.3793444728
 10
58.6301558473
 20
1.378037096
  0
LWPOLYLINE
  5
621
100
AcDbEntity
  8
RACCORDO
100
AcDbPolyline
 62
253
  6
CONTINUOUS
 90
5
 70
0
 10
59.709986572
 20
0.6218577673
 10
59.712197863
 20
0.5695415096
 10
59.714477383
 20
0.5230248773
 10
59.7168227572
 20
0.4822378269
 10
59.7192339857
 20
0.4471803586
  0
LWPOLYLINE
  5
622
100
AcDbEntity
  8
RACCORDO
100
AcDbPolyline
 62
253
  6
CONTINUOUS
 90
5
 70
0
 10
59.6100160061
 20
0.5302310413
 10
59.6122280427
 20
0.4759129336
 10
59.6145048953
 20
0.4274285043
 10
59.6168452393
 20
0.3852282056
 10
59.6194812407
 20
0.3461792562
  0
LWPOLYLINE
  5
623
100
AcDbEntity
  8
RACCORDO
100
AcDbPolyline
 62
7
  6
CONTINUOUS
 90
5
 70
0
 10
58.60747832
 20
0.5795959302
 10
58.609945221
 20
0.5147648442
 10
58.6124582514
 20
0.4577391415
 10
58.6150251958
 20
0.4082903134
 10
58.6176460541
 20
0.3664183599
  0
LWPOLYLINE
  5
624
100
AcDbEntity
  8
ASSI
100
AcDbPolyline
 62
7
  6
CONTINUOUS
 90
5
 70
0
 10
58.60747832
 20
0.5795959302
 10
58.609945221
 20
0.5147648442
 10
58.6124582514
 20
0.4577391415
 10
58.6150251958
 20
0.4082903134
 10
58.6176460541
 20
0.3664183599
  0
LINE
  5
625
100
AcDbEntity
  8
RACCORDO
100
AcDbLine
 62
7
  6
CONTINUOUS
 10
58.6161742897
 20
1.5604357194
 11
58.6183836869
 21
1.5053561422
  0
LINE
  5
626
100
AcDbEntity
  8
ASSI
100
AcDbLine
 62
7
  6
CONTINUOUS
 10
58.6161742897
 20
1.5604357194
 11
58.6183836869
 21
1.5053561422
  0
LINE
  5
627
100
AcDbEntity
  8
RACCORDO
100
AcDbLine
 62
7
  6
CONTINUOUS
 10
59.7173276383
 20
1.4759293891
 11
59.7147955607
 21
1.5441182228
  0
LINE
  5
628
100
AcDbEntity
  8
RACCORDO
100
AcDbLine
 62
253
  6
CONTINUOUS
 10
59.7057544289
 20
0.7434688988
 11
59.709986572
 21
0.6218577673
  0
LINE
  5
629
100
AcDbEntity
  8
RACCORDO
100
AcDbLine
 62
253
  6
CONTINUOUS
 10
59.6057784331
 20
0.6559962612
 11
59.6100160061
 21
0.5302310413
  0
LINE
  5
62A
100
AcDbEntity
  8
RACCORDO
100
AcDbLine
 62
7
  6
CONTINUOUS
 10
58.6140427123
 20
1.6248124728
 11
58.6161742897
 21
1.5604357194
  0
LINE
  5
62B
100
AcDbEntity
  8
ASSI
100
AcDbLine
 62
7
  6
CONTINUOUS
 10
58.6140427123
 20
1.6248124728
 11
58.6161742897
 21
1.5604357194
  0
LINE
  5
62C
100
AcDbEntity
  8
ASSI
100
AcDbLine
 62
7
  6
CONTINUOUS
 10
58.7763149168
 20
4.5927714917
 11
58.7821009483
 21
4.4101199114
  0
LINE
  5
62D
100
AcDbEntity
  8
RACCORDO
100
AcDbLine
 62
7
  6
CONTINUOUS
 10
58.6027296138
 20
0.7313031994
 11
58.60747832
 21
0.5795959302
  0
LINE
  5
62E
100
AcDbEntity
  8
ASSI
100
AcDbLine
 62
7
  6
CONTINUOUS
 10
58.6027296138
 20
0.7313031994
 11
58.60747832
 21
0.5795959302
  0
LINE
  5
62F
100
AcDbEntity
  8
RACCORDO
100
AcDbLine
 62
7
  6
CONTINUOUS
 10
59.7147955607
 20
1.5441182228
 11
59.7123749711
 21
1.624202168
  0
LINE
  5
630
100
AcDbEntity
  8
RACCORDO
100
AcDbLine
 62
7
  6
CONTINUOUS
 10
58.6120019948
 20
1.6980663788
 11
58.6140427123
 21
1.6248124728
  0
LINE
  5
631
100
AcDbEntity
  8
ASSI
100
AcDbLine
 62
7
  6
CONTINUOUS
 10
58.6120019948
 20
1.6980663788
 11
58.6140427123
 21
1.6248124728
  0
LINE
  5
632
100
AcDbEntity
  8
RACCORDO
100
AcDbLine
 62
253
  6
CONTINUOUS
 10
59.7017466097
 20
0.8872689557
 11
59.7057544289
 21
0.7434688988
  0
LINE
  5
633
100
AcDbEntity
  8
RACCORDO
100
AcDbLine
 62
253
  6
CONTINUOUS
 10
59.6017716236
 20
0.8046662265
 11
59.6057784331
 21
0.6559962612
  0
LINE
  5
634
100
AcDbEntity
  8
RACCORDO
100
AcDbLine
 62
7
  6
CONTINUOUS
 10
58.598293575
 20
0.9106650559
 11
58.6027296138
 21
0.7313031994
  0
LINE
  5
635
100
AcDbEntity
  8
ASSI
100
AcDbLine
 62
7
  6
CONTINUOUS
 10
58.598293575
 20
0.9106650559
 11
58.6027296138
 21
0.7313031994
  0
LINE
  5
636
100
AcDbEntity
  8
ASSI
100
AcDbLine
 62
7
  6
CONTINUOUS
 10
58.7821009483
 20
4.4101199114
 11
58.7870268148
 21
4.206686728
  0
LINE
  5
637
100
AcDbEntity
  8
RACCORDO
100
AcDbLine
 62
7
  6
CONTINUOUS
 10
59.7123749711
 20
1.624202168
 11
59.7089843043
 21
1.765573813
  0
LINE
  5
638
100
AcDbEntity
  8
RACCORDO
100
AcDbLine
 62
7
  6
CONTINUOUS
 10
58.6091330528
 20
1.823788077
 11
58.6120019948
 21
1.6980663788
  0
LINE
  5
639
100
AcDbEntity
  8
ASSI
100
AcDbLine
 62
7
  6
CONTINUOUS
 10
58.6091330528
 20
1.823788077
 11
58.6120019948
 21
1.6980663788
  0
LINE
  5
63A
100
AcDbEntity
  8
RACCORDO
100
AcDbLine
 62
253
  6
CONTINUOUS
 10
59.6962252734
 20
1.1422756949
 11
59.7017466097
 21
0.8872689557
  0
LINE
  5
63B
100
AcDbEntity
  8
RACCORDO
100
AcDbLine
 62
253
  6
CONTINUOUS
 10
59.5962109561
 20
1.0690083102
 11
59.6017716236
 21
0.8046662265
  0
LINE
  5
63C
100
AcDbEntity
  8
RACCORDO
100
AcDbLine
 62
7
  6
CONTINUOUS
 10
58.5923387623
 20
1.2259308327
 11
58.598293575
 21
0.9106650559
  0
LINE
  5
63D
100
AcDbEntity
  8
ASSI
100
AcDbLine
 62
7
  6
CONTINUOUS
 10
58.5923387623
 20
1.2259308327
 11
58.598293575
 21
0.9106650559
  0
LINE
  5
63E
100
AcDbEntity
  8
RACCORDO
100
AcDbLine
 62
7
  6
CONTINUOUS
 10
58.7870268148
 20
4.206686728
 11
58.7879994836
 21
4.1532784183
  0
LINE
  5
63F
100
AcDbEntity
  8
RACCORDO
100
AcDbLine
 62
7
  6
CONTINUOUS
 10
59.7089843043
 20
1.765573813
 11
59.7059321514
 21
1.9303313128
  0
LINE
  5
640
100
AcDbEntity
  8
RACCORDO
100
AcDbLine
 62
7
  6
CONTINUOUS
 10
58.6091330528
 20
1.823788077
 11
58.606318247
 21
1.9829318047
  0
LINE
  5
641
100
AcDbEntity
  8
ASSI
100
AcDbLine
 62
7
  6
CONTINUOUS
 10
58.6091330528
 20
1.823788077
 11
58.606318247
 21
1.9829318047
  0
LWPOLYLINE
  5
642
100
AcDbEntity
  8
RACCORDO
100
AcDbPolyline
 62
253
  6
CONTINUOUS
 90
3
 70
0
 10
59.6899482714
 20
1.5474199749
 10
59.6913958924
 20
1.4394240786
 10
59.6962252734
 20
1.1422756949
  0
LINE
  5
643
100
AcDbEntity
  8
RACCORDO
100
AcDbLine
 62
7
  6
CONTINUOUS
 10
59.7059321514
 20
1.9303313128
 11
59.70247593
 21
2.1814893791
  0
LINE
  5
644
100
AcDbEntity
  8
RACCORDO
100
AcDbLine
 62
7
  6
CONTINUOUS
 10
58.7879994836
 20
4.1532784183
 11
58.7887375325
 21
4.0972243394
  0
LINE
  5
645
100
AcDbEntity
  8
RACCORDO
100
AcDbLine
 62
7
  6
CONTINUOUS
 10
58.5889890847
 20
1.4692017971
 11
58.5923387623
 21
1.2259308327
  0
LINE
  5
646
100
AcDbEntity
  8
ASSI
100
AcDbLine
 62
7
  6
CONTINUOUS
 10
58.5889890847
 20
1.4692017971
 11
58.5923387623
 21
1.2259308327
  0
LWPOLYLINE
  5
647
100
AcDbEntity
  8
RACCORDO
100
AcDbPolyline
 62
253
  6
CONTINUOUS
 90
3
 70
0
 10
59.5904181585
 20
1.484656854
 10
59.5916635117
 20
1.3750211835
 10
59.5962109561
 20
1.0690083102
  0
LINE
  5
648
100
AcDbEntity
  8
RACCORDO
100
AcDbLine
 62
7
  6
CONTINUOUS
 10
58.606318247
 20
1.9829318047
 11
58.6038732083
 21
2.2023105599
  0
LINE
  5
649
100
AcDbEntity
  8
ASSI
100
AcDbLine
 62
7
  6
CONTINUOUS
 10
58.606318247
 20
1.9829318047
 11
58.6038732083
 21
2.2023105599
  0
LINE
  5
64A
100
AcDbEntity
  8
RACCORDO
100
AcDbLine
 62
7
  6
CONTINUOUS
 10
58.7887375325
 20
4.0972243394
 11
58.7892379475
 21
4.0388370461
  0
LINE
  5
64B
100
AcDbEntity
  8
RACCORDO
100
AcDbLine
 62
7
  6
CONTINUOUS
 10
59.70247593
 20
2.1814893791
 11
59.701043945
 21
2.330448323
  0
LINE
  5
64C
100
AcDbEntity
  8
RACCORDO
100
AcDbLine
 62
7
  6
CONTINUOUS
 10
58.5873399956
 20
1.6789901833
 11
58.5889890847
 21
1.4692017971
  0
LINE
  5
64D
100
AcDbEntity
  8
ASSI
100
AcDbLine
 62
7
  6
CONTINUOUS
 10
58.5873399956
 20
1.6789901833
 11
58.5889890847
 21
1.4692017971
  0
LINE
  5
64E
100
AcDbEntity
  8
RACCORDO
100
AcDbLine
 62
7
  6
CONTINUOUS
 10
58.6038732083
 20
2.2023105599
 11
58.6024977648
 21
2.4510730514
  0
LINE
  5
64F
100
AcDbEntity
  8
ASSI
100
AcDbLine
 62
7
  6
CONTINUOUS
 10
58.6038732083
 20
2.2023105599
 11
58.6024977648
 21
2.4510730514
  0
LINE
  5
650
100
AcDbEntity
  8
RACCORDO
100
AcDbLine
 62
7
  6
CONTINUOUS
 10
59.701043945
 20
2.330448323
 11
59.7005456682
 21
2.4468078051
  0
LINE
  5
651
100
AcDbEntity
  8
RACCORDO
100
AcDbLine
 62
7
  6
CONTINUOUS
 10
58.7892379475
 20
4.0388370461
 11
58.7895211555
 21
3.9491473511
  0
LINE
  5
652
100
AcDbEntity
  8
RACCORDO
100
AcDbLine
 62
7
  6
CONTINUOUS
 10
58.586518185
 20
1.9820435166
 11
58.5873399956
 21
1.6789901833
  0
LINE
  5
653
100
AcDbEntity
  8
ASSI
100
AcDbLine
 62
7
  6
CONTINUOUS
 10
58.586518185
 20
1.9820435166
 11
58.5873399956
 21
1.6789901833
  0
LINE
  5
654
100
AcDbEntity
  8
DRAFT
100
AcDbLine
 62
7
  6
CONTINUOUS
 10
58.6301558473
 20
0.328037096
 11
58.6301558473
 21
1.378037096
  0
LINE
  5
655
100
AcDbEntity
  8
ASSI
100
AcDbLine
 62
7
  6
CONTINUOUS
 10
58.6301558473
 20
0.328037096
 11
58.6301558473
 21
1.378037096
  0
LINE
  5
656
100
AcDbEntity
  8
DRAFT
100
AcDbLine
 62
7
  6
CONTINUOUS
 10
58.6301558473
 20
5.078037096
 11
58.6301558473
 21
6.128037096
  0
LINE
  5
657
100
AcDbEntity
  8
ASSI
100
AcDbLine
 62
7
  6
CONTINUOUS
 10
58.6301558473
 20
5.078037096
 11
58.6301558473
 21
6.128037096
  0
LINE
  5
658
100
AcDbEntity
  8
ASSI
100
AcDbLine
 62
253
  6
CONTINUOUS
 10
58.6335869698
 20
0.328037096
 11
58.6335869698
 21
1.378037096
  0
LINE
  5
659
100
AcDbEntity
  8
ASSI
100
AcDbLine
 62
253
  6
CONTINUOUS
 10
58.6335869698
 20
5.078037096
 11
58.6335869698
 21
6.128037096
  0
LINE
  5
65A
100
AcDbEntity
  8
ASSI
100
AcDbLine
 62
253
  6
CONTINUOUS
 10
58.7335260525
 20
6.1263525068
 11
58.7335260525
 21
5.1255844104
  0
LINE
  5
65B
100
AcDbEntity
  8
ASSI
100
AcDbLine
 62
7
  6
CONTINUOUS
 10
58.7335260525
 20
5.1255844104
 11
58.7335260525
 21
5.0660649163
  0
LINE
  5
65C
100
AcDbEntity
  8
ASSI
100
AcDbLine
 62
7
  6
CONTINUOUS
 10
58.7335260525
 20
1.3900092763
 11
58.7335260525
 21
1.3304897817
  0
LINE
  5
65D
100
AcDbEntity
  8
ASSI
100
AcDbLine
 62
253
  6
CONTINUOUS
 10
58.7335260525
 20
1.3304897817
 11
58.7335260525
 21
0.3297216852
  0
LINE
  5
65E
100
AcDbEntity
  8
RACCORDO
100
AcDbLine
 62
253
  6
CONTINUOUS
 10
58.7997751019
 20
5.4024154105
 11
58.7997751019
 21
1.0536587816
  0
LINE
  5
65F
100
AcDbEntity
  8
RACCORDO
100
AcDbLine
 62
253
  6
CONTINUOUS
 10
58.858231911
 20
5.2710232113
 11
58.858231911
 21
1.1850509808
  0
LINE
  5
660
100
AcDbEntity
  8
RACCORDO
100
AcDbLine
 62
253
  6
CONTINUOUS
 10
59.1715772036
 20
4.8839240974
 11
59.1715772036
 21
1.5721500947
  0
LINE
  5
661
100
AcDbEntity
  8
RACCORDO
100
AcDbLine
 62
253
  6
CONTINUOUS
 10
59.3129985598
 20
4.7355184392
 11
59.3129985598
 21
1.7205557529
  0
LINE
  5
662
100
AcDbEntity
  8
RACCORDO
100
AcDbLine
 62
253
  6
CONTINUOUS
 10
59.4899787324
 20
1.7205557529
 11
59.4899787324
 21
4.7355184392
  0
LINE
  5
663
100
AcDbEntity
  8
RACCORDO
100
AcDbLine
 62
253
  6
CONTINUOUS
 10
59.6899482714
 20
1.5474199749
 11
59.6899482714
 21
4.9086500061
  0
LINE
  5
664
100
AcDbEntity
  8
RACCORDO
100
AcDbLine
 62
7
  6
CONTINUOUS
 10
59.7337888424
 20
0.4318374534
 11
59.7337888424
 21
1.3239623497
  0
LINE
  5
665
100
AcDbEntity
  8
RACCORDO
100
AcDbLine
 62
7
  6
CONTINUOUS
 10
59.7337888424
 20
5.1321118424
 11
59.7337888424
 21
6.0242366131
  0
LINE
  5
666
100
AcDbEntity
  8
RACCORDO
100
AcDbLine
 62
7
  6
CONTINUOUS
 10
59.7005456682
 20
2.4468078051
 11
59.700498477
 21
3.979368477
  0
LINE
  5
667
100
AcDbEntity
  8
RACCORDO
100
AcDbLine
 62
7
  6
CONTINUOUS
 10
58.6024977648
 20
2.4510730514
 11
58.6022986513
 21
3.9185449116
  0
LINE
  5
668
100
AcDbEntity
  8
ASSI
100
AcDbLine
 62
7
  6
CONTINUOUS
 10
58.6024977648
 20
2.4510730514
 11
58.6022986513
 21
3.9185449116
  0
LINE
  5
669
100
AcDbEntity
  8
RACCORDO
100
AcDbLine
 62
7
  6
CONTINUOUS
 10
58.7895211555
 20
3.9491473511
 11
58.7893942703
 21
2.4468108697
  0
LINE
  5
66A
100
AcDbEntity
  8
RACCORDO
100
AcDbLine
 62
7
  6
CONTINUOUS
 10
58.586982019
 20
4.7030283503
 11
58.586518185
 21
1.9820435166
  0
LINE
  5
66B
100
AcDbEntity
  8
ASSI
100
AcDbLine
 62
7
  6
CONTINUOUS
 10
58.586982019
 20
4.7030283503
 11
58.586518185
 21
1.9820435166
  0
LINE
  5
66C
100
AcDbEntity
  8
RACCORDO
100
AcDbLine
 62
7
  6
CONTINUOUS
 10
59.700498477
 20
3.979368477
 11
59.7008739574
 21
4.0972293398
  0
LINE
  5
66D
100
AcDbEntity
  8
RACCORDO
100
AcDbLine
 62
7
  6
CONTINUOUS
 10
58.6022986513
 20
3.9185449116
 11
58.6032850433
 21
4.172610501
  0
LINE
  5
66E
100
AcDbEntity
  8
ASSI
100
AcDbLine
 62
7
  6
CONTINUOUS
 10
58.6022986513
 20
3.9185449116
 11
58.6032850433
 21
4.172610501
  0
LINE
  5
66F
100
AcDbEntity
  8
RACCORDO
100
AcDbLine
 62
7
  6
CONTINUOUS
 10
58.7893942703
 20
2.4468108697
 11
58.7890187001
 21
2.3878820787
  0
LINE
  5
670
100
AcDbEntity
  8
RACCORDO
100
AcDbLine
 62
7
  6
CONTINUOUS
 10
58.5883489034
 20
4.9198595526
 11
58.586982019
 21
4.7030283503
  0
LINE
  5
671
100
AcDbEntity
  8
ASSI
100
AcDbLine
 62
7
  6
CONTINUOUS
 10
58.5883489034
 20
4.9198595526
 11
58.586982019
 21
4.7030283503
  0
LINE
  5
672
100
AcDbEntity
  8
RACCORDO
100
AcDbLine
 62
7
  6
CONTINUOUS
 10
59.7008739574
 20
4.0972293398
 11
59.7017290273
 21
4.206686728
  0
LINE
  5
673
100
AcDbEntity
  8
RACCORDO
100
AcDbLine
 62
7
  6
CONTINUOUS
 10
58.6032850433
 20
4.172610501
 11
58.6053898102
 21
4.4040295754
  0
LINE
  5
674
100
AcDbEntity
  8
ASSI
100
AcDbLine
 62
7
  6
CONTINUOUS
 10
58.6032850433
 20
4.172610501
 11
58.6053898102
 21
4.4040295754
  0
LINE
  5
675
100
AcDbEntity
  8
RACCORDO
100
AcDbLine
 62
7
  6
CONTINUOUS
 10
58.7890187001
 20
2.3878820787
 11
58.7883974588
 21
2.3304530227
  0
LINE
  5
676
100
AcDbEntity
  8
RACCORDO
100
AcDbLine
 62
7
  6
CONTINUOUS
 10
58.5905462769
 20
5.1130017419
 11
58.5883489034
 21
4.9198595526
  0
LINE
  5
677
100
AcDbEntity
  8
ASSI
100
AcDbLine
 62
7
  6
CONTINUOUS
 10
58.5905462769
 20
5.1130017419
 11
58.5883489034
 21
4.9198595526
  0
LINE
  5
678
100
AcDbEntity
  8
RACCORDO
100
AcDbLine
 62
7
  6
CONTINUOUS
 10
59.7017290273
 20
4.206686728
 11
59.704997619
 21
4.4660064807
  0
LINE
  5
679
100
AcDbEntity
  8
RACCORDO
100
AcDbLine
 62
7
  6
CONTINUOUS
 10
58.6053898102
 20
4.4040295754
 11
58.6073615861
 21
4.5384459178
  0
LINE
  5
67A
100
AcDbEntity
  8
ASSI
100
AcDbLine
 62
7
  6
CONTINUOUS
 10
58.6053898102
 20
4.4040295754
 11
58.6073615861
 21
4.5384459178
  0
LWPOLYLINE
  5
67B
100
AcDbEntity
  8
RACCORDO
100
AcDbPolyline
 62
7
  6
CONTINUOUS
 90
3
 70
0
 10
58.7883974588
 20
2.3304530227
 10
58.7875426023
 20
2.2757739209
 10
58.7870268148
 20
2.2493874641
  0
LINE
  5
67C
100
AcDbEntity
  8
RACCORDO
100
AcDbLine
 62
253
  6
CONTINUOUS
 10
59.5956272449
 20
5.3525497597
 11
59.5899636308
 21
4.9676227118
  0
LINE
  5
67D
100
AcDbEntity
  8
RACCORDO
100
AcDbLine
 62
253
  6
CONTINUOUS
 10
59.6956105462
 20
5.2804074818
 11
59.6899482714
 21
4.9086500061
  0
LINE
  5
67E
100
AcDbEntity
  8
RACCORDO
100
AcDbLine
 62
7
  6
CONTINUOUS
 10
59.704997619
 20
4.4660064807
 11
59.7079259294
 21
4.6380134771
  0
LINE
  5
67F
100
AcDbEntity
  8
RACCORDO
100
AcDbLine
 62
7
  6
CONTINUOUS
 10
58.5962094179
 20
5.4462105035
 11
58.5905462769
 21
5.1130017419
  0
LINE
  5
680
100
AcDbEntity
  8
ASSI
100
AcDbLine
 62
7
  6
CONTINUOUS
 10
58.5962094179
 20
5.4462105035
 11
58.5905462769
 21
5.1130017419
  0
LINE
  5
681
100
AcDbEntity
  8
RACCORDO
100
AcDbLine
 62
7
  6
CONTINUOUS
 10
58.6100605716
 20
4.6761759023
 11
58.6073615861
 21
4.5384459178
  0
LINE
  5
682
100
AcDbEntity
  8
ASSI
100
AcDbLine
 62
7
  6
CONTINUOUS
 10
58.6100605716
 20
4.6761759023
 11
58.6073615861
 21
4.5384459178
  0
LINE
  5
683
100
AcDbEntity
  8
RACCORDO
100
AcDbLine
 62
253
  6
CONTINUOUS
 10
59.6001604303
 20
5.5821449274
 11
59.5956272449
 21
5.3525497597
  0
LINE
  5
684
100
AcDbEntity
  8
RACCORDO
100
AcDbLine
 62
253
  6
CONTINUOUS
 10
59.7001423674
 20
5.5022219524
 11
59.6956105462
 21
5.2804074818
  0
LINE
  5
685
100
AcDbEntity
  8
RACCORDO
100
AcDbLine
 62
7
  6
CONTINUOUS
 10
58.6004729605
 20
5.6385357385
 11
58.5962094179
 21
5.4462105035
  0
LINE
  5
686
100
AcDbEntity
  8
ASSI
100
AcDbLine
 62
7
  6
CONTINUOUS
 10
58.6004729605
 20
5.6385357385
 11
58.5962094179
 21
5.4462105035
  0
LINE
  5
687
100
AcDbEntity
  8
RACCORDO
100
AcDbLine
 62
7
  6
CONTINUOUS
 10
59.7079259294
 20
4.6380134771
 11
59.7112095136
 21
4.7874592226
  0
LINE
  5
688
100
AcDbEntity
  8
RACCORDO
100
AcDbLine
 62
253
  6
CONTINUOUS
 10
59.6035452216
 20
5.7210719311
 11
59.6001604303
 21
5.5821449274
  0
LINE
  5
689
100
AcDbEntity
  8
ASSI
100
AcDbLine
 62
7
  6
CONTINUOUS
 10
58.7870268148
 20
2.2493874641
 11
58.7821009502
 21
2.0459543521
  0
LINE
  5
68A
100
AcDbEntity
  8
RACCORDO
100
AcDbLine
 62
7
  6
CONTINUOUS
 10
58.6130103826
 20
4.7957294661
 11
58.6100605716
 21
4.6761759023
  0
LINE
  5
68B
100
AcDbEntity
  8
ASSI
100
AcDbLine
 62
7
  6
CONTINUOUS
 10
58.6130103826
 20
4.7957294661
 11
58.6100605716
 21
4.6761759023
  0
LINE
  5
68C
100
AcDbEntity
  8
RACCORDO
100
AcDbLine
 62
253
  6
CONTINUOUS
 10
59.7035289397
 20
5.6365241155
 11
59.7001423674
 21
5.5022219524
  0
LINE
  5
68D
100
AcDbEntity
  8
RACCORDO
100
AcDbLine
 62
7
  6
CONTINUOUS
 10
59.7112095136
 20
4.7874592226
 11
59.7135709877
 21
4.8734010798
  0
LINE
  5
68E
100
AcDbEntity
  8
RACCORDO
100
AcDbLine
 62
253
  6
CONTINUOUS
 10
59.6071085211
 20
5.8428168672
 11
59.6035452216
 21
5.7210719311
  0
LINE
  5
68F
100
AcDbEntity
  8
RACCORDO
100
AcDbLine
 62
7
  6
CONTINUOUS
 10
58.6150987566
 20
4.8646088223
 11
58.6130103826
 21
4.7957294661
  0
LINE
  5
690
100
AcDbEntity
  8
ASSI
100
AcDbLine
 62
7
  6
CONTINUOUS
 10
58.6150987566
 20
4.8646088223
 11
58.6130103826
 21
4.7957294661
  0
LINE
  5
691
100
AcDbEntity
  8
RACCORDO
100
AcDbLine
 62
253
  6
CONTINUOUS
 10
59.7070947781
 20
5.7542247462
 11
59.7035289397
 21
5.6365241155
  0
LWPOLYLINE
  5
692
100
AcDbEntity
  8
ASSI
100
AcDbPolyline
 62
7
  6
CONTINUOUS
 90
13
 70
0
 10
58.7821009502
 20
2.0459543521
 10
58.7763149217
 20
1.8633028342
 10
58.7730975586
 20
1.7797210815
 10
58.7697116242
 20
1.7026111036
 10
58.7661555386
 20
1.6320903545
 10
58.7624308818
 20
1.5680413801
 10
58.7585852884
 20
1.5112900115
 10
58.754617647
 20
1.4619335032
 10
58.750529069
 20
1.4198746007
 10
58.7463705236
 20
1.3856473706
 10
58.7421590006
 20
1.3594298352
 10
58.7378775103
 20
1.3410439722
 10
58.7335260525
 20
1.3304897817
  0
LWPOLYLINE
  5
693
100
AcDbEntity
  8
RACCORDO
100
AcDbPolyline
 62
7
  6
CONTINUOUS
 90
12
 70
0
 10
59.7135709877
 20
4.8734010798
 10
59.7160506916
 20
4.9476204359
 10
59.7173281073
 20
4.9801560746
 10
59.7186284743
 20
5.0095627427
 10
59.7199516649
 20
5.0358568105
 10
59.7212906404
 20
5.0588976664
 10
59.7226454566
 20
5.0786679365
 10
59.7240160577
 20
5.0951849946
 10
59.7253952377
 20
5.1083603508
 10
59.7267805945
 20
5.1181645081
 10
59.7281745302
 20
5.1246269635
 10
59.7295770448
 20
5.1277477168
  0
LINE
  5
694
100
AcDbEntity
  8
RACCORDO
100
AcDbLine
 62
253
  6
CONTINUOUS
 10
59.6096564444
 20
5.9163222084
 11
59.6071085211
 21
5.8428168672
  0
LINE
  5
695
100
AcDbEntity
  8
RACCORDO
100
AcDbLine
 62
253
  6
CONTINUOUS
 10
59.7096424843
 20
5.8252102664
 11
59.7070947781
 21
5.7542247462
  0
LWPOLYLINE
  5
696
100
AcDbEntity
  8
RACCORDO
100
AcDbPolyline
 62
7
  6
CONTINUOUS
 90
10
 70
0
 10
58.7997751019
 20
1.0536587816
 10
58.7952448981
 20
0.9415346793
 10
58.7905251878
 20
0.8376594705
 10
58.7856159708
 20
0.7420331551
 10
58.7804976622
 20
0.6543555696
 10
58.7751898471
 20
0.5749268775
 10
58.7697512802
 20
0.5046475693
 10
58.7642015466
 20
0.4438178084
 10
58.7585210613
 20
0.3921374313
 10
58.7527098244
 20
0.349606438
  0
LWPOLYLINE
  5
697
100
AcDbEntity
  8
RACCORDO
100
AcDbPolyline
 62
7
  6
CONTINUOUS
 90
7
 70
0
 10
58.6176460541
 20
6.0896558322
 10
58.6150251958
 20
6.0477838786
 10
58.6124582514
 20
5.9983350505
 10
58.609945221
 20
5.9413093479
 10
58.60747832
 20
5.8764782619
 10
58.6050653329
 20
5.8040703014
 10
58.6004729605
 20
5.6385357385
  0
LWPOLYLINE
  5
698
100
AcDbEntity
  8
ASSI
100
AcDbPolyline
 62
7
  6
CONTINUOUS
 90
7
 70
0
 10
58.6176460541
 20
6.0896558322
 10
58.6150251958
 20
6.0477838786
 10
58.6124582514
 20
5.9983350505
 10
58.609945221
 20
5.9413093479
 10
58.60747832
 20
5.8764782619
 10
58.6050653329
 20
5.8040703014
 10
58.6004729605
 20
5.6385357385
  0
LWPOLYLINE
  5
699
100
AcDbEntity
  8
RACCORDO
100
AcDbPolyline
 62
253
  6
CONTINUOUS
 90
7
 70
0
 10
59.6194812712
 20
6.1098953479
 10
59.6178053715
 20
6.0859313498
 10
59.6163868829
 20
6.0630695126
 10
59.6149936724
 20
6.0379674595
 10
59.6136278407
 20
6.0107745746
 10
59.6122872869
 20
5.9815252971
 10
59.6096564444
 20
5.9163222084
  0
LWPOLYLINE
  5
69A
100
AcDbEntity
  8
RACCORDO
100
AcDbPolyline
 62
253
  6
CONTINUOUS
 90
7
 70
0
 10
59.7192339857
 20
6.0088938334
 10
59.7177910561
 20
5.9889300606
 10
59.7163731389
 20
5.966881655
 10
59.7149802341
 20
5.9427486168
 10
59.7136143154
 20
5.9165290331
 10
59.7122734091
 20
5.8882248167
 10
59.7096424843
 20
5.8252102664
  0
LINE
  5
69B
100
AcDbEntity
  8
RACCORDO
100
AcDbLine
 62
253
  6
CONTINUOUS
 10
59.7321222457
 20
0.4141979755
 11
59.7336365375
 21
0.4315634823
  0
LWPOLYLINE
  5
69C
100
AcDbEntity
  8
RACCORDO
100
AcDbPolyline
 62
253
  6
CONTINUOUS
 90
10
 70
0
 10
59.7206407499
 20
0.437536963
 10
59.7191170568
 20
0.4201781216
 10
59.7146028309
 20
0.4033465157
 10
59.7072351816
 20
0.3875533675
 10
59.6972378846
 20
0.3732783581
 10
59.6849145852
 20
0.3609550587
 10
59.6706395758
 20
0.3509577617
 10
59.6548464276
 20
0.3435901124
 10
59.6380148218
 20
0.3390758866
 10
59.6206559803
 20
0.3375521935
  0
LWPOLYLINE
  5
69D
100
AcDbEntity
  8
RACCORDO
100
AcDbPolyline
 62
253
  6
CONTINUOUS
 90
10
 70
0
 10
59.7192339857
 20
0.4471803586
 10
59.717655887
 20
0.4302777944
 10
59.7131023142
 20
0.4138863598
 10
59.7057109515
 20
0.3985016747
 10
59.6957052879
 20
0.3845889182
 10
59.6833878597
 20
0.3725687636
 10
59.6691311031
 20
0.3628046583
 10
59.6533660925
 20
0.3555918349
 10
59.6365695068
 20
0.351148384
 10
59.6192492162
 20
0.3496086599
  0
LWPOLYLINE
  5
69E
100
AcDbEntity
  8
RACCORDO
100
AcDbPolyline
 62
7
  6
CONTINUOUS
 90
10
 70
0
 10
58.7527098244
 20
0.349606438
 10
58.7523237732
 20
0.3472571381
 10
58.7519363619
 20
0.3451598042
 10
58.7515475905
 20
0.3433144363
 10
58.7511572575
 20
0.3417203426
 10
58.7507655644
 20
0.3403782149
 10
58.7503731158
 20
0.3392901286
 10
58.7499801133
 20
0.3384567755
 10
58.7495863554
 20
0.3378774638
 10
58.7491918421
 20
0.3375521935
  0
LWPOLYLINE
  5
69F
100
AcDbEntity
  8
RACCORDO
100
AcDbPolyline
 62
253
  6
CONTINUOUS
 90
10
 70
0
 10
59.6899482732
 20
1.5474215433
 10
59.6882137947
 20
1.5372717529
 10
59.6835472754
 20
1.527424834
 10
59.6760879567
 20
1.5181746473
 10
59.6660443098
 20
1.5097873679
 10
59.6537244645
 20
1.5025260034
 10
59.639553679
 20
1.4966273568
 10
59.6239921957
 20
1.4922550837
 10
59.6074946438
 20
1.4895117248
 10
59.5905508834
 20
1.4884585307
  0
LWPOLYLINE
  5
6A0
100
AcDbEntity
  8
RACCORDO
100
AcDbPolyline
 62
7
  6
CONTINUOUS
 90
3
 70
0
 10
59.7292240729
 20
0.4019772038
 10
59.7329863034
 20
0.4193052599
 10
59.7337722628
 20
0.4318326763
  0
LINE
  5
6A1
100
AcDbEntity
  8
RACCORDO
100
AcDbLine
 62
253
  6
CONTINUOUS
 10
59.7276148207
 20
0.3973603152
 11
59.7321222457
 21
0.4141979755
  0
LINE
  5
6A2
100
AcDbEntity
  8
RACCORDO
100
AcDbLine
 62
253
  6
CONTINUOUS
 10
59.7202512713
 20
0.381562303
 11
59.7276148207
 21
0.3973603152
  0
LINE
  5
6A3
100
AcDbEntity
  8
RACCORDO
100
AcDbLine
 62
253
  6
CONTINUOUS
 10
59.7337888256
 20
0.4318368961
 11
59.7336365375
 21
0.4315634823
  0
LINE
  5
6A4
100
AcDbEntity
  8
RACCORDO
100
AcDbLine
 62
253
  6
CONTINUOUS
 10
59.7177463731
 20
0.3779842833
 11
59.7202512713
 21
0.381562303
  0
LWPOLYLINE
  5
6A5
100
AcDbEntity
  8
RACCORDO
100
AcDbPolyline
 62
7
  6
CONTINUOUS
 90
3
 70
0
 10
59.721515137
 20
6.0722939367
 10
59.712270915
 20
6.0863045711
 10
59.7041111129
 20
6.0954625506
  0
LINE
  5
6A6
100
AcDbEntity
  8
RACCORDO
100
AcDbLine
 62
253
  6
CONTINUOUS
 10
59.7336365375
 20
6.0245107097
 11
59.7337888372
 21
6.0242358745
  0
LINE
  5
6A7
100
AcDbEntity
  8
RACCORDO
100
AcDbLine
 62
253
  6
CONTINUOUS
 10
59.7202503978
 20
6.0745134025
 11
59.7276143667
 21
6.058715125
  0
LWPOLYLINE
  5
6A8
100
AcDbEntity
  8
ASSI
100
AcDbPolyline
 62
7
  6
CONTINUOUS
 90
12
 70
0
 10
58.7335260525
 20
5.1255844104
 10
58.7378775057
 20
5.1150302442
 10
58.7421589925
 20
5.096644407
 10
58.7463705129
 20
5.0704268989
 10
58.7505290568
 20
5.0361997008
 10
58.7546176344
 20
4.9941408317
 10
58.758585276
 20
4.9447843483
 10
58.7624308703
 20
4.8880329928
 10
58.7661555286
 20
4.823984023
 10
58.7697116157
 20
4.7534632685
 10
58.7730975518
 20
4.6763532724
 10
58.7763149168
 20
4.5927714917
  0
LINE
  5
6A9
100
AcDbEntity
  8
RACCORDO
100
AcDbLine
 62
253
  6
CONTINUOUS
 10
59.7276143667
 20
6.058715125
 11
59.7321221165
 21
6.0418769509
  0
LWPOLYLINE
  5
6AA
100
AcDbEntity
  8
RACCORDO
100
AcDbPolyline
 62
7
  6
CONTINUOUS
 90
10
 70
0
 10
58.7527098244
 20
6.106467754
 10
58.7585210988
 20
6.0639363217
 10
58.7642016072
 20
6.0122556682
 10
58.7697513498
 20
5.9514257933
 10
58.7751899047
 20
5.8811466042
 10
58.7804976938
 20
5.8017181938
 10
58.7856159815
 20
5.7140408413
 10
58.7905251896
 20
5.6184146398
 10
58.7952448964
 20
5.5145394962
 10
58.7997751019
 20
5.4024154105
  0
LWPOLYLINE
  5
6AB
100
AcDbEntity
  8
RACCORDO
100
AcDbPolyline
 62
253
  6
CONTINUOUS
 90
15
 70
0
 10
-32.9054446002
 20
0.8479085636
 10
-32.8540490522
 20
0.8564581966
 10
-32.8038169858
 20
0.870303163
 10
-32.7552866794
 20
0.889297348
 10
-32.7089902683
 20
0.9132354099
 10
-32.6654455738
 20
0.9418502097
 10
-32.6251260702
 20
0.9748258266
 10
-32.5884618299
 20
1.0118049544
 10
-32.5558506178
 20
1.0523838147
 10
-32.527644448
 20
1.0961178159
 10
-32.5041427793
 20
1.1425342433
 10
-32.4855954456
 20
1.1911378634
 10
-32.4722022991
 20
1.2414054519
 10
-32.4641082588
 20
1.2927900769
 10
-32.4614003358
 20
1.3447355367
  0
LWPOLYLINE
  5
6AC
100
AcDbEntity
  8
ASSI
100
AcDbPolyline
 62
253
  6
CONTINUOUS
 90
15
 70
0
 10
-32.9054446002
 20
0.8479085636
 10
-32.8540490522
 20
0.8564581966
 10
-32.8038169858
 20
0.870303163
 10
-32.7552866794
 20
0.889297348
 10
-32.7089902683
 20
0.9132354099
 10
-32.6654455738
 20
0.9418502097
 10
-32.6251260702
 20
0.9748258266
 10
-32.5884618299
 20
1.0118049544
 10
-32.5558506178
 20
1.0523838147
 10
-32.527644448
 20
1.0961178159
 10
-32.5041427793
 20
1.1425342433
 10
-32.4855954456
 20
1.1911378634
 10
-32.4722022991
 20
1.2414054519
 10
-32.4641082588
 20
1.2927900769
 10
-32.4614003358
 20
1.3447355367
  0
LINE
  5
6AD
100
AcDbEntity
  8
RACCORDO
100
AcDbLine
 62
7
  6
CONTINUOUS
 10
-34.8719852064
 20
-0.491962904
 11
-30.2615137626
 21
-0.4114868256
  0
LINE
  5
6AE
100
AcDbEntity
  8
RACCORDO
100
AcDbLine
 62
7
  6
CONTINUOUS
 10
-30.1176219387
 20
-0.4804722043
 11
-34.8719852064
 21
-0.521962904
  0
LINE
  5
6AF
100
AcDbEntity
  8
ASSI
100
AcDbLine
 62
7
  6
CONTINUOUS
 10
-30.1176219387
 20
-0.4804722043
 11
-34.8719852064
 21
-0.521962904
  0
LINE
  5
6B0
100
AcDbEntity
  8
RACCORDO
100
AcDbLine
 62
7
  6
CONTINUOUS
 10
-34.8719852064
 20
-0.521962904
 11
-35.8719852064
 21
-0.5132360362
  0
LINE
  5
6B1
100
AcDbEntity
  8
ASSI
100
AcDbLine
 62
7
  6
CONTINUOUS
 10
-34.8719852064
 20
-0.521962904
 11
-35.8719852064
 21
-0.5132360362
  0
LINE
  5
6B2
100
AcDbEntity
  8
DRAFT
100
AcDbLine
 62
7
  6
CONTINUOUS
 10
-33.3719852064
 20
-0.5743440582
 11
-34.8719852064
 21
-0.521962904
  0
LINE
  5
6B3
100
AcDbEntity
  8
RACCORDO
100
AcDbLine
 62
7
  6
CONTINUOUS
 10
-34.8719852064
 20
-0.521962904
 11
-36.6394349548
 21
-0.4602421987
  0
LWPOLYLINE
  5
6B4
100
AcDbEntity
  8
RACCORDO
100
AcDbPolyline
 62
253
  6
CONTINUOUS
 90
16
 70
0
 10
-32.9557021701
 20
1.0447373995
 10
-32.9239969069
 20
1.0467536381
 10
-32.8932741381
 20
1.0518502671
 10
-32.8635338637
 20
1.0600272864
 10
-32.8344603013
 20
1.0714418403
 10
-32.8063692333
 20
1.0859367846
 10
-32.7802080065
 20
1.1030406864
 10
-32.756056279
 20
1.122837155
 10
-32.7338343925
 20
1.1452425811
 10
-32.7142507196
 20
1.1695347044
 10
-32.6973907228
 20
1.1957960315
 10
-32.6831689395
 20
1.2239440557
 10
-32.6720373534
 20
1.2530089964
 10
-32.6641466256
 20
1.2826675933
 10
-32.6593460949
 20
1.3132431068
 10
-32.6576357614
 20
1.3447355367
  0
LWPOLYLINE
  5
6B5
100
AcDbEntity
  8
ASSI
100
AcDbPolyline
 62
253
  6
CONTINUOUS
 90
16
 70
0
 10
-32.9557021701
 20
1.0447373995
 10
-32.9239969069
 20
1.0467536381
 10
-32.8932741381
 20
1.0518502671
 10
-32.8635338637
 20
1.0600272864
 10
-32.8344603013
 20
1.0714418403
 10
-32.8063692333
 20
1.0859367846
 10
-32.7802080065
 20
1.1030406864
 10
-32.756056279
 20
1.122837155
 10
-32.7338343925
 20
1.1452425811
 10
-32.7142507196
 20
1.1695347044
 10
-32.6973907228
 20
1.1957960315
 10
-32.6831689395
 20
1.2239440557
 10
-32.6720373534
 20
1.2530089964
 10
-32.6641466256
 20
1.2826675933
 10
-32.6593460949
 20
1.3132431068
 10
-32.6576357614
 20
1.3447355367
  0
LINE
  5
6B6
100
AcDbEntity
  8
RACCORDO
100
AcDbLine
 62
253
  6
CONTINUOUS
 10
-32.9574473443
 20
0.8447450148
 11
-32.9054446002
 21
0.8479085636
  0
LINE
  5
6B7
100
AcDbEntity
  8
ASSI
100
AcDbLine
 62
253
  6
CONTINUOUS
 10
-32.9574473443
 20
0.8447450148
 11
-32.9054446002
 21
0.8479085636
  0
LINE
  5
6B8
100
AcDbEntity
  8
RACCORDO
100
AcDbLine
 62
7
  6
CONTINUOUS
 10
-32.7036676217
 20
0.7606543572
 11
-37.1219852064
 21
0.5291001444
  0
LINE
  5
6B9
100
AcDbEntity
  8
RACCORDO
100
AcDbLine
 62
253
  6
CONTINUOUS
 10
-34.8719852064
 20
0.1079457131
 11
-30.2615137626
 21
0.1884217915
  0
LINE
  5
6BA
100
AcDbEntity
  8
RACCORDO
100
AcDbLine
 62
253
  6
CONTINUOUS
 10
-29.6219852064
 20
0.0195087572
 11
-29.6968663741
 21
0.019508782
  0
LINE
  5
6BB
100
AcDbEntity
  8
ASSI
100
AcDbLine
 62
253
  6
CONTINUOUS
 10
-29.6219852064
 20
0.0195087572
 11
-29.6968663741
 21
0.019508782
  0
LINE
  5
6BC
100
AcDbEntity
  8
RACCORDO
100
AcDbLine
 62
253
  6
CONTINUOUS
 10
-37.1219852064
 20
0.1393922975
 11
-36.6394349548
 21
0.1393922975
  0
LINE
  5
6BD
100
AcDbEntity
  8
RACCORDO
100
AcDbLine
 62
253
  6
CONTINUOUS
 10
-30.2615137626
 20
0.1884217915
 11
-29.6719852064
 21
0.1884217915
  0
LINE
  5
6BE
100
AcDbEntity
  8
RACCORDO
100
AcDbLine
 62
253
  6
CONTINUOUS
 10
-34.8719852064
 20
0.0776715923
 11
-36.6394349548
 21
0.1393922975
  0
LINE
  5
6BF
100
AcDbEntity
  8
RACCORDO
100
AcDbLine
 62
7
  6
CONTINUOUS
 10
-32.9045189445
 20
0.845206914
 11
-34.8719852064
 21
0.828037096
  0
LINE
  5
6C0
100
AcDbEntity
  8
ASSI
100
AcDbLine
 62
7
  6
CONTINUOUS
 10
-32.9045189445
 20
0.845206914
 11
-34.8719852064
 21
0.828037096
  0
LINE
  5
6C1
100
AcDbEntity
  8
RACCORDO
100
AcDbLine
 62
253
  6
CONTINUOUS
 10
-33.5002894095
 20
1.0399848586
 11
-32.9557021701
 21
1.0447373995
  0
LINE
  5
6C2
100
AcDbEntity
  8
ASSI
100
AcDbLine
 62
253
  6
CONTINUOUS
 10
-33.5002894095
 20
1.0399848586
 11
-32.9557021701
 21
1.0447373995
  0
LINE
  5
6C3
100
AcDbEntity
  8
RACCORDO
100
AcDbLine
 62
253
  6
CONTINUOUS
 10
-32.4614003358
 20
1.3447355367
 11
-32.4079689392
 21
1.3452018255
  0
LINE
  5
6C4
100
AcDbEntity
  8
ASSI
100
AcDbLine
 62
253
  6
CONTINUOUS
 10
-32.4614003358
 20
1.3447355367
 11
-32.4079689392
 21
1.3452018255
  0
LINE
  5
6C5
100
AcDbEntity
  8
RACCORDO
100
AcDbLine
 62
253
  6
CONTINUOUS
 10
-32.6576357614
 20
1.3447355367
 11
-32.4614003358
 21
1.3447355367
  0
LINE
  5
6C6
100
AcDbEntity
  8
ASSI
100
AcDbLine
 62
253
  6
CONTINUOUS
 10
-32.6576357614
 20
1.3447355367
 11
-32.4614003358
 21
1.3447355367
  0
LINE
  5
6C7
100
AcDbEntity
  8
RACCORDO
100
AcDbLine
 62
7
  6
CONTINUOUS
 10
-34.8719852064
 20
0.828037096
 11
-35.3010225641
 21
0.8317812483
  0
LINE
  5
6C8
100
AcDbEntity
  8
ASSI
100
AcDbLine
 62
7
  6
CONTINUOUS
 10
-34.8719852064
 20
0.828037096
 11
-35.3010225641
 21
0.8317812483
  0
LINE
  5
6C9
100
AcDbEntity
  8
DRAFT
100
AcDbLine
 62
7
  6
CONTINUOUS
 10
-36.0510488428
 20
0.6986177284
 11
-36.1219852064
 21
0.6998559272
  0
LINE
  5
6CA
100
AcDbEntity
  8
RACCORDO
100
AcDbLine
 62
253
  6
CONTINUOUS
 10
-37.1219852064
 20
1.781421491
 11
-37.3184947251
 21
1.781421491
  0
LINE
  5
6CB
100
AcDbEntity
  8
RACCORDO
100
AcDbLine
 62
253
  6
CONTINUOUS
 10
-37.8272209283
 20
1.7903013399
 11
-38.1219852064
 21
1.7903013399
  0
LINE
  5
6CC
100
AcDbEntity
  8
RACCORDO
100
AcDbLine
 62
7
  6
CONTINUOUS
 10
-37.8272209283
 20
1.4903470314
 11
-37.3184947251
 21
1.4814671824
  0
LINE
  5
6CD
100
AcDbEntity
  8
RACCORDO
100
AcDbLine
 62
7
  6
CONTINUOUS
 10
-32.4079689392
 20
1.5112101295
 11
-33.1352535363
 21
1.5239049294
  0
LINE
  5
6CE
100
AcDbEntity
  8
ASSI
100
AcDbLine
 62
7
  6
CONTINUOUS
 10
-32.4079689392
 20
1.5112101295
 11
-33.1352535363
 21
1.5239049294
  0
LINE
  5
6CF
100
AcDbEntity
  8
RACCORDO
100
AcDbLine
 62
253
  6
CONTINUOUS
 10
-37.8272209283
 20
1.7903013399
 11
-37.3184947251
 21
1.7813438609
  0
LINE
  5
6D0
100
AcDbEntity
  8
RACCORDO
100
AcDbLine
 62
7
  6
CONTINUOUS
 10
-34.988879312
 20
3.0235118763
 11
-34.1754488915
 21
3.0661419582
  0
LINE
  5
6D1
100
AcDbEntity
  8
RACCORDO
100
AcDbLine
 62
7
  6
CONTINUOUS
 10
-35.4142375734
 20
3.9148543976
 11
-35.2437566971
 21
3.9059198735
  0
LINE
  5
6D2
100
AcDbEntity
  8
RACCORDO
100
AcDbLine
 62
7
  6
CONTINUOUS
 10
-33.9366887387
 20
3.8374193444
 11
-33.7686191154
 21
3.8286111887
  0
LWPOLYLINE
  5
6D3
100
AcDbEntity
  8
RACCORDO
100
AcDbPolyline
 62
253
  6
CONTINUOUS
 90
10
 70
0
 10
-36.6394349548
 20
-0.4602421987
 10
-36.6408842132
 20
-0.4579105132
 10
-36.6421932622
 20
-0.4510389299
 10
-36.6433501771
 20
-0.4396797713
 10
-36.6443431959
 20
-0.4239195058
 10
-36.6451645124
 20
-0.4038779316
 10
-36.6458103432
 20
-0.3797072383
 10
-36.646275419
 20
-0.3515911154
 10
-36.6465548799
 20
-0.3197432662
 10
-36.646648017
 20
-0.2844055831
  0
LINE
  5
6D4
100
AcDbEntity
  8
RACCORDO
100
AcDbLine
 62
7
  6
CONTINUOUS
 10
-38.1219852064
 20
1.7903013399
 11
-38.1219852064
 21
4.6657728522
  0
LINE
  5
6D5
100
AcDbEntity
  8
RACCORDO
100
AcDbLine
 62
253
  6
CONTINUOUS
 10
-37.8272209283
 20
4.6657728522
 11
-37.3184947251
 21
4.6746450778
  0
LINE
  5
6D6
100
AcDbEntity
  8
RACCORDO
100
AcDbLine
 62
7
  6
CONTINUOUS
 10
-32.4079689392
 20
4.9448640626
 11
-33.1352535363
 21
4.9321692627
  0
LINE
  5
6D7
100
AcDbEntity
  8
ASSI
100
AcDbLine
 62
7
  6
CONTINUOUS
 10
-32.4079689392
 20
4.9448640626
 11
-33.1352535363
 21
4.9321692627
  0
LINE
  5
6D8
100
AcDbEntity
  8
RACCORDO
100
AcDbLine
 62
7
  6
CONTINUOUS
 10
-37.8272209283
 20
4.9657271607
 11
-37.3184947251
 21
4.9746070096
  0
LINE
  5
6D9
100
AcDbEntity
  8
DRAFT
100
AcDbLine
 62
7
  6
CONTINUOUS
 10
-34.1904600492
 20
5.0399331619
 11
-34.6308863393
 21
5.0322454924
  0
LINE
  5
6DA
100
AcDbEntity
  8
RACCORDO
100
AcDbLine
 62
253
  6
CONTINUOUS
 10
-38.1219852064
 20
4.6657728522
 11
-37.8272209283
 21
4.6657728522
  0
LINE
  5
6DB
100
AcDbEntity
  8
RACCORDO
100
AcDbLine
 62
253
  6
CONTINUOUS
 10
-37.1219852064
 20
4.6746527011
 11
-37.3184947251
 21
4.6746527011
  0
LWPOLYLINE
  5
6DC
100
AcDbEntity
  8
RACCORDO
100
AcDbPolyline
 62
253
  6
CONTINUOUS
 90
7
 70
0
 10
-37.8272209283
 20
1.4903470314
 10
-37.8278616836
 20
1.4929456811
 10
-37.8284012256
 20
1.5006758058
 10
-37.8288301526
 20
1.5134083485
 10
-37.8291409911
 20
1.5309301113
 10
-37.8293282056
 20
1.5529409939
 10
-37.8293884529
 20
1.5790536449
  0
LINE
  5
6DD
100
AcDbEntity
  8
RACCORDO
100
AcDbLine
 62
253
  6
CONTINUOUS
 10
-37.8272209283
 20
4.6657728522
 11
-37.8284012256
 21
4.7437208138
  0
LINE
  5
6DE
100
AcDbEntity
  8
RACCORDO
100
AcDbLine
 62
253
  6
CONTINUOUS
 10
-37.8284012256
 20
4.7437208138
 11
-37.8291409911
 21
4.8163562528
  0
LWPOLYLINE
  5
6DF
100
AcDbEntity
  8
RACCORDO
100
AcDbPolyline
 62
253
  6
CONTINUOUS
 90
8
 70
0
 10
-37.8291409911
 20
4.8163562528
 10
-37.8293884529
 20
4.8786568658
 10
-37.8293204538
 20
4.9045878065
 10
-37.829125166
 20
4.9263721764
 10
-37.8288084857
 20
4.9435357144
 10
-37.8283792886
 20
4.9558544228
 10
-37.8278464686
 20
4.9632596534
 10
-37.8272209283
 20
4.9657271607
  0
LINE
  5
6E0
100
AcDbEntity
  8
RACCORDO
100
AcDbLine
 62
253
  6
CONTINUOUS
 10
-37.8272209283
 20
1.7903013399
 11
-37.8272209283
 21
4.6657728522
  0
LINE
  5
6E1
100
AcDbEntity
  8
RACCORDO
100
AcDbLine
 62
253
  6
CONTINUOUS
 10
-37.8293884529
 20
1.5790536449
 11
-37.829125166
 21
1.6418526511
  0
LINE
  5
6E2
100
AcDbEntity
  8
RACCORDO
100
AcDbLine
 62
253
  6
CONTINUOUS
 10
-37.829125166
 20
1.6418526511
 11
-37.8283792886
 21
1.7140661901
  0
LINE
  5
6E3
100
AcDbEntity
  8
RACCORDO
100
AcDbLine
 62
253
  6
CONTINUOUS
 10
-37.8283792886
 20
1.7140661901
 11
-37.8272209283
 21
1.7903013399
  0
LINE
  5
6E4
100
AcDbEntity
  8
DRAFT
100
AcDbLine
 62
7
  6
CONTINUOUS
 10
-36.0510488428
 20
5.7574564637
 11
-36.1219852064
 21
5.7562182649
  0
LINE
  5
6E5
100
AcDbEntity
  8
RACCORDO
100
AcDbLine
 62
7
  6
CONTINUOUS
 10
-34.8719852064
 20
5.628037096
 11
-35.3010225641
 21
5.6242929437
  0
LINE
  5
6E6
100
AcDbEntity
  8
ASSI
100
AcDbLine
 62
7
  6
CONTINUOUS
 10
-34.8719852064
 20
5.628037096
 11
-35.3010225641
 21
5.6242929437
  0
LINE
  5
6E7
100
AcDbEntity
  8
RACCORDO
100
AcDbLine
 62
253
  6
CONTINUOUS
 10
-32.6576357614
 20
5.1113386553
 11
-32.4614003358
 21
5.1113386651
  0
LINE
  5
6E8
100
AcDbEntity
  8
ASSI
100
AcDbLine
 62
253
  6
CONTINUOUS
 10
-32.6576357614
 20
5.1113386553
 11
-32.4614003358
 21
5.1113386651
  0
LINE
  5
6E9
100
AcDbEntity
  8
RACCORDO
100
AcDbLine
 62
253
  6
CONTINUOUS
 10
-32.4614003358
 20
5.1113386553
 11
-32.4079689392
 21
5.1108723666
  0
LINE
  5
6EA
100
AcDbEntity
  8
ASSI
100
AcDbLine
 62
253
  6
CONTINUOUS
 10
-32.4614003358
 20
5.1113386553
 11
-32.4079689392
 21
5.1108723666
  0
LINE
  5
6EB
100
AcDbEntity
  8
RACCORDO
100
AcDbLine
 62
253
  6
CONTINUOUS
 10
-32.9557021701
 20
5.4113367926
 11
-33.5002894095
 21
5.4160893335
  0
LINE
  5
6EC
100
AcDbEntity
  8
ASSI
100
AcDbLine
 62
253
  6
CONTINUOUS
 10
-32.9557021701
 20
5.4113367926
 11
-33.5002894095
 21
5.4160893335
  0
LINE
  5
6ED
100
AcDbEntity
  8
RACCORDO
100
AcDbLine
 62
7
  6
CONTINUOUS
 10
-32.9045189445
 20
5.6108672781
 11
-34.8719852064
 21
5.628037096
  0
LINE
  5
6EE
100
AcDbEntity
  8
ASSI
100
AcDbLine
 62
7
  6
CONTINUOUS
 10
-32.9045189445
 20
5.6108672781
 11
-34.8719852064
 21
5.628037096
  0
LWPOLYLINE
  5
6EF
100
AcDbEntity
  8
DRAFT
100
AcDbPolyline
 62
7
  6
CONTINUOUS
 90
10
 70
0
 10
-34.9709780258
 20
3.0336380018
 10
-34.992727893
 20
3.0470154257
 10
-35.0145969467
 20
3.0602618427
 10
-35.0365851871
 20
3.0733772528
 10
-35.0586933375
 20
3.0863565658
 10
-35.0809206745
 20
3.0992048718
 10
-35.1032650275
 20
3.1119374417
 10
-35.1257256731
 20
3.1245593657
 10
-35.1483033347
 20
3.1370655535
 10
-35.1709980125
 20
3.1494560051
  0
LWPOLYLINE
  5
6F0
100
AcDbEntity
  8
ASSI
100
AcDbPolyline
 62
7
  6
CONTINUOUS
 90
10
 70
0
 10
-34.9709780258
 20
3.0336380018
 10
-34.992727893
 20
3.0470154257
 10
-35.0145969467
 20
3.0602618427
 10
-35.0365851871
 20
3.0733772528
 10
-35.0586933375
 20
3.0863565658
 10
-35.0809206745
 20
3.0992048718
 10
-35.1032650275
 20
3.1119374417
 10
-35.1257256731
 20
3.1245593657
 10
-35.1483033347
 20
3.1370655535
 10
-35.1709980125
 20
3.1494560051
  0
LWPOLYLINE
  5
6F1
100
AcDbEntity
  8
RACCORDO
100
AcDbPolyline
 62
253
  6
CONTINUOUS
 90
6
 70
0
 10
-37.3173474222
 20
4.946501474
 10
-37.3175141417
 20
4.956527962
 10
-37.317710542
 20
4.9643993221
 10
-37.317935917
 20
4.9700577392
 10
-37.318196096
 20
4.9734675982
 10
-37.3184941416
 20
4.9746070098
  0
LINE
  5
6F2
100
AcDbEntity
  8
RACCORDO
100
AcDbLine
 62
253
  6
CONTINUOUS
 10
-37.3175141417
 20
1.6787849382
 11
-37.3184941416
 21
1.7813438506
  0
LINE
  5
6F3
100
AcDbEntity
  8
RACCORDO
100
AcDbLine
 62
253
  6
CONTINUOUS
 10
-37.317126202
 20
4.9203513805
 11
-37.3173474222
 21
4.946501474
  0
LINE
  5
6F4
100
AcDbEntity
  8
RACCORDO
100
AcDbLine
 62
253
  6
CONTINUOUS
 10
-37.3170694118
 20
1.5885539804
 11
-37.3175141417
 21
1.6787849382
  0
LINE
  5
6F5
100
AcDbEntity
  8
RACCORDO
100
AcDbLine
 62
253
  6
CONTINUOUS
 10
-37.3170498662
 20
4.8867740376
 11
-37.317126202
 21
4.9203513805
  0
LINE
  5
6F6
100
AcDbEntity
  8
RACCORDO
100
AcDbLine
 62
253
  6
CONTINUOUS
 10
-37.3184947251
 20
1.7813438609
 11
-37.3184947251
 21
4.6746450778
  0
LINE
  5
6F7
100
AcDbEntity
  8
DRAFT
100
AcDbLine
 62
7
  6
CONTINUOUS
 10
-37.1219852064
 20
5.9269740476
 11
-37.1219852064
 21
0.5291001444
  0
LINE
  5
6F8
100
AcDbEntity
  8
RACCORDO
100
AcDbLine
 62
7
  6
CONTINUOUS
 10
-37.1219852064
 20
0.0394532148
 11
-37.1219852064
 21
0.5291001444
  0
LINE
  5
6F9
100
AcDbEntity
  8
RACCORDO
100
AcDbLine
 62
7
  6
CONTINUOUS
 10
-37.1219852064
 20
5.9269740476
 11
-37.1219852064
 21
6.4166209773
  0
LINE
  5
6FA
100
AcDbEntity
  8
RACCORDO
100
AcDbLine
 62
253
  6
CONTINUOUS
 10
-37.3170692845
 20
1.551619289
 11
-37.3170694118
 21
1.5885539804
  0
LINE
  5
6FB
100
AcDbEntity
  8
RACCORDO
100
AcDbLine
 62
253
  6
CONTINUOUS
 10
-37.3172174709
 20
4.8246958598
 11
-37.3170498662
 21
4.8867740376
  0
LINE
  5
6FC
100
AcDbEntity
  8
RACCORDO
100
AcDbLine
 62
253
  6
CONTINUOUS
 10
-37.3179363602
 20
4.7267656219
 11
-37.3172174709
 21
4.8246958598
  0
LINE
  5
6FD
100
AcDbEntity
  8
RACCORDO
100
AcDbLine
 62
253
  6
CONTINUOUS
 10
-37.3184947824
 20
4.6746450768
 11
-37.3179363602
 21
4.7267656219
  0
LWPOLYLINE
  5
6FE
100
AcDbEntity
  8
RACCORDO
100
AcDbPolyline
 62
253
  6
CONTINUOUS
 90
8
 70
0
 10
-37.3184947824
 20
1.4814671835
 10
-37.3181967239
 20
1.4826035458
 10
-37.3179363602
 20
1.4860161883
 10
-37.3177107022
 20
1.491678827
 10
-37.31751399
 20
1.4995488839
 10
-37.3173470717
 20
1.5095657756
 10
-37.3172174709
 20
1.5216493174
 10
-37.3170692845
 20
1.551619289
  0
LWPOLYLINE
  5
6FF
100
AcDbEntity
  8
DRAFT
100
AcDbPolyline
 62
7
  6
CONTINUOUS
 90
10
 70
0
 10
-34.9709780258
 20
3.4224361903
 10
-34.992727893
 20
3.4090587664
 10
-35.0145969467
 20
3.3958123494
 10
-35.0365851871
 20
3.3826969393
 10
-35.0586933375
 20
3.3697176263
 10
-35.0809206745
 20
3.3568693203
 10
-35.1032650275
 20
3.3441367504
 10
-35.1257256731
 20
3.3315148264
 10
-35.1483033347
 20
3.3190086386
 10
-35.1709980125
 20
3.3066181869
  0
LWPOLYLINE
  5
700
100
AcDbEntity
  8
ASSI
100
AcDbPolyline
 62
7
  6
CONTINUOUS
 90
10
 70
0
 10
-34.9709780258
 20
3.4224361903
 10
-34.992727893
 20
3.4090587664
 10
-35.0145969467
 20
3.3958123494
 10
-35.0365851871
 20
3.3826969393
 10
-35.0586933375
 20
3.3697176263
 10
-35.0809206745
 20
3.3568693203
 10
-35.1032650275
 20
3.3441367504
 10
-35.1257256731
 20
3.3315148264
 10
-35.1483033347
 20
3.3190086386
 10
-35.1709980125
 20
3.3066181869
  0
LINE
  5
701
100
AcDbEntity
  8
RACCORDO
100
AcDbLine
 62
253
  6
CONTINUOUS
 10
-36.6394349548
 20
6.3166818946
 11
-34.8719852064
 21
6.3784025998
  0
LINE
  5
702
100
AcDbEntity
  8
RACCORDO
100
AcDbLine
 62
253
  6
CONTINUOUS
 10
-30.2615137626
 20
6.2676524005
 11
-29.6719852064
 21
6.2676523948
  0
LINE
  5
703
100
AcDbEntity
  8
RACCORDO
100
AcDbLine
 62
253
  6
CONTINUOUS
 10
-37.1219852064
 20
6.3166818946
 11
-36.6394349549
 21
6.3166818979
  0
LINE
  5
704
100
AcDbEntity
  8
RACCORDO
100
AcDbLine
 62
253
  6
CONTINUOUS
 10
-29.6219852064
 20
6.4365654348
 11
-29.6968663807
 21
6.4365654348
  0
LINE
  5
705
100
AcDbEntity
  8
ASSI
100
AcDbLine
 62
253
  6
CONTINUOUS
 10
-29.6219852064
 20
6.4365654348
 11
-29.6968663807
 21
6.4365654348
  0
LINE
  5
706
100
AcDbEntity
  8
RACCORDO
100
AcDbLine
 62
253
  6
CONTINUOUS
 10
-30.2615137626
 20
6.2676524005
 11
-34.8719852064
 21
6.3481284789
  0
LINE
  5
707
100
AcDbEntity
  8
RACCORDO
100
AcDbLine
 62
7
  6
CONTINUOUS
 10
-32.7036676217
 20
5.6954198349
 11
-37.1219852064
 21
5.9269740476
  0
LINE
  5
708
100
AcDbEntity
  8
RACCORDO
100
AcDbLine
 62
7
  6
CONTINUOUS
 10
-32.9054272859
 20
5.6081636649
 11
-32.9574473443
 21
5.6113291772
  0
LINE
  5
709
100
AcDbEntity
  8
ASSI
100
AcDbLine
 62
7
  6
CONTINUOUS
 10
-32.9054272859
 20
5.6081636649
 11
-32.9574473443
 21
5.6113291772
  0
LINE
  5
70A
100
AcDbEntity
  8
0
100
AcDbLine
 62
7
  6
CONTINUOUS
 10
-33.7027449666
 20
4.4519481177
 11
-33.8764765348
 21
4.4984993511
  0
LWPOLYLINE
  5
70B
100
AcDbEntity
  8
DRAFT
100
AcDbPolyline
 62
7
  6
CONTINUOUS
 90
10
 70
0
 10
-33.9732466884
 20
3.306767039
 10
-33.9959784524
 20
3.3191797114
 10
-34.018596574
 20
3.3317108977
 10
-34.0411010532
 20
3.344360598
 10
-34.0634926207
 20
3.3571235759
 10
-34.0857705458
 20
3.3700050677
 10
-34.1079326358
 20
3.3830207822
 10
-34.1299781597
 20
3.3961759556
 10
-34.1519078485
 20
3.4094653517
 10
-34.1737217022
 20
3.4228889704
  0
LWPOLYLINE
  5
70C
100
AcDbEntity
  8
ASSI
100
AcDbPolyline
 62
7
  6
CONTINUOUS
 90
10
 70
0
 10
-33.9732466884
 20
3.306767039
 10
-33.9959784524
 20
3.3191797114
 10
-34.018596574
 20
3.3317108977
 10
-34.0411010532
 20
3.344360598
 10
-34.0634926207
 20
3.3571235759
 10
-34.0857705458
 20
3.3700050677
 10
-34.1079326358
 20
3.3830207822
 10
-34.1299781597
 20
3.3961759556
 10
-34.1519078485
 20
3.4094653517
 10
-34.1737217022
 20
3.4228889704
  0
LINE
  5
70D
100
AcDbEntity
  8
RACCORDO
100
AcDbLine
 62
253
  6
CONTINUOUS
 10
-36.6394349548
 20
6.3166818946
 11
-36.642193033
 21
6.4207471299
  0
LINE
  5
70E
100
AcDbEntity
  8
RACCORDO
100
AcDbLine
 62
253
  6
CONTINUOUS
 10
-36.642193033
 20
6.4207471299
 11
-36.6443434155
 21
6.5216510091
  0
LINE
  5
70F
100
AcDbEntity
  8
RACCORDO
100
AcDbLine
 62
253
  6
CONTINUOUS
 10
-36.6443434155
 20
6.5216510091
 11
-36.6458113178
 21
6.6163328601
  0
LWPOLYLINE
  5
710
100
AcDbEntity
  8
RACCORDO
100
AcDbPolyline
 62
253
  6
CONTINUOUS
 90
12
 70
0
 10
-36.6458113178
 20
6.6163328601
 10
-36.6465552839
 20
6.7019206791
 10
-36.646648017
 20
6.7404797752
 10
-36.6465548799
 20
6.7758174582
 10
-36.646275419
 20
6.8076653075
 10
-36.6458103432
 20
6.8357814303
 10
-36.6451645124
 20
6.8599521237
 10
-36.6443431959
 20
6.8799936979
 10
-36.643350177
 20
6.8957539634
 10
-36.6421932622
 20
6.907113122
 10
-36.6408842132
 20
6.9139847053
 10
-36.6394349548
 20
6.9163163908
  0
LINE
  5
711
100
AcDbEntity
  8
RACCORDO
100
AcDbLine
 62
253
  6
CONTINUOUS
 10
-36.6394349548
 20
0.1393922975
 11
-36.6394349548
 21
0.5543895315
  0
LINE
  5
712
100
AcDbEntity
  8
RACCORDO
100
AcDbLine
 62
253
  6
CONTINUOUS
 10
-36.6394349548
 20
5.9016846606
 11
-36.6394349548
 21
6.3166818946
  0
LINE
  5
713
100
AcDbEntity
  8
DRAFT
100
AcDbLine
 62
7
  6
CONTINUOUS
 10
-36.1219852064
 20
5.8745662684
 11
-36.1219852064
 21
0.5815079237
  0
LINE
  5
714
100
AcDbEntity
  8
RACCORDO
100
AcDbLine
 62
7
  6
CONTINUOUS
 10
-36.0719852064
 20
0.8411890793
 11
-36.0719852064
 21
5.6148851128
  0
LINE
  5
715
100
AcDbEntity
  8
ASSI
100
AcDbLine
 62
7
  6
CONTINUOUS
 10
-36.0719852064
 20
0.8411890793
 11
-36.0719852064
 21
5.6148851128
  0
LINE
  5
716
100
AcDbEntity
  8
RACCORDO
100
AcDbLine
 62
253
  6
CONTINUOUS
 10
-36.646648017
 20
-0.2844055831
 11
-36.6462762249
 21
-0.204359053
  0
LINE
  5
717
100
AcDbEntity
  8
RACCORDO
100
AcDbLine
 62
253
  6
CONTINUOUS
 10
-36.6462762249
 20
-0.204359053
 11
-36.6451652248
 21
-0.1138804755
  0
LINE
  5
718
100
AcDbEntity
  8
RACCORDO
100
AcDbLine
 62
253
  6
CONTINUOUS
 10
-36.6451652248
 20
-0.1138804755
 11
-36.6433500418
 21
-0.0157146945
  0
LWPOLYLINE
  5
719
100
AcDbEntity
  8
RACCORDO
100
AcDbPolyline
 62
253
  6
CONTINUOUS
 90
3
 70
0
 10
-36.6433500418
 20
-0.0157146945
 10
-36.6408840289
 20
0.0871606607
 10
-36.6394349548
 20
0.1393922975
  0
LWPOLYLINE
  5
71A
100
AcDbEntity
  8
DRAFT
100
AcDbPolyline
 62
7
  6
CONTINUOUS
 90
10
 70
0
 10
-33.9732466884
 20
3.1493071531
 10
-33.9959784524
 20
3.1368944807
 10
-34.018596574
 20
3.1243632944
 10
-34.0411010532
 20
3.1117135941
 10
-34.0634926207
 20
3.0989506162
 10
-34.0857705458
 20
3.0860691244
 10
-34.1079326358
 20
3.0730534099
 10
-34.1299781597
 20
3.0598982365
 10
-34.1519078485
 20
3.0466088404
 10
-34.1737217022
 20
3.0331852217
  0
LWPOLYLINE
  5
71B
100
AcDbEntity
  8
ASSI
100
AcDbPolyline
 62
7
  6
CONTINUOUS
 90
10
 70
0
 10
-33.9732466884
 20
3.1493071531
 10
-33.9959784524
 20
3.1368944807
 10
-34.018596574
 20
3.1243632944
 10
-34.0411010532
 20
3.1117135941
 10
-34.0634926207
 20
3.0989506162
 10
-34.0857705458
 20
3.0860691244
 10
-34.1079326358
 20
3.0730534099
 10
-34.1299781597
 20
3.0598982365
 10
-34.1519078485
 20
3.0466088404
 10
-34.1737217022
 20
3.0331852217
  0
LINE
  5
71C
100
AcDbEntity
  8
RACCORDO
100
AcDbLine
 62
7
  6
CONTINUOUS
 10
-36.6394349548
 20
6.9163163908
 11
-34.8719852064
 21
6.978037096
  0
LINE
  5
71D
100
AcDbEntity
  8
DRAFT
100
AcDbLine
 62
7
  6
CONTINUOUS
 10
-33.3719852064
 20
7.0304182503
 11
-34.8719852064
 21
6.978037096
  0
LINE
  5
71E
100
AcDbEntity
  8
RACCORDO
100
AcDbLine
 62
7
  6
CONTINUOUS
 10
-34.8719852064
 20
6.978037096
 11
-35.8719852064
 21
6.9693102282
  0
LINE
  5
71F
100
AcDbEntity
  8
ASSI
100
AcDbLine
 62
7
  6
CONTINUOUS
 10
-34.8719852064
 20
6.978037096
 11
-35.8719852064
 21
6.9693102282
  0
LINE
  5
720
100
AcDbEntity
  8
RACCORDO
100
AcDbLine
 62
7
  6
CONTINUOUS
 10
-34.8719852064
 20
6.978037096
 11
-30.1176219387
 21
6.9365463964
  0
LINE
  5
721
100
AcDbEntity
  8
ASSI
100
AcDbLine
 62
7
  6
CONTINUOUS
 10
-34.8719852064
 20
6.978037096
 11
-30.1176219387
 21
6.9365463964
  0
LINE
  5
722
100
AcDbEntity
  8
RACCORDO
100
AcDbLine
 62
7
  6
CONTINUOUS
 10
-30.2615137626
 20
6.8675610176
 11
-34.8719852064
 21
6.948037096
  0
LINE
  5
723
100
AcDbEntity
  8
RACCORDO
100
AcDbLine
 62
7
  6
CONTINUOUS
 10
-32.8686605303
 20
5.6026082306
 11
-32.9054272859
 21
5.6081636649
  0
LINE
  5
724
100
AcDbEntity
  8
ASSI
100
AcDbLine
 62
7
  6
CONTINUOUS
 10
-32.8686605303
 20
5.6026082306
 11
-32.9054272859
 21
5.6081636649
  0
LINE
  5
725
100
AcDbEntity
  8
RACCORDO
100
AcDbLine
 62
7
  6
CONTINUOUS
 10
-35.8719852064
 20
-0.5132360362
 11
-35.8719852064
 21
-0.4870421345
  0
LINE
  5
726
100
AcDbEntity
  8
ASSI
100
AcDbLine
 62
7
  6
CONTINUOUS
 10
-35.8719852064
 20
-0.5132360362
 11
-35.8719852064
 21
-0.4870421345
  0
LINE
  5
727
100
AcDbEntity
  8
RACCORDO
100
AcDbLine
 62
7
  6
CONTINUOUS
 10
-35.8719852064
 20
6.9431163265
 11
-35.8719852064
 21
6.9693102282
  0
LINE
  5
728
100
AcDbEntity
  8
ASSI
100
AcDbLine
 62
7
  6
CONTINUOUS
 10
-35.8719852064
 20
6.9431163265
 11
-35.8719852064
 21
6.9693102282
  0
LINE
  5
729
100
AcDbEntity
  8
RACCORDO
100
AcDbLine
 62
253
  6
CONTINUOUS
 10
-35.4588092952
 20
-0.5168417677
 11
-35.4588092952
 21
-0.5014705552
  0
LINE
  5
72A
100
AcDbEntity
  8
ASSI
100
AcDbLine
 62
253
  6
CONTINUOUS
 10
-35.4588092952
 20
-0.5168417677
 11
-35.4588092952
 21
-0.5014705552
  0
LINE
  5
72B
100
AcDbEntity
  8
RACCORDO
100
AcDbLine
 62
253
  6
CONTINUOUS
 10
-35.4588092952
 20
6.9575447473
 11
-35.4588092952
 21
6.9729159598
  0
LINE
  5
72C
100
AcDbEntity
  8
ASSI
100
AcDbLine
 62
253
  6
CONTINUOUS
 10
-35.4588092952
 20
6.9575447473
 11
-35.4588092952
 21
6.9729159598
  0
LINE
  5
72D
100
AcDbEntity
  8
DRAFT
100
AcDbLine
 62
7
  6
CONTINUOUS
 10
-35.1709980125
 20
3.3066181869
 11
-35.1709980125
 21
3.1494560051
  0
LINE
  5
72E
100
AcDbEntity
  8
ASSI
100
AcDbLine
 62
7
  6
CONTINUOUS
 10
-35.1709980125
 20
3.3066181869
 11
-35.1709980125
 21
3.1494560051
  0
LINE
  5
72F
100
AcDbEntity
  8
DRAFT
100
AcDbLine
 62
7
  6
CONTINUOUS
 10
-34.9709780258
 20
3.4224361903
 11
-34.9709780258
 21
3.0336380018
  0
LINE
  5
730
100
AcDbEntity
  8
ASSI
100
AcDbLine
 62
7
  6
CONTINUOUS
 10
-34.9709780258
 20
3.4224361903
 11
-34.9709780258
 21
3.0336380018
  0
LINE
  5
731
100
AcDbEntity
  8
RACCORDO
100
AcDbLine
 62
7
  6
CONTINUOUS
 10
-34.8719852064
 20
-0.521962904
 11
-34.8719852064
 21
0.6470176478
  0
LINE
  5
732
100
AcDbEntity
  8
DRAFT
100
AcDbLine
 62
7
  6
CONTINUOUS
 10
-34.8719852064
 20
0.6470176478
 11
-34.8719852064
 21
1.1706205471
  0
LINE
  5
733
100
AcDbEntity
  8
ASSI
100
AcDbLine
 62
7
  6
CONTINUOUS
 10
-34.8719852064
 20
0.6470176478
 11
-34.8719852064
 21
1.1706205471
  0
LINE
  5
734
100
AcDbEntity
  8
DRAFT
100
AcDbLine
 62
7
  6
CONTINUOUS
 10
-34.8719852064
 20
5.285453645
 11
-34.8719852064
 21
5.8090565442
  0
LINE
  5
735
100
AcDbEntity
  8
ASSI
100
AcDbLine
 62
7
  6
CONTINUOUS
 10
-34.8719852064
 20
5.285453645
 11
-34.8719852064
 21
5.8090565442
  0
LINE
  5
736
100
AcDbEntity
  8
RACCORDO
100
AcDbLine
 62
7
  6
CONTINUOUS
 10
-34.8719852064
 20
5.8090565442
 11
-34.8719852064
 21
6.978037096
  0
LINE
  5
737
100
AcDbEntity
  8
DRAFT
100
AcDbLine
 62
7
  6
CONTINUOUS
 10
-34.1737217022
 20
3.0331852217
 11
-34.1737217022
 21
3.4228889704
  0
LINE
  5
738
100
AcDbEntity
  8
ASSI
100
AcDbLine
 62
7
  6
CONTINUOUS
 10
-34.1737217022
 20
3.0331852217
 11
-34.1737217022
 21
3.4228889704
  0
LINE
  5
739
100
AcDbEntity
  8
DRAFT
100
AcDbLine
 62
7
  6
CONTINUOUS
 10
-33.9732466884
 20
3.1493071531
 11
-33.9732466884
 21
3.306767039
  0
LINE
  5
73A
100
AcDbEntity
  8
ASSI
100
AcDbLine
 62
7
  6
CONTINUOUS
 10
-33.9732466884
 20
3.1493071531
 11
-33.9732466884
 21
3.306767039
  0
LINE
  5
73B
100
AcDbEntity
  8
0
100
AcDbLine
 62
7
  6
CONTINUOUS
 10
-34.3789942801
 20
2.9471610438
 11
-34.3495583942
 21
3.0570172659
  0
LINE
  5
73C
100
AcDbEntity
  8
DRAFT
100
AcDbLine
 62
7
  6
CONTINUOUS
 10
-34.3475210486
 20
1.5191394211
 11
-34.3931167131
 21
1.3489740843
  0
LINE
  5
73D
100
AcDbEntity
  8
0
100
AcDbLine
 62
7
  6
CONTINUOUS
 10
-34.2813787112
 20
1.3796156541
 11
-34.2321355193
 21
1.5633937483
  0
LINE
  5
73E
100
AcDbEntity
  8
0
100
AcDbLine
 62
7
  6
CONTINUOUS
 10
-33.9459599378
 20
2.6314155585
 11
-33.8960720697
 21
2.8175996168
  0
LINE
  5
73F
100
AcDbEntity
  8
DRAFT
100
AcDbLine
 62
7
  6
CONTINUOUS
 10
-33.3719852064
 20
7.0304182503
 11
-33.3719852064
 21
6.9649467944
  0
LINE
  5
740
100
AcDbEntity
  8
DRAFT
100
AcDbLine
 62
7
  6
CONTINUOUS
 10
-33.3719852064
 20
-0.5088726023
 11
-33.3719852064
 21
-0.5743440582
  0
LWPOLYLINE
  5
741
100
AcDbEntity
  8
RACCORDO
100
AcDbPolyline
 62
253
  6
CONTINUOUS
 90
16
 70
0
 10
-32.6576357614
 20
5.1113386553
 10
-32.6593736028
 20
5.142954947
 10
-32.6642042618
 20
5.1736237473
 10
-32.6721277384
 20
5.2033450564
 10
-32.6832969117
 20
5.2324350447
 10
-32.6975589026
 20
5.2605775418
 10
-32.7144550734
 20
5.2868240356
 10
-32.7340703178
 20
5.3110972655
 10
-32.7563197422
 20
5.333474492
 10
-32.7804900276
 20
5.3532389848
 10
-32.8066664019
 20
5.3703069549
 10
-32.8347636372
 20
5.3847621913
 10
-32.8638127319
 20
5.3961393296
 10
-32.8934906853
 20
5.4042832486
 10
-32.924120498
 20
5.4093490696
 10
-32.9557021701
 20
5.4113367926
  0
LWPOLYLINE
  5
742
100
AcDbEntity
  8
ASSI
100
AcDbPolyline
 62
253
  6
CONTINUOUS
 90
16
 70
0
 10
-32.6576357614
 20
5.1113386553
 10
-32.6593736028
 20
5.142954947
 10
-32.6642042618
 20
5.1736237473
 10
-32.6721277384
 20
5.2033450564
 10
-32.6832969117
 20
5.2324350447
 10
-32.6975589026
 20
5.2605775418
 10
-32.7144550734
 20
5.2868240356
 10
-32.7340703178
 20
5.3110972655
 10
-32.7563197422
 20
5.333474492
 10
-32.7804900276
 20
5.3532389848
 10
-32.8066664019
 20
5.3703069549
 10
-32.8347636372
 20
5.3847621913
 10
-32.8638127319
 20
5.3961393296
 10
-32.8934906853
 20
5.4042832486
 10
-32.924120498
 20
5.4093490696
 10
-32.9557021701
 20
5.4113367926
  0
LWPOLYLINE
  5
743
100
AcDbEntity
  8
RACCORDO
100
AcDbPolyline
 62
253
  6
CONTINUOUS
 90
15
 70
0
 10
-32.4614003358
 20
5.1113386553
 10
-32.4641065003
 20
5.1632673808
 10
-32.4721977419
 20
5.2146471885
 10
-32.485590663
 20
5.264921478
 10
-32.5041467451
 20
5.3135488326
 10
-32.5276677132
 20
5.3599968546
 10
-32.5558936228
 20
5.4037499224
 10
-32.5885168258
 20
5.4443307375
 10
-32.6251863211
 20
5.4813030433
 10
-32.6655026263
 20
5.5142658216
 10
-32.7090281337
 20
5.5428608925
 10
-32.7552934947
 20
5.5667799065
 10
-32.8038006525
 20
5.5857655844
 10
-32.8540264323
 20
5.5996110036
 10
-32.8686605303
 20
5.6026082306
  0
LWPOLYLINE
  5
744
100
AcDbEntity
  8
ASSI
100
AcDbPolyline
 62
253
  6
CONTINUOUS
 90
15
 70
0
 10
-32.4614003358
 20
5.1113386553
 10
-32.4641065003
 20
5.1632673808
 10
-32.4721977419
 20
5.2146471885
 10
-32.485590663
 20
5.264921478
 10
-32.5041467451
 20
5.3135488326
 10
-32.5276677132
 20
5.3599968546
 10
-32.5558936228
 20
5.4037499224
 10
-32.5885168258
 20
5.4443307375
 10
-32.6251863211
 20
5.4813030433
 10
-32.6655026263
 20
5.5142658216
 10
-32.7090281337
 20
5.5428608925
 10
-32.7552934947
 20
5.5667799065
 10
-32.8038006525
 20
5.5857655844
 10
-32.8540264323
 20
5.5996110036
 10
-32.8686605303
 20
5.6026082306
  0
LWPOLYLINE
  5
745
100
AcDbEntity
  8
RACCORDO
100
AcDbPolyline
 62
253
  6
CONTINUOUS
 90
6
 70
0
 10
-32.9553972078
 20
5.5398790484
 10
-32.955612309
 20
5.5645289697
 10
-32.9559361756
 20
5.5845251249
 10
-32.9563589686
 20
5.5992600582
 10
-32.9568678445
 20
5.6082861423
 10
-32.9574473443
 20
5.6113291772
  0
LWPOLYLINE
  5
746
100
AcDbEntity
  8
ASSI
100
AcDbPolyline
 62
253
  6
CONTINUOUS
 90
6
 70
0
 10
-32.9553972078
 20
5.5398790484
 10
-32.955612309
 20
5.5645289697
 10
-32.9559361756
 20
5.5845251249
 10
-32.9563589686
 20
5.5992600582
 10
-32.9568678445
 20
5.6082861423
 10
-32.9574473443
 20
5.6113291772
  0
LINE
  5
747
100
AcDbEntity
  8
RACCORDO
100
AcDbLine
 62
253
  6
CONTINUOUS
 10
-32.9557021701
 20
1.0447373995
 11
-32.9553160128
 21
0.9763473999
  0
LINE
  5
748
100
AcDbEntity
  8
ASSI
100
AcDbLine
 62
253
  6
CONTINUOUS
 10
-32.9557021701
 20
1.0447373995
 11
-32.9553160128
 21
0.9763473999
  0
LINE
  5
749
100
AcDbEntity
  8
RACCORDO
100
AcDbLine
 62
253
  6
CONTINUOUS
 10
-32.6576357614
 20
1.3447355367
 11
-32.6576357614
 21
1.5155680801
  0
LINE
  5
74A
100
AcDbEntity
  8
ASSI
100
AcDbLine
 62
253
  6
CONTINUOUS
 10
-32.6576357614
 20
1.3447355367
 11
-32.6576357614
 21
1.5155680801
  0
LINE
  5
74B
100
AcDbEntity
  8
RACCORDO
100
AcDbLine
 62
253
  6
CONTINUOUS
 10
-32.6576357614
 20
4.940506112
 11
-32.6576357614
 21
5.1113386553
  0
LINE
  5
74C
100
AcDbEntity
  8
ASSI
100
AcDbLine
 62
253
  6
CONTINUOUS
 10
-32.6576357614
 20
4.940506112
 11
-32.6576357614
 21
5.1113386553
  0
LINE
  5
74D
100
AcDbEntity
  8
RACCORDO
100
AcDbLine
 62
253
  6
CONTINUOUS
 10
-32.4614003358
 20
1.3447355367
 11
-32.4614003358
 21
1.512142778
  0
LINE
  5
74E
100
AcDbEntity
  8
ASSI
100
AcDbLine
 62
253
  6
CONTINUOUS
 10
-32.4614003358
 20
1.3447355367
 11
-32.4614003358
 21
1.512142778
  0
LINE
  5
74F
100
AcDbEntity
  8
RACCORDO
100
AcDbLine
 62
253
  6
CONTINUOUS
 10
-32.4614003358
 20
4.9439314141
 11
-32.4614003358
 21
5.1113386553
  0
LINE
  5
750
100
AcDbEntity
  8
ASSI
100
AcDbLine
 62
253
  6
CONTINUOUS
 10
-32.4614003358
 20
4.9439314141
 11
-32.4614003358
 21
5.1113386553
  0
LINE
  5
751
100
AcDbEntity
  8
RACCORDO
100
AcDbLine
 62
7
  6
CONTINUOUS
 10
-32.4079689392
 20
1.3452018255
 11
-32.4079689392
 21
1.5112101295
  0
LINE
  5
752
100
AcDbEntity
  8
ASSI
100
AcDbLine
 62
7
  6
CONTINUOUS
 10
-32.4079689392
 20
1.3452018255
 11
-32.4079689392
 21
1.5112101295
  0
LINE
  5
753
100
AcDbEntity
  8
RACCORDO
100
AcDbLine
 62
7
  6
CONTINUOUS
 10
-32.4079689392
 20
4.9448640626
 11
-32.4079689392
 21
5.1108723666
  0
LINE
  5
754
100
AcDbEntity
  8
ASSI
100
AcDbLine
 62
7
  6
CONTINUOUS
 10
-32.4079689392
 20
4.9448640626
 11
-32.4079689392
 21
5.1108723666
  0
LINE
  5
755
100
AcDbEntity
  8
RACCORDO
100
AcDbLine
 62
7
  6
CONTINUOUS
 10
-32.3719852064
 20
1.1101746944
 11
-32.3719852064
 21
5.3458994977
  0
LINE
  5
756
100
AcDbEntity
  8
RACCORDO
100
AcDbLine
 62
253
  6
CONTINUOUS
 10
-32.955315939
 20
5.4797318555
 11
-32.9553972078
 21
5.5398790484
  0
LINE
  5
757
100
AcDbEntity
  8
ASSI
100
AcDbLine
 62
253
  6
CONTINUOUS
 10
-32.955315939
 20
5.4797318555
 11
-32.9553972078
 21
5.5398790484
  0
LWPOLYLINE
  5
758
100
AcDbEntity
  8
RACCORDO
100
AcDbPolyline
 62
253
  6
CONTINUOUS
 90
7
 70
0
 10
-32.9553160128
 20
0.9763473999
 10
-32.9553972591
 20
0.9162008426
 10
-32.9556123352
 20
0.8915498545
 10
-32.9559361787
 20
0.8715522315
 10
-32.9563589559
 20
0.8568157976
 10
-32.9568678271
 20
0.8477885282
 10
-32.9574473352
 20
0.8447450149
  0
LWPOLYLINE
  5
759
100
AcDbEntity
  8
ASSI
100
AcDbPolyline
 62
253
  6
CONTINUOUS
 90
7
 70
0
 10
-32.9553160128
 20
0.9763473999
 10
-32.9553972591
 20
0.9162008426
 10
-32.9556123352
 20
0.8915498545
 10
-32.9559361787
 20
0.8715522315
 10
-32.9563589559
 20
0.8568157976
 10
-32.9568678271
 20
0.8477885282
 10
-32.9574473352
 20
0.8447450149
  0
LINE
  5
75A
100
AcDbEntity
  8
RACCORDO
100
AcDbLine
 62
253
  6
CONTINUOUS
 10
-32.9557021701
 20
5.4113367926
 11
-32.955315939
 21
5.4797318555
  0
LINE
  5
75B
100
AcDbEntity
  8
ASSI
100
AcDbLine
 62
253
  6
CONTINUOUS
 10
-32.9557021701
 20
5.4113367926
 11
-32.955315939
 21
5.4797318555
  0
LINE
  5
75C
100
AcDbEntity
  8
RACCORDO
100
AcDbLine
 62
253
  6
CONTINUOUS
 10
-30.2615137626
 20
0.1884217915
 11
-30.2587851874
 21
0.0025117201
  0
LWPOLYLINE
  5
75D
100
AcDbEntity
  8
RACCORDO
100
AcDbPolyline
 62
253
  6
CONTINUOUS
 90
7
 70
0
 10
-30.2573669191
 20
6.7538429216
 10
-30.2576943184
 20
6.7880122015
 10
-30.2581792476
 20
6.8164439143
 10
-30.2588134955
 20
6.8387479441
 10
-30.2595871968
 20
6.8547375253
 10
-30.2604910428
 20
6.864350279
 10
-30.2615137626
 20
6.8675610176
  0
LINE
  5
75E
100
AcDbEntity
  8
RACCORDO
100
AcDbLine
 62
253
  6
CONTINUOUS
 10
-30.2587851874
 20
0.0025117201
 11
-30.257676561
 21
-0.1123459218
  0
LINE
  5
75F
100
AcDbEntity
  8
RACCORDO
100
AcDbLine
 62
253
  6
CONTINUOUS
 10
-30.257676561
 20
-0.1123459218
 11
-30.2571972112
 21
-0.2139164554
  0
LINE
  5
760
100
AcDbEntity
  8
RACCORDO
100
AcDbLine
 62
253
  6
CONTINUOUS
 10
-30.2615137626
 20
0.1884217915
 11
-30.2615137626
 21
6.2676524005
  0
LINE
  5
761
100
AcDbEntity
  8
RACCORDO
100
AcDbLine
 62
253
  6
CONTINUOUS
 10
-30.2571972114
 20
6.6699905339
 11
-30.2573669191
 21
6.7538429216
  0
LWPOLYLINE
  5
762
100
AcDbEntity
  8
RACCORDO
100
AcDbPolyline
 62
253
  6
CONTINUOUS
 90
8
 70
0
 10
-30.2571972112
 20
-0.2139164554
 10
-30.2573669199
 20
-0.2977688493
 10
-30.2576943199
 20
-0.3319381136
 10
-30.2581792496
 20
-0.360369804
 10
-30.2588134975
 20
-0.3826738067
 10
-30.259587198
 20
-0.3986633612
 10
-30.2604910424
 20
-0.4082760948
 10
-30.2615137596
 20
-0.4114868255
  0
LINE
  5
763
100
AcDbEntity
  8
RACCORDO
100
AcDbLine
 62
253
  6
CONTINUOUS
 10
-30.2576765617
 20
6.5684200218
 11
-30.2571972114
 21
6.6699905339
  0
LINE
  5
764
100
AcDbEntity
  8
RACCORDO
100
AcDbLine
 62
253
  6
CONTINUOUS
 10
-30.2595611404
 20
6.3927427141
 11
-30.2576765617
 21
6.5684200218
  0
LINE
  5
765
100
AcDbEntity
  8
RACCORDO
100
AcDbLine
 62
253
  6
CONTINUOUS
 10
-30.2615137626
 20
6.2676524005
 11
-30.2595611404
 21
6.3927427141
  0
LWPOLYLINE
  5
766
100
AcDbEntity
  8
RACCORDO
100
AcDbPolyline
 62
253
  6
CONTINUOUS
 90
4
 70
0
 10
-30.1176219387
 20
6.9365463964
 10
-30.1174145412
 20
6.9342654182
 10
-30.1172532236
 20
6.9274959748
 10
-30.1171428847
 20
6.9164440721
  0
LWPOLYLINE
  5
767
100
AcDbEntity
  8
ASSI
100
AcDbPolyline
 62
253
  6
CONTINUOUS
 90
4
 70
0
 10
-30.1176219387
 20
6.9365463964
 10
-30.1174145412
 20
6.9342654182
 10
-30.1172532236
 20
6.9274959748
 10
-30.1171428847
 20
6.9164440721
  0
LINE
  5
768
100
AcDbEntity
  8
RACCORDO
100
AcDbLine
 62
253
  6
CONTINUOUS
 10
-30.1170868566
 20
-0.4268884948
 11
-30.1172125539
 21
-0.3905109687
  0
LINE
  5
769
100
AcDbEntity
  8
ASSI
100
AcDbLine
 62
253
  6
CONTINUOUS
 10
-30.1170868566
 20
-0.4268884948
 11
-30.1172125539
 21
-0.3905109687
  0
LINE
  5
76A
100
AcDbEntity
  8
RACCORDO
100
AcDbLine
 62
253
  6
CONTINUOUS
 10
-30.1171428847
 20
6.9164440721
 11
-30.1170868875
 21
6.8829570357
  0
LINE
  5
76B
100
AcDbEntity
  8
ASSI
100
AcDbLine
 62
253
  6
CONTINUOUS
 10
-30.1171428847
 20
6.9164440721
 11
-30.1170868875
 21
6.8829570357
  0
LINE
  5
76C
100
AcDbEntity
  8
RACCORDO
100
AcDbLine
 62
7
  6
CONTINUOUS
 10
-29.6719852064
 20
0.1884217915
 11
-29.6719852064
 21
6.2676524005
  0
LINE
  5
76D
100
AcDbEntity
  8
RACCORDO
100
AcDbLine
 62
7
  6
CONTINUOUS
 10
-29.6219852064
 20
6.4364012695
 11
-29.6219852064
 21
0.0196219752
  0
LINE
  5
76E
100
AcDbEntity
  8
ASSI
100
AcDbLine
 62
7
  6
CONTINUOUS
 10
-29.6219852064
 20
6.4364012695
 11
-29.6219852064
 21
0.0196219752
  0
LINE
  5
76F
100
AcDbEntity
  8
RACCORDO
100
AcDbLine
 62
253
  6
CONTINUOUS
 10
-30.1170868875
 20
6.8829570357
 11
-30.1172125722
 21
6.846585166
  0
LINE
  5
770
100
AcDbEntity
  8
ASSI
100
AcDbLine
 62
253
  6
CONTINUOUS
 10
-30.1170868875
 20
6.8829570357
 11
-30.1172125722
 21
6.846585166
  0
LWPOLYLINE
  5
771
100
AcDbEntity
  8
RACCORDO
100
AcDbPolyline
 62
253
  6
CONTINUOUS
 90
5
 70
0
 10
-30.1176219387
 20
-0.4804722043
 10
-30.1174145507
 20
-0.4781916907
 10
-30.1172532318
 20
-0.4714234025
 10
-30.1171428833
 20
-0.4603729711
 10
-30.1170868566
 20
-0.4268884948
  0
LWPOLYLINE
  5
772
100
AcDbEntity
  8
ASSI
100
AcDbPolyline
 62
253
  6
CONTINUOUS
 90
5
 70
0
 10
-30.1176219387
 20
-0.4804722043
 10
-30.1174145507
 20
-0.4781916907
 10
-30.1172532318
 20
-0.4714234025
 10
-30.1171428833
 20
-0.4603729711
 10
-30.1170868566
 20
-0.4268884948
  0
ARC
  5
773
100
AcDbEntity
  8
RACCORDO
100
AcDbCircle
 62
7
  6
CONTINUOUS
 10
-34.5719852064
 20
2.228037096
 40
1.6
100
AcDbArc
 50
301.7143149194
 51
38.6821874535
  0
ARC
  5
774
100
AcDbEntity
  8
RACCORDO
100
AcDbCircle
 62
7
  6
CONTINUOUS
 10
-34.5719852064
 20
2.228037096
 40
1.6
100
AcDbArc
 50
201.7867892983
 51
238.7016622811
  0
ARC
  5
775
100
AcDbEntity
  8
ASSI
100
AcDbCircle
 62
7
  6
CONTINUOUS
 10
-34.5719852064
 20
2.228037096
 40
1.6
100
AcDbArc
 50
301.7143149194
 51
38.6821874535
  0
ARC
  5
776
100
AcDbEntity
  8
ASSI
100
AcDbCircle
 62
7
  6
CONTINUOUS
 10
-34.5719852064
 20
2.228037096
 40
1.6
100
AcDbArc
 50
201.7867892983
 51
238.7016622811
  0
CIRCLE
  5
777
100
AcDbEntity
  8
0
100
AcDbCircle
 62
7
  6
CONTINUOUS
 10
-34.5719852064
 20
2.228037096
 40
0.75
  0
ARC
  5
778
100
AcDbEntity
  8
RACCORDO
100
AcDbCircle
 62
7
  6
CONTINUOUS
 10
-35.5719852064
 20
0.8411890793
 40
0.5
100
AcDbArc
 50
180.0
 51
210.5064810837
  0
ARC
  5
779
100
AcDbEntity
  8
ASSI
100
AcDbCircle
 62
7
  6
CONTINUOUS
 10
-35.5719852064
 20
0.8411890793
 40
0.5
100
AcDbArc
 50
180.0
 51
210.5064810837
  0
ARC
  5
77A
100
AcDbEntity
  8
RACCORDO
100
AcDbCircle
 62
7
  6
CONTINUOUS
 10
-36.6219852064
 20
0.0394586819
 40
0.5
100
AcDbArc
 50
180.0006264786
 51
268.0000218541
  0
CIRCLE
  5
77B
100
AcDbEntity
  8
0
100
AcDbCircle
 62
7
  6
CONTINUOUS
 10
-34.5719852064
 20
2.228037096
 40
0.4
  0
ARC
  5
77C
100
AcDbEntity
  8
RACCORDO
100
AcDbCircle
 62
7
  6
CONTINUOUS
 10
-37.8219852064
 20
1.7903013399
 40
0.3
100
AcDbArc
 50
180.0
 51
269.0
  0
ARC
  5
77D
100
AcDbEntity
  8
RACCORDO
100
AcDbCircle
 62
7
  6
CONTINUOUS
 10
-35.299277257
 20
1.0317736329
 40
0.2
100
AcDbArc
 50
238.7016622811
 51
269.5
  0
ARC
  5
77E
100
AcDbEntity
  8
RACCORDO
100
AcDbCircle
 62
7
  6
CONTINUOUS
 10
-35.8719852064
 20
1.7084218538
 40
0.2
100
AcDbArc
 50
180.0
 51
201.7867892983
  0
ARC
  5
77F
100
AcDbEntity
  8
ASSI
100
AcDbCircle
 62
7
  6
CONTINUOUS
 10
-35.299277257
 20
1.0317736329
 40
0.2
100
AcDbArc
 50
238.7016622811
 51
269.5
  0
ARC
  5
780
100
AcDbEntity
  8
ASSI
100
AcDbCircle
 62
7
  6
CONTINUOUS
 10
-35.8719852064
 20
1.7084218538
 40
0.2
100
AcDbArc
 50
180.0
 51
201.7867892983
  0
ARC
  5
781
100
AcDbEntity
  8
RACCORDO
100
AcDbCircle
 62
7
  6
CONTINUOUS
 10
-37.3219852064
 20
1.2814976434
 40
0.2
100
AcDbArc
 50
0.0
 51
89.0000119293
  0
ARC
  5
782
100
AcDbEntity
  8
RACCORDO
100
AcDbCircle
 62
7
  6
CONTINUOUS
 10
-35.9219852064
 20
2.7743353993
 40
0.2
100
AcDbArc
 50
138.7022362975
 51
180.0
  0
ARC
  5
783
100
AcDbEntity
  8
RACCORDO
100
AcDbCircle
 62
7
  6
CONTINUOUS
 10
-34.5719852064
 20
4.228037096
 40
1.6
100
AcDbArc
 50
321.3178125465
 51
58.2856850806
  0
ARC
  5
784
100
AcDbEntity
  8
RACCORDO
100
AcDbCircle
 62
7
  6
CONTINUOUS
 10
-34.5719852064
 20
4.228037096
 40
1.6
100
AcDbArc
 50
121.2983377189
 51
158.2132107017
  0
ARC
  5
785
100
AcDbEntity
  8
ASSI
100
AcDbCircle
 62
7
  6
CONTINUOUS
 10
-34.5719852064
 20
4.228037096
 40
1.6
100
AcDbArc
 50
321.3178125465
 51
58.2856850806
  0
ARC
  5
786
100
AcDbEntity
  8
ASSI
100
AcDbCircle
 62
7
  6
CONTINUOUS
 10
-34.5719852064
 20
4.228037096
 40
1.6
100
AcDbArc
 50
121.2983377189
 51
158.2132107017
  0
CIRCLE
  5
787
100
AcDbEntity
  8
0
100
AcDbCircle
 62
7
  6
CONTINUOUS
 10
-34.5719852064
 20
4.228037096
 40
0.75
  0
ARC
  5
788
100
AcDbEntity
  8
RACCORDO
100
AcDbCircle
 62
7
  6
CONTINUOUS
 10
-35.5719852064
 20
5.6148851128
 40
0.5
100
AcDbArc
 50
149.4935189163
 51
180.0
  0
ARC
  5
789
100
AcDbEntity
  8
ASSI
100
AcDbCircle
 62
7
  6
CONTINUOUS
 10
-35.5719852064
 20
5.6148851128
 40
0.5
100
AcDbArc
 50
149.4935189163
 51
180.0
  0
ARC
  5
78A
100
AcDbEntity
  8
RACCORDO
100
AcDbCircle
 62
7
  6
CONTINUOUS
 10
-36.6219852064
 20
6.4166153353
 40
0.5
100
AcDbArc
 50
91.9999774483
 51
179.9993534814
  0
CIRCLE
  5
78B
100
AcDbEntity
  8
0
100
AcDbCircle
 62
7
  6
CONTINUOUS
 10
-34.5719852064
 20
4.228037096
 40
0.4
  0
ARC
  5
78C
100
AcDbEntity
  8
RACCORDO
100
AcDbCircle
 62
7
  6
CONTINUOUS
 10
-37.8219852064
 20
4.6657728522
 40
0.3
100
AcDbArc
 50
91.0
 51
180.0
  0
ARC
  5
78D
100
AcDbEntity
  8
RACCORDO
100
AcDbCircle
 62
7
  6
CONTINUOUS
 10
-35.299277257
 20
5.4243005591
 40
0.2
100
AcDbArc
 50
90.5
 51
121.2983377189
  0
ARC
  5
78E
100
AcDbEntity
  8
RACCORDO
100
AcDbCircle
 62
7
  6
CONTINUOUS
 10
-35.8719852064
 20
4.7476523383
 40
0.2
100
AcDbArc
 50
158.2132107017
 51
180.0
  0
ARC
  5
78F
100
AcDbEntity
  8
ASSI
100
AcDbCircle
 62
7
  6
CONTINUOUS
 10
-35.299277257
 20
5.4243005591
 40
0.2
100
AcDbArc
 50
90.5
 51
121.2983377189
  0
ARC
  5
790
100
AcDbEntity
  8
ASSI
100
AcDbCircle
 62
7
  6
CONTINUOUS
 10
-35.8719852064
 20
4.7476523383
 40
0.2
100
AcDbArc
 50
158.2132107017
 51
180.0
  0
ARC
  5
791
100
AcDbEntity
  8
RACCORDO
100
AcDbCircle
 62
7
  6
CONTINUOUS
 10
-37.3219852064
 20
5.1745765487
 40
0.2
100
AcDbArc
 50
271.0
 51
360.0
  0
ARC
  5
792
100
AcDbEntity
  8
RACCORDO
100
AcDbCircle
 62
7
  6
CONTINUOUS
 10
-35.9219852064
 20
4.1417387927
 40
0.2
100
AcDbArc
 50
180.0
 51
221.2977640754
  0
ARC
  5
793
100
AcDbEntity
  8
RACCORDO
100
AcDbCircle
 62
7
  6
CONTINUOUS
 10
-30.2719852064
 20
0.1884217915
 40
0.6
100
AcDbArc
 50
271.0
 51
360.0
  0
ARC
  5
794
100
AcDbEntity
  8
RACCORDO
100
AcDbCircle
 62
7
  6
CONTINUOUS
 10
-30.1219852064
 20
0.0195142327
 40
0.5
100
AcDbArc
 50
270.499994527
 51
359.9993725557
  0
ARC
  5
795
100
AcDbEntity
  8
ASSI
100
AcDbCircle
 62
7
  6
CONTINUOUS
 10
-30.1219852064
 20
0.0195142327
 40
0.5
100
AcDbArc
 50
270.499994527
 51
359.9993725557
  0
ARC
  5
796
100
AcDbEntity
  8
RACCORDO
100
AcDbCircle
 62
7
  6
CONTINUOUS
 10
-32.7219852064
 20
1.1101746944
 40
0.35
100
AcDbArc
 50
273.0
 51
360.0
  0
ARC
  5
797
100
AcDbEntity
  8
RACCORDO
100
AcDbCircle
 62
7
  6
CONTINUOUS
 10
-33.8360273216
 20
1.0370853792
 40
0.2
100
AcDbArc
 50
270.5
 51
301.7143149194
  0
ARC
  5
798
100
AcDbEntity
  8
ASSI
100
AcDbCircle
 62
7
  6
CONTINUOUS
 10
-33.8360273216
 20
1.0370853792
 40
0.2
100
AcDbArc
 50
270.5
 51
301.7143149194
  0
ARC
  5
799
100
AcDbEntity
  8
DRAFT
100
AcDbCircle
 62
7
  6
CONTINUOUS
 10
-33.3719852064
 20
3.228037096
 40
2.2
100
AcDbArc
 50
200.0883146301
 51
207.8619718643
  0
ARC
  5
79A
100
AcDbEntity
  8
DRAFT
100
AcDbCircle
 62
7
  6
CONTINUOUS
 10
-33.3719852064
 20
3.228037096
 40
2.2
100
AcDbArc
 50
152.1284458219
 51
159.9211106176
  0
ARC
  5
79B
100
AcDbEntity
  8
DRAFT
100
AcDbCircle
 62
7
  6
CONTINUOUS
 10
-33.3719852064
 20
3.228037096
 40
2.2
100
AcDbArc
 50
124.9057227251
 51
128.1596397213
  0
ARC
  5
79C
100
AcDbEntity
  8
RACCORDO
100
AcDbCircle
 62
7
  6
CONTINUOUS
 10
-30.2719852064
 20
6.2676524005
 40
0.6
100
AcDbArc
 50
0.0
 51
89.0
  0
ARC
  5
79D
100
AcDbEntity
  8
RACCORDO
100
AcDbCircle
 62
7
  6
CONTINUOUS
 10
-30.1219852064
 20
6.4365654348
 40
0.5
100
AcDbArc
 50
359.981188034
 51
89.5
  0
ARC
  5
79E
100
AcDbEntity
  8
ASSI
100
AcDbCircle
 62
7
  6
CONTINUOUS
 10
-30.1219852064
 20
6.4365654348
 40
0.5
100
AcDbArc
 50
359.981188034
 51
89.5
  0
ARC
  5
79F
100
AcDbEntity
  8
RACCORDO
100
AcDbCircle
 62
7
  6
CONTINUOUS
 10
-32.7219852064
 20
5.3458994977
 40
0.35
100
AcDbArc
 50
0.0
 51
87.0
  0
ARC
  5
7A0
100
AcDbEntity
  8
RACCORDO
100
AcDbCircle
 62
7
  6
CONTINUOUS
 10
-33.8360273216
 20
5.4189888129
 40
0.2
100
AcDbArc
 50
58.2856850806
 51
89.5
  0
ARC
  5
7A1
100
AcDbEntity
  8
ASSI
100
AcDbCircle
 62
7
  6
CONTINUOUS
 10
-33.8360273216
 20
5.4189888129
 40
0.2
100
AcDbArc
 50
58.2856850806
 51
89.5
  0
ELLIPSE
  5
7A2
100
AcDbEntity
  8
DRAFT
100
AcDbEllipse
 62
7
  6
CONTINUOUS
 10
-34.5728072549
 20
4.228037096
 30
0.0
 11
0.8986285802
 21
-0.0
 31
0.0
 40
0.9999995816
 41
5.1725642146
 42
10.5365348994
  0
ELLIPSE
  5
7A3
100
AcDbEntity
  8
DRAFT
100
AcDbEllipse
 62
7
  6
CONTINUOUS
 10
-34.5728072549
 20
2.228037096
 30
0.0
 11
0.8986285802
 21
-0.0
 31
0.0
 40
0.9999995816
 41
2.029835715
 42
7.3938063997
  0
ELLIPSE
  5
7A4
100
AcDbEntity
  8
DRAFT
100
AcDbEllipse
 62
7
  6
CONTINUOUS
 10
-34.5724878462
 20
2.228037096
 30
0.0
 11
1.0990125844
 21
-0.0
 31
0.0
 40
0.9999998954
 41
-1.8468022765
 42
0.9941040743
  0
ELLIPSE
  5
7A5
100
AcDbEntity
  8
DRAFT
100
AcDbEllipse
 62
7
  6
CONTINUOUS
 10
-34.5724878462
 20
4.228037096
 30
0.0
 11
1.0990125844
 21
-0.0
 31
0.0
 40
0.9999998954
 41
-0.9941040743
 42
1.8468022765
  0
ELLIPSE
  5
7A6
100
AcDbEntity
  8
RACCORDO
100
AcDbEllipse
 62
7
  6
CONTINUOUS
 10
-32.9088842087
 20
5.110886334
 30
0.0
 11
0.5009007152
 21
-0.0038254608
 31
0.0
 40
0.9981726973
 41
0.0076230607
 42
1.4635937072
  0
ELLIPSE
  5
7A7
100
AcDbEntity
  8
DRAFT
100
AcDbEllipse
 62
7
  6
CONTINUOUS
 10
-34.5714824412
 20
4.228037096
 30
0.0
 11
1.0992869979
 21
-0.0
 31
0.0
 40
0.9999998954
 41
1.8476822578
 42
4.1355613032
  0
ELLIPSE
  5
7A8
100
AcDbEntity
  8
DRAFT
100
AcDbEllipse
 62
7
  6
CONTINUOUS
 10
-34.5714824412
 20
2.228037096
 30
0.0
 11
1.0992869979
 21
0.0
 31
0.0
 40
0.9999998954
 41
2.147624004
 42
4.4355030494
  0
ELLIPSE
  5
7A9
100
AcDbEntity
  8
RACCORDO
100
AcDbEllipse
 62
7
  6
CONTINUOUS
 10
-32.9088842087
 20
1.3451878581
 30
0.0
 11
0.5009007152
 21
0.0038254608
 31
0.0
 40
0.9981726973
 41
-1.5697047011
 42
-0.0076230607
  0
ELLIPSE
  5
7AA
100
AcDbEntity
  8
ASSI
100
AcDbEllipse
 62
7
  6
CONTINUOUS
 10
-34.5728072549
 20
2.228037096
 30
0.0
 11
0.8986285802
 21
-0.0
 31
0.0
 40
0.9999995816
 41
2.029835715
 42
7.3938063997
  0
ELLIPSE
  5
7AB
100
AcDbEntity
  8
ASSI
100
AcDbEllipse
 62
7
  6
CONTINUOUS
 10
-34.5728072549
 20
4.228037096
 30
0.0
 11
0.8986285802
 21
-0.0
 31
0.0
 40
0.9999995816
 41
5.1725642146
 42
10.5365348994
  0
ELLIPSE
  5
7AC
100
AcDbEntity
  8
ASSI
100
AcDbEllipse
 62
7
  6
CONTINUOUS
 10
-34.5714824412
 20
4.228037096
 30
0.0
 11
1.0992869979
 21
-0.0
 31
0.0
 40
0.9999998954
 41
1.8476822578
 42
4.1355613032
  0
ELLIPSE
  5
7AD
100
AcDbEntity
  8
ASSI
100
AcDbEllipse
 62
7
  6
CONTINUOUS
 10
-34.5714824412
 20
2.228037096
 30
0.0
 11
1.0992869979
 21
0.0
 31
0.0
 40
0.9999998954
 41
2.147624004
 42
4.4355030494
  0
ELLIPSE
  5
7AE
100
AcDbEntity
  8
ASSI
100
AcDbEllipse
 62
7
  6
CONTINUOUS
 10
-34.5724878462
 20
2.228037096
 30
0.0
 11
1.0990125844
 21
-0.0
 31
0.0
 40
0.9999998954
 41
-1.8468022765
 42
0.9941040743
  0
ELLIPSE
  5
7AF
100
AcDbEntity
  8
ASSI
100
AcDbEllipse
 62
7
  6
CONTINUOUS
 10
-34.5724878462
 20
4.228037096
 30
0.0
 11
1.0990125844
 21
-0.0
 31
0.0
 40
0.9999998954
 41
-0.9941040743
 42
1.8468022765
  0
ELLIPSE
  5
7B0
100
AcDbEntity
  8
ASSI
100
AcDbEllipse
 62
7
  6
CONTINUOUS
 10
-32.9088842087
 20
5.110886334
 30
0.0
 11
0.5009007152
 21
-0.0038254608
 31
0.0
 40
0.9981726973
 41
0.0076230607
 42
1.4635937072
  0
ELLIPSE
  5
7B1
100
AcDbEntity
  8
ASSI
100
AcDbEllipse
 62
7
  6
CONTINUOUS
 10
-32.9088842087
 20
1.3451878581
 30
0.0
 11
0.5009007152
 21
0.0038254608
 31
0.0
 40
0.9981726973
 41
-1.5697047011
 42
-0.0076230607
  0
ENDSEC
  0
SECTION
  2
OBJECTS
  0
DICTIONARY
  5
C
100
AcDbDictionary
280
0
281
1
  3
ACAD_GROUP
350
D
  3
ACAD_MLINESTYLE
350
17
  3
ACAD_LAYOUT
350
1A
  3
ACAD_PLOTSETTINGS
350
19
  3
ACAD_PLOTSTYLENAME
350
E
  0
DICTIONARY
  5
D
102
{ACAD_REACTORS
330
C
102
}
100
AcDbDictionary
280
0
281
1
  0
ACDBDICTIONARYWDFLT
  5
E
102
{ACAD_REACTORS
330
C
102
}
100
AcDbDictionary
281
1
  3
Normal
350
F
100
AcDbDictionaryWithDefault
340
F
  0
DICTIONARY
  5
17
102
{ACAD_REACTORS
330
C
102
}
100
AcDbDictionary
280
0
281
1
  3
Standard
350
18
  0
DICTIONARY
  5
19
102
{ACAD_REACTORS
330
C
102
}
100
AcDbDictionary
281
1
  0
DICTIONARY
  5
1A
102
{ACAD_REACTORS
330
C
102
}
100
AcDbDictionary
281
1
  3
Model
350
7B2
  3
Layout1
350
7B3
  0
ACDBPLACEHOLDER
  5
F
102
{ACAD_REACTORS
330
E
102
}
  0
MLINESTYLE
  5
18
102
{ACAD_REACTORS
330
17
102
}
100
AcDbMlineStyle
  2
STANDARD
 70
0
  3

 62
256
 51
90.0
 52
90.0
 71
2
 49
0.5
 62
256
  6
BYLAYER
 49
-0.5
 62
256
  6
BYLAYER
  0
LAYOUT
  5
7B2
102
{ACAD_REACTORS
330
1A
102
}
100
AcDbPlotSettings
  1

  2
none_device
  4
ISO_A4_(297.00_x_210.00_MM)
  6

 40
0.0
 41
0.0
 42
0.0
 43
0.0
 44
297.0
 45
210.0
 46
0.0
 47
0.0
 48
0.0
 49
0.0
140
0.0
141
0.0
142
1.0
143
1.0
 70
1024
 72
1
 73
0
 74
0
  7

 75
0
147
1.0
148
0.0
149
0.0
100
AcDbLayout
  1
Model
 70
0
 71
0
 10
0.0
 20
0.0
 11
297.0
 21
210.0
 12
0.0
 22
0.0
 32
0.0
 14
0.0
 24
0.0
 34
0.0
 15
0.0
 25
0.0
 35
0.0
146
0.0
 13
0.0
 23
0.0
 33
0.0
 16
1.0
 26
0.0
 36
0.0
 17
0.0
 27
1.0
 37
0.0
 76
0
330
212
345
0
346
0
  0
LAYOUT
  5
7B3
102
{ACAD_REACTORS
330
1A
102
}
100
AcDbPlotSettings
  1

  2
none_device
  4
ISO_A4_(297.00_x_210.00_MM)
  6

 40
0.0
 41
0.0
 42
0.0
 43
0.0
 44
297.0
 45
210.0
 46
0.0
 47
0.0
 48
0.0
 49
0.0
140
0.0
141
0.0
142
1.0
143
1.0
 70
0
 72
1
 73
0
 74
0
  7

 75
0
147
1.0
148
0.0
149
0.0
100
AcDbLayout
  1
Layout1
 70
0
 71
1
 10
0.0
 20
0.0
 11
297.0
 21
210.0
 12
0.0
 22
0.0
 32
0.0
 14
0.0
 24
0.0
 34
0.0
 15
0.0
 25
0.0
 35
0.0
146
0.0
 13
0.0
 23
0.0
 33
0.0
 16
1.0
 26
0.0
 36
0.0
 17
0.0
 27
1.0
 37
0.0
 76
0
330
213
345
0
346
0
  0
ENDSEC
  0
EOF
