  0
SECTION
  2
HEADER
  9
$ACADVER
  1
AC1024
  9
$DWGCODEPAGE
  3
ANSI_1252
  9
$EXTMAX
 10
297.0
 20
210.0
 30
0.0
  9
$EXTMIN
 10
0.0
 20
0.0
 30
0.0
  9
$LIMMIN
 10
0.0
 20
0.0
  9
$LIMMAX
 10
297.0
 20
210.0
  9
$VIEWCTR
 10
148.5
 20
105.0
  9
$VIEWSIZE
 40
210.0
  9
$CLAYER
  8
0
  9
$LTSCALE
 40
16.335
  9
$CELTYPE
  6
BYLAYER
  9
$DIMSCALE
 40
1.0
  9
$DIMASZ
 40
3.0
  9
$DIMEXO
 40
0.5
  9
$DIMDLI
 40
11.286
  9
$DIMEXE
 40
1.5
  9
$DIMCEN
 40
2.673
  9
$DIMLFAC
 40
1.0
  9
$DIMBLK
  1
_FILLED
  9
$DIMALT
 70
0
  9
$DIMALTF
 40
0.0393700787
  9
$DIMTXT
 40
3.0
  9
$DIMTOL
 70
1
  9
$DIMLIM
 70
0
  9
$DIMTFAC
 40
1.0
  9
$DIMTP
 40
0.01
  9
$DIMTM
 40
0.01
  9
$DIMGAP
 40
0.625
  9
$DIMDSEP
 70
44
  9
$AUNITS
 70
0
  9
$PDMODE
 70
3
  9
$PDSIZE
 40
3.0
  9
$HANDSEED
  5
6F6
  9
$TILEMODE
 70
1
  9
$MEASUREMENT
 70
1
  9
$INSUNITS
 70
4
  0
ENDSEC
  0
SECTION
  2
CLASSES
  0
CLASS
  1
ACDBDICTIONARYWDFLT
  2
AcDbDictionaryWithDefault
  3
AutoCAD 2000
 90
0
 91
1
280
0
281
0
  0
CLASS
  1
ACDBPLACEHOLDER
  2
AcDbPlaceHolder
  3
AutoCAD 2000
 90
0
 91
1
280
0
281
0
  0
CLASS
  1
LAYOUT
  2
AcDbLayout
  3
AutoCAD 2000
 90
0
 91
0
280
0
281
0
  0
ENDSEC
  0
SECTION
  2
TABLES
  0
TABLE
  2
VPORT
  5
8
100
AcDbSymbolTable
 70
2
  0
VPORT
  5
1F4
100
AcDbSymbolTableRecord
100
AcDbViewportTableRecord
  2
*ACTIVE
 70
0
 10
0.0
 20
0.0
 11
1.0
 21
1.0
 12
148.5
 22
105.0
 13
0.0
 23
0.0
 14
1.0
 24
1.0
 15
0.0
 25
0.0
 16
0.0
 26
0.0
 36
1.0
 17
0.0
 27
0.0
 37
0.0
 40
210.0
 41
1.4142857143
 42
50.0
 43
0.0
 44
0.0
 50
0.0
 51
0.0
 71
0
 72
100
 73
1
 74
1
 75
0
 76
0
 77
0
 78
0
  0
ENDTAB
  0
TABLE
  2
LTYPE
  5
5
100
AcDbSymbolTable
 70
6
  0
LTYPE
  5
14
100
AcDbSymbolTableRecord
100
AcDbLinetypeTableRecord
  2
BYBLOCK
 70
0
  3

 72
65
 73
0
 40
0.0
  0
LTYPE
  5
15
100
AcDbSymbolTableRecord
100
AcDbLinetypeTableRecord
  2
BYLAYER
 70
0
  3

 72
65
 73
0
 40
0.0
  0
LTYPE
  5
16
100
AcDbSymbolTableRecord
100
AcDbLinetypeTableRecord
  2
CONTINUOUS
 70
64
  3
Solid line
 72
65
 73
0
 40
0.0
  0
LTYPE
  5
1F5
100
AcDbSymbolTableRecord
100
AcDbLinetypeTableRecord
  2
CENTER
 70
64
  3
____ _ ____ _ ____ _ ____ _ ____ _ ____ _ ____
 72
65
 73
4
 40
0.6
 49
0.375
 74
0
 49
-0.075
 74
0
 49
0.075
 74
0
 49
-0.075
 74
0
  0
LTYPE
  5
1F6
100
AcDbSymbolTableRecord
100
AcDbLinetypeTableRecord
  2
HIDDEN
 70
64
  3
- - - - - - - - - - - - - - - - - - - -
 72
65
 73
2
 40
0.2
 49
0.1
 74
0
 49
-0.1
 74
0
  0
LTYPE
  5
1F7
100
AcDbSymbolTableRecord
100
AcDbLinetypeTableRecord
  2
PHANTOM
 70
64
  3
_____ _ _ _____ _ _ _____ _ _ _____
 72
65
 73
6
 40
0.8
 49
0.45
 74
0
 49
-0.05
 74
0
 49
0.1
 74
0
 49
-0.05
 74
0
 49
0.1
 74
0
 49
-0.05
 74
0
  0
LTYPE
  5
1F8
100
AcDbSymbolTableRecord
100
AcDbLinetypeTableRecord
  2
DOT
 70
64
  3
. . . . . . . . . . . . . . . . . . . .
 72
65
 73
2
 40
0.2
 49
0.1
 74
0
 49
-0.1
 74
0
  0
LTYPE
  5
1F9
100
AcDbSymbolTableRecord
100
AcDbLinetypeTableRecord
  2
DASHED
 70
64
  3
- - - - - - - - - - - - - - - - - - - -
 72
65
 73
2
 40
0.2
 49
0.1
 74
0
 49
-0.1
 74
0
  0
ENDTAB
  0
TABLE
  2
LAYER
  5
2
100
AcDbSymbolTable
 70
36
  0
LAYER
  5
10
100
AcDbSymbolTableRecord
100
AcDbLayerTableRecord
  2
0
 70
0
 62
7
  6
CONTINUOUS
370
-3
390
F
  0
LAYER
  5
1FA
100
AcDbSymbolTableRecord
100
AcDbLayerTableRecord
  2
DEFAULT_1
 70
0
 62
7
  6
CENTER
370
-3
390
F
  0
LAYER
  5
1FB
100
AcDbSymbolTableRecord
100
AcDbLayerTableRecord
  2
DEFAULT_2
 70
0
 62
7
  6
HIDDEN
370
-3
390
F
  0
LAYER
  5
1FC
100
AcDbSymbolTableRecord
100
AcDbLayerTableRecord
  2
DEFAULT_3
 70
0
 62
7
  6
PHANTOM
370
-3
390
F
  0
LAYER
  5
1FD
100
AcDbSymbolTableRecord
100
AcDbLayerTableRecord
  2
06___PRT_ALL_SURFS
 70
0
 62
7
  6
CONTINUOUS
370
-3
390
F
  0
LAYER
  5
1FE
100
AcDbSymbolTableRecord
100
AcDbLayerTableRecord
  2
06___PRT_ALL_SURFS_3
 70
0
 62
7
  6
CONTINUOUS
370
-3
390
F
  0
LAYER
  5
1FF
100
AcDbSymbolTableRecord
100
AcDbLayerTableRecord
  2
0805_R_REF_60000
 70
0
 62
7
  6
CONTINUOUS
370
-3
390
F
  0
LAYER
  5
200
100
AcDbSymbolTableRecord
100
AcDbLayerTableRecord
  2
0805_R_REF_60000_1
 70
0
 62
7
  6
CONTINUOUS
370
-3
390
F
  0
LAYER
  5
201
100
AcDbSymbolTableRecord
100
AcDbLayerTableRecord
  2
1206_C_REF_180000
 70
0
 62
7
  6
CONTINUOUS
370
-3
390
F
  0
LAYER
  5
202
100
AcDbSymbolTableRecord
100
AcDbLayerTableRecord
  2
43001026A0
 70
0
 62
7
  6
CONTINUOUS
370
-3
390
F
  0
LAYER
  5
203
100
AcDbSymbolTableRecord
100
AcDbLayerTableRecord
  2
ASSI
 70
0
 62
7
  6
CONTINUOUS
370
-3
390
F
  0
LAYER
  5
204
100
AcDbSymbolTableRecord
100
AcDbLayerTableRecord
  2
COLOR2
 70
0
 62
7
  6
CONTINUOUS
370
-3
390
F
  0
LAYER
  5
205
100
AcDbSymbolTableRecord
100
AcDbLayerTableRecord
  2
COORDINATE
 70
0
 62
7
  6
CONTINUOUS
370
-3
390
F
  0
LAYER
  5
206
100
AcDbSymbolTableRecord
100
AcDbLayerTableRecord
  2
COPY_PUBLISH
 70
0
 62
7
  6
CONTINUOUS
370
-3
390
F
  0
LAYER
  5
207
100
AcDbSymbolTableRecord
100
AcDbLayerTableRecord
  2
COSMETICI
 70
0
 62
7
  6
CONTINUOUS
370
-3
390
F
  0
LAYER
  5
208
100
AcDbSymbolTableRecord
100
AcDbLayerTableRecord
  2
CURVE
 70
0
 62
7
  6
CONTINUOUS
370
-3
390
F
  0
LAYER
  5
209
100
AcDbSymbolTableRecord
100
AcDbLayerTableRecord
  2
DRAFT
 70
0
 62
7
  6
CONTINUOUS
370
-3
390
F
  0
LAYER
  5
20A
100
AcDbSymbolTableRecord
100
AcDbLayerTableRecord
  2
GEOMETRIA_SOLIDA
 70
0
 62
7
  6
CONTINUOUS
370
-3
390
F
  0
LAYER
  5
20B
100
AcDbSymbolTableRecord
100
AcDbLayerTableRecord
  2
GEOMETRIA_SOLIDA_1
 70
0
 62
7
  6
CONTINUOUS
370
-3
390
F
  0
LAYER
  5
20C
100
AcDbSymbolTableRecord
100
AcDbLayerTableRecord
  2
IMPORT_IGES
 70
0
 62
7
  6
CONTINUOUS
370
-3
390
F
  0
LAYER
  5
20D
100
AcDbSymbolTableRecord
100
AcDbLayerTableRecord
  2
MINIMELF_R_REF_140000
 70
0
 62
7
  6
CONTINUOUS
370
-3
390
F
  0
LAYER
  5
20E
100
AcDbSymbolTableRecord
100
AcDbLayerTableRecord
  2
MINIMELF_R_REF_140000_1
 70
0
 62
7
  6
CONTINUOUS
370
-3
390
F
  0
LAYER
  5
20F
100
AcDbSymbolTableRecord
100
AcDbLayerTableRecord
  2
NOTE
 70
0
 62
7
  6
CONTINUOUS
370
-3
390
F
  0
LAYER
  5
210
100
AcDbSymbolTableRecord
100
AcDbLayerTableRecord
  2
PIANI
 70
0
 62
7
  6
CONTINUOUS
370
-3
390
F
  0
LAYER
  5
211
100
AcDbSymbolTableRecord
100
AcDbLayerTableRecord
  2
PUNTI
 70
0
 62
7
  6
CONTINUOUS
370
-3
390
F
  0
LAYER
  5
212
100
AcDbSymbolTableRecord
100
AcDbLayerTableRecord
  2
RACCORDO
 70
0
 62
7
  6
CONTINUOUS
370
-3
390
F
  0
LAYER
  5
213
100
AcDbSymbolTableRecord
100
AcDbLayerTableRecord
  2
SIMBOLI
 70
0
 62
7
  6
CONTINUOUS
370
-3
390
F
  0
LAYER
  5
214
100
AcDbSymbolTableRecord
100
AcDbLayerTableRecord
  2
SMUSSO
 70
0
 62
7
  6
CONTINUOUS
370
-3
390
F
  0
LAYER
  5
215
100
AcDbSymbolTableRecord
100
AcDbLayerTableRecord
  2
SUB_SMA_143000
 70
0
 62
7
  6
CONTINUOUS
370
-3
390
F
  0
LAYER
  5
216
100
AcDbSymbolTableRecord
100
AcDbLayerTableRecord
  2
SUPERFICI
 70
0
 62
7
  6
CONTINUOUS
370
-3
390
F
  0
LAYER
  5
217
100
AcDbSymbolTableRecord
100
AcDbLayerTableRecord
  2
TRASH
 70
0
 62
7
  6
CONTINUOUS
370
-3
390
F
  0
LAYER
  5
218
100
AcDbSymbolTableRecord
100
AcDbLayerTableRecord
  2
VG_LED-SMT-1_6-0_75-1_0_100000
 70
0
 62
7
  6
CONTINUOUS
370
-3
390
F
  0
LAYER
  5
219
100
AcDbSymbolTableRecord
100
AcDbLayerTableRecord
  2
___SHELL
 70
0
 62
7
  6
CONTINUOUS
370
-3
390
F
  0
ENDTAB
  0
TABLE
  2
STYLE
  5
3
100
AcDbSymbolTable
 70
1
  0
STYLE
  5
11
100
AcDbSymbolTableRecord
100
AcDbTextStyleTableRecord
  2
STANDARD
 70
0
 40
0.0
 41
0.8
 50
0.0
 71
0
 42
0.2
  3
txt
  4

  0
STYLE
  5
21A
100
AcDbSymbolTableRecord
100
AcDbTextStyleTableRecord
  2
TEXTSTYLE_1
 70
0
 40
0.0
 41
0.8
 50
0.0
 71
0
 42
0.2
  3
gdt
  4

  0
ENDTAB
  0
TABLE
  2
VIEW
  5
6
100
AcDbSymbolTable
 70
0
  0
ENDTAB
  0
TABLE
  2
UCS
  5
7
100
AcDbSymbolTable
 70
0
  0
ENDTAB
  0
TABLE
  2
APPID
  5
9
100
AcDbSymbolTable
 70
1
  0
APPID
  5
21B
100
AcDbSymbolTableRecord
100
AcDbRegAppTableRecord
  2
ACAD
 70
0
  0
ENDTAB
  0
TABLE
  2
BLOCK_RECORD
  5
1
100
AcDbSymbolTable
 70
0
  0
BLOCK_RECORD
  5
21C
100
AcDbSymbolTableRecord
100
AcDbBlockTableRecord
  2
*Model_Space
  0
BLOCK_RECORD
  5
21D
100
AcDbSymbolTableRecord
100
AcDbBlockTableRecord
  2
*Paper_Space
  0
BLOCK_RECORD
  5
21E
100
AcDbSymbolTableRecord
100
AcDbBlockTableRecord
  2
_FILLED
  0
BLOCK_RECORD
  5
21F
100
AcDbSymbolTableRecord
100
AcDbBlockTableRecord
  2
*D0
  0
BLOCK_RECORD
  5
220
100
AcDbSymbolTableRecord
100
AcDbBlockTableRecord
  2
*D1
  0
BLOCK_RECORD
  5
221
100
AcDbSymbolTableRecord
100
AcDbBlockTableRecord
  2
*D2
  0
BLOCK_RECORD
  5
222
100
AcDbSymbolTableRecord
100
AcDbBlockTableRecord
  2
*D3
  0
ENDTAB
  0
TABLE
  2
DIMSTYLE
  5
A
100
AcDbSymbolTable
 70
1
100
AcDbDimStyleTable
 71
0
  0
DIMSTYLE
105
223
100
AcDbSymbolTableRecord
100
AcDbDimStyleTableRecord
  2
STANDARD
 70
0
  3

  4

 40
1.0
 41
3.0
 42
0.5
 43
0.38
 44
1.5
 45
0.0
 46
0.0
 47
0.01
 48
0.01
140
3.0
141
0.09
142
0.0
143
25.4
144
1.0
145
0.0
146
1.0
147
0.625
 71
1
 72
0
 73
0
 74
0
 75
0
 76
0
 77
1
 78
8
 79
2
170
0
171
1
172
0
173
0
174
0
175
0
176
0
177
0
178
0
270
2
179
2
271
2
272
2
273
2
274
2
275
0
280
0
281
0
282
0
283
1
284
8
285
0
286
0
287
3
288
0
340
11
278
44
341
21E
342
21E
343
21E
344
21E
  0
DIMSTYLE
105
224
100
AcDbSymbolTableRecord
100
AcDbDimStyleTableRecord
  2
DIMSTYLE_1
 70
0
  3

  4

 40
1.0
 41
3.0
 42
0.5
 43
0.38
 44
1.5
 45
0.0
 46
0.0
 47
0.0
 48
0.0
140
3.0
141
0.09
142
0.0
143
25.4
144
1.0
145
0.0
146
1.0
147
0.75
 71
0
 72
0
 73
0
 74
0
 75
0
 76
0
 77
1
 78
8
 79
2
170
0
171
1
172
0
173
0
174
0
175
0
176
0
177
0
178
0
270
2
179
2
271
2
272
2
273
2
274
2
275
0
280
0
281
0
282
0
283
1
284
8
285
0
286
0
287
3
288
0
340
11
278
44
341
21E
342
21E
343
21E
344
21E
  0
DIMSTYLE
105
225
100
AcDbSymbolTableRecord
100
AcDbDimStyleTableRecord
  2
DIMSTYLE_2
 70
0
  3

  4

 40
1.0
 41
3.0
 42
0.5
 43
0.38
 44
1.5
 45
0.0
 46
0.0
 47
0.0
 48
0.0
140
3.0
141
0.09
142
0.0
143
25.4
144
1.0
145
0.0
146
1.0
147
0.75
 71
0
 72
0
 73
0
 74
0
 75
0
 76
0
 77
1
 78
8
 79
2
170
0
171
1
172
0
173
0
174
0
175
0
176
0
177
0
178
0
270
2
179
2
271
0
272
0
273
2
274
2
275
0
280
0
281
0
282
0
283
1
284
8
285
0
286
0
287
3
288
0
340
11
278
44
341
21E
342
21E
343
21E
344
21E
  0
ENDTAB
  0
ENDSEC
  0
SECTION
  2
BLOCKS
  0
BLOCK
  5
20
100
AcDbEntity
  8
0
100
AcDbBlockBegin
  2
*Model_Space
 70
0
 10
0.0
 20
0.0
 30
0.0
  3
*Model_Space
  1

  0
ENDBLK
  5
21
100
AcDbEntity
  8
0
100
AcDbBlockEnd
  0
BLOCK
  5
1C
100
AcDbEntity
  8
0
100
AcDbBlockBegin
  2
*Paper_Space
 70
0
 10
0.0
 20
0.0
 30
0.0
  3
*Paper_Space
  1

  0
ENDBLK
  5
1D
100
AcDbEntity
  8
0
100
AcDbBlockEnd
  0
BLOCK
  5
226
100
AcDbEntity
  8
0
100
AcDbBlockBegin
  2
_FILLED
 70
64
 10
0.0
 20
0.0
  3
_FILLED
  1

  0
SOLID
  5
227
100
AcDbEntity
  8
0
  6
BYBLOCK
 62
0
100
AcDbTrace
 10
0.0
 20
0.0
 11
-1.0
 21
0.3166666667
 12
-1.0
 22
-0.3166666667
 13
-1.0
 23
-0.3166666667
  0
ENDBLK
  5
228
100
AcDbEntity
  8
0
  6
BYBLOCK
 62
0
100
AcDbBlockEnd
  0
BLOCK
  5
229
100
AcDbEntity
  8
0
100
AcDbBlockBegin
 62
7
  6
CONTINUOUS
  2
*D0
 70
65
 10
0.0
 20
0.0
  3
*D0
  1

  0
MTEXT
  5
22A
100
AcDbEntity
  8
0
100
AcDbMText
 62
7
  6
CONTINUOUS
  7
STANDARD
 71
2
 72
1
 10
-110.475292408
 20
18.3339473135
 30
0.0
 11
1.0
 21
0.0
 31
0.0
 73
2
 44
0.9
  1
{\ftxt;\W0.0001;\H0.0001;\~}{\ftxt;\W0.7857142857;\H3.0; }{\ftxt;\W0.0001;\H0.0001;\~}
 40
3.0
 41
3.5357142857
  0
LINE
  5
22B
100
AcDbEntity
  8
0
100
AcDbLine
 62
7
  6
CONTINUOUS
 10
-108.475292408
 20
10.6313741229
 11
-108.475292408
 21
16.0839473135
  0
LINE
  5
22C
100
AcDbEntity
  8
0
100
AcDbLine
 62
7
  6
CONTINUOUS
 10
-112.475292408
 20
10.5977642586
 11
-112.475292408
 21
16.0839473135
  0
LINE
  5
22D
100
AcDbEntity
  8
0
100
AcDbLine
 62
7
  6
CONTINUOUS
 10
-108.475292408
 20
14.5839473135
 11
-104.475292408
 21
14.5839473135
  0
LINE
  5
22E
100
AcDbEntity
  8
0
100
AcDbLine
 62
7
  6
CONTINUOUS
 10
-104.475292408
 20
14.5839473135
 11
-110.475292408
 21
14.5839473135
  0
LINE
  5
22F
100
AcDbEntity
  8
0
100
AcDbLine
 62
7
  6
CONTINUOUS
 10
-112.475292408
 20
14.5839473135
 11
-116.475292408
 21
14.5839473135
  0
LINE
  5
230
100
AcDbEntity
  8
0
100
AcDbLine
 62
7
  6
CONTINUOUS
 10
-116.475292408
 20
14.5839473135
 11
-110.475292408
 21
14.5839473135
  0
INSERT
  5
231
100
AcDbEntity
  8
0
100
AcDbBlockReference
 62
7
  6
CONTINUOUS
  2
_FILLED
 10
-108.475292408
 20
14.5839473135
 41
3.0
 42
3.0
 43
3.0
 50
180.0
  0
INSERT
  5
232
100
AcDbEntity
  8
0
100
AcDbBlockReference
 62
7
  6
CONTINUOUS
  2
_FILLED
 10
-112.475292408
 20
14.5839473135
 41
3.0
 42
3.0
 43
3.0
  0
ENDBLK
  5
233
100
AcDbEntity
  8
0
  6
BYBLOCK
 62
0
100
AcDbBlockEnd
  0
BLOCK
  5
234
100
AcDbEntity
  8
0
100
AcDbBlockBegin
 62
7
  6
CONTINUOUS
  2
*D1
 70
65
 10
0.0
 20
0.0
  3
*D1
  1

  0
MTEXT
  5
235
100
AcDbEntity
  8
0
100
AcDbMText
 62
7
  6
CONTINUOUS
  7
STANDARD
 71
3
 72
1
 10
-122.4127833723
 20
-2.0686612887
 30
0.0
 11
0.0
 21
1.0
 31
0.0
 73
2
 44
0.9
  1
{\ftxt;\W0.0001;\H0.0001;\~}{\ftxt;\W1.9285714286;\H3.0; }{\ftxt;\W0.0001;\H0.0001;\~}
 40
3.0
 41
8.6785714286
  0
LINE
  5
236
100
AcDbEntity
  8
0
100
AcDbLine
 62
7
  6
CONTINUOUS
 10
-108.975292408
 20
10.2813684113
 11
-120.1627833723
 21
10.2813684113
  0
LINE
  5
237
100
AcDbEntity
  8
0
100
AcDbLine
 62
7
  6
CONTINUOUS
 10
-108.975292408
 20
3.1813684113
 11
-120.1627833723
 21
3.1813684113
  0
LINE
  5
238
100
AcDbEntity
  8
0
100
AcDbLine
 62
7
  6
CONTINUOUS
 10
-118.6627833723
 20
10.2813684113
 11
-118.6627833723
 21
14.2813684113
  0
LINE
  5
239
100
AcDbEntity
  8
0
100
AcDbLine
 62
7
  6
CONTINUOUS
 10
-118.6627833723
 20
14.2813684113
 11
-118.6627833723
 21
6.7313684113
  0
LINE
  5
23A
100
AcDbEntity
  8
0
100
AcDbLine
 62
7
  6
CONTINUOUS
 10
-118.6627833723
 20
3.1813684113
 11
-118.6627833723
 21
-7.8543755744
  0
LINE
  5
23B
100
AcDbEntity
  8
0
100
AcDbLine
 62
7
  6
CONTINUOUS
 10
-118.6627833723
 20
-7.8543755744
 11
-118.6627833723
 21
6.7313684113
  0
INSERT
  5
23C
100
AcDbEntity
  8
0
100
AcDbBlockReference
 62
7
  6
CONTINUOUS
  2
_FILLED
 10
-118.6627833723
 20
10.2813684113
 41
3.0
 42
3.0
 43
3.0
 50
270.0
  0
INSERT
  5
23D
100
AcDbEntity
  8
0
100
AcDbBlockReference
 62
7
  6
CONTINUOUS
  2
_FILLED
 10
-118.6627833723
 20
3.1813684113
 41
3.0
 42
3.0
 43
3.0
 50
90.0
  0
ENDBLK
  5
23E
100
AcDbEntity
  8
0
  6
BYBLOCK
 62
0
100
AcDbBlockEnd
  0
BLOCK
  5
23F
100
AcDbEntity
  8
0
100
AcDbBlockBegin
 62
7
  6
CONTINUOUS
  2
*D2
 70
65
 10
0.0
 20
0.0
  3
*D2
  1

  0
MTEXT
  5
240
100
AcDbEntity
  8
0
100
AcDbMText
 62
7
  6
CONTINUOUS
  7
STANDARD
 71
2
 72
1
 10
-92.6814954797
 20
18.2106222364
 30
0.0
 11
1.0
 21
0.0
 31
0.0
 73
2
 44
0.9
  1
{\ftxt;\W0.0001;\H0.0001;\~}{\ftxt;\W2.7142857143;\H3.0; }{\ftxt;\W0.0001;\H0.0001;\~}
 40
3.0
 41
12.2142857143
  0
LINE
  5
241
100
AcDbEntity
  8
0
100
AcDbLine
 62
7
  6
CONTINUOUS
 10
-102.7314954797
 20
9.3121255772
 11
-102.7314954797
 21
15.9606222364
  0
LINE
  5
242
100
AcDbEntity
  8
0
100
AcDbLine
 62
7
  6
CONTINUOUS
 10
-82.6314954797
 20
10.6313741229
 11
-82.6314954797
 21
15.9606222364
  0
LINE
  5
243
100
AcDbEntity
  8
0
100
AcDbLine
 62
7
  6
CONTINUOUS
 10
-102.7314954797
 20
14.4606222364
 11
-92.6814954797
 21
14.4606222364
  0
LINE
  5
244
100
AcDbEntity
  8
0
100
AcDbLine
 62
7
  6
CONTINUOUS
 10
-82.6314954797
 20
14.4606222364
 11
-92.6814954797
 21
14.4606222364
  0
INSERT
  5
245
100
AcDbEntity
  8
0
100
AcDbBlockReference
 62
7
  6
CONTINUOUS
  2
_FILLED
 10
-102.7314954797
 20
14.4606222364
 41
3.0
 42
3.0
 43
3.0
 50
180.0
  0
INSERT
  5
246
100
AcDbEntity
  8
0
100
AcDbBlockReference
 62
7
  6
CONTINUOUS
  2
_FILLED
 10
-82.6314954797
 20
14.4606222364
 41
3.0
 42
3.0
 43
3.0
  0
ENDBLK
  5
247
100
AcDbEntity
  8
0
  6
BYBLOCK
 62
0
100
AcDbBlockEnd
  0
BLOCK
  5
248
100
AcDbEntity
  8
0
100
AcDbBlockBegin
 62
7
  6
CONTINUOUS
  2
*D3
 70
65
 10
0.0
 20
0.0
  3
*D3
  1

  0
MTEXT
  5
249
100
AcDbEntity
  8
0
100
AcDbMText
 62
7
  6
CONTINUOUS
  7
STANDARD
 71
2
 72
1
 10
-65.4038220654
 20
18.2238648504
 30
0.0
 11
1.0
 21
0.0
 31
0.0
 73
2
 44
0.9
  1
{\ftxt;\W0.0001;\H0.0001;\~}{\ftxt;\W2.1428571429;\H3.0; }{\ftxt;\W0.0001;\H0.0001;\~}
 40
3.0
 41
9.6428571429
  0
LINE
  5
24A
100
AcDbEntity
  8
0
100
AcDbLine
 62
7
  6
CONTINUOUS
 10
-82.6463659274
 20
6.0813684113
 11
-82.6463659274
 21
15.9738648504
  0
LINE
  5
24B
100
AcDbEntity
  8
0
100
AcDbLine
 62
7
  6
CONTINUOUS
 10
-48.1612782033
 20
5.6813684113
 11
-48.1612782033
 21
15.9738648504
  0
LINE
  5
24C
100
AcDbEntity
  8
0
100
AcDbLine
 62
7
  6
CONTINUOUS
 10
-82.6463659274
 20
14.4738648504
 11
-65.4038220654
 21
14.4738648504
  0
LINE
  5
24D
100
AcDbEntity
  8
0
100
AcDbLine
 62
7
  6
CONTINUOUS
 10
-48.1612782033
 20
14.4738648504
 11
-65.4038220654
 21
14.4738648504
  0
INSERT
  5
24E
100
AcDbEntity
  8
0
100
AcDbBlockReference
 62
7
  6
CONTINUOUS
  2
_FILLED
 10
-82.6463659274
 20
14.4738648504
 41
3.0
 42
3.0
 43
3.0
 50
180.0
  0
INSERT
  5
24F
100
AcDbEntity
  8
0
100
AcDbBlockReference
 62
7
  6
CONTINUOUS
  2
_FILLED
 10
-48.1612782033
 20
14.4738648504
 41
3.0
 42
3.0
 43
3.0
  0
ENDBLK
  5
250
100
AcDbEntity
  8
0
  6
BYBLOCK
 62
0
100
AcDbBlockEnd
  0
ENDSEC
  0
SECTION
  2
ENTITIES
  0
DIMENSION
  5
251
100
AcDbEntity
  8
0
100
AcDbDimension
 62
7
  6
CONTINUOUS
  2
*D0
 10
-112.475292408
 20
14.5839473135
 11
-110.903863266
 21
14.5839473135
 70
160
 71
2
 72
2
 41
0.9
 42
4.0
  1
{\ftxt;\W0.0001;\H0.0001;\~}{\ftxt;\W0.7857142857;\H3.0; }{\ftxt;\W0.0001;\H0.0001;\~}
  3
DIMSTYLE_1
100
AcDbAlignedDimension
 13
-108.475292408
 23
10.1313741229
 14
-112.475292408
 24
10.0977642586
 50
180.0
100
AcDbRotatedDimension
  0
DIMENSION
  5
252
100
AcDbEntity
  8
0
100
AcDbDimension
 62
7
  6
CONTINUOUS
  2
*D1
 10
-118.6627833723
 20
3.1813684113
 11
-118.6627833723
 21
-5.3900870599
 70
160
 71
3
 72
2
 41
0.9
 42
7.1
  1
{\ftxt;\W0.0001;\H0.0001;\~}{\ftxt;\W1.9285714286;\H3.0; }{\ftxt;\W0.0001;\H0.0001;\~}
  3
DIMSTYLE_1
100
AcDbAlignedDimension
 13
-108.475292408
 23
10.2813684113
 14
-108.475292408
 24
3.1813684113
 50
270.0
100
AcDbRotatedDimension
  0
DIMENSION
  5
253
100
AcDbEntity
  8
0
100
AcDbDimension
 62
7
  6
CONTINUOUS
  2
*D2
 10
-82.6314954797
 20
14.4606222364
 11
-93.1100664825
 21
14.4606222364
 70
160
 71
2
 72
2
 41
0.9
 42
20.1
  1
{\ftxt;\W0.0001;\H0.0001;\~}{\ftxt;\W2.7142857143;\H3.0; }{\ftxt;\W0.0001;\H0.0001;\~}
  3
DIMSTYLE_1
100
AcDbAlignedDimension
 13
-102.7314954797
 23
8.8121255772
 14
-82.6314954797
 24
10.1313741229
100
AcDbRotatedDimension
  0
DIMENSION
  5
254
100
AcDbEntity
  8
0
100
AcDbDimension
 62
7
  6
CONTINUOUS
  2
*D3
 10
-48.1612782033
 20
14.4738648504
 11
-65.832393425
 21
14.4738648504
 70
160
 71
2
 72
2
 41
0.9
  1
{\ftxt;\W0.0001;\H0.0001;\~}{\ftxt;\W2.1428571429;\H3.0; }{\ftxt;\W0.0001;\H0.0001;\~}
  3
DIMSTYLE_2
100
AcDbAlignedDimension
 13
-82.6463659274
 23
5.5813684113
 14
-48.1612782033
 24
5.1813684113
100
AcDbRotatedDimension
  0
LWPOLYLINE
  5
255
100
AcDbEntity
  8
RACCORDO
100
AcDbPolyline
 62
7
  6
CONTINUOUS
 90
10
 70
0
 10
-102.1314954797
 20
4.3309099566
 10
-102.134348063
 20
4.358286602
 10
-102.1410623736
 20
4.3834035912
 10
-102.1516384117
 20
4.4062609244
 10
-102.1666244667
 20
4.4273987398
 10
-102.1854722491
 20
4.446276899
 10
-102.2065368907
 20
4.4612749873
 10
-102.2292701019
 20
4.4718528663
 10
-102.2542201724
 20
4.4785506743
 10
-102.281387102
 20
4.4813684113
  0
LWPOLYLINE
  5
256
100
AcDbEntity
  8
ASSI
100
AcDbPolyline
 62
7
  6
CONTINUOUS
 90
10
 70
0
 10
-102.1314954797
 20
4.3309099566
 10
-102.134348063
 20
4.358286602
 10
-102.1410623736
 20
4.3834035912
 10
-102.1516384117
 20
4.4062609244
 10
-102.1666244667
 20
4.4273987398
 10
-102.1854722491
 20
4.446276899
 10
-102.2065368907
 20
4.4612749873
 10
-102.2292701019
 20
4.4718528663
 10
-102.2542201724
 20
4.4785506743
 10
-102.281387102
 20
4.4813684113
  0
LINE
  5
257
100
AcDbEntity
  8
RACCORDO
100
AcDbLine
 62
250
  6
CONTINUOUS
 10
-102.2778809717
 20
8.9462187263
 11
-102.281387102
 21
8.9813684113
  0
LINE
  5
258
100
AcDbEntity
  8
ASSI
100
AcDbLine
 62
250
  6
CONTINUOUS
 10
-102.2778809717
 20
8.9462187263
 11
-102.281387102
 21
8.9813684113
  0
LINE
  5
259
100
AcDbEntity
  8
RACCORDO
100
AcDbLine
 62
250
  6
CONTINUOUS
 10
-102.1278866832
 20
9.095647931
 11
-102.1314954797
 21
9.131826866
  0
LINE
  5
25A
100
AcDbEntity
  8
ASSI
100
AcDbLine
 62
250
  6
CONTINUOUS
 10
-102.1278866832
 20
9.095647931
 11
-102.1314954797
 21
9.131826866
  0
LWPOLYLINE
  5
25B
100
AcDbEntity
  8
RACCORDO
100
AcDbPolyline
 62
7
  6
CONTINUOUS
 90
10
 70
0
 10
-102.103859169
 20
3.6811898168
 10
-102.1015506069
 20
3.6549811812
 10
-102.0947011553
 20
3.6295865618
 10
-102.0835255261
 20
3.6057856575
 10
-102.0683424832
 20
3.5842743433
 10
-102.0496384931
 20
3.5657543765
 10
-102.0281074987
 20
3.550858455
 10
-102.0044884395
 20
3.5399954107
 10
-101.9794871182
 20
3.5333977127
 10
-101.9538648805
 20
3.531191873
  0
LWPOLYLINE
  5
25C
100
AcDbEntity
  8
ASSI
100
AcDbPolyline
 62
7
  6
CONTINUOUS
 90
10
 70
0
 10
-102.103859169
 20
3.6811898168
 10
-102.1015506069
 20
3.6549811812
 10
-102.0947011553
 20
3.6295865618
 10
-102.0835255261
 20
3.6057856575
 10
-102.0683424832
 20
3.5842743433
 10
-102.0496384931
 20
3.5657543765
 10
-102.0281074987
 20
3.550858455
 10
-102.0044884395
 20
3.5399954107
 10
-101.9794871182
 20
3.5333977127
 10
-101.9538648805
 20
3.531191873
  0
LINE
  5
25D
100
AcDbEntity
  8
RACCORDO
100
AcDbLine
 62
250
  6
CONTINUOUS
 10
-102.7292167201
 20
4.6246635736
 11
-102.7314954797
 21
4.6506112455
  0
LINE
  5
25E
100
AcDbEntity
  8
ASSI
100
AcDbLine
 62
250
  6
CONTINUOUS
 10
-102.7292167201
 20
4.6246635736
 11
-102.7314954797
 21
4.6506112455
  0
LWPOLYLINE
  5
25F
100
AcDbEntity
  8
RACCORDO
100
AcDbPolyline
 62
250
  6
CONTINUOUS
 90
5
 70
0
 10
-102.1278866832
 20
9.095647931
 10
-102.1276914086
 20
9.0928537181
 10
-102.1275051922
 20
9.0892407332
 10
-102.1273280339
 20
9.0848089765
 10
-102.1271602418
 20
9.0794675229
  0
LWPOLYLINE
  5
260
100
AcDbEntity
  8
ASSI
100
AcDbPolyline
 62
250
  6
CONTINUOUS
 90
5
 70
0
 10
-102.1278866832
 20
9.095647931
 10
-102.1276914086
 20
9.0928537181
 10
-102.1275051922
 20
9.0892407332
 10
-102.1273280339
 20
9.0848089765
 10
-102.1271602418
 20
9.0794675229
  0
LWPOLYLINE
  5
261
100
AcDbEntity
  8
RACCORDO
100
AcDbPolyline
 62
7
  6
CONTINUOUS
 90
3
 70
0
 10
-102.0264766511
 20
3.6813646798
 10
-102.0247716447
 20
3.65540569
 10
-102.0199179265
 20
3.6302301041
  0
LWPOLYLINE
  5
262
100
AcDbEntity
  8
ASSI
100
AcDbPolyline
 62
7
  6
CONTINUOUS
 90
3
 70
0
 10
-102.0264766511
 20
3.6813646798
 10
-102.0247716447
 20
3.65540569
 10
-102.0199179265
 20
3.6302301041
  0
LINE
  5
263
100
AcDbEntity
  8
RACCORDO
100
AcDbLine
 62
250
  6
CONTINUOUS
 10
-102.1271602418
 20
9.0794675229
 11
-102.1268509081
 21
9.0666010748
  0
LINE
  5
264
100
AcDbEntity
  8
ASSI
100
AcDbLine
 62
250
  6
CONTINUOUS
 10
-102.1271602418
 20
9.0794675229
 11
-102.1268509081
 21
9.0666010748
  0
LINE
  5
265
100
AcDbEntity
  8
RACCORDO
100
AcDbLine
 62
250
  6
CONTINUOUS
 10
-102.1268509081
 20
9.0666010748
 11
-102.1264469886
 21
9.0434791992
  0
LINE
  5
266
100
AcDbEntity
  8
ASSI
100
AcDbLine
 62
250
  6
CONTINUOUS
 10
-102.1268509081
 20
9.0666010748
 11
-102.1264469886
 21
9.0434791992
  0
LINE
  5
267
100
AcDbEntity
  8
RACCORDO
100
AcDbLine
 62
250
  6
CONTINUOUS
 10
-102.1264469886
 20
9.0434791992
 11
-102.1260038959
 21
9.0073165345
  0
LINE
  5
268
100
AcDbEntity
  8
ASSI
100
AcDbLine
 62
250
  6
CONTINUOUS
 10
-102.1264469886
 20
9.0434791992
 11
-102.1260038959
 21
9.0073165345
  0
LINE
  5
269
100
AcDbEntity
  8
RACCORDO
100
AcDbLine
 62
250
  6
CONTINUOUS
 10
-102.1260038959
 20
9.0073165345
 11
-102.1254423947
 21
8.932689786
  0
LINE
  5
26A
100
AcDbEntity
  8
ASSI
100
AcDbLine
 62
250
  6
CONTINUOUS
 10
-102.1260038959
 20
9.0073165345
 11
-102.1254423947
 21
8.932689786
  0
LWPOLYLINE
  5
26B
100
AcDbEntity
  8
RACCORDO
100
AcDbPolyline
 62
250
  6
CONTINUOUS
 90
3
 70
0
 10
-102.1254423947
 20
8.932689786
 10
-102.1250849473
 20
8.8067786733
 10
-102.1250776333
 20
8.7890708914
  0
LWPOLYLINE
  5
26C
100
AcDbEntity
  8
ASSI
100
AcDbPolyline
 62
250
  6
CONTINUOUS
 90
3
 70
0
 10
-102.1254423947
 20
8.932689786
 10
-102.1250849473
 20
8.8067786733
 10
-102.1250776333
 20
8.7890708914
  0
LINE
  5
26D
100
AcDbEntity
  8
RACCORDO
100
AcDbLine
 62
7
  6
CONTINUOUS
 10
-102.7314954797
 20
4.631941387
 11
-102.7314954797
 21
8.8307954357
  0
LINE
  5
26E
100
AcDbEntity
  8
ASSI
100
AcDbLine
 62
7
  6
CONTINUOUS
 10
-102.7314954797
 20
4.631941387
 11
-102.7314954797
 21
8.8307954357
  0
LINE
  5
26F
100
AcDbEntity
  8
RACCORDO
100
AcDbLine
 62
250
  6
CONTINUOUS
 10
-102.6564954797
 20
4.6506112455
 11
-102.6564954797
 21
8.8121255772
  0
LINE
  5
270
100
AcDbEntity
  8
ASSI
100
AcDbLine
 62
250
  6
CONTINUOUS
 10
-102.6564954797
 20
4.6506112455
 11
-102.6564954797
 21
8.8121255772
  0
LINE
  5
271
100
AcDbEntity
  8
RACCORDO
100
AcDbLine
 62
250
  6
CONTINUOUS
 10
-102.5814954797
 20
8.9813684113
 11
-102.5814954797
 21
8.9615547819
  0
LINE
  5
272
100
AcDbEntity
  8
ASSI
100
AcDbLine
 62
250
  6
CONTINUOUS
 10
-102.5814954797
 20
8.9813684113
 11
-102.5814954797
 21
8.9615547819
  0
LINE
  5
273
100
AcDbEntity
  8
RACCORDO
100
AcDbLine
 62
250
  6
CONTINUOUS
 10
-102.5814954797
 20
4.5011820408
 11
-102.5814954797
 21
4.4813684113
  0
LINE
  5
274
100
AcDbEntity
  8
ASSI
100
AcDbLine
 62
250
  6
CONTINUOUS
 10
-102.5814954797
 20
4.5011820408
 11
-102.5814954797
 21
4.4813684113
  0
LINE
  5
275
100
AcDbEntity
  8
RACCORDO
100
AcDbLine
 62
250
  6
CONTINUOUS
 10
-102.2000719217
 20
4.6736659313
 11
-102.2000719217
 21
8.7890708914
  0
LINE
  5
276
100
AcDbEntity
  8
ASSI
100
AcDbLine
 62
250
  6
CONTINUOUS
 10
-102.2000719217
 20
4.6736659313
 11
-102.2000719217
 21
8.7890708914
  0
LINE
  5
277
100
AcDbEntity
  8
RACCORDO
100
AcDbLine
 62
7
  6
CONTINUOUS
 10
-102.1314954797
 20
3.6646082997
 11
-102.1314954797
 21
4.3309099566
  0
LINE
  5
278
100
AcDbEntity
  8
ASSI
100
AcDbLine
 62
7
  6
CONTINUOUS
 10
-102.1314954797
 20
3.6646082997
 11
-102.1314954797
 21
4.3309099566
  0
LINE
  5
279
100
AcDbEntity
  8
RACCORDO
100
AcDbLine
 62
7
  6
CONTINUOUS
 10
-102.1314954797
 20
9.131826866
 11
-102.1314954797
 21
9.798128523
  0
LINE
  5
27A
100
AcDbEntity
  8
ASSI
100
AcDbLine
 62
7
  6
CONTINUOUS
 10
-102.1314954797
 20
9.131826866
 11
-102.1314954797
 21
9.798128523
  0
LINE
  5
27B
100
AcDbEntity
  8
RACCORDO
100
AcDbLine
 62
7
  6
CONTINUOUS
 10
-102.1250776333
 20
4.6736659313
 11
-102.1250776333
 21
8.7890708914
  0
LINE
  5
27C
100
AcDbEntity
  8
ASSI
100
AcDbLine
 62
7
  6
CONTINUOUS
 10
-102.1250776333
 20
4.6736659313
 11
-102.1250776333
 21
8.7890708914
  0
LINE
  5
27D
100
AcDbEntity
  8
RACCORDO
100
AcDbLine
 62
7
  6
CONTINUOUS
 10
-102.103859169
 20
3.6811895154
 11
-102.103859169
 21
9.7815473073
  0
LINE
  5
27E
100
AcDbEntity
  8
ASSI
100
AcDbLine
 62
7
  6
CONTINUOUS
 10
-102.103859169
 20
3.6811895154
 11
-102.103859169
 21
9.7815473073
  0
LINE
  5
27F
100
AcDbEntity
  8
RACCORDO
100
AcDbLine
 62
250
  6
CONTINUOUS
 10
-102.0599308977
 20
3.6811895133
 11
-102.0599308977
 21
9.7815473093
  0
LINE
  5
280
100
AcDbEntity
  8
ASSI
100
AcDbLine
 62
250
  6
CONTINUOUS
 10
-102.0599308977
 20
3.6811895133
 11
-102.0599308977
 21
9.7815473093
  0
LINE
  5
281
100
AcDbEntity
  8
RACCORDO
100
AcDbLine
 62
250
  6
CONTINUOUS
 10
-102.1250776333
 20
4.6736659313
 11
-102.1253998472
 21
4.5387249272
  0
LINE
  5
282
100
AcDbEntity
  8
ASSI
100
AcDbLine
 62
250
  6
CONTINUOUS
 10
-102.1250776333
 20
4.6736659313
 11
-102.1253998472
 21
4.5387249272
  0
LINE
  5
283
100
AcDbEntity
  8
RACCORDO
100
AcDbLine
 62
250
  6
CONTINUOUS
 10
-102.1253998472
 20
4.5387249272
 11
-102.1260726476
 21
4.4490263356
  0
LINE
  5
284
100
AcDbEntity
  8
ASSI
100
AcDbLine
 62
250
  6
CONTINUOUS
 10
-102.1253998472
 20
4.5387249272
 11
-102.1260726476
 21
4.4490263356
  0
LWPOLYLINE
  5
285
100
AcDbEntity
  8
RACCORDO
100
AcDbPolyline
 62
250
  6
CONTINUOUS
 90
5
 70
0
 10
-102.1260726476
 20
4.4490263356
 10
-102.1267069255
 20
4.4034791868
 10
-102.1270688179
 20
4.3872963388
 10
-102.1274620705
 20
4.3751662405
 10
-102.1278866832
 20
4.3670888917
  0
LWPOLYLINE
  5
286
100
AcDbEntity
  8
ASSI
100
AcDbPolyline
 62
250
  6
CONTINUOUS
 90
5
 70
0
 10
-102.1260726476
 20
4.4490263356
 10
-102.1267069255
 20
4.4034791868
 10
-102.1270688179
 20
4.3872963388
 10
-102.1274620705
 20
4.3751662405
 10
-102.1278866832
 20
4.3670888917
  0
LWPOLYLINE
  5
287
100
AcDbEntity
  8
0
100
AcDbPolyline
 62
7
  6
CONTINUOUS
 90
4
 70
0
 10
-102.1314954797
 20
9.798128523
 10
-102.1310239769
 20
9.8089621468
 10
-102.129911691
 20
9.8194497213
 10
-102.128158622
 20
9.8295912463
  0
LWPOLYLINE
  5
288
100
AcDbEntity
  8
ASSI
100
AcDbPolyline
 62
7
  6
CONTINUOUS
 90
4
 70
0
 10
-102.1314954797
 20
9.798128523
 10
-102.1310239769
 20
9.8089621468
 10
-102.129911691
 20
9.8194497213
 10
-102.128158622
 20
9.8295912463
  0
LWPOLYLINE
  5
289
100
AcDbEntity
  8
RACCORDO
100
AcDbPolyline
 62
7
  6
CONTINUOUS
 90
9
 70
0
 10
-102.0264766511
 20
9.7813721429
 10
-102.0247977358
 20
9.8073448321
 10
-102.0199645442
 20
9.8325328716
 10
-102.0121228089
 20
9.8561753283
 10
-102.0015088212
 20
9.8775579591
 10
-101.9884432286
 20
9.8960347941
 10
-101.973321357
 20
9.9110476509
 10
-101.956600037
 20
9.9221429906
 10
-101.9387838125
 20
9.9289856187
  0
LWPOLYLINE
  5
28A
100
AcDbEntity
  8
ASSI
100
AcDbPolyline
 62
7
  6
CONTINUOUS
 90
9
 70
0
 10
-102.0264766511
 20
9.7813721429
 10
-102.0247977358
 20
9.8073448321
 10
-102.0199645442
 20
9.8325328716
 10
-102.0121228089
 20
9.8561753283
 10
-102.0015088212
 20
9.8775579591
 10
-101.9884432286
 20
9.8960347941
 10
-101.973321357
 20
9.9110476509
 10
-101.956600037
 20
9.9221429906
 10
-101.9387838125
 20
9.9289856187
  0
LINE
  5
28B
100
AcDbEntity
  8
RACCORDO
100
AcDbLine
 62
250
  6
CONTINUOUS
 10
-102.0599308977
 20
9.7815470059
 11
-102.0582380619
 21
9.807698031
  0
LINE
  5
28C
100
AcDbEntity
  8
ASSI
100
AcDbLine
 62
250
  6
CONTINUOUS
 10
-102.0599308977
 20
9.7815470059
 11
-102.0582380619
 21
9.807698031
  0
LWPOLYLINE
  5
28D
100
AcDbEntity
  8
RACCORDO
100
AcDbPolyline
 62
250
  6
CONTINUOUS
 90
13
 70
0
 10
-102.2000719217
 20
4.6736659313
 10
-102.2011740128
 20
4.6567387662
 10
-102.2033574877
 20
4.6395881631
 10
-102.2065931826
 20
4.6224565495
 10
-102.2109400693
 20
4.6055777694
 10
-102.2163278946
 20
4.5892658638
 10
-102.2225735959
 20
4.5738933698
 10
-102.229826097
 20
4.5598005608
 10
-102.2380797659
 20
4.5471860404
 10
-102.2469423368
 20
4.5362436535
 10
-102.256354224
 20
4.527272731
 10
-102.2666122527
 20
4.5206053086
 10
-102.2778809717
 20
4.5165180964
  0
LWPOLYLINE
  5
28E
100
AcDbEntity
  8
ASSI
100
AcDbPolyline
 62
250
  6
CONTINUOUS
 90
13
 70
0
 10
-102.2000719217
 20
4.6736659313
 10
-102.2011740128
 20
4.6567387662
 10
-102.2033574877
 20
4.6395881631
 10
-102.2065931826
 20
4.6224565495
 10
-102.2109400693
 20
4.6055777694
 10
-102.2163278946
 20
4.5892658638
 10
-102.2225735959
 20
4.5738933698
 10
-102.229826097
 20
4.5598005608
 10
-102.2380797659
 20
4.5471860404
 10
-102.2469423368
 20
4.5362436535
 10
-102.256354224
 20
4.527272731
 10
-102.2666122527
 20
4.5206053086
 10
-102.2778809717
 20
4.5165180964
  0
LWPOLYLINE
  5
28F
100
AcDbEntity
  8
RACCORDO
100
AcDbPolyline
 62
250
  6
CONTINUOUS
 90
3
 70
0
 10
-102.7314954797
 20
8.8121255772
 10
-102.7292166551
 20
8.838073616
 10
-102.7224494149
 20
8.8632332601
  0
LWPOLYLINE
  5
290
100
AcDbEntity
  8
ASSI
100
AcDbPolyline
 62
250
  6
CONTINUOUS
 90
3
 70
0
 10
-102.7314954797
 20
8.8121255772
 10
-102.7292166551
 20
8.838073616
 10
-102.7224494149
 20
8.8632332601
  0
LWPOLYLINE
  5
291
100
AcDbEntity
  8
RACCORDO
100
AcDbPolyline
 62
250
  6
CONTINUOUS
 90
10
 70
0
 10
-102.1278866832
 20
9.095647931
 10
-102.1301830334
 20
9.0697122505
 10
-102.1369627768
 20
9.0445638516
 10
-102.1480201135
 20
9.0209661176
 10
-102.1630193963
 20
8.9996353615
 10
-102.1815053196
 20
8.9812190814
 10
-102.2029167405
 20
8.9662763065
 10
-102.226603712
 20
8.9552606269
 10
-102.2518472125
 20
8.9485064252
 10
-102.2778809717
 20
8.9462187263
  0
LWPOLYLINE
  5
292
100
AcDbEntity
  8
ASSI
100
AcDbPolyline
 62
250
  6
CONTINUOUS
 90
10
 70
0
 10
-102.1278866832
 20
9.095647931
 10
-102.1301830334
 20
9.0697122505
 10
-102.1369627768
 20
9.0445638516
 10
-102.1480201135
 20
9.0209661176
 10
-102.1630193963
 20
8.9996353615
 10
-102.1815053196
 20
8.9812190814
 10
-102.2029167405
 20
8.9662763065
 10
-102.226603712
 20
8.9552606269
 10
-102.2518472125
 20
8.9485064252
 10
-102.2778809717
 20
8.9462187263
  0
LINE
  5
293
100
AcDbEntity
  8
RACCORDO
100
AcDbLine
 62
250
  6
CONTINUOUS
 10
-102.281387102
 20
4.4813684113
 11
-102.2778809717
 21
4.5165180964
  0
LINE
  5
294
100
AcDbEntity
  8
ASSI
100
AcDbLine
 62
250
  6
CONTINUOUS
 10
-102.281387102
 20
4.4813684113
 11
-102.2778809717
 21
4.5165180964
  0
LINE
  5
295
100
AcDbEntity
  8
RACCORDO
100
AcDbLine
 62
250
  6
CONTINUOUS
 10
-102.1314954797
 20
4.3309099566
 11
-102.1278866832
 21
4.3670888917
  0
LINE
  5
296
100
AcDbEntity
  8
ASSI
100
AcDbLine
 62
250
  6
CONTINUOUS
 10
-102.1314954797
 20
4.3309099566
 11
-102.1278866832
 21
4.3670888917
  0
LWPOLYLINE
  5
297
100
AcDbEntity
  8
RACCORDO
100
AcDbPolyline
 62
250
  6
CONTINUOUS
 90
9
 70
0
 10
-102.0582380619
 20
9.807698031
 10
-102.053350394
 20
9.8330401697
 10
-102.0454204842
 20
9.8567988358
 10
-102.0346732974
 20
9.8782831512
 10
-102.0214519398
 20
9.8967947609
 10
-102.0062460916
 20
9.9117029021
 10
-101.989576059
 20
9.9226006416
 10
-101.9719374379
 20
9.9292568973
 10
-101.9538648805
 20
9.9315449497
  0
LWPOLYLINE
  5
298
100
AcDbEntity
  8
ASSI
100
AcDbPolyline
 62
250
  6
CONTINUOUS
 90
9
 70
0
 10
-102.0582380619
 20
9.807698031
 10
-102.053350394
 20
9.8330401697
 10
-102.0454204842
 20
9.8567988358
 10
-102.0346732974
 20
9.8782831512
 10
-102.0214519398
 20
9.8967947609
 10
-102.0062460916
 20
9.9117029021
 10
-101.989576059
 20
9.9226006416
 10
-101.9719374379
 20
9.9292568973
 10
-101.9538648805
 20
9.9315449497
  0
LWPOLYLINE
  5
299
100
AcDbEntity
  8
0
100
AcDbPolyline
 62
7
  6
CONTINUOUS
 90
4
 70
0
 10
-102.128158622
 20
9.8295912463
 10
-102.1257647701
 20
9.8393867219
 10
-102.1227301351
 20
9.8488361481
 10
-102.1190547172
 20
9.8579395248
  0
LWPOLYLINE
  5
29A
100
AcDbEntity
  8
ASSI
100
AcDbPolyline
 62
7
  6
CONTINUOUS
 90
4
 70
0
 10
-102.128158622
 20
9.8295912463
 10
-102.1257647701
 20
9.8393867219
 10
-102.1227301351
 20
9.8488361481
 10
-102.1190547172
 20
9.8579395248
  0
LWPOLYLINE
  5
29B
100
AcDbEntity
  8
RACCORDO
100
AcDbPolyline
 62
7
  6
CONTINUOUS
 90
9
 70
0
 10
-102.7286411595
 20
8.8581865576
 10
-102.7219212844
 20
8.8833187824
 10
-102.7113358543
 20
8.90619211
 10
-102.6963349116
 20
8.9273482747
 10
-102.677468414
 20
8.9462455422
 10
-102.6563862347
 20
8.9612587099
 10
-102.6336383314
 20
8.9718460435
 10
-102.6086747464
 20
8.9785492773
 10
-102.5814954797
 20
8.9813684113
  0
LWPOLYLINE
  5
29C
100
AcDbEntity
  8
ASSI
100
AcDbPolyline
 62
7
  6
CONTINUOUS
 90
9
 70
0
 10
-102.7286411595
 20
8.8581865576
 10
-102.7219212844
 20
8.8833187824
 10
-102.7113358543
 20
8.90619211
 10
-102.6963349116
 20
8.9273482747
 10
-102.677468414
 20
8.9462455422
 10
-102.6563862347
 20
8.9612587099
 10
-102.6336383314
 20
8.9718460435
 10
-102.6086747464
 20
8.9785492773
 10
-102.5814954797
 20
8.9813684113
  0
LWPOLYLINE
  5
29D
100
AcDbEntity
  8
RACCORDO
100
AcDbPolyline
 62
250
  6
CONTINUOUS
 90
8
 70
0
 10
-102.7224494149
 20
8.8632332601
 10
-102.7113993673
 20
8.8868400466
 10
-102.6964022502
 20
8.908176695
 10
-102.6779137355
 20
8.9265948935
 10
-102.6564955887
 20
8.9415350018
 10
-102.6327985903
 20
8.9525430659
 10
-102.6075427584
 20
8.9592846074
 10
-102.5814954797
 20
8.9615547819
  0
LWPOLYLINE
  5
29E
100
AcDbEntity
  8
ASSI
100
AcDbPolyline
 62
250
  6
CONTINUOUS
 90
8
 70
0
 10
-102.7224494149
 20
8.8632332601
 10
-102.7113993673
 20
8.8868400466
 10
-102.6964022502
 20
8.908176695
 10
-102.6779137355
 20
8.9265948935
 10
-102.6564955887
 20
8.9415350018
 10
-102.6327985903
 20
8.9525430659
 10
-102.6075427584
 20
8.9592846074
 10
-102.5814954797
 20
8.9615547819
  0
LWPOLYLINE
  5
29F
100
AcDbEntity
  8
RACCORDO
100
AcDbPolyline
 62
7
  6
CONTINUOUS
 90
7
 70
0
 10
-102.0199179265
 20
3.6302301041
 10
-102.0120622523
 20
3.6065976785
 10
-102.0014423014
 20
3.5852215966
 10
-101.9883785685
 20
3.5667469539
 10
-101.9732646823
 20
3.5517312904
 10
-101.956556757
 20
3.5406277548
 10
-101.9387596184
 20
3.533771429
  0
LWPOLYLINE
  5
2A0
100
AcDbEntity
  8
ASSI
100
AcDbPolyline
 62
7
  6
CONTINUOUS
 90
7
 70
0
 10
-102.0199179265
 20
3.6302301041
 10
-102.0120622523
 20
3.6065976785
 10
-102.0014423014
 20
3.5852215966
 10
-101.9883785685
 20
3.5667469539
 10
-101.9732646823
 20
3.5517312904
 10
-101.956556757
 20
3.5406277548
 10
-101.9387596184
 20
3.533771429
  0
LWPOLYLINE
  5
2A1
100
AcDbEntity
  8
RACCORDO
100
AcDbPolyline
 62
250
  6
CONTINUOUS
 90
10
 70
0
 10
-101.3754294626
 20
3.6870465872
 10
-101.373697061
 20
3.6609428298
 10
-101.3687825607
 20
3.6356434617
 10
-101.3608387634
 20
3.6119189965
 10
-101.3500909894
 20
3.5904581616
 10
-101.3368806512
 20
3.5719543754
 10
-101.3216919615
 20
3.5570334309
 10
-101.3050405752
 20
3.5461033125
 10
-101.2874202812
 20
3.5393993429
 10
-101.2693634454
 20
3.5370522987
  0
LWPOLYLINE
  5
2A2
100
AcDbEntity
  8
ASSI
100
AcDbPolyline
 62
250
  6
CONTINUOUS
 90
10
 70
0
 10
-101.3754294626
 20
3.6870465872
 10
-101.373697061
 20
3.6609428298
 10
-101.3687825607
 20
3.6356434617
 10
-101.3608387634
 20
3.6119189965
 10
-101.3500909894
 20
3.5904581616
 10
-101.3368806512
 20
3.5719543754
 10
-101.3216919615
 20
3.5570334309
 10
-101.3050405752
 20
3.5461033125
 10
-101.2874202812
 20
3.5393993429
 10
-101.2693634454
 20
3.5370522987
  0
LINE
  5
2A3
100
AcDbEntity
  8
RACCORDO
100
AcDbLine
 62
250
  6
CONTINUOUS
 10
-101.3754294626
 20
9.7756905079
 11
-101.3754294626
 21
3.6870463148
  0
LINE
  5
2A4
100
AcDbEntity
  8
ASSI
100
AcDbLine
 62
250
  6
CONTINUOUS
 10
-101.3754294626
 20
9.7756905079
 11
-101.3754294626
 21
3.6870463148
  0
LINE
  5
2A5
100
AcDbEntity
  8
RACCORDO
100
AcDbLine
 62
250
  6
CONTINUOUS
 10
-101.2693634454
 20
3.5370522987
 11
-101.2693634454
 21
9.925684524
  0
LINE
  5
2A6
100
AcDbEntity
  8
ASSI
100
AcDbLine
 62
250
  6
CONTINUOUS
 10
-101.2693634454
 20
3.5370522987
 11
-101.2693634454
 21
9.925684524
  0
LINE
  5
2A7
100
AcDbEntity
  8
CURVE
100
AcDbLine
 62
7
  6
CONTINUOUS
 10
-100.6314954797
 20
6.2313684203
 11
-100.6314954797
 21
7.2313684233
  0
LINE
  5
2A8
100
AcDbEntity
  8
CURVE
100
AcDbLine
 62
7
  6
CONTINUOUS
 10
-100.6314954797
 20
8.4313684292
 11
-100.6314954797
 21
9.0313684352
  0
LWPOLYLINE
  5
2A9
100
AcDbEntity
  8
0
100
AcDbPolyline
 62
7
  6
CONTINUOUS
 90
40
 70
0
 10
-102.1190547172
 20
9.8579395248
 10
-102.1170999029
 20
9.8617220383
 10
-102.1150715021
 20
9.8654104302
 10
-102.1129695148
 20
9.8690047007
 10
-102.110791292
 20
9.8725026853
 10
-102.1085394827
 20
9.8759065485
 10
-102.1062220342
 20
9.8792227833
 10
-102.1038399188
 20
9.8824516394
 10
-102.1013921642
 20
9.885592867
 10
-102.0988838007
 20
9.8886522105
 10
-102.0963159716
 20
9.8916297238
 10
-102.0936875336
 20
9.894525353
 10
-102.0910000867
 20
9.8973446794
 10
-102.0882546268
 20
9.9000880505
 10
-102.0854501579
 20
9.9027551189
 10
-102.0825852924
 20
9.905350424
 10
-102.0796612888
 20
9.907874274
 10
-102.0766768886
 20
9.9103263607
 10
-102.0736269275
 20
9.9127102987
 10
-102.0705135982
 20
9.9150262078
 10
-102.067334708
 20
9.9172739683
 10
-102.0640785148
 20
9.9194568357
 10
-102.0607477869
 20
9.9215754905
 10
-102.057339756
 20
9.9236292523
 10
-102.0538343749
 20
9.9256193359
 10
-102.0502369607
 20
9.927546671
 10
-102.0465421965
 20
9.929410328
 10
-102.0427140837
 20
9.9312087329
 10
-102.0387640165
 20
9.9329439206
 10
-102.0346806008
 20
9.9346138563
 10
-102.0303936567
 20
9.9362108617
 10
-102.025927078
 20
9.9377420621
 10
-102.0212569707
 20
9.9392003322
 10
-102.016241473
 20
9.9405566182
 10
-102.0108869886
 20
9.9418372217
 10
-102.0051871137
 20
9.9430158411
 10
-101.9989807745
 20
9.9439845178
 10
-101.9922142799
 20
9.9447072656
 10
-101.984941321
 20
9.9452200707
 10
-101.9771618978
 20
9.945522933
  0
LWPOLYLINE
  5
2AA
100
AcDbEntity
  8
ASSI
100
AcDbPolyline
 62
7
  6
CONTINUOUS
 90
40
 70
0
 10
-102.1190547172
 20
9.8579395248
 10
-102.1170999029
 20
9.8617220383
 10
-102.1150715021
 20
9.8654104302
 10
-102.1129695148
 20
9.8690047007
 10
-102.110791292
 20
9.8725026853
 10
-102.1085394827
 20
9.8759065485
 10
-102.1062220342
 20
9.8792227833
 10
-102.1038399188
 20
9.8824516394
 10
-102.1013921642
 20
9.885592867
 10
-102.0988838007
 20
9.8886522105
 10
-102.0963159716
 20
9.8916297238
 10
-102.0936875336
 20
9.894525353
 10
-102.0910000867
 20
9.8973446794
 10
-102.0882546268
 20
9.9000880505
 10
-102.0854501579
 20
9.9027551189
 10
-102.0825852924
 20
9.905350424
 10
-102.0796612888
 20
9.907874274
 10
-102.0766768886
 20
9.9103263607
 10
-102.0736269275
 20
9.9127102987
 10
-102.0705135982
 20
9.9150262078
 10
-102.067334708
 20
9.9172739683
 10
-102.0640785148
 20
9.9194568357
 10
-102.0607477869
 20
9.9215754905
 10
-102.057339756
 20
9.9236292523
 10
-102.0538343749
 20
9.9256193359
 10
-102.0502369607
 20
9.927546671
 10
-102.0465421965
 20
9.929410328
 10
-102.0427140837
 20
9.9312087329
 10
-102.0387640165
 20
9.9329439206
 10
-102.0346806008
 20
9.9346138563
 10
-102.0303936567
 20
9.9362108617
 10
-102.025927078
 20
9.9377420621
 10
-102.0212569707
 20
9.9392003322
 10
-102.016241473
 20
9.9405566182
 10
-102.0108869886
 20
9.9418372217
 10
-102.0051871137
 20
9.9430158411
 10
-101.9989807745
 20
9.9439845178
 10
-101.9922142799
 20
9.9447072656
 10
-101.984941321
 20
9.9452200707
 10
-101.9771618978
 20
9.945522933
  0
LWPOLYLINE
  5
2AB
100
AcDbEntity
  8
RACCORDO
100
AcDbPolyline
 62
250
  6
CONTINUOUS
 90
5
 70
0
 10
-102.0349763135
 20
3.5849615452
 10
-102.0455901955
 20
3.6063507052
 10
-102.0534301396
 20
3.6300031339
 10
-102.058259052
 20
3.6552035396
 10
-102.0599308977
 20
3.6811898168
  0
LWPOLYLINE
  5
2AC
100
AcDbEntity
  8
ASSI
100
AcDbPolyline
 62
250
  6
CONTINUOUS
 90
5
 70
0
 10
-102.0349763135
 20
3.5849615452
 10
-102.0455901955
 20
3.6063507052
 10
-102.0534301396
 20
3.6300031339
 10
-102.058259052
 20
3.6552035396
 10
-102.0599308977
 20
3.6811898168
  0
LINE
  5
2AD
100
AcDbEntity
  8
RACCORDO
100
AcDbLine
 62
7
  6
CONTINUOUS
 10
-100.0814954797
 20
3.3313626998
 11
-100.0814954797
 21
3.5146130974
  0
LINE
  5
2AE
100
AcDbEntity
  8
ASSI
100
AcDbLine
 62
7
  6
CONTINUOUS
 10
-100.0814954797
 20
3.3313626998
 11
-100.0814954797
 21
3.5146130974
  0
LINE
  5
2AF
100
AcDbEntity
  8
0
100
AcDbLine
 62
7
  6
CONTINUOUS
 10
-100.0676167063
 20
10.1174953495
 11
-100.0676167063
 21
10.0166338075
  0
LINE
  5
2B0
100
AcDbEntity
  8
ASSI
100
AcDbLine
 62
7
  6
CONTINUOUS
 10
-100.0676167063
 20
10.1174953495
 11
-100.0676167063
 21
10.0166338075
  0
LINE
  5
2B1
100
AcDbEntity
  8
RACCORDO
100
AcDbLine
 62
7
  6
CONTINUOUS
 10
-100.0548671097
 20
3.3579910699
 11
-100.0548671097
 21
3.5305898599
  0
LINE
  5
2B2
100
AcDbEntity
  8
ASSI
100
AcDbLine
 62
7
  6
CONTINUOUS
 10
-100.0548671097
 20
3.3579910699
 11
-100.0548671097
 21
3.5305898599
  0
LINE
  5
2B3
100
AcDbEntity
  8
RACCORDO
100
AcDbLine
 62
7
  6
CONTINUOUS
 10
-100.0548671097
 20
9.9321469628
 11
-100.0548671097
 21
10.1047457528
  0
LINE
  5
2B4
100
AcDbEntity
  8
ASSI
100
AcDbLine
 62
7
  6
CONTINUOUS
 10
-100.0548671097
 20
9.9321469628
 11
-100.0548671097
 21
10.1047457528
  0
LINE
  5
2B5
100
AcDbEntity
  8
CURVE
100
AcDbLine
 62
7
  6
CONTINUOUS
 10
-99.9314954797
 20
9.0313684352
 11
-99.9314954797
 21
8.4313684292
  0
LINE
  5
2B6
100
AcDbEntity
  8
CURVE
100
AcDbLine
 62
7
  6
CONTINUOUS
 10
-99.9314954797
 20
7.2313684233
 11
-99.9314954797
 21
6.2313684203
  0
LINE
  5
2B7
100
AcDbEntity
  8
RACCORDO
100
AcDbLine
 62
250
  6
CONTINUOUS
 10
-99.9048728212
 20
3.2079967814
 11
-99.9048728212
 21
3.5313684113
  0
LINE
  5
2B8
100
AcDbEntity
  8
ASSI
100
AcDbLine
 62
250
  6
CONTINUOUS
 10
-99.9048728212
 20
3.2079967814
 11
-99.9048728212
 21
3.5313684113
  0
LINE
  5
2B9
100
AcDbEntity
  8
RACCORDO
100
AcDbLine
 62
250
  6
CONTINUOUS
 10
-99.9048728212
 20
9.9313684113
 11
-99.9048728212
 21
10.2547400413
  0
LINE
  5
2BA
100
AcDbEntity
  8
ASSI
100
AcDbLine
 62
250
  6
CONTINUOUS
 10
-99.9048728212
 20
9.9313684113
 11
-99.9048728212
 21
10.2547400413
  0
LINE
  5
2BB
100
AcDbEntity
  8
CURVE
100
AcDbLine
 62
7
  6
CONTINUOUS
 10
-99.5314955036
 20
6.0313684113
 11
-99.5314955036
 21
7.4313684113
  0
LINE
  5
2BC
100
AcDbEntity
  8
CURVE
100
AcDbLine
 62
7
  6
CONTINUOUS
 10
-99.5314955036
 20
8.4313684292
 11
-99.5314955036
 21
9.0313684352
  0
LINE
  5
2BD
100
AcDbEntity
  8
0
100
AcDbLine
 62
7
  6
CONTINUOUS
 10
-99.4783154797
 20
5.5201534113
 11
-99.4783154797
 21
3.9747314113
  0
LINE
  5
2BE
100
AcDbEntity
  8
ASSI
100
AcDbLine
 62
7
  6
CONTINUOUS
 10
-99.4783154797
 20
5.5201534113
 11
-99.4783154797
 21
3.9747314113
  0
LINE
  5
2BF
100
AcDbEntity
  8
0
100
AcDbLine
 62
7
  6
CONTINUOUS
 10
-100.0771607556
 20
9.945522933
 11
-100.0736412987
 21
10.0166338075
  0
LINE
  5
2C0
100
AcDbEntity
  8
ASSI
100
AcDbLine
 62
7
  6
CONTINUOUS
 10
-100.0771607556
 20
9.945522933
 11
-100.0736412987
 21
10.0166338075
  0
LINE
  5
2C1
100
AcDbEntity
  8
RACCORDO
100
AcDbLine
 62
250
  6
CONTINUOUS
 10
-100.0535638153
 20
10.124464482
 11
-100.0548671097
 21
10.1047457528
  0
LINE
  5
2C2
100
AcDbEntity
  8
ASSI
100
AcDbLine
 62
250
  6
CONTINUOUS
 10
-100.0535638153
 20
10.124464482
 11
-100.0548671097
 21
10.1047457528
  0
LINE
  5
2C3
100
AcDbEntity
  8
CURVE
100
AcDbLine
 62
7
  6
CONTINUOUS
 10
-100.6314954797
 20
9.0313684352
 11
-100.5314954753
 21
9.2313684233
  0
LWPOLYLINE
  5
2C4
100
AcDbEntity
  8
0
100
AcDbPolyline
 62
7
  6
CONTINUOUS
 90
5
 70
0
 10
-100.0347690918
 20
10.2110660387
 10
-100.0491210334
 20
10.1898645274
 10
-100.0591744148
 20
10.1675363709
 10
-100.0653396391
 20
10.1434133116
 10
-100.0676167063
 20
10.1174953495
  0
LWPOLYLINE
  5
2C5
100
AcDbEntity
  8
ASSI
100
AcDbPolyline
 62
7
  6
CONTINUOUS
 90
5
 70
0
 10
-100.0347690918
 20
10.2110660387
 10
-100.0491210334
 20
10.1898645274
 10
-100.0591744148
 20
10.1675363709
 10
-100.0653396391
 20
10.1434133116
 10
-100.0676167063
 20
10.1174953495
  0
LINE
  5
2C6
100
AcDbEntity
  8
0
100
AcDbLine
 62
7
  6
CONTINUOUS
 10
-100.8689194797
 20
5.5200614113
 11
-100.3790194797
 21
3.9747314113
  0
LINE
  5
2C7
100
AcDbEntity
  8
ASSI
100
AcDbLine
 62
7
  6
CONTINUOUS
 10
-100.8689194797
 20
5.5200614113
 11
-100.3790194797
 21
3.9747314113
  0
LINE
  5
2C8
100
AcDbEntity
  8
0
100
AcDbLine
 62
7
  6
CONTINUOUS
 10
-100.2239394797
 20
4.4563634113
 11
-100.5185074797
 21
5.5200614113
  0
LINE
  5
2C9
100
AcDbEntity
  8
ASSI
100
AcDbLine
 62
7
  6
CONTINUOUS
 10
-100.2239394797
 20
4.4563634113
 11
-100.5185074797
 21
5.5200614113
  0
LWPOLYLINE
  5
2CA
100
AcDbEntity
  8
RACCORDO
100
AcDbPolyline
 62
7
  6
CONTINUOUS
 90
10
 70
0
 10
-98.7314954797
 20
3.3581278669
 10
-98.7310325568
 20
3.3326509741
 10
-98.7294487849
 20
3.3078157654
 10
-98.7268094936
 20
3.2843622882
 10
-98.7233428723
 20
3.2630157089
 10
-98.7191214154
 20
3.2444242361
 10
-98.7140492564
 20
3.2291568443
 10
-98.7082855416
 20
3.217732451
 10
-98.7022466096
 20
3.2105804352
 10
-98.696275166
 20
3.2079967814
  0
LWPOLYLINE
  5
2CB
100
AcDbEntity
  8
ASSI
100
AcDbPolyline
 62
7
  6
CONTINUOUS
 90
10
 70
0
 10
-98.7314954797
 20
3.3581278669
 10
-98.7310325568
 20
3.3326509741
 10
-98.7294487849
 20
3.3078157654
 10
-98.7268094936
 20
3.2843622882
 10
-98.7233428723
 20
3.2630157089
 10
-98.7191214154
 20
3.2444242361
 10
-98.7140492564
 20
3.2291568443
 10
-98.7082855416
 20
3.217732451
 10
-98.7022466096
 20
3.2105804352
 10
-98.696275166
 20
3.2079967814
  0
LINE
  5
2CC
100
AcDbEntity
  8
0
100
AcDbLine
 62
7
  6
CONTINUOUS
 10
-99.1557444797
 20
3.9747314113
 11
-99.1557444797
 21
5.5201534113
  0
LINE
  5
2CD
100
AcDbEntity
  8
ASSI
100
AcDbLine
 62
7
  6
CONTINUOUS
 10
-99.1557444797
 20
3.9747314113
 11
-99.1557444797
 21
5.5201534113
  0
LINE
  5
2CE
100
AcDbEntity
  8
RACCORDO
100
AcDbLine
 62
7
  6
CONTINUOUS
 10
-99.1314954797
 20
10.2547400413
 11
-99.1314954797
 21
9.9313684113
  0
LINE
  5
2CF
100
AcDbEntity
  8
ASSI
100
AcDbLine
 62
7
  6
CONTINUOUS
 10
-99.1314954797
 20
10.2547400413
 11
-99.1314954797
 21
9.9313684113
  0
LINE
  5
2D0
100
AcDbEntity
  8
CURVE
100
AcDbLine
 62
7
  6
CONTINUOUS
 10
-98.8314955036
 20
9.0313684352
 11
-98.8314955036
 21
8.4313684292
  0
LINE
  5
2D1
100
AcDbEntity
  8
CURVE
100
AcDbLine
 62
7
  6
CONTINUOUS
 10
-98.8314955036
 20
6.0313684113
 11
-98.8314955036
 21
7.4313684113
  0
LINE
  5
2D2
100
AcDbEntity
  8
RACCORDO
100
AcDbLine
 62
7
  6
CONTINUOUS
 10
-98.7314954797
 20
3.3579910699
 11
-98.7314954797
 21
3.5313684113
  0
LINE
  5
2D3
100
AcDbEntity
  8
ASSI
100
AcDbLine
 62
7
  6
CONTINUOUS
 10
-98.7314954797
 20
3.3579910699
 11
-98.7314954797
 21
3.5313684113
  0
LINE
  5
2D4
100
AcDbEntity
  8
CURVE
100
AcDbLine
 62
7
  6
CONTINUOUS
 10
-98.4314955274
 20
9.2313684233
 11
-98.4314955274
 21
8.8313684471
  0
LINE
  5
2D5
100
AcDbEntity
  8
CURVE
100
AcDbLine
 62
7
  6
CONTINUOUS
 10
-98.4314955274
 20
7.4313684113
 11
-98.4314955274
 21
6.0313684113
  0
LINE
  5
2D6
100
AcDbEntity
  8
0
100
AcDbLine
 62
7
  6
CONTINUOUS
 10
-98.6734994797
 20
3.9747314113
 11
-98.6038884797
 21
4.9838034113
  0
LINE
  5
2D7
100
AcDbEntity
  8
ASSI
100
AcDbLine
 62
7
  6
CONTINUOUS
 10
-98.6734994797
 20
3.9747314113
 11
-98.6038884797
 21
4.9838034113
  0
LINE
  5
2D8
100
AcDbEntity
  8
0
100
AcDbLine
 62
7
  6
CONTINUOUS
 10
-98.8425604797
 20
5.5200614113
 11
-98.9820944797
 21
3.9747314113
  0
LINE
  5
2D9
100
AcDbEntity
  8
ASSI
100
AcDbLine
 62
7
  6
CONTINUOUS
 10
-98.8425604797
 20
5.5200614113
 11
-98.9820944797
 21
3.9747314113
  0
LINE
  5
2DA
100
AcDbEntity
  8
0
100
AcDbLine
 62
7
  6
CONTINUOUS
 10
-99.9203734797
 20
5.5200614113
 11
-100.2239394797
 21
4.4563634113
  0
LINE
  5
2DB
100
AcDbEntity
  8
ASSI
100
AcDbLine
 62
7
  6
CONTINUOUS
 10
-99.9203734797
 20
5.5200614113
 11
-100.2239394797
 21
4.4563634113
  0
LINE
  5
2DC
100
AcDbEntity
  8
0
100
AcDbLine
 62
7
  6
CONTINUOUS
 10
-100.0947534797
 20
3.9747314113
 11
-99.5980224797
 21
5.5200614113
  0
LINE
  5
2DD
100
AcDbEntity
  8
ASSI
100
AcDbLine
 62
7
  6
CONTINUOUS
 10
-100.0947534797
 20
3.9747314113
 11
-99.5980224797
 21
5.5200614113
  0
LINE
  5
2DE
100
AcDbEntity
  8
CURVE
100
AcDbLine
 62
7
  6
CONTINUOUS
 10
-99.9314954797
 20
8.4313684292
 11
-100.0314954738
 21
8.2313684203
  0
LINE
  5
2DF
100
AcDbEntity
  8
CURVE
100
AcDbLine
 62
7
  6
CONTINUOUS
 10
-99.5314955036
 20
9.0313684352
 11
-99.4314954678
 21
9.2313684233
  0
LINE
  5
2E0
100
AcDbEntity
  8
CURVE
100
AcDbLine
 62
7
  6
CONTINUOUS
 10
-100.5314954753
 20
8.2313684203
 11
-100.6314954797
 21
8.4313684292
  0
LINE
  5
2E1
100
AcDbEntity
  8
0
100
AcDbLine
 62
7
  6
CONTINUOUS
 10
-98.6038884797
 20
4.9838034113
 11
-98.2254734797
 21
3.9747314113
  0
LINE
  5
2E2
100
AcDbEntity
  8
ASSI
100
AcDbLine
 62
7
  6
CONTINUOUS
 10
-98.6038884797
 20
4.9838034113
 11
-98.2254734797
 21
3.9747314113
  0
LINE
  5
2E3
100
AcDbEntity
  8
0
100
AcDbLine
 62
7
  6
CONTINUOUS
 10
-97.4148624797
 20
3.9747314113
 11
-97.5593694797
 21
5.5200614113
  0
LINE
  5
2E4
100
AcDbEntity
  8
ASSI
100
AcDbLine
 62
7
  6
CONTINUOUS
 10
-97.4148624797
 20
3.9747314113
 11
-97.5593694797
 21
5.5200614113
  0
LINE
  5
2E5
100
AcDbEntity
  8
0
100
AcDbLine
 62
7
  6
CONTINUOUS
 10
-97.7966964797
 20
4.9795964113
 11
-97.7304224797
 21
3.9747314113
  0
LINE
  5
2E6
100
AcDbEntity
  8
ASSI
100
AcDbLine
 62
7
  6
CONTINUOUS
 10
-97.7966964797
 20
4.9795964113
 11
-97.7304224797
 21
3.9747314113
  0
LINE
  5
2E7
100
AcDbEntity
  8
DRAFT
100
AcDbLine
 62
7
  6
CONTINUOUS
 10
-97.1379851454
 20
10.2566870201
 11
-97.1314954797
 21
9.9313684113
  0
LINE
  5
2E8
100
AcDbEntity
  8
ASSI
100
AcDbLine
 62
7
  6
CONTINUOUS
 10
-97.1379851454
 20
10.2566870201
 11
-97.1314954797
 21
9.9313684113
  0
LWPOLYLINE
  5
2E9
100
AcDbEntity
  8
RACCORDO
100
AcDbPolyline
 62
7
  6
CONTINUOUS
 90
6
 70
0
 10
-97.1181371039
 20
10.1933989685
 10
-97.1184627314
 20
10.2122192998
 10
-97.1188273123
 20
10.2272269958
 10
-97.1192215345
 20
10.2378834815
 10
-97.1196547102
 20
10.244727332
 10
-97.1201268392
 20
10.247758547
  0
LWPOLYLINE
  5
2EA
100
AcDbEntity
  8
ASSI
100
AcDbPolyline
 62
7
  6
CONTINUOUS
 90
6
 70
0
 10
-97.1181371039
 20
10.1933989685
 10
-97.1184627314
 20
10.2122192998
 10
-97.1188273123
 20
10.2272269958
 10
-97.1192215345
 20
10.2378834815
 10
-97.1196547102
 20
10.244727332
 10
-97.1201268392
 20
10.247758547
  0
LINE
  5
2EB
100
AcDbEntity
  8
RACCORDO
100
AcDbLine
 62
7
  6
CONTINUOUS
 10
-97.1176958303
 20
10.149706148
 11
-97.1181371039
 21
10.1933989685
  0
LINE
  5
2EC
100
AcDbEntity
  8
ASSI
100
AcDbLine
 62
7
  6
CONTINUOUS
 10
-97.1176958303
 20
10.149706148
 11
-97.1181371039
 21
10.1933989685
  0
LINE
  5
2ED
100
AcDbEntity
  8
RACCORDO
100
AcDbLine
 62
7
  6
CONTINUOUS
 10
-97.1175314278
 20
10.0977642586
 11
-97.1176958303
 21
10.149706148
  0
LINE
  5
2EE
100
AcDbEntity
  8
ASSI
100
AcDbLine
 62
7
  6
CONTINUOUS
 10
-97.1175314278
 20
10.0977642586
 11
-97.1176958303
 21
10.149706148
  0
LINE
  5
2EF
100
AcDbEntity
  8
CURVE
100
AcDbLine
 62
7
  6
CONTINUOUS
 10
-97.7314955274
 20
8.8313684471
 11
-97.7314955274
 21
9.2313684233
  0
LINE
  5
2F0
100
AcDbEntity
  8
RACCORDO
100
AcDbLine
 62
250
  6
CONTINUOUS
 10
-97.153393679
 20
3.6202865742
 11
-97.153393679
 21
3.3649725641
  0
LINE
  5
2F1
100
AcDbEntity
  8
ASSI
100
AcDbLine
 62
250
  6
CONTINUOUS
 10
-97.153393679
 20
3.6202865742
 11
-97.153393679
 21
3.3649725641
  0
LINE
  5
2F2
100
AcDbEntity
  8
CURVE
100
AcDbLine
 62
7
  6
CONTINUOUS
 10
-97.1314954797
 20
6.8313684471
 11
-97.1314954797
 21
6.0313684113
  0
LINE
  5
2F3
100
AcDbEntity
  8
RACCORDO
100
AcDbLine
 62
7
  6
CONTINUOUS
 10
-97.1175314278
 20
10.0977642586
 11
-97.1175314278
 21
9.7756902355
  0
LINE
  5
2F4
100
AcDbEntity
  8
ASSI
100
AcDbLine
 62
7
  6
CONTINUOUS
 10
-97.1175314278
 20
10.0977642586
 11
-97.1175314278
 21
9.7756902355
  0
LINE
  5
2F5
100
AcDbEntity
  8
RACCORDO
100
AcDbLine
 62
250
  6
CONTINUOUS
 10
-97.086633666
 20
3.6870465872
 11
-97.086633666
 21
3.2149782756
  0
LINE
  5
2F6
100
AcDbEntity
  8
ASSI
100
AcDbLine
 62
250
  6
CONTINUOUS
 10
-97.086633666
 20
3.6870465872
 11
-97.086633666
 21
3.2149782756
  0
LINE
  5
2F7
100
AcDbEntity
  8
CURVE
100
AcDbLine
 62
7
  6
CONTINUOUS
 10
-97.8314954797
 20
8.4313684292
 11
-97.7314955274
 21
8.8313684471
  0
LINE
  5
2F8
100
AcDbEntity
  8
CURVE
100
AcDbLine
 62
7
  6
CONTINUOUS
 10
-97.3314953844
 20
8.3313684143
 11
-97.0314955274
 21
9.4313684113
  0
LINE
  5
2F9
100
AcDbEntity
  8
CURVE
100
AcDbLine
 62
7
  6
CONTINUOUS
 10
-98.8314955036
 20
8.4313684292
 11
-98.9314954559
 21
8.2313684203
  0
LINE
  5
2FA
100
AcDbEntity
  8
CURVE
100
AcDbLine
 62
7
  6
CONTINUOUS
 10
-100.5314954753
 20
9.2313684233
 11
-100.3314954768
 21
9.4313684113
  0
LINE
  5
2FB
100
AcDbEntity
  8
CURVE
100
AcDbLine
 62
7
  6
CONTINUOUS
 10
-99.4314954678
 20
9.2313684233
 11
-99.2314954797
 21
9.4313684113
  0
LWPOLYLINE
  5
2FC
100
AcDbEntity
  8
RACCORDO
100
AcDbPolyline
 62
250
  6
CONTINUOUS
 90
4
 70
0
 10
-101.9900598272
 20
3.5403852072
 10
-102.0067848492
 20
3.5514724105
 10
-102.0219094766
 20
3.5664825005
 10
-102.0349763135
 20
3.5849615452
  0
LWPOLYLINE
  5
2FD
100
AcDbEntity
  8
ASSI
100
AcDbPolyline
 62
250
  6
CONTINUOUS
 90
4
 70
0
 10
-101.9900598272
 20
3.5403852072
 10
-102.0067848492
 20
3.5514724105
 10
-102.0219094766
 20
3.5664825005
 10
-102.0349763135
 20
3.5849615452
  0
LINE
  5
2FE
100
AcDbEntity
  8
CURVE
100
AcDbLine
 62
7
  6
CONTINUOUS
 10
-99.5314955036
 20
7.4313684113
 11
-98.8314955036
 21
6.0313684113
  0
LINE
  5
2FF
100
AcDbEntity
  8
CURVE
100
AcDbLine
 62
7
  6
CONTINUOUS
 10
-100.0314954738
 20
9.2313684233
 11
-99.9314954797
 21
9.0313684352
  0
LINE
  5
300
100
AcDbEntity
  8
CURVE
100
AcDbLine
 62
7
  6
CONTINUOUS
 10
-99.4314954678
 20
8.2313684203
 11
-99.5314955036
 21
8.4313684292
  0
LINE
  5
301
100
AcDbEntity
  8
0
100
AcDbLine
 62
7
  6
CONTINUOUS
 10
-98.2010914797
 20
4.6620894113
 11
-98.5202564797
 21
5.5200614113
  0
LINE
  5
302
100
AcDbEntity
  8
ASSI
100
AcDbLine
 62
7
  6
CONTINUOUS
 10
-98.2010914797
 20
4.6620894113
 11
-98.5202564797
 21
5.5200614113
  0
LINE
  5
303
100
AcDbEntity
  8
CURVE
100
AcDbLine
 62
7
  6
CONTINUOUS
 10
-96.864828829
 20
8.0313684113
 11
-96.864828829
 21
8.7313684113
  0
LINE
  5
304
100
AcDbEntity
  8
CURVE
100
AcDbLine
 62
7
  6
CONTINUOUS
 10
-96.2314955751
 20
8.8313684471
 11
-96.2314955751
 21
9.4313684113
  0
LINE
  5
305
100
AcDbEntity
  8
0
100
AcDbLine
 62
7
  6
CONTINUOUS
 10
-95.9985803307
 20
5.5020066679
 11
-95.9985803307
 21
3.9747314234
  0
LINE
  5
306
100
AcDbEntity
  8
ASSI
100
AcDbLine
 62
7
  6
CONTINUOUS
 10
-95.9985803307
 20
5.5020066679
 11
-95.9985803307
 21
3.9747314234
  0
LINE
  5
307
100
AcDbEntity
  8
0
100
AcDbLine
 62
7
  6
CONTINUOUS
 10
-96.8794974797
 20
5.5200614113
 11
-97.3642104797
 21
3.9747314113
  0
LINE
  5
308
100
AcDbEntity
  8
ASSI
100
AcDbLine
 62
7
  6
CONTINUOUS
 10
-96.8794974797
 20
5.5200614113
 11
-97.3642104797
 21
3.9747314113
  0
LINE
  5
309
100
AcDbEntity
  8
0
100
AcDbLine
 62
7
  6
CONTINUOUS
 10
-97.8785204797
 20
5.5200614113
 11
-98.2010914797
 21
4.6620894113
  0
LINE
  5
30A
100
AcDbEntity
  8
ASSI
100
AcDbLine
 62
7
  6
CONTINUOUS
 10
-97.8785204797
 20
5.5200614113
 11
-98.2010914797
 21
4.6620894113
  0
LINE
  5
30B
100
AcDbEntity
  8
0
100
AcDbLine
 62
7
  6
CONTINUOUS
 10
-98.1802334797
 20
3.9747314113
 11
-97.7966964797
 21
4.9795964113
  0
LINE
  5
30C
100
AcDbEntity
  8
ASSI
100
AcDbLine
 62
7
  6
CONTINUOUS
 10
-98.1802334797
 20
3.9747314113
 11
-97.7966964797
 21
4.9795964113
  0
LINE
  5
30D
100
AcDbEntity
  8
CURVE
100
AcDbLine
 62
7
  6
CONTINUOUS
 10
-100.0314954738
 20
8.2313684203
 11
-100.2314954619
 21
8.0313684113
  0
LINE
  5
30E
100
AcDbEntity
  8
CURVE
100
AcDbLine
 62
7
  6
CONTINUOUS
 10
-100.6314954797
 20
7.2313684233
 11
-100.4314954708
 21
7.4313684113
  0
LWPOLYLINE
  5
30F
100
AcDbEntity
  8
0
100
AcDbPolyline
 62
7
  6
CONTINUOUS
 90
3
 70
0
 43
0.3500000006
 10
-90.3243545837
 20
17.3534786453
 10
-89.4672075806
 20
18.2106233826
 10
-89.4672075806
 20
15.210622467
  0
LINE
  5
310
100
AcDbEntity
  8
CURVE
100
AcDbLine
 62
7
  6
CONTINUOUS
 10
-98.2314954559
 20
9.4313684113
 11
-98.4314955274
 21
9.2313684233
  0
LINE
  5
311
100
AcDbEntity
  8
CURVE
100
AcDbLine
 62
7
  6
CONTINUOUS
 10
-98.9314954559
 20
8.2313684203
 11
-99.1314955274
 21
8.0313684113
  0
LWPOLYLINE
  5
312
100
AcDbEntity
  8
0
100
AcDbPolyline
 62
7
  6
CONTINUOUS
 90
3
 70
0
 10
-99.9956319469
 20
10.2460795802
 10
-100.0165289932
 20
10.2304726473
 10
-100.0347690918
 20
10.2110660387
  0
LWPOLYLINE
  5
313
100
AcDbEntity
  8
ASSI
100
AcDbPolyline
 62
7
  6
CONTINUOUS
 90
3
 70
0
 10
-99.9956319469
 20
10.2460795802
 10
-100.0165289932
 20
10.2304726473
 10
-100.0347690918
 20
10.2110660387
  0
LINE
  5
314
100
AcDbEntity
  8
CURVE
100
AcDbLine
 62
7
  6
CONTINUOUS
 10
-100.4314954708
 20
6.0313684113
 11
-100.6314954797
 21
6.2313684203
  0
LINE
  5
315
100
AcDbEntity
  8
CURVE
100
AcDbLine
 62
7
  6
CONTINUOUS
 10
-98.9314954559
 20
9.2313684233
 11
-98.8314955036
 21
9.0313684352
  0
LINE
  5
316
100
AcDbEntity
  8
0
100
AcDbLine
 62
7
  6
CONTINUOUS
 10
-96.0933024797
 20
3.9747314113
 11
-96.5674484797
 21
5.5200614113
  0
LINE
  5
317
100
AcDbEntity
  8
ASSI
100
AcDbLine
 62
7
  6
CONTINUOUS
 10
-96.0933024797
 20
3.9747314113
 11
-96.5674484797
 21
5.5200614113
  0
LINE
  5
318
100
AcDbEntity
  8
0
100
AcDbLine
 62
7
  6
CONTINUOUS
 10
-96.5168414797
 20
4.2832334113
 11
-96.4332794797
 21
3.9747314113
  0
LINE
  5
319
100
AcDbEntity
  8
ASSI
100
AcDbLine
 62
7
  6
CONTINUOUS
 10
-96.5168414797
 20
4.2832334113
 11
-96.4332794797
 21
3.9747314113
  0
LINE
  5
31A
100
AcDbEntity
  8
0
100
AcDbLine
 62
7
  6
CONTINUOUS
 10
-96.7295334797
 20
5.0954434113
 11
-96.5813084797
 21
4.5219524113
  0
LINE
  5
31B
100
AcDbEntity
  8
ASSI
100
AcDbLine
 62
7
  6
CONTINUOUS
 10
-96.7295334797
 20
5.0954434113
 11
-96.5813084797
 21
4.5219524113
  0
LINE
  5
31C
100
AcDbEntity
  8
0
100
AcDbLine
 62
7
  6
CONTINUOUS
 10
-95.6880032692
 20
4.8325758373
 11
-95.6880032692
 21
5.2567990031
  0
LINE
  5
31D
100
AcDbEntity
  8
ASSI
100
AcDbLine
 62
7
  6
CONTINUOUS
 10
-95.6880032692
 20
4.8325758373
 11
-95.6880032692
 21
5.2567990031
  0
LINE
  5
31E
100
AcDbEntity
  8
0
100
AcDbLine
 62
7
  6
CONTINUOUS
 10
-95.6773073016
 20
3.9747314234
 11
-95.6773073016
 21
4.5794881531
  0
LINE
  5
31F
100
AcDbEntity
  8
ASSI
100
AcDbLine
 62
7
  6
CONTINUOUS
 10
-95.6773073016
 20
3.9747314234
 11
-95.6773073016
 21
4.5794881531
  0
LINE
  5
320
100
AcDbEntity
  8
CURVE
100
AcDbLine
 62
7
  6
CONTINUOUS
 10
-95.6314955274
 20
8.2313684203
 11
-95.6314955274
 21
8.6313684173
  0
LINE
  5
321
100
AcDbEntity
  8
CURVE
100
AcDbLine
 62
7
  6
CONTINUOUS
 10
-95.2314953844
 20
6.0313684113
 11
-95.2314953844
 21
7.4313684113
  0
LINE
  5
322
100
AcDbEntity
  8
0
100
AcDbLine
 62
7
  6
CONTINUOUS
 10
-95.1592662227
 20
4.6917204549
 11
-95.1592662227
 21
4.7075306776
  0
LINE
  5
323
100
AcDbEntity
  8
ASSI
100
AcDbLine
 62
7
  6
CONTINUOUS
 10
-95.1592662227
 20
4.6917204549
 11
-95.1592662227
 21
4.7075306776
  0
LINE
  5
324
100
AcDbEntity
  8
CURVE
100
AcDbLine
 62
7
  6
CONTINUOUS
 10
-95.0314954797
 20
8.1647017472
 11
-95.0314954797
 21
8.1980350785
  0
LINE
  5
325
100
AcDbEntity
  8
CURVE
100
AcDbLine
 62
7
  6
CONTINUOUS
 10
-94.8981619875
 20
8.1980350785
 11
-94.8981619875
 21
8.1647017472
  0
LWPOLYLINE
  5
326
100
AcDbEntity
  8
0
100
AcDbPolyline
 62
7
  6
CONTINUOUS
 90
13
 70
0
 10
-95.2530841357
 20
5.0727194306
 10
-95.2557630924
 20
5.0343784762
 10
-95.2621851456
 20
4.9990633197
 10
-95.2723502953
 20
4.9667739611
 10
-95.2865057587
 20
4.937151157
 10
-95.3044043185
 20
4.9105541508
 10
-95.3253043234
 20
4.8880606726
 10
-95.3492768608
 20
4.8703578738
 10
-95.3762508432
 20
4.856758603
 10
-95.4052713564
 20
4.8462791364
 10
-95.4360200956
 20
4.8385915659
 10
-95.4688153657
 20
4.8340237995
 10
-95.5036571666
 20
4.8325758373
  0
LWPOLYLINE
  5
327
100
AcDbEntity
  8
ASSI
100
AcDbPolyline
 62
7
  6
CONTINUOUS
 90
13
 70
0
 10
-95.2530841357
 20
5.0727194306
 10
-95.2557630924
 20
5.0343784762
 10
-95.2621851456
 20
4.9990633197
 10
-95.2723502953
 20
4.9667739611
 10
-95.2865057587
 20
4.937151157
 10
-95.3044043185
 20
4.9105541508
 10
-95.3253043234
 20
4.8880606726
 10
-95.3492768608
 20
4.8703578738
 10
-95.3762508432
 20
4.856758603
 10
-95.4052713564
 20
4.8462791364
 10
-95.4360200956
 20
4.8385915659
 10
-95.4688153657
 20
4.8340237995
 10
-95.5036571666
 20
4.8325758373
  0
LINE
  5
328
100
AcDbEntity
  8
0
100
AcDbLine
 62
7
  6
CONTINUOUS
 10
-96.8901464797
 20
4.5219524113
 11
-96.7295334797
 21
5.0954434113
  0
LINE
  5
329
100
AcDbEntity
  8
ASSI
100
AcDbLine
 62
7
  6
CONTINUOUS
 10
-96.8901464797
 20
4.5219524113
 11
-96.7295334797
 21
5.0954434113
  0
LINE
  5
32A
100
AcDbEntity
  8
0
100
AcDbLine
 62
7
  6
CONTINUOUS
 10
-97.0451404797
 20
3.9747314113
 11
-96.9561304797
 21
4.2832334113
  0
LINE
  5
32B
100
AcDbEntity
  8
ASSI
100
AcDbLine
 62
7
  6
CONTINUOUS
 10
-97.0451404797
 20
3.9747314113
 11
-96.9561304797
 21
4.2832334113
  0
LINE
  5
32C
100
AcDbEntity
  8
CURVE
100
AcDbLine
 62
7
  6
CONTINUOUS
 10
-97.1314954797
 20
6.8313684471
 11
-96.7314953367
 21
7.4313684113
  0
LINE
  5
32D
100
AcDbEntity
  8
CURVE
100
AcDbLine
 62
7
  6
CONTINUOUS
 10
-98.2314954559
 20
8.0313684113
 11
-97.8314954797
 21
8.4313684292
  0
LINE
  5
32E
100
AcDbEntity
  8
CURVE
100
AcDbLine
 62
7
  6
CONTINUOUS
 10
-99.9314954797
 20
6.2313684203
 11
-100.1314954678
 21
6.0313684113
  0
LINE
  5
32F
100
AcDbEntity
  8
CURVE
100
AcDbLine
 62
7
  6
CONTINUOUS
 10
-100.1314954678
 20
7.4313684113
 11
-99.9314954797
 21
7.2313684233
  0
LINE
  5
330
100
AcDbEntity
  8
CURVE
100
AcDbLine
 62
7
  6
CONTINUOUS
 10
-100.3314954768
 20
8.0313684113
 11
-100.5314954753
 21
8.2313684203
  0
LINE
  5
331
100
AcDbEntity
  8
CURVE
100
AcDbLine
 62
7
  6
CONTINUOUS
 10
-97.5314956228
 20
7.4313684113
 11
-97.1314954797
 21
6.8313684471
  0
LWPOLYLINE
  5
332
100
AcDbEntity
  8
0
100
AcDbPolyline
 62
7
  6
CONTINUOUS
 90
6
 70
0
 10
-95.3243867236
 20
4.4433260519
 10
-95.3076440667
 20
4.3941410868
 10
-95.2913420092
 20
4.3441642078
 10
-95.2754805511
 20
4.293395415
 10
-95.2602904338
 20
4.2417391914
 10
-95.2305397735
 20
4.1363375535
  0
LWPOLYLINE
  5
333
100
AcDbEntity
  8
ASSI
100
AcDbPolyline
 62
7
  6
CONTINUOUS
 90
6
 70
0
 10
-95.3243867236
 20
4.4433260519
 10
-95.3076440667
 20
4.3941410868
 10
-95.2913420092
 20
4.3441642078
 10
-95.2754805511
 20
4.293395415
 10
-95.2602904338
 20
4.2417391914
 10
-95.2305397735
 20
4.1363375535
  0
LINE
  5
334
100
AcDbEntity
  8
0
100
AcDbLine
 62
7
  6
CONTINUOUS
 10
-95.2305397735
 20
4.1363375535
 11
-95.1833343751
 21
3.9747314234
  0
LINE
  5
335
100
AcDbEntity
  8
ASSI
100
AcDbLine
 62
7
  6
CONTINUOUS
 10
-95.2305397735
 20
4.1363375535
 11
-95.1833343751
 21
3.9747314234
  0
LINE
  5
336
100
AcDbEntity
  8
0
100
AcDbLine
 62
7
  6
CONTINUOUS
 10
-94.9457090769
 20
4.2519795464
 11
-94.9833325279
 21
4.3929866334
  0
LINE
  5
337
100
AcDbEntity
  8
ASSI
100
AcDbLine
 62
7
  6
CONTINUOUS
 10
-94.9457090769
 20
4.2519795464
 11
-94.9833325279
 21
4.3929866334
  0
LINE
  5
338
100
AcDbEntity
  8
0
100
AcDbLine
 62
7
  6
CONTINUOUS
 10
-94.8730586084
 20
3.9747314234
 11
-94.9457090769
 21
4.2519795464
  0
LINE
  5
339
100
AcDbEntity
  8
ASSI
100
AcDbLine
 62
7
  6
CONTINUOUS
 10
-94.8730586084
 20
3.9747314234
 11
-94.9457090769
 21
4.2519795464
  0
LWPOLYLINE
  5
33A
100
AcDbEntity
  8
0
100
AcDbPolyline
 62
7
  6
CONTINUOUS
 90
13
 70
0
 10
-94.9833325279
 20
4.3929866334
 10
-94.9916805598
 20
4.4262399273
 10
-95.0010313712
 20
4.4583666358
 10
-95.0113849623
 20
4.4893667587
 10
-95.022632021
 20
4.5194705779
 10
-95.0348818593
 20
4.5484478116
 10
-95.0484624129
 20
4.5756076146
 10
-95.0634563419
 20
4.6009900109
 10
-95.0797809863
 20
4.6245549765
 10
-95.097516301
 20
4.6454915953
 10
-95.1166889379
 20
4.663529562
 10
-95.1372722451
 20
4.6789391818
 10
-95.1592662227
 20
4.6917204549
  0
LWPOLYLINE
  5
33B
100
AcDbEntity
  8
ASSI
100
AcDbPolyline
 62
7
  6
CONTINUOUS
 90
13
 70
0
 10
-94.9833325279
 20
4.3929866334
 10
-94.9916805598
 20
4.4262399273
 10
-95.0010313712
 20
4.4583666358
 10
-95.0113849623
 20
4.4893667587
 10
-95.022632021
 20
4.5194705779
 10
-95.0348818593
 20
4.5484478116
 10
-95.0484624129
 20
4.5756076146
 10
-95.0634563419
 20
4.6009900109
 10
-95.0797809863
 20
4.6245549765
 10
-95.097516301
 20
4.6454915953
 10
-95.1166889379
 20
4.663529562
 10
-95.1372722451
 20
4.6789391818
 10
-95.1592662227
 20
4.6917204549
  0
LINE
  5
33C
100
AcDbEntity
  8
CURVE
100
AcDbLine
 62
7
  6
CONTINUOUS
 10
-94.4314957658
 20
8.2313684203
 11
-94.4314957658
 21
9.2313684233
  0
LWPOLYLINE
  5
33D
100
AcDbEntity
  8
0
100
AcDbPolyline
 62
7
  6
CONTINUOUS
 90
13
 70
0
 43
0.3500000006
 10
-94.3957779236
 20
16.0677649384
 10
-94.3957779236
 20
17.3534786453
 10
-94.1814934387
 20
17.782049881
 10
-93.752924469
 20
18.2106233826
 10
-93.5386399841
 20
18.2106233826
 10
-93.1100710144
 20
17.782049881
 10
-92.8957774658
 20
17.3534786453
 10
-92.8957774658
 20
16.0677649384
 10
-93.1100710144
 20
15.6391937027
 10
-93.5386399841
 20
15.210622467
 10
-93.752924469
 20
15.210622467
 10
-94.1814934387
 20
15.6391937027
 10
-94.3957779236
 20
16.0677649384
  0
LINE
  5
33E
100
AcDbEntity
  8
CURVE
100
AcDbLine
 62
7
  6
CONTINUOUS
 10
-94.2314951936
 20
6.2313684203
 11
-94.2314951936
 21
7.2313684233
  0
LINE
  5
33F
100
AcDbEntity
  8
CURVE
100
AcDbLine
 62
7
  6
CONTINUOUS
 10
-93.7314957658
 20
8.8313684471
 11
-93.7314957658
 21
8.0313684113
  0
LINE
  5
340
100
AcDbEntity
  8
CURVE
100
AcDbLine
 62
7
  6
CONTINUOUS
 10
-93.5314951936
 20
7.2313684233
 11
-93.5314951936
 21
6.2313684203
  0
LWPOLYLINE
  5
341
100
AcDbEntity
  8
0
100
AcDbPolyline
 62
7
  6
CONTINUOUS
 90
3
 70
0
 43
0.3500000006
 10
-91.3243548889
 20
15.4963358688
 10
-91.3957770081
 20
15.282051384
 10
-91.5386393738
 20
14.9963357162
  0
LINE
  5
342
100
AcDbEntity
  8
CURVE
100
AcDbLine
 62
7
  6
CONTINUOUS
 10
-95.0314954797
 20
8.1980350785
 11
-94.9981622736
 21
8.2647017516
  0
LINE
  5
343
100
AcDbEntity
  8
CURVE
100
AcDbLine
 62
7
  6
CONTINUOUS
 10
-94.8981619875
 20
8.1647017472
 11
-94.9314951936
 21
8.0980350792
  0
LINE
  5
344
100
AcDbEntity
  8
CURVE
100
AcDbLine
 62
7
  6
CONTINUOUS
 10
-95.831495432
 20
8.0313684113
 11
-95.6314955274
 21
8.2313684203
  0
LINE
  5
345
100
AcDbEntity
  8
CURVE
100
AcDbLine
 62
7
  6
CONTINUOUS
 10
-94.4314957658
 20
9.2313684233
 11
-94.2314951936
 21
9.4313684113
  0
LINE
  5
346
100
AcDbEntity
  8
0
100
AcDbLine
 62
7
  6
CONTINUOUS
 10
-97.1192769343
 20
10.2813684113
 11
-97.1349864927
 21
10.2735142303
  0
LINE
  5
347
100
AcDbEntity
  8
ASSI
100
AcDbLine
 62
7
  6
CONTINUOUS
 10
-97.1192769343
 20
10.2813684113
 11
-97.1349864927
 21
10.2735142303
  0
LINE
  5
348
100
AcDbEntity
  8
CURVE
100
AcDbLine
 62
7
  6
CONTINUOUS
 10
-99.2314954797
 20
8.0313684113
 11
-99.4314954678
 21
8.2313684203
  0
LINE
  5
349
100
AcDbEntity
  8
CURVE
100
AcDbLine
 62
7
  6
CONTINUOUS
 10
-100.2314954619
 20
9.4313684113
 11
-100.0314954738
 21
9.2313684233
  0
LINE
  5
34A
100
AcDbEntity
  8
CURVE
100
AcDbLine
 62
7
  6
CONTINUOUS
 10
-94.1314954797
 20
4.9813684113
 11
-93.5600668828
 21
3.9813684113
  0
LINE
  5
34B
100
AcDbEntity
  8
CURVE
100
AcDbLine
 62
7
  6
CONTINUOUS
 10
-93.1314953844
 20
6.0313684113
 11
-93.1314953844
 21
7.4313684113
  0
LINE
  5
34C
100
AcDbEntity
  8
CURVE
100
AcDbLine
 62
7
  6
CONTINUOUS
 10
-92.4314953844
 20
7.2313684233
 11
-92.4314953844
 21
6.8313684471
  0
LINE
  5
34D
100
AcDbEntity
  8
RACCORDO
100
AcDbLine
 62
250
  6
CONTINUOUS
 10
-100.0548671097
 20
3.3579910699
 11
-100.0814954797
 21
3.3313626998
  0
LINE
  5
34E
100
AcDbEntity
  8
ASSI
100
AcDbLine
 62
250
  6
CONTINUOUS
 10
-100.0548671097
 20
3.3579910699
 11
-100.0814954797
 21
3.3313626998
  0
LINE
  5
34F
100
AcDbEntity
  8
RACCORDO
100
AcDbLine
 62
250
  6
CONTINUOUS
 10
-99.9048728212
 20
3.2079967814
 11
-99.9315011913
 21
3.1813684113
  0
LINE
  5
350
100
AcDbEntity
  8
ASSI
100
AcDbLine
 62
250
  6
CONTINUOUS
 10
-99.9048728212
 20
3.2079967814
 11
-99.9315011913
 21
3.1813684113
  0
LWPOLYLINE
  5
351
100
AcDbEntity
  8
RACCORDO
100
AcDbPolyline
 62
250
  6
CONTINUOUS
 90
10
 70
0
 10
-102.5814954797
 20
8.9615547819
 10
-102.5937900927
 20
8.9576960301
 10
-102.6058027318
 20
8.9498810232
 10
-102.6172013926
 20
8.9382740803
 10
-102.6276799799
 20
8.9231212833
 10
-102.6369157454
 20
8.9048172456
 10
-102.6446010907
 20
8.8839428171
 10
-102.6505173476
 20
8.8611217834
 10
-102.6545177325
 20
8.836958986
 10
-102.6564954797
 20
8.8121255772
  0
LWPOLYLINE
  5
352
100
AcDbEntity
  8
ASSI
100
AcDbPolyline
 62
250
  6
CONTINUOUS
 90
10
 70
0
 10
-102.5814954797
 20
8.9615547819
 10
-102.5937900927
 20
8.9576960301
 10
-102.6058027318
 20
8.9498810232
 10
-102.6172013926
 20
8.9382740803
 10
-102.6276799799
 20
8.9231212833
 10
-102.6369157454
 20
8.9048172456
 10
-102.6446010907
 20
8.8839428171
 10
-102.6505173476
 20
8.8611217834
 10
-102.6545177325
 20
8.836958986
 10
-102.6564954797
 20
8.8121255772
  0
LWPOLYLINE
  5
353
100
AcDbEntity
  8
RACCORDO
100
AcDbPolyline
 62
250
  6
CONTINUOUS
 90
10
 70
0
 10
-102.5814954797
 20
4.5011820408
 10
-102.5937880392
 20
4.5050398079
 10
-102.6057993322
 20
4.5128529819
 10
-102.6171974032
 20
4.5244578678
 10
-102.6276761632
 20
4.5396090668
 10
-102.6369126572
 20
4.5579124263
 10
-102.6445989521
 20
4.5787871329
 10
-102.6505161594
 20
4.6016094096
 10
-102.6545173298
 20
4.6257745361
 10
-102.6564954797
 20
4.6506112455
  0
LWPOLYLINE
  5
354
100
AcDbEntity
  8
ASSI
100
AcDbPolyline
 62
250
  6
CONTINUOUS
 90
10
 70
0
 10
-102.5814954797
 20
4.5011820408
 10
-102.5937880392
 20
4.5050398079
 10
-102.6057993322
 20
4.5128529819
 10
-102.6171974032
 20
4.5244578678
 10
-102.6276761632
 20
4.5396090668
 10
-102.6369126572
 20
4.5579124263
 10
-102.6445989521
 20
4.5787871329
 10
-102.6505161594
 20
4.6016094096
 10
-102.6545173298
 20
4.6257745361
 10
-102.6564954797
 20
4.6506112455
  0
LINE
  5
355
100
AcDbEntity
  8
0
100
AcDbLine
 62
250
  6
CONTINUOUS
 10
-100.0676167063
 20
10.1174953495
 11
-100.0548671097
 21
10.1047457528
  0
LINE
  5
356
100
AcDbEntity
  8
ASSI
100
AcDbLine
 62
250
  6
CONTINUOUS
 10
-100.0676167063
 20
10.1174953495
 11
-100.0548671097
 21
10.1047457528
  0
LINE
  5
357
100
AcDbEntity
  8
CURVE
100
AcDbLine
 62
7
  6
CONTINUOUS
 10
-99.1314955274
 20
9.4313684113
 11
-98.9314954559
 21
9.2313684233
  0
LINE
  5
358
100
AcDbEntity
  8
0
100
AcDbLine
 62
250
  6
CONTINUOUS
 10
-99.9182303316
 20
10.2680975516
 11
-99.9048728212
 21
10.2547400413
  0
LINE
  5
359
100
AcDbEntity
  8
ASSI
100
AcDbLine
 62
250
  6
CONTINUOUS
 10
-99.9182303316
 20
10.2680975516
 11
-99.9048728212
 21
10.2547400413
  0
LINE
  5
35A
100
AcDbEntity
  8
CURVE
100
AcDbLine
 62
7
  6
CONTINUOUS
 10
-98.4314955274
 20
8.8313684471
 11
-98.2314954559
 21
8.6313684173
  0
LINE
  5
35B
100
AcDbEntity
  8
CURVE
100
AcDbLine
 62
7
  6
CONTINUOUS
 10
-97.7314955274
 20
9.2313684233
 11
-97.931495432
 21
9.4313684113
  0
LINE
  5
35C
100
AcDbEntity
  8
CURVE
100
AcDbLine
 62
7
  6
CONTINUOUS
 10
-93.2743526141
 20
4.9813684113
 11
-92.7029240171
 21
3.9813684113
  0
LINE
  5
35D
100
AcDbEntity
  8
CURVE
100
AcDbLine
 62
7
  6
CONTINUOUS
 10
-94.9981622736
 20
8.0980350792
 11
-95.0314954797
 21
8.1647017472
  0
LINE
  5
35E
100
AcDbEntity
  8
CURVE
100
AcDbLine
 62
7
  6
CONTINUOUS
 10
-94.9314951936
 20
8.2647017516
 11
-94.8981619875
 21
8.1980350785
  0
LINE
  5
35F
100
AcDbEntity
  8
CURVE
100
AcDbLine
 62
7
  6
CONTINUOUS
 10
-92.1314954797
 20
4.5527970083
 11
-92.1314954797
 21
3.9813684113
  0
LINE
  5
360
100
AcDbEntity
  8
CURVE
100
AcDbLine
 62
7
  6
CONTINUOUS
 10
-91.2743525545
 20
4.5527970083
 11
-91.2743525545
 21
3.9813684113
  0
LINE
  5
361
100
AcDbEntity
  8
CURVE
100
AcDbLine
 62
7
  6
CONTINUOUS
 10
-94.1314954797
 20
3.9813684113
 11
-93.5600668828
 21
4.9813684113
  0
LINE
  5
362
100
AcDbEntity
  8
CURVE
100
AcDbLine
 62
7
  6
CONTINUOUS
 10
-94.2314951936
 20
7.2313684233
 11
-94.031495289
 21
7.4313684113
  0
LWPOLYLINE
  5
363
100
AcDbEntity
  8
RACCORDO
100
AcDbPolyline
 62
7
  6
CONTINUOUS
 90
3
 70
0
 10
-97.153393679
 20
3.6202865742
 10
-97.1383806661
 20
3.6353375412
 10
-97.086633666
 20
3.6870465872
  0
LWPOLYLINE
  5
364
100
AcDbEntity
  8
ASSI
100
AcDbPolyline
 62
7
  6
CONTINUOUS
 90
3
 70
0
 10
-97.153393679
 20
3.6202865742
 10
-97.1383806661
 20
3.6353375412
 10
-97.086633666
 20
3.6870465872
  0
LINE
  5
365
100
AcDbEntity
  8
RACCORDO
100
AcDbLine
 62
250
  6
CONTINUOUS
 10
-102.1314954797
 20
3.6646082997
 11
-102.103859169
 21
3.6811895154
  0
LINE
  5
366
100
AcDbEntity
  8
ASSI
100
AcDbLine
 62
250
  6
CONTINUOUS
 10
-102.1314954797
 20
3.6646082997
 11
-102.103859169
 21
3.6811895154
  0
LINE
  5
367
100
AcDbEntity
  8
RACCORDO
100
AcDbLine
 62
250
  6
CONTINUOUS
 10
-101.981496622
 20
3.5146130974
 11
-101.9538648144
 21
3.5311927836
  0
LINE
  5
368
100
AcDbEntity
  8
ASSI
100
AcDbLine
 62
250
  6
CONTINUOUS
 10
-101.981496622
 20
3.5146130974
 11
-101.9538648144
 21
3.5311927836
  0
LWPOLYLINE
  5
369
100
AcDbEntity
  8
RACCORDO
100
AcDbPolyline
 62
250
  6
CONTINUOUS
 90
10
 70
0
 10
-97.086633666
 20
3.2149782756
 10
-97.0980425423
 20
3.2173849514
 10
-97.1091601887
 20
3.2241700559
 10
-97.1196506773
 20
3.2351846437
 10
-97.1292054868
 20
3.2501773468
 10
-97.1375030072
 20
3.2687240169
 10
-97.1442428899
 20
3.2901816812
 10
-97.1492183734
 20
3.3138470611
 10
-97.1522975666
 20
3.3390321186
 10
-97.153393679
 20
3.3649725641
  0
LWPOLYLINE
  5
36A
100
AcDbEntity
  8
ASSI
100
AcDbPolyline
 62
250
  6
CONTINUOUS
 90
10
 70
0
 10
-97.086633666
 20
3.2149782756
 10
-97.0980425423
 20
3.2173849514
 10
-97.1091601887
 20
3.2241700559
 10
-97.1196506773
 20
3.2351846437
 10
-97.1292054868
 20
3.2501773468
 10
-97.1375030072
 20
3.2687240169
 10
-97.1442428899
 20
3.2901816812
 10
-97.1492183734
 20
3.3138470611
 10
-97.1522975666
 20
3.3390321186
 10
-97.153393679
 20
3.3649725641
  0
LINE
  5
36B
100
AcDbEntity
  8
RACCORDO
100
AcDbLine
 62
250
  6
CONTINUOUS
 10
-102.103859169
 20
9.7815473073
 11
-102.1314954797
 21
9.798128523
  0
LINE
  5
36C
100
AcDbEntity
  8
ASSI
100
AcDbLine
 62
250
  6
CONTINUOUS
 10
-102.103859169
 20
9.7815473073
 11
-102.1314954797
 21
9.798128523
  0
LINE
  5
36D
100
AcDbEntity
  8
0
100
AcDbLine
 62
250
  6
CONTINUOUS
 10
-101.9538648704
 20
9.9315440394
 11
-101.9771618978
 21
9.945522933
  0
LINE
  5
36E
100
AcDbEntity
  8
ASSI
100
AcDbLine
 62
250
  6
CONTINUOUS
 10
-101.9538648704
 20
9.9315440394
 11
-101.9771618978
 21
9.945522933
  0
LINE
  5
36F
100
AcDbEntity
  8
CURVE
100
AcDbLine
 62
7
  6
CONTINUOUS
 10
-94.031495289
 20
6.0313684113
 11
-94.2314951936
 21
6.2313684203
  0
LINE
  5
370
100
AcDbEntity
  8
CURVE
100
AcDbLine
 62
7
  6
CONTINUOUS
 10
-95.6314955274
 20
8.6313684173
 11
-95.831495432
 21
8.8313684471
  0
LINE
  5
371
100
AcDbEntity
  8
CURVE
100
AcDbLine
 62
7
  6
CONTINUOUS
 10
-92.4172097484
 20
4.9813684113
 11
-92.1314954797
 21
4.5527970083
  0
LINE
  5
372
100
AcDbEntity
  8
CURVE
100
AcDbLine
 62
7
  6
CONTINUOUS
 10
-92.8314951936
 20
6.6313684173
 11
-92.4314953844
 21
6.0313684113
  0
LINE
  5
373
100
AcDbEntity
  8
CURVE
100
AcDbLine
 62
7
  6
CONTINUOUS
 10
-91.5600669424
 20
4.9813684113
 11
-91.2743525545
 21
4.5527970083
  0
LINE
  5
374
100
AcDbEntity
  8
CURVE
100
AcDbLine
 62
7
  6
CONTINUOUS
 10
-90.9314957658
 20
6.2313684203
 11
-90.9314957658
 21
7.2313684233
  0
LINE
  5
375
100
AcDbEntity
  8
CURVE
100
AcDbLine
 62
7
  6
CONTINUOUS
 10
-90.2314957658
 20
7.2313684233
 11
-90.2314957658
 21
6.2313684203
  0
LINE
  5
376
100
AcDbEntity
  8
CURVE
100
AcDbLine
 62
7
  6
CONTINUOUS
 10
-93.2743526141
 20
3.9813684113
 11
-92.7029240171
 21
4.9813684113
  0
LINE
  5
377
100
AcDbEntity
  8
CURVE
100
AcDbLine
 62
7
  6
CONTINUOUS
 10
-93.5314951936
 20
6.2313684203
 11
-93.7314957658
 21
6.0313684113
  0
LINE
  5
378
100
AcDbEntity
  8
CURVE
100
AcDbLine
 62
7
  6
CONTINUOUS
 10
-92.4314953844
 20
6.8313684471
 11
-92.631495289
 21
6.6313684173
  0
LWPOLYLINE
  5
379
100
AcDbEntity
  8
RACCORDO
100
AcDbPolyline
 62
7
  6
CONTINUOUS
 90
19
 70
0
 10
-97.153393679
 20
3.6202865742
 10
-97.1632511795
 20
3.6113792837
 10
-97.1737998624
 20
3.6030187123
 10
-97.1850397277
 20
3.5952048601
 10
-97.197015274
 20
3.5879599064
 10
-97.2096820028
 20
3.5812616719
 10
-97.2229064179
 20
3.5750436184
 10
-97.2366620884
 20
3.5692922149
 10
-97.2509754453
 20
3.5640209925
 10
-97.2657922856
 20
3.5592040067
 10
-97.2811014652
 20
3.5548281294
 10
-97.2969141282
 20
3.5509064886
 10
-97.3132095042
 20
3.547452524
 10
-97.3299824906
 20
3.5444531048
 10
-97.3472381899
 20
3.5419213617
 10
-97.3649711392
 20
3.5399101263
 10
-97.3831795177
 20
3.5384370093
 10
-97.4018651461
 20
3.5374844001
 10
-97.4210280247
 20
3.5370522987
  0
LWPOLYLINE
  5
37A
100
AcDbEntity
  8
ASSI
100
AcDbPolyline
 62
7
  6
CONTINUOUS
 90
19
 70
0
 10
-97.153393679
 20
3.6202865742
 10
-97.1632511795
 20
3.6113792837
 10
-97.1737998624
 20
3.6030187123
 10
-97.1850397277
 20
3.5952048601
 10
-97.197015274
 20
3.5879599064
 10
-97.2096820028
 20
3.5812616719
 10
-97.2229064179
 20
3.5750436184
 10
-97.2366620884
 20
3.5692922149
 10
-97.2509754453
 20
3.5640209925
 10
-97.2657922856
 20
3.5592040067
 10
-97.2811014652
 20
3.5548281294
 10
-97.2969141282
 20
3.5509064886
 10
-97.3132095042
 20
3.547452524
 10
-97.3299824906
 20
3.5444531048
 10
-97.3472381899
 20
3.5419213617
 10
-97.3649711392
 20
3.5399101263
 10
-97.3831795177
 20
3.5384370093
 10
-97.4018651461
 20
3.5374844001
 10
-97.4210280247
 20
3.5370522987
  0
LWPOLYLINE
  5
37B
100
AcDbEntity
  8
0
100
AcDbPolyline
 62
7
  6
CONTINUOUS
 90
36
 70
0
 10
-95.1134444025
 20
4.7378735068
 10
-95.102172836
 20
4.7476601247
 10
-95.0909279759
 20
4.7579351963
 10
-95.079647311
 20
4.7684708992
 10
-95.0683933524
 20
4.7794950557
 10
-95.0573110439
 20
4.7913348506
 10
-95.0463853495
 20
4.8040397026
 10
-95.0356313051
 20
4.8175601931
 10
-95.025238962
 20
4.8320752509
 10
-95.0151995889
 20
4.8476491646
 10
-95.005521917
 20
4.8642176457
 10
-94.9964221915
 20
4.881766758
 10
-94.9878826984
 20
4.9003178822
 10
-94.9799211518
 20
4.9198496375
 10
-94.9728069387
 20
4.9402839451
 10
-94.9665514224
 20
4.9615887302
 10
-94.9611432398
 20
4.9837960674
 10
-94.9568176887
 20
5.0069241018
 10
-94.9535618574
 20
5.0309753687
 10
-94.9513886577
 20
5.0559473326
 10
-94.9505721228
 20
5.0818505328
 10
-94.9509986625
 20
5.1087324917
 10
-94.9527818669
 20
5.1365456868
 10
-94.95653654
 20
5.1651580894
 10
-94.9622002154
 20
5.1947645793
 10
-94.9698353594
 20
5.2251702767
 10
-94.9802441752
 20
5.2556585126
 10
-94.9936346199
 20
5.2864097912
 10
-95.0097987364
 20
5.3172436083
 10
-95.0289148567
 20
5.3469017824
 10
-95.051169676
 20
5.3754060014
 10
-95.076376499
 20
5.4027345774
 10
-95.1041535723
 20
5.4275642644
 10
-95.1343736446
 20
5.4494539803
 10
-95.1671639673
 20
5.4688448073
 10
-95.2025245402
 20
5.4857367453
  0
LWPOLYLINE
  5
37C
100
AcDbEntity
  8
ASSI
100
AcDbPolyline
 62
7
  6
CONTINUOUS
 90
36
 70
0
 10
-95.1134444025
 20
4.7378735068
 10
-95.102172836
 20
4.7476601247
 10
-95.0909279759
 20
4.7579351963
 10
-95.079647311
 20
4.7684708992
 10
-95.0683933524
 20
4.7794950557
 10
-95.0573110439
 20
4.7913348506
 10
-95.0463853495
 20
4.8040397026
 10
-95.0356313051
 20
4.8175601931
 10
-95.025238962
 20
4.8320752509
 10
-95.0151995889
 20
4.8476491646
 10
-95.005521917
 20
4.8642176457
 10
-94.9964221915
 20
4.881766758
 10
-94.9878826984
 20
4.9003178822
 10
-94.9799211518
 20
4.9198496375
 10
-94.9728069387
 20
4.9402839451
 10
-94.9665514224
 20
4.9615887302
 10
-94.9611432398
 20
4.9837960674
 10
-94.9568176887
 20
5.0069241018
 10
-94.9535618574
 20
5.0309753687
 10
-94.9513886577
 20
5.0559473326
 10
-94.9505721228
 20
5.0818505328
 10
-94.9509986625
 20
5.1087324917
 10
-94.9527818669
 20
5.1365456868
 10
-94.95653654
 20
5.1651580894
 10
-94.9622002154
 20
5.1947645793
 10
-94.9698353594
 20
5.2251702767
 10
-94.9802441752
 20
5.2556585126
 10
-94.9936346199
 20
5.2864097912
 10
-95.0097987364
 20
5.3172436083
 10
-95.0289148567
 20
5.3469017824
 10
-95.051169676
 20
5.3754060014
 10
-95.076376499
 20
5.4027345774
 10
-95.1041535723
 20
5.4275642644
 10
-95.1343736446
 20
5.4494539803
 10
-95.1671639673
 20
5.4688448073
 10
-95.2025245402
 20
5.4857367453
  0
LINE
  5
37D
100
AcDbEntity
  8
RACCORDO
100
AcDbLine
 62
7
  6
CONTINUOUS
 10
-100.0814954797
 20
3.5146130974
 11
-100.0548671097
 21
3.5305898599
  0
LINE
  5
37E
100
AcDbEntity
  8
ASSI
100
AcDbLine
 62
7
  6
CONTINUOUS
 10
-100.0814954797
 20
3.5146130974
 11
-100.0548671097
 21
3.5305898599
  0
LWPOLYLINE
  5
37F
100
AcDbEntity
  8
RACCORDO
100
AcDbPolyline
 62
250
  6
CONTINUOUS
 90
10
 70
0
 10
-99.9048728212
 20
3.2079967814
 10
-99.930917784
 20
3.2102772908
 10
-99.9561714675
 20
3.2170455689
 10
-99.9798666255
 20
3.2280959882
 10
-100.0012833621
 20
3.2430928234
 10
-100.0197710012
 20
3.2615804498
 10
-100.0347678564
 20
3.282997185
 10
-100.0458182975
 20
3.3066923556
 10
-100.0525865931
 20
3.3319460664
 10
-100.0548671097
 20
3.3579910699
  0
LWPOLYLINE
  5
380
100
AcDbEntity
  8
ASSI
100
AcDbPolyline
 62
250
  6
CONTINUOUS
 90
10
 70
0
 10
-99.9048728212
 20
3.2079967814
 10
-99.930917784
 20
3.2102772908
 10
-99.9561714675
 20
3.2170455689
 10
-99.9798666255
 20
3.2280959882
 10
-100.0012833621
 20
3.2430928234
 10
-100.0197710012
 20
3.2615804498
 10
-100.0347678564
 20
3.282997185
 10
-100.0458182975
 20
3.3066923556
 10
-100.0525865931
 20
3.3319460664
 10
-100.0548671097
 20
3.3579910699
  0
LWPOLYLINE
  5
381
100
AcDbEntity
  8
RACCORDO
100
AcDbPolyline
 62
250
  6
CONTINUOUS
 90
3
 70
0
 10
-101.9538648805
 20
3.531191873
 10
-101.9722402052
 20
3.5335561874
 10
-101.9900598272
 20
3.5403852072
  0
LWPOLYLINE
  5
382
100
AcDbEntity
  8
ASSI
100
AcDbPolyline
 62
250
  6
CONTINUOUS
 90
3
 70
0
 10
-101.9538648805
 20
3.531191873
 10
-101.9722402052
 20
3.5335561874
 10
-101.9900598272
 20
3.5403852072
  0
LINE
  5
383
100
AcDbEntity
  8
RACCORDO
100
AcDbLine
 62
7
  6
CONTINUOUS
 10
-101.9387596184
 20
3.533771429
 11
-101.9204106339
 21
3.5313692236
  0
LINE
  5
384
100
AcDbEntity
  8
ASSI
100
AcDbLine
 62
7
  6
CONTINUOUS
 10
-101.9387596184
 20
3.533771429
 11
-101.9204106339
 21
3.5313692236
  0
LINE
  5
385
100
AcDbEntity
  8
0
100
AcDbLine
 62
7
  6
CONTINUOUS
 10
-100.0771607556
 20
9.945522933
 11
-100.0548671097
 21
9.9321469628
  0
LINE
  5
386
100
AcDbEntity
  8
ASSI
100
AcDbLine
 62
7
  6
CONTINUOUS
 10
-100.0771607556
 20
9.945522933
 11
-100.0548671097
 21
9.9321469628
  0
LINE
  5
387
100
AcDbEntity
  8
CURVE
100
AcDbLine
 62
7
  6
CONTINUOUS
 10
-93.7314957658
 20
7.4313684113
 11
-93.5314951936
 21
7.2313684233
  0
LINE
  5
388
100
AcDbEntity
  8
CURVE
100
AcDbLine
 62
7
  6
CONTINUOUS
 10
-94.2314951936
 20
8.0313684113
 11
-94.4314957658
 21
8.2313684203
  0
LINE
  5
389
100
AcDbEntity
  8
CURVE
100
AcDbLine
 62
7
  6
CONTINUOUS
 10
-92.631495289
 20
7.4313684113
 11
-92.4314953844
 21
7.2313684233
  0
LINE
  5
38A
100
AcDbEntity
  8
CURVE
100
AcDbLine
 62
7
  6
CONTINUOUS
 10
-89.7314956705
 20
7.4313684113
 11
-89.7314956705
 21
6.2313684203
  0
LINE
  5
38B
100
AcDbEntity
  8
CURVE
100
AcDbLine
 62
7
  6
CONTINUOUS
 10
-89.1314954797
 20
8.4688684113
 11
-89.1314954797
 21
8.3376184113
  0
LINE
  5
38C
100
AcDbEntity
  8
CURVE
100
AcDbLine
 62
7
  6
CONTINUOUS
 10
-89.0314956705
 20
6.2313684203
 11
-89.0314956705
 21
7.4313684113
  0
LINE
  5
38D
100
AcDbEntity
  8
CURVE
100
AcDbLine
 62
7
  6
CONTINUOUS
 10
-89.0002454797
 20
9.0813684113
 11
-89.0002454797
 21
9.0376184113
  0
LINE
  5
38E
100
AcDbEntity
  8
CURVE
100
AcDbLine
 62
7
  6
CONTINUOUS
 10
-88.9564954797
 20
9.2126184113
 11
-89.0002454797
 21
9.0813684113
  0
LINE
  5
38F
100
AcDbEntity
  8
CURVE
100
AcDbLine
 62
7
  6
CONTINUOUS
 10
-89.0877454797
 20
8.6001184113
 11
-89.1314954797
 21
8.4688684113
  0
LINE
  5
390
100
AcDbEntity
  8
CURVE
100
AcDbLine
 62
7
  6
CONTINUOUS
 10
-90.2029240171
 20
4.9813684113
 11
-90.7029240171
 21
3.9813684113
  0
LINE
  5
391
100
AcDbEntity
  8
CURVE
100
AcDbLine
 62
7
  6
CONTINUOUS
 10
-92.1314954797
 20
4.5527970083
 11
-91.8457810918
 21
4.9813684113
  0
LINE
  5
392
100
AcDbEntity
  8
CURVE
100
AcDbLine
 62
7
  6
CONTINUOUS
 10
-91.2743525545
 20
4.5527970083
 11
-90.988638405
 21
4.9813684113
  0
LINE
  5
393
100
AcDbEntity
  8
CURVE
100
AcDbLine
 62
7
  6
CONTINUOUS
 10
-88.8689954797
 20
9.3001184113
 11
-88.9564954797
 21
9.2126184113
  0
LINE
  5
394
100
AcDbEntity
  8
CURVE
100
AcDbLine
 62
7
  6
CONTINUOUS
 10
-90.9314957658
 20
7.2313684233
 11
-90.7314951936
 21
7.4313684113
  0
LINE
  5
395
100
AcDbEntity
  8
CURVE
100
AcDbLine
 62
7
  6
CONTINUOUS
 10
-89.0002454797
 20
8.6876184113
 11
-89.0877454797
 21
8.6001184113
  0
LINE
  5
396
100
AcDbEntity
  8
CURVE
100
AcDbLine
 62
7
  6
CONTINUOUS
 10
-88.7377454797
 20
9.3438684113
 11
-88.8689954797
 21
9.3001184113
  0
LWPOLYLINE
  5
397
100
AcDbEntity
  8
RACCORDO
100
AcDbPolyline
 62
250
  6
CONTINUOUS
 90
10
 70
0
 10
-83.3982797825
 20
3.2149782756
 10
-83.3789938205
 20
3.21739169
 10
-83.3602895151
 20
3.2242560819
 10
-83.3427309802
 20
3.2353644239
 10
-83.3268477739
 20
3.2503816933
 10
-83.3131189272
 20
3.2688549754
 10
-83.3019584962
 20
3.2902271237
 10
-83.2937030749
 20
3.3138535633
 10
-83.2886016434
 20
3.3390217306
 10
-83.2868080587
 20
3.3649725641
  0
LWPOLYLINE
  5
398
100
AcDbEntity
  8
ASSI
100
AcDbPolyline
 62
250
  6
CONTINUOUS
 90
10
 70
0
 10
-83.3982797825
 20
3.2149782756
 10
-83.3789938205
 20
3.21739169
 10
-83.3602895151
 20
3.2242560819
 10
-83.3427309802
 20
3.2353644239
 10
-83.3268477739
 20
3.2503816933
 10
-83.3131189272
 20
3.2688549754
 10
-83.3019584962
 20
3.2902271237
 10
-83.2937030749
 20
3.3138535633
 10
-83.2886016434
 20
3.3390217306
 10
-83.2868080587
 20
3.3649725641
  0
LWPOLYLINE
  5
399
100
AcDbEntity
  8
RACCORDO
100
AcDbPolyline
 62
250
  6
CONTINUOUS
 90
10
 70
0
 10
-82.8093920331
 20
3.2092706763
 10
-82.7833470481
 20
3.2115511896
 10
-82.7580933502
 20
3.2183194771
 10
-82.7343981861
 20
3.2293699078
 10
-82.7129814517
 20
3.2443667523
 10
-82.6944938207
 20
3.2628543833
 10
-82.6794969762
 20
3.2842711177
 10
-82.6684465455
 20
3.3079662818
 10
-82.661678258
 20
3.3332199797
 10
-82.6593977447
 20
3.3592649647
  0
LWPOLYLINE
  5
39A
100
AcDbEntity
  8
ASSI
100
AcDbPolyline
 62
250
  6
CONTINUOUS
 90
10
 70
0
 10
-82.8093920331
 20
3.2092706763
 10
-82.7833470481
 20
3.2115511896
 10
-82.7580933502
 20
3.2183194771
 10
-82.7343981861
 20
3.2293699078
 10
-82.7129814517
 20
3.2443667523
 10
-82.6944938207
 20
3.2628543833
 10
-82.6794969762
 20
3.2842711177
 10
-82.6684465455
 20
3.3079662818
 10
-82.661678258
 20
3.3332199797
 10
-82.6593977447
 20
3.3592649647
  0
LINE
  5
39B
100
AcDbEntity
  8
RACCORDO
100
AcDbLine
 62
7
  6
CONTINUOUS
 10
-97.086633666
 20
3.2149782756
 11
-98.696275166
 21
3.2079967814
  0
LINE
  5
39C
100
AcDbEntity
  8
ASSI
100
AcDbLine
 62
7
  6
CONTINUOUS
 10
-97.086633666
 20
3.2149782756
 11
-98.696275166
 21
3.2079967814
  0
LINE
  5
39D
100
AcDbEntity
  8
RACCORDO
100
AcDbLine
 62
7
  6
CONTINUOUS
 10
-82.7814897682
 20
3.1813684113
 11
-85.1192769343
 21
3.1813684113
  0
LINE
  5
39E
100
AcDbEntity
  8
ASSI
100
AcDbLine
 62
7
  6
CONTINUOUS
 10
-82.7814897682
 20
3.1813684113
 11
-85.1192769343
 21
3.1813684113
  0
LINE
  5
39F
100
AcDbEntity
  8
RACCORDO
100
AcDbLine
 62
7
  6
CONTINUOUS
 10
-87.1437140252
 20
3.1813684113
 11
-99.9315011913
 21
3.1813684113
  0
LINE
  5
3A0
100
AcDbEntity
  8
ASSI
100
AcDbLine
 62
7
  6
CONTINUOUS
 10
-87.1437140252
 20
3.1813684113
 11
-99.9315011913
 21
3.1813684113
  0
LINE
  5
3A1
100
AcDbEntity
  8
DRAFT
100
AcDbLine
 62
7
  6
CONTINUOUS
 10
-85.1314954797
 20
3.1874772188
 11
-87.1314954797
 21
3.1874772188
  0
LINE
  5
3A2
100
AcDbEntity
  8
ASSI
100
AcDbLine
 62
7
  6
CONTINUOUS
 10
-85.1314954797
 20
3.1874772188
 11
-87.1314954797
 21
3.1874772188
  0
LINE
  5
3A3
100
AcDbEntity
  8
DRAFT
100
AcDbLine
 62
7
  6
CONTINUOUS
 10
-87.1258274095
 20
3.206460569
 11
-85.13716355
 21
3.206460569
  0
LINE
  5
3A4
100
AcDbEntity
  8
ASSI
100
AcDbLine
 62
7
  6
CONTINUOUS
 10
-87.1258274095
 20
3.206460569
 11
-85.13716355
 21
3.206460569
  0
LINE
  5
3A5
100
AcDbEntity
  8
RACCORDO
100
AcDbLine
 62
7
  6
CONTINUOUS
 10
-98.696275166
 20
3.2079967814
 11
-99.9048728212
 21
3.2079967814
  0
LINE
  5
3A6
100
AcDbEntity
  8
ASSI
100
AcDbLine
 62
7
  6
CONTINUOUS
 10
-98.696275166
 20
3.2079967814
 11
-99.9048728212
 21
3.2079967814
  0
LINE
  5
3A7
100
AcDbEntity
  8
RACCORDO
100
AcDbLine
 62
7
  6
CONTINUOUS
 10
-97.086633666
 20
3.2149782756
 11
-87.1428641203
 21
3.2149782756
  0
LINE
  5
3A8
100
AcDbEntity
  8
ASSI
100
AcDbLine
 62
7
  6
CONTINUOUS
 10
-97.086633666
 20
3.2149782756
 11
-87.1428641203
 21
3.2149782756
  0
LINE
  5
3A9
100
AcDbEntity
  8
RACCORDO
100
AcDbLine
 62
7
  6
CONTINUOUS
 10
-85.1201268392
 20
3.2149782756
 11
-83.3982797825
 21
3.2149782756
  0
LINE
  5
3AA
100
AcDbEntity
  8
ASSI
100
AcDbLine
 62
7
  6
CONTINUOUS
 10
-85.1201268392
 20
3.2149782756
 11
-83.3982797825
 21
3.2149782756
  0
LINE
  5
3AB
100
AcDbEntity
  8
RACCORDO
100
AcDbLine
 62
250
  6
CONTINUOUS
 10
-98.7314954797
 20
3.3579910699
 11
-100.0548671097
 21
3.3579910699
  0
LINE
  5
3AC
100
AcDbEntity
  8
ASSI
100
AcDbLine
 62
250
  6
CONTINUOUS
 10
-98.7314954797
 20
3.3579910699
 11
-100.0548671097
 21
3.3579910699
  0
LINE
  5
3AD
100
AcDbEntity
  8
RACCORDO
100
AcDbLine
 62
250
  6
CONTINUOUS
 10
-82.8093920331
 20
3.2092706763
 11
-83.3982797825
 21
3.2149782756
  0
LINE
  5
3AE
100
AcDbEntity
  8
ASSI
100
AcDbLine
 62
250
  6
CONTINUOUS
 10
-82.8093920331
 20
3.2092706763
 11
-83.3982797825
 21
3.2149782756
  0
LWPOLYLINE
  5
3AF
100
AcDbEntity
  8
RACCORDO
100
AcDbPolyline
 62
250
  6
CONTINUOUS
 90
9
 70
0
 10
-102.5814954797
 20
4.5011820408
 10
-102.6075429954
 20
4.503452257
 10
-102.6327990018
 20
4.510193906
 10
-102.656496101
 20
4.5212021155
 10
-102.6779142901
 20
4.5361423927
 10
-102.6964027726
 20
4.5545607479
 10
-102.7113997631
 20
4.5758974589
 10
-102.722449633
 20
4.5995041597
 10
-102.7292167201
 20
4.6246635736
  0
LWPOLYLINE
  5
3B0
100
AcDbEntity
  8
ASSI
100
AcDbPolyline
 62
250
  6
CONTINUOUS
 90
9
 70
0
 10
-102.5814954797
 20
4.5011820408
 10
-102.6075429954
 20
4.503452257
 10
-102.6327990018
 20
4.510193906
 10
-102.656496101
 20
4.5212021155
 10
-102.6779142901
 20
4.5361423927
 10
-102.6964027726
 20
4.5545607479
 10
-102.7113997631
 20
4.5758974589
 10
-102.722449633
 20
4.5995041597
 10
-102.7292167201
 20
4.6246635736
  0
LWPOLYLINE
  5
3B1
100
AcDbEntity
  8
RACCORDO
100
AcDbPolyline
 62
250
  6
CONTINUOUS
 90
10
 70
0
 10
-102.2778809717
 20
4.5165180964
 10
-102.2518472125
 20
4.5142303975
 10
-102.226603712
 20
4.5074761958
 10
-102.2029167405
 20
4.4964605162
 10
-102.1815053196
 20
4.4815177412
 10
-102.1630193963
 20
4.4631014612
 10
-102.1480201135
 20
4.441770705
 10
-102.1369627768
 20
4.4181729711
 10
-102.1301830334
 20
4.3930245722
 10
-102.1278866832
 20
4.3670888917
  0
LWPOLYLINE
  5
3B2
100
AcDbEntity
  8
ASSI
100
AcDbPolyline
 62
250
  6
CONTINUOUS
 90
10
 70
0
 10
-102.2778809717
 20
4.5165180964
 10
-102.2518472125
 20
4.5142303975
 10
-102.226603712
 20
4.5074761958
 10
-102.2029167405
 20
4.4964605162
 10
-102.1815053196
 20
4.4815177412
 10
-102.1630193963
 20
4.4631014612
 10
-102.1480201135
 20
4.441770705
 10
-102.1369627768
 20
4.4181729711
 10
-102.1301830334
 20
4.3930245722
 10
-102.1278866832
 20
4.3670888917
  0
LWPOLYLINE
  5
3B3
100
AcDbEntity
  8
RACCORDO
100
AcDbPolyline
 62
7
  6
CONTINUOUS
 90
10
 70
0
 10
-102.5814954797
 20
4.4813684113
 10
-102.6086747464
 20
4.4841875453
 10
-102.6336383314
 20
4.4908907792
 10
-102.6563862347
 20
4.5014781128
 10
-102.677468414
 20
4.5164912805
 10
-102.6963349116
 20
4.535388548
 10
-102.7113358543
 20
4.5565447127
 10
-102.7219212844
 20
4.5794180403
 10
-102.7286411595
 20
4.6045502651
 10
-102.7314954797
 20
4.631941387
  0
LWPOLYLINE
  5
3B4
100
AcDbEntity
  8
ASSI
100
AcDbPolyline
 62
7
  6
CONTINUOUS
 90
10
 70
0
 10
-102.5814954797
 20
4.4813684113
 10
-102.6086747464
 20
4.4841875453
 10
-102.6336383314
 20
4.4908907792
 10
-102.6563862347
 20
4.5014781128
 10
-102.677468414
 20
4.5164912805
 10
-102.6963349116
 20
4.535388548
 10
-102.7113358543
 20
4.5565447127
 10
-102.7219212844
 20
4.5794180403
 10
-102.7286411595
 20
4.6045502651
 10
-102.7314954797
 20
4.631941387
  0
LWPOLYLINE
  5
3B5
100
AcDbEntity
  8
0
100
AcDbPolyline
 62
7
  6
CONTINUOUS
 90
10
 70
0
 10
-95.4352979977
 20
5.2658957903
 10
-95.4000964379
 20
5.2585135306
 10
-95.3684383201
 20
5.2472808021
 10
-95.3403236443
 20
5.2321976046
 10
-95.3154918081
 20
5.2128239066
 10
-95.2942034139
 20
5.1895997396
 10
-95.2772402688
 20
5.163845199
 10
-95.2648629753
 20
5.1360003165
 10
-95.2568109309
 20
5.1056250604
 10
-95.2530841357
 20
5.0727194306
  0
LWPOLYLINE
  5
3B6
100
AcDbEntity
  8
ASSI
100
AcDbPolyline
 62
7
  6
CONTINUOUS
 90
10
 70
0
 10
-95.4352979977
 20
5.2658957903
 10
-95.4000964379
 20
5.2585135306
 10
-95.3684383201
 20
5.2472808021
 10
-95.3403236443
 20
5.2321976046
 10
-95.3154918081
 20
5.2128239066
 10
-95.2942034139
 20
5.1895997396
 10
-95.2772402688
 20
5.163845199
 10
-95.2648629753
 20
5.1360003165
 10
-95.2568109309
 20
5.1056250604
 10
-95.2530841357
 20
5.0727194306
  0
LWPOLYLINE
  5
3B7
100
AcDbEntity
  8
0
100
AcDbPolyline
 62
7
  6
CONTINUOUS
 90
10
 70
0
 10
-95.2025245402
 20
5.4857367453
 10
-95.2771171645
 20
5.5074903009
 10
-95.355406934
 20
5.5239083703
 10
-95.4373938487
 20
5.5349909537
 10
-95.5233880955
 20
5.5402726649
 10
-95.6130794875
 20
5.5402188899
 10
-95.7055374632
 20
5.536225787
 10
-95.8004518354
 20
5.528758742
 10
-95.8981327912
 20
5.5173523689
 10
-95.9985803307
 20
5.5020066679
  0
LWPOLYLINE
  5
3B8
100
AcDbEntity
  8
ASSI
100
AcDbPolyline
 62
7
  6
CONTINUOUS
 90
10
 70
0
 10
-95.2025245402
 20
5.4857367453
 10
-95.2771171645
 20
5.5074903009
 10
-95.355406934
 20
5.5239083703
 10
-95.4373938487
 20
5.5349909537
 10
-95.5233880955
 20
5.5402726649
 10
-95.6130794875
 20
5.5402188899
 10
-95.7055374632
 20
5.536225787
 10
-95.8004518354
 20
5.528758742
 10
-95.8981327912
 20
5.5173523689
 10
-95.9985803307
 20
5.5020066679
  0
LINE
  5
3B9
100
AcDbEntity
  8
RACCORDO
100
AcDbLine
 62
7
  6
CONTINUOUS
 10
-87.1428641203
 20
3.2149782756
 11
-87.1258274095
 21
3.206460569
  0
LINE
  5
3BA
100
AcDbEntity
  8
ASSI
100
AcDbLine
 62
7
  6
CONTINUOUS
 10
-87.1428641203
 20
3.2149782756
 11
-87.1258274095
 21
3.206460569
  0
LINE
  5
3BB
100
AcDbEntity
  8
CURVE
100
AcDbLine
 62
7
  6
CONTINUOUS
 10
-90.6314955751
 20
6.4313684292
 11
-90.1314954797
 21
6.0313684113
  0
LINE
  5
3BC
100
AcDbEntity
  8
CURVE
100
AcDbLine
 62
7
  6
CONTINUOUS
 10
-90.7314951936
 20
6.0313684113
 11
-90.9314957658
 21
6.2313684203
  0
LINE
  5
3BD
100
AcDbEntity
  8
CURVE
100
AcDbLine
 62
7
  6
CONTINUOUS
 10
-89.7314956705
 20
6.2313684203
 11
-89.5314957658
 21
6.0313684113
  0
LINE
  5
3BE
100
AcDbEntity
  8
CURVE
100
AcDbLine
 62
7
  6
CONTINUOUS
 10
-88.4981622736
 20
4.2313684113
 11
-88.4981622736
 21
5.6313684113
  0
LINE
  5
3BF
100
AcDbEntity
  8
CURVE
100
AcDbLine
 62
7
  6
CONTINUOUS
 10
-88.3648288766
 20
6.0313684113
 11
-88.3648288766
 21
7.4313684113
  0
LINE
  5
3C0
100
AcDbEntity
  8
CURVE
100
AcDbLine
 62
7
  6
CONTINUOUS
 10
-87.7981622736
 20
5.4313684233
 11
-87.7981622736
 21
5.0313684471
  0
LINE
  5
3C1
100
AcDbEntity
  8
CURVE
100
AcDbLine
 62
7
  6
CONTINUOUS
 10
-87.731495289
 20
6.0313684113
 11
-87.731495289
 21
7.4313684113
  0
LINE
  5
3C2
100
AcDbEntity
  8
CURVE
100
AcDbLine
 62
7
  6
CONTINUOUS
 10
-89.4172096292
 20
4.9813684113
 11
-89.9172096292
 21
3.9813684113
  0
LINE
  5
3C3
100
AcDbEntity
  8
CURVE
100
AcDbLine
 62
7
  6
CONTINUOUS
 10
-88.3439954797
 20
8.1626184113
 11
-88.2564954797
 21
8.2501184113
  0
LINE
  5
3C4
100
AcDbEntity
  8
CURVE
100
AcDbLine
 62
7
  6
CONTINUOUS
 10
-90.2314957658
 20
6.2313684203
 11
-90.4314956705
 21
6.0313684113
  0
LINE
  5
3C5
100
AcDbEntity
  8
CURVE
100
AcDbLine
 62
7
  6
CONTINUOUS
 10
-88.4752454797
 20
8.0751184113
 11
-88.3439954797
 21
8.1626184113
  0
LWPOLYLINE
  5
3C6
100
AcDbEntity
  8
0
100
AcDbPolyline
 62
7
  6
CONTINUOUS
 90
5
 70
0
 10
-95.1592662227
 20
4.7075306776
 10
-95.1477032738
 20
4.7138195907
 10
-95.1362096213
 20
4.7209532398
 10
-95.1247852653
 20
4.7289316249
 10
-95.1134444025
 20
4.7378735068
  0
LWPOLYLINE
  5
3C7
100
AcDbEntity
  8
ASSI
100
AcDbPolyline
 62
7
  6
CONTINUOUS
 90
5
 70
0
 10
-95.1592662227
 20
4.7075306776
 10
-95.1477032738
 20
4.7138195907
 10
-95.1362096213
 20
4.7209532398
 10
-95.1247852653
 20
4.7289316249
 10
-95.1134444025
 20
4.7378735068
  0
LINE
  5
3C8
100
AcDbEntity
  8
CURVE
100
AcDbLine
 62
7
  6
CONTINUOUS
 10
-88.8252454797
 20
8.7751184113
 11
-89.0002454797
 21
8.6876184113
  0
LWPOLYLINE
  5
3C9
100
AcDbEntity
  8
RACCORDO
100
AcDbPolyline
 62
7
  6
CONTINUOUS
 90
3
 70
0
 10
-100.0548671097
 20
3.5305898599
 10
-100.0518367431
 20
3.5307314753
 10
-100.044993665
 20
3.5308614091
  0
LWPOLYLINE
  5
3CA
100
AcDbEntity
  8
ASSI
100
AcDbPolyline
 62
7
  6
CONTINUOUS
 90
3
 70
0
 10
-100.0548671097
 20
3.5305898599
 10
-100.0518367431
 20
3.5307314753
 10
-100.044993665
 20
3.5308614091
  0
LINE
  5
3CB
100
AcDbEntity
  8
RACCORDO
100
AcDbLine
 62
250
  6
CONTINUOUS
 10
-101.9204978946
 20
3.5313684113
 11
-101.2692074127
 21
3.5370522987
  0
LINE
  5
3CC
100
AcDbEntity
  8
ASSI
100
AcDbLine
 62
250
  6
CONTINUOUS
 10
-101.9204978946
 20
3.5313684113
 11
-101.2692074127
 21
3.5370522987
  0
LINE
  5
3CD
100
AcDbEntity
  8
RACCORDO
100
AcDbLine
 62
7
  6
CONTINUOUS
 10
-100.044993665
 20
3.5308614091
 11
-100.0193309807
 21
3.531089026
  0
LINE
  5
3CE
100
AcDbEntity
  8
ASSI
100
AcDbLine
 62
7
  6
CONTINUOUS
 10
-100.044993665
 20
3.5308614091
 11
-100.0193309807
 21
3.531089026
  0
LINE
  5
3CF
100
AcDbEntity
  8
RACCORDO
100
AcDbLine
 62
7
  6
CONTINUOUS
 10
-101.9538648144
 20
3.5311927836
 11
-101.9203233703
 21
3.5313684113
  0
LINE
  5
3D0
100
AcDbEntity
  8
ASSI
100
AcDbLine
 62
7
  6
CONTINUOUS
 10
-101.9538648144
 20
3.5311927836
 11
-101.9203233703
 21
3.5313684113
  0
LINE
  5
3D1
100
AcDbEntity
  8
RACCORDO
100
AcDbLine
 62
250
  6
CONTINUOUS
 10
-102.0599308977
 20
3.6811895133
 11
-101.3754294626
 21
3.6870463148
  0
LINE
  5
3D2
100
AcDbEntity
  8
ASSI
100
AcDbLine
 62
250
  6
CONTINUOUS
 10
-102.0599308977
 20
3.6811895133
 11
-101.3754294626
 21
3.6870463148
  0
LINE
  5
3D3
100
AcDbEntity
  8
RACCORDO
100
AcDbLine
 62
7
  6
CONTINUOUS
 10
-100.0193309807
 20
3.531089026
 11
-99.9319441575
 21
3.5313537815
  0
LINE
  5
3D4
100
AcDbEntity
  8
ASSI
100
AcDbLine
 62
7
  6
CONTINUOUS
 10
-100.0193309807
 20
3.531089026
 11
-99.9319441575
 21
3.5313537815
  0
LINE
  5
3D5
100
AcDbEntity
  8
RACCORDO
100
AcDbLine
 62
250
  6
CONTINUOUS
 10
-82.6593977447
 20
3.3592649647
 11
-82.6979203093
 21
3.3592649647
  0
LINE
  5
3D6
100
AcDbEntity
  8
ASSI
100
AcDbLine
 62
250
  6
CONTINUOUS
 10
-82.6593977447
 20
3.3592649647
 11
-82.6979203093
 21
3.3592649647
  0
LINE
  5
3D7
100
AcDbEntity
  8
RACCORDO
100
AcDbLine
 62
250
  6
CONTINUOUS
 10
-97.086633666
 20
3.3649725641
 11
-87.1454595317
 21
3.3649725641
  0
LINE
  5
3D8
100
AcDbEntity
  8
ASSI
100
AcDbLine
 62
250
  6
CONTINUOUS
 10
-97.086633666
 20
3.3649725641
 11
-87.1454595317
 21
3.3649725641
  0
LINE
  5
3D9
100
AcDbEntity
  8
RACCORDO
100
AcDbLine
 62
250
  6
CONTINUOUS
 10
-83.2868080587
 20
3.3649725641
 11
-85.1175314278
 21
3.3649725641
  0
LINE
  5
3DA
100
AcDbEntity
  8
ASSI
100
AcDbLine
 62
250
  6
CONTINUOUS
 10
-83.2868080587
 20
3.3649725641
 11
-85.1175314278
 21
3.3649725641
  0
LINE
  5
3DB
100
AcDbEntity
  8
RACCORDO
100
AcDbLine
 62
250
  6
CONTINUOUS
 10
-97.086633666
 20
3.3649725641
 11
-98.7314954797
 21
3.3581278669
  0
LINE
  5
3DC
100
AcDbEntity
  8
ASSI
100
AcDbLine
 62
250
  6
CONTINUOUS
 10
-97.086633666
 20
3.3649725641
 11
-98.7314954797
 21
3.3581278669
  0
LINE
  5
3DD
100
AcDbEntity
  8
RACCORDO
100
AcDbLine
 62
7
  6
CONTINUOUS
 10
-101.981496622
 20
3.5146130974
 11
-100.0814954797
 21
3.5146130974
  0
LINE
  5
3DE
100
AcDbEntity
  8
ASSI
100
AcDbLine
 62
7
  6
CONTINUOUS
 10
-101.981496622
 20
3.5146130974
 11
-100.0814954797
 21
3.5146130974
  0
LINE
  5
3DF
100
AcDbEntity
  8
RACCORDO
100
AcDbLine
 62
7
  6
CONTINUOUS
 10
-98.7314954797
 20
3.5313684113
 11
-101.9203233703
 21
3.5313684113
  0
LINE
  5
3E0
100
AcDbEntity
  8
ASSI
100
AcDbLine
 62
7
  6
CONTINUOUS
 10
-98.7314954797
 20
3.5313684113
 11
-101.9203233703
 21
3.5313684113
  0
LINE
  5
3E1
100
AcDbEntity
  8
RACCORDO
100
AcDbLine
 62
7
  6
CONTINUOUS
 10
-97.4210280247
 20
3.5370522987
 11
-101.2692074127
 21
3.5370522987
  0
LINE
  5
3E2
100
AcDbEntity
  8
ASSI
100
AcDbLine
 62
7
  6
CONTINUOUS
 10
-97.4210280247
 20
3.5370522987
 11
-101.2692074127
 21
3.5370522987
  0
LINE
  5
3E3
100
AcDbEntity
  8
DRAFT
100
AcDbLine
 62
7
  6
CONTINUOUS
 10
-87.1454595317
 20
3.5813684113
 11
-85.1175314278
 21
3.5813684113
  0
LINE
  5
3E4
100
AcDbEntity
  8
ASSI
100
AcDbLine
 62
7
  6
CONTINUOUS
 10
-87.1454595317
 20
3.5813684113
 11
-85.1175314278
 21
3.5813684113
  0
LINE
  5
3E5
100
AcDbEntity
  8
RACCORDO
100
AcDbLine
 62
250
  6
CONTINUOUS
 10
-102.0599308977
 20
3.6811898168
 11
-102.103859169
 21
3.6811898168
  0
LINE
  5
3E6
100
AcDbEntity
  8
ASSI
100
AcDbLine
 62
250
  6
CONTINUOUS
 10
-102.0599308977
 20
3.6811898168
 11
-102.103859169
 21
3.6811898168
  0
LINE
  5
3E7
100
AcDbEntity
  8
RACCORDO
100
AcDbLine
 62
250
  6
CONTINUOUS
 10
-97.086633666
 20
3.6870465872
 11
-101.3754294626
 21
3.6870465872
  0
LINE
  5
3E8
100
AcDbEntity
  8
ASSI
100
AcDbLine
 62
250
  6
CONTINUOUS
 10
-97.086633666
 20
3.6870465872
 11
-101.3754294626
 21
3.6870465872
  0
LINE
  5
3E9
100
AcDbEntity
  8
0
100
AcDbLine
 62
7
  6
CONTINUOUS
 10
-100.3790194797
 20
3.9747314113
 11
-100.0947534797
 21
3.9747314113
  0
LINE
  5
3EA
100
AcDbEntity
  8
ASSI
100
AcDbLine
 62
7
  6
CONTINUOUS
 10
-100.3790194797
 20
3.9747314113
 11
-100.0947534797
 21
3.9747314113
  0
LINE
  5
3EB
100
AcDbEntity
  8
0
100
AcDbLine
 62
7
  6
CONTINUOUS
 10
-99.4783154797
 20
3.9747314113
 11
-99.1557444797
 21
3.9747314113
  0
LINE
  5
3EC
100
AcDbEntity
  8
ASSI
100
AcDbLine
 62
7
  6
CONTINUOUS
 10
-99.4783154797
 20
3.9747314113
 11
-99.1557444797
 21
3.9747314113
  0
LINE
  5
3ED
100
AcDbEntity
  8
0
100
AcDbLine
 62
7
  6
CONTINUOUS
 10
-98.9820944797
 20
3.9747314113
 11
-98.6734994797
 21
3.9747314113
  0
LINE
  5
3EE
100
AcDbEntity
  8
ASSI
100
AcDbLine
 62
7
  6
CONTINUOUS
 10
-98.9820944797
 20
3.9747314113
 11
-98.6734994797
 21
3.9747314113
  0
LINE
  5
3EF
100
AcDbEntity
  8
0
100
AcDbLine
 62
7
  6
CONTINUOUS
 10
-98.2254734797
 20
3.9747314113
 11
-98.1802334797
 21
3.9747314113
  0
LINE
  5
3F0
100
AcDbEntity
  8
ASSI
100
AcDbLine
 62
7
  6
CONTINUOUS
 10
-98.2254734797
 20
3.9747314113
 11
-98.1802334797
 21
3.9747314113
  0
LINE
  5
3F1
100
AcDbEntity
  8
0
100
AcDbLine
 62
7
  6
CONTINUOUS
 10
-97.7304224797
 20
3.9747314113
 11
-97.4148624797
 21
3.9747314113
  0
LINE
  5
3F2
100
AcDbEntity
  8
ASSI
100
AcDbLine
 62
7
  6
CONTINUOUS
 10
-97.7304224797
 20
3.9747314113
 11
-97.4148624797
 21
3.9747314113
  0
LINE
  5
3F3
100
AcDbEntity
  8
0
100
AcDbLine
 62
7
  6
CONTINUOUS
 10
-97.3642104797
 20
3.9747314113
 11
-97.0451404797
 21
3.9747314113
  0
LINE
  5
3F4
100
AcDbEntity
  8
ASSI
100
AcDbLine
 62
7
  6
CONTINUOUS
 10
-97.3642104797
 20
3.9747314113
 11
-97.0451404797
 21
3.9747314113
  0
LINE
  5
3F5
100
AcDbEntity
  8
0
100
AcDbLine
 62
7
  6
CONTINUOUS
 10
-96.4332794797
 20
3.9747314113
 11
-96.0933024797
 21
3.9747314113
  0
LINE
  5
3F6
100
AcDbEntity
  8
ASSI
100
AcDbLine
 62
7
  6
CONTINUOUS
 10
-96.4332794797
 20
3.9747314113
 11
-96.0933024797
 21
3.9747314113
  0
LINE
  5
3F7
100
AcDbEntity
  8
0
100
AcDbLine
 62
7
  6
CONTINUOUS
 10
-95.9985803307
 20
3.9747314234
 11
-95.6773073016
 21
3.9747314234
  0
LINE
  5
3F8
100
AcDbEntity
  8
ASSI
100
AcDbLine
 62
7
  6
CONTINUOUS
 10
-95.9985803307
 20
3.9747314234
 11
-95.6773073016
 21
3.9747314234
  0
LINE
  5
3F9
100
AcDbEntity
  8
0
100
AcDbLine
 62
7
  6
CONTINUOUS
 10
-95.1833343751
 20
3.9747314234
 11
-94.8730586084
 21
3.9747314234
  0
LINE
  5
3FA
100
AcDbEntity
  8
ASSI
100
AcDbLine
 62
7
  6
CONTINUOUS
 10
-95.1833343751
 20
3.9747314234
 11
-94.8730586084
 21
3.9747314234
  0
LINE
  5
3FB
100
AcDbEntity
  8
CURVE
100
AcDbLine
 62
7
  6
CONTINUOUS
 10
-90.7029240171
 20
3.9813684113
 11
-90.2029240171
 21
3.9813684113
  0
LINE
  5
3FC
100
AcDbEntity
  8
CURVE
100
AcDbLine
 62
7
  6
CONTINUOUS
 10
-89.9172096292
 20
3.9813684113
 11
-89.4172096292
 21
3.9813684113
  0
LINE
  5
3FD
100
AcDbEntity
  8
0
100
AcDbLine
 62
7
  6
CONTINUOUS
 10
-96.9561304797
 20
4.2832334113
 11
-96.5168414797
 21
4.2832334113
  0
LINE
  5
3FE
100
AcDbEntity
  8
ASSI
100
AcDbLine
 62
7
  6
CONTINUOUS
 10
-96.9561304797
 20
4.2832334113
 11
-96.5168414797
 21
4.2832334113
  0
LINE
  5
3FF
100
AcDbEntity
  8
0
100
AcDbLine
 62
7
  6
CONTINUOUS
 10
-82.6463659274
 20
4.3813684113
 11
-68.7624638261
 21
4.3813684113
  0
LINE
  5
400
100
AcDbEntity
  8
RACCORDO
100
AcDbLine
 62
7
  6
CONTINUOUS
 10
-102.5814954797
 20
4.4813684113
 11
-102.281387102
 21
4.4813684113
  0
LINE
  5
401
100
AcDbEntity
  8
ASSI
100
AcDbLine
 62
7
  6
CONTINUOUS
 10
-102.5814954797
 20
4.4813684113
 11
-102.281387102
 21
4.4813684113
  0
LINE
  5
402
100
AcDbEntity
  8
0
100
AcDbLine
 62
7
  6
CONTINUOUS
 10
-96.5813084797
 20
4.5219524113
 11
-96.8901464797
 21
4.5219524113
  0
LINE
  5
403
100
AcDbEntity
  8
ASSI
100
AcDbLine
 62
7
  6
CONTINUOUS
 10
-96.5813084797
 20
4.5219524113
 11
-96.8901464797
 21
4.5219524113
  0
LINE
  5
404
100
AcDbEntity
  8
RACCORDO
100
AcDbLine
 62
250
  6
CONTINUOUS
 10
-82.6979203093
 20
3.3592649647
 11
-83.2868080587
 21
3.3649725641
  0
LINE
  5
405
100
AcDbEntity
  8
ASSI
100
AcDbLine
 62
250
  6
CONTINUOUS
 10
-82.6979203093
 20
3.3592649647
 11
-83.2868080587
 21
3.3649725641
  0
LWPOLYLINE
  5
406
100
AcDbEntity
  8
0
100
AcDbPolyline
 62
7
  6
CONTINUOUS
 90
10
 70
0
 10
-95.5043524624
 20
4.5794881531
 10
-95.4797282445
 20
4.5778194669
 10
-95.4560233661
 20
4.5726357381
 10
-95.4332378272
 20
4.5639369668
 10
-95.4110547389
 20
4.5515232416
 10
-95.38979099
 20
4.5355944738
 10
-95.3703972474
 20
4.5167503975
 10
-95.3531903999
 20
4.4951909241
 10
-95.3378535587
 20
4.4707161423
 10
-95.3243867236
 20
4.4433260519
  0
LWPOLYLINE
  5
407
100
AcDbEntity
  8
ASSI
100
AcDbPolyline
 62
7
  6
CONTINUOUS
 90
10
 70
0
 10
-95.5043524624
 20
4.5794881531
 10
-95.4797282445
 20
4.5778194669
 10
-95.4560233661
 20
4.5726357381
 10
-95.4332378272
 20
4.5639369668
 10
-95.4110547389
 20
4.5515232416
 10
-95.38979099
 20
4.5355944738
 10
-95.3703972474
 20
4.5167503975
 10
-95.3531903999
 20
4.4951909241
 10
-95.3378535587
 20
4.4707161423
 10
-95.3243867236
 20
4.4433260519
  0
LWPOLYLINE
  5
408
100
AcDbEntity
  8
RACCORDO
100
AcDbPolyline
 62
250
  6
CONTINUOUS
 90
31
 70
0
 10
-102.2778809717
 20
8.9462187263
 10
-102.2728020652
 20
8.9446788374
 10
-102.2679646376
 20
8.9426104077
 10
-102.2633535183
 20
8.9400797812
 10
-102.2589568401
 20
8.9371604937
 10
-102.2547671617
 20
8.9339093004
 10
-102.2507792149
 20
8.930352289
 10
-102.2469944948
 20
8.9265356737
 10
-102.2434042045
 20
8.9225040827
 10
-102.2399865275
 20
8.9182566323
 10
-102.2367390015
 20
8.9138229776
 10
-102.2336612386
 20
8.909235342
 10
-102.2307314274
 20
8.9044778576
 10
-102.2279438162
 20
8.8995679213
 10
-102.2253016876
 20
8.8945300271
 10
-102.2227931821
 20
8.8893462094
 10
-102.2204135147
 20
8.8840341348
 10
-102.2181642891
 20
8.87860681
 10
-102.2160389055
 20
8.8730297965
 10
-102.2140279016
 20
8.8673192938
 10
-102.2121340185
 20
8.8614807757
 10
-102.2103622466
 20
8.8554545164
 10
-102.2086928905
 20
8.8492636192
 10
-102.2071316014
 20
8.8429003917
 10
-102.2057091481
 20
8.8362486746
 10
-102.2043821807
 20
8.8293199482
 10
-102.2031620155
 20
8.8221143127
 10
-102.2021415357
 20
8.814490069
 10
-102.2013263701
 20
8.8064053655
 10
-102.200647334
 20
8.7979251535
 10
-102.2000719217
 20
8.7890708914
  0
LWPOLYLINE
  5
409
100
AcDbEntity
  8
ASSI
100
AcDbPolyline
 62
250
  6
CONTINUOUS
 90
31
 70
0
 10
-102.2778809717
 20
8.9462187263
 10
-102.2728020652
 20
8.9446788374
 10
-102.2679646376
 20
8.9426104077
 10
-102.2633535183
 20
8.9400797812
 10
-102.2589568401
 20
8.9371604937
 10
-102.2547671617
 20
8.9339093004
 10
-102.2507792149
 20
8.930352289
 10
-102.2469944948
 20
8.9265356737
 10
-102.2434042045
 20
8.9225040827
 10
-102.2399865275
 20
8.9182566323
 10
-102.2367390015
 20
8.9138229776
 10
-102.2336612386
 20
8.909235342
 10
-102.2307314274
 20
8.9044778576
 10
-102.2279438162
 20
8.8995679213
 10
-102.2253016876
 20
8.8945300271
 10
-102.2227931821
 20
8.8893462094
 10
-102.2204135147
 20
8.8840341348
 10
-102.2181642891
 20
8.87860681
 10
-102.2160389055
 20
8.8730297965
 10
-102.2140279016
 20
8.8673192938
 10
-102.2121340185
 20
8.8614807757
 10
-102.2103622466
 20
8.8554545164
 10
-102.2086928905
 20
8.8492636192
 10
-102.2071316014
 20
8.8429003917
 10
-102.2057091481
 20
8.8362486746
 10
-102.2043821807
 20
8.8293199482
 10
-102.2031620155
 20
8.8221143127
 10
-102.2021415357
 20
8.814490069
 10
-102.2013263701
 20
8.8064053655
 10
-102.200647334
 20
8.7979251535
 10
-102.2000719217
 20
8.7890708914
  0
LINE
  5
40A
100
AcDbEntity
  8
DRAFT
100
AcDbLine
 62
7
  6
CONTINUOUS
 10
-85.1192769343
 20
3.1813684113
 11
-85.1314954797
 21
3.1874772188
  0
LINE
  5
40B
100
AcDbEntity
  8
ASSI
100
AcDbLine
 62
7
  6
CONTINUOUS
 10
-85.1192769343
 20
3.1813684113
 11
-85.1314954797
 21
3.1874772188
  0
LINE
  5
40C
100
AcDbEntity
  8
CURVE
100
AcDbLine
 62
7
  6
CONTINUOUS
 10
-90.4314956705
 20
7.4313684113
 11
-90.2314957658
 21
7.2313684233
  0
LINE
  5
40D
100
AcDbEntity
  8
CURVE
100
AcDbLine
 62
7
  6
CONTINUOUS
 10
-87.9981622616
 20
5.6313684113
 11
-87.7981622736
 21
5.4313684233
  0
LINE
  5
40E
100
AcDbEntity
  8
CURVE
100
AcDbLine
 62
7
  6
CONTINUOUS
 10
-88.1981622706
 20
4.8313684173
 11
-87.7981622736
 21
4.2313684113
  0
LINE
  5
40F
100
AcDbEntity
  8
CURVE
100
AcDbLine
 62
7
  6
CONTINUOUS
 10
-89.1314954797
 20
8.3376184113
 11
-89.0877454797
 21
8.2063684113
  0
LINE
  5
410
100
AcDbEntity
  8
DRAFT
100
AcDbLine
 62
7
  6
CONTINUOUS
 10
-87.1258274095
 20
3.206460569
 11
-87.1454595317
 21
3.5813684113
  0
LINE
  5
411
100
AcDbEntity
  8
ASSI
100
AcDbLine
 62
7
  6
CONTINUOUS
 10
-87.1258274095
 20
3.206460569
 11
-87.1454595317
 21
3.5813684113
  0
LWPOLYLINE
  5
412
100
AcDbEntity
  8
RACCORDO
100
AcDbPolyline
 62
7
  6
CONTINUOUS
 90
6
 70
0
 10
-87.1448538556
 20
3.2693378541
 10
-87.1445282281
 20
3.2505175228
 10
-87.1441636472
 20
3.2355098269
 10
-87.1437694249
 20
3.2248533411
 10
-87.1433362493
 20
3.2180094907
 10
-87.1428641203
 20
3.2149782756
  0
LWPOLYLINE
  5
413
100
AcDbEntity
  8
ASSI
100
AcDbPolyline
 62
7
  6
CONTINUOUS
 90
6
 70
0
 10
-87.1448538556
 20
3.2693378541
 10
-87.1445282281
 20
3.2505175228
 10
-87.1441636472
 20
3.2355098269
 10
-87.1437694249
 20
3.2248533411
 10
-87.1433362493
 20
3.2180094907
 10
-87.1428641203
 20
3.2149782756
  0
LINE
  5
414
100
AcDbEntity
  8
RACCORDO
100
AcDbLine
 62
7
  6
CONTINUOUS
 10
-87.1452951292
 20
3.3130306747
 11
-87.1448538556
 21
3.2693378541
  0
LINE
  5
415
100
AcDbEntity
  8
ASSI
100
AcDbLine
 62
7
  6
CONTINUOUS
 10
-87.1452951292
 20
3.3130306747
 11
-87.1448538556
 21
3.2693378541
  0
LINE
  5
416
100
AcDbEntity
  8
RACCORDO
100
AcDbLine
 62
7
  6
CONTINUOUS
 10
-87.1454595317
 20
3.3649725641
 11
-87.1452951292
 21
3.3130306747
  0
LINE
  5
417
100
AcDbEntity
  8
ASSI
100
AcDbLine
 62
7
  6
CONTINUOUS
 10
-87.1454595317
 20
3.3649725641
 11
-87.1452951292
 21
3.3130306747
  0
LINE
  5
418
100
AcDbEntity
  8
RACCORDO
100
AcDbLine
 62
7
  6
CONTINUOUS
 10
-87.1454595317
 20
3.3649725641
 11
-87.1454595317
 21
3.5813684113
  0
LINE
  5
419
100
AcDbEntity
  8
ASSI
100
AcDbLine
 62
7
  6
CONTINUOUS
 10
-87.1454595317
 20
3.3649725641
 11
-87.1454595317
 21
3.5813684113
  0
LINE
  5
41A
100
AcDbEntity
  8
CURVE
100
AcDbLine
 62
7
  6
CONTINUOUS
 10
-87.0981622736
 20
4.4313684203
 11
-87.0981622736
 21
5.0313684471
  0
LINE
  5
41B
100
AcDbEntity
  8
CURVE
100
AcDbLine
 62
7
  6
CONTINUOUS
 10
-87.031495289
 20
7.2313684233
 11
-87.031495289
 21
6.2313684203
  0
LINE
  5
41C
100
AcDbEntity
  8
CURVE
100
AcDbLine
 62
7
  6
CONTINUOUS
 10
-89.2314949075
 20
6.0313684113
 11
-89.0314956705
 21
6.2313684203
  0
LWPOLYLINE
  5
41D
100
AcDbEntity
  8
RACCORDO
100
AcDbPolyline
 62
250
  6
CONTINUOUS
 90
7
 70
0
 10
-82.3383111015
 20
6.1313684113
 10
-82.3297409432
 20
6.1325837911
 10
-82.3214311847
 20
6.1361930017
 10
-82.313634314
 20
6.142086379
 10
-82.306587235
 20
6.1500848559
 10
-82.3005040696
 20
6.1599454026
 10
-82.2955696517
 20
6.1713684113
  0
LWPOLYLINE
  5
41E
100
AcDbEntity
  8
ASSI
100
AcDbPolyline
 62
250
  6
CONTINUOUS
 90
7
 70
0
 10
-82.3383111015
 20
6.1313684113
 10
-82.3297409432
 20
6.1325837911
 10
-82.3214311847
 20
6.1361930017
 10
-82.313634314
 20
6.142086379
 10
-82.306587235
 20
6.1500848559
 10
-82.3005040696
 20
6.1599454026
 10
-82.2955696517
 20
6.1713684113
  0
LINE
  5
41F
100
AcDbEntity
  8
RACCORDO
100
AcDbLine
 62
250
  6
CONTINUOUS
 10
-102.2778809717
 20
4.5165180964
 11
-102.5814954797
 21
4.5011820408
  0
LINE
  5
420
100
AcDbEntity
  8
ASSI
100
AcDbLine
 62
250
  6
CONTINUOUS
 10
-102.2778809717
 20
4.5165180964
 11
-102.5814954797
 21
4.5011820408
  0
LINE
  5
421
100
AcDbEntity
  8
RACCORDO
100
AcDbLine
 62
250
  6
CONTINUOUS
 10
-102.2000719217
 20
4.6736659313
 11
-102.6564954797
 21
4.6506112455
  0
LINE
  5
422
100
AcDbEntity
  8
ASSI
100
AcDbLine
 62
250
  6
CONTINUOUS
 10
-102.2000719217
 20
4.6736659313
 11
-102.6564954797
 21
4.6506112455
  0
LINE
  5
423
100
AcDbEntity
  8
RACCORDO
100
AcDbLine
 62
250
  6
CONTINUOUS
 10
-82.6979203093
 20
5.0813978349
 11
-83.2755932358
 21
5.0757989315
  0
LINE
  5
424
100
AcDbEntity
  8
ASSI
100
AcDbLine
 62
250
  6
CONTINUOUS
 10
-82.6979203093
 20
5.0813978349
 11
-83.2755932358
 21
5.0757989315
  0
LINE
  5
425
100
AcDbEntity
  8
RACCORDO
100
AcDbLine
 62
250
  6
CONTINUOUS
 10
-82.8118385426
 20
5.2313684113
 11
-83.2356026731
 21
5.2272612179
  0
LINE
  5
426
100
AcDbEntity
  8
ASSI
100
AcDbLine
 62
250
  6
CONTINUOUS
 10
-82.8118385426
 20
5.2313684113
 11
-83.2356026731
 21
5.2272612179
  0
LINE
  5
427
100
AcDbEntity
  8
0
100
AcDbLine
 62
7
  6
CONTINUOUS
 10
-95.6773073016
 20
4.5794881531
 11
-95.5043524624
 21
4.5794881531
  0
LINE
  5
428
100
AcDbEntity
  8
ASSI
100
AcDbLine
 62
7
  6
CONTINUOUS
 10
-95.6773073016
 20
4.5794881531
 11
-95.5043524624
 21
4.5794881531
  0
LINE
  5
429
100
AcDbEntity
  8
RACCORDO
100
AcDbLine
 62
250
  6
CONTINUOUS
 10
-102.7314954797
 20
4.6506112455
 11
-102.6564954797
 21
4.6506112455
  0
LINE
  5
42A
100
AcDbEntity
  8
ASSI
100
AcDbLine
 62
250
  6
CONTINUOUS
 10
-102.7314954797
 20
4.6506112455
 11
-102.6564954797
 21
4.6506112455
  0
LINE
  5
42B
100
AcDbEntity
  8
RACCORDO
100
AcDbLine
 62
250
  6
CONTINUOUS
 10
-102.1250776333
 20
4.6736659313
 11
-102.2000719217
 21
4.6736659313
  0
LINE
  5
42C
100
AcDbEntity
  8
ASSI
100
AcDbLine
 62
250
  6
CONTINUOUS
 10
-102.1250776333
 20
4.6736659313
 11
-102.2000719217
 21
4.6736659313
  0
LINE
  5
42D
100
AcDbEntity
  8
CURVE
100
AcDbLine
 62
7
  6
CONTINUOUS
 10
-87.3981622974
 20
4.7313684233
 11
-86.7981622497
 21
4.7313684233
  0
LINE
  5
42E
100
AcDbEntity
  8
CURVE
100
AcDbLine
 62
7
  6
CONTINUOUS
 10
-84.2314955274
 20
4.7313684233
 11
-83.6314954797
 21
4.7313684233
  0
LINE
  5
42F
100
AcDbEntity
  8
CURVE
100
AcDbLine
 62
7
  6
CONTINUOUS
 10
-84.8314955751
 20
4.8313684173
 11
-85.3314956705
 21
4.8313684173
  0
LINE
  5
430
100
AcDbEntity
  8
CURVE
100
AcDbLine
 62
7
  6
CONTINUOUS
 10
-87.9981622616
 20
4.8313684173
 11
-88.4981622736
 21
4.8313684173
  0
LINE
  5
431
100
AcDbEntity
  8
0
100
AcDbLine
 62
7
  6
CONTINUOUS
 10
-95.5036571666
 20
4.8325758373
 11
-95.6880032692
 21
4.8325758373
  0
LINE
  5
432
100
AcDbEntity
  8
ASSI
100
AcDbLine
 62
7
  6
CONTINUOUS
 10
-95.5036571666
 20
4.8325758373
 11
-95.6880032692
 21
4.8325758373
  0
LINE
  5
433
100
AcDbEntity
  8
CURVE
100
AcDbLine
 62
7
  6
CONTINUOUS
 10
-90.7029240171
 20
4.9813684113
 11
-90.2029240171
 21
4.9813684113
  0
LINE
  5
434
100
AcDbEntity
  8
CURVE
100
AcDbLine
 62
7
  6
CONTINUOUS
 10
-89.9172096292
 20
4.9813684113
 11
-89.4172096292
 21
4.9813684113
  0
LINE
  5
435
100
AcDbEntity
  8
RACCORDO
100
AcDbLine
 62
250
  6
CONTINUOUS
 10
-82.6979203093
 20
5.0813978349
 11
-82.6593977447
 21
5.0813978349
  0
LINE
  5
436
100
AcDbEntity
  8
ASSI
100
AcDbLine
 62
250
  6
CONTINUOUS
 10
-82.6979203093
 20
5.0813978349
 11
-82.6593977447
 21
5.0813978349
  0
LINE
  5
437
100
AcDbEntity
  8
RACCORDO
100
AcDbLine
 62
7
  6
CONTINUOUS
 10
-83.2314954797
 20
5.2313684113
 11
-82.8081181383
 21
5.2313684113
  0
LINE
  5
438
100
AcDbEntity
  8
ASSI
100
AcDbLine
 62
7
  6
CONTINUOUS
 10
-83.2314954797
 20
5.2313684113
 11
-82.8081181383
 21
5.2313684113
  0
LINE
  5
439
100
AcDbEntity
  8
0
100
AcDbLine
 62
7
  6
CONTINUOUS
 10
-96.5674484797
 20
5.5200614113
 11
-96.8794974797
 21
5.5200614113
  0
LINE
  5
43A
100
AcDbEntity
  8
ASSI
100
AcDbLine
 62
7
  6
CONTINUOUS
 10
-96.5674484797
 20
5.5200614113
 11
-96.8794974797
 21
5.5200614113
  0
LINE
  5
43B
100
AcDbEntity
  8
0
100
AcDbLine
 62
7
  6
CONTINUOUS
 10
-97.5593694797
 20
5.5200614113
 11
-97.8785204797
 21
5.5200614113
  0
LINE
  5
43C
100
AcDbEntity
  8
ASSI
100
AcDbLine
 62
7
  6
CONTINUOUS
 10
-97.5593694797
 20
5.5200614113
 11
-97.8785204797
 21
5.5200614113
  0
LINE
  5
43D
100
AcDbEntity
  8
0
100
AcDbLine
 62
7
  6
CONTINUOUS
 10
-98.5202564797
 20
5.5200614113
 11
-98.8425604797
 21
5.5200614113
  0
LINE
  5
43E
100
AcDbEntity
  8
ASSI
100
AcDbLine
 62
7
  6
CONTINUOUS
 10
-98.5202564797
 20
5.5200614113
 11
-98.8425604797
 21
5.5200614113
  0
LINE
  5
43F
100
AcDbEntity
  8
0
100
AcDbLine
 62
7
  6
CONTINUOUS
 10
-99.5980224797
 20
5.5200614113
 11
-99.9203734797
 21
5.5200614113
  0
LINE
  5
440
100
AcDbEntity
  8
ASSI
100
AcDbLine
 62
7
  6
CONTINUOUS
 10
-99.5980224797
 20
5.5200614113
 11
-99.9203734797
 21
5.5200614113
  0
LINE
  5
441
100
AcDbEntity
  8
0
100
AcDbLine
 62
7
  6
CONTINUOUS
 10
-100.5185074797
 20
5.5200614113
 11
-100.8689194797
 21
5.5200614113
  0
LINE
  5
442
100
AcDbEntity
  8
ASSI
100
AcDbLine
 62
7
  6
CONTINUOUS
 10
-100.5185074797
 20
5.5200614113
 11
-100.8689194797
 21
5.5200614113
  0
LINE
  5
443
100
AcDbEntity
  8
0
100
AcDbLine
 62
7
  6
CONTINUOUS
 10
-99.1557444797
 20
5.5201534113
 11
-99.4783154797
 21
5.5201534113
  0
LINE
  5
444
100
AcDbEntity
  8
ASSI
100
AcDbLine
 62
7
  6
CONTINUOUS
 10
-99.1557444797
 20
5.5201534113
 11
-99.4783154797
 21
5.5201534113
  0
LINE
  5
445
100
AcDbEntity
  8
0
100
AcDbLine
 62
7
  6
CONTINUOUS
 10
-82.6463659274
 20
5.5813684113
 11
-69.0954583418
 21
5.5813684113
  0
LINE
  5
446
100
AcDbEntity
  8
CURVE
100
AcDbLine
 62
7
  6
CONTINUOUS
 10
-88.4981622736
 20
5.6313684113
 11
-87.9981622616
 21
5.6313684113
  0
LINE
  5
447
100
AcDbEntity
  8
CURVE
100
AcDbLine
 62
7
  6
CONTINUOUS
 10
-85.3314956705
 20
5.6313684113
 11
-84.8314955751
 21
5.6313684113
  0
LWPOLYLINE
  5
448
100
AcDbEntity
  8
RACCORDO
100
AcDbPolyline
 62
250
  6
CONTINUOUS
 90
6
 70
0
 10
-82.8093920331
 20
5.2313921233
 10
-82.7901060711
 20
5.2289787089
 10
-82.7714017657
 20
5.2221143171
 10
-82.7538432308
 20
5.211005975
 10
-82.7379600245
 20
5.1959887057
 10
-82.7242311778
 20
5.1775154236
  0
LWPOLYLINE
  5
449
100
AcDbEntity
  8
ASSI
100
AcDbPolyline
 62
250
  6
CONTINUOUS
 90
6
 70
0
 10
-82.8093920331
 20
5.2313921233
 10
-82.7901060711
 20
5.2289787089
 10
-82.7714017657
 20
5.2221143171
 10
-82.7538432308
 20
5.211005975
 10
-82.7379600245
 20
5.1959887057
 10
-82.7242311778
 20
5.1775154236
  0
LWPOLYLINE
  5
44A
100
AcDbEntity
  8
RACCORDO
100
AcDbPolyline
 62
7
  6
CONTINUOUS
 90
3
 70
0
 10
-82.7802910397
 20
5.2285472753
 10
-82.7943953755
 20
5.2306313597
 10
-82.8094038891
 20
5.2313802673
  0
LWPOLYLINE
  5
44B
100
AcDbEntity
  8
ASSI
100
AcDbPolyline
 62
7
  6
CONTINUOUS
 90
3
 70
0
 10
-82.7802910397
 20
5.2285472753
 10
-82.7943953755
 20
5.2306313597
 10
-82.8094038891
 20
5.2313802673
  0
LINE
  5
44C
100
AcDbEntity
  8
RACCORDO
100
AcDbLine
 62
7
  6
CONTINUOUS
 10
-97.1201268392
 20
10.247758547
 11
-97.1379851454
 21
10.2566870201
  0
LINE
  5
44D
100
AcDbEntity
  8
ASSI
100
AcDbLine
 62
7
  6
CONTINUOUS
 10
-97.1201268392
 20
10.247758547
 11
-97.1379851454
 21
10.2566870201
  0
LINE
  5
44E
100
AcDbEntity
  8
CURVE
100
AcDbLine
 62
7
  6
CONTINUOUS
 10
-89.0877454797
 20
8.2063684113
 11
-89.0002454797
 21
8.1188684113
  0
LINE
  5
44F
100
AcDbEntity
  8
CURVE
100
AcDbLine
 62
7
  6
CONTINUOUS
 10
-89.0002454797
 20
9.0376184113
 11
-88.9564954797
 21
8.9501184113
  0
LWPOLYLINE
  5
450
100
AcDbEntity
  8
0
100
AcDbPolyline
 62
7
  6
CONTINUOUS
 90
10
 70
0
 43
0.3500000006
 10
-91.3957770081
 20
15.7106226196
 10
-91.3243548889
 20
15.5677647858
 10
-91.3243548889
 20
15.4963358688
 10
-91.4672081909
 20
15.3534803009
 10
-91.5386393738
 20
15.3534803009
 10
-91.6100705566
 20
15.4249069519
 10
-91.6100705566
 20
15.4963358688
 10
-91.5386393738
 20
15.6391937027
 10
-91.4672081909
 20
15.7106226196
 10
-91.3957770081
 20
15.7106226196
  0
LINE
  5
451
100
AcDbEntity
  8
DRAFT
100
AcDbLine
 62
7
  6
CONTINUOUS
 10
-85.63711716
 20
6.9972151954
 11
-85.6594320953
 21
7.3313684113
  0
LINE
  5
452
100
AcDbEntity
  8
ASSI
100
AcDbLine
 62
7
  6
CONTINUOUS
 10
-85.63711716
 20
6.9972151954
 11
-85.6594320953
 21
7.3313684113
  0
LINE
  5
453
100
AcDbEntity
  8
DRAFT
100
AcDbLine
 62
7
  6
CONTINUOUS
 10
-85.6594320953
 20
7.3313684113
 11
-85.6594320953
 21
6.1313684113
  0
LINE
  5
454
100
AcDbEntity
  8
ASSI
100
AcDbLine
 62
7
  6
CONTINUOUS
 10
-85.6594320953
 20
7.3313684113
 11
-85.6594320953
 21
6.1313684113
  0
LINE
  5
455
100
AcDbEntity
  8
CURVE
100
AcDbLine
 62
7
  6
CONTINUOUS
 10
-85.3314956705
 20
4.2313684113
 11
-85.3314956705
 21
5.6313684113
  0
LWPOLYLINE
  5
456
100
AcDbEntity
  8
DRAFT
100
AcDbPolyline
 62
7
  6
CONTINUOUS
 90
16
 70
0
 10
-85.63711716
 20
6.4655216273
 10
-85.6357787104
 20
6.4899323653
 10
-85.6346170164
 20
6.5180252392
 10
-85.6336320779
 20
6.5498002489
 10
-85.6328126549
 20
6.5860817069
 10
-85.6321699874
 20
6.6260453007
 10
-85.6317377957
 20
6.6672180935
 10
-85.6315273199
 20
6.7095819057
 10
-85.6315273199
 20
6.753154917
 10
-85.6317377957
 20
6.7955187292
 10
-85.6321699874
 20
6.836691522
 10
-85.6328126549
 20
6.8766551158
 10
-85.6336320779
 20
6.9129365738
 10
-85.6346170164
 20
6.9447115835
 10
-85.6357787104
 20
6.9728044574
 10
-85.63711716
 20
6.9972151954
  0
LWPOLYLINE
  5
457
100
AcDbEntity
  8
ASSI
100
AcDbPolyline
 62
7
  6
CONTINUOUS
 90
16
 70
0
 10
-85.63711716
 20
6.4655216273
 10
-85.6357787104
 20
6.4899323653
 10
-85.6346170164
 20
6.5180252392
 10
-85.6336320779
 20
6.5498002489
 10
-85.6328126549
 20
6.5860817069
 10
-85.6321699874
 20
6.6260453007
 10
-85.6317377957
 20
6.6672180935
 10
-85.6315273199
 20
6.7095819057
 10
-85.6315273199
 20
6.753154917
 10
-85.6317377957
 20
6.7955187292
 10
-85.6321699874
 20
6.836691522
 10
-85.6328126549
 20
6.8766551158
 10
-85.6336320779
 20
6.9129365738
 10
-85.6346170164
 20
6.9447115835
 10
-85.6357787104
 20
6.9728044574
 10
-85.63711716
 20
6.9972151954
  0
LINE
  5
458
100
AcDbEntity
  8
DRAFT
100
AcDbLine
 62
7
  6
CONTINUOUS
 10
-85.6594320953
 20
6.1313684113
 11
-85.63711716
 21
6.4655216273
  0
LINE
  5
459
100
AcDbEntity
  8
ASSI
100
AcDbLine
 62
7
  6
CONTINUOUS
 10
-85.6594320953
 20
6.1313684113
 11
-85.63711716
 21
6.4655216273
  0
LINE
  5
45A
100
AcDbEntity
  8
CURVE
100
AcDbLine
 62
7
  6
CONTINUOUS
 10
-87.031495289
 20
6.2313684203
 11
-87.2314958612
 21
6.0313684113
  0
LINE
  5
45B
100
AcDbEntity
  8
RACCORDO
100
AcDbLine
 62
250
  6
CONTINUOUS
 10
-82.7814897682
 20
10.2813684113
 11
-82.8093920331
 21
10.2534661464
  0
LINE
  5
45C
100
AcDbEntity
  8
ASSI
100
AcDbLine
 62
250
  6
CONTINUOUS
 10
-82.7814897682
 20
10.2813684113
 11
-82.8093920331
 21
10.2534661464
  0
LINE
  5
45D
100
AcDbEntity
  8
CURVE
100
AcDbLine
 62
7
  6
CONTINUOUS
 10
-87.7981622736
 20
5.0313684471
 11
-87.9981622616
 21
4.8313684173
  0
LINE
  5
45E
100
AcDbEntity
  8
RACCORDO
100
AcDbLine
 62
250
  6
CONTINUOUS
 10
-82.6314954797
 20
10.1313741229
 11
-82.6593977447
 21
10.1034718579
  0
LINE
  5
45F
100
AcDbEntity
  8
ASSI
100
AcDbLine
 62
250
  6
CONTINUOUS
 10
-82.6314954797
 20
10.1313741229
 11
-82.6593977447
 21
10.1034718579
  0
LWPOLYLINE
  5
460
100
AcDbEntity
  8
RACCORDO
100
AcDbPolyline
 62
250
  6
CONTINUOUS
 90
5
 70
0
 10
-82.6408504642
 20
6.1313684113
 10
-82.6322803059
 20
6.1325837911
 10
-82.6239705474
 20
6.1361930017
 10
-82.6161736767
 20
6.142086379
 10
-82.6091265977
 20
6.1500848558
  0
LWPOLYLINE
  5
461
100
AcDbEntity
  8
ASSI
100
AcDbPolyline
 62
250
  6
CONTINUOUS
 90
5
 70
0
 10
-82.6408504642
 20
6.1313684113
 10
-82.6322803059
 20
6.1325837911
 10
-82.6239705474
 20
6.1361930017
 10
-82.6161736767
 20
6.142086379
 10
-82.6091265977
 20
6.1500848558
  0
LWPOLYLINE
  5
462
100
AcDbEntity
  8
RACCORDO
100
AcDbPolyline
 62
7
  6
CONTINUOUS
 90
10
 70
0
 10
-83.3982797825
 20
6.1313684113
 10
-83.3846037031
 20
6.1316856492
 10
-83.3711731084
 20
6.132646551
 10
-83.3579879984
 20
6.1342511169
 10
-83.3449455752
 20
6.1365021022
 10
-83.3321486366
 20
6.1393967515
 10
-83.3199055764
 20
6.1429267985
 10
-83.3083191922
 20
6.1470894877
 10
-83.2972866863
 20
6.1518875746
 10
-83.2868080587
 20
6.1573210591
  0
LWPOLYLINE
  5
463
100
AcDbEntity
  8
ASSI
100
AcDbPolyline
 62
7
  6
CONTINUOUS
 90
10
 70
0
 10
-83.3982797825
 20
6.1313684113
 10
-83.3846037031
 20
6.1316856492
 10
-83.3711731084
 20
6.132646551
 10
-83.3579879984
 20
6.1342511169
 10
-83.3449455752
 20
6.1365021022
 10
-83.3321486366
 20
6.1393967515
 10
-83.3199055764
 20
6.1429267985
 10
-83.3083191922
 20
6.1470894877
 10
-83.2972866863
 20
6.1518875746
 10
-83.2868080587
 20
6.1573210591
  0
LINE
  5
464
100
AcDbEntity
  8
CURVE
100
AcDbLine
 62
7
  6
CONTINUOUS
 10
-98.4314955274
 20
6.0313684113
 11
-97.931495432
 21
6.0313684113
  0
LINE
  5
465
100
AcDbEntity
  8
CURVE
100
AcDbLine
 62
7
  6
CONTINUOUS
 10
-89.5314957658
 20
6.0313684113
 11
-89.2314949075
 21
6.0313684113
  0
LINE
  5
466
100
AcDbEntity
  8
CURVE
100
AcDbLine
 62
7
  6
CONTINUOUS
 10
-87.2314958612
 20
6.0313684113
 11
-87.731495289
 21
6.0313684113
  0
LINE
  5
467
100
AcDbEntity
  8
CURVE
100
AcDbLine
 62
7
  6
CONTINUOUS
 10
-90.4314956705
 20
6.0313684113
 11
-90.7314951936
 21
6.0313684113
  0
LINE
  5
468
100
AcDbEntity
  8
CURVE
100
AcDbLine
 62
7
  6
CONTINUOUS
 10
-93.7314957658
 20
6.0313684113
 11
-94.031495289
 21
6.0313684113
  0
LINE
  5
469
100
AcDbEntity
  8
CURVE
100
AcDbLine
 62
7
  6
CONTINUOUS
 10
-100.1314954678
 20
6.0313684113
 11
-100.4314954708
 21
6.0313684113
  0
LINE
  5
46A
100
AcDbEntity
  8
RACCORDO
100
AcDbLine
 62
7
  6
CONTINUOUS
 10
-82.3114954797
 20
6.1313684113
 11
-82.6669214857
 21
6.1313684113
  0
LINE
  5
46B
100
AcDbEntity
  8
ASSI
100
AcDbLine
 62
7
  6
CONTINUOUS
 10
-82.3114954797
 20
6.1313684113
 11
-82.6669214857
 21
6.1313684113
  0
LINE
  5
46C
100
AcDbEntity
  8
RACCORDO
100
AcDbLine
 62
7
  6
CONTINUOUS
 10
-83.3982797825
 20
6.1313684113
 11
-85.6594320953
 21
6.1313684113
  0
LINE
  5
46D
100
AcDbEntity
  8
ASSI
100
AcDbLine
 62
7
  6
CONTINUOUS
 10
-83.3982797825
 20
6.1313684113
 11
-85.6594320953
 21
6.1313684113
  0
LINE
  5
46E
100
AcDbEntity
  8
RACCORDO
100
AcDbLine
 62
250
  6
CONTINUOUS
 10
-82.2314954797
 20
6.2113684113
 11
-82.8081181383
 21
6.2113684113
  0
LINE
  5
46F
100
AcDbEntity
  8
ASSI
100
AcDbLine
 62
250
  6
CONTINUOUS
 10
-82.2314954797
 20
6.2113684113
 11
-82.8081181383
 21
6.2113684113
  0
LINE
  5
470
100
AcDbEntity
  8
DRAFT
100
AcDbLine
 62
250
  6
CONTINUOUS
 10
-83.2329003646
 20
6.4655216273
 11
-85.63711716
 21
6.4655216273
  0
LINE
  5
471
100
AcDbEntity
  8
ASSI
100
AcDbLine
 62
250
  6
CONTINUOUS
 10
-83.2329003646
 20
6.4655216273
 11
-85.63711716
 21
6.4655216273
  0
LINE
  5
472
100
AcDbEntity
  8
CURVE
100
AcDbLine
 62
7
  6
CONTINUOUS
 10
-92.631495289
 20
6.6313684173
 11
-93.1314953844
 21
6.6313684173
  0
LINE
  5
473
100
AcDbEntity
  8
CURVE
100
AcDbLine
 62
7
  6
CONTINUOUS
 10
-94.6314956705
 20
6.8313684471
 11
-95.2314953844
 21
6.8313684471
  0
LWPOLYLINE
  5
474
100
AcDbEntity
  8
RACCORDO
100
AcDbPolyline
 62
7
  6
CONTINUOUS
 90
5
 70
0
 10
-82.6669214875
 20
6.1313684113
 10
-82.6716751916
 20
6.1320114482
 10
-82.6771455559
 20
6.1331787273
 10
-82.6831873325
 20
6.1348702487
 10
-82.6896531053
 20
6.1371610521
  0
LWPOLYLINE
  5
475
100
AcDbEntity
  8
ASSI
100
AcDbPolyline
 62
7
  6
CONTINUOUS
 90
5
 70
0
 10
-82.6669214875
 20
6.1313684113
 10
-82.6716751916
 20
6.1320114482
 10
-82.6771455559
 20
6.1331787273
 10
-82.6831873325
 20
6.1348702487
 10
-82.6896531053
 20
6.1371610521
  0
LWPOLYLINE
  5
476
100
AcDbEntity
  8
RACCORDO
100
AcDbPolyline
 62
7
  6
CONTINUOUS
 90
3
 70
0
 10
-82.7552083606
 20
5.2213452851
 10
-82.7671860373
 20
5.2253655667
 10
-82.7802910397
 20
5.2285472753
  0
LWPOLYLINE
  5
477
100
AcDbEntity
  8
ASSI
100
AcDbPolyline
 62
7
  6
CONTINUOUS
 90
3
 70
0
 10
-82.7552083606
 20
5.2213452851
 10
-82.7671860373
 20
5.2253655667
 10
-82.7802910397
 20
5.2285472753
  0
LINE
  5
478
100
AcDbEntity
  8
CURVE
100
AcDbLine
 62
7
  6
CONTINUOUS
 10
-89.0002454797
 20
8.1188684113
 11
-88.9127454797
 21
8.0751184113
  0
LINE
  5
479
100
AcDbEntity
  8
CURVE
100
AcDbLine
 62
7
  6
CONTINUOUS
 10
-88.9564954797
 20
8.9501184113
 11
-88.9127454797
 21
8.9063684113
  0
LINE
  5
47A
100
AcDbEntity
  8
CURVE
100
AcDbLine
 62
7
  6
CONTINUOUS
 10
-87.2314958612
 20
7.4313684113
 11
-87.031495289
 21
7.2313684233
  0
LINE
  5
47B
100
AcDbEntity
  8
RACCORDO
100
AcDbLine
 62
250
  6
CONTINUOUS
 10
-82.7814897682
 20
3.1813684113
 11
-82.8093920331
 21
3.2092706763
  0
LINE
  5
47C
100
AcDbEntity
  8
ASSI
100
AcDbLine
 62
250
  6
CONTINUOUS
 10
-82.7814897682
 20
3.1813684113
 11
-82.8093920331
 21
3.2092706763
  0
LINE
  5
47D
100
AcDbEntity
  8
RACCORDO
100
AcDbLine
 62
250
  6
CONTINUOUS
 10
-82.6314954797
 20
3.3313626998
 11
-82.6593977447
 21
3.3592649647
  0
LINE
  5
47E
100
AcDbEntity
  8
ASSI
100
AcDbLine
 62
250
  6
CONTINUOUS
 10
-82.6314954797
 20
3.3313626998
 11
-82.6593977447
 21
3.3592649647
  0
LINE
  5
47F
100
AcDbEntity
  8
CURVE
100
AcDbLine
 62
7
  6
CONTINUOUS
 10
-84.8314955751
 20
5.6313684113
 11
-84.6314956705
 21
5.4313684233
  0
LINE
  5
480
100
AcDbEntity
  8
CURVE
100
AcDbLine
 62
7
  6
CONTINUOUS
 10
-84.6314956705
 20
5.4313684233
 11
-84.6314956705
 21
5.0313684471
  0
LINE
  5
481
100
AcDbEntity
  8
CURVE
100
AcDbLine
 62
7
  6
CONTINUOUS
 10
-84.3314954678
 20
7.9313684113
 11
-84.3314954678
 21
9.3313684113
  0
LINE
  5
482
100
AcDbEntity
  8
RACCORDO
100
AcDbLine
 62
7
  6
CONTINUOUS
 10
-85.1175801841
 20
3.3379031639
 11
-85.1175314278
 21
3.5813684113
  0
LINE
  5
483
100
AcDbEntity
  8
ASSI
100
AcDbLine
 62
7
  6
CONTINUOUS
 10
-85.1175801841
 20
3.3379031639
 11
-85.1175314278
 21
3.5813684113
  0
LINE
  5
484
100
AcDbEntity
  8
DRAFT
100
AcDbLine
 62
7
  6
CONTINUOUS
 10
-85.13716355
 20
3.206460569
 11
-85.1175314278
 21
3.5813684113
  0
LINE
  5
485
100
AcDbEntity
  8
ASSI
100
AcDbLine
 62
7
  6
CONTINUOUS
 10
-85.13716355
 20
3.206460569
 11
-85.1175314278
 21
3.5813684113
  0
LWPOLYLINE
  5
486
100
AcDbEntity
  8
RACCORDO
100
AcDbPolyline
 62
7
  6
CONTINUOUS
 90
8
 70
0
 10
-85.1201268392
 20
3.2149782756
 10
-85.1196547102
 20
3.2180094907
 10
-85.1192215345
 20
3.2248533411
 10
-85.1188273123
 20
3.2355098269
 10
-85.1184627314
 20
3.2505175228
 10
-85.1181371039
 20
3.2693378541
 10
-85.1178783661
 20
3.2903550964
 10
-85.1175801841
 20
3.3379031639
  0
LWPOLYLINE
  5
487
100
AcDbEntity
  8
ASSI
100
AcDbPolyline
 62
7
  6
CONTINUOUS
 90
8
 70
0
 10
-85.1201268392
 20
3.2149782756
 10
-85.1196547102
 20
3.2180094907
 10
-85.1192215345
 20
3.2248533411
 10
-85.1188273123
 20
3.2355098269
 10
-85.1184627314
 20
3.2505175228
 10
-85.1181371039
 20
3.2693378541
 10
-85.1178783661
 20
3.2903550964
 10
-85.1175801841
 20
3.3379031639
  0
LINE
  5
488
100
AcDbEntity
  8
CURVE
100
AcDbLine
 62
7
  6
CONTINUOUS
 10
-85.5981623212
 20
5.498035086
 11
-86.3981622736
 21
4.2647017453
  0
LINE
  5
489
100
AcDbEntity
  8
RACCORDO
100
AcDbLine
 62
7
  6
CONTINUOUS
 10
-82.8081181383
 20
7.2513684113
 11
-82.7808233706
 21
7.2712306408
  0
LINE
  5
48A
100
AcDbEntity
  8
ASSI
100
AcDbLine
 62
7
  6
CONTINUOUS
 10
-82.8081181383
 20
7.2513684113
 11
-82.7808233706
 21
7.2712306408
  0
LWPOLYLINE
  5
48B
100
AcDbEntity
  8
RACCORDO
100
AcDbPolyline
 62
7
  6
CONTINUOUS
 90
5
 70
0
 10
-82.7808233706
 20
7.2712306408
 10
-82.7668964173
 20
7.2812128583
 10
-82.7598782954
 20
7.2862014961
 10
-82.7528217601
 20
7.2911347227
 10
-82.7457268113
 20
7.2959765878
  0
LWPOLYLINE
  5
48C
100
AcDbEntity
  8
ASSI
100
AcDbPolyline
 62
7
  6
CONTINUOUS
 90
5
 70
0
 10
-82.7808233706
 20
7.2712306408
 10
-82.7668964173
 20
7.2812128583
 10
-82.7598782954
 20
7.2862014961
 10
-82.7528217601
 20
7.2911347227
 10
-82.7457268113
 20
7.2959765878
  0
LWPOLYLINE
  5
48D
100
AcDbEntity
  8
RACCORDO
100
AcDbPolyline
 62
7
  6
CONTINUOUS
 90
13
 70
0
 10
-82.7457268113
 20
7.2959765849
 10
-82.7389460376
 20
7.3004389617
 10
-82.7319795585
 20
7.3046948001
 10
-82.7248793481
 20
7.3087441002
 10
-82.7177144497
 20
7.3126177803
 10
-82.7105417521
 20
7.3162849221
 10
-82.703410858
 20
7.3196527701
 10
-82.6964146836
 20
7.3227652491
 10
-82.6896466044
 20
7.3255784343
 10
-82.683183704
 20
7.3278677961
 10
-82.6771437346
 20
7.3295584913
 10
-82.6716745472
 20
7.330725363
 10
-82.6669214875
 20
7.3313684113
  0
LWPOLYLINE
  5
48E
100
AcDbEntity
  8
ASSI
100
AcDbPolyline
 62
7
  6
CONTINUOUS
 90
13
 70
0
 10
-82.7457268113
 20
7.2959765849
 10
-82.7389460376
 20
7.3004389617
 10
-82.7319795585
 20
7.3046948001
 10
-82.7248793481
 20
7.3087441002
 10
-82.7177144497
 20
7.3126177803
 10
-82.7105417521
 20
7.3162849221
 10
-82.703410858
 20
7.3196527701
 10
-82.6964146836
 20
7.3227652491
 10
-82.6896466044
 20
7.3255784343
 10
-82.683183704
 20
7.3278677961
 10
-82.6771437346
 20
7.3295584913
 10
-82.6716745472
 20
7.330725363
 10
-82.6669214875
 20
7.3313684113
  0
LWPOLYLINE
  5
48F
100
AcDbEntity
  8
0
100
AcDbPolyline
 62
7
  6
CONTINUOUS
 90
10
 70
0
 10
-95.6880032692
 20
5.2567990031
 10
-95.6594676532
 20
5.2615410098
 10
-95.6310639524
 20
5.2653530234
 10
-95.602792167
 20
5.268235044
 10
-95.5746757663
 20
5.2701908316
 10
-95.5466912809
 20
5.2712166262
 10
-95.5187683022
 20
5.2713011474
 10
-95.4908833607
 20
5.2704406351
 10
-95.4630599258
 20
5.2686388494
 10
-95.4352979977
 20
5.2658957903
  0
LWPOLYLINE
  5
490
100
AcDbEntity
  8
ASSI
100
AcDbPolyline
 62
7
  6
CONTINUOUS
 90
10
 70
0
 10
-95.6880032692
 20
5.2567990031
 10
-95.6594676532
 20
5.2615410098
 10
-95.6310639524
 20
5.2653530234
 10
-95.602792167
 20
5.268235044
 10
-95.5746757663
 20
5.2701908316
 10
-95.5466912809
 20
5.2712166262
 10
-95.5187683022
 20
5.2713011474
 10
-95.4908833607
 20
5.2704406351
 10
-95.4630599258
 20
5.2686388494
 10
-95.4352979977
 20
5.2658957903
  0
LWPOLYLINE
  5
491
100
AcDbEntity
  8
RACCORDO
100
AcDbPolyline
 62
250
  6
CONTINUOUS
 90
10
 70
0
 10
-82.8094038891
 20
8.2313565553
 10
-82.7833536348
 20
8.2336317993
 10
-82.7580959849
 20
8.2403961348
 10
-82.7343981861
 20
8.2514439309
 10
-82.7129805735
 20
8.2664398972
 10
-82.6944933816
 20
8.2849279673
 10
-82.6794969762
 20
8.3063451408
 10
-82.6684465455
 20
8.3300403049
 10
-82.661678258
 20
8.3552940028
 10
-82.6593977447
 20
8.3813389878
  0
LWPOLYLINE
  5
492
100
AcDbEntity
  8
ASSI
100
AcDbPolyline
 62
250
  6
CONTINUOUS
 90
10
 70
0
 10
-82.8094038891
 20
8.2313565553
 10
-82.7833536348
 20
8.2336317993
 10
-82.7580959849
 20
8.2403961348
 10
-82.7343981861
 20
8.2514439309
 10
-82.7129805735
 20
8.2664398972
 10
-82.6944933816
 20
8.2849279673
 10
-82.6794969762
 20
8.3063451408
 10
-82.6684465455
 20
8.3300403049
 10
-82.661678258
 20
8.3552940028
 10
-82.6593977447
 20
8.3813389878
  0
LINE
  5
493
100
AcDbEntity
  8
DRAFT
100
AcDbLine
 62
250
  6
CONTINUOUS
 10
-83.2329003646
 20
6.9972151954
 11
-85.63711716
 21
6.9972151954
  0
LINE
  5
494
100
AcDbEntity
  8
ASSI
100
AcDbLine
 62
250
  6
CONTINUOUS
 10
-83.2329003646
 20
6.9972151954
 11
-85.63711716
 21
6.9972151954
  0
LINE
  5
495
100
AcDbEntity
  8
RACCORDO
100
AcDbLine
 62
250
  6
CONTINUOUS
 10
-82.8081181383
 20
7.2513684113
 11
-82.2314954797
 21
7.2513684113
  0
LINE
  5
496
100
AcDbEntity
  8
ASSI
100
AcDbLine
 62
250
  6
CONTINUOUS
 10
-82.8081181383
 20
7.2513684113
 11
-82.2314954797
 21
7.2513684113
  0
LINE
  5
497
100
AcDbEntity
  8
RACCORDO
100
AcDbLine
 62
7
  6
CONTINUOUS
 10
-82.6669214857
 20
7.3313684113
 11
-82.3114954797
 21
7.3313684113
  0
LINE
  5
498
100
AcDbEntity
  8
ASSI
100
AcDbLine
 62
7
  6
CONTINUOUS
 10
-82.6669214857
 20
7.3313684113
 11
-82.3114954797
 21
7.3313684113
  0
LINE
  5
499
100
AcDbEntity
  8
RACCORDO
100
AcDbLine
 62
7
  6
CONTINUOUS
 10
-83.3982797825
 20
7.3313684113
 11
-85.6594320953
 21
7.3313684113
  0
LINE
  5
49A
100
AcDbEntity
  8
ASSI
100
AcDbLine
 62
7
  6
CONTINUOUS
 10
-83.3982797825
 20
7.3313684113
 11
-85.6594320953
 21
7.3313684113
  0
LINE
  5
49B
100
AcDbEntity
  8
CURVE
100
AcDbLine
 62
7
  6
CONTINUOUS
 10
-100.4314954708
 20
7.4313684113
 11
-100.1314954678
 21
7.4313684113
  0
LINE
  5
49C
100
AcDbEntity
  8
CURVE
100
AcDbLine
 62
7
  6
CONTINUOUS
 10
-95.2314953844
 20
7.4313684113
 11
-94.6314956705
 21
7.4313684113
  0
LINE
  5
49D
100
AcDbEntity
  8
CURVE
100
AcDbLine
 62
7
  6
CONTINUOUS
 10
-94.031495289
 20
7.4313684113
 11
-93.7314957658
 21
7.4313684113
  0
LINE
  5
49E
100
AcDbEntity
  8
CURVE
100
AcDbLine
 62
7
  6
CONTINUOUS
 10
-93.1314953844
 20
7.4313684113
 11
-92.631495289
 21
7.4313684113
  0
LINE
  5
49F
100
AcDbEntity
  8
CURVE
100
AcDbLine
 62
7
  6
CONTINUOUS
 10
-90.7314951936
 20
7.4313684113
 11
-90.4314956705
 21
7.4313684113
  0
LINE
  5
4A0
100
AcDbEntity
  8
CURVE
100
AcDbLine
 62
7
  6
CONTINUOUS
 10
-87.731495289
 20
7.4313684113
 11
-87.2314958612
 21
7.4313684113
  0
LINE
  5
4A1
100
AcDbEntity
  8
0
100
AcDbLine
 62
7
  6
CONTINUOUS
 10
-82.6463659274
 20
7.8813684113
 11
-69.4249929013
 21
7.8813684113
  0
LINE
  5
4A2
100
AcDbEntity
  8
CURVE
100
AcDbLine
 62
7
  6
CONTINUOUS
 10
-96.2314955751
 20
8.0313684113
 11
-95.831495432
 21
8.0313684113
  0
LINE
  5
4A3
100
AcDbEntity
  8
CURVE
100
AcDbLine
 62
7
  6
CONTINUOUS
 10
-88.7814954797
 20
8.0313684113
 11
-88.6502454797
 21
8.0313684113
  0
LINE
  5
4A4
100
AcDbEntity
  8
CURVE
100
AcDbLine
 62
7
  6
CONTINUOUS
 10
-93.7314957658
 20
8.0313684113
 11
-94.2314951936
 21
8.0313684113
  0
LINE
  5
4A5
100
AcDbEntity
  8
CURVE
100
AcDbLine
 62
7
  6
CONTINUOUS
 10
-99.1314955274
 20
8.0313684113
 11
-99.2314954797
 21
8.0313684113
  0
LINE
  5
4A6
100
AcDbEntity
  8
CURVE
100
AcDbLine
 62
7
  6
CONTINUOUS
 10
-100.2314954619
 20
8.0313684113
 11
-100.3314954768
 21
8.0313684113
  0
LINE
  5
4A7
100
AcDbEntity
  8
RACCORDO
100
AcDbLine
 62
250
  6
CONTINUOUS
 10
-102.6564954797
 20
8.8121255772
 11
-102.2000719217
 21
8.7890708914
  0
LINE
  5
4A8
100
AcDbEntity
  8
ASSI
100
AcDbLine
 62
250
  6
CONTINUOUS
 10
-102.6564954797
 20
8.8121255772
 11
-102.2000719217
 21
8.7890708914
  0
LWPOLYLINE
  5
4A9
100
AcDbEntity
  8
RACCORDO
100
AcDbPolyline
 62
250
  6
CONTINUOUS
 90
5
 70
0
 10
-82.6408504642
 20
7.3313684113
 10
-82.6322803059
 20
7.3301530316
 10
-82.6239705474
 20
7.326543821
 10
-82.6161736767
 20
7.3206504437
 10
-82.6091265977
 20
7.3126519669
  0
LWPOLYLINE
  5
4AA
100
AcDbEntity
  8
ASSI
100
AcDbPolyline
 62
250
  6
CONTINUOUS
 90
5
 70
0
 10
-82.6408504642
 20
7.3313684113
 10
-82.6322803059
 20
7.3301530316
 10
-82.6239705474
 20
7.326543821
 10
-82.6161736767
 20
7.3206504437
 10
-82.6091265977
 20
7.3126519669
  0
LWPOLYLINE
  5
4AB
100
AcDbEntity
  8
RACCORDO
100
AcDbPolyline
 62
250
  6
CONTINUOUS
 90
7
 70
0
 10
-82.3383111015
 20
7.3313684113
 10
-82.3297409432
 20
7.3301530316
 10
-82.3214311847
 20
7.326543821
 10
-82.313634314
 20
7.3206504436
 10
-82.306587235
 20
7.3126519668
 10
-82.3005040696
 20
7.3027914201
 10
-82.2955696517
 20
7.2913684113
  0
LWPOLYLINE
  5
4AC
100
AcDbEntity
  8
ASSI
100
AcDbPolyline
 62
250
  6
CONTINUOUS
 90
7
 70
0
 10
-82.3383111015
 20
7.3313684113
 10
-82.3297409432
 20
7.3301530316
 10
-82.3214311847
 20
7.326543821
 10
-82.313634314
 20
7.3206504436
 10
-82.306587235
 20
7.3126519668
 10
-82.3005040696
 20
7.3027914201
 10
-82.2955696517
 20
7.2913684113
  0
LINE
  5
4AD
100
AcDbEntity
  8
CURVE
100
AcDbLine
 62
7
  6
CONTINUOUS
 10
-88.9127454797
 20
8.0751184113
 11
-88.7814954797
 21
8.0313684113
  0
LINE
  5
4AE
100
AcDbEntity
  8
CURVE
100
AcDbLine
 62
7
  6
CONTINUOUS
 10
-88.8252454797
 20
8.8626184113
 11
-88.6939954797
 21
8.8188684113
  0
LWPOLYLINE
  5
4AF
100
AcDbEntity
  8
RACCORDO
100
AcDbPolyline
 62
7
  6
CONTINUOUS
 90
3
 70
0
 10
-82.6896531053
 20
6.1371610521
 10
-82.6964248788
 20
6.1399760978
 10
-82.7034243348
 20
6.1430902661
  0
LWPOLYLINE
  5
4B0
100
AcDbEntity
  8
ASSI
100
AcDbPolyline
 62
7
  6
CONTINUOUS
 90
3
 70
0
 10
-82.6896531053
 20
6.1371610521
 10
-82.6964248788
 20
6.1399760978
 10
-82.7034243348
 20
6.1430902661
  0
LINE
  5
4B1
100
AcDbEntity
  8
RACCORDO
100
AcDbLine
 62
7
  6
CONTINUOUS
 10
-82.7034243348
 20
6.1430902661
 11
-82.7105577935
 21
6.146459864
  0
LINE
  5
4B2
100
AcDbEntity
  8
ASSI
100
AcDbLine
 62
7
  6
CONTINUOUS
 10
-82.7034243348
 20
6.1430902661
 11
-82.7105577935
 21
6.146459864
  0
LINE
  5
4B3
100
AcDbEntity
  8
CURVE
100
AcDbLine
 62
7
  6
CONTINUOUS
 10
-88.9127454797
 20
8.9063684113
 11
-88.8252454797
 21
8.8626184113
  0
LINE
  5
4B4
100
AcDbEntity
  8
CURVE
100
AcDbLine
 62
7
  6
CONTINUOUS
 10
-88.2564954797
 20
9.2126184113
 11
-88.3439954797
 21
9.2563684113
  0
LWPOLYLINE
  5
4B5
100
AcDbEntity
  8
RACCORDO
100
AcDbPolyline
 62
7
  6
CONTINUOUS
 90
6
 70
0
 10
-82.7105577935
 20
6.146459864
 10
-82.7177322363
 20
6.1501285844
 10
-82.7248967383
 20
6.1540023861
 10
-82.7319937664
 20
6.1580499221
 10
-82.7389544866
 20
6.1623025393
 10
-82.7457268113
 20
6.1667602378
  0
LWPOLYLINE
  5
4B6
100
AcDbEntity
  8
ASSI
100
AcDbPolyline
 62
7
  6
CONTINUOUS
 90
6
 70
0
 10
-82.7105577935
 20
6.146459864
 10
-82.7177322363
 20
6.1501285844
 10
-82.7248967383
 20
6.1540023861
 10
-82.7319937664
 20
6.1580499221
 10
-82.7389544866
 20
6.1623025393
 10
-82.7457268113
 20
6.1667602378
  0
LWPOLYLINE
  5
4B7
100
AcDbEntity
  8
RACCORDO
100
AcDbPolyline
 62
7
  6
CONTINUOUS
 90
3
 70
0
 10
-82.7457268113
 20
6.1667602349
 10
-82.7528217601
 20
6.1716020999
 10
-82.7598782954
 20
6.1765353266
  0
LWPOLYLINE
  5
4B8
100
AcDbEntity
  8
ASSI
100
AcDbPolyline
 62
7
  6
CONTINUOUS
 90
3
 70
0
 10
-82.7457268113
 20
6.1667602349
 10
-82.7528217601
 20
6.1716020999
 10
-82.7598782954
 20
6.1765353266
  0
LINE
  5
4B9
100
AcDbEntity
  8
RACCORDO
100
AcDbLine
 62
7
  6
CONTINUOUS
 10
-82.7598782954
 20
6.1765353266
 11
-82.7738791007
 21
6.1865196557
  0
LINE
  5
4BA
100
AcDbEntity
  8
ASSI
100
AcDbLine
 62
7
  6
CONTINUOUS
 10
-82.7598782954
 20
6.1765353266
 11
-82.7738791007
 21
6.1865196557
  0
LWPOLYLINE
  5
4BB
100
AcDbEntity
  8
RACCORDO
100
AcDbPolyline
 62
7
  6
CONTINUOUS
 90
3
 70
0
 10
-82.7738791007
 20
6.1865196557
 10
-82.7877203019
 20
6.19650238
 10
-82.8081181383
 20
6.2113684113
  0
LWPOLYLINE
  5
4BC
100
AcDbEntity
  8
ASSI
100
AcDbPolyline
 62
7
  6
CONTINUOUS
 90
3
 70
0
 10
-82.7738791007
 20
6.1865196557
 10
-82.7877203019
 20
6.19650238
 10
-82.8081181383
 20
6.2113684113
  0
LWPOLYLINE
  5
4BD
100
AcDbEntity
  8
RACCORDO
100
AcDbPolyline
 62
7
  6
CONTINUOUS
 90
10
 70
0
 10
-83.2370706711
 20
7.2471020445
 10
-83.2377419975
 20
7.2536269565
 10
-83.2393551112
 20
7.2599903326
 10
-83.2419100123
 20
7.2661921728
 10
-83.2454594309
 20
7.2722735256
 10
-83.2499506369
 20
7.2781933424
 10
-83.2552254394
 20
7.2838284777
 10
-83.2612311083
 20
7.2891378827
 10
-83.2680203738
 20
7.2941626061
 10
-83.2755932358
 20
7.2989026478
  0
LWPOLYLINE
  5
4BE
100
AcDbEntity
  8
ASSI
100
AcDbPolyline
 62
7
  6
CONTINUOUS
 90
10
 70
0
 10
-83.2370706711
 20
7.2471020445
 10
-83.2377419975
 20
7.2536269565
 10
-83.2393551112
 20
7.2599903326
 10
-83.2419100123
 20
7.2661921728
 10
-83.2454594309
 20
7.2722735256
 10
-83.2499506369
 20
7.2781933424
 10
-83.2552254394
 20
7.2838284777
 10
-83.2612311083
 20
7.2891378827
 10
-83.2680203738
 20
7.2941626061
 10
-83.2755932358
 20
7.2989026478
  0
LWPOLYLINE
  5
4BF
100
AcDbEntity
  8
RACCORDO
100
AcDbPolyline
 62
250
  6
CONTINUOUS
 90
10
 70
0
 10
-83.2868080587
 20
10.0977642586
 10
-83.2886221811
 20
10.123866913
 10
-83.2937806087
 20
10.1491656331
 10
-83.3021231008
 20
10.1728899144
 10
-83.3134123563
 20
10.1943496754
 10
-83.327290363
 20
10.2128530859
 10
-83.3432518386
 20
10.2277768031
 10
-83.3607570869
 20
10.2387108953
 10
-83.3792864095
 20
10.2454160469
 10
-83.3982797825
 20
10.247758547
  0
LWPOLYLINE
  5
4C0
100
AcDbEntity
  8
ASSI
100
AcDbPolyline
 62
250
  6
CONTINUOUS
 90
10
 70
0
 10
-83.2868080587
 20
10.0977642586
 10
-83.2886221811
 20
10.123866913
 10
-83.2937806087
 20
10.1491656331
 10
-83.3021231008
 20
10.1728899144
 10
-83.3134123563
 20
10.1943496754
 10
-83.327290363
 20
10.2128530859
 10
-83.3432518386
 20
10.2277768031
 10
-83.3607570869
 20
10.2387108953
 10
-83.3792864095
 20
10.2454160469
 10
-83.3982797825
 20
10.247758547
  0
LINE
  5
4C1
100
AcDbEntity
  8
RACCORDO
100
AcDbLine
 62
7
  6
CONTINUOUS
 10
-83.2329003646
 20
6.9972151954
 11
-83.2370706711
 21
7.2471020445
  0
LINE
  5
4C2
100
AcDbEntity
  8
ASSI
100
AcDbLine
 62
7
  6
CONTINUOUS
 10
-83.2326237346
 20
6.9778666324
 11
-83.2370706711
 21
7.2471020445
  0
LINE
  5
4C3
100
AcDbEntity
  8
DRAFT
100
AcDbLine
 62
7
  6
CONTINUOUS
 10
-83.2323754696
 20
6.9556354784
 11
-83.2329003646
 21
6.9972151954
  0
LINE
  5
4C4
100
AcDbEntity
  8
ASSI
100
AcDbLine
 62
7
  6
CONTINUOUS
 10
-83.2319616769
 20
6.9020785986
 11
-83.2326237346
 21
6.9778666324
  0
LINE
  5
4C5
100
AcDbEntity
  8
DRAFT
100
AcDbLine
 62
7
  6
CONTINUOUS
 10
-83.2317961492
 20
6.8707528729
 11
-83.2323754696
 21
6.9556354784
  0
LINE
  5
4C6
100
AcDbEntity
  8
ASSI
100
AcDbLine
 62
7
  6
CONTINUOUS
 10
-83.2315169024
 20
6.7684161202
 11
-83.2319616769
 21
6.9020785986
  0
LINE
  5
4C7
100
AcDbEntity
  8
DRAFT
100
AcDbLine
 62
7
  6
CONTINUOUS
 10
-83.2314954797
 20
6.7313684113
 11
-83.2317961492
 21
6.8707528729
  0
LINE
  5
4C8
100
AcDbEntity
  8
CURVE
100
AcDbLine
 62
7
  6
CONTINUOUS
 10
-83.9314956705
 20
4.4313684203
 11
-83.9314956705
 21
5.0313684471
  0
LINE
  5
4C9
100
AcDbEntity
  8
CURVE
100
AcDbLine
 62
7
  6
CONTINUOUS
 10
-83.6314954678
 20
7.9313684113
 11
-83.6314954678
 21
9.3313684113
  0
LINE
  5
4CA
100
AcDbEntity
  8
RACCORDO
100
AcDbLine
 62
250
  6
CONTINUOUS
 10
-83.3982797825
 20
3.2149782756
 11
-83.3982797825
 21
6.1313684113
  0
LINE
  5
4CB
100
AcDbEntity
  8
ASSI
100
AcDbLine
 62
250
  6
CONTINUOUS
 10
-83.3982797825
 20
3.2149782756
 11
-83.3982797825
 21
6.1313684113
  0
LINE
  5
4CC
100
AcDbEntity
  8
RACCORDO
100
AcDbLine
 62
250
  6
CONTINUOUS
 10
-83.3982797825
 20
7.3313684113
 11
-83.3982797825
 21
10.247758547
  0
LINE
  5
4CD
100
AcDbEntity
  8
ASSI
100
AcDbLine
 62
250
  6
CONTINUOUS
 10
-83.3982797825
 20
7.3313684113
 11
-83.3982797825
 21
10.247758547
  0
LINE
  5
4CE
100
AcDbEntity
  8
RACCORDO
100
AcDbLine
 62
250
  6
CONTINUOUS
 10
-83.2868080587
 20
3.3649725641
 11
-83.2868080587
 21
6.1573210591
  0
LINE
  5
4CF
100
AcDbEntity
  8
ASSI
100
AcDbLine
 62
250
  6
CONTINUOUS
 10
-83.2868080587
 20
3.3649725641
 11
-83.2868080587
 21
6.1573210591
  0
LINE
  5
4D0
100
AcDbEntity
  8
RACCORDO
100
AcDbLine
 62
250
  6
CONTINUOUS
 10
-83.2868080587
 20
7.3054157636
 11
-83.2868080587
 21
10.0977642586
  0
LINE
  5
4D1
100
AcDbEntity
  8
ASSI
100
AcDbLine
 62
250
  6
CONTINUOUS
 10
-83.2868080587
 20
7.3054157636
 11
-83.2868080587
 21
10.0977642586
  0
LINE
  5
4D2
100
AcDbEntity
  8
RACCORDO
100
AcDbLine
 62
250
  6
CONTINUOUS
 10
-83.2755932358
 20
8.3869378912
 11
-83.2755932358
 21
7.2989026478
  0
LINE
  5
4D3
100
AcDbEntity
  8
ASSI
100
AcDbLine
 62
250
  6
CONTINUOUS
 10
-83.2755932358
 20
8.3869378912
 11
-83.2755932358
 21
7.2989026478
  0
LINE
  5
4D4
100
AcDbEntity
  8
RACCORDO
100
AcDbLine
 62
250
  6
CONTINUOUS
 10
-83.2755932358
 20
6.1638341749
 11
-83.2755932358
 21
5.0757989315
  0
LINE
  5
4D5
100
AcDbEntity
  8
ASSI
100
AcDbLine
 62
250
  6
CONTINUOUS
 10
-83.2755932358
 20
6.1638341749
 11
-83.2755932358
 21
5.0757989315
  0
LINE
  5
4D6
100
AcDbEntity
  8
RACCORDO
100
AcDbLine
 62
7
  6
CONTINUOUS
 10
-83.2370706711
 20
8.2868981977
 11
-83.2370706711
 21
7.2471020445
  0
LINE
  5
4D7
100
AcDbEntity
  8
ASSI
100
AcDbLine
 62
7
  6
CONTINUOUS
 10
-83.2370706711
 20
8.2868981977
 11
-83.2370706711
 21
7.2471020445
  0
LINE
  5
4D8
100
AcDbEntity
  8
RACCORDO
100
AcDbLine
 62
7
  6
CONTINUOUS
 10
-83.2370706711
 20
6.2156347782
 11
-83.2370706711
 21
5.175838625
  0
LINE
  5
4D9
100
AcDbEntity
  8
ASSI
100
AcDbLine
 62
7
  6
CONTINUOUS
 10
-83.2370706711
 20
6.2156347782
 11
-83.2370706711
 21
5.175838625
  0
LINE
  5
4DA
100
AcDbEntity
  8
DRAFT
100
AcDbLine
 62
7
  6
CONTINUOUS
 10
-83.2314954797
 20
8.2313684113
 11
-83.2314954797
 21
7.2471020445
  0
LINE
  5
4DB
100
AcDbEntity
  8
ASSI
100
AcDbLine
 62
7
  6
CONTINUOUS
 10
-83.2314954797
 20
8.2313684113
 11
-83.2314954797
 21
7.2471020445
  0
LINE
  5
4DC
100
AcDbEntity
  8
DRAFT
100
AcDbLine
 62
7
  6
CONTINUOUS
 10
-83.2314954797
 20
6.2156347782
 11
-83.2314954797
 21
5.2313684113
  0
LINE
  5
4DD
100
AcDbEntity
  8
ASSI
100
AcDbLine
 62
7
  6
CONTINUOUS
 10
-83.2314954797
 20
6.2156347782
 11
-83.2314954797
 21
5.2313684113
  0
LINE
  5
4DE
100
AcDbEntity
  8
ASSI
100
AcDbLine
 62
7
  6
CONTINUOUS
 10
-83.2316660585
 20
6.624851871
 11
-83.2315169024
 21
6.7684161202
  0
LINE
  5
4DF
100
AcDbEntity
  8
DRAFT
100
AcDbLine
 62
7
  6
CONTINUOUS
 10
-83.2317961492
 20
6.5919839498
 11
-83.2314954797
 21
6.7313684113
  0
LINE
  5
4E0
100
AcDbEntity
  8
ASSI
100
AcDbLine
 62
7
  6
CONTINUOUS
 10
-83.2321555694
 20
6.5322150894
 11
-83.2316660585
 21
6.624851871
  0
LINE
  5
4E1
100
AcDbEntity
  8
DRAFT
100
AcDbLine
 62
7
  6
CONTINUOUS
 10
-83.2323754696
 20
6.5071013443
 11
-83.2317961492
 21
6.5919839498
  0
LINE
  5
4E2
100
AcDbEntity
  8
ASSI
100
AcDbLine
 62
7
  6
CONTINUOUS
 10
-83.2326237346
 20
6.4848701903
 11
-83.2321555694
 21
6.5322150894
  0
LINE
  5
4E3
100
AcDbEntity
  8
DRAFT
100
AcDbLine
 62
7
  6
CONTINUOUS
 10
-83.2329003646
 20
6.4655216273
 11
-83.2323754696
 21
6.5071013443
  0
LINE
  5
4E4
100
AcDbEntity
  8
RACCORDO
100
AcDbLine
 62
7
  6
CONTINUOUS
 10
-83.2370706711
 20
6.2156347782
 11
-83.2329003646
 21
6.4655216273
  0
LINE
  5
4E5
100
AcDbEntity
  8
ASSI
100
AcDbLine
 62
7
  6
CONTINUOUS
 10
-83.2370706711
 20
6.2156347782
 11
-83.2326237346
 21
6.4848701903
  0
LWPOLYLINE
  5
4E6
100
AcDbEntity
  8
RACCORDO
100
AcDbPolyline
 62
7
  6
CONTINUOUS
 90
7
 70
0
 10
-83.2370706711
 20
5.175838625
 10
-83.238255957
 20
5.1615647419
 10
-83.2415374608
 20
5.1463310992
 10
-83.2469388842
 20
5.1301376967
 10
-83.2544510592
 20
5.1129845346
 10
-83.2640296309
 20
5.0948716129
 10
-83.2755932358
 20
5.0757989315
  0
LWPOLYLINE
  5
4E7
100
AcDbEntity
  8
ASSI
100
AcDbPolyline
 62
7
  6
CONTINUOUS
 90
7
 70
0
 10
-83.2370706711
 20
5.175838625
 10
-83.238255957
 20
5.1615647419
 10
-83.2415374608
 20
5.1463310992
 10
-83.2469388842
 20
5.1301376967
 10
-83.2544510592
 20
5.1129845346
 10
-83.2640296309
 20
5.0948716129
 10
-83.2755932358
 20
5.0757989315
  0
LWPOLYLINE
  5
4E8
100
AcDbEntity
  8
RACCORDO
100
AcDbPolyline
 62
250
  6
CONTINUOUS
 90
9
 70
0
 10
-82.6997357768
 20
8.3552264204
 10
-82.7048984415
 20
8.32991735
 10
-82.7132483284
 20
8.3061834648
 10
-82.724550708
 20
8.2847121423
 10
-82.7384457346
 20
8.266201922
 10
-82.7544170613
 20
8.2512855945
 10
-82.7719176337
 20
8.2403687585
 10
-82.7904291923
 20
8.2336798618
 10
-82.8093920331
 20
8.2313446994
  0
LWPOLYLINE
  5
4E9
100
AcDbEntity
  8
ASSI
100
AcDbPolyline
 62
250
  6
CONTINUOUS
 90
9
 70
0
 10
-82.6997357768
 20
8.3552264204
 10
-82.7048984415
 20
8.32991735
 10
-82.7132483284
 20
8.3061834648
 10
-82.724550708
 20
8.2847121423
 10
-82.7384457346
 20
8.266201922
 10
-82.7544170613
 20
8.2512855945
 10
-82.7719176337
 20
8.2403687585
 10
-82.7904291923
 20
8.2336798618
 10
-82.8093920331
 20
8.2313446994
  0
LINE
  5
4EA
100
AcDbEntity
  8
CURVE
100
AcDbLine
 62
7
  6
CONTINUOUS
 10
-84.6314956705
 20
5.0313684471
 11
-84.8314955751
 21
4.8313684173
  0
LWPOLYLINE
  5
4EB
100
AcDbEntity
  8
RACCORDO
100
AcDbPolyline
 62
7
  6
CONTINUOUS
 90
10
 70
0
 10
-83.2755932358
 20
6.1638341749
 10
-83.2680203738
 20
6.1685742166
 10
-83.2612311083
 20
6.17359894
 10
-83.2552254394
 20
6.178908345
 10
-83.2499506369
 20
6.1845434802
 10
-83.2454594309
 20
6.1904632971
 10
-83.2419100123
 20
6.1965446499
 10
-83.2393551112
 20
6.2027464901
 10
-83.2377419975
 20
6.2091098662
 10
-83.2370706711
 20
6.2156347782
  0
LWPOLYLINE
  5
4EC
100
AcDbEntity
  8
ASSI
100
AcDbPolyline
 62
7
  6
CONTINUOUS
 90
10
 70
0
 10
-83.2755932358
 20
6.1638341749
 10
-83.2680203738
 20
6.1685742166
 10
-83.2612311083
 20
6.17359894
 10
-83.2552254394
 20
6.178908345
 10
-83.2499506369
 20
6.1845434802
 10
-83.2454594309
 20
6.1904632971
 10
-83.2419100123
 20
6.1965446499
 10
-83.2393551112
 20
6.2027464901
 10
-83.2377419975
 20
6.2091098662
 10
-83.2370706711
 20
6.2156347782
  0
LINE
  5
4ED
100
AcDbEntity
  8
RACCORDO
100
AcDbLine
 62
7
  6
CONTINUOUS
 10
-83.2868080587
 20
6.1573210591
 11
-83.2755932358
 21
6.1638341749
  0
LINE
  5
4EE
100
AcDbEntity
  8
ASSI
100
AcDbLine
 62
7
  6
CONTINUOUS
 10
-83.2868080587
 20
6.1573210591
 11
-83.2755932358
 21
6.1638341749
  0
LINE
  5
4EF
100
AcDbEntity
  8
DRAFT
100
AcDbLine
 62
7
  6
CONTINUOUS
 10
-87.1437140252
 20
3.1813684113
 11
-87.1314954797
 21
3.1874772188
  0
LINE
  5
4F0
100
AcDbEntity
  8
ASSI
100
AcDbLine
 62
7
  6
CONTINUOUS
 10
-87.1437140252
 20
3.1813684113
 11
-87.1314954797
 21
3.1874772188
  0
LINE
  5
4F1
100
AcDbEntity
  8
CURVE
100
AcDbLine
 62
7
  6
CONTINUOUS
 10
-88.6502454797
 20
8.0313684113
 11
-88.4752454797
 21
8.0751184113
  0
LWPOLYLINE
  5
4F2
100
AcDbEntity
  8
RACCORDO
100
AcDbPolyline
 62
7
  6
CONTINUOUS
 90
25
 70
0
 10
-82.8094038891
 20
8.2313565553
 10
-82.7944241706
 20
8.2321026238
 10
-82.7803427533
 20
8.2341794567
 10
-82.7672544854
 20
8.2373514356
 10
-82.7552867104
 20
8.2413615938
 10
-82.7443870701
 20
8.2460140477
 10
-82.7343536121
 20
8.2512336119
 10
-82.7251759419
 20
8.2568918889
 10
-82.7168514236
 20
8.2628539546
 10
-82.7092126935
 20
8.2691319368
 10
-82.7022368154
 20
8.2756585195
 10
-82.6959197093
 20
8.2823478367
 10
-82.6901539622
 20
8.2892417466
 10
-82.6849180017
 20
8.2963109206
 10
-82.6802153761
 20
8.3034914547
 10
-82.6759998037
 20
8.3108014288
 10
-82.67226545
 20
8.3182028428
 10
-82.6690008802
 20
8.3256652247
 10
-82.6661699218
 20
8.3332320708
 10
-82.6637690337
 20
8.3408860808
 10
-82.6617987558
 20
8.3485939408
 10
-82.6602468361
 20
8.356383114
 10
-82.6591143274
 20
8.3642484495
 10
-82.6584065215
 20
8.3721500296
 10
-82.6581238498
 20
8.3800650929
  0
LWPOLYLINE
  5
4F3
100
AcDbEntity
  8
ASSI
100
AcDbPolyline
 62
7
  6
CONTINUOUS
 90
25
 70
0
 10
-82.8094038891
 20
8.2313565553
 10
-82.7944241706
 20
8.2321026238
 10
-82.7803427533
 20
8.2341794567
 10
-82.7672544854
 20
8.2373514356
 10
-82.7552867104
 20
8.2413615938
 10
-82.7443870701
 20
8.2460140477
 10
-82.7343536121
 20
8.2512336119
 10
-82.7251759419
 20
8.2568918889
 10
-82.7168514236
 20
8.2628539546
 10
-82.7092126935
 20
8.2691319368
 10
-82.7022368154
 20
8.2756585195
 10
-82.6959197093
 20
8.2823478367
 10
-82.6901539622
 20
8.2892417466
 10
-82.6849180017
 20
8.2963109206
 10
-82.6802153761
 20
8.3034914547
 10
-82.6759998037
 20
8.3108014288
 10
-82.67226545
 20
8.3182028428
 10
-82.6690008802
 20
8.3256652247
 10
-82.6661699218
 20
8.3332320708
 10
-82.6637690337
 20
8.3408860808
 10
-82.6617987558
 20
8.3485939408
 10
-82.6602468361
 20
8.356383114
 10
-82.6591143274
 20
8.3642484495
 10
-82.6584065215
 20
8.3721500296
 10
-82.6581238498
 20
8.3800650929
  0
LINE
  5
4F4
100
AcDbEntity
  8
CURVE
100
AcDbLine
 62
7
  6
CONTINUOUS
 10
-94.9314951936
 20
8.0980350792
 11
-94.9981622736
 21
8.0980350792
  0
LINE
  5
4F5
100
AcDbEntity
  8
RACCORDO
100
AcDbLine
 62
7
  6
CONTINUOUS
 10
-82.8081181383
 20
8.2313684113
 11
-83.2314954797
 21
8.2313684113
  0
LINE
  5
4F6
100
AcDbEntity
  8
ASSI
100
AcDbLine
 62
7
  6
CONTINUOUS
 10
-82.8081181383
 20
8.2313684113
 11
-83.2314954797
 21
8.2313684113
  0
LINE
  5
4F7
100
AcDbEntity
  8
CURVE
100
AcDbLine
 62
7
  6
CONTINUOUS
 10
-94.9981622736
 20
8.2647017516
 11
-94.9314951936
 21
8.2647017516
  0
LINE
  5
4F8
100
AcDbEntity
  8
CURVE
100
AcDbLine
 62
7
  6
CONTINUOUS
 10
-96.6314953844
 20
8.3313684143
 11
-97.3314953844
 21
8.3313684143
  0
LINE
  5
4F9
100
AcDbEntity
  8
RACCORDO
100
AcDbLine
 62
250
  6
CONTINUOUS
 10
-82.6593977447
 20
8.3813389878
 11
-82.6979203093
 21
8.3813389878
  0
LINE
  5
4FA
100
AcDbEntity
  8
ASSI
100
AcDbLine
 62
250
  6
CONTINUOUS
 10
-82.6593977447
 20
8.3813389878
 11
-82.6979203093
 21
8.3813389878
  0
LINE
  5
4FB
100
AcDbEntity
  8
ASSI
100
AcDbLine
 62
7
  6
CONTINUOUS
 10
-82.6314923642
 20
8.4813684113
 11
-82.6517994386
 21
8.4813684113
  0
LINE
  5
4FC
100
AcDbEntity
  8
CURVE
100
AcDbLine
 62
7
  6
CONTINUOUS
 10
-98.2314954559
 20
8.6313684173
 11
-97.7981622736
 21
8.6313684173
  0
LINE
  5
4FD
100
AcDbEntity
  8
RACCORDO
100
AcDbLine
 62
250
  6
CONTINUOUS
 10
-102.2000719217
 20
8.7890708914
 11
-102.1250776333
 21
8.7890708914
  0
LINE
  5
4FE
100
AcDbEntity
  8
ASSI
100
AcDbLine
 62
250
  6
CONTINUOUS
 10
-102.2000719217
 20
8.7890708914
 11
-102.1250776333
 21
8.7890708914
  0
LINE
  5
4FF
100
AcDbEntity
  8
RACCORDO
100
AcDbLine
 62
250
  6
CONTINUOUS
 10
-102.7314954797
 20
8.8121255772
 11
-102.6564954797
 21
8.8121255772
  0
LINE
  5
500
100
AcDbEntity
  8
ASSI
100
AcDbLine
 62
250
  6
CONTINUOUS
 10
-102.7314954797
 20
8.8121255772
 11
-102.6564954797
 21
8.8121255772
  0
LINE
  5
501
100
AcDbEntity
  8
CURVE
100
AcDbLine
 62
7
  6
CONTINUOUS
 10
-88.6939954797
 20
8.8188684113
 11
-88.6502454797
 21
8.8188684113
  0
LINE
  5
502
100
AcDbEntity
  8
CURVE
100
AcDbLine
 62
7
  6
CONTINUOUS
 10
-94.031495289
 20
8.8313684471
 11
-93.7314957658
 21
8.8313684471
  0
LINE
  5
503
100
AcDbEntity
  8
CURVE
100
AcDbLine
 62
7
  6
CONTINUOUS
 10
-95.831495432
 20
8.8313684471
 11
-96.2314955751
 21
8.8313684471
  0
LINE
  5
504
100
AcDbEntity
  8
RACCORDO
100
AcDbLine
 62
7
  6
CONTINUOUS
 10
-102.5814954797
 20
8.9813684113
 11
-102.281387102
 21
8.9813684113
  0
LINE
  5
505
100
AcDbEntity
  8
ASSI
100
AcDbLine
 62
7
  6
CONTINUOUS
 10
-102.5814954797
 20
8.9813684113
 11
-102.281387102
 21
8.9813684113
  0
LINE
  5
506
100
AcDbEntity
  8
0
100
AcDbLine
 62
7
  6
CONTINUOUS
 10
-82.6463659274
 20
9.0813684113
 11
-69.4653833547
 21
9.0813684113
  0
LINE
  5
507
100
AcDbEntity
  8
RACCORDO
100
AcDbLine
 62
250
  6
CONTINUOUS
 10
-83.2356026731
 20
8.2354756047
 11
-82.8118385426
 21
8.2313684113
  0
LINE
  5
508
100
AcDbEntity
  8
ASSI
100
AcDbLine
 62
250
  6
CONTINUOUS
 10
-83.2356026731
 20
8.2354756047
 11
-82.8118385426
 21
8.2313684113
  0
LINE
  5
509
100
AcDbEntity
  8
RACCORDO
100
AcDbLine
 62
250
  6
CONTINUOUS
 10
-83.2755932358
 20
8.3869378912
 11
-82.6979203093
 21
8.3813389878
  0
LINE
  5
50A
100
AcDbEntity
  8
ASSI
100
AcDbLine
 62
250
  6
CONTINUOUS
 10
-83.2755932358
 20
8.3869378912
 11
-82.6979203093
 21
8.3813389878
  0
LINE
  5
50B
100
AcDbEntity
  8
RACCORDO
100
AcDbLine
 62
250
  6
CONTINUOUS
 10
-102.5814954797
 20
8.9615547819
 11
-102.2778809717
 21
8.9462187263
  0
LINE
  5
50C
100
AcDbEntity
  8
ASSI
100
AcDbLine
 62
250
  6
CONTINUOUS
 10
-102.5814954797
 20
8.9615547819
 11
-102.2778809717
 21
8.9462187263
  0
LINE
  5
50D
100
AcDbEntity
  8
CURVE
100
AcDbLine
 62
7
  6
CONTINUOUS
 10
-88.4752454797
 20
9.3001184113
 11
-88.6502454797
 21
9.3438684113
  0
LINE
  5
50E
100
AcDbEntity
  8
CURVE
100
AcDbLine
 62
7
  6
CONTINUOUS
 10
-88.3439954797
 20
9.2563684113
 11
-88.4752454797
 21
9.3001184113
  0
LWPOLYLINE
  5
50F
100
AcDbEntity
  8
RACCORDO
100
AcDbPolyline
 62
7
  6
CONTINUOUS
 90
10
 70
0
 10
-83.2868080587
 20
7.3054157636
 10
-83.2972866863
 20
7.3108492481
 10
-83.3083191922
 20
7.315647335
 10
-83.3199055764
 20
7.3198100241
 10
-83.3321486366
 20
7.3233400711
 10
-83.3449455752
 20
7.3262347205
 10
-83.3579879984
 20
7.3284857058
 10
-83.3711731084
 20
7.3300902717
 10
-83.3846037031
 20
7.3310511735
 10
-83.3982797825
 20
7.3313684113
  0
LWPOLYLINE
  5
510
100
AcDbEntity
  8
ASSI
100
AcDbPolyline
 62
7
  6
CONTINUOUS
 90
10
 70
0
 10
-83.2868080587
 20
7.3054157636
 10
-83.2972866863
 20
7.3108492481
 10
-83.3083191922
 20
7.315647335
 10
-83.3199055764
 20
7.3198100241
 10
-83.3321486366
 20
7.3233400711
 10
-83.3449455752
 20
7.3262347205
 10
-83.3579879984
 20
7.3284857058
 10
-83.3711731084
 20
7.3300902717
 10
-83.3846037031
 20
7.3310511735
 10
-83.3982797825
 20
7.3313684113
  0
LINE
  5
511
100
AcDbEntity
  8
RACCORDO
100
AcDbLine
 62
7
  6
CONTINUOUS
 10
-83.2868080587
 20
7.3054157636
 11
-83.2755932358
 21
7.2989026478
  0
LINE
  5
512
100
AcDbEntity
  8
ASSI
100
AcDbLine
 62
7
  6
CONTINUOUS
 10
-83.2868080587
 20
7.3054157636
 11
-83.2755932358
 21
7.2989026478
  0
LWPOLYLINE
  5
513
100
AcDbEntity
  8
RACCORDO
100
AcDbPolyline
 62
250
  6
CONTINUOUS
 90
5
 70
0
 10
-82.7242311778
 20
5.1775154236
 10
-82.7130707468
 20
5.1561432752
 10
-82.7048153255
 20
5.1325168357
 10
-82.699713894
 20
5.1073486684
 10
-82.6979203093
 20
5.0813978349
  0
LWPOLYLINE
  5
514
100
AcDbEntity
  8
ASSI
100
AcDbPolyline
 62
250
  6
CONTINUOUS
 90
5
 70
0
 10
-82.7242311778
 20
5.1775154236
 10
-82.7130707468
 20
5.1561432752
 10
-82.7048153255
 20
5.1325168357
 10
-82.699713894
 20
5.1073486684
 10
-82.6979203093
 20
5.0813978349
  0
LINE
  5
515
100
AcDbEntity
  8
CURVE
100
AcDbLine
 62
7
  6
CONTINUOUS
 10
-84.3314954678
 20
9.3313684113
 11
-83.6314954678
 21
7.9313684113
  0
LWPOLYLINE
  5
516
100
AcDbEntity
  8
DRAFT
100
AcDbPolyline
 62
7
  6
CONTINUOUS
 90
6
 70
0
 10
-82.6463659274
 20
4.3813684113
 10
-82.6467570292
 20
4.3830459377
 10
-82.6471403629
 20
4.387576777
 10
-82.6475159285
 20
4.3949609293
 10
-82.6478843726
 20
4.4052310039
 10
-82.6482450486
 20
4.4183543915
  0
LWPOLYLINE
  5
517
100
AcDbEntity
  8
ASSI
100
AcDbPolyline
 62
7
  6
CONTINUOUS
 90
6
 70
0
 10
-82.6463659274
 20
4.3813684113
 10
-82.6467570292
 20
4.3830459377
 10
-82.6471403629
 20
4.387576777
 10
-82.6475159285
 20
4.3949609293
 10
-82.6478843726
 20
4.4052310039
 10
-82.6482450486
 20
4.4183543915
  0
LWPOLYLINE
  5
518
100
AcDbEntity
  8
RACCORDO
100
AcDbPolyline
 62
7
  6
CONTINUOUS
 90
10
 70
0
 10
-82.6593977447
 20
5.0813978349
 10
-82.6617059331
 20
5.1075992295
 10
-82.6685536409
 20
5.1329897641
 10
-82.6797276256
 20
5.1567897383
 10
-82.6949110157
 20
5.1783043837
 10
-82.7136182816
 20
5.1968290365
 10
-82.7351534638
 20
5.2117260658
 10
-82.7587757903
 20
5.2225863023
 10
-82.783779752
 20
5.2291795547
 10
-82.8094038891
 20
5.2313802673
  0
LWPOLYLINE
  5
519
100
AcDbEntity
  8
ASSI
100
AcDbPolyline
 62
7
  6
CONTINUOUS
 90
10
 70
0
 10
-82.6593977447
 20
5.0813978349
 10
-82.6617059331
 20
5.1075992295
 10
-82.6685536409
 20
5.1329897641
 10
-82.6797276256
 20
5.1567897383
 10
-82.6949110157
 20
5.1783043837
 10
-82.7136182816
 20
5.1968290365
 10
-82.7351534638
 20
5.2117260658
 10
-82.7587757903
 20
5.2225863023
 10
-82.783779752
 20
5.2291795547
 10
-82.8094038891
 20
5.2313802673
  0
LWPOLYLINE
  5
51A
100
AcDbEntity
  8
RACCORDO
100
AcDbPolyline
 62
7
  6
CONTINUOUS
 90
10
 70
0
 10
-82.6593977447
 20
10.1034718579
 10
-82.6617059331
 20
10.1296732525
 10
-82.6685536409
 20
10.1550637872
 10
-82.6797276256
 20
10.1788637614
 10
-82.6949114548
 20
10.2003779676
 10
-82.7136191598
 20
10.2189021813
 10
-82.7351534638
 20
10.2338000889
 10
-82.7587731557
 20
10.24466296
 10
-82.7837731654
 20
10.2512601644
 10
-82.8093920331
 20
10.2534661464
  0
LWPOLYLINE
  5
51B
100
AcDbEntity
  8
ASSI
100
AcDbPolyline
 62
7
  6
CONTINUOUS
 90
10
 70
0
 10
-82.6593977447
 20
10.1034718579
 10
-82.6617059331
 20
10.1296732525
 10
-82.6685536409
 20
10.1550637872
 10
-82.6797276256
 20
10.1788637614
 10
-82.6949114548
 20
10.2003779676
 10
-82.7136191598
 20
10.2189021813
 10
-82.7351534638
 20
10.2338000889
 10
-82.7587731557
 20
10.24466296
 10
-82.7837731654
 20
10.2512601644
 10
-82.8093920331
 20
10.2534661464
  0
LINE
  5
51C
100
AcDbEntity
  8
RACCORDO
100
AcDbLine
 62
250
  6
CONTINUOUS
 10
-82.2897073181
 20
7.2652602656
 11
-82.2889575264
 21
7.2513684113
  0
LINE
  5
51D
100
AcDbEntity
  8
ASSI
100
AcDbLine
 62
250
  6
CONTINUOUS
 10
-82.2897073181
 20
7.2652602656
 11
-82.2889575264
 21
7.2513684113
  0
LWPOLYLINE
  5
51E
100
AcDbEntity
  8
RACCORDO
100
AcDbPolyline
 62
7
  6
CONTINUOUS
 90
21
 70
0
 10
-82.6581238498
 20
5.0826717298
 10
-82.6584062726
 20
5.090582829
 10
-82.6591133208
 20
5.0984797535
 10
-82.6602444495
 20
5.1063397917
 10
-82.6617942286
 20
5.1141229528
 10
-82.6637615173
 20
5.1218242975
 10
-82.6661585956
 20
5.1294717706
 10
-82.6689848742
 20
5.1370320916
 10
-82.6722438786
 20
5.1444880924
 10
-82.6759720031
 20
5.1518838679
 10
-82.6801807482
 20
5.1591890142
 10
-82.6848760132
 20
5.1663655784
 10
-82.6901044578
 20
5.1734321349
 10
-82.6958626664
 20
5.1803247293
 10
-82.7021723853
 20
5.1870140585
 10
-82.7091416379
 20
5.1935424577
 10
-82.7167745792
 20
5.19982376
 10
-82.7250945515
 20
5.2057906434
 10
-82.7342702969
 20
5.2114558118
 10
-82.7443045739
 20
5.216683646
 10
-82.7552083606
 20
5.2213452851
  0
LWPOLYLINE
  5
51F
100
AcDbEntity
  8
ASSI
100
AcDbPolyline
 62
7
  6
CONTINUOUS
 90
21
 70
0
 10
-82.6581238498
 20
5.0826717298
 10
-82.6584062726
 20
5.090582829
 10
-82.6591133208
 20
5.0984797535
 10
-82.6602444495
 20
5.1063397917
 10
-82.6617942286
 20
5.1141229528
 10
-82.6637615173
 20
5.1218242975
 10
-82.6661585956
 20
5.1294717706
 10
-82.6689848742
 20
5.1370320916
 10
-82.6722438786
 20
5.1444880924
 10
-82.6759720031
 20
5.1518838679
 10
-82.6801807482
 20
5.1591890142
 10
-82.6848760132
 20
5.1663655784
 10
-82.6901044578
 20
5.1734321349
 10
-82.6958626664
 20
5.1803247293
 10
-82.7021723853
 20
5.1870140585
 10
-82.7091416379
 20
5.1935424577
 10
-82.7167745792
 20
5.19982376
 10
-82.7250945515
 20
5.2057906434
 10
-82.7342702969
 20
5.2114558118
 10
-82.7443045739
 20
5.216683646
 10
-82.7552083606
 20
5.2213452851
  0
LINE
  5
520
100
AcDbEntity
  8
DRAFT
100
AcDbLine
 62
7
  6
CONTINUOUS
 10
-82.6482450486
 20
4.4183543915
 11
-82.648937886
 21
4.452845177
  0
LINE
  5
521
100
AcDbEntity
  8
ASSI
100
AcDbLine
 62
7
  6
CONTINUOUS
 10
-82.6482450486
 20
4.4183543915
 11
-82.648937886
 21
4.452845177
  0
LINE
  5
522
100
AcDbEntity
  8
DRAFT
100
AcDbLine
 62
7
  6
CONTINUOUS
 10
-82.6482450486
 20
7.9183543915
 11
-82.648937886
 21
7.952845177
  0
LINE
  5
523
100
AcDbEntity
  8
ASSI
100
AcDbLine
 62
7
  6
CONTINUOUS
 10
-82.6482450486
 20
7.9183543915
 11
-82.648937886
 21
7.952845177
  0
LINE
  5
524
100
AcDbEntity
  8
DRAFT
100
AcDbLine
 62
7
  6
CONTINUOUS
 10
-82.648937886
 20
4.452845177
 11
-82.6498940154
 21
4.5250443522
  0
LINE
  5
525
100
AcDbEntity
  8
ASSI
100
AcDbLine
 62
7
  6
CONTINUOUS
 10
-82.648937886
 20
4.452845177
 11
-82.6498940154
 21
4.5250443522
  0
LINE
  5
526
100
AcDbEntity
  8
DRAFT
100
AcDbLine
 62
7
  6
CONTINUOUS
 10
-82.648937886
 20
7.952845177
 11
-82.6498940154
 21
8.0250443522
  0
LINE
  5
527
100
AcDbEntity
  8
ASSI
100
AcDbLine
 62
7
  6
CONTINUOUS
 10
-82.648937886
 20
7.952845177
 11
-82.6498940154
 21
8.0250443522
  0
LINE
  5
528
100
AcDbEntity
  8
DRAFT
100
AcDbLine
 62
7
  6
CONTINUOUS
 10
-82.6498940154
 20
4.5250443522
 11
-82.6509600023
 21
4.6610099225
  0
LINE
  5
529
100
AcDbEntity
  8
ASSI
100
AcDbLine
 62
7
  6
CONTINUOUS
 10
-82.6498940154
 20
4.5250443522
 11
-82.6509600023
 21
4.6610099225
  0
LINE
  5
52A
100
AcDbEntity
  8
DRAFT
100
AcDbLine
 62
7
  6
CONTINUOUS
 10
-82.6498940154
 20
8.0250443522
 11
-82.6509600023
 21
8.1610099225
  0
LINE
  5
52B
100
AcDbEntity
  8
ASSI
100
AcDbLine
 62
7
  6
CONTINUOUS
 10
-82.6498940154
 20
8.0250443522
 11
-82.6509600023
 21
8.1610099225
  0
LINE
  5
52C
100
AcDbEntity
  8
DRAFT
100
AcDbLine
 62
7
  6
CONTINUOUS
 10
-82.6509600023
 20
4.6610099225
 11
-82.6517816973
 21
4.9332474377
  0
LINE
  5
52D
100
AcDbEntity
  8
ASSI
100
AcDbLine
 62
7
  6
CONTINUOUS
 10
-82.6509600023
 20
4.6610099225
 11
-82.6517816973
 21
4.9332474377
  0
LINE
  5
52E
100
AcDbEntity
  8
DRAFT
100
AcDbLine
 62
7
  6
CONTINUOUS
 10
-82.6509600023
 20
8.1610099225
 11
-82.6517816973
 21
8.4332474377
  0
LINE
  5
52F
100
AcDbEntity
  8
ASSI
100
AcDbLine
 62
7
  6
CONTINUOUS
 10
-82.6509600023
 20
8.1610099225
 11
-82.6517816973
 21
8.4332474377
  0
LINE
  5
530
100
AcDbEntity
  8
RACCORDO
100
AcDbLine
 62
250
  6
CONTINUOUS
 10
-82.8081181383
 20
5.2313684113
 11
-82.8081181383
 21
6.2113684113
  0
LINE
  5
531
100
AcDbEntity
  8
ASSI
100
AcDbLine
 62
250
  6
CONTINUOUS
 10
-82.8081181383
 20
5.2313684113
 11
-82.8081181383
 21
6.2113684113
  0
LINE
  5
532
100
AcDbEntity
  8
RACCORDO
100
AcDbLine
 62
250
  6
CONTINUOUS
 10
-82.8081181383
 20
7.2513684113
 11
-82.8081181383
 21
8.2313684113
  0
LINE
  5
533
100
AcDbEntity
  8
ASSI
100
AcDbLine
 62
250
  6
CONTINUOUS
 10
-82.8081181383
 20
7.2513684113
 11
-82.8081181383
 21
8.2313684113
  0
LINE
  5
534
100
AcDbEntity
  8
RACCORDO
100
AcDbLine
 62
250
  6
CONTINUOUS
 10
-82.7457268113
 20
6.1667602349
 11
-82.7457268113
 21
7.2959765878
  0
LINE
  5
535
100
AcDbEntity
  8
ASSI
100
AcDbLine
 62
250
  6
CONTINUOUS
 10
-82.7457268113
 20
6.1667602349
 11
-82.7457268113
 21
7.2959765878
  0
LINE
  5
536
100
AcDbEntity
  8
RACCORDO
100
AcDbLine
 62
250
  6
CONTINUOUS
 10
-82.6979203093
 20
10.1034718579
 11
-82.6979203093
 21
8.3813389878
  0
LINE
  5
537
100
AcDbEntity
  8
ASSI
100
AcDbLine
 62
250
  6
CONTINUOUS
 10
-82.6979203093
 20
10.1034718579
 11
-82.6979203093
 21
8.3813389878
  0
LINE
  5
538
100
AcDbEntity
  8
RACCORDO
100
AcDbLine
 62
250
  6
CONTINUOUS
 10
-82.6979203093
 20
5.0813978349
 11
-82.6979203093
 21
3.3592649647
  0
LINE
  5
539
100
AcDbEntity
  8
ASSI
100
AcDbLine
 62
250
  6
CONTINUOUS
 10
-82.6979203093
 20
5.0813978349
 11
-82.6979203093
 21
3.3592649647
  0
LINE
  5
53A
100
AcDbEntity
  8
RACCORDO
100
AcDbLine
 62
7
  6
CONTINUOUS
 10
-82.6593977447
 20
10.1034718579
 11
-82.6593977447
 21
8.3813389878
  0
LINE
  5
53B
100
AcDbEntity
  8
RACCORDO
100
AcDbLine
 62
7
  6
CONTINUOUS
 10
-82.6593977447
 20
5.0813978349
 11
-82.6593977447
 21
3.3592649647
  0
LINE
  5
53C
100
AcDbEntity
  8
0
100
AcDbLine
 62
7
  6
CONTINUOUS
 10
-82.6581238498
 20
8.3800650929
 11
-82.6581238498
 21
7.3313684113
  0
LINE
  5
53D
100
AcDbEntity
  8
ASSI
100
AcDbLine
 62
7
  6
CONTINUOUS
 10
-82.6593977447
 20
10.1034718579
 11
-82.6581238498
 21
7.3313684113
  0
LINE
  5
53E
100
AcDbEntity
  8
0
100
AcDbLine
 62
7
  6
CONTINUOUS
 10
-82.6581238498
 20
6.1313684113
 11
-82.6581238498
 21
5.0826717298
  0
LINE
  5
53F
100
AcDbEntity
  8
ASSI
100
AcDbLine
 62
7
  6
CONTINUOUS
 10
-82.6581238498
 20
6.1313684113
 11
-82.6593977447
 21
3.3592649647
  0
LINE
  5
540
100
AcDbEntity
  8
RACCORDO
100
AcDbLine
 62
7
  6
CONTINUOUS
 10
-82.6314954797
 20
10.1313741229
 11
-82.6314954797
 21
9.0813684113
  0
LINE
  5
541
100
AcDbEntity
  8
ASSI
100
AcDbLine
 62
7
  6
CONTINUOUS
 10
-82.6314954797
 20
10.1313741229
 11
-82.6314954797
 21
9.0813684113
  0
LINE
  5
542
100
AcDbEntity
  8
DRAFT
100
AcDbLine
 62
7
  6
CONTINUOUS
 10
-82.6314954797
 20
7.8813684113
 11
-82.6314954797
 21
7.3313684113
  0
LINE
  5
543
100
AcDbEntity
  8
ASSI
100
AcDbLine
 62
7
  6
CONTINUOUS
 10
-82.6314954797
 20
7.8813684113
 11
-82.6314954797
 21
7.3313684113
  0
LINE
  5
544
100
AcDbEntity
  8
DRAFT
100
AcDbLine
 62
7
  6
CONTINUOUS
 10
-82.6314954797
 20
6.1313684113
 11
-82.6314954797
 21
5.5813684113
  0
LINE
  5
545
100
AcDbEntity
  8
ASSI
100
AcDbLine
 62
7
  6
CONTINUOUS
 10
-82.6314954797
 20
6.1313684113
 11
-82.6314954797
 21
5.5813684113
  0
LINE
  5
546
100
AcDbEntity
  8
RACCORDO
100
AcDbLine
 62
7
  6
CONTINUOUS
 10
-82.6314954797
 20
4.3813684113
 11
-82.6314954797
 21
3.3313626998
  0
LINE
  5
547
100
AcDbEntity
  8
ASSI
100
AcDbLine
 62
7
  6
CONTINUOUS
 10
-82.6314954797
 20
4.3813684113
 11
-82.6314954797
 21
3.3313626998
  0
LINE
  5
548
100
AcDbEntity
  8
RACCORDO
100
AcDbLine
 62
250
  6
CONTINUOUS
 10
-82.5914968891
 20
6.2113684113
 11
-82.5914968891
 21
7.2513684113
  0
LINE
  5
549
100
AcDbEntity
  8
ASSI
100
AcDbLine
 62
250
  6
CONTINUOUS
 10
-82.5914968891
 20
6.2113684113
 11
-82.5914968891
 21
7.2513684113
  0
LINE
  5
54A
100
AcDbEntity
  8
RACCORDO
100
AcDbLine
 62
250
  6
CONTINUOUS
 10
-82.2889575264
 20
6.2113684113
 11
-82.2889575264
 21
7.2513684113
  0
LINE
  5
54B
100
AcDbEntity
  8
ASSI
100
AcDbLine
 62
250
  6
CONTINUOUS
 10
-82.2889575264
 20
6.2113684113
 11
-82.2889575264
 21
7.2513684113
  0
LINE
  5
54C
100
AcDbEntity
  8
RACCORDO
100
AcDbLine
 62
7
  6
CONTINUOUS
 10
-82.2314954797
 20
6.2113684113
 11
-82.2314954797
 21
7.2513684113
  0
LINE
  5
54D
100
AcDbEntity
  8
ASSI
100
AcDbLine
 62
7
  6
CONTINUOUS
 10
-82.2314954797
 20
6.2113684113
 11
-82.2314954797
 21
7.2513684113
  0
LINE
  5
54E
100
AcDbEntity
  8
DRAFT
100
AcDbLine
 62
7
  6
CONTINUOUS
 10
-82.6517816973
 20
8.4332474377
 11
-82.6513589646
 21
8.7175465472
  0
LINE
  5
54F
100
AcDbEntity
  8
ASSI
100
AcDbLine
 62
7
  6
CONTINUOUS
 10
-82.6517816973
 20
8.4332474377
 11
-82.6513589646
 21
8.7175465472
  0
LINE
  5
550
100
AcDbEntity
  8
DRAFT
100
AcDbLine
 62
7
  6
CONTINUOUS
 10
-82.6517816973
 20
4.9332474377
 11
-82.6513589646
 21
5.2175465472
  0
LINE
  5
551
100
AcDbEntity
  8
ASSI
100
AcDbLine
 62
7
  6
CONTINUOUS
 10
-82.6517816973
 20
4.9332474377
 11
-82.6513589646
 21
5.2175465472
  0
LINE
  5
552
100
AcDbEntity
  8
DRAFT
100
AcDbLine
 62
7
  6
CONTINUOUS
 10
-82.6513589646
 20
8.7175465472
 11
-82.6501851989
 21
8.9082961636
  0
LINE
  5
553
100
AcDbEntity
  8
ASSI
100
AcDbLine
 62
7
  6
CONTINUOUS
 10
-82.6513589646
 20
8.7175465472
 11
-82.6501851989
 21
8.9082961636
  0
LINE
  5
554
100
AcDbEntity
  8
DRAFT
100
AcDbLine
 62
7
  6
CONTINUOUS
 10
-82.6513589646
 20
5.2175465472
 11
-82.6501851989
 21
5.4082961636
  0
LINE
  5
555
100
AcDbEntity
  8
ASSI
100
AcDbLine
 62
7
  6
CONTINUOUS
 10
-82.6513589646
 20
5.2175465472
 11
-82.6501851989
 21
5.4082961636
  0
LINE
  5
556
100
AcDbEntity
  8
DRAFT
100
AcDbLine
 62
7
  6
CONTINUOUS
 10
-82.6501851989
 20
8.9082961636
 11
-82.649269506
 21
8.988562168
  0
LINE
  5
557
100
AcDbEntity
  8
ASSI
100
AcDbLine
 62
7
  6
CONTINUOUS
 10
-82.6501851989
 20
8.9082961636
 11
-82.649269506
 21
8.988562168
  0
LINE
  5
558
100
AcDbEntity
  8
DRAFT
100
AcDbLine
 62
7
  6
CONTINUOUS
 10
-82.6501851989
 20
5.4082961636
 11
-82.649269506
 21
5.488562168
  0
LINE
  5
559
100
AcDbEntity
  8
ASSI
100
AcDbLine
 62
7
  6
CONTINUOUS
 10
-82.6501851989
 20
5.4082961636
 11
-82.649269506
 21
5.488562168
  0
LWPOLYLINE
  5
55A
100
AcDbEntity
  8
DRAFT
100
AcDbPolyline
 62
7
  6
CONTINUOUS
 90
8
 70
0
 10
-82.649269506
 20
8.988562168
 10
-82.6485955914
 20
9.0285246685
 10
-82.6482446917
 20
9.0443970019
 10
-82.6478840901
 20
9.0575149852
 10
-82.6475157195
 20
9.0677808905
 10
-82.6471402243
 20
9.075162142
 10
-82.6467569603
 20
9.0796913156
 10
-82.6463659274
 20
9.0813684113
  0
LWPOLYLINE
  5
55B
100
AcDbEntity
  8
ASSI
100
AcDbPolyline
 62
7
  6
CONTINUOUS
 90
8
 70
0
 10
-82.649269506
 20
8.988562168
 10
-82.6485955914
 20
9.0285246685
 10
-82.6482446917
 20
9.0443970019
 10
-82.6478840901
 20
9.0575149852
 10
-82.6475157195
 20
9.0677808905
 10
-82.6471402243
 20
9.075162142
 10
-82.6467569603
 20
9.0796913156
 10
-82.6463659274
 20
9.0813684113
  0
LWPOLYLINE
  5
55C
100
AcDbEntity
  8
DRAFT
100
AcDbPolyline
 62
7
  6
CONTINUOUS
 90
8
 70
0
 10
-82.649269506
 20
5.488562168
 10
-82.6485955914
 20
5.5285246685
 10
-82.6482446917
 20
5.5443970019
 10
-82.6478840901
 20
5.5575149852
 10
-82.6475157195
 20
5.5677808905
 10
-82.6471402243
 20
5.575162142
 10
-82.6467569603
 20
5.5796913156
 10
-82.6463659274
 20
5.5813684113
  0
LWPOLYLINE
  5
55D
100
AcDbEntity
  8
ASSI
100
AcDbPolyline
 62
7
  6
CONTINUOUS
 90
8
 70
0
 10
-82.649269506
 20
5.488562168
 10
-82.6485955914
 20
5.5285246685
 10
-82.6482446917
 20
5.5443970019
 10
-82.6478840901
 20
5.5575149852
 10
-82.6475157195
 20
5.5677808905
 10
-82.6471402243
 20
5.575162142
 10
-82.6467569603
 20
5.5796913156
 10
-82.6463659274
 20
5.5813684113
  0
LINE
  5
55E
100
AcDbEntity
  8
RACCORDO
100
AcDbLine
 62
250
  6
CONTINUOUS
 10
-82.2897073181
 20
6.1974765571
 11
-82.2889575264
 21
6.2113684113
  0
LINE
  5
55F
100
AcDbEntity
  8
ASSI
100
AcDbLine
 62
250
  6
CONTINUOUS
 10
-82.2897073181
 20
6.1974765571
 11
-82.2889575264
 21
6.2113684113
  0
LINE
  5
560
100
AcDbEntity
  8
RACCORDO
100
AcDbLine
 62
250
  6
CONTINUOUS
 10
-82.6979203093
 20
8.3813389878
 11
-82.6997357768
 21
8.3552264204
  0
LINE
  5
561
100
AcDbEntity
  8
ASSI
100
AcDbLine
 62
250
  6
CONTINUOUS
 10
-82.6979203093
 20
8.3813389878
 11
-82.6997357768
 21
8.3552264204
  0
LINE
  5
562
100
AcDbEntity
  8
RACCORDO
100
AcDbLine
 62
250
  6
CONTINUOUS
 10
-82.6979203093
 20
3.3592649647
 11
-82.6997357768
 21
3.3331523973
  0
LINE
  5
563
100
AcDbEntity
  8
ASSI
100
AcDbLine
 62
250
  6
CONTINUOUS
 10
-82.6979203093
 20
3.3592649647
 11
-82.6997357768
 21
3.3331523973
  0
LWPOLYLINE
  5
564
100
AcDbEntity
  8
RACCORDO
100
AcDbPolyline
 62
250
  6
CONTINUOUS
 90
9
 70
0
 10
-82.6997357768
 20
3.3331523973
 10
-82.7048984415
 20
3.307843327
 10
-82.7132483284
 20
3.2841094418
 10
-82.724550708
 20
3.2626381192
 10
-82.7384457346
 20
3.2441278989
 10
-82.7544170613
 20
3.2292115714
 10
-82.7719176337
 20
3.2182947354
 10
-82.7904291923
 20
3.2116058387
 10
-82.8093920331
 20
3.2092706763
  0
LWPOLYLINE
  5
565
100
AcDbEntity
  8
ASSI
100
AcDbPolyline
 62
250
  6
CONTINUOUS
 90
9
 70
0
 10
-82.6997357768
 20
3.3331523973
 10
-82.7048984415
 20
3.307843327
 10
-82.7132483284
 20
3.2841094418
 10
-82.724550708
 20
3.2626381192
 10
-82.7384457346
 20
3.2441278989
 10
-82.7544170613
 20
3.2292115714
 10
-82.7719176337
 20
3.2182947354
 10
-82.7904291923
 20
3.2116058387
 10
-82.8093920331
 20
3.2092706763
  0
LWPOLYLINE
  5
566
100
AcDbEntity
  8
RACCORDO
100
AcDbPolyline
 62
250
  6
CONTINUOUS
 90
4
 70
0
 10
-82.5981090145
 20
6.1713684113
 10
-82.5944732739
 20
6.1840067998
 10
-82.5922466808
 20
6.1974765571
 10
-82.5914968891
 20
6.2113684113
  0
LWPOLYLINE
  5
567
100
AcDbEntity
  8
ASSI
100
AcDbPolyline
 62
250
  6
CONTINUOUS
 90
4
 70
0
 10
-82.5981090145
 20
6.1713684113
 10
-82.5944732739
 20
6.1840067998
 10
-82.5922466808
 20
6.1974765571
 10
-82.5914968891
 20
6.2113684113
  0
LWPOLYLINE
  5
568
100
AcDbEntity
  8
RACCORDO
100
AcDbPolyline
 62
250
  6
CONTINUOUS
 90
3
 70
0
 10
-82.2955696517
 20
6.1713684113
 10
-82.2919339112
 20
6.1840067999
 10
-82.2897073181
 20
6.1974765571
  0
LWPOLYLINE
  5
569
100
AcDbEntity
  8
ASSI
100
AcDbPolyline
 62
250
  6
CONTINUOUS
 90
3
 70
0
 10
-82.2955696517
 20
6.1713684113
 10
-82.2919339112
 20
6.1840067999
 10
-82.2897073181
 20
6.1974765571
  0
LWPOLYLINE
  5
56A
100
AcDbEntity
  8
RACCORDO
100
AcDbPolyline
 62
250
  6
CONTINUOUS
 90
3
 70
0
 10
-82.6091265977
 20
6.1500848558
 10
-82.6030434323
 20
6.1599454025
 10
-82.5981090145
 20
6.1713684113
  0
LWPOLYLINE
  5
56B
100
AcDbEntity
  8
ASSI
100
AcDbPolyline
 62
250
  6
CONTINUOUS
 90
3
 70
0
 10
-82.6091265977
 20
6.1500848558
 10
-82.6030434323
 20
6.1599454025
 10
-82.5981090145
 20
6.1713684113
  0
LINE
  5
56C
100
AcDbEntity
  8
RACCORDO
100
AcDbLine
 62
7
  6
CONTINUOUS
 10
-85.1201268392
 20
3.2149782756
 11
-85.13716355
 21
3.206460569
  0
LINE
  5
56D
100
AcDbEntity
  8
ASSI
100
AcDbLine
 62
7
  6
CONTINUOUS
 10
-85.1201268392
 20
3.2149782756
 11
-85.13716355
 21
3.206460569
  0
LINE
  5
56E
100
AcDbEntity
  8
CURVE
100
AcDbLine
 62
7
  6
CONTINUOUS
 10
-88.6502454797
 20
8.8188684113
 11
-88.8252454797
 21
8.7751184113
  0
LINE
  5
56F
100
AcDbEntity
  8
RACCORDO
100
AcDbLine
 62
250
  6
CONTINUOUS
 10
-83.2868080587
 20
10.0977642586
 11
-82.6979203093
 21
10.1034718579
  0
LINE
  5
570
100
AcDbEntity
  8
ASSI
100
AcDbLine
 62
250
  6
CONTINUOUS
 10
-83.2868080587
 20
10.0977642586
 11
-82.6979203093
 21
10.1034718579
  0
LINE
  5
571
100
AcDbEntity
  8
RACCORDO
100
AcDbLine
 62
250
  6
CONTINUOUS
 10
-83.3982797825
 20
10.247758547
 11
-82.8093920331
 21
10.2534661464
  0
LINE
  5
572
100
AcDbEntity
  8
ASSI
100
AcDbLine
 62
250
  6
CONTINUOUS
 10
-83.3982797825
 20
10.247758547
 11
-82.8093920331
 21
10.2534661464
  0
LINE
  5
573
100
AcDbEntity
  8
RACCORDO
100
AcDbLine
 62
250
  6
CONTINUOUS
 10
-99.9048728212
 20
10.2547400413
 11
-99.9061818024
 21
10.2547342298
  0
LINE
  5
574
100
AcDbEntity
  8
ASSI
100
AcDbLine
 62
250
  6
CONTINUOUS
 10
-99.9048728212
 20
10.2547400413
 11
-99.9061818024
 21
10.2547342298
  0
LINE
  5
575
100
AcDbEntity
  8
0
100
AcDbLine
 62
7
  6
CONTINUOUS
 10
-99.9182303316
 20
10.2680975516
 11
-98.5871565472
 21
10.2735142303
  0
LINE
  5
576
100
AcDbEntity
  8
ASSI
100
AcDbLine
 62
7
  6
CONTINUOUS
 10
-99.9182303316
 20
10.2680975516
 11
-98.5871565472
 21
10.2735142303
  0
LINE
  5
577
100
AcDbEntity
  8
CURVE
100
AcDbLine
 62
7
  6
CONTINUOUS
 10
-88.6502454797
 20
9.3438684113
 11
-88.7377454797
 21
9.3438684113
  0
LINE
  5
578
100
AcDbEntity
  8
CURVE
100
AcDbLine
 62
7
  6
CONTINUOUS
 10
-100.3314954768
 20
9.4313684113
 11
-100.2314954619
 21
9.4313684113
  0
LINE
  5
579
100
AcDbEntity
  8
CURVE
100
AcDbLine
 62
7
  6
CONTINUOUS
 10
-99.2314954797
 20
9.4313684113
 11
-99.1314955274
 21
9.4313684113
  0
LINE
  5
57A
100
AcDbEntity
  8
CURVE
100
AcDbLine
 62
7
  6
CONTINUOUS
 10
-96.2314955751
 20
9.4313684113
 11
-95.6314955274
 21
9.4313684113
  0
LINE
  5
57B
100
AcDbEntity
  8
CURVE
100
AcDbLine
 62
7
  6
CONTINUOUS
 10
-94.2314951936
 20
9.4313684113
 11
-93.7314957658
 21
9.4313684113
  0
LINE
  5
57C
100
AcDbEntity
  8
CURVE
100
AcDbLine
 62
7
  6
CONTINUOUS
 10
-97.931495432
 20
9.4313684113
 11
-98.2314954559
 21
9.4313684113
  0
LINE
  5
57D
100
AcDbEntity
  8
RACCORDO
100
AcDbLine
 62
250
  6
CONTINUOUS
 10
-101.3754294626
 20
9.7756902355
 11
-97.1175314278
 21
9.7756902355
  0
LINE
  5
57E
100
AcDbEntity
  8
ASSI
100
AcDbLine
 62
250
  6
CONTINUOUS
 10
-101.3754294626
 20
9.7756902355
 11
-97.1175314278
 21
9.7756902355
  0
LINE
  5
57F
100
AcDbEntity
  8
RACCORDO
100
AcDbLine
 62
250
  6
CONTINUOUS
 10
-102.103859169
 20
9.7815470059
 11
-102.0599308977
 21
9.7815470059
  0
LINE
  5
580
100
AcDbEntity
  8
ASSI
100
AcDbLine
 62
250
  6
CONTINUOUS
 10
-102.103859169
 20
9.7815470059
 11
-102.0599308977
 21
9.7815470059
  0
LINE
  5
581
100
AcDbEntity
  8
RACCORDO
100
AcDbLine
 62
7
  6
CONTINUOUS
 10
-101.2692074127
 20
9.925684524
 11
-97.1201268392
 21
9.925684524
  0
LINE
  5
582
100
AcDbEntity
  8
ASSI
100
AcDbLine
 62
7
  6
CONTINUOUS
 10
-101.2692074127
 20
9.925684524
 11
-97.1201268392
 21
9.925684524
  0
LINE
  5
583
100
AcDbEntity
  8
DRAFT
100
AcDbLine
 62
7
  6
CONTINUOUS
 10
-97.1314954797
 20
9.9313684113
 11
-99.1314954797
 21
9.9313684113
  0
LINE
  5
584
100
AcDbEntity
  8
RACCORDO
100
AcDbLine
 62
7
  6
CONTINUOUS
 10
-99.1314954797
 20
9.9313684113
 11
-101.9203233703
 21
9.9313684113
  0
LINE
  5
585
100
AcDbEntity
  8
ASSI
100
AcDbLine
 62
7
  6
CONTINUOUS
 10
-97.1314954797
 20
9.9313684113
 11
-101.9203233703
 21
9.9313684113
  0
LINE
  5
586
100
AcDbEntity
  8
0
100
AcDbLine
 62
7
  6
CONTINUOUS
 10
-101.9771618978
 20
9.945522933
 11
-100.0771607556
 21
9.945522933
  0
LINE
  5
587
100
AcDbEntity
  8
ASSI
100
AcDbLine
 62
7
  6
CONTINUOUS
 10
-101.9771618978
 20
9.945522933
 11
-100.0771607556
 21
9.945522933
  0
LINE
  5
588
100
AcDbEntity
  8
0
100
AcDbLine
 62
7
  6
CONTINUOUS
 10
-100.0676167063
 20
10.0166338075
 11
-100.0736412987
 21
10.0166338075
  0
LINE
  5
589
100
AcDbEntity
  8
ASSI
100
AcDbLine
 62
7
  6
CONTINUOUS
 10
-100.0676167063
 20
10.0166338075
 11
-100.0736412987
 21
10.0166338075
  0
LINE
  5
58A
100
AcDbEntity
  8
RACCORDO
100
AcDbLine
 62
250
  6
CONTINUOUS
 10
-83.2868080587
 20
10.0977642586
 11
-97.1175314278
 21
10.0977642586
  0
LINE
  5
58B
100
AcDbEntity
  8
ASSI
100
AcDbLine
 62
250
  6
CONTINUOUS
 10
-83.2868080587
 20
10.0977642586
 11
-97.1175314278
 21
10.0977642586
  0
LINE
  5
58C
100
AcDbEntity
  8
RACCORDO
100
AcDbLine
 62
250
  6
CONTINUOUS
 10
-82.6979203093
 20
10.1034718579
 11
-82.6593977447
 21
10.1034718579
  0
LINE
  5
58D
100
AcDbEntity
  8
ASSI
100
AcDbLine
 62
250
  6
CONTINUOUS
 10
-82.6979203093
 20
10.1034718579
 11
-82.6593977447
 21
10.1034718579
  0
LINE
  5
58E
100
AcDbEntity
  8
RACCORDO
100
AcDbLine
 62
250
  6
CONTINUOUS
 10
-100.0548671097
 20
10.1047457528
 11
-99.1314954797
 21
10.1047457528
  0
LINE
  5
58F
100
AcDbEntity
  8
ASSI
100
AcDbLine
 62
250
  6
CONTINUOUS
 10
-100.0548671097
 20
10.1047457528
 11
-99.1314954797
 21
10.1047457528
  0
LINE
  5
590
100
AcDbEntity
  8
RACCORDO
100
AcDbLine
 62
7
  6
CONTINUOUS
 10
-83.3982797825
 20
10.247758547
 11
-97.1201268392
 21
10.247758547
  0
LINE
  5
591
100
AcDbEntity
  8
ASSI
100
AcDbLine
 62
7
  6
CONTINUOUS
 10
-83.3982797825
 20
10.247758547
 11
-97.1201268392
 21
10.247758547
  0
LINE
  5
592
100
AcDbEntity
  8
RACCORDO
100
AcDbLine
 62
7
  6
CONTINUOUS
 10
-99.9048728212
 20
10.2547400413
 11
-99.1314954797
 21
10.2547400413
  0
LINE
  5
593
100
AcDbEntity
  8
ASSI
100
AcDbLine
 62
7
  6
CONTINUOUS
 10
-99.9048728212
 20
10.2547400413
 11
-99.1314954797
 21
10.2547400413
  0
LINE
  5
594
100
AcDbEntity
  8
DRAFT
100
AcDbLine
 62
7
  6
CONTINUOUS
 10
-99.1314954797
 20
10.2566870201
 11
-97.1379851454
 21
10.2566870201
  0
LINE
  5
595
100
AcDbEntity
  8
ASSI
100
AcDbLine
 62
7
  6
CONTINUOUS
 10
-99.1314954797
 20
10.2566870201
 11
-97.1379851454
 21
10.2566870201
  0
LINE
  5
596
100
AcDbEntity
  8
0
100
AcDbLine
 62
7
  6
CONTINUOUS
 10
-98.5871565472
 20
10.2735142303
 11
-97.1349864927
 21
10.2735142303
  0
LINE
  5
597
100
AcDbEntity
  8
ASSI
100
AcDbLine
 62
7
  6
CONTINUOUS
 10
-98.5871565472
 20
10.2735142303
 11
-97.1349864927
 21
10.2735142303
  0
LINE
  5
598
100
AcDbEntity
  8
RACCORDO
100
AcDbLine
 62
7
  6
CONTINUOUS
 10
-97.1192769343
 20
10.2813684113
 11
-82.7814897682
 21
10.2813684113
  0
LINE
  5
599
100
AcDbEntity
  8
ASSI
100
AcDbLine
 62
7
  6
CONTINUOUS
 10
-97.1192769343
 20
10.2813684113
 11
-82.7814897682
 21
10.2813684113
  0
LINE
  5
59A
100
AcDbEntity
  8
RACCORDO
100
AcDbLine
 62
7
  6
CONTINUOUS
 10
-101.9203233703
 20
9.9313684113
 11
-101.9538648704
 21
9.9315440394
  0
LINE
  5
59B
100
AcDbEntity
  8
ASSI
100
AcDbLine
 62
7
  6
CONTINUOUS
 10
-101.9203233703
 20
9.9313684113
 11
-101.9538648704
 21
9.9315440394
  0
LWPOLYLINE
  5
59C
100
AcDbEntity
  8
RACCORDO
100
AcDbPolyline
 62
7
  6
CONTINUOUS
 90
5
 70
0
 10
-100.0005113745
 20
9.9315501135
 10
-100.0343378753
 20
9.9317571615
 10
-100.044993665
 20
9.9318754136
 10
-100.0518367431
 20
9.9320053474
 10
-100.0548671097
 20
9.9321469628
  0
LWPOLYLINE
  5
59D
100
AcDbEntity
  8
ASSI
100
AcDbPolyline
 62
7
  6
CONTINUOUS
 90
5
 70
0
 10
-100.0005113745
 20
9.9315501135
 10
-100.0343378753
 20
9.9317571615
 10
-100.044993665
 20
9.9318754136
 10
-100.0518367431
 20
9.9320053474
 10
-100.0548671097
 20
9.9321469628
  0
LINE
  5
59E
100
AcDbEntity
  8
RACCORDO
100
AcDbLine
 62
250
  6
CONTINUOUS
 10
-101.3754294626
 20
9.7756905079
 11
-102.0599308977
 21
9.7815473093
  0
LINE
  5
59F
100
AcDbEntity
  8
ASSI
100
AcDbLine
 62
250
  6
CONTINUOUS
 10
-101.3754294626
 20
9.7756905079
 11
-102.0599308977
 21
9.7815473093
  0
LINE
  5
5A0
100
AcDbEntity
  8
RACCORDO
100
AcDbLine
 62
250
  6
CONTINUOUS
 10
-101.2692074127
 20
9.925684524
 11
-101.9204978946
 21
9.9313684113
  0
LINE
  5
5A1
100
AcDbEntity
  8
ASSI
100
AcDbLine
 62
250
  6
CONTINUOUS
 10
-101.2692074127
 20
9.925684524
 11
-101.9204978946
 21
9.9313684113
  0
LWPOLYLINE
  5
5A2
100
AcDbEntity
  8
RACCORDO
100
AcDbPolyline
 62
7
  6
CONTINUOUS
 90
13
 70
0
 10
-83.2755932358
 20
8.3869378912
 10
-83.2700405424
 20
8.3782601754
 10
-83.2648316191
 20
8.3696054532
 10
-83.2599929163
 20
8.3609737246
 10
-83.2555557171
 20
8.3523418533
 10
-83.2515387562
 20
8.3437329757
 10
-83.2479539055
 20
8.3352165007
 10
-83.244831962
 20
8.3267895916
 10
-83.2421987447
 20
8.3184550852
 10
-83.2400714504
 20
8.3102909007
 10
-83.2384829684
 20
8.3023230111
 10
-83.2374718058
 20
8.2945254435
 10
-83.2370706711
 20
8.2868981977
  0
LWPOLYLINE
  5
5A3
100
AcDbEntity
  8
ASSI
100
AcDbPolyline
 62
7
  6
CONTINUOUS
 90
13
 70
0
 10
-83.2755932358
 20
8.3869378912
 10
-83.2700405424
 20
8.3782601754
 10
-83.2648316191
 20
8.3696054532
 10
-83.2599929163
 20
8.3609737246
 10
-83.2555557171
 20
8.3523418533
 10
-83.2515387562
 20
8.3437329757
 10
-83.2479539055
 20
8.3352165007
 10
-83.244831962
 20
8.3267895916
 10
-83.2421987447
 20
8.3184550852
 10
-83.2400714504
 20
8.3102909007
 10
-83.2384829684
 20
8.3023230111
 10
-83.2374718058
 20
8.2945254435
 10
-83.2370706711
 20
8.2868981977
  0
LWPOLYLINE
  5
5A4
100
AcDbEntity
  8
RACCORDO
100
AcDbPolyline
 62
250
  6
CONTINUOUS
 90
3
 70
0
 10
-82.6091265977
 20
7.3126519669
 10
-82.6030434323
 20
7.3027914202
 10
-82.5981090145
 20
7.2913684114
  0
LWPOLYLINE
  5
5A5
100
AcDbEntity
  8
ASSI
100
AcDbPolyline
 62
250
  6
CONTINUOUS
 90
3
 70
0
 10
-82.6091265977
 20
7.3126519669
 10
-82.6030434323
 20
7.3027914202
 10
-82.5981090145
 20
7.2913684114
  0
LWPOLYLINE
  5
5A6
100
AcDbEntity
  8
RACCORDO
100
AcDbPolyline
 62
250
  6
CONTINUOUS
 90
4
 70
0
 10
-82.5981090145
 20
7.2913684114
 10
-82.5944732739
 20
7.2787300229
 10
-82.5922466808
 20
7.2652602656
 10
-82.5914968891
 20
7.2513684113
  0
LWPOLYLINE
  5
5A7
100
AcDbEntity
  8
ASSI
100
AcDbPolyline
 62
250
  6
CONTINUOUS
 90
4
 70
0
 10
-82.5981090145
 20
7.2913684114
 10
-82.5944732739
 20
7.2787300229
 10
-82.5922466808
 20
7.2652602656
 10
-82.5914968891
 20
7.2513684113
  0
LWPOLYLINE
  5
5A8
100
AcDbEntity
  8
RACCORDO
100
AcDbPolyline
 62
250
  6
CONTINUOUS
 90
3
 70
0
 10
-82.2955696517
 20
7.2913684113
 10
-82.2919339112
 20
7.2787300228
 10
-82.2897073181
 20
7.2652602656
  0
LWPOLYLINE
  5
5A9
100
AcDbEntity
  8
ASSI
100
AcDbPolyline
 62
250
  6
CONTINUOUS
 90
3
 70
0
 10
-82.2955696517
 20
7.2913684113
 10
-82.2919339112
 20
7.2787300228
 10
-82.2897073181
 20
7.2652602656
  0
LWPOLYLINE
  5
5AA
100
AcDbEntity
  8
DRAFT
100
AcDbPolyline
 62
7
  6
CONTINUOUS
 90
6
 70
0
 10
-82.6463659274
 20
7.8813684113
 10
-82.6467570292
 20
7.8830459377
 10
-82.6471403629
 20
7.887576777
 10
-82.6475159285
 20
7.8949609293
 10
-82.6478843726
 20
7.9052310039
 10
-82.6482450486
 20
7.9183543915
  0
LWPOLYLINE
  5
5AB
100
AcDbEntity
  8
ASSI
100
AcDbPolyline
 62
7
  6
CONTINUOUS
 90
6
 70
0
 10
-82.6463659274
 20
7.8813684113
 10
-82.6467570292
 20
7.8830459377
 10
-82.6471403629
 20
7.887576777
 10
-82.6475159285
 20
7.8949609293
 10
-82.6478843726
 20
7.9052310039
 10
-82.6482450486
 20
7.9183543915
  0
LWPOLYLINE
  5
5AC
100
AcDbEntity
  8
0
100
AcDbPolyline
 62
7
  6
CONTINUOUS
 90
3
 70
0
 43
0.3500000006
 10
-68.6181075897
 20
17.3667230072
 10
-67.7609651184
 20
18.2238654785
 10
-67.7609651184
 20
15.223864563
  0
LWPOLYLINE
  5
5AD
100
AcDbEntity
  8
RACCORDO
100
AcDbPolyline
 62
7
  6
CONTINUOUS
 90
10
 70
0
 10
-102.281387102
 20
8.9813684113
 10
-102.2542201724
 20
8.9841861484
 10
-102.2292701019
 20
8.9908839564
 10
-102.2065368907
 20
9.0014618354
 10
-102.1854722491
 20
9.0164599236
 10
-102.1666244667
 20
9.0353380829
 10
-102.1516384117
 20
9.0564758983
 10
-102.1410623736
 20
9.0793332314
 10
-102.134348063
 20
9.1044502207
 10
-102.1314954797
 20
9.131826866
  0
LWPOLYLINE
  5
5AE
100
AcDbEntity
  8
ASSI
100
AcDbPolyline
 62
7
  6
CONTINUOUS
 90
10
 70
0
 10
-102.281387102
 20
8.9813684113
 10
-102.2542201724
 20
8.9841861484
 10
-102.2292701019
 20
8.9908839564
 10
-102.2065368907
 20
9.0014618354
 10
-102.1854722491
 20
9.0164599236
 10
-102.1666244667
 20
9.0353380829
 10
-102.1516384117
 20
9.0564758983
 10
-102.1410623736
 20
9.0793332314
 10
-102.134348063
 20
9.1044502207
 10
-102.1314954797
 20
9.131826866
  0
LWPOLYLINE
  5
5AF
100
AcDbEntity
  8
RACCORDO
100
AcDbPolyline
 62
7
  6
CONTINUOUS
 90
10
 70
0
 10
-99.9061818024
 20
10.2547342298
 10
-99.9312393316
 20
10.2524024518
 10
-99.9567777451
 20
10.2454690735
 10
-99.9806942042
 20
10.2341594692
 10
-100.00232162
 20
10.2187647246
 10
-100.0208920215
 20
10.1998044296
 10
-100.035681897
 20
10.178133832
 10
-100.0463363283
 20
10.1545984222
 10
-100.0527436502
 20
10.1298841368
 10
-100.0535638153
 20
10.124464482
  0
LWPOLYLINE
  5
5B0
100
AcDbEntity
  8
ASSI
100
AcDbPolyline
 62
7
  6
CONTINUOUS
 90
10
 70
0
 10
-99.9061818024
 20
10.2547342298
 10
-99.9312393316
 20
10.2524024518
 10
-99.9567777451
 20
10.2454690735
 10
-99.9806942042
 20
10.2341594692
 10
-100.00232162
 20
10.2187647246
 10
-100.0208920215
 20
10.1998044296
 10
-100.035681897
 20
10.178133832
 10
-100.0463363283
 20
10.1545984222
 10
-100.0527436502
 20
10.1298841368
 10
-100.0535638153
 20
10.124464482
  0
LINE
  5
5B1
100
AcDbEntity
  8
RACCORDO
100
AcDbLine
 62
250
  6
CONTINUOUS
 10
-101.9538648805
 20
9.9315449497
 11
-101.9799103655
 21
9.9292650861
  0
LINE
  5
5B2
100
AcDbEntity
  8
ASSI
100
AcDbLine
 62
250
  6
CONTINUOUS
 10
-101.9538648805
 20
9.9315449497
 11
-101.9799103655
 21
9.9292650861
  0
LWPOLYLINE
  5
5B3
100
AcDbEntity
  8
RACCORDO
100
AcDbPolyline
 62
250
  6
CONTINUOUS
 90
6
 70
0
 10
-82.8093920331
 20
10.2534661464
 10
-82.7901060711
 20
10.251052732
 10
-82.7714017657
 20
10.2441883402
 10
-82.7538432308
 20
10.2330799981
 10
-82.7379600245
 20
10.2180627287
 10
-82.7242311778
 20
10.1995894467
  0
LWPOLYLINE
  5
5B4
100
AcDbEntity
  8
ASSI
100
AcDbPolyline
 62
250
  6
CONTINUOUS
 90
6
 70
0
 10
-82.8093920331
 20
10.2534661464
 10
-82.7901060711
 20
10.251052732
 10
-82.7714017657
 20
10.2441883402
 10
-82.7538432308
 20
10.2330799981
 10
-82.7379600245
 20
10.2180627287
 10
-82.7242311778
 20
10.1995894467
  0
LWPOLYLINE
  5
5B5
100
AcDbEntity
  8
RACCORDO
100
AcDbPolyline
 62
250
  6
CONTINUOUS
 90
5
 70
0
 10
-82.7242311778
 20
10.1995894467
 10
-82.7130707468
 20
10.1782172983
 10
-82.7048153255
 20
10.1545908587
 10
-82.699713894
 20
10.1294226915
 10
-82.6979203093
 20
10.1034718579
  0
LWPOLYLINE
  5
5B6
100
AcDbEntity
  8
ASSI
100
AcDbPolyline
 62
250
  6
CONTINUOUS
 90
5
 70
0
 10
-82.7242311778
 20
10.1995894467
 10
-82.7130707468
 20
10.1782172983
 10
-82.7048153255
 20
10.1545908587
 10
-82.699713894
 20
10.1294226915
 10
-82.6979203093
 20
10.1034718579
  0
LWPOLYLINE
  5
5B7
100
AcDbEntity
  8
RACCORDO
100
AcDbPolyline
 62
250
  6
CONTINUOUS
 90
10
 70
0
 10
-101.2693634454
 20
9.925684524
 10
-101.2877103442
 20
9.9232634982
 10
-101.3055041419
 20
9.9163936046
 10
-101.3222084118
 20
9.9052819489
 10
-101.3373195728
 20
9.8902635122
 10
-101.3503820712
 20
9.8717910532
 10
-101.361002114
 20
9.850421458
 10
-101.3688595403
 20
9.8267989525
 10
-101.3737174736
 20
9.8016356806
 10
-101.3754294626
 20
9.7756902355
  0
LWPOLYLINE
  5
5B8
100
AcDbEntity
  8
ASSI
100
AcDbPolyline
 62
250
  6
CONTINUOUS
 90
10
 70
0
 10
-101.2693634454
 20
9.925684524
 10
-101.2877103442
 20
9.9232634982
 10
-101.3055041419
 20
9.9163936046
 10
-101.3222084118
 20
9.9052819489
 10
-101.3373195728
 20
9.8902635122
 10
-101.3503820712
 20
9.8717910532
 10
-101.361002114
 20
9.850421458
 10
-101.3688595403
 20
9.8267989525
 10
-101.3737174736
 20
9.8016356806
 10
-101.3754294626
 20
9.7756902355
  0
LINE
  5
5B9
100
AcDbEntity
  8
RACCORDO
100
AcDbLine
 62
7
  6
CONTINUOUS
 10
-101.9387838125
 20
9.9289856187
 11
-101.9204106339
 21
9.9313688175
  0
LINE
  5
5BA
100
AcDbEntity
  8
ASSI
100
AcDbLine
 62
7
  6
CONTINUOUS
 10
-101.9387838125
 20
9.9289856187
 11
-101.9204106339
 21
9.9313688175
  0
LWPOLYLINE
  5
5BB
100
AcDbEntity
  8
0
100
AcDbPolyline
 62
7
  6
CONTINUOUS
 90
10
 70
0
 43
0.3500000006
 10
-63.4752527618
 20
18.2238654785
 10
-64.1181062164
 20
17.5810074921
 10
-64.546679718
 20
16.7238650208
 10
-64.546679718
 20
15.6524357986
 10
-64.1181062164
 20
15.223864563
 10
-63.4752527618
 20
15.223864563
 10
-63.0466792603
 20
15.6524357986
 10
-63.0466792603
 20
16.50957827
 10
-63.4752527618
 20
16.9381495056
 10
-64.4038218842
 20
16.9381495056
  0
LWPOLYLINE
  5
5BC
100
AcDbEntity
  8
RACCORDO
100
AcDbPolyline
 62
250
  6
CONTINUOUS
 90
9
 70
0
 10
-101.9799103655
 20
9.9292650861
 10
-102.0051645174
 20
9.9224971437
 10
-102.0288600464
 20
9.9114467513
 10
-102.0502770174
 20
9.8964496499
 10
-102.0687647243
 20
9.8779614923
 10
-102.0837614603
 20
9.8565439994
 10
-102.0948115834
 20
9.832847893
 10
-102.1015793609
 20
9.8075931256
 10
-102.103859169
 20
9.7815470059
  0
LWPOLYLINE
  5
5BD
100
AcDbEntity
  8
ASSI
100
AcDbPolyline
 62
250
  6
CONTINUOUS
 90
9
 70
0
 10
-101.9799103655
 20
9.9292650861
 10
-102.0051645174
 20
9.9224971437
 10
-102.0288600464
 20
9.9114467513
 10
-102.0502770174
 20
9.8964496499
 10
-102.0687647243
 20
9.8779614923
 10
-102.0837614603
 20
9.8565439994
 10
-102.0948115834
 20
9.832847893
 10
-102.1015793609
 20
9.8075931256
 10
-102.103859169
 20
9.7815470059
  0
LWPOLYLINE
  5
5BE
100
AcDbEntity
  8
0
100
AcDbPolyline
 62
7
  6
CONTINUOUS
 90
7
 70
0
 43
0.3500000006
 10
-95.2529249268
 20
15.210622467
 10
-96.7529253845
 20
15.210622467
 10
-95.2529249268
 20
17.3534786453
 10
-95.2529249268
 20
17.782049881
 10
-95.6814938965
 20
18.2106233826
 10
-96.3243564148
 20
18.2106233826
 10
-96.7529253845
 20
17.5677653961
  0
LWPOLYLINE
  5
5BF
100
AcDbEntity
  8
0
100
AcDbPolyline
 62
7
  6
CONTINUOUS
 90
3
 70
0
 43
0.3500000006
 10
-65.4038221893
 20
15.8667225494
 10
-66.9038226471
 20
15.8667225494
 10
-66.2609646606
 20
18.2238654785
  0
LINE
  5
5C0
100
AcDbEntity
  8
0
100
AcDbLine
 62
7
  6
CONTINUOUS
 10
-68.7624638261
 20
4.3813684113
 11
-69.0855069588
 21
5.5267031547
  0
LINE
  5
5C1
100
AcDbEntity
  8
0
100
AcDbLine
 62
7
  6
CONTINUOUS
 10
-69.4249929013
 20
7.8813684113
 11
-69.4730401052
 21
8.4535148749
  0
LWPOLYLINE
  5
5C2
100
AcDbEntity
  8
0
100
AcDbPolyline
 62
7
  6
CONTINUOUS
 90
2
 70
0
 43
0.3500000006
 10
-65.9038223419
 20
15.223864563
 10
-65.9038223419
 20
16.7238650208
  0
LINE
  5
5C3
100
AcDbEntity
  8
0
100
AcDbLine
 62
7
  6
CONTINUOUS
 10
-69.4730401052
 20
8.4535148749
 11
-69.4653833547
 21
9.0813684113
  0
LINE
  5
5C4
100
AcDbEntity
  8
0
100
AcDbLine
 62
7
  6
CONTINUOUS
 10
-69.0855069588
 20
5.5267031547
 11
-69.0954583418
 21
5.5813684113
  0
LINE
  5
5C5
100
AcDbEntity
  8
0
100
AcDbLine
 62
7
  6
CONTINUOUS
 10
-66.4651813547
 20
9.0813684113
 11
-66.4728381052
 21
8.4535148749
  0
LINE
  5
5C6
100
AcDbEntity
  8
0
100
AcDbLine
 62
7
  6
CONTINUOUS
 10
-66.4728381052
 20
8.4535148749
 11
-66.4247909013
 21
7.8813684113
  0
LINE
  5
5C7
100
AcDbEntity
  8
0
100
AcDbLine
 62
7
  6
CONTINUOUS
 10
-66.0853049588
 20
5.5267031547
 11
-65.7622618261
 21
4.3813684113
  0
LINE
  5
5C8
100
AcDbEntity
  8
0
100
AcDbLine
 62
7
  6
CONTINUOUS
 10
-66.0952563418
 20
5.5813684113
 11
-66.0853049588
 21
5.5267031547
  0
LINE
  5
5C9
100
AcDbEntity
  8
0
100
AcDbLine
 62
7
  6
CONTINUOUS
 10
-63.1612782033
 20
4.3813684113
 11
-63.1612782033
 21
5.5813684113
  0
LINE
  5
5CA
100
AcDbEntity
  8
0
100
AcDbLine
 62
7
  6
CONTINUOUS
 10
-63.1612782033
 20
7.8813684113
 11
-63.1612782033
 21
9.0813684113
  0
LINE
  5
5CB
100
AcDbEntity
  8
0
100
AcDbLine
 62
7
  6
CONTINUOUS
 10
-65.7622618261
 20
4.3813684113
 11
-63.1612782033
 21
4.3813684113
  0
LINE
  5
5CC
100
AcDbEntity
  8
ASSI
100
AcDbLine
 62
7
  6
CONTINUOUS
 10
-63.1612782033
 20
4.7813684113
 11
-48.1612782033
 21
4.7813684113
  0
LINE
  5
5CD
100
AcDbEntity
  8
ASSI
100
AcDbLine
 62
7
  6
CONTINUOUS
 10
-63.1612782033
 20
5.1813684113
 11
-48.1612782033
 21
5.1813684113
  0
LINE
  5
5CE
100
AcDbEntity
  8
0
100
AcDbLine
 62
7
  6
CONTINUOUS
 10
-66.0952563418
 20
5.5813684113
 11
-63.1612782033
 21
5.5813684113
  0
LINE
  5
5CF
100
AcDbEntity
  8
0
100
AcDbLine
 62
7
  6
CONTINUOUS
 10
-66.4247909013
 20
7.8813684113
 11
-63.1612782033
 21
7.8813684113
  0
LINE
  5
5D0
100
AcDbEntity
  8
ASSI
100
AcDbLine
 62
7
  6
CONTINUOUS
 10
-63.1612782033
 20
8.2813684113
 11
-48.1612782033
 21
8.2813684113
  0
LINE
  5
5D1
100
AcDbEntity
  8
ASSI
100
AcDbLine
 62
7
  6
CONTINUOUS
 10
-63.1612782033
 20
8.6813684113
 11
-48.1612782033
 21
8.6813684113
  0
LINE
  5
5D2
100
AcDbEntity
  8
0
100
AcDbLine
 62
7
  6
CONTINUOUS
 10
-66.4651813547
 20
9.0813684113
 11
-63.1612782033
 21
9.0813684113
  0
LINE
  5
5D3
100
AcDbEntity
  8
ASSI
100
AcDbLine
 62
7
  6
CONTINUOUS
 10
-48.1612782033
 20
8.6813684113
 11
-48.1612782033
 21
8.2813684113
  0
LINE
  5
5D4
100
AcDbEntity
  8
ASSI
100
AcDbLine
 62
7
  6
CONTINUOUS
 10
-48.1612782033
 20
5.1813684113
 11
-48.1612782033
 21
4.7813684113
  0
LWPOLYLINE
  5
5D5
100
AcDbEntity
  8
0
100
AcDbPolyline
 62
7
  6
CONTINUOUS
 90
4
 70
0
 43
0.3500000006
 10
-121.7699274902
 20
-7.8543759613
 10
-122.4127809448
 20
-7.8543759613
 10
-122.4127809448
 20
-6.3543755035
 10
-119.4127800293
 20
-7.2115179749
  0
LWPOLYLINE
  5
5D6
100
AcDbEntity
  8
0
100
AcDbPolyline
 62
7
  6
CONTINUOUS
 90
3
 70
0
 43
0.3500000006
 10
-119.698495697
 20
-4.7829472618
 10
-119.4842112122
 20
-4.8543750458
 10
-119.1984955444
 20
-4.9972328796
  0
LWPOLYLINE
  5
5D7
100
AcDbEntity
  8
0
100
AcDbPolyline
 62
7
  6
CONTINUOUS
 90
3
 70
0
 43
0.3500000006
 10
-121.5556430054
 20
-3.7829469566
 10
-122.4127809448
 20
-2.9258044853
 10
-119.4127800293
 20
-2.9258044853
  0
LWPOLYLINE
  5
5D8
100
AcDbEntity
  8
RACCORDO
100
AcDbPolyline
 62
250
  6
CONTINUOUS
 90
6
 70
0
 10
-112.40255027
 20
10.1943496754
 10
-112.3902159334
 20
10.2128530859
 10
-112.3759743936
 20
10.2277768031
 10
-112.3603080176
 20
10.2387108953
 10
-112.3436826555
 20
10.2454160469
 10
-112.3266013883
 20
10.247758547
  0
LWPOLYLINE
  5
5D9
100
AcDbEntity
  8
ASSI
100
AcDbPolyline
 62
250
  6
CONTINUOUS
 90
6
 70
0
 10
-112.40255027
 20
10.1943496754
 10
-112.3902159334
 20
10.2128530859
 10
-112.3759743936
 20
10.2277768031
 10
-112.3603080176
 20
10.2387108953
 10
-112.3436826555
 20
10.2454160469
 10
-112.3266013883
 20
10.247758547
  0
LINE
  5
5DA
100
AcDbEntity
  8
RACCORDO
100
AcDbLine
 62
7
  6
CONTINUOUS
 10
-108.475292408
 20
3.1813684113
 11
-112.3266013883
 21
3.2149782756
  0
LINE
  5
5DB
100
AcDbEntity
  8
ASSI
100
AcDbLine
 62
7
  6
CONTINUOUS
 10
-108.475292408
 20
3.1813684113
 11
-112.3266013883
 21
3.2149782756
  0
LWPOLYLINE
  5
5DC
100
AcDbEntity
  8
RACCORDO
100
AcDbPolyline
 62
250
  6
CONTINUOUS
 90
6
 70
0
 10
-112.3266013883
 20
3.2149782756
 10
-112.343945485
 20
3.21739169
 10
-112.3607270126
 20
3.2242560819
 10
-112.3764398474
 20
3.2353644239
 10
-112.3906100968
 20
3.2503816933
 10
-112.4028103921
 20
3.2688549754
  0
LWPOLYLINE
  5
5DD
100
AcDbEntity
  8
ASSI
100
AcDbPolyline
 62
250
  6
CONTINUOUS
 90
6
 70
0
 10
-112.3266013883
 20
3.2149782756
 10
-112.343945485
 20
3.21739169
 10
-112.3607270126
 20
3.2242560819
 10
-112.3764398474
 20
3.2353644239
 10
-112.3906100968
 20
3.2503816933
 10
-112.4028103921
 20
3.2688549754
  0
LINE
  5
5DE
100
AcDbEntity
  8
RACCORDO
100
AcDbLine
 62
250
  6
CONTINUOUS
 10
-111.672575284
 20
3.3592649647
 11
-111.7716358947
 21
3.3592649647
  0
LINE
  5
5DF
100
AcDbEntity
  8
ASSI
100
AcDbLine
 62
250
  6
CONTINUOUS
 10
-111.672575284
 20
3.3592649647
 11
-111.7716358947
 21
3.3592649647
  0
LINE
  5
5E0
100
AcDbEntity
  8
RACCORDO
100
AcDbLine
 62
250
  6
CONTINUOUS
 10
-112.425661999
 20
3.3649725641
 11
-112.475292408
 21
3.3649725641
  0
LINE
  5
5E1
100
AcDbEntity
  8
ASSI
100
AcDbLine
 62
250
  6
CONTINUOUS
 10
-112.425661999
 20
3.3649725641
 11
-112.475292408
 21
3.3649725641
  0
LINE
  5
5E2
100
AcDbEntity
  8
RACCORDO
100
AcDbLine
 62
250
  6
CONTINUOUS
 10
-111.7716358947
 20
3.3592649647
 11
-112.425661999
 21
3.3649725641
  0
LINE
  5
5E3
100
AcDbEntity
  8
ASSI
100
AcDbLine
 62
250
  6
CONTINUOUS
 10
-111.7716358947
 20
3.3592649647
 11
-112.425661999
 21
3.3649725641
  0
LINE
  5
5E4
100
AcDbEntity
  8
RACCORDO
100
AcDbLine
 62
250
  6
CONTINUOUS
 10
-108.475292408
 20
3.3313626998
 11
-111.672575284
 21
3.3592649647
  0
LINE
  5
5E5
100
AcDbEntity
  8
ASSI
100
AcDbLine
 62
250
  6
CONTINUOUS
 10
-108.475292408
 20
3.3313626998
 11
-111.672575284
 21
3.3592649647
  0
LWPOLYLINE
  5
5E6
100
AcDbEntity
  8
RACCORDO
100
AcDbPolyline
 62
250
  6
CONTINUOUS
 90
5
 70
0
 10
-112.4028103921
 20
3.2688549754
 10
-112.4126727774
 20
3.2902271237
 10
-112.4198998072
 20
3.3138535633
 10
-112.4242735175
 20
3.3390217306
 10
-112.425661999
 20
3.3649725641
  0
LWPOLYLINE
  5
5E7
100
AcDbEntity
  8
ASSI
100
AcDbPolyline
 62
250
  6
CONTINUOUS
 90
5
 70
0
 10
-112.4028103921
 20
3.2688549754
 10
-112.4126727774
 20
3.2902271237
 10
-112.4198998072
 20
3.3138535633
 10
-112.4242735175
 20
3.3390217306
 10
-112.425661999
 20
3.3649725641
  0
LINE
  5
5E8
100
AcDbEntity
  8
DRAFT
100
AcDbLine
 62
7
  6
CONTINUOUS
 10
-108.475292408
 20
4.3813684113
 11
-110.1792769325
 21
4.3813684113
  0
LINE
  5
5E9
100
AcDbEntity
  8
ASSI
100
AcDbLine
 62
7
  6
CONTINUOUS
 10
-108.475292408
 20
4.3813684113
 11
-110.1792769325
 21
4.3813684113
  0
LINE
  5
5EA
100
AcDbEntity
  8
0
100
AcDbLine
 62
7
  6
CONTINUOUS
 10
-109.775292408
 20
4.4813684113
 11
-109.8510283393
 21
4.4813684113
  0
LINE
  5
5EB
100
AcDbEntity
  8
ASSI
100
AcDbLine
 62
7
  6
CONTINUOUS
 10
-109.775292408
 20
4.4813684113
 11
-109.8510283393
 21
4.4813684113
  0
LINE
  5
5EC
100
AcDbEntity
  8
RACCORDO
100
AcDbLine
 62
7
  6
CONTINUOUS
 10
-109.5566553125
 20
4.5341548158
 11
-109.7813303722
 21
4.5341548158
  0
LINE
  5
5ED
100
AcDbEntity
  8
RACCORDO
100
AcDbLine
 62
7
  6
CONTINUOUS
 10
-108.475292408
 20
4.4313684113
 11
-109.7534308771
 21
4.4425225568
  0
LWPOLYLINE
  5
5EE
100
AcDbEntity
  8
RACCORDO
100
AcDbPolyline
 62
7
  6
CONTINUOUS
 90
3
 70
0
 10
-109.7534307564
 20
4.4425225244
 10
-109.7697790587
 20
4.4442760406
 10
-109.775292408
 20
4.4457566605
  0
LINE
  5
5EF
100
AcDbEntity
  8
DRAFT
100
AcDbLine
 62
7
  6
CONTINUOUS
 10
-112.475292408
 20
7.3313684113
 11
-112.475292408
 21
6.1313684113
  0
LINE
  5
5F0
100
AcDbEntity
  8
RACCORDO
100
AcDbLine
 62
7
  6
CONTINUOUS
 10
-112.475292408
 20
3.3649725641
 11
-112.475292408
 21
6.1313684113
  0
LINE
  5
5F1
100
AcDbEntity
  8
RACCORDO
100
AcDbLine
 62
7
  6
CONTINUOUS
 10
-112.475292408
 20
7.3313684113
 11
-112.475292408
 21
10.0977642586
  0
LINE
  5
5F2
100
AcDbEntity
  8
ASSI
100
AcDbLine
 62
7
  6
CONTINUOUS
 10
-112.475292408
 20
3.3649725641
 11
-112.475292408
 21
10.0977642586
  0
LINE
  5
5F3
100
AcDbEntity
  8
RACCORDO
100
AcDbLine
 62
250
  6
CONTINUOUS
 10
-112.425661999
 20
3.3649725641
 11
-112.425661999
 21
6.1573210591
  0
LINE
  5
5F4
100
AcDbEntity
  8
ASSI
100
AcDbLine
 62
250
  6
CONTINUOUS
 10
-112.425661999
 20
3.3649725641
 11
-112.425661999
 21
6.1573210591
  0
LINE
  5
5F5
100
AcDbEntity
  8
RACCORDO
100
AcDbLine
 62
250
  6
CONTINUOUS
 10
-112.425661999
 20
7.3054157636
 11
-112.425661999
 21
10.0977642586
  0
LINE
  5
5F6
100
AcDbEntity
  8
ASSI
100
AcDbLine
 62
250
  6
CONTINUOUS
 10
-112.425661999
 20
7.3054157636
 11
-112.425661999
 21
10.0977642586
  0
LINE
  5
5F7
100
AcDbEntity
  8
RACCORDO
100
AcDbLine
 62
250
  6
CONTINUOUS
 10
-112.4132066763
 20
8.3869378912
 11
-112.4132066763
 21
7.2989026478
  0
LINE
  5
5F8
100
AcDbEntity
  8
ASSI
100
AcDbLine
 62
250
  6
CONTINUOUS
 10
-112.4132066763
 20
8.3869378912
 11
-112.4132066763
 21
7.2989026478
  0
LINE
  5
5F9
100
AcDbEntity
  8
RACCORDO
100
AcDbLine
 62
250
  6
CONTINUOUS
 10
-112.4132066763
 20
6.1638341749
 11
-112.4132066763
 21
5.0757989315
  0
LINE
  5
5FA
100
AcDbEntity
  8
ASSI
100
AcDbLine
 62
250
  6
CONTINUOUS
 10
-112.4132066763
 20
6.1638341749
 11
-112.4132066763
 21
5.0757989315
  0
LWPOLYLINE
  5
5FB
100
AcDbEntity
  8
RACCORDO
100
AcDbPolyline
 62
250
  6
CONTINUOUS
 90
5
 70
0
 10
-112.425661999
 20
10.0977642586
 10
-112.4242563503
 20
10.123866913
 10
-112.4198324597
 20
10.1491656331
 10
-112.4125278848
 20
10.1728899144
 10
-112.40255027
 20
10.1943496754
  0
LWPOLYLINE
  5
5FC
100
AcDbEntity
  8
ASSI
100
AcDbPolyline
 62
250
  6
CONTINUOUS
 90
5
 70
0
 10
-112.425661999
 20
10.0977642586
 10
-112.4242563503
 20
10.123866913
 10
-112.4198324597
 20
10.1491656331
 10
-112.4125278848
 20
10.1728899144
 10
-112.40255027
 20
10.1943496754
  0
LINE
  5
5FD
100
AcDbEntity
  8
RACCORDO
100
AcDbLine
 62
7
  6
CONTINUOUS
 10
-111.6315829158
 20
8.2756585195
 11
-111.5346215867
 21
8.3721500296
  0
LINE
  5
5FE
100
AcDbEntity
  8
ASSI
100
AcDbLine
 62
7
  6
CONTINUOUS
 10
-111.6315829158
 20
8.2756585195
 11
-111.5346215867
 21
8.3721500296
  0
LINE
  5
5FF
100
AcDbEntity
  8
RACCORDO
100
AcDbLine
 62
7
  6
CONTINUOUS
 10
-111.5346215867
 20
8.3721500296
 11
-111.5266013883
 21
8.3800650929
  0
LINE
  5
600
100
AcDbEntity
  8
ASSI
100
AcDbLine
 62
7
  6
CONTINUOUS
 10
-111.5346215867
 20
8.3721500296
 11
-111.5266013883
 21
8.3800650929
  0
LWPOLYLINE
  5
601
100
AcDbEntity
  8
RACCORDO
100
AcDbPolyline
 62
7
  6
CONTINUOUS
 90
9
 70
0
 10
-111.6442737091
 20
5.19982376
 10
-111.6502916641
 20
5.2057906434
 10
-111.6558546397
 20
5.2114558118
 10
-111.6610892039
 20
5.216683646
 10
-111.6658663608
 20
5.2213452851
 10
-111.6695995912
 20
5.2253655667
 10
-111.6720920146
 20
5.2285472753
 10
-111.6735371804
 20
5.2306313597
 10
-111.673933846
 20
5.2313802673
  0
LWPOLYLINE
  5
602
100
AcDbEntity
  8
ASSI
100
AcDbPolyline
 62
7
  6
CONTINUOUS
 90
9
 70
0
 10
-111.6442737091
 20
5.19982376
 10
-111.6502916641
 20
5.2057906434
 10
-111.6558546397
 20
5.2114558118
 10
-111.6610892039
 20
5.216683646
 10
-111.6658663608
 20
5.2213452851
 10
-111.6695995912
 20
5.2253655667
 10
-111.6720920146
 20
5.2285472753
 10
-111.6735371804
 20
5.2306313597
 10
-111.673933846
 20
5.2313802673
  0
LINE
  5
603
100
AcDbEntity
  8
RACCORDO
100
AcDbLine
 62
7
  6
CONTINUOUS
 10
-111.5266013883
 20
5.0826717298
 11
-111.5425701868
 21
5.0984797535
  0
LINE
  5
604
100
AcDbEntity
  8
ASSI
100
AcDbLine
 62
7
  6
CONTINUOUS
 10
-111.5266013883
 20
5.0826717298
 11
-111.5425701868
 21
5.0984797535
  0
LINE
  5
605
100
AcDbEntity
  8
RACCORDO
100
AcDbLine
 62
7
  6
CONTINUOUS
 10
-111.5425701868
 20
5.0984797535
 11
-111.6315187962
 21
5.1870140585
  0
LINE
  5
606
100
AcDbEntity
  8
ASSI
100
AcDbLine
 62
7
  6
CONTINUOUS
 10
-111.5425701868
 20
5.0984797535
 11
-111.6315187962
 21
5.1870140585
  0
LINE
  5
607
100
AcDbEntity
  8
RACCORDO
100
AcDbLine
 62
7
  6
CONTINUOUS
 10
-111.6315187962
 20
5.1870140585
 11
-111.6442737091
 21
5.19982376
  0
LINE
  5
608
100
AcDbEntity
  8
ASSI
100
AcDbLine
 62
7
  6
CONTINUOUS
 10
-111.6315187962
 20
5.1870140585
 11
-111.6442737091
 21
5.19982376
  0
LINE
  5
609
100
AcDbEntity
  8
RACCORDO
100
AcDbLine
 62
250
  6
CONTINUOUS
 10
-112.3141460656
 20
8.2868981977
 11
-112.3141460656
 21
7.2471020445
  0
LINE
  5
60A
100
AcDbEntity
  8
ASSI
100
AcDbLine
 62
250
  6
CONTINUOUS
 10
-112.3141460656
 20
8.2868981977
 11
-112.3141460656
 21
7.2471020445
  0
LINE
  5
60B
100
AcDbEntity
  8
RACCORDO
100
AcDbLine
 62
250
  6
CONTINUOUS
 10
-112.3141460656
 20
6.2156347782
 11
-112.3141460656
 21
5.175838625
  0
LINE
  5
60C
100
AcDbEntity
  8
ASSI
100
AcDbLine
 62
250
  6
CONTINUOUS
 10
-112.3141460656
 20
6.2156347782
 11
-112.3141460656
 21
5.175838625
  0
LWPOLYLINE
  5
60D
100
AcDbEntity
  8
RACCORDO
100
AcDbPolyline
 62
7
  6
CONTINUOUS
 90
10
 70
0
 10
-111.673933846
 20
8.2313565553
 10
-111.6735426991
 20
8.2321026238
 10
-111.6721040038
 20
8.2341794567
 10
-111.6696189886
 20
8.2373514356
 10
-111.6658948439
 20
8.2413615938
 10
-111.6611276768
 20
8.2460140477
 10
-111.6559017289
 20
8.2512336119
 10
-111.6503453077
 20
8.2568918889
 10
-111.6443325174
 20
8.2628539546
 10
-111.6315829158
 20
8.2756585195
  0
LWPOLYLINE
  5
60E
100
AcDbEntity
  8
ASSI
100
AcDbPolyline
 62
7
  6
CONTINUOUS
 90
10
 70
0
 10
-111.673933846
 20
8.2313565553
 10
-111.6735426991
 20
8.2321026238
 10
-111.6721040038
 20
8.2341794567
 10
-111.6696189886
 20
8.2373514356
 10
-111.6658948439
 20
8.2413615938
 10
-111.6611276768
 20
8.2460140477
 10
-111.6559017289
 20
8.2512336119
 10
-111.6503453077
 20
8.2568918889
 10
-111.6443325174
 20
8.2628539546
 10
-111.6315829158
 20
8.2756585195
  0
LINE
  5
60F
100
AcDbEntity
  8
RACCORDO
100
AcDbLine
 62
250
  6
CONTINUOUS
 10
-111.5266013883
 20
5.0826717298
 11
-111.672575284
 21
5.0813978349
  0
LINE
  5
610
100
AcDbEntity
  8
ASSI
100
AcDbLine
 62
250
  6
CONTINUOUS
 10
-111.5266013883
 20
5.0826717298
 11
-111.672575284
 21
5.0813978349
  0
LINE
  5
611
100
AcDbEntity
  8
RACCORDO
100
AcDbLine
 62
250
  6
CONTINUOUS
 10
-111.7716358947
 20
5.0813978349
 11
-112.4132066763
 21
5.0757989315
  0
LINE
  5
612
100
AcDbEntity
  8
ASSI
100
AcDbLine
 62
250
  6
CONTINUOUS
 10
-111.7716358947
 20
5.0813978349
 11
-112.4132066763
 21
5.0757989315
  0
LINE
  5
613
100
AcDbEntity
  8
RACCORDO
100
AcDbLine
 62
250
  6
CONTINUOUS
 10
-111.7716358947
 20
5.0813978349
 11
-111.672575284
 21
5.0813978349
  0
LINE
  5
614
100
AcDbEntity
  8
ASSI
100
AcDbLine
 62
250
  6
CONTINUOUS
 10
-111.7716358947
 20
5.0813978349
 11
-111.672575284
 21
5.0813978349
  0
LWPOLYLINE
  5
615
100
AcDbEntity
  8
RACCORDO
100
AcDbPolyline
 62
250
  6
CONTINUOUS
 90
4
 70
0
 10
-111.672575284
 20
3.2092706763
 10
-111.6727826734
 20
3.2115511896
 10
-111.6729439932
 20
3.2183194771
 10
-111.6730543421
 20
3.2293699078
  0
LWPOLYLINE
  5
616
100
AcDbEntity
  8
ASSI
100
AcDbPolyline
 62
250
  6
CONTINUOUS
 90
4
 70
0
 10
-111.672575284
 20
3.2092706763
 10
-111.6727826734
 20
3.2115511896
 10
-111.6729439932
 20
3.2183194771
 10
-111.6730543421
 20
3.2293699078
  0
LWPOLYLINE
  5
617
100
AcDbEntity
  8
RACCORDO
100
AcDbPolyline
 62
250
  6
CONTINUOUS
 90
10
 70
0
 10
-111.7716358947
 20
3.3592649647
 10
-111.7702291213
 20
3.3331523973
 10
-111.765801506
 20
3.307843327
 10
-111.7584903566
 20
3.2841094418
 10
-111.7485010257
 20
3.2626381192
 10
-111.7361514238
 20
3.2441278989
 10
-111.7219009495
 20
3.2292115714
 10
-111.7062386331
 20
3.2182947354
 10
-111.689629124
 20
3.2116058387
 10
-111.672575284
 20
3.2092706763
  0
LWPOLYLINE
  5
618
100
AcDbEntity
  8
ASSI
100
AcDbPolyline
 62
250
  6
CONTINUOUS
 90
10
 70
0
 10
-111.7716358947
 20
3.3592649647
 10
-111.7702291213
 20
3.3331523973
 10
-111.765801506
 20
3.307843327
 10
-111.7584903566
 20
3.2841094418
 10
-111.7485010257
 20
3.2626381192
 10
-111.7361514238
 20
3.2441278989
 10
-111.7219009495
 20
3.2292115714
 10
-111.7062386331
 20
3.2182947354
 10
-111.689629124
 20
3.2116058387
 10
-111.672575284
 20
3.2092706763
  0
LWPOLYLINE
  5
619
100
AcDbEntity
  8
RACCORDO
100
AcDbPolyline
 62
250
  6
CONTINUOUS
 90
5
 70
0
 10
-111.673933846
 20
8.2313565553
 10
-111.6735374301
 20
8.2336317993
 10
-111.6732458958
 20
8.2403961348
 10
-111.6730543421
 20
8.2514439309
 10
-111.6730097334
 20
8.2664398972
  0
LWPOLYLINE
  5
61A
100
AcDbEntity
  8
ASSI
100
AcDbPolyline
 62
250
  6
CONTINUOUS
 90
5
 70
0
 10
-111.673933846
 20
8.2313565553
 10
-111.6735374301
 20
8.2336317993
 10
-111.6732458958
 20
8.2403961348
 10
-111.6730543421
 20
8.2514439309
 10
-111.6730097334
 20
8.2664398972
  0
LINE
  5
61B
100
AcDbEntity
  8
RACCORDO
100
AcDbLine
 62
7
  6
CONTINUOUS
 10
-111.675292408
 20
5.2313684113
 11
-112.1459301548
 21
5.2272612179
  0
LINE
  5
61C
100
AcDbEntity
  8
ASSI
100
AcDbLine
 62
7
  6
CONTINUOUS
 10
-111.675292408
 20
5.2313684113
 11
-112.1459301548
 21
5.2272612179
  0
LWPOLYLINE
  5
61D
100
AcDbEntity
  8
RACCORDO
100
AcDbPolyline
 62
250
  6
CONTINUOUS
 90
10
 70
0
 10
-111.7716358947
 20
8.3813389878
 10
-111.7702291213
 20
8.3552264204
 10
-111.765801506
 20
8.32991735
 10
-111.7584903566
 20
8.3061834648
 10
-111.7485010257
 20
8.2847121423
 10
-111.7361514238
 20
8.266201922
 10
-111.7219009495
 20
8.2512855945
 10
-111.7062386331
 20
8.2403687585
 10
-111.689629124
 20
8.2336798618
 10
-111.672575284
 20
8.2313446994
  0
LWPOLYLINE
  5
61E
100
AcDbEntity
  8
ASSI
100
AcDbPolyline
 62
250
  6
CONTINUOUS
 90
10
 70
0
 10
-111.7716358947
 20
8.3813389878
 10
-111.7702291213
 20
8.3552264204
 10
-111.765801506
 20
8.32991735
 10
-111.7584903566
 20
8.3061834648
 10
-111.7485010257
 20
8.2847121423
 10
-111.7361514238
 20
8.266201922
 10
-111.7219009495
 20
8.2512855945
 10
-111.7062386331
 20
8.2403687585
 10
-111.689629124
 20
8.2336798618
 10
-111.672575284
 20
8.2313446994
  0
LINE
  5
61F
100
AcDbEntity
  8
RACCORDO
100
AcDbLine
 62
250
  6
CONTINUOUS
 10
-111.672575284
 20
5.0813978349
 11
-111.673055803
 21
5.1567897383
  0
LINE
  5
620
100
AcDbEntity
  8
ASSI
100
AcDbLine
 62
250
  6
CONTINUOUS
 10
-111.672575284
 20
5.0813978349
 11
-111.673055803
 21
5.1567897383
  0
LINE
  5
621
100
AcDbEntity
  8
RACCORDO
100
AcDbLine
 62
250
  6
CONTINUOUS
 10
-111.672575284
 20
10.1034718579
 11
-111.673055803
 21
10.1788637614
  0
LINE
  5
622
100
AcDbEntity
  8
ASSI
100
AcDbLine
 62
250
  6
CONTINUOUS
 10
-111.672575284
 20
10.1034718579
 11
-111.673055803
 21
10.1788637614
  0
LINE
  5
623
100
AcDbEntity
  8
RACCORDO
100
AcDbLine
 62
250
  6
CONTINUOUS
 10
-111.7716358947
 20
10.1034718579
 11
-111.7716358947
 21
8.3813389878
  0
LINE
  5
624
100
AcDbEntity
  8
ASSI
100
AcDbLine
 62
250
  6
CONTINUOUS
 10
-111.7716358947
 20
10.1034718579
 11
-111.7716358947
 21
8.3813389878
  0
LINE
  5
625
100
AcDbEntity
  8
RACCORDO
100
AcDbLine
 62
250
  6
CONTINUOUS
 10
-111.7716358947
 20
5.0813978349
 11
-111.7716358947
 21
3.3592649647
  0
LINE
  5
626
100
AcDbEntity
  8
ASSI
100
AcDbLine
 62
250
  6
CONTINUOUS
 10
-111.7716358947
 20
5.0813978349
 11
-111.7716358947
 21
3.3592649647
  0
LINE
  5
627
100
AcDbEntity
  8
RACCORDO
100
AcDbLine
 62
7
  6
CONTINUOUS
 10
-111.675292408
 20
5.2313684113
 11
-111.675292408
 21
8.2313684113
  0
LINE
  5
628
100
AcDbEntity
  8
ASSI
100
AcDbLine
 62
7
  6
CONTINUOUS
 10
-111.675292408
 20
5.2313684113
 11
-111.675292408
 21
8.2313684113
  0
LINE
  5
629
100
AcDbEntity
  8
RACCORDO
100
AcDbLine
 62
250
  6
CONTINUOUS
 10
-111.6730543421
 20
3.2293699078
 11
-111.6731103676
 21
3.2628543833
  0
LINE
  5
62A
100
AcDbEntity
  8
ASSI
100
AcDbLine
 62
250
  6
CONTINUOUS
 10
-111.6730543421
 20
3.2293699078
 11
-111.6731103676
 21
3.2628543833
  0
LINE
  5
62B
100
AcDbEntity
  8
RACCORDO
100
AcDbLine
 62
250
  6
CONTINUOUS
 10
-111.672575284
 20
10.1034718579
 11
-111.672575284
 21
8.3813389878
  0
LINE
  5
62C
100
AcDbEntity
  8
ASSI
100
AcDbLine
 62
250
  6
CONTINUOUS
 10
-111.672575284
 20
10.1034718579
 11
-111.672575284
 21
8.3813389878
  0
LINE
  5
62D
100
AcDbEntity
  8
RACCORDO
100
AcDbLine
 62
250
  6
CONTINUOUS
 10
-111.672575284
 20
5.0813978349
 11
-111.672575284
 21
3.3592649647
  0
LINE
  5
62E
100
AcDbEntity
  8
ASSI
100
AcDbLine
 62
250
  6
CONTINUOUS
 10
-111.672575284
 20
5.0813978349
 11
-111.672575284
 21
3.3592649647
  0
LINE
  5
62F
100
AcDbEntity
  8
RACCORDO
100
AcDbLine
 62
250
  6
CONTINUOUS
 10
-111.6220489355
 20
6.2113684113
 11
-111.6220489355
 21
7.2513684113
  0
LINE
  5
630
100
AcDbEntity
  8
ASSI
100
AcDbLine
 62
250
  6
CONTINUOUS
 10
-111.6220489355
 20
6.2113684113
 11
-111.6220489355
 21
7.2513684113
  0
LINE
  5
631
100
AcDbEntity
  8
0
100
AcDbLine
 62
250
  6
CONTINUOUS
 10
-111.5266013883
 20
8.3800650929
 11
-111.5266013883
 21
7.3313684113
  0
LINE
  5
632
100
AcDbEntity
  8
ASSI
100
AcDbLine
 62
250
  6
CONTINUOUS
 10
-111.5266013883
 20
8.3800650929
 11
-111.5266013883
 21
7.3313684113
  0
LINE
  5
633
100
AcDbEntity
  8
0
100
AcDbLine
 62
250
  6
CONTINUOUS
 10
-111.5266013883
 20
6.1313684113
 11
-111.5266013883
 21
5.0826717298
  0
LINE
  5
634
100
AcDbEntity
  8
ASSI
100
AcDbLine
 62
250
  6
CONTINUOUS
 10
-111.5266013883
 20
6.1313684113
 11
-111.5266013883
 21
5.0826717298
  0
LWPOLYLINE
  5
635
100
AcDbEntity
  8
RACCORDO
100
AcDbPolyline
 62
250
  6
CONTINUOUS
 90
6
 70
0
 10
-111.673055803
 20
10.1788637614
 10
-111.6731094461
 20
10.2189021813
 10
-111.6730515311
 20
10.2338000889
 10
-111.6729402041
 20
10.24466296
 10
-111.6727796052
 20
10.2512601644
 10
-111.672575284
 20
10.2534661464
  0
LWPOLYLINE
  5
636
100
AcDbEntity
  8
ASSI
100
AcDbPolyline
 62
250
  6
CONTINUOUS
 90
6
 70
0
 10
-111.673055803
 20
10.1788637614
 10
-111.6731094461
 20
10.2189021813
 10
-111.6730515311
 20
10.2338000889
 10
-111.6729402041
 20
10.24466296
 10
-111.6727796052
 20
10.2512601644
 10
-111.672575284
 20
10.2534661464
  0
LINE
  5
637
100
AcDbEntity
  8
RACCORDO
100
AcDbLine
 62
250
  6
CONTINUOUS
 10
-111.6730097334
 20
8.2664398972
 11
-111.6730543421
 21
8.3063451408
  0
LINE
  5
638
100
AcDbEntity
  8
ASSI
100
AcDbLine
 62
250
  6
CONTINUOUS
 10
-111.6730097334
 20
8.2664398972
 11
-111.6730543421
 21
8.3063451408
  0
LWPOLYLINE
  5
639
100
AcDbEntity
  8
RACCORDO
100
AcDbPolyline
 62
250
  6
CONTINUOUS
 90
6
 70
0
 10
-111.673055803
 20
5.1567897383
 10
-111.6730088119
 20
5.1968290365
 10
-111.6730515311
 20
5.2117260658
 10
-111.6732421067
 20
5.2225863023
 10
-111.6735343619
 20
5.2291795547
 10
-111.673933846
 20
5.2313802673
  0
LWPOLYLINE
  5
63A
100
AcDbEntity
  8
ASSI
100
AcDbPolyline
 62
250
  6
CONTINUOUS
 90
6
 70
0
 10
-111.673055803
 20
5.1567897383
 10
-111.6730088119
 20
5.1968290365
 10
-111.6730515311
 20
5.2117260658
 10
-111.6732421067
 20
5.2225863023
 10
-111.6735343619
 20
5.2291795547
 10
-111.673933846
 20
5.2313802673
  0
LWPOLYLINE
  5
63B
100
AcDbEntity
  8
RACCORDO
100
AcDbPolyline
 62
250
  6
CONTINUOUS
 90
3
 70
0
 10
-111.6731103676
 20
3.2628543833
 10
-111.6727826734
 20
3.3332199797
 10
-111.672575284
 20
3.3592649647
  0
LWPOLYLINE
  5
63C
100
AcDbEntity
  8
ASSI
100
AcDbPolyline
 62
250
  6
CONTINUOUS
 90
3
 70
0
 10
-111.6731103676
 20
3.2628543833
 10
-111.6727826734
 20
3.3332199797
 10
-111.672575284
 20
3.3592649647
  0
LINE
  5
63D
100
AcDbEntity
  8
RACCORDO
100
AcDbLine
 62
250
  6
CONTINUOUS
 10
-111.6730543421
 20
8.3063451408
 11
-111.672575284
 21
8.3813389878
  0
LINE
  5
63E
100
AcDbEntity
  8
ASSI
100
AcDbLine
 62
250
  6
CONTINUOUS
 10
-111.6730543421
 20
8.3063451408
 11
-111.672575284
 21
8.3813389878
  0
LWPOLYLINE
  5
63F
100
AcDbEntity
  8
RACCORDO
100
AcDbPolyline
 62
250
  6
CONTINUOUS
 90
4
 70
0
 10
-111.613613615
 20
7.2913684114
 10
-111.6182518569
 20
7.2787300229
 10
-111.6210923999
 20
7.2652602656
 10
-111.6220489355
 20
7.2513684113
  0
LWPOLYLINE
  5
640
100
AcDbEntity
  8
ASSI
100
AcDbPolyline
 62
250
  6
CONTINUOUS
 90
4
 70
0
 10
-111.613613615
 20
7.2913684114
 10
-111.6182518569
 20
7.2787300229
 10
-111.6210923999
 20
7.2652602656
 10
-111.6220489355
 20
7.2513684113
  0
LINE
  5
641
100
AcDbEntity
  8
RACCORDO
100
AcDbLine
 62
7
  6
CONTINUOUS
 10
-111.6617010673
 20
7.2959765849
 11
-111.6583909448
 21
7.3004389617
  0
LINE
  5
642
100
AcDbEntity
  8
ASSI
100
AcDbLine
 62
7
  6
CONTINUOUS
 10
-111.6617010673
 20
7.2959765849
 11
-111.6583909448
 21
7.3004389617
  0
LWPOLYLINE
  5
643
100
AcDbEntity
  8
RACCORDO
100
AcDbPolyline
 62
7
  6
CONTINUOUS
 90
7
 70
0
 10
-111.6583909448
 20
7.3004389617
 10
-111.6545321723
 20
7.3046948001
 10
-111.6500774384
 20
7.3087441002
 10
-111.6449885779
 20
7.3126177803
 10
-111.6392171589
 20
7.3162849221
 10
-111.6326999751
 20
7.3196527701
 10
-111.6254040369
 20
7.3227652491
  0
LWPOLYLINE
  5
644
100
AcDbEntity
  8
ASSI
100
AcDbPolyline
 62
7
  6
CONTINUOUS
 90
7
 70
0
 10
-111.6583909448
 20
7.3004389617
 10
-111.6545321723
 20
7.3046948001
 10
-111.6500774384
 20
7.3087441002
 10
-111.6449885779
 20
7.3126177803
 10
-111.6392171589
 20
7.3162849221
 10
-111.6326999751
 20
7.3196527701
 10
-111.6254040369
 20
7.3227652491
  0
LWPOLYLINE
  5
645
100
AcDbEntity
  8
RACCORDO
100
AcDbPolyline
 62
250
  6
CONTINUOUS
 90
10
 70
0
 10
-111.672575284
 20
5.2313921233
 10
-111.6899193807
 20
5.2289787089
 10
-111.7067009083
 20
5.2221143171
 10
-111.7224137431
 20
5.211005975
 10
-111.7365839925
 20
5.1959887057
 10
-111.7487842878
 20
5.1775154236
 10
-111.7586466731
 20
5.1561432752
 10
-111.7658737029
 20
5.1325168357
 10
-111.7702474132
 20
5.1073486684
 10
-111.7716358947
 20
5.0813978349
  0
LWPOLYLINE
  5
646
100
AcDbEntity
  8
ASSI
100
AcDbPolyline
 62
250
  6
CONTINUOUS
 90
10
 70
0
 10
-111.672575284
 20
5.2313921233
 10
-111.6899193807
 20
5.2289787089
 10
-111.7067009083
 20
5.2221143171
 10
-111.7224137431
 20
5.211005975
 10
-111.7365839925
 20
5.1959887057
 10
-111.7487842878
 20
5.1775154236
 10
-111.7586466731
 20
5.1561432752
 10
-111.7658737029
 20
5.1325168357
 10
-111.7702474132
 20
5.1073486684
 10
-111.7716358947
 20
5.0813978349
  0
LWPOLYLINE
  5
647
100
AcDbEntity
  8
RACCORDO
100
AcDbPolyline
 62
7
  6
CONTINUOUS
 90
10
 70
0
 10
-109.4539311596
 20
5.5228280311
 10
-109.4721156877
 20
5.5208756644
 10
-109.4888445674
 20
5.5165524987
 10
-109.5041177988
 20
5.5098585342
 10
-109.5182514283
 20
5.5004725101
 10
-109.5309294095
 20
5.4887156871
 10
-109.5412036025
 20
5.4755518471
 10
-109.5487579607
 20
5.4613022507
 10
-109.5539085307
 20
5.4456456373
 10
-109.5566553125
 20
5.4285820068
  0
LINE
  5
648
100
AcDbEntity
  8
RACCORDO
100
AcDbLine
 62
7
  6
CONTINUOUS
 10
-109.7697782166
 20
5.5184606141
 11
-109.7534307834
 21
5.5202142911
  0
LINE
  5
649
100
AcDbEntity
  8
RACCORDO
100
AcDbLine
 62
7
  6
CONTINUOUS
 10
-108.475292408
 20
5.5313684113
 11
-109.7534308771
 21
5.5202142659
  0
LINE
  5
64A
100
AcDbEntity
  8
RACCORDO
100
AcDbLine
 62
7
  6
CONTINUOUS
 10
-109.7813303722
 20
5.4285820068
 11
-109.5566553125
 21
5.4285820068
  0
LINE
  5
64B
100
AcDbEntity
  8
0
100
AcDbLine
 62
7
  6
CONTINUOUS
 10
-109.8510283393
 20
5.4813684113
 11
-109.775292408
 21
5.4813684113
  0
LINE
  5
64C
100
AcDbEntity
  8
ASSI
100
AcDbLine
 62
7
  6
CONTINUOUS
 10
-109.8510283393
 20
5.4813684113
 11
-109.775292408
 21
5.4813684113
  0
LINE
  5
64D
100
AcDbEntity
  8
DRAFT
100
AcDbLine
 62
7
  6
CONTINUOUS
 10
-108.475292408
 20
5.5813684113
 11
-110.1792769325
 21
5.5813684113
  0
LINE
  5
64E
100
AcDbEntity
  8
ASSI
100
AcDbLine
 62
7
  6
CONTINUOUS
 10
-108.475292408
 20
5.5813684113
 11
-110.1792769325
 21
5.5813684113
  0
LWPOLYLINE
  5
64F
100
AcDbEntity
  8
RACCORDO
100
AcDbPolyline
 62
250
  6
CONTINUOUS
 90
4
 70
0
 10
-111.6136136151
 20
6.1713684113
 10
-111.6182518569
 20
6.1840067998
 10
-111.6210923999
 20
6.1974765571
 10
-111.6220489355
 20
6.2113684113
  0
LWPOLYLINE
  5
650
100
AcDbEntity
  8
ASSI
100
AcDbPolyline
 62
250
  6
CONTINUOUS
 90
4
 70
0
 10
-111.6136136151
 20
6.1713684113
 10
-111.6182518569
 20
6.1840067998
 10
-111.6210923999
 20
6.1974765571
 10
-111.6220489355
 20
6.2113684113
  0
LINE
  5
651
100
AcDbEntity
  8
RACCORDO
100
AcDbLine
 62
250
  6
CONTINUOUS
 10
-111.3848998917
 20
6.2113684113
 11
-111.3848998917
 21
7.2513684113
  0
LINE
  5
652
100
AcDbEntity
  8
ASSI
100
AcDbLine
 62
250
  6
CONTINUOUS
 10
-111.3848998917
 20
6.2113684113
 11
-111.3848998917
 21
7.2513684113
  0
LINE
  5
653
100
AcDbEntity
  8
RACCORDO
100
AcDbLine
 62
250
  6
CONTINUOUS
 10
-111.2668459752
 20
6.1313684113
 11
-111.2668459752
 21
7.3313684113
  0
LINE
  5
654
100
AcDbEntity
  8
ASSI
100
AcDbLine
 62
250
  6
CONTINUOUS
 10
-111.2668459752
 20
6.1313684113
 11
-111.2668459752
 21
7.3313684113
  0
LWPOLYLINE
  5
655
100
AcDbEntity
  8
ASSI
100
AcDbPolyline
 62
7
  6
CONTINUOUS
 90
7
 70
0
 10
-109.799496836
 20
7.9555844033
 10
-109.8429733686
 20
7.9332411368
 10
-109.8881033529
 20
7.9147425892
 10
-109.9345702345
 20
7.9002185147
 10
-109.9820480817
 20
7.8897707891
 10
-110.0302038714
 20
7.8834726958
 10
-110.0786998404
 20
7.8813684113
  0
LINE
  5
656
100
AcDbEntity
  8
RACCORDO
100
AcDbLine
 62
7
  6
CONTINUOUS
 10
-111.6254040369
 20
7.3227652491
 11
-111.6172951019
 21
7.3255784343
  0
LINE
  5
657
100
AcDbEntity
  8
ASSI
100
AcDbLine
 62
7
  6
CONTINUOUS
 10
-111.6254040369
 20
7.3227652491
 11
-111.6172951019
 21
7.3255784343
  0
LWPOLYLINE
  5
658
100
AcDbEntity
  8
RACCORDO
100
AcDbPolyline
 62
7
  6
CONTINUOUS
 90
3
 70
0
 10
-111.6083122477
 20
6.1348702487
 10
-111.6173034723
 20
6.1371610521
 10
-111.6254154113
 20
6.1399760978
  0
LWPOLYLINE
  5
659
100
AcDbEntity
  8
ASSI
100
AcDbPolyline
 62
7
  6
CONTINUOUS
 90
3
 70
0
 10
-111.6083122477
 20
6.1348702487
 10
-111.6173034723
 20
6.1371610521
 10
-111.6254154113
 20
6.1399760978
  0
LWPOLYLINE
  5
65A
100
AcDbEntity
  8
RACCORDO
100
AcDbPolyline
 62
7
  6
CONTINUOUS
 90
8
 70
0
 10
-111.6254154113
 20
6.1399760978
 10
-111.6327131115
 20
6.1430902661
 10
-111.6392308964
 20
6.146459864
 10
-111.6450020097
 20
6.1501285844
 10
-111.6500890369
 20
6.1540023861
 10
-111.6545405415
 20
6.1580499221
 10
-111.6583953354
 20
6.1623025393
 10
-111.6617010673
 20
6.1667602378
  0
LWPOLYLINE
  5
65B
100
AcDbEntity
  8
ASSI
100
AcDbPolyline
 62
7
  6
CONTINUOUS
 90
8
 70
0
 10
-111.6254154113
 20
6.1399760978
 10
-111.6327131115
 20
6.1430902661
 10
-111.6392308964
 20
6.146459864
 10
-111.6450020097
 20
6.1501285844
 10
-111.6500890369
 20
6.1540023861
 10
-111.6545405415
 20
6.1580499221
 10
-111.6583953354
 20
6.1623025393
 10
-111.6617010673
 20
6.1667602378
  0
LINE
  5
65C
100
AcDbEntity
  8
RACCORDO
100
AcDbLine
 62
250
  6
CONTINUOUS
 10
-111.217942647
 20
6.1313684113
 11
-111.217942647
 21
7.3313684113
  0
LINE
  5
65D
100
AcDbEntity
  8
ASSI
100
AcDbLine
 62
250
  6
CONTINUOUS
 10
-111.217942647
 20
6.1313684113
 11
-111.217942647
 21
7.3313684113
  0
LINE
  5
65E
100
AcDbEntity
  8
RACCORDO
100
AcDbLine
 62
250
  6
CONTINUOUS
 10
-111.0950698404
 20
6.2113684113
 11
-111.0950698404
 21
7.2513684113
  0
LINE
  5
65F
100
AcDbEntity
  8
ASSI
100
AcDbLine
 62
250
  6
CONTINUOUS
 10
-111.0950698404
 20
6.2113684113
 11
-111.0950698404
 21
7.2513684113
  0
LWPOLYLINE
  5
660
100
AcDbEntity
  8
RACCORDO
100
AcDbPolyline
 62
250
  6
CONTINUOUS
 90
10
 70
0
 10
-111.1606020039
 20
6.1313684113
 10
-111.1492224631
 20
6.1325837911
 10
-111.1381886839
 20
6.1361930017
 10
-111.1278359221
 20
6.142086379
 10
-111.1184787411
 20
6.1500848559
 10
-111.1104014542
 20
6.1599454026
 10
-111.1038494855
 20
6.1713684113
 10
-111.0990219134
 20
6.1840067999
 10
-111.0960654212
 20
6.1974765571
 10
-111.0950698404
 20
6.2113684113
  0
LWPOLYLINE
  5
661
100
AcDbEntity
  8
ASSI
100
AcDbPolyline
 62
250
  6
CONTINUOUS
 90
10
 70
0
 10
-111.1606020039
 20
6.1313684113
 10
-111.1492224631
 20
6.1325837911
 10
-111.1381886839
 20
6.1361930017
 10
-111.1278359221
 20
6.142086379
 10
-111.1184787411
 20
6.1500848559
 10
-111.1104014542
 20
6.1599454026
 10
-111.1038494855
 20
6.1713684113
 10
-111.0990219134
 20
6.1840067999
 10
-111.0960654212
 20
6.1974765571
 10
-111.0950698404
 20
6.2113684113
  0
LINE
  5
662
100
AcDbEntity
  8
RACCORDO
100
AcDbLine
 62
7
  6
CONTINUOUS
 10
-110.9423612246
 20
6.1313684113
 11
-111.5759234826
 21
6.1313684113
  0
LINE
  5
663
100
AcDbEntity
  8
ASSI
100
AcDbLine
 62
7
  6
CONTINUOUS
 10
-110.9423612246
 20
6.1313684113
 11
-111.5759234826
 21
6.1313684113
  0
LINE
  5
664
100
AcDbEntity
  8
RACCORDO
100
AcDbLine
 62
250
  6
CONTINUOUS
 10
-110.845292408
 20
6.2113684113
 11
-111.6747946381
 21
6.2113684113
  0
LINE
  5
665
100
AcDbEntity
  8
ASSI
100
AcDbLine
 62
250
  6
CONTINUOUS
 10
-110.845292408
 20
6.2113684113
 11
-111.6747946381
 21
6.2113684113
  0
LWPOLYLINE
  5
666
100
AcDbEntity
  8
RACCORDO
100
AcDbPolyline
 62
7
  6
CONTINUOUS
 90
4
 70
0
 10
-111.5759234836
 20
6.1313684113
 10
-111.5876087166
 20
6.1320114482
 10
-111.5984100029
 20
6.1331787273
 10
-111.6083122477
 20
6.1348702487
  0
LWPOLYLINE
  5
667
100
AcDbEntity
  8
ASSI
100
AcDbPolyline
 62
7
  6
CONTINUOUS
 90
4
 70
0
 10
-111.5759234836
 20
6.1313684113
 10
-111.5876087166
 20
6.1320114482
 10
-111.5984100029
 20
6.1331787273
 10
-111.6083122477
 20
6.1348702487
  0
LWPOLYLINE
  5
668
100
AcDbEntity
  8
RACCORDO
100
AcDbPolyline
 62
250
  6
CONTINUOUS
 90
7
 70
0
 10
-111.5590868467
 20
6.1313684113
 10
-111.5700200987
 20
6.1325837911
 10
-111.5806211493
 20
6.1361930017
 10
-111.5905678911
 20
6.142086379
 10
-111.5995580972
 20
6.1500848558
 10
-111.6073186049
 20
6.1599454025
 10
-111.6136136151
 20
6.1713684113
  0
LWPOLYLINE
  5
669
100
AcDbEntity
  8
ASSI
100
AcDbPolyline
 62
250
  6
CONTINUOUS
 90
7
 70
0
 10
-111.5590868467
 20
6.1313684113
 10
-111.5700200987
 20
6.1325837911
 10
-111.5806211493
 20
6.1361930017
 10
-111.5905678911
 20
6.142086379
 10
-111.5995580972
 20
6.1500848558
 10
-111.6073186049
 20
6.1599454025
 10
-111.6136136151
 20
6.1713684113
  0
LWPOLYLINE
  5
66A
100
AcDbEntity
  8
RACCORDO
100
AcDbPolyline
 62
250
  6
CONTINUOUS
 90
10
 70
0
 10
-111.3219378029
 20
6.1313684113
 10
-111.3328710549
 20
6.1325837911
 10
-111.3434721055
 20
6.1361930017
 10
-111.3534188473
 20
6.142086379
 10
-111.3624090535
 20
6.1500848559
 10
-111.3701695612
 20
6.1599454026
 10
-111.3764645713
 20
6.1713684113
 10
-111.3811028131
 20
6.1840067999
 10
-111.3839433561
 20
6.1974765571
 10
-111.3848998917
 20
6.2113684113
  0
LWPOLYLINE
  5
66B
100
AcDbEntity
  8
ASSI
100
AcDbPolyline
 62
250
  6
CONTINUOUS
 90
10
 70
0
 10
-111.3219378029
 20
6.1313684113
 10
-111.3328710549
 20
6.1325837911
 10
-111.3434721055
 20
6.1361930017
 10
-111.3534188473
 20
6.142086379
 10
-111.3624090535
 20
6.1500848559
 10
-111.3701695612
 20
6.1599454026
 10
-111.3764645713
 20
6.1713684113
 10
-111.3811028131
 20
6.1840067999
 10
-111.3839433561
 20
6.1974765571
 10
-111.3848998917
 20
6.2113684113
  0
LWPOLYLINE
  5
66C
100
AcDbEntity
  8
RACCORDO
100
AcDbPolyline
 62
7
  6
CONTINUOUS
 90
13
 70
0
 10
-112.4132066763
 20
8.3869378912
 10
-112.4066735696
 20
8.3782601754
 10
-112.3997796553
 20
8.3696054532
 10
-112.3925408858
 20
8.3609737246
 10
-112.3849849831
 20
8.3523418533
 10
-112.3771227618
 20
8.3437329757
 10
-112.3689451473
 20
8.3352165007
 10
-112.3604792346
 20
8.3267895916
 10
-112.3517444085
 20
8.3184550852
 10
-112.3427186556
 20
8.3102909007
 10
-112.3334135741
 20
8.3023230111
 10
-112.3238773907
 20
8.2945254435
 10
-112.3141460656
 20
8.2868981977
  0
LWPOLYLINE
  5
66D
100
AcDbEntity
  8
ASSI
100
AcDbPolyline
 62
7
  6
CONTINUOUS
 90
13
 70
0
 10
-112.4132066763
 20
8.3869378912
 10
-112.4066735696
 20
8.3782601754
 10
-112.3997796553
 20
8.3696054532
 10
-112.3925408858
 20
8.3609737246
 10
-112.3849849831
 20
8.3523418533
 10
-112.3771227618
 20
8.3437329757
 10
-112.3689451473
 20
8.3352165007
 10
-112.3604792346
 20
8.3267895916
 10
-112.3517444085
 20
8.3184550852
 10
-112.3427186556
 20
8.3102909007
 10
-112.3334135741
 20
8.3023230111
 10
-112.3238773907
 20
8.2945254435
 10
-112.3141460656
 20
8.2868981977
  0
LINE
  5
66E
100
AcDbEntity
  8
RACCORDO
100
AcDbLine
 62
7
  6
CONTINUOUS
 10
-110.845292408
 20
7.2513684113
 11
-110.845292408
 21
6.2113684113
  0
LINE
  5
66F
100
AcDbEntity
  8
ASSI
100
AcDbLine
 62
7
  6
CONTINUOUS
 10
-110.845292408
 20
7.2513684113
 11
-110.845292408
 21
6.2113684113
  0
LINE
  5
670
100
AcDbEntity
  8
RACCORDO
100
AcDbLine
 62
7
  6
CONTINUOUS
 10
-112.475292408
 20
6.1313684113
 11
-111.8362762672
 21
6.4655216273
  0
LINE
  5
671
100
AcDbEntity
  8
ASSI
100
AcDbLine
 62
7
  6
CONTINUOUS
 10
-112.475292408
 20
6.1313684113
 11
-111.8362762672
 21
6.4655216273
  0
LINE
  5
672
100
AcDbEntity
  8
RACCORDO
100
AcDbLine
 62
7
  6
CONTINUOUS
 10
-111.8362762672
 20
6.9972151954
 11
-112.4746857399
 21
7.3310511735
  0
LINE
  5
673
100
AcDbEntity
  8
ASSI
100
AcDbLine
 62
7
  6
CONTINUOUS
 10
-111.8362762672
 20
6.9972151954
 11
-112.4746857399
 21
7.3310511735
  0
LWPOLYLINE
  5
674
100
AcDbEntity
  8
0
100
AcDbPolyline
 62
7
  6
CONTINUOUS
 90
2
 70
0
 43
0.3500000006
 10
-110.6538631897
 20
15.3339479828
 10
-110.6538631897
 20
16.8339484406
  0
LWPOLYLINE
  5
675
100
AcDbEntity
  8
RACCORDO
100
AcDbPolyline
 62
7
  6
CONTINUOUS
 90
7
 70
0
 10
-112.3141460656
 20
5.175838625
 10
-112.3317018873
 20
5.1615647419
 10
-112.3491929252
 20
5.1463310992
 10
-112.3663598188
 20
5.1301376967
 10
-112.3829338287
 20
5.1129845346
 10
-112.3986409774
 20
5.0948716129
 10
-112.4132066763
 20
5.0757989315
  0
LWPOLYLINE
  5
676
100
AcDbEntity
  8
ASSI
100
AcDbPolyline
 62
7
  6
CONTINUOUS
 90
7
 70
0
 10
-112.3141460656
 20
5.175838625
 10
-112.3317018873
 20
5.1615647419
 10
-112.3491929252
 20
5.1463310992
 10
-112.3663598188
 20
5.1301376967
 10
-112.3829338287
 20
5.1129845346
 10
-112.3986409774
 20
5.0948716129
 10
-112.4132066763
 20
5.0757989315
  0
LINE
  5
677
100
AcDbEntity
  8
RACCORDO
100
AcDbLine
 62
250
  6
CONTINUOUS
 10
-111.675292408
 20
7.2513684113
 11
-110.845292408
 21
7.2513684113
  0
LINE
  5
678
100
AcDbEntity
  8
ASSI
100
AcDbLine
 62
250
  6
CONTINUOUS
 10
-111.675292408
 20
7.2513684113
 11
-110.845292408
 21
7.2513684113
  0
LWPOLYLINE
  5
679
100
AcDbEntity
  8
RACCORDO
100
AcDbPolyline
 62
250
  6
CONTINUOUS
 90
10
 70
0
 10
-111.1606020039
 20
7.3313684113
 10
-111.1492224631
 20
7.3301530316
 10
-111.1381886839
 20
7.326543821
 10
-111.1278359221
 20
7.3206504436
 10
-111.1184787411
 20
7.3126519668
 10
-111.1104014542
 20
7.3027914201
 10
-111.1038494855
 20
7.2913684113
 10
-111.0990219134
 20
7.2787300228
 10
-111.0960654212
 20
7.2652602656
 10
-111.0950698404
 20
7.2513684113
  0
LWPOLYLINE
  5
67A
100
AcDbEntity
  8
ASSI
100
AcDbPolyline
 62
250
  6
CONTINUOUS
 90
10
 70
0
 10
-111.1606020039
 20
7.3313684113
 10
-111.1492224631
 20
7.3301530316
 10
-111.1381886839
 20
7.326543821
 10
-111.1278359221
 20
7.3206504436
 10
-111.1184787411
 20
7.3126519668
 10
-111.1104014542
 20
7.3027914201
 10
-111.1038494855
 20
7.2913684113
 10
-111.0990219134
 20
7.2787300228
 10
-111.0960654212
 20
7.2652602656
 10
-111.0950698404
 20
7.2513684113
  0
LWPOLYLINE
  5
67B
100
AcDbEntity
  8
RACCORDO
100
AcDbPolyline
 62
7
  6
CONTINUOUS
 90
10
 70
0
 10
-109.5566553125
 20
4.5341548158
 10
-109.5539085311
 20
4.5170911842
 10
-109.5487579614
 20
4.5014345693
 10
-109.5412036035
 20
4.4871849711
 10
-109.5309294117
 20
4.4740211286
 10
-109.5182514316
 20
4.4622643028
 10
-109.5041178005
 20
4.4528782773
 10
-109.4888445644
 20
4.4461843134
 10
-109.4721156773
 20
4.4418611497
 10
-109.4539311392
 20
4.4399087863
  0
LINE
  5
67C
100
AcDbEntity
  8
0
100
AcDbLine
 62
7
  6
CONTINUOUS
 10
-109.775292408
 20
7.9813684113
 11
-109.775292408
 21
7.8813684113
  0
LINE
  5
67D
100
AcDbEntity
  8
ASSI
100
AcDbLine
 62
7
  6
CONTINUOUS
 10
-109.775292408
 20
7.9813684113
 11
-109.775292408
 21
7.8813684113
  0
LINE
  5
67E
100
AcDbEntity
  8
0
100
AcDbLine
 62
7
  6
CONTINUOUS
 10
-109.775292408
 20
4.4813684113
 11
-109.775292408
 21
4.3813684113
  0
LINE
  5
67F
100
AcDbEntity
  8
ASSI
100
AcDbLine
 62
7
  6
CONTINUOUS
 10
-109.775292408
 20
4.4813684113
 11
-109.775292408
 21
4.3813684113
  0
LINE
  5
680
100
AcDbEntity
  8
0
100
AcDbLine
 62
7
  6
CONTINUOUS
 10
-109.775292408
 20
5.4813684113
 11
-109.775292408
 21
5.5813684113
  0
LINE
  5
681
100
AcDbEntity
  8
ASSI
100
AcDbLine
 62
7
  6
CONTINUOUS
 10
-109.775292408
 20
5.4813684113
 11
-109.775292408
 21
5.5813684113
  0
LINE
  5
682
100
AcDbEntity
  8
0
100
AcDbLine
 62
7
  6
CONTINUOUS
 10
-109.775292408
 20
8.9813684113
 11
-109.775292408
 21
9.0813684113
  0
LINE
  5
683
100
AcDbEntity
  8
ASSI
100
AcDbLine
 62
7
  6
CONTINUOUS
 10
-109.775292408
 20
8.9813684113
 11
-109.775292408
 21
9.0813684113
  0
LWPOLYLINE
  5
684
100
AcDbEntity
  8
RACCORDO
100
AcDbPolyline
 62
250
  6
CONTINUOUS
 90
10
 70
0
 10
-111.3219378029
 20
7.3313684113
 10
-111.3328710549
 20
7.3301530316
 10
-111.3434721055
 20
7.326543821
 10
-111.3534188473
 20
7.3206504436
 10
-111.3624090535
 20
7.3126519668
 10
-111.3701695612
 20
7.3027914201
 10
-111.3764645713
 20
7.2913684113
 10
-111.3811028131
 20
7.2787300228
 10
-111.3839433561
 20
7.2652602656
 10
-111.3848998917
 20
7.2513684113
  0
LWPOLYLINE
  5
685
100
AcDbEntity
  8
ASSI
100
AcDbPolyline
 62
250
  6
CONTINUOUS
 90
10
 70
0
 10
-111.3219378029
 20
7.3313684113
 10
-111.3328710549
 20
7.3301530316
 10
-111.3434721055
 20
7.326543821
 10
-111.3534188473
 20
7.3206504436
 10
-111.3624090535
 20
7.3126519668
 10
-111.3701695612
 20
7.3027914201
 10
-111.3764645713
 20
7.2913684113
 10
-111.3811028131
 20
7.2787300228
 10
-111.3839433561
 20
7.2652602656
 10
-111.3848998917
 20
7.2513684113
  0
LWPOLYLINE
  5
686
100
AcDbEntity
  8
RACCORDO
100
AcDbPolyline
 62
250
  6
CONTINUOUS
 90
7
 70
0
 10
-111.5590868467
 20
7.3313684113
 10
-111.5700200987
 20
7.3301530316
 10
-111.5806211493
 20
7.326543821
 10
-111.5905678911
 20
7.3206504437
 10
-111.5995580972
 20
7.3126519669
 10
-111.6073186049
 20
7.3027914202
 10
-111.613613615
 20
7.2913684114
  0
LWPOLYLINE
  5
687
100
AcDbEntity
  8
ASSI
100
AcDbPolyline
 62
250
  6
CONTINUOUS
 90
7
 70
0
 10
-111.5590868467
 20
7.3313684113
 10
-111.5700200987
 20
7.3301530316
 10
-111.5806211493
 20
7.326543821
 10
-111.5905678911
 20
7.3206504437
 10
-111.5995580972
 20
7.3126519669
 10
-111.6073186049
 20
7.3027914202
 10
-111.613613615
 20
7.2913684114
  0
LINE
  5
688
100
AcDbEntity
  8
RACCORDO
100
AcDbLine
 62
7
  6
CONTINUOUS
 10
-111.5759234826
 20
7.3313684113
 11
-110.9423612246
 21
7.3313684113
  0
LINE
  5
689
100
AcDbEntity
  8
ASSI
100
AcDbLine
 62
7
  6
CONTINUOUS
 10
-111.5759234826
 20
7.3313684113
 11
-110.9423612246
 21
7.3313684113
  0
LINE
  5
68A
100
AcDbEntity
  8
IMPORT_IGES
100
AcDbLine
 62
7
  6
CONTINUOUS
 10
-109.495292408
 20
5.5813684113
 11
-109.495292408
 21
5.5228280311
  0
LINE
  5
68B
100
AcDbEntity
  8
IMPORT_IGES
100
AcDbLine
 62
7
  6
CONTINUOUS
 10
-109.495292408
 20
4.4399088648
 11
-109.495292408
 21
4.3813684113
  0
LWPOLYLINE
  5
68C
100
AcDbEntity
  8
RACCORDO
100
AcDbPolyline
 62
7
  6
CONTINUOUS
 90
5
 70
0
 10
-111.6172951019
 20
7.3255784343
 10
-111.6083067872
 20
7.3278677961
 10
-111.5984067402
 20
7.3295584913
 10
-111.5876073056
 20
7.330725363
 10
-111.5759234836
 20
7.3313684113
  0
LWPOLYLINE
  5
68D
100
AcDbEntity
  8
ASSI
100
AcDbPolyline
 62
7
  6
CONTINUOUS
 90
5
 70
0
 10
-111.6172951019
 20
7.3255784343
 10
-111.6083067872
 20
7.3278677961
 10
-111.5984067402
 20
7.3295584913
 10
-111.5876073056
 20
7.330725363
 10
-111.5759234836
 20
7.3313684113
  0
LWPOLYLINE
  5
68E
100
AcDbEntity
  8
RACCORDO
100
AcDbPolyline
 62
7
  6
CONTINUOUS
 90
10
 70
0
 10
-109.5566553125
 20
8.0341548158
 10
-109.5539085311
 20
8.0170911842
 10
-109.5487579614
 20
8.0014345693
 10
-109.5412036035
 20
7.9871849711
 10
-109.5309294117
 20
7.9740211286
 10
-109.5182514316
 20
7.9622643028
 10
-109.5041178005
 20
7.9528782773
 10
-109.4888445644
 20
7.9461843134
 10
-109.4721156773
 20
7.9418611497
 10
-109.4539311392
 20
7.9399087863
  0
LINE
  5
68F
100
AcDbEntity
  8
0
100
AcDbLine
 62
7
  6
CONTINUOUS
 10
-109.185292408
 20
5.5252596039
 11
-109.185292408
 21
5.5813684113
  0
LINE
  5
690
100
AcDbEntity
  8
0
100
AcDbLine
 62
7
  6
CONTINUOUS
 10
-109.185292408
 20
7.8813684113
 11
-109.185292408
 21
7.9374772188
  0
LINE
  5
691
100
AcDbEntity
  8
RACCORDO
100
AcDbLine
 62
7
  6
CONTINUOUS
 10
-109.175292408
 20
4.3813684113
 11
-109.175292408
 21
4.4374772188
  0
LINE
  5
692
100
AcDbEntity
  8
RACCORDO
100
AcDbLine
 62
7
  6
CONTINUOUS
 10
-109.175292408
 20
5.5252596039
 11
-109.175292408
 21
5.5813684113
  0
LINE
  5
693
100
AcDbEntity
  8
RACCORDO
100
AcDbLine
 62
7
  6
CONTINUOUS
 10
-109.175292408
 20
7.8813684113
 11
-109.175292408
 21
7.9374772188
  0
LINE
  5
694
100
AcDbEntity
  8
RACCORDO
100
AcDbLine
 62
7
  6
CONTINUOUS
 10
-109.175292408
 20
9.0252596039
 11
-109.175292408
 21
9.0813684113
  0
LINE
  5
695
100
AcDbEntity
  8
DRAFT
100
AcDbLine
 62
7
  6
CONTINUOUS
 10
-108.475292408
 20
7.8813684113
 11
-110.1792769325
 21
7.8813684113
  0
LINE
  5
696
100
AcDbEntity
  8
ASSI
100
AcDbLine
 62
7
  6
CONTINUOUS
 10
-108.475292408
 20
7.8813684113
 11
-110.0786998254
 21
7.8813684113
  0
LINE
  5
697
100
AcDbEntity
  8
ASSI
100
AcDbLine
 62
7
  6
CONTINUOUS
 10
-110.0807228516
 20
7.8813720667
 11
-110.1792769325
 21
7.8813684113
  0
LINE
  5
698
100
AcDbEntity
  8
0
100
AcDbLine
 62
7
  6
CONTINUOUS
 10
-109.8510283393
 20
7.9813684113
 11
-109.775292408
 21
7.9813684113
  0
LINE
  5
699
100
AcDbEntity
  8
ASSI
100
AcDbLine
 62
7
  6
CONTINUOUS
 10
-109.8510283393
 20
7.9813684113
 11
-109.775292408
 21
7.9813684113
  0
LINE
  5
69A
100
AcDbEntity
  8
RACCORDO
100
AcDbLine
 62
7
  6
CONTINUOUS
 10
-109.5566553125
 20
8.0341548158
 11
-109.7813303722
 21
8.0341548158
  0
LWPOLYLINE
  5
69B
100
AcDbEntity
  8
ASSI
100
AcDbPolyline
 62
7
  6
CONTINUOUS
 90
7
 70
0
 10
-110.0786998254
 20
7.8813684113
 10
-110.0807228516
 20
7.8813720667
 10
-110.0847688054
 20
7.8814013097
 10
-110.0888144635
 20
7.8814597942
 10
-110.0928596285
 20
7.8815475175
 10
-110.0969041034
 20
7.8816644751
 10
-110.1029690905
 20
7.8818947133
  0
LINE
  5
69C
100
AcDbEntity
  8
RACCORDO
100
AcDbLine
 62
7
  6
CONTINUOUS
 10
-108.475292408
 20
7.9313684113
 11
-109.7534308771
 21
7.9425225568
  0
LWPOLYLINE
  5
69D
100
AcDbEntity
  8
RACCORDO
100
AcDbPolyline
 62
7
  6
CONTINUOUS
 90
3
 70
0
 10
-109.7534307564
 20
7.9425225244
 10
-109.7697790587
 20
7.9442760406
 10
-109.775292408
 20
7.9457566605
  0
LINE
  5
69E
100
AcDbEntity
  8
RACCORDO
100
AcDbLine
 62
250
  6
CONTINUOUS
 10
-108.9770377151
 20
4.3813684113
 11
-108.9770377151
 21
4.4357470763
  0
LINE
  5
69F
100
AcDbEntity
  8
RACCORDO
100
AcDbLine
 62
250
  6
CONTINUOUS
 10
-108.9770377151
 20
5.5269897464
 11
-108.9770377151
 21
5.5813684113
  0
LINE
  5
6A0
100
AcDbEntity
  8
RACCORDO
100
AcDbLine
 62
250
  6
CONTINUOUS
 10
-108.9770377151
 20
7.8813684113
 11
-108.9770377151
 21
7.9357470763
  0
LINE
  5
6A1
100
AcDbEntity
  8
RACCORDO
100
AcDbLine
 62
250
  6
CONTINUOUS
 10
-108.9770377151
 20
9.0269897464
 11
-108.9770377151
 21
9.0813684113
  0
LINE
  5
6A2
100
AcDbEntity
  8
RACCORDO
100
AcDbLine
 62
250
  6
CONTINUOUS
 10
-111.672575284
 20
8.3813389878
 11
-111.7716358947
 21
8.3813389878
  0
LINE
  5
6A3
100
AcDbEntity
  8
ASSI
100
AcDbLine
 62
250
  6
CONTINUOUS
 10
-111.672575284
 20
8.3813389878
 11
-111.7716358947
 21
8.3813389878
  0
LINE
  5
6A4
100
AcDbEntity
  8
RACCORDO
100
AcDbLine
 62
7
  6
CONTINUOUS
 10
-112.1459301548
 20
8.2354756047
 11
-111.675292408
 21
8.2313684113
  0
LINE
  5
6A5
100
AcDbEntity
  8
ASSI
100
AcDbLine
 62
7
  6
CONTINUOUS
 10
-112.1459301548
 20
8.2354756047
 11
-111.675292408
 21
8.2313684113
  0
LINE
  5
6A6
100
AcDbEntity
  8
RACCORDO
100
AcDbLine
 62
250
  6
CONTINUOUS
 10
-112.4132066763
 20
8.3869378912
 11
-111.7716358947
 21
8.3813389878
  0
LINE
  5
6A7
100
AcDbEntity
  8
ASSI
100
AcDbLine
 62
250
  6
CONTINUOUS
 10
-112.4132066763
 20
8.3869378912
 11
-111.7716358947
 21
8.3813389878
  0
LINE
  5
6A8
100
AcDbEntity
  8
RACCORDO
100
AcDbLine
 62
250
  6
CONTINUOUS
 10
-111.672575284
 20
8.3813389878
 11
-111.5266013883
 21
8.3800650929
  0
LINE
  5
6A9
100
AcDbEntity
  8
ASSI
100
AcDbLine
 62
250
  6
CONTINUOUS
 10
-111.672575284
 20
8.3813389878
 11
-111.5266013883
 21
8.3800650929
  0
LINE
  5
6AA
100
AcDbEntity
  8
ASSI
100
AcDbLine
 62
7
  6
CONTINUOUS
 10
-110.7964572815
 20
8.4813684113
 11
-110.8018956472
 21
8.4813684113
  0
LINE
  5
6AB
100
AcDbEntity
  8
ASSI
100
AcDbLine
 62
7
  6
CONTINUOUS
 10
-108.475292408
 20
10.2813684113
 11
-108.475292408
 21
9.0813684113
  0
LINE
  5
6AC
100
AcDbEntity
  8
RACCORDO
100
AcDbLine
 62
7
  6
CONTINUOUS
 10
-108.475292408
 20
10.2813684113
 11
-108.475292408
 21
9.0313684113
  0
LINE
  5
6AD
100
AcDbEntity
  8
ASSI
100
AcDbLine
 62
7
  6
CONTINUOUS
 10
-108.475292408
 20
7.8813684113
 11
-108.475292408
 21
5.5813684113
  0
LINE
  5
6AE
100
AcDbEntity
  8
DRAFT
100
AcDbLine
 62
7
  6
CONTINUOUS
 10
-108.475292408
 20
9.0313684113
 11
-108.475292408
 21
4.4313684113
  0
LINE
  5
6AF
100
AcDbEntity
  8
RACCORDO
100
AcDbLine
 62
7
  6
CONTINUOUS
 10
-108.475292408
 20
4.4313684113
 11
-108.475292408
 21
3.1813684113
  0
LINE
  5
6B0
100
AcDbEntity
  8
ASSI
100
AcDbLine
 62
7
  6
CONTINUOUS
 10
-108.475292408
 20
4.3813684113
 11
-108.475292408
 21
3.1813684113
  0
LWPOLYLINE
  5
6B1
100
AcDbEntity
  8
RACCORDO
100
AcDbPolyline
 62
7
  6
CONTINUOUS
 90
10
 70
0
 10
-109.4539311596
 20
9.0228280311
 10
-109.4721156877
 20
9.0208756644
 10
-109.4888445674
 20
9.0165524987
 10
-109.5041177988
 20
9.0098585342
 10
-109.5182514283
 20
9.0004725101
 10
-109.5309294095
 20
8.9887156871
 10
-109.5412036025
 20
8.9755518471
 10
-109.5487579607
 20
8.9613022507
 10
-109.5539085307
 20
8.9456456373
 10
-109.5566553125
 20
8.9285820068
  0
LINE
  5
6B2
100
AcDbEntity
  8
RACCORDO
100
AcDbLine
 62
7
  6
CONTINUOUS
 10
-109.7697782166
 20
9.0184606141
 11
-109.7534307834
 21
9.0202142911
  0
LINE
  5
6B3
100
AcDbEntity
  8
RACCORDO
100
AcDbLine
 62
7
  6
CONTINUOUS
 10
-109.7813303722
 20
8.9285820068
 11
-109.5566553125
 21
8.9285820068
  0
LWPOLYLINE
  5
6B4
100
AcDbEntity
  8
ASSI
100
AcDbPolyline
 62
7
  6
CONTINUOUS
 90
11
 70
0
 10
-109.7579787117
 20
8.9811211558
 10
-109.6674642054
 20
8.9041489373
 10
-109.5926436886
 20
8.8081518323
 10
-109.5383664426
 20
8.6983431534
 10
-109.5069265072
 20
8.5793639887
 10
-109.4995715105
 20
8.4583357259
 10
-109.5163596047
 20
8.336215274
 10
-109.5569151335
 20
8.2202297517
 10
-109.6195240083
 20
8.115281313
 10
-109.7015400513
 20
8.0258056269
 10
-109.7994968165
 20
7.9555844144
  0
LWPOLYLINE
  5
6B5
100
AcDbEntity
  8
ASSI
100
AcDbPolyline
 62
7
  6
CONTINUOUS
 90
7
 70
0
 10
-110.1029690906
 20
9.0808421094
 10
-110.1009476911
 20
9.0809261612
 10
-110.0969041034
 20
9.0810723476
 10
-110.0928596285
 20
9.0811893052
 10
-110.0888144635
 20
9.0812770284
 10
-110.0847688054
 20
9.081335513
 10
-110.0786998256
 20
9.0813684113
  0
LINE
  5
6B6
100
AcDbEntity
  8
RACCORDO
100
AcDbLine
 62
7
  6
CONTINUOUS
 10
-108.475292408
 20
9.0313684113
 11
-109.7534308771
 21
9.0202142659
  0
LINE
  5
6B7
100
AcDbEntity
  8
0
100
AcDbLine
 62
7
  6
CONTINUOUS
 10
-109.775292408
 20
8.9813684113
 11
-109.8510283393
 21
8.9813684113
  0
LINE
  5
6B8
100
AcDbEntity
  8
ASSI
100
AcDbLine
 62
7
  6
CONTINUOUS
 10
-109.775292408
 20
8.9813684113
 11
-109.8510283393
 21
8.9813684113
  0
LINE
  5
6B9
100
AcDbEntity
  8
DRAFT
100
AcDbLine
 62
7
  6
CONTINUOUS
 10
-108.475292408
 20
9.0813684113
 11
-110.1792769325
 21
9.0813684113
  0
LINE
  5
6BA
100
AcDbEntity
  8
ASSI
100
AcDbLine
 62
7
  6
CONTINUOUS
 10
-108.475292408
 20
9.0813684113
 11
-110.1792769325
 21
9.0813684113
  0
LWPOLYLINE
  5
6BB
100
AcDbEntity
  8
ASSI
100
AcDbPolyline
 62
7
  6
CONTINUOUS
 90
7
 70
0
 10
-110.0786998254
 20
9.0813684113
 10
-110.0241588352
 20
9.0787055901
 10
-109.9681154235
 20
9.0703447214
 10
-109.913127562
 20
9.056361956
 10
-109.8597201209
 20
9.0368907622
 10
-109.8084028848
 20
9.0121169965
 10
-109.7579787211
 20
8.9811211622
  0
LINE
  5
6BC
100
AcDbEntity
  8
RACCORDO
100
AcDbLine
 62
7
  6
CONTINUOUS
 10
-109.175292408
 20
4.4313684113
 11
-109.225292408
 21
4.3813684113
  0
LINE
  5
6BD
100
AcDbEntity
  8
RACCORDO
100
AcDbLine
 62
7
  6
CONTINUOUS
 10
-109.225292408
 20
9.0813684113
 11
-109.175292408
 21
9.0313684113
  0
LINE
  5
6BE
100
AcDbEntity
  8
RACCORDO
100
AcDbLine
 62
250
  6
CONTINUOUS
 10
-108.475292408
 20
10.1313741229
 11
-111.672575284
 21
10.1034718579
  0
LINE
  5
6BF
100
AcDbEntity
  8
ASSI
100
AcDbLine
 62
250
  6
CONTINUOUS
 10
-108.475292408
 20
10.1313741229
 11
-111.672575284
 21
10.1034718579
  0
LINE
  5
6C0
100
AcDbEntity
  8
RACCORDO
100
AcDbLine
 62
250
  6
CONTINUOUS
 10
-112.425661999
 20
10.0977642586
 11
-111.7716358947
 21
10.1034718579
  0
LINE
  5
6C1
100
AcDbEntity
  8
ASSI
100
AcDbLine
 62
250
  6
CONTINUOUS
 10
-112.425661999
 20
10.0977642586
 11
-111.7716358947
 21
10.1034718579
  0
LINE
  5
6C2
100
AcDbEntity
  8
RACCORDO
100
AcDbLine
 62
7
  6
CONTINUOUS
 10
-108.475292408
 20
10.2813684113
 11
-112.3266013883
 21
10.247758547
  0
LINE
  5
6C3
100
AcDbEntity
  8
ASSI
100
AcDbLine
 62
7
  6
CONTINUOUS
 10
-108.475292408
 20
10.2813684113
 11
-112.3266013883
 21
10.247758547
  0
LINE
  5
6C4
100
AcDbEntity
  8
RACCORDO
100
AcDbLine
 62
250
  6
CONTINUOUS
 10
-112.475292408
 20
10.0977642586
 11
-112.425661999
 21
10.0977642586
  0
LINE
  5
6C5
100
AcDbEntity
  8
ASSI
100
AcDbLine
 62
250
  6
CONTINUOUS
 10
-112.475292408
 20
10.0977642586
 11
-112.425661999
 21
10.0977642586
  0
LINE
  5
6C6
100
AcDbEntity
  8
RACCORDO
100
AcDbLine
 62
250
  6
CONTINUOUS
 10
-111.7716358947
 20
10.1034718579
 11
-111.672575284
 21
10.1034718579
  0
LINE
  5
6C7
100
AcDbEntity
  8
ASSI
100
AcDbLine
 62
250
  6
CONTINUOUS
 10
-111.7716358947
 20
10.1034718579
 11
-111.672575284
 21
10.1034718579
  0
LWPOLYLINE
  5
6C8
100
AcDbEntity
  8
0
100
AcDbPolyline
 62
7
  6
CONTINUOUS
 90
10
 70
0
 43
0.3500000006
 10
-119.9127801819
 20
-4.8543750458
 10
-119.7699268799
 20
-4.7829472618
 10
-119.698495697
 20
-4.7829472618
 10
-119.555642395
 20
-4.9258039627
 10
-119.555642395
 20
-4.9972328796
 10
-119.6270735779
 20
-5.0686617966
 10
-119.698495697
 20
-5.0686617966
 10
-119.8413580627
 20
-4.9972328796
 10
-119.9127801819
 20
-4.9258039627
 10
-119.9127801819
 20
-4.8543750458
  0
LWPOLYLINE
  5
6C9
100
AcDbEntity
  8
RACCORDO
100
AcDbPolyline
 62
250
  6
CONTINUOUS
 90
10
 70
0
 10
-111.672575284
 20
10.2534661464
 10
-111.6899193807
 20
10.251052732
 10
-111.7067009083
 20
10.2441883402
 10
-111.7224137431
 20
10.2330799981
 10
-111.7365839925
 20
10.2180627287
 10
-111.7487842878
 20
10.1995894467
 10
-111.7586466731
 20
10.1782172983
 10
-111.7658737029
 20
10.1545908587
 10
-111.7702474132
 20
10.1294226915
 10
-111.7716358947
 20
10.1034718579
  0
LWPOLYLINE
  5
6CA
100
AcDbEntity
  8
ASSI
100
AcDbPolyline
 62
250
  6
CONTINUOUS
 90
10
 70
0
 10
-111.672575284
 20
10.2534661464
 10
-111.6899193807
 20
10.251052732
 10
-111.7067009083
 20
10.2441883402
 10
-111.7224137431
 20
10.2330799981
 10
-111.7365839925
 20
10.2180627287
 10
-111.7487842878
 20
10.1995894467
 10
-111.7586466731
 20
10.1782172983
 10
-111.7658737029
 20
10.1545908587
 10
-111.7702474132
 20
10.1294226915
 10
-111.7716358947
 20
10.1034718579
  0
LWPOLYLINE
  5
6CB
100
AcDbEntity
  8
0
100
AcDbPolyline
 62
7
  6
CONTINUOUS
 90
3
 70
0
 43
0.3500000006
 10
-110.1538630371
 20
15.9768037033
 10
-111.6538634949
 20
15.9768037033
 10
-111.0110100403
 20
18.3339488983
  0
ARC
  5
6CC
100
AcDbEntity
  8
RACCORDO
100
AcDbCircle
 62
7
  6
CONTINUOUS
 10
-82.3114954797
 20
7.2513684113
 40
0.08
100
AcDbArc
 50
0.0
 51
90.0
  0
ARC
  5
6CD
100
AcDbEntity
  8
RACCORDO
100
AcDbCircle
 62
7
  6
CONTINUOUS
 10
-82.3114954797
 20
6.2113684113
 40
0.08
100
AcDbArc
 50
270.0
 51
360.0
  0
ARC
  5
6CE
100
AcDbEntity
  8
ASSI
100
AcDbCircle
 62
7
  6
CONTINUOUS
 10
-82.3114954797
 20
7.2513684113
 40
0.08
100
AcDbArc
 50
0.0
 51
90.0
  0
ARC
  5
6CF
100
AcDbEntity
  8
ASSI
100
AcDbCircle
 62
7
  6
CONTINUOUS
 10
-82.3114954797
 20
6.2113684113
 40
0.08
100
AcDbArc
 50
270.0
 51
360.0
  0
ARC
  5
6D0
100
AcDbEntity
  8
RACCORDO
100
AcDbCircle
 62
7
  6
CONTINUOUS
 10
-112.325292408
 20
3.3649725641
 40
0.15
100
AcDbArc
 50
180.0
 51
269.5
  0
ARC
  5
6D1
100
AcDbEntity
  8
ASSI
100
AcDbCircle
 62
7
  6
CONTINUOUS
 10
-112.325292408
 20
3.3649725641
 40
0.15
100
AcDbArc
 50
180.0
 51
269.5
  0
ARC
  5
6D2
100
AcDbEntity
  8
RACCORDO
100
AcDbCircle
 62
7
  6
CONTINUOUS
 10
-111.5952923956
 20
6.2113684113
 40
0.08
100
AcDbArc
 50
180.0
 51
213.8901309748
  0
ARC
  5
6D3
100
AcDbEntity
  8
ASSI
100
AcDbCircle
 62
7
  6
CONTINUOUS
 10
-111.5952923956
 20
6.2113684113
 40
0.08
100
AcDbArc
 50
180.0
 51
213.8901309748
  0
ARC
  5
6D4
100
AcDbEntity
  8
DRAFT
100
AcDbCircle
 62
7
  6
CONTINUOUS
 10
-111.975292408
 20
6.7313684113
 40
0.3
100
AcDbArc
 50
297.6058901197
 51
62.3941098803
  0
ARC
  5
6D5
100
AcDbEntity
  8
ASSI
100
AcDbCircle
 62
7
  6
CONTINUOUS
 10
-111.975292408
 20
6.7313684113
 40
0.3
100
AcDbArc
 50
297.6058901197
 51
62.3941098803
  0
ARC
  5
6D6
100
AcDbEntity
  8
RACCORDO
100
AcDbCircle
 62
7
  6
CONTINUOUS
 10
-112.325292408
 20
10.0977642586
 40
0.15
100
AcDbArc
 50
90.5
 51
180.0
  0
ARC
  5
6D7
100
AcDbEntity
  8
ASSI
100
AcDbCircle
 62
7
  6
CONTINUOUS
 10
-112.325292408
 20
10.0977642586
 40
0.15
100
AcDbArc
 50
90.5
 51
180.0
  0
ARC
  5
6D8
100
AcDbEntity
  8
RACCORDO
100
AcDbCircle
 62
7
  6
CONTINUOUS
 10
-111.5952923956
 20
7.2513684113
 40
0.08
100
AcDbArc
 50
146.1098690252
 51
180.0
  0
ARC
  5
6D9
100
AcDbEntity
  8
ASSI
100
AcDbCircle
 62
7
  6
CONTINUOUS
 10
-111.5952923956
 20
7.2513684113
 40
0.08
100
AcDbArc
 50
146.1098690252
 51
180.0
  0
CIRCLE
  5
6DA
100
AcDbEntity
  8
0
100
AcDbCircle
 62
7
  6
CONTINUOUS
 10
-110.175292408
 20
4.9813684113
 40
0.6
  0
ARC
  5
6DB
100
AcDbEntity
  8
0
100
AcDbCircle
 62
7
  6
CONTINUOUS
 10
-110.3304327125
 20
4.9813684113
 40
0.5
100
AcDbArc
 50
225.3477135172
 51
236.6556192323
  0
ARC
  5
6DC
100
AcDbEntity
  8
0
100
AcDbCircle
 62
7
  6
CONTINUOUS
 10
-110.3304327125
 20
4.9813684113
 40
0.5
100
AcDbArc
 50
123.3443807677
 51
134.6494341451
  0
CIRCLE
  5
6DD
100
AcDbEntity
  8
ASSI
100
AcDbCircle
 62
7
  6
CONTINUOUS
 10
-110.175292408
 20
4.9813684113
 40
0.2
  0
ARC
  5
6DE
100
AcDbEntity
  8
IMPORT_IGES
100
AcDbCircle
 62
7
  6
CONTINUOUS
 10
-110.125292408
 20
8.5313684113
 40
0.81
100
AcDbArc
 50
306.5150188746
 51
313.1138826942
  0
ARC
  5
6DF
100
AcDbEntity
  8
IMPORT_IGES
100
AcDbCircle
 62
7
  6
CONTINUOUS
 10
-110.125292408
 20
8.5313684113
 40
0.81
100
AcDbArc
 50
37.3789816682
 51
42.7853486629
  0
ARC
  5
6E0
100
AcDbEntity
  8
IMPORT_IGES
100
AcDbCircle
 62
7
  6
CONTINUOUS
 10
-110.125292408
 20
8.5313684113
 40
0.8
100
AcDbArc
 50
37.9177624915
 51
43.440950006
  0
ARC
  5
6E1
100
AcDbEntity
  8
IMPORT_IGES
100
AcDbCircle
 62
7
  6
CONTINUOUS
 10
-110.125292408
 20
8.5313684113
 40
0.8
100
AcDbArc
 50
305.5467250896
 51
312.3456250795
  0
CIRCLE
  5
6E2
100
AcDbEntity
  8
0
100
AcDbCircle
 62
7
  6
CONTINUOUS
 10
-110.175292408
 20
8.4813684113
 40
0.6
  0
ARC
  5
6E3
100
AcDbEntity
  8
0
100
AcDbCircle
 62
7
  6
CONTINUOUS
 10
-110.3304327125
 20
8.4813684113
 40
0.5
100
AcDbArc
 50
123.3443807677
 51
134.6494341451
  0
ARC
  5
6E4
100
AcDbEntity
  8
0
100
AcDbCircle
 62
7
  6
CONTINUOUS
 10
-110.3304327125
 20
8.4813684113
 40
0.5
100
AcDbArc
 50
225.3477135172
 51
236.6556192323
  0
CIRCLE
  5
6E5
100
AcDbEntity
  8
ASSI
100
AcDbCircle
 62
7
  6
CONTINUOUS
 10
-110.175292408
 20
8.4813684113
 40
0.2
  0
ELLIPSE
  5
6E6
100
AcDbEntity
  8
RACCORDO
100
AcDbEllipse
 62
7
  6
CONTINUOUS
 10
-109.9717363925
 20
8.4813684113
 30
0.0
 11
0.62262162
 21
0.0
 31
0.0
 40
0.9636671467
 41
-0.8410686706
 42
0.8410686706
  0
ELLIPSE
  5
6E7
100
AcDbEntity
  8
RACCORDO
100
AcDbEllipse
 62
7
  6
CONTINUOUS
 10
-109.9717363925
 20
4.9813684113
 30
0.0
 11
0.62262162
 21
-0.0
 31
0.0
 40
0.9636671467
 41
-0.8410686706
 42
0.8410686706
  0
ELLIPSE
  5
6E8
100
AcDbEntity
  8
DRAFT
100
AcDbEllipse
 62
7
  6
CONTINUOUS
 10
-110.1792769325
 20
8.4813684113
 30
0.0
 11
0.62262162
 21
0.0
 31
0.0
 40
0.9636671467
 41
1.6428386725
 42
4.4991273921
  0
ELLIPSE
  5
6E9
100
AcDbEntity
  8
DRAFT
100
AcDbEllipse
 62
7
  6
CONTINUOUS
 10
-110.1792769325
 20
4.9813684113
 30
0.0
 11
0.62262162
 21
0.0
 31
0.0
 40
0.9636671467
 41
1.6428386725
 42
4.4991273921
  0
ELLIPSE
  5
6EA
100
AcDbEntity
  8
RACCORDO
100
AcDbEllipse
 62
7
  6
CONTINUOUS
 10
-110.9423612246
 20
7.2513684113
 30
0.0
 11
0.0970688166
 21
0.0
 31
0.0
 40
0.82415757
 41
0.0
 42
1.5707963268
  0
ELLIPSE
  5
6EB
100
AcDbEntity
  8
RACCORDO
100
AcDbEllipse
 62
7
  6
CONTINUOUS
 10
-110.9423612246
 20
6.2113684113
 30
0.0
 11
0.0970688166
 21
-0.0
 31
0.0
 40
0.82415757
 41
-1.5707963268
 42
0.0
  0
ELLIPSE
  5
6EC
100
AcDbEntity
  8
RACCORDO
100
AcDbEllipse
 62
7
  6
CONTINUOUS
 10
-112.1446083634
 20
8.3854697814
 30
0.0
 11
0.2263617277
 21
-0.0019602937
 31
0.0
 40
0.6626313411
 41
-2.4115426863
 42
-1.5708972243
  0
ELLIPSE
  5
6ED
100
AcDbEntity
  8
RACCORDO
100
AcDbEllipse
 62
7
  6
CONTINUOUS
 10
-112.1446083634
 20
5.0772670413
 30
0.0
 11
0.2263617277
 21
0.0019602937
 31
0.0
 40
0.6626313411
 41
1.5708972243
 42
2.4115426863
  0
ELLIPSE
  5
6EE
100
AcDbEntity
  8
ASSI
100
AcDbEllipse
 62
7
  6
CONTINUOUS
 10
-110.1792769325
 20
8.4813684113
 30
0.0
 11
0.62262162
 21
0.0
 31
0.0
 40
0.9636671467
 41
1.6428386725
 42
4.4991273921
  0
ELLIPSE
  5
6EF
100
AcDbEntity
  8
ASSI
100
AcDbEllipse
 62
7
  6
CONTINUOUS
 10
-110.1792769325
 20
4.9813684113
 30
0.0
 11
0.62262162
 21
0.0
 31
0.0
 40
0.9636671467
 41
1.6428386725
 42
4.4991273921
  0
ELLIPSE
  5
6F0
100
AcDbEntity
  8
ASSI
100
AcDbEllipse
 62
7
  6
CONTINUOUS
 10
-110.9423612246
 20
7.2513684113
 30
0.0
 11
0.0970688166
 21
0.0
 31
0.0
 40
0.82415757
 41
0.0
 42
1.5707963268
  0
ELLIPSE
  5
6F1
100
AcDbEntity
  8
ASSI
100
AcDbEllipse
 62
7
  6
CONTINUOUS
 10
-110.9423612246
 20
6.2113684113
 30
0.0
 11
0.0970688166
 21
-0.0
 31
0.0
 40
0.82415757
 41
-1.5707963268
 42
0.0
  0
ELLIPSE
  5
6F2
100
AcDbEntity
  8
ASSI
100
AcDbEllipse
 62
7
  6
CONTINUOUS
 10
-112.1446083634
 20
8.3854697814
 30
0.0
 11
0.2263617277
 21
-0.0019602937
 31
0.0
 40
0.6626313411
 41
-2.4115426863
 42
-1.5708972243
  0
ELLIPSE
  5
6F3
100
AcDbEntity
  8
ASSI
100
AcDbEllipse
 62
7
  6
CONTINUOUS
 10
-112.1446083634
 20
5.0772670413
 30
0.0
 11
0.2263617277
 21
0.0019602937
 31
0.0
 40
0.6626313411
 41
1.5708972243
 42
2.4115426863
  0
ENDSEC
  0
SECTION
  2
OBJECTS
  0
DICTIONARY
  5
C
100
AcDbDictionary
280
0
281
1
  3
ACAD_GROUP
350
D
  3
ACAD_MLINESTYLE
350
17
  3
ACAD_LAYOUT
350
1A
  3
ACAD_PLOTSETTINGS
350
19
  3
ACAD_PLOTSTYLENAME
350
E
  0
DICTIONARY
  5
D
102
{ACAD_REACTORS
330
C
102
}
100
AcDbDictionary
280
0
281
1
  0
ACDBDICTIONARYWDFLT
  5
E
102
{ACAD_REACTORS
330
C
102
}
100
AcDbDictionary
281
1
  3
Normal
350
F
100
AcDbDictionaryWithDefault
340
F
  0
DICTIONARY
  5
17
102
{ACAD_REACTORS
330
C
102
}
100
AcDbDictionary
280
0
281
1
  3
Standard
350
18
  0
DICTIONARY
  5
19
102
{ACAD_REACTORS
330
C
102
}
100
AcDbDictionary
281
1
  0
DICTIONARY
  5
1A
102
{ACAD_REACTORS
330
C
102
}
100
AcDbDictionary
281
1
  3
Model
350
6F4
  3
Layout1
350
6F5
  0
ACDBPLACEHOLDER
  5
F
102
{ACAD_REACTORS
330
E
102
}
  0
MLINESTYLE
  5
18
102
{ACAD_REACTORS
330
17
102
}
100
AcDbMlineStyle
  2
STANDARD
 70
0
  3

 62
256
 51
90.0
 52
90.0
 71
2
 49
0.5
 62
256
  6
BYLAYER
 49
-0.5
 62
256
  6
BYLAYER
  0
LAYOUT
  5
6F4
102
{ACAD_REACTORS
330
1A
102
}
100
AcDbPlotSettings
  1

  2
none_device
  4
ISO_A4_(297.00_x_210.00_MM)
  6

 40
0.0
 41
0.0
 42
0.0
 43
0.0
 44
297.0
 45
210.0
 46
0.0
 47
0.0
 48
0.0
 49
0.0
140
0.0
141
0.0
142
1.0
143
1.0
 70
1024
 72
1
 73
0
 74
0
  7

 75
0
147
1.0
148
0.0
149
0.0
100
AcDbLayout
  1
Model
 70
0
 71
0
 10
0.0
 20
0.0
 11
297.0
 21
210.0
 12
0.0
 22
0.0
 32
0.0
 14
0.0
 24
0.0
 34
0.0
 15
0.0
 25
0.0
 35
0.0
146
0.0
 13
0.0
 23
0.0
 33
0.0
 16
1.0
 26
0.0
 36
0.0
 17
0.0
 27
1.0
 37
0.0
 76
0
330
21C
345
0
346
0
  0
LAYOUT
  5
6F5
102
{ACAD_REACTORS
330
1A
102
}
100
AcDbPlotSettings
  1

  2
none_device
  4
ISO_A4_(297.00_x_210.00_MM)
  6

 40
0.0
 41
0.0
 42
0.0
 43
0.0
 44
297.0
 45
210.0
 46
0.0
 47
0.0
 48
0.0
 49
0.0
140
0.0
141
0.0
142
1.0
143
1.0
 70
0
 72
1
 73
0
 74
0
  7

 75
0
147
1.0
148
0.0
149
0.0
100
AcDbLayout
  1
Layout1
 70
0
 71
1
 10
0.0
 20
0.0
 11
297.0
 21
210.0
 12
0.0
 22
0.0
 32
0.0
 14
0.0
 24
0.0
 34
0.0
 15
0.0
 25
0.0
 35
0.0
146
0.0
 13
0.0
 23
0.0
 33
0.0
 16
1.0
 26
0.0
 36
0.0
 17
0.0
 27
1.0
 37
0.0
 76
0
330
21D
345
0
346
0
  0
ENDSEC
  0
EOF
