0
SECTION
2
HEADER
9
$ACADVER
1
AC1015
9
$DWGCODEPAGE
3
ANSI_1252
9
$EXTMAX
10
431.8000000000
20
558.8000000000
30
0.0000000000
9
$EXTMIN
10
0.0000000000
20
0.0000000000
30
0.0000000000
9
$LIMMIN
10
0.0000000000
20
0.0000000000
9
$LIMMAX
10
431.8000000000
20
558.8000000000
9
$VIEWCTR
10
215.9000000000
20
279.4000000000
9
$VIEWSIZE
40
558.8000000000
9
$CLAYER
8
0
9
$LTSCALE
40
36.4254814815
9
$CELTYPE
6
BYLAYER
9
$DIMSCALE
40
1
9
$DIMASZ
40
3.0000000000
9
$DIMEXO
40
4.1392592593
9
$DIMDLI
40
25.1666962963
9
$DIMEXE
40
11.9210666667
9
$DIMCEN
40
5.9605333333
9
$DIMLFAC
40
1.0000000000
9
$DIMBLK
1
_FILLED
9
$DIMTXT
40
3.0000000000
9
$DIMTOL
70
1
9
$DIMLIM
70
0
9
$DIMTFAC
40
1.0000000000
9
$DIMTP
40
0.0100000000
9
$DIMTM
40
0.0100000000
9
$PDMODE
70
3
9
$PDSIZE
40
3.0000000000
9
$HANDSEED
5
700
9
$MEASUREMENT
70
1
9
$INSUNITS
70
4
0
ENDSEC
0
SECTION
2
CLASSES
0
CLASS
1
ACDBDICTIONARYWDFLT
2
AcDbDictionaryWithDefault
3
AutoCAD 2000
90
0
280
0
281
0
0
CLASS
1
ACDBPLACEHOLDER
2
AcDbPlaceHolder
3
AutoCAD 2000
90
0
280
0
281
0
0
CLASS
1
LAYOUT
2
AcDbLayout
3
AutoCAD 2000
90
0
280
0
281
0
0
ENDSEC
0
SECTION
2
TABLES
0
TABLE
2
VPORT
5
8
100
AcDbSymbolTable
70
2
0
VPORT
5
1F4
100
AcDbSymbolTableRecord
100
AcDbViewportTableRecord
2
*ACTIVE
70
0
10
0.0
20
0.0
11
1.0
21
1.0
12
215.9000000000
22
279.4000000000
13
0.0
23
0.0
14
1.0
24
1.0
15
0.0
25
0.0
16
0.0
26
0.0
36
1.0
17
0.0
27
0.0
37
0.0
40
558.8000000000
41
0.7727272727
42
50.0
43
0.0
44
0.0
50
0.0
51
0.0
71
0
72
100
73
1
74
1
75
0
76
0
77
0
78
0
0
ENDTAB
0
TABLE
2
LTYPE
5
5
100
AcDbSymbolTable
70
6
0
LTYPE
5
14
100
AcDbSymbolTableRecord
100
AcDbLinetypeTableRecord
2
BYBLOCK
70
0
3

72
65
73
0
40
0.0
0
LTYPE
5
15
100
AcDbSymbolTableRecord
100
AcDbLinetypeTableRecord
2
BYLAYER
70
0
3

72
65
73
0
40
0.0
0
LTYPE
5
16
100
AcDbSymbolTableRecord
100
AcDbLinetypeTableRecord
2
CONTINUOUS
70
64
3
Solid line
72
65
73
0
40
0
0
LTYPE
5
1F5
100
AcDbSymbolTableRecord
100
AcDbLinetypeTableRecord
2
CENTER
70
64
3
____ _ ____ _ ____ _ ____ _ ____ _ ____ _ ____
72
65
73
4
40
0.6
49
0.375
74
0
49
-0.075
74
0
49
0.075
74
0
49
-0.075
74
0
0
LTYPE
5
1F6
100
AcDbSymbolTableRecord
100
AcDbLinetypeTableRecord
2
HIDDEN
70
64
3
- - - - - - - - - - - - - - - - - - - -
72
65
73
2
40
0.2
49
0.1
74
0
49
-0.1
74
0
0
LTYPE
5
1F7
100
AcDbSymbolTableRecord
100
AcDbLinetypeTableRecord
2
PHANTOM
70
64
3
_____ _ _ _____ _ _ _____ _ _ _____
72
65
73
6
40
0.8
49
0.45
74
0
49
-0.05
74
0
49
0.1
74
0
49
-0.05
74
0
49
0.1
74
0
49
-0.05
74
0
0
LTYPE
5
1F8
100
AcDbSymbolTableRecord
100
AcDbLinetypeTableRecord
2
DOT
70
64
3
. . . . . . . . . . . . . . . . . . . .
72
65
73
2
40
0.2
49
0.1
74
0
49
-0.1
74
0
0
LTYPE
5
1F9
100
AcDbSymbolTableRecord
100
AcDbLinetypeTableRecord
2
DASHED
70
64
3
- - - - - - - - - - - - - - - - - - - -
72
65
73
2
40
0.2
49
0.1
74
0
49
-0.1
74
0
0
ENDTAB
0
TABLE
2
LAYER
5
2
100
AcDbSymbolTable
70
36
0
LAYER
5
10
100
AcDbSymbolTableRecord
100
AcDbLayerTableRecord
2
0
70
0
62
7
6
CONTINUOUS
370
-3
390
F
0
LAYER
5
1FA
100
AcDbSymbolTableRecord
100
AcDbLayerTableRecord
2
DEFAULT_1
70
0
62
7
6
CENTER
370
-3
390
F
0
LAYER
5
1FB
100
AcDbSymbolTableRecord
100
AcDbLayerTableRecord
2
DEFAULT_2
70
0
62
8
6
HIDDEN
370
-3
390
F
0
LAYER
5
1FC
100
AcDbSymbolTableRecord
100
AcDbLayerTableRecord
2
DEFAULT_3
70
0
62
7
6
PHANTOM
370
-3
390
F
0
LAYER
5
1FD
100
AcDbSymbolTableRecord
100
AcDbLayerTableRecord
2
_BLACK_HOLE
70
0
62
7
6
CONTINUOUS
370
-3
390
F
0
LAYER
5
1FE
100
AcDbSymbolTableRecord
100
AcDbLayerTableRecord
2
ALTRI_PIANI
70
0
62
7
6
CONTINUOUS
370
-3
390
F
0
LAYER
5
1FF
100
AcDbSymbolTableRecord
100
AcDbLayerTableRecord
2
ASSI
70
0
62
7
6
CONTINUOUS
370
-3
390
F
0
LAYER
5
200
100
AcDbSymbolTableRecord
100
AcDbLayerTableRecord
2
COORDINATE
70
0
62
7
6
CONTINUOUS
370
-3
390
F
0
LAYER
5
201
100
AcDbSymbolTableRecord
100
AcDbLayerTableRecord
2
COORD_ORIGINE
70
0
62
7
6
CONTINUOUS
370
-3
390
F
0
LAYER
5
202
100
AcDbSymbolTableRecord
100
AcDbLayerTableRecord
2
CURVE
70
0
62
7
6
CONTINUOUS
370
-3
390
F
0
LAYER
5
203
100
AcDbSymbolTableRecord
100
AcDbLayerTableRecord
2
PIANI
70
0
62
7
6
CONTINUOUS
370
-3
390
F
0
LAYER
5
204
100
AcDbSymbolTableRecord
100
AcDbLayerTableRecord
2
PIANI_ORIGINE
70
0
62
7
6
CONTINUOUS
370
-3
390
F
0
LAYER
5
205
100
AcDbSymbolTableRecord
100
AcDbLayerTableRecord
2
RACCORDO
70
0
62
7
6
CONTINUOUS
370
-3
390
F
0
LAYER
5
206
100
AcDbSymbolTableRecord
100
AcDbLayerTableRecord
2
SMUSSO
70
0
62
7
6
CONTINUOUS
370
-3
390
F
0
LAYER
5
207
100
AcDbSymbolTableRecord
100
AcDbLayerTableRecord
2
SNAPLINE
70
0
62
7
6
CONTINUOUS
370
-3
390
F
0
LAYER
5
208
100
AcDbSymbolTableRecord
100
AcDbLayerTableRecord
2
SUPERFICI
70
0
62
7
6
CONTINUOUS
370
-3
390
F
0
LAYER
5
209
100
AcDbSymbolTableRecord
100
AcDbLayerTableRecord
2
TRASH
70
0
62
7
6
CONTINUOUS
370
-3
390
F
0
ENDTAB
0
TABLE
2
STYLE
5
3
100
AcDbSymbolTable
70
1
0
STYLE
5
11
100
AcDbSymbolTableRecord
100
AcDbTextStyleTableRecord
2
STANDARD
70
0
40
0.0
41
0.8000000000
50
0.0
71
0
42
0.2
3
txt
4

0
ENDTAB
0
TABLE
2
VIEW
5
6
100
AcDbSymbolTable
70
0
0
ENDTAB
0
TABLE
2
UCS
5
7
100
AcDbSymbolTable
70
0
0
ENDTAB
0
TABLE
2
APPID
5
9
100
AcDbSymbolTable
70
1
0
APPID
5
20A
100
AcDbSymbolTableRecord
100
AcDbRegAppTableRecord
2
ACAD
70
0
0
ENDTAB
0
TABLE
2
BLOCK_RECORD
5
1
100
AcDbSymbolTable
70
0
0
BLOCK_RECORD
5
1F
100
AcDbSymbolTableRecord
100
AcDbBlockTableRecord
2
*MODEL_SPACE
0
BLOCK_RECORD
5
1B
100
AcDbSymbolTableRecord
100
AcDbBlockTableRecord
2
*PAPER_SPACE
0
BLOCK_RECORD
5
20B
100
AcDbSymbolTableRecord
100
AcDbBlockTableRecord
2
_FILLED
0
BLOCK_RECORD
5
20C
100
AcDbSymbolTableRecord
100
AcDbBlockTableRecord
2
*D0
0
BLOCK_RECORD
5
20D
100
AcDbSymbolTableRecord
100
AcDbBlockTableRecord
2
*D1
0
BLOCK_RECORD
5
20E
100
AcDbSymbolTableRecord
100
AcDbBlockTableRecord
2
*D2
0
BLOCK_RECORD
5
20F
100
AcDbSymbolTableRecord
100
AcDbBlockTableRecord
2
*D3
0
ENDTAB
0
TABLE
2
DIMSTYLE
5
A
100
AcDbSymbolTable
70
1
100
AcDbDimStyleTable
71
0
0
DIMSTYLE
105
210
100
AcDbSymbolTableRecord
100
AcDbDimStyleTableRecord
2
STANDARD
70
0
3

4

40
1.0
41
3.0000000000
42
0.0625
43
0.38
44
0.18
45
0.0
46
0.0
47
0.0100000000
48
0.0100000000
140
3.0000000000
141
0.09
142
0.0
143
25.4
144
1.0000000000
145
0.0
146
1.0000000000
147
0.09
71
1
72
0
73
0
74
0
75
0
76
0
77
1
78
8
170
0
171
2
172
0
173
0
174
0
175
0
176
0
177
0
178
0
270
2
271
2
272
2
273
2
274
2
275
0
280
0
281
0
282
0
283
1
284
8
285
0
286
0
287
3
288
0
340
11
341
20B
342
20B
343
20B
344
20B
0
DIMSTYLE
105
211
100
AcDbSymbolTableRecord
100
AcDbDimStyleTableRecord
2
DIMSTYLE_1
70
0
3

4

40
1.0
41
3.0000000000
42
0.0625
43
0.38
44
0.18
45
0.0
46
0.0
47
0.0000000000
48
0.0000000000
140
3.0000000000
141
0.09
142
0.0
143
25.4
144
1.0000000000
145
0.0
146
1.0000000000
147
0.09
71
0
72
0
73
0
74
0
75
0
76
0
77
1
78
8
170
0
171
2
172
0
173
0
174
0
175
0
176
0
177
0
178
0
270
2
271
2
272
2
273
2
274
2
275
0
280
0
281
0
282
0
283
1
284
8
285
0
286
0
287
3
288
0
340
11
341
20B
342
20B
343
20B
344
20B
0
DIMSTYLE
105
212
100
AcDbSymbolTableRecord
100
AcDbDimStyleTableRecord
2
DIMSTYLE_2
70
0
3

4

40
1.0
41
3.0000000000
42
0.0625
43
0.38
44
0.18
45
0.0
46
0.0
47
0.0000000000
48
0.0000000000
140
3.0000000000
141
0.09
142
0.0
143
25.4
144
1.0000000000
145
0.0
146
1.0000000000
147
0.09
71
0
72
0
73
0
74
0
75
0
76
0
77
1
78
8
170
0
171
2
172
0
173
0
174
0
175
0
176
0
177
0
178
0
270
2
271
0
272
0
273
2
274
2
275
0
280
0
281
0
282
0
283
1
284
8
285
0
286
0
287
3
288
0
340
11
341
20B
342
20B
343
20B
344
20B
0
ENDTAB
0
ENDSEC
0
SECTION
2
BLOCKS
0
BLOCK
5
20
100
AcDbEntity
8
0
100
AcDbBlockBegin
2
*MODEL_SPACE
70
0
10
0.0
20
0.0
30
0.0
3
*MODEL_SPACE
1

0
ENDBLK
5
21
100
AcDbEntity
8
0
100
AcDbBlockEnd
0
BLOCK
5
1C
100
AcDbEntity
8
0
100
AcDbBlockBegin
2
*PAPER_SPACE
70
0
10
0.0
20
0.0
30
0.0
3
*PAPER_SPACE
1

0
ENDBLK
5
1D
100
AcDbEntity
8
0
100
AcDbBlockEnd
0
BLOCK
5
213
100
AcDbEntity
8
0
100
AcDbBlockBegin
62
2
6
CONTINUOUS
2
*D0
70
65
10
0.0000000000
20
0.0000000000
3
*D0
1

0
TEXT
5
214
100
AcDbEntity
8
0
100
AcDbText
62
2
6
CONTINUOUS
10
147.5593498411
20
84.6232815643
7
STANDARD
40
3.0000000000
1
480
41
0.7857142857
72
0
100
AcDbText
0
LINE
5
215
100
AcDbEntity
8
0
100
AcDbLine
62
2
6
CONTINUOUS
10
391.9551621709
20
-85.2267184357
11
391.9551621709
21
85.3732815643
0
LINE
5
216
100
AcDbEntity
8
0
100
AcDbLine
62
2
6
CONTINUOUS
10
-88.0448378291
20
-85.7267184357
11
-88.0448378291
21
85.3732815643
0
LINE
5
217
100
AcDbEntity
8
0
100
AcDbLine
62
2
6
CONTINUOUS
10
391.9551621709
20
83.8732815643
11
151.9551621709
21
83.8732815643
0
LINE
5
218
100
AcDbEntity
8
0
100
AcDbLine
62
2
6
CONTINUOUS
10
-88.0448378291
20
83.8732815643
11
151.9551621709
21
83.8732815643
0
INSERT
5
219
100
AcDbEntity
8
0
100
AcDbBlockReference
62
2
6
CONTINUOUS
2
_FILLED
10
391.9551621709
20
83.8732815643
41
  3.000000
42
  3.000000
43
  3.000000
50
360.000000
0
INSERT
5
21A
100
AcDbEntity
8
0
100
AcDbBlockReference
62
2
6
CONTINUOUS
2
_FILLED
10
-88.0448378291
20
83.8732815643
41
  3.000000
42
  3.000000
43
  3.000000
50
180.000000
0
ENDBLK
5
21B
100
AcDbEntity
8
0
6
BYBLOCK
62
0
100
AcDbBlockEnd
0
BLOCK
5
21C
100
AcDbEntity
8
0
100
AcDbBlockBegin
62
2
6
CONTINUOUS
2
*D1
70
65
10
0.0000000000
20
0.0000000000
3
*D1
1

0
TEXT
5
21D
100
AcDbEntity
8
0
100
AcDbText
62
2
6
CONTINUOUS
10
147.8818268001
20
74.6232815643
7
STANDARD
40
3.0000000000
1
440
41
0.7857142857
72
0
100
AcDbText
0
LINE
5
21E
100
AcDbEntity
8
0
100
AcDbLine
62
2
6
CONTINUOUS
10
371.9551621709
20
64.7732815643
11
371.9551621709
21
75.3732815643
0
LINE
5
21F
100
AcDbEntity
8
0
100
AcDbLine
62
2
6
CONTINUOUS
10
-68.0448378291
20
64.7732815643
11
-68.0448378291
21
75.3732815643
0
LINE
5
220
100
AcDbEntity
8
0
100
AcDbLine
62
2
6
CONTINUOUS
10
371.9551621709
20
73.8732815643
11
151.9551621709
21
73.8732815643
0
LINE
5
221
100
AcDbEntity
8
0
100
AcDbLine
62
2
6
CONTINUOUS
10
-68.0448378291
20
73.8732815643
11
151.9551621709
21
73.8732815643
0
INSERT
5
222
100
AcDbEntity
8
0
100
AcDbBlockReference
62
2
6
CONTINUOUS
2
_FILLED
10
371.9551621709
20
73.8732815643
41
  3.000000
42
  3.000000
43
  3.000000
0
INSERT
5
223
100
AcDbEntity
8
0
100
AcDbBlockReference
62
2
6
CONTINUOUS
2
_FILLED
10
-68.0448378291
20
73.8732815643
41
  3.000000
42
  3.000000
43
  3.000000
50
180.000000
0
ENDBLK
5
224
100
AcDbEntity
8
0
6
BYBLOCK
62
0
100
AcDbBlockEnd
0
BLOCK
5
225
100
AcDbEntity
8
0
100
AcDbBlockBegin
62
2
6
CONTINUOUS
2
*D2
70
65
10
0.0000000000
20
0.0000000000
3
*D2
1

0
TEXT
5
226
100
AcDbEntity
8
0
100
AcDbText
62
2
6
CONTINUOUS
10
-171.3005364533
20
84.6232815643
7
STANDARD
40
3.0000000000
1
44,5
41
0.7142857143
72
0
100
AcDbText
0
LINE
5
227
100
AcDbEntity
8
0
100
AcDbLine
62
2
6
CONTINUOUS
10
-145.6667721987
20
-73.2267184357
11
-145.6667721987
21
85.3732815643
0
LINE
5
228
100
AcDbEntity
8
0
100
AcDbLine
62
2
6
CONTINUOUS
10
-190.1667721987
20
-73.2267184357
11
-190.1667721987
21
85.3732815643
0
LINE
5
229
100
AcDbEntity
8
0
100
AcDbLine
62
2
6
CONTINUOUS
10
-145.6667721987
20
83.8732815643
11
-167.9167721987
21
83.8732815643
0
LINE
5
22A
100
AcDbEntity
8
0
100
AcDbLine
62
2
6
CONTINUOUS
10
-190.1667721987
20
83.8732815643
11
-167.9167721987
21
83.8732815643
0
INSERT
5
22B
100
AcDbEntity
8
0
100
AcDbBlockReference
62
2
6
CONTINUOUS
2
_FILLED
10
-145.6667721987
20
83.8732815643
41
  3.000000
42
  3.000000
43
  3.000000
0
INSERT
5
22C
100
AcDbEntity
8
0
100
AcDbBlockReference
62
2
6
CONTINUOUS
2
_FILLED
10
-190.1667721987
20
83.8732815643
41
  3.000000
42
  3.000000
43
  3.000000
50
180.000000
0
ENDBLK
5
22D
100
AcDbEntity
8
0
6
BYBLOCK
62
0
100
AcDbBlockEnd
0
BLOCK
5
22E
100
AcDbEntity
8
0
100
AcDbBlockBegin
62
2
6
CONTINUOUS
2
*D3
70
65
10
0.0000000000
20
0.0000000000
3
*D3
1

0
TEXT
5
22F
100
AcDbEntity
8
0
100
AcDbText
62
2
6
CONTINUOUS
10
399.2051621709
20
-9.5810275209
7
STANDARD
40
3.0000000000
1
153
50
90.0000000000
41
0.6666666667
72
0
100
AcDbText
0
LINE
5
230
100
AcDbEntity
8
0
100
AcDbLine
62
2
6
CONTINUOUS
10
388.4551621709
20
-87.2267184357
11
401.4551621709
21
-87.2267184357
0
LINE
5
231
100
AcDbEntity
8
0
100
AcDbLine
62
2
6
CONTINUOUS
10
367.4551621709
20
65.8732815643
11
401.4551621709
21
65.8732815643
0
LINE
5
232
100
AcDbEntity
8
0
100
AcDbLine
62
2
6
CONTINUOUS
10
399.9551621709
20
-87.2267184357
11
399.9551621709
21
-10.6767184357
0
LINE
5
233
100
AcDbEntity
8
0
100
AcDbLine
62
2
6
CONTINUOUS
10
399.9551621709
20
65.8732815643
11
399.9551621709
21
-10.6767184357
0
INSERT
5
234
100
AcDbEntity
8
0
100
AcDbBlockReference
62
2
6
CONTINUOUS
2
_FILLED
10
399.9551621709
20
-87.2267184357
41
  3.000000
42
  3.000000
43
  3.000000
50
270.000000
0
INSERT
5
235
100
AcDbEntity
8
0
100
AcDbBlockReference
62
2
6
CONTINUOUS
2
_FILLED
10
399.9551621709
20
65.8732815643
41
  3.000000
42
  3.000000
43
  3.000000
50
 90.000000
0
ENDBLK
5
236
100
AcDbEntity
8
0
6
BYBLOCK
62
0
100
AcDbBlockEnd
0
BLOCK
5
237
100
AcDbEntity
8
0
100
AcDbBlockBegin
2
_FILLED
70
64
10
0.0000000000
20
0.0000000000
3
_FILLED
1

0
SOLID
5
238
100
AcDbEntity
8
0
6
BYBLOCK
62
0
100
AcDbTrace
10
0.0000000000
20
0.0000000000
11
-1.0000000000
21
0.3166666667
12
-1.0000000000
22
-0.3166666667
13
-1.0000000000
23
-0.3166666667
0
ENDBLK
5
239
100
AcDbEntity
8
0
6
BYBLOCK
62
0
100
AcDbBlockEnd
0
ENDSEC
0
SECTION
2
ENTITIES
0
DIMENSION
5
23A
100
AcDbEntity
8
0
100
AcDbDimension
62
2
6
CONTINUOUS
2
*D0
10
-88.0448378291
20
83.8732815643
11
151.0950641268
21
86.1232815643
70
160
3
DIMSTYLE_1
100
AcDbAlignedDimension
13
391.9551621709
23
-85.2267184357
14
-88.0448378291
24
-85.7267184357
50
180.000000
100
AcDbRotatedDimension
0
DIMENSION
5
23B
100
AcDbEntity
8
0
100
AcDbDimension
62
2
6
CONTINUOUS
2
*D1
10
-68.0448378291
20
73.8732815643
11
151.4175410858
21
76.1232815643
70
160
3
DIMSTYLE_1
100
AcDbAlignedDimension
13
371.9551621709
23
64.7732815643
14
-68.0448378291
24
64.7732815643
50
180.000000
100
AcDbRotatedDimension
0
DIMENSION
5
23C
100
AcDbEntity
8
0
100
AcDbDimension
62
2
6
CONTINUOUS
2
*D2
10
-190.1667721987
20
83.8732815643
11
-167.0148221676
21
86.1232815643
70
160
3
DIMSTYLE_1
100
AcDbAlignedDimension
13
-145.6667721987
23
-73.2267184357
14
-190.1667721987
24
-73.2267184357
50
180.000000
100
AcDbRotatedDimension
0
DIMENSION
5
23D
100
AcDbEntity
8
0
100
AcDbDimension
62
2
6
CONTINUOUS
2
*D3
10
399.9551621709
20
65.8732815643
11
397.7051621709
21
-6.5810275209
70
160
3
DIMSTYLE_2
100
AcDbAlignedDimension
13
388.4551621709
23
-87.2267184357
14
367.4551621709
24
65.8732815643
50
90.000000
100
AcDbRotatedDimension
0
LINE
5
23E
100
AcDbEntity
8
0
100
AcDbLine
62
7
6
CONTINUOUS
10
-88.0448378291
20
-86.2267184357
11
-88.0448378291
21
-85.7267184357
0
LINE
5
23F
100
AcDbEntity
8
0
100
AcDbLine
62
9
6
CONTINUOUS
10
-84.0448378291
20
-87.2267184357
11
-84.0448378291
21
-85.7267184357
0
LINE
5
240
100
AcDbEntity
8
0
100
AcDbLine
62
7
6
CONTINUOUS
10
-68.0448378291
20
-85.7267184357
11
-68.0448378291
21
64.2732815643
0
LINE
5
241
100
AcDbEntity
8
0
100
AcDbLine
62
9
6
CONTINUOUS
10
-66.3448378291
20
64.2732815643
11
-66.3448378291
21
12.7732815643
0
LINE
5
242
100
AcDbEntity
8
0
100
AcDbLine
62
7
6
CONTINUOUS
10
-66.3448378291
20
12.7732815643
11
-66.3448378291
21
-85.7267184357
0
LINE
5
243
100
AcDbEntity
8
0
100
AcDbLine
62
9
6
CONTINUOUS
10
-65.5448378291
20
12.7732815643
11
-65.5448193656
21
-54.2469187700
0
LINE
5
244
100
AcDbEntity
8
0
100
AcDbLine
62
7
6
CONTINUOUS
10
-65.5448378291
20
-73.7267184357
11
-65.5448378291
21
-87.2267184357
0
LINE
5
245
100
AcDbEntity
8
0
100
AcDbLine
62
7
6
CONTINUOUS
10
-64.7448378291
20
12.7732815643
11
-64.7448378291
21
-53.2662385259
0
LINE
5
246
100
AcDbEntity
8
0
100
AcDbLine
62
7
6
CONTINUOUS
10
-64.5448378291
20
-71.9767184357
11
-64.5448378291
21
-63.2267184357
0
LINE
5
247
100
AcDbEntity
8
0
100
AcDbLine
62
7
6
CONTINUOUS
10
-63.5448378291
20
-87.2267184357
11
-63.5448378291
21
-88.2833427628
0
LINE
5
248
100
AcDbEntity
8
0
100
AcDbLine
62
7
6
CONTINUOUS
10
-63.0448378291
20
11.1732815643
11
-63.0448378291
21
65.8732815643
0
LINE
5
249
100
AcDbEntity
8
0
100
AcDbLine
62
7
6
CONTINUOUS
10
-57.5448378291
20
44.7732815643
11
-57.5448378291
21
36.7732815643
0
LINE
5
24A
100
AcDbEntity
8
0
100
AcDbLine
62
7
6
CONTINUOUS
10
-56.8948378291
20
-65.7267184357
11
-56.8948378291
21
-63.2267184357
0
LINE
5
24B
100
AcDbEntity
8
0
100
AcDbLine
62
7
6
CONTINUOUS
10
-56.6948378291
20
-56.7267184357
11
-56.6948378291
21
-65.7267184357
0
LINE
5
24C
100
AcDbEntity
8
0
100
AcDbLine
62
7
6
CONTINUOUS
10
-55.8448378291
20
-62.5267184357
11
-55.8448378291
21
-56.7267184357
0
LINE
5
24D
100
AcDbEntity
8
0
100
AcDbLine
62
7
6
CONTINUOUS
10
-55.5448378291
20
-73.7267184357
11
-55.5448378291
21
-71.9767184357
0
LINE
5
24E
100
AcDbEntity
8
0
100
AcDbLine
62
7
6
CONTINUOUS
10
-55.0448378291
20
40.2732815643
11
-55.0448378291
21
42.2732815643
0
LINE
5
24F
100
AcDbEntity
8
0
100
AcDbLine
62
7
6
CONTINUOUS
10
-54.1448378291
20
-62.5267184357
11
-54.1448378291
21
-56.7267184357
0
LINE
5
250
100
AcDbEntity
8
0
100
AcDbLine
62
7
6
CONTINUOUS
10
-53.0448378291
20
42.2732815643
11
-53.0448378291
21
45.7732815643
0
LINE
5
251
100
AcDbEntity
8
0
100
AcDbLine
62
7
6
CONTINUOUS
10
-52.1448378291
20
-62.5267184357
11
-52.1448378291
21
-56.7267184357
0
LINE
5
252
100
AcDbEntity
8
0
100
AcDbLine
62
7
6
CONTINUOUS
10
-50.5448378291
20
62.5232815643
11
-50.5448378291
21
51.2732815643
0
LINE
5
253
100
AcDbEntity
8
0
100
AcDbLine
62
7
6
CONTINUOUS
10
-50.5448378291
20
25.7732815643
11
-50.5448378291
21
14.5232815643
0
LINE
5
254
100
AcDbEntity
8
0
100
AcDbLine
62
7
6
CONTINUOUS
10
-50.4448378291
20
-62.5267184357
11
-50.4448378291
21
-56.7267184357
0
LINE
5
255
100
AcDbEntity
8
0
100
AcDbLine
62
7
6
CONTINUOUS
10
-49.0448378291
20
45.7732815643
11
-49.0448378291
21
42.2732815643
0
LINE
5
256
100
AcDbEntity
8
0
100
AcDbLine
62
7
6
CONTINUOUS
10
-48.4448378291
20
-62.5267184357
11
-48.4448378291
21
-56.7267184357
0
LINE
5
257
100
AcDbEntity
8
0
100
AcDbLine
62
7
6
CONTINUOUS
10
-47.0448378291
20
42.2732815643
11
-47.0448378291
21
40.2732815643
0
LINE
5
258
100
AcDbEntity
8
0
100
AcDbLine
62
7
6
CONTINUOUS
10
-46.7448378291
20
-62.5267184357
11
-46.7448378291
21
-56.7267184357
0
LINE
5
259
100
AcDbEntity
8
0
100
AcDbLine
62
7
6
CONTINUOUS
10
-44.7448378291
20
-62.5267184357
11
-44.7448378291
21
-56.7267184357
0
LINE
5
25A
100
AcDbEntity
8
0
100
AcDbLine
62
7
6
CONTINUOUS
10
-44.5448378291
20
36.7732815643
11
-44.5448378291
21
44.7732815643
0
LINE
5
25B
100
AcDbEntity
8
0
100
AcDbLine
62
7
6
CONTINUOUS
10
-43.0448378291
20
-62.5267184357
11
-43.0448378291
21
-56.7267184357
0
LINE
5
25C
100
AcDbEntity
8
0
100
AcDbLine
62
7
6
CONTINUOUS
10
-41.0448378291
20
-62.5267184357
11
-41.0448378291
21
-56.7267184357
0
LINE
5
25D
100
AcDbEntity
8
0
100
AcDbLine
62
7
6
CONTINUOUS
10
-40.5448378291
20
-73.7267184357
11
-40.5448378291
21
-71.9767184357
0
LINE
5
25E
100
AcDbEntity
8
0
100
AcDbLine
62
7
6
CONTINUOUS
10
-40.5448378291
20
44.7732815643
11
-40.5448378291
21
36.7732815643
0
LINE
5
25F
100
AcDbEntity
8
0
100
AcDbLine
62
7
6
CONTINUOUS
10
-40.0448378291
20
-73.7267184357
11
-40.0448378291
21
-71.9767184357
0
LINE
5
260
100
AcDbEntity
8
0
100
AcDbLine
62
7
6
CONTINUOUS
10
-39.3448378291
20
-62.5267184357
11
-39.3448378291
21
-56.7267184357
0
LINE
5
261
100
AcDbEntity
8
0
100
AcDbLine
62
7
6
CONTINUOUS
10
-38.0448378291
20
40.2732815643
11
-38.0448378291
21
42.2732815643
0
LINE
5
262
100
AcDbEntity
8
0
100
AcDbLine
62
7
6
CONTINUOUS
10
-37.3448378291
20
-62.5267184357
11
-37.3448378291
21
-56.7267184357
0
LINE
5
263
100
AcDbEntity
8
0
100
AcDbLine
62
7
6
CONTINUOUS
10
-36.0448378291
20
42.2732815643
11
-36.0448378291
21
45.7732815643
0
LINE
5
264
100
AcDbEntity
8
0
100
AcDbLine
62
7
6
CONTINUOUS
10
-35.6448378291
20
-62.5267184357
11
-35.6448378291
21
-56.7267184357
0
LINE
5
265
100
AcDbEntity
8
0
100
AcDbLine
62
7
6
CONTINUOUS
10
-33.6448378291
20
-62.5267184357
11
-33.6448378291
21
-56.7267184357
0
LINE
5
266
100
AcDbEntity
8
0
100
AcDbLine
62
7
6
CONTINUOUS
10
-32.0448378291
20
45.7732815643
11
-32.0448378291
21
42.2732815643
0
LINE
5
267
100
AcDbEntity
8
0
100
AcDbLine
62
7
6
CONTINUOUS
10
-31.9448378291
20
-62.5267184357
11
-31.9448378291
21
-56.7267184357
0
LINE
5
268
100
AcDbEntity
8
0
100
AcDbLine
62
7
6
CONTINUOUS
10
-30.0448378291
20
42.2732815643
11
-30.0448378291
21
40.2732815643
0
LINE
5
269
100
AcDbEntity
8
0
100
AcDbLine
62
7
6
CONTINUOUS
10
-29.9448378291
20
-62.5267184357
11
-29.9448378291
21
-56.7267184357
0
LINE
5
26A
100
AcDbEntity
8
0
100
AcDbLine
62
7
6
CONTINUOUS
10
-28.2448378291
20
-62.5267184357
11
-28.2448378291
21
-56.7267184357
0
LINE
5
26B
100
AcDbEntity
8
0
100
AcDbLine
62
7
6
CONTINUOUS
10
-27.5448378291
20
36.7732815643
11
-27.5448378291
21
44.7732815643
0
LINE
5
26C
100
AcDbEntity
8
0
100
AcDbLine
62
7
6
CONTINUOUS
10
-27.3948378291
20
-56.7267184357
11
-27.3948378291
21
-65.7267184357
0
LINE
5
26D
100
AcDbEntity
8
0
100
AcDbLine
62
7
6
CONTINUOUS
10
-26.6948378291
20
-56.7267184357
11
-26.6948378291
21
-65.7267184357
0
LINE
5
26E
100
AcDbEntity
8
0
100
AcDbLine
62
7
6
CONTINUOUS
10
-26.0448378291
20
62.5232815643
11
-26.0448378291
21
51.2732815643
0
LINE
5
26F
100
AcDbEntity
8
0
100
AcDbLine
62
7
6
CONTINUOUS
10
-26.0448378291
20
25.7732815643
11
-26.0448378291
21
14.5232815643
0
LINE
5
270
100
AcDbEntity
8
0
100
AcDbLine
62
7
6
CONTINUOUS
10
-25.8448378291
20
-62.5267184357
11
-25.8448378291
21
-56.7267184357
0
LINE
5
271
100
AcDbEntity
8
0
100
AcDbLine
62
7
6
CONTINUOUS
10
-25.0448378291
20
-73.7267184357
11
-25.0448378291
21
-71.9767184357
0
LINE
5
272
100
AcDbEntity
8
0
100
AcDbLine
62
7
6
CONTINUOUS
10
-24.5448378291
20
-73.7267184357
11
-24.5448378291
21
-71.9767184357
0
LINE
5
273
100
AcDbEntity
8
0
100
AcDbLine
62
7
6
CONTINUOUS
10
-24.1448378291
20
-62.5267184357
11
-24.1448378291
21
-56.7267184357
0
LINE
5
274
100
AcDbEntity
8
0
100
AcDbLine
62
7
6
CONTINUOUS
10
-23.5448378291
20
44.7732815643
11
-23.5448378291
21
36.7732815643
0
LINE
5
275
100
AcDbEntity
8
0
100
AcDbLine
62
7
6
CONTINUOUS
10
-23.0448378291
20
14.5232815643
11
-23.0448378291
21
25.7732815643
0
LINE
5
276
100
AcDbEntity
8
0
100
AcDbLine
62
7
6
CONTINUOUS
10
-23.0448378291
20
51.2732815643
11
-23.0448378291
21
62.5232815643
0
LINE
5
277
100
AcDbEntity
8
0
100
AcDbLine
62
7
6
CONTINUOUS
10
-22.1448378291
20
-62.5267184357
11
-22.1448378291
21
-56.7267184357
0
LINE
5
278
100
AcDbEntity
8
0
100
AcDbLine
62
7
6
CONTINUOUS
10
-21.0448378291
20
40.2732815643
11
-21.0448378291
21
42.2732815643
0
LINE
5
279
100
AcDbEntity
8
0
100
AcDbLine
62
7
6
CONTINUOUS
10
-20.4448378291
20
-62.5267184357
11
-20.4448378291
21
-56.7267184357
0
LINE
5
27A
100
AcDbEntity
8
0
100
AcDbLine
62
7
6
CONTINUOUS
10
-19.0448378291
20
42.2732815643
11
-19.0448378291
21
45.7732815643
0
LINE
5
27B
100
AcDbEntity
8
0
100
AcDbLine
62
7
6
CONTINUOUS
10
-18.4448378291
20
-62.5267184357
11
-18.4448378291
21
-56.7267184357
0
LINE
5
27C
100
AcDbEntity
8
0
100
AcDbLine
62
7
6
CONTINUOUS
10
-16.7448378291
20
-62.5267184357
11
-16.7448378291
21
-56.7267184357
0
LINE
5
27D
100
AcDbEntity
8
0
100
AcDbLine
62
7
6
CONTINUOUS
10
-15.0448378291
20
45.7732815643
11
-15.0448378291
21
42.2732815643
0
LINE
5
27E
100
AcDbEntity
8
0
100
AcDbLine
62
7
6
CONTINUOUS
10
-14.7448378291
20
-62.5267184357
11
-14.7448378291
21
-56.7267184357
0
LINE
5
27F
100
AcDbEntity
8
0
100
AcDbLine
62
7
6
CONTINUOUS
10
-63.5448378291
20
-88.2833427628
11
-61.0448378291
21
-89.7267184357
0
LINE
5
280
100
AcDbEntity
8
0
100
AcDbLine
62
7
6
CONTINUOUS
10
-13.0448378291
20
-62.5267184357
11
-13.0448378291
21
-56.7267184357
0
LINE
5
281
100
AcDbEntity
8
0
100
AcDbLine
62
7
6
CONTINUOUS
10
-13.0448378291
20
42.2732815643
11
-13.0448378291
21
40.2732815643
0
LINE
5
282
100
AcDbEntity
8
0
100
AcDbLine
62
7
6
CONTINUOUS
10
-11.0448378291
20
-62.5267184357
11
-11.0448378291
21
-56.7267184357
0
LINE
5
283
100
AcDbEntity
8
0
100
AcDbLine
62
7
6
CONTINUOUS
10
-10.5448378291
20
36.7732815643
11
-10.5448378291
21
44.7732815643
0
LINE
5
284
100
AcDbEntity
8
0
100
AcDbLine
62
7
6
CONTINUOUS
10
-9.5448378291
20
-73.7267184357
11
-9.5448378291
21
-71.9767184357
0
LINE
5
285
100
AcDbEntity
8
0
100
AcDbLine
62
7
6
CONTINUOUS
10
-9.3448378291
20
-62.5267184357
11
-9.3448378291
21
-56.7267184357
0
LINE
5
286
100
AcDbEntity
8
0
100
AcDbLine
62
7
6
CONTINUOUS
10
-9.0448378291
20
-73.7267184357
11
-9.0448378291
21
-71.9767184357
0
LINE
5
287
100
AcDbEntity
8
0
100
AcDbLine
62
7
6
CONTINUOUS
10
-7.3448378291
20
-62.5267184357
11
-7.3448378291
21
-56.7267184357
0
LINE
5
288
100
AcDbEntity
8
0
100
AcDbLine
62
7
6
CONTINUOUS
10
-6.5448378291
20
44.7732815643
11
-6.5448378291
21
36.7732815643
0
LINE
5
289
100
AcDbEntity
8
0
100
AcDbLine
62
7
6
CONTINUOUS
10
-5.6448378291
20
-62.5267184357
11
-5.6448378291
21
-56.7267184357
0
LINE
5
28A
100
AcDbEntity
8
0
100
AcDbLine
62
7
6
CONTINUOUS
10
-4.0448378291
20
40.2732815643
11
-4.0448378291
21
42.2732815643
0
LINE
5
28B
100
AcDbEntity
8
0
100
AcDbLine
62
7
6
CONTINUOUS
10
-3.6448378291
20
-62.5267184357
11
-3.6448378291
21
-56.7267184357
0
LINE
5
28C
100
AcDbEntity
8
0
100
AcDbLine
62
7
6
CONTINUOUS
10
-2.0448378291
20
42.2732815643
11
-2.0448378291
21
45.7732815643
0
LINE
5
28D
100
AcDbEntity
8
0
100
AcDbLine
62
7
6
CONTINUOUS
10
-1.9448378291
20
-62.5267184357
11
-1.9448378291
21
-56.7267184357
0
LINE
5
28E
100
AcDbEntity
8
0
100
AcDbLine
62
7
6
CONTINUOUS
10
0.0551621709
20
-62.5267184357
11
0.0551621709
21
-56.7267184357
0
LINE
5
28F
100
AcDbEntity
8
0
100
AcDbLine
62
7
6
CONTINUOUS
10
1.7551621709
20
-62.5267184357
11
1.7551621709
21
-56.7267184357
0
LINE
5
290
100
AcDbEntity
8
0
100
AcDbLine
62
7
6
CONTINUOUS
10
1.9551621709
20
45.7732815643
11
1.9551621709
21
42.2732815643
0
LINE
5
291
100
AcDbEntity
8
0
100
AcDbLine
62
7
6
CONTINUOUS
10
2.6051621709
20
-56.7267184357
11
2.6051621709
21
-65.7267184357
0
LINE
5
292
100
AcDbEntity
8
0
100
AcDbLine
62
7
6
CONTINUOUS
10
-53.9448378291
20
-56.7267184357
11
-54.1448378291
21
-57.0731285973
0
LINE
5
293
100
AcDbEntity
8
0
100
AcDbLine
62
7
6
CONTINUOUS
10
-50.2448378291
20
-56.7267184357
11
-50.4448378291
21
-57.0731285973
0
LINE
5
294
100
AcDbEntity
8
0
100
AcDbLine
62
7
6
CONTINUOUS
10
-46.5448378291
20
-56.7267184357
11
-46.7448378291
21
-57.0731285973
0
LINE
5
295
100
AcDbEntity
8
0
100
AcDbLine
62
7
6
CONTINUOUS
10
3.3051621709
20
-56.7267184357
11
3.3051621709
21
-65.7267184357
0
LINE
5
296
100
AcDbEntity
8
0
100
AcDbLine
62
7
6
CONTINUOUS
10
3.9551621709
20
42.2732815643
11
3.9551621709
21
40.2732815643
0
LINE
5
297
100
AcDbEntity
8
0
100
AcDbLine
62
7
6
CONTINUOUS
10
4.1551621709
20
-62.5267184357
11
4.1551621709
21
-56.7267184357
0
LINE
5
298
100
AcDbEntity
8
0
100
AcDbLine
62
7
6
CONTINUOUS
10
5.8551621709
20
-62.5267184357
11
5.8551621709
21
-56.7267184357
0
LINE
5
299
100
AcDbEntity
8
0
100
AcDbLine
62
7
6
CONTINUOUS
10
5.9551621709
20
-73.7267184357
11
5.9551621709
21
-71.9767184357
0
LINE
5
29A
100
AcDbEntity
8
0
100
AcDbLine
62
7
6
CONTINUOUS
10
6.4551621709
20
-73.7267184357
11
6.4551621709
21
-71.9767184357
0
LINE
5
29B
100
AcDbEntity
8
0
100
AcDbLine
62
7
6
CONTINUOUS
10
6.4551621709
20
36.7732815643
11
6.4551621709
21
44.7732815643
0
LINE
5
29C
100
AcDbEntity
8
0
100
AcDbLine
62
7
6
CONTINUOUS
10
7.8551621709
20
-62.5267184357
11
7.8551621709
21
-56.7267184357
0
LINE
5
29D
100
AcDbEntity
8
0
100
AcDbLine
62
7
6
CONTINUOUS
10
9.5551621709
20
-62.5267184357
11
9.5551621709
21
-56.7267184357
0
LINE
5
29E
100
AcDbEntity
8
0
100
AcDbLine
62
7
6
CONTINUOUS
10
10.4551621709
20
44.7732815643
11
10.4551621709
21
36.7732815643
0
LINE
5
29F
100
AcDbEntity
8
0
100
AcDbLine
62
7
6
CONTINUOUS
10
11.5551621709
20
-62.5267184357
11
11.5551621709
21
-56.7267184357
0
LINE
5
2A0
100
AcDbEntity
8
0
100
AcDbLine
62
7
6
CONTINUOUS
10
12.9551621709
20
40.2732815643
11
12.9551621709
21
42.2732815643
0
LINE
5
2A1
100
AcDbEntity
8
0
100
AcDbLine
62
7
6
CONTINUOUS
10
13.2551621709
20
-62.5267184357
11
13.2551621709
21
-56.7267184357
0
LINE
5
2A2
100
AcDbEntity
8
0
100
AcDbLine
62
7
6
CONTINUOUS
10
14.9551621709
20
42.2732815643
11
14.9551621709
21
45.7732815643
0
LINE
5
2A3
100
AcDbEntity
8
0
100
AcDbLine
62
7
6
CONTINUOUS
10
15.2551621709
20
-62.5267184357
11
15.2551621709
21
-56.7267184357
0
LINE
5
2A4
100
AcDbEntity
8
0
100
AcDbLine
62
7
6
CONTINUOUS
10
16.9551621709
20
-62.5267184357
11
16.9551621709
21
-56.7267184357
0
LINE
5
2A5
100
AcDbEntity
8
0
100
AcDbLine
62
7
6
CONTINUOUS
10
18.9551621709
20
-62.5267184357
11
18.9551621709
21
-56.7267184357
0
LINE
5
2A6
100
AcDbEntity
8
0
100
AcDbLine
62
7
6
CONTINUOUS
10
18.9551621709
20
45.7732815643
11
18.9551621709
21
42.2732815643
0
LINE
5
2A7
100
AcDbEntity
8
0
100
AcDbLine
62
7
6
CONTINUOUS
10
-42.8448378291
20
-56.7267184357
11
-43.0448378291
21
-57.0731285973
0
LINE
5
2A8
100
AcDbEntity
8
0
100
AcDbLine
62
7
6
CONTINUOUS
10
-39.1448378291
20
-56.7267184357
11
-39.3448378291
21
-57.0731285973
0
LINE
5
2A9
100
AcDbEntity
8
0
100
AcDbLine
62
7
6
CONTINUOUS
10
-35.4448378291
20
-56.7267184357
11
-35.6448378291
21
-57.0731285973
0
LINE
5
2AA
100
AcDbEntity
8
0
100
AcDbLine
62
7
6
CONTINUOUS
10
-31.7448378291
20
-56.7267184357
11
-31.9448378291
21
-57.0731285973
0
LINE
5
2AB
100
AcDbEntity
8
0
100
AcDbLine
62
7
6
CONTINUOUS
10
-28.0448378291
20
-56.7267184357
11
-28.2448378291
21
-57.0731285973
0
LINE
5
2AC
100
AcDbEntity
8
0
100
AcDbLine
62
7
6
CONTINUOUS
10
20.6551621709
20
-62.5267184357
11
20.6551621709
21
-56.7267184357
0
LINE
5
2AD
100
AcDbEntity
8
0
100
AcDbLine
62
7
6
CONTINUOUS
10
20.9551621709
20
42.2732815643
11
20.9551621709
21
40.2732815643
0
LINE
5
2AE
100
AcDbEntity
8
0
100
AcDbLine
62
7
6
CONTINUOUS
10
21.4551621709
20
-73.7267184357
11
21.4551621709
21
-71.9767184357
0
LINE
5
2AF
100
AcDbEntity
8
0
100
AcDbLine
62
7
6
CONTINUOUS
10
21.9551621709
20
-73.7267184357
11
21.9551621709
21
-71.9767184357
0
LINE
5
2B0
100
AcDbEntity
8
0
100
AcDbLine
62
7
6
CONTINUOUS
10
22.6551621709
20
-62.5267184357
11
22.6551621709
21
-56.7267184357
0
LINE
5
2B1
100
AcDbEntity
8
0
100
AcDbLine
62
7
6
CONTINUOUS
10
23.4551621709
20
36.7732815643
11
23.4551621709
21
44.7732815643
0
LINE
5
2B2
100
AcDbEntity
8
0
100
AcDbLine
62
7
6
CONTINUOUS
10
24.3551621709
20
-62.5267184357
11
24.3551621709
21
-56.7267184357
0
LINE
5
2B3
100
AcDbEntity
8
0
100
AcDbLine
62
7
6
CONTINUOUS
10
26.3551621709
20
-62.5267184357
11
26.3551621709
21
-56.7267184357
0
LINE
5
2B4
100
AcDbEntity
8
0
100
AcDbLine
62
7
6
CONTINUOUS
10
27.4551621709
20
44.7732815643
11
27.4551621709
21
36.7732815643
0
LINE
5
2B5
100
AcDbEntity
8
0
100
AcDbLine
62
7
6
CONTINUOUS
10
28.0551621709
20
-62.5267184357
11
28.0551621709
21
-56.7267184357
0
LINE
5
2B6
100
AcDbEntity
8
0
100
AcDbLine
62
7
6
CONTINUOUS
10
29.9551621709
20
40.2732815643
11
29.9551621709
21
42.2732815643
0
LINE
5
2B7
100
AcDbEntity
8
0
100
AcDbLine
62
7
6
CONTINUOUS
10
30.0551621709
20
-62.5267184357
11
30.0551621709
21
-56.7267184357
0
LINE
5
2B8
100
AcDbEntity
8
0
100
AcDbLine
62
7
6
CONTINUOUS
10
31.7551621709
20
-62.5267184357
11
31.7551621709
21
-56.7267184357
0
LINE
5
2B9
100
AcDbEntity
8
0
100
AcDbLine
62
7
6
CONTINUOUS
10
31.9551621709
20
42.2732815643
11
31.9551621709
21
45.7732815643
0
LINE
5
2BA
100
AcDbEntity
8
0
100
AcDbLine
62
7
6
CONTINUOUS
10
32.6051621709
20
-56.7267184357
11
32.6051621709
21
-65.7267184357
0
LINE
5
2BB
100
AcDbEntity
8
0
100
AcDbLine
62
7
6
CONTINUOUS
10
33.1051621709
20
-65.7267184357
11
33.1051621709
21
-63.2267184357
0
LINE
5
2BC
100
AcDbEntity
8
0
100
AcDbLine
62
7
6
CONTINUOUS
10
35.9551621709
20
45.7732815643
11
35.9551621709
21
42.2732815643
0
LINE
5
2BD
100
AcDbEntity
8
0
100
AcDbLine
62
7
6
CONTINUOUS
10
-23.9448378291
20
-56.7267184357
11
-24.1448378291
21
-57.0731285973
0
LINE
5
2BE
100
AcDbEntity
8
0
100
AcDbLine
62
7
6
CONTINUOUS
10
-20.2448378291
20
-56.7267184357
11
-20.4448378291
21
-57.0731285973
0
LINE
5
2BF
100
AcDbEntity
8
0
100
AcDbLine
62
7
6
CONTINUOUS
10
-16.5448378291
20
-56.7267184357
11
-16.7448378291
21
-57.0731285973
0
LINE
5
2C0
100
AcDbEntity
8
0
100
AcDbLine
62
7
6
CONTINUOUS
10
-12.8448378291
20
-56.7267184357
11
-13.0448378291
21
-57.0731285973
0
LINE
5
2C1
100
AcDbEntity
8
0
100
AcDbLine
62
7
6
CONTINUOUS
10
-9.1448378291
20
-56.7267184357
11
-9.3448378291
21
-57.0731285973
0
LINE
5
2C2
100
AcDbEntity
8
0
100
AcDbLine
62
7
6
CONTINUOUS
10
44.4551621709
20
-88.2833427628
11
46.9551621709
21
-89.7267184357
0
LINE
5
2C3
100
AcDbEntity
8
0
100
AcDbLine
62
7
6
CONTINUOUS
10
36.9551621709
20
-73.7267184357
11
36.9551621709
21
-71.9767184357
0
LINE
5
2C4
100
AcDbEntity
8
0
100
AcDbLine
62
7
6
CONTINUOUS
10
37.9551621709
20
42.2732815643
11
37.9551621709
21
40.2732815643
0
LINE
5
2C5
100
AcDbEntity
8
0
100
AcDbLine
62
7
6
CONTINUOUS
10
40.4551621709
20
-71.9767184357
11
40.4551621709
21
-63.2267184357
0
LINE
5
2C6
100
AcDbEntity
8
0
100
AcDbLine
62
7
6
CONTINUOUS
10
40.4551621709
20
36.7732815643
11
40.4551621709
21
44.7732815643
0
LINE
5
2C7
100
AcDbEntity
8
0
100
AcDbLine
62
7
6
CONTINUOUS
10
43.4551621709
20
-87.2267184357
11
43.4551621709
21
-88.2833427628
0
LINE
5
2C8
100
AcDbEntity
8
0
100
AcDbLine
62
7
6
CONTINUOUS
10
44.4551621709
20
-71.9767184357
11
44.4551621709
21
-63.2267184357
0
LINE
5
2C9
100
AcDbEntity
8
0
100
AcDbLine
62
7
6
CONTINUOUS
10
44.4551621709
20
44.7732815643
11
44.4551621709
21
36.7732815643
0
LINE
5
2CA
100
AcDbEntity
8
0
100
AcDbLine
62
7
6
CONTINUOUS
10
44.4551621709
20
-87.2267184357
11
44.4551621709
21
-88.2833427628
0
LINE
5
2CB
100
AcDbEntity
8
0
100
AcDbLine
62
7
6
CONTINUOUS
10
46.9551621709
20
40.2732815643
11
46.9551621709
21
42.2732815643
0
LINE
5
2CC
100
AcDbEntity
8
0
100
AcDbLine
62
7
6
CONTINUOUS
10
48.9551621709
20
42.2732815643
11
48.9551621709
21
45.7732815643
0
LINE
5
2CD
100
AcDbEntity
8
0
100
AcDbLine
62
7
6
CONTINUOUS
10
50.9551621709
20
-73.7267184357
11
50.9551621709
21
-71.9767184357
0
LINE
5
2CE
100
AcDbEntity
8
0
100
AcDbLine
62
7
6
CONTINUOUS
10
51.8051621709
20
-65.7267184357
11
51.8051621709
21
-63.2267184357
0
LINE
5
2CF
100
AcDbEntity
8
0
100
AcDbLine
62
7
6
CONTINUOUS
10
52.3051621709
20
-56.7267184357
11
52.3051621709
21
-65.7267184357
0
LINE
5
2D0
100
AcDbEntity
8
0
100
AcDbLine
62
7
6
CONTINUOUS
10
52.9551621709
20
45.7732815643
11
52.9551621709
21
42.2732815643
0
LINE
5
2D1
100
AcDbEntity
8
0
100
AcDbLine
62
7
6
CONTINUOUS
10
53.1551621709
20
-62.5267184357
11
53.1551621709
21
-56.7267184357
0
LINE
5
2D2
100
AcDbEntity
8
0
100
AcDbLine
62
7
6
CONTINUOUS
10
-5.4448378291
20
-56.7267184357
11
-5.6448378291
21
-57.0731285973
0
LINE
5
2D3
100
AcDbEntity
8
0
100
AcDbLine
62
7
6
CONTINUOUS
10
-1.7448378291
20
-56.7267184357
11
-1.9448378291
21
-57.0731285973
0
LINE
5
2D4
100
AcDbEntity
8
0
100
AcDbLine
62
7
6
CONTINUOUS
10
1.9551621709
20
-56.7267184357
11
1.7551621709
21
-57.0731285973
0
LINE
5
2D5
100
AcDbEntity
8
0
100
AcDbLine
62
7
6
CONTINUOUS
10
6.0551621709
20
-56.7267184357
11
5.8551621709
21
-57.0731285973
0
LINE
5
2D6
100
AcDbEntity
8
0
100
AcDbLine
62
7
6
CONTINUOUS
10
9.7551621709
20
-56.7267184357
11
9.5551621709
21
-57.0731285973
0
LINE
5
2D7
100
AcDbEntity
8
0
100
AcDbLine
62
7
6
CONTINUOUS
10
54.8551621709
20
-62.5267184357
11
54.8551621709
21
-56.7267184357
0
LINE
5
2D8
100
AcDbEntity
8
0
100
AcDbLine
62
7
6
CONTINUOUS
10
54.9551621709
20
42.2732815643
11
54.9551621709
21
40.2732815643
0
LINE
5
2D9
100
AcDbEntity
8
0
100
AcDbLine
62
7
6
CONTINUOUS
10
56.8551621709
20
-62.5267184357
11
56.8551621709
21
-56.7267184357
0
LINE
5
2DA
100
AcDbEntity
8
0
100
AcDbLine
62
7
6
CONTINUOUS
10
57.4551621709
20
36.7732815643
11
57.4551621709
21
44.7732815643
0
LINE
5
2DB
100
AcDbEntity
8
0
100
AcDbLine
62
7
6
CONTINUOUS
10
58.5551621709
20
-62.5267184357
11
58.5551621709
21
-56.7267184357
0
LINE
5
2DC
100
AcDbEntity
8
0
100
AcDbLine
62
7
6
CONTINUOUS
10
60.5551621709
20
-62.5267184357
11
60.5551621709
21
-56.7267184357
0
LINE
5
2DD
100
AcDbEntity
8
0
100
AcDbLine
62
7
6
CONTINUOUS
10
61.4551621709
20
44.7732815643
11
61.4551621709
21
36.7732815643
0
LINE
5
2DE
100
AcDbEntity
8
0
100
AcDbLine
62
7
6
CONTINUOUS
10
62.2551621709
20
-62.5267184357
11
62.2551621709
21
-56.7267184357
0
LINE
5
2DF
100
AcDbEntity
8
0
100
AcDbLine
62
7
6
CONTINUOUS
10
63.9551621709
20
40.2732815643
11
63.9551621709
21
42.2732815643
0
LINE
5
2E0
100
AcDbEntity
8
0
100
AcDbLine
62
7
6
CONTINUOUS
10
64.2551621709
20
-62.5267184357
11
64.2551621709
21
-56.7267184357
0
LINE
5
2E1
100
AcDbEntity
8
0
100
AcDbLine
62
7
6
CONTINUOUS
10
65.9551621709
20
-73.7267184357
11
65.9551621709
21
-71.9767184357
0
LINE
5
2E2
100
AcDbEntity
8
0
100
AcDbLine
62
7
6
CONTINUOUS
10
65.9551621709
20
-62.5267184357
11
65.9551621709
21
-56.7267184357
0
LINE
5
2E3
100
AcDbEntity
8
0
100
AcDbLine
62
7
6
CONTINUOUS
10
65.9551621709
20
42.2732815643
11
65.9551621709
21
45.7732815643
0
LINE
5
2E4
100
AcDbEntity
8
0
100
AcDbLine
62
7
6
CONTINUOUS
10
66.4551621709
20
-73.7267184357
11
66.4551621709
21
-71.9767184357
0
LINE
5
2E5
100
AcDbEntity
8
0
100
AcDbLine
62
7
6
CONTINUOUS
10
67.9551621709
20
-62.5267184357
11
67.9551621709
21
-56.7267184357
0
LINE
5
2E6
100
AcDbEntity
8
0
100
AcDbLine
62
7
6
CONTINUOUS
10
69.6551621709
20
-62.5267184357
11
69.6551621709
21
-56.7267184357
0
LINE
5
2E7
100
AcDbEntity
8
0
100
AcDbLine
62
7
6
CONTINUOUS
10
69.9551621709
20
45.7732815643
11
69.9551621709
21
42.2732815643
0
LINE
5
2E8
100
AcDbEntity
8
0
100
AcDbLine
62
7
6
CONTINUOUS
10
13.4551621709
20
-56.7267184357
11
13.2551621709
21
-57.0731285973
0
LINE
5
2E9
100
AcDbEntity
8
0
100
AcDbLine
62
7
6
CONTINUOUS
10
17.1551621709
20
-56.7267184357
11
16.9551621709
21
-57.0731285973
0
LINE
5
2EA
100
AcDbEntity
8
0
100
AcDbLine
62
7
6
CONTINUOUS
10
20.8551621709
20
-56.7267184357
11
20.6551621709
21
-57.0731285973
0
LINE
5
2EB
100
AcDbEntity
8
0
100
AcDbLine
62
7
6
CONTINUOUS
10
24.5551621709
20
-56.7267184357
11
24.3551621709
21
-57.0731285973
0
LINE
5
2EC
100
AcDbEntity
8
0
100
AcDbLine
62
7
6
CONTINUOUS
10
28.2551621709
20
-56.7267184357
11
28.0551621709
21
-57.0731285973
0
LINE
5
2ED
100
AcDbEntity
8
0
100
AcDbLine
62
7
6
CONTINUOUS
10
71.6551621709
20
-62.5267184357
11
71.6551621709
21
-56.7267184357
0
LINE
5
2EE
100
AcDbEntity
8
0
100
AcDbLine
62
7
6
CONTINUOUS
10
71.9551621709
20
42.2732815643
11
71.9551621709
21
40.2732815643
0
LINE
5
2EF
100
AcDbEntity
8
0
100
AcDbLine
62
7
6
CONTINUOUS
10
73.3551621709
20
-62.5267184357
11
73.3551621709
21
-56.7267184357
0
LINE
5
2F0
100
AcDbEntity
8
0
100
AcDbLine
62
7
6
CONTINUOUS
10
74.4551621709
20
36.7732815643
11
74.4551621709
21
44.7732815643
0
LINE
5
2F1
100
AcDbEntity
8
0
100
AcDbLine
62
7
6
CONTINUOUS
10
75.3551621709
20
-62.5267184357
11
75.3551621709
21
-56.7267184357
0
LINE
5
2F2
100
AcDbEntity
8
0
100
AcDbLine
62
7
6
CONTINUOUS
10
77.0551621709
20
-62.5267184357
11
77.0551621709
21
-56.7267184357
0
LINE
5
2F3
100
AcDbEntity
8
0
100
AcDbLine
62
7
6
CONTINUOUS
10
79.0551621709
20
-62.5267184357
11
79.0551621709
21
-56.7267184357
0
LINE
5
2F4
100
AcDbEntity
8
0
100
AcDbLine
62
7
6
CONTINUOUS
10
80.7551621709
20
-62.5267184357
11
80.7551621709
21
-56.7267184357
0
LINE
5
2F5
100
AcDbEntity
8
0
100
AcDbLine
62
7
6
CONTINUOUS
10
81.4551621709
20
-73.7267184357
11
81.4551621709
21
-71.9767184357
0
LINE
5
2F6
100
AcDbEntity
8
0
100
AcDbLine
62
7
6
CONTINUOUS
10
81.6051621709
20
-56.7267184357
11
81.6051621709
21
-65.7267184357
0
LINE
5
2F7
100
AcDbEntity
8
0
100
AcDbLine
62
7
6
CONTINUOUS
10
81.9551621709
20
-73.7267184357
11
81.9551621709
21
-71.9767184357
0
LINE
5
2F8
100
AcDbEntity
8
0
100
AcDbLine
62
7
6
CONTINUOUS
10
82.3051621709
20
-56.7267184357
11
82.3051621709
21
-65.7267184357
0
LINE
5
2F9
100
AcDbEntity
8
0
100
AcDbLine
62
7
6
CONTINUOUS
10
83.1551621709
20
-62.5267184357
11
83.1551621709
21
-56.7267184357
0
LINE
5
2FA
100
AcDbEntity
8
0
100
AcDbLine
62
7
6
CONTINUOUS
10
84.4551621709
20
36.7732815643
11
84.4551621709
21
44.7732815643
0
LINE
5
2FB
100
AcDbEntity
8
0
100
AcDbLine
62
7
6
CONTINUOUS
10
84.8551621709
20
-62.5267184357
11
84.8551621709
21
-56.7267184357
0
LINE
5
2FC
100
AcDbEntity
8
0
100
AcDbLine
62
7
6
CONTINUOUS
10
86.8551621709
20
-62.5267184357
11
86.8551621709
21
-56.7267184357
0
LINE
5
2FD
100
AcDbEntity
8
0
100
AcDbLine
62
7
6
CONTINUOUS
10
31.9551621709
20
-56.7267184357
11
31.7551621709
21
-57.0731285973
0
LINE
5
2FE
100
AcDbEntity
8
0
100
AcDbLine
62
7
6
CONTINUOUS
10
364.9551621709
20
-89.7267184357
11
262.9551621709
21
-89.7267184357
0
LINE
5
2FF
100
AcDbEntity
8
0
100
AcDbLine
62
7
6
CONTINUOUS
10
256.9551621709
20
-89.7267184357
11
154.9551621709
21
-89.7267184357
0
LINE
5
300
100
AcDbEntity
8
0
100
AcDbLine
62
7
6
CONTINUOUS
10
148.9551621709
20
-89.7267184357
11
46.9551621709
21
-89.7267184357
0
LINE
5
301
100
AcDbEntity
8
0
100
AcDbLine
62
7
6
CONTINUOUS
10
40.9551621709
20
-89.7267184357
11
-61.0448378291
21
-89.7267184357
0
LINE
5
302
100
AcDbEntity
8
0
100
AcDbLine
62
7
6
CONTINUOUS
10
367.4551621709
20
-88.2833427628
11
260.4551621709
21
-88.2833427628
0
LINE
5
303
100
AcDbEntity
8
0
100
AcDbLine
62
7
6
CONTINUOUS
10
259.4551621709
20
-88.2833427628
11
152.4551621709
21
-88.2833427628
0
LINE
5
304
100
AcDbEntity
8
0
100
AcDbLine
62
7
6
CONTINUOUS
10
151.4551621709
20
-88.2833427628
11
44.4551621709
21
-88.2833427628
0
LINE
5
305
100
AcDbEntity
8
0
100
AcDbLine
62
7
6
CONTINUOUS
10
43.4551621709
20
-88.2833427628
11
-63.5448378291
21
-88.2833427628
0
LINE
5
306
100
AcDbEntity
8
0
100
AcDbLine
62
7
6
CONTINUOUS
10
-87.0448378291
20
-87.2267184357
11
390.9551621709
21
-87.2267184357
0
LINE
5
307
100
AcDbEntity
8
0
100
AcDbLine
62
9
6
CONTINUOUS
10
391.9551621709
20
-86.2267184357
11
369.4551621709
21
-86.2267184357
0
LINE
5
308
100
AcDbEntity
8
0
100
AcDbLine
62
9
6
CONTINUOUS
10
-65.5448378291
20
-86.2267184357
11
-88.0448378291
21
-86.2267184357
0
LINE
5
309
100
AcDbEntity
8
0
100
AcDbLine
62
7
6
CONTINUOUS
10
-88.0448378291
20
-85.7267184357
11
-65.5448378291
21
-85.7267184357
0
LINE
5
30A
100
AcDbEntity
8
0
100
AcDbLine
62
7
6
CONTINUOUS
10
369.4551621709
20
-85.7267184357
11
391.9551621709
21
-85.7267184357
0
LINE
5
30B
100
AcDbEntity
8
0
100
AcDbLine
62
9
6
CONTINUOUS
10
-65.5448378291
20
-85.2267184357
11
369.4551621709
21
-85.2267184357
0
LINE
5
30C
100
AcDbEntity
8
0
100
AcDbLine
62
7
6
CONTINUOUS
10
152.4551621709
20
-88.2833427628
11
154.9551621709
21
-89.7267184357
0
LINE
5
30D
100
AcDbEntity
8
0
100
AcDbLine
62
7
6
CONTINUOUS
10
86.9551621709
20
42.2732815643
11
86.9551621709
21
40.2732815643
0
LINE
5
30E
100
AcDbEntity
8
0
100
AcDbLine
62
7
6
CONTINUOUS
10
88.5551621709
20
-62.5267184357
11
88.5551621709
21
-56.7267184357
0
LINE
5
30F
100
AcDbEntity
8
0
100
AcDbLine
62
7
6
CONTINUOUS
10
88.9551621709
20
45.7732815643
11
88.9551621709
21
42.2732815643
0
LINE
5
310
100
AcDbEntity
8
0
100
AcDbLine
62
7
6
CONTINUOUS
10
90.5551621709
20
-62.5267184357
11
90.5551621709
21
-56.7267184357
0
LINE
5
311
100
AcDbEntity
8
0
100
AcDbLine
62
7
6
CONTINUOUS
10
92.2551621709
20
-62.5267184357
11
92.2551621709
21
-56.7267184357
0
LINE
5
312
100
AcDbEntity
8
0
100
AcDbLine
62
7
6
CONTINUOUS
10
92.9551621709
20
42.2732815643
11
92.9551621709
21
45.7732815643
0
LINE
5
313
100
AcDbEntity
8
0
100
AcDbLine
62
7
6
CONTINUOUS
10
94.2551621709
20
-62.5267184357
11
94.2551621709
21
-56.7267184357
0
LINE
5
314
100
AcDbEntity
8
0
100
AcDbLine
62
7
6
CONTINUOUS
10
94.9551621709
20
40.2732815643
11
94.9551621709
21
42.2732815643
0
LINE
5
315
100
AcDbEntity
8
0
100
AcDbLine
62
7
6
CONTINUOUS
10
95.9551621709
20
-62.5267184357
11
95.9551621709
21
-56.7267184357
0
LINE
5
316
100
AcDbEntity
8
0
100
AcDbLine
62
7
6
CONTINUOUS
10
96.9551621709
20
-73.7267184357
11
96.9551621709
21
-71.9767184357
0
LINE
5
317
100
AcDbEntity
8
0
100
AcDbLine
62
7
6
CONTINUOUS
10
97.4551621709
20
-73.7267184357
11
97.4551621709
21
-71.9767184357
0
LINE
5
318
100
AcDbEntity
8
0
100
AcDbLine
62
7
6
CONTINUOUS
10
97.4551621709
20
44.7732815643
11
97.4551621709
21
36.7732815643
0
LINE
5
319
100
AcDbEntity
8
0
100
AcDbLine
62
7
6
CONTINUOUS
10
97.9551621709
20
-62.5267184357
11
97.9551621709
21
-56.7267184357
0
LINE
5
31A
100
AcDbEntity
8
0
100
AcDbLine
62
7
6
CONTINUOUS
10
99.6551621709
20
-62.5267184357
11
99.6551621709
21
-56.7267184357
0
LINE
5
31B
100
AcDbEntity
8
0
100
AcDbLine
62
7
6
CONTINUOUS
10
101.4551621709
20
36.7732815643
11
101.4551621709
21
44.7732815643
0
LINE
5
31C
100
AcDbEntity
8
0
100
AcDbLine
62
7
6
CONTINUOUS
10
101.6551621709
20
-62.5267184357
11
101.6551621709
21
-56.7267184357
0
LINE
5
31D
100
AcDbEntity
8
0
100
AcDbLine
62
7
6
CONTINUOUS
10
103.3551621709
20
-62.5267184357
11
103.3551621709
21
-56.7267184357
0
LINE
5
31E
100
AcDbEntity
8
0
100
AcDbLine
62
7
6
CONTINUOUS
10
55.0551621709
20
-56.7267184357
11
54.8551621709
21
-57.0731285973
0
LINE
5
31F
100
AcDbEntity
8
0
100
AcDbLine
62
7
6
CONTINUOUS
10
58.7551621709
20
-56.7267184357
11
58.5551621709
21
-57.0731285973
0
LINE
5
320
100
AcDbEntity
8
0
100
AcDbLine
62
7
6
CONTINUOUS
10
62.4551621709
20
-56.7267184357
11
62.2551621709
21
-57.0731285973
0
LINE
5
321
100
AcDbEntity
8
0
100
AcDbLine
62
7
6
CONTINUOUS
10
66.1551621709
20
-56.7267184357
11
65.9551621709
21
-57.0731285973
0
LINE
5
322
100
AcDbEntity
8
0
100
AcDbLine
62
7
6
CONTINUOUS
10
69.8551621709
20
-56.7267184357
11
69.6551621709
21
-57.0731285973
0
LINE
5
323
100
AcDbEntity
8
0
100
AcDbLine
62
7
6
CONTINUOUS
10
-65.5448378291
20
-73.7267184357
11
369.4551621709
21
-73.7267184357
0
LINE
5
324
100
AcDbEntity
8
0
100
AcDbLine
62
7
6
CONTINUOUS
10
-64.5448378291
20
-71.9767184357
11
40.4551621709
21
-71.9767184357
0
LINE
5
325
100
AcDbEntity
8
0
100
AcDbLine
62
7
6
CONTINUOUS
10
44.4551621709
20
-71.9767184357
11
149.4551621709
21
-71.9767184357
0
LINE
5
326
100
AcDbEntity
8
0
100
AcDbLine
62
7
6
CONTINUOUS
10
154.4551621709
20
-71.9767184357
11
259.4551621709
21
-71.9767184357
0
LINE
5
327
100
AcDbEntity
8
0
100
AcDbLine
62
7
6
CONTINUOUS
10
263.4551621709
20
-71.9767184357
11
368.4551621709
21
-71.9767184357
0
LINE
5
328
100
AcDbEntity
8
0
100
AcDbLine
62
7
6
CONTINUOUS
10
-64.5448378291
20
-65.7267184357
11
40.4551621709
21
-65.7267184357
0
LINE
5
329
100
AcDbEntity
8
0
100
AcDbLine
62
7
6
CONTINUOUS
10
44.4551621709
20
-65.7267184357
11
149.4551621709
21
-65.7267184357
0
LINE
5
32A
100
AcDbEntity
8
0
100
AcDbLine
62
7
6
CONTINUOUS
10
154.4551621709
20
-65.7267184357
11
259.4551621709
21
-65.7267184357
0
LINE
5
32B
100
AcDbEntity
8
0
100
AcDbLine
62
7
6
CONTINUOUS
10
263.4551621709
20
-65.7267184357
11
368.4551621709
21
-65.7267184357
0
LINE
5
32C
100
AcDbEntity
8
0
100
AcDbLine
62
7
6
CONTINUOUS
10
-56.6948378291
20
-64.7267184357
11
-27.3948378291
21
-64.7267184357
0
LINE
5
32D
100
AcDbEntity
8
0
100
AcDbLine
62
7
6
CONTINUOUS
10
-26.6948378291
20
-64.7267184357
11
2.6051621709
21
-64.7267184357
0
LINE
5
32E
100
AcDbEntity
8
0
100
AcDbLine
62
7
6
CONTINUOUS
10
3.3051621709
20
-64.7267184357
11
32.6051621709
21
-64.7267184357
0
LINE
5
32F
100
AcDbEntity
8
0
100
AcDbLine
62
7
6
CONTINUOUS
10
52.3051621709
20
-64.7267184357
11
81.6051621709
21
-64.7267184357
0
LINE
5
330
100
AcDbEntity
8
0
100
AcDbLine
62
7
6
CONTINUOUS
10
82.3051621709
20
-64.7267184357
11
111.6051621709
21
-64.7267184357
0
LINE
5
331
100
AcDbEntity
8
0
100
AcDbLine
62
7
6
CONTINUOUS
10
112.3051621709
20
-64.7267184357
11
141.6051621709
21
-64.7267184357
0
LINE
5
332
100
AcDbEntity
8
0
100
AcDbLine
62
7
6
CONTINUOUS
10
162.3051621709
20
-64.7267184357
11
191.6051621709
21
-64.7267184357
0
LINE
5
333
100
AcDbEntity
8
0
100
AcDbLine
62
7
6
CONTINUOUS
10
192.3051621709
20
-64.7267184357
11
221.6051621709
21
-64.7267184357
0
LINE
5
334
100
AcDbEntity
8
0
100
AcDbLine
62
7
6
CONTINUOUS
10
222.3051621709
20
-64.7267184357
11
251.6051621709
21
-64.7267184357
0
LINE
5
335
100
AcDbEntity
8
0
100
AcDbLine
62
7
6
CONTINUOUS
10
271.3051621709
20
-64.7267184357
11
300.6051621709
21
-64.7267184357
0
LINE
5
336
100
AcDbEntity
8
0
100
AcDbLine
62
7
6
CONTINUOUS
10
301.3051621709
20
-64.7267184357
11
330.6051621709
21
-64.7267184357
0
LINE
5
337
100
AcDbEntity
8
0
100
AcDbLine
62
7
6
CONTINUOUS
10
331.3051621709
20
-64.7267184357
11
360.6051621709
21
-64.7267184357
0
LINE
5
338
100
AcDbEntity
8
0
100
AcDbLine
62
7
6
CONTINUOUS
10
-64.5448378291
20
-63.2267184357
11
-56.8948378291
21
-63.2267184357
0
LINE
5
339
100
AcDbEntity
8
0
100
AcDbLine
62
7
6
CONTINUOUS
10
33.1051621709
20
-63.2267184357
11
40.4551621709
21
-63.2267184357
0
LINE
5
33A
100
AcDbEntity
8
0
100
AcDbLine
62
7
6
CONTINUOUS
10
44.4551621709
20
-63.2267184357
11
51.8051621709
21
-63.2267184357
0
LINE
5
33B
100
AcDbEntity
8
0
100
AcDbLine
62
7
6
CONTINUOUS
10
141.8051621709
20
-63.2267184357
11
149.4551621709
21
-63.2267184357
0
LINE
5
33C
100
AcDbEntity
8
0
100
AcDbLine
62
7
6
CONTINUOUS
10
154.4551621709
20
-63.2267184357
11
162.1051621709
21
-63.2267184357
0
LINE
5
33D
100
AcDbEntity
8
0
100
AcDbLine
62
7
6
CONTINUOUS
10
252.1051621709
20
-63.2267184357
11
259.4551621709
21
-63.2267184357
0
LINE
5
33E
100
AcDbEntity
8
0
100
AcDbLine
62
7
6
CONTINUOUS
10
263.4551621709
20
-63.2267184357
11
270.8051621709
21
-63.2267184357
0
LINE
5
33F
100
AcDbEntity
8
0
100
AcDbLine
62
7
6
CONTINUOUS
10
360.8051621709
20
-63.2267184357
11
368.4551621709
21
-63.2267184357
0
LINE
5
340
100
AcDbEntity
8
0
100
AcDbLine
62
7
6
CONTINUOUS
10
-56.6948378291
20
-62.5267184357
11
-27.3948378291
21
-62.5267184357
0
LINE
5
341
100
AcDbEntity
8
0
100
AcDbLine
62
7
6
CONTINUOUS
10
-26.6948378291
20
-62.5267184357
11
2.6051621709
21
-62.5267184357
0
LINE
5
342
100
AcDbEntity
8
0
100
AcDbLine
62
7
6
CONTINUOUS
10
3.3051621709
20
-62.5267184357
11
32.6051621709
21
-62.5267184357
0
LINE
5
343
100
AcDbEntity
8
0
100
AcDbLine
62
7
6
CONTINUOUS
10
52.3051621709
20
-62.5267184357
11
81.6051621709
21
-62.5267184357
0
LINE
5
344
100
AcDbEntity
8
0
100
AcDbLine
62
7
6
CONTINUOUS
10
82.3051621709
20
-62.5267184357
11
111.6051621709
21
-62.5267184357
0
LINE
5
345
100
AcDbEntity
8
0
100
AcDbLine
62
7
6
CONTINUOUS
10
112.3051621709
20
-62.5267184357
11
141.6051621709
21
-62.5267184357
0
LINE
5
346
100
AcDbEntity
8
0
100
AcDbLine
62
7
6
CONTINUOUS
10
162.3051621709
20
-62.5267184357
11
191.6051621709
21
-62.5267184357
0
LINE
5
347
100
AcDbEntity
8
0
100
AcDbLine
62
7
6
CONTINUOUS
10
192.3051621709
20
-62.5267184357
11
221.6051621709
21
-62.5267184357
0
LINE
5
348
100
AcDbEntity
8
0
100
AcDbLine
62
7
6
CONTINUOUS
10
222.3051621709
20
-62.5267184357
11
251.6051621709
21
-62.5267184357
0
LINE
5
349
100
AcDbEntity
8
0
100
AcDbLine
62
7
6
CONTINUOUS
10
271.3051621709
20
-62.5267184357
11
300.6051621709
21
-62.5267184357
0
LINE
5
34A
100
AcDbEntity
8
0
100
AcDbLine
62
7
6
CONTINUOUS
10
301.3051621709
20
-62.5267184357
11
330.6051621709
21
-62.5267184357
0
LINE
5
34B
100
AcDbEntity
8
0
100
AcDbLine
62
7
6
CONTINUOUS
10
331.3051621709
20
-62.5267184357
11
360.6051621709
21
-62.5267184357
0
LINE
5
34C
100
AcDbEntity
8
0
100
AcDbLine
62
7
6
CONTINUOUS
10
103.9551621709
20
42.2732815643
11
103.9551621709
21
40.2732815643
0
LINE
5
34D
100
AcDbEntity
8
0
100
AcDbLine
62
7
6
CONTINUOUS
10
105.3551621709
20
-62.5267184357
11
105.3551621709
21
-56.7267184357
0
LINE
5
34E
100
AcDbEntity
8
0
100
AcDbLine
62
7
6
CONTINUOUS
10
105.9551621709
20
45.7732815643
11
105.9551621709
21
42.2732815643
0
LINE
5
34F
100
AcDbEntity
8
0
100
AcDbLine
62
7
6
CONTINUOUS
10
107.0551621709
20
-62.5267184357
11
107.0551621709
21
-56.7267184357
0
LINE
5
350
100
AcDbEntity
8
0
100
AcDbLine
62
7
6
CONTINUOUS
10
109.0551621709
20
-62.5267184357
11
109.0551621709
21
-56.7267184357
0
LINE
5
351
100
AcDbEntity
8
0
100
AcDbLine
62
7
6
CONTINUOUS
10
109.9551621709
20
42.2732815643
11
109.9551621709
21
45.7732815643
0
LINE
5
352
100
AcDbEntity
8
0
100
AcDbLine
62
7
6
CONTINUOUS
10
110.7551621709
20
-62.5267184357
11
110.7551621709
21
-56.7267184357
0
LINE
5
353
100
AcDbEntity
8
0
100
AcDbLine
62
7
6
CONTINUOUS
10
111.6051621709
20
-56.7267184357
11
111.6051621709
21
-65.7267184357
0
LINE
5
354
100
AcDbEntity
8
0
100
AcDbLine
62
7
6
CONTINUOUS
10
111.9551621709
20
40.2732815643
11
111.9551621709
21
42.2732815643
0
LINE
5
355
100
AcDbEntity
8
0
100
AcDbLine
62
7
6
CONTINUOUS
10
112.3051621709
20
-56.7267184357
11
112.3051621709
21
-65.7267184357
0
LINE
5
356
100
AcDbEntity
8
0
100
AcDbLine
62
7
6
CONTINUOUS
10
112.4551621709
20
-73.7267184357
11
112.4551621709
21
-71.9767184357
0
LINE
5
357
100
AcDbEntity
8
0
100
AcDbLine
62
7
6
CONTINUOUS
10
112.9551621709
20
-73.7267184357
11
112.9551621709
21
-71.9767184357
0
LINE
5
358
100
AcDbEntity
8
0
100
AcDbLine
62
7
6
CONTINUOUS
10
113.1551621709
20
-62.5267184357
11
113.1551621709
21
-56.7267184357
0
LINE
5
359
100
AcDbEntity
8
0
100
AcDbLine
62
7
6
CONTINUOUS
10
114.4551621709
20
44.7732815643
11
114.4551621709
21
36.7732815643
0
LINE
5
35A
100
AcDbEntity
8
0
100
AcDbLine
62
7
6
CONTINUOUS
10
114.8551621709
20
-62.5267184357
11
114.8551621709
21
-56.7267184357
0
LINE
5
35B
100
AcDbEntity
8
0
100
AcDbLine
62
7
6
CONTINUOUS
10
116.8551621709
20
-62.5267184357
11
116.8551621709
21
-56.7267184357
0
LINE
5
35C
100
AcDbEntity
8
0
100
AcDbLine
62
7
6
CONTINUOUS
10
118.4551621709
20
36.7732815643
11
118.4551621709
21
44.7732815643
0
LINE
5
35D
100
AcDbEntity
8
0
100
AcDbLine
62
7
6
CONTINUOUS
10
118.5551621709
20
-62.5267184357
11
118.5551621709
21
-56.7267184357
0
LINE
5
35E
100
AcDbEntity
8
0
100
AcDbLine
62
7
6
CONTINUOUS
10
120.5551621709
20
-62.5267184357
11
120.5551621709
21
-56.7267184357
0
LINE
5
35F
100
AcDbEntity
8
0
100
AcDbLine
62
7
6
CONTINUOUS
10
73.5551621709
20
-56.7267184357
11
73.3551621709
21
-57.0731285973
0
LINE
5
360
100
AcDbEntity
8
0
100
AcDbLine
62
7
6
CONTINUOUS
10
77.2551621709
20
-56.7267184357
11
77.0551621709
21
-57.0731285973
0
LINE
5
361
100
AcDbEntity
8
0
100
AcDbLine
62
7
6
CONTINUOUS
10
80.9551621709
20
-56.7267184357
11
80.7551621709
21
-57.0731285973
0
LINE
5
362
100
AcDbEntity
8
0
100
AcDbLine
62
7
6
CONTINUOUS
10
85.0551621709
20
-56.7267184357
11
84.8551621709
21
-57.0731285973
0
LINE
5
363
100
AcDbEntity
8
0
100
AcDbLine
62
7
6
CONTINUOUS
10
88.7551621709
20
-56.7267184357
11
88.5551621709
21
-57.0731285973
0
LINE
5
364
100
AcDbEntity
8
0
100
AcDbLine
62
7
6
CONTINUOUS
10
-56.6948378291
20
-58.0257565414
11
-55.8448378291
21
-58.0257565414
0
LINE
5
365
100
AcDbEntity
8
0
100
AcDbLine
62
7
6
CONTINUOUS
10
-54.1448378291
20
-58.0257565414
11
-52.1448378291
21
-58.0257565414
0
LINE
5
366
100
AcDbEntity
8
0
100
AcDbLine
62
7
6
CONTINUOUS
10
-50.4448378291
20
-58.0257565414
11
-48.4448378291
21
-58.0257565414
0
LINE
5
367
100
AcDbEntity
8
0
100
AcDbLine
62
7
6
CONTINUOUS
10
-46.7448378291
20
-58.0257565414
11
-44.7448378291
21
-58.0257565414
0
LINE
5
368
100
AcDbEntity
8
0
100
AcDbLine
62
7
6
CONTINUOUS
10
-43.0448378291
20
-58.0257565414
11
-41.0448378291
21
-58.0257565414
0
LINE
5
369
100
AcDbEntity
8
0
100
AcDbLine
62
7
6
CONTINUOUS
10
-39.3448378291
20
-58.0257565414
11
-37.3448378291
21
-58.0257565414
0
LINE
5
36A
100
AcDbEntity
8
0
100
AcDbLine
62
7
6
CONTINUOUS
10
-35.6448378291
20
-58.0257565414
11
-33.6448378291
21
-58.0257565414
0
LINE
5
36B
100
AcDbEntity
8
0
100
AcDbLine
62
7
6
CONTINUOUS
10
-31.9448378291
20
-58.0257565414
11
-29.9448378291
21
-58.0257565414
0
LINE
5
36C
100
AcDbEntity
8
0
100
AcDbLine
62
7
6
CONTINUOUS
10
-28.2448378291
20
-58.0257565414
11
-27.3948378291
21
-58.0257565414
0
LINE
5
36D
100
AcDbEntity
8
0
100
AcDbLine
62
7
6
CONTINUOUS
10
-26.6948378291
20
-58.0257565414
11
-25.8448378291
21
-58.0257565414
0
LINE
5
36E
100
AcDbEntity
8
0
100
AcDbLine
62
7
6
CONTINUOUS
10
-24.1448378291
20
-58.0257565414
11
-22.1448378291
21
-58.0257565414
0
LINE
5
36F
100
AcDbEntity
8
0
100
AcDbLine
62
7
6
CONTINUOUS
10
-20.4448378291
20
-58.0257565414
11
-18.4448378291
21
-58.0257565414
0
LINE
5
370
100
AcDbEntity
8
0
100
AcDbLine
62
7
6
CONTINUOUS
10
-16.7448378291
20
-58.0257565414
11
-14.7448378291
21
-58.0257565414
0
LINE
5
371
100
AcDbEntity
8
0
100
AcDbLine
62
7
6
CONTINUOUS
10
-13.0448378291
20
-58.0257565414
11
-11.0448378291
21
-58.0257565414
0
LINE
5
372
100
AcDbEntity
8
0
100
AcDbLine
62
7
6
CONTINUOUS
10
-9.3448378291
20
-58.0257565414
11
-7.3448378291
21
-58.0257565414
0
LINE
5
373
100
AcDbEntity
8
0
100
AcDbLine
62
7
6
CONTINUOUS
10
-5.6448378291
20
-58.0257565414
11
-3.6448378291
21
-58.0257565414
0
LINE
5
374
100
AcDbEntity
8
0
100
AcDbLine
62
7
6
CONTINUOUS
10
-1.9448378291
20
-58.0257565414
11
0.0551621709
21
-58.0257565414
0
LINE
5
375
100
AcDbEntity
8
0
100
AcDbLine
62
7
6
CONTINUOUS
10
1.7551621709
20
-58.0257565414
11
2.6051621709
21
-58.0257565414
0
LINE
5
376
100
AcDbEntity
8
0
100
AcDbLine
62
7
6
CONTINUOUS
10
3.3051621709
20
-58.0257565414
11
4.1551621709
21
-58.0257565414
0
LINE
5
377
100
AcDbEntity
8
0
100
AcDbLine
62
7
6
CONTINUOUS
10
5.8551621709
20
-58.0257565414
11
7.8551621709
21
-58.0257565414
0
LINE
5
378
100
AcDbEntity
8
0
100
AcDbLine
62
7
6
CONTINUOUS
10
9.5551621709
20
-58.0257565414
11
11.5551621709
21
-58.0257565414
0
LINE
5
379
100
AcDbEntity
8
0
100
AcDbLine
62
7
6
CONTINUOUS
10
13.2551621709
20
-58.0257565414
11
15.2551621709
21
-58.0257565414
0
LINE
5
37A
100
AcDbEntity
8
0
100
AcDbLine
62
7
6
CONTINUOUS
10
16.9551621709
20
-58.0257565414
11
18.9551621709
21
-58.0257565414
0
LINE
5
37B
100
AcDbEntity
8
0
100
AcDbLine
62
7
6
CONTINUOUS
10
20.6551621709
20
-58.0257565414
11
22.6551621709
21
-58.0257565414
0
LINE
5
37C
100
AcDbEntity
8
0
100
AcDbLine
62
7
6
CONTINUOUS
10
24.3551621709
20
-58.0257565414
11
26.3551621709
21
-58.0257565414
0
LINE
5
37D
100
AcDbEntity
8
0
100
AcDbLine
62
7
6
CONTINUOUS
10
28.0551621709
20
-58.0257565414
11
30.0551621709
21
-58.0257565414
0
LINE
5
37E
100
AcDbEntity
8
0
100
AcDbLine
62
7
6
CONTINUOUS
10
31.7551621709
20
-58.0257565414
11
32.6051621709
21
-58.0257565414
0
LINE
5
37F
100
AcDbEntity
8
0
100
AcDbLine
62
7
6
CONTINUOUS
10
52.3051621709
20
-58.0257565414
11
53.1551621709
21
-58.0257565414
0
LINE
5
380
100
AcDbEntity
8
0
100
AcDbLine
62
7
6
CONTINUOUS
10
54.8551621709
20
-58.0257565414
11
56.8551621709
21
-58.0257565414
0
LINE
5
381
100
AcDbEntity
8
0
100
AcDbLine
62
7
6
CONTINUOUS
10
58.5551621709
20
-58.0257565414
11
60.5551621709
21
-58.0257565414
0
LINE
5
382
100
AcDbEntity
8
0
100
AcDbLine
62
7
6
CONTINUOUS
10
62.2551621709
20
-58.0257565414
11
64.2551621709
21
-58.0257565414
0
LINE
5
383
100
AcDbEntity
8
0
100
AcDbLine
62
7
6
CONTINUOUS
10
65.9551621709
20
-58.0257565414
11
67.9551621709
21
-58.0257565414
0
LINE
5
384
100
AcDbEntity
8
0
100
AcDbLine
62
7
6
CONTINUOUS
10
69.6551621709
20
-58.0257565414
11
71.6551621709
21
-58.0257565414
0
LINE
5
385
100
AcDbEntity
8
0
100
AcDbLine
62
7
6
CONTINUOUS
10
73.3551621709
20
-58.0257565414
11
75.3551621709
21
-58.0257565414
0
LINE
5
386
100
AcDbEntity
8
0
100
AcDbLine
62
7
6
CONTINUOUS
10
77.0551621709
20
-58.0257565414
11
79.0551621709
21
-58.0257565414
0
LINE
5
387
100
AcDbEntity
8
0
100
AcDbLine
62
7
6
CONTINUOUS
10
80.7551621709
20
-58.0257565414
11
81.6051621709
21
-58.0257565414
0
LINE
5
388
100
AcDbEntity
8
0
100
AcDbLine
62
7
6
CONTINUOUS
10
82.3051621709
20
-58.0257565414
11
83.1551621709
21
-58.0257565414
0
LINE
5
389
100
AcDbEntity
8
0
100
AcDbLine
62
7
6
CONTINUOUS
10
84.8551621709
20
-58.0257565414
11
86.8551621709
21
-58.0257565414
0
LINE
5
38A
100
AcDbEntity
8
0
100
AcDbLine
62
7
6
CONTINUOUS
10
88.5551621709
20
-58.0257565414
11
90.5551621709
21
-58.0257565414
0
LINE
5
38B
100
AcDbEntity
8
0
100
AcDbLine
62
7
6
CONTINUOUS
10
92.2551621709
20
-58.0257565414
11
94.2551621709
21
-58.0257565414
0
LINE
5
38C
100
AcDbEntity
8
0
100
AcDbLine
62
7
6
CONTINUOUS
10
95.9551621709
20
-58.0257565414
11
97.9551621709
21
-58.0257565414
0
LINE
5
38D
100
AcDbEntity
8
0
100
AcDbLine
62
7
6
CONTINUOUS
10
99.6551621709
20
-58.0257565414
11
101.6551621709
21
-58.0257565414
0
LINE
5
38E
100
AcDbEntity
8
0
100
AcDbLine
62
7
6
CONTINUOUS
10
103.3551621709
20
-58.0257565414
11
105.3551621709
21
-58.0257565414
0
LINE
5
38F
100
AcDbEntity
8
0
100
AcDbLine
62
7
6
CONTINUOUS
10
107.0551621709
20
-58.0257565414
11
109.0551621709
21
-58.0257565414
0
LINE
5
390
100
AcDbEntity
8
0
100
AcDbLine
62
7
6
CONTINUOUS
10
110.7551621709
20
-58.0257565414
11
111.6051621709
21
-58.0257565414
0
LINE
5
391
100
AcDbEntity
8
0
100
AcDbLine
62
7
6
CONTINUOUS
10
112.3051621709
20
-58.0257565414
11
113.1551621709
21
-58.0257565414
0
LINE
5
392
100
AcDbEntity
8
0
100
AcDbLine
62
7
6
CONTINUOUS
10
114.8551621709
20
-58.0257565414
11
116.8551621709
21
-58.0257565414
0
LINE
5
393
100
AcDbEntity
8
0
100
AcDbLine
62
7
6
CONTINUOUS
10
118.5551621709
20
-58.0257565414
11
120.5551621709
21
-58.0257565414
0
LINE
5
394
100
AcDbEntity
8
0
100
AcDbLine
62
7
6
CONTINUOUS
10
122.2551621709
20
-58.0257565414
11
124.2551621709
21
-58.0257565414
0
LINE
5
395
100
AcDbEntity
8
0
100
AcDbLine
62
7
6
CONTINUOUS
10
125.9551621709
20
-58.0257565414
11
127.9551621709
21
-58.0257565414
0
LINE
5
396
100
AcDbEntity
8
0
100
AcDbLine
62
7
6
CONTINUOUS
10
129.6551621709
20
-58.0257565414
11
131.6551621709
21
-58.0257565414
0
LINE
5
397
100
AcDbEntity
8
0
100
AcDbLine
62
7
6
CONTINUOUS
10
133.3551621709
20
-58.0257565414
11
135.3551621709
21
-58.0257565414
0
LINE
5
398
100
AcDbEntity
8
0
100
AcDbLine
62
7
6
CONTINUOUS
10
137.0551621709
20
-58.0257565414
11
139.0551621709
21
-58.0257565414
0
LINE
5
399
100
AcDbEntity
8
0
100
AcDbLine
62
7
6
CONTINUOUS
10
140.7551621709
20
-58.0257565414
11
141.6051621709
21
-58.0257565414
0
LINE
5
39A
100
AcDbEntity
8
0
100
AcDbLine
62
7
6
CONTINUOUS
10
162.3051621709
20
-58.0257565414
11
163.1551621709
21
-58.0257565414
0
LINE
5
39B
100
AcDbEntity
8
0
100
AcDbLine
62
7
6
CONTINUOUS
10
164.8551621709
20
-58.0257565414
11
166.8551621709
21
-58.0257565414
0
LINE
5
39C
100
AcDbEntity
8
0
100
AcDbLine
62
7
6
CONTINUOUS
10
168.5551621709
20
-58.0257565414
11
170.5551621709
21
-58.0257565414
0
LINE
5
39D
100
AcDbEntity
8
0
100
AcDbLine
62
7
6
CONTINUOUS
10
172.2551621709
20
-58.0257565414
11
174.2551621709
21
-58.0257565414
0
LINE
5
39E
100
AcDbEntity
8
0
100
AcDbLine
62
7
6
CONTINUOUS
10
175.9551621709
20
-58.0257565414
11
177.9551621709
21
-58.0257565414
0
LINE
5
39F
100
AcDbEntity
8
0
100
AcDbLine
62
7
6
CONTINUOUS
10
179.6551621709
20
-58.0257565414
11
181.6551621709
21
-58.0257565414
0
LINE
5
3A0
100
AcDbEntity
8
0
100
AcDbLine
62
7
6
CONTINUOUS
10
183.3551621709
20
-58.0257565414
11
185.3551621709
21
-58.0257565414
0
LINE
5
3A1
100
AcDbEntity
8
0
100
AcDbLine
62
7
6
CONTINUOUS
10
187.0551621709
20
-58.0257565414
11
189.0551621709
21
-58.0257565414
0
LINE
5
3A2
100
AcDbEntity
8
0
100
AcDbLine
62
7
6
CONTINUOUS
10
190.7551621709
20
-58.0257565414
11
191.6051621709
21
-58.0257565414
0
LINE
5
3A3
100
AcDbEntity
8
0
100
AcDbLine
62
7
6
CONTINUOUS
10
192.3051621709
20
-58.0257565414
11
193.1551621709
21
-58.0257565414
0
LINE
5
3A4
100
AcDbEntity
8
0
100
AcDbLine
62
7
6
CONTINUOUS
10
194.8551621709
20
-58.0257565414
11
196.8551621709
21
-58.0257565414
0
LINE
5
3A5
100
AcDbEntity
8
0
100
AcDbLine
62
7
6
CONTINUOUS
10
198.5551621709
20
-58.0257565414
11
200.5551621709
21
-58.0257565414
0
LINE
5
3A6
100
AcDbEntity
8
0
100
AcDbLine
62
7
6
CONTINUOUS
10
202.2551621709
20
-58.0257565414
11
204.2551621709
21
-58.0257565414
0
LINE
5
3A7
100
AcDbEntity
8
0
100
AcDbLine
62
7
6
CONTINUOUS
10
205.9551621709
20
-58.0257565414
11
207.9551621709
21
-58.0257565414
0
LINE
5
3A8
100
AcDbEntity
8
0
100
AcDbLine
62
7
6
CONTINUOUS
10
209.6551621709
20
-58.0257565414
11
211.6551621709
21
-58.0257565414
0
LINE
5
3A9
100
AcDbEntity
8
0
100
AcDbLine
62
7
6
CONTINUOUS
10
213.3551621709
20
-58.0257565414
11
215.3551621709
21
-58.0257565414
0
LINE
5
3AA
100
AcDbEntity
8
0
100
AcDbLine
62
7
6
CONTINUOUS
10
217.0551621709
20
-58.0257565414
11
219.0551621709
21
-58.0257565414
0
LINE
5
3AB
100
AcDbEntity
8
0
100
AcDbLine
62
7
6
CONTINUOUS
10
220.7551621709
20
-58.0257565414
11
221.6051621709
21
-58.0257565414
0
LINE
5
3AC
100
AcDbEntity
8
0
100
AcDbLine
62
7
6
CONTINUOUS
10
222.3051621709
20
-58.0257565414
11
223.1551621709
21
-58.0257565414
0
LINE
5
3AD
100
AcDbEntity
8
0
100
AcDbLine
62
7
6
CONTINUOUS
10
224.8551621709
20
-58.0257565414
11
226.8551621709
21
-58.0257565414
0
LINE
5
3AE
100
AcDbEntity
8
0
100
AcDbLine
62
7
6
CONTINUOUS
10
228.5551621709
20
-58.0257565414
11
230.5551621709
21
-58.0257565414
0
LINE
5
3AF
100
AcDbEntity
8
0
100
AcDbLine
62
7
6
CONTINUOUS
10
232.2551621709
20
-58.0257565414
11
234.2551621709
21
-58.0257565414
0
LINE
5
3B0
100
AcDbEntity
8
0
100
AcDbLine
62
7
6
CONTINUOUS
10
235.9551621709
20
-58.0257565414
11
237.9551621709
21
-58.0257565414
0
LINE
5
3B1
100
AcDbEntity
8
0
100
AcDbLine
62
7
6
CONTINUOUS
10
239.6551621709
20
-58.0257565414
11
241.6551621709
21
-58.0257565414
0
LINE
5
3B2
100
AcDbEntity
8
0
100
AcDbLine
62
7
6
CONTINUOUS
10
243.3551621709
20
-58.0257565414
11
245.3551621709
21
-58.0257565414
0
LINE
5
3B3
100
AcDbEntity
8
0
100
AcDbLine
62
7
6
CONTINUOUS
10
247.0551621709
20
-58.0257565414
11
249.0551621709
21
-58.0257565414
0
LINE
5
3B4
100
AcDbEntity
8
0
100
AcDbLine
62
7
6
CONTINUOUS
10
250.7551621709
20
-58.0257565414
11
251.6051621709
21
-58.0257565414
0
LINE
5
3B5
100
AcDbEntity
8
0
100
AcDbLine
62
7
6
CONTINUOUS
10
271.3051621709
20
-58.0257565414
11
272.1551621709
21
-58.0257565414
0
LINE
5
3B6
100
AcDbEntity
8
0
100
AcDbLine
62
7
6
CONTINUOUS
10
273.8551621709
20
-58.0257565414
11
275.8551621709
21
-58.0257565414
0
LINE
5
3B7
100
AcDbEntity
8
0
100
AcDbLine
62
7
6
CONTINUOUS
10
277.5551621709
20
-58.0257565414
11
279.5551621709
21
-58.0257565414
0
LINE
5
3B8
100
AcDbEntity
8
0
100
AcDbLine
62
7
6
CONTINUOUS
10
281.2551621709
20
-58.0257565414
11
283.2551621709
21
-58.0257565414
0
LINE
5
3B9
100
AcDbEntity
8
0
100
AcDbLine
62
7
6
CONTINUOUS
10
284.9551621709
20
-58.0257565414
11
286.9551621709
21
-58.0257565414
0
LINE
5
3BA
100
AcDbEntity
8
0
100
AcDbLine
62
7
6
CONTINUOUS
10
288.6551621709
20
-58.0257565414
11
290.6551621709
21
-58.0257565414
0
LINE
5
3BB
100
AcDbEntity
8
0
100
AcDbLine
62
7
6
CONTINUOUS
10
292.3551621709
20
-58.0257565414
11
294.3551621709
21
-58.0257565414
0
LINE
5
3BC
100
AcDbEntity
8
0
100
AcDbLine
62
7
6
CONTINUOUS
10
296.0551621709
20
-58.0257565414
11
298.0551621709
21
-58.0257565414
0
LINE
5
3BD
100
AcDbEntity
8
0
100
AcDbLine
62
7
6
CONTINUOUS
10
299.7551621709
20
-58.0257565414
11
300.6051621709
21
-58.0257565414
0
LINE
5
3BE
100
AcDbEntity
8
0
100
AcDbLine
62
7
6
CONTINUOUS
10
301.3051621709
20
-58.0257565414
11
302.1551621709
21
-58.0257565414
0
LINE
5
3BF
100
AcDbEntity
8
0
100
AcDbLine
62
7
6
CONTINUOUS
10
303.8551621709
20
-58.0257565414
11
305.8551621709
21
-58.0257565414
0
LINE
5
3C0
100
AcDbEntity
8
0
100
AcDbLine
62
7
6
CONTINUOUS
10
307.5551621709
20
-58.0257565414
11
309.5551621709
21
-58.0257565414
0
LINE
5
3C1
100
AcDbEntity
8
0
100
AcDbLine
62
7
6
CONTINUOUS
10
311.2551621709
20
-58.0257565414
11
313.2551621709
21
-58.0257565414
0
LINE
5
3C2
100
AcDbEntity
8
0
100
AcDbLine
62
7
6
CONTINUOUS
10
314.9551621709
20
-58.0257565414
11
316.9551621709
21
-58.0257565414
0
LINE
5
3C3
100
AcDbEntity
8
0
100
AcDbLine
62
7
6
CONTINUOUS
10
318.6551621709
20
-58.0257565414
11
320.6551621709
21
-58.0257565414
0
LINE
5
3C4
100
AcDbEntity
8
0
100
AcDbLine
62
7
6
CONTINUOUS
10
322.3551621709
20
-58.0257565414
11
324.3551621709
21
-58.0257565414
0
LINE
5
3C5
100
AcDbEntity
8
0
100
AcDbLine
62
7
6
CONTINUOUS
10
326.0551621709
20
-58.0257565414
11
328.0551621709
21
-58.0257565414
0
LINE
5
3C6
100
AcDbEntity
8
0
100
AcDbLine
62
7
6
CONTINUOUS
10
329.7551621709
20
-58.0257565414
11
330.6051621709
21
-58.0257565414
0
LINE
5
3C7
100
AcDbEntity
8
0
100
AcDbLine
62
7
6
CONTINUOUS
10
331.3051621709
20
-58.0257565414
11
332.1551621709
21
-58.0257565414
0
LINE
5
3C8
100
AcDbEntity
8
0
100
AcDbLine
62
7
6
CONTINUOUS
10
333.8551621709
20
-58.0257565414
11
335.8551621709
21
-58.0257565414
0
LINE
5
3C9
100
AcDbEntity
8
0
100
AcDbLine
62
7
6
CONTINUOUS
10
337.5551621709
20
-58.0257565414
11
339.5551621709
21
-58.0257565414
0
LINE
5
3CA
100
AcDbEntity
8
0
100
AcDbLine
62
7
6
CONTINUOUS
10
341.2551621709
20
-58.0257565414
11
343.2551621709
21
-58.0257565414
0
LINE
5
3CB
100
AcDbEntity
8
0
100
AcDbLine
62
7
6
CONTINUOUS
10
344.9551621709
20
-58.0257565414
11
346.9551621709
21
-58.0257565414
0
LINE
5
3CC
100
AcDbEntity
8
0
100
AcDbLine
62
7
6
CONTINUOUS
10
348.6551621709
20
-58.0257565414
11
350.6551621709
21
-58.0257565414
0
LINE
5
3CD
100
AcDbEntity
8
0
100
AcDbLine
62
7
6
CONTINUOUS
10
352.3551621709
20
-58.0257565414
11
354.3551621709
21
-58.0257565414
0
LINE
5
3CE
100
AcDbEntity
8
0
100
AcDbLine
62
7
6
CONTINUOUS
10
356.0551621709
20
-58.0257565414
11
358.0551621709
21
-58.0257565414
0
LINE
5
3CF
100
AcDbEntity
8
0
100
AcDbLine
62
7
6
CONTINUOUS
10
359.7551621709
20
-58.0257565414
11
360.6051621709
21
-58.0257565414
0
LINE
5
3D0
100
AcDbEntity
8
0
100
AcDbLine
62
7
6
CONTINUOUS
10
360.6051621709
20
-56.7267184357
11
359.7551621709
21
-56.7267184357
0
LINE
5
3D1
100
AcDbEntity
8
0
100
AcDbLine
62
7
6
CONTINUOUS
10
358.0551621709
20
-56.7267184357
11
356.0551621709
21
-56.7267184357
0
LINE
5
3D2
100
AcDbEntity
8
0
100
AcDbLine
62
7
6
CONTINUOUS
10
354.3551621709
20
-56.7267184357
11
352.3551621709
21
-56.7267184357
0
LINE
5
3D3
100
AcDbEntity
8
0
100
AcDbLine
62
7
6
CONTINUOUS
10
350.6551621709
20
-56.7267184357
11
348.6551621709
21
-56.7267184357
0
LINE
5
3D4
100
AcDbEntity
8
0
100
AcDbLine
62
7
6
CONTINUOUS
10
346.9551621709
20
-56.7267184357
11
344.9551621709
21
-56.7267184357
0
LINE
5
3D5
100
AcDbEntity
8
0
100
AcDbLine
62
7
6
CONTINUOUS
10
343.2551621709
20
-56.7267184357
11
341.2551621709
21
-56.7267184357
0
LINE
5
3D6
100
AcDbEntity
8
0
100
AcDbLine
62
7
6
CONTINUOUS
10
339.5551621709
20
-56.7267184357
11
337.5551621709
21
-56.7267184357
0
LINE
5
3D7
100
AcDbEntity
8
0
100
AcDbLine
62
7
6
CONTINUOUS
10
335.8551621709
20
-56.7267184357
11
333.8551621709
21
-56.7267184357
0
LINE
5
3D8
100
AcDbEntity
8
0
100
AcDbLine
62
7
6
CONTINUOUS
10
332.1551621709
20
-56.7267184357
11
331.3051621709
21
-56.7267184357
0
LINE
5
3D9
100
AcDbEntity
8
0
100
AcDbLine
62
7
6
CONTINUOUS
10
330.6051621709
20
-56.7267184357
11
329.7551621709
21
-56.7267184357
0
LINE
5
3DA
100
AcDbEntity
8
0
100
AcDbLine
62
7
6
CONTINUOUS
10
328.0551621709
20
-56.7267184357
11
326.0551621709
21
-56.7267184357
0
LINE
5
3DB
100
AcDbEntity
8
0
100
AcDbLine
62
7
6
CONTINUOUS
10
324.3551621709
20
-56.7267184357
11
322.3551621709
21
-56.7267184357
0
LINE
5
3DC
100
AcDbEntity
8
0
100
AcDbLine
62
7
6
CONTINUOUS
10
320.6551621709
20
-56.7267184357
11
318.6551621709
21
-56.7267184357
0
LINE
5
3DD
100
AcDbEntity
8
0
100
AcDbLine
62
7
6
CONTINUOUS
10
316.9551621709
20
-56.7267184357
11
314.9551621709
21
-56.7267184357
0
LINE
5
3DE
100
AcDbEntity
8
0
100
AcDbLine
62
7
6
CONTINUOUS
10
313.2551621709
20
-56.7267184357
11
311.2551621709
21
-56.7267184357
0
LINE
5
3DF
100
AcDbEntity
8
0
100
AcDbLine
62
7
6
CONTINUOUS
10
309.5551621709
20
-56.7267184357
11
307.5551621709
21
-56.7267184357
0
LINE
5
3E0
100
AcDbEntity
8
0
100
AcDbLine
62
7
6
CONTINUOUS
10
305.8551621709
20
-56.7267184357
11
303.8551621709
21
-56.7267184357
0
LINE
5
3E1
100
AcDbEntity
8
0
100
AcDbLine
62
7
6
CONTINUOUS
10
302.1551621709
20
-56.7267184357
11
301.3051621709
21
-56.7267184357
0
LINE
5
3E2
100
AcDbEntity
8
0
100
AcDbLine
62
7
6
CONTINUOUS
10
300.6051621709
20
-56.7267184357
11
299.7551621709
21
-56.7267184357
0
LINE
5
3E3
100
AcDbEntity
8
0
100
AcDbLine
62
7
6
CONTINUOUS
10
298.0551621709
20
-56.7267184357
11
296.0551621709
21
-56.7267184357
0
LINE
5
3E4
100
AcDbEntity
8
0
100
AcDbLine
62
7
6
CONTINUOUS
10
294.3551621709
20
-56.7267184357
11
292.3551621709
21
-56.7267184357
0
LINE
5
3E5
100
AcDbEntity
8
0
100
AcDbLine
62
7
6
CONTINUOUS
10
290.6551621709
20
-56.7267184357
11
288.6551621709
21
-56.7267184357
0
LINE
5
3E6
100
AcDbEntity
8
0
100
AcDbLine
62
7
6
CONTINUOUS
10
286.9551621709
20
-56.7267184357
11
284.9551621709
21
-56.7267184357
0
LINE
5
3E7
100
AcDbEntity
8
0
100
AcDbLine
62
7
6
CONTINUOUS
10
283.2551621709
20
-56.7267184357
11
281.2551621709
21
-56.7267184357
0
LINE
5
3E8
100
AcDbEntity
8
0
100
AcDbLine
62
7
6
CONTINUOUS
10
279.5551621709
20
-56.7267184357
11
277.5551621709
21
-56.7267184357
0
LINE
5
3E9
100
AcDbEntity
8
0
100
AcDbLine
62
7
6
CONTINUOUS
10
275.8551621709
20
-56.7267184357
11
273.8551621709
21
-56.7267184357
0
LINE
5
3EA
100
AcDbEntity
8
0
100
AcDbLine
62
7
6
CONTINUOUS
10
272.1551621709
20
-56.7267184357
11
271.3051621709
21
-56.7267184357
0
LINE
5
3EB
100
AcDbEntity
8
0
100
AcDbLine
62
7
6
CONTINUOUS
10
251.6051621709
20
-56.7267184357
11
250.7551621709
21
-56.7267184357
0
LINE
5
3EC
100
AcDbEntity
8
0
100
AcDbLine
62
7
6
CONTINUOUS
10
249.0551621709
20
-56.7267184357
11
247.0551621709
21
-56.7267184357
0
LINE
5
3ED
100
AcDbEntity
8
0
100
AcDbLine
62
7
6
CONTINUOUS
10
245.3551621709
20
-56.7267184357
11
243.3551621709
21
-56.7267184357
0
LINE
5
3EE
100
AcDbEntity
8
0
100
AcDbLine
62
7
6
CONTINUOUS
10
241.6551621709
20
-56.7267184357
11
239.6551621709
21
-56.7267184357
0
LINE
5
3EF
100
AcDbEntity
8
0
100
AcDbLine
62
7
6
CONTINUOUS
10
237.9551621709
20
-56.7267184357
11
235.9551621709
21
-56.7267184357
0
LINE
5
3F0
100
AcDbEntity
8
0
100
AcDbLine
62
7
6
CONTINUOUS
10
234.2551621709
20
-56.7267184357
11
232.2551621709
21
-56.7267184357
0
LINE
5
3F1
100
AcDbEntity
8
0
100
AcDbLine
62
7
6
CONTINUOUS
10
230.5551621709
20
-56.7267184357
11
228.5551621709
21
-56.7267184357
0
LINE
5
3F2
100
AcDbEntity
8
0
100
AcDbLine
62
7
6
CONTINUOUS
10
226.8551621709
20
-56.7267184357
11
224.8551621709
21
-56.7267184357
0
LINE
5
3F3
100
AcDbEntity
8
0
100
AcDbLine
62
7
6
CONTINUOUS
10
223.1551621709
20
-56.7267184357
11
222.3051621709
21
-56.7267184357
0
LINE
5
3F4
100
AcDbEntity
8
0
100
AcDbLine
62
7
6
CONTINUOUS
10
221.6051621709
20
-56.7267184357
11
220.7551621709
21
-56.7267184357
0
LINE
5
3F5
100
AcDbEntity
8
0
100
AcDbLine
62
7
6
CONTINUOUS
10
219.0551621709
20
-56.7267184357
11
217.0551621709
21
-56.7267184357
0
LINE
5
3F6
100
AcDbEntity
8
0
100
AcDbLine
62
7
6
CONTINUOUS
10
215.3551621709
20
-56.7267184357
11
213.3551621709
21
-56.7267184357
0
LINE
5
3F7
100
AcDbEntity
8
0
100
AcDbLine
62
7
6
CONTINUOUS
10
211.6551621709
20
-56.7267184357
11
209.6551621709
21
-56.7267184357
0
LINE
5
3F8
100
AcDbEntity
8
0
100
AcDbLine
62
7
6
CONTINUOUS
10
207.9551621709
20
-56.7267184357
11
205.9551621709
21
-56.7267184357
0
LINE
5
3F9
100
AcDbEntity
8
0
100
AcDbLine
62
7
6
CONTINUOUS
10
204.2551621709
20
-56.7267184357
11
202.2551621709
21
-56.7267184357
0
LINE
5
3FA
100
AcDbEntity
8
0
100
AcDbLine
62
7
6
CONTINUOUS
10
200.5551621709
20
-56.7267184357
11
198.5551621709
21
-56.7267184357
0
LINE
5
3FB
100
AcDbEntity
8
0
100
AcDbLine
62
7
6
CONTINUOUS
10
196.8551621709
20
-56.7267184357
11
194.8551621709
21
-56.7267184357
0
LINE
5
3FC
100
AcDbEntity
8
0
100
AcDbLine
62
7
6
CONTINUOUS
10
193.1551621709
20
-56.7267184357
11
192.3051621709
21
-56.7267184357
0
LINE
5
3FD
100
AcDbEntity
8
0
100
AcDbLine
62
7
6
CONTINUOUS
10
191.6051621709
20
-56.7267184357
11
190.7551621709
21
-56.7267184357
0
LINE
5
3FE
100
AcDbEntity
8
0
100
AcDbLine
62
7
6
CONTINUOUS
10
189.0551621709
20
-56.7267184357
11
187.0551621709
21
-56.7267184357
0
LINE
5
3FF
100
AcDbEntity
8
0
100
AcDbLine
62
7
6
CONTINUOUS
10
185.3551621709
20
-56.7267184357
11
183.3551621709
21
-56.7267184357
0
LINE
5
400
100
AcDbEntity
8
0
100
AcDbLine
62
7
6
CONTINUOUS
10
181.6551621709
20
-56.7267184357
11
179.6551621709
21
-56.7267184357
0
LINE
5
401
100
AcDbEntity
8
0
100
AcDbLine
62
7
6
CONTINUOUS
10
177.9551621709
20
-56.7267184357
11
175.9551621709
21
-56.7267184357
0
LINE
5
402
100
AcDbEntity
8
0
100
AcDbLine
62
7
6
CONTINUOUS
10
174.2551621709
20
-56.7267184357
11
172.2551621709
21
-56.7267184357
0
LINE
5
403
100
AcDbEntity
8
0
100
AcDbLine
62
7
6
CONTINUOUS
10
170.5551621709
20
-56.7267184357
11
168.5551621709
21
-56.7267184357
0
LINE
5
404
100
AcDbEntity
8
0
100
AcDbLine
62
7
6
CONTINUOUS
10
166.8551621709
20
-56.7267184357
11
164.8551621709
21
-56.7267184357
0
LINE
5
405
100
AcDbEntity
8
0
100
AcDbLine
62
7
6
CONTINUOUS
10
163.1551621709
20
-56.7267184357
11
162.3051621709
21
-56.7267184357
0
LINE
5
406
100
AcDbEntity
8
0
100
AcDbLine
62
7
6
CONTINUOUS
10
113.1551621709
20
-56.7267184357
11
112.3051621709
21
-56.7267184357
0
LINE
5
407
100
AcDbEntity
8
0
100
AcDbLine
62
7
6
CONTINUOUS
10
83.1551621709
20
-56.7267184357
11
82.3051621709
21
-56.7267184357
0
LINE
5
408
100
AcDbEntity
8
0
100
AcDbLine
62
7
6
CONTINUOUS
10
53.1551621709
20
-56.7267184357
11
52.3051621709
21
-56.7267184357
0
LINE
5
409
100
AcDbEntity
8
0
100
AcDbLine
62
7
6
CONTINUOUS
10
4.1551621709
20
-56.7267184357
11
3.3051621709
21
-56.7267184357
0
LINE
5
40A
100
AcDbEntity
8
0
100
AcDbLine
62
7
6
CONTINUOUS
10
-25.8448378291
20
-56.7267184357
11
-26.6948378291
21
-56.7267184357
0
LINE
5
40B
100
AcDbEntity
8
0
100
AcDbLine
62
7
6
CONTINUOUS
10
-55.8448378291
20
-56.7267184357
11
-56.6948378291
21
-56.7267184357
0
LINE
5
40C
100
AcDbEntity
8
0
100
AcDbLine
62
7
6
CONTINUOUS
10
-54.1448378291
20
-56.7267184357
11
-52.1448378291
21
-56.7267184357
0
LINE
5
40D
100
AcDbEntity
8
0
100
AcDbLine
62
7
6
CONTINUOUS
10
-50.4448378291
20
-56.7267184357
11
-48.4448378291
21
-56.7267184357
0
LINE
5
40E
100
AcDbEntity
8
0
100
AcDbLine
62
7
6
CONTINUOUS
10
-46.7448378291
20
-56.7267184357
11
-44.7448378291
21
-56.7267184357
0
LINE
5
40F
100
AcDbEntity
8
0
100
AcDbLine
62
7
6
CONTINUOUS
10
-43.0448378291
20
-56.7267184357
11
-41.0448378291
21
-56.7267184357
0
LINE
5
410
100
AcDbEntity
8
0
100
AcDbLine
62
7
6
CONTINUOUS
10
-39.3448378291
20
-56.7267184357
11
-37.3448378291
21
-56.7267184357
0
LINE
5
411
100
AcDbEntity
8
0
100
AcDbLine
62
7
6
CONTINUOUS
10
-35.6448378291
20
-56.7267184357
11
-33.6448378291
21
-56.7267184357
0
LINE
5
412
100
AcDbEntity
8
0
100
AcDbLine
62
7
6
CONTINUOUS
10
-31.9448378291
20
-56.7267184357
11
-29.9448378291
21
-56.7267184357
0
LINE
5
413
100
AcDbEntity
8
0
100
AcDbLine
62
7
6
CONTINUOUS
10
-28.2448378291
20
-56.7267184357
11
-27.3948378291
21
-56.7267184357
0
LINE
5
414
100
AcDbEntity
8
0
100
AcDbLine
62
7
6
CONTINUOUS
10
-24.1448378291
20
-56.7267184357
11
-22.1448378291
21
-56.7267184357
0
LINE
5
415
100
AcDbEntity
8
0
100
AcDbLine
62
7
6
CONTINUOUS
10
-20.4448378291
20
-56.7267184357
11
-18.4448378291
21
-56.7267184357
0
LINE
5
416
100
AcDbEntity
8
0
100
AcDbLine
62
7
6
CONTINUOUS
10
-16.7448378291
20
-56.7267184357
11
-14.7448378291
21
-56.7267184357
0
LINE
5
417
100
AcDbEntity
8
0
100
AcDbLine
62
7
6
CONTINUOUS
10
-13.0448378291
20
-56.7267184357
11
-11.0448378291
21
-56.7267184357
0
LINE
5
418
100
AcDbEntity
8
0
100
AcDbLine
62
7
6
CONTINUOUS
10
-9.3448378291
20
-56.7267184357
11
-7.3448378291
21
-56.7267184357
0
LINE
5
419
100
AcDbEntity
8
0
100
AcDbLine
62
7
6
CONTINUOUS
10
-5.6448378291
20
-56.7267184357
11
-3.6448378291
21
-56.7267184357
0
LINE
5
41A
100
AcDbEntity
8
0
100
AcDbLine
62
7
6
CONTINUOUS
10
-1.9448378291
20
-56.7267184357
11
0.0551621709
21
-56.7267184357
0
LINE
5
41B
100
AcDbEntity
8
0
100
AcDbLine
62
7
6
CONTINUOUS
10
1.7551621709
20
-56.7267184357
11
2.6051621709
21
-56.7267184357
0
LINE
5
41C
100
AcDbEntity
8
0
100
AcDbLine
62
7
6
CONTINUOUS
10
5.8551621709
20
-56.7267184357
11
7.8551621709
21
-56.7267184357
0
LINE
5
41D
100
AcDbEntity
8
0
100
AcDbLine
62
7
6
CONTINUOUS
10
9.5551621709
20
-56.7267184357
11
11.5551621709
21
-56.7267184357
0
LINE
5
41E
100
AcDbEntity
8
0
100
AcDbLine
62
7
6
CONTINUOUS
10
13.2551621709
20
-56.7267184357
11
15.2551621709
21
-56.7267184357
0
LINE
5
41F
100
AcDbEntity
8
0
100
AcDbLine
62
7
6
CONTINUOUS
10
16.9551621709
20
-56.7267184357
11
18.9551621709
21
-56.7267184357
0
LINE
5
420
100
AcDbEntity
8
0
100
AcDbLine
62
7
6
CONTINUOUS
10
20.6551621709
20
-56.7267184357
11
22.6551621709
21
-56.7267184357
0
LINE
5
421
100
AcDbEntity
8
0
100
AcDbLine
62
7
6
CONTINUOUS
10
24.3551621709
20
-56.7267184357
11
26.3551621709
21
-56.7267184357
0
LINE
5
422
100
AcDbEntity
8
0
100
AcDbLine
62
7
6
CONTINUOUS
10
28.0551621709
20
-56.7267184357
11
30.0551621709
21
-56.7267184357
0
LINE
5
423
100
AcDbEntity
8
0
100
AcDbLine
62
7
6
CONTINUOUS
10
31.7551621709
20
-56.7267184357
11
32.6051621709
21
-56.7267184357
0
LINE
5
424
100
AcDbEntity
8
0
100
AcDbLine
62
7
6
CONTINUOUS
10
54.8551621709
20
-56.7267184357
11
56.8551621709
21
-56.7267184357
0
LINE
5
425
100
AcDbEntity
8
0
100
AcDbLine
62
7
6
CONTINUOUS
10
58.5551621709
20
-56.7267184357
11
60.5551621709
21
-56.7267184357
0
LINE
5
426
100
AcDbEntity
8
0
100
AcDbLine
62
7
6
CONTINUOUS
10
62.2551621709
20
-56.7267184357
11
64.2551621709
21
-56.7267184357
0
LINE
5
427
100
AcDbEntity
8
0
100
AcDbLine
62
7
6
CONTINUOUS
10
65.9551621709
20
-56.7267184357
11
67.9551621709
21
-56.7267184357
0
LINE
5
428
100
AcDbEntity
8
0
100
AcDbLine
62
7
6
CONTINUOUS
10
69.6551621709
20
-56.7267184357
11
71.6551621709
21
-56.7267184357
0
LINE
5
429
100
AcDbEntity
8
0
100
AcDbLine
62
7
6
CONTINUOUS
10
73.3551621709
20
-56.7267184357
11
75.3551621709
21
-56.7267184357
0
LINE
5
42A
100
AcDbEntity
8
0
100
AcDbLine
62
7
6
CONTINUOUS
10
77.0551621709
20
-56.7267184357
11
79.0551621709
21
-56.7267184357
0
LINE
5
42B
100
AcDbEntity
8
0
100
AcDbLine
62
7
6
CONTINUOUS
10
80.7551621709
20
-56.7267184357
11
81.6051621709
21
-56.7267184357
0
LINE
5
42C
100
AcDbEntity
8
0
100
AcDbLine
62
7
6
CONTINUOUS
10
84.8551621709
20
-56.7267184357
11
86.8551621709
21
-56.7267184357
0
LINE
5
42D
100
AcDbEntity
8
0
100
AcDbLine
62
7
6
CONTINUOUS
10
88.5551621709
20
-56.7267184357
11
90.5551621709
21
-56.7267184357
0
LINE
5
42E
100
AcDbEntity
8
0
100
AcDbLine
62
7
6
CONTINUOUS
10
92.2551621709
20
-56.7267184357
11
94.2551621709
21
-56.7267184357
0
LINE
5
42F
100
AcDbEntity
8
0
100
AcDbLine
62
7
6
CONTINUOUS
10
95.9551621709
20
-56.7267184357
11
97.9551621709
21
-56.7267184357
0
LINE
5
430
100
AcDbEntity
8
0
100
AcDbLine
62
7
6
CONTINUOUS
10
99.6551621709
20
-56.7267184357
11
101.6551621709
21
-56.7267184357
0
LINE
5
431
100
AcDbEntity
8
0
100
AcDbLine
62
7
6
CONTINUOUS
10
103.3551621709
20
-56.7267184357
11
105.3551621709
21
-56.7267184357
0
LINE
5
432
100
AcDbEntity
8
0
100
AcDbLine
62
7
6
CONTINUOUS
10
107.0551621709
20
-56.7267184357
11
109.0551621709
21
-56.7267184357
0
LINE
5
433
100
AcDbEntity
8
0
100
AcDbLine
62
7
6
CONTINUOUS
10
110.7551621709
20
-56.7267184357
11
111.6051621709
21
-56.7267184357
0
LINE
5
434
100
AcDbEntity
8
0
100
AcDbLine
62
7
6
CONTINUOUS
10
114.8551621709
20
-56.7267184357
11
116.8551621709
21
-56.7267184357
0
LINE
5
435
100
AcDbEntity
8
0
100
AcDbLine
62
7
6
CONTINUOUS
10
118.5551621709
20
-56.7267184357
11
120.5551621709
21
-56.7267184357
0
LINE
5
436
100
AcDbEntity
8
0
100
AcDbLine
62
7
6
CONTINUOUS
10
122.2551621709
20
-56.7267184357
11
124.2551621709
21
-56.7267184357
0
LINE
5
437
100
AcDbEntity
8
0
100
AcDbLine
62
7
6
CONTINUOUS
10
125.9551621709
20
-56.7267184357
11
127.9551621709
21
-56.7267184357
0
LINE
5
438
100
AcDbEntity
8
0
100
AcDbLine
62
7
6
CONTINUOUS
10
129.6551621709
20
-56.7267184357
11
131.6551621709
21
-56.7267184357
0
LINE
5
439
100
AcDbEntity
8
0
100
AcDbLine
62
7
6
CONTINUOUS
10
133.3551621709
20
-56.7267184357
11
135.3551621709
21
-56.7267184357
0
LINE
5
43A
100
AcDbEntity
8
0
100
AcDbLine
62
7
6
CONTINUOUS
10
137.0551621709
20
-56.7267184357
11
139.0551621709
21
-56.7267184357
0
LINE
5
43B
100
AcDbEntity
8
0
100
AcDbLine
62
7
6
CONTINUOUS
10
140.7551621709
20
-56.7267184357
11
141.6051621709
21
-56.7267184357
0
LINE
5
43C
100
AcDbEntity
8
0
100
AcDbLine
62
9
6
CONTINUOUS
10
368.6551621709
20
-50.9767184357
11
370.2551621709
21
-50.9767184357
0
LINE
5
43D
100
AcDbEntity
8
0
100
AcDbLine
62
9
6
CONTINUOUS
10
-64.7448378291
20
-50.9767184357
11
-66.3448378291
21
-50.9767184357
0
LINE
5
43E
100
AcDbEntity
8
0
100
AcDbLine
62
7
6
CONTINUOUS
10
120.9551621709
20
42.2732815643
11
120.9551621709
21
40.2732815643
0
LINE
5
43F
100
AcDbEntity
8
0
100
AcDbLine
62
7
6
CONTINUOUS
10
122.2551621709
20
-62.5267184357
11
122.2551621709
21
-56.7267184357
0
LINE
5
440
100
AcDbEntity
8
0
100
AcDbLine
62
7
6
CONTINUOUS
10
122.9551621709
20
45.7732815643
11
122.9551621709
21
42.2732815643
0
LINE
5
441
100
AcDbEntity
8
0
100
AcDbLine
62
7
6
CONTINUOUS
10
124.2551621709
20
-62.5267184357
11
124.2551621709
21
-56.7267184357
0
LINE
5
442
100
AcDbEntity
8
0
100
AcDbLine
62
7
6
CONTINUOUS
10
125.9551621709
20
-62.5267184357
11
125.9551621709
21
-56.7267184357
0
LINE
5
443
100
AcDbEntity
8
0
100
AcDbLine
62
7
6
CONTINUOUS
10
126.9551621709
20
42.2732815643
11
126.9551621709
21
45.7732815643
0
LINE
5
444
100
AcDbEntity
8
0
100
AcDbLine
62
7
6
CONTINUOUS
10
127.9551621709
20
-73.7267184357
11
127.9551621709
21
-71.9767184357
0
LINE
5
445
100
AcDbEntity
8
0
100
AcDbLine
62
7
6
CONTINUOUS
10
127.9551621709
20
-62.5267184357
11
127.9551621709
21
-56.7267184357
0
LINE
5
446
100
AcDbEntity
8
0
100
AcDbLine
62
7
6
CONTINUOUS
10
128.4551621709
20
-73.7267184357
11
128.4551621709
21
-71.9767184357
0
LINE
5
447
100
AcDbEntity
8
0
100
AcDbLine
62
7
6
CONTINUOUS
10
128.9551621709
20
40.2732815643
11
128.9551621709
21
42.2732815643
0
LINE
5
448
100
AcDbEntity
8
0
100
AcDbLine
62
7
6
CONTINUOUS
10
129.6551621709
20
-62.5267184357
11
129.6551621709
21
-56.7267184357
0
LINE
5
449
100
AcDbEntity
8
0
100
AcDbLine
62
7
6
CONTINUOUS
10
131.4551621709
20
44.7732815643
11
131.4551621709
21
36.7732815643
0
LINE
5
44A
100
AcDbEntity
8
0
100
AcDbLine
62
7
6
CONTINUOUS
10
131.6551621709
20
-62.5267184357
11
131.6551621709
21
-56.7267184357
0
LINE
5
44B
100
AcDbEntity
8
0
100
AcDbLine
62
7
6
CONTINUOUS
10
133.3551621709
20
-62.5267184357
11
133.3551621709
21
-56.7267184357
0
LINE
5
44C
100
AcDbEntity
8
0
100
AcDbLine
62
7
6
CONTINUOUS
10
135.3551621709
20
-62.5267184357
11
135.3551621709
21
-56.7267184357
0
LINE
5
44D
100
AcDbEntity
8
0
100
AcDbLine
62
7
6
CONTINUOUS
10
135.4551621709
20
36.7732815643
11
135.4551621709
21
44.7732815643
0
LINE
5
44E
100
AcDbEntity
8
0
100
AcDbLine
62
7
6
CONTINUOUS
10
137.0551621709
20
-62.5267184357
11
137.0551621709
21
-56.7267184357
0
LINE
5
44F
100
AcDbEntity
8
0
100
AcDbLine
62
7
6
CONTINUOUS
10
92.4551621709
20
-56.7267184357
11
92.2551621709
21
-57.0731285973
0
LINE
5
450
100
AcDbEntity
8
0
100
AcDbLine
62
7
6
CONTINUOUS
10
96.1551621709
20
-56.7267184357
11
95.9551621709
21
-57.0731285973
0
LINE
5
451
100
AcDbEntity
8
0
100
AcDbLine
62
7
6
CONTINUOUS
10
99.8551621709
20
-56.7267184357
11
99.6551621709
21
-57.0731285973
0
LINE
5
452
100
AcDbEntity
8
0
100
AcDbLine
62
7
6
CONTINUOUS
10
103.5551621709
20
-56.7267184357
11
103.3551621709
21
-57.0731285973
0
LINE
5
453
100
AcDbEntity
8
0
100
AcDbLine
62
7
6
CONTINUOUS
10
107.2551621709
20
-56.7267184357
11
107.0551621709
21
-57.0731285973
0
LINE
5
454
100
AcDbEntity
8
0
100
AcDbLine
62
7
6
CONTINUOUS
10
137.9551621709
20
42.2732815643
11
137.9551621709
21
40.2732815643
0
LINE
5
455
100
AcDbEntity
8
0
100
AcDbLine
62
7
6
CONTINUOUS
10
139.0551621709
20
-62.5267184357
11
139.0551621709
21
-56.7267184357
0
LINE
5
456
100
AcDbEntity
8
0
100
AcDbLine
62
7
6
CONTINUOUS
10
139.9551621709
20
45.7732815643
11
139.9551621709
21
42.2732815643
0
LINE
5
457
100
AcDbEntity
8
0
100
AcDbLine
62
7
6
CONTINUOUS
10
140.7551621709
20
-62.5267184357
11
140.7551621709
21
-56.7267184357
0
LINE
5
458
100
AcDbEntity
8
0
100
AcDbLine
62
7
6
CONTINUOUS
10
141.6051621709
20
-56.7267184357
11
141.6051621709
21
-65.7267184357
0
LINE
5
459
100
AcDbEntity
8
0
100
AcDbLine
62
7
6
CONTINUOUS
10
141.8051621709
20
-65.7267184357
11
141.8051621709
21
-63.2267184357
0
LINE
5
45A
100
AcDbEntity
8
0
100
AcDbLine
62
7
6
CONTINUOUS
10
143.4551621709
20
-73.7267184357
11
143.4551621709
21
-71.9767184357
0
LINE
5
45B
100
AcDbEntity
8
0
100
AcDbLine
62
7
6
CONTINUOUS
10
143.9551621709
20
42.2732815643
11
143.9551621709
21
45.7732815643
0
LINE
5
45C
100
AcDbEntity
8
0
100
AcDbLine
62
7
6
CONTINUOUS
10
145.9551621709
20
40.2732815643
11
145.9551621709
21
42.2732815643
0
LINE
5
45D
100
AcDbEntity
8
0
100
AcDbLine
62
7
6
CONTINUOUS
10
148.4551621709
20
44.7732815643
11
148.4551621709
21
36.7732815643
0
LINE
5
45E
100
AcDbEntity
8
0
100
AcDbLine
62
7
6
CONTINUOUS
10
149.4551621709
20
-71.9767184357
11
149.4551621709
21
-63.2267184357
0
LINE
5
45F
100
AcDbEntity
8
0
100
AcDbLine
62
7
6
CONTINUOUS
10
151.4551621709
20
-87.2267184357
11
151.4551621709
21
-88.2833427628
0
LINE
5
460
100
AcDbEntity
8
0
100
AcDbLine
62
7
6
CONTINUOUS
10
152.4551621709
20
36.7732815643
11
152.4551621709
21
44.7732815643
0
LINE
5
461
100
AcDbEntity
8
0
100
AcDbLine
62
7
6
CONTINUOUS
10
152.4551621709
20
-87.2267184357
11
152.4551621709
21
-88.2833427628
0
LINE
5
462
100
AcDbEntity
8
0
100
AcDbLine
62
7
6
CONTINUOUS
10
110.9551621709
20
-56.7267184357
11
110.7551621709
21
-57.0731285973
0
LINE
5
463
100
AcDbEntity
8
0
100
AcDbLine
62
7
6
CONTINUOUS
10
115.0551621709
20
-56.7267184357
11
114.8551621709
21
-57.0731285973
0
LINE
5
464
100
AcDbEntity
8
0
100
AcDbLine
62
7
6
CONTINUOUS
10
118.7551621709
20
-56.7267184357
11
118.5551621709
21
-57.0731285973
0
LINE
5
465
100
AcDbEntity
8
0
100
AcDbLine
62
7
6
CONTINUOUS
10
122.4551621709
20
-56.7267184357
11
122.2551621709
21
-57.0731285973
0
LINE
5
466
100
AcDbEntity
8
0
100
AcDbLine
62
7
6
CONTINUOUS
10
126.1551621709
20
-56.7267184357
11
125.9551621709
21
-57.0731285973
0
LINE
5
467
100
AcDbEntity
8
0
100
AcDbLine
62
9
6
CONTINUOUS
10
371.9551621709
20
-11.4693591229
11
370.2551621709
21
-11.4693591229
0
LINE
5
468
100
AcDbEntity
8
0
100
AcDbLine
62
9
6
CONTINUOUS
10
-66.3448378291
20
-11.4693591229
11
-68.0448378291
21
-11.4693591229
0
LINE
5
469
100
AcDbEntity
8
0
100
AcDbLine
62
7
6
CONTINUOUS
10
260.4551621709
20
-88.2833427628
11
262.9551621709
21
-89.7267184357
0
LINE
5
46A
100
AcDbEntity
8
0
100
AcDbLine
62
7
6
CONTINUOUS
10
162.9551621709
20
-56.7267184357
11
163.1551621709
21
-57.0731285973
0
LINE
5
46B
100
AcDbEntity
8
0
100
AcDbLine
62
7
6
CONTINUOUS
10
166.6551621709
20
-56.7267184357
11
166.8551621709
21
-57.0731285973
0
LINE
5
46C
100
AcDbEntity
8
0
100
AcDbLine
62
7
6
CONTINUOUS
10
170.3551621709
20
-56.7267184357
11
170.5551621709
21
-57.0731285973
0
LINE
5
46D
100
AcDbEntity
8
0
100
AcDbLine
62
7
6
CONTINUOUS
10
174.0551621709
20
-56.7267184357
11
174.2551621709
21
-57.0731285973
0
LINE
5
46E
100
AcDbEntity
8
0
100
AcDbLine
62
7
6
CONTINUOUS
10
177.7551621709
20
-56.7267184357
11
177.9551621709
21
-57.0731285973
0
LINE
5
46F
100
AcDbEntity
8
0
100
AcDbLine
62
7
6
CONTINUOUS
10
154.4551621709
20
-71.9767184357
11
154.4551621709
21
-63.2267184357
0
LINE
5
470
100
AcDbEntity
8
0
100
AcDbLine
62
7
6
CONTINUOUS
10
154.9551621709
20
42.2732815643
11
154.9551621709
21
40.2732815643
0
LINE
5
471
100
AcDbEntity
8
0
100
AcDbLine
62
7
6
CONTINUOUS
10
156.9551621709
20
45.7732815643
11
156.9551621709
21
42.2732815643
0
LINE
5
472
100
AcDbEntity
8
0
100
AcDbLine
62
7
6
CONTINUOUS
10
160.4551621709
20
-73.7267184357
11
160.4551621709
21
-71.9767184357
0
LINE
5
473
100
AcDbEntity
8
0
100
AcDbLine
62
7
6
CONTINUOUS
10
160.9551621709
20
42.2732815643
11
160.9551621709
21
45.7732815643
0
LINE
5
474
100
AcDbEntity
8
0
100
AcDbLine
62
7
6
CONTINUOUS
10
162.1051621709
20
-65.7267184357
11
162.1051621709
21
-63.2267184357
0
LINE
5
475
100
AcDbEntity
8
0
100
AcDbLine
62
7
6
CONTINUOUS
10
162.3051621709
20
-56.7267184357
11
162.3051621709
21
-65.7267184357
0
LINE
5
476
100
AcDbEntity
8
0
100
AcDbLine
62
7
6
CONTINUOUS
10
162.9551621709
20
40.2732815643
11
162.9551621709
21
42.2732815643
0
LINE
5
477
100
AcDbEntity
8
0
100
AcDbLine
62
7
6
CONTINUOUS
10
163.1551621709
20
-62.5267184357
11
163.1551621709
21
-56.7267184357
0
LINE
5
478
100
AcDbEntity
8
0
100
AcDbLine
62
7
6
CONTINUOUS
10
164.8551621709
20
-62.5267184357
11
164.8551621709
21
-56.7267184357
0
LINE
5
479
100
AcDbEntity
8
0
100
AcDbLine
62
7
6
CONTINUOUS
10
165.4551621709
20
44.7732815643
11
165.4551621709
21
36.7732815643
0
LINE
5
47A
100
AcDbEntity
8
0
100
AcDbLine
62
7
6
CONTINUOUS
10
166.8551621709
20
-62.5267184357
11
166.8551621709
21
-56.7267184357
0
LINE
5
47B
100
AcDbEntity
8
0
100
AcDbLine
62
7
6
CONTINUOUS
10
168.5551621709
20
-62.5267184357
11
168.5551621709
21
-56.7267184357
0
LINE
5
47C
100
AcDbEntity
8
0
100
AcDbLine
62
7
6
CONTINUOUS
10
169.4551621709
20
36.7732815643
11
169.4551621709
21
44.7732815643
0
LINE
5
47D
100
AcDbEntity
8
0
100
AcDbLine
62
7
6
CONTINUOUS
10
170.5551621709
20
-62.5267184357
11
170.5551621709
21
-56.7267184357
0
LINE
5
47E
100
AcDbEntity
8
0
100
AcDbLine
62
7
6
CONTINUOUS
10
129.8551621709
20
-56.7267184357
11
129.6551621709
21
-57.0731285973
0
LINE
5
47F
100
AcDbEntity
8
0
100
AcDbLine
62
7
6
CONTINUOUS
10
133.5551621709
20
-56.7267184357
11
133.3551621709
21
-57.0731285973
0
LINE
5
480
100
AcDbEntity
8
0
100
AcDbLine
62
7
6
CONTINUOUS
10
137.2551621709
20
-56.7267184357
11
137.0551621709
21
-57.0731285973
0
LINE
5
481
100
AcDbEntity
8
0
100
AcDbLine
62
7
6
CONTINUOUS
10
140.9551621709
20
-56.7267184357
11
140.7551621709
21
-57.0731285973
0
LINE
5
482
100
AcDbEntity
8
0
100
AcDbLine
62
7
6
CONTINUOUS
10
43.4551621709
20
-88.2833427628
11
40.9551621709
21
-89.7267184357
0
LINE
5
483
100
AcDbEntity
8
0
100
AcDbLine
62
9
6
CONTINUOUS
10
371.9551621709
20
-9.3480387793
11
370.2551621709
21
-9.3480387793
0
LINE
5
484
100
AcDbEntity
8
0
100
AcDbLine
62
9
6
CONTINUOUS
10
-66.3448378291
20
-9.3480387793
11
-68.0448378291
21
-9.3480387793
0
LINE
5
485
100
AcDbEntity
8
0
100
AcDbLine
62
7
6
CONTINUOUS
10
181.4551621709
20
-56.7267184357
11
181.6551621709
21
-57.0731285973
0
LINE
5
486
100
AcDbEntity
8
0
100
AcDbLine
62
7
6
CONTINUOUS
10
185.1551621709
20
-56.7267184357
11
185.3551621709
21
-57.0731285973
0
LINE
5
487
100
AcDbEntity
8
0
100
AcDbLine
62
7
6
CONTINUOUS
10
188.8551621709
20
-56.7267184357
11
189.0551621709
21
-57.0731285973
0
LINE
5
488
100
AcDbEntity
8
0
100
AcDbLine
62
7
6
CONTINUOUS
10
192.9551621709
20
-56.7267184357
11
193.1551621709
21
-57.0731285973
0
LINE
5
489
100
AcDbEntity
8
0
100
AcDbLine
62
7
6
CONTINUOUS
10
196.6551621709
20
-56.7267184357
11
196.8551621709
21
-57.0731285973
0
LINE
5
48A
100
AcDbEntity
8
0
100
AcDbLine
62
7
6
CONTINUOUS
10
171.9551621709
20
42.2732815643
11
171.9551621709
21
40.2732815643
0
LINE
5
48B
100
AcDbEntity
8
0
100
AcDbLine
62
7
6
CONTINUOUS
10
172.2551621709
20
-62.5267184357
11
172.2551621709
21
-56.7267184357
0
LINE
5
48C
100
AcDbEntity
8
0
100
AcDbLine
62
7
6
CONTINUOUS
10
173.9551621709
20
45.7732815643
11
173.9551621709
21
42.2732815643
0
LINE
5
48D
100
AcDbEntity
8
0
100
AcDbLine
62
7
6
CONTINUOUS
10
174.2551621709
20
-62.5267184357
11
174.2551621709
21
-56.7267184357
0
LINE
5
48E
100
AcDbEntity
8
0
100
AcDbLine
62
7
6
CONTINUOUS
10
175.4551621709
20
-73.7267184357
11
175.4551621709
21
-71.9767184357
0
LINE
5
48F
100
AcDbEntity
8
0
100
AcDbLine
62
7
6
CONTINUOUS
10
175.9551621709
20
-73.7267184357
11
175.9551621709
21
-71.9767184357
0
LINE
5
490
100
AcDbEntity
8
0
100
AcDbLine
62
7
6
CONTINUOUS
10
175.9551621709
20
-62.5267184357
11
175.9551621709
21
-56.7267184357
0
LINE
5
491
100
AcDbEntity
8
0
100
AcDbLine
62
7
6
CONTINUOUS
10
177.9551621709
20
-62.5267184357
11
177.9551621709
21
-56.7267184357
0
LINE
5
492
100
AcDbEntity
8
0
100
AcDbLine
62
7
6
CONTINUOUS
10
177.9551621709
20
42.2732815643
11
177.9551621709
21
45.7732815643
0
LINE
5
493
100
AcDbEntity
8
0
100
AcDbLine
62
7
6
CONTINUOUS
10
179.6551621709
20
-62.5267184357
11
179.6551621709
21
-56.7267184357
0
LINE
5
494
100
AcDbEntity
8
0
100
AcDbLine
62
7
6
CONTINUOUS
10
179.9551621709
20
40.2732815643
11
179.9551621709
21
42.2732815643
0
LINE
5
495
100
AcDbEntity
8
0
100
AcDbLine
62
7
6
CONTINUOUS
10
181.6551621709
20
-62.5267184357
11
181.6551621709
21
-56.7267184357
0
LINE
5
496
100
AcDbEntity
8
0
100
AcDbLine
62
7
6
CONTINUOUS
10
182.4551621709
20
44.7732815643
11
182.4551621709
21
36.7732815643
0
LINE
5
497
100
AcDbEntity
8
0
100
AcDbLine
62
7
6
CONTINUOUS
10
183.3551621709
20
-62.5267184357
11
183.3551621709
21
-56.7267184357
0
LINE
5
498
100
AcDbEntity
8
0
100
AcDbLine
62
7
6
CONTINUOUS
10
185.3551621709
20
-62.5267184357
11
185.3551621709
21
-56.7267184357
0
LINE
5
499
100
AcDbEntity
8
0
100
AcDbLine
62
7
6
CONTINUOUS
10
186.4551621709
20
36.7732815643
11
186.4551621709
21
44.7732815643
0
LINE
5
49A
100
AcDbEntity
8
0
100
AcDbLine
62
7
6
CONTINUOUS
10
187.0551621709
20
-62.5267184357
11
187.0551621709
21
-56.7267184357
0
LINE
5
49B
100
AcDbEntity
8
0
100
AcDbLine
62
7
6
CONTINUOUS
10
371.9551621709
20
9.7732815643
11
370.2551621709
21
9.7732815643
0
LINE
5
49C
100
AcDbEntity
8
0
100
AcDbLine
62
7
6
CONTINUOUS
10
-66.3448378291
20
9.7732815643
11
-68.0448378291
21
9.7732815643
0
LINE
5
49D
100
AcDbEntity
8
0
100
AcDbLine
62
7
6
CONTINUOUS
10
366.9551621709
20
11.1732815643
11
-63.0448378291
21
11.1732815643
0
LINE
5
49E
100
AcDbEntity
8
0
100
AcDbLine
62
7
6
CONTINUOUS
10
-68.0448378291
20
12.7732815643
11
-63.0448378291
21
12.7732815643
0
LINE
5
49F
100
AcDbEntity
8
0
100
AcDbLine
62
7
6
CONTINUOUS
10
366.9551621709
20
12.7732815643
11
371.9551621709
21
12.7732815643
0
LINE
5
4A0
100
AcDbEntity
8
0
100
AcDbLine
62
9
6
CONTINUOUS
10
366.9551621709
20
14.1732815643
11
-63.0448378291
21
14.1732815643
0
LINE
5
4A1
100
AcDbEntity
8
0
100
AcDbLine
62
7
6
CONTINUOUS
10
-50.5448378291
20
14.5232815643
11
-23.0448378291
21
14.5232815643
0
LINE
5
4A2
100
AcDbEntity
8
0
100
AcDbLine
62
7
6
CONTINUOUS
10
326.9551621709
20
14.5232815643
11
354.4551621709
21
14.5232815643
0
LINE
5
4A3
100
AcDbEntity
8
0
100
AcDbLine
62
7
6
CONTINUOUS
10
200.3551621709
20
-56.7267184357
11
200.5551621709
21
-57.0731285973
0
LINE
5
4A4
100
AcDbEntity
8
0
100
AcDbLine
62
7
6
CONTINUOUS
10
204.0551621709
20
-56.7267184357
11
204.2551621709
21
-57.0731285973
0
LINE
5
4A5
100
AcDbEntity
8
0
100
AcDbLine
62
7
6
CONTINUOUS
10
207.7551621709
20
-56.7267184357
11
207.9551621709
21
-57.0731285973
0
LINE
5
4A6
100
AcDbEntity
8
0
100
AcDbLine
62
7
6
CONTINUOUS
10
211.4551621709
20
-56.7267184357
11
211.6551621709
21
-57.0731285973
0
LINE
5
4A7
100
AcDbEntity
8
0
100
AcDbLine
62
7
6
CONTINUOUS
10
215.1551621709
20
-56.7267184357
11
215.3551621709
21
-57.0731285973
0
LINE
5
4A8
100
AcDbEntity
8
0
100
AcDbLine
62
7
6
CONTINUOUS
10
218.8551621709
20
-56.7267184357
11
219.0551621709
21
-57.0731285973
0
LINE
5
4A9
100
AcDbEntity
8
0
100
AcDbLine
62
7
6
CONTINUOUS
10
188.9551621709
20
42.2732815643
11
188.9551621709
21
40.2732815643
0
LINE
5
4AA
100
AcDbEntity
8
0
100
AcDbLine
62
7
6
CONTINUOUS
10
189.0551621709
20
-62.5267184357
11
189.0551621709
21
-56.7267184357
0
LINE
5
4AB
100
AcDbEntity
8
0
100
AcDbLine
62
7
6
CONTINUOUS
10
190.7551621709
20
-62.5267184357
11
190.7551621709
21
-56.7267184357
0
LINE
5
4AC
100
AcDbEntity
8
0
100
AcDbLine
62
7
6
CONTINUOUS
10
190.9551621709
20
-73.7267184357
11
190.9551621709
21
-71.9767184357
0
LINE
5
4AD
100
AcDbEntity
8
0
100
AcDbLine
62
7
6
CONTINUOUS
10
190.9551621709
20
45.7732815643
11
190.9551621709
21
42.2732815643
0
LINE
5
4AE
100
AcDbEntity
8
0
100
AcDbLine
62
7
6
CONTINUOUS
10
191.4551621709
20
-73.7267184357
11
191.4551621709
21
-71.9767184357
0
LINE
5
4AF
100
AcDbEntity
8
0
100
AcDbLine
62
7
6
CONTINUOUS
10
191.6051621709
20
-56.7267184357
11
191.6051621709
21
-65.7267184357
0
LINE
5
4B0
100
AcDbEntity
8
0
100
AcDbLine
62
7
6
CONTINUOUS
10
192.3051621709
20
-56.7267184357
11
192.3051621709
21
-65.7267184357
0
LINE
5
4B1
100
AcDbEntity
8
0
100
AcDbLine
62
7
6
CONTINUOUS
10
193.1551621709
20
-62.5267184357
11
193.1551621709
21
-56.7267184357
0
LINE
5
4B2
100
AcDbEntity
8
0
100
AcDbLine
62
7
6
CONTINUOUS
10
194.8551621709
20
-62.5267184357
11
194.8551621709
21
-56.7267184357
0
LINE
5
4B3
100
AcDbEntity
8
0
100
AcDbLine
62
7
6
CONTINUOUS
10
194.9551621709
20
42.2732815643
11
194.9551621709
21
45.7732815643
0
LINE
5
4B4
100
AcDbEntity
8
0
100
AcDbLine
62
7
6
CONTINUOUS
10
196.8551621709
20
-62.5267184357
11
196.8551621709
21
-56.7267184357
0
LINE
5
4B5
100
AcDbEntity
8
0
100
AcDbLine
62
7
6
CONTINUOUS
10
196.9551621709
20
40.2732815643
11
196.9551621709
21
42.2732815643
0
LINE
5
4B6
100
AcDbEntity
8
0
100
AcDbLine
62
7
6
CONTINUOUS
10
198.5551621709
20
-62.5267184357
11
198.5551621709
21
-56.7267184357
0
LINE
5
4B7
100
AcDbEntity
8
0
100
AcDbLine
62
7
6
CONTINUOUS
10
199.4551621709
20
44.7732815643
11
199.4551621709
21
36.7732815643
0
LINE
5
4B8
100
AcDbEntity
8
0
100
AcDbLine
62
7
6
CONTINUOUS
10
200.5551621709
20
-62.5267184357
11
200.5551621709
21
-56.7267184357
0
LINE
5
4B9
100
AcDbEntity
8
0
100
AcDbLine
62
7
6
CONTINUOUS
10
202.2551621709
20
-62.5267184357
11
202.2551621709
21
-56.7267184357
0
LINE
5
4BA
100
AcDbEntity
8
0
100
AcDbLine
62
7
6
CONTINUOUS
10
203.4551621709
20
36.7732815643
11
203.4551621709
21
44.7732815643
0
LINE
5
4BB
100
AcDbEntity
8
0
100
AcDbLine
62
7
6
CONTINUOUS
10
204.2551621709
20
-62.5267184357
11
204.2551621709
21
-56.7267184357
0
LINE
5
4BC
100
AcDbEntity
8
0
100
AcDbLine
62
7
6
CONTINUOUS
10
354.4551621709
20
25.7732815643
11
326.9551621709
21
25.7732815643
0
LINE
5
4BD
100
AcDbEntity
8
0
100
AcDbLine
62
7
6
CONTINUOUS
10
-23.0448378291
20
25.7732815643
11
-50.5448378291
21
25.7732815643
0
LINE
5
4BE
100
AcDbEntity
8
0
100
AcDbLine
62
7
6
CONTINUOUS
10
360.4551621709
20
35.7732815643
11
349.4551621709
21
35.7732815643
0
LINE
5
4BF
100
AcDbEntity
8
0
100
AcDbLine
62
7
6
CONTINUOUS
10
343.4551621709
20
35.7732815643
11
332.4551621709
21
35.7732815643
0
LINE
5
4C0
100
AcDbEntity
8
0
100
AcDbLine
62
7
6
CONTINUOUS
10
326.4551621709
20
35.7732815643
11
315.4551621709
21
35.7732815643
0
LINE
5
4C1
100
AcDbEntity
8
0
100
AcDbLine
62
7
6
CONTINUOUS
10
309.4551621709
20
35.7732815643
11
298.4551621709
21
35.7732815643
0
LINE
5
4C2
100
AcDbEntity
8
0
100
AcDbLine
62
7
6
CONTINUOUS
10
292.4551621709
20
35.7732815643
11
281.4551621709
21
35.7732815643
0
LINE
5
4C3
100
AcDbEntity
8
0
100
AcDbLine
62
7
6
CONTINUOUS
10
275.4551621709
20
35.7732815643
11
264.4551621709
21
35.7732815643
0
LINE
5
4C4
100
AcDbEntity
8
0
100
AcDbLine
62
7
6
CONTINUOUS
10
258.4551621709
20
35.7732815643
11
247.4551621709
21
35.7732815643
0
LINE
5
4C5
100
AcDbEntity
8
0
100
AcDbLine
62
7
6
CONTINUOUS
10
241.4551621709
20
35.7732815643
11
230.4551621709
21
35.7732815643
0
LINE
5
4C6
100
AcDbEntity
8
0
100
AcDbLine
62
7
6
CONTINUOUS
10
215.4551621709
20
35.7732815643
11
204.4551621709
21
35.7732815643
0
LINE
5
4C7
100
AcDbEntity
8
0
100
AcDbLine
62
7
6
CONTINUOUS
10
198.4551621709
20
35.7732815643
11
187.4551621709
21
35.7732815643
0
LINE
5
4C8
100
AcDbEntity
8
0
100
AcDbLine
62
7
6
CONTINUOUS
10
181.4551621709
20
35.7732815643
11
170.4551621709
21
35.7732815643
0
LINE
5
4C9
100
AcDbEntity
8
0
100
AcDbLine
62
7
6
CONTINUOUS
10
164.4551621709
20
35.7732815643
11
153.4551621709
21
35.7732815643
0
LINE
5
4CA
100
AcDbEntity
8
0
100
AcDbLine
62
7
6
CONTINUOUS
10
147.4551621709
20
35.7732815643
11
136.4551621709
21
35.7732815643
0
LINE
5
4CB
100
AcDbEntity
8
0
100
AcDbLine
62
7
6
CONTINUOUS
10
130.4551621709
20
35.7732815643
11
119.4551621709
21
35.7732815643
0
LINE
5
4CC
100
AcDbEntity
8
0
100
AcDbLine
62
7
6
CONTINUOUS
10
113.4551621709
20
35.7732815643
11
102.4551621709
21
35.7732815643
0
LINE
5
4CD
100
AcDbEntity
8
0
100
AcDbLine
62
7
6
CONTINUOUS
10
96.4551621709
20
35.7732815643
11
85.4551621709
21
35.7732815643
0
LINE
5
4CE
100
AcDbEntity
8
0
100
AcDbLine
62
7
6
CONTINUOUS
10
-56.5448378291
20
35.7732815643
11
-45.5448378291
21
35.7732815643
0
LINE
5
4CF
100
AcDbEntity
8
0
100
AcDbLine
62
7
6
CONTINUOUS
10
-39.5448378291
20
35.7732815643
11
-28.5448378291
21
35.7732815643
0
LINE
5
4D0
100
AcDbEntity
8
0
100
AcDbLine
62
7
6
CONTINUOUS
10
-22.5448378291
20
35.7732815643
11
-11.5448378291
21
35.7732815643
0
LINE
5
4D1
100
AcDbEntity
8
0
100
AcDbLine
62
7
6
CONTINUOUS
10
-5.5448378291
20
35.7732815643
11
5.4551621709
21
35.7732815643
0
LINE
5
4D2
100
AcDbEntity
8
0
100
AcDbLine
62
7
6
CONTINUOUS
10
11.4551621709
20
35.7732815643
11
22.4551621709
21
35.7732815643
0
LINE
5
4D3
100
AcDbEntity
8
0
100
AcDbLine
62
7
6
CONTINUOUS
10
28.4551621709
20
35.7732815643
11
39.4551621709
21
35.7732815643
0
LINE
5
4D4
100
AcDbEntity
8
0
100
AcDbLine
62
7
6
CONTINUOUS
10
45.4551621709
20
35.7732815643
11
56.4551621709
21
35.7732815643
0
LINE
5
4D5
100
AcDbEntity
8
0
100
AcDbLine
62
7
6
CONTINUOUS
10
62.4551621709
20
35.7732815643
11
73.4551621709
21
35.7732815643
0
LINE
5
4D6
100
AcDbEntity
8
0
100
AcDbLine
62
7
6
CONTINUOUS
10
70.9551621709
20
39.2732815643
11
64.9551621709
21
39.2732815643
0
LINE
5
4D7
100
AcDbEntity
8
0
100
AcDbLine
62
7
6
CONTINUOUS
10
53.9551621709
20
39.2732815643
11
47.9551621709
21
39.2732815643
0
LINE
5
4D8
100
AcDbEntity
8
0
100
AcDbLine
62
7
6
CONTINUOUS
10
36.9551621709
20
39.2732815643
11
30.9551621709
21
39.2732815643
0
LINE
5
4D9
100
AcDbEntity
8
0
100
AcDbLine
62
7
6
CONTINUOUS
10
19.9551621709
20
39.2732815643
11
13.9551621709
21
39.2732815643
0
LINE
5
4DA
100
AcDbEntity
8
0
100
AcDbLine
62
7
6
CONTINUOUS
10
2.9551621709
20
39.2732815643
11
-3.0448378291
21
39.2732815643
0
LINE
5
4DB
100
AcDbEntity
8
0
100
AcDbLine
62
7
6
CONTINUOUS
10
-14.0448378291
20
39.2732815643
11
-20.0448378291
21
39.2732815643
0
LINE
5
4DC
100
AcDbEntity
8
0
100
AcDbLine
62
7
6
CONTINUOUS
10
-31.0448378291
20
39.2732815643
11
-37.0448378291
21
39.2732815643
0
LINE
5
4DD
100
AcDbEntity
8
0
100
AcDbLine
62
7
6
CONTINUOUS
10
-48.0448378291
20
39.2732815643
11
-54.0448378291
21
39.2732815643
0
LINE
5
4DE
100
AcDbEntity
8
0
100
AcDbLine
62
7
6
CONTINUOUS
10
87.9551621709
20
39.2732815643
11
93.9551621709
21
39.2732815643
0
LINE
5
4DF
100
AcDbEntity
8
0
100
AcDbLine
62
7
6
CONTINUOUS
10
104.9551621709
20
39.2732815643
11
110.9551621709
21
39.2732815643
0
LINE
5
4E0
100
AcDbEntity
8
0
100
AcDbLine
62
7
6
CONTINUOUS
10
121.9551621709
20
39.2732815643
11
127.9551621709
21
39.2732815643
0
LINE
5
4E1
100
AcDbEntity
8
0
100
AcDbLine
62
7
6
CONTINUOUS
10
138.9551621709
20
39.2732815643
11
144.9551621709
21
39.2732815643
0
LINE
5
4E2
100
AcDbEntity
8
0
100
AcDbLine
62
7
6
CONTINUOUS
10
155.9551621709
20
39.2732815643
11
161.9551621709
21
39.2732815643
0
LINE
5
4E3
100
AcDbEntity
8
0
100
AcDbLine
62
7
6
CONTINUOUS
10
172.9551621709
20
39.2732815643
11
178.9551621709
21
39.2732815643
0
LINE
5
4E4
100
AcDbEntity
8
0
100
AcDbLine
62
7
6
CONTINUOUS
10
189.9551621709
20
39.2732815643
11
195.9551621709
21
39.2732815643
0
LINE
5
4E5
100
AcDbEntity
8
0
100
AcDbLine
62
7
6
CONTINUOUS
10
206.9551621709
20
39.2732815643
11
212.9551621709
21
39.2732815643
0
LINE
5
4E6
100
AcDbEntity
8
0
100
AcDbLine
62
7
6
CONTINUOUS
10
232.9551621709
20
39.2732815643
11
238.9551621709
21
39.2732815643
0
LINE
5
4E7
100
AcDbEntity
8
0
100
AcDbLine
62
7
6
CONTINUOUS
10
249.9551621709
20
39.2732815643
11
255.9551621709
21
39.2732815643
0
LINE
5
4E8
100
AcDbEntity
8
0
100
AcDbLine
62
7
6
CONTINUOUS
10
266.9551621709
20
39.2732815643
11
272.9551621709
21
39.2732815643
0
LINE
5
4E9
100
AcDbEntity
8
0
100
AcDbLine
62
7
6
CONTINUOUS
10
283.9551621709
20
39.2732815643
11
289.9551621709
21
39.2732815643
0
LINE
5
4EA
100
AcDbEntity
8
0
100
AcDbLine
62
7
6
CONTINUOUS
10
300.9551621709
20
39.2732815643
11
306.9551621709
21
39.2732815643
0
LINE
5
4EB
100
AcDbEntity
8
0
100
AcDbLine
62
7
6
CONTINUOUS
10
317.9551621709
20
39.2732815643
11
323.9551621709
21
39.2732815643
0
LINE
5
4EC
100
AcDbEntity
8
0
100
AcDbLine
62
7
6
CONTINUOUS
10
334.9551621709
20
39.2732815643
11
340.9551621709
21
39.2732815643
0
LINE
5
4ED
100
AcDbEntity
8
0
100
AcDbLine
62
7
6
CONTINUOUS
10
351.9551621709
20
39.2732815643
11
357.9551621709
21
39.2732815643
0
LINE
5
4EE
100
AcDbEntity
8
0
100
AcDbLine
62
7
6
CONTINUOUS
10
222.9551621709
20
-56.7267184357
11
223.1551621709
21
-57.0731285973
0
LINE
5
4EF
100
AcDbEntity
8
0
100
AcDbLine
62
7
6
CONTINUOUS
10
226.6551621709
20
-56.7267184357
11
226.8551621709
21
-57.0731285973
0
LINE
5
4F0
100
AcDbEntity
8
0
100
AcDbLine
62
7
6
CONTINUOUS
10
230.3551621709
20
-56.7267184357
11
230.5551621709
21
-57.0731285973
0
LINE
5
4F1
100
AcDbEntity
8
0
100
AcDbLine
62
7
6
CONTINUOUS
10
234.0551621709
20
-56.7267184357
11
234.2551621709
21
-57.0731285973
0
LINE
5
4F2
100
AcDbEntity
8
0
100
AcDbLine
62
7
6
CONTINUOUS
10
237.7551621709
20
-56.7267184357
11
237.9551621709
21
-57.0731285973
0
LINE
5
4F3
100
AcDbEntity
8
0
100
AcDbLine
62
7
6
CONTINUOUS
10
205.9551621709
20
-62.5267184357
11
205.9551621709
21
-56.7267184357
0
LINE
5
4F4
100
AcDbEntity
8
0
100
AcDbLine
62
7
6
CONTINUOUS
10
205.9551621709
20
42.2732815643
11
205.9551621709
21
40.2732815643
0
LINE
5
4F5
100
AcDbEntity
8
0
100
AcDbLine
62
7
6
CONTINUOUS
10
206.4551621709
20
-73.7267184357
11
206.4551621709
21
-71.9767184357
0
LINE
5
4F6
100
AcDbEntity
8
0
100
AcDbLine
62
7
6
CONTINUOUS
10
206.9551621709
20
-73.7267184357
11
206.9551621709
21
-71.9767184357
0
LINE
5
4F7
100
AcDbEntity
8
0
100
AcDbLine
62
7
6
CONTINUOUS
10
207.9551621709
20
-62.5267184357
11
207.9551621709
21
-56.7267184357
0
LINE
5
4F8
100
AcDbEntity
8
0
100
AcDbLine
62
7
6
CONTINUOUS
10
207.9551621709
20
45.7732815643
11
207.9551621709
21
42.2732815643
0
LINE
5
4F9
100
AcDbEntity
8
0
100
AcDbLine
62
7
6
CONTINUOUS
10
209.6551621709
20
-62.5267184357
11
209.6551621709
21
-56.7267184357
0
LINE
5
4FA
100
AcDbEntity
8
0
100
AcDbLine
62
7
6
CONTINUOUS
10
211.6551621709
20
-62.5267184357
11
211.6551621709
21
-56.7267184357
0
LINE
5
4FB
100
AcDbEntity
8
0
100
AcDbLine
62
7
6
CONTINUOUS
10
211.9551621709
20
42.2732815643
11
211.9551621709
21
45.7732815643
0
LINE
5
4FC
100
AcDbEntity
8
0
100
AcDbLine
62
7
6
CONTINUOUS
10
213.3551621709
20
-62.5267184357
11
213.3551621709
21
-56.7267184357
0
LINE
5
4FD
100
AcDbEntity
8
0
100
AcDbLine
62
7
6
CONTINUOUS
10
213.9551621709
20
40.2732815643
11
213.9551621709
21
42.2732815643
0
LINE
5
4FE
100
AcDbEntity
8
0
100
AcDbLine
62
7
6
CONTINUOUS
10
215.3551621709
20
-62.5267184357
11
215.3551621709
21
-56.7267184357
0
LINE
5
4FF
100
AcDbEntity
8
0
100
AcDbLine
62
7
6
CONTINUOUS
10
216.4551621709
20
44.7732815643
11
216.4551621709
21
36.7732815643
0
LINE
5
500
100
AcDbEntity
8
0
100
AcDbLine
62
7
6
CONTINUOUS
10
217.0551621709
20
-62.5267184357
11
217.0551621709
21
-56.7267184357
0
LINE
5
501
100
AcDbEntity
8
0
100
AcDbLine
62
7
6
CONTINUOUS
10
219.0551621709
20
-62.5267184357
11
219.0551621709
21
-56.7267184357
0
LINE
5
502
100
AcDbEntity
8
0
100
AcDbLine
62
7
6
CONTINUOUS
10
220.7551621709
20
-62.5267184357
11
220.7551621709
21
-56.7267184357
0
LINE
5
503
100
AcDbEntity
8
0
100
AcDbLine
62
7
6
CONTINUOUS
10
151.4551621709
20
-88.2833427628
11
148.9551621709
21
-89.7267184357
0
LINE
5
504
100
AcDbEntity
8
0
100
AcDbLine
62
7
6
CONTINUOUS
10
358.9551621709
20
42.2732815643
11
356.9551621709
21
42.2732815643
0
LINE
5
505
100
AcDbEntity
8
0
100
AcDbLine
62
7
6
CONTINUOUS
10
352.9551621709
20
42.2732815643
11
350.9551621709
21
42.2732815643
0
LINE
5
506
100
AcDbEntity
8
0
100
AcDbLine
62
7
6
CONTINUOUS
10
341.9551621709
20
42.2732815643
11
339.9551621709
21
42.2732815643
0
LINE
5
507
100
AcDbEntity
8
0
100
AcDbLine
62
7
6
CONTINUOUS
10
335.9551621709
20
42.2732815643
11
333.9551621709
21
42.2732815643
0
LINE
5
508
100
AcDbEntity
8
0
100
AcDbLine
62
7
6
CONTINUOUS
10
324.9551621709
20
42.2732815643
11
322.9551621709
21
42.2732815643
0
LINE
5
509
100
AcDbEntity
8
0
100
AcDbLine
62
7
6
CONTINUOUS
10
318.9551621709
20
42.2732815643
11
316.9551621709
21
42.2732815643
0
LINE
5
50A
100
AcDbEntity
8
0
100
AcDbLine
62
7
6
CONTINUOUS
10
307.9551621709
20
42.2732815643
11
305.9551621709
21
42.2732815643
0
LINE
5
50B
100
AcDbEntity
8
0
100
AcDbLine
62
7
6
CONTINUOUS
10
301.9551621709
20
42.2732815643
11
299.9551621709
21
42.2732815643
0
LINE
5
50C
100
AcDbEntity
8
0
100
AcDbLine
62
7
6
CONTINUOUS
10
290.9551621709
20
42.2732815643
11
288.9551621709
21
42.2732815643
0
LINE
5
50D
100
AcDbEntity
8
0
100
AcDbLine
62
7
6
CONTINUOUS
10
284.9551621709
20
42.2732815643
11
282.9551621709
21
42.2732815643
0
LINE
5
50E
100
AcDbEntity
8
0
100
AcDbLine
62
7
6
CONTINUOUS
10
273.9551621709
20
42.2732815643
11
271.9551621709
21
42.2732815643
0
LINE
5
50F
100
AcDbEntity
8
0
100
AcDbLine
62
7
6
CONTINUOUS
10
267.9551621709
20
42.2732815643
11
265.9551621709
21
42.2732815643
0
LINE
5
510
100
AcDbEntity
8
0
100
AcDbLine
62
7
6
CONTINUOUS
10
256.9551621709
20
42.2732815643
11
254.9551621709
21
42.2732815643
0
LINE
5
511
100
AcDbEntity
8
0
100
AcDbLine
62
7
6
CONTINUOUS
10
250.9551621709
20
42.2732815643
11
248.9551621709
21
42.2732815643
0
LINE
5
512
100
AcDbEntity
8
0
100
AcDbLine
62
7
6
CONTINUOUS
10
239.9551621709
20
42.2732815643
11
237.9551621709
21
42.2732815643
0
LINE
5
513
100
AcDbEntity
8
0
100
AcDbLine
62
7
6
CONTINUOUS
10
233.9551621709
20
42.2732815643
11
231.9551621709
21
42.2732815643
0
LINE
5
514
100
AcDbEntity
8
0
100
AcDbLine
62
7
6
CONTINUOUS
10
213.9551621709
20
42.2732815643
11
211.9551621709
21
42.2732815643
0
LINE
5
515
100
AcDbEntity
8
0
100
AcDbLine
62
7
6
CONTINUOUS
10
207.9551621709
20
42.2732815643
11
205.9551621709
21
42.2732815643
0
LINE
5
516
100
AcDbEntity
8
0
100
AcDbLine
62
7
6
CONTINUOUS
10
196.9551621709
20
42.2732815643
11
194.9551621709
21
42.2732815643
0
LINE
5
517
100
AcDbEntity
8
0
100
AcDbLine
62
7
6
CONTINUOUS
10
190.9551621709
20
42.2732815643
11
188.9551621709
21
42.2732815643
0
LINE
5
518
100
AcDbEntity
8
0
100
AcDbLine
62
7
6
CONTINUOUS
10
179.9551621709
20
42.2732815643
11
177.9551621709
21
42.2732815643
0
LINE
5
519
100
AcDbEntity
8
0
100
AcDbLine
62
7
6
CONTINUOUS
10
173.9551621709
20
42.2732815643
11
171.9551621709
21
42.2732815643
0
LINE
5
51A
100
AcDbEntity
8
0
100
AcDbLine
62
7
6
CONTINUOUS
10
162.9551621709
20
42.2732815643
11
160.9551621709
21
42.2732815643
0
LINE
5
51B
100
AcDbEntity
8
0
100
AcDbLine
62
7
6
CONTINUOUS
10
156.9551621709
20
42.2732815643
11
154.9551621709
21
42.2732815643
0
LINE
5
51C
100
AcDbEntity
8
0
100
AcDbLine
62
7
6
CONTINUOUS
10
145.9551621709
20
42.2732815643
11
143.9551621709
21
42.2732815643
0
LINE
5
51D
100
AcDbEntity
8
0
100
AcDbLine
62
7
6
CONTINUOUS
10
139.9551621709
20
42.2732815643
11
137.9551621709
21
42.2732815643
0
LINE
5
51E
100
AcDbEntity
8
0
100
AcDbLine
62
7
6
CONTINUOUS
10
128.9551621709
20
42.2732815643
11
126.9551621709
21
42.2732815643
0
LINE
5
51F
100
AcDbEntity
8
0
100
AcDbLine
62
7
6
CONTINUOUS
10
122.9551621709
20
42.2732815643
11
120.9551621709
21
42.2732815643
0
LINE
5
520
100
AcDbEntity
8
0
100
AcDbLine
62
7
6
CONTINUOUS
10
111.9551621709
20
42.2732815643
11
109.9551621709
21
42.2732815643
0
LINE
5
521
100
AcDbEntity
8
0
100
AcDbLine
62
7
6
CONTINUOUS
10
105.9551621709
20
42.2732815643
11
103.9551621709
21
42.2732815643
0
LINE
5
522
100
AcDbEntity
8
0
100
AcDbLine
62
7
6
CONTINUOUS
10
94.9551621709
20
42.2732815643
11
92.9551621709
21
42.2732815643
0
LINE
5
523
100
AcDbEntity
8
0
100
AcDbLine
62
7
6
CONTINUOUS
10
88.9551621709
20
42.2732815643
11
86.9551621709
21
42.2732815643
0
LINE
5
524
100
AcDbEntity
8
0
100
AcDbLine
62
7
6
CONTINUOUS
10
-55.0448378291
20
42.2732815643
11
-53.0448378291
21
42.2732815643
0
LINE
5
525
100
AcDbEntity
8
0
100
AcDbLine
62
7
6
CONTINUOUS
10
-49.0448378291
20
42.2732815643
11
-47.0448378291
21
42.2732815643
0
LINE
5
526
100
AcDbEntity
8
0
100
AcDbLine
62
7
6
CONTINUOUS
10
-38.0448378291
20
42.2732815643
11
-36.0448378291
21
42.2732815643
0
LINE
5
527
100
AcDbEntity
8
0
100
AcDbLine
62
7
6
CONTINUOUS
10
-32.0448378291
20
42.2732815643
11
-30.0448378291
21
42.2732815643
0
LINE
5
528
100
AcDbEntity
8
0
100
AcDbLine
62
7
6
CONTINUOUS
10
-21.0448378291
20
42.2732815643
11
-19.0448378291
21
42.2732815643
0
LINE
5
529
100
AcDbEntity
8
0
100
AcDbLine
62
7
6
CONTINUOUS
10
-15.0448378291
20
42.2732815643
11
-13.0448378291
21
42.2732815643
0
LINE
5
52A
100
AcDbEntity
8
0
100
AcDbLine
62
7
6
CONTINUOUS
10
-4.0448378291
20
42.2732815643
11
-2.0448378291
21
42.2732815643
0
LINE
5
52B
100
AcDbEntity
8
0
100
AcDbLine
62
7
6
CONTINUOUS
10
1.9551621709
20
42.2732815643
11
3.9551621709
21
42.2732815643
0
LINE
5
52C
100
AcDbEntity
8
0
100
AcDbLine
62
7
6
CONTINUOUS
10
12.9551621709
20
42.2732815643
11
14.9551621709
21
42.2732815643
0
LINE
5
52D
100
AcDbEntity
8
0
100
AcDbLine
62
7
6
CONTINUOUS
10
18.9551621709
20
42.2732815643
11
20.9551621709
21
42.2732815643
0
LINE
5
52E
100
AcDbEntity
8
0
100
AcDbLine
62
7
6
CONTINUOUS
10
29.9551621709
20
42.2732815643
11
31.9551621709
21
42.2732815643
0
LINE
5
52F
100
AcDbEntity
8
0
100
AcDbLine
62
7
6
CONTINUOUS
10
35.9551621709
20
42.2732815643
11
37.9551621709
21
42.2732815643
0
LINE
5
530
100
AcDbEntity
8
0
100
AcDbLine
62
7
6
CONTINUOUS
10
46.9551621709
20
42.2732815643
11
48.9551621709
21
42.2732815643
0
LINE
5
531
100
AcDbEntity
8
0
100
AcDbLine
62
7
6
CONTINUOUS
10
52.9551621709
20
42.2732815643
11
54.9551621709
21
42.2732815643
0
LINE
5
532
100
AcDbEntity
8
0
100
AcDbLine
62
7
6
CONTINUOUS
10
63.9551621709
20
42.2732815643
11
65.9551621709
21
42.2732815643
0
LINE
5
533
100
AcDbEntity
8
0
100
AcDbLine
62
7
6
CONTINUOUS
10
69.9551621709
20
42.2732815643
11
71.9551621709
21
42.2732815643
0
LINE
5
534
100
AcDbEntity
8
0
100
AcDbLine
62
7
6
CONTINUOUS
10
73.4551621709
20
45.7732815643
11
69.9551621709
21
45.7732815643
0
LINE
5
535
100
AcDbEntity
8
0
100
AcDbLine
62
7
6
CONTINUOUS
10
65.9551621709
20
45.7732815643
11
62.4551621709
21
45.7732815643
0
LINE
5
536
100
AcDbEntity
8
0
100
AcDbLine
62
7
6
CONTINUOUS
10
56.4551621709
20
45.7732815643
11
52.9551621709
21
45.7732815643
0
LINE
5
537
100
AcDbEntity
8
0
100
AcDbLine
62
7
6
CONTINUOUS
10
48.9551621709
20
45.7732815643
11
45.4551621709
21
45.7732815643
0
LINE
5
538
100
AcDbEntity
8
0
100
AcDbLine
62
7
6
CONTINUOUS
10
39.4551621709
20
45.7732815643
11
35.9551621709
21
45.7732815643
0
LINE
5
539
100
AcDbEntity
8
0
100
AcDbLine
62
7
6
CONTINUOUS
10
31.9551621709
20
45.7732815643
11
28.4551621709
21
45.7732815643
0
LINE
5
53A
100
AcDbEntity
8
0
100
AcDbLine
62
7
6
CONTINUOUS
10
22.4551621709
20
45.7732815643
11
18.9551621709
21
45.7732815643
0
LINE
5
53B
100
AcDbEntity
8
0
100
AcDbLine
62
7
6
CONTINUOUS
10
14.9551621709
20
45.7732815643
11
11.4551621709
21
45.7732815643
0
LINE
5
53C
100
AcDbEntity
8
0
100
AcDbLine
62
7
6
CONTINUOUS
10
5.4551621709
20
45.7732815643
11
1.9551621709
21
45.7732815643
0
LINE
5
53D
100
AcDbEntity
8
0
100
AcDbLine
62
7
6
CONTINUOUS
10
-2.0448378291
20
45.7732815643
11
-5.5448378291
21
45.7732815643
0
LINE
5
53E
100
AcDbEntity
8
0
100
AcDbLine
62
7
6
CONTINUOUS
10
-11.5448378291
20
45.7732815643
11
-15.0448378291
21
45.7732815643
0
LINE
5
53F
100
AcDbEntity
8
0
100
AcDbLine
62
7
6
CONTINUOUS
10
-19.0448378291
20
45.7732815643
11
-22.5448378291
21
45.7732815643
0
LINE
5
540
100
AcDbEntity
8
0
100
AcDbLine
62
7
6
CONTINUOUS
10
-28.5448378291
20
45.7732815643
11
-32.0448378291
21
45.7732815643
0
LINE
5
541
100
AcDbEntity
8
0
100
AcDbLine
62
7
6
CONTINUOUS
10
-36.0448378291
20
45.7732815643
11
-39.5448378291
21
45.7732815643
0
LINE
5
542
100
AcDbEntity
8
0
100
AcDbLine
62
7
6
CONTINUOUS
10
-45.5448378291
20
45.7732815643
11
-49.0448378291
21
45.7732815643
0
LINE
5
543
100
AcDbEntity
8
0
100
AcDbLine
62
7
6
CONTINUOUS
10
-53.0448378291
20
45.7732815643
11
-56.5448378291
21
45.7732815643
0
LINE
5
544
100
AcDbEntity
8
0
100
AcDbLine
62
7
6
CONTINUOUS
10
85.4551621709
20
45.7732815643
11
88.9551621709
21
45.7732815643
0
LINE
5
545
100
AcDbEntity
8
0
100
AcDbLine
62
7
6
CONTINUOUS
10
92.9551621709
20
45.7732815643
11
96.4551621709
21
45.7732815643
0
LINE
5
546
100
AcDbEntity
8
0
100
AcDbLine
62
7
6
CONTINUOUS
10
102.4551621709
20
45.7732815643
11
105.9551621709
21
45.7732815643
0
LINE
5
547
100
AcDbEntity
8
0
100
AcDbLine
62
7
6
CONTINUOUS
10
109.9551621709
20
45.7732815643
11
113.4551621709
21
45.7732815643
0
LINE
5
548
100
AcDbEntity
8
0
100
AcDbLine
62
7
6
CONTINUOUS
10
119.4551621709
20
45.7732815643
11
122.9551621709
21
45.7732815643
0
LINE
5
549
100
AcDbEntity
8
0
100
AcDbLine
62
7
6
CONTINUOUS
10
126.9551621709
20
45.7732815643
11
130.4551621709
21
45.7732815643
0
LINE
5
54A
100
AcDbEntity
8
0
100
AcDbLine
62
7
6
CONTINUOUS
10
136.4551621709
20
45.7732815643
11
139.9551621709
21
45.7732815643
0
LINE
5
54B
100
AcDbEntity
8
0
100
AcDbLine
62
7
6
CONTINUOUS
10
143.9551621709
20
45.7732815643
11
147.4551621709
21
45.7732815643
0
LINE
5
54C
100
AcDbEntity
8
0
100
AcDbLine
62
7
6
CONTINUOUS
10
153.4551621709
20
45.7732815643
11
156.9551621709
21
45.7732815643
0
LINE
5
54D
100
AcDbEntity
8
0
100
AcDbLine
62
7
6
CONTINUOUS
10
160.9551621709
20
45.7732815643
11
164.4551621709
21
45.7732815643
0
LINE
5
54E
100
AcDbEntity
8
0
100
AcDbLine
62
7
6
CONTINUOUS
10
170.4551621709
20
45.7732815643
11
173.9551621709
21
45.7732815643
0
LINE
5
54F
100
AcDbEntity
8
0
100
AcDbLine
62
7
6
CONTINUOUS
10
177.9551621709
20
45.7732815643
11
181.4551621709
21
45.7732815643
0
LINE
5
550
100
AcDbEntity
8
0
100
AcDbLine
62
7
6
CONTINUOUS
10
187.4551621709
20
45.7732815643
11
190.9551621709
21
45.7732815643
0
LINE
5
551
100
AcDbEntity
8
0
100
AcDbLine
62
7
6
CONTINUOUS
10
194.9551621709
20
45.7732815643
11
198.4551621709
21
45.7732815643
0
LINE
5
552
100
AcDbEntity
8
0
100
AcDbLine
62
7
6
CONTINUOUS
10
204.4551621709
20
45.7732815643
11
207.9551621709
21
45.7732815643
0
LINE
5
553
100
AcDbEntity
8
0
100
AcDbLine
62
7
6
CONTINUOUS
10
211.9551621709
20
45.7732815643
11
215.4551621709
21
45.7732815643
0
LINE
5
554
100
AcDbEntity
8
0
100
AcDbLine
62
7
6
CONTINUOUS
10
230.4551621709
20
45.7732815643
11
233.9551621709
21
45.7732815643
0
LINE
5
555
100
AcDbEntity
8
0
100
AcDbLine
62
7
6
CONTINUOUS
10
237.9551621709
20
45.7732815643
11
241.4551621709
21
45.7732815643
0
LINE
5
556
100
AcDbEntity
8
0
100
AcDbLine
62
7
6
CONTINUOUS
10
247.4551621709
20
45.7732815643
11
250.9551621709
21
45.7732815643
0
LINE
5
557
100
AcDbEntity
8
0
100
AcDbLine
62
7
6
CONTINUOUS
10
254.9551621709
20
45.7732815643
11
258.4551621709
21
45.7732815643
0
LINE
5
558
100
AcDbEntity
8
0
100
AcDbLine
62
7
6
CONTINUOUS
10
264.4551621709
20
45.7732815643
11
267.9551621709
21
45.7732815643
0
LINE
5
559
100
AcDbEntity
8
0
100
AcDbLine
62
7
6
CONTINUOUS
10
271.9551621709
20
45.7732815643
11
275.4551621709
21
45.7732815643
0
LINE
5
55A
100
AcDbEntity
8
0
100
AcDbLine
62
7
6
CONTINUOUS
10
281.4551621709
20
45.7732815643
11
284.9551621709
21
45.7732815643
0
LINE
5
55B
100
AcDbEntity
8
0
100
AcDbLine
62
7
6
CONTINUOUS
10
288.9551621709
20
45.7732815643
11
292.4551621709
21
45.7732815643
0
LINE
5
55C
100
AcDbEntity
8
0
100
AcDbLine
62
7
6
CONTINUOUS
10
298.4551621709
20
45.7732815643
11
301.9551621709
21
45.7732815643
0
LINE
5
55D
100
AcDbEntity
8
0
100
AcDbLine
62
7
6
CONTINUOUS
10
305.9551621709
20
45.7732815643
11
309.4551621709
21
45.7732815643
0
LINE
5
55E
100
AcDbEntity
8
0
100
AcDbLine
62
7
6
CONTINUOUS
10
315.4551621709
20
45.7732815643
11
318.9551621709
21
45.7732815643
0
LINE
5
55F
100
AcDbEntity
8
0
100
AcDbLine
62
7
6
CONTINUOUS
10
322.9551621709
20
45.7732815643
11
326.4551621709
21
45.7732815643
0
LINE
5
560
100
AcDbEntity
8
0
100
AcDbLine
62
7
6
CONTINUOUS
10
332.4551621709
20
45.7732815643
11
335.9551621709
21
45.7732815643
0
LINE
5
561
100
AcDbEntity
8
0
100
AcDbLine
62
7
6
CONTINUOUS
10
339.9551621709
20
45.7732815643
11
343.4551621709
21
45.7732815643
0
LINE
5
562
100
AcDbEntity
8
0
100
AcDbLine
62
7
6
CONTINUOUS
10
349.4551621709
20
45.7732815643
11
352.9551621709
21
45.7732815643
0
LINE
5
563
100
AcDbEntity
8
0
100
AcDbLine
62
7
6
CONTINUOUS
10
356.9551621709
20
45.7732815643
11
360.4551621709
21
45.7732815643
0
LINE
5
564
100
AcDbEntity
8
0
100
AcDbLine
62
7
6
CONTINUOUS
10
-50.5448378291
20
51.2732815643
11
-23.0448378291
21
51.2732815643
0
LINE
5
565
100
AcDbEntity
8
0
100
AcDbLine
62
7
6
CONTINUOUS
10
326.9551621709
20
51.2732815643
11
354.4551621709
21
51.2732815643
0
LINE
5
566
100
AcDbEntity
8
0
100
AcDbLine
62
7
6
CONTINUOUS
10
241.4551621709
20
-56.7267184357
11
241.6551621709
21
-57.0731285973
0
LINE
5
567
100
AcDbEntity
8
0
100
AcDbLine
62
7
6
CONTINUOUS
10
245.1551621709
20
-56.7267184357
11
245.3551621709
21
-57.0731285973
0
LINE
5
568
100
AcDbEntity
8
0
100
AcDbLine
62
7
6
CONTINUOUS
10
248.8551621709
20
-56.7267184357
11
249.0551621709
21
-57.0731285973
0
LINE
5
569
100
AcDbEntity
8
0
100
AcDbLine
62
7
6
CONTINUOUS
10
221.6051621709
20
-56.7267184357
11
221.6051621709
21
-65.7267184357
0
LINE
5
56A
100
AcDbEntity
8
0
100
AcDbLine
62
7
6
CONTINUOUS
10
221.9551621709
20
-73.7267184357
11
221.9551621709
21
-71.9767184357
0
LINE
5
56B
100
AcDbEntity
8
0
100
AcDbLine
62
7
6
CONTINUOUS
10
222.3051621709
20
-56.7267184357
11
222.3051621709
21
-65.7267184357
0
LINE
5
56C
100
AcDbEntity
8
0
100
AcDbLine
62
7
6
CONTINUOUS
10
222.4551621709
20
-73.7267184357
11
222.4551621709
21
-71.9767184357
0
LINE
5
56D
100
AcDbEntity
8
0
100
AcDbLine
62
7
6
CONTINUOUS
10
223.1551621709
20
-62.5267184357
11
223.1551621709
21
-56.7267184357
0
LINE
5
56E
100
AcDbEntity
8
0
100
AcDbLine
62
7
6
CONTINUOUS
10
224.8551621709
20
-62.5267184357
11
224.8551621709
21
-56.7267184357
0
LINE
5
56F
100
AcDbEntity
8
0
100
AcDbLine
62
7
6
CONTINUOUS
10
226.8551621709
20
-62.5267184357
11
226.8551621709
21
-56.7267184357
0
LINE
5
570
100
AcDbEntity
8
0
100
AcDbLine
62
7
6
CONTINUOUS
10
228.5551621709
20
-62.5267184357
11
228.5551621709
21
-56.7267184357
0
LINE
5
571
100
AcDbEntity
8
0
100
AcDbLine
62
7
6
CONTINUOUS
10
229.4551621709
20
36.7732815643
11
229.4551621709
21
44.7732815643
0
LINE
5
572
100
AcDbEntity
8
0
100
AcDbLine
62
7
6
CONTINUOUS
10
230.5551621709
20
-62.5267184357
11
230.5551621709
21
-56.7267184357
0
LINE
5
573
100
AcDbEntity
8
0
100
AcDbLine
62
7
6
CONTINUOUS
10
231.9551621709
20
42.2732815643
11
231.9551621709
21
40.2732815643
0
LINE
5
574
100
AcDbEntity
8
0
100
AcDbLine
62
7
6
CONTINUOUS
10
232.2551621709
20
-62.5267184357
11
232.2551621709
21
-56.7267184357
0
LINE
5
575
100
AcDbEntity
8
0
100
AcDbLine
62
7
6
CONTINUOUS
10
233.9551621709
20
45.7732815643
11
233.9551621709
21
42.2732815643
0
LINE
5
576
100
AcDbEntity
8
0
100
AcDbLine
62
7
6
CONTINUOUS
10
234.2551621709
20
-62.5267184357
11
234.2551621709
21
-56.7267184357
0
LINE
5
577
100
AcDbEntity
8
0
100
AcDbLine
62
7
6
CONTINUOUS
10
235.9551621709
20
-62.5267184357
11
235.9551621709
21
-56.7267184357
0
LINE
5
578
100
AcDbEntity
8
0
100
AcDbLine
62
7
6
CONTINUOUS
10
237.4551621709
20
-73.7267184357
11
237.4551621709
21
-71.9767184357
0
LINE
5
579
100
AcDbEntity
8
0
100
AcDbLine
62
7
6
CONTINUOUS
10
237.9551621709
20
-73.7267184357
11
237.9551621709
21
-71.9767184357
0
LINE
5
57A
100
AcDbEntity
8
0
100
AcDbLine
62
7
6
CONTINUOUS
10
237.9551621709
20
-62.5267184357
11
237.9551621709
21
-56.7267184357
0
LINE
5
57B
100
AcDbEntity
8
0
100
AcDbLine
62
7
6
CONTINUOUS
10
237.9551621709
20
42.2732815643
11
237.9551621709
21
45.7732815643
0
LINE
5
57C
100
AcDbEntity
8
0
100
AcDbLine
62
7
6
CONTINUOUS
10
354.4551621709
20
62.5232815643
11
326.9551621709
21
62.5232815643
0
LINE
5
57D
100
AcDbEntity
8
0
100
AcDbLine
62
7
6
CONTINUOUS
10
-23.0448378291
20
62.5232815643
11
-50.5448378291
21
62.5232815643
0
LINE
5
57E
100
AcDbEntity
8
0
100
AcDbLine
62
9
6
CONTINUOUS
10
366.9551621709
20
62.8732815643
11
-63.0448378291
21
62.8732815643
0
LINE
5
57F
100
AcDbEntity
8
0
100
AcDbLine
62
7
6
CONTINUOUS
10
-68.0448378291
20
64.2732815643
11
-63.0448378291
21
64.2732815643
0
LINE
5
580
100
AcDbEntity
8
0
100
AcDbLine
62
7
6
CONTINUOUS
10
366.9551621709
20
64.2732815643
11
371.9551621709
21
64.2732815643
0
LINE
5
581
100
AcDbEntity
8
0
100
AcDbLine
62
7
6
CONTINUOUS
10
366.9551621709
20
65.8732815643
11
-63.0448378291
21
65.8732815643
0
LINE
5
582
100
AcDbEntity
8
0
100
AcDbLine
62
7
6
CONTINUOUS
10
271.9551621709
20
-56.7267184357
11
272.1551621709
21
-57.0731285973
0
LINE
5
583
100
AcDbEntity
8
0
100
AcDbLine
62
7
6
CONTINUOUS
10
275.6551621709
20
-56.7267184357
11
275.8551621709
21
-57.0731285973
0
LINE
5
584
100
AcDbEntity
8
0
100
AcDbLine
62
7
6
CONTINUOUS
10
239.6551621709
20
-62.5267184357
11
239.6551621709
21
-56.7267184357
0
LINE
5
585
100
AcDbEntity
8
0
100
AcDbLine
62
7
6
CONTINUOUS
10
239.9551621709
20
40.2732815643
11
239.9551621709
21
42.2732815643
0
LINE
5
586
100
AcDbEntity
8
0
100
AcDbLine
62
7
6
CONTINUOUS
10
241.6551621709
20
-62.5267184357
11
241.6551621709
21
-56.7267184357
0
LINE
5
587
100
AcDbEntity
8
0
100
AcDbLine
62
7
6
CONTINUOUS
10
242.4551621709
20
44.7732815643
11
242.4551621709
21
36.7732815643
0
LINE
5
588
100
AcDbEntity
8
0
100
AcDbLine
62
7
6
CONTINUOUS
10
243.3551621709
20
-62.5267184357
11
243.3551621709
21
-56.7267184357
0
LINE
5
589
100
AcDbEntity
8
0
100
AcDbLine
62
7
6
CONTINUOUS
10
245.3551621709
20
-62.5267184357
11
245.3551621709
21
-56.7267184357
0
LINE
5
58A
100
AcDbEntity
8
0
100
AcDbLine
62
7
6
CONTINUOUS
10
246.4551621709
20
36.7732815643
11
246.4551621709
21
44.7732815643
0
LINE
5
58B
100
AcDbEntity
8
0
100
AcDbLine
62
7
6
CONTINUOUS
10
247.0551621709
20
-62.5267184357
11
247.0551621709
21
-56.7267184357
0
LINE
5
58C
100
AcDbEntity
8
0
100
AcDbLine
62
7
6
CONTINUOUS
10
248.9551621709
20
42.2732815643
11
248.9551621709
21
40.2732815643
0
LINE
5
58D
100
AcDbEntity
8
0
100
AcDbLine
62
7
6
CONTINUOUS
10
249.0551621709
20
-62.5267184357
11
249.0551621709
21
-56.7267184357
0
LINE
5
58E
100
AcDbEntity
8
0
100
AcDbLine
62
7
6
CONTINUOUS
10
250.7551621709
20
-62.5267184357
11
250.7551621709
21
-56.7267184357
0
LINE
5
58F
100
AcDbEntity
8
0
100
AcDbLine
62
7
6
CONTINUOUS
10
250.9551621709
20
45.7732815643
11
250.9551621709
21
42.2732815643
0
LINE
5
590
100
AcDbEntity
8
0
100
AcDbLine
62
7
6
CONTINUOUS
10
251.6051621709
20
-56.7267184357
11
251.6051621709
21
-65.7267184357
0
LINE
5
591
100
AcDbEntity
8
0
100
AcDbLine
62
7
6
CONTINUOUS
10
252.1051621709
20
-65.7267184357
11
252.1051621709
21
-63.2267184357
0
LINE
5
592
100
AcDbEntity
8
0
100
AcDbLine
62
7
6
CONTINUOUS
10
252.9551621709
20
-73.7267184357
11
252.9551621709
21
-71.9767184357
0
LINE
5
593
100
AcDbEntity
8
0
100
AcDbLine
62
7
6
CONTINUOUS
10
254.9551621709
20
42.2732815643
11
254.9551621709
21
45.7732815643
0
LINE
5
594
100
AcDbEntity
8
0
100
AcDbLine
62
7
6
CONTINUOUS
10
279.3551621709
20
-56.7267184357
11
279.5551621709
21
-57.0731285973
0
LINE
5
595
100
AcDbEntity
8
0
100
AcDbLine
62
7
6
CONTINUOUS
10
283.0551621709
20
-56.7267184357
11
283.2551621709
21
-57.0731285973
0
LINE
5
596
100
AcDbEntity
8
0
100
AcDbLine
62
7
6
CONTINUOUS
10
286.7551621709
20
-56.7267184357
11
286.9551621709
21
-57.0731285973
0
LINE
5
597
100
AcDbEntity
8
0
100
AcDbLine
62
7
6
CONTINUOUS
10
290.4551621709
20
-56.7267184357
11
290.6551621709
21
-57.0731285973
0
LINE
5
598
100
AcDbEntity
8
0
100
AcDbLine
62
7
6
CONTINUOUS
10
294.1551621709
20
-56.7267184357
11
294.3551621709
21
-57.0731285973
0
LINE
5
599
100
AcDbEntity
8
0
100
AcDbLine
62
7
6
CONTINUOUS
10
256.9551621709
20
40.2732815643
11
256.9551621709
21
42.2732815643
0
LINE
5
59A
100
AcDbEntity
8
0
100
AcDbLine
62
7
6
CONTINUOUS
10
259.4551621709
20
-71.9767184357
11
259.4551621709
21
-63.2267184357
0
LINE
5
59B
100
AcDbEntity
8
0
100
AcDbLine
62
7
6
CONTINUOUS
10
259.4551621709
20
44.7732815643
11
259.4551621709
21
36.7732815643
0
LINE
5
59C
100
AcDbEntity
8
0
100
AcDbLine
62
7
6
CONTINUOUS
10
259.4551621709
20
-87.2267184357
11
259.4551621709
21
-88.2833427628
0
LINE
5
59D
100
AcDbEntity
8
0
100
AcDbLine
62
7
6
CONTINUOUS
10
260.4551621709
20
-87.2267184357
11
260.4551621709
21
-88.2833427628
0
LINE
5
59E
100
AcDbEntity
8
0
100
AcDbLine
62
7
6
CONTINUOUS
10
263.4551621709
20
-71.9767184357
11
263.4551621709
21
-63.2267184357
0
LINE
5
59F
100
AcDbEntity
8
0
100
AcDbLine
62
7
6
CONTINUOUS
10
263.4551621709
20
36.7732815643
11
263.4551621709
21
44.7732815643
0
LINE
5
5A0
100
AcDbEntity
8
0
100
AcDbLine
62
7
6
CONTINUOUS
10
265.9551621709
20
42.2732815643
11
265.9551621709
21
40.2732815643
0
LINE
5
5A1
100
AcDbEntity
8
0
100
AcDbLine
62
7
6
CONTINUOUS
10
266.9551621709
20
-73.7267184357
11
266.9551621709
21
-71.9767184357
0
LINE
5
5A2
100
AcDbEntity
8
0
100
AcDbLine
62
7
6
CONTINUOUS
10
267.9551621709
20
45.7732815643
11
267.9551621709
21
42.2732815643
0
LINE
5
5A3
100
AcDbEntity
8
0
100
AcDbLine
62
7
6
CONTINUOUS
10
270.8051621709
20
-65.7267184357
11
270.8051621709
21
-63.2267184357
0
LINE
5
5A4
100
AcDbEntity
8
0
100
AcDbLine
62
7
6
CONTINUOUS
10
271.3051621709
20
-56.7267184357
11
271.3051621709
21
-65.7267184357
0
LINE
5
5A5
100
AcDbEntity
8
0
100
AcDbLine
62
7
6
CONTINUOUS
10
259.4551621709
20
-88.2833427628
11
256.9551621709
21
-89.7267184357
0
LINE
5
5A6
100
AcDbEntity
8
0
100
AcDbLine
62
7
6
CONTINUOUS
10
297.8551621709
20
-56.7267184357
11
298.0551621709
21
-57.0731285973
0
LINE
5
5A7
100
AcDbEntity
8
0
100
AcDbLine
62
7
6
CONTINUOUS
10
301.9551621709
20
-56.7267184357
11
302.1551621709
21
-57.0731285973
0
LINE
5
5A8
100
AcDbEntity
8
0
100
AcDbLine
62
7
6
CONTINUOUS
10
305.6551621709
20
-56.7267184357
11
305.8551621709
21
-57.0731285973
0
LINE
5
5A9
100
AcDbEntity
8
0
100
AcDbLine
62
7
6
CONTINUOUS
10
309.3551621709
20
-56.7267184357
11
309.5551621709
21
-57.0731285973
0
LINE
5
5AA
100
AcDbEntity
8
0
100
AcDbLine
62
7
6
CONTINUOUS
10
313.0551621709
20
-56.7267184357
11
313.2551621709
21
-57.0731285973
0
LINE
5
5AB
100
AcDbEntity
8
0
100
AcDbLine
62
7
6
CONTINUOUS
10
271.9551621709
20
42.2732815643
11
271.9551621709
21
45.7732815643
0
LINE
5
5AC
100
AcDbEntity
8
0
100
AcDbLine
62
7
6
CONTINUOUS
10
272.1551621709
20
-62.5267184357
11
272.1551621709
21
-56.7267184357
0
LINE
5
5AD
100
AcDbEntity
8
0
100
AcDbLine
62
7
6
CONTINUOUS
10
273.8551621709
20
-62.5267184357
11
273.8551621709
21
-56.7267184357
0
LINE
5
5AE
100
AcDbEntity
8
0
100
AcDbLine
62
7
6
CONTINUOUS
10
273.9551621709
20
40.2732815643
11
273.9551621709
21
42.2732815643
0
LINE
5
5AF
100
AcDbEntity
8
0
100
AcDbLine
62
7
6
CONTINUOUS
10
275.8551621709
20
-62.5267184357
11
275.8551621709
21
-56.7267184357
0
LINE
5
5B0
100
AcDbEntity
8
0
100
AcDbLine
62
7
6
CONTINUOUS
10
276.4551621709
20
44.7732815643
11
276.4551621709
21
36.7732815643
0
LINE
5
5B1
100
AcDbEntity
8
0
100
AcDbLine
62
7
6
CONTINUOUS
10
277.5551621709
20
-62.5267184357
11
277.5551621709
21
-56.7267184357
0
LINE
5
5B2
100
AcDbEntity
8
0
100
AcDbLine
62
7
6
CONTINUOUS
10
279.5551621709
20
-62.5267184357
11
279.5551621709
21
-56.7267184357
0
LINE
5
5B3
100
AcDbEntity
8
0
100
AcDbLine
62
7
6
CONTINUOUS
10
280.4551621709
20
36.7732815643
11
280.4551621709
21
44.7732815643
0
LINE
5
5B4
100
AcDbEntity
8
0
100
AcDbLine
62
7
6
CONTINUOUS
10
281.2551621709
20
-62.5267184357
11
281.2551621709
21
-56.7267184357
0
LINE
5
5B5
100
AcDbEntity
8
0
100
AcDbLine
62
7
6
CONTINUOUS
10
281.9551621709
20
-73.7267184357
11
281.9551621709
21
-71.9767184357
0
LINE
5
5B6
100
AcDbEntity
8
0
100
AcDbLine
62
7
6
CONTINUOUS
10
282.4551621709
20
-73.7267184357
11
282.4551621709
21
-71.9767184357
0
LINE
5
5B7
100
AcDbEntity
8
0
100
AcDbLine
62
7
6
CONTINUOUS
10
282.9551621709
20
42.2732815643
11
282.9551621709
21
40.2732815643
0
LINE
5
5B8
100
AcDbEntity
8
0
100
AcDbLine
62
7
6
CONTINUOUS
10
283.2551621709
20
-62.5267184357
11
283.2551621709
21
-56.7267184357
0
LINE
5
5B9
100
AcDbEntity
8
0
100
AcDbLine
62
7
6
CONTINUOUS
10
284.9551621709
20
-62.5267184357
11
284.9551621709
21
-56.7267184357
0
LINE
5
5BA
100
AcDbEntity
8
0
100
AcDbLine
62
7
6
CONTINUOUS
10
284.9551621709
20
45.7732815643
11
284.9551621709
21
42.2732815643
0
LINE
5
5BB
100
AcDbEntity
8
0
100
AcDbLine
62
7
6
CONTINUOUS
10
286.9551621709
20
-62.5267184357
11
286.9551621709
21
-56.7267184357
0
LINE
5
5BC
100
AcDbEntity
8
0
100
AcDbLine
62
7
6
CONTINUOUS
10
288.6551621709
20
-62.5267184357
11
288.6551621709
21
-56.7267184357
0
LINE
5
5BD
100
AcDbEntity
8
0
100
AcDbLine
62
7
6
CONTINUOUS
10
316.7551621709
20
-56.7267184357
11
316.9551621709
21
-57.0731285973
0
LINE
5
5BE
100
AcDbEntity
8
0
100
AcDbLine
62
7
6
CONTINUOUS
10
320.4551621709
20
-56.7267184357
11
320.6551621709
21
-57.0731285973
0
LINE
5
5BF
100
AcDbEntity
8
0
100
AcDbLine
62
7
6
CONTINUOUS
10
324.1551621709
20
-56.7267184357
11
324.3551621709
21
-57.0731285973
0
LINE
5
5C0
100
AcDbEntity
8
0
100
AcDbLine
62
7
6
CONTINUOUS
10
327.8551621709
20
-56.7267184357
11
328.0551621709
21
-57.0731285973
0
LINE
5
5C1
100
AcDbEntity
8
0
100
AcDbLine
62
7
6
CONTINUOUS
10
331.9551621709
20
-56.7267184357
11
332.1551621709
21
-57.0731285973
0
LINE
5
5C2
100
AcDbEntity
8
0
100
AcDbLine
62
7
6
CONTINUOUS
10
335.6551621709
20
-56.7267184357
11
335.8551621709
21
-57.0731285973
0
LINE
5
5C3
100
AcDbEntity
8
0
100
AcDbLine
62
7
6
CONTINUOUS
10
288.9551621709
20
42.2732815643
11
288.9551621709
21
45.7732815643
0
LINE
5
5C4
100
AcDbEntity
8
0
100
AcDbLine
62
7
6
CONTINUOUS
10
290.6551621709
20
-62.5267184357
11
290.6551621709
21
-56.7267184357
0
LINE
5
5C5
100
AcDbEntity
8
0
100
AcDbLine
62
7
6
CONTINUOUS
10
290.9551621709
20
40.2732815643
11
290.9551621709
21
42.2732815643
0
LINE
5
5C6
100
AcDbEntity
8
0
100
AcDbLine
62
7
6
CONTINUOUS
10
292.3551621709
20
-62.5267184357
11
292.3551621709
21
-56.7267184357
0
LINE
5
5C7
100
AcDbEntity
8
0
100
AcDbLine
62
7
6
CONTINUOUS
10
293.4551621709
20
44.7732815643
11
293.4551621709
21
36.7732815643
0
LINE
5
5C8
100
AcDbEntity
8
0
100
AcDbLine
62
7
6
CONTINUOUS
10
294.3551621709
20
-62.5267184357
11
294.3551621709
21
-56.7267184357
0
LINE
5
5C9
100
AcDbEntity
8
0
100
AcDbLine
62
7
6
CONTINUOUS
10
296.0551621709
20
-62.5267184357
11
296.0551621709
21
-56.7267184357
0
LINE
5
5CA
100
AcDbEntity
8
0
100
AcDbLine
62
7
6
CONTINUOUS
10
297.4551621709
20
-73.7267184357
11
297.4551621709
21
-71.9767184357
0
LINE
5
5CB
100
AcDbEntity
8
0
100
AcDbLine
62
7
6
CONTINUOUS
10
297.4551621709
20
36.7732815643
11
297.4551621709
21
44.7732815643
0
LINE
5
5CC
100
AcDbEntity
8
0
100
AcDbLine
62
7
6
CONTINUOUS
10
297.9551621709
20
-73.7267184357
11
297.9551621709
21
-71.9767184357
0
LINE
5
5CD
100
AcDbEntity
8
0
100
AcDbLine
62
7
6
CONTINUOUS
10
298.0551621709
20
-62.5267184357
11
298.0551621709
21
-56.7267184357
0
LINE
5
5CE
100
AcDbEntity
8
0
100
AcDbLine
62
7
6
CONTINUOUS
10
299.7551621709
20
-62.5267184357
11
299.7551621709
21
-56.7267184357
0
LINE
5
5CF
100
AcDbEntity
8
0
100
AcDbLine
62
7
6
CONTINUOUS
10
299.9551621709
20
42.2732815643
11
299.9551621709
21
40.2732815643
0
LINE
5
5D0
100
AcDbEntity
8
0
100
AcDbLine
62
7
6
CONTINUOUS
10
300.6051621709
20
-56.7267184357
11
300.6051621709
21
-65.7267184357
0
LINE
5
5D1
100
AcDbEntity
8
0
100
AcDbLine
62
7
6
CONTINUOUS
10
301.3051621709
20
-56.7267184357
11
301.3051621709
21
-65.7267184357
0
LINE
5
5D2
100
AcDbEntity
8
0
100
AcDbLine
62
7
6
CONTINUOUS
10
301.9551621709
20
45.7732815643
11
301.9551621709
21
42.2732815643
0
LINE
5
5D3
100
AcDbEntity
8
0
100
AcDbLine
62
7
6
CONTINUOUS
10
302.1551621709
20
-62.5267184357
11
302.1551621709
21
-56.7267184357
0
LINE
5
5D4
100
AcDbEntity
8
0
100
AcDbLine
62
7
6
CONTINUOUS
10
303.8551621709
20
-62.5267184357
11
303.8551621709
21
-56.7267184357
0
LINE
5
5D5
100
AcDbEntity
8
0
100
AcDbLine
62
7
6
CONTINUOUS
10
339.3551621709
20
-56.7267184357
11
339.5551621709
21
-57.0731285973
0
LINE
5
5D6
100
AcDbEntity
8
0
100
AcDbLine
62
7
6
CONTINUOUS
10
343.0551621709
20
-56.7267184357
11
343.2551621709
21
-57.0731285973
0
LINE
5
5D7
100
AcDbEntity
8
0
100
AcDbLine
62
7
6
CONTINUOUS
10
346.7551621709
20
-56.7267184357
11
346.9551621709
21
-57.0731285973
0
LINE
5
5D8
100
AcDbEntity
8
0
100
AcDbLine
62
7
6
CONTINUOUS
10
350.4551621709
20
-56.7267184357
11
350.6551621709
21
-57.0731285973
0
LINE
5
5D9
100
AcDbEntity
8
0
100
AcDbLine
62
7
6
CONTINUOUS
10
354.1551621709
20
-56.7267184357
11
354.3551621709
21
-57.0731285973
0
LINE
5
5DA
100
AcDbEntity
8
0
100
AcDbLine
62
7
6
CONTINUOUS
10
305.8551621709
20
-62.5267184357
11
305.8551621709
21
-56.7267184357
0
LINE
5
5DB
100
AcDbEntity
8
0
100
AcDbLine
62
7
6
CONTINUOUS
10
305.9551621709
20
42.2732815643
11
305.9551621709
21
45.7732815643
0
LINE
5
5DC
100
AcDbEntity
8
0
100
AcDbLine
62
7
6
CONTINUOUS
10
307.5551621709
20
-62.5267184357
11
307.5551621709
21
-56.7267184357
0
LINE
5
5DD
100
AcDbEntity
8
0
100
AcDbLine
62
7
6
CONTINUOUS
10
307.9551621709
20
40.2732815643
11
307.9551621709
21
42.2732815643
0
LINE
5
5DE
100
AcDbEntity
8
0
100
AcDbLine
62
7
6
CONTINUOUS
10
309.5551621709
20
-62.5267184357
11
309.5551621709
21
-56.7267184357
0
LINE
5
5DF
100
AcDbEntity
8
0
100
AcDbLine
62
7
6
CONTINUOUS
10
310.4551621709
20
44.7732815643
11
310.4551621709
21
36.7732815643
0
LINE
5
5E0
100
AcDbEntity
8
0
100
AcDbLine
62
7
6
CONTINUOUS
10
311.2551621709
20
-62.5267184357
11
311.2551621709
21
-56.7267184357
0
LINE
5
5E1
100
AcDbEntity
8
0
100
AcDbLine
62
7
6
CONTINUOUS
10
312.9551621709
20
-73.7267184357
11
312.9551621709
21
-71.9767184357
0
LINE
5
5E2
100
AcDbEntity
8
0
100
AcDbLine
62
7
6
CONTINUOUS
10
313.2551621709
20
-62.5267184357
11
313.2551621709
21
-56.7267184357
0
LINE
5
5E3
100
AcDbEntity
8
0
100
AcDbLine
62
7
6
CONTINUOUS
10
313.4551621709
20
-73.7267184357
11
313.4551621709
21
-71.9767184357
0
LINE
5
5E4
100
AcDbEntity
8
0
100
AcDbLine
62
7
6
CONTINUOUS
10
314.4551621709
20
36.7732815643
11
314.4551621709
21
44.7732815643
0
LINE
5
5E5
100
AcDbEntity
8
0
100
AcDbLine
62
7
6
CONTINUOUS
10
314.9551621709
20
-62.5267184357
11
314.9551621709
21
-56.7267184357
0
LINE
5
5E6
100
AcDbEntity
8
0
100
AcDbLine
62
7
6
CONTINUOUS
10
316.9551621709
20
-62.5267184357
11
316.9551621709
21
-56.7267184357
0
LINE
5
5E7
100
AcDbEntity
8
0
100
AcDbLine
62
7
6
CONTINUOUS
10
316.9551621709
20
42.2732815643
11
316.9551621709
21
40.2732815643
0
LINE
5
5E8
100
AcDbEntity
8
0
100
AcDbLine
62
7
6
CONTINUOUS
10
318.6551621709
20
-62.5267184357
11
318.6551621709
21
-56.7267184357
0
LINE
5
5E9
100
AcDbEntity
8
0
100
AcDbLine
62
7
6
CONTINUOUS
10
318.9551621709
20
45.7732815643
11
318.9551621709
21
42.2732815643
0
LINE
5
5EA
100
AcDbEntity
8
0
100
AcDbLine
62
7
6
CONTINUOUS
10
320.6551621709
20
-62.5267184357
11
320.6551621709
21
-56.7267184357
0
LINE
5
5EB
100
AcDbEntity
8
0
100
AcDbLine
62
7
6
CONTINUOUS
10
322.3551621709
20
-62.5267184357
11
322.3551621709
21
-56.7267184357
0
LINE
5
5EC
100
AcDbEntity
8
0
100
AcDbLine
62
7
6
CONTINUOUS
10
357.8551621709
20
-56.7267184357
11
358.0551621709
21
-57.0731285973
0
LINE
5
5ED
100
AcDbEntity
8
0
100
AcDbLine
62
7
6
CONTINUOUS
10
322.9551621709
20
42.2732815643
11
322.9551621709
21
45.7732815643
0
LINE
5
5EE
100
AcDbEntity
8
0
100
AcDbLine
62
7
6
CONTINUOUS
10
324.3551621709
20
-62.5267184357
11
324.3551621709
21
-56.7267184357
0
LINE
5
5EF
100
AcDbEntity
8
0
100
AcDbLine
62
7
6
CONTINUOUS
10
324.9551621709
20
40.2732815643
11
324.9551621709
21
42.2732815643
0
LINE
5
5F0
100
AcDbEntity
8
0
100
AcDbLine
62
7
6
CONTINUOUS
10
326.0551621709
20
-62.5267184357
11
326.0551621709
21
-56.7267184357
0
LINE
5
5F1
100
AcDbEntity
8
0
100
AcDbLine
62
7
6
CONTINUOUS
10
326.9551621709
20
62.5232815643
11
326.9551621709
21
51.2732815643
0
LINE
5
5F2
100
AcDbEntity
8
0
100
AcDbLine
62
7
6
CONTINUOUS
10
326.9551621709
20
25.7732815643
11
326.9551621709
21
14.5232815643
0
LINE
5
5F3
100
AcDbEntity
8
0
100
AcDbLine
62
7
6
CONTINUOUS
10
327.4551621709
20
44.7732815643
11
327.4551621709
21
36.7732815643
0
LINE
5
5F4
100
AcDbEntity
8
0
100
AcDbLine
62
7
6
CONTINUOUS
10
328.0551621709
20
-62.5267184357
11
328.0551621709
21
-56.7267184357
0
LINE
5
5F5
100
AcDbEntity
8
0
100
AcDbLine
62
7
6
CONTINUOUS
10
328.4551621709
20
-73.7267184357
11
328.4551621709
21
-71.9767184357
0
LINE
5
5F6
100
AcDbEntity
8
0
100
AcDbLine
62
7
6
CONTINUOUS
10
328.9551621709
20
-73.7267184357
11
328.9551621709
21
-71.9767184357
0
LINE
5
5F7
100
AcDbEntity
8
0
100
AcDbLine
62
7
6
CONTINUOUS
10
329.7551621709
20
-62.5267184357
11
329.7551621709
21
-56.7267184357
0
LINE
5
5F8
100
AcDbEntity
8
0
100
AcDbLine
62
7
6
CONTINUOUS
10
329.9551621709
20
14.5232815643
11
329.9551621709
21
25.7732815643
0
LINE
5
5F9
100
AcDbEntity
8
0
100
AcDbLine
62
7
6
CONTINUOUS
10
329.9551621709
20
51.2732815643
11
329.9551621709
21
62.5232815643
0
LINE
5
5FA
100
AcDbEntity
8
0
100
AcDbLine
62
7
6
CONTINUOUS
10
330.6051621709
20
-56.7267184357
11
330.6051621709
21
-65.7267184357
0
LINE
5
5FB
100
AcDbEntity
8
0
100
AcDbLine
62
7
6
CONTINUOUS
10
331.3051621709
20
-56.7267184357
11
331.3051621709
21
-65.7267184357
0
LINE
5
5FC
100
AcDbEntity
8
0
100
AcDbLine
62
7
6
CONTINUOUS
10
331.4551621709
20
36.7732815643
11
331.4551621709
21
44.7732815643
0
LINE
5
5FD
100
AcDbEntity
8
0
100
AcDbLine
62
7
6
CONTINUOUS
10
332.1551621709
20
-62.5267184357
11
332.1551621709
21
-56.7267184357
0
LINE
5
5FE
100
AcDbEntity
8
0
100
AcDbLine
62
7
6
CONTINUOUS
10
333.8551621709
20
-62.5267184357
11
333.8551621709
21
-56.7267184357
0
LINE
5
5FF
100
AcDbEntity
8
0
100
AcDbLine
62
7
6
CONTINUOUS
10
333.9551621709
20
42.2732815643
11
333.9551621709
21
40.2732815643
0
LINE
5
600
100
AcDbEntity
8
0
100
AcDbLine
62
7
6
CONTINUOUS
10
335.8551621709
20
-62.5267184357
11
335.8551621709
21
-56.7267184357
0
LINE
5
601
100
AcDbEntity
8
0
100
AcDbLine
62
7
6
CONTINUOUS
10
335.9551621709
20
45.7732815643
11
335.9551621709
21
42.2732815643
0
LINE
5
602
100
AcDbEntity
8
0
100
AcDbLine
62
7
6
CONTINUOUS
10
337.5551621709
20
-62.5267184357
11
337.5551621709
21
-56.7267184357
0
LINE
5
603
100
AcDbEntity
8
0
100
AcDbLine
62
7
6
CONTINUOUS
10
367.4551621709
20
-88.2833427628
11
364.9551621709
21
-89.7267184357
0
LINE
5
604
100
AcDbEntity
8
0
100
AcDbLine
62
7
6
CONTINUOUS
10
339.5551621709
20
-62.5267184357
11
339.5551621709
21
-56.7267184357
0
LINE
5
605
100
AcDbEntity
8
0
100
AcDbLine
62
7
6
CONTINUOUS
10
339.9551621709
20
42.2732815643
11
339.9551621709
21
45.7732815643
0
LINE
5
606
100
AcDbEntity
8
0
100
AcDbLine
62
7
6
CONTINUOUS
10
341.2551621709
20
-62.5267184357
11
341.2551621709
21
-56.7267184357
0
LINE
5
607
100
AcDbEntity
8
0
100
AcDbLine
62
7
6
CONTINUOUS
10
341.9551621709
20
40.2732815643
11
341.9551621709
21
42.2732815643
0
LINE
5
608
100
AcDbEntity
8
0
100
AcDbLine
62
7
6
CONTINUOUS
10
343.2551621709
20
-62.5267184357
11
343.2551621709
21
-56.7267184357
0
LINE
5
609
100
AcDbEntity
8
0
100
AcDbLine
62
7
6
CONTINUOUS
10
343.9551621709
20
-73.7267184357
11
343.9551621709
21
-71.9767184357
0
LINE
5
60A
100
AcDbEntity
8
0
100
AcDbLine
62
7
6
CONTINUOUS
10
344.4551621709
20
-73.7267184357
11
344.4551621709
21
-71.9767184357
0
LINE
5
60B
100
AcDbEntity
8
0
100
AcDbLine
62
7
6
CONTINUOUS
10
344.4551621709
20
44.7732815643
11
344.4551621709
21
36.7732815643
0
LINE
5
60C
100
AcDbEntity
8
0
100
AcDbLine
62
7
6
CONTINUOUS
10
344.9551621709
20
-62.5267184357
11
344.9551621709
21
-56.7267184357
0
LINE
5
60D
100
AcDbEntity
8
0
100
AcDbLine
62
7
6
CONTINUOUS
10
346.9551621709
20
-62.5267184357
11
346.9551621709
21
-56.7267184357
0
LINE
5
60E
100
AcDbEntity
8
0
100
AcDbLine
62
7
6
CONTINUOUS
10
348.4551621709
20
36.7732815643
11
348.4551621709
21
44.7732815643
0
LINE
5
60F
100
AcDbEntity
8
0
100
AcDbLine
62
7
6
CONTINUOUS
10
348.6551621709
20
-62.5267184357
11
348.6551621709
21
-56.7267184357
0
LINE
5
610
100
AcDbEntity
8
0
100
AcDbLine
62
7
6
CONTINUOUS
10
350.6551621709
20
-62.5267184357
11
350.6551621709
21
-56.7267184357
0
LINE
5
611
100
AcDbEntity
8
0
100
AcDbLine
62
7
6
CONTINUOUS
10
350.9551621709
20
42.2732815643
11
350.9551621709
21
40.2732815643
0
LINE
5
612
100
AcDbEntity
8
0
100
AcDbLine
62
7
6
CONTINUOUS
10
352.3551621709
20
-62.5267184357
11
352.3551621709
21
-56.7267184357
0
LINE
5
613
100
AcDbEntity
8
0
100
AcDbLine
62
7
6
CONTINUOUS
10
352.9551621709
20
45.7732815643
11
352.9551621709
21
42.2732815643
0
LINE
5
614
100
AcDbEntity
8
0
100
AcDbLine
62
7
6
CONTINUOUS
10
354.3551621709
20
-62.5267184357
11
354.3551621709
21
-56.7267184357
0
LINE
5
615
100
AcDbEntity
8
0
100
AcDbLine
62
7
6
CONTINUOUS
10
354.4551621709
20
14.5232815643
11
354.4551621709
21
25.7732815643
0
LINE
5
616
100
AcDbEntity
8
0
100
AcDbLine
62
7
6
CONTINUOUS
10
354.4551621709
20
51.2732815643
11
354.4551621709
21
62.5232815643
0
LINE
5
617
100
AcDbEntity
8
0
100
AcDbLine
62
7
6
CONTINUOUS
10
356.0551621709
20
-62.5267184357
11
356.0551621709
21
-56.7267184357
0
LINE
5
618
100
AcDbEntity
8
0
100
AcDbLine
62
7
6
CONTINUOUS
10
356.9551621709
20
42.2732815643
11
356.9551621709
21
45.7732815643
0
LINE
5
619
100
AcDbEntity
8
0
100
AcDbLine
62
7
6
CONTINUOUS
10
358.0551621709
20
-62.5267184357
11
358.0551621709
21
-56.7267184357
0
LINE
5
61A
100
AcDbEntity
8
0
100
AcDbLine
62
7
6
CONTINUOUS
10
358.9551621709
20
40.2732815643
11
358.9551621709
21
42.2732815643
0
LINE
5
61B
100
AcDbEntity
8
0
100
AcDbLine
62
7
6
CONTINUOUS
10
359.4551621709
20
-73.7267184357
11
359.4551621709
21
-71.9767184357
0
LINE
5
61C
100
AcDbEntity
8
0
100
AcDbLine
62
7
6
CONTINUOUS
10
359.7551621709
20
-62.5267184357
11
359.7551621709
21
-56.7267184357
0
LINE
5
61D
100
AcDbEntity
8
0
100
AcDbLine
62
7
6
CONTINUOUS
10
360.6051621709
20
-56.7267184357
11
360.6051621709
21
-65.7267184357
0
LINE
5
61E
100
AcDbEntity
8
0
100
AcDbLine
62
7
6
CONTINUOUS
10
360.8051621709
20
-65.7267184357
11
360.8051621709
21
-63.2267184357
0
LINE
5
61F
100
AcDbEntity
8
0
100
AcDbLine
62
7
6
CONTINUOUS
10
361.4551621709
20
44.7732815643
11
361.4551621709
21
36.7732815643
0
LINE
5
620
100
AcDbEntity
8
0
100
AcDbLine
62
7
6
CONTINUOUS
10
366.9551621709
20
65.8732815643
11
366.9551621709
21
11.1732815643
0
LINE
5
621
100
AcDbEntity
8
0
100
AcDbLine
62
7
6
CONTINUOUS
10
367.4551621709
20
-87.2267184357
11
367.4551621709
21
-88.2833427628
0
LINE
5
622
100
AcDbEntity
8
0
100
AcDbLine
62
7
6
CONTINUOUS
10
368.4551621709
20
-71.9767184357
11
368.4551621709
21
-63.2267184357
0
LINE
5
623
100
AcDbEntity
8
0
100
AcDbLine
62
7
6
CONTINUOUS
10
368.6551621709
20
-53.2662385259
11
368.6551621709
21
12.7732815643
0
LINE
5
624
100
AcDbEntity
8
0
100
AcDbLine
62
7
6
CONTINUOUS
10
369.4551621709
20
-73.7267184357
11
369.4551621709
21
-87.2267184357
0
LINE
5
625
100
AcDbEntity
8
0
100
AcDbLine
62
9
6
CONTINUOUS
10
369.4551437074
20
-54.2469187700
11
369.4551621709
21
12.7732815643
0
LINE
5
626
100
AcDbEntity
8
0
100
AcDbLine
62
9
6
CONTINUOUS
10
370.2551621709
20
64.2732815643
11
370.2551621709
21
12.7732815643
0
LINE
5
627
100
AcDbEntity
8
0
100
AcDbLine
62
7
6
CONTINUOUS
10
370.2551621709
20
-85.7267184357
11
370.2551621709
21
12.7732815643
0
LINE
5
628
100
AcDbEntity
8
0
100
AcDbLine
62
7
6
CONTINUOUS
10
371.9551621709
20
-85.7267184357
11
371.9551621709
21
64.2732815643
0
LINE
5
629
100
AcDbEntity
8
0
100
AcDbLine
62
9
6
CONTINUOUS
10
387.9551621709
20
-85.7267184357
11
387.9551621709
21
-87.2267184357
0
LINE
5
62A
100
AcDbEntity
8
0
100
AcDbLine
62
7
6
CONTINUOUS
10
391.9551621709
20
-85.7267184357
11
391.9551621709
21
-86.2267184357
0
LINE
5
62B
100
AcDbEntity
8
0
100
AcDbLine
62
7
6
CONTINUOUS
10
-153.6667721987
20
-89.7267184357
11
-182.1667721987
21
-89.7267184357
0
LINE
5
62C
100
AcDbEntity
8
0
100
AcDbLine
62
7
6
CONTINUOUS
10
-151.1667721987
20
-88.2833427628
11
-184.6667721987
21
-88.2833427628
0
LINE
5
62D
100
AcDbEntity
8
0
100
AcDbLine
62
7
6
CONTINUOUS
10
-146.6667721987
20
-87.2267184357
11
-189.1667721987
21
-87.2267184357
0
LINE
5
62E
100
AcDbEntity
8
0
100
AcDbLine
62
9
6
CONTINUOUS
10
-145.6667721987
20
-86.2267184357
11
-190.1667721987
21
-86.2267184357
0
LINE
5
62F
100
AcDbEntity
8
0
100
AcDbLine
62
7
6
CONTINUOUS
10
-145.6667721987
20
-85.7267184357
11
-190.1667721987
21
-85.7267184357
0
LINE
5
630
100
AcDbEntity
8
0
100
AcDbLine
62
7
6
CONTINUOUS
10
-184.6667721987
20
-88.2833427628
11
-182.1667721987
21
-89.7267184357
0
LINE
5
631
100
AcDbEntity
8
0
100
AcDbLine
62
7
6
CONTINUOUS
10
-145.6667721987
20
-73.7267184357
11
-147.1667721987
21
-73.7267184357
0
LINE
5
632
100
AcDbEntity
8
0
100
AcDbLine
62
7
6
CONTINUOUS
10
-188.6667721987
20
-73.7267184357
11
-190.1667721987
21
-73.7267184357
0
LINE
5
633
100
AcDbEntity
8
0
100
AcDbLine
62
7
6
CONTINUOUS
10
-189.5667721987
20
-71.9767184357
11
-186.1667721987
21
-71.9767184357
0
LINE
5
634
100
AcDbEntity
8
0
100
AcDbLine
62
7
6
CONTINUOUS
10
-149.6667721987
20
-71.9767184357
11
-146.2667721987
21
-71.9767184357
0
LINE
5
635
100
AcDbEntity
8
0
100
AcDbLine
62
7
6
CONTINUOUS
10
-189.5667721987
20
-65.7267184357
11
-186.1667721987
21
-65.7267184357
0
LINE
5
636
100
AcDbEntity
8
0
100
AcDbLine
62
7
6
CONTINUOUS
10
-149.6667721987
20
-65.7267184357
11
-146.2667721987
21
-65.7267184357
0
LINE
5
637
100
AcDbEntity
8
0
100
AcDbLine
62
9
6
CONTINUOUS
10
-164.6667721987
20
-50.9767184356
11
-162.2010065975
21
-50.9767184357
0
LINE
5
638
100
AcDbEntity
8
0
100
AcDbLine
62
9
6
CONTINUOUS
10
-156.1667721987
20
-50.9767184479
11
-158.6325377998
21
-50.9767184357
0
LINE
5
639
100
AcDbEntity
8
0
100
AcDbLine
62
7
6
CONTINUOUS
10
-190.1667721987
20
-73.7267184357
11
-190.1667721987
21
-85.2267184357
0
LINE
5
63A
100
AcDbEntity
8
0
100
AcDbLine
62
7
6
CONTINUOUS
10
-190.1667721987
20
-85.7267184357
11
-190.1667721987
21
-86.2267184357
0
LINE
5
63B
100
AcDbEntity
8
0
100
AcDbLine
62
7
6
CONTINUOUS
10
-189.5667721987
20
-71.9767184357
11
-189.5667721987
21
-65.7267184357
0
LINE
5
63C
100
AcDbEntity
8
0
100
AcDbLine
62
7
6
CONTINUOUS
10
-188.6667721987
20
-85.2267184357
11
-188.6667721987
21
-73.7267184357
0
LINE
5
63D
100
AcDbEntity
8
0
100
AcDbLine
62
7
6
CONTINUOUS
10
-186.1667721987
20
-11.4693591229
11
-186.1667721987
21
-85.7267184357
0
LINE
5
63E
100
AcDbEntity
8
0
100
AcDbLine
62
9
6
CONTINUOUS
10
-186.1667721987
20
-85.7267184357
11
-186.1667721987
21
-87.2267184357
0
LINE
5
63F
100
AcDbEntity
8
0
100
AcDbLine
62
7
6
CONTINUOUS
10
-184.6667721987
20
-87.2267184357
11
-184.6667721987
21
-88.2833427628
0
LINE
5
640
100
AcDbEntity
8
0
100
AcDbLine
62
7
6
CONTINUOUS
10
-166.1667721987
20
9.7732815643
11
-185.2880925422
21
-9.3480387793
0
LINE
5
641
100
AcDbEntity
8
0
100
AcDbLine
62
7
6
CONTINUOUS
10
-169.4667721987
20
62.8732815643
11
-169.4667721987
21
14.1732815643
0
LINE
5
642
100
AcDbEntity
8
0
100
AcDbLine
62
7
6
CONTINUOUS
10
-167.9667721987
20
12.6732815643
11
-167.9667721987
21
64.3732815643
0
LINE
5
643
100
AcDbEntity
8
0
100
AcDbLine
62
7
6
CONTINUOUS
10
-167.8667721987
20
64.2732815643
11
-167.8667721987
21
12.7732815643
0
LINE
5
644
100
AcDbEntity
8
0
100
AcDbLine
62
7
6
CONTINUOUS
10
-166.1667721987
20
12.7732815643
11
-166.1667721987
21
9.7732815643
0
LINE
5
645
100
AcDbEntity
8
0
100
AcDbLine
62
9
6
CONTINUOUS
10
-166.1667721987
20
12.7732815643
11
-166.1667721987
21
64.2732815643
0
LINE
5
646
100
AcDbEntity
8
0
100
AcDbLine
62
9
6
CONTINUOUS
10
-164.6667721987
20
-50.9767200997
11
-164.6667721987
21
28.5232815642
0
LINE
5
647
100
AcDbEntity
8
0
100
AcDbLine
62
7
6
CONTINUOUS
10
-162.2010065975
20
-50.9767184357
11
-162.2010065975
21
28.5232815643
0
LINE
5
648
100
AcDbEntity
8
0
100
AcDbLine
62
7
6
CONTINUOUS
10
-158.9667721987
20
64.3732815643
11
-158.9667721987
21
65.8732815643
0
LINE
5
649
100
AcDbEntity
8
0
100
AcDbLine
62
7
6
CONTINUOUS
10
-158.6325377998
20
28.5232815643
11
-158.6325377998
21
-50.9767184357
0
LINE
5
64A
100
AcDbEntity
8
0
100
AcDbLine
62
9
6
CONTINUOUS
10
-156.1667721987
20
28.5232832840
11
-156.1667721987
21
-50.9767184483
0
LINE
5
64B
100
AcDbEntity
8
0
100
AcDbLine
62
7
6
CONTINUOUS
10
-151.1667721987
20
-87.2267184357
11
-151.1667721987
21
-88.2833427628
0
LINE
5
64C
100
AcDbEntity
8
0
100
AcDbLine
62
9
6
CONTINUOUS
10
-149.6667721987
20
-87.2267184357
11
-149.6667721987
21
-85.7267184357
0
LINE
5
64D
100
AcDbEntity
8
0
100
AcDbLine
62
7
6
CONTINUOUS
10
-149.6667721987
20
14.2732815643
11
-149.6667721987
21
-85.7267184357
0
LINE
5
64E
100
AcDbEntity
8
0
100
AcDbLine
62
7
6
CONTINUOUS
10
-147.1667721987
20
-73.7267184357
11
-147.1667721987
21
-85.2267184357
0
LINE
5
64F
100
AcDbEntity
8
0
100
AcDbLine
62
7
6
CONTINUOUS
10
-146.2667721987
20
-71.9767184357
11
-146.2667721987
21
-65.7267184357
0
LINE
5
650
100
AcDbEntity
8
0
100
AcDbLine
62
7
6
CONTINUOUS
10
-145.6667721987
20
-86.2267184357
11
-145.6667721987
21
-85.7267184357
0
LINE
5
651
100
AcDbEntity
8
0
100
AcDbLine
62
7
6
CONTINUOUS
10
-145.6667721987
20
-85.2267184357
11
-145.6667721987
21
-73.7267184357
0
LINE
5
652
100
AcDbEntity
8
0
100
AcDbLine
62
7
6
CONTINUOUS
10
-156.3308699410
20
61.6908008671
11
-149.6667721987
21
14.2732815643
0
LINE
5
653
100
AcDbEntity
8
0
100
AcDbLine
62
7
6
CONTINUOUS
10
-166.4667721987
20
11.1732815643
11
-166.1667721987
21
11.1732815643
0
LINE
5
654
100
AcDbEntity
8
0
100
AcDbLine
62
7
6
CONTINUOUS
10
-166.1667721987
20
12.6732815643
11
-167.9667721987
21
12.6732815643
0
LINE
5
655
100
AcDbEntity
8
0
100
AcDbLine
62
7
6
CONTINUOUS
10
-167.8667721987
20
12.7732815643
11
-166.1667721987
21
12.7732815643
0
LINE
5
656
100
AcDbEntity
8
0
100
AcDbLine
62
9
6
CONTINUOUS
10
-164.6667721987
20
28.5232815642
11
-162.2010065975
21
28.5232815643
0
LINE
5
657
100
AcDbEntity
8
0
100
AcDbLine
62
9
6
CONTINUOUS
10
-156.1667721987
20
28.5232815752
11
-158.6325377998
21
28.5232815643
0
LINE
5
658
100
AcDbEntity
8
0
100
AcDbLine
62
7
6
CONTINUOUS
10
-151.1667721987
20
-88.2833427628
11
-153.6667721987
21
-89.7267184357
0
LINE
5
659
100
AcDbEntity
8
0
100
AcDbLine
62
7
6
CONTINUOUS
10
-167.8667721987
20
64.2732815643
11
-159.3016741472
21
64.2732815643
0
LINE
5
65A
100
AcDbEntity
8
0
100
AcDbLine
62
7
6
CONTINUOUS
10
-167.9667721987
20
64.3732815643
11
-158.9667721987
21
64.3732815643
0
LINE
5
65B
100
AcDbEntity
8
0
100
AcDbLine
62
7
6
CONTINUOUS
10
-158.9667721987
20
65.8732815643
11
-166.4667721987
21
65.8732815643
0
ARC
5
65C
100
AcDbEntity
8
0
100
AcDbCircle
62
7
6
CONTINUOUS
10
-54.0448378291
20
40.2732815643
40
1.0000000000
100
AcDbArc
50
180.0000000000
51
270.0000000000
0
ARC
5
65D
100
AcDbEntity
8
0
100
AcDbCircle
62
7
6
CONTINUOUS
10
-48.0448378291
20
40.2732815643
40
1.0000000000
100
AcDbArc
50
270.0000000000
51
360.0000000000
0
ARC
5
65E
100
AcDbEntity
8
0
100
AcDbCircle
62
7
6
CONTINUOUS
10
-37.0448378291
20
40.2732815643
40
1.0000000000
100
AcDbArc
50
180.0000000000
51
270.0000000000
0
ARC
5
65F
100
AcDbEntity
8
0
100
AcDbCircle
62
7
6
CONTINUOUS
10
-31.0448378291
20
40.2732815643
40
1.0000000000
100
AcDbArc
50
270.0000000000
51
360.0000000000
0
ARC
5
660
100
AcDbEntity
8
0
100
AcDbCircle
62
7
6
CONTINUOUS
10
-20.0448378291
20
40.2732815643
40
1.0000000000
100
AcDbArc
50
180.0000000000
51
270.0000000000
0
ARC
5
661
100
AcDbEntity
8
0
100
AcDbCircle
62
7
6
CONTINUOUS
10
-14.0448378291
20
40.2732815643
40
1.0000000000
100
AcDbArc
50
270.0000000000
51
360.0000000000
0
ARC
5
662
100
AcDbEntity
8
0
100
AcDbCircle
62
7
6
CONTINUOUS
10
-3.0448378291
20
40.2732815643
40
1.0000000000
100
AcDbArc
50
180.0000000000
51
270.0000000000
0
ARC
5
663
100
AcDbEntity
8
0
100
AcDbCircle
62
7
6
CONTINUOUS
10
2.9551621709
20
40.2732815643
40
1.0000000000
100
AcDbArc
50
270.0000000000
51
360.0000000000
0
ARC
5
664
100
AcDbEntity
8
0
100
AcDbCircle
62
7
6
CONTINUOUS
10
13.9551621709
20
40.2732815643
40
1.0000000000
100
AcDbArc
50
180.0000000000
51
270.0000000000
0
ARC
5
665
100
AcDbEntity
8
0
100
AcDbCircle
62
7
6
CONTINUOUS
10
19.9551621709
20
40.2732815643
40
1.0000000000
100
AcDbArc
50
270.0000000000
51
360.0000000000
0
ARC
5
666
100
AcDbEntity
8
0
100
AcDbCircle
62
7
6
CONTINUOUS
10
30.9551621709
20
40.2732815643
40
1.0000000000
100
AcDbArc
50
180.0000000000
51
270.0000000000
0
ARC
5
667
100
AcDbEntity
8
0
100
AcDbCircle
62
7
6
CONTINUOUS
10
36.9551621709
20
40.2732815643
40
1.0000000000
100
AcDbArc
50
270.0000000000
51
360.0000000000
0
ARC
5
668
100
AcDbEntity
8
0
100
AcDbCircle
62
7
6
CONTINUOUS
10
47.9551621709
20
40.2732815643
40
1.0000000000
100
AcDbArc
50
180.0000000000
51
270.0000000000
0
ARC
5
669
100
AcDbEntity
8
0
100
AcDbCircle
62
7
6
CONTINUOUS
10
53.9551621709
20
40.2732815643
40
1.0000000000
100
AcDbArc
50
270.0000000000
51
360.0000000000
0
ARC
5
66A
100
AcDbEntity
8
0
100
AcDbCircle
62
7
6
CONTINUOUS
10
64.9551621709
20
40.2732815643
40
1.0000000000
100
AcDbArc
50
180.0000000000
51
270.0000000000
0
ARC
5
66B
100
AcDbEntity
8
0
100
AcDbCircle
62
7
6
CONTINUOUS
10
70.9551621709
20
40.2732815643
40
1.0000000000
100
AcDbArc
50
270.0000000000
51
360.0000000000
0
ARC
5
66C
100
AcDbEntity
8
0
100
AcDbCircle
62
7
6
CONTINUOUS
10
357.9551621709
20
40.2732815643
40
1.0000000000
100
AcDbArc
50
270.0000000000
51
360.0000000000
0
ARC
5
66D
100
AcDbEntity
8
0
100
AcDbCircle
62
7
6
CONTINUOUS
10
351.9551621709
20
40.2732815643
40
1.0000000000
100
AcDbArc
50
180.0000000000
51
270.0000000000
0
ARC
5
66E
100
AcDbEntity
8
0
100
AcDbCircle
62
7
6
CONTINUOUS
10
340.9551621709
20
40.2732815643
40
1.0000000000
100
AcDbArc
50
270.0000000000
51
360.0000000000
0
ARC
5
66F
100
AcDbEntity
8
0
100
AcDbCircle
62
7
6
CONTINUOUS
10
334.9551621709
20
40.2732815643
40
1.0000000000
100
AcDbArc
50
180.0000000000
51
270.0000000000
0
ARC
5
670
100
AcDbEntity
8
0
100
AcDbCircle
62
7
6
CONTINUOUS
10
323.9551621709
20
40.2732815643
40
1.0000000000
100
AcDbArc
50
270.0000000000
51
360.0000000000
0
ARC
5
671
100
AcDbEntity
8
0
100
AcDbCircle
62
7
6
CONTINUOUS
10
317.9551621709
20
40.2732815643
40
1.0000000000
100
AcDbArc
50
180.0000000000
51
270.0000000000
0
ARC
5
672
100
AcDbEntity
8
0
100
AcDbCircle
62
7
6
CONTINUOUS
10
306.9551621709
20
40.2732815643
40
1.0000000000
100
AcDbArc
50
270.0000000000
51
360.0000000000
0
ARC
5
673
100
AcDbEntity
8
0
100
AcDbCircle
62
7
6
CONTINUOUS
10
300.9551621709
20
40.2732815643
40
1.0000000000
100
AcDbArc
50
180.0000000000
51
270.0000000000
0
ARC
5
674
100
AcDbEntity
8
0
100
AcDbCircle
62
7
6
CONTINUOUS
10
289.9551621709
20
40.2732815643
40
1.0000000000
100
AcDbArc
50
270.0000000000
51
360.0000000000
0
ARC
5
675
100
AcDbEntity
8
0
100
AcDbCircle
62
7
6
CONTINUOUS
10
283.9551621709
20
40.2732815643
40
1.0000000000
100
AcDbArc
50
180.0000000000
51
270.0000000000
0
ARC
5
676
100
AcDbEntity
8
0
100
AcDbCircle
62
7
6
CONTINUOUS
10
272.9551621709
20
40.2732815643
40
1.0000000000
100
AcDbArc
50
270.0000000000
51
360.0000000000
0
ARC
5
677
100
AcDbEntity
8
0
100
AcDbCircle
62
7
6
CONTINUOUS
10
266.9551621709
20
40.2732815643
40
1.0000000000
100
AcDbArc
50
180.0000000000
51
270.0000000000
0
ARC
5
678
100
AcDbEntity
8
0
100
AcDbCircle
62
7
6
CONTINUOUS
10
255.9551621709
20
40.2732815643
40
1.0000000000
100
AcDbArc
50
270.0000000000
51
360.0000000000
0
ARC
5
679
100
AcDbEntity
8
0
100
AcDbCircle
62
7
6
CONTINUOUS
10
249.9551621709
20
40.2732815643
40
1.0000000000
100
AcDbArc
50
180.0000000000
51
270.0000000000
0
ARC
5
67A
100
AcDbEntity
8
0
100
AcDbCircle
62
7
6
CONTINUOUS
10
238.9551621709
20
40.2732815643
40
1.0000000000
100
AcDbArc
50
270.0000000000
51
360.0000000000
0
ARC
5
67B
100
AcDbEntity
8
0
100
AcDbCircle
62
7
6
CONTINUOUS
10
232.9551621709
20
40.2732815643
40
1.0000000000
100
AcDbArc
50
180.0000000000
51
270.0000000000
0
ARC
5
67C
100
AcDbEntity
8
0
100
AcDbCircle
62
7
6
CONTINUOUS
10
110.9551621709
20
40.2732815643
40
1.0000000000
100
AcDbArc
50
270.0000000000
51
360.0000000000
0
ARC
5
67D
100
AcDbEntity
8
0
100
AcDbCircle
62
7
6
CONTINUOUS
10
104.9551621709
20
40.2732815643
40
1.0000000000
100
AcDbArc
50
180.0000000000
51
270.0000000000
0
ARC
5
67E
100
AcDbEntity
8
0
100
AcDbCircle
62
7
6
CONTINUOUS
10
93.9551621709
20
40.2732815643
40
1.0000000000
100
AcDbArc
50
270.0000000000
51
360.0000000000
0
ARC
5
67F
100
AcDbEntity
8
0
100
AcDbCircle
62
7
6
CONTINUOUS
10
87.9551621709
20
40.2732815643
40
1.0000000000
100
AcDbArc
50
180.0000000000
51
270.0000000000
0
ARC
5
680
100
AcDbEntity
8
0
100
AcDbCircle
62
7
6
CONTINUOUS
10
178.9551621709
20
40.2732815643
40
1.0000000000
100
AcDbArc
50
270.0000000000
51
360.0000000000
0
ARC
5
681
100
AcDbEntity
8
0
100
AcDbCircle
62
7
6
CONTINUOUS
10
172.9551621709
20
40.2732815643
40
1.0000000000
100
AcDbArc
50
180.0000000000
51
270.0000000000
0
ARC
5
682
100
AcDbEntity
8
0
100
AcDbCircle
62
7
6
CONTINUOUS
10
195.9551621709
20
40.2732815643
40
1.0000000000
100
AcDbArc
50
270.0000000000
51
360.0000000000
0
ARC
5
683
100
AcDbEntity
8
0
100
AcDbCircle
62
7
6
CONTINUOUS
10
189.9551621709
20
40.2732815643
40
1.0000000000
100
AcDbArc
50
180.0000000000
51
270.0000000000
0
ARC
5
684
100
AcDbEntity
8
0
100
AcDbCircle
62
7
6
CONTINUOUS
10
212.9551621709
20
40.2732815643
40
1.0000000000
100
AcDbArc
50
270.0000000000
51
360.0000000000
0
ARC
5
685
100
AcDbEntity
8
0
100
AcDbCircle
62
7
6
CONTINUOUS
10
206.9551621709
20
40.2732815643
40
1.0000000000
100
AcDbArc
50
180.0000000000
51
270.0000000000
0
ARC
5
686
100
AcDbEntity
8
0
100
AcDbCircle
62
7
6
CONTINUOUS
10
127.9551621709
20
40.2732815643
40
1.0000000000
100
AcDbArc
50
270.0000000000
51
360.0000000000
0
ARC
5
687
100
AcDbEntity
8
0
100
AcDbCircle
62
7
6
CONTINUOUS
10
121.9551621709
20
40.2732815643
40
1.0000000000
100
AcDbArc
50
180.0000000000
51
270.0000000000
0
ARC
5
688
100
AcDbEntity
8
0
100
AcDbCircle
62
7
6
CONTINUOUS
10
144.9551621709
20
40.2732815643
40
1.0000000000
100
AcDbArc
50
270.0000000000
51
360.0000000000
0
ARC
5
689
100
AcDbEntity
8
0
100
AcDbCircle
62
7
6
CONTINUOUS
10
138.9551621709
20
40.2732815643
40
1.0000000000
100
AcDbArc
50
180.0000000000
51
270.0000000000
0
ARC
5
68A
100
AcDbEntity
8
0
100
AcDbCircle
62
7
6
CONTINUOUS
10
161.9551621709
20
40.2732815643
40
1.0000000000
100
AcDbArc
50
270.0000000000
51
360.0000000000
0
ARC
5
68B
100
AcDbEntity
8
0
100
AcDbCircle
62
7
6
CONTINUOUS
10
155.9551621709
20
40.2732815643
40
1.0000000000
100
AcDbArc
50
180.0000000000
51
270.0000000000
0
ARC
5
68C
100
AcDbEntity
8
0
100
AcDbCircle
62
7
6
CONTINUOUS
10
-65.7448378291
20
-53.2671266415
40
1.0000000000
100
AcDbArc
50
281.5380203654
51
360.0000000000
0
ARC
5
68D
100
AcDbEntity
8
0
100
AcDbCircle
62
7
6
CONTINUOUS
10
369.6551621709
20
-53.2671266415
40
1.0000000000
100
AcDbArc
50
180.0000000000
51
258.4619796348
0
ARC
5
68E
100
AcDbEntity
8
0
100
AcDbCircle
62
7
6
CONTINUOUS
10
-65.3448378291
20
-55.2267184357
40
1.0000000000
100
AcDbArc
50
101.5358979975
51
179.9924380652
0
ARC
5
68F
100
AcDbEntity
8
0
100
AcDbCircle
62
7
6
CONTINUOUS
10
369.2551621709
20
-55.2267184357
40
1.0000000000
100
AcDbArc
50
0.0069082116
51
78.4641020023
0
ARC
5
690
100
AcDbEntity
8
0
100
AcDbCircle
62
7
6
CONTINUOUS
10
-87.0448378291
20
-86.2267184357
40
1.0000000000
100
AcDbArc
50
180.0000000000
51
269.9999999996
0
ARC
5
691
100
AcDbEntity
8
0
100
AcDbCircle
62
7
6
CONTINUOUS
10
390.9551621709
20
-86.2267184357
40
1.0000000000
100
AcDbArc
50
270.0000000004
51
360.0000000000
0
ARC
5
692
100
AcDbEntity
8
0
100
AcDbCircle
62
7
6
CONTINUOUS
10
-45.5448378291
20
36.7732815643
40
1.0000000000
100
AcDbArc
50
270.0000000000
51
360.0000000000
0
ARC
5
693
100
AcDbEntity
8
0
100
AcDbCircle
62
7
6
CONTINUOUS
10
-45.5448378291
20
44.7732815643
40
1.0000000000
100
AcDbArc
50
0.0000000000
51
90.0000000000
0
ARC
5
694
100
AcDbEntity
8
0
100
AcDbCircle
62
7
6
CONTINUOUS
10
-56.5448378291
20
44.7732815643
40
1.0000000000
100
AcDbArc
50
90.0000000000
51
180.0000000000
0
ARC
5
695
100
AcDbEntity
8
0
100
AcDbCircle
62
7
6
CONTINUOUS
10
-56.5448378291
20
36.7732815643
40
1.0000000000
100
AcDbArc
50
180.0000000000
51
270.0000000000
0
ARC
5
696
100
AcDbEntity
8
0
100
AcDbCircle
62
7
6
CONTINUOUS
10
-28.5448378291
20
36.7732815643
40
1.0000000000
100
AcDbArc
50
270.0000000000
51
360.0000000000
0
ARC
5
697
100
AcDbEntity
8
0
100
AcDbCircle
62
7
6
CONTINUOUS
10
-28.5448378291
20
44.7732815643
40
1.0000000000
100
AcDbArc
50
0.0000000000
51
90.0000000000
0
ARC
5
698
100
AcDbEntity
8
0
100
AcDbCircle
62
7
6
CONTINUOUS
10
-39.5448378291
20
44.7732815643
40
1.0000000000
100
AcDbArc
50
90.0000000000
51
180.0000000000
0
ARC
5
699
100
AcDbEntity
8
0
100
AcDbCircle
62
7
6
CONTINUOUS
10
-39.5448378291
20
36.7732815643
40
1.0000000000
100
AcDbArc
50
180.0000000000
51
270.0000000000
0
ARC
5
69A
100
AcDbEntity
8
0
100
AcDbCircle
62
7
6
CONTINUOUS
10
-11.5448378291
20
36.7732815643
40
1.0000000000
100
AcDbArc
50
270.0000000000
51
360.0000000000
0
ARC
5
69B
100
AcDbEntity
8
0
100
AcDbCircle
62
7
6
CONTINUOUS
10
-11.5448378291
20
44.7732815643
40
1.0000000000
100
AcDbArc
50
0.0000000000
51
90.0000000000
0
ARC
5
69C
100
AcDbEntity
8
0
100
AcDbCircle
62
7
6
CONTINUOUS
10
-22.5448378291
20
44.7732815643
40
1.0000000000
100
AcDbArc
50
90.0000000000
51
180.0000000000
0
ARC
5
69D
100
AcDbEntity
8
0
100
AcDbCircle
62
7
6
CONTINUOUS
10
-22.5448378291
20
36.7732815643
40
1.0000000000
100
AcDbArc
50
180.0000000000
51
270.0000000000
0
ARC
5
69E
100
AcDbEntity
8
0
100
AcDbCircle
62
7
6
CONTINUOUS
10
5.4551621709
20
36.7732815643
40
1.0000000000
100
AcDbArc
50
270.0000000000
51
360.0000000000
0
ARC
5
69F
100
AcDbEntity
8
0
100
AcDbCircle
62
7
6
CONTINUOUS
10
5.4551621709
20
44.7732815643
40
1.0000000000
100
AcDbArc
50
0.0000000000
51
90.0000000000
0
ARC
5
6A0
100
AcDbEntity
8
0
100
AcDbCircle
62
7
6
CONTINUOUS
10
-5.5448378291
20
44.7732815643
40
1.0000000000
100
AcDbArc
50
90.0000000000
51
180.0000000000
0
ARC
5
6A1
100
AcDbEntity
8
0
100
AcDbCircle
62
7
6
CONTINUOUS
10
-5.5448378291
20
36.7732815643
40
1.0000000000
100
AcDbArc
50
180.0000000000
51
270.0000000000
0
ARC
5
6A2
100
AcDbEntity
8
0
100
AcDbCircle
62
7
6
CONTINUOUS
10
22.4551621709
20
36.7732815643
40
1.0000000000
100
AcDbArc
50
270.0000000000
51
360.0000000000
0
ARC
5
6A3
100
AcDbEntity
8
0
100
AcDbCircle
62
7
6
CONTINUOUS
10
22.4551621709
20
44.7732815643
40
1.0000000000
100
AcDbArc
50
0.0000000000
51
90.0000000000
0
ARC
5
6A4
100
AcDbEntity
8
0
100
AcDbCircle
62
7
6
CONTINUOUS
10
11.4551621709
20
44.7732815643
40
1.0000000000
100
AcDbArc
50
90.0000000000
51
180.0000000000
0
ARC
5
6A5
100
AcDbEntity
8
0
100
AcDbCircle
62
7
6
CONTINUOUS
10
11.4551621709
20
36.7732815643
40
1.0000000000
100
AcDbArc
50
180.0000000000
51
270.0000000000
0
ARC
5
6A6
100
AcDbEntity
8
0
100
AcDbCircle
62
7
6
CONTINUOUS
10
39.4551621709
20
36.7732815643
40
1.0000000000
100
AcDbArc
50
270.0000000000
51
360.0000000000
0
ARC
5
6A7
100
AcDbEntity
8
0
100
AcDbCircle
62
7
6
CONTINUOUS
10
39.4551621709
20
44.7732815643
40
1.0000000000
100
AcDbArc
50
0.0000000000
51
90.0000000000
0
ARC
5
6A8
100
AcDbEntity
8
0
100
AcDbCircle
62
7
6
CONTINUOUS
10
28.4551621709
20
44.7732815643
40
1.0000000000
100
AcDbArc
50
90.0000000000
51
180.0000000000
0
ARC
5
6A9
100
AcDbEntity
8
0
100
AcDbCircle
62
7
6
CONTINUOUS
10
28.4551621709
20
36.7732815643
40
1.0000000000
100
AcDbArc
50
180.0000000000
51
270.0000000000
0
ARC
5
6AA
100
AcDbEntity
8
0
100
AcDbCircle
62
7
6
CONTINUOUS
10
56.4551621709
20
36.7732815643
40
1.0000000000
100
AcDbArc
50
270.0000000000
51
360.0000000000
0
ARC
5
6AB
100
AcDbEntity
8
0
100
AcDbCircle
62
7
6
CONTINUOUS
10
56.4551621709
20
44.7732815643
40
1.0000000000
100
AcDbArc
50
0.0000000000
51
90.0000000000
0
ARC
5
6AC
100
AcDbEntity
8
0
100
AcDbCircle
62
7
6
CONTINUOUS
10
45.4551621709
20
44.7732815643
40
1.0000000000
100
AcDbArc
50
90.0000000000
51
180.0000000000
0
ARC
5
6AD
100
AcDbEntity
8
0
100
AcDbCircle
62
7
6
CONTINUOUS
10
45.4551621709
20
36.7732815643
40
1.0000000000
100
AcDbArc
50
180.0000000000
51
270.0000000000
0
ARC
5
6AE
100
AcDbEntity
8
0
100
AcDbCircle
62
7
6
CONTINUOUS
10
73.4551621709
20
36.7732815643
40
1.0000000000
100
AcDbArc
50
270.0000000000
51
360.0000000000
0
ARC
5
6AF
100
AcDbEntity
8
0
100
AcDbCircle
62
7
6
CONTINUOUS
10
73.4551621709
20
44.7732815643
40
1.0000000000
100
AcDbArc
50
0.0000000000
51
90.0000000000
0
ARC
5
6B0
100
AcDbEntity
8
0
100
AcDbCircle
62
7
6
CONTINUOUS
10
62.4551621709
20
44.7732815643
40
1.0000000000
100
AcDbArc
50
90.0000000000
51
180.0000000000
0
ARC
5
6B1
100
AcDbEntity
8
0
100
AcDbCircle
62
7
6
CONTINUOUS
10
62.4551621709
20
36.7732815643
40
1.0000000000
100
AcDbArc
50
180.0000000000
51
270.0000000000
0
ARC
5
6B2
100
AcDbEntity
8
0
100
AcDbCircle
62
7
6
CONTINUOUS
10
349.4551621709
20
44.7732815643
40
1.0000000000
100
AcDbArc
50
90.0000000000
51
180.0000000000
0
ARC
5
6B3
100
AcDbEntity
8
0
100
AcDbCircle
62
7
6
CONTINUOUS
10
360.4551621709
20
44.7732815643
40
1.0000000000
100
AcDbArc
50
0.0000000000
51
90.0000000000
0
ARC
5
6B4
100
AcDbEntity
8
0
100
AcDbCircle
62
7
6
CONTINUOUS
10
360.4551621709
20
36.7732815643
40
1.0000000000
100
AcDbArc
50
270.0000000000
51
360.0000000000
0
ARC
5
6B5
100
AcDbEntity
8
0
100
AcDbCircle
62
7
6
CONTINUOUS
10
349.4551621709
20
36.7732815643
40
1.0000000000
100
AcDbArc
50
180.0000000000
51
270.0000000000
0
ARC
5
6B6
100
AcDbEntity
8
0
100
AcDbCircle
62
7
6
CONTINUOUS
10
332.4551621709
20
44.7732815643
40
1.0000000000
100
AcDbArc
50
90.0000000000
51
180.0000000000
0
ARC
5
6B7
100
AcDbEntity
8
0
100
AcDbCircle
62
7
6
CONTINUOUS
10
343.4551621709
20
44.7732815643
40
1.0000000000
100
AcDbArc
50
0.0000000000
51
90.0000000000
0
ARC
5
6B8
100
AcDbEntity
8
0
100
AcDbCircle
62
7
6
CONTINUOUS
10
343.4551621709
20
36.7732815643
40
1.0000000000
100
AcDbArc
50
270.0000000000
51
360.0000000000
0
ARC
5
6B9
100
AcDbEntity
8
0
100
AcDbCircle
62
7
6
CONTINUOUS
10
332.4551621709
20
36.7732815643
40
1.0000000000
100
AcDbArc
50
180.0000000000
51
270.0000000000
0
ARC
5
6BA
100
AcDbEntity
8
0
100
AcDbCircle
62
7
6
CONTINUOUS
10
315.4551621709
20
44.7732815643
40
1.0000000000
100
AcDbArc
50
90.0000000000
51
180.0000000000
0
ARC
5
6BB
100
AcDbEntity
8
0
100
AcDbCircle
62
7
6
CONTINUOUS
10
326.4551621709
20
44.7732815643
40
1.0000000000
100
AcDbArc
50
0.0000000000
51
90.0000000000
0
ARC
5
6BC
100
AcDbEntity
8
0
100
AcDbCircle
62
7
6
CONTINUOUS
10
326.4551621709
20
36.7732815643
40
1.0000000000
100
AcDbArc
50
270.0000000000
51
360.0000000000
0
ARC
5
6BD
100
AcDbEntity
8
0
100
AcDbCircle
62
7
6
CONTINUOUS
10
315.4551621709
20
36.7732815643
40
1.0000000000
100
AcDbArc
50
180.0000000000
51
270.0000000000
0
ARC
5
6BE
100
AcDbEntity
8
0
100
AcDbCircle
62
7
6
CONTINUOUS
10
298.4551621709
20
44.7732815643
40
1.0000000000
100
AcDbArc
50
90.0000000000
51
180.0000000000
0
ARC
5
6BF
100
AcDbEntity
8
0
100
AcDbCircle
62
7
6
CONTINUOUS
10
309.4551621709
20
44.7732815643
40
1.0000000000
100
AcDbArc
50
0.0000000000
51
90.0000000000
0
ARC
5
6C0
100
AcDbEntity
8
0
100
AcDbCircle
62
7
6
CONTINUOUS
10
309.4551621709
20
36.7732815643
40
1.0000000000
100
AcDbArc
50
270.0000000000
51
360.0000000000
0
ARC
5
6C1
100
AcDbEntity
8
0
100
AcDbCircle
62
7
6
CONTINUOUS
10
298.4551621709
20
36.7732815643
40
1.0000000000
100
AcDbArc
50
180.0000000000
51
270.0000000000
0
ARC
5
6C2
100
AcDbEntity
8
0
100
AcDbCircle
62
7
6
CONTINUOUS
10
281.4551621709
20
44.7732815643
40
1.0000000000
100
AcDbArc
50
90.0000000000
51
180.0000000000
0
ARC
5
6C3
100
AcDbEntity
8
0
100
AcDbCircle
62
7
6
CONTINUOUS
10
292.4551621709
20
44.7732815643
40
1.0000000000
100
AcDbArc
50
0.0000000000
51
90.0000000000
0
ARC
5
6C4
100
AcDbEntity
8
0
100
AcDbCircle
62
7
6
CONTINUOUS
10
292.4551621709
20
36.7732815643
40
1.0000000000
100
AcDbArc
50
270.0000000000
51
360.0000000000
0
ARC
5
6C5
100
AcDbEntity
8
0
100
AcDbCircle
62
7
6
CONTINUOUS
10
281.4551621709
20
36.7732815643
40
1.0000000000
100
AcDbArc
50
180.0000000000
51
270.0000000000
0
ARC
5
6C6
100
AcDbEntity
8
0
100
AcDbCircle
62
7
6
CONTINUOUS
10
264.4551621709
20
44.7732815643
40
1.0000000000
100
AcDbArc
50
90.0000000000
51
180.0000000000
0
ARC
5
6C7
100
AcDbEntity
8
0
100
AcDbCircle
62
7
6
CONTINUOUS
10
275.4551621709
20
44.7732815643
40
1.0000000000
100
AcDbArc
50
0.0000000000
51
90.0000000000
0
ARC
5
6C8
100
AcDbEntity
8
0
100
AcDbCircle
62
7
6
CONTINUOUS
10
275.4551621709
20
36.7732815643
40
1.0000000000
100
AcDbArc
50
270.0000000000
51
360.0000000000
0
ARC
5
6C9
100
AcDbEntity
8
0
100
AcDbCircle
62
7
6
CONTINUOUS
10
264.4551621709
20
36.7732815643
40
1.0000000000
100
AcDbArc
50
180.0000000000
51
270.0000000000
0
ARC
5
6CA
100
AcDbEntity
8
0
100
AcDbCircle
62
7
6
CONTINUOUS
10
247.4551621709
20
44.7732815643
40
1.0000000000
100
AcDbArc
50
90.0000000000
51
180.0000000000
0
ARC
5
6CB
100
AcDbEntity
8
0
100
AcDbCircle
62
7
6
CONTINUOUS
10
258.4551621709
20
44.7732815643
40
1.0000000000
100
AcDbArc
50
0.0000000000
51
90.0000000000
0
ARC
5
6CC
100
AcDbEntity
8
0
100
AcDbCircle
62
7
6
CONTINUOUS
10
258.4551621709
20
36.7732815643
40
1.0000000000
100
AcDbArc
50
270.0000000000
51
360.0000000000
0
ARC
5
6CD
100
AcDbEntity
8
0
100
AcDbCircle
62
7
6
CONTINUOUS
10
247.4551621709
20
36.7732815643
40
1.0000000000
100
AcDbArc
50
180.0000000000
51
270.0000000000
0
ARC
5
6CE
100
AcDbEntity
8
0
100
AcDbCircle
62
7
6
CONTINUOUS
10
230.4551621709
20
44.7732815643
40
1.0000000000
100
AcDbArc
50
90.0000000000
51
180.0000000000
0
ARC
5
6CF
100
AcDbEntity
8
0
100
AcDbCircle
62
7
6
CONTINUOUS
10
241.4551621709
20
44.7732815643
40
1.0000000000
100
AcDbArc
50
0.0000000000
51
90.0000000000
0
ARC
5
6D0
100
AcDbEntity
8
0
100
AcDbCircle
62
7
6
CONTINUOUS
10
241.4551621709
20
36.7732815643
40
1.0000000000
100
AcDbArc
50
270.0000000000
51
360.0000000000
0
ARC
5
6D1
100
AcDbEntity
8
0
100
AcDbCircle
62
7
6
CONTINUOUS
10
230.4551621709
20
36.7732815643
40
1.0000000000
100
AcDbArc
50
180.0000000000
51
270.0000000000
0
ARC
5
6D2
100
AcDbEntity
8
0
100
AcDbCircle
62
7
6
CONTINUOUS
10
147.4551621709
20
36.7732815643
40
1.0000000000
100
AcDbArc
50
270.0000000000
51
360.0000000000
0
ARC
5
6D3
100
AcDbEntity
8
0
100
AcDbCircle
62
7
6
CONTINUOUS
10
147.4551621709
20
44.7732815643
40
1.0000000000
100
AcDbArc
50
0.0000000000
51
90.0000000000
0
ARC
5
6D4
100
AcDbEntity
8
0
100
AcDbCircle
62
7
6
CONTINUOUS
10
130.4551621709
20
36.7732815643
40
1.0000000000
100
AcDbArc
50
270.0000000000
51
360.0000000000
0
ARC
5
6D5
100
AcDbEntity
8
0
100
AcDbCircle
62
7
6
CONTINUOUS
10
130.4551621709
20
44.7732815643
40
1.0000000000
100
AcDbArc
50
0.0000000000
51
90.0000000000
0
ARC
5
6D6
100
AcDbEntity
8
0
100
AcDbCircle
62
7
6
CONTINUOUS
10
113.4551621709
20
36.7732815643
40
1.0000000000
100
AcDbArc
50
270.0000000000
51
360.0000000000
0
ARC
5
6D7
100
AcDbEntity
8
0
100
AcDbCircle
62
7
6
CONTINUOUS
10
113.4551621709
20
44.7732815643
40
1.0000000000
100
AcDbArc
50
0.0000000000
51
90.0000000000
0
ARC
5
6D8
100
AcDbEntity
8
0
100
AcDbCircle
62
7
6
CONTINUOUS
10
96.4551621709
20
36.7732815643
40
1.0000000000
100
AcDbArc
50
270.0000000000
51
360.0000000000
0
ARC
5
6D9
100
AcDbEntity
8
0
100
AcDbCircle
62
7
6
CONTINUOUS
10
96.4551621709
20
44.7732815643
40
1.0000000000
100
AcDbArc
50
0.0000000000
51
90.0000000000
0
ARC
5
6DA
100
AcDbEntity
8
0
100
AcDbCircle
62
7
6
CONTINUOUS
10
215.4551621709
20
36.7732815643
40
1.0000000000
100
AcDbArc
50
270.0000000000
51
360.0000000000
0
ARC
5
6DB
100
AcDbEntity
8
0
100
AcDbCircle
62
7
6
CONTINUOUS
10
215.4551621709
20
44.7732815643
40
1.0000000000
100
AcDbArc
50
0.0000000000
51
90.0000000000
0
ARC
5
6DC
100
AcDbEntity
8
0
100
AcDbCircle
62
7
6
CONTINUOUS
10
198.4551621709
20
36.7732815643
40
1.0000000000
100
AcDbArc
50
270.0000000000
51
360.0000000000
0
ARC
5
6DD
100
AcDbEntity
8
0
100
AcDbCircle
62
7
6
CONTINUOUS
10
198.4551621709
20
44.7732815643
40
1.0000000000
100
AcDbArc
50
0.0000000000
51
90.0000000000
0
ARC
5
6DE
100
AcDbEntity
8
0
100
AcDbCircle
62
7
6
CONTINUOUS
10
181.4551621709
20
36.7732815643
40
1.0000000000
100
AcDbArc
50
270.0000000000
51
360.0000000000
0
ARC
5
6DF
100
AcDbEntity
8
0
100
AcDbCircle
62
7
6
CONTINUOUS
10
181.4551621709
20
44.7732815643
40
1.0000000000
100
AcDbArc
50
0.0000000000
51
90.0000000000
0
ARC
5
6E0
100
AcDbEntity
8
0
100
AcDbCircle
62
7
6
CONTINUOUS
10
164.4551621709
20
44.7732815643
40
1.0000000000
100
AcDbArc
50
0.0000000000
51
90.0000000000
0
ARC
5
6E1
100
AcDbEntity
8
0
100
AcDbCircle
62
7
6
CONTINUOUS
10
164.4551621709
20
36.7732815643
40
1.0000000000
100
AcDbArc
50
270.0000000000
51
360.0000000000
0
ARC
5
6E2
100
AcDbEntity
8
0
100
AcDbCircle
62
7
6
CONTINUOUS
10
119.4551621709
20
36.7732815643
40
1.0000000000
100
AcDbArc
50
180.0000000000
51
270.0000000000
0
ARC
5
6E3
100
AcDbEntity
8
0
100
AcDbCircle
62
7
6
CONTINUOUS
10
136.4551621709
20
36.7732815643
40
1.0000000000
100
AcDbArc
50
180.0000000000
51
270.0000000000
0
ARC
5
6E4
100
AcDbEntity
8
0
100
AcDbCircle
62
7
6
CONTINUOUS
10
153.4551621709
20
36.7732815643
40
1.0000000000
100
AcDbArc
50
180.0000000000
51
270.0000000000
0
ARC
5
6E5
100
AcDbEntity
8
0
100
AcDbCircle
62
7
6
CONTINUOUS
10
170.4551621709
20
36.7732815643
40
1.0000000000
100
AcDbArc
50
180.0000000000
51
270.0000000000
0
ARC
5
6E6
100
AcDbEntity
8
0
100
AcDbCircle
62
7
6
CONTINUOUS
10
187.4551621709
20
36.7732815643
40
1.0000000000
100
AcDbArc
50
180.0000000000
51
270.0000000000
0
ARC
5
6E7
100
AcDbEntity
8
0
100
AcDbCircle
62
7
6
CONTINUOUS
10
204.4551621709
20
36.7732815643
40
1.0000000000
100
AcDbArc
50
180.0000000000
51
270.0000000000
0
ARC
5
6E8
100
AcDbEntity
8
0
100
AcDbCircle
62
7
6
CONTINUOUS
10
204.4551621709
20
44.7732815643
40
1.0000000000
100
AcDbArc
50
90.0000000000
51
180.0000000000
0
ARC
5
6E9
100
AcDbEntity
8
0
100
AcDbCircle
62
7
6
CONTINUOUS
10
187.4551621709
20
44.7732815643
40
1.0000000000
100
AcDbArc
50
90.0000000000
51
180.0000000000
0
ARC
5
6EA
100
AcDbEntity
8
0
100
AcDbCircle
62
7
6
CONTINUOUS
10
170.4551621709
20
44.7732815643
40
1.0000000000
100
AcDbArc
50
90.0000000000
51
180.0000000000
0
ARC
5
6EB
100
AcDbEntity
8
0
100
AcDbCircle
62
7
6
CONTINUOUS
10
153.4551621709
20
44.7732815643
40
1.0000000000
100
AcDbArc
50
90.0000000000
51
180.0000000000
0
ARC
5
6EC
100
AcDbEntity
8
0
100
AcDbCircle
62
7
6
CONTINUOUS
10
136.4551621709
20
44.7732815643
40
1.0000000000
100
AcDbArc
50
90.0000000000
51
180.0000000000
0
ARC
5
6ED
100
AcDbEntity
8
0
100
AcDbCircle
62
7
6
CONTINUOUS
10
119.4551621709
20
44.7732815643
40
1.0000000000
100
AcDbArc
50
90.0000000000
51
180.0000000000
0
ARC
5
6EE
100
AcDbEntity
8
0
100
AcDbCircle
62
7
6
CONTINUOUS
10
102.4551621709
20
36.7732815643
40
1.0000000000
100
AcDbArc
50
180.0000000000
51
270.0000000000
0
ARC
5
6EF
100
AcDbEntity
8
0
100
AcDbCircle
62
7
6
CONTINUOUS
10
102.4551621709
20
44.7732815643
40
1.0000000000
100
AcDbArc
50
90.0000000000
51
180.0000000000
0
ARC
5
6F0
100
AcDbEntity
8
0
100
AcDbCircle
62
7
6
CONTINUOUS
10
85.4551621709
20
44.7732815643
40
1.0000000000
100
AcDbArc
50
90.0000000000
51
180.0000000000
0
ARC
5
6F1
100
AcDbEntity
8
0
100
AcDbCircle
62
7
6
CONTINUOUS
10
85.4551621709
20
36.7732815643
40
1.0000000000
100
AcDbArc
50
180.0000000000
51
270.0000000000
0
ARC
5
6F2
100
AcDbEntity
8
0
100
AcDbCircle
62
7
6
CONTINUOUS
10
-188.1667721987
20
-85.2267184357
40
2.0000000000
100
AcDbArc
50
180.0000000000
51
194.4775121859
0
ARC
5
6F3
100
AcDbEntity
8
0
100
AcDbCircle
62
7
6
CONTINUOUS
10
-147.6667721987
20
-85.2267184357
40
2.0000000000
100
AcDbArc
50
345.5224878141
51
360.0000000000
0
ARC
5
6F4
100
AcDbEntity
8
0
100
AcDbCircle
62
7
6
CONTINUOUS
10
-147.6667721987
20
-85.2267184357
40
0.5000000000
100
AcDbArc
50
300.0000000000
51
360.0000000000
0
ARC
5
6F5
100
AcDbEntity
8
0
100
AcDbCircle
62
7
6
CONTINUOUS
10
-188.1667721987
20
-85.2267184357
40
0.5000000000
100
AcDbArc
50
180.0000000000
51
270.0000000000
0
ARC
5
6F6
100
AcDbEntity
8
0
100
AcDbCircle
62
7
6
CONTINUOUS
10
-159.3016741472
20
61.2732815643
40
3.0000000000
100
AcDbArc
50
8.0000000000
51
90.0000000000
0
ARC
5
6F7
100
AcDbEntity
8
0
100
AcDbCircle
62
7
6
CONTINUOUS
10
-183.1667721987
20
-11.4693591229
40
3.0000000000
100
AcDbArc
50
135.0000000000
51
180.0000000000
0
ARC
5
6F8
100
AcDbEntity
8
0
100
AcDbCircle
62
7
6
CONTINUOUS
10
-166.4667721987
20
14.1732815643
40
3.0000000000
100
AcDbArc
50
180.0000000000
51
270.0000000000
0
ARC
5
6F9
100
AcDbEntity
8
0
100
AcDbCircle
62
7
6
CONTINUOUS
10
-166.4667721987
20
62.8732815643
40
3.0000000000
100
AcDbArc
50
90.0000000000
51
180.0000000000
0
ARC
5
6FA
100
AcDbEntity
8
0
100
AcDbCircle
62
7
6
CONTINUOUS
10
-146.6667721987
20
-86.2267184357
40
1.0000000000
100
AcDbArc
50
270.0000000001
51
360.0000000000
0
ARC
5
6FB
100
AcDbEntity
8
0
100
AcDbCircle
62
7
6
CONTINUOUS
10
-189.1667721987
20
-86.2267184357
40
1.0000000000
100
AcDbArc
50
180.0000000000
51
269.9999999999
0
ARC
5
6FC
100
AcDbEntity
8
0
100
AcDbCircle
62
9
6
CONTINUOUS
10
-160.4167721987
20
28.5232815643
40
4.2500000000
100
AcDbArc
50
0.0000231845
51
180.0000000014
0
ARC
5
6FD
100
AcDbEntity
8
0
100
AcDbCircle
62
9
6
CONTINUOUS
10
-160.4167721987
20
-50.9767184357
40
4.2500000000
100
AcDbArc
50
180.0000224318
51
359.9999998313
0
ARC
5
6FE
100
AcDbEntity
8
0
100
AcDbCircle
62
7
6
CONTINUOUS
10
-160.4167721987
20
-50.9767184357
40
1.7842343988
100
AcDbArc
50
180.0000000000
51
360.0000000000
0
ARC
5
6FF
100
AcDbEntity
8
0
100
AcDbCircle
62
7
6
CONTINUOUS
10
-160.4167721987
20
28.5232815643
40
1.7842343988
100
AcDbArc
50
0.0000000000
51
180.0000000000
0
ENDSEC
0
SECTION
2
OBJECTS
0
DICTIONARY
5
C
100
AcDbDictionary
280
0
281
1
3
ACAD_GROUP
350
D
3
ACAD_MLINESTYLE
350
17
3
ACAD_LAYOUT
350
1A
3
ACAD_PLOTSETTINGS
350
19
3
ACAD_PLOTSTYLENAME
350
E
0
DICTIONARY
5
D
102
{ACAD_REACTORS
330
C
102
}
100
AcDbDictionary
280
0
281
1
0
ACDBDICTIONARYWDFLT
5
E
102
{ACAD_REACTORS
330
C
102
}
100
AcDbDictionary
281
1
3
Normal
350
F
100
AcDbDictionaryWithDefault
340
F
0
DICTIONARY
5
17
102
{ACAD_REACTORS
330
C
102
}
100
AcDbDictionary
280
0
281
1
3
Standard
350
18
0
DICTIONARY
5
19
102
{ACAD_REACTORS
330
C
102
}
100
AcDbDictionary
281
1
0
DICTIONARY
5
1A
102
{ACAD_REACTORS
330
C
102
}
100
AcDbDictionary
281
1
3
Layout1
350
1E
3
Model
350
22
0
ACDBPLACEHOLDER
5
F
102
{ACAD_REACTORS
330
E
102
}
0
MLINESTYLE
5
18
102
{ACAD_REACTORS
330
17
102
}
100
AcDbMlineStyle
2
STANDARD
70
0
3

62
256
51
90.0
52
90.0
71
2
49
0.5
62
256
6
BYLAYER
49
-0.5
62
256
6
BYLAYER
0
LAYOUT
5
1E
102
{ACAD_REACTORS
330
1A
102
}
100
AcDbPlotSettings
1

2

4

6

40
0.0
41
0.0
42
0.0
43
0.0
44
0.0
45
0.0
46
0.0
47
0.0
48
0.0
49
0.0
140
0.0
141
0.0
142
1.0
143
1.0
70
0
72
0
73
0
74
0
7

75
0
147
1.0
148
0.0
149
0.0
100
AcDbLayout
1
Layout1
70
0
71
0
10
0.0
20
0.0
11
0.0
21
0.0
12
0.0
22
0.0
32
0.0
14
0.0
24
0.0
34
0.0
15
0.0
25
0.0
35
0.0
146
0.0
13
0.0
23
0.0
33
0.0
16
0.0
26
0.0
36
0.0
17
0.0
27
0.0
37
0.0
76
0
330
1B
331
0
345
0
346
0
0
LAYOUT
5
22
102
{ACAD_REACTORS
330
1A
102
}
100
AcDbPlotSettings
1

2

4

6

40
0.0
41
0.0
42
0.0
43
0.0
44
0.0
45
0.0
46
0.0
47
0.0
48
0.0
49
0.0
140
0.0
141
0.0
142
1.0
143
1.0
70
0
72
0
73
0
74
0
7

75
0
147
1.0
148
0.0
149
0.0
100
AcDbLayout
1
Model
70
0
71
0
10
0.0
20
0.0
11
0.0
21
0.0
12
0.0
22
0.0
32
0.0
14
0.0
24
0.0
34
0.0
15
0.0
25
0.0
35
0.0
146
0.0
13
0.0
23
0.0
33
0.0
16
0.0
26
0.0
36
0.0
17
0.0
27
0.0
37
0.0
76
0
330
1F
331
0
345
0
346
0
0
ENDSEC
0
EOF
