0
SECTION
2
HEADER
9
$ACADVER
1
AC1015
9
$DWGCODEPAGE
3
ANSI_1252
9
$EXTMAX
10
297.0000000000
20
210.0000000000
30
0.0000000000
9
$EXTMIN
10
0.0000000000
20
0.0000000000
30
0.0000000000
9
$LIMMIN
10
0.0000000000
20
0.0000000000
9
$LIMMAX
10
297.0000000000
20
210.0000000000
9
$VIEWCTR
10
148.5000000000
20
105.0000000000
9
$VIEWSIZE
40
210.0000000000
9
$CLAYER
8
0
9
$LTSCALE
40
16.3350000000
9
$CELTYPE
6
BYLAYER
9
$DIMSCALE
40
1
9
$DIMASZ
40
3.0000000000
9
$DIMEXO
40
1.8562500000
9
$DIMDLI
40
11.2860000000
9
$DIMEXE
40
5.3460000000
9
$DIMCEN
40
2.6730000000
9
$DIMLFAC
40
1.0000000000
9
$DIMBLK
1
_FILLED
9
$DIMTXT
40
3.0000000000
9
$DIMTOL
70
1
9
$DIMLIM
70
0
9
$DIMTFAC
40
1.0000000000
9
$DIMTP
40
0.0100000000
9
$DIMTM
40
0.0100000000
9
$PDMODE
70
3
9
$PDSIZE
40
3.0000000000
9
$HANDSEED
5
2CB
9
$MEASUREMENT
70
1
9
$INSUNITS
70
4
0
ENDSEC
0
SECTION
2
CLASSES
0
CLASS
1
ACDBDICTIONARYWDFLT
2
AcDbDictionaryWithDefault
3
AutoCAD 2000
90
0
280
0
281
0
0
CLASS
1
ACDBPLACEHOLDER
2
AcDbPlaceHolder
3
AutoCAD 2000
90
0
280
0
281
0
0
CLASS
1
LAYOUT
2
AcDbLayout
3
AutoCAD 2000
90
0
280
0
281
0
0
ENDSEC
0
SECTION
2
TABLES
0
TABLE
2
VPORT
5
8
100
AcDbSymbolTable
70
2
0
VPORT
5
1F4
100
AcDbSymbolTableRecord
100
AcDbViewportTableRecord
2
*ACTIVE
70
0
10
0.0
20
0.0
11
1.0
21
1.0
12
148.5000000000
22
105.0000000000
13
0.0
23
0.0
14
1.0
24
1.0
15
0.0
25
0.0
16
0.0
26
0.0
36
1.0
17
0.0
27
0.0
37
0.0
40
210.0000000000
41
1.4142857143
42
50.0
43
0.0
44
0.0
50
0.0
51
0.0
71
0
72
100
73
1
74
1
75
0
76
0
77
0
78
0
0
ENDTAB
0
TABLE
2
LTYPE
5
5
100
AcDbSymbolTable
70
6
0
LTYPE
5
14
100
AcDbSymbolTableRecord
100
AcDbLinetypeTableRecord
2
BYBLOCK
70
0
3

72
65
73
0
40
0.0
0
LTYPE
5
15
100
AcDbSymbolTableRecord
100
AcDbLinetypeTableRecord
2
BYLAYER
70
0
3

72
65
73
0
40
0.0
0
LTYPE
5
16
100
AcDbSymbolTableRecord
100
AcDbLinetypeTableRecord
2
CONTINUOUS
70
64
3
Solid line
72
65
73
0
40
0
0
LTYPE
5
1F5
100
AcDbSymbolTableRecord
100
AcDbLinetypeTableRecord
2
CENTER
70
64
3
____ _ ____ _ ____ _ ____ _ ____ _ ____ _ ____
72
65
73
4
40
0.6
49
0.375
74
0
49
-0.075
74
0
49
0.075
74
0
49
-0.075
74
0
0
LTYPE
5
1F6
100
AcDbSymbolTableRecord
100
AcDbLinetypeTableRecord
2
HIDDEN
70
64
3
- - - - - - - - - - - - - - - - - - - -
72
65
73
2
40
0.2
49
0.1
74
0
49
-0.1
74
0
0
LTYPE
5
1F7
100
AcDbSymbolTableRecord
100
AcDbLinetypeTableRecord
2
PHANTOM
70
64
3
_____ _ _ _____ _ _ _____ _ _ _____
72
65
73
6
40
0.8
49
0.45
74
0
49
-0.05
74
0
49
0.1
74
0
49
-0.05
74
0
49
0.1
74
0
49
-0.05
74
0
0
LTYPE
5
1F8
100
AcDbSymbolTableRecord
100
AcDbLinetypeTableRecord
2
DOT
70
64
3
. . . . . . . . . . . . . . . . . . . .
72
65
73
2
40
0.2
49
0.1
74
0
49
-0.1
74
0
0
LTYPE
5
1F9
100
AcDbSymbolTableRecord
100
AcDbLinetypeTableRecord
2
DASHED
70
64
3
- - - - - - - - - - - - - - - - - - - -
72
65
73
2
40
0.2
49
0.1
74
0
49
-0.1
74
0
0
ENDTAB
0
TABLE
2
LAYER
5
2
100
AcDbSymbolTable
70
36
0
LAYER
5
10
100
AcDbSymbolTableRecord
100
AcDbLayerTableRecord
2
0
70
0
62
7
6
CONTINUOUS
370
-3
390
F
0
LAYER
5
1FA
100
AcDbSymbolTableRecord
100
AcDbLayerTableRecord
2
DEFAULT_1
70
0
62
7
6
CENTER
370
-3
390
F
0
LAYER
5
1FB
100
AcDbSymbolTableRecord
100
AcDbLayerTableRecord
2
DEFAULT_2
70
0
62
8
6
HIDDEN
370
-3
390
F
0
LAYER
5
1FC
100
AcDbSymbolTableRecord
100
AcDbLayerTableRecord
2
DEFAULT_3
70
0
62
7
6
PHANTOM
370
-3
390
F
0
LAYER
5
1FD
100
AcDbSymbolTableRecord
100
AcDbLayerTableRecord
2
ASSI
70
0
62
7
6
CONTINUOUS
370
-3
390
F
0
LAYER
5
1FE
100
AcDbSymbolTableRecord
100
AcDbLayerTableRecord
2
COORDINATE
70
0
62
7
6
CONTINUOUS
370
-3
390
F
0
LAYER
5
1FF
100
AcDbSymbolTableRecord
100
AcDbLayerTableRecord
2
COORD_ORIGINE
70
0
62
7
6
CONTINUOUS
370
-3
390
F
0
LAYER
5
200
100
AcDbSymbolTableRecord
100
AcDbLayerTableRecord
2
CURVE
70
0
62
7
6
CONTINUOUS
370
-3
390
F
0
LAYER
5
201
100
AcDbSymbolTableRecord
100
AcDbLayerTableRecord
2
NOTE
70
0
62
7
6
CONTINUOUS
370
-3
390
F
0
LAYER
5
202
100
AcDbSymbolTableRecord
100
AcDbLayerTableRecord
2
PIANI
70
0
62
7
6
CONTINUOUS
370
-3
390
F
0
LAYER
5
203
100
AcDbSymbolTableRecord
100
AcDbLayerTableRecord
2
PIANI_ORIGINE
70
0
62
7
6
CONTINUOUS
370
-3
390
F
0
LAYER
5
204
100
AcDbSymbolTableRecord
100
AcDbLayerTableRecord
2
RACCORDO
70
0
62
7
6
CONTINUOUS
370
-3
390
F
0
LAYER
5
205
100
AcDbSymbolTableRecord
100
AcDbLayerTableRecord
2
SNAPLINE
70
0
62
7
6
CONTINUOUS
370
-3
390
F
0
LAYER
5
206
100
AcDbSymbolTableRecord
100
AcDbLayerTableRecord
2
TRASH
70
0
62
7
6
CONTINUOUS
370
-3
390
F
0
ENDTAB
0
TABLE
2
STYLE
5
3
100
AcDbSymbolTable
70
1
0
STYLE
5
11
100
AcDbSymbolTableRecord
100
AcDbTextStyleTableRecord
2
STANDARD
70
0
40
0.0
41
0.8000000000
50
0.0
71
0
42
0.2
3
txt
4

0
ENDTAB
0
TABLE
2
VIEW
5
6
100
AcDbSymbolTable
70
0
0
ENDTAB
0
TABLE
2
UCS
5
7
100
AcDbSymbolTable
70
0
0
ENDTAB
0
TABLE
2
APPID
5
9
100
AcDbSymbolTable
70
1
0
APPID
5
207
100
AcDbSymbolTableRecord
100
AcDbRegAppTableRecord
2
ACAD
70
0
0
ENDTAB
0
TABLE
2
BLOCK_RECORD
5
1
100
AcDbSymbolTable
70
0
0
BLOCK_RECORD
5
1F
100
AcDbSymbolTableRecord
100
AcDbBlockTableRecord
2
*MODEL_SPACE
0
BLOCK_RECORD
5
1B
100
AcDbSymbolTableRecord
100
AcDbBlockTableRecord
2
*PAPER_SPACE
0
BLOCK_RECORD
5
208
100
AcDbSymbolTableRecord
100
AcDbBlockTableRecord
2
_FILLED
0
BLOCK_RECORD
5
209
100
AcDbSymbolTableRecord
100
AcDbBlockTableRecord
2
*D0
0
BLOCK_RECORD
5
20A
100
AcDbSymbolTableRecord
100
AcDbBlockTableRecord
2
*D1
0
BLOCK_RECORD
5
20B
100
AcDbSymbolTableRecord
100
AcDbBlockTableRecord
2
*D2
0
ENDTAB
0
TABLE
2
DIMSTYLE
5
A
100
AcDbSymbolTable
70
1
100
AcDbDimStyleTable
71
0
0
DIMSTYLE
105
20C
100
AcDbSymbolTableRecord
100
AcDbDimStyleTableRecord
2
STANDARD
70
0
3

4

40
1.0
41
3.0000000000
42
0.0625
43
0.38
44
0.18
45
0.0
46
0.0
47
0.0100000000
48
0.0100000000
140
3.0000000000
141
0.09
142
0.0
143
25.4
144
1.0000000000
145
0.0
146
1.0000000000
147
0.09
71
1
72
0
73
0
74
0
75
0
76
0
77
1
78
8
170
0
171
2
172
0
173
0
174
0
175
0
176
0
177
0
178
0
270
2
271
2
272
2
273
2
274
2
275
0
280
0
281
0
282
0
283
1
284
8
285
0
286
0
287
3
288
0
340
11
341
208
342
208
343
208
344
208
0
DIMSTYLE
105
20D
100
AcDbSymbolTableRecord
100
AcDbDimStyleTableRecord
2
DIMSTYLE_1
70
0
3

4

40
1.0
41
3.0000000000
42
0.0625
43
0.38
44
0.18
45
0.0
46
0.0
47
0.0000000000
48
0.0000000000
140
3.0000000000
141
0.09
142
0.0
143
25.4
144
1.0000000000
145
0.0
146
1.0000000000
147
0.09
71
0
72
0
73
0
74
0
75
0
76
0
77
1
78
8
170
0
171
2
172
0
173
0
174
0
175
0
176
0
177
0
178
0
270
2
271
2
272
2
273
2
274
2
275
0
280
0
281
0
282
0
283
1
284
8
285
0
286
0
287
3
288
0
340
11
341
208
342
208
343
208
344
208
0
ENDTAB
0
ENDSEC
0
SECTION
2
BLOCKS
0
BLOCK
5
20
100
AcDbEntity
8
0
100
AcDbBlockBegin
2
*MODEL_SPACE
70
0
10
0.0
20
0.0
30
0.0
3
*MODEL_SPACE
1

0
ENDBLK
5
21
100
AcDbEntity
8
0
100
AcDbBlockEnd
0
BLOCK
5
1C
100
AcDbEntity
8
0
100
AcDbBlockBegin
2
*PAPER_SPACE
70
0
10
0.0
20
0.0
30
0.0
3
*PAPER_SPACE
1

0
ENDBLK
5
1D
100
AcDbEntity
8
0
100
AcDbBlockEnd
0
BLOCK
5
20E
100
AcDbEntity
8
0
100
AcDbBlockBegin
62
2
6
CONTINUOUS
2
*D0
70
65
10
0.0000000000
20
0.0000000000
3
*D0
1

0
TEXT
5
20F
100
AcDbEntity
8
0
100
AcDbText
62
2
6
CONTINUOUS
10
-0.8016911603
20
41.3581566663
7
STANDARD
40
3.0000000000
1
482
41
0.7857142857
72
0
100
AcDbText
0
LINE
5
210
100
AcDbEntity
8
0
100
AcDbLine
62
2
6
CONTINUOUS
10
243.2853967168
20
31.1081566032
11
243.2853967168
21
42.1081566663
0
LINE
5
211
100
AcDbEntity
8
0
100
AcDbLine
62
2
6
CONTINUOUS
10
-238.7146032832
20
31.1081566032
11
-238.7146032832
21
42.1081566663
0
LINE
5
212
100
AcDbEntity
8
0
100
AcDbLine
62
2
6
CONTINUOUS
10
243.2853967168
20
40.6081566663
11
2.2853967168
21
40.6081566663
0
LINE
5
213
100
AcDbEntity
8
0
100
AcDbLine
62
2
6
CONTINUOUS
10
-238.7146032832
20
40.6081566663
11
2.2853967168
21
40.6081566663
0
INSERT
5
214
100
AcDbEntity
8
0
100
AcDbBlockReference
62
2
6
CONTINUOUS
2
_FILLED
10
243.2853967168
20
40.6081566663
41
  3.000000
42
  3.000000
43
  3.000000
0
INSERT
5
215
100
AcDbEntity
8
0
100
AcDbBlockReference
62
2
6
CONTINUOUS
2
_FILLED
10
-238.7146032832
20
40.6081566663
41
  3.000000
42
  3.000000
43
  3.000000
50
180.000000
0
ENDBLK
5
216
100
AcDbEntity
8
0
6
BYBLOCK
62
0
100
AcDbBlockEnd
0
BLOCK
5
217
100
AcDbEntity
8
0
100
AcDbBlockBegin
62
2
6
CONTINUOUS
2
*D1
70
65
10
0.0000000000
20
0.0000000000
3
*D1
1

0
TEXT
5
218
100
AcDbEntity
8
0
100
AcDbText
62
2
6
CONTINUOUS
10
252.5353967168
20
0.0136240037
7
STANDARD
40
3.0000000000
1
60
50
90.0000000000
41
0.7857142857
72
0
100
AcDbText
0
LINE
5
219
100
AcDbEntity
8
0
100
AcDbLine
62
2
6
CONTINUOUS
10
239.7853967168
20
30.6081566032
11
254.7853967168
21
30.6081566032
0
LINE
5
21A
100
AcDbEntity
8
0
100
AcDbLine
62
2
6
CONTINUOUS
10
208.0291440018
20
-29.3918433968
11
254.7853967168
21
-29.3918433968
0
LINE
5
21B
100
AcDbEntity
8
0
100
AcDbLine
62
2
6
CONTINUOUS
10
253.2853967168
20
30.6081566032
11
253.2853967168
21
0.6081566032
0
LINE
5
21C
100
AcDbEntity
8
0
100
AcDbLine
62
2
6
CONTINUOUS
10
253.2853967168
20
-29.3918433968
11
253.2853967168
21
0.6081566032
0
INSERT
5
21D
100
AcDbEntity
8
0
100
AcDbBlockReference
62
2
6
CONTINUOUS
2
_FILLED
10
253.2853967168
20
30.6081566032
41
  3.000000
42
  3.000000
43
  3.000000
50
 90.000000
0
INSERT
5
21E
100
AcDbEntity
8
0
100
AcDbBlockReference
62
2
6
CONTINUOUS
2
_FILLED
10
253.2853967168
20
-29.3918433968
41
  3.000000
42
  3.000000
43
  3.000000
50
270.000000
0
ENDBLK
5
21F
100
AcDbEntity
8
0
6
BYBLOCK
62
0
100
AcDbBlockEnd
0
BLOCK
5
220
100
AcDbEntity
8
0
100
AcDbBlockBegin
62
2
6
CONTINUOUS
2
*D2
70
65
10
0.0000000000
20
0.0000000000
3
*D2
1

0
TEXT
5
221
100
AcDbEntity
8
0
100
AcDbText
62
2
6
CONTINUOUS
10
-312.8727518865
20
41.3581566663
7
STANDARD
40
3.0000000000
1
44
41
0.7857142857
72
0
100
AcDbText
0
LINE
5
222
100
AcDbEntity
8
0
100
AcDbLine
62
2
6
CONTINUOUS
10
-288.1717228962
20
29.1081566032
11
-288.1717228962
21
42.1081566663
0
LINE
5
223
100
AcDbEntity
8
0
100
AcDbLine
62
2
6
CONTINUOUS
10
-332.1717228962
20
24.1081566032
11
-332.1717228962
21
42.1081566663
0
LINE
5
224
100
AcDbEntity
8
0
100
AcDbLine
62
2
6
CONTINUOUS
10
-288.1717228962
20
40.6081566663
11
-310.1717228962
21
40.6081566663
0
LINE
5
225
100
AcDbEntity
8
0
100
AcDbLine
62
2
6
CONTINUOUS
10
-332.1717228962
20
40.6081566663
11
-310.1717228962
21
40.6081566663
0
INSERT
5
226
100
AcDbEntity
8
0
100
AcDbBlockReference
62
2
6
CONTINUOUS
2
_FILLED
10
-288.1717228962
20
40.6081566663
41
  3.000000
42
  3.000000
43
  3.000000
50
360.000000
0
INSERT
5
227
100
AcDbEntity
8
0
100
AcDbBlockReference
62
2
6
CONTINUOUS
2
_FILLED
10
-332.1717228962
20
40.6081566663
41
  3.000000
42
  3.000000
43
  3.000000
50
180.000000
0
ENDBLK
5
228
100
AcDbEntity
8
0
6
BYBLOCK
62
0
100
AcDbBlockEnd
0
BLOCK
5
229
100
AcDbEntity
8
0
100
AcDbBlockBegin
2
_FILLED
70
64
10
0.0000000000
20
0.0000000000
3
_FILLED
1

0
SOLID
5
22A
100
AcDbEntity
8
0
6
BYBLOCK
62
0
100
AcDbTrace
10
0.0000000000
20
0.0000000000
11
-1.0000000000
21
0.3166666667
12
-1.0000000000
22
-0.3166666667
13
-1.0000000000
23
-0.3166666667
0
ENDBLK
5
22B
100
AcDbEntity
8
0
6
BYBLOCK
62
0
100
AcDbBlockEnd
0
ENDSEC
0
SECTION
2
ENTITIES
0
DIMENSION
5
22C
100
AcDbEntity
8
0
100
AcDbDimension
62
2
6
CONTINUOUS
2
*D0
10
-238.7146032832
20
40.6081566663
11
2.7340231254
21
42.8581566663
70
160
3
DIMSTYLE_1
100
AcDbAlignedDimension
13
243.2853967168
23
31.1081566032
14
-238.7146032832
24
31.1081566032
50
180.000000
100
AcDbRotatedDimension
0
DIMENSION
5
22D
100
AcDbEntity
8
0
100
AcDbDimension
62
2
6
CONTINUOUS
2
*D1
10
253.2853967168
20
-29.3918433968
11
251.0353967168
21
2.3707668609
70
160
3
DIMSTYLE_1
100
AcDbAlignedDimension
13
239.7853967168
23
30.6081566032
14
208.0291440018
24
-29.3918433968
50
270.000000
100
AcDbRotatedDimension
0
DIMENSION
5
22E
100
AcDbEntity
8
0
100
AcDbDimension
62
2
6
CONTINUOUS
2
*D2
10
-332.1717228962
20
40.6081566663
11
-310.5156090293
21
42.8581566663
70
160
3
DIMSTYLE_1
100
AcDbAlignedDimension
13
-288.1717228962
23
29.1081566032
14
-332.1717228962
24
24.1081566032
50
180.000000
100
AcDbRotatedDimension
0
LINE
5
22F
100
AcDbEntity
8
0
100
AcDbLine
62
7
6
CONTINUOUS
10
-238.7146032832
20
30.6081566032
11
-238.7146032832
21
29.1081566032
0
LINE
5
230
100
AcDbEntity
8
0
100
AcDbLine
62
9
6
CONTINUOUS
10
-234.7146032832
20
30.6081566032
11
-234.7146032832
21
29.1081566032
0
LINE
5
231
100
AcDbEntity
8
0
100
AcDbLine
62
9
6
CONTINUOUS
10
-220.2146032832
20
30.6081566032
11
-220.2146032832
21
29.1081566032
0
LINE
5
232
100
AcDbEntity
8
0
100
AcDbLine
62
7
6
CONTINUOUS
10
-219.7146032832
20
30.6081566032
11
-219.7146032832
21
29.1081566032
0
LINE
5
233
100
AcDbEntity
8
0
100
AcDbLine
62
9
6
CONTINUOUS
10
-219.2146032832
20
29.1081566032
11
-219.2146032832
21
30.6081566032
0
LINE
5
234
100
AcDbEntity
8
0
100
AcDbLine
62
9
6
CONTINUOUS
10
-218.2146032832
20
29.1081566032
11
-218.2146032832
21
30.6081566032
0
LINE
5
235
100
AcDbEntity
8
0
100
AcDbLine
62
7
6
CONTINUOUS
10
-217.7146032832
20
-18.8918433968
11
-217.7146032832
21
30.5446482763
0
LINE
5
236
100
AcDbEntity
8
0
100
AcDbLine
62
7
6
CONTINUOUS
10
-202.9583505681
20
-29.3918433968
11
-189.9708559982
21
-29.3918433968
0
LINE
5
237
100
AcDbEntity
8
0
100
AcDbLine
62
7
6
CONTINUOUS
10
-176.4583505681
20
-29.3918433968
11
-163.4708559982
21
-29.3918433968
0
LINE
5
238
100
AcDbEntity
8
0
100
AcDbLine
62
7
6
CONTINUOUS
10
-149.9583505681
20
-29.3918433968
11
-136.9708559982
21
-29.3918433968
0
LINE
5
239
100
AcDbEntity
8
0
100
AcDbLine
62
7
6
CONTINUOUS
10
-123.4583505681
20
-29.3918433968
11
-110.4708559982
21
-29.3918433968
0
LINE
5
23A
100
AcDbEntity
8
0
100
AcDbLine
62
7
6
CONTINUOUS
10
-96.9583505681
20
-29.3918433968
11
-83.9708559982
21
-29.3918433968
0
LINE
5
23B
100
AcDbEntity
8
0
100
AcDbLine
62
7
6
CONTINUOUS
10
-70.4583505681
20
-29.3918433968
11
-57.4708559982
21
-29.3918433968
0
LINE
5
23C
100
AcDbEntity
8
0
100
AcDbLine
62
7
6
CONTINUOUS
10
-43.9583505681
20
-29.3918433968
11
-30.9708559982
21
-29.3918433968
0
LINE
5
23D
100
AcDbEntity
8
0
100
AcDbLine
62
7
6
CONTINUOUS
10
-17.4583505681
20
-29.3918433968
11
-4.4708559982
21
-29.3918433968
0
LINE
5
23E
100
AcDbEntity
8
0
100
AcDbLine
62
7
6
CONTINUOUS
10
9.0416494319
20
-29.3918433968
11
22.0291440018
21
-29.3918433968
0
LINE
5
23F
100
AcDbEntity
8
0
100
AcDbLine
62
7
6
CONTINUOUS
10
35.5416494319
20
-29.3918433968
11
48.5291440018
21
-29.3918433968
0
LINE
5
240
100
AcDbEntity
8
0
100
AcDbLine
62
7
6
CONTINUOUS
10
62.0416494319
20
-29.3918433968
11
75.0291440018
21
-29.3918433968
0
LINE
5
241
100
AcDbEntity
8
0
100
AcDbLine
62
7
6
CONTINUOUS
10
88.5416494319
20
-29.3918433968
11
101.5291440018
21
-29.3918433968
0
LINE
5
242
100
AcDbEntity
8
0
100
AcDbLine
62
7
6
CONTINUOUS
10
115.0416494319
20
-29.3918433968
11
128.0291440018
21
-29.3918433968
0
LINE
5
243
100
AcDbEntity
8
0
100
AcDbLine
62
7
6
CONTINUOUS
10
141.5416494319
20
-29.3918433968
11
154.5291440018
21
-29.3918433968
0
LINE
5
244
100
AcDbEntity
8
0
100
AcDbLine
62
7
6
CONTINUOUS
10
168.0416494319
20
-29.3918433968
11
181.0291440018
21
-29.3918433968
0
LINE
5
245
100
AcDbEntity
8
0
100
AcDbLine
62
7
6
CONTINUOUS
10
194.5416494319
20
-29.3918433968
11
207.5291440018
21
-29.3918433968
0
LINE
5
246
100
AcDbEntity
8
0
100
AcDbLine
62
7
6
CONTINUOUS
10
-214.7146032832
20
-21.8918433968
11
-203.2646032832
21
-21.8918433968
0
LINE
5
247
100
AcDbEntity
8
0
100
AcDbLine
62
7
6
CONTINUOUS
10
-189.6646032832
20
-21.8918433968
11
-176.7646032832
21
-21.8918433968
0
LINE
5
248
100
AcDbEntity
8
0
100
AcDbLine
62
7
6
CONTINUOUS
10
-163.1646032832
20
-21.8918433968
11
-150.2646032832
21
-21.8918433968
0
LINE
5
249
100
AcDbEntity
8
0
100
AcDbLine
62
7
6
CONTINUOUS
10
-136.6646032832
20
-21.8918433968
11
-123.7646032832
21
-21.8918433968
0
LINE
5
24A
100
AcDbEntity
8
0
100
AcDbLine
62
7
6
CONTINUOUS
10
-110.1646032832
20
-21.8918433968
11
-97.2646032832
21
-21.8918433968
0
LINE
5
24B
100
AcDbEntity
8
0
100
AcDbLine
62
7
6
CONTINUOUS
10
-83.6646032832
20
-21.8918433968
11
-70.7646032832
21
-21.8918433968
0
LINE
5
24C
100
AcDbEntity
8
0
100
AcDbLine
62
7
6
CONTINUOUS
10
-57.1646032832
20
-21.8918433968
11
-44.2646032832
21
-21.8918433968
0
LINE
5
24D
100
AcDbEntity
8
0
100
AcDbLine
62
7
6
CONTINUOUS
10
-30.6646032832
20
-21.8918433968
11
-17.7646032832
21
-21.8918433968
0
LINE
5
24E
100
AcDbEntity
8
0
100
AcDbLine
62
7
6
CONTINUOUS
10
-4.1646032832
20
-21.8918433968
11
8.7353967168
21
-21.8918433968
0
LINE
5
24F
100
AcDbEntity
8
0
100
AcDbLine
62
7
6
CONTINUOUS
10
22.3353967168
20
-21.8918433968
11
35.2353967168
21
-21.8918433968
0
LINE
5
250
100
AcDbEntity
8
0
100
AcDbLine
62
7
6
CONTINUOUS
10
48.8353967168
20
-21.8918433968
11
61.7353967168
21
-21.8918433968
0
LINE
5
251
100
AcDbEntity
8
0
100
AcDbLine
62
7
6
CONTINUOUS
10
75.3353967168
20
-21.8918433968
11
88.2353967168
21
-21.8918433968
0
LINE
5
252
100
AcDbEntity
8
0
100
AcDbLine
62
7
6
CONTINUOUS
10
101.8353967168
20
-21.8918433968
11
114.7353967168
21
-21.8918433968
0
LINE
5
253
100
AcDbEntity
8
0
100
AcDbLine
62
7
6
CONTINUOUS
10
128.3353967168
20
-21.8918433968
11
141.2353967168
21
-21.8918433968
0
LINE
5
254
100
AcDbEntity
8
0
100
AcDbLine
62
7
6
CONTINUOUS
10
154.8353967168
20
-21.8918433968
11
167.7353967168
21
-21.8918433968
0
LINE
5
255
100
AcDbEntity
8
0
100
AcDbLine
62
7
6
CONTINUOUS
10
181.3353967168
20
-21.8918433968
11
194.2353967168
21
-21.8918433968
0
LINE
5
256
100
AcDbEntity
8
0
100
AcDbLine
62
7
6
CONTINUOUS
10
207.8353967168
20
-21.8918433968
11
219.2853967168
21
-21.8918433968
0
LINE
5
257
100
AcDbEntity
8
0
100
AcDbLine
62
7
6
CONTINUOUS
10
-214.7146032832
20
20.6081566032
11
219.2853967168
21
20.6081566032
0
LINE
5
258
100
AcDbEntity
8
0
100
AcDbLine
62
9
6
CONTINUOUS
10
-217.7146032832
20
28.6081566032
11
222.2853967168
21
28.6081566032
0
LINE
5
259
100
AcDbEntity
8
0
100
AcDbLine
62
7
6
CONTINUOUS
10
243.2853967168
20
29.1081566032
11
224.2853967168
21
29.1081566032
0
LINE
5
25A
100
AcDbEntity
8
0
100
AcDbLine
62
7
6
CONTINUOUS
10
222.2853967168
20
29.1081566032
11
224.2537141627
21
29.1081566032
0
LINE
5
25B
100
AcDbEntity
8
0
100
AcDbLine
62
7
6
CONTINUOUS
10
-218.0070812510
20
29.1081566032
11
-238.7146032832
21
29.1081566032
0
LINE
5
25C
100
AcDbEntity
8
0
100
AcDbLine
62
7
6
CONTINUOUS
10
-219.7146032832
20
30.6081566032
11
-238.7146032832
21
30.6081566032
0
LINE
5
25D
100
AcDbEntity
8
0
100
AcDbLine
62
7
6
CONTINUOUS
10
-219.6822278527
20
30.6081566032
11
243.2853967168
21
30.6081566032
0
LINE
5
25E
100
AcDbEntity
8
0
100
AcDbLine
62
7
6
CONTINUOUS
10
222.2853967168
20
-18.8918433968
11
222.2853967168
21
30.5446482763
0
LINE
5
25F
100
AcDbEntity
8
0
100
AcDbLine
62
9
6
CONTINUOUS
10
222.7853967168
20
29.1081566032
11
222.7853967168
21
30.6081566032
0
LINE
5
260
100
AcDbEntity
8
0
100
AcDbLine
62
9
6
CONTINUOUS
10
223.7853967168
20
29.1081566032
11
223.7853967168
21
30.6081566032
0
LINE
5
261
100
AcDbEntity
8
0
100
AcDbLine
62
7
6
CONTINUOUS
10
224.2853967168
20
30.6081566032
11
224.2853967168
21
29.1081566032
0
LINE
5
262
100
AcDbEntity
8
0
100
AcDbLine
62
9
6
CONTINUOUS
10
224.7853967168
20
30.6081566032
11
224.7853967168
21
29.1081566032
0
LINE
5
263
100
AcDbEntity
8
0
100
AcDbLine
62
9
6
CONTINUOUS
10
239.2853967168
20
30.6081566032
11
239.2853967168
21
29.1081566032
0
LINE
5
264
100
AcDbEntity
8
0
100
AcDbLine
62
7
6
CONTINUOUS
10
243.2853967168
20
30.6081566032
11
243.2853967168
21
29.1081566032
0
LINE
5
265
100
AcDbEntity
8
0
100
AcDbLine
62
7
6
CONTINUOUS
10
-289.6717228962
20
-29.3918433968
11
-288.1717228962
21
-29.3918433968
0
LINE
5
266
100
AcDbEntity
8
0
100
AcDbLine
62
9
6
CONTINUOUS
10
-289.6717228962
20
-26.8835203213
11
-288.1717228962
21
-26.8835203213
0
LINE
5
267
100
AcDbEntity
8
0
100
AcDbLine
62
7
6
CONTINUOUS
10
-332.1717228962
20
30.6081566032
11
-332.1717228962
21
29.1081566032
0
LINE
5
268
100
AcDbEntity
8
0
100
AcDbLine
62
7
6
CONTINUOUS
10
-332.1717228962
20
20.6081566032
11
-332.1717228962
21
28.6081566032
0
LINE
5
269
100
AcDbEntity
8
0
100
AcDbLine
62
7
6
CONTINUOUS
10
-288.1717228962
20
-21.8918433968
11
-289.6717228962
21
-21.8918433968
0
LINE
5
26A
100
AcDbEntity
8
0
100
AcDbLine
62
7
6
CONTINUOUS
10
-330.6717228962
20
20.6081566032
11
-330.6717228962
21
28.6081566032
0
LINE
5
26B
100
AcDbEntity
8
0
100
AcDbLine
62
9
6
CONTINUOUS
10
-330.6717228962
20
28.6081566032
11
-330.6717228962
21
29.1081566032
0
LINE
5
26C
100
AcDbEntity
8
0
100
AcDbLine
62
9
6
CONTINUOUS
10
-328.1717228962
20
30.6081566032
11
-328.1717228962
21
29.1081566032
0
LINE
5
26D
100
AcDbEntity
8
0
100
AcDbLine
62
9
6
CONTINUOUS
10
-288.1717228962
20
-18.8918433968
11
-289.6717228962
21
-18.8918433968
0
LINE
5
26E
100
AcDbEntity
8
0
100
AcDbLine
62
9
6
CONTINUOUS
10
-292.1717228962
20
30.6081566032
11
-292.1717228962
21
29.1081566032
0
LINE
5
26F
100
AcDbEntity
8
0
100
AcDbLine
62
7
6
CONTINUOUS
10
-332.1717228962
20
20.6081566032
11
-330.6717228962
21
20.6081566032
0
LINE
5
270
100
AcDbEntity
8
0
100
AcDbLine
62
7
6
CONTINUOUS
10
-289.6717228962
20
-29.3918433968
11
-289.6717228962
21
28.6081566032
0
LINE
5
271
100
AcDbEntity
8
0
100
AcDbLine
62
9
6
CONTINUOUS
10
-289.6717228962
20
28.6081566032
11
-289.6717228962
21
29.1081566032
0
LINE
5
272
100
AcDbEntity
8
0
100
AcDbLine
62
7
6
CONTINUOUS
10
-288.1717228962
20
30.6081566032
11
-288.1717228962
21
29.1081566032
0
LINE
5
273
100
AcDbEntity
8
0
100
AcDbLine
62
7
6
CONTINUOUS
10
-288.1717228962
20
-29.3918433968
11
-288.1717228962
21
28.6081566032
0
LINE
5
274
100
AcDbEntity
8
0
100
AcDbLine
62
9
6
CONTINUOUS
10
-332.1717228962
20
23.6081566032
11
-330.6717228962
21
23.6081566032
0
LINE
5
275
100
AcDbEntity
8
0
100
AcDbLine
62
9
6
CONTINUOUS
10
-289.6717228962
20
28.6081566032
11
-288.1717228962
21
28.6081566032
0
LINE
5
276
100
AcDbEntity
8
0
100
AcDbLine
62
9
6
CONTINUOUS
10
-330.6717228962
20
28.6081566032
11
-332.1717228962
21
28.6081566032
0
LINE
5
277
100
AcDbEntity
8
0
100
AcDbLine
62
7
6
CONTINUOUS
10
-288.1717228962
20
29.1081566032
11
-332.1717228962
21
29.1081566032
0
LINE
5
278
100
AcDbEntity
8
0
100
AcDbLine
62
7
6
CONTINUOUS
10
-288.1717228962
20
30.6081566032
11
-332.1717228962
21
30.6081566032
0
ARC
5
279
100
AcDbEntity
8
0
100
AcDbCircle
62
7
6
CONTINUOUS
10
-214.7146032832
20
23.6081566032
40
3.0000000000
100
AcDbArc
50
180.0000000000
51
270.0000000000
0
ARC
5
27A
100
AcDbEntity
8
0
100
AcDbCircle
62
7
6
CONTINUOUS
10
219.2853967168
20
23.6081566032
40
3.0000000000
100
AcDbArc
50
270.0000000000
51
360.0000000000
0
ARC
5
27B
100
AcDbEntity
8
0
100
AcDbCircle
62
7
6
CONTINUOUS
10
219.2853967168
20
-18.8918433968
40
3.0000000000
100
AcDbArc
50
270.0000000000
51
360.0000000000
0
ARC
5
27C
100
AcDbEntity
8
0
100
AcDbCircle
62
7
6
CONTINUOUS
10
207.8353967168
20
-24.3918433968
40
2.5000000000
100
AcDbArc
50
90.0000000000
51
265.3234012748
0
ARC
5
27D
100
AcDbEntity
8
0
100
AcDbCircle
62
7
6
CONTINUOUS
10
207.5291440018
20
-28.1355906818
40
1.2562527150
100
AcDbArc
50
270.0000000000
51
85.3234012748
0
ARC
5
27E
100
AcDbEntity
8
0
100
AcDbCircle
62
7
6
CONTINUOUS
10
194.5416494319
20
-28.1355906818
40
1.2562527150
100
AcDbArc
50
94.6765987252
51
270.0000000000
0
ARC
5
27F
100
AcDbEntity
8
0
100
AcDbCircle
62
7
6
CONTINUOUS
10
194.2353967168
20
-24.3918433968
40
2.5000000000
100
AcDbArc
50
274.6765987252
51
90.0000000000
0
ARC
5
280
100
AcDbEntity
8
0
100
AcDbCircle
62
7
6
CONTINUOUS
10
181.3353967168
20
-24.3918433968
40
2.5000000000
100
AcDbArc
50
90.0000000000
51
265.3234012748
0
ARC
5
281
100
AcDbEntity
8
0
100
AcDbCircle
62
7
6
CONTINUOUS
10
181.0291440018
20
-28.1355906818
40
1.2562527150
100
AcDbArc
50
270.0000000000
51
85.3234012748
0
ARC
5
282
100
AcDbEntity
8
0
100
AcDbCircle
62
7
6
CONTINUOUS
10
168.0416494319
20
-28.1355906818
40
1.2562527150
100
AcDbArc
50
94.6765987252
51
270.0000000000
0
ARC
5
283
100
AcDbEntity
8
0
100
AcDbCircle
62
7
6
CONTINUOUS
10
167.7353967168
20
-24.3918433968
40
2.5000000000
100
AcDbArc
50
274.6765987252
51
90.0000000000
0
ARC
5
284
100
AcDbEntity
8
0
100
AcDbCircle
62
7
6
CONTINUOUS
10
154.8353967168
20
-24.3918433968
40
2.5000000000
100
AcDbArc
50
90.0000000000
51
265.3234012748
0
ARC
5
285
100
AcDbEntity
8
0
100
AcDbCircle
62
7
6
CONTINUOUS
10
154.5291440018
20
-28.1355906818
40
1.2562527150
100
AcDbArc
50
270.0000000000
51
85.3234012748
0
ARC
5
286
100
AcDbEntity
8
0
100
AcDbCircle
62
7
6
CONTINUOUS
10
141.5416494319
20
-28.1355906818
40
1.2562527150
100
AcDbArc
50
94.6765987252
51
270.0000000000
0
ARC
5
287
100
AcDbEntity
8
0
100
AcDbCircle
62
7
6
CONTINUOUS
10
141.2353967168
20
-24.3918433968
40
2.5000000000
100
AcDbArc
50
274.6765987252
51
90.0000000000
0
ARC
5
288
100
AcDbEntity
8
0
100
AcDbCircle
62
7
6
CONTINUOUS
10
128.3353967168
20
-24.3918433968
40
2.5000000000
100
AcDbArc
50
90.0000000000
51
265.3234012748
0
ARC
5
289
100
AcDbEntity
8
0
100
AcDbCircle
62
7
6
CONTINUOUS
10
128.0291440018
20
-28.1355906818
40
1.2562527150
100
AcDbArc
50
270.0000000000
51
85.3234012748
0
ARC
5
28A
100
AcDbEntity
8
0
100
AcDbCircle
62
7
6
CONTINUOUS
10
115.0416494319
20
-28.1355906818
40
1.2562527150
100
AcDbArc
50
94.6765987252
51
270.0000000000
0
ARC
5
28B
100
AcDbEntity
8
0
100
AcDbCircle
62
7
6
CONTINUOUS
10
114.7353967168
20
-24.3918433968
40
2.5000000000
100
AcDbArc
50
274.6765987252
51
90.0000000000
0
ARC
5
28C
100
AcDbEntity
8
0
100
AcDbCircle
62
7
6
CONTINUOUS
10
101.8353967168
20
-24.3918433968
40
2.5000000000
100
AcDbArc
50
90.0000000000
51
265.3234012748
0
ARC
5
28D
100
AcDbEntity
8
0
100
AcDbCircle
62
7
6
CONTINUOUS
10
101.5291440018
20
-28.1355906818
40
1.2562527150
100
AcDbArc
50
270.0000000000
51
85.3234012748
0
ARC
5
28E
100
AcDbEntity
8
0
100
AcDbCircle
62
7
6
CONTINUOUS
10
88.5416494319
20
-28.1355906818
40
1.2562527150
100
AcDbArc
50
94.6765987252
51
270.0000000000
0
ARC
5
28F
100
AcDbEntity
8
0
100
AcDbCircle
62
7
6
CONTINUOUS
10
88.2353967168
20
-24.3918433968
40
2.5000000000
100
AcDbArc
50
274.6765987252
51
90.0000000000
0
ARC
5
290
100
AcDbEntity
8
0
100
AcDbCircle
62
7
6
CONTINUOUS
10
75.3353967168
20
-24.3918433968
40
2.5000000000
100
AcDbArc
50
90.0000000000
51
265.3234012748
0
ARC
5
291
100
AcDbEntity
8
0
100
AcDbCircle
62
7
6
CONTINUOUS
10
75.0291440018
20
-28.1355906818
40
1.2562527150
100
AcDbArc
50
270.0000000000
51
85.3234012748
0
ARC
5
292
100
AcDbEntity
8
0
100
AcDbCircle
62
7
6
CONTINUOUS
10
62.0416494319
20
-28.1355906818
40
1.2562527150
100
AcDbArc
50
94.6765987252
51
270.0000000000
0
ARC
5
293
100
AcDbEntity
8
0
100
AcDbCircle
62
7
6
CONTINUOUS
10
61.7353967168
20
-24.3918433968
40
2.5000000000
100
AcDbArc
50
274.6765987252
51
90.0000000000
0
ARC
5
294
100
AcDbEntity
8
0
100
AcDbCircle
62
7
6
CONTINUOUS
10
48.8353967168
20
-24.3918433968
40
2.5000000000
100
AcDbArc
50
90.0000000000
51
265.3234012748
0
ARC
5
295
100
AcDbEntity
8
0
100
AcDbCircle
62
7
6
CONTINUOUS
10
48.5291440018
20
-28.1355906818
40
1.2562527150
100
AcDbArc
50
270.0000000000
51
85.3234012748
0
ARC
5
296
100
AcDbEntity
8
0
100
AcDbCircle
62
7
6
CONTINUOUS
10
35.5416494319
20
-28.1355906818
40
1.2562527150
100
AcDbArc
50
94.6765987252
51
270.0000000000
0
ARC
5
297
100
AcDbEntity
8
0
100
AcDbCircle
62
7
6
CONTINUOUS
10
35.2353967168
20
-24.3918433968
40
2.5000000000
100
AcDbArc
50
274.6765987252
51
90.0000000000
0
ARC
5
298
100
AcDbEntity
8
0
100
AcDbCircle
62
7
6
CONTINUOUS
10
22.3353967168
20
-24.3918433968
40
2.5000000000
100
AcDbArc
50
90.0000000000
51
265.3234012748
0
ARC
5
299
100
AcDbEntity
8
0
100
AcDbCircle
62
7
6
CONTINUOUS
10
22.0291440018
20
-28.1355906818
40
1.2562527150
100
AcDbArc
50
270.0000000000
51
85.3234012748
0
ARC
5
29A
100
AcDbEntity
8
0
100
AcDbCircle
62
7
6
CONTINUOUS
10
9.0416494319
20
-28.1355906818
40
1.2562527150
100
AcDbArc
50
94.6765987252
51
270.0000000000
0
ARC
5
29B
100
AcDbEntity
8
0
100
AcDbCircle
62
7
6
CONTINUOUS
10
8.7353967168
20
-24.3918433968
40
2.5000000000
100
AcDbArc
50
274.6765987252
51
90.0000000000
0
ARC
5
29C
100
AcDbEntity
8
0
100
AcDbCircle
62
7
6
CONTINUOUS
10
-4.1646032832
20
-24.3918433968
40
2.5000000000
100
AcDbArc
50
90.0000000000
51
265.3234012748
0
ARC
5
29D
100
AcDbEntity
8
0
100
AcDbCircle
62
7
6
CONTINUOUS
10
-4.4708559982
20
-28.1355906818
40
1.2562527150
100
AcDbArc
50
270.0000000000
51
85.3234012748
0
ARC
5
29E
100
AcDbEntity
8
0
100
AcDbCircle
62
7
6
CONTINUOUS
10
-17.4583505681
20
-28.1355906818
40
1.2562527150
100
AcDbArc
50
94.6765987252
51
270.0000000000
0
ARC
5
29F
100
AcDbEntity
8
0
100
AcDbCircle
62
7
6
CONTINUOUS
10
-17.7646032832
20
-24.3918433968
40
2.5000000000
100
AcDbArc
50
274.6765987252
51
90.0000000000
0
ARC
5
2A0
100
AcDbEntity
8
0
100
AcDbCircle
62
7
6
CONTINUOUS
10
-30.6646032832
20
-24.3918433968
40
2.5000000000
100
AcDbArc
50
90.0000000000
51
265.3234012748
0
ARC
5
2A1
100
AcDbEntity
8
0
100
AcDbCircle
62
7
6
CONTINUOUS
10
-30.9708559982
20
-28.1355906818
40
1.2562527150
100
AcDbArc
50
270.0000000000
51
85.3234012748
0
ARC
5
2A2
100
AcDbEntity
8
0
100
AcDbCircle
62
7
6
CONTINUOUS
10
-43.9583505681
20
-28.1355906818
40
1.2562527150
100
AcDbArc
50
94.6765987252
51
270.0000000000
0
ARC
5
2A3
100
AcDbEntity
8
0
100
AcDbCircle
62
7
6
CONTINUOUS
10
-44.2646032832
20
-24.3918433968
40
2.5000000000
100
AcDbArc
50
274.6765987252
51
90.0000000000
0
ARC
5
2A4
100
AcDbEntity
8
0
100
AcDbCircle
62
7
6
CONTINUOUS
10
-57.1646032832
20
-24.3918433968
40
2.5000000000
100
AcDbArc
50
90.0000000000
51
265.3234012748
0
ARC
5
2A5
100
AcDbEntity
8
0
100
AcDbCircle
62
7
6
CONTINUOUS
10
-57.4708559982
20
-28.1355906818
40
1.2562527150
100
AcDbArc
50
270.0000000000
51
85.3234012748
0
ARC
5
2A6
100
AcDbEntity
8
0
100
AcDbCircle
62
7
6
CONTINUOUS
10
-70.4583505681
20
-28.1355906818
40
1.2562527150
100
AcDbArc
50
94.6765987252
51
270.0000000000
0
ARC
5
2A7
100
AcDbEntity
8
0
100
AcDbCircle
62
7
6
CONTINUOUS
10
-70.7646032832
20
-24.3918433968
40
2.5000000000
100
AcDbArc
50
274.6765987252
51
90.0000000000
0
ARC
5
2A8
100
AcDbEntity
8
0
100
AcDbCircle
62
7
6
CONTINUOUS
10
-83.6646032832
20
-24.3918433968
40
2.5000000000
100
AcDbArc
50
90.0000000000
51
265.3234012748
0
ARC
5
2A9
100
AcDbEntity
8
0
100
AcDbCircle
62
7
6
CONTINUOUS
10
-83.9708559982
20
-28.1355906818
40
1.2562527150
100
AcDbArc
50
270.0000000000
51
85.3234012748
0
ARC
5
2AA
100
AcDbEntity
8
0
100
AcDbCircle
62
7
6
CONTINUOUS
10
-96.9583505681
20
-28.1355906818
40
1.2562527150
100
AcDbArc
50
94.6765987252
51
270.0000000000
0
ARC
5
2AB
100
AcDbEntity
8
0
100
AcDbCircle
62
7
6
CONTINUOUS
10
-97.2646032832
20
-24.3918433968
40
2.5000000000
100
AcDbArc
50
274.6765987252
51
90.0000000000
0
ARC
5
2AC
100
AcDbEntity
8
0
100
AcDbCircle
62
7
6
CONTINUOUS
10
-110.1646032832
20
-24.3918433968
40
2.5000000000
100
AcDbArc
50
90.0000000000
51
265.3234012748
0
ARC
5
2AD
100
AcDbEntity
8
0
100
AcDbCircle
62
7
6
CONTINUOUS
10
-110.4708559982
20
-28.1355906818
40
1.2562527150
100
AcDbArc
50
270.0000000000
51
85.3234012748
0
ARC
5
2AE
100
AcDbEntity
8
0
100
AcDbCircle
62
7
6
CONTINUOUS
10
-123.4583505681
20
-28.1355906818
40
1.2562527150
100
AcDbArc
50
94.6765987252
51
270.0000000000
0
ARC
5
2AF
100
AcDbEntity
8
0
100
AcDbCircle
62
7
6
CONTINUOUS
10
-123.7646032832
20
-24.3918433968
40
2.5000000000
100
AcDbArc
50
274.6765987252
51
90.0000000000
0
ARC
5
2B0
100
AcDbEntity
8
0
100
AcDbCircle
62
7
6
CONTINUOUS
10
-136.6646032832
20
-24.3918433968
40
2.5000000000
100
AcDbArc
50
90.0000000000
51
265.3234012748
0
ARC
5
2B1
100
AcDbEntity
8
0
100
AcDbCircle
62
7
6
CONTINUOUS
10
-136.9708559982
20
-28.1355906818
40
1.2562527150
100
AcDbArc
50
270.0000000000
51
85.3234012748
0
ARC
5
2B2
100
AcDbEntity
8
0
100
AcDbCircle
62
7
6
CONTINUOUS
10
-149.9583505681
20
-28.1355906818
40
1.2562527150
100
AcDbArc
50
94.6765987252
51
270.0000000000
0
ARC
5
2B3
100
AcDbEntity
8
0
100
AcDbCircle
62
7
6
CONTINUOUS
10
-150.2646032832
20
-24.3918433968
40
2.5000000000
100
AcDbArc
50
274.6765987252
51
90.0000000000
0
ARC
5
2B4
100
AcDbEntity
8
0
100
AcDbCircle
62
7
6
CONTINUOUS
10
-163.1646032832
20
-24.3918433968
40
2.5000000000
100
AcDbArc
50
90.0000000000
51
265.3234012748
0
ARC
5
2B5
100
AcDbEntity
8
0
100
AcDbCircle
62
7
6
CONTINUOUS
10
-163.4708559982
20
-28.1355906818
40
1.2562527150
100
AcDbArc
50
270.0000000000
51
85.3234012748
0
ARC
5
2B6
100
AcDbEntity
8
0
100
AcDbCircle
62
7
6
CONTINUOUS
10
-176.4583505681
20
-28.1355906818
40
1.2562527150
100
AcDbArc
50
94.6765987252
51
270.0000000000
0
ARC
5
2B7
100
AcDbEntity
8
0
100
AcDbCircle
62
7
6
CONTINUOUS
10
-176.7646032832
20
-24.3918433968
40
2.5000000000
100
AcDbArc
50
274.6765987252
51
90.0000000000
0
ARC
5
2B8
100
AcDbEntity
8
0
100
AcDbCircle
62
7
6
CONTINUOUS
10
-189.6646032832
20
-24.3918433968
40
2.5000000000
100
AcDbArc
50
90.0000000000
51
265.3234012748
0
ARC
5
2B9
100
AcDbEntity
8
0
100
AcDbCircle
62
7
6
CONTINUOUS
10
-189.9708559982
20
-28.1355906818
40
1.2562527150
100
AcDbArc
50
270.0000000000
51
85.3234012748
0
ARC
5
2BA
100
AcDbEntity
8
0
100
AcDbCircle
62
7
6
CONTINUOUS
10
-202.9583505681
20
-28.1355906818
40
1.2562527150
100
AcDbArc
50
94.6765987252
51
270.0000000000
0
ARC
5
2BB
100
AcDbEntity
8
0
100
AcDbCircle
62
7
6
CONTINUOUS
10
-203.2646032832
20
-24.3918433968
40
2.5000000000
100
AcDbArc
50
274.6765987252
51
90.0000000000
0
ARC
5
2BC
100
AcDbEntity
8
0
100
AcDbCircle
62
7
6
CONTINUOUS
10
-214.7146032832
20
-18.8918433968
40
3.0000000000
100
AcDbArc
50
180.0000000000
51
270.0000000000
0
ARC
5
2BD
100
AcDbEntity
8
0
100
AcDbCircle
62
7
6
CONTINUOUS
10
-330.1717228962
20
28.6081566032
40
2.0000000000
100
AcDbArc
50
165.4947678617
51
180.0000000000
0
ARC
5
2BE
100
AcDbEntity
8
0
100
AcDbCircle
62
7
6
CONTINUOUS
10
-290.1717228962
20
28.6081566032
40
2.0000000000
100
AcDbArc
50
0.0000000000
51
14.5052321383
0
ARC
5
2BF
100
AcDbEntity
8
0
100
AcDbCircle
62
7
6
CONTINUOUS
10
-290.1717228962
20
28.6081566032
40
0.5000000000
100
AcDbArc
50
0.0000523298
51
84.7979511443
0
ARC
5
2C0
100
AcDbEntity
8
0
100
AcDbCircle
62
7
6
CONTINUOUS
10
-330.1717228962
20
28.6081566032
40
0.5000000000
100
AcDbArc
50
95.1980842646
51
179.9999476950
0
SPLINE
5
2C1
100
AcDbEntity
8
0
100
AcDbSpline
62
7
6
CONTINUOUS
70
0
71
3
72
8
73
4
74
2
42
0.0000001000
43
0.0000001000
44
0.0000000001
12
0.2013330182
22
0.0000000000
32
0.0000000000
13
0.1981715713
23
0.0000015564
33
0.0000000000
40
0.0000000000
40
0.0000000000
40
0.0000000000
40
0.0000000000
40
1.0000000000
40
1.0000000000
40
1.0000000000
40
1.0000000000
10
-218.2146032832
20
30.6081566663
30
0.0000000000
10
-218.1474922771
20
30.6081566663
30
0.0000000000
10
-218.0777749929
20
30.6066943231
30
0.0000000000
10
-218.0117178025
20
30.6066948419
30
0.0000000000
11
-218.2146032832
21
30.6081566663
31
0.0000000000
11
-218.0117178025
21
30.6066948419
31
0.0000000000
0
SPLINE
5
2C2
100
AcDbEntity
8
0
100
AcDbSpline
62
7
6
CONTINUOUS
70
0
71
3
72
10
73
6
74
4
42
0.0000001000
43
0.0000001000
44
0.0000000001
12
0.2869374600
22
0.0000022535
32
0.0000000000
13
0.1775916081
23
-0.2104535965
33
0.0000000000
40
0.0000000000
40
0.0000000000
40
0.0000000000
40
0.0000000000
40
0.1712887766
40
0.7973073076
40
1.0000000000
40
1.0000000000
40
1.0000000000
40
1.0000000000
10
-218.0117178025
20
30.6066948419
30
0.0000000000
10
-217.9953347470
20
30.6066949706
30
0.0000000000
10
-217.9201235812
20
30.6071144111
30
0.0000000000
10
-217.8345079375
20
30.6112984059
30
0.0000000000
10
-217.7340542816
20
30.5786052955
30
0.0000000000
10
-217.7220554412
20
30.5643861602
30
0.0000000000
11
-218.0117178025
21
30.6066948419
31
0.0000000000
11
-217.9633396353
21
30.6070097975
31
0.0000000000
11
-217.7814288031
21
30.5924347370
31
0.0000000000
11
-217.7220554412
21
30.5643861602
31
0.0000000000
0
SPLINE
5
2C3
100
AcDbEntity
8
0
100
AcDbSpline
62
7
6
CONTINUOUS
70
0
71
3
72
8
73
4
74
2
42
0.0000001000
43
0.0000001000
44
0.0000000001
12
0.0140515745
22
-0.0166517125
32
0.0000000000
13
0.0000000000
23
-0.0230655307
33
0.0000000000
40
0.0000000000
40
0.0000000000
40
0.0000000000
40
0.0000000000
40
1.0000000000
40
1.0000000000
40
1.0000000000
40
1.0000000000
10
-217.7220554412
20
30.5643861602
30
0.0000000000
10
-217.7173715830
20
30.5588355894
30
0.0000000000
10
-217.7146032832
20
30.5523367865
30
0.0000000000
10
-217.7146032832
20
30.5446482763
30
0.0000000000
11
-217.7220554412
21
30.5643861602
31
0.0000000000
11
-217.7146032832
21
30.5446482763
31
0.0000000000
0
SPLINE
5
2C4
100
AcDbEntity
8
0
100
AcDbSpline
62
7
6
CONTINUOUS
70
0
71
3
72
10
73
6
74
4
42
0.0000001000
43
0.0000001000
44
0.0000000001
12
0.0000000000
22
0.3152679998
32
0.0000000000
13
0.3101962751
23
-0.0000216127
33
0.0000000000
40
0.0000000000
40
0.0000000000
40
0.0000000000
40
0.0000000000
40
0.2632789609
40
0.8439571140
40
1.0000000000
40
1.0000000000
40
1.0000000000
40
1.0000000000
10
222.2853967168
20
30.5446482763
30
0.0000000000
10
222.2853967168
20
30.5723160867
30
0.0000000000
10
222.3996000979
20
30.6115858920
30
0.0000000000
10
222.4920103456
20
30.6071479625
30
0.0000000000
10
222.5671351292
20
30.6067363320
30
0.0000000000
10
222.5832697699
20
30.6067352078
30
0.0000000000
11
222.2853967168
21
30.5446482763
31
0.0000000000
11
222.3531258032
21
30.5926309865
31
0.0000000000
11
222.5356271954
21
30.6070389161
31
0.0000000000
11
222.5832697699
21
30.6067352078
31
0.0000000000
0
SPLINE
5
2C5
100
AcDbEntity
8
0
100
AcDbSpline
62
7
6
CONTINUOUS
70
0
71
3
72
8
73
4
74
2
42
0.0000001000
43
0.0000001000
44
0.0000000001
12
0.1128555791
22
-0.0000078631
32
0.0000000000
13
0.1165683939
23
0.0011965285
33
0.0000000000
40
0.0000000000
40
0.0000000000
40
0.0000000000
40
0.0000000000
40
1.0000000000
40
1.0000000000
40
1.0000000000
40
1.0000000000
10
222.5832697699
20
30.6067352078
30
0.0000000000
10
222.6208882962
20
30.6067325868
30
0.0000000000
10
222.6597172390
20
30.6071978057
30
0.0000000000
10
222.6985733703
20
30.6075966485
30
0.0000000000
11
222.5832697699
21
30.6067352078
31
0.0000000000
11
222.6985733703
21
30.6075966485
31
0.0000000000
0
SPLINE
5
2C6
100
AcDbEntity
8
0
100
AcDbSpline
62
7
6
CONTINUOUS
70
0
71
3
72
8
73
4
74
2
42
0.0000001000
43
0.0000001000
44
0.0000000001
12
0.0872741990
22
0.0008958351
32
0.0000000000
13
0.0858759205
23
0.0000000000
33
0.0000000000
40
0.0000000000
40
0.0000000000
40
0.0000000000
40
0.0000000000
40
1.0000000000
40
1.0000000000
40
1.0000000000
40
1.0000000000
10
222.6985733703
20
30.6075966485
30
0.0000000000
10
222.7276647700
20
30.6078952602
30
0.0000000000
10
222.7567714100
20
30.6081566651
30
0.0000000000
10
222.7853967168
20
30.6081566651
30
0.0000000000
11
222.6985733703
21
30.6075966485
31
0.0000000000
11
222.7853967168
21
30.6081566651
31
0.0000000000
0
SPLINE
5
2C7
100
AcDbEntity
8
0
100
AcDbSpline
62
7
6
CONTINUOUS
70
0
71
3
72
8
73
4
74
2
42
0.0000001000
43
0.0000001000
44
0.0000000001
12
-0.2089772873
22
0.0000000000
32
0.0000000000
13
-0.2119076023
23
-0.0117726069
33
0.0000000000
40
0.0000000000
40
0.0000000000
40
0.0000000000
40
0.0000000000
40
1.0000000000
40
1.0000000000
40
1.0000000000
40
1.0000000000
10
222.7853967168
20
29.1081568933
30
0.0000000000
10
222.7157376211
20
29.1081568933
30
0.0000000000
10
222.6486337426
20
29.1110095354
30
0.0000000000
10
222.5779978751
20
29.1070853332
30
0.0000000000
11
222.7853967168
21
29.1081568933
31
0.0000000000
11
222.5779978751
21
29.1070853332
31
0.0000000000
0
SPLINE
5
2C8
100
AcDbEntity
8
0
100
AcDbSpline
62
7
6
CONTINUOUS
70
0
71
3
72
11
73
7
74
5
42
0.0000001000
43
0.0000001000
44
0.0000000001
12
-0.5881498462
22
-0.0326748868
32
0.0000000000
13
0.0046684894
23
-0.5712300727
33
0.0000000000
40
0.0000000000
40
0.0000000000
40
0.0000000000
40
0.0000000000
40
0.0912396181
40
0.4045695989
40
0.7178817667
40
1.0000000000
40
1.0000000000
40
1.0000000000
40
1.0000000000
10
222.5779978751
20
29.1070853332
30
0.0000000000
10
222.5601103527
20
29.1060915851
30
0.0000000000
10
222.4797901678
20
29.0997581392
30
0.0000000000
10
222.3259163187
20
29.0679020755
30
0.0000000000
10
222.2853141329
20
28.8731538909
30
0.0000000000
10
222.2840526624
20
28.7593746810
30
0.0000000000
10
222.2844916844
20
28.7056565413
30
0.0000000000
11
222.5779978751
21
29.1070853332
31
0.0000000000
11
222.5235569527
21
29.1026439474
31
0.0000000000
11
222.3524939204
21
29.0412790991
31
0.0000000000
11
222.2909370148
21
28.8702960655
31
0.0000000000
11
222.2844916844
21
28.7056565413
31
0.0000000000
0
SPLINE
5
2C9
100
AcDbEntity
8
0
100
AcDbSpline
62
7
6
CONTINUOUS
70
0
71
3
72
8
73
4
74
2
42
0.0000001000
43
0.0000001000
44
0.0000000001
12
-0.1145326797
22
0.0063683096
32
0.0000000000
13
-0.1112840844
23
-0.0009710973
33
0.0000000000
40
0.0000000000
40
0.0000000000
40
0.0000000000
40
0.0000000000
40
1.0000000000
40
1.0000000000
40
1.0000000000
40
1.0000000000
10
-218.0071397548
20
29.1071044239
30
0.0000000000
10
-218.0453173147
20
29.1092271937
30
0.0000000000
10
-218.0824791654
20
29.1093626009
30
0.0000000000
10
-218.1195738602
20
29.1090389019
30
0.0000000000
11
-218.0071397548
21
29.1071044239
31
0.0000000000
11
-218.1195738602
21
29.1090389019
31
0.0000000000
0
SPLINE
5
2CA
100
AcDbEntity
8
0
100
AcDbSpline
62
7
6
CONTINUOUS
70
0
71
3
72
8
73
4
74
2
42
0.0000001000
43
0.0000001000
44
0.0000000001
12
-0.0945924381
22
-0.0008254411
32
0.0000000000
13
-0.0960489559
23
0.0000000000
33
0.0000000000
40
0.0000000000
40
0.0000000000
40
0.0000000000
40
0.0000000000
40
1.0000000000
40
1.0000000000
40
1.0000000000
40
1.0000000000
10
-218.1195738602
20
29.1090389019
30
0.0000000000
10
-218.1511046729
20
29.1087637548
30
0.0000000000
10
-218.1825869645
20
29.1081568967
30
0.0000000000
10
-218.2146032832
20
29.1081568967
30
0.0000000000
11
-218.1195738602
21
29.1090389019
31
0.0000000000
11
-218.2146032832
21
29.1081568967
31
0.0000000000
0
ENDSEC
0
SECTION
2
OBJECTS
0
DICTIONARY
5
C
100
AcDbDictionary
280
0
281
1
3
ACAD_GROUP
350
D
3
ACAD_MLINESTYLE
350
17
3
ACAD_LAYOUT
350
1A
3
ACAD_PLOTSETTINGS
350
19
3
ACAD_PLOTSTYLENAME
350
E
0
DICTIONARY
5
D
102
{ACAD_REACTORS
330
C
102
}
100
AcDbDictionary
280
0
281
1
0
ACDBDICTIONARYWDFLT
5
E
102
{ACAD_REACTORS
330
C
102
}
100
AcDbDictionary
281
1
3
Normal
350
F
100
AcDbDictionaryWithDefault
340
F
0
DICTIONARY
5
17
102
{ACAD_REACTORS
330
C
102
}
100
AcDbDictionary
280
0
281
1
3
Standard
350
18
0
DICTIONARY
5
19
102
{ACAD_REACTORS
330
C
102
}
100
AcDbDictionary
281
1
0
DICTIONARY
5
1A
102
{ACAD_REACTORS
330
C
102
}
100
AcDbDictionary
281
1
3
Layout1
350
1E
3
Model
350
22
0
ACDBPLACEHOLDER
5
F
102
{ACAD_REACTORS
330
E
102
}
0
MLINESTYLE
5
18
102
{ACAD_REACTORS
330
17
102
}
100
AcDbMlineStyle
2
STANDARD
70
0
3

62
256
51
90.0
52
90.0
71
2
49
0.5
62
256
6
BYLAYER
49
-0.5
62
256
6
BYLAYER
0
LAYOUT
5
1E
102
{ACAD_REACTORS
330
1A
102
}
100
AcDbPlotSettings
1

2

4

6

40
0.0
41
0.0
42
0.0
43
0.0
44
0.0
45
0.0
46
0.0
47
0.0
48
0.0
49
0.0
140
0.0
141
0.0
142
1.0
143
1.0
70
0
72
0
73
0
74
0
7

75
0
147
1.0
148
0.0
149
0.0
100
AcDbLayout
1
Layout1
70
0
71
0
10
0.0
20
0.0
11
0.0
21
0.0
12
0.0
22
0.0
32
0.0
14
0.0
24
0.0
34
0.0
15
0.0
25
0.0
35
0.0
146
0.0
13
0.0
23
0.0
33
0.0
16
0.0
26
0.0
36
0.0
17
0.0
27
0.0
37
0.0
76
0
330
1B
331
0
345
0
346
0
0
LAYOUT
5
22
102
{ACAD_REACTORS
330
1A
102
}
100
AcDbPlotSettings
1

2

4

6

40
0.0
41
0.0
42
0.0
43
0.0
44
0.0
45
0.0
46
0.0
47
0.0
48
0.0
49
0.0
140
0.0
141
0.0
142
1.0
143
1.0
70
0
72
0
73
0
74
0
7

75
0
147
1.0
148
0.0
149
0.0
100
AcDbLayout
1
Model
70
0
71
0
10
0.0
20
0.0
11
0.0
21
0.0
12
0.0
22
0.0
32
0.0
14
0.0
24
0.0
34
0.0
15
0.0
25
0.0
35
0.0
146
0.0
13
0.0
23
0.0
33
0.0
16
0.0
26
0.0
36
0.0
17
0.0
27
0.0
37
0.0
76
0
330
1F
331
0
345
0
346
0
0
ENDSEC
0
EOF
