0
SECTION
2
HEADER
9
$ACADVER
1
AC1014
9
$HANDSEED
5
       2C7
9
$EXTMAX
10
297.0000000000
20
210.0000000000
9
$EXTMIN
10
0.0000000000
20
0.0000000000
9
$LIMMIN
10
0.0000000000
20
0.0000000000
9
$LIMMAX
10
297.0000000000
20
210.0000000000
9
$VIEWCTR
10
148.5000000000
20
105.0000000000
9
$VIEWSIZE
40
210.0000000000
9
$CLAYER
8
0
9
$LTSCALE
40
16.3350000000
9
$CELTYPE
6
BYLAYER
9
$DIMSCALE
40
1
9
$DIMASZ
40
3.0000000000
9
$DIMEXO
40
1.8562500000
9
$DIMDLI
40
11.2860000000
9
$DIMEXE
40
5.3460000000
9
$DIMCEN
40
2.6730000000
9
$DIMLFAC
40
1.0000000000
9
$DIMTXT
40
3.0000000000
9
$DIMTOL
70
1
9
$DIMLIM
70
0
9
$DIMTFAC
40
1.0000000000
9
$DIMTP
40
0.0100000000
9
$DIMTM
40
0.0100000000
9
$MEASUREMENT
70
1
0
ENDSEC
0
SECTION
2
CLASSES
0
ENDSEC
0
SECTION
2
TABLES
0
TABLE
2
VPORT
5
8
100
AcDbSymbolTable
70
2
0
VPORT
5
1F4
100
AcDbSymbolTableRecord
100
AcDbViewportTableRecord
2
*ACTIVE
70
0
10
0.0
20
0.0
11
1.0
21
1.0
12
148.5000000000
22
105.0000000000
13
0.0
23
0.0
14
1.0
24
1.0
15
0.0
25
0.0
16
0.0
26
0.0
36
1.0
17
0.0
27
0.0
37
0.0
40
210.0000000000
41
1.4142857143
42
50.0
43
0.0
44
0.0
50
0.0
51
0.0
71
0
72
100
73
1
74
1
75
0
76
0
77
0
78
0
0
ENDTAB
0
TABLE
2
LTYPE
5
5
100
AcDbSymbolTable
70
6
0
LTYPE
5
14
100
AcDbSymbolTableRecord
100
AcDbLinetypeTableRecord
2
BYBLOCK
70
0
3

72
65
73
0
40
0.0
0
LTYPE
5
15
100
AcDbSymbolTableRecord
100
AcDbLinetypeTableRecord
2
BYLAYER
70
0
3

72
65
73
0
40
0.0
0
LTYPE
5
16
100
AcDbSymbolTableRecord
100
AcDbLinetypeTableRecord
2
CONTINUOUS
70
64
3
Solid line
72
65
73
0
40
0
0
LTYPE
5
1F5
100
AcDbSymbolTableRecord
100
AcDbLinetypeTableRecord
2
CENTER
70
64
3
____ _ ____ _ ____ _ ____ _ ____ _ ____ _ ____
72
65
73
4
40
0.6
49
0.375
74
0
49
-0.075
74
0
49
0.075
74
0
49
-0.075
74
0
0
LTYPE
5
1F6
100
AcDbSymbolTableRecord
100
AcDbLinetypeTableRecord
2
HIDDEN
70
64
3
- - - - - - - - - - - - - - - - - - - -
72
65
73
2
40
0.2
49
0.1
74
0
49
-0.1
74
0
0
LTYPE
5
1F7
100
AcDbSymbolTableRecord
100
AcDbLinetypeTableRecord
2
PHANTOM
70
64
3
_____ _ _ _____ _ _ _____ _ _ _____
72
65
73
6
40
0.8
49
0.45
74
0
49
-0.05
74
0
49
0.1
74
0
49
-0.05
74
0
49
0.1
74
0
49
-0.05
74
0
0
LTYPE
5
1F8
100
AcDbSymbolTableRecord
100
AcDbLinetypeTableRecord
2
DOT
70
64
3
. . . . . . . . . . . . . . . . . . . .
72
65
73
2
40
0.2
49
0.1
74
0
49
-0.1
74
0
0
LTYPE
5
1F9
100
AcDbSymbolTableRecord
100
AcDbLinetypeTableRecord
2
DASHED
70
64
3
- - - - - - - - - - - - - - - - - - - -
72
65
73
2
40
0.2
49
0.1
74
0
49
-0.1
74
0
0
ENDTAB
0
TABLE
2
LAYER
5
2
100
AcDbSymbolTable
70
36
0
LAYER
5
10
100
AcDbSymbolTableRecord
100
AcDbLayerTableRecord
2
0
70
0
62
7
6
CONTINUOUS
0
LAYER
5
1FA
100
AcDbSymbolTableRecord
100
AcDbLayerTableRecord
2
DEFAULT_1
70
0
62
7
6
CENTER
0
LAYER
5
1FB
100
AcDbSymbolTableRecord
100
AcDbLayerTableRecord
2
DEFAULT_2
70
0
62
8
6
HIDDEN
0
LAYER
5
1FC
100
AcDbSymbolTableRecord
100
AcDbLayerTableRecord
2
DEFAULT_3
70
0
62
7
6
PHANTOM
0
LAYER
5
1FD
100
AcDbSymbolTableRecord
100
AcDbLayerTableRecord
2
ASSI
70
0
62
7
6
CONTINUOUS
0
LAYER
5
1FE
100
AcDbSymbolTableRecord
100
AcDbLayerTableRecord
2
COORDINATE
70
0
62
7
6
CONTINUOUS
0
LAYER
5
1FF
100
AcDbSymbolTableRecord
100
AcDbLayerTableRecord
2
COORD_ORIGINE
70
0
62
7
6
CONTINUOUS
0
LAYER
5
200
100
AcDbSymbolTableRecord
100
AcDbLayerTableRecord
2
PIANI
70
0
62
7
6
CONTINUOUS
0
LAYER
5
201
100
AcDbSymbolTableRecord
100
AcDbLayerTableRecord
2
PIANI_ORIGINE
70
0
62
7
6
CONTINUOUS
0
LAYER
5
202
100
AcDbSymbolTableRecord
100
AcDbLayerTableRecord
2
SNAPLINE
70
0
62
7
6
CONTINUOUS
0
LAYER
5
203
100
AcDbSymbolTableRecord
100
AcDbLayerTableRecord
2
TRASH
70
0
62
7
6
CONTINUOUS
0
ENDTAB
0
TABLE
2
STYLE
5
3
100
AcDbSymbolTable
70
1
0
STYLE
5
11
100
AcDbSymbolTableRecord
100
AcDbTextStyleTableRecord
2
STANDARD
70
0
40
0.0
41
0.8000000000
50
0.0
71
0
42
0.2
3
txt
4

0
ENDTAB
0
TABLE
2
VIEW
5
6
100
AcDbSymbolTable
70
0
0
ENDTAB
0
TABLE
2
UCS
5
7
100
AcDbSymbolTable
70
0
0
ENDTAB
0
TABLE
2
APPID
5
9
100
AcDbSymbolTable
70
1
0
APPID
5
204
100
AcDbSymbolTableRecord
100
AcDbRegAppTableRecord
2
ACAD
70
0
0
ENDTAB
0
TABLE
2
DIMSTYLE
5
A
100
AcDbSymbolTable
70
1
0
DIMSTYLE
105
205
100
AcDbSymbolTableRecord
100
AcDbDimStyleTableRecord
2
STANDARD
70
0
3

4

5

6

7

40
1.0
41
3.0000000000
42
0.0625
43
0.38
44
0.18
45
0.0
46
0.0
47
0.0100000000
48
0.0100000000
140
3.0000000000
141
0.09
142
0.0
143
25.4
144
1.0000000000
145
0.0
146
1.0000000000
147
0.09
71
1
72
0
73
0
74
0
75
0
76
0
77
1
78
8
170
0
171
2
172
0
173
0
174
0
175
0
176
0
177
0
178
0
270
2
271
2
272
2
273
2
274
2
340
11
275
0
280
0
281
0
282
0
283
1
284
8
285
0
286
0
287
3
288
0
0
DIMSTYLE
105
206
100
AcDbSymbolTableRecord
100
AcDbDimStyleTableRecord
2
DIMSTYLE_1
70
0
3

4

5

6

7

40
1.0
41
3.0000000000
42
0.0625
43
0.38
44
0.18
45
0.0
46
0.0
47
0.0000000000
48
0.0000000000
140
3.0000000000
141
0.09
142
0.0
143
25.4
144
1.0000000000
145
0.0
146
1.0000000000
147
0.09
71
0
72
0
73
0
74
0
75
0
76
0
77
1
78
8
170
0
171
2
172
0
173
0
174
0
175
0
176
0
177
0
178
0
270
2
271
2
272
2
273
2
274
2
340
11
275
0
280
0
281
0
282
0
283
1
284
8
285
0
286
0
287
3
288
0
0
ENDTAB
0
TABLE
2
BLOCK_RECORD
5
1
100
AcDbSymbolTable
70
0
0
BLOCK_RECORD
5
1B
100
AcDbSymbolTableRecord
100
AcDbBlockTableRecord
2
*MODEL_SPACE
0
BLOCK_RECORD
5
1C
100
AcDbSymbolTableRecord
100
AcDbBlockTableRecord
2
*PAPER_SPACE
0
BLOCK_RECORD
5
207
100
AcDbSymbolTableRecord
100
AcDbBlockTableRecord
2
*D0
0
BLOCK_RECORD
5
208
100
AcDbSymbolTableRecord
100
AcDbBlockTableRecord
2
*D1
0
BLOCK_RECORD
5
209
100
AcDbSymbolTableRecord
100
AcDbBlockTableRecord
2
*D2
0
ENDTAB
0
ENDSEC
0
SECTION
2
BLOCKS
0
BLOCK
5
1E
100
AcDbEntity
8
0
100
AcDbBlockBegin
2
*MODEL_SPACE
70
0
10
0.0
20
0.0
30
0.0
3
*MODEL_SPACE
1

0
ENDBLK
5
1F
100
AcDbEntity
8
0
100
AcDbBlockEnd
0
BLOCK
5
20
100
AcDbEntity
8
0
100
AcDbBlockBegin
2
*PAPER_SPACE
70
0
10
0.0
20
0.0
30
0.0
3
*PAPER_SPACE
1

0
ENDBLK
5
21
100
AcDbEntity
8
0
100
AcDbBlockEnd
0
BLOCK
5
20A
100
AcDbEntity
8
0
100
AcDbBlockBegin
62
7
6
CONTINUOUS
2
*D0
70
65
10
0.0000000000
20
0.0000000000
3
*D0
1

0
TEXT
5
20B
100
AcDbEntity
8
0
100
AcDbText
62
7
6
CONTINUOUS
10
2.7292514221
20
38.2574324107
7
STANDARD
40
3.0000000000
1
510
41
0.6904761905
72
0
100
AcDbText
0
LINE
5
20C
100
AcDbEntity
8
0
100
AcDbLine
62
7
6
CONTINUOUS
10
254.5256817239
20
12.5074324107
11
254.5256817239
21
39.0074324107
0
LINE
5
20D
100
AcDbEntity
8
0
100
AcDbLine
62
7
6
CONTINUOUS
10
-255.4743182761
20
8.1074324107
11
-255.4743182761
21
39.0074324107
0
LINE
5
20E
100
AcDbEntity
8
0
100
AcDbLine
62
7
6
CONTINUOUS
10
254.5256817239
20
37.5074324107
11
-0.4743182761
21
37.5074324107
0
LINE
5
20F
100
AcDbEntity
8
0
100
AcDbLine
62
7
6
CONTINUOUS
10
-255.4743182761
20
37.5074324107
11
-0.4743182761
21
37.5074324107
0
SOLID
5
210
100
AcDbEntity
8
0
100
AcDbTrace
62
7
6
CONTINUOUS
10
251.5256817239
20
36.5574324107
11
254.5256817239
21
37.5074324107
12
251.5256817239
22
38.4574324107
13
251.5256817239
23
38.4574324107
0
SOLID
5
211
100
AcDbEntity
8
0
100
AcDbTrace
62
7
6
CONTINUOUS
10
-252.4743182761
20
38.4574324107
11
-255.4743182761
21
37.5074324107
12
-252.4743182761
22
36.5574324107
13
-252.4743182761
23
36.5574324107
0
ENDBLK
5
212
100
AcDbEntity
8
0
100
AcDbBlockEnd
0
BLOCK
5
213
100
AcDbEntity
8
0
100
AcDbBlockBegin
62
7
6
CONTINUOUS
2
*D1
70
65
10
0.0000000000
20
0.0000000000
3
*D1
1

0
TEXT
5
214
100
AcDbEntity
8
0
100
AcDbText
62
7
6
CONTINUOUS
10
263.7756817239
20
0.3291814285
7
STANDARD
40
3.0000000000
1
53
50
90.0000000000
41
0.7142857143
72
0
100
AcDbText
0
LINE
5
215
100
AcDbEntity
8
0
100
AcDbLine
62
7
6
CONTINUOUS
10
253.0256817239
20
27.5074324107
11
266.0256817239
21
27.5074324107
0
LINE
5
216
100
AcDbEntity
8
0
100
AcDbLine
62
7
6
CONTINUOUS
10
253.0256817239
20
-25.4925675893
11
266.0256817239
21
-25.4925675893
0
LINE
5
217
100
AcDbEntity
8
0
100
AcDbLine
62
7
6
CONTINUOUS
10
264.5256817239
20
27.5074324107
11
264.5256817239
21
1.0074324107
0
LINE
5
218
100
AcDbEntity
8
0
100
AcDbLine
62
7
6
CONTINUOUS
10
264.5256817239
20
-25.4925675893
11
264.5256817239
21
1.0074324107
0
SOLID
5
219
100
AcDbEntity
8
0
100
AcDbTrace
62
7
6
CONTINUOUS
10
265.4756817239
20
24.5074324107
11
264.5256817239
21
27.5074324107
12
263.5756817239
22
24.5074324107
13
263.5756817239
23
24.5074324107
0
SOLID
5
21A
100
AcDbEntity
8
0
100
AcDbTrace
62
7
6
CONTINUOUS
10
263.5756817239
20
-22.4925675893
11
264.5256817239
21
-25.4925675893
12
265.4756817239
22
-22.4925675893
13
265.4756817239
23
-22.4925675893
0
ENDBLK
5
21B
100
AcDbEntity
8
0
100
AcDbBlockEnd
0
BLOCK
5
21C
100
AcDbEntity
8
0
100
AcDbBlockBegin
62
7
6
CONTINUOUS
2
*D2
70
65
10
0.0000000000
20
0.0000000000
3
*D2
1

0
TEXT
5
21D
100
AcDbEntity
8
0
100
AcDbText
62
7
6
CONTINUOUS
10
-292.1922172095
20
38.2574324107
7
STANDARD
40
3.0000000000
1
19
41
0.6785714286
72
0
100
AcDbText
0
LINE
5
21E
100
AcDbEntity
8
0
100
AcDbLine
62
7
6
CONTINUOUS
10
-280.4489539712
20
20.2400437886
11
-280.4489539712
21
39.0074324107
0
LINE
5
21F
100
AcDbEntity
8
0
100
AcDbLine
62
7
6
CONTINUOUS
10
-299.4489539712
20
12.5074324107
11
-299.4489539712
21
39.0074324107
0
LINE
5
220
100
AcDbEntity
8
0
100
AcDbLine
62
7
6
CONTINUOUS
10
-280.4489539712
20
37.5074324107
11
-289.9489539712
21
37.5074324107
0
LINE
5
221
100
AcDbEntity
8
0
100
AcDbLine
62
7
6
CONTINUOUS
10
-299.4489539712
20
37.5074324107
11
-289.9489539712
21
37.5074324107
0
SOLID
5
222
100
AcDbEntity
8
0
100
AcDbTrace
62
7
6
CONTINUOUS
10
-283.4489539712
20
36.5574324107
11
-280.4489539712
21
37.5074324107
12
-283.4489539712
22
38.4574324107
13
-283.4489539712
23
38.4574324107
0
SOLID
5
223
100
AcDbEntity
8
0
100
AcDbTrace
62
7
6
CONTINUOUS
10
-296.4489539712
20
38.4574324107
11
-299.4489539712
21
37.5074324107
12
-296.4489539712
22
36.5574324107
13
-296.4489539712
23
36.5574324107
0
ENDBLK
5
224
100
AcDbEntity
8
0
100
AcDbBlockEnd
0
ENDSEC
0
SECTION
2
ENTITIES
0
DIMENSION
5
225
100
AcDbEntity
8
0
100
AcDbDimension
62
7
6
CONTINUOUS
2
*D0
10
-255.4743182761
20
37.5074324107
11
5.8363942792
21
39.7574324107
70
160
3
DIMSTYLE_1
100
AcDbAlignedDimension
13
254.5256817239
23
12.5074324107
14
-255.4743182761
24
8.1074324107
50
180.000000
100
AcDbRotatedDimension
0
DIMENSION
5
226
100
AcDbEntity
8
0
100
AcDbDimension
62
7
6
CONTINUOUS
2
*D1
10
264.5256817239
20
-25.4925675893
11
262.2756817239
21
2.4720385713
70
160
3
DIMSTYLE_1
100
AcDbAlignedDimension
13
253.0256817239
23
27.5074324107
14
253.0256817239
24
-25.4925675893
50
270.000000
100
AcDbRotatedDimension
0
DIMENSION
5
227
100
AcDbEntity
8
0
100
AcDbDimension
62
7
6
CONTINUOUS
2
*D2
10
-299.4489539712
20
37.5074324107
11
-290.1565029238
21
39.7574324107
70
160
3
DIMSTYLE_1
100
AcDbAlignedDimension
13
-280.4489539712
23
20.2400437886
14
-299.4489539712
24
12.5074324107
50
180.000000
100
AcDbRotatedDimension
0
LINE
5
228
100
AcDbEntity
8
0
100
AcDbLine
62
7
6
CONTINUOUS
10
-255.4743182761
20
20.3058378256
11
-255.4743182761
21
19.7664039052
0
LINE
5
229
100
AcDbEntity
8
0
100
AcDbLine
62
7
6
CONTINUOUS
10
-255.4743182761
20
-17.7515390839
11
-255.4743182761
21
-18.2909730042
0
LINE
5
22A
100
AcDbEntity
8
0
100
AcDbLine
62
7
6
CONTINUOUS
10
-255.4743182761
20
-17.7515390839
11
-255.4743182761
21
19.7664039052
0
LINE
5
22B
100
AcDbEntity
8
0
100
AcDbLine
62
7
6
CONTINUOUS
10
-247.4743182761
20
27.5074324107
11
-247.4743182761
21
25.0074324107
0
LINE
5
22C
100
AcDbEntity
8
0
100
AcDbLine
62
7
6
CONTINUOUS
10
-247.4743182761
20
-22.9925675893
11
-247.4743182761
21
-18.2925675893
0
LINE
5
22D
100
AcDbEntity
8
0
100
AcDbLine
62
7
6
CONTINUOUS
10
-247.4743182761
20
-22.9925675893
11
-247.4743182761
21
-25.4925675893
0
LINE
5
22E
100
AcDbEntity
8
0
100
AcDbLine
62
7
6
CONTINUOUS
10
-247.4743182761
20
20.3074324107
11
-247.4743182761
21
25.0074324107
0
LINE
5
22F
100
AcDbEntity
8
0
100
AcDbLine
62
7
6
CONTINUOUS
10
-245.4743182761
20
14.5050325179
11
-245.4743182761
21
-12.4901676966
0
LINE
5
230
100
AcDbEntity
8
0
100
AcDbLine
62
7
6
CONTINUOUS
10
-247.4743182761
20
-25.4925675893
11
252.5256817239
21
-25.4925675893
0
LINE
5
231
100
AcDbEntity
8
0
100
AcDbLine
62
9
6
CONTINUOUS
10
252.5256817239
20
-24.6138879329
11
-247.4743182761
21
-24.6138879329
0
LINE
5
232
100
AcDbEntity
8
0
100
AcDbLine
62
7
6
CONTINUOUS
10
252.5256817239
20
-22.9925675893
11
-247.4743182761
21
-22.9925675893
0
LINE
5
233
100
AcDbEntity
8
0
100
AcDbLine
62
7
6
CONTINUOUS
10
252.5256817239
20
-21.5783540270
11
-247.4743182761
21
-21.5783540270
0
LINE
5
234
100
AcDbEntity
8
0
100
AcDbLine
62
9
6
CONTINUOUS
10
252.5256817239
20
-18.5912043710
11
-247.4743182761
21
-18.5912043710
0
LINE
5
235
100
AcDbEntity
8
0
100
AcDbLine
62
7
6
CONTINUOUS
10
-255.4743182761
20
-18.2925675893
11
237.5256817239
21
-18.2925675893
0
LINE
5
236
100
AcDbEntity
8
0
100
AcDbLine
62
7
6
CONTINUOUS
10
237.5256817239
20
-17.7515390839
11
-255.4743182761
21
-17.7515390839
0
LINE
5
237
100
AcDbEntity
8
0
100
AcDbLine
62
9
6
CONTINUOUS
10
252.5256817239
20
-17.7251789673
11
237.5256817239
21
-17.7251789673
0
LINE
5
238
100
AcDbEntity
8
0
100
AcDbLine
62
7
6
CONTINUOUS
10
237.5256817239
20
-16.0571239646
11
-255.4743182761
21
-16.0571239646
0
LINE
5
239
100
AcDbEntity
8
0
100
AcDbLine
62
7
6
CONTINUOUS
10
-255.4743182761
20
-14.8347844416
11
237.5256817239
21
-14.8347844416
0
LINE
5
23A
100
AcDbEntity
8
0
100
AcDbLine
62
7
6
CONTINUOUS
10
-245.4743182761
20
-12.4925675893
11
254.5256817239
21
-12.4925675893
0
LINE
5
23B
100
AcDbEntity
8
0
100
AcDbLine
62
9
6
CONTINUOUS
10
254.5256817239
20
-9.9925675893
11
-245.4743182761
21
-9.9925675893
0
LINE
5
23C
100
AcDbEntity
8
0
100
AcDbLine
62
9
6
CONTINUOUS
10
-245.4743182761
20
-9.7352082765
11
-255.4743182761
21
-9.7352082765
0
LINE
5
23D
100
AcDbEntity
8
0
100
AcDbLine
62
9
6
CONTINUOUS
10
-245.4743182761
20
-9.3816548859
11
-255.4743182761
21
-9.3816548859
0
LINE
5
23E
100
AcDbEntity
8
0
100
AcDbLine
62
9
6
CONTINUOUS
10
-245.4743182761
20
-7.3603345423
11
-255.4743182761
21
-7.3603345423
0
LINE
5
23F
100
AcDbEntity
8
0
100
AcDbLine
62
9
6
CONTINUOUS
10
-245.4743182761
20
-5.5925675893
11
-255.4743182761
21
-5.5925675893
0
LINE
5
240
100
AcDbEntity
8
0
100
AcDbLine
62
9
6
CONTINUOUS
10
-245.4743182761
20
7.6074324107
11
-255.4743182761
21
7.6074324107
0
LINE
5
241
100
AcDbEntity
8
0
100
AcDbLine
62
9
6
CONTINUOUS
10
-245.4743182761
20
9.3751993636
11
-255.4743182761
21
9.3751993636
0
LINE
5
242
100
AcDbEntity
8
0
100
AcDbLine
62
9
6
CONTINUOUS
10
-245.4743182761
20
11.3965197072
11
-255.4743182761
21
11.3965197072
0
LINE
5
243
100
AcDbEntity
8
0
100
AcDbLine
62
9
6
CONTINUOUS
10
-245.4743182761
20
11.7500730978
11
-255.4743182761
21
11.7500730978
0
LINE
5
244
100
AcDbEntity
8
0
100
AcDbLine
62
9
6
CONTINUOUS
10
254.5256817239
20
12.0074324107
11
-245.4743182761
21
12.0074324107
0
LINE
5
245
100
AcDbEntity
8
0
100
AcDbLine
62
7
6
CONTINUOUS
10
-245.4743182761
20
14.5074324107
11
254.5256817239
21
14.5074324107
0
LINE
5
246
100
AcDbEntity
8
0
100
AcDbLine
62
7
6
CONTINUOUS
10
-255.4743182761
20
16.8496492629
11
237.5256817239
21
16.8496492629
0
LINE
5
247
100
AcDbEntity
8
0
100
AcDbLine
62
7
6
CONTINUOUS
10
237.5256817239
20
18.0719887859
11
-255.4743182761
21
18.0719887859
0
LINE
5
248
100
AcDbEntity
8
0
100
AcDbLine
62
9
6
CONTINUOUS
10
252.5256817239
20
19.7400437886
11
237.5256817239
21
19.7400437886
0
LINE
5
249
100
AcDbEntity
8
0
100
AcDbLine
62
7
6
CONTINUOUS
10
237.5256817239
20
19.7664039052
11
-255.4743182761
21
19.7664039052
0
LINE
5
24A
100
AcDbEntity
8
0
100
AcDbLine
62
7
6
CONTINUOUS
10
-255.4743182761
20
20.3074324107
11
237.5256817239
21
20.3074324107
0
LINE
5
24B
100
AcDbEntity
8
0
100
AcDbLine
62
9
6
CONTINUOUS
10
252.5256817239
20
20.6060691924
11
-247.4743182761
21
20.6060691924
0
LINE
5
24C
100
AcDbEntity
8
0
100
AcDbLine
62
7
6
CONTINUOUS
10
252.5256817239
20
23.5932188483
11
-247.4743182761
21
23.5932188483
0
LINE
5
24D
100
AcDbEntity
8
0
100
AcDbLine
62
7
6
CONTINUOUS
10
252.5256817239
20
25.0074324107
11
-247.4743182761
21
25.0074324107
0
LINE
5
24E
100
AcDbEntity
8
0
100
AcDbLine
62
9
6
CONTINUOUS
10
252.5256817239
20
26.6287527542
11
-247.4743182761
21
26.6287527542
0
LINE
5
24F
100
AcDbEntity
8
0
100
AcDbLine
62
7
6
CONTINUOUS
10
-247.4743182761
20
27.5074324107
11
252.5256817239
21
27.5074324107
0
LINE
5
250
100
AcDbEntity
8
0
100
AcDbLine
62
7
6
CONTINUOUS
10
237.5256817239
20
20.3058378256
11
237.5256817239
21
19.7664039052
0
LINE
5
251
100
AcDbEntity
8
0
100
AcDbLine
62
7
6
CONTINUOUS
10
237.5256817239
20
-17.7515390839
11
237.5256817239
21
-18.2909730042
0
LINE
5
252
100
AcDbEntity
8
0
100
AcDbLine
62
7
6
CONTINUOUS
10
237.5256817239
20
-17.7515390839
11
237.5256817239
21
-12.4925675893
0
LINE
5
253
100
AcDbEntity
8
0
100
AcDbLine
62
7
6
CONTINUOUS
10
237.5256817239
20
14.5074324107
11
237.5256817239
21
19.7664039052
0
LINE
5
254
100
AcDbEntity
8
0
100
AcDbLine
62
7
6
CONTINUOUS
10
252.5256817239
20
27.5074324107
11
252.5256817239
21
25.0074324107
0
LINE
5
255
100
AcDbEntity
8
0
100
AcDbLine
62
7
6
CONTINUOUS
10
252.5256817239
20
-22.9925675893
11
252.5256817239
21
-25.4809515205
0
LINE
5
256
100
AcDbEntity
8
0
100
AcDbLine
62
7
6
CONTINUOUS
10
252.5256817239
20
-22.9925675893
11
252.5256817239
21
-12.4925675893
0
LINE
5
257
100
AcDbEntity
8
0
100
AcDbLine
62
7
6
CONTINUOUS
10
252.5256817239
20
14.5074324107
11
252.5256817239
21
25.0074324107
0
LINE
5
258
100
AcDbEntity
8
0
100
AcDbLine
62
7
6
CONTINUOUS
10
254.5256817239
20
14.5050325179
11
254.5256817239
21
-12.4901676966
0
LINE
5
259
100
AcDbEntity
8
0
100
AcDbLine
62
7
6
CONTINUOUS
10
-293.8276336276
20
26.6287527542
11
-295.4489539712
21
25.0074324107
0
LINE
5
25A
100
AcDbEntity
8
0
100
AcDbLine
62
7
6
CONTINUOUS
10
-295.4489539712
20
-22.9925675893
11
-293.8276336276
21
-24.6138879329
0
LINE
5
25B
100
AcDbEntity
8
0
100
AcDbLine
62
7
6
CONTINUOUS
10
-292.4134200653
20
25.2145391918
11
-294.0347404088
21
23.5932188483
0
LINE
5
25C
100
AcDbEntity
8
0
100
AcDbLine
62
9
6
CONTINUOUS
10
-280.4489539712
20
-17.7251789673
11
-282.4489539712
21
-17.7251789673
0
LINE
5
25D
100
AcDbEntity
8
0
100
AcDbLine
62
7
6
CONTINUOUS
10
-294.0347404088
20
-21.5783540270
11
-292.4134200653
21
-23.1996743705
0
LINE
5
25E
100
AcDbEntity
8
0
100
AcDbLine
62
9
6
CONTINUOUS
10
-284.0489539712
20
-16.0571239646
11
-286.0489539712
21
-16.0571239646
0
LINE
5
25F
100
AcDbEntity
8
0
100
AcDbLine
62
9
6
CONTINUOUS
10
-290.2063132841
20
27.1055086220
11
-291.2063132841
21
25.3734578144
0
LINE
5
260
100
AcDbEntity
8
0
100
AcDbLine
62
9
6
CONTINUOUS
10
-293.4866224755
20
19.7664039052
11
-294.5491465476
21
18.0719887859
0
LINE
5
261
100
AcDbEntity
8
0
100
AcDbLine
62
9
6
CONTINUOUS
10
-293.4866224755
20
-17.7515390839
11
-294.5491465476
21
-16.0571239646
0
LINE
5
262
100
AcDbEntity
8
0
100
AcDbLine
62
9
6
CONTINUOUS
10
-290.2063132841
20
-25.0906438007
11
-291.2063132841
21
-23.3585929931
0
LINE
5
263
100
AcDbEntity
8
0
100
AcDbLine
62
9
6
CONTINUOUS
10
-295.3537158760
20
13.9323260232
11
-296.6299063522
21
12.3924111332
0
LINE
5
264
100
AcDbEntity
8
0
100
AcDbLine
62
7
6
CONTINUOUS
10
-284.0489539712
20
-10.3425675893
11
-286.0489539712
21
-10.3425675893
0
LINE
5
265
100
AcDbEntity
8
0
100
AcDbLine
62
9
6
CONTINUOUS
10
-295.3537158760
20
-11.9174612019
11
-296.6299063522
21
-10.3775463118
0
LINE
5
266
100
AcDbEntity
8
0
100
AcDbLine
62
7
6
CONTINUOUS
10
-299.4489539712
20
12.0074324107
11
-299.4489539712
21
-9.9925675893
0
LINE
5
267
100
AcDbEntity
8
0
100
AcDbLine
62
9
6
CONTINUOUS
10
-299.4489539712
20
-9.9925675893
11
-297.4489539712
21
-9.9925675893
0
LINE
5
268
100
AcDbEntity
8
0
100
AcDbLine
62
7
6
CONTINUOUS
10
-284.0489539712
20
-9.7352082765
11
-286.0489539712
21
-9.7352082765
0
LINE
5
269
100
AcDbEntity
8
0
100
AcDbLine
62
7
6
CONTINUOUS
10
-297.4489539712
20
12.0074324107
11
-297.4489539712
21
-9.9925675893
0
LINE
5
26A
100
AcDbEntity
8
0
100
AcDbLine
62
7
6
CONTINUOUS
10
-282.4489539712
20
-7.6425675893
11
-296.4489539712
21
-7.6425675893
0
LINE
5
26B
100
AcDbEntity
8
0
100
AcDbLine
62
9
6
CONTINUOUS
10
-282.4489539712
20
-6.6664990986
11
-296.4489539712
21
-6.6664990986
0
LINE
5
26C
100
AcDbEntity
8
0
100
AcDbLine
62
7
6
CONTINUOUS
10
-296.4489539712
20
-7.6425675893
11
-296.4489539712
21
9.6574324107
0
LINE
5
26D
100
AcDbEntity
8
0
100
AcDbLine
62
7
6
CONTINUOUS
10
-282.4489539712
20
-5.8483021823
11
-296.4489539712
21
-5.8483021823
0
LINE
5
26E
100
AcDbEntity
8
0
100
AcDbLine
62
7
6
CONTINUOUS
10
-282.4489539712
20
-4.6348332290
11
-296.4489539712
21
-4.6348332290
0
LINE
5
26F
100
AcDbEntity
8
0
100
AcDbLine
62
9
6
CONTINUOUS
10
-281.9489539712
20
22.3381199999
11
-282.9489539712
21
20.6060691924
0
LINE
5
270
100
AcDbEntity
8
0
100
AcDbLine
62
7
6
CONTINUOUS
10
-286.1954005806
20
11.3965197072
11
-287.9344878771
21
9.6574324107
0
LINE
5
271
100
AcDbEntity
8
0
100
AcDbLine
62
7
6
CONTINUOUS
10
-286.1954005806
20
-9.3816548859
11
-287.9344878771
21
-7.6425675893
0
LINE
5
272
100
AcDbEntity
8
0
100
AcDbLine
62
9
6
CONTINUOUS
10
-281.9489539712
20
-20.3232551786
11
-282.9489539712
21
-18.5912043710
0
LINE
5
273
100
AcDbEntity
8
0
100
AcDbLine
62
7
6
CONTINUOUS
10
-284.7811870182
20
9.9823061448
11
-285.1060607524
21
9.6574324107
0
LINE
5
274
100
AcDbEntity
8
0
100
AcDbLine
62
7
6
CONTINUOUS
10
-282.4489539712
20
-1.9386379661
11
-296.4489539712
21
-1.9386379661
0
LINE
5
275
100
AcDbEntity
8
0
100
AcDbLine
62
7
6
CONTINUOUS
10
-285.1060607524
20
-7.6425675893
11
-284.7811870182
21
-7.9674413235
0
LINE
5
276
100
AcDbEntity
8
0
100
AcDbLine
62
9
6
CONTINUOUS
10
-282.4489539712
20
-0.1164990986
11
-296.4489539712
21
-0.1164990986
0
LINE
5
277
100
AcDbEntity
8
0
100
AcDbLine
62
7
6
CONTINUOUS
10
-282.4489539712
20
0.0035852925
11
-296.4489539712
21
0.0035852925
0
LINE
5
278
100
AcDbEntity
8
0
100
AcDbLine
62
7
6
CONTINUOUS
10
-282.4489539712
20
2.0112795288
11
-296.4489539712
21
2.0112795288
0
LINE
5
279
100
AcDbEntity
8
0
100
AcDbLine
62
9
6
CONTINUOUS
10
-282.4489539712
20
2.1313639199
11
-296.4489539712
21
2.1313639199
0
LINE
5
27A
100
AcDbEntity
8
0
100
AcDbLine
62
7
6
CONTINUOUS
10
-286.0489539712
20
-9.7352082765
11
-286.0489539712
21
-10.2162119470
0
LINE
5
27B
100
AcDbEntity
8
0
100
AcDbLine
62
7
6
CONTINUOUS
10
-286.0489539712
20
-16.0571239646
11
-286.0489539712
21
-10.3425675893
0
LINE
5
27C
100
AcDbEntity
8
0
100
AcDbLine
62
7
6
CONTINUOUS
10
-286.0489539712
20
11.7500730978
11
-286.0489539712
21
18.0719887859
0
LINE
5
27D
100
AcDbEntity
8
0
100
AcDbLine
62
7
6
CONTINUOUS
10
-297.2489539712
20
-17.7515390839
11
-296.1864298992
21
-16.0571239646
0
LINE
5
27E
100
AcDbEntity
8
0
100
AcDbLine
62
7
6
CONTINUOUS
10
-282.4489539712
20
3.9535027874
11
-296.4489539712
21
3.9535027874
0
LINE
5
27F
100
AcDbEntity
8
0
100
AcDbLine
62
7
6
CONTINUOUS
10
-297.2489539712
20
19.7664039052
11
-296.1864298992
21
18.0719887859
0
LINE
5
280
100
AcDbEntity
8
0
100
AcDbLine
62
7
6
CONTINUOUS
10
-282.4489539712
20
6.6496980503
11
-296.4489539712
21
6.6496980503
0
LINE
5
281
100
AcDbEntity
8
0
100
AcDbLine
62
7
6
CONTINUOUS
10
-284.0489539712
20
-16.0571239646
11
-284.0489539712
21
-9.7352082765
0
LINE
5
282
100
AcDbEntity
8
0
100
AcDbLine
62
7
6
CONTINUOUS
10
-284.0489539712
20
11.7500730978
11
-284.0489539712
21
18.0719887859
0
LINE
5
283
100
AcDbEntity
8
0
100
AcDbLine
62
7
6
CONTINUOUS
10
-282.4489539712
20
-17.7251789673
11
-282.4489539712
21
19.7400437886
0
LINE
5
284
100
AcDbEntity
8
0
100
AcDbLine
62
7
6
CONTINUOUS
10
-287.7060607524
20
-7.6425675893
11
-287.8202743148
21
-7.7567811517
0
LINE
5
285
100
AcDbEntity
8
0
100
AcDbLine
62
7
6
CONTINUOUS
10
-282.4489539712
20
7.8631670036
11
-296.4489539712
21
7.8631670036
0
LINE
5
286
100
AcDbEntity
8
0
100
AcDbLine
62
9
6
CONTINUOUS
10
-282.4489539712
20
8.6813639199
11
-296.4489539712
21
8.6813639199
0
LINE
5
287
100
AcDbEntity
8
0
100
AcDbLine
62
7
6
CONTINUOUS
10
-287.7060607524
20
9.6574324107
11
-287.8202743148
21
9.7716459730
0
LINE
5
288
100
AcDbEntity
8
0
100
AcDbLine
62
7
6
CONTINUOUS
10
-280.4489539712
20
-17.7251789673
11
-280.4489539712
21
19.7400437886
0
LINE
5
289
100
AcDbEntity
8
0
100
AcDbLine
62
7
6
CONTINUOUS
10
-290.2489539712
20
-11.9174612019
11
-288.9727634950
21
-10.3775463118
0
LINE
5
28A
100
AcDbEntity
8
0
100
AcDbLine
62
7
6
CONTINUOUS
10
-282.4489539712
20
9.6574324107
11
-296.4489539712
21
9.6574324107
0
LINE
5
28B
100
AcDbEntity
8
0
100
AcDbLine
62
7
6
CONTINUOUS
10
-290.2489539712
20
13.9323260232
11
-288.9727634950
21
12.3924111332
0
LINE
5
28C
100
AcDbEntity
8
0
100
AcDbLine
62
7
6
CONTINUOUS
10
-284.7811870182
20
-7.9674413235
11
-286.1954005806
21
-9.3816548859
0
LINE
5
28D
100
AcDbEntity
8
0
100
AcDbLine
62
7
6
CONTINUOUS
10
-284.0489539712
20
11.7500730978
11
-286.0489539712
21
11.7500730978
0
LINE
5
28E
100
AcDbEntity
8
0
100
AcDbLine
62
9
6
CONTINUOUS
10
-299.4489539712
20
12.0074324107
11
-297.4489539712
21
12.0074324107
0
LINE
5
28F
100
AcDbEntity
8
0
100
AcDbLine
62
7
6
CONTINUOUS
10
-284.0489539712
20
12.3574324107
11
-286.0489539712
21
12.3574324107
0
LINE
5
290
100
AcDbEntity
8
0
100
AcDbLine
62
7
6
CONTINUOUS
10
-284.7811870182
20
9.9823061448
11
-286.1954005806
21
11.3965197072
0
LINE
5
291
100
AcDbEntity
8
0
100
AcDbLine
62
9
6
CONTINUOUS
10
-287.1114780433
20
-17.7515390839
11
-286.0489539712
21
-16.0571239646
0
LINE
5
292
100
AcDbEntity
8
0
100
AcDbLine
62
7
6
CONTINUOUS
10
-295.4489539712
20
-22.9925675893
11
-294.0347404088
21
-21.5783540270
0
LINE
5
293
100
AcDbEntity
8
0
100
AcDbLine
62
7
6
CONTINUOUS
10
-295.4489539712
20
25.0074324107
11
-294.0347404088
21
23.5932188483
0
LINE
5
294
100
AcDbEntity
8
0
100
AcDbLine
62
9
6
CONTINUOUS
10
-287.1114780433
20
19.7664039052
11
-286.0489539712
21
18.0719887859
0
LINE
5
295
100
AcDbEntity
8
0
100
AcDbLine
62
9
6
CONTINUOUS
10
-293.8276336276
20
-24.6138879329
11
-292.4134200653
21
-23.1996743705
0
LINE
5
296
100
AcDbEntity
8
0
100
AcDbLine
62
9
6
CONTINUOUS
10
-284.0489539712
20
18.0719887859
11
-286.0489539712
21
18.0719887859
0
LINE
5
297
100
AcDbEntity
8
0
100
AcDbLine
62
9
6
CONTINUOUS
10
-293.8276336276
20
26.6287527542
11
-292.4134200653
21
25.2145391918
0
LINE
5
298
100
AcDbEntity
8
0
100
AcDbLine
62
9
6
CONTINUOUS
10
-280.4489539712
20
19.7400437886
11
-282.4489539712
21
19.7400437886
0
LINE
5
299
100
AcDbEntity
8
0
100
AcDbLine
62
7
6
CONTINUOUS
10
-291.2063132841
20
-23.3585929931
11
-282.9489539712
21
-18.5912043710
0
LINE
5
29A
100
AcDbEntity
8
0
100
AcDbLine
62
7
6
CONTINUOUS
10
-282.9489539712
20
20.6060691924
11
-291.2063132841
21
25.3734578144
0
LINE
5
29B
100
AcDbEntity
8
0
100
AcDbLine
62
7
6
CONTINUOUS
10
-290.2063132841
20
-25.0906438007
11
-281.9489539712
21
-20.3232551786
0
LINE
5
29C
100
AcDbEntity
8
0
100
AcDbLine
62
7
6
CONTINUOUS
10
-281.9489539712
20
22.3381199999
11
-290.2063132841
21
27.1055086220
0
ARC
5
29D
100
AcDbEntity
8
0
100
AcDbCircle
62
7
6
CONTINUOUS
10
-22.4743182761
20
1.0074324107
40
5.7500000000
100
AcDbArc
50
149.8883303814
51
210.1116696186
0
ARC
5
29E
100
AcDbEntity
8
0
100
AcDbCircle
62
7
6
CONTINUOUS
10
-22.4743182761
20
1.0074324107
40
3.5000000000
100
AcDbArc
50
115.4400587843
51
244.5599412157
0
CIRCLE
5
29F
100
AcDbEntity
8
0
100
AcDbCircle
62
7
6
CONTINUOUS
10
196.5256817239
20
1.0074324107
40
3.5000000000
0
CIRCLE
5
2A0
100
AcDbEntity
8
0
100
AcDbCircle
62
7
6
CONTINUOUS
10
164.5256817239
20
1.0074324107
40
3.5000000000
0
CIRCLE
5
2A1
100
AcDbEntity
8
0
100
AcDbCircle
62
7
6
CONTINUOUS
10
-25.4743182761
20
1.0074324107
40
3.5000000000
0
CIRCLE
5
2A2
100
AcDbEntity
8
0
100
AcDbCircle
62
7
6
CONTINUOUS
10
-57.4743182761
20
1.0074324107
40
3.5000000000
0
CIRCLE
5
2A3
100
AcDbEntity
8
0
100
AcDbCircle
62
7
6
CONTINUOUS
10
-185.4743182761
20
1.0074324107
40
3.5000000000
0
CIRCLE
5
2A4
100
AcDbEntity
8
0
100
AcDbCircle
62
7
6
CONTINUOUS
10
-217.4743182761
20
1.0074324107
40
3.5000000000
0
ARC
5
2A5
100
AcDbEntity
8
0
100
AcDbCircle
62
7
6
CONTINUOUS
10
-292.8013349236
20
-14.9972909819
40
6.0000000000
100
AcDbArc
50
50.3500676058
51
129.6499323942
0
ARC
5
2A6
100
AcDbEntity
8
0
100
AcDbCircle
62
7
6
CONTINUOUS
10
-296.9489539712
20
-9.9925675893
40
0.5000000000
100
AcDbArc
50
180.0000000000
51
309.6499323942
0
ARC
5
2A7
100
AcDbEntity
8
0
100
AcDbCircle
62
7
6
CONTINUOUS
10
-296.9489539712
20
12.0074324107
40
0.5000000000
100
AcDbArc
50
50.3500676058
51
180.0000000000
0
ARC
5
2A8
100
AcDbEntity
8
0
100
AcDbCircle
62
7
6
CONTINUOUS
10
-292.8013349236
20
17.0121558032
40
6.0000000000
100
AcDbArc
50
230.3500676058
51
309.6499323942
0
ARC
5
2A9
100
AcDbEntity
8
0
100
AcDbCircle
62
7
6
CONTINUOUS
10
-295.3677882234
20
16.7664947560
40
1.5409376546
100
AcDbArc
50
57.9092347634
51
122.0907652366
0
ARC
5
2AA
100
AcDbEntity
8
0
100
AcDbCircle
62
7
6
CONTINUOUS
10
-290.2990502594
20
24.8496492629
40
8.0000000000
100
AcDbArc
50
237.9092347634
51
302.0907652366
0
ARC
5
2AB
100
AcDbEntity
8
0
100
AcDbCircle
62
7
6
CONTINUOUS
10
-290.2990502594
20
-22.8347844416
40
8.0000000000
100
AcDbArc
50
57.9092347634
51
122.0907652366
0
ARC
5
2AC
100
AcDbEntity
8
0
100
AcDbCircle
62
7
6
CONTINUOUS
10
-295.3677882234
20
-14.7516299347
40
1.5409376546
100
AcDbArc
50
237.9092347634
51
302.0907652366
0
ARC
5
2AD
100
AcDbEntity
8
0
100
AcDbCircle
62
7
6
CONTINUOUS
10
-286.5489539712
20
-9.7352082765
40
0.5000000000
100
AcDbArc
50
0.0000000000
51
45.0000000000
0
ARC
5
2AE
100
AcDbEntity
8
0
100
AcDbCircle
62
7
6
CONTINUOUS
10
-286.5489539712
20
11.7500730978
40
0.5000000000
100
AcDbArc
50
315.0000000000
51
360.0000000000
0
ARC
5
2AF
100
AcDbEntity
8
0
100
AcDbCircle
62
7
6
CONTINUOUS
10
-291.7063132841
20
24.5074324107
40
1.0000000000
100
AcDbArc
50
60.0000000000
51
135.0000000000
0
ARC
5
2B0
100
AcDbEntity
8
0
100
AcDbCircle
62
7
6
CONTINUOUS
10
-283.4489539712
20
19.7400437886
40
1.0000000000
100
AcDbArc
50
0.0000000000
51
60.0000000000
0
ARC
5
2B1
100
AcDbEntity
8
0
100
AcDbCircle
62
7
6
CONTINUOUS
10
-283.4489539712
20
-17.7251789673
40
1.0000000000
100
AcDbArc
50
300.0000000000
51
360.0000000000
0
ARC
5
2B2
100
AcDbEntity
8
0
100
AcDbCircle
62
7
6
CONTINUOUS
10
-291.7063132841
20
-22.4925675893
40
1.0000000000
100
AcDbArc
50
225.0000000000
51
300.0000000000
0
ARC
5
2B3
100
AcDbEntity
8
0
100
AcDbCircle
62
7
6
CONTINUOUS
10
-292.8013349236
20
-14.9972909819
40
4.0000000000
100
AcDbArc
50
50.3500676058
51
129.6499323942
0
ARC
5
2B4
100
AcDbEntity
8
0
100
AcDbCircle
62
7
6
CONTINUOUS
10
-296.9489539712
20
-9.9925675893
40
2.5000000000
100
AcDbArc
50
180.0000000000
51
309.6499323942
0
ARC
5
2B5
100
AcDbEntity
8
0
100
AcDbCircle
62
7
6
CONTINUOUS
10
-296.9489539712
20
12.0074324107
40
2.5000000000
100
AcDbArc
50
50.3500676058
51
180.0000000000
0
ARC
5
2B6
100
AcDbEntity
8
0
100
AcDbCircle
62
7
6
CONTINUOUS
10
-292.8013349236
20
17.0121558032
40
4.0000000000
100
AcDbArc
50
230.3500676058
51
309.6499323942
0
ARC
5
2B7
100
AcDbEntity
8
0
100
AcDbCircle
62
7
6
CONTINUOUS
10
-286.5489539712
20
11.7500730978
40
2.5000000000
100
AcDbArc
50
315.0000000000
51
360.0000000000
0
ARC
5
2B8
100
AcDbEntity
8
0
100
AcDbCircle
62
7
6
CONTINUOUS
10
-286.5489539712
20
-9.7352082765
40
2.5000000000
100
AcDbArc
50
0.0000000000
51
45.0000000000
0
ARC
5
2B9
100
AcDbEntity
8
0
100
AcDbCircle
62
7
6
CONTINUOUS
10
-295.3677882234
20
16.7664947560
40
3.5409376546
100
AcDbArc
50
57.9092347634
51
122.0907652366
0
ARC
5
2BA
100
AcDbEntity
8
0
100
AcDbCircle
62
7
6
CONTINUOUS
10
-290.2990502594
20
24.8496492629
40
6.0000000000
100
AcDbArc
50
237.9092347634
51
302.0907652366
0
ARC
5
2BB
100
AcDbEntity
8
0
100
AcDbCircle
62
7
6
CONTINUOUS
10
-286.0489539712
20
18.0719887859
40
2.0000000000
100
AcDbArc
50
0.0000000000
51
122.0907652366
0
ARC
5
2BC
100
AcDbEntity
8
0
100
AcDbCircle
62
7
6
CONTINUOUS
10
-286.0489539712
20
-16.0571239646
40
2.0000000000
100
AcDbArc
50
237.9092347634
51
360.0000000000
0
ARC
5
2BD
100
AcDbEntity
8
0
100
AcDbCircle
62
7
6
CONTINUOUS
10
-290.2990502594
20
-22.8347844416
40
6.0000000000
100
AcDbArc
50
57.9092347634
51
122.0907652366
0
ARC
5
2BE
100
AcDbEntity
8
0
100
AcDbCircle
62
7
6
CONTINUOUS
10
-295.3677882234
20
-14.7516299347
40
3.5409376546
100
AcDbArc
50
237.9092347634
51
302.0907652366
0
ARC
5
2BF
100
AcDbEntity
8
0
100
AcDbCircle
62
7
6
CONTINUOUS
10
-291.7063132841
20
24.5074324107
40
3.0000000000
100
AcDbArc
50
60.0000000000
51
135.0000000000
0
ARC
5
2C0
100
AcDbEntity
8
0
100
AcDbCircle
62
7
6
CONTINUOUS
10
-283.4489539712
20
19.7400437886
40
3.0000000000
100
AcDbArc
50
0.0000000000
51
60.0000000000
0
ARC
5
2C1
100
AcDbEntity
8
0
100
AcDbCircle
62
7
6
CONTINUOUS
10
-283.4489539712
20
-17.7251789673
40
3.0000000000
100
AcDbArc
50
300.0000000000
51
360.0000000000
0
ARC
5
2C2
100
AcDbEntity
8
0
100
AcDbCircle
62
7
6
CONTINUOUS
10
-291.7063132841
20
-22.4925675893
40
3.0000000000
100
AcDbArc
50
225.0000000000
51
300.0000000000
0
ENDSEC
0
SECTION
2
OBJECTS
0
DICTIONARY
5
2C3
100
AcDbDictionary
3
ACAD_GROUP
350
2C4
3
ACAD_MLINESTYLE
350
2C5
0
DICTIONARY
5
2C4
102
{ACAD_REACTORS
330
2C3
102
}
100
AcDbDictionary
0
DICTIONARY
5
2C5
102
{ACAD_REACTORS
330
2C3
102
}
100
AcDbDictionary
3
STANDARD
350
2C6
0
MLINESTYLE
5
2C6
102
{ACAD_REACTORS
330
2C5
102
}
100
AcDbMlineStyle
2
STANDARD
70
0
3

62
256
51
90.0
52
90.0
71
2
49
0.5
62
256
6
BYLAYER
49
-0.5
62
256
6
BYLAYER
0
ENDSEC
0
EOF
