0
SECTION
2
HEADER
9
$ACADVER
1
AC1014
9
$HANDSEED
5
       3AA
9
$EXTMAX
10
297.0000000000
20
210.0000000000
9
$EXTMIN
10
0.0000000000
20
0.0000000000
9
$LIMMIN
10
0.0000000000
20
0.0000000000
9
$LIMMAX
10
297.0000000000
20
210.0000000000
9
$VIEWCTR
10
148.5000000000
20
105.0000000000
9
$VIEWSIZE
40
210.0000000000
9
$CLAYER
8
0
9
$LTSCALE
40
16.3350000000
9
$CELTYPE
6
BYLAYER
9
$DIMSCALE
40
1
9
$DIMASZ
40
3.0000000000
9
$DIMEXO
40
1.8562500000
9
$DIMDLI
40
11.2860000000
9
$DIMEXE
40
5.3460000000
9
$DIMCEN
40
2.6730000000
9
$DIMLFAC
40
1.0000000000
9
$DIMTXT
40
3.0000000000
9
$DIMTOL
70
1
9
$DIMLIM
70
0
9
$DIMTFAC
40
1.0000000000
9
$DIMTP
40
0.0100000000
9
$DIMTM
40
0.0100000000
9
$MEASUREMENT
70
1
0
ENDSEC
0
SECTION
2
CLASSES
0
ENDSEC
0
SECTION
2
TABLES
0
TABLE
2
VPORT
5
8
100
AcDbSymbolTable
70
2
0
VPORT
5
1F4
100
AcDbSymbolTableRecord
100
AcDbViewportTableRecord
2
*ACTIVE
70
0
10
0.0
20
0.0
11
1.0
21
1.0
12
148.5000000000
22
105.0000000000
13
0.0
23
0.0
14
1.0
24
1.0
15
0.0
25
0.0
16
0.0
26
0.0
36
1.0
17
0.0
27
0.0
37
0.0
40
210.0000000000
41
1.4142857143
42
50.0
43
0.0
44
0.0
50
0.0
51
0.0
71
0
72
100
73
1
74
1
75
0
76
0
77
0
78
0
0
ENDTAB
0
TABLE
2
LTYPE
5
5
100
AcDbSymbolTable
70
6
0
LTYPE
5
14
100
AcDbSymbolTableRecord
100
AcDbLinetypeTableRecord
2
BYBLOCK
70
0
3

72
65
73
0
40
0.0
0
LTYPE
5
15
100
AcDbSymbolTableRecord
100
AcDbLinetypeTableRecord
2
BYLAYER
70
0
3

72
65
73
0
40
0.0
0
LTYPE
5
16
100
AcDbSymbolTableRecord
100
AcDbLinetypeTableRecord
2
CONTINUOUS
70
64
3
Solid line
72
65
73
0
40
0
0
LTYPE
5
1F5
100
AcDbSymbolTableRecord
100
AcDbLinetypeTableRecord
2
CENTER
70
64
3
____ _ ____ _ ____ _ ____ _ ____ _ ____ _ ____
72
65
73
4
40
0.6
49
0.375
74
0
49
-0.075
74
0
49
0.075
74
0
49
-0.075
74
0
0
LTYPE
5
1F6
100
AcDbSymbolTableRecord
100
AcDbLinetypeTableRecord
2
HIDDEN
70
64
3
- - - - - - - - - - - - - - - - - - - -
72
65
73
2
40
0.2
49
0.1
74
0
49
-0.1
74
0
0
LTYPE
5
1F7
100
AcDbSymbolTableRecord
100
AcDbLinetypeTableRecord
2
PHANTOM
70
64
3
_____ _ _ _____ _ _ _____ _ _ _____
72
65
73
6
40
0.8
49
0.45
74
0
49
-0.05
74
0
49
0.1
74
0
49
-0.05
74
0
49
0.1
74
0
49
-0.05
74
0
0
LTYPE
5
1F8
100
AcDbSymbolTableRecord
100
AcDbLinetypeTableRecord
2
DOT
70
64
3
. . . . . . . . . . . . . . . . . . . .
72
65
73
2
40
0.2
49
0.1
74
0
49
-0.1
74
0
0
LTYPE
5
1F9
100
AcDbSymbolTableRecord
100
AcDbLinetypeTableRecord
2
DASHED
70
64
3
- - - - - - - - - - - - - - - - - - - -
72
65
73
2
40
0.2
49
0.1
74
0
49
-0.1
74
0
0
ENDTAB
0
TABLE
2
LAYER
5
2
100
AcDbSymbolTable
70
36
0
LAYER
5
10
100
AcDbSymbolTableRecord
100
AcDbLayerTableRecord
2
0
70
0
62
7
6
CONTINUOUS
0
LAYER
5
1FA
100
AcDbSymbolTableRecord
100
AcDbLayerTableRecord
2
DEFAULT_1
70
0
62
7
6
CENTER
0
LAYER
5
1FB
100
AcDbSymbolTableRecord
100
AcDbLayerTableRecord
2
DEFAULT_2
70
0
62
8
6
HIDDEN
0
LAYER
5
1FC
100
AcDbSymbolTableRecord
100
AcDbLayerTableRecord
2
DEFAULT_3
70
0
62
7
6
PHANTOM
0
LAYER
5
1FD
100
AcDbSymbolTableRecord
100
AcDbLayerTableRecord
2
ASSI
70
0
62
7
6
CONTINUOUS
0
LAYER
5
1FE
100
AcDbSymbolTableRecord
100
AcDbLayerTableRecord
2
COORDINATE
70
0
62
7
6
CONTINUOUS
0
LAYER
5
1FF
100
AcDbSymbolTableRecord
100
AcDbLayerTableRecord
2
COORD_ORIGINE
70
0
62
7
6
CONTINUOUS
0
LAYER
5
200
100
AcDbSymbolTableRecord
100
AcDbLayerTableRecord
2
CURVE
70
0
62
7
6
CONTINUOUS
0
LAYER
5
201
100
AcDbSymbolTableRecord
100
AcDbLayerTableRecord
2
DRAFT
70
0
62
7
6
CONTINUOUS
0
LAYER
5
202
100
AcDbSymbolTableRecord
100
AcDbLayerTableRecord
2
IGES
70
0
62
7
6
CONTINUOUS
0
LAYER
5
203
100
AcDbSymbolTableRecord
100
AcDbLayerTableRecord
2
NOTE
70
0
62
7
6
CONTINUOUS
0
LAYER
5
204
100
AcDbSymbolTableRecord
100
AcDbLayerTableRecord
2
PIANI
70
0
62
7
6
CONTINUOUS
0
LAYER
5
205
100
AcDbSymbolTableRecord
100
AcDbLayerTableRecord
2
PIANI_ORIGINE
70
0
62
7
6
CONTINUOUS
0
LAYER
5
206
100
AcDbSymbolTableRecord
100
AcDbLayerTableRecord
2
PUNTI
70
0
62
7
6
CONTINUOUS
0
LAYER
5
207
100
AcDbSymbolTableRecord
100
AcDbLayerTableRecord
2
RACCORDO
70
0
62
7
6
CONTINUOUS
0
LAYER
5
208
100
AcDbSymbolTableRecord
100
AcDbLayerTableRecord
2
SMUSSO
70
0
62
7
6
CONTINUOUS
0
LAYER
5
209
100
AcDbSymbolTableRecord
100
AcDbLayerTableRecord
2
SNAPLINE
70
0
62
7
6
CONTINUOUS
0
LAYER
5
20A
100
AcDbSymbolTableRecord
100
AcDbLayerTableRecord
2
SUPERFICI
70
0
62
7
6
CONTINUOUS
0
LAYER
5
20B
100
AcDbSymbolTableRecord
100
AcDbLayerTableRecord
2
TRASH
70
0
62
7
6
CONTINUOUS
0
ENDTAB
0
TABLE
2
STYLE
5
3
100
AcDbSymbolTable
70
1
0
STYLE
5
11
100
AcDbSymbolTableRecord
100
AcDbTextStyleTableRecord
2
STANDARD
70
0
40
0.0
41
0.8000000000
50
0.0
71
0
42
0.2
3
txt
4

0
ENDTAB
0
TABLE
2
VIEW
5
6
100
AcDbSymbolTable
70
0
0
ENDTAB
0
TABLE
2
UCS
5
7
100
AcDbSymbolTable
70
0
0
ENDTAB
0
TABLE
2
APPID
5
9
100
AcDbSymbolTable
70
1
0
APPID
5
20C
100
AcDbSymbolTableRecord
100
AcDbRegAppTableRecord
2
ACAD
70
0
0
ENDTAB
0
TABLE
2
DIMSTYLE
5
A
100
AcDbSymbolTable
70
1
0
DIMSTYLE
105
20D
100
AcDbSymbolTableRecord
100
AcDbDimStyleTableRecord
2
STANDARD
70
0
3

4

5

6

7

40
1.0
41
3.0000000000
42
0.0625
43
0.38
44
0.18
45
0.0
46
0.0
47
0.0100000000
48
0.0100000000
140
3.0000000000
141
0.09
142
0.0
143
25.4
144
1.0000000000
145
0.0
146
1.0000000000
147
0.09
71
1
72
0
73
0
74
0
75
0
76
0
77
1
78
8
170
0
171
2
172
0
173
0
174
0
175
0
176
0
177
0
178
0
270
2
271
2
272
2
273
2
274
2
340
11
275
0
280
0
281
0
282
0
283
1
284
8
285
0
286
0
287
3
288
0
0
DIMSTYLE
105
20E
100
AcDbSymbolTableRecord
100
AcDbDimStyleTableRecord
2
DIMSTYLE_1
70
0
3

4

5

6

7

40
1.0
41
3.0000000000
42
0.0625
43
0.38
44
0.18
45
0.0
46
0.0
47
0.0000000000
48
0.0000000000
140
3.0000000000
141
0.09
142
0.0
143
25.4
144
1.0000000000
145
0.0
146
1.0000000000
147
0.09
71
0
72
0
73
0
74
0
75
0
76
0
77
1
78
8
170
0
171
2
172
0
173
0
174
0
175
0
176
0
177
0
178
0
270
2
271
0
272
0
273
2
274
2
340
11
275
0
280
0
281
0
282
0
283
1
284
8
285
0
286
0
287
3
288
0
0
DIMSTYLE
105
20F
100
AcDbSymbolTableRecord
100
AcDbDimStyleTableRecord
2
DIMSTYLE_2
70
0
3

4

5

6

7

40
1.0
41
3.0000000000
42
0.0625
43
0.38
44
0.18
45
0.0
46
0.0
47
0.0000000000
48
0.0000000000
140
3.0000000000
141
0.09
142
0.0
143
25.4
144
1.0000000000
145
0.0
146
1.0000000000
147
0.09
71
0
72
0
73
0
74
0
75
0
76
0
77
1
78
8
170
0
171
2
172
0
173
0
174
0
175
0
176
0
177
0
178
0
270
2
271
2
272
2
273
2
274
2
340
11
275
0
280
0
281
0
282
0
283
1
284
8
285
0
286
0
287
3
288
0
0
ENDTAB
0
TABLE
2
BLOCK_RECORD
5
1
100
AcDbSymbolTable
70
0
0
BLOCK_RECORD
5
1B
100
AcDbSymbolTableRecord
100
AcDbBlockTableRecord
2
*MODEL_SPACE
0
BLOCK_RECORD
5
1C
100
AcDbSymbolTableRecord
100
AcDbBlockTableRecord
2
*PAPER_SPACE
0
BLOCK_RECORD
5
210
100
AcDbSymbolTableRecord
100
AcDbBlockTableRecord
2
*D0
0
BLOCK_RECORD
5
211
100
AcDbSymbolTableRecord
100
AcDbBlockTableRecord
2
*D1
0
BLOCK_RECORD
5
212
100
AcDbSymbolTableRecord
100
AcDbBlockTableRecord
2
*D2
0
ENDTAB
0
ENDSEC
0
SECTION
2
BLOCKS
0
BLOCK
5
1E
100
AcDbEntity
8
0
100
AcDbBlockBegin
2
*MODEL_SPACE
70
0
10
0.0
20
0.0
30
0.0
3
*MODEL_SPACE
1

0
ENDBLK
5
1F
100
AcDbEntity
8
0
100
AcDbBlockEnd
0
BLOCK
5
20
100
AcDbEntity
8
0
100
AcDbBlockBegin
2
*PAPER_SPACE
70
0
10
0.0
20
0.0
30
0.0
3
*PAPER_SPACE
1

0
ENDBLK
5
21
100
AcDbEntity
8
0
100
AcDbBlockEnd
0
BLOCK
5
213
100
AcDbEntity
8
0
100
AcDbBlockBegin
62
7
6
CONTINUOUS
2
*D0
70
65
10
0.0000000000
20
0.0000000000
3
*D0
1

0
TEXT
5
214
100
AcDbEntity
8
0
100
AcDbText
62
7
6
CONTINUOUS
10
191.0244559402
20
-109.8750655291
7
STANDARD
40
3.0000000000
1
702
50
90.0000000000
41
0.7857142857
72
0
100
AcDbText
0
LINE
5
215
100
AcDbEntity
8
0
100
AcDbLine
62
7
6
CONTINUOUS
10
178.4744559402
20
244.4606487566
11
193.2744559402
21
244.4606487566
0
LINE
5
216
100
AcDbEntity
8
0
100
AcDbLine
62
7
6
CONTINUOUS
10
175.0744559402
20
-457.1393512434
11
193.2744559402
21
-457.1393512434
0
LINE
5
217
100
AcDbEntity
8
0
100
AcDbLine
62
7
6
CONTINUOUS
10
191.7744559402
20
244.4606487566
11
191.7744559402
21
-106.3393512434
0
LINE
5
218
100
AcDbEntity
8
0
100
AcDbLine
62
7
6
CONTINUOUS
10
191.7744559402
20
-457.1393512434
11
191.7744559402
21
-106.3393512434
0
SOLID
5
219
100
AcDbEntity
8
0
100
AcDbTrace
62
7
6
CONTINUOUS
10
192.7244559402
20
241.4606487566
11
191.7744559402
21
244.4606487566
12
190.8244559402
22
241.4606487566
13
190.8244559402
23
241.4606487566
0
SOLID
5
21A
100
AcDbEntity
8
0
100
AcDbTrace
62
7
6
CONTINUOUS
10
190.8244559402
20
-454.1393512434
11
191.7744559402
21
-457.1393512434
12
192.7244559402
22
-454.1393512434
13
192.7244559402
23
-454.1393512434
0
ENDBLK
5
21B
100
AcDbEntity
8
0
100
AcDbBlockEnd
0
BLOCK
5
21C
100
AcDbEntity
8
0
100
AcDbBlockBegin
62
7
6
CONTINUOUS
2
*D1
70
65
10
0.0000000000
20
0.0000000000
3
*D1
1

0
TEXT
5
21D
100
AcDbEntity
8
0
100
AcDbText
62
7
6
CONTINUOUS
10
-117.5469726312
20
253.2106487566
7
STANDARD
40
3.0000000000
1
595
41
0.7380952381
72
0
100
AcDbText
0
LINE
5
21E
100
AcDbEntity
8
0
100
AcDbLine
62
7
6
CONTINUOUS
10
183.2744559402
20
231.1606487566
11
183.2744559402
21
253.9606487566
0
LINE
5
21F
100
AcDbEntity
8
0
100
AcDbLine
62
7
6
CONTINUOUS
10
-411.7255440598
20
231.1606487566
11
-411.7255440598
21
253.9606487566
0
LINE
5
220
100
AcDbEntity
8
0
100
AcDbLine
62
7
6
CONTINUOUS
10
183.2744559402
20
252.4606487566
11
-114.2255440598
21
252.4606487566
0
LINE
5
221
100
AcDbEntity
8
0
100
AcDbLine
62
7
6
CONTINUOUS
10
-411.7255440598
20
252.4606487566
11
-114.2255440598
21
252.4606487566
0
SOLID
5
222
100
AcDbEntity
8
0
100
AcDbTrace
62
7
6
CONTINUOUS
10
180.2744559402
20
251.5106487566
11
183.2744559402
21
252.4606487566
12
180.2744559402
22
253.4106487566
13
180.2744559402
23
253.4106487566
0
SOLID
5
223
100
AcDbEntity
8
0
100
AcDbTrace
62
7
6
CONTINUOUS
10
-408.7255440598
20
253.4106487566
11
-411.7255440598
21
252.4606487566
12
-408.7255440598
22
251.5106487566
13
-408.7255440598
23
251.5106487566
0
ENDBLK
5
224
100
AcDbEntity
8
0
100
AcDbBlockEnd
0
BLOCK
5
225
100
AcDbEntity
8
0
100
AcDbBlockBegin
62
7
6
CONTINUOUS
2
*D2
70
65
10
0.0000000000
20
0.0000000000
3
*D2
1

0
TEXT
5
226
100
AcDbEntity
8
0
100
AcDbText
62
7
6
CONTINUOUS
10
-525.4952066943
20
253.2106487566
7
STANDARD
40
3.0000000000
1
62
41
0.7857142857
72
0
100
AcDbText
0
LINE
5
227
100
AcDbEntity
8
0
100
AcDbLine
62
7
6
CONTINUOUS
10
-554.0380638371
20
-109.3393512434
11
-554.0380638371
21
253.9606487566
0
LINE
5
228
100
AcDbEntity
8
0
100
AcDbLine
62
7
6
CONTINUOUS
10
-492.2380638371
20
-72.7459515814
11
-492.2380638371
21
253.9606487566
0
LINE
5
229
100
AcDbEntity
8
0
100
AcDbLine
62
7
6
CONTINUOUS
10
-554.0380638371
20
252.4606487566
11
-523.1380638371
21
252.4606487566
0
LINE
5
22A
100
AcDbEntity
8
0
100
AcDbLine
62
7
6
CONTINUOUS
10
-492.2380638371
20
252.4606487566
11
-523.1380638371
21
252.4606487566
0
SOLID
5
22B
100
AcDbEntity
8
0
100
AcDbTrace
62
7
6
CONTINUOUS
10
-551.0380638371
20
253.4106487566
11
-554.0380638371
21
252.4606487566
12
-551.0380638371
22
251.5106487566
13
-551.0380638371
23
251.5106487566
0
SOLID
5
22C
100
AcDbEntity
8
0
100
AcDbTrace
62
7
6
CONTINUOUS
10
-495.2380638371
20
251.5106487566
11
-492.2380638371
21
252.4606487566
12
-495.2380638371
22
253.4106487566
13
-495.2380638371
23
253.4106487566
0
ENDBLK
5
22D
100
AcDbEntity
8
0
100
AcDbBlockEnd
0
ENDSEC
0
SECTION
2
ENTITIES
0
DIMENSION
5
22E
100
AcDbEntity
8
0
100
AcDbDimension
62
7
6
CONTINUOUS
2
*D0
10
191.7744559402
20
-457.1393512434
11
189.5244559402
21
-106.3393512434
70
160
3
DIMSTYLE_1
100
AcDbAlignedDimension
13
178.4744559402
23
244.4606487566
14
175.0744559402
24
-457.1393512434
50
270.000000
100
AcDbRotatedDimension
0
DIMENSION
5
22F
100
AcDbEntity
8
0
100
AcDbDimension
62
7
6
CONTINUOUS
2
*D1
10
-411.7255440598
20
252.4606487566
11
-114.2255440598
21
254.7106487566
70
160
3
DIMSTYLE_2
100
AcDbAlignedDimension
13
183.2744559402
23
231.1606487566
14
-411.7255440598
24
231.1606487566
50
180.000000
100
AcDbRotatedDimension
0
DIMENSION
5
230
100
AcDbEntity
8
0
100
AcDbDimension
62
7
6
CONTINUOUS
2
*D2
10
-492.2380638371
20
252.4606487566
11
-523.1380638371
21
254.7106487566
70
160
3
DIMSTYLE_1
100
AcDbAlignedDimension
13
-554.0380638371
23
-109.3393512434
14
-492.2380638371
24
-72.7459515814
100
AcDbRotatedDimension
0
LINE
5
231
100
AcDbEntity
8
0
100
AcDbLine
62
7
6
CONTINUOUS
10
174.5744559402
20
-457.1393512434
11
177.9744559402
21
-457.1393512434
0
LINE
5
232
100
AcDbEntity
8
0
100
AcDbLine
62
7
6
CONTINUOUS
10
173.7744559402
20
-456.3393512434
11
178.7744559402
21
-456.3393512434
0
LINE
5
233
100
AcDbEntity
8
0
100
AcDbLine
62
7
6
CONTINUOUS
10
168.7744559402
20
-448.1393512434
11
183.7744559402
21
-448.1393512434
0
LINE
5
234
100
AcDbEntity
8
0
100
AcDbLine
62
7
6
CONTINUOUS
10
118.2744559402
20
-445.3393512434
11
183.7744559402
21
-445.3393512434
0
LINE
5
235
100
AcDbEntity
8
0
100
AcDbLine
62
7
6
CONTINUOUS
10
-346.7255440598
20
-445.3393512434
11
-409.7255440598
21
-445.3393512434
0
LINE
5
236
100
AcDbEntity
8
0
100
AcDbLine
62
7
6
CONTINUOUS
10
-411.7255440598
20
-443.3393512434
11
-409.7255440598
21
-443.3393512434
0
LINE
5
237
100
AcDbEntity
8
0
100
AcDbLine
62
7
6
CONTINUOUS
10
183.2744559402
20
-443.3393512434
11
181.2744559402
21
-443.3393512434
0
LINE
5
238
100
AcDbEntity
8
0
100
AcDbLine
62
9
6
CONTINUOUS
10
181.2744559402
20
-443.3393512434
11
118.2744559402
21
-443.3393512434
0
LINE
5
239
100
AcDbEntity
8
0
100
AcDbLine
62
9
6
CONTINUOUS
10
-346.7255440598
20
-443.3393512434
11
-409.7255440598
21
-443.3393512434
0
LINE
5
23A
100
AcDbEntity
8
0
100
AcDbLine
62
7
6
CONTINUOUS
10
-346.7255440598
20
-440.3393512434
11
118.2744559402
21
-440.3393512434
0
LINE
5
23B
100
AcDbEntity
8
0
100
AcDbLine
62
7
6
CONTINUOUS
10
-373.9317440598
20
-324.5960772434
11
-382.6750180598
21
-315.8148392434
0
LINE
5
23C
100
AcDbEntity
8
0
100
AcDbLine
62
7
6
CONTINUOUS
10
-378.0311440598
20
-315.7283552434
11
-369.2876660598
21
-324.5095932434
0
LINE
5
23D
100
AcDbEntity
8
0
100
AcDbLine
62
7
6
CONTINUOUS
10
-382.0836571102
20
64.6367015460
11
-382.5181439762
21
64.1641964534
0
LINE
5
23E
100
AcDbEntity
8
0
100
AcDbLine
62
7
6
CONTINUOUS
10
-346.7255440598
20
-439.3393512434
11
118.2744559402
21
-439.3393512434
0
LINE
5
23F
100
AcDbEntity
8
0
100
AcDbLine
62
7
6
CONTINUOUS
10
-411.7255440598
20
-443.3393512434
11
-411.7255440598
21
230.6606487566
0
LINE
5
240
100
AcDbEntity
8
0
100
AcDbLine
62
7
6
CONTINUOUS
10
-409.7255440598
20
-445.3393512434
11
-409.7255440598
21
-443.3393512434
0
LINE
5
241
100
AcDbEntity
8
0
100
AcDbLine
62
7
6
CONTINUOUS
10
-409.7255440598
20
232.6606487566
11
-409.7255440598
21
230.6606487566
0
LINE
5
242
100
AcDbEntity
8
0
100
AcDbLine
62
9
6
CONTINUOUS
10
-409.7255440598
20
-443.3393512434
11
-409.7255440598
21
230.6606487566
0
LINE
5
243
100
AcDbEntity
8
0
100
AcDbLine
62
7
6
CONTINUOUS
10
-389.2864760598
20
-315.8148392434
11
-389.2864760598
21
-333.3393512434
0
LINE
5
244
100
AcDbEntity
8
0
100
AcDbLine
62
7
6
CONTINUOUS
10
-389.2862721420
20
-235.3400875102
11
-389.2862721420
21
-245.3598949830
0
LINE
5
245
100
AcDbEntity
8
0
100
AcDbLine
62
7
6
CONTINUOUS
10
-389.2862721420
20
-252.4348259017
11
-389.2862721420
21
-256.8559979404
0
LINE
5
246
100
AcDbEntity
8
0
100
AcDbLine
62
7
6
CONTINUOUS
10
-389.2862720598
20
-264.0661332434
11
-389.2862720598
21
-269.8555992434
0
LINE
5
247
100
AcDbEntity
8
0
100
AcDbLine
62
7
6
CONTINUOUS
10
-389.2862720598
20
-278.3719092434
11
-389.2862720598
21
-284.1613732434
0
LINE
5
248
100
AcDbEntity
8
0
100
AcDbLine
62
7
6
CONTINUOUS
10
-389.2655640598
20
-286.1882352434
11
-389.2655640598
21
-290.3318912434
0
LINE
5
249
100
AcDbEntity
8
0
100
AcDbLine
62
7
6
CONTINUOUS
10
-389.2550080598
20
-290.7200472434
11
-389.2550080598
21
-295.0023612434
0
LINE
5
24A
100
AcDbEntity
8
0
100
AcDbLine
62
7
6
CONTINUOUS
10
-389.2550080598
20
-303.8583072434
11
-389.2550080598
21
-308.1406192434
0
LINE
5
24B
100
AcDbEntity
8
0
100
AcDbLine
62
7
6
CONTINUOUS
10
-389.2242910598
20
143.8837097566
11
-389.2242910598
21
127.3136067566
0
LINE
5
24C
100
AcDbEntity
8
0
100
AcDbLine
62
7
6
CONTINUOUS
10
-389.2242910598
20
122.1042507566
11
-389.2242910598
21
106.3405107566
0
LINE
5
24D
100
AcDbEntity
8
0
100
AcDbLine
62
7
6
CONTINUOUS
10
-389.2242910598
20
56.4957647566
11
-389.2242910598
21
37.3038887566
0
LINE
5
24E
100
AcDbEntity
8
0
100
AcDbLine
62
7
6
CONTINUOUS
10
-389.2242910598
20
34.2117817566
11
-389.2242910598
21
17.6416797566
0
LINE
5
24F
100
AcDbEntity
8
0
100
AcDbLine
62
7
6
CONTINUOUS
10
-389.2242910598
20
10.7854057566
11
-389.2242910598
21
7.7603137566
0
LINE
5
250
100
AcDbEntity
8
0
100
AcDbLine
62
7
6
CONTINUOUS
10
-389.2242910598
20
-4.9445522434
11
-389.2242910598
21
-8.3393182434
0
LINE
5
251
100
AcDbEntity
8
0
100
AcDbLine
62
7
6
CONTINUOUS
10
-388.0492110598
20
93.3575354272
11
-388.0492110598
21
90.4876494318
0
LINE
5
252
100
AcDbEntity
8
0
100
AcDbLine
62
7
6
CONTINUOUS
10
-386.9835430598
20
20.8347557566
11
-386.9835430598
21
34.2117967559
0
LINE
5
253
100
AcDbEntity
8
0
100
AcDbLine
62
7
6
CONTINUOUS
10
-386.9835430598
20
37.3038957563
11
-386.9835430598
21
45.3033097566
0
LINE
5
254
100
AcDbEntity
8
0
100
AcDbLine
62
7
6
CONTINUOUS
10
-386.9835430598
20
48.4963767566
11
-386.9835430598
21
56.4957907553
0
LINE
5
255
100
AcDbEntity
8
0
100
AcDbLine
62
7
6
CONTINUOUS
10
-386.9835430598
20
109.5337787566
11
-386.9835430598
21
122.1042507566
0
LINE
5
256
100
AcDbEntity
8
0
100
AcDbLine
62
7
6
CONTINUOUS
10
-386.9835430598
20
130.5067827566
11
-386.9835430598
21
143.8836807581
0
LINE
5
257
100
AcDbEntity
8
0
100
AcDbLine
62
7
6
CONTINUOUS
10
-386.0640826573
20
-241.2371490117
11
-386.0640826573
21
-236.3376832214
0
LINE
5
258
100
AcDbEntity
8
0
100
AcDbLine
62
7
6
CONTINUOUS
10
-384.1891512200
20
91.9225246515
11
-370.8103310598
21
97.1190148897
0
LINE
5
259
100
AcDbEntity
8
0
100
AcDbLine
62
7
6
CONTINUOUS
10
-370.8103310598
20
99.9943470471
11
-388.0492110598
21
93.3575354272
0
LINE
5
25A
100
AcDbEntity
8
0
100
AcDbLine
62
7
6
CONTINUOUS
10
-383.0884090309
20
74.5593092063
11
-383.0884090309
21
77.9646031478
0
LINE
5
25B
100
AcDbEntity
8
0
100
AcDbLine
62
7
6
CONTINUOUS
10
-380.6253660598
20
142.9764137566
11
-380.6253660598
21
130.5067767567
0
LINE
5
25C
100
AcDbEntity
8
0
100
AcDbLine
62
7
6
CONTINUOUS
10
-380.6253660598
20
120.5579917566
11
-380.6253660598
21
109.5337787566
0
LINE
5
25D
100
AcDbEntity
8
0
100
AcDbLine
62
7
6
CONTINUOUS
10
-380.6253660598
20
33.3043497566
11
-380.6253660598
21
20.8347557566
0
LINE
5
25E
100
AcDbEntity
8
0
100
AcDbLine
62
7
6
CONTINUOUS
10
-379.7549089674
20
-236.6495080103
11
-379.7549089674
21
-241.2371490117
0
LINE
5
25F
100
AcDbEntity
8
0
100
AcDbLine
62
7
6
CONTINUOUS
10
-378.3846750598
20
20.8347557566
11
-378.3846750598
21
33.3043497566
0
LINE
5
260
100
AcDbEntity
8
0
100
AcDbLine
62
7
6
CONTINUOUS
10
-378.3846750598
20
109.5337787566
11
-378.3846750598
21
120.5579917566
0
LINE
5
261
100
AcDbEntity
8
0
100
AcDbLine
62
7
6
CONTINUOUS
10
-378.3846750598
20
130.5067767566
11
-378.3846750598
21
142.9764137566
0
LINE
5
262
100
AcDbEntity
8
0
100
AcDbLine
62
7
6
CONTINUOUS
10
-376.6053973957
20
-252.0815868831
11
-376.6053973957
21
-257.2092369590
0
LINE
5
263
100
AcDbEntity
8
0
100
AcDbLine
62
7
6
CONTINUOUS
10
-376.5637801550
20
-241.2542019299
11
-376.5637801550
21
-238.5204567433
0
LINE
5
264
100
AcDbEntity
8
0
100
AcDbLine
62
7
6
CONTINUOUS
10
-375.9736773615
20
62.8607340672
11
-375.9736773615
21
59.4554388741
0
LINE
5
265
100
AcDbEntity
8
0
100
AcDbLine
62
7
6
CONTINUOUS
10
-373.2374460631
20
-258.1654184404
11
-373.2374460631
21
-251.1254054017
0
LINE
5
266
100
AcDbEntity
8
0
100
AcDbLine
62
7
6
CONTINUOUS
10
-371.4662530598
20
143.9846417566
11
-371.4662530598
21
130.5067767566
0
LINE
5
267
100
AcDbEntity
8
0
100
AcDbLine
62
7
6
CONTINUOUS
10
-371.4662530598
20
34.3126267566
11
-371.4662530598
21
20.8347557566
0
LINE
5
268
100
AcDbEntity
8
0
100
AcDbLine
62
7
6
CONTINUOUS
10
-370.8103310598
20
83.7480937404
11
-370.8103310598
21
86.5889957566
0
LINE
5
269
100
AcDbEntity
8
0
100
AcDbLine
62
7
6
CONTINUOUS
10
-370.8103310598
20
97.1190148897
11
-370.8103310598
21
99.9943470471
0
LINE
5
26A
100
AcDbEntity
8
0
100
AcDbLine
62
7
6
CONTINUOUS
10
-370.7755440598
20
-100.6893512434
11
-370.7755440598
21
-108.6893512434
0
LINE
5
26B
100
AcDbEntity
8
0
100
AcDbLine
62
7
6
CONTINUOUS
10
-370.7255440598
20
-116.9893512434
11
-370.7255440598
21
-95.6893512434
0
LINE
5
26C
100
AcDbEntity
8
0
100
AcDbLine
62
7
6
CONTINUOUS
10
-369.2876660598
20
-333.2528672434
11
-369.2876660598
21
-315.7283552434
0
LINE
5
26D
100
AcDbEntity
8
0
100
AcDbLine
62
7
6
CONTINUOUS
10
-369.2775140598
20
-301.4883572434
11
-369.2775140598
21
-297.3723112434
0
LINE
5
26E
100
AcDbEntity
8
0
100
AcDbLine
62
7
6
CONTINUOUS
10
-369.2738606611
20
-245.3598949830
11
-369.2738606611
21
-241.2542019299
0
LINE
5
26F
100
AcDbEntity
8
0
100
AcDbLine
62
7
6
CONTINUOUS
10
-369.2669580598
20
-284.1613732434
11
-369.2669580598
21
-280.3778592434
0
LINE
5
270
100
AcDbEntity
8
0
100
AcDbLine
62
7
6
CONTINUOUS
10
-369.2669580598
20
-267.8494452434
11
-369.2669580598
21
-264.0661332434
0
LINE
5
271
100
AcDbEntity
8
0
100
AcDbLine
62
7
6
CONTINUOUS
10
-369.2669582895
20
-263.7575575247
11
-369.2669582895
21
-259.3505962511
0
LINE
5
272
100
AcDbEntity
8
0
100
AcDbLine
62
7
6
CONTINUOUS
10
-369.2669582895
20
-249.9402275910
11
-369.2669582895
21
-245.5332663174
0
LINE
5
273
100
AcDbEntity
8
0
100
AcDbLine
62
7
6
CONTINUOUS
10
-369.2669582895
20
-234.0095538735
11
-369.2669582895
21
-229.4568307520
0
LINE
5
274
100
AcDbEntity
8
0
100
AcDbLine
62
7
6
CONTINUOUS
10
-369.2600560598
20
-276.1891352434
11
-369.2600560598
21
-272.0383732434
0
LINE
5
275
100
AcDbEntity
8
0
100
AcDbLine
62
7
6
CONTINUOUS
10
-369.2255440598
20
-290.3318912434
11
-369.2255440598
21
-286.1882352434
0
LINE
5
276
100
AcDbEntity
8
0
100
AcDbLine
62
7
6
CONTINUOUS
10
-369.2255440598
20
-8.3393182434
11
-369.2255440598
21
-5.3142262434
0
LINE
5
277
100
AcDbEntity
8
0
100
AcDbLine
62
7
6
CONTINUOUS
10
-369.2255440598
20
7.2898237566
11
-369.2255440598
21
10.7854057566
0
LINE
5
278
100
AcDbEntity
8
0
100
AcDbLine
62
7
6
CONTINUOUS
10
-369.2255440598
20
17.6416797566
11
-369.2255440598
21
34.3126267566
0
LINE
5
279
100
AcDbEntity
8
0
100
AcDbLine
62
7
6
CONTINUOUS
10
-369.2255440598
20
45.3033097566
11
-369.2255440598
21
48.4963767566
0
LINE
5
27A
100
AcDbEntity
8
0
100
AcDbLine
62
7
6
CONTINUOUS
10
-369.2255440598
20
106.3405107566
11
-369.2255440598
21
109.5337787566
0
LINE
5
27B
100
AcDbEntity
8
0
100
AcDbLine
62
7
6
CONTINUOUS
10
-369.2255440598
20
127.3136067566
11
-369.2255440598
21
143.9846417566
0
LINE
5
27C
100
AcDbEntity
8
0
100
AcDbLine
62
7
6
CONTINUOUS
10
-368.7255440598
20
-116.9893512434
11
-368.7255440598
21
-95.6893512434
0
LINE
5
27D
100
AcDbEntity
8
0
100
AcDbLine
62
7
6
CONTINUOUS
10
-368.6755440598
20
-108.6893512434
11
-368.6755440598
21
-100.6893512434
0
LINE
5
27E
100
AcDbEntity
8
0
100
AcDbLine
62
7
6
CONTINUOUS
10
-385.2748080598
20
-5.3142262434
11
-369.2255440598
21
7.2898237566
0
LINE
5
27F
100
AcDbEntity
8
0
100
AcDbLine
62
7
6
CONTINUOUS
10
-373.0067670598
20
7.7603137566
11
-389.2242910598
21
-4.9445522434
0
LINE
5
280
100
AcDbEntity
8
0
100
AcDbLine
62
7
6
CONTINUOUS
10
-389.2550080598
20
-295.0023612434
11
-374.8798040598
21
-299.4302312434
0
LINE
5
281
100
AcDbEntity
8
0
100
AcDbLine
62
7
6
CONTINUOUS
10
-369.2775140598
20
-297.3723112434
11
-389.2550080598
21
-290.7200472434
0
LINE
5
282
100
AcDbEntity
8
0
100
AcDbLine
62
7
6
CONTINUOUS
10
-346.7255440598
20
-445.3393512434
11
-346.7255440598
21
232.6606487566
0
LINE
5
283
100
AcDbEntity
8
0
100
AcDbLine
62
7
6
CONTINUOUS
10
-389.2864760598
20
-333.3393512434
11
-382.6750180598
21
-333.3393512434
0
LINE
5
284
100
AcDbEntity
8
0
100
AcDbLine
62
7
6
CONTINUOUS
10
-378.0311440598
20
-333.2528672434
11
-369.2876660598
21
-333.2528672434
0
LINE
5
285
100
AcDbEntity
8
0
100
AcDbLine
62
7
6
CONTINUOUS
10
-389.2862720598
20
-269.8555992434
11
-375.0046560598
21
-274.1135512434
0
LINE
5
286
100
AcDbEntity
8
0
100
AcDbLine
62
7
6
CONTINUOUS
10
-369.2669582895
20
-259.3505962511
11
-373.2374460631
21
-258.1654184404
0
LINE
5
287
100
AcDbEntity
8
0
100
AcDbLine
62
7
6
CONTINUOUS
10
-376.6053973957
20
-257.2092369590
11
-385.1277962470
21
-254.6456149320
0
LINE
5
288
100
AcDbEntity
8
0
100
AcDbLine
62
7
6
CONTINUOUS
10
-369.2600560598
20
-272.0383732434
11
-383.0842880598
21
-267.8600032434
0
LINE
5
289
100
AcDbEntity
8
0
100
AcDbLine
62
7
6
CONTINUOUS
10
-389.2862721420
20
-256.8559979404
11
-369.2669582895
21
-263.7575575247
0
LINE
5
28A
100
AcDbEntity
8
0
100
AcDbLine
62
7
6
CONTINUOUS
10
-382.6750180598
20
-315.8148392434
11
-389.2864760598
21
-315.8148392434
0
LINE
5
28B
100
AcDbEntity
8
0
100
AcDbLine
62
7
6
CONTINUOUS
10
-369.2876660598
20
-315.7283552434
11
-378.0311440598
21
-315.7283552434
0
LINE
5
28C
100
AcDbEntity
8
0
100
AcDbLine
62
7
6
CONTINUOUS
10
-389.2655640598
20
-290.3318912434
11
-369.2255440598
21
-290.3318912434
0
LINE
5
28D
100
AcDbEntity
8
0
100
AcDbLine
62
7
6
CONTINUOUS
10
-383.0842880598
20
-267.8600032434
11
-369.2669580598
21
-267.8494452434
0
LINE
5
28E
100
AcDbEntity
8
0
100
AcDbLine
62
7
6
CONTINUOUS
10
-369.2255440598
20
-286.1882352434
11
-389.2655640598
21
-286.1882352434
0
LINE
5
28F
100
AcDbEntity
8
0
100
AcDbLine
62
7
6
CONTINUOUS
10
-389.2862720598
20
-284.1613732434
11
-369.2669580598
21
-284.1613732434
0
LINE
5
290
100
AcDbEntity
8
0
100
AcDbLine
62
7
6
CONTINUOUS
10
-369.2669580598
20
-264.0661332434
11
-389.2862720598
21
-264.0661332434
0
LINE
5
291
100
AcDbEntity
8
0
100
AcDbLine
62
7
6
CONTINUOUS
10
-369.2669580598
20
-280.3778592434
11
-383.0842880598
21
-280.3675052434
0
LINE
5
292
100
AcDbEntity
8
0
100
AcDbLine
62
7
6
CONTINUOUS
10
-389.2862721420
20
-245.3598949830
11
-369.2738606611
21
-245.3598949830
0
LINE
5
293
100
AcDbEntity
8
0
100
AcDbLine
62
7
6
CONTINUOUS
10
-369.2738606611
20
-241.2542019299
11
-376.5637801550
21
-241.2542019299
0
LINE
5
294
100
AcDbEntity
8
0
100
AcDbLine
62
7
6
CONTINUOUS
10
-379.7549089674
20
-241.2371490117
11
-386.0640826573
21
-241.2371490117
0
LINE
5
295
100
AcDbEntity
8
0
100
AcDbLine
62
7
6
CONTINUOUS
10
174.5744559402
20
244.4606487566
11
173.7744559402
21
243.6606487566
0
LINE
5
296
100
AcDbEntity
8
0
100
AcDbLine
62
7
6
CONTINUOUS
10
-382.6750180598
20
-333.3393512434
11
-373.9317440598
21
-324.5960772434
0
LINE
5
297
100
AcDbEntity
8
0
100
AcDbLine
62
7
6
CONTINUOUS
10
-369.2669582895
20
-229.4568307520
11
-376.7925734734
21
-234.3627928921
0
LINE
5
298
100
AcDbEntity
8
0
100
AcDbLine
62
7
6
CONTINUOUS
10
174.5744559402
20
-457.1393512434
11
173.7744559402
21
-456.3393512434
0
LINE
5
299
100
AcDbEntity
8
0
100
AcDbLine
62
7
6
CONTINUOUS
10
-369.2876660598
20
-324.5095932434
11
-378.0311440598
21
-333.2528672434
0
LINE
5
29A
100
AcDbEntity
8
0
100
AcDbLine
62
7
6
CONTINUOUS
10
-376.5637801550
20
-238.5204567433
11
-369.2669582895
21
-234.0095538735
0
LINE
5
29B
100
AcDbEntity
8
0
100
AcDbLine
62
7
6
CONTINUOUS
10
-368.7255440598
20
-116.9893512434
11
-370.7255440598
21
-116.9893512434
0
LINE
5
29C
100
AcDbEntity
8
0
100
AcDbLine
62
7
6
CONTINUOUS
10
-368.7255440598
20
-112.8393512434
11
-370.7255440598
21
-112.8393512434
0
LINE
5
29D
100
AcDbEntity
8
0
100
AcDbLine
62
7
6
CONTINUOUS
10
-368.7255440598
20
-109.8393512434
11
-370.7255440598
21
-109.8393512434
0
LINE
5
29E
100
AcDbEntity
8
0
100
AcDbLine
62
7
6
CONTINUOUS
10
-370.7755440598
20
-108.6893512434
11
-370.7255440598
21
-108.6893512434
0
LINE
5
29F
100
AcDbEntity
8
0
100
AcDbLine
62
7
6
CONTINUOUS
10
-368.7255440598
20
-108.6893512434
11
-368.6755440598
21
-108.6893512434
0
LINE
5
2A0
100
AcDbEntity
8
0
100
AcDbLine
62
7
6
CONTINUOUS
10
-368.7255440598
20
-102.8393512434
11
-370.7255440598
21
-102.8393512434
0
LINE
5
2A1
100
AcDbEntity
8
0
100
AcDbLine
62
7
6
CONTINUOUS
10
-368.6755440598
20
-100.6893512434
11
-368.7255440598
21
-100.6893512434
0
LINE
5
2A2
100
AcDbEntity
8
0
100
AcDbLine
62
7
6
CONTINUOUS
10
-370.7255440598
20
-100.6893512434
11
-370.7755440598
21
-100.6893512434
0
LINE
5
2A3
100
AcDbEntity
8
0
100
AcDbLine
62
7
6
CONTINUOUS
10
-368.7255440598
20
-99.8393512434
11
-370.7255440598
21
-99.8393512434
0
LINE
5
2A4
100
AcDbEntity
8
0
100
AcDbLine
62
7
6
CONTINUOUS
10
-368.7255440598
20
-95.6893512434
11
-370.7255440598
21
-95.6893512434
0
LINE
5
2A5
100
AcDbEntity
8
0
100
AcDbLine
62
7
6
CONTINUOUS
10
-369.2669582895
20
-245.5332663174
11
-389.2862721420
21
-252.4348259017
0
LINE
5
2A6
100
AcDbEntity
8
0
100
AcDbLine
62
7
6
CONTINUOUS
10
-385.1277962470
20
-254.6456149320
11
-376.6053973957
21
-252.0815868831
0
LINE
5
2A7
100
AcDbEntity
8
0
100
AcDbLine
62
7
6
CONTINUOUS
10
-373.2374460631
20
-251.1254054017
11
-369.2669582895
21
-249.9402275910
0
LINE
5
2A8
100
AcDbEntity
8
0
100
AcDbLine
62
7
6
CONTINUOUS
10
-383.0842880598
20
-280.3675052434
11
-369.2600560598
21
-276.1891352434
0
LINE
5
2A9
100
AcDbEntity
8
0
100
AcDbLine
62
7
6
CONTINUOUS
10
-375.0046560598
20
-274.1135512434
11
-389.2862720598
21
-278.3719092434
0
LINE
5
2AA
100
AcDbEntity
8
0
100
AcDbLine
62
7
6
CONTINUOUS
10
-388.0492110598
20
90.4876494318
11
-370.8103310598
21
83.7480937404
0
LINE
5
2AB
100
AcDbEntity
8
0
100
AcDbLine
62
7
6
CONTINUOUS
10
-370.8103310598
20
86.5889957566
11
-384.1891512200
21
91.9225246515
0
LINE
5
2AC
100
AcDbEntity
8
0
100
AcDbLine
62
7
6
CONTINUOUS
10
-389.2550080598
20
-308.1406192434
11
-369.2775140598
21
-301.4883572434
0
LINE
5
2AD
100
AcDbEntity
8
0
100
AcDbLine
62
7
6
CONTINUOUS
10
-374.8798040598
20
-299.4302312434
11
-389.2550080598
21
-303.8583072434
0
LINE
5
2AE
100
AcDbEntity
8
0
100
AcDbLine
62
7
6
CONTINUOUS
10
-389.2242910598
20
-8.3393182434
11
-369.2255440598
21
-8.3393182434
0
LINE
5
2AF
100
AcDbEntity
8
0
100
AcDbLine
62
7
6
CONTINUOUS
10
-369.2255440598
20
-5.3142262434
11
-385.2748080598
21
-5.3142262434
0
LINE
5
2B0
100
AcDbEntity
8
0
100
AcDbLine
62
7
6
CONTINUOUS
10
-389.2242910598
20
7.7603137566
11
-373.0067670598
21
7.7603137566
0
LINE
5
2B1
100
AcDbEntity
8
0
100
AcDbLine
62
7
6
CONTINUOUS
10
-369.2255440598
20
10.7854057566
11
-389.2242910598
21
10.7854057566
0
LINE
5
2B2
100
AcDbEntity
8
0
100
AcDbLine
62
7
6
CONTINUOUS
10
-389.2242910598
20
17.6416797566
11
-369.2255440598
21
17.6416797566
0
LINE
5
2B3
100
AcDbEntity
8
0
100
AcDbLine
62
7
6
CONTINUOUS
10
-371.4662530598
20
20.8347557566
11
-378.3846750598
21
20.8347557566
0
LINE
5
2B4
100
AcDbEntity
8
0
100
AcDbLine
62
7
6
CONTINUOUS
10
-380.6253660598
20
20.8347557566
11
-386.9835430598
21
20.8347557566
0
LINE
5
2B5
100
AcDbEntity
8
0
100
AcDbLine
62
7
6
CONTINUOUS
10
-378.3846750598
20
33.3043497566
11
-380.6253660598
21
33.3043497566
0
LINE
5
2B6
100
AcDbEntity
8
0
100
AcDbLine
62
7
6
CONTINUOUS
10
-386.9835430598
20
34.2117967559
11
-389.2242910598
21
34.2117817566
0
LINE
5
2B7
100
AcDbEntity
8
0
100
AcDbLine
62
7
6
CONTINUOUS
10
-369.2255440598
20
34.3126267566
11
-371.4662530598
21
34.3126267566
0
LINE
5
2B8
100
AcDbEntity
8
0
100
AcDbLine
62
7
6
CONTINUOUS
10
-389.2242910598
20
37.3038887566
11
-386.9835430598
21
37.3038957563
0
LINE
5
2B9
100
AcDbEntity
8
0
100
AcDbLine
62
7
6
CONTINUOUS
10
-386.9835430598
20
45.3033097566
11
-369.2255440598
21
45.3033097566
0
LINE
5
2BA
100
AcDbEntity
8
0
100
AcDbLine
62
7
6
CONTINUOUS
10
-369.2255440598
20
48.4963767566
11
-386.9835430598
21
48.4963767566
0
LINE
5
2BB
100
AcDbEntity
8
0
100
AcDbLine
62
7
6
CONTINUOUS
10
-386.9835430598
20
56.4957907553
11
-389.2242910598
21
56.4957647566
0
LINE
5
2BC
100
AcDbEntity
8
0
100
AcDbLine
62
7
6
CONTINUOUS
10
-389.2242910598
20
106.3405107566
11
-369.2255440598
21
106.3405107566
0
LINE
5
2BD
100
AcDbEntity
8
0
100
AcDbLine
62
7
6
CONTINUOUS
10
-369.2255440598
20
109.5337787566
11
-378.3846750598
21
109.5337787566
0
LINE
5
2BE
100
AcDbEntity
8
0
100
AcDbLine
62
7
6
CONTINUOUS
10
-380.6253660598
20
109.5337787566
11
-386.9835430598
21
109.5337787566
0
LINE
5
2BF
100
AcDbEntity
8
0
100
AcDbLine
62
7
6
CONTINUOUS
10
118.2744559402
20
232.6606487566
11
118.2744559402
21
-445.3393512434
0
LINE
5
2C0
100
AcDbEntity
8
0
100
AcDbLine
62
7
6
CONTINUOUS
10
-378.3846750598
20
120.5579917566
11
-380.6253660598
21
120.5579917566
0
LINE
5
2C1
100
AcDbEntity
8
0
100
AcDbLine
62
7
6
CONTINUOUS
10
-386.9835430598
20
122.1042507566
11
-389.2242910598
21
122.1042507566
0
LINE
5
2C2
100
AcDbEntity
8
0
100
AcDbLine
62
7
6
CONTINUOUS
10
-389.2242910598
20
127.3136067566
11
-369.2255440598
21
127.3136067566
0
LINE
5
2C3
100
AcDbEntity
8
0
100
AcDbLine
62
7
6
CONTINUOUS
10
-380.6253660598
20
130.5067767567
11
-386.9835430598
21
130.5067827566
0
LINE
5
2C4
100
AcDbEntity
8
0
100
AcDbLine
62
7
6
CONTINUOUS
10
-371.4662530598
20
130.5067767566
11
-378.3846750598
21
130.5067767566
0
LINE
5
2C5
100
AcDbEntity
8
0
100
AcDbLine
62
7
6
CONTINUOUS
10
-378.3846750598
20
142.9764137566
11
-380.6253660598
21
142.9764137566
0
LINE
5
2C6
100
AcDbEntity
8
0
100
AcDbLine
62
7
6
CONTINUOUS
10
-386.9835430598
20
143.8836807581
11
-389.2242910598
21
143.8837097566
0
LINE
5
2C7
100
AcDbEntity
8
0
100
AcDbLine
62
7
6
CONTINUOUS
10
-369.2255440598
20
143.9846417566
11
-371.4662530598
21
143.9846417566
0
LINE
5
2C8
100
AcDbEntity
8
0
100
AcDbLine
62
7
6
CONTINUOUS
10
168.7744559402
20
232.6606487566
11
168.7744559402
21
235.4606487566
0
LINE
5
2C9
100
AcDbEntity
8
0
100
AcDbLine
62
7
6
CONTINUOUS
10
168.7744559402
20
-445.3393512434
11
168.7744559402
21
-448.1393512434
0
LINE
5
2CA
100
AcDbEntity
8
0
100
AcDbLine
62
7
6
CONTINUOUS
10
173.7744559402
20
-456.3393512434
11
173.7744559402
21
-448.1393512434
0
LINE
5
2CB
100
AcDbEntity
8
0
100
AcDbLine
62
7
6
CONTINUOUS
10
173.7744559402
20
243.6606487566
11
173.7744559402
21
235.4606487566
0
LINE
5
2CC
100
AcDbEntity
8
0
100
AcDbLine
62
7
6
CONTINUOUS
10
178.7744559402
20
-456.3393512434
11
178.7744559402
21
-448.1393512434
0
LINE
5
2CD
100
AcDbEntity
8
0
100
AcDbLine
62
7
6
CONTINUOUS
10
178.7744559402
20
243.6606487566
11
178.7744559402
21
235.4606487566
0
LINE
5
2CE
100
AcDbEntity
8
0
100
AcDbLine
62
7
6
CONTINUOUS
10
181.2744559402
20
-445.3393512434
11
181.2744559402
21
-443.3393512434
0
LINE
5
2CF
100
AcDbEntity
8
0
100
AcDbLine
62
7
6
CONTINUOUS
10
181.2744559402
20
232.6606487566
11
181.2744559402
21
230.6606487566
0
LINE
5
2D0
100
AcDbEntity
8
0
100
AcDbLine
62
9
6
CONTINUOUS
10
181.2744559402
20
230.6606487566
11
181.2744559402
21
-443.3393512434
0
LINE
5
2D1
100
AcDbEntity
8
0
100
AcDbLine
62
7
6
CONTINUOUS
10
183.2744559402
20
230.6606487566
11
183.2744559402
21
-443.3393512434
0
LINE
5
2D2
100
AcDbEntity
8
0
100
AcDbLine
62
7
6
CONTINUOUS
10
183.7744559402
20
232.6606487566
11
183.7744559402
21
235.4606487566
0
LINE
5
2D3
100
AcDbEntity
8
0
100
AcDbLine
62
7
6
CONTINUOUS
10
183.7744559402
20
-445.3393512434
11
183.7744559402
21
-448.1393512434
0
LINE
5
2D4
100
AcDbEntity
8
0
100
AcDbLine
62
7
6
CONTINUOUS
10
118.2744559402
20
226.6606487566
11
-346.7255440598
21
226.6606487566
0
LINE
5
2D5
100
AcDbEntity
8
0
100
AcDbLine
62
7
6
CONTINUOUS
10
118.2744559402
20
227.6606487566
11
-346.7255440598
21
227.6606487566
0
LINE
5
2D6
100
AcDbEntity
8
0
100
AcDbLine
62
7
6
CONTINUOUS
10
-411.7255440598
20
230.6606487566
11
-409.7255440598
21
230.6606487566
0
LINE
5
2D7
100
AcDbEntity
8
0
100
AcDbLine
62
9
6
CONTINUOUS
10
-409.7255440598
20
230.6606487566
11
-346.7255440598
21
230.6606487566
0
LINE
5
2D8
100
AcDbEntity
8
0
100
AcDbLine
62
7
6
CONTINUOUS
10
183.2744559402
20
230.6606487566
11
181.2744559402
21
230.6606487566
0
LINE
5
2D9
100
AcDbEntity
8
0
100
AcDbLine
62
9
6
CONTINUOUS
10
118.2744559402
20
230.6606487566
11
181.2744559402
21
230.6606487566
0
LINE
5
2DA
100
AcDbEntity
8
0
100
AcDbLine
62
7
6
CONTINUOUS
10
-409.7255440598
20
232.6606487566
11
-346.7255440598
21
232.6606487566
0
LINE
5
2DB
100
AcDbEntity
8
0
100
AcDbLine
62
7
6
CONTINUOUS
10
118.2744559402
20
232.6606487566
11
183.7744559402
21
232.6606487566
0
LINE
5
2DC
100
AcDbEntity
8
0
100
AcDbLine
62
7
6
CONTINUOUS
10
183.7744559402
20
235.4606487566
11
168.7744559402
21
235.4606487566
0
LINE
5
2DD
100
AcDbEntity
8
0
100
AcDbLine
62
7
6
CONTINUOUS
10
178.7744559402
20
243.6606487566
11
173.7744559402
21
243.6606487566
0
LINE
5
2DE
100
AcDbEntity
8
0
100
AcDbLine
62
7
6
CONTINUOUS
10
177.9744559402
20
244.4606487566
11
174.5744559402
21
244.4606487566
0
LINE
5
2DF
100
AcDbEntity
8
0
100
AcDbLine
62
7
6
CONTINUOUS
10
177.9744559402
20
-457.1393512434
11
178.7744559402
21
-456.3393512434
0
LINE
5
2E0
100
AcDbEntity
8
0
100
AcDbLine
62
7
6
CONTINUOUS
10
177.9744559402
20
244.4606487566
11
178.7744559402
21
243.6606487566
0
LINE
5
2E1
100
AcDbEntity
8
0
100
AcDbLine
62
7
6
CONTINUOUS
10
-517.9378005457
20
-457.1393512434
11
-514.5383271286
21
-457.1393512434
0
LINE
5
2E2
100
AcDbEntity
8
0
100
AcDbLine
62
7
6
CONTINUOUS
10
-518.7380638371
20
-456.3393512434
11
-513.7380638371
21
-456.3393512434
0
LINE
5
2E3
100
AcDbEntity
8
0
100
AcDbLine
62
7
6
CONTINUOUS
10
-508.7380960202
20
-448.1393512434
11
-523.7380316541
21
-448.1393512434
0
LINE
5
2E4
100
AcDbEntity
8
0
100
AcDbLine
62
7
6
CONTINUOUS
10
-504.7380638371
20
-445.3393512434
11
-523.7380316541
21
-445.3393512434
0
LINE
5
2E5
100
AcDbEntity
8
0
100
AcDbLine
62
7
6
CONTINUOUS
10
-520.7380638371
20
-443.8393512434
11
-504.7380638371
21
-443.8393512434
0
LINE
5
2E6
100
AcDbEntity
8
0
100
AcDbLine
62
7
6
CONTINUOUS
10
-504.7380638371
20
-443.3393512434
11
-522.7380638371
21
-443.3393512434
0
LINE
5
2E7
100
AcDbEntity
8
0
100
AcDbLine
62
7
6
CONTINUOUS
10
-504.5380638371
20
-391.0893512434
11
-504.7380638371
21
-391.0893512434
0
LINE
5
2E8
100
AcDbEntity
8
0
100
AcDbLine
62
7
6
CONTINUOUS
10
-504.5380638371
20
-383.5893512434
11
-504.7380638371
21
-383.5893512434
0
LINE
5
2E9
100
AcDbEntity
8
0
100
AcDbLine
62
7
6
CONTINUOUS
10
-504.5380638371
20
-376.0893512434
11
-504.7380638371
21
-376.0893512434
0
LINE
5
2EA
100
AcDbEntity
8
0
100
AcDbLine
62
7
6
CONTINUOUS
10
-504.5380638371
20
-368.5893512434
11
-504.7380638371
21
-368.5893512434
0
LINE
5
2EB
100
AcDbEntity
8
0
100
AcDbLine
62
7
6
CONTINUOUS
10
-517.9380638371
20
244.4606487566
11
-518.7380638371
21
243.6606487566
0
LINE
5
2EC
100
AcDbEntity
8
0
100
AcDbLine
62
7
6
CONTINUOUS
10
-517.9380638371
20
-457.1393512434
11
-518.7380638371
21
-456.3393512434
0
LINE
5
2ED
100
AcDbEntity
8
0
100
AcDbLine
62
7
6
CONTINUOUS
10
-554.0380638371
20
-109.8393512434
11
-554.0380638371
21
-102.8393512434
0
LINE
5
2EE
100
AcDbEntity
8
0
100
AcDbLine
62
7
6
CONTINUOUS
10
-552.3380638371
20
-112.8393512434
11
-552.3380638371
21
-109.8393512434
0
LINE
5
2EF
100
AcDbEntity
8
0
100
AcDbLine
62
7
6
CONTINUOUS
10
-552.3380638371
20
-102.8393512434
11
-552.3380638371
21
-99.8393512434
0
LINE
5
2F0
100
AcDbEntity
8
0
100
AcDbLine
62
7
6
CONTINUOUS
10
-552.3380638371
20
-99.8393512434
11
-547.7880638371
21
-95.6893512434
0
LINE
5
2F1
100
AcDbEntity
8
0
100
AcDbLine
62
7
6
CONTINUOUS
10
-547.7880638371
20
-116.9893512434
11
-552.3380638371
21
-112.8393512434
0
LINE
5
2F2
100
AcDbEntity
8
0
100
AcDbLine
62
7
6
CONTINUOUS
10
-535.2380638371
20
-100.7393512434
11
-535.2380638371
21
-102.8393512434
0
LINE
5
2F3
100
AcDbEntity
8
0
100
AcDbLine
62
7
6
CONTINUOUS
10
-535.2380638371
20
-109.8393512434
11
-535.2380638371
21
-111.9393512434
0
LINE
5
2F4
100
AcDbEntity
8
0
100
AcDbLine
62
7
6
CONTINUOUS
10
-527.2380638371
20
-99.1893512434
11
-527.2380638371
21
-113.4893512434
0
LINE
5
2F5
100
AcDbEntity
8
0
100
AcDbLine
62
7
6
CONTINUOUS
10
-526.2380638371
20
-96.8393512434
11
-526.2380638371
21
-115.8393512434
0
LINE
5
2F6
100
AcDbEntity
8
0
100
AcDbLine
62
7
6
CONTINUOUS
10
-524.6380638371
20
-95.3393512434
11
-524.6380638371
21
-117.3393512434
0
LINE
5
2F7
100
AcDbEntity
8
0
100
AcDbLine
62
7
6
CONTINUOUS
10
-523.7380638371
20
232.6606487566
11
-523.7380638371
21
235.4606487566
0
LINE
5
2F8
100
AcDbEntity
8
0
100
AcDbLine
62
7
6
CONTINUOUS
10
-523.7380638371
20
-445.3393512434
11
-523.7380638371
21
-448.1393512434
0
LINE
5
2F9
100
AcDbEntity
8
0
100
AcDbLine
62
7
6
CONTINUOUS
10
-522.8380638371
20
-333.3393512434
11
-522.8380638371
21
-315.7283552434
0
LINE
5
2FA
100
AcDbEntity
8
0
100
AcDbLine
62
7
6
CONTINUOUS
10
-522.8380638371
20
-308.1406192434
11
-522.8380638371
21
-290.7200472434
0
LINE
5
2FB
100
AcDbEntity
8
0
100
AcDbLine
62
7
6
CONTINUOUS
10
-522.8380638371
20
-290.3318912434
11
-522.8380638371
21
-286.1882352434
0
LINE
5
2FC
100
AcDbEntity
8
0
100
AcDbLine
62
7
6
CONTINUOUS
10
-522.8380638371
20
-284.1613732434
11
-522.8380638371
21
-264.0661332434
0
LINE
5
2FD
100
AcDbEntity
8
0
100
AcDbLine
62
7
6
CONTINUOUS
10
-522.8380638371
20
-263.7575575247
11
-522.8380638371
21
-245.5332663174
0
LINE
5
2FE
100
AcDbEntity
8
0
100
AcDbLine
62
7
6
CONTINUOUS
10
-522.8380638371
20
-245.3598949830
11
-522.8380638371
21
-229.4568307520
0
LINE
5
2FF
100
AcDbEntity
8
0
100
AcDbLine
62
7
6
CONTINUOUS
10
-522.8380638371
20
143.9846417566
11
-522.8380638371
21
127.3136067566
0
LINE
5
300
100
AcDbEntity
8
0
100
AcDbLine
62
7
6
CONTINUOUS
10
-522.8380638371
20
122.1042507566
11
-522.8380638371
21
106.3405107566
0
LINE
5
301
100
AcDbEntity
8
0
100
AcDbLine
62
7
6
CONTINUOUS
10
-522.8380638371
20
99.9943470471
11
-522.8380638371
21
83.7480937404
0
LINE
5
302
100
AcDbEntity
8
0
100
AcDbLine
62
7
6
CONTINUOUS
10
-522.8380638371
20
78.4859888175
11
-522.8380638371
21
59.4554388741
0
LINE
5
303
100
AcDbEntity
8
0
100
AcDbLine
62
7
6
CONTINUOUS
10
-522.8380638371
20
56.4957647566
11
-522.8380638371
21
37.3038887566
0
LINE
5
304
100
AcDbEntity
8
0
100
AcDbLine
62
7
6
CONTINUOUS
10
-522.8380638371
20
34.3126267566
11
-522.8380638371
21
17.6416797566
0
LINE
5
305
100
AcDbEntity
8
0
100
AcDbLine
62
7
6
CONTINUOUS
10
-522.8380638371
20
10.7854057566
11
-522.8380638371
21
-8.3393182434
0
LINE
5
306
100
AcDbEntity
8
0
100
AcDbLine
62
7
6
CONTINUOUS
10
-522.7380638371
20
230.6606487566
11
-522.7380638371
21
-443.3393512434
0
LINE
5
307
100
AcDbEntity
8
0
100
AcDbLine
62
9
6
CONTINUOUS
10
-520.7380638371
20
230.6606487566
11
-520.7380638371
21
-443.3393512434
0
LINE
5
308
100
AcDbEntity
8
0
100
AcDbLine
62
7
6
CONTINUOUS
10
-520.1380638371
20
230.6606487566
11
-520.1380638371
21
231.1606487566
0
LINE
5
309
100
AcDbEntity
8
0
100
AcDbLine
62
7
6
CONTINUOUS
10
-520.1380638371
20
-443.3393512434
11
-520.1380638371
21
-443.8393512434
0
LINE
5
30A
100
AcDbEntity
8
0
100
AcDbLine
62
7
6
CONTINUOUS
10
-547.5146619656
20
-103.0159493718
11
-550.8380638371
21
-106.3393512434
0
LINE
5
30B
100
AcDbEntity
8
0
100
AcDbLine
62
7
6
CONTINUOUS
10
-547.5146619656
20
-109.6627531149
11
-544.1912600940
21
-106.3393512434
0
LINE
5
30C
100
AcDbEntity
8
0
100
AcDbLine
62
7
6
CONTINUOUS
10
-535.2380638371
20
-111.9393512434
11
-540.2880638371
21
-116.9893512434
0
LINE
5
30D
100
AcDbEntity
8
0
100
AcDbLine
62
7
6
CONTINUOUS
10
-526.2380638371
20
-96.8393512434
11
-524.6380638371
21
-95.3393512434
0
LINE
5
30E
100
AcDbEntity
8
0
100
AcDbLine
62
7
6
CONTINUOUS
10
-527.2380638371
20
-99.1893512434
11
-526.2380638371
21
-98.6226845767
0
LINE
5
30F
100
AcDbEntity
8
0
100
AcDbLine
62
7
6
CONTINUOUS
10
-496.4944274162
20
-105.8591163040
11
-496.2685117397
21
-105.8393512434
0
LINE
5
310
100
AcDbEntity
8
0
100
AcDbLine
62
7
6
CONTINUOUS
10
-496.4944274162
20
-104.3591163040
11
-496.4802785775
21
-104.3578784410
0
LINE
5
311
100
AcDbEntity
8
0
100
AcDbLine
62
7
6
CONTINUOUS
10
-524.6380638371
20
-117.3393512434
11
-522.7380638371
21
-117.3393512434
0
LINE
5
312
100
AcDbEntity
8
0
100
AcDbLine
62
7
6
CONTINUOUS
10
-540.2880638371
20
-116.9893512434
11
-547.7880638371
21
-116.9893512434
0
LINE
5
313
100
AcDbEntity
8
0
100
AcDbLine
62
7
6
CONTINUOUS
10
-504.7380638371
20
-115.6893512434
11
-502.2380638371
21
-115.6893512434
0
LINE
5
314
100
AcDbEntity
8
0
100
AcDbLine
62
7
6
CONTINUOUS
10
-500.2380638371
20
-114.8393512434
11
-502.2380638371
21
-114.8393512434
0
LINE
5
315
100
AcDbEntity
8
0
100
AcDbLine
62
7
6
CONTINUOUS
10
-498.5780638371
20
-110.8393512434
11
-497.5780638371
21
-110.8393512434
0
LINE
5
316
100
AcDbEntity
8
0
100
AcDbLine
62
7
6
CONTINUOUS
10
-504.7380638371
20
-110.7393512434
11
-502.2380638371
21
-110.7393512434
0
LINE
5
317
100
AcDbEntity
8
0
100
AcDbLine
62
7
6
CONTINUOUS
10
-498.7380638371
20
-110.3393512434
11
-502.2380638371
21
-110.3393512434
0
LINE
5
318
100
AcDbEntity
8
0
100
AcDbLine
62
7
6
CONTINUOUS
10
-527.2380638371
20
-109.8393512434
11
-535.2380638371
21
-109.8393512434
0
LINE
5
319
100
AcDbEntity
8
0
100
AcDbLine
62
7
6
CONTINUOUS
10
-552.3380638371
20
-109.8393512434
11
-554.0380638371
21
-109.8393512434
0
LINE
5
31A
100
AcDbEntity
8
0
100
AcDbLine
62
7
6
CONTINUOUS
10
-498.7380638371
20
-108.8393512434
11
-498.5780638371
21
-108.8393512434
0
LINE
5
31B
100
AcDbEntity
8
0
100
AcDbLine
62
7
6
CONTINUOUS
10
-531.2380638371
20
-104.5393512434
11
-527.2380638371
21
-104.5393512434
0
LINE
5
31C
100
AcDbEntity
8
0
100
AcDbLine
62
7
6
CONTINUOUS
10
-498.7380638371
20
-103.8393512434
11
-498.5780638371
21
-103.8393512434
0
LINE
5
31D
100
AcDbEntity
8
0
100
AcDbLine
62
7
6
CONTINUOUS
10
-496.4802785775
20
-108.3208240457
11
-496.4944274162
21
-108.3195861828
0
LINE
5
31E
100
AcDbEntity
8
0
100
AcDbLine
62
7
6
CONTINUOUS
10
-496.2685117397
20
-106.8393512434
11
-496.4944274162
21
-106.8195861828
0
LINE
5
31F
100
AcDbEntity
8
0
100
AcDbLine
62
7
6
CONTINUOUS
10
-527.2380638371
20
-113.4893512434
11
-526.2380638371
21
-114.0560179100
0
LINE
5
320
100
AcDbEntity
8
0
100
AcDbLine
62
7
6
CONTINUOUS
10
-533.2380638371
20
-102.8393512434
11
-531.2380638371
21
-104.5393512434
0
LINE
5
321
100
AcDbEntity
8
0
100
AcDbLine
62
7
6
CONTINUOUS
10
-526.2380638371
20
-115.8393512434
11
-524.6380638371
21
-117.3393512434
0
LINE
5
322
100
AcDbEntity
8
0
100
AcDbLine
62
7
6
CONTINUOUS
10
-550.8380638371
20
-106.3393512434
11
-547.5146619656
21
-109.6627531149
0
LINE
5
323
100
AcDbEntity
8
0
100
AcDbLine
62
7
6
CONTINUOUS
10
-544.1912600940
20
-106.3393512434
11
-547.5146619656
21
-103.0159493718
0
LINE
5
324
100
AcDbEntity
8
0
100
AcDbLine
62
7
6
CONTINUOUS
10
-540.2880638371
20
-95.6893512434
11
-535.2380638371
21
-100.7393512434
0
LINE
5
325
100
AcDbEntity
8
0
100
AcDbLine
62
7
6
CONTINUOUS
10
-518.7380638371
20
-456.3393512434
11
-518.7380638371
21
-448.1393512434
0
LINE
5
326
100
AcDbEntity
8
0
100
AcDbLine
62
7
6
CONTINUOUS
10
-518.7380638371
20
243.6606487566
11
-518.7380638371
21
235.4606487566
0
LINE
5
327
100
AcDbEntity
8
0
100
AcDbLine
62
7
6
CONTINUOUS
10
-513.7380638371
20
-456.3393512434
11
-513.7380638371
21
-448.1393512434
0
LINE
5
328
100
AcDbEntity
8
0
100
AcDbLine
62
7
6
CONTINUOUS
10
-513.7380638371
20
243.6606487566
11
-513.7380638371
21
235.4606487566
0
LINE
5
329
100
AcDbEntity
8
0
100
AcDbLine
62
7
6
CONTINUOUS
10
-512.3380638371
20
230.6606487566
11
-512.3380638371
21
231.1606487566
0
LINE
5
32A
100
AcDbEntity
8
0
100
AcDbLine
62
7
6
CONTINUOUS
10
-512.3380638371
20
-443.3393512434
11
-512.3380638371
21
-443.8393512434
0
LINE
5
32B
100
AcDbEntity
8
0
100
AcDbLine
62
7
6
CONTINUOUS
10
-508.7380638371
20
232.6606487566
11
-508.7380638371
21
235.4606487566
0
LINE
5
32C
100
AcDbEntity
8
0
100
AcDbLine
62
7
6
CONTINUOUS
10
-508.7380638371
20
-445.3393512434
11
-508.7380638371
21
-448.1393512434
0
LINE
5
32D
100
AcDbEntity
8
0
100
AcDbLine
62
9
6
CONTINUOUS
10
-506.7380638371
20
-445.3393512434
11
-506.7380638371
21
-443.8393512434
0
LINE
5
32E
100
AcDbEntity
8
0
100
AcDbLine
62
9
6
CONTINUOUS
10
-506.7380638371
20
230.6606487566
11
-506.7380638371
21
-443.3393512434
0
LINE
5
32F
100
AcDbEntity
8
0
100
AcDbLine
62
9
6
CONTINUOUS
10
-506.7380638371
20
231.1606487566
11
-506.7380638371
21
232.6606487566
0
LINE
5
330
100
AcDbEntity
8
0
100
AcDbLine
62
7
6
CONTINUOUS
10
-504.7380638371
20
-445.3393512434
11
-504.7380638371
21
-443.8393512434
0
LINE
5
331
100
AcDbEntity
8
0
100
AcDbLine
62
7
6
CONTINUOUS
10
-504.7380638371
20
230.6606487566
11
-504.7380638371
21
-443.3393512434
0
LINE
5
332
100
AcDbEntity
8
0
100
AcDbLine
62
7
6
CONTINUOUS
10
-504.7380638371
20
231.1606487566
11
-504.7380638371
21
232.6606487566
0
LINE
5
333
100
AcDbEntity
8
0
100
AcDbLine
62
9
6
CONTINUOUS
10
-504.5380638371
20
155.9106487566
11
-504.5380638371
21
163.4106487566
0
LINE
5
334
100
AcDbEntity
8
0
100
AcDbLine
62
9
6
CONTINUOUS
10
-504.5380638371
20
170.9106487566
11
-504.5380638371
21
178.4106487566
0
LINE
5
335
100
AcDbEntity
8
0
100
AcDbLine
62
9
6
CONTINUOUS
10
-504.5380638371
20
-368.5893512434
11
-504.5380638371
21
-376.0893512434
0
LINE
5
336
100
AcDbEntity
8
0
100
AcDbLine
62
9
6
CONTINUOUS
10
-504.5380638371
20
-383.5893512434
11
-504.5380638371
21
-391.0893512434
0
LINE
5
337
100
AcDbEntity
8
0
100
AcDbLine
62
9
6
CONTINUOUS
10
-504.4163247067
20
155.9519679950
11
-504.4163247067
21
163.3693295183
0
LINE
5
338
100
AcDbEntity
8
0
100
AcDbLine
62
9
6
CONTINUOUS
10
-504.4163247067
20
170.9519679950
11
-504.4163247067
21
178.3693295183
0
LINE
5
339
100
AcDbEntity
8
0
100
AcDbLine
62
9
6
CONTINUOUS
10
-504.4163247067
20
-368.6306704817
11
-504.4163247067
21
-376.0480320050
0
LINE
5
33A
100
AcDbEntity
8
0
100
AcDbLine
62
9
6
CONTINUOUS
10
-504.4163247067
20
-383.6306704817
11
-504.4163247067
21
-391.0480320050
0
LINE
5
33B
100
AcDbEntity
8
0
100
AcDbLine
62
7
6
CONTINUOUS
10
-503.4380638371
20
-389.0645224843
11
-503.4380638371
21
-385.6141800025
0
LINE
5
33C
100
AcDbEntity
8
0
100
AcDbLine
62
7
6
CONTINUOUS
10
-503.4380638371
20
-374.0645224843
11
-503.4380638371
21
-370.6141800025
0
LINE
5
33D
100
AcDbEntity
8
0
100
AcDbLine
62
7
6
CONTINUOUS
10
-503.4380638371
20
157.9354775157
11
-503.4380638371
21
161.3857898440
0
LINE
5
33E
100
AcDbEntity
8
0
100
AcDbLine
62
7
6
CONTINUOUS
10
-503.4380638371
20
172.9354775157
11
-503.4380638371
21
176.3857898440
0
LINE
5
33F
100
AcDbEntity
8
0
100
AcDbLine
62
7
6
CONTINUOUS
10
-502.2380638371
20
-96.9893512434
11
-502.2380638371
21
-115.6891840433
0
LINE
5
340
100
AcDbEntity
8
0
100
AcDbLine
62
7
6
CONTINUOUS
10
-500.2380638371
20
-101.1206713110
11
-500.2380638371
21
-114.8391991551
0
LINE
5
341
100
AcDbEntity
8
0
100
AcDbLine
62
7
6
CONTINUOUS
10
-498.7380638371
20
-110.3393512434
11
-498.7380638371
21
-102.3393512434
0
LINE
5
342
100
AcDbEntity
8
0
100
AcDbLine
62
7
6
CONTINUOUS
10
-498.5780638371
20
-110.8393512434
11
-498.5780638371
21
-101.8393512434
0
LINE
5
343
100
AcDbEntity
8
0
100
AcDbLine
62
7
6
CONTINUOUS
10
-497.5780638371
20
-110.8393512434
11
-497.5780638371
21
-101.8393512434
0
LINE
5
344
100
AcDbEntity
8
0
100
AcDbLine
62
7
6
CONTINUOUS
10
-494.1604583012
20
-72.6942274435
11
-502.2380638371
21
-100.8393512434
0
LINE
5
345
100
AcDbEntity
8
0
100
AcDbLine
62
7
6
CONTINUOUS
10
-492.2380638371
20
-73.2459515814
11
-500.2380638371
21
-101.1206713110
0
LINE
5
346
100
AcDbEntity
8
0
100
AcDbLine
62
7
6
CONTINUOUS
10
-554.0380638371
20
-102.8393512434
11
-552.3380638371
21
-102.8393512434
0
LINE
5
347
100
AcDbEntity
8
0
100
AcDbLine
62
7
6
CONTINUOUS
10
-535.2380638371
20
-102.8393512434
11
-533.2380638371
21
-102.8393512434
0
LINE
5
348
100
AcDbEntity
8
0
100
AcDbLine
62
7
6
CONTINUOUS
10
-498.7380638371
20
-102.3393512434
11
-502.2380638371
21
-102.3393512434
0
LINE
5
349
100
AcDbEntity
8
0
100
AcDbLine
62
7
6
CONTINUOUS
10
-504.7380638371
20
-101.9393512434
11
-502.2380638371
21
-101.9393512434
0
LINE
5
34A
100
AcDbEntity
8
0
100
AcDbLine
62
7
6
CONTINUOUS
10
-498.5780638371
20
-101.8393512434
11
-497.5780638371
21
-101.8393512434
0
LINE
5
34B
100
AcDbEntity
8
0
100
AcDbLine
62
7
6
CONTINUOUS
10
-502.0604625060
20
-100.2205278270
11
-499.9797240963
21
-100.2205278270
0
LINE
5
34C
100
AcDbEntity
8
0
100
AcDbLine
62
7
6
CONTINUOUS
10
-504.7380638371
20
-96.9893512434
11
-502.2380638371
21
-96.9893512434
0
LINE
5
34D
100
AcDbEntity
8
0
100
AcDbLine
62
7
6
CONTINUOUS
10
-547.7880638371
20
-95.6893512434
11
-540.2880638371
21
-95.6893512434
0
LINE
5
34E
100
AcDbEntity
8
0
100
AcDbLine
62
7
6
CONTINUOUS
10
-524.6380638371
20
-95.3393512434
11
-522.7380638371
21
-95.3393512434
0
LINE
5
34F
100
AcDbEntity
8
0
100
AcDbLine
62
7
6
CONTINUOUS
10
-500.1142756673
20
-93.4393512434
11
-498.0335372576
21
-93.4393512434
0
LINE
5
350
100
AcDbEntity
8
0
100
AcDbLine
62
7
6
CONTINUOUS
10
-499.6550782251
20
-91.8393512434
11
-497.5743398155
21
-91.8393512434
0
LINE
5
351
100
AcDbEntity
8
0
100
AcDbLine
62
7
6
CONTINUOUS
10
-494.5630800343
20
-74.0970984392
11
-492.6406855702
21
-74.6488225771
0
LINE
5
352
100
AcDbEntity
8
0
100
AcDbLine
62
7
6
CONTINUOUS
10
-494.1604583012
20
-72.6942274435
11
-492.2380638371
21
-73.2459515814
0
LINE
5
353
100
AcDbEntity
8
0
100
AcDbLine
62
7
6
CONTINUOUS
10
-514.5380638371
20
-457.1393512434
11
-513.7380638371
21
-456.3393512434
0
LINE
5
354
100
AcDbEntity
8
0
100
AcDbLine
62
7
6
CONTINUOUS
10
-514.5380638371
20
244.4606487566
11
-513.7380638371
21
243.6606487566
0
LINE
5
355
100
AcDbEntity
8
0
100
AcDbLine
62
7
6
CONTINUOUS
10
-504.5380638371
20
155.9106487566
11
-504.7380638371
21
155.9106487566
0
LINE
5
356
100
AcDbEntity
8
0
100
AcDbLine
62
7
6
CONTINUOUS
10
-504.5380638371
20
163.4106487566
11
-504.7380638371
21
163.4106487566
0
LINE
5
357
100
AcDbEntity
8
0
100
AcDbLine
62
7
6
CONTINUOUS
10
-504.5380638371
20
170.9106487566
11
-504.7380638371
21
170.9106487566
0
LINE
5
358
100
AcDbEntity
8
0
100
AcDbLine
62
7
6
CONTINUOUS
10
-504.5380638371
20
178.4106487566
11
-504.7380638371
21
178.4106487566
0
LINE
5
359
100
AcDbEntity
8
0
100
AcDbLine
62
7
6
CONTINUOUS
10
-504.7380638371
20
230.6606487566
11
-522.7380638371
21
230.6606487566
0
LINE
5
35A
100
AcDbEntity
8
0
100
AcDbLine
62
7
6
CONTINUOUS
10
-504.7380638371
20
231.1606487566
11
-520.7380638371
21
231.1606487566
0
LINE
5
35B
100
AcDbEntity
8
0
100
AcDbLine
62
7
6
CONTINUOUS
10
-504.7380638371
20
232.6606487566
11
-523.7380316541
21
232.6606487566
0
LINE
5
35C
100
AcDbEntity
8
0
100
AcDbLine
62
7
6
CONTINUOUS
10
-508.7380960202
20
235.4606487566
11
-523.7380316541
21
235.4606487566
0
LINE
5
35D
100
AcDbEntity
8
0
100
AcDbLine
62
7
6
CONTINUOUS
10
-513.7380638371
20
243.6606487566
11
-518.7380638371
21
243.6606487566
0
LINE
5
35E
100
AcDbEntity
8
0
100
AcDbLine
62
7
6
CONTINUOUS
10
-514.5383271286
20
244.4606487566
11
-517.9378005457
21
244.4606487566
0
CIRCLE
5
35F
100
AcDbEntity
8
0
100
AcDbCircle
62
7
6
CONTINUOUS
10
-369.7255440598
20
-106.3393512434
40
11.0000000000
0
ARC
5
360
100
AcDbEntity
8
0
100
AcDbCircle
62
7
6
CONTINUOUS
10
-369.7255440598
20
-106.3393512434
40
8.5000000000
100
AcDbArc
50
96.7565375415
51
263.2434624585
0
ARC
5
361
100
AcDbEntity
8
0
100
AcDbCircle
62
7
6
CONTINUOUS
10
-369.7255440598
20
-106.3393512434
40
8.5000000000
100
AcDbArc
50
276.7565375415
51
83.2434624585
0
ARC
5
362
100
AcDbEntity
8
0
100
AcDbCircle
62
7
6
CONTINUOUS
10
-369.7255440598
20
-106.3393512434
40
3.2500000000
100
AcDbArc
50
108.8491065923
51
252.0797868606
0
ARC
5
363
100
AcDbEntity
8
0
100
AcDbCircle
62
7
6
CONTINUOUS
10
-369.7255440598
20
-106.3393512434
40
9.5000000000
100
AcDbArc
50
96.0445657952
51
263.9554342048
0
ARC
5
364
100
AcDbEntity
8
0
100
AcDbCircle
62
7
6
CONTINUOUS
10
-369.7255440598
20
-106.3393512434
40
9.5000000000
100
AcDbArc
50
276.0445657952
51
83.9554342048
0
ARC
5
365
100
AcDbEntity
8
0
100
AcDbCircle
62
7
6
CONTINUOUS
10
-369.7255440598
20
-106.3393512434
40
3.2500000000
100
AcDbArc
50
287.9202131394
51
71.1508934077
0
ARC
5
366
100
AcDbEntity
8
0
100
AcDbCircle
62
7
6
CONTINUOUS
10
-369.7255440598
20
-106.3393512434
40
8.0000000000
100
AcDbArc
50
97.1809481452
51
262.8190518548
0
ARC
5
367
100
AcDbEntity
8
0
100
AcDbCircle
62
7
6
CONTINUOUS
10
-369.7255440598
20
-106.3393512434
40
8.0000000000
100
AcDbArc
50
277.1809481452
51
82.8190518548
0
ARC
5
368
100
AcDbEntity
8
0
100
AcDbCircle
62
7
6
CONTINUOUS
10
-369.7255440598
20
-106.3393512434
40
7.1500000000
100
AcDbArc
50
98.0439709356
51
261.9560290644
0
ARC
5
369
100
AcDbEntity
8
0
100
AcDbCircle
62
7
6
CONTINUOUS
10
-369.7255440598
20
-106.3393512434
40
7.1500000000
100
AcDbArc
50
278.0439709356
51
81.9560290644
0
ARC
5
36A
100
AcDbEntity
8
0
100
AcDbCircle
62
7
6
CONTINUOUS
10
-504.5380638371
20
-390.8893512434
40
0.2000000000
100
AcDbArc
50
270.0000000000
51
307.4952497646
0
ARC
5
36B
100
AcDbEntity
8
0
100
AcDbCircle
62
7
6
CONTINUOUS
10
-505.9380638371
20
-389.0645224843
40
2.5000000000
100
AcDbArc
50
307.4952497646
51
360.0000000000
0
ARC
5
36C
100
AcDbEntity
8
0
100
AcDbCircle
62
7
6
CONTINUOUS
10
-505.9380638371
20
-385.6141800025
40
2.5000000000
100
AcDbArc
50
0.0000000000
51
52.5047502354
0
ARC
5
36D
100
AcDbEntity
8
0
100
AcDbCircle
62
7
6
CONTINUOUS
10
-504.5380638371
20
-383.7893512434
40
0.2000000000
100
AcDbArc
50
52.5047502354
51
90.0000000000
0
ARC
5
36E
100
AcDbEntity
8
0
100
AcDbCircle
62
7
6
CONTINUOUS
10
-504.5380638371
20
-375.8893512434
40
0.2000000000
100
AcDbArc
50
270.0000000000
51
307.4952497646
0
ARC
5
36F
100
AcDbEntity
8
0
100
AcDbCircle
62
7
6
CONTINUOUS
10
-505.9380638371
20
-374.0645224843
40
2.5000000000
100
AcDbArc
50
307.4952497646
51
360.0000000000
0
ARC
5
370
100
AcDbEntity
8
0
100
AcDbCircle
62
7
6
CONTINUOUS
10
-505.9380638371
20
-370.6141800025
40
2.5000000000
100
AcDbArc
50
0.0000000000
51
52.5047502354
0
ARC
5
371
100
AcDbEntity
8
0
100
AcDbCircle
62
7
6
CONTINUOUS
10
-504.5380638371
20
-368.7893512434
40
0.2000000000
100
AcDbArc
50
52.5047502354
51
90.0000000000
0
ARC
5
372
100
AcDbEntity
8
0
100
AcDbCircle
62
7
6
CONTINUOUS
10
-504.5380638371
20
156.1106487566
40
0.2000000000
100
AcDbArc
50
270.0000000000
51
307.4952497646
0
ARC
5
373
100
AcDbEntity
8
0
100
AcDbCircle
62
7
6
CONTINUOUS
10
-505.9380638371
20
157.9354775157
40
2.5000000000
100
AcDbArc
50
307.4952497646
51
360.0000000000
0
ARC
5
374
100
AcDbEntity
8
0
100
AcDbCircle
62
7
6
CONTINUOUS
10
-505.9380638371
20
161.3858199975
40
2.5000000000
100
AcDbArc
50
0.0000000000
51
52.5047502354
0
ARC
5
375
100
AcDbEntity
8
0
100
AcDbCircle
62
7
6
CONTINUOUS
10
-504.5380638371
20
163.2106487566
40
0.2000000000
100
AcDbArc
50
52.5047502354
51
90.0000000000
0
ARC
5
376
100
AcDbEntity
8
0
100
AcDbCircle
62
7
6
CONTINUOUS
10
-504.5380638371
20
171.1106487566
40
0.2000000000
100
AcDbArc
50
270.0000000000
51
307.4952497646
0
ARC
5
377
100
AcDbEntity
8
0
100
AcDbCircle
62
7
6
CONTINUOUS
10
-505.9380638371
20
172.9354775157
40
2.5000000000
100
AcDbArc
50
307.4952497646
51
360.0000000000
0
ARC
5
378
100
AcDbEntity
8
0
100
AcDbCircle
62
7
6
CONTINUOUS
10
-505.9380638371
20
176.3858199975
40
2.5000000000
100
AcDbArc
50
0.0000000000
51
52.5047502354
0
ARC
5
379
100
AcDbEntity
8
0
100
AcDbCircle
62
7
6
CONTINUOUS
10
-504.5380638371
20
178.2106487566
40
0.2000000000
100
AcDbArc
50
52.5047502354
51
90.0000000000
0
ARC
5
37A
100
AcDbEntity
8
0
100
AcDbCircle
62
7
6
CONTINUOUS
10
-504.4640339864
20
-106.3393512434
40
8.2259701493
100
AcDbArc
50
13.9384924695
51
33.1647238820
0
ARC
5
37B
100
AcDbEntity
8
0
100
AcDbCircle
62
7
6
CONTINUOUS
10
-504.4640339864
20
-106.3393512434
40
8.2259701493
100
AcDbArc
50
326.8352761180
51
346.0615075305
0
ARC
5
37C
100
AcDbEntity
8
0
100
AcDbCircle
62
7
6
CONTINUOUS
10
-520.7380638371
20
-443.3393512434
40
0.5000000000
100
AcDbArc
50
180.0000000000
51
270.0000000000
0
ARC
5
37D
100
AcDbEntity
8
0
100
AcDbCircle
62
7
6
CONTINUOUS
10
-520.7380638371
20
-443.3393512434
40
2.0000000000
100
AcDbArc
50
180.0000000000
51
270.0000000000
0
ARC
5
37E
100
AcDbEntity
8
0
100
AcDbCircle
62
7
6
CONTINUOUS
10
-520.7380638371
20
230.6606487566
40
2.0000000000
100
AcDbArc
50
90.0000000000
51
180.0000000000
0
ARC
5
37F
100
AcDbEntity
8
0
100
AcDbCircle
62
7
6
CONTINUOUS
10
-520.7380638371
20
230.6606487566
40
0.5000000000
100
AcDbArc
50
90.0000000000
51
180.0000000000
0
SPLINE
5
380
100
AcDbEntity
8
0
100
AcDbSpline
62
7
6
CONTINUOUS
70
0
71
3
72
14
73
10
74
8
42
0.0000001000
43
0.0000001000
44
0.0000000001
12
-9.2391881594
22
11.7926371806
32
0.0000000000
13
-1.7082253290
23
-14.8832407675
33
0.0000000000
40
0.0000000000
40
0.0000000000
40
0.0000000000
40
0.0000000000
40
0.1423945546
40
0.2880943015
40
0.4312194759
40
0.5723347124
40
0.7160388595
40
0.8626165714
40
1.0000000000
40
1.0000000000
40
1.0000000000
40
1.0000000000
10
-377.8941107808
20
-232.2011325070
30
0.0000000000
10
-378.3326474752
20
-231.6413967339
30
0.0000000000
10
-379.4292928119
20
-230.6626033567
30
0.0000000000
10
-381.4415583432
20
-229.7949960630
30
0.0000000000
10
-383.6264292963
20
-229.6505577492
30
0.0000000000
10
-385.7240752060
20
-230.2366068740
30
0.0000000000
10
-387.5175397481
20
-231.5058590868
30
0.0000000000
10
-388.7796884183
20
-233.2736790780
30
0.0000000000
10
-389.2080448578
20
-234.6585172951
30
0.0000000000
10
-389.2862721420
20
-235.3400875102
30
0.0000000000
11
-377.8941107808
21
-232.2011325070
31
0.0000000000
11
-379.4772318254
21
-230.7713441070
31
0.0000000000
11
-381.4841003222
21
-229.9130034268
31
0.0000000000
11
-383.6236619940
21
-229.7727884058
31
0.0000000000
11
-385.6593439706
21
-230.3430215332
31
0.0000000000
11
-387.4197913857
21
-231.5821661534
31
0.0000000000
11
-388.6976619614
21
-233.3679173221
31
0.0000000000
11
-389.2862721420
21
-235.3400875102
31
0.0000000000
0
SPLINE
5
381
100
AcDbEntity
8
0
100
AcDbSpline
62
7
6
CONTINUOUS
70
0
71
3
72
10
73
6
74
4
42
0.0000001000
43
0.0000001000
44
0.0000000001
12
-0.8061524395
22
2.2960191285
32
0.0000000000
13
-1.4199893487
23
1.9761618971
33
0.0000000000
40
0.0000000000
40
0.0000000000
40
0.0000000000
40
0.0000000000
40
0.3483746353
40
0.6820820198
40
1.0000000000
40
1.0000000000
40
1.0000000000
40
1.0000000000
10
-376.7925734734
20
-234.3627928921
30
0.0000000000
10
-376.8861878274
20
-234.0961679499
30
0.0000000000
10
-377.0911025556
20
-233.5813442769
30
0.0000000000
10
-377.4585759311
20
-232.8569972061
30
0.0000000000
10
-377.7436307323
20
-232.4105516399
30
0.0000000000
10
-377.8941107808
20
-232.2011325070
30
0.0000000000
11
-376.7925734734
21
-234.3627928921
31
0.0000000000
11
-377.1074390249
21
-233.5756891835
31
0.0000000000
11
-377.4763372275
21
-232.8522629258
31
0.0000000000
11
-377.8941107808
21
-232.2011325070
31
0.0000000000
0
SPLINE
5
382
100
AcDbEntity
8
0
100
AcDbSpline
62
7
6
CONTINUOUS
70
0
71
3
72
10
73
6
74
4
42
0.0000001000
43
0.0000001000
44
0.0000000001
12
2.0215063130
22
-1.7762940088
32
0.0000000000
13
0.0595527526
23
-2.6903831788
33
0.0000000000
40
0.0000000000
40
0.0000000000
40
0.0000000000
40
0.0000000000
40
0.3136248287
40
0.6626409494
40
1.0000000000
40
1.0000000000
40
1.0000000000
40
1.0000000000
10
-380.8462957283
20
-234.2588512958
30
0.0000000000
10
-380.6349642046
20
-234.4445479305
30
0.0000000000
10
-380.2489631284
20
-234.9086015969
30
0.0000000000
10
-379.8700058574
20
-235.7313848933
30
0.0000000000
10
-379.7616058541
20
-236.3469663053
30
0.0000000000
10
-379.7549089674
20
-236.6495080103
30
0.0000000000
11
-380.8462957283
21
-234.2588512958
31
0.0000000000
11
-380.2997953880
21
-234.9019964237
31
0.0000000000
11
-379.9048142387
21
-235.7541223987
31
0.0000000000
11
-379.7549089674
21
-236.6495080103
31
0.0000000000
0
SPLINE
5
383
100
AcDbEntity
8
0
100
AcDbSpline
62
7
6
CONTINUOUS
70
0
71
3
72
13
73
9
74
7
42
0.0000001000
43
0.0000001000
44
0.0000000001
12
0.4808397479
22
6.8443433375
32
0.0000000000
13
5.0460170677
23
-4.6490810208
33
0.0000000000
40
0.0000000000
40
0.0000000000
40
0.0000000000
40
0.0000000000
40
0.1608835423
40
0.3378688380
40
0.5099439326
40
0.6850865828
40
0.8526995138
40
1.0000000000
40
1.0000000000
40
1.0000000000
40
1.0000000000
10
-386.0640826573
20
-236.3376832214
30
0.0000000000
10
-386.0382962566
20
-235.9706358212
30
0.0000000000
10
-385.8136808662
20
-235.2078767283
30
0.0000000000
10
-385.0984369654
20
-234.2569223704
30
0.0000000000
10
-384.0504682311
20
-233.6066171255
30
0.0000000000
10
-382.8534998815
20
-233.4547270805
30
0.0000000000
10
-381.7355605052
20
-233.6592287566
30
0.0000000000
10
-381.0940559842
20
-234.0305806642
30
0.0000000000
10
-380.8462957283
20
-234.2588512958
30
0.0000000000
11
-386.0640826573
21
-236.3376832214
31
0.0000000000
11
-385.7678643733
21
-235.2743143670
31
0.0000000000
11
-385.0380150483
21
-234.3037853718
31
0.0000000000
11
-384.0288166183
21
-233.6910550452
31
0.0000000000
11
-382.8399068178
21
-233.5162558001
31
0.0000000000
11
-381.7110053228
21
-233.7356773782
31
0.0000000000
11
-380.8462957283
21
-234.2588512958
31
0.0000000000
0
SPLINE
5
384
100
AcDbEntity
8
0
100
AcDbSpline
62
7
6
CONTINUOUS
70
0
71
3
72
10
73
6
74
4
42
0.0000001000
43
0.0000001000
44
0.0000000001
12
-2.2083920951
22
-3.5763090289
32
0.0000000000
13
-4.1873585715
23
-0.3647055100
33
0.0000000000
40
0.0000000000
40
0.0000000000
40
0.0000000000
40
0.0000000000
40
0.2889679035
40
0.6003019506
40
1.0000000000
40
1.0000000000
40
1.0000000000
40
1.0000000000
10
-372.3950806620
20
64.7765933562
30
0.0000000000
10
-372.6077988066
20
64.4321138487
30
0.0000000000
10
-373.1712708287
20
63.7817331798
30
0.0000000000
10
-374.4218645204
20
63.0971700554
30
0.0000000000
10
-375.4157843438
20
62.9093247609
30
0.0000000000
10
-375.9736773615
20
62.8607340672
30
0.0000000000
11
-372.3950806620
21
64.7765933562
31
0.0000000000
11
-373.1936688258
21
63.8614468076
31
0.0000000000
11
-374.3314319340
21
63.2149670807
31
0.0000000000
11
-375.9736773615
21
62.8607340672
31
0.0000000000
0
SPLINE
5
385
100
AcDbEntity
8
0
100
AcDbSpline
62
7
6
CONTINUOUS
70
0
71
3
72
10
73
6
74
4
42
0.0000001000
43
0.0000001000
44
0.0000000001
12
0.0000000000
22
-4.7219627954
32
0.0000000000
13
-2.4809474341
23
-4.0176899421
33
0.0000000000
40
0.0000000000
40
0.0000000000
40
0.0000000000
40
0.0000000000
40
0.4067386476
40
0.7322100577
40
1.0000000000
40
1.0000000000
40
1.0000000000
40
1.0000000000
10
-371.3572480028
20
69.3291661361
30
0.0000000000
10
-371.3572480028
20
68.6889645490
30
0.0000000000
10
-371.4245700537
20
67.5333053173
30
0.0000000000
10
-371.7795632753
20
65.9913597662
30
0.0000000000
10
-372.1736230720
20
65.1352256754
30
0.0000000000
10
-372.3950806620
20
64.7765933562
30
0.0000000000
11
-371.3572480028
21
69.3291661361
31
0.0000000000
11
-371.4914757659
21
67.4132575901
31
0.0000000000
11
-371.8552558874
21
65.9200681717
31
0.0000000000
11
-372.3950806620
21
64.7765933562
31
0.0000000000
0
SPLINE
5
386
100
AcDbEntity
8
0
100
AcDbSpline
62
7
6
CONTINUOUS
70
0
71
3
72
10
73
6
74
4
42
0.0000001000
43
0.0000001000
44
0.0000000001
12
2.1281950931
22
-3.7436890790
32
0.0000000000
13
-0.0000000000
23
-4.3063235219
33
0.0000000000
40
0.0000000000
40
0.0000000000
40
0.0000000000
40
0.0000000000
40
0.2706058971
40
0.5968763988
40
1.0000000000
40
1.0000000000
40
1.0000000000
40
1.0000000000
10
-372.2565427596
20
73.4976653520
30
0.0000000000
10
-372.0645753788
20
73.1599772381
30
0.0000000000
10
-371.7245417793
20
72.3661641012
30
0.0000000000
10
-371.4167529822
20
70.9573917270
30
0.0000000000
10
-371.3572480028
20
69.9078263514
30
0.0000000000
10
-371.3572480028
20
69.3291661361
30
0.0000000000
11
-372.2565427596
21
73.4976653520
31
0.0000000000
11
-371.7883843226
21
72.4305241636
31
0.0000000000
11
-371.4734216620
21
71.0612551880
31
0.0000000000
11
-371.3572480028
21
69.3291661361
31
0.0000000000
0
SPLINE
5
387
100
AcDbEntity
8
0
100
AcDbSpline
62
7
6
CONTINUOUS
70
0
71
3
72
10
73
6
74
4
42
0.0000001000
43
0.0000001000
44
0.0000000001
12
3.1078724302
22
0.0000000000
32
0.0000000000
13
1.5359177783
23
-2.7018193169
33
0.0000000000
40
0.0000000000
40
0.0000000000
40
0.0000000000
40
0.0000000000
40
0.3192208662
40
0.6265887330
40
1.0000000000
40
1.0000000000
40
1.0000000000
40
1.0000000000
10
-374.7652587538
20
75.0806934455
30
0.0000000000
10
-374.4345595107
20
75.0806934455
30
0.0000000000
10
-373.7755670369
20
74.9757277388
30
0.0000000000
10
-372.8772998217
20
74.4127243347
30
0.0000000000
10
-372.4477190941
20
73.8339619435
30
0.0000000000
10
-372.2565427596
20
73.4976653520
30
0.0000000000
11
-374.7652587538
21
75.0806934455
31
0.0000000000
11
-373.7880561615
21
74.9094246566
31
0.0000000000
11
-372.9737125503
21
74.4100586806
31
0.0000000000
11
-372.2565427596
21
73.4976653520
31
0.0000000000
0
SPLINE
5
388
100
AcDbEntity
8
0
100
AcDbSpline
62
7
6
CONTINUOUS
70
0
71
3
72
10
73
6
74
4
42
0.0000001000
43
0.0000001000
44
0.0000000001
12
1.1426340142
22
1.0353673591
32
0.0000000000
13
1.5419461919
23
0.0000000000
33
0.0000000000
40
0.0000000000
40
0.0000000000
40
0.0000000000
40
0.0000000000
40
0.3412219247
40
0.6614181329
40
1.0000000000
40
1.0000000000
40
1.0000000000
40
1.0000000000
10
-376.1731180916
20
74.5362030214
30
0.0000000000
10
-376.0431541657
20
74.6539663690
30
0.0000000000
10
-375.7640852560
20
74.8552279131
30
0.0000000000
10
-375.2798415117
20
75.0423007138
30
0.0000000000
10
-374.9392837607
20
75.0806934455
30
0.0000000000
10
-374.7652587538
20
75.0806934455
30
0.0000000000
11
-376.1731180916
21
74.5362030214
31
0.0000000000
11
-375.7442437474
21
74.8409918821
31
0.0000000000
11
-375.2836540056
21
75.0188170356
31
0.0000000000
11
-374.7652587538
21
75.0806934455
31
0.0000000000
0
SPLINE
5
389
100
AcDbEntity
8
0
100
AcDbSpline
62
7
6
CONTINUOUS
70
0
71
3
72
10
73
6
74
4
42
0.0000001000
43
0.0000001000
44
0.0000000001
12
0.4758711817
22
0.8825242708
32
0.0000000000
13
0.7429957066
23
0.6732457576
33
0.0000000000
40
0.0000000000
40
0.0000000000
40
0.0000000000
40
0.0000000000
40
0.3218075216
40
0.6506140476
40
1.0000000000
40
1.0000000000
40
1.0000000000
40
1.0000000000
10
-376.7924733672
20
73.7532747486
30
0.0000000000
10
-376.7414270587
20
73.8479423981
30
0.0000000000
10
-376.6271139963
20
74.0335913113
30
0.0000000000
10
-376.4197529133
20
74.2965497520
30
0.0000000000
10
-376.2596488457
20
74.4577954846
30
0.0000000000
10
-376.1731180916
20
74.5362030214
30
0.0000000000
11
-376.7924733672
21
73.7532747486
31
0.0000000000
11
-376.6233041816
21
74.0280309894
31
0.0000000000
11
-376.4194429222
21
74.2871209125
31
0.0000000000
11
-376.1731180916
21
74.5362030214
31
0.0000000000
0
SPLINE
5
38A
100
AcDbEntity
8
0
100
AcDbSpline
62
7
6
CONTINUOUS
70
0
71
3
72
10
73
6
74
4
42
0.0000001000
43
0.0000001000
44
0.0000000001
12
0.9090447156
22
5.3928094887
32
0.0000000000
13
2.5956146017
23
4.8136827187
33
0.0000000000
40
0.0000000000
40
0.0000000000
40
0.0000000000
40
0.0000000000
40
0.4782059927
40
0.7998100920
40
1.0000000000
40
1.0000000000
40
1.0000000000
40
1.0000000000
10
-378.1270377324
20
68.4642789688
30
0.0000000000
10
-377.9821341889
20
69.3239035739
30
0.0000000000
10
-377.7199847308
20
70.7597342570
30
0.0000000000
10
-377.2859246975
20
72.5290199784
30
0.0000000000
10
-376.9656786500
20
73.4320578484
30
0.0000000000
10
-376.7924733672
20
73.7532747486
30
0.0000000000
11
-378.1270377324
21
68.4642789688
31
0.0000000000
11
-377.6382642843
21
71.0334547128
31
0.0000000000
11
-377.1976076925
21
72.7361761884
31
0.0000000000
11
-376.7924733672
21
73.7532747486
31
0.0000000000
0
SPLINE
5
38B
100
AcDbEntity
8
0
100
AcDbSpline
62
7
6
CONTINUOUS
70
0
71
3
72
10
73
6
74
4
42
0.0000001000
43
0.0000001000
44
0.0000000001
12
3.2411677643
22
5.4577068342
32
0.0000000000
13
1.0551010093
23
6.2592726594
33
0.0000000000
40
0.0000000000
40
0.0000000000
40
0.0000000000
40
0.0000000000
40
0.2126589768
40
0.5351954981
40
1.0000000000
40
1.0000000000
40
1.0000000000
40
1.0000000000
10
-379.8126614200
20
62.3689183832
30
0.0000000000
10
-379.5829069465
20
62.7557951668
30
0.0000000000
10
-379.1523041184
20
63.8125748615
30
0.0000000000
10
-378.6008640656
20
65.8556891236
30
0.0000000000
10
-378.2905096321
20
67.4944995986
30
0.0000000000
10
-378.1270377324
20
68.4642789688
30
0.0000000000
11
-379.8126614200
21
62.3689183832
31
0.0000000000
11
-379.2620979031
21
63.6014063904
31
0.0000000000
11
-378.7000947286
21
65.5700845250
31
0.0000000000
11
-378.1270377324
21
68.4642789688
31
0.0000000000
0
SPLINE
5
38C
100
AcDbEntity
8
0
100
AcDbSpline
62
7
6
CONTINUOUS
70
0
71
3
72
10
73
6
74
4
42
0.0000001000
43
0.0000001000
44
0.0000000001
12
0.9519852713
22
0.8710667427
32
0.0000000000
13
0.6588779792
23
1.1094652025
33
0.0000000000
40
0.0000000000
40
0.0000000000
40
0.0000000000
40
0.0000000000
40
0.3474482397
40
0.6773886678
40
1.0000000000
40
1.0000000000
40
1.0000000000
40
1.0000000000
10
-380.6288853883
20
61.3749454302
30
0.0000000000
10
-380.5186301861
20
61.4758289657
30
0.0000000000
10
-380.3122467526
20
61.6822328676
30
0.0000000000
10
-380.0390419491
20
62.0152858928
30
0.0000000000
10
-379.8835152542
20
62.2496097008
30
0.0000000000
10
-379.8126614200
20
62.3689183832
30
0.0000000000
11
-380.6288853883
21
61.3749454302
31
0.0000000000
11
-380.3125210057
21
61.6926195614
31
0.0000000000
11
-380.0428564953
21
62.0220701818
31
0.0000000000
11
-379.8126614200
21
62.3689183832
31
0.0000000000
0
SPLINE
5
38D
100
AcDbEntity
8
0
100
AcDbSpline
62
7
6
CONTINUOUS
70
0
71
3
72
10
73
6
74
4
42
0.0000001000
43
0.0000001000
44
0.0000000001
12
3.1682166816
22
0.0000000000
32
0.0000000000
13
2.3374033022
23
2.1387245602
33
0.0000000000
40
0.0000000000
40
0.0000000000
40
0.0000000000
40
0.0000000000
40
0.3744302035
40
0.6939751814
40
1.0000000000
40
1.0000000000
40
1.0000000000
40
1.0000000000
10
-383.5500517731
20
60.3352760294
30
0.0000000000
10
-383.1546264341
20
60.3352760294
30
0.0000000000
10
-382.4171892360
20
60.4065504460
30
0.0000000000
10
-381.4140269694
20
60.7702237414
30
0.0000000000
10
-380.8673198622
20
61.1567778317
30
0.0000000000
10
-380.6288853883
20
61.3749454302
30
0.0000000000
11
-383.5500517731
21
60.3352760294
31
0.0000000000
11
-382.3708799658
21
60.4649087305
31
0.0000000000
11
-381.4215573120
21
60.8166407504
31
0.0000000000
11
-380.6288853883
21
61.3749454302
31
0.0000000000
0
SPLINE
5
38E
100
AcDbEntity
8
0
100
AcDbSpline
62
7
6
CONTINUOUS
70
0
71
3
72
10
73
6
74
4
42
0.0000001000
43
0.0000001000
44
0.0000000001
12
3.0526881994
22
-4.1546332149
32
0.0000000000
13
5.1555680960
23
-0.0000000000
33
0.0000000000
40
0.0000000000
40
0.0000000000
40
0.0000000000
40
0.0000000000
40
0.3493739114
40
0.6586606174
40
1.0000000000
40
1.0000000000
40
1.0000000000
40
1.0000000000
10
-387.9763927560
20
62.6000416682
30
0.0000000000
10
-387.6208828838
20
62.1162015160
30
0.0000000000
10
-386.8246609964
20
61.2807145533
30
0.0000000000
10
-385.2673836253
20
60.4854255468
30
0.0000000000
10
-384.1366512499
20
60.3352760294
30
0.0000000000
10
-383.5500517731
20
60.3352760294
30
0.0000000000
11
-387.9763927560
21
62.6000416682
31
0.0000000000
11
-386.7116314705
21
61.3175534813
31
0.0000000000
11
-385.2907403999
21
60.5939140406
31
0.0000000000
11
-383.5500517731
21
60.3352760294
31
0.0000000000
0
SPLINE
5
38F
100
AcDbEntity
8
0
100
AcDbSpline
62
7
6
CONTINUOUS
70
0
71
3
72
10
73
6
74
4
42
0.0000001000
43
0.0000001000
44
0.0000000001
12
0.0000000000
22
-6.6242003381
32
0.0000000000
13
3.9222870934
23
-5.3381358241
33
0.0000000000
40
0.0000000000
40
0.0000000000
40
0.0000000000
40
0.0000000000
40
0.4116593057
40
0.7346827512
40
1.0000000000
40
1.0000000000
40
1.0000000000
40
1.0000000000
10
-389.6600309257
20
68.9055409053
30
0.0000000000
10
-389.6600309257
20
67.9965696680
30
0.0000000000
10
-389.5461626603
20
66.3678905775
30
0.0000000000
10
-388.9556519110
20
64.2238017096
30
0.0000000000
10
-388.3232762295
20
63.0721415050
30
0.0000000000
10
-387.9763927560
20
62.6000416682
30
0.0000000000
11
-389.6600309257
21
68.9055409053
31
0.0000000000
11
-389.4319668651
21
66.1881809408
31
0.0000000000
11
-388.8356773288
21
64.1331716770
31
0.0000000000
11
-387.9763927560
21
62.6000416682
31
0.0000000000
0
SPLINE
5
390
100
AcDbEntity
8
0
100
AcDbSpline
62
7
6
CONTINUOUS
70
0
71
3
72
10
73
6
74
4
42
0.0000001000
43
0.0000001000
44
0.0000000001
12
-1.4835306709
22
-4.3821191467
32
0.0000000000
13
0.0000000000
23
-4.6264275059
33
0.0000000000
40
0.0000000000
40
0.0000000000
40
0.0000000000
40
0.0000000000
40
0.2899426525
40
0.6208158802
40
1.0000000000
40
1.0000000000
40
1.0000000000
40
1.0000000000
10
-388.9888895926
20
73.4648369807
30
0.0000000000
10
-389.1322691985
20
73.0413158977
30
0.0000000000
10
-389.3809652638
20
72.1140770667
30
0.0000000000
10
-389.6107096321
20
70.5864105281
30
0.0000000000
10
-389.6600309257
20
69.4902968525
30
0.0000000000
10
-389.6600309257
20
68.9055409053
30
0.0000000000
11
-388.9888895926
21
73.4648369807
31
0.0000000000
11
-389.3414331351
21
72.1705945679
31
0.0000000000
11
-389.5748978852
21
70.6577418142
31
0.0000000000
11
-389.6600309257
21
68.9055409053
31
0.0000000000
0
SPLINE
5
391
100
AcDbEntity
8
0
100
AcDbSpline
62
7
6
CONTINUOUS
70
0
71
3
72
10
73
6
74
4
42
0.0000001000
43
0.0000001000
44
0.0000000001
12
-2.8855175590
22
-2.4442052127
32
0.0000000000
13
-1.2126182840
23
-3.5818860398
33
0.0000000000
40
0.0000000000
40
0.0000000000
40
0.0000000000
40
0.0000000000
40
0.3051166779
40
0.6300255477
40
1.0000000000
40
1.0000000000
40
1.0000000000
40
1.0000000000
10
-386.9444850330
20
76.5959684470
30
0.0000000000
10
-387.2379582102
20
76.3473791888
30
0.0000000000
10
-387.7965908323
20
75.7750545890
30
0.0000000000
10
-388.4945781542
20
74.7174725059
30
0.0000000000
10
-388.8393436641
20
73.9065724227
30
0.0000000000
10
-388.9888895926
20
73.4648369807
30
0.0000000000
11
-386.9444850330
21
76.5959684470
31
0.0000000000
11
-387.7511587622
21
75.7709923141
31
0.0000000000
11
-388.4324598987
21
74.7485167167
31
0.0000000000
11
-388.9888895926
21
73.4648369807
31
0.0000000000
0
SPLINE
5
392
100
AcDbEntity
8
0
100
AcDbSpline
62
7
6
CONTINUOUS
70
0
71
3
72
10
73
6
74
4
42
0.0000001000
43
0.0000001000
44
0.0000000001
12
-4.1393460340
22
-0.3257168053
32
0.0000000000
13
-3.1682722776
23
-2.6837152981
33
0.0000000000
40
0.0000000000
40
0.0000000000
40
0.0000000000
40
0.0000000000
40
0.4023757093
40
0.7255797642
40
1.0000000000
40
1.0000000000
40
1.0000000000
40
1.0000000000
10
-383.0884090309
20
77.9646031478
30
0.0000000000
10
-383.6435997964
20
77.9209163043
30
0.0000000000
10
-384.6431053813
20
77.7714881895
30
0.0000000000
10
-385.9540289206
20
77.2977845158
30
0.0000000000
10
-386.6546723578
20
76.8414570420
30
0.0000000000
10
-386.9444850330
20
76.5959684470
30
0.0000000000
11
-383.0884090309
21
77.9646031478
31
0.0000000000
11
-384.7373045712
21
77.6954351064
31
0.0000000000
11
-385.9937644589
21
77.2240088302
31
0.0000000000
11
-386.9444850330
21
76.5959684470
31
0.0000000000
0
SPLINE
5
393
100
AcDbEntity
8
0
100
AcDbSpline
62
7
6
CONTINUOUS
70
0
71
3
72
10
73
6
74
4
42
0.0000001000
43
0.0000001000
44
0.0000000001
12
1.9477304567
22
3.0988584765
32
0.0000000000
13
3.6330976651
23
0.4440485847
33
0.0000000000
40
0.0000000000
40
0.0000000000
40
0.0000000000
40
0.0000000000
40
0.2862591873
40
0.5995358647
40
1.0000000000
40
1.0000000000
40
1.0000000000
40
1.0000000000
10
-386.1933907545
20
72.8445843113
30
0.0000000000
10
-386.0075388419
20
73.1402765477
30
0.0000000000
10
-385.5153649776
20
73.7023273962
30
0.0000000000
10
-384.4353733579
20
74.3101816660
30
0.0000000000
10
-383.5733841358
20
74.5000340288
30
0.0000000000
10
-383.0884090309
20
74.5593092063
30
0.0000000000
11
-386.1933907545
21
72.8445843113
31
0.0000000000
11
-385.5021351571
21
73.6319464819
31
0.0000000000
11
-384.5119738020
21
74.2101775204
31
0.0000000000
11
-383.0884090309
21
74.5593092063
31
0.0000000000
0
SPLINE
5
394
100
AcDbEntity
8
0
100
AcDbSpline
62
7
6
CONTINUOUS
70
0
71
3
72
10
73
6
74
4
42
0.0000001000
43
0.0000001000
44
0.0000000001
12
0.0000000000
22
4.1702187770
32
0.0000000000
13
2.2191709554
23
3.5307230023
33
0.0000000000
40
0.0000000000
40
0.0000000000
40
0.0000000000
40
0.0000000000
40
0.4133790025
40
0.7383389228
40
1.0000000000
40
1.0000000000
40
1.0000000000
40
1.0000000000
10
-387.1074179058
20
68.8240739921
30
0.0000000000
10
-387.1074179058
20
69.3987009514
30
0.0000000000
10
-387.0472260933
20
70.4279245258
30
0.0000000000
10
-386.7330490114
20
71.7895233338
30
0.0000000000
10
-386.3869476420
20
72.5366333833
30
0.0000000000
10
-386.1933907545
20
72.8445843113
30
0.0000000000
11
-387.1074179058
21
68.8240739921
31
0.0000000000
11
-386.9861721566
21
70.5436857943
31
0.0000000000
11
-386.6635120091
21
71.8598668945
31
0.0000000000
11
-386.1933907545
21
72.8445843113
31
0.0000000000
0
SPLINE
5
395
100
AcDbEntity
8
0
100
AcDbSpline
62
7
6
CONTINUOUS
70
0
71
3
72
10
73
6
74
4
42
0.0000001000
43
0.0000001000
44
0.0000000001
12
-2.0264803375
22
3.2614394788
32
0.0000000000
13
0.0000000000
23
3.8397408808
33
0.0000000000
40
0.0000000000
40
0.0000000000
40
0.0000000000
40
0.0000000000
40
0.2712057944
40
0.5976168806
40
1.0000000000
40
1.0000000000
40
1.0000000000
40
1.0000000000
10
-386.2340706594
20
65.1293891842
30
0.0000000000
10
-386.4172683960
20
65.4242296124
30
0.0000000000
10
-386.7448560783
20
66.1228637455
30
0.0000000000
10
-387.0471542501
20
67.3735286316
30
0.0000000000
10
-387.1074179058
20
68.3090583543
30
0.0000000000
10
-387.1074179058
20
68.8240739921
30
0.0000000000
11
-386.2340706594
21
65.1293891842
31
0.0000000000
11
-386.6843355295
21
66.0683738198
31
0.0000000000
11
-386.9920829230
21
67.2833378673
31
0.0000000000
11
-387.1074179058
21
68.8240739921
31
0.0000000000
0
SPLINE
5
396
100
AcDbEntity
8
0
100
AcDbSpline
62
7
6
CONTINUOUS
70
0
71
3
72
10
73
6
74
4
42
0.0000001000
43
0.0000001000
44
0.0000000001
12
-2.8705919397
22
0.0000000000
32
0.0000000000
13
-1.5149975749
23
2.4382535619
33
0.0000000000
40
0.0000000000
40
0.0000000000
40
0.0000000000
40
0.0000000000
40
0.3293389711
40
0.6365010050
40
1.0000000000
40
1.0000000000
40
1.0000000000
40
1.0000000000
10
-383.8623395805
20
63.7405712226
30
0.0000000000
10
-384.1774721791
20
63.7405712226
30
0.0000000000
10
-384.7952628875
20
63.8304274884
30
0.0000000000
10
-385.6397036445
20
64.3232721088
30
0.0000000000
10
-386.0505039608
20
64.8339549445
30
0.0000000000
10
-386.2340706594
20
65.1293891842
30
0.0000000000
11
-383.8623395805
21
63.7405712226
31
0.0000000000
11
-384.7952887585
21
63.8934856552
31
0.0000000000
11
-385.5595053066
21
64.3332957911
31
0.0000000000
11
-386.2340706594
21
65.1293891842
31
0.0000000000
0
SPLINE
5
397
100
AcDbEntity
8
0
100
AcDbSpline
62
7
6
CONTINUOUS
70
0
71
3
72
10
73
6
74
4
42
0.0000001000
43
0.0000001000
44
0.0000000001
12
-1.1045724757
22
-0.9176437931
32
0.0000000000
13
-1.4360189710
23
0.0000000000
33
0.0000000000
40
0.0000000000
40
0.0000000000
40
0.0000000000
40
0.0000000000
40
0.2978366075
40
0.6204365327
40
1.0000000000
40
1.0000000000
40
1.0000000000
40
1.0000000000
10
-382.5181439762
20
64.1641964534
30
0.0000000000
10
-382.6278046825
20
64.0730938153
30
0.0000000000
10
-382.8820375864
20
63.9121122719
30
0.0000000000
10
-383.3429258334
20
63.7672700872
30
0.0000000000
10
-383.6806528006
20
63.7405712226
30
0.0000000000
10
-383.8623395805
20
63.7405712226
30
0.0000000000
11
-382.5181439762
21
64.1641964534
31
0.0000000000
11
-382.8791998432
21
63.9349256277
31
0.0000000000
11
-383.3196499814
21
63.7913528435
31
0.0000000000
11
-383.8623395805
21
63.7405712226
31
0.0000000000
0
SPLINE
5
398
100
AcDbEntity
8
0
100
AcDbSpline
62
7
6
CONTINUOUS
70
0
71
3
72
10
73
6
74
4
42
0.0000001000
43
0.0000001000
44
0.0000000001
12
-0.9151545326
22
-5.6321218364
32
0.0000000000
13
-3.0554933649
23
-4.8189484844
33
0.0000000000
40
0.0000000000
40
0.0000000000
40
0.0000000000
40
0.0000000000
40
0.4945376055
40
0.8134232872
40
1.0000000000
40
1.0000000000
40
1.0000000000
40
1.0000000000
10
-380.6597620627
20
70.1411017295
30
0.0000000000
10
-380.8106215064
20
69.2126697139
30
0.0000000000
10
-381.0834431664
20
67.6868819642
30
0.0000000000
10
-381.5491668918
20
65.8461600843
30
0.0000000000
10
-381.8936291409
20
64.9364027351
30
0.0000000000
10
-382.0836571102
20
64.6367015460
30
0.0000000000
11
-380.6597620627
21
70.1411017295
31
0.0000000000
11
-381.1815406078
21
67.3679359638
31
0.0000000000
11
-381.6541916988
21
65.6108382649
31
0.0000000000
11
-382.0836571102
21
64.6367015460
31
0.0000000000
0
SPLINE
5
399
100
AcDbEntity
8
0
100
AcDbSpline
62
7
6
CONTINUOUS
70
0
71
3
72
10
73
6
74
4
42
0.0000001000
43
0.0000001000
44
0.0000000001
12
-3.1168911896
22
-5.4453910119
32
0.0000000000
13
-1.0063089339
23
-6.1931120037
33
0.0000000000
40
0.0000000000
40
0.0000000000
40
0.0000000000
40
0.0000000000
40
0.2191511177
40
0.5422846397
40
1.0000000000
40
1.0000000000
40
1.0000000000
40
1.0000000000
10
-379.0149031181
20
76.1721893229
30
0.0000000000
10
-379.2425931808
20
75.7744014807
30
0.0000000000
10
-379.6703384036
20
74.7156656378
30
0.0000000000
10
-380.2095461667
20
72.6938316182
30
0.0000000000
10
-380.5062277106
20
71.0859958935
30
0.0000000000
10
-380.6597620627
20
70.1411017295
30
0.0000000000
11
-379.0149031181
21
76.1721893229
31
0.0000000000
11
-379.5662152114
21
74.9125241435
31
0.0000000000
11
-380.1156822733
21
72.9609522910
31
0.0000000000
11
-380.6597620627
21
70.1411017295
31
0.0000000000
0
SPLINE
5
39A
100
AcDbEntity
8
0
100
AcDbSpline
62
7
6
CONTINUOUS
70
0
71
3
72
10
73
6
74
4
42
0.0000001000
43
0.0000001000
44
0.0000000001
12
-1.2519791167
22
-1.1135261149
32
0.0000000000
13
-0.8323488769
23
-1.4541621177
33
0.0000000000
40
0.0000000000
40
0.0000000000
40
0.0000000000
40
0.0000000000
40
0.3276842675
40
0.6563949814
40
1.0000000000
40
1.0000000000
40
1.0000000000
40
1.0000000000
10
-377.9662929237
20
77.4705074972
30
0.0000000000
10
-378.1030442103
20
77.3488791675
30
0.0000000000
10
-378.3641977421
20
77.0903589078
30
0.0000000000
10
-378.7161506267
20
76.6553910565
30
0.0000000000
10
-378.9195700343
20
76.3387417901
30
0.0000000000
10
-379.0149031181
20
76.1721893229
30
0.0000000000
11
-377.9662929237
21
77.4705074972
31
0.0000000000
11
-378.3562795459
21
77.0840366454
31
0.0000000000
11
-378.7029712426
21
76.6560814552
31
0.0000000000
11
-379.0149031181
21
76.1721893229
31
0.0000000000
0
SPLINE
5
39B
100
AcDbEntity
8
0
100
AcDbSpline
62
7
6
CONTINUOUS
70
0
71
3
72
10
73
6
74
4
42
0.0000001000
43
0.0000001000
44
0.0000000001
12
-3.1518631651
22
0.0000000000
32
0.0000000000
13
-2.3551192460
23
-2.0946729455
33
0.0000000000
40
0.0000000000
40
0.0000000000
40
0.0000000000
40
0.0000000000
40
0.3754806736
40
0.6959668355
40
1.0000000000
40
1.0000000000
40
1.0000000000
40
1.0000000000
10
-375.0503912811
20
78.4859888175
30
0.0000000000
10
-375.4448791826
20
78.4859888175
30
0.0000000000
10
-376.1803966575
20
78.4149962327
30
0.0000000000
10
-377.1799476280
20
78.0593085356
30
0.0000000000
10
-377.7276148047
20
77.6827908453
30
0.0000000000
10
-377.9662929237
20
77.4705074972
30
0.0000000000
11
-375.0503912811
21
78.4859888175
31
0.0000000000
11
-376.2269134321
21
78.3579967558
31
0.0000000000
11
-377.1762283774
21
78.0128000309
31
0.0000000000
11
-377.9662929237
21
77.4705074972
31
0.0000000000
0
SPLINE
5
39C
100
AcDbEntity
8
0
100
AcDbSpline
62
7
6
CONTINUOUS
70
0
71
3
72
10
73
6
74
4
42
0.0000001000
43
0.0000001000
44
0.0000000001
12
-3.1145202814
22
4.2838309940
32
0.0000000000
13
-5.2963614462
23
-0.0000000000
33
0.0000000000
40
0.0000000000
40
0.0000000000
40
0.0000000000
40
0.0000000000
40
0.3596918077
40
0.6697376332
40
1.0000000000
40
1.0000000000
40
1.0000000000
40
1.0000000000
10
-370.5387244670
20
76.0949052581
30
0.0000000000
10
-370.9121469437
20
76.6085248961
30
0.0000000000
10
-371.7342141582
20
77.4893315109
30
0.0000000000
10
-373.3241416758
20
78.3265732720
30
0.0000000000
10
-374.4673283256
20
78.4859888175
30
0.0000000000
10
-375.0503912811
20
78.4859888175
30
0.0000000000
11
-370.5387244670
21
76.0949052581
31
0.0000000000
11
-371.8651750760
21
77.4623020877
31
0.0000000000
11
-373.3213402076
21
78.2213304037
31
0.0000000000
11
-375.0503912811
21
78.4859888175
31
0.0000000000
0
SPLINE
5
39D
100
AcDbEntity
8
0
100
AcDbSpline
62
7
6
CONTINUOUS
70
0
71
3
72
10
73
6
74
4
42
0.0000001000
43
0.0000001000
44
0.0000000001
12
0.0000000000
22
7.0073348619
32
0.0000000000
13
-4.1206565617
23
5.6677095345
33
0.0000000000
40
0.0000000000
40
0.0000000000
40
0.0000000000
40
0.0000000000
40
0.4144966368
40
0.7372397913
40
1.0000000000
40
1.0000000000
40
1.0000000000
40
1.0000000000
10
-368.8046343495
20
69.4106323340
30
0.0000000000
10
-368.8046343495
20
70.3788045785
30
0.0000000000
10
-368.9169895046
20
72.1072979436
30
0.0000000000
10
-369.5206452257
20
74.3810010174
30
0.0000000000
10
-370.1778096077
20
75.5984890781
30
0.0000000000
10
-370.5387244670
20
76.0949052581
30
0.0000000000
11
-368.8046343495
21
69.4106323340
31
0.0000000000
11
-369.0361340787
21
72.3059087165
31
0.0000000000
11
-369.6491393424
21
74.4828148943
31
0.0000000000
11
-370.5387244670
21
76.0949052581
31
0.0000000000
0
SPLINE
5
39E
100
AcDbEntity
8
0
100
AcDbSpline
62
7
6
CONTINUOUS
70
0
71
3
72
13
73
9
74
7
42
0.0000001000
43
0.0000001000
44
0.0000000001
12
13.8210176229
22
0.5654050078
32
0.0000000000
13
0.0000000000
23
13.8325778854
33
0.0000000000
40
0.0000000000
40
0.0000000000
40
0.0000000000
40
0.0000000000
40
0.1600325371
40
0.2915305341
40
0.4179517231
40
0.5626533032
40
0.7490573840
40
1.0000000000
40
1.0000000000
40
1.0000000000
40
1.0000000000
10
-375.9736773615
20
59.4554388741
30
0.0000000000
10
-375.2364065231
20
59.4855999400
30
0.0000000000
10
-373.8879098322
20
59.6799479007
30
0.0000000000
10
-372.1116537675
20
60.4964254272
30
0.0000000000
10
-370.7217508294
20
61.7704188474
30
0.0000000000
10
-369.6463870736
20
63.6177108128
30
0.0000000000
10
-368.9331306086
20
66.2291516479
30
0.0000000000
10
-368.8046343495
20
68.2535712405
30
0.0000000000
10
-368.8046343495
20
69.4106323340
30
0.0000000000
11
-375.9736773615
21
59.4554388741
31
0.0000000000
11
-373.7889229553
21
59.8120198549
31
0.0000000000
11
-372.1435627132
21
60.5875143058
31
0.0000000000
11
-370.8498042546
21
61.7640554066
31
0.0000000000
11
-369.8155444160
21
63.4777335100
31
0.0000000000
11
-369.0862331277
21
65.9508902200
31
0.0000000000
11
-368.8046343495
21
69.4106323340
31
0.0000000000
0
SPLINE
5
39F
100
AcDbEntity
8
0
100
AcDbSpline
62
7
6
CONTINUOUS
70
0
71
3
72
8
73
4
74
2
42
0.0000001000
43
0.0000001000
44
0.0000000001
12
-0.0128023866
22
0.2109645520
32
0.0000000000
13
-0.0182002633
23
0.2105746352
33
0.0000000000
40
0.0000000000
40
0.0000000000
40
0.0000000000
40
0.0000000000
40
1.0000000000
40
1.0000000000
40
1.0000000000
40
1.0000000000
10
-496.2685117397
20
-105.8393512434
30
0.0000000000
10
-496.2727792019
20
-105.7690297260
30
0.0000000000
10
-496.2779472991
20
-105.6987592649
30
0.0000000000
10
-496.2840140535
20
-105.6285677199
30
0.0000000000
11
-496.2685117397
21
-105.8393512434
31
0.0000000000
11
-496.2840140535
21
-105.6285677199
31
0.0000000000
0
SPLINE
5
3A0
100
AcDbEntity
8
0
100
AcDbSpline
62
7
6
CONTINUOUS
70
0
71
3
72
16
73
12
74
10
42
0.0000001000
43
0.0000001000
44
0.0000000001
12
-0.1064893469
22
1.2320676361
32
0.0000000000
13
-0.2892382941
23
1.2023350880
33
0.0000000000
40
0.0000000000
40
0.0000000000
40
0.0000000000
40
0.0000000000
40
0.0027532180
40
0.1567758450
40
0.2960356987
40
0.4253449240
40
0.5495405956
40
0.6726560629
40
0.7955681964
40
0.9184833556
40
1.0000000000
40
1.0000000000
40
1.0000000000
40
1.0000000000
10
-496.2840140535
20
-105.6285677199
30
0.0000000000
10
-496.2841117830
20
-105.6274370029
30
0.0000000000
10
-496.2896900479
20
-105.5630520208
30
0.0000000000
10
-496.3016511108
20
-105.4416016530
30
0.0000000000
10
-496.3225301709
20
-105.2686494109
30
0.0000000000
10
-496.3451656015
20
-105.1083292055
30
0.0000000000
10
-496.3697863692
20
-104.9550395022
30
0.0000000000
10
-496.3967769816
20
-104.8048280314
30
0.0000000000
10
-496.4264293184
20
-104.6556572875
30
0.0000000000
10
-496.4551718854
20
-104.5238133386
30
0.0000000000
10
-496.4743813127
20
-104.4417603087
30
0.0000000000
10
-496.4822405577
20
-104.4090902014
30
0.0000000000
11
-496.2840140535
21
-105.6285677199
31
0.0000000000
11
-496.2843079415
21
-105.6251756306
31
0.0000000000
11
-496.3029758242
21
-105.4356252371
31
0.0000000000
11
-496.3236156451
21
-105.2646550771
31
0.0000000000
11
-496.3459709467
21
-105.1063191039
31
0.0000000000
11
-496.3703266681
21
-104.9546797846
31
0.0000000000
11
-496.3972518674
21
-104.8048325629
31
0.0000000000
11
-496.4268859525
21
-104.6557538036
31
0.0000000000
11
-496.4592621091
21
-104.5072426009
31
0.0000000000
11
-496.4822405577
21
-104.4090902014
31
0.0000000000
0
SPLINE
5
3A1
100
AcDbEntity
8
0
100
AcDbSpline
62
7
6
CONTINUOUS
70
0
71
3
72
8
73
4
74
2
42
0.0000001000
43
0.0000001000
44
0.0000000001
12
-0.0120310834
22
0.0500120281
32
0.0000000000
13
-0.0123425435
23
0.0499353826
33
0.0000000000
40
0.0000000000
40
0.0000000000
40
0.0000000000
40
0.0000000000
40
1.0000000000
40
1.0000000000
40
1.0000000000
40
1.0000000000
10
-496.4822405577
20
-104.4090902014
30
0.0000000000
10
-496.4862509188
20
-104.3924195253
30
0.0000000000
10
-496.4903132350
20
-104.3757614315
30
0.0000000000
10
-496.4944274162
20
-104.3591163040
30
0.0000000000
11
-496.4822405577
21
-104.4090902014
31
0.0000000000
11
-496.4944274162
21
-104.3591163040
31
0.0000000000
0
SPLINE
5
3A2
100
AcDbEntity
8
0
100
AcDbSpline
62
7
6
CONTINUOUS
70
0
71
3
72
10
73
6
74
4
42
0.0000001000
43
0.0000001000
44
0.0000000001
12
0.0565757271
22
0.9592969736
32
0.0000000000
13
-0.0565757271
23
0.9592969736
33
0.0000000000
40
0.0000000000
40
0.0000000000
40
0.0000000000
40
0.0000000000
40
0.3328923168
40
0.6671076348
40
1.0000000000
40
1.0000000000
40
1.0000000000
40
1.0000000000
10
-496.4944274162
20
-106.8195861828
30
0.0000000000
10
-496.4881495412
20
-106.7131386521
30
0.0000000000
10
-496.4797515713
20
-106.4995492467
30
0.0000000000
10
-496.4797515704
20
-106.1791532711
30
0.0000000000
10
-496.4881495403
20
-105.9655638501
30
0.0000000000
10
-496.4944274162
20
-105.8591163040
30
0.0000000000
11
-496.4944274162
21
-106.8195861828
31
0.0000000000
11
-496.4818593993
21
-106.4999356839
31
0.0000000000
11
-496.4818593984
21
-106.1787668494
31
0.0000000000
11
-496.4944274162
21
-105.8591163040
31
0.0000000000
0
SPLINE
5
3A3
100
AcDbEntity
8
0
100
AcDbSpline
62
7
6
CONTINUOUS
70
0
71
3
72
8
73
4
74
2
42
0.0000001000
43
0.0000001000
44
0.0000000001
12
0.0123425419
22
0.0499353758
32
0.0000000000
13
0.0120310847
23
0.0500120348
33
0.0000000000
40
0.0000000000
40
0.0000000000
40
0.0000000000
40
0.0000000000
40
1.0000000000
40
1.0000000000
40
1.0000000000
40
1.0000000000
10
-496.4944274162
20
-108.3195861828
30
0.0000000000
10
-496.4903132356
20
-108.3029410575
30
0.0000000000
10
-496.4862509195
20
-108.2862829636
30
0.0000000000
10
-496.4822405579
20
-108.2696122853
30
0.0000000000
11
-496.4944274162
21
-108.3195861828
31
0.0000000000
11
-496.4822405579
21
-108.2696122853
31
0.0000000000
0
SPLINE
5
3A4
100
AcDbEntity
8
0
100
AcDbSpline
62
7
6
CONTINUOUS
70
0
71
3
72
15
73
11
74
9
42
0.0000001000
43
0.0000001000
44
0.0000000001
12
0.2892383581
22
1.2023353861
32
0.0000000000
13
0.1064890751
23
1.2320630579
33
0.0000000000
40
0.0000000000
40
0.0000000000
40
0.0000000000
40
0.0000000000
40
0.0833884798
40
0.2078265170
40
0.3322481491
40
0.4571975835
40
0.5836174835
40
0.7145745119
40
0.8536957576
40
1.0000000000
40
1.0000000000
40
1.0000000000
40
1.0000000000
10
-496.4822405579
20
-108.2696122853
30
0.0000000000
10
-496.4742008423
20
-108.2361919786
30
0.0000000000
10
-496.4546841031
20
-108.1527735378
30
0.0000000000
10
-496.4255637063
20
-108.0189426483
30
0.0000000000
10
-496.3956142181
20
-107.8677854812
30
0.0000000000
10
-496.3683506852
20
-107.7152909207
30
0.0000000000
10
-496.3435399344
20
-107.5596491731
30
0.0000000000
10
-496.3209266728
20
-107.3977714398
30
0.0000000000
10
-496.3006235797
20
-107.2273281657
30
0.0000000000
10
-496.2892073194
20
-107.1102201178
30
0.0000000000
10
-496.2840140516
20
-107.0501347670
30
0.0000000000
11
-496.4822405579
21
-108.2696122853
31
0.0000000000
11
-496.4587485464
21
-108.1692027336
31
0.0000000000
11
-496.4260306087
21
-108.0188386034
31
0.0000000000
11
-496.3961264452
21
-107.8679103656
31
0.0000000000
11
-496.3689328483
21
-107.7158071928
31
0.0000000000
11
-496.3443225462
21
-107.5614230987
31
0.0000000000
11
-496.3219175487
21
-107.4010364052
31
0.0000000000
11
-496.3015680699
21
-107.2302040641
31
0.0000000000
11
-496.2840140516
21
-107.0501347670
31
0.0000000000
0
SPLINE
5
3A5
100
AcDbEntity
8
0
100
AcDbSpline
62
7
6
CONTINUOUS
70
0
71
3
72
9
73
5
74
3
42
0.0000001000
43
0.0000001000
44
0.0000000001
12
0.0182002562
22
0.2105743076
32
0.0000000000
13
0.0128024140
23
0.2109650035
33
0.0000000000
40
0.0000000000
40
0.0000000000
40
0.0000000000
40
0.0000000000
40
0.0268339080
40
1.0000000000
40
1.0000000000
40
1.0000000000
40
1.0000000000
10
-496.2840140516
20
-107.0501347670
30
0.0000000000
10
-496.2838512569
20
-107.0482512565
30
0.0000000000
10
-496.2778086194
20
-106.9780577054
30
0.0000000000
10
-496.2726646981
20
-106.9077859060
30
0.0000000000
10
-496.2685117397
20
-106.8393512434
30
0.0000000000
11
-496.2840140516
21
-107.0501347670
31
0.0000000000
11
-496.2835276089
21
-107.0444840656
31
0.0000000000
11
-496.2685117397
21
-106.8393512434
31
0.0000000000
0
ENDSEC
0
SECTION
2
OBJECTS
0
DICTIONARY
5
3A6
100
AcDbDictionary
3
ACAD_GROUP
350
3A7
3
ACAD_MLINESTYLE
350
3A8
0
DICTIONARY
5
3A7
102
{ACAD_REACTORS
330
3A6
102
}
100
AcDbDictionary
0
DICTIONARY
5
3A8
102
{ACAD_REACTORS
330
3A6
102
}
100
AcDbDictionary
3
STANDARD
350
3A9
0
MLINESTYLE
5
3A9
102
{ACAD_REACTORS
330
3A8
102
}
100
AcDbMlineStyle
2
STANDARD
70
0
3

62
256
51
90.0
52
90.0
71
2
49
0.5
62
256
6
BYLAYER
49
-0.5
62
256
6
BYLAYER
0
ENDSEC
0
EOF
