0
SECTION
2
HEADER
9
$ACADVER
1
AC1014
9
$HANDSEED
5
       2B6
9
$EXTMAX
10
297.0000000000
20
210.0000000000
9
$EXTMIN
10
0.0000000000
20
0.0000000000
9
$LIMMIN
10
0.0000000000
20
0.0000000000
9
$LIMMAX
10
297.0000000000
20
210.0000000000
9
$VIEWCTR
10
148.5000000000
20
105.0000000000
9
$VIEWSIZE
40
210.0000000000
9
$CLAYER
8
0
9
$LTSCALE
40
16.3350000000
9
$CELTYPE
6
BYLAYER
9
$DIMSCALE
40
1
9
$DIMASZ
40
3.0000000000
9
$DIMEXO
40
1.8562500000
9
$DIMDLI
40
11.2860000000
9
$DIMEXE
40
5.3460000000
9
$DIMCEN
40
2.6730000000
9
$DIMLFAC
40
1.0000000000
9
$DIMTXT
40
3.0000000000
9
$DIMTOL
70
1
9
$DIMLIM
70
0
9
$DIMTFAC
40
1.0000000000
9
$DIMTP
40
0.0100000000
9
$DIMTM
40
0.0100000000
9
$MEASUREMENT
70
1
0
ENDSEC
0
SECTION
2
CLASSES
0
ENDSEC
0
SECTION
2
TABLES
0
TABLE
2
VPORT
5
8
100
AcDbSymbolTable
70
2
0
VPORT
5
1F4
100
AcDbSymbolTableRecord
100
AcDbViewportTableRecord
2
*ACTIVE
70
0
10
0.0
20
0.0
11
1.0
21
1.0
12
148.5000000000
22
105.0000000000
13
0.0
23
0.0
14
1.0
24
1.0
15
0.0
25
0.0
16
0.0
26
0.0
36
1.0
17
0.0
27
0.0
37
0.0
40
210.0000000000
41
1.4142857143
42
50.0
43
0.0
44
0.0
50
0.0
51
0.0
71
0
72
100
73
1
74
1
75
0
76
0
77
0
78
0
0
ENDTAB
0
TABLE
2
LTYPE
5
5
100
AcDbSymbolTable
70
6
0
LTYPE
5
14
100
AcDbSymbolTableRecord
100
AcDbLinetypeTableRecord
2
BYBLOCK
70
0
3

72
65
73
0
40
0.0
0
LTYPE
5
15
100
AcDbSymbolTableRecord
100
AcDbLinetypeTableRecord
2
BYLAYER
70
0
3

72
65
73
0
40
0.0
0
LTYPE
5
16
100
AcDbSymbolTableRecord
100
AcDbLinetypeTableRecord
2
CONTINUOUS
70
64
3
Solid line
72
65
73
0
40
0
0
LTYPE
5
1F5
100
AcDbSymbolTableRecord
100
AcDbLinetypeTableRecord
2
CENTER
70
64
3
____ _ ____ _ ____ _ ____ _ ____ _ ____ _ ____
72
65
73
4
40
0.6
49
0.375
74
0
49
-0.075
74
0
49
0.075
74
0
49
-0.075
74
0
0
LTYPE
5
1F6
100
AcDbSymbolTableRecord
100
AcDbLinetypeTableRecord
2
HIDDEN
70
64
3
- - - - - - - - - - - - - - - - - - - -
72
65
73
2
40
0.2
49
0.1
74
0
49
-0.1
74
0
0
LTYPE
5
1F7
100
AcDbSymbolTableRecord
100
AcDbLinetypeTableRecord
2
PHANTOM
70
64
3
_____ _ _ _____ _ _ _____ _ _ _____
72
65
73
6
40
0.8
49
0.45
74
0
49
-0.05
74
0
49
0.1
74
0
49
-0.05
74
0
49
0.1
74
0
49
-0.05
74
0
0
LTYPE
5
1F8
100
AcDbSymbolTableRecord
100
AcDbLinetypeTableRecord
2
DOT
70
64
3
. . . . . . . . . . . . . . . . . . . .
72
65
73
2
40
0.2
49
0.1
74
0
49
-0.1
74
0
0
LTYPE
5
1F9
100
AcDbSymbolTableRecord
100
AcDbLinetypeTableRecord
2
DASHED
70
64
3
- - - - - - - - - - - - - - - - - - - -
72
65
73
2
40
0.2
49
0.1
74
0
49
-0.1
74
0
0
ENDTAB
0
TABLE
2
LAYER
5
2
100
AcDbSymbolTable
70
36
0
LAYER
5
10
100
AcDbSymbolTableRecord
100
AcDbLayerTableRecord
2
0
70
0
62
7
6
CONTINUOUS
0
LAYER
5
1FA
100
AcDbSymbolTableRecord
100
AcDbLayerTableRecord
2
DEFAULT_1
70
0
62
7
6
CENTER
0
LAYER
5
1FB
100
AcDbSymbolTableRecord
100
AcDbLayerTableRecord
2
DEFAULT_2
70
0
62
8
6
HIDDEN
0
LAYER
5
1FC
100
AcDbSymbolTableRecord
100
AcDbLayerTableRecord
2
DEFAULT_3
70
0
62
7
6
PHANTOM
0
LAYER
5
1FD
100
AcDbSymbolTableRecord
100
AcDbLayerTableRecord
2
ASSI
70
0
62
7
6
CONTINUOUS
0
LAYER
5
1FE
100
AcDbSymbolTableRecord
100
AcDbLayerTableRecord
2
COORDINATE
70
0
62
7
6
CONTINUOUS
0
LAYER
5
1FF
100
AcDbSymbolTableRecord
100
AcDbLayerTableRecord
2
COORD_ORIGINE
70
0
62
7
6
CONTINUOUS
0
LAYER
5
200
100
AcDbSymbolTableRecord
100
AcDbLayerTableRecord
2
PIANI
70
0
62
7
6
CONTINUOUS
0
LAYER
5
201
100
AcDbSymbolTableRecord
100
AcDbLayerTableRecord
2
PIANI_ORIGINE
70
0
62
7
6
CONTINUOUS
0
LAYER
5
202
100
AcDbSymbolTableRecord
100
AcDbLayerTableRecord
2
PUNTI
70
0
62
7
6
CONTINUOUS
0
LAYER
5
203
100
AcDbSymbolTableRecord
100
AcDbLayerTableRecord
2
RACCORDO
70
0
62
7
6
CONTINUOUS
0
LAYER
5
204
100
AcDbSymbolTableRecord
100
AcDbLayerTableRecord
2
SNAPLINE
70
0
62
7
6
CONTINUOUS
0
LAYER
5
205
100
AcDbSymbolTableRecord
100
AcDbLayerTableRecord
2
TRASH
70
0
62
7
6
CONTINUOUS
0
ENDTAB
0
TABLE
2
STYLE
5
3
100
AcDbSymbolTable
70
1
0
STYLE
5
11
100
AcDbSymbolTableRecord
100
AcDbTextStyleTableRecord
2
STANDARD
70
0
40
0.0
41
0.8000000000
50
0.0
71
0
42
0.2
3
txt
4

0
ENDTAB
0
TABLE
2
VIEW
5
6
100
AcDbSymbolTable
70
0
0
ENDTAB
0
TABLE
2
UCS
5
7
100
AcDbSymbolTable
70
0
0
ENDTAB
0
TABLE
2
APPID
5
9
100
AcDbSymbolTable
70
1
0
APPID
5
206
100
AcDbSymbolTableRecord
100
AcDbRegAppTableRecord
2
ACAD
70
0
0
ENDTAB
0
TABLE
2
DIMSTYLE
5
A
100
AcDbSymbolTable
70
1
0
DIMSTYLE
105
207
100
AcDbSymbolTableRecord
100
AcDbDimStyleTableRecord
2
STANDARD
70
0
3

4

5

6

7

40
1.0
41
3.0000000000
42
0.0625
43
0.38
44
0.18
45
0.0
46
0.0
47
0.0100000000
48
0.0100000000
140
3.0000000000
141
0.09
142
0.0
143
25.4
144
1.0000000000
145
0.0
146
1.0000000000
147
0.09
71
1
72
0
73
0
74
0
75
0
76
0
77
1
78
8
170
0
171
2
172
0
173
0
174
0
175
0
176
0
177
0
178
0
270
2
271
2
272
2
273
2
274
2
340
11
275
0
280
0
281
0
282
0
283
1
284
8
285
0
286
0
287
3
288
0
0
DIMSTYLE
105
208
100
AcDbSymbolTableRecord
100
AcDbDimStyleTableRecord
2
DIMSTYLE_1
70
0
3

4

5

6

7

40
1.0
41
3.0000000000
42
0.0625
43
0.38
44
0.18
45
0.0
46
0.0
47
0.0000000000
48
0.0000000000
140
3.0000000000
141
0.09
142
0.0
143
25.4
144
1.0000000000
145
0.0
146
1.0000000000
147
0.09
71
0
72
0
73
0
74
0
75
0
76
0
77
1
78
8
170
0
171
2
172
0
173
0
174
0
175
0
176
0
177
0
178
0
270
2
271
2
272
2
273
2
274
2
340
11
275
0
280
0
281
0
282
0
283
1
284
8
285
0
286
0
287
3
288
0
0
ENDTAB
0
TABLE
2
BLOCK_RECORD
5
1
100
AcDbSymbolTable
70
0
0
BLOCK_RECORD
5
1B
100
AcDbSymbolTableRecord
100
AcDbBlockTableRecord
2
*MODEL_SPACE
0
BLOCK_RECORD
5
1C
100
AcDbSymbolTableRecord
100
AcDbBlockTableRecord
2
*PAPER_SPACE
0
BLOCK_RECORD
5
209
100
AcDbSymbolTableRecord
100
AcDbBlockTableRecord
2
*D0
0
BLOCK_RECORD
5
20A
100
AcDbSymbolTableRecord
100
AcDbBlockTableRecord
2
*D1
0
BLOCK_RECORD
5
20B
100
AcDbSymbolTableRecord
100
AcDbBlockTableRecord
2
*D2
0
BLOCK_RECORD
5
20C
100
AcDbSymbolTableRecord
100
AcDbBlockTableRecord
2
*D3
0
ENDTAB
0
ENDSEC
0
SECTION
2
BLOCKS
0
BLOCK
5
1E
100
AcDbEntity
8
0
100
AcDbBlockBegin
2
*MODEL_SPACE
70
0
10
0.0
20
0.0
30
0.0
3
*MODEL_SPACE
1

0
ENDBLK
5
1F
100
AcDbEntity
8
0
100
AcDbBlockEnd
0
BLOCK
5
20
100
AcDbEntity
8
0
100
AcDbBlockBegin
2
*PAPER_SPACE
70
0
10
0.0
20
0.0
30
0.0
3
*PAPER_SPACE
1

0
ENDBLK
5
21
100
AcDbEntity
8
0
100
AcDbBlockEnd
0
BLOCK
5
20D
100
AcDbEntity
8
0
100
AcDbBlockBegin
62
7
6
CONTINUOUS
2
*D0
70
65
10
0.0000000000
20
0.0000000000
3
*D0
1

0
TEXT
5
20E
100
AcDbEntity
8
0
100
AcDbText
62
7
6
CONTINUOUS
10
-58.8179188981
20
103.2782983818
7
STANDARD
40
3.0000000000
1
101
41
0.6428571429
72
0
100
AcDbText
0
LINE
5
20F
100
AcDbEntity
8
0
100
AcDbLine
62
7
6
CONTINUOUS
10
-107.6769166871
20
65.7782983818
11
-107.6769166871
21
104.0282983818
0
LINE
5
210
100
AcDbEntity
8
0
100
AcDbLine
62
7
6
CONTINUOUS
10
-6.6769166871
20
34.7782983818
11
-6.6769166871
21
104.0282983818
0
LINE
5
211
100
AcDbEntity
8
0
100
AcDbLine
62
7
6
CONTINUOUS
10
-107.6769166871
20
102.5282983818
11
-57.1769166871
21
102.5282983818
0
LINE
5
212
100
AcDbEntity
8
0
100
AcDbLine
62
7
6
CONTINUOUS
10
-6.6769166871
20
102.5282983818
11
-57.1769166871
21
102.5282983818
0
SOLID
5
213
100
AcDbEntity
8
0
100
AcDbTrace
62
7
6
CONTINUOUS
10
-104.6769166871
20
103.4782983818
11
-107.6769166871
21
102.5282983818
12
-104.6769166871
22
101.5782983818
13
-104.6769166871
23
101.5782983818
0
SOLID
5
214
100
AcDbEntity
8
0
100
AcDbTrace
62
7
6
CONTINUOUS
10
-9.6769166871
20
101.5782983818
11
-6.6769166871
21
102.5282983818
12
-9.6769166871
22
103.4782983818
13
-9.6769166871
23
103.4782983818
0
ENDBLK
5
215
100
AcDbEntity
8
0
100
AcDbBlockEnd
0
BLOCK
5
216
100
AcDbEntity
8
0
100
AcDbBlockBegin
62
7
6
CONTINUOUS
2
*D1
70
65
10
0.0000000000
20
0.0000000000
3
*D1
1

0
TEXT
5
217
100
AcDbEntity
8
0
100
AcDbText
62
7
6
CONTINUOUS
10
77.0617982166
20
43.3398378275
7
STANDARD
40
3.0000000000
1
75,25
50
90.0000000000
41
0.7142857143
72
0
100
AcDbText
0
LINE
5
218
100
AcDbEntity
8
0
100
AcDbLine
62
7
6
CONTINUOUS
10
56.0367982166
20
9.2782983818
11
79.3117982166
21
9.2782983818
0
LINE
5
219
100
AcDbEntity
8
0
100
AcDbLine
62
7
6
CONTINUOUS
10
44.9617982166
20
84.5282983818
11
79.3117982166
21
84.5282983818
0
LINE
5
21A
100
AcDbEntity
8
0
100
AcDbLine
62
7
6
CONTINUOUS
10
77.8117982166
20
9.2782983818
11
77.8117982166
21
46.9032983818
0
LINE
5
21B
100
AcDbEntity
8
0
100
AcDbLine
62
7
6
CONTINUOUS
10
77.8117982166
20
84.5282983818
11
77.8117982166
21
46.9032983818
0
SOLID
5
21C
100
AcDbEntity
8
0
100
AcDbTrace
62
7
6
CONTINUOUS
10
76.8617982166
20
12.2782983818
11
77.8117982166
21
9.2782983818
12
78.7617982166
22
12.2782983818
13
78.7617982166
23
12.2782983818
0
SOLID
5
21D
100
AcDbEntity
8
0
100
AcDbTrace
62
7
6
CONTINUOUS
10
78.7617982166
20
81.5282983818
11
77.8117982166
21
84.5282983818
12
76.8617982166
22
81.5282983818
13
76.8617982166
23
81.5282983818
0
ENDBLK
5
21E
100
AcDbEntity
8
0
100
AcDbBlockEnd
0
BLOCK
5
21F
100
AcDbEntity
8
0
100
AcDbBlockBegin
62
7
6
CONTINUOUS
2
*D2
70
65
10
0.0000000000
20
0.0000000000
3
*D2
1

0
TEXT
5
220
100
AcDbEntity
8
0
100
AcDbText
62
7
6
CONTINUOUS
10
37.4332793253
20
93.2610819053
7
STANDARD
40
3.0000000000
1
%%c
50
0.1596268584
41
1.3333333333
72
0
100
AcDbText
0
TEXT
5
221
100
AcDbEntity
8
0
100
AcDbText
62
7
6
CONTINUOUS
10
41.4332638016
20
93.2722259479
7
STANDARD
40
3.0000000000
1
50,5
50
0.1596268584
41
0.6964285714
72
0
100
AcDbText
0
LINE
5
222
100
AcDbEntity
8
0
100
AcDbLine
62
7
6
CONTINUOUS
10
19.2105032049
20
59.7079496724
11
19.1150761186
21
93.9600499087
0
LINE
5
223
100
AcDbEntity
8
0
100
AcDbLine
62
7
6
CONTINUOUS
10
69.7103072177
20
59.8486432102
11
69.6148801313
21
94.1007434465
0
LINE
5
224
100
AcDbEntity
8
0
100
AcDbLine
62
7
6
CONTINUOUS
10
19.1192551345
20
92.4600557301
11
15.1192706583
21
92.4489116875
0
LINE
5
225
100
AcDbEntity
8
0
100
AcDbLine
62
7
6
CONTINUOUS
10
15.1192706583
20
92.4489116875
11
44.3691571409
21
92.5304024990
0
LINE
5
226
100
AcDbEntity
8
0
100
AcDbLine
62
7
6
CONTINUOUS
10
69.6190591473
20
92.6007492679
11
73.6190436236
21
92.6118933105
0
LINE
5
227
100
AcDbEntity
8
0
100
AcDbLine
62
7
6
CONTINUOUS
10
73.6190436236
20
92.6118933105
11
44.3691571409
21
92.5304024990
0
SOLID
5
228
100
AcDbEntity
8
0
100
AcDbTrace
62
7
6
CONTINUOUS
10
16.1219134875
20
91.5017013851
11
19.1192551345
21
92.4600557301
12
16.1166200672
22
93.4016940113
13
16.1166200672
23
93.4016940113
0
SOLID
5
229
100
AcDbEntity
8
0
100
AcDbTrace
62
7
6
CONTINUOUS
10
72.6164007944
20
93.5591036130
11
69.6190591473
21
92.6007492679
12
72.6216942146
22
91.6591109867
13
72.6216942146
23
91.6591109867
0
ENDBLK
5
22A
100
AcDbEntity
8
0
100
AcDbBlockEnd
0
BLOCK
5
22B
100
AcDbEntity
8
0
100
AcDbBlockBegin
62
7
6
CONTINUOUS
2
*D3
70
65
10
0.0000000000
20
0.0000000000
3
*D3
1

0
TEXT
5
22C
100
AcDbEntity
8
0
100
AcDbText
62
7
6
CONTINUOUS
10
-47.2504138212
20
93.2782983818
7
STANDARD
40
3.0000000000
1
78
41
0.7857142857
72
0
100
AcDbText
0
LINE
5
22D
100
AcDbEntity
8
0
100
AcDbLine
62
7
6
CONTINUOUS
10
-84.6769166871
20
77.2782983818
11
-84.6769166871
21
94.0282983818
0
LINE
5
22E
100
AcDbEntity
8
0
100
AcDbLine
62
7
6
CONTINUOUS
10
-6.6769166871
20
34.7782983818
11
-6.6769166871
21
94.0282983818
0
LINE
5
22F
100
AcDbEntity
8
0
100
AcDbLine
62
7
6
CONTINUOUS
10
-84.6769166871
20
92.5282983818
11
-45.6769166871
21
92.5282983818
0
LINE
5
230
100
AcDbEntity
8
0
100
AcDbLine
62
7
6
CONTINUOUS
10
-6.6769166871
20
92.5282983818
11
-45.6769166871
21
92.5282983818
0
SOLID
5
231
100
AcDbEntity
8
0
100
AcDbTrace
62
7
6
CONTINUOUS
10
-81.6769166871
20
93.4782983818
11
-84.6769166871
21
92.5282983818
12
-81.6769166871
22
91.5782983818
13
-81.6769166871
23
91.5782983818
0
SOLID
5
232
100
AcDbEntity
8
0
100
AcDbTrace
62
7
6
CONTINUOUS
10
-9.6769166871
20
91.5782983818
11
-6.6769166871
21
92.5282983818
12
-9.6769166871
22
93.4782983818
13
-9.6769166871
23
93.4782983818
0
ENDBLK
5
233
100
AcDbEntity
8
0
100
AcDbBlockEnd
0
ENDSEC
0
SECTION
2
ENTITIES
0
DIMENSION
5
234
100
AcDbEntity
8
0
100
AcDbDimension
62
7
6
CONTINUOUS
2
*D0
10
-6.6769166871
20
102.5282983818
11
-55.9250617553
21
104.7782983818
70
160
3
DIMSTYLE_1
100
AcDbAlignedDimension
13
-107.6769166871
23
65.7782983818
14
-6.6769166871
24
34.7782983818
100
AcDbRotatedDimension
0
DIMENSION
5
235
100
AcDbEntity
8
0
100
AcDbDimension
62
7
6
CONTINUOUS
2
*D1
10
77.8117982166
20
84.5282983818
11
75.5617982166
21
48.6969806846
70
160
3
DIMSTYLE_1
100
AcDbAlignedDimension
13
56.0367982166
23
9.2782983818
14
44.9617982166
24
84.5282983818
50
90.000000
100
AcDbRotatedDimension
0
DIMENSION
5
236
100
AcDbEntity
8
0
100
AcDbDimension
62
7
6
CONTINUOUS
2
*D2
10
69.6190591473
20
92.6007492679
11
43.6076477593
21
94.7782896497
70
160
1
%%c<>
3
DIMSTYLE_1
100
AcDbAlignedDimension
13
19.2105032049
23
59.7079496724
14
69.7103072177
24
59.8486432102
50
0.159627
100
AcDbRotatedDimension
0
DIMENSION
5
237
100
AcDbEntity
8
0
100
AcDbDimension
62
7
6
CONTINUOUS
2
*D3
10
-6.6769166871
20
92.5282983818
11
-44.8932709640
21
94.7782983818
70
160
3
DIMSTYLE_1
100
AcDbAlignedDimension
13
-84.6769166871
23
77.2782983818
14
-6.6769166871
24
34.7782983818
100
AcDbRotatedDimension
0
LINE
5
238
100
AcDbEntity
8
0
100
AcDbLine
62
7
6
CONTINUOUS
10
19.8117982166
20
28.7782983818
11
19.8117982166
21
39.7782983818
0
LINE
5
239
100
AcDbEntity
8
0
100
AcDbLine
62
7
6
CONTINUOUS
10
20.3117982166
20
24.1100129759
11
20.3117982166
21
50.5410219182
0
LINE
5
23A
100
AcDbEntity
8
0
100
AcDbLine
62
7
6
CONTINUOUS
10
20.8476966015
20
36.4263986408
11
20.8476966015
21
36.9067313842
0
LINE
5
23B
100
AcDbEntity
8
0
100
AcDbLine
62
7
6
CONTINUOUS
10
22.3117982166
20
24.1100129759
11
22.3117982166
21
35.2081409602
0
LINE
5
23C
100
AcDbEntity
8
0
100
AcDbLine
62
7
6
CONTINUOUS
10
68.6117982166
20
24.1099704586
11
66.6117982166
21
24.1099704586
0
LINE
5
23D
100
AcDbEntity
8
0
100
AcDbLine
62
7
6
CONTINUOUS
10
22.3117982166
20
24.1099704586
11
20.3117982166
21
24.1099704586
0
LINE
5
23E
100
AcDbEntity
8
0
100
AcDbLine
62
9
6
CONTINUOUS
10
68.6117982166
20
24.7814365358
11
66.6117982166
21
24.7814365358
0
LINE
5
23F
100
AcDbEntity
8
0
100
AcDbLine
62
9
6
CONTINUOUS
10
22.3117982166
20
24.7814365358
11
20.3117982166
21
24.7814365358
0
LINE
5
240
100
AcDbEntity
8
0
100
AcDbLine
62
7
6
CONTINUOUS
10
22.8117982166
20
27.5288353239
11
22.8117982166
21
34.8212782995
0
LINE
5
241
100
AcDbEntity
8
0
100
AcDbLine
62
9
6
CONTINUOUS
10
24.3117982166
20
46.2135861709
11
24.3117982166
21
33.7410267200
0
LINE
5
242
100
AcDbEntity
8
0
100
AcDbLine
62
7
6
CONTINUOUS
10
24.9367982166
20
33.3333268432
11
24.9367982166
21
11.9072615436
0
LINE
5
243
100
AcDbEntity
8
0
100
AcDbLine
62
9
6
CONTINUOUS
10
25.5194473649
20
32.9537766665
11
25.5194458817
21
10.9985167862
0
LINE
5
244
100
AcDbEntity
8
0
100
AcDbLine
62
7
6
CONTINUOUS
10
22.8117982166
20
27.5282983818
11
24.9367982166
21
27.5282983818
0
LINE
5
245
100
AcDbEntity
8
0
100
AcDbLine
62
7
6
CONTINUOUS
10
41.8367982166
20
27.5282983818
11
43.9617982166
21
27.5282983818
0
LINE
5
246
100
AcDbEntity
8
0
100
AcDbLine
62
7
6
CONTINUOUS
10
44.9617982166
20
27.5282983818
11
47.0867982166
21
27.5282983818
0
LINE
5
247
100
AcDbEntity
8
0
100
AcDbLine
62
7
6
CONTINUOUS
10
63.9867982166
20
27.5282983818
11
66.1117982166
21
27.5282983818
0
LINE
5
248
100
AcDbEntity
8
0
100
AcDbLine
62
7
6
CONTINUOUS
10
20.3117982166
20
28.7782983818
11
19.8117982166
21
28.7782983818
0
LINE
5
249
100
AcDbEntity
8
0
100
AcDbLine
62
7
6
CONTINUOUS
10
69.3117982166
20
29.7782983818
11
68.6117982166
21
29.7782983818
0
LINE
5
24A
100
AcDbEntity
8
0
100
AcDbLine
62
7
6
CONTINUOUS
10
66.6117982166
20
30.7782983818
11
66.1117982166
21
30.7782983818
0
LINE
5
24B
100
AcDbEntity
8
0
100
AcDbLine
62
7
6
CONTINUOUS
10
22.8117982166
20
30.7782983818
11
22.3117982166
21
30.7782983818
0
LINE
5
24C
100
AcDbEntity
8
0
100
AcDbLine
62
7
6
CONTINUOUS
10
39.0347056863
20
68.6782983818
11
33.6076131559
21
59.2782983818
0
LINE
5
24D
100
AcDbEntity
8
0
100
AcDbLine
62
7
6
CONTINUOUS
10
69.3117982166
20
38.7782983818
11
68.6117982166
21
38.7782983818
0
LINE
5
24E
100
AcDbEntity
8
0
100
AcDbLine
62
7
6
CONTINUOUS
10
20.3117982166
20
39.7782983818
11
19.8117982166
21
39.7782983818
0
LINE
5
24F
100
AcDbEntity
8
0
100
AcDbLine
62
9
6
CONTINUOUS
10
41.2541515032
20
27.6778230663
11
41.2541505811
21
10.9985167998
0
LINE
5
250
100
AcDbEntity
8
0
100
AcDbLine
62
7
6
CONTINUOUS
10
41.8367982166
20
27.6286698262
11
41.8367982166
21
11.9072616104
0
LINE
5
251
100
AcDbEntity
8
0
100
AcDbLine
62
7
6
CONTINUOUS
10
33.6076131559
20
59.2782983818
11
39.0347056863
21
49.8782983818
0
LINE
5
252
100
AcDbEntity
8
0
100
AcDbLine
62
7
6
CONTINUOUS
10
39.0347056863
20
49.8782983818
11
49.8888907470
21
49.8782983818
0
LINE
5
253
100
AcDbEntity
8
0
100
AcDbLine
62
7
6
CONTINUOUS
10
47.0867982166
20
27.6286698262
11
47.0867982166
21
11.9072615406
0
LINE
5
254
100
AcDbEntity
8
0
100
AcDbLine
62
9
6
CONTINUOUS
10
47.6694458522
20
10.9985167998
11
47.6694449300
21
27.6778230663
0
LINE
5
255
100
AcDbEntity
8
0
100
AcDbLine
62
7
6
CONTINUOUS
10
49.8888907470
20
49.8782983818
11
55.3159832774
21
59.2782983818
0
LINE
5
256
100
AcDbEntity
8
0
100
AcDbLine
62
9
6
CONTINUOUS
10
22.0959149855
20
50.5410219182
11
20.3117982166
21
50.5410219182
0
LINE
5
257
100
AcDbEntity
8
0
100
AcDbLine
62
9
6
CONTINUOUS
10
66.8276814478
20
50.5410219182
11
68.6117982166
21
50.5410219182
0
LINE
5
258
100
AcDbEntity
8
0
100
AcDbLine
62
9
6
CONTINUOUS
10
21.2013926619
20
53.3271243266
11
19.9997414790
21
53.0196819079
0
LINE
5
259
100
AcDbEntity
8
0
100
AcDbLine
62
9
6
CONTINUOUS
10
67.7222037748
20
53.3271243408
11
68.9238549541
21
53.0196819074
0
LINE
5
25A
100
AcDbEntity
8
0
100
AcDbLine
62
7
6
CONTINUOUS
10
55.3159832774
20
59.2782983818
11
49.8888907470
21
68.6782983818
0
LINE
5
25B
100
AcDbEntity
8
0
100
AcDbLine
62
9
6
CONTINUOUS
10
63.4041505516
20
10.9985167862
11
63.4041490684
21
32.9537766666
0
LINE
5
25C
100
AcDbEntity
8
0
100
AcDbLine
62
7
6
CONTINUOUS
10
63.9867982166
20
33.3333268432
11
63.9867982166
21
11.9072615406
0
LINE
5
25D
100
AcDbEntity
8
0
100
AcDbLine
62
9
6
CONTINUOUS
10
64.6117982166
20
33.7410267200
11
64.6117982166
21
46.2135861709
0
LINE
5
25E
100
AcDbEntity
8
0
100
AcDbLine
62
7
6
CONTINUOUS
10
49.8888907470
20
68.6782983818
11
39.0347056863
21
68.6782983818
0
LINE
5
25F
100
AcDbEntity
8
0
100
AcDbLine
62
7
6
CONTINUOUS
10
66.1117982166
20
27.5282983818
11
66.1117982166
21
34.8212781629
0
LINE
5
260
100
AcDbEntity
8
0
100
AcDbLine
62
7
6
CONTINUOUS
10
66.6117982166
20
24.1100129759
11
66.6117982166
21
35.2081411594
0
LINE
5
261
100
AcDbEntity
8
0
100
AcDbLine
62
7
6
CONTINUOUS
10
68.0758998318
20
36.9067313842
11
68.0758998318
21
36.4263986408
0
LINE
5
262
100
AcDbEntity
8
0
100
AcDbLine
62
7
6
CONTINUOUS
10
68.6117982166
20
24.1100129759
11
68.6117982166
21
50.5410219182
0
LINE
5
263
100
AcDbEntity
8
0
100
AcDbLine
62
9
6
CONTINUOUS
10
69.3117982166
20
29.7782983818
11
69.3117982166
21
38.7782983818
0
LINE
5
264
100
AcDbEntity
8
0
100
AcDbLine
62
7
6
CONTINUOUS
10
69.8117982166
20
30.2782983818
11
69.8117982166
21
38.2782983818
0
LINE
5
265
100
AcDbEntity
8
0
100
AcDbLine
62
7
6
CONTINUOUS
10
-107.6769166871
20
53.2782983818
11
-107.6769166871
21
65.2782983818
0
LINE
5
266
100
AcDbEntity
8
0
100
AcDbLine
62
7
6
CONTINUOUS
10
-97.1310638645
20
68.6783362652
11
-97.4769166871
21
68.3324834425
0
LINE
5
267
100
AcDbEntity
8
0
100
AcDbLine
62
7
6
CONTINUOUS
10
-97.4769166871
20
50.2242194106
11
-97.4769166871
21
68.3323773529
0
LINE
5
268
100
AcDbEntity
8
0
100
AcDbLine
62
7
6
CONTINUOUS
10
-87.6769166871
20
50.2242194106
11
-87.6769166871
21
68.3323773529
0
LINE
5
269
100
AcDbEntity
8
0
100
AcDbLine
62
7
6
CONTINUOUS
10
-84.6769166871
20
76.7185270094
11
-84.6769166871
21
41.7782983818
0
LINE
5
26A
100
AcDbEntity
8
0
100
AcDbLine
62
7
6
CONTINUOUS
10
-97.1310638645
20
49.8782604983
11
-97.4769166871
21
50.2241133210
0
LINE
5
26B
100
AcDbEntity
8
0
100
AcDbLine
62
9
6
CONTINUOUS
10
-79.7174895351
20
35.8692199301
11
-79.7174895351
21
82.6873768334
0
LINE
5
26C
100
AcDbEntity
8
0
100
AcDbLine
62
7
6
CONTINUOUS
10
-87.6769166871
20
50.2241133210
11
-88.0227695098
21
49.8782604983
0
LINE
5
26D
100
AcDbEntity
8
0
100
AcDbLine
62
7
6
CONTINUOUS
10
-70.6769166871
20
27.5282983818
11
-68.6769166871
21
27.5282983818
0
LINE
5
26E
100
AcDbEntity
8
0
100
AcDbLine
62
7
6
CONTINUOUS
10
-71.6769166871
20
35.2782983818
11
-71.6769166871
21
83.2782983818
0
LINE
5
26F
100
AcDbEntity
8
0
100
AcDbLine
62
7
6
CONTINUOUS
10
-70.6769166871
20
27.5282983818
11
-70.6769166871
21
80.5279794082
0
LINE
5
270
100
AcDbEntity
8
0
100
AcDbLine
62
7
6
CONTINUOUS
10
-37.2794789491
20
24.7814365358
11
-68.6769166871
21
36.9067313842
0
LINE
5
271
100
AcDbEntity
8
0
100
AcDbLine
62
7
6
CONTINUOUS
10
-68.6769166871
20
36.9067313842
11
-68.6769166871
21
27.5282983818
0
LINE
5
272
100
AcDbEntity
8
0
100
AcDbLine
62
9
6
CONTINUOUS
10
-66.6769166871
20
36.1343565841
11
-66.6769166871
21
84.5282983818
0
LINE
5
273
100
AcDbEntity
8
0
100
AcDbLine
62
7
6
CONTINUOUS
10
-63.6769166871
20
84.5282983818
11
-63.6769166871
21
80.4150497277
0
LINE
5
274
100
AcDbEntity
8
0
100
AcDbLine
62
7
6
CONTINUOUS
10
-87.6769166871
20
68.3324834425
11
-88.0227695098
21
68.6783362652
0
LINE
5
275
100
AcDbEntity
8
0
100
AcDbLine
62
7
6
CONTINUOUS
10
-88.0227316296
20
49.8782983818
11
-97.1311017447
21
49.8782983818
0
LINE
5
276
100
AcDbEntity
8
0
100
AcDbLine
62
9
6
CONTINUOUS
10
-70.6769166871
20
50.5410219182
11
-27.4598664759
21
50.5410219182
0
LINE
5
277
100
AcDbEntity
8
0
100
AcDbLine
62
9
6
CONTINUOUS
10
-66.6769166871
20
53.0196819079
11
-28.8872306556
21
53.0196819079
0
LINE
5
278
100
AcDbEntity
8
0
100
AcDbLine
62
7
6
CONTINUOUS
10
-84.6769166871
20
53.2782983818
11
-87.6769166871
21
53.2782983818
0
LINE
5
279
100
AcDbEntity
8
0
100
AcDbLine
62
7
6
CONTINUOUS
10
-97.4769166871
20
53.2782983818
11
-107.6769166871
21
53.2782983818
0
LINE
5
27A
100
AcDbEntity
8
0
100
AcDbLine
62
7
6
CONTINUOUS
10
-89.4769166871
20
59.2782983818
11
-95.6769166871
21
59.2782983818
0
LINE
5
27B
100
AcDbEntity
8
0
100
AcDbLine
62
7
6
CONTINUOUS
10
-84.6769166871
20
65.2782983818
11
-87.6769166871
21
65.2782983818
0
LINE
5
27C
100
AcDbEntity
8
0
100
AcDbLine
62
7
6
CONTINUOUS
10
-97.4769166871
20
65.2782983818
11
-107.6769166871
21
65.2782983818
0
LINE
5
27D
100
AcDbEntity
8
0
100
AcDbLine
62
7
6
CONTINUOUS
10
-88.0227316296
20
68.6782983818
11
-97.1311017447
21
68.6782983818
0
LINE
5
27E
100
AcDbEntity
8
0
100
AcDbLine
62
7
6
CONTINUOUS
10
-61.1769166871
20
76.0849227088
11
-40.4643709451
21
64.1265288491
0
LINE
5
27F
100
AcDbEntity
8
0
100
AcDbLine
62
7
6
CONTINUOUS
10
-23.6769166871
20
34.1099704586
11
-23.6769166871
21
35.9461801052
0
LINE
5
280
100
AcDbEntity
8
0
100
AcDbLine
62
7
6
CONTINUOUS
10
-66.6769166871
20
84.5282983818
11
-63.6769166871
21
84.5282983818
0
CIRCLE
5
281
100
AcDbEntity
8
0
100
AcDbCircle
62
7
6
CONTINUOUS
10
44.4617982166
20
59.2782983818
40
11.5000000000
0
CIRCLE
5
282
100
AcDbEntity
8
0
100
AcDbCircle
62
7
6
CONTINUOUS
10
44.4617982166
20
59.2782983818
40
24.0152221072
0
ARC
5
283
100
AcDbEntity
8
0
100
AcDbCircle
62
7
6
CONTINUOUS
10
44.4617982166
20
63.3113287349
40
35.7830303532
100
AcDbArc
50
228.7058781913
51
311.2941218087
0
ARC
5
284
100
AcDbEntity
8
0
100
AcDbCircle
62
7
6
CONTINUOUS
10
62.9867982166
20
11.9072615406
40
1.0000000000
100
AcDbArc
50
294.6675418173
51
360.0000000000
0
ARC
5
285
100
AcDbEntity
8
0
100
AcDbCircle
62
7
6
CONTINUOUS
10
40.8367982166
20
11.9072615406
40
1.0000000000
100
AcDbArc
50
294.6675436793
51
360.0000000000
0
ARC
5
286
100
AcDbEntity
8
0
100
AcDbCircle
62
7
6
CONTINUOUS
10
48.0867982166
20
11.9072615406
40
1.0000000000
100
AcDbArc
50
180.0000000000
51
245.3324563207
0
ARC
5
287
100
AcDbEntity
8
0
100
AcDbCircle
62
7
6
CONTINUOUS
10
25.9367982166
20
11.9072615406
40
1.0000000000
100
AcDbArc
50
180.0000000000
51
245.3324581827
0
ARC
5
288
100
AcDbEntity
8
0
100
AcDbCircle
62
7
6
CONTINUOUS
10
33.3867982166
20
28.1289233818
40
18.8506250000
100
AcDbArc
50
245.3324582622
51
294.6675418365
0
ARC
5
289
100
AcDbEntity
8
0
100
AcDbCircle
62
7
6
CONTINUOUS
10
55.5367982166
20
28.1289233818
40
18.8506250000
100
AcDbArc
50
245.3324581635
51
294.6675417378
0
ARC
5
28A
100
AcDbEntity
8
0
100
AcDbCircle
62
7
6
CONTINUOUS
10
78.6117982166
20
50.5410219182
40
10.0000000000
100
AcDbArc
50
165.6487311489
51
180.0000000003
0
ARC
5
28B
100
AcDbEntity
8
0
100
AcDbCircle
62
7
6
CONTINUOUS
10
10.3117982166
20
50.5410219182
40
10.0000000000
100
AcDbArc
50
0.0000000000
51
14.3512688530
0
CIRCLE
5
28C
100
AcDbEntity
8
0
100
AcDbCircle
62
7
6
CONTINUOUS
10
44.4617982166
20
59.2782983818
40
6.0000000000
0
ARC
5
28D
100
AcDbEntity
8
0
100
AcDbCircle
62
7
6
CONTINUOUS
10
69.3117982166
20
30.2782983818
40
0.5000000000
100
AcDbArc
50
270.0000000000
51
360.0000000000
0
ARC
5
28E
100
AcDbEntity
8
0
100
AcDbCircle
62
7
6
CONTINUOUS
10
69.3117982166
20
38.2782983818
40
0.5000000000
100
AcDbArc
50
0.0000000000
51
90.0000000000
0
ARC
5
28F
100
AcDbEntity
8
0
100
AcDbCircle
62
7
6
CONTINUOUS
10
24.6117982166
20
34.2782983818
40
7.3000000000
100
AcDbArc
50
131.1120904392
51
228.8879095608
0
ARC
5
290
100
AcDbEntity
8
0
100
AcDbCircle
62
7
6
CONTINUOUS
10
44.4617982166
20
59.2782983818
40
10.0000000000
100
AcDbArc
50
10.1006088503
51
49.8960623038
0
ARC
5
291
100
AcDbEntity
8
0
100
AcDbCircle
62
7
6
CONTINUOUS
10
44.4617982166
20
59.2782983818
40
10.0000000000
100
AcDbArc
50
310.1039376962
51
349.8993911497
0
ARC
5
292
100
AcDbEntity
8
0
100
AcDbCircle
62
7
6
CONTINUOUS
10
44.4617982166
20
59.2782983818
40
10.0000000000
100
AcDbArc
50
250.1048439471
51
289.8951560529
0
ARC
5
293
100
AcDbEntity
8
0
100
AcDbCircle
62
7
6
CONTINUOUS
10
44.4617982166
20
59.2782983818
40
10.0000000000
100
AcDbArc
50
190.1006088503
51
229.8960623038
0
ARC
5
294
100
AcDbEntity
8
0
100
AcDbCircle
62
7
6
CONTINUOUS
10
44.4617982166
20
59.2782983818
40
10.0000000000
100
AcDbArc
50
130.1039376962
51
169.8993911497
0
ARC
5
295
100
AcDbEntity
8
0
100
AcDbCircle
62
7
6
CONTINUOUS
10
44.4617982166
20
59.2782983818
40
10.0000000000
100
AcDbArc
50
70.1048439471
51
109.8951560529
0
ARC
5
296
100
AcDbEntity
8
0
100
AcDbCircle
62
7
6
CONTINUOUS
10
44.4617982166
20
59.2782983818
40
25.2500000000
100
AcDbArc
50
345.6487311472
51
194.3512688528
0
CIRCLE
5
297
100
AcDbEntity
8
0
100
AcDbCircle
62
7
6
CONTINUOUS
10
44.4617982166
20
59.2782983818
40
9.0541850608
0
CIRCLE
5
298
100
AcDbEntity
8
0
100
AcDbCircle
62
9
6
CONTINUOUS
10
44.4617982166
20
59.2782983818
40
23.4090784517
0
ARC
5
299
100
AcDbEntity
8
0
100
AcDbCircle
62
7
6
CONTINUOUS
10
-78.6769166871
20
41.7782983818
40
6.0000000000
100
AcDbArc
50
180.0000000000
51
260.0127626021
0
ARC
5
29A
100
AcDbEntity
8
0
100
AcDbCircle
62
7
6
CONTINUOUS
10
-72.7803372152
20
75.2630762746
40
40.0000000000
100
AcDbArc
50
260.0127626021
51
271.5807340048
0
ARC
5
29B
100
AcDbEntity
8
0
100
AcDbCircle
62
7
6
CONTINUOUS
10
-78.6769166871
20
76.7782983818
40
6.0000000000
100
AcDbArc
50
99.9872373979
51
180.0000000000
0
ARC
5
29C
100
AcDbEntity
8
0
100
AcDbCircle
62
7
6
CONTINUOUS
10
-33.6769166871
20
34.1099704586
40
10.0000000000
100
AcDbArc
50
248.8840674182
51
360.0000000000
0
ARC
5
29D
100
AcDbEntity
8
0
100
AcDbCircle
62
7
6
CONTINUOUS
10
-72.7803372152
20
43.2935204889
40
40.0000000000
100
AcDbArc
50
88.4192659952
51
99.9872373979
0
ARC
5
29E
100
AcDbEntity
8
0
100
AcDbCircle
62
7
6
CONTINUOUS
10
-57.2643709451
20
35.0280752819
40
33.6000000000
100
AcDbArc
50
1.5657761795
51
60.0000000000
0
ARC
5
29F
100
AcDbEntity
8
0
100
AcDbCircle
62
7
6
CONTINUOUS
10
-31.6769166871
20
34.2782983818
40
25.0000000000
100
AcDbArc
50
184.6851258493
51
95.0977225951
0
ARC
5
2A0
100
AcDbEntity
8
0
100
AcDbCircle
62
7
6
CONTINUOUS
10
-66.6769166871
20
80.5282983818
40
4.0000000000
100
AcDbArc
50
90.0000000000
51
180.0000000000
0
ARC
5
2A1
100
AcDbEntity
8
0
100
AcDbCircle
62
7
6
CONTINUOUS
10
-58.6769166871
20
80.4150497277
40
5.0000000000
100
AcDbArc
50
180.0000000000
51
240.0000000000
0
CIRCLE
5
2A2
100
AcDbEntity
8
0
100
AcDbCircle
62
7
6
CONTINUOUS
10
-31.6769166871
20
34.2782983818
40
4.5000000000
0
ARC
5
2A3
100
AcDbEntity
8
0
100
AcDbCircle
62
7
6
CONTINUOUS
10
-31.6769166871
20
34.2782983818
40
20.5000000000
100
AcDbArc
50
190.9422447720
51
85.4017547430
0
ARC
5
2A4
100
AcDbEntity
8
0
100
AcDbCircle
62
9
6
CONTINUOUS
10
-31.6769166871
20
34.2782983818
40
8.7499929326
100
AcDbArc
50
308.3116045589
51
25.9104273285
0
ARC
5
2A5
100
AcDbEntity
8
0
100
AcDbCircle
62
9
6
CONTINUOUS
10
-31.6769166871
20
34.2782983818
40
19.4999992323
100
AcDbArc
50
192.7860152528
51
82.9389558803
0
ARC
5
2A6
100
AcDbEntity
8
0
100
AcDbCircle
62
9
6
CONTINUOUS
10
-31.6769166871
20
34.2782983818
40
22.3710368330
100
AcDbArc
50
187.9873163953
51
89.6566925537
0
CIRCLE
5
2A7
100
AcDbEntity
8
0
100
AcDbCircle
62
7
6
CONTINUOUS
10
-31.6769166871
20
34.2782983818
40
2.5000000000
0
ARC
5
2A8
100
AcDbEntity
8
0
100
AcDbCircle
62
9
6
CONTINUOUS
10
-31.6769166871
20
34.2782983818
40
23.2797815917
100
AcDbArc
50
186.7480760514
51
91.5901383157
0
CIRCLE
5
2A9
100
AcDbEntity
8
0
100
AcDbCircle
62
9
6
CONTINUOUS
10
-31.6769166871
20
34.2782983818
40
3.6615727429
0
SPLINE
5
2AA
100
AcDbEntity
8
0
100
AcDbSpline
62
7
6
CONTINUOUS
70
0
71
3
72
10
73
6
74
4
42
0.0000001000
43
0.0000001000
44
0.0000000001
12
-0.8097417971
22
-0.5416332096
32
0.0000000000
13
0.0000000000
23
-0.9741911064
33
0.0000000000
40
0.0000000000
40
0.0000000000
40
0.0000000000
40
0.0000000000
40
0.3894056761
40
0.7164677635
40
1.0000000000
40
1.0000000000
40
1.0000000000
40
1.0000000000
10
20.8476966015
20
36.9067313842
30
0.0000000000
10
20.7425905842
20
36.8364263688
30
0.0000000000
10
20.5587767492
20
36.6906789640
30
0.0000000000
10
20.3612475427
20
36.4261776807
30
0.0000000000
10
20.3117982166
20
36.2264281118
30
0.0000000000
10
20.3117982166
20
36.1343565841
30
0.0000000000
11
20.8476966015
21
36.9067313842
31
0.0000000000
11
20.5552747940
21
36.6650702225
31
0.0000000000
11
20.3730663281
21
36.4036904187
31
0.0000000000
11
20.3117982166
21
36.1343565841
31
0.0000000000
0
SPLINE
5
2AB
100
AcDbEntity
8
0
100
AcDbSpline
62
7
6
CONTINUOUS
70
0
71
3
72
10
73
6
74
4
42
0.0000001000
43
0.0000001000
44
0.0000000001
12
0.0000000000
22
0.9741911064
32
0.0000000000
13
-0.8097417971
23
0.5416332096
33
0.0000000000
40
0.0000000000
40
0.0000000000
40
0.0000000000
40
0.0000000000
40
0.2835322365
40
0.6105943239
40
1.0000000000
40
1.0000000000
40
1.0000000000
40
1.0000000000
10
68.6117982166
20
36.1343565841
30
0.0000000000
10
68.6117982166
20
36.2264281118
30
0.0000000000
10
68.5623488906
20
36.4261776807
30
0.0000000000
10
68.3648196841
20
36.6906789640
30
0.0000000000
10
68.1810058491
20
36.8364263688
30
0.0000000000
10
68.0758998318
20
36.9067313842
30
0.0000000000
11
68.6117982166
21
36.1343565841
31
0.0000000000
11
68.5505301052
21
36.4036904187
31
0.0000000000
11
68.3683216393
21
36.6650702225
31
0.0000000000
11
68.0758998318
21
36.9067313842
31
0.0000000000
0
SPLINE
5
2AC
100
AcDbEntity
8
0
100
AcDbSpline
62
9
6
CONTINUOUS
70
0
71
3
72
13
73
9
74
7
42
0.0000001000
43
0.0000001000
44
0.0000000001
12
0.0000000000
22
-4.2731603654
32
0.0000000000
13
4.2731603654
23
-0.0000000432
33
0.0000000000
40
0.0000000000
40
0.0000000000
40
0.0000000000
40
0.0000000000
40
0.0679964945
40
0.1769749954
40
0.3333033347
40
0.5306462126
40
0.7575966756
40
1.0000000000
40
1.0000000000
40
1.0000000000
40
1.0000000000
10
-70.6769166871
20
54.0111459038
30
0.0000000000
10
-70.6769166871
20
53.9142925953
30
0.0000000000
10
-70.5113037322
20
53.6828332271
30
0.0000000000
10
-70.0841409128
20
53.4778906523
30
0.0000000000
10
-69.4518795962
20
53.2803253222
30
0.0000000000
10
-68.6366762145
20
53.1351946520
30
0.0000000000
10
-67.6909799286
20
53.0405882273
30
0.0000000000
10
-67.0221927799
20
53.0196819109
30
0.0000000000
10
-66.6769166871
20
53.0196819074
30
0.0000000000
11
-70.6769166871
21
54.0111459038
31
0.0000000000
11
-70.5406203757
21
53.7545365007
31
0.0000000000
11
-70.1410194301
21
53.5154144020
31
0.0000000000
11
-69.5053454865
21
53.3100754183
31
0.0000000000
11
-68.6769183508
21
53.1525131476
31
0.0000000000
11
-67.7121938986
21
53.0534653010
31
0.0000000000
11
-66.6769166871
21
53.0196819074
31
0.0000000000
0
SPLINE
5
2AD
100
AcDbEntity
8
0
100
AcDbSpline
62
7
6
CONTINUOUS
70
0
71
3
72
17
73
13
74
11
42
0.0000001000
43
0.0000001000
44
0.0000000001
12
4.9757604957
22
8.6182699849
32
0.0000000000
13
-4.9757604957
23
8.6182699849
33
0.0000000000
40
0.0000000000
40
0.0000000000
40
0.0000000000
40
0.0000000000
40
0.1169836033
40
0.2217606225
40
0.3185306878
40
0.4104443236
40
0.5000601865
40
0.5896696859
40
0.6815589520
40
0.7782941960
40
0.8830235664
40
1.0000000000
40
1.0000000000
40
1.0000000000
40
1.0000000000
10
-89.4769166871
20
59.2782983818
30
0.0000000000
10
-89.2828892232
20
59.6143638075
30
0.0000000000
10
-88.9368858751
20
60.2645684464
30
0.0000000000
10
-88.5229209359
20
61.2383354242
30
0.0000000000
10
-88.2335163707
20
62.1697419896
30
0.0000000000
10
-88.0611141629
20
63.0788917951
30
0.0000000000
10
-88.0037468696
20
63.9788788836
30
0.0000000000
10
-88.0612580216
20
64.8787749582
30
0.0000000000
10
-88.2337385545
20
65.7876861654
30
0.0000000000
10
-88.5231098413
20
66.7187292656
30
0.0000000000
10
-88.9369819207
20
67.6922103314
30
0.0000000000
10
-89.2829011147
20
68.3422535528
30
0.0000000000
10
-89.4769166871
20
68.6782983818
30
0.0000000000
11
-89.4769166871
21
59.2782983818
31
0.0000000000
11
-88.9339254569
21
60.3080751381
31
0.0000000000
11
-88.5295874709
21
61.2691759145
31
0.0000000000
11
-88.2469262274
21
62.1897678987
31
0.0000000000
11
-88.0786740464
21
63.0888405195
31
0.0000000000
11
-88.0227316519
21
63.9788983327
31
0.0000000000
11
-88.0788155492
21
64.8688837885
31
0.0000000000
11
-88.2471411233
21
65.7676959404
31
0.0000000000
11
-88.5297745748
21
66.6879339635
31
0.0000000000
11
-88.9339560757
21
67.6485861406
31
0.0000000000
11
-89.4769166871
21
68.6782983818
31
0.0000000000
0
SPLINE
5
2AE
100
AcDbEntity
8
0
100
AcDbSpline
62
7
6
CONTINUOUS
70
0
71
3
72
17
73
13
74
11
42
0.0000001000
43
0.0000001000
44
0.0000000001
12
-4.9757604957
22
8.6182699849
32
0.0000000000
13
4.9757604957
23
8.6182699849
33
0.0000000000
40
0.0000000000
40
0.0000000000
40
0.0000000000
40
0.0000000000
40
0.1169836033
40
0.2217606225
40
0.3185306878
40
0.4104443236
40
0.5000601865
40
0.5896696859
40
0.6815589520
40
0.7782941960
40
0.8830235664
40
1.0000000000
40
1.0000000000
40
1.0000000000
40
1.0000000000
10
-95.6769166871
20
59.2782983818
30
0.0000000000
10
-95.8709441511
20
59.6143638075
30
0.0000000000
10
-96.2169474991
20
60.2645684464
30
0.0000000000
10
-96.6309124384
20
61.2383354242
30
0.0000000000
10
-96.9203170036
20
62.1697419896
30
0.0000000000
10
-97.0927192114
20
63.0788917951
30
0.0000000000
10
-97.1500865047
20
63.9788788836
30
0.0000000000
10
-97.0925753527
20
64.8787749582
30
0.0000000000
10
-96.9200948198
20
65.7876861654
30
0.0000000000
10
-96.6307235330
20
66.7187292656
30
0.0000000000
10
-96.2168514536
20
67.6922103314
30
0.0000000000
10
-95.8709322596
20
68.3422535528
30
0.0000000000
10
-95.6769166871
20
68.6782983818
30
0.0000000000
11
-95.6769166871
21
59.2782983818
31
0.0000000000
11
-96.2199079174
21
60.3080751381
31
0.0000000000
11
-96.6242459034
21
61.2691759145
31
0.0000000000
11
-96.9069071469
21
62.1897678987
31
0.0000000000
11
-97.0751593278
21
63.0888405195
31
0.0000000000
11
-97.1311017224
21
63.9788983327
31
0.0000000000
11
-97.0750178251
21
64.8688837885
31
0.0000000000
11
-96.9066922510
21
65.7676959404
31
0.0000000000
11
-96.6240587995
21
66.6879339635
31
0.0000000000
11
-96.2198772986
21
67.6485861406
31
0.0000000000
11
-95.6769166871
21
68.6782983818
31
0.0000000000
0
SPLINE
5
2AF
100
AcDbEntity
8
0
100
AcDbSpline
62
7
6
CONTINUOUS
70
0
71
3
72
17
73
13
74
11
42
0.0000001000
43
0.0000001000
44
0.0000000001
12
4.9757604957
22
8.6182699849
32
0.0000000000
13
-4.9757604957
23
8.6182699849
33
0.0000000000
40
0.0000000000
40
0.0000000000
40
0.0000000000
40
0.0000000000
40
0.1169836033
40
0.2217606225
40
0.3185306878
40
0.4104443236
40
0.5000601865
40
0.5896696859
40
0.6815589520
40
0.7782941960
40
0.8830235664
40
1.0000000000
40
1.0000000000
40
1.0000000000
40
1.0000000000
10
-89.4769166871
20
49.8782983818
30
0.0000000000
10
-89.2828892232
20
50.2143638075
30
0.0000000000
10
-88.9368858751
20
50.8645684464
30
0.0000000000
10
-88.5229209359
20
51.8383354242
30
0.0000000000
10
-88.2335163707
20
52.7697419896
30
0.0000000000
10
-88.0611141629
20
53.6788917951
30
0.0000000000
10
-88.0037468696
20
54.5788788836
30
0.0000000000
10
-88.0612580216
20
55.4787749582
30
0.0000000000
10
-88.2337385545
20
56.3876861654
30
0.0000000000
10
-88.5231098413
20
57.3187292656
30
0.0000000000
10
-88.9369819207
20
58.2922103314
30
0.0000000000
10
-89.2829011147
20
58.9422535528
30
0.0000000000
10
-89.4769166871
20
59.2782983818
30
0.0000000000
11
-89.4769166871
21
49.8782983818
31
0.0000000000
11
-88.9339254569
21
50.9080751381
31
0.0000000000
11
-88.5295874709
21
51.8691759145
31
0.0000000000
11
-88.2469262274
21
52.7897678987
31
0.0000000000
11
-88.0786740464
21
53.6888405195
31
0.0000000000
11
-88.0227316519
21
54.5788983327
31
0.0000000000
11
-88.0788155492
21
55.4688837885
31
0.0000000000
11
-88.2471411233
21
56.3676959404
31
0.0000000000
11
-88.5297745748
21
57.2879339635
31
0.0000000000
11
-88.9339560757
21
58.2485861406
31
0.0000000000
11
-89.4769166871
21
59.2782983818
31
0.0000000000
0
SPLINE
5
2B0
100
AcDbEntity
8
0
100
AcDbSpline
62
7
6
CONTINUOUS
70
0
71
3
72
17
73
13
74
11
42
0.0000001000
43
0.0000001000
44
0.0000000001
12
-4.9757604957
22
8.6182699849
32
0.0000000000
13
4.9757604957
23
8.6182699849
33
0.0000000000
40
0.0000000000
40
0.0000000000
40
0.0000000000
40
0.0000000000
40
0.1169836033
40
0.2217606225
40
0.3185306878
40
0.4104443236
40
0.5000601865
40
0.5896696859
40
0.6815589520
40
0.7782941960
40
0.8830235664
40
1.0000000000
40
1.0000000000
40
1.0000000000
40
1.0000000000
10
-95.6769166871
20
49.8782983818
30
0.0000000000
10
-95.8709441511
20
50.2143638075
30
0.0000000000
10
-96.2169474991
20
50.8645684464
30
0.0000000000
10
-96.6309124384
20
51.8383354242
30
0.0000000000
10
-96.9203170036
20
52.7697419896
30
0.0000000000
10
-97.0927192114
20
53.6788917951
30
0.0000000000
10
-97.1500865047
20
54.5788788836
30
0.0000000000
10
-97.0925753527
20
55.4787749582
30
0.0000000000
10
-96.9200948198
20
56.3876861654
30
0.0000000000
10
-96.6307235330
20
57.3187292656
30
0.0000000000
10
-96.2168514536
20
58.2922103314
30
0.0000000000
10
-95.8709322596
20
58.9422535528
30
0.0000000000
10
-95.6769166871
20
59.2782983818
30
0.0000000000
11
-95.6769166871
21
49.8782983818
31
0.0000000000
11
-96.2199079174
21
50.9080751381
31
0.0000000000
11
-96.6242459034
21
51.8691759145
31
0.0000000000
11
-96.9069071469
21
52.7897678987
31
0.0000000000
11
-97.0751593278
21
53.6888405195
31
0.0000000000
11
-97.1311017224
21
54.5788983327
31
0.0000000000
11
-97.0750178251
21
55.4688837885
31
0.0000000000
11
-96.9066922510
21
56.3676959404
31
0.0000000000
11
-96.6240587995
21
57.2879339635
31
0.0000000000
11
-96.2198772986
21
58.2485861406
31
0.0000000000
11
-95.6769166871
21
59.2782983818
31
0.0000000000
0
SPLINE
5
2B1
100
AcDbEntity
8
0
100
AcDbSpline
62
7
6
CONTINUOUS
70
0
71
3
72
12
73
8
74
6
42
0.0000001000
43
0.0000001000
44
0.0000000001
12
-3.1238581125
22
-1.5841386445
32
0.0000000000
13
0.0000000000
23
-3.5025683080
33
0.0000000000
40
0.0000000000
40
0.0000000000
40
0.0000000000
40
0.0000000000
40
0.2109391966
40
0.4212374032
40
0.6270009887
40
0.8214553028
40
1.0000000000
40
1.0000000000
40
1.0000000000
40
1.0000000000
10
-68.6769166871
20
36.4263986408
30
0.0000000000
10
-68.8965647273
20
36.3150129965
30
0.0000000000
10
-69.3176521385
20
36.0557464280
30
0.0000000000
10
-69.8694957060
20
35.5692419854
30
0.0000000000
10
-70.3102304933
20
35.0027742283
30
0.0000000000
10
-70.6021923851
20
34.3865162415
30
0.0000000000
10
-70.6769166871
20
33.9494817193
30
0.0000000000
10
-70.6769166871
20
33.7410267200
30
0.0000000000
11
-68.6769166871
21
36.4263986408
31
0.0000000000
11
-69.3056688337
21
36.0384051510
31
0.0000000000
11
-69.8566680525
21
35.5495742958
31
0.0000000000
11
-70.2953912726
21
34.9777947171
31
0.0000000000
11
-70.5793876966
21
34.3587398221
31
0.0000000000
11
-70.6769166871
21
33.7410267200
31
0.0000000000
0
ENDSEC
0
SECTION
2
OBJECTS
0
DICTIONARY
5
2B2
100
AcDbDictionary
3
ACAD_GROUP
350
2B3
3
ACAD_MLINESTYLE
350
2B4
0
DICTIONARY
5
2B3
102
{ACAD_REACTORS
330
2B2
102
}
100
AcDbDictionary
0
DICTIONARY
5
2B4
102
{ACAD_REACTORS
330
2B2
102
}
100
AcDbDictionary
3
STANDARD
350
2B5
0
MLINESTYLE
5
2B5
102
{ACAD_REACTORS
330
2B4
102
}
100
AcDbMlineStyle
2
STANDARD
70
0
3

62
256
51
90.0
52
90.0
71
2
49
0.5
62
256
6
BYLAYER
49
-0.5
62
256
6
BYLAYER
0
ENDSEC
0
EOF
