  0
SECTION
  2
HEADER
  9
$ACADVER
  1
AC1024
  9
$DWGCODEPAGE
  3
ANSI_1252
  9
$EXTMAX
 10
297.0
 20
210.0
 30
0.0
  9
$EXTMIN
 10
0.0
 20
0.0
 30
0.0
  9
$LIMMIN
 10
0.0
 20
0.0
  9
$LIMMAX
 10
297.0
 20
210.0
  9
$VIEWCTR
 10
148.5
 20
105.0
  9
$VIEWSIZE
 40
210.0
  9
$CLAYER
  8
0
  9
$LTSCALE
 40
16.335
  9
$CELTYPE
  6
BYLAYER
  9
$DIMSCALE
 40
1.0
  9
$DIMASZ
 40
3.0
  9
$DIMEXO
 40
0.5
  9
$DIMDLI
 40
11.286
  9
$DIMEXE
 40
1.5
  9
$DIMCEN
 40
2.673
  9
$DIMLFAC
 40
1.0
  9
$DIMBLK
  1
_FILLED
  9
$DIMALT
 70
0
  9
$DIMALTF
 40
0.0393700787
  9
$DIMTXT
 40
3.0
  9
$DIMTOL
 70
1
  9
$DIMLIM
 70
0
  9
$DIMTFAC
 40
1.0
  9
$DIMTP
 40
0.01
  9
$DIMTM
 40
0.01
  9
$DIMGAP
 40
0.625
  9
$DIMDSEP
 70
44
  9
$AUNITS
 70
0
  9
$PDMODE
 70
3
  9
$PDSIZE
 40
3.0
  9
$HANDSEED
  5
2CE
  9
$TILEMODE
 70
1
  9
$MEASUREMENT
 70
1
  9
$INSUNITS
 70
4
  0
ENDSEC
  0
SECTION
  2
CLASSES
  0
CLASS
  1
ACDBDICTIONARYWDFLT
  2
AcDbDictionaryWithDefault
  3
AutoCAD 2000
 90
0
 91
1
280
0
281
0
  0
CLASS
  1
ACDBPLACEHOLDER
  2
AcDbPlaceHolder
  3
AutoCAD 2000
 90
0
 91
1
280
0
281
0
  0
CLASS
  1
LAYOUT
  2
AcDbLayout
  3
AutoCAD 2000
 90
0
 91
0
280
0
281
0
  0
ENDSEC
  0
SECTION
  2
TABLES
  0
TABLE
  2
VPORT
  5
8
100
AcDbSymbolTable
 70
2
  0
VPORT
  5
1F4
100
AcDbSymbolTableRecord
100
AcDbViewportTableRecord
  2
*ACTIVE
 70
0
 10
0.0
 20
0.0
 11
1.0
 21
1.0
 12
148.5
 22
105.0
 13
0.0
 23
0.0
 14
1.0
 24
1.0
 15
0.0
 25
0.0
 16
0.0
 26
0.0
 36
1.0
 17
0.0
 27
0.0
 37
0.0
 40
210.0
 41
1.4142857143
 42
50.0
 43
0.0
 44
0.0
 50
0.0
 51
0.0
 71
0
 72
100
 73
1
 74
1
 75
0
 76
0
 77
0
 78
0
  0
ENDTAB
  0
TABLE
  2
LTYPE
  5
5
100
AcDbSymbolTable
 70
6
  0
LTYPE
  5
14
100
AcDbSymbolTableRecord
100
AcDbLinetypeTableRecord
  2
BYBLOCK
 70
0
  3

 72
65
 73
0
 40
0.0
  0
LTYPE
  5
15
100
AcDbSymbolTableRecord
100
AcDbLinetypeTableRecord
  2
BYLAYER
 70
0
  3

 72
65
 73
0
 40
0.0
  0
LTYPE
  5
16
100
AcDbSymbolTableRecord
100
AcDbLinetypeTableRecord
  2
CONTINUOUS
 70
64
  3
Solid line
 72
65
 73
0
 40
0.0
  0
LTYPE
  5
1F5
100
AcDbSymbolTableRecord
100
AcDbLinetypeTableRecord
  2
CENTER
 70
64
  3
____ _ ____ _ ____ _ ____ _ ____ _ ____ _ ____
 72
65
 73
4
 40
0.6
 49
0.375
 74
0
 49
-0.075
 74
0
 49
0.075
 74
0
 49
-0.075
 74
0
  0
LTYPE
  5
1F6
100
AcDbSymbolTableRecord
100
AcDbLinetypeTableRecord
  2
HIDDEN
 70
64
  3
- - - - - - - - - - - - - - - - - - - -
 72
65
 73
2
 40
0.2
 49
0.1
 74
0
 49
-0.1
 74
0
  0
LTYPE
  5
1F7
100
AcDbSymbolTableRecord
100
AcDbLinetypeTableRecord
  2
PHANTOM
 70
64
  3
_____ _ _ _____ _ _ _____ _ _ _____
 72
65
 73
6
 40
0.8
 49
0.45
 74
0
 49
-0.05
 74
0
 49
0.1
 74
0
 49
-0.05
 74
0
 49
0.1
 74
0
 49
-0.05
 74
0
  0
LTYPE
  5
1F8
100
AcDbSymbolTableRecord
100
AcDbLinetypeTableRecord
  2
DOT
 70
64
  3
. . . . . . . . . . . . . . . . . . . .
 72
65
 73
2
 40
0.2
 49
0.1
 74
0
 49
-0.1
 74
0
  0
LTYPE
  5
1F9
100
AcDbSymbolTableRecord
100
AcDbLinetypeTableRecord
  2
DASHED
 70
64
  3
- - - - - - - - - - - - - - - - - - - -
 72
65
 73
2
 40
0.2
 49
0.1
 74
0
 49
-0.1
 74
0
  0
ENDTAB
  0
TABLE
  2
LAYER
  5
2
100
AcDbSymbolTable
 70
36
  0
LAYER
  5
10
100
AcDbSymbolTableRecord
100
AcDbLayerTableRecord
  2
0
 70
0
 62
7
  6
CONTINUOUS
370
-3
390
F
  0
LAYER
  5
1FA
100
AcDbSymbolTableRecord
100
AcDbLayerTableRecord
  2
DEFAULT_1
 70
0
 62
7
  6
CENTER
370
-3
390
F
  0
LAYER
  5
1FB
100
AcDbSymbolTableRecord
100
AcDbLayerTableRecord
  2
DEFAULT_2
 70
0
 62
7
  6
HIDDEN
370
-3
390
F
  0
LAYER
  5
1FC
100
AcDbSymbolTableRecord
100
AcDbLayerTableRecord
  2
DEFAULT_3
 70
0
 62
7
  6
PHANTOM
370
-3
390
F
  0
LAYER
  5
1FD
100
AcDbSymbolTableRecord
100
AcDbLayerTableRecord
  2
ASSI
 70
0
 62
7
  6
CONTINUOUS
370
-3
390
F
  0
LAYER
  5
1FE
100
AcDbSymbolTableRecord
100
AcDbLayerTableRecord
  2
COORDINATE
 70
0
 62
7
  6
CONTINUOUS
370
-3
390
F
  0
LAYER
  5
1FF
100
AcDbSymbolTableRecord
100
AcDbLayerTableRecord
  2
COORD_ORIGINE
 70
0
 62
7
  6
CONTINUOUS
370
-3
390
F
  0
LAYER
  5
200
100
AcDbSymbolTableRecord
100
AcDbLayerTableRecord
  2
COPY_PUBLISH
 70
0
 62
7
  6
CONTINUOUS
370
-3
390
F
  0
LAYER
  5
201
100
AcDbSymbolTableRecord
100
AcDbLayerTableRecord
  2
COSMETICI
 70
0
 62
7
  6
CONTINUOUS
370
-3
390
F
  0
LAYER
  5
202
100
AcDbSymbolTableRecord
100
AcDbLayerTableRecord
  2
CURVE
 70
0
 62
7
  6
CONTINUOUS
370
-3
390
F
  0
LAYER
  5
203
100
AcDbSymbolTableRecord
100
AcDbLayerTableRecord
  2
CURVE_LED_TASTO
 70
0
 62
7
  6
CONTINUOUS
370
-3
390
F
  0
LAYER
  5
204
100
AcDbSymbolTableRecord
100
AcDbLayerTableRecord
  2
DRAFT
 70
0
 62
7
  6
CONTINUOUS
370
-3
390
F
  0
LAYER
  5
205
100
AcDbSymbolTableRecord
100
AcDbLayerTableRecord
  2
IGES_SCRITTE
 70
0
 62
7
  6
CONTINUOUS
370
-3
390
F
  0
LAYER
  5
206
100
AcDbSymbolTableRecord
100
AcDbLayerTableRecord
  2
IMPORT_IGES
 70
0
 62
7
  6
CONTINUOUS
370
-3
390
F
  0
LAYER
  5
207
100
AcDbSymbolTableRecord
100
AcDbLayerTableRecord
  2
INTF_1
 70
0
 62
7
  6
CONTINUOUS
370
-3
390
F
  0
LAYER
  5
208
100
AcDbSymbolTableRecord
100
AcDbLayerTableRecord
  2
INTF_11
 70
0
 62
7
  6
CONTINUOUS
370
-3
390
F
  0
LAYER
  5
209
100
AcDbSymbolTableRecord
100
AcDbLayerTableRecord
  2
INTF_8
 70
0
 62
7
  6
CONTINUOUS
370
-3
390
F
  0
LAYER
  5
20A
100
AcDbSymbolTableRecord
100
AcDbLayerTableRecord
  2
NOTE
 70
0
 62
7
  6
CONTINUOUS
370
-3
390
F
  0
LAYER
  5
20B
100
AcDbSymbolTableRecord
100
AcDbLayerTableRecord
  2
PIANI
 70
0
 62
7
  6
CONTINUOUS
370
-3
390
F
  0
LAYER
  5
20C
100
AcDbSymbolTableRecord
100
AcDbLayerTableRecord
  2
PIANI_ORIGINE
 70
0
 62
7
  6
CONTINUOUS
370
-3
390
F
  0
LAYER
  5
20D
100
AcDbSymbolTableRecord
100
AcDbLayerTableRecord
  2
PIANI_RIFERIMENTO
 70
0
 62
7
  6
CONTINUOUS
370
-3
390
F
  0
LAYER
  5
20E
100
AcDbSymbolTableRecord
100
AcDbLayerTableRecord
  2
PUNTI
 70
0
 62
7
  6
CONTINUOUS
370
-3
390
F
  0
LAYER
  5
20F
100
AcDbSymbolTableRecord
100
AcDbLayerTableRecord
  2
RACCORDO
 70
0
 62
7
  6
CONTINUOUS
370
-3
390
F
  0
LAYER
  5
210
100
AcDbSymbolTableRecord
100
AcDbLayerTableRecord
  2
RGB____0____0____0__
 70
0
 62
7
  6
CONTINUOUS
370
-3
390
F
  0
LAYER
  5
211
100
AcDbSymbolTableRecord
100
AcDbLayerTableRecord
  2
SIMBOLI
 70
0
 62
7
  6
CONTINUOUS
370
-3
390
F
  0
LAYER
  5
212
100
AcDbSymbolTableRecord
100
AcDbLayerTableRecord
  2
SMUSSO
 70
0
 62
7
  6
CONTINUOUS
370
-3
390
F
  0
LAYER
  5
213
100
AcDbSymbolTableRecord
100
AcDbLayerTableRecord
  2
SUPERFICI
 70
0
 62
7
  6
CONTINUOUS
370
-3
390
F
  0
LAYER
  5
214
100
AcDbSymbolTableRecord
100
AcDbLayerTableRecord
  2
TRASH
 70
0
 62
7
  6
CONTINUOUS
370
-3
390
F
  0
ENDTAB
  0
TABLE
  2
STYLE
  5
3
100
AcDbSymbolTable
 70
1
  0
STYLE
  5
11
100
AcDbSymbolTableRecord
100
AcDbTextStyleTableRecord
  2
STANDARD
 70
0
 40
0.0
 41
0.8
 50
0.0
 71
0
 42
0.2
  3
txt
  4

  0
STYLE
  5
215
100
AcDbSymbolTableRecord
100
AcDbTextStyleTableRecord
  2
TEXTSTYLE_1
 70
0
 40
0.0
 41
0.8
 50
0.0
 71
0
 42
0.2
  3
gdt
  4

  0
ENDTAB
  0
TABLE
  2
VIEW
  5
6
100
AcDbSymbolTable
 70
0
  0
ENDTAB
  0
TABLE
  2
UCS
  5
7
100
AcDbSymbolTable
 70
0
  0
ENDTAB
  0
TABLE
  2
APPID
  5
9
100
AcDbSymbolTable
 70
1
  0
APPID
  5
216
100
AcDbSymbolTableRecord
100
AcDbRegAppTableRecord
  2
ACAD
 70
0
  0
ENDTAB
  0
TABLE
  2
BLOCK_RECORD
  5
1
100
AcDbSymbolTable
 70
0
  0
BLOCK_RECORD
  5
217
100
AcDbSymbolTableRecord
100
AcDbBlockTableRecord
  2
*Model_Space
  0
BLOCK_RECORD
  5
218
100
AcDbSymbolTableRecord
100
AcDbBlockTableRecord
  2
*Paper_Space
  0
BLOCK_RECORD
  5
219
100
AcDbSymbolTableRecord
100
AcDbBlockTableRecord
  2
_FILLED
  0
BLOCK_RECORD
  5
21A
100
AcDbSymbolTableRecord
100
AcDbBlockTableRecord
  2
*D0
  0
BLOCK_RECORD
  5
21B
100
AcDbSymbolTableRecord
100
AcDbBlockTableRecord
  2
*D1
  0
BLOCK_RECORD
  5
21C
100
AcDbSymbolTableRecord
100
AcDbBlockTableRecord
  2
*D2
  0
ENDTAB
  0
TABLE
  2
DIMSTYLE
  5
A
100
AcDbSymbolTable
 70
1
100
AcDbDimStyleTable
 71
0
  0
DIMSTYLE
105
21D
100
AcDbSymbolTableRecord
100
AcDbDimStyleTableRecord
  2
STANDARD
 70
0
  3

  4

 40
1.0
 41
3.0
 42
0.5
 43
0.38
 44
1.5
 45
0.0
 46
0.0
 47
0.01
 48
0.01
140
3.0
141
0.09
142
0.0
143
25.4
144
1.0
145
0.0
146
1.0
147
0.625
 71
1
 72
0
 73
0
 74
0
 75
0
 76
0
 77
1
 78
8
 79
2
170
0
171
1
172
0
173
0
174
0
175
0
176
0
177
0
178
0
270
2
179
2
271
2
272
2
273
2
274
2
275
0
280
0
281
0
282
0
283
1
284
8
285
0
286
0
287
3
288
0
340
11
278
44
341
219
342
219
343
219
344
219
  0
DIMSTYLE
105
21E
100
AcDbSymbolTableRecord
100
AcDbDimStyleTableRecord
  2
DIMSTYLE_1
 70
0
  3

  4

 40
1.0
 41
3.0
 42
0.5
 43
0.38
 44
1.5
 45
0.0
 46
0.0
 47
0.0
 48
0.0
140
3.0
141
0.09
142
0.0
143
25.4
144
1.0
145
0.0
146
1.0
147
0.75
 71
0
 72
0
 73
0
 74
0
 75
0
 76
0
 77
1
 78
8
 79
2
170
0
171
1
172
0
173
0
174
0
175
0
176
0
177
0
178
0
270
2
179
2
271
2
272
2
273
2
274
2
275
0
280
0
281
0
282
0
283
1
284
8
285
0
286
0
287
3
288
0
340
11
278
44
341
219
342
219
343
219
344
219
  0
DIMSTYLE
105
21F
100
AcDbSymbolTableRecord
100
AcDbDimStyleTableRecord
  2
DIMSTYLE_2
 70
0
  3

  4

 40
1.0
 41
3.0
 42
0.5
 43
0.38
 44
1.5
 45
0.0
 46
0.0
 47
0.0
 48
0.0
140
3.0
141
0.09
142
0.0
143
25.4
144
1.0
145
0.0
146
1.0
147
0.75
 71
0
 72
0
 73
0
 74
0
 75
0
 76
0
 77
1
 78
8
 79
2
170
0
171
1
172
0
173
0
174
0
175
0
176
0
177
0
178
0
270
2
179
2
271
1
272
1
273
2
274
2
275
0
280
0
281
0
282
0
283
1
284
8
285
0
286
0
287
3
288
0
340
11
278
44
341
219
342
219
343
219
344
219
  0
ENDTAB
  0
ENDSEC
  0
SECTION
  2
BLOCKS
  0
BLOCK
  5
20
100
AcDbEntity
  8
0
100
AcDbBlockBegin
  2
*Model_Space
 70
0
 10
0.0
 20
0.0
 30
0.0
  3
*Model_Space
  1

  0
ENDBLK
  5
21
100
AcDbEntity
  8
0
100
AcDbBlockEnd
  0
BLOCK
  5
1C
100
AcDbEntity
  8
0
100
AcDbBlockBegin
  2
*Paper_Space
 70
0
 10
0.0
 20
0.0
 30
0.0
  3
*Paper_Space
  1

  0
ENDBLK
  5
1D
100
AcDbEntity
  8
0
100
AcDbBlockEnd
  0
BLOCK
  5
220
100
AcDbEntity
  8
0
100
AcDbBlockBegin
  2
_FILLED
 70
64
 10
0.0
 20
0.0
  3
_FILLED
  1

  0
SOLID
  5
221
100
AcDbEntity
  8
0
  6
BYBLOCK
 62
0
100
AcDbTrace
 10
0.0
 20
0.0
 11
-1.0
 21
0.3166666667
 12
-1.0
 22
-0.3166666667
 13
-1.0
 23
-0.3166666667
  0
ENDBLK
  5
222
100
AcDbEntity
  8
0
  6
BYBLOCK
 62
0
100
AcDbBlockEnd
  0
BLOCK
  5
223
100
AcDbEntity
  8
0
100
AcDbBlockBegin
 62
7
  6
CONTINUOUS
  2
*D0
 70
65
 10
0.0
 20
0.0
  3
*D0
  1

  0
LINE
  5
224
100
AcDbEntity
  8
0
100
AcDbLine
 62
7
  6
CONTINUOUS
 10
124.4650547557
 20
115.3081003289
 11
124.4650547557
 21
138.5040929878
  0
LINE
  5
225
100
AcDbEntity
  8
0
100
AcDbLine
 62
7
  6
CONTINUOUS
 10
117.4650547557
 20
107.8081003289
 11
117.4650547557
 21
138.5040929878
  0
LINE
  5
226
100
AcDbEntity
  8
0
100
AcDbLine
 62
7
  6
CONTINUOUS
 10
124.4650547557
 20
137.0040929878
 11
120.9650547557
 21
137.0040929878
  0
LINE
  5
227
100
AcDbEntity
  8
0
100
AcDbLine
 62
7
  6
CONTINUOUS
 10
120.9650547557
 20
137.0040929878
 11
132.7844954815
 21
137.0040929878
  0
LINE
  5
228
100
AcDbEntity
  8
0
100
AcDbLine
 62
7
  6
CONTINUOUS
 10
117.4650547557
 20
137.0040929878
 11
120.9650547557
 21
137.0040929878
  0
INSERT
  5
229
100
AcDbEntity
  8
0
100
AcDbBlockReference
 62
7
  6
CONTINUOUS
  2
_FILLED
 10
124.4650547557
 20
137.0040929878
 41
3.0
 42
3.0
 43
3.0
  0
INSERT
  5
22A
100
AcDbEntity
  8
0
100
AcDbBlockReference
 62
7
  6
CONTINUOUS
  2
_FILLED
 10
117.4650547557
 20
137.0040929878
 41
3.0
 42
3.0
 43
3.0
 50
180.0
  0
ENDBLK
  5
22B
100
AcDbEntity
  8
0
  6
BYBLOCK
 62
0
100
AcDbBlockEnd
  0
BLOCK
  5
22C
100
AcDbEntity
  8
0
100
AcDbBlockBegin
 62
7
  6
CONTINUOUS
  2
*D1
 70
65
 10
0.0
 20
0.0
  3
*D1
  1

  0
LINE
  5
22D
100
AcDbEntity
  8
0
100
AcDbLine
 62
7
  6
CONTINUOUS
 10
147.3914374345
 20
129.1858511173
 11
147.3914374345
 21
139.4282813937
  0
LINE
  5
22E
100
AcDbEntity
  8
0
100
AcDbLine
 62
7
  6
CONTINUOUS
 10
192.1435543418
 20
129.1858511173
 11
192.1435543418
 21
139.4282813937
  0
LINE
  5
22F
100
AcDbEntity
  8
0
100
AcDbLine
 62
7
  6
CONTINUOUS
 10
147.3914374345
 20
137.9282813937
 11
169.7674958882
 21
137.9282813937
  0
LINE
  5
230
100
AcDbEntity
  8
0
100
AcDbLine
 62
7
  6
CONTINUOUS
 10
192.1435543418
 20
137.9282813937
 11
169.7674958882
 21
137.9282813937
  0
INSERT
  5
231
100
AcDbEntity
  8
0
100
AcDbBlockReference
 62
7
  6
CONTINUOUS
  2
_FILLED
 10
147.3914374345
 20
137.9282813937
 41
3.0
 42
3.0
 43
3.0
 50
180.0
  0
INSERT
  5
232
100
AcDbEntity
  8
0
100
AcDbBlockReference
 62
7
  6
CONTINUOUS
  2
_FILLED
 10
192.1435543418
 20
137.9282813937
 41
3.0
 42
3.0
 43
3.0
  0
ENDBLK
  5
233
100
AcDbEntity
  8
0
  6
BYBLOCK
 62
0
100
AcDbBlockEnd
  0
BLOCK
  5
234
100
AcDbEntity
  8
0
100
AcDbBlockBegin
 62
7
  6
CONTINUOUS
  2
*D2
 70
65
 10
0.0
 20
0.0
  3
*D2
  1

  0
LINE
  5
235
100
AcDbEntity
  8
0
100
AcDbLine
 62
7
  6
CONTINUOUS
 10
191.8441633014
 20
129.4862172806
 11
204.1411443655
 21
129.4862172806
  0
LINE
  5
236
100
AcDbEntity
  8
0
100
AcDbLine
 62
7
  6
CONTINUOUS
 10
191.8441633014
 20
85.1299833773
 11
204.1411443655
 21
85.1299833773
  0
LINE
  5
237
100
AcDbEntity
  8
0
100
AcDbLine
 62
7
  6
CONTINUOUS
 10
202.6411443655
 20
129.4862172806
 11
202.6411443655
 21
107.3081003289
  0
LINE
  5
238
100
AcDbEntity
  8
0
100
AcDbLine
 62
7
  6
CONTINUOUS
 10
202.6411443655
 20
85.1299833773
 11
202.6411443655
 21
107.3081003289
  0
INSERT
  5
239
100
AcDbEntity
  8
0
100
AcDbBlockReference
 62
7
  6
CONTINUOUS
  2
_FILLED
 10
202.6411443655
 20
129.4862172806
 41
3.0
 42
3.0
 43
3.0
 50
90.0
  0
INSERT
  5
23A
100
AcDbEntity
  8
0
100
AcDbBlockReference
 62
7
  6
CONTINUOUS
  2
_FILLED
 10
202.6411443655
 20
85.1299833773
 41
3.0
 42
3.0
 43
3.0
 50
270.0
  0
ENDBLK
  5
23B
100
AcDbEntity
  8
0
  6
BYBLOCK
 62
0
100
AcDbBlockEnd
  0
ENDSEC
  0
SECTION
  2
ENTITIES
  0
DIMENSION
  5
23C
100
AcDbEntity
  8
0
100
AcDbDimension
 62
7
  6
CONTINUOUS
  2
*D0
 10
117.4650547557
 20
137.0040929878
 11
130.4273526243
 21
137.0040929878
 70
160
 71
1
 72
2
 41
0.9
 42
7.0
  3
DIMSTYLE_1
100
AcDbAlignedDimension
 13
124.4650547557
 23
114.8081003289
 14
117.4650547557
 24
107.3081003289
 50
180.0
100
AcDbRotatedDimension
  0
DIMENSION
  5
23D
100
AcDbEntity
  8
0
100
AcDbDimension
 62
7
  6
CONTINUOUS
  2
*D1
 10
192.1435543418
 20
137.9282813937
 11
165.3746387453
 21
137.9282813937
 70
160
 71
2
 72
2
 41
0.9
 42
44.7521169074
  3
DIMSTYLE_2
100
AcDbAlignedDimension
 13
147.3914374345
 23
128.6858511173
 14
192.1435543418
 24
128.6858511173
100
AcDbRotatedDimension
  0
DIMENSION
  5
23E
100
AcDbEntity
  8
0
100
AcDbDimension
 62
7
  6
CONTINUOUS
  2
*D2
 10
202.6411443655
 20
85.1299833773
 11
202.6411443655
 21
102.9152431861
 70
160
 71
2
 72
2
 41
0.9
 42
44.3562339034
  3
DIMSTYLE_2
100
AcDbAlignedDimension
 13
191.3441633014
 23
129.4862172806
 14
191.3441633014
 24
85.1299833773
 50
270.0
100
AcDbRotatedDimension
  0
LWPOLYLINE
  5
23F
100
AcDbEntity
  8
ASSI
100
AcDbPolyline
 62
250
  6
CONTINUOUS
 90
13
 70
0
 10
147.4686031011
 20
127.8186204301
 10
147.4727825689
 20
127.8214538713
 10
147.4828840979
 20
127.824266222
 10
147.4988325063
 20
127.827036551
 10
147.5205090966
 20
127.8297442398
 10
147.5477525389
 20
127.8323691362
 10
147.5803600712
 20
127.8348917042
 10
147.6180890089
 20
127.8372931693
 10
147.6606585509
 20
127.8395556584
 10
147.7077518694
 20
127.8416623327
 10
147.759018468
 20
127.8435975131
 10
147.8140767902
 20
127.8453467969
 10
147.8725170593
 20
127.8468971649
  0
LWPOLYLINE
  5
240
100
AcDbEntity
  8
ASSI
100
AcDbPolyline
 62
250
  6
CONTINUOUS
 90
14
 70
0
 10
147.468603101
 20
86.7975802278
 10
147.4727820834
 20
86.7947467623
 10
147.4828831877
 20
86.7919343854
 10
147.4988312347
 20
86.7891640286
 10
147.5205075286
 20
86.7864563107
 10
147.5477507399
 20
86.7838313845
 10
147.5803581066
 20
86.7813087863
 10
147.6180869429
 20
86.778907291
 10
147.6606564459
 20
86.7766447721
 10
147.707749785
 20
86.7745380688
 10
147.7590164602
 20
86.7726028605
 10
147.8140749109
 20
86.7708535504
 10
147.8725153556
 20
86.7693031581
 10
147.9977804825
 20
86.7668437163
  0
LWPOLYLINE
  5
241
100
AcDbEntity
  8
ASSI
100
AcDbPolyline
 62
250
  6
CONTINUOUS
 90
19
 70
0
 10
147.4570343424
 20
86.1273002988
 10
147.4601381796
 20
86.0577121059
 10
147.4692988305
 20
85.9886528353
 10
147.4844466757
 20
85.9206474547
 10
147.5054665827
 20
85.8542129222
 10
147.5321987802
 20
85.7898542589
 10
147.5644400723
 20
85.7280607089
 10
147.6019453846
 20
85.6693020161
 10
147.6444296246
 20
85.6140248586
 10
147.6915698459
 20
85.562649454
 10
147.7430077113
 20
85.5155663547
 10
147.7983522107
 20
85.4731334876
 10
147.8571826268
 20
85.4356734349
 10
147.9190517499
 20
85.4034709697
 10
147.9834892675
 20
85.3767708999
 10
148.050005329
 20
85.355776209
 10
148.118094289
 20
85.3406465034
 10
148.187238553
 20
85.3314968031
 10
148.2569124985
 20
85.3283966709
  0
LWPOLYLINE
  5
242
100
AcDbEntity
  8
ASSI
100
AcDbPolyline
 62
250
  6
CONTINUOUS
 90
19
 70
0
 10
147.4570343424
 20
128.4889003591
 10
147.4601382228
 20
128.558489042
 10
147.4692989909
 20
128.6275487283
 10
147.4844470088
 20
128.6955544428
 10
147.5054671248
 20
128.7619892223
 10
147.5321995491
 20
128.8263480456
 10
147.5644410681
 20
128.8881416721
 10
147.6019465895
 20
128.9469003615
 10
147.6444310054
 20
129.0021774443
 10
147.6915713592
 20
129.0535527172
 10
147.7430093014
 20
129.1006356379
 10
147.7983538129
 20
129.143068293
 10
147.8571841781
 20
129.1805281198
 10
147.9190531824
 20
129.2127303575
 10
147.9834905126
 20
129.2394302125
 10
148.0500063315
 20
129.2604247187
 10
148.1180950016
 20
129.2755542811
 10
148.1872389291
 20
129.2847038882
 10
148.2569124985
 20
129.2878039869
  0
LWPOLYLINE
  5
243
100
AcDbEntity
  8
ASSI
100
AcDbPolyline
 62
250
  6
CONTINUOUS
 90
8
 70
0
 10
147.4627211501
 20
128.3886939117
 10
147.4619713548
 20
128.4127008236
 10
147.461193345
 20
128.4335827096
 10
147.4603878693
 20
128.4513851299
 10
147.4595679309
 20
128.4658444667
 10
147.4587378641
 20
128.4768728476
 10
147.4578933346
 20
128.4845581451
 10
147.4570343424
 20
128.4889003591
  0
LWPOLYLINE
  5
244
100
AcDbEntity
  8
ASSI
100
AcDbPolyline
 62
250
  6
CONTINUOUS
 90
5
 70
0
 10
148.260273895
 20
129.207080412
 10
148.2594542565
 20
129.2381164446
 10
148.2586227472
 20
129.2619892944
 10
148.2577754945
 20
129.2785793978
 10
148.2569124985
 20
129.2878039869
  0
LINE
  5
245
100
AcDbEntity
  8
ASSI
100
AcDbLine
 62
250
  6
CONTINUOUS
 10
147.464127585
 20
128.3318419892
 11
147.4627211501
 21
128.3886939117
  0
LINE
  5
246
100
AcDbEntity
  8
ASSI
100
AcDbLine
 62
250
  6
CONTINUOUS
 10
147.4653798937
 20
128.2641975882
 11
147.464127585
 21
128.3318419892
  0
LINE
  5
247
100
AcDbEntity
  8
ASSI
100
AcDbLine
 62
250
  6
CONTINUOUS
 10
148.2618543245
 20
129.1241655837
 11
148.260273895
 21
129.207080412
  0
LINE
  5
248
100
AcDbEntity
  8
ASSI
100
AcDbLine
 62
250
  6
CONTINUOUS
 10
147.4669169017
 20
128.1456465127
 11
147.4653798937
 21
128.2641975882
  0
LINE
  5
249
100
AcDbEntity
  8
ASSI
100
AcDbLine
 62
250
  6
CONTINUOUS
 10
148.2640081431
 20
128.9509843708
 11
148.2618543245
 21
129.1241655837
  0
LINE
  5
24A
100
AcDbEntity
  8
ASSI
100
AcDbLine
 62
250
  6
CONTINUOUS
 10
148.2667938022
 20
128.5527452143
 11
148.2640081431
 21
128.9509843708
  0
LINE
  5
24B
100
AcDbEntity
  8
ASSI
100
AcDbLine
 62
250
  6
CONTINUOUS
 10
147.4682288443
 20
127.9641044573
 11
147.4669169017
 21
128.1456465127
  0
LINE
  5
24C
100
AcDbEntity
  8
ASSI
100
AcDbLine
 62
7
  6
CONTINUOUS
 10
147.3674958882
 20
99.8081003289
 11
147.3674958882
 21
102.7556071308
  0
LINE
  5
24D
100
AcDbEntity
  8
ASSI
100
AcDbLine
 62
7
  6
CONTINUOUS
 10
147.3674958882
 20
111.8605935271
 11
147.3674958882
 21
114.8081003289
  0
LINE
  5
24E
100
AcDbEntity
  8
ASSI
100
AcDbLine
 62
7
  6
CONTINUOUS
 10
147.3779689271
 20
103.266265916
 11
147.3779689271
 21
111.3499347419
  0
LINE
  5
24F
100
AcDbEntity
  8
ASSI
100
AcDbLine
 62
7
  6
CONTINUOUS
 10
147.3674958882
 20
99.8081003289
 11
147.3914374345
 21
85.9303495406
  0
LINE
  5
250
100
AcDbEntity
  8
ASSI
100
AcDbLine
 62
7
  6
CONTINUOUS
 10
147.3914374345
 20
128.6858511173
 11
147.3674958882
 21
114.8081003289
  0
LINE
  5
251
100
AcDbEntity
  8
ASSI
100
AcDbLine
 62
250
  6
CONTINUOUS
 10
148.2672044105
 20
86.156134184
 11
148.2667938022
 21
128.5527452143
  0
LINE
  5
252
100
AcDbEntity
  8
ASSI
100
AcDbLine
 62
250
  6
CONTINUOUS
 10
147.4682292393
 20
86.6521858228
 11
147.4682288443
 21
127.9641044573
  0
LINE
  5
253
100
AcDbEntity
  8
ASSI
100
AcDbLine
 62
250
  6
CONTINUOUS
 10
148.2646529651
 20
85.734832168
 11
148.2672044105
 21
86.156134184
  0
LINE
  5
254
100
AcDbEntity
  8
ASSI
100
AcDbLine
 62
250
  6
CONTINUOUS
 10
147.4669182317
 20
86.4706841066
 11
147.4682292393
 21
86.6521858228
  0
LINE
  5
255
100
AcDbEntity
  8
ASSI
100
AcDbLine
 62
250
  6
CONTINUOUS
 10
148.2626035633
 20
85.5435122629
 11
148.2646529651
 21
85.734832168
  0
LINE
  5
256
100
AcDbEntity
  8
ASSI
100
AcDbLine
 62
250
  6
CONTINUOUS
 10
147.46538214
 20
86.3521433279
 11
147.4669182317
 21
86.4706841066
  0
LINE
  5
257
100
AcDbEntity
  8
ASSI
100
AcDbLine
 62
250
  6
CONTINUOUS
 10
147.4641300833
 20
86.2844755727
 11
147.46538214
 21
86.3521433279
  0
LINE
  5
258
100
AcDbEntity
  8
ASSI
100
AcDbLine
 62
7
  6
CONTINUOUS
 10
147.3674958882
 20
102.7556071308
 11
147.3700020492
 21
102.7681685669
  0
LINE
  5
259
100
AcDbEntity
  8
ASSI
100
AcDbLine
 62
250
  6
CONTINUOUS
 10
191.6624739381
 20
86.7693037006
 11
191.537209496
 21
86.7668443173
  0
LINE
  5
25A
100
AcDbEntity
  8
ASSI
100
AcDbLine
 62
250
  6
CONTINUOUS
 10
191.537209496
 20
86.7668443173
 11
191.4039012783
 21
86.7652982581
  0
LINE
  5
25B
100
AcDbEntity
  8
ASSI
100
AcDbLine
 62
7
  6
CONTINUOUS
 10
148.1908284749
 20
85.1299833773
 11
191.3441633014
 21
85.1299833773
  0
LINE
  5
25C
100
AcDbEntity
  8
ASSI
100
AcDbLine
 62
250
  6
CONTINUOUS
 10
191.2780792778
 20
85.328396671
 11
148.2569124985
 21
85.328396671
  0
LINE
  5
25D
100
AcDbEntity
  8
ASSI
100
AcDbLine
 62
250
  6
CONTINUOUS
 10
147.9977804825
 20
86.7668437163
 11
148.1310895544
 21
86.7652976176
  0
LINE
  5
25E
100
AcDbEntity
  8
ASSI
100
AcDbLine
 62
7
  6
CONTINUOUS
 10
147.3674958882
 20
111.8605935271
 11
147.3700020492
 21
111.848032091
  0
LWPOLYLINE
  5
25F
100
AcDbEntity
  8
ASSI
100
AcDbPolyline
 62
250
  6
CONTINUOUS
 90
7
 70
0
 10
148.2569124985
 20
85.328396671
 10
148.2577756143
 20
85.3376216246
 10
148.2586229537
 20
85.354212303
 10
148.259454517
 20
85.378085712
 10
148.2602741542
 20
85.4091218457
 10
148.2610780152
 20
85.4471668856
 10
148.2626035633
 20
85.5435122629
  0
LINE
  5
260
100
AcDbEntity
  8
ASSI
100
AcDbLine
 62
250
  6
CONTINUOUS
 10
191.4039012783
 20
86.7652982581
 11
191.2665105192
 21
86.7647114639
  0
LWPOLYLINE
  5
261
100
AcDbEntity
  8
ASSI
100
AcDbPolyline
 62
250
  6
CONTINUOUS
 90
3
 70
0
 10
148.1310895544
 20
86.7652976176
 10
148.1995288108
 20
86.7648825322
 10
191.2665105192
 20
86.7647108045
  0
LWPOLYLINE
  5
262
100
AcDbEntity
  8
ASSI
100
AcDbPolyline
 62
250
  6
CONTINUOUS
 90
9
 70
0
 10
147.4570343424
 20
86.1273002988
 10
147.4578939717
 20
86.1316491106
 10
147.4587390217
 20
86.1393422954
 10
147.4595694922
 20
86.150379853
 10
147.4603896821
 20
86.1648492449
 10
147.4611952925
 20
86.1826630097
 10
147.4619734275
 20
86.2035587633
 10
147.4627234049
 20
86.227584447
 10
147.4641300833
 20
86.2844755727
  0
LINE
  5
263
100
AcDbEntity
  8
ASSI
100
AcDbLine
 62
250
  6
CONTINUOUS
 10
147.3914374345
 20
85.9303495406
 11
147.4570343424
 21
86.1273002988
  0
LINE
  5
264
100
AcDbEntity
  8
ASSI
100
AcDbLine
 62
250
  6
CONTINUOUS
 10
147.4570343424
 20
128.4889003591
 11
147.3914374345
 21
128.6858511173
  0
LINE
  5
265
100
AcDbEntity
  8
ASSI
100
AcDbLine
 62
250
  6
CONTINUOUS
 10
148.1908284749
 20
85.1299833773
 11
148.2569124985
 21
85.328396671
  0
LINE
  5
266
100
AcDbEntity
  8
ASSI
100
AcDbLine
 62
250
  6
CONTINUOUS
 10
148.2569124985
 20
129.2878039869
 11
148.1908284749
 21
129.4862172806
  0
LWPOLYLINE
  5
267
100
AcDbEntity
  8
0
100
AcDbPolyline
 62
7
  6
CONTINUOUS
 90
3
 70
0
 43
0.3500000006
 10
170.8032062988
 20
138.9639911499
 10
170.7317841797
 20
138.749706665
 10
170.588921814
 20
138.464000061
  0
LWPOLYLINE
  5
268
100
AcDbEntity
  8
0
100
AcDbPolyline
 62
7
  6
CONTINUOUS
 90
2
 70
0
 43
0.3500000006
 10
166.3746361084
 20
138.6782845459
 10
166.3746361084
 20
140.1782759399
  0
LWPOLYLINE
  5
269
100
AcDbEntity
  8
0
100
AcDbPolyline
 62
7
  6
CONTINUOUS
 90
2
 70
0
 43
0.3500000006
 10
201.8911519775
 20
103.9152448425
 10
200.3911424561
 20
103.9152448425
  0
LWPOLYLINE
  5
26A
100
AcDbEntity
  8
0
100
AcDbPolyline
 62
7
  6
CONTINUOUS
 90
2
 70
0
 43
0.3500000006
 10
168.7317835693
 20
138.6782845459
 10
168.7317835693
 20
140.1782759399
  0
LWPOLYLINE
  5
26B
100
AcDbEntity
  8
0
100
AcDbPolyline
 62
7
  6
CONTINUOUS
 90
2
 70
0
 43
0.3500000006
 10
201.8911519775
 20
106.2723832397
 10
200.3911424561
 20
106.2723832397
  0
LWPOLYLINE
  5
26C
100
AcDbEntity
  8
0
100
AcDbPolyline
 62
7
  6
CONTINUOUS
 90
4
 70
0
 43
0.3500000006
 10
171.803206604
 20
139.1068535156
 10
171.803206604
 20
139.9639914551
 10
172.2317755737
 20
140.3925604248
 10
172.8746471558
 20
140.3925604248
  0
LWPOLYLINE
  5
26D
100
AcDbEntity
  8
0
100
AcDbPolyline
 62
7
  6
CONTINUOUS
 90
2
 70
0
 43
0.3500000006
 10
201.8911519775
 20
110.3438156433
 10
200.3911424561
 20
110.3438156433
  0
LWPOLYLINE
  5
26E
100
AcDbEntity
  8
0
100
AcDbPolyline
 62
7
  6
CONTINUOUS
 90
3
 70
0
 43
0.3500000006
 10
201.6054272461
 20
108.343815033
 10
201.819711731
 20
108.2723838501
 10
202.1054364624
 20
108.1295305481
  0
LINE
  5
26F
100
AcDbEntity
  8
ASSI
100
AcDbLine
 62
250
  6
CONTINUOUS
 10
191.3441633014
 20
129.4862172806
 11
191.2780792778
 21
129.2878039869
  0
LINE
  5
270
100
AcDbEntity
  8
ASSI
100
AcDbLine
 62
250
  6
CONTINUOUS
 10
192.1435543418
 20
128.6858511173
 11
192.0779574339
 21
128.4889003591
  0
LWPOLYLINE
  5
271
100
AcDbEntity
  8
0
100
AcDbPolyline
 62
7
  6
CONTINUOUS
 90
10
 70
0
 43
0.3500000006
 10
201.3911427612
 20
108.2723838501
 10
201.534005127
 20
108.343815033
 10
201.6054272461
 20
108.343815033
 10
201.7482896118
 20
108.200961731
 10
201.7482896118
 20
108.1295305481
 10
201.6768674927
 20
108.0580993652
 10
201.6054272461
 20
108.0580993652
 10
201.4625648804
 20
108.1295305481
 10
201.3911427612
 20
108.200961731
 10
201.3911427612
 20
108.2723838501
  0
LINE
  5
272
100
AcDbEntity
  8
ASSI
100
AcDbLine
 62
250
  6
CONTINUOUS
 10
191.2780792778
 20
85.328396671
 11
191.3441633014
 21
85.1299833773
  0
LINE
  5
273
100
AcDbEntity
  8
ASSI
100
AcDbLine
 62
250
  6
CONTINUOUS
 10
192.0779574339
 20
86.1273002988
 11
192.1435543418
 21
85.9303495406
  0
LWPOLYLINE
  5
274
100
AcDbEntity
  8
0
100
AcDbPolyline
 62
7
  6
CONTINUOUS
 90
10
 70
0
 43
0.3500000006
 10
170.7317841797
 20
139.1782756348
 10
170.8032062988
 20
139.0354313965
 10
170.8032062988
 20
138.9639911499
 10
170.6603620605
 20
138.8211469116
 10
170.588921814
 20
138.8211469116
 10
170.5174996948
 20
138.8925690308
 10
170.5174996948
 20
138.9639911499
 10
170.588921814
 20
139.1068535156
 10
170.6603620605
 20
139.1782756348
 10
170.7317841797
 20
139.1782756348
  0
LWPOLYLINE
  5
275
100
AcDbEntity
  8
ASSI
100
AcDbPolyline
 62
250
  6
CONTINUOUS
 90
9
 70
0
 10
192.0779574339
 20
128.4889003591
 10
192.0770984417
 20
128.4845581451
 10
192.0762539122
 20
128.4768728476
 10
192.0754238455
 20
128.4658444667
 10
192.074603907
 20
128.4513851299
 10
192.0737984313
 20
128.4335827096
 10
192.0730204216
 20
128.4127008236
 10
192.0722706262
 20
128.3886939118
 10
192.0708641914
 20
128.3318419892
  0
LWPOLYLINE
  5
276
100
AcDbEntity
  8
ASSI
100
AcDbPolyline
 62
250
  6
CONTINUOUS
 90
5
 70
0
 10
191.2747176221
 20
85.4091218457
 10
191.2755372593
 20
85.378085712
 10
191.2763688226
 20
85.354212303
 10
191.277216162
 20
85.3376216246
 10
191.2780792778
 20
85.328396671
  0
LINE
  5
277
100
AcDbEntity
  8
ASSI
100
AcDbLine
 62
250
  6
CONTINUOUS
 10
191.2731372273
 20
85.492035978
 11
191.2747176221
 21
85.4091218457
  0
LINE
  5
278
100
AcDbEntity
  8
ASSI
100
AcDbLine
 62
250
  6
CONTINUOUS
 10
191.2709831392
 20
85.6652206048
 11
191.2731372273
 21
85.492035978
  0
LINE
  5
279
100
AcDbEntity
  8
ASSI
100
AcDbLine
 62
250
  6
CONTINUOUS
 10
191.2731374519
 20
129.1241655837
 11
191.2709836332
 21
128.9509843708
  0
LWPOLYLINE
  5
27A
100
AcDbEntity
  8
ASSI
100
AcDbPolyline
 62
250
  6
CONTINUOUS
 90
6
 70
0
 10
191.2780792778
 20
129.2878039869
 10
191.2772162818
 20
129.2785793978
 10
191.2763690292
 20
129.2619892944
 10
191.2755375199
 20
129.2381164446
 10
191.2747178813
 20
129.207080412
 10
191.2731374519
 20
129.1241655837
  0
LINE
  5
27B
100
AcDbEntity
  8
ASSI
100
AcDbLine
 62
7
  6
CONTINUOUS
 10
192.1674958882
 20
111.8605935271
 11
192.1649897271
 21
111.848032091
  0
LINE
  5
27C
100
AcDbEntity
  8
ASSI
100
AcDbLine
 62
250
  6
CONTINUOUS
 10
147.8725170593
 20
127.8468971649
 11
147.9977817162
 21
127.8493565646
  0
LINE
  5
27D
100
AcDbEntity
  8
ASSI
100
AcDbLine
 62
250
  6
CONTINUOUS
 10
147.9977817162
 20
127.8493565646
 11
148.1310902019
 21
127.8509026319
  0
LINE
  5
27E
100
AcDbEntity
  8
ASSI
100
AcDbLine
 62
250
  6
CONTINUOUS
 10
148.1310902019
 20
127.8509026319
 11
148.2684812572
 21
127.8514894257
  0
LINE
  5
27F
100
AcDbEntity
  8
ASSI
100
AcDbLine
 62
250
  6
CONTINUOUS
 10
191.3354629655
 20
127.8513181259
 11
148.2684812572
 21
127.8514898534
  0
LINE
  5
280
100
AcDbEntity
  8
ASSI
100
AcDbLine
 62
250
  6
CONTINUOUS
 10
191.471318918
 20
127.8502476867
 11
191.3354629655
 21
127.8513181259
  0
LINE
  5
281
100
AcDbEntity
  8
ASSI
100
AcDbLine
 62
7
  6
CONTINUOUS
 10
192.1674958882
 20
102.7556071308
 11
192.1649897271
 21
102.7681685669
  0
LWPOLYLINE
  5
282
100
AcDbEntity
  8
ASSI
100
AcDbPolyline
 62
250
  6
CONTINUOUS
 90
19
 70
0
 10
192.0779574339
 20
128.4889003591
 10
192.0748536199
 20
128.5584882911
 10
192.0656930316
 20
128.6275473398
 10
192.0505452789
 20
128.6955525413
 10
192.0295254845
 20
128.7619869401
 10
192.0027934095
 20
128.8263455157
 10
191.9705522407
 20
128.8881390225
 10
191.9330470426
 20
128.946897715
 10
191.8905628995
 20
129.0021749105
 10
191.8434227521
 20
129.0535503843
 10
191.7919849306
 20
129.1006335785
 10
191.7366404405
 20
129.1430665591
 10
191.677809999
 20
129.1805267336
 10
191.6159408132
 20
129.2127293221
 10
191.551503195
 20
129.2394295087
 10
191.4849870016
 20
129.2604243007
 10
191.4168978822
 20
129.275554085
 10
191.3477534323
 20
129.2847038366
 10
191.2780792778
 20
129.2878039871
  0
LWPOLYLINE
  5
283
100
AcDbEntity
  8
ASSI
100
AcDbPolyline
 62
250
  6
CONTINUOUS
 90
8
 70
0
 10
192.0722683714
 20
86.227584447
 10
192.0730183488
 20
86.2035587633
 10
192.0737964838
 20
86.1826630098
 10
192.0746020942
 20
86.1648492449
 10
192.0754222841
 20
86.150379853
 10
192.0762527546
 20
86.1393422954
 10
192.0770978046
 20
86.1316491106
 10
192.0779574339
 20
86.1273002988
  0
LINE
  5
284
100
AcDbEntity
  8
ASSI
100
AcDbLine
 62
250
  6
CONTINUOUS
 10
192.070861693
 20
86.2844755727
 11
192.0722683714
 21
86.227584447
  0
LINE
  5
285
100
AcDbEntity
  8
ASSI
100
AcDbLine
 62
250
  6
CONTINUOUS
 10
192.0696096363
 20
86.3521433279
 11
192.070861693
 21
86.2844755727
  0
LINE
  5
286
100
AcDbEntity
  8
ASSI
100
AcDbLine
 62
250
  6
CONTINUOUS
 10
192.0680735446
 20
86.4706841066
 11
192.0696096363
 21
86.3521433279
  0
LINE
  5
287
100
AcDbEntity
  8
ASSI
100
AcDbLine
 62
250
  6
CONTINUOUS
 10
191.2681978655
 20
86.0634580001
 11
191.2709831392
 21
85.6652206048
  0
LINE
  5
288
100
AcDbEntity
  8
ASSI
100
AcDbLine
 62
250
  6
CONTINUOUS
 10
192.066762537
 20
86.6521858227
 11
192.0680735446
 21
86.4706841066
  0
LINE
  5
289
100
AcDbEntity
  8
ASSI
100
AcDbLine
 62
250
  6
CONTINUOUS
 10
192.0613013702
 20
95.9126182363
 11
192.066762537
 21
86.6521858227
  0
LINE
  5
28A
100
AcDbEntity
  8
ASSI
100
AcDbLine
 62
7
  6
CONTINUOUS
 10
192.1435543418
 20
128.6858511173
 11
192.1674958882
 21
114.8081003289
  0
LINE
  5
28B
100
AcDbEntity
  8
ASSI
100
AcDbLine
 62
7
  6
CONTINUOUS
 10
192.1570228492
 20
103.266265916
 11
192.1570228492
 21
111.3499347419
  0
LINE
  5
28C
100
AcDbEntity
  8
ASSI
100
AcDbLine
 62
7
  6
CONTINUOUS
 10
192.1674958882
 20
111.8605935271
 11
192.1674958882
 21
114.8081003289
  0
LINE
  5
28D
100
AcDbEntity
  8
ASSI
100
AcDbLine
 62
250
  6
CONTINUOUS
 10
191.2592434397
 20
109.5909023734
 11
191.2681978655
 21
86.0634580001
  0
LINE
  5
28E
100
AcDbEntity
  8
ASSI
100
AcDbLine
 62
250
  6
CONTINUOUS
 10
192.0591215958
 20
109.587249664
 11
192.0613013702
 21
95.9126182363
  0
LINE
  5
28F
100
AcDbEntity
  8
ASSI
100
AcDbLine
 62
7
  6
CONTINUOUS
 10
192.1674958882
 20
102.7556071308
 11
192.1435543418
 21
85.9303495406
  0
LINE
  5
290
100
AcDbEntity
  8
ASSI
100
AcDbLine
 62
250
  6
CONTINUOUS
 10
192.066762932
 20
127.9641044573
 11
192.0591215958
 21
109.587249664
  0
LINE
  5
291
100
AcDbEntity
  8
ASSI
100
AcDbLine
 62
250
  6
CONTINUOUS
 10
191.2681979741
 20
128.5527452143
 11
191.2592434397
 21
109.5909023734
  0
LINE
  5
292
100
AcDbEntity
  8
ASSI
100
AcDbLine
 62
250
  6
CONTINUOUS
 10
191.2709836332
 20
128.9509843708
 11
191.2681979741
 21
128.5527452143
  0
LINE
  5
293
100
AcDbEntity
  8
ASSI
100
AcDbLine
 62
250
  6
CONTINUOUS
 10
192.0680748746
 20
128.1456465127
 11
192.066762932
 21
127.9641044573
  0
LINE
  5
294
100
AcDbEntity
  8
ASSI
100
AcDbLine
 62
250
  6
CONTINUOUS
 10
192.0696118826
 20
128.2641975882
 11
192.0680748746
 21
128.1456465127
  0
LINE
  5
295
100
AcDbEntity
  8
ASSI
100
AcDbLine
 62
250
  6
CONTINUOUS
 10
192.0708641914
 20
128.3318419892
 11
192.0696118826
 21
128.2641975882
  0
LWPOLYLINE
  5
296
100
AcDbEntity
  8
ASSI
100
AcDbPolyline
 62
250
  6
CONTINUOUS
 90
19
 70
0
 10
192.0779574339
 20
86.1273002988
 10
192.0748535535
 20
86.0577116159
 10
192.0656927854
 20
85.9886519296
 10
192.0505447675
 20
85.9206462151
 10
192.0295246515
 20
85.8542114355
 10
192.0027922272
 20
85.7898526123
 10
191.9705507082
 20
85.7280589858
 10
191.9330451868
 20
85.6693002964
 10
191.8905607709
 20
85.6140232136
 10
191.8434204171
 20
85.5626479406
 10
191.7919824749
 20
85.51556502
 10
191.7366379633
 20
85.4731323649
 10
191.6778075982
 20
85.4356725381
 10
191.6159385938
 20
85.4034703004
 10
191.5515012636
 20
85.3767704454
 10
191.4849854448
 20
85.3557759392
 10
191.4168967747
 20
85.3406463768
 10
191.3477528472
 20
85.3314967697
 10
191.2780792778
 20
85.328396671
  0
LINE
  5
297
100
AcDbEntity
  8
ASSI
100
AcDbLine
 62
250
  6
CONTINUOUS
 10
191.2780792778
 20
129.2878039869
 11
148.2569124985
 21
129.2878039869
  0
LINE
  5
298
100
AcDbEntity
  8
ASSI
100
AcDbLine
 62
7
  6
CONTINUOUS
 10
148.1908284749
 20
129.4862172806
 11
191.3441633014
 21
129.4862172806
  0
LWPOLYLINE
  5
299
100
AcDbEntity
  8
0
100
AcDbPolyline
 62
7
  6
CONTINUOUS
 90
3
 70
0
 43
0.3500000006
 10
201.2482803955
 20
110.8438157959
 10
201.2482803955
 20
109.3438153381
 10
198.891151062
 20
109.9866687927
  0
LWPOLYLINE
  5
29A
100
AcDbEntity
  8
0
100
AcDbPolyline
 62
7
  6
CONTINUOUS
 90
3
 70
0
 43
0.3500000006
 10
201.2482803955
 20
106.7723833923
 10
201.2482803955
 20
105.2723829346
 10
198.891151062
 20
105.9152454529
  0
LWPOLYLINE
  5
29B
100
AcDbEntity
  8
0
100
AcDbPolyline
 62
7
  6
CONTINUOUS
 90
3
 70
0
 43
0.3500000006
 10
201.2482803955
 20
104.4152449951
 10
201.2482803955
 20
102.9152445374
 10
198.891151062
 20
103.5580979919
  0
LWPOLYLINE
  5
29C
100
AcDbEntity
  8
ASSI
100
AcDbPolyline
 62
250
  6
CONTINUOUS
 90
13
 70
0
 10
192.0663886752
 20
86.7975802278
 10
192.0622089853
 20
86.7947468062
 10
192.0521072623
 20
86.7919344756
 10
192.0361586886
 20
86.7891641667
 10
192.0144819627
 20
86.7864564979
 10
191.9872384149
 20
86.783831621
 10
191.9546308069
 20
86.781309072
 10
191.9169018228
 20
86.778907625
 10
191.874332263
 20
86.776645153
 10
191.8272389539
 20
86.7745384945
 10
191.7759723903
 20
86.7726033285
 10
191.7209141269
 20
86.7708540575
 10
191.6624739381
 20
86.7693037006
  0
LWPOLYLINE
  5
29D
100
AcDbEntity
  8
0
100
AcDbPolyline
 62
7
  6
CONTINUOUS
 90
3
 70
0
 43
0.3500000006
 10
169.2317746582
 20
139.3211380005
 10
167.7317832642
 20
139.3211380005
 10
168.3746367188
 20
141.6782854614
  0
LWPOLYLINE
  5
29E
100
AcDbEntity
  8
0
100
AcDbPolyline
 62
7
  6
CONTINUOUS
 90
3
 70
0
 43
0.3500000006
 10
166.8746453247
 20
139.3211380005
 10
165.3746358032
 20
139.3211380005
 10
166.0174892578
 20
141.6782854614
  0
LWPOLYLINE
  5
29F
100
AcDbEntity
  8
ASSI
100
AcDbPolyline
 62
250
  6
CONTINUOUS
 90
15
 70
0
 10
192.0663886753
 20
127.8186204301
 10
192.062209693
 20
127.8214538956
 10
192.0521085887
 20
127.8242662725
 10
192.0361605417
 20
127.8270366294
 10
192.0144842478
 20
127.8297443472
 10
191.9872410365
 20
127.8323692735
 10
191.9546336698
 20
127.8348918717
 10
191.9169048334
 20
127.837293367
 10
191.8743353305
 20
127.8395558859
 10
191.8272419914
 20
127.8416625893
 10
191.7759753162
 20
127.8435977975
 10
191.7209168654
 20
127.8453471076
 10
191.6624764207
 20
127.8468975
 10
191.6010889347
 20
127.8482374357
 10
191.471318918
 20
127.8502476867
  0
LWPOLYLINE
  5
2A0
100
AcDbEntity
  8
0
100
AcDbPolyline
 62
7
  6
CONTINUOUS
 90
13
 70
0
 43
0.3500000006
 10
172.2317755737
 20
140.3925604248
 10
171.9460689697
 20
140.6068449097
 10
171.9460689697
 20
141.2497164917
 10
172.2317755737
 20
141.6782854614
 10
172.8746471558
 20
141.6782854614
 10
173.1603537598
 20
141.2497164917
 10
173.1603537598
 20
140.6068449097
 10
172.8746471558
 20
140.3925604248
 10
173.3032161255
 20
139.9639914551
 10
173.3032161255
 20
139.1068535156
 10
172.8746471558
 20
138.6782845459
 10
172.2317755737
 20
138.6782845459
 10
171.803206604
 20
139.1068535156
  0
LINE
  5
2A1
100
AcDbEntity
  8
ASSI
100
AcDbLine
 62
7
  6
CONTINUOUS
 10
119.3074933077
 20
85.328396671
 11
123.0934444855
 21
85.1299833773
  0
LINE
  5
2A2
100
AcDbEntity
  8
ASSI
100
AcDbLine
 62
250
  6
CONTINUOUS
 10
119.3354001475
 20
86.1273002988
 11
123.0934444855
 21
85.9303495406
  0
LINE
  5
2A3
100
AcDbEntity
  8
ASSI
100
AcDbLine
 62
250
  6
CONTINUOUS
 10
117.8902522605
 20
86.7648831848
 11
117.8872798425
 21
86.7647114639
  0
LINE
  5
2A4
100
AcDbEntity
  8
ASSI
100
AcDbLine
 62
250
  6
CONTINUOUS
 10
117.99204333
 20
86.7693037006
 11
117.8902522605
 21
86.7648831848
  0
LINE
  5
2A5
100
AcDbEntity
  8
ASSI
100
AcDbLine
 62
250
  6
CONTINUOUS
 10
118.6726264096
 20
86.7975802278
 11
117.99204333
 21
86.7693037006
  0
LWPOLYLINE
  5
2A6
100
AcDbEntity
  8
ASSI
100
AcDbPolyline
 62
250
  6
CONTINUOUS
 90
22
 70
0
 10
118.6726264096
 20
86.7975802278
 10
118.676413876
 20
86.7483247984
 10
118.6835533843
 20
86.6998599967
 10
118.6940449346
 20
86.6521858227
 10
118.7079735455
 20
86.6050530007
 10
118.7252541984
 20
86.5587108063
 10
118.745631837
 20
86.5139070673
 10
118.7691525106
 20
86.4706841066
 10
118.7957701699
 20
86.4289996012
 10
118.8250916113
 20
86.3894744093
 10
118.8571551418
 20
86.3521433279
 10
118.8919224544
 20
86.3169715599
 10
118.9288854242
 20
86.2844755727
 10
118.9680818721
 20
86.2546921195
 10
119.0094739771
 20
86.227584447
 10
119.0524401524
 20
86.2035587633
 10
119.0970194745
 20
86.1826630098
 10
119.1431728668
 20
86.1648492449
 10
119.1901615119
 20
86.150379853
 10
119.2377391375
 20
86.1393422954
 10
119.2861520161
 20
86.1316491106
 10
119.3354001475
 20
86.1273002988
  0
LWPOLYLINE
  5
2A7
100
AcDbEntity
  8
ASSI
100
AcDbPolyline
 62
250
  6
CONTINUOUS
 90
28
 70
0
 10
118.6726264096
 20
127.8186204301
 10
118.6124791386
 20
126.2995691317
 10
118.5569606553
 20
124.7804682865
 10
118.5060709597
 20
123.2613178945
 10
118.4598106921
 20
121.7421131714
 10
118.4181792121
 20
120.2228589016
 10
118.381174599
 20
118.7035694383
 10
118.348796641
 20
117.1842448488
 10
118.3210455498
 20
115.6648850658
 10
118.2979200391
 20
114.1455042408
 10
118.2794198952
 20
112.6261023904
 10
118.2655453318
 20
111.106679498
 10
118.2562957039
 20
109.587249664
 10
118.2516707973
 20
108.0678128943
 10
118.2516708262
 20
106.5483691829
 10
118.2562957878
 20
105.0289326133
 10
118.265545468
 20
103.5095031797
 10
118.2794200809
 20
101.9900808878
 10
118.2979202662
 20
100.4706798375
 10
118.3210458101
 20
98.9513000118
 10
118.3487969263
 20
97.4319414278
 10
118.3811748956
 20
95.9126182363
 10
118.4181795069
 20
94.3933303546
 10
118.4598109712
 20
92.8740778654
 10
118.5060712023
 20
91.3548751682
 10
118.556960838
 20
89.8357270627
 10
118.6124792405
 20
88.3166287492
 10
118.6726264096
 20
86.7975802278
  0
LINE
  5
2A8
100
AcDbEntity
  8
ASSI
100
AcDbLine
 62
7
  6
CONTINUOUS
 10
124.4650547557
 20
102.7556071308
 11
124.3214768843
 21
102.7681685669
  0
LINE
  5
2A9
100
AcDbEntity
  8
ASSI
100
AcDbLine
 62
250
  6
CONTINUOUS
 10
119.3354001475
 20
128.4889003591
 11
119.3250484404
 21
128.6955525413
  0
LINE
  5
2AA
100
AcDbEntity
  8
ASSI
100
AcDbLine
 62
250
  6
CONTINUOUS
 10
119.3250484404
 20
128.6955525413
 11
119.3163516908
 21
128.8881390225
  0
LINE
  5
2AB
100
AcDbEntity
  8
ASSI
100
AcDbLine
 62
250
  6
CONTINUOUS
 10
119.3163516908
 20
128.8881390225
 11
119.3117715416
 21
129.0021749105
  0
LWPOLYLINE
  5
2AC
100
AcDbEntity
  8
ASSI
100
AcDbPolyline
 62
250
  6
CONTINUOUS
 90
10
 70
0
 10
119.3117715416
 20
129.0021749105
 10
119.3083322268
 20
129.1006335785
 10
119.3070744509
 20
129.1430665591
 10
119.3061381366
 20
129.1805267336
 10
119.3055304024
 20
129.2127293221
 10
119.3052558694
 20
129.2394295087
 10
119.3053166252
 20
129.2604243007
 10
119.3057122086
 20
129.275554085
 10
119.3064396132
 20
129.2847038366
 10
119.3074933102
 20
129.2878039871
  0
LWPOLYLINE
  5
2AD
100
AcDbEntity
  8
ASSI
100
AcDbPolyline
 62
250
  6
CONTINUOUS
 90
8
 70
0
 10
119.3070744129
 20
85.4731323649
 10
119.3061381145
 20
85.4356725381
 10
119.3055303944
 20
85.4034703004
 10
119.3052558721
 20
85.3767704454
 10
119.3053166346
 20
85.3557759392
 10
119.3057122198
 20
85.3406463768
 10
119.3064396207
 20
85.3314967697
 10
119.3074933077
 20
85.328396671
  0
LINE
  5
2AE
100
AcDbEntity
  8
ASSI
100
AcDbLine
 62
250
  6
CONTINUOUS
 10
119.3099018306
 20
85.5626479406
 11
119.3070744129
 21
85.4731323649
  0
LINE
  5
2AF
100
AcDbEntity
  8
ASSI
100
AcDbLine
 62
250
  6
CONTINUOUS
 10
119.3139268374
 20
85.6693002964
 11
119.3099018306
 21
85.5626479406
  0
LINE
  5
2B0
100
AcDbEntity
  8
ASSI
100
AcDbLine
 62
250
  6
CONTINUOUS
 10
119.3219335641
 20
85.8542114355
 11
119.3139268374
 21
85.6693002964
  0
LWPOLYLINE
  5
2B1
100
AcDbEntity
  8
ASSI
100
AcDbPolyline
 62
250
  6
CONTINUOUS
 90
3
 70
0
 10
119.3354001475
 20
86.1273002988
 10
119.3318073376
 20
86.0577116159
 10
119.3219335641
 20
85.8542114355
  0
LINE
  5
2B2
100
AcDbEntity
  8
ASSI
100
AcDbLine
 62
7
  6
CONTINUOUS
 10
123.0934444855
 20
129.4862172806
 11
123.0934444855
 21
127.8581003289
  0
LINE
  5
2B3
100
AcDbEntity
  8
ASSI
100
AcDbLine
 62
7
  6
CONTINUOUS
 10
123.0934444855
 20
86.7581003289
 11
123.0934444855
 21
85.1299833773
  0
LINE
  5
2B4
100
AcDbEntity
  8
ASSI
100
AcDbLine
 62
7
  6
CONTINUOUS
 10
123.8650547557
 20
103.266265916
 11
123.8650547557
 21
111.3499347419
  0
LINE
  5
2B5
100
AcDbEntity
  8
ASSI
100
AcDbLine
 62
7
  6
CONTINUOUS
 10
123.0934444855
 20
127.8581003289
 11
124.4650547557
 21
114.8081003289
  0
LINE
  5
2B6
100
AcDbEntity
  8
ASSI
100
AcDbLine
 62
7
  6
CONTINUOUS
 10
124.4650547557
 20
99.8081003289
 11
124.4650547557
 21
102.7556071308
  0
LINE
  5
2B7
100
AcDbEntity
  8
ASSI
100
AcDbLine
 62
7
  6
CONTINUOUS
 10
124.4650547557
 20
111.8605935271
 11
124.4650547557
 21
114.8081003289
  0
LINE
  5
2B8
100
AcDbEntity
  8
ASSI
100
AcDbLine
 62
7
  6
CONTINUOUS
 10
124.4650547557
 20
99.8081003289
 11
123.0934444855
 21
86.7581003289
  0
LINE
  5
2B9
100
AcDbEntity
  8
ASSI
100
AcDbLine
 62
7
  6
CONTINUOUS
 10
124.4650547557
 20
111.8605935271
 11
124.3214768843
 21
111.848032091
  0
LWPOLYLINE
  5
2BA
100
AcDbEntity
  8
0
100
AcDbPolyline
 62
7
  6
CONTINUOUS
 90
4
 70
0
 43
0.3500000006
 10
130.4273487854
 20
140.1112406616
 10
130.4273487854
 20
140.7540941162
 10
131.9273492432
 20
140.7540941162
 10
131.0702113037
 20
137.7540932007
  0
LWPOLYLINE
  5
2BB
100
AcDbEntity
  8
ASSI
100
AcDbPolyline
 62
250
  6
CONTINUOUS
 90
22
 70
0
 10
119.3354001475
 20
128.4889003591
 10
119.2861885163
 20
128.4845581451
 10
119.2378054544
 20
128.4768728476
 10
119.1902509617
 20
128.4658444667
 10
119.14327672
 20
128.4513851299
 10
119.0971310475
 20
128.4335827096
 10
119.0525588991
 20
128.4127008236
 10
119.0096031509
 20
128.3886939118
 10
118.9682209268
 20
128.3616075342
 10
118.9290285533
 20
128.3318419892
 10
118.8920612672
 20
128.2993593724
 10
118.8572838317
 20
128.2641975882
 10
118.8252068633
 20
128.2268706478
 10
118.7958675499
 20
128.1873411584
 10
118.7692287035
 20
128.1456465127
 10
118.7456893764
 20
128.1024129008
 10
118.7252979568
 20
128.0576018262
 10
118.7080060565
 20
128.0112517853
 10
118.6940675629
 20
127.9641044573
 10
118.6835671051
 20
127.9164070686
 10
118.676420054
 20
127.8679123929
 10
118.6726264096
 20
127.8186204301
  0
LINE
  5
2BC
100
AcDbEntity
  8
ASSI
100
AcDbLine
 62
250
  6
CONTINUOUS
 10
123.0934444855
 20
128.6858511173
 11
119.3354001475
 21
128.4889003591
  0
LINE
  5
2BD
100
AcDbEntity
  8
ASSI
100
AcDbLine
 62
7
  6
CONTINUOUS
 10
123.0934444855
 20
129.4862172806
 11
119.3074933077
 21
129.2878039869
  0
LWPOLYLINE
  5
2BE
100
AcDbEntity
  8
ASSI
100
AcDbPolyline
 62
250
  6
CONTINUOUS
 90
4
 70
0
 10
118.6726264096
 20
127.8186204301
 10
117.8991358903
 20
127.8509030405
 10
117.8902363899
 20
127.8513181259
 10
117.8872638698
 20
127.8514898534
  0
ARC
  5
2BF
100
AcDbEntity
  8
ASSI
100
AcDbCircle
 62
7
  6
CONTINUOUS
 10
617.4650547557
 20
107.3081003289
 40
500.0
100
AcDbArc
 50
177.6452381281
 51
182.3547618719
  0
ARC
  5
2C0
100
AcDbEntity
  8
ASSI
100
AcDbCircle
 62
7
  6
CONTINUOUS
 10
119.385997242
 20
86.8263409731
 40
1.5
100
AcDbArc
 50
182.3547618719
 51
267.0
  0
ARC
  5
2C1
100
AcDbEntity
  8
ASSI
100
AcDbCircle
 62
7
  6
CONTINUOUS
 10
119.385997242
 20
127.7898596848
 40
1.5
100
AcDbArc
 50
93.0
 51
177.6452381281
  0
ARC
  5
2C2
100
AcDbEntity
  8
ASSI
100
AcDbCircle
 62
7
  6
CONTINUOUS
 10
124.3650547557
 20
103.266265916
 40
0.5
100
AcDbArc
 50
180.0
 51
265.0
  0
ARC
  5
2C3
100
AcDbEntity
  8
ASSI
100
AcDbCircle
 62
7
  6
CONTINUOUS
 10
124.3650547557
 20
111.3499347419
 40
0.5
100
AcDbArc
 50
95.0
 51
180.0
  0
ELLIPSE
  5
2C4
100
AcDbEntity
  8
ASSI
100
AcDbEllipse
 62
7
  6
CONTINUOUS
 10
147.3692413947
 20
103.266265916
 30
0.0
 11
0.0
 21
0.5
 31
0.0
 40
0.0174550649
 41
-3.054326191
 42
-1.5707963268
  0
ELLIPSE
  5
2C5
100
AcDbEntity
  8
ASSI
100
AcDbEllipse
 62
7
  6
CONTINUOUS
 10
147.3692413947
 20
111.3499347419
 30
0.0
 11
0.0
 21
0.5
 31
0.0
 40
0.0174550649
 41
-1.5707963268
 42
-0.0872664626
  0
ELLIPSE
  5
2C6
100
AcDbEntity
  8
ASSI
100
AcDbEllipse
 62
7
  6
CONTINUOUS
 10
192.1657503817
 20
111.3499347419
 30
0.0
 11
0.0
 21
0.5
 31
0.0
 40
0.0174550649
 41
0.0872664626
 42
1.5707963268
  0
ELLIPSE
  5
2C7
100
AcDbEntity
  8
ASSI
100
AcDbEllipse
 62
7
  6
CONTINUOUS
 10
192.1657503817
 20
103.266265916
 30
0.0
 11
0.0
 21
0.5
 31
0.0
 40
0.0174550649
 41
-4.7123889804
 42
-3.2288591162
  0
ELLIPSE
  5
2C8
100
AcDbEntity
  8
ASSI
100
AcDbEllipse
 62
7
  6
CONTINUOUS
 10
191.3434324794
 20
128.6851194038
 30
0.0
 11
0.2531825638
 21
0.7601653717
 31
0.0
 40
0.9984778551
 41
-1.2488325878
 42
0.3210503505
  0
ELLIPSE
  5
2C9
100
AcDbEntity
  8
ASSI
100
AcDbEllipse
 62
7
  6
CONTINUOUS
 10
191.3434324794
 20
85.931081254
 30
0.0
 11
-0.2531825638
 21
0.7601653717
 31
0.0
 40
0.9984778551
 41
-3.4626430041
 42
-1.8927600658
  0
ELLIPSE
  5
2CA
100
AcDbEntity
  8
ASSI
100
AcDbEllipse
 62
7
  6
CONTINUOUS
 10
148.1915592969
 20
85.931081254
 30
0.0
 11
0.2531825638
 21
0.7601653717
 31
0.0
 40
0.9984778551
 41
-4.3904252414
 42
-2.8205423031
  0
ELLIPSE
  5
2CB
100
AcDbEntity
  8
ASSI
100
AcDbEllipse
 62
7
  6
CONTINUOUS
 10
148.1915592969
 20
128.6851194038
 30
0.0
 11
-0.2531825638
 21
0.7601653717
 31
0.0
 40
0.9984778551
 41
-0.3210503505
 42
1.2488325878
  0
ENDSEC
  0
SECTION
  2
OBJECTS
  0
DICTIONARY
  5
C
100
AcDbDictionary
280
0
281
1
  3
ACAD_GROUP
350
D
  3
ACAD_MLINESTYLE
350
17
  3
ACAD_LAYOUT
350
1A
  3
ACAD_PLOTSETTINGS
350
19
  3
ACAD_PLOTSTYLENAME
350
E
  0
DICTIONARY
  5
D
102
{ACAD_REACTORS
330
C
102
}
100
AcDbDictionary
280
0
281
1
  0
ACDBDICTIONARYWDFLT
  5
E
102
{ACAD_REACTORS
330
C
102
}
100
AcDbDictionary
281
1
  3
Normal
350
F
100
AcDbDictionaryWithDefault
340
F
  0
DICTIONARY
  5
17
102
{ACAD_REACTORS
330
C
102
}
100
AcDbDictionary
280
0
281
1
  3
Standard
350
18
  0
DICTIONARY
  5
19
102
{ACAD_REACTORS
330
C
102
}
100
AcDbDictionary
281
1
  0
DICTIONARY
  5
1A
102
{ACAD_REACTORS
330
C
102
}
100
AcDbDictionary
281
1
  3
Model
350
2CC
  3
Layout1
350
2CD
  0
ACDBPLACEHOLDER
  5
F
102
{ACAD_REACTORS
330
E
102
}
  0
MLINESTYLE
  5
18
102
{ACAD_REACTORS
330
17
102
}
100
AcDbMlineStyle
  2
STANDARD
 70
0
  3

 62
256
 51
90.0
 52
90.0
 71
2
 49
0.5
 62
256
  6
BYLAYER
 49
-0.5
 62
256
  6
BYLAYER
  0
LAYOUT
  5
2CC
102
{ACAD_REACTORS
330
1A
102
}
100
AcDbPlotSettings
  1

  2
none_device
  4
ISO_A4_(297.00_x_210.00_MM)
  6

 40
0.0
 41
0.0
 42
0.0
 43
0.0
 44
297.0
 45
210.0
 46
0.0
 47
0.0
 48
0.0
 49
0.0
140
0.0
141
0.0
142
1.0
143
1.0
 70
1024
 72
1
 73
0
 74
0
  7

 75
0
147
1.0
148
0.0
149
0.0
100
AcDbLayout
  1
Model
 70
0
 71
0
 10
0.0
 20
0.0
 11
297.0
 21
210.0
 12
0.0
 22
0.0
 32
0.0
 14
0.0
 24
0.0
 34
0.0
 15
0.0
 25
0.0
 35
0.0
146
0.0
 13
0.0
 23
0.0
 33
0.0
 16
1.0
 26
0.0
 36
0.0
 17
0.0
 27
1.0
 37
0.0
 76
0
330
217
345
0
346
0
  0
LAYOUT
  5
2CD
102
{ACAD_REACTORS
330
1A
102
}
100
AcDbPlotSettings
  1

  2
none_device
  4
ISO_A4_(297.00_x_210.00_MM)
  6

 40
0.0
 41
0.0
 42
0.0
 43
0.0
 44
297.0
 45
210.0
 46
0.0
 47
0.0
 48
0.0
 49
0.0
140
0.0
141
0.0
142
1.0
143
1.0
 70
0
 72
1
 73
0
 74
0
  7

 75
0
147
1.0
148
0.0
149
0.0
100
AcDbLayout
  1
Layout1
 70
0
 71
1
 10
0.0
 20
0.0
 11
297.0
 21
210.0
 12
0.0
 22
0.0
 32
0.0
 14
0.0
 24
0.0
 34
0.0
 15
0.0
 25
0.0
 35
0.0
146
0.0
 13
0.0
 23
0.0
 33
0.0
 16
1.0
 26
0.0
 36
0.0
 17
0.0
 27
1.0
 37
0.0
 76
0
330
218
345
0
346
0
  0
ENDSEC
  0
EOF
