  0
SECTION
  2
HEADER
  9
$ACADVER
  1
AC1024
  9
$DWGCODEPAGE
  3
ANSI_1252
  9
$EXTMAX
 10
297.0
 20
210.0
 30
0.0
  9
$EXTMIN
 10
0.0
 20
0.0
 30
0.0
  9
$LIMMIN
 10
0.0
 20
0.0
  9
$LIMMAX
 10
297.0
 20
210.0
  9
$VIEWCTR
 10
148.5
 20
105.0
  9
$VIEWSIZE
 40
210.0
  9
$CLAYER
  8
0
  9
$LTSCALE
 40
16.335
  9
$CELTYPE
  6
BYLAYER
  9
$DIMSCALE
 40
1.0
  9
$DIMASZ
 40
3.0
  9
$DIMEXO
 40
0.5
  9
$DIMDLI
 40
11.286
  9
$DIMEXE
 40
1.5
  9
$DIMCEN
 40
2.673
  9
$DIMLFAC
 40
1.0
  9
$DIMBLK
  1
_FILLED
  9
$DIMALT
 70
0
  9
$DIMALTF
 40
0.0393700787
  9
$DIMTXT
 40
3.0
  9
$DIMTOL
 70
1
  9
$DIMLIM
 70
0
  9
$DIMTFAC
 40
1.0
  9
$DIMTP
 40
0.01
  9
$DIMTM
 40
0.01
  9
$DIMGAP
 40
0.625
  9
$DIMDSEP
 70
44
  9
$AUNITS
 70
0
  9
$PDMODE
 70
3
  9
$PDSIZE
 40
3.0
  9
$HANDSEED
  5
702
  9
$TILEMODE
 70
1
  9
$MEASUREMENT
 70
1
  9
$INSUNITS
 70
4
  0
ENDSEC
  0
SECTION
  2
CLASSES
  0
CLASS
  1
ACDBDICTIONARYWDFLT
  2
AcDbDictionaryWithDefault
  3
AutoCAD 2000
 90
0
 91
1
280
0
281
0
  0
CLASS
  1
ACDBPLACEHOLDER
  2
AcDbPlaceHolder
  3
AutoCAD 2000
 90
0
 91
1
280
0
281
0
  0
CLASS
  1
LAYOUT
  2
AcDbLayout
  3
AutoCAD 2000
 90
0
 91
0
280
0
281
0
  0
ENDSEC
  0
SECTION
  2
TABLES
  0
TABLE
  2
VPORT
  5
8
100
AcDbSymbolTable
 70
2
  0
VPORT
  5
1F4
100
AcDbSymbolTableRecord
100
AcDbViewportTableRecord
  2
*ACTIVE
 70
0
 10
0.0
 20
0.0
 11
1.0
 21
1.0
 12
148.5
 22
105.0
 13
0.0
 23
0.0
 14
1.0
 24
1.0
 15
0.0
 25
0.0
 16
0.0
 26
0.0
 36
1.0
 17
0.0
 27
0.0
 37
0.0
 40
210.0
 41
1.4142857143
 42
50.0
 43
0.0
 44
0.0
 50
0.0
 51
0.0
 71
0
 72
100
 73
1
 74
1
 75
0
 76
0
 77
0
 78
0
  0
ENDTAB
  0
TABLE
  2
LTYPE
  5
5
100
AcDbSymbolTable
 70
6
  0
LTYPE
  5
14
100
AcDbSymbolTableRecord
100
AcDbLinetypeTableRecord
  2
BYBLOCK
 70
0
  3

 72
65
 73
0
 40
0.0
  0
LTYPE
  5
15
100
AcDbSymbolTableRecord
100
AcDbLinetypeTableRecord
  2
BYLAYER
 70
0
  3

 72
65
 73
0
 40
0.0
  0
LTYPE
  5
16
100
AcDbSymbolTableRecord
100
AcDbLinetypeTableRecord
  2
CONTINUOUS
 70
64
  3
Solid line
 72
65
 73
0
 40
0.0
  0
LTYPE
  5
1F5
100
AcDbSymbolTableRecord
100
AcDbLinetypeTableRecord
  2
CENTER
 70
64
  3
____ _ ____ _ ____ _ ____ _ ____ _ ____ _ ____
 72
65
 73
4
 40
0.6
 49
0.375
 74
0
 49
-0.075
 74
0
 49
0.075
 74
0
 49
-0.075
 74
0
  0
LTYPE
  5
1F6
100
AcDbSymbolTableRecord
100
AcDbLinetypeTableRecord
  2
HIDDEN
 70
64
  3
- - - - - - - - - - - - - - - - - - - -
 72
65
 73
2
 40
0.2
 49
0.1
 74
0
 49
-0.1
 74
0
  0
LTYPE
  5
1F7
100
AcDbSymbolTableRecord
100
AcDbLinetypeTableRecord
  2
PHANTOM
 70
64
  3
_____ _ _ _____ _ _ _____ _ _ _____
 72
65
 73
6
 40
0.8
 49
0.45
 74
0
 49
-0.05
 74
0
 49
0.1
 74
0
 49
-0.05
 74
0
 49
0.1
 74
0
 49
-0.05
 74
0
  0
LTYPE
  5
1F8
100
AcDbSymbolTableRecord
100
AcDbLinetypeTableRecord
  2
DOT
 70
64
  3
. . . . . . . . . . . . . . . . . . . .
 72
65
 73
2
 40
0.2
 49
0.1
 74
0
 49
-0.1
 74
0
  0
LTYPE
  5
1F9
100
AcDbSymbolTableRecord
100
AcDbLinetypeTableRecord
  2
DASHED
 70
64
  3
- - - - - - - - - - - - - - - - - - - -
 72
65
 73
2
 40
0.2
 49
0.1
 74
0
 49
-0.1
 74
0
  0
ENDTAB
  0
TABLE
  2
LAYER
  5
2
100
AcDbSymbolTable
 70
36
  0
LAYER
  5
10
100
AcDbSymbolTableRecord
100
AcDbLayerTableRecord
  2
0
 70
0
 62
7
  6
CONTINUOUS
370
-3
390
F
  0
LAYER
  5
1FA
100
AcDbSymbolTableRecord
100
AcDbLayerTableRecord
  2
DEFAULT_1
 70
0
 62
7
  6
CENTER
370
-3
390
F
  0
LAYER
  5
1FB
100
AcDbSymbolTableRecord
100
AcDbLayerTableRecord
  2
DEFAULT_2
 70
0
 62
7
  6
HIDDEN
370
-3
390
F
  0
LAYER
  5
1FC
100
AcDbSymbolTableRecord
100
AcDbLayerTableRecord
  2
DEFAULT_3
 70
0
 62
7
  6
PHANTOM
370
-3
390
F
  0
LAYER
  5
1FD
100
AcDbSymbolTableRecord
100
AcDbLayerTableRecord
  2
ASSI
 70
0
 62
7
  6
CONTINUOUS
370
-3
390
F
  0
LAYER
  5
1FE
100
AcDbSymbolTableRecord
100
AcDbLayerTableRecord
  2
COLOR5
 70
0
 62
7
  6
CONTINUOUS
370
-3
390
F
  0
LAYER
  5
1FF
100
AcDbSymbolTableRecord
100
AcDbLayerTableRecord
  2
COORDINATE
 70
0
 62
7
  6
CONTINUOUS
370
-3
390
F
  0
LAYER
  5
200
100
AcDbSymbolTableRecord
100
AcDbLayerTableRecord
  2
COORD_ORIGINE
 70
0
 62
7
  6
CONTINUOUS
370
-3
390
F
  0
LAYER
  5
201
100
AcDbSymbolTableRecord
100
AcDbLayerTableRecord
  2
COPY_PUBLISH
 70
0
 62
7
  6
CONTINUOUS
370
-3
390
F
  0
LAYER
  5
202
100
AcDbSymbolTableRecord
100
AcDbLayerTableRecord
  2
COSMETICI
 70
0
 62
7
  6
CONTINUOUS
370
-3
390
F
  0
LAYER
  5
203
100
AcDbSymbolTableRecord
100
AcDbLayerTableRecord
  2
CURVE
 70
0
 62
7
  6
CONTINUOUS
370
-3
390
F
  0
LAYER
  5
204
100
AcDbSymbolTableRecord
100
AcDbLayerTableRecord
  2
DRAFT
 70
0
 62
7
  6
CONTINUOUS
370
-3
390
F
  0
LAYER
  5
205
100
AcDbSymbolTableRecord
100
AcDbLayerTableRecord
  2
IMPORT_IGES
 70
0
 62
7
  6
CONTINUOUS
370
-3
390
F
  0
LAYER
  5
206
100
AcDbSymbolTableRecord
100
AcDbLayerTableRecord
  2
INTF_11
 70
0
 62
7
  6
CONTINUOUS
370
-3
390
F
  0
LAYER
  5
207
100
AcDbSymbolTableRecord
100
AcDbLayerTableRecord
  2
INTF_2
 70
0
 62
7
  6
CONTINUOUS
370
-3
390
F
  0
LAYER
  5
208
100
AcDbSymbolTableRecord
100
AcDbLayerTableRecord
  2
INTF_8
 70
0
 62
7
  6
CONTINUOUS
370
-3
390
F
  0
LAYER
  5
209
100
AcDbSymbolTableRecord
100
AcDbLayerTableRecord
  2
NOTE
 70
0
 62
7
  6
CONTINUOUS
370
-3
390
F
  0
LAYER
  5
20A
100
AcDbSymbolTableRecord
100
AcDbLayerTableRecord
  2
PIANI
 70
0
 62
7
  6
CONTINUOUS
370
-3
390
F
  0
LAYER
  5
20B
100
AcDbSymbolTableRecord
100
AcDbLayerTableRecord
  2
PIANI_ORIGINE
 70
0
 62
7
  6
CONTINUOUS
370
-3
390
F
  0
LAYER
  5
20C
100
AcDbSymbolTableRecord
100
AcDbLayerTableRecord
  2
PUNTI
 70
0
 62
7
  6
CONTINUOUS
370
-3
390
F
  0
LAYER
  5
20D
100
AcDbSymbolTableRecord
100
AcDbLayerTableRecord
  2
RACCORDO
 70
0
 62
7
  6
CONTINUOUS
370
-3
390
F
  0
LAYER
  5
20E
100
AcDbSymbolTableRecord
100
AcDbLayerTableRecord
  2
SIMBOLI
 70
0
 62
7
  6
CONTINUOUS
370
-3
390
F
  0
LAYER
  5
20F
100
AcDbSymbolTableRecord
100
AcDbLayerTableRecord
  2
SMUSSO
 70
0
 62
7
  6
CONTINUOUS
370
-3
390
F
  0
LAYER
  5
210
100
AcDbSymbolTableRecord
100
AcDbLayerTableRecord
  2
SNAPLINE
 70
0
 62
7
  6
CONTINUOUS
370
-3
390
F
  0
LAYER
  5
211
100
AcDbSymbolTableRecord
100
AcDbLayerTableRecord
  2
SUPERFICI
 70
0
 62
7
  6
CONTINUOUS
370
-3
390
F
  0
LAYER
  5
212
100
AcDbSymbolTableRecord
100
AcDbLayerTableRecord
  2
SVILUPPO
 70
0
 62
7
  6
CONTINUOUS
370
-3
390
F
  0
LAYER
  5
213
100
AcDbSymbolTableRecord
100
AcDbLayerTableRecord
  2
TESTO
 70
0
 62
7
  6
CONTINUOUS
370
-3
390
F
  0
LAYER
  5
214
100
AcDbSymbolTableRecord
100
AcDbLayerTableRecord
  2
TRASH
 70
0
 62
7
  6
CONTINUOUS
370
-3
390
F
  0
ENDTAB
  0
TABLE
  2
STYLE
  5
3
100
AcDbSymbolTable
 70
1
  0
STYLE
  5
11
100
AcDbSymbolTableRecord
100
AcDbTextStyleTableRecord
  2
STANDARD
 70
0
 40
0.0
 41
0.8
 50
0.0
 71
0
 42
0.2
  3
txt
  4

  0
STYLE
  5
215
100
AcDbSymbolTableRecord
100
AcDbTextStyleTableRecord
  2
TEXTSTYLE_1
 70
0
 40
0.0
 41
0.8
 50
0.0
 71
0
 42
0.2
  3
gdt
  4

  0
ENDTAB
  0
TABLE
  2
VIEW
  5
6
100
AcDbSymbolTable
 70
0
  0
ENDTAB
  0
TABLE
  2
UCS
  5
7
100
AcDbSymbolTable
 70
0
  0
ENDTAB
  0
TABLE
  2
APPID
  5
9
100
AcDbSymbolTable
 70
1
  0
APPID
  5
216
100
AcDbSymbolTableRecord
100
AcDbRegAppTableRecord
  2
ACAD
 70
0
  0
ENDTAB
  0
TABLE
  2
BLOCK_RECORD
  5
1
100
AcDbSymbolTable
 70
0
  0
BLOCK_RECORD
  5
217
100
AcDbSymbolTableRecord
100
AcDbBlockTableRecord
  2
*Model_Space
  0
BLOCK_RECORD
  5
218
100
AcDbSymbolTableRecord
100
AcDbBlockTableRecord
  2
*Paper_Space
  0
BLOCK_RECORD
  5
219
100
AcDbSymbolTableRecord
100
AcDbBlockTableRecord
  2
_FILLED
  0
BLOCK_RECORD
  5
21A
100
AcDbSymbolTableRecord
100
AcDbBlockTableRecord
  2
*D0
  0
BLOCK_RECORD
  5
21B
100
AcDbSymbolTableRecord
100
AcDbBlockTableRecord
  2
*D1
  0
BLOCK_RECORD
  5
21C
100
AcDbSymbolTableRecord
100
AcDbBlockTableRecord
  2
*D2
  0
BLOCK_RECORD
  5
21D
100
AcDbSymbolTableRecord
100
AcDbBlockTableRecord
  2
*D3
  0
ENDTAB
  0
TABLE
  2
DIMSTYLE
  5
A
100
AcDbSymbolTable
 70
1
100
AcDbDimStyleTable
 71
0
  0
DIMSTYLE
105
21E
100
AcDbSymbolTableRecord
100
AcDbDimStyleTableRecord
  2
STANDARD
 70
0
  3

  4

 40
1.0
 41
3.0
 42
0.5
 43
0.38
 44
1.5
 45
0.0
 46
0.0
 47
0.01
 48
0.01
140
3.0
141
0.09
142
0.0
143
25.4
144
1.0
145
0.0
146
1.0
147
0.625
 71
1
 72
0
 73
0
 74
0
 75
0
 76
0
 77
1
 78
8
 79
2
170
0
171
1
172
0
173
0
174
0
175
0
176
0
177
0
178
0
270
2
179
2
271
2
272
2
273
2
274
2
275
0
280
0
281
0
282
0
283
1
284
8
285
0
286
0
287
3
288
0
340
11
278
44
341
219
342
219
343
219
344
219
  0
DIMSTYLE
105
21F
100
AcDbSymbolTableRecord
100
AcDbDimStyleTableRecord
  2
DIMSTYLE_1
 70
0
  3

  4

 40
1.0
 41
3.0
 42
0.5
 43
0.38
 44
1.5
 45
0.0
 46
0.0
 47
0.0
 48
0.0
140
3.0
141
0.09
142
0.0
143
25.4
144
1.0
145
0.0
146
1.0
147
0.75
 71
0
 72
0
 73
0
 74
0
 75
0
 76
0
 77
1
 78
8
 79
2
170
0
171
1
172
0
173
0
174
0
175
0
176
0
177
0
178
0
270
2
179
2
271
1
272
1
273
2
274
2
275
0
280
0
281
0
282
0
283
1
284
8
285
0
286
0
287
3
288
0
340
11
278
44
341
219
342
219
343
219
344
219
  0
ENDTAB
  0
ENDSEC
  0
SECTION
  2
BLOCKS
  0
BLOCK
  5
20
100
AcDbEntity
  8
0
100
AcDbBlockBegin
  2
*Model_Space
 70
0
 10
0.0
 20
0.0
 30
0.0
  3
*Model_Space
  1

  0
ENDBLK
  5
21
100
AcDbEntity
  8
0
100
AcDbBlockEnd
  0
BLOCK
  5
1C
100
AcDbEntity
  8
0
100
AcDbBlockBegin
  2
*Paper_Space
 70
0
 10
0.0
 20
0.0
 30
0.0
  3
*Paper_Space
  1

  0
ENDBLK
  5
1D
100
AcDbEntity
  8
0
100
AcDbBlockEnd
  0
BLOCK
  5
220
100
AcDbEntity
  8
0
100
AcDbBlockBegin
  2
_FILLED
 70
64
 10
0.0
 20
0.0
  3
_FILLED
  1

  0
SOLID
  5
221
100
AcDbEntity
  8
0
  6
BYBLOCK
 62
0
100
AcDbTrace
 10
0.0
 20
0.0
 11
-1.0
 21
0.3166666667
 12
-1.0
 22
-0.3166666667
 13
-1.0
 23
-0.3166666667
  0
ENDBLK
  5
222
100
AcDbEntity
  8
0
  6
BYBLOCK
 62
0
100
AcDbBlockEnd
  0
BLOCK
  5
223
100
AcDbEntity
  8
0
100
AcDbBlockBegin
 62
7
  6
CONTINUOUS
  2
*D0
 70
65
 10
0.0
 20
0.0
  3
*D0
  1

  0
LINE
  5
224
100
AcDbEntity
  8
0
100
AcDbLine
 62
7
  6
CONTINUOUS
 10
-91.0323141872
 20
20.5
 11
-91.0323141872
 21
52.7851493769
  0
LINE
  5
225
100
AcDbEntity
  8
0
100
AcDbLine
 62
7
  6
CONTINUOUS
 10
-70.1823141872
 20
41.909966909
 11
-70.1823141872
 21
52.7851493769
  0
LINE
  5
226
100
AcDbEntity
  8
0
100
AcDbLine
 62
7
  6
CONTINUOUS
 10
-91.0323141872
 20
51.2851493769
 11
-80.6073141872
 21
51.2851493769
  0
LINE
  5
227
100
AcDbEntity
  8
0
100
AcDbLine
 62
7
  6
CONTINUOUS
 10
-70.1823141872
 20
51.2851493769
 11
-80.6073141872
 21
51.2851493769
  0
INSERT
  5
228
100
AcDbEntity
  8
0
100
AcDbBlockReference
 62
7
  6
CONTINUOUS
  2
_FILLED
 10
-91.0323141872
 20
51.2851493769
 41
3.0
 42
3.0
 43
3.0
 50
180.0
  0
INSERT
  5
229
100
AcDbEntity
  8
0
100
AcDbBlockReference
 62
7
  6
CONTINUOUS
  2
_FILLED
 10
-70.1823141872
 20
51.2851493769
 41
3.0
 42
3.0
 43
3.0
  0
ENDBLK
  5
22A
100
AcDbEntity
  8
0
  6
BYBLOCK
 62
0
100
AcDbBlockEnd
  0
BLOCK
  5
22B
100
AcDbEntity
  8
0
100
AcDbBlockBegin
 62
7
  6
CONTINUOUS
  2
*D1
 70
65
 10
0.0
 20
0.0
  3
*D1
  1

  0
LINE
  5
22C
100
AcDbEntity
  8
0
100
AcDbLine
 62
7
  6
CONTINUOUS
 10
-91.0323141872
 20
20.5
 11
-91.0323141872
 21
62.7851493769
  0
LINE
  5
22D
100
AcDbEntity
  8
0
100
AcDbLine
 62
7
  6
CONTINUOUS
 10
-63.7323141872
 20
21.1794136676
 11
-63.7323141872
 21
62.7851493769
  0
LINE
  5
22E
100
AcDbEntity
  8
0
100
AcDbLine
 62
7
  6
CONTINUOUS
 10
-91.0323141872
 20
61.2851493769
 11
-77.3823141872
 21
61.2851493769
  0
LINE
  5
22F
100
AcDbEntity
  8
0
100
AcDbLine
 62
7
  6
CONTINUOUS
 10
-63.7323141872
 20
61.2851493769
 11
-77.3823141872
 21
61.2851493769
  0
INSERT
  5
230
100
AcDbEntity
  8
0
100
AcDbBlockReference
 62
7
  6
CONTINUOUS
  2
_FILLED
 10
-91.0323141872
 20
61.2851493769
 41
3.0
 42
3.0
 43
3.0
 50
180.0
  0
INSERT
  5
231
100
AcDbEntity
  8
0
100
AcDbBlockReference
 62
7
  6
CONTINUOUS
  2
_FILLED
 10
-63.7323141872
 20
61.2851493769
 41
3.0
 42
3.0
 43
3.0
  0
ENDBLK
  5
232
100
AcDbEntity
  8
0
  6
BYBLOCK
 62
0
100
AcDbBlockEnd
  0
BLOCK
  5
233
100
AcDbEntity
  8
0
100
AcDbBlockBegin
 62
7
  6
CONTINUOUS
  2
*D2
 70
65
 10
0.0
 20
0.0
  3
*D2
  1

  0
LINE
  5
234
100
AcDbEntity
  8
0
100
AcDbLine
 62
7
  6
CONTINUOUS
 10
-49.859966909
 20
35.9108807381
 11
-49.859966909
 21
62.7851493769
  0
LINE
  5
235
100
AcDbEntity
  8
0
100
AcDbLine
 62
7
  6
CONTINUOUS
 10
49.859966909
 20
35.9108807381
 11
49.859966909
 21
62.7851493769
  0
LINE
  5
236
100
AcDbEntity
  8
0
100
AcDbLine
 62
7
  6
CONTINUOUS
 10
-49.859966909
 20
61.2851493769
 11
0.0
 21
61.2851493769
  0
LINE
  5
237
100
AcDbEntity
  8
0
100
AcDbLine
 62
7
  6
CONTINUOUS
 10
49.859966909
 20
61.2851493769
 11
0.0
 21
61.2851493769
  0
INSERT
  5
238
100
AcDbEntity
  8
0
100
AcDbBlockReference
 62
7
  6
CONTINUOUS
  2
_FILLED
 10
-49.859966909
 20
61.2851493769
 41
3.0
 42
3.0
 43
3.0
 50
180.0
  0
INSERT
  5
239
100
AcDbEntity
  8
0
100
AcDbBlockReference
 62
7
  6
CONTINUOUS
  2
_FILLED
 10
49.859966909
 20
61.2851493769
 41
3.0
 42
3.0
 43
3.0
  0
ENDBLK
  5
23A
100
AcDbEntity
  8
0
  6
BYBLOCK
 62
0
100
AcDbBlockEnd
  0
BLOCK
  5
23B
100
AcDbEntity
  8
0
100
AcDbBlockBegin
 62
7
  6
CONTINUOUS
  2
*D3
 70
65
 10
0.0
 20
0.0
  3
*D3
  1

  0
LINE
  5
23C
100
AcDbEntity
  8
0
100
AcDbLine
 62
7
  6
CONTINUOUS
 10
44.3608807381
 20
41.409966909
 11
59.3688404009
 21
41.409966909
  0
LINE
  5
23D
100
AcDbEntity
  8
0
100
AcDbLine
 62
7
  6
CONTINUOUS
 10
44.3608807381
 20
-41.409966909
 11
59.3688404009
 21
-41.409966909
  0
LINE
  5
23E
100
AcDbEntity
  8
0
100
AcDbLine
 62
7
  6
CONTINUOUS
 10
57.8688404009
 20
41.409966909
 11
57.8688404009
 21
0.0
  0
LINE
  5
23F
100
AcDbEntity
  8
0
100
AcDbLine
 62
7
  6
CONTINUOUS
 10
57.8688404009
 20
-41.409966909
 11
57.8688404009
 21
0.0
  0
INSERT
  5
240
100
AcDbEntity
  8
0
100
AcDbBlockReference
 62
7
  6
CONTINUOUS
  2
_FILLED
 10
57.8688404009
 20
41.409966909
 41
3.0
 42
3.0
 43
3.0
 50
90.0
  0
INSERT
  5
241
100
AcDbEntity
  8
0
100
AcDbBlockReference
 62
7
  6
CONTINUOUS
  2
_FILLED
 10
57.8688404009
 20
-41.409966909
 41
3.0
 42
3.0
 43
3.0
 50
270.0
  0
ENDBLK
  5
242
100
AcDbEntity
  8
0
  6
BYBLOCK
 62
0
100
AcDbBlockEnd
  0
ENDSEC
  0
SECTION
  2
ENTITIES
  0
DIMENSION
  5
243
100
AcDbEntity
  8
0
100
AcDbDimension
 62
7
  6
CONTINUOUS
  2
*D0
 10
-70.1823141872
 20
51.2851493769
 11
-85.0001713301
 21
51.2851493769
 70
160
 71
2
 72
2
 41
0.9
 42
20.85
  3
DIMSTYLE_1
100
AcDbAlignedDimension
 13
-91.0323141872
 23
20.0
 14
-70.1823141872
 24
41.409966909
100
AcDbRotatedDimension
  0
DIMENSION
  5
244
100
AcDbEntity
  8
0
100
AcDbDimension
 62
7
  6
CONTINUOUS
  2
*D1
 10
-63.7323141872
 20
61.2851493769
 11
-81.668028473
 21
61.2851493769
 70
160
 71
2
 72
2
 41
0.9
 42
27.3
  3
DIMSTYLE_1
100
AcDbAlignedDimension
 13
-91.0323141872
 23
20.0
 14
-63.7323141872
 24
20.6794136676
100
AcDbRotatedDimension
  0
DIMENSION
  5
245
100
AcDbEntity
  8
0
100
AcDbDimension
 62
7
  6
CONTINUOUS
  2
*D2
 10
49.859966909
 20
61.2851493769
 11
-4.3928571429
 21
61.2851493769
 70
160
 71
2
 72
2
 41
0.9
 42
99.7199338181
  3
DIMSTYLE_1
100
AcDbAlignedDimension
 13
-49.859966909
 23
35.4108807381
 14
49.859966909
 24
35.4108807381
100
AcDbRotatedDimension
  0
DIMENSION
  5
246
100
AcDbEntity
  8
0
100
AcDbDimension
 62
7
  6
CONTINUOUS
  2
*D3
 10
57.8688404009
 20
-41.409966909
 11
57.8688404009
 21
-4.3928571429
 70
160
 71
2
 72
2
 41
0.9
 42
82.8199338181
  3
DIMSTYLE_1
100
AcDbAlignedDimension
 13
43.8608807381
 23
41.409966909
 14
43.8608807381
 24
-41.409966909
 50
270.0
100
AcDbRotatedDimension
  0
LWPOLYLINE
  5
247
100
AcDbEntity
  8
RACCORDO
100
AcDbPolyline
 62
250
  6
CONTINUOUS
 90
16
 70
0
 10
-49.6076937033
 20
35.1586075323
 10
-49.604911923
 20
35.1623411175
 10
-49.5981445245
 20
35.1660447695
 10
-49.5874457645
 20
35.1696887959
 10
-49.5729014176
 20
35.1732439824
 10
-49.5546280888
 20
35.176681827
 10
-49.5327722806
 20
35.1799747679
 10
-49.5075092148
 20
35.1830964058
 10
-49.4790414293
 20
35.1860217143
 10
-49.4475971558
 20
35.1887272413
 10
-49.4134284873
 20
35.1911912966
 10
-49.3768093573
 20
35.1933941262
 10
-49.3380333459
 20
35.19531807
 10
-49.2974113238
 20
35.1969477041
 10
-49.2552689596
 20
35.198269964
 10
-49.2119441103
 20
35.1992742496
  0
LWPOLYLINE
  5
248
100
AcDbEntity
  8
RACCORDO
100
AcDbPolyline
 62
250
  6
CONTINUOUS
 90
16
 70
0
 10
-49.6076937033
 20
-35.1586075323
 10
-49.604911931
 20
-35.1623411237
 10
-49.598144552
 20
-35.166044781
 10
-49.5874458208
 20
-35.1696888118
 10
-49.5729015098
 20
-35.173244002
 10
-49.5546282213
 20
-35.1766818495
 10
-49.5327724533
 20
-35.1799747929
 10
-49.5075094242
 20
-35.1830964325
 10
-49.4790416689
 20
-35.1860217421
 10
-49.4475974145
 20
-35.1887272694
 10
-49.4134287507
 20
-35.191191324
 10
-49.3768096091
 20
-35.1933941516
 10
-49.3380335665
 20
-35.195318092
 10
-49.297411492
 20
-35.1969477211
 10
-49.2552690541
 20
-35.1982699738
 10
-49.2119441103
 20
-35.1992742496
  0
LWPOLYLINE
  5
249
100
AcDbEntity
  8
RACCORDO
100
AcDbPolyline
 62
250
  6
CONTINUOUS
 90
16
 70
0
 10
-43.6036414542
 20
41.1527276252
 10
-43.609816498
 20
41.1497738021
 10
-43.6159383747
 20
41.1425410204
 10
-43.6219543742
 20
41.131091558
 10
-43.6278126981
 20
41.1155239994
 10
-43.6334629059
 20
41.0959723854
 10
-43.6388563493
 20
41.0726050593
 10
-43.6439465905
 20
41.0456232183
 10
-43.6486898023
 20
41.0152591803
 10
-43.6530451458
 20
40.9817743822
 10
-43.6569751215
 20
40.9454571323
 10
-43.6604458922
 20
40.9066201257
 10
-43.6634275748
 20
40.86559775
 10
-43.6658944969
 20
40.8227432103
 10
-43.6678254186
 20
40.7784254878
 10
-43.6692037148
 20
40.7330261611
  0
LWPOLYLINE
  5
24A
100
AcDbEntity
  8
RACCORDO
100
AcDbPolyline
 62
250
  6
CONTINUOUS
 90
16
 70
0
 10
-43.6036414542
 20
-41.1527276252
 10
-43.6098165149
 20
-41.1497738013
 10
-43.6159384068
 20
-41.1425410166
 10
-43.6219544196
 20
-41.1310915483
 10
-43.6278127552
 20
-41.1155239792
 10
-43.6334629727
 20
-41.0959723499
 10
-43.6388564228
 20
-41.072605006
 10
-43.6439466677
 20
-41.0456231455
 10
-43.6486898803
 20
-41.0152590872
 10
-43.6530452212
 20
-40.9817742728
 10
-43.6569751908
 20
-40.9454570123
 10
-43.6604459526
 20
-40.9066200021
 10
-43.6634276232
 20
-40.8655976353
 10
-43.665894531
 20
-40.8227431195
 10
-43.6678254364
 20
-40.7784254353
 10
-43.6692037148
 20
-40.7330261611
  0
LWPOLYLINE
  5
24B
100
AcDbEntity
  8
RACCORDO
100
AcDbPolyline
 62
250
  6
CONTINUOUS
 90
31
 70
0
 10
-37.9640037559
 20
-40.3959032902
 10
-37.9319700418
 20
-40.4222913069
 10
-37.9022381485
 20
-40.4512534961
 10
-37.8750134527
 20
-40.4825897721
 10
-37.850484023
 20
-40.5160836309
 10
-37.8288192773
 20
-40.5515037031
 10
-37.8101688301
 20
-40.5886053632
 10
-37.7946615098
 20
-40.6271323352
 10
-37.7824044514
 20
-40.6668184551
 10
-37.7734823253
 20
-40.7073895737
 10
-37.7679567652
 20
-40.7485654266
 10
-37.7658659416
 20
-40.7900615716
 10
-37.7672242976
 20
-40.8315913553
 10
-37.7720224501
 20
-40.8728678906
 10
-37.7802272535
 20
-40.91360604
 10
-37.7917820298
 20
-40.9535243864
 10
-37.8066069593
 20
-40.9923471743
 10
-37.8245996321
 20
-41.0298062164
 10
-37.8456357561
 20
-41.0656427469
 10
-37.8695700149
 20
-41.0996092075
 10
-37.8962370715
 20
-41.1314709576
 10
-37.9254527115
 20
-41.1610078968
 10
-37.9570151141
 20
-41.1880159834
 10
-37.9907062474
 20
-41.2123086453
 10
-38.0262933753
 20
-41.2337180687
 10
-38.0635306335
 20
-41.2520963434
 10
-38.102160815
 20
-41.2673165289
 10
-38.1419171584
 20
-41.2792735073
 10
-38.1825250657
 20
-41.2878846604
 10
-38.2237039892
 20
-41.2930904658
 10
-38.2651694639
 20
-41.2948549356
  0
LWPOLYLINE
  5
24C
100
AcDbEntity
  8
RACCORDO
100
AcDbPolyline
 62
250
  6
CONTINUOUS
 90
16
 70
0
 10
-33.75
 20
-41.1310794779
 10
-33.7530755717
 20
-41.1284016701
 10
-33.7561275636
 20
-41.1219116556
 10
-33.7591325772
 20
-41.1116591928
 10
-33.7620675742
 20
-41.0977228849
 10
-33.7649100531
 20
-41.0802095786
 10
-33.7676382215
 20
-41.0592535452
 10
-33.7702311635
 20
-41.0350154493
 10
-33.7726690002
 20
-41.0076811174
 10
-33.7749330416
 20
-40.9774601152
 10
-33.7770059304
 20
-40.9445841381
 10
-33.7788717745
 20
-40.9093052357
 10
-33.7805162695
 20
-40.8718938805
 10
-33.7819268079
 20
-40.8326368931
 10
-33.7830925759
 20
-40.7918352423
 10
-33.7840046363
 20
-40.7498017391
  0
LWPOLYLINE
  5
24D
100
AcDbEntity
  8
RACCORDO
100
AcDbPolyline
 62
250
  6
CONTINUOUS
 90
16
 70
0
 10
-38.3675449955
 20
-40.2663357231
 10
-38.3421674794
 20
-40.2908294009
 10
-38.3187420568
 20
-40.3168426145
 10
-38.2973407397
 20
-40.3442103563
 10
-38.2780852561
 20
-40.372664691
 10
-38.2609428623
 20
-40.4021326375
 10
-38.2457975071
 20
-40.4327782575
 10
-38.2327349468
 20
-40.4644690344
 10
-38.221833639
 20
-40.4970619415
 10
-38.213086015
 20
-40.5307550849
 10
-38.2066094965
 20
-40.5654987423
 10
-38.2025535948
 20
-40.6010500368
 10
-38.201033649
 20
-40.6373197631
 10
-38.2021731363
 20
-40.6741490799
 10
-38.2060822479
 20
-40.7113076805
 10
-38.2128549358
 20
-40.748576073
  0
LWPOLYLINE
  5
24E
100
AcDbEntity
  8
RACCORDO
100
AcDbPolyline
 62
250
  6
CONTINUOUS
 90
16
 70
0
 10
-38.5997256376
 20
-40.5498771624
 10
-38.5894502436
 20
-40.5598459086
 10
-38.5800001254
 20
-40.5702906192
 10
-38.5713752968
 20
-40.5812113081
 10
-38.5635730891
 20
-40.5926271127
 10
-38.5565961987
 20
-40.6045189232
 10
-38.5504526909
 20
-40.6168293856
 10
-38.5451181111
 20
-40.6295516964
 10
-38.5406169481
 20
-40.6426926933
 10
-38.5370306904
 20
-40.6562154928
 10
-38.5343384713
 20
-40.6701658789
 10
-38.5325612002
 20
-40.6844981103
 10
-38.5318430461
 20
-40.6990380316
 10
-38.5322320921
 20
-40.7137276178
 10
-38.5336803224
 20
-40.728624961
 10
-38.5361877676
 20
-40.7437300919
  0
LINE
  5
24F
100
AcDbEntity
  8
RACCORDO
100
AcDbLine
 62
250
  6
CONTINUOUS
 10
-49.2119441103
 20
-35.1992742496
 11
-49.218007475
 21
-32.9085018989
  0
LINE
  5
250
100
AcDbEntity
  8
RACCORDO
100
AcDbLine
 62
250
  6
CONTINUOUS
 10
-49.218007475
 20
-32.9085018989
 11
-49.2277841138
 21
-28.5419047102
  0
LINE
  5
251
100
AcDbEntity
  8
RACCORDO
100
AcDbLine
 62
250
  6
CONTINUOUS
 10
-49.2277841138
 20
-28.5419047102
 11
-49.234485872
 21
-24.8539051699
  0
LINE
  5
252
100
AcDbEntity
  8
RACCORDO
100
AcDbLine
 62
250
  6
CONTINUOUS
 10
-49.234485872
 20
-24.8539051699
 11
-49.2386077674
 21
-21.7685781297
  0
LINE
  5
253
100
AcDbEntity
  8
RACCORDO
100
AcDbLine
 62
250
  6
CONTINUOUS
 10
-49.2386077674
 20
-21.7685781297
 11
-49.2404973764
 21
-18.6429807084
  0
LINE
  5
254
100
AcDbEntity
  8
RACCORDO
100
AcDbLine
 62
7
  6
CONTINUOUS
 10
-49.859966909
 20
-35.4108807381
 11
-49.859966909
 21
35.4108807381
  0
LINE
  5
255
100
AcDbEntity
  8
RACCORDO
100
AcDbLine
 62
250
  6
CONTINUOUS
 10
-49.2404973764
 20
-18.6429807084
 11
-49.2399280178
 21
-4.2407015054
  0
LINE
  5
256
100
AcDbEntity
  8
RACCORDO
100
AcDbLine
 62
250
  6
CONTINUOUS
 10
-49.2399280178
 20
-4.2407015054
 11
-49.2400454385
 21
19.9246904507
  0
LINE
  5
257
100
AcDbEntity
  8
RACCORDO
100
AcDbLine
 62
250
  6
CONTINUOUS
 10
-49.2400454385
 20
19.9246904507
 11
-49.2377566458
 21
22.5302647689
  0
LINE
  5
258
100
AcDbEntity
  8
RACCORDO
100
AcDbLine
 62
250
  6
CONTINUOUS
 10
-49.6045162492
 20
-32.8720020422
 11
-49.6076937033
 21
35.1586075323
  0
LINE
  5
259
100
AcDbEntity
  8
RACCORDO
100
AcDbLine
 62
250
  6
CONTINUOUS
 10
-49.6076937033
 20
-35.1586075323
 11
-49.6045162492
 21
-32.8720020422
  0
LINE
  5
25A
100
AcDbEntity
  8
RACCORDO
100
AcDbLine
 62
250
  6
CONTINUOUS
 10
-49.2377566458
 20
22.5302647689
 11
-49.2313799488
 21
26.6601235126
  0
LWPOLYLINE
  5
25B
100
AcDbEntity
  8
RACCORDO
100
AcDbPolyline
 62
250
  6
CONTINUOUS
 90
3
 70
0
 10
-49.2313799488
 20
26.6601235126
 10
-49.2146293103
 20
34.2250622412
 10
-49.2119441103
 20
35.1992742496
  0
LWPOLYLINE
  5
25C
100
AcDbEntity
  8
RACCORDO
100
AcDbPolyline
 62
250
  6
CONTINUOUS
 90
37
 70
0
 10
-49.6076937033
 20
35.1586075323
 10
-49.6020716141
 20
35.4261394262
 10
-49.5848779738
 20
35.6891004106
 10
-49.5566736422
 20
35.9470200443
 10
-49.5182673811
 20
36.1981012698
 10
-49.4701112538
 20
36.4433615606
 10
-49.4117278891
 20
36.6865190871
 10
-49.3427894381
 20
36.9284866412
 10
-49.2636955553
 20
37.1674652878
 10
-49.1745773346
 20
37.4030100613
 10
-49.0755789774
 20
37.6346937264
 10
-48.9668570158
 20
37.8621081767
 10
-48.848590443
 20
38.0848464924
 10
-48.7210062705
 20
38.3024539122
 10
-48.5842868913
 20
38.5145931427
 10
-48.438550054
 20
38.7210324696
 10
-48.2840920787
 20
38.9212944222
 10
-48.1210914495
 20
39.1150914271
 10
-47.9494439878
 20
39.3024335255
 10
-47.7694405684
 20
39.4828522779
 10
-47.5812715117
 20
39.6560100201
 10
-47.3845927851
 20
39.822005977
 10
-47.1795660224
 20
39.9804220155
 10
-46.9665030723
 20
40.1307414375
 10
-46.7452153811
 20
40.272789032
 10
-46.5158971379
 20
40.4060927806
 10
-46.2789210779
 20
40.5300936165
 10
-46.0343556939
 20
40.6443997095
 10
-45.7821246561
 20
40.7486439759
 10
-45.5230312996
 20
40.8420956564
 10
-45.2585515918
 20
40.9239363427
 10
-44.9890746642
 20
40.9938358362
 10
-44.7152420546
 20
41.0514209947
 10
-44.4390374665
 20
41.0961777533
 10
-44.161539514
 20
41.127972559
 10
-43.8828739194
 20
41.1468334574
 10
-43.6036414542
 20
41.1527276252
  0
LWPOLYLINE
  5
25D
100
AcDbEntity
  8
RACCORDO
100
AcDbPolyline
 62
250
  6
CONTINUOUS
 90
37
 70
0
 10
-49.2119441103
 20
35.1992742496
 10
-49.2048687764
 20
35.4456630316
 10
-49.1882209377
 20
35.6871172621
 10
-49.1619951723
 20
35.9236315305
 10
-49.1261242064
 20
36.1543115207
 10
-49.0806644895
 20
36.380040747
 10
-49.0257952704
 20
36.6034796327
 10
-48.9614478225
 20
36.8258997942
 10
-48.8876772035
 20
37.0460159746
 10
-48.804848143
 20
37.2626530916
 10
-48.7129077467
 20
37.4757852496
 10
-48.6118970881
 20
37.6854265481
 10
-48.5023237937
 20
37.8904638383
 10
-48.3841782319
 20
38.0908314371
 10
-48.2574608723
 20
38.2865858847
 10
-48.1226967896
 20
38.4767996586
 10
-47.9799418962
 20
38.6614004855
 10
-47.8291343396
 20
38.840454711
 10
-47.67062468
 20
39.0132448704
 10
-47.5044847912
 20
39.179769158
 10
-47.3306398735
 20
39.3400264596
 10
-47.1492223809
 20
39.4933022477
 10
-46.960172115
 20
39.6397158465
 10
-46.7635494262
 20
39.7791480833
 10
-46.5596698731
 20
39.9105289613
 10
-46.3484192846
 20
40.03394985
 10
-46.1299161188
 20
40.1493236579
 10
-45.904828103
 20
40.2553159148
 10
-45.6726638522
 20
40.3520158229
 10
-45.4339238197
 20
40.4393432294
 10
-45.1907681548
 20
40.5157142868
 10
-44.9429852944
 20
40.5809079396
 10
-44.6908021497
 20
40.6351605594
 10
-44.4370414157
 20
40.6775792638
 10
-44.1826511727
 20
40.7078735922
 10
-43.9267024035
 20
40.7263530283
 10
-43.6692037148
 20
40.7330261611
  0
LWPOLYLINE
  5
25E
100
AcDbEntity
  8
RACCORDO
100
AcDbPolyline
 62
250
  6
CONTINUOUS
 90
17
 70
0
 10
-28.2267170964
 20
40.8352665968
 10
-28.2274966281
 20
40.8343932198
 10
-28.2282436926
 20
40.8324595152
 10
-28.2289582928
 20
40.8294654662
 10
-28.2296448046
 20
40.8253481831
 10
-28.2302988633
 20
40.8201704935
 10
-28.2309073616
 20
40.8141209514
 10
-28.2314686116
 20
40.8071396705
 10
-28.231984318
 20
40.7992864433
 10
-28.2324464592
 20
40.7909293636
 10
-28.232848955
 20
40.7822049766
 10
-28.2331978969
 20
40.772976674
 10
-28.2335035183
 20
40.7632028368
 10
-28.2337699991
 20
40.7529857081
 10
-28.2339931744
 20
40.7422229625
 10
-28.2341707671
 20
40.7305660916
 10
-28.2343877461
 20
40.704337308
  0
LINE
  5
25F
100
AcDbEntity
  8
RACCORDO
100
AcDbLine
 62
250
  6
CONTINUOUS
 10
-28.5262719942
 20
41.1307037853
 11
-28.1753022035
 21
41.2481899225
  0
LWPOLYLINE
  5
260
100
AcDbEntity
  8
RACCORDO
100
AcDbPolyline
 62
250
  6
CONTINUOUS
 90
8
 70
0
 10
38.2651696659
 20
-41.294854745
 10
38.2628200268
 20
-41.2953679907
 10
38.2583038534
 20
-41.2958910763
 10
38.2516211459
 20
-41.2964240016
 10
38.2428325979
 20
-41.2969696486
 10
38.2318775158
 20
-41.2975251354
 10
38.2185738181
 20
-41.2980818166
 10
38.2028974266
 20
-41.2986395339
  0
LWPOLYLINE
  5
261
100
AcDbEntity
  8
RACCORDO
100
AcDbPolyline
 62
250
  6
CONTINUOUS
 90
16
 70
0
 10
38.5361973665
 20
-40.7437283735
 10
38.5053165862
 20
-40.7503787356
 10
38.4744352454
 20
-40.7562781902
 10
38.443895703
 20
-40.761361419
 10
38.4140366879
 20
-40.7655721374
 10
38.3851888745
 20
-40.7688638052
 10
38.3576713037
 20
-40.7712000707
 10
38.3317887336
 20
-40.7725550813
 10
38.3078281941
 20
-40.7729138379
 10
38.2860551927
 20
-40.7722724035
 10
38.2667109116
 20
-40.770637919
 10
38.2500096962
 20
-40.768028541
 10
38.2361366285
 20
-40.7644732639
 10
38.2252452941
 20
-40.7600115582
 10
38.2174561556
 20
-40.7546929079
 10
38.2128553265
 20
-40.7485762973
  0
LWPOLYLINE
  5
262
100
AcDbEntity
  8
RACCORDO
100
AcDbPolyline
 62
250
  6
CONTINUOUS
 90
4
 70
0
 10
-37.964003474
 20
-40.3959029157
 10
-38.0489583559
 20
-40.3701112345
 10
-38.0924934569
 20
-40.356611844
 10
-38.1367728238
 20
-40.3426525392
  0
LINE
  5
263
100
AcDbEntity
  8
RACCORDO
100
AcDbLine
 62
250
  6
CONTINUOUS
 10
-37.3931528664
 20
-40.5903885836
 11
-37.4757368886
 21
-40.5647670485
  0
LINE
  5
264
100
AcDbEntity
  8
RACCORDO
100
AcDbLine
 62
250
  6
CONTINUOUS
 10
-37.4757368886
 20
-40.5647670485
 11
-37.5513192338
 21
-40.5406325442
  0
LWPOLYLINE
  5
265
100
AcDbEntity
  8
RACCORDO
100
AcDbPolyline
 62
250
  6
CONTINUOUS
 90
5
 70
0
 10
-38.1367728238
 20
-40.3426525392
 10
-38.2273399392
 20
-40.3134043181
 10
-38.2734787799
 20
-40.2981729209
 10
-38.3202137519
 20
-40.2824908166
 10
-38.3675449834
 20
-40.2663357084
  0
LINE
  5
266
100
AcDbEntity
  8
RACCORDO
100
AcDbLine
 62
250
  6
CONTINUOUS
 10
-37.5513192338
 20
-40.5406325442
 11
-37.6201163728
 21
-40.5181202867
  0
LINE
  5
267
100
AcDbEntity
  8
RACCORDO
100
AcDbLine
 62
250
  6
CONTINUOUS
 10
-37.6201163728
 20
-40.5181202867
 11
-37.6824932615
 21
-40.4972165949
  0
LWPOLYLINE
  5
268
100
AcDbEntity
  8
RACCORDO
100
AcDbPolyline
 62
250
  6
CONTINUOUS
 90
10
 70
0
 10
-38.2651699454
 20
-41.294854706
 10
-38.3140447283
 20
-41.2783369758
 10
-38.3625057041
 20
-41.2617102067
 10
-38.4105528729
 20
-41.2449743985
 10
-38.4581694808
 20
-41.2281294306
 10
-38.5053722816
 20
-41.2111754236
 10
-38.5522115372
 20
-41.1941127396
 10
-38.5987040016
 20
-41.1769414993
 10
-38.6448329208
 20
-41.1596615818
 10
-38.6905982948
 20
-41.1422729874
  0
LINE
  5
269
100
AcDbEntity
  8
RACCORDO
100
AcDbLine
 62
250
  6
CONTINUOUS
 10
-37.6824932615
 20
-40.4972165949
 11
-37.738576399
 21
-40.4780298455
  0
LINE
  5
26A
100
AcDbEntity
  8
RACCORDO
100
AcDbLine
 62
250
  6
CONTINUOUS
 10
-37.738576399
 20
-40.4780298455
 11
-37.7883865398
 21
-40.4606827711
  0
LINE
  5
26B
100
AcDbEntity
  8
RACCORDO
100
AcDbLine
 62
250
  6
CONTINUOUS
 10
-37.7883865398
 20
-40.4606827711
 11
-37.8850157208
 21
-40.4263751333
  0
LWPOLYLINE
  5
26C
100
AcDbEntity
  8
RACCORDO
100
AcDbPolyline
 62
250
  6
CONTINUOUS
 90
11
 70
0
 10
-37.8850157208
 20
-40.4263751333
 10
-37.8995585404
 20
-40.4211129312
 10
-37.9125680772
 20
-40.4163199575
 10
-37.9240411641
 20
-40.4120319793
 10
-37.9340393777
 20
-40.4082025138
 10
-37.9425863141
 20
-40.4048411905
 10
-37.9496812582
 20
-40.4019880187
 10
-37.9553558119
 20
-40.3996480668
 10
-37.9596292415
 20
-40.3978376287
 10
-37.962507463
 20
-40.3965830249
 10
-37.9640029632
 20
-40.3959033012
  0
LWPOLYLINE
  5
26D
100
AcDbEntity
  8
RACCORDO
100
AcDbPolyline
 62
250
  6
CONTINUOUS
 90
16
 70
0
 10
-39.3724240859
 20
-35.5
 10
-39.3694150161
 20
-35.5078335303
 10
-39.3620276991
 20
-35.5155980406
 10
-39.3503272237
 20
-35.523225119
 10
-39.3344166811
 20
-35.5306475642
 10
-39.314436257
 20
-35.5377999782
 10
-39.290561996
 20
-35.544619342
 10
-39.2630042511
 20
-35.5510455711
 10
-39.2320058297
 20
-35.557022045
 10
-39.1978398546
 20
-35.5624961058
 10
-39.1608073574
 20
-35.5674195223
 10
-39.1212346264
 20
-35.5717489149
 10
-39.0794703313
 20
-35.575446138
 10
-39.0358824516
 20
-35.5784786159
 10
-38.990855034
 20
-35.5808196298
 10
-38.9447848088
 20
-35.5824485534
  0
LWPOLYLINE
  5
26E
100
AcDbEntity
  8
DRAFT
100
AcDbPolyline
 62
7
  6
CONTINUOUS
 90
17
 70
0
 10
-28.06301009
 20
38.2978072556
 10
-28.068203503
 20
38.2893336378
 10
-28.0732331711
 20
38.2745161024
 10
-28.0780990941
 20
38.253410293
 10
-28.082819184
 20
38.2260967691
 10
-28.0873755289
 20
38.1926813677
 10
-28.0917143937
 20
38.1532953112
 10
-28.0958331348
 20
38.1080921186
 10
-28.0997343958
 20
38.0572506003
 10
-28.1033723728
 20
38.0009768714
 10
-28.1067437313
 20
37.9394965344
 10
-28.1098518058
 20
37.8730531744
 10
-28.1126607957
 20
37.8019129483
 10
-28.1151671203
 20
37.7263585173
 10
-28.1173743602
 20
37.6466927606
 10
-28.1192574579
 20
37.5632397536
 10
-28.1220434211
 20
37.3863279669
  0
LINE
  5
26F
100
AcDbEntity
  8
DRAFT
100
AcDbLine
 62
7
  6
CONTINUOUS
 10
-28.06301009
 20
38.2978072556
 11
-27.7806488949
 21
38.5841284665
  0
LWPOLYLINE
  5
270
100
AcDbEntity
  8
0
100
AcDbPolyline
 62
7
  6
CONTINUOUS
 90
10
 70
0
 43
0.3500000006
 10
-3.9642856293
 20
62.03514505
 10
-3.1071428747
 20
62.8922920532
 10
-2.8928572569
 20
63.7494390564
 10
-2.8928572569
 20
64.6065769958
 10
-3.3214284925
 20
65.0351459656
 10
-3.9642856293
 20
65.0351459656
 10
-4.3928571482
 20
64.6065769958
 10
-4.3928571482
 20
63.7494390564
 10
-3.9642856293
 20
63.3208610229
 10
-3.035714241
 20
63.3208610229
  0
LWPOLYLINE
  5
271
100
AcDbEntity
  8
0
100
AcDbPolyline
 62
7
  6
CONTINUOUS
 90
10
 70
0
 43
0.3500000006
 10
-1.6071428418
 20
62.03514505
 10
-0.7500000165
 20
62.8922920532
 10
-0.5357142924
 20
63.7494390564
 10
-0.5357142924
 20
64.6065769958
 10
-0.9642857051
 20
65.0351459656
 10
-1.6071428418
 20
65.0351459656
 10
-2.0357142191
 20
64.6065769958
 10
-2.0357142191
 20
63.7494390564
 10
-1.6071428418
 20
63.3208610229
 10
-0.6785714536
 20
63.3208610229
  0
LINE
  5
272
100
AcDbEntity
  8
RACCORDO
100
AcDbLine
 62
250
  6
CONTINUOUS
 10
-27.8905720095
 20
40.9478079379
 11
-28.2267170964
 21
40.8352665968
  0
LWPOLYLINE
  5
273
100
AcDbEntity
  8
RACCORDO
100
AcDbPolyline
 62
250
  6
CONTINUOUS
 90
16
 70
0
 10
-36.5205683933
 20
-40.8086513692
 10
-36.5945171042
 20
-40.7941874974
 10
-36.6660019641
 20
-40.7794043094
 10
-36.7350329862
 20
-40.764418269
 10
-36.8015405693
 20
-40.7493872192
 10
-36.8656180529
 20
-40.7343725875
 10
-36.9275163333
 20
-40.7193269026
 10
-36.9872696873
 20
-40.7043248342
 10
-37.044858901
 20
-40.6894561485
 10
-37.100446889
 20
-40.6746726196
 10
-37.1540627913
 20
-40.6600224175
 10
-37.2056850953
 20
-40.6455881784
 10
-37.2553957822
 20
-40.6313603506
 10
-37.3031986601
 20
-40.6173933822
 10
-37.3490933785
 20
-40.6037418536
 10
-37.3931528664
 20
-40.5903885836
  0
LWPOLYLINE
  5
274
100
AcDbEntity
  8
RACCORDO
100
AcDbPolyline
 62
250
  6
CONTINUOUS
 90
22
 70
0
 10
-40.2637526197
 20
-36.8492713473
 10
-40.257928388
 20
-37.0529697393
 10
-40.2448248254
 20
-37.2528950871
 10
-40.224439952
 20
-37.4490454149
 10
-40.1967484784
 20
-37.6406689907
 10
-40.1617718328
 20
-37.8285136933
 10
-40.1195770167
 20
-38.0148258707
 10
-40.0700405501
 20
-38.2007829509
 10
-40.0132790071
 20
-38.3852006144
 10
-39.9497192558
 20
-38.5667823737
 10
-39.8797498999
 20
-38.7447385641
 10
-39.8029779092
 20
-38.919854433
 10
-39.7186575362
 20
-39.0931956965
 10
-39.6268312987
 20
-39.2651746835
 10
-39.5274493865
 20
-39.4353717879
 10
-39.4196260537
 20
-39.6036033187
 10
-39.3028307646
 20
-39.7705932177
 10
-39.1775853655
 20
-39.935608872
 10
-39.0445842037
 20
-40.0962832763
 10
-38.9040582226
 20
-40.2518269241
 10
-38.755772726
 20
-40.4030255767
 10
-38.5997256376
 20
-40.5498771624
  0
LWPOLYLINE
  5
275
100
AcDbEntity
  8
RACCORDO
100
AcDbPolyline
 62
250
  6
CONTINUOUS
 90
22
 70
0
 10
-39.920420586
 20
-36.8
 10
-39.9159442586
 20
-36.99058917
 10
-39.9039368228
 20
-37.1781357066
 10
-39.884743115
 20
-37.3623594469
 10
-39.8588689026
 20
-37.5420547989
 10
-39.8265836832
 20
-37.7179587889
 10
-39.7875549933
 20
-37.8926823511
 10
-39.7415092199
 20
-38.0670486112
 10
-39.6887176586
 20
-38.2396891226
 10
-39.6294068489
 20
-38.4098841445
 10
-39.5640153182
 20
-38.5766233502
 10
-39.492411364
 20
-38.7404669355
 10
-39.4138208641
 20
-38.902983369
 10
-39.3280405376
 20
-39.0640943852
 10
-39.2351435152
 20
-39.2231990428
 10
-39.1344628177
 20
-39.3809050647
 10
-39.0254101132
 20
-39.5374042532
 10
-38.9082842917
 20
-39.6915698603
 10
-38.7837812922
 20
-39.8420240264
 10
-38.6522274789
 20
-39.9880822311
 10
-38.5134500247
 20
-40.1296542262
 10
-38.3675449834
 20
-40.2663357084
  0
LINE
  5
276
100
AcDbEntity
  8
RACCORDO
100
AcDbLine
 62
250
  6
CONTINUOUS
 10
-40.2851529556
 20
-32.2715723974
 11
-40.2637526197
 21
-36.8492713473
  0
LINE
  5
277
100
AcDbEntity
  8
RACCORDO
100
AcDbLine
 62
250
  6
CONTINUOUS
 10
-39.9232027738
 20
-35.8264070815
 11
-39.920420586
 21
-36.8
  0
LINE
  5
278
100
AcDbEntity
  8
RACCORDO
100
AcDbLine
 62
250
  6
CONTINUOUS
 10
-40.3029372152
 20
-26.9802053075
 11
-40.2851529556
 21
-32.2715723974
  0
LINE
  5
279
100
AcDbEntity
  8
RACCORDO
100
AcDbLine
 62
250
  6
CONTINUOUS
 10
-39.9304637958
 20
-33.085312795
 11
-39.9232027738
 21
-35.8264070815
  0
LINE
  5
27A
100
AcDbEntity
  8
RACCORDO
100
AcDbLine
 62
250
  6
CONTINUOUS
 10
-39.9361864388
 20
-30.6037618496
 11
-39.9304637958
 21
-33.085312795
  0
LINE
  5
27B
100
AcDbEntity
  8
RACCORDO
100
AcDbLine
 62
250
  6
CONTINUOUS
 10
-39.939291277
 20
-29.0769286059
 11
-39.9361864388
 21
-30.6037618496
  0
LINE
  5
27C
100
AcDbEntity
  8
RACCORDO
100
AcDbLine
 62
250
  6
CONTINUOUS
 10
-40.3171889506
 20
-10.7020655565
 11
-40.3029372152
 21
-26.9802053075
  0
LINE
  5
27D
100
AcDbEntity
  8
RACCORDO
100
AcDbLine
 62
250
  6
CONTINUOUS
 10
-39.9551950228
 20
-6.5800182966
 11
-39.939291277
 21
-29.0769286059
  0
LINE
  5
27E
100
AcDbEntity
  8
RACCORDO
100
AcDbLine
 62
250
  6
CONTINUOUS
 10
-39.7551451296
 20
30.8051755906
 11
-39.7551451296
 21
-36.8
  0
LINE
  5
27F
100
AcDbEntity
  8
DRAFT
100
AcDbLine
 62
7
  6
CONTINUOUS
 10
-39.5431574806
 20
-35.5
 11
-39.5431574806
 21
25.6240705472
  0
LINE
  5
280
100
AcDbEntity
  8
RACCORDO
100
AcDbLine
 62
250
  6
CONTINUOUS
 10
-39.4551908211
 20
30.7051908211
 11
-39.4551908211
 21
27.9666244397
  0
LINE
  5
281
100
AcDbEntity
  8
RACCORDO
100
AcDbLine
 62
250
  6
CONTINUOUS
 10
-39.4551908211
 20
-36.5054992138
 11
-39.4551908211
 21
-36.8
  0
LINE
  5
282
100
AcDbEntity
  8
RACCORDO
100
AcDbLine
 62
250
  6
CONTINUOUS
 10
-39.340175228
 20
8.7514385055
 11
-39.3593819198
 21
30.5180173846
  0
LINE
  5
283
100
AcDbEntity
  8
RACCORDO
100
AcDbLine
 62
250
  6
CONTINUOUS
 10
-39.3486814334
 20
-24.620610524
 11
-39.340175228
 21
8.7514385055
  0
LINE
  5
284
100
AcDbEntity
  8
RACCORDO
100
AcDbLine
 62
250
  6
CONTINUOUS
 10
-39.3519931743
 20
-26.788219557
 11
-39.3486814334
 21
-24.620610524
  0
LINE
  5
285
100
AcDbEntity
  8
RACCORDO
100
AcDbLine
 62
250
  6
CONTINUOUS
 10
-40.3069649765
 20
25.2826681832
 11
-40.3171889506
 21
-10.7020655565
  0
LINE
  5
286
100
AcDbEntity
  8
RACCORDO
100
AcDbLine
 62
250
  6
CONTINUOUS
 10
-39.3560272759
 20
-28.9552287524
 11
-39.3519931743
 21
-26.788219557
  0
LINE
  5
287
100
AcDbEntity
  8
RACCORDO
100
AcDbLine
 62
250
  6
CONTINUOUS
 10
-39.9353569359
 20
30.9853873969
 11
-39.9551950228
 21
-6.5800182966
  0
LINE
  5
288
100
AcDbEntity
  8
RACCORDO
100
AcDbLine
 62
250
  6
CONTINUOUS
 10
-39.3591209305
 20
-30.4021118294
 11
-39.3560272759
 21
-28.9552287524
  0
LINE
  5
289
100
AcDbEntity
  8
RACCORDO
100
AcDbLine
 62
250
  6
CONTINUOUS
 10
-39.3642879053
 20
-32.5533839401
 11
-39.3591209305
 21
-30.4021118294
  0
LINE
  5
28A
100
AcDbEntity
  8
RACCORDO
100
AcDbLine
 62
250
  6
CONTINUOUS
 10
-39.3681616643
 20
-34.0088002992
 11
-39.3642879053
 21
-32.5533839401
  0
LINE
  5
28B
100
AcDbEntity
  8
RACCORDO
100
AcDbLine
 62
250
  6
CONTINUOUS
 10
-39.3724240859
 20
-35.5
 11
-39.3681616643
 21
-34.0088002992
  0
LWPOLYLINE
  5
28C
100
AcDbEntity
  8
RACCORDO
100
AcDbPolyline
 62
250
  6
CONTINUOUS
 90
3
 70
0
 10
-40.2900598517
 20
31.0222570864
 10
-40.2918862821
 20
30.5222064338
 10
-40.3069649765
 20
25.2826681832
  0
LINE
  5
28D
100
AcDbEntity
  8
RACCORDO
100
AcDbLine
 62
7
  6
CONTINUOUS
 10
-39.3593819198
 20
30.5180173846
 11
-39.5431574806
 21
25.6240705472
  0
LWPOLYLINE
  5
28E
100
AcDbEntity
  8
RACCORDO
100
AcDbPolyline
 62
250
  6
CONTINUOUS
 90
16
 70
0
 10
-39.7551451296
 20
30.8051755906
 10
-39.7540437822
 20
30.8260736516
 10
-39.7507645084
 20
30.8467429151
 10
-39.7453431997
 20
30.8669570161
 10
-39.7378392082
 20
30.8864945681
 10
-39.7283346947
 20
30.9051415955
 10
-39.7169337267
 20
30.9226938763
 10
-39.7037611332
 20
30.9389591806
 10
-39.6889611708
 20
30.9537593383
 10
-39.6726959535
 20
30.9669322106
 10
-39.6551436203
 20
30.9783335161
 10
-39.6364963968
 20
30.987838383
 10
-39.6169585341
 20
30.9953426961
 10
-39.5967440239
 20
31.0007642648
 10
-39.5760742499
 20
31.004043715
 10
-39.5551755906
 20
31.0051451297
  0
LWPOLYLINE
  5
28F
100
AcDbEntity
  8
RACCORDO
100
AcDbPolyline
 62
7
  6
CONTINUOUS
 90
19
 70
0
 10
-39.3593811293
 20
30.5180384356
 10
-39.3571113404
 20
30.5353186908
 10
-39.351918972
 20
30.5520177641
 10
-39.3438039518
 20
30.5681358031
 10
-39.3326267437
 20
30.5837817464
 10
-39.3185266098
 20
30.5988472131
 10
-39.3019216414
 20
30.6130064395
 10
-39.282833544
 20
30.6261908751
 10
-39.2612401869
 20
30.6384699411
 10
-39.237493927
 20
30.649724792
 10
-39.2115805043
 20
30.6599603761
 10
-39.1835136693
 20
30.6691727971
 10
-39.1536878507
 20
30.6772298298
 10
-39.1219485282
 20
30.6841273124
 10
-39.0884496944
 20
30.6898705088
 10
-39.0540487142
 20
30.694340991
 10
-39.019031339
 20
30.6974993668
 10
-38.9831115555
 20
30.699385592
 10
-38.9462892121
 20
30.6999999932
  0
LWPOLYLINE
  5
290
100
AcDbEntity
  8
RACCORDO
100
AcDbPolyline
 62
250
  6
CONTINUOUS
 90
11
 70
0
 10
-28.5262719942
 20
41.1307037853
 10
-28.5272426655
 20
41.128638483
 10
-28.528180779
 20
41.1237860028
 10
-28.5290844906
 20
41.116202821
 10
-28.5299561162
 20
41.1059302155
 10
-28.5307897859
 20
41.0930694064
 10
-28.5315716397
 20
41.0778471932
 10
-28.5322995157
 20
41.0603896386
 10
-28.5329729948
 20
41.0408986287
 10
-28.5335817382
 20
41.0198770518
 10
-28.5345888068
 20
40.9749650603
  0
LWPOLYLINE
  5
291
100
AcDbEntity
  8
RACCORDO
100
AcDbPolyline
 62
250
  6
CONTINUOUS
 90
20
 70
0
 10
-27.5501396154
 20
32.7366835505
 10
-27.5705022092
 20
32.7212779432
 10
-27.594829525
 20
32.7005560995
 10
-27.6176401474
 20
32.6787554384
 10
-27.6384159725
 20
32.6565263563
 10
-27.6570984588
 20
32.6342462623
 10
-27.6739299321
 20
32.6119373085
 10
-27.6889585143
 20
32.5897815815
 10
-27.7022331852
 20
32.5680303651
 10
-27.7139414511
 20
32.5467206824
 10
-27.7243104844
 20
32.525671972
 10
-27.7334214928
 20
32.5049602011
 10
-27.7413558547
 20
32.4846739957
 10
-27.7482675161
 20
32.4646075748
 10
-27.7542129352
 20
32.4447836248
 10
-27.7592355758
 20
32.4252795093
 10
-27.7634134548
 20
32.4059492976
 10
-27.7667835065
 20
32.3867661806
 10
-27.769366995
 20
32.3678268307
 10
-27.7711969581
 20
32.349162563
  0
LWPOLYLINE
  5
292
100
AcDbEntity
  8
RACCORDO
100
AcDbPolyline
 62
250
  6
CONTINUOUS
 90
5
 70
0
 10
-27.5913145243
 20
33.2418021994
 10
-27.6355304988
 20
33.2201952291
 10
-27.6785400413
 20
33.1958579637
 10
-27.7206179495
 20
33.1688516048
 10
-27.7617642233
 20
33.1392164938
  0
LWPOLYLINE
  5
293
100
AcDbEntity
  8
RACCORDO
100
AcDbPolyline
 62
250
  6
CONTINUOUS
 90
4
 70
0
 10
-27.6276763459
 20
30.7409947293
 10
-27.593142821
 20
30.7563485947
 10
-27.5597129639
 20
30.7744162389
 10
-27.5501380597
 20
30.7805585747
  0
LINE
  5
294
100
AcDbEntity
  8
RACCORDO
100
AcDbLine
 62
250
  6
CONTINUOUS
 10
-27.5532487348
 20
33.2577127879
 11
-27.5913145243
 21
33.2418021994
  0
LINE
  5
295
100
AcDbEntity
  8
RACCORDO
100
AcDbLine
 62
250
  6
CONTINUOUS
 10
-21.5875768761
 20
-40.6205711903
 11
-21.633797234
 21
-40.6236889503
  0
LINE
  5
296
100
AcDbEntity
  8
RACCORDO
100
AcDbLine
 62
250
  6
CONTINUOUS
 10
-21.5394732417
 20
-40.617603793
 11
-21.5875768761
 21
-40.6205711903
  0
LINE
  5
297
100
AcDbEntity
  8
RACCORDO
100
AcDbLine
 62
250
  6
CONTINUOUS
 10
-21.4891863635
 20
-40.6147815734
 11
-21.5394732417
 21
-40.617603793
  0
LINE
  5
298
100
AcDbEntity
  8
RACCORDO
100
AcDbLine
 62
250
  6
CONTINUOUS
 10
-21.4365106933
 20
-40.6121335132
 11
-21.4891863635
 21
-40.6147815734
  0
LINE
  5
299
100
AcDbEntity
  8
RACCORDO
100
AcDbLine
 62
250
  6
CONTINUOUS
 10
-21.3813481488
 20
-40.609701492
 11
-21.4365106933
 21
-40.6121335132
  0
LINE
  5
29A
100
AcDbEntity
  8
RACCORDO
100
AcDbLine
 62
250
  6
CONTINUOUS
 10
-21.3228818139
 20
-40.607479044
 11
-21.3813481488
 21
-40.609701492
  0
LINE
  5
29B
100
AcDbEntity
  8
RACCORDO
100
AcDbLine
 62
250
  6
CONTINUOUS
 10
-21.2589897838
 20
-40.605421397
 11
-21.3228818139
 21
-40.607479044
  0
LINE
  5
29C
100
AcDbEntity
  8
RACCORDO
100
AcDbLine
 62
250
  6
CONTINUOUS
 10
-21.088146442
 20
-41.0875921416
 11
-21.7137541479
 21
-41.1074549324
  0
LINE
  5
29D
100
AcDbEntity
  8
RACCORDO
100
AcDbLine
 62
7
  6
CONTINUOUS
 10
-20.9330126969
 20
-41.0985828049
 11
-20.6241940569
 21
-41.0892892369
  0
LINE
  5
29E
100
AcDbEntity
  8
RACCORDO
100
AcDbLine
 62
250
  6
CONTINUOUS
 10
38.2028974266
 20
-41.2986395339
 11
38.164388951
 21
-41.2997503813
  0
LINE
  5
29F
100
AcDbEntity
  8
RACCORDO
100
AcDbLine
 62
250
  6
CONTINUOUS
 10
-21.7137541479
 20
-41.1074549324
 11
-21.8895669426
 21
-41.1122022417
  0
LINE
  5
2A0
100
AcDbEntity
  8
RACCORDO
100
AcDbLine
 62
250
  6
CONTINUOUS
 10
-20.9472040468
 20
-41.083838804
 11
-21.088146442
 21
-41.0875921416
  0
LINE
  5
2A1
100
AcDbEntity
  8
RACCORDO
100
AcDbLine
 62
250
  6
CONTINUOUS
 10
-21.1861097614
 20
-40.6036306009
 11
-21.2589897838
 21
-40.605421397
  0
LINE
  5
2A2
100
AcDbEntity
  8
RACCORDO
100
AcDbLine
 62
250
  6
CONTINUOUS
 10
38.164388951
 20
-41.2997503813
 11
38.1159409875
 21
-41.3008312184
  0
LINE
  5
2A3
100
AcDbEntity
  8
RACCORDO
100
AcDbLine
 62
250
  6
CONTINUOUS
 10
-21.8895669426
 20
-41.1122022417
 11
-22.0593793794
 21
-41.1160518638
  0
LINE
  5
2A4
100
AcDbEntity
  8
RACCORDO
100
AcDbLine
 62
7
  6
CONTINUOUS
 10
-20.6241940569
 20
-41.0892892369
 11
-20.5819194099
 21
-41.0883419392
  0
LINE
  5
2A5
100
AcDbEntity
  8
RACCORDO
100
AcDbLine
 62
250
  6
CONTINUOUS
 10
-20.8146756775
 20
-41.0809370843
 11
-20.9472040468
 21
-41.083838804
  0
LINE
  5
2A6
100
AcDbEntity
  8
RACCORDO
100
AcDbLine
 62
250
  6
CONTINUOUS
 10
-21.1034103468
 20
-40.6020686632
 11
-21.1861097614
 21
-40.6036306009
  0
LINE
  5
2A7
100
AcDbEntity
  8
RACCORDO
100
AcDbLine
 62
250
  6
CONTINUOUS
 10
-22.0593793794
 20
-41.1160518638
 11
-22.2684389168
 21
-41.1198252842
  0
LINE
  5
2A8
100
AcDbEntity
  8
RACCORDO
100
AcDbLine
 62
7
  6
CONTINUOUS
 10
-20.5819194099
 20
-41.0883419392
 11
-20.5322124005
 21
-41.08750028
  0
LINE
  5
2A9
100
AcDbEntity
  8
RACCORDO
100
AcDbLine
 62
250
  6
CONTINUOUS
 10
38.1159409875
 20
-41.3008312184
 11
38.0250780903
 21
-41.3023690749
  0
LINE
  5
2AA
100
AcDbEntity
  8
RACCORDO
100
AcDbLine
 62
250
  6
CONTINUOUS
 10
-20.6929861382
 20
-41.0788633633
 11
-20.8146756775
 21
-41.0809370843
  0
LINE
  5
2AB
100
AcDbEntity
  8
RACCORDO
100
AcDbLine
 62
250
  6
CONTINUOUS
 10
-22.2684389168
 20
-41.1198252842
 11
-22.5034109391
 21
-41.1229491342
  0
LINE
  5
2AC
100
AcDbEntity
  8
RACCORDO
100
AcDbLine
 62
250
  6
CONTINUOUS
 10
-21.013082312
 20
-40.6009862024
 11
-21.1034103468
 21
-40.6020686632
  0
LINE
  5
2AD
100
AcDbEntity
  8
RACCORDO
100
AcDbLine
 62
250
  6
CONTINUOUS
 10
-20.576926634
 20
-41.0774447444
 11
-20.6929861382
 21
-41.0788633633
  0
LINE
  5
2AE
100
AcDbEntity
  8
RACCORDO
100
AcDbLine
 62
250
  6
CONTINUOUS
 10
38.0250780903
 20
-41.3023690749
 11
37.8714243171
 21
-41.3042123881
  0
LINE
  5
2AF
100
AcDbEntity
  8
RACCORDO
100
AcDbLine
 62
7
  6
CONTINUOUS
 10
-20.5322124005
 20
-41.08750028
 11
-20.4466425884
 21
-41.0864835062
  0
LINE
  5
2B0
100
AcDbEntity
  8
RACCORDO
100
AcDbLine
 62
250
  6
CONTINUOUS
 10
-22.5034109391
 20
-41.1229491342
 11
-22.849620882
 21
-41.1257870954
  0
LINE
  5
2B1
100
AcDbEntity
  8
RACCORDO
100
AcDbLine
 62
250
  6
CONTINUOUS
 10
37.8714243171
 20
-41.3042123881
 11
37.5209218952
 21
-41.3067002941
  0
LINE
  5
2B2
100
AcDbEntity
  8
RACCORDO
100
AcDbLine
 62
250
  6
CONTINUOUS
 10
-20.4497695098
 20
-41.0765231288
 11
-20.576926634
 21
-41.0774447444
  0
LINE
  5
2B3
100
AcDbEntity
  8
RACCORDO
100
AcDbLine
 62
250
  6
CONTINUOUS
 10
-20.9184431769
 20
-40.6003456989
 11
-21.013082312
 21
-40.6009862024
  0
LINE
  5
2B4
100
AcDbEntity
  8
RACCORDO
100
AcDbLine
 62
7
  6
CONTINUOUS
 10
-20.4466425884
 20
-41.0864835062
 11
-20.3172065282
 21
-41.0856450152
  0
LINE
  5
2B5
100
AcDbEntity
  8
RACCORDO
100
AcDbLine
 62
250
  6
CONTINUOUS
 10
29.8756584196
 20
-40.7587635624
 11
27.0849941788
 21
-40.7702377037
  0
LINE
  5
2B6
100
AcDbEntity
  8
RACCORDO
100
AcDbLine
 62
250
  6
CONTINUOUS
 10
27.0849941788
 20
-40.7702377037
 11
26.6775497862
 21
-40.7715314637
  0
LINE
  5
2B7
100
AcDbEntity
  8
RACCORDO
100
AcDbLine
 62
250
  6
CONTINUOUS
 10
26.6775497862
 20
-40.7715314637
 11
24.3116364724
 21
-40.7774887541
  0
LINE
  5
2B8
100
AcDbEntity
  8
RACCORDO
100
AcDbLine
 62
250
  6
CONTINUOUS
 10
-38.6905982948
 20
-41.1422729874
 11
-43.6036414542
 21
-41.1527276252
  0
LINE
  5
2B9
100
AcDbEntity
  8
RACCORDO
100
AcDbLine
 62
250
  6
CONTINUOUS
 10
24.3116364724
 20
-40.7774887541
 11
23.299952152
 21
-40.7794887529
  0
LINE
  5
2BA
100
AcDbEntity
  8
RACCORDO
100
AcDbLine
 62
250
  6
CONTINUOUS
 10
43.6692037148
 20
-40.7330261611
 11
38.5361902303
 21
-40.7437299226
  0
LINE
  5
2BB
100
AcDbEntity
  8
RACCORDO
100
AcDbLine
 62
250
  6
CONTINUOUS
 10
33.7840046363
 20
-40.7498017391
 11
29.8756584196
 21
-40.7587635624
  0
LINE
  5
2BC
100
AcDbEntity
  8
RACCORDO
100
AcDbLine
 62
250
  6
CONTINUOUS
 10
-22.849620882
 20
-41.1257870954
 11
-23.2098447203
 21
-41.126963987
  0
LINE
  5
2BD
100
AcDbEntity
  8
RACCORDO
100
AcDbLine
 62
250
  6
CONTINUOUS
 10
37.5209218952
 20
-41.3067002941
 11
36.9234146884
 21
-41.3083609926
  0
LINE
  5
2BE
100
AcDbEntity
  8
RACCORDO
100
AcDbLine
 62
7
  6
CONTINUOUS
 10
43.8608807381
 20
-41.409966909
 11
-43.8608807381
 21
-41.409966909
  0
LINE
  5
2BF
100
AcDbEntity
  8
RACCORDO
100
AcDbLine
 62
250
  6
CONTINUOUS
 10
36.9234146884
 20
-41.3083609926
 11
36.5205683926
 21
-41.308575216
  0
LINE
  5
2C0
100
AcDbEntity
  8
0
100
AcDbLine
 62
7
  6
CONTINUOUS
 10
-33.75
 20
-41.2931574806
 11
-21.0
 21
-41.2931575262
  0
LINE
  5
2C1
100
AcDbEntity
  8
DRAFT
100
AcDbLine
 62
7
  6
CONTINUOUS
 10
-18.6465188536
 20
-41.2931574806
 11
-17.4534811464
 21
-41.2931574806
  0
LINE
  5
2C2
100
AcDbEntity
  8
DRAFT
100
AcDbLine
 62
7
  6
CONTINUOUS
 10
18.6465188536
 20
-41.2931574806
 11
17.4534811464
 21
-41.2931574806
  0
LINE
  5
2C3
100
AcDbEntity
  8
0
100
AcDbLine
 62
7
  6
CONTINUOUS
 10
21.0
 20
-41.2931575262
 11
33.75
 21
-41.2931574806
  0
LINE
  5
2C4
100
AcDbEntity
  8
RACCORDO
100
AcDbLine
 62
7
  6
CONTINUOUS
 10
-16.9507692721
 20
-41.1334315381
 11
16.9507692721
 21
-41.1334315381
  0
LINE
  5
2C5
100
AcDbEntity
  8
RACCORDO
100
AcDbLine
 62
250
  6
CONTINUOUS
 10
-23.2098447203
 20
-41.126963987
 11
-33.75
 21
-41.1310794779
  0
LINE
  5
2C6
100
AcDbEntity
  8
RACCORDO
100
AcDbLine
 62
7
  6
CONTINUOUS
 10
-17.6498244892
 20
-41.1125032806
 11
17.6498244892
 21
-41.1125032806
  0
LINE
  5
2C7
100
AcDbEntity
  8
RACCORDO
100
AcDbLine
 62
7
  6
CONTINUOUS
 10
-20.3172065282
 20
-41.0856450152
 11
17.9604964602
 21
-41.0851959662
  0
LINE
  5
2C8
100
AcDbEntity
  8
RACCORDO
100
AcDbLine
 62
250
  6
CONTINUOUS
 10
-36.5205683967
 20
-40.8086513684
 11
-36.0658412033
 21
-40.8086513684
  0
LINE
  5
2C9
100
AcDbEntity
  8
RACCORDO
100
AcDbLine
 62
250
  6
CONTINUOUS
 10
36.0658412033
 20
-40.8086513684
 11
36.5205683991
 21
-40.8086513684
  0
LINE
  5
2CA
100
AcDbEntity
  8
RACCORDO
100
AcDbLine
 62
250
  6
CONTINUOUS
 10
33.75
 20
-41.1310794779
 11
23.2071417262
 21
-41.1269535374
  0
LINE
  5
2CB
100
AcDbEntity
  8
RACCORDO
100
AcDbLine
 62
250
  6
CONTINUOUS
 10
-20.4509240784
 20
-40.6004912529
 11
-20.9184431769
 21
-40.6003456989
  0
LINE
  5
2CC
100
AcDbEntity
  8
RACCORDO
100
AcDbLine
 62
250
  6
CONTINUOUS
 10
-38.5361877676
 20
-40.7437300919
 11
-43.6692037148
 21
-40.7330261611
  0
LINE
  5
2CD
100
AcDbEntity
  8
RACCORDO
100
AcDbLine
 62
250
  6
CONTINUOUS
 10
43.6036414542
 20
-41.1527276252
 11
38.690598144
 21
-41.1422731186
  0
LWPOLYLINE
  5
2CE
100
AcDbEntity
  8
RACCORDO
100
AcDbPolyline
 62
250
  6
CONTINUOUS
 90
13
 70
0
 10
23.2999517328
 20
-40.7795103712
 10
23.2364280726
 20
-40.7793611795
 10
23.1741688138
 20
-40.7785155693
 10
23.1131868022
 20
-40.7769788147
 10
23.0538711548
 20
-40.7747887869
 10
22.9958244207
 20
-40.7719011348
 10
22.9379493848
 20
-40.768239011
 10
22.8803529021
 20
-40.7638623513
 10
22.8230570426
 20
-40.7587887062
 10
22.7649931711
 20
-40.7529688186
 10
22.7061215473
 20
-40.7464637886
 10
22.6467494636
 20
-40.7393796973
 10
22.5864470203
 20
-40.7318069553
  0
LINE
  5
2CF
100
AcDbEntity
  8
RACCORDO
100
AcDbLine
 62
250
  6
CONTINUOUS
 10
-23.2383525162
 20
-40.7794905346
 11
-25.8915910169
 21
-40.7737519856
  0
LINE
  5
2D0
100
AcDbEntity
  8
RACCORDO
100
AcDbLine
 62
250
  6
CONTINUOUS
 10
36.5205683926
 20
-41.308575216
 11
-37.2881727798
 21
-41.3076183408
  0
LINE
  5
2D1
100
AcDbEntity
  8
RACCORDO
100
AcDbLine
 62
7
  6
CONTINUOUS
 10
17.9604964602
 20
-41.0851959662
 11
20.3172058493
 21
-41.0856450126
  0
LINE
  5
2D2
100
AcDbEntity
  8
RACCORDO
100
AcDbLine
 62
250
  6
CONTINUOUS
 10
20.9217242199
 20
-40.6003561566
 11
-20.4509240784
 21
-40.6004912529
  0
LINE
  5
2D3
100
AcDbEntity
  8
RACCORDO
100
AcDbLine
 62
250
  6
CONTINUOUS
 10
20.4270767545
 20
-41.0764224109
 11
-20.4497695098
 21
-41.0765231288
  0
LINE
  5
2D4
100
AcDbEntity
  8
RACCORDO
100
AcDbLine
 62
250
  6
CONTINUOUS
 10
-25.8915910169
 20
-40.7737519856
 11
-27.8370763785
 21
-40.7672559431
  0
LWPOLYLINE
  5
2D5
100
AcDbEntity
  8
RACCORDO
100
AcDbPolyline
 62
250
  6
CONTINUOUS
 90
3
 70
0
 10
-27.8370763785
 20
-40.7672559431
 10
-28.256429996
 20
-40.7652639904
 10
-33.7840046363
 20
-40.7498017391
  0
LINE
  5
2D6
100
AcDbEntity
  8
RACCORDO
100
AcDbLine
 62
250
  6
CONTINUOUS
 10
23.2071417262
 20
-41.1269535374
 11
22.8512778625
 21
-41.1258013494
  0
LINE
  5
2D7
100
AcDbEntity
  8
RACCORDO
100
AcDbLine
 62
250
  6
CONTINUOUS
 10
-37.2881727798
 20
-41.3076183408
 11
-37.7595326739
 21
-41.3052030355
  0
LINE
  5
2D8
100
AcDbEntity
  8
RACCORDO
100
AcDbLine
 62
250
  6
CONTINUOUS
 10
20.5517911296
 20
-41.0772103211
 11
20.4270767545
 21
-41.0764224109
  0
LINE
  5
2D9
100
AcDbEntity
  8
RACCORDO
100
AcDbLine
 62
250
  6
CONTINUOUS
 10
21.0160486221
 20
-40.6010001442
 11
20.9217242199
 21
-40.6003561566
  0
LINE
  5
2DA
100
AcDbEntity
  8
RACCORDO
100
AcDbLine
 62
7
  6
CONTINUOUS
 10
20.3172058493
 20
-41.0856450126
 11
20.4466437007
 21
-41.0864835164
  0
LINE
  5
2DB
100
AcDbEntity
  8
RACCORDO
100
AcDbLine
 62
250
  6
CONTINUOUS
 10
22.8512778625
 20
-41.1258013494
 11
22.5095314132
 21
-41.12301645
  0
LINE
  5
2DC
100
AcDbEntity
  8
RACCORDO
100
AcDbLine
 62
250
  6
CONTINUOUS
 10
-37.7595326739
 20
-41.3052030355
 11
-37.958622302
 21
-41.3032530822
  0
LINE
  5
2DD
100
AcDbEntity
  8
RACCORDO
100
AcDbLine
 62
250
  6
CONTINUOUS
 10
20.6648293547
 20
-41.0784661527
 11
20.5517911296
 21
-41.0772103211
  0
LINE
  5
2DE
100
AcDbEntity
  8
RACCORDO
100
AcDbLine
 62
7
  6
CONTINUOUS
 10
20.4466437007
 20
-41.0864835164
 11
20.5322129
 21
-41.0875002859
  0
LINE
  5
2DF
100
AcDbEntity
  8
RACCORDO
100
AcDbLine
 62
250
  6
CONTINUOUS
 10
21.1072961859
 20
-40.6021288601
 11
21.0160486221
 21
-40.6010001442
  0
LINE
  5
2E0
100
AcDbEntity
  8
RACCORDO
100
AcDbLine
 62
250
  6
CONTINUOUS
 10
22.5095314132
 20
-41.12301645
 11
22.2596182506
 21
-41.1196861422
  0
LINE
  5
2E1
100
AcDbEntity
  8
RACCORDO
100
AcDbLine
 62
250
  6
CONTINUOUS
 10
-37.958622302
 20
-41.3032530822
 11
-38.0841427058
 21
-41.3014257155
  0
LINE
  5
2E2
100
AcDbEntity
  8
RACCORDO
100
AcDbLine
 62
250
  6
CONTINUOUS
 10
20.7891254584
 20
-41.0804508903
 11
20.6648293547
 21
-41.0784661527
  0
LINE
  5
2E3
100
AcDbEntity
  8
RACCORDO
100
AcDbLine
 62
7
  6
CONTINUOUS
 10
20.5322129
 20
-41.0875002859
 11
20.5819190273
 21
-41.0883419318
  0
LWPOLYLINE
  5
2E4
100
AcDbEntity
  8
RACCORDO
100
AcDbPolyline
 62
250
  6
CONTINUOUS
 90
37
 70
0
 10
-43.6036414542
 20
-41.1527276252
 10
-43.8737073297
 20
-41.1472307082
 10
-44.1388196651
 20
-41.129996321
 10
-44.3985006529
 20
-41.1016396521
 10
-44.6508772629
 20
-41.0630358684
 10
-44.8970437214
 20
-41.0146809971
 10
-45.1409402272
 20
-40.9560869456
 10
-45.3835462182
 20
-40.8869251518
 10
-45.6229989798
 20
-40.807629865
 10
-45.8588752323
 20
-40.7183429241
 10
-46.0907591579
 20
-40.6192223817
 10
-46.3182425079
 20
-40.510443183
 10
-46.5409239806
 20
-40.3921989054
 10
-46.7583365393
 20
-40.2647447526
 10
-46.9701756013
 20
-40.1282659378
 10
-47.1762793435
 20
-39.9828478836
 10
-47.3761211444
 20
-39.8288372236
 10
-47.5694808124
 20
-39.6663763312
 10
-47.7565850933
 20
-39.4951626188
 10
-47.936968031
 20
-39.3154435813
 10
-48.1102506609
 20
-39.1274071097
 10
-48.2766373875
 20
-38.9305288846
 10
-48.4357791717
 20
-38.7247829576
 10
-48.5869839617
 20
-38.5105944119
 10
-48.7298295552
 20
-38.2880609448
 10
-48.8639270932
 20
-38.0572036842
 10
-48.9885913758
 20
-37.8185667367
 10
-49.103023869
 20
-37.573111233
 10
-49.2067958008
 20
-37.3212561856
 10
-49.2995005655
 20
-37.0634307656
 10
-49.3805598421
 20
-36.8007249134
 10
-49.449678592
 20
-36.5336721692
 10
-49.506595835
 20
-36.2627852888
 10
-49.5509817078
 20
-35.9891974947
 10
-49.5826782133
 20
-35.7136796369
 10
-49.6016106438
 20
-35.436620226
 10
-49.6076937033
 20
-35.1586075323
  0
LINE
  5
2E5
100
AcDbEntity
  8
RACCORDO
100
AcDbLine
 62
250
  6
CONTINUOUS
 10
22.2596182506
 20
-41.1196861422
 11
22.0198534465
 21
-41.1152209815
  0
LINE
  5
2E6
100
AcDbEntity
  8
RACCORDO
100
AcDbLine
 62
250
  6
CONTINUOUS
 10
-38.0841427058
 20
-41.3014257155
 11
-38.1346573204
 21
-41.3004433047
  0
LWPOLYLINE
  5
2E7
100
AcDbEntity
  8
RACCORDO
100
AcDbPolyline
 62
250
  6
CONTINUOUS
 90
37
 70
0
 10
-33.75
 20
-41.1310794779
 10
-33.9989805044
 20
-41.1258327719
 10
-34.2451375228
 20
-41.1097569452
 10
-34.4880144158
 20
-41.0831922954
 10
-34.726237863
 20
-41.0466596964
 10
-34.960368942
 20
-41.0004429481
 10
-35.1928246086
 20
-40.9441871204
 10
-35.4242051592
 20
-40.8776085014
 10
-35.6530035099
 20
-40.8009992249
 10
-35.8784199115
 20
-40.7145845873
 10
-36.0999332032
 20
-40.6185538888
 10
-36.3172274106
 20
-40.5130339314
 10
-36.5298389732
 20
-40.3982377047
 10
-36.7373420026
 20
-40.2743881568
 10
-36.9393761222
 20
-40.1416933796
 10
-37.13559079
 20
-40.000373077
 10
-37.3256152009
 20
-39.8506789039
 10
-37.5090873695
 20
-39.6928801247
 10
-37.6856813772
 20
-39.5272400153
 10
-37.8550489903
 20
-39.3540640994
 10
-38.0168719908
 20
-39.1736556573
 10
-38.1708794888
 20
-38.9862878276
 10
-38.3168356592
 20
-38.7921960825
 10
-38.4543679627
 20
-38.5918215473
 10
-38.5830470056
 20
-38.3857822385
 10
-38.7022281073
 20
-38.1752444688
 10
-38.812182082
 20
-37.9598721974
 10
-38.9136422074
 20
-37.737928552
 10
-39.0063984967
 20
-37.5090696249
 10
-39.0896992793
 20
-37.2742498308
 10
-39.1631731808
 20
-37.0335774425
 10
-39.2264549497
 20
-36.7870012518
 10
-39.2789463062
 20
-36.5353739472
 10
-39.3200552358
 20
-36.2802297928
 10
-39.3494711682
 20
-36.0224403174
 10
-39.3670047473
 20
-35.7621802136
 10
-39.3724240859
 20
-35.5
  0
LINE
  5
2E8
100
AcDbEntity
  8
RACCORDO
100
AcDbLine
 62
250
  6
CONTINUOUS
 10
21.195519105
 20
-40.6038216067
 11
21.1072961859
 21
-40.6021288601
  0
LINE
  5
2E9
100
AcDbEntity
  8
RACCORDO
100
AcDbLine
 62
250
  6
CONTINUOUS
 10
20.923152217
 20
-41.083265296
 11
20.7891254584
 21
-41.0804508903
  0
LINE
  5
2EA
100
AcDbEntity
  8
RACCORDO
100
AcDbLine
 62
7
  6
CONTINUOUS
 10
20.5819190273
 20
-41.0883419318
 11
20.6241937446
 21
-41.0892892315
  0
LINE
  5
2EB
100
AcDbEntity
  8
RACCORDO
100
AcDbLine
 62
250
  6
CONTINUOUS
 10
-38.1346573204
 20
-41.3004433047
 11
-38.1767319088
 21
-41.2994255829
  0
LINE
  5
2EC
100
AcDbEntity
  8
RACCORDO
100
AcDbLine
 62
250
  6
CONTINUOUS
 10
22.0198534465
 20
-41.1152209815
 11
21.8015294172
 21
-41.1099174031
  0
LWPOLYLINE
  5
2ED
100
AcDbEntity
  8
RACCORDO
100
AcDbPolyline
 62
250
  6
CONTINUOUS
 90
37
 70
0
 10
-33.7840046363
 20
-40.7498017391
 10
-34.0126130817
 20
-40.7437513929
 10
-34.2378604116
 20
-40.7284430064
 10
-34.4597452305
 20
-40.7038751871
 10
-34.6777874082
 20
-40.6700259739
 10
-34.8924635623
 20
-40.6269138226
 10
-35.1052060244
 20
-40.5745965744
 10
-35.31699285
 20
-40.5129538709
 10
-35.5268382785
 20
-40.4420983816
 10
-35.7332289541
 20
-40.3624375262
 10
-35.9360452258
 20
-40.2739238102
 10
-36.1354010757
 20
-40.1765990712
 10
-36.3301358447
 20
-40.0710069692
 10
-36.5201982232
 20
-39.9571125246
 10
-36.7056353147
 20
-39.8349465198
 10
-36.885436244
 20
-39.7051534173
 10
-37.0595756168
 20
-39.5676931817
 10
-37.2280764763
 20
-39.4226035022
 10
-37.390002882
 20
-39.2706477023
 10
-37.5453195352
 20
-39.111800097
 10
-37.6940615177
 20
-38.9460861549
 10
-37.835400809
 20
-38.7743482742
 10
-37.9693548759
 20
-38.5964558191
 10
-38.0959081311
 20
-38.412541301
 10
-38.2141855963
 20
-38.2238444572
 10
-38.3238818842
 20
-38.0310924036
 10
-38.4253075957
 20
-37.8335632272
 10
-38.5185125235
 20
-37.6303239098
 10
-38.6039105099
 20
-37.4208110472
 10
-38.6810906494
 20
-37.2055909742
 10
-38.7488662198
 20
-36.9854258871
 10
-38.8072535444
 20
-36.7598261911
 10
-38.8562418243
 20
-36.5292869939
 10
-38.8946069866
 20
-36.2960508719
 10
-38.9219450319
 20
-36.0608693671
 10
-38.9386695929
 20
-35.8230005507
 10
-38.9447848088
 20
-35.5824485534
  0
LINE
  5
2EE
100
AcDbEntity
  8
RACCORDO
100
AcDbLine
 62
250
  6
CONTINUOUS
 10
21.0671065661
 20
-41.0869939314
 11
20.923152217
 21
-41.083265296
  0
LWPOLYLINE
  5
2EF
100
AcDbEntity
  8
RACCORDO
100
AcDbPolyline
 62
250
  6
CONTINUOUS
 90
37
 70
0
 10
-43.6692037148
 20
-40.7330261611
 10
-43.918026063
 20
-40.7259030143
 10
-44.1615505643
 20
-40.7091532078
 10
-44.3997720801
 20
-40.6827716135
 10
-44.6317281781
 20
-40.6466724155
 10
-44.8583707888
 20
-40.6009309498
 10
-45.0825651143
 20
-40.5457826166
 10
-45.3056421961
 20
-40.4811624796
 10
-45.5262574317
 20
-40.4071219423
 10
-45.7432622723
 20
-40.3240706301
 10
-45.9566340357
 20
-40.2319563367
 10
-46.1663838816
 20
-40.13081977
 10
-46.3714161395
 20
-40.0212120387
 10
-46.5716454164
 20
-39.9031419769
 10
-46.7671485928
 20
-39.7765922558
 10
-46.9570757843
 20
-39.6420771104
 10
-47.14131861
 20
-39.4997149273
 10
-47.3199803061
 20
-39.3493821861
 10
-47.4925302978
 20
-39.1912321408
 10
-47.6590164982
 20
-39.0253426598
 10
-47.8193884584
 20
-38.8516333444
 10
-47.9729694957
 20
-38.6700214797
 10
-48.119985288
 20
-38.4802965322
 10
-48.2602101706
 20
-38.2826690486
 10
-48.3922929121
 20
-38.0776903944
 10
-48.5163267729
 20
-37.8650364608
 10
-48.6322233544
 20
-37.6450362081
 10
-48.738363276
 20
-37.4192249348
 10
-48.8346126805
 20
-37.1875026847
 10
-48.9211167402
 20
-36.9499807054
 10
-48.9966792932
 20
-36.7085157652
 10
-49.0611448126
 20
-36.4630594399
 10
-49.1146846885
 20
-36.2136759839
 10
-49.1565966029
 20
-35.9623946441
 10
-49.186653017
 20
-35.7098983898
 10
-49.2050994173
 20
-35.4555221618
 10
-49.2119441103
 20
-35.1992742496
  0
LINE
  5
2F0
100
AcDbEntity
  8
RACCORDO
100
AcDbLine
 62
250
  6
CONTINUOUS
 10
21.2814967783
 20
-40.6061142969
 11
21.195519105
 21
-40.6038216067
  0
LINE
  5
2F1
100
AcDbEntity
  8
RACCORDO
100
AcDbLine
 62
7
  6
CONTINUOUS
 10
20.6241937446
 20
-41.0892892315
 11
20.9330126969
 21
-41.0985828049
  0
LINE
  5
2F2
100
AcDbEntity
  8
RACCORDO
100
AcDbLine
 62
250
  6
CONTINUOUS
 10
21.8015294172
 20
-41.1099174031
 11
21.5563531201
 21
-41.1026263402
  0
LINE
  5
2F3
100
AcDbEntity
  8
RACCORDO
100
AcDbLine
 62
250
  6
CONTINUOUS
 10
21.5563531201
 20
-41.1026263402
 11
21.4518024277
 21
-41.099202987
  0
LWPOLYLINE
  5
2F4
100
AcDbEntity
  8
RACCORDO
100
AcDbPolyline
 62
250
  6
CONTINUOUS
 90
9
 70
0
 10
-38.1767319088
 20
-41.2994255829
 10
-38.2103153491
 20
-41.2983837629
 10
-38.2240229483
 20
-41.297862277
 10
-38.2356754471
 20
-41.29734325
 10
-38.2452978599
 20
-41.2968263842
 10
-38.2530432134
 20
-41.2963184227
 10
-38.2589625166
 20
-41.2958216129
 10
-38.2630047606
 20
-41.2953337073
 10
-38.2651699454
 20
-41.294854706
  0
LWPOLYLINE
  5
2F5
100
AcDbEntity
  8
RACCORDO
100
AcDbPolyline
 62
250
  6
CONTINUOUS
 90
3
 70
0
 10
21.4518024277
 20
-41.099202987
 10
21.3559468872
 20
-41.0960218526
 10
21.0671065661
 20
-41.0869939314
  0
LWPOLYLINE
  5
2F6
100
AcDbEntity
  8
RACCORDO
100
AcDbPolyline
 62
250
  6
CONTINUOUS
 90
3
 70
0
 10
21.4076603933
 20
-40.6108194805
 10
21.3658168689
 20
-40.6090771219
 10
21.2814967783
 20
-40.6061142969
  0
LWPOLYLINE
  5
2F7
100
AcDbEntity
  8
RACCORDO
100
AcDbPolyline
 62
250
  6
CONTINUOUS
 90
3
 70
0
 10
21.5332408857
 20
-40.6172336519
 10
21.4911956619
 20
-40.6148887798
 10
21.4076603933
 20
-40.6108194805
  0
LINE
  5
2F8
100
AcDbEntity
  8
RACCORDO
100
AcDbLine
 62
250
  6
CONTINUOUS
 10
-38.9447848088
 20
-35.5824485534
 11
-38.9463224696
 21
-30.464758463
  0
LINE
  5
2F9
100
AcDbEntity
  8
RACCORDO
100
AcDbLine
 62
250
  6
CONTINUOUS
 10
-38.9451367309
 20
23.9890745315
 11
-38.9463698394
 21
29.7971861064
  0
LINE
  5
2FA
100
AcDbEntity
  8
RACCORDO
100
AcDbLine
 62
250
  6
CONTINUOUS
 10
-36.5205683931
 20
-40.8086513684
 11
-36.5205683931
 21
-41.308575216
  0
LINE
  5
2FB
100
AcDbEntity
  8
RACCORDO
100
AcDbLine
 62
250
  6
CONTINUOUS
 10
-38.9463698394
 20
29.7971861064
 11
-38.9462892409
 21
30.6999999939
  0
LINE
  5
2FC
100
AcDbEntity
  8
RACCORDO
100
AcDbLine
 62
250
  6
CONTINUOUS
 10
-38.9463224696
 20
-30.464758463
 11
-38.9459399918
 21
-26.1100812726
  0
LINE
  5
2FD
100
AcDbEntity
  8
RACCORDO
100
AcDbLine
 62
250
  6
CONTINUOUS
 10
-38.9459399918
 20
-26.1100812726
 11
-38.9421041137
 21
-18.8358992988
  0
LINE
  5
2FE
100
AcDbEntity
  8
RACCORDO
100
AcDbLine
 62
250
  6
CONTINUOUS
 10
-38.9421041137
 20
-18.8358992988
 11
-38.9451367309
 21
23.9890745315
  0
LWPOLYLINE
  5
2FF
100
AcDbEntity
  8
RACCORDO
100
AcDbPolyline
 62
250
  6
CONTINUOUS
 90
19
 70
0
 10
-38.3675449882
 20
-40.2663357166
 10
-38.3675948942
 20
-40.2689444901
 10
-38.3695946308
 20
-40.2736964218
 10
-38.3735247489
 20
-40.2805453028
 10
-38.3793470315
 20
-40.2894245374
 10
-38.3870048619
 20
-40.3002477848
 10
-38.3964237696
 20
-40.3129097933
 10
-38.4075121649
 20
-40.3272874382
 10
-38.4201622259
 20
-40.3432409164
 10
-38.4342509376
 20
-40.3606150928
 10
-38.4496413057
 20
-40.3792410253
 10
-38.4661836812
 20
-40.3989376064
 10
-38.4837172056
 20
-40.4195133126
 10
-38.5020713958
 20
-40.440768076
 10
-38.5210677903
 20
-40.4624952352
 10
-38.5405216754
 20
-40.4844835376
 10
-38.5602439017
 20
-40.50651919
 10
-38.5800427206
 20
-40.5283879401
 10
-38.5997256376
 20
-40.5498771624
  0
LWPOLYLINE
  5
300
100
AcDbEntity
  8
RACCORDO
100
AcDbPolyline
 62
250
  6
CONTINUOUS
 90
19
 70
0
 10
-38.5361857558
 20
-40.7437296955
 10
-38.5392616776
 20
-40.7790095511
 10
-38.5429903617
 20
-40.8133282354
 10
-38.5473833979
 20
-40.8465241887
 10
-38.5524537034
 20
-40.878293731
 10
-38.5582164347
 20
-40.9086657875
 10
-38.5646776494
 20
-40.9379402166
 10
-38.5718884281
 20
-40.9660875864
 10
-38.5798074598
 20
-40.9927614194
 10
-38.5882955454
 20
-41.017740894
 10
-38.5973100699
 20
-41.0407396708
 10
-38.6069191383
 20
-41.0617457622
 10
-38.6171457175
 20
-41.080870715
 10
-38.6280534946
 20
-41.0979256229
 10
-38.6395995936
 20
-41.1125776783
 10
-38.6516436289
 20
-41.124602565
 10
-38.6641521927
 20
-41.1337379111
 10
-38.6771999313
 20
-41.1397112967
 10
-38.690813507
 20
-41.1422734091
  0
LINE
  5
301
100
AcDbEntity
  8
RACCORDO
100
AcDbLine
 62
250
  6
CONTINUOUS
 10
-22.292651923
 20
-40.6927029305
 11
-22.5381153569
 21
-40.7255224653
  0
LWPOLYLINE
  5
302
100
AcDbEntity
  8
RACCORDO
100
AcDbPolyline
 62
250
  6
CONTINUOUS
 90
13
 70
0
 10
-22.5381153569
 20
-40.7255224653
 10
-22.5929798507
 20
-40.7326446656
 10
-22.6481048997
 20
-40.7395261807
 10
-22.7040626486
 20
-40.7462566393
 10
-22.7607585255
 20
-40.7525196482
 10
-22.8181133078
 20
-40.7582572493
 10
-22.8761681754
 20
-40.7634943218
 10
-22.9349946928
 20
-40.7680322571
 10
-22.9946710215
 20
-40.7717649186
 10
-23.0550551888
 20
-40.7747579634
 10
-23.1158688495
 20
-40.7770608052
 10
-23.176966316
 20
-40.7786602267
 10
-23.2383525162
 20
-40.7794905346
  0
LINE
  5
303
100
AcDbEntity
  8
RACCORDO
100
AcDbLine
 62
250
  6
CONTINUOUS
 10
-22.174071606
 20
-40.6774822067
 11
-22.292651923
 21
-40.6927029305
  0
LINE
  5
304
100
AcDbEntity
  8
RACCORDO
100
AcDbLine
 62
250
  6
CONTINUOUS
 10
-22.1048587179
 20
-40.6690277448
 11
-22.174071606
 21
-40.6774822067
  0
LINE
  5
305
100
AcDbEntity
  8
RACCORDO
100
AcDbLine
 62
250
  6
CONTINUOUS
 10
-22.0419685718
 20
-40.6616965708
 11
-22.1048587179
 21
-40.6690277448
  0
LINE
  5
306
100
AcDbEntity
  8
RACCORDO
100
AcDbLine
 62
250
  6
CONTINUOUS
 10
-21.9844500656
 20
-40.6552729461
 11
-22.0419685718
 21
-40.6616965708
  0
LINE
  5
307
100
AcDbEntity
  8
RACCORDO
100
AcDbLine
 62
250
  6
CONTINUOUS
 10
-21.9312168709
 20
-40.6496221797
 11
-21.9844500656
 21
-40.6552729461
  0
LINE
  5
308
100
AcDbEntity
  8
RACCORDO
100
AcDbLine
 62
250
  6
CONTINUOUS
 10
-21.8813498028
 20
-40.6445963013
 11
-21.9312168709
 21
-40.6496221797
  0
LINE
  5
309
100
AcDbEntity
  8
RACCORDO
100
AcDbLine
 62
250
  6
CONTINUOUS
 10
-21.8341975941
 20
-40.6400765823
 11
-21.8813498028
 21
-40.6445963013
  0
LINE
  5
30A
100
AcDbEntity
  8
RACCORDO
100
AcDbLine
 62
250
  6
CONTINUOUS
 10
-21.7889025854
 20
-40.6359685905
 11
-21.8341975941
 21
-40.6400765823
  0
LINE
  5
30B
100
AcDbEntity
  8
RACCORDO
100
AcDbLine
 62
250
  6
CONTINUOUS
 10
-21.7446019014
 20
-40.6321789808
 11
-21.7889025854
 21
-40.6359685905
  0
LINE
  5
30C
100
AcDbEntity
  8
RACCORDO
100
AcDbLine
 62
250
  6
CONTINUOUS
 10
-21.7007072108
 20
-40.6286428213
 11
-21.7446019014
 21
-40.6321789808
  0
LWPOLYLINE
  5
30D
100
AcDbEntity
  8
RACCORDO
100
AcDbPolyline
 62
250
  6
CONTINUOUS
 90
3
 70
0
 10
-21.633797234
 20
-40.6236889503
 10
-21.6563572849
 20
-40.6252973528
 10
-21.7007072108
 20
-40.6286428213
  0
LWPOLYLINE
  5
30E
100
AcDbEntity
  8
RACCORDO
100
AcDbPolyline
 62
250
  6
CONTINUOUS
 90
19
 70
0
 10
40.2637526197
 20
-36.8492713473
 10
40.2355871502
 20
-36.8496491478
 10
40.2072863316
 20
-36.8495850956
 10
40.1791020266
 20
-36.8490797622
 10
40.1512850606
 20
-36.8481376466
 10
40.1240829859
 20
-36.8467671345
 10
40.0977378795
 20
-36.8449804238
 10
40.0724841947
 20
-36.8427934166
 10
40.0485466691
 20
-36.840225577
 10
40.0261383227
 20
-36.8372997576
 10
40.0054585715
 20
-36.8340419973
 10
39.9866914466
 20
-36.8304812886
 10
39.9700039534
 20
-36.8266493191
 10
39.9555445957
 20
-36.8225801912
 10
39.9434420477
 20
-36.8183101174
 10
39.9338040068
 20
-36.8138770973
 10
39.9267162424
 20
-36.8093205813
 10
39.9222418297
 20
-36.8046811195
 10
39.920420586
 20
-36.7999999999
  0
LINE
  5
30F
100
AcDbEntity
  8
RACCORDO
100
AcDbLine
 62
250
  6
CONTINUOUS
 10
-39.920420586
 20
-36.8
 11
-39.4551908211
 21
-36.8
  0
LINE
  5
310
100
AcDbEntity
  8
RACCORDO
100
AcDbLine
 62
250
  6
CONTINUOUS
 10
39.4551908211
 20
-36.8
 11
39.920420586
 21
-36.8
  0
LINE
  5
311
100
AcDbEntity
  8
RACCORDO
100
AcDbLine
 62
250
  6
CONTINUOUS
 10
-39.5431574806
 20
-35.5
 11
-39.3724240859
 21
-35.5
  0
LINE
  5
312
100
AcDbEntity
  8
RACCORDO
100
AcDbLine
 62
250
  6
CONTINUOUS
 10
39.5431574806
 20
-35.5
 11
39.3724240859
 21
-35.5
  0
LWPOLYLINE
  5
313
100
AcDbEntity
  8
RACCORDO
100
AcDbPolyline
 62
250
  6
CONTINUOUS
 90
3
 70
0
 10
21.6617382499
 20
-40.6256911295
 10
21.6183164959
 20
-40.6226181263
 10
21.5332408857
 20
-40.6172336519
  0
LWPOLYLINE
  5
314
100
AcDbEntity
  8
RACCORDO
100
AcDbPolyline
 62
250
  6
CONTINUOUS
 90
3
 70
0
 10
21.7966132658
 20
-40.6366468413
 10
21.7507211089
 20
-40.6326880675
 10
21.6617382499
 20
-40.6256911295
  0
LWPOLYLINE
  5
315
100
AcDbEntity
  8
RACCORDO
100
AcDbPolyline
 62
250
  6
CONTINUOUS
 90
3
 70
0
 10
21.9414844823
 20
-40.6506781841
 10
21.8917772835
 20
-40.6456223765
 10
21.7966132658
 20
-40.6366468413
  0
LWPOLYLINE
  5
316
100
AcDbEntity
  8
RACCORDO
100
AcDbPolyline
 62
250
  6
CONTINUOUS
 90
3
 70
0
 10
22.1008539998
 20
-40.6685197515
 10
22.045730194
 20
-40.6621134014
 10
21.9414844823
 20
-40.6506781841
  0
LWPOLYLINE
  5
317
100
AcDbEntity
  8
RACCORDO
100
AcDbPolyline
 62
250
  6
CONTINUOUS
 90
3
 70
0
 10
22.2768026543
 20
-40.6905744698
 10
22.2166216749
 20
-40.6828473264
 10
22.1008539998
 20
-40.6685197515
  0
LINE
  5
318
100
AcDbEntity
  8
RACCORDO
100
AcDbLine
 62
250
  6
CONTINUOUS
 10
22.5864470203
 20
-40.7318069553
 11
22.2768026543
 21
-40.6905744698
  0
LINE
  5
319
100
AcDbEntity
  8
RACCORDO
100
AcDbLine
 62
250
  6
CONTINUOUS
 10
-33.75
 20
-41.2931574806
 11
-33.75
 21
-41.1310794779
  0
LINE
  5
31A
100
AcDbEntity
  8
RACCORDO
100
AcDbLine
 62
7
  6
CONTINUOUS
 10
-27.5565329242
 20
33.1889562289
 11
-27.466172082
 21
33.65
  0
LWPOLYLINE
  5
31B
100
AcDbEntity
  8
DRAFT
100
AcDbPolyline
 62
7
  6
CONTINUOUS
 90
16
 70
0
 10
-28.0970449202
 20
35.8384724663
 10
-28.0930179425
 20
35.7549784792
 10
-28.0887554014
 20
35.6752504122
 10
-28.0843060947
 20
35.5996069923
 10
-28.0796677786
 20
35.5283534578
 10
-28.0748426969
 20
35.4617778047
 10
-28.0698863796
 20
35.4001478242
 10
-28.0647968123
 20
35.343710672
 10
-28.0595760093
 20
35.2927001649
 10
-28.0542855438
 20
35.2473312095
 10
-28.0489245856
 20
35.207788487
 10
-28.0434939648
 20
35.1742301399
 10
-28.0380577454
 20
35.1467931433
 10
-28.032637282
 20
35.1255884934
 10
-28.0272112199
 20
35.1107015528
 10
-28.0217795593
 20
35.1021927444
  0
LINE
  5
31C
100
AcDbEntity
  8
RACCORDO
100
AcDbLine
 62
7
  6
CONTINUOUS
 10
-27.8304949508
 20
39.8267928245
 11
-27.8136375127
 21
39.4610829371
  0
LWPOLYLINE
  5
31D
100
AcDbEntity
  8
RACCORDO
100
AcDbPolyline
 62
7
  6
CONTINUOUS
 90
19
 70
0
 10
-27.8905720095
 20
40.9478079379
 10
-27.8915461696
 20
40.9707380696
 10
-27.8945450946
 20
40.9942294686
 10
-27.8995687844
 20
41.018117097
 10
-27.906611708
 20
41.0423274291
 10
-27.9156793964
 20
41.0665200166
 10
-27.926788443
 20
41.0901253151
 10
-27.9400872193
 20
41.1129120416
 10
-27.9554273537
 20
41.1346721457
 10
-27.9723803248
 20
41.1549469291
 10
-27.9910090692
 20
41.1735363958
 10
-28.0112506504
 20
41.1903320835
 10
-28.0324877371
 20
41.2051151908
 10
-28.0546730343
 20
41.2177635979
 10
-28.0778538371
 20
41.2282645303
 10
-28.1015547
 20
41.2366007593
 10
-28.1256171411
 20
41.2427266713
 10
-28.1501996423
 20
41.2465954599
 10
-28.1753022035
 20
41.2481899225
  0
LINE
  5
31E
100
AcDbEntity
  8
DRAFT
100
AcDbLine
 62
7
  6
CONTINUOUS
 10
-28.1043864814
 20
36.0153918995
 11
-28.0970449202
 21
35.8384724663
  0
LINE
  5
31F
100
AcDbEntity
  8
RACCORDO
100
AcDbLine
 62
7
  6
CONTINUOUS
 10
-27.8136375127
 20
39.4610829371
 11
-27.7980921823
 21
39.0797130151
  0
LWPOLYLINE
  5
320
100
AcDbEntity
  8
RACCORDO
100
AcDbPolyline
 62
7
  6
CONTINUOUS
 90
3
 70
0
 10
-27.7980921823
 20
39.0797130151
 10
-27.7839554232
 20
38.6847440823
 10
-27.7806488949
 20
38.5841284665
  0
LINE
  5
321
100
AcDbEntity
  8
DRAFT
100
AcDbLine
 62
7
  6
CONTINUOUS
 10
-28.1106622132
 20
36.2032409067
 11
-28.1043864814
 21
36.0153918995
  0
LINE
  5
322
100
AcDbEntity
  8
DRAFT
100
AcDbLine
 62
7
  6
CONTINUOUS
 10
-27.770405221
 20
38.2461528126
 11
-27.7806488949
 21
38.5841284665
  0
LINE
  5
323
100
AcDbEntity
  8
DRAFT
100
AcDbLine
 62
7
  6
CONTINUOUS
 10
-28.1158001779
 20
36.3990403365
 11
-28.1106622132
 21
36.2032409067
  0
LINE
  5
324
100
AcDbEntity
  8
DRAFT
100
AcDbLine
 62
7
  6
CONTINUOUS
 10
-28.1197012201
 20
36.5996629268
 11
-28.1158001779
 21
36.3990403365
  0
LINE
  5
325
100
AcDbEntity
  8
RACCORDO
100
AcDbLine
 62
7
  6
CONTINUOUS
 10
-27.8895540025
 20
40.8964155199
 11
-27.8905720095
 21
40.9478079379
  0
LINE
  5
326
100
AcDbEntity
  8
DRAFT
100
AcDbLine
 62
7
  6
CONTINUOUS
 10
-28.1223046111
 20
36.801920784
 11
-28.1197012201
 21
36.5996629268
  0
LINE
  5
327
100
AcDbEntity
  8
RACCORDO
100
AcDbLine
 62
250
  6
CONTINUOUS
 10
-27.6130696169
 20
31.2066911469
 11
-27.6237975319
 21
32.3002525865
  0
LINE
  5
328
100
AcDbEntity
  8
DRAFT
100
AcDbLine
 62
7
  6
CONTINUOUS
 10
-28.123578789
 20
37.0025841764
 11
-28.1223046111
 21
36.801920784
  0
LWPOLYLINE
  5
329
100
AcDbEntity
  8
RACCORDO
100
AcDbPolyline
 62
7
  6
CONTINUOUS
 90
8
 70
0
 10
-27.4605172604
 20
41.0376470373
 10
-27.4606201277
 20
41.0602124044
 10
-27.4608270306
 20
41.0797142452
 10
-27.461135506
 20
41.0961724411
 10
-27.4615379179
 20
41.1091935699
 10
-27.4620317208
 20
41.1186464908
 10
-27.4626194601
 20
41.1246623444
 10
-27.4633011359
 20
41.1272411309
  0
LINE
  5
32A
100
AcDbEntity
  8
DRAFT
100
AcDbLine
 62
7
  6
CONTINUOUS
 10
-27.4904521453
 20
39.25
 11
-27.4732650825
 21
35.4416943714
  0
LWPOLYLINE
  5
32B
100
AcDbEntity
  8
DRAFT
100
AcDbPolyline
 62
7
  6
CONTINUOUS
 90
3
 70
0
 10
-27.4732650825
 20
35.4416943714
 10
-27.4684265803
 20
34.2389570598
 10
-27.466172082
 20
33.65
  0
LINE
  5
32C
100
AcDbEntity
  8
RACCORDO
100
AcDbLine
 62
250
  6
CONTINUOUS
 10
-27.8137035824
 20
30.7051908211
 11
-27.8137035824
 21
31.0051451296
  0
LINE
  5
32D
100
AcDbEntity
  8
RACCORDO
100
AcDbLine
 62
7
  6
CONTINUOUS
 10
-27.5501386097
 20
33.0290781048
 11
-27.5501383875
 21
30.7
  0
LINE
  5
32E
100
AcDbEntity
  8
RACCORDO
100
AcDbLine
 62
7
  6
CONTINUOUS
 10
-27.55
 20
33.4131080123
 11
-27.55
 21
33.65
  0
LINE
  5
32F
100
AcDbEntity
  8
DRAFT
100
AcDbLine
 62
7
  6
CONTINUOUS
 10
-27.55
 20
33.65
 11
-27.55
 21
35.15
  0
LINE
  5
330
100
AcDbEntity
  8
DRAFT
100
AcDbLine
 62
7
  6
CONTINUOUS
 10
-27.55
 20
38.25
 11
-27.55
 21
41.2159709216
  0
LINE
  5
331
100
AcDbEntity
  8
DRAFT
100
AcDbLine
 62
7
  6
CONTINUOUS
 10
-28.1234888384
 20
37.1984397773
 11
-28.123578789
 21
37.0025841764
  0
LINE
  5
332
100
AcDbEntity
  8
RACCORDO
100
AcDbLine
 62
250
  6
CONTINUOUS
 10
-28.5416313503
 20
38.858769905
 11
-28.554179783
 21
31.564525518
  0
LINE
  5
333
100
AcDbEntity
  8
RACCORDO
100
AcDbLine
 62
250
  6
CONTINUOUS
 10
-28.2343877461
 20
40.704337308
 11
-28.2337984011
 21
31.4138943513
  0
LINE
  5
334
100
AcDbEntity
  8
RACCORDO
100
AcDbLine
 62
7
  6
CONTINUOUS
 10
-27.4606164896
 20
40.9838384351
 11
-27.4605172604
 21
41.0376470373
  0
LINE
  5
335
100
AcDbEntity
  8
DRAFT
100
AcDbLine
 62
7
  6
CONTINUOUS
 10
-27.7320471995
 20
34.8158715335
 11
-27.7305101209
 21
35.1531508159
  0
LINE
  5
336
100
AcDbEntity
  8
RACCORDO
100
AcDbLine
 62
250
  6
CONTINUOUS
 10
-28.5359695506
 20
40.8689922836
 11
-28.5416313503
 21
38.858769905
  0
LINE
  5
337
100
AcDbEntity
  8
RACCORDO
100
AcDbLine
 62
7
  6
CONTINUOUS
 10
-27.4611285188
 20
40.9193987499
 11
-27.4606164896
 21
40.9838384351
  0
LINE
  5
338
100
AcDbEntity
  8
DRAFT
100
AcDbLine
 62
7
  6
CONTINUOUS
 10
-28.1220434211
 20
37.3863279669
 11
-28.1234888384
 21
37.1984397773
  0
LINE
  5
339
100
AcDbEntity
  8
RACCORDO
100
AcDbLine
 62
7
  6
CONTINUOUS
 10
-27.7355980378
 20
34.4172642642
 11
-27.7320471995
 21
34.8158715335
  0
LINE
  5
33A
100
AcDbEntity
  8
RACCORDO
100
AcDbLine
 62
7
  6
CONTINUOUS
 10
-27.7711972692
 20
32.3491628264
 11
-27.7660648858
 21
32.9294248493
  0
LINE
  5
33B
100
AcDbEntity
  8
RACCORDO
100
AcDbLine
 62
250
  6
CONTINUOUS
 10
-28.5353805065
 20
40.9249364239
 11
-28.5359695506
 21
40.8689922836
  0
LINE
  5
33C
100
AcDbEntity
  8
RACCORDO
100
AcDbLine
 62
7
  6
CONTINUOUS
 10
-27.7409194002
 20
34.0318287391
 11
-27.7355980378
 21
34.4172642642
  0
LINE
  5
33D
100
AcDbEntity
  8
RACCORDO
100
AcDbLine
 62
7
  6
CONTINUOUS
 10
-27.4626066044
 20
40.8090180263
 11
-27.4611285188
 21
40.9193987499
  0
LINE
  5
33E
100
AcDbEntity
  8
RACCORDO
100
AcDbLine
 62
250
  6
CONTINUOUS
 10
-28.5345888068
 20
40.9749650603
 11
-28.5353805065
 21
40.9249364239
  0
LINE
  5
33F
100
AcDbEntity
  8
RACCORDO
100
AcDbLine
 62
7
  6
CONTINUOUS
 10
-27.7660648858
 20
32.9294248493
 11
-27.7645912169
 21
33.0208720694
  0
LINE
  5
340
100
AcDbEntity
  8
RACCORDO
100
AcDbLine
 62
7
  6
CONTINUOUS
 10
-27.4626066044
 20
40.8090180263
 11
-27.4904521453
 21
39.25
  0
LINE
  5
341
100
AcDbEntity
  8
RACCORDO
100
AcDbLine
 62
7
  6
CONTINUOUS
 10
-27.7479936843
 20
33.6616627153
 11
-27.7409194002
 21
34.0318287391
  0
LINE
  5
342
100
AcDbEntity
  8
RACCORDO
100
AcDbLine
 62
7
  6
CONTINUOUS
 10
-27.7645912169
 20
33.0208720694
 11
-27.7627722021
 21
33.1025823216
  0
LWPOLYLINE
  5
343
100
AcDbEntity
  8
RACCORDO
100
AcDbPolyline
 62
250
  6
CONTINUOUS
 90
9
 70
0
 10
-27.6237975319
 20
32.3002525865
 10
-27.6227507818
 20
32.3377649503
 10
-27.6189198857
 20
32.3749114916
 10
-27.6123671348
 20
32.4114892036
 10
-27.6031920033
 20
32.4472256311
 10
-27.5914724718
 20
32.4820164321
 10
-27.5772077487
 20
32.5159072184
 10
-27.5604067395
 20
32.5488105077
 10
-27.5501394864
 20
32.5657062214
  0
LWPOLYLINE
  5
344
100
AcDbEntity
  8
RACCORDO
100
AcDbPolyline
 62
7
  6
CONTINUOUS
 90
3
 70
0
 10
-27.7627722021
 20
33.1025823216
 10
-27.7567504817
 20
33.308654151
 10
-27.7479936843
 20
33.6616627153
  0
LWPOLYLINE
  5
345
100
AcDbEntity
  8
RACCORDO
100
AcDbPolyline
 62
250
  6
CONTINUOUS
 90
16
 70
0
 10
-28.2330164442
 20
31.4125511708
 10
-28.2339412264
 20
31.3915244893
 10
-28.2370680174
 20
31.3707095537
 10
-28.2423621819
 20
31.3503369302
 10
-28.249765077
 20
31.3306322849
 10
-28.2591947011
 20
31.3118138855
 10
-28.2705466021
 20
31.2940901833
 10
-28.2836950353
 20
31.2776575025
 10
-28.2984943559
 20
31.262697867
 10
-28.314780632
 20
31.249376984
 10
-28.3323734606
 20
31.237842408
 10
-28.351077967
 20
31.2282219061
 10
-28.3706869628
 20
31.2206220432
 10
-28.3909832406
 20
31.2151270022
 10
-28.4117419794
 20
31.2117976512
 10
-28.432733236
 20
31.2106708687
  0
LWPOLYLINE
  5
346
100
AcDbEntity
  8
RACCORDO
100
AcDbPolyline
 62
250
  6
CONTINUOUS
 90
16
 70
0
 10
-28.2337955968
 20
31.4138876282
 10
-28.2348874197
 20
31.3931105199
 10
-28.2381860523
 20
31.3725430151
 10
-28.2436548478
 20
31.3524136279
 10
-28.2512330477
 20
31.3329460049
 10
-28.2608364571
 20
31.314356441
 10
-28.2723583801
 20
31.2968514759
 10
-28.2856708054
 20
31.2806255991
 10
-28.3006258272
 20
31.2658590896
 10
-28.3170572895
 20
31.2527160126
 10
-28.3347826325
 20
31.241342396
 10
-28.3536049197
 20
31.2318646086
 10
-28.3733150259
 20
31.2243879559
 10
-28.3936939618
 20
31.2189955095
 10
-28.4145153079
 20
31.215747184
 10
-28.435547728
 20
31.2146790722
  0
LWPOLYLINE
  5
347
100
AcDbEntity
  8
RACCORDO
100
AcDbPolyline
 62
250
  6
CONTINUOUS
 90
19
 70
0
 10
-38.2128549358
 20
-40.748576073
 10
-38.2219542153
 20
-40.7837708403
 10
-38.2334420885
 20
-40.8179760054
 10
-38.2472049979
 20
-40.8510320058
 10
-38.2630344211
 20
-40.8826376276
 10
-38.2808640795
 20
-40.9128244172
 10
-38.3008770213
 20
-40.9418927655
 10
-38.323146104
 20
-40.9698140883
 10
-38.3474934055
 20
-40.9962423189
 10
-38.3737884734
 20
-41.0209552585
 10
-38.4017592256
 20
-41.0436696303
 10
-38.4314240204
 20
-41.0643747616
 10
-38.4631237368
 20
-41.0831777662
 10
-38.4968940616
 20
-41.0998902873
 10
-38.532485117
 20
-41.114182317
 10
-38.569841503
 20
-41.1258280022
 10
-38.6088139032
 20
-41.1345667818
 10
-38.6491485605
 20
-41.1401313721
 10
-38.6905882461
 20
-41.1422768504
  0
LINE
  5
348
100
AcDbEntity
  8
RACCORDO
100
AcDbLine
 62
250
  6
CONTINUOUS
 10
-20.7526247759
 20
-26.207578233
 11
-22.5885265897
 21
-26.222558185
  0
LINE
  5
349
100
AcDbEntity
  8
RACCORDO
100
AcDbLine
 62
250
  6
CONTINUOUS
 10
-22.5885265897
 20
-26.222558185
 11
-23.0860996612
 21
-26.2246890916
  0
LINE
  5
34A
100
AcDbEntity
  8
RACCORDO
100
AcDbLine
 62
250
  6
CONTINUOUS
 10
24.0032383083
 20
-26.0042725341
 11
18.8236634573
 21
-26.0067437196
  0
LINE
  5
34B
100
AcDbEntity
  8
DRAFT
100
AcDbLine
 62
7
  6
CONTINUOUS
 10
-24.0
 20
-26.0
 11
24.0
 21
-26.0
  0
LINE
  5
34C
100
AcDbEntity
  8
RACCORDO
100
AcDbLine
 62
250
  6
CONTINUOUS
 10
22.0
 20
-25.9864939613
 11
-22.0
 21
-25.9864939613
  0
LINE
  5
34D
100
AcDbEntity
  8
RACCORDO
100
AcDbLine
 62
250
  6
CONTINUOUS
 10
-22.0
 20
-25.917150432
 11
22.0
 21
-25.917150432
  0
LINE
  5
34E
100
AcDbEntity
  8
RACCORDO
100
AcDbLine
 62
250
  6
CONTINUOUS
 10
-20.3000296847
 20
-26.2065798525
 11
-20.7526247759
 21
-26.207578233
  0
LINE
  5
34F
100
AcDbEntity
  8
RACCORDO
100
AcDbLine
 62
250
  6
CONTINUOUS
 10
18.8236634573
 20
-26.0067437196
 11
-20.2980576257
 21
-26.0064953867
  0
LINE
  5
350
100
AcDbEntity
  8
RACCORDO
100
AcDbLine
 62
250
  6
CONTINUOUS
 10
-23.0860996612
 20
-26.2246890916
 11
-24.2104596937
 21
-26.2244232792
  0
LINE
  5
351
100
AcDbEntity
  8
RACCORDO
100
AcDbLine
 62
250
  6
CONTINUOUS
 10
-20.2980576257
 20
-26.0064953867
 11
-24.0032382342
 21
-26.0042724364
  0
LINE
  5
352
100
AcDbEntity
  8
RACCORDO
100
AcDbLine
 62
250
  6
CONTINUOUS
 10
24.210459696
 20
-26.2244232792
 11
22.9174063459
 21
-26.2242291669
  0
LINE
  5
353
100
AcDbEntity
  8
RACCORDO
100
AcDbLine
 62
250
  6
CONTINUOUS
 10
20.6949379757
 20
-26.2073349761
 11
-20.3000296848
 21
-26.2065798499
  0
LINE
  5
354
100
AcDbEntity
  8
RACCORDO
100
AcDbLine
 62
250
  6
CONTINUOUS
 10
22.9174063459
 20
-26.2242291669
 11
22.3649286304
 21
-26.2209389098
  0
LWPOLYLINE
  5
355
100
AcDbEntity
  8
RACCORDO
100
AcDbPolyline
 62
250
  6
CONTINUOUS
 90
3
 70
0
 10
22.3649286304
 20
-26.2209389098
 10
21.6785392668
 20
-26.214649217
 10
20.6949379757
 20
-26.2073349761
  0
LINE
  5
356
100
AcDbEntity
  8
RACCORDO
100
AcDbLine
 62
250
  6
CONTINUOUS
 10
-39.5546522668
 20
31.0036641783
 11
-39.5551755906
 21
31.0051451296
  0
LWPOLYLINE
  5
357
100
AcDbEntity
  8
RACCORDO
100
AcDbPolyline
 62
250
  6
CONTINUOUS
 90
3
 70
0
 10
-39.4551908211
 20
30.7051908211
 10
-39.4729616137
 20
30.7582802307
 10
-39.5546522668
 20
31.0036641783
  0
LWPOLYLINE
  5
358
100
AcDbEntity
  8
RACCORDO
100
AcDbPolyline
 62
250
  6
CONTINUOUS
 90
6
 70
0
 10
-20.2948657491
 20
-41.076160393
 10
-20.2952712073
 20
-41.0736862791
 10
-20.2956738493
 20
-41.0677382927
 10
-20.2960708691
 20
-41.0583579522
 10
-20.2964595057
 20
-41.0456107462
 10
-20.2968370466
 20
-41.0295856754
  0
LWPOLYLINE
  5
359
100
AcDbEntity
  8
RACCORDO
100
AcDbPolyline
 62
7
  6
CONTINUOUS
 90
7
 70
0
 10
-27.5565329242
 20
33.1889562289
 10
-27.5545785268
 20
33.1623367256
 10
-27.5529796853
 20
33.135700135
 10
-27.5517363841
 20
33.1090512213
 10
-27.5508485436
 20
33.0823947438
 10
-27.550316021
 20
33.055735456
 10
-27.5501386097
 20
33.0290781048
  0
LWPOLYLINE
  5
35A
100
AcDbEntity
  8
RACCORDO
100
AcDbPolyline
 62
250
  6
CONTINUOUS
 90
16
 70
0
 10
-28.2267170964
 20
40.8352665968
 10
-28.2288198503
 20
40.8662744789
 10
-28.2341155946
 20
40.8969011013
 10
-28.2425475075
 20
40.9268176993
 10
-28.2540251012
 20
40.9557031265
 10
-28.268425192
 20
40.9832472999
 10
-28.2855932213
 20
41.0091545291
 10
-28.3053449179
 20
41.0331466962
 10
-28.3274682702
 20
41.0549662337
 10
-28.3517257974
 20
41.0743788895
 10
-28.3778571141
 20
41.0911762562
 10
-28.4055817133
 20
41.1051779959
 10
-28.4346019666
 20
41.1162337763
 10
-28.4646063424
 20
41.1242248974
 10
-28.4952727526
 20
41.1290655607
 10
-28.5262719942
 20
41.1307037852
  0
LINE
  5
35B
100
AcDbEntity
  8
RACCORDO
100
AcDbLine
 62
7
  6
CONTINUOUS
 10
-27.8839856187
 20
40.7550662281
 11
-27.8677294291
 21
40.5033726569
  0
LINE
  5
35C
100
AcDbEntity
  8
RACCORDO
100
AcDbLine
 62
7
  6
CONTINUOUS
 10
-27.8677294291
 20
40.5033726569
 11
-27.8532559555
 21
40.2588936227
  0
LWPOLYLINE
  5
35D
100
AcDbEntity
  8
RACCORDO
100
AcDbPolyline
 62
7
  6
CONTINUOUS
 90
7
 70
0
 10
-27.8839856187
 20
40.7550662281
 10
-27.8851322654
 20
40.7758296025
 10
-27.8861949893
 20
40.7979663512
 10
-27.8871825661
 20
40.82138707
 10
-27.8880862201
 20
40.8458545111
 10
-27.8888796241
 20
40.8709583987
 10
-27.8895540025
 20
40.8964155199
  0
LINE
  5
35E
100
AcDbEntity
  8
RACCORDO
100
AcDbLine
 62
7
  6
CONTINUOUS
 10
-27.8532559555
 20
40.2588936227
 11
-27.8393846985
 21
40.0031522829
  0
LINE
  5
35F
100
AcDbEntity
  8
RACCORDO
100
AcDbLine
 62
7
  6
CONTINUOUS
 10
-27.8393846985
 20
40.0031522829
 11
-27.8304949508
 21
39.8267928245
  0
LWPOLYLINE
  5
360
100
AcDbEntity
  8
RACCORDO
100
AcDbPolyline
 62
250
  6
CONTINUOUS
 90
3
 70
0
 10
-23.2989759476
 20
-41.1270021564
 10
-23.299067875
 20
-41.1245624445
 10
-23.2991591649
 20
-41.1187053049
  0
LINE
  5
361
100
AcDbEntity
  8
RACCORDO
100
AcDbLine
 62
250
  6
CONTINUOUS
 10
-22.0049551376
 20
22.0574321918
 11
-22.0044649503
 21
22.0316548831
  0
LINE
  5
362
100
AcDbEntity
  8
RACCORDO
100
AcDbLine
 62
250
  6
CONTINUOUS
 10
-22.0053571838
 20
22.0897813504
 11
-22.0049551376
 21
22.0574321918
  0
LINE
  5
363
100
AcDbEntity
  8
RACCORDO
100
AcDbLine
 62
250
  6
CONTINUOUS
 10
-23.2991591649
 20
-41.1187053049
 11
-23.2994229896
 21
-41.0811471602
  0
LINE
  5
364
100
AcDbEntity
  8
RACCORDO
100
AcDbLine
 62
250
  6
CONTINUOUS
 10
-22.0057565067
 20
22.1473614191
 11
-22.0053571838
 21
22.0897813504
  0
LINE
  5
365
100
AcDbEntity
  8
RACCORDO
100
AcDbLine
 62
250
  6
CONTINUOUS
 10
-22.0058772811
 20
22.2105496146
 11
-22.0057565067
 21
22.1473614191
  0
LINE
  5
366
100
AcDbEntity
  8
RACCORDO
100
AcDbLine
 62
250
  6
CONTINUOUS
 10
-24.0034504542
 20
-26.0049179336
 11
-24.0034751072
 21
20.0024475776
  0
LINE
  5
367
100
AcDbEntity
  8
RACCORDO
100
AcDbLine
 62
7
  6
CONTINUOUS
 10
-24.0
 20
0.0001673535
 11
-24.0000000158
 21
20.0000936341
  0
LINE
  5
368
100
AcDbEntity
  8
RACCORDO
100
AcDbLine
 62
250
  6
CONTINUOUS
 10
-23.9864939613
 20
-24.0
 11
-23.9864939613
 21
20.0
  0
LINE
  5
369
100
AcDbEntity
  8
RACCORDO
100
AcDbLine
 62
250
  6
CONTINUOUS
 10
-23.917150432
 20
20.0
 11
-23.917150432
 21
-24.0
  0
LINE
  5
36A
100
AcDbEntity
  8
RACCORDO
100
AcDbLine
 62
250
  6
CONTINUOUS
 10
-23.2994229896
 20
-41.0811471602
 11
-23.3000618924
 21
-39.4079092516
  0
LINE
  5
36B
100
AcDbEntity
  8
RACCORDO
100
AcDbLine
 62
250
  6
CONTINUOUS
 10
-22.9173027369
 20
20.0
 11
-22.9173027369
 21
-24.0
  0
LINE
  5
36C
100
AcDbEntity
  8
RACCORDO
100
AcDbLine
 62
250
  6
CONTINUOUS
 10
-22.0
 20
-24.9173027369
 11
-22.0
 21
-26.0
  0
LINE
  5
36D
100
AcDbEntity
  8
RACCORDO
100
AcDbLine
 62
250
  6
CONTINUOUS
 10
-22.0
 20
20.9173027369
 11
-22.0
 21
21.9999700978
  0
LINE
  5
36E
100
AcDbEntity
  8
DRAFT
100
AcDbLine
 62
7
  6
CONTINUOUS
 10
-24.0
 20
-26.0
 11
-24.0000015452
 21
0.0001673535
  0
LINE
  5
36F
100
AcDbEntity
  8
RACCORDO
100
AcDbLine
 62
250
  6
CONTINUOUS
 10
-24.2097768195
 20
-7.7739098826
 11
-24.209127066
 21
13.0993197221
  0
LINE
  5
370
100
AcDbEntity
  8
RACCORDO
100
AcDbLine
 62
250
  6
CONTINUOUS
 10
-24.209127066
 20
13.0993197221
 11
-24.2080530216
 21
20.0078943492
  0
LINE
  5
371
100
AcDbEntity
  8
RACCORDO
100
AcDbLine
 62
250
  6
CONTINUOUS
 10
-24.2104596937
 20
-26.2244232792
 11
-24.2097768195
 21
-7.7739098826
  0
LINE
  5
372
100
AcDbEntity
  8
RACCORDO
100
AcDbLine
 62
250
  6
CONTINUOUS
 10
-23.3000618924
 20
-39.4079092516
 11
-23.2999097443
 21
-26.1809762433
  0
LINE
  5
373
100
AcDbEntity
  8
RACCORDO
100
AcDbLine
 62
250
  6
CONTINUOUS
 10
-23.2999097443
 20
-26.1809762433
 11
-23.299599329
 21
-26.1382486939
  0
LWPOLYLINE
  5
374
100
AcDbEntity
  8
RACCORDO
100
AcDbPolyline
 62
250
  6
CONTINUOUS
 90
11
 70
0
 10
-23.299599329
 20
-26.1382486939
 10
-23.2990453546
 20
-26.098719688
 10
-23.2986815458
 20
-26.0807576211
 10
-23.2982659598
 20
-26.0642913042
 10
-23.2978036108
 20
-26.0495194214
 10
-23.2973000774
 20
-26.036620219
 10
-23.2967614352
 20
-26.0257493497
 10
-23.2961941834
 20
-26.0170379902
 10
-23.2956051663
 20
-26.0105912635
 10
-23.2950014914
 20
-26.0064869692
 10
-23.2943904426
 20
-26.0047746418
  0
LWPOLYLINE
  5
375
100
AcDbEntity
  8
RACCORDO
100
AcDbPolyline
 62
250
  6
CONTINUOUS
 90
31
 70
0
 10
-24.2080530216
 20
20.0078943492
 10
-24.2063728037
 20
20.104701267
 10
-24.1997908359
 20
20.2028664782
 10
-24.188306821
 20
20.3023896863
 10
-24.1723600127
 20
20.4031021173
 10
-24.1515102275
 20
20.5051716173
 10
-24.1244377492
 20
20.6091025576
 10
-24.0908736456
 20
20.7158853303
 10
-24.0510851454
 20
20.8245278431
 10
-24.0045569569
 20
20.9325609232
 10
-23.9509725004
 20
21.0399695845
 10
-23.8906470784
 20
21.1467675386
 10
-23.8240140466
 20
21.2505294813
 10
-23.7506482198
 20
21.3512037075
 10
-23.6709742229
 20
21.4488413632
 10
-23.5867012203
 20
21.5411725109
 10
-23.4975578781
 20
21.6278640345
 10
-23.4038160888
 20
21.7092496076
 10
-23.3080010201
 20
21.784060639
 10
-23.2105035667
 20
21.8517437517
 10
-23.1109344056
 20
21.912853891
 10
-23.0106490293
 20
21.9677855992
 10
-22.9108770707
 20
22.0162704876
 10
-22.8103904206
 20
22.0585784653
 10
-22.7068576105
 20
22.095911173
 10
-22.5999145223
 20
22.1289388343
 10
-22.4899256328
 20
22.1569915834
 10
-22.3756517358
 20
22.1792602986
 10
-22.2566794298
 20
22.1954749407
 10
-22.1334214261
 20
22.2059048602
 10
-22.0058772811
 20
22.2105496146
  0
LWPOLYLINE
  5
376
100
AcDbEntity
  8
RACCORDO
100
AcDbPolyline
 62
250
  6
CONTINUOUS
 90
31
 70
0
 10
-24.0034751073
 20
20.0024475776
 10
-24.0015529642
 20
20.090028356
 10
-23.9956348996
 20
20.1792646116
 10
-23.9854879728
 20
20.2699615731
 10
-23.9709665274
 20
20.3614534937
 10
-23.9518103875
 20
20.4539587333
 10
-23.9274351515
 20
20.5485355744
 10
-23.8971798705
 20
20.6456236937
 10
-23.8608438051
 20
20.7440219406
 10
-23.8185217089
 20
20.8422785959
 10
-23.7700248484
 20
20.9399839393
 10
-23.7151933216
 20
21.0366911584
 10
-23.6545282958
 20
21.1310027047
 10
-23.5880019223
 20
21.2226407005
 10
-23.5157642654
 20
21.3111000823
 10
-23.438986366
 20
21.3948927322
 10
-23.3579986147
 20
21.4738013047
 10
-23.2731151883
 20
21.5476540158
 10
-23.1858583264
 20
21.6154156756
 10
-23.097123331
 20
21.6768699864
 10
-23.0069666796
 20
21.7324287052
 10
-22.9157792325
 20
21.7822275117
 10
-22.8249199857
 20
21.825971325
 10
-22.7338370863
 20
21.8643516211
 10
-22.6398301711
 20
21.8985713515
 10
-22.542619669
 20
21.9285021397
 10
-22.4428409526
 20
21.953719306
 10
-22.3389441883
 20
21.9742788833
 10
-22.2305345401
 20
21.9897246034
 10
-22.1184514028
 20
21.9993910988
 10
-22.0030064283
 20
22.0027440999
  0
LWPOLYLINE
  5
377
100
AcDbEntity
  8
RACCORDO
100
AcDbPolyline
 62
7
  6
CONTINUOUS
 90
28
 70
0
 10
-24.0000000002
 20
20.0000936234
 10
-23.9966164509
 20
20.1162556359
 10
-23.9864795785
 20
20.2321326141
 10
-23.9696056484
 20
20.3473307768
 10
-23.9460156011
 20
20.4615383815
 10
-23.9157807059
 20
20.5742801558
 10
-23.8790693479
 20
20.6849311959
 10
-23.8361068607
 20
20.7929454701
 10
-23.7870067327
 20
20.8981530375
 10
-23.7317901821
 20
21.0004959346
 10
-23.6704847308
 20
21.0998109537
 10
-23.6033782564
 20
21.1955308157
 10
-23.5309174163
 20
21.287017661
 10
-23.4535524137
 20
21.3737940099
 10
-23.3714161262
 20
21.4557956672
 10
-23.2845081742
 20
21.5330213957
 10
-23.1928815315
 20
21.6053466227
 10
-23.0970244474
 20
21.6723119397
 10
-22.9976103385
 20
21.733448853
 10
-22.8951828863
 20
21.7884906137
 10
-22.7899340233
 20
21.8373990684
 10
-22.6820487153
 20
21.8801114786
 10
-22.5718593849
 20
21.9164988703
 10
-22.4597690141
 20
21.946430162
 10
-22.3460604564
 20
21.9698247764
 10
-22.2310819374
 20
21.9865961191
 10
-22.1152505171
 20
21.9966696273
 10
-21.9989558343
 20
22.0
  0
LWPOLYLINE
  5
378
100
AcDbEntity
  8
RACCORDO
100
AcDbPolyline
 62
250
  6
CONTINUOUS
 90
19
 70
0
 10
-39.920420586
 20
-36.7999999999
 10
-39.9222418347
 20
-36.8046811257
 10
-39.9267162605
 20
-36.8093205932
 10
-39.9338040451
 20
-36.8138771143
 10
-39.9434421128
 20
-36.8183101389
 10
-39.9555446929
 20
-36.8225802164
 10
-39.9700040851
 20
-36.8266493467
 10
-39.9866916134
 20
-36.8304813171
 10
-40.0054587723
 20
-36.8340420255
 10
-40.0261385526
 20
-36.837299784
 10
-40.0485469211
 20
-36.8402256003
 10
-40.0724844603
 20
-36.8427934359
 10
-40.0977381473
 20
-36.8449804385
 10
-40.1240832429
 20
-36.8467671443
 10
-40.1512852936
 20
-36.8481376518
 10
-40.1791022213
 20
-36.8490797636
 10
-40.2072864735
 20
-36.8495850943
 10
-40.2355872266
 20
-36.8496491459
 10
-40.2637526197
 20
-36.8492713473
  0
LINE
  5
379
100
AcDbEntity
  8
RACCORDO
100
AcDbLine
 62
250
  6
CONTINUOUS
 10
27.6237975323
 20
32.3002525863
 11
27.7711969585
 21
32.3491625628
  0
LINE
  5
37A
100
AcDbEntity
  8
RACCORDO
100
AcDbLine
 62
250
  6
CONTINUOUS
 10
-22.0
 20
-24.9173027369
 11
22.0
 21
-24.9173027369
  0
LINE
  5
37B
100
AcDbEntity
  8
RACCORDO
100
AcDbLine
 62
250
  6
CONTINUOUS
 10
-22.9173027369
 20
-24.0
 11
-23.9997847516
 21
-24.0
  0
LINE
  5
37C
100
AcDbEntity
  8
RACCORDO
100
AcDbLine
 62
250
  6
CONTINUOUS
 10
22.9173027369
 20
-24.0
 11
23.9998561347
 21
-24.0
  0
LWPOLYLINE
  5
37D
100
AcDbEntity
  8
RACCORDO
100
AcDbPolyline
 62
250
  6
CONTINUOUS
 90
6
 70
0
 10
-22.0044649503
 20
22.0316548831
 10
-22.0041936029
 20
22.0216081792
 10
-22.0039087931
 20
22.0136153453
 10
-22.0036137506
 20
22.0077670192
 10
-22.0033118211
 20
22.0041295209
 10
-22.0030064283
 20
22.0027440999
  0
LINE
  5
37E
100
AcDbEntity
  8
RACCORDO
100
AcDbLine
 62
7
  6
CONTINUOUS
 10
-18.6465188536
 20
-41.2931574806
 11
-18.6501479305
 21
-41.0852478042
  0
LINE
  5
37F
100
AcDbEntity
  8
RACCORDO
100
AcDbLine
 62
250
  6
CONTINUOUS
 10
-17.6498244892
 20
-41.1125032806
 11
-17.6503013895
 21
-41.0851816818
  0
LINE
  5
380
100
AcDbEntity
  8
RACCORDO
100
AcDbLine
 62
250
  6
CONTINUOUS
 10
-20.2968370466
 20
-41.0295856754
 11
-20.297548361
 21
-40.988171611
  0
LINE
  5
381
100
AcDbEntity
  8
RACCORDO
100
AcDbLine
 62
250
  6
CONTINUOUS
 10
-20.297548361
 20
-40.988171611
 11
-20.2984696389
 21
-40.904961722
  0
LINE
  5
382
100
AcDbEntity
  8
RACCORDO
100
AcDbLine
 62
250
  6
CONTINUOUS
 10
-20.2984696389
 20
-40.904961722
 11
-20.299482449
 21
-40.7237421142
  0
LINE
  5
383
100
AcDbEntity
  8
RACCORDO
100
AcDbLine
 62
7
  6
CONTINUOUS
 10
-21.0
 20
-41.2931574806
 11
-20.9999999992
 21
-41.1029462152
  0
LINE
  5
384
100
AcDbEntity
  8
RACCORDO
100
AcDbLine
 62
250
  6
CONTINUOUS
 10
-20.2996365103
 20
-39.0030003901
 11
-20.299482449
 21
-40.7237421142
  0
LINE
  5
385
100
AcDbEntity
  8
RACCORDO
100
AcDbLine
 62
250
  6
CONTINUOUS
 10
-20.2996365103
 20
-39.0030003901
 11
-20.3000153372
 21
-26.1859703089
  0
LINE
  5
386
100
AcDbEntity
  8
RACCORDO
100
AcDbLine
 62
250
  6
CONTINUOUS
 10
-20.3000153372
 20
-26.1859703089
 11
-20.2997515852
 21
-26.1078572206
  0
LINE
  5
387
100
AcDbEntity
  8
RACCORDO
100
AcDbLine
 62
250
  6
CONTINUOUS
 10
-20.2997515852
 20
-26.1078572206
 11
-20.2993625793
 21
-26.0595149975
  0
LWPOLYLINE
  5
388
100
AcDbEntity
  8
RACCORDO
100
AcDbPolyline
 62
250
  6
CONTINUOUS
 90
7
 70
0
 10
-20.2993625793
 20
-26.0595149975
 10
-20.2990314548
 20
-26.0348194682
 10
-20.2988494282
 20
-26.0251512576
 10
-20.2986589724
 20
-26.0174131407
 10
-20.2984621152
 20
-26.0116874989
 10
-20.2982609524
 20
-26.0080352873
 10
-20.2980576257
 20
-26.0064953867
  0
LWPOLYLINE
  5
389
100
AcDbEntity
  8
0
100
AcDbPolyline
 62
7
  6
CONTINUOUS
 90
3
 70
0
 43
0.3500000006
 10
1.035714268
 20
62.3208607178
 10
0.9642857051
 20
62.1065762329
 10
0.8214285793
 20
61.8208605652
  0
LWPOLYLINE
  5
38A
100
AcDbEntity
  8
RACCORDO
100
AcDbPolyline
 62
250
  6
CONTINUOUS
 90
19
 70
0
 10
28.5544997616
 20
31.5648541066
 10
28.524878796
 20
31.5549964058
 10
28.4960620275
 20
31.5450211411
 10
28.4681755784
 20
31.5349738421
 10
28.4413625024
 20
31.5249177659
 10
28.4157965613
 20
31.5149383482
 10
28.3916151837
 20
31.5051013905
 10
28.3690543544
 20
31.4955271641
 10
28.3481245838
 20
31.4862464297
 10
28.3286376878
 20
31.4771775308
 10
28.3106274027
 20
31.4683299247
 10
28.2943081251
 20
31.459820544
 10
28.2797951893
 20
31.451726142
 10
28.2672501813
 20
31.4441542896
 10
28.2566392351
 20
31.4370991928
 10
28.2478686636
 20
31.4304853493
 10
28.2410419414
 20
31.4243455081
 10
28.2363192894
 20
31.4187903225
 10
28.2334045183
 20
31.4129502945
  0
LINE
  5
38B
100
AcDbEntity
  8
RACCORDO
100
AcDbLine
 62
250
  6
CONTINUOUS
 10
27.6130696169
 20
31.2066911469
 11
28.2330146113
 21
31.4125505623
  0
LINE
  5
38C
100
AcDbEntity
  8
RACCORDO
100
AcDbLine
 62
250
  6
CONTINUOUS
 10
27.8137035824
 20
31.0051451296
 11
28.4327437219
 21
31.2106743501
  0
LWPOLYLINE
  5
38D
100
AcDbEntity
  8
RACCORDO
100
AcDbPolyline
 62
250
  6
CONTINUOUS
 90
19
 70
0
 10
-39.9353569359
 20
30.9853873969
 10
-39.9372530147
 20
30.9889895094
 10
-39.9419225438
 20
30.9925581044
 10
-39.949322073
 20
30.9960599756
 10
-39.9593827491
 20
30.9994625381
 10
-39.9720109568
 20
31.0027341306
 10
-39.9870891899
 20
31.005844311
 10
-40.0044771443
 20
31.0087641387
 10
-40.024013024
 20
31.0114664447
 10
-40.0455150465
 20
31.0139260837
 10
-40.0687831341
 20
31.0161201687
 10
-40.0936007758
 20
31.0180282837
 10
-40.1197370419
 20
31.0196326734
 10
-40.1469487329
 20
31.020918409
 10
-40.1749826423
 20
31.0218735266
 10
-40.203577913
 20
31.0224891387
 10
-40.2324684642
 20
31.0227595172
 10
-40.2613854677
 20
31.022682146
 10
-40.2900598489
 20
31.0222577452
  0
LWPOLYLINE
  5
38E
100
AcDbEntity
  8
RACCORDO
100
AcDbPolyline
 62
250
  6
CONTINUOUS
 90
3
 70
0
 10
-28.5540387421
 20
31.5643920987
 10
-28.5493161414
 20
31.549546001
 10
-28.5071671869
 20
31.4233790219
  0
LINE
  5
38F
100
AcDbEntity
  8
RACCORDO
100
AcDbLine
 62
7
  6
CONTINUOUS
 10
-17.4508453898
 20
-41.1421550834
 11
-17.4534811464
 21
-41.2931574806
  0
LINE
  5
390
100
AcDbEntity
  8
0
100
AcDbLine
 62
7
  6
CONTINUOUS
 10
-5.095883
 20
30.14582
 11
-4.447705
 21
32.417039
  0
LINE
  5
391
100
AcDbEntity
  8
0
100
AcDbLine
 62
7
  6
CONTINUOUS
 10
-3.759419
 20
32.417039
 11
-4.820044
 21
29.117436
  0
LINE
  5
392
100
AcDbEntity
  8
RACCORDO
100
AcDbLine
 62
7
  6
CONTINUOUS
 10
-24.0034504542
 20
-26.0049179336
 11
-24.0032382461
 21
-26.0042724521
  0
LWPOLYLINE
  5
393
100
AcDbEntity
  8
RACCORDO
100
AcDbPolyline
 62
250
  6
CONTINUOUS
 90
4
 70
0
 10
28.2330146113
 20
31.4125505623
 10
28.2331438623
 20
31.4126226021
 10
28.2332738313
 20
31.4127558462
 10
28.2334045183
 20
31.4129502945
  0
LWPOLYLINE
  5
394
100
AcDbEntity
  8
RACCORDO
100
AcDbPolyline
 62
250
  6
CONTINUOUS
 90
7
 70
0
 10
28.4327332312
 20
31.2106713463
 10
28.433202443
 20
31.2108901595
 10
28.4336719828
 20
31.2112890283
 10
28.4341415822
 20
31.2118677317
 10
28.4346109721
 20
31.2126260474
 10
28.4350798828
 20
31.2135637526
 10
28.4355480441
 20
31.2146806233
  0
LWPOLYLINE
  5
395
100
AcDbEntity
  8
RACCORDO
100
AcDbPolyline
 62
250
  6
CONTINUOUS
 90
3
 70
0
 10
39.7513287694
 20
30.8038363538
 10
39.7540045841
 20
30.8047507107
 10
39.7551451296
 20
30.8051755906
  0
LWPOLYLINE
  5
396
100
AcDbEntity
  8
RACCORDO
100
AcDbPolyline
 62
250
  6
CONTINUOUS
 90
3
 70
0
 10
39.4551908211
 20
30.7051908211
 10
39.5004882305
 20
30.7203544417
 10
39.7254526853
 20
30.7952841561
  0
LINE
  5
397
100
AcDbEntity
  8
RACCORDO
100
AcDbLine
 62
250
  6
CONTINUOUS
 10
39.7254526853
 20
30.7952841561
 11
39.7513287694
 21
30.8038363538
  0
LWPOLYLINE
  5
398
100
AcDbEntity
  8
RACCORDO
100
AcDbPolyline
 62
250
  6
CONTINUOUS
 90
7
 70
0
 10
-28.435547728
 20
31.2146790722
 10
-28.4350785269
 20
31.2135599842
 10
-28.4346090215
 20
31.2126215512
 10
-28.4341394824
 20
31.2118635972
 10
-28.4336701782
 20
31.211285943
 10
-28.4332013754
 20
31.2108884065
 10
-28.4327333374
 20
31.2106707895
  0
LWPOLYLINE
  5
399
100
AcDbEntity
  8
RACCORDO
100
AcDbPolyline
 62
250
  6
CONTINUOUS
 90
48
 70
0
 10
-28.2337957448
 20
31.4138881026
 10
-28.2345093388
 20
31.4157136059
 10
-28.2355297642
 20
31.417588508
 10
-28.2368254089
 20
31.4195006228
 10
-28.238354941
 20
31.4214258612
 10
-28.240095533
 20
31.4233652386
 10
-28.2420606951
 20
31.4253499069
 10
-28.2442382387
 20
31.427375673
 10
-28.2466139625
 20
31.4294365097
 10
-28.2492277277
 20
31.4315694728
 10
-28.2520972304
 20
31.4337865619
 10
-28.255206851
 20
31.4360737297
 10
-28.2585607346
 20
31.4384328878
 10
-28.2621648724
 20
31.440866675
 10
-28.2660132338
 20
31.4433696379
 10
-28.270090426
 20
31.4459311273
 10
-28.2743932799
 20
31.4485489685
 10
-28.2789177635
 20
31.4512206701
 10
-28.2836425348
 20
31.4539339906
 10
-28.2885608675
 20
31.4566857821
 10
-28.2936666989
 20
31.4594734009
 10
-28.2989355835
 20
31.4622845096
 10
-28.3043432832
 20
31.4651077014
 10
-28.3098965203
 20
31.4679480039
 10
-28.3156183515
 20
31.4708179372
 10
-28.3214833398
 20
31.4737052521
 10
-28.327505052
 20
31.476617158
 10
-28.333774759
 20
31.47959684
 10
-28.340297145
 20
31.4826443591
 10
-28.3470694252
 20
31.4857563302
 10
-28.3541837894
 20
31.4889720743
 10
-28.3616620228
 20
31.4922972047
 10
-28.3694923413
 20
31.4957222415
 10
-28.3777235688
 20
31.4992639515
 10
-28.3863681793
 20
31.5029225001
 10
-28.3954219768
 20
31.5066910629
 10
-28.4049104213
 20
31.5105750628
 10
-28.4148352674
 20
31.5145697277
 10
-28.4251959767
 20
31.5186689519
 10
-28.4360138352
 20
31.5228747342
 10
-28.4472814097
 20
31.5271774527
 10
-28.4589978922
 20
31.5315706652
 10
-28.4711928672
 20
31.5360590573
 10
-28.4838505637
 20
31.5406332494
 10
-28.496965775
 20
31.5452769118
 10
-28.5105813011
 20
31.5499806259
 10
-28.5246898587
 20
31.5547315913
 10
-28.5540387421
 20
31.5643920987
  0
LWPOLYLINE
  5
39A
100
AcDbEntity
  8
RACCORDO
100
AcDbPolyline
 62
250
  6
CONTINUOUS
 90
7
 70
0
 10
-28.4419517131
 20
31.232174267
 10
-28.4398006022
 20
31.2261866076
 10
-28.4388481195
 20
31.2234888591
 10
-28.4379018108
 20
31.2209626709
 10
-28.4369821393
 20
31.2186243611
 10
-28.4361795527
 20
31.2165189539
 10
-28.4355482813
 20
31.2146805058
  0
LWPOLYLINE
  5
39B
100
AcDbEntity
  8
RACCORDO
100
AcDbPolyline
 62
250
  6
CONTINUOUS
 90
7
 70
0
 10
-28.2337984011
 20
31.4138943513
 10
-28.2336661219
 20
31.4135183312
 10
-28.2335346705
 20
31.4132031891
 10
-28.2334040469
 20
31.4129489251
 10
-28.233274251
 20
31.4127555393
 10
-28.2331452827
 20
31.4126230318
 10
-28.2330171421
 20
31.4125514026
  0
LWPOLYLINE
  5
39C
100
AcDbEntity
  8
RACCORDO
100
AcDbPolyline
 62
250
  6
CONTINUOUS
 90
3
 70
0
 10
-28.5071671869
 20
31.4233790219
 10
-28.5036877276
 20
31.413023876
 10
-28.4419517131
 20
31.232174267
  0
LINE
  5
39D
100
AcDbEntity
  8
0
100
AcDbLine
 62
7
  6
CONTINUOUS
 10
-0.77668
 20
30.585089
 11
-0.087923
 21
32.417039
  0
LINE
  5
39E
100
AcDbEntity
  8
0
100
AcDbLine
 62
7
  6
CONTINUOUS
 10
0.08679
 20
31.263033
 11
-0.732142
 21
29.117436
  0
LWPOLYLINE
  5
39F
100
AcDbEntity
  8
RACCORDO
100
AcDbPolyline
 62
7
  6
CONTINUOUS
 90
8
 70
0
 10
-24.0034499259
 20
-26.0049158745
 10
-24.0043211738
 20
-26.0067366167
 10
-24.0064308447
 20
-26.0098854036
 10
-24.0098256252
 20
-26.014352942
 10
-24.01454818
 20
-26.0201198089
 10
-24.0206245009
 20
-26.0271842639
 10
-24.0280521453
 20
-26.0355627145
 10
-24.0368233732
 20
-26.0452851796
  0
LINE
  5
3A0
100
AcDbEntity
  8
RACCORDO
100
AcDbLine
 62
7
  6
CONTINUOUS
 10
27.4632998452
 20
41.12723981
 11
27.55
 21
41.2159709216
  0
LINE
  5
3A1
100
AcDbEntity
  8
RACCORDO
100
AcDbLine
 62
250
  6
CONTINUOUS
 10
-49.6076937033
 20
-35.1586075323
 11
-49.859966909
 21
-35.4108807381
  0
LINE
  5
3A2
100
AcDbEntity
  8
RACCORDO
100
AcDbLine
 62
250
  6
CONTINUOUS
 10
-49.6076937033
 20
35.1586075323
 11
-49.859966909
 21
35.4108807381
  0
LWPOLYLINE
  5
3A3
100
AcDbEntity
  8
RACCORDO
100
AcDbPolyline
 62
250
  6
CONTINUOUS
 90
16
 70
0
 10
-28.2344279287
 20
40.6898813572
 10
-28.2376309307
 20
40.6981568738
 10
-28.2438929886
 20
40.7063005613
 10
-28.2531494468
 20
40.7142283582
 10
-28.2653047399
 20
40.7218584319
 10
-28.2802333826
 20
40.729112025
 10
-28.2977812679
 20
40.7359142679
 10
-28.3177672497
 20
40.7421949484
 10
-28.3399850187
 20
40.7478892389
 10
-28.3642052396
 20
40.7529383667
 10
-28.3901779005
 20
40.757290216
 10
-28.4176349038
 20
40.7608998694
 10
-28.4462928458
 20
40.763730072
 10
-28.47585592
 20
40.7657516121
 10
-28.5060189681
 20
40.7669436243
 10
-28.5364706445
 20
40.7672938062
  0
LINE
  5
3A4
100
AcDbEntity
  8
0
100
AcDbLine
 62
7
  6
CONTINUOUS
 10
-2.444284
 20
29.117436
 11
-2.146349
 21
32.417039
  0
LINE
  5
3A5
100
AcDbEntity
  8
0
100
AcDbLine
 62
7
  6
CONTINUOUS
 10
2.365407
 20
31.510392
 11
2.022464
 21
30.285868
  0
LINE
  5
3A6
100
AcDbEntity
  8
0
100
AcDbLine
 62
7
  6
CONTINUOUS
 10
1.881575
 20
29.776154
 11
1.691521
 21
29.117436
  0
LINE
  5
3A7
100
AcDbEntity
  8
0
100
AcDbLine
 62
7
  6
CONTINUOUS
 10
1.010237
 20
29.117436
 11
2.045203
 21
32.417039
  0
LWPOLYLINE
  5
3A8
100
AcDbEntity
  8
RACCORDO
100
AcDbPolyline
 62
250
  6
CONTINUOUS
 90
16
 70
0
 10
-38.2128551391
 20
-40.748576515
 10
-38.217456397
 20
-40.7546932802
 10
-38.2252463856
 20
-40.7600118882
 10
-38.236138839
 20
-40.7644733888
 10
-38.2500131428
 20
-40.7680283421
 10
-38.2667155624
 20
-40.7706373182
 10
-38.2860608737
 20
-40.7722713577
 10
-38.3078346004
 20
-40.7729123477
 10
-38.3317954593
 20
-40.7725531998
 10
-38.3576778773
 20
-40.7711978963
 10
-38.3851948435
 20
-40.7688614657
 10
-38.4140415027
 20
-40.7655698038
 10
-38.4438985927
 20
-40.7613593389
 10
-38.474435379
 20
-40.7562766689
 10
-38.5053132638
 20
-40.7503780945
 10
-38.5361899914
 20
-40.74372895
  0
LINE
  5
3A9
100
AcDbEntity
  8
DRAFT
100
AcDbLine
 62
7
  6
CONTINUOUS
 10
28.0217795578
 20
35.1021927444
 11
27.7320471986
 21
34.8158715335
  0
LINE
  5
3AA
100
AcDbEntity
  8
RACCORDO
100
AcDbLine
 62
250
  6
CONTINUOUS
 10
22.0030064284
 20
22.0027440999
 11
21.9989558343
 21
22.0
  0
LWPOLYLINE
  5
3AB
100
AcDbEntity
  8
0
100
AcDbPolyline
 62
7
  6
CONTINUOUS
 90
4
 70
0
 43
0.3500000006
 10
56.6902692719
 20
-4.3928571854
 10
55.8331268005
 20
-4.3928571854
 10
55.404553299
 20
-3.9642859497
 10
55.404553299
 20
-3.3214290962
  0
LINE
  5
3AC
100
AcDbEntity
  8
RACCORDO
100
AcDbLine
 62
250
  6
CONTINUOUS
 10
-39.9353569359
 20
30.9853873969
 11
-39.7551451296
 21
30.8051755906
  0
LINE
  5
3AD
100
AcDbEntity
  8
RACCORDO
100
AcDbLine
 62
250
  6
CONTINUOUS
 10
-39.7358592942
 20
31.1858288332
 11
-39.5551755906
 21
31.0051451296
  0
LINE
  5
3AE
100
AcDbEntity
  8
0
100
AcDbLine
 62
7
  6
CONTINUOUS
 10
-3.50382
 20
29.117436
 11
-3.50382
 21
32.417237
  0
LINE
  5
3AF
100
AcDbEntity
  8
0
100
AcDbLine
 62
7
  6
CONTINUOUS
 10
-2.815064
 20
32.417237
 11
-2.815064
 21
29.117436
  0
LINE
  5
3B0
100
AcDbEntity
  8
0
100
AcDbLine
 62
250
  6
CONTINUOUS
 10
-0.0000003373
 20
39.7000000023
 11
0.0000009568
 21
22.2152887296
  0
LINE
  5
3B1
100
AcDbEntity
  8
RACCORDO
100
AcDbLine
 62
250
  6
CONTINUOUS
 10
0.0000314702
 20
-41.0759210098
 11
-0.0000154197
 21
-26.0068116494
  0
LINE
  5
3B2
100
AcDbEntity
  8
RACCORDO
100
AcDbLine
 62
250
  6
CONTINUOUS
 10
0.0002139237
 20
41.1268148084
 11
-0.0000003373
 21
39.7000000023
  0
LWPOLYLINE
  5
3B3
100
AcDbEntity
  8
RACCORDO
100
AcDbPolyline
 62
250
  6
CONTINUOUS
 90
3
 70
0
 10
0.0001204144
 20
22.2152887351
 10
0.0000433203
 20
22.005440534
 10
0.0000284537
 20
22.0040277256
  0
LINE
  5
3B4
100
AcDbEntity
  8
0
100
AcDbLine
 62
7
  6
CONTINUOUS
 10
-1.636735
 20
31.272015
 11
-1.785368
 21
29.117436
  0
LINE
  5
3B5
100
AcDbEntity
  8
RACCORDO
100
AcDbLine
 62
7
  6
CONTINUOUS
 10
-24.0032382342
 20
-26.0042724364
 11
-24.0
 21
-26.0
  0
LWPOLYLINE
  5
3B6
100
AcDbEntity
  8
RACCORDO
100
AcDbPolyline
 62
7
  6
CONTINUOUS
 90
3
 70
0
 10
-24.0368233732
 20
-26.0452851796
 10
-24.0469246333
 20
-26.0562973955
 10
-24.0583123039
 20
-26.0684892406
  0
LINE
  5
3B7
100
AcDbEntity
  8
RACCORDO
100
AcDbLine
 62
7
  6
CONTINUOUS
 10
-24.0583123039
 20
-26.0684892406
 11
-24.0846838065
 21
-26.0963794358
  0
LINE
  5
3B8
100
AcDbEntity
  8
RACCORDO
100
AcDbLine
 62
250
  6
CONTINUOUS
 10
-43.6036414542
 20
-41.1527276252
 11
-43.8608807381
 21
-41.409966909
  0
LINE
  5
3B9
100
AcDbEntity
  8
RACCORDO
100
AcDbLine
 62
250
  6
CONTINUOUS
 10
24.0034751072
 20
20.0024475774
 11
24.0000000165
 21
20.0000936343
  0
LINE
  5
3BA
100
AcDbEntity
  8
RACCORDO
100
AcDbLine
 62
250
  6
CONTINUOUS
 10
24.003449506
 20
-0.0001618392
 11
24.0
 21
-0.000338389
  0
LINE
  5
3BB
100
AcDbEntity
  8
RACCORDO
100
AcDbLine
 62
250
  6
CONTINUOUS
 10
49.5884920053
 20
0.000146824
 11
49.5860389378
 21
0.000110266
  0
LINE
  5
3BC
100
AcDbEntity
  8
RACCORDO
100
AcDbLine
 62
250
  6
CONTINUOUS
 10
24.2094827401
 20
0.0001480453
 11
24.1469169154
 21
-0.0002458924
  0
LINE
  5
3BD
100
AcDbEntity
  8
RACCORDO
100
AcDbLine
 62
250
  6
CONTINUOUS
 10
39.9621845603
 20
0.0007388919
 11
39.9554518515
 21
0.0007124748
  0
LINE
  5
3BE
100
AcDbEntity
  8
RACCORDO
100
AcDbLine
 62
250
  6
CONTINUOUS
 10
49.5860389378
 20
0.000110266
 11
49.5423578993
 21
-0.0000198655
  0
LINE
  5
3BF
100
AcDbEntity
  8
RACCORDO
100
AcDbLine
 62
250
  6
CONTINUOUS
 10
-49.5860389103
 20
0.0001375947
 11
-49.5423575085
 21
0.0002678904
  0
LINE
  5
3C0
100
AcDbEntity
  8
RACCORDO
100
AcDbLine
 62
250
  6
CONTINUOUS
 10
49.5423578993
 20
-0.0000198655
 11
49.3865431576
 21
-0.0001452562
  0
LINE
  5
3C1
100
AcDbEntity
  8
RACCORDO
100
AcDbLine
 62
250
  6
CONTINUOUS
 10
40.0263002788
 20
0.0007912072
 11
39.9621845603
 21
0.0007388919
  0
LINE
  5
3C2
100
AcDbEntity
  8
RACCORDO
100
AcDbLine
 62
250
  6
CONTINUOUS
 10
40.0682930048
 20
0.0008046562
 11
40.0263002788
 21
0.0007912072
  0
LINE
  5
3C3
100
AcDbEntity
  8
RACCORDO
100
AcDbLine
 62
250
  6
CONTINUOUS
 10
49.3865431576
 20
-0.0001452562
 11
49.2781674531
 21
-0.000167933
  0
LWPOLYLINE
  5
3C4
100
AcDbEntity
  8
RACCORDO
100
AcDbPolyline
 62
250
  6
CONTINUOUS
 90
3
 70
0
 10
-49.5423575085
 20
0.0002678904
 10
-49.2781672508
 20
0.0004157948
 10
-48.277518351
 20
0.0002659975
  0
LINE
  5
3C5
100
AcDbEntity
  8
RACCORDO
100
AcDbLine
 62
250
  6
CONTINUOUS
 10
-48.277518351
 20
0.0002659975
 11
-40.0462989724
 21
-0.0003977222
  0
LWPOLYLINE
  5
3C6
100
AcDbEntity
  8
RACCORDO
100
AcDbPolyline
 62
250
  6
CONTINUOUS
 90
3
 70
0
 10
49.2781674531
 20
-0.000167933
 10
48.2775184019
 20
0.0004396609
 10
40.0682930048
 20
0.0008046562
  0
LWPOLYLINE
  5
3C7
100
AcDbEntity
  8
RACCORDO
100
AcDbPolyline
 62
250
  6
CONTINUOUS
 90
3
 70
0
 10
39.2368796214
 20
-0.0000703029
 10
38.2811714372
 20
-0.0000296087
 10
24.2094827327
 20
0.0000041457
  0
LINE
  5
3C8
100
AcDbEntity
  8
RACCORDO
100
AcDbLine
 62
250
  6
CONTINUOUS
 10
24.1469169154
 20
-0.0002458924
 11
24.0443135993
 21
-0.0002535668
  0
LWPOLYLINE
  5
3C9
100
AcDbEntity
  8
RACCORDO
100
AcDbPolyline
 62
250
  6
CONTINUOUS
 90
3
 70
0
 10
-24.0224486215
 20
0.0002191011
 10
-24.0049308076
 20
0.0001956488
 10
-24.0034495164
 20
0.0001828535
  0
LWPOLYLINE
  5
3CA
100
AcDbEntity
  8
RACCORDO
100
AcDbPolyline
 62
250
  6
CONTINUOUS
 90
4
 70
0
 10
24.0443135993
 20
-0.0002535668
 10
24.0086224955
 20
-0.000202186
 10
24.0049307945
 20
-0.0001816982
 10
24.0034495092
 20
-0.000158754
  0
LINE
  5
3CB
100
AcDbEntity
  8
RACCORDO
100
AcDbLine
 62
250
  6
CONTINUOUS
 10
-24.0034495157
 20
0.0001797793
 11
-24.0
 21
0.0001673535
  0
LWPOLYLINE
  5
3CC
100
AcDbEntity
  8
RACCORDO
100
AcDbPolyline
 62
250
  6
CONTINUOUS
 90
3
 70
0
 10
-39.9554518515
 20
-0.0004836689
 10
-39.9573952285
 20
-0.0004701653
 10
-40.0462989724
 20
-0.0003977222
  0
LWPOLYLINE
  5
3CD
100
AcDbEntity
  8
RACCORDO
100
AcDbPolyline
 62
250
  6
CONTINUOUS
 90
3
 70
0
 10
-39.3397202837
 20
-0.0000651127
 10
-39.3368687658
 20
-0.0000855087
 10
-24.0224486215
 20
0.0002191011
  0
LWPOLYLINE
  5
3CE
100
AcDbEntity
  8
RACCORDO
100
AcDbPolyline
 62
250
  6
CONTINUOUS
 90
3
 70
0
 10
39.3397202837
 20
-0.0001899597
 10
39.3368687651
 20
-0.0001695697
 10
39.2368796214
 20
-0.0000703029
  0
LINE
  5
3CF
100
AcDbEntity
  8
RACCORDO
100
AcDbLine
 62
250
  6
CONTINUOUS
 10
-43.6036414542
 20
41.1527276252
 11
-43.8608807381
 21
41.409966909
  0
LWPOLYLINE
  5
3D0
100
AcDbEntity
  8
RACCORDO
100
AcDbPolyline
 62
7
  6
CONTINUOUS
 90
3
 70
0
 10
24.1696755915
 20
-26.1837332602
 10
24.1895934052
 20
-26.203823573
 10
24.2104596963
 20
-26.2244232799
  0
LINE
  5
3D1
100
AcDbEntity
  8
RACCORDO
100
AcDbLine
 62
7
  6
CONTINUOUS
 10
24.1156131736
 20
-26.1284612224
 11
24.1696755915
 21
-26.1837332602
  0
LINE
  5
3D2
100
AcDbEntity
  8
RACCORDO
100
AcDbLine
 62
7
  6
CONTINUOUS
 10
24.0996288585
 20
-26.1119179373
 11
24.1156131736
 21
-26.1284612224
  0
LWPOLYLINE
  5
3D3
100
AcDbEntity
  8
RACCORDO
100
AcDbPolyline
 62
7
  6
CONTINUOUS
 90
3
 70
0
 10
24.058312115
 20
-26.0684898154
 10
24.0709046046
 20
-26.081864532
 10
24.0996288585
 20
-26.1119179373
  0
LINE
  5
3D4
100
AcDbEntity
  8
RACCORDO
100
AcDbLine
 62
7
  6
CONTINUOUS
 10
24.0368391326
 20
-26.0452700463
 11
24.058312115
 21
-26.0684898154
  0
LINE
  5
3D5
100
AcDbEntity
  8
0
100
AcDbLine
 62
7
  6
CONTINUOUS
 10
0.593534
 20
32.417039
 11
0.902084
 21
29.117436
  0
LINE
  5
3D6
100
AcDbEntity
  8
0
100
AcDbLine
 62
7
  6
CONTINUOUS
 10
0.228297
 20
29.117436
 11
0.08679
 21
31.263033
  0
LWPOLYLINE
  5
3D7
100
AcDbEntity
  8
0
100
AcDbPolyline
 62
7
  6
CONTINUOUS
 90
4
 70
0
 43
0.3500000006
 10
2.0357142191
 20
64.392292511
 10
2.0357142191
 20
65.0351459656
 10
3.5357143936
 20
65.0351459656
 10
2.6785713558
 20
62.03514505
  0
LINE
  5
3D8
100
AcDbEntity
  8
0
100
AcDbLine
 62
7
  6
CONTINUOUS
 10
3.9261443912
 20
29.1174362133
 11
3.9261443912
 21
32.3784889284
  0
LINE
  5
3D9
100
AcDbEntity
  8
0
100
AcDbLine
 62
7
  6
CONTINUOUS
 10
4.5892915047
 20
31.8549191765
 11
4.5892915047
 21
30.9491138137
  0
LINE
  5
3DA
100
AcDbEntity
  8
0
100
AcDbLine
 62
7
  6
CONTINUOUS
 10
4.612129637
 20
30.4087185688
 11
4.612129637
 21
29.1174362133
  0
LWPOLYLINE
  5
3DB
100
AcDbEntity
  8
RACCORDO
100
AcDbPolyline
 62
7
  6
CONTINUOUS
 90
5
 70
0
 10
-24.0846838065
 20
-26.0963794358
 10
-24.132622318
 20
-26.1459608857
 10
-24.1507142994
 20
-26.1643473231
 10
-24.1698597854
 20
-26.1835502446
 10
-24.2104596957
 20
-26.2244232851
  0
LINE
  5
3DC
100
AcDbEntity
  8
RACCORDO
100
AcDbLine
 62
250
  6
CONTINUOUS
 10
43.6036414542
 20
41.1527276252
 11
43.8608807381
 21
41.409966909
  0
LINE
  5
3DD
100
AcDbEntity
  8
RACCORDO
100
AcDbLine
 62
250
  6
CONTINUOUS
 10
-49.5884920053
 20
0.000100974
 11
-49.5860389103
 21
0.0001375947
  0
LWPOLYLINE
  5
3DE
100
AcDbEntity
  8
0
100
AcDbPolyline
 62
7
  6
CONTINUOUS
 90
4
 70
0
 43
0.3500000006
 10
56.6902692719
 20
2.0357136154
 10
55.8331268005
 20
2.0357136154
 10
55.404553299
 20
2.4642848511
 10
55.404553299
 20
3.1071428375
  0
LINE
  5
3DF
100
AcDbEntity
  8
RACCORDO
100
AcDbLine
 62
250
  6
CONTINUOUS
 10
-24.0034751072
 20
20.0024475776
 11
-24.0000000158
 21
20.0000936341
  0
LINE
  5
3E0
100
AcDbEntity
  8
RACCORDO
100
AcDbLine
 62
250
  6
CONTINUOUS
 10
43.6036414542
 20
-41.1527276252
 11
43.8608807381
 21
-41.409966909
  0
LWPOLYLINE
  5
3E1
100
AcDbEntity
  8
RACCORDO
100
AcDbPolyline
 62
250
  6
CONTINUOUS
 90
19
 70
0
 10
38.5997258215
 20
-40.5498770966
 10
38.5800426806
 20
-40.5283877158
 10
38.5602436613
 20
-40.5065188319
 10
38.5405212661
 20
-40.4844830734
 10
38.5210672528
 20
-40.4624946927
 10
38.5020707736
 20
-40.4407674833
 10
38.483716536
 20
-40.4195127008
 10
38.4661830008
 20
-40.3989370067
 10
38.4496406503
 20
-40.3792404636
 10
38.4342503345
 20
-40.3606145892
 10
38.4201616981
 20
-40.3432404875
 10
38.4075117311
 20
-40.3272870937
 10
38.3964234387
 20
-40.3129095334
 10
38.3870046376
 20
-40.3002476051
 10
38.3793469122
 20
-40.2894244272
 10
38.373524726
 20
-40.2805452426
 10
38.3695946917
 20
-40.2736963882
 10
38.3675950232
 20
-40.2689444579
 10
38.3675451663
 20
-40.266335658
  0
LINE
  5
3E2
100
AcDbEntity
  8
RACCORDO
100
AcDbLine
 62
7
  6
CONTINUOUS
 10
24.0032383083
 20
-26.0042725341
 11
24.0
 21
-26.0
  0
LINE
  5
3E3
100
AcDbEntity
  8
0
100
AcDbLine
 62
7
  6
CONTINUOUS
 10
-5.427011
 20
29.117436
 11
-6.473049
 21
32.417039
  0
LINE
  5
3E4
100
AcDbEntity
  8
0
100
AcDbLine
 62
7
  6
CONTINUOUS
 10
-5.724847
 20
32.417039
 11
-5.095883
 21
30.14582
  0
LWPOLYLINE
  5
3E5
100
AcDbEntity
  8
0
100
AcDbPolyline
 62
7
  6
CONTINUOUS
 90
19
 70
0
 10
5.5179372205
 20
31.4617270351
 10
5.5162240944
 20
31.4929326971
 10
5.5120100425
 20
31.5245488823
 10
5.5052687482
 20
31.5563416608
 10
5.4959928303
 20
31.5880139844
 10
5.4841546097
 20
31.6193465437
 10
5.4696706989
 20
31.6501849887
 10
5.4524250497
 20
31.6803244159
 10
5.4324338249
 20
31.7092865775
 10
5.4098432105
 20
31.7364968287
 10
5.3846813784
 20
31.7616358839
 10
5.3571308546
 20
31.7845259892
 10
5.3277068707
 20
31.8049214158
 10
5.2968071159
 20
31.8227610096
 10
5.2646363395
 20
31.8381031762
 10
5.2314702968
 20
31.8509444174
 10
5.1975914708
 20
31.8612740858
 10
5.1632908492
 20
31.8690781328
 10
5.1288527297
 20
31.8743447536
  0
LINE
  5
3E6
100
AcDbEntity
  8
0
100
AcDbLine
 62
7
  6
CONTINUOUS
 10
5.6969038097
 20
30.6771594118
 11
5.6969038097
 21
30.6576616347
  0
LINE
  5
3E7
100
AcDbEntity
  8
RACCORDO
100
AcDbLine
 62
250
  6
CONTINUOUS
 10
39.5551755906
 20
31.0051451296
 11
39.7358592942
 21
31.1858288332
  0
LINE
  5
3E8
100
AcDbEntity
  8
RACCORDO
100
AcDbLine
 62
250
  6
CONTINUOUS
 10
39.7551451296
 20
30.8051755906
 11
39.9353569359
 21
30.9853873969
  0
LINE
  5
3E9
100
AcDbEntity
  8
RACCORDO
100
AcDbLine
 62
250
  6
CONTINUOUS
 10
-22.0030064283
 20
22.0027440999
 11
-21.9989558343
 21
22.0
  0
LINE
  5
3EA
100
AcDbEntity
  8
DRAFT
100
AcDbLine
 62
7
  6
CONTINUOUS
 10
-28.0217795593
 20
35.1021927444
 11
-27.7320471995
 21
34.8158715335
  0
LINE
  5
3EB
100
AcDbEntity
  8
RACCORDO
100
AcDbLine
 62
7
  6
CONTINUOUS
 10
-27.4633010648
 20
41.1272410581
 11
-27.55
 21
41.2159709216
  0
LWPOLYLINE
  5
3EC
100
AcDbEntity
  8
RACCORDO
100
AcDbPolyline
 62
250
  6
CONTINUOUS
 90
16
 70
0
 10
28.2344280181
 20
40.6898808051
 10
28.2376308481
 20
40.6981560379
 10
28.2438925395
 20
40.7062994805
 10
28.2531484745
 20
40.7142270768
 10
28.2653031297
 20
40.7218569982
 10
28.2802310599
 20
40.7291104879
 10
28.2977781906
 20
40.7359126755
 10
28.3177634143
 20
40.7421933485
 10
28.3399804553
 20
40.7478876754
 10
28.3641999928
 20
40.752936877
 10
28.3901720419
 20
40.7572888341
 10
28.4176285256
 20
40.7608986236
 10
28.4462860326
 20
40.7637289823
 10
28.4758487597
 20
40.7657506938
 10
28.506011567
 20
40.7669428891
 10
28.5364631157
 20
40.7672932608
  0
LINE
  5
3ED
100
AcDbEntity
  8
RACCORDO
100
AcDbLine
 62
250
  6
CONTINUOUS
 10
49.6076937033
 20
35.1586075323
 11
49.859966909
 21
35.4108807381
  0
LINE
  5
3EE
100
AcDbEntity
  8
RACCORDO
100
AcDbLine
 62
250
  6
CONTINUOUS
 10
49.6076937033
 20
-35.1586075323
 11
49.859966909
 21
-35.4108807381
  0
LWPOLYLINE
  5
3EF
100
AcDbEntity
  8
RACCORDO
100
AcDbPolyline
 62
7
  6
CONTINUOUS
 90
8
 70
0
 10
24.0034499414
 20
-26.004915946
 10
24.0042528323
 20
-26.0068042677
 10
24.0063790858
 20
-26.0099367073
 10
24.0098256277
 20
-26.0143531992
 10
24.0145785751
 20
-26.0200899705
 10
24.020644799
 20
-26.0271643102
 10
24.0280520989
 20
-26.0355631482
 10
24.0368391326
 20
-26.0452700463
  0
LINE
  5
3F0
100
AcDbEntity
  8
0
100
AcDbLine
 62
7
  6
CONTINUOUS
 10
-0.82874
 20
29.117436
 11
-1.636735
 21
31.272015
  0
LINE
  5
3F1
100
AcDbEntity
  8
0
100
AcDbLine
 62
7
  6
CONTINUOUS
 10
-1.458162
 20
32.417039
 11
-0.77668
 21
30.585089
  0
LINE
  5
3F2
100
AcDbEntity
  8
0
100
AcDbLine
 62
7
  6
CONTINUOUS
 10
2.711492
 20
32.417039
 11
3.723892
 21
29.117436
  0
LWPOLYLINE
  5
3F3
100
AcDbEntity
  8
0
100
AcDbPolyline
 62
7
  6
CONTINUOUS
 90
8
 70
0
 10
5.4708125681
 20
29.7954577069
 10
5.4570983745
 20
29.8419632462
 10
5.4430853415
 20
29.8883255178
 10
5.4287025442
 20
29.9345147639
 10
5.4138432875
 20
29.9806120072
 10
5.3984201733
 20
30.0266261225
 10
5.3823683274
 20
30.0724949379
 10
5.3656110138
 20
30.118191592
  0
LINE
  5
3F4
100
AcDbEntity
  8
0
100
AcDbLine
 62
7
  6
CONTINUOUS
 10
5.666865356
 20
29.1174362133
 11
5.5515559661
 21
29.5125814402
  0
LINE
  5
3F5
100
AcDbEntity
  8
0
100
AcDbLine
 62
7
  6
CONTINUOUS
 10
5.4976737281
 20
29.7019844248
 11
5.4708125681
 21
29.7954577069
  0
LINE
  5
3F6
100
AcDbEntity
  8
0
100
AcDbLine
 62
7
  6
CONTINUOUS
 10
5.5515559661
 20
29.5125814402
 11
5.4976737281
 21
29.7019844248
  0
LINE
  5
3F7
100
AcDbEntity
  8
0
100
AcDbLine
 62
7
  6
CONTINUOUS
 10
2.997971
 20
29.117436
 11
2.819547
 21
29.776154
  0
LINE
  5
3F8
100
AcDbEntity
  8
0
100
AcDbLine
 62
7
  6
CONTINUOUS
 10
6.3039428112
 20
29.2124839653
 11
6.3293691418
 21
29.1174362133
  0
LINE
  5
3F9
100
AcDbEntity
  8
0
100
AcDbLine
 62
7
  6
CONTINUOUS
 10
6.0738722546
 20
30.0844330059
 11
6.1490284901
 21
29.805087483
  0
LINE
  5
3FA
100
AcDbEntity
  8
0
100
AcDbLine
 62
7
  6
CONTINUOUS
 10
6.1490284901
 20
29.805087483
 11
6.3039428112
 21
29.2124839653
  0
LINE
  5
3FB
100
AcDbEntity
  8
0
100
AcDbLine
 62
7
  6
CONTINUOUS
 10
2.681899
 20
30.285868
 11
2.365407
 21
31.510392
  0
LINE
  5
3FC
100
AcDbEntity
  8
RACCORDO
100
AcDbLine
 62
7
  6
CONTINUOUS
 10
17.4508453898
 20
-41.1421550834
 11
17.4534811464
 21
-41.2931574806
  0
LWPOLYLINE
  5
3FD
100
AcDbEntity
  8
RACCORDO
100
AcDbPolyline
 62
7
  6
CONTINUOUS
 90
10
 70
0
 10
27.4633011359
 20
41.1272411309
 10
27.4626195354
 20
41.1246624132
 10
27.4620318527
 20
41.1186465786
 10
27.4615380879
 20
41.1091936272
 10
27.461135689
 20
41.0961724127
 10
27.460827208
 20
41.0797140813
 10
27.4606203003
 20
41.0602120719
 10
27.4605174358
 20
41.0376465036
 10
27.4605161447
 20
41.0120372574
 10
27.460821803
 20
40.9529118238
  0
LWPOLYLINE
  5
3FE
100
AcDbEntity
  8
RACCORDO
100
AcDbPolyline
 62
250
  6
CONTINUOUS
 90
3
 70
0
 10
28.4834309692
 20
31.3526670189
 10
28.4989716732
 20
31.3990837252
 10
28.5075263978
 20
31.424350033
  0
LWPOLYLINE
  5
3FF
100
AcDbEntity
  8
RACCORDO
100
AcDbPolyline
 62
250
  6
CONTINUOUS
 90
3
 70
0
 10
28.5075263978
 20
31.424350033
 10
28.535058718
 20
31.5064586183
 10
28.5544997616
 20
31.5648541066
  0
LINE
  5
400
100
AcDbEntity
  8
RACCORDO
100
AcDbLine
 62
250
  6
CONTINUOUS
 10
28.4693547988
 20
31.3115849174
 11
28.4834309692
 21
31.3526670189
  0
LWPOLYLINE
  5
401
100
AcDbEntity
  8
RACCORDO
100
AcDbPolyline
 62
250
  6
CONTINUOUS
 90
3
 70
0
 10
28.452209939
 20
31.2615322315
 10
28.4631891895
 20
31.2931284423
 10
28.4693547988
 20
31.3115849174
  0
LWPOLYLINE
  5
402
100
AcDbEntity
  8
RACCORDO
100
AcDbPolyline
 62
250
  6
CONTINUOUS
 90
3
 70
0
 10
28.2335359235
 20
31.4132059469
 10
28.2336680467
 20
31.4135228033
 10
28.233800888
 20
31.4139008636
  0
LWPOLYLINE
  5
403
100
AcDbEntity
  8
RACCORDO
100
AcDbPolyline
 62
250
  6
CONTINUOUS
 90
3
 70
0
 10
-39.7536640357
 20
30.8046718623
 10
-39.5594469477
 20
30.7399118158
 10
-39.4818753256
 20
30.7141873597
  0
LINE
  5
404
100
AcDbEntity
  8
RACCORDO
100
AcDbLine
 62
250
  6
CONTINUOUS
 10
-39.4818753256
 20
30.7141873597
 11
-39.4551908211
 21
30.7051908211
  0
LINE
  5
405
100
AcDbEntity
  8
RACCORDO
100
AcDbLine
 62
250
  6
CONTINUOUS
 10
-39.7551451296
 20
30.8051755906
 11
-39.7536640357
 21
30.8046718623
  0
LWPOLYLINE
  5
406
100
AcDbEntity
  8
RACCORDO
100
AcDbPolyline
 62
250
  6
CONTINUOUS
 90
19
 70
0
 10
-39.7358600232
 20
31.185828904
 10
-39.7408186045
 20
31.187621113
 10
-39.7457339271
 20
31.1920190203
 10
-39.7505630321
 20
31.1989843191
 10
-39.7552637353
 20
31.208456319
 10
-39.7597949196
 20
31.2203523268
 10
-39.7641169041
 20
31.2345682371
 10
-39.7681918927
 20
31.2509797075
 10
-39.7719842939
 20
31.2694433732
 10
-39.7754609617
 20
31.2897978629
 10
-39.7785915097
 20
31.3118652788
 10
-39.7813485766
 20
31.3354527516
 10
-39.7837080653
 20
31.3603541272
 10
-39.7856493533
 20
31.3863517673
 10
-39.7871554733
 20
31.4132184513
 10
-39.7882132613
 20
31.4407193636
 10
-39.788813472
 20
31.4686141445
 10
-39.7889508589
 20
31.4966589917
 10
-39.7886242209
 20
31.5246087908
  0
LWPOLYLINE
  5
407
100
AcDbEntity
  8
0
100
AcDbPolyline
 62
7
  6
CONTINUOUS
 90
22
 70
0
 10
5.3656110501
 20
30.1181916056
 10
5.3564261102
 20
30.1410027224
 10
5.3461669296
 20
30.1634263814
 10
5.3348832479
 20
30.1853571778
 10
5.3226507936
 20
30.2066494428
 10
5.3094938459
 20
30.2272545915
 10
5.2953637414
 20
30.2472084896
 10
5.280276948
 20
30.2664214523
 10
5.2642683636
 20
30.2847793626
 10
5.247284752
 20
30.3022587797
 10
5.2293158258
 20
30.3187654761
 10
5.2103979926
 20
30.3341576706
 10
5.1905346281
 20
30.3483227415
 10
5.1697118947
 20
30.3611513028
 10
5.1479714216
 20
30.3724967042
 10
5.1254510732
 20
30.3822570921
 10
5.1023012901
 20
30.3904427926
 10
5.0786295893
 20
30.3970875299
 10
5.0545734883
 20
30.4022131068
 10
5.0302668984
 20
30.4058435895
 10
5.0058397279
 20
30.4080039151
 10
4.9814244644
 20
30.4087185688
  0
LINE
  5
408
100
AcDbEntity
  8
RACCORDO
100
AcDbLine
 62
7
  6
CONTINUOUS
 10
24.0032382461
 20
-26.0042724521
 11
24.0034507214
 21
-26.0049189848
  0
LWPOLYLINE
  5
409
100
AcDbEntity
  8
RACCORDO
100
AcDbPolyline
 62
250
  6
CONTINUOUS
 90
5
 70
0
 10
20.2988485138
 20
-26.0251513082
 10
20.2986580583
 20
-26.017413173
 10
20.2984612013
 20
-26.0116875147
 10
20.2982600389
 20
-26.008035291
 10
20.2980567127
 20
-26.0064953853
  0
LINE
  5
40A
100
AcDbEntity
  8
RACCORDO
100
AcDbLine
 62
250
  6
CONTINUOUS
 10
20.2992021998
 20
-26.0463149268
 11
20.2988485138
 21
-26.0251513082
  0
LINE
  5
40B
100
AcDbEntity
  8
RACCORDO
100
AcDbLine
 62
250
  6
CONTINUOUS
 10
20.2996373684
 20
-26.0904509675
 11
20.2992021998
 21
-26.0463149268
  0
LINE
  5
40C
100
AcDbEntity
  8
RACCORDO
100
AcDbLine
 62
250
  6
CONTINUOUS
 10
20.2999785248
 20
-26.1655787678
 11
20.2996373684
 21
-26.0904509675
  0
LINE
  5
40D
100
AcDbEntity
  8
RACCORDO
100
AcDbLine
 62
7
  6
CONTINUOUS
 10
21.0
 20
-41.2931574806
 11
20.9999999992
 21
-41.1029462152
  0
LINE
  5
40E
100
AcDbEntity
  8
RACCORDO
100
AcDbLine
 62
250
  6
CONTINUOUS
 10
22.0
 20
-24.9173027369
 11
22.0
 21
-26.0
  0
LINE
  5
40F
100
AcDbEntity
  8
RACCORDO
100
AcDbLine
 62
250
  6
CONTINUOUS
 10
22.0
 20
20.9173027369
 11
22.0
 21
22.0
  0
LINE
  5
410
100
AcDbEntity
  8
RACCORDO
100
AcDbLine
 62
250
  6
CONTINUOUS
 10
20.2999785248
 20
-26.1655787678
 11
20.300119557
 21
-32.6064595554
  0
LINE
  5
411
100
AcDbEntity
  8
RACCORDO
100
AcDbLine
 62
250
  6
CONTINUOUS
 10
22.0058772811
 20
22.2105496146
 11
22.0057564969
 21
22.1473611172
  0
LINE
  5
412
100
AcDbEntity
  8
RACCORDO
100
AcDbLine
 62
250
  6
CONTINUOUS
 10
20.2993921862
 20
-40.763114823
 11
20.300119557
 21
-32.6064595554
  0
LINE
  5
413
100
AcDbEntity
  8
RACCORDO
100
AcDbLine
 62
250
  6
CONTINUOUS
 10
20.2985151664
 20
-40.9049593877
 11
20.2993921862
 21
-40.763114823
  0
LINE
  5
414
100
AcDbEntity
  8
RACCORDO
100
AcDbLine
 62
250
  6
CONTINUOUS
 10
22.0057564969
 20
22.1473611172
 11
22.0053571671
 21
22.0897809772
  0
LINE
  5
415
100
AcDbEntity
  8
RACCORDO
100
AcDbLine
 62
250
  6
CONTINUOUS
 10
20.2975838236
 20
-40.9881699079
 11
20.2985151664
 21
-40.9049593877
  0
LINE
  5
416
100
AcDbEntity
  8
RACCORDO
100
AcDbLine
 62
250
  6
CONTINUOUS
 10
22.0053571671
 20
22.0897809772
 11
22.0049551194
 21
22.0574318823
  0
LINE
  5
417
100
AcDbEntity
  8
RACCORDO
100
AcDbLine
 62
250
  6
CONTINUOUS
 10
17.6503013895
 20
-41.0851816818
 11
17.6498244892
 21
-41.1125032806
  0
LINE
  5
418
100
AcDbEntity
  8
RACCORDO
100
AcDbLine
 62
7
  6
CONTINUOUS
 10
18.6501479305
 20
-41.0852478042
 11
18.6465188536
 21
-41.2931574806
  0
LWPOLYLINE
  5
419
100
AcDbEntity
  8
RACCORDO
100
AcDbPolyline
 62
250
  6
CONTINUOUS
 90
7
 70
0
 10
22.0049551194
 20
22.0574318823
 10
22.0044649336
 20
22.0316546843
 10
22.0041935882
 20
22.0216080403
 10
22.0039087811
 20
22.0136152606
 10
22.0036137419
 20
22.0077669781
 10
22.0033118164
 20
22.0041295094
 10
22.0030064284
 20
22.0027440999
  0
LWPOLYLINE
  5
41A
100
AcDbEntity
  8
RACCORDO
100
AcDbPolyline
 62
250
  6
CONTINUOUS
 90
6
 70
0
 10
28.4355484478
 20
31.2146814216
 10
28.4371883398
 20
31.2201195645
 10
28.4400030039
 20
31.2276661875
 10
28.4437535572
 20
31.2371295574
 10
28.4478455262
 20
31.2484338619
 10
28.452209939
 20
31.2615322315
  0
LWPOLYLINE
  5
41B
100
AcDbEntity
  8
RACCORDO
100
AcDbPolyline
 62
250
  6
CONTINUOUS
 90
9
 70
0
 10
24.072683934
 20
20.0065461927
 10
24.0575307303
 20
20.0061427472
 10
24.0439875659
 20
20.0056974688
 10
24.0322038784
 20
20.0052152707
 10
24.0223096911
 20
20.0047014737
 10
24.0144141781
 20
20.004161747
 10
24.0086044598
 20
20.0036020462
 10
24.0049446419
 20
20.0030285469
 10
24.0034751072
 20
20.0024475774
  0
LINE
  5
41C
100
AcDbEntity
  8
RACCORDO
100
AcDbLine
 62
250
  6
CONTINUOUS
 10
24.1071357263
 20
20.0072102889
 11
24.072683934
 21
20.0065461927
  0
LINE
  5
41D
100
AcDbEntity
  8
RACCORDO
100
AcDbLine
 62
250
  6
CONTINUOUS
 10
24.1458265492
 20
20.0076605273
 11
24.1071357263
 21
20.0072102889
  0
LWPOLYLINE
  5
41E
100
AcDbEntity
  8
RACCORDO
100
AcDbPolyline
 62
250
  6
CONTINUOUS
 90
3
 70
0
 10
24.2080530216
 20
20.0078943489
 10
24.1870534283
 20
20.0078770906
 10
24.1458265492
 20
20.0076605273
  0
LINE
  5
41F
100
AcDbEntity
  8
RACCORDO
100
AcDbLine
 62
250
  6
CONTINUOUS
 10
22.9173027369
 20
20.0
 11
24.0000000144
 21
20.0
  0
LINE
  5
420
100
AcDbEntity
  8
RACCORDO
100
AcDbLine
 62
250
  6
CONTINUOUS
 10
-22.9173027369
 20
20.0
 11
-24.0000000138
 21
20.0
  0
LINE
  5
421
100
AcDbEntity
  8
RACCORDO
100
AcDbLine
 62
250
  6
CONTINUOUS
 10
22.0
 20
20.9173027369
 11
-22.0
 21
20.9173027369
  0
LINE
  5
422
100
AcDbEntity
  8
RACCORDO
100
AcDbLine
 62
250
  6
CONTINUOUS
 10
22.0
 20
21.917150432
 11
-22.0
 21
21.917150432
  0
LINE
  5
423
100
AcDbEntity
  8
RACCORDO
100
AcDbLine
 62
250
  6
CONTINUOUS
 10
-22.0
 20
21.9864939613
 11
22.0
 21
21.9864939613
  0
LINE
  5
424
100
AcDbEntity
  8
RACCORDO
100
AcDbLine
 62
7
  6
CONTINUOUS
 10
22.0016527162
 20
22.0
 11
-22.0016527162
 21
22.0
  0
LINE
  5
425
100
AcDbEntity
  8
RACCORDO
100
AcDbLine
 62
250
  6
CONTINUOUS
 10
-22.0058772811
 20
22.2105496146
 11
-11.2623328074
 21
22.2137146334
  0
LINE
  5
426
100
AcDbEntity
  8
RACCORDO
100
AcDbLine
 62
250
  6
CONTINUOUS
 10
-11.2623328074
 20
22.2137146334
 11
1.5477986063
 21
22.2152387188
  0
LINE
  5
427
100
AcDbEntity
  8
RACCORDO
100
AcDbLine
 62
250
  6
CONTINUOUS
 10
-22.0030064283
 20
22.0027440999
 11
11.5571071159
 21
22.0036545218
  0
LINE
  5
428
100
AcDbEntity
  8
RACCORDO
100
AcDbLine
 62
250
  6
CONTINUOUS
 10
11.5571071159
 20
22.0036545218
 11
22.0030064284
 21
22.0027440999
  0
LINE
  5
429
100
AcDbEntity
  8
RACCORDO
100
AcDbLine
 62
250
  6
CONTINUOUS
 10
1.5477986063
 20
22.2152387188
 11
11.0943160045
 21
22.2137654831
  0
LINE
  5
42A
100
AcDbEntity
  8
RACCORDO
100
AcDbLine
 62
250
  6
CONTINUOUS
 10
11.0943160045
 20
22.2137654831
 11
22.0058772811
 21
22.2105496146
  0
LINE
  5
42B
100
AcDbEntity
  8
RACCORDO
100
AcDbLine
 62
250
  6
CONTINUOUS
 10
-24.2080530216
 20
20.0078943492
 11
-24.1662345089
 21
20.0077988213
  0
LINE
  5
42C
100
AcDbEntity
  8
RACCORDO
100
AcDbLine
 62
250
  6
CONTINUOUS
 10
-24.1662345089
 20
20.0077988213
 11
-24.1260538794
 21
20.0074635401
  0
LWPOLYLINE
  5
42D
100
AcDbEntity
  8
RACCORDO
100
AcDbPolyline
 62
250
  6
CONTINUOUS
 90
11
 70
0
 10
-24.1260538794
 20
20.0074635401
 10
-24.089279676
 20
20.0069032629
 10
-24.0726836584
 20
20.0065460979
 10
-24.0575304907
 20
20.0061426519
 10
-24.0439873694
 20
20.0056973766
 10
-24.032203729
 20
20.0052151856
 10
-24.0223095886
 20
20.0047013992
 10
-24.0144141165
 20
20.0041616865
 10
-24.0086044303
 20
20.0036020027
 10
-24.0049446336
 20
20.0030285237
 10
-24.0034751073
 20
20.0024475776
  0
LWPOLYLINE
  5
42E
100
AcDbEntity
  8
RACCORDO
100
AcDbPolyline
 62
250
  6
CONTINUOUS
 90
31
 70
0
 10
22.0058772811
 20
22.2105496146
 10
22.1020851642
 20
22.2088853526
 10
22.1996826692
 20
22.2023643683
 10
22.2986696274
 20
22.1909864933
 10
22.3988733564
 20
22.175193552
 10
22.5004660587
 20
22.1545432411
 10
22.6039646883
 20
22.1277089963
 10
22.71035355
 20
22.0944289434
 10
22.8186466216
 20
22.0549632427
 10
22.9264052879
 20
22.0087683032
 10
23.0336217132
 20
21.9555319028
 10
23.1403021017
 20
21.8955646353
 10
23.2440294934
 20
21.8292577275
 10
23.3447624245
 20
21.7561831211
 10
23.442541168
 20
21.676767686
 10
23.5350723195
 20
21.5926859896
 10
23.6220303584
 20
21.5036538673
 10
23.7037406957
 20
21.4099553744
 10
23.7788875356
 20
21.3141186163
 10
23.846908274
 20
21.2165378861
 10
23.908366529
 20
21.1168199028
 10
23.9636366196
 20
21.0163121907
 10
24.0124516963
 20
20.9162341909
 10
24.0550798408
 20
20.8153676921
 10
24.0926974539
 20
20.7114034251
 10
24.1259733288
 20
20.6039434814
 10
24.1542385758
 20
20.4933856732
 10
24.176662438
 20
20.3786136812
 10
24.1929678021
 20
20.2592552048
 10
24.2034314013
 20
20.1356821652
 10
24.2080530216
 20
20.0078943489
  0
LWPOLYLINE
  5
42F
100
AcDbEntity
  8
RACCORDO
100
AcDbPolyline
 62
250
  6
CONTINUOUS
 90
31
 70
0
 10
22.0030064284
 20
22.0027440999
 10
22.0900552056
 20
22.0008345864
 10
22.1787860338
 20
21.9949766223
 10
22.2690071539
 20
21.9849353933
 10
22.3600556174
 20
21.9705626054
 10
22.4521527408
 20
21.9515958309
 10
22.546360244
 20
21.9274498007
 10
22.6431137913
 20
21.8974651289
 10
22.7412227535
 20
21.861435373
 10
22.8392591252
 20
21.819439647
 10
22.9368155492
 20
21.7712806664
 10
23.0334429175
 20
21.7167911647
 10
23.1277554939
 20
21.6564512197
 10
23.219475585
 20
21.5902193537
 10
23.3080876106
 20
21.5182378184
 10
23.3920947332
 20
21.4416630829
 10
23.4712773859
 20
21.3608099225
 10
23.5454473863
 20
21.275990989
 10
23.6135408096
 20
21.1887400869
 10
23.6753277171
 20
21.099958209
 10
23.7312205512
 20
21.0096931528
 10
23.7813502247
 20
20.918329942
 10
23.8254158446
 20
20.8272191829
 10
23.8640996996
 20
20.7358170736
 10
23.898595309
 20
20.6414424556
 10
23.9287760383
 20
20.5437909024
 10
23.9542000167
 20
20.4435249957
 10
23.9748999543
 20
20.3391963138
 10
23.9904240075
 20
20.2304487997
 10
24.0001236247
 20
20.1180940452
 10
24.0034751073
 20
20.0024475774
  0
LINE
  5
430
100
AcDbEntity
  8
RACCORDO
100
AcDbLine
 62
250
  6
CONTINUOUS
 10
-27.7711969581
 20
32.349162563
 11
-27.6237975319
 21
32.3002525865
  0
LINE
  5
431
100
AcDbEntity
  8
RACCORDO
100
AcDbLine
 62
250
  6
CONTINUOUS
 10
-27.8137035824
 20
31.0051451296
 11
-28.4327443558
 21
31.2106745605
  0
LINE
  5
432
100
AcDbEntity
  8
RACCORDO
100
AcDbLine
 62
250
  6
CONTINUOUS
 10
-27.6130696169
 20
31.2066911469
 11
-28.2330171421
 21
31.4125514026
  0
LWPOLYLINE
  5
433
100
AcDbEntity
  8
0
100
AcDbPolyline
 62
7
  6
CONTINUOUS
 90
3
 70
0
 43
0.3500000006
 10
56.8331271057
 20
1.0357133102
 10
57.0474115906
 20
0.9642866592
 10
57.3331272583
 20
0.8214288254
  0
LWPOLYLINE
  5
434
100
AcDbEntity
  8
RACCORDO
100
AcDbPolyline
 62
7
  6
CONTINUOUS
 90
28
 70
0
 10
24.0000000052
 20
19.9997091676
 10
23.9966256883
 20
20.1160283311
 10
23.9864912774
 20
20.2320054402
 10
23.969620308
 20
20.3472476405
 10
23.9460446305
 20
20.4614212006
 10
23.9158413063
 20
20.5740778063
 10
23.8791663474
 20
20.684664996
 10
23.8362296227
 20
20.7926628901
 10
23.7871472719
 20
20.897873156
 10
23.7319463138
 20
21.0002256144
 10
23.6706559135
 20
21.0995515628
 10
23.6035590162
 20
21.1952880048
 10
23.5311003773
 20
21.2867999941
 10
23.453724491
 20
21.3736123073
 10
23.3715655908
 20
21.4556544924
 10
23.2846334936
 20
21.5329163887
 10
23.1929781779
 20
21.6052750338
 10
23.0970910243
 20
21.6722677764
 10
22.9976690302
 20
21.7334150786
 10
22.8952816885
 20
21.788441291
 10
22.7901008535
 20
21.8373265896
 10
22.6822641306
 20
21.8800333294
 10
22.5719870514
 20
21.916460781
 10
22.4597825856
 20
21.9464256325
 10
22.3462371094
 20
21.9697937361
 10
22.2318094463
 20
21.9865147064
 10
22.1168191412
 20
21.9965827996
 10
22.0016527162
 20
22.0
  0
LWPOLYLINE
  5
435
100
AcDbEntity
  8
RACCORDO
100
AcDbPolyline
 62
250
  6
CONTINUOUS
 90
9
 70
0
 10
23.2986890978
 20
-26.0806343515
 10
23.2982721099
 20
-26.0641933087
 10
23.297808481
 20
-26.0494449156
 10
23.2973038035
 20
-26.0365668091
 10
23.2967641543
 20
-26.0257140968
 10
23.2961960219
 20
-26.0170174926
 10
23.2956062513
 20
-26.0105817374
 10
23.2950019616
 20
-26.0064843392
 10
23.2943904426
 20
-26.0047746418
  0
LINE
  5
436
100
AcDbEntity
  8
RACCORDO
100
AcDbLine
 62
250
  6
CONTINUOUS
 10
23.2993635478
 20
-26.1177742452
 11
23.2986890978
 21
-26.0806343515
  0
LINE
  5
437
100
AcDbEntity
  8
RACCORDO
100
AcDbLine
 62
250
  6
CONTINUOUS
 10
23.2997998589
 20
-26.1591101971
 11
23.2993635478
 21
-26.1177742452
  0
LINE
  5
438
100
AcDbEntity
  8
RACCORDO
100
AcDbLine
 62
250
  6
CONTINUOUS
 10
23.2999767986
 20
-26.2027939605
 11
23.2997998589
 21
-26.1591101971
  0
LINE
  5
439
100
AcDbEntity
  8
RACCORDO
100
AcDbLine
 62
250
  6
CONTINUOUS
 10
22.9173027369
 20
-24.0
 11
22.9173027369
 21
20.0
  0
LINE
  5
43A
100
AcDbEntity
  8
RACCORDO
100
AcDbLine
 62
250
  6
CONTINUOUS
 10
23.917150432
 20
-24.0
 11
23.917150432
 21
20.0
  0
LINE
  5
43B
100
AcDbEntity
  8
RACCORDO
100
AcDbLine
 62
250
  6
CONTINUOUS
 10
23.9864939613
 20
20.0
 11
23.9864939613
 21
-24.0
  0
LINE
  5
43C
100
AcDbEntity
  8
DRAFT
100
AcDbLine
 62
7
  6
CONTINUOUS
 10
23.9998400231
 20
-24.7246192828
 11
24.0
 21
-26.0
  0
LINE
  5
43D
100
AcDbEntity
  8
RACCORDO
100
AcDbLine
 62
7
  6
CONTINUOUS
 10
24.0000000165
 20
20.0000936343
 11
24.0000008275
 21
-0.000338389
  0
LINE
  5
43E
100
AcDbEntity
  8
RACCORDO
100
AcDbLine
 62
250
  6
CONTINUOUS
 10
24.0034751072
 20
20.0024475774
 11
24.0034507214
 21
-26.0049189848
  0
LINE
  5
43F
100
AcDbEntity
  8
DRAFT
100
AcDbLine
 62
7
  6
CONTINUOUS
 10
24.0
 20
-0.000338389
 11
23.9998400231
 21
-24.7246192828
  0
LINE
  5
440
100
AcDbEntity
  8
RACCORDO
100
AcDbLine
 62
250
  6
CONTINUOUS
 10
24.2080530216
 20
20.0078943489
 11
24.2096150686
 21
10.3580456185
  0
LINE
  5
441
100
AcDbEntity
  8
RACCORDO
100
AcDbLine
 62
250
  6
CONTINUOUS
 10
24.2096150686
 20
10.3580456185
 11
24.2097479138
 21
-8.790399386
  0
LINE
  5
442
100
AcDbEntity
  8
RACCORDO
100
AcDbLine
 62
250
  6
CONTINUOUS
 10
24.2097479138
 20
-8.790399386
 11
24.210459696
 21
-26.2244232792
  0
LINE
  5
443
100
AcDbEntity
  8
RACCORDO
100
AcDbLine
 62
250
  6
CONTINUOUS
 10
23.2993933944
 20
-41.0811955575
 11
23.2999767986
 21
-26.2027939605
  0
LINE
  5
444
100
AcDbEntity
  8
DRAFT
100
AcDbLine
 62
7
  6
CONTINUOUS
 10
27.7704052265
 20
38.2461528125
 11
27.780648901
 21
38.5841284665
  0
LWPOLYLINE
  5
445
100
AcDbEntity
  8
RACCORDO
100
AcDbPolyline
 62
250
  6
CONTINUOUS
 90
4
 70
0
 10
23.2989759476
 20
-41.1270021564
 10
23.2990619671
 20
-41.1245647307
 10
23.2991472896
 20
-41.118713649
 10
23.2993933944
 20
-41.0811955575
  0
LINE
  5
446
100
AcDbEntity
  8
DRAFT
100
AcDbLine
 62
7
  6
CONTINUOUS
 10
28.1106622105
 20
36.2032409093
 11
28.1043864788
 21
36.0153919027
  0
LINE
  5
447
100
AcDbEntity
  8
RACCORDO
100
AcDbLine
 62
7
  6
CONTINUOUS
 10
27.780648901
 20
38.5841284665
 11
27.7944141715
 21
38.9819759234
  0
LINE
  5
448
100
AcDbEntity
  8
RACCORDO
100
AcDbLine
 62
7
  6
CONTINUOUS
 10
27.7944141715
 20
38.9819759234
 11
27.809615851
 21
39.3669176104
  0
LWPOLYLINE
  5
449
100
AcDbEntity
  8
DRAFT
100
AcDbPolyline
 62
7
  6
CONTINUOUS
 90
17
 70
0
 10
28.1043864788
 20
36.0153919027
 10
28.0970449178
 20
35.8384724699
 10
28.0930179402
 20
35.754978483
 10
28.0887553991
 20
35.675250416
 10
28.0843060926
 20
35.5996069959
 10
28.0796677766
 20
35.5283534612
 10
28.074842695
 20
35.4617778077
 10
28.0698863778
 20
35.4001478268
 10
28.0647968106
 20
35.3437106741
 10
28.0595760077
 20
35.2927001666
 10
28.0542855422
 20
35.2473312108
 10
28.048924584
 20
35.2077884879
 10
28.0434939633
 20
35.1742301404
 10
28.0380577439
 20
35.1467931436
 10
28.0326372805
 20
35.1255884935
 10
28.0272112185
 20
35.1107015529
 10
28.0217795578
 20
35.1021927444
  0
LINE
  5
44A
100
AcDbEntity
  8
RACCORDO
100
AcDbLine
 62
7
  6
CONTINUOUS
 10
27.809615851
 20
39.3669176104
 11
27.8261562603
 21
39.7367914957
  0
LINE
  5
44B
100
AcDbEntity
  8
RACCORDO
100
AcDbLine
 62
7
  6
CONTINUOUS
 10
27.8261562603
 20
39.7367914957
 11
27.8393797734
 21
40.0030573423
  0
LINE
  5
44C
100
AcDbEntity
  8
RACCORDO
100
AcDbLine
 62
7
  6
CONTINUOUS
 10
27.8393797734
 20
40.0030573423
 11
27.8532531035
 21
40.2588432546
  0
LINE
  5
44D
100
AcDbEntity
  8
RACCORDO
100
AcDbLine
 62
7
  6
CONTINUOUS
 10
27.8532531035
 20
40.2588432546
 11
27.8677281384
 21
40.5033517682
  0
LINE
  5
44E
100
AcDbEntity
  8
RACCORDO
100
AcDbLine
 62
7
  6
CONTINUOUS
 10
27.8677281384
 20
40.5033517682
 11
27.8839855251
 21
40.7550645284
  0
LWPOLYLINE
  5
44F
100
AcDbEntity
  8
RACCORDO
100
AcDbPolyline
 62
250
  6
CONTINUOUS
 90
16
 70
0
 10
28.2267172747
 20
40.8352665366
 10
28.2288200929
 20
40.8662749533
 10
28.2341159931
 20
40.8969020112
 10
28.2425481251
 20
40.9268189357
 10
28.2540259718
 20
40.9557045752
 10
28.268426321
 20
40.9832488489
 10
28.2855945883
 20
41.0091560749
 10
28.305346476
 20
41.0331481451
 10
28.327469952
 20
41.0549675099
 10
28.3517275258
 20
41.0743799432
 10
28.3778587977
 20
41.0911770568
 10
28.4055832542
 20
41.1051785376
 10
28.4346032794
 20
41.1162340826
 10
28.46460735
 20
41.1242250131
 10
28.4952733787
 20
41.1290655481
 10
28.5262721726
 20
41.1307037257
  0
LWPOLYLINE
  5
450
100
AcDbEntity
  8
RACCORDO
100
AcDbPolyline
 62
250
  6
CONTINUOUS
 90
7
 70
0
 10
20.2948657244
 20
-41.076160393
 10
20.2952769804
 20
-41.0736862134
 10
20.2956852392
 20
-41.0677380661
 10
20.2960876571
 20
-41.0583574904
 10
20.2964814349
 20
-41.0456099962
 10
20.2968638237
 20
-41.0295846065
 10
20.2975838236
 20
-40.9881699079
  0
LWPOLYLINE
  5
451
100
AcDbEntity
  8
0
100
AcDbPolyline
 62
7
  6
CONTINUOUS
 90
10
 70
0
 43
0.3500000006
 10
56.6188426208
 20
0.9642866592
 10
56.7616959229
 20
1.0357133102
 10
56.8331271057
 20
1.0357133102
 10
56.9759849396
 20
0.8928577423
 10
56.9759849396
 20
0.8214288254
 10
56.9045537567
 20
0.7499999084
 10
56.8331271057
 20
0.7499999084
 10
56.6902692719
 20
0.8214288254
 10
56.6188426208
 20
0.8928577423
 10
56.6188426208
 20
0.9642866592
  0
LWPOLYLINE
  5
452
100
AcDbEntity
  8
RACCORDO
100
AcDbPolyline
 62
250
  6
CONTINUOUS
 90
19
 70
0
 10
38.2128551042
 20
-40.7485758118
 10
38.2217224099
 20
-40.7829757585
 10
38.2330305213
 20
-40.8168684465
 10
38.246764232
 20
-40.850066441
 10
38.2628877602
 20
-40.8823715644
 10
38.2813614894
 20
-40.9136042178
 10
38.3021483846
 20
-40.9436004567
 10
38.3251788941
 20
-40.9721701129
 10
38.3503679583
 20
-40.9991225786
 10
38.3776418699
 20
-41.0242885756
 10
38.4069107391
 20
-41.0475009252
 10
38.4380218547
 20
-41.0685572924
 10
38.4707784706
 20
-41.0872523327
 10
38.5050136281
 20
-41.1034385823
 10
38.5405377141
 20
-41.1169741428
 10
38.577084232
 20
-41.1277097643
 10
38.6144147483
 20
-41.1355476272
 10
38.6523272716
 20
-41.1404224091
 10
38.6905904483
 20
-41.1422760141
  0
LWPOLYLINE
  5
453
100
AcDbEntity
  8
RACCORDO
100
AcDbPolyline
 62
250
  6
CONTINUOUS
 90
16
 70
0
 10
28.2337956293
 20
31.4138885982
 10
28.2348875126
 20
31.393111317
 10
28.2381862626
 20
31.3725437012
 10
28.2436552125
 20
31.3524142703
 10
28.2512335806
 20
31.3329466797
 10
28.2608371537
 20
31.3143572133
 10
28.2723592311
 20
31.2968523837
 10
28.2856717947
 20
31.2806266687
 10
28.3006269252
 20
31.2658603464
 10
28.3170584584
 20
31.2527174719
 10
28.3347838236
 20
31.2413440647
 10
28.3536060836
 20
31.2318664787
 10
28.3733161255
 20
31.2243900029
 10
28.3936949666
 20
31.2189976997
 10
28.4145161848
 20
31.2157494775
 10
28.4355484478
 20
31.2146814216
  0
LWPOLYLINE
  5
454
100
AcDbEntity
  8
RACCORDO
100
AcDbPolyline
 62
250
  6
CONTINUOUS
 90
16
 70
0
 10
28.233016238
 20
31.4125511024
 10
28.2339410165
 20
31.3915244681
 10
28.2370677957
 20
31.3707095694
 10
28.2423619435
 20
31.3503369715
 10
28.2497648202
 20
31.3306323397
 10
28.2591944271
 20
31.3118139429
 10
28.270546314
 20
31.2940902348
 10
28.2836947389
 20
31.2776575404
 10
28.2984940585
 20
31.2626978858
 10
28.3147803378
 20
31.2493769836
 10
28.3323731729
 20
31.2378423897
 10
28.3510776902
 20
31.2282218713
 10
28.3706867002
 20
31.2206219945
 10
28.3909829947
 20
31.215126943
 10
28.4117417525
 20
31.2117975852
 10
28.4327330298
 20
31.2106708002
  0
LWPOLYLINE
  5
455
100
AcDbEntity
  8
RACCORDO
100
AcDbPolyline
 62
250
  6
CONTINUOUS
 90
22
 70
0
 10
27.6130696484
 20
31.2066911573
 10
27.6134915407
 20
31.191402869
 10
27.6150792979
 20
31.1762405709
 10
27.6178132677
 20
31.1612911805
 10
27.6216597868
 20
31.1466642687
 10
27.6265906449
 20
31.1324148176
 10
27.6326021237
 20
31.1185492802
 10
27.6396951078
 20
31.1051012044
 10
27.647814903
 20
31.0922041659
 10
27.656864376
 20
31.0800069219
 10
27.6667965726
 20
31.0685564144
 10
27.6775325001
 20
31.0579279066
 10
27.6888792283
 20
31.0482686784
 10
27.7006150594
 20
31.0396836688
 10
27.7127659117
 20
31.0320763487
 10
27.7255242558
 20
31.0253109967
 10
27.7388711043
 20
31.019426779
 10
27.752710855
 20
31.0144946242
 10
27.767163017
 20
31.010517154
 10
27.7822277717
 20
31.0075691299
 10
27.7977698761
 20
31.0057523558
 10
27.8137036738
 20
31.00514516
  0
LWPOLYLINE
  5
456
100
AcDbEntity
  8
RACCORDO
100
AcDbPolyline
 62
250
  6
CONTINUOUS
 90
9
 70
0
 10
28.5338012375
 20
41.0114266108
 10
28.5330881922
 20
41.0372862693
 10
28.5323016979
 20
41.060430099
 10
28.5314413124
 20
41.080666144
 10
28.5305116481
 20
41.0977326577
 10
28.5295261013
 20
41.1114154101
 10
28.5284909632
 20
41.1215523075
 10
28.5274053542
 20
41.1280177015
 10
28.5262721725
 20
41.1307037257
  0
LINE
  5
457
100
AcDbEntity
  8
RACCORDO
100
AcDbLine
 62
7
  6
CONTINUOUS
 10
27.7521602638
 20
33.4828855023
 11
27.762727105
 21
33.1028796649
  0
LINE
  5
458
100
AcDbEntity
  8
RACCORDO
100
AcDbLine
 62
7
  6
CONTINUOUS
 10
27.762727105
 20
33.1028796649
 11
27.7645816999
 21
33.0213855088
  0
LINE
  5
459
100
AcDbEntity
  8
RACCORDO
100
AcDbLine
 62
7
  6
CONTINUOUS
 10
27.7442447303
 20
33.8447266317
 11
27.7521602638
 21
33.4828855023
  0
LINE
  5
45A
100
AcDbEntity
  8
RACCORDO
100
AcDbLine
 62
250
  6
CONTINUOUS
 10
28.5349868249
 20
40.9521651182
 11
28.5338012375
 21
41.0114266108
  0
LINE
  5
45B
100
AcDbEntity
  8
RACCORDO
100
AcDbLine
 62
7
  6
CONTINUOUS
 10
27.4620211241
 20
40.847453237
 11
27.4904521453
 21
39.25
  0
LINE
  5
45C
100
AcDbEntity
  8
RACCORDO
100
AcDbLine
 62
7
  6
CONTINUOUS
 10
27.7380351905
 20
34.2227592418
 11
27.7442447303
 21
33.8447266317
  0
LINE
  5
45D
100
AcDbEntity
  8
RACCORDO
100
AcDbLine
 62
7
  6
CONTINUOUS
 10
27.7645816999
 20
33.0213855088
 11
27.7660784058
 21
32.9295173603
  0
LINE
  5
45E
100
AcDbEntity
  8
DRAFT
100
AcDbLine
 62
7
  6
CONTINUOUS
 10
28.1192574594
 20
37.5632397597
 11
28.1220434215
 21
37.3863279724
  0
LINE
  5
45F
100
AcDbEntity
  8
RACCORDO
100
AcDbLine
 62
250
  6
CONTINUOUS
 10
28.5358401262
 20
40.8840782522
 11
28.5349868249
 21
40.9521651182
  0
LINE
  5
460
100
AcDbEntity
  8
RACCORDO
100
AcDbLine
 62
7
  6
CONTINUOUS
 10
27.460821803
 20
40.9529118238
 11
27.4620211241
 21
40.847453237
  0
LWPOLYLINE
  5
461
100
AcDbEntity
  8
RACCORDO
100
AcDbPolyline
 62
7
  6
CONTINUOUS
 90
3
 70
0
 10
27.7320471986
 20
34.8158715335
 10
27.7336020332
 20
34.615060951
 10
27.7380351905
 20
34.2227592418
  0
LWPOLYLINE
  5
462
100
AcDbEntity
  8
RACCORDO
100
AcDbPolyline
 62
250
  6
CONTINUOUS
 90
15
 70
0
 10
28.2343859942
 20
40.7062500484
 10
28.2342710418
 20
40.7218235362
 10
28.2340831431
 20
40.7366013678
 10
28.2338205488
 20
40.7506359233
 10
28.2334849758
 20
40.7638750026
 10
28.2330816033
 20
40.7761618441
 10
28.2326099724
 20
40.7875193378
 10
28.2320705098
 20
40.7979247735
 10
28.2314697184
 20
40.8071530146
 10
28.2308050163
 20
40.8152064368
 10
28.2300789561
 20
40.8220828285
 10
28.2293057402
 20
40.8275501864
 10
28.2284900954
 20
40.8315312175
 10
28.2276272753
 20
40.8341033245
 10
28.2267172747
 20
40.8352665366
  0
LINE
  5
463
100
AcDbEntity
  8
RACCORDO
100
AcDbLine
 62
7
  6
CONTINUOUS
 10
27.7660784058
 20
32.9295173603
 11
27.7711994292
 21
32.3491644374
  0
LINE
  5
464
100
AcDbEntity
  8
DRAFT
100
AcDbLine
 62
7
  6
CONTINUOUS
 10
28.1220434215
 20
37.3863279724
 11
28.1234888378
 21
37.1984397818
  0
LINE
  5
465
100
AcDbEntity
  8
RACCORDO
100
AcDbLine
 62
250
  6
CONTINUOUS
 10
28.5363453359
 20
40.8078166791
 11
28.5358401262
 21
40.8840782522
  0
LINE
  5
466
100
AcDbEntity
  8
DRAFT
100
AcDbLine
 62
7
  6
CONTINUOUS
 10
27.7320471986
 20
34.8158715335
 11
27.7305101193
 21
35.1531508159
  0
LINE
  5
467
100
AcDbEntity
  8
RACCORDO
100
AcDbLine
 62
250
  6
CONTINUOUS
 10
28.5466556501
 20
36.5758937461
 11
28.5363453359
 21
40.8078166791
  0
LINE
  5
468
100
AcDbEntity
  8
RACCORDO
100
AcDbLine
 62
250
  6
CONTINUOUS
 10
28.5541760878
 20
31.5645254243
 11
28.5466556501
 21
36.5758937461
  0
LINE
  5
469
100
AcDbEntity
  8
DRAFT
100
AcDbLine
 62
7
  6
CONTINUOUS
 10
27.55
 20
35.15
 11
27.55
 21
33.65
  0
LINE
  5
46A
100
AcDbEntity
  8
RACCORDO
100
AcDbLine
 62
7
  6
CONTINUOUS
 10
27.55
 20
33.65
 11
27.55
 21
33.4131080123
  0
LINE
  5
46B
100
AcDbEntity
  8
RACCORDO
100
AcDbLine
 62
7
  6
CONTINUOUS
 10
27.5501383875
 20
30.7
 11
27.5501386097
 21
33.0290781048
  0
LINE
  5
46C
100
AcDbEntity
  8
DRAFT
100
AcDbLine
 62
7
  6
CONTINUOUS
 10
27.55
 20
41.2159709216
 11
27.55
 21
38.25
  0
LINE
  5
46D
100
AcDbEntity
  8
RACCORDO
100
AcDbLine
 62
250
  6
CONTINUOUS
 10
27.8137035824
 20
30.7051908211
 11
27.8137035826
 21
31.0051451296
  0
LINE
  5
46E
100
AcDbEntity
  8
RACCORDO
100
AcDbLine
 62
250
  6
CONTINUOUS
 10
28.233800888
 20
31.4139008636
 11
28.2343859942
 21
40.7062500484
  0
LINE
  5
46F
100
AcDbEntity
  8
DRAFT
100
AcDbLine
 62
7
  6
CONTINUOUS
 10
28.1234888378
 20
37.1984397818
 11
28.1235787876
 21
37.0025841798
  0
LINE
  5
470
100
AcDbEntity
  8
DRAFT
100
AcDbLine
 62
7
  6
CONTINUOUS
 10
27.466172082
 20
33.65
 11
27.4785570881
 21
36.6811855258
  0
LINE
  5
471
100
AcDbEntity
  8
DRAFT
100
AcDbLine
 62
7
  6
CONTINUOUS
 10
27.4785570881
 20
36.6811855258
 11
27.4904521453
 21
39.25
  0
LWPOLYLINE
  5
472
100
AcDbEntity
  8
RACCORDO
100
AcDbPolyline
 62
7
  6
CONTINUOUS
 90
7
 70
0
 10
27.5501386097
 20
33.0290781048
 10
27.5503160181
 20
33.0557352418
 10
27.5508485345
 20
33.0823944012
 10
27.5517363687
 20
33.1090508361
 10
27.552979667
 20
33.1356997928
 10
27.5545785125
 20
33.1623365119
 10
27.5565329242
 20
33.1889562289
  0
LINE
  5
473
100
AcDbEntity
  8
DRAFT
100
AcDbLine
 62
7
  6
CONTINUOUS
 10
28.1235787876
 20
37.0025841798
 11
28.1223046091
 21
36.8019207866
  0
LINE
  5
474
100
AcDbEntity
  8
RACCORDO
100
AcDbLine
 62
250
  6
CONTINUOUS
 10
27.6237975323
 20
32.3002525863
 11
27.6130696169
 21
31.2066911469
  0
LINE
  5
475
100
AcDbEntity
  8
DRAFT
100
AcDbLine
 62
7
  6
CONTINUOUS
 10
28.1223046091
 20
36.8019207866
 11
28.1197012176
 21
36.5996629289
  0
LWPOLYLINE
  5
476
100
AcDbEntity
  8
RACCORDO
100
AcDbPolyline
 62
7
  6
CONTINUOUS
 90
9
 70
0
 10
27.8905720099
 20
40.9478079374
 10
27.8901180658
 20
40.9220951726
 10
27.8895538846
 20
40.8964111485
 10
27.8888794663
 20
40.8709529554
 10
27.8880860304
 20
40.8458487867
 10
27.8871823573
 20
40.8213817558
 10
27.8861947886
 20
40.7979619151
 10
27.8851321047
 20
40.7758263864
 10
27.8839855251
 20
40.7550645284
  0
LINE
  5
477
100
AcDbEntity
  8
DRAFT
100
AcDbLine
 62
7
  6
CONTINUOUS
 10
28.1197012176
 20
36.5996629289
 11
28.1158001752
 21
36.3990403386
  0
LINE
  5
478
100
AcDbEntity
  8
DRAFT
100
AcDbLine
 62
7
  6
CONTINUOUS
 10
28.1158001752
 20
36.3990403386
 11
28.1106622105
 21
36.2032409093
  0
LWPOLYLINE
  5
479
100
AcDbEntity
  8
RACCORDO
100
AcDbPolyline
 62
250
  6
CONTINUOUS
 90
3
 70
0
 10
39.4777487397
 20
30.7728297567
 10
39.4628356357
 20
30.7278983472
 10
39.4551908211
 20
30.7051908211
  0
LINE
  5
47A
100
AcDbEntity
  8
RACCORDO
100
AcDbLine
 62
250
  6
CONTINUOUS
 10
39.554788126
 20
31.0040043115
 11
39.4777487397
 21
30.7728297567
  0
LINE
  5
47B
100
AcDbEntity
  8
RACCORDO
100
AcDbLine
 62
250
  6
CONTINUOUS
 10
39.5551755906
 20
31.0051451296
 11
39.554788126
 21
31.0040043115
  0
LWPOLYLINE
  5
47C
100
AcDbEntity
  8
0
100
AcDbPolyline
 62
7
  6
CONTINUOUS
 90
34
 70
0
 10
4.9829090667
 20
30.9491138137
 10
5.0086053967
 20
30.9500180292
 10
5.0343559422
 20
30.9516080852
 10
5.0600713797
 20
30.9539167912
 10
5.0856076691
 20
30.9569674506
 10
5.1109403768
 20
30.9607936443
 10
5.1361628237
 20
30.9654579094
 10
5.1612012196
 20
30.9710063969
 10
5.1859673258
 20
30.9774824839
 10
5.2105251378
 20
30.9849785478
 10
5.234842261
 20
30.9935800551
 10
5.2587647449
 20
31.0033357795
 10
5.2821659323
 20
31.0142985433
 10
5.304978418
 20
31.0265503851
 10
5.3270694583
 20
31.0401436593
 10
5.3482266284
 20
31.0550638302
 10
5.3683441351
 20
31.0713410043
 10
5.387365873
 20
31.088963636
 10
5.4051867891
 20
31.1077735201
 10
5.4217453552
 20
31.1276337825
 10
5.4370104654
 20
31.1484427315
 10
5.4509346828
 20
31.1700823248
 10
5.4634722965
 20
31.1924360669
 10
5.4745822915
 20
31.2153955747
 10
5.4842348905
 20
31.238860351
 10
5.4924748655
 20
31.2627322069
 10
5.4993946441
 20
31.2869449367
 10
5.5050892982
 20
31.3114641133
 10
5.5096367559
 20
31.3362058508
 10
5.5131187505
 20
31.3611086625
 10
5.51561969
 20
31.3861759362
 10
5.5172105885
 20
31.411361831
 10
5.5179592623
 20
31.4365696772
 10
5.5179372054
 20
31.4617270348
  0
LINE
  5
47D
100
AcDbEntity
  8
RACCORDO
100
AcDbLine
 62
250
  6
CONTINUOUS
 10
-34.6518158177
 20
31.19974813
 11
-39.7358592942
 21
31.1858288332
  0
LWPOLYLINE
  5
47E
100
AcDbEntity
  8
RACCORDO
100
AcDbPolyline
 62
250
  6
CONTINUOUS
 90
3
 70
0
 10
-28.4327443558
 20
31.2106745605
 10
-28.9177987293
 20
31.2100726108
 10
-34.6518158177
 20
31.19974813
  0
LINE
  5
47F
100
AcDbEntity
  8
0
100
AcDbLine
 62
7
  6
CONTINUOUS
 10
6.3293691418
 20
29.1174362133
 11
5.666865356
 21
29.1174362133
  0
LINE
  5
480
100
AcDbEntity
  8
0
100
AcDbLine
 62
7
  6
CONTINUOUS
 10
4.612129637
 20
29.1174362133
 11
3.9261443912
 21
29.1174362133
  0
LINE
  5
481
100
AcDbEntity
  8
0
100
AcDbLine
 62
7
  6
CONTINUOUS
 10
3.723892
 20
29.117436
 11
2.997971
 21
29.117436
  0
LINE
  5
482
100
AcDbEntity
  8
0
100
AcDbLine
 62
7
  6
CONTINUOUS
 10
1.691521
 20
29.117436
 11
1.010237
 21
29.117436
  0
LINE
  5
483
100
AcDbEntity
  8
0
100
AcDbLine
 62
7
  6
CONTINUOUS
 10
0.902084
 20
29.117436
 11
0.228297
 21
29.117436
  0
LINE
  5
484
100
AcDbEntity
  8
0
100
AcDbLine
 62
7
  6
CONTINUOUS
 10
-0.732142
 20
29.117436
 11
-0.82874
 21
29.117436
  0
LINE
  5
485
100
AcDbEntity
  8
0
100
AcDbLine
 62
7
  6
CONTINUOUS
 10
-1.785368
 20
29.117436
 11
-2.444284
 21
29.117436
  0
LINE
  5
486
100
AcDbEntity
  8
0
100
AcDbLine
 62
7
  6
CONTINUOUS
 10
-2.815064
 20
29.117436
 11
-3.50382
 21
29.117436
  0
LINE
  5
487
100
AcDbEntity
  8
0
100
AcDbLine
 62
7
  6
CONTINUOUS
 10
-4.820044
 20
29.117436
 11
-5.427011
 21
29.117436
  0
LINE
  5
488
100
AcDbEntity
  8
0
100
AcDbLine
 62
7
  6
CONTINUOUS
 10
2.819547
 20
29.776154
 11
1.881575
 21
29.776154
  0
LINE
  5
489
100
AcDbEntity
  8
0
100
AcDbLine
 62
7
  6
CONTINUOUS
 10
2.022464
 20
30.285868
 11
2.681899
 21
30.285868
  0
LINE
  5
48A
100
AcDbEntity
  8
0
100
AcDbLine
 62
7
  6
CONTINUOUS
 10
4.9814244644
 20
30.4087185688
 11
4.612129637
 21
30.4087185688
  0
LINE
  5
48B
100
AcDbEntity
  8
RACCORDO
100
AcDbLine
 62
7
  6
CONTINUOUS
 10
38.9462892409
 20
30.6999998888
 11
27.5501383875
 21
30.7
  0
LINE
  5
48C
100
AcDbEntity
  8
RACCORDO
100
AcDbLine
 62
7
  6
CONTINUOUS
 10
-27.5501383875
 20
30.7
 11
-38.9462892409
 21
30.6999999939
  0
LINE
  5
48D
100
AcDbEntity
  8
RACCORDO
100
AcDbLine
 62
250
  6
CONTINUOUS
 10
-39.4551908211
 20
30.7051908211
 11
-27.8137035824
 21
30.7051908211
  0
LINE
  5
48E
100
AcDbEntity
  8
RACCORDO
100
AcDbLine
 62
250
  6
CONTINUOUS
 10
27.8137035824
 20
30.7051908211
 11
39.4551908211
 21
30.7051908211
  0
LINE
  5
48F
100
AcDbEntity
  8
0
100
AcDbLine
 62
7
  6
CONTINUOUS
 10
4.5892915047
 20
30.9491138137
 11
4.9829090667
 21
30.9491138137
  0
LINE
  5
490
100
AcDbEntity
  8
RACCORDO
100
AcDbLine
 62
250
  6
CONTINUOUS
 10
-39.5551755906
 20
31.0051451296
 11
-27.8137035824
 21
31.0051451296
  0
LINE
  5
491
100
AcDbEntity
  8
RACCORDO
100
AcDbLine
 62
250
  6
CONTINUOUS
 10
27.8137035824
 20
31.0051451296
 11
39.5551755906
 21
31.0051451296
  0
LWPOLYLINE
  5
492
100
AcDbEntity
  8
RACCORDO
100
AcDbPolyline
 62
250
  6
CONTINUOUS
 90
3
 70
0
 10
28.4327437219
 20
31.2106743501
 10
31.5754981747
 20
31.2060091119
 10
32.156266525
 20
31.2049549397
  0
LINE
  5
493
100
AcDbEntity
  8
RACCORDO
100
AcDbLine
 62
250
  6
CONTINUOUS
 10
32.156266525
 20
31.2049549397
 11
33.3684357392
 21
31.2025649549
  0
LINE
  5
494
100
AcDbEntity
  8
RACCORDO
100
AcDbLine
 62
250
  6
CONTINUOUS
 10
33.3684357392
 20
31.2025649549
 11
35.3162695427
 21
31.1981726437
  0
LINE
  5
495
100
AcDbEntity
  8
RACCORDO
100
AcDbLine
 62
250
  6
CONTINUOUS
 10
35.3162695427
 20
31.1981726437
 11
38.180807879
 21
31.190522561
  0
LINE
  5
496
100
AcDbEntity
  8
RACCORDO
100
AcDbLine
 62
250
  6
CONTINUOUS
 10
38.180807879
 20
31.190522561
 11
39.7358592942
 21
31.1858288332
  0
LWPOLYLINE
  5
497
100
AcDbEntity
  8
RACCORDO
100
AcDbPolyline
 62
7
  6
CONTINUOUS
 90
19
 70
0
 10
38.9462905949
 20
30.6999999218
 10
38.9831122949
 20
30.6993854235
 10
39.019031599
 20
30.6974991262
 10
39.0540486586
 20
30.6943407034
 10
39.0884495422
 20
30.6898702075
 10
39.1219484432
 20
30.6841270227
 10
39.1536878312
 20
30.6772295521
 10
39.1835136582
 20
30.6691725236
 10
39.2115804998
 20
30.6599601074
 10
39.2374939277
 20
30.649724529
 10
39.2612401913
 20
30.6384696847
 10
39.2828335508
 20
30.6261906263
 10
39.3019216494
 20
30.6130061997
 10
39.318526618
 20
30.5988469784
 10
39.3326267511
 20
30.5837815181
 10
39.343803958
 20
30.5681355998
 10
39.3519189766
 20
30.5520176102
 10
39.3571113429
 20
30.5353186049
 10
39.3593811293
 20
30.5180384363
  0
LINE
  5
498
100
AcDbEntity
  8
0
100
AcDbLine
 62
7
  6
CONTINUOUS
 10
5.6969038097
 20
30.6576616347
 11
5.729699939
 21
30.6427008601
  0
LWPOLYLINE
  5
499
100
AcDbEntity
  8
0
100
AcDbPolyline
 62
7
  6
CONTINUOUS
 90
24
 70
0
 10
5.729699939
 20
30.6427008601
 10
5.7601800641
 20
30.6252003791
 10
5.7884871485
 20
30.605534159
 10
5.8148373429
 20
30.5839770798
 10
5.8392704935
 20
30.5609069438
 10
5.8616928469
 20
30.5368652078
 10
5.882121745
 20
30.5123325138
 10
5.900844592
 20
30.4874331872
 10
5.9181659555
 20
30.4621428581
 10
5.9341829949
 20
30.4366450617
 10
5.9489811492
 20
30.4111140181
 10
5.9627849322
 20
30.3854294927
 10
5.9756727617
 20
30.3596684338
 10
5.9876748313
 20
30.3339867079
 10
5.9989042557
 20
30.3083430852
 10
6.0093953746
 20
30.2828423757
 10
6.0191918177
 20
30.2575579948
 10
6.0283952985
 20
30.2323867533
 10
6.0370299707
 20
30.2074048014
 10
6.0451190379
 20
30.1826877543
 10
6.0527625584
 20
30.1580902408
 10
6.0600574836
 20
30.1335100963
 10
6.0670671792
 20
30.1089671337
 10
6.0738722546
 20
30.0844330059
  0
LWPOLYLINE
  5
49A
100
AcDbEntity
  8
0
100
AcDbPolyline
 62
7
  6
CONTINUOUS
 90
10
 70
0
 43
0.3500000006
 10
0.9642857051
 20
62.5351452026
 10
1.035714268
 20
62.3922919006
 10
1.035714268
 20
62.3208607178
 10
0.8928571422
 20
62.1780074158
 10
0.8214285793
 20
62.1780074158
 10
0.7500000165
 20
62.2494385986
 10
0.7500000165
 20
62.3208607178
 10
0.8214285793
 20
62.4637230835
 10
0.8928571422
 20
62.5351452026
 10
0.9642857051
 20
62.5351452026
  0
LWPOLYLINE
  5
49B
100
AcDbEntity
  8
RACCORDO
100
AcDbPolyline
 62
250
  6
CONTINUOUS
 90
17
 70
0
 10
27.7711969585
 20
32.3491625628
 10
27.7678078888
 20
32.3798532787
 10
27.7625385501
 20
32.4102811471
 10
27.7554346582
 20
32.4403256879
 10
27.7465327747
 20
32.4699102408
 10
27.7359030139
 20
32.4988852056
 10
27.7236733406
 20
32.5270352474
 10
27.7099641509
 20
32.5542235056
 10
27.6948473448
 20
32.5804198524
 10
27.6783993727
 20
32.6055852451
 10
27.6607188709
 20
32.6296477895
 10
27.6418966258
 20
32.6525545244
 10
27.6219856163
 20
32.6742973885
 10
27.6010592732
 20
32.6948416898
 10
27.5792229608
 20
32.7141260974
 10
27.5565718352
 20
32.7321074067
 10
27.5501396154
 20
32.7366894362
  0
LWPOLYLINE
  5
49C
100
AcDbEntity
  8
RACCORDO
100
AcDbPolyline
 62
250
  6
CONTINUOUS
 90
22
 70
0
 10
38.5361905516
 20
-40.7437296182
 10
38.5386554312
 20
-40.7733112406
 10
38.541670903
 20
-40.8025607002
 10
38.5452374734
 20
-40.8313600342
 10
38.5493571842
 20
-40.8595870537
 10
38.5540313842
 20
-40.8871250707
 10
38.5592605555
 20
-40.9138624571
 10
38.5650737824
 20
-40.9396737463
 10
38.571450014
 20
-40.9644440242
 10
38.5783152391
 20
-40.9880744625
 10
38.5856829391
 20
-41.0104522765
 10
38.5935521047
 20
-41.0314500495
 10
38.6018281316
 20
-41.0509478397
 10
38.6105339623
 20
-41.068843016
 10
38.6196650904
 20
-41.0850179795
 10
38.6290879402
 20
-41.0993474276
 10
38.6388197434
 20
-41.1117429854
 10
38.6488683495
 20
-41.1221290969
 10
38.6590882195
 20
-41.1304266647
 10
38.6694408511
 20
-41.1365778993
 10
38.6799943621
 20
-41.140539326
 10
38.6907642575
 20
-41.1422734313
  0
LINE
  5
49D
100
AcDbEntity
  8
RACCORDO
100
AcDbLine
 62
250
  6
CONTINUOUS
 10
33.75
 20
-41.2931574806
 11
33.75
 21
-41.1310794779
  0
LWPOLYLINE
  5
49E
100
AcDbEntity
  8
0
100
AcDbPolyline
 62
7
  6
CONTINUOUS
 90
25
 70
0
 10
3.9261443912
 20
32.3784889284
 10
3.9967247082
 20
32.3886629733
 10
4.0672521553
 20
32.398366336
 10
4.1377162834
 20
32.4075324503
 10
4.2080480057
 20
32.4160888968
 10
4.2782957979
 20
32.4239791901
 10
4.348626425
 20
32.4311570906
 10
4.4190490358
 20
32.4375557345
 10
4.4895358321
 20
32.4431046495
 10
4.5601991174
 20
32.4477424911
 10
4.631041543
 20
32.4513959919
 10
4.7020420897
 20
32.4539897515
 10
4.773277828
 20
32.4554495434
 10
4.8448141879
 20
32.4556944024
 10
4.9165667878
 20
32.4546401211
 10
4.9883878268
 20
32.4522094004
 10
5.0602106275
 20
32.4483298532
 10
5.1320821793
 20
32.4429238019
 10
5.2039960479
 20
32.4358721431
 10
5.2758789824
 20
32.4269057923
 10
5.3474898525
 20
32.4157369067
 10
5.4184795503
 20
32.4021067072
 10
5.4886228234
 20
32.3857531917
 10
5.5578144173
 20
32.366391564
 10
5.625890332
 20
32.343749234
  0
LWPOLYLINE
  5
49F
100
AcDbEntity
  8
RACCORDO
100
AcDbPolyline
 62
250
  6
CONTINUOUS
 90
22
 70
0
 10
-39.7886242209
 20
31.5246087908
 10
-39.8262786783
 20
31.5228728407
 10
-39.8630938032
 20
31.5185776668
 10
-39.899069497
 20
31.5117231704
 10
-39.9342877935
 20
31.5022535859
 10
-39.9686664201
 20
31.4902244407
 10
-40.0019588431
 20
31.4758026011
 10
-40.0342739589
 20
31.4589201248
 10
-40.0655026546
 20
31.4396447378
 10
-40.0950715117
 20
31.4183469381
 10
-40.1228716174
 20
31.3950889769
 10
-40.1490118536
 20
31.369808572
 10
-40.1732456311
 20
31.3426895583
 10
-40.1955939077
 20
31.3138197598
 10
-40.2160357477
 20
31.2831113745
 10
-40.2342617835
 20
31.2504848591
 10
-40.250406335
 20
31.2156185984
 10
-40.2643350773
 20
31.1788342028
 10
-40.2753358543
 20
31.1410171453
 10
-40.2831714508
 20
31.1024627536
 10
-40.288079409
 20
31.0628760265
 10
-40.2900598517
 20
31.0222570864
  0
LWPOLYLINE
  5
4A0
100
AcDbEntity
  8
RACCORDO
100
AcDbPolyline
 62
250
  6
CONTINUOUS
 90
22
 70
0
 10
-39.7358593689
 20
31.1858289079
 10
-39.7506973808
 20
31.1851619013
 10
-39.765353529
 20
31.1834032862
 10
-39.7797491564
 20
31.18058582
 10
-39.7937716956
 20
31.1767590432
 10
-39.807391549
 20
31.1719596081
 10
-39.8206528956
 20
31.1661834398
 10
-39.8335317107
 20
31.1594310578
 10
-39.845907572
 20
31.151755275
 10
-39.8576795621
 20
31.1432217552
 10
-39.8687510801
 20
31.1339153094
 10
-39.8791107679
 20
31.1238609532
 10
-39.8887801164
 20
31.1130311982
 10
-39.8976759291
 20
31.1014977403
 10
-39.9057600982
 20
31.0892877862
 10
-39.9130708633
 20
31.0762728311
 10
-39.9195586191
 20
31.0623819453
 10
-39.9250615929
 20
31.0477728414
 10
-39.9294464301
 20
31.0326642971
 10
-39.9326481868
 20
31.017193662
 10
-39.9346328472
 20
31.00140228
 10
-39.9353570112
 20
30.9853874721
  0
LWPOLYLINE
  5
4A1
100
AcDbEntity
  8
RACCORDO
100
AcDbPolyline
 62
250
  6
CONTINUOUS
 90
6
 70
0
 10
-27.8137035824
 20
30.7051908211
 10
-27.7749997037
 20
30.7067766004
 10
-27.7370733257
 20
30.7111385862
 10
-27.6999244484
 20
30.7182767786
 10
-27.6634116468
 20
30.7282476507
 10
-27.6276763459
 20
30.7409947293
  0
LWPOLYLINE
  5
4A2
100
AcDbEntity
  8
RACCORDO
100
AcDbPolyline
 62
250
  6
CONTINUOUS
 90
22
 70
0
 10
-27.8137036746
 20
31.0051451602
 10
-27.7982994649
 20
31.0057117597
 10
-27.7830395677
 20
31.007443728
 10
-27.7680111616
 20
31.0103193212
 10
-27.7533238619
 20
31.0143022408
 10
-27.7390323353
 20
31.0193626484
 10
-27.7251426818
 20
31.0254965597
 10
-27.7116876884
 20
31.032703669
 10
-27.6988008928
 20
31.0409270623
 10
-27.6866315867
 20
31.0500681698
 10
-27.6752247773
 20
31.0600795264
 10
-27.6646555414
 20
31.0708798738
 10
-27.6550728355
 20
31.0822718602
 10
-27.6465797774
 20
31.0940295453
 10
-27.639076063
 20
31.1061804059
 10
-27.6324243939
 20
31.1189209321
 10
-27.6266628023
 20
31.1322294926
 10
-27.6218591879
 20
31.1460116396
 10
-27.6180145459
 20
31.1603970055
 10
-27.6152040426
 20
31.1753891704
 10
-27.6135296151
 20
31.1908492111
 10
-27.6130696473
 20
31.206691157
  0
LINE
  5
4A3
100
AcDbEntity
  8
DRAFT
100
AcDbLine
 62
7
  6
CONTINUOUS
 10
27.55
 20
35.15
 11
28.0403891209
 21
35.1585597739
  0
LINE
  5
4A4
100
AcDbEntity
  8
RACCORDO
100
AcDbLine
 62
250
  6
CONTINUOUS
 10
-27.55013879
 20
32.3010035696
 11
-27.6237975319
 21
32.3002525876
  0
LINE
  5
4A5
100
AcDbEntity
  8
RACCORDO
100
AcDbLine
 62
250
  6
CONTINUOUS
 10
-27.5501376173
 20
31.2072838304
 11
-27.6130696169
 21
31.2066911469
  0
LINE
  5
4A6
100
AcDbEntity
  8
RACCORDO
100
AcDbLine
 62
250
  6
CONTINUOUS
 10
-34.7447691045
 20
31.5459218733
 11
-39.7886242209
 21
31.5246087908
  0
LINE
  5
4A7
100
AcDbEntity
  8
RACCORDO
100
AcDbLine
 62
250
  6
CONTINUOUS
 10
-28.554179783
 20
31.564525518
 11
-34.7447691045
 21
31.5459218733
  0
LINE
  5
4A8
100
AcDbEntity
  8
0
100
AcDbLine
 62
7
  6
CONTINUOUS
 10
-6.473049
 20
32.417039
 11
-5.724847
 21
32.417039
  0
LINE
  5
4A9
100
AcDbEntity
  8
0
100
AcDbLine
 62
7
  6
CONTINUOUS
 10
-4.447705
 20
32.417039
 11
-3.759419
 21
32.417039
  0
LINE
  5
4AA
100
AcDbEntity
  8
0
100
AcDbLine
 62
7
  6
CONTINUOUS
 10
-2.146349
 20
32.417039
 11
-1.458162
 21
32.417039
  0
LINE
  5
4AB
100
AcDbEntity
  8
0
100
AcDbLine
 62
7
  6
CONTINUOUS
 10
-0.087923
 20
32.417039
 11
0.593534
 21
32.417039
  0
LINE
  5
4AC
100
AcDbEntity
  8
0
100
AcDbLine
 62
7
  6
CONTINUOUS
 10
2.045203
 20
32.417039
 11
2.711492
 21
32.417039
  0
LINE
  5
4AD
100
AcDbEntity
  8
0
100
AcDbLine
 62
7
  6
CONTINUOUS
 10
-3.50382
 20
32.417237
 11
-2.815064
 21
32.417237
  0
LINE
  5
4AE
100
AcDbEntity
  8
DRAFT
100
AcDbLine
 62
7
  6
CONTINUOUS
 10
-27.55
 20
33.65
 11
-27.466172082
 21
33.65
  0
LINE
  5
4AF
100
AcDbEntity
  8
DRAFT
100
AcDbLine
 62
7
  6
CONTINUOUS
 10
27.55
 20
33.65
 11
27.466172082
 21
33.65
  0
LINE
  5
4B0
100
AcDbEntity
  8
RACCORDO
100
AcDbLine
 62
250
  6
CONTINUOUS
 10
28.5541760878
 20
31.5645254243
 11
31.6860889054
 21
31.5562143859
  0
LWPOLYLINE
  5
4B1
100
AcDbEntity
  8
RACCORDO
100
AcDbPolyline
 62
250
  6
CONTINUOUS
 90
3
 70
0
 10
31.6860889054
 20
31.5562143859
 10
34.7418206156
 20
31.5459325815
 10
35.404948427
 20
31.5434482898
  0
LINE
  5
4B2
100
AcDbEntity
  8
RACCORDO
100
AcDbLine
 62
250
  6
CONTINUOUS
 10
35.404948427
 20
31.5434482898
 11
36.7867075358
 21
31.53795383
  0
LINE
  5
4B3
100
AcDbEntity
  8
RACCORDO
100
AcDbLine
 62
250
  6
CONTINUOUS
 10
36.7867075358
 20
31.53795383
 11
39.7886242209
 21
31.5246087908
  0
LINE
  5
4B4
100
AcDbEntity
  8
RACCORDO
100
AcDbLine
 62
250
  6
CONTINUOUS
 10
27.5501376173
 20
31.2072838272
 11
27.6130696483
 21
31.2066911465
  0
LINE
  5
4B5
100
AcDbEntity
  8
RACCORDO
100
AcDbLine
 62
250
  6
CONTINUOUS
 10
27.55013879
 20
32.301003579
 11
27.6237975323
 21
32.3002525863
  0
LWPOLYLINE
  5
4B6
100
AcDbEntity
  8
RACCORDO
100
AcDbPolyline
 62
250
  6
CONTINUOUS
 90
19
 70
0
 10
40.2900598489
 20
31.0222577452
 10
40.2613854677
 20
31.0226821459
 10
40.2324684642
 20
31.022759517
 10
40.2035779129
 20
31.0224891385
 10
40.1749826422
 20
31.0218735263
 10
40.1469487328
 20
31.0209184087
 10
40.1197370418
 20
31.019632673
 10
40.0936007757
 20
31.0180282833
 10
40.068783134
 20
31.0161201683
 10
40.0455150464
 20
31.0139260833
 10
40.0240130239
 20
31.0114664443
 10
40.0044771442
 20
31.0087641384
 10
39.9870891898
 20
31.0058443106
 10
39.9720109568
 20
31.0027341303
 10
39.9593827491
 20
30.9994625378
 10
39.949322073
 20
30.9960599754
 10
39.9419225438
 20
30.9925581042
 10
39.9372530147
 20
30.9889895094
 10
39.9353569359
 20
30.9853873969
  0
LINE
  5
4B7
100
AcDbEntity
  8
DRAFT
100
AcDbLine
 62
7
  6
CONTINUOUS
 10
-27.55
 20
35.15
 11
-28.0403891225
 21
35.158559774
  0
LWPOLYLINE
  5
4B8
100
AcDbEntity
  8
RACCORDO
100
AcDbPolyline
 62
250
  6
CONTINUOUS
 90
22
 70
0
 10
39.7358593732
 20
31.1858289122
 10
39.7507990213
 20
31.1851533548
 10
39.7656013351
 20
31.1833639025
 10
39.7801840539
 20
31.1804834534
 10
39.7944512585
 20
31.1765455622
 10
39.8083443334
 20
31.1715820711
 10
39.8218381437
 20
31.1656108084
 10
39.8348755674
 20
31.1586564243
 10
39.8473682763
 20
31.1507652785
 10
39.8592454312
 20
31.141985876
 10
39.870415296
 20
31.1323947557
 10
39.8808511049
 20
31.1220241669
 10
39.8905688342
 20
31.1108462251
 10
39.899524844
 20
31.0988703454
 10
39.9076202688
 20
31.086183689
 10
39.9147798625
 20
31.0728700521
 10
39.9209641274
 20
31.0589600753
 10
39.9261011373
 20
31.0445631511
 10
39.9301113769
 20
31.029903325
 10
39.9329812961
 20
31.0151194862
 10
39.9347272009
 20
31.00025214
 10
39.9353570006
 20
30.9853874616
  0
LWPOLYLINE
  5
4B9
100
AcDbEntity
  8
RACCORDO
100
AcDbPolyline
 62
250
  6
CONTINUOUS
 90
22
 70
0
 10
39.7886242209
 20
31.5246087908
 10
39.8265552157
 20
31.5228905248
 10
39.8637350303
 20
31.5185105764
 10
39.9001635482
 20
31.5114688294
 10
39.9359866444
 20
31.5016933736
 10
39.9710581599
 20
31.4892558357
 10
40.0049399762
 20
31.4743714543
 10
40.0376573809
 20
31.4569970186
 10
40.0691848853
 20
31.4371755387
 10
40.099008354
 20
31.4152517322
 10
40.1270521283
 20
31.3912776914
 10
40.1533918242
 20
31.3652012813
 10
40.1777403543
 20
31.3372110142
 10
40.2001666548
 20
31.3071984219
 10
40.2206017943
 20
31.2752719773
 10
40.2385520345
 20
31.2419457547
 10
40.2539651476
 20
31.2070716194
 10
40.2668935446
 20
31.170797889
 10
40.2770006744
 20
31.1340835447
 10
40.2841745386
 20
31.0972484319
 10
40.2885275425
 20
31.0599731113
 10
40.2900598489
 20
31.0222577452
  0
LWPOLYLINE
  5
4BA
100
AcDbEntity
  8
RACCORDO
100
AcDbPolyline
 62
250
  6
CONTINUOUS
 90
16
 70
0
 10
39.5551755906
 20
31.0051451296
 10
39.5760740585
 20
31.0040437339
 10
39.5967436482
 20
31.000764342
 10
39.6169579869
 20
30.9953428692
 10
39.6364956881
 20
30.9878386912
 10
39.6551427753
 20
30.9783339932
 10
39.6726950255
 20
30.9669328704
 10
39.6889602068
 20
30.9537601878
 10
39.7037601837
 20
30.938960212
 10
39.7169328674
 20
30.9226950316
 10
39.7283339911
 20
30.9051427825
 10
39.73783869
 20
30.8864956961
 10
39.7453428689
 20
30.8669579948
 10
39.7507643423
 20
30.8467436546
 10
39.7540437345
 20
30.8260740623
 10
39.7551451296
 20
30.8051755906
  0
LWPOLYLINE
  5
4BB
100
AcDbEntity
  8
0
100
AcDbPolyline
 62
7
  6
CONTINUOUS
 90
10
 70
0
 10
5.1288527297
 20
31.8743447534
 10
5.0713525302
 20
31.8800558316
 10
5.0130553275
 20
31.8839037563
 10
4.9540447254
 20
31.8858330262
 10
4.8944356025
 20
31.8857881196
 10
4.8342961222
 20
31.8837138897
 10
4.7736482668
 20
31.879546756
 10
4.7125714755
 20
31.8732217272
 10
4.6511367599
 20
31.8648696503
 10
4.5892915047
 20
31.8549191765
  0
LWPOLYLINE
  5
4BC
100
AcDbEntity
  8
0
100
AcDbPolyline
 62
7
  6
CONTINUOUS
 90
61
 70
0
 10
5.625890332
 20
32.343749234
 10
5.6622959604
 20
32.329087873
 10
5.6990962126
 20
32.3112175416
 10
5.7361664002
 20
32.2902215028
 10
5.7732807394
 20
32.2663303042
 10
5.8103937316
 20
32.2396512032
 10
5.8475520894
 20
32.2098729953
 10
5.8845510672
 20
32.1767242543
 10
5.9209536576
 20
32.1401064147
 10
5.9563674294
 20
32.0998791285
 10
5.9906619561
 20
32.0555828346
 10
6.0231117057
 20
32.0075355057
 10
6.052606935
 20
31.9569822569
 10
6.0790238401
 20
31.9038611982
 10
6.1019619011
 20
31.8486401246
 10
6.1206443522
 20
31.7936844873
 10
6.135293467
 20
31.739881983
 10
6.1464608318
 20
31.6869809145
 10
6.1544768053
 20
31.6357350194
 10
6.159766977
 20
31.5867296188
 10
6.162805533
 20
31.5397363133
 10
6.1638905547
 20
31.4942402956
 10
6.1631673887
 20
31.4501947862
 10
6.1607806799
 20
31.4078219875
 10
6.1568589008
 20
31.366977735
 10
6.1515255569
 20
31.3276740038
 10
6.14491473
 20
31.2899706944
 10
6.1371365982
 20
31.2537797204
 10
6.1283161966
 20
31.2191172598
 10
6.118571036
 20
31.1859653364
 10
6.1079737705
 20
31.1541835191
 10
6.096648483
 20
31.1238049734
 10
6.0847195744
 20
31.0948516288
 10
6.072229418
 20
31.0671776881
 10
6.059276792
 20
31.0408020639
 10
6.0459566665
 20
31.0157368077
 10
6.0322653706
 20
30.9918269557
 10
6.0182569957
 20
30.9690499834
 10
6.0040146154
 20
30.9474315393
 10
5.9895516951
 20
30.9268936594
 10
5.9749108145
 20
30.9074121763
 10
5.9601572216
 20
30.8889928042
 10
5.9453298459
 20
30.8715768883
 10
5.9304749684
 20
30.8550708349
 10
5.9156527469
 20
30.8394042369
 10
5.9009229456
 20
30.8245167511
 10
5.8863329232
 20
30.8103459454
 10
5.8719240213
 20
30.796834497
 10
5.857743424
 20
30.7839405327
 10
5.8438516292
 20
30.7716424233
 10
5.8302603226
 20
30.7598837077
 10
5.8169367697
 20
30.7485803631
 10
5.8039734247
 20
30.7377625893
 10
5.7913290034
 20
30.7273627632
 10
5.7787201354
 20
30.7173071209
 10
5.7661139146
 20
30.7078871003
 10
5.7534407117
 20
30.6993361083
 10
5.7402973101
 20
30.6916831098
 10
5.7264870795
 20
30.6851796698
 10
5.7120495088
 20
30.6802249386
 10
5.6969038097
 20
30.6771594118
  0
LINE
  5
4BD
100
AcDbEntity
  8
RACCORDO
100
AcDbLine
 62
7
  6
CONTINUOUS
 10
27.466172082
 20
33.65
 11
27.5565329242
 21
33.1889562289
  0
LWPOLYLINE
  5
4BE
100
AcDbEntity
  8
RACCORDO
100
AcDbPolyline
 62
250
  6
CONTINUOUS
 90
19
 70
0
 10
39.7886242204
 20
31.5246087908
 10
39.7889508598
 20
31.4966588256
 10
39.788813469
 20
31.4686138341
 10
39.7882132504
 20
31.4407189343
 10
39.7871554512
 20
31.4132179317
 10
39.7856493184
 20
31.3863511868
 10
39.783708017
 20
31.3603535149
 10
39.7813485154
 20
31.3354521361
 10
39.7785914372
 20
31.3118646862
 10
39.7754608802
 20
31.2897973142
 10
39.7719842067
 20
31.2694428864
 10
39.7681918037
 20
31.2509792957
 10
39.764116817
 20
31.2345679062
 10
39.7597948371
 20
31.2203520739
 10
39.7552636616
 20
31.2084561419
 10
39.7505629749
 20
31.1989842166
 10
39.7457338956
 20
31.1920189818
 10
39.7408186063
 20
31.1876211136
 10
39.7358600653
 20
31.1858289081
  0
LINE
  5
4BF
100
AcDbEntity
  8
RACCORDO
100
AcDbLine
 62
250
  6
CONTINUOUS
 10
39.3698129111
 20
-34.5944820162
 11
39.3724240859
 21
-35.5
  0
LINE
  5
4C0
100
AcDbEntity
  8
RACCORDO
100
AcDbLine
 62
250
  6
CONTINUOUS
 10
39.3630308062
 20
-32.05606664
 11
39.3698129111
 21
-34.5944820162
  0
LINE
  5
4C1
100
AcDbEntity
  8
RACCORDO
100
AcDbLine
 62
250
  6
CONTINUOUS
 10
39.3576945698
 20
-29.7552266141
 11
39.3630308062
 21
-32.05606664
  0
LINE
  5
4C2
100
AcDbEntity
  8
RACCORDO
100
AcDbLine
 62
250
  6
CONTINUOUS
 10
39.3547356239
 20
-28.3022756751
 11
39.3576945698
 21
-29.7552266141
  0
LINE
  5
4C3
100
AcDbEntity
  8
RACCORDO
100
AcDbLine
 62
250
  6
CONTINUOUS
 10
39.9353569359
 20
30.9853873969
 11
39.9446793543
 21
25.9215388044
  0
LINE
  5
4C4
100
AcDbEntity
  8
RACCORDO
100
AcDbLine
 62
250
  6
CONTINUOUS
 10
39.9446793543
 20
25.9215388044
 11
39.9502815231
 21
21.0488193241
  0
LINE
  5
4C5
100
AcDbEntity
  8
RACCORDO
100
AcDbLine
 62
250
  6
CONTINUOUS
 10
39.342826581
 20
-18.2599084772
 11
39.3547356239
 21
-28.3022756751
  0
LINE
  5
4C6
100
AcDbEntity
  8
RACCORDO
100
AcDbLine
 62
250
  6
CONTINUOUS
 10
39.9502815231
 20
21.0488193241
 11
39.9536457297
 21
14.7473125337
  0
LINE
  5
4C7
100
AcDbEntity
  8
RACCORDO
100
AcDbLine
 62
250
  6
CONTINUOUS
 10
36.5205683926
 20
-40.8086513684
 11
36.5205683926
 21
-41.308575216
  0
LINE
  5
4C8
100
AcDbEntity
  8
RACCORDO
100
AcDbLine
 62
250
  6
CONTINUOUS
 10
38.934771188
 20
-0.0001900257
 11
38.9451640428
 21
-24.0429272272
  0
LINE
  5
4C9
100
AcDbEntity
  8
RACCORDO
100
AcDbLine
 62
250
  6
CONTINUOUS
 10
38.9451640428
 20
-24.0429272272
 11
38.9463517495
 21
-28.3560704387
  0
LINE
  5
4CA
100
AcDbEntity
  8
RACCORDO
100
AcDbLine
 62
250
  6
CONTINUOUS
 10
39.3397202837
 20
-0.0001899597
 11
39.342826581
 21
-18.2599084772
  0
LINE
  5
4CB
100
AcDbEntity
  8
RACCORDO
100
AcDbLine
 62
250
  6
CONTINUOUS
 10
39.4551908211
 20
30.7051908211
 11
39.4551908211
 21
27.9666244401
  0
LINE
  5
4CC
100
AcDbEntity
  8
RACCORDO
100
AcDbLine
 62
250
  6
CONTINUOUS
 10
39.4551908211
 20
-36.5054992138
 11
39.4551908211
 21
-36.8
  0
LINE
  5
4CD
100
AcDbEntity
  8
DRAFT
100
AcDbLine
 62
7
  6
CONTINUOUS
 10
39.5431574806
 20
25.6240705474
 11
39.5431574806
 21
-35.5
  0
LINE
  5
4CE
100
AcDbEntity
  8
RACCORDO
100
AcDbLine
 62
250
  6
CONTINUOUS
 10
39.7551451296
 20
30.8051755906
 11
39.7551451296
 21
-36.8
  0
LINE
  5
4CF
100
AcDbEntity
  8
RACCORDO
100
AcDbLine
 62
250
  6
CONTINUOUS
 10
39.9536457297
 20
14.7473125337
 11
39.955398829
 21
-3.5825403093
  0
LINE
  5
4D0
100
AcDbEntity
  8
RACCORDO
100
AcDbLine
 62
250
  6
CONTINUOUS
 10
38.9462892409
 20
30.6999998888
 11
38.9454625915
 21
24.736905263
  0
LINE
  5
4D1
100
AcDbEntity
  8
RACCORDO
100
AcDbLine
 62
250
  6
CONTINUOUS
 10
38.9463517495
 20
-28.3560704387
 11
38.9455770933
 21
-33.7939444582
  0
LINE
  5
4D2
100
AcDbEntity
  8
RACCORDO
100
AcDbLine
 62
250
  6
CONTINUOUS
 10
39.955398829
 20
-3.5825403093
 11
39.9539714029
 21
-13.6392436894
  0
LINE
  5
4D3
100
AcDbEntity
  8
RACCORDO
100
AcDbLine
 62
250
  6
CONTINUOUS
 10
38.9455770933
 20
-33.7939444582
 11
38.9447848088
 21
-35.5824485534
  0
LINE
  5
4D4
100
AcDbEntity
  8
RACCORDO
100
AcDbLine
 62
250
  6
CONTINUOUS
 10
38.9454625915
 20
24.736905263
 11
38.9347711286
 21
-0.0001900257
  0
LINE
  5
4D5
100
AcDbEntity
  8
RACCORDO
100
AcDbLine
 62
250
  6
CONTINUOUS
 10
39.9539714029
 20
-13.6392436894
 11
39.951415775
 21
-19.5261219424
  0
LINE
  5
4D6
100
AcDbEntity
  8
RACCORDO
100
AcDbLine
 62
250
  6
CONTINUOUS
 10
39.951415775
 20
-19.5261219424
 11
39.9481163002
 21
-23.2773814648
  0
LINE
  5
4D7
100
AcDbEntity
  8
RACCORDO
100
AcDbLine
 62
250
  6
CONTINUOUS
 10
39.9481163002
 20
-23.2773814648
 11
39.9430634261
 21
-26.9587430927
  0
LWPOLYLINE
  5
4D8
100
AcDbEntity
  8
RACCORDO
100
AcDbPolyline
 62
250
  6
CONTINUOUS
 90
3
 70
0
 10
39.9430634261
 20
-26.9587430927
 10
39.9361780212
 20
-30.6076885707
 10
39.9344180151
 20
-31.4082347453
  0
LINE
  5
4D9
100
AcDbEntity
  8
RACCORDO
100
AcDbLine
 62
250
  6
CONTINUOUS
 10
39.3593815766
 20
30.5180265248
 11
39.3397202837
 21
-0.0001899597
  0
LINE
  5
4DA
100
AcDbEntity
  8
RACCORDO
100
AcDbLine
 62
250
  6
CONTINUOUS
 10
39.9344180151
 20
-31.4082347453
 11
39.9282242167
 21
-33.9705575572
  0
LINE
  5
4DB
100
AcDbEntity
  8
RACCORDO
100
AcDbLine
 62
250
  6
CONTINUOUS
 10
39.9282242167
 20
-33.9705575572
 11
39.920420586
 21
-36.8
  0
LWPOLYLINE
  5
4DC
100
AcDbEntity
  8
RACCORDO
100
AcDbPolyline
 62
250
  6
CONTINUOUS
 90
37
 70
0
 10
39.3724240859
 20
-35.5
 10
39.3674089353
 20
-35.7528159159
 10
39.3512393257
 20
-36.0025594817
 10
39.3242950672
 20
-36.2487549327
 10
39.2871353365
 20
-36.4900309169
 10
39.2400846029
 20
-36.7269196224
 10
39.1828327063
 20
-36.9617784517
 10
39.1151482232
 20
-37.195158945
 10
39.0373562516
 20
-37.4255985812
 10
38.9496894913
 20
-37.6523798641
 10
38.8523587114
 20
-37.8750040341
 10
38.7455280848
 20
-38.093137761
 10
38.6294290471
 20
-38.3063389255
 10
38.5043043882
 20
-38.5142003238
 10
38.3703939494
 20
-38.7163593165
 10
38.2279529077
 20
-38.9124585329
 10
38.0772634248
 20
-39.1021368056
 10
37.9186153019
 20
-39.2850550593
 10
37.7522928737
 20
-39.4609045546
 10
37.5786327253
 20
-39.6293490665
 10
37.3979490359
 20
-39.790102552
 10
37.2105002147
 20
-39.9429399819
 10
37.0165154328
 20
-40.0876602089
 10
36.8164651327
 20
-40.2238986196
 10
36.6110026757
 20
-40.3512323028
 10
36.40132634
 20
-40.4690353778
 10
36.1870854807
 20
-40.5776173868
 10
35.9665068305
 20
-40.6777492894
 10
35.7392481404
 20
-40.7692468819
 10
35.5062636543
 20
-40.8513882045
 10
35.2676168953
 20
-40.9238385346
 10
35.0232215568
 20
-40.9862625195
 10
34.7739498799
 20
-41.0380773916
 10
34.5213701816
 20
-41.0787056622
 10
34.2663571414
 20
-41.1078620851
 10
34.009056014
 20
-41.1253883642
 10
33.75
 20
-41.1310794779
  0
LWPOLYLINE
  5
4DD
100
AcDbEntity
  8
RACCORDO
100
AcDbPolyline
 62
250
  6
CONTINUOUS
 90
37
 70
0
 10
38.9447848088
 20
-35.5824485534
 10
38.938856092
 20
-35.8143081313
 10
38.9234547965
 20
-36.0425784965
 10
38.8985780569
 20
-36.2672567897
 10
38.8641634412
 20
-36.4878852044
 10
38.820267171
 20
-36.7049153496
 10
38.7670633912
 20
-36.9197075216
 10
38.7044462464
 20
-37.133190388
 10
38.6325125497
 20
-37.3444262579
 10
38.5517407667
 20
-37.551976207
 10
38.4620844197
 20
-37.7557362981
 10
38.3635832553
 20
-37.9558037514
 10
38.2568473725
 20
-38.151043671
 10
38.1418382152
 20
-38.3414090231
 10
38.0185897223
 20
-38.526942234
 10
37.8878230719
 20
-38.7066449292
 10
37.749504996
 20
-38.8804804546
 10
37.6036664289
 20
-39.0484831356
 10
37.4511272132
 20
-39.2097634241
 10
37.2918763951
 20
-39.3642757346
 10
37.1259247978
 20
-39.5120655223
 10
36.954127237
 20
-39.6523821025
 10
36.7763413071
 20
-39.7852524564
 10
36.5927112255
 20
-39.910651411
 10
36.4045243008
 20
-40.0277526026
 10
36.2125334522
 20
-40.1362387083
 10
36.0159906805
 20
-40.2364319609
 10
35.8139324646
 20
-40.3284658771
 10
35.6058011717
 20
-40.4127549869
 10
35.3921560897
 20
-40.4888864117
 10
35.1737093356
 20
-40.5557528128
 10
34.9499495788
 20
-40.6133754723
 10
34.7213914383
 20
-40.6617363895
 10
34.4902891904
 20
-40.6996725293
 10
34.2573974082
 20
-40.7267993544
 10
34.0219683605
 20
-40.7435082299
 10
33.7840046363
 20
-40.7498017391
  0
LWPOLYLINE
  5
4DE
100
AcDbEntity
  8
RACCORDO
100
AcDbPolyline
 62
7
  6
CONTINUOUS
 90
19
 70
0
 10
28.1753022038
 20
41.2481899225
 10
28.1501996426
 20
41.2465954599
 10
28.1256171414
 20
41.2427266713
 10
28.1015547003
 20
41.2366007593
 10
28.0778538374
 20
41.2282645303
 10
28.0546730346
 20
41.2177635978
 10
28.0324877374
 20
41.2051151907
 10
28.0112506506
 20
41.1903320834
 10
27.9910090694
 20
41.1735363957
 10
27.9723803249
 20
41.154946929
 10
27.9554273538
 20
41.1346721455
 10
27.9400872194
 20
41.1129120414
 10
27.9267884432
 20
41.0901253148
 10
27.9156793966
 20
41.0665200163
 10
27.9066117082
 20
41.0423274288
 10
27.8995687846
 20
41.0181170966
 10
27.8945450948
 20
40.9942294682
 10
27.8915461699
 20
40.9707380691
 10
27.8905720099
 20
40.9478079374
  0
LINE
  5
4DF
100
AcDbEntity
  8
DRAFT
100
AcDbLine
 62
7
  6
CONTINUOUS
 10
-27.55
 20
38.25
 11
-28.0802880113
 21
38.2407437883
  0
LINE
  5
4E0
100
AcDbEntity
  8
DRAFT
100
AcDbLine
 62
7
  6
CONTINUOUS
 10
27.55
 20
39.25
 11
27.4904521453
 21
39.25
  0
LINE
  5
4E1
100
AcDbEntity
  8
DRAFT
100
AcDbLine
 62
7
  6
CONTINUOUS
 10
-27.55
 20
39.25
 11
-27.4904521453
 21
39.25
  0
LINE
  5
4E2
100
AcDbEntity
  8
DRAFT
100
AcDbLine
 62
7
  6
CONTINUOUS
 10
27.55
 20
38.25
 11
28.0802880168
 21
38.2407437882
  0
LWPOLYLINE
  5
4E3
100
AcDbEntity
  8
RACCORDO
100
AcDbPolyline
 62
250
  6
CONTINUOUS
 90
6
 70
0
 10
27.6272966291
 20
30.7411325302
 10
27.6618780969
 20
30.7286463693
 10
27.6978121005
 20
30.7187742081
 10
27.7350900586
 20
30.7116324127
 10
27.7737205526
 20
30.707104617
 10
27.8137035824
 20
30.7051908211
  0
LINE
  5
4E4
100
AcDbEntity
  8
RACCORDO
100
AcDbLine
 62
7
  6
CONTINUOUS
 10
39.3593815766
 20
30.5180265248
 11
39.5431574806
 21
25.6240705474
  0
LINE
  5
4E5
100
AcDbEntity
  8
RACCORDO
100
AcDbLine
 62
250
  6
CONTINUOUS
 10
40.2900598489
 20
31.0222577452
 11
40.2989098541
 21
28.4071359216
  0
LINE
  5
4E6
100
AcDbEntity
  8
RACCORDO
100
AcDbLine
 62
250
  6
CONTINUOUS
 10
40.2989098541
 20
28.4071359216
 11
40.3069795438
 21
25.275778965
  0
LINE
  5
4E7
100
AcDbEntity
  8
RACCORDO
100
AcDbLine
 62
250
  6
CONTINUOUS
 10
40.3069795438
 20
25.275778965
 11
40.3118632875
 21
22.4791448305
  0
LINE
  5
4E8
100
AcDbEntity
  8
RACCORDO
100
AcDbLine
 62
250
  6
CONTINUOUS
 10
40.3118632875
 20
22.4791448305
 11
40.3161673858
 21
17.5467079274
  0
LINE
  5
4E9
100
AcDbEntity
  8
RACCORDO
100
AcDbLine
 62
250
  6
CONTINUOUS
 10
40.3161673858
 20
17.5467079274
 11
40.3171270565
 21
9.1653215027
  0
LINE
  5
4EA
100
AcDbEntity
  8
RACCORDO
100
AcDbLine
 62
250
  6
CONTINUOUS
 10
40.3171270565
 20
9.1653215027
 11
40.3171823867
 21
-12.9175611198
  0
LINE
  5
4EB
100
AcDbEntity
  8
RACCORDO
100
AcDbLine
 62
250
  6
CONTINUOUS
 10
40.3171823867
 20
-12.9175611198
 11
40.3159322199
 21
-18.0291159991
  0
LINE
  5
4EC
100
AcDbEntity
  8
RACCORDO
100
AcDbLine
 62
250
  6
CONTINUOUS
 10
40.3159322199
 20
-18.0291159991
 11
40.3133589249
 21
-21.2598727847
  0
LWPOLYLINE
  5
4ED
100
AcDbEntity
  8
RACCORDO
100
AcDbPolyline
 62
250
  6
CONTINUOUS
 90
3
 70
0
 10
40.3133589249
 20
-21.2598727847
 10
40.3097053958
 20
-23.8580012681
 10
40.3086325646
 20
-24.4409813857
  0
LINE
  5
4EE
100
AcDbEntity
  8
RACCORDO
100
AcDbLine
 62
250
  6
CONTINUOUS
 10
40.3086325646
 20
-24.4409813857
 11
40.3029216136
 21
-26.9861921047
  0
LINE
  5
4EF
100
AcDbEntity
  8
RACCORDO
100
AcDbLine
 62
250
  6
CONTINUOUS
 10
40.3029216136
 20
-26.9861921047
 11
40.2942199292
 21
-29.8675665744
  0
LINE
  5
4F0
100
AcDbEntity
  8
RACCORDO
100
AcDbLine
 62
250
  6
CONTINUOUS
 10
40.2942199292
 20
-29.8675665744
 11
40.2851402788
 21
-32.2746670501
  0
LINE
  5
4F1
100
AcDbEntity
  8
RACCORDO
100
AcDbLine
 62
250
  6
CONTINUOUS
 10
40.2851402788
 20
-32.2746670501
 11
40.2733870665
 21
-34.9294415482
  0
LINE
  5
4F2
100
AcDbEntity
  8
RACCORDO
100
AcDbLine
 62
250
  6
CONTINUOUS
 10
40.2733870665
 20
-34.9294415482
 11
40.2637526197
 21
-36.8492713473
  0
LWPOLYLINE
  5
4F3
100
AcDbEntity
  8
RACCORDO
100
AcDbPolyline
 62
250
  6
CONTINUOUS
 90
22
 70
0
 10
39.920420586
 20
-36.8
 10
39.915971599
 20
-36.9899625828
 10
39.9040200001
 20
-37.1771456773
 10
39.8848784921
 20
-37.3612687146
 10
39.8590098585
 20
-37.5411943452
 10
39.8266602576
 20
-37.7175823132
 10
39.7875200234
 20
-37.8928259217
 10
39.7413275069
 20
-38.0676864982
 10
39.6883373842
 20
-38.2408514674
 10
39.6287841101
 20
-38.4115651207
 10
39.5631011929
 20
-38.5788274755
 10
39.4911611367
 20
-38.7431826359
 10
39.4122231669
 20
-38.9061277745
 10
39.3260703499
 20
-39.0676232648
 10
39.2328017984
 20
-39.2270301422
 10
39.1318716602
 20
-39.3847859787
 10
39.0227683809
 20
-39.5410314032
 10
38.9057753855
 20
-39.6947312323
 10
38.7815865482
 20
-39.8445643679
 10
38.6505387048
 20
-39.9898785897
 10
38.5124870802
 20
-40.1305952979
 10
38.3675451105
 20
-40.2663355948
  0
LWPOLYLINE
  5
4F4
100
AcDbEntity
  8
RACCORDO
100
AcDbPolyline
 62
250
  6
CONTINUOUS
 90
22
 70
0
 10
40.2637526197
 20
-36.8492713473
 10
40.2580139133
 20
-37.052306099
 10
40.2449593481
 20
-37.2518436658
 10
40.2245868058
 20
-37.4478819336
 10
40.1968750012
 20
-37.639748775
 10
40.1618410398
 20
-37.8281121466
 10
40.1195393912
 20
-38.0149790645
 10
40.0698411389
 20
-38.2014620436
 10
40.0128682019
 20
-38.386441586
 10
39.9490512196
 20
-38.5685766045
 10
39.878765431
 20
-38.7470883957
 10
39.8016311021
 20
-38.9227511772
 10
39.7169463415
 20
-39.0965531728
 10
39.6247127614
 20
-39.268934566
 10
39.5249215069
 20
-39.4394479456
 10
39.4168537493
 20
-39.6077489095
 10
39.3000190486
 20
-39.774473731
 10
39.1748997338
 20
-39.9389780428
 10
39.0422378255
 20
-40.0989981737
 10
38.9022803019
 20
-40.2537792051
 10
38.7547769093
 20
-40.4040727869
 10
38.5997258215
 20
-40.5498770966
  0
LWPOLYLINE
  5
4F5
100
AcDbEntity
  8
0
100
AcDbPolyline
 62
7
  6
CONTINUOUS
 90
13
 70
0
 43
0.3500000006
 10
55.404553299
 20
2.4642848511
 10
55.1902688141
 20
2.1785714493
 10
54.5474108276
 20
2.1785714493
 10
54.1188418579
 20
2.4642848511
 10
54.1188418579
 20
3.1071428375
 10
54.5474108276
 20
3.3928562393
 10
55.1902688141
 20
3.3928562393
 10
55.404553299
 20
3.1071428375
 10
55.8331268005
 20
3.5357140732
 10
56.6902692719
 20
3.5357140732
 10
57.1188382416
 20
3.1071428375
 10
57.1188382416
 20
2.4642848511
 10
56.6902692719
 20
2.0357136154
  0
LINE
  5
4F6
100
AcDbEntity
  8
RACCORDO
100
AcDbLine
 62
250
  6
CONTINUOUS
 10
-27.4632859803
 20
40.7688497199
 11
-25.3294263377
 21
40.7751886603
  0
LINE
  5
4F7
100
AcDbEntity
  8
RACCORDO
100
AcDbLine
 62
250
  6
CONTINUOUS
 10
-43.6692037148
 20
40.7330261611
 11
-28.5364706935
 21
40.7672954452
  0
LINE
  5
4F8
100
AcDbEntity
  8
RACCORDO
100
AcDbLine
 62
250
  6
CONTINUOUS
 10
-25.3294263377
 20
40.7751886603
 11
-22.3056262876
 21
40.7811588392
  0
LINE
  5
4F9
100
AcDbEntity
  8
RACCORDO
100
AcDbLine
 62
250
  6
CONTINUOUS
 10
-22.3056262876
 20
40.7811588392
 11
-18.1194107815
 21
40.785434271
  0
LINE
  5
4FA
100
AcDbEntity
  8
RACCORDO
100
AcDbLine
 62
250
  6
CONTINUOUS
 10
-18.1194107815
 20
40.785434271
 11
-12.3630168524
 21
40.787478661
  0
LINE
  5
4FB
100
AcDbEntity
  8
RACCORDO
100
AcDbLine
 62
250
  6
CONTINUOUS
 10
28.5262721725
 20
41.1307037257
 11
43.6036414542
 21
41.1527276252
  0
LINE
  5
4FC
100
AcDbEntity
  8
RACCORDO
100
AcDbLine
 62
250
  6
CONTINUOUS
 10
27.8827550499
 20
40.7358238333
 11
27.5500045507
 21
40.7358238333
  0
LINE
  5
4FD
100
AcDbEntity
  8
RACCORDO
100
AcDbLine
 62
250
  6
CONTINUOUS
 10
-27.55
 20
40.7358238333
 11
-27.8827550491
 21
40.7358238333
  0
LINE
  5
4FE
100
AcDbEntity
  8
RACCORDO
100
AcDbLine
 62
250
  6
CONTINUOUS
 10
8.3654339217
 20
41.126826002
 11
27.4632998452
 21
41.12723981
  0
LINE
  5
4FF
100
AcDbEntity
  8
DRAFT
100
AcDbLine
 62
7
  6
CONTINUOUS
 10
-27.55
 20
41.2159709216
 11
27.55
 21
41.2159709216
  0
LINE
  5
500
100
AcDbEntity
  8
RACCORDO
100
AcDbLine
 62
250
  6
CONTINUOUS
 10
28.1753022038
 20
41.2481899225
 11
-28.1753022035
 21
41.2481899225
  0
LINE
  5
501
100
AcDbEntity
  8
RACCORDO
100
AcDbLine
 62
7
  6
CONTINUOUS
 10
-43.8608807381
 20
41.409966909
 11
43.8608807381
 21
41.409966909
  0
LINE
  5
502
100
AcDbEntity
  8
RACCORDO
100
AcDbLine
 62
250
  6
CONTINUOUS
 10
-27.4633010648
 20
41.1272410581
 11
8.3654339217
 21
41.126826002
  0
LINE
  5
503
100
AcDbEntity
  8
RACCORDO
100
AcDbLine
 62
250
  6
CONTINUOUS
 10
-12.3630168524
 20
40.787478661
 11
14.7229687258
 21
40.787012789
  0
LINE
  5
504
100
AcDbEntity
  8
RACCORDO
100
AcDbLine
 62
250
  6
CONTINUOUS
 10
14.7229687258
 20
40.787012789
 11
18.830005042
 21
40.7849368631
  0
LINE
  5
505
100
AcDbEntity
  8
RACCORDO
100
AcDbLine
 62
250
  6
CONTINUOUS
 10
18.830005042
 20
40.7849368631
 11
22.0640161134
 21
40.7815215065
  0
LINE
  5
506
100
AcDbEntity
  8
RACCORDO
100
AcDbLine
 62
250
  6
CONTINUOUS
 10
22.0640161134
 20
40.7815215065
 11
24.5970357604
 21
40.7768765746
  0
LINE
  5
507
100
AcDbEntity
  8
RACCORDO
100
AcDbLine
 62
250
  6
CONTINUOUS
 10
24.5970357604
 20
40.7768765746
 11
25.3132164418
 21
40.7752247318
  0
LINE
  5
508
100
AcDbEntity
  8
RACCORDO
100
AcDbLine
 62
250
  6
CONTINUOUS
 10
-43.6036414542
 20
41.1527276252
 11
-28.5262719942
 21
41.1307037853
  0
LWPOLYLINE
  5
509
100
AcDbEntity
  8
RACCORDO
100
AcDbPolyline
 62
250
  6
CONTINUOUS
 90
3
 70
0
 10
25.3132164418
 20
40.7752247318
 10
27.1787107247
 20
40.7698560588
 10
27.4632863581
 20
40.7688363319
  0
LINE
  5
50A
100
AcDbEntity
  8
RACCORDO
100
AcDbLine
 62
250
  6
CONTINUOUS
 10
28.5364721763
 20
40.7672944482
 11
43.6692037148
 21
40.7330261611
  0
LWPOLYLINE
  5
50B
100
AcDbEntity
  8
RACCORDO
100
AcDbPolyline
 62
250
  6
CONTINUOUS
 90
37
 70
0
 10
43.6036414542
 20
41.1527276252
 10
43.8741187985
 20
41.1472131397
 10
44.139783973
 20
41.1299121661
 10
44.4001547999
 20
41.1014222736
 10
44.6533997632
 20
41.0625943235
 10
44.9005583177
 20
41.0139128648
 10
45.1454228902
 20
40.9549085348
 10
45.3889243459
 20
40.8852661137
 10
45.6292390438
 20
40.8054128498
 10
45.8659306801
 20
40.7154958679
 10
46.0985725954
 20
40.6156794483
 10
46.3267591407
 20
40.5061396349
 10
46.5500961244
 20
40.3870675608
 10
46.7681332877
 20
40.2587080422
 10
46.9805393355
 20
40.1212602845
 10
47.1870979592
 20
39.9748492962
 10
47.3873377274
 20
39.8197874967
 10
47.5809812142
 20
39.6562658981
 10
47.7680590539
 20
39.4841782765
 10
47.9481127501
 20
39.303825648
 10
48.1208132977
 20
39.1154092045
 10
48.286276607
 20
38.9185803014
 10
48.4440954717
 20
38.7135067491
 10
48.5937624592
 20
38.5005090964
 10
48.7351150886
 20
38.2793955407
 10
48.8677695969
 20
38.0502243365
 10
48.9910884007
 20
37.8135071469
 10
49.1044982975
 20
37.5697492759
 10
49.2075990403
 20
37.3191720238
 10
49.2998646773
 20
37.0623401129
 10
49.3806623839
 20
36.8003632577
 10
49.4496732264
 20
36.5336945785
 10
49.5065752718
 20
36.2628955223
 10
49.5509637975
 20
35.9893267344
 10
49.5826637674
 20
35.7138367293
 10
49.6016054403
 20
35.4367343732
 10
49.6076937033
 20
35.1586075323
  0
LWPOLYLINE
  5
50C
100
AcDbEntity
  8
RACCORDO
100
AcDbPolyline
 62
250
  6
CONTINUOUS
 90
37
 70
0
 10
43.6692037148
 20
40.7330261611
 10
43.9184125386
 20
40.7259104485
 10
44.1624440081
 20
40.7090917407
 10
44.4012928709
 20
40.6825647966
 10
44.6340451368
 20
40.6462421232
 10
44.8616040313
 20
40.6002004711
 10
45.0866889741
 20
40.5446798149
 10
45.3105891578
 20
40.479613475
 10
45.5320016881
 20
40.4050544578
 10
45.7497576534
 20
40.3214220662
 10
45.9638280173
 20
40.2286661202
 10
46.1742301991
 20
40.1268252068
 10
46.3798671238
 20
40.0164539276
 10
46.580670753
 20
39.8975463712
 10
46.7767005379
 20
39.7700998797
 10
46.9670531092
 20
39.6346764001
 10
47.1516539663
 20
39.4913374514
 10
47.3305725499
 20
39.3400164653
 10
47.5031236677
 20
39.1810855196
 10
47.669305888
 20
39.0146205863
 10
47.829118881
 20
38.8405439355
 10
47.9818810171
 20
38.6589989972
 10
48.1277124409
 20
38.4699276789
 10
48.2664942306
 20
38.2733892933
 10
48.3971883536
 20
38.0697055707
 10
48.5199268687
 20
37.8586229346
 10
48.6345827361
 20
37.6403999699
 10
48.7397326964
 20
37.4161300635
 10
48.8353478976
 20
37.1855719491
 10
48.9214676017
 20
36.9489772812
 10
48.9967750297
 20
36.708183128
 10
49.0611123776
 20
36.4630697645
 10
49.1146527805
 20
36.2137722148
 10
49.1565796289
 20
35.9625134237
 10
49.186627341
 20
35.7100409805
 10
49.2050794094
 20
35.4556251696
 10
49.2119441103
 20
35.1992742496
  0
LWPOLYLINE
  5
50D
100
AcDbEntity
  8
RACCORDO
100
AcDbPolyline
 62
250
  6
CONTINUOUS
 90
3
 70
0
 10
27.6048358826
 20
33.2355942949
 10
27.5627015217
 20
33.2542566249
 10
27.5532437911
 20
33.2578284043
  0
LWPOLYLINE
  5
50E
100
AcDbEntity
  8
RACCORDO
100
AcDbPolyline
 62
250
  6
CONTINUOUS
 90
4
 70
0
 10
27.5501380604
 20
30.7803758846
 10
27.5623106932
 20
30.7727261038
 10
27.5940934414
 20
30.7558835922
 10
27.6272966291
 20
30.7411325302
  0
LWPOLYLINE
  5
50F
100
AcDbEntity
  8
RACCORDO
100
AcDbPolyline
 62
250
  6
CONTINUOUS
 90
5
 70
0
 10
27.7617641941
 20
33.1392165127
 10
27.7242947775
 20
33.1665127429
 10
27.6856325105
 20
33.1916963406
 10
27.6457773931
 20
33.2147368535
 10
27.6048358826
 20
33.2355942949
  0
LWPOLYLINE
  5
510
100
AcDbEntity
  8
RACCORDO
100
AcDbPolyline
 62
250
  6
CONTINUOUS
 90
9
 70
0
 10
27.5501394867
 20
32.566001545
 10
27.5533793886
 20
32.5609961713
 10
27.5714589363
 20
32.5278563577
 10
27.5872078045
 20
32.4929041671
 10
27.600373839
 20
32.4564069939
 10
27.6107494929
 20
32.4186632564
 10
27.6181873132
 20
32.37992186
 10
27.6225731231
 20
32.3403711312
 10
27.6237975323
 20
32.3002525863
  0
LWPOLYLINE
  5
511
100
AcDbEntity
  8
DRAFT
100
AcDbPolyline
 62
7
  6
CONTINUOUS
 90
16
 70
0
 10
28.0630100957
 20
38.2978072556
 10
28.0682035086
 20
38.289333638
 10
28.0732331766
 20
38.2745161028
 10
28.0780990995
 20
38.2534102938
 10
28.0828191892
 20
38.2260967704
 10
28.087375534
 20
38.1926813695
 10
28.0917143987
 20
38.1532953137
 10
28.0958331395
 20
38.1080921218
 10
28.0997344003
 20
38.0572506042
 10
28.1033723771
 20
38.000976876
 10
28.1067437353
 20
37.9394965395
 10
28.1098518094
 20
37.87305318
 10
28.112660799
 20
37.8019129542
 10
28.115167123
 20
37.7263585234
 10
28.1173743623
 20
37.6466927668
 10
28.1192574594
 20
37.5632397597
  0
LWPOLYLINE
  5
512
100
AcDbEntity
  8
0
100
AcDbPolyline
 62
7
  6
CONTINUOUS
 90
13
 70
0
 43
0.3500000006
 10
55.404553299
 20
-3.9642859497
 10
55.1902688141
 20
-4.2500004845
 10
54.5474108276
 20
-4.2500004845
 10
54.1188418579
 20
-3.9642859497
 10
54.1188418579
 20
-3.3214290962
 10
54.5474108276
 20
-3.0357145615
 10
55.1902688141
 20
-3.0357145615
 10
55.404553299
 20
-3.3214290962
 10
55.8331268005
 20
-2.8928567276
 10
56.6902692719
 20
-2.8928567276
 10
57.1188382416
 20
-3.3214290962
 10
57.1188382416
 20
-3.9642859497
 10
56.6902692719
 20
-4.3928571854
  0
LINE
  5
513
100
AcDbEntity
  8
RACCORDO
100
AcDbLine
 62
250
  6
CONTINUOUS
 10
27.8905720099
 20
40.9478079374
 11
28.2267172747
 21
40.8352665366
  0
LINE
  5
514
100
AcDbEntity
  8
RACCORDO
100
AcDbLine
 62
250
  6
CONTINUOUS
 10
28.1753022038
 20
41.2481899225
 11
28.5262721725
 21
41.1307037257
  0
LINE
  5
515
100
AcDbEntity
  8
DRAFT
100
AcDbLine
 62
7
  6
CONTINUOUS
 10
28.0630100957
 20
38.2978072556
 11
27.780648901
 21
38.5841284665
  0
LINE
  5
516
100
AcDbEntity
  8
RACCORDO
100
AcDbLine
 62
250
  6
CONTINUOUS
 10
49.2119441103
 20
35.1992742496
 11
49.2208125534
 21
31.7463450289
  0
LINE
  5
517
100
AcDbEntity
  8
RACCORDO
100
AcDbLine
 62
250
  6
CONTINUOUS
 10
49.2208125534
 20
31.7463450289
 11
49.2306795958
 21
27.0449962199
  0
LINE
  5
518
100
AcDbEntity
  8
RACCORDO
100
AcDbLine
 62
250
  6
CONTINUOUS
 10
49.2306795958
 20
27.0449962199
 11
49.2379849403
 21
22.3376365647
  0
LINE
  5
519
100
AcDbEntity
  8
RACCORDO
100
AcDbLine
 62
250
  6
CONTINUOUS
 10
49.2379849403
 20
22.3376365647
 11
49.2401753939
 21
19.6489104175
  0
LINE
  5
51A
100
AcDbEntity
  8
RACCORDO
100
AcDbLine
 62
250
  6
CONTINUOUS
 10
49.5891805121
 20
-7.9976481604
 11
49.6076937033
 21
-35.1586075323
  0
LINE
  5
51B
100
AcDbEntity
  8
RACCORDO
100
AcDbLine
 62
7
  6
CONTINUOUS
 10
49.859966909
 20
35.4108807381
 11
49.859966909
 21
-35.4108807381
  0
LINE
  5
51C
100
AcDbEntity
  8
RACCORDO
100
AcDbLine
 62
250
  6
CONTINUOUS
 10
49.2401753939
 20
19.6489104175
 11
49.2402193857
 21
6.4420762606
  0
LINE
  5
51D
100
AcDbEntity
  8
RACCORDO
100
AcDbLine
 62
250
  6
CONTINUOUS
 10
49.2402193857
 20
6.4420762606
 11
49.2405779795
 21
-17.712576231
  0
LINE
  5
51E
100
AcDbEntity
  8
RACCORDO
100
AcDbLine
 62
250
  6
CONTINUOUS
 10
49.2405779795
 20
-17.712576231
 11
49.2395553762
 21
-20.6723939443
  0
LINE
  5
51F
100
AcDbEntity
  8
RACCORDO
100
AcDbLine
 62
250
  6
CONTINUOUS
 10
49.2395553762
 20
-20.6723939443
 11
49.2361476832
 21
-23.7537466029
  0
LINE
  5
520
100
AcDbEntity
  8
RACCORDO
100
AcDbLine
 62
250
  6
CONTINUOUS
 10
49.6076937033
 20
35.1586075323
 11
49.5891805121
 21
-7.9976481604
  0
LINE
  5
521
100
AcDbEntity
  8
RACCORDO
100
AcDbLine
 62
250
  6
CONTINUOUS
 10
49.2361476832
 20
-23.7537466029
 11
49.2305622043
 21
-27.1138236277
  0
LINE
  5
522
100
AcDbEntity
  8
RACCORDO
100
AcDbLine
 62
250
  6
CONTINUOUS
 10
49.2305622043
 20
-27.1138236277
 11
49.2227616577
 21
-30.8998835578
  0
LINE
  5
523
100
AcDbEntity
  8
RACCORDO
100
AcDbLine
 62
250
  6
CONTINUOUS
 10
49.2227616577
 20
-30.8998835578
 11
49.2119441103
 21
-35.1992742496
  0
LWPOLYLINE
  5
524
100
AcDbEntity
  8
RACCORDO
100
AcDbPolyline
 62
250
  6
CONTINUOUS
 90
37
 70
0
 10
49.6076937033
 20
-35.1586075323
 10
49.6020822539
 20
-35.425892113
 10
49.5849311481
 20
-35.6884916829
 10
49.5568155488
 20
-35.945938802
 10
49.518564141
 20
-36.1964018843
 10
49.4706383596
 20
-36.4409426689
 10
49.4125452576
 20
-36.6833996487
 10
49.3439445371
 20
-36.9247292304
 10
49.2652426868
 20
-37.1630953287
 10
49.1765717542
 20
-37.3980499686
 10
49.0780757115
 20
-37.6291678824
 10
48.9699092936
 20
-37.8560463232
 10
48.852250742
 20
-38.0782807421
 10
48.7253277101
 20
-38.2954163746
 10
48.5893190747
 20
-38.507123271
 10
48.444334279
 20
-38.7131824039
 10
48.2906919339
 20
-38.9130868924
 10
48.1285442753
 20
-39.1065858557
 10
47.9576917368
 20
-39.2937895691
 10
47.7784378342
 20
-39.4741924739
 10
47.5909316462
 20
-39.6474761356
 10
47.3946192124
 20
-39.8138885002
 10
47.1895822539
 20
-39.9730073336
 10
46.9761453761
 20
-40.1242349999
 10
46.754025356
 20
-40.2673927641
 10
46.5231086846
 20
-40.4021049116
 10
46.2840088816
 20
-40.5275711568
 10
46.0375780337
 20
-40.6429800554
 10
45.7840211243
 20
-40.747909939
 10
45.5239324365
 20
-40.8417936623
 10
45.2588893283
 20
-40.9238403072
 10
44.9895854185
 20
-40.9937161516
 10
44.7164043855
 20
-41.0512048328
 10
44.4405603895
 20
-41.0959670734
 10
44.1628617165
 20
-41.1278518357
 10
43.8836883599
 20
-41.1467970831
 10
43.6036414542
 20
-41.1527276252
  0
LWPOLYLINE
  5
525
100
AcDbEntity
  8
RACCORDO
100
AcDbPolyline
 62
250
  6
CONTINUOUS
 90
37
 70
0
 10
49.2119441103
 20
-35.1992742496
 10
49.2048588615
 20
-35.4454298752
 10
49.1882558986
 20
-35.6865528475
 10
49.1621298779
 20
-35.922637834
 10
49.1264149375
 20
-36.1527514039
 10
49.0811663011
 20
-36.3778163721
 10
49.0265593027
 20
-36.6006108254
 10
48.9625244246
 20
-36.8224443942
 10
48.889117612
 20
-37.041993904
 10
48.8067021464
 20
-37.2580879885
 10
48.7152257888
 20
-37.4706991119
 10
48.6147290505
 20
-37.6798431068
 10
48.5057162657
 20
-37.8844155831
 10
48.3881808014
 20
-38.0843480282
 10
48.2621201904
 20
-38.2796998734
 10
48.1280472722
 20
-38.4695608956
 10
47.9860487876
 20
-38.6538360366
 10
47.836032075
 20
-38.8326144462
 10
47.6782428228
 20
-39.0052641619
 10
47.5127962248
 20
-39.1717812056
 10
47.3395738502
 20
-39.3321663252
 10
47.158472446
 20
-39.4857961395
 10
46.969399068
 20
-39.6328512783
 10
46.7724459053
 20
-39.7731503583
 10
46.5677894188
 20
-39.905528989
 10
46.3550274489
 20
-40.0301811304
 10
46.1345654128
 20
-40.1469160736
 10
45.9077952281
 20
-40.2539965075
 10
45.6744217045
 20
-40.3513372944
 10
45.4347501892
 20
-40.4390337077
 10
45.1910788906
 20
-40.5156245274
 10
44.9434735148
 20
-40.5808687496
 10
44.6918845413
 20
-40.6350235299
 10
44.4384416069
 20
-40.6773791472
 10
44.1838614511
 20
-40.7077058737
 10
43.9274459911
 20
-40.726252055
 10
43.6692037148
 20
-40.7330261611
  0
LWPOLYLINE
  5
526
100
AcDbEntity
  8
RACCORDO
100
AcDbPolyline
 62
250
  6
CONTINUOUS
 90
16
 70
0
 10
39.3724240859
 20
-35.5
 10
39.3694150088
 20
-35.5078335434
 10
39.3620276738
 20
-35.5155980652
 10
39.3503271717
 20
-35.5232251532
 10
39.3344165956
 20
-35.5306476062
 10
39.3144361335
 20
-35.5378000258
 10
39.2905618346
 20
-35.5446193925
 10
39.263004055
 20
-35.551045622
 10
39.2320056048
 20
-35.5570220939
 10
39.1978396115
 20
-35.5624961503
 10
39.1608071099
 20
-35.5674195604
 10
39.1212343897
 20
-35.5717489455
 10
39.0794701242
 20
-35.5754461602
 10
39.0358822941
 20
-35.5784786297
 10
38.9908549457
 20
-35.5808196359
 10
38.9447848088
 20
-35.5824485534
  0
LWPOLYLINE
  5
527
100
AcDbEntity
  8
RACCORDO
100
AcDbPolyline
 62
250
  6
CONTINUOUS
 90
16
 70
0
 10
33.75
 20
-41.1310794779
 10
33.7530755673
 20
-41.1284016769
 10
33.7561275554
 20
-41.1219116791
 10
33.7591325658
 20
-41.1116592408
 10
33.7620675602
 20
-41.0977229634
 10
33.7649100373
 20
-41.0802096912
 10
33.7676382047
 20
-41.0592536918
 10
33.7702311467
 20
-41.0350156269
 10
33.7726689842
 20
-41.0076813205
 10
33.7749330271
 20
-40.9774603343
 10
33.7770059179
 20
-40.9445843614
 10
33.7788717646
 20
-40.9093054491
 10
33.7805162624
 20
-40.8718940677
 10
33.7819268036
 20
-40.832637036
 10
33.7830925741
 20
-40.7918353227
 10
33.7840046363
 20
-40.7498017391
  0
LWPOLYLINE
  5
528
100
AcDbEntity
  8
RACCORDO
100
AcDbPolyline
 62
250
  6
CONTINUOUS
 90
8
 70
0
 10
37.9640029686
 20
-40.3959032976
 10
37.9623549389
 20
-40.3966500267
 10
37.959122976
 20
-40.3980536478
 10
37.9542915154
 20
-40.4000903035
 10
37.9478559939
 20
-40.4027241665
 10
37.9397894874
 20
-40.405937225
 10
37.9300447555
 20
-40.4097317784
 10
37.9186322201
 20
-40.4140506717
  0
LWPOLYLINE
  5
529
100
AcDbEntity
  8
RACCORDO
100
AcDbPolyline
 62
250
  6
CONTINUOUS
 90
10
 70
0
 10
38.690598144
 20
-41.1422731186
 10
38.6448314579
 20
-41.1596622225
 10
38.5987016637
 20
-41.1769424734
 10
38.5522087615
 20
-41.1941138713
 10
38.5053696554
 20
-41.2111764756
 10
38.4581674413
 20
-41.228130227
 10
38.4105514065
 20
-41.2449749474
 10
38.3625046469
 20
-41.2617105775
 10
38.3140440667
 20
-41.2783371767
 10
38.2651696659
 20
-41.294854745
  0
LWPOLYLINE
  5
52A
100
AcDbEntity
  8
RACCORDO
100
AcDbPolyline
 62
250
  6
CONTINUOUS
 90
3
 70
0
 10
37.9186322201
 20
-40.4140506717
 10
37.8905831747
 20
-40.4243410113
 10
37.8738233851
 20
-40.4303874604
  0
LINE
  5
52B
100
AcDbEntity
  8
RACCORDO
100
AcDbLine
 62
250
  6
CONTINUOUS
 10
37.8738233851
 20
-40.4303874604
 11
37.788226956
 21
-40.4607261776
  0
LINE
  5
52C
100
AcDbEntity
  8
RACCORDO
100
AcDbLine
 62
250
  6
CONTINUOUS
 10
37.788226956
 20
-40.4607261776
 11
37.7341591067
 21
-40.4795598381
  0
LINE
  5
52D
100
AcDbEntity
  8
RACCORDO
100
AcDbLine
 62
250
  6
CONTINUOUS
 10
37.7341591067
 20
-40.4795598381
 11
37.6726016138
 21
-40.5005635437
  0
LINE
  5
52E
100
AcDbEntity
  8
RACCORDO
100
AcDbLine
 62
250
  6
CONTINUOUS
 10
38.3675451105
 20
-40.2663355948
 11
38.3019213562
 21
-40.2886307805
  0
LINE
  5
52F
100
AcDbEntity
  8
RACCORDO
100
AcDbLine
 62
250
  6
CONTINUOUS
 10
37.6726016138
 20
-40.5005635437
 11
37.6036747754
 21
-40.5235428113
  0
LINE
  5
530
100
AcDbEntity
  8
RACCORDO
100
AcDbLine
 62
250
  6
CONTINUOUS
 10
38.3019213562
 20
-40.2886307805
 11
38.234780174
 21
-40.3109659749
  0
LINE
  5
531
100
AcDbEntity
  8
RACCORDO
100
AcDbLine
 62
250
  6
CONTINUOUS
 10
38.234780174
 20
-40.3109659749
 11
38.1664226322
 21
-40.3331738035
  0
LINE
  5
532
100
AcDbEntity
  8
RACCORDO
100
AcDbLine
 62
250
  6
CONTINUOUS
 10
37.6036747754
 20
-40.5235428113
 11
37.5271457918
 21
-40.5484304122
  0
LINE
  5
533
100
AcDbEntity
  8
RACCORDO
100
AcDbLine
 62
250
  6
CONTINUOUS
 10
38.1664226322
 20
-40.3331738035
 11
38.0978279915
 21
-40.3549457854
  0
LWPOLYLINE
  5
534
100
AcDbEntity
  8
RACCORDO
100
AcDbPolyline
 62
250
  6
CONTINUOUS
 90
17
 70
0
 10
37.5271457918
 20
-40.5484304122
 10
37.442800576
 20
-40.5750779867
 10
37.3974888661
 20
-40.5890658361
 10
37.3500975912
 20
-40.6034242496
 10
37.3005134578
 20
-40.6181858643
 10
37.2487280652
 20
-40.6332900229
 10
37.19474698
 20
-40.6486679877
 10
37.1384742412
 20
-40.6643293477
 10
37.0799278122
 20
-40.6801778467
 10
37.019081618
 20
-40.6961525621
 10
36.9557678093
 20
-40.7123009972
 10
36.8900186341
 20
-40.7285107311
 10
36.8217847992
 20
-40.7446972253
 10
36.7507663943
 20
-40.760921444
 10
36.676851405
 20
-40.7771091755
 10
36.6001227963
 20
-40.7930668112
 10
36.5205683928
 20
-40.8086513693
  0
LINE
  5
535
100
AcDbEntity
  8
RACCORDO
100
AcDbLine
 62
250
  6
CONTINUOUS
 10
38.0978279915
 20
-40.3549457854
 11
38.0302354313
 21
-40.3758725923
  0
LINE
  5
536
100
AcDbEntity
  8
RACCORDO
100
AcDbLine
 62
250
  6
CONTINUOUS
 10
38.0302354313
 20
-40.3758725923
 11
37.9640033801
 21
-40.395902987
  0
LWPOLYLINE
  5
537
100
AcDbEntity
  8
0
100
AcDbPolyline
 62
7
  6
CONTINUOUS
 90
7
 70
0
 43
0.3500000006
 10
57.1188382416
 20
-0.5357137985
 10
57.1188382416
 20
-2.0357142563
 10
54.9759843292
 20
-0.5357137985
 10
54.5474108276
 20
-0.5357137985
 10
54.1188418579
 20
-0.9642850342
 10
54.1188418579
 20
-1.6071430206
 10
54.7616953125
 20
-2.0357142563
  0
LWPOLYLINE
  5
538
100
AcDbEntity
  8
RACCORDO
100
AcDbPolyline
 62
250
  6
CONTINUOUS
 90
16
 70
0
 10
38.5997258215
 20
-40.5498770966
 10
38.5893714037
 20
-40.55989868
 10
38.5798339007
 20
-40.5704630431
 10
38.5711133231
 20
-40.5815701965
 10
38.5631864345
 20
-40.5932707622
 10
38.5560764912
 20
-40.605514138
 10
38.5498532522
 20
-40.6181485082
 10
38.544519574
 20
-40.6311684907
 10
38.540072643
 20
-40.6445795105
 10
38.5365737311
 20
-40.6582459799
 10
38.5340219012
 20
-40.6721823478
 10
38.5324181467
 20
-40.6863742216
 10
38.531826652
 20
-40.7006427675
 10
38.5322688381
 20
-40.7149284004
 10
38.5337233537
 20
-40.729290775
 10
38.5361902303
 20
-40.7437299226
  0
LWPOLYLINE
  5
539
100
AcDbEntity
  8
RACCORDO
100
AcDbPolyline
 62
250
  6
CONTINUOUS
 90
16
 70
0
 10
38.3675452236
 20
-40.2663357194
 10
38.3420198523
 20
-40.2909826638
 10
38.3183693942
 20
-40.3172875153
 10
38.2966931561
 20
-40.3451025738
 10
38.2770966799
 20
-40.3742455302
 10
38.2596336456
 20
-40.4045861112
 10
38.2443268393
 20
-40.4360591015
 10
38.2312533266
 20
-40.468495414
 10
38.2204666455
 20
-40.5017498986
 10
38.2119867727
 20
-40.5358071013
 10
38.2058793315
 20
-40.5705324219
 10
38.2022096933
 20
-40.6057343948
 10
38.2010266603
 20
-40.6413138588
 10
38.2023831008
 20
-40.6771170248
 10
38.2063178213
 20
-40.7129345093
 10
38.2128551042
 20
-40.7485758118
  0
LWPOLYLINE
  5
53A
100
AcDbEntity
  8
RACCORDO
100
AcDbPolyline
 62
250
  6
CONTINUOUS
 90
31
 70
0
 10
37.9640036082
 20
-40.3959032916
 10
37.931969927
 20
-40.4222912755
 10
37.9022380495
 20
-40.4512534384
 10
37.875013355
 20
-40.4825896981
 10
37.8504839123
 20
-40.5160835575
 10
37.8288191463
 20
-40.5515036463
 10
37.8101686813
 20
-40.5886053276
 10
37.794661348
 20
-40.6271323211
 10
37.7824042799
 20
-40.6668184662
 10
37.7734821486
 20
-40.7073896121
 10
37.7679565881
 20
-40.7485654939
 10
37.7658657691
 20
-40.7900616688
 10
37.7672241351
 20
-40.8315914813
 10
37.7720223024
 20
-40.8728680437
 10
37.7802271254
 20
-40.9136062179
 10
37.7917819253
 20
-40.9535245847
 10
37.8066068814
 20
-40.9923473885
 10
37.8245995832
 20
-41.0298064416
 10
37.8456357371
 20
-41.0656429771
 10
37.8695700254
 20
-41.0996094364
 10
37.8962371103
 20
-41.1314711795
 10
37.9254527755
 20
-41.1610081058
 10
37.9570151991
 20
-41.1880161741
 10
37.9907063484
 20
-41.2123088133
 10
38.0262934856
 20
-41.2337182105
 10
38.0635307512
 20
-41.2520964589
 10
38.1021609328
 20
-41.2673166164
 10
38.1419172504
 20
-41.2792735619
 10
38.1825250987
 20
-41.2878846822
 10
38.223703936
 20
-41.2930904632
 10
38.2651692985
 20
-41.2948549233
  0
LWPOLYLINE
  5
53B
100
AcDbEntity
  8
RACCORDO
100
AcDbPolyline
 62
250
  6
CONTINUOUS
 90
16
 70
0
 10
43.6036414542
 20
-41.1527276252
 10
43.6098165129
 20
-41.1497738084
 10
43.6159384028
 20
-41.1425410414
 10
43.6219544139
 20
-41.1310915996
 10
43.627812748
 20
-41.1155240642
 10
43.6334629645
 20
-41.0959724736
 10
43.6388564146
 20
-41.0726051687
 10
43.6439466602
 20
-41.0456233445
 10
43.6486898742
 20
-41.0152593169
 10
43.6530452172
 20
-40.9817745224
 10
43.6569751893
 20
-40.945457268
 10
43.6604459534
 20
-40.906620248
 10
43.663427626
 20
-40.8655978518
 10
43.6658945348
 20
-40.8227432848
 10
43.6678254395
 20
-40.7784255283
 10
43.6692037148
 20
-40.7330261611
  0
LWPOLYLINE
  5
53C
100
AcDbEntity
  8
RACCORDO
100
AcDbPolyline
 62
250
  6
CONTINUOUS
 90
16
 70
0
 10
43.6036414542
 20
41.1527276252
 10
43.6098165147
 20
41.1497738016
 10
43.6159384063
 20
41.1425410177
 10
43.6219544189
 20
41.1310915505
 10
43.6278127544
 20
41.1155239827
 10
43.6334629717
 20
41.0959723549
 10
43.6388564218
 20
41.0726050126
 10
43.6439466668
 20
41.0456231536
 10
43.6486898794
 20
41.0152590964
 10
43.6530452204
 20
40.9817742827
 10
43.6569751902
 20
40.9454570224
 10
43.6604459521
 20
40.9066200118
 10
43.6634276229
 20
40.8655976437
 10
43.6658945309
 20
40.8227431259
 10
43.6678254363
 20
40.7784254389
 10
43.6692037148
 20
40.7330261611
  0
LWPOLYLINE
  5
53D
100
AcDbEntity
  8
RACCORDO
100
AcDbPolyline
 62
250
  6
CONTINUOUS
 90
16
 70
0
 10
49.6076937033
 20
-35.1586075323
 10
49.6049119231
 20
-35.1623411175
 10
49.5981445246
 20
-35.1660447695
 10
49.5874457648
 20
-35.1696887958
 10
49.572901418
 20
-35.1732439823
 10
49.5546280894
 20
-35.1766818268
 10
49.5327722814
 20
-35.1799747678
 10
49.5075092158
 20
-35.1830964056
 10
49.4790414304
 20
-35.1860217142
 10
49.447597157
 20
-35.1887272412
 10
49.4134284885
 20
-35.1911912965
 10
49.3768093584
 20
-35.1933941261
 10
49.3380333469
 20
-35.1953180699
 10
49.2974113245
 20
-35.196947704
 10
49.25526896
 20
-35.198269964
 10
49.2119441103
 20
-35.1992742496
  0
LWPOLYLINE
  5
53E
100
AcDbEntity
  8
RACCORDO
100
AcDbPolyline
 62
250
  6
CONTINUOUS
 90
16
 70
0
 10
49.6076937033
 20
35.1586075323
 10
49.6049119317
 20
35.1623411034
 10
49.5981445544
 20
35.1660447431
 10
49.5874458255
 20
35.1696887592
 10
49.5729015172
 20
35.1732439375
 10
49.5546282315
 20
35.176681776
 10
49.5327724659
 20
35.1799747134
 10
49.5075094388
 20
35.1830963501
 10
49.4790416848
 20
35.1860216598
 10
49.4475974309
 20
35.1887271903
 10
49.4134287667
 20
35.1911912511
 10
49.3768096236
 20
35.1933940878
 10
49.3380335787
 20
35.1953180402
 10
49.297411501
 20
35.1969476839
 10
49.255269059
 20
35.1982699539
 10
49.2119441103
 20
35.1992742496
  0
LWPOLYLINE
  5
53F
100
AcDbEntity
  8
0
100
AcDbPolyline
 62
7
  6
CONTINUOUS
 90
5
 70
0
 43
0.3500000006
 10
-74.3823121948
 20
63.7494390564
 10
-74.0251698761
 20
63.9637235413
 10
-74.0251698761
 20
64.6065769958
 10
-74.3823121948
 20
65.0351459656
 10
-75.239459198
 20
65.0351459656
  0
LWPOLYLINE
  5
540
100
AcDbEntity
  8
RACCORDO
100
AcDbPolyline
 62
7
  6
CONTINUOUS
 90
17
 70
0
 10
-89.1718499168
 20
-41.0735769307
 10
-89.1716384683
 20
-41.0735979285
 10
-89.1690839725
 20
-41.0738383344
 10
-89.1665403395
 20
-41.0740645868
 10
-89.1640096534
 20
-41.074276702
 10
-89.1614966391
 20
-41.0744745352
 10
-89.1589985601
 20
-41.0746585653
 10
-89.1565183203
 20
-41.0748288397
 10
-89.1540691211
 20
-41.0749848306
 10
-89.1516508677
 20
-41.0751270133
 10
-89.1492638276
 20
-41.0752558356
 10
-89.1469217614
 20
-41.0753711106
 10
-89.1446224548
 20
-41.0754735738
 10
-89.1423682811
 20
-41.0755637338
 10
-89.1401798935
 20
-41.0756415196
 10
-89.1379135312
 20
-41.0757119641
 10
-89.1340307267
 20
-41.075808748
  0
LWPOLYLINE
  5
541
100
AcDbEntity
  8
RACCORDO
100
AcDbPolyline
 62
7
  6
CONTINUOUS
 90
9
 70
0
 10
-86.4148788616
 20
41.0676410076
 10
-86.4291359157
 20
41.0602120719
 10
-86.4646193354
 20
41.0376465036
 10
-86.4982748054
 20
41.0120372574
 10
-86.5294940755
 20
40.983837414
 10
-86.5582950501
 20
40.9529118238
 10
-86.5846598249
 20
40.9193956366
 10
-86.6079264368
 20
40.8841473821
 10
-86.6278742316
 20
40.847453237
  0
LWPOLYLINE
  5
542
100
AcDbEntity
  8
RACCORDO
100
AcDbPolyline
 62
250
  6
CONTINUOUS
 90
33
 70
0
 10
-86.5853121213
 20
-40.7549725311
 10
-86.59327463
 20
-40.7554321975
 10
-86.6006257071
 20
-40.7558988132
 10
-86.6073571113
 20
-40.7563659606
 10
-86.6134878892
 20
-40.7568370328
 10
-86.6190604258
 20
-40.7573151326
 10
-86.6241075364
 20
-40.757794047
 10
-86.6286472799
 20
-40.7582752496
 10
-86.6327211352
 20
-40.7587635624
 10
-86.6363891855
 20
-40.7592569644
 10
-86.6396680845
 20
-40.7597551202
 10
-86.6425831648
 20
-40.760262805
 10
-86.6451893844
 20
-40.7607837445
 10
-86.6474993466
 20
-40.7613173376
 10
-86.6495198351
 20
-40.7618662356
 10
-86.6512787695
 20
-40.7624371074
 10
-86.6527808419
 20
-40.7630351878
 10
-86.6540247362
 20
-40.7636555989
 10
-86.6550198531
 20
-40.764288835
 10
-86.6557899799
 20
-40.7649491716
 10
-86.6563906764
 20
-40.7656307236
 10
-86.6568805577
 20
-40.7662939084
 10
-86.6572994667
 20
-40.7669354483
 10
-86.6576748419
 20
-40.7675657355
 10
-86.6580352951
 20
-40.7681644866
 10
-86.6583998204
 20
-40.7687257324
 10
-86.658777056
 20
-40.7692583639
 10
-86.659171695
 20
-40.7697635019
 10
-86.6595879826
 20
-40.7702377037
 10
-86.660023757
 20
-40.7706846322
 10
-86.660472748
 20
-40.7711159232
 10
-86.6609301264
 20
-40.7715314637
 10
-86.6613897815
 20
-40.7719302098
  0
LINE
  5
543
100
AcDbEntity
  8
RACCORDO
100
AcDbLine
 62
250
  6
CONTINUOUS
 10
-86.5674401121
 20
-40.7540667455
 11
-86.5853121213
 21
-40.7549725311
  0
LINE
  5
544
100
AcDbEntity
  8
RACCORDO
100
AcDbLine
 62
250
  6
CONTINUOUS
 10
-86.5470510098
 20
-40.7531805152
 11
-86.5674401121
 21
-40.7540667455
  0
LINE
  5
545
100
AcDbEntity
  8
RACCORDO
100
AcDbLine
 62
250
  6
CONTINUOUS
 10
-86.5121645585
 20
-40.7518885683
 11
-86.5470510098
 21
-40.7531805152
  0
LWPOLYLINE
  5
546
100
AcDbEntity
  8
RACCORDO
100
AcDbPolyline
 62
250
  6
CONTINUOUS
 90
3
 70
0
 10
-86.4435579261
 20
-40.7498017391
 10
-86.4584273285
 20
-40.7502201986
 10
-86.5121645585
 20
-40.7518885683
  0
LINE
  5
547
100
AcDbEntity
  8
RACCORDO
100
AcDbLine
 62
250
  6
CONTINUOUS
 10
-85.3999648855
 20
-40.7330261611
 11
-86.0186516502
 21
-40.7437299226
  0
LWPOLYLINE
  5
548
100
AcDbEntity
  8
RACCORDO
100
AcDbPolyline
 62
250
  6
CONTINUOUS
 90
5
 70
0
 10
-89.5861628242
 20
-40.600415691
 10
-89.598286837
 20
-40.600520405
 10
-89.6017817253
 20
-40.6005121302
 10
-89.603858461
 20
-40.6005201807
 10
-89.6047266075
 20
-40.6005709077
  0
LINE
  5
549
100
AcDbEntity
  8
RACCORDO
100
AcDbLine
 62
250
  6
CONTINUOUS
 10
-89.4914887012
 20
-40.6000660295
 11
-89.5861628242
 21
-40.600415691
  0
LINE
  5
54A
100
AcDbEntity
  8
RACCORDO
100
AcDbLine
 62
250
  6
CONTINUOUS
 10
-89.4041756378
 20
-40.6003561566
 11
-89.4914887012
 21
-40.6000660295
  0
LINE
  5
54B
100
AcDbEntity
  8
RACCORDO
100
AcDbLine
 62
250
  6
CONTINUOUS
 10
-89.3316291759
 20
-40.6010001442
 11
-89.4041756378
 21
-40.6003561566
  0
LINE
  5
54C
100
AcDbEntity
  8
RACCORDO
100
AcDbLine
 62
250
  6
CONTINUOUS
 10
-89.248462436
 20
-40.6021288601
 11
-89.3316291759
 21
-40.6010001442
  0
LINE
  5
54D
100
AcDbEntity
  8
RACCORDO
100
AcDbLine
 62
7
  6
CONTINUOUS
 10
-85.5184811681
 20
-41.1422731186
 11
-70.1823141872
 21
-41.409966909
  0
LINE
  5
54E
100
AcDbEntity
  8
RACCORDO
100
AcDbLine
 62
250
  6
CONTINUOUS
 10
-89.6047266567
 20
-40.6005708371
 11
-89.6229205844
 21
-40.6002529994
  0
LINE
  5
54F
100
AcDbEntity
  8
RACCORDO
100
AcDbLine
 62
7
  6
CONTINUOUS
 10
-89.1340307267
 20
-41.075808748
 11
-85.5751038077
 21
-41.1379332604
  0
LINE
  5
550
100
AcDbEntity
  8
RACCORDO
100
AcDbLine
 62
250
  6
CONTINUOUS
 10
-89.1048300434
 20
-40.6048882721
 11
-89.248462436
 21
-40.6021288601
  0
LINE
  5
551
100
AcDbEntity
  8
RACCORDO
100
AcDbLine
 62
7
  6
CONTINUOUS
 10
-85.5234277458
 20
-41.1421640043
 11
-85.5184632561
 21
-41.1422734313
  0
LINE
  5
552
100
AcDbEntity
  8
RACCORDO
100
AcDbLine
 62
250
  6
CONTINUOUS
 10
-88.9384141435
 20
-40.6090771219
 11
-89.1048300434
 21
-40.6048882721
  0
LINE
  5
553
100
AcDbEntity
  8
RACCORDO
100
AcDbLine
 62
250
  6
CONTINUOUS
 10
-88.7480803159
 20
-40.6148887798
 11
-88.9384141435
 21
-40.6090771219
  0
LINE
  5
554
100
AcDbEntity
  8
RACCORDO
100
AcDbLine
 62
250
  6
CONTINUOUS
 10
-88.5315671212
 20
-40.6226181263
 11
-88.7480803159
 21
-40.6148887798
  0
LINE
  5
555
100
AcDbEntity
  8
RACCORDO
100
AcDbLine
 62
250
  6
CONTINUOUS
 10
-88.2874632281
 20
-40.6326880675
 11
-88.5315671212
 21
-40.6226181263
  0
LINE
  5
556
100
AcDbEntity
  8
RACCORDO
100
AcDbLine
 62
250
  6
CONTINUOUS
 10
-88.1104184698
 20
-40.6409841982
 11
-88.2874632281
 21
-40.6326880675
  0
LINE
  5
557
100
AcDbEntity
  8
RACCORDO
100
AcDbLine
 62
250
  6
CONTINUOUS
 10
-87.9237900868
 20
-40.6506781841
 11
-88.1104184698
 21
-40.6409841982
  0
LWPOLYLINE
  5
558
100
AcDbEntity
  8
RACCORDO
100
AcDbPolyline
 62
7
  6
CONTINUOUS
 90
16
 70
0
 10
-86.2013463333
 20
-41.1270021564
 10
-86.2426926045
 20
-41.1245647307
 10
-86.2836951701
 20
-41.118713649
 10
-86.3240726824
 20
-41.1094890893
 10
-86.3635480779
 20
-41.0969543802
 10
-86.4018505049
 20
-41.0811955575
 10
-86.4387171796
 20
-41.0623207669
 10
-86.4738951439
 20
-41.0404595416
 10
-86.5071430331
 20
-41.0157619034
 10
-86.5382327509
 20
-40.9883973126
 10
-86.5669427615
 20
-40.9585628269
 10
-86.5930858362
 20
-40.9264552449
 10
-86.6165024592
 20
-40.8922631879
 10
-86.6370298421
 20
-40.856205305
 10
-86.6545111741
 20
-40.8185352695
 10
-86.6688174766
 20
-40.779509059
  0
LWPOLYLINE
  5
559
100
AcDbEntity
  8
RACCORDO
100
AcDbPolyline
 62
250
  6
CONTINUOUS
 90
19
 70
0
 10
-89.1140690122
 20
-41.076160393
 10
-89.1557775057
 20
-41.0736862134
 10
-89.1971337862
 20
-41.0677380661
 10
-89.2378490398
 20
-41.0583574904
 10
-89.2776389292
 20
-41.0456099962
 10
-89.3162255794
 20
-41.0295846065
 10
-89.3533395187
 20
-41.0103932357
 10
-89.3887215598
 20
-40.9881699079
 10
-89.4221246104
 20
-40.963069821
 10
-89.4533153985
 20
-40.935268263
 10
-89.4820761018
 20
-40.9049593877
 10
-89.5082058683
 20
-40.8723548587
 10
-89.5315222195
 20
-40.8376823717
 10
-89.5518623245
 20
-40.8011840638
 10
-89.5690841373
 20
-40.763114823
 10
-89.5830673883
 20
-40.7237405079
 10
-89.5937144249
 20
-40.683336091
 10
-89.600950893
 20
-40.6421837388
 10
-89.6047262565
 20
-40.600570841
  0
LWPOLYLINE
  5
55A
100
AcDbEntity
  8
RACCORDO
100
AcDbPolyline
 62
250
  6
CONTINUOUS
 90
16
 70
0
 10
-85.9677567456
 20
-41.1310794779
 10
-86.0113460272
 20
-41.1284016769
 10
-86.0545342259
 20
-41.1219116791
 10
-86.0969902341
 20
-41.1116592408
 10
-86.1383885576
 20
-41.0977229634
 10
-86.1784118112
 20
-41.0802096912
 10
-86.2167531519
 20
-41.0592536918
 10
-86.253118631
 20
-41.0350156269
 10
-86.2872294482
 20
-41.0076813205
 10
-86.3188240888
 20
-40.9774603343
 10
-86.3476603288
 20
-40.9445843614
 10
-86.3735170916
 20
-40.9093054491
 10
-86.3961961431
 20
-40.8718940677
 10
-86.4155236117
 20
-40.832637036
 10
-86.4313513211
 20
-40.7918353227
 10
-86.4435579261
 20
-40.7498017391
  0
LWPOLYLINE
  5
55B
100
AcDbEntity
  8
RACCORDO
100
AcDbPolyline
 62
250
  6
CONTINUOUS
 90
16
 70
0
 10
-84.9195428912
 20
-41.1527276252
 10
-84.9654303961
 20
-41.1497738084
 10
-85.0108476704
 20
-41.1425410414
 10
-85.055403668
 20
-41.1310915996
 10
-85.0987147584
 20
-41.1155240642
 10
-85.1404080302
 20
-41.0959724736
 10
-85.1801245018
 20
-41.0726051687
 10
-85.2175222116
 20
-41.0456233445
 10
-85.2522791631
 20
-41.0152593169
 10
-85.2840960971
 20
-40.9817745224
 10
-85.3126990678
 20
-40.945457268
 10
-85.3378418022
 20
-40.906620248
 10
-85.3593078202
 20
-40.8655978518
 10
-85.3769122982
 20
-40.8227432848
 10
-85.3905036607
 20
-40.7784255283
 10
-85.3999648855
 20
-40.7330261611
  0
LWPOLYLINE
  5
55C
100
AcDbEntity
  8
RACCORDO
100
AcDbPolyline
 62
250
  6
CONTINUOUS
 90
5
 70
0
 10
-86.6688215878
 20
-40.7795103712
 10
-86.670840722
 20
-40.7793611795
 10
-86.6767409651
 20
-40.7785155693
 10
-86.6865188265
 20
-40.7769788147
 10
-86.7000525319
 20
-40.7747887869
  0
LWPOLYLINE
  5
55D
100
AcDbEntity
  8
RACCORDO
100
AcDbPolyline
 62
250
  6
CONTINUOUS
 90
14
 70
0
 10
-86.8306822959
 20
-40.7529688186
 10
-86.8720323489
 20
-40.7464637886
 10
-86.9192885589
 20
-40.7393796973
 10
-86.9731805776
 20
-40.7318069553
 10
-87.0345038786
 20
-40.7237560466
 10
-87.1031115476
 20
-40.7154155738
 10
-87.1781873657
 20
-40.7071149981
 10
-87.2601316847
 20
-40.6988011961
 10
-87.3484609928
 20
-40.6905744698
 10
-87.440460275
 20
-40.6828473264
 10
-87.5353840662
 20
-40.6755257418
 10
-87.6329759179
 20
-40.6685197515
 10
-87.7308050703
 20
-40.6621134014
 10
-87.9237900868
 20
-40.6506781841
  0
LINE
  5
55E
100
AcDbEntity
  8
RACCORDO
100
AcDbLine
 62
250
  6
CONTINUOUS
 10
-86.7647543631
 20
-40.7638623513
 11
-86.8306822959
 21
-40.7529688186
  0
LINE
  5
55F
100
AcDbEntity
  8
RACCORDO
100
AcDbLine
 62
250
  6
CONTINUOUS
 10
-86.7000525319
 20
-40.7747887869
 11
-86.7647543631
 21
-40.7638623513
  0
LWPOLYLINE
  5
560
100
AcDbEntity
  8
RACCORDO
100
AcDbPolyline
 62
250
  6
CONTINUOUS
 90
8
 70
0
 10
-85.7508560726
 20
-41.0850179795
 10
-85.7200523253
 20
-41.0993474276
 10
-85.6882115433
 20
-41.1117429854
 10
-85.6554507698
 20
-41.1221290969
 10
-85.6219512316
 20
-41.1304266647
 10
-85.5878671371
 20
-41.1365778993
 10
-85.5533226783
 20
-41.140539326
 10
-85.5234277458
 20
-41.1421640043
  0
LWPOLYLINE
  5
561
100
AcDbEntity
  8
0
100
AcDbPolyline
 62
7
  6
CONTINUOUS
 90
10
 70
0
 43
0.3500000006
 10
-78.143031189
 20
52.035151062
 10
-77.2858841858
 20
52.8922935333
 10
-77.0715997009
 20
53.7494360046
 10
-77.0715997009
 20
54.606578476
 10
-77.5001686707
 20
55.0351474457
 10
-78.143031189
 20
55.0351474457
 10
-78.5716001587
 20
54.606578476
 10
-78.5716001587
 20
53.7494360046
 10
-78.143031189
 20
53.3208625031
 10
-77.2144530029
 20
53.3208625031
  0
LINE
  5
562
100
AcDbEntity
  8
RACCORDO
100
AcDbLine
 62
250
  6
CONTINUOUS
 10
-86.933917814
 20
-35.5808196359
 11
-86.9427266611
 21
-35.5824485534
  0
LINE
  5
563
100
AcDbEntity
  8
RACCORDO
100
AcDbLine
 62
250
  6
CONTINUOUS
 10
-86.8826632189
 20
-35.5717489455
 11
-86.933917814
 21
-35.5808196359
  0
LINE
  5
564
100
AcDbEntity
  8
RACCORDO
100
AcDbLine
 62
250
  6
CONTINUOUS
 10
-86.7455972464
 20
-35.548066084
 11
-86.8826632189
 21
-35.5717489455
  0
LINE
  5
565
100
AcDbEntity
  8
RACCORDO
100
AcDbLine
 62
250
  6
CONTINUOUS
 10
-86.533197049
 20
-36.8492713473
 11
-86.5363269294
 21
-36.8496696921
  0
LINE
  5
566
100
AcDbEntity
  8
RACCORDO
100
AcDbLine
 62
250
  6
CONTINUOUS
 10
-84.9600854577
 20
-35.1860217142
 11
-85.1136437658
 21
-35.1992742496
  0
LINE
  5
567
100
AcDbEntity
  8
RACCORDO
100
AcDbLine
 62
250
  6
CONTINUOUS
 10
-84.6350364664
 20
-35.1586075323
 11
-84.9600854577
 21
-35.1860217142
  0
LINE
  5
568
100
AcDbEntity
  8
RACCORDO
100
AcDbLine
 62
250
  6
CONTINUOUS
 10
-84.6350364664
 20
-35.1586075323
 11
-70.1823141872
 21
-35.4108807381
  0
LWPOLYLINE
  5
569
100
AcDbEntity
  8
0
100
AcDbPolyline
 62
7
  6
CONTINUOUS
 90
5
 70
0
 10
-89.0256313442
 20
32.4557536055
 10
-89.025689805
 20
32.4556944024
 10
-89.0260558543
 20
32.4546401211
 10
-89.0267259536
 20
32.4522094004
 10
-89.0276837377
 20
32.4483298532
  0
LINE
  5
56A
100
AcDbEntity
  8
0
100
AcDbLine
 62
250
  6
CONTINUOUS
 10
-67.6823141872
 20
-31.0
 11
-70.1823141872
 21
-31.0
  0
LWPOLYLINE
  5
56B
100
AcDbEntity
  8
RACCORDO
100
AcDbPolyline
 62
250
  6
CONTINUOUS
 90
8
 70
0
 10
-89.9183294307
 20
-26.2191542638
 10
-89.9255758707
 20
-26.2170542421
 10
-89.9293647589
 20
-26.2158919033
 10
-89.9331947373
 20
-26.214649217
 10
-89.9369962267
 20
-26.2134410157
 10
-89.9407333542
 20
-26.2122281165
 10
-89.9443170853
 20
-26.2109869266
 10
-89.9476176339
 20
-26.2098614452
  0
LWPOLYLINE
  5
56C
100
AcDbEntity
  8
RACCORDO
100
AcDbPolyline
 62
250
  6
CONTINUOUS
 90
4
 70
0
 10
-89.9555042949
 20
-26.2073349761
 10
-89.9573306781
 20
-26.2068034169
 10
-89.9588611737
 20
-26.206526904
 10
-89.9601749692
 20
-26.2065798528
  0
LINE
  5
56D
100
AcDbEntity
  8
RACCORDO
100
AcDbLine
 62
250
  6
CONTINUOUS
 10
-89.9476176339
 20
-26.2098614452
 11
-89.9555042949
 21
-26.2073349761
  0
LWPOLYLINE
  5
56E
100
AcDbEntity
  8
RACCORDO
100
AcDbPolyline
 62
7
  6
CONTINUOUS
 90
3
 70
0
 10
-86.6278742316
 20
40.847453237
 10
-86.6447238634
 20
40.8090270246
 10
-86.6584753324
 20
40.7688687449
  0
LINE
  5
56F
100
AcDbEntity
  8
RACCORDO
100
AcDbLine
 62
250
  6
CONTINUOUS
 10
-63.7323141872
 20
-24.6794136676
 11
-67.6823141872
 21
-24.8178885069
  0
LINE
  5
570
100
AcDbEntity
  8
RACCORDO
100
AcDbLine
 62
7
  6
CONTINUOUS
 10
-67.6823141872
 20
-26.030158461
 11
-63.7323141872
 21
-25.8922214215
  0
LINE
  5
571
100
AcDbEntity
  8
RACCORDO
100
AcDbLine
 62
250
  6
CONTINUOUS
 10
-67.6823141872
 20
-25.5304630475
 11
-63.7323141872
 21
-25.392526008
  0
LINE
  5
572
100
AcDbEntity
  8
RACCORDO
100
AcDbLine
 62
7
  6
CONTINUOUS
 10
-63.7323141872
 20
-24.7922214215
 11
-67.6823141872
 21
-24.930158461
  0
LINE
  5
573
100
AcDbEntity
  8
RACCORDO
100
AcDbLine
 62
250
  6
CONTINUOUS
 10
-89.9601749726
 20
-26.2065798501
 11
-89.9783399311
 21
-26.2069991935
  0
LINE
  5
574
100
AcDbEntity
  8
RACCORDO
100
AcDbLine
 62
250
  6
CONTINUOUS
 10
-89.8558168682
 20
-26.2244232792
 11
-89.8865140819
 21
-26.2248836227
  0
LINE
  5
575
100
AcDbEntity
  8
RACCORDO
100
AcDbLine
 62
250
  6
CONTINUOUS
 10
-90.0381650714
 20
-24.0
 11
-91.0323141872
 21
-24.0
  0
LINE
  5
576
100
AcDbEntity
  8
RACCORDO
100
AcDbLine
 62
7
  6
CONTINUOUS
 10
-89.8834449141
 20
-25.9200535878
 11
-90.0497665937
 21
-25.917150432
  0
LWPOLYLINE
  5
577
100
AcDbEntity
  8
RACCORDO
100
AcDbPolyline
 62
250
  6
CONTINUOUS
 90
13
 70
0
 10
-89.8865140819
 20
-26.2248836227
 10
-89.8885478932
 20
-26.2248192168
 10
-89.8906529701
 20
-26.2246734903
 10
-89.892836451
 20
-26.2244780863
 10
-89.8951146323
 20
-26.2242291669
 10
-89.8975124759
 20
-26.2238870459
 10
-89.9000395792
 20
-26.2234612277
 10
-89.902702798
 20
-26.2229690849
 10
-89.9055200516
 20
-26.2223819872
 10
-89.9084902813
 20
-26.2216993922
 10
-89.9116120633
 20
-26.2209389098
 10
-89.9148970986
 20
-26.2200966136
 10
-89.9183294307
 20
-26.2191542638
  0
LINE
  5
578
100
AcDbEntity
  8
0
100
AcDbLine
 62
7
  6
CONTINUOUS
 10
-87.3414255259
 20
38.7345418457
 11
-87.4441563822
 21
38.399281085
  0
LINE
  5
579
100
AcDbEntity
  8
0
100
AcDbLine
 62
7
  6
CONTINUOUS
 10
-87.0369255335
 20
39.7000000023
 11
-87.053097848
 21
39.648160309
  0
LINE
  5
57A
100
AcDbEntity
  8
0
100
AcDbLine
 62
7
  6
CONTINUOUS
 10
-87.2159540613
 20
39.1369264627
 11
-87.3414255259
 21
38.7345418457
  0
LINE
  5
57B
100
AcDbEntity
  8
0
100
AcDbLine
 62
7
  6
CONTINUOUS
 10
-87.100540636
 20
39.5004965699
 11
-87.2159540613
 21
39.1369264627
  0
LINE
  5
57C
100
AcDbEntity
  8
0
100
AcDbLine
 62
7
  6
CONTINUOUS
 10
-86.9911764277
 20
39.839473103
 11
-87.100540636
 21
39.5004965699
  0
LINE
  5
57D
100
AcDbEntity
  8
RACCORDO
100
AcDbLine
 62
7
  6
CONTINUOUS
 10
-86.9188501611
 20
40.0633467032
 11
-87.0369255335
 21
39.7000000023
  0
LINE
  5
57E
100
AcDbEntity
  8
0
100
AcDbLine
 62
7
  6
CONTINUOUS
 10
-86.8636947763
 20
40.2280936697
 11
-86.9911764277
 21
39.839473103
  0
LWPOLYLINE
  5
57F
100
AcDbEntity
  8
RACCORDO
100
AcDbPolyline
 62
7
  6
CONTINUOUS
 90
16
 70
0
 10
-86.6534992101
 20
40.7672921413
 10
-86.640105056
 20
40.8078166791
 10
-86.6234098804
 20
40.8468309294
 10
-86.6035910024
 20
40.8840782522
 10
-86.5809131071
 20
40.9192246038
 10
-86.5555345738
 20
40.9521651182
 10
-86.5274262501
 20
40.9829640733
 10
-86.4967170711
 20
41.0114266108
 10
-86.4636412202
 20
41.0372862693
 10
-86.4282593895
 20
41.060430099
 10
-86.3907094799
 20
41.080666144
 10
-86.3512963154
 20
41.0977326577
 10
-86.3103457189
 20
41.1114154101
 10
-86.2681667026
 20
41.1215523075
 10
-86.225042081
 20
41.1280177015
 10
-86.1812912438
 20
41.1307037257
  0
LINE
  5
580
100
AcDbEntity
  8
RACCORDO
100
AcDbLine
 62
7
  6
CONTINUOUS
 10
-86.7987723815
 20
40.4260126948
 11
-86.9188501611
 21
40.0633467032
  0
LINE
  5
581
100
AcDbEntity
  8
0
100
AcDbLine
 62
7
  6
CONTINUOUS
 10
-86.7507739975
 20
40.5667085411
 11
-86.8636947763
 21
40.2280936697
  0
LINE
  5
582
100
AcDbEntity
  8
0
100
AcDbLine
 62
7
  6
CONTINUOUS
 10
-86.6761832501
 20
40.7875887976
 11
-86.7507739975
 21
40.5667085411
  0
LINE
  5
583
100
AcDbEntity
  8
RACCORDO
100
AcDbLine
 62
7
  6
CONTINUOUS
 10
-86.6766868888
 20
40.7879974005
 11
-86.7987723815
 21
40.4260126948
  0
LWPOLYLINE
  5
584
100
AcDbEntity
  8
RACCORDO
100
AcDbPolyline
 62
250
  6
CONTINUOUS
 90
13
 70
0
 10
-86.6688194616
 20
-40.7794887529
 10
-87.0960902699
 20
-39.4079092786
 10
-87.4928123032
 20
-38.0646910783
 10
-87.8605262325
 20
-36.7499970689
 10
-88.200259878
 20
-35.4613498311
 10
-88.5112638554
 20
-34.2012562271
 10
-88.7915604664
 20
-32.9772654418
 10
-89.0395599525
 20
-31.798761325
 10
-89.2580069179
 20
-30.6564821449
 10
-89.4511274777
 20
-29.5299772306
 10
-89.6201194479
 20
-28.4124073916
 10
-89.7641844572
 20
-27.3106540573
 10
-89.8845463043
 20
-26.2248466371
  0
LINE
  5
585
100
AcDbEntity
  8
0
100
AcDbLine
 62
7
  6
CONTINUOUS
 10
-89.0855662284
 20
32.1767242543
 11
-89.1520895553
 21
31.8486401246
  0
LINE
  5
586
100
AcDbEntity
  8
RACCORDO
100
AcDbLine
 62
7
  6
CONTINUOUS
 10
-88.6003192684
 20
33.0823944012
 11
-88.5777976266
 21
33.1889562289
  0
LWPOLYLINE
  5
587
100
AcDbEntity
  8
0
100
AcDbPolyline
 62
7
  6
CONTINUOUS
 90
3
 70
0
 10
-89.0506750628
 20
32.343749234
 10
-89.0538330246
 20
32.329087873
 10
-89.0855662284
 20
32.1767242543
  0
LINE
  5
588
100
AcDbEntity
  8
RACCORDO
100
AcDbLine
 62
250
  6
CONTINUOUS
 10
-88.3286301926
 20
34.0915407321
 11
-88.227028405
 21
34.5570566709
  0
LWPOLYLINE
  5
589
100
AcDbEntity
  8
DRAFT
100
AcDbPolyline
 62
7
  6
CONTINUOUS
 90
10
 70
0
 10
-88.4848123907
 20
33.65
 10
-88.355551763
 20
34.2394202762
 10
-88.2199676911
 20
34.8372051925
 10
-88.0780601752
 20
35.4433547491
 10
-87.9298297432
 20
36.0580878174
 10
-87.7752758671
 20
36.6811855258
 10
-87.6143969628
 20
37.3119912598
 10
-87.4471925023
 20
37.9502861477
 10
-87.2736630136
 20
38.5962890611
 10
-87.0938084967
 20
39.25
  0
LWPOLYLINE
  5
58A
100
AcDbEntity
  8
0
100
AcDbPolyline
 62
7
  6
CONTINUOUS
 90
4
 70
0
 10
-89.0326556549
 20
32.4269057923
 10
-89.0417391697
 20
32.3857531917
 10
-89.0459261867
 20
32.366391564
 10
-89.0506750628
 20
32.343749234
  0
LWPOLYLINE
  5
58B
100
AcDbEntity
  8
RACCORDO
100
AcDbPolyline
 62
250
  6
CONTINUOUS
 90
8
 70
0
 10
-88.1195421881
 20
35.0375192342
 10
-88.0057182429
 20
35.5341287449
 10
-87.8853543479
 20
36.0469566914
 10
-87.7582948862
 20
36.5758937461
 10
-87.6241114841
 20
37.1218642515
 10
-87.4826203223
 20
37.6847406191
 10
-87.3335906976
 20
38.2646066042
 10
-87.1764890369
 20
38.8626998784
  0
LWPOLYLINE
  5
58C
100
AcDbEntity
  8
0
100
AcDbPolyline
 62
7
  6
CONTINUOUS
 90
3
 70
0
 10
-89.0276837377
 20
32.4483298532
 10
-89.0306096926
 20
32.4358721431
 10
-89.0326556549
 20
32.4269057923
  0
LWPOLYLINE
  5
58D
100
AcDbEntity
  8
0
100
AcDbPolyline
 62
7
  6
CONTINUOUS
 90
13
 70
0
 10
-88.6176824313
 20
34.0785541795
 10
-88.6785270411
 20
33.8209442257
 10
-88.7394388471
 20
33.5583668104
 10
-88.800673139
 20
33.2893604956
 10
-88.8618152513
 20
33.0153698663
 10
-88.921132302
 20
32.7440455907
 10
-88.9783747702
 20
32.4766871038
 10
-89.0338537989
 20
32.2120014868
 10
-89.0868282512
 20
31.9537668172
 10
-89.1369465032
 20
31.7041334793
 10
-89.1847250181
 20
31.4609685195
 10
-89.2307401371
 20
31.2216266316
 10
-89.3178312353
 20
30.7533500841
  0
LINE
  5
58E
100
AcDbEntity
  8
0
100
AcDbLine
 62
7
  6
CONTINUOUS
 10
-88.4990320935
 20
34.5684950769
 11
-88.6176824313
 21
34.0785541795
  0
LINE
  5
58F
100
AcDbEntity
  8
0
100
AcDbLine
 62
7
  6
CONTINUOUS
 10
-88.3854767572
 20
35.0233750724
 11
-88.4990320935
 21
34.5684950769
  0
LINE
  5
590
100
AcDbEntity
  8
0
100
AcDbLine
 62
7
  6
CONTINUOUS
 10
-88.2796431925
 20
35.43614139
 11
-88.3854767572
 21
35.0233750724
  0
LINE
  5
591
100
AcDbEntity
  8
0
100
AcDbLine
 62
7
  6
CONTINUOUS
 10
-88.1794469258
 20
35.8178088599
 11
-88.2796431925
 21
35.43614139
  0
LINE
  5
592
100
AcDbEntity
  8
0
100
AcDbLine
 62
7
  6
CONTINUOUS
 10
-88.0840523568
 20
36.1735584444
 11
-88.1794469258
 21
35.8178088599
  0
LWPOLYLINE
  5
593
100
AcDbEntity
  8
RACCORDO
100
AcDbPolyline
 62
250
  6
CONTINUOUS
 90
3
 70
0
 10
-87.0109520217
 20
39.4794133872
 10
-86.836747265
 20
40.1142911928
 10
-86.6535074
 20
40.7672944482
  0
LINE
  5
594
100
AcDbEntity
  8
0
100
AcDbLine
 62
7
  6
CONTINUOUS
 10
-87.9917840057
 20
36.5110409807
 11
-88.0840523568
 21
36.1735584444
  0
LWPOLYLINE
  5
595
100
AcDbEntity
  8
RACCORDO
100
AcDbPolyline
 62
7
  6
CONTINUOUS
 90
10
 70
0
 10
-86.6535131286
 20
40.7672963565
 10
-86.9500495575
 20
39.7031740333
 10
-87.2489948193
 20
38.5887448682
 10
-87.5307735175
 20
37.4953964995
 10
-87.795579882
 20
36.4232397604
 10
-88.0434958591
 20
35.3723987608
 10
-88.2745511962
 20
34.3430357714
 10
-88.4887727298
 20
33.3353101854
 10
-88.6862376558
 20
32.3493728043
 10
-88.8356812151
 20
31.5577540189
  0
LINE
  5
596
100
AcDbEntity
  8
0
100
AcDbLine
 62
7
  6
CONTINUOUS
 10
-87.901173407
 20
36.8365180371
 11
-87.9917840057
 21
36.5110409807
  0
LINE
  5
597
100
AcDbEntity
  8
RACCORDO
100
AcDbLine
 62
7
  6
CONTINUOUS
 10
-87.0938084967
 20
39.25
 11
-86.9504657319
 21
39.7600142367
  0
LINE
  5
598
100
AcDbEntity
  8
0
100
AcDbLine
 62
7
  6
CONTINUOUS
 10
-87.7674077413
 20
37.3069486458
 11
-87.901173407
 21
36.8365180371
  0
LINE
  5
599
100
AcDbEntity
  8
RACCORDO
100
AcDbLine
 62
7
  6
CONTINUOUS
 10
-86.9504657319
 20
39.7600142367
 11
-86.8053625971
 21
40.2662600016
  0
LINE
  5
59A
100
AcDbEntity
  8
RACCORDO
100
AcDbLine
 62
250
  6
CONTINUOUS
 10
-88.8336213753
 20
31.5648541066
 11
-88.8356279735
 21
31.5579467868
  0
LINE
  5
59B
100
AcDbEntity
  8
0
100
AcDbLine
 62
7
  6
CONTINUOUS
 10
-87.6378868599
 20
37.7518083583
 11
-87.7674077413
 21
37.3069486458
  0
LINE
  5
59C
100
AcDbEntity
  8
RACCORDO
100
AcDbLine
 62
7
  6
CONTINUOUS
 10
-86.8053625971
 20
40.2662600016
 11
-86.6584753324
 21
40.7688687449
  0
LINE
  5
59D
100
AcDbEntity
  8
0
100
AcDbLine
 62
7
  6
CONTINUOUS
 10
-87.5176766039
 20
38.1559833821
 11
-87.6378868599
 21
37.7518083583
  0
LINE
  5
59E
100
AcDbEntity
  8
0
100
AcDbLine
 62
7
  6
CONTINUOUS
 10
-87.4441563822
 20
38.399281085
 11
-87.5176766039
 21
38.1559833821
  0
LWPOLYLINE
  5
59F
100
AcDbEntity
  8
0
100
AcDbPolyline
 62
7
  6
CONTINUOUS
 90
3
 70
0
 43
0.3500000006
 10
-79.5716004639
 20
52.3208621979
 10
-79.6430316467
 20
52.106577713
 10
-79.7858849487
 20
51.8208620453
  0
LWPOLYLINE
  5
5A0
100
AcDbEntity
  8
0
100
AcDbPolyline
 62
7
  6
CONTINUOUS
 90
3
 70
0
 43
0.3500000006
 10
-76.2394595032
 20
62.3208607178
 10
-76.3108816223
 20
62.1065762329
 10
-76.453743988
 20
61.8208605652
  0
LINE
  5
5A1
100
AcDbEntity
  8
RACCORDO
100
AcDbLine
 62
250
  6
CONTINUOUS
 10
-63.7323141872
 20
-19.0851352455
 11
-67.6823141872
 21
-19.2264761726
  0
LINE
  5
5A2
100
AcDbEntity
  8
RACCORDO
100
AcDbLine
 62
250
  6
CONTINUOUS
 10
-67.6823141872
 20
-18.933678261
 11
-63.7323141872
 21
-18.7933700371
  0
LWPOLYLINE
  5
5A3
100
AcDbEntity
  8
RACCORDO
100
AcDbPolyline
 62
250
  6
CONTINUOUS
 90
13
 70
0
 10
-86.0112540682
 20
-40.7733112406
 10
-86.0019520484
 20
-40.8025607002
 10
-85.9907491934
 20
-40.8313600342
 10
-85.9776596592
 20
-40.8595870537
 10
-85.962703074
 20
-40.8871250707
 10
-85.9459028877
 20
-40.9138624571
 10
-85.9272952387
 20
-40.9396737463
 10
-85.9069236798
 20
-40.9644440242
 10
-85.8848296724
 20
-40.9880744625
 10
-85.8610610682
 20
-41.0104522765
 10
-85.835692488
 20
-41.0314500495
 10
-85.8088158867
 20
-41.0509478397
 10
-85.7805007897
 20
-41.068843016
  0
LWPOLYLINE
  5
5A4
100
AcDbEntity
  8
RACCORDO
100
AcDbPolyline
 62
7
  6
CONTINUOUS
 90
19
 70
0
 10
-86.0188239673
 20
-40.7504158592
 10
-86.0144166485
 20
-40.7679147762
 10
-86.0036928749
 20
-40.8022455213
 10
-85.9902080732
 20
-40.8363526861
 10
-85.9739880661
 20
-40.8698179003
 10
-85.9550152135
 20
-40.902356439
 10
-85.9332797232
 20
-40.9338025628
 10
-85.9089333086
 20
-40.9638304572
 10
-85.8820359851
 20
-40.9922420646
 10
-85.852611161
 20
-41.0188635337
 10
-85.8209102872
 20
-41.0433775405
 10
-85.7870463625
 20
-41.0656044093
 10
-85.7510410695
 20
-41.0854154067
 10
-85.713107351
 20
-41.1025849816
 10
-85.6733098235
 20
-41.1169592997
 10
-85.6318049621
 20
-41.1283328304
 10
-85.5889893563
 20
-41.1364482902
 10
-85.5450372001
 20
-41.1411486908
 10
-85.5232031671
 20
-41.1421658031
  0
LINE
  5
5A5
100
AcDbEntity
  8
RACCORDO
100
AcDbLine
 62
250
  6
CONTINUOUS
 10
-86.0186501414
 20
-40.7437296182
 11
-86.0112540682
 21
-40.7733112406
  0
LWPOLYLINE
  5
5A6
100
AcDbEntity
  8
RACCORDO
100
AcDbPolyline
 62
250
  6
CONTINUOUS
 90
3
 70
0
 10
-86.0521836545
 20
-40.5498770966
 10
-86.0572667815
 20
-40.5283877158
 10
-86.058936788
 20
-40.5152382944
  0
LINE
  5
5A7
100
AcDbEntity
  8
RACCORDO
100
AcDbLine
 62
250
  6
CONTINUOUS
 10
-89.9020670355
 20
-25.7543618931
 11
-89.8558168682
 21
-26.2244232792
  0
LINE
  5
5A8
100
AcDbEntity
  8
RACCORDO
100
AcDbLine
 62
250
  6
CONTINUOUS
 10
-89.9430145784
 20
-25.3021630817
 11
-89.9020670355
 21
-25.7543618931
  0
LWPOLYLINE
  5
5A9
100
AcDbEntity
  8
0
100
AcDbPolyline
 62
7
  6
CONTINUOUS
 90
3
 70
0
 10
-90.0590209059
 20
25.192962586
 10
-90.1908075452
 20
23.7088616851
 10
-90.2912153409
 20
22.2152887296
  0
LINE
  5
5AA
100
AcDbEntity
  8
0
100
AcDbLine
 62
7
  6
CONTINUOUS
 10
-89.9860287729
 20
25.9165007309
 11
-90.026908608
 21
25.4821344189
  0
LINE
  5
5AB
100
AcDbEntity
  8
0
100
AcDbLine
 62
7
  6
CONTINUOUS
 10
-89.9506913272
 20
26.2722608086
 11
-89.9860287729
 21
25.9165007309
  0
LINE
  5
5AC
100
AcDbEntity
  8
0
100
AcDbLine
 62
7
  6
CONTINUOUS
 10
-89.9175836168
 20
26.5890644107
 11
-89.9506913272
 21
26.2722608086
  0
LINE
  5
5AD
100
AcDbEntity
  8
0
100
AcDbLine
 62
7
  6
CONTINUOUS
 10
-90.0064887606
 20
25.7018034689
 11
-90.0590209059
 21
25.192962586
  0
LINE
  5
5AE
100
AcDbEntity
  8
0
100
AcDbLine
 62
7
  6
CONTINUOUS
 10
-89.8777254805
 20
26.951260802
 11
-89.9175836168
 21
26.5890644107
  0
LINE
  5
5AF
100
AcDbEntity
  8
0
100
AcDbLine
 62
7
  6
CONTINUOUS
 10
-90.0094621881
 20
25.6701009887
 11
-90.0158374993
 21
25.6138444112
  0
LINE
  5
5B0
100
AcDbEntity
  8
0
100
AcDbLine
 62
7
  6
CONTINUOUS
 10
-89.8459146132
 20
27.2268180541
 11
-89.8777254805
 21
26.951260802
  0
LINE
  5
5B1
100
AcDbEntity
  8
0
100
AcDbLine
 62
7
  6
CONTINUOUS
 10
-89.8090144003
 20
27.5330423911
 11
-89.8459146132
 21
27.2268180541
  0
LINE
  5
5B2
100
AcDbEntity
  8
0
100
AcDbLine
 62
7
  6
CONTINUOUS
 10
-89.7665304777
 20
27.8696553631
 11
-89.8090144003
 21
27.5330423911
  0
LINE
  5
5B3
100
AcDbEntity
  8
0
100
AcDbLine
 62
7
  6
CONTINUOUS
 10
-89.7188460308
 20
28.2294943669
 11
-89.7665304777
 21
27.8696553631
  0
LINE
  5
5B4
100
AcDbEntity
  8
0
100
AcDbLine
 62
7
  6
CONTINUOUS
 10
-89.665895669
 20
28.6096113696
 11
-89.7188460308
 21
28.2294943669
  0
LINE
  5
5B5
100
AcDbEntity
  8
0
100
AcDbLine
 62
7
  6
CONTINUOUS
 10
-89.6077522509
 20
29.0066774668
 11
-89.665895669
 21
28.6096113696
  0
LWPOLYLINE
  5
5B6
100
AcDbEntity
  8
RACCORDO
100
AcDbPolyline
 62
7
  6
CONTINUOUS
 90
19
 70
0
 10
-88.8356431232
 20
31.5578642452
 10
-88.8384158881
 20
31.5397319795
 10
-88.8405223434
 20
31.5112893007
 10
-88.8399315445
 20
31.4833724011
 10
-88.836770475
 20
31.4559893732
 10
-88.8311760233
 20
31.4294141108
 10
-88.8233846122
 20
31.4041128082
 10
-88.8136261062
 20
31.3802420146
 10
-88.8020930255
 20
31.3578579809
 10
-88.7890773301
 20
31.3371598618
 10
-88.7748657225
 20
31.3182225114
 10
-88.7596436743
 20
31.3010058443
 10
-88.7435062445
 20
31.2854131357
 10
-88.7265999875
 20
31.271412891
 10
-88.7091025974
 20
31.2589807007
 10
-88.6910003833
 20
31.2480009091
 10
-88.6722825441
 20
31.2384437694
 10
-88.6531087827
 20
31.2303660878
 10
-88.6337142384
 20
31.2237161926
  0
LINE
  5
5B7
100
AcDbEntity
  8
0
100
AcDbLine
 62
7
  6
CONTINUOUS
 10
-89.5440239904
 20
29.4208665543
 11
-89.6077522509
 21
29.0066774668
  0
LINE
  5
5B8
100
AcDbEntity
  8
RACCORDO
100
AcDbLine
 62
250
  6
CONTINUOUS
 10
-88.8347252163
 20
31.557805413
 11
-88.8336213753
 21
31.5648541066
  0
LINE
  5
5B9
100
AcDbEntity
  8
0
100
AcDbLine
 62
7
  6
CONTINUOUS
 10
-89.5900550707
 20
29.4059325522
 11
-89.6356894941
 21
29.1174362133
  0
LINE
  5
5BA
100
AcDbEntity
  8
0
100
AcDbLine
 62
7
  6
CONTINUOUS
 10
-89.4744580246
 20
29.8514216202
 11
-89.5440239904
 21
29.4208665543
  0
LINE
  5
5BB
100
AcDbEntity
  8
0
100
AcDbLine
 62
7
  6
CONTINUOUS
 10
-89.5415501497
 20
29.7038228631
 11
-89.5900550707
 21
29.4059325522
  0
LINE
  5
5BC
100
AcDbEntity
  8
0
100
AcDbLine
 62
7
  6
CONTINUOUS
 10
-89.4859448988
 20
30.0352143767
 11
-89.5415501497
 21
29.7038228631
  0
LINE
  5
5BD
100
AcDbEntity
  8
0
100
AcDbLine
 62
7
  6
CONTINUOUS
 10
-89.3989734655
 20
30.296678914
 11
-89.4744580246
 21
29.8514216202
  0
LWPOLYLINE
  5
5BE
100
AcDbEntity
  8
0
100
AcDbPolyline
 62
7
  6
CONTINUOUS
 90
7
 70
0
 10
-89.3639121471
 20
30.7273627632
 10
-89.3673233907
 20
30.7078871003
 10
-89.3688698661
 20
30.6993361083
 10
-89.3701920329
 20
30.6916831098
 10
-89.3712533816
 20
30.6851796698
 10
-89.3720904217
 20
30.6802249386
 10
-89.3727031533
 20
30.6771594118
  0
LINE
  5
5BF
100
AcDbEntity
  8
0
100
AcDbLine
 62
7
  6
CONTINUOUS
 10
-89.3178312353
 20
30.7533500841
 11
-89.3989734655
 21
30.296678914
  0
LINE
  5
5C0
100
AcDbEntity
  8
0
100
AcDbLine
 62
7
  6
CONTINUOUS
 10
-89.3727031533
 20
30.6771594118
 11
-89.3762099935
 21
30.6576616347
  0
LINE
  5
5C1
100
AcDbEntity
  8
RACCORDO
100
AcDbLine
 62
7
  6
CONTINUOUS
 10
-89.0563106804
 20
30.7
 11
-88.9660834685
 21
31.2064921732
  0
LINE
  5
5C2
100
AcDbEntity
  8
0
100
AcDbLine
 62
7
  6
CONTINUOUS
 10
-89.3790816825
 20
30.6427008601
 11
-89.4859448988
 21
30.0352143767
  0
LINE
  5
5C3
100
AcDbEntity
  8
RACCORDO
100
AcDbLine
 62
7
  6
CONTINUOUS
 10
-88.8356279735
 20
31.5579467868
 11
-88.8356456019
 21
31.557851024
  0
LINE
  5
5C4
100
AcDbEntity
  8
0
100
AcDbLine
 62
7
  6
CONTINUOUS
 10
-89.2971193514
 20
31.0948516288
 11
-89.3639121471
 21
30.7273627632
  0
LINE
  5
5C5
100
AcDbEntity
  8
RACCORDO
100
AcDbLine
 62
7
  6
CONTINUOUS
 10
-88.9660834685
 20
31.2064921732
 11
-88.8709957266
 21
31.7191284944
  0
LINE
  5
5C6
100
AcDbEntity
  8
0
100
AcDbLine
 62
7
  6
CONTINUOUS
 10
-89.2459594116
 20
31.366977735
 11
-89.2971193514
 21
31.0948516288
  0
LINE
  5
5C7
100
AcDbEntity
  8
RACCORDO
100
AcDbLine
 62
250
  6
CONTINUOUS
 10
-88.6862376558
 20
32.3493728043
 11
-88.6820693056
 21
32.3673857583
  0
LINE
  5
5C8
100
AcDbEntity
  8
0
100
AcDbLine
 62
7
  6
CONTINUOUS
 10
-89.3762099935
 20
30.6576616347
 11
-89.3790816825
 21
30.6427008601
  0
LINE
  5
5C9
100
AcDbEntity
  8
RACCORDO
100
AcDbLine
 62
7
  6
CONTINUOUS
 10
-88.8709957266
 20
31.7191284944
 11
-88.7709766041
 21
32.2380340438
  0
LINE
  5
5CA
100
AcDbEntity
  8
0
100
AcDbLine
 62
7
  6
CONTINUOUS
 10
-89.1940931982
 20
31.6357350194
 11
-89.2459594116
 21
31.366977735
  0
LINE
  5
5CB
100
AcDbEntity
  8
0
100
AcDbLine
 62
7
  6
CONTINUOUS
 10
-89.1520895553
 20
31.8486401246
 11
-89.1940931982
 21
31.6357350194
  0
LINE
  5
5CC
100
AcDbEntity
  8
RACCORDO
100
AcDbLine
 62
7
  6
CONTINUOUS
 10
-88.7709766041
 20
32.2380340438
 11
-88.665878021
 21
32.7637234517
  0
LINE
  5
5CD
100
AcDbEntity
  8
RACCORDO
100
AcDbLine
 62
7
  6
CONTINUOUS
 10
-88.5162183957
 20
33.4960471747
 11
-88.5777976266
 21
33.1889562289
  0
LINE
  5
5CE
100
AcDbEntity
  8
RACCORDO
100
AcDbLine
 62
7
  6
CONTINUOUS
 10
-88.4848123907
 20
33.65
 11
-88.5162183957
 21
33.4960471747
  0
LINE
  5
5CF
100
AcDbEntity
  8
RACCORDO
100
AcDbLine
 62
250
  6
CONTINUOUS
 10
-88.5143475798
 20
33.2080390605
 11
-88.4242474928
 21
33.6422971686
  0
LINE
  5
5D0
100
AcDbEntity
  8
RACCORDO
100
AcDbLine
 62
7
  6
CONTINUOUS
 10
-88.665878021
 20
32.7637234517
 11
-88.6003192684
 21
33.0823944012
  0
LWPOLYLINE
  5
5D1
100
AcDbEntity
  8
RACCORDO
100
AcDbPolyline
 62
250
  6
CONTINUOUS
 90
7
 70
0
 10
-86.0364554101
 20
-40.6582459799
 10
-86.0338222702
 20
-40.6721823478
 10
-86.0310327039
 20
-40.6863742216
 10
-86.0281174799
 20
-40.7006427675
 10
-86.025087104
 20
-40.7149284004
 10
-86.0219317279
 20
-40.729290775
 10
-86.0186516502
 20
-40.7437299226
  0
LWPOLYLINE
  5
5D2
100
AcDbEntity
  8
RACCORDO
100
AcDbPolyline
 62
7
  6
CONTINUOUS
 90
6
 70
0
 10
-86.536326931
 20
-36.8496696825
 10
-86.4712296885
 20
-37.2480184968
 10
-86.4338198245
 20
-37.4869862322
 10
-86.3978534786
 20
-37.7241396562
 10
-86.3633442163
 20
-37.9589441561
 10
-86.3302978044
 20
-38.1909112807
  0
LWPOLYLINE
  5
5D3
100
AcDbEntity
  8
RACCORDO
100
AcDbPolyline
 62
250
  6
CONTINUOUS
 90
3
 70
0
 10
-86.6932204218
 20
-35.8745518649
 10
-86.4676095749
 20
-37.2518436658
 10
-86.436835361
 20
-37.4478819336
  0
LWPOLYLINE
  5
5D4
100
AcDbEntity
  8
RACCORDO
100
AcDbPolyline
 62
250
  6
CONTINUOUS
 90
3
 70
0
 10
-86.9042092653
 20
-35.8143081313
 10
-86.8318710526
 20
-36.2672567897
 10
-86.7980824981
 20
-36.4878852044
  0
LWPOLYLINE
  5
5D5
100
AcDbEntity
  8
RACCORDO
100
AcDbPolyline
 62
250
  6
CONTINUOUS
 90
5
 70
0
 10
-86.0453427081
 20
-40.605514138
 10
-86.0433832569
 20
-40.6181485082
 10
-86.0412455461
 20
-40.6311684907
 10
-86.0389289575
 20
-40.6445795105
 10
-86.0364554101
 20
-40.6582459799
  0
LINE
  5
5D6
100
AcDbEntity
  8
RACCORDO
100
AcDbLine
 62
7
  6
CONTINUOUS
 10
-89.8566566572
 20
-26.2174796974
 11
-89.855816875
 21
-26.2244232799
  0
LWPOLYLINE
  5
5D7
100
AcDbEntity
  8
RACCORDO
100
AcDbPolyline
 62
250
  6
CONTINUOUS
 90
5
 70
0
 10
-86.0512260348
 20
-40.55989868
 10
-86.0500646345
 20
-40.5704630431
 10
-86.0486995526
 20
-40.5815701965
 10
-86.0471228775
 20
-40.5932707622
 10
-86.0453427081
 20
-40.605514138
  0
LWPOLYLINE
  5
5D8
100
AcDbEntity
  8
RACCORDO
100
AcDbPolyline
 62
7
  6
CONTINUOUS
 90
10
 70
0
 10
-86.0582461517
 20
-40.5228136354
 10
-86.055568376
 20
-40.5476501737
 10
-86.0522461097
 20
-40.5732316095
 10
-86.0483178004
 20
-40.5996900768
 10
-86.0438543415
 20
-40.6267827395
 10
-86.0389463526
 20
-40.6541487601
 10
-86.0336354352
 20
-40.6816823916
 10
-86.0279903156
 20
-40.7091093834
 10
-86.0220810646
 20
-40.7361526633
 10
-86.0188254408
 20
-40.7504128249
  0
LWPOLYLINE
  5
5D9
100
AcDbEntity
  8
RACCORDO
100
AcDbPolyline
 62
250
  6
CONTINUOUS
 90
21
 70
0
 10
-86.507772607
 20
-38.7066449292
 10
-86.4716714744
 20
-39.0484831356
 10
-86.4557022657
 20
-39.2097634241
 10
-86.4411574418
 20
-39.3642757346
 10
-86.4280257016
 20
-39.5120655223
 10
-86.4163769964
 20
-39.6523821025
 10
-86.4062297014
 20
-39.7852524564
 10
-86.3975825403
 20
-39.910651411
 10
-86.3905001262
 20
-40.0277526026
 10
-86.3850032966
 20
-40.1362387083
 10
-86.3811176447
 20
-40.2364319609
 10
-86.378920091
 20
-40.3284658771
 10
-86.378375929
 20
-40.4127549869
 10
-86.3795354833
 20
-40.4888864117
 10
-86.3826056528
 20
-40.5557528128
 10
-86.3876415524
 20
-40.6133754723
 10
-86.3946190995
 20
-40.6617363895
 10
-86.4036569221
 20
-40.6996725293
 10
-86.4148242689
 20
-40.7267993544
 10
-86.42811646
 20
-40.7435082299
 10
-86.4435579261
 20
-40.7498017391
  0
LWPOLYLINE
  5
5DA
100
AcDbEntity
  8
RACCORDO
100
AcDbPolyline
 62
250
  6
CONTINUOUS
 90
4
 70
0
 10
-86.1290718848
 20
-39.774473731
 10
-86.0947988416
 20
-40.0989981737
 10
-86.0794859409
 20
-40.2537792051
 10
-86.0652866236
 20
-40.4040727869
  0
LINE
  5
5DB
100
AcDbEntity
  8
RACCORDO
100
AcDbLine
 62
250
  6
CONTINUOUS
 10
-86.0521836545
 20
-40.5498770966
 11
-86.0512260348
 21
-40.55989868
  0
LINE
  5
5DC
100
AcDbEntity
  8
RACCORDO
100
AcDbLine
 62
250
  6
CONTINUOUS
 10
-86.0652866236
 20
-40.4040727869
 11
-86.0521836545
 21
-40.5498770966
  0
LINE
  5
5DD
100
AcDbEntity
  8
RACCORDO
100
AcDbLine
 62
7
  6
CONTINUOUS
 10
-86.058936788
 20
-40.5152382944
 11
-86.0590058235
 21
-40.5144167271
  0
LINE
  5
5DE
100
AcDbEntity
  8
RACCORDO
100
AcDbLine
 62
250
  6
CONTINUOUS
 10
-89.9796114944
 20
-24.8620600507
 11
-89.9430145784
 21
-25.3021630817
  0
LINE
  5
5DF
100
AcDbEntity
  8
RACCORDO
100
AcDbLine
 62
250
  6
CONTINUOUS
 10
-90.013706339
 20
-24.4140165498
 11
-89.9796114944
 21
-24.8620600507
  0
LINE
  5
5E0
100
AcDbEntity
  8
RACCORDO
100
AcDbLine
 62
250
  6
CONTINUOUS
 10
-90.0462330197
 20
-23.9434122041
 11
-90.013706339
 21
-24.4140165498
  0
LINE
  5
5E1
100
AcDbEntity
  8
RACCORDO
100
AcDbLine
 62
250
  6
CONTINUOUS
 10
-90.0773044809
 20
-23.4430078226
 11
-90.0462330197
 21
-23.9434122041
  0
LWPOLYLINE
  5
5E2
100
AcDbEntity
  8
RACCORDO
100
AcDbPolyline
 62
250
  6
CONTINUOUS
 90
4
 70
0
 10
-90.1344990538
 20
-22.3280422249
 10
-90.1209231971
 20
-22.6221783299
 10
-90.1068488664
 20
-22.9056809018
 10
-90.0773044809
 20
-23.4430078226
  0
LWPOLYLINE
  5
5E3
100
AcDbEntity
  8
RACCORDO
100
AcDbPolyline
 62
250
  6
CONTINUOUS
 90
6
 70
0
 10
-89.8845426558
 20
-26.2248541831
 10
-89.8855493081
 20
-26.2027939605
 10
-89.8841226823
 20
-26.1807903853
 10
-89.8802910906
 20
-26.1591101971
 10
-89.8741154841
 20
-26.1380246968
 10
-89.8656795816
 20
-26.1177742452
  0
LINE
  5
5E4
100
AcDbEntity
  8
RACCORDO
100
AcDbLine
 62
7
  6
CONTINUOUS
 10
-90.1782898817
 20
22.1579504616
 11
-90.1780426844
 21
22.1522510207
  0
LWPOLYLINE
  5
5E5
100
AcDbEntity
  8
RACCORDO
100
AcDbPolyline
 62
250
  6
CONTINUOUS
 90
25
 70
0
 10
-88.2933672352
 20
-19.9406906834
 10
-88.2758190305
 20
-20.3618297007
 10
-88.2562663565
 20
-20.8020049162
 10
-88.2345687469
 20
-21.2598727847
 10
-88.210371338
 20
-21.7379962024
 10
-88.1833923005
 20
-22.2368511924
 10
-88.1533771393
 20
-22.7559050185
 10
-88.1199531519
 20
-23.2962012167
 10
-88.0828118863
 20
-23.8580012681
 10
-88.041672581
 20
-24.4409813857
 10
-87.9961924727
 20
-25.0453059778
 10
-87.9460218568
 20
-25.6711474564
 10
-87.8908415195
 20
-26.3182626753
 10
-87.8303487495
 20
-26.9861921047
 10
-87.7642930102
 20
-27.6740908759
 10
-87.6922630887
 20
-28.3827338815
 10
-87.6136948308
 20
-29.1140890733
 10
-87.5283078282
 20
-29.8675665744
 10
-87.4356968951
 20
-30.6436837642
 10
-87.3350323515
 20
-31.4460611937
 10
-87.2259175974
 20
-32.2746670501
 10
-87.1079631309
 20
-33.1294500207
 10
-86.9802326755
 20
-34.0139890083
 10
-86.8420790629
 20
-34.9294415482
 10
-86.6987600066
 20
-35.8393807878
  0
LINE
  5
5E6
100
AcDbEntity
  8
RACCORDO
100
AcDbLine
 62
250
  6
CONTINUOUS
 10
-90.1600571924
 20
-21.7084945309
 11
-90.1344990538
 21
-22.3280422249
  0
LINE
  5
5E7
100
AcDbEntity
  8
RACCORDO
100
AcDbLine
 62
7
  6
CONTINUOUS
 10
-90.1780426844
 20
22.1522510207
 11
-90.1777976198
 21
22.1456046745
  0
LINE
  5
5E8
100
AcDbEntity
  8
RACCORDO
100
AcDbLine
 62
250
  6
CONTINUOUS
 10
-90.1836146762
 20
-21.0449798026
 11
-90.1600571924
 21
-21.7084945309
  0
LWPOLYLINE
  5
5E9
100
AcDbEntity
  8
RACCORDO
100
AcDbPolyline
 62
7
  6
CONTINUOUS
 90
5
 70
0
 10
-90.2085719727
 20
-20.2326513746
 10
-90.163386116
 20
-21.6221901591
 10
-90.0903514373
 20
-23.2157874888
 10
-89.9866004951
 20
-24.7748687832
 10
-89.8566584413
 20
-26.2174244268
  0
LINE
  5
5EA
100
AcDbEntity
  8
RACCORDO
100
AcDbLine
 62
7
  6
CONTINUOUS
 10
-90.1777976198
 20
22.1456046745
 11
-90.1775600981
 21
22.1380195051
  0
LINE
  5
5EB
100
AcDbEntity
  8
RACCORDO
100
AcDbLine
 62
250
  6
CONTINUOUS
 10
-90.2052858119
 20
-20.3436626369
 11
-90.1836146762
 21
-21.0449798026
  0
LINE
  5
5EC
100
AcDbEntity
  8
RACCORDO
100
AcDbLine
 62
7
  6
CONTINUOUS
 10
-90.2320778421
 20
-19.3583888344
 11
-90.2084858959
 21
-20.2326478821
  0
LWPOLYLINE
  5
5ED
100
AcDbEntity
  8
RACCORDO
100
AcDbPolyline
 62
250
  6
CONTINUOUS
 90
3
 70
0
 10
-90.1773343304
 20
22.1295017077
 10
-90.1769025563
 20
22.1277089963
 10
-90.1769290627
 20
22.1096000665
  0
LINE
  5
5EE
100
AcDbEntity
  8
RACCORDO
100
AcDbLine
 62
7
  6
CONTINUOUS
 10
-90.1775600981
 20
22.1380195051
 11
-90.1772267723
 21
22.1248883046
  0
LINE
  5
5EF
100
AcDbEntity
  8
RACCORDO
100
AcDbLine
 62
7
  6
CONTINUOUS
 10
-90.1772267723
 20
22.1248883046
 11
-90.1769290627
 21
22.1096000665
  0
LWPOLYLINE
  5
5F0
100
AcDbEntity
  8
RACCORDO
100
AcDbPolyline
 62
250
  6
CONTINUOUS
 90
4
 70
0
 10
-90.1828437138
 20
22.2105496146
 10
-90.1825421887
 20
22.1892540299
 10
-90.1799780894
 20
22.1681112794
 10
-90.1784743345
 20
22.1616073579
  0
LINE
  5
5F1
100
AcDbEntity
  8
RACCORDO
100
AcDbLine
 62
250
  6
CONTINUOUS
 10
-90.176754038
 20
22.0981676856
 11
-90.1764352038
 21
22.0944289434
  0
LINE
  5
5F2
100
AcDbEntity
  8
RACCORDO
100
AcDbLine
 62
7
  6
CONTINUOUS
 10
-90.1769290627
 20
22.1096000665
 11
-90.1766742822
 21
22.0920661855
  0
LINE
  5
5F3
100
AcDbEntity
  8
RACCORDO
100
AcDbLine
 62
7
  6
CONTINUOUS
 10
-90.1766742822
 20
22.0920661855
 11
-90.1764122975
 21
22.0649821422
  0
LINE
  5
5F4
100
AcDbEntity
  8
RACCORDO
100
AcDbLine
 62
250
  6
CONTINUOUS
 10
-90.1764352038
 20
22.0944289434
 11
-90.1766742822
 21
22.0920661855
  0
LWPOLYLINE
  5
5F5
100
AcDbEntity
  8
RACCORDO
100
AcDbPolyline
 62
250
  6
CONTINUOUS
 90
3
 70
0
 10
-90.1764122975
 20
22.0649821422
 10
-90.176124851
 20
22.0549632427
 10
-90.1762294521
 20
22.02485944
  0
LWPOLYLINE
  5
5F6
100
AcDbEntity
  8
RACCORDO
100
AcDbPolyline
 62
250
  6
CONTINUOUS
 90
10
 70
0
 10
-89.9601749726
 20
-26.2065798501
 10
-89.9548051707
 20
-27.8064610677
 10
-89.9409025399
 20
-29.4064098654
 10
-89.9184655725
 20
-31.0063807167
 10
-89.8874906656
 20
-32.6064595554
 10
-89.8479777326
 20
-34.2064693083
 10
-89.7999372175
 20
-35.805970069
 10
-89.7433793367
 20
-37.4047850449
 10
-89.6783070651
 20
-39.003000386
 10
-89.6047266567
 20
-40.6005708371
  0
LINE
  5
5F7
100
AcDbEntity
  8
RACCORDO
100
AcDbLine
 62
7
  6
CONTINUOUS
 10
-90.1764122975
 20
22.0649821422
 11
-90.1762294521
 21
22.02485944
  0
LWPOLYLINE
  5
5F8
100
AcDbEntity
  8
RACCORDO
100
AcDbPolyline
 62
7
  6
CONTINUOUS
 90
12
 70
0
 10
-90.4588443144
 20
0.0000939501
 10
-90.4540047329
 20
-1.9092006346
 10
-90.4454277275
 20
-3.8662233403
 10
-90.4326038425
 20
-5.7903494677
 10
-90.4157160829
 20
-7.6815013076
 10
-90.3955760247
 20
-9.5396623829
 10
-90.3728851274
 20
-11.3648287478
 10
-90.3478893072
 20
-13.1571136303
 10
-90.3206705991
 20
-14.9164299724
 10
-90.2909126829
 20
-16.6425871538
 10
-90.2565392439
 20
-18.3356004088
 10
-90.2321137277
 20
-19.3583900121
  0
LINE
  5
5F9
100
AcDbEntity
  8
RACCORDO
100
AcDbLine
 62
250
  6
CONTINUOUS
 10
-90.1762140572
 20
22.0159834789
 11
-90.1760260731
 21
22.0087683032
  0
LINE
  5
5FA
100
AcDbEntity
  8
RACCORDO
100
AcDbLine
 62
7
  6
CONTINUOUS
 10
-91.0323141872
 20
-24.9173027369
 11
-91.0323141872
 21
20.9173027369
  0
LINE
  5
5FB
100
AcDbEntity
  8
RACCORDO
100
AcDbLine
 62
250
  6
CONTINUOUS
 10
-90.0497665937
 20
-25.917150432
 11
-90.0497665937
 21
-23.8256621477
  0
LINE
  5
5FC
100
AcDbEntity
  8
RACCORDO
100
AcDbLine
 62
7
  6
CONTINUOUS
 10
-90.1762294521
 20
22.02485944
 11
-90.1762505191
 21
21.9672982761
  0
LWPOLYLINE
  5
5FD
100
AcDbEntity
  8
RACCORDO
100
AcDbPolyline
 62
7
  6
CONTINUOUS
 90
8
 70
0
 10
-90.2912153215
 20
22.2152887351
 10
-90.2912704096
 20
22.193760903
 10
-90.2890112925
 20
22.1723518632
 10
-90.2844641451
 20
22.1513096666
 10
-90.2776816518
 20
22.1308781134
 10
-90.2687423964
 20
22.1112939291
 10
-90.2577499519
 20
22.0927840214
 10
-90.2448316796
 20
22.0755628507
  0
LINE
  5
5FE
100
AcDbEntity
  8
RACCORDO
100
AcDbLine
 62
7
  6
CONTINUOUS
 10
-90.1762505191
 20
21.9672982761
 11
-90.1767315983
 21
21.87458231
  0
LINE
  5
5FF
100
AcDbEntity
  8
RACCORDO
100
AcDbLine
 62
250
  6
CONTINUOUS
 10
-90.1764572293
 20
21.8955646353
 11
-90.1767315983
 21
21.87458231
  0
LINE
  5
600
100
AcDbEntity
  8
RACCORDO
100
AcDbLine
 62
7
  6
CONTINUOUS
 10
-90.1767315983
 20
21.87458231
 11
-90.1783048109
 21
21.7170724775
  0
LINE
  5
601
100
AcDbEntity
  8
RACCORDO
100
AcDbLine
 62
250
  6
CONTINUOUS
 10
-90.1777535669
 20
21.7561831211
 11
-90.1783048109
 21
21.7170724775
  0
LINE
  5
602
100
AcDbEntity
  8
RACCORDO
100
AcDbLine
 62
7
  6
CONTINUOUS
 10
-90.1783048109
 20
21.7170724775
 11
-90.182276632
 21
21.4452729424
  0
LWPOLYLINE
  5
603
100
AcDbEntity
  8
RACCORDO
100
AcDbPolyline
 62
7
  6
CONTINUOUS
 90
9
 70
0
 10
-90.2611266297
 20
18.1276788497
 10
-90.3007614106
 20
16.0970069334
 10
-90.3352369916
 20
13.9965807017
 10
-90.366710858
 20
11.8261839576
 10
-90.3950361205
 20
9.5858229909
 10
-90.4196687649
 20
7.2755859832
 10
-90.4391467233
 20
4.8954792416
 10
-90.452055218
 20
2.445531886
 10
-90.4588439256
 20
0.0000940496
  0
LINE
  5
604
100
AcDbEntity
  8
RACCORDO
100
AcDbLine
 62
7
  6
CONTINUOUS
 10
-90.182276632
 20
21.4452729424
 11
-90.19159433
 21
20.9577866949
  0
LINE
  5
605
100
AcDbEntity
  8
RACCORDO
100
AcDbLine
 62
250
  6
CONTINUOUS
 10
-90.1903024474
 20
21.0163121907
 11
-90.19159433
 21
20.9577866949
  0
LINE
  5
606
100
AcDbEntity
  8
RACCORDO
100
AcDbLine
 62
250
  6
CONTINUOUS
 10
-90.1921498942
 20
20.9317005068
 11
-90.1924104304
 21
20.9162341909
  0
LINE
  5
607
100
AcDbEntity
  8
RACCORDO
100
AcDbLine
 62
7
  6
CONTINUOUS
 10
-90.19159433
 20
20.9577866949
 11
-90.2039014094
 21
20.424752454
  0
LINE
  5
608
100
AcDbEntity
  8
RACCORDO
100
AcDbLine
 62
250
  6
CONTINUOUS
 10
-90.2021442438
 20
20.4933856732
 11
-90.2039014094
 21
20.424752454
  0
LINE
  5
609
100
AcDbEntity
  8
RACCORDO
100
AcDbLine
 62
250
  6
CONTINUOUS
 10
-88.666113272
 20
17.3934017314
 11
-88.6889710527
 21
16.4757318431
  0
LWPOLYLINE
  5
60A
100
AcDbEntity
  8
RACCORDO
100
AcDbPolyline
 62
250
  6
CONTINUOUS
 90
3
 70
0
 10
-90.2220066583
 20
19.7440124156
 10
-90.2287853799
 20
19.4866107568
 10
-90.2611266297
 20
18.1276788497
  0
LINE
  5
60B
100
AcDbEntity
  8
RACCORDO
100
AcDbLine
 62
7
  6
CONTINUOUS
 10
-90.2039014094
 20
20.424752454
 11
-90.2611266297
 21
18.1276788497
  0
LINE
  5
60C
100
AcDbEntity
  8
RACCORDO
100
AcDbLine
 62
250
  6
CONTINUOUS
 10
-88.6408742651
 20
18.2646934732
 11
-88.666113272
 21
17.3934017314
  0
LINE
  5
60D
100
AcDbEntity
  8
RACCORDO
100
AcDbLine
 62
250
  6
CONTINUOUS
 10
-88.6135099523
 20
19.0845466409
 11
-88.6408742651
 21
18.2646934732
  0
LINE
  5
60E
100
AcDbEntity
  8
RACCORDO
100
AcDbLine
 62
250
  6
CONTINUOUS
 10
-88.5842346419
 20
19.8541673106
 11
-88.6135099523
 21
19.0845466409
  0
LINE
  5
60F
100
AcDbEntity
  8
RACCORDO
100
AcDbLine
 62
250
  6
CONTINUOUS
 10
-88.5528507749
 20
20.5858818904
 11
-88.5842346419
 21
19.8541673106
  0
LINE
  5
610
100
AcDbEntity
  8
RACCORDO
100
AcDbLine
 62
250
  6
CONTINUOUS
 10
-88.5188732565
 20
21.2952558742
 11
-88.5528507749
 21
20.5858818904
  0
LINE
  5
611
100
AcDbEntity
  8
RACCORDO
100
AcDbLine
 62
250
  6
CONTINUOUS
 10
-88.4820043961
 20
21.98997038
 11
-88.5188732565
 21
21.2952558742
  0
LWPOLYLINE
  5
612
100
AcDbEntity
  8
RACCORDO
100
AcDbPolyline
 62
250
  6
CONTINUOUS
 90
9
 70
0
 10
-87.4159652125
 20
31.5246087908
 10
-87.4182695972
 20
31.4966588256
 10
-87.4179950634
 20
31.4686138341
 10
-87.4151440187
 20
31.4407189343
 10
-87.4097413898
 20
31.4132179317
 10
-87.4018344043
 20
31.3863511868
 10
-87.3914921776
 20
31.3603535149
 10
-87.3788051094
 20
31.3354521361
 10
-87.3786688104
 20
31.3352366718
  0
LWPOLYLINE
  5
613
100
AcDbEntity
  8
RACCORDO
100
AcDbPolyline
 62
250
  6
CONTINUOUS
 90
3
 70
0
 10
-87.3804476051
 20
31.0972484319
 10
-87.3843479055
 20
31.0599731113
 10
-87.3888187527
 20
31.0222577452
  0
LWPOLYLINE
  5
614
100
AcDbEntity
  8
RACCORDO
100
AcDbPolyline
 62
7
  6
CONTINUOUS
 90
13
 70
0
 10
-87.393832338
 20
31.02276733
 10
-87.648058724
 20
28.8514267981
 10
-87.8777866607
 20
26.5347108762
 10
-88.0688355479
 20
24.1531718044
 10
-88.2186866203
 20
21.7077678495
 10
-88.3284613284
 20
19.1996563644
 10
-88.4044966568
 20
16.6296843712
 10
-88.4568764085
 20
13.998353238
 10
-88.4938640609
 20
11.3058380288
 10
-88.5197289538
 20
8.5524581197
 10
-88.5369109145
 20
5.7381928983
 10
-88.5458706104
 20
2.862902617
 10
-88.5474072309
 20
0.00077694
  0
LWPOLYLINE
  5
615
100
AcDbEntity
  8
RACCORDO
100
AcDbPolyline
 62
250
  6
CONTINUOUS
 90
29
 70
0
 10
-87.3888187527
 20
31.0222577452
 10
-87.4505667258
 20
30.5216920184
 10
-87.5117916817
 20
30.0089475177
 10
-87.5723351989
 20
29.484007491
 10
-87.6315106184
 20
28.9516849238
 10
-87.6897122987
 20
28.4071359216
 10
-87.7482092578
 20
27.8358378887
 10
-87.8073574329
 20
27.2301416104
 10
-87.8659782695
 20
26.5976093145
 10
-87.9229517373
 20
25.9465263369
 10
-87.97807944
 20
25.275778965
 10
-88.0309890456
 20
24.5864205603
 10
-88.0806224812
 20
23.8900212105
 10
-88.1268168328
 20
23.1881090353
 10
-88.1696301898
 20
22.4791448305
 10
-88.2086873034
 20
21.7701348473
 10
-88.2440789285
 20
21.062827723
 10
-88.2760883819
 20
20.3555143762
 10
-88.3048367337
 20
19.65003642
 10
-88.3305323357
 20
18.9473656297
 10
-88.3534884152
 20
18.2465853838
 10
-88.3740138761
 20
17.5467079274
 10
-88.3923609307
 20
16.8478862308
 10
-88.4087855978
 20
16.150021066
 10
-88.4235776415
 20
15.4517437532
 10
-88.4369867224
 20
14.7526514447
 10
-88.449195554
 20
14.0531927091
 10
-88.460305562
 20
13.3532666938
 10
-88.4795740772
 20
11.9504057008
  0
LWPOLYLINE
  5
616
100
AcDbEntity
  8
RACCORDO
100
AcDbPolyline
 62
250
  6
CONTINUOUS
 90
24
 70
0
 10
-87.67504872
 20
30.6999998888
 10
-87.7288169672
 20
30.2814258616
 10
-87.7801699088
 20
29.8704196407
 10
-87.8291755122
 20
29.4669884132
 10
-87.8758415063
 20
29.0716453468
 10
-87.9202983957
 20
28.6838918911
 10
-87.9627829662
 20
28.3022160339
 10
-88.0033473245
 20
27.9266251573
 10
-88.0420463729
 20
27.5571231948
 10
-88.0790934386
 20
27.1921900359
 10
-88.1145293547
 20
26.8318603272
 10
-88.1483997296
 20
26.4761085629
 10
-88.1808954715
 20
26.1233212769
 10
-88.2120447524
 20
25.7734973128
 10
-88.2418741694
 20
25.4266436186
 10
-88.2705441598
 20
25.081155912
 10
-88.2980836392
 20
24.736905263
 10
-88.3245006225
 20
24.3940245068
 10
-88.3499032825
 20
24.0512997976
 10
-88.374313652
 20
23.708543994
 10
-88.3977261485
 20
23.3659459769
 10
-88.4201916378
 20
23.0228542543
 10
-88.441703894
 20
22.679426907
 10
-88.4820043961
 20
21.98997038
  0
LINE
  5
617
100
AcDbEntity
  8
RACCORDO
100
AcDbLine
 62
250
  6
CONTINUOUS
 10
-86.436835361
 20
-37.4478819336
 11
-86.3794644087
 21
-37.8281121466
  0
LINE
  5
618
100
AcDbEntity
  8
RACCORDO
100
AcDbLine
 62
250
  6
CONTINUOUS
 10
-86.7980824981
 20
-36.4878852044
 11
-86.7346700476
 21
-36.9197075216
  0
LINE
  5
619
100
AcDbEntity
  8
RACCORDO
100
AcDbLine
 62
250
  6
CONTINUOUS
 10
-86.3794644087
 20
-37.8281121466
 11
-86.3259250241
 21
-38.2014620436
  0
LINE
  5
61A
100
AcDbEntity
  8
RACCORDO
100
AcDbLine
 62
250
  6
CONTINUOUS
 10
-86.7346700476
 20
-36.9197075216
 11
-86.675527577
 21
-37.3444262579
  0
LINE
  5
61B
100
AcDbEntity
  8
RACCORDO
100
AcDbLine
 62
250
  6
CONTINUOUS
 10
-86.3259250241
 20
-38.2014620436
 11
-86.2757883704
 21
-38.5685766045
  0
LINE
  5
61C
100
AcDbEntity
  8
RACCORDO
100
AcDbLine
 62
7
  6
CONTINUOUS
 10
-86.3302978044
 20
-38.1909112807
 11
-86.2686610008
 21
-38.6441610534
  0
LINE
  5
61D
100
AcDbEntity
  8
RACCORDO
100
AcDbLine
 62
250
  6
CONTINUOUS
 10
-86.675527577
 20
-37.3444262579
 11
-86.6212680303
 21
-37.7557362981
  0
LINE
  5
61E
100
AcDbEntity
  8
RACCORDO
100
AcDbLine
 62
250
  6
CONTINUOUS
 10
-86.2757883704
 20
-38.5685766045
 11
-86.2297643705
 21
-38.9227511772
  0
LINE
  5
61F
100
AcDbEntity
  8
RACCORDO
100
AcDbLine
 62
7
  6
CONTINUOUS
 10
-86.2686610008
 20
-38.6441610534
 11
-86.2130813369
 21
-39.0795736407
  0
LINE
  5
620
100
AcDbEntity
  8
RACCORDO
100
AcDbLine
 62
250
  6
CONTINUOUS
 10
-86.6212680303
 20
-37.7557362981
 11
-86.5719710859
 21
-38.151043671
  0
LINE
  5
621
100
AcDbEntity
  8
RACCORDO
100
AcDbLine
 62
250
  6
CONTINUOUS
 10
-86.2297643705
 20
-38.9227511772
 11
-86.1871022026
 21
-39.268934566
  0
LWPOLYLINE
  5
622
100
AcDbEntity
  8
RACCORDO
100
AcDbPolyline
 62
7
  6
CONTINUOUS
 90
8
 70
0
 10
-86.2130813369
 20
-39.0795736407
 10
-86.1636955817
 20
-39.4931110178
 10
-86.1413780341
 20
-39.6904701133
 10
-86.1206762381
 20
-39.8809494775
 10
-86.1016166064
 20
-40.06414196
 10
-86.0842280169
 20
-40.2396198943
 10
-86.0685500732
 20
-40.4069392525
 10
-86.0582461517
 20
-40.5228136354
  0
LWPOLYLINE
  5
623
100
AcDbEntity
  8
RACCORDO
100
AcDbPolyline
 62
250
  6
CONTINUOUS
 90
3
 70
0
 10
-86.5719710859
 20
-38.151043671
 10
-86.5278464642
 20
-38.526942234
 10
-86.507772607
 20
-38.7066449292
  0
LWPOLYLINE
  5
624
100
AcDbEntity
  8
RACCORDO
100
AcDbPolyline
 62
250
  6
CONTINUOUS
 90
3
 70
0
 10
-86.1871022026
 20
-39.268934566
 10
-86.1475942558
 20
-39.6077489095
 10
-86.1290718848
 20
-39.774473731
  0
LWPOLYLINE
  5
625
100
AcDbEntity
  8
RACCORDO
100
AcDbPolyline
 62
7
  6
CONTINUOUS
 90
9
 70
0
 10
-90.1789954942
 20
22.1696480354
 10
-90.1790173687
 20
22.1698498274
 10
-90.1790241664
 20
22.1699154872
 10
-90.1789890083
 20
22.1695267528
 10
-90.178928857
 20
22.1687967882
 10
-90.1788489054
 20
22.1677356331
 10
-90.1787515186
 20
22.1663227298
 10
-90.1786447293
 20
22.1646315273
 10
-90.178531203
 20
22.1626738395
  0
LWPOLYLINE
  5
626
100
AcDbEntity
  8
RACCORDO
100
AcDbPolyline
 62
250
  6
CONTINUOUS
 90
37
 70
0
 10
-85.2045153112
 20
-34.0747064781
 10
-85.094491764
 20
-35.4454298752
 10
-85.0775087176
 20
-35.6865528475
 10
-85.0626441991
 20
-35.922637834
 10
-85.0499412049
 20
-36.1527514039
 10
-85.0392563447
 20
-36.3778163721
 10
-85.0302506377
 20
-36.6006108254
 10
-85.0227542381
 20
-36.8224443942
 10
-85.0168089075
 20
-37.041993904
 10
-85.0123907427
 20
-37.2580879885
 10
-85.0094552497
 20
-37.4706991119
 10
-85.0079362477
 20
-37.6798431068
 10
-85.0077954927
 20
-37.8844155831
 10
-85.0089961719
 20
-38.0843480282
 10
-85.0114892185
 20
-38.2796998734
 10
-85.0152392967
 20
-38.4695608956
 10
-85.0202114475
 20
-38.6538360366
 10
-85.026384755
 20
-38.8326144462
 10
-85.0337633814
 20
-39.0052641619
 10
-85.0423111523
 20
-39.1717812056
 10
-85.0520336949
 20
-39.3321663252
 10
-85.0630119798
 20
-39.4857961395
 10
-85.0752338277
 20
-39.6328512783
 10
-85.0887042926
 20
-39.7731503583
 10
-85.1035492093
 20
-39.905528989
 10
-85.119819783
 20
-40.0301811304
 10
-85.1374955527
 20
-40.1469160736
 10
-85.1566334647
 20
-40.2539965075
 10
-85.1773373836
 20
-40.3513372944
 10
-85.1995992966
 20
-40.4390337077
 10
-85.2233601057
 20
-40.5156245274
 10
-85.2487251392
 20
-40.5808687496
 10
-85.2757418116
 20
-40.6350235299
 10
-85.3043044393
 20
-40.6773791472
 10
-85.3344425352
 20
-40.7077058737
 10
-85.3663026506
 20
-40.726252055
 10
-85.3999648855
 20
-40.7330261611
  0
LWPOLYLINE
  5
627
100
AcDbEntity
  8
RACCORDO
100
AcDbPolyline
 62
250
  6
CONTINUOUS
 90
37
 70
0
 10
-84.6350364664
 20
-35.1586075323
 10
-84.6161638613
 20
-35.425892113
 10
-84.5993342275
 20
-35.6884916829
 10
-84.5845494454
 20
-35.945938802
 10
-84.5719599675
 20
-36.1964018843
 10
-84.5614244226
 20
-36.4409426689
 10
-84.5524973331
 20
-36.6833996487
 10
-84.5450627115
 20
-36.9247292304
 10
-84.5392223459
 20
-37.1630953287
 10
-84.5348470727
 20
-37.3980499686
 10
-84.5319317093
 20
-37.6291678824
 10
-84.5304721993
 20
-37.8560463232
 10
-84.5303417615
 20
-38.0782807421
 10
-84.531527934
 20
-38.2954163746
 10
-84.5340365775
 20
-38.507123271
 10
-84.5377684417
 20
-38.7131824039
 10
-84.5426981882
 20
-38.9130868924
 10
-84.5488461474
 20
-39.1065858557
 10
-84.55617958
 20
-39.2937895691
 10
-84.5646591583
 20
-39.4741924739
 10
-84.5743177274
 20
-39.6474761356
 10
-84.5852261683
 20
-39.8138885002
 10
-84.5973515292
 20
-39.9730073336
 10
-84.6107160525
 20
-40.1242349999
 10
-84.6254689218
 20
-40.2673927641
 10
-84.6416118383
 20
-40.4021049116
 10
-84.6591313014
 20
-40.5275711568
 10
-84.6781545455
 20
-40.6429800554
 10
-84.6987046622
 20
-40.747909939
 10
-84.7207552514
 20
-40.8417936623
 10
-84.7443659445
 20
-40.9238403072
 10
-84.7695495953
 20
-40.9937161516
 10
-84.7963025525
 20
-41.0512048328
 10
-84.8246662755
 20
-41.0959670734
 10
-84.8546609659
 20
-41.1278518357
 10
-84.8862834443
 20
-41.1467970831
 10
-84.9195428912
 20
-41.1527276252
  0
LINE
  5
628
100
AcDbEntity
  8
RACCORDO
100
AcDbLine
 62
7
  6
CONTINUOUS
 10
-90.178531203
 20
22.1626738395
 11
-90.1782898817
 21
22.1579504616
  0
LWPOLYLINE
  5
629
100
AcDbEntity
  8
RACCORDO
100
AcDbPolyline
 62
250
  6
CONTINUOUS
 90
4
 70
0
 10
-88.8388991393
 20
31.4782633125
 10
-88.839942504
 20
31.5064586183
 10
-88.8382360009
 20
31.5353869256
 10
-88.8384158881
 20
31.5397319795
  0
LINE
  5
62A
100
AcDbEntity
  8
RACCORDO
100
AcDbLine
 62
250
  6
CONTINUOUS
 10
-88.3235833544
 20
-19.1450684925
 11
-88.2933672352
 21
-19.9406906834
  0
LINE
  5
62B
100
AcDbEntity
  8
RACCORDO
100
AcDbLine
 62
250
  6
CONTINUOUS
 10
-88.3488468706
 20
-18.394698241
 11
-88.3235833544
 21
-19.1450684925
  0
LINE
  5
62C
100
AcDbEntity
  8
RACCORDO
100
AcDbLine
 62
250
  6
CONTINUOUS
 10
-88.3706465837
 20
-17.66701452
 11
-88.3488468706
 21
-18.394698241
  0
LINE
  5
62D
100
AcDbEntity
  8
RACCORDO
100
AcDbLine
 62
250
  6
CONTINUOUS
 10
-88.3898237827
 20
-16.9491699621
 11
-88.3706465837
 21
-17.66701452
  0
LWPOLYLINE
  5
62E
100
AcDbEntity
  8
RACCORDO
100
AcDbPolyline
 62
250
  6
CONTINUOUS
 90
20
 70
0
 10
-86.0042340159
 20
-17.712576231
 10
-85.98717891
 20
-18.447179131
 10
-85.9688605897
 20
-19.1856862953
 10
-85.9491496504
 20
-19.9271053462
 10
-85.9278471833
 20
-20.6723939443
 10
-85.9045933451
 20
-21.4271621676
 10
-85.8792095554
 20
-22.190577587
 10
-85.8514483591
 20
-22.9634275809
 10
-85.8207961413
 20
-23.7537466029
 10
-85.7870668236
 20
-24.5616320741
 10
-85.7500792997
 20
-25.3869477459
 10
-85.7092446446
 20
-26.2373688149
 10
-85.6642682181
 20
-27.1138236277
 10
-85.6149473652
 20
-28.0153312517
 10
-85.5607286425
 20
-28.9466921265
 10
-85.5013035534
 20
-29.9083902818
 10
-85.4364308706
 20
-30.8998835578
 10
-85.3655885333
 20
-31.9244257578
 10
-85.2883682634
 20
-32.9830767115
 10
-85.2045153112
 20
-34.0747064781
  0
LINE
  5
62F
100
AcDbEntity
  8
RACCORDO
100
AcDbLine
 62
250
  6
CONTINUOUS
 10
-88.4152363134
 20
-15.8543391674
 11
-88.3898237827
 21
-16.9491699621
  0
LINE
  5
630
100
AcDbEntity
  8
RACCORDO
100
AcDbLine
 62
250
  6
CONTINUOUS
 10
-86.0353220073
 20
-16.246831564
 11
-86.0042340159
 21
-17.712576231
  0
LINE
  5
631
100
AcDbEntity
  8
RACCORDO
100
AcDbLine
 62
250
  6
CONTINUOUS
 10
-88.437076932
 20
-14.7475953789
 11
-88.4152363134
 21
-15.8543391674
  0
LINE
  5
632
100
AcDbEntity
  8
RACCORDO
100
AcDbLine
 62
250
  6
CONTINUOUS
 10
-86.0633649314
 20
-14.7837493711
 11
-86.0353220073
 21
-16.246831564
  0
LINE
  5
633
100
AcDbEntity
  8
RACCORDO
100
AcDbLine
 62
250
  6
CONTINUOUS
 10
-86.0893340626
 20
-13.3183358264
 11
-86.0633649314
 21
-14.7837493711
  0
LINE
  5
634
100
AcDbEntity
  8
RACCORDO
100
AcDbLine
 62
250
  6
CONTINUOUS
 10
-86.1133850408
 20
-11.838872096
 11
-86.0893340626
 21
-13.3183358264
  0
LINE
  5
635
100
AcDbEntity
  8
RACCORDO
100
AcDbLine
 62
250
  6
CONTINUOUS
 10
-88.4614099508
 20
-13.2798718069
 11
-88.437076932
 21
-14.7475953789
  0
LINE
  5
636
100
AcDbEntity
  8
RACCORDO
100
AcDbLine
 62
250
  6
CONTINUOUS
 10
-86.1352835034
 20
-10.3362750908
 11
-86.1133850408
 21
-11.838872096
  0
LWPOLYLINE
  5
637
100
AcDbEntity
  8
RACCORDO
100
AcDbPolyline
 62
250
  6
CONTINUOUS
 90
32
 70
0
 10
-88.7570144094
 20
-12.522704643
 10
-88.7474789978
 20
-13.2404562904
 10
-88.7368513911
 20
-13.9576318718
 10
-88.725023309
 20
-14.6745666497
 10
-88.7118508333
 20
-15.3925094291
 10
-88.6971062481
 20
-16.1119575868
 10
-88.6805073331
 20
-16.8323598234
 10
-88.6617531462
 20
-17.5533839703
 10
-88.6405466625
 20
-18.2751474755
 10
-88.6165971523
 20
-18.9974707395
 10
-88.5896212361
 20
-19.7195768817
 10
-88.5593394097
 20
-20.4412534647
 10
-88.5254998343
 20
-21.1626567395
 10
-88.4878897816
 20
-21.8835659405
 10
-88.4463175028
 20
-22.6036628887
 10
-88.4005764282
 20
-23.3232236432
 10
-88.3505113403
 20
-24.0429272272
 10
-88.2960046574
 20
-24.7633341083
 10
-88.2370245543
 20
-25.4838680201
 10
-88.1736047326
 20
-26.2035092597
 10
-88.106018414
 20
-26.9194765269
 10
-88.0340374192
 20
-27.6345558848
 10
-87.9568654447
 20
-28.3560704387
 10
-87.8745906051
 20
-29.0824022355
 10
-87.7869706423
 20
-29.8151529283
 10
-87.6923668692
 20
-30.5664383571
 10
-87.5904368979
 20
-31.3366805869
 10
-87.4809653788
 20
-32.1253985752
 10
-87.3620874354
 20
-32.9433094311
 10
-87.2327930865
 20
-33.7939444582
 10
-87.0931523883
 20
-34.6736729616
 10
-86.9042092653
 20
-35.8143081313
  0
LINE
  5
638
100
AcDbEntity
  8
RACCORDO
100
AcDbLine
 62
250
  6
CONTINUOUS
 10
-88.4810134211
 20
-11.8336805744
 11
-88.4614099508
 21
-13.2798718069
  0
LINE
  5
639
100
AcDbEntity
  8
RACCORDO
100
AcDbLine
 62
250
  6
CONTINUOUS
 10
-86.154799854
 20
-8.7939744824
 11
-86.1352835034
 21
-10.3362750908
  0
LINE
  5
63A
100
AcDbEntity
  8
RACCORDO
100
AcDbLine
 62
250
  6
CONTINUOUS
 10
-88.7732067122
 20
-11.0863314938
 11
-88.7570144094
 21
-12.522704643
  0
LINE
  5
63B
100
AcDbEntity
  8
RACCORDO
100
AcDbLine
 62
250
  6
CONTINUOUS
 10
-88.5015555546
 20
-9.9182344576
 11
-88.4810134211
 21
-11.8336805744
  0
LINE
  5
63C
100
AcDbEntity
  8
RACCORDO
100
AcDbLine
 62
250
  6
CONTINUOUS
 10
-88.7862775993
 20
-9.6465620488
 11
-88.7732067122
 21
-11.0863314938
  0
LINE
  5
63D
100
AcDbEntity
  8
RACCORDO
100
AcDbLine
 62
250
  6
CONTINUOUS
 10
-88.5163490284
 20
-8.1349449033
 11
-88.5015555546
 21
-9.9182344576
  0
LINE
  5
63E
100
AcDbEntity
  8
RACCORDO
100
AcDbLine
 62
250
  6
CONTINUOUS
 10
-88.7968355685
 20
-8.2136694144
 11
-88.7862775993
 21
-9.6465620488
  0
LINE
  5
63F
100
AcDbEntity
  8
RACCORDO
100
AcDbLine
 62
250
  6
CONTINUOUS
 10
-88.5261989151
 20
-6.5878698014
 11
-88.5163490284
 21
-8.1349449033
  0
LINE
  5
640
100
AcDbEntity
  8
RACCORDO
100
AcDbLine
 62
250
  6
CONTINUOUS
 10
-88.8051574295
 20
-6.7880409316
 11
-88.7968355685
 21
-8.2136694144
  0
LWPOLYLINE
  5
641
100
AcDbEntity
  8
RACCORDO
100
AcDbPolyline
 62
250
  6
CONTINUOUS
 90
6
 70
0
 10
-86.1945191893
 20
-3.7907228361
 10
-86.190330924
 20
-4.6713142607
 10
-86.1850426955
 20
-5.5321461964
 10
-86.1787529588
 20
-6.3738821565
 10
-86.1715725262
 20
-7.1958807566
 10
-86.154799854
 20
-8.7939744824
  0
LINE
  5
642
100
AcDbEntity
  8
RACCORDO
100
AcDbLine
 62
250
  6
CONTINUOUS
 10
-88.5341474902
 20
-4.8513420719
 11
-88.5261989151
 21
-6.5878698014
  0
LINE
  5
643
100
AcDbEntity
  8
RACCORDO
100
AcDbLine
 62
250
  6
CONTINUOUS
 10
-88.8139141816
 20
-4.6473657263
 11
-88.8051574295
 21
-6.7880409316
  0
LINE
  5
644
100
AcDbEntity
  8
RACCORDO
100
AcDbLine
 62
250
  6
CONTINUOUS
 10
-86.2000352171
 20
-1.9487370009
 11
-86.1945191893
 21
-3.7907228361
  0
LINE
  5
645
100
AcDbEntity
  8
RACCORDO
100
AcDbLine
 62
250
  6
CONTINUOUS
 10
-88.5394008472
 20
-2.9152127093
 11
-88.5341474902
 21
-4.8513420719
  0
LINE
  5
646
100
AcDbEntity
  8
RACCORDO
100
AcDbLine
 62
250
  6
CONTINUOUS
 10
-88.8187300433
 20
-2.4149156913
 11
-88.8139141816
 21
-4.6473657263
  0
LINE
  5
647
100
AcDbEntity
  8
RACCORDO
100
AcDbLine
 62
250
  6
CONTINUOUS
 10
-86.2031846316
 20
0.0001140634
 11
-86.2000352171
 21
-1.9487370009
  0
LWPOLYLINE
  5
648
100
AcDbEntity
  8
RACCORDO
100
AcDbPolyline
 62
7
  6
CONTINUOUS
 90
16
 70
0
 10
-88.5474071367
 20
0.000809985
 10
-88.546116008
 20
-2.716725705
 10
-88.5381018243
 20
-5.4684496889
 10
-88.5225649768
 20
-8.1736727035
 10
-88.499040773
 20
-10.8324761586
 10
-88.4656378672
 20
-13.4449265231
 10
-88.4186718174
 20
-16.010746851
 10
-88.3513486818
 20
-18.5299459162
 10
-88.2537333578
 20
-21.0021790882
 10
-88.1181478913
 20
-23.4266362796
 10
-87.9414138658
 20
-25.8019877476
 10
-87.7245110324
 20
-28.1272911068
 10
-87.4702655766
 20
-30.4022114422
 10
-87.1826182227
 20
-32.6264943209
 10
-86.8658797107
 20
-34.7999423571
 10
-86.5363269294
 20
-36.8496696921
  0
LINE
  5
649
100
AcDbEntity
  8
RACCORDO
100
AcDbLine
 62
250
  6
CONTINUOUS
 10
-88.8196744904
 20
-0.8253556957
 11
-88.8187300433
 21
-2.4149156913
  0
LINE
  5
64A
100
AcDbEntity
  8
RACCORDO
100
AcDbLine
 62
250
  6
CONTINUOUS
 10
-88.5412698569
 20
-0.7647299836
 11
-88.5394008472
 21
-2.9152127093
  0
LINE
  5
64B
100
AcDbEntity
  8
RACCORDO
100
AcDbLine
 62
250
  6
CONTINUOUS
 10
-88.5409035285
 20
1.7388600492
 11
-88.5412698569
 21
-0.7647299836
  0
LINE
  5
64C
100
AcDbEntity
  8
RACCORDO
100
AcDbLine
 62
250
  6
CONTINUOUS
 10
-88.5384816904
 20
3.3733141098
 11
-88.5409035285
 21
1.7388600492
  0
LINE
  5
64D
100
AcDbEntity
  8
RACCORDO
100
AcDbLine
 62
250
  6
CONTINUOUS
 10
-88.8166906536
 20
3.6032614334
 11
-88.8196744904
 21
-0.8253556957
  0
LINE
  5
64E
100
AcDbEntity
  8
RACCORDO
100
AcDbLine
 62
250
  6
CONTINUOUS
 10
-86.1985290833
 20
2.5865496675
 11
-86.2031843681
 21
0.0001140632
  0
LINE
  5
64F
100
AcDbEntity
  8
RACCORDO
100
AcDbLine
 62
250
  6
CONTINUOUS
 10
-88.533927115
 20
4.9109088344
 11
-88.5384816904
 21
3.3733141098
  0
LINE
  5
650
100
AcDbEntity
  8
RACCORDO
100
AcDbLine
 62
250
  6
CONTINUOUS
 10
-86.1927487948
 20
4.1936433558
 11
-86.1985290833
 21
2.5865496675
  0
LINE
  5
651
100
AcDbEntity
  8
RACCORDO
100
AcDbLine
 62
250
  6
CONTINUOUS
 10
-88.8053986648
 20
6.7406276926
 11
-88.8166906536
 21
3.6032614334
  0
LINE
  5
652
100
AcDbEntity
  8
RACCORDO
100
AcDbLine
 62
250
  6
CONTINUOUS
 10
-88.5273539434
 20
6.3734544361
 11
-88.533927115
 21
4.9109088344
  0
LINE
  5
653
100
AcDbEntity
  8
RACCORDO
100
AcDbLine
 62
250
  6
CONTINUOUS
 10
-88.5188122983
 20
7.7852221767
 11
-88.5273539434
 21
6.3734544361
  0
LINE
  5
654
100
AcDbEntity
  8
RACCORDO
100
AcDbLine
 62
250
  6
CONTINUOUS
 10
-86.1837785064
 20
5.7138302064
 11
-86.1927487948
 21
4.1936433558
  0
LINE
  5
655
100
AcDbEntity
  8
RACCORDO
100
AcDbLine
 62
250
  6
CONTINUOUS
 10
-88.7875120893
 20
9.4938841338
 11
-88.8053986648
 21
6.7406276926
  0
LINE
  5
656
100
AcDbEntity
  8
RACCORDO
100
AcDbLine
 62
250
  6
CONTINUOUS
 10
-88.5082641745
 20
9.1653215027
 11
-88.5188122983
 21
7.7852221767
  0
LINE
  5
657
100
AcDbEntity
  8
RACCORDO
100
AcDbLine
 62
250
  6
CONTINUOUS
 10
-86.1719778624
 20
7.1523310316
 11
-86.1837785064
 21
5.7138302064
  0
LINE
  5
658
100
AcDbEntity
  8
RACCORDO
100
AcDbLine
 62
250
  6
CONTINUOUS
 10
-88.4953327224
 20
10.5540750124
 11
-88.5082641745
 21
9.1653215027
  0
LINE
  5
659
100
AcDbEntity
  8
RACCORDO
100
AcDbLine
 62
250
  6
CONTINUOUS
 10
-88.7670108165
 20
11.6739772645
 11
-88.7875120893
 21
9.4938841338
  0
LINE
  5
65A
100
AcDbEntity
  8
RACCORDO
100
AcDbLine
 62
250
  6
CONTINUOUS
 10
-86.157976746
 20
8.5159912978
 11
-86.1719778624
 21
7.1523310316
  0
LINE
  5
65B
100
AcDbEntity
  8
RACCORDO
100
AcDbLine
 62
250
  6
CONTINUOUS
 10
-88.4795740772
 20
11.9504057008
 11
-88.4953327224
 21
10.5540750124
  0
LINE
  5
65C
100
AcDbEntity
  8
RACCORDO
100
AcDbLine
 62
250
  6
CONTINUOUS
 10
-86.1420394832
 20
9.8297294345
 11
-86.157976746
 21
8.5159912978
  0
LINE
  5
65D
100
AcDbEntity
  8
RACCORDO
100
AcDbLine
 62
250
  6
CONTINUOUS
 10
-88.7525417179
 20
12.8692400004
 11
-88.7670108165
 21
11.6739772645
  0
LINE
  5
65E
100
AcDbEntity
  8
RACCORDO
100
AcDbLine
 62
250
  6
CONTINUOUS
 10
-86.1243450902
 20
11.1099196315
 11
-86.1420394832
 21
9.8297294345
  0
LINE
  5
65F
100
AcDbEntity
  8
RACCORDO
100
AcDbLine
 62
250
  6
CONTINUOUS
 10
-88.733572896
 20
14.164082106
 11
-88.7525417179
 21
12.8692400004
  0
LINE
  5
660
100
AcDbEntity
  8
RACCORDO
100
AcDbLine
 62
250
  6
CONTINUOUS
 10
-86.0942530544
 20
13.0269372551
 11
-86.1243450902
 21
11.1099196315
  0
LINE
  5
661
100
AcDbEntity
  8
RACCORDO
100
AcDbLine
 62
250
  6
CONTINUOUS
 10
-88.7178402846
 20
15.0754241473
 11
-88.733572896
 21
14.164082106
  0
LINE
  5
662
100
AcDbEntity
  8
RACCORDO
100
AcDbLine
 62
250
  6
CONTINUOUS
 10
-86.0597826088
 20
14.9776320363
 11
-86.0942530544
 21
13.0269372551
  0
LINE
  5
663
100
AcDbEntity
  8
RACCORDO
100
AcDbLine
 62
250
  6
CONTINUOUS
 10
-86.0342362998
 20
16.3008637414
 11
-86.0597826088
 21
14.9776320363
  0
LINE
  5
664
100
AcDbEntity
  8
RACCORDO
100
AcDbLine
 62
250
  6
CONTINUOUS
 10
-86.0059640872
 20
17.6353370205
 11
-86.0342362998
 21
16.3008637414
  0
LWPOLYLINE
  5
665
100
AcDbEntity
  8
RACCORDO
100
AcDbPolyline
 62
250
  6
CONTINUOUS
 90
3
 70
0
 10
-88.6889710527
 20
16.4757318431
 10
-88.6992955713
 20
16.0102892931
 10
-88.7178402846
 20
15.0754241473
  0
LWPOLYLINE
  5
666
100
AcDbEntity
  8
RACCORDO
100
AcDbPolyline
 62
250
  6
CONTINUOUS
 90
6
 70
0
 10
-87.3695746982
 20
31.2752719773
 10
-87.3705187224
 20
31.2419457547
 10
-87.3721139568
 20
31.2070716194
 10
-87.374332551
 20
31.170797889
 10
-87.3771163163
 20
31.1340835447
 10
-87.3804476051
 20
31.0972484319
  0
LINE
  5
667
100
AcDbEntity
  8
RACCORDO
100
AcDbLine
 62
250
  6
CONTINUOUS
 10
-89.9601749655
 20
-26.20657985
 11
-89.9591246155
 21
-26.1859703337
  0
LWPOLYLINE
  5
668
100
AcDbEntity
  8
RACCORDO
100
AcDbPolyline
 62
250
  6
CONTINUOUS
 90
26
 70
0
 10
-85.0935844527
 20
35.4556251696
 10
-85.1717006127
 20
34.4874016207
 10
-85.2271516242
 20
33.785498658
 10
-85.2800788587
 20
33.0935740387
 10
-85.33031478
 20
32.4149623384
 10
-85.3781786814
 20
31.7463450289
 10
-85.4244086633
 20
31.077743285
 10
-85.4692091995
 20
30.4058781225
 10
-85.5123372773
 20
29.7340244502
 10
-85.5537857578
 20
29.0620264569
 10
-85.5935425205
 20
28.3898090305
 10
-85.631588226
 20
27.7174439563
 10
-85.667909174
 20
27.0449962199
 10
-85.702504549
 20
26.3724438734
 10
-85.7353748821
 20
25.6998088347
 10
-85.766518952
 20
25.0272229937
 10
-85.795940687
 20
24.3547229107
 10
-85.8236608091
 20
23.6822746321
 10
-85.8497068867
 20
23.0099046572
 10
-85.8740954215
 20
22.3376365647
 10
-85.8968774749
 20
21.6654539204
 10
-85.9181691811
 20
20.9933270879
 10
-85.9380825418
 20
20.3210799563
 10
-85.9567115336
 20
19.6489104175
 10
-85.9741556195
 20
18.9773509357
 10
-86.0059640872
 20
17.6353370205
  0
LWPOLYLINE
  5
669
100
AcDbEntity
  8
RACCORDO
100
AcDbPolyline
 62
250
  6
CONTINUOUS
 90
28
 70
0
 10
-84.6350364664
 20
35.1586075323
 10
-84.693513808
 20
34.4480169486
 10
-84.7495244252
 20
33.747394194
 10
-84.8030683179
 20
33.0567392685
 10
-84.8538787655
 20
32.3793683345
 10
-84.9022224886
 20
31.7119652297
 10
-84.9488996491
 20
31.0445814669
 10
-84.9941888374
 20
30.3739534706
 10
-85.0378114631
 20
29.7033448163
 10
-85.0797319166
 20
29.0325977444
 10
-85.1199490468
 20
28.3616414691
 10
-85.1584640048
 20
27.6905467761
 10
-85.195244635
 20
27.0193682619
 10
-85.2302788833
 20
26.3480828902
 10
-85.2635788037
 20
25.6767136973
 10
-85.2951484033
 20
25.0053843891
 10
-85.3249666195
 20
24.3341333783
 10
-85.3530545149
 20
23.6629222523
 10
-85.3794792833
 20
22.9917594782
 10
-85.4041834632
 20
22.3206671694
 10
-85.4272245161
 20
21.6496232126
 10
-85.4488420216
 20
20.9785697352
 10
-85.4690105206
 20
20.3073040172
 10
-85.487755472
 20
19.6360287787
 10
-85.5053928319
 20
18.9652943071
 10
-85.5219247048
 20
18.2947118819
 10
-85.5373489861
 20
17.6246702235
 10
-85.5658188166
 20
16.2912660056
  0
LWPOLYLINE
  5
66A
100
AcDbEntity
  8
RACCORDO
100
AcDbPolyline
 62
250
  6
CONTINUOUS
 90
20
 70
0
 10
-85.5185729606
 20
-18.4357195001
 10
-85.5000567233
 20
-19.1733840709
 10
-85.4801283419
 20
-19.9138597183
 10
-85.4587221498
 20
-20.6581191916
 10
-85.4350973272
 20
-21.4117316356
 10
-85.4093092882
 20
-22.1738754893
 10
-85.3813026188
 20
-22.9453723136
 10
-85.3501702571
 20
-23.7342559351
 10
-85.315949337
 20
-24.5406586951
 10
-85.2786027246
 20
-25.3644482523
 10
-85.2371119566
 20
-26.2132614088
 10
-85.1914949342
 20
-27.0880583927
 10
-85.1417337561
 20
-27.987878976
 10
-85.0867562554
 20
-28.9174792765
 10
-85.0265816238
 20
-29.87738392
 10
-84.9611906697
 20
-30.8670682807
 10
-84.8894536511
 20
-31.8897145983
 10
-84.8109939873
 20
-32.9463836194
 10
-84.7261882591
 20
-34.0360145974
 10
-84.6350364664
 20
-35.1586075323
  0
LINE
  5
66B
100
AcDbEntity
  8
RACCORDO
100
AcDbLine
 62
250
  6
CONTINUOUS
 10
-85.5517158228
 20
-16.9690909405
 11
-85.5185729606
 21
-18.4357195001
  0
LINE
  5
66C
100
AcDbEntity
  8
RACCORDO
100
AcDbLine
 62
250
  6
CONTINUOUS
 10
-85.5812218124
 20
-15.5065765979
 11
-85.5517158228
 21
-16.9690909405
  0
LINE
  5
66D
100
AcDbEntity
  8
RACCORDO
100
AcDbLine
 62
250
  6
CONTINUOUS
 10
-85.6082982778
 20
-14.0430661943
 11
-85.5812218124
 21
-15.5065765979
  0
LINE
  5
66E
100
AcDbEntity
  8
RACCORDO
100
AcDbLine
 62
250
  6
CONTINUOUS
 10
-85.6333729147
 20
-12.5728720044
 11
-85.6082982778
 21
-14.0430661943
  0
LINE
  5
66F
100
AcDbEntity
  8
RACCORDO
100
AcDbLine
 62
250
  6
CONTINUOUS
 10
-85.6565073282
 20
-11.0855721336
 11
-85.6333729147
 21
-12.5728720044
  0
LINE
  5
670
100
AcDbEntity
  8
RACCORDO
100
AcDbLine
 62
250
  6
CONTINUOUS
 10
-85.6773547081
 20
-9.5640394875
 11
-85.6565073282
 21
-11.0855721336
  0
LINE
  5
671
100
AcDbEntity
  8
RACCORDO
100
AcDbLine
 62
250
  6
CONTINUOUS
 10
-85.695656479
 20
-7.9976481604
 11
-85.6773547081
 21
-9.5640394875
  0
LWPOLYLINE
  5
672
100
AcDbEntity
  8
RACCORDO
100
AcDbPolyline
 62
250
  6
CONTINUOUS
 90
4
 70
0
 10
-85.7223207699
 20
-4.6686979103
 10
-85.7172089529
 20
-5.5289133411
 10
-85.7109477855
 20
-6.3700439778
 10
-85.695656479
 20
-7.9976481604
  0
LINE
  5
673
100
AcDbEntity
  8
RACCORDO
100
AcDbLine
 62
250
  6
CONTINUOUS
 10
-85.7297429712
 20
-2.8825347682
 11
-85.7223207699
 21
-4.6686979103
  0
LWPOLYLINE
  5
674
100
AcDbEntity
  8
RACCORDO
100
AcDbPolyline
 62
250
  6
CONTINUOUS
 90
3
 70
0
 10
-85.7351010067
 20
0.000146824
 10
-85.7341123263
 20
-0.9870029311
 10
-85.7297429712
 20
-2.8825347682
  0
LINE
  5
675
100
AcDbEntity
  8
RACCORDO
100
AcDbLine
 62
250
  6
CONTINUOUS
 10
-85.732650367
 20
1.7467972072
 11
-85.7351010067
 21
0.000146824
  0
LINE
  5
676
100
AcDbEntity
  8
RACCORDO
100
AcDbLine
 62
250
  6
CONTINUOUS
 10
-85.7279552776
 20
3.3999468119
 11
-85.732650367
 21
1.7467972072
  0
LINE
  5
677
100
AcDbEntity
  8
RACCORDO
100
AcDbLine
 62
250
  6
CONTINUOUS
 10
-85.7208193227
 20
4.9616735624
 11
-85.7279552776
 21
3.3999468119
  0
LINE
  5
678
100
AcDbEntity
  8
RACCORDO
100
AcDbLine
 62
250
  6
CONTINUOUS
 10
-85.7103226449
 20
6.4381770775
 11
-85.7208193227
 21
4.9616735624
  0
LINE
  5
679
100
AcDbEntity
  8
RACCORDO
100
AcDbLine
 62
250
  6
CONTINUOUS
 10
-85.6973652684
 20
7.8382491508
 11
-85.7103226449
 21
6.4381770775
  0
LINE
  5
67A
100
AcDbEntity
  8
RACCORDO
100
AcDbLine
 62
250
  6
CONTINUOUS
 10
-85.6822567339
 20
9.1725440829
 11
-85.6973652684
 21
7.8382491508
  0
LINE
  5
67B
100
AcDbEntity
  8
RACCORDO
100
AcDbLine
 62
250
  6
CONTINUOUS
 10
-85.6653650735
 20
10.4640368867
 11
-85.6822567339
 21
9.1725440829
  0
LINE
  5
67C
100
AcDbEntity
  8
RACCORDO
100
AcDbLine
 62
250
  6
CONTINUOUS
 10
-85.6365343682
 20
12.3783179037
 11
-85.6653650735
 21
10.4640368867
  0
LINE
  5
67D
100
AcDbEntity
  8
RACCORDO
100
AcDbLine
 62
250
  6
CONTINUOUS
 10
-85.6034259496
 20
14.3147614786
 11
-85.6365343682
 21
12.3783179037
  0
LINE
  5
67E
100
AcDbEntity
  8
RACCORDO
100
AcDbLine
 62
250
  6
CONTINUOUS
 10
-85.5658188166
 20
16.2912660056
 11
-85.6034259496
 21
14.3147614786
  0
LINE
  5
67F
100
AcDbEntity
  8
RACCORDO
100
AcDbLine
 62
250
  6
CONTINUOUS
 10
-86.0186504469
 20
-40.7437283735
 11
-86.0188248687
 21
-40.7504119778
  0
LWPOLYLINE
  5
680
100
AcDbEntity
  8
RACCORDO
100
AcDbPolyline
 62
250
  6
CONTINUOUS
 90
4
 70
0
 10
-89.9591246155
 20
-26.1859703337
 10
-89.9559562739
 20
-26.1655787678
 10
-89.9507036719
 20
-26.145622249
 10
-89.9434227309
 20
-26.1263132423
  0
LINE
  5
681
100
AcDbEntity
  8
RACCORDO
100
AcDbLine
 62
250
  6
CONTINUOUS
 10
-90.458752468
 20
0.0001480453
 11
-90.4588443144
 21
0.0000939502
  0
LWPOLYLINE
  5
682
100
AcDbEntity
  8
0
100
AcDbPolyline
 62
7
  6
CONTINUOUS
 90
13
 70
0
 43
0.3500000006
 10
-82.6430325623
 20
52.8922935333
 10
-82.6430325623
 20
54.1780049744
 10
-82.4287390137
 20
54.606578476
 10
-82.0001700439
 20
55.0351474457
 10
-81.7858855591
 20
55.0351474457
 10
-81.3573165894
 20
54.606578476
 10
-81.1430321045
 20
54.1780049744
 10
-81.1430321045
 20
52.8922935333
 10
-81.3573165894
 20
52.4637200317
 10
-81.7858855591
 20
52.035151062
 10
-82.0001700439
 20
52.035151062
 10
-82.4287390137
 20
52.4637200317
 10
-82.6430325623
 20
52.8922935333
  0
LWPOLYLINE
  5
683
100
AcDbEntity
  8
RACCORDO
100
AcDbPolyline
 62
250
  6
CONTINUOUS
 90
7
 70
0
 10
-85.9093307225
 20
-40.9633403028
 10
-85.9112280574
 20
-40.9862625195
 10
-85.9183232506
 20
-41.0380773916
 10
-85.9275076174
 20
-41.0787056622
 10
-85.9388348198
 20
-41.1078620851
 10
-85.9522511958
 20
-41.1253883642
 10
-85.9677567456
 20
-41.1310794779
  0
LWPOLYLINE
  5
684
100
AcDbEntity
  8
RACCORDO
100
AcDbPolyline
 62
7
  6
CONTINUOUS
 90
23
 70
0
 10
-87.3821137869
 20
31.3649349676
 10
-87.3820870534
 20
31.3648131298
 10
-87.3817842994
 20
31.3632103052
 10
-87.3812115282
 20
31.3596396805
 10
-87.3804582974
 20
31.3540162118
 10
-87.3796347043
 20
31.3465428789
 10
-87.3788033451
 20
31.3371913491
 10
-87.3780305191
 20
31.3259628311
 10
-87.3773880343
 20
31.313162924
 10
-87.376913412
 20
31.2988922798
 10
-87.3766313261
 20
31.2831421842
 10
-87.3765727109
 20
31.2660780205
 10
-87.3767639064
 20
31.2477946987
 10
-87.3772234491
 20
31.2283230429
 10
-87.377962124
 20
31.2077202331
 10
-87.3789916861
 20
31.1860582176
 10
-87.3803298881
 20
31.1634140788
 10
-87.3819895982
 20
31.1398455133
 10
-87.3839737697
 20
31.1154428933
 10
-87.386285967
 20
31.0903045949
 10
-87.3889415382
 20
31.0645112417
 10
-87.3919423693
 20
31.038189374
 10
-87.3938323486
 20
31.0227671915
  0
LWPOLYLINE
  5
685
100
AcDbEntity
  8
0
100
AcDbPolyline
 62
7
  6
CONTINUOUS
 90
4
 70
0
 43
0.3500000006
 10
-79.3108825378
 20
64.392292511
 10
-79.3108825378
 20
65.0351459656
 10
-77.8108820801
 20
65.0351459656
 10
-78.6680290833
 20
62.03514505
  0
LINE
  5
686
100
AcDbEntity
  8
RACCORDO
100
AcDbLine
 62
250
  6
CONTINUOUS
 10
-85.7351010067
 20
0.000146824
 11
-88.5474071367
 21
0.000809985
  0
LINE
  5
687
100
AcDbEntity
  8
RACCORDO
100
AcDbLine
 62
250
  6
CONTINUOUS
 10
-88.5474067037
 20
-0.0001013255
 11
-90.4587520483
 21
0.0000041457
  0
LWPOLYLINE
  5
688
100
AcDbEntity
  8
RACCORDO
100
AcDbPolyline
 62
250
  6
CONTINUOUS
 90
7
 70
0
 10
-89.9434227309
 20
-26.1263132423
 10
-89.9341909664
 20
-26.1078573188
 10
-89.9231066632
 20
-26.0904509675
 10
-89.9102878292
 20
-26.0742795031
 10
-89.8958709384
 20
-26.0595150937
 10
-89.8800094786
 20
-26.0463149268
 10
-89.8725238882
 20
-26.0412936879
  0
LWPOLYLINE
  5
689
100
AcDbEntity
  8
RACCORDO
100
AcDbPolyline
 62
7
  6
CONTINUOUS
 90
6
 70
0
 10
-90.2448316796
 20
22.0755628507
 10
-90.2301372543
 20
22.0598299461
 10
-90.2138369296
 20
22.045767593
 10
-90.1961195656
 20
22.0335387215
 10
-90.1771904404
 20
22.0232850182
 10
-90.1762260362
 20
22.0228900051
  0
LWPOLYLINE
  5
68A
100
AcDbEntity
  8
RACCORDO
100
AcDbPolyline
 62
250
  6
CONTINUOUS
 90
7
 70
0
 10
-90.1828437138
 20
22.2105496146
 10
-90.1815116951
 20
22.2088853526
 10
-90.180319062
 20
22.2023643683
 10
-90.1792642218
 20
22.1909864933
 10
-90.1783304215
 20
22.175193552
 10
-90.1775298854
 20
22.1545432411
 10
-90.1775600981
 20
22.1380195051
  0
LINE
  5
68B
100
AcDbEntity
  8
RACCORDO
100
AcDbLine
 62
7
  6
CONTINUOUS
 10
-70.1823141872
 20
41.409966909
 11
-70.1823141872
 21
-41.409966909
  0
LINE
  5
68C
100
AcDbEntity
  8
0
100
AcDbLine
 62
7
  6
CONTINUOUS
 10
-67.6823141872
 20
36.2
 11
-67.6823141872
 21
-36.2
  0
LWPOLYLINE
  5
68D
100
AcDbEntity
  8
RACCORDO
100
AcDbPolyline
 62
7
  6
CONTINUOUS
 90
9
 70
0
 10
-86.6766868888
 20
40.7879974005
 10
-86.6766287346
 20
40.7878843843
 10
-86.6765731231
 20
40.7877887678
 10
-86.6765137317
 20
40.7877098828
 10
-86.6764507966
 20
40.7876491495
 10
-86.6763863614
 20
40.7876053886
 10
-86.6763254426
 20
40.7875749441
 10
-86.6762717403
 20
40.7875601686
 10
-86.6762289605
 20
40.7875594926
  0
LINE
  5
68E
100
AcDbEntity
  8
RACCORDO
100
AcDbLine
 62
7
  6
CONTINUOUS
 10
-63.7323141872
 20
21.8922214215
 11
-63.7323141872
 21
-25.8922214215
  0
LINE
  5
68F
100
AcDbEntity
  8
RACCORDO
100
AcDbLine
 62
250
  6
CONTINUOUS
 10
-63.7323141872
 20
14.7933700371
 11
-67.6823141872
 21
14.933678261
  0
LWPOLYLINE
  5
690
100
AcDbEntity
  8
RACCORDO
100
AcDbPolyline
 62
7
  6
CONTINUOUS
 90
12
 70
0
 10
-89.8734320974
 20
-26.0312111754
 10
-89.8859007765
 20
-26.0382472083
 10
-89.9034750337
 20
-26.0508444667
 10
-89.9195881991
 20
-26.0652669101
 10
-89.9340516236
 20
-26.0813467151
 10
-89.9466950083
 20
-26.09889553
 10
-89.9573701203
 20
-26.1177084663
 10
-89.96595162
 20
-26.1375656504
 10
-89.9723383618
 20
-26.1582337577
 10
-89.9764555454
 20
-26.1794710063
 10
-89.9782549236
 20
-26.2010289605
 10
-89.9783399314
 20
-26.2069991939
  0
LINE
  5
691
100
AcDbEntity
  8
RACCORDO
100
AcDbLine
 62
250
  6
CONTINUOUS
 10
-67.6823141872
 20
15.2264761726
 11
-63.7323141873
 21
15.0851352455
  0
LWPOLYLINE
  5
692
100
AcDbEntity
  8
RACCORDO
100
AcDbPolyline
 62
250
  6
CONTINUOUS
 90
4
 70
0
 10
-86.667932838
 20
-40.7784849052
 10
-86.6682305113
 20
-40.7788187278
 10
-86.6685262481
 20
-40.7791533644
 10
-86.6688194616
 20
-40.7794887529
  0
LINE
  5
693
100
AcDbEntity
  8
RACCORDO
100
AcDbLine
 62
250
  6
CONTINUOUS
 10
-86.6673335727
 20
-40.7778194289
 11
-86.6676337533
 21
-40.7781517156
  0
LINE
  5
694
100
AcDbEntity
  8
RACCORDO
100
AcDbLine
 62
250
  6
CONTINUOUS
 10
-86.6667304971
 20
-40.7771601534
 11
-86.6670322918
 21
-40.7774887541
  0
LINE
  5
695
100
AcDbEntity
  8
RACCORDO
100
AcDbLine
 62
250
  6
CONTINUOUS
 10
-91.0323141872
 20
20.0
 11
-90.215061573
 21
20.0
  0
LINE
  5
696
100
AcDbEntity
  8
RACCORDO
100
AcDbLine
 62
250
  6
CONTINUOUS
 10
-90.2148142307
 20
20.0078943489
 11
-90.2148673112
 21
20.0078958036
  0
LINE
  5
697
100
AcDbEntity
  8
RACCORDO
100
AcDbLine
 62
7
  6
CONTINUOUS
 10
-67.6823141872
 20
20.930158461
 11
-63.7323141872
 21
20.7922214215
  0
LINE
  5
698
100
AcDbEntity
  8
RACCORDO
100
AcDbLine
 62
250
  6
CONTINUOUS
 10
-67.6823141872
 20
20.8178885509
 11
-63.7323141872
 21
20.6794136676
  0
LINE
  5
699
100
AcDbEntity
  8
RACCORDO
100
AcDbLine
 62
250
  6
CONTINUOUS
 10
-90.2808799868
 20
22.2148954127
 11
-90.2773797419
 21
22.2147197438
  0
LINE
  5
69A
100
AcDbEntity
  8
RACCORDO
100
AcDbLine
 62
250
  6
CONTINUOUS
 10
-90.2290482164
 20
22.2115812475
 11
-90.222652142
 21
22.2112621386
  0
LINE
  5
69B
100
AcDbEntity
  8
RACCORDO
100
AcDbLine
 62
250
  6
CONTINUOUS
 10
-90.2773797419
 20
22.2147197438
 11
-90.2736081669
 21
22.2145126531
  0
LINE
  5
69C
100
AcDbEntity
  8
RACCORDO
100
AcDbLine
 62
250
  6
CONTINUOUS
 10
-90.2348587274
 20
22.2119222032
 11
-90.2290482164
 21
22.2115812475
  0
LINE
  5
69D
100
AcDbEntity
  8
RACCORDO
100
AcDbLine
 62
250
  6
CONTINUOUS
 10
-90.2736081669
 20
22.2145126531
 11
-90.2676496191
 21
22.214154554
  0
LINE
  5
69E
100
AcDbEntity
  8
RACCORDO
100
AcDbLine
 62
250
  6
CONTINUOUS
 10
-90.2402447024
 20
22.212268867
 11
-90.2348587274
 21
22.2119222032
  0
LINE
  5
69F
100
AcDbEntity
  8
RACCORDO
100
AcDbLine
 62
250
  6
CONTINUOUS
 10
-90.2676496191
 20
22.214154554
 11
-90.2597243405
 21
22.2136337691
  0
LINE
  5
6A0
100
AcDbEntity
  8
RACCORDO
100
AcDbLine
 62
250
  6
CONTINUOUS
 10
-90.2597243405
 20
22.2136337691
 11
-90.2402447024
 21
22.212268867
  0
LWPOLYLINE
  5
6A1
100
AcDbEntity
  8
RACCORDO
100
AcDbPolyline
 62
250
  6
CONTINUOUS
 90
12
 70
0
 10
-88.6915288284
 20
31.2484338619
 10
-88.7126463459
 20
31.2615322315
 10
-88.7326414087
 20
31.2764253934
 10
-88.751441866
 20
31.2931284423
 10
-88.768882522
 20
31.3115849174
 10
-88.7846404193
 20
31.331507196
 10
-88.7985674875
 20
31.3526670189
 10
-88.8107096934
 20
31.3751815527
 10
-88.8209719611
 20
31.3990837252
 10
-88.8292204135
 20
31.424350033
 10
-88.8352673159
 20
31.4508331861
 10
-88.8388991393
 20
31.4782633125
  0
LWPOLYLINE
  5
6A2
100
AcDbEntity
  8
RACCORDO
100
AcDbPolyline
 62
250
  6
CONTINUOUS
 90
7
 70
0
 10
-86.6686466307
 20
40.7792864651
 10
-86.6672141148
 20
40.7776919853
 10
-86.6664675995
 20
40.7768765746
 10
-86.6656966946
 20
40.7760553578
 10
-86.6648980534
 20
40.7752247318
 10
-86.6640587173
 20
40.7743840923
 10
-86.6631715131
 20
40.7735451186
  0
LWPOLYLINE
  5
6A3
100
AcDbEntity
  8
RACCORDO
100
AcDbPolyline
 62
250
  6
CONTINUOUS
 90
3
 70
0
 10
-86.6743843737
 20
40.7857802813
 10
-86.6693325862
 20
40.7800576863
 10
-86.6686466307
 20
40.7792864651
  0
LWPOLYLINE
  5
6A4
100
AcDbEntity
  8
0
100
AcDbPolyline
 62
7
  6
CONTINUOUS
 90
10
 70
0
 43
0.3500000006
 10
-79.6430316467
 20
52.5351512146
 10
-79.5716004639
 20
52.3922933807
 10
-79.5716004639
 20
52.3208621979
 10
-79.7144537659
 20
52.178004364
 10
-79.7858849487
 20
52.178004364
 10
-79.8573161316
 20
52.2494355469
 10
-79.8573161316
 20
52.3208621979
 10
-79.7858849487
 20
52.4637200317
 10
-79.7144537659
 20
52.5351512146
 10
-79.6430316467
 20
52.5351512146
  0
LWPOLYLINE
  5
6A5
100
AcDbEntity
  8
RACCORDO
100
AcDbPolyline
 62
250
  6
CONTINUOUS
 90
14
 70
0
 10
-86.661842562
 20
-40.7723223003
 10
-86.6622821493
 20
-40.7727107612
 10
-86.6627048997
 20
-40.7730915129
 10
-86.6631076423
 20
-40.7734642435
 10
-86.6634904321
 20
-40.7738292255
 10
-86.6638564424
 20
-40.7741865277
 10
-86.6642086512
 20
-40.7745356889
 10
-86.6645475828
 20
-40.7748750437
 10
-86.6648752029
 20
-40.7752065208
 10
-86.6651957974
 20
-40.7755349596
 10
-86.6655097048
 20
-40.7758606802
 10
-86.665817629
 20
-40.7761834727
 10
-86.6661235137
 20
-40.7765072875
 10
-86.666428029
 20
-40.7768332097
  0
LWPOLYLINE
  5
6A6
100
AcDbEntity
  8
RACCORDO
100
AcDbPolyline
 62
250
  6
CONTINUOUS
 90
3
 70
0
 10
-90.2912153409
 20
22.2152887296
 10
-90.2903685494
 20
22.2152711795
 10
-90.2893340636
 20
22.2152387188
  0
LINE
  5
6A7
100
AcDbEntity
  8
RACCORDO
100
AcDbLine
 62
250
  6
CONTINUOUS
 10
-67.6823141872
 20
21.5304630475
 11
-63.7323141872
 21
21.392526008
  0
LINE
  5
6A8
100
AcDbEntity
  8
RACCORDO
100
AcDbLine
 62
7
  6
CONTINUOUS
 10
-67.6823141872
 20
22.030158461
 11
-63.7323141872
 21
21.8922214215
  0
LINE
  5
6A9
100
AcDbEntity
  8
RACCORDO
100
AcDbLine
 62
250
  6
CONTINUOUS
 10
-90.2893340636
 20
22.2152387188
 11
-90.285517463
 21
22.2150976705
  0
LWPOLYLINE
  5
6AA
100
AcDbEntity
  8
RACCORDO
100
AcDbPolyline
 62
250
  6
CONTINUOUS
 90
3
 70
0
 10
-90.285517463
 20
22.2150976705
 10
-90.2825111924
 20
22.2149702403
 10
-90.2808799868
 20
22.2148954127
  0
LWPOLYLINE
  5
6AB
100
AcDbEntity
  8
RACCORDO
100
AcDbPolyline
 62
250
  6
CONTINUOUS
 90
7
 70
0
 10
-90.222652142
 20
22.2112621386
 10
-90.2191851464
 20
22.2111092233
 10
-90.2154476617
 20
22.2109753741
 10
-90.2113913633
 20
22.2108480711
 10
-90.2069661466
 20
22.2107294258
 10
-90.2020358049
 20
22.2106502284
 10
-90.1828437138
 20
22.2105496146
  0
LWPOLYLINE
  5
6AC
100
AcDbEntity
  8
RACCORDO
100
AcDbPolyline
 62
250
  6
CONTINUOUS
 90
5
 70
0
 10
-86.6631715131
 20
40.7735451186
 10
-86.6612310579
 20
40.7717959347
 10
-86.6602394577
 20
40.7708435136
 10
-86.6593161723
 20
40.7698560588
 10
-86.6584873189
 20
40.7688363319
  0
LWPOLYLINE
  5
6AD
100
AcDbEntity
  8
RACCORDO
100
AcDbPolyline
 62
7
  6
CONTINUOUS
 90
3
 70
0
 10
-88.6337142384
 20
31.2237161926
 10
-88.6142969614
 20
31.218452371
 10
-88.5955792366
 20
31.2146864891
  0
LINE
  5
6AE
100
AcDbEntity
  8
RACCORDO
100
AcDbLine
 62
250
  6
CONTINUOUS
 10
-88.6209338579
 20
31.2201195645
 11
-88.645605877
 21
31.2276661875
  0
LWPOLYLINE
  5
6AF
100
AcDbEntity
  8
RACCORDO
100
AcDbPolyline
 62
250
  6
CONTINUOUS
 90
3
 70
0
 10
-88.645605877
 20
31.2276661875
 10
-88.6692280343
 20
31.2371295574
 10
-88.6722825441
 20
31.2384437694
  0
LINE
  5
6B0
100
AcDbEntity
  8
0
100
AcDbLine
 62
7
  6
CONTINUOUS
 10
-89.5909225743
 20
29.1174362133
 11
-89.6356894941
 21
29.1174362133
  0
LINE
  5
6B1
100
AcDbEntity
  8
0
100
AcDbLine
 62
250
  6
CONTINUOUS
 10
-89.4478250619
 20
30.0104281401
 11
-89.4901516402
 21
30.0104281401
  0
LINE
  5
6B2
100
AcDbEntity
  8
0
100
AcDbLine
 62
7
  6
CONTINUOUS
 10
-89.3350293349
 20
30.6576616347
 11
-89.3762099935
 21
30.6576616347
  0
LINE
  5
6B3
100
AcDbEntity
  8
RACCORDO
100
AcDbLine
 62
250
  6
CONTINUOUS
 10
-88.5955792366
 20
31.2146864891
 11
-88.5954869214
 21
31.2146814216
  0
LWPOLYLINE
  5
6B4
100
AcDbEntity
  8
RACCORDO
100
AcDbPolyline
 62
7
  6
CONTINUOUS
 90
13
 70
0
 10
-87.6750483134
 20
30.6999999218
 10
-87.6671977375
 20
30.6993854235
 10
-87.6567682755
 20
30.6974991262
 10
-87.6437600796
 20
30.6943407034
 10
-87.6280372702
 20
30.6898702075
 10
-87.6097359897
 20
30.6841270227
 10
-87.5892645476
 20
30.6772295521
 10
-87.5666407568
 20
30.6691725236
 10
-87.5418473182
 20
30.6599601074
 10
-87.5152400323
 20
30.649724529
 10
-87.4868312096
 20
30.6384696847
 10
-87.45660903
 20
30.6261906263
 10
-87.4410231948
 20
30.6197115278
  0
LWPOLYLINE
  5
6B5
100
AcDbEntity
  8
RACCORDO
100
AcDbPolyline
 62
250
  6
CONTINUOUS
 90
3
 70
0
 10
-87.3888187527
 20
31.0222577452
 10
-87.3926988569
 20
31.0226821459
 10
-87.393832338
 20
31.02276733
  0
LINE
  5
6B6
100
AcDbEntity
  8
RACCORDO
100
AcDbLine
 62
250
  6
CONTINUOUS
 10
-88.5954869214
 20
31.2146814216
 11
-88.6209338579
 21
31.2201195645
  0
LWPOLYLINE
  5
6B7
100
AcDbEntity
  8
RACCORDO
100
AcDbPolyline
 62
250
  6
CONTINUOUS
 90
15
 70
0
 10
-87.4159652124
 20
31.5246087908
 10
-87.4093503541
 20
31.5228905248
 10
-87.4032105214
 20
31.5185105764
 10
-87.3975446165
 20
31.5114688294
 10
-87.392334364
 20
31.5016933736
 10
-87.3875953577
 20
31.4892558357
 10
-87.383377766
 20
31.4743714543
 10
-87.3796817009
 20
31.4569970186
 10
-87.3765051525
 20
31.4371755387
 10
-87.3738964985
 20
31.4152517322
 10
-87.3718626573
 20
31.3912776914
 10
-87.3703963071
 20
31.3652012813
 10
-87.3695257462
 20
31.3372110142
 10
-87.3692523053
 20
31.3071984219
 10
-87.3695746982
 20
31.2752719773
  0
LWPOLYLINE
  5
6B8
100
AcDbEntity
  8
0
100
AcDbPolyline
 62
7
  6
CONTINUOUS
 90
10
 70
0
 43
0.3500000006
 10
-76.3108816223
 20
62.5351452026
 10
-76.2394595032
 20
62.3922919006
 10
-76.2394595032
 20
62.3208607178
 10
-76.3823128052
 20
62.1780074158
 10
-76.453743988
 20
62.1780074158
 10
-76.5251751709
 20
62.2494385986
 10
-76.5251751709
 20
62.3208607178
 10
-76.453743988
 20
62.4637230835
 10
-76.3823128052
 20
62.5351452026
 10
-76.3108816223
 20
62.5351452026
  0
LINE
  5
6B9
100
AcDbEntity
  8
0
100
AcDbLine
 62
7
  6
CONTINUOUS
 10
-89.3315249964
 20
30.6771594118
 11
-89.3727031533
 21
30.6771594118
  0
LINE
  5
6BA
100
AcDbEntity
  8
0
100
AcDbLine
 62
250
  6
CONTINUOUS
 10
-67.6823141872
 20
31.0
 11
-70.1823141872
 21
31.0
  0
LINE
  5
6BB
100
AcDbEntity
  8
0
100
AcDbLine
 62
250
  6
CONTINUOUS
 10
-89.0062390115
 20
32.343749234
 11
-89.0506750628
 21
32.343749234
  0
LINE
  5
6BC
100
AcDbEntity
  8
SUPERFICI
100
AcDbLine
 62
7
  6
CONTINUOUS
 10
-88.9827625045
 20
32.4557536055
 11
-89.0256237553
 21
32.4557536055
  0
LINE
  5
6BD
100
AcDbEntity
  8
RACCORDO
100
AcDbLine
 62
250
  6
CONTINUOUS
 10
-88.6114158493
 20
33.0290781048
 11
-88.5501053218
 21
33.0290781048
  0
LINE
  5
6BE
100
AcDbEntity
  8
DRAFT
100
AcDbLine
 62
7
  6
CONTINUOUS
 10
-88.4218762099
 20
33.65
 11
-88.4848123907
 21
33.65
  0
LINE
  5
6BF
100
AcDbEntity
  8
RACCORDO
100
AcDbLine
 62
7
  6
CONTINUOUS
 10
-87.67504872
 20
30.6999998888
 11
-89.0563106804
 21
30.7
  0
LINE
  5
6C0
100
AcDbEntity
  8
RACCORDO
100
AcDbLine
 62
7
  6
CONTINUOUS
 10
-88.5518396195
 20
31.2106743501
 11
-87.3787948917
 21
31.1901987782
  0
LWPOLYLINE
  5
6C1
100
AcDbEntity
  8
RACCORDO
100
AcDbPolyline
 62
7
  6
CONTINUOUS
 90
7
 70
0
 10
-88.551636228
 20
31.2106713463
 10
-88.5589731241
 20
31.2108901595
 10
-88.5663051088
 20
31.2112890283
 10
-88.5736270968
 20
31.2118677317
 10
-88.5809339916
 20
31.2126260474
 10
-88.5882206852
 20
31.2135637526
 10
-88.5954820582
 20
31.2146806233
  0
LINE
  5
6C2
100
AcDbEntity
  8
RACCORDO
100
AcDbLine
 62
250
  6
CONTINUOUS
 10
-88.8337042174
 20
31.5645254243
 11
-87.4159652124
 21
31.5246087908
  0
LWPOLYLINE
  5
6C3
100
AcDbEntity
  8
RACCORDO
100
AcDbPolyline
 62
250
  6
CONTINUOUS
 90
10
 70
0
 10
-86.6761601936
 20
40.7875765063
 10
-86.6761022858
 20
40.7875474096
 10
-86.6760076006
 20
40.7874787128
 10
-86.6758764201
 20
40.7873647343
 10
-86.6757073503
 20
40.7872110382
 10
-86.6755055438
 20
40.787012789
 10
-86.6752726244
 20
40.7867662756
 10
-86.6750068169
 20
40.7864751932
 10
-86.6747101814
 20
40.7861460282
 10
-86.6743843737
 20
40.7857802813
  0
LWPOLYLINE
  5
6C4
100
AcDbEntity
  8
RACCORDO
100
AcDbPolyline
 62
250
  6
CONTINUOUS
 90
17
 70
0
 10
-86.6535074
 20
40.7672944482
 10
-86.6517402052
 20
40.7663598252
 10
-86.6493134586
 20
40.7654641943
 10
-86.6461656516
 20
40.7646010513
 10
-86.6422463247
 20
40.7637578124
 10
-86.637481298
 20
40.7629338815
 10
-86.6317562127
 20
40.7621389105
 10
-86.6249930347
 20
40.7613620391
 10
-86.6171060557
 20
40.7605968127
 10
-86.6079330134
 20
40.7598556437
 10
-86.5973667519
 20
40.7591259029
 10
-86.5853055156
 20
40.7583981283
 10
-86.5715563717
 20
40.7576853828
 10
-86.555985479
 20
40.7569739152
 10
-86.5384824343
 20
40.7562516492
 10
-86.5188591829
 20
40.7555309588
 10
-86.4727293049
 20
40.7540424713
  0
LINE
  5
6C5
100
AcDbEntity
  8
RACCORDO
100
AcDbLine
 62
250
  6
CONTINUOUS
 10
-84.6350364664
 20
35.1586075323
 11
-70.1823141872
 21
35.4108807381
  0
LWPOLYLINE
  5
6C6
100
AcDbEntity
  8
RACCORDO
100
AcDbPolyline
 62
250
  6
CONTINUOUS
 90
3
 70
0
 10
-84.6350364664
 20
35.1586075323
 10
-85.1024099138
 20
35.1982699539
 10
-85.1136437658
 20
35.1992742496
  0
LINE
  5
6C7
100
AcDbEntity
  8
DRAFT
100
AcDbLine
 62
7
  6
CONTINUOUS
 10
-87.0716133448
 20
39.25
 11
-87.0938084967
 21
39.25
  0
LWPOLYLINE
  5
6C8
100
AcDbEntity
  8
RACCORDO
100
AcDbPolyline
 62
250
  6
CONTINUOUS
 90
37
 70
0
 10
-84.9195428912
 20
41.1527276252
 10
-84.8875137908
 20
41.1472131397
 10
-84.8573111445
 20
41.1299121661
 10
-84.8289369666
 20
41.1014222736
 10
-84.8025873732
 20
41.0625943235
 10
-84.7780757324
 20
41.0139128648
 10
-84.7548203471
 20
40.9549085348
 10
-84.7326368662
 20
40.8852661137
 10
-84.711696013
 20
40.8054128498
 10
-84.6919383309
 20
40.7154958679
 10
-84.6733560143
 20
40.6156794483
 10
-84.6559482812
 20
40.5061396349
 10
-84.6396668558
 20
40.3870675608
 10
-84.6245007365
 20
40.2587080422
 10
-84.6104550332
 20
40.1212602845
 10
-84.5975056679
 20
39.9748492962
 10
-84.58563471
 20
39.8197874967
 10
-84.5748558061
 20
39.6562658981
 10
-84.5651906173
 20
39.4841782765
 10
-84.5566088342
 20
39.303825648
 10
-84.5491357863
 20
39.1154092045
 10
-84.5428730736
 20
38.9185803014
 10
-84.5377822706
 20
38.7135067491
 10
-84.5338943619
 20
38.5005090964
 10
-84.5314115658
 20
38.2793955407
 10
-84.5303070406
 20
38.0502243365
 10
-84.5305997483
 20
37.8135071469
 10
-84.5325603862
 20
37.5697492759
 10
-84.5361912769
 20
37.3191720238
 10
-84.5414876509
 20
37.0623401129
 10
-84.5487133763
 20
36.8003632577
 10
-84.5578977963
 20
36.5336945785
 10
-84.5690180907
 20
36.2628955223
 10
-84.5822654851
 20
35.9893267344
 10
-84.5977099155
 20
35.7138367293
 10
-84.6152973756
 20
35.4367343732
 10
-84.6350364664
 20
35.1586075323
  0
LWPOLYLINE
  5
6C9
100
AcDbEntity
  8
RACCORDO
100
AcDbPolyline
 62
250
  6
CONTINUOUS
 90
36
 70
0
 10
-85.3999648855
 20
40.7330261611
 10
-85.3675790295
 20
40.7259104485
 10
-85.3371438855
 20
40.7090917407
 10
-85.3086098886
 20
40.6825647966
 10
-85.2820643741
 20
40.6462421232
 10
-85.2573184179
 20
40.6002004711
 10
-85.2338971943
 20
40.5446798149
 10
-85.2115616587
 20
40.479613475
 10
-85.1904215514
 20
40.4050544578
 10
-85.1705233263
 20
40.3214220662
 10
-85.1518215441
 20
40.2286661202
 10
-85.1342520129
 20
40.1268252068
 10
-85.1178533724
 20
40.0164539276
 10
-85.1025941442
 20
39.8975463712
 10
-85.0884247695
 20
39.7700998797
 10
-85.0753800817
 20
39.6346764001
 10
-85.0634384317
 20
39.4913374514
 10
-85.0525737182
 20
39.3400164653
 10
-85.0428354805
 20
39.1810855196
 10
-85.0342049944
 20
39.0146205863
 10
-85.0266843615
 20
38.8405439355
 10
-85.0203723716
 20
38.6589989972
 10
-85.0152591916
 20
38.4699276789
 10
-85.0113661938
 20
38.2733892933
 10
-85.0088597197
 20
38.0697055707
 10
-85.0077646992
 20
37.8586229346
 10
-85.0081035661
 20
37.6403999699
 10
-85.0100711979
 20
37.4161300635
 10
-85.0137459872
 20
37.1855719491
 10
-85.0191477809
 20
36.9489772812
 10
-85.0264243061
 20
36.708183128
 10
-85.0356923979
 20
36.4630697645
 10
-85.0469799009
 20
36.2137722148
 10
-85.060336552
 20
35.9625134237
 10
-85.0758414153
 20
35.7100409805
 10
-85.0935844527
 20
35.4556251696
  0
LWPOLYLINE
  5
6CA
100
AcDbEntity
  8
RACCORDO
100
AcDbPolyline
 62
250
  6
CONTINUOUS
 90
16
 70
0
 10
-84.9195428912
 20
41.1527276252
 10
-84.9654304577
 20
41.1497738016
 10
-85.0108477864
 20
41.1425410177
 10
-85.0554038299
 20
41.1310915505
 10
-85.0987149583
 20
41.1155239827
 10
-85.1404082582
 20
41.0959723549
 10
-85.1801247442
 20
41.0726050126
 10
-85.2175224553
 20
41.0456231536
 10
-85.2522793964
 20
41.0152590964
 10
-85.2840963079
 20
40.9817742827
 10
-85.3126992465
 20
40.9454570224
 10
-85.3378419428
 20
40.9066200118
 10
-85.3593079193
 20
40.8655976437
 10
-85.3769123566
 20
40.8227431259
 10
-85.3905036845
 20
40.7784254389
 10
-85.3999648855
 20
40.7330261611
  0
LINE
  5
6CB
100
AcDbEntity
  8
RACCORDO
100
AcDbLine
 62
7
  6
CONTINUOUS
 10
-86.1812912436
 20
41.1307037257
 11
-70.1823141872
 21
41.409966909
  0
LWPOLYLINE
  5
6CC
100
AcDbEntity
  8
0
100
AcDbPolyline
 62
7
  6
CONTINUOUS
 90
7
 70
0
 43
0.3500000006
 10
-83.5001705017
 20
52.035151062
 10
-85.0001709595
 20
52.035151062
 10
-83.5001705017
 20
54.1780049744
 10
-83.5001705017
 20
54.606578476
 10
-83.9287394714
 20
55.0351474457
 10
-84.5716019897
 20
55.0351474457
 10
-85.0001709595
 20
54.3922939911
  0
LWPOLYLINE
  5
6CD
100
AcDbEntity
  8
0
100
AcDbPolyline
 62
7
  6
CONTINUOUS
 90
6
 70
0
 43
0.3500000006
 10
-75.239459198
 20
62.03514505
 10
-74.16802771
 20
62.03514505
 10
-73.9537432251
 20
62.2494385986
 10
-73.9537432251
 20
63.3208610229
 10
-74.3823121948
 20
63.7494390564
 10
-74.8108856964
 20
63.7494390564
  0
LWPOLYLINE
  5
6CE
100
AcDbEntity
  8
0
100
AcDbPolyline
 62
7
  6
CONTINUOUS
 90
7
 70
0
 43
0.3500000006
 10
-80.168029541
 20
62.03514505
 10
-81.6680299988
 20
62.03514505
 10
-80.168029541
 20
64.1780080261
 10
-80.168029541
 20
64.6065769958
 10
-80.5965985107
 20
65.0351459656
 10
-81.2394610291
 20
65.0351459656
 10
-81.6680299988
 20
64.392292511
  0
LINE
  5
6CF
100
AcDbEntity
  8
RACCORDO
100
AcDbLine
 62
250
  6
CONTINUOUS
 10
-86.1781612094
 20
40.7469305519
 11
-85.3999648855
 21
40.7330261611
  0
LINE
  5
6D0
100
AcDbEntity
  8
RACCORDO
100
AcDbLine
 62
250
  6
CONTINUOUS
 10
-86.3843556231
 20
40.7516382831
 11
-86.1781612094
 21
40.7469305519
  0
LINE
  5
6D1
100
AcDbEntity
  8
RACCORDO
100
AcDbLine
 62
250
  6
CONTINUOUS
 10
-86.4727293049
 20
40.7540424713
 11
-86.3843556231
 21
40.7516382831
  0
ARC
  5
6D2
100
AcDbEntity
  8
0
100
AcDbCircle
 62
7
  6
CONTINUOUS
 10
-33.75
 20
-35.5
 40
5.7931574806
100
AcDbArc
 50
180.0
 51
270.0
  0
ARC
  5
6D3
100
AcDbEntity
  8
0
100
AcDbCircle
 62
7
  6
CONTINUOUS
 10
33.75
 20
-35.5
 40
5.7931574806
100
AcDbArc
 50
270.0
 51
360.0
  0
ARC
  5
6D4
100
AcDbEntity
  8
RACCORDO
100
AcDbCircle
 62
250
  6
CONTINUOUS
 10
35.25
 20
-36.8
 40
4.5051451296
100
AcDbArc
 50
307.0436353991
 51
360.0
  0
ARC
  5
6D5
100
AcDbEntity
  8
RACCORDO
100
AcDbCircle
 62
250
  6
CONTINUOUS
 10
-35.25
 20
-36.8
 40
4.5051451296
100
AcDbArc
 50
180.0
 51
232.9563631007
  0
ARC
  5
6D6
100
AcDbEntity
  8
RACCORDO
100
AcDbCircle
 62
250
  6
CONTINUOUS
 10
-35.25
 20
-36.8
 40
4.2051908211
100
AcDbArc
 50
180.0
 51
252.4136459657
  0
ARC
  5
6D7
100
AcDbEntity
  8
RACCORDO
100
AcDbCircle
 62
250
  6
CONTINUOUS
 10
35.25
 20
-36.8
 40
4.2051908211
100
AcDbArc
 50
287.586354066
 51
360.0
  0
ARC
  5
6D8
100
AcDbEntity
  8
RACCORDO
100
AcDbCircle
 62
250
  6
CONTINUOUS
 10
-22.0
 20
-24.0
 40
2.2864482698
100
AcDbArc
 50
208.9601309127
 51
241.0474162179
  0
ARC
  5
6D9
100
AcDbEntity
  8
RACCORDO
100
AcDbCircle
 62
250
  6
CONTINUOUS
 10
22.0
 20
-24.0
 40
2.2864482698
100
AcDbArc
 50
298.9525854943
 51
331.0414992199
  0
ARC
  5
6DA
100
AcDbEntity
  8
RACCORDO
100
AcDbCircle
 62
250
  6
CONTINUOUS
 10
-22.0
 20
20.0
 40
1.9864939613
100
AcDbArc
 50
90.0
 51
180.0
  0
ARC
  5
6DB
100
AcDbEntity
  8
RACCORDO
100
AcDbCircle
 62
250
  6
CONTINUOUS
 10
-22.0
 20
-24.0
 40
1.9864939613
100
AcDbArc
 50
180.0
 51
270.0
  0
ARC
  5
6DC
100
AcDbEntity
  8
RACCORDO
100
AcDbCircle
 62
250
  6
CONTINUOUS
 10
22.0
 20
-24.0
 40
1.9864939613
100
AcDbArc
 50
270.0
 51
360.0
  0
ARC
  5
6DD
100
AcDbEntity
  8
RACCORDO
100
AcDbCircle
 62
250
  6
CONTINUOUS
 10
22.0
 20
20.0
 40
1.9864939613
100
AcDbArc
 50
0.0
 51
90.0
  0
ARC
  5
6DE
100
AcDbEntity
  8
RACCORDO
100
AcDbCircle
 62
250
  6
CONTINUOUS
 10
-22.0
 20
20.0
 40
1.917150432
100
AcDbArc
 50
90.0
 51
180.0
  0
ARC
  5
6DF
100
AcDbEntity
  8
RACCORDO
100
AcDbCircle
 62
250
  6
CONTINUOUS
 10
-22.0
 20
-24.0
 40
1.917150432
100
AcDbArc
 50
180.0
 51
270.0
  0
ARC
  5
6E0
100
AcDbEntity
  8
RACCORDO
100
AcDbCircle
 62
250
  6
CONTINUOUS
 10
22.0
 20
-24.0
 40
1.917150432
100
AcDbArc
 50
270.0
 51
360.0
  0
ARC
  5
6E1
100
AcDbEntity
  8
RACCORDO
100
AcDbCircle
 62
250
  6
CONTINUOUS
 10
22.0
 20
20.0
 40
1.917150432
100
AcDbArc
 50
0.0
 51
90.0
  0
ARC
  5
6E2
100
AcDbEntity
  8
RACCORDO
100
AcDbCircle
 62
250
  6
CONTINUOUS
 10
-22.0
 20
-24.0
 40
0.9173027369
100
AcDbArc
 50
180.0
 51
270.0
  0
ARC
  5
6E3
100
AcDbEntity
  8
RACCORDO
100
AcDbCircle
 62
250
  6
CONTINUOUS
 10
22.0
 20
20.0
 40
0.9173027369
100
AcDbArc
 50
0.0
 51
90.0
  0
ARC
  5
6E4
100
AcDbEntity
  8
RACCORDO
100
AcDbCircle
 62
250
  6
CONTINUOUS
 10
-22.0
 20
20.0
 40
0.9173027369
100
AcDbArc
 50
90.0
 51
180.0
  0
ARC
  5
6E5
100
AcDbEntity
  8
RACCORDO
100
AcDbCircle
 62
250
  6
CONTINUOUS
 10
22.0
 20
-24.0
 40
0.9173027369
100
AcDbArc
 50
270.0
 51
360.0
  0
ARC
  5
6E6
100
AcDbEntity
  8
SUPERFICI
100
AcDbCircle
 62
7
  6
CONTINUOUS
 10
210.0215945741
 20
-25.9999999992
 40
300.0000047595
100
AcDbArc
 50
180.0395339344
 51
182.7895448311
  0
ARC
  5
6E7
100
AcDbEntity
  8
0
100
AcDbCircle
 62
7
  6
CONTINUOUS
 10
-71.1823141872
 20
-36.2
 40
3.5
100
AcDbArc
 50
286.6073509577
 51
360.0
  0
ARC
  5
6E8
100
AcDbEntity
  8
0
100
AcDbCircle
 62
7
  6
CONTINUOUS
 10
-71.1823141872
 20
36.2
 40
3.5
100
AcDbArc
 50
0.0
 51
73.3926490423
  0
ARC
  5
6E9
100
AcDbEntity
  8
RACCORDO
100
AcDbCircle
 62
7
  6
CONTINUOUS
 10
-70.6323141872
 20
26.75
 40
3.2043457495
100
AcDbArc
 50
337.0405078622
 51
22.9594921343
  0
ARC
  5
6EA
100
AcDbEntity
  8
RACCORDO
100
AcDbCircle
 62
250
  6
CONTINUOUS
 10
-70.6323141872
 20
26.75
 40
3.2024430978
100
AcDbArc
 50
337.1191077156
 51
22.8809437866
  0
ARC
  5
6EB
100
AcDbEntity
  8
0
100
AcDbCircle
 62
7
  6
CONTINUOUS
 10
-70.6323141872
 20
26.75
 40
3.0750226729
100
AcDbArc
 50
343.6259112218
 51
16.3740887782
  0
ARC
  5
6EC
100
AcDbEntity
  8
RACCORDO
100
AcDbCircle
 62
7
  6
CONTINUOUS
 10
-90.0323141872
 20
-24.9173027369
 40
1.0
100
AcDbArc
 50
180.0
 51
269.0
  0
ARC
  5
6ED
100
AcDbEntity
  8
RACCORDO
100
AcDbCircle
 62
7
  6
CONTINUOUS
 10
-90.0323141872
 20
20.9173027369
 40
1.0
100
AcDbArc
 50
98.2915638375
 51
180.0
  0
ARC
  5
6EE
100
AcDbEntity
  8
RACCORDO
100
AcDbCircle
 62
7
  6
CONTINUOUS
 10
-89.123514188
 20
-40.5759193628
 40
0.5
100
AcDbArc
 50
182.7895447368
 51
268.9573310037
  0
ARC
  5
6EF
100
AcDbEntity
  8
RACCORDO
100
AcDbCircle
 62
7
  6
CONTINUOUS
 10
-89.1190566369
 20
-40.5759971696
 40
0.4999999926
100
AcDbArc
 50
264.2105311088
 51
268.9999999645
  0
ARC
  5
6F0
100
AcDbEntity
  8
RACCORDO
100
AcDbCircle
 62
7
  6
CONTINUOUS
 10
-86.2033532901
 20
40.6268909696
 40
0.4999999913
100
AcDbArc
 50
95.6802124812
 51
161.2031970701
  0
ELLIPSE
  5
6F1
100
AcDbEntity
  8
RACCORDO
100
AcDbEllipse
 62
7
  6
CONTINUOUS
 10
28.5698577544
 20
33.0218528511
 30
0.0
 11
-0.2643274108
 21
1.9957405007
 31
0.0
 40
0.4935551741
 41
1.3086225439
 42
1.4218706924
  0
ELLIPSE
  5
6F2
100
AcDbEntity
  8
RACCORDO
100
AcDbEllipse
 62
7
  6
CONTINUOUS
 10
-28.5698577544
 20
33.0218528511
 30
0.0
 11
0.2643274108
 21
1.9957405007
 31
0.0
 40
0.4935551741
 41
-1.4218706924
 42
-1.3086225439
  0
ELLIPSE
  5
6F3
100
AcDbEntity
  8
RACCORDO
100
AcDbEllipse
 62
7
  6
CONTINUOUS
 10
-16.9507692721
 20
-41.1421577413
 30
0.0
 11
0.5000761408
 21
-0.0
 31
0.0
 40
0.0174497492
 41
1.5707963268
 42
3.1412880671
  0
ELLIPSE
  5
6F4
100
AcDbEntity
  8
RACCORDO
100
AcDbEllipse
 62
7
  6
CONTINUOUS
 10
16.9507692721
 20
-41.1421577413
 30
0.0
 11
0.5000761408
 21
0.0
 31
0.0
 40
0.0174497492
 41
0.0003045865
 42
1.5707963268
  0
ELLIPSE
  5
6F5
100
AcDbEntity
  8
RACCORDO
100
AcDbEllipse
 62
7
  6
CONTINUOUS
 10
-20.4999238352
 20
-41.1029442686
 30
0.0
 11
0.500076164
 21
0.0000019472
 31
0.0
 40
0.0174511733
 41
2.6180346048
 42
3.1415925856
  0
ELLIPSE
  5
6F6
100
AcDbEntity
  8
RACCORDO
100
AcDbEllipse
 62
7
  6
CONTINUOUS
 10
20.4999238352
 20
-41.1029442686
 30
0.0
 11
0.500076164
 21
-0.0000019472
 31
0.0
 40
0.0174511733
 41
0.000000068
 42
0.5235580488
  0
ELLIPSE
  5
6F7
100
AcDbEntity
  8
DRAFT
100
AcDbEllipse
 62
7
  6
CONTINUOUS
 10
27.5499917568
 20
36.7
 30
0.0
 11
0.0
 21
1.5500000719
 31
0.0
 40
0.0174550657
 41
-0.0003046793
 42
3.1418973329
  0
ELLIPSE
  5
6F8
100
AcDbEntity
  8
DRAFT
100
AcDbEllipse
 62
7
  6
CONTINUOUS
 10
-27.5499917568
 20
36.7
 30
0.0
 11
-0.0
 21
1.5500000719
 31
0.0
 40
0.0174550657
 41
-3.1418973329
 42
0.0003046793
  0
ELLIPSE
  5
6F9
100
AcDbEntity
  8
RACCORDO
100
AcDbEllipse
 62
7
  6
CONTINUOUS
 10
17.6492150378
 20
-41.1299663251
 30
0.0
 11
1.0001524673
 21
0.0000106445
 31
0.0
 40
0.0174603791
 41
-0.0003049579
 42
1.5701867824
  0
ELLIPSE
  5
6FA
100
AcDbEntity
  8
RACCORDO
100
AcDbEllipse
 62
7
  6
CONTINUOUS
 10
-17.6492150378
 20
-41.1299663251
 30
0.0
 11
1.0001524673
 21
-0.0000106445
 31
0.0
 40
0.0174603791
 41
1.5714058712
 42
3.1418976115
  0
ELLIPSE
  5
6FB
100
AcDbEntity
  8
RACCORDO
100
AcDbEllipse
 62
7
  6
CONTINUOUS
 10
-43.8590529408
 20
35.4090529408
 30
0.0
 11
4.243933135
 21
-4.243933135
 31
0.0
 40
0.9996954599
 41
2.3563467834
 42
3.9268385237
  0
ELLIPSE
  5
6FC
100
AcDbEntity
  8
RACCORDO
100
AcDbEllipse
 62
7
  6
CONTINUOUS
 10
-43.8590529408
 20
-35.4090529408
 30
0.0
 11
4.243933135
 21
4.243933135
 31
0.0
 40
0.9996954599
 41
-3.9268385237
 42
-2.3563467834
  0
ELLIPSE
  5
6FD
100
AcDbEntity
  8
RACCORDO
100
AcDbEllipse
 62
7
  6
CONTINUOUS
 10
43.8590529408
 20
-35.4090529408
 30
0.0
 11
4.243933135
 21
-4.243933135
 31
0.0
 40
0.9996954599
 41
-0.7852458701
 42
0.7852458701
  0
ELLIPSE
  5
6FE
100
AcDbEntity
  8
RACCORDO
100
AcDbEllipse
 62
7
  6
CONTINUOUS
 10
43.8590529408
 20
35.4090529408
 30
0.0
 11
4.243933135
 21
4.243933135
 31
0.0
 40
0.9996954599
 41
-0.7852458701
 42
0.7852458701
  0
ELLIPSE
  5
6FF
100
AcDbEntity
  8
RACCORDO
100
AcDbEllipse
 62
7
  6
CONTINUOUS
 10
-32.4344573362
 20
33.0218528511
 30
0.0
 11
58.4276101379
 21
0.3916965257
 31
0.0
 40
0.0335674935
 41
2.857067453
 42
2.8608210571
  0
ENDSEC
  0
SECTION
  2
OBJECTS
  0
DICTIONARY
  5
C
100
AcDbDictionary
280
0
281
1
  3
ACAD_GROUP
350
D
  3
ACAD_MLINESTYLE
350
17
  3
ACAD_LAYOUT
350
1A
  3
ACAD_PLOTSETTINGS
350
19
  3
ACAD_PLOTSTYLENAME
350
E
  0
DICTIONARY
  5
D
102
{ACAD_REACTORS
330
C
102
}
100
AcDbDictionary
280
0
281
1
  0
ACDBDICTIONARYWDFLT
  5
E
102
{ACAD_REACTORS
330
C
102
}
100
AcDbDictionary
281
1
  3
Normal
350
F
100
AcDbDictionaryWithDefault
340
F
  0
DICTIONARY
  5
17
102
{ACAD_REACTORS
330
C
102
}
100
AcDbDictionary
280
0
281
1
  3
Standard
350
18
  0
DICTIONARY
  5
19
102
{ACAD_REACTORS
330
C
102
}
100
AcDbDictionary
281
1
  0
DICTIONARY
  5
1A
102
{ACAD_REACTORS
330
C
102
}
100
AcDbDictionary
281
1
  3
Model
350
700
  3
Layout1
350
701
  0
ACDBPLACEHOLDER
  5
F
102
{ACAD_REACTORS
330
E
102
}
  0
MLINESTYLE
  5
18
102
{ACAD_REACTORS
330
17
102
}
100
AcDbMlineStyle
  2
STANDARD
 70
0
  3

 62
256
 51
90.0
 52
90.0
 71
2
 49
0.5
 62
256
  6
BYLAYER
 49
-0.5
 62
256
  6
BYLAYER
  0
LAYOUT
  5
700
102
{ACAD_REACTORS
330
1A
102
}
100
AcDbPlotSettings
  1

  2
none_device
  4
ISO_A4_(297.00_x_210.00_MM)
  6

 40
0.0
 41
0.0
 42
0.0
 43
0.0
 44
297.0
 45
210.0
 46
0.0
 47
0.0
 48
0.0
 49
0.0
140
0.0
141
0.0
142
1.0
143
1.0
 70
1024
 72
1
 73
0
 74
0
  7

 75
0
147
1.0
148
0.0
149
0.0
100
AcDbLayout
  1
Model
 70
0
 71
0
 10
0.0
 20
0.0
 11
297.0
 21
210.0
 12
0.0
 22
0.0
 32
0.0
 14
0.0
 24
0.0
 34
0.0
 15
0.0
 25
0.0
 35
0.0
146
0.0
 13
0.0
 23
0.0
 33
0.0
 16
1.0
 26
0.0
 36
0.0
 17
0.0
 27
1.0
 37
0.0
 76
0
330
217
345
0
346
0
  0
LAYOUT
  5
701
102
{ACAD_REACTORS
330
1A
102
}
100
AcDbPlotSettings
  1

  2
none_device
  4
ISO_A4_(297.00_x_210.00_MM)
  6

 40
0.0
 41
0.0
 42
0.0
 43
0.0
 44
297.0
 45
210.0
 46
0.0
 47
0.0
 48
0.0
 49
0.0
140
0.0
141
0.0
142
1.0
143
1.0
 70
0
 72
1
 73
0
 74
0
  7

 75
0
147
1.0
148
0.0
149
0.0
100
AcDbLayout
  1
Layout1
 70
0
 71
1
 10
0.0
 20
0.0
 11
297.0
 21
210.0
 12
0.0
 22
0.0
 32
0.0
 14
0.0
 24
0.0
 34
0.0
 15
0.0
 25
0.0
 35
0.0
146
0.0
 13
0.0
 23
0.0
 33
0.0
 16
1.0
 26
0.0
 36
0.0
 17
0.0
 27
1.0
 37
0.0
 76
0
330
218
345
0
346
0
  0
ENDSEC
  0
EOF
