  0
SECTION
  2
HEADER
  9
$ACADVER
  1
AC1024
  9
$DWGCODEPAGE
  3
ANSI_1252
  9
$EXTMAX
 10
297.0
 20
210.0
 30
0.0
  9
$EXTMIN
 10
0.0
 20
0.0
 30
0.0
  9
$LIMMIN
 10
0.0
 20
0.0
  9
$LIMMAX
 10
297.0
 20
210.0
  9
$VIEWCTR
 10
148.5
 20
105.0
  9
$VIEWSIZE
 40
210.0
  9
$CLAYER
  8
0
  9
$LTSCALE
 40
16.335
  9
$CELTYPE
  6
BYLAYER
  9
$DIMSCALE
 40
1.0
  9
$DIMASZ
 40
3.0
  9
$DIMEXO
 40
0.5
  9
$DIMDLI
 40
11.286
  9
$DIMEXE
 40
1.5
  9
$DIMCEN
 40
2.673
  9
$DIMLFAC
 40
1.0
  9
$DIMBLK
  1
_FILLED
  9
$DIMALT
 70
0
  9
$DIMALTF
 40
0.0393700787
  9
$DIMTXT
 40
3.0
  9
$DIMTOL
 70
1
  9
$DIMLIM
 70
0
  9
$DIMTFAC
 40
1.0
  9
$DIMTP
 40
0.01
  9
$DIMTM
 40
0.01
  9
$DIMGAP
 40
0.625
  9
$DIMDSEP
 70
44
  9
$AUNITS
 70
0
  9
$PDMODE
 70
3
  9
$PDSIZE
 40
3.0
  9
$HANDSEED
  5
96A
  9
$TILEMODE
 70
1
  9
$MEASUREMENT
 70
1
  9
$INSUNITS
 70
4
  0
ENDSEC
  0
SECTION
  2
CLASSES
  0
CLASS
  1
ACDBDICTIONARYWDFLT
  2
AcDbDictionaryWithDefault
  3
AutoCAD 2000
 90
0
 91
1
280
0
281
0
  0
CLASS
  1
ACDBPLACEHOLDER
  2
AcDbPlaceHolder
  3
AutoCAD 2000
 90
0
 91
1
280
0
281
0
  0
CLASS
  1
LAYOUT
  2
AcDbLayout
  3
AutoCAD 2000
 90
0
 91
0
280
0
281
0
  0
ENDSEC
  0
SECTION
  2
TABLES
  0
TABLE
  2
VPORT
  5
8
100
AcDbSymbolTable
 70
2
  0
VPORT
  5
1F4
100
AcDbSymbolTableRecord
100
AcDbViewportTableRecord
  2
*ACTIVE
 70
0
 10
0.0
 20
0.0
 11
1.0
 21
1.0
 12
148.5
 22
105.0
 13
0.0
 23
0.0
 14
1.0
 24
1.0
 15
0.0
 25
0.0
 16
0.0
 26
0.0
 36
1.0
 17
0.0
 27
0.0
 37
0.0
 40
210.0
 41
1.4142857143
 42
50.0
 43
0.0
 44
0.0
 50
0.0
 51
0.0
 71
0
 72
100
 73
1
 74
1
 75
0
 76
0
 77
0
 78
0
  0
ENDTAB
  0
TABLE
  2
LTYPE
  5
5
100
AcDbSymbolTable
 70
6
  0
LTYPE
  5
14
100
AcDbSymbolTableRecord
100
AcDbLinetypeTableRecord
  2
BYBLOCK
 70
0
  3

 72
65
 73
0
 40
0.0
  0
LTYPE
  5
15
100
AcDbSymbolTableRecord
100
AcDbLinetypeTableRecord
  2
BYLAYER
 70
0
  3

 72
65
 73
0
 40
0.0
  0
LTYPE
  5
16
100
AcDbSymbolTableRecord
100
AcDbLinetypeTableRecord
  2
CONTINUOUS
 70
64
  3
Solid line
 72
65
 73
0
 40
0.0
  0
LTYPE
  5
1F5
100
AcDbSymbolTableRecord
100
AcDbLinetypeTableRecord
  2
CENTER
 70
64
  3
____ _ ____ _ ____ _ ____ _ ____ _ ____ _ ____
 72
65
 73
4
 40
0.6
 49
0.375
 74
0
 49
-0.075
 74
0
 49
0.075
 74
0
 49
-0.075
 74
0
  0
LTYPE
  5
1F6
100
AcDbSymbolTableRecord
100
AcDbLinetypeTableRecord
  2
HIDDEN
 70
64
  3
- - - - - - - - - - - - - - - - - - - -
 72
65
 73
2
 40
0.2
 49
0.1
 74
0
 49
-0.1
 74
0
  0
LTYPE
  5
1F7
100
AcDbSymbolTableRecord
100
AcDbLinetypeTableRecord
  2
PHANTOM
 70
64
  3
_____ _ _ _____ _ _ _____ _ _ _____
 72
65
 73
6
 40
0.8
 49
0.45
 74
0
 49
-0.05
 74
0
 49
0.1
 74
0
 49
-0.05
 74
0
 49
0.1
 74
0
 49
-0.05
 74
0
  0
LTYPE
  5
1F8
100
AcDbSymbolTableRecord
100
AcDbLinetypeTableRecord
  2
DOT
 70
64
  3
. . . . . . . . . . . . . . . . . . . .
 72
65
 73
2
 40
0.2
 49
0.1
 74
0
 49
-0.1
 74
0
  0
LTYPE
  5
1F9
100
AcDbSymbolTableRecord
100
AcDbLinetypeTableRecord
  2
DASHED
 70
64
  3
- - - - - - - - - - - - - - - - - - - -
 72
65
 73
2
 40
0.2
 49
0.1
 74
0
 49
-0.1
 74
0
  0
ENDTAB
  0
TABLE
  2
LAYER
  5
2
100
AcDbSymbolTable
 70
36
  0
LAYER
  5
10
100
AcDbSymbolTableRecord
100
AcDbLayerTableRecord
  2
0
 70
0
 62
7
  6
CONTINUOUS
370
-3
390
F
  0
LAYER
  5
1FA
100
AcDbSymbolTableRecord
100
AcDbLayerTableRecord
  2
DEFAULT_1
 70
0
 62
7
  6
CENTER
370
-3
390
F
  0
LAYER
  5
1FB
100
AcDbSymbolTableRecord
100
AcDbLayerTableRecord
  2
DEFAULT_2
 70
0
 62
7
  6
HIDDEN
370
-3
390
F
  0
LAYER
  5
1FC
100
AcDbSymbolTableRecord
100
AcDbLayerTableRecord
  2
DEFAULT_3
 70
0
 62
7
  6
PHANTOM
370
-3
390
F
  0
LAYER
  5
1FD
100
AcDbSymbolTableRecord
100
AcDbLayerTableRecord
  2
ASSI
 70
0
 62
7
  6
CONTINUOUS
370
-3
390
F
  0
LAYER
  5
1FE
100
AcDbSymbolTableRecord
100
AcDbLayerTableRecord
  2
COORDINATE
 70
0
 62
7
  6
CONTINUOUS
370
-3
390
F
  0
LAYER
  5
1FF
100
AcDbSymbolTableRecord
100
AcDbLayerTableRecord
  2
COORD_ORIGINE
 70
0
 62
7
  6
CONTINUOUS
370
-3
390
F
  0
LAYER
  5
200
100
AcDbSymbolTableRecord
100
AcDbLayerTableRecord
  2
COSMETICI
 70
0
 62
7
  6
CONTINUOUS
370
-3
390
F
  0
LAYER
  5
201
100
AcDbSymbolTableRecord
100
AcDbLayerTableRecord
  2
CURVE
 70
0
 62
7
  6
CONTINUOUS
370
-3
390
F
  0
LAYER
  5
202
100
AcDbSymbolTableRecord
100
AcDbLayerTableRecord
  2
DRAFT
 70
0
 62
7
  6
CONTINUOUS
370
-3
390
F
  0
LAYER
  5
203
100
AcDbSymbolTableRecord
100
AcDbLayerTableRecord
  2
NOTE
 70
0
 62
7
  6
CONTINUOUS
370
-3
390
F
  0
LAYER
  5
204
100
AcDbSymbolTableRecord
100
AcDbLayerTableRecord
  2
PIANI
 70
0
 62
7
  6
CONTINUOUS
370
-3
390
F
  0
LAYER
  5
205
100
AcDbSymbolTableRecord
100
AcDbLayerTableRecord
  2
PIANI_ORIGINE
 70
0
 62
7
  6
CONTINUOUS
370
-3
390
F
  0
LAYER
  5
206
100
AcDbSymbolTableRecord
100
AcDbLayerTableRecord
  2
PUNTI
 70
0
 62
7
  6
CONTINUOUS
370
-3
390
F
  0
LAYER
  5
207
100
AcDbSymbolTableRecord
100
AcDbLayerTableRecord
  2
RACCORDO
 70
0
 62
7
  6
CONTINUOUS
370
-3
390
F
  0
LAYER
  5
208
100
AcDbSymbolTableRecord
100
AcDbLayerTableRecord
  2
SIMBOLI
 70
0
 62
7
  6
CONTINUOUS
370
-3
390
F
  0
LAYER
  5
209
100
AcDbSymbolTableRecord
100
AcDbLayerTableRecord
  2
SNAPLINE
 70
0
 62
7
  6
CONTINUOUS
370
-3
390
F
  0
LAYER
  5
20A
100
AcDbSymbolTableRecord
100
AcDbLayerTableRecord
  2
SUPERFICI
 70
0
 62
7
  6
CONTINUOUS
370
-3
390
F
  0
LAYER
  5
20B
100
AcDbSymbolTableRecord
100
AcDbLayerTableRecord
  2
TRASH
 70
0
 62
7
  6
CONTINUOUS
370
-3
390
F
  0
LAYER
  5
20C
100
AcDbSymbolTableRecord
100
AcDbLayerTableRecord
  2
XSEC_DATUMS
 70
0
 62
7
  6
CONTINUOUS
370
-3
390
F
  0
ENDTAB
  0
TABLE
  2
STYLE
  5
3
100
AcDbSymbolTable
 70
1
  0
STYLE
  5
11
100
AcDbSymbolTableRecord
100
AcDbTextStyleTableRecord
  2
STANDARD
 70
0
 40
0.0
 41
0.8
 50
0.0
 71
0
 42
0.2
  3
txt
  4

  0
STYLE
  5
20D
100
AcDbSymbolTableRecord
100
AcDbTextStyleTableRecord
  2
TEXTSTYLE_1
 70
0
 40
0.0
 41
0.8
 50
0.0
 71
0
 42
0.2
  3
gdt
  4

  0
ENDTAB
  0
TABLE
  2
VIEW
  5
6
100
AcDbSymbolTable
 70
0
  0
ENDTAB
  0
TABLE
  2
UCS
  5
7
100
AcDbSymbolTable
 70
0
  0
ENDTAB
  0
TABLE
  2
APPID
  5
9
100
AcDbSymbolTable
 70
1
  0
APPID
  5
20E
100
AcDbSymbolTableRecord
100
AcDbRegAppTableRecord
  2
ACAD
 70
0
  0
ENDTAB
  0
TABLE
  2
BLOCK_RECORD
  5
1
100
AcDbSymbolTable
 70
0
  0
BLOCK_RECORD
  5
20F
100
AcDbSymbolTableRecord
100
AcDbBlockTableRecord
  2
*Model_Space
  0
BLOCK_RECORD
  5
210
100
AcDbSymbolTableRecord
100
AcDbBlockTableRecord
  2
*Paper_Space
  0
BLOCK_RECORD
  5
211
100
AcDbSymbolTableRecord
100
AcDbBlockTableRecord
  2
_FILLED
  0
BLOCK_RECORD
  5
212
100
AcDbSymbolTableRecord
100
AcDbBlockTableRecord
  2
*D0
  0
BLOCK_RECORD
  5
213
100
AcDbSymbolTableRecord
100
AcDbBlockTableRecord
  2
*D1
  0
BLOCK_RECORD
  5
214
100
AcDbSymbolTableRecord
100
AcDbBlockTableRecord
  2
*D2
  0
BLOCK_RECORD
  5
215
100
AcDbSymbolTableRecord
100
AcDbBlockTableRecord
  2
*D3
  0
BLOCK_RECORD
  5
216
100
AcDbSymbolTableRecord
100
AcDbBlockTableRecord
  2
*D4
  0
BLOCK_RECORD
  5
217
100
AcDbSymbolTableRecord
100
AcDbBlockTableRecord
  2
*D5
  0
BLOCK_RECORD
  5
218
100
AcDbSymbolTableRecord
100
AcDbBlockTableRecord
  2
*D6
  0
BLOCK_RECORD
  5
219
100
AcDbSymbolTableRecord
100
AcDbBlockTableRecord
  2
*D7
  0
BLOCK_RECORD
  5
21A
100
AcDbSymbolTableRecord
100
AcDbBlockTableRecord
  2
*D8
  0
ENDTAB
  0
TABLE
  2
DIMSTYLE
  5
A
100
AcDbSymbolTable
 70
1
100
AcDbDimStyleTable
 71
0
  0
DIMSTYLE
105
21B
100
AcDbSymbolTableRecord
100
AcDbDimStyleTableRecord
  2
STANDARD
 70
0
  3

  4

 40
1.0
 41
3.0
 42
0.5
 43
0.38
 44
1.5
 45
0.0
 46
0.0
 47
0.01
 48
0.01
140
3.0
141
0.09
142
0.0
143
25.4
144
1.0
145
0.0
146
1.0
147
0.625
 71
1.0
 72
0.0
 73
0
 74
0
 75
0
 76
0
 77
1
 78
8
 79
2
170
0
171
1
172
0
173
0
174
0
175
0
176
0
177
0
178
0
270
2
179
2
271
2
272
2
273
2
274
2
275
0
280
0
281
0
282
0
283
1
284
8
285
0
286
0
287
3
288
0
340
11
278
44
341
211
342
211
343
211
344
211
  0
DIMSTYLE
105
21C
100
AcDbSymbolTableRecord
100
AcDbDimStyleTableRecord
  2
DIMSTYLE_1
 70
0
  3

  4

 40
1.0
 41
3.0
 42
0.5
 43
0.38
 44
1.5
 45
0.0
 46
0.0
 47
0.0
 48
0.0
140
3.0
141
0.09
142
0.0
143
25.4
144
1.0
145
0.0
146
1.0
147
0.75
 71
0.0
 72
0.0
 73
0
 74
0
 75
0
 76
0
 77
1
 78
8
 79
2
170
0
171
1
172
0
173
0
174
0
175
0
176
0
177
0
178
0
270
2
179
2
271
2
272
2
273
2
274
2
275
0
280
0
281
0
282
0
283
1
284
8
285
0
286
0
287
3
288
0
340
11
278
44
341
211
342
211
343
211
344
211
  0
DIMSTYLE
105
21D
100
AcDbSymbolTableRecord
100
AcDbDimStyleTableRecord
  2
DIMSTYLE_2
 70
0
  3

  4

 40
1.0
 41
3.0
 42
0.5
 43
0.38
 44
1.5
 45
0.0
 46
0.0
 47
0.0
 48
0.0
140
3.0
141
0.09
142
0.0
143
25.4
144
1.0
145
0.0
146
1.0
147
0.75
 71
0.0
 72
0.0
 73
0
 74
0
 75
0
 76
0
 77
1
 78
8
 79
2
170
0
171
1
172
0
173
0
174
0
175
0
176
0
177
0
178
0
270
2
179
2
271
0
272
0
273
2
274
2
275
0
280
0
281
0
282
0
283
1
284
8
285
0
286
0
287
3
288
0
340
11
278
44
341
211
342
211
343
211
344
211
  0
ENDTAB
  0
ENDSEC
  0
SECTION
  2
BLOCKS
  0
BLOCK
  5
20
100
AcDbEntity
  8
0
100
AcDbBlockBegin
  2
*Model_Space
 70
0
 10
0.0
 20
0.0
 30
0.0
  3
*Model_Space
  1

  0
ENDBLK
  5
21
100
AcDbEntity
  8
0
100
AcDbBlockEnd
  0
BLOCK
  5
1C
100
AcDbEntity
  8
0
100
AcDbBlockBegin
  2
*Paper_Space
 70
0
 10
0.0
 20
0.0
 30
0.0
  3
*Paper_Space
  1

  0
ENDBLK
  5
1D
100
AcDbEntity
  8
0
100
AcDbBlockEnd
  0
BLOCK
  5
21E
100
AcDbEntity
  8
0
100
AcDbBlockBegin
  2
_FILLED
 70
64
 10
0.0
 20
0.0
  3
_FILLED
  1

  0
SOLID
  5
21F
100
AcDbEntity
  8
0
  6
BYBLOCK
 62
0
100
AcDbTrace
 10
0.0
 20
0.0
 11
-1.0
 21
0.3166666667
 12
-1.0
 22
-0.3166666667
 13
-1.0
 23
-0.3166666667
  0
ENDBLK
  5
220
100
AcDbEntity
  8
0
  6
BYBLOCK
 62
0
100
AcDbBlockEnd
  0
BLOCK
  5
221
100
AcDbEntity
  8
0
100
AcDbBlockBegin
 62
7
  6
CONTINUOUS
  2
*D0
 70
65
 10
0.0
 20
0.0
  3
*D0
  1

  0
LINE
  5
222
100
AcDbEntity
  8
0
100
AcDbLine
 62
7
  6
CONTINUOUS
 10
86.2551663306
 20
180.017515523
 11
86.2551663306
 21
218.015688004
  0
LINE
  5
223
100
AcDbEntity
  8
0
100
AcDbLine
 62
7
  6
CONTINUOUS
 10
292.2551663306
 20
180.017515523
 11
292.2551663306
 21
218.015688004
  0
LINE
  5
224
100
AcDbEntity
  8
0
100
AcDbLine
 62
7
  6
CONTINUOUS
 10
86.2551663306
 20
216.515688004
 11
189.2551663306
 21
216.515688004
  0
LINE
  5
225
100
AcDbEntity
  8
0
100
AcDbLine
 62
7
  6
CONTINUOUS
 10
292.2551663306
 20
216.515688004
 11
189.2551663306
 21
216.515688004
  0
INSERT
  5
226
100
AcDbEntity
  8
0
100
AcDbBlockReference
 62
7
  6
CONTINUOUS
  2
_FILLED
 10
86.2551663306
 20
216.515688004
 41
3.0
 42
3.0
 43
3.0
 50
180.0
  0
INSERT
  5
227
100
AcDbEntity
  8
0
100
AcDbBlockReference
 62
7
  6
CONTINUOUS
  2
_FILLED
 10
292.2551663306
 20
216.515688004
 41
3.0
 42
3.0
 43
3.0
 50
0.0
  0
ENDBLK
  5
228
100
AcDbEntity
  8
0
  6
BYBLOCK
 62
0
100
AcDbBlockEnd
  0
BLOCK
  5
229
100
AcDbEntity
  8
0
100
AcDbBlockBegin
 62
7
  6
CONTINUOUS
  2
*D1
 70
65
 10
0.0
 20
0.0
  3
*D1
  1

  0
LINE
  5
22A
100
AcDbEntity
  8
0
100
AcDbLine
 62
7
  6
CONTINUOUS
 10
289.7569938496
 20
182.515688004
 11
327.7551663306
 21
182.515688004
  0
LINE
  5
22B
100
AcDbEntity
  8
0
100
AcDbLine
 62
7
  6
CONTINUOUS
 10
289.7569938496
 20
30.515688004
 11
327.7551663306
 21
30.515688004
  0
LINE
  5
22C
100
AcDbEntity
  8
0
100
AcDbLine
 62
7
  6
CONTINUOUS
 10
326.2551663306
 20
182.515688004
 11
326.2551663306
 21
106.515688004
  0
LINE
  5
22D
100
AcDbEntity
  8
0
100
AcDbLine
 62
7
  6
CONTINUOUS
 10
326.2551663306
 20
30.515688004
 11
326.2551663306
 21
106.515688004
  0
INSERT
  5
22E
100
AcDbEntity
  8
0
100
AcDbBlockReference
 62
7
  6
CONTINUOUS
  2
_FILLED
 10
326.2551663306
 20
182.515688004
 41
3.0
 42
3.0
 43
3.0
 50
90.0
  0
INSERT
  5
22F
100
AcDbEntity
  8
0
100
AcDbBlockReference
 62
7
  6
CONTINUOUS
  2
_FILLED
 10
326.2551663306
 20
30.515688004
 41
3.0
 42
3.0
 43
3.0
 50
270.0
  0
ENDBLK
  5
230
100
AcDbEntity
  8
0
  6
BYBLOCK
 62
0
100
AcDbBlockEnd
  0
BLOCK
  5
231
100
AcDbEntity
  8
0
100
AcDbBlockBegin
 62
7
  6
CONTINUOUS
  2
*D2
 70
65
 10
0.0
 20
0.0
  3
*D2
  1

  0
LINE
  5
232
100
AcDbEntity
  8
0
100
AcDbLine
 62
7
  6
CONTINUOUS
 10
114.2551663306
 20
168.515688004
 11
114.2551663306
 21
210.015688004
  0
LINE
  5
233
100
AcDbEntity
  8
0
100
AcDbLine
 62
7
  6
CONTINUOUS
 10
264.2551663306
 20
169.265688004
 11
264.2551663306
 21
210.015688004
  0
LINE
  5
234
100
AcDbEntity
  8
0
100
AcDbLine
 62
7
  6
CONTINUOUS
 10
114.2551663306
 20
208.515688004
 11
189.2551663306
 21
208.515688004
  0
LINE
  5
235
100
AcDbEntity
  8
0
100
AcDbLine
 62
7
  6
CONTINUOUS
 10
264.2551663306
 20
208.515688004
 11
189.2551663306
 21
208.515688004
  0
INSERT
  5
236
100
AcDbEntity
  8
0
100
AcDbBlockReference
 62
7
  6
CONTINUOUS
  2
_FILLED
 10
114.2551663306
 20
208.515688004
 41
3.0
 42
3.0
 43
3.0
 50
180.0
  0
INSERT
  5
237
100
AcDbEntity
  8
0
100
AcDbBlockReference
 62
7
  6
CONTINUOUS
  2
_FILLED
 10
264.2551663306
 20
208.515688004
 41
3.0
 42
3.0
 43
3.0
  0
ENDBLK
  5
238
100
AcDbEntity
  8
0
  6
BYBLOCK
 62
0
100
AcDbBlockEnd
  0
BLOCK
  5
239
100
AcDbEntity
  8
0
100
AcDbBlockBegin
 62
7
  6
CONTINUOUS
  2
*D3
 70
65
 10
0.0
 20
0.0
  3
*D3
  1

  0
LINE
  5
23A
100
AcDbEntity
  8
0
100
AcDbLine
 62
7
  6
CONTINUOUS
 10
267.0051663306
 20
46.515688004
 11
319.7551663306
 21
46.515688004
  0
LINE
  5
23B
100
AcDbEntity
  8
0
100
AcDbLine
 62
7
  6
CONTINUOUS
 10
266.2551663306
 20
166.515688004
 11
319.7551663306
 21
166.515688004
  0
LINE
  5
23C
100
AcDbEntity
  8
0
100
AcDbLine
 62
7
  6
CONTINUOUS
 10
318.2551663306
 20
46.515688004
 11
318.2551663306
 21
106.515688004
  0
LINE
  5
23D
100
AcDbEntity
  8
0
100
AcDbLine
 62
7
  6
CONTINUOUS
 10
318.2551663306
 20
166.515688004
 11
318.2551663306
 21
106.515688004
  0
INSERT
  5
23E
100
AcDbEntity
  8
0
100
AcDbBlockReference
 62
7
  6
CONTINUOUS
  2
_FILLED
 10
318.2551663306
 20
46.515688004
 41
3.0
 42
3.0
 43
3.0
 50
270.0
  0
INSERT
  5
23F
100
AcDbEntity
  8
0
100
AcDbBlockReference
 62
7
  6
CONTINUOUS
  2
_FILLED
 10
318.2551663306
 20
166.515688004
 41
3.0
 42
3.0
 43
3.0
 50
90.0
  0
ENDBLK
  5
240
100
AcDbEntity
  8
0
  6
BYBLOCK
 62
0
100
AcDbBlockEnd
  0
BLOCK
  5
241
100
AcDbEntity
  8
0
100
AcDbBlockBegin
 62
7
  6
CONTINUOUS
  2
*D4
 70
65
 10
0.0
 20
0.0
  3
*D4
  1

  0
LINE
  5
242
100
AcDbEntity
  8
0
100
AcDbLine
 62
7
  6
CONTINUOUS
 10
-14.7347248488
 20
180.017515523
 11
-14.7347248488
 21
194.015688004
  0
LINE
  5
243
100
AcDbEntity
  8
0
100
AcDbLine
 62
7
  6
CONTINUOUS
 10
56.265275151
 20
167.015688004
 11
56.265275151
 21
194.015688004
  0
LINE
  5
244
100
AcDbEntity
  8
0
100
AcDbLine
 62
7
  6
CONTINUOUS
 10
-14.7347248488
 20
192.515688004
 11
20.7652751511
 21
192.515688004
  0
LINE
  5
245
100
AcDbEntity
  8
0
100
AcDbLine
 62
7
  6
CONTINUOUS
 10
56.265275151
 20
192.515688004
 11
20.7652751511
 21
192.515688004
  0
INSERT
  5
246
100
AcDbEntity
  8
0
100
AcDbBlockReference
 62
7
  6
CONTINUOUS
  2
_FILLED
 10
-14.7347248488
 20
192.515688004
 41
3.0
 42
3.0
 43
3.0
 50
180.0
  0
INSERT
  5
247
100
AcDbEntity
  8
0
100
AcDbBlockReference
 62
7
  6
CONTINUOUS
  2
_FILLED
 10
56.265275151
 20
192.515688004
 41
3.0
 42
3.0
 43
3.0
  0
ENDBLK
  5
248
100
AcDbEntity
  8
0
  6
BYBLOCK
 62
0
100
AcDbBlockEnd
  0
BLOCK
  5
249
100
AcDbEntity
  8
0
100
AcDbBlockBegin
 62
7
  6
CONTINUOUS
  2
*D5
 70
65
 10
0.0
 20
0.0
  3
*D5
  1

  0
LINE
  5
24A
100
AcDbEntity
  8
0
100
AcDbLine
 62
7
  6
CONTINUOUS
 10
158.7551663306
 20
180.515688004
 11
158.7551663306
 21
194.015688004
  0
LINE
  5
24B
100
AcDbEntity
  8
0
100
AcDbLine
 62
7
  6
CONTINUOUS
 10
219.7551663306
 20
180.515688004
 11
219.7551663306
 21
194.015688004
  0
LINE
  5
24C
100
AcDbEntity
  8
0
100
AcDbLine
 62
7
  6
CONTINUOUS
 10
158.7551663306
 20
192.515688004
 11
189.2551663306
 21
192.515688004
  0
LINE
  5
24D
100
AcDbEntity
  8
0
100
AcDbLine
 62
7
  6
CONTINUOUS
 10
219.7551663306
 20
192.515688004
 11
189.2551663306
 21
192.515688004
  0
INSERT
  5
24E
100
AcDbEntity
  8
0
100
AcDbBlockReference
 62
7
  6
CONTINUOUS
  2
_FILLED
 10
158.7551663306
 20
192.515688004
 41
3.0
 42
3.0
 43
3.0
 50
180.0
  0
INSERT
  5
24F
100
AcDbEntity
  8
0
100
AcDbBlockReference
 62
7
  6
CONTINUOUS
  2
_FILLED
 10
219.7551663306
 20
192.515688004
 41
3.0
 42
3.0
 43
3.0
  0
ENDBLK
  5
250
100
AcDbEntity
  8
0
  6
BYBLOCK
 62
0
100
AcDbBlockEnd
  0
BLOCK
  5
251
100
AcDbEntity
  8
0
100
AcDbBlockBegin
 62
7
  6
CONTINUOUS
  2
*D6
 70
65
 10
0.0
 20
0.0
  3
*D6
  1

  0
LINE
  5
252
100
AcDbEntity
  8
0
100
AcDbLine
 62
7
  6
CONTINUOUS
 10
289.2424640154
 20
136.7626088381
 11
303.7551663306
 21
136.7626088381
  0
LINE
  5
253
100
AcDbEntity
  8
0
100
AcDbLine
 62
7
  6
CONTINUOUS
 10
289.2424640154
 20
76.26876717
 11
303.7551663306
 21
76.26876717
  0
LINE
  5
254
100
AcDbEntity
  8
0
100
AcDbLine
 62
7
  6
CONTINUOUS
 10
302.2551663306
 20
136.7626088381
 11
302.2551663306
 21
106.515688004
  0
LINE
  5
255
100
AcDbEntity
  8
0
100
AcDbLine
 62
7
  6
CONTINUOUS
 10
302.2551663306
 20
76.26876717
 11
302.2551663306
 21
106.515688004
  0
INSERT
  5
256
100
AcDbEntity
  8
0
100
AcDbBlockReference
 62
7
  6
CONTINUOUS
  2
_FILLED
 10
302.2551663306
 20
136.7626088381
 41
3.0
 42
3.0
 43
3.0
 50
90.0
  0
INSERT
  5
257
100
AcDbEntity
  8
0
100
AcDbBlockReference
 62
7
  6
CONTINUOUS
  2
_FILLED
 10
302.2551663306
 20
76.26876717
 41
3.0
 42
3.0
 43
3.0
 50
270.0
  0
ENDBLK
  5
258
100
AcDbEntity
  8
0
  6
BYBLOCK
 62
0
100
AcDbBlockEnd
  0
BLOCK
  5
259
100
AcDbEntity
  8
0
100
AcDbBlockBegin
 62
7
  6
CONTINUOUS
  2
*D7
 70
65
 10
0.0
 20
0.0
  3
*D7
  1

  0
LINE
  5
25A
100
AcDbEntity
  8
0
100
AcDbLine
 62
7
  6
CONTINUOUS
 10
139.2551663306
 20
139.515688004
 11
139.2551663306
 21
202.015688004
  0
LINE
  5
25B
100
AcDbEntity
  8
0
100
AcDbLine
 62
7
  6
CONTINUOUS
 10
239.2551663306
 20
139.515688004
 11
239.2551663306
 21
202.015688004
  0
LINE
  5
25C
100
AcDbEntity
  8
0
100
AcDbLine
 62
7
  6
CONTINUOUS
 10
139.2551663306
 20
200.515688004
 11
189.2551663306
 21
200.515688004
  0
LINE
  5
25D
100
AcDbEntity
  8
0
100
AcDbLine
 62
7
  6
CONTINUOUS
 10
239.2551663306
 20
200.515688004
 11
189.2551663306
 21
200.515688004
  0
INSERT
  5
25E
100
AcDbEntity
  8
0
100
AcDbBlockReference
 62
7
  6
CONTINUOUS
  2
_FILLED
 10
139.2551663306
 20
200.515688004
 41
3.0
 42
3.0
 43
3.0
 50
180.0
  0
INSERT
  5
25F
100
AcDbEntity
  8
0
100
AcDbBlockReference
 62
7
  6
CONTINUOUS
  2
_FILLED
 10
239.2551663306
 20
200.515688004
 41
3.0
 42
3.0
 43
3.0
  0
ENDBLK
  5
260
100
AcDbEntity
  8
0
  6
BYBLOCK
 62
0
100
AcDbBlockEnd
  0
BLOCK
  5
261
100
AcDbEntity
  8
0
100
AcDbBlockBegin
 62
7
  6
CONTINUOUS
  2
*D8
 70
65
 10
0.0
 20
0.0
  3
*D8
  1

  0
LINE
  5
262
100
AcDbEntity
  8
0
100
AcDbLine
 62
7
  6
CONTINUOUS
 10
239.7551663306
 20
139.015688004
 11
311.7551663306
 21
139.015688004
  0
LINE
  5
263
100
AcDbEntity
  8
0
100
AcDbLine
 62
7
  6
CONTINUOUS
 10
239.7551663306
 20
74.015688004
 11
311.7551663306
 21
74.015688004
  0
LINE
  5
264
100
AcDbEntity
  8
0
100
AcDbLine
 62
7
  6
CONTINUOUS
 10
310.2551663306
 20
139.015688004
 11
310.2551663306
 21
106.515688004
  0
LINE
  5
265
100
AcDbEntity
  8
0
100
AcDbLine
 62
7
  6
CONTINUOUS
 10
310.2551663306
 20
74.015688004
 11
310.2551663306
 21
106.515688004
  0
INSERT
  5
266
100
AcDbEntity
  8
0
100
AcDbBlockReference
 62
7
  6
CONTINUOUS
  2
_FILLED
 10
310.2551663306
 20
139.015688004
 41
3.0
 42
3.0
 43
3.0
 50
90.0
  0
INSERT
  5
267
100
AcDbEntity
  8
0
100
AcDbBlockReference
 62
7
  6
CONTINUOUS
  2
_FILLED
 10
310.2551663306
 20
74.015688004
 41
3.0
 42
3.0
 43
3.0
 50
270.0
  0
ENDBLK
  5
268
100
AcDbEntity
  8
0
  6
BYBLOCK
 62
0
100
AcDbBlockEnd
  0
ENDSEC
  0
SECTION
  2
ENTITIES
  0
DIMENSION
  5
269
100
AcDbEntity
  8
0
100
AcDbDimension
 62
7
  6
CONTINUOUS
  2
*D0
 10
292.2551663306
 20
216.515688004
 11
185.7194520449
 21
216.515688004
 70
160
 71
2
 72
2
 41
0.9
 42
206.0
  3
DIMSTYLE_1
100
AcDbAlignedDimension
 13
86.2551663306
 23
179.517515523
 14
292.2551663306
 24
179.517515523
100
AcDbRotatedDimension
  0
DIMENSION
  5
26A
100
AcDbEntity
  8
0
100
AcDbDimension
 62
7
  6
CONTINUOUS
  2
*D1
 10
326.2551663306
 20
30.515688004
 11
326.2551663306
 21
103.4085451469
 70
160
 71
2
 72
2
 41
0.9
 42
152.0
  3
DIMSTYLE_1
100
AcDbAlignedDimension
 13
289.2569938496
 23
182.515688004
 14
289.2569938496
 24
30.515688004
 50
270.0
100
AcDbRotatedDimension
  0
DIMENSION
  5
26B
100
AcDbEntity
  8
0
100
AcDbDimension
 62
7
  6
CONTINUOUS
  2
*D2
 10
264.2551663306
 20
208.515688004
 11
186.1480234735
 21
208.515688004
 70
160
 71
2
 72
2
 41
0.9
 42
150.0
  3
DIMSTYLE_1
100
AcDbAlignedDimension
 13
114.2551663306
 23
168.015688004
 14
264.2551663306
 24
168.765688004
100
AcDbRotatedDimension
  0
DIMENSION
  5
26C
100
AcDbEntity
  8
0
100
AcDbDimension
 62
7
  6
CONTINUOUS
  2
*D3
 10
318.2551663306
 20
166.515688004
 11
318.2551663306
 21
103.3014022897
 70
160
 71
2
 72
2
 41
0.9
 42
120.0
  3
DIMSTYLE_1
100
AcDbAlignedDimension
 13
266.5051663306
 23
46.515688004
 14
265.7551663306
 24
166.515688004
 50
90.0
100
AcDbRotatedDimension
  0
DIMENSION
  5
26D
100
AcDbEntity
  8
0
100
AcDbDimension
 62
7
  6
CONTINUOUS
  2
*D4
 10
56.265275151
 20
192.515688004
 11
18.7295608654
 21
192.515688004
 70
160
 71
2
 72
2
 41
0.9
 42
70.9999999998
  3
DIMSTYLE_1
100
AcDbAlignedDimension
 13
-14.7347248488
 23
179.517515523
 14
56.265275151
 24
166.515688004
100
AcDbRotatedDimension
  0
DIMENSION
  5
26E
100
AcDbEntity
  8
0
100
AcDbDimension
 62
7
  6
CONTINUOUS
  2
*D5
 10
219.7551663306
 20
192.515688004
 11
187.2194520449
 21
192.515688004
 70
160
 71
2
 72
2
 41
0.9
 42
61.0
  3
DIMSTYLE_1
100
AcDbAlignedDimension
 13
158.7551663306
 23
180.015688004
 14
219.7551663306
 24
180.015688004
100
AcDbRotatedDimension
  0
DIMENSION
  5
26F
100
AcDbEntity
  8
0
100
AcDbDimension
 62
7
  6
CONTINUOUS
  2
*D6
 10
302.2551663306
 20
76.26876717
 11
302.2551663306
 21
104.1585451469
 70
160
 71
2
 72
2
 41
0.9
 42
60.4938416681
  3
DIMSTYLE_2
100
AcDbAlignedDimension
 13
288.7424640154
 23
136.7626088381
 14
288.7424640154
 24
76.26876717
 50
270.0
100
AcDbRotatedDimension
  0
DIMENSION
  5
270
100
AcDbEntity
  8
0
100
AcDbDimension
 62
7
  6
CONTINUOUS
  2
*D7
 10
239.2551663306
 20
200.515688004
 11
186.0408806164
 21
200.515688004
 70
160
 71
2
 72
2
 41
0.9
 42
100.0
  3
DIMSTYLE_1
100
AcDbAlignedDimension
 13
139.2551663306
 23
139.015688004
 14
239.2551663306
 24
139.015688004
100
AcDbRotatedDimension
  0
DIMENSION
  5
271
100
AcDbEntity
  8
0
100
AcDbDimension
 62
7
  6
CONTINUOUS
  2
*D8
 10
310.2551663306
 20
74.015688004
 11
310.2551663306
 21
104.265688004
 70
160
 71
2
 72
2
 41
0.9
 42
65.0
  3
DIMSTYLE_1
100
AcDbAlignedDimension
 13
239.2551663306
 23
139.015688004
 14
239.2551663306
 24
74.015688004
 50
270.0
100
AcDbRotatedDimension
  0
LINE
  5
272
100
AcDbEntity
  8
RACCORDO
100
AcDbLine
 62
7
  6
CONTINUOUS
 10
86.2551663306
 20
33.5138604851
 11
86.2551663306
 21
179.517515523
  0
LINE
  5
273
100
AcDbEntity
  8
DRAFT
100
AcDbLine
 62
7
  6
CONTINUOUS
 10
100.0051663306
 20
158.9591179874
 11
99.8655394234
 21
158.6263875958
  0
LINE
  5
274
100
AcDbEntity
  8
RACCORDO
100
AcDbLine
 62
7
  6
CONTINUOUS
 10
99.770583988
 20
157.4801530233
 11
99.8655394234
 21
157.7055337179
  0
LINE
  5
275
100
AcDbEntity
  8
RACCORDO
100
AcDbLine
 62
7
  6
CONTINUOUS
 10
99.770583988
 20
55.5512229848
 11
99.8655394234
 21
55.3258422901
  0
LINE
  5
276
100
AcDbEntity
  8
DRAFT
100
AcDbLine
 62
7
  6
CONTINUOUS
 10
100.0051663306
 20
54.0722580207
 11
99.8655394234
 21
54.4049884123
  0
LINE
  5
277
100
AcDbEntity
  8
DRAFT
100
AcDbLine
 62
7
  6
CONTINUOUS
 10
98.5051663306
 20
35.3728399447
 11
98.6447932379
 21
33.9760091651
  0
LINE
  5
278
100
AcDbEntity
  8
RACCORDO
100
AcDbLine
 62
7
  6
CONTINUOUS
 10
88.7551663306
 20
179.5159925905
 11
88.7551663306
 21
154.530067598
  0
LINE
  5
279
100
AcDbEntity
  8
DRAFT
100
AcDbLine
 62
7
  6
CONTINUOUS
 10
88.7551663306
 20
153.50130841
 11
88.7551663306
 21
138.515688004
  0
LINE
  5
27A
100
AcDbEntity
  8
DRAFT
100
AcDbLine
 62
7
  6
CONTINUOUS
 10
88.7551663306
 20
137.015688004
 11
88.7551663306
 21
107.265688004
  0
LINE
  5
27B
100
AcDbEntity
  8
DRAFT
100
AcDbLine
 62
7
  6
CONTINUOUS
 10
88.7551663306
 20
105.765688004
 11
88.7551663306
 21
76.015688004
  0
LINE
  5
27C
100
AcDbEntity
  8
DRAFT
100
AcDbLine
 62
7
  6
CONTINUOUS
 10
88.7551663306
 20
74.515688004
 11
88.7551663306
 21
59.530067598
  0
LINE
  5
27D
100
AcDbEntity
  8
RACCORDO
100
AcDbLine
 62
7
  6
CONTINUOUS
 10
88.7551663306
 20
58.50130841
 11
88.7551663306
 21
33.5153834175
  0
LINE
  5
27E
100
AcDbEntity
  8
DRAFT
100
AcDbLine
 62
7
  6
CONTINUOUS
 10
89.7678686459
 20
136.7626088381
 11
89.7678686459
 21
107.51876717
  0
LINE
  5
27F
100
AcDbEntity
  8
DRAFT
100
AcDbLine
 62
7
  6
CONTINUOUS
 10
89.7678686459
 20
105.5126088381
 11
89.7678686459
 21
76.26876717
  0
LINE
  5
280
100
AcDbEntity
  8
RACCORDO
100
AcDbLine
 62
7
  6
CONTINUOUS
 10
91.1123182713
 20
35.8725353582
 11
91.1123182713
 21
58.265688004
  0
LINE
  5
281
100
AcDbEntity
  8
DRAFT
100
AcDbLine
 62
7
  6
CONTINUOUS
 10
91.1123182713
 20
59.765688004
 11
91.1123182713
 21
73.9266244282
  0
LINE
  5
282
100
AcDbEntity
  8
DRAFT
100
AcDbLine
 62
7
  6
CONTINUOUS
 10
91.1123182713
 20
139.1047515799
 11
91.1123182713
 21
153.265688004
  0
LINE
  5
283
100
AcDbEntity
  8
RACCORDO
100
AcDbLine
 62
7
  6
CONTINUOUS
 10
91.1123182713
 20
154.765688004
 11
91.1123182713
 21
177.1588406498
  0
LINE
  5
284
100
AcDbEntity
  8
DRAFT
100
AcDbLine
 62
7
  6
CONTINUOUS
 10
94.7551663306
 20
107.265688004
 11
94.7551663306
 21
105.765688004
  0
LINE
  5
285
100
AcDbEntity
  8
RACCORDO
100
AcDbLine
 62
250
  6
CONTINUOUS
 10
94.8081568435
 20
107.2524454207
 11
94.8081568435
 21
105.7789305874
  0
LINE
  5
286
100
AcDbEntity
  8
RACCORDO
100
AcDbLine
 62
250
  6
CONTINUOUS
 10
95.307852257
 20
107.2482342685
 11
95.307852257
 21
105.7831417396
  0
LINE
  5
287
100
AcDbEntity
  8
DRAFT
100
AcDbLine
 62
7
  6
CONTINUOUS
 10
98.5051663306
 20
177.6585360633
 11
98.6447932379
 21
179.055366843
  0
LINE
  5
288
100
AcDbEntity
  8
DRAFT
100
AcDbLine
 62
7
  6
CONTINUOUS
 10
101.298803993
 20
101.115688004
 11
101.281348928
 21
101.3836371965
  0
LINE
  5
289
100
AcDbEntity
  8
DRAFT
100
AcDbLine
 62
7
  6
CONTINUOUS
 10
101.298803993
 20
134.215688004
 11
101.281348928
 21
134.4836371965
  0
LINE
  5
28A
100
AcDbEntity
  8
DRAFT
100
AcDbLine
 62
7
  6
CONTINUOUS
 10
103.2824238728
 20
79.515688004
 11
103.2911507406
 21
79.2477388116
  0
LINE
  5
28B
100
AcDbEntity
  8
DRAFT
100
AcDbLine
 62
7
  6
CONTINUOUS
 10
102.9769835001
 20
101.115688004
 11
102.9551663306
 21
101.7855609851
  0
LINE
  5
28C
100
AcDbEntity
  8
DRAFT
100
AcDbLine
 62
7
  6
CONTINUOUS
 10
103.2824238728
 20
112.615688004
 11
103.2911507406
 21
112.3477388116
  0
LINE
  5
28D
100
AcDbEntity
  8
DRAFT
100
AcDbLine
 62
7
  6
CONTINUOUS
 10
102.9769835001
 20
134.215688004
 11
102.9551663306
 21
134.8855609851
  0
LINE
  5
28E
100
AcDbEntity
  8
RACCORDO
100
AcDbLine
 62
7
  6
CONTINUOUS
 10
99.8632426311
 20
39.2459916443
 11
99.7718427169
 21
48.7762029215
  0
LINE
  5
28F
100
AcDbEntity
  8
RACCORDO
100
AcDbLine
 62
7
  6
CONTINUOUS
 10
98.7384899443
 20
164.2551730866
 11
98.6470900302
 21
173.7853843638
  0
LINE
  5
290
100
AcDbEntity
  8
DRAFT
100
AcDbLine
 62
7
  6
CONTINUOUS
 10
98.5051663306
 20
177.6585360633
 11
98.5051663306
 21
158.9591179874
  0
LINE
  5
291
100
AcDbEntity
  8
DRAFT
100
AcDbLine
 62
7
  6
CONTINUOUS
 10
98.5051663306
 20
35.3728399447
 11
98.5051663306
 21
54.0722580207
  0
LINE
  5
292
100
AcDbEntity
  8
RACCORDO
100
AcDbLine
 62
7
  6
CONTINUOUS
 10
98.6447932379
 20
179.055366843
 11
98.6447932379
 21
174.7250769846
  0
LINE
  5
293
100
AcDbEntity
  8
DRAFT
100
AcDbLine
 62
7
  6
CONTINUOUS
 10
98.6447932379
 20
55.3258422901
 11
98.6447932379
 21
54.4049884123
  0
LINE
  5
294
100
AcDbEntity
  8
RACCORDO
100
AcDbLine
 62
7
  6
CONTINUOUS
 10
98.6447932379
 20
33.9760091651
 11
98.6447932379
 21
38.3062990235
  0
LINE
  5
295
100
AcDbEntity
  8
DRAFT
100
AcDbLine
 62
7
  6
CONTINUOUS
 10
98.6447932379
 20
157.7055337179
 11
98.6447932379
 21
158.6263875958
  0
LINE
  5
296
100
AcDbEntity
  8
RACCORDO
100
AcDbLine
 62
7
  6
CONTINUOUS
 10
98.7407867367
 20
163.3154804658
 11
98.7407867367
 21
157.176716777
  0
LINE
  5
297
100
AcDbEntity
  8
RACCORDO
100
AcDbLine
 62
7
  6
CONTINUOUS
 10
98.7407867367
 20
55.8546592311
 11
98.7407867367
 21
49.7158955422
  0
LINE
  5
298
100
AcDbEntity
  8
RACCORDO
100
AcDbLine
 62
7
  6
CONTINUOUS
 10
99.7695459246
 20
49.7158955422
 11
99.7695459246
 21
55.8546592311
  0
LINE
  5
299
100
AcDbEntity
  8
RACCORDO
100
AcDbLine
 62
7
  6
CONTINUOUS
 10
99.7695459246
 20
157.176716777
 11
99.7695459246
 21
163.3154804658
  0
LINE
  5
29A
100
AcDbEntity
  8
RACCORDO
100
AcDbLine
 62
7
  6
CONTINUOUS
 10
99.8655394234
 20
179.055366843
 11
99.8655394234
 21
174.7250769846
  0
LINE
  5
29B
100
AcDbEntity
  8
DRAFT
100
AcDbLine
 62
7
  6
CONTINUOUS
 10
99.8655394234
 20
55.3258422901
 11
99.8655394234
 21
54.4049884123
  0
LINE
  5
29C
100
AcDbEntity
  8
RACCORDO
100
AcDbLine
 62
7
  6
CONTINUOUS
 10
99.8655394234
 20
33.9760091651
 11
99.8655394234
 21
38.3062990235
  0
LINE
  5
29D
100
AcDbEntity
  8
DRAFT
100
AcDbLine
 62
7
  6
CONTINUOUS
 10
99.8655394234
 20
157.7055337179
 11
99.8655394234
 21
158.6263875958
  0
LINE
  5
29E
100
AcDbEntity
  8
DRAFT
100
AcDbLine
 62
7
  6
CONTINUOUS
 10
100.0051663306
 20
177.6585360633
 11
100.0051663306
 21
158.9591179874
  0
LINE
  5
29F
100
AcDbEntity
  8
DRAFT
100
AcDbLine
 62
7
  6
CONTINUOUS
 10
100.0051663306
 20
35.3728399447
 11
100.0051663306
 21
54.0722580207
  0
LINE
  5
2A0
100
AcDbEntity
  8
RACCORDO
100
AcDbLine
 62
250
  6
CONTINUOUS
 10
100.0107759541
 20
74.515688004
 11
100.0107759541
 21
76.015688004
  0
LINE
  5
2A1
100
AcDbEntity
  8
RACCORDO
100
AcDbLine
 62
250
  6
CONTINUOUS
 10
100.0107759541
 20
137.015688004
 11
100.0107759541
 21
138.515688004
  0
LINE
  5
2A2
100
AcDbEntity
  8
RACCORDO
100
AcDbLine
 62
250
  6
CONTINUOUS
 10
100.4127737718
 20
105.7831417396
 11
100.4127737718
 21
107.2482342685
  0
LINE
  5
2A3
100
AcDbEntity
  8
DRAFT
100
AcDbLine
 62
7
  6
CONTINUOUS
 10
101.0020871647
 20
103.8672753749
 11
101.0020871647
 21
105.5126088381
  0
LINE
  5
2A4
100
AcDbEntity
  8
DRAFT
100
AcDbLine
 62
7
  6
CONTINUOUS
 10
101.0020871647
 20
107.51876717
 11
101.0020871647
 21
109.1641006332
  0
LINE
  5
2A5
100
AcDbEntity
  8
RACCORDO
100
AcDbLine
 62
7
  6
CONTINUOUS
 10
101.0107378772
 20
74.5070372916
 11
101.0107378772
 21
76.0243387165
  0
LINE
  5
2A6
100
AcDbEntity
  8
RACCORDO
100
AcDbLine
 62
7
  6
CONTINUOUS
 10
101.0107378772
 20
137.0070372916
 11
101.0107378772
 21
138.5243387165
  0
LINE
  5
2A7
100
AcDbEntity
  8
RACCORDO
100
AcDbLine
 62
250
  6
CONTINUOUS
 10
101.2122864334
 20
105.776403896
 11
101.2122864334
 21
107.254972112
  0
LINE
  5
2A8
100
AcDbEntity
  8
DRAFT
100
AcDbLine
 62
7
  6
CONTINUOUS
 10
101.2551663306
 20
136.7626088381
 11
101.2551663306
 21
135.6797035941
  0
LINE
  5
2A9
100
AcDbEntity
  8
DRAFT
100
AcDbLine
 62
7
  6
CONTINUOUS
 10
101.2551663306
 20
134.8855609851
 11
101.2551663306
 21
111.245815023
  0
LINE
  5
2AA
100
AcDbEntity
  8
DRAFT
100
AcDbLine
 62
7
  6
CONTINUOUS
 10
101.2551663306
 20
110.451672414
 11
101.2551663306
 21
109.1641006332
  0
LINE
  5
2AB
100
AcDbEntity
  8
DRAFT
100
AcDbLine
 62
7
  6
CONTINUOUS
 10
101.2551663306
 20
103.8672753749
 11
101.2551663306
 21
102.5797035941
  0
LINE
  5
2AC
100
AcDbEntity
  8
DRAFT
100
AcDbLine
 62
7
  6
CONTINUOUS
 10
101.2551663306
 20
101.7855609851
 11
101.2551663306
 21
78.145815023
  0
LINE
  5
2AD
100
AcDbEntity
  8
DRAFT
100
AcDbLine
 62
7
  6
CONTINUOUS
 10
101.2551663306
 20
77.351672414
 11
101.2551663306
 21
76.26876717
  0
LINE
  5
2AE
100
AcDbEntity
  8
DRAFT
100
AcDbLine
 62
7
  6
CONTINUOUS
 10
101.2551663306
 20
104.0191204074
 11
101.2551663306
 21
109.0122556006
  0
LINE
  5
2AF
100
AcDbEntity
  8
DRAFT
100
AcDbLine
 62
7
  6
CONTINUOUS
 10
101.2682566323
 20
135.6927938958
 11
101.2682566323
 21
136.6709767263
  0
LINE
  5
2B0
100
AcDbEntity
  8
DRAFT
100
AcDbLine
 62
7
  6
CONTINUOUS
 10
101.298803993
 20
78.815688004
 11
101.298803993
 21
101.115688004
  0
LINE
  5
2B1
100
AcDbEntity
  8
DRAFT
100
AcDbLine
 62
7
  6
CONTINUOUS
 10
101.298803993
 20
111.915688004
 11
101.298803993
 21
134.215688004
  0
LINE
  5
2B2
100
AcDbEntity
  8
DRAFT
100
AcDbLine
 62
7
  6
CONTINUOUS
 10
101.5911507406
 20
139.1047515799
 11
101.5911507406
 21
136.9938708346
  0
LINE
  5
2B3
100
AcDbEntity
  8
DRAFT
100
AcDbLine
 62
7
  6
CONTINUOUS
 10
101.5911507406
 20
76.0375051735
 11
101.5911507406
 21
73.9266244282
  0
LINE
  5
2B4
100
AcDbEntity
  8
DRAFT
100
AcDbLine
 62
7
  6
CONTINUOUS
 10
102.9551663306
 20
77.351672414
 11
102.9551663306
 21
78.145815023
  0
LINE
  5
2B5
100
AcDbEntity
  8
DRAFT
100
AcDbLine
 62
7
  6
CONTINUOUS
 10
102.9551663306
 20
101.7855609851
 11
102.9551663306
 21
102.5797035941
  0
LINE
  5
2B6
100
AcDbEntity
  8
DRAFT
100
AcDbLine
 62
7
  6
CONTINUOUS
 10
102.9551663306
 20
110.451672414
 11
102.9551663306
 21
111.245815023
  0
LINE
  5
2B7
100
AcDbEntity
  8
DRAFT
100
AcDbLine
 62
7
  6
CONTINUOUS
 10
102.9551663306
 20
134.8855609851
 11
102.9551663306
 21
135.6797035941
  0
LINE
  5
2B8
100
AcDbEntity
  8
DRAFT
100
AcDbLine
 62
7
  6
CONTINUOUS
 10
102.9769835001
 20
78.815688004
 11
102.9769835001
 21
101.115688004
  0
LINE
  5
2B9
100
AcDbEntity
  8
DRAFT
100
AcDbLine
 62
7
  6
CONTINUOUS
 10
102.9769835001
 20
111.915688004
 11
102.9769835001
 21
134.215688004
  0
LINE
  5
2BA
100
AcDbEntity
  8
DRAFT
100
AcDbLine
 62
7
  6
CONTINUOUS
 10
103.2551663306
 20
107.8691204074
 11
103.2551663306
 21
105.1622556006
  0
LINE
  5
2BB
100
AcDbEntity
  8
DRAFT
100
AcDbLine
 62
7
  6
CONTINUOUS
 10
103.2824238728
 20
133.515688004
 11
103.2824238728
 21
112.615688004
  0
LINE
  5
2BC
100
AcDbEntity
  8
DRAFT
100
AcDbLine
 62
7
  6
CONTINUOUS
 10
103.2824238728
 20
100.415688004
 11
103.2824238728
 21
79.515688004
  0
LINE
  5
2BD
100
AcDbEntity
  8
DRAFT
100
AcDbLine
 62
7
  6
CONTINUOUS
 10
103.2911507406
 20
136.9938708346
 11
103.2911507406
 21
109.365688004
  0
LINE
  5
2BE
100
AcDbEntity
  8
DRAFT
100
AcDbLine
 62
7
  6
CONTINUOUS
 10
103.2911507406
 20
103.665688004
 11
103.2911507406
 21
76.0375051735
  0
LINE
  5
2BF
100
AcDbEntity
  8
DRAFT
100
AcDbLine
 62
7
  6
CONTINUOUS
 10
103.8442299065
 20
107.515688004
 11
103.8442299065
 21
105.515688004
  0
LWPOLYLINE
  5
2C0
100
AcDbEntity
  8
RACCORDO
100
AcDbPolyline
 62
7
  6
CONTINUOUS
 90
4
 70
0
 10
98.7404122511
 20
55.6224480928
 10
98.7401094201
 20
55.5709779208
 10
98.7399367493
 20
55.5572622792
 10
98.7397486733
 20
55.5512229848
  0
LWPOLYLINE
  5
2C1
100
AcDbEntity
  8
RACCORDO
100
AcDbPolyline
 62
7
  6
CONTINUOUS
 90
4
 70
0
 10
99.7699204102
 20
157.4089279153
 10
99.7702232412
 20
157.4603980873
 10
99.770395912
 20
157.4741137288
 10
99.770583988
 20
157.4801530233
  0
LINE
  5
2C2
100
AcDbEntity
  8
RACCORDO
100
AcDbLine
 62
7
  6
CONTINUOUS
 10
99.7718427169
 20
164.2551730866
 11
99.8632426311
 21
173.7853843638
  0
LINE
  5
2C3
100
AcDbEntity
  8
RACCORDO
100
AcDbLine
 62
7
  6
CONTINUOUS
 10
98.6470900302
 20
39.2459916443
 11
98.7384899443
 21
48.7762029215
  0
LINE
  5
2C4
100
AcDbEntity
  8
DRAFT
100
AcDbLine
 62
7
  6
CONTINUOUS
 10
103.2911507406
 20
133.7836371965
 11
103.2824238728
 21
133.515688004
  0
LINE
  5
2C5
100
AcDbEntity
  8
DRAFT
100
AcDbLine
 62
7
  6
CONTINUOUS
 10
102.9551663306
 20
111.245815023
 11
102.9769835001
 21
111.915688004
  0
LINE
  5
2C6
100
AcDbEntity
  8
DRAFT
100
AcDbLine
 62
7
  6
CONTINUOUS
 10
103.2911507406
 20
100.6836371965
 11
103.2824238728
 21
100.415688004
  0
LINE
  5
2C7
100
AcDbEntity
  8
DRAFT
100
AcDbLine
 62
7
  6
CONTINUOUS
 10
102.9551663306
 20
78.145815023
 11
102.9769835001
 21
78.815688004
  0
LINE
  5
2C8
100
AcDbEntity
  8
DRAFT
100
AcDbLine
 62
7
  6
CONTINUOUS
 10
101.281348928
 20
111.6477388116
 11
101.298803993
 21
111.915688004
  0
LINE
  5
2C9
100
AcDbEntity
  8
DRAFT
100
AcDbLine
 62
7
  6
CONTINUOUS
 10
101.281348928
 20
78.5477388116
 11
101.298803993
 21
78.815688004
  0
LINE
  5
2CA
100
AcDbEntity
  8
RACCORDO
100
AcDbLine
 62
7
  6
CONTINUOUS
 10
101.5911507406
 20
139.1047515799
 11
101.0107378772
 21
138.5243387165
  0
LINE
  5
2CB
100
AcDbEntity
  8
RACCORDO
100
AcDbLine
 62
7
  6
CONTINUOUS
 10
101.5911507406
 20
73.9266244282
 11
101.0107378772
 21
74.5070372916
  0
LINE
  5
2CC
100
AcDbEntity
  8
DRAFT
100
AcDbLine
 62
7
  6
CONTINUOUS
 10
100.0051663306
 20
177.6585360633
 11
99.8655394234
 21
179.055366843
  0
LINE
  5
2CD
100
AcDbEntity
  8
RACCORDO
100
AcDbLine
 62
250
  6
CONTINUOUS
 10
105.7638551201
 20
104.0191204074
 11
105.7638551201
 21
105.1622556006
  0
LINE
  5
2CE
100
AcDbEntity
  8
RACCORDO
100
AcDbLine
 62
250
  6
CONTINUOUS
 10
105.7638551201
 20
107.8691204074
 11
105.7638551201
 21
109.0122556006
  0
LINE
  5
2CF
100
AcDbEntity
  8
RACCORDO
100
AcDbLine
 62
7
  6
CONTINUOUS
 10
106.7638170431
 20
104.0139300643
 11
106.7638170431
 21
105.1674459438
  0
LINE
  5
2D0
100
AcDbEntity
  8
RACCORDO
100
AcDbLine
 62
7
  6
CONTINUOUS
 10
106.7638170431
 20
107.8639300643
 11
106.7638170431
 21
109.0174459438
  0
LINE
  5
2D1
100
AcDbEntity
  8
DRAFT
100
AcDbLine
 62
7
  6
CONTINUOUS
 10
107.3442299065
 20
109.365688004
 11
107.3442299065
 21
107.515688004
  0
LINE
  5
2D2
100
AcDbEntity
  8
DRAFT
100
AcDbLine
 62
7
  6
CONTINUOUS
 10
107.3442299065
 20
105.515688004
 11
107.3442299065
 21
103.665688004
  0
LINE
  5
2D3
100
AcDbEntity
  8
DRAFT
100
AcDbLine
 62
7
  6
CONTINUOUS
 10
111.9737472138
 20
168.015688004
 11
111.9737472138
 21
165.015688004
  0
LINE
  5
2D4
100
AcDbEntity
  8
DRAFT
100
AcDbLine
 62
7
  6
CONTINUOUS
 10
112.0051663306
 20
168.015688004
 11
112.0051663306
 21
165.015688004
  0
LINE
  5
2D5
100
AcDbEntity
  8
DRAFT
100
AcDbLine
 62
7
  6
CONTINUOUS
 10
100.0051663306
 20
35.3728399447
 11
99.8655394234
 21
33.9760091651
  0
LINE
  5
2D6
100
AcDbEntity
  8
DRAFT
100
AcDbLine
 62
7
  6
CONTINUOUS
 10
101.5911507406
 20
136.9938708346
 11
101.2682566323
 21
136.6709767263
  0
LINE
  5
2D7
100
AcDbEntity
  8
DRAFT
100
AcDbLine
 62
7
  6
CONTINUOUS
 10
102.9551663306
 20
135.6797035941
 11
103.2911507406
 21
136.015688004
  0
LWPOLYLINE
  5
2D8
100
AcDbEntity
  8
0
100
AcDbPolyline
 62
7
  6
CONTINUOUS
 90
10
 70
0
 43
0.3500000006
 10
191.5051613159
 20
220.265692749
 10
190.8623078613
 20
219.6228392944
 10
190.4337388916
 20
218.7656832275
 10
190.4337388916
 20
217.6942608032
 10
190.8623078613
 20
217.2656918335
 10
191.5051613159
 20
217.2656918335
 10
191.9337302856
 20
217.6942608032
 10
191.9337302856
 20
218.5513987427
 10
191.5051613159
 20
218.9799677124
 10
190.5766012573
 20
218.9799677124
  0
LWPOLYLINE
  5
2D9
100
AcDbEntity
  8
0
100
AcDbPolyline
 62
7
  6
CONTINUOUS
 90
3
 70
0
 43
0.3500000006
 10
186.1480310669
 20
211.4085523682
 10
187.0051690063
 20
212.2656903076
 10
187.0051690063
 20
209.2656893921
  0
LINE
  5
2DA
100
AcDbEntity
  8
RACCORDO
100
AcDbLine
 62
7
  6
CONTINUOUS
 10
95.7907013114
 20
153.5002703467
 11
95.5653206168
 21
153.4053149113
  0
LINE
  5
2DB
100
AcDbEntity
  8
DRAFT
100
AcDbLine
 62
7
  6
CONTINUOUS
 10
94.3117363473
 20
153.265688004
 11
94.6444667389
 21
153.4053149113
  0
LINE
  5
2DC
100
AcDbEntity
  8
RACCORDO
100
AcDbLine
 62
7
  6
CONTINUOUS
 10
289.2569938496
 20
30.515688004
 11
89.2533388117
 21
30.515688004
  0
LINE
  5
2DD
100
AcDbEntity
  8
DRAFT
100
AcDbLine
 62
7
  6
CONTINUOUS
 10
94.3117363473
 20
59.765688004
 11
94.6444667389
 21
59.6260610968
  0
LINE
  5
2DE
100
AcDbEntity
  8
RACCORDO
100
AcDbLine
 62
7
  6
CONTINUOUS
 10
95.7907013114
 20
59.5311056614
 11
95.5653206168
 21
59.6260610968
  0
LINE
  5
2DF
100
AcDbEntity
  8
DRAFT
100
AcDbLine
 62
7
  6
CONTINUOUS
 10
101.5911507406
 20
76.0375051735
 11
101.2682566323
 21
76.3603992818
  0
LINE
  5
2E0
100
AcDbEntity
  8
DRAFT
100
AcDbLine
 62
7
  6
CONTINUOUS
 10
103.2911507406
 20
77.015688004
 11
102.9551663306
 21
77.351672414
  0
LINE
  5
2E1
100
AcDbEntity
  8
DRAFT
100
AcDbLine
 62
7
  6
CONTINUOUS
 10
116.5051663306
 20
165.015688004
 11
116.5051663306
 21
168.015688004
  0
LINE
  5
2E2
100
AcDbEntity
  8
DRAFT
100
AcDbLine
 62
7
  6
CONTINUOUS
 10
116.5365854475
 20
165.015688004
 11
116.5365854475
 21
168.015688004
  0
LWPOLYLINE
  5
2E3
100
AcDbEntity
  8
0
100
AcDbPolyline
 62
7
  6
CONTINUOUS
 90
3
 70
0
 43
0.3500000006
 10
186.0408797607
 20
203.4085499268
 10
186.8980177002
 20
204.2656878662
 10
186.8980177002
 20
201.2656869507
  0
LINE
  5
2E4
100
AcDbEntity
  8
RACCORDO
100
AcDbLine
 62
7
  6
CONTINUOUS
 10
157.2656994963
 20
171.0262211696
 11
156.6661027548
 21
170.4266244282
  0
LINE
  5
2E5
100
AcDbEntity
  8
RACCORDO
100
AcDbLine
 62
7
  6
CONTINUOUS
 10
289.2554709171
 20
33.015688004
 11
221.2551663306
 21
33.015688004
  0
LINE
  5
2E6
100
AcDbEntity
  8
DRAFT
100
AcDbLine
 62
7
  6
CONTINUOUS
 10
219.7551663306
 20
33.015688004
 11
190.0051663306
 21
33.015688004
  0
LINE
  5
2E7
100
AcDbEntity
  8
DRAFT
100
AcDbLine
 62
7
  6
CONTINUOUS
 10
188.5051663306
 20
33.015688004
 11
158.7551663306
 21
33.015688004
  0
LINE
  5
2E8
100
AcDbEntity
  8
RACCORDO
100
AcDbLine
 62
7
  6
CONTINUOUS
 10
157.2551663306
 20
33.015688004
 11
89.2548617442
 21
33.015688004
  0
LINE
  5
2E9
100
AcDbEntity
  8
DRAFT
100
AcDbLine
 62
7
  6
CONTINUOUS
 10
279.8655394234
 20
33.9760091651
 11
278.6447932379
 21
33.9760091651
  0
LINE
  5
2EA
100
AcDbEntity
  8
DRAFT
100
AcDbLine
 62
7
  6
CONTINUOUS
 10
99.8655394234
 20
33.9760091651
 11
98.6447932379
 21
33.9760091651
  0
LINE
  5
2EB
100
AcDbEntity
  8
DRAFT
100
AcDbLine
 62
7
  6
CONTINUOUS
 10
158.7551663306
 20
34.0283903193
 11
188.2520871647
 21
34.0283903193
  0
LINE
  5
2EC
100
AcDbEntity
  8
DRAFT
100
AcDbLine
 62
7
  6
CONTINUOUS
 10
190.2582454966
 20
34.0283903193
 11
219.7551663306
 21
34.0283903193
  0
LINE
  5
2ED
100
AcDbEntity
  8
RACCORDO
100
AcDbLine
 62
7
  6
CONTINUOUS
 10
286.8983189764
 20
35.3728399447
 11
280.0051663306
 21
35.3728399447
  0
LINE
  5
2EE
100
AcDbEntity
  8
DRAFT
100
AcDbLine
 62
7
  6
CONTINUOUS
 10
278.5051663306
 20
35.3728399447
 11
221.8442299065
 21
35.3728399447
  0
LINE
  5
2EF
100
AcDbEntity
  8
DRAFT
100
AcDbLine
 62
7
  6
CONTINUOUS
 10
156.6661027548
 20
35.3728399447
 11
100.0051663306
 21
35.3728399447
  0
LINE
  5
2F0
100
AcDbEntity
  8
RACCORDO
100
AcDbLine
 62
7
  6
CONTINUOUS
 10
98.5051663306
 20
35.3728399447
 11
91.6120136848
 21
35.3728399447
  0
LINE
  5
2F1
100
AcDbEntity
  8
DRAFT
100
AcDbLine
 62
7
  6
CONTINUOUS
 10
157.2551663306
 20
36.515688004
 11
158.7551663306
 21
36.515688004
  0
LINE
  5
2F2
100
AcDbEntity
  8
DRAFT
100
AcDbLine
 62
7
  6
CONTINUOUS
 10
219.7551663306
 20
36.515688004
 11
221.2551663306
 21
36.515688004
  0
LINE
  5
2F3
100
AcDbEntity
  8
RACCORDO
100
AcDbLine
 62
250
  6
CONTINUOUS
 10
157.268408914
 20
36.5686785169
 11
158.7551663306
 21
36.5686785169
  0
LINE
  5
2F4
100
AcDbEntity
  8
RACCORDO
100
AcDbLine
 62
250
  6
CONTINUOUS
 10
219.7551663306
 20
36.5686785169
 11
221.2419237473
 21
36.5686785169
  0
LINE
  5
2F5
100
AcDbEntity
  8
RACCORDO
100
AcDbLine
 62
250
  6
CONTINUOUS
 10
157.2726200662
 20
37.0683739304
 11
158.7551663306
 21
37.0683739304
  0
LINE
  5
2F6
100
AcDbEntity
  8
RACCORDO
100
AcDbLine
 62
250
  6
CONTINUOUS
 10
219.7551663306
 20
37.0683739304
 11
221.2377125951
 21
37.0683739304
  0
LINE
  5
2F7
100
AcDbEntity
  8
RACCORDO
100
AcDbLine
 62
250
  6
CONTINUOUS
 10
279.8655394234
 20
38.3062990235
 11
278.6447932379
 21
38.3062990235
  0
LINE
  5
2F8
100
AcDbEntity
  8
RACCORDO
100
AcDbLine
 62
250
  6
CONTINUOUS
 10
99.8655394234
 20
38.3062990235
 11
98.6447932379
 21
38.3062990235
  0
LINE
  5
2F9
100
AcDbEntity
  8
RACCORDO
100
AcDbLine
 62
250
  6
CONTINUOUS
 10
279.8632426311
 20
39.2459916443
 11
278.6470900302
 21
39.2459916443
  0
LINE
  5
2FA
100
AcDbEntity
  8
RACCORDO
100
AcDbLine
 62
250
  6
CONTINUOUS
 10
99.8632426311
 20
39.2459916443
 11
98.6470900302
 21
39.2459916443
  0
LINE
  5
2FB
100
AcDbEntity
  8
RACCORDO
100
AcDbLine
 62
7
  6
CONTINUOUS
 10
157.2656994963
 20
42.0051548384
 11
156.6661027548
 21
42.6047515799
  0
LINE
  5
2FC
100
AcDbEntity
  8
DRAFT
100
AcDbLine
 62
250
  6
CONTINUOUS
 10
130.2551663306
 20
167.265688004
 11
130.2551663306
 21
167.1609576145
  0
LINE
  5
2FD
100
AcDbEntity
  8
DRAFT
100
AcDbLine
 62
250
  6
CONTINUOUS
 10
130.2551663306
 20
51.265688004
 11
130.2551663306
 21
51.1609576145
  0
LINE
  5
2FE
100
AcDbEntity
  8
DRAFT
100
AcDbLine
 62
250
  6
CONTINUOUS
 10
130.2551663306
 20
45.765688004
 11
130.2551663306
 21
45.8704183936
  0
LINE
  5
2FF
100
AcDbEntity
  8
RACCORDO
100
AcDbLine
 62
250
  6
CONTINUOUS
 10
130.2551663306
 20
46.9196089829
 11
130.2551663306
 21
47.515688004
  0
LINE
  5
300
100
AcDbEntity
  8
RACCORDO
100
AcDbLine
 62
250
  6
CONTINUOUS
 10
130.2551663306
 20
49.515688004
 11
130.2551663306
 21
50.1117670252
  0
LINE
  5
301
100
AcDbEntity
  8
DRAFT
100
AcDbLine
 62
250
  6
CONTINUOUS
 10
130.2551663306
 20
161.765688004
 11
130.2551663306
 21
161.8704183936
  0
LINE
  5
302
100
AcDbEntity
  8
RACCORDO
100
AcDbLine
 62
250
  6
CONTINUOUS
 10
130.2551663306
 20
162.9196089829
 11
130.2551663306
 21
163.515688004
  0
LINE
  5
303
100
AcDbEntity
  8
RACCORDO
100
AcDbLine
 62
250
  6
CONTINUOUS
 10
130.2551663306
 20
165.515688004
 11
130.2551663306
 21
166.1117670252
  0
LINE
  5
304
100
AcDbEntity
  8
DRAFT
100
AcDbLine
 62
7
  6
CONTINUOUS
 10
98.5051663306
 20
54.0722580207
 11
98.6447932379
 21
54.4049884123
  0
LINE
  5
305
100
AcDbEntity
  8
RACCORDO
100
AcDbLine
 62
7
  6
CONTINUOUS
 10
98.7397486733
 20
55.5512229848
 11
98.6447932379
 21
55.3258422901
  0
LINE
  5
306
100
AcDbEntity
  8
DRAFT
100
AcDbLine
 62
7
  6
CONTINUOUS
 10
159.7551663306
 20
169.4797035941
 11
160.0693335711
 21
169.7938708346
  0
LWPOLYLINE
  5
307
100
AcDbEntity
  8
0
100
AcDbPolyline
 62
7
  6
CONTINUOUS
 90
10
 70
0
 43
0.3500000006
 10
188.2908759155
 20
196.2656854248
 10
187.6480224609
 20
195.6228319702
 10
187.2194534912
 20
194.7656940308
 10
187.2194534912
 20
193.694253479
 10
187.6480224609
 20
193.2656845093
 10
188.2908759155
 20
193.2656845093
 10
188.7194448853
 20
193.694253479
 10
188.7194448853
 20
194.5514095459
 10
188.2908759155
 20
194.9799785156
 10
187.3623158569
 20
194.9799785156
  0
LWPOLYLINE
  5
308
100
AcDbEntity
  8
0
100
AcDbPolyline
 62
7
  6
CONTINUOUS
 90
3
 70
0
 43
0.3500000006
 10
189.5766009521
 20
195.4085474854
 10
190.4337388916
 20
196.2656854248
 10
190.4337388916
 20
193.2656845093
  0
LINE
  5
309
100
AcDbEntity
  8
DRAFT
100
AcDbLine
 62
7
  6
CONTINUOUS
 10
101.0020871647
 20
105.5126088381
 11
101.2551663306
 21
105.765688004
  0
LINE
  5
30A
100
AcDbEntity
  8
DRAFT
100
AcDbLine
 62
7
  6
CONTINUOUS
 10
101.281348928
 20
135.6927938958
 11
101.9271863304
 21
136.015688004
  0
LINE
  5
30B
100
AcDbEntity
  8
DRAFT
100
AcDbLine
 62
7
  6
CONTINUOUS
 10
211.6551663306
 20
41.8593256664
 11
211.3872171382
 21
41.8418706014
  0
LINE
  5
30C
100
AcDbEntity
  8
DRAFT
100
AcDbLine
 62
7
  6
CONTINUOUS
 10
190.4051663306
 20
41.8593256664
 11
190.1372171382
 21
41.8418706014
  0
LINE
  5
30D
100
AcDbEntity
  8
DRAFT
100
AcDbLine
 62
7
  6
CONTINUOUS
 10
169.1551663306
 20
41.8593256664
 11
168.8872171382
 21
41.8418706014
  0
LINE
  5
30E
100
AcDbEntity
  8
DRAFT
100
AcDbLine
 62
7
  6
CONTINUOUS
 10
190.1372171382
 20
41.8287783057
 11
189.7352933496
 21
41.815688004
  0
LINE
  5
30F
100
AcDbEntity
  8
DRAFT
100
AcDbLine
 62
7
  6
CONTINUOUS
 10
211.6551663306
 20
43.2375051735
 11
210.9852933496
 21
43.215688004
  0
LINE
  5
310
100
AcDbEntity
  8
DRAFT
100
AcDbLine
 62
7
  6
CONTINUOUS
 10
216.5551663306
 20
43.5429455462
 11
216.8231155231
 21
43.551672414
  0
LINE
  5
311
100
AcDbEntity
  8
DRAFT
100
AcDbLine
 62
7
  6
CONTINUOUS
 10
190.4051663306
 20
43.2375051735
 11
189.7352933496
 21
43.215688004
  0
LINE
  5
312
100
AcDbEntity
  8
DRAFT
100
AcDbLine
 62
7
  6
CONTINUOUS
 10
199.0551663306
 20
43.5429455462
 11
199.3231155231
 21
43.551672414
  0
LINE
  5
313
100
AcDbEntity
  8
DRAFT
100
AcDbLine
 62
7
  6
CONTINUOUS
 10
169.1551663306
 20
43.2375051735
 11
168.4852933496
 21
43.215688004
  0
LINE
  5
314
100
AcDbEntity
  8
DRAFT
100
AcDbLine
 62
7
  6
CONTINUOUS
 10
174.0551663306
 20
43.5429455462
 11
174.3231155231
 21
43.551672414
  0
LINE
  5
315
100
AcDbEntity
  8
RACCORDO
100
AcDbLine
 62
250
  6
CONTINUOUS
 10
221.2377125951
 20
41.2051853
 11
219.7551663306
 21
41.2051853
  0
LINE
  5
316
100
AcDbEntity
  8
RACCORDO
100
AcDbLine
 62
250
  6
CONTINUOUS
 10
158.7551663306
 20
41.2051853
 11
157.2726200662
 21
41.2051853
  0
LINE
  5
317
100
AcDbEntity
  8
DRAFT
100
AcDbLine
 62
7
  6
CONTINUOUS
 10
188.5051663306
 20
41.5626088381
 11
190.0051663306
 21
41.5626088381
  0
LINE
  5
318
100
AcDbEntity
  8
DRAFT
100
AcDbLine
 62
7
  6
CONTINUOUS
 10
189.7352933496
 20
41.815688004
 11
188.7750393117
 21
41.815688004
  0
LINE
  5
319
100
AcDbEntity
  8
DRAFT
100
AcDbLine
 62
7
  6
CONTINUOUS
 10
158.7551663306
 20
41.815688004
 11
167.5250393117
 21
41.815688004
  0
LINE
  5
31A
100
AcDbEntity
  8
DRAFT
100
AcDbLine
 62
7
  6
CONTINUOUS
 10
168.4852933496
 20
41.815688004
 11
188.2520871647
 21
41.815688004
  0
LINE
  5
31B
100
AcDbEntity
  8
DRAFT
100
AcDbLine
 62
7
  6
CONTINUOUS
 10
190.2582454966
 20
41.815688004
 11
210.0250393117
 21
41.815688004
  0
LINE
  5
31C
100
AcDbEntity
  8
DRAFT
100
AcDbLine
 62
7
  6
CONTINUOUS
 10
210.9852933496
 20
41.815688004
 11
219.7551663306
 21
41.815688004
  0
LINE
  5
31D
100
AcDbEntity
  8
DRAFT
100
AcDbLine
 62
7
  6
CONTINUOUS
 10
218.4409990902
 20
41.8593256664
 11
211.6551663306
 21
41.8593256664
  0
LINE
  5
31E
100
AcDbEntity
  8
DRAFT
100
AcDbLine
 62
7
  6
CONTINUOUS
 10
209.3551663306
 20
41.8593256664
 11
202.5693335711
 21
41.8593256664
  0
LINE
  5
31F
100
AcDbEntity
  8
DRAFT
100
AcDbLine
 62
7
  6
CONTINUOUS
 10
200.9409990902
 20
41.8593256664
 11
190.4051663306
 21
41.8593256664
  0
LINE
  5
320
100
AcDbEntity
  8
DRAFT
100
AcDbLine
 62
7
  6
CONTINUOUS
 10
188.1051663306
 20
41.8593256664
 11
177.5693335711
 21
41.8593256664
  0
LINE
  5
321
100
AcDbEntity
  8
DRAFT
100
AcDbLine
 62
7
  6
CONTINUOUS
 10
175.9409990902
 20
41.8593256664
 11
169.1551663306
 21
41.8593256664
  0
LINE
  5
322
100
AcDbEntity
  8
DRAFT
100
AcDbLine
 62
7
  6
CONTINUOUS
 10
166.8551663306
 20
41.8593256664
 11
160.0693335711
 21
41.8593256664
  0
LINE
  5
323
100
AcDbEntity
  8
RACCORDO
100
AcDbLine
 62
7
  6
CONTINUOUS
 10
221.244633165
 20
42.0051548384
 11
219.7551663306
 21
42.0051548384
  0
LINE
  5
324
100
AcDbEntity
  8
RACCORDO
100
AcDbLine
 62
7
  6
CONTINUOUS
 10
158.7551663306
 20
42.0051548384
 11
157.2656994963
 21
42.0051548384
  0
LINE
  5
325
100
AcDbEntity
  8
DRAFT
100
AcDbLine
 62
7
  6
CONTINUOUS
 10
221.8442299065
 20
42.6047515799
 11
219.7551663306
 21
42.6047515799
  0
LINE
  5
326
100
AcDbEntity
  8
DRAFT
100
AcDbLine
 62
7
  6
CONTINUOUS
 10
158.7551663306
 20
42.6047515799
 11
156.6661027548
 21
42.6047515799
  0
LINE
  5
327
100
AcDbEntity
  8
DRAFT
100
AcDbLine
 62
7
  6
CONTINUOUS
 10
210.9852933496
 20
43.215688004
 11
210.0250393117
 21
43.215688004
  0
LINE
  5
328
100
AcDbEntity
  8
DRAFT
100
AcDbLine
 62
7
  6
CONTINUOUS
 10
189.7352933496
 20
43.215688004
 11
188.7750393117
 21
43.215688004
  0
LINE
  5
329
100
AcDbEntity
  8
DRAFT
100
AcDbLine
 62
7
  6
CONTINUOUS
 10
168.4852933496
 20
43.215688004
 11
167.5250393117
 21
43.215688004
  0
LINE
  5
32A
100
AcDbEntity
  8
DRAFT
100
AcDbLine
 62
7
  6
CONTINUOUS
 10
218.4409990902
 20
43.2375051735
 11
211.6551663306
 21
43.2375051735
  0
LINE
  5
32B
100
AcDbEntity
  8
DRAFT
100
AcDbLine
 62
7
  6
CONTINUOUS
 10
209.3551663306
 20
43.2375051735
 11
202.5693335711
 21
43.2375051735
  0
LINE
  5
32C
100
AcDbEntity
  8
DRAFT
100
AcDbLine
 62
7
  6
CONTINUOUS
 10
200.9409990902
 20
43.2375051735
 11
190.4051663306
 21
43.2375051735
  0
LINE
  5
32D
100
AcDbEntity
  8
DRAFT
100
AcDbLine
 62
7
  6
CONTINUOUS
 10
188.1051663306
 20
43.2375051735
 11
177.5693335711
 21
43.2375051735
  0
LINE
  5
32E
100
AcDbEntity
  8
DRAFT
100
AcDbLine
 62
7
  6
CONTINUOUS
 10
175.9409990902
 20
43.2375051735
 11
169.1551663306
 21
43.2375051735
  0
LINE
  5
32F
100
AcDbEntity
  8
DRAFT
100
AcDbLine
 62
7
  6
CONTINUOUS
 10
166.8551663306
 20
43.2375051735
 11
160.0693335711
 21
43.2375051735
  0
LINE
  5
330
100
AcDbEntity
  8
DRAFT
100
AcDbLine
 62
7
  6
CONTINUOUS
 10
161.9551663306
 20
43.5429455462
 11
174.0551663306
 21
43.5429455462
  0
LINE
  5
331
100
AcDbEntity
  8
DRAFT
100
AcDbLine
 62
7
  6
CONTINUOUS
 10
179.4551663306
 20
43.5429455462
 11
199.0551663306
 21
43.5429455462
  0
LINE
  5
332
100
AcDbEntity
  8
DRAFT
100
AcDbLine
 62
7
  6
CONTINUOUS
 10
204.4551663306
 20
43.5429455462
 11
216.5551663306
 21
43.5429455462
  0
LINE
  5
333
100
AcDbEntity
  8
DRAFT
100
AcDbLine
 62
7
  6
CONTINUOUS
 10
158.7551663306
 20
43.551672414
 11
219.7551663306
 21
43.551672414
  0
LINE
  5
334
100
AcDbEntity
  8
DRAFT
100
AcDbLine
 62
7
  6
CONTINUOUS
 10
112.7551663306
 20
44.2342688872
 11
115.7551663306
 21
44.2342688872
  0
LINE
  5
335
100
AcDbEntity
  8
DRAFT
100
AcDbLine
 62
7
  6
CONTINUOUS
 10
112.7551663306
 20
44.265688004
 11
115.7551663306
 21
44.265688004
  0
LINE
  5
336
100
AcDbEntity
  8
DRAFT
100
AcDbLine
 62
7
  6
CONTINUOUS
 10
130.2551663306
 20
45.765688004
 11
148.2551663306
 21
45.765688004
  0
LINE
  5
337
100
AcDbEntity
  8
DRAFT
100
AcDbLine
 62
7
  6
CONTINUOUS
 10
230.2551663306
 20
45.765688004
 11
248.2551663306
 21
45.765688004
  0
LINE
  5
338
100
AcDbEntity
  8
DRAFT
100
AcDbLine
 62
7
  6
CONTINUOUS
 10
130.2551663306
 20
45.8704183936
 11
148.2551663306
 21
45.8704183936
  0
LINE
  5
339
100
AcDbEntity
  8
DRAFT
100
AcDbLine
 62
7
  6
CONTINUOUS
 10
230.2551663306
 20
45.8704183936
 11
248.2551663306
 21
45.8704183936
  0
LINE
  5
33A
100
AcDbEntity
  8
RACCORDO
100
AcDbLine
 62
250
  6
CONTINUOUS
 10
248.2551663306
 20
46.9196089829
 11
230.2551663306
 21
46.9196089829
  0
LINE
  5
33B
100
AcDbEntity
  8
RACCORDO
100
AcDbLine
 62
250
  6
CONTINUOUS
 10
148.2551663306
 20
46.9196089829
 11
130.2551663306
 21
46.9196089829
  0
LINE
  5
33C
100
AcDbEntity
  8
RACCORDO
100
AcDbLine
 62
250
  6
CONTINUOUS
 10
248.2551663306
 20
47.4195328305
 11
230.2551663306
 21
47.4195328305
  0
LINE
  5
33D
100
AcDbEntity
  8
RACCORDO
100
AcDbLine
 62
250
  6
CONTINUOUS
 10
148.2551663306
 20
47.4195328305
 11
130.2551663306
 21
47.4195328305
  0
LINE
  5
33E
100
AcDbEntity
  8
DRAFT
100
AcDbLine
 62
7
  6
CONTINUOUS
 10
248.2551663306
 20
47.515688004
 11
230.2551663306
 21
47.515688004
  0
LINE
  5
33F
100
AcDbEntity
  8
DRAFT
100
AcDbLine
 62
7
  6
CONTINUOUS
 10
148.2551663306
 20
47.515688004
 11
130.2551663306
 21
47.515688004
  0
LINE
  5
340
100
AcDbEntity
  8
DRAFT
100
AcDbLine
 62
7
  6
CONTINUOUS
 10
188.3731155231
 20
41.8287783057
 11
188.7750393117
 21
41.815688004
  0
LINE
  5
341
100
AcDbEntity
  8
DRAFT
100
AcDbLine
 62
7
  6
CONTINUOUS
 10
167.5250393117
 20
43.215688004
 11
166.8551663306
 21
43.2375051735
  0
LINE
  5
342
100
AcDbEntity
  8
DRAFT
100
AcDbLine
 62
7
  6
CONTINUOUS
 10
161.6872171382
 20
43.551672414
 11
161.9551663306
 21
43.5429455462
  0
LINE
  5
343
100
AcDbEntity
  8
DRAFT
100
AcDbLine
 62
7
  6
CONTINUOUS
 10
188.7750393117
 20
43.215688004
 11
188.1051663306
 21
43.2375051735
  0
LINE
  5
344
100
AcDbEntity
  8
DRAFT
100
AcDbLine
 62
7
  6
CONTINUOUS
 10
179.1872171382
 20
43.551672414
 11
179.4551663306
 21
43.5429455462
  0
LINE
  5
345
100
AcDbEntity
  8
DRAFT
100
AcDbLine
 62
7
  6
CONTINUOUS
 10
210.0250393117
 20
43.215688004
 11
209.3551663306
 21
43.2375051735
  0
LINE
  5
346
100
AcDbEntity
  8
DRAFT
100
AcDbLine
 62
7
  6
CONTINUOUS
 10
204.1872171382
 20
43.551672414
 11
204.4551663306
 21
43.5429455462
  0
LINE
  5
347
100
AcDbEntity
  8
DRAFT
100
AcDbLine
 62
7
  6
CONTINUOUS
 10
167.1231155231
 20
41.8418706014
 11
166.8551663306
 21
41.8593256664
  0
LINE
  5
348
100
AcDbEntity
  8
DRAFT
100
AcDbLine
 62
7
  6
CONTINUOUS
 10
188.3731155231
 20
41.8418706014
 11
188.1051663306
 21
41.8593256664
  0
LINE
  5
349
100
AcDbEntity
  8
DRAFT
100
AcDbLine
 62
7
  6
CONTINUOUS
 10
209.6231155231
 20
41.8418706014
 11
209.3551663306
 21
41.8593256664
  0
LINE
  5
34A
100
AcDbEntity
  8
DRAFT
100
AcDbLine
 62
7
  6
CONTINUOUS
 10
101.9271863304
 20
77.015688004
 11
101.281348928
 21
77.3385821123
  0
LINE
  5
34B
100
AcDbEntity
  8
DRAFT
100
AcDbLine
 62
7
  6
CONTINUOUS
 10
160.0693335711
 20
43.2375051735
 11
159.7551663306
 21
43.551672414
  0
LINE
  5
34C
100
AcDbEntity
  8
DRAFT
100
AcDbLine
 62
7
  6
CONTINUOUS
 10
101.0020871647
 20
107.51876717
 11
101.2551663306
 21
107.265688004
  0
LINE
  5
34D
100
AcDbEntity
  8
RACCORDO
100
AcDbLine
 62
7
  6
CONTINUOUS
 10
98.7397486733
 20
157.4801530233
 11
98.6447932379
 21
157.7055337179
  0
LINE
  5
34E
100
AcDbEntity
  8
DRAFT
100
AcDbLine
 62
7
  6
CONTINUOUS
 10
98.5051663306
 20
158.9591179874
 11
98.6447932379
 21
158.6263875958
  0
LINE
  5
34F
100
AcDbEntity
  8
DRAFT
100
AcDbLine
 62
7
  6
CONTINUOUS
 10
159.7551663306
 20
170.5436680043
 11
160.0693335711
 21
171.1720503417
  0
LINE
  5
350
100
AcDbEntity
  8
DRAFT
100
AcDbLine
 62
7
  6
CONTINUOUS
 10
102.9551663306
 20
102.5797035941
 11
103.2911507406
 21
102.915688004
  0
LINE
  5
351
100
AcDbEntity
  8
DRAFT
100
AcDbLine
 62
7
  6
CONTINUOUS
 10
177.2551663306
 20
169.4797035941
 11
177.5693335711
 21
169.7938708346
  0
LINE
  5
352
100
AcDbEntity
  8
DRAFT
100
AcDbLine
 62
7
  6
CONTINUOUS
 10
289.7551663306
 20
74.515688004
 11
287.39801439
 21
73.9266244282
  0
LINE
  5
353
100
AcDbEntity
  8
DRAFT
100
AcDbLine
 62
7
  6
CONTINUOUS
 10
287.39801439
 20
58.265688004
 11
289.7551663306
 21
58.50130841
  0
LINE
  5
354
100
AcDbEntity
  8
DRAFT
100
AcDbLine
 62
7
  6
CONTINUOUS
 10
115.7551663306
 20
48.765688004
 11
112.7551663306
 21
48.765688004
  0
LINE
  5
355
100
AcDbEntity
  8
RACCORDO
100
AcDbLine
 62
250
  6
CONTINUOUS
 10
98.7384899443
 20
48.7762029215
 11
99.7718427169
 21
48.7762029215
  0
LINE
  5
356
100
AcDbEntity
  8
RACCORDO
100
AcDbLine
 62
250
  6
CONTINUOUS
 10
278.7384899443
 20
48.7762029215
 11
279.7718427169
 21
48.7762029215
  0
LINE
  5
357
100
AcDbEntity
  8
DRAFT
100
AcDbLine
 62
7
  6
CONTINUOUS
 10
115.7551663306
 20
48.7971071209
 11
112.7551663306
 21
48.7971071209
  0
LINE
  5
358
100
AcDbEntity
  8
DRAFT
100
AcDbLine
 62
7
  6
CONTINUOUS
 10
130.2551663306
 20
49.515688004
 11
148.2551663306
 21
49.515688004
  0
LINE
  5
359
100
AcDbEntity
  8
DRAFT
100
AcDbLine
 62
7
  6
CONTINUOUS
 10
230.2551663306
 20
49.515688004
 11
248.2551663306
 21
49.515688004
  0
LINE
  5
35A
100
AcDbEntity
  8
RACCORDO
100
AcDbLine
 62
250
  6
CONTINUOUS
 10
130.2551663306
 20
49.6118431776
 11
148.2551663306
 21
49.6118431776
  0
LINE
  5
35B
100
AcDbEntity
  8
RACCORDO
100
AcDbLine
 62
250
  6
CONTINUOUS
 10
230.2551663306
 20
49.6118431776
 11
248.2551663306
 21
49.6118431776
  0
LINE
  5
35C
100
AcDbEntity
  8
RACCORDO
100
AcDbLine
 62
250
  6
CONTINUOUS
 10
98.7407867367
 20
49.7158955422
 11
99.7695459246
 21
49.7158955422
  0
LINE
  5
35D
100
AcDbEntity
  8
RACCORDO
100
AcDbLine
 62
250
  6
CONTINUOUS
 10
278.7407867367
 20
49.7158955422
 11
279.7695459246
 21
49.7158955422
  0
LINE
  5
35E
100
AcDbEntity
  8
RACCORDO
100
AcDbLine
 62
250
  6
CONTINUOUS
 10
130.2551663306
 20
50.1117670252
 11
148.2551663306
 21
50.1117670252
  0
LINE
  5
35F
100
AcDbEntity
  8
RACCORDO
100
AcDbLine
 62
250
  6
CONTINUOUS
 10
230.2551663306
 20
50.1117670252
 11
248.2551663306
 21
50.1117670252
  0
LINE
  5
360
100
AcDbEntity
  8
DRAFT
100
AcDbLine
 62
7
  6
CONTINUOUS
 10
248.2551663306
 20
51.1609576145
 11
230.2551663306
 21
51.1609576145
  0
LINE
  5
361
100
AcDbEntity
  8
DRAFT
100
AcDbLine
 62
7
  6
CONTINUOUS
 10
148.2551663306
 20
51.1609576145
 11
130.2551663306
 21
51.1609576145
  0
LINE
  5
362
100
AcDbEntity
  8
DRAFT
100
AcDbLine
 62
7
  6
CONTINUOUS
 10
248.2551663306
 20
51.265688004
 11
230.2551663306
 21
51.265688004
  0
LINE
  5
363
100
AcDbEntity
  8
DRAFT
100
AcDbLine
 62
7
  6
CONTINUOUS
 10
148.2551663306
 20
51.265688004
 11
130.2551663306
 21
51.265688004
  0
LINE
  5
364
100
AcDbEntity
  8
DRAFT
100
AcDbLine
 62
7
  6
CONTINUOUS
 10
91.1123182713
 20
58.265688004
 11
88.7551663306
 21
58.50130841
  0
LINE
  5
365
100
AcDbEntity
  8
DRAFT
100
AcDbLine
 62
7
  6
CONTINUOUS
 10
91.1123182713
 20
73.9266244282
 11
88.7551663306
 21
74.515688004
  0
LINE
  5
366
100
AcDbEntity
  8
DRAFT
100
AcDbLine
 62
7
  6
CONTINUOUS
 10
103.2911507406
 20
110.115688004
 11
102.9551663306
 21
110.451672414
  0
LINE
  5
367
100
AcDbEntity
  8
DRAFT
100
AcDbLine
 62
7
  6
CONTINUOUS
 10
177.5693335711
 20
43.2375051735
 11
177.2551663306
 21
43.551672414
  0
LINE
  5
368
100
AcDbEntity
  8
DRAFT
100
AcDbLine
 62
7
  6
CONTINUOUS
 10
160.0693335711
 20
41.8593256664
 11
159.7551663306
 21
42.4877080038
  0
LINE
  5
369
100
AcDbEntity
  8
DRAFT
100
AcDbLine
 62
7
  6
CONTINUOUS
 10
156.6661027548
 20
177.6585360633
 11
157.2551663306
 21
180.015688004
  0
LINE
  5
36A
100
AcDbEntity
  8
DRAFT
100
AcDbLine
 62
7
  6
CONTINUOUS
 10
188.5051663306
 20
171.46876717
 11
188.2520871647
 21
171.215688004
  0
LINE
  5
36B
100
AcDbEntity
  8
RACCORDO
100
AcDbLine
 62
7
  6
CONTINUOUS
 10
106.7638170431
 20
109.0174459438
 11
107.3442299065
 21
109.365688004
  0
LINE
  5
36C
100
AcDbEntity
  8
DRAFT
100
AcDbLine
 62
7
  6
CONTINUOUS
 10
101.2551663306
 20
104.0191204074
 11
101.0020871647
 21
103.8672753749
  0
LINE
  5
36D
100
AcDbEntity
  8
DRAFT
100
AcDbLine
 62
7
  6
CONTINUOUS
 10
103.2551663306
 20
105.1622556006
 11
103.8442299065
 21
105.515688004
  0
LINE
  5
36E
100
AcDbEntity
  8
DRAFT
100
AcDbLine
 62
7
  6
CONTINUOUS
 10
287.39801439
 20
58.265688004
 11
284.198596314
 21
58.265688004
  0
LINE
  5
36F
100
AcDbEntity
  8
DRAFT
100
AcDbLine
 62
7
  6
CONTINUOUS
 10
91.1123182713
 20
58.265688004
 11
94.3117363473
 21
58.265688004
  0
LINE
  5
370
100
AcDbEntity
  8
DRAFT
100
AcDbLine
 62
7
  6
CONTINUOUS
 10
95.5653206168
 20
58.4053149113
 11
94.6444667389
 21
58.4053149113
  0
LINE
  5
371
100
AcDbEntity
  8
DRAFT
100
AcDbLine
 62
7
  6
CONTINUOUS
 10
282.9450120445
 20
58.4053149113
 11
283.8658659224
 21
58.4053149113
  0
LINE
  5
372
100
AcDbEntity
  8
RACCORDO
100
AcDbLine
 62
7
  6
CONTINUOUS
 10
88.7551663306
 20
58.50130841
 11
96.0941375577
 21
58.50130841
  0
LINE
  5
373
100
AcDbEntity
  8
RACCORDO
100
AcDbLine
 62
7
  6
CONTINUOUS
 10
282.4161951036
 20
58.50130841
 11
289.7551663306
 21
58.50130841
  0
LINE
  5
374
100
AcDbEntity
  8
RACCORDO
100
AcDbLine
 62
7
  6
CONTINUOUS
 10
289.7551663306
 20
59.530067598
 11
282.4161951036
 21
59.530067598
  0
LINE
  5
375
100
AcDbEntity
  8
RACCORDO
100
AcDbLine
 62
7
  6
CONTINUOUS
 10
96.0941375577
 20
59.530067598
 11
88.7551663306
 21
59.530067598
  0
LINE
  5
376
100
AcDbEntity
  8
DRAFT
100
AcDbLine
 62
7
  6
CONTINUOUS
 10
95.5653206168
 20
59.6260610968
 11
94.6444667389
 21
59.6260610968
  0
LINE
  5
377
100
AcDbEntity
  8
DRAFT
100
AcDbLine
 62
7
  6
CONTINUOUS
 10
282.9450120445
 20
59.6260610968
 11
283.8658659224
 21
59.6260610968
  0
LINE
  5
378
100
AcDbEntity
  8
DRAFT
100
AcDbLine
 62
7
  6
CONTINUOUS
 10
287.39801439
 20
59.765688004
 11
284.198596314
 21
59.765688004
  0
LINE
  5
379
100
AcDbEntity
  8
DRAFT
100
AcDbLine
 62
7
  6
CONTINUOUS
 10
91.1123182713
 20
59.765688004
 11
94.3117363473
 21
59.765688004
  0
LINE
  5
37A
100
AcDbEntity
  8
0
100
AcDbLine
 62
7
  6
CONTINUOUS
 10
186.7551663306
 20
64.415688004
 11
191.7551663306
 21
64.415688004
  0
LWPOLYLINE
  5
37B
100
AcDbEntity
  8
RACCORDO
100
AcDbPolyline
 62
7
  6
CONTINUOUS
 90
4
 70
0
 10
95.8619264194
 20
59.5304420835
 10
95.8104562474
 20
59.5307449146
 10
95.7967406059
 20
59.5309175854
 10
95.7907013114
 20
59.5311056614
  0
LWPOLYLINE
  5
37C
100
AcDbEntity
  8
RACCORDO
100
AcDbPolyline
 62
7
  6
CONTINUOUS
 90
4
 70
0
 10
282.6484062419
 20
58.5009339245
 10
282.6998764139
 20
58.5006310935
 10
282.7135920554
 20
58.5004584227
 10
282.7196313499
 20
58.5002703467
  0
LINE
  5
37D
100
AcDbEntity
  8
RACCORDO
100
AcDbLine
 62
7
  6
CONTINUOUS
 10
106.7638170431
 20
104.0139300643
 11
107.3442299065
 21
103.665688004
  0
LINE
  5
37E
100
AcDbEntity
  8
DRAFT
100
AcDbLine
 62
7
  6
CONTINUOUS
 10
101.2551663306
 20
109.0122556006
 11
101.0020871647
 21
109.1641006332
  0
LINE
  5
37F
100
AcDbEntity
  8
DRAFT
100
AcDbLine
 62
7
  6
CONTINUOUS
 10
103.2551663306
 20
107.8691204074
 11
103.8442299065
 21
107.515688004
  0
LINE
  5
380
100
AcDbEntity
  8
DRAFT
100
AcDbLine
 62
7
  6
CONTINUOUS
 10
188.5051663306
 20
41.5626088381
 11
188.2520871647
 21
41.815688004
  0
LINE
  5
381
100
AcDbEntity
  8
DRAFT
100
AcDbLine
 62
7
  6
CONTINUOUS
 10
157.2551663306
 20
33.015688004
 11
156.6661027548
 21
35.3728399447
  0
LINE
  5
382
100
AcDbEntity
  8
DRAFT
100
AcDbLine
 62
250
  6
CONTINUOUS
 10
148.2551663306
 20
167.265688004
 11
148.2551663306
 21
167.1609576145
  0
LINE
  5
383
100
AcDbEntity
  8
DRAFT
100
AcDbLine
 62
250
  6
CONTINUOUS
 10
148.2551663306
 20
51.265688004
 11
148.2551663306
 21
51.1609576145
  0
LINE
  5
384
100
AcDbEntity
  8
DRAFT
100
AcDbLine
 62
250
  6
CONTINUOUS
 10
148.2551663306
 20
45.765688004
 11
148.2551663306
 21
45.8704183936
  0
LINE
  5
385
100
AcDbEntity
  8
RACCORDO
100
AcDbLine
 62
250
  6
CONTINUOUS
 10
148.2551663306
 20
46.9196089829
 11
148.2551663306
 21
47.515688004
  0
LINE
  5
386
100
AcDbEntity
  8
RACCORDO
100
AcDbLine
 62
250
  6
CONTINUOUS
 10
148.2551663306
 20
49.515688004
 11
148.2551663306
 21
50.1117670252
  0
LINE
  5
387
100
AcDbEntity
  8
DRAFT
100
AcDbLine
 62
250
  6
CONTINUOUS
 10
148.2551663306
 20
161.765688004
 11
148.2551663306
 21
161.8704183936
  0
LINE
  5
388
100
AcDbEntity
  8
RACCORDO
100
AcDbLine
 62
250
  6
CONTINUOUS
 10
148.2551663306
 20
162.9196089829
 11
148.2551663306
 21
163.515688004
  0
LINE
  5
389
100
AcDbEntity
  8
RACCORDO
100
AcDbLine
 62
250
  6
CONTINUOUS
 10
148.2551663306
 20
165.515688004
 11
148.2551663306
 21
166.1117670252
  0
LINE
  5
38A
100
AcDbEntity
  8
DRAFT
100
AcDbLine
 62
7
  6
CONTINUOUS
 10
177.2551663306
 20
170.5436680043
 11
177.5693335711
 21
171.1720503417
  0
LINE
  5
38B
100
AcDbEntity
  8
RACCORDO
100
AcDbLine
 62
7
  6
CONTINUOUS
 10
101.0107378772
 20
76.0243387165
 11
101.2551663306
 21
76.26876717
  0
LINE
  5
38C
100
AcDbEntity
  8
DRAFT
100
AcDbLine
 62
7
  6
CONTINUOUS
 10
202.2551663306
 20
169.4797035941
 11
202.5693335711
 21
169.7938708346
  0
LINE
  5
38D
100
AcDbEntity
  8
RACCORDO
100
AcDbLine
 62
7
  6
CONTINUOUS
 10
106.7638170431
 20
105.1674459438
 11
107.3442299065
 21
105.515688004
  0
LINE
  5
38E
100
AcDbEntity
  8
DRAFT
100
AcDbLine
 62
7
  6
CONTINUOUS
 10
101.281348928
 20
102.5927938958
 11
101.9271863304
 21
102.915688004
  0
LINE
  5
38F
100
AcDbEntity
  8
DRAFT
100
AcDbLine
 62
7
  6
CONTINUOUS
 10
91.1123182713
 20
59.765688004
 11
88.7551663306
 21
59.530067598
  0
LINE
  5
390
100
AcDbEntity
  8
0
100
AcDbLine
 62
7
  6
CONTINUOUS
 10
184.7551663306
 20
70.115688004
 11
186.7551663306
 21
70.115688004
  0
LINE
  5
391
100
AcDbEntity
  8
0
100
AcDbLine
 62
7
  6
CONTINUOUS
 10
191.7551663306
 20
70.115688004
 11
193.7551663306
 21
70.115688004
  0
LINE
  5
392
100
AcDbEntity
  8
DRAFT
100
AcDbLine
 62
7
  6
CONTINUOUS
 10
287.39801439
 20
59.765688004
 11
289.7551663306
 21
59.530067598
  0
LINE
  5
393
100
AcDbEntity
  8
DRAFT
100
AcDbLine
 62
7
  6
CONTINUOUS
 10
101.9271863304
 20
110.115688004
 11
101.281348928
 21
110.4385821123
  0
LINE
  5
394
100
AcDbEntity
  8
RACCORDO
100
AcDbLine
 62
7
  6
CONTINUOUS
 10
106.7638170431
 20
107.8639300643
 11
107.3442299065
 21
107.515688004
  0
LINE
  5
395
100
AcDbEntity
  8
RACCORDO
100
AcDbLine
 62
7
  6
CONTINUOUS
 10
101.0107378772
 20
137.0070372916
 11
101.2551663306
 21
136.7626088381
  0
LINE
  5
396
100
AcDbEntity
  8
DRAFT
100
AcDbLine
 62
7
  6
CONTINUOUS
 10
202.5693335711
 20
43.2375051735
 11
202.2551663306
 21
43.551672414
  0
LINE
  5
397
100
AcDbEntity
  8
DRAFT
100
AcDbLine
 62
7
  6
CONTINUOUS
 10
177.5693335711
 20
41.8593256664
 11
177.2551663306
 21
42.4877080038
  0
LINE
  5
398
100
AcDbEntity
  8
DRAFT
100
AcDbLine
 62
7
  6
CONTINUOUS
 10
156.6661027548
 20
35.3728399447
 11
156.6661027548
 21
42.6047515799
  0
LINE
  5
399
100
AcDbEntity
  8
DRAFT
100
AcDbLine
 62
7
  6
CONTINUOUS
 10
156.6661027548
 20
170.4266244282
 11
156.6661027548
 21
177.6585360633
  0
LINE
  5
39A
100
AcDbEntity
  8
DRAFT
100
AcDbLine
 62
7
  6
CONTINUOUS
 10
157.2551663306
 20
180.015688004
 11
157.2551663306
 21
176.515688004
  0
LINE
  5
39B
100
AcDbEntity
  8
DRAFT
100
AcDbLine
 62
7
  6
CONTINUOUS
 10
157.2551663306
 20
36.515688004
 11
157.2551663306
 21
33.015688004
  0
LINE
  5
39C
100
AcDbEntity
  8
RACCORDO
100
AcDbLine
 62
7
  6
CONTINUOUS
 10
157.2726200662
 20
175.9630020776
 11
157.2726200662
 21
171.8261907081
  0
LINE
  5
39D
100
AcDbEntity
  8
RACCORDO
100
AcDbLine
 62
7
  6
CONTINUOUS
 10
157.2726200662
 20
41.2051853
 11
157.2726200662
 21
37.0683739304
  0
LINE
  5
39E
100
AcDbEntity
  8
DRAFT
100
AcDbLine
 62
7
  6
CONTINUOUS
 10
158.7551663306
 20
170.4266244282
 11
158.7551663306
 21
169.4797035941
  0
LINE
  5
39F
100
AcDbEntity
  8
DRAFT
100
AcDbLine
 62
7
  6
CONTINUOUS
 10
158.7551663306
 20
33.015688004
 11
158.7551663306
 21
36.515688004
  0
LINE
  5
3A0
100
AcDbEntity
  8
RACCORDO
100
AcDbLine
 62
7
  6
CONTINUOUS
 10
158.7551663306
 20
36.515688004
 11
158.7551663306
 21
42.6047515799
  0
LINE
  5
3A1
100
AcDbEntity
  8
DRAFT
100
AcDbLine
 62
7
  6
CONTINUOUS
 10
158.7551663306
 20
42.6047515799
 11
158.7551663306
 21
43.551672414
  0
LINE
  5
3A2
100
AcDbEntity
  8
RACCORDO
100
AcDbLine
 62
7
  6
CONTINUOUS
 10
158.7551663306
 20
170.4266244282
 11
158.7551663306
 21
176.515688004
  0
LINE
  5
3A3
100
AcDbEntity
  8
DRAFT
100
AcDbLine
 62
7
  6
CONTINUOUS
 10
158.7551663306
 20
176.515688004
 11
158.7551663306
 21
180.015688004
  0
LINE
  5
3A4
100
AcDbEntity
  8
DRAFT
100
AcDbLine
 62
7
  6
CONTINUOUS
 10
159.7551663306
 20
43.551672414
 11
159.7551663306
 21
42.4877080038
  0
LINE
  5
3A5
100
AcDbEntity
  8
DRAFT
100
AcDbLine
 62
7
  6
CONTINUOUS
 10
159.7551663306
 20
169.4797035941
 11
159.7551663306
 21
170.5436680043
  0
LINE
  5
3A6
100
AcDbEntity
  8
DRAFT
100
AcDbLine
 62
7
  6
CONTINUOUS
 10
160.0693335711
 20
43.2375051735
 11
160.0693335711
 21
41.8593256664
  0
LINE
  5
3A7
100
AcDbEntity
  8
DRAFT
100
AcDbLine
 62
7
  6
CONTINUOUS
 10
160.0693335711
 20
169.7938708346
 11
160.0693335711
 21
171.1720503417
  0
LINE
  5
3A8
100
AcDbEntity
  8
0
100
AcDbLine
 62
7
  6
CONTINUOUS
 10
189.2551663306
 20
148.615688004
 11
184.7551663306
 21
143.215688004
  0
LINE
  5
3A9
100
AcDbEntity
  8
DRAFT
100
AcDbLine
 62
7
  6
CONTINUOUS
 10
288.7424640154
 20
105.5126088381
 11
289.7551663306
 21
105.765688004
  0
LINE
  5
3AA
100
AcDbEntity
  8
DRAFT
100
AcDbLine
 62
7
  6
CONTINUOUS
 10
287.39801439
 20
73.9266244282
 11
276.9191819207
 21
73.9266244282
  0
LINE
  5
3AB
100
AcDbEntity
  8
DRAFT
100
AcDbLine
 62
7
  6
CONTINUOUS
 10
91.1123182713
 20
73.9266244282
 11
101.5911507406
 21
73.9266244282
  0
LINE
  5
3AC
100
AcDbEntity
  8
RACCORDO
100
AcDbLine
 62
7
  6
CONTINUOUS
 10
88.7551663306
 20
74.515688004
 11
100.0107759541
 21
74.515688004
  0
LINE
  5
3AD
100
AcDbEntity
  8
RACCORDO
100
AcDbLine
 62
7
  6
CONTINUOUS
 10
278.4995567072
 20
74.515688004
 11
289.7551663306
 21
74.515688004
  0
LINE
  5
3AE
100
AcDbEntity
  8
RACCORDO
100
AcDbLine
 62
7
  6
CONTINUOUS
 10
289.7551663306
 20
76.015688004
 11
278.4995567072
 21
76.015688004
  0
LINE
  5
3AF
100
AcDbEntity
  8
RACCORDO
100
AcDbLine
 62
7
  6
CONTINUOUS
 10
100.0107759541
 20
76.015688004
 11
88.7551663306
 21
76.015688004
  0
LINE
  5
3B0
100
AcDbEntity
  8
DRAFT
100
AcDbLine
 62
7
  6
CONTINUOUS
 10
276.9191819207
 20
76.0375051735
 11
275.2191819207
 21
76.0375051735
  0
LINE
  5
3B1
100
AcDbEntity
  8
DRAFT
100
AcDbLine
 62
7
  6
CONTINUOUS
 10
103.2911507406
 20
76.0375051735
 11
101.5911507406
 21
76.0375051735
  0
LINE
  5
3B2
100
AcDbEntity
  8
DRAFT
100
AcDbLine
 62
7
  6
CONTINUOUS
 10
288.7424640154
 20
76.26876717
 11
277.2551663306
 21
76.26876717
  0
LINE
  5
3B3
100
AcDbEntity
  8
DRAFT
100
AcDbLine
 62
7
  6
CONTINUOUS
 10
89.7678686459
 20
76.26876717
 11
101.2551663306
 21
76.26876717
  0
LINE
  5
3B4
100
AcDbEntity
  8
DRAFT
100
AcDbLine
 62
7
  6
CONTINUOUS
 10
103.2911507406
 20
77.015688004
 11
101.9271863304
 21
77.015688004
  0
LINE
  5
3B5
100
AcDbEntity
  8
DRAFT
100
AcDbLine
 62
7
  6
CONTINUOUS
 10
275.2191819207
 20
77.015688004
 11
276.5831463309
 21
77.015688004
  0
LINE
  5
3B6
100
AcDbEntity
  8
DRAFT
100
AcDbLine
 62
7
  6
CONTINUOUS
 10
102.9551663306
 20
77.351672414
 11
101.2551663306
 21
77.351672414
  0
LINE
  5
3B7
100
AcDbEntity
  8
DRAFT
100
AcDbLine
 62
7
  6
CONTINUOUS
 10
275.5551663306
 20
77.351672414
 11
277.2551663306
 21
77.351672414
  0
LINE
  5
3B8
100
AcDbEntity
  8
DRAFT
100
AcDbLine
 62
7
  6
CONTINUOUS
 10
102.9551663306
 20
78.145815023
 11
101.2551663306
 21
78.145815023
  0
LINE
  5
3B9
100
AcDbEntity
  8
DRAFT
100
AcDbLine
 62
7
  6
CONTINUOUS
 10
275.5551663306
 20
78.145815023
 11
277.2551663306
 21
78.145815023
  0
LINE
  5
3BA
100
AcDbEntity
  8
DRAFT
100
AcDbLine
 62
7
  6
CONTINUOUS
 10
102.9769835001
 20
78.815688004
 11
101.298803993
 21
78.815688004
  0
LINE
  5
3BB
100
AcDbEntity
  8
DRAFT
100
AcDbLine
 62
7
  6
CONTINUOUS
 10
275.5333491612
 20
78.815688004
 11
277.2115286683
 21
78.815688004
  0
LINE
  5
3BC
100
AcDbEntity
  8
DRAFT
100
AcDbLine
 62
7
  6
CONTINUOUS
 10
89.7678686459
 20
105.5126088381
 11
88.7551663306
 21
105.765688004
  0
LINE
  5
3BD
100
AcDbEntity
  8
0
100
AcDbLine
 62
7
  6
CONTINUOUS
 10
175.409333041
 20
85.7029220407
 11
175.6384997514
 21
85.5624965132
  0
LINE
  5
3BE
100
AcDbEntity
  8
0
100
AcDbLine
 62
7
  6
CONTINUOUS
 10
175.6843329099
 20
85.7965390672
 11
175.5468329099
 21
85.8901560773
  0
LINE
  5
3BF
100
AcDbEntity
  8
DRAFT
100
AcDbLine
 62
7
  6
CONTINUOUS
 10
166.8551663306
 20
43.2375051735
 11
166.8551663306
 21
41.8593256664
  0
LINE
  5
3C0
100
AcDbEntity
  8
DRAFT
100
AcDbLine
 62
7
  6
CONTINUOUS
 10
166.8551663306
 20
169.7938708346
 11
166.8551663306
 21
171.1720503417
  0
LINE
  5
3C1
100
AcDbEntity
  8
DRAFT
100
AcDbLine
 62
7
  6
CONTINUOUS
 10
167.5250393117
 20
43.215688004
 11
167.5250393117
 21
41.815688004
  0
LINE
  5
3C2
100
AcDbEntity
  8
DRAFT
100
AcDbLine
 62
7
  6
CONTINUOUS
 10
167.5250393117
 20
169.815688004
 11
167.5250393117
 21
171.215688004
  0
LINE
  5
3C3
100
AcDbEntity
  8
DRAFT
100
AcDbLine
 62
7
  6
CONTINUOUS
 10
168.4852933496
 20
43.215688004
 11
168.4852933496
 21
41.815688004
  0
LINE
  5
3C4
100
AcDbEntity
  8
DRAFT
100
AcDbLine
 62
7
  6
CONTINUOUS
 10
168.4852933496
 20
169.815688004
 11
168.4852933496
 21
171.215688004
  0
LINE
  5
3C5
100
AcDbEntity
  8
DRAFT
100
AcDbLine
 62
7
  6
CONTINUOUS
 10
169.1551663306
 20
43.2375051735
 11
169.1551663306
 21
41.8593256664
  0
LINE
  5
3C6
100
AcDbEntity
  8
DRAFT
100
AcDbLine
 62
7
  6
CONTINUOUS
 10
169.1551663306
 20
169.7938708346
 11
169.1551663306
 21
171.1720503417
  0
LINE
  5
3C7
100
AcDbEntity
  8
0
100
AcDbLine
 62
7
  6
CONTINUOUS
 10
171.2551663306
 20
130.015688004
 11
171.2551663306
 21
115.015688004
  0
LINE
  5
3C8
100
AcDbEntity
  8
0
100
AcDbLine
 62
7
  6
CONTINUOUS
 10
171.2551663306
 20
98.015688004
 11
171.2551663306
 21
83.015688004
  0
LINE
  5
3C9
100
AcDbEntity
  8
0
100
AcDbLine
 62
7
  6
CONTINUOUS
 10
173.2551663306
 20
86.5454752464
 11
173.2551663306
 21
86.3114326556
  0
LINE
  5
3CA
100
AcDbEntity
  8
DRAFT
100
AcDbLine
 62
7
  6
CONTINUOUS
 10
188.2520871647
 20
179.0029856888
 11
188.5051663306
 21
180.015688004
  0
LINE
  5
3CB
100
AcDbEntity
  8
ASSI
100
AcDbLine
 62
7
  6
CONTINUOUS
 10
179.2025433306
 20
128.390823004
 11
177.7102703306
 21
123.742874004
  0
LINE
  5
3CC
100
AcDbEntity
  8
DRAFT
100
AcDbLine
 62
7
  6
CONTINUOUS
 10
202.2551663306
 20
170.5436680043
 11
202.5693335711
 21
171.1720503417
  0
LINE
  5
3CD
100
AcDbEntity
  8
RACCORDO
100
AcDbLine
 62
250
  6
CONTINUOUS
 10
88.7551663306
 20
33.5153834175
 11
91.1123182713
 21
35.8725353582
  0
LINE
  5
3CE
100
AcDbEntity
  8
RACCORDO
100
AcDbLine
 62
250
  6
CONTINUOUS
 10
89.2548617442
 20
33.015688004
 11
91.6120136848
 21
35.3728399447
  0
LWPOLYLINE
  5
3CF
100
AcDbEntity
  8
0
100
AcDbPolyline
 62
7
  6
CONTINUOUS
 90
14
 70
0
 10
203.2066369673
 20
85.4199117121
 10
203.3092766065
 20
85.4490681673
 10
203.4056139577
 20
85.4888790955
 10
203.4951626588
 20
85.5390307579
 10
203.5764636244
 20
85.5985819379
 10
203.6489476478
 20
85.6674095867
 10
203.7131839356
 20
85.7456367531
 10
203.7694210214
 20
85.832691368
 10
203.8182278453
 20
85.9291838705
 10
203.8590354673
 20
86.0345038214
 10
203.8903855996
 20
86.1462478341
 10
203.9117921466
 20
86.2636147795
 10
203.923741204
 20
86.3874057868
 10
203.9262327719
 20
86.5176208557
  0
LINE
  5
3D0
100
AcDbEntity
  8
0
100
AcDbLine
 62
7
  6
CONTINUOUS
 10
180.7259994891
 20
85.8433475722
 11
180.5426663306
 21
85.7965390672
  0
LINE
  5
3D1
100
AcDbEntity
  8
0
100
AcDbLine
 62
7
  6
CONTINUOUS
 10
176.3259997514
 20
85.7965390672
 11
176.1426663306
 21
85.7497305621
  0
LINE
  5
3D2
100
AcDbEntity
  8
0
100
AcDbLine
 62
7
  6
CONTINUOUS
 10
179.9468331722
 20
87.3880284686
 11
180.1301663306
 21
87.4348369737
  0
LINE
  5
3D3
100
AcDbEntity
  8
RACCORDO
100
AcDbLine
 62
7
  6
CONTINUOUS
 10
283.7551663306
 20
107.265688004
 11
283.7021758178
 21
107.2524454207
  0
LINE
  5
3D4
100
AcDbEntity
  8
0
100
AcDbLine
 62
7
  6
CONTINUOUS
 10
180.5426663306
 20
85.515688004
 11
180.7718331722
 21
85.5624965132
  0
LINE
  5
3D5
100
AcDbEntity
  8
0
100
AcDbLine
 62
7
  6
CONTINUOUS
 10
176.1426663306
 20
85.515688004
 11
176.3718329099
 21
85.5624965132
  0
LINE
  5
3D6
100
AcDbEntity
  8
0
100
AcDbLine
 62
7
  6
CONTINUOUS
 10
180.1301663306
 20
87.715688004
 11
179.9009994891
 21
87.668879499
  0
LINE
  5
3D7
100
AcDbEntity
  8
0
100
AcDbLine
 62
7
  6
CONTINUOUS
 10
175.8676663306
 20
86.9199432869
 11
175.6384997514
 21
86.8731347819
  0
LWPOLYLINE
  5
3D8
100
AcDbEntity
  8
0
100
AcDbPolyline
 62
7
  6
CONTINUOUS
 90
3
 70
0
 10
202.9809917391
 20
85.392621004
 10
203.0972086782
 20
85.401095991
 10
203.2066369673
 20
85.4199117121
  0
LWPOLYLINE
  5
3D9
100
AcDbEntity
  8
0
100
AcDbPolyline
 62
7
  6
CONTINUOUS
 90
3
 70
0
 10
196.6541673751
 20
86.342187004
 10
196.7528977925
 20
86.34909273
 10
196.844578955
 20
86.3650051499
  0
LWPOLYLINE
  5
3DA
100
AcDbEntity
  8
0
100
AcDbPolyline
 62
7
  6
CONTINUOUS
 90
3
 70
0
 10
188.8170967079
 20
86.342187004
 10
188.9158271253
 20
86.34909273
 10
189.0075082878
 20
86.3650051499
  0
LINE
  5
3DB
100
AcDbEntity
  8
0
100
AcDbLine
 62
7
  6
CONTINUOUS
 10
196.629020923
 20
86.6034254088
 11
196.5633794769
 21
86.602273004
  0
LINE
  5
3DC
100
AcDbEntity
  8
0
100
AcDbLine
 62
7
  6
CONTINUOUS
 10
188.7918189936
 20
86.6034000675
 11
188.726308803
 21
86.602273004
  0
LINE
  5
3DD
100
AcDbEntity
  8
0
100
AcDbLine
 62
7
  6
CONTINUOUS
 10
171.2551663306
 20
83.015688004
 11
207.2551663306
 21
83.015688004
  0
LINE
  5
3DE
100
AcDbEntity
  8
0
100
AcDbLine
 62
7
  6
CONTINUOUS
 10
187.8049943306
 20
85.392621004
 11
188.1089613306
 21
85.392621004
  0
LINE
  5
3DF
100
AcDbEntity
  8
0
100
AcDbLine
 62
7
  6
CONTINUOUS
 10
189.6694823306
 20
85.392621004
 11
189.9828663306
 21
85.392621004
  0
LINE
  5
3E0
100
AcDbEntity
  8
0
100
AcDbLine
 62
7
  6
CONTINUOUS
 10
191.3429923306
 20
85.392621004
 11
191.6750293306
 21
85.392621004
  0
LINE
  5
3E1
100
AcDbEntity
  8
0
100
AcDbLine
 62
7
  6
CONTINUOUS
 10
192.5210223306
 20
85.392621004
 11
192.8249903306
 21
85.392621004
  0
LINE
  5
3E2
100
AcDbEntity
  8
0
100
AcDbLine
 62
7
  6
CONTINUOUS
 10
193.9030003306
 20
85.392621004
 11
194.2288193306
 21
85.392621004
  0
LINE
  5
3E3
100
AcDbEntity
  8
0
100
AcDbLine
 62
7
  6
CONTINUOUS
 10
195.6420643306
 20
85.392621004
 11
195.9460323306
 21
85.392621004
  0
LINE
  5
3E4
100
AcDbEntity
  8
0
100
AcDbLine
 62
7
  6
CONTINUOUS
 10
197.7321753306
 20
85.392621004
 11
199.3930713306
 21
85.392621004
  0
LINE
  5
3E5
100
AcDbEntity
  8
0
100
AcDbLine
 62
7
  6
CONTINUOUS
 10
199.7910183306
 20
85.392621004
 11
200.0855703306
 21
85.392621004
  0
LINE
  5
3E6
100
AcDbEntity
  8
0
100
AcDbLine
 62
7
  6
CONTINUOUS
 10
201.2357083306
 20
85.392621004
 11
201.5771613306
 21
85.392621004
  0
LINE
  5
3E7
100
AcDbEntity
  8
0
100
AcDbLine
 62
7
  6
CONTINUOUS
 10
202.0690883306
 20
85.392621004
 11
202.9809917391
 21
85.392621004
  0
LINE
  5
3E8
100
AcDbEntity
  8
0
100
AcDbLine
 62
7
  6
CONTINUOUS
 10
204.3503553306
 20
85.392621004
 11
204.6763523306
 21
85.392621004
  0
LINE
  5
3E9
100
AcDbEntity
  8
0
100
AcDbLine
 62
7
  6
CONTINUOUS
 10
174.5384996203
 20
85.515688004
 11
174.8134996203
 21
85.515688004
  0
LINE
  5
3EA
100
AcDbEntity
  8
0
100
AcDbLine
 62
7
  6
CONTINUOUS
 10
175.8676663306
 20
85.515688004
 11
176.1426663306
 21
85.515688004
  0
LINE
  5
3EB
100
AcDbEntity
  8
0
100
AcDbLine
 62
7
  6
CONTINUOUS
 10
180.1301663306
 20
85.515688004
 11
180.5426663306
 21
85.515688004
  0
LINE
  5
3EC
100
AcDbEntity
  8
0
100
AcDbLine
 62
7
  6
CONTINUOUS
 10
202.9403093556
 20
85.652708004
 11
202.3730553306
 21
85.652708004
  0
LINE
  5
3ED
100
AcDbEntity
  8
0
100
AcDbLine
 62
7
  6
CONTINUOUS
 10
199.3930713306
 20
85.662123004
 11
198.0361433306
 21
85.662123004
  0
LINE
  5
3EE
100
AcDbEntity
  8
0
100
AcDbLine
 62
7
  6
CONTINUOUS
 10
204.6763523306
 20
85.724836004
 11
204.3503553306
 21
85.724836004
  0
LINE
  5
3EF
100
AcDbEntity
  8
0
100
AcDbLine
 62
7
  6
CONTINUOUS
 10
194.2288193306
 20
85.724836004
 11
193.9030003306
 21
85.724836004
  0
LINE
  5
3F0
100
AcDbEntity
  8
0
100
AcDbLine
 62
7
  6
CONTINUOUS
 10
176.1426663306
 20
85.7497305621
 11
175.8676663306
 21
85.7497305621
  0
LINE
  5
3F1
100
AcDbEntity
  8
0
100
AcDbLine
 62
7
  6
CONTINUOUS
 10
180.5426663306
 20
85.7965390672
 11
180.1301663306
 21
85.7965390672
  0
LINE
  5
3F2
100
AcDbEntity
  8
0
100
AcDbLine
 62
7
  6
CONTINUOUS
 10
190.2179033306
 20
86.047635004
 11
191.1203903306
 21
86.047635004
  0
LINE
  5
3F3
100
AcDbEntity
  8
0
100
AcDbLine
 62
7
  6
CONTINUOUS
 10
181.1843331722
 20
86.0773901303
 11
180.9093331722
 21
86.0773901303
  0
LINE
  5
3F4
100
AcDbEntity
  8
0
100
AcDbLine
 62
7
  6
CONTINUOUS
 10
175.4551663306
 20
86.0773901303
 11
175.1801663306
 21
86.0773901303
  0
LINE
  5
3F5
100
AcDbEntity
  8
0
100
AcDbLine
 62
7
  6
CONTINUOUS
 10
173.2551663306
 20
86.3114326556
 11
173.8968329755
 21
86.3114326556
  0
LINE
  5
3F6
100
AcDbEntity
  8
0
100
AcDbLine
 62
7
  6
CONTINUOUS
 10
191.0106003306
 20
86.317137004
 11
190.3118833306
 21
86.317137004
  0
LINE
  5
3F7
100
AcDbEntity
  8
0
100
AcDbLine
 62
7
  6
CONTINUOUS
 10
188.1089613306
 20
86.342187004
 11
188.8170967079
 21
86.342187004
  0
LINE
  5
3F8
100
AcDbEntity
  8
0
100
AcDbLine
 62
7
  6
CONTINUOUS
 10
195.9460323306
 20
86.342187004
 11
196.6541673751
 21
86.342187004
  0
LINE
  5
3F9
100
AcDbEntity
  8
0
100
AcDbLine
 62
7
  6
CONTINUOUS
 10
198.0361433306
 20
86.414137004
 11
199.2678243306
 21
86.414137004
  0
LINE
  5
3FA
100
AcDbEntity
  8
0
100
AcDbLine
 62
7
  6
CONTINUOUS
 10
175.1801663306
 20
86.4986667414
 11
175.5009997514
 21
86.4986667414
  0
LINE
  5
3FB
100
AcDbEntity
  8
0
100
AcDbLine
 62
7
  6
CONTINUOUS
 10
173.8968329755
 20
86.5454752464
 11
173.2551663306
 21
86.5454752464
  0
LINE
  5
3FC
100
AcDbEntity
  8
0
100
AcDbLine
 62
7
  6
CONTINUOUS
 10
196.5633794769
 20
86.602273004
 11
195.9460323306
 21
86.602273004
  0
LINE
  5
3FD
100
AcDbEntity
  8
0
100
AcDbLine
 62
7
  6
CONTINUOUS
 10
188.726308803
 20
86.602273004
 11
188.1089613306
 21
86.602273004
  0
LINE
  5
3FE
100
AcDbEntity
  8
0
100
AcDbLine
 62
7
  6
CONTINUOUS
 10
199.2678243306
 20
86.683639004
 11
198.0361433306
 21
86.683639004
  0
LINE
  5
3FF
100
AcDbEntity
  8
0
100
AcDbLine
 62
7
  6
CONTINUOUS
 10
175.8676663306
 20
86.6859007616
 11
176.1426663306
 21
86.6859007616
  0
LINE
  5
400
100
AcDbEntity
  8
0
100
AcDbLine
 62
7
  6
CONTINUOUS
 10
176.1426663306
 20
86.9199432869
 11
175.8676663306
 21
86.9199432869
  0
LINE
  5
401
100
AcDbEntity
  8
0
100
AcDbLine
 62
7
  6
CONTINUOUS
 10
180.9093331722
 20
87.1539858122
 11
181.1843331722
 21
87.1539858122
  0
LINE
  5
402
100
AcDbEntity
  8
0
100
AcDbLine
 62
7
  6
CONTINUOUS
 10
191.7595933306
 20
87.373118004
 11
192.5210223306
 21
87.373118004
  0
LINE
  5
403
100
AcDbEntity
  8
0
100
AcDbLine
 62
7
  6
CONTINUOUS
 10
192.8249903306
 20
87.373118004
 11
193.5864193306
 21
87.373118004
  0
LINE
  5
404
100
AcDbEntity
  8
0
100
AcDbLine
 62
7
  6
CONTINUOUS
 10
198.0361433306
 20
87.373118004
 11
199.3712203306
 21
87.373118004
  0
LINE
  5
405
100
AcDbEntity
  8
0
100
AcDbLine
 62
7
  6
CONTINUOUS
 10
188.1089613306
 20
87.382534004
 11
188.7263126133
 21
87.382534004
  0
LINE
  5
406
100
AcDbEntity
  8
0
100
AcDbLine
 62
7
  6
CONTINUOUS
 10
195.9460323306
 20
87.382534004
 11
196.5633832805
 21
87.382534004
  0
LINE
  5
407
100
AcDbEntity
  8
0
100
AcDbLine
 62
7
  6
CONTINUOUS
 10
202.3730553306
 20
87.382534004
 11
202.9403078828
 21
87.382534004
  0
LINE
  5
408
100
AcDbEntity
  8
0
100
AcDbLine
 62
7
  6
CONTINUOUS
 10
180.1301663306
 20
87.4348369737
 11
180.5426663306
 21
87.4348369737
  0
LINE
  5
409
100
AcDbEntity
  8
0
100
AcDbLine
 62
7
  6
CONTINUOUS
 10
175.409333041
 20
87.4816454787
 11
176.7384997514
 21
87.4816454787
  0
LINE
  5
40A
100
AcDbEntity
  8
0
100
AcDbLine
 62
7
  6
CONTINUOUS
 10
202.980990014
 20
87.642621004
 11
202.0690883306
 21
87.642621004
  0
LINE
  5
40B
100
AcDbEntity
  8
0
100
AcDbLine
 62
7
  6
CONTINUOUS
 10
201.5771613306
 20
87.642621004
 11
201.2826093306
 21
87.642621004
  0
LINE
  5
40C
100
AcDbEntity
  8
0
100
AcDbLine
 62
7
  6
CONTINUOUS
 10
200.1514803306
 20
87.642621004
 11
199.7910183306
 21
87.642621004
  0
LINE
  5
40D
100
AcDbEntity
  8
0
100
AcDbLine
 62
7
  6
CONTINUOUS
 10
199.3712203306
 20
87.642621004
 11
197.7321753306
 21
87.642621004
  0
LINE
  5
40E
100
AcDbEntity
  8
0
100
AcDbLine
 62
7
  6
CONTINUOUS
 10
196.6541641239
 20
87.642621004
 11
195.6420643306
 21
87.642621004
  0
LINE
  5
40F
100
AcDbEntity
  8
0
100
AcDbLine
 62
7
  6
CONTINUOUS
 10
193.5864193306
 20
87.642621004
 11
191.7595933306
 21
87.642621004
  0
LINE
  5
410
100
AcDbEntity
  8
0
100
AcDbLine
 62
7
  6
CONTINUOUS
 10
190.8603043306
 20
87.642621004
 11
190.5156533306
 21
87.642621004
  0
LINE
  5
411
100
AcDbEntity
  8
0
100
AcDbLine
 62
7
  6
CONTINUOUS
 10
188.8170934567
 20
87.642621004
 11
187.8049943306
 21
87.642621004
  0
LINE
  5
412
100
AcDbEntity
  8
0
100
AcDbLine
 62
7
  6
CONTINUOUS
 10
180.5426663306
 20
87.715688004
 11
180.1301663306
 21
87.715688004
  0
LINE
  5
413
100
AcDbEntity
  8
0
100
AcDbLine
 62
7
  6
CONTINUOUS
 10
176.7384997514
 20
87.715688004
 11
175.1801663306
 21
87.715688004
  0
LINE
  5
414
100
AcDbEntity
  8
0
100
AcDbLine
 62
7
  6
CONTINUOUS
 10
174.8134996203
 20
87.715688004
 11
174.5384996203
 21
87.715688004
  0
LINE
  5
415
100
AcDbEntity
  8
0
100
AcDbLine
 62
7
  6
CONTINUOUS
 10
178.2280831722
 20
87.8990214248
 11
178.3655831722
 21
87.8990214248
  0
LINE
  5
416
100
AcDbEntity
  8
0
100
AcDbLine
 62
7
  6
CONTINUOUS
 10
178.3655831722
 20
88.4490214248
 11
178.2280831722
 21
88.4490214248
  0
LWPOLYLINE
  5
417
100
AcDbEntity
  8
0
100
AcDbPolyline
 62
7
  6
CONTINUOUS
 90
4
 70
0
 10
196.5633832805
 20
87.382534004
 10
196.6288917776
 20
87.3814071342
 10
196.6903866066
 20
87.374375108
 10
196.7478677674
 20
87.3614379254
  0
LWPOLYLINE
  5
418
100
AcDbEntity
  8
0
100
AcDbPolyline
 62
7
  6
CONTINUOUS
 90
4
 70
0
 10
188.7263126133
 20
87.382534004
 10
188.7919523689
 20
87.3813817929
 10
188.8535340448
 20
87.3743275754
 10
188.9110576409
 20
87.3613713516
  0
LWPOLYLINE
  5
419
100
AcDbEntity
  8
0
100
AcDbPolyline
 62
7
  6
CONTINUOUS
 90
3
 70
0
 10
202.9403078828
 20
87.382534004
 10
203.0416205495
 20
87.376548228
 10
203.1360517159
 20
87.3575492659
  0
LINE
  5
41A
100
AcDbEntity
  8
0
100
AcDbLine
 62
7
  6
CONTINUOUS
 10
175.6384997514
 20
85.5624965132
 11
175.8676663306
 21
85.515688004
  0
LINE
  5
41B
100
AcDbEntity
  8
0
100
AcDbLine
 62
7
  6
CONTINUOUS
 10
179.9009994891
 20
85.5624965132
 11
180.1301663306
 21
85.515688004
  0
LINE
  5
41C
100
AcDbEntity
  8
0
100
AcDbLine
 62
7
  6
CONTINUOUS
 10
176.3718329099
 20
86.8731347819
 11
176.1426663306
 21
86.9199432869
  0
LINE
  5
41D
100
AcDbEntity
  8
0
100
AcDbLine
 62
7
  6
CONTINUOUS
 10
180.7718331722
 20
87.668879499
 11
180.5426663306
 21
87.715688004
  0
LINE
  5
41E
100
AcDbEntity
  8
RACCORDO
100
AcDbLine
 62
7
  6
CONTINUOUS
 10
94.7551663306
 20
107.265688004
 11
94.8081568435
 21
107.2524454207
  0
LINE
  5
41F
100
AcDbEntity
  8
0
100
AcDbLine
 62
7
  6
CONTINUOUS
 10
175.8676663306
 20
85.7497305621
 11
175.6843329099
 21
85.7965390672
  0
LINE
  5
420
100
AcDbEntity
  8
0
100
AcDbLine
 62
7
  6
CONTINUOUS
 10
176.1426663306
 20
86.6859007616
 11
176.3259997514
 21
86.6390922566
  0
LINE
  5
421
100
AcDbEntity
  8
0
100
AcDbLine
 62
7
  6
CONTINUOUS
 10
180.1301663306
 20
85.7965390672
 11
179.9468331722
 21
85.8433475722
  0
LINE
  5
422
100
AcDbEntity
  8
0
100
AcDbLine
 62
7
  6
CONTINUOUS
 10
180.5426663306
 20
87.4348369737
 11
180.7259994891
 21
87.3880284686
  0
LWPOLYLINE
  5
423
100
AcDbEntity
  8
0
100
AcDbPolyline
 62
7
  6
CONTINUOUS
 90
10
 70
0
 10
188.9110576409
 20
87.3613713516
 10
188.965402906
 20
87.3425164949
 10
189.0156900914
 20
87.3177596318
 10
189.059279951
 20
87.287090642
 10
189.0954528383
 20
87.2500060807
 10
189.1249284
 20
87.2070093927
 10
189.1472263298
 20
87.1596007915
 10
189.1621865259
 20
87.1082803482
 10
189.1699690901
 20
87.0525479917
 10
189.1705740226
 20
86.9924037219
  0
LINE
  5
424
100
AcDbEntity
  8
0
100
AcDbLine
 62
7
  6
CONTINUOUS
 10
179.7176663306
 20
85.6561135356
 11
179.9009994891
 21
85.5624965132
  0
LINE
  5
425
100
AcDbEntity
  8
0
100
AcDbLine
 62
7
  6
CONTINUOUS
 10
180.9551663306
 20
87.5752624889
 11
180.7718331722
 21
87.668879499
  0
LINE
  5
426
100
AcDbEntity
  8
0
100
AcDbLine
 62
7
  6
CONTINUOUS
 10
176.6009997514
 20
86.7327092667
 11
176.3718329099
 21
86.8731347819
  0
LINE
  5
427
100
AcDbEntity
  8
0
100
AcDbLine
 62
7
  6
CONTINUOUS
 10
176.3259997514
 20
86.6390922566
 11
176.4634997514
 21
86.5454752464
  0
LINE
  5
428
100
AcDbEntity
  8
0
100
AcDbLine
 62
7
  6
CONTINUOUS
 10
179.9468331722
 20
85.8433475722
 11
179.8093331722
 21
85.9369646151
  0
LINE
  5
429
100
AcDbEntity
  8
0
100
AcDbLine
 62
7
  6
CONTINUOUS
 10
180.7259994891
 20
87.3880284686
 11
180.8634994891
 21
87.2944114585
  0
LINE
  5
42A
100
AcDbEntity
  8
RACCORDO
100
AcDbLine
 62
250
  6
CONTINUOUS
 10
88.7551663306
 20
179.5159925905
 11
91.1123182713
 21
177.1588406498
  0
LINE
  5
42B
100
AcDbEntity
  8
RACCORDO
100
AcDbLine
 62
250
  6
CONTINUOUS
 10
89.2548617442
 20
180.015688004
 11
91.6120136848
 21
177.6585360633
  0
LINE
  5
42C
100
AcDbEntity
  8
0
100
AcDbLine
 62
7
  6
CONTINUOUS
 10
179.5343331722
 20
85.8433475722
 11
179.7176663306
 21
85.6561135356
  0
LINE
  5
42D
100
AcDbEntity
  8
0
100
AcDbLine
 62
7
  6
CONTINUOUS
 10
181.1384994891
 20
87.3880284686
 11
180.9551663306
 21
87.5752624889
  0
LINE
  5
42E
100
AcDbEntity
  8
0
100
AcDbLine
 62
7
  6
CONTINUOUS
 10
193.7551663306
 20
70.115688004
 11
189.2551663306
 21
75.515688004
  0
LINE
  5
42F
100
AcDbEntity
  8
0
100
AcDbLine
 62
7
  6
CONTINUOUS
 10
178.0905831722
 20
88.0823545833
 11
178.2280831722
 21
87.8990214248
  0
LINE
  5
430
100
AcDbEntity
  8
0
100
AcDbLine
 62
7
  6
CONTINUOUS
 10
178.5030831722
 20
88.265688004
 11
178.3655831722
 21
88.4490214248
  0
LINE
  5
431
100
AcDbEntity
  8
0
100
AcDbLine
 62
7
  6
CONTINUOUS
 10
175.271833041
 20
85.8901560773
 11
175.409333041
 21
85.7029220407
  0
LINE
  5
432
100
AcDbEntity
  8
0
100
AcDbLine
 62
7
  6
CONTINUOUS
 10
176.7384997514
 20
86.5454752464
 11
176.6009997514
 21
86.7327092667
  0
LINE
  5
433
100
AcDbEntity
  8
0
100
AcDbLine
 62
7
  6
CONTINUOUS
 10
176.4634997514
 20
86.5454752464
 11
176.5551663306
 21
86.4050497313
  0
LINE
  5
434
100
AcDbEntity
  8
0
100
AcDbLine
 62
7
  6
CONTINUOUS
 10
179.8093331722
 20
85.9369646151
 11
179.7176663306
 21
86.0773901303
  0
LINE
  5
435
100
AcDbEntity
  8
DRAFT
100
AcDbLine
 62
7
  6
CONTINUOUS
 10
202.5693335711
 20
41.8593256664
 11
202.2551663306
 21
42.4877080038
  0
LINE
  5
436
100
AcDbEntity
  8
0
100
AcDbLine
 62
7
  6
CONTINUOUS
 10
175.1801663306
 20
86.0773901303
 11
175.271833041
 21
85.8901560773
  0
LINE
  5
437
100
AcDbEntity
  8
0
100
AcDbLine
 62
7
  6
CONTINUOUS
 10
175.5468329099
 20
85.8901560773
 11
175.4551663306
 21
86.0773901303
  0
LINE
  5
438
100
AcDbEntity
  8
0
100
AcDbLine
 62
7
  6
CONTINUOUS
 10
179.4426663306
 20
86.0305816252
 11
179.5343331722
 21
85.8433475722
  0
LINE
  5
439
100
AcDbEntity
  8
0
100
AcDbLine
 62
7
  6
CONTINUOUS
 10
176.8301663306
 20
86.3114326556
 11
176.7384997514
 21
86.5454752464
  0
LINE
  5
43A
100
AcDbEntity
  8
0
100
AcDbLine
 62
7
  6
CONTINUOUS
 10
176.5551663306
 20
86.4050497313
 11
176.6009997514
 21
86.2646241505
  0
LINE
  5
43B
100
AcDbEntity
  8
DRAFT
100
AcDbLine
 62
7
  6
CONTINUOUS
 10
188.2520871647
 20
34.0283903193
 11
188.5051663306
 21
33.015688004
  0
LINE
  5
43C
100
AcDbEntity
  8
0
100
AcDbLine
 62
7
  6
CONTINUOUS
 10
173.8968329755
 20
86.3114326556
 11
173.8968329755
 21
86.5454752464
  0
LINE
  5
43D
100
AcDbEntity
  8
0
100
AcDbLine
 62
7
  6
CONTINUOUS
 10
174.2634996858
 20
87.3880284686
 11
174.2634996858
 21
87.013560297
  0
LINE
  5
43E
100
AcDbEntity
  8
0
100
AcDbLine
 62
7
  6
CONTINUOUS
 10
174.5384996203
 20
87.3412199636
 11
174.5384996203
 21
85.515688004
  0
LINE
  5
43F
100
AcDbEntity
  8
0
100
AcDbLine
 62
7
  6
CONTINUOUS
 10
174.8134996203
 20
85.515688004
 11
174.8134996203
 21
87.715688004
  0
LINE
  5
440
100
AcDbEntity
  8
0
100
AcDbLine
 62
7
  6
CONTINUOUS
 10
175.1801663306
 20
87.715688004
 11
175.1801663306
 21
86.4986667414
  0
LINE
  5
441
100
AcDbEntity
  8
ASSI
100
AcDbLine
 62
7
  6
CONTINUOUS
 10
175.3876123306
 20
90.9676509829
 11
175.3876123306
 21
91.7184679814
  0
LINE
  5
442
100
AcDbEntity
  8
ASSI
100
AcDbLine
 62
7
  6
CONTINUOUS
 10
175.3876123306
 20
95.312908004
 11
175.3876123306
 21
96.063725004
  0
LINE
  5
443
100
AcDbEntity
  8
0
100
AcDbLine
 62
7
  6
CONTINUOUS
 10
175.409333041
 20
86.7327092667
 11
175.409333041
 21
87.4816454787
  0
LINE
  5
444
100
AcDbEntity
  8
DRAFT
100
AcDbLine
 62
7
  6
CONTINUOUS
 10
175.9409990902
 20
43.2375051735
 11
175.9409990902
 21
41.8593256664
  0
LINE
  5
445
100
AcDbEntity
  8
DRAFT
100
AcDbLine
 62
7
  6
CONTINUOUS
 10
175.9409990902
 20
169.7938708346
 11
175.9409990902
 21
171.1720503417
  0
LINE
  5
446
100
AcDbEntity
  8
DRAFT
100
AcDbLine
 62
7
  6
CONTINUOUS
 10
176.2551663306
 20
43.551672414
 11
176.2551663306
 21
42.4877080038
  0
LINE
  5
447
100
AcDbEntity
  8
DRAFT
100
AcDbLine
 62
7
  6
CONTINUOUS
 10
176.2551663306
 20
169.4797035941
 11
176.2551663306
 21
170.5436680043
  0
LINE
  5
448
100
AcDbEntity
  8
0
100
AcDbLine
 62
7
  6
CONTINUOUS
 10
176.6009997514
 20
86.2646241505
 11
176.6009997514
 21
86.1710071404
  0
LINE
  5
449
100
AcDbEntity
  8
0
100
AcDbLine
 62
7
  6
CONTINUOUS
 10
176.7384997514
 20
87.4816454787
 11
176.7384997514
 21
87.715688004
  0
LINE
  5
44A
100
AcDbEntity
  8
0
100
AcDbLine
 62
7
  6
CONTINUOUS
 10
176.8301663306
 20
86.1241986354
 11
176.8301663306
 21
86.3114326556
  0
LINE
  5
44B
100
AcDbEntity
  8
DRAFT
100
AcDbLine
 62
7
  6
CONTINUOUS
 10
177.2551663306
 20
43.551672414
 11
177.2551663306
 21
42.4877080038
  0
LINE
  5
44C
100
AcDbEntity
  8
DRAFT
100
AcDbLine
 62
7
  6
CONTINUOUS
 10
177.2551663306
 20
169.4797035941
 11
177.2551663306
 21
170.5436680043
  0
LINE
  5
44D
100
AcDbEntity
  8
DRAFT
100
AcDbLine
 62
7
  6
CONTINUOUS
 10
177.5693335711
 20
43.2375051735
 11
177.5693335711
 21
41.8593256664
  0
LINE
  5
44E
100
AcDbEntity
  8
DRAFT
100
AcDbLine
 62
7
  6
CONTINUOUS
 10
177.5693335711
 20
169.7938708346
 11
177.5693335711
 21
171.1720503417
  0
LINE
  5
44F
100
AcDbEntity
  8
0
100
AcDbLine
 62
7
  6
CONTINUOUS
 10
178.0721593306
 20
118.640688004
 11
178.0721593306
 21
116.390688004
  0
LINE
  5
450
100
AcDbEntity
  8
0
100
AcDbLine
 62
7
  6
CONTINUOUS
 10
178.0905831722
 20
88.265688004
 11
178.0905831722
 21
88.0823545833
  0
LINE
  5
451
100
AcDbEntity
  8
0
100
AcDbLine
 62
7
  6
CONTINUOUS
 10
178.3667153306
 20
116.390688004
 11
178.3667153306
 21
118.277303004
  0
LINE
  5
452
100
AcDbEntity
  8
0
100
AcDbLine
 62
7
  6
CONTINUOUS
 10
178.5030831722
 20
88.0823545833
 11
178.5030831722
 21
88.265688004
  0
LINE
  5
453
100
AcDbEntity
  8
ASSI
100
AcDbLine
 62
7
  6
CONTINUOUS
 10
179.3727223306
 20
93.140688004
 11
179.3727223306
 21
93.890688004
  0
LINE
  5
454
100
AcDbEntity
  8
0
100
AcDbLine
 62
7
  6
CONTINUOUS
 10
179.3968331722
 20
86.966751792
 11
179.3968331722
 21
86.2646241505
  0
LINE
  5
455
100
AcDbEntity
  8
0
100
AcDbLine
 62
7
  6
CONTINUOUS
 10
179.6718331722
 20
86.2646241505
 11
179.6718331722
 21
86.966751792
  0
LINE
  5
456
100
AcDbEntity
  8
ASSI
100
AcDbLine
 62
7
  6
CONTINUOUS
 10
179.7727223306
 20
90.967650866
 11
179.7727223306
 21
91.7184717112
  0
LINE
  5
457
100
AcDbEntity
  8
ASSI
100
AcDbLine
 62
7
  6
CONTINUOUS
 10
179.7727223306
 20
95.312908004
 11
179.7727223306
 21
96.0637245823
  0
LINE
  5
458
100
AcDbEntity
  8
0
100
AcDbLine
 62
7
  6
CONTINUOUS
 10
179.9335673306
 20
118.280397004
 11
179.9335673306
 21
116.390688004
  0
LINE
  5
459
100
AcDbEntity
  8
0
100
AcDbLine
 62
7
  6
CONTINUOUS
 10
180.2282413306
 20
116.390688004
 11
180.2282413306
 21
118.640688004
  0
LINE
  5
45A
100
AcDbEntity
  8
ASSI
100
AcDbLine
 62
7
  6
CONTINUOUS
 10
181.4526383306
 20
128.390823004
 11
181.4526223306
 21
121.640502004
  0
LINE
  5
45B
100
AcDbEntity
  8
RACCORDO
100
AcDbLine
 62
7
  6
CONTINUOUS
 10
157.2551663306
 20
36.515688004
 11
157.268408914
 21
36.5686785169
  0
LINE
  5
45C
100
AcDbEntity
  8
ASSI
100
AcDbLine
 62
7
  6
CONTINUOUS
 10
178.3853033306
 20
121.640519004
 11
180.5526103306
 21
128.390823004
  0
LINE
  5
45D
100
AcDbEntity
  8
0
100
AcDbLine
 62
7
  6
CONTINUOUS
 10
179.3006263306
 20
116.390688004
 11
179.9335673306
 21
118.280397004
  0
LINE
  5
45E
100
AcDbEntity
  8
0
100
AcDbLine
 62
7
  6
CONTINUOUS
 10
179.7957283306
 20
118.640688004
 11
179.1532943306
 21
116.729272004
  0
LINE
  5
45F
100
AcDbEntity
  8
0
100
AcDbLine
 62
7
  6
CONTINUOUS
 10
180.8110943306
 20
116.390688004
 11
181.0461573306
 21
117.045581004
  0
LINE
  5
460
100
AcDbEntity
  8
0
100
AcDbLine
 62
7
  6
CONTINUOUS
 10
181.1401963306
 20
117.315071004
 11
181.5038183306
 21
118.314329004
  0
LINE
  5
461
100
AcDbEntity
  8
0
100
AcDbLine
 62
7
  6
CONTINUOUS
 10
181.3438153306
 20
118.640688004
 11
180.4977503306
 21
116.390688004
  0
LINE
  5
462
100
AcDbEntity
  8
RACCORDO
100
AcDbLine
 62
7
  6
CONTINUOUS
 10
282.7196313499
 20
154.5311056614
 11
282.9450120445
 21
154.6260610968
  0
LINE
  5
463
100
AcDbEntity
  8
DRAFT
100
AcDbLine
 62
7
  6
CONTINUOUS
 10
284.198596314
 20
154.765688004
 11
283.8658659224
 21
154.6260610968
  0
LINE
  5
464
100
AcDbEntity
  8
0
100
AcDbLine
 62
7
  6
CONTINUOUS
 10
175.6843329099
 20
86.6390922566
 11
175.8676663306
 21
86.6859007616
  0
LINE
  5
465
100
AcDbEntity
  8
0
100
AcDbLine
 62
7
  6
CONTINUOUS
 10
193.6760000137
 20
92.6965390672
 11
193.4468326476
 21
92.6497305621
  0
LINE
  5
466
100
AcDbEntity
  8
0
100
AcDbLine
 62
7
  6
CONTINUOUS
 10
189.5051663306
 20
92.415688004
 11
189.7343331722
 21
92.4624965132
  0
LINE
  5
467
100
AcDbEntity
  8
0
100
AcDbLine
 62
7
  6
CONTINUOUS
 10
187.4884997514
 20
92.415688004
 11
187.7176663306
 21
92.4624965132
  0
LINE
  5
468
100
AcDbEntity
  8
0
100
AcDbLine
 62
7
  6
CONTINUOUS
 10
189.5051663306
 20
93.2114326556
 11
189.7343331722
 21
93.2582412262
  0
LINE
  5
469
100
AcDbEntity
  8
0
100
AcDbLine
 62
7
  6
CONTINUOUS
 10
185.6093329755
 20
92.6965390672
 11
185.3801663306
 21
92.6497305621
  0
LINE
  5
46A
100
AcDbEntity
  8
0
100
AcDbLine
 62
7
  6
CONTINUOUS
 10
193.2176663306
 20
94.3348369737
 11
193.4468326476
 21
94.3816454787
  0
LINE
  5
46B
100
AcDbEntity
  8
0
100
AcDbLine
 62
7
  6
CONTINUOUS
 10
187.4884997514
 20
93.2114326556
 11
187.7176663306
 21
93.2582412262
  0
LINE
  5
46C
100
AcDbEntity
  8
0
100
AcDbLine
 62
7
  6
CONTINUOUS
 10
191.1093331722
 20
94.3348369737
 11
191.3384994891
 21
94.3816454787
  0
LINE
  5
46D
100
AcDbEntity
  8
0
100
AcDbLine
 62
7
  6
CONTINUOUS
 10
189.2759994891
 20
94.615688004
 11
189.0468331722
 21
94.568879499
  0
LINE
  5
46E
100
AcDbEntity
  8
0
100
AcDbLine
 62
7
  6
CONTINUOUS
 10
187.2593329099
 20
94.615688004
 11
187.0301663306
 21
94.568879499
  0
LINE
  5
46F
100
AcDbEntity
  8
0
100
AcDbLine
 62
7
  6
CONTINUOUS
 10
185.1509996858
 20
94.3348369737
 11
185.3801663306
 21
94.3816454787
  0
LINE
  5
470
100
AcDbEntity
  8
0
100
AcDbLine
 62
7
  6
CONTINUOUS
 10
193.4468326476
 20
92.415688004
 11
193.7218326476
 21
92.4624965132
  0
LINE
  5
471
100
AcDbEntity
  8
0
100
AcDbLine
 62
7
  6
CONTINUOUS
 10
185.3801663306
 20
92.415688004
 11
185.6551663306
 21
92.4624965132
  0
LINE
  5
472
100
AcDbEntity
  8
0
100
AcDbLine
 62
7
  6
CONTINUOUS
 10
193.4468326476
 20
94.615688004
 11
193.1718331722
 21
94.568879499
  0
LINE
  5
473
100
AcDbEntity
  8
0
100
AcDbLine
 62
7
  6
CONTINUOUS
 10
185.3801663306
 20
94.615688004
 11
185.1051663306
 21
94.568879499
  0
LINE
  5
474
100
AcDbEntity
  8
0
100
AcDbLine
 62
7
  6
CONTINUOUS
 10
191.3843331722
 20
94.615688004
 11
191.0634994891
 21
94.568879499
  0
LINE
  5
475
100
AcDbEntity
  8
ASSI
100
AcDbLine
 62
7
  6
CONTINUOUS
 10
201.6667363306
 20
91.609571004
 11
202.8489823306
 21
91.609571004
  0
LINE
  5
476
100
AcDbEntity
  8
ASSI
100
AcDbLine
 62
7
  6
CONTINUOUS
 10
202.8489823306
 20
92.026236004
 11
202.4798703306
 21
92.026236004
  0
LINE
  5
477
100
AcDbEntity
  8
ASSI
100
AcDbLine
 62
7
  6
CONTINUOUS
 10
202.0359913306
 20
92.026236004
 11
201.6667363306
 21
92.026236004
  0
LINE
  5
478
100
AcDbEntity
  8
0
100
AcDbLine
 62
7
  6
CONTINUOUS
 10
187.3051663306
 20
92.415688004
 11
187.4884997514
 21
92.415688004
  0
LINE
  5
479
100
AcDbEntity
  8
0
100
AcDbLine
 62
7
  6
CONTINUOUS
 10
189.3218331722
 20
92.415688004
 11
189.5051663306
 21
92.415688004
  0
LINE
  5
47A
100
AcDbEntity
  8
0
100
AcDbLine
 62
7
  6
CONTINUOUS
 10
190.6051663306
 20
92.415688004
 11
192.2551663306
 21
92.415688004
  0
LINE
  5
47B
100
AcDbEntity
  8
0
100
AcDbLine
 62
7
  6
CONTINUOUS
 10
192.2551663306
 20
92.6497305621
 11
190.9718331722
 21
92.6497305621
  0
LINE
  5
47C
100
AcDbEntity
  8
0
100
AcDbLine
 62
7
  6
CONTINUOUS
 10
189.5509994891
 20
92.6497305621
 11
189.2759994891
 21
92.6497305621
  0
LINE
  5
47D
100
AcDbEntity
  8
0
100
AcDbLine
 62
7
  6
CONTINUOUS
 10
187.5343329099
 20
92.6497305621
 11
187.2593329099
 21
92.6497305621
  0
LINE
  5
47E
100
AcDbEntity
  8
0
100
AcDbLine
 62
7
  6
CONTINUOUS
 10
188.9093329099
 20
92.9305816252
 11
188.6801663306
 21
92.9305816252
  0
LINE
  5
47F
100
AcDbEntity
  8
0
100
AcDbLine
 62
7
  6
CONTINUOUS
 10
186.8926663306
 20
92.9305816252
 11
186.6634996203
 21
92.9305816252
  0
LINE
  5
480
100
AcDbEntity
  8
ASSI
100
AcDbLine
 62
7
  6
CONTINUOUS
 10
177.9122213306
 20
93.140688004
 11
179.3727223306
 21
93.140688004
  0
LINE
  5
481
100
AcDbEntity
  8
0
100
AcDbLine
 62
7
  6
CONTINUOUS
 10
187.2593329099
 20
93.2114326556
 11
187.4884997514
 21
93.2114326556
  0
LINE
  5
482
100
AcDbEntity
  8
0
100
AcDbLine
 62
7
  6
CONTINUOUS
 10
189.2759994891
 20
93.2114326556
 11
189.5051663306
 21
93.2114326556
  0
LINE
  5
483
100
AcDbEntity
  8
0
100
AcDbLine
 62
7
  6
CONTINUOUS
 10
189.5509994891
 20
93.4454752464
 11
189.2301663306
 21
93.4454752464
  0
LINE
  5
484
100
AcDbEntity
  8
0
100
AcDbLine
 62
7
  6
CONTINUOUS
 10
187.5343329099
 20
93.4454752464
 11
187.2134997514
 21
93.4454752464
  0
LINE
  5
485
100
AcDbEntity
  8
ASSI
100
AcDbLine
 62
7
  6
CONTINUOUS
 10
179.3727223306
 20
93.890688004
 11
177.9122183581
 21
93.890688004
  0
LINE
  5
486
100
AcDbEntity
  8
0
100
AcDbLine
 62
7
  6
CONTINUOUS
 10
190.6509994891
 20
94.1007944484
 11
190.8801663306
 21
94.1007944484
  0
LINE
  5
487
100
AcDbEntity
  8
0
100
AcDbLine
 62
7
  6
CONTINUOUS
 10
187.2134997514
 20
94.3816454787
 11
187.5343329099
 21
94.3816454787
  0
LINE
  5
488
100
AcDbEntity
  8
0
100
AcDbLine
 62
7
  6
CONTINUOUS
 10
189.2301663306
 20
94.3816454787
 11
189.5509994891
 21
94.3816454787
  0
LINE
  5
489
100
AcDbEntity
  8
0
100
AcDbLine
 62
7
  6
CONTINUOUS
 10
191.3384994891
 20
94.3816454787
 11
191.5218331722
 21
94.3816454787
  0
LINE
  5
48A
100
AcDbEntity
  8
0
100
AcDbLine
 62
7
  6
CONTINUOUS
 10
191.5676663306
 20
94.615688004
 11
191.3843331722
 21
94.615688004
  0
LINE
  5
48B
100
AcDbEntity
  8
0
100
AcDbLine
 62
7
  6
CONTINUOUS
 10
189.5051663306
 20
94.615688004
 11
189.2759994891
 21
94.615688004
  0
LINE
  5
48C
100
AcDbEntity
  8
0
100
AcDbLine
 62
7
  6
CONTINUOUS
 10
187.4884997514
 20
94.615688004
 11
187.2593329099
 21
94.615688004
  0
LINE
  5
48D
100
AcDbEntity
  8
ASSI
100
AcDbLine
 62
7
  6
CONTINUOUS
 10
201.6803433306
 20
94.986434004
 11
202.0359913306
 21
94.986434004
  0
LINE
  5
48E
100
AcDbEntity
  8
ASSI
100
AcDbLine
 62
7
  6
CONTINUOUS
 10
202.4798703306
 20
94.986434004
 11
202.8353753306
 21
94.986434004
  0
LINE
  5
48F
100
AcDbEntity
  8
ASSI
100
AcDbLine
 62
7
  6
CONTINUOUS
 10
202.8353753306
 20
95.405391004
 11
201.6803433306
 21
95.405391004
  0
LINE
  5
490
100
AcDbEntity
  8
0
100
AcDbLine
 62
7
  6
CONTINUOUS
 10
207.2551663306
 20
98.015688004
 11
171.2551663306
 21
98.015688004
  0
LINE
  5
491
100
AcDbEntity
  8
0
100
AcDbLine
 62
7
  6
CONTINUOUS
 10
185.1051663306
 20
92.4624965132
 11
185.3801663306
 21
92.415688004
  0
LINE
  5
492
100
AcDbEntity
  8
0
100
AcDbLine
 62
7
  6
CONTINUOUS
 10
193.1718331722
 20
92.4624965132
 11
193.4468326476
 21
92.415688004
  0
LINE
  5
493
100
AcDbEntity
  8
0
100
AcDbLine
 62
7
  6
CONTINUOUS
 10
185.6551663306
 20
94.568879499
 11
185.3801663306
 21
94.615688004
  0
LINE
  5
494
100
AcDbEntity
  8
0
100
AcDbLine
 62
7
  6
CONTINUOUS
 10
191.8426663306
 20
94.568879499
 11
191.5676663306
 21
94.615688004
  0
LINE
  5
495
100
AcDbEntity
  8
0
100
AcDbLine
 62
7
  6
CONTINUOUS
 10
193.7218326476
 20
94.568879499
 11
193.4468326476
 21
94.615688004
  0
LINE
  5
496
100
AcDbEntity
  8
0
100
AcDbLine
 62
7
  6
CONTINUOUS
 10
185.3801663306
 20
92.6497305621
 11
185.1509996858
 21
92.6965390672
  0
LINE
  5
497
100
AcDbEntity
  8
0
100
AcDbLine
 62
7
  6
CONTINUOUS
 10
187.0759997514
 20
92.4624965132
 11
187.3051663306
 21
92.415688004
  0
LINE
  5
498
100
AcDbEntity
  8
0
100
AcDbLine
 62
7
  6
CONTINUOUS
 10
189.0926663306
 20
92.4624965132
 11
189.3218331722
 21
92.415688004
  0
LINE
  5
499
100
AcDbEntity
  8
0
100
AcDbLine
 62
7
  6
CONTINUOUS
 10
187.0301663306
 20
93.2582412262
 11
187.2593329099
 21
93.2114326556
  0
LINE
  5
49A
100
AcDbEntity
  8
0
100
AcDbLine
 62
7
  6
CONTINUOUS
 10
189.0468331722
 20
93.2582412262
 11
189.2759994891
 21
93.2114326556
  0
LINE
  5
49B
100
AcDbEntity
  8
0
100
AcDbLine
 62
7
  6
CONTINUOUS
 10
193.4468326476
 20
92.6497305621
 11
193.2176663306
 21
92.6965390672
  0
LINE
  5
49C
100
AcDbEntity
  8
0
100
AcDbLine
 62
7
  6
CONTINUOUS
 10
185.3801663306
 20
94.3816454787
 11
185.6093329755
 21
94.3348369737
  0
LINE
  5
49D
100
AcDbEntity
  8
0
100
AcDbLine
 62
7
  6
CONTINUOUS
 10
187.7176663306
 20
94.568879499
 11
187.4884997514
 21
94.615688004
  0
LINE
  5
49E
100
AcDbEntity
  8
0
100
AcDbLine
 62
7
  6
CONTINUOUS
 10
189.7343331722
 20
94.568879499
 11
189.5051663306
 21
94.615688004
  0
LINE
  5
49F
100
AcDbEntity
  8
0
100
AcDbLine
 62
7
  6
CONTINUOUS
 10
191.5218331722
 20
94.3816454787
 11
191.7509994891
 21
94.3348369737
  0
LINE
  5
4A0
100
AcDbEntity
  8
0
100
AcDbLine
 62
7
  6
CONTINUOUS
 10
193.4468326476
 20
94.3816454787
 11
193.6760000137
 21
94.3348369737
  0
LINE
  5
4A1
100
AcDbEntity
  8
0
100
AcDbLine
 62
7
  6
CONTINUOUS
 10
187.2593329099
 20
92.6497305621
 11
187.1218329099
 21
92.6965390672
  0
LINE
  5
4A2
100
AcDbEntity
  8
0
100
AcDbLine
 62
7
  6
CONTINUOUS
 10
189.2759994891
 20
92.6497305621
 11
189.1384994891
 21
92.6965390672
  0
LINE
  5
4A3
100
AcDbEntity
  8
0
100
AcDbLine
 62
7
  6
CONTINUOUS
 10
187.2134997514
 20
93.4454752464
 11
187.0759997514
 21
93.4922837515
  0
LINE
  5
4A4
100
AcDbEntity
  8
0
100
AcDbLine
 62
7
  6
CONTINUOUS
 10
189.2301663306
 20
93.4454752464
 11
189.0926663306
 21
93.4922837515
  0
LINE
  5
4A5
100
AcDbEntity
  8
0
100
AcDbLine
 62
7
  6
CONTINUOUS
 10
187.5343329099
 20
94.3816454787
 11
187.6718329099
 21
94.3348369737
  0
LINE
  5
4A6
100
AcDbEntity
  8
0
100
AcDbLine
 62
7
  6
CONTINUOUS
 10
189.5509994891
 20
94.3816454787
 11
189.6884994891
 21
94.3348369737
  0
LWPOLYLINE
  5
4A7
100
AcDbEntity
  8
0
100
AcDbPolyline
 62
7
  6
CONTINUOUS
 90
10
 70
0
 10
196.7478677674
 20
87.3614379254
 10
196.8022315409
 20
87.3426003329
 10
196.8525816463
 20
87.3178575839
 10
196.8962292405
 20
87.2871954393
 10
196.9324387721
 20
87.2501085253
 10
196.9619457926
 20
87.2071022158
 10
196.9842681134
 20
87.1596783925
 10
196.9992450052
 20
87.1083376827
 10
197.0070371973
 20
87.0525794592
 10
197.0076446898
 20
86.9924037219
  0
LWPOLYLINE
  5
4A8
100
AcDbEntity
  8
0
100
AcDbPolyline
 62
7
  6
CONTINUOUS
 90
11
 70
0
 10
203.1360517159
 20
87.3575492659
 10
203.2236013822
 20
87.3255371177
 10
203.3053331127
 20
87.2801736225
 10
203.380183343
 20
87.2217969413
 10
203.4449613796
 20
87.1514215568
 10
203.4986862584
 20
87.0679635779
 10
203.5423389435
 20
86.9725068959
 10
203.575671633
 20
86.869317667
 10
203.5986017263
 20
86.7598179434
 10
203.6112118241
 20
86.642585673
 10
203.6135019263
 20
86.5176208557
  0
LINE
  5
4A9
100
AcDbEntity
  8
DRAFT
100
AcDbLine
 62
7
  6
CONTINUOUS
 10
284.198596314
 20
58.265688004
 11
283.8658659224
 21
58.4053149113
  0
LINE
  5
4AA
100
AcDbEntity
  8
RACCORDO
100
AcDbLine
 62
7
  6
CONTINUOUS
 10
282.7196313499
 20
58.5002703467
 11
282.9450120445
 21
58.4053149113
  0
LINE
  5
4AB
100
AcDbEntity
  8
0
100
AcDbLine
 62
7
  6
CONTINUOUS
 10
192.0259994891
 20
94.4752624889
 11
191.8426663306
 21
94.568879499
  0
LINE
  5
4AC
100
AcDbEntity
  8
0
100
AcDbLine
 62
7
  6
CONTINUOUS
 10
184.8759996531
 20
92.6029220407
 11
185.1051663306
 21
92.4624965132
  0
LINE
  5
4AD
100
AcDbEntity
  8
0
100
AcDbLine
 62
7
  6
CONTINUOUS
 10
186.8468329099
 20
92.6029220407
 11
187.0759997514
 21
92.4624965132
  0
LINE
  5
4AE
100
AcDbEntity
  8
0
100
AcDbLine
 62
7
  6
CONTINUOUS
 10
186.8009997514
 20
93.3986667414
 11
187.0301663306
 21
93.2582412262
  0
LINE
  5
4AF
100
AcDbEntity
  8
0
100
AcDbLine
 62
7
  6
CONTINUOUS
 10
185.884333041
 20
94.4284539838
 11
185.6551663306
 21
94.568879499
  0
LINE
  5
4B0
100
AcDbEntity
  8
0
100
AcDbLine
 62
7
  6
CONTINUOUS
 10
188.8634997514
 20
92.6029220407
 11
189.0926663306
 21
92.4624965132
  0
LINE
  5
4B1
100
AcDbEntity
  8
0
100
AcDbLine
 62
7
  6
CONTINUOUS
 10
188.8176663306
 20
93.3986667414
 11
189.0468331722
 21
93.2582412262
  0
LINE
  5
4B2
100
AcDbEntity
  8
0
100
AcDbLine
 62
7
  6
CONTINUOUS
 10
187.9468329099
 20
94.4284539838
 11
187.7176663306
 21
94.568879499
  0
LINE
  5
4B3
100
AcDbEntity
  8
0
100
AcDbLine
 62
7
  6
CONTINUOUS
 10
192.9426663306
 20
92.6029220407
 11
193.1718331722
 21
92.4624965132
  0
LINE
  5
4B4
100
AcDbEntity
  8
0
100
AcDbLine
 62
7
  6
CONTINUOUS
 10
189.9634994891
 20
94.4284539838
 11
189.7343331722
 21
94.568879499
  0
LINE
  5
4B5
100
AcDbEntity
  8
0
100
AcDbLine
 62
7
  6
CONTINUOUS
 10
193.9510000137
 20
94.4284539838
 11
193.7218326476
 21
94.568879499
  0
LINE
  5
4B6
100
AcDbEntity
  8
0
100
AcDbLine
 62
7
  6
CONTINUOUS
 10
185.1509996858
 20
92.6965390672
 11
185.0134996531
 21
92.7901560773
  0
LINE
  5
4B7
100
AcDbEntity
  8
0
100
AcDbLine
 62
7
  6
CONTINUOUS
 10
187.1218329099
 20
92.6965390672
 11
186.9843329099
 21
92.7901560773
  0
LINE
  5
4B8
100
AcDbEntity
  8
0
100
AcDbLine
 62
7
  6
CONTINUOUS
 10
185.6093329755
 20
94.3348369737
 11
185.746833041
 21
94.2412199636
  0
LINE
  5
4B9
100
AcDbEntity
  8
0
100
AcDbLine
 62
7
  6
CONTINUOUS
 10
187.0759997514
 20
93.4922837515
 11
186.9384997514
 21
93.5859007616
  0
LINE
  5
4BA
100
AcDbEntity
  8
0
100
AcDbLine
 62
7
  6
CONTINUOUS
 10
189.1384994891
 20
92.6965390672
 11
189.0009994891
 21
92.7901560773
  0
LINE
  5
4BB
100
AcDbEntity
  8
0
100
AcDbLine
 62
7
  6
CONTINUOUS
 10
187.6718329099
 20
94.3348369737
 11
187.8093329099
 21
94.2412199636
  0
LINE
  5
4BC
100
AcDbEntity
  8
0
100
AcDbLine
 62
7
  6
CONTINUOUS
 10
189.0926663306
 20
93.4922837515
 11
188.9551663306
 21
93.5859007616
  0
LINE
  5
4BD
100
AcDbEntity
  8
0
100
AcDbLine
 62
7
  6
CONTINUOUS
 10
189.6884994891
 20
94.3348369737
 11
189.8259994891
 21
94.2412199636
  0
LINE
  5
4BE
100
AcDbEntity
  8
0
100
AcDbLine
 62
7
  6
CONTINUOUS
 10
193.2176663306
 20
92.6965390672
 11
193.0801663306
 21
92.7901560773
  0
LINE
  5
4BF
100
AcDbEntity
  8
0
100
AcDbLine
 62
7
  6
CONTINUOUS
 10
191.7509994891
 20
94.3348369737
 11
191.8884994891
 21
94.2412199636
  0
LINE
  5
4C0
100
AcDbEntity
  8
0
100
AcDbLine
 62
7
  6
CONTINUOUS
 10
193.6760000137
 20
94.3348369737
 11
193.8135000137
 21
94.2412199636
  0
LINE
  5
4C1
100
AcDbEntity
  8
0
100
AcDbLine
 62
7
  6
CONTINUOUS
 10
184.7384996694
 20
92.7433475722
 11
184.8759996531
 21
92.6029220407
  0
LINE
  5
4C2
100
AcDbEntity
  8
0
100
AcDbLine
 62
7
  6
CONTINUOUS
 10
186.021833041
 20
94.2880284686
 11
185.884333041
 21
94.4284539838
  0
LINE
  5
4C3
100
AcDbEntity
  8
0
100
AcDbLine
 62
7
  6
CONTINUOUS
 10
186.709333041
 20
92.7901560773
 11
186.8468329099
 21
92.6029220407
  0
LINE
  5
4C4
100
AcDbEntity
  8
0
100
AcDbLine
 62
7
  6
CONTINUOUS
 10
186.6634996203
 20
93.5859007616
 11
186.8009997514
 21
93.3986667414
  0
LINE
  5
4C5
100
AcDbEntity
  8
0
100
AcDbLine
 62
7
  6
CONTINUOUS
 10
188.7259997514
 20
92.7901560773
 11
188.8634997514
 21
92.6029220407
  0
LINE
  5
4C6
100
AcDbEntity
  8
0
100
AcDbLine
 62
7
  6
CONTINUOUS
 10
188.0843329099
 20
94.2412199636
 11
187.9468329099
 21
94.4284539838
  0
LINE
  5
4C7
100
AcDbEntity
  8
0
100
AcDbLine
 62
7
  6
CONTINUOUS
 10
188.6801663306
 20
93.5859007616
 11
188.8176663306
 21
93.3986667414
  0
LINE
  5
4C8
100
AcDbEntity
  8
0
100
AcDbLine
 62
7
  6
CONTINUOUS
 10
185.0134996531
 20
92.7901560773
 11
184.8301663306
 21
93.0710071404
  0
LINE
  5
4C9
100
AcDbEntity
  8
0
100
AcDbLine
 62
7
  6
CONTINUOUS
 10
185.746833041
 20
94.2412199636
 11
185.9301663306
 21
93.9603688021
  0
LINE
  5
4CA
100
AcDbEntity
  8
0
100
AcDbLine
 62
7
  6
CONTINUOUS
 10
186.9843329099
 20
92.7901560773
 11
186.8926663306
 21
92.9305816252
  0
LINE
  5
4CB
100
AcDbEntity
  8
0
100
AcDbLine
 62
7
  6
CONTINUOUS
 10
186.9384997514
 20
93.5859007616
 11
186.8468329099
 21
93.7263262768
  0
LINE
  5
4CC
100
AcDbEntity
  8
0
100
AcDbLine
 62
7
  6
CONTINUOUS
 10
187.8093329099
 20
94.2412199636
 11
187.9009997514
 21
94.1007944484
  0
LINE
  5
4CD
100
AcDbEntity
  8
0
100
AcDbLine
 62
7
  6
CONTINUOUS
 10
189.0009994891
 20
92.7901560773
 11
188.9093329099
 21
92.9305816252
  0
LINE
  5
4CE
100
AcDbEntity
  8
0
100
AcDbLine
 62
7
  6
CONTINUOUS
 10
184.646833
 20
92.9305816252
 11
184.7384996694
 21
92.7433475722
  0
LINE
  5
4CF
100
AcDbEntity
  8
0
100
AcDbLine
 62
7
  6
CONTINUOUS
 10
186.1134996203
 20
94.1007944484
 11
186.021833041
 21
94.2880284686
  0
LINE
  5
4D0
100
AcDbEntity
  8
0
100
AcDbLine
 62
7
  6
CONTINUOUS
 10
180.8634994891
 20
87.2944114585
 11
180.9093331722
 21
87.1539858122
  0
LINE
  5
4D1
100
AcDbEntity
  8
0
100
AcDbLine
 62
7
  6
CONTINUOUS
 10
184.6009996653
 20
93.0710071404
 11
184.646833
 21
92.9305816252
  0
LINE
  5
4D2
100
AcDbEntity
  8
RACCORDO
100
AcDbLine
 62
7
  6
CONTINUOUS
 10
157.2551663306
 20
176.515688004
 11
157.268408914
 21
176.4626974912
  0
LINE
  5
4D3
100
AcDbEntity
  8
0
100
AcDbLine
 62
7
  6
CONTINUOUS
 10
179.7176663306
 20
86.0773901303
 11
179.6718331722
 21
86.2646241505
  0
LINE
  5
4D4
100
AcDbEntity
  8
0
100
AcDbLine
 62
7
  6
CONTINUOUS
 10
179.3968331722
 20
86.2646241505
 11
179.4426663306
 21
86.0305816252
  0
LINE
  5
4D5
100
AcDbEntity
  8
0
100
AcDbLine
 62
7
  6
CONTINUOUS
 10
181.1843331722
 20
87.1539858122
 11
181.1384994891
 21
87.3880284686
  0
LWPOLYLINE
  5
4D6
100
AcDbEntity
  8
0
100
AcDbPolyline
 62
7
  6
CONTINUOUS
 90
13
 70
0
 10
189.4837307551
 20
86.9924037219
 10
189.4777330155
 20
87.0898315122
 10
189.4621350141
 20
87.1798669833
 10
189.4369367508
 20
87.2625101351
 10
189.4018419841
 20
87.3380664181
 10
189.3571469554
 20
87.4062303818
 10
189.3037403898
 20
87.466085675
 10
189.2413645551
 20
87.5175595008
 10
189.1702771833
 20
87.560724656
 10
189.0921401955
 20
87.5948831801
 10
189.0075075653
 20
87.6198024193
 10
188.915825319
 20
87.6357150273
 10
188.8170934567
 20
87.642621004
  0
LWPOLYLINE
  5
4D7
100
AcDbEntity
  8
0
100
AcDbPolyline
 62
7
  6
CONTINUOUS
 90
16
 70
0
 10
184.6551580166
 20
117.515688004
 10
184.6525615538
 20
117.6460252633
 10
184.6405757221
 20
117.7698724174
 10
184.6192005215
 20
117.8872294661
 10
184.5882695319
 20
117.9987019637
 10
184.5479491734
 20
118.1036843561
 10
184.4987387062
 20
118.2003599808
 10
184.4401580152
 20
118.2886257724
 10
184.3726872155
 20
118.3685847964
 10
184.298265913
 20
118.438729587
 10
184.2171803335
 20
118.4989204891
 10
184.1291442511
 20
118.5492971578
 10
184.0352385934
 20
118.5887710936
 10
183.9358236696
 20
118.6169794634
 10
183.8305391705
 20
118.6342851001
 10
183.719385096
 20
118.640688004
  0
LINE
  5
4D8
100
AcDbEntity
  8
0
100
AcDbLine
 62
7
  6
CONTINUOUS
 10
182.7978633306
 20
118.640688004
 11
182.7978633306
 21
116.390688004
  0
LINE
  5
4D9
100
AcDbEntity
  8
ASSI
100
AcDbLine
 62
7
  6
CONTINUOUS
 10
182.8026723306
 20
121.640519004
 11
182.8026893306
 21
128.390823004
  0
LINE
  5
4DA
100
AcDbEntity
  8
0
100
AcDbLine
 62
7
  6
CONTINUOUS
 10
183.1019273306
 20
116.650716004
 11
183.1019273306
 21
118.380660004
  0
LINE
  5
4DB
100
AcDbEntity
  8
ASSI
100
AcDbLine
 62
7
  6
CONTINUOUS
 10
184.1526893306
 20
128.390823004
 11
184.1526893306
 21
121.640519004
  0
LINE
  5
4DC
100
AcDbEntity
  8
0
100
AcDbLine
 62
7
  6
CONTINUOUS
 10
184.5551663306
 20
93.7263262768
 11
184.5551663306
 21
93.3050497313
  0
LINE
  5
4DD
100
AcDbEntity
  8
0
100
AcDbLine
 62
7
  6
CONTINUOUS
 10
184.7843329918
 20
93.3518582363
 11
184.7843329918
 21
93.6795177717
  0
LINE
  5
4DE
100
AcDbEntity
  8
0
100
AcDbLine
 62
7
  6
CONTINUOUS
 10
185.0761593306
 20
118.640688004
 11
185.0761593306
 21
116.390688004
  0
LINE
  5
4DF
100
AcDbEntity
  8
0
100
AcDbLine
 62
7
  6
CONTINUOUS
 10
185.3802043306
 20
116.660178004
 11
185.3802043306
 21
117.412241004
  0
LINE
  5
4E0
100
AcDbEntity
  8
0
100
AcDbLine
 62
7
  6
CONTINUOUS
 10
185.3802043306
 20
117.681731004
 11
185.3802043306
 21
118.371198004
  0
LINE
  5
4E1
100
AcDbEntity
  8
ASSI
100
AcDbLine
 62
7
  6
CONTINUOUS
 10
185.5027403306
 20
121.640519004
 11
185.5027403306
 21
126.091891004
  0
LINE
  5
4E2
100
AcDbEntity
  8
0
100
AcDbLine
 62
7
  6
CONTINUOUS
 10
185.9759996203
 20
93.6795177717
 11
185.9759996203
 21
93.3518582363
  0
LINE
  5
4E3
100
AcDbEntity
  8
0
100
AcDbLine
 62
7
  6
CONTINUOUS
 10
186.2051663306
 20
93.3050497313
 11
186.2051663306
 21
93.7263262768
  0
LINE
  5
4E4
100
AcDbEntity
  8
0
100
AcDbLine
 62
7
  6
CONTINUOUS
 10
186.571833041
 20
94.0071773071
 11
186.571833041
 21
93.8199432869
  0
LINE
  5
4E5
100
AcDbEntity
  8
0
100
AcDbLine
 62
7
  6
CONTINUOUS
 10
186.6117633306
 20
117.412241004
 11
186.6117633306
 21
117.681731004
  0
LINE
  5
4E6
100
AcDbEntity
  8
0
100
AcDbLine
 62
7
  6
CONTINUOUS
 10
186.7151743306
 20
118.371198004
 11
186.7151743306
 21
118.640688004
  0
LINE
  5
4E7
100
AcDbEntity
  8
0
100
AcDbLine
 62
7
  6
CONTINUOUS
 10
186.7371373306
 20
116.390688004
 11
186.7371373306
 21
116.660178004
  0
LINE
  5
4E8
100
AcDbEntity
  8
0
100
AcDbLine
 62
7
  6
CONTINUOUS
 10
186.7551663306
 20
143.215688004
 11
186.7551663306
 21
137.515688004
  0
LINE
  5
4E9
100
AcDbEntity
  8
0
100
AcDbLine
 62
7
  6
CONTINUOUS
 10
186.7551663306
 20
70.115688004
 11
186.7551663306
 21
64.415688004
  0
LINE
  5
4EA
100
AcDbEntity
  8
0
100
AcDbLine
 62
7
  6
CONTINUOUS
 10
186.8009997514
 20
93.866751792
 11
186.8009997514
 21
93.9603688021
  0
LWPOLYLINE
  5
4EB
100
AcDbEntity
  8
0
100
AcDbPolyline
 62
7
  6
CONTINUOUS
 90
13
 70
0
 43
0.3500000006
 10
187.7551737671
 20
202.1228248901
 10
187.7551737671
 20
203.4085499268
 10
187.969458252
 20
203.8371188965
 10
188.3980272217
 20
204.2656878662
 10
188.6123117065
 20
204.2656878662
 10
189.0408806763
 20
203.8371188965
 10
189.2551651611
 20
203.4085499268
 10
189.2551651611
 20
202.1228248901
 10
189.0408806763
 20
201.6942559204
 10
188.6123117065
 20
201.2656869507
 10
188.3980272217
 20
201.2656869507
 10
187.969458252
 20
201.6942559204
 10
187.7551737671
 20
202.1228248901
  0
LINE
  5
4EC
100
AcDbEntity
  8
0
100
AcDbLine
 62
7
  6
CONTINUOUS
 10
187.8049943306
 20
87.642621004
 11
187.8049943306
 21
85.392621004
  0
LINE
  5
4ED
100
AcDbEntity
  8
0
100
AcDbLine
 62
7
  6
CONTINUOUS
 10
187.9468329099
 20
93.9603688021
 11
187.9468329099
 21
93.866751792
  0
LINE
  5
4EE
100
AcDbEntity
  8
0
100
AcDbLine
 62
7
  6
CONTINUOUS
 10
187.9926663306
 20
93.4454752464
 11
187.9926663306
 21
93.3518582363
  0
LINE
  5
4EF
100
AcDbEntity
  8
0
100
AcDbLine
 62
7
  6
CONTINUOUS
 10
188.0533653306
 20
118.640688004
 11
188.0533653306
 21
116.390688004
  0
LWPOLYLINE
  5
4F0
100
AcDbEntity
  8
0
100
AcDbPolyline
 62
7
  6
CONTINUOUS
 90
13
 70
0
 43
0.3500000006
 10
188.0765914307
 20
218.1228297729
 10
188.0765914307
 20
219.4085366821
 10
188.2908759155
 20
219.8371237793
 10
188.7194448853
 20
220.265692749
 10
188.9337293701
 20
220.265692749
 10
189.3623164673
 20
219.8371237793
 10
189.5766009521
 20
219.4085366821
 10
189.5766009521
 20
218.1228297729
 10
189.3623164673
 20
217.6942608032
 10
188.9337293701
 20
217.2656918335
 10
188.7194448853
 20
217.2656918335
 10
188.2908759155
 20
217.6942608032
 10
188.0765914307
 20
218.1228297729
  0
LINE
  5
4F1
100
AcDbEntity
  8
DRAFT
100
AcDbLine
 62
7
  6
CONTINUOUS
 10
188.1051663306
 20
43.2375051735
 11
188.1051663306
 21
41.8593256664
  0
LINE
  5
4F2
100
AcDbEntity
  8
DRAFT
100
AcDbLine
 62
7
  6
CONTINUOUS
 10
188.1051663306
 20
169.7938708346
 11
188.1051663306
 21
171.1720503417
  0
LINE
  5
4F3
100
AcDbEntity
  8
0
100
AcDbLine
 62
7
  6
CONTINUOUS
 10
188.1089613306
 20
85.392621004
 11
188.1089613306
 21
86.342187004
  0
LINE
  5
4F4
100
AcDbEntity
  8
0
100
AcDbLine
 62
7
  6
CONTINUOUS
 10
188.1089613306
 20
86.602273004
 11
188.1089613306
 21
87.382534004
  0
LINE
  5
4F5
100
AcDbEntity
  8
0
100
AcDbLine
 62
7
  6
CONTINUOUS
 10
188.2218329099
 20
93.3518582363
 11
188.2218329099
 21
93.6795177717
  0
LINE
  5
4F6
100
AcDbEntity
  8
DRAFT
100
AcDbLine
 62
7
  6
CONTINUOUS
 10
188.2520871647
 20
179.0029856888
 11
188.2520871647
 21
171.215688004
  0
LINE
  5
4F7
100
AcDbEntity
  8
DRAFT
100
AcDbLine
 62
7
  6
CONTINUOUS
 10
188.2520871647
 20
34.0283903193
 11
188.2520871647
 21
41.815688004
  0
LINE
  5
4F8
100
AcDbEntity
  8
0
100
AcDbLine
 62
7
  6
CONTINUOUS
 10
188.3573193306
 20
116.390688004
 11
188.3573193306
 21
118.640688004
  0
LINE
  5
4F9
100
AcDbEntity
  8
DRAFT
100
AcDbLine
 62
7
  6
CONTINUOUS
 10
188.5051663306
 20
33.015688004
 11
188.5051663306
 21
41.5626088381
  0
LINE
  5
4FA
100
AcDbEntity
  8
DRAFT
100
AcDbLine
 62
7
  6
CONTINUOUS
 10
188.5051663306
 20
171.46876717
 11
188.5051663306
 21
180.015688004
  0
LINE
  5
4FB
100
AcDbEntity
  8
0
100
AcDbLine
 62
7
  6
CONTINUOUS
 10
188.5884997514
 20
94.0071773071
 11
188.5884997514
 21
93.8199432869
  0
LINE
  5
4FC
100
AcDbEntity
  8
DRAFT
100
AcDbLine
 62
7
  6
CONTINUOUS
 10
188.7750393117
 20
43.215688004
 11
188.7750393117
 21
41.815688004
  0
LINE
  5
4FD
100
AcDbEntity
  8
DRAFT
100
AcDbLine
 62
7
  6
CONTINUOUS
 10
188.7750393117
 20
169.815688004
 11
188.7750393117
 21
171.215688004
  0
LINE
  5
4FE
100
AcDbEntity
  8
0
100
AcDbLine
 62
7
  6
CONTINUOUS
 10
188.8176663306
 20
93.866751792
 11
188.8176663306
 21
93.9603688021
  0
LINE
  5
4FF
100
AcDbEntity
  8
0
100
AcDbLine
 62
7
  6
CONTINUOUS
 10
188.8774493306
 20
118.640688004
 11
188.8774493306
 21
116.390688004
  0
LINE
  5
500
100
AcDbEntity
  8
0
100
AcDbLine
 62
7
  6
CONTINUOUS
 10
189.1721413306
 20
116.390688004
 11
189.1721413306
 21
118.217957004
  0
LINE
  5
501
100
AcDbEntity
  8
ASSI
100
AcDbLine
 62
7
  6
CONTINUOUS
 10
189.4055393306
 20
126.091891004
 11
189.4055563306
 21
121.640519004
  0
LINE
  5
502
100
AcDbEntity
  8
DRAFT
100
AcDbLine
 62
7
  6
CONTINUOUS
 10
189.7352933496
 20
43.215688004
 11
189.7352933496
 21
41.815688004
  0
LINE
  5
503
100
AcDbEntity
  8
DRAFT
100
AcDbLine
 62
7
  6
CONTINUOUS
 10
189.7352933496
 20
169.815688004
 11
189.7352933496
 21
171.215688004
  0
LINE
  5
504
100
AcDbEntity
  8
0
100
AcDbLine
 62
7
  6
CONTINUOUS
 10
189.9634994891
 20
93.9603688021
 11
189.9634994891
 21
93.866751792
  0
LINE
  5
505
100
AcDbEntity
  8
DRAFT
100
AcDbLine
 62
7
  6
CONTINUOUS
 10
190.0051663306
 20
180.015688004
 11
190.0051663306
 21
171.46876717
  0
LINE
  5
506
100
AcDbEntity
  8
DRAFT
100
AcDbLine
 62
7
  6
CONTINUOUS
 10
190.0051663306
 20
41.5626088381
 11
190.0051663306
 21
33.015688004
  0
LWPOLYLINE
  5
507
100
AcDbEntity
  8
0
100
AcDbPolyline
 62
7
  6
CONTINUOUS
 90
13
 70
0
 43
0.3500000006
 10
190.0051699219
 20
210.1228273315
 10
190.0051699219
 20
211.4085523682
 10
190.2194544067
 20
211.8371213379
 10
190.6480233765
 20
212.2656903076
 10
190.8623078613
 20
212.2656903076
 10
191.2908768311
 20
211.8371213379
 10
191.5051613159
 20
211.4085523682
 10
191.5051613159
 20
210.1228273315
 10
191.2908768311
 20
209.6942583618
 10
190.8623078613
 20
209.2656893921
 10
190.6480233765
 20
209.2656893921
 10
190.2194544067
 20
209.6942583618
 10
190.0051699219
 20
210.1228273315
  0
LINE
  5
508
100
AcDbEntity
  8
0
100
AcDbLine
 62
7
  6
CONTINUOUS
 10
190.0093331722
 20
93.4454752464
 11
190.0093331722
 21
93.3518582363
  0
LWPOLYLINE
  5
509
100
AcDbEntity
  8
0
100
AcDbPolyline
 62
7
  6
CONTINUOUS
 90
13
 70
0
 43
0.3500000006
 10
190.1123031006
 20
202.1228248901
 10
190.1123031006
 20
203.4085499268
 10
190.3265875854
 20
203.8371188965
 10
190.7551746826
 20
204.2656878662
 10
190.9694591675
 20
204.2656878662
 10
191.3980281372
 20
203.8371188965
 10
191.6123126221
 20
203.4085499268
 10
191.6123126221
 20
202.1228248901
 10
191.3980281372
 20
201.6942559204
 10
190.9694591675
 20
201.2656869507
 10
190.7551746826
 20
201.2656869507
 10
190.3265875854
 20
201.6942559204
 10
190.1123031006
 20
202.1228248901
  0
LINE
  5
50A
100
AcDbEntity
  8
0
100
AcDbLine
 62
7
  6
CONTINUOUS
 10
190.2384994891
 20
93.3518582363
 11
190.2384994891
 21
93.6795177717
  0
LINE
  5
50B
100
AcDbEntity
  8
DRAFT
100
AcDbLine
 62
7
  6
CONTINUOUS
 10
190.2582454966
 20
179.0029856888
 11
190.2582454966
 21
171.215688004
  0
LINE
  5
50C
100
AcDbEntity
  8
DRAFT
100
AcDbLine
 62
7
  6
CONTINUOUS
 10
190.2582454966
 20
34.0283903193
 11
190.2582454966
 21
41.815688004
  0
LINE
  5
50D
100
AcDbEntity
  8
0
100
AcDbLine
 62
7
  6
CONTINUOUS
 10
190.3692723306
 20
118.640688004
 11
190.3692723306
 21
116.813049004
  0
LWPOLYLINE
  5
50E
100
AcDbEntity
  8
0
100
AcDbPolyline
 62
7
  6
CONTINUOUS
 90
12
 70
0
 10
189.1705740226
 20
86.9924037219
 10
189.1699665301
 20
86.9322279846
 10
189.162174338
 20
86.8764697611
 10
189.1471974462
 20
86.8251290513
 10
189.1248751254
 20
86.777705228
 10
189.0953681049
 20
86.7346989184
 10
189.0591585733
 20
86.6976120045
 10
189.0155111202
 20
86.666949876
 10
188.965161156
 20
86.6422071432
 10
188.9107971002
 20
86.6233695183
 10
188.8533150927
 20
86.6104322389
 10
188.7918189936
 20
86.6034000675
  0
LWPOLYLINE
  5
50F
100
AcDbEntity
  8
0
100
AcDbPolyline
 62
7
  6
CONTINUOUS
 90
13
 70
0
 10
184.3423936558
 20
117.515688004
 10
184.3397137096
 20
117.3964164995
 10
184.3278239334
 20
117.2838966148
 10
184.306724327
 20
117.1781283499
 10
184.2766396457
 20
117.0777922021
 10
184.2373451342
 20
116.984207674
 10
184.188166527
 20
116.9013332745
 10
184.1282160492
 20
116.8299774168
 10
184.0583814757
 20
116.7693316877
 10
183.9806518654
 20
116.720929355
 10
183.895690238
 20
116.6852815082
 10
183.8028335738
 20
116.6618770579
 10
183.7020818728
 20
116.650716004
  0
LINE
  5
510
100
AcDbEntity
  8
0
100
AcDbLine
 62
7
  6
CONTINUOUS
 10
188.1759997514
 20
93.0241986354
 11
188.2218329099
 21
93.3518582363
  0
LINE
  5
511
100
AcDbEntity
  8
0
100
AcDbLine
 62
7
  6
CONTINUOUS
 10
184.7843329918
 20
93.6795177717
 11
184.8301663306
 21
93.9603688021
  0
LINE
  5
512
100
AcDbEntity
  8
0
100
AcDbLine
 62
7
  6
CONTINUOUS
 10
185.9759996203
 20
93.3518582363
 11
185.9301663306
 21
93.0710071404
  0
LINE
  5
513
100
AcDbEntity
  8
0
100
AcDbLine
 62
7
  6
CONTINUOUS
 10
187.9926663306
 20
93.3518582363
 11
187.9468329099
 21
93.0710071404
  0
LINE
  5
514
100
AcDbEntity
  8
0
100
AcDbLine
 62
7
  6
CONTINUOUS
 10
179.4426663306
 20
87.2007944484
 11
179.3968331722
 21
86.966751792
  0
LINE
  5
515
100
AcDbEntity
  8
0
100
AcDbLine
 62
7
  6
CONTINUOUS
 10
181.1384994891
 20
85.8433475722
 11
181.1843331722
 21
86.0773901303
  0
LINE
  5
516
100
AcDbEntity
  8
0
100
AcDbLine
 62
7
  6
CONTINUOUS
 10
184.6009996653
 20
93.9603688021
 11
184.5551663306
 21
93.7263262768
  0
LINE
  5
517
100
AcDbEntity
  8
0
100
AcDbLine
 62
7
  6
CONTINUOUS
 10
186.159333041
 20
93.0710071404
 11
186.2051663306
 21
93.3050497313
  0
LINE
  5
518
100
AcDbEntity
  8
0
100
AcDbLine
 62
7
  6
CONTINUOUS
 10
179.6718331722
 20
86.966751792
 11
179.7176663306
 21
87.1539858122
  0
LINE
  5
519
100
AcDbEntity
  8
ASSI
100
AcDbLine
 62
7
  6
CONTINUOUS
 10
188.7146933306
 20
128.390823004
 11
187.4541483306
 21
123.994784004
  0
LINE
  5
51A
100
AcDbEntity
  8
ASSI
100
AcDbLine
 62
7
  6
CONTINUOUS
 10
188.1291483306
 20
121.640536004
 11
189.4055393306
 21
126.091891004
  0
LINE
  5
51B
100
AcDbEntity
  8
ASSI
100
AcDbLine
 62
7
  6
CONTINUOUS
 10
193.8229083306
 20
128.390840004
 11
191.6556353306
 21
121.640519004
  0
LINE
  5
51C
100
AcDbEntity
  8
ASSI
100
AcDbLine
 62
7
  6
CONTINUOUS
 10
193.0056853306
 20
121.640536004
 11
193.4318973306
 21
122.968025004
  0
LINE
  5
51D
100
AcDbEntity
  8
ASSI
100
AcDbLine
 62
7
  6
CONTINUOUS
 10
193.8436983306
 20
124.250575004
 11
194.4979593306
 21
126.288468004
  0
LINE
  5
51E
100
AcDbEntity
  8
0
100
AcDbLine
 62
7
  6
CONTINUOUS
 10
176.6009997514
 20
86.1710071404
 11
176.5551663306
 21
86.0305816252
  0
LINE
  5
51F
100
AcDbEntity
  8
0
100
AcDbLine
 62
7
  6
CONTINUOUS
 10
180.9093331722
 20
86.0773901303
 11
180.8634994891
 21
85.9369646151
  0
LINE
  5
520
100
AcDbEntity
  8
0
100
AcDbLine
 62
7
  6
CONTINUOUS
 10
184.646833
 20
94.1007944484
 11
184.6009996653
 21
93.9603688021
  0
LINE
  5
521
100
AcDbEntity
  8
0
100
AcDbLine
 62
7
  6
CONTINUOUS
 10
176.7384997514
 20
85.8901560773
 11
176.8301663306
 21
86.1241986354
  0
LINE
  5
522
100
AcDbEntity
  8
0
100
AcDbLine
 62
7
  6
CONTINUOUS
 10
179.5343331722
 20
87.3880284686
 11
179.4426663306
 21
87.2007944484
  0
LINE
  5
523
100
AcDbEntity
  8
0
100
AcDbLine
 62
7
  6
CONTINUOUS
 10
176.5551663306
 20
86.0305816252
 11
176.4634997514
 21
85.8901560773
  0
LINE
  5
524
100
AcDbEntity
  8
0
100
AcDbLine
 62
7
  6
CONTINUOUS
 10
174.5384996203
 20
87.715688004
 11
174.2634996858
 21
87.3880284686
  0
LINE
  5
525
100
AcDbEntity
  8
0
100
AcDbLine
 62
7
  6
CONTINUOUS
 10
174.2634996858
 20
87.013560297
 11
174.5384996203
 21
87.3412199636
  0
LINE
  5
526
100
AcDbEntity
  8
DRAFT
100
AcDbLine
 62
7
  6
CONTINUOUS
 10
89.7678686459
 20
76.26876717
 11
88.7551663306
 21
76.015688004
  0
LINE
  5
527
100
AcDbEntity
  8
DRAFT
100
AcDbLine
 62
7
  6
CONTINUOUS
 10
102.9769835001
 20
101.115688004
 11
101.298803993
 21
101.115688004
  0
LINE
  5
528
100
AcDbEntity
  8
DRAFT
100
AcDbLine
 62
7
  6
CONTINUOUS
 10
275.5333491612
 20
101.115688004
 11
277.2115286683
 21
101.115688004
  0
LINE
  5
529
100
AcDbEntity
  8
DRAFT
100
AcDbLine
 62
7
  6
CONTINUOUS
 10
102.9551663306
 20
101.7855609851
 11
101.2551663306
 21
101.7855609851
  0
LINE
  5
52A
100
AcDbEntity
  8
DRAFT
100
AcDbLine
 62
7
  6
CONTINUOUS
 10
275.5551663306
 20
101.7855609851
 11
277.2551663306
 21
101.7855609851
  0
LINE
  5
52B
100
AcDbEntity
  8
DRAFT
100
AcDbLine
 62
7
  6
CONTINUOUS
 10
102.9551663306
 20
102.5797035941
 11
101.2551663306
 21
102.5797035941
  0
LINE
  5
52C
100
AcDbEntity
  8
DRAFT
100
AcDbLine
 62
7
  6
CONTINUOUS
 10
275.5551663306
 20
102.5797035941
 11
277.2551663306
 21
102.5797035941
  0
LINE
  5
52D
100
AcDbEntity
  8
DRAFT
100
AcDbLine
 62
7
  6
CONTINUOUS
 10
103.2911507406
 20
102.915688004
 11
101.9271863304
 21
102.915688004
  0
LINE
  5
52E
100
AcDbEntity
  8
DRAFT
100
AcDbLine
 62
7
  6
CONTINUOUS
 10
275.2191819207
 20
102.915688004
 11
276.5831463309
 21
102.915688004
  0
LINE
  5
52F
100
AcDbEntity
  8
DRAFT
100
AcDbLine
 62
7
  6
CONTINUOUS
 10
101.2551663306
 20
103.652597915
 11
103.3129679101
 21
103.652597915
  0
LINE
  5
530
100
AcDbEntity
  8
DRAFT
100
AcDbLine
 62
7
  6
CONTINUOUS
 10
275.1973647512
 20
103.652597915
 11
277.2551663306
 21
103.652597915
  0
LINE
  5
531
100
AcDbEntity
  8
DRAFT
100
AcDbLine
 62
7
  6
CONTINUOUS
 10
275.2191819207
 20
103.665688004
 11
271.1661027548
 21
103.665688004
  0
LINE
  5
532
100
AcDbEntity
  8
DRAFT
100
AcDbLine
 62
7
  6
CONTINUOUS
 10
107.3442299065
 20
103.665688004
 11
103.2911507406
 21
103.665688004
  0
LINE
  5
533
100
AcDbEntity
  8
DRAFT
100
AcDbLine
 62
7
  6
CONTINUOUS
 10
277.5082454966
 20
103.8672753749
 11
277.2551663306
 21
103.8672753749
  0
LINE
  5
534
100
AcDbEntity
  8
DRAFT
100
AcDbLine
 62
7
  6
CONTINUOUS
 10
101.0020871647
 20
103.8672753749
 11
101.2551663306
 21
103.8672753749
  0
LINE
  5
535
100
AcDbEntity
  8
RACCORDO
100
AcDbLine
 62
7
  6
CONTINUOUS
 10
277.2551663306
 20
104.0191204074
 11
272.7464775412
 21
104.0191204074
  0
LINE
  5
536
100
AcDbEntity
  8
RACCORDO
100
AcDbLine
 62
7
  6
CONTINUOUS
 10
105.7638551201
 20
104.0191204074
 11
101.2551663306
 21
104.0191204074
  0
LINE
  5
537
100
AcDbEntity
  8
RACCORDO
100
AcDbLine
 62
7
  6
CONTINUOUS
 10
103.2551663306
 20
105.1622556006
 11
105.7638551201
 21
105.1622556006
  0
LINE
  5
538
100
AcDbEntity
  8
RACCORDO
100
AcDbLine
 62
7
  6
CONTINUOUS
 10
272.7464775412
 20
105.1622556006
 11
275.2551663306
 21
105.1622556006
  0
LINE
  5
539
100
AcDbEntity
  8
DRAFT
100
AcDbLine
 62
7
  6
CONTINUOUS
 10
288.7424640154
 20
105.5126088381
 11
277.5082454966
 21
105.5126088381
  0
LINE
  5
53A
100
AcDbEntity
  8
DRAFT
100
AcDbLine
 62
7
  6
CONTINUOUS
 10
89.7678686459
 20
105.5126088381
 11
101.0020871647
 21
105.5126088381
  0
LINE
  5
53B
100
AcDbEntity
  8
DRAFT
100
AcDbLine
 62
7
  6
CONTINUOUS
 10
103.8442299065
 20
105.515688004
 11
107.3442299065
 21
105.515688004
  0
LINE
  5
53C
100
AcDbEntity
  8
DRAFT
100
AcDbLine
 62
7
  6
CONTINUOUS
 10
271.1661027548
 20
105.515688004
 11
274.6661027548
 21
105.515688004
  0
LINE
  5
53D
100
AcDbEntity
  8
DRAFT
100
AcDbLine
 62
7
  6
CONTINUOUS
 10
88.7551663306
 20
105.765688004
 11
94.7551663306
 21
105.765688004
  0
LINE
  5
53E
100
AcDbEntity
  8
DRAFT
100
AcDbLine
 62
7
  6
CONTINUOUS
 10
283.7551663306
 20
105.765688004
 11
289.7551663306
 21
105.765688004
  0
LINE
  5
53F
100
AcDbEntity
  8
RACCORDO
100
AcDbLine
 62
7
  6
CONTINUOUS
 10
95.307852257
 20
105.7831417396
 11
100.4127737718
 21
105.7831417396
  0
LINE
  5
540
100
AcDbEntity
  8
RACCORDO
100
AcDbLine
 62
7
  6
CONTINUOUS
 10
278.0975588895
 20
105.7831417396
 11
283.2024804043
 21
105.7831417396
  0
LWPOLYLINE
  5
541
100
AcDbEntity
  8
0
100
AcDbPolyline
 62
7
  6
CONTINUOUS
 90
13
 70
0
 43
0.3500000006
 10
300.6480206909
 20
106.5156897583
 10
299.3623137817
 20
106.5156897583
 10
298.933744812
 20
106.7299742432
 10
298.5051577148
 20
107.1585432129
 10
298.5051577148
 20
107.3728276978
 10
298.933744812
 20
107.8014057312
 10
299.3623137817
 20
108.0156902161
 10
300.6480206909
 20
108.0156902161
 10
301.0765896606
 20
107.8014057312
 10
301.5051586304
 20
107.3728276978
 10
301.5051586304
 20
107.1585432129
 10
301.0765896606
 20
106.7299742432
 10
300.6480206909
 20
106.5156897583
  0
LINE
  5
542
100
AcDbEntity
  8
RACCORDO
100
AcDbLine
 62
7
  6
CONTINUOUS
 10
283.2024804043
 20
107.2482342685
 11
278.0975588895
 21
107.2482342685
  0
LINE
  5
543
100
AcDbEntity
  8
RACCORDO
100
AcDbLine
 62
7
  6
CONTINUOUS
 10
100.4127737718
 20
107.2482342685
 11
95.307852257
 21
107.2482342685
  0
LINE
  5
544
100
AcDbEntity
  8
DRAFT
100
AcDbLine
 62
7
  6
CONTINUOUS
 10
289.7551663306
 20
107.265688004
 11
283.7551663306
 21
107.265688004
  0
LINE
  5
545
100
AcDbEntity
  8
DRAFT
100
AcDbLine
 62
7
  6
CONTINUOUS
 10
94.7551663306
 20
107.265688004
 11
88.7551663306
 21
107.265688004
  0
LWPOLYLINE
  5
546
100
AcDbEntity
  8
0
100
AcDbPolyline
 62
7
  6
CONTINUOUS
 90
13
 70
0
 43
0.3500000006
 10
316.6480074463
 20
107.3728276978
 10
315.3623005371
 20
107.3728276978
 10
314.9337315674
 20
107.5871121826
 10
314.5051625977
 20
108.0156902161
 10
314.5051625977
 20
108.2299747009
 10
314.9337315674
 20
108.6585436707
 10
315.3623005371
 20
108.8728281555
 10
316.6480074463
 20
108.8728281555
 10
317.0766126709
 20
108.6585436707
 10
317.5051816406
 20
108.2299747009
 10
317.5051816406
 20
108.0156902161
 10
317.0766126709
 20
107.5871121826
 10
316.6480074463
 20
107.3728276978
  0
LINE
  5
547
100
AcDbEntity
  8
DRAFT
100
AcDbLine
 62
7
  6
CONTINUOUS
 10
274.6661027548
 20
107.515688004
 11
271.1661027548
 21
107.515688004
  0
LINE
  5
548
100
AcDbEntity
  8
DRAFT
100
AcDbLine
 62
7
  6
CONTINUOUS
 10
107.3442299065
 20
107.515688004
 11
103.8442299065
 21
107.515688004
  0
LINE
  5
549
100
AcDbEntity
  8
DRAFT
100
AcDbLine
 62
7
  6
CONTINUOUS
 10
288.7424640154
 20
107.51876717
 11
277.5082454966
 21
107.51876717
  0
LINE
  5
54A
100
AcDbEntity
  8
DRAFT
100
AcDbLine
 62
7
  6
CONTINUOUS
 10
89.7678686459
 20
107.51876717
 11
101.0020871647
 21
107.51876717
  0
LINE
  5
54B
100
AcDbEntity
  8
DRAFT
100
AcDbLine
 62
7
  6
CONTINUOUS
 10
288.7424640154
 20
76.26876717
 11
289.7551663306
 21
76.015688004
  0
LINE
  5
54C
100
AcDbEntity
  8
ASSI
100
AcDbLine
 62
7
  6
CONTINUOUS
 10
200.9156303306
 20
94.351855004
 11
202.0359913306
 21
93.407719004
  0
LINE
  5
54D
100
AcDbEntity
  8
ASSI
100
AcDbLine
 62
7
  6
CONTINUOUS
 10
202.0359913306
 20
93.924075004
 11
200.8639173306
 21
94.911788004
  0
LINE
  5
54E
100
AcDbEntity
  8
0
100
AcDbLine
 62
7
  6
CONTINUOUS
 10
192.8051663306
 20
92.7433475722
 11
192.9426663306
 21
92.6029220407
  0
LINE
  5
54F
100
AcDbEntity
  8
0
100
AcDbLine
 62
7
  6
CONTINUOUS
 10
192.2093331722
 20
94.2880284686
 11
192.0259994891
 21
94.4752624889
  0
LINE
  5
550
100
AcDbEntity
  8
0
100
AcDbLine
 62
7
  6
CONTINUOUS
 10
194.0885000137
 20
94.2880284686
 11
193.9510000137
 21
94.4284539838
  0
LINE
  5
551
100
AcDbEntity
  8
0
100
AcDbLine
 62
7
  6
CONTINUOUS
 10
190.1009994891
 20
94.2412199636
 11
189.9634994891
 21
94.4284539838
  0
LINE
  5
552
100
AcDbEntity
  8
0
100
AcDbLine
 62
7
  6
CONTINUOUS
 10
188.9551663306
 20
93.5859007616
 11
188.8634997514
 21
93.7263262768
  0
LINE
  5
553
100
AcDbEntity
  8
0
100
AcDbLine
 62
7
  6
CONTINUOUS
 10
189.8259994891
 20
94.2412199636
 11
189.9176663306
 21
94.1007944484
  0
LINE
  5
554
100
AcDbEntity
  8
0
100
AcDbLine
 62
7
  6
CONTINUOUS
 10
191.8884994891
 20
94.2412199636
 11
191.9801663306
 21
94.1007944484
  0
LINE
  5
555
100
AcDbEntity
  8
0
100
AcDbLine
 62
7
  6
CONTINUOUS
 10
193.0801663306
 20
92.7901560773
 11
192.8968331722
 21
93.0710071404
  0
LINE
  5
556
100
AcDbEntity
  8
0
100
AcDbLine
 62
7
  6
CONTINUOUS
 10
193.8135000137
 20
94.2412199636
 11
193.9968326476
 21
93.9603688021
  0
LINE
  5
557
100
AcDbEntity
  8
0
100
AcDbLine
 62
7
  6
CONTINUOUS
 10
200.0855703306
 20
87.220088004
 11
201.2357083306
 21
85.392621004
  0
LINE
  5
558
100
AcDbEntity
  8
0
100
AcDbLine
 62
7
  6
CONTINUOUS
 10
201.2826093306
 20
85.814986004
 11
200.1514803306
 21
87.642621004
  0
LINE
  5
559
100
AcDbEntity
  8
0
100
AcDbLine
 62
7
  6
CONTINUOUS
 10
192.7134994891
 20
92.9305816252
 11
192.8051663306
 21
92.7433475722
  0
LINE
  5
55A
100
AcDbEntity
  8
0
100
AcDbLine
 62
7
  6
CONTINUOUS
 10
194.1801663306
 20
94.1007944484
 11
194.0885000137
 21
94.2880284686
  0
LINE
  5
55B
100
AcDbEntity
  8
0
100
AcDbLine
 62
7
  6
CONTINUOUS
 10
186.571833041
 20
93.8199432869
 11
186.6634996203
 21
93.5859007616
  0
LINE
  5
55C
100
AcDbEntity
  8
0
100
AcDbLine
 62
7
  6
CONTINUOUS
 10
188.1759997514
 20
94.0071773071
 11
188.0843329099
 21
94.2412199636
  0
LINE
  5
55D
100
AcDbEntity
  8
0
100
AcDbLine
 62
7
  6
CONTINUOUS
 10
188.5884997514
 20
93.8199432869
 11
188.6801663306
 21
93.5859007616
  0
LINE
  5
55E
100
AcDbEntity
  8
0
100
AcDbLine
 62
7
  6
CONTINUOUS
 10
190.1926663306
 20
94.0071773071
 11
190.1009994891
 21
94.2412199636
  0
LINE
  5
55F
100
AcDbEntity
  8
0
100
AcDbLine
 62
7
  6
CONTINUOUS
 10
191.6750293306
 20
85.392621004
 11
190.8603043306
 21
87.642621004
  0
LINE
  5
560
100
AcDbEntity
  8
0
100
AcDbLine
 62
7
  6
CONTINUOUS
 10
182.5033163306
 20
116.390688004
 11
181.6885853306
 21
118.640688004
  0
LINE
  5
561
100
AcDbEntity
  8
0
100
AcDbLine
 62
7
  6
CONTINUOUS
 10
191.1203903306
 20
86.047635004
 11
191.3429923306
 21
85.392621004
  0
LINE
  5
562
100
AcDbEntity
  8
0
100
AcDbLine
 62
7
  6
CONTINUOUS
 10
181.9486313306
 20
117.045581004
 11
182.1711023306
 21
116.390688004
  0
LINE
  5
563
100
AcDbEntity
  8
0
100
AcDbLine
 62
7
  6
CONTINUOUS
 10
179.1532943306
 20
116.729272004
 11
178.5077643306
 21
118.640688004
  0
LINE
  5
564
100
AcDbEntity
  8
0
100
AcDbLine
 62
7
  6
CONTINUOUS
 10
178.3667153306
 20
118.277303004
 11
178.9997783306
 21
116.390688004
  0
LINE
  5
565
100
AcDbEntity
  8
0
100
AcDbLine
 62
7
  6
CONTINUOUS
 10
190.6754023306
 20
87.316277004
 11
191.0106003306
 21
86.317137004
  0
LINE
  5
566
100
AcDbEntity
  8
0
100
AcDbLine
 62
7
  6
CONTINUOUS
 10
181.5038183306
 20
118.314329004
 11
181.8390343306
 21
117.315071004
  0
LINE
  5
567
100
AcDbEntity
  8
0
100
AcDbLine
 62
7
  6
CONTINUOUS
 10
186.159333041
 20
93.9603688021
 11
186.1134996203
 21
94.1007944484
  0
LINE
  5
568
100
AcDbEntity
  8
0
100
AcDbLine
 62
7
  6
CONTINUOUS
 10
186.6634996203
 20
92.9305816252
 11
186.709333041
 21
92.7901560773
  0
LINE
  5
569
100
AcDbEntity
  8
0
100
AcDbLine
 62
7
  6
CONTINUOUS
 10
186.8468329099
 20
93.7263262768
 11
186.8009997514
 21
93.866751792
  0
LINE
  5
56A
100
AcDbEntity
  8
0
100
AcDbLine
 62
7
  6
CONTINUOUS
 10
187.9009997514
 20
94.1007944484
 11
187.9468329099
 21
93.9603688021
  0
LINE
  5
56B
100
AcDbEntity
  8
0
100
AcDbLine
 62
7
  6
CONTINUOUS
 10
188.6801663306
 20
92.9305816252
 11
188.7259997514
 21
92.7901560773
  0
LINE
  5
56C
100
AcDbEntity
  8
0
100
AcDbLine
 62
7
  6
CONTINUOUS
 10
188.8634997514
 20
93.7263262768
 11
188.8176663306
 21
93.866751792
  0
LINE
  5
56D
100
AcDbEntity
  8
0
100
AcDbLine
 62
7
  6
CONTINUOUS
 10
189.9176663306
 20
94.1007944484
 11
189.9634994891
 21
93.9603688021
  0
LINE
  5
56E
100
AcDbEntity
  8
0
100
AcDbLine
 62
7
  6
CONTINUOUS
 10
192.6676663306
 20
93.0710071404
 11
192.7134994891
 21
92.9305816252
  0
LINE
  5
56F
100
AcDbEntity
  8
0
100
AcDbLine
 62
7
  6
CONTINUOUS
 10
194.2260000137
 20
93.9603688021
 11
194.1801663306
 21
94.1007944484
  0
LINE
  5
570
100
AcDbEntity
  8
ASSI
100
AcDbLine
 62
7
  6
CONTINUOUS
 10
174.8679123306
 20
128.390823004
 11
177.0352023306
 21
121.640502004
  0
LINE
  5
571
100
AcDbEntity
  8
ASSI
100
AcDbLine
 62
7
  6
CONTINUOUS
 10
177.7102703306
 20
123.742874004
 11
176.2179803306
 21
128.390823004
  0
LINE
  5
572
100
AcDbEntity
  8
0
100
AcDbLine
 62
7
  6
CONTINUOUS
 10
192.2551663306
 20
94.1007944484
 11
192.2093331722
 21
94.2880284686
  0
LINE
  5
573
100
AcDbEntity
  8
0
100
AcDbLine
 62
7
  6
CONTINUOUS
 10
184.5551663306
 20
93.3050497313
 11
184.6009996653
 21
93.0710071404
  0
LINE
  5
574
100
AcDbEntity
  8
0
100
AcDbLine
 62
7
  6
CONTINUOUS
 10
186.2051663306
 20
93.7263262768
 11
186.159333041
 21
93.9603688021
  0
LINE
  5
575
100
AcDbEntity
  8
0
100
AcDbLine
 62
7
  6
CONTINUOUS
 10
192.6218331722
 20
93.3050497313
 11
192.6676663306
 21
93.0710071404
  0
LINE
  5
576
100
AcDbEntity
  8
0
100
AcDbLine
 62
7
  6
CONTINUOUS
 10
184.8301663306
 20
93.0710071404
 11
184.7843329918
 21
93.3518582363
  0
LINE
  5
577
100
AcDbEntity
  8
0
100
AcDbLine
 62
7
  6
CONTINUOUS
 10
185.9301663306
 20
93.9603688021
 11
185.9759996203
 21
93.6795177717
  0
LINE
  5
578
100
AcDbEntity
  8
0
100
AcDbLine
 62
7
  6
CONTINUOUS
 10
188.2218329099
 20
93.6795177717
 11
188.1759997514
 21
94.0071773071
  0
LINE
  5
579
100
AcDbEntity
  8
0
100
AcDbLine
 62
7
  6
CONTINUOUS
 10
190.2384994891
 20
93.6795177717
 11
190.1926663306
 21
94.0071773071
  0
LWPOLYLINE
  5
57A
100
AcDbEntity
  8
0
100
AcDbPolyline
 62
7
  6
CONTINUOUS
 90
13
 70
0
 10
197.3208014223
 20
86.9924037219
 10
197.3148036827
 20
87.0898315122
 10
197.2992056813
 20
87.1798669833
 10
197.274007418
 20
87.2625101351
 10
197.2389126513
 20
87.3380664181
 10
197.1942176226
 20
87.4062303818
 10
197.140811057
 20
87.466085675
 10
197.0784352223
 20
87.5175595008
 10
197.0073478505
 20
87.560724656
 10
196.9292108627
 20
87.5948831801
 10
196.8445782325
 20
87.6198024193
 10
196.7528959862
 20
87.6357150273
 10
196.6541641239
 20
87.642621004
  0
LINE
  5
57B
100
AcDbEntity
  8
DRAFT
100
AcDbLine
 62
7
  6
CONTINUOUS
 10
190.4051663306
 20
43.2375051735
 11
190.4051663306
 21
41.8593256664
  0
LINE
  5
57C
100
AcDbEntity
  8
DRAFT
100
AcDbLine
 62
7
  6
CONTINUOUS
 10
190.4051663306
 20
169.7938708346
 11
190.4051663306
 21
171.1720503417
  0
LINE
  5
57D
100
AcDbEntity
  8
0
100
AcDbLine
 62
7
  6
CONTINUOUS
 10
190.6051663306
 20
92.6497305621
 11
190.6051663306
 21
92.415688004
  0
LINE
  5
57E
100
AcDbEntity
  8
0
100
AcDbLine
 62
7
  6
CONTINUOUS
 10
190.6638193306
 20
116.390688004
 11
190.6638193306
 21
118.640688004
  0
LINE
  5
57F
100
AcDbEntity
  8
ASSI
100
AcDbLine
 62
7
  6
CONTINUOUS
 10
190.7556073306
 20
121.640519004
 11
190.7556073306
 21
128.390823004
  0
LINE
  5
580
100
AcDbEntity
  8
0
100
AcDbLine
 62
7
  6
CONTINUOUS
 10
191.7551663306
 20
64.415688004
 11
191.7551663306
 21
70.115688004
  0
LINE
  5
581
100
AcDbEntity
  8
0
100
AcDbLine
 62
7
  6
CONTINUOUS
 10
191.7551663306
 20
137.515688004
 11
191.7551663306
 21
143.215688004
  0
LINE
  5
582
100
AcDbEntity
  8
0
100
AcDbLine
 62
7
  6
CONTINUOUS
 10
191.7595933306
 20
87.642621004
 11
191.7595933306
 21
87.373118004
  0
LINE
  5
583
100
AcDbEntity
  8
0
100
AcDbLine
 62
7
  6
CONTINUOUS
 10
191.9801663306
 20
94.1007944484
 11
191.9801663306
 21
94.0071773071
  0
LINE
  5
584
100
AcDbEntity
  8
0
100
AcDbLine
 62
7
  6
CONTINUOUS
 10
192.0582923306
 20
118.640688004
 11
192.0582923306
 21
116.390688004
  0
LINE
  5
585
100
AcDbEntity
  8
0
100
AcDbLine
 62
7
  6
CONTINUOUS
 10
192.2551663306
 20
92.415688004
 11
192.2551663306
 21
92.6497305621
  0
LINE
  5
586
100
AcDbEntity
  8
0
100
AcDbLine
 62
7
  6
CONTINUOUS
 10
192.2551663306
 20
94.0071773071
 11
192.2551663306
 21
94.1007944484
  0
LINE
  5
587
100
AcDbEntity
  8
0
100
AcDbLine
 62
7
  6
CONTINUOUS
 10
192.3623373306
 20
116.390688004
 11
192.3623373306
 21
118.640688004
  0
LINE
  5
588
100
AcDbEntity
  8
0
100
AcDbLine
 62
7
  6
CONTINUOUS
 10
192.5210223306
 20
87.373118004
 11
192.5210223306
 21
85.392621004
  0
LINE
  5
589
100
AcDbEntity
  8
0
100
AcDbLine
 62
7
  6
CONTINUOUS
 10
192.6218331722
 20
93.7263262768
 11
192.6218331722
 21
93.3050497313
  0
LINE
  5
58A
100
AcDbEntity
  8
0
100
AcDbLine
 62
7
  6
CONTINUOUS
 10
192.6882553306
 20
118.640688004
 11
192.6882553306
 21
118.371198004
  0
LINE
  5
58B
100
AcDbEntity
  8
0
100
AcDbLine
 62
7
  6
CONTINUOUS
 10
192.8249903306
 20
85.392621004
 11
192.8249903306
 21
87.373118004
  0
LINE
  5
58C
100
AcDbEntity
  8
0
100
AcDbLine
 62
7
  6
CONTINUOUS
 10
192.8509994891
 20
93.3518582363
 11
192.8509994891
 21
93.6795177717
  0
LINE
  5
58D
100
AcDbEntity
  8
0
100
AcDbLine
 62
7
  6
CONTINUOUS
 10
193.4497803306
 20
118.371198004
 11
193.4497803306
 21
116.390688004
  0
LINE
  5
58E
100
AcDbEntity
  8
0
100
AcDbLine
 62
7
  6
CONTINUOUS
 10
193.5864193306
 20
87.373118004
 11
193.5864193306
 21
87.642621004
  0
LINE
  5
58F
100
AcDbEntity
  8
0
100
AcDbLine
 62
7
  6
CONTINUOUS
 10
193.7537163306
 20
116.390688004
 11
193.7537163306
 21
118.371198004
  0
LINE
  5
590
100
AcDbEntity
  8
0
100
AcDbLine
 62
7
  6
CONTINUOUS
 10
193.9030003306
 20
85.724836004
 11
193.9030003306
 21
85.392621004
  0
LINE
  5
591
100
AcDbEntity
  8
0
100
AcDbLine
 62
7
  6
CONTINUOUS
 10
194.0426663306
 20
93.6795177717
 11
194.0426663306
 21
93.3518582363
  0
LINE
  5
592
100
AcDbEntity
  8
0
100
AcDbLine
 62
7
  6
CONTINUOUS
 10
194.2288193306
 20
85.392621004
 11
194.2288193306
 21
85.724836004
  0
LINE
  5
593
100
AcDbEntity
  8
0
100
AcDbLine
 62
7
  6
CONTINUOUS
 10
194.2718326476
 20
93.3050497313
 11
194.2718326476
 21
93.7263262768
  0
LINE
  5
594
100
AcDbEntity
  8
0
100
AcDbLine
 62
7
  6
CONTINUOUS
 10
194.5152413306
 20
118.371198004
 11
194.5152413306
 21
118.640688004
  0
LINE
  5
595
100
AcDbEntity
  8
0
100
AcDbLine
 62
7
  6
CONTINUOUS
 10
195.6420643306
 20
87.642621004
 11
195.6420643306
 21
85.392621004
  0
LINE
  5
596
100
AcDbEntity
  8
0
100
AcDbLine
 62
7
  6
CONTINUOUS
 10
195.9460323306
 20
85.392621004
 11
195.9460323306
 21
86.342187004
  0
LINE
  5
597
100
AcDbEntity
  8
0
100
AcDbLine
 62
7
  6
CONTINUOUS
 10
195.9460323306
 20
86.602273004
 11
195.9460323306
 21
87.382534004
  0
LINE
  5
598
100
AcDbEntity
  8
0
100
AcDbLine
 62
7
  6
CONTINUOUS
 10
196.8874853306
 20
118.640688004
 11
196.8874853306
 21
116.390688004
  0
LINE
  5
599
100
AcDbEntity
  8
0
100
AcDbLine
 62
7
  6
CONTINUOUS
 10
197.1915493306
 20
116.660178004
 11
197.1915493306
 21
118.640688004
  0
LINE
  5
59A
100
AcDbEntity
  8
0
100
AcDbLine
 62
7
  6
CONTINUOUS
 10
197.7321753306
 20
87.642621004
 11
197.7321753306
 21
85.392621004
  0
LINE
  5
59B
100
AcDbEntity
  8
0
100
AcDbLine
 62
7
  6
CONTINUOUS
 10
198.0361433306
 20
85.662123004
 11
198.0361433306
 21
86.414137004
  0
LINE
  5
59C
100
AcDbEntity
  8
0
100
AcDbLine
 62
7
  6
CONTINUOUS
 10
198.0361433306
 20
86.683639004
 11
198.0361433306
 21
87.373118004
  0
LINE
  5
59D
100
AcDbEntity
  8
ASSI
100
AcDbLine
 62
7
  6
CONTINUOUS
 10
198.2403613306
 20
128.390840004
 11
198.2403613306
 21
121.640536004
  0
LINE
  5
59E
100
AcDbEntity
  8
0
100
AcDbLine
 62
7
  6
CONTINUOUS
 10
198.3322893306
 20
116.390688004
 11
198.3322893306
 21
116.660178004
  0
LWPOLYLINE
  5
59F
100
AcDbEntity
  8
0
100
AcDbPolyline
 62
7
  6
CONTINUOUS
 90
12
 70
0
 10
197.0076446898
 20
86.9924037219
 10
197.0070397573
 20
86.9322594521
 10
196.999257193
 20
86.8765270955
 10
196.984296997
 20
86.8252066522
 10
196.9619990672
 20
86.777798051
 10
196.9325235055
 20
86.734801363
 10
196.8963506182
 20
86.6977168018
 10
196.8527608994
 20
86.6670478281
 10
196.8024738549
 20
86.6422909812
 10
196.7481283081
 20
86.6234360922
 10
196.6906038667
 20
86.6104797715
 10
196.629020923
 20
86.6034254088
  0
LINE
  5
5A0
100
AcDbEntity
  8
0
100
AcDbLine
 62
7
  6
CONTINUOUS
 10
190.1926663306
 20
93.0241986354
 11
190.2384994891
 21
93.3518582363
  0
LINE
  5
5A1
100
AcDbEntity
  8
0
100
AcDbLine
 62
7
  6
CONTINUOUS
 10
190.0093331722
 20
93.3518582363
 11
189.9634994891
 21
93.0710071404
  0
LINE
  5
5A2
100
AcDbEntity
  8
0
100
AcDbLine
 62
7
  6
CONTINUOUS
 10
192.8509994891
 20
93.6795177717
 11
192.8968331722
 21
93.9603688021
  0
LINE
  5
5A3
100
AcDbEntity
  8
0
100
AcDbLine
 62
7
  6
CONTINUOUS
 10
194.0426663306
 20
93.3518582363
 11
193.9968326476
 21
93.0710071404
  0
LINE
  5
5A4
100
AcDbEntity
  8
0
100
AcDbLine
 62
7
  6
CONTINUOUS
 10
192.6676663306
 20
93.9603688021
 11
192.6218331722
 21
93.7263262768
  0
LINE
  5
5A5
100
AcDbEntity
  8
0
100
AcDbLine
 62
7
  6
CONTINUOUS
 10
194.2260000137
 20
93.0710071404
 11
194.2718326476
 21
93.3050497313
  0
LINE
  5
5A6
100
AcDbEntity
  8
0
100
AcDbLine
 62
7
  6
CONTINUOUS
 10
190.6968331722
 20
94.2880284686
 11
190.6509994891
 21
94.1007944484
  0
LINE
  5
5A7
100
AcDbEntity
  8
0
100
AcDbLine
 62
7
  6
CONTINUOUS
 10
192.2093331722
 20
93.8199432869
 11
192.2551663306
 21
94.0071773071
  0
LINE
  5
5A8
100
AcDbEntity
  8
0
100
AcDbLine
 62
7
  6
CONTINUOUS
 10
186.1134996203
 20
92.9305816252
 11
186.159333041
 21
93.0710071404
  0
LINE
  5
5A9
100
AcDbEntity
  8
0
100
AcDbLine
 62
7
  6
CONTINUOUS
 10
186.8009997514
 20
93.9603688021
 11
186.8468329099
 21
94.1007944484
  0
LINE
  5
5AA
100
AcDbEntity
  8
0
100
AcDbLine
 62
7
  6
CONTINUOUS
 10
187.9468329099
 20
93.866751792
 11
187.9009997514
 21
93.7263262768
  0
LINE
  5
5AB
100
AcDbEntity
  8
0
100
AcDbLine
 62
7
  6
CONTINUOUS
 10
187.9468329099
 20
93.0710071404
 11
187.9009997514
 21
92.9305816252
  0
LINE
  5
5AC
100
AcDbEntity
  8
0
100
AcDbLine
 62
7
  6
CONTINUOUS
 10
188.8176663306
 20
93.9603688021
 11
188.8634997514
 21
94.1007944484
  0
LINE
  5
5AD
100
AcDbEntity
  8
0
100
AcDbLine
 62
7
  6
CONTINUOUS
 10
189.9634994891
 20
93.866751792
 11
189.9176663306
 21
93.7263262768
  0
LINE
  5
5AE
100
AcDbEntity
  8
0
100
AcDbLine
 62
7
  6
CONTINUOUS
 10
189.9634994891
 20
93.0710071404
 11
189.9176663306
 21
92.9305816252
  0
LINE
  5
5AF
100
AcDbEntity
  8
0
100
AcDbLine
 62
7
  6
CONTINUOUS
 10
192.7134994891
 20
94.1007944484
 11
192.6676663306
 21
93.9603688021
  0
LINE
  5
5B0
100
AcDbEntity
  8
0
100
AcDbLine
 62
7
  6
CONTINUOUS
 10
194.1801663306
 20
92.9305816252
 11
194.2260000137
 21
93.0710071404
  0
LINE
  5
5B1
100
AcDbEntity
  8
0
100
AcDbLine
 62
7
  6
CONTINUOUS
 10
189.9828663306
 20
85.392621004
 11
190.2179033306
 21
86.047635004
  0
LINE
  5
5B2
100
AcDbEntity
  8
0
100
AcDbLine
 62
7
  6
CONTINUOUS
 10
194.9163103306
 20
116.390688004
 11
195.1513913306
 21
117.045581004
  0
LINE
  5
5B3
100
AcDbEntity
  8
0
100
AcDbLine
 62
7
  6
CONTINUOUS
 10
195.2454133306
 20
117.315071004
 11
195.6090163306
 21
118.314329004
  0
LINE
  5
5B4
100
AcDbEntity
  8
0
100
AcDbLine
 62
7
  6
CONTINUOUS
 10
190.3118833306
 20
86.317137004
 11
190.6754023306
 21
87.316277004
  0
LINE
  5
5B5
100
AcDbEntity
  8
0
100
AcDbLine
 62
7
  6
CONTINUOUS
 10
195.4491593306
 20
118.640688004
 11
194.6029843306
 21
116.390688004
  0
LINE
  5
5B6
100
AcDbEntity
  8
0
100
AcDbLine
 62
7
  6
CONTINUOUS
 10
190.5156533306
 20
87.642621004
 11
189.6694823306
 21
85.392621004
  0
LINE
  5
5B7
100
AcDbEntity
  8
0
100
AcDbLine
 62
7
  6
CONTINUOUS
 10
186.6634996203
 20
94.2412199636
 11
186.571833041
 21
94.0071773071
  0
LINE
  5
5B8
100
AcDbEntity
  8
0
100
AcDbLine
 62
7
  6
CONTINUOUS
 10
188.0843329099
 20
92.7901560773
 11
188.1759997514
 21
93.0241986354
  0
LINE
  5
5B9
100
AcDbEntity
  8
0
100
AcDbLine
 62
7
  6
CONTINUOUS
 10
188.6801663306
 20
94.2412199636
 11
188.5884997514
 21
94.0071773071
  0
LINE
  5
5BA
100
AcDbEntity
  8
0
100
AcDbLine
 62
7
  6
CONTINUOUS
 10
190.1009994891
 20
92.7901560773
 11
190.1926663306
 21
93.0241986354
  0
LINE
  5
5BB
100
AcDbEntity
  8
0
100
AcDbLine
 62
7
  6
CONTINUOUS
 10
184.7384996694
 20
94.2880284686
 11
184.646833
 21
94.1007944484
  0
LINE
  5
5BC
100
AcDbEntity
  8
0
100
AcDbLine
 62
7
  6
CONTINUOUS
 10
186.021833041
 20
92.7433475722
 11
186.1134996203
 21
92.9305816252
  0
LINE
  5
5BD
100
AcDbEntity
  8
0
100
AcDbLine
 62
7
  6
CONTINUOUS
 10
191.9801663306
 20
94.0071773071
 11
191.8884994891
 21
93.8199432869
  0
LINE
  5
5BE
100
AcDbEntity
  8
0
100
AcDbLine
 62
7
  6
CONTINUOUS
 10
192.8051663306
 20
94.2880284686
 11
192.7134994891
 21
94.1007944484
  0
LINE
  5
5BF
100
AcDbEntity
  8
0
100
AcDbLine
 62
7
  6
CONTINUOUS
 10
200.0807933306
 20
118.640688004
 11
199.4353623306
 21
117.559451004
  0
LINE
  5
5C0
100
AcDbEntity
  8
0
100
AcDbLine
 62
7
  6
CONTINUOUS
 10
199.5887593306
 20
117.296329004
 11
200.4381733306
 21
118.640688004
  0
LINE
  5
5C1
100
AcDbEntity
  8
0
100
AcDbLine
 62
7
  6
CONTINUOUS
 10
179.7176663306
 20
87.1539858122
 11
179.8093331722
 21
87.2944114585
  0
LINE
  5
5C2
100
AcDbEntity
  8
0
100
AcDbLine
 62
7
  6
CONTINUOUS
 10
184.8301663306
 20
93.9603688021
 11
185.0134996531
 21
94.2412199636
  0
LINE
  5
5C3
100
AcDbEntity
  8
0
100
AcDbLine
 62
7
  6
CONTINUOUS
 10
185.9301663306
 20
93.0710071404
 11
185.746833041
 21
92.7901560773
  0
LINE
  5
5C4
100
AcDbEntity
  8
0
100
AcDbLine
 62
7
  6
CONTINUOUS
 10
186.8468329099
 20
94.1007944484
 11
186.9384997514
 21
94.2412199636
  0
LINE
  5
5C5
100
AcDbEntity
  8
0
100
AcDbLine
 62
7
  6
CONTINUOUS
 10
187.9009997514
 20
93.7263262768
 11
187.8093329099
 21
93.5859007616
  0
LINE
  5
5C6
100
AcDbEntity
  8
0
100
AcDbLine
 62
7
  6
CONTINUOUS
 10
187.9009997514
 20
92.9305816252
 11
187.8093329099
 21
92.7901560773
  0
LINE
  5
5C7
100
AcDbEntity
  8
0
100
AcDbLine
 62
7
  6
CONTINUOUS
 10
188.8634997514
 20
94.1007944484
 11
188.9551663306
 21
94.2412199636
  0
LINE
  5
5C8
100
AcDbEntity
  8
0
100
AcDbLine
 62
7
  6
CONTINUOUS
 10
189.9176663306
 20
93.7263262768
 11
189.8259994891
 21
93.5859007616
  0
LINE
  5
5C9
100
AcDbEntity
  8
0
100
AcDbLine
 62
7
  6
CONTINUOUS
 10
189.9176663306
 20
92.9305816252
 11
189.8259994891
 21
92.7901560773
  0
LINE
  5
5CA
100
AcDbEntity
  8
0
100
AcDbLine
 62
7
  6
CONTINUOUS
 10
190.8801663306
 20
94.1007944484
 11
190.9718331722
 21
94.2412199636
  0
LINE
  5
5CB
100
AcDbEntity
  8
0
100
AcDbLine
 62
7
  6
CONTINUOUS
 10
192.1176663306
 20
93.6795177717
 11
192.2093331722
 21
93.8199432869
  0
LINE
  5
5CC
100
AcDbEntity
  8
0
100
AcDbLine
 62
7
  6
CONTINUOUS
 10
176.6009997514
 20
85.7029220407
 11
176.7384997514
 21
85.8901560773
  0
LINE
  5
5CD
100
AcDbEntity
  8
0
100
AcDbLine
 62
7
  6
CONTINUOUS
 10
186.8009997514
 20
94.4284539838
 11
186.6634996203
 21
94.2412199636
  0
LINE
  5
5CE
100
AcDbEntity
  8
0
100
AcDbLine
 62
7
  6
CONTINUOUS
 10
188.8176663306
 20
94.4284539838
 11
188.6801663306
 21
94.2412199636
  0
LINE
  5
5CF
100
AcDbEntity
  8
0
100
AcDbLine
 62
7
  6
CONTINUOUS
 10
187.9468329099
 20
92.6029220407
 11
188.0843329099
 21
92.7901560773
  0
LINE
  5
5D0
100
AcDbEntity
  8
0
100
AcDbLine
 62
7
  6
CONTINUOUS
 10
189.9634994891
 20
92.6029220407
 11
190.1009994891
 21
92.7901560773
  0
LINE
  5
5D1
100
AcDbEntity
  8
0
100
AcDbLine
 62
7
  6
CONTINUOUS
 10
178.2280831722
 20
88.4490214248
 11
178.0905831722
 21
88.265688004
  0
LINE
  5
5D2
100
AcDbEntity
  8
0
100
AcDbLine
 62
7
  6
CONTINUOUS
 10
178.3655831722
 20
87.8990214248
 11
178.5030831722
 21
88.0823545833
  0
LINE
  5
5D3
100
AcDbEntity
  8
0
100
AcDbLine
 62
7
  6
CONTINUOUS
 10
184.8759996531
 20
94.4284539838
 11
184.7384996694
 21
94.2880284686
  0
LINE
  5
5D4
100
AcDbEntity
  8
0
100
AcDbLine
 62
7
  6
CONTINUOUS
 10
179.7176663306
 20
87.5752624889
 11
179.5343331722
 21
87.3880284686
  0
LINE
  5
5D5
100
AcDbEntity
  8
0
100
AcDbLine
 62
7
  6
CONTINUOUS
 10
185.884333041
 20
92.6029220407
 11
186.021833041
 21
92.7433475722
  0
LINE
  5
5D6
100
AcDbEntity
  8
0
100
AcDbLine
 62
7
  6
CONTINUOUS
 10
180.9551663306
 20
85.6561135356
 11
181.1384994891
 21
85.8433475722
  0
LINE
  5
5D7
100
AcDbEntity
  8
0
100
AcDbLine
 62
7
  6
CONTINUOUS
 10
190.8801663306
 20
94.4752624889
 11
190.6968331722
 21
94.2880284686
  0
LINE
  5
5D8
100
AcDbEntity
  8
0
100
AcDbLine
 62
7
  6
CONTINUOUS
 10
175.5009997514
 20
86.4986667414
 11
175.6843329099
 21
86.6390922566
  0
LINE
  5
5D9
100
AcDbEntity
  8
0
100
AcDbLine
 62
7
  6
CONTINUOUS
 10
185.0134996531
 20
94.2412199636
 11
185.1509996858
 21
94.3348369737
  0
LINE
  5
5DA
100
AcDbEntity
  8
0
100
AcDbLine
 62
7
  6
CONTINUOUS
 10
186.9384997514
 20
94.2412199636
 11
187.0759997514
 21
94.3348369737
  0
LINE
  5
5DB
100
AcDbEntity
  8
0
100
AcDbLine
 62
7
  6
CONTINUOUS
 10
185.746833041
 20
92.7901560773
 11
185.6093329755
 21
92.6965390672
  0
LINE
  5
5DC
100
AcDbEntity
  8
0
100
AcDbLine
 62
7
  6
CONTINUOUS
 10
185.1051663306
 20
94.568879499
 11
184.8759996531
 21
94.4284539838
  0
LINE
  5
5DD
100
AcDbEntity
  8
0
100
AcDbLine
 62
7
  6
CONTINUOUS
 10
187.0301663306
 20
94.568879499
 11
186.8009997514
 21
94.4284539838
  0
LINE
  5
5DE
100
AcDbEntity
  8
0
100
AcDbLine
 62
7
  6
CONTINUOUS
 10
175.6384997514
 20
86.8731347819
 11
175.409333041
 21
86.7327092667
  0
LINE
  5
5DF
100
AcDbEntity
  8
RACCORDO
100
AcDbLine
 62
7
  6
CONTINUOUS
 10
95.7907013114
 20
58.5002703467
 11
95.5653206168
 21
58.4053149113
  0
LINE
  5
5E0
100
AcDbEntity
  8
DRAFT
100
AcDbLine
 62
7
  6
CONTINUOUS
 10
94.3117363473
 20
58.265688004
 11
94.6444667389
 21
58.4053149113
  0
LINE
  5
5E1
100
AcDbEntity
  8
DRAFT
100
AcDbLine
 62
7
  6
CONTINUOUS
 10
288.7424640154
 20
136.7626088381
 11
289.7551663306
 21
137.015688004
  0
LINE
  5
5E2
100
AcDbEntity
  8
RACCORDO
100
AcDbLine
 62
7
  6
CONTINUOUS
 10
275.2551663306
 20
107.8691204074
 11
272.7464775412
 21
107.8691204074
  0
LINE
  5
5E3
100
AcDbEntity
  8
RACCORDO
100
AcDbLine
 62
7
  6
CONTINUOUS
 10
105.7638551201
 20
107.8691204074
 11
103.2551663306
 21
107.8691204074
  0
LINE
  5
5E4
100
AcDbEntity
  8
RACCORDO
100
AcDbLine
 62
7
  6
CONTINUOUS
 10
101.2551663306
 20
109.0122556006
 11
105.7638551201
 21
109.0122556006
  0
LINE
  5
5E5
100
AcDbEntity
  8
RACCORDO
100
AcDbLine
 62
7
  6
CONTINUOUS
 10
272.7464775412
 20
109.0122556006
 11
277.2551663306
 21
109.0122556006
  0
LINE
  5
5E6
100
AcDbEntity
  8
DRAFT
100
AcDbLine
 62
7
  6
CONTINUOUS
 10
277.5082454966
 20
109.1641006332
 11
277.2551663306
 21
109.1641006332
  0
LINE
  5
5E7
100
AcDbEntity
  8
DRAFT
100
AcDbLine
 62
7
  6
CONTINUOUS
 10
101.0020871647
 20
109.1641006332
 11
101.2551663306
 21
109.1641006332
  0
LINE
  5
5E8
100
AcDbEntity
  8
DRAFT
100
AcDbLine
 62
7
  6
CONTINUOUS
 10
103.2911507406
 20
109.365688004
 11
107.3442299065
 21
109.365688004
  0
LINE
  5
5E9
100
AcDbEntity
  8
DRAFT
100
AcDbLine
 62
7
  6
CONTINUOUS
 10
271.1661027548
 20
109.365688004
 11
275.2191819207
 21
109.365688004
  0
LINE
  5
5EA
100
AcDbEntity
  8
DRAFT
100
AcDbLine
 62
7
  6
CONTINUOUS
 10
277.2551663306
 20
109.378778093
 11
275.1973647512
 21
109.378778093
  0
LINE
  5
5EB
100
AcDbEntity
  8
DRAFT
100
AcDbLine
 62
7
  6
CONTINUOUS
 10
103.3129679101
 20
109.378778093
 11
101.2551663306
 21
109.378778093
  0
LINE
  5
5EC
100
AcDbEntity
  8
DRAFT
100
AcDbLine
 62
7
  6
CONTINUOUS
 10
103.2911507406
 20
110.115688004
 11
101.9271863304
 21
110.115688004
  0
LINE
  5
5ED
100
AcDbEntity
  8
DRAFT
100
AcDbLine
 62
7
  6
CONTINUOUS
 10
275.2191819207
 20
110.115688004
 11
276.5831463309
 21
110.115688004
  0
LINE
  5
5EE
100
AcDbEntity
  8
DRAFT
100
AcDbLine
 62
7
  6
CONTINUOUS
 10
102.9551663306
 20
110.451672414
 11
101.2551663306
 21
110.451672414
  0
LINE
  5
5EF
100
AcDbEntity
  8
DRAFT
100
AcDbLine
 62
7
  6
CONTINUOUS
 10
275.5551663306
 20
110.451672414
 11
277.2551663306
 21
110.451672414
  0
LINE
  5
5F0
100
AcDbEntity
  8
DRAFT
100
AcDbLine
 62
7
  6
CONTINUOUS
 10
102.9551663306
 20
111.245815023
 11
101.2551663306
 21
111.245815023
  0
LINE
  5
5F1
100
AcDbEntity
  8
DRAFT
100
AcDbLine
 62
7
  6
CONTINUOUS
 10
275.5551663306
 20
111.245815023
 11
277.2551663306
 21
111.245815023
  0
LINE
  5
5F2
100
AcDbEntity
  8
DRAFT
100
AcDbLine
 62
7
  6
CONTINUOUS
 10
102.9769835001
 20
111.915688004
 11
101.298803993
 21
111.915688004
  0
LINE
  5
5F3
100
AcDbEntity
  8
DRAFT
100
AcDbLine
 62
7
  6
CONTINUOUS
 10
275.5333491612
 20
111.915688004
 11
277.2115286683
 21
111.915688004
  0
LINE
  5
5F4
100
AcDbEntity
  8
0
100
AcDbLine
 62
7
  6
CONTINUOUS
 10
171.2551663306
 20
115.015688004
 11
207.2551663306
 21
115.015688004
  0
LINE
  5
5F5
100
AcDbEntity
  8
DRAFT
100
AcDbLine
 62
7
  6
CONTINUOUS
 10
89.7678686459
 20
136.7626088381
 11
88.7551663306
 21
137.015688004
  0
LINE
  5
5F6
100
AcDbEntity
  8
DRAFT
100
AcDbLine
 62
7
  6
CONTINUOUS
 10
94.3117363473
 20
154.765688004
 11
94.6444667389
 21
154.6260610968
  0
LINE
  5
5F7
100
AcDbEntity
  8
RACCORDO
100
AcDbLine
 62
7
  6
CONTINUOUS
 10
95.7907013114
 20
154.5311056614
 11
95.5653206168
 21
154.6260610968
  0
LINE
  5
5F8
100
AcDbEntity
  8
0
100
AcDbLine
 62
7
  6
CONTINUOUS
 10
189.1721413306
 20
118.217957004
 11
190.3222533306
 21
116.390688004
  0
LINE
  5
5F9
100
AcDbEntity
  8
0
100
AcDbLine
 62
7
  6
CONTINUOUS
 10
190.3692723306
 20
116.813049004
 11
189.2379043306
 21
118.640688004
  0
LINE
  5
5FA
100
AcDbEntity
  8
ASSI
100
AcDbLine
 62
7
  6
CONTINUOUS
 10
203.0280453306
 20
92.138666004
 11
203.2198423306
 21
91.796947004
  0
LINE
  5
5FB
100
AcDbEntity
  8
ASSI
100
AcDbLine
 62
7
  6
CONTINUOUS
 10
185.5027403306
 20
126.091891004
 11
186.7791313306
 21
121.640519004
  0
LINE
  5
5FC
100
AcDbEntity
  8
ASSI
100
AcDbLine
 62
7
  6
CONTINUOUS
 10
187.4541483306
 20
123.994784004
 11
186.1936023306
 21
128.390823004
  0
LINE
  5
5FD
100
AcDbEntity
  8
0
100
AcDbLine
 62
7
  6
CONTINUOUS
 10
194.2718326476
 20
93.7263262768
 11
194.2260000137
 21
93.9603688021
  0
LINE
  5
5FE
100
AcDbEntity
  8
0
100
AcDbLine
 62
7
  6
CONTINUOUS
 10
192.8968331722
 20
93.0710071404
 11
192.8509994891
 21
93.3518582363
  0
LINE
  5
5FF
100
AcDbEntity
  8
0
100
AcDbLine
 62
7
  6
CONTINUOUS
 10
193.9968326476
 20
93.9603688021
 11
194.0426663306
 21
93.6795177717
  0
LWPOLYLINE
  5
600
100
AcDbEntity
  8
0
100
AcDbPolyline
 62
7
  6
CONTINUOUS
 90
16
 70
0
 10
203.9262327719
 20
86.5176208557
 10
203.923741204
 20
86.6478359247
 10
203.9117921466
 20
86.7716269319
 10
203.8903855996
 20
86.8889938774
 10
203.8590354673
 20
87.00073789
 10
203.8182278453
 20
87.1060578409
 10
203.7694210214
 20
87.2025503434
 10
203.7131839356
 20
87.2896049583
 10
203.6489476478
 20
87.3678321248
 10
203.5764636244
 20
87.4366597735
 10
203.4951627227
 20
87.4962109426
 10
203.4056140854
 20
87.5463625939
 10
203.3092766065
 20
87.5861735441
 10
203.206636584
 20
87.6153300653
 10
203.0972077198
 20
87.6341458852
 10
202.980990014
 20
87.642621004
  0
LINE
  5
601
100
AcDbEntity
  8
0
100
AcDbLine
 62
7
  6
CONTINUOUS
 10
199.2678243306
 20
86.414137004
 11
199.2678243306
 21
86.683639004
  0
LINE
  5
602
100
AcDbEntity
  8
0
100
AcDbLine
 62
7
  6
CONTINUOUS
 10
199.2848773306
 20
117.296329004
 11
199.2848773306
 21
116.390688004
  0
LINE
  5
603
100
AcDbEntity
  8
0
100
AcDbLine
 62
7
  6
CONTINUOUS
 10
199.3712203306
 20
87.373118004
 11
199.3712203306
 21
87.642621004
  0
LINE
  5
604
100
AcDbEntity
  8
0
100
AcDbLine
 62
7
  6
CONTINUOUS
 10
199.3930713306
 20
85.392621004
 11
199.3930713306
 21
85.662123004
  0
LINE
  5
605
100
AcDbEntity
  8
ASSI
100
AcDbLine
 62
7
  6
CONTINUOUS
 10
199.5718153306
 20
125.499393004
 11
199.5717993306
 21
127.142039004
  0
LINE
  5
606
100
AcDbEntity
  8
0
100
AcDbLine
 62
7
  6
CONTINUOUS
 10
199.5887593306
 20
116.390688004
 11
199.5887593306
 21
117.296329004
  0
LINE
  5
607
100
AcDbEntity
  8
0
100
AcDbLine
 62
7
  6
CONTINUOUS
 10
199.7910183306
 20
87.642621004
 11
199.7910183306
 21
85.392621004
  0
LINE
  5
608
100
AcDbEntity
  8
0
100
AcDbLine
 62
7
  6
CONTINUOUS
 10
200.0855703306
 20
85.392621004
 11
200.0855703306
 21
87.220088004
  0
LINE
  5
609
100
AcDbEntity
  8
DRAFT
100
AcDbLine
 62
7
  6
CONTINUOUS
 10
200.9409990902
 20
43.2375051735
 11
200.9409990902
 21
41.8593256664
  0
LINE
  5
60A
100
AcDbEntity
  8
DRAFT
100
AcDbLine
 62
7
  6
CONTINUOUS
 10
200.9409990902
 20
169.7938708346
 11
200.9409990902
 21
171.1720503417
  0
LINE
  5
60B
100
AcDbEntity
  8
DRAFT
100
AcDbLine
 62
7
  6
CONTINUOUS
 10
201.2551663306
 20
43.551672414
 11
201.2551663306
 21
42.4877080038
  0
LINE
  5
60C
100
AcDbEntity
  8
DRAFT
100
AcDbLine
 62
7
  6
CONTINUOUS
 10
201.2551663306
 20
169.4797035941
 11
201.2551663306
 21
170.5436680043
  0
LINE
  5
60D
100
AcDbEntity
  8
0
100
AcDbLine
 62
7
  6
CONTINUOUS
 10
201.2826093306
 20
87.642621004
 11
201.2826093306
 21
85.814986004
  0
LINE
  5
60E
100
AcDbEntity
  8
0
100
AcDbLine
 62
7
  6
CONTINUOUS
 10
201.5771613306
 20
85.392621004
 11
201.5771613306
 21
87.642621004
  0
LINE
  5
60F
100
AcDbEntity
  8
ASSI
100
AcDbLine
 62
7
  6
CONTINUOUS
 10
201.6667363306
 20
92.026236004
 11
201.6667363306
 21
91.609571004
  0
LINE
  5
610
100
AcDbEntity
  8
ASSI
100
AcDbLine
 62
7
  6
CONTINUOUS
 10
201.6803433306
 20
95.405391004
 11
201.6803433306
 21
94.986434004
  0
LINE
  5
611
100
AcDbEntity
  8
ASSI
100
AcDbLine
 62
7
  6
CONTINUOUS
 10
202.0359913306
 20
94.986434004
 11
202.0359913306
 21
93.924075004
  0
LINE
  5
612
100
AcDbEntity
  8
ASSI
100
AcDbLine
 62
7
  6
CONTINUOUS
 10
202.0359913306
 20
93.407719004
 11
202.0359913306
 21
92.026236004
  0
LINE
  5
613
100
AcDbEntity
  8
0
100
AcDbLine
 62
7
  6
CONTINUOUS
 10
202.0690883306
 20
87.642621004
 11
202.0690883306
 21
85.392621004
  0
LINE
  5
614
100
AcDbEntity
  8
DRAFT
100
AcDbLine
 62
7
  6
CONTINUOUS
 10
202.2551663306
 20
43.551672414
 11
202.2551663306
 21
42.4877080038
  0
LINE
  5
615
100
AcDbEntity
  8
DRAFT
100
AcDbLine
 62
7
  6
CONTINUOUS
 10
202.2551663306
 20
169.4797035941
 11
202.2551663306
 21
170.5436680043
  0
LINE
  5
616
100
AcDbEntity
  8
0
100
AcDbLine
 62
7
  6
CONTINUOUS
 10
202.3730553306
 20
85.652708004
 11
202.3730553306
 21
87.382534004
  0
LINE
  5
617
100
AcDbEntity
  8
ASSI
100
AcDbLine
 62
7
  6
CONTINUOUS
 10
202.4798703306
 20
92.026236004
 11
202.4798703306
 21
93.412379004
  0
LINE
  5
618
100
AcDbEntity
  8
ASSI
100
AcDbLine
 62
7
  6
CONTINUOUS
 10
202.4798703306
 20
93.924075004
 11
202.4798703306
 21
94.986434004
  0
LINE
  5
619
100
AcDbEntity
  8
DRAFT
100
AcDbLine
 62
7
  6
CONTINUOUS
 10
202.5693335711
 20
43.2375051735
 11
202.5693335711
 21
41.8593256664
  0
LINE
  5
61A
100
AcDbEntity
  8
DRAFT
100
AcDbLine
 62
7
  6
CONTINUOUS
 10
202.5693335711
 20
169.7938708346
 11
202.5693335711
 21
171.1720503417
  0
LINE
  5
61B
100
AcDbEntity
  8
ASSI
100
AcDbLine
 62
7
  6
CONTINUOUS
 10
202.8353753306
 20
94.986434004
 11
202.8353753306
 21
95.405391004
  0
LINE
  5
61C
100
AcDbEntity
  8
ASSI
100
AcDbLine
 62
7
  6
CONTINUOUS
 10
202.8489823306
 20
91.609571004
 11
202.8489823306
 21
92.026236004
  0
LINE
  5
61D
100
AcDbEntity
  8
0
100
AcDbLine
 62
7
  6
CONTINUOUS
 10
204.3503553306
 20
85.724836004
 11
204.3503553306
 21
85.392621004
  0
LINE
  5
61E
100
AcDbEntity
  8
0
100
AcDbLine
 62
7
  6
CONTINUOUS
 10
204.6763523306
 20
85.392621004
 11
204.6763523306
 21
85.724836004
  0
LINE
  5
61F
100
AcDbEntity
  8
0
100
AcDbLine
 62
7
  6
CONTINUOUS
 10
207.2551663306
 20
83.015688004
 11
207.2551663306
 21
98.015688004
  0
LINE
  5
620
100
AcDbEntity
  8
0
100
AcDbLine
 62
7
  6
CONTINUOUS
 10
207.2551663306
 20
115.015688004
 11
207.2551663306
 21
130.015688004
  0
LINE
  5
621
100
AcDbEntity
  8
ASSI
100
AcDbLine
 62
7
  6
CONTINUOUS
 10
199.5904293306
 20
121.640536004
 11
199.5905803306
 21
124.250592004
  0
LWPOLYLINE
  5
622
100
AcDbEntity
  8
0
100
AcDbPolyline
 62
7
  6
CONTINUOUS
 90
13
 70
0
 10
203.6135019263
 20
86.5176208557
 10
203.6112799882
 20
86.3930298973
 10
203.5987308049
 20
86.276047434
 10
203.5758543765
 20
86.1666734657
 10
203.5425717398
 20
86.0634410345
 10
203.498961858
 20
85.9678170984
 10
203.4452616202
 20
85.8842025308
 10
203.3804880319
 20
85.8137237566
 10
203.3056240876
 20
85.7552543509
 10
203.2238556605
 20
85.7098159129
 10
203.1362447083
 20
85.6777489756
 10
203.0417292733
 20
85.658713006
 10
202.9403093556
 20
85.652708004
  0
LINE
  5
623
100
AcDbEntity
  8
RACCORDO
100
AcDbLine
 62
7
  6
CONTINUOUS
 10
221.2551663306
 20
176.515688004
 11
221.2419237473
 21
176.4626974912
  0
LINE
  5
624
100
AcDbEntity
  8
0
100
AcDbLine
 62
7
  6
CONTINUOUS
 10
194.0885000137
 20
92.7433475722
 11
194.1801663306
 21
92.9305816252
  0
LINE
  5
625
100
AcDbEntity
  8
DRAFT
100
AcDbLine
 62
7
  6
CONTINUOUS
 10
176.2551663306
 20
42.4877080038
 11
175.9409990902
 21
41.8593256664
  0
LINE
  5
626
100
AcDbEntity
  8
ASSI
100
AcDbLine
 62
7
  6
CONTINUOUS
 10
201.290490507
 20
91.7969473182
 11
201.4822872671
 21
92.1386658908
  0
LINE
  5
627
100
AcDbEntity
  8
0
100
AcDbLine
 62
7
  6
CONTINUOUS
 10
192.8968331722
 20
93.9603688021
 11
193.0801663306
 21
94.2412199636
  0
LINE
  5
628
100
AcDbEntity
  8
0
100
AcDbLine
 62
7
  6
CONTINUOUS
 10
193.9968326476
 20
93.0710071404
 11
193.8135000137
 21
92.7901560773
  0
LINE
  5
629
100
AcDbEntity
  8
0
100
AcDbLine
 62
7
  6
CONTINUOUS
 10
192.9426663306
 20
94.4284539838
 11
192.8051663306
 21
94.2880284686
  0
LINE
  5
62A
100
AcDbEntity
  8
0
100
AcDbLine
 62
7
  6
CONTINUOUS
 10
193.9510000137
 20
92.6029220407
 11
194.0885000137
 21
92.7433475722
  0
LINE
  5
62B
100
AcDbEntity
  8
0
100
AcDbLine
 62
7
  6
CONTINUOUS
 10
191.8884994891
 20
93.8199432869
 11
190.6051663306
 21
92.6497305621
  0
LINE
  5
62C
100
AcDbEntity
  8
0
100
AcDbLine
 62
7
  6
CONTINUOUS
 10
190.9718331722
 20
92.6497305621
 11
192.1176663306
 21
93.6795177717
  0
LINE
  5
62D
100
AcDbEntity
  8
ASSI
100
AcDbLine
 62
7
  6
CONTINUOUS
 10
203.6489457169
 20
94.9092623296
 11
202.4798703306
 21
93.924075004
  0
LINE
  5
62E
100
AcDbEntity
  8
0
100
AcDbLine
 62
7
  6
CONTINUOUS
 10
176.4634997514
 20
85.8901560773
 11
176.3259997514
 21
85.7965390672
  0
LINE
  5
62F
100
AcDbEntity
  8
0
100
AcDbLine
 62
7
  6
CONTINUOUS
 10
187.8093329099
 20
93.5859007616
 11
187.6718329099
 21
93.4922837515
  0
LINE
  5
630
100
AcDbEntity
  8
0
100
AcDbLine
 62
7
  6
CONTINUOUS
 10
188.9551663306
 20
94.2412199636
 11
189.0926663306
 21
94.3348369737
  0
LINE
  5
631
100
AcDbEntity
  8
0
100
AcDbLine
 62
7
  6
CONTINUOUS
 10
187.7176663306
 20
93.2582412262
 11
187.9926663306
 21
93.4454752464
  0
LINE
  5
632
100
AcDbEntity
  8
0
100
AcDbLine
 62
7
  6
CONTINUOUS
 10
187.8093329099
 20
92.7901560773
 11
187.6718329099
 21
92.6965390672
  0
LINE
  5
633
100
AcDbEntity
  8
0
100
AcDbLine
 62
7
  6
CONTINUOUS
 10
179.8093331722
 20
87.2944114585
 11
179.9468331722
 21
87.3880284686
  0
LINE
  5
634
100
AcDbEntity
  8
0
100
AcDbLine
 62
7
  6
CONTINUOUS
 10
189.8259994891
 20
93.5859007616
 11
189.6884994891
 21
93.4922837515
  0
LINE
  5
635
100
AcDbEntity
  8
0
100
AcDbLine
 62
7
  6
CONTINUOUS
 10
190.9718331722
 20
94.2412199636
 11
191.1093331722
 21
94.3348369737
  0
LINE
  5
636
100
AcDbEntity
  8
0
100
AcDbLine
 62
7
  6
CONTINUOUS
 10
189.7343331722
 20
93.2582412262
 11
190.0093331722
 21
93.4454752464
  0
LINE
  5
637
100
AcDbEntity
  8
0
100
AcDbLine
 62
7
  6
CONTINUOUS
 10
189.8259994891
 20
92.7901560773
 11
189.6884994891
 21
92.6965390672
  0
LINE
  5
638
100
AcDbEntity
  8
0
100
AcDbLine
 62
7
  6
CONTINUOUS
 10
180.8634994891
 20
85.9369646151
 11
180.7259994891
 21
85.8433475722
  0
LINE
  5
639
100
AcDbEntity
  8
0
100
AcDbLine
 62
7
  6
CONTINUOUS
 10
193.0801663306
 20
94.2412199636
 11
193.2176663306
 21
94.3348369737
  0
LINE
  5
63A
100
AcDbEntity
  8
0
100
AcDbLine
 62
7
  6
CONTINUOUS
 10
193.8135000137
 20
92.7901560773
 11
193.6760000137
 21
92.6965390672
  0
LINE
  5
63B
100
AcDbEntity
  8
0
100
AcDbLine
 62
7
  6
CONTINUOUS
 10
189.0468331722
 20
94.568879499
 11
188.8176663306
 21
94.4284539838
  0
LINE
  5
63C
100
AcDbEntity
  8
0
100
AcDbLine
 62
7
  6
CONTINUOUS
 10
185.6551663306
 20
92.4624965132
 11
185.884333041
 21
92.6029220407
  0
LINE
  5
63D
100
AcDbEntity
  8
0
100
AcDbLine
 62
7
  6
CONTINUOUS
 10
176.3718329099
 20
85.5624965132
 11
176.6009997514
 21
85.7029220407
  0
LINE
  5
63E
100
AcDbEntity
  8
0
100
AcDbLine
 62
7
  6
CONTINUOUS
 10
187.7176663306
 20
92.4624965132
 11
187.9468329099
 21
92.6029220407
  0
LINE
  5
63F
100
AcDbEntity
  8
0
100
AcDbLine
 62
7
  6
CONTINUOUS
 10
189.7343331722
 20
92.4624965132
 11
189.9634994891
 21
92.6029220407
  0
LINE
  5
640
100
AcDbEntity
  8
0
100
AcDbLine
 62
7
  6
CONTINUOUS
 10
193.1718331722
 20
94.568879499
 11
192.9426663306
 21
94.4284539838
  0
LINE
  5
641
100
AcDbEntity
  8
0
100
AcDbLine
 62
7
  6
CONTINUOUS
 10
193.7218326476
 20
92.4624965132
 11
193.9510000137
 21
92.6029220407
  0
LINE
  5
642
100
AcDbEntity
  8
0
100
AcDbLine
 62
7
  6
CONTINUOUS
 10
191.0634994891
 20
94.568879499
 11
190.8801663306
 21
94.4752624889
  0
LINE
  5
643
100
AcDbEntity
  8
0
100
AcDbLine
 62
7
  6
CONTINUOUS
 10
179.9009994891
 20
87.668879499
 11
179.7176663306
 21
87.5752624889
  0
LINE
  5
644
100
AcDbEntity
  8
0
100
AcDbLine
 62
7
  6
CONTINUOUS
 10
180.7718331722
 20
85.5624965132
 11
180.9551663306
 21
85.6561135356
  0
LINE
  5
645
100
AcDbEntity
  8
0
100
AcDbLine
 62
7
  6
CONTINUOUS
 10
187.0759997514
 20
94.3348369737
 11
187.2134997514
 21
94.3816454787
  0
LINE
  5
646
100
AcDbEntity
  8
0
100
AcDbLine
 62
7
  6
CONTINUOUS
 10
189.0926663306
 20
94.3348369737
 11
189.2301663306
 21
94.3816454787
  0
LINE
  5
647
100
AcDbEntity
  8
0
100
AcDbLine
 62
7
  6
CONTINUOUS
 10
187.6718329099
 20
93.4922837515
 11
187.5343329099
 21
93.4454752464
  0
LINE
  5
648
100
AcDbEntity
  8
0
100
AcDbLine
 62
7
  6
CONTINUOUS
 10
189.6884994891
 20
93.4922837515
 11
189.5509994891
 21
93.4454752464
  0
LINE
  5
649
100
AcDbEntity
  8
0
100
AcDbLine
 62
7
  6
CONTINUOUS
 10
187.6718329099
 20
92.6965390672
 11
187.5343329099
 21
92.6497305621
  0
LINE
  5
64A
100
AcDbEntity
  8
0
100
AcDbLine
 62
7
  6
CONTINUOUS
 10
189.6884994891
 20
92.6965390672
 11
189.5509994891
 21
92.6497305621
  0
LWPOLYLINE
  5
64B
100
AcDbEntity
  8
0
100
AcDbPolyline
 62
7
  6
CONTINUOUS
 90
14
 70
0
 10
183.9281726
 20
116.4128379791
 10
184.0283401563
 20
116.4402691916
 10
184.1227853589
 20
116.4789160106
 10
184.2112242674
 20
116.5284669795
 10
184.2928050607
 20
116.5879877289
 10
184.3679171032
 20
116.6576035217
 10
184.4361710305
 20
116.737189095
 10
184.4955469285
 20
116.8254342902
 10
184.5455998576
 20
116.9225856917
 10
184.5867747574
 20
117.0283967151
 10
184.6183865327
 20
117.1408174492
 10
184.6402068184
 20
117.2591645901
 10
184.6524639798
 20
117.3841214417
 10
184.6551580166
 20
117.515688004
  0
LWPOLYLINE
  5
64C
100
AcDbEntity
  8
0
100
AcDbPolyline
 62
7
  6
CONTINUOUS
 90
3
 70
0
 10
183.7098186052
 20
116.390688004
 10
183.8219987496
 20
116.3963109166
 10
183.9281726
 20
116.4128379791
  0
LINE
  5
64D
100
AcDbEntity
  8
0
100
AcDbLine
 62
7
  6
CONTINUOUS
 10
178.0721593306
 20
116.390688004
 11
178.3667153306
 21
116.390688004
  0
LINE
  5
64E
100
AcDbEntity
  8
0
100
AcDbLine
 62
7
  6
CONTINUOUS
 10
178.9997783306
 20
116.390688004
 11
179.3006263306
 21
116.390688004
  0
LINE
  5
64F
100
AcDbEntity
  8
0
100
AcDbLine
 62
7
  6
CONTINUOUS
 10
179.9335673306
 20
116.390688004
 11
180.2282413306
 21
116.390688004
  0
LINE
  5
650
100
AcDbEntity
  8
0
100
AcDbLine
 62
7
  6
CONTINUOUS
 10
180.4977503306
 20
116.390688004
 11
180.8110943306
 21
116.390688004
  0
LINE
  5
651
100
AcDbEntity
  8
0
100
AcDbLine
 62
7
  6
CONTINUOUS
 10
182.1711023306
 20
116.390688004
 11
182.5033163306
 21
116.390688004
  0
LINE
  5
652
100
AcDbEntity
  8
0
100
AcDbLine
 62
7
  6
CONTINUOUS
 10
182.7978633306
 20
116.390688004
 11
183.7098186052
 21
116.390688004
  0
LINE
  5
653
100
AcDbEntity
  8
0
100
AcDbLine
 62
7
  6
CONTINUOUS
 10
185.0761593306
 20
116.390688004
 11
186.7371373306
 21
116.390688004
  0
LINE
  5
654
100
AcDbEntity
  8
0
100
AcDbLine
 62
7
  6
CONTINUOUS
 10
188.0533653306
 20
116.390688004
 11
188.3573193306
 21
116.390688004
  0
LINE
  5
655
100
AcDbEntity
  8
0
100
AcDbLine
 62
7
  6
CONTINUOUS
 10
188.8774493306
 20
116.390688004
 11
189.1721413306
 21
116.390688004
  0
LINE
  5
656
100
AcDbEntity
  8
0
100
AcDbLine
 62
7
  6
CONTINUOUS
 10
190.3222533306
 20
116.390688004
 11
190.6638193306
 21
116.390688004
  0
LINE
  5
657
100
AcDbEntity
  8
0
100
AcDbLine
 62
7
  6
CONTINUOUS
 10
192.0582923306
 20
116.390688004
 11
192.3623373306
 21
116.390688004
  0
LINE
  5
658
100
AcDbEntity
  8
0
100
AcDbLine
 62
7
  6
CONTINUOUS
 10
193.4497803306
 20
116.390688004
 11
193.7537163306
 21
116.390688004
  0
LINE
  5
659
100
AcDbEntity
  8
0
100
AcDbLine
 62
7
  6
CONTINUOUS
 10
194.6029843306
 20
116.390688004
 11
194.9163103306
 21
116.390688004
  0
LINE
  5
65A
100
AcDbEntity
  8
0
100
AcDbLine
 62
7
  6
CONTINUOUS
 10
196.2764463306
 20
116.390688004
 11
196.6087143306
 21
116.390688004
  0
LINE
  5
65B
100
AcDbEntity
  8
0
100
AcDbLine
 62
7
  6
CONTINUOUS
 10
196.8874853306
 20
116.390688004
 11
198.3322893306
 21
116.390688004
  0
LINE
  5
65C
100
AcDbEntity
  8
0
100
AcDbLine
 62
7
  6
CONTINUOUS
 10
199.2848773306
 20
116.390688004
 11
199.5887593306
 21
116.390688004
  0
LINE
  5
65D
100
AcDbEntity
  8
0
100
AcDbLine
 62
7
  6
CONTINUOUS
 10
183.7020818728
 20
116.650716004
 11
183.1019273306
 21
116.650716004
  0
LINE
  5
65E
100
AcDbEntity
  8
0
100
AcDbLine
 62
7
  6
CONTINUOUS
 10
198.3322893306
 20
116.660178004
 11
197.1915493306
 21
116.660178004
  0
LINE
  5
65F
100
AcDbEntity
  8
0
100
AcDbLine
 62
7
  6
CONTINUOUS
 10
186.7371373306
 20
116.660178004
 11
185.3802043306
 21
116.660178004
  0
LINE
  5
660
100
AcDbEntity
  8
0
100
AcDbLine
 62
7
  6
CONTINUOUS
 10
181.0461573306
 20
117.045581004
 11
181.9486313306
 21
117.045581004
  0
LINE
  5
661
100
AcDbEntity
  8
0
100
AcDbLine
 62
7
  6
CONTINUOUS
 10
195.1513913306
 20
117.045581004
 11
196.0539573306
 21
117.045581004
  0
LINE
  5
662
100
AcDbEntity
  8
0
100
AcDbLine
 62
7
  6
CONTINUOUS
 10
195.9442503306
 20
117.315071004
 11
195.2454133306
 21
117.315071004
  0
LINE
  5
663
100
AcDbEntity
  8
0
100
AcDbLine
 62
7
  6
CONTINUOUS
 10
181.8390343306
 20
117.315071004
 11
181.1401963306
 21
117.315071004
  0
LINE
  5
664
100
AcDbEntity
  8
0
100
AcDbLine
 62
7
  6
CONTINUOUS
 10
185.3802043306
 20
117.412241004
 11
186.6117633306
 21
117.412241004
  0
LINE
  5
665
100
AcDbEntity
  8
0
100
AcDbLine
 62
7
  6
CONTINUOUS
 10
186.6117633306
 20
117.681731004
 11
185.3802043306
 21
117.681731004
  0
LINE
  5
666
100
AcDbEntity
  8
0
100
AcDbLine
 62
7
  6
CONTINUOUS
 10
185.3802043306
 20
118.371198004
 11
186.7151743306
 21
118.371198004
  0
LINE
  5
667
100
AcDbEntity
  8
0
100
AcDbLine
 62
7
  6
CONTINUOUS
 10
192.6882553306
 20
118.371198004
 11
193.4497803306
 21
118.371198004
  0
LINE
  5
668
100
AcDbEntity
  8
0
100
AcDbLine
 62
7
  6
CONTINUOUS
 10
193.7537163306
 20
118.371198004
 11
194.5152413306
 21
118.371198004
  0
LINE
  5
669
100
AcDbEntity
  8
0
100
AcDbLine
 62
7
  6
CONTINUOUS
 10
183.1019273306
 20
118.380660004
 11
183.7020818727
 21
118.380660004
  0
LINE
  5
66A
100
AcDbEntity
  8
0
100
AcDbLine
 62
7
  6
CONTINUOUS
 10
200.4381733306
 20
118.640688004
 11
200.0807933306
 21
118.640688004
  0
LINE
  5
66B
100
AcDbEntity
  8
0
100
AcDbLine
 62
7
  6
CONTINUOUS
 10
198.7897503306
 20
118.640688004
 11
198.4356453306
 21
118.640688004
  0
LINE
  5
66C
100
AcDbEntity
  8
0
100
AcDbLine
 62
7
  6
CONTINUOUS
 10
197.1915493306
 20
118.640688004
 11
196.8874853306
 21
118.640688004
  0
LINE
  5
66D
100
AcDbEntity
  8
0
100
AcDbLine
 62
7
  6
CONTINUOUS
 10
195.7938193306
 20
118.640688004
 11
195.4491593306
 21
118.640688004
  0
LINE
  5
66E
100
AcDbEntity
  8
0
100
AcDbLine
 62
7
  6
CONTINUOUS
 10
194.5152413306
 20
118.640688004
 11
192.6882553306
 21
118.640688004
  0
LINE
  5
66F
100
AcDbEntity
  8
0
100
AcDbLine
 62
7
  6
CONTINUOUS
 10
192.3623373306
 20
118.640688004
 11
192.0582923306
 21
118.640688004
  0
LINE
  5
670
100
AcDbEntity
  8
0
100
AcDbLine
 62
7
  6
CONTINUOUS
 10
190.6638193306
 20
118.640688004
 11
190.3692723306
 21
118.640688004
  0
LINE
  5
671
100
AcDbEntity
  8
0
100
AcDbLine
 62
7
  6
CONTINUOUS
 10
189.2379043306
 20
118.640688004
 11
188.8774493306
 21
118.640688004
  0
LINE
  5
672
100
AcDbEntity
  8
0
100
AcDbLine
 62
7
  6
CONTINUOUS
 10
188.3573193306
 20
118.640688004
 11
188.0533653306
 21
118.640688004
  0
LINE
  5
673
100
AcDbEntity
  8
0
100
AcDbLine
 62
7
  6
CONTINUOUS
 10
186.7151743306
 20
118.640688004
 11
185.0761593306
 21
118.640688004
  0
LINE
  5
674
100
AcDbEntity
  8
0
100
AcDbLine
 62
7
  6
CONTINUOUS
 10
183.719385096
 20
118.640688004
 11
182.7978633306
 21
118.640688004
  0
LINE
  5
675
100
AcDbEntity
  8
0
100
AcDbLine
 62
7
  6
CONTINUOUS
 10
181.6885853306
 20
118.640688004
 11
181.3438153306
 21
118.640688004
  0
LINE
  5
676
100
AcDbEntity
  8
0
100
AcDbLine
 62
7
  6
CONTINUOUS
 10
180.2282413306
 20
118.640688004
 11
179.7957283306
 21
118.640688004
  0
LINE
  5
677
100
AcDbEntity
  8
0
100
AcDbLine
 62
7
  6
CONTINUOUS
 10
178.5077643306
 20
118.640688004
 11
178.0721593306
 21
118.640688004
  0
LINE
  5
678
100
AcDbEntity
  8
ASSI
100
AcDbLine
 62
7
  6
CONTINUOUS
 10
202.1217973306
 20
121.640536004
 11
203.6424203306
 21
121.640553004
  0
LINE
  5
679
100
AcDbEntity
  8
ASSI
100
AcDbLine
 62
7
  6
CONTINUOUS
 10
191.6556353306
 20
121.640519004
 11
193.0056853306
 21
121.640536004
  0
LINE
  5
67A
100
AcDbEntity
  8
ASSI
100
AcDbLine
 62
7
  6
CONTINUOUS
 10
184.1526893306
 20
121.640519004
 11
185.5027403306
 21
121.640519004
  0
LINE
  5
67B
100
AcDbEntity
  8
ASSI
100
AcDbLine
 62
7
  6
CONTINUOUS
 10
189.4055563306
 20
121.640519004
 11
190.7556073306
 21
121.640519004
  0
LINE
  5
67C
100
AcDbEntity
  8
ASSI
100
AcDbLine
 62
7
  6
CONTINUOUS
 10
198.2403613306
 20
121.640536004
 11
199.5904293306
 21
121.640536004
  0
LINE
  5
67D
100
AcDbEntity
  8
ASSI
100
AcDbLine
 62
7
  6
CONTINUOUS
 10
186.7791313306
 20
121.640519004
 11
188.1291483306
 21
121.640536004
  0
LINE
  5
67E
100
AcDbEntity
  8
ASSI
100
AcDbLine
 62
7
  6
CONTINUOUS
 10
181.4526223306
 20
121.640502004
 11
182.8026723306
 21
121.640519004
  0
LINE
  5
67F
100
AcDbEntity
  8
ASSI
100
AcDbLine
 62
7
  6
CONTINUOUS
 10
195.9902653306
 20
121.640536004
 11
197.3403333306
 21
121.640519004
  0
LINE
  5
680
100
AcDbEntity
  8
ASSI
100
AcDbLine
 62
7
  6
CONTINUOUS
 10
177.0352023306
 20
121.640502004
 11
178.3853033306
 21
121.640519004
  0
LINE
  5
681
100
AcDbEntity
  8
ASSI
100
AcDbLine
 62
7
  6
CONTINUOUS
 10
193.4318973306
 20
122.968025004
 11
195.5640703306
 21
122.968025004
  0
LINE
  5
682
100
AcDbEntity
  8
ASSI
100
AcDbLine
 62
7
  6
CONTINUOUS
 10
195.1522533306
 20
124.250575004
 11
193.8436983306
 21
124.250575004
  0
LINE
  5
683
100
AcDbEntity
  8
ASSI
100
AcDbLine
 62
7
  6
CONTINUOUS
 10
199.5905803306
 20
124.250592004
 11
200.7688773306
 21
124.250575004
  0
LINE
  5
684
100
AcDbEntity
  8
0
100
AcDbLine
 62
7
  6
CONTINUOUS
 10
183.7020818727
 20
118.380660004
 11
183.8028237142
 21
118.3695009295
  0
LWPOLYLINE
  5
685
100
AcDbEntity
  8
0
100
AcDbPolyline
 62
7
  6
CONTINUOUS
 90
12
 70
0
 10
183.8028237142
 20
118.3695009295
 10
183.895672299
 20
118.3461006806
 10
183.9806276272
 20
118.3104592574
 10
184.0583525999
 20
118.2620657937
 10
184.128184316
 20
118.2014311556
 10
184.188134072
 20
118.1300879422
 10
184.2373145366
 20
118.0472331595
 10
184.2766130411
 20
117.9536698014
 10
184.3067028762
 20
117.8533394488
 10
184.3278084721
 20
117.7475559618
 10
184.3397053987
 20
117.6350054802
 10
184.3423936558
 20
117.515688004
  0
LINE
  5
686
100
AcDbEntity
  8
0
100
AcDbLine
 62
7
  6
CONTINUOUS
 10
198.4356453306
 20
118.640688004
 11
199.2848773306
 21
117.296329004
  0
LINE
  5
687
100
AcDbEntity
  8
0
100
AcDbLine
 62
7
  6
CONTINUOUS
 10
199.4353623306
 20
117.559451004
 11
198.7897503306
 21
118.640688004
  0
LINE
  5
688
100
AcDbEntity
  8
DRAFT
100
AcDbLine
 62
7
  6
CONTINUOUS
 10
175.9409990902
 20
171.1720503417
 11
176.2551663306
 21
170.5436680043
  0
LINE
  5
689
100
AcDbEntity
  8
0
100
AcDbLine
 62
7
  6
CONTINUOUS
 10
196.6087143306
 20
116.390688004
 11
195.7938193306
 21
118.640688004
  0
LINE
  5
68A
100
AcDbEntity
  8
0
100
AcDbLine
 62
7
  6
CONTINUOUS
 10
196.0539573306
 20
117.045581004
 11
196.2764463306
 21
116.390688004
  0
LINE
  5
68B
100
AcDbEntity
  8
0
100
AcDbLine
 62
7
  6
CONTINUOUS
 10
195.6090163306
 20
118.314329004
 11
195.9442503306
 21
117.315071004
  0
LINE
  5
68C
100
AcDbEntity
  8
ASSI
100
AcDbLine
 62
7
  6
CONTINUOUS
 10
195.5640703306
 20
122.968025004
 11
195.9902653306
 21
121.640536004
  0
LINE
  5
68D
100
AcDbEntity
  8
ASSI
100
AcDbLine
 62
7
  6
CONTINUOUS
 10
194.4979593306
 20
126.288468004
 11
195.1522533306
 21
124.250575004
  0
LINE
  5
68E
100
AcDbEntity
  8
ASSI
100
AcDbLine
 62
7
  6
CONTINUOUS
 10
197.3403333306
 20
121.640519004
 11
195.1730263306
 21
128.390840004
  0
LINE
  5
68F
100
AcDbEntity
  8
RACCORDO
100
AcDbLine
 62
7
  6
CONTINUOUS
 10
221.2551663306
 20
36.515688004
 11
221.2419237473
 21
36.5686785169
  0
LINE
  5
690
100
AcDbEntity
  8
DRAFT
100
AcDbLine
 62
7
  6
CONTINUOUS
 10
209.3551663306
 20
43.2375051735
 11
209.3551663306
 21
41.8593256664
  0
LINE
  5
691
100
AcDbEntity
  8
DRAFT
100
AcDbLine
 62
7
  6
CONTINUOUS
 10
209.3551663306
 20
169.7938708346
 11
209.3551663306
 21
171.1720503417
  0
LINE
  5
692
100
AcDbEntity
  8
DRAFT
100
AcDbLine
 62
7
  6
CONTINUOUS
 10
210.0250393117
 20
43.215688004
 11
210.0250393117
 21
41.815688004
  0
LINE
  5
693
100
AcDbEntity
  8
DRAFT
100
AcDbLine
 62
7
  6
CONTINUOUS
 10
210.0250393117
 20
169.815688004
 11
210.0250393117
 21
171.215688004
  0
LINE
  5
694
100
AcDbEntity
  8
DRAFT
100
AcDbLine
 62
7
  6
CONTINUOUS
 10
210.9852933496
 20
43.215688004
 11
210.9852933496
 21
41.815688004
  0
LINE
  5
695
100
AcDbEntity
  8
DRAFT
100
AcDbLine
 62
7
  6
CONTINUOUS
 10
210.9852933496
 20
169.815688004
 11
210.9852933496
 21
171.215688004
  0
LINE
  5
696
100
AcDbEntity
  8
DRAFT
100
AcDbLine
 62
7
  6
CONTINUOUS
 10
211.6551663306
 20
43.2375051735
 11
211.6551663306
 21
41.8593256664
  0
LINE
  5
697
100
AcDbEntity
  8
DRAFT
100
AcDbLine
 62
7
  6
CONTINUOUS
 10
211.6551663306
 20
169.7938708346
 11
211.6551663306
 21
171.1720503417
  0
LINE
  5
698
100
AcDbEntity
  8
DRAFT
100
AcDbLine
 62
7
  6
CONTINUOUS
 10
190.2582454966
 20
34.0283903193
 11
190.0051663306
 21
33.015688004
  0
LINE
  5
699
100
AcDbEntity
  8
ASSI
100
AcDbLine
 62
7
  6
CONTINUOUS
 10
203.7640983306
 20
90.286670004
 11
203.9815263306
 21
90.594908004
  0
LINE
  5
69A
100
AcDbEntity
  8
0
100
AcDbLine
 62
7
  6
CONTINUOUS
 10
189.2551663306
 20
75.515688004
 11
184.7551663306
 21
70.115688004
  0
LINE
  5
69B
100
AcDbEntity
  8
RACCORDO
100
AcDbLine
 62
250
  6
CONTINUOUS
 10
289.2554709171
 20
180.015688004
 11
286.8983189764
 21
177.6585360633
  0
LINE
  5
69C
100
AcDbEntity
  8
RACCORDO
100
AcDbLine
 62
250
  6
CONTINUOUS
 10
289.7551663306
 20
179.5159925905
 11
287.39801439
 21
177.1588406498
  0
LINE
  5
69D
100
AcDbEntity
  8
ASSI
100
AcDbLine
 62
7
  6
CONTINUOUS
 10
202.4798703306
 20
93.412379004
 11
203.5947022273
 21
94.351854917
  0
LWPOLYLINE
  5
69E
100
AcDbEntity
  8
0
100
AcDbPolyline
 62
7
  6
CONTINUOUS
 90
11
 70
0
 10
189.0075082878
 20
86.3650051499
 10
189.0921401955
 20
86.3899242637
 10
189.1702769425
 20
86.4240827459
 10
189.2413644346
 20
86.4672479221
 10
189.3037403898
 20
86.5187217688
 10
189.3571469554
 20
86.578577062
 10
189.4018419841
 20
86.6467410257
 10
189.4369367508
 20
86.7222973087
 10
189.4621350141
 20
86.8049404605
 10
189.4777330155
 20
86.8949759316
 10
189.4837307551
 20
86.9924037219
  0
LWPOLYLINE
  5
69F
100
AcDbEntity
  8
0
100
AcDbPolyline
 62
7
  6
CONTINUOUS
 90
11
 70
0
 10
196.844578955
 20
86.3650051499
 10
196.9292108627
 20
86.3899242637
 10
197.0073476097
 20
86.4240827459
 10
197.0784351018
 20
86.4672479221
 10
197.140811057
 20
86.5187217688
 10
197.1942176226
 20
86.578577062
 10
197.2389126513
 20
86.6467410257
 10
197.274007418
 20
86.7222973087
 10
197.2992056813
 20
86.8049404605
 10
197.3148036827
 20
86.8949759316
 10
197.3208014223
 20
86.9924037219
  0
LINE
  5
6A0
100
AcDbEntity
  8
RACCORDO
100
AcDbLine
 62
7
  6
CONTINUOUS
 10
94.7551663306
 20
105.765688004
 11
94.8081568435
 21
105.7789305874
  0
LINE
  5
6A1
100
AcDbEntity
  8
DRAFT
100
AcDbLine
 62
7
  6
CONTINUOUS
 10
89.7678686459
 20
107.51876717
 11
88.7551663306
 21
107.265688004
  0
LINE
  5
6A2
100
AcDbEntity
  8
ASSI
100
AcDbLine
 62
7
  6
CONTINUOUS
 10
201.2143579909
 20
125.499393004
 11
199.5718153306
 21
125.499393004
  0
LINE
  5
6A3
100
AcDbEntity
  8
ASSI
100
AcDbLine
 62
7
  6
CONTINUOUS
 10
199.5717993306
 20
127.142039004
 11
201.2143355986
 21
127.142039004
  0
LINE
  5
6A4
100
AcDbEntity
  8
ASSI
100
AcDbLine
 62
7
  6
CONTINUOUS
 10
190.7556073306
 20
128.390823004
 11
188.7146933306
 21
128.390823004
  0
LINE
  5
6A5
100
AcDbEntity
  8
ASSI
100
AcDbLine
 62
7
  6
CONTINUOUS
 10
186.1936023306
 20
128.390823004
 11
184.1526893306
 21
128.390823004
  0
LINE
  5
6A6
100
AcDbEntity
  8
ASSI
100
AcDbLine
 62
7
  6
CONTINUOUS
 10
182.8026893306
 20
128.390823004
 11
181.4526383306
 21
128.390823004
  0
LINE
  5
6A7
100
AcDbEntity
  8
ASSI
100
AcDbLine
 62
7
  6
CONTINUOUS
 10
180.5526103306
 20
128.390823004
 11
179.2025433306
 21
128.390823004
  0
LINE
  5
6A8
100
AcDbEntity
  8
ASSI
100
AcDbLine
 62
7
  6
CONTINUOUS
 10
176.2179803306
 20
128.390823004
 11
174.8679123306
 21
128.390823004
  0
LINE
  5
6A9
100
AcDbEntity
  8
ASSI
100
AcDbLine
 62
7
  6
CONTINUOUS
 10
201.4017497402
 20
128.390840004
 11
198.2403613306
 21
128.390840004
  0
LINE
  5
6AA
100
AcDbEntity
  8
ASSI
100
AcDbLine
 62
7
  6
CONTINUOUS
 10
195.1730263306
 20
128.390840004
 11
193.8229083306
 21
128.390840004
  0
LINE
  5
6AB
100
AcDbEntity
  8
0
100
AcDbLine
 62
7
  6
CONTINUOUS
 10
207.2551663306
 20
130.015688004
 11
171.2551663306
 21
130.015688004
  0
LINE
  5
6AC
100
AcDbEntity
  8
RACCORDO
100
AcDbLine
 62
7
  6
CONTINUOUS
 10
283.7551663306
 20
105.765688004
 11
283.7021758178
 21
105.7789305874
  0
LINE
  5
6AD
100
AcDbEntity
  8
DRAFT
100
AcDbLine
 62
7
  6
CONTINUOUS
 10
288.7424640154
 20
107.51876717
 11
289.7551663306
 21
107.265688004
  0
LINE
  5
6AE
100
AcDbEntity
  8
RACCORDO
100
AcDbLine
 62
250
  6
CONTINUOUS
 10
289.2554709171
 20
33.015688004
 11
286.8983189764
 21
35.3728399447
  0
LINE
  5
6AF
100
AcDbEntity
  8
RACCORDO
100
AcDbLine
 62
250
  6
CONTINUOUS
 10
289.7551663306
 20
33.5153834175
 11
287.39801439
 21
35.8725353582
  0
LINE
  5
6B0
100
AcDbEntity
  8
ASSI
100
AcDbLine
 62
7
  6
CONTINUOUS
 10
200.7688773306
 20
124.250575004
 11
202.1217973306
 21
121.640536004
  0
LINE
  5
6B1
100
AcDbEntity
  8
ASSI
100
AcDbLine
 62
7
  6
CONTINUOUS
 10
203.6424203306
 20
121.640553004
 11
202.2053594976
 21
124.4129354695
  0
LINE
  5
6B2
100
AcDbEntity
  8
DRAFT
100
AcDbLine
 62
7
  6
CONTINUOUS
 10
190.2582454966
 20
179.0029856888
 11
190.0051663306
 21
180.015688004
  0
LINE
  5
6B3
100
AcDbEntity
  8
DRAFT
100
AcDbLine
 62
7
  6
CONTINUOUS
 10
218.4409990902
 20
43.2375051735
 11
218.4409990902
 21
41.8593256664
  0
LINE
  5
6B4
100
AcDbEntity
  8
DRAFT
100
AcDbLine
 62
7
  6
CONTINUOUS
 10
218.4409990902
 20
169.7938708346
 11
218.4409990902
 21
171.1720503417
  0
LINE
  5
6B5
100
AcDbEntity
  8
DRAFT
100
AcDbLine
 62
7
  6
CONTINUOUS
 10
218.7551663306
 20
43.551672414
 11
218.7551663306
 21
42.4877080038
  0
LINE
  5
6B6
100
AcDbEntity
  8
DRAFT
100
AcDbLine
 62
7
  6
CONTINUOUS
 10
218.7551663306
 20
169.4797035941
 11
218.7551663306
 21
170.5436680043
  0
LINE
  5
6B7
100
AcDbEntity
  8
DRAFT
100
AcDbLine
 62
7
  6
CONTINUOUS
 10
219.7551663306
 20
180.015688004
 11
219.7551663306
 21
176.515688004
  0
LINE
  5
6B8
100
AcDbEntity
  8
DRAFT
100
AcDbLine
 62
7
  6
CONTINUOUS
 10
219.7551663306
 20
170.4266244282
 11
219.7551663306
 21
169.4797035941
  0
LINE
  5
6B9
100
AcDbEntity
  8
DRAFT
100
AcDbLine
 62
7
  6
CONTINUOUS
 10
219.7551663306
 20
36.515688004
 11
219.7551663306
 21
33.015688004
  0
LINE
  5
6BA
100
AcDbEntity
  8
RACCORDO
100
AcDbLine
 62
7
  6
CONTINUOUS
 10
219.7551663306
 20
36.515688004
 11
219.7551663306
 21
42.6047515799
  0
LINE
  5
6BB
100
AcDbEntity
  8
DRAFT
100
AcDbLine
 62
7
  6
CONTINUOUS
 10
219.7551663306
 20
42.6047515799
 11
219.7551663306
 21
43.551672414
  0
LINE
  5
6BC
100
AcDbEntity
  8
RACCORDO
100
AcDbLine
 62
7
  6
CONTINUOUS
 10
219.7551663306
 20
170.4266244282
 11
219.7551663306
 21
176.515688004
  0
LINE
  5
6BD
100
AcDbEntity
  8
RACCORDO
100
AcDbLine
 62
7
  6
CONTINUOUS
 10
221.2377125951
 20
37.0683739304
 11
221.2377125951
 21
41.2051853
  0
LINE
  5
6BE
100
AcDbEntity
  8
RACCORDO
100
AcDbLine
 62
7
  6
CONTINUOUS
 10
221.2377125951
 20
171.8261907081
 11
221.2377125951
 21
175.9630020776
  0
LINE
  5
6BF
100
AcDbEntity
  8
DRAFT
100
AcDbLine
 62
7
  6
CONTINUOUS
 10
221.2551663306
 20
33.015688004
 11
221.2551663306
 21
36.515688004
  0
LINE
  5
6C0
100
AcDbEntity
  8
DRAFT
100
AcDbLine
 62
7
  6
CONTINUOUS
 10
221.2551663306
 20
176.515688004
 11
221.2551663306
 21
180.015688004
  0
LINE
  5
6C1
100
AcDbEntity
  8
DRAFT
100
AcDbLine
 62
7
  6
CONTINUOUS
 10
221.8442299065
 20
177.6585360633
 11
221.8442299065
 21
170.4266244282
  0
LINE
  5
6C2
100
AcDbEntity
  8
DRAFT
100
AcDbLine
 62
7
  6
CONTINUOUS
 10
221.8442299065
 20
42.6047515799
 11
221.8442299065
 21
35.3728399447
  0
LINE
  5
6C3
100
AcDbEntity
  8
DRAFT
100
AcDbLine
 62
7
  6
CONTINUOUS
 10
102.9769835001
 20
134.215688004
 11
101.298803993
 21
134.215688004
  0
LINE
  5
6C4
100
AcDbEntity
  8
DRAFT
100
AcDbLine
 62
7
  6
CONTINUOUS
 10
275.5333491612
 20
134.215688004
 11
277.2115286683
 21
134.215688004
  0
LINE
  5
6C5
100
AcDbEntity
  8
DRAFT
100
AcDbLine
 62
7
  6
CONTINUOUS
 10
102.9551663306
 20
134.8855609851
 11
101.2551663306
 21
134.8855609851
  0
LINE
  5
6C6
100
AcDbEntity
  8
DRAFT
100
AcDbLine
 62
7
  6
CONTINUOUS
 10
275.5551663306
 20
134.8855609851
 11
277.2551663306
 21
134.8855609851
  0
LINE
  5
6C7
100
AcDbEntity
  8
DRAFT
100
AcDbLine
 62
7
  6
CONTINUOUS
 10
102.9551663306
 20
135.6797035941
 11
101.2551663306
 21
135.6797035941
  0
LINE
  5
6C8
100
AcDbEntity
  8
DRAFT
100
AcDbLine
 62
7
  6
CONTINUOUS
 10
275.5551663306
 20
135.6797035941
 11
277.2551663306
 21
135.6797035941
  0
LINE
  5
6C9
100
AcDbEntity
  8
DRAFT
100
AcDbLine
 62
7
  6
CONTINUOUS
 10
103.2911507406
 20
136.015688004
 11
101.9271863304
 21
136.015688004
  0
LINE
  5
6CA
100
AcDbEntity
  8
DRAFT
100
AcDbLine
 62
7
  6
CONTINUOUS
 10
275.2191819207
 20
136.015688004
 11
276.5831463309
 21
136.015688004
  0
LINE
  5
6CB
100
AcDbEntity
  8
DRAFT
100
AcDbLine
 62
7
  6
CONTINUOUS
 10
288.7424640154
 20
136.7626088381
 11
277.2551663306
 21
136.7626088381
  0
LINE
  5
6CC
100
AcDbEntity
  8
DRAFT
100
AcDbLine
 62
7
  6
CONTINUOUS
 10
89.7678686459
 20
136.7626088381
 11
101.2551663306
 21
136.7626088381
  0
LINE
  5
6CD
100
AcDbEntity
  8
DRAFT
100
AcDbLine
 62
7
  6
CONTINUOUS
 10
101.5911507406
 20
136.9938708346
 11
103.2911507406
 21
136.9938708346
  0
LINE
  5
6CE
100
AcDbEntity
  8
DRAFT
100
AcDbLine
 62
7
  6
CONTINUOUS
 10
275.2191819207
 20
136.9938708346
 11
276.9191819207
 21
136.9938708346
  0
LINE
  5
6CF
100
AcDbEntity
  8
RACCORDO
100
AcDbLine
 62
7
  6
CONTINUOUS
 10
88.7551663306
 20
137.015688004
 11
100.0107759541
 21
137.015688004
  0
LINE
  5
6D0
100
AcDbEntity
  8
RACCORDO
100
AcDbLine
 62
7
  6
CONTINUOUS
 10
278.4995567072
 20
137.015688004
 11
289.7551663306
 21
137.015688004
  0
LINE
  5
6D1
100
AcDbEntity
  8
0
100
AcDbLine
 62
7
  6
CONTINUOUS
 10
186.7551663306
 20
137.515688004
 11
191.7551663306
 21
137.515688004
  0
LINE
  5
6D2
100
AcDbEntity
  8
RACCORDO
100
AcDbLine
 62
7
  6
CONTINUOUS
 10
289.7551663306
 20
138.515688004
 11
278.4995567072
 21
138.515688004
  0
LINE
  5
6D3
100
AcDbEntity
  8
RACCORDO
100
AcDbLine
 62
7
  6
CONTINUOUS
 10
100.0107759541
 20
138.515688004
 11
88.7551663306
 21
138.515688004
  0
LINE
  5
6D4
100
AcDbEntity
  8
DRAFT
100
AcDbLine
 62
7
  6
CONTINUOUS
 10
287.39801439
 20
139.1047515799
 11
276.9191819207
 21
139.1047515799
  0
LINE
  5
6D5
100
AcDbEntity
  8
DRAFT
100
AcDbLine
 62
7
  6
CONTINUOUS
 10
91.1123182713
 20
139.1047515799
 11
101.5911507406
 21
139.1047515799
  0
LINE
  5
6D6
100
AcDbEntity
  8
0
100
AcDbLine
 62
7
  6
CONTINUOUS
 10
193.7551663306
 20
143.215688004
 11
189.2551663306
 21
148.615688004
  0
LINE
  5
6D7
100
AcDbEntity
  8
DRAFT
100
AcDbLine
 62
250
  6
CONTINUOUS
 10
230.2551663306
 20
167.265688004
 11
230.2551663306
 21
167.1609576145
  0
LINE
  5
6D8
100
AcDbEntity
  8
DRAFT
100
AcDbLine
 62
250
  6
CONTINUOUS
 10
230.2551663306
 20
51.265688004
 11
230.2551663306
 21
51.1609576145
  0
LINE
  5
6D9
100
AcDbEntity
  8
DRAFT
100
AcDbLine
 62
250
  6
CONTINUOUS
 10
230.2551663306
 20
45.765688004
 11
230.2551663306
 21
45.8704183936
  0
LINE
  5
6DA
100
AcDbEntity
  8
RACCORDO
100
AcDbLine
 62
250
  6
CONTINUOUS
 10
230.2551663306
 20
46.9196089829
 11
230.2551663306
 21
47.515688004
  0
LINE
  5
6DB
100
AcDbEntity
  8
RACCORDO
100
AcDbLine
 62
250
  6
CONTINUOUS
 10
230.2551663306
 20
49.515688004
 11
230.2551663306
 21
50.1117670252
  0
LINE
  5
6DC
100
AcDbEntity
  8
DRAFT
100
AcDbLine
 62
250
  6
CONTINUOUS
 10
230.2551663306
 20
161.765688004
 11
230.2551663306
 21
161.8704183936
  0
LINE
  5
6DD
100
AcDbEntity
  8
RACCORDO
100
AcDbLine
 62
250
  6
CONTINUOUS
 10
230.2551663306
 20
162.9196089829
 11
230.2551663306
 21
163.515688004
  0
LINE
  5
6DE
100
AcDbEntity
  8
RACCORDO
100
AcDbLine
 62
250
  6
CONTINUOUS
 10
230.2551663306
 20
165.515688004
 11
230.2551663306
 21
166.1117670252
  0
LINE
  5
6DF
100
AcDbEntity
  8
DRAFT
100
AcDbLine
 62
7
  6
CONTINUOUS
 10
201.2551663306
 20
42.4877080038
 11
200.9409990902
 21
41.8593256664
  0
LINE
  5
6E0
100
AcDbEntity
  8
DRAFT
100
AcDbLine
 62
7
  6
CONTINUOUS
 10
176.2551663306
 20
43.551672414
 11
175.9409990902
 21
43.2375051735
  0
LINE
  5
6E1
100
AcDbEntity
  8
RACCORDO
100
AcDbLine
 62
7
  6
CONTINUOUS
 10
277.4995947841
 20
137.0070372916
 11
277.2551663306
 21
136.7626088381
  0
LINE
  5
6E2
100
AcDbEntity
  8
RACCORDO
100
AcDbLine
 62
7
  6
CONTINUOUS
 10
271.7465156182
 20
107.8639300643
 11
271.1661027548
 21
107.515688004
  0
LINE
  5
6E3
100
AcDbEntity
  8
DRAFT
100
AcDbLine
 62
7
  6
CONTINUOUS
 10
275.2551663306
 20
107.8691204074
 11
274.6661027548
 21
107.515688004
  0
LINE
  5
6E4
100
AcDbEntity
  8
DRAFT
100
AcDbLine
 62
7
  6
CONTINUOUS
 10
277.2551663306
 20
109.0122556006
 11
277.5082454966
 21
109.1641006332
  0
LINE
  5
6E5
100
AcDbEntity
  8
DRAFT
100
AcDbLine
 62
7
  6
CONTINUOUS
 10
277.2289837333
 20
110.4385821123
 11
276.5831463309
 21
110.115688004
  0
LINE
  5
6E6
100
AcDbEntity
  8
DRAFT
100
AcDbLine
 62
7
  6
CONTINUOUS
 10
287.39801439
 20
153.265688004
 11
289.7551663306
 21
153.50130841
  0
LINE
  5
6E7
100
AcDbEntity
  8
0
100
AcDbLine
 62
7
  6
CONTINUOUS
 10
184.7551663306
 20
143.215688004
 11
186.7551663306
 21
143.215688004
  0
LINE
  5
6E8
100
AcDbEntity
  8
0
100
AcDbLine
 62
7
  6
CONTINUOUS
 10
191.7551663306
 20
143.215688004
 11
193.7551663306
 21
143.215688004
  0
LINE
  5
6E9
100
AcDbEntity
  8
DRAFT
100
AcDbLine
 62
7
  6
CONTINUOUS
 10
91.1123182713
 20
153.265688004
 11
88.7551663306
 21
153.50130841
  0
LINE
  5
6EA
100
AcDbEntity
  8
DRAFT
100
AcDbLine
 62
7
  6
CONTINUOUS
 10
276.5831463309
 20
102.915688004
 11
277.2289837333
 21
102.5927938958
  0
LINE
  5
6EB
100
AcDbEntity
  8
RACCORDO
100
AcDbLine
 62
7
  6
CONTINUOUS
 10
271.7465156182
 20
105.1674459438
 11
271.1661027548
 21
105.515688004
  0
LINE
  5
6EC
100
AcDbEntity
  8
DRAFT
100
AcDbLine
 62
7
  6
CONTINUOUS
 10
275.2551663306
 20
105.1622556006
 11
274.6661027548
 21
105.515688004
  0
LINE
  5
6ED
100
AcDbEntity
  8
DRAFT
100
AcDbLine
 62
7
  6
CONTINUOUS
 10
277.2551663306
 20
104.0191204074
 11
277.5082454966
 21
103.8672753749
  0
LINE
  5
6EE
100
AcDbEntity
  8
DRAFT
100
AcDbLine
 62
7
  6
CONTINUOUS
 10
175.9409990902
 20
169.7938708346
 11
176.2551663306
 21
169.4797035941
  0
LINE
  5
6EF
100
AcDbEntity
  8
RACCORDO
100
AcDbLine
 62
7
  6
CONTINUOUS
 10
277.4995947841
 20
76.0243387165
 11
277.2551663306
 21
76.26876717
  0
LINE
  5
6F0
100
AcDbEntity
  8
DRAFT
100
AcDbLine
 62
7
  6
CONTINUOUS
 10
200.9409990902
 20
171.1720503417
 11
201.2551663306
 21
170.5436680043
  0
LINE
  5
6F1
100
AcDbEntity
  8
DRAFT
100
AcDbLine
 62
7
  6
CONTINUOUS
 10
221.8442299065
 20
35.3728399447
 11
221.2551663306
 21
33.015688004
  0
LINE
  5
6F2
100
AcDbEntity
  8
DRAFT
100
AcDbLine
 62
7
  6
CONTINUOUS
 10
190.0051663306
 20
41.5626088381
 11
190.2582454966
 21
41.815688004
  0
LINE
  5
6F3
100
AcDbEntity
  8
RACCORDO
100
AcDbLine
 62
7
  6
CONTINUOUS
 10
271.7465156182
 20
104.0139300643
 11
271.1661027548
 21
103.665688004
  0
LINE
  5
6F4
100
AcDbEntity
  8
DRAFT
100
AcDbLine
 62
7
  6
CONTINUOUS
 10
287.39801439
 20
153.265688004
 11
284.198596314
 21
153.265688004
  0
LINE
  5
6F5
100
AcDbEntity
  8
DRAFT
100
AcDbLine
 62
7
  6
CONTINUOUS
 10
91.1123182713
 20
153.265688004
 11
94.3117363473
 21
153.265688004
  0
LINE
  5
6F6
100
AcDbEntity
  8
DRAFT
100
AcDbLine
 62
7
  6
CONTINUOUS
 10
95.5653206168
 20
153.4053149113
 11
94.6444667389
 21
153.4053149113
  0
LINE
  5
6F7
100
AcDbEntity
  8
DRAFT
100
AcDbLine
 62
7
  6
CONTINUOUS
 10
282.9450120445
 20
153.4053149113
 11
283.8658659224
 21
153.4053149113
  0
LINE
  5
6F8
100
AcDbEntity
  8
RACCORDO
100
AcDbLine
 62
7
  6
CONTINUOUS
 10
88.7551663306
 20
153.50130841
 11
96.0941375577
 21
153.50130841
  0
LINE
  5
6F9
100
AcDbEntity
  8
RACCORDO
100
AcDbLine
 62
7
  6
CONTINUOUS
 10
282.4161951036
 20
153.50130841
 11
289.7551663306
 21
153.50130841
  0
LINE
  5
6FA
100
AcDbEntity
  8
RACCORDO
100
AcDbLine
 62
7
  6
CONTINUOUS
 10
289.7551663306
 20
154.530067598
 11
282.4161951036
 21
154.530067598
  0
LINE
  5
6FB
100
AcDbEntity
  8
RACCORDO
100
AcDbLine
 62
7
  6
CONTINUOUS
 10
96.0941375577
 20
154.530067598
 11
88.7551663306
 21
154.530067598
  0
LINE
  5
6FC
100
AcDbEntity
  8
DRAFT
100
AcDbLine
 62
7
  6
CONTINUOUS
 10
95.5653206168
 20
154.6260610968
 11
94.6444667389
 21
154.6260610968
  0
LINE
  5
6FD
100
AcDbEntity
  8
DRAFT
100
AcDbLine
 62
7
  6
CONTINUOUS
 10
282.9450120445
 20
154.6260610968
 11
283.8658659224
 21
154.6260610968
  0
LINE
  5
6FE
100
AcDbEntity
  8
DRAFT
100
AcDbLine
 62
7
  6
CONTINUOUS
 10
287.39801439
 20
154.765688004
 11
284.198596314
 21
154.765688004
  0
LINE
  5
6FF
100
AcDbEntity
  8
DRAFT
100
AcDbLine
 62
7
  6
CONTINUOUS
 10
91.1123182713
 20
154.765688004
 11
94.3117363473
 21
154.765688004
  0
LWPOLYLINE
  5
700
100
AcDbEntity
  8
RACCORDO
100
AcDbPolyline
 62
7
  6
CONTINUOUS
 90
4
 70
0
 10
95.8619264194
 20
154.5304420835
 10
95.8104562474
 20
154.5307449146
 10
95.7967406059
 20
154.5309175854
 10
95.7907013114
 20
154.5311056614
  0
LWPOLYLINE
  5
701
100
AcDbEntity
  8
RACCORDO
100
AcDbPolyline
 62
7
  6
CONTINUOUS
 90
4
 70
0
 10
282.6484062419
 20
153.5009339245
 10
282.6998764139
 20
153.5006310935
 10
282.7135920554
 20
153.5004584227
 10
282.7196313499
 20
153.5002703467
  0
LINE
  5
702
100
AcDbEntity
  8
RACCORDO
100
AcDbLine
 62
7
  6
CONTINUOUS
 10
271.7465156182
 20
109.0174459438
 11
271.1661027548
 21
109.365688004
  0
LINE
  5
703
100
AcDbEntity
  8
DRAFT
100
AcDbLine
 62
7
  6
CONTINUOUS
 10
190.0051663306
 20
171.46876717
 11
190.2582454966
 21
171.215688004
  0
LINE
  5
704
100
AcDbEntity
  8
DRAFT
100
AcDbLine
 62
7
  6
CONTINUOUS
 10
221.2551663306
 20
180.015688004
 11
221.8442299065
 21
177.6585360633
  0
LINE
  5
705
100
AcDbEntity
  8
DRAFT
100
AcDbLine
 62
250
  6
CONTINUOUS
 10
248.2551663306
 20
167.265688004
 11
248.2551663306
 21
167.1609576145
  0
LINE
  5
706
100
AcDbEntity
  8
DRAFT
100
AcDbLine
 62
250
  6
CONTINUOUS
 10
248.2551663306
 20
51.265688004
 11
248.2551663306
 21
51.1609576145
  0
LINE
  5
707
100
AcDbEntity
  8
DRAFT
100
AcDbLine
 62
250
  6
CONTINUOUS
 10
248.2551663306
 20
45.765688004
 11
248.2551663306
 21
45.8704183936
  0
LINE
  5
708
100
AcDbEntity
  8
RACCORDO
100
AcDbLine
 62
250
  6
CONTINUOUS
 10
248.2551663306
 20
46.9196089829
 11
248.2551663306
 21
47.515688004
  0
LINE
  5
709
100
AcDbEntity
  8
RACCORDO
100
AcDbLine
 62
250
  6
CONTINUOUS
 10
248.2551663306
 20
49.515688004
 11
248.2551663306
 21
50.1117670252
  0
LINE
  5
70A
100
AcDbEntity
  8
DRAFT
100
AcDbLine
 62
250
  6
CONTINUOUS
 10
248.2551663306
 20
161.765688004
 11
248.2551663306
 21
161.8704183936
  0
LINE
  5
70B
100
AcDbEntity
  8
RACCORDO
100
AcDbLine
 62
250
  6
CONTINUOUS
 10
248.2551663306
 20
162.9196089829
 11
248.2551663306
 21
163.515688004
  0
LINE
  5
70C
100
AcDbEntity
  8
RACCORDO
100
AcDbLine
 62
250
  6
CONTINUOUS
 10
248.2551663306
 20
165.515688004
 11
248.2551663306
 21
166.1117670252
  0
LINE
  5
70D
100
AcDbEntity
  8
DRAFT
100
AcDbLine
 62
7
  6
CONTINUOUS
 10
218.7551663306
 20
42.4877080038
 11
218.4409990902
 21
41.8593256664
  0
LINE
  5
70E
100
AcDbEntity
  8
DRAFT
100
AcDbLine
 62
7
  6
CONTINUOUS
 10
201.2551663306
 20
43.551672414
 11
200.9409990902
 21
43.2375051735
  0
LINE
  5
70F
100
AcDbEntity
  8
DRAFT
100
AcDbLine
 62
7
  6
CONTINUOUS
 10
275.5551663306
 20
110.451672414
 11
275.2191819207
 21
110.115688004
  0
LINE
  5
710
100
AcDbEntity
  8
DRAFT
100
AcDbLine
 62
7
  6
CONTINUOUS
 10
88.7551663306
 20
138.515688004
 11
91.1123182713
 21
139.1047515799
  0
LINE
  5
711
100
AcDbEntity
  8
DRAFT
100
AcDbLine
 62
7
  6
CONTINUOUS
 10
91.1123182713
 20
154.765688004
 11
88.7551663306
 21
154.530067598
  0
LINE
  5
712
100
AcDbEntity
  8
DRAFT
100
AcDbLine
 62
7
  6
CONTINUOUS
 10
130.2551663306
 20
161.765688004
 11
148.2551663306
 21
161.765688004
  0
LINE
  5
713
100
AcDbEntity
  8
DRAFT
100
AcDbLine
 62
7
  6
CONTINUOUS
 10
230.2551663306
 20
161.765688004
 11
248.2551663306
 21
161.765688004
  0
LINE
  5
714
100
AcDbEntity
  8
DRAFT
100
AcDbLine
 62
7
  6
CONTINUOUS
 10
130.2551663306
 20
161.8704183936
 11
148.2551663306
 21
161.8704183936
  0
LINE
  5
715
100
AcDbEntity
  8
DRAFT
100
AcDbLine
 62
7
  6
CONTINUOUS
 10
230.2551663306
 20
161.8704183936
 11
248.2551663306
 21
161.8704183936
  0
LINE
  5
716
100
AcDbEntity
  8
RACCORDO
100
AcDbLine
 62
250
  6
CONTINUOUS
 10
248.2551663306
 20
162.9196089829
 11
230.2551663306
 21
162.9196089829
  0
LINE
  5
717
100
AcDbEntity
  8
RACCORDO
100
AcDbLine
 62
250
  6
CONTINUOUS
 10
148.2551663306
 20
162.9196089829
 11
130.2551663306
 21
162.9196089829
  0
LINE
  5
718
100
AcDbEntity
  8
RACCORDO
100
AcDbLine
 62
250
  6
CONTINUOUS
 10
279.7695459246
 20
163.3154804658
 11
278.7407867367
 21
163.3154804658
  0
LINE
  5
719
100
AcDbEntity
  8
RACCORDO
100
AcDbLine
 62
250
  6
CONTINUOUS
 10
99.7695459246
 20
163.3154804658
 11
98.7407867367
 21
163.3154804658
  0
LINE
  5
71A
100
AcDbEntity
  8
RACCORDO
100
AcDbLine
 62
250
  6
CONTINUOUS
 10
248.2551663306
 20
163.4195328305
 11
230.2551663306
 21
163.4195328305
  0
LINE
  5
71B
100
AcDbEntity
  8
RACCORDO
100
AcDbLine
 62
250
  6
CONTINUOUS
 10
148.2551663306
 20
163.4195328305
 11
130.2551663306
 21
163.4195328305
  0
LINE
  5
71C
100
AcDbEntity
  8
DRAFT
100
AcDbLine
 62
7
  6
CONTINUOUS
 10
248.2551663306
 20
163.515688004
 11
230.2551663306
 21
163.515688004
  0
LINE
  5
71D
100
AcDbEntity
  8
DRAFT
100
AcDbLine
 62
7
  6
CONTINUOUS
 10
148.2551663306
 20
163.515688004
 11
130.2551663306
 21
163.515688004
  0
LINE
  5
71E
100
AcDbEntity
  8
DRAFT
100
AcDbLine
 62
7
  6
CONTINUOUS
 10
262.7551663306
 20
164.2342688872
 11
265.7551663306
 21
164.2342688872
  0
LINE
  5
71F
100
AcDbEntity
  8
RACCORDO
100
AcDbLine
 62
250
  6
CONTINUOUS
 10
279.7718427169
 20
164.2551730866
 11
278.7384899443
 21
164.2551730866
  0
LINE
  5
720
100
AcDbEntity
  8
RACCORDO
100
AcDbLine
 62
250
  6
CONTINUOUS
 10
99.7718427169
 20
164.2551730866
 11
98.7384899443
 21
164.2551730866
  0
LINE
  5
721
100
AcDbEntity
  8
DRAFT
100
AcDbLine
 62
7
  6
CONTINUOUS
 10
262.7551663306
 20
164.265688004
 11
265.7551663306
 21
164.265688004
  0
LINE
  5
722
100
AcDbEntity
  8
DRAFT
100
AcDbLine
 62
250
  6
CONTINUOUS
 10
116.5365854475
 20
165.015688004
 11
116.5051663306
 21
165.015688004
  0
LINE
  5
723
100
AcDbEntity
  8
DRAFT
100
AcDbLine
 62
250
  6
CONTINUOUS
 10
111.9737472138
 20
165.015688004
 11
112.0051663306
 21
165.015688004
  0
LINE
  5
724
100
AcDbEntity
  8
DRAFT
100
AcDbLine
 62
7
  6
CONTINUOUS
 10
130.2551663306
 20
165.515688004
 11
148.2551663306
 21
165.515688004
  0
LINE
  5
725
100
AcDbEntity
  8
DRAFT
100
AcDbLine
 62
7
  6
CONTINUOUS
 10
230.2551663306
 20
165.515688004
 11
248.2551663306
 21
165.515688004
  0
LINE
  5
726
100
AcDbEntity
  8
RACCORDO
100
AcDbLine
 62
250
  6
CONTINUOUS
 10
130.2551663306
 20
165.6118431776
 11
148.2551663306
 21
165.6118431776
  0
LINE
  5
727
100
AcDbEntity
  8
RACCORDO
100
AcDbLine
 62
250
  6
CONTINUOUS
 10
230.2551663306
 20
165.6118431776
 11
248.2551663306
 21
165.6118431776
  0
LINE
  5
728
100
AcDbEntity
  8
RACCORDO
100
AcDbLine
 62
250
  6
CONTINUOUS
 10
130.2551663306
 20
166.1117670252
 11
148.2551663306
 21
166.1117670252
  0
LINE
  5
729
100
AcDbEntity
  8
RACCORDO
100
AcDbLine
 62
250
  6
CONTINUOUS
 10
230.2551663306
 20
166.1117670252
 11
248.2551663306
 21
166.1117670252
  0
LINE
  5
72A
100
AcDbEntity
  8
DRAFT
100
AcDbLine
 62
7
  6
CONTINUOUS
 10
248.2551663306
 20
167.1609576145
 11
230.2551663306
 21
167.1609576145
  0
LINE
  5
72B
100
AcDbEntity
  8
DRAFT
100
AcDbLine
 62
7
  6
CONTINUOUS
 10
148.2551663306
 20
167.1609576145
 11
130.2551663306
 21
167.1609576145
  0
LINE
  5
72C
100
AcDbEntity
  8
DRAFT
100
AcDbLine
 62
7
  6
CONTINUOUS
 10
248.2551663306
 20
167.265688004
 11
230.2551663306
 21
167.265688004
  0
LINE
  5
72D
100
AcDbEntity
  8
DRAFT
100
AcDbLine
 62
7
  6
CONTINUOUS
 10
148.2551663306
 20
167.265688004
 11
130.2551663306
 21
167.265688004
  0
LINE
  5
72E
100
AcDbEntity
  8
DRAFT
100
AcDbLine
 62
7
  6
CONTINUOUS
 10
287.39801439
 20
154.765688004
 11
289.7551663306
 21
154.530067598
  0
LINE
  5
72F
100
AcDbEntity
  8
DRAFT
100
AcDbLine
 62
7
  6
CONTINUOUS
 10
287.39801439
 20
139.1047515799
 11
289.7551663306
 21
138.515688004
  0
LINE
  5
730
100
AcDbEntity
  8
DRAFT
100
AcDbLine
 62
7
  6
CONTINUOUS
 10
200.9409990902
 20
169.7938708346
 11
201.2551663306
 21
169.4797035941
  0
LINE
  5
731
100
AcDbEntity
  8
DRAFT
100
AcDbLine
 62
7
  6
CONTINUOUS
 10
275.2191819207
 20
102.915688004
 11
275.5551663306
 21
102.5797035941
  0
LINE
  5
732
100
AcDbEntity
  8
DRAFT
100
AcDbLine
 62
7
  6
CONTINUOUS
 10
218.4409990902
 20
171.1720503417
 11
218.7551663306
 21
170.5436680043
  0
LINE
  5
733
100
AcDbEntity
  8
DRAFT
100
AcDbLine
 62
7
  6
CONTINUOUS
 10
280.0051663306
 20
158.9591179874
 11
279.8655394234
 21
158.6263875958
  0
LINE
  5
734
100
AcDbEntity
  8
RACCORDO
100
AcDbLine
 62
7
  6
CONTINUOUS
 10
279.770583988
 20
157.4801530233
 11
279.8655394234
 21
157.7055337179
  0
LINE
  5
735
100
AcDbEntity
  8
DRAFT
100
AcDbLine
 62
7
  6
CONTINUOUS
 10
277.5082454966
 20
107.51876717
 11
277.2551663306
 21
107.265688004
  0
LINE
  5
736
100
AcDbEntity
  8
DRAFT
100
AcDbLine
 62
7
  6
CONTINUOUS
 10
218.7551663306
 20
43.551672414
 11
218.4409990902
 21
43.2375051735
  0
LINE
  5
737
100
AcDbEntity
  8
RACCORDO
100
AcDbLine
 62
7
  6
CONTINUOUS
 10
221.244633165
 20
42.0051548384
 11
221.8442299065
 21
42.6047515799
  0
LINE
  5
738
100
AcDbEntity
  8
DRAFT
100
AcDbLine
 62
7
  6
CONTINUOUS
 10
277.2289837333
 20
77.3385821123
 11
276.5831463309
 21
77.015688004
  0
LINE
  5
739
100
AcDbEntity
  8
DRAFT
100
AcDbLine
 62
7
  6
CONTINUOUS
 10
209.3551663306
 20
171.1720503417
 11
209.6231155231
 21
171.1895054066
  0
LINE
  5
73A
100
AcDbEntity
  8
DRAFT
100
AcDbLine
 62
7
  6
CONTINUOUS
 10
188.1051663306
 20
171.1720503417
 11
188.3731155231
 21
171.1895054066
  0
LINE
  5
73B
100
AcDbEntity
  8
DRAFT
100
AcDbLine
 62
7
  6
CONTINUOUS
 10
166.8551663306
 20
171.1720503417
 11
167.1231155231
 21
171.1895054066
  0
LINE
  5
73C
100
AcDbEntity
  8
DRAFT
100
AcDbLine
 62
7
  6
CONTINUOUS
 10
204.4551663306
 20
169.4884304619
 11
204.1872171382
 21
169.4797035941
  0
LINE
  5
73D
100
AcDbEntity
  8
DRAFT
100
AcDbLine
 62
7
  6
CONTINUOUS
 10
209.3551663306
 20
169.7938708346
 11
210.0250393117
 21
169.815688004
  0
LINE
  5
73E
100
AcDbEntity
  8
DRAFT
100
AcDbLine
 62
7
  6
CONTINUOUS
 10
179.4551663306
 20
169.4884304619
 11
179.1872171382
 21
169.4797035941
  0
LINE
  5
73F
100
AcDbEntity
  8
DRAFT
100
AcDbLine
 62
7
  6
CONTINUOUS
 10
188.1051663306
 20
169.7938708346
 11
188.7750393117
 21
169.815688004
  0
LINE
  5
740
100
AcDbEntity
  8
DRAFT
100
AcDbLine
 62
7
  6
CONTINUOUS
 10
161.9551663306
 20
169.4884304619
 11
161.6872171382
 21
169.4797035941
  0
LINE
  5
741
100
AcDbEntity
  8
DRAFT
100
AcDbLine
 62
7
  6
CONTINUOUS
 10
166.8551663306
 20
169.7938708346
 11
167.5250393117
 21
169.815688004
  0
LINE
  5
742
100
AcDbEntity
  8
DRAFT
100
AcDbLine
 62
7
  6
CONTINUOUS
 10
188.3731155231
 20
171.2025977023
 11
188.7750393117
 21
171.215688004
  0
LINE
  5
743
100
AcDbEntity
  8
DRAFT
100
AcDbLine
 62
250
  6
CONTINUOUS
 10
116.5365854475
 20
168.015688004
 11
116.5051663306
 21
168.015688004
  0
LINE
  5
744
100
AcDbEntity
  8
DRAFT
100
AcDbLine
 62
250
  6
CONTINUOUS
 10
111.9737472138
 20
168.015688004
 11
112.0051663306
 21
168.015688004
  0
LINE
  5
745
100
AcDbEntity
  8
DRAFT
100
AcDbLine
 62
7
  6
CONTINUOUS
 10
265.7551663306
 20
168.765688004
 11
262.7551663306
 21
168.765688004
  0
LINE
  5
746
100
AcDbEntity
  8
DRAFT
100
AcDbLine
 62
7
  6
CONTINUOUS
 10
265.7551663306
 20
168.7971071209
 11
262.7551663306
 21
168.7971071209
  0
LINE
  5
747
100
AcDbEntity
  8
DRAFT
100
AcDbLine
 62
7
  6
CONTINUOUS
 10
219.7551663306
 20
169.4797035941
 11
158.7551663306
 21
169.4797035941
  0
LINE
  5
748
100
AcDbEntity
  8
DRAFT
100
AcDbLine
 62
7
  6
CONTINUOUS
 10
216.5551663306
 20
169.4884304619
 11
204.4551663306
 21
169.4884304619
  0
LINE
  5
749
100
AcDbEntity
  8
DRAFT
100
AcDbLine
 62
7
  6
CONTINUOUS
 10
199.0551663306
 20
169.4884304619
 11
179.4551663306
 21
169.4884304619
  0
LINE
  5
74A
100
AcDbEntity
  8
DRAFT
100
AcDbLine
 62
7
  6
CONTINUOUS
 10
174.0551663306
 20
169.4884304619
 11
161.9551663306
 21
169.4884304619
  0
LINE
  5
74B
100
AcDbEntity
  8
DRAFT
100
AcDbLine
 62
7
  6
CONTINUOUS
 10
160.0693335711
 20
169.7938708346
 11
166.8551663306
 21
169.7938708346
  0
LINE
  5
74C
100
AcDbEntity
  8
DRAFT
100
AcDbLine
 62
7
  6
CONTINUOUS
 10
169.1551663306
 20
169.7938708346
 11
175.9409990902
 21
169.7938708346
  0
LINE
  5
74D
100
AcDbEntity
  8
DRAFT
100
AcDbLine
 62
7
  6
CONTINUOUS
 10
177.5693335711
 20
169.7938708346
 11
188.1051663306
 21
169.7938708346
  0
LINE
  5
74E
100
AcDbEntity
  8
DRAFT
100
AcDbLine
 62
7
  6
CONTINUOUS
 10
190.4051663306
 20
169.7938708346
 11
200.9409990902
 21
169.7938708346
  0
LINE
  5
74F
100
AcDbEntity
  8
DRAFT
100
AcDbLine
 62
7
  6
CONTINUOUS
 10
202.5693335711
 20
169.7938708346
 11
209.3551663306
 21
169.7938708346
  0
LINE
  5
750
100
AcDbEntity
  8
DRAFT
100
AcDbLine
 62
7
  6
CONTINUOUS
 10
211.6551663306
 20
169.7938708346
 11
218.4409990902
 21
169.7938708346
  0
LINE
  5
751
100
AcDbEntity
  8
DRAFT
100
AcDbLine
 62
7
  6
CONTINUOUS
 10
167.5250393117
 20
169.815688004
 11
168.4852933496
 21
169.815688004
  0
LINE
  5
752
100
AcDbEntity
  8
DRAFT
100
AcDbLine
 62
7
  6
CONTINUOUS
 10
188.7750393117
 20
169.815688004
 11
189.7352933496
 21
169.815688004
  0
LINE
  5
753
100
AcDbEntity
  8
DRAFT
100
AcDbLine
 62
7
  6
CONTINUOUS
 10
210.0250393117
 20
169.815688004
 11
210.9852933496
 21
169.815688004
  0
LINE
  5
754
100
AcDbEntity
  8
DRAFT
100
AcDbLine
 62
7
  6
CONTINUOUS
 10
156.6661027548
 20
170.4266244282
 11
158.7551663306
 21
170.4266244282
  0
LINE
  5
755
100
AcDbEntity
  8
DRAFT
100
AcDbLine
 62
7
  6
CONTINUOUS
 10
219.7551663306
 20
170.4266244282
 11
221.8442299065
 21
170.4266244282
  0
LINE
  5
756
100
AcDbEntity
  8
RACCORDO
100
AcDbLine
 62
7
  6
CONTINUOUS
 10
157.2656994963
 20
171.0262211696
 11
158.7551663306
 21
171.0262211696
  0
LINE
  5
757
100
AcDbEntity
  8
RACCORDO
100
AcDbLine
 62
7
  6
CONTINUOUS
 10
219.7551663306
 20
171.0262211696
 11
221.244633165
 21
171.0262211696
  0
LINE
  5
758
100
AcDbEntity
  8
DRAFT
100
AcDbLine
 62
7
  6
CONTINUOUS
 10
160.0693335711
 20
171.1720503417
 11
166.8551663306
 21
171.1720503417
  0
LINE
  5
759
100
AcDbEntity
  8
DRAFT
100
AcDbLine
 62
7
  6
CONTINUOUS
 10
169.1551663306
 20
171.1720503417
 11
175.9409990902
 21
171.1720503417
  0
LINE
  5
75A
100
AcDbEntity
  8
DRAFT
100
AcDbLine
 62
7
  6
CONTINUOUS
 10
177.5693335711
 20
171.1720503417
 11
188.1051663306
 21
171.1720503417
  0
LINE
  5
75B
100
AcDbEntity
  8
DRAFT
100
AcDbLine
 62
7
  6
CONTINUOUS
 10
190.4051663306
 20
171.1720503417
 11
200.9409990902
 21
171.1720503417
  0
LINE
  5
75C
100
AcDbEntity
  8
DRAFT
100
AcDbLine
 62
7
  6
CONTINUOUS
 10
202.5693335711
 20
171.1720503417
 11
209.3551663306
 21
171.1720503417
  0
LINE
  5
75D
100
AcDbEntity
  8
DRAFT
100
AcDbLine
 62
7
  6
CONTINUOUS
 10
211.6551663306
 20
171.1720503417
 11
218.4409990902
 21
171.1720503417
  0
LINE
  5
75E
100
AcDbEntity
  8
DRAFT
100
AcDbLine
 62
7
  6
CONTINUOUS
 10
219.7551663306
 20
171.215688004
 11
210.9852933496
 21
171.215688004
  0
LINE
  5
75F
100
AcDbEntity
  8
DRAFT
100
AcDbLine
 62
7
  6
CONTINUOUS
 10
210.0250393117
 20
171.215688004
 11
190.2582454966
 21
171.215688004
  0
LINE
  5
760
100
AcDbEntity
  8
DRAFT
100
AcDbLine
 62
7
  6
CONTINUOUS
 10
188.2520871647
 20
171.215688004
 11
168.4852933496
 21
171.215688004
  0
LINE
  5
761
100
AcDbEntity
  8
DRAFT
100
AcDbLine
 62
7
  6
CONTINUOUS
 10
167.5250393117
 20
171.215688004
 11
158.7551663306
 21
171.215688004
  0
LINE
  5
762
100
AcDbEntity
  8
DRAFT
100
AcDbLine
 62
7
  6
CONTINUOUS
 10
188.7750393117
 20
171.215688004
 11
189.7352933496
 21
171.215688004
  0
LINE
  5
763
100
AcDbEntity
  8
DRAFT
100
AcDbLine
 62
7
  6
CONTINUOUS
 10
190.0051663306
 20
171.46876717
 11
188.5051663306
 21
171.46876717
  0
LINE
  5
764
100
AcDbEntity
  8
RACCORDO
100
AcDbLine
 62
250
  6
CONTINUOUS
 10
157.2726200662
 20
171.8261907081
 11
158.7551663306
 21
171.8261907081
  0
LINE
  5
765
100
AcDbEntity
  8
RACCORDO
100
AcDbLine
 62
250
  6
CONTINUOUS
 10
219.7551663306
 20
171.8261907081
 11
221.2377125951
 21
171.8261907081
  0
LINE
  5
766
100
AcDbEntity
  8
RACCORDO
100
AcDbLine
 62
250
  6
CONTINUOUS
 10
279.8632426311
 20
173.7853843638
 11
278.6470900302
 21
173.7853843638
  0
LINE
  5
767
100
AcDbEntity
  8
RACCORDO
100
AcDbLine
 62
250
  6
CONTINUOUS
 10
99.8632426311
 20
173.7853843638
 11
98.6470900302
 21
173.7853843638
  0
LINE
  5
768
100
AcDbEntity
  8
RACCORDO
100
AcDbLine
 62
250
  6
CONTINUOUS
 10
279.8655394234
 20
174.7250769846
 11
278.6447932379
 21
174.7250769846
  0
LINE
  5
769
100
AcDbEntity
  8
RACCORDO
100
AcDbLine
 62
250
  6
CONTINUOUS
 10
99.8655394234
 20
174.7250769846
 11
98.6447932379
 21
174.7250769846
  0
LINE
  5
76A
100
AcDbEntity
  8
DRAFT
100
AcDbLine
 62
7
  6
CONTINUOUS
 10
174.3231155231
 20
169.4797035941
 11
174.0551663306
 21
169.4884304619
  0
LINE
  5
76B
100
AcDbEntity
  8
DRAFT
100
AcDbLine
 62
7
  6
CONTINUOUS
 10
168.4852933496
 20
169.815688004
 11
169.1551663306
 21
169.7938708346
  0
LINE
  5
76C
100
AcDbEntity
  8
DRAFT
100
AcDbLine
 62
7
  6
CONTINUOUS
 10
199.3231155231
 20
169.4797035941
 11
199.0551663306
 21
169.4884304619
  0
LINE
  5
76D
100
AcDbEntity
  8
DRAFT
100
AcDbLine
 62
7
  6
CONTINUOUS
 10
189.7352933496
 20
169.815688004
 11
190.4051663306
 21
169.7938708346
  0
LINE
  5
76E
100
AcDbEntity
  8
DRAFT
100
AcDbLine
 62
7
  6
CONTINUOUS
 10
216.8231155231
 20
169.4797035941
 11
216.5551663306
 21
169.4884304619
  0
LINE
  5
76F
100
AcDbEntity
  8
DRAFT
100
AcDbLine
 62
7
  6
CONTINUOUS
 10
210.9852933496
 20
169.815688004
 11
211.6551663306
 21
169.7938708346
  0
LINE
  5
770
100
AcDbEntity
  8
DRAFT
100
AcDbLine
 62
7
  6
CONTINUOUS
 10
190.1372171382
 20
171.2025977023
 11
189.7352933496
 21
171.215688004
  0
LINE
  5
771
100
AcDbEntity
  8
DRAFT
100
AcDbLine
 62
7
  6
CONTINUOUS
 10
168.8872171382
 20
171.1895054066
 11
169.1551663306
 21
171.1720503417
  0
LINE
  5
772
100
AcDbEntity
  8
DRAFT
100
AcDbLine
 62
7
  6
CONTINUOUS
 10
190.1372171382
 20
171.1895054066
 11
190.4051663306
 21
171.1720503417
  0
LINE
  5
773
100
AcDbEntity
  8
DRAFT
100
AcDbLine
 62
7
  6
CONTINUOUS
 10
211.3872171382
 20
171.1895054066
 11
211.6551663306
 21
171.1720503417
  0
LINE
  5
774
100
AcDbEntity
  8
DRAFT
100
AcDbLine
 62
7
  6
CONTINUOUS
 10
276.5831463309
 20
136.015688004
 11
277.2289837333
 21
135.6927938958
  0
LINE
  5
775
100
AcDbEntity
  8
DRAFT
100
AcDbLine
 62
7
  6
CONTINUOUS
 10
277.5082454966
 20
105.5126088381
 11
277.2551663306
 21
105.765688004
  0
LINE
  5
776
100
AcDbEntity
  8
DRAFT
100
AcDbLine
 62
7
  6
CONTINUOUS
 10
218.4409990902
 20
169.7938708346
 11
218.7551663306
 21
169.4797035941
  0
LINE
  5
777
100
AcDbEntity
  8
RACCORDO
100
AcDbLine
 62
7
  6
CONTINUOUS
 10
221.244633165
 20
171.0262211696
 11
221.8442299065
 21
170.4266244282
  0
LINE
  5
778
100
AcDbEntity
  8
RACCORDO
100
AcDbLine
 62
7
  6
CONTINUOUS
 10
279.770583988
 20
55.5512229848
 11
279.8655394234
 21
55.3258422901
  0
LINE
  5
779
100
AcDbEntity
  8
DRAFT
100
AcDbLine
 62
7
  6
CONTINUOUS
 10
280.0051663306
 20
54.0722580207
 11
279.8655394234
 21
54.4049884123
  0
LINE
  5
77A
100
AcDbEntity
  8
DRAFT
100
AcDbLine
 62
7
  6
CONTINUOUS
 10
261.9737472138
 20
48.015688004
 11
261.9737472138
 21
45.015688004
  0
LINE
  5
77B
100
AcDbEntity
  8
DRAFT
100
AcDbLine
 62
7
  6
CONTINUOUS
 10
262.0051663306
 20
48.015688004
 11
262.0051663306
 21
45.015688004
  0
LINE
  5
77C
100
AcDbEntity
  8
DRAFT
100
AcDbLine
 62
7
  6
CONTINUOUS
 10
266.5051663306
 20
45.015688004
 11
266.5051663306
 21
48.015688004
  0
LINE
  5
77D
100
AcDbEntity
  8
DRAFT
100
AcDbLine
 62
7
  6
CONTINUOUS
 10
266.5365854475
 20
45.015688004
 11
266.5365854475
 21
48.015688004
  0
LINE
  5
77E
100
AcDbEntity
  8
RACCORDO
100
AcDbLine
 62
250
  6
CONTINUOUS
 10
221.2377125951
 20
175.9630020776
 11
219.7551663306
 21
175.9630020776
  0
LINE
  5
77F
100
AcDbEntity
  8
RACCORDO
100
AcDbLine
 62
250
  6
CONTINUOUS
 10
158.7551663306
 20
175.9630020776
 11
157.2726200662
 21
175.9630020776
  0
LINE
  5
780
100
AcDbEntity
  8
RACCORDO
100
AcDbLine
 62
250
  6
CONTINUOUS
 10
221.2419237473
 20
176.4626974912
 11
219.7551663306
 21
176.4626974912
  0
LINE
  5
781
100
AcDbEntity
  8
RACCORDO
100
AcDbLine
 62
250
  6
CONTINUOUS
 10
158.7551663306
 20
176.4626974912
 11
157.268408914
 21
176.4626974912
  0
LINE
  5
782
100
AcDbEntity
  8
DRAFT
100
AcDbLine
 62
7
  6
CONTINUOUS
 10
221.2551663306
 20
176.515688004
 11
219.7551663306
 21
176.515688004
  0
LINE
  5
783
100
AcDbEntity
  8
DRAFT
100
AcDbLine
 62
7
  6
CONTINUOUS
 10
158.7551663306
 20
176.515688004
 11
157.2551663306
 21
176.515688004
  0
LINE
  5
784
100
AcDbEntity
  8
RACCORDO
100
AcDbLine
 62
7
  6
CONTINUOUS
 10
91.6120136848
 20
177.6585360633
 11
98.5051663306
 21
177.6585360633
  0
LINE
  5
785
100
AcDbEntity
  8
DRAFT
100
AcDbLine
 62
7
  6
CONTINUOUS
 10
100.0051663306
 20
177.6585360633
 11
156.6661027548
 21
177.6585360633
  0
LINE
  5
786
100
AcDbEntity
  8
DRAFT
100
AcDbLine
 62
7
  6
CONTINUOUS
 10
221.8442299065
 20
177.6585360633
 11
278.5051663306
 21
177.6585360633
  0
LINE
  5
787
100
AcDbEntity
  8
RACCORDO
100
AcDbLine
 62
7
  6
CONTINUOUS
 10
280.0051663306
 20
177.6585360633
 11
286.8983189764
 21
177.6585360633
  0
LINE
  5
788
100
AcDbEntity
  8
DRAFT
100
AcDbLine
 62
7
  6
CONTINUOUS
 10
158.7551663306
 20
179.0029856888
 11
188.2520871647
 21
179.0029856888
  0
LINE
  5
789
100
AcDbEntity
  8
DRAFT
100
AcDbLine
 62
7
  6
CONTINUOUS
 10
190.2582454966
 20
179.0029856888
 11
219.7551663306
 21
179.0029856888
  0
LINE
  5
78A
100
AcDbEntity
  8
DRAFT
100
AcDbLine
 62
7
  6
CONTINUOUS
 10
279.8655394234
 20
179.055366843
 11
278.6447932379
 21
179.055366843
  0
LINE
  5
78B
100
AcDbEntity
  8
DRAFT
100
AcDbLine
 62
7
  6
CONTINUOUS
 10
99.8655394234
 20
179.055366843
 11
98.6447932379
 21
179.055366843
  0
LINE
  5
78C
100
AcDbEntity
  8
RACCORDO
100
AcDbLine
 62
7
  6
CONTINUOUS
 10
89.2548617442
 20
180.015688004
 11
157.2551663306
 21
180.015688004
  0
LINE
  5
78D
100
AcDbEntity
  8
DRAFT
100
AcDbLine
 62
7
  6
CONTINUOUS
 10
158.7551663306
 20
180.015688004
 11
188.5051663306
 21
180.015688004
  0
LINE
  5
78E
100
AcDbEntity
  8
DRAFT
100
AcDbLine
 62
7
  6
CONTINUOUS
 10
190.0051663306
 20
180.015688004
 11
219.7551663306
 21
180.015688004
  0
LINE
  5
78F
100
AcDbEntity
  8
RACCORDO
100
AcDbLine
 62
7
  6
CONTINUOUS
 10
221.2551663306
 20
180.015688004
 11
289.2554709171
 21
180.015688004
  0
LINE
  5
790
100
AcDbEntity
  8
RACCORDO
100
AcDbLine
 62
7
  6
CONTINUOUS
 10
89.2533388117
 20
182.515688004
 11
289.2569938496
 21
182.515688004
  0
LWPOLYLINE
  5
791
100
AcDbEntity
  8
0
100
AcDbPolyline
 62
7
  6
CONTINUOUS
 90
10
 70
0
 43
0.3500000006
 10
298.5051577148
 20
105.2299737854
 10
299.1480292969
 20
104.5871203308
 10
300.0051672363
 20
104.1585422974
 10
301.0765896606
 20
104.1585422974
 10
301.5051586304
 20
104.5871203308
 10
301.5051586304
 20
105.2299737854
 10
301.0765896606
 20
105.6585427551
 10
300.2194517212
 20
105.6585427551
 10
299.7908827515
 20
105.2299737854
 10
299.7908827515
 20
104.3014046631
  0
LINE
  5
792
100
AcDbEntity
  8
DRAFT
100
AcDbLine
 62
7
  6
CONTINUOUS
 10
278.5051663306
 20
35.3728399447
 11
278.6447932379
 21
33.9760091651
  0
LINE
  5
793
100
AcDbEntity
  8
DRAFT
100
AcDbLine
 62
7
  6
CONTINUOUS
 10
277.2115286683
 20
78.815688004
 11
277.2289837333
 21
78.5477388116
  0
LINE
  5
794
100
AcDbEntity
  8
DRAFT
100
AcDbLine
 62
7
  6
CONTINUOUS
 10
275.5333491612
 20
78.815688004
 11
275.5551663306
 21
78.145815023
  0
LINE
  5
795
100
AcDbEntity
  8
DRAFT
100
AcDbLine
 62
7
  6
CONTINUOUS
 10
275.2279087885
 20
100.415688004
 11
275.2191819207
 21
100.6836371965
  0
LINE
  5
796
100
AcDbEntity
  8
DRAFT
100
AcDbLine
 62
7
  6
CONTINUOUS
 10
275.5333491612
 20
111.915688004
 11
275.5551663306
 21
111.245815023
  0
LINE
  5
797
100
AcDbEntity
  8
DRAFT
100
AcDbLine
 62
7
  6
CONTINUOUS
 10
271.1661027548
 20
103.665688004
 11
271.1661027548
 21
105.515688004
  0
LINE
  5
798
100
AcDbEntity
  8
DRAFT
100
AcDbLine
 62
7
  6
CONTINUOUS
 10
271.1661027548
 20
107.515688004
 11
271.1661027548
 21
109.365688004
  0
LINE
  5
799
100
AcDbEntity
  8
RACCORDO
100
AcDbLine
 62
7
  6
CONTINUOUS
 10
271.7465156182
 20
109.0174459438
 11
271.7465156182
 21
107.8639300643
  0
LINE
  5
79A
100
AcDbEntity
  8
RACCORDO
100
AcDbLine
 62
7
  6
CONTINUOUS
 10
271.7465156182
 20
105.1674459438
 11
271.7465156182
 21
104.0139300643
  0
LINE
  5
79B
100
AcDbEntity
  8
RACCORDO
100
AcDbLine
 62
250
  6
CONTINUOUS
 10
272.7464775412
 20
109.0122556006
 11
272.7464775412
 21
107.8691204074
  0
LINE
  5
79C
100
AcDbEntity
  8
RACCORDO
100
AcDbLine
 62
250
  6
CONTINUOUS
 10
272.7464775412
 20
105.1622556006
 11
272.7464775412
 21
104.0191204074
  0
LINE
  5
79D
100
AcDbEntity
  8
DRAFT
100
AcDbLine
 62
7
  6
CONTINUOUS
 10
274.6661027548
 20
105.515688004
 11
274.6661027548
 21
107.515688004
  0
LINE
  5
79E
100
AcDbEntity
  8
DRAFT
100
AcDbLine
 62
7
  6
CONTINUOUS
 10
275.2191819207
 20
76.0375051735
 11
275.2191819207
 21
103.665688004
  0
LINE
  5
79F
100
AcDbEntity
  8
DRAFT
100
AcDbLine
 62
7
  6
CONTINUOUS
 10
275.2191819207
 20
109.365688004
 11
275.2191819207
 21
136.9938708346
  0
LINE
  5
7A0
100
AcDbEntity
  8
DRAFT
100
AcDbLine
 62
7
  6
CONTINUOUS
 10
275.2279087885
 20
79.515688004
 11
275.2279087885
 21
100.415688004
  0
LINE
  5
7A1
100
AcDbEntity
  8
DRAFT
100
AcDbLine
 62
7
  6
CONTINUOUS
 10
275.2279087885
 20
112.615688004
 11
275.2279087885
 21
133.515688004
  0
LINE
  5
7A2
100
AcDbEntity
  8
DRAFT
100
AcDbLine
 62
7
  6
CONTINUOUS
 10
275.2551663306
 20
105.1622556006
 11
275.2551663306
 21
107.8691204074
  0
LINE
  5
7A3
100
AcDbEntity
  8
DRAFT
100
AcDbLine
 62
7
  6
CONTINUOUS
 10
275.5333491612
 20
134.215688004
 11
275.5333491612
 21
111.915688004
  0
LINE
  5
7A4
100
AcDbEntity
  8
DRAFT
100
AcDbLine
 62
7
  6
CONTINUOUS
 10
275.5333491612
 20
101.115688004
 11
275.5333491612
 21
78.815688004
  0
LINE
  5
7A5
100
AcDbEntity
  8
DRAFT
100
AcDbLine
 62
7
  6
CONTINUOUS
 10
275.5551663306
 20
135.6797035941
 11
275.5551663306
 21
134.8855609851
  0
LINE
  5
7A6
100
AcDbEntity
  8
DRAFT
100
AcDbLine
 62
7
  6
CONTINUOUS
 10
275.5551663306
 20
111.245815023
 11
275.5551663306
 21
110.451672414
  0
LINE
  5
7A7
100
AcDbEntity
  8
DRAFT
100
AcDbLine
 62
7
  6
CONTINUOUS
 10
275.5551663306
 20
102.5797035941
 11
275.5551663306
 21
101.7855609851
  0
LINE
  5
7A8
100
AcDbEntity
  8
DRAFT
100
AcDbLine
 62
7
  6
CONTINUOUS
 10
275.5551663306
 20
78.145815023
 11
275.5551663306
 21
77.351672414
  0
LINE
  5
7A9
100
AcDbEntity
  8
DRAFT
100
AcDbLine
 62
7
  6
CONTINUOUS
 10
275.5551663306
 20
134.8855609851
 11
275.5333491612
 21
134.215688004
  0
LINE
  5
7AA
100
AcDbEntity
  8
DRAFT
100
AcDbLine
 62
7
  6
CONTINUOUS
 10
275.2191819207
 20
112.3477388116
 11
275.2279087885
 21
112.615688004
  0
LINE
  5
7AB
100
AcDbEntity
  8
DRAFT
100
AcDbLine
 62
7
  6
CONTINUOUS
 10
275.5551663306
 20
101.7855609851
 11
275.5333491612
 21
101.115688004
  0
LINE
  5
7AC
100
AcDbEntity
  8
DRAFT
100
AcDbLine
 62
7
  6
CONTINUOUS
 10
277.2289837333
 20
134.4836371965
 11
277.2115286683
 21
134.215688004
  0
LINE
  5
7AD
100
AcDbEntity
  8
DRAFT
100
AcDbLine
 62
7
  6
CONTINUOUS
 10
278.5051663306
 20
177.6585360633
 11
278.6447932379
 21
179.055366843
  0
LINE
  5
7AE
100
AcDbEntity
  8
DRAFT
100
AcDbLine
 62
7
  6
CONTINUOUS
 10
275.5551663306
 20
77.351672414
 11
275.2191819207
 21
77.015688004
  0
LINE
  5
7AF
100
AcDbEntity
  8
DRAFT
100
AcDbLine
 62
7
  6
CONTINUOUS
 10
276.9191819207
 20
76.0375051735
 11
277.242076029
 21
76.3603992818
  0
LINE
  5
7B0
100
AcDbEntity
  8
RACCORDO
100
AcDbLine
 62
7
  6
CONTINUOUS
 10
276.9191819207
 20
73.9266244282
 11
277.4995947841
 21
74.5070372916
  0
LINE
  5
7B1
100
AcDbEntity
  8
RACCORDO
100
AcDbLine
 62
7
  6
CONTINUOUS
 10
282.7196313499
 20
59.5311056614
 11
282.9450120445
 21
59.6260610968
  0
LINE
  5
7B2
100
AcDbEntity
  8
DRAFT
100
AcDbLine
 62
7
  6
CONTINUOUS
 10
284.198596314
 20
59.765688004
 11
283.8658659224
 21
59.6260610968
  0
LINE
  5
7B3
100
AcDbEntity
  8
DRAFT
100
AcDbLine
 62
7
  6
CONTINUOUS
 10
284.198596314
 20
153.265688004
 11
283.8658659224
 21
153.4053149113
  0
LINE
  5
7B4
100
AcDbEntity
  8
RACCORDO
100
AcDbLine
 62
7
  6
CONTINUOUS
 10
282.7196313499
 20
153.5002703467
 11
282.9450120445
 21
153.4053149113
  0
LINE
  5
7B5
100
AcDbEntity
  8
DRAFT
100
AcDbLine
 62
7
  6
CONTINUOUS
 10
275.2191819207
 20
136.015688004
 11
275.5551663306
 21
135.6797035941
  0
LWPOLYLINE
  5
7B6
100
AcDbEntity
  8
0
100
AcDbPolyline
 62
7
  6
CONTINUOUS
 90
10
 70
0
 43
0.3500000006
 10
306.5051601563
 20
105.3371160278
 10
307.1480317383
 20
104.6942625732
 10
308.0051696777
 20
104.2656845398
 10
309.0766102295
 20
104.2656845398
 10
309.5051791992
 20
104.6942625732
 10
309.5051791992
 20
105.3371160278
 10
309.0766102295
 20
105.7656849976
 10
308.2194360352
 20
105.7656849976
 10
307.7908670654
 20
105.3371160278
 10
307.7908670654
 20
104.4085469055
  0
LINE
  5
7B7
100
AcDbEntity
  8
DRAFT
100
AcDbLine
 62
7
  6
CONTINUOUS
 10
276.9191819207
 20
136.9938708346
 11
277.242076029
 21
136.6709767263
  0
LINE
  5
7B8
100
AcDbEntity
  8
RACCORDO
100
AcDbLine
 62
7
  6
CONTINUOUS
 10
277.4995947841
 20
138.5243387165
 11
276.9191819207
 21
139.1047515799
  0
LINE
  5
7B9
100
AcDbEntity
  8
DRAFT
100
AcDbLine
 62
7
  6
CONTINUOUS
 10
277.2115286683
 20
111.915688004
 11
277.2289837333
 21
111.6477388116
  0
LINE
  5
7BA
100
AcDbEntity
  8
DRAFT
100
AcDbLine
 62
7
  6
CONTINUOUS
 10
275.2279087885
 20
133.515688004
 11
275.2191819207
 21
133.7836371965
  0
LINE
  5
7BB
100
AcDbEntity
  8
RACCORDO
100
AcDbLine
 62
7
  6
CONTINUOUS
 10
279.8632426311
 20
39.2459916443
 11
279.7718427169
 21
48.7762029215
  0
LINE
  5
7BC
100
AcDbEntity
  8
RACCORDO
100
AcDbLine
 62
7
  6
CONTINUOUS
 10
278.7384899443
 20
164.2551730866
 11
278.6470900302
 21
173.7853843638
  0
LINE
  5
7BD
100
AcDbEntity
  8
DRAFT
100
AcDbLine
 62
7
  6
CONTINUOUS
 10
276.9191819207
 20
73.9266244282
 11
276.9191819207
 21
76.0375051735
  0
LINE
  5
7BE
100
AcDbEntity
  8
DRAFT
100
AcDbLine
 62
7
  6
CONTINUOUS
 10
276.9191819207
 20
136.9938708346
 11
276.9191819207
 21
139.1047515799
  0
LINE
  5
7BF
100
AcDbEntity
  8
DRAFT
100
AcDbLine
 62
7
  6
CONTINUOUS
 10
277.2115286683
 20
134.215688004
 11
277.2115286683
 21
111.915688004
  0
LINE
  5
7C0
100
AcDbEntity
  8
DRAFT
100
AcDbLine
 62
7
  6
CONTINUOUS
 10
277.2115286683
 20
101.115688004
 11
277.2115286683
 21
78.815688004
  0
LINE
  5
7C1
100
AcDbEntity
  8
DRAFT
100
AcDbLine
 62
7
  6
CONTINUOUS
 10
277.242076029
 20
76.3603992818
 11
277.242076029
 21
77.3385821123
  0
LINE
  5
7C2
100
AcDbEntity
  8
DRAFT
100
AcDbLine
 62
7
  6
CONTINUOUS
 10
277.2551663306
 20
109.0122556006
 11
277.2551663306
 21
104.0191204074
  0
LINE
  5
7C3
100
AcDbEntity
  8
DRAFT
100
AcDbLine
 62
7
  6
CONTINUOUS
 10
277.2551663306
 20
76.26876717
 11
277.2551663306
 21
77.351672414
  0
LINE
  5
7C4
100
AcDbEntity
  8
DRAFT
100
AcDbLine
 62
7
  6
CONTINUOUS
 10
277.2551663306
 20
78.145815023
 11
277.2551663306
 21
101.7855609851
  0
LINE
  5
7C5
100
AcDbEntity
  8
DRAFT
100
AcDbLine
 62
7
  6
CONTINUOUS
 10
277.2551663306
 20
102.5797035941
 11
277.2551663306
 21
103.8672753749
  0
LINE
  5
7C6
100
AcDbEntity
  8
DRAFT
100
AcDbLine
 62
7
  6
CONTINUOUS
 10
277.2551663306
 20
109.1641006332
 11
277.2551663306
 21
110.451672414
  0
LINE
  5
7C7
100
AcDbEntity
  8
DRAFT
100
AcDbLine
 62
7
  6
CONTINUOUS
 10
277.2551663306
 20
111.245815023
 11
277.2551663306
 21
134.8855609851
  0
LINE
  5
7C8
100
AcDbEntity
  8
DRAFT
100
AcDbLine
 62
7
  6
CONTINUOUS
 10
277.2551663306
 20
135.6797035941
 11
277.2551663306
 21
136.7626088381
  0
LINE
  5
7C9
100
AcDbEntity
  8
RACCORDO
100
AcDbLine
 62
250
  6
CONTINUOUS
 10
277.2980462279
 20
107.254972112
 11
277.2980462279
 21
105.776403896
  0
LINE
  5
7CA
100
AcDbEntity
  8
RACCORDO
100
AcDbLine
 62
7
  6
CONTINUOUS
 10
277.4995947841
 20
138.5243387165
 11
277.4995947841
 21
137.0070372916
  0
LINE
  5
7CB
100
AcDbEntity
  8
RACCORDO
100
AcDbLine
 62
7
  6
CONTINUOUS
 10
277.4995947841
 20
76.0243387165
 11
277.4995947841
 21
74.5070372916
  0
LINE
  5
7CC
100
AcDbEntity
  8
DRAFT
100
AcDbLine
 62
7
  6
CONTINUOUS
 10
277.5082454966
 20
109.1641006332
 11
277.5082454966
 21
107.51876717
  0
LINE
  5
7CD
100
AcDbEntity
  8
DRAFT
100
AcDbLine
 62
7
  6
CONTINUOUS
 10
277.5082454966
 20
105.5126088381
 11
277.5082454966
 21
103.8672753749
  0
LINE
  5
7CE
100
AcDbEntity
  8
RACCORDO
100
AcDbLine
 62
250
  6
CONTINUOUS
 10
278.0975588895
 20
107.2482342685
 11
278.0975588895
 21
105.7831417396
  0
LINE
  5
7CF
100
AcDbEntity
  8
RACCORDO
100
AcDbLine
 62
250
  6
CONTINUOUS
 10
278.4995567072
 20
138.515688004
 11
278.4995567072
 21
137.015688004
  0
LINE
  5
7D0
100
AcDbEntity
  8
RACCORDO
100
AcDbLine
 62
250
  6
CONTINUOUS
 10
278.4995567072
 20
76.015688004
 11
278.4995567072
 21
74.515688004
  0
LINE
  5
7D1
100
AcDbEntity
  8
DRAFT
100
AcDbLine
 62
7
  6
CONTINUOUS
 10
278.5051663306
 20
177.6585360633
 11
278.5051663306
 21
158.9591179874
  0
LINE
  5
7D2
100
AcDbEntity
  8
DRAFT
100
AcDbLine
 62
7
  6
CONTINUOUS
 10
278.5051663306
 20
35.3728399447
 11
278.5051663306
 21
54.0722580207
  0
LINE
  5
7D3
100
AcDbEntity
  8
RACCORDO
100
AcDbLine
 62
7
  6
CONTINUOUS
 10
278.6447932379
 20
179.055366843
 11
278.6447932379
 21
174.7250769846
  0
LINE
  5
7D4
100
AcDbEntity
  8
DRAFT
100
AcDbLine
 62
7
  6
CONTINUOUS
 10
278.6447932379
 20
55.3258422901
 11
278.6447932379
 21
54.4049884123
  0
LINE
  5
7D5
100
AcDbEntity
  8
RACCORDO
100
AcDbLine
 62
7
  6
CONTINUOUS
 10
278.6447932379
 20
33.9760091651
 11
278.6447932379
 21
38.3062990235
  0
LINE
  5
7D6
100
AcDbEntity
  8
DRAFT
100
AcDbLine
 62
7
  6
CONTINUOUS
 10
278.6447932379
 20
157.7055337179
 11
278.6447932379
 21
158.6263875958
  0
LINE
  5
7D7
100
AcDbEntity
  8
RACCORDO
100
AcDbLine
 62
7
  6
CONTINUOUS
 10
278.7407867367
 20
163.3154804658
 11
278.7407867367
 21
157.176716777
  0
LINE
  5
7D8
100
AcDbEntity
  8
RACCORDO
100
AcDbLine
 62
7
  6
CONTINUOUS
 10
278.7407867367
 20
55.8546592311
 11
278.7407867367
 21
49.7158955422
  0
LINE
  5
7D9
100
AcDbEntity
  8
RACCORDO
100
AcDbLine
 62
7
  6
CONTINUOUS
 10
279.7695459246
 20
49.7158955422
 11
279.7695459246
 21
55.8546592311
  0
LINE
  5
7DA
100
AcDbEntity
  8
RACCORDO
100
AcDbLine
 62
7
  6
CONTINUOUS
 10
279.7695459246
 20
157.176716777
 11
279.7695459246
 21
163.3154804658
  0
LINE
  5
7DB
100
AcDbEntity
  8
RACCORDO
100
AcDbLine
 62
7
  6
CONTINUOUS
 10
279.8655394234
 20
179.055366843
 11
279.8655394234
 21
174.7250769846
  0
LINE
  5
7DC
100
AcDbEntity
  8
DRAFT
100
AcDbLine
 62
7
  6
CONTINUOUS
 10
279.8655394234
 20
55.3258422901
 11
279.8655394234
 21
54.4049884123
  0
LINE
  5
7DD
100
AcDbEntity
  8
RACCORDO
100
AcDbLine
 62
7
  6
CONTINUOUS
 10
279.8655394234
 20
33.9760091651
 11
279.8655394234
 21
38.3062990235
  0
LINE
  5
7DE
100
AcDbEntity
  8
DRAFT
100
AcDbLine
 62
7
  6
CONTINUOUS
 10
279.8655394234
 20
157.7055337179
 11
279.8655394234
 21
158.6263875958
  0
LINE
  5
7DF
100
AcDbEntity
  8
DRAFT
100
AcDbLine
 62
7
  6
CONTINUOUS
 10
280.0051663306
 20
177.6585360633
 11
280.0051663306
 21
158.9591179874
  0
LINE
  5
7E0
100
AcDbEntity
  8
DRAFT
100
AcDbLine
 62
7
  6
CONTINUOUS
 10
280.0051663306
 20
35.3728399447
 11
280.0051663306
 21
54.0722580207
  0
LINE
  5
7E1
100
AcDbEntity
  8
RACCORDO
100
AcDbLine
 62
250
  6
CONTINUOUS
 10
283.2024804043
 20
105.7831417396
 11
283.2024804043
 21
107.2482342685
  0
LINE
  5
7E2
100
AcDbEntity
  8
RACCORDO
100
AcDbLine
 62
250
  6
CONTINUOUS
 10
283.7021758178
 20
105.7789305874
 11
283.7021758178
 21
107.2524454207
  0
LINE
  5
7E3
100
AcDbEntity
  8
DRAFT
100
AcDbLine
 62
7
  6
CONTINUOUS
 10
283.7551663306
 20
105.765688004
 11
283.7551663306
 21
107.265688004
  0
LWPOLYLINE
  5
7E4
100
AcDbEntity
  8
RACCORDO
100
AcDbPolyline
 62
7
  6
CONTINUOUS
 90
4
 70
0
 10
278.7404122511
 20
55.6224480928
 10
278.7401094201
 20
55.5709779208
 10
278.7399367493
 20
55.5572622792
 10
278.7397486733
 20
55.5512229848
  0
LWPOLYLINE
  5
7E5
100
AcDbEntity
  8
RACCORDO
100
AcDbPolyline
 62
7
  6
CONTINUOUS
 90
4
 70
0
 10
279.7699204102
 20
157.4089279153
 10
279.7702232412
 20
157.4603980873
 10
279.770395912
 20
157.4741137288
 10
279.770583988
 20
157.4801530233
  0
LINE
  5
7E6
100
AcDbEntity
  8
RACCORDO
100
AcDbLine
 62
7
  6
CONTINUOUS
 10
279.7718427169
 20
164.2551730866
 11
279.8632426311
 21
173.7853843638
  0
LINE
  5
7E7
100
AcDbEntity
  8
RACCORDO
100
AcDbLine
 62
7
  6
CONTINUOUS
 10
278.6470900302
 20
39.2459916443
 11
278.7384899443
 21
48.7762029215
  0
LINE
  5
7E8
100
AcDbEntity
  8
DRAFT
100
AcDbLine
 62
7
  6
CONTINUOUS
 10
275.2191819207
 20
79.2477388116
 11
275.2279087885
 21
79.515688004
  0
LINE
  5
7E9
100
AcDbEntity
  8
DRAFT
100
AcDbLine
 62
7
  6
CONTINUOUS
 10
277.2289837333
 20
101.3836371965
 11
277.2115286683
 21
101.115688004
  0
LWPOLYLINE
  5
7EA
100
AcDbEntity
  8
0
100
AcDbPolyline
 62
7
  6
CONTINUOUS
 90
3
 70
0
 43
0.3500000006
 10
315.3623005371
 20
103.3014043579
 10
314.5051625977
 20
104.1585422974
 10
317.5051816406
 20
104.1585422974
  0
LWPOLYLINE
  5
7EB
100
AcDbEntity
  8
0
100
AcDbPolyline
 62
7
  6
CONTINUOUS
 90
3
 70
0
 43
0.3500000006
 10
323.3623029785
 20
103.4085466003
 10
322.5051650391
 20
104.2656845398
 10
325.505184082
 20
104.2656845398
  0
LINE
  5
7EC
100
AcDbEntity
  8
DRAFT
100
AcDbLine
 62
7
  6
CONTINUOUS
 10
280.0051663306
 20
177.6585360633
 11
279.8655394234
 21
179.055366843
  0
LINE
  5
7ED
100
AcDbEntity
  8
RACCORDO
100
AcDbLine
 62
7
  6
CONTINUOUS
 10
287.39801439
 20
177.1588406498
 11
287.39801439
 21
154.765688004
  0
LINE
  5
7EE
100
AcDbEntity
  8
DRAFT
100
AcDbLine
 62
7
  6
CONTINUOUS
 10
287.39801439
 20
153.265688004
 11
287.39801439
 21
139.1047515799
  0
LINE
  5
7EF
100
AcDbEntity
  8
DRAFT
100
AcDbLine
 62
7
  6
CONTINUOUS
 10
287.39801439
 20
73.9266244282
 11
287.39801439
 21
59.765688004
  0
LINE
  5
7F0
100
AcDbEntity
  8
RACCORDO
100
AcDbLine
 62
7
  6
CONTINUOUS
 10
287.39801439
 20
58.265688004
 11
287.39801439
 21
35.8725353582
  0
LINE
  5
7F1
100
AcDbEntity
  8
DRAFT
100
AcDbLine
 62
7
  6
CONTINUOUS
 10
288.7424640154
 20
136.7626088381
 11
288.7424640154
 21
107.51876717
  0
LINE
  5
7F2
100
AcDbEntity
  8
DRAFT
100
AcDbLine
 62
7
  6
CONTINUOUS
 10
288.7424640154
 20
105.5126088381
 11
288.7424640154
 21
76.26876717
  0
LINE
  5
7F3
100
AcDbEntity
  8
RACCORDO
100
AcDbLine
 62
7
  6
CONTINUOUS
 10
289.7551663306
 20
33.5153834175
 11
289.7551663306
 21
58.50130841
  0
LINE
  5
7F4
100
AcDbEntity
  8
DRAFT
100
AcDbLine
 62
7
  6
CONTINUOUS
 10
289.7551663306
 20
59.530067598
 11
289.7551663306
 21
74.515688004
  0
LINE
  5
7F5
100
AcDbEntity
  8
DRAFT
100
AcDbLine
 62
7
  6
CONTINUOUS
 10
289.7551663306
 20
76.015688004
 11
289.7551663306
 21
105.765688004
  0
LINE
  5
7F6
100
AcDbEntity
  8
DRAFT
100
AcDbLine
 62
7
  6
CONTINUOUS
 10
289.7551663306
 20
107.265688004
 11
289.7551663306
 21
137.015688004
  0
LINE
  5
7F7
100
AcDbEntity
  8
DRAFT
100
AcDbLine
 62
7
  6
CONTINUOUS
 10
289.7551663306
 20
138.515688004
 11
289.7551663306
 21
153.50130841
  0
LINE
  5
7F8
100
AcDbEntity
  8
RACCORDO
100
AcDbLine
 62
7
  6
CONTINUOUS
 10
289.7551663306
 20
154.530067598
 11
289.7551663306
 21
179.5159925905
  0
LINE
  5
7F9
100
AcDbEntity
  8
RACCORDO
100
AcDbLine
 62
7
  6
CONTINUOUS
 10
292.2551663306
 20
179.517515523
 11
292.2551663306
 21
33.5138604851
  0
LINE
  5
7FA
100
AcDbEntity
  8
DRAFT
100
AcDbLine
 62
7
  6
CONTINUOUS
 10
280.0051663306
 20
35.3728399447
 11
279.8655394234
 21
33.9760091651
  0
LINE
  5
7FB
100
AcDbEntity
  8
DRAFT
100
AcDbLine
 62
7
  6
CONTINUOUS
 10
278.5051663306
 20
54.0722580207
 11
278.6447932379
 21
54.4049884123
  0
LINE
  5
7FC
100
AcDbEntity
  8
RACCORDO
100
AcDbLine
 62
7
  6
CONTINUOUS
 10
278.7397486733
 20
55.5512229848
 11
278.6447932379
 21
55.3258422901
  0
LWPOLYLINE
  5
7FD
100
AcDbEntity
  8
0
100
AcDbPolyline
 62
7
  6
CONTINUOUS
 90
8
 70
0
 43
0.3500000006
 10
187.8623069458
 20
209.2656893921
 10
188.7194448853
 20
209.2656893921
 10
189.1480319824
 20
209.6942583618
 10
189.1480319824
 20
210.5513963013
 10
188.7194448853
 20
210.979965271
 10
187.8623069458
 20
210.979965271
 10
187.8623069458
 20
212.2656903076
 10
189.1480319824
 20
212.2656903076
  0
LINE
  5
7FE
100
AcDbEntity
  8
RACCORDO
100
AcDbLine
 62
7
  6
CONTINUOUS
 10
278.7397486733
 20
157.4801530233
 11
278.6447932379
 21
157.7055337179
  0
LINE
  5
7FF
100
AcDbEntity
  8
DRAFT
100
AcDbLine
 62
7
  6
CONTINUOUS
 10
278.5051663306
 20
158.9591179874
 11
278.6447932379
 21
158.6263875958
  0
LWPOLYLINE
  5
800
100
AcDbEntity
  8
0
100
AcDbPolyline
 62
7
  6
CONTINUOUS
 90
7
 70
0
 43
0.3500000006
 10
187.2194534912
 20
217.2656918335
 10
185.7194439697
 20
217.2656918335
 10
187.2194534912
 20
219.4085366821
 10
187.2194534912
 20
219.8371237793
 10
186.7908845215
 20
220.265692749
 10
186.1480310669
 20
220.265692749
 10
185.7194439697
 20
219.6228392944
  0
LWPOLYLINE
  5
801
100
AcDbEntity
  8
0
100
AcDbPolyline
 62
7
  6
CONTINUOUS
 90
8
 70
0
 43
0.3500000006
 10
309.5051791992
 20
106.6228320007
 10
309.5051791992
 20
107.4799699402
 10
309.0766102295
 20
107.9085479736
 10
308.2194360352
 20
107.9085479736
 10
307.7908670654
 20
107.4799699402
 10
307.7908670654
 20
106.6228320007
 10
306.5051601563
 20
106.6228320007
 10
306.5051601563
 20
107.9085479736
  0
LWPOLYLINE
  5
802
100
AcDbEntity
  8
0
100
AcDbPolyline
 62
7
  6
CONTINUOUS
 90
7
 70
0
 43
0.3500000006
 10
317.5051816406
 20
106.5156897583
 10
317.5051816406
 20
105.0156893005
 10
315.3623005371
 20
106.5156897583
 10
314.9337315674
 20
106.5156897583
 10
314.5051625977
 20
106.0871207886
 10
314.5051625977
 20
105.4442582703
 10
315.1480341797
 20
105.0156893005
  0
LWPOLYLINE
  5
803
100
AcDbEntity
  8
0
100
AcDbPolyline
 62
7
  6
CONTINUOUS
 90
7
 70
0
 43
0.3500000006
 10
325.505184082
 20
108.7656859131
 10
325.505184082
 20
107.2656854553
 10
323.3623029785
 20
108.7656859131
 10
322.9337340088
 20
108.7656859131
 10
322.5051650391
 20
108.3371169434
 10
322.5051650391
 20
107.6942634888
 10
323.1480366211
 20
107.2656854553
  0
LWPOLYLINE
  5
804
100
AcDbEntity
  8
0
100
AcDbPolyline
 62
7
  6
CONTINUOUS
 90
8
 70
0
 43
0.3500000006
 10
325.505184082
 20
105.122831543
 10
325.505184082
 20
105.9799694824
 10
325.0765788574
 20
106.4085475159
 10
324.219440918
 20
106.4085475159
 10
323.7908719482
 20
105.9799694824
 10
323.7908719482
 20
105.122831543
 10
322.5051650391
 20
105.122831543
 10
322.5051650391
 20
106.4085475159
  0
LINE
  5
805
100
AcDbEntity
  8
RACCORDO
100
AcDbLine
 62
7
  6
CONTINUOUS
 10
-14.7347248488
 20
30.515688004
 11
53.8176243963
 21
32.9095887901
  0
LINE
  5
806
100
AcDbEntity
  8
DRAFT
100
AcDbLine
 62
7
  6
CONTINUOUS
 10
55.2652751512
 20
39.765688004
 11
55.8088530226
 21
39.8132449055
  0
LINE
  5
807
100
AcDbEntity
  8
RACCORDO
100
AcDbLine
 62
250
  6
CONTINUOUS
 10
-14.7347248488
 20
33.5138604851
 11
53.8176243963
 21
35.9077612712
  0
LINE
  5
808
100
AcDbEntity
  8
RACCORDO
100
AcDbLine
 62
250
  6
CONTINUOUS
 10
55.2652751512
 20
35.9077612712
 11
53.8176243972
 21
35.9077612982
  0
LINE
  5
809
100
AcDbEntity
  8
RACCORDO
100
AcDbLine
 62
7
  6
CONTINUOUS
 10
-14.7347248488
 20
36.515688004
 11
-16.2521745971
 21
36.5686785169
  0
LWPOLYLINE
  5
80A
100
AcDbEntity
  8
0
100
AcDbPolyline
 62
7
  6
CONTINUOUS
 90
3
 70
0
 43
0.3500000006
 10
21.0867031631
 20
195.4085474854
 10
21.9438456345
 20
196.2656854248
 10
21.9438456345
 20
193.2656845093
  0
LINE
  5
80B
100
AcDbEntity
  8
RACCORDO
100
AcDbLine
 62
7
  6
CONTINUOUS
 10
-15.9417060772
 20
42.0051548384
 11
-14.7347248488
 21
42.015688004
  0
LINE
  5
80C
100
AcDbEntity
  8
0
100
AcDbLine
 62
7
  6
CONTINUOUS
 10
55.2652751512
 20
54.265688004
 11
55.4652751512
 21
54.265688004
  0
LINE
  5
80D
100
AcDbEntity
  8
DRAFT
100
AcDbLine
 62
7
  6
CONTINUOUS
 10
55.2652751512
 20
53.265688004
 11
55.8088530226
 21
53.2181311025
  0
LINE
  5
80E
100
AcDbEntity
  8
DRAFT
100
AcDbLine
 62
7
  6
CONTINUOUS
 10
55.4652751512
 20
61.2981902713
 11
55.8088530226
 21
61.2681311025
  0
LINE
  5
80F
100
AcDbEntity
  8
RACCORDO
100
AcDbLine
 62
7
  6
CONTINUOUS
 10
-16.7347248488
 20
37.0683739304
 11
-16.7347248488
 21
41.2051853
  0
LINE
  5
810
100
AcDbEntity
  8
RACCORDO
100
AcDbLine
 62
7
  6
CONTINUOUS
 10
-16.7347248488
 20
105.7831417396
 11
-16.7347248488
 21
107.2482342685
  0
LINE
  5
811
100
AcDbEntity
  8
RACCORDO
100
AcDbLine
 62
7
  6
CONTINUOUS
 10
-16.7347248488
 20
171.8261907081
 11
-16.7347248488
 21
175.9630020776
  0
LINE
  5
812
100
AcDbEntity
  8
RACCORDO
100
AcDbLine
 62
250
  6
CONTINUOUS
 10
-16.2521745971
 20
105.7789305874
 11
-16.2521745971
 21
107.2524454207
  0
LINE
  5
813
100
AcDbEntity
  8
RACCORDO
100
AcDbLine
 62
7
  6
CONTINUOUS
 10
-14.7347248488
 20
30.515688004
 11
-14.7347248488
 21
182.515688004
  0
LINE
  5
814
100
AcDbEntity
  8
DRAFT
100
AcDbLine
 62
7
  6
CONTINUOUS
 10
55.2652751512
 20
76.015688004
 11
55.1822007234
 21
76.0164129836
  0
LINE
  5
815
100
AcDbEntity
  8
DRAFT
100
AcDbLine
 62
7
  6
CONTINUOUS
 10
55.1822007234
 20
101.3312504517
 11
55.2652751512
 21
101.3535101775
  0
LINE
  5
816
100
AcDbEntity
  8
DRAFT
100
AcDbLine
 62
7
  6
CONTINUOUS
 10
55.2528227772
 20
95.015688004
 11
55.1822007234
 21
95.015688004
  0
LWPOLYLINE
  5
817
100
AcDbEntity
  8
0
100
AcDbPolyline
 62
7
  6
CONTINUOUS
 90
4
 70
0
 43
0.3500000006
 10
18.729561367
 20
195.6228319702
 10
18.729561367
 20
196.2656854248
 10
20.2295606918
 20
196.2656854248
 10
19.3724182205
 20
193.2656845093
  0
LINE
  5
818
100
AcDbEntity
  8
0
100
AcDbLine
 62
7
  6
CONTINUOUS
 10
55.2652751512
 20
103.515688004
 11
55.4652751512
 21
103.515688004
  0
LINE
  5
819
100
AcDbEntity
  8
0
100
AcDbLine
 62
7
  6
CONTINUOUS
 10
55.2652751512
 20
103.890688004
 11
55.4652751512
 21
103.890688004
  0
LINE
  5
81A
100
AcDbEntity
  8
0
100
AcDbLine
 62
7
  6
CONTINUOUS
 10
55.2652751512
 20
104.265688004
 11
55.4652751512
 21
104.265688004
  0
LINE
  5
81B
100
AcDbEntity
  8
0
100
AcDbLine
 62
7
  6
CONTINUOUS
 10
55.2652751512
 20
104.7656879742
 11
55.4652751512
 21
104.7656879742
  0
LINE
  5
81C
100
AcDbEntity
  8
0
100
AcDbLine
 62
7
  6
CONTINUOUS
 10
55.2652751512
 20
104.828188004
 11
55.4652751512
 21
104.828188004
  0
LINE
  5
81D
100
AcDbEntity
  8
0
100
AcDbLine
 62
7
  6
CONTINUOUS
 10
55.2652751512
 20
104.8906880338
 11
55.4652751512
 21
104.8906880338
  0
LINE
  5
81E
100
AcDbEntity
  8
0
100
AcDbLine
 62
7
  6
CONTINUOUS
 10
55.2652751512
 20
105.1406880636
 11
55.4652751512
 21
105.1406880636
  0
LINE
  5
81F
100
AcDbEntity
  8
0
100
AcDbLine
 62
7
  6
CONTINUOUS
 10
55.2652751512
 20
105.390688004
 11
55.4652751512
 21
105.390688004
  0
LINE
  5
820
100
AcDbEntity
  8
0
100
AcDbLine
 62
7
  6
CONTINUOUS
 10
55.2652751512
 20
105.8281879444
 11
55.4652751512
 21
105.8281879444
  0
LINE
  5
821
100
AcDbEntity
  8
0
100
AcDbLine
 62
7
  6
CONTINUOUS
 10
55.2652751512
 20
106.0781880636
 11
55.4652751512
 21
106.0781880636
  0
LINE
  5
822
100
AcDbEntity
  8
0
100
AcDbLine
 62
7
  6
CONTINUOUS
 10
55.2652751512
 20
106.4531880636
 11
55.4652751512
 21
106.4531880636
  0
LINE
  5
823
100
AcDbEntity
  8
0
100
AcDbLine
 62
7
  6
CONTINUOUS
 10
55.2652751512
 20
106.703188004
 11
55.4652751512
 21
106.703188004
  0
LINE
  5
824
100
AcDbEntity
  8
0
100
AcDbLine
 62
7
  6
CONTINUOUS
 10
55.2652751512
 20
106.9531881232
 11
55.4652751512
 21
106.9531881232
  0
LINE
  5
825
100
AcDbEntity
  8
0
100
AcDbLine
 62
7
  6
CONTINUOUS
 10
55.2652751512
 20
107.0156878848
 11
55.4652751512
 21
107.0156878848
  0
LINE
  5
826
100
AcDbEntity
  8
DRAFT
100
AcDbLine
 62
7
  6
CONTINUOUS
 10
55.1822007234
 20
103.6530328957
 11
55.2652751512
 21
103.652597915
  0
LINE
  5
827
100
AcDbEntity
  8
DRAFT
100
AcDbLine
 62
7
  6
CONTINUOUS
 10
55.2652751512
 20
102.8938708346
 11
55.1822007234
 21
102.8945958141
  0
LINE
  5
828
100
AcDbEntity
  8
RACCORDO
100
AcDbLine
 62
7
  6
CONTINUOUS
 10
-14.7347248488
 20
105.765688004
 11
-16.7347248488
 21
105.7831417396
  0
LINE
  5
829
100
AcDbEntity
  8
RACCORDO
100
AcDbLine
 62
7
  6
CONTINUOUS
 10
-14.7347248488
 20
107.265688004
 11
-16.7347248488
 21
107.2482342685
  0
LINE
  5
82A
100
AcDbEntity
  8
DRAFT
100
AcDbLine
 62
7
  6
CONTINUOUS
 10
55.1822007234
 20
110.136780194
 11
55.2652751512
 21
110.1375051735
  0
LINE
  5
82B
100
AcDbEntity
  8
DRAFT
100
AcDbLine
 62
7
  6
CONTINUOUS
 10
55.2652751512
 20
109.378778093
 11
55.1822007234
 21
109.3783431124
  0
LINE
  5
82C
100
AcDbEntity
  8
0
100
AcDbLine
 62
7
  6
CONTINUOUS
 10
55.2652751512
 20
107.5156881232
 11
55.4652751512
 21
107.5156881232
  0
LINE
  5
82D
100
AcDbEntity
  8
0
100
AcDbLine
 62
7
  6
CONTINUOUS
 10
55.2652751512
 20
107.5781878848
 11
55.4652751512
 21
107.5781878848
  0
LINE
  5
82E
100
AcDbEntity
  8
0
100
AcDbLine
 62
7
  6
CONTINUOUS
 10
55.2652751512
 20
107.640688004
 11
55.4652751512
 21
107.640688004
  0
LINE
  5
82F
100
AcDbEntity
  8
0
100
AcDbLine
 62
7
  6
CONTINUOUS
 10
55.2652751512
 20
107.7656878848
 11
55.4652751512
 21
107.7656878848
  0
LINE
  5
830
100
AcDbEntity
  8
0
100
AcDbLine
 62
7
  6
CONTINUOUS
 10
55.2652751512
 20
107.9531878848
 11
55.4652751512
 21
107.9531878848
  0
LINE
  5
831
100
AcDbEntity
  8
0
100
AcDbLine
 62
7
  6
CONTINUOUS
 10
55.2652751512
 20
108.2656881232
 11
55.4652751512
 21
108.2656881232
  0
LINE
  5
832
100
AcDbEntity
  8
0
100
AcDbLine
 62
7
  6
CONTINUOUS
 10
55.2652751512
 20
108.6406881232
 11
55.4652751512
 21
108.6406881232
  0
LINE
  5
833
100
AcDbEntity
  8
0
100
AcDbLine
 62
7
  6
CONTINUOUS
 10
55.2652751512
 20
109.0156881232
 11
55.4652751512
 21
109.0156881232
  0
LINE
  5
834
100
AcDbEntity
  8
0
100
AcDbLine
 62
7
  6
CONTINUOUS
 10
55.2652751512
 20
109.328188004
 11
55.4652751512
 21
109.328188004
  0
LINE
  5
835
100
AcDbEntity
  8
0
100
AcDbLine
 62
7
  6
CONTINUOUS
 10
55.2652751512
 20
109.515688004
 11
55.4652751512
 21
109.515688004
  0
LINE
  5
836
100
AcDbEntity
  8
0
100
AcDbLine
 62
7
  6
CONTINUOUS
 10
55.2652751512
 20
109.6406882425
 11
55.4652751512
 21
109.6406882425
  0
LINE
  5
837
100
AcDbEntity
  8
0
100
AcDbLine
 62
7
  6
CONTINUOUS
 10
55.2652751512
 20
109.703188004
 11
55.4652751512
 21
109.703188004
  0
LINE
  5
838
100
AcDbEntity
  8
0
100
AcDbLine
 62
7
  6
CONTINUOUS
 10
55.2652751512
 20
109.7656877656
 11
55.4652751512
 21
109.7656877656
  0
LINE
  5
839
100
AcDbEntity
  8
DRAFT
100
AcDbLine
 62
7
  6
CONTINUOUS
 10
55.2528227772
 20
118.015688004
 11
55.1822007234
 21
118.015688004
  0
LINE
  5
83A
100
AcDbEntity
  8
DRAFT
100
AcDbLine
 62
7
  6
CONTINUOUS
 10
55.2652751512
 20
111.6778658305
 11
55.1822007234
 21
111.7001255564
  0
LINE
  5
83B
100
AcDbEntity
  8
RACCORDO
100
AcDbLine
 62
250
  6
CONTINUOUS
 10
53.8176243963
 20
35.9077612712
 11
53.8312218565
 21
34.9808569376
  0
LINE
  5
83C
100
AcDbEntity
  8
RACCORDO
100
AcDbLine
 62
250
  6
CONTINUOUS
 10
53.8312218565
 20
34.9808569376
 11
53.8367643125
 21
34.4081920586
  0
LINE
  5
83D
100
AcDbEntity
  8
RACCORDO
100
AcDbLine
 62
250
  6
CONTINUOUS
 10
53.8367643125
 20
34.4081920586
 11
53.8391866428
 21
33.9010846989
  0
LINE
  5
83E
100
AcDbEntity
  8
RACCORDO
100
AcDbLine
 62
250
  6
CONTINUOUS
 10
53.8176243963
 20
177.1236147369
 11
53.8176243963
 21
35.9077612712
  0
LINE
  5
83F
100
AcDbEntity
  8
RACCORDO
100
AcDbLine
 62
250
  6
CONTINUOUS
 10
53.8383658367
 20
179.5479419617
 11
53.8391824034
 21
179.1280878434
  0
LWPOLYLINE
  5
840
100
AcDbEntity
  8
RACCORDO
100
AcDbPolyline
 62
250
  6
CONTINUOUS
 90
8
 70
0
 10
53.8391866428
 20
33.9010846989
 10
53.8383529462
 20
33.4817809393
 10
53.8367449371
 20
33.3110894597
 10
53.8343704332
 20
33.1688505364
 10
53.8312031789
 20
33.0565207079
 10
53.8272844841
 20
32.9753187728
 10
53.8227252049
 20
32.9261605421
 10
53.8176243963
 20
32.9095887901
  0
LINE
  5
841
100
AcDbEntity
  8
RACCORDO
100
AcDbLine
 62
250
  6
CONTINUOUS
 10
53.8391824034
 20
179.1280878434
 11
53.8367449371
 21
178.6210559552
  0
LINE
  5
842
100
AcDbEntity
  8
RACCORDO
100
AcDbLine
 62
250
  6
CONTINUOUS
 10
53.8367449371
 20
178.6210559552
 11
53.8312031789
 21
178.0491537904
  0
LINE
  5
843
100
AcDbEntity
  8
RACCORDO
100
AcDbLine
 62
250
  6
CONTINUOUS
 10
53.8312031789
 20
178.0491537904
 11
53.8176243963
 21
177.1236147369
  0
LINE
  5
844
100
AcDbEntity
  8
DRAFT
100
AcDbLine
 62
7
  6
CONTINUOUS
 10
55.1822007234
 20
137.0149630245
 11
55.2652751512
 21
137.015688004
  0
LINE
  5
845
100
AcDbEntity
  8
DRAFT
100
AcDbLine
 62
7
  6
CONTINUOUS
 10
55.1822007234
 20
137.0149630245
 11
55.1822007234
 21
136.6154937463
  0
LINE
  5
846
100
AcDbEntity
  8
DRAFT
100
AcDbLine
 62
7
  6
CONTINUOUS
 10
55.1822007234
 20
126.7158822617
 11
55.1822007234
 21
126.3154937463
  0
LINE
  5
847
100
AcDbEntity
  8
DRAFT
100
AcDbLine
 62
7
  6
CONTINUOUS
 10
55.1822007234
 20
118.015688004
 11
55.1822007234
 21
95.015688004
  0
LINE
  5
848
100
AcDbEntity
  8
DRAFT
100
AcDbLine
 62
7
  6
CONTINUOUS
 10
55.1822007234
 20
86.7158822617
 11
55.1822007234
 21
86.3154937463
  0
LINE
  5
849
100
AcDbEntity
  8
DRAFT
100
AcDbLine
 62
7
  6
CONTINUOUS
 10
55.1822007234
 20
76.4158822617
 11
55.1822007234
 21
76.0164129836
  0
LINE
  5
84A
100
AcDbEntity
  8
DRAFT
100
AcDbLine
 62
7
  6
CONTINUOUS
 10
55.2528227772
 20
136.5352741282
 11
55.2528227772
 21
126.7961018799
  0
LINE
  5
84B
100
AcDbEntity
  8
DRAFT
100
AcDbLine
 62
7
  6
CONTINUOUS
 10
55.2528227772
 20
126.2352741282
 11
55.2528227772
 21
118.015688004
  0
LINE
  5
84C
100
AcDbEntity
  8
DRAFT
100
AcDbLine
 62
7
  6
CONTINUOUS
 10
55.2528227772
 20
95.015688004
 11
55.2528227772
 21
86.7961018799
  0
LINE
  5
84D
100
AcDbEntity
  8
DRAFT
100
AcDbLine
 62
7
  6
CONTINUOUS
 10
55.2528227772
 20
86.2352741282
 11
55.2528227772
 21
76.4961018799
  0
LINE
  5
84E
100
AcDbEntity
  8
RACCORDO
100
AcDbLine
 62
7
  6
CONTINUOUS
 10
55.2652751512
 20
178.6227009774
 11
55.2652751512
 21
177.1236147369
  0
LINE
  5
84F
100
AcDbEntity
  8
RACCORDO
100
AcDbLine
 62
7
  6
CONTINUOUS
 10
55.2652751512
 20
35.9077612712
 11
55.2652751512
 21
34.4086750307
  0
LINE
  5
850
100
AcDbEntity
  8
DRAFT
100
AcDbLine
 62
7
  6
CONTINUOUS
 10
55.2652751512
 20
35.9077612712
 11
55.2652751512
 21
177.1236147369
  0
LINE
  5
851
100
AcDbEntity
  8
0
100
AcDbLine
 62
7
  6
CONTINUOUS
 10
55.4652751512
 20
158.765688004
 11
55.4652751512
 21
54.265688004
  0
LINE
  5
852
100
AcDbEntity
  8
RACCORDO
100
AcDbLine
 62
250
  6
CONTINUOUS
 10
55.808853357
 20
61.2681310733
 11
55.8088533133
 21
39.813244931
  0
LINE
  5
853
100
AcDbEntity
  8
RACCORDO
100
AcDbLine
 62
250
  6
CONTINUOUS
 10
55.8088533133
 20
173.2181310771
 11
55.808853357
 21
151.7632449348
  0
LINE
  5
854
100
AcDbEntity
  8
RACCORDO
100
AcDbLine
 62
7
  6
CONTINUOUS
 10
56.2652751512
 20
172.7194757594
 11
56.2652751512
 21
152.261830254
  0
LINE
  5
855
100
AcDbEntity
  8
RACCORDO
100
AcDbLine
 62
7
  6
CONTINUOUS
 10
56.2652751512
 20
60.7695457541
 11
56.2652751512
 21
40.3119002487
  0
LINE
  5
856
100
AcDbEntity
  8
DRAFT
100
AcDbLine
 62
7
  6
CONTINUOUS
 10
55.4652751512
 20
151.7331857367
 11
55.8088530226
 21
151.7632449055
  0
LINE
  5
857
100
AcDbEntity
  8
DRAFT
100
AcDbLine
 62
7
  6
CONTINUOUS
 10
55.2652751512
 20
159.765688004
 11
55.8088530226
 21
159.8132449055
  0
LINE
  5
858
100
AcDbEntity
  8
0
100
AcDbLine
 62
7
  6
CONTINUOUS
 10
55.2652751512
 20
158.765688004
 11
55.4652751512
 21
158.765688004
  0
LWPOLYLINE
  5
859
100
AcDbEntity
  8
RACCORDO
100
AcDbPolyline
 62
250
  6
CONTINUOUS
 90
7
 70
0
 10
53.8176243963
 20
180.1217872179
 10
53.8227337609
 20
180.1051644577
 10
53.8272993789
 20
180.0558563647
 10
53.8312218565
 20
179.9744110455
 10
53.8343911567
 20
179.8617317974
 10
53.8367643125
 20
179.7190573843
 10
53.8383658367
 20
179.5479419617
  0
LINE
  5
85A
100
AcDbEntity
  8
RACCORDO
100
AcDbLine
 62
7
  6
CONTINUOUS
 10
-15.9417060772
 20
171.0262211696
 11
-14.7347248488
 21
171.015688004
  0
LINE
  5
85B
100
AcDbEntity
  8
RACCORDO
100
AcDbLine
 62
7
  6
CONTINUOUS
 10
-14.7347248488
 20
176.515688004
 11
-16.2521745971
 21
176.4626974912
  0
LINE
  5
85C
100
AcDbEntity
  8
RACCORDO
100
AcDbLine
 62
250
  6
CONTINUOUS
 10
55.2652751512
 20
177.1236147369
 11
53.8176243963
 21
177.1236147369
  0
LINE
  5
85D
100
AcDbEntity
  8
RACCORDO
100
AcDbLine
 62
250
  6
CONTINUOUS
 10
-14.7347248488
 20
179.517515523
 11
53.8176243963
 21
177.1236147369
  0
LINE
  5
85E
100
AcDbEntity
  8
DRAFT
100
AcDbLine
 62
7
  6
CONTINUOUS
 10
55.2652751512
 20
173.265688004
 11
55.8088530226
 21
173.2181311025
  0
LINE
  5
85F
100
AcDbEntity
  8
RACCORDO
100
AcDbLine
 62
7
  6
CONTINUOUS
 10
-14.7347248488
 20
182.515688004
 11
53.8176243963
 21
180.1217872179
  0
CIRCLE
  5
860
100
AcDbEntity
  8
DRAFT
100
AcDbCircle
 62
7
  6
CONTINUOUS
 10
114.2551663306
 20
46.515688004
 40
6.75
  0
CIRCLE
  5
861
100
AcDbEntity
  8
RACCORDO
100
AcDbCircle
 62
250
  6
CONTINUOUS
 10
114.2551663306
 20
46.515688004
 40
6.6748822915
  0
CIRCLE
  5
862
100
AcDbEntity
  8
RACCORDO
100
AcDbCircle
 62
250
  6
CONTINUOUS
 10
114.2551663306
 20
46.515688004
 40
6.4749042923
  0
CIRCLE
  5
863
100
AcDbEntity
  8
RACCORDO
100
AcDbCircle
 62
250
  6
CONTINUOUS
 10
114.2551663306
 20
46.515688004
 40
5.5250723502
  0
CIRCLE
  5
864
100
AcDbEntity
  8
RACCORDO
100
AcDbCircle
 62
250
  6
CONTINUOUS
 10
114.2551663306
 20
46.515688004
 40
5.3251177037
  0
CIRCLE
  5
865
100
AcDbEntity
  8
DRAFT
100
AcDbCircle
 62
7
  6
CONTINUOUS
 10
114.2551663306
 20
46.515688004
 40
5.25
  0
ARC
  5
866
100
AcDbEntity
  8
DRAFT
100
AcDbCircle
 62
7
  6
CONTINUOUS
 10
112.7551663306
 20
46.515688004
 40
2.2814191169
100
AcDbArc
 50
90.0
 51
270.0
  0
ARC
  5
867
100
AcDbEntity
  8
DRAFT
100
AcDbCircle
 62
7
  6
CONTINUOUS
 10
112.7551663306
 20
46.515688004
 40
2.25
100
AcDbArc
 50
90.0
 51
270.0
  0
ARC
  5
868
100
AcDbEntity
  8
DRAFT
100
AcDbCircle
 62
7
  6
CONTINUOUS
 10
99.2551663306
 20
59.015688004
 40
5.0
100
AcDbArc
 50
188.6269265587
 51
261.3730734413
  0
ARC
  5
869
100
AcDbEntity
  8
DRAFT
100
AcDbCircle
 62
7
  6
CONTINUOUS
 10
99.2551663306
 20
59.015688004
 40
5.0
100
AcDbArc
 50
278.6269265587
 51
171.3730734413
  0
ARC
  5
86A
100
AcDbEntity
  8
DRAFT
100
AcDbCircle
 62
7
  6
CONTINUOUS
 10
99.2551663306
 20
59.015688004
 40
4.6509252884
100
AcDbArc
 50
187.5410748155
 51
262.4589251845
  0
ARC
  5
86B
100
AcDbEntity
  8
DRAFT
100
AcDbCircle
 62
7
  6
CONTINUOUS
 10
99.2551663306
 20
59.015688004
 40
4.6509252884
100
AcDbArc
 50
277.5410748155
 51
172.4589251845
  0
ARC
  5
86C
100
AcDbEntity
  8
DRAFT
100
AcDbCircle
 62
7
  6
CONTINUOUS
 10
99.2551663306
 20
59.015688004
 40
3.7399888642
100
AcDbArc
 50
189.392792043
 51
260.607207957
  0
ARC
  5
86D
100
AcDbEntity
  8
DRAFT
100
AcDbCircle
 62
7
  6
CONTINUOUS
 10
99.2551663306
 20
59.015688004
 40
3.7399888642
100
AcDbArc
 50
279.392792043
 51
170.607207957
  0
ARC
  5
86E
100
AcDbEntity
  8
RACCORDO
100
AcDbCircle
 62
7
  6
CONTINUOUS
 10
99.2551663306
 20
59.015688004
 40
3.5025952137
100
AcDbArc
 50
188.4619789626
 51
261.5380210374
  0
ARC
  5
86F
100
AcDbEntity
  8
RACCORDO
100
AcDbCircle
 62
7
  6
CONTINUOUS
 10
99.2551663306
 20
59.015688004
 40
3.5025952137
100
AcDbArc
 50
278.4619789626
 51
171.5380210374
  0
ARC
  5
870
100
AcDbEntity
  8
RACCORDO
100
AcDbCircle
 62
250
  6
CONTINUOUS
 10
99.2551663306
 20
59.015688004
 40
3.2026066368
100
AcDbArc
 50
189.2445350401
 51
260.7561691246
  0
ARC
  5
871
100
AcDbEntity
  8
RACCORDO
100
AcDbCircle
 62
250
  6
CONTINUOUS
 10
99.2551663306
 20
59.015688004
 40
3.2026066368
100
AcDbArc
 50
279.2423644154
 51
170.7552756169
  0
CIRCLE
  5
872
100
AcDbEntity
  8
0
100
AcDbCircle
 62
7
  6
CONTINUOUS
 10
99.2551663306
 20
59.015688004
 40
1.9
  0
CIRCLE
  5
873
100
AcDbEntity
  8
0
100
AcDbCircle
 62
7
  6
CONTINUOUS
 10
99.2551663306
 20
59.015688004
 40
1.5
  0
ARC
  5
874
100
AcDbEntity
  8
DRAFT
100
AcDbCircle
 62
7
  6
CONTINUOUS
 10
130.2551663306
 20
48.515688004
 40
2.75
100
AcDbArc
 50
90.0
 51
270.0
  0
ARC
  5
875
100
AcDbEntity
  8
DRAFT
100
AcDbCircle
 62
7
  6
CONTINUOUS
 10
130.2551663306
 20
48.515688004
 40
2.6452696104
100
AcDbArc
 50
90.0
 51
270.0
  0
ARC
  5
876
100
AcDbEntity
  8
DRAFT
100
AcDbCircle
 62
7
  6
CONTINUOUS
 10
115.7551663306
 20
46.515688004
 40
2.2814191169
100
AcDbArc
 50
270.0
 51
90.0
  0
ARC
  5
877
100
AcDbEntity
  8
DRAFT
100
AcDbCircle
 62
7
  6
CONTINUOUS
 10
115.7551663306
 20
46.515688004
 40
2.25
100
AcDbArc
 50
270.0
 51
90.0
  0
ARC
  5
878
100
AcDbEntity
  8
RACCORDO
100
AcDbCircle
 62
250
  6
CONTINUOUS
 10
130.2551663306
 20
48.515688004
 40
1.5960758414
100
AcDbArc
 50
90.0
 51
270.0
  0
ARC
  5
879
100
AcDbEntity
  8
RACCORDO
100
AcDbCircle
 62
250
  6
CONTINUOUS
 10
130.2551663306
 20
48.515688004
 40
1.0961551726
100
AcDbArc
 50
90.0
 51
270.0
  0
ARC
  5
87A
100
AcDbEntity
  8
DRAFT
100
AcDbCircle
 62
7
  6
CONTINUOUS
 10
130.2551663306
 20
48.515688004
 40
1.0
100
AcDbArc
 50
90.0
 51
270.0
  0
CIRCLE
  5
87B
100
AcDbEntity
  8
ASSI
100
AcDbCircle
 62
7
  6
CONTINUOUS
 10
139.2551663306
 20
74.015688004
 40
20.5
  0
CIRCLE
  5
87C
100
AcDbEntity
  8
0
100
AcDbCircle
 62
7
  6
CONTINUOUS
 10
139.2551663306
 20
74.015688004
 40
20.1
  0
CIRCLE
  5
87D
100
AcDbEntity
  8
0
100
AcDbCircle
 62
7
  6
CONTINUOUS
 10
139.2551663306
 20
74.015688004
 40
19.6
  0
CIRCLE
  5
87E
100
AcDbEntity
  8
DRAFT
100
AcDbCircle
 62
7
  6
CONTINUOUS
 10
139.2551663306
 20
74.015688004
 40
16.5087275325
  0
CIRCLE
  5
87F
100
AcDbEntity
  8
0
100
AcDbCircle
 62
7
  6
CONTINUOUS
 10
139.2551663306
 20
74.015688004
 40
16.1
  0
CIRCLE
  5
880
100
AcDbEntity
  8
0
100
AcDbCircle
 62
7
  6
CONTINUOUS
 10
139.2551663306
 20
74.015688004
 40
15.6
  0
CIRCLE
  5
881
100
AcDbEntity
  8
DRAFT
100
AcDbCircle
 62
7
  6
CONTINUOUS
 10
139.2551663306
 20
74.015688004
 40
13.0087275325
  0
CIRCLE
  5
882
100
AcDbEntity
  8
0
100
AcDbCircle
 62
7
  6
CONTINUOUS
 10
139.2551663306
 20
74.015688004
 40
12.6
  0
CIRCLE
  5
883
100
AcDbEntity
  8
0
100
AcDbCircle
 62
7
  6
CONTINUOUS
 10
139.2551663306
 20
74.015688004
 40
12.1
  0
ARC
  5
884
100
AcDbEntity
  8
DRAFT
100
AcDbCircle
 62
7
  6
CONTINUOUS
 10
148.2551663306
 20
48.515688004
 40
2.75
100
AcDbArc
 50
270.0
 51
90.0
  0
ARC
  5
885
100
AcDbEntity
  8
DRAFT
100
AcDbCircle
 62
7
  6
CONTINUOUS
 10
148.2551663306
 20
48.515688004
 40
2.6452696104
100
AcDbArc
 50
270.0
 51
90.0
  0
ARC
  5
886
100
AcDbEntity
  8
RACCORDO
100
AcDbCircle
 62
250
  6
CONTINUOUS
 10
148.2551663306
 20
48.515688004
 40
1.5960758414
100
AcDbArc
 50
270.0
 51
90.0
  0
ARC
  5
887
100
AcDbEntity
  8
RACCORDO
100
AcDbCircle
 62
250
  6
CONTINUOUS
 10
148.2551663306
 20
48.515688004
 40
1.0961551726
100
AcDbArc
 50
270.0
 51
90.0
  0
ARC
  5
888
100
AcDbEntity
  8
DRAFT
100
AcDbCircle
 62
7
  6
CONTINUOUS
 10
148.2551663306
 20
48.515688004
 40
1.0
100
AcDbArc
 50
270.0
 51
90.0
  0
ARC
  5
889
100
AcDbEntity
  8
ASSI
100
AcDbCircle
 62
7
  6
CONTINUOUS
 10
179.6727223306
 20
93.515688004
 40
2.5499986575
100
AcDbArc
 50
87.7525287227
 51
272.2474707841
  0
ARC
  5
88A
100
AcDbEntity
  8
ASSI
100
AcDbCircle
 62
7
  6
CONTINUOUS
 10
175.2876123306
 20
93.515688004
 40
2.5499985399
100
AcDbArc
 50
87.7525290943
 51
272.2474708871
  0
ARC
  5
88B
100
AcDbEntity
  8
ASSI
100
AcDbCircle
 62
7
  6
CONTINUOUS
 10
179.6727223306
 20
93.515688004
 40
1.7999999246
100
AcDbArc
 50
86.8152613297
 51
167.9752993829
  0
ARC
  5
88C
100
AcDbEntity
  8
ASSI
100
AcDbCircle
 62
7
  6
CONTINUOUS
 10
175.2876123306
 20
93.515688004
 40
1.7999999246
100
AcDbArc
 50
86.8152613297
 51
273.1847386302
  0
ARC
  5
88D
100
AcDbEntity
  8
ASSI
100
AcDbCircle
 62
7
  6
CONTINUOUS
 10
179.6727223306
 20
93.515688004
 40
1.7999968808
100
AcDbArc
 50
192.0247203293
 51
273.184745226
  0
ARC
  5
88E
100
AcDbEntity
  8
DRAFT
100
AcDbCircle
 62
7
  6
CONTINUOUS
 10
99.2551663306
 20
154.015688004
 40
5.0
100
AcDbArc
 50
98.6269265587
 51
171.3730734413
  0
ARC
  5
88F
100
AcDbEntity
  8
DRAFT
100
AcDbCircle
 62
7
  6
CONTINUOUS
 10
99.2551663306
 20
154.015688004
 40
5.0
100
AcDbArc
 50
188.6269265587
 51
81.3730734413
  0
ARC
  5
890
100
AcDbEntity
  8
DRAFT
100
AcDbCircle
 62
7
  6
CONTINUOUS
 10
99.2551663306
 20
154.015688004
 40
4.6509252884
100
AcDbArc
 50
97.5410748155
 51
172.4589251845
  0
ARC
  5
891
100
AcDbEntity
  8
DRAFT
100
AcDbCircle
 62
7
  6
CONTINUOUS
 10
99.2551663306
 20
154.015688004
 40
4.6509252884
100
AcDbArc
 50
187.5410748155
 51
82.4589251845
  0
ARC
  5
892
100
AcDbEntity
  8
DRAFT
100
AcDbCircle
 62
7
  6
CONTINUOUS
 10
99.2551663306
 20
154.015688004
 40
3.7399888642
100
AcDbArc
 50
99.392792043
 51
170.607207957
  0
ARC
  5
893
100
AcDbEntity
  8
DRAFT
100
AcDbCircle
 62
7
  6
CONTINUOUS
 10
99.2551663306
 20
154.015688004
 40
3.7399888642
100
AcDbArc
 50
189.392792043
 51
80.607207957
  0
ARC
  5
894
100
AcDbEntity
  8
RACCORDO
100
AcDbCircle
 62
7
  6
CONTINUOUS
 10
99.2551663306
 20
154.015688004
 40
3.5025952137
100
AcDbArc
 50
98.4619789626
 51
171.5380210374
  0
ARC
  5
895
100
AcDbEntity
  8
RACCORDO
100
AcDbCircle
 62
7
  6
CONTINUOUS
 10
99.2551663306
 20
154.015688004
 40
3.5025952137
100
AcDbArc
 50
188.4619789626
 51
81.5380210374
  0
ARC
  5
896
100
AcDbEntity
  8
RACCORDO
100
AcDbCircle
 62
250
  6
CONTINUOUS
 10
99.2551663306
 20
154.015688004
 40
3.2026066368
100
AcDbArc
 50
99.2424553895
 51
170.7556695648
  0
ARC
  5
897
100
AcDbEntity
  8
RACCORDO
100
AcDbCircle
 62
250
  6
CONTINUOUS
 10
99.2551663306
 20
154.015688004
 40
3.2026066368
100
AcDbArc
 50
189.2442378051
 51
80.7574085468
  0
CIRCLE
  5
898
100
AcDbEntity
  8
0
100
AcDbCircle
 62
7
  6
CONTINUOUS
 10
99.2551663306
 20
154.015688004
 40
1.9
  0
CIRCLE
  5
899
100
AcDbEntity
  8
0
100
AcDbCircle
 62
7
  6
CONTINUOUS
 10
99.2551663306
 20
154.015688004
 40
1.5
  0
CIRCLE
  5
89A
100
AcDbEntity
  8
DRAFT
100
AcDbCircle
 62
7
  6
CONTINUOUS
 10
114.2551663306
 20
166.515688004
 40
6.75
  0
CIRCLE
  5
89B
100
AcDbEntity
  8
RACCORDO
100
AcDbCircle
 62
250
  6
CONTINUOUS
 10
114.2551663306
 20
166.515688004
 40
6.6748822915
  0
CIRCLE
  5
89C
100
AcDbEntity
  8
RACCORDO
100
AcDbCircle
 62
250
  6
CONTINUOUS
 10
114.2551663306
 20
166.515688004
 40
6.4749042923
  0
CIRCLE
  5
89D
100
AcDbEntity
  8
RACCORDO
100
AcDbCircle
 62
250
  6
CONTINUOUS
 10
114.2551663306
 20
166.515688004
 40
5.5250723502
  0
CIRCLE
  5
89E
100
AcDbEntity
  8
RACCORDO
100
AcDbCircle
 62
250
  6
CONTINUOUS
 10
114.2551663306
 20
166.515688004
 40
5.3251177037
  0
CIRCLE
  5
89F
100
AcDbEntity
  8
DRAFT
100
AcDbCircle
 62
7
  6
CONTINUOUS
 10
114.2551663306
 20
166.515688004
 40
5.25
  0
ARC
  5
8A0
100
AcDbEntity
  8
DRAFT
100
AcDbCircle
 62
7
  6
CONTINUOUS
 10
114.2551663306
 20
165.015688004
 40
2.2814191169
100
AcDbArc
 50
180.0
 51
360.0
  0
ARC
  5
8A1
100
AcDbEntity
  8
DRAFT
100
AcDbCircle
 62
7
  6
CONTINUOUS
 10
114.2551663306
 20
168.015688004
 40
2.2814191169
100
AcDbArc
 50
0.0
 51
180.0
  0
ARC
  5
8A2
100
AcDbEntity
  8
DRAFT
100
AcDbCircle
 62
7
  6
CONTINUOUS
 10
114.2551663306
 20
165.015688004
 40
2.25
100
AcDbArc
 50
180.0
 51
360.0
  0
ARC
  5
8A3
100
AcDbEntity
  8
DRAFT
100
AcDbCircle
 62
7
  6
CONTINUOUS
 10
114.2551663306
 20
168.015688004
 40
2.25
100
AcDbArc
 50
0.0
 51
180.0
  0
CIRCLE
  5
8A4
100
AcDbEntity
  8
ASSI
100
AcDbCircle
 62
7
  6
CONTINUOUS
 10
139.2551663306
 20
139.015688004
 40
20.5
  0
CIRCLE
  5
8A5
100
AcDbEntity
  8
0
100
AcDbCircle
 62
7
  6
CONTINUOUS
 10
139.2551663306
 20
139.015688004
 40
20.1
  0
CIRCLE
  5
8A6
100
AcDbEntity
  8
0
100
AcDbCircle
 62
7
  6
CONTINUOUS
 10
139.2551663306
 20
139.015688004
 40
19.6
  0
CIRCLE
  5
8A7
100
AcDbEntity
  8
DRAFT
100
AcDbCircle
 62
7
  6
CONTINUOUS
 10
139.2551663306
 20
139.015688004
 40
16.5087275325
  0
CIRCLE
  5
8A8
100
AcDbEntity
  8
0
100
AcDbCircle
 62
7
  6
CONTINUOUS
 10
139.2551663306
 20
139.015688004
 40
16.1
  0
CIRCLE
  5
8A9
100
AcDbEntity
  8
0
100
AcDbCircle
 62
7
  6
CONTINUOUS
 10
139.2551663306
 20
139.015688004
 40
15.6
  0
CIRCLE
  5
8AA
100
AcDbEntity
  8
DRAFT
100
AcDbCircle
 62
7
  6
CONTINUOUS
 10
139.2551663306
 20
139.015688004
 40
13.0087275325
  0
CIRCLE
  5
8AB
100
AcDbEntity
  8
0
100
AcDbCircle
 62
7
  6
CONTINUOUS
 10
139.2551663306
 20
139.015688004
 40
12.6
  0
CIRCLE
  5
8AC
100
AcDbEntity
  8
0
100
AcDbCircle
 62
7
  6
CONTINUOUS
 10
139.2551663306
 20
139.015688004
 40
12.1
  0
ARC
  5
8AD
100
AcDbEntity
  8
DRAFT
100
AcDbCircle
 62
7
  6
CONTINUOUS
 10
130.2551663306
 20
164.515688004
 40
2.75
100
AcDbArc
 50
90.0
 51
270.0
  0
ARC
  5
8AE
100
AcDbEntity
  8
DRAFT
100
AcDbCircle
 62
7
  6
CONTINUOUS
 10
148.2551663306
 20
164.515688004
 40
2.75
100
AcDbArc
 50
270.0
 51
90.0
  0
ARC
  5
8AF
100
AcDbEntity
  8
DRAFT
100
AcDbCircle
 62
7
  6
CONTINUOUS
 10
148.2551663306
 20
164.515688004
 40
2.6452696104
100
AcDbArc
 50
270.0
 51
90.0
  0
ARC
  5
8B0
100
AcDbEntity
  8
DRAFT
100
AcDbCircle
 62
7
  6
CONTINUOUS
 10
130.2551663306
 20
164.515688004
 40
2.6452696104
100
AcDbArc
 50
90.0
 51
270.0
  0
ARC
  5
8B1
100
AcDbEntity
  8
RACCORDO
100
AcDbCircle
 62
250
  6
CONTINUOUS
 10
148.2551663306
 20
164.515688004
 40
1.5960758414
100
AcDbArc
 50
270.0
 51
90.0
  0
ARC
  5
8B2
100
AcDbEntity
  8
RACCORDO
100
AcDbCircle
 62
250
  6
CONTINUOUS
 10
130.2551663306
 20
164.515688004
 40
1.5960758414
100
AcDbArc
 50
90.0
 51
270.0
  0
ARC
  5
8B3
100
AcDbEntity
  8
RACCORDO
100
AcDbCircle
 62
250
  6
CONTINUOUS
 10
148.2551663306
 20
164.515688004
 40
1.0961551726
100
AcDbArc
 50
270.0
 51
90.0
  0
ARC
  5
8B4
100
AcDbEntity
  8
RACCORDO
100
AcDbCircle
 62
250
  6
CONTINUOUS
 10
130.2551663306
 20
164.515688004
 40
1.0961551726
100
AcDbArc
 50
90.0
 51
270.0
  0
ARC
  5
8B5
100
AcDbEntity
  8
DRAFT
100
AcDbCircle
 62
7
  6
CONTINUOUS
 10
148.2551663306
 20
164.515688004
 40
1.0
100
AcDbArc
 50
270.0
 51
90.0
  0
ARC
  5
8B6
100
AcDbEntity
  8
DRAFT
100
AcDbCircle
 62
7
  6
CONTINUOUS
 10
130.2551663306
 20
164.515688004
 40
1.0
100
AcDbArc
 50
90.0
 51
270.0
  0
CIRCLE
  5
8B7
100
AcDbEntity
  8
DRAFT
100
AcDbCircle
 62
7
  6
CONTINUOUS
 10
189.2551663306
 20
56.515688004
 40
3.0
  0
ARC
  5
8B8
100
AcDbEntity
  8
DRAFT
100
AcDbCircle
 62
7
  6
CONTINUOUS
 10
230.2551663306
 20
48.515688004
 40
2.75
100
AcDbArc
 50
90.0
 51
270.0
  0
ARC
  5
8B9
100
AcDbEntity
  8
DRAFT
100
AcDbCircle
 62
7
  6
CONTINUOUS
 10
230.2551663306
 20
48.515688004
 40
2.6452696104
100
AcDbArc
 50
90.0
 51
270.0
  0
ARC
  5
8BA
100
AcDbEntity
  8
RACCORDO
100
AcDbCircle
 62
250
  6
CONTINUOUS
 10
230.2551663306
 20
48.515688004
 40
1.5960758414
100
AcDbArc
 50
90.0
 51
270.0
  0
CIRCLE
  5
8BB
100
AcDbEntity
  8
ASSI
100
AcDbCircle
 62
7
  6
CONTINUOUS
 10
189.2551663306
 20
56.515688004
 40
1.3856406461
  0
ARC
  5
8BC
100
AcDbEntity
  8
RACCORDO
100
AcDbCircle
 62
250
  6
CONTINUOUS
 10
230.2551663306
 20
48.515688004
 40
1.0961551726
100
AcDbArc
 50
90.0
 51
270.0
  0
ARC
  5
8BD
100
AcDbEntity
  8
DRAFT
100
AcDbCircle
 62
7
  6
CONTINUOUS
 10
230.2551663306
 20
48.515688004
 40
1.0
100
AcDbArc
 50
90.0
 51
270.0
  0
ARC
  5
8BE
100
AcDbEntity
  8
ASSI
100
AcDbCircle
 62
7
  6
CONTINUOUS
 10
202.2551663306
 20
93.515688004
 40
2.6237424326
100
AcDbArc
 50
292.0885380792
 51
273.4296275093
  0
ARC
  5
8BF
100
AcDbEntity
  8
ASSI
100
AcDbCircle
 62
7
  6
CONTINUOUS
 10
202.1758093306
 20
88.569595004
 40
2.3390187052
100
AcDbArc
 50
47.2312712626
 51
84.2013994484
  0
ARC
  5
8C0
100
AcDbEntity
  8
ASSI
100
AcDbCircle
 62
7
  6
CONTINUOUS
 10
202.3598883306
 20
88.948464004
 40
2.3109495123
100
AcDbArc
 50
45.4348886633
 51
67.5658631502
  0
CIRCLE
  5
8C1
100
AcDbEntity
  8
ASSI
100
AcDbCircle
 62
7
  6
CONTINUOUS
 10
202.2551663306
 20
93.515688004
 40
2.20376
  0
ARC
  5
8C2
100
AcDbEntity
  8
ASSI
100
AcDbCircle
 62
7
  6
CONTINUOUS
 10
202.2551663306
 20
93.515688004
 40
1.9709567246
100
AcDbArc
 50
299.3041457634
 51
44.9957848492
  0
ARC
  5
8C3
100
AcDbEntity
  8
ASSI
100
AcDbCircle
 62
7
  6
CONTINUOUS
 10
202.2551663306
 20
93.515688004
 40
1.9709563643
100
AcDbArc
 50
134.9002846268
 51
240.6958542366
  0
ARC
  5
8C4
100
AcDbEntity
  8
ASSI
100
AcDbCircle
 62
7
  6
CONTINUOUS
 10
202.2551663306
 20
93.515688004
 40
1.5790921275
100
AcDbArc
 50
148.0267086216
 51
240.6958772397
  0
ARC
  5
8C5
100
AcDbEntity
  8
ASSI
100
AcDbCircle
 62
7
  6
CONTINUOUS
 10
202.2551663306
 20
93.515688004
 40
1.5790919977
100
AcDbArc
 50
299.3041227603
 51
31.9732906835
  0
ARC
  5
8C6
100
AcDbEntity
  8
DRAFT
100
AcDbCircle
 62
7
  6
CONTINUOUS
 10
248.2551663306
 20
48.515688004
 40
2.75
100
AcDbArc
 50
270.0
 51
90.0
  0
ARC
  5
8C7
100
AcDbEntity
  8
DRAFT
100
AcDbCircle
 62
7
  6
CONTINUOUS
 10
248.2551663306
 20
48.515688004
 40
2.6452696104
100
AcDbArc
 50
270.0
 51
90.0
  0
ARC
  5
8C8
100
AcDbEntity
  8
RACCORDO
100
AcDbCircle
 62
250
  6
CONTINUOUS
 10
248.2551663306
 20
48.515688004
 40
1.5960758414
100
AcDbArc
 50
270.0
 51
90.0
  0
ARC
  5
8C9
100
AcDbEntity
  8
RACCORDO
100
AcDbCircle
 62
250
  6
CONTINUOUS
 10
248.2551663306
 20
48.515688004
 40
1.0961551726
100
AcDbArc
 50
270.0
 51
90.0
  0
ARC
  5
8CA
100
AcDbEntity
  8
DRAFT
100
AcDbCircle
 62
7
  6
CONTINUOUS
 10
248.2551663306
 20
48.515688004
 40
1.0
100
AcDbArc
 50
270.0
 51
90.0
  0
CIRCLE
  5
8CB
100
AcDbEntity
  8
DRAFT
100
AcDbCircle
 62
7
  6
CONTINUOUS
 10
264.2551663306
 20
46.515688004
 40
6.75
  0
CIRCLE
  5
8CC
100
AcDbEntity
  8
RACCORDO
100
AcDbCircle
 62
250
  6
CONTINUOUS
 10
264.2551663306
 20
46.515688004
 40
6.6748822915
  0
CIRCLE
  5
8CD
100
AcDbEntity
  8
RACCORDO
100
AcDbCircle
 62
250
  6
CONTINUOUS
 10
264.2551663306
 20
46.515688004
 40
6.4749042923
  0
CIRCLE
  5
8CE
100
AcDbEntity
  8
RACCORDO
100
AcDbCircle
 62
250
  6
CONTINUOUS
 10
264.2551663306
 20
46.515688004
 40
5.5250723502
  0
CIRCLE
  5
8CF
100
AcDbEntity
  8
RACCORDO
100
AcDbCircle
 62
250
  6
CONTINUOUS
 10
264.2551663306
 20
46.515688004
 40
5.3251177037
  0
CIRCLE
  5
8D0
100
AcDbEntity
  8
DRAFT
100
AcDbCircle
 62
7
  6
CONTINUOUS
 10
264.2551663306
 20
46.515688004
 40
5.25
  0
ARC
  5
8D1
100
AcDbEntity
  8
DRAFT
100
AcDbCircle
 62
7
  6
CONTINUOUS
 10
264.2551663306
 20
45.015688004
 40
2.2814191169
100
AcDbArc
 50
180.0
 51
360.0
  0
ARC
  5
8D2
100
AcDbEntity
  8
DRAFT
100
AcDbCircle
 62
7
  6
CONTINUOUS
 10
264.2551663306
 20
48.015688004
 40
2.2814191169
100
AcDbArc
 50
0.0
 51
180.0
  0
ARC
  5
8D3
100
AcDbEntity
  8
DRAFT
100
AcDbCircle
 62
7
  6
CONTINUOUS
 10
264.2551663306
 20
45.015688004
 40
2.25
100
AcDbArc
 50
180.0
 51
360.0
  0
ARC
  5
8D4
100
AcDbEntity
  8
DRAFT
100
AcDbCircle
 62
7
  6
CONTINUOUS
 10
264.2551663306
 20
48.015688004
 40
2.25
100
AcDbArc
 50
0.0
 51
180.0
  0
ARC
  5
8D5
100
AcDbEntity
  8
DRAFT
100
AcDbCircle
 62
7
  6
CONTINUOUS
 10
279.2551663306
 20
59.015688004
 40
5.0
100
AcDbArc
 50
278.6269265587
 51
351.3730734413
  0
ARC
  5
8D6
100
AcDbEntity
  8
DRAFT
100
AcDbCircle
 62
7
  6
CONTINUOUS
 10
279.2551663306
 20
59.015688004
 40
5.0
100
AcDbArc
 50
8.6269265587
 51
261.3730734413
  0
ARC
  5
8D7
100
AcDbEntity
  8
DRAFT
100
AcDbCircle
 62
7
  6
CONTINUOUS
 10
279.2551663306
 20
59.015688004
 40
4.6509252884
100
AcDbArc
 50
277.5410748155
 51
352.4589251845
  0
ARC
  5
8D8
100
AcDbEntity
  8
DRAFT
100
AcDbCircle
 62
7
  6
CONTINUOUS
 10
279.2551663306
 20
59.015688004
 40
4.6509252884
100
AcDbArc
 50
7.5410748155
 51
262.4589251845
  0
ARC
  5
8D9
100
AcDbEntity
  8
DRAFT
100
AcDbCircle
 62
7
  6
CONTINUOUS
 10
279.2551663306
 20
59.015688004
 40
3.7399888642
100
AcDbArc
 50
279.392792043
 51
350.607207957
  0
ARC
  5
8DA
100
AcDbEntity
  8
DRAFT
100
AcDbCircle
 62
7
  6
CONTINUOUS
 10
279.2551663306
 20
59.015688004
 40
3.7399888642
100
AcDbArc
 50
9.392792043
 51
260.607207957
  0
ARC
  5
8DB
100
AcDbEntity
  8
RACCORDO
100
AcDbCircle
 62
7
  6
CONTINUOUS
 10
279.2551663306
 20
59.015688004
 40
3.5025952137
100
AcDbArc
 50
278.4619789626
 51
351.5380210374
  0
ARC
  5
8DC
100
AcDbEntity
  8
RACCORDO
100
AcDbCircle
 62
7
  6
CONTINUOUS
 10
279.2551663306
 20
59.015688004
 40
3.5025952137
100
AcDbArc
 50
8.4619789626
 51
261.5380210374
  0
ARC
  5
8DD
100
AcDbEntity
  8
RACCORDO
100
AcDbCircle
 62
250
  6
CONTINUOUS
 10
279.2551663306
 20
59.015688004
 40
3.2026066368
100
AcDbArc
 50
279.2424514349
 51
350.7556723834
  0
ARC
  5
8DE
100
AcDbEntity
  8
RACCORDO
100
AcDbCircle
 62
250
  6
CONTINUOUS
 10
279.2551663306
 20
59.015688004
 40
3.2026066368
100
AcDbArc
 50
9.2442369512
 51
260.7574060835
  0
CIRCLE
  5
8DF
100
AcDbEntity
  8
0
100
AcDbCircle
 62
7
  6
CONTINUOUS
 10
279.2551663306
 20
59.015688004
 40
1.9
  0
CIRCLE
  5
8E0
100
AcDbEntity
  8
0
100
AcDbCircle
 62
7
  6
CONTINUOUS
 10
279.2551663306
 20
59.015688004
 40
1.5
  0
CIRCLE
  5
8E1
100
AcDbEntity
  8
ASSI
100
AcDbCircle
 62
7
  6
CONTINUOUS
 10
239.2551663306
 20
74.015688004
 40
20.5
  0
CIRCLE
  5
8E2
100
AcDbEntity
  8
0
100
AcDbCircle
 62
7
  6
CONTINUOUS
 10
239.2551663306
 20
74.015688004
 40
20.1
  0
CIRCLE
  5
8E3
100
AcDbEntity
  8
0
100
AcDbCircle
 62
7
  6
CONTINUOUS
 10
239.2551663306
 20
74.015688004
 40
19.6
  0
CIRCLE
  5
8E4
100
AcDbEntity
  8
DRAFT
100
AcDbCircle
 62
7
  6
CONTINUOUS
 10
239.2551663306
 20
74.015688004
 40
16.5087275325
  0
CIRCLE
  5
8E5
100
AcDbEntity
  8
0
100
AcDbCircle
 62
7
  6
CONTINUOUS
 10
239.2551663306
 20
74.015688004
 40
16.1
  0
CIRCLE
  5
8E6
100
AcDbEntity
  8
0
100
AcDbCircle
 62
7
  6
CONTINUOUS
 10
239.2551663306
 20
74.015688004
 40
15.6
  0
CIRCLE
  5
8E7
100
AcDbEntity
  8
DRAFT
100
AcDbCircle
 62
7
  6
CONTINUOUS
 10
239.2551663306
 20
74.015688004
 40
13.0087275325
  0
CIRCLE
  5
8E8
100
AcDbEntity
  8
0
100
AcDbCircle
 62
7
  6
CONTINUOUS
 10
239.2551663306
 20
74.015688004
 40
12.6
  0
CIRCLE
  5
8E9
100
AcDbEntity
  8
0
100
AcDbCircle
 62
7
  6
CONTINUOUS
 10
239.2551663306
 20
74.015688004
 40
12.1
  0
ARC
  5
8EA
100
AcDbEntity
  8
ASSI
100
AcDbCircle
 62
7
  6
CONTINUOUS
 10
201.4017233306
 20
126.320713004
 40
2.0701324399
100
AcDbArc
 50
292.8428733229
 51
89.9992690507
  0
ARC
  5
8EB
100
AcDbEntity
  8
ASSI
100
AcDbCircle
 62
7
  6
CONTINUOUS
 10
201.2143393306
 20
126.320713004
 40
0.821325
100
AcDbArc
 50
270.0013017506
 51
90.0002603482
  0
CIRCLE
  5
8EC
100
AcDbEntity
  8
DRAFT
100
AcDbCircle
 62
7
  6
CONTINUOUS
 10
189.2551663306
 20
156.515688004
 40
3.0
  0
ARC
  5
8ED
100
AcDbEntity
  8
DRAFT
100
AcDbCircle
 62
7
  6
CONTINUOUS
 10
230.2551663306
 20
164.515688004
 40
2.75
100
AcDbArc
 50
90.0
 51
270.0
  0
ARC
  5
8EE
100
AcDbEntity
  8
DRAFT
100
AcDbCircle
 62
7
  6
CONTINUOUS
 10
230.2551663306
 20
164.515688004
 40
2.6452696104
100
AcDbArc
 50
90.0
 51
270.0
  0
ARC
  5
8EF
100
AcDbEntity
  8
RACCORDO
100
AcDbCircle
 62
250
  6
CONTINUOUS
 10
230.2551663306
 20
164.515688004
 40
1.5960758414
100
AcDbArc
 50
90.0
 51
270.0
  0
CIRCLE
  5
8F0
100
AcDbEntity
  8
ASSI
100
AcDbCircle
 62
7
  6
CONTINUOUS
 10
189.2551663306
 20
156.515688004
 40
1.3856406461
  0
ARC
  5
8F1
100
AcDbEntity
  8
RACCORDO
100
AcDbCircle
 62
250
  6
CONTINUOUS
 10
230.2551663306
 20
164.515688004
 40
1.0961551726
100
AcDbArc
 50
90.0
 51
270.0
  0
ARC
  5
8F2
100
AcDbEntity
  8
DRAFT
100
AcDbCircle
 62
7
  6
CONTINUOUS
 10
230.2551663306
 20
164.515688004
 40
1.0
100
AcDbArc
 50
90.0
 51
270.0
  0
CIRCLE
  5
8F3
100
AcDbEntity
  8
ASSI
100
AcDbCircle
 62
7
  6
CONTINUOUS
 10
239.2551663306
 20
139.015688004
 40
20.5
  0
CIRCLE
  5
8F4
100
AcDbEntity
  8
0
100
AcDbCircle
 62
7
  6
CONTINUOUS
 10
239.2551663306
 20
139.015688004
 40
20.1
  0
CIRCLE
  5
8F5
100
AcDbEntity
  8
0
100
AcDbCircle
 62
7
  6
CONTINUOUS
 10
239.2551663306
 20
139.015688004
 40
19.6
  0
CIRCLE
  5
8F6
100
AcDbEntity
  8
DRAFT
100
AcDbCircle
 62
7
  6
CONTINUOUS
 10
239.2551663306
 20
139.015688004
 40
16.5087275325
  0
CIRCLE
  5
8F7
100
AcDbEntity
  8
0
100
AcDbCircle
 62
7
  6
CONTINUOUS
 10
239.2551663306
 20
139.015688004
 40
16.1
  0
CIRCLE
  5
8F8
100
AcDbEntity
  8
0
100
AcDbCircle
 62
7
  6
CONTINUOUS
 10
239.2551663306
 20
139.015688004
 40
15.6
  0
CIRCLE
  5
8F9
100
AcDbEntity
  8
DRAFT
100
AcDbCircle
 62
7
  6
CONTINUOUS
 10
239.2551663306
 20
139.015688004
 40
13.0087275325
  0
CIRCLE
  5
8FA
100
AcDbEntity
  8
0
100
AcDbCircle
 62
7
  6
CONTINUOUS
 10
239.2551663306
 20
139.015688004
 40
12.6
  0
CIRCLE
  5
8FB
100
AcDbEntity
  8
0
100
AcDbCircle
 62
7
  6
CONTINUOUS
 10
239.2551663306
 20
139.015688004
 40
12.1
  0
ARC
  5
8FC
100
AcDbEntity
  8
DRAFT
100
AcDbCircle
 62
7
  6
CONTINUOUS
 10
248.2551663306
 20
164.515688004
 40
2.75
100
AcDbArc
 50
270.0
 51
90.0
  0
ARC
  5
8FD
100
AcDbEntity
  8
DRAFT
100
AcDbCircle
 62
7
  6
CONTINUOUS
 10
248.2551663306
 20
164.515688004
 40
2.6452696104
100
AcDbArc
 50
270.0
 51
90.0
  0
ARC
  5
8FE
100
AcDbEntity
  8
DRAFT
100
AcDbCircle
 62
7
  6
CONTINUOUS
 10
262.7551663306
 20
166.515688004
 40
2.2814191169
100
AcDbArc
 50
90.0
 51
270.0
  0
ARC
  5
8FF
100
AcDbEntity
  8
DRAFT
100
AcDbCircle
 62
7
  6
CONTINUOUS
 10
262.7551663306
 20
166.515688004
 40
2.25
100
AcDbArc
 50
90.0
 51
270.0
  0
ARC
  5
900
100
AcDbEntity
  8
RACCORDO
100
AcDbCircle
 62
250
  6
CONTINUOUS
 10
248.2551663306
 20
164.515688004
 40
1.5960758414
100
AcDbArc
 50
270.0
 51
90.0
  0
ARC
  5
901
100
AcDbEntity
  8
RACCORDO
100
AcDbCircle
 62
250
  6
CONTINUOUS
 10
248.2551663306
 20
164.515688004
 40
1.0961551726
100
AcDbArc
 50
270.0
 51
90.0
  0
ARC
  5
902
100
AcDbEntity
  8
DRAFT
100
AcDbCircle
 62
7
  6
CONTINUOUS
 10
248.2551663306
 20
164.515688004
 40
1.0
100
AcDbArc
 50
270.0
 51
90.0
  0
ARC
  5
903
100
AcDbEntity
  8
DRAFT
100
AcDbCircle
 62
7
  6
CONTINUOUS
 10
279.2551663306
 20
154.015688004
 40
5.0
100
AcDbArc
 50
8.6269265587
 51
81.3730734413
  0
ARC
  5
904
100
AcDbEntity
  8
DRAFT
100
AcDbCircle
 62
7
  6
CONTINUOUS
 10
279.2551663306
 20
154.015688004
 40
5.0
100
AcDbArc
 50
98.6269265587
 51
351.3730734413
  0
ARC
  5
905
100
AcDbEntity
  8
DRAFT
100
AcDbCircle
 62
7
  6
CONTINUOUS
 10
279.2551663306
 20
154.015688004
 40
4.6509252884
100
AcDbArc
 50
7.5410748155
 51
82.4589251845
  0
ARC
  5
906
100
AcDbEntity
  8
DRAFT
100
AcDbCircle
 62
7
  6
CONTINUOUS
 10
279.2551663306
 20
154.015688004
 40
4.6509252884
100
AcDbArc
 50
97.5410748155
 51
352.4589251845
  0
ARC
  5
907
100
AcDbEntity
  8
DRAFT
100
AcDbCircle
 62
7
  6
CONTINUOUS
 10
279.2551663306
 20
154.015688004
 40
3.7399888642
100
AcDbArc
 50
9.392792043
 51
80.607207957
  0
ARC
  5
908
100
AcDbEntity
  8
DRAFT
100
AcDbCircle
 62
7
  6
CONTINUOUS
 10
279.2551663306
 20
154.015688004
 40
3.7399888642
100
AcDbArc
 50
99.392792043
 51
350.607207957
  0
ARC
  5
909
100
AcDbEntity
  8
RACCORDO
100
AcDbCircle
 62
7
  6
CONTINUOUS
 10
279.2551663306
 20
154.015688004
 40
3.5025952137
100
AcDbArc
 50
8.4619789626
 51
81.5380210374
  0
ARC
  5
90A
100
AcDbEntity
  8
RACCORDO
100
AcDbCircle
 62
7
  6
CONTINUOUS
 10
279.2551663306
 20
154.015688004
 40
3.5025952137
100
AcDbArc
 50
98.4619789626
 51
351.5380210374
  0
ARC
  5
90B
100
AcDbEntity
  8
RACCORDO
100
AcDbCircle
 62
250
  6
CONTINUOUS
 10
279.2551663306
 20
154.015688004
 40
3.2026066368
100
AcDbArc
 50
9.2424396941
 51
80.7556808441
  0
ARC
  5
90C
100
AcDbEntity
  8
RACCORDO
100
AcDbCircle
 62
250
  6
CONTINUOUS
 10
279.2551663306
 20
154.015688004
 40
3.2026066368
100
AcDbArc
 50
99.2442344079
 51
350.7573987184
  0
CIRCLE
  5
90D
100
AcDbEntity
  8
0
100
AcDbCircle
 62
7
  6
CONTINUOUS
 10
279.2551663306
 20
154.015688004
 40
1.9
  0
CIRCLE
  5
90E
100
AcDbEntity
  8
0
100
AcDbCircle
 62
7
  6
CONTINUOUS
 10
279.2551663306
 20
154.015688004
 40
1.5
  0
CIRCLE
  5
90F
100
AcDbEntity
  8
DRAFT
100
AcDbCircle
 62
7
  6
CONTINUOUS
 10
264.2551663306
 20
166.515688004
 40
6.75
  0
CIRCLE
  5
910
100
AcDbEntity
  8
RACCORDO
100
AcDbCircle
 62
250
  6
CONTINUOUS
 10
264.2551663306
 20
166.515688004
 40
6.6748822915
  0
CIRCLE
  5
911
100
AcDbEntity
  8
RACCORDO
100
AcDbCircle
 62
250
  6
CONTINUOUS
 10
264.2551663306
 20
166.515688004
 40
6.4749042923
  0
CIRCLE
  5
912
100
AcDbEntity
  8
RACCORDO
100
AcDbCircle
 62
250
  6
CONTINUOUS
 10
264.2551663306
 20
166.515688004
 40
5.5250723502
  0
CIRCLE
  5
913
100
AcDbEntity
  8
RACCORDO
100
AcDbCircle
 62
250
  6
CONTINUOUS
 10
264.2551663306
 20
166.515688004
 40
5.3251177037
  0
CIRCLE
  5
914
100
AcDbEntity
  8
DRAFT
100
AcDbCircle
 62
7
  6
CONTINUOUS
 10
264.2551663306
 20
166.515688004
 40
5.25
  0
ARC
  5
915
100
AcDbEntity
  8
DRAFT
100
AcDbCircle
 62
7
  6
CONTINUOUS
 10
265.7551663306
 20
166.515688004
 40
2.2814191169
100
AcDbArc
 50
270.0
 51
90.0
  0
ARC
  5
916
100
AcDbEntity
  8
DRAFT
100
AcDbCircle
 62
7
  6
CONTINUOUS
 10
265.7551663306
 20
166.515688004
 40
2.25
100
AcDbArc
 50
270.0
 51
90.0
  0
ARC
  5
917
100
AcDbEntity
  8
DRAFT
100
AcDbCircle
 62
7
  6
CONTINUOUS
 10
53.7652751512
 20
178.6227009774
 40
1.5
100
AcDbArc
 50
2.1335545372
 51
7.1837151155
  0
ARC
  5
918
100
AcDbEntity
  8
DRAFT
100
AcDbCircle
 62
7
  6
CONTINUOUS
 10
53.7652751512
 20
34.4086750307
 40
1.5
100
AcDbArc
 50
340.8419755167
 51
360.0
  0
ARC
  5
919
100
AcDbEntity
  8
RACCORDO
100
AcDbCircle
 62
7
  6
CONTINUOUS
 10
53.7652751512
 20
34.4087682483
 40
1.5
100
AcDbArc
 50
271.999875777
 51
360.0
  0
ARC
  5
91A
100
AcDbEntity
  8
DRAFT
100
AcDbCircle
 62
7
  6
CONTINUOUS
 10
53.7652751512
 20
178.6227009774
 40
1.5
100
AcDbArc
 50
7.3878655167
 51
19.1580244833
  0
ARC
  5
91B
100
AcDbEntity
  8
RACCORDO
100
AcDbCircle
 62
7
  6
CONTINUOUS
 10
53.7652751512
 20
178.6227009774
 40
1.5
100
AcDbArc
 50
0.0035606507
 51
88.0
  0
ARC
  5
91C
100
AcDbEntity
  8
RACCORDO
100
AcDbCircle
 62
7
  6
CONTINUOUS
 10
-15.9347248488
 20
41.2051853
 40
0.8
100
AcDbArc
 50
90.5
 51
180.0
  0
ARC
  5
91D
100
AcDbEntity
  8
RACCORDO
100
AcDbCircle
 62
7
  6
CONTINUOUS
 10
-15.9347248488
 20
171.8261907081
 40
0.8
100
AcDbArc
 50
180.0
 51
269.5
  0
ARC
  5
91E
100
AcDbEntity
  8
RACCORDO
100
AcDbCircle
 62
7
  6
CONTINUOUS
 10
55.7652751512
 20
152.2613422546
 40
0.5
100
AcDbArc
 50
275.0
 51
360.0
  0
ARC
  5
91F
100
AcDbEntity
  8
RACCORDO
100
AcDbCircle
 62
7
  6
CONTINUOUS
 10
55.7652751512
 20
172.7200337535
 40
0.5
100
AcDbArc
 50
0.0
 51
85.0
  0
ARC
  5
920
100
AcDbEntity
  8
RACCORDO
100
AcDbCircle
 62
7
  6
CONTINUOUS
 10
55.7652751512
 20
160.3113422546
 40
0.5
100
AcDbArc
 50
275.0
 51
360.0
  0
ARC
  5
921
100
AcDbEntity
  8
RACCORDO
100
AcDbCircle
 62
7
  6
CONTINUOUS
 10
55.7652751512
 20
60.7700337535
 40
0.5
100
AcDbArc
 50
0.0
 51
85.0
  0
ARC
  5
922
100
AcDbEntity
  8
RACCORDO
100
AcDbCircle
 62
7
  6
CONTINUOUS
 10
55.7652751512
 20
52.7200337535
 40
0.5
100
AcDbArc
 50
0.0
 51
85.0
  0
ARC
  5
923
100
AcDbEntity
  8
RACCORDO
100
AcDbCircle
 62
7
  6
CONTINUOUS
 10
55.7652751512
 20
40.3113422546
 40
0.5
100
AcDbArc
 50
275.0
 51
360.0
  0
ARC
  5
924
100
AcDbEntity
  8
RACCORDO
100
AcDbCircle
 62
7
  6
CONTINUOUS
 10
-16.2347248488
 20
37.0683739304
 40
0.5
100
AcDbArc
 50
180.0
 51
268.0
  0
ARC
  5
925
100
AcDbEntity
  8
RACCORDO
100
AcDbCircle
 62
7
  6
CONTINUOUS
 10
-16.2347248488
 20
175.9630020776
 40
0.5
100
AcDbArc
 50
92.0
 51
180.0
  0
ELLIPSE
  5
926
100
AcDbEntity
  8
RACCORDO
100
AcDbEllipse
 62
7
  6
CONTINUOUS
 10
289.2533376977
 20
33.5175166369
 30
0.0
 11
-2.1239056338
 21
2.1239056338
 31
0.0
 40
0.998782766
 41
2.3568034778
 42
3.9263818294
  0
ELLIPSE
  5
927
100
AcDbEntity
  8
RACCORDO
100
AcDbEllipse
 62
7
  6
CONTINUOUS
 10
89.2569949635
 20
33.5175166369
 30
0.0
 11
2.1239056338
 21
2.1239056338
 31
0.0
 40
0.998782766
 41
2.3568034778
 42
3.9263818294
  0
ELLIPSE
  5
928
100
AcDbEntity
  8
RACCORDO
100
AcDbEllipse
 62
7
  6
CONTINUOUS
 10
89.2569949635
 20
179.5138593711
 30
0.0
 11
2.1239056338
 21
-2.1239056338
 31
0.0
 40
0.998782766
 41
2.3568034778
 42
3.9263818294
  0
ELLIPSE
  5
929
100
AcDbEntity
  8
RACCORDO
100
AcDbEllipse
 62
7
  6
CONTINUOUS
 10
289.2533376977
 20
179.5138593711
 30
0.0
 11
-2.1239056338
 21
-2.1239056338
 31
0.0
 40
0.998782766
 41
2.3568034778
 42
3.9263818294
  0
ELLIPSE
  5
92A
100
AcDbEntity
  8
RACCORDO
100
AcDbEllipse
 62
7
  6
CONTINUOUS
 10
221.2446940893
 20
41.2051853
 30
0.0
 11
-0.0
 21
0.8
 31
0.0
 40
0.0087268678
 41
0.0087266463
 42
1.5707963268
  0
ELLIPSE
  5
92B
100
AcDbEntity
  8
RACCORDO
100
AcDbEllipse
 62
7
  6
CONTINUOUS
 10
221.242076029
 20
37.0683739304
 30
0.0
 11
-0.0
 21
0.5
 31
0.0
 40
0.0087268678
 41
1.5707963268
 42
3.1066860686
  0
ELLIPSE
  5
92C
100
AcDbEntity
  8
RACCORDO
100
AcDbEllipse
 62
7
  6
CONTINUOUS
 10
221.2446940893
 20
171.8261907081
 30
0.0
 11
-0.0
 21
0.8
 31
0.0
 40
0.0087268678
 41
-4.7123889804
 42
-3.1503192998
  0
ELLIPSE
  5
92D
100
AcDbEntity
  8
RACCORDO
100
AcDbEllipse
 62
7
  6
CONTINUOUS
 10
221.242076029
 20
175.9630020776
 30
0.0
 11
0.0
 21
0.5
 31
0.0
 40
0.0087268678
 41
0.034906585
 42
1.5707963268
  0
ELLIPSE
  5
92E
100
AcDbEntity
  8
RACCORDO
100
AcDbEllipse
 62
7
  6
CONTINUOUS
 10
157.265638572
 20
171.8261907081
 30
0.0
 11
-0.0
 21
0.8
 31
0.0
 40
0.0087268678
 41
-3.1328660073
 42
-1.5707963268
  0
ELLIPSE
  5
92F
100
AcDbEntity
  8
RACCORDO
100
AcDbEllipse
 62
7
  6
CONTINUOUS
 10
157.2682566323
 20
175.9630020776
 30
0.0
 11
0.0
 21
0.5
 31
0.0
 40
0.0087268678
 41
-1.5707963268
 42
-0.034906585
  0
ELLIPSE
  5
930
100
AcDbEntity
  8
RACCORDO
100
AcDbEllipse
 62
7
  6
CONTINUOUS
 10
100.0107759541
 20
138.5244148718
 30
0.0
 11
1.0
 21
-0.0
 31
0.0
 40
0.0087268678
 41
-1.5707963268
 42
-0.0087266463
  0
ELLIPSE
  5
931
100
AcDbEntity
  8
RACCORDO
100
AcDbEllipse
 62
7
  6
CONTINUOUS
 10
100.0107759541
 20
74.5069611362
 30
0.0
 11
1.0
 21
0.0
 31
0.0
 40
0.0087268678
 41
0.0087266463
 42
1.5707963268
  0
ELLIPSE
  5
932
100
AcDbEntity
  8
RACCORDO
100
AcDbEllipse
 62
7
  6
CONTINUOUS
 10
278.4995567072
 20
74.5069611362
 30
0.0
 11
1.0
 21
-0.0
 31
0.0
 40
0.0087268678
 41
1.5707963268
 42
3.1328660073
  0
ELLIPSE
  5
933
100
AcDbEntity
  8
RACCORDO
100
AcDbEllipse
 62
7
  6
CONTINUOUS
 10
278.4995567072
 20
138.5244148718
 30
0.0
 11
1.0
 21
0.0
 31
0.0
 40
0.0087268678
 41
-3.1328660073
 42
-1.5707963268
  0
ELLIPSE
  5
934
100
AcDbEntity
  8
RACCORDO
100
AcDbEllipse
 62
7
  6
CONTINUOUS
 10
278.4995567072
 20
76.0244148718
 30
0.0
 11
1.0
 21
0.0
 31
0.0
 40
0.0087268678
 41
-3.1328660073
 42
-1.5707963268
  0
ELLIPSE
  5
935
100
AcDbEntity
  8
RACCORDO
100
AcDbEllipse
 62
7
  6
CONTINUOUS
 10
278.0975588895
 20
107.2552157627
 30
0.0
 11
0.8
 21
0.0
 31
0.0
 40
0.0087268678
 41
-3.1066860686
 42
-1.5707963268
  0
ELLIPSE
  5
936
100
AcDbEntity
  8
RACCORDO
100
AcDbEllipse
 62
7
  6
CONTINUOUS
 10
283.2024804043
 20
107.2525977023
 30
0.0
 11
0.5
 21
0.0
 31
0.0
 40
0.0087268678
 41
-1.5707963268
 42
-0.034906585
  0
ELLIPSE
  5
937
100
AcDbEntity
  8
RACCORDO
100
AcDbEllipse
 62
7
  6
CONTINUOUS
 10
278.0975588895
 20
105.7761602454
 30
0.0
 11
0.8
 21
0.0
 31
0.0
 40
0.0087268678
 41
1.5707963268
 42
3.1066860685
  0
ELLIPSE
  5
938
100
AcDbEntity
  8
RACCORDO
100
AcDbEllipse
 62
7
  6
CONTINUOUS
 10
283.2024804043
 20
105.7787783057
 30
0.0
 11
0.5
 21
0.0
 31
0.0
 40
0.0087268678
 41
0.034906585
 42
1.5707963268
  0
ELLIPSE
  5
939
100
AcDbEntity
  8
RACCORDO
100
AcDbEllipse
 62
7
  6
CONTINUOUS
 10
278.4995567072
 20
137.0069611362
 30
0.0
 11
1.0
 21
-0.0
 31
0.0
 40
0.0087268678
 41
1.5707963268
 42
3.1328660073
  0
ELLIPSE
  5
93A
100
AcDbEntity
  8
RACCORDO
100
AcDbEllipse
 62
7
  6
CONTINUOUS
 10
100.0107759541
 20
76.0244148718
 30
0.0
 11
1.0
 21
-0.0
 31
0.0
 40
0.0087268678
 41
-1.5707963268
 42
-0.0087266463
  0
ELLIPSE
  5
93B
100
AcDbEntity
  8
RACCORDO
100
AcDbEllipse
 62
7
  6
CONTINUOUS
 10
100.4127737718
 20
105.7761602454
 30
0.0
 11
0.8
 21
0.0
 31
0.0
 40
0.0087268678
 41
0.034906585
 42
1.5707963268
  0
ELLIPSE
  5
93C
100
AcDbEntity
  8
RACCORDO
100
AcDbEllipse
 62
7
  6
CONTINUOUS
 10
95.307852257
 20
105.7787783057
 30
0.0
 11
0.5
 21
-0.0
 31
0.0
 40
0.0087268678
 41
1.5707963268
 42
3.1066860685
  0
ELLIPSE
  5
93D
100
AcDbEntity
  8
RACCORDO
100
AcDbEllipse
 62
7
  6
CONTINUOUS
 10
100.4127737718
 20
107.2552157627
 30
0.0
 11
0.8
 21
0.0
 31
0.0
 40
0.0087268678
 41
-1.5707963268
 42
-0.034906585
  0
ELLIPSE
  5
93E
100
AcDbEntity
  8
RACCORDO
100
AcDbEllipse
 62
7
  6
CONTINUOUS
 10
95.307852257
 20
107.2525977023
 30
0.0
 11
0.5
 21
0.0
 31
0.0
 40
0.0087268678
 41
-3.1066860686
 42
-1.5707963268
  0
ELLIPSE
  5
93F
100
AcDbEntity
  8
RACCORDO
100
AcDbEllipse
 62
7
  6
CONTINUOUS
 10
100.0107759541
 20
137.0069611362
 30
0.0
 11
1.0
 21
-0.0
 31
0.0
 40
0.0087268678
 41
0.0087266463
 42
1.5707963268
  0
ELLIPSE
  5
940
100
AcDbEntity
  8
RACCORDO
100
AcDbEllipse
 62
7
  6
CONTINUOUS
 10
272.7464775412
 20
104.0138843718
 30
0.0
 11
1.0
 21
-0.0
 31
0.0
 40
0.0052360356
 41
1.5707963268
 42
3.1328660073
  0
ELLIPSE
  5
941
100
AcDbEntity
  8
RACCORDO
100
AcDbEllipse
 62
7
  6
CONTINUOUS
 10
272.7464775412
 20
105.1674916363
 30
0.0
 11
1.0
 21
-0.0
 31
0.0
 40
0.0052360356
 41
-3.1328660073
 42
-1.5707963268
  0
ELLIPSE
  5
942
100
AcDbEntity
  8
RACCORDO
100
AcDbEllipse
 62
7
  6
CONTINUOUS
 10
272.7464775412
 20
107.8638843718
 30
0.0
 11
1.0
 21
0.0
 31
0.0
 40
0.0052360356
 41
1.5707963268
 42
3.1328660073
  0
ELLIPSE
  5
943
100
AcDbEntity
  8
RACCORDO
100
AcDbEllipse
 62
7
  6
CONTINUOUS
 10
272.7464775412
 20
109.0174916363
 30
0.0
 11
1.0
 21
-0.0
 31
0.0
 40
0.0052360356
 41
-3.1328660073
 42
-1.5707963268
  0
ELLIPSE
  5
944
100
AcDbEntity
  8
RACCORDO
100
AcDbEllipse
 62
7
  6
CONTINUOUS
 10
105.7638551201
 20
109.0174916363
 30
0.0
 11
1.0
 21
-0.0
 31
0.0
 40
0.0052360356
 41
-1.5707963268
 42
-0.0087266463
  0
ELLIPSE
  5
945
100
AcDbEntity
  8
RACCORDO
100
AcDbEllipse
 62
7
  6
CONTINUOUS
 10
105.7638551201
 20
107.8638843718
 30
0.0
 11
1.0
 21
0.0
 31
0.0
 40
0.0052360356
 41
0.0087266463
 42
1.5707963268
  0
ELLIPSE
  5
946
100
AcDbEntity
  8
RACCORDO
100
AcDbEllipse
 62
7
  6
CONTINUOUS
 10
286.8977096178
 20
35.8731447169
 30
0.0
 11
-0.3539842723
 21
0.3539842723
 31
0.0
 40
0.998782766
 41
2.3568034778
 42
3.9263818294
  0
ELLIPSE
  5
947
100
AcDbEntity
  8
RACCORDO
100
AcDbEllipse
 62
7
  6
CONTINUOUS
 10
91.6126230435
 20
35.8731447169
 30
0.0
 11
0.3539842723
 21
0.3539842723
 31
0.0
 40
0.998782766
 41
2.3568034778
 42
3.9263818294
  0
ELLIPSE
  5
948
100
AcDbEntity
  8
RACCORDO
100
AcDbEllipse
 62
7
  6
CONTINUOUS
 10
91.6126230435
 20
177.1582312912
 30
0.0
 11
0.3539842723
 21
-0.3539842723
 31
0.0
 40
0.998782766
 41
2.3568034778
 42
3.9263818294
  0
ELLIPSE
  5
949
100
AcDbEntity
  8
RACCORDO
100
AcDbEllipse
 62
7
  6
CONTINUOUS
 10
286.8977096178
 20
177.1582312912
 30
0.0
 11
-0.3539842723
 21
-0.3539842723
 31
0.0
 40
0.998782766
 41
2.3568034778
 42
3.9263818294
  0
ELLIPSE
  5
94A
100
AcDbEntity
  8
RACCORDO
100
AcDbEllipse
 62
7
  6
CONTINUOUS
 10
105.7638551201
 20
105.1674916363
 30
0.0
 11
1.0
 21
0.0
 31
0.0
 40
0.0052360356
 41
-1.5707963268
 42
-0.0087266463
  0
ELLIPSE
  5
94B
100
AcDbEntity
  8
RACCORDO
100
AcDbEllipse
 62
7
  6
CONTINUOUS
 10
105.7638551201
 20
104.0138843718
 30
0.0
 11
1.0
 21
0.0
 31
0.0
 40
0.0052360356
 41
0.0087266463
 42
1.5707963268
  0
ELLIPSE
  5
94C
100
AcDbEntity
  8
RACCORDO
100
AcDbEllipse
 62
7
  6
CONTINUOUS
 10
99.7730365973
 20
163.3154804658
 30
0.0
 11
0.0
 21
1.0
 31
0.0
 40
0.0034906727
 41
0.3490658504
 42
1.5707963268
  0
ELLIPSE
  5
94D
100
AcDbEntity
  8
RACCORDO
100
AcDbEllipse
 62
7
  6
CONTINUOUS
 10
98.737296064
 20
163.3154804658
 30
0.0
 11
-0.0
 21
1.0
 31
0.0
 40
0.0034906727
 41
-1.5707963268
 42
-0.3490658504
  0
ELLIPSE
  5
94E
100
AcDbEntity
  8
RACCORDO
100
AcDbEllipse
 62
7
  6
CONTINUOUS
 10
278.737296064
 20
163.3154804658
 30
0.0
 11
0.0
 21
1.0
 31
0.0
 40
0.0034906727
 41
-1.5707963268
 42
-0.3490658504
  0
ELLIPSE
  5
94F
100
AcDbEntity
  8
RACCORDO
100
AcDbEllipse
 62
7
  6
CONTINUOUS
 10
279.7730365973
 20
163.3154804658
 30
0.0
 11
0.0
 21
1.0
 31
0.0
 40
0.0034906727
 41
0.3490658504
 42
1.5707963268
  0
ELLIPSE
  5
950
100
AcDbEntity
  8
RACCORDO
100
AcDbEllipse
 62
7
  6
CONTINUOUS
 10
99.7730365973
 20
49.7158955422
 30
0.0
 11
-0.0
 21
1.0
 31
0.0
 40
0.0034906727
 41
-4.7123889804
 42
-3.490658504
  0
ELLIPSE
  5
951
100
AcDbEntity
  8
RACCORDO
100
AcDbEllipse
 62
7
  6
CONTINUOUS
 10
98.737296064
 20
49.7158955422
 30
0.0
 11
0.0
 21
1.0
 31
0.0
 40
0.0034906727
 41
-2.7925268032
 42
-1.5707963268
  0
ELLIPSE
  5
952
100
AcDbEntity
  8
RACCORDO
100
AcDbEllipse
 62
7
  6
CONTINUOUS
 10
278.737296064
 20
49.7158955422
 30
0.0
 11
0.0
 21
1.0
 31
0.0
 40
0.0034906727
 41
-2.7925268032
 42
-1.5707963268
  0
ELLIPSE
  5
953
100
AcDbEntity
  8
RACCORDO
100
AcDbEllipse
 62
7
  6
CONTINUOUS
 10
279.7730365973
 20
49.7158955422
 30
0.0
 11
0.0
 21
1.0
 31
0.0
 40
0.0034906727
 41
-4.7123889804
 42
-3.490658504
  0
ELLIPSE
  5
954
100
AcDbEntity
  8
RACCORDO
100
AcDbEllipse
 62
7
  6
CONTINUOUS
 10
98.6482839106
 20
174.7250769846
 30
0.0
 11
0.0
 21
1.0
 31
0.0
 40
0.0034906727
 41
-4.7123889804
 42
-3.490658504
  0
ELLIPSE
  5
955
100
AcDbEntity
  8
RACCORDO
100
AcDbEllipse
 62
7
  6
CONTINUOUS
 10
99.8620487507
 20
174.7250769846
 30
0.0
 11
0.0
 21
1.0
 31
0.0
 40
0.0034906727
 41
-2.7925268032
 42
-1.5707963268
  0
ELLIPSE
  5
956
100
AcDbEntity
  8
RACCORDO
100
AcDbEllipse
 62
7
  6
CONTINUOUS
 10
98.6482839106
 20
38.3062990235
 30
0.0
 11
0.0
 21
1.0
 31
0.0
 40
0.0034906727
 41
0.3490658504
 42
1.5707963268
  0
ELLIPSE
  5
957
100
AcDbEntity
  8
RACCORDO
100
AcDbEllipse
 62
7
  6
CONTINUOUS
 10
99.8620487507
 20
38.3062990235
 30
0.0
 11
0.0
 21
1.0
 31
0.0
 40
0.0034906727
 41
-1.5707963268
 42
-0.3490658504
  0
ELLIPSE
  5
958
100
AcDbEntity
  8
RACCORDO
100
AcDbEllipse
 62
7
  6
CONTINUOUS
 10
278.6482839106
 20
38.3062990235
 30
0.0
 11
0.0
 21
1.0
 31
0.0
 40
0.0034906727
 41
0.3490658504
 42
1.5707963268
  0
ELLIPSE
  5
959
100
AcDbEntity
  8
RACCORDO
100
AcDbEllipse
 62
7
  6
CONTINUOUS
 10
279.8620487507
 20
38.3062990235
 30
0.0
 11
-0.0
 21
1.0
 31
0.0
 40
0.0034906727
 41
-1.5707963268
 42
-0.3490658504
  0
ELLIPSE
  5
95A
100
AcDbEntity
  8
RACCORDO
100
AcDbEllipse
 62
7
  6
CONTINUOUS
 10
278.6482839106
 20
174.7250769846
 30
0.0
 11
0.0
 21
1.0
 31
0.0
 40
0.0034906727
 41
-4.7123889804
 42
-3.490658504
  0
ELLIPSE
  5
95B
100
AcDbEntity
  8
RACCORDO
100
AcDbEllipse
 62
7
  6
CONTINUOUS
 10
279.8620487507
 20
174.7250769846
 30
0.0
 11
0.0
 21
1.0
 31
0.0
 40
0.0034906727
 41
-2.7925268032
 42
-1.5707963268
  0
ELLIPSE
  5
95C
100
AcDbEntity
  8
RACCORDO
100
AcDbEllipse
 62
7
  6
CONTINUOUS
 10
157.265638572
 20
41.2051853
 30
0.0
 11
0.0
 21
0.8
 31
0.0
 40
0.0087268678
 41
-1.5707963268
 42
-0.0087266463
  0
ELLIPSE
  5
95D
100
AcDbEntity
  8
RACCORDO
100
AcDbEllipse
 62
7
  6
CONTINUOUS
 10
157.2682566323
 20
37.0683739304
 30
0.0
 11
0.0
 21
0.5
 31
0.0
 40
0.0087268678
 41
-3.1066860686
 42
-1.5707963268
  0
ELLIPSE
  5
95E
100
AcDbEntity
  8
RACCORDO
100
AcDbEllipse
 62
7
  6
CONTINUOUS
 10
289.2548615585
 20
179.5153832319
 30
0.0
 11
0.3539842723
 21
0.3539842723
 31
0.0
 40
0.998782766
 41
-0.7847891758
 42
0.7847891758
  0
ELLIPSE
  5
95F
100
AcDbEntity
  8
RACCORDO
100
AcDbEllipse
 62
7
  6
CONTINUOUS
 10
89.2554711028
 20
179.5153832319
 30
0.0
 11
-0.3539842723
 21
0.3539842723
 31
0.0
 40
0.998782766
 41
-0.7847891758
 42
0.7847891758
  0
ELLIPSE
  5
960
100
AcDbEntity
  8
RACCORDO
100
AcDbEllipse
 62
7
  6
CONTINUOUS
 10
89.2554711028
 20
33.5159927762
 30
0.0
 11
0.3539842723
 21
0.3539842723
 31
0.0
 40
0.998782766
 41
-3.9263818294
 42
-2.3568034778
  0
ELLIPSE
  5
961
100
AcDbEntity
  8
RACCORDO
100
AcDbEllipse
 62
7
  6
CONTINUOUS
 10
289.2548615585
 20
33.5159927762
 30
0.0
 11
-0.3539842723
 21
0.3539842723
 31
0.0
 40
0.998782766
 41
-3.9263818294
 42
-2.3568034778
  0
ELLIPSE
  5
962
100
AcDbEntity
  8
DRAFT
100
AcDbEllipse
 62
7
  6
CONTINUOUS
 10
53.7652751512
 20
136.4835925284
 30
0.0
 11
1.5
 21
-0.0
 31
0.0
 40
0.2679491924
 41
0.128942578
 42
0.3343706054
  0
ELLIPSE
  5
963
100
AcDbEntity
  8
DRAFT
100
AcDbEllipse
 62
7
  6
CONTINUOUS
 10
53.7652751512
 20
126.8477834797
 30
0.0
 11
1.5
 21
-0.0
 31
0.0
 40
0.2679491924
 41
-0.3343706054
 42
-0.128942578
  0
ELLIPSE
  5
964
100
AcDbEntity
  8
DRAFT
100
AcDbEllipse
 62
7
  6
CONTINUOUS
 10
53.7652751512
 20
126.1835925284
 30
0.0
 11
1.5
 21
-0.0
 31
0.0
 40
0.2679491924
 41
0.128942578
 42
0.3343706054
  0
ELLIPSE
  5
965
100
AcDbEntity
  8
DRAFT
100
AcDbEllipse
 62
7
  6
CONTINUOUS
 10
53.7652751512
 20
86.8477834797
 30
0.0
 11
1.5
 21
-0.0
 31
0.0
 40
0.2679491924
 41
-0.3343706054
 42
-0.128942578
  0
ELLIPSE
  5
966
100
AcDbEntity
  8
DRAFT
100
AcDbEllipse
 62
7
  6
CONTINUOUS
 10
53.7652751512
 20
86.1835925284
 30
0.0
 11
1.5
 21
0.0
 31
0.0
 40
0.2679491924
 41
0.128942578
 42
0.3343706054
  0
ELLIPSE
  5
967
100
AcDbEntity
  8
DRAFT
100
AcDbEllipse
 62
7
  6
CONTINUOUS
 10
53.7652751512
 20
76.5477834797
 30
0.0
 11
1.5
 21
-0.0
 31
0.0
 40
0.2679491924
 41
-0.3343706054
 42
-0.128942578
  0
ENDSEC
  0
SECTION
  2
OBJECTS
  0
DICTIONARY
  5
C
100
AcDbDictionary
280
0
281
1
  3
ACAD_GROUP
350
D
  3
ACAD_MLINESTYLE
350
17
  3
ACAD_LAYOUT
350
1A
  3
ACAD_PLOTSETTINGS
350
19
  3
ACAD_PLOTSTYLENAME
350
E
  0
DICTIONARY
  5
D
102
{ACAD_REACTORS
330
C
102
}
100
AcDbDictionary
280
0
281
1
  0
ACDBDICTIONARYWDFLT
  5
E
102
{ACAD_REACTORS
330
C
102
}
100
AcDbDictionary
281
1
  3
Normal
350
F
100
AcDbDictionaryWithDefault
340
F
  0
DICTIONARY
  5
17
102
{ACAD_REACTORS
330
C
102
}
100
AcDbDictionary
280
0
281
1
  3
Standard
350
18
  0
DICTIONARY
  5
19
102
{ACAD_REACTORS
330
C
102
}
100
AcDbDictionary
281
1
  0
DICTIONARY
  5
1A
102
{ACAD_REACTORS
330
C
102
}
100
AcDbDictionary
281
1
  3
Model
350
968
  3
Layout1
350
969
  0
ACDBPLACEHOLDER
  5
F
102
{ACAD_REACTORS
330
E
102
}
  0
MLINESTYLE
  5
18
102
{ACAD_REACTORS
330
17
102
}
100
AcDbMlineStyle
  2
STANDARD
 70
0
  3

 62
256
 51
90.0
 52
90.0
 71
2
 49
0.5
 62
256
  6
BYLAYER
 49
-0.5
 62
256
  6
BYLAYER
  0
LAYOUT
  5
968
102
{ACAD_REACTORS
330
1A
102
}
100
AcDbPlotSettings
  1

  2
none_device
  4
ISO_A4_(297.00_x_210.00_MM)
  6

 40
0.0
 41
0.0
 42
0.0
 43
0.0
 44
297.0
 45
210.0
 46
0.0
 47
0.0
 48
0.0
 49
0.0
140
0.0
141
0.0
142
1.0
143
1.0
 70
1024
 72
1
 73
0
 74
0
  7

 75
0
147
1.0
148
0.0
149
0.0
100
AcDbLayout
  1
Model
 70
0
 71
0
 10
0.0
 20
0.0
 11
297.0
 21
210.0
 12
0.0
 22
0.0
 32
0.0
 14
0.0
 24
0.0
 34
0.0
 15
0.0
 25
0.0
 35
0.0
146
0.0
 13
0.0
 23
0.0
 33
0.0
 16
1.0
 26
0.0
 36
0.0
 17
0.0
 27
1.0
 37
0.0
 76
0
330
20F
345
0
346
0
  0
LAYOUT
  5
969
102
{ACAD_REACTORS
330
1A
102
}
100
AcDbPlotSettings
  1

  2
none_device
  4
ISO_A4_(297.00_x_210.00_MM)
  6

 40
0.0
 41
0.0
 42
0.0
 43
0.0
 44
297.0
 45
210.0
 46
0.0
 47
0.0
 48
0.0
 49
0.0
140
0.0
141
0.0
142
1.0
143
1.0
 70
0
 72
1
 73
0
 74
0
  7

 75
0
147
1.0
148
0.0
149
0.0
100
AcDbLayout
  1
Layout1
 70
0
 71
1
 10
0.0
 20
0.0
 11
297.0
 21
210.0
 12
0.0
 22
0.0
 32
0.0
 14
0.0
 24
0.0
 34
0.0
 15
0.0
 25
0.0
 35
0.0
146
0.0
 13
0.0
 23
0.0
 33
0.0
 16
1.0
 26
0.0
 36
0.0
 17
0.0
 27
1.0
 37
0.0
 76
0
330
210
345
0
346
0
  0
ENDSEC
  0
EOF
