  0
SECTION
  2
HEADER
  9
$ACADVER
  1
AC1021
  9
$DWGCODEPAGE
  3
ANSI_1252
  9
$EXTMAX
 10
297.0
 20
210.0
 30
0.0
  9
$EXTMIN
 10
0.0
 20
0.0
 30
0.0
  9
$LIMMIN
 10
0.0
 20
0.0
  9
$LIMMAX
 10
297.0
 20
210.0
  9
$VIEWCTR
 10
148.5
 20
105.0
  9
$VIEWSIZE
 40
210.0
  9
$CLAYER
  8
0
  9
$LTSCALE
 40
16.335
  9
$CELTYPE
  6
BYLAYER
  9
$DIMSCALE
 40
1.0
  9
$DIMASZ
 40
3.0
  9
$DIMEXO
 40
0.5
  9
$DIMDLI
 40
11.286
  9
$DIMEXE
 40
1.5
  9
$DIMCEN
 40
2.673
  9
$DIMLFAC
 40
1.0
  9
$DIMBLK
  1
_FILLED
  9
$DIMALT
 70
0
  9
$DIMALTF
 40
0.0393700787
  9
$DIMTXT
 40
3.0
  9
$DIMTOL
 70
1
  9
$DIMLIM
 70
0
  9
$DIMTFAC
 40
1.0
  9
$DIMTP
 40
0.01
  9
$DIMTM
 40
0.01
  9
$DIMGAP
 40
0.625
  9
$DIMDSEP
 70
44
  9
$AUNITS
 70
0
  9
$PDMODE
 70
3
  9
$PDSIZE
 40
3.0
  9
$HANDSEED
  5
6BF
  9
$TILEMODE
 70
1
  9
$MEASUREMENT
 70
1
  9
$INSUNITS
 70
4
  0
ENDSEC
  0
SECTION
  2
CLASSES
  0
CLASS
  1
ACDBDICTIONARYWDFLT
  2
AcDbDictionaryWithDefault
  3
AutoCAD 2000
 90
0
 91
1
280
0
281
0
  0
CLASS
  1
ACDBPLACEHOLDER
  2
AcDbPlaceHolder
  3
AutoCAD 2000
 90
0
 91
1
280
0
281
0
  0
CLASS
  1
LAYOUT
  2
AcDbLayout
  3
AutoCAD 2000
 90
0
 91
0
280
0
281
0
  0
ENDSEC
  0
SECTION
  2
TABLES
  0
TABLE
  2
VPORT
  5
8
100
AcDbSymbolTable
 70
2
  0
VPORT
  5
1F4
100
AcDbSymbolTableRecord
100
AcDbViewportTableRecord
  2
*ACTIVE
 70
0
 10
0.0
 20
0.0
 11
1.0
 21
1.0
 12
148.5
 22
105.0
 13
0.0
 23
0.0
 14
1.0
 24
1.0
 15
0.0
 25
0.0
 16
0.0
 26
0.0
 36
1.0
 17
0.0
 27
0.0
 37
0.0
 40
210.0
 41
1.4142857143
 42
50.0
 43
0.0
 44
0.0
 50
0.0
 51
0.0
 71
0
 72
100
 73
1
 74
1
 75
0
 76
0
 77
0
 78
0
  0
ENDTAB
  0
TABLE
  2
LTYPE
  5
5
100
AcDbSymbolTable
 70
6
  0
LTYPE
  5
14
100
AcDbSymbolTableRecord
100
AcDbLinetypeTableRecord
  2
BYBLOCK
 70
0
  3

 72
65
 73
0
 40
0.0
  0
LTYPE
  5
15
100
AcDbSymbolTableRecord
100
AcDbLinetypeTableRecord
  2
BYLAYER
 70
0
  3

 72
65
 73
0
 40
0.0
  0
LTYPE
  5
16
100
AcDbSymbolTableRecord
100
AcDbLinetypeTableRecord
  2
CONTINUOUS
 70
64
  3
Solid line
 72
65
 73
0
 40
0.0
  0
LTYPE
  5
1F5
100
AcDbSymbolTableRecord
100
AcDbLinetypeTableRecord
  2
CENTER
 70
64
  3
____ _ ____ _ ____ _ ____ _ ____ _ ____ _ ____
 72
65
 73
4
 40
0.6
 49
0.375
 74
0
 49
-0.075
 74
0
 49
0.075
 74
0
 49
-0.075
 74
0
  0
LTYPE
  5
1F6
100
AcDbSymbolTableRecord
100
AcDbLinetypeTableRecord
  2
HIDDEN
 70
64
  3
- - - - - - - - - - - - - - - - - - - -
 72
65
 73
2
 40
0.2
 49
0.1
 74
0
 49
-0.1
 74
0
  0
LTYPE
  5
1F7
100
AcDbSymbolTableRecord
100
AcDbLinetypeTableRecord
  2
PHANTOM
 70
64
  3
_____ _ _ _____ _ _ _____ _ _ _____
 72
65
 73
6
 40
0.8
 49
0.45
 74
0
 49
-0.05
 74
0
 49
0.1
 74
0
 49
-0.05
 74
0
 49
0.1
 74
0
 49
-0.05
 74
0
  0
LTYPE
  5
1F8
100
AcDbSymbolTableRecord
100
AcDbLinetypeTableRecord
  2
DOT
 70
64
  3
. . . . . . . . . . . . . . . . . . . .
 72
65
 73
2
 40
0.2
 49
0.1
 74
0
 49
-0.1
 74
0
  0
LTYPE
  5
1F9
100
AcDbSymbolTableRecord
100
AcDbLinetypeTableRecord
  2
DASHED
 70
64
  3
- - - - - - - - - - - - - - - - - - - -
 72
65
 73
2
 40
0.2
 49
0.1
 74
0
 49
-0.1
 74
0
  0
ENDTAB
  0
TABLE
  2
LAYER
  5
2
100
AcDbSymbolTable
 70
36
  0
LAYER
  5
10
100
AcDbSymbolTableRecord
100
AcDbLayerTableRecord
  2
0
 70
0
 62
7
  6
CONTINUOUS
370
-3
390
F
  0
LAYER
  5
1FA
100
AcDbSymbolTableRecord
100
AcDbLayerTableRecord
  2
DEFAULT_1
 70
0
 62
7
  6
CENTER
370
-3
390
F
  0
LAYER
  5
1FB
100
AcDbSymbolTableRecord
100
AcDbLayerTableRecord
  2
DEFAULT_2
 70
0
 62
7
  6
HIDDEN
370
-3
390
F
  0
LAYER
  5
1FC
100
AcDbSymbolTableRecord
100
AcDbLayerTableRecord
  2
DEFAULT_3
 70
0
 62
7
  6
PHANTOM
370
-3
390
F
  0
LAYER
  5
1FD
100
AcDbSymbolTableRecord
100
AcDbLayerTableRecord
  2
ASSI
 70
0
 62
7
  6
CONTINUOUS
370
-3
390
F
  0
LAYER
  5
1FE
100
AcDbSymbolTableRecord
100
AcDbLayerTableRecord
  2
COLOR5
 70
0
 62
7
  6
CONTINUOUS
370
-3
390
F
  0
LAYER
  5
1FF
100
AcDbSymbolTableRecord
100
AcDbLayerTableRecord
  2
COORDINATE
 70
0
 62
7
  6
CONTINUOUS
370
-3
390
F
  0
LAYER
  5
200
100
AcDbSymbolTableRecord
100
AcDbLayerTableRecord
  2
COORD_ORIGINE
 70
0
 62
7
  6
CONTINUOUS
370
-3
390
F
  0
LAYER
  5
201
100
AcDbSymbolTableRecord
100
AcDbLayerTableRecord
  2
COPY_PUBLISH
 70
0
 62
7
  6
CONTINUOUS
370
-3
390
F
  0
LAYER
  5
202
100
AcDbSymbolTableRecord
100
AcDbLayerTableRecord
  2
COSMETICI
 70
0
 62
7
  6
CONTINUOUS
370
-3
390
F
  0
LAYER
  5
203
100
AcDbSymbolTableRecord
100
AcDbLayerTableRecord
  2
CURVE
 70
0
 62
7
  6
CONTINUOUS
370
-3
390
F
  0
LAYER
  5
204
100
AcDbSymbolTableRecord
100
AcDbLayerTableRecord
  2
DRAFT
 70
0
 62
7
  6
CONTINUOUS
370
-3
390
F
  0
LAYER
  5
205
100
AcDbSymbolTableRecord
100
AcDbLayerTableRecord
  2
IMPORT_IGES
 70
0
 62
7
  6
CONTINUOUS
370
-3
390
F
  0
LAYER
  5
206
100
AcDbSymbolTableRecord
100
AcDbLayerTableRecord
  2
NOTE
 70
0
 62
7
  6
CONTINUOUS
370
-3
390
F
  0
LAYER
  5
207
100
AcDbSymbolTableRecord
100
AcDbLayerTableRecord
  2
PIANI
 70
0
 62
7
  6
CONTINUOUS
370
-3
390
F
  0
LAYER
  5
208
100
AcDbSymbolTableRecord
100
AcDbLayerTableRecord
  2
PIANI_ORIGINE
 70
0
 62
7
  6
CONTINUOUS
370
-3
390
F
  0
LAYER
  5
209
100
AcDbSymbolTableRecord
100
AcDbLayerTableRecord
  2
PUNTI
 70
0
 62
7
  6
CONTINUOUS
370
-3
390
F
  0
LAYER
  5
20A
100
AcDbSymbolTableRecord
100
AcDbLayerTableRecord
  2
RACCORDO
 70
0
 62
7
  6
CONTINUOUS
370
-3
390
F
  0
LAYER
  5
20B
100
AcDbSymbolTableRecord
100
AcDbLayerTableRecord
  2
SIMBOLI
 70
0
 62
7
  6
CONTINUOUS
370
-3
390
F
  0
LAYER
  5
20C
100
AcDbSymbolTableRecord
100
AcDbLayerTableRecord
  2
SMUSSO
 70
0
 62
7
  6
CONTINUOUS
370
-3
390
F
  0
LAYER
  5
20D
100
AcDbSymbolTableRecord
100
AcDbLayerTableRecord
  2
SNAPLINE
 70
0
 62
7
  6
CONTINUOUS
370
-3
390
F
  0
LAYER
  5
20E
100
AcDbSymbolTableRecord
100
AcDbLayerTableRecord
  2
SUPERFICI
 70
0
 62
7
  6
CONTINUOUS
370
-3
390
F
  0
LAYER
  5
20F
100
AcDbSymbolTableRecord
100
AcDbLayerTableRecord
  2
TRASH
 70
0
 62
7
  6
CONTINUOUS
370
-3
390
F
  0
ENDTAB
  0
TABLE
  2
STYLE
  5
3
100
AcDbSymbolTable
 70
1
  0
STYLE
  5
11
100
AcDbSymbolTableRecord
100
AcDbTextStyleTableRecord
  2
STANDARD
 70
0
 40
0.0
 41
0.8
 50
0.0
 71
0
 42
0.2
  3
txt
  4

  0
STYLE
  5
210
100
AcDbSymbolTableRecord
100
AcDbTextStyleTableRecord
  2
TEXTSTYLE_1
 70
0
 40
0.0
 41
0.8
 50
0.0
 71
0
 42
0.2
  3
gdt
  4

  0
ENDTAB
  0
TABLE
  2
VIEW
  5
6
100
AcDbSymbolTable
 70
0
  0
ENDTAB
  0
TABLE
  2
UCS
  5
7
100
AcDbSymbolTable
 70
0
  0
ENDTAB
  0
TABLE
  2
APPID
  5
9
100
AcDbSymbolTable
 70
1
  0
APPID
  5
211
100
AcDbSymbolTableRecord
100
AcDbRegAppTableRecord
  2
ACAD
 70
0
  0
ENDTAB
  0
TABLE
  2
BLOCK_RECORD
  5
1
100
AcDbSymbolTable
 70
0
  0
BLOCK_RECORD
  5
212
100
AcDbSymbolTableRecord
100
AcDbBlockTableRecord
  2
*Model_Space
  0
BLOCK_RECORD
  5
213
100
AcDbSymbolTableRecord
100
AcDbBlockTableRecord
  2
*Paper_Space
  0
BLOCK_RECORD
  5
214
100
AcDbSymbolTableRecord
100
AcDbBlockTableRecord
  2
_FILLED
  0
BLOCK_RECORD
  5
215
100
AcDbSymbolTableRecord
100
AcDbBlockTableRecord
  2
*D0
  0
BLOCK_RECORD
  5
216
100
AcDbSymbolTableRecord
100
AcDbBlockTableRecord
  2
*D1
  0
BLOCK_RECORD
  5
217
100
AcDbSymbolTableRecord
100
AcDbBlockTableRecord
  2
*D2
  0
BLOCK_RECORD
  5
218
100
AcDbSymbolTableRecord
100
AcDbBlockTableRecord
  2
*D3
  0
ENDTAB
  0
TABLE
  2
DIMSTYLE
  5
A
100
AcDbSymbolTable
 70
1
100
AcDbDimStyleTable
 71
0
  0
DIMSTYLE
105
219
100
AcDbSymbolTableRecord
100
AcDbDimStyleTableRecord
  2
STANDARD
 70
0
  3

  4

 40
1.0
 41
3.0
 42
0.5
 43
0.38
 44
1.5
 45
0.0
 46
0.0
 47
0.01
 48
0.01
140
3.0
141
0.09
142
0.0
143
25.4
144
1.0
145
0.0
146
1.0
147
0.625
 71
1.0
 72
0.0
 73
0
 74
0
 75
0
 76
0
 77
1
 78
8
170
0
171
2
172
0
173
0
174
0
175
0
176
0
177
0
178
0
270
2
271
2
272
2
273
2
274
2
275
0
280
0
281
0
282
0
283
1
284
8
285
0
286
0
287
3
288
0
340
11
278
44
341
214
342
214
343
214
344
214
  0
DIMSTYLE
105
21A
100
AcDbSymbolTableRecord
100
AcDbDimStyleTableRecord
  2
DIMSTYLE_1
 70
0
  3

  4

 40
1.0
 41
3.0
 42
0.5
 43
0.38
 44
1.5
 45
0.0
 46
0.0
 47
0.0
 48
0.0
140
3.0
141
0.09
142
0.0
143
25.4
144
1.0
145
0.0
146
1.0
147
0.75
 71
0.0
 72
0.0
 73
0
 74
0
 75
0
 76
0
 77
1
 78
8
170
0
171
2
172
0
173
0
174
0
175
0
176
0
177
0
178
0
270
2
271
1
272
1
273
2
274
2
275
0
280
0
281
0
282
0
283
1
284
8
285
0
286
0
287
3
288
0
340
11
278
44
341
214
342
214
343
214
344
214
  0
DIMSTYLE
105
21B
100
AcDbSymbolTableRecord
100
AcDbDimStyleTableRecord
  2
DIMSTYLE_2
 70
0
  3

  4

 40
1.0
 41
3.0
 42
0.5
 43
0.38
 44
1.5
 45
0.0
 46
0.0
 47
0.0
 48
0.0
140
3.0
141
0.09
142
0.0
143
25.4
144
1.0
145
0.0
146
1.0
147
0.75
 71
0.0
 72
0.0
 73
0
 74
0
 75
0
 76
0
 77
1
 78
8
170
0
171
2
172
0
173
0
174
0
175
0
176
0
177
0
178
0
270
2
271
2
272
2
273
2
274
2
275
0
280
0
281
0
282
0
283
1
284
8
285
0
286
0
287
3
288
0
340
11
278
44
341
214
342
214
343
214
344
214
  0
DIMSTYLE
105
21C
100
AcDbSymbolTableRecord
100
AcDbDimStyleTableRecord
  2
DIMSTYLE_3
 70
0
  3

  4

 40
1.0
 41
3.0
 42
0.5
 43
0.38
 44
1.5
 45
0.0
 46
0.0
 47
0.0
 48
0.0
140
3.0
141
0.09
142
0.0
143
25.4
144
1.0
145
0.0
146
1.0
147
0.75
 71
0.0
 72
0.0
 73
0
 74
0
 75
0
 76
0
 77
1
 78
8
170
0
171
2
172
0
173
0
174
0
175
0
176
0
177
0
178
0
270
2
271
0
272
0
273
2
274
2
275
0
280
0
281
0
282
0
283
1
284
8
285
0
286
0
287
3
288
0
340
11
278
44
341
214
342
214
343
214
344
214
  0
ENDTAB
  0
ENDSEC
  0
SECTION
  2
BLOCKS
  0
BLOCK
  5
20
100
AcDbEntity
  8
0
100
AcDbBlockBegin
  2
*Model_Space
 70
0
 10
0.0
 20
0.0
 30
0.0
  3
*Model_Space
  1

  0
ENDBLK
  5
21
100
AcDbEntity
  8
0
100
AcDbBlockEnd
  0
BLOCK
  5
1C
100
AcDbEntity
  8
0
100
AcDbBlockBegin
  2
*Paper_Space
 70
0
 10
0.0
 20
0.0
 30
0.0
  3
*Paper_Space
  1

  0
ENDBLK
  5
1D
100
AcDbEntity
  8
0
100
AcDbBlockEnd
  0
BLOCK
  5
21D
100
AcDbEntity
  8
0
100
AcDbBlockBegin
  2
_FILLED
 70
64
 10
0.0
 20
0.0
  3
_FILLED
  1

  0
SOLID
  5
21E
100
AcDbEntity
  8
0
  6
BYBLOCK
 62
0
100
AcDbTrace
 10
0.0
 20
0.0
 11
-1.0
 21
0.3166666667
 12
-1.0
 22
-0.3166666667
 13
-1.0
 23
-0.3166666667
  0
ENDBLK
  5
21F
100
AcDbEntity
  8
0
  6
BYBLOCK
 62
0
100
AcDbBlockEnd
  0
BLOCK
  5
220
100
AcDbEntity
  8
0
100
AcDbBlockBegin
 62
7
  6
CONTINUOUS
  2
*D0
 70
65
 10
0.0
 20
0.0
  3
*D0
  1

  0
MTEXT
  5
221
100
AcDbEntity
  8
0
100
AcDbMText
 62
7
  6
CONTINUOUS
  7
STANDARD
 71
2
 72
1
 10
0.0000000002
 20
53.9967267598
 30
0.0
 11
1.0
 21
0.0
 31
0.0
 44
0.9
  1
46,6
 40
3.0
 41
13.1785714286
  0
LINE
  5
222
100
AcDbEntity
  8
0
100
AcDbLine
 62
7
  6
CONTINUOUS
 10
-23.2934535192
 20
39.6391794756
 11
-23.2934535192
 21
51.7467267598
  0
LINE
  5
223
100
AcDbEntity
  8
0
100
AcDbLine
 62
7
  6
CONTINUOUS
 10
23.2934535196
 20
39.6391858345
 11
23.2934535196
 21
51.7467267598
  0
LINE
  5
224
100
AcDbEntity
  8
0
100
AcDbLine
 62
7
  6
CONTINUOUS
 10
-23.2934535192
 20
50.2467267598
 11
0.0000000002
 21
50.2467267598
  0
LINE
  5
225
100
AcDbEntity
  8
0
100
AcDbLine
 62
7
  6
CONTINUOUS
 10
23.2934535196
 20
50.2467267598
 11
0.0000000002
 21
50.2467267598
  0
INSERT
  5
226
100
AcDbEntity
  8
0
100
AcDbBlockReference
 62
7
  6
CONTINUOUS
  2
_FILLED
 10
-23.2934535192
 20
50.2467267598
 41
3.0
 42
3.0
 43
3.0
 50
180.0
  0
INSERT
  5
227
100
AcDbEntity
  8
0
100
AcDbBlockReference
 62
7
  6
CONTINUOUS
  2
_FILLED
 10
23.2934535196
 20
50.2467267598
 41
3.0
 42
3.0
 43
3.0
  0
ENDBLK
  5
228
100
AcDbEntity
  8
0
  6
BYBLOCK
 62
0
100
AcDbBlockEnd
  0
BLOCK
  5
229
100
AcDbEntity
  8
0
100
AcDbBlockBegin
 62
7
  6
CONTINUOUS
  2
*D1
 70
65
 10
0.0
 20
0.0
  3
*D1
  1

  0
MTEXT
  5
22A
100
AcDbEntity
  8
0
100
AcDbMText
 62
7
  6
CONTINUOUS
  7
STANDARD
 71
2
 72
1
 10
91.3163804895
 20
63.9967267598
 30
0.0
 11
1.0
 21
0.0
 31
0.0
 44
0.9
  1
64,7
 40
3.0
 41
13.1785714286
  0
LINE
  5
22B
100
AcDbEntity
  8
0
100
AcDbLine
 62
7
  6
CONTINUOUS
 10
58.9663804895
 20
36.2802167123
 11
58.9663804895
 21
61.7467267598
  0
LINE
  5
22C
100
AcDbEntity
  8
0
100
AcDbLine
 62
7
  6
CONTINUOUS
 10
123.6663804895
 20
40.2619246087
 11
123.6663804895
 21
61.7467267598
  0
LINE
  5
22D
100
AcDbEntity
  8
0
100
AcDbLine
 62
7
  6
CONTINUOUS
 10
58.9663804895
 20
60.2467267598
 11
91.3163804895
 21
60.2467267598
  0
LINE
  5
22E
100
AcDbEntity
  8
0
100
AcDbLine
 62
7
  6
CONTINUOUS
 10
123.6663804895
 20
60.2467267598
 11
91.3163804895
 21
60.2467267598
  0
INSERT
  5
22F
100
AcDbEntity
  8
0
100
AcDbBlockReference
 62
7
  6
CONTINUOUS
  2
_FILLED
 10
58.9663804895
 20
60.2467267598
 41
3.0
 42
3.0
 43
3.0
 50
180.0
  0
INSERT
  5
230
100
AcDbEntity
  8
0
100
AcDbBlockReference
 62
7
  6
CONTINUOUS
  2
_FILLED
 10
123.6663804895
 20
60.2467267598
 41
3.0
 42
3.0
 43
3.0
  0
ENDBLK
  5
231
100
AcDbEntity
  8
0
  6
BYBLOCK
 62
0
100
AcDbBlockEnd
  0
BLOCK
  5
232
100
AcDbEntity
  8
0
100
AcDbBlockBegin
 62
7
  6
CONTINUOUS
  2
*D2
 70
65
 10
0.0
 20
0.0
  3
*D2
  1

  0
MTEXT
  5
233
100
AcDbEntity
  8
0
100
AcDbMText
 62
7
  6
CONTINUOUS
  7
STANDARD
 71
2
 72
1
 10
-35.0499999999
 20
0.7745014702
 30
0.0
 11
0.0
 21
1.0
 31
0.0
 44
0.9
  1
83
 40
3.0
 41
6.75
  0
LINE
  5
234
100
AcDbEntity
  8
0
100
AcDbLine
 62
7
  6
CONTINUOUS
 10
-0.5
 20
42.2467267598
 11
-32.7999999999
 21
42.2467267598
  0
LINE
  5
235
100
AcDbEntity
  8
0
100
AcDbLine
 62
7
  6
CONTINUOUS
 10
-0.5000000446
 20
-40.6977238194
 11
-32.7999999999
 21
-40.6977238194
  0
LINE
  5
236
100
AcDbEntity
  8
0
100
AcDbLine
 62
7
  6
CONTINUOUS
 10
-31.2999999999
 20
42.2467267598
 11
-31.2999999999
 21
0.7745014702
  0
LINE
  5
237
100
AcDbEntity
  8
0
100
AcDbLine
 62
7
  6
CONTINUOUS
 10
-31.2999999999
 20
-40.6977238194
 11
-31.2999999999
 21
0.7745014702
  0
INSERT
  5
238
100
AcDbEntity
  8
0
100
AcDbBlockReference
 62
7
  6
CONTINUOUS
  2
_FILLED
 10
-31.2999999999
 20
42.2467267598
 41
3.0
 42
3.0
 43
3.0
 50
90.0
  0
INSERT
  5
239
100
AcDbEntity
  8
0
100
AcDbBlockReference
 62
7
  6
CONTINUOUS
  2
_FILLED
 10
-31.2999999999
 20
-40.6977238194
 41
3.0
 42
3.0
 43
3.0
 50
270.0
  0
ENDBLK
  5
23A
100
AcDbEntity
  8
0
  6
BYBLOCK
 62
0
100
AcDbBlockEnd
  0
BLOCK
  5
23B
100
AcDbEntity
  8
0
100
AcDbBlockBegin
 62
7
  6
CONTINUOUS
  2
*D3
 70
65
 10
0.0
 20
0.0
  3
*D3
  1

  0
MTEXT
  5
23C
100
AcDbEntity
  8
0
100
AcDbMText
 62
7
  6
CONTINUOUS
  7
STANDARD
 71
2
 72
1
 10
100.4163804895
 20
53.9967267598
 30
0.0
 11
1.0
 21
0.0
 31
0.0
 44
0.9
  1
46,5
 40
3.0
 41
12.8571428571
  0
LINE
  5
23D
100
AcDbEntity
  8
0
100
AcDbLine
 62
7
  6
CONTINUOUS
 10
77.1663804895
 20
38.9125955821
 11
77.1663804895
 21
51.7467267598
  0
LINE
  5
23E
100
AcDbEntity
  8
0
100
AcDbLine
 62
7
  6
CONTINUOUS
 10
123.6663804895
 20
40.2619246087
 11
123.6663804895
 21
51.7467267598
  0
LINE
  5
23F
100
AcDbEntity
  8
0
100
AcDbLine
 62
7
  6
CONTINUOUS
 10
77.1663804895
 20
50.2467267598
 11
100.4163804895
 21
50.2467267598
  0
LINE
  5
240
100
AcDbEntity
  8
0
100
AcDbLine
 62
7
  6
CONTINUOUS
 10
123.6663804895
 20
50.2467267598
 11
100.4163804895
 21
50.2467267598
  0
INSERT
  5
241
100
AcDbEntity
  8
0
100
AcDbBlockReference
 62
7
  6
CONTINUOUS
  2
_FILLED
 10
77.1663804895
 20
50.2467267598
 41
3.0
 42
3.0
 43
3.0
 50
180.0
  0
INSERT
  5
242
100
AcDbEntity
  8
0
100
AcDbBlockReference
 62
7
  6
CONTINUOUS
  2
_FILLED
 10
123.6663804895
 20
50.2467267598
 41
3.0
 42
3.0
 43
3.0
  0
ENDBLK
  5
243
100
AcDbEntity
  8
0
  6
BYBLOCK
 62
0
100
AcDbBlockEnd
  0
ENDSEC
  0
SECTION
  2
ENTITIES
  0
DIMENSION
  5
244
100
AcDbEntity
  8
0
100
AcDbDimension
 62
7
  6
CONTINUOUS
  2
*D0
 10
23.2934535196
 20
50.2467267598
 11
-0.4285713773
 21
50.2467267598
 70
160
 71
2
 42
46.5869070387
  3
DIMSTYLE_1
100
AcDbAlignedDimension
 13
-23.2934535192
 23
39.1391794756
 14
23.2934535196
 24
39.1391858345
100
AcDbRotatedDimension
  0
DIMENSION
  5
245
100
AcDbEntity
  8
0
100
AcDbDimension
 62
7
  6
CONTINUOUS
  2
*D1
 10
123.6663804895
 20
60.2467267598
 11
90.8878053131
 21
60.2467267598
 70
160
 71
2
 42
64.7
  3
DIMSTYLE_2
100
AcDbAlignedDimension
 13
58.9663804895
 23
35.7802167123
 14
123.6663804895
 24
39.7619246087
100
AcDbRotatedDimension
  0
DIMENSION
  5
246
100
AcDbEntity
  8
0
100
AcDbDimension
 62
7
  6
CONTINUOUS
  2
*D2
 10
-31.2999999999
 20
-40.6977238194
 11
-31.2999999999
 21
0.3459302039
 70
160
 71
2
 42
82.9444505792
  3
DIMSTYLE_3
100
AcDbAlignedDimension
 13
0.0
 23
42.2467267598
 14
-0.0000000446
 24
-40.6977238194
 50
270.0
100
AcDbRotatedDimension
  0
DIMENSION
  5
247
100
AcDbEntity
  8
0
100
AcDbDimension
 62
7
  6
CONTINUOUS
  2
*D3
 10
123.6663804895
 20
50.2467267598
 11
99.9878080902
 21
50.2467267598
 70
160
 71
2
 42
46.5
  3
DIMSTYLE_2
100
AcDbAlignedDimension
 13
77.1663804895
 23
38.4125955821
 14
123.6663804895
 24
39.7619246087
100
AcDbRotatedDimension
  0
LWPOLYLINE
  5
248
100
AcDbEntity
  8
IMPORT_IGES
100
AcDbPolyline
 62
253
  6
CONTINUOUS
 90
12
 70
0
 10
-23.0250735009
 20
38.9074908361
 10
-23.0184525513
 20
38.9116710781
 10
-23.0047052107
 20
38.9161510031
 10
-22.9838463672
 20
38.9208924408
 10
-22.9559478566
 20
38.9258445094
 10
-22.9210217034
 20
38.9309886508
 10
-22.8789539828
 20
38.9363376398
 10
-22.8300117675
 20
38.9418618785
 10
-22.7745533685
 20
38.9475240106
 10
-22.7126246498
 20
38.9533226007
 10
-22.6444585178
 20
38.9592305772
 10
-22.5703318255
 20
38.9652085574
  0
LWPOLYLINE
  5
249
100
AcDbEntity
  8
IMPORT_IGES
100
AcDbPolyline
 62
253
  6
CONTINUOUS
 90
37
 70
0
 10
18.2672118029
 20
-39.2206085762
 10
18.3146825201
 20
-39.2116287996
 10
18.3622260333
 20
-39.2008814095
 10
18.409793636
 20
-39.188350902
 10
18.4573972185
 20
-39.1740032477
 10
18.5049189476
 20
-39.1578420899
 10
18.5521187781
 20
-39.1399306404
 10
18.5989423405
 20
-39.1202810848
 10
18.6453413846
 20
-39.0989037917
 10
18.6910975057
 20
-39.0758981638
 10
18.7361244722
 20
-39.0513178361
 10
18.7804169832
 20
-39.0251742083
 10
18.8238874655
 20
-38.9975257263
 10
18.8665139121
 20
-38.9683923498
 10
18.9082267224
 20
-38.9378255277
 10
18.9488764985
 20
-38.9059462346
 10
18.9883748133
 20
-38.8728455599
 10
19.0267376839
 20
-38.8385298011
 10
19.0639761994
 20
-38.8029979912
 10
19.100045572
 20
-38.7662953188
 10
19.1349083727
 20
-38.7284597213
 10
19.1685765397
 20
-38.6894690391
 10
19.2010366776
 20
-38.6493160589
 10
19.2322039487
 20
-38.6080789367
 10
19.2619832167
 20
-38.5658635596
 10
19.2903368249
 20
-38.5227054687
 10
19.3172184775
 20
-38.4786528998
 10
19.3425358823
 20
-38.4338409967
 10
19.3662753381
 20
-38.3882799553
 10
19.3883844899
 20
-38.3420515481
 10
19.408744419
 20
-38.2954128538
 10
19.4273378205
 20
-38.2484421616
 10
19.4441686567
 20
-38.2011683558
 10
19.4591883272
 20
-38.1537872669
 10
19.472395462
 20
-38.1064014926
 10
19.4838192753
 20
-38.0590144394
 10
19.4934745746
 20
-38.0116750354
  0
LINE
  5
24A
100
AcDbEntity
  8
IMPORT_IGES
100
AcDbLine
 62
253
  6
CONTINUOUS
 10
17.9955572855
 20
-39.2550657467
 11
17.8633469294
 21
-39.2756917402
  0
LINE
  5
24B
100
AcDbEntity
  8
RACCORDO
100
AcDbLine
 62
7
  6
CONTINUOUS
 10
7.0
 20
-42.2467267598
 11
-7.0
 21
-42.2467267598
  0
LINE
  5
24C
100
AcDbEntity
  8
RACCORDO
100
AcDbLine
 62
253
  6
CONTINUOUS
 10
7.5
 20
-41.7467267598
 11
-7.5
 21
-41.7467267598
  0
LINE
  5
24D
100
AcDbEntity
  8
IMPORT_IGES
100
AcDbLine
 62
253
  6
CONTINUOUS
 10
-18.0325698653
 20
-39.2494695036
 11
-18.1052776491
 21
-39.2387915838
  0
LWPOLYLINE
  5
24E
100
AcDbEntity
  8
IMPORT_IGES
100
AcDbPolyline
 62
253
  6
CONTINUOUS
 90
3
 70
0
 10
-17.8633469293
 20
-39.2756917403
 10
-16.5695786137
 20
-39.4740988781
 10
-15.24039433
 20
-39.6623796081
  0
LINE
  5
24F
100
AcDbEntity
  8
IMPORT_IGES
100
AcDbLine
 62
253
  6
CONTINUOUS
 10
-17.9516527182
 20
-39.2618174785
 11
-18.0325698653
 21
-39.2494695036
  0
LINE
  5
250
100
AcDbEntity
  8
IMPORT_IGES
100
AcDbLine
 62
253
  6
CONTINUOUS
 10
-17.8633469293
 20
-39.2756917403
 11
-17.9516527182
 21
-39.2618174785
  0
LWPOLYLINE
  5
251
100
AcDbEntity
  8
IMPORT_IGES
100
AcDbPolyline
 62
253
  6
CONTINUOUS
 90
37
 70
0
 10
-18.2672566339
 20
-39.2208721794
 10
-18.3146979395
 20
-39.2120796581
 10
-18.3623496374
 20
-39.2016279303
 10
-18.410124959
 20
-39.1895002965
 10
-18.4579628949
 20
-39.1756718867
 10
-18.5057489733
 20
-39.1601320525
 10
-18.5533160846
 20
-39.1428937384
 10
-18.6005820312
 20
-39.1239461436
 10
-18.6474538386
 20
-39.1032827075
 10
-18.6937518715
 20
-39.0809416223
 10
-18.7393476652
 20
-39.056957977
 10
-18.7841986149
 20
-39.0313515573
 10
-18.8282565643
 20
-39.0041435332
 10
-18.8714611266
 20
-38.9753562104
 10
-18.9136971238
 20
-38.9450481053
 10
-18.9548434459
 20
-38.9133051187
 10
-18.9947836046
 20
-38.8802338896
 10
-19.0335011201
 20
-38.8458616641
 10
-19.0710266438
 20
-38.8101574234
 10
-19.1072846011
 20
-38.7731824769
 10
-19.1422214375
 20
-38.7350044501
 10
-19.1758799339
 20
-38.6955806361
 10
-19.2082248829
 20
-38.6549351783
 10
-19.2391525359
 20
-38.613176056
 10
-19.2686019774
 20
-38.5703829904
 10
-19.2965318929
 20
-38.5266347551
 10
-19.3228975776
 20
-38.4820174345
 10
-19.3476481276
 20
-38.4366304009
 10
-19.3707617242
 20
-38.3905265071
 10
-19.3922006023
 20
-38.3438274178
 10
-19.4119043514
 20
-38.2967416414
 10
-19.4298633426
 20
-38.2493887583
 10
-19.4460893445
 20
-38.2018354263
 10
-19.460582917
 20
-38.1542097784
 10
-19.4733695262
 20
-38.1066080667
 10
-19.4844827507
 20
-38.0590989643
 10
-19.4939517032
 20
-38.0117640081
  0
LWPOLYLINE
  5
252
100
AcDbEntity
  8
IMPORT_IGES
100
AcDbPolyline
 62
7
  6
CONTINUOUS
 90
19
 70
0
 10
-18.4374052309
 20
-39.3912524808
 10
-18.5312174449
 20
-39.3720506717
 10
-18.6242465018
 20
-39.345875137
 10
-18.7164924015
 20
-39.3127258767
 10
-18.8086881637
 20
-39.2723824907
 10
-18.9001007688
 20
-39.2250653791
 10
-18.9885311575
 20
-39.1714357419
 10
-19.0738776747
 20
-39.1112528794
 10
-19.1562419756
 20
-39.0447574912
 10
-19.2337299669
 20
-38.9733328773
 10
-19.3061769593
 20
-38.8968132122
 10
-19.373747642
 20
-38.8153643213
 10
-19.4350419901
 20
-38.7308669808
 10
-19.4898200389
 20
-38.6432171026
 10
-19.5383217529
 20
-38.5525187747
 10
-19.5798670012
 20
-38.4609650384
 10
-19.6142290733
 20
-38.3692869072
 10
-19.6416346795
 20
-38.2767533674
 10
-19.66208382
 20
-38.1833644192
  0
LWPOLYLINE
  5
253
100
AcDbEntity
  8
IMPORT_IGES
100
AcDbPolyline
 62
253
  6
CONTINUOUS
 90
22
 70
0
 10
-17.8633484561
 20
-39.2756914662
 10
-17.8799122011
 20
-39.2673896195
 10
-17.8954656778
 20
-39.2531151545
 10
-17.9099024035
 20
-39.2330095436
 10
-17.9230759237
 20
-39.2073533669
 10
-17.9349737475
 20
-39.176244293
 10
-17.9456729216
 20
-39.1393653368
 10
-17.9551232793
 20
-39.096854643
 10
-17.9632529641
 20
-39.0490978482
 10
-17.970061726
 20
-38.9959717303
 10
-17.9754722951
 20
-38.9376326775
 10
-17.9794004655
 20
-38.8743036533
 10
-17.9818148251
 20
-38.8058707144
 10
-17.9827042047
 20
-38.7326530545
 10
-17.9820583411
 20
-38.6552252133
 10
-17.9798684278
 20
-38.5739600713
 10
-17.9761294561
 20
-38.4894699169
 10
-17.970846107
 20
-38.4022096832
 10
-17.964046672
 20
-38.3123145268
 10
-17.9557810555
 20
-38.2202297559
 10
-17.9461326846
 20
-38.1267426323
 10
-17.9351850943
 20
-38.0325533877
  0
LWPOLYLINE
  5
254
100
AcDbEntity
  8
IMPORT_IGES
100
AcDbPolyline
 62
253
  6
CONTINUOUS
 90
19
 70
0
 10
17.9351837137
 20
-38.0325473357
 10
17.0499857046
 20
-38.1692344545
 10
16.1523080274
 20
-38.3008310871
 10
15.2416955062
 20
-38.4271551872
 10
14.3186723288
 20
-38.5478816593
 10
13.383346009
 20
-38.6626724089
 10
12.4348420366
 20
-38.7712737818
 10
11.474492843
 20
-38.8732423974
 10
10.5021619605
 20
-38.9682888657
 10
9.5144532651
 20
-39.0563245569
 10
8.5101125892
 20
-39.1370510096
 10
7.4910703856
 20
-39.2098982823
 10
6.4584991637
 20
-39.2743281844
 10
5.4132601717
 20
-39.3299314845
 10
4.3553547756
 20
-39.3763430373
 10
3.2846769599
 20
-39.4131189956
 10
2.2014733981
 20
-39.4398591223
 10
1.1064145636
 20
-39.4562086432
 10
0.0000000004
 20
-39.461808586
  0
LWPOLYLINE
  5
255
100
AcDbEntity
  8
IMPORT_IGES
100
AcDbPolyline
 62
253
  6
CONTINUOUS
 90
4
 70
0
 10
13.8758378621
 20
-39.8392897368
 10
15.2404242861
 20
-39.662375535
 10
16.5695950544
 20
-39.4740964424
 10
17.8633469294
 20
-39.2756917402
  0
LINE
  5
256
100
AcDbEntity
  8
IMPORT_IGES
100
AcDbLine
 62
253
  6
CONTINUOUS
 10
15.0568917978
 20
-39.6928941933
 11
13.5649027516
 21
-39.8829983628
  0
LINE
  5
257
100
AcDbEntity
  8
IMPORT_IGES
100
AcDbLine
 62
253
  6
CONTINUOUS
 10
12.9671302648
 20
-39.9510995795
 11
12.027146569
 21
-40.0581872003
  0
LINE
  5
258
100
AcDbEntity
  8
IMPORT_IGES
100
AcDbLine
 62
253
  6
CONTINUOUS
 10
12.027146569
 20
-40.0581872003
 11
10.4436896853
 21
-40.2166022842
  0
LINE
  5
259
100
AcDbEntity
  8
IMPORT_IGES
100
AcDbLine
 62
253
  6
CONTINUOUS
 10
10.4436896853
 20
-40.2166022842
 11
8.8143974356
 21
-40.3563894958
  0
LINE
  5
25A
100
AcDbEntity
  8
IMPORT_IGES
100
AcDbLine
 62
253
  6
CONTINUOUS
 10
8.8143974356
 20
-40.3563894958
 11
7.1396772727
 21
-40.4755193927
  0
LINE
  5
25B
100
AcDbEntity
  8
IMPORT_IGES
100
AcDbLine
 62
253
  6
CONTINUOUS
 10
6.434479696
 20
-40.5150236033
 11
5.4204910917
 21
-40.5718258679
  0
LINE
  5
25C
100
AcDbEntity
  8
IMPORT_IGES
100
AcDbLine
 62
253
  6
CONTINUOUS
 10
3.6902161467
 20
-40.6424760482
 11
3.6573686944
 21
-40.6432322847
  0
LINE
  5
25D
100
AcDbEntity
  8
IMPORT_IGES
100
AcDbLine
 62
7
  6
CONTINUOUS
 10
-15.9862523161
 20
-39.7054572106
 11
-15.0568911358
 21
-39.6928951141
  0
LINE
  5
25E
100
AcDbEntity
  8
IMPORT_IGES
100
AcDbLine
 62
7
  6
CONTINUOUS
 10
-16.4420811448
 20
-39.7101959573
 11
-15.9862523161
 21
-39.7054572106
  0
LINE
  5
25F
100
AcDbEntity
  8
IMPORT_IGES
100
AcDbLine
 62
253
  6
CONTINUOUS
 10
1.8504032692
 20
-40.6877151105
 11
1.8323021234
 21
-40.6883161387
  0
LWPOLYLINE
  5
260
100
AcDbEntity
  8
IMPORT_IGES
100
AcDbPolyline
 62
7
  6
CONTINUOUS
 90
10
 70
0
 10
0.0000010117
 20
-40.7033197266
 10
1.8323021234
 20
-40.6883161387
 10
3.6902161467
 20
-40.6424760482
 10
5.4929418659
 20
-40.568543212
 10
7.2410353118
 20
-40.4691767561
 10
8.9344228839
 20
-40.3469812482
 10
10.5715930121
 20
-40.2046621138
 10
12.151259911
 20
-40.0448517837
 10
13.672854269
 20
-39.8700043655
 10
15.0586258038
 20
-39.6928346552
  0
LWPOLYLINE
  5
261
100
AcDbEntity
  8
IMPORT_IGES
100
AcDbPolyline
 62
253
  6
CONTINUOUS
 90
10
 70
0
 10
-0.0000000202
 20
-40.6977238273
 10
1.6835068091
 20
-40.6849524915
 10
3.3319867316
 20
-40.6479856036
 10
4.945126131
 20
-40.5883856364
 10
6.5224203622
 20
-40.5076662734
 10
8.0638754228
 20
-40.4073565499
 10
9.5700081618
 20
-40.288967086
 10
11.0407886104
 20
-40.1539144453
 10
12.4759789692
 20
-40.0035706672
 10
13.8758378621
 20
-39.8392897368
  0
LWPOLYLINE
  5
262
100
AcDbEntity
  8
IMPORT_IGES
100
AcDbPolyline
 62
253
  6
CONTINUOUS
 90
19
 70
0
 10
0.0000000004
 20
-39.461808586
 10
-1.1059132232
 20
-39.4562138286
 10
-2.2005338646
 20
-39.4398778837
 10
-3.2833602627
 20
-39.4131578546
 10
-4.3537161107
 20
-39.376406998
 10
-5.4113560364
 20
-39.3300237988
 10
-6.4563940645
 20
-39.2744497603
 10
-7.4888277702
 20
-39.2100482924
 10
-8.507790779
 20
-39.1372273366
 10
-9.5121115808
 20
-39.0565232066
 10
-10.4998529286
 20
-38.9685049009
 10
-11.4722689858
 20
-38.8734696812
 10
-12.4327658854
 20
-38.7715036834
 10
-13.3814750368
 20
-38.6628953893
 10
-14.3170598479
 20
-38.5480874043
 10
-15.2404043965
 20
-38.4273307756
 10
-16.1514000311
 20
-38.3009623492
 10
-17.0495118989
 20
-38.169307607
 10
-17.9351910021
 20
-38.0325481533
  0
LINE
  5
263
100
AcDbEntity
  8
IMPORT_IGES
100
AcDbLine
 62
253
  6
CONTINUOUS
 10
-1.8323022484
 20
-40.6883164655
 11
-1.8503184755
 21
-40.6877166163
  0
LINE
  5
264
100
AcDbEntity
  8
IMPORT_IGES
100
AcDbLine
 62
7
  6
CONTINUOUS
 10
15.5245204444
 20
-39.6996901984
 11
16.4420817686
 21
-39.7101960632
  0
LINE
  5
265
100
AcDbEntity
  8
IMPORT_IGES
100
AcDbLine
 62
7
  6
CONTINUOUS
 10
15.0568914222
 20
-39.6928954464
 11
15.5245204444
 21
-39.6996901984
  0
LINE
  5
266
100
AcDbEntity
  8
IMPORT_IGES
100
AcDbLine
 62
253
  6
CONTINUOUS
 10
-3.6572281361
 20
-40.643237103
 11
-3.690214936
 21
-40.6424769124
  0
LINE
  5
267
100
AcDbEntity
  8
IMPORT_IGES
100
AcDbLine
 62
253
  6
CONTINUOUS
 10
-5.4203223985
 20
-40.5718343832
 11
-7.1395169643
 21
-40.4755300597
  0
LINE
  5
268
100
AcDbEntity
  8
IMPORT_IGES
100
AcDbLine
 62
253
  6
CONTINUOUS
 10
-7.1395169643
 20
-40.4755300597
 11
-8.8142730107
 21
-40.3563997799
  0
LINE
  5
269
100
AcDbEntity
  8
IMPORT_IGES
100
AcDbLine
 62
253
  6
CONTINUOUS
 10
-8.8142730107
 20
-40.3563997799
 11
-10.4436018119
 21
-40.2166109629
  0
LINE
  5
26A
100
AcDbEntity
  8
IMPORT_IGES
100
AcDbLine
 62
253
  6
CONTINUOUS
 10
-10.4436018119
 20
-40.2166109629
 11
-12.0270869965
 21
-40.0581940343
  0
LINE
  5
26B
100
AcDbEntity
  8
IMPORT_IGES
100
AcDbLine
 62
253
  6
CONTINUOUS
 10
-12.0270869965
 20
-40.0581940343
 11
-13.5648721271
 21
-39.883002407
  0
LINE
  5
26C
100
AcDbEntity
  8
IMPORT_IGES
100
AcDbLine
 62
253
  6
CONTINUOUS
 10
-13.5648721271
 20
-39.883002407
 11
-15.0568907506
 21
-39.6928945081
  0
LWPOLYLINE
  5
26D
100
AcDbEntity
  8
IMPORT_IGES
100
AcDbPolyline
 62
7
  6
CONTINUOUS
 90
10
 70
0
 10
-15.0586258337
 20
-39.6928346544
 10
-13.6728721047
 20
-39.8700015114
 10
-12.1512744328
 20
-40.0448485258
 10
-10.5715889141
 20
-40.204660569
 10
-8.9344082543
 20
-40.3469813531
 10
-7.2410262547
 20
-40.4691776068
 10
-5.4929401981
 20
-40.5685442044
 10
-3.690214936
 20
-40.6424769124
 10
-1.8323022484
 20
-40.6883164655
 10
0.0000010115
 20
-40.7033197356
  0
LWPOLYLINE
  5
26E
100
AcDbEntity
  8
IMPORT_IGES
100
AcDbPolyline
 62
253
  6
CONTINUOUS
 90
11
 70
0
 10
-15.24039433
 20
-39.6623796081
 10
-13.8757973351
 20
-39.8392947447
 10
-12.4759308248
 20
-40.0035760144
 10
-11.0407358264
 20
-40.1539196381
 10
-9.5699537555
 20
-40.2889717267
 10
-8.0638224218
 20
-40.4073603593
 10
-6.5223718055
 20
-40.5076690996
 10
-4.9450850962
 20
-40.5883874491
 10
-3.3319563101
 20
-40.647986508
 10
-1.6834900811
 20
-40.6849527415
 10
-0.0000000202
 20
-40.6977238273
  0
LWPOLYLINE
  5
26F
100
AcDbEntity
  8
IMPORT_IGES
100
AcDbPolyline
 62
253
  6
CONTINUOUS
 90
10
 70
0
 10
-18.1052776491
 20
-39.2387915838
 10
-18.137569355
 20
-39.2342441591
 10
-18.1671232893
 20
-39.2302273011
 10
-18.192979909
 20
-39.2268694161
 10
-18.2148683459
 20
-39.22421763
 10
-18.2330601563
 20
-39.2222298035
 10
-18.2474093965
 20
-39.2209007316
 10
-18.2578674897
 20
-39.2202295865
 10
-18.2644832343
 20
-39.2202198361
 10
-18.2672566342
 20
-39.2208721814
  0
LWPOLYLINE
  5
270
100
AcDbEntity
  8
IMPORT_IGES
100
AcDbPolyline
 62
253
  6
CONTINUOUS
 90
22
 70
0
 10
-17.9352114591
 20
-38.0325498763
 10
-18.0538864683
 20
-38.0402943836
 10
-18.1714303741
 20
-38.0474104319
 10
-18.2870666767
 20
-38.0537799341
 10
-18.4000379843
 20
-38.0592477483
 10
-18.5096942088
 20
-38.0637605747
 10
-18.6154845428
 20
-38.0673690615
 10
-18.7165401618
 20
-38.0700310777
 10
-18.8126079628
 20
-38.0717318594
 10
-18.9039994338
 20
-38.0725568864
 10
-18.9902688155
 20
-38.0724520849
 10
-19.07059555
 20
-38.0713416601
 10
-19.1447385059
 20
-38.0692706953
 10
-19.2123261385
 20
-38.0662839791
 10
-19.2731274257
 20
-38.0623977059
 10
-19.327114451
 20
-38.0576227239
 10
-19.3738828661
 20
-38.0519699467
 10
-19.4130448327
 20
-38.0454549593
 10
-19.4446577143
 20
-38.0380997319
 10
-19.4687098926
 20
-38.0299646078
 10
-19.4851444642
 20
-38.0211548863
 10
-19.493951408
 20
-38.0117662339
  0
LWPOLYLINE
  5
271
100
AcDbEntity
  8
IMPORT_IGES
100
AcDbPolyline
 62
253
  6
CONTINUOUS
 90
12
 70
0
 10
18.2672566557
 20
-39.2208721778
 10
18.2641585126
 20
-39.2202447443
 10
18.2572939587
 20
-39.2202762123
 10
18.2466629857
 20
-39.2209658688
 10
18.2321926283
 20
-39.222316827
 10
18.2139556229
 20
-39.2243233492
 10
18.1921704079
 20
-39.2269709689
 10
18.1666061545
 20
-39.2302940905
 10
18.1374930326
 20
-39.2342535757
 10
18.1057409539
 20
-39.2387249596
 10
18.0715885421
 20
-39.2436741089
 10
17.9955572855
 20
-39.2550657467
  0
LWPOLYLINE
  5
272
100
AcDbEntity
  8
IMPORT_IGES
100
AcDbPolyline
 62
7
  6
CONTINUOUS
 90
52
 70
0
 10
3.3822818913
 20
-30.0013692727
 10
3.4218276122
 20
-30.0006049898
 10
3.460781393
 20
-29.9983506542
 10
3.4990995863
 20
-29.9946397416
 10
3.5367431089
 20
-29.9895060362
 10
3.5736732224
 20
-29.9829841366
 10
3.6098515565
 20
-29.9751099596
 10
3.6452556202
 20
-29.9659169014
 10
3.6798479979
 20
-29.955443002
 10
3.7135734036
 20
-29.9437358629
 10
3.7463564046
 20
-29.9308605384
 10
3.7782055286
 20
-29.9168651953
 10
3.8091918132
 20
-29.9017606244
 10
3.8392549655
 20
-29.8856084652
 10
3.8683633036
 20
-29.8684561058
 10
3.896619599
 20
-29.850258796
 10
3.9239147553
 20
-29.8310936935
 10
3.9502637838
 20
-29.8109550956
 10
3.9759175936
 20
-29.7896178124
 10
4.0007747673
 20
-29.7670988207
 10
4.0247859148
 20
-29.7433787296
 10
4.0482527337
 20
-29.7181286504
 10
4.0711065818
 20
-29.6913948365
 10
4.09333742
 20
-29.6631682341
 10
4.1152606449
 20
-29.6329730128
 10
4.1367842058
 20
-29.6008092953
 10
4.15781918
 20
-29.5666942789
 10
4.1785759825
 20
-29.5301209435
 10
4.1989633709
 20
-29.4910223496
 10
4.2187903541
 20
-29.4495495667
 10
4.2380492733
 20
-29.405446717
 10
4.256619485
 20
-29.3586714197
 10
4.2743736844
 20
-29.3092481057
 10
4.2912733836
 20
-29.2569988498
 10
4.3072183854
 20
-29.2019735279
 10
4.3221440309
 20
-29.144211347
 10
4.336040448
 20
-29.0835053741
 10
4.3488235819
 20
-29.0198053643
 10
4.3604100572
 20
-28.9531600086
 10
4.3707703907
 20
-28.8834697587
 10
4.3798846804
 20
-28.8107468294
 10
4.38776745
 20
-28.7350279281
 10
4.3944817282
 20
-28.6562653712
 10
4.4001243745
 20
-28.5745190566
 10
4.4048440003
 20
-28.489858484
 10
4.40880499
 20
-28.402253229
 10
4.4120430052
 20
-28.3116764924
 10
4.4145711632
 20
-28.2181432401
 10
4.4164213581
 20
-28.1216261311
 10
4.417643969
 20
-28.0220987061
 10
4.4183097467
 20
-27.9195350468
 10
4.4185116747
 20
-27.8139018301
  0
LWPOLYLINE
  5
273
100
AcDbEntity
  8
IMPORT_IGES
100
AcDbPolyline
 62
7
  6
CONTINUOUS
 90
54
 70
0
 10
5.627283242
 20
-30.0013692727
 10
5.6650103036
 20
-30.0006735434
 10
5.7021694398
 20
-29.9986234907
 10
5.7387231132
 20
-29.995251581
 10
5.7746389032
 20
-29.990590371
 10
5.809882587
 20
-29.9846733238
 10
5.8444182308
 20
-29.9775356207
 10
5.878222475
 20
-29.9692112033
 10
5.91126828
 20
-29.9597357397
 10
5.9435186989
 20
-29.9491500237
 10
5.9749265339
 20
-29.937502928
 10
6.0054936691
 20
-29.9248344032
 10
6.0352494761
 20
-29.9111743496
 10
6.0641274539
 20
-29.896591501
 10
6.092120601
 20
-29.8811261054
 10
6.1193396306
 20
-29.8647397893
 10
6.1457218099
 20
-29.8474827013
 10
6.1712546953
 20
-29.8293739204
 10
6.1961010188
 20
-29.8102878455
 10
6.220164787
 20
-29.7902714115
 10
6.2434388026
 20
-29.7693004193
 10
6.2661700086
 20
-29.7470845843
 10
6.2883031481
 20
-29.7236348416
 10
6.3098254368
 20
-29.6989657637
 10
6.3309994738
 20
-29.6727420288
 10
6.3517524961
 20
-29.6449863682
 10
6.3720452885
 20
-29.6156906636
 10
6.3921075347
 20
-29.5844185164
 10
6.4118549594
 20
-29.5511511717
 10
6.4311755551
 20
-29.5159388047
 10
6.4501744975
 20
-29.4784228107
 10
6.4687695957
 20
-29.4385372162
 10
6.4867982128
 20
-29.3963682107
 10
6.5042037494
 20
-29.3517885084
 10
6.520875163
 20
-29.3048308649
 10
6.5367400576
 20
-29.2554776325
 10
6.5517906427
 20
-29.2035379844
 10
6.5659626437
 20
-29.149043288
 10
6.5791913426
 20
-29.0920467162
 10
6.5914419233
 20
-29.0323662225
 10
6.6026523935
 20
-28.9699625809
 10
6.6127677783
 20
-28.9048796049
 10
6.6217743197
 20
-28.8370616108
 10
6.629672515
 20
-28.7665366526
 10
6.6364956935
 20
-28.6933305733
 10
6.6423172016
 20
-28.6173979394
 10
6.6472393162
 20
-28.5387916797
 10
6.6514051026
 20
-28.4575803033
 10
6.6549160509
 20
-28.3737196927
 10
6.6577825185
 20
-28.2871758306
 10
6.6600193432
 20
-28.1979599769
 10
6.6616568061
 20
-28.1060481702
 10
6.6627404156
 20
-28.0114172753
 10
6.6635129947
 20
-27.8139018305
  0
LINE
  5
274
100
AcDbEntity
  8
IMPORT_IGES
100
AcDbLine
 62
7
  6
CONTINUOUS
 10
-8.5082756997
 20
-29.9242623934
 11
-8.1513873264
 21
-29.9242623934
  0
LINE
  5
275
100
AcDbEntity
  8
IMPORT_IGES
100
AcDbLine
 62
7
  6
CONTINUOUS
 10
-7.9880580305
 20
-29.9242623934
 11
-7.6416041422
 21
-29.9242623934
  0
LINE
  5
276
100
AcDbEntity
  8
IMPORT_IGES
100
AcDbLine
 62
7
  6
CONTINUOUS
 10
-3.0775309554
 20
-29.9242623934
 11
-2.6862048541
 21
-29.9242623934
  0
LINE
  5
277
100
AcDbEntity
  8
IMPORT_IGES
100
AcDbLine
 62
7
  6
CONTINUOUS
 10
-0.299787895
 20
-29.9242623934
 11
-0.6577210284
 21
-29.9242623934
  0
LINE
  5
278
100
AcDbEntity
  8
IMPORT_IGES
100
AcDbLine
 62
7
  6
CONTINUOUS
 10
-4.8557128166
 20
-29.9242623934
 11
-5.2418201229
 21
-29.9242623934
  0
LINE
  5
279
100
AcDbEntity
  8
IMPORT_IGES
100
AcDbLine
 62
7
  6
CONTINUOUS
 10
-5.3614820353
 20
-29.9242623934
 11
-5.7246321643
 21
-29.9242623934
  0
LINE
  5
27A
100
AcDbEntity
  8
IMPORT_IGES
100
AcDbLine
 62
7
  6
CONTINUOUS
 10
8.3392238802
 20
-29.9242623934
 11
8.7409852328
 21
-29.9242623934
  0
LINE
  5
27B
100
AcDbEntity
  8
IMPORT_IGES
100
AcDbLine
 62
7
  6
CONTINUOUS
 10
-9.5445060305
 20
-29.9242623934
 11
-9.9243514913
 21
-29.9242623934
  0
LINE
  5
27C
100
AcDbEntity
  8
IMPORT_IGES
100
AcDbLine
 62
7
  6
CONTINUOUS
 10
10.1121890955
 20
-29.9242623934
 11
10.5149926646
 21
-29.9242623934
  0
LINE
  5
27D
100
AcDbEntity
  8
IMPORT_IGES
100
AcDbLine
 62
7
  6
CONTINUOUS
 10
-10.9710175791
 20
-29.9242623934
 11
-11.3289500584
 21
-29.9242623934
  0
LINE
  5
27E
100
AcDbEntity
  8
IMPORT_IGES
100
AcDbLine
 62
7
  6
CONTINUOUS
 10
0.4318599096
 20
-28.9436323756
 11
0.0791294474
 21
-28.9436323756
  0
LINE
  5
27F
100
AcDbEntity
  8
IMPORT_IGES
100
AcDbLine
 62
7
  6
CONTINUOUS
 10
-6.0491710667
 20
-28.6517339611
 11
-7.3055871081
 21
-28.6517339611
  0
LWPOLYLINE
  5
280
100
AcDbEntity
  8
IMPORT_IGES
100
AcDbPolyline
 62
7
  6
CONTINUOUS
 90
52
 70
0
 10
3.3822817379
 20
-30.001368158
 10
3.3425237771
 20
-30.0006202767
 10
3.3041380078
 20
-29.9986614902
 10
3.2671264118
 20
-29.9954925553
 10
3.2315893243
 20
-29.9910955237
 10
3.1974303462
 20
-29.98548983
 10
3.1643557818
 20
-29.978732104
 10
3.1323522167
 20
-29.9708527395
 10
3.1014356595
 20
-29.9618223444
 10
3.0713555604
 20
-29.9516075418
 10
3.0420969961
 20
-29.940187944
 10
3.0136764864
 20
-29.9275845954
 10
2.9858898658
 20
-29.9138260152
 10
2.9587348381
 20
-29.8989489836
 10
2.9322146774
 20
-29.8829171475
 10
2.9061328988
 20
-29.8656491143
 10
2.8804136247
 20
-29.8471467294
 10
2.8551329375
 20
-29.8274083235
 10
2.8303219563
 20
-29.8063471312
 10
2.8059994258
 20
-29.7840164043
 10
2.7821469831
 20
-29.7603630986
 10
2.7587399573
 20
-29.7351409706
 10
2.7357691677
 20
-29.7083762168
 10
2.7132438962
 20
-29.6800427491
 10
2.6911668972
 20
-29.6498158228
 10
2.6695041836
 20
-29.6177079265
 10
2.6482896207
 20
-29.583706586
 10
2.6276276501
 20
-29.5474495807
 10
2.607488827
 20
-29.5088990062
 10
2.5879026157
 20
-29.4680927592
 10
2.569062097
 20
-29.424782369
 10
2.5509921059
 20
-29.3789240914
 10
2.5336684832
 20
-29.3305617315
 10
2.5172112405
 20
-29.279578213
 10
2.5016293436
 20
-29.2259641709
 10
2.4869149925
 20
-29.1697290251
 10
2.4731633837
 20
-29.1107839146
 10
2.460378077
 20
-29.0491389629
 10
2.4485571308
 20
-28.9847840622
 10
2.4377877762
 20
-28.917600017
 10
2.4281451023
 20
-28.8475447226
 10
2.4195561285
 20
-28.7746602335
 10
2.4118859224
 20
-28.6989535403
 10
2.4051524619
 20
-28.6204582577
 10
2.399339591
 20
-28.5391405359
 10
2.394260682
 20
-28.454906043
 10
2.3898323037
 20
-28.3677869293
 10
2.3861391435
 20
-28.2777505834
 10
2.3832465476
 20
-28.1846054359
 10
2.3811768922
 20
-28.0882874395
 10
2.3799095031
 20
-27.9888600838
 10
2.3794452729
 20
-27.8863230703
  0
LWPOLYLINE
  5
281
100
AcDbEntity
  8
IMPORT_IGES
100
AcDbPolyline
 62
7
  6
CONTINUOUS
 90
52
 70
0
 10
5.6272832421
 20
-30.0013692732
 10
5.5875260916
 20
-30.0006205557
 10
5.549141964
 20
-29.9986616114
 10
5.5121330156
 20
-29.9954931149
 10
5.4766001673
 20
-29.9910969436
 10
5.4424467779
 20
-29.9854925577
 10
5.4093780372
 20
-29.978736816
 10
5.3773805034
 20
-29.9708601146
 10
5.3464704387
 20
-29.9618329454
 10
5.3163965213
 20
-29.9516219902
 10
5.2871440686
 20
-29.9402071108
 10
5.2587295014
 20
-29.927609001
 10
5.2309473103
 20
-29.9138553369
 10
5.2037944052
 20
-29.8989824207
 10
5.1772749298
 20
-29.8829542894
 10
5.1511935022
 20
-29.8656900064
 10
5.1254744753
 20
-29.84719135
 10
5.1001937174
 20
-29.8274566266
 10
5.0753827602
 20
-29.8063995837
 10
5.0510605171
 20
-29.7840735364
 10
5.0272084706
 20
-29.7604252912
 10
5.0038018641
 20
-29.7352087876
 10
4.9808313274
 20
-29.7084498708
 10
4.9583063039
 20
-29.6801227036
 10
4.9362299632
 20
-29.6499036074
 10
4.9145686274
 20
-29.6178055209
 10
4.8933557764
 20
-29.5838154024
 10
4.8726951981
 20
-29.5475705497
 10
4.8525573722
 20
-29.5090336308
 10
4.8329717079
 20
-29.4682418427
 10
4.8141306448
 20
-29.4249443184
 10
4.7960584121
 20
-29.3790965171
 10
4.7787312794
 20
-29.330742935
 10
4.7622701594
 20
-29.2797663405
 10
4.74668401
 20
-29.2261573321
 10
4.7319648085
 20
-29.1699252983
 10
4.7182083189
 20
-29.1109812462
 10
4.7054178826
 20
-29.0493353822
 10
4.693591478
 20
-28.9849774919
 10
4.6828170898
 20
-28.9177879826
 10
4.6731695939
 20
-28.8477243831
 10
4.664575837
 20
-28.7748291433
 10
4.6569016731
 20
-28.6991100007
 10
4.6501649794
 20
-28.6206005195
 10
4.6443492298
 20
-28.5392669411
 10
4.6392681418
 20
-28.4550158645
 10
4.6348379011
 20
-28.3678796592
 10
4.631143002
 20
-28.2778255104
 10
4.6282493689
 20
-28.1846621325
 10
4.6261793317
 20
-28.0883255937
 10
4.6249115647
 20
-27.9888793269
 10
4.624446593
 20
-27.8863230708
  0
LINE
  5
282
100
AcDbEntity
  8
IMPORT_IGES
100
AcDbLine
 62
7
  6
CONTINUOUS
 10
-3.7528637341
 20
35.7004095061
 11
-3.8
 21
35.6532732402
  0
LWPOLYLINE
  5
283
100
AcDbEntity
  8
IMPORT_IGES
100
AcDbPolyline
 62
253
  6
CONTINUOUS
 90
13
 70
0
 10
-19.0130772178
 20
19.5532732402
 10
-19.0521610739
 20
19.5318451957
 10
-19.0891957476
 20
19.506343461
 10
-19.1238358689
 20
19.4770058547
 10
-19.1557583985
 20
19.444105967
 10
-19.1846656402
 20
19.4079506087
 10
-19.210288017
 20
19.3688769495
 10
-19.2323865855
 20
19.327249374
 10
-19.2507552635
 20
19.2834560838
 10
-19.2652227524
 20
19.2379054768
 10
-19.2756541344
 20
19.191022339
 10
-19.2819521308
 20
19.143243883
 10
-19.2840580092
 20
19.0950156707
  0
LWPOLYLINE
  5
284
100
AcDbEntity
  8
IMPORT_IGES
100
AcDbPolyline
 62
7
  6
CONTINUOUS
 90
10
 70
0
 10
-0.6577209657
 20
-26.7739467146
 10
-0.7503505735
 20
-26.786788497
 10
-0.8441869513
 20
-26.7982432468
 10
-0.939226006
 20
-26.8083093131
 10
-1.0355096542
 20
-26.8169631727
 10
-1.1329875358
 20
-26.8242250005
 10
-1.2315176022
 20
-26.830158884
 10
-1.3310502293
 20
-26.8347853012
 10
-1.4316276257
 20
-26.8380809092
 10
-1.5332459596
 20
-26.8400442639
  0
LWPOLYLINE
  5
285
100
AcDbEntity
  8
IMPORT_IGES
100
AcDbPolyline
 62
7
  6
CONTINUOUS
 90
43
 70
0
 10
-1.5332459596
 20
-26.5810388633
 10
-1.4863723099
 20
-26.5790138101
 10
-1.4407313106
 20
-26.5764931974
 10
-1.3963253747
 20
-26.5734778248
 10
-1.3530987345
 20
-26.5700687673
 10
-1.3111117723
 20
-26.566166473
 10
-1.2705411914
 20
-26.5614708631
 10
-1.2313902963
 20
-26.5558897135
 10
-1.1936603327
 20
-26.5495168374
 10
-1.1575252734
 20
-26.5423313571
 10
-1.1230306281
 20
-26.534284367
 10
-1.090135669
 20
-26.5254263891
 10
-1.0588853261
 20
-26.5158857579
 10
-1.0293751378
 20
-26.5056775027
 10
-1.0015141523
 20
-26.4947880642
 10
-0.9750672561
 20
-26.4833027693
 10
-0.9500622667
 20
-26.4712575743
 10
-0.926474788
 20
-26.4586175844
 10
-0.9039905721
 20
-26.4453616002
 10
-0.8826006428
 20
-26.4315136119
 10
-0.8623162354
 20
-26.4170503206
 10
-0.8428526017
 20
-26.4018793625
 10
-0.8241662999
 20
-26.3860257255
 10
-0.8063021495
 20
-26.3694648451
 10
-0.7891072075
 20
-26.3520298744
 10
-0.7725508068
 20
-26.3337528857
 10
-0.7566645369
 20
-26.3146020894
 10
-0.7413884981
 20
-26.2943147623
 10
-0.7267167121
 20
-26.2728827918
 10
-0.7126558404
 20
-26.2503144887
 10
-0.6991647281
 20
-26.2263717125
 10
-0.686194118
 20
-26.2010277307
 10
-0.6737937725
 20
-26.1743093935
 10
-0.6620710572
 20
-26.1460589194
 10
-0.6509661479
 20
-26.1161935406
 10
-0.6405395658
 20
-26.0847961266
 10
-0.6310795695
 20
-26.0519574087
 10
-0.6228025233
 20
-26.0176372392
 10
-0.6154935384
 20
-25.9818759362
 10
-0.6087939928
 20
-25.9448849264
 10
-0.6025844811
 20
-25.9067346744
 10
-0.5969851333
 20
-25.8673547232
 10
-0.5919963518
 20
-25.826745071
  0
LWPOLYLINE
  5
286
100
AcDbEntity
  8
IMPORT_IGES
100
AcDbPolyline
 62
7
  6
CONTINUOUS
 90
55
 70
0
 10
5.6105866902
 20
-26.1239185882
 10
5.5853594901
 20
-26.1246077507
 10
5.5610554217
 20
-26.1262202611
 10
5.5376760265
 20
-26.1287565112
 10
5.5152790748
 20
-26.1322664343
 10
5.4938097059
 20
-26.1367008336
 10
5.4731001693
 20
-26.1419113168
 10
5.4531426074
 20
-26.1478565791
 10
5.4339468736
 20
-26.1545784243
 10
5.4153713365
 20
-26.1620530074
 10
5.3974099067
 20
-26.1702451606
 10
5.3800701335
 20
-26.1791904099
 10
5.3632305717
 20
-26.1889708787
 10
5.3469449782
 20
-26.1995329425
 10
5.3311607336
 20
-26.2109304955
 10
5.3155965689
 20
-26.2234068653
 10
5.3002073176
 20
-26.2369351698
 10
5.2850388413
 20
-26.2515424304
 10
5.2699462301
 20
-26.2675527681
 10
5.2548394568
 20
-26.285017819
 10
5.2398091316
 20
-26.3038860301
 10
5.2249813596
 20
-26.3243267413
 10
5.210327246
 20
-26.3463810024
 10
5.195876405
 20
-26.37000786
 10
5.1818428683
 20
-26.3952536841
 10
5.1682522112
 20
-26.4221187787
 10
5.1550796138
 20
-26.4506029325
 10
5.1424635972
 20
-26.4807517611
 10
5.1304651674
 20
-26.512591914
 10
5.1190238897
 20
-26.5460967725
 10
5.1080960809
 20
-26.5812320364
 10
5.0976995068
 20
-26.6179842485
 10
5.0878166457
 20
-26.6563668002
 10
5.0783508122
 20
-26.6963856419
 10
5.0692590877
 20
-26.7379917056
 10
5.0605843989
 20
-26.7812339144
 10
5.0523587746
 20
-26.8262651779
 10
5.0445791128
 20
-26.8730993859
 10
5.0372482684
 20
-26.9217224056
 10
5.0304071173
 20
-26.9722450735
 10
5.0240613884
 20
-27.0246628255
 10
5.0182047776
 20
-27.0789798688
 10
5.0128599963
 20
-27.1353201495
 10
5.0080558054
 20
-27.1936850339
 10
5.003762483
 20
-27.2540726627
 10
4.9999149444
 20
-27.3166021009
 10
4.9965148673
 20
-27.3812759199
 10
4.993559351
 20
-27.4480909396
 10
4.9909764452
 20
-27.51715757
 10
4.9887304431
 20
-27.5884729622
 10
4.9868556399
 20
-27.6620392532
 10
4.9853850057
 20
-27.7379742819
 10
4.9843288811
 20
-27.8163170227
 10
4.9836750401
 20
-27.8970276104
 10
4.9834315779
 20
-28.0614051464
  0
LWPOLYLINE
  5
287
100
AcDbEntity
  8
IMPORT_IGES
100
AcDbPolyline
 62
7
  6
CONTINUOUS
 90
55
 70
0
 10
3.365585171
 20
-26.123917498
 10
3.3405509549
 20
-26.1245908352
 10
3.3164058558
 20
-26.1261821651
 10
3.293151293
 20
-26.1286918405
 10
3.2708420838
 20
-26.1321663902
 10
3.2494260926
 20
-26.1365599527
 10
3.2287440005
 20
-26.1417342178
 10
3.2087871234
 20
-26.1476494677
 10
3.189566003
 20
-26.1543458809
 10
3.1709497614
 20
-26.1618048862
 10
3.1529329744
 20
-26.1699919321
 10
3.13552245
 20
-26.178941905
 10
3.1186054259
 20
-26.1887403204
 10
3.1022362752
 20
-26.1993344566
 10
3.0863617275
 20
-26.210777288
 10
3.0707073357
 20
-26.2233127914
 10
3.0552283349
 20
-26.2369154526
 10
3.0399702088
 20
-26.2516108951
 10
3.0247937423
 20
-26.2677197255
 10
3.0096091085
 20
-26.2852952134
 10
2.9945067854
 20
-26.3042841285
 10
2.9796180906
 20
-26.3248473224
 10
2.9649162429
 20
-26.3470243137
 10
2.9504288181
 20
-26.370775647
 10
2.9363688221
 20
-26.396143759
 10
2.9227627851
 20
-26.423128672
 10
2.9095849972
 20
-26.4517304491
 10
2.8969701729
 20
-26.4819916226
 10
2.8849798092
 20
-26.5139387808
 10
2.8735530513
 20
-26.5475453859
 10
2.8626410409
 20
-26.582774275
 10
2.8522596962
 20
-26.6196111087
 10
2.8423934391
 20
-26.6580701936
 10
2.8329461062
 20
-26.6981573095
 10
2.8238752507
 20
-26.7398241955
 10
2.8152234566
 20
-26.7831190047
 10
2.80702207
 20
-26.8281921113
 10
2.7992682643
 20
-26.8750574153
 10
2.7919647893
 20
-26.923700833
 10
2.7851512872
 20
-26.9742307336
 10
2.7788338268
 20
-27.0266425682
 10
2.7730059772
 20
-27.0809406152
 10
2.7676885397
 20
-27.1372464489
 10
2.7629102975
 20
-27.1955618613
 10
2.7586417756
 20
-27.2558846842
 10
2.7548163464
 20
-27.3183305143
 10
2.7514352361
 20
-27.3829020293
 10
2.7484963316
 20
-27.4495960752
 10
2.7459280306
 20
-27.5185194717
 10
2.743695274
 20
-27.5896694176
 10
2.7418321112
 20
-27.6630481465
 10
2.7403705547
 20
-27.7387699875
 10
2.7393207912
 20
-27.8168728092
 10
2.7386712305
 20
-27.8973180392
 10
2.7384299098
 20
-28.0613925569
  0
LWPOLYLINE
  5
288
100
AcDbEntity
  8
IMPORT_IGES
100
AcDbPolyline
 62
7
  6
CONTINUOUS
 90
28
 70
0
 10
3.4156749902
 20
-25.8266469164
 10
3.3297062492
 20
-25.8289193602
 10
3.2459334303
 20
-25.8368261318
 10
3.1653032611
 20
-25.8515924801
 10
3.0888628768
 20
-25.8741873414
 10
3.017062145
 20
-25.9050341879
 10
2.9497916546
 20
-25.9433770615
 10
2.8872885196
 20
-25.9882815152
 10
2.8302991278
 20
-26.038518544
 10
2.7793005007
 20
-26.0928540473
 10
2.7342128784
 20
-26.1497769192
 10
2.6939157349
 20
-26.2088623805
 10
2.6569824674
 20
-26.2707673132
 10
2.6230511157
 20
-26.3348876697
 10
2.5919202054
 20
-26.4007640396
 10
2.5629630443
 20
-26.4696918976
 10
2.5361968623
 20
-26.5419558936
 10
2.511937787
 20
-26.6170280121
 10
2.4901995824
 20
-26.6950898735
 10
2.4710316124
 20
-26.7758881392
 10
2.4543150889
 20
-26.8595988127
 10
2.4398009261
 20
-26.9471491525
 10
2.4274312795
 20
-27.0383670214
 10
2.4170351638
 20
-27.1333031446
 10
2.4082720014
 20
-27.2332204825
 10
2.4008753627
 20
-27.3384672114
 10
2.394672551
 20
-27.4485265552
 10
2.3893883117
 20
-27.5633383837
  0
LINE
  5
289
100
AcDbEntity
  8
IMPORT_IGES
100
AcDbLine
 62
7
  6
CONTINUOUS
 10
-6.1263921395
 20
-28.3325799593
 11
-7.2283650956
 21
-28.3325799593
  0
LINE
  5
28A
100
AcDbEntity
  8
IMPORT_IGES
100
AcDbLine
 62
7
  6
CONTINUOUS
 10
0.1897585977
 20
-27.9744501078
 11
0.4923759261
 21
-27.9744501078
  0
LINE
  5
28B
100
AcDbEntity
  8
IMPORT_IGES
100
AcDbLine
 62
7
  6
CONTINUOUS
 10
0.7240287071
 20
-26.2395731362
 11
1.9574989565
 21
-26.2395731362
  0
LINE
  5
28C
100
AcDbEntity
  8
IMPORT_IGES
100
AcDbLine
 62
7
  6
CONTINUOUS
 10
1.9574989565
 20
-25.9037540147
 11
0.4266349215
 21
-25.9037540147
  0
LINE
  5
28D
100
AcDbEntity
  8
IMPORT_IGES
100
AcDbLine
 62
7
  6
CONTINUOUS
 10
-0.5919963564
 20
-25.8266460934
 11
-0.2997878561
 21
-25.8266460934
  0
LINE
  5
28E
100
AcDbEntity
  8
IMPORT_IGES
100
AcDbLine
 62
7
  6
CONTINUOUS
 10
-11.3289500222
 20
-25.7934621388
 11
-10.7289164165
 21
-25.7934621388
  0
LINE
  5
28F
100
AcDbEntity
  8
IMPORT_IGES
100
AcDbLine
 62
7
  6
CONTINUOUS
 10
11.3289500584
 20
-25.7934621388
 11
10.9824970796
 21
-25.7934621388
  0
LINE
  5
290
100
AcDbEntity
  8
IMPORT_IGES
100
AcDbLine
 62
7
  6
CONTINUOUS
 10
9.6332071026
 20
-25.7934621388
 11
9.2199681293
 21
-25.7934621388
  0
LINE
  5
291
100
AcDbEntity
  8
IMPORT_IGES
100
AcDbLine
 62
7
  6
CONTINUOUS
 10
-8.7347230513
 20
-25.7934621388
 11
-8.1513873301
 21
-25.7934621388
  0
LINE
  5
292
100
AcDbEntity
  8
IMPORT_IGES
100
AcDbLine
 62
7
  6
CONTINUOUS
 10
7.9040699572
 20
-25.7934621388
 11
7.539876271
 21
-25.7934621388
  0
LINE
  5
293
100
AcDbEntity
  8
IMPORT_IGES
100
AcDbLine
 62
7
  6
CONTINUOUS
 10
-5.1917307846
 20
-25.7934621388
 11
-4.7899706925
 21
-25.7934621388
  0
LINE
  5
294
100
AcDbEntity
  8
IMPORT_IGES
100
AcDbLine
 62
7
  6
CONTINUOUS
 10
-2.7300340588
 20
-25.7934621388
 11
-3.1265757944
 21
-25.7934621388
  0
LINE
  5
295
100
AcDbEntity
  8
IMPORT_IGES
100
AcDbLine
 62
7
  6
CONTINUOUS
 10
-6.4686717519
 20
-25.7934621388
 11
-6.8819107084
 21
-25.7934621388
  0
LWPOLYLINE
  5
296
100
AcDbEntity
  8
IMPORT_IGES
100
AcDbPolyline
 62
7
  6
CONTINUOUS
 90
52
 70
0
 10
3.3655853371
 20
-26.1239185878
 10
3.3931575163
 20
-26.1242179981
 10
3.4198092859
 20
-26.1253020414
 10
3.4455148095
 20
-26.1273198711
 10
3.4701529898
 20
-26.1303669051
 10
3.4938126677
 20
-26.1345223638
 10
3.516774106
 20
-26.1398677298
 10
3.5388987425
 20
-26.1462761514
 10
3.5602128644
 20
-26.1536382772
 10
3.5811874122
 20
-26.1620582606
 10
3.6017762837
 20
-26.1715105863
 10
3.6218760582
 20
-26.1819444153
 10
3.6418438992
 20
-26.1935619963
 10
3.6616910859
 20
-26.2064034393
 10
3.6813382112
 20
-26.2204451287
 10
3.7009880041
 20
-26.2358753673
 10
3.7206008374
 20
-26.252727995
 10
3.7401059379
 20
-26.2710001677
 10
3.7596156319
 20
-26.2908657297
 10
3.7791365185
 20
-26.3124217418
 10
3.7985061855
 20
-26.3355667976
 10
3.8175733444
 20
-26.3601665399
 10
3.8362519349
 20
-26.3862035588
 10
3.8544458278
 20
-26.4136920969
 10
3.8719946947
 20
-26.4425400692
 10
3.8887846634
 20
-26.4727078294
 10
3.9047307955
 20
-26.504205252
 10
3.9197214047
 20
-26.5369957579
 10
3.9336116938
 20
-26.5709549701
 10
3.9463662109
 20
-26.606130055
 10
3.9580929814
 20
-26.6427490374
 10
3.9688056995
 20
-26.6806973629
 10
3.9785891565
 20
-26.7200124396
 10
3.987632425
 20
-26.7611572802
 10
3.9960312516
 20
-26.8041814173
 10
4.0038608306
 20
-26.8489034508
 10
4.0111618612
 20
-26.8954901607
 10
4.017909732
 20
-26.9440151592
 10
4.0240699561
 20
-26.9944106687
 10
4.0296297353
 20
-27.0466551342
 10
4.0345907896
 20
-27.1007201664
 10
4.0389751972
 20
-27.1566305699
 10
4.0428220538
 20
-27.2144421213
 10
4.0461822213
 20
-27.2741319997
 10
4.0491281008
 20
-27.3357079943
 10
4.0517125142
 20
-27.3992723695
 10
4.0539236407
 20
-27.4648166474
 10
4.0557474112
 20
-27.5323415996
 10
4.0571752331
 20
-27.6019666733
 10
4.058198404
 20
-27.6737267454
 10
4.0588112668
 20
-27.7475718181
 10
4.0590140414
 20
-27.8234918184
  0
LWPOLYLINE
  5
297
100
AcDbEntity
  8
IMPORT_IGES
100
AcDbPolyline
 62
7
  6
CONTINUOUS
 90
52
 70
0
 10
5.6105866901
 20
-26.1239185878
 10
5.6381834566
 20
-26.1242186009
 10
5.664855814
 20
-26.1253046836
 10
5.690577902
 20
-26.1273260569
 10
5.7152279767
 20
-26.130377867
 10
5.7388955916
 20
-26.1345390183
 10
5.7618629046
 20
-26.1398906279
 10
5.7839911806
 20
-26.1463051213
 10
5.8053068436
 20
-26.1536728773
 10
5.8262829862
 20
-26.1620988042
 10
5.8468738472
 20
-26.1715576417
 10
5.8669755303
 20
-26.1819984211
 10
5.8869461564
 20
-26.1936239912
 10
5.9067966702
 20
-26.2064744105
 10
5.9264478519
 20
-26.2205263271
 10
5.9461037666
 20
-26.2359694282
 10
5.9657254989
 20
-26.2528387209
 10
5.9852409194
 20
-26.2711307643
 10
6.004760578
 20
-26.2910180824
 10
6.0242915655
 20
-26.3125984128
 10
6.0436706506
 20
-26.3357694623
 10
6.0627433508
 20
-26.360392705
 10
6.0814229817
 20
-26.3864497937
 10
6.0996144352
 20
-26.4139556477
 10
6.1171570169
 20
-26.4428166518
 10
6.1339372457
 20
-26.4729926171
 10
6.149870788
 20
-26.5044932616
 10
6.1648461961
 20
-26.5372809891
 10
6.1787186599
 20
-26.5712292268
 10
6.1914550423
 20
-26.6063869245
 10
6.2031658672
 20
-26.6429871845
 10
6.2138649148
 20
-26.6809159781
 10
6.2236367043
 20
-26.7202103003
 10
6.2326709117
 20
-26.761337032
 10
6.2410632799
 20
-26.804347824
 10
6.2488880262
 20
-26.8490594971
 10
6.2561848676
 20
-26.8956368914
 10
6.2629290808
 20
-26.9441532856
 10
6.2690861855
 20
-26.9945412516
 10
6.2746432134
 20
-27.0467780568
 10
6.2796018488
 20
-27.1008349049
 10
6.2839842068
 20
-27.1567370077
 10
6.2878293702
 20
-27.2145401806
 10
6.2911881908
 20
-27.2742218042
 10
6.2941330215
 20
-27.3357894726
 10
6.2967165309
 20
-27.3993449015
 10
6.2989268715
 20
-27.4648796051
 10
6.3007499835
 20
-27.5323943675
 10
6.3021772721
 20
-27.6020081097
 10
6.3032000476
 20
-27.6737555349
 10
6.3038126685
 20
-27.7475868251
 10
6.3040153615
 20
-27.8234919126
  0
LWPOLYLINE
  5
298
100
AcDbEntity
  8
IMPORT_IGES
100
AcDbPolyline
 62
7
  6
CONTINUOUS
 90
49
 70
0
 10
3.4156748134
 20
-25.8266457831
 10
3.4550753254
 20
-25.8274633274
 10
3.4933629452
 20
-25.8295890155
 10
3.5305390609
 20
-25.833023308
 10
3.5665580398
 20
-25.8377920945
 10
3.6014682868
 20
-25.8438703758
 10
3.6354119946
 20
-25.8511821944
 10
3.6684085804
 20
-25.8597224967
 10
3.7004407871
 20
-25.8694970033
 10
3.731595429
 20
-25.8804458033
 10
3.7618533138
 20
-25.8925713153
 10
3.7912355244
 20
-25.9058716728
 10
3.8198889295
 20
-25.9202804323
 10
3.8478186292
 20
-25.9357526449
 10
3.8750209168
 20
-25.9523336479
 10
3.9016289715
 20
-25.9700922963
 10
3.9276728392
 20
-25.9889920336
 10
3.953123321
 20
-26.0090696412
 10
3.9780243296
 20
-26.0305038748
 10
4.0023149846
 20
-26.0532055768
 10
4.0260568399
 20
-26.077264062
 10
4.0494767658
 20
-26.1031256125
 10
4.0726241992
 20
-26.1307664331
 10
4.0954491594
 20
-26.1602101367
 10
4.1180285048
 20
-26.1919738777
 10
4.1404648868
 20
-26.2261327593
 10
4.1626543487
 20
-26.2626112501
 10
4.1843637748
 20
-26.3017005105
 10
4.2056281067
 20
-26.343440511
 10
4.2264117622
 20
-26.3877909447
 10
4.2463766608
 20
-26.4349227261
 10
4.2654926341
 20
-26.4848280297
 10
4.2837904261
 20
-26.5375145568
 10
4.3010242352
 20
-26.5931766964
 10
4.3171753036
 20
-26.6518436835
 10
4.33226375
 20
-26.7134862409
 10
4.3461027604
 20
-26.778211108
 10
4.3585921354
 20
-26.8460013499
 10
4.3698342037
 20
-26.9168739293
 10
4.3799460008
 20
-26.9909864019
 10
4.3889469642
 20
-27.0682989529
 10
4.3968192511
 20
-27.148851172
 10
4.4036235677
 20
-27.2329195608
 10
4.409516778
 20
-27.3205149605
 10
4.4143432209
 20
-27.4116260442
 10
4.4176952932
 20
-27.5064960796
 10
4.419438344
 20
-27.6052060916
 10
4.4197099829
 20
-27.7076747415
 10
4.4185116741
 20
-27.8139018281
  0
LWPOLYLINE
  5
299
100
AcDbEntity
  8
IMPORT_IGES
100
AcDbPolyline
 62
7
  6
CONTINUOUS
 90
49
 70
0
 10
5.6606763459
 20
-25.8266469168
 10
5.7000546453
 20
-25.8274626203
 10
5.7383223514
 20
-25.82958571
 10
5.7754809952
 20
-25.8330165724
 10
5.8114854525
 20
-25.837780857
 10
5.8463838803
 20
-25.8438536664
 10
5.8803174535
 20
-25.8511594911
 10
5.9133055419
 20
-25.8596931959
 10
5.945331118
 20
-25.8694604738
 10
5.9764803646
 20
-25.8804019536
 10
6.0067340854
 20
-25.8925200703
 10
6.0361135005
 20
-25.9058128529
 10
6.0647650335
 20
-25.9202142237
 10
6.0926940182
 20
-25.9356795128
 10
6.1198965951
 20
-25.952253707
 10
6.1465048921
 20
-25.970005083
 10
6.1725484835
 20
-25.988896759
 10
6.19799868
 20
-26.0089657706
 10
6.2228997924
 20
-26.0303911532
 10
6.2471911821
 20
-26.0530838863
 10
6.270934164
 20
-26.0771330715
 10
6.2943552434
 20
-26.1029847148
 10
6.3175036971
 20
-26.1306150932
 10
6.3403296205
 20
-26.1600476268
 10
6.3629098021
 20
-26.1917987517
 10
6.3853464741
 20
-26.2259430783
 10
6.4075359262
 20
-26.2624053993
 10
6.4292459341
 20
-26.3014773565
 10
6.4505111437
 20
-26.3431977846
 10
6.4712960437
 20
-26.3875273477
 10
6.4912639827
 20
-26.4346406126
 10
6.5103852627
 20
-26.4845305507
 10
6.5286898799
 20
-26.5372039429
 10
6.5459316209
 20
-26.5928562803
 10
6.5620915856
 20
-26.6515167821
 10
6.5771896796
 20
-26.7131561112
 10
6.5910385489
 20
-26.7778820734
 10
6.6035377424
 20
-26.8456781822
 10
6.6147894053
 20
-26.9165609479
 10
6.6249100963
 20
-26.9906876479
 10
6.6339184135
 20
-27.0680187028
 10
6.6417967916
 20
-27.1485934686
 10
6.64860706
 20
-27.2326874442
 10
6.6545060625
 20
-27.320310556
 10
6.6593374275
 20
-27.4114523889
 10
6.6626935645
 20
-27.506357984
 10
6.6644395267
 20
-27.6051090268
 10
6.6647123388
 20
-27.7076236785
 10
6.6635129948
 20
-27.8139018305
  0
LWPOLYLINE
  5
29A
100
AcDbEntity
  8
IMPORT_IGES
100
AcDbPolyline
 62
7
  6
CONTINUOUS
 90
36
 70
0
 10
1.2997792925
 20
-27.6108048798
 10
1.273542725
 20
-27.6022591959
 10
1.2467934985
 20
-27.5948104772
 10
1.2195081153
 20
-27.588477604
 10
1.1917096662
 20
-27.5832413654
 10
1.1637170965
 20
-27.5791848903
 10
1.1355278316
 20
-27.5763340254
 10
1.1071450371
 20
-27.5746628552
 10
1.0788971841
 20
-27.5741771442
 10
1.0508009626
 20
-27.5748999726
 10
1.0228411602
 20
-27.5768084618
 10
0.9952991424
 20
-27.5798396919
 10
0.9682648074
 20
-27.5839865154
 10
0.9416503292
 20
-27.5892565052
 10
0.9154707704
 20
-27.5956089352
 10
0.8897327026
 20
-27.603037033
 10
0.8644314089
 20
-27.6115479459
 10
0.83956497
 20
-27.6211218215
 10
0.8150747804
 20
-27.631781383
 10
0.7910211012
 20
-27.643504229
 10
0.7675803906
 20
-27.6562028732
 10
0.7447877365
 20
-27.6698600162
 10
0.7226098209
 20
-27.684493384
 10
0.7011206057
 20
-27.7000681022
 10
0.6803403895
 20
-27.7165654384
 10
0.6602504799
 20
-27.7340045426
 10
0.6408663478
 20
-27.7524073777
 10
0.6222463738
 20
-27.7716607522
 10
0.6043335442
 20
-27.7918782327
 10
0.5869702132
 20
-27.8134218632
 10
0.57016606
 20
-27.8362942774
 10
0.5539125801
 20
-27.8604930613
 10
0.5380248491
 20
-27.8863725784
 10
0.5224415849
 20
-27.9140509518
 10
0.5072251166
 20
-27.9434101198
 10
0.4923759261
 20
-27.9744501081
  0
LWPOLYLINE
  5
29B
100
AcDbEntity
  8
IMPORT_IGES
100
AcDbPolyline
 62
7
  6
CONTINUOUS
 90
83
 70
0
 10
0.839296627
 20
-29.6759134278
 10
0.8629920044
 20
-29.6841536691
 10
0.8872105028
 20
-29.6913522461
 10
0.9119518988
 20
-29.6975089787
 10
0.9372986191
 20
-29.7026524923
 10
0.963167728
 20
-29.7067537641
 10
0.9893113132
 20
-29.7097262471
 10
1.0157386487
 20
-29.7115518682
 10
1.0424407512
 20
-29.7122485341
 10
1.0691430318
 20
-29.7117839033
 10
1.095812139
 20
-29.7101454925
 10
1.1224824683
 20
-29.707345874
 10
1.148981603
 20
-29.703390489
 10
1.1753109472
 20
-29.6982671337
 10
1.2014704836
 20
-29.691988234
 10
1.2272860231
 20
-29.6845963225
 10
1.2527885409
 20
-29.6760672469
 10
1.2779486938
 20
-29.6664255013
 10
1.3025021762
 20
-29.655786761
 10
1.3263582518
 20
-29.6441960677
 10
1.3496096067
 20
-29.6316089207
 10
1.3722672269
 20
-29.6180067684
 10
1.3942430045
 20
-29.6034820931
 10
1.4156267419
 20
-29.5879428843
 10
1.4366961342
 20
-29.5710937441
 10
1.4574983152
 20
-29.5529543933
 10
1.4779874224
 20
-29.5335053286
 10
1.4983015562
 20
-29.512392176
 10
1.5185514545
 20
-29.4895390267
 10
1.5386276112
 20
-29.4650218798
 10
1.5583379111
 20
-29.4387142284
 10
1.5777449825
 20
-29.4105139147
 10
1.5967876027
 20
-29.380523265
 10
1.6150880651
 20
-29.348922644
 10
1.6326317335
 20
-29.3156963058
 10
1.6494345384
 20
-29.2808603032
 10
1.6651646244
 20
-29.2446428526
 10
1.6797459392
 20
-29.2072373464
 10
1.6932552986
 20
-29.1684507275
 10
1.7055900677
 20
-29.1279315766
 10
1.7167166596
 20
-29.0857146804
 10
1.7266688483
 20
-29.041765392
 10
1.7354449584
 20
-28.9956280691
 10
1.7430070172
 20
-28.9472290012
 10
1.7493924212
 20
-28.8966417615
 10
1.7547124459
 20
-28.8436315339
 10
1.7590489428
 20
-28.7874939117
 10
1.7623187811
 20
-28.7289328665
 10
1.7643855188
 20
-28.6698262287
 10
1.7651698592
 20
-28.6099206766
 10
1.7647488022
 20
-28.5494692292
 10
1.7632203902
 20
-28.4911095985
 10
1.7605871698
 20
-28.4356686094
 10
1.7568447457
 20
-28.3823195866
 10
1.752081156
 20
-28.3312202472
 10
1.7463042996
 20
-28.2824835659
 10
1.7395047424
 20
-28.2359966253
 10
1.7317447067
 20
-28.1915783051
 10
1.7230161067
 20
-28.1491688796
 10
1.7133256595
 20
-28.1088280234
 10
1.7027579515
 20
-28.0705537106
 10
1.691311945
 20
-28.0344666675
 10
1.6789876317
 20
-28.0004460843
 10
1.6658712765
 20
-27.968127626
 10
1.6519517569
 20
-27.9374815593
 10
1.6372392349
 20
-27.9085374494
 10
1.6218519967
 20
-27.8810199049
 10
1.6057469389
 20
-27.854829277
 10
1.5889663487
 20
-27.8300650148
 10
1.5717569739
 20
-27.8067504514
 10
1.5541855159
 20
-27.7849511549
 10
1.5361852212
 20
-27.7646015006
 10
1.5178029696
 20
-27.7455281046
 10
1.4991543176
 20
-27.7277886522
 10
1.480123745
 20
-27.7113253969
 10
1.4604110718
 20
-27.6957916926
 10
1.4399868979
 20
-27.6811124803
 10
1.418879623
 20
-27.6673624663
 10
1.3968750086
 20
-27.6544194509
 10
1.3738542675
 20
-27.6421920465
 10
1.3499344542
 20
-27.6307710506
 10
1.325255012
 20
-27.6203075049
 10
1.2997792925
 20
-27.6108048798
  0
LWPOLYLINE
  5
29C
100
AcDbEntity
  8
IMPORT_IGES
100
AcDbPolyline
 62
7
  6
CONTINUOUS
 90
19
 70
0
 10
0.8392966118
 20
-29.6759134209
 10
0.8037625896
 20
-29.6610342321
 10
0.7679107601
 20
-29.6424571572
 10
0.7320612323
 20
-29.6200147506
 10
0.6958816471
 20
-29.593024849
 10
0.6605732149
 20
-29.561879041
 10
0.6284061126
 20
-29.5286054643
 10
0.6005184071
 20
-29.4951122267
 10
0.5755644483
 20
-29.4605269652
 10
0.5520050401
 20
-29.4227970156
 10
0.5297301996
 20
-29.3811987545
 10
0.5094666947
 20
-29.3365127506
 10
0.491400816
 20
-29.2886835704
 10
0.4758157452
 20
-29.2378973248
 10
0.4629265941
 20
-29.1844098739
 10
0.4525382484
 20
-29.1281660294
 10
0.4442736496
 20
-29.0691861678
 10
0.4376132693
 20
-29.0076284339
 10
0.4318512925
 20
-28.9436323757
  0
LINE
  5
29D
100
AcDbEntity
  8
IMPORT_IGES
100
AcDbLine
 62
7
  6
CONTINUOUS
 10
-23.2307664341
 20
31.4879526786
 11
-23.2397562893
 21
31.7641405746
  0
LINE
  5
29E
100
AcDbEntity
  8
IMPORT_IGES
100
AcDbLine
 62
7
  6
CONTINUOUS
 10
-23.2226405812
 20
31.175191869
 11
-23.2307664341
 21
31.4879526786
  0
LINE
  5
29F
100
AcDbEntity
  8
IMPORT_IGES
100
AcDbLine
 62
7
  6
CONTINUOUS
 10
-23.2154860646
 20
30.830383962
 11
-23.2226405812
 21
31.175191869
  0
LINE
  5
2A0
100
AcDbEntity
  8
IMPORT_IGES
100
AcDbLine
 62
7
  6
CONTINUOUS
 10
-23.2093687868
 20
30.4566854572
 11
-23.2154860646
 21
30.830383962
  0
LINE
  5
2A1
100
AcDbEntity
  8
IMPORT_IGES
100
AcDbLine
 62
7
  6
CONTINUOUS
 10
-23.2043802307
 20
30.0590900043
 11
-23.2093687868
 21
30.4566854572
  0
LINE
  5
2A2
100
AcDbEntity
  8
IMPORT_IGES
100
AcDbLine
 62
7
  6
CONTINUOUS
 10
-23.2005848297
 20
29.6431951286
 11
-23.2043802307
 21
30.0590900043
  0
LINE
  5
2A3
100
AcDbEntity
  8
IMPORT_IGES
100
AcDbLine
 62
7
  6
CONTINUOUS
 10
-23.1980190827
 20
29.2128617615
 11
-23.2005848297
 21
29.6431951286
  0
LWPOLYLINE
  5
2A4
100
AcDbEntity
  8
IMPORT_IGES
100
AcDbPolyline
 62
253
  6
CONTINUOUS
 90
16
 70
0
 10
-23.0168967277
 20
1.7325902855
 10
-23.0033030037
 20
-0.9502547748
 10
-22.9575604699
 20
-3.6302365593
 10
-22.8797672479
 20
-6.3069755802
 10
-22.7700306743
 20
-8.9799308084
 10
-22.6284565198
 20
-11.6488913792
 10
-22.4551291254
 20
-14.3139759548
 10
-22.2500877661
 20
-16.9754846181
 10
-22.0134757911
 20
-19.6323758946
 10
-21.7455772175
 20
-22.2827639263
 10
-21.4465524246
 20
-24.9263059222
 10
-21.1165738301
 20
-27.5626313675
 10
-20.7560606725
 20
-30.1898311329
 10
-20.3653333786
 20
-32.8070482025
 10
-19.9445508606
 20
-35.4144690683
 10
-19.4939512441
 20
-38.0117649006
  0
LINE
  5
2A5
100
AcDbEntity
  8
IMPORT_IGES
100
AcDbLine
 62
7
  6
CONTINUOUS
 10
-23.1967326501
 20
28.7755295545
 11
-23.1980190827
 21
29.2128617615
  0
LWPOLYLINE
  5
2A6
100
AcDbEntity
  8
IMPORT_IGES
100
AcDbPolyline
 62
253
  6
CONTINUOUS
 90
10
 70
0
 10
-23.025061282
 20
38.9075220816
 10
-23.0198670559
 20
34.779573181
 10
-23.0157445258
 20
30.6506684081
 10
-23.0126936919
 20
26.5208077629
 10
-23.0107144644
 20
22.389583064
 10
-23.0098069331
 20
18.2574024928
 10
-23.0099713669
 20
14.1254905933
 10
-23.0112078556
 20
9.9942555468
 10
-23.0135163094
 20
5.863289172
 10
-23.0168967284
 20
1.7325914689
  0
LINE
  5
2A7
100
AcDbEntity
  8
IMPORT_IGES
100
AcDbLine
 62
7
  6
CONTINUOUS
 10
-23.3
 20
5.9532194774
 11
-23.3
 21
32.1533270533
  0
LINE
  5
2A8
100
AcDbEntity
  8
IMPORT_IGES
100
AcDbLine
 62
7
  6
CONTINUOUS
 10
-23.2934535192
 20
39.1391794756
 11
-23.2934535192
 21
32.4953539091
  0
LINE
  5
2A9
100
AcDbEntity
  8
IMPORT_IGES
100
AcDbLine
 62
7
  6
CONTINUOUS
 10
-23.2934535196
 20
5.6111925713
 11
-23.2934535196
 21
1.732590286
  0
LINE
  5
2AA
100
AcDbEntity
  8
IMPORT_IGES
100
AcDbLine
 62
7
  6
CONTINUOUS
 10
-23.196732662
 20
9.3310112002
 11
-23.1967326501
 21
28.7755295545
  0
LINE
  5
2AB
100
AcDbEntity
  8
IMPORT_IGES
100
AcDbLine
 62
7
  6
CONTINUOUS
 10
-23.1980191516
 20
8.8936691958
 11
-23.196732662
 21
9.3310112002
  0
LINE
  5
2AC
100
AcDbEntity
  8
IMPORT_IGES
100
AcDbLine
 62
7
  6
CONTINUOUS
 10
-23.2005850044
 20
8.4633282331
 11
-23.1980191516
 21
8.8936691958
  0
LINE
  5
2AD
100
AcDbEntity
  8
IMPORT_IGES
100
AcDbLine
 62
7
  6
CONTINUOUS
 10
-23.2043805357
 20
8.0474281708
 11
-23.2005850044
 21
8.4633282331
  0
LINE
  5
2AE
100
AcDbEntity
  8
IMPORT_IGES
100
AcDbLine
 62
7
  6
CONTINUOUS
 10
-23.2093692341
 20
7.6498299616
 11
-23.2043805357
 21
8.0474281708
  0
LINE
  5
2AF
100
AcDbEntity
  8
IMPORT_IGES
100
AcDbLine
 62
7
  6
CONTINUOUS
 10
-23.2154866465
 20
7.2761310691
 11
-23.2093692341
 21
7.6498299616
  0
LINE
  5
2B0
100
AcDbEntity
  8
IMPORT_IGES
100
AcDbLine
 62
7
  6
CONTINUOUS
 10
-23.2226412728
 20
6.9313248147
 11
-23.2154866465
 21
7.2761310691
  0
LINE
  5
2B1
100
AcDbEntity
  8
IMPORT_IGES
100
AcDbLine
 62
7
  6
CONTINUOUS
 10
-23.2307672004
 20
6.6185674346
 11
-23.2226412728
 21
6.9313248147
  0
LWPOLYLINE
  5
2B2
100
AcDbEntity
  8
IMPORT_IGES
100
AcDbPolyline
 62
253
  6
CONTINUOUS
 90
22
 70
0
 10
-23.0245024416
 20
38.907520388
 10
-23.020994051
 20
39.0092934957
 10
-23.010673148
 20
39.109973038
 10
-22.9937135512
 20
39.2091134013
 10
-22.9703808008
 20
39.3060568589
 10
-22.9408673571
 20
39.4006437975
 10
-22.9051377437
 20
39.4931663669
 10
-22.8632628747
 20
39.5833475001
 10
-22.815459213
 20
39.6706409881
 10
-22.7617656785
 20
39.7548797779
 10
-22.7023822143
 20
39.8356204498
 10
-22.637494871
 20
39.9124919334
 10
-22.5670586634
 20
39.9853717626
 10
-22.4910675886
 20
40.0540036512
 10
-22.4099623184
 20
40.1177417323
 10
-22.3244212645
 20
40.1759149362
 10
-22.2348914328
 20
40.2281558774
 10
-22.141701271
 20
40.2742120556
 10
-22.0454669604
 20
40.3137345724
 10
-21.9467114035
 20
40.3464968562
 10
-21.8458407845
 20
40.3723526241
 10
-21.7433369122
 20
40.3911596036
  0
LWPOLYLINE
  5
2B3
100
AcDbEntity
  8
IMPORT_IGES
100
AcDbPolyline
 62
7
  6
CONTINUOUS
 90
22
 70
0
 10
-23.2934535192
 20
39.1391794756
 10
-23.289935813
 20
39.2389206446
 10
-23.2797544491
 20
39.3379288687
 10
-23.2629094274
 20
39.4362041477
 10
-23.2393202988
 20
39.5342707068
 10
-23.2090675125
 20
39.631604321
 10
-23.1723924157
 20
39.7266323146
 10
-23.1292176604
 20
39.8193834574
 10
-23.0796205946
 20
39.9098289796
 10
-23.0240746098
 20
39.9963098965
 10
-22.9623518425
 20
40.0787198016
 10
-22.8946801561
 20
40.1571651015
 10
-22.8222165323
 20
40.2303060309
 10
-22.7448225676
 20
40.297932739
 10
-22.6626366654
 20
40.3602550766
 10
-22.5772310183
 20
40.41656283
 10
-22.4886228286
 20
40.4667752092
 10
-22.3967948939
 20
40.5109730042
 10
-22.3032677996
 20
40.5486883725
 10
-22.2085484075
 20
40.5797653665
 10
-22.1121298557
 20
40.6043599336
 10
-22.0140121443
 20
40.6224720741
  0
LWPOLYLINE
  5
2B4
100
AcDbEntity
  8
IMPORT_IGES
100
AcDbPolyline
 62
7
  6
CONTINUOUS
 90
5
 70
0
 10
-23.2546058506
 20
6.0039684928
 10
-23.2494826953
 20
6.1064063631
 10
-23.244532567
 20
6.2191815731
 10
-23.239757081
 20
6.3423842681
 10
-23.2307672004
 20
6.6185674346
  0
LINE
  5
2B5
100
AcDbEntity
  8
IMPORT_IGES
100
AcDbLine
 62
7
  6
CONTINUOUS
 10
-23.2598551763
 20
5.912831768
 11
-23.2546058506
 21
6.0039684928
  0
LWPOLYLINE
  5
2B6
100
AcDbEntity
  8
IMPORT_IGES
100
AcDbPolyline
 62
253
  6
CONTINUOUS
 90
10
 70
0
 10
-21.6370738848
 20
22.1478293855
 10
-21.7060443258
 20
21.4689882768
 10
-21.7578554742
 20
20.79016482
 10
-21.792604326
 20
20.1113517705
 10
-21.8104561728
 20
19.4323162138
 10
-21.8114980821
 20
18.7532372614
 10
-21.7956989351
 20
18.0747112442
 10
-21.7629964555
 20
17.3969114541
 10
-21.7133339045
 20
16.7195924101
 10
-21.6466686847
 20
16.0427272099
  0
LWPOLYLINE
  5
2B7
100
AcDbEntity
  8
IMPORT_IGES
100
AcDbPolyline
 62
253
  6
CONTINUOUS
 90
37
 70
0
 10
-21.2992812857
 20
22.0786500701
 10
-21.1874106304
 20
22.7794520444
 10
-21.0523154761
 20
23.4765560364
 10
-20.8941054482
 20
24.1691862359
 10
-20.7131599712
 20
24.8556773622
 10
-20.509455844
 20
25.5361694648
 10
-20.2822738007
 20
26.2125230727
 10
-20.0309146909
 20
26.885544859
 10
-19.7559048151
 20
27.5526681923
 10
-19.4583836524
 20
28.2107007336
 10
-19.1388982117
 20
28.8583569381
 10
-18.7975277419
 20
29.4954079051
 10
-18.4350606397
 20
30.1204019318
 10
-18.0524253829
 20
30.7318794712
 10
-17.6496287222
 20
31.3299608026
 10
-17.2260230093
 20
31.9155241914
 10
-16.7814450379
 20
32.4884417155
 10
-16.3167293548
 20
33.0472949892
 10
-15.8326469825
 20
33.590967857
 10
-15.3290224993
 20
34.1194163836
 10
-14.8069468734
 20
34.6312567514
 10
-14.2694010709
 20
35.1236580554
 10
-13.7184063741
 20
35.595177979
 10
-13.1535391479
 20
36.046568592
 10
-12.5742527351
 20
36.4784471951
 10
-11.9812262046
 20
36.8903716194
 10
-11.375154211
 20
37.2819186575
 10
-10.7553412482
 20
37.6535049073
 10
-10.1210349256
 20
38.0053585718
 10
-9.4742345469
 20
38.336146932
 10
-8.8184569478
 20
38.6441181845
 10
-8.1557572323
 20
38.9286037336
 10
-7.4857617276
 20
39.1900519729
 10
-6.8084540098
 20
39.4286293207
 10
-6.1243414401
 20
39.6442562518
 10
-5.4344892109
 20
39.8366986368
 10
-4.739688223
 20
40.00584948
  0
LWPOLYLINE
  5
2B8
100
AcDbEntity
  8
IMPORT_IGES
100
AcDbPolyline
 62
7
  6
CONTINUOUS
 90
7
 70
0
 10
-23.2934535196
 20
5.6112317905
 10
-23.2876643357
 20
5.6315876166
 10
-23.2819509357
 20
5.6639077773
 10
-23.2763133198
 20
5.7081922729
 10
-23.2707346925
 20
5.7646621662
 10
-23.2652318492
 20
5.8330963944
 10
-23.2598551763
 20
5.912831768
  0
LINE
  5
2B9
100
AcDbEntity
  8
IMPORT_IGES
100
AcDbLine
 62
7
  6
CONTINUOUS
 10
-17.9282644726
 20
17.9532732402
 11
-18.5932972651
 21
17.0532732402
  0
LINE
  5
2BA
100
AcDbEntity
  8
IMPORT_IGES
100
AcDbLine
 62
7
  6
CONTINUOUS
 10
-17.707625632
 20
17.0532732402
 11
-17.0425928395
 21
17.9532732402
  0
LINE
  5
2BB
100
AcDbEntity
  8
IMPORT_IGES
100
AcDbLine
 62
7
  6
CONTINUOUS
 10
2.6471362659
 20
35.7004095061
 11
2.6
 21
35.6532732402
  0
LWPOLYLINE
  5
2BC
100
AcDbEntity
  8
IMPORT_IGES
100
AcDbPolyline
 62
253
  6
CONTINUOUS
 90
16
 70
0
 10
-17.9351910021
 20
-38.0325481533
 10
-18.3739734634
 20
-35.6208402409
 10
-18.7911777334
 20
-33.1743456854
 10
-19.1851236165
 20
-30.6929497762
 10
-19.5537464888
 20
-28.1760524994
 10
-19.895824543
 20
-25.6240489474
 10
-20.2110760753
 20
-23.0383777155
 10
-20.4982892913
 20
-20.4186268692
 10
-20.7558325637
 20
-17.7651720119
 10
-20.9830254712
 20
-15.0807397157
 10
-21.1789104024
 20
-12.3662403518
 10
-21.3420851138
 20
-9.6209200924
 10
-21.4714063153
 20
-6.8450686064
 10
-21.5660055002
 20
-4.0388479303
 10
-21.6249169263
 20
-1.2023281434
 10
-21.6468763732
 20
1.6642779536
  0
LWPOLYLINE
  5
2BD
100
AcDbEntity
  8
IMPORT_IGES
100
AcDbPolyline
 62
7
  6
CONTINUOUS
 90
7
 70
0
 10
-23.2598545113
 20
32.1937040161
 10
-23.2652312562
 20
32.2734419737
 10
-23.2707341878
 20
32.3418786502
 10
-23.2763129186
 20
32.398350604
 10
-23.2819506529
 20
32.4426366879
 10
-23.2876641864
 20
32.474958049
 10
-23.2934535192
 20
32.4953146874
  0
LINE
  5
2BE
100
AcDbEntity
  8
IMPORT_IGES
100
AcDbLine
 62
7
  6
CONTINUOUS
 10
-23.2546051303
 20
32.1025645756
 11
-23.2598545113
 21
32.1937040161
  0
LWPOLYLINE
  5
2BF
100
AcDbEntity
  8
IMPORT_IGES
100
AcDbPolyline
 62
7
  6
CONTINUOUS
 90
4
 70
0
 10
-23.2397562893
 20
31.7641405746
 10
-23.2445317837
 20
31.8873458988
 10
-23.249481936
 20
32.000123854
 10
-23.2546051303
 20
32.1025645756
  0
LINE
  5
2C0
100
AcDbEntity
  8
IMPORT_IGES
100
AcDbLine
 62
253
  6
CONTINUOUS
 10
-21.5140654627
 20
19.0592839792
 11
-21.5140619405
 21
19.0550778763
  0
LINE
  5
2C1
100
AcDbEntity
  8
IMPORT_IGES
100
AcDbLine
 62
253
  6
CONTINUOUS
 10
-21.6468763732
 20
1.6642779536
 11
-21.6491348435
 21
4.693738165
  0
LINE
  5
2C2
100
AcDbEntity
  8
IMPORT_IGES
100
AcDbLine
 62
253
  6
CONTINUOUS
 10
-21.6491348435
 20
4.693738165
 11
-21.6502246601
 21
7.8181482188
  0
LINE
  5
2C3
100
AcDbEntity
  8
IMPORT_IGES
100
AcDbLine
 62
7
  6
CONTINUOUS
 10
-19.4
 20
20.3270366465
 11
-19.4
 21
19.5532732402
  0
LINE
  5
2C4
100
AcDbEntity
  8
IMPORT_IGES
100
AcDbLine
 62
7
  6
CONTINUOUS
 10
-19.4
 20
18.5532732402
 11
-19.4
 21
17.7795098339
  0
LINE
  5
2C5
100
AcDbEntity
  8
IMPORT_IGES
100
AcDbLine
 62
253
  6
CONTINUOUS
 10
-19.2840580092
 20
19.0950156707
 11
-19.2840580092
 21
19.0115308097
  0
LINE
  5
2C6
100
AcDbEntity
  8
IMPORT_IGES
100
AcDbLine
 62
253
  6
CONTINUOUS
 10
-19.0130772178
 20
21.0532732402
 11
-19.0130772178
 21
19.5532732402
  0
LINE
  5
2C7
100
AcDbEntity
  8
IMPORT_IGES
100
AcDbLine
 62
253
  6
CONTINUOUS
 10
-19.0130772178
 20
18.5532732402
 11
-19.0130772178
 21
17.0532732402
  0
LINE
  5
2C8
100
AcDbEntity
  8
IMPORT_IGES
100
AcDbLine
 62
253
  6
CONTINUOUS
 10
-21.6502246601
 20
7.8181482188
 11
-21.649898073
 21
11.0373976808
  0
LWPOLYLINE
  5
2C9
100
AcDbEntity
  8
IMPORT_IGES
100
AcDbPolyline
 62
253
  6
CONTINUOUS
 90
3
 70
0
 10
-21.649898073
 20
11.0373976808
 10
-21.6480610335
 20
14.3513529031
 10
-21.6466145797
 20
16.0437841043
  0
LINE
  5
2CA
100
AcDbEntity
  8
IMPORT_IGES
100
AcDbLine
 62
253
  6
CONTINUOUS
 10
-21.637086855
 20
22.1480323925
 11
-21.6283164954
 21
25.9224165868
  0
LWPOLYLINE
  5
2CB
100
AcDbEntity
  8
IMPORT_IGES
100
AcDbPolyline
 62
253
  6
CONTINUOUS
 90
4
 70
0
 10
-21.6283164954
 20
25.9224165868
 10
-21.6173172505
 20
29.6832324112
 10
-21.6110033802
 20
31.5584582079
 10
-21.6041112079
 20
33.4301867234
  0
LWPOLYLINE
  5
2CC
100
AcDbEntity
  8
IMPORT_IGES
100
AcDbPolyline
 62
253
  6
CONTINUOUS
 90
3
 70
0
 10
-21.6041112079
 20
33.4301867234
 10
-21.5886027509
 20
37.162997095
 10
-21.58001976
 20
39.0239949985
  0
LWPOLYLINE
  5
2CD
100
AcDbEntity
  8
IMPORT_IGES
100
AcDbPolyline
 62
253
  6
CONTINUOUS
 90
10
 70
0
 10
-21.5140711615
 20
19.054999976
 10
-21.511467508
 20
19.3883206942
 10
-21.5036425786
 20
19.7223999726
 10
-21.4905591699
 20
20.0571548349
 10
-21.4721866673
 20
20.3923679361
 10
-21.4484892071
 20
20.7280873211
 10
-21.4194048773
 20
21.0646254326
 10
-21.3848712153
 20
21.402026006
 10
-21.3448460867
 20
21.7400650849
 10
-21.2992812857
 20
22.0786500701
  0
LINE
  5
2CE
100
AcDbEntity
  8
IMPORT_IGES
100
AcDbLine
 62
7
  6
CONTINUOUS
 10
-19.2981734386
 20
21.0489339573
 11
-19.2852071684
 21
21.3532734923
  0
LWPOLYLINE
  5
2CF
100
AcDbEntity
  8
IMPORT_IGES
100
AcDbPolyline
 62
7
  6
CONTINUOUS
 90
4
 70
0
 10
-1.75
 20
20.0677447944
 10
-1.8372914357
 20
20.0319337592
 10
-1.9220604687
 20
19.9977263557
 10
-2.0013753273
 20
19.9662847815
  0
LWPOLYLINE
  5
2D0
100
AcDbEntity
  8
IMPORT_IGES
100
AcDbPolyline
 62
253
  6
CONTINUOUS
 90
43
 70
0
 10
-21.6466145797
 20
16.0437841043
 10
-21.5323904333
 20
15.3081333447
 10
-21.3939931959
 20
14.5772192792
 10
-21.231119378
 20
13.8508587066
 10
-21.0426033062
 20
13.1271694751
 10
-20.828844367
 20
12.4076732718
 10
-20.5918575754
 20
11.6973297224
 10
-20.3316149923
 20
10.9975887766
 10
-20.0471907617
 20
10.3067479197
 10
-19.7392556158
 20
9.6250899397
 10
-19.4064513544
 20
8.9513187537
 10
-19.0489129741
 20
8.2865358108
 10
-18.6696095468
 20
7.6346798424
 10
-18.2675382178
 20
6.9956015749
 10
-17.8424131121
 20
6.3693869911
 10
-17.3985236778
 20
5.7604195423
 10
-16.9363267671
 20
5.1700712441
 10
-16.4543768421
 20
4.5970469483
 10
-15.9543477429
 20
4.0417944285
 10
-15.4355853134
 20
3.5042088896
 10
-14.8977778034
 20
2.9845325427
 10
-14.3432532413
 20
2.4837664195
 10
-13.7707109167
 20
2.0013278891
 10
-13.1805448637
 20
1.5379834996
 10
-12.5779339194
 20
1.096797551
 10
-11.9642371857
 20
0.6790557811
 10
-11.337833841
 20
0.283724898
 10
-10.6997077992
 20
-0.0895869604
 10
-10.0498061326
 20
-0.4409714812
 10
-9.3878993137
 20
-0.770100746
 10
-8.7147457538
 20
-1.0767407035
 10
-8.0290802634
 20
-1.3611347338
 10
-7.3317991133
 20
-1.6228223746
 10
-6.6269876217
 20
-1.8605245166
 10
-5.9151598328
 20
-2.0739244585
 10
-5.1954461955
 20
-2.2631760984
 10
-4.4700770985
 20
-2.427718903
 10
-3.7400551317
 20
-2.5674785381
 10
-3.004395604
 20
-2.6824363072
 10
-2.2624695727
 20
-2.7721343817
 10
-1.5141736947
 20
-2.8364194316
 10
-0.7599656362
 20
-2.8754441789
 10
-0.0000000001
 20
-2.889227011
  0
LWPOLYLINE
  5
2D1
100
AcDbEntity
  8
IMPORT_IGES
100
AcDbPolyline
 62
253
  6
CONTINUOUS
 90
10
 70
0
 10
-21.3104363864
 20
16.1111407653
 10
-21.3540289717
 20
16.444136065
 10
-21.392171399
 20
16.7756653487
 10
-21.424952459
 20
17.1056365152
 10
-21.452444692
 20
17.4336972609
 10
-21.4747639398
 20
17.7600241165
 10
-21.4920292203
 20
18.0853247581
 10
-21.5043021474
 20
18.4097837077
 10
-21.5116269298
 20
18.7330600006
 10
-21.5140619405
 20
19.0550778763
  0
LWPOLYLINE
  5
2D2
100
AcDbEntity
  8
IMPORT_IGES
100
AcDbPolyline
 62
253
  6
CONTINUOUS
 90
22
 70
0
 10
-21.580022275
 20
39.0240176447
 10
-21.5904414762
 20
39.1249221113
 10
-21.5989058553
 20
39.2252756205
 10
-21.6053558372
 20
39.3242214003
 10
-21.609733342
 20
39.4205040355
 10
-21.6120544927
 20
39.5139656891
 10
-21.6123136285
 20
39.6054798361
 10
-21.6105011242
 20
39.6946030295
 10
-21.6066463321
 20
39.7804689788
 10
-21.6007190831
 20
39.8631856124
 10
-21.5926900518
 20
39.9420921252
 10
-21.5825400332
 20
40.0164115086
 10
-21.5702139355
 20
40.0860245055
 10
-21.5557793
 20
40.1505567835
 10
-21.5393655974
 20
40.2094089758
 10
-21.5210573479
 20
40.2621736969
 10
-21.5010056849
 20
40.3082323372
 10
-21.4793209249
 20
40.3471943339
 10
-21.4560383859
 20
40.3791441636
 10
-21.4312960582
 20
40.4040075942
 10
-21.4053550859
 20
40.421614259
 10
-21.3784544609
 20
40.4318885987
  0
LWPOLYLINE
  5
2D3
100
AcDbEntity
  8
IMPORT_IGES
100
AcDbPolyline
 62
253
  6
CONTINUOUS
 90
13
 70
0
 10
-19.2840580092
 20
19.0115308097
 10
-19.2819521308
 20
18.9633025975
 10
-19.2756541344
 20
18.9155241414
 10
-19.2652227524
 20
18.8686410036
 10
-19.2507552635
 20
18.8230903966
 10
-19.2323865855
 20
18.7792971064
 10
-19.210288017
 20
18.737669531
 10
-19.1846656402
 20
18.6985958717
 10
-19.1557583985
 20
18.6624405134
 10
-19.1238358689
 20
18.6295406257
 10
-19.0891957476
 20
18.6002030194
 10
-19.0521610739
 20
18.5747012847
 10
-19.0130772178
 20
18.5532732402
  0
LWPOLYLINE
  5
2D4
100
AcDbEntity
  8
IMPORT_IGES
100
AcDbPolyline
 62
7
  6
CONTINUOUS
 90
19
 70
0
 10
-17.8628355545
 20
18.9532732402
 10
-17.8601904572
 20
18.8647138885
 10
-17.8528497845
 20
18.7782119059
 10
-17.8408135362
 20
18.6937672924
 10
-17.8239119255
 20
18.610791968
 10
-17.8023147392
 20
18.5298740127
 10
-17.7765313386
 20
18.4527776664
 10
-17.7464782263
 20
18.3795883173
 10
-17.7122388996
 20
18.3102205773
 10
-17.674573211
 20
18.2461825214
 10
-17.6334114012
 20
18.1875825888
 10
-17.5888232295
 20
18.1343123404
 10
-17.5417778265
 20
18.087554534
 10
-17.492220231
 20
18.0474390243
 10
-17.4402054042
 20
18.0138359566
 10
-17.3868673607
 20
17.9875385249
 10
-17.3325841054
 20
17.9688111273
 10
-17.2769776334
 20
17.9573893657
 10
-17.2200479448
 20
17.9532732402
  0
LINE
  5
2D5
100
AcDbEntity
  8
IMPORT_IGES
100
AcDbLine
 62
7
  6
CONTINUOUS
 10
-17.8628355545
 20
19.1532732402
 11
-17.8628355545
 21
18.9532732402
  0
LINE
  5
2D6
100
AcDbEntity
  8
IMPORT_IGES
100
AcDbLine
 62
7
  6
CONTINUOUS
 10
-17.25
 20
19.1532732402
 11
-17.25
 21
18.9532732402
  0
LWPOLYLINE
  5
2D7
100
AcDbEntity
  8
IMPORT_IGES
100
AcDbPolyline
 62
7
  6
CONTINUOUS
 90
19
 70
0
 10
-17.25
 20
19.1532732402
 10
-17.2473549027
 20
19.2418325919
 10
-17.24001423
 20
19.3283345745
 10
-17.2279779817
 20
19.412779188
 10
-17.211076371
 20
19.4957545124
 10
-17.1894791847
 20
19.5766724677
 10
-17.1636957841
 20
19.653768814
 10
-17.1336426718
 20
19.7269581631
 10
-17.0994033451
 20
19.7963259032
 10
-17.0617376565
 20
19.8603639591
 10
-17.0205758467
 20
19.9189638916
 10
-16.975987675
 20
19.97223414
 10
-16.928942272
 20
20.0189919464
 10
-16.8793846765
 20
20.0591074561
 10
-16.8273698497
 20
20.0927105238
 10
-16.7740318062
 20
20.1190079555
 10
-16.7197485509
 20
20.1377353531
 10
-16.6641420789
 20
20.1491571147
 10
-16.6072123903
 20
20.1532732402
  0
LINE
  5
2D8
100
AcDbEntity
  8
IMPORT_IGES
100
AcDbLine
 62
7
  6
CONTINUOUS
 10
-3.7493852461
 20
38.1145573115
 11
-3.8
 21
37.9754824136
  0
LINE
  5
2D9
100
AcDbEntity
  8
IMPORT_IGES
100
AcDbLine
 62
7
  6
CONTINUOUS
 10
22.0140285727
 20
40.6224259588
 11
21.7433373901
 21
40.3911595382
  0
LWPOLYLINE
  5
2DA
100
AcDbEntity
  8
IMPORT_IGES
100
AcDbPolyline
 62
253
  6
CONTINUOUS
 90
10
 70
0
 10
-1.75
 20
20.3037723951
 10
-1.5865368834
 20
20.400604879
 10
-1.4124014312
 20
20.4876396267
 10
-1.2287650198
 20
20.5642911719
 10
-1.0368629369
 20
20.630043894
 10
-0.8379860717
 20
20.6844554869
 10
-0.6334722317
 20
20.7271599339
 10
-0.4246971429
 20
20.7578699702
 10
-0.2130651962
 20
20.7763790152
 10
-0.0
 20
20.7825625621
  0
LINE
  5
2DB
100
AcDbEntity
  8
IMPORT_IGES
100
AcDbLine
 62
7
  6
CONTINUOUS
 10
-1.7300560119
 20
20.0516674723
 11
-1.75
 21
20.0407144996
  0
LWPOLYLINE
  5
2DC
100
AcDbEntity
  8
IMPORT_IGES
100
AcDbPolyline
 62
7
  6
CONTINUOUS
 90
4
 70
0
 10
1.75
 20
18.038801686
 10
1.8372822513
 20
18.0746089031
 10
1.9220428221
 20
18.1088129518
 10
2.001375324
 20
18.140261691
  0
LWPOLYLINE
  5
2DD
100
AcDbEntity
  8
IMPORT_IGES
100
AcDbPolyline
 62
7
  6
CONTINUOUS
 90
7
 70
0
 10
7.8885058014
 20
-15.6665549019
 10
7.8979813319
 20
-15.6650540085
 10
7.9077430591
 20
-15.6628895078
 10
7.9177675606
 20
-15.6600081109
 10
7.9280690124
 20
-15.6563506293
 10
7.9385930538
 20
-15.6518903966
 10
7.9492258927
 20
-15.6466551801
  0
LINE
  5
2DE
100
AcDbEntity
  8
IMPORT_IGES
100
AcDbLine
 62
7
  6
CONTINUOUS
 10
-7.2805618737
 20
-17.7934621388
 11
-6.4528809132
 21
-17.7934621388
  0
LINE
  5
2DF
100
AcDbEntity
  8
IMPORT_IGES
100
AcDbLine
 62
7
  6
CONTINUOUS
 10
-4.6580333575
 20
-17.7934621388
 11
-3.7188207506
 21
-17.7934621388
  0
LINE
  5
2E0
100
AcDbEntity
  8
IMPORT_IGES
100
AcDbLine
 62
7
  6
CONTINUOUS
 10
-3.2131859101
 20
-17.793462147
 11
-2.3147091663
 21
-17.7934621387
  0
LINE
  5
2E1
100
AcDbEntity
  8
IMPORT_IGES
100
AcDbLine
 62
7
  6
CONTINUOUS
 10
0.4311966704
 20
-17.7934621388
 11
1.350018129
 21
-17.7934621388
  0
LINE
  5
2E2
100
AcDbEntity
  8
IMPORT_IGES
100
AcDbLine
 62
7
  6
CONTINUOUS
 10
-0.8784625727
 20
-17.7934621387
 11
-1.010187859
 21
-17.7934621387
  0
LINE
  5
2E3
100
AcDbEntity
  8
IMPORT_IGES
100
AcDbLine
 62
7
  6
CONTINUOUS
 10
1.4974718128
 20
-17.7934621388
 11
2.4265515299
 21
-17.7934621378
  0
LINE
  5
2E4
100
AcDbEntity
  8
IMPORT_IGES
100
AcDbLine
 62
7
  6
CONTINUOUS
 10
4.2080304629
 20
-17.7934621388
 11
5.1979219764
 21
-17.7934621388
  0
LINE
  5
2E5
100
AcDbEntity
  8
IMPORT_IGES
100
AcDbLine
 62
7
  6
CONTINUOUS
 10
5.4737202644
 20
-17.7934616397
 11
6.4091531001
 21
-17.7934616397
  0
LINE
  5
2E6
100
AcDbEntity
  8
IMPORT_IGES
100
AcDbLine
 62
7
  6
CONTINUOUS
 10
7.8474266811
 20
-17.7934616397
 11
8.7508395781
 21
-17.7934616397
  0
LINE
  5
2E7
100
AcDbEntity
  8
IMPORT_IGES
100
AcDbLine
 62
7
  6
CONTINUOUS
 10
2.6856747563
 20
-16.8952111378
 11
3.9647253723
 21
-16.8952111378
  0
LINE
  5
2E8
100
AcDbEntity
  8
IMPORT_IGES
100
AcDbLine
 62
7
  6
CONTINUOUS
 10
3.7770246754
 20
-16.2001481388
 11
2.8777958378
 21
-16.2001481306
  0
LINE
  5
2E9
100
AcDbEntity
  8
IMPORT_IGES
100
AcDbLine
 62
7
  6
CONTINUOUS
 10
6.4091532672
 20
-16.032624937
 11
6.9127429789
 21
-16.032624937
  0
LWPOLYLINE
  5
2EA
100
AcDbEntity
  8
IMPORT_IGES
100
AcDbPolyline
 62
7
  6
CONTINUOUS
 90
16
 70
0
 10
6.9127424036
 20
-16.0326249488
 10
6.9580807732
 20
-16.0346713487
 10
7.002628087
 20
-16.0405113578
 10
7.0461126206
 20
-16.0499607525
 10
7.0879868831
 20
-16.0627395047
 10
7.1283082821
 20
-16.0787282338
 10
7.1676410102
 20
-16.0981955542
 10
7.2059741329
 20
-16.1213932167
 10
7.2425635543
 20
-16.1481793219
 10
7.2768718907
 20
-16.178314255
 10
7.3083744088
 20
-16.2110663985
 10
7.337531234
 20
-16.2465911735
 10
7.3652190325
 20
-16.286049439
 10
7.3913600785
 20
-16.3298611596
 10
7.4152402446
 20
-16.3773992327
 10
7.4364731496
 20
-16.4283906543
  0
LINE
  5
2EB
100
AcDbEntity
  8
IMPORT_IGES
100
AcDbLine
 62
7
  6
CONTINUOUS
 10
-4.1784592428
 20
-27.7925512677
 11
-5.191730732
 21
-25.793462275
  0
LINE
  5
2EC
100
AcDbEntity
  8
IMPORT_IGES
100
AcDbLine
 62
7
  6
CONTINUOUS
 10
-3.7547840824
 20
-27.7925512441
 11
-2.6862048319
 21
-29.9242624383
  0
LINE
  5
2ED
100
AcDbEntity
  8
IMPORT_IGES
100
AcDbLine
 62
7
  6
CONTINUOUS
 10
-3.0775311102
 20
-29.9242621727
 11
-3.9687091163
 21
-28.1288089698
  0
LINE
  5
2EE
100
AcDbEntity
  8
IMPORT_IGES
100
AcDbLine
 62
7
  6
CONTINUOUS
 10
-4.7899709525
 20
-25.7934618617
 11
-3.9687091175
 21
-27.4512308153
  0
LINE
  5
2EF
100
AcDbEntity
  8
IMPORT_IGES
100
AcDbLine
 62
7
  6
CONTINUOUS
 10
-9.9243517718
 20
-29.9242621439
 11
-10.9710176806
 21
-26.1096115735
  0
LINE
  5
2F0
100
AcDbEntity
  8
IMPORT_IGES
100
AcDbLine
 62
7
  6
CONTINUOUS
 10
-10.7289166684
 20
-25.7934619572
 11
-9.7428351347
 21
-29.4144831903
  0
LINE
  5
2F1
100
AcDbEntity
  8
IMPORT_IGES
100
AcDbLine
 62
253
  6
CONTINUOUS
 10
-15.4
 20
21.3532732402
 11
-15.4
 21
20.1532732402
  0
LINE
  5
2F2
100
AcDbEntity
  8
IMPORT_IGES
100
AcDbLine
 62
253
  6
CONTINUOUS
 10
-15.4
 20
17.9532732402
 11
-15.4
 21
16.7532732402
  0
LINE
  5
2F3
100
AcDbEntity
  8
IMPORT_IGES
100
AcDbLine
 62
253
  6
CONTINUOUS
 10
-14.9539377826
 20
17.9532732402
 11
-14.9539377826
 21
20.1532732402
  0
LINE
  5
2F4
100
AcDbEntity
  8
IMPORT_IGES
100
AcDbLine
 62
7
  6
CONTINUOUS
 10
-14.1
 20
20.1532732402
 11
-14.1
 21
17.9532732402
  0
LINE
  5
2F5
100
AcDbEntity
  8
IMPORT_IGES
100
AcDbLine
 62
7
  6
CONTINUOUS
 10
-14.0
 20
16.7532732402
 11
-14.0
 21
21.3532732402
  0
LINE
  5
2F6
100
AcDbEntity
  8
IMPORT_IGES
100
AcDbLine
 62
253
  6
CONTINUOUS
 10
23.0250612828
 20
38.9075244189
 11
23.2934535196
 21
39.1392190895
  0
LWPOLYLINE
  5
2F7
100
AcDbEntity
  8
IMPORT_IGES
100
AcDbPolyline
 62
253
  6
CONTINUOUS
 90
10
 70
0
 10
1.75
 20
17.8027740853
 10
1.5865368834
 20
17.7059416014
 10
1.4124014312
 20
17.6189068537
 10
1.2287650198
 20
17.5422553085
 10
1.0368629369
 20
17.4765025864
 10
0.8379860717
 20
17.4220909935
 10
0.6334722317
 20
17.3793865465
 10
0.4246971429
 20
17.3486765102
 10
0.2130651962
 20
17.3301674652
 10
-0.0
 20
17.3239839183
  0
LINE
  5
2F8
100
AcDbEntity
  8
IMPORT_IGES
100
AcDbLine
 62
7
  6
CONTINUOUS
 10
1.75
 20
18.065831978
 11
1.7337093624
 21
18.0568692209
  0
LWPOLYLINE
  5
2F9
100
AcDbEntity
  8
IMPORT_IGES
100
AcDbPolyline
 62
7
  6
CONTINUOUS
 90
20
 70
0
 10
1.7337093624
 20
18.0568692209
 10
1.5849226893
 20
17.981302223
 10
1.4260074908
 20
17.911738498
 10
1.2576026979
 20
17.8488734197
 10
1.0809642158
 20
17.7935278831
 10
0.8969109974
 20
17.7462532005
 10
0.7064134769
 20
17.7075790529
 10
0.5108440861
 20
17.6780185781
 10
0.3116355723
 20
17.6579546805
 10
0.1100928547
 20
17.6476334941
 10
-0.0924299746
 20
17.647200401
 10
-0.2943960165
 20
17.6566828339
 10
-0.4944485323
 20
17.6759900278
 10
-0.6912466143
 20
17.7049266157
 10
-0.8832833438
 20
17.7431493686
 10
-1.0691784541
 20
17.7901932239
 10
-1.2478662015
 20
17.8455513374
 10
-1.4183212582
 20
17.9086371621
 10
-1.5793032
 20
17.9786563223
 10
-1.7300562456
 20
18.0548791351
  0
LWPOLYLINE
  5
2FA
100
AcDbEntity
  8
IMPORT_IGES
100
AcDbPolyline
 62
7
  6
CONTINUOUS
 90
40
 70
0
 10
6.9147518271
 20
-15.295721615
 10
6.9590789694
 20
-15.2938567883
 10
7.0014936886
 20
-15.290837913
 10
7.0420008273
 20
-15.2866657859
 10
7.0805739489
 20
-15.2812610877
 10
7.1172484813
 20
-15.2747046048
 10
7.1521214244
 20
-15.2672371671
 10
7.185195391
 20
-15.2588633461
 10
7.2164747655
 20
-15.2495796522
 10
7.2460583972
 20
-15.239614664
 10
7.2739078848
 20
-15.2289906083
 10
7.300067022
 20
-15.2176860366
 10
7.3247571241
 20
-15.2058638704
 10
7.3479265697
 20
-15.1935902407
 10
7.3696307471
 20
-15.1807995218
 10
7.3902505485
 20
-15.1674568696
 10
7.4097833012
 20
-15.1536254562
 10
7.4282339563
 20
-15.1392424068
 10
7.4459940029
 20
-15.1240837175
 10
7.4631672329
 20
-15.1081047729
 10
7.4796511064
 20
-15.091350368
 10
7.4955271876
 20
-15.0737305771
 10
7.5108917907
 20
-15.0551470651
 10
7.5256495545
 20
-15.0356982967
 10
7.5395945419
 20
-15.0155895331
 10
7.5526748789
 20
-14.994904657
 10
7.5649434308
 20
-14.9735598627
 10
7.5763514362
 20
-14.9515088664
 10
7.5868658029
 20
-14.9288877962
 10
7.5965203451
 20
-14.9055605375
 10
7.6053665956
 20
-14.8810724299
 10
7.6134548311
 20
-14.8553956839
 10
7.6207351272
 20
-14.8285580354
 10
7.6271086242
 20
-14.8001880856
 10
7.6326078788
 20
-14.7701744348
 10
7.6372002911
 20
-14.7386283068
 10
7.6406891419
 20
-14.7055121809
 10
7.6430086409
 20
-14.6708134222
 10
7.6442239403
 20
-14.6345443032
 10
7.6443345606
 20
-14.596704605
  0
LINE
  5
2FB
100
AcDbEntity
  8
IMPORT_IGES
100
AcDbLine
 62
7
  6
CONTINUOUS
 10
6.9147525994
 20
-15.2957226101
 11
6.3780102547
 21
-15.2957226101
  0
LINE
  5
2FC
100
AcDbEntity
  8
IMPORT_IGES
100
AcDbLine
 62
7
  6
CONTINUOUS
 10
3.817378292
 20
-13.2940101388
 11
2.9088036388
 21
-13.2940101388
  0
LINE
  5
2FD
100
AcDbEntity
  8
IMPORT_IGES
100
AcDbLine
 62
7
  6
CONTINUOUS
 10
0.9292804314
 20
-13.2940101388
 11
-0.000000003
 21
-13.2940101388
  0
LINE
  5
2FE
100
AcDbEntity
  8
IMPORT_IGES
100
AcDbLine
 62
7
  6
CONTINUOUS
 10
-1.8684909904
 20
-13.294010147
 11
-2.8069248241
 21
-13.294010147
  0
LINE
  5
2FF
100
AcDbEntity
  8
IMPORT_IGES
100
AcDbLine
 62
7
  6
CONTINUOUS
 10
-5.0065769996
 20
-13.2940101388
 11
-5.9451469306
 21
-13.2940101388
  0
LINE
  5
300
100
AcDbEntity
  8
IMPORT_IGES
100
AcDbLine
 62
7
  6
CONTINUOUS
 10
-7.6867008933
 20
-13.2940101429
 11
-8.7069759999
 21
-13.2940101429
  0
LINE
  5
301
100
AcDbEntity
  8
IMPORT_IGES
100
AcDbLine
 62
7
  6
CONTINUOUS
 10
-3.7188211356
 20
-13.2937401388
 11
-4.6580327962
 21
-13.2937401388
  0
LWPOLYLINE
  5
302
100
AcDbEntity
  8
IMPORT_IGES
100
AcDbPolyline
 62
7
  6
CONTINUOUS
 90
10
 70
0
 10
7.1137737277
 20
-14.0340460165
 10
7.0356501215
 20
-14.0260314543
 10
6.9565672257
 20
-14.0207684516
 10
6.8765231345
 20
-14.018257294
 10
6.7954407034
 20
-14.0185152473
 10
6.7133929867
 20
-14.0215255433
 10
6.6306043247
 20
-14.0272375106
 10
6.5471492681
 20
-14.0356345288
 10
6.4629514952
 20
-14.0467338959
 10
6.3780100097
 20
-14.060535907
  0
LINE
  5
303
100
AcDbEntity
  8
IMPORT_IGES
100
AcDbLine
 62
253
  6
CONTINUOUS
 10
18.2672566557
 20
-39.2208721778
 11
18.4374234765
 21
-39.3912494501
  0
LINE
  5
304
100
AcDbEntity
  8
IMPORT_IGES
100
AcDbLine
 62
253
  6
CONTINUOUS
 10
19.6620813113
 20
-38.1833796438
 11
19.4939517783
 21
-38.0117634474
  0
LINE
  5
305
100
AcDbEntity
  8
IMPORT_IGES
100
AcDbLine
 62
7
  6
CONTINUOUS
 10
-6.4686718746
 20
-25.7934620084
 11
-5.3614819901
 21
-29.9242625624
  0
LINE
  5
306
100
AcDbEntity
  8
IMPORT_IGES
100
AcDbLine
 62
7
  6
CONTINUOUS
 10
-6.6773789303
 20
-26.2252743926
 11
-6.1263921842
 21
-28.3325798938
  0
LINE
  5
307
100
AcDbEntity
  8
IMPORT_IGES
100
AcDbLine
 62
7
  6
CONTINUOUS
 10
-5.7246321931
 20
-29.9242623468
 11
-6.0491711048
 21
-28.6517339036
  0
LINE
  5
308
100
AcDbEntity
  8
IMPORT_IGES
100
AcDbLine
 62
7
  6
CONTINUOUS
 10
-11.3289500587
 20
-29.9242623931
 11
-11.3289500587
 21
-25.7934620971
  0
LINE
  5
309
100
AcDbEntity
  8
IMPORT_IGES
100
AcDbLine
 62
7
  6
CONTINUOUS
 10
-10.9710176475
 20
-26.1096115264
 11
-10.9710176475
 21
-29.9242623021
  0
LINE
  5
30A
100
AcDbEntity
  8
IMPORT_IGES
100
AcDbLine
 62
7
  6
CONTINUOUS
 10
2.6506147539
 20
38.2981344139
 11
2.6
 21
38.177341845
  0
LINE
  5
30B
100
AcDbEntity
  8
IMPORT_IGES
100
AcDbLine
 62
7
  6
CONTINUOUS
 10
-0.7505553499
 20
20.3532732402
 11
-1.5011106999
 21
19.0532732402
  0
LINE
  5
30C
100
AcDbEntity
  8
IMPORT_IGES
100
AcDbLine
 62
7
  6
CONTINUOUS
 10
-0.7216878365
 20
20.3032732402
 11
-1.443375673
 21
19.0532732402
  0
LWPOLYLINE
  5
30D
100
AcDbEntity
  8
IMPORT_IGES
100
AcDbPolyline
 62
7
  6
CONTINUOUS
 90
25
 70
0
 10
7.7898774595
 20
-13.394022962
 10
7.7337521386
 20
-13.3732960978
 10
7.6745288583
 20
-13.3534882773
 10
7.6121779528
 20
-13.3347460552
 10
7.546707242
 20
-13.3172010499
 10
7.4780611239
 20
-13.3009381055
 10
7.4061194042
 20
-13.2860008196
 10
7.3308900868
 20
-13.2724276344
 10
7.2523457359
 20
-13.2602064024
 10
7.1703191589
 20
-13.2492712951
 10
7.0848977883
 20
-13.239676204
 10
6.996030111
 20
-13.2315219319
 10
6.9033527119
 20
-13.2248857432
 10
6.8069492506
 20
-13.2198813845
 10
6.7068490611
 20
-13.2166023677
 10
6.6026269138
 20
-13.215124534
 10
6.4942613407
 20
-13.2155449385
 10
6.3818519447
 20
-13.2179554101
 10
6.2651569097
 20
-13.2224368098
 10
6.1441751855
 20
-13.2290464255
 10
6.0189420249
 20
-13.2378106846
 10
5.8892744233
 20
-13.2487423934
 10
5.7551287349
 20
-13.2618141491
 10
5.6166004042
 20
-13.2769442183
 10
5.4737202652
 20
-13.2940101388
  0
LINE
  5
30E
100
AcDbEntity
  8
IMPORT_IGES
100
AcDbLine
 62
7
  6
CONTINUOUS
 10
-7.28056205
 20
-17.793461985
 11
-8.706976
 21
-13.2940101428
  0
LINE
  5
30F
100
AcDbEntity
  8
IMPORT_IGES
100
AcDbLine
 62
7
  6
CONTINUOUS
 10
-7.6867010254
 20
-13.294010043
 11
-6.8290240397
 21
-16.3911219954
  0
LINE
  5
310
100
AcDbEntity
  8
IMPORT_IGES
100
AcDbLine
 62
7
  6
CONTINUOUS
 10
-8.5082757287
 20
-29.9242623383
 11
-8.5082757287
 21
-26.1091851213
  0
LINE
  5
311
100
AcDbEntity
  8
IMPORT_IGES
100
AcDbLine
 62
7
  6
CONTINUOUS
 10
-8.1513873301
 20
-25.7934621387
 11
-8.1513873301
 21
-29.9242623859
  0
LINE
  5
312
100
AcDbEntity
  8
RACCORDO
100
AcDbLine
 62
7
  6
CONTINUOUS
 10
-7.5
 20
-41.7467267598
 11
-7.5
 21
-40.4504897847
  0
LINE
  5
313
100
AcDbEntity
  8
RACCORDO
100
AcDbLine
 62
253
  6
CONTINUOUS
 10
-7.0
 20
-42.2467267598
 11
-7.0
 21
-40.4828782817
  0
LINE
  5
314
100
AcDbEntity
  8
IMPORT_IGES
100
AcDbLine
 62
7
  6
CONTINUOUS
 10
0.7216878365
 20
17.8032732402
 11
1.443375673
 21
19.0532732402
  0
LINE
  5
315
100
AcDbEntity
  8
IMPORT_IGES
100
AcDbLine
 62
7
  6
CONTINUOUS
 10
0.7505553499
 20
17.7532732402
 11
1.5011106999
 21
19.0532732402
  0
LWPOLYLINE
  5
316
100
AcDbEntity
  8
IMPORT_IGES
100
AcDbPolyline
 62
253
  6
CONTINUOUS
 90
13
 70
0
 10
19.0130772178
 20
18.5532732402
 10
19.0521610739
 20
18.5747012847
 10
19.0891957476
 20
18.6002030194
 10
19.1238358689
 20
18.6295406257
 10
19.1557583985
 20
18.6624405134
 10
19.1846656402
 20
18.6985958717
 10
19.210288017
 20
18.737669531
 10
19.2323865855
 20
18.7792971064
 10
19.2507552635
 20
18.8230903966
 10
19.2652227524
 20
18.8686410036
 10
19.2756541344
 20
18.9155241414
 10
19.2819521308
 20
18.9633025975
 10
19.2840580092
 20
19.0115308097
  0
LINE
  5
317
100
AcDbEntity
  8
IMPORT_IGES
100
AcDbLine
 62
7
  6
CONTINUOUS
 10
-1.0101878541
 20
-17.7934998597
 11
-2.1120119999
 21
-14.855405139
  0
LINE
  5
318
100
AcDbEntity
  8
IMPORT_IGES
100
AcDbLine
 62
7
  6
CONTINUOUS
 10
-1.8684909876
 20
-13.2940451103
 11
-0.9392109999
 21
-15.7921201391
  0
LINE
  5
319
100
AcDbEntity
  8
IMPORT_IGES
100
AcDbLine
 62
7
  6
CONTINUOUS
 10
-4.658033
 20
-17.7934621405
 11
-4.658033
 21
-13.2937401397
  0
LINE
  5
31A
100
AcDbEntity
  8
IMPORT_IGES
100
AcDbLine
 62
7
  6
CONTINUOUS
 10
-3.8
 20
37.9754824136
 11
-3.8
 21
35.6532732402
  0
LINE
  5
31B
100
AcDbEntity
  8
IMPORT_IGES
100
AcDbLine
 62
7
  6
CONTINUOUS
 10
-3.8
 20
2.4532732402
 11
-3.8
 21
0.1310640669
  0
LINE
  5
31C
100
AcDbEntity
  8
IMPORT_IGES
100
AcDbLine
 62
7
  6
CONTINUOUS
 10
-3.7493852461
 20
38.1145573115
 11
-3.7493852461
 21
36.7004034138
  0
LINE
  5
31D
100
AcDbEntity
  8
IMPORT_IGES
100
AcDbLine
 62
7
  6
CONTINUOUS
 10
-3.7493852461
 20
1.4061430666
 11
-3.7493852461
 21
-0.008010831
  0
LINE
  5
31E
100
AcDbEntity
  8
IMPORT_IGES
100
AcDbLine
 62
7
  6
CONTINUOUS
 10
-3.718821
 20
-13.2937401392
 11
-3.718821
 21
-17.7934621387
  0
LWPOLYLINE
  5
31F
100
AcDbEntity
  8
IMPORT_IGES
100
AcDbPolyline
 62
253
  6
CONTINUOUS
 90
6
 70
0
 10
0.7870547947
 20
40.5212400325
 10
0.7873995312
 20
40.5236466163
 10
0.7878658304
 20
40.5293874055
 10
0.7884488825
 20
40.5384084806
 10
0.7891384565
 20
40.5505465425
 10
0.7908301575
 20
40.5839581053
  0
LINE
  5
320
100
AcDbEntity
  8
IMPORT_IGES
100
AcDbLine
 62
253
  6
CONTINUOUS
 10
4.7501421655
 20
40.0685637085
 11
4.7594860359
 21
40.1148622223
  0
LINE
  5
321
100
AcDbEntity
  8
IMPORT_IGES
100
AcDbLine
 62
253
  6
CONTINUOUS
 10
4.7594860359
 20
40.1148622223
 11
4.7714283482
 21
40.1720137191
  0
LINE
  5
322
100
AcDbEntity
  8
IMPORT_IGES
100
AcDbLine
 62
253
  6
CONTINUOUS
 10
4.7714283482
 20
40.1720137191
 11
4.7929923691
 21
40.2724185226
  0
LWPOLYLINE
  5
323
100
AcDbEntity
  8
IMPORT_IGES
100
AcDbPolyline
 62
253
  6
CONTINUOUS
 90
3
 70
0
 10
4.7929923691
 20
40.2724185226
 10
4.8248453296
 20
40.4171107908
 10
4.8328359437
 20
40.4528689339
  0
LINE
  5
324
100
AcDbEntity
  8
IMPORT_IGES
100
AcDbLine
 62
7
  6
CONTINUOUS
 10
-2.6471362659
 20
2.4061369743
 11
-2.6
 21
2.4532732402
  0
LWPOLYLINE
  5
325
100
AcDbEntity
  8
IMPORT_IGES
100
AcDbPolyline
 62
253
  6
CONTINUOUS
 90
12
 70
0
 10
21.2985797902
 20
22.0835932725
 10
21.3007430831
 20
22.0852966759
 10
21.3061813202
 20
22.0874726532
 10
21.3149256026
 20
22.0901106343
 10
21.3269682702
 20
22.0931924233
 10
21.3422477616
 20
22.0966985132
 10
21.3606741513
 20
22.1006107563
 10
21.3820707475
 20
22.1048893991
 10
21.406273961
 20
22.1094979891
 10
21.4332326565
 20
22.11442685
 10
21.4626237544
 20
22.1196199475
 10
21.4941182403
 20
22.1250206113
  0
LWPOLYLINE
  5
326
100
AcDbEntity
  8
IMPORT_IGES
100
AcDbPolyline
 62
253
  6
CONTINUOUS
 90
43
 70
0
 10
-0.0000000001
 20
-2.8892270109
 10
0.7557075539
 20
-2.875938519
 10
1.5067445058
 20
-2.837335136
 10
2.25292297
 20
-2.7733981047
 10
2.9938919576
 20
-2.6839658263
 10
3.7295744222
 20
-2.5691992034
 10
4.460149536
 20
-2.4295804426
 10
5.1874993593
 20
-2.2648077968
 10
5.909653505
 20
-2.0752751308
 10
6.6212716539
 20
-1.8625277002
 10
7.3210469818
 20
-1.6271047038
 10
8.010899325
 20
-1.368626211
 10
8.6905245385
 20
-1.0872716521
 10
9.3599640109
 20
-0.7834414685
 10
10.0194261442
 20
-0.4569501198
 10
10.6687759694
 20
-0.1071142563
 10
11.3097283613
 20
0.2669573388
 10
11.9406695684
 20
0.6641234573
 10
12.5566438932
 20
1.08202491
 10
13.1571217118
 20
1.5201021488
 10
13.7431252773
 20
1.9786885454
 10
14.3123400051
 20
2.4567891894
 10
14.8649526173
 20
2.9539043361
 10
15.4016005772
 20
3.4703429166
 10
15.9208077182
 20
4.006339844
 10
16.4238262736
 20
4.5627833967
 10
16.9102272352
 20
5.1386165631
 10
17.3762010693
 20
5.731197374
 10
17.8224725028
 20
6.3410393975
 10
18.2493710338
 20
6.9675646498
 10
18.6528028157
 20
7.6065756522
 10
19.0325909462
 20
8.2569265373
 10
19.3902389202
 20
8.9198370927
 10
19.7243630149
 20
9.5947270363
 10
20.0360392366
 20
10.2831048027
 10
20.3253333428
 20
10.9836101273
 10
20.5894184142
 20
11.6914275425
 10
20.8284037248
 20
12.40680274
 10
21.0432005893
 20
13.1297735678
 10
21.2322290384
 20
13.8552902791
 10
21.3952375349
 20
14.581804793
 10
21.5332608854
 20
15.3112398695
 10
21.6466085629
 20
16.0437850298
  0
LWPOLYLINE
  5
327
100
AcDbEntity
  8
IMPORT_IGES
100
AcDbPolyline
 62
7
  6
CONTINUOUS
 90
10
 70
0
 10
8.0901867126
 20
-13.5746597866
 10
8.0563998172
 20
-13.5470431992
 10
8.0227077376
 20
-13.5212928041
 10
7.9891010935
 20
-13.4974387601
 10
7.9555740543
 20
-13.4754922072
 10
7.9221383854
 20
-13.4554562054
 10
7.8888240646
 20
-13.4373248302
 10
7.8556585876
 20
-13.4210720609
 10
7.8226651201
 20
-13.4066549344
 10
7.7898774604
 20
-13.3940229665
  0
LINE
  5
328
100
AcDbEntity
  8
IMPORT_IGES
100
AcDbLine
 62
7
  6
CONTINUOUS
 10
-3.8
 20
0.1310640669
 11
-3.7493852461
 21
-0.008010831
  0
LINE
  5
329
100
AcDbEntity
  8
IMPORT_IGES
100
AcDbLine
 62
7
  6
CONTINUOUS
 10
1.3500182099
 20
-17.7935713223
 11
0.929259
 21
-13.2940101388
  0
LINE
  5
32A
100
AcDbEntity
  8
IMPORT_IGES
100
AcDbLine
 62
7
  6
CONTINUOUS
 10
0.238245
 20
-14.8676521387
 11
0.431209
 21
-17.7934621388
  0
LWPOLYLINE
  5
32B
100
AcDbEntity
  8
IMPORT_IGES
100
AcDbPolyline
 62
7
  6
CONTINUOUS
 90
86
 70
0
 10
0.0791366328
 20
-28.9436323756
 10
0.0803469272
 20
-28.994243359
 10
0.0833573282
 20
-29.0443899046
 10
0.0881474046
 20
-29.094070215
 10
0.0947233465
 20
-29.1434573449
 10
0.1030510338
 20
-29.1923725764
 10
0.1129932148
 20
-29.2402968956
 10
0.1244634651
 20
-29.2871976593
 10
0.1373959223
 20
-29.3331254687
 10
0.1516086098
 20
-29.3776605331
 10
0.1670248589
 20
-29.4206688076
 10
0.1835948025
 20
-29.4621085861
 10
0.2011361592
 20
-29.501664017
 10
0.2195421207
 20
-29.5392797816
 10
0.2387182763
 20
-29.574950395
 10
0.2584460976
 20
-29.6084823077
 10
0.2784747913
 20
-29.6397110155
 10
0.2987854298
 20
-29.6688631674
 10
0.3195273194
 20
-29.6963194633
 10
0.3405717559
 20
-29.7220036727
 10
0.3618740697
 20
-29.7459595666
 10
0.38381173
 20
-29.7686509195
 10
0.4063892564
 20
-29.7900650325
 10
0.4295496962
 20
-29.8101365217
 10
0.4536537517
 20
-29.8291777618
 10
0.4786228687
 20
-29.8471727958
 10
0.5043856388
 20
-29.8641215327
 10
0.5313431771
 20
-29.8802931105
 10
0.5594813791
 20
-29.8956408011
 10
0.5887088187
 20
-29.9100775608
 10
0.6193717494
 20
-29.9237134085
 10
0.6515328322
 20
-29.9364918759
 10
0.6851209593
 20
-29.948308114
 10
0.7203319108
 20
-29.9591520678
 10
0.7572548723
 20
-29.9689596052
 10
0.7957619122
 20
-29.977613353
 10
0.8357123682
 20
-29.9850191284
 10
0.8771717805
 20
-29.9911338826
 10
0.9199567682
 20
-29.9958836014
 10
0.9635261709
 20
-29.9991996973
 10
1.0079304889
 20
-30.0010664852
 10
1.0529943966
 20
-30.0013857727
 10
1.0978288878
 20
-30.0000989741
 10
1.142290732
 20
-29.9972064904
 10
1.1864359019
 20
-29.9927000685
 10
1.2296839386
 20
-29.986658599
 10
1.2719262132
 20
-29.9791518552
 10
1.3132123388
 20
-29.9702261634
 10
1.3532152688
 20
-29.9600206681
 10
1.3917382964
 20
-29.9486668111
 10
1.4288544932
 20
-29.9362119667
 10
1.4646356978
 20
-29.92268643
 10
1.4989943593
 20
-29.9081747872
 10
1.5319234775
 20
-29.8927351534
 10
1.5636143453
 20
-29.8763180445
 10
1.5939495078
 20
-29.8590173478
 10
1.6229830138
 20
-29.840838597
 10
1.6511241041
 20
-29.8215189483
 10
1.6783056484
 20
-29.8010578568
 10
1.7044952435
 20
-29.7794623565
 10
1.7301113623
 20
-29.7564171998
 10
1.7551169193
 20
-29.7319578726
 10
1.7794833787
 20
-29.7061175137
 10
1.803555723
 20
-29.6784881519
 10
1.827270415
 20
-29.6490499136
 10
1.8505215227
 20
-29.6178457755
 10
1.8734961225
 20
-29.5844982265
 10
1.896111447
 20
-29.5489484574
 10
1.9181747263
 20
-29.5113245225
 10
1.9396452349
 20
-29.471504825
 10
1.9603984359
 20
-29.4294676939
 10
1.9803092686
 20
-29.3852018701
 10
1.9993247236
 20
-29.3385411676
 10
2.0172677249
 20
-29.2896392872
 10
2.0340952994
 20
-29.2383393117
 10
2.0498866217
 20
-29.1839988221
 10
2.0645351544
 20
-29.1264338313
 10
2.077834665
 20
-29.0658618183
 10
2.0896576198
 20
-29.0022429884
 10
2.099923688
 20
-28.935273635
 10
2.1084531764
 20
-28.8653917938
 10
2.115084406
 20
-28.793715511
 10
2.1198550725
 20
-28.7197505097
 10
2.1225683686
 20
-28.6441573881
 10
2.1230469979
 20
-28.569800276
 10
2.1213616754
 20
-28.4971530578
  0
LINE
  5
32C
100
AcDbEntity
  8
IMPORT_IGES
100
AcDbLine
 62
253
  6
CONTINUOUS
 10
-0.8026911811
 20
40.8667167494
 11
-0.8040801173
 21
41.3149701719
  0
LINE
  5
32D
100
AcDbEntity
  8
IMPORT_IGES
100
AcDbLine
 62
253
  6
CONTINUOUS
 10
-0.8040801173
 20
41.3149701719
 11
-0.8048553161
 21
41.7105320182
  0
LINE
  5
32E
100
AcDbEntity
  8
IMPORT_IGES
100
AcDbLine
 62
7
  6
CONTINUOUS
 10
-2.6506147539
 20
-0.1915879335
 11
-2.6506147539
 21
1.4061430666
  0
LINE
  5
32F
100
AcDbEntity
  8
IMPORT_IGES
100
AcDbLine
 62
7
  6
CONTINUOUS
 10
-2.6506147539
 20
36.7004034138
 11
-2.6506147539
 21
38.2981344139
  0
LINE
  5
330
100
AcDbEntity
  8
IMPORT_IGES
100
AcDbLine
 62
7
  6
CONTINUOUS
 10
-2.6
 20
-0.0707953646
 11
-2.6
 21
2.4532732402
  0
LINE
  5
331
100
AcDbEntity
  8
IMPORT_IGES
100
AcDbLine
 62
7
  6
CONTINUOUS
 10
-2.6
 20
35.6532732402
 11
-2.6
 21
38.177341845
  0
LINE
  5
332
100
AcDbEntity
  8
IMPORT_IGES
100
AcDbLine
 62
7
  6
CONTINUOUS
 10
-2.5000000002
 20
27.9287734423
 11
-2.5000000002
 21
29.1777728123
  0
LINE
  5
333
100
AcDbEntity
  8
IMPORT_IGES
100
AcDbLine
 62
7
  6
CONTINUOUS
 10
-2.0
 20
29.738246656
 11
-2.0
 21
27.3952909424
  0
LINE
  5
334
100
AcDbEntity
  8
IMPORT_IGES
100
AcDbLine
 62
7
  6
CONTINUOUS
 10
-1.75
 20
18.0658277961
 11
-1.75
 21
17.7217426789
  0
LINE
  5
335
100
AcDbEntity
  8
IMPORT_IGES
100
AcDbLine
 62
7
  6
CONTINUOUS
 10
-1.75
 20
20.0407192094
 11
-1.75
 21
20.3848038015
  0
LINE
  5
336
100
AcDbEntity
  8
IMPORT_IGES
100
AcDbLine
 62
7
  6
CONTINUOUS
 10
-1.5332459596
 20
-26.5810388633
 11
-1.5332459596
 21
-26.8400388333
  0
LINE
  5
337
100
AcDbEntity
  8
IMPORT_IGES
100
AcDbLine
 62
7
  6
CONTINUOUS
 10
-0.6577209587
 20
-26.7740589438
 11
-0.6577209587
 21
-29.9243033415
  0
LINE
  5
338
100
AcDbEntity
  8
IMPORT_IGES
100
AcDbLine
 62
7
  6
CONTINUOUS
 10
-0.2997879601
 20
-29.9241749183
 11
-0.2997879601
 21
-25.8265245527
  0
LINE
  5
339
100
AcDbEntity
  8
IMPORT_IGES
100
AcDbLine
 62
253
  6
CONTINUOUS
 10
-0.0
 20
-13.2923122965
 11
0.0000000096
 21
-2.4181433055
  0
LINE
  5
33A
100
AcDbEntity
  8
IMPORT_IGES
100
AcDbLine
 62
253
  6
CONTINUOUS
 10
-0.0000000079
 20
40.5356974103
 11
-0.0000000391
 21
41.9058100785
  0
LINE
  5
33B
100
AcDbEntity
  8
IMPORT_IGES
100
AcDbLine
 62
253
  6
CONTINUOUS
 10
-0.0000000446
 20
-40.6977238194
 11
-0.0000000107
 21
-13.294010169
  0
LINE
  5
33C
100
AcDbEntity
  8
IMPORT_IGES
100
AcDbLine
 62
253
  6
CONTINUOUS
 10
0.0000010117
 20
-40.7033197265
 11
0.0000010118
 21
-40.7031510791
  0
LWPOLYLINE
  5
33D
100
AcDbEntity
  8
IMPORT_IGES
100
AcDbPolyline
 62
253
  6
CONTINUOUS
 90
8
 70
0
 10
-0.8048553161
 20
41.7105320182
 10
-0.8047790862
 20
41.7576193915
 10
-0.8042949593
 20
41.7995141985
 10
-0.8035378026
 20
41.8349715405
 10
-0.8026404555
 20
41.8631934304
 10
-0.8016498435
 20
41.8839844865
 10
-0.8005252732
 20
41.8974553495
 10
-0.799270561
 20
41.9037066847
  0
LINE
  5
33E
100
AcDbEntity
  8
IMPORT_IGES
100
AcDbLine
 62
253
  6
CONTINUOUS
 10
0.7941409497
 20
40.6569043378
 11
0.8026911459
 21
40.8666835364
  0
LINE
  5
33F
100
AcDbEntity
  8
IMPORT_IGES
100
AcDbLine
 62
253
  6
CONTINUOUS
 10
0.7908301575
 20
40.5839581053
 11
0.7941409497
 21
40.6569043378
  0
LINE
  5
340
100
AcDbEntity
  8
IMPORT_IGES
100
AcDbLine
 62
7
  6
CONTINUOUS
 10
-2.112012
 20
-14.8554051391
 11
-2.3146930001
 21
-17.7934621399
  0
LINE
  5
341
100
AcDbEntity
  8
IMPORT_IGES
100
AcDbLine
 62
7
  6
CONTINUOUS
 10
-3.2132140001
 20
-17.7934621479
 11
-2.8069249505
 21
-13.2938545501
  0
LINE
  5
342
100
AcDbEntity
  8
IMPORT_IGES
100
AcDbLine
 62
7
  6
CONTINUOUS
 10
-7.2283651233
 20
-28.3325797883
 11
-6.677378863
 21
-26.2252743642
  0
LINE
  5
343
100
AcDbEntity
  8
IMPORT_IGES
100
AcDbLine
 62
7
  6
CONTINUOUS
 10
-7.3055871339
 20
-28.6517338008
 11
-7.6416041532
 21
-29.924262329
  0
LINE
  5
344
100
AcDbEntity
  8
IMPORT_IGES
100
AcDbLine
 62
7
  6
CONTINUOUS
 10
-7.9880580306
 20
-29.9242623933
 11
-6.8819107744
 21
-25.7934618868
  0
LINE
  5
345
100
AcDbEntity
  8
IMPORT_IGES
100
AcDbLine
 62
7
  6
CONTINUOUS
 10
-8.5082757208
 20
-26.1091851191
 11
-9.5445061204
 21
-29.924262088
  0
LINE
  5
346
100
AcDbEntity
  8
IMPORT_IGES
100
AcDbLine
 62
7
  6
CONTINUOUS
 10
-9.7428349782
 20
-29.4144830912
 11
-8.7347230695
 21
-25.7934620744
  0
LINE
  5
347
100
AcDbEntity
  8
IMPORT_IGES
100
AcDbLine
 62
7
  6
CONTINUOUS
 10
-6.8290239432
 20
-16.3911219397
 11
-5.9451469607
 21
-13.2940100011
  0
LINE
  5
348
100
AcDbEntity
  8
IMPORT_IGES
100
AcDbLine
 62
7
  6
CONTINUOUS
 10
-5.0065769954
 20
-13.2940101245
 11
-6.4528809434
 21
-17.7934619626
  0
LINE
  5
349
100
AcDbEntity
  8
IMPORT_IGES
100
AcDbLine
 62
7
  6
CONTINUOUS
 10
-2.6506147539
 20
-0.1915879335
 11
-2.6
 21
-0.0707953646
  0
LWPOLYLINE
  5
34A
100
AcDbEntity
  8
IMPORT_IGES
100
AcDbPolyline
 62
253
  6
CONTINUOUS
 90
43
 70
0
 10
0.0000000051
 20
-2.4181433807
 10
-0.7354288811
 20
-2.4055555676
 10
-1.4685540731
 20
-2.3679357703
 10
-2.1985314663
 20
-2.3054758434
 10
-2.923551598
 20
-2.2185248859
 10
-3.6437825798
 20
-2.1072665423
 10
-4.3613214433
 20
-1.9713871496
 10
-5.0763718837
 20
-1.8106359579
 10
-5.7870026239
 20
-1.6252295261
 10
-6.492065484
 20
-1.4153313531
 10
-7.1916926233
 20
-1.1807175147
 10
-7.884015531
 20
-0.9218226388
 10
-8.5650189068
 20
-0.6402057088
 10
-9.2321801002
 20
-0.3372703162
 10
-9.8866928156
 20
-0.0128347943
 10
-10.5301616348
 20
0.3337940363
 10
-11.1620302467
 20
0.702372128
 10
-11.7813450512
 20
1.0924024551
 10
-12.3889118723
 20
1.5045593436
 10
-12.9852998997
 20
1.9396152291
 10
-13.5682009072
 20
2.3962902331
 10
-14.1342206945
 20
2.8720181465
 10
-14.6817670322
 20
3.3652146315
 10
-15.21133827
 20
3.876082869
 10
-15.7228749571
 20
4.4044879753
 10
-16.2155566782
 20
4.9494944699
 10
-16.6891108775
 20
5.5107138922
 10
-17.1441330102
 20
6.0889795454
 10
-17.5807840832
 20
6.6848585075
 10
-17.9975342852
 20
7.2966475915
 10
-18.3925180044
 20
7.9217187624
 10
-18.7652555358
 20
8.5591303043
 10
-19.1154781371
 20
9.2082300365
 10
-19.4420412915
 20
9.8665773178
 10
-19.7442015515
 20
10.5318821588
 10
-20.0225553334
 20
11.2046064917
 10
-20.2779239725
 20
11.8864568199
 10
-20.5104939156
 20
12.5781845293
 10
-20.7194003419
 20
13.2774845927
 10
-20.9038752295
 20
13.9815044016
 10
-21.0637565462
 20
14.6886886853
 10
-21.1992603804
 20
15.3988514122
 10
-21.3104363864
 20
16.1111407653
  0
LINE
  5
34B
100
AcDbEntity
  8
IMPORT_IGES
100
AcDbLine
 62
7
  6
CONTINUOUS
 10
-3.7528637341
 20
2.4061369743
 11
-3.8
 21
2.4532732402
  0
LINE
  5
34C
100
AcDbEntity
  8
IMPORT_IGES
100
AcDbLine
 62
7
  6
CONTINUOUS
 10
-18.5932972651
 20
21.0532732402
 11
-17.9282644726
 21
20.1532732402
  0
LINE
  5
34D
100
AcDbEntity
  8
IMPORT_IGES
100
AcDbLine
 62
7
  6
CONTINUOUS
 10
-17.0425928395
 20
20.1532732402
 11
-17.707625632
 21
21.0532732402
  0
LINE
  5
34E
100
AcDbEntity
  8
IMPORT_IGES
100
AcDbLine
 62
7
  6
CONTINUOUS
 10
5.197922008
 20
-17.793462165
 11
3.8173783268
 21
-13.2940079446
  0
LINE
  5
34F
100
AcDbEntity
  8
IMPORT_IGES
100
AcDbLine
 62
7
  6
CONTINUOUS
 10
3.9647254101
 20
-16.8952089602
 11
4.2080305212
 21
-17.7934603702
  0
LINE
  5
350
100
AcDbEntity
  8
IMPORT_IGES
100
AcDbLine
 62
7
  6
CONTINUOUS
 10
3.7770247025
 20
-16.2001469878
 11
3.3454447273
 21
-14.5303440838
  0
LWPOLYLINE
  5
351
100
AcDbEntity
  8
IMPORT_IGES
100
AcDbPolyline
 62
253
  6
CONTINUOUS
 90
5
 70
0
 10
-0.7892175882
 20
40.5520125317
 10
-0.7884946097
 20
40.5391734076
 10
-0.787889242
 20
40.5297191569
 10
-0.7874079464
 20
40.5237322204
 10
-0.7870547343
 20
40.5212400347
  0
LWPOLYLINE
  5
352
100
AcDbEntity
  8
IMPORT_IGES
100
AcDbPolyline
 62
7
  6
CONTINUOUS
 90
63
 70
0
 10
2.1213616754
 20
-28.4971530578
 10
2.1175788741
 20
-28.4257363096
 10
2.1118952479
 20
-28.3569866553
 10
2.1045179549
 20
-28.2914211839
 10
2.0955504575
 20
-28.2286675484
 10
2.0851529681
 20
-28.1688520892
 10
2.0735240796
 20
-28.1121651517
 10
2.0608149374
 20
-28.0584796203
 10
2.0470992368
 20
-28.0074256798
 10
2.0325192368
 20
-27.9591019464
 10
2.0171538918
 20
-27.9135132348
 10
2.0009019675
 20
-27.870156648
 10
1.983828807
 20
-27.8290462545
 10
1.9660309298
 20
-27.7902197078
 10
1.9473703857
 20
-27.7532229648
 10
1.9278694992
 20
-27.7180026503
 10
1.9076268729
 20
-27.6846237552
 10
1.8865550324
 20
-27.6528366969
 10
1.8647429943
 20
-27.6226434391
 10
1.842327882
 20
-27.5940817162
 10
1.819277512
 20
-27.5669895121
 10
1.7956952577
 20
-27.541394857
 10
1.7716593807
 20
-27.5172948406
 10
1.7470492056
 20
-27.4945095041
 10
1.7219442828
 20
-27.4730765062
 10
1.6963816348
 20
-27.4529932431
 10
1.6701249552
 20
-27.4340712293
 10
1.6433229947
 20
-27.4164319483
 10
1.6158897892
 20
-27.400030546
 10
1.5871759459
 20
-27.3845057412
 10
1.5571084463
 20
-27.3698625746
 10
1.5257902091
 20
-27.3561892869
 10
1.4927801932
 20
-27.3433530242
 10
1.4577543923
 20
-27.3313361651
 10
1.4210633264
 20
-27.3203587606
 10
1.3832924931
 20
-27.310631487
 10
1.344485762
 20
-27.3021642936
 10
1.3047499003
 20
-27.2949758814
 10
1.2648131421
 20
-27.2891555452
 10
1.2247308075
 20
-27.2846730765
 10
1.1846015801
 20
-27.2815926147
 10
1.1452321491
 20
-27.2800020611
 10
1.1068074817
 20
-27.2798841373
 10
1.0692435871
 20
-27.2812092993
 10
1.0329331466
 20
-27.2839165343
 10
0.9980939973
 20
-27.2879050303
 10
0.9645585602
 20
-27.2931037678
 10
0.9321310433
 20
-27.299472181
 10
0.9008653784
 20
-27.3069348213
 10
0.8707333965
 20
-27.3154284017
 10
0.8414497547
 20
-27.324975242
 10
0.8129872805
 20
-27.335548297
 10
0.7854840433
 20
-27.3470607888
 10
0.7589233273
 20
-27.3594826938
 10
0.7333362134
 20
-27.3727673214
 10
0.7087656917
 20
-27.3868596029
 10
0.6852091044
 20
-27.4017293137
 10
0.6626723573
 20
-27.4173443176
 10
0.6411958561
 20
-27.4336468384
 10
0.6208208525
 20
-27.4505692953
 10
0.6015635317
 20
-27.4680557028
 10
0.5834182338
 20
-27.4860656798
 10
0.5663839198
 20
-27.5045523763
  0
LINE
  5
353
100
AcDbEntity
  8
IMPORT_IGES
100
AcDbLine
 62
253
  6
CONTINUOUS
 10
-0.790990218
 20
40.5872979055
 11
-0.7892175882
 21
40.5520125317
  0
LINE
  5
354
100
AcDbEntity
  8
IMPORT_IGES
100
AcDbLine
 62
253
  6
CONTINUOUS
 10
-0.7956034133
 20
40.6910342963
 11
-0.790990218
 21
40.5872979055
  0
LINE
  5
355
100
AcDbEntity
  8
IMPORT_IGES
100
AcDbLine
 62
253
  6
CONTINUOUS
 10
-0.8026910435
 20
40.8666824869
 11
-0.7956034133
 21
40.6910342963
  0
LWPOLYLINE
  5
356
100
AcDbEntity
  8
IMPORT_IGES
100
AcDbPolyline
 62
7
  6
CONTINUOUS
 90
51
 70
0
 10
2.7384299098
 20
-28.0613925569
 10
2.738947023
 20
-28.1403708099
 10
2.7399720635
 20
-28.2170402531
 10
2.7414732171
 20
-28.291395838
 10
2.7434816161
 20
-28.3634429829
 10
2.7460912031
 20
-28.4331975501
 10
2.7493369339
 20
-28.5006290645
 10
2.7531829741
 20
-28.5657682802
 10
2.7576169835
 20
-28.6287228614
 10
2.762659381
 20
-28.689477669
 10
2.7682889846
 20
-28.7480480581
 10
2.7744311419
 20
-28.8045874135
 10
2.7810793193
 20
-28.859092449
 10
2.7882395383
 20
-28.9115666319
 10
2.7958561017
 20
-28.9621734647
 10
2.8038528933
 20
-29.0109667986
 10
2.8123057222
 20
-29.0578929324
 10
2.821386627
 20
-29.1029539861
 10
2.8311309805
 20
-29.1461707729
 10
2.8415026837
 20
-29.1875224926
 10
2.8525663176
 20
-29.2269487796
 10
2.8643830258
 20
-29.2644149516
 10
2.87689089
 20
-29.2999556362
 10
2.8899699926
 20
-29.3336144409
 10
2.9036509969
 20
-29.3653579648
 10
2.9179028529
 20
-29.3952195819
 10
2.9325134463
 20
-29.4233431373
 10
2.9474702775
 20
-29.4497229108
 10
2.9627859995
 20
-29.4743646813
 10
2.9782866164
 20
-29.4974296322
 10
2.9939577235
 20
-29.5189375111
 10
3.009814236
 20
-29.5388686931
 10
3.0257264183
 20
-29.5573253735
 10
3.0416875095
 20
-29.5742930196
 10
3.0577050269
 20
-29.5897863366
 10
3.0736708397
 20
-29.6039514279
 10
3.0894228322
 20
-29.6167059343
 10
3.1051241188
 20
-29.6281324494
 10
3.1211539897
 20
-29.6386243894
 10
3.1374553576
 20
-29.6482243899
 10
3.1540852272
 20
-29.6568897411
 10
3.1715929188
 20
-29.6648855233
 10
3.1900724919
 20
-29.6723212422
 10
3.2094283874
 20
-29.6790868884
 10
3.2299245747
 20
-29.6851179882
 10
3.2516575671
 20
-29.6904636816
 10
3.274528629
 20
-29.6950740676
 10
3.2985086483
 20
-29.6987360258
 10
3.3235872729
 20
-29.7013782678
 10
3.3497727773
 20
-29.7030713083
 10
3.3770640647
 20
-29.7038147352
  0
LWPOLYLINE
  5
357
100
AcDbEntity
  8
IMPORT_IGES
100
AcDbPolyline
 62
253
  6
CONTINUOUS
 90
8
 70
0
 10
0.8048945313
 20
41.7123497651
 10
0.8046466602
 20
41.7592938242
 10
0.803978752
 20
41.8009692391
 10
0.8030358973
 20
41.8360192648
 10
0.8020654309
 20
41.8637912087
 10
0.8011527153
 20
41.8842380336
 10
0.8002191979
 20
41.8975269474
 10
0.7992685531
 20
41.9037120644
  0
LINE
  5
358
100
AcDbEntity
  8
IMPORT_IGES
100
AcDbLine
 62
7
  6
CONTINUOUS
 10
1.75
 20
17.7217426789
 11
1.75
 21
18.065827292
  0
LINE
  5
359
100
AcDbEntity
  8
IMPORT_IGES
100
AcDbLine
 62
7
  6
CONTINUOUS
 10
1.75
 20
20.0407186632
 11
1.75
 21
20.3848038015
  0
LINE
  5
35A
100
AcDbEntity
  8
IMPORT_IGES
100
AcDbLine
 62
7
  6
CONTINUOUS
 10
1.9574989565
 20
-26.2395731362
 11
1.9574989565
 21
-25.9037540147
  0
LINE
  5
35B
100
AcDbEntity
  8
IMPORT_IGES
100
AcDbLine
 62
7
  6
CONTINUOUS
 10
2.0
 20
8.3683745207
 11
2.0
 21
10.7114635911
  0
LINE
  5
35C
100
AcDbEntity
  8
IMPORT_IGES
100
AcDbLine
 62
7
  6
CONTINUOUS
 10
2.5
 20
10.1777730401
 11
2.5
 21
8.9287734404
  0
LINE
  5
35D
100
AcDbEntity
  8
IMPORT_IGES
100
AcDbLine
 62
7
  6
CONTINUOUS
 10
2.6
 20
38.177341845
 11
2.6
 21
35.6532732402
  0
LINE
  5
35E
100
AcDbEntity
  8
IMPORT_IGES
100
AcDbLine
 62
7
  6
CONTINUOUS
 10
2.6
 20
2.4532732402
 11
2.6
 21
-0.0707953646
  0
LINE
  5
35F
100
AcDbEntity
  8
IMPORT_IGES
100
AcDbLine
 62
7
  6
CONTINUOUS
 10
2.6506147539
 20
38.2981344139
 11
2.6506147539
 21
36.7004034138
  0
LINE
  5
360
100
AcDbEntity
  8
IMPORT_IGES
100
AcDbLine
 62
7
  6
CONTINUOUS
 10
2.6506147539
 20
1.4061430666
 11
2.6506147539
 21
-0.1915879335
  0
LINE
  5
361
100
AcDbEntity
  8
IMPORT_IGES
100
AcDbLine
 62
253
  6
CONTINUOUS
 10
0.8026909717
 20
40.8667046116
 11
0.8048945313
 21
41.7123497651
  0
LWPOLYLINE
  5
362
100
AcDbEntity
  8
IMPORT_IGES
100
AcDbPolyline
 62
7
  6
CONTINUOUS
 90
5
 70
0
 10
2.3819544536
 20
-27.7455469781
 10
2.3809112616
 20
-27.7811477272
 10
2.3801191392
 20
-27.8164766088
 10
2.3796179278
 20
-27.8515344523
 10
2.3794452729
 20
-27.8863230707
  0
LINE
  5
363
100
AcDbEntity
  8
IMPORT_IGES
100
AcDbLine
 62
7
  6
CONTINUOUS
 10
2.3846239592
 20
-27.6735151511
 11
2.3819544536
 21
-27.7455469781
  0
LWPOLYLINE
  5
364
100
AcDbEntity
  8
IMPORT_IGES
100
AcDbPolyline
 62
7
  6
CONTINUOUS
 90
3
 70
0
 10
2.3893883117
 20
-27.5633383837
 10
2.3877648876
 20
-27.6003505878
 10
2.3846239592
 20
-27.6735151511
  0
LINE
  5
365
100
AcDbEntity
  8
IMPORT_IGES
100
AcDbLine
 62
7
  6
CONTINUOUS
 10
0.4266349168
 20
-25.9037377019
 11
0.1897586188
 21
-27.9743838356
  0
LINE
  5
366
100
AcDbEntity
  8
IMPORT_IGES
100
AcDbLine
 62
7
  6
CONTINUOUS
 10
3.7493852461
 20
-0.008010831
 11
3.8
 21
0.1310640669
  0
LINE
  5
367
100
AcDbEntity
  8
IMPORT_IGES
100
AcDbLine
 62
7
  6
CONTINUOUS
 10
17.707625632
 20
21.0532732402
 11
17.0425928395
 21
20.1532732402
  0
LINE
  5
368
100
AcDbEntity
  8
IMPORT_IGES
100
AcDbLine
 62
7
  6
CONTINUOUS
 10
17.9282644726
 20
20.1532732402
 11
18.5932972651
 21
21.0532732402
  0
LINE
  5
369
100
AcDbEntity
  8
IMPORT_IGES
100
AcDbLine
 62
7
  6
CONTINUOUS
 10
3.7528637341
 20
2.4061369743
 11
3.8
 21
2.4532732402
  0
LINE
  5
36A
100
AcDbEntity
  8
IMPORT_IGES
100
AcDbLine
 62
253
  6
CONTINUOUS
 10
22.5221212405
 20
1.6861939185
 11
22.356084744
 21
1.6799275698
  0
LINE
  5
36B
100
AcDbEntity
  8
IMPORT_IGES
100
AcDbLine
 62
253
  6
CONTINUOUS
 10
22.356084744
 20
1.6799275698
 11
22.170992425
 21
1.6743771916
  0
LINE
  5
36C
100
AcDbEntity
  8
IMPORT_IGES
100
AcDbLine
 62
253
  6
CONTINUOUS
 10
22.170992425
 20
1.6743771916
 11
21.9701813085
 21
1.6696642444
  0
LWPOLYLINE
  5
36D
100
AcDbEntity
  8
IMPORT_IGES
100
AcDbPolyline
 62
253
  6
CONTINUOUS
 90
3
 70
0
 10
21.9701813085
 20
1.6696642444
 10
21.7567628231
 20
1.6658368048
 10
21.646946805
 20
1.6642788682
  0
LINE
  5
36E
100
AcDbEntity
  8
IMPORT_IGES
100
AcDbLine
 62
253
  6
CONTINUOUS
 10
3.7493852461
 20
1.4061430666
 11
2.6506147539
 21
1.4061430666
  0
LINE
  5
36F
100
AcDbEntity
  8
IMPORT_IGES
100
AcDbLine
 62
253
  6
CONTINUOUS
 10
-2.6506147539
 20
1.4061430666
 11
-3.7493852461
 21
1.4061430666
  0
LINE
  5
370
100
AcDbEntity
  8
IMPORT_IGES
100
AcDbLine
 62
253
  6
CONTINUOUS
 10
-23.2934535196
 20
1.7325914689
 11
-23.0168967284
 21
1.7325914689
  0
LINE
  5
371
100
AcDbEntity
  8
IMPORT_IGES
100
AcDbLine
 62
253
  6
CONTINUOUS
 10
23.0168969812
 20
1.7325916442
 11
23.2934535196
 21
1.7325916442
  0
LINE
  5
372
100
AcDbEntity
  8
IMPORT_IGES
100
AcDbLine
 62
7
  6
CONTINUOUS
 10
-3.7528637341
 20
2.4061369743
 11
-2.6471362659
 21
2.4061369743
  0
LINE
  5
373
100
AcDbEntity
  8
IMPORT_IGES
100
AcDbLine
 62
7
  6
CONTINUOUS
 10
2.6471362659
 20
2.4061369743
 11
3.7528637341
 21
2.4061369743
  0
LINE
  5
374
100
AcDbEntity
  8
IMPORT_IGES
100
AcDbLine
 62
7
  6
CONTINUOUS
 10
3.8
 20
2.4532732402
 11
2.6
 21
2.4532732402
  0
LINE
  5
375
100
AcDbEntity
  8
IMPORT_IGES
100
AcDbLine
 62
7
  6
CONTINUOUS
 10
-2.6
 20
2.4532732402
 11
-3.8
 21
2.4532732402
  0
LINE
  5
376
100
AcDbEntity
  8
IMPORT_IGES
100
AcDbLine
 62
253
  6
CONTINUOUS
 10
-21.6469542834
 20
1.6642789653
 11
-21.8609780581
 21
1.667567854
  0
LINE
  5
377
100
AcDbEntity
  8
IMPORT_IGES
100
AcDbLine
 62
253
  6
CONTINUOUS
 10
-21.8609780581
 20
1.667567854
 11
-22.0634165113
 21
1.6717037784
  0
LINE
  5
378
100
AcDbEntity
  8
IMPORT_IGES
100
AcDbLine
 62
253
  6
CONTINUOUS
 10
-22.0634165113
 20
1.6717037784
 11
-22.2511238272
 21
1.6766205068
  0
LWPOLYLINE
  5
379
100
AcDbEntity
  8
IMPORT_IGES
100
AcDbPolyline
 62
253
  6
CONTINUOUS
 90
15
 70
0
 10
-22.2511238272
 20
1.6766205068
 10
-22.4238660331
 20
1.6823152224
 10
-22.5039384938
 20
1.6854345259
 10
-22.5793613165
 20
1.6887261915
 10
-22.6495883757
 20
1.692176594
 10
-22.7145456967
 20
1.6957889735
 10
-22.7739855337
 20
1.6995496774
 10
-22.8275047612
 20
1.7034344413
 10
-22.8748341097
 20
1.707427773
 10
-22.9155812362
 20
1.7115048273
 10
-22.9495000934
 20
1.7156473383
 10
-22.9766439466
 20
1.7198502081
 10
-22.9969760519
 20
1.7240968123
 10
-23.010410086
 20
1.7283583164
 10
-23.0169088984
 20
1.7326096449
  0
LINE
  5
37A
100
AcDbEntity
  8
IMPORT_IGES
100
AcDbLine
 62
7
  6
CONTINUOUS
 10
2.6471362659
 20
2.4061369743
 11
2.6
 21
2.4532732402
  0
LINE
  5
37B
100
AcDbEntity
  8
IMPORT_IGES
100
AcDbLine
 62
7
  6
CONTINUOUS
 10
2.6
 20
-0.0707953646
 11
2.6506147539
 21
-0.1915879335
  0
LWPOLYLINE
  5
37C
100
AcDbEntity
  8
IMPORT_IGES
100
AcDbPolyline
 62
7
  6
CONTINUOUS
 90
4
 70
0
 10
7.4364731495
 20
-16.4283906543
 10
7.4809479752
 20
-16.5564493544
 10
7.5225624222
 20
-16.6914837344
 10
7.6540697639
 20
-17.130991525
  0
LINE
  5
37D
100
AcDbEntity
  8
IMPORT_IGES
100
AcDbLine
 62
7
  6
CONTINUOUS
 10
7.6540697639
 20
-17.130991525
 11
7.7484947845
 21
-17.4513638864
  0
LINE
  5
37E
100
AcDbEntity
  8
IMPORT_IGES
100
AcDbLine
 62
7
  6
CONTINUOUS
 10
7.7484947845
 20
-17.4513638864
 11
7.8474267433
 21
-17.7934614465
  0
LWPOLYLINE
  5
37F
100
AcDbEntity
  8
IMPORT_IGES
100
AcDbPolyline
 62
7
  6
CONTINUOUS
 90
26
 70
0
 10
8.3976137225
 20
-16.4578217612
 10
8.3816994195
 20
-16.4015187344
 10
8.365552165
 20
-16.3471617292
 10
8.3489881046
 20
-16.2948931238
 10
8.3319002718
 20
-16.24490797
 10
8.3142020482
 20
-16.1972836607
 10
8.2958310979
 20
-16.1520291231
 10
8.2767896279
 20
-16.1092010273
 10
8.2571411001
 20
-16.0688800219
 10
8.2369083552
 20
-16.0309705731
 10
8.2160848297
 20
-15.9952848325
 10
8.1947591268
 20
-15.9618027616
 10
8.1730709669
 20
-15.9305556193
 10
8.1510755364
 20
-15.901430607
 10
8.1289118798
 20
-15.8744193694
 10
8.1066801789
 20
-15.8494465751
 10
8.0843544628
 20
-15.8263157292
 10
8.0620758327
 20
-15.8050576137
 10
8.0399480637
 20
-15.7856538617
 10
8.0178553128
 20
-15.7679011803
 10
7.9958684852
 20
-15.7517714233
 10
7.9740888477
 20
-15.7372456296
 10
7.9523990726
 20
-15.7241626053
 10
7.9307934457
 20
-15.712454798
 10
7.9093971412
 20
-15.7021209297
 10
7.8882687781
 20
-15.6931099863
  0
LINE
  5
380
100
AcDbEntity
  8
IMPORT_IGES
100
AcDbLine
 62
253
  6
CONTINUOUS
 10
-4.7703191557
 20
40.1666762644
 11
-4.7588709542
 21
40.1117443322
  0
LWPOLYLINE
  5
381
100
AcDbEntity
  8
IMPORT_IGES
100
AcDbPolyline
 62
253
  6
CONTINUOUS
 90
8
 70
0
 10
-4.7588709542
 20
40.1117443322
 10
-4.7499065891
 20
40.0672545941
 10
-4.74640975
 20
40.0492095545
 10
-4.7436286075
 20
40.0342605185
 10
-4.7415690293
 20
40.0224386924
 10
-4.7402276643
 20
40.0137481144
 10
-4.7396040726
 20
40.0082227431
 10
-4.7396882195
 20
40.0058494897
  0
LINE
  5
382
100
AcDbEntity
  8
IMPORT_IGES
100
AcDbLine
 62
7
  6
CONTINUOUS
 10
7.539876271
 20
-25.7934621387
 11
8.3392239026
 21
-29.924262316
  0
LINE
  5
383
100
AcDbEntity
  8
IMPORT_IGES
100
AcDbLine
 62
7
  6
CONTINUOUS
 10
8.5372994475
 20
-29.3077481701
 11
7.9040699615
 21
-25.7934621255
  0
LINE
  5
384
100
AcDbEntity
  8
IMPORT_IGES
100
AcDbLine
 62
7
  6
CONTINUOUS
 10
-2.7332486184
 20
28.2550848508
 11
-2.7021808492
 21
28.0464867202
  0
LWPOLYLINE
  5
385
100
AcDbEntity
  8
IMPORT_IGES
100
AcDbPolyline
 62
253
  6
CONTINUOUS
 90
7
 70
0
 10
4.7396848025
 20
40.005850301
 10
4.7395961491
 20
40.0082070749
 10
4.7402151666
 20
40.0137294304
 10
4.7415647853
 20
40.0224897392
 10
4.7436620603
 20
40.0345316824
 10
4.74652374
 20
40.0499072128
 10
4.7501421655
 20
40.0685637085
  0
LWPOLYLINE
  5
386
100
AcDbEntity
  8
IMPORT_IGES
100
AcDbPolyline
 62
7
  6
CONTINUOUS
 90
51
 70
0
 10
4.9834315779
 20
-28.0614051464
 10
4.9839488037
 20
-28.1403958119
 10
4.9849739781
 20
-28.217077747
 10
4.9864756721
 20
-28.2914459741
 10
4.9884850517
 20
-28.3635058268
 10
4.9910957389
 20
-28.4332729156
 10
4.9943428802
 20
-28.5007167876
 10
4.9981908215
 20
-28.5658681523
 10
5.002626866
 20
-28.6288343162
 10
5.0076715758
 20
-28.6896000455
 10
5.0133039358
 20
-28.7481807832
 10
5.0194489439
 20
-28.8047298367
 10
5.026100098
 20
-28.8592439411
 10
5.0332636414
 20
-28.9117265569
 10
5.0408837867
 20
-28.9623410738
 10
5.0488845153
 20
-29.0111416475
 10
5.0573417409
 20
-29.0580743007
 10
5.0664273984
 20
-29.1031401612
 10
5.0761771578
 20
-29.1463598284
 10
5.0865547793
 20
-29.1877127306
 10
5.0976240702
 20
-29.2271381651
 10
5.109446181
 20
-29.2646011298
 10
5.1219593116
 20
-29.3001366015
 10
5.1350429349
 20
-29.3337888612
 10
5.1487276063
 20
-29.3655244517
 10
5.1629824844
 20
-29.3953768602
 10
5.1775953249
 20
-29.4234908726
 10
5.1925535146
 20
-29.4498609595
 10
5.2078699065
 20
-29.474492785
 10
5.2233708509
 20
-29.4975480214
 10
5.2390419903
 20
-29.5190465359
 10
5.254898267
 20
-29.5389686644
 10
5.2708102663
 20
-29.557416853
 10
5.2867713598
 20
-29.5743767592
 10
5.3027889995
 20
-29.5898629787
 10
5.3187550846
 20
-29.6040214148
 10
5.3345074487
 20
-29.6167697208
 10
5.3502093237
 20
-29.6281905535
 10
5.3662402513
 20
-29.6386771873
 10
5.3825434707
 20
-29.6482723728
 10
5.3991756489
 20
-29.6569333274
 10
5.4166852908
 20
-29.6649246833
 10
5.4351669299
 20
-29.6723559089
 10
5.4545244259
 20
-29.6791170581
 10
5.4750192899
 20
-29.6851433532
 10
5.4967476981
 20
-29.6904834744
 10
5.5196110924
 20
-29.6950880258
 10
5.5435786594
 20
-29.6987450443
 10
5.5686394272
 20
-29.7013836579
 10
5.5948021257
 20
-29.7030740477
 10
5.6220655696
 20
-29.7038158475
  0
LINE
  5
387
100
AcDbEntity
  8
IMPORT_IGES
100
AcDbLine
 62
7
  6
CONTINUOUS
 10
3.7493852461
 20
-0.008010831
 11
3.7493852461
 21
1.4061430666
  0
LINE
  5
388
100
AcDbEntity
  8
IMPORT_IGES
100
AcDbLine
 62
7
  6
CONTINUOUS
 10
3.7493852461
 20
36.7004034138
 11
3.7493852461
 21
38.1145573115
  0
LINE
  5
389
100
AcDbEntity
  8
IMPORT_IGES
100
AcDbLine
 62
7
  6
CONTINUOUS
 10
3.8
 20
0.1310640669
 11
3.8
 21
2.4532732402
  0
LINE
  5
38A
100
AcDbEntity
  8
IMPORT_IGES
100
AcDbLine
 62
7
  6
CONTINUOUS
 10
3.8
 20
35.6532732402
 11
3.8
 21
37.9754824136
  0
LINE
  5
38B
100
AcDbEntity
  8
IMPORT_IGES
100
AcDbLine
 62
7
  6
CONTINUOUS
 10
5.4737202652
 20
-13.2940101387
 11
5.4737202652
 21
-17.7934616379
  0
LINE
  5
38C
100
AcDbEntity
  8
IMPORT_IGES
100
AcDbLine
 62
7
  6
CONTINUOUS
 10
6.3780103081
 20
-14.0605363319
 11
6.3780103081
 21
-15.2957225145
  0
LINE
  5
38D
100
AcDbEntity
  8
IMPORT_IGES
100
AcDbLine
 62
7
  6
CONTINUOUS
 10
6.4091531651
 20
-17.7934615139
 11
6.4091531651
 21
-16.0326247232
  0
LWPOLYLINE
  5
38E
100
AcDbEntity
  8
IMPORT_IGES
100
AcDbPolyline
 62
7
  6
CONTINUOUS
 90
58
 70
0
 10
4.0590140415
 20
-27.8234918184
 10
4.0588508095
 20
-27.9058795577
 10
4.0583310902
 20
-27.9860437815
 10
4.057386471
 20
-28.0639616791
 10
4.0559648321
 20
-28.1395880765
 10
4.0540278381
 20
-28.2129329875
 10
4.0515477123
 20
-28.2840612238
 10
4.0485101094
 20
-28.3529560138
 10
4.0449110951
 20
-28.4196161842
 10
4.0407500966
 20
-28.4841332901
 10
4.0360404194
 20
-28.5464871965
 10
4.0308009514
 20
-28.6066926156
 10
4.0250433182
 20
-28.6648951944
 10
4.0187956205
 20
-28.72109389
 10
4.0120909726
 20
-28.775292433
 10
4.0049459325
 20
-28.8276441379
 10
3.9973952595
 20
-28.8781630644
 10
3.9894801656
 20
-28.9268426934
 10
3.9811922565
 20
-28.9737957684
 10
3.9724817566
 20
-29.0190054212
 10
3.9633138748
 20
-29.0624450445
 10
3.9536505078
 20
-29.1041972446
 10
3.9434900485
 20
-29.1442510479
 10
3.9328458346
 20
-29.1826056671
 10
3.9217106447
 20
-29.2193593816
 10
3.9100971699
 20
-29.2544974265
 10
3.8980326988
 20
-29.2879947638
 10
3.8855242942
 20
-29.319922242
 10
3.8726173414
 20
-29.3502760765
 10
3.8593665403
 20
-29.3790624259
 10
3.8457943466
 20
-29.4063732777
 10
3.831983619
 20
-29.4321882887
 10
3.817987261
 20
-29.456554503
 10
3.803763376
 20
-29.4796007573
 10
3.7893742901
 20
-29.5012442911
 10
3.7748753571
 20
-29.5214467782
 10
3.7601800993
 20
-29.5403716056
 10
3.7453335445
 20
-29.5579981029
 10
3.7303871587
 20
-29.5743164561
 10
3.7152274103
 20
-29.5894916338
 10
3.6998865502
 20
-29.6035198976
 10
3.6844012526
 20
-29.6164038155
 10
3.6686276004
 20
-29.6282848438
 10
3.6525996363
 20
-29.6391455084
 10
3.6363236247
 20
-29.6489957374
 10
3.6196044309
 20
-29.6579819215
 10
3.6025231473
 20
-29.66610057
 10
3.5851290916
 20
-29.6733651279
 10
3.5671681534
 20
-29.6798873572
 10
3.5486603948
 20
-29.6856357089
 10
3.5296830811
 20
-29.6905597883
 10
3.510045811
 20
-29.6946640144
 10
3.4897890088
 20
-29.6979131254
 10
3.468928957
 20
-29.7003569652
 10
3.4472313223
 20
-29.702085154
 10
3.4246297303
 20
-29.7031703674
 10
3.4012309
 20
-29.7037038635
 10
3.3770642183
 20
-29.703815847
  0
LWPOLYLINE
  5
38F
100
AcDbEntity
  8
IMPORT_IGES
100
AcDbPolyline
 62
7
  6
CONTINUOUS
 90
58
 70
0
 10
6.3040153615
 20
-27.8234919126
 10
6.3038509826
 20
-27.9061626183
 10
6.3033274413
 20
-27.9865865437
 10
6.3023758358
 20
-28.0647406608
 10
6.300943838
 20
-28.1405786859
 10
6.2989931019
 20
-28.214111481
 10
6.2964959246
 20
-28.2854066513
 10
6.2934382514
 20
-28.354447291
 10
6.289816568
 20
-28.4212323465
 10
6.2856305931
 20
-28.4858565778
 10
6.2808941565
 20
-28.5482999799
 10
6.2756267464
 20
-28.6085772519
 10
6.2698402815
 20
-28.6668370322
 10
6.2635634068
 20
-28.7230787167
 10
6.2568298879
 20
-28.7773057647
 10
6.2496565866
 20
-28.8296734023
 10
6.2420788225
 20
-28.8801958339
 10
6.2341382973
 20
-28.9288665442
 10
6.225823766
 20
-28.9757990256
 10
6.2170850068
 20
-29.0209762657
 10
6.2078884802
 20
-29.064371906
 10
6.1981969445
 20
-29.1060702888
 10
6.1880100605
 20
-29.1460606175
 10
6.1773423646
 20
-29.1843426
 10
6.1661866412
 20
-29.2210159736
 10
6.1545561405
 20
-29.2560658255
 10
6.142479498
 20
-29.289467633
 10
6.1299643582
 20
-29.3212942214
 10
6.117056971
 20
-29.3515428207
 10
6.1038131841
 20
-29.3802196869
 10
6.090256232
 20
-29.4074173113
 10
6.0764702861
 20
-29.4331150248
 10
6.0625084877
 20
-29.4573600984
 10
6.0483277774
 20
-29.4802822248
 10
6.0339911556
 20
-29.501800381
 10
6.0195542028
 20
-29.5218784864
 10
6.0049282622
 20
-29.5406844853
 10
5.990159215
 20
-29.5581980184
 10
5.9752977309
 20
-29.5744113364
 10
5.9602247653
 20
-29.5894954287
 10
5.9449711512
 20
-29.6034472081
 10
5.9295735384
 20
-29.6162683014
 10
5.9138837108
 20
-29.6281025184
 10
5.897933875
 20
-29.6389318778
 10
5.8817297245
 20
-29.6487644727
 10
5.8650720922
 20
-29.6577457157
 10
5.8480399821
 20
-29.6658702641
 10
5.8306815699
 20
-29.6731496236
 10
5.8127407987
 20
-29.679694511
 10
5.7942321402
 20
-29.6854727291
 10
5.7752366908
 20
-29.6904299557
 10
5.7555769281
 20
-29.69456615
 10
5.7353115912
 20
-29.6978409517
 10
5.7144401354
 20
-29.7003069844
 10
5.6926888951
 20
-29.7020562942
 10
5.6699779122
 20
-29.703158385
 10
5.6464268913
 20
-29.7037014075
 10
5.6220655695
 20
-29.703815847
  0
LWPOLYLINE
  5
390
100
AcDbEntity
  8
IMPORT_IGES
100
AcDbPolyline
 62
7
  6
CONTINUOUS
 90
5
 70
0
 10
4.6269555942
 20
-27.7455525291
 10
4.6259124453
 20
-27.7811529577
 10
4.6251203821
 20
-27.8164807648
 10
4.6246192241
 20
-27.8515368652
 10
4.624446593
 20
-27.8863230708
  0
LINE
  5
391
100
AcDbEntity
  8
IMPORT_IGES
100
AcDbLine
 62
7
  6
CONTINUOUS
 10
4.6296250972
 20
-27.6735196013
 11
4.6269555942
 21
-27.7455525291
  0
LWPOLYLINE
  5
392
100
AcDbEntity
  8
IMPORT_IGES
100
AcDbPolyline
 62
7
  6
CONTINUOUS
 90
3
 70
0
 10
4.6382898704
 20
-27.4717548437
 10
4.6327661244
 20
-27.6003524785
 10
4.6296250972
 20
-27.6735196013
  0
LWPOLYLINE
  5
393
100
AcDbEntity
  8
IMPORT_IGES
100
AcDbPolyline
 62
7
  6
CONTINUOUS
 90
48
 70
0
 10
4.6382898704
 20
-27.4717548437
 10
4.6430258685
 20
-27.3829657064
 10
4.6485990132
 20
-27.2969715783
 10
4.6548979168
 20
-27.2137157927
 10
4.6620362615
 20
-27.1332560834
 10
4.6703531515
 20
-27.0557646719
 10
4.679946788
 20
-26.9812716041
 10
4.6907209872
 20
-26.9097477796
 10
4.702723302
 20
-26.841276699
 10
4.716041424
 20
-26.7759266076
 10
4.7305883799
 20
-26.7136298468
 10
4.7461493825
 20
-26.6542659695
 10
4.7627655962
 20
-26.5978933761
 10
4.7803952915
 20
-26.5444538894
 10
4.7986991292
 20
-26.4936521259
 10
4.8176726722
 20
-26.445479049
 10
4.8373191581
 20
-26.3999437041
 10
4.8573108538
 20
-26.3567778354
 10
4.8775830942
 20
-26.3159599107
 10
4.898199281
 20
-26.277511408
 10
4.9190239903
 20
-26.2412286188
 10
4.9399951024
 20
-26.2071455682
 10
4.9611734967
 20
-26.1752281344
 10
4.9826083633
 20
-26.1451703882
 10
5.0042711334
 20
-26.1169880396
 10
5.0261890615
 20
-26.0906652027
 10
5.0484950659
 20
-26.0658485168
 10
5.0712209174
 20
-26.0424959766
 10
5.0943333239
 20
-26.0206493062
 10
5.1178675882
 20
-26.0000807074
 10
5.1418066301
 20
-25.9807619867
 10
5.1661659238
 20
-25.9627210078
 10
5.191029552
 20
-25.9458140304
 10
5.2163406164
 20
-25.9300055327
 10
5.2421541737
 20
-25.9153306284
 10
5.2687218658
 20
-25.9017514253
 10
5.2960848194
 20
-25.8892196496
 10
5.3241991573
 20
-25.8777829226
 10
5.3531884383
 20
-25.8675470443
 10
5.3830296618
 20
-25.8585743551
 10
5.4137422809
 20
-25.8508016555
 10
5.4455129565
 20
-25.8441462864
 10
5.4783251303
 20
-25.8386111003
 10
5.5121907938
 20
-25.8341921139
 10
5.5473386684
 20
-25.8307962148
 10
5.5838428327
 20
-25.8283918223
 10
5.6216231243
 20
-25.827008991
 10
5.6606763459
 20
-25.8266469168
  0
LINE
  5
394
100
AcDbEntity
  8
IMPORT_IGES
100
AcDbLine
 62
7
  6
CONTINUOUS
 10
0.5663839198
 20
-27.5045523763
 11
0.7240410195
 21
-26.2395731363
  0
LINE
  5
395
100
AcDbEntity
  8
IMPORT_IGES
100
AcDbLine
 62
7
  6
CONTINUOUS
 10
2.9087452593
 20
-13.2941974117
 11
1.4974717972
 21
-17.7935169835
  0
LINE
  5
396
100
AcDbEntity
  8
IMPORT_IGES
100
AcDbLine
 62
7
  6
CONTINUOUS
 10
-0.9392110001
 20
-15.7921201391
 11
-0.0000000045
 21
-13.2940101509
  0
LINE
  5
397
100
AcDbEntity
  8
IMPORT_IGES
100
AcDbLine
 62
7
  6
CONTINUOUS
 10
0.238245
 20
-14.8676521387
 11
-0.8784625065
 21
-17.7934215458
  0
LINE
  5
398
100
AcDbEntity
  8
IMPORT_IGES
100
AcDbLine
 62
7
  6
CONTINUOUS
 10
8.4679894956
 20
-16.7171431993
 11
8.3976137225
 21
-16.4578217612
  0
LINE
  5
399
100
AcDbEntity
  8
IMPORT_IGES
100
AcDbLine
 62
7
  6
CONTINUOUS
 10
8.7508395782
 20
-17.7934616396
 11
8.7163320275
 21
-17.6645851616
  0
LINE
  5
39A
100
AcDbEntity
  8
IMPORT_IGES
100
AcDbLine
 62
7
  6
CONTINUOUS
 10
8.5417191786
 20
-16.9954512429
 11
8.4679894956
 21
-16.7171431993
  0
LINE
  5
39B
100
AcDbEntity
  8
IMPORT_IGES
100
AcDbLine
 62
7
  6
CONTINUOUS
 10
8.7163320275
 20
-17.6645851616
 11
8.5417191786
 21
-16.9954512429
  0
LINE
  5
39C
100
AcDbEntity
  8
IMPORT_IGES
100
AcDbLine
 62
253
  6
CONTINUOUS
 10
-4.8328462982
 20
40.4528483142
 11
-4.7991621229
 21
40.3007276444
  0
LWPOLYLINE
  5
39D
100
AcDbEntity
  8
IMPORT_IGES
100
AcDbPolyline
 62
253
  6
CONTINUOUS
 90
3
 70
0
 10
-4.7991621229
 20
40.3007276444
 10
-4.7768619649
 20
40.1975126486
 10
-4.7703191557
 20
40.1666762644
  0
LINE
  5
39E
100
AcDbEntity
  8
IMPORT_IGES
100
AcDbLine
 62
7
  6
CONTINUOUS
 10
9.418693801
 20
-26.3584264428
 11
10.1121891819
 21
-29.9242621867
  0
LINE
  5
39F
100
AcDbEntity
  8
IMPORT_IGES
100
AcDbLine
 62
7
  6
CONTINUOUS
 10
10.3162717649
 20
-29.3264550961
 11
9.6332071899
 21
-25.7934619416
  0
LINE
  5
3A0
100
AcDbEntity
  8
IMPORT_IGES
100
AcDbLine
 62
7
  6
CONTINUOUS
 10
2.7332486184
 20
9.8514616296
 11
2.7021808492
 21
10.0600597602
  0
LINE
  5
3A1
100
AcDbEntity
  8
RACCORDO
100
AcDbLine
 62
253
  6
CONTINUOUS
 10
7.0
 20
-40.4828778685
 11
7.0
 21
-42.2467267598
  0
LINE
  5
3A2
100
AcDbEntity
  8
RACCORDO
100
AcDbLine
 62
7
  6
CONTINUOUS
 10
7.5
 20
-41.7467267598
 11
7.5
 21
-40.4504897632
  0
LINE
  5
3A3
100
AcDbEntity
  8
IMPORT_IGES
100
AcDbLine
 62
7
  6
CONTINUOUS
 10
7.8883882597
 20
-15.6930895316
 11
7.8883882597
 21
-15.6665266034
  0
LINE
  5
3A4
100
AcDbEntity
  8
IMPORT_IGES
100
AcDbLine
 62
7
  6
CONTINUOUS
 10
3.3454452538
 20
-14.5303442325
 11
2.8777961969
 21
-16.2001474356
  0
LINE
  5
3A5
100
AcDbEntity
  8
IMPORT_IGES
100
AcDbLine
 62
7
  6
CONTINUOUS
 10
2.4265122362
 20
-17.7934613273
 11
2.6856753338
 21
-16.895209981
  0
LINE
  5
3A6
100
AcDbEntity
  8
IMPORT_IGES
100
AcDbLine
 62
7
  6
CONTINUOUS
 10
-3.9687086691
 20
-28.1288088749
 11
-4.855712727
 21
-29.9242620925
  0
LINE
  5
3A7
100
AcDbEntity
  8
IMPORT_IGES
100
AcDbLine
 62
7
  6
CONTINUOUS
 10
-5.2418201055
 20
-29.9242623582
 11
-4.1784588271
 21
-27.7925511712
  0
LINE
  5
3A8
100
AcDbEntity
  8
IMPORT_IGES
100
AcDbLine
 62
7
  6
CONTINUOUS
 10
-3.9687086615
 20
-27.4512307225
 11
-3.1265757186
 21
-25.7934618912
  0
LINE
  5
3A9
100
AcDbEntity
  8
IMPORT_IGES
100
AcDbLine
 62
7
  6
CONTINUOUS
 10
-2.7300340589
 20
-25.7934621388
 11
-3.7547836457
 21
-27.7925511615
  0
LINE
  5
3AA
100
AcDbEntity
  8
IMPORT_IGES
100
AcDbLine
 62
253
  6
CONTINUOUS
 10
-23.3
 20
9.6532732402
 11
-23.1965656098
 21
9.6532732402
  0
LINE
  5
3AB
100
AcDbEntity
  8
IMPORT_IGES
100
AcDbLine
 62
253
  6
CONTINUOUS
 10
23.1965656098
 20
9.6532732402
 11
23.3
 21
9.6532732402
  0
LINE
  5
3AC
100
AcDbEntity
  8
IMPORT_IGES
100
AcDbLine
 62
7
  6
CONTINUOUS
 10
-1.5011106999
 20
19.0532732402
 11
-0.7505553499
 21
17.7532732402
  0
LINE
  5
3AD
100
AcDbEntity
  8
IMPORT_IGES
100
AcDbLine
 62
7
  6
CONTINUOUS
 10
-1.443375673
 20
19.0532732402
 11
-0.7216878365
 21
17.8032732402
  0
LINE
  5
3AE
100
AcDbEntity
  8
IMPORT_IGES
100
AcDbLine
 62
253
  6
CONTINUOUS
 10
-19.4939512441
 20
-38.0117649006
 11
-19.6620813113
 21
-38.1833796438
  0
LWPOLYLINE
  5
3AF
100
AcDbEntity
  8
IMPORT_IGES
100
AcDbPolyline
 62
253
  6
CONTINUOUS
 90
13
 70
0
 10
23.0169089287
 20
1.7326096874
 10
23.0105638673
 20
1.7284243792
 10
22.9975648724
 20
1.7242463388
 10
22.9780335403
 20
1.7200997906
 10
22.9522077959
 20
1.7160215393
 10
22.9201762111
 20
1.7120171393
 10
22.8816651764
 20
1.708061886
 10
22.8367905468
 20
1.7041698708
 10
22.7858882097
 20
1.7003671371
 10
22.7288464163
 20
1.696649353
 10
22.6657957822
 20
1.6930361613
 10
22.5969235626
 20
1.6895505167
 10
22.5221212405
 20
1.6861939185
  0
LWPOLYLINE
  5
3B0
100
AcDbEntity
  8
IMPORT_IGES
100
AcDbPolyline
 62
253
  6
CONTINUOUS
 90
5
 70
0
 10
0.7674210313
 20
12.1934484636
 10
0.4505147801
 20
12.1647849235
 10
0.0134301683
 20
12.1532011706
 10
-0.424991764
 20
12.169795233
 10
-0.7371671268
 20
12.2015549729
  0
LINE
  5
3B1
100
AcDbEntity
  8
IMPORT_IGES
100
AcDbLine
 62
7
  6
CONTINUOUS
 10
1.443375673
 20
19.0532732402
 11
0.7216878365
 21
20.3032732402
  0
LINE
  5
3B2
100
AcDbEntity
  8
IMPORT_IGES
100
AcDbLine
 62
7
  6
CONTINUOUS
 10
1.5011106999
 20
19.0532732402
 11
0.7505553499
 21
20.3532732402
  0
LINE
  5
3B3
100
AcDbEntity
  8
IMPORT_IGES
100
AcDbLine
 62
7
  6
CONTINUOUS
 10
-2.6
 20
38.177341845
 11
-2.6506147539
 21
38.2981344139
  0
LINE
  5
3B4
100
AcDbEntity
  8
IMPORT_IGES
100
AcDbLine
 62
7
  6
CONTINUOUS
 10
14.0
 20
21.3532732402
 11
14.0
 21
16.7532732402
  0
LINE
  5
3B5
100
AcDbEntity
  8
IMPORT_IGES
100
AcDbLine
 62
7
  6
CONTINUOUS
 10
14.1
 20
20.1532732402
 11
14.1
 21
17.9532732402
  0
LINE
  5
3B6
100
AcDbEntity
  8
IMPORT_IGES
100
AcDbLine
 62
253
  6
CONTINUOUS
 10
14.9539377826
 20
20.1532732402
 11
14.9539377826
 21
17.9532732402
  0
LINE
  5
3B7
100
AcDbEntity
  8
IMPORT_IGES
100
AcDbLine
 62
253
  6
CONTINUOUS
 10
15.4
 20
16.7532732402
 11
15.4
 21
17.9532732402
  0
LINE
  5
3B8
100
AcDbEntity
  8
IMPORT_IGES
100
AcDbLine
 62
253
  6
CONTINUOUS
 10
15.4
 20
20.1532732402
 11
15.4
 21
21.3532732402
  0
LINE
  5
3B9
100
AcDbEntity
  8
IMPORT_IGES
100
AcDbLine
 62
7
  6
CONTINUOUS
 10
10.9824971388
 20
-25.7934620902
 11
10.3162718272
 21
-29.3264551391
  0
LINE
  5
3BA
100
AcDbEntity
  8
IMPORT_IGES
100
AcDbLine
 62
7
  6
CONTINUOUS
 10
8.7409853208
 20
-29.9242622862
 11
9.4186938639
 21
-26.3584264842
  0
LINE
  5
3BB
100
AcDbEntity
  8
IMPORT_IGES
100
AcDbLine
 62
7
  6
CONTINUOUS
 10
9.2199682499
 20
-25.793462015
 11
8.5372994811
 21
-29.3077481888
  0
LINE
  5
3BC
100
AcDbEntity
  8
IMPORT_IGES
100
AcDbLine
 62
7
  6
CONTINUOUS
 10
10.5149927758
 20
-29.9242622872
 11
11.3289500587
 21
-25.7934621385
  0
LWPOLYLINE
  5
3BD
100
AcDbEntity
  8
IMPORT_IGES
100
AcDbPolyline
 62
7
  6
CONTINUOUS
 90
7
 70
0
 10
23.2934535196
 20
32.4953146896
 10
23.2876643356
 20
32.4749588637
 10
23.2819509357
 20
32.442638703
 10
23.2763133198
 20
32.3983542075
 10
23.2707346925
 20
32.3418843142
 10
23.2652318492
 20
32.2734500861
 10
23.2598551763
 20
32.1937147124
  0
LINE
  5
3BE
100
AcDbEntity
  8
IMPORT_IGES
100
AcDbLine
 62
253
  6
CONTINUOUS
 10
-18.4374234765
 20
-39.3912494501
 11
-18.2672566342
 21
-39.2208721814
  0
LWPOLYLINE
  5
3BF
100
AcDbEntity
  8
IMPORT_IGES
100
AcDbPolyline
 62
7
  6
CONTINUOUS
 90
4
 70
0
 10
-1.75
 20
18.038801686
 10
-1.8373271824
 20
18.0746273829
 10
-1.9221258341
 20
18.1088465278
 10
-2.0013753368
 20
18.1402617212
  0
LINE
  5
3C0
100
AcDbEntity
  8
IMPORT_IGES
100
AcDbLine
 62
7
  6
CONTINUOUS
 10
-1.7300562456
 20
18.0548791351
 11
-1.75
 21
18.0658319808
  0
LINE
  5
3C1
100
AcDbEntity
  8
IMPORT_IGES
100
AcDbLine
 62
253
  6
CONTINUOUS
 10
-23.2934535192
 20
39.1392110024
 11
-23.025061282
 21
38.9075220816
  0
LWPOLYLINE
  5
3C2
100
AcDbEntity
  8
IMPORT_IGES
100
AcDbPolyline
 62
7
  6
CONTINUOUS
 90
19
 70
0
 10
17.8628355545
 20
19.1532732402
 10
17.8601904572
 20
19.2418325919
 10
17.8528497845
 20
19.3283345745
 10
17.8408135362
 20
19.412779188
 10
17.8239119255
 20
19.4957545124
 10
17.8023147392
 20
19.5766724677
 10
17.7765313386
 20
19.653768814
 10
17.7464782263
 20
19.7269581631
 10
17.7122388996
 20
19.7963259032
 10
17.674573211
 20
19.8603639591
 10
17.6334114012
 20
19.9189638916
 10
17.5888232295
 20
19.97223414
 10
17.5417778265
 20
20.0189919464
 10
17.492220231
 20
20.0591074561
 10
17.4402054042
 20
20.0927105238
 10
17.3868673607
 20
20.1190079555
 10
17.3325841054
 20
20.1377353531
 10
17.2769776334
 20
20.1491571147
 10
17.2200479448
 20
20.1532732402
  0
LINE
  5
3C3
100
AcDbEntity
  8
IMPORT_IGES
100
AcDbLine
 62
7
  6
CONTINUOUS
 10
17.25
 20
19.1532732402
 11
17.25
 21
18.9532732402
  0
LINE
  5
3C4
100
AcDbEntity
  8
IMPORT_IGES
100
AcDbLine
 62
7
  6
CONTINUOUS
 10
17.8628355545
 20
19.1532732402
 11
17.8628355545
 21
18.9532732402
  0
LINE
  5
3C5
100
AcDbEntity
  8
IMPORT_IGES
100
AcDbLine
 62
253
  6
CONTINUOUS
 10
19.0130772178
 20
17.0532732402
 11
19.0130772178
 21
18.5532732402
  0
LINE
  5
3C6
100
AcDbEntity
  8
IMPORT_IGES
100
AcDbLine
 62
253
  6
CONTINUOUS
 10
19.0130772178
 20
19.5532732402
 11
19.0130772178
 21
21.0532732402
  0
LINE
  5
3C7
100
AcDbEntity
  8
IMPORT_IGES
100
AcDbLine
 62
253
  6
CONTINUOUS
 10
19.2840580092
 20
19.0115308097
 11
19.2840580092
 21
19.0950156707
  0
LINE
  5
3C8
100
AcDbEntity
  8
IMPORT_IGES
100
AcDbLine
 62
7
  6
CONTINUOUS
 10
19.4
 20
20.3270366465
 11
19.4
 21
19.5532732402
  0
LINE
  5
3C9
100
AcDbEntity
  8
IMPORT_IGES
100
AcDbLine
 62
7
  6
CONTINUOUS
 10
19.4
 20
18.5532732402
 11
19.4
 21
17.7795098339
  0
LWPOLYLINE
  5
3CA
100
AcDbEntity
  8
IMPORT_IGES
100
AcDbPolyline
 62
7
  6
CONTINUOUS
 90
19
 70
0
 10
17.25
 20
18.9532732402
 10
17.2473549027
 20
18.8647138885
 10
17.24001423
 20
18.7782119059
 10
17.2279779817
 20
18.6937672924
 10
17.211076371
 20
18.610791968
 10
17.1894791847
 20
18.5298740127
 10
17.1636957841
 20
18.4527776664
 10
17.1336426718
 20
18.3795883173
 10
17.0994033451
 20
18.3102205773
 10
17.0617376565
 20
18.2461825214
 10
17.0205758467
 20
18.1875825888
 10
16.975987675
 20
18.1343123404
 10
16.928942272
 20
18.087554534
 10
16.8793846765
 20
18.0474390243
 10
16.8273698497
 20
18.0138359566
 10
16.7740318062
 20
17.9875385249
 10
16.7197485509
 20
17.9688111273
 10
16.6641420789
 20
17.9573893657
 10
16.6072123903
 20
17.9532732402
  0
LWPOLYLINE
  5
3CB
100
AcDbEntity
  8
IMPORT_IGES
100
AcDbPolyline
 62
253
  6
CONTINUOUS
 90
22
 70
0
 10
21.5800230237
 20
39.0240242215
 10
21.5905857462
 20
39.1263388111
 10
21.5991166383
 20
39.2277772556
 10
21.6055546597
 20
39.3275505451
 10
21.6098650481
 20
39.4243836977
 10
21.6121071424
 20
39.5180677956
 10
21.612311664
 20
39.6094710434
 10
21.6104674121
 20
39.6981341868
 10
21.6065853874
 20
39.7832272157
 10
21.6006294492
 20
39.8649776619
 10
21.5926277921
 20
39.94274614
 10
21.5826122544
 20
40.0159752851
 10
21.5704989546
 20
40.0848808429
 10
21.556293893
 20
40.1490135659
 10
21.54008561
 20
40.2075618149
 10
21.5219142688
 20
40.2601802003
 10
21.5019287848
 20
40.3063481396
 10
21.4802477808
 20
40.3457025587
 10
21.4568855315
 20
40.3781949654
 10
21.4319668304
 20
40.4035422251
 10
21.4057467561
 20
40.4214537277
 10
21.3784496876
 20
40.431889751
  0
LWPOLYLINE
  5
3CC
100
AcDbEntity
  8
IMPORT_IGES
100
AcDbPolyline
 62
253
  6
CONTINUOUS
 90
43
 70
0
 10
21.3104363553
 20
16.1111408932
 10
21.200542449
 20
15.406251606
 10
21.0664984612
 20
14.7018704291
 10
20.9080994102
 20
13.9988582736
 10
20.7250138125
 20
13.2975576281
 10
20.5172186912
 20
12.5994141551
 10
20.2851815759
 20
11.9069193288
 10
20.0289267728
 20
11.220800685
 10
19.7486188385
 20
10.5420769006
 10
19.4453469558
 20
9.8735434845
 10
19.1200968163
 20
9.2171588376
 10
18.7727390104
 20
8.572458184
 10
18.4027619948
 20
7.93858239
 10
18.0098279317
 20
7.3154021515
 10
17.5948154195
 20
6.7047376618
 10
17.159047673
 20
6.1086399547
 10
16.7031015062
 20
5.5278987825
 10
16.2274456874
 20
4.9631166296
 10
15.7335057973
 20
4.4158585823
 10
15.2227145541
 20
3.8874471044
 10
14.6950433196
 20
3.3776015413
 10
14.14970266
 20
2.8855038983
 10
13.5868321637
 20
2.4114293688
 10
13.0074461404
 20
1.9563830713
 10
12.4119396939
 20
1.5207828837
 10
11.7999062759
 20
1.1045494293
 10
11.1729887429
 20
0.7090199348
 10
10.534859857
 20
0.3364301399
 10
9.8881449143
 20
-0.0120831827
 10
9.2320151165
 20
-0.3373484032
 10
8.5650364519
 20
-0.6401976738
 10
7.887540386
 20
-0.9204331707
 10
7.2007181969
 20
-1.1775137627
 10
6.5042913003
 20
-1.4114584723
 10
5.7978234252
 20
-1.6222056149
 10
5.0832766133
 20
-1.8089589905
 10
4.3640253925
 20
-1.970827506
 10
3.6419304143
 20
-2.1075850092
 10
2.916879635
 20
-2.2194389456
 10
2.189348498
 20
-2.3064165035
 10
1.4600616229
 20
-2.368513844
 10
0.7299969007
 20
-2.4057394583
 10
0.0000000051
 20
-2.4181433807
  0
LWPOLYLINE
  5
3CD
100
AcDbEntity
  8
IMPORT_IGES
100
AcDbPolyline
 62
7
  6
CONTINUOUS
 90
58
 70
0
 10
8.0881529513
 20
-15.537510689
 10
8.1015112981
 20
-15.5257934773
 10
8.1151878379
 20
-15.5136337922
 10
8.1292362617
 20
-15.5009171763
 10
8.1436276811
 20
-15.487588834
 10
8.1583133865
 20
-15.4735988736
 10
8.1733046954
 20
-15.4588232243
 10
8.1885476045
 20
-15.4432017026
 10
8.2040079522
 20
-15.4266994378
 10
8.2197139389
 20
-15.4092170993
 10
8.2356098404
 20
-15.390740057
 10
8.2516589934
 20
-15.3712303
 10
8.2679022465
 20
-15.3505443295
 10
8.284270491
 20
-15.3286631368
 10
8.3007066469
 20
-15.3055493139
 10
8.3172451991
 20
-15.2810202337
 10
8.3337946427
 20
-15.2550557507
 10
8.3502709417
 20
-15.2276196845
 10
8.3666847436
 20
-15.1984934081
 10
8.3829056418
 20
-15.167671897
 10
8.3988266717
 20
-15.1351092159
 10
8.4144529731
 20
-15.1005077819
 10
8.429697655
 20
-15.0636994199
 10
8.4443534863
 20
-15.024788919
 10
8.4582278443
 20
-14.9838908515
 10
8.4712216734
 20
-14.9408542481
 10
8.483140856
 20
-14.8958234322
 10
8.4937177083
 20
-14.8493912342
 10
8.5028607401
 20
-14.8016186861
 10
8.5104881986
 20
-14.7525267884
 10
8.5164595162
 20
-14.7026859905
 10
8.5207415665
 20
-14.6521583056
 10
8.523300904
 20
-14.6010181357
 10
8.5241059451
 20
-14.5498729751
 10
8.52317777
 20
-14.4987561778
 10
8.5205274054
 20
-14.4477863481
 10
8.5161962088
 20
-14.3976890992
 10
8.5102488171
 20
-14.3487465787
 10
8.5027046719
 20
-14.3007774024
 10
8.4935954214
 20
-14.2537976523
 10
8.4829733229
 20
-14.2079095997
 10
8.4708656996
 20
-14.1630847874
 10
8.4572473239
 20
-14.1191455523
 10
8.4421679754
 20
-14.0761331173
 10
8.4256999191
 20
-14.034118002
 10
8.4078344387
 20
-13.9929879441
 10
8.3886216164
 20
-13.952806345
 10
8.3681059455
 20
-13.9136238458
 10
8.3462314919
 20
-13.8753231476
 10
8.3230005398
 20
-13.8379300575
 10
8.2984604685
 20
-13.8015394227
 10
8.2725957161
 20
-13.7661216126
 10
8.2454167543
 20
-13.7316850673
 10
8.2169461118
 20
-13.6982541077
 10
8.1871766647
 20
-13.6658197744
 10
8.1561138968
 20
-13.6343925342
 10
8.1237792815
 20
-13.6039996439
 10
8.0901867126
 20
-13.5746597867
  0
LWPOLYLINE
  5
3CE
100
AcDbEntity
  8
IMPORT_IGES
100
AcDbPolyline
 62
7
  6
CONTINUOUS
 90
9
 70
0
 10
7.9492258927
 20
-15.6466551801
 10
7.9599439706
 20
-15.6406612974
 10
7.9707709932
 20
-15.6339137603
 10
7.9816800375
 20
-15.6264639476
 10
7.992662272
 20
-15.6183738311
 10
8.0037575742
 20
-15.6096874527
 10
8.0150200862
 20
-15.6004518547
 10
8.0264643143
 20
-15.5907658788
 10
8.0881529513
 20
-15.537510689
  0
LWPOLYLINE
  5
3CF
100
AcDbEntity
  8
IMPORT_IGES
100
AcDbPolyline
 62
253
  6
CONTINUOUS
 90
14
 70
0
 10
-21.575730464
 20
16.0549631353
 10
-21.5413028975
 20
16.0606265491
 10
-21.5080990095
 20
16.0662526125
 10
-21.4764725633
 20
16.0717863123
 10
-21.4467440935
 20
16.0771795979
 10
-21.419293113
 20
16.0823745175
 10
-21.3945244294
 20
16.0873080768
 10
-21.3727088041
 20
16.0919311742
 10
-21.3540255416
 20
16.0961961788
 10
-21.3385994716
 20
16.1000660094
 10
-21.3265287676
 20
16.1035129153
 10
-21.3178419551
 20
16.1065166065
 10
-21.3124994724
 20
16.1090624439
 10
-21.3104363047
 20
16.1111411044
  0
LINE
  5
3D0
100
AcDbEntity
  8
IMPORT_IGES
100
AcDbLine
 62
253
  6
CONTINUOUS
 10
21.4941182403
 20
22.1250206113
 11
21.5629617604
 21
22.1363640705
  0
LINE
  5
3D1
100
AcDbEntity
  8
IMPORT_IGES
100
AcDbLine
 62
253
  6
CONTINUOUS
 10
21.5629617604
 20
22.1363640705
 11
21.6370820818
 21
22.1480316568
  0
LINE
  5
3D2
100
AcDbEntity
  8
IMPORT_IGES
100
AcDbLine
 62
253
  6
CONTINUOUS
 10
-21.6466837003
 20
16.0437716024
 11
-21.575730464
 21
16.0549631353
  0
LWPOLYLINE
  5
3D3
100
AcDbEntity
  8
IMPORT_IGES
100
AcDbPolyline
 62
7
  6
CONTINUOUS
 90
19
 70
0
 10
17.2200479448
 20
17.9532732402
 10
17.2769727988
 20
17.9573882811
 10
17.3325752014
 20
17.9688083406
 10
17.3868551527
 20
17.9875334187
 10
17.4401906631
 20
18.0138276573
 10
17.4922037222
 20
18.0474269145
 10
17.5417602983
 20
18.0875387653
 10
17.5888055051
 20
18.1342931081
 10
17.6333942289
 20
18.1875600445
 10
17.6745570978
 20
18.2461574537
 10
17.7122244084
 20
18.3101938619
 10
17.746465864
 20
18.3795607431
 10
17.7765212026
 20
18.4527503974
 10
17.8023069552
 20
18.5298483296
 10
17.8239065908
 20
18.610769035
 10
17.840810254
 20
18.6937483002
 10
17.8528479932
 20
18.7781980538
 10
17.86018976
 20
18.8647063672
 10
17.8628355545
 20
18.9532732402
  0
LINE
  5
3D4
100
AcDbEntity
  8
IMPORT_IGES
100
AcDbLine
 62
7
  6
CONTINUOUS
 10
-19.305285244
 20
16.7532732402
 11
-14.0
 21
16.7532732402
  0
LINE
  5
3D5
100
AcDbEntity
  8
IMPORT_IGES
100
AcDbLine
 62
7
  6
CONTINUOUS
 10
14.0
 20
16.7532732402
 11
19.305285244
 21
16.7532732402
  0
LINE
  5
3D6
100
AcDbEntity
  8
IMPORT_IGES
100
AcDbLine
 62
7
  6
CONTINUOUS
 10
-19.3384173925
 20
17.0532732402
 11
-17.707625632
 21
17.0532732402
  0
LINE
  5
3D7
100
AcDbEntity
  8
IMPORT_IGES
100
AcDbLine
 62
7
  6
CONTINUOUS
 10
17.707625632
 20
17.0532732402
 11
19.3384173925
 21
17.0532732402
  0
LINE
  5
3D8
100
AcDbEntity
  8
IMPORT_IGES
100
AcDbLine
 62
7
  6
CONTINUOUS
 10
0.7505553499
 20
17.7532732402
 11
-0.7505553499
 21
17.7532732402
  0
LINE
  5
3D9
100
AcDbEntity
  8
IMPORT_IGES
100
AcDbLine
 62
7
  6
CONTINUOUS
 10
-0.7216878365
 20
17.8032732402
 11
0.7216878365
 21
17.8032732402
  0
LINE
  5
3DA
100
AcDbEntity
  8
IMPORT_IGES
100
AcDbLine
 62
7
  6
CONTINUOUS
 10
-17.9282644726
 20
17.9532732402
 11
-14.1
 21
17.9532732402
  0
LINE
  5
3DB
100
AcDbEntity
  8
IMPORT_IGES
100
AcDbLine
 62
7
  6
CONTINUOUS
 10
14.1
 20
17.9532732402
 11
17.9282644726
 21
17.9532732402
  0
LINE
  5
3DC
100
AcDbEntity
  8
IMPORT_IGES
100
AcDbLine
 62
7
  6
CONTINUOUS
 10
19.4
 20
18.5532732402
 11
17.8085596137
 21
18.5532732402
  0
LINE
  5
3DD
100
AcDbEntity
  8
IMPORT_IGES
100
AcDbLine
 62
7
  6
CONTINUOUS
 10
-17.8085600463
 20
18.5532732402
 11
-19.4
 21
18.5532732402
  0
LINE
  5
3DE
100
AcDbEntity
  8
IMPORT_IGES
100
AcDbLine
 62
253
  6
CONTINUOUS
 10
-17.8628355545
 20
18.9532732402
 11
-17.25
 21
18.9532732402
  0
LINE
  5
3DF
100
AcDbEntity
  8
IMPORT_IGES
100
AcDbLine
 62
253
  6
CONTINUOUS
 10
17.25
 20
18.9532732402
 11
17.8628355545
 21
18.9532732402
  0
LINE
  5
3E0
100
AcDbEntity
  8
IMPORT_IGES
100
AcDbLine
 62
253
  6
CONTINUOUS
 10
-19.4415362938
 20
19.0115308097
 11
-17.8628355545
 21
19.0115308097
  0
LINE
  5
3E1
100
AcDbEntity
  8
IMPORT_IGES
100
AcDbLine
 62
253
  6
CONTINUOUS
 10
17.8628355545
 20
19.0115308097
 11
19.4415362938
 21
19.0115308097
  0
LINE
  5
3E2
100
AcDbEntity
  8
IMPORT_IGES
100
AcDbLine
 62
253
  6
CONTINUOUS
 10
19.4415362938
 20
19.0950156707
 11
17.8628355545
 21
19.0950156707
  0
LINE
  5
3E3
100
AcDbEntity
  8
IMPORT_IGES
100
AcDbLine
 62
253
  6
CONTINUOUS
 10
-17.8628355545
 20
19.0950156707
 11
-19.4415362938
 21
19.0950156707
  0
LINE
  5
3E4
100
AcDbEntity
  8
IMPORT_IGES
100
AcDbLine
 62
253
  6
CONTINUOUS
 10
17.8628355545
 20
19.1532732402
 11
17.25
 21
19.1532732402
  0
LINE
  5
3E5
100
AcDbEntity
  8
IMPORT_IGES
100
AcDbLine
 62
253
  6
CONTINUOUS
 10
-17.25
 20
19.1532732402
 11
-17.8628355545
 21
19.1532732402
  0
LINE
  5
3E6
100
AcDbEntity
  8
IMPORT_IGES
100
AcDbLine
 62
7
  6
CONTINUOUS
 10
-19.4
 20
19.5532732402
 11
-17.8085596137
 21
19.5532732402
  0
LINE
  5
3E7
100
AcDbEntity
  8
IMPORT_IGES
100
AcDbLine
 62
7
  6
CONTINUOUS
 10
17.8085600463
 20
19.5532732402
 11
19.4
 21
19.5532732402
  0
LWPOLYLINE
  5
3E8
100
AcDbEntity
  8
IMPORT_IGES
100
AcDbPolyline
 62
253
  6
CONTINUOUS
 90
10
 70
0
 10
-0.0
 20
17.3239839183
 10
-0.2130651962
 20
17.3301674652
 10
-0.4246971429
 20
17.3486765102
 10
-0.6334722317
 20
17.3793865465
 10
-0.8379860718
 20
17.4220909935
 10
-1.0368629369
 20
17.4765025864
 10
-1.2287650198
 20
17.5422553085
 10
-1.4124014312
 20
17.6189068537
 10
-1.5865368834
 20
17.7059416014
 10
-1.75
 20
17.8027740853
  0
LWPOLYLINE
  5
3E9
100
AcDbEntity
  8
IMPORT_IGES
100
AcDbPolyline
 62
7
  6
CONTINUOUS
 90
19
 70
0
 10
-16.6072123903
 20
17.9532732402
 10
-16.6641372443
 20
17.9573882811
 10
-16.7197396469
 20
17.9688083406
 10
-16.7740195982
 20
17.9875334187
 10
-16.8273551086
 20
18.0138276573
 10
-16.8793681677
 20
18.0474269145
 10
-16.9289247438
 20
18.0875387653
 10
-16.9759699506
 20
18.1342931081
 10
-17.0205586744
 20
18.1875600445
 10
-17.0617215433
 20
18.2461574537
 10
-17.0993888539
 20
18.3101938619
 10
-17.1336303095
 20
18.3795607431
 10
-17.1636856481
 20
18.4527503974
 10
-17.1894714007
 20
18.5298483296
 10
-17.2110710363
 20
18.610769035
 10
-17.2279746996
 20
18.6937483002
 10
-17.2400124387
 20
18.7781980538
 10
-17.2473542055
 20
18.8647063672
 10
-17.25
 20
18.9532732402
  0
LINE
  5
3EA
100
AcDbEntity
  8
IMPORT_IGES
100
AcDbLine
 62
253
  6
CONTINUOUS
 10
-21.6370814981
 20
22.1480383088
 11
-21.5629596911
 21
22.1363710152
  0
LWPOLYLINE
  5
3EB
100
AcDbEntity
  8
IMPORT_IGES
100
AcDbPolyline
 62
253
  6
CONTINUOUS
 90
13
 70
0
 10
-21.5629596911
 20
22.1363710152
 10
-21.4941164862
 20
22.1250279315
 10
-21.462622741
 20
22.1196274852
 10
-21.4332322163
 20
22.1144345297
 10
-21.4062738151
 20
22.1095057119
 10
-21.3820707546
 20
22.1048970908
 10
-21.3606741652
 20
22.1006183402
 10
-21.3422476663
 20
22.0967059137
 10
-21.3269679957
 20
22.0931995732
 10
-21.3149251183
 20
22.0901174779
 10
-21.3061806482
 20
22.0874791442
 10
-21.3007422897
 20
22.0853027729
 10
-21.2985789803
 20
22.0835989403
  0
LWPOLYLINE
  5
3EC
100
AcDbEntity
  8
IMPORT_IGES
100
AcDbPolyline
 62
7
  6
CONTINUOUS
 90
3
 70
0
 10
2.0013753702
 20
19.9662846802
 10
1.9223750872
 20
19.9975994676
 10
1.837465499
 20
20.0318625878
  0
LINE
  5
3ED
100
AcDbEntity
  8
IMPORT_IGES
100
AcDbLine
 62
7
  6
CONTINUOUS
 10
1.837465499
 20
20.0318625878
 11
1.75
 21
20.0677447944
  0
LWPOLYLINE
  5
3EE
100
AcDbEntity
  8
IMPORT_IGES
100
AcDbPolyline
 62
7
  6
CONTINUOUS
 90
20
 70
0
 10
1.7337090107
 20
20.0496774515
 10
1.5849223447
 20
20.1252444201
 10
1.4260071592
 20
20.1948081167
 10
1.2576023852
 20
20.257673168
 10
1.0809639269
 20
20.3130186796
 10
0.8969107373
 20
20.3602933396
 10
0.7064132501
 20
20.3989674676
 10
0.5108438963
 20
20.4285279262
 10
0.3116354223
 20
20.4485918113
 10
0.1100927466
 20
20.4589129892
 10
-0.0924300396
 20
20.4593460779
 10
-0.2943960381
 20
20.4498636449
 10
-0.4944485112
 20
20.4305564551
 10
-0.691246552
 20
20.4016198755
 10
-0.8832832426
 20
20.3633971346
 10
-1.0691783175
 20
20.3163532949
 10
-1.2478660333
 20
20.2609952001
 10
-1.418321063
 20
20.1979093968
 10
-1.5793029828
 20
20.1278902601
 10
-1.7300560119
 20
20.0516674723
  0
LINE
  5
3EF
100
AcDbEntity
  8
IMPORT_IGES
100
AcDbLine
 62
7
  6
CONTINUOUS
 10
1.75
 20
20.0407145024
 11
1.7337090107
 21
20.0496774515
  0
LINE
  5
3F0
100
AcDbEntity
  8
IMPORT_IGES
100
AcDbLine
 62
7
  6
CONTINUOUS
 10
-21.7433369122
 20
40.3911596036
 11
-22.0140349355
 21
40.622425013
  0
LINE
  5
3F1
100
AcDbEntity
  8
IMPORT_IGES
100
AcDbLine
 62
7
  6
CONTINUOUS
 10
3.8
 20
37.9754824136
 11
3.7493852461
 21
38.1145573115
  0
LWPOLYLINE
  5
3F2
100
AcDbEntity
  8
IMPORT_IGES
100
AcDbPolyline
 62
253
  6
CONTINUOUS
 90
13
 70
0
 10
19.2840580092
 20
19.0950156707
 10
19.2819521308
 20
19.143243883
 10
19.2756541344
 20
19.191022339
 10
19.2652227524
 20
19.2379054768
 10
19.2507552635
 20
19.2834560838
 10
19.2323865855
 20
19.327249374
 10
19.210288017
 20
19.3688769495
 10
19.1846656402
 20
19.4079506087
 10
19.1557583985
 20
19.444105967
 10
19.1238358689
 20
19.4770058547
 10
19.0891957476
 20
19.506343461
 10
19.0521610739
 20
19.5318451957
 10
19.0130772178
 20
19.5532732402
  0
LINE
  5
3F3
100
AcDbEntity
  8
IMPORT_IGES
100
AcDbLine
 62
7
  6
CONTINUOUS
 10
19.2981420344
 20
21.0489419584
 11
19.2852010177
 21
21.3532734923
  0
LWPOLYLINE
  5
3F4
100
AcDbEntity
  8
IMPORT_IGES
100
AcDbPolyline
 62
253
  6
CONTINUOUS
 90
4
 70
0
 10
21.5800198465
 20
39.0239966056
 10
21.5966373402
 20
35.2983825418
 10
21.6041125473
 20
33.4301885147
 10
21.6110051379
 20
31.5584599446
  0
LINE
  5
3F5
100
AcDbEntity
  8
IMPORT_IGES
100
AcDbLine
 62
253
  6
CONTINUOUS
 10
21.6110051379
 20
31.5584599446
 11
21.6230887995
 21
27.8045416292
  0
LWPOLYLINE
  5
3F6
100
AcDbEntity
  8
IMPORT_IGES
100
AcDbPolyline
 62
253
  6
CONTINUOUS
 90
3
 70
0
 10
21.6230887995
 20
27.8045416292
 10
21.6329895115
 20
24.036902544
 10
21.6370907125
 20
22.1480329879
  0
LINE
  5
3F7
100
AcDbEntity
  8
IMPORT_IGES
100
AcDbLine
 62
253
  6
CONTINUOUS
 10
21.6466085629
 20
16.0437850298
 11
21.6491479467
 21
12.6825493971
  0
LINE
  5
3F8
100
AcDbEntity
  8
IMPORT_IGES
100
AcDbLine
 62
253
  6
CONTINUOUS
 10
21.6491479467
 20
12.6825493971
 11
21.6502483403
 21
9.4159251843
  0
LINE
  5
3F9
100
AcDbEntity
  8
IMPORT_IGES
100
AcDbLine
 62
253
  6
CONTINUOUS
 10
21.6502483403
 20
9.4159251843
 11
21.6498445158
 21
6.2440809723
  0
LWPOLYLINE
  5
3FA
100
AcDbEntity
  8
IMPORT_IGES
100
AcDbPolyline
 62
253
  6
CONTINUOUS
 90
3
 70
0
 10
21.6498445158
 20
6.2440809723
 10
21.6482334534
 20
3.1671344089
 10
21.6468674784
 20
1.6642778381
  0
LWPOLYLINE
  5
3FB
100
AcDbEntity
  8
IMPORT_IGES
100
AcDbPolyline
 62
253
  6
CONTINUOUS
 90
10
 70
0
 10
21.514061927
 20
19.0549999264
 10
21.5116258534
 20
18.7329887702
 10
21.5043001511
 20
18.4097175362
 10
21.4920263726
 20
18.0852619835
 10
21.4747600583
 20
17.7599601958
 10
21.4524396072
 20
17.4336305423
 10
21.4249467158
 20
17.1055739795
 10
21.3921661714
 20
16.775616818
 10
21.3540255391
 20
16.4441084397
 10
21.3104363553
 20
16.1111408932
  0
LWPOLYLINE
  5
3FC
100
AcDbEntity
  8
IMPORT_IGES
100
AcDbPolyline
 62
253
  6
CONTINUOUS
 90
16
 70
0
 10
21.6468674784
 20
1.6642778381
 10
21.6248717884
 20
-1.214358128
 10
21.5657661317
 20
-4.058338082
 10
21.4709510097
 20
-6.8674534351
 10
21.341570143
 20
-9.6401112945
 10
21.1785913742
 20
-12.3776955966
 10
20.9830340269
 20
-15.0845177234
 10
20.7562331749
 20
-17.762177367
 10
20.4991886795
 20
-20.408921688
 10
20.2124421211
 20
-23.024071237
 10
19.8975330053
 20
-25.6081452655
 10
19.5556405467
 20
-28.1606403082
 10
19.186966606
 20
-30.6794448769
 10
18.7926968405
 20
-33.1639384275
 10
18.374882991
 20
-35.614936528
 10
17.9351837137
 20
-38.0325473357
  0
LINE
  5
3FD
100
AcDbEntity
  8
IMPORT_IGES
100
AcDbLine
 62
7
  6
CONTINUOUS
 10
23.2067344098
 20
30.2608908446
 11
23.2023298491
 21
29.8532459795
  0
LINE
  5
3FE
100
AcDbEntity
  8
IMPORT_IGES
100
AcDbLine
 62
7
  6
CONTINUOUS
 10
23.2122874652
 20
30.6465393955
 11
23.2067344098
 21
30.2608908446
  0
LINE
  5
3FF
100
AcDbEntity
  8
IMPORT_IGES
100
AcDbLine
 62
7
  6
CONTINUOUS
 10
23.2189371713
 20
31.0066653099
 11
23.2122874652
 21
30.6465393955
  0
LINE
  5
400
100
AcDbEntity
  8
IMPORT_IGES
100
AcDbLine
 62
7
  6
CONTINUOUS
 10
23.2265967178
 20
31.3361519044
 11
23.2189371713
 21
31.0066653099
  0
LINE
  5
401
100
AcDbEntity
  8
IMPORT_IGES
100
AcDbLine
 62
7
  6
CONTINUOUS
 10
23.2351546219
 20
31.6306221776
 11
23.2265967178
 21
31.3361519044
  0
LWPOLYLINE
  5
402
100
AcDbEntity
  8
IMPORT_IGES
100
AcDbPolyline
 62
7
  6
CONTINUOUS
 90
4
 70
0
 10
23.2546058506
 20
32.1025779876
 10
23.2494826953
 20
32.0001401173
 10
23.244532567
 20
31.8873649074
 10
23.2351546219
 20
31.6306221776
  0
LINE
  5
403
100
AcDbEntity
  8
IMPORT_IGES
100
AcDbLine
 62
7
  6
CONTINUOUS
 10
23.2598551763
 20
32.1937147124
 11
23.2546058506
 21
32.1025779876
  0
LWPOLYLINE
  5
404
100
AcDbEntity
  8
IMPORT_IGES
100
AcDbPolyline
 62
253
  6
CONTINUOUS
 90
10
 70
0
 10
21.6466612542
 20
16.0427089581
 10
21.7133321092
 20
16.7196144187
 10
21.7629982938
 20
17.396963655
 10
21.7957024128
 20
18.0747835745
 10
21.811500111
 20
18.7533180332
 10
21.8104547804
 20
19.4323953776
 10
21.7926008644
 20
20.1114241697
 10
21.757852416
 20
20.7902269228
 10
21.7060430508
 20
21.4690349176
 10
21.6370757883
 20
22.1478553966
  0
LWPOLYLINE
  5
405
100
AcDbEntity
  8
IMPORT_IGES
100
AcDbPolyline
 62
7
  6
CONTINUOUS
 90
19
 70
0
 10
-17.2200479448
 20
20.1532732402
 10
-17.2769727988
 20
20.1491581994
 10
-17.3325752014
 20
20.1377381399
 10
-17.3868551527
 20
20.1190130617
 10
-17.4401906631
 20
20.0927188231
 10
-17.4922037222
 20
20.0591195659
 10
-17.5417602983
 20
20.0190077151
 10
-17.5888055051
 20
19.9722533723
 10
-17.6333942289
 20
19.9189864359
 10
-17.6745570978
 20
19.8603890268
 10
-17.7122244084
 20
19.7963526185
 10
-17.746465864
 20
19.7269857374
 10
-17.7765212026
 20
19.653796083
 10
-17.8023069552
 20
19.5766981508
 10
-17.8239065908
 20
19.4957774454
 10
-17.840810254
 20
19.4127981803
 10
-17.8528479932
 20
19.3283484266
 10
-17.86018976
 20
19.2418401132
 10
-17.8628355545
 20
19.1532732402
  0
LINE
  5
406
100
AcDbEntity
  8
IMPORT_IGES
100
AcDbLine
 62
7
  6
CONTINUOUS
 10
17.9282644726
 20
20.1532732402
 11
14.1
 21
20.1532732402
  0
LINE
  5
407
100
AcDbEntity
  8
IMPORT_IGES
100
AcDbLine
 62
7
  6
CONTINUOUS
 10
-14.1
 20
20.1532732402
 11
-17.9282644726
 21
20.1532732402
  0
LINE
  5
408
100
AcDbEntity
  8
IMPORT_IGES
100
AcDbLine
 62
7
  6
CONTINUOUS
 10
0.7216878365
 20
20.3032732402
 11
-0.7216878365
 21
20.3032732402
  0
LINE
  5
409
100
AcDbEntity
  8
IMPORT_IGES
100
AcDbLine
 62
7
  6
CONTINUOUS
 10
-0.7505553499
 20
20.3532732402
 11
0.7505553499
 21
20.3532732402
  0
LINE
  5
40A
100
AcDbEntity
  8
IMPORT_IGES
100
AcDbLine
 62
7
  6
CONTINUOUS
 10
19.3384173925
 20
21.0532732402
 11
17.707625632
 21
21.0532732402
  0
LINE
  5
40B
100
AcDbEntity
  8
IMPORT_IGES
100
AcDbLine
 62
7
  6
CONTINUOUS
 10
-17.707625632
 20
21.0532732402
 11
-19.3384173925
 21
21.0532732402
  0
LINE
  5
40C
100
AcDbEntity
  8
IMPORT_IGES
100
AcDbLine
 62
7
  6
CONTINUOUS
 10
19.305285244
 20
21.3532732402
 11
14.0
 21
21.3532732402
  0
LINE
  5
40D
100
AcDbEntity
  8
IMPORT_IGES
100
AcDbLine
 62
7
  6
CONTINUOUS
 10
-14.0
 20
21.3532732402
 11
-19.305285244
 21
21.3532732402
  0
LWPOLYLINE
  5
40E
100
AcDbEntity
  8
IMPORT_IGES
100
AcDbPolyline
 62
253
  6
CONTINUOUS
 90
10
 70
0
 10
-0.0
 20
20.7825625621
 10
0.2130651962
 20
20.7763790152
 10
0.4246971429
 20
20.7578699702
 10
0.6334722317
 20
20.7271599339
 10
0.8379860717
 20
20.6844554869
 10
1.0368629369
 20
20.630043894
 10
1.2287650198
 20
20.5642911719
 10
1.4124014312
 20
20.4876396267
 10
1.5865368834
 20
20.400604879
 10
1.75
 20
20.3037723951
  0
LWPOLYLINE
  5
40F
100
AcDbEntity
  8
IMPORT_IGES
100
AcDbPolyline
 62
7
  6
CONTINUOUS
 90
19
 70
0
 10
16.6072123903
 20
20.1532732402
 10
16.6641372443
 20
20.1491581994
 10
16.7197396469
 20
20.1377381399
 10
16.7740195982
 20
20.1190130617
 10
16.8273551086
 20
20.0927188231
 10
16.8793681677
 20
20.0591195659
 10
16.9289247438
 20
20.0190077151
 10
16.9759699506
 20
19.9722533723
 10
17.0205586744
 20
19.9189864359
 10
17.0617215433
 20
19.8603890268
 10
17.0993888539
 20
19.7963526185
 10
17.1336303095
 20
19.7269857374
 10
17.1636856481
 20
19.653796083
 10
17.1894714007
 20
19.5766981508
 10
17.2110710363
 20
19.4957774454
 10
17.2279746996
 20
19.4127981803
 10
17.2400124387
 20
19.3283484266
 10
17.2473542055
 20
19.2418401132
 10
17.25
 20
19.1532732402
  0
LWPOLYLINE
  5
410
100
AcDbEntity
  8
IMPORT_IGES
100
AcDbPolyline
 62
7
  6
CONTINUOUS
 90
7
 70
0
 10
23.2598545113
 20
5.9128424643
 10
23.2652312562
 20
5.8331045068
 10
23.2707341878
 20
5.7646678304
 10
23.2763129186
 20
5.7081958764
 10
23.281950653
 20
5.663909792
 10
23.2876641867
 20
5.63158843
 10
23.2934535196
 20
5.6112317906
  0
LINE
  5
411
100
AcDbEntity
  8
IMPORT_IGES
100
AcDbLine
 62
7
  6
CONTINUOUS
 10
23.2546051303
 20
6.0039819048
 11
23.2598545113
 21
5.9128424643
  0
LWPOLYLINE
  5
412
100
AcDbEntity
  8
IMPORT_IGES
100
AcDbPolyline
 62
7
  6
CONTINUOUS
 90
3
 70
0
 10
23.2445317837
 20
6.2192005816
 10
23.249481936
 20
6.1064226264
 10
23.2546051303
 20
6.0039819048
  0
LINE
  5
413
100
AcDbEntity
  8
IMPORT_IGES
100
AcDbLine
 62
7
  6
CONTINUOUS
 10
23.2351538369
 20
6.4759484637
 11
23.2445317837
 21
6.2192005816
  0
LWPOLYLINE
  5
414
100
AcDbEntity
  8
IMPORT_IGES
100
AcDbPolyline
 62
253
  6
CONTINUOUS
 90
22
 70
0
 10
23.0245044661
 20
38.9075270141
 10
23.0211257174
 20
39.0073712049
 10
23.0110217019
 20
39.1074112307
 10
22.9941091874
 20
39.2071844413
 10
22.9702728215
 20
39.3064469988
 10
22.9395275165
 20
39.4044697745
 10
22.9021770984
 20
39.5000898404
 10
22.8584884519
 20
39.5927151922
 10
22.8086238883
 20
39.6820798688
 10
22.7529538997
 20
39.7675981133
 10
22.6919493475
 20
39.8487050534
 10
22.625803227
 20
39.9252873695
 10
22.5544537946
 20
39.9974210415
 10
22.4779971041
 20
40.0648964019
 10
22.3969196046
 20
40.1271782109
 10
22.3117226378
 20
40.183836747
 10
22.2226485835
 20
40.2346708972
 10
22.1302389026
 20
40.2793333254
 10
22.0355552223
 20
40.3173694138
 10
21.9392977193
 20
40.3486533338
 10
21.8417356601
 20
40.3732482486
 10
21.7433373901
 20
40.3911595382
  0
LINE
  5
415
100
AcDbEntity
  8
IMPORT_IGES
100
AcDbLine
 62
7
  6
CONTINUOUS
 10
23.2265959829
 20
6.7704228165
 11
23.2351538369
 21
6.4759484637
  0
LINE
  5
416
100
AcDbEntity
  8
IMPORT_IGES
100
AcDbLine
 62
7
  6
CONTINUOUS
 10
23.2189365307
 20
7.0999120439
 11
23.2265959829
 21
6.7704228165
  0
LINE
  5
417
100
AcDbEntity
  8
IMPORT_IGES
100
AcDbLine
 62
7
  6
CONTINUOUS
 10
23.2122869497
 20
7.4600386304
 11
23.2189365307
 21
7.0999120439
  0
LINE
  5
418
100
AcDbEntity
  8
IMPORT_IGES
100
AcDbLine
 62
7
  6
CONTINUOUS
 10
23.2067340327
 20
7.8456856093
 11
23.2122869497
 21
7.4600386304
  0
LINE
  5
419
100
AcDbEntity
  8
IMPORT_IGES
100
AcDbLine
 62
7
  6
CONTINUOUS
 10
23.2023296115
 20
8.2533265299
 11
23.2067340327
 21
7.8456856093
  0
LINE
  5
41A
100
AcDbEntity
  8
IMPORT_IGES
100
AcDbLine
 62
7
  6
CONTINUOUS
 10
23.1991432309
 20
8.6774753606
 11
23.2023296115
 21
8.2533265299
  0
LINE
  5
41B
100
AcDbEntity
  8
IMPORT_IGES
100
AcDbLine
 62
7
  6
CONTINUOUS
 10
23.197217141
 20
9.1113081477
 11
23.1991432309
 21
8.6774753606
  0
LWPOLYLINE
  5
41C
100
AcDbEntity
  8
IMPORT_IGES
100
AcDbPolyline
 62
253
  6
CONTINUOUS
 90
10
 70
0
 10
23.0168969812
 20
1.7325916442
 10
23.0135164845
 20
5.8632895912
 10
23.0112079655
 20
9.9942562111
 10
23.009971424
 20
14.125491504
 10
23.0098069497
 20
18.2574036542
 10
23.0107144531
 20
22.3895844773
 10
23.012693665
 20
26.5208094207
 10
23.0157444957
 20
30.6506702999
 10
23.019867035
 20
34.7795752993
 10
23.0250612828
 20
38.9075244189
  0
LINE
  5
41D
100
AcDbEntity
  8
IMPORT_IGES
100
AcDbLine
 62
7
  6
CONTINUOUS
 10
23.1965656098
 20
9.5528110538
 11
23.197217141
 21
9.1113081477
  0
LINE
  5
41E
100
AcDbEntity
  8
IMPORT_IGES
100
AcDbLine
 62
7
  6
CONTINUOUS
 10
23.2934535196
 20
1.732590286
 11
23.2934535196
 21
5.6111925713
  0
LINE
  5
41F
100
AcDbEntity
  8
IMPORT_IGES
100
AcDbLine
 62
7
  6
CONTINUOUS
 10
23.2934535196
 20
32.4953539091
 11
23.2934535196
 21
39.1391858345
  0
LINE
  5
420
100
AcDbEntity
  8
IMPORT_IGES
100
AcDbLine
 62
7
  6
CONTINUOUS
 10
23.3
 20
5.9532732402
 11
23.3
 21
32.1533270533
  0
LINE
  5
421
100
AcDbEntity
  8
IMPORT_IGES
100
AcDbLine
 62
7
  6
CONTINUOUS
 10
23.1972171759
 20
28.9952492366
 11
23.1965656098
 21
9.5528110538
  0
LINE
  5
422
100
AcDbEntity
  8
IMPORT_IGES
100
AcDbLine
 62
7
  6
CONTINUOUS
 10
23.1991433471
 20
29.4290907201
 11
23.1972171759
 21
28.9952492366
  0
LINE
  5
423
100
AcDbEntity
  8
IMPORT_IGES
100
AcDbLine
 62
7
  6
CONTINUOUS
 10
23.2023298491
 20
29.8532459795
 11
23.1991433471
 21
29.4290907201
  0
LWPOLYLINE
  5
424
100
AcDbEntity
  8
IMPORT_IGES
100
AcDbPolyline
 62
253
  6
CONTINUOUS
 90
16
 70
0
 10
19.4939517783
 20
-38.0117634474
 10
19.9461540089
 20
-35.4049008892
 10
20.3679927743
 20
-32.7899263453
 10
20.7593026019
 20
-30.1671833935
 10
21.1200249369
 20
-27.5362972061
 10
21.4498809993
 20
-24.8983369463
 10
21.7484587441
 20
-22.255827424
 10
22.0155801614
 20
-19.6102263683
 10
22.2513096631
 20
-16.960809768
 10
22.4556434334
 20
-14.3068393236
 10
22.6284161525
 20
-11.6497329062
 10
22.7696239043
 20
-8.9888084439
 10
22.8793170492
 20
-6.3201702505
 10
22.9572838276
 20
-3.6427637005
 10
23.003221884
 20
-0.9583837383
 10
23.0168969804
 20
1.7325902855
  0
LWPOLYLINE
  5
425
100
AcDbEntity
  8
IMPORT_IGES
100
AcDbPolyline
 62
253
  6
CONTINUOUS
 90
5
 70
0
 10
-0.7676349746
 20
25.9131553427
 10
-0.4506597316
 20
25.941758603
 10
-0.0136383561
 20
25.9532629209
 10
0.4247546487
 20
25.9366182527
 10
0.7366868694
 20
25.9048628229
  0
LINE
  5
426
100
AcDbEntity
  8
IMPORT_IGES
100
AcDbLine
 62
7
  6
CONTINUOUS
 10
-2.6471362659
 20
35.7004095061
 11
-2.6
 21
35.6532732402
  0
LINE
  5
427
100
AcDbEntity
  8
IMPORT_IGES
100
AcDbLine
 62
7
  6
CONTINUOUS
 10
17.0425928395
 20
17.9532732402
 11
17.707625632
 21
17.0532732402
  0
LINE
  5
428
100
AcDbEntity
  8
IMPORT_IGES
100
AcDbLine
 62
7
  6
CONTINUOUS
 10
18.5932972651
 20
17.0532732402
 11
17.9282644726
 21
17.9532732402
  0
LWPOLYLINE
  5
429
100
AcDbEntity
  8
IMPORT_IGES
100
AcDbPolyline
 62
253
  6
CONTINUOUS
 90
37
 70
0
 10
21.6370907125
 20
22.1480329879
 10
21.5249242295
 20
22.8607825388
 10
21.3892761963
 20
23.5704778289
 10
21.2299108686
 20
24.2772665848
 10
21.0458529708
 20
24.9829553211
 10
20.837430114
 20
25.6860139438
 10
20.6063038283
 20
26.381548901
 10
20.3516929683
 20
27.0693245642
 10
20.073434236
 20
27.7497397293
 10
19.7741239535
 20
28.4187860112
 10
19.4537638333
 20
29.0750241729
 10
19.1112016414
 20
29.7199256851
 10
18.7473296541
 20
30.3537988817
 10
18.3609455104
 20
30.9774866905
 10
17.9518173639
 20
31.5900982348
 10
17.5223902463
 20
32.1892932535
 10
17.0712230515
 20
32.7755788266
 10
16.5983159773
 20
33.3482525138
 10
16.1085568074
 20
33.9031021379
 10
15.6024485978
 20
34.4386573827
 10
15.0783343871
 20
34.9560717103
 10
14.5381883226
 20
35.455033153
 10
13.9818961607
 20
35.9352602222
 10
13.4086718068
 20
36.3966279171
 10
12.8196912105
 20
36.839044316
 10
12.2130528474
 20
37.2632256715
 10
11.5898015264
 20
37.6679967753
 10
10.9558104685
 20
38.0504436258
 10
10.3120652566
 20
38.4094383785
 10
9.6570934697
 20
38.7456637225
 10
8.9934389124
 20
39.05896846
 10
8.3215728982
 20
39.348964677
 10
7.6407440038
 20
39.6156571295
 10
6.9516782419
 20
39.859508851
 10
6.2543989833
 20
40.0805536187
 10
5.5482203312
 20
40.2783883693
 10
4.8328297767
 20
40.4528414203
  0
LWPOLYLINE
  5
42A
100
AcDbEntity
  8
IMPORT_IGES
100
AcDbPolyline
 62
253
  6
CONTINUOUS
 90
10
 70
0
 10
21.2992812933
 20
22.0786500688
 10
21.3450281156
 20
21.7386256532
 10
21.3851705656
 20
21.3993125719
 10
21.4197650951
 20
21.0608053821
 10
21.4488818305
 20
20.7230760754
 10
21.4725637333
 20
20.3863354113
 10
21.4908454734
 20
20.0510347048
 10
21.5037987986
 20
19.717382655
 10
21.5115135373
 20
19.3853435609
 10
21.5140699995
 20
19.054999927
  0
LWPOLYLINE
  5
42B
100
AcDbEntity
  8
IMPORT_IGES
100
AcDbPolyline
 62
7
  6
CONTINUOUS
 90
19
 70
0
 10
19.6620838171
 20
-38.1833644366
 10
19.6415894458
 20
-38.2769014016
 10
19.6141327043
 20
-38.3695593498
 10
19.5797135927
 20
-38.4613382813
 10
19.538101574
 20
-38.5529682111
 10
19.4895271851
 20
-38.6437191241
 10
19.4346820372
 20
-38.7314009755
 10
19.3733268969
 20
-38.815908691
 10
19.3057009976
 20
-38.8973473448
 10
19.2332136508
 20
-38.9738421143
 10
19.1557013205
 20
-39.0452260362
 10
19.0733275428
 20
-39.1116660736
 10
18.9879922364
 20
-39.1717882943
 10
18.8995947422
 20
-39.2253512803
 10
18.8082357195
 20
-39.2725964496
 10
18.7161170649
 20
-39.3128741225
 10
18.6239727441
 20
-39.3459677395
 10
18.5310687915
 20
-39.3720938602
 10
18.4374052071
 20
-39.3912524847
  0
LINE
  5
42C
100
AcDbEntity
  8
IMPORT_IGES
100
AcDbLine
 62
253
  6
CONTINUOUS
 10
23.3
 20
28.4532732402
 11
23.1965656098
 21
28.4532732402
  0
LINE
  5
42D
100
AcDbEntity
  8
IMPORT_IGES
100
AcDbLine
 62
253
  6
CONTINUOUS
 10
-23.1965656098
 20
28.4532732402
 11
-23.3
 21
28.4532732402
  0
LINE
  5
42E
100
AcDbEntity
  8
IMPORT_IGES
100
AcDbLine
 62
7
  6
CONTINUOUS
 10
3.7528637341
 20
35.7004095061
 11
3.8
 21
35.6532732402
  0
LWPOLYLINE
  5
42F
100
AcDbEntity
  8
IMPORT_IGES
100
AcDbPolyline
 62
253
  6
CONTINUOUS
 90
15
 70
0
 10
21.3104379163
 20
16.1111536476
 10
21.3125200052
 20
16.1090589436
 10
21.3178842086
 20
16.1065055586
 10
21.3265485064
 20
16.1035104813
 10
21.338485115
 20
16.1001004141
 10
21.3536221169
 20
16.0962981197
 10
21.3718862532
 20
16.0921179133
 10
21.3931153196
 20
16.0876000638
 10
21.4171398196
 20
16.0827856392
 10
21.4439088936
 20
16.0776846999
 10
21.4731014596
 20
16.0723545788
 10
21.5043947841
 20
16.0668523281
 10
21.5377288734
 20
16.0611902434
 10
21.5728581972
 20
16.055409323
 10
21.6466595995
 20
16.0437771937
  0
LWPOLYLINE
  5
430
100
AcDbEntity
  8
IMPORT_IGES
100
AcDbPolyline
 62
253
  6
CONTINUOUS
 90
9
 70
0
 10
21.7433312117
 20
40.3911175541
 10
21.7401856633
 20
40.3904465942
 10
21.7336973847
 20
40.3902965905
 10
21.7238663824
 20
40.3906671038
 10
21.7106071847
 20
40.3915651927
 10
21.6940051635
 20
40.392982222
 10
21.6743165376
 20
40.3948939591
 10
21.6514232557
 20
40.3973140915
 10
21.6254430582
 20
40.400226236
  0
LINE
  5
431
100
AcDbEntity
  8
IMPORT_IGES
100
AcDbLine
 62
7
  6
CONTINUOUS
 10
-3.8
 20
35.6532732402
 11
-2.6
 21
35.6532732402
  0
LINE
  5
432
100
AcDbEntity
  8
IMPORT_IGES
100
AcDbLine
 62
7
  6
CONTINUOUS
 10
2.6
 20
35.6532732402
 11
3.8
 21
35.6532732402
  0
LINE
  5
433
100
AcDbEntity
  8
IMPORT_IGES
100
AcDbLine
 62
7
  6
CONTINUOUS
 10
3.7528637341
 20
35.7004095061
 11
2.6471362659
 21
35.7004095061
  0
LINE
  5
434
100
AcDbEntity
  8
IMPORT_IGES
100
AcDbLine
 62
7
  6
CONTINUOUS
 10
-2.6471362659
 20
35.7004095061
 11
-3.7528637341
 21
35.7004095061
  0
LINE
  5
435
100
AcDbEntity
  8
IMPORT_IGES
100
AcDbLine
 62
253
  6
CONTINUOUS
 10
-3.7493852461
 20
36.7004034138
 11
-2.6506147539
 21
36.7004034138
  0
LINE
  5
436
100
AcDbEntity
  8
IMPORT_IGES
100
AcDbLine
 62
253
  6
CONTINUOUS
 10
2.6506147539
 20
36.7004034138
 11
3.7493852461
 21
36.7004034138
  0
LWPOLYLINE
  5
437
100
AcDbEntity
  8
IMPORT_IGES
100
AcDbPolyline
 62
253
  6
CONTINUOUS
 90
22
 70
0
 10
19.4939527803
 20
-38.0117621059
 10
19.4852989787
 20
-38.021043596
 10
19.4691522214
 20
-38.0297873434
 10
19.4454687585
 20
-38.0378918239
 10
19.4142389843
 20
-38.0452404056
 10
19.3754211336
 20
-38.0517656709
 10
19.328936276
 20
-38.0574467716
 10
19.2751269791
 20
-38.0622618098
 10
19.2143587508
 20
-38.0661883247
 10
19.1466757741
 20
-38.0692138552
 10
19.0722709199
 20
-38.071319774
 10
18.9915175705
 20
-38.0724511102
 10
18.9047765858
 20
-38.0725601384
 10
18.812953548
 20
-38.0717280786
 10
18.7164522203
 20
-38.0700125853
 10
18.6149139232
 20
-38.0673292765
 10
18.5084311658
 20
-38.0636896815
 10
18.398041784
 20
-38.0591359429
 10
18.2847658897
 20
-38.0536374566
 10
18.1694323965
 20
-38.0472707444
 10
18.052654088
 20
-38.0401987384
 10
17.9351949348
 20
-38.0325483908
  0
LWPOLYLINE
  5
438
100
AcDbEntity
  8
IMPORT_IGES
100
AcDbPolyline
 62
253
  6
CONTINUOUS
 90
37
 70
0
 10
-4.8328287345
 20
40.4528367188
 10
-5.5492165703
 20
40.2783347442
 10
-6.2574691335
 20
40.0798327531
 10
-6.9578447198
 20
39.857492484
 10
-7.6513898185
 20
39.6115679926
 10
-8.3376121389
 20
39.3421576406
 10
-9.0145485708
 20
39.0492233363
 10
-9.6835871574
 20
38.7322487129
 10
-10.3436211843
 20
38.3921424938
 10
-10.9891600516
 20
38.0310583476
 10
-11.6192700961
 20
37.6499713748
 10
-12.2357404271
 20
37.248392401
 10
-12.8374364197
 20
36.8263170269
 10
-13.4248604577
 20
36.3839974793
 10
-13.9981616076
 20
35.9216228682
 10
-14.5557598434
 20
35.4390963483
 10
-15.0993771491
 20
34.9353680682
 10
-15.6280588348
 20
34.4119008301
 10
-16.1365856667
 20
33.8723504371
 10
-16.6249675794
 20
33.3173260535
 10
-17.0945703041
 20
32.7465217931
 10
-17.5425835297
 20
32.1621828666
 10
-17.9694020483
 20
31.564840231
 10
-18.3760451597
 20
30.9541549952
 10
-18.7608121091
 20
30.3310233771
 10
-19.124638176
 20
29.6949562307
 10
-19.4679521914
 20
29.0465067868
 10
-19.7884098754
 20
28.3880809657
 10
-20.0866533671
 20
27.718823993
 10
-20.3632293471
 20
27.0395417972
 10
-20.6157089829
 20
26.355067178
 10
-20.8438425783
 20
25.6667653801
 10
-21.0488327245
 20
24.9730885818
 10
-21.2304094273
 20
24.274450715
 10
-21.3886907366
 20
23.5709034658
 10
-21.524173991
 20
22.8621434017
 10
-21.637086855
 20
22.1480323925
  0
LWPOLYLINE
  5
439
100
AcDbEntity
  8
IMPORT_IGES
100
AcDbPolyline
 62
253
  6
CONTINUOUS
 90
10
 70
0
 10
-4.739688223
 20
40.00584948
 10
-4.3135225819
 20
40.097655427
 10
-3.883867061
 20
40.1811462371
 10
-3.45087747
 20
40.2561826237
 10
-3.0149069047
 20
40.322612653
 10
-2.5759290348
 20
40.3803248946
 10
-2.1335354005
 20
40.4292088787
 10
-1.6877070674
 20
40.4691027005
 10
-1.2388173415
 20
40.4998329224
 10
-0.7870531881
 20
40.521240004
  0
LWPOLYLINE
  5
43A
100
AcDbEntity
  8
IMPORT_IGES
100
AcDbPolyline
 62
253
  6
CONTINUOUS
 90
19
 70
0
 10
-21.58001976
 20
39.0239949985
 10
-20.6700446439
 20
39.1473006318
 10
-19.7568676044
 20
39.2657957492
 10
-18.8406491028
 20
39.3793871831
 10
-17.9225470227
 20
39.4879115475
 10
-17.0025828758
 20
39.59133558
 10
-16.0793755673
 20
39.6897439428
 10
-15.1548867314
 20
39.7829029626
 10
-14.2294284238
 20
39.8707550912
 10
-13.2988327572
 20
39.9535928255
 10
-12.3621791083
 20
40.0313972964
 10
-11.4225473655
 20
40.1038571492
 10
-10.4811868333
 20
40.1707991248
 10
-9.5390646711
 20
40.2320977481
 10
-8.5967467525
 20
40.2877134102
 10
-7.6546978015
 20
40.3376339177
 10
-6.7131542114
 20
40.3818156656
 10
-5.7724209904
 20
40.4202153456
 10
-4.8328287345
 20
40.4528367188
  0
LINE
  5
43B
100
AcDbEntity
  8
IMPORT_IGES
100
AcDbLine
 62
253
  6
CONTINUOUS
 10
-22.5703318255
 20
38.9652085574
 11
-22.4050831006
 21
38.9773032292
  0
LINE
  5
43C
100
AcDbEntity
  8
IMPORT_IGES
100
AcDbLine
 62
253
  6
CONTINUOUS
 10
-22.4050831006
 20
38.9773032292
 11
-22.220310513
 21
38.9894292117
  0
LINE
  5
43D
100
AcDbEntity
  8
IMPORT_IGES
100
AcDbLine
 62
253
  6
CONTINUOUS
 10
-22.220310513
 20
38.9894292117
 11
-22.0188552918
 21
39.0013827084
  0
LINE
  5
43E
100
AcDbEntity
  8
IMPORT_IGES
100
AcDbLine
 62
253
  6
CONTINUOUS
 10
-22.0188552918
 20
39.0013827084
 11
-21.8038794885
 21
39.0129407924
  0
LINE
  5
43F
100
AcDbEntity
  8
IMPORT_IGES
100
AcDbLine
 62
253
  6
CONTINUOUS
 10
-21.8038794885
 20
39.0129407924
 11
-21.5800021402
 21
39.0239918135
  0
LWPOLYLINE
  5
440
100
AcDbEntity
  8
IMPORT_IGES
100
AcDbPolyline
 62
253
  6
CONTINUOUS
 90
10
 70
0
 10
-0.8026909687
 20
40.8667045337
 10
-1.2665771385
 20
40.8491437784
 10
-1.7265177236
 20
40.8242897924
 10
-2.1824490293
 20
40.7921761355
 10
-2.6342161107
 20
40.7528138944
 10
-3.0818431911
 20
40.7063067509
 10
-3.5255337884
 20
40.6528610176
 10
-3.9653068717
 20
40.5926623597
 10
-4.4009952232
 20
40.5258961041
 10
-4.8325183097
 20
40.4528688864
  0
LINE
  5
441
100
AcDbEntity
  8
IMPORT_IGES
100
AcDbLine
 62
253
  6
CONTINUOUS
 10
-0.6121815624
 20
40.5269593023
 11
-0.7870531881
 21
40.521240004
  0
LINE
  5
442
100
AcDbEntity
  8
IMPORT_IGES
100
AcDbLine
 62
253
  6
CONTINUOUS
 10
-0.8026903589
 20
40.8666959229
 11
-0.6242596419
 21
40.87129
  0
LINE
  5
443
100
AcDbEntity
  8
IMPORT_IGES
100
AcDbLine
 62
253
  6
CONTINUOUS
 10
-0.4372831585
 20
40.531240492
 11
-0.6121815624
 21
40.5269593023
  0
LINE
  5
444
100
AcDbEntity
  8
IMPORT_IGES
100
AcDbLine
 62
253
  6
CONTINUOUS
 10
-0.6242596419
 20
40.87129
 11
-0.4458817085
 21
40.8747340431
  0
LINE
  5
445
100
AcDbEntity
  8
IMPORT_IGES
100
AcDbLine
 62
253
  6
CONTINUOUS
 10
-0.2623701056
 20
40.5340874984
 11
-0.4372831585
 21
40.531240492
  0
LWPOLYLINE
  5
446
100
AcDbEntity
  8
IMPORT_IGES
100
AcDbPolyline
 62
253
  6
CONTINUOUS
 90
13
 70
0
 10
-0.7942907371
 20
41.9037200121
 10
-2.8271513417
 20
41.8795390391
 10
-4.8045639194
 20
41.8303452639
 10
-6.7262695496
 20
41.7583258136
 10
-8.5933871375
 20
41.6655164756
 10
-10.404430794
 20
41.5540464758
 10
-12.1553179087
 20
41.4262982975
 10
-13.8450469895
 20
41.2844786356
 10
-15.474542224
 20
41.1304985141
 10
-17.0426809611
 20
40.9663725464
 10
-18.5491331104
 20
40.7940328438
 10
-19.9943554293
 20
40.6152872919
 10
-21.4596979773
 20
40.4209535656
  0
LINE
  5
447
100
AcDbEntity
  8
IMPORT_IGES
100
AcDbLine
 62
253
  6
CONTINUOUS
 10
-0.4458817085
 20
40.8747340431
 11
-0.2675381675
 21
40.8770292758
  0
LINE
  5
448
100
AcDbEntity
  8
IMPORT_IGES
100
AcDbLine
 62
253
  6
CONTINUOUS
 10
-0.0874548902
 20
40.5355159534
 11
-0.2623701056
 21
40.5340874984
  0
LINE
  5
449
100
AcDbEntity
  8
IMPORT_IGES
100
AcDbLine
 62
253
  6
CONTINUOUS
 10
-0.2675381675
 20
40.8770292758
 11
-0.0891827139
 21
40.8781767719
  0
LINE
  5
44A
100
AcDbEntity
  8
IMPORT_IGES
100
AcDbLine
 62
253
  6
CONTINUOUS
 10
-0.7942907371
 20
41.9037200121
 11
-0.3549259123
 21
41.9053965638
  0
LINE
  5
44B
100
AcDbEntity
  8
IMPORT_IGES
100
AcDbLine
 62
253
  6
CONTINUOUS
 10
-0.3549259123
 20
41.9053965638
 11
0.0886117045
 21
41.905791586
  0
LINE
  5
44C
100
AcDbEntity
  8
IMPORT_IGES
100
AcDbLine
 62
253
  6
CONTINUOUS
 10
-0.0891827139
 20
40.8781767719
 11
0.0891906666
 21
40.8781767851
  0
LINE
  5
44D
100
AcDbEntity
  8
IMPORT_IGES
100
AcDbLine
 62
253
  6
CONTINUOUS
 10
0.0874548642
 20
40.5355159535
 11
-0.0874548902
 21
40.5355159534
  0
LINE
  5
44E
100
AcDbEntity
  8
IMPORT_IGES
100
AcDbLine
 62
253
  6
CONTINUOUS
 10
0.0886117045
 20
41.905791586
 11
0.5324063965
 21
41.9048707681
  0
LINE
  5
44F
100
AcDbEntity
  8
IMPORT_IGES
100
AcDbLine
 62
253
  6
CONTINUOUS
 10
0.5324063965
 20
41.9048707681
 11
0.7942907367
 21
41.9037200113
  0
LINE
  5
450
100
AcDbEntity
  8
IMPORT_IGES
100
AcDbLine
 62
253
  6
CONTINUOUS
 10
0.0891906666
 20
40.8781767851
 11
0.2675560885
 21
40.8770291416
  0
LINE
  5
451
100
AcDbEntity
  8
IMPORT_IGES
100
AcDbLine
 62
253
  6
CONTINUOUS
 10
0.2623700862
 20
40.5340874986
 11
0.0874548642
 21
40.5355159535
  0
LINE
  5
452
100
AcDbEntity
  8
IMPORT_IGES
100
AcDbLine
 62
253
  6
CONTINUOUS
 10
0.2675560885
 20
40.8770291416
 11
0.4459016021
 21
40.8747337619
  0
LINE
  5
453
100
AcDbEntity
  8
IMPORT_IGES
100
AcDbLine
 62
253
  6
CONTINUOUS
 10
0.4372831456
 20
40.5312404922
 11
0.2623700862
 21
40.5340874986
  0
LINE
  5
454
100
AcDbEntity
  8
IMPORT_IGES
100
AcDbLine
 62
253
  6
CONTINUOUS
 10
0.4459016021
 20
40.8747337619
 11
0.624273563
 21
40.8712897254
  0
LINE
  5
455
100
AcDbEntity
  8
IMPORT_IGES
100
AcDbLine
 62
253
  6
CONTINUOUS
 10
0.612181556
 20
40.5269593025
 11
0.4372831456
 21
40.5312404922
  0
LINE
  5
456
100
AcDbEntity
  8
IMPORT_IGES
100
AcDbLine
 62
253
  6
CONTINUOUS
 10
0.624273563
 20
40.8712897254
 11
0.8026903746
 21
40.8666959615
  0
LINE
  5
457
100
AcDbEntity
  8
IMPORT_IGES
100
AcDbLine
 62
253
  6
CONTINUOUS
 10
0.7870531881
 20
40.521240004
 11
0.612181556
 21
40.5269593025
  0
LWPOLYLINE
  5
458
100
AcDbEntity
  8
IMPORT_IGES
100
AcDbPolyline
 62
253
  6
CONTINUOUS
 90
19
 70
0
 10
4.8328297767
 20
40.4528414203
 10
5.7724130344
 20
40.4202174915
 10
6.7131385693
 20
40.3818161748
 10
7.6546757086
 20
40.3376336871
 10
8.5967193807
 20
40.2877136935
 10
9.5390331269
 20
40.2320994003
 10
10.4811521353
 20
40.1708018504
 10
11.4225104196
 20
40.1038601263
 10
12.3621408208
 20
40.0314002048
 10
13.2987941172
 20
39.9535957406
 10
14.2293903072
 20
39.8707582484
 10
15.1548500061
 20
39.7829064124
 10
16.0793412982
 20
39.6897476088
 10
17.0025520365
 20
39.5913393805
 10
17.9225204915
 20
39.4879153897
 10
18.8406278958
 20
39.3793908424
 10
19.7568527027
 20
39.2657989567
 10
20.6700368648
 20
39.1473031563
 10
21.5800198465
 20
39.0239966056
  0
LWPOLYLINE
  5
459
100
AcDbEntity
  8
IMPORT_IGES
100
AcDbPolyline
 62
253
  6
CONTINUOUS
 90
10
 70
0
 10
0.7870531881
 20
40.521240004
 10
1.2388168619
 20
40.4998329488
 10
1.6877062287
 20
40.4691027649
 10
2.1335343235
 20
40.4292089849
 10
2.5759278397
 20
40.3803250393
 10
3.0149057112
 20
40.322612825
 10
3.4508763973
 20
40.2561828037
 10
3.8838662272
 20
40.1811463985
 10
4.3135221033
 20
40.097655536
 10
4.7396882143
 20
40.005849496
  0
LINE
  5
45A
100
AcDbEntity
  8
IMPORT_IGES
100
AcDbLine
 62
253
  6
CONTINUOUS
 10
21.5800040129
 20
39.0240250701
 11
21.8038901947
 21
39.012969604
  0
LINE
  5
45B
100
AcDbEntity
  8
IMPORT_IGES
100
AcDbLine
 62
253
  6
CONTINUOUS
 10
21.8038901947
 20
39.012969604
 11
22.0188689332
 21
39.0014072635
  0
LINE
  5
45C
100
AcDbEntity
  8
IMPORT_IGES
100
AcDbLine
 62
253
  6
CONTINUOUS
 10
22.0188689332
 20
39.0014072635
 11
22.2203235636
 21
38.989449738
  0
LINE
  5
45D
100
AcDbEntity
  8
IMPORT_IGES
100
AcDbLine
 62
253
  6
CONTINUOUS
 10
22.2203235636
 20
38.989449738
 11
22.4051011169
 21
38.9773195505
  0
LWPOLYLINE
  5
45E
100
AcDbEntity
  8
IMPORT_IGES
100
AcDbPolyline
 62
253
  6
CONTINUOUS
 90
13
 70
0
 10
22.4051011169
 20
38.9773195505
 10
22.5703523885
 20
38.9652211638
 10
22.6444789589
 20
38.959241594
 10
22.7126440879
 20
38.9533322713
 10
22.7745708506
 20
38.947532611
 10
22.8300267899
 20
38.9418696647
 10
22.8789665958
 20
38.9363448589
 10
22.9210323992
 20
38.9309955016
 10
22.9559565964
 20
38.9258512357
 10
22.9838525336
 20
38.9208994182
 10
23.0047085892
 20
38.9161586491
 10
23.0184537214
 20
38.9116797578
 10
23.0250735462
 20
38.9075009007
  0
LWPOLYLINE
  5
45F
100
AcDbEntity
  8
IMPORT_IGES
100
AcDbPolyline
 62
253
  6
CONTINUOUS
 90
10
 70
0
 10
4.8325575006
 20
40.4528676514
 10
4.4009965553
 20
40.525899572
 10
3.9652797392
 20
40.5926689013
 10
3.5254875995
 20
40.6528690327
 10
3.0817887366
 20
40.7063142039
 10
2.6341628113
 20
40.7528193239
 10
2.1824021772
 20
40.7921796218
 10
1.7264812251
 20
40.8242919496
 10
1.2665562629
 20
40.849144783
 10
0.8026909717
 20
40.8667046116
  0
LWPOLYLINE
  5
460
100
AcDbEntity
  8
IMPORT_IGES
100
AcDbPolyline
 62
253
  6
CONTINUOUS
 90
37
 70
0
 10
4.7396882143
 20
40.005849496
 10
5.4339684345
 20
39.8368352499
 10
6.1220604999
 20
39.6449340842
 10
6.8032142414
 20
39.4303767429
 10
7.4760229136
 20
39.1936631646
 10
8.1404367545
 20
38.9348717698
 10
8.7976789582
 20
38.6534395198
 10
9.4474704634
 20
38.3492464136
 10
10.0884756408
 20
38.0226723073
 10
10.7202370372
 20
37.6737137997
 10
11.3431295938
 20
37.301817831
 10
11.9550855696
 20
36.9078598305
 10
12.5521743935
 20
36.4943162816
 10
13.1323177952
 20
36.0629291014
 10
13.696514237
 20
35.6132589531
 10
14.2455791644
 20
35.1447186394
 10
14.7789815213
 20
34.6577107722
 10
15.2959881988
 20
34.1528487871
 10
15.796923289
 20
33.6296530025
 10
16.2821004692
 20
33.0874370924
 10
16.7497563923
 20
32.5277919664
 10
17.1972690867
 20
31.9538074431
 10
17.6235733049
 20
31.3671983482
 10
18.0290452695
 20
30.767805434
 10
18.4134900637
 20
30.1561165027
 10
18.776263713
 20
29.5334457201
 10
19.1174108138
 20
28.9000190942
 10
19.4375857146
 20
28.2545836794
 10
19.7368587068
 20
27.5966187972
 10
20.0141939104
 20
26.9279938946
 10
20.2685797028
 20
26.251033254
 10
20.4998005334
 20
25.5664992361
 10
20.7076484811
 20
24.8752266498
 10
20.8914977113
 20
24.1797797341
 10
21.0512514959
 20
23.4816008309
 10
21.1871477168
 20
22.7809482395
 10
21.2992812933
 20
22.0786500688
  0
LWPOLYLINE
  5
461
100
AcDbEntity
  8
IMPORT_IGES
100
AcDbPolyline
 62
253
  6
CONTINUOUS
 90
22
 70
0
 10
17.8633470065
 20
-39.2756917227
 10
17.8799332134
 20
-39.267356241
 10
17.8955046203
 20
-39.2530136768
 10
17.9099584892
 20
-39.2328249098
 10
17.9231595631
 20
-39.2070698972
 10
17.9350888017
 20
-39.1758714575
 10
17.9458045653
 20
-39.1389968674
 10
17.9552478201
 20
-39.0965954255
 10
17.9633439528
 20
-39.0489945792
 10
17.9700914776
 20
-38.996083769
 10
17.975436069
 20
-38.938199224
 10
17.9793386312
 20
-38.8756061789
 10
17.9817896052
 20
-38.8079807816
 10
17.9827469344
 20
-38.7354992165
 10
17.9821648721
 20
-38.6586985628
 10
17.9800254797
 20
-38.577801279
 10
17.9763328882
 20
-38.493386248
 10
17.9710967919
 20
-38.4059290148
 10
17.9643215213
 20
-38.3155323928
 10
17.9560288685
 20
-38.2226566877
 10
17.9462883227
 20
-38.1281087506
 10
17.9351832767
 20
-38.0325473056
  0
LINE
  5
462
100
AcDbEntity
  8
IMPORT_IGES
100
AcDbLine
 62
253
  6
CONTINUOUS
 10
-21.4596979773
 20
40.4209535656
 11
-21.5326321119
 21
40.4114947939
  0
LWPOLYLINE
  5
463
100
AcDbEntity
  8
IMPORT_IGES
100
AcDbPolyline
 62
253
  6
CONTINUOUS
 90
11
 70
0
 10
-21.5326321119
 20
40.4114947939
 10
-21.5968840568
 20
40.4035695371
 10
-21.625375044
 20
40.4002328408
 10
-21.651387756
 20
40.3973204118
 10
-21.6743037878
 20
40.3949004578
 10
-21.693998916
 20
40.3929896021
 10
-21.7105976747
 20
40.3915739289
 10
-21.7238547709
 20
40.3906759533
 10
-21.7336884742
 20
40.3903037356
 10
-21.7401806141
 20
40.3904507908
 10
-21.7433311844
 20
40.3911175581
  0
LINE
  5
464
100
AcDbEntity
  8
IMPORT_IGES
100
AcDbLine
 62
253
  6
CONTINUOUS
 10
21.6254430582
 20
40.400226236
 11
21.5661429766
 21
40.4073076218
  0
LWPOLYLINE
  5
465
100
AcDbEntity
  8
IMPORT_IGES
100
AcDbPolyline
 62
253
  6
CONTINUOUS
 90
12
 70
0
 10
19.9941112817
 20
40.6153187867
 10
18.5486877233
 20
40.7940860497
 10
17.0420774152
 20
40.9664387007
 10
15.4738229475
 20
41.1305701606
 10
13.8442553889
 20
41.2845493559
 10
12.1545000139
 20
41.4263625333
 10
10.4036336782
 20
41.5541001102
 10
8.5926570952
 20
41.6655571567
 10
6.7256527472
 20
41.7583527723
 10
4.8041065057
 20
41.8303595204
 10
2.8268995438
 20
41.8795436242
 10
0.7942907367
 20
41.9037200113
  0
LINE
  5
466
100
AcDbEntity
  8
IMPORT_IGES
100
AcDbLine
 62
253
  6
CONTINUOUS
 10
21.5661429766
 20
40.4073076218
 11
21.4973599085
 21
40.4160206264
  0
LINE
  5
467
100
AcDbEntity
  8
IMPORT_IGES
100
AcDbLine
 62
253
  6
CONTINUOUS
 10
21.4973599085
 20
40.4160206264
 11
19.9941112817
 21
40.6153187867
  0
LWPOLYLINE
  5
468
100
AcDbEntity
  8
IMPORT_IGES
100
AcDbPolyline
 62
7
  6
CONTINUOUS
 90
22
 70
0
 10
22.0140028379
 20
40.6224733432
 10
22.1121478403
 20
40.6043548123
 10
22.20858976
 20
40.5797524303
 10
22.303328597
 20
40.5486661971
 10
22.3968710659
 20
40.5109396193
 10
22.488710452
 20
40.4667291903
 10
22.5773266118
 20
40.4165043903
 10
22.6627366757
 20
40.3601844635
 10
22.7449235132
 20
40.2978501657
 10
22.8223155898
 20
40.2302132443
 10
22.8947742117
 20
40.1570639221
 10
22.9624380727
 20
40.0786119762
 10
23.024151719
 20
39.9961984861
 10
23.0796872578
 20
39.9097173436
 10
23.1292725821
 20
39.8192746568
 10
23.1724359162
 20
39.7265298295
 10
23.2090998928
 20
39.6315118809
 10
23.2393418794
 20
39.5341917918
 10
23.2629222027
 20
39.436141908
 10
23.2797609716
 20
39.3378863448
 10
23.2899380772
 20
39.238900987
 10
23.2934535196
 20
39.1391858345
  0
LINE
  5
469
100
AcDbEntity
  8
IMPORT_IGES
100
AcDbLine
 62
7
  6
CONTINUOUS
 10
39.4550159949
 20
19.0832732402
 11
39.4550159949
 21
19.0232732402
  0
LINE
  5
46A
100
AcDbEntity
  8
IMPORT_IGES
100
AcDbLine
 62
7
  6
CONTINUOUS
 10
39.9663804895
 20
28.5832732402
 11
39.9663804895
 21
28.5232732402
  0
LINE
  5
46B
100
AcDbEntity
  8
IMPORT_IGES
100
AcDbLine
 62
7
  6
CONTINUOUS
 10
39.9663804895
 20
9.5832732402
 11
39.9663804895
 21
9.5232732402
  0
LINE
  5
46C
100
AcDbEntity
  8
IMPORT_IGES
100
AcDbLine
 62
253
  6
CONTINUOUS
 10
41.4050159949
 20
21.0332732402
 11
41.4050159949
 21
17.0732732402
  0
LINE
  5
46D
100
AcDbEntity
  8
IMPORT_IGES
100
AcDbLine
 62
253
  6
CONTINUOUS
 10
41.9163804895
 20
30.5332732402
 11
41.9163804895
 21
26.5732732402
  0
LINE
  5
46E
100
AcDbEntity
  8
IMPORT_IGES
100
AcDbLine
 62
253
  6
CONTINUOUS
 10
41.9163804895
 20
11.5332732402
 11
41.9163804895
 21
7.5732732402
  0
LWPOLYLINE
  5
46F
100
AcDbEntity
  8
IMPORT_IGES
100
AcDbPolyline
 62
253
  6
CONTINUOUS
 90
22
 70
0
 10
101.9820513218
 20
-38.0325498763
 10
101.9510423302
 20
-38.0402943836
 10
101.9124814569
 20
-38.0474104319
 10
101.8665307895
 20
-38.0537799341
 10
101.8133794591
 20
-38.0592477483
 10
101.7531751092
 20
-38.0637605747
 10
101.6860515583
 20
-38.0673690615
 10
101.6127289377
 20
-38.0700310777
 10
101.5336311883
 20
-38.0717318594
 10
101.4484864524
 20
-38.0725568864
 10
101.3574844299
 20
-38.0724520849
 10
101.261206469
 20
-38.0713416601
 10
101.159892928
 20
-38.0692706953
 10
101.0543083059
 20
-38.0662839791
 10
100.9450443862
 20
-38.0623977059
 10
100.8321507019
 20
-38.0576227239
 10
100.7161958588
 20
-38.0519699467
 10
100.5979728094
 20
-38.0454549593
 10
100.4778153559
 20
-38.0380997319
 10
100.3563099252
 20
-38.0299646078
 10
100.234314327
 20
-38.0211548863
 10
100.1126207872
 20
-38.0117662339
  0
LWPOLYLINE
  5
470
100
AcDbEntity
  8
IMPORT_IGES
100
AcDbPolyline
 62
253
  6
CONTINUOUS
 90
22
 70
0
 10
100.5739107201
 20
-39.2756914662
 10
100.6673312917
 20
-39.2673896195
 10
100.7604371233
 20
-39.2531151545
 10
100.852554442
 20
-39.2330095436
 10
100.9426850981
 20
-39.2073533669
 10
101.0306826922
 20
-39.176244293
 10
101.117213064
 20
-39.1393653368
 10
101.2018993798
 20
-39.096854643
 10
101.2840458705
 20
-39.0490978482
 10
101.3637536141
 20
-38.9959717303
 10
101.4404890417
 20
-38.9376326775
 10
101.5136270374
 20
-38.8743036533
 10
101.5830981899
 20
-38.8058707144
 10
101.6485789445
 20
-38.7326530545
 10
101.7095383171
 20
-38.6552252133
 10
101.7656204881
 20
-38.5739600713
 10
101.8162905559
 20
-38.4894699169
 10
101.861194978
 20
-38.4022096832
 10
101.900369241
 20
-38.3123145268
 10
101.9337040291
 20
-38.2202297559
 10
101.9609810149
 20
-38.1267426323
 10
101.9820547472
 20
-38.0325533877
  0
LWPOLYLINE
  5
471
100
AcDbEntity
  8
IMPORT_IGES
100
AcDbPolyline
 62
7
  6
CONTINUOUS
 90
22
 70
0
 10
101.883190074
 20
-40.6977238194
 10
101.9792008086
 20
-40.6920858278
 10
102.074885622
 20
-40.6802710915
 10
102.1695359045
 20
-40.6624069103
 10
102.2621029952
 20
-40.6387576364
 10
102.3524358442
 20
-40.6094219352
 10
102.4412387263
 20
-40.5740861665
 10
102.5281191725
 20
-40.5328827987
 10
102.6123463839
 20
-40.4861960885
 10
102.6940247812
 20
-40.4338997287
 10
102.772594979
 20
-40.376141043
 10
102.8474011795
 20
-40.3131348357
 10
102.9183675596
 20
-40.2447593957
 10
102.9851568776
 20
-40.1713405492
 10
103.0472171112
 20
-40.0934658168
 10
103.1041776686
 20
-40.0115172303
 10
103.1554803047
 20
-39.92612596
 10
103.2007582753
 20
-39.8377580364
 10
103.2400537325
 20
-39.7465471656
 10
103.273257621
 20
-39.6529533142
 10
103.3001489706
 20
-39.5577977844
 10
103.3205840456
 20
-39.4618114715
  0
LINE
  5
472
100
AcDbEntity
  8
IMPORT_IGES
100
AcDbLine
 62
7
  6
CONTINUOUS
 10
101.8831880429
 20
-40.6977238726
 11
101.6759007369
 21
-40.7031518817
  0
LINE
  5
473
100
AcDbEntity
  8
IMPORT_IGES
100
AcDbLine
 62
253
  6
CONTINUOUS
 10
92.6163804895
 20
-39.3912494501
 11
100.1125960513
 21
-39.2208721814
  0
LINE
  5
474
100
AcDbEntity
  8
IMPORT_IGES
100
AcDbLine
 62
7
  6
CONTINUOUS
 10
98.0849017993
 20
-39.699690251
 11
100.8176578024
 21
-39.6928951141
  0
LINE
  5
475
100
AcDbEntity
  8
IMPORT_IGES
100
AcDbLine
 62
7
  6
CONTINUOUS
 10
92.6163804895
 20
-39.7101959573
 11
98.0849017993
 21
-39.699690251
  0
LINE
  5
476
100
AcDbEntity
  8
RACCORDO
100
AcDbLine
 62
7
  6
CONTINUOUS
 10
95.5163804895
 20
-42.2467267598
 11
86.6163804895
 21
-42.2467267598
  0
LINE
  5
477
100
AcDbEntity
  8
RACCORDO
100
AcDbLine
 62
253
  6
CONTINUOUS
 10
96.0163804895
 20
-41.7467267598
 11
86.1163804895
 21
-41.7467267598
  0
LINE
  5
478
100
AcDbEntity
  8
IMPORT_IGES
100
AcDbLine
 62
7
  6
CONTINUOUS
 10
92.1163804895
 20
-39.7101965074
 11
89.3288877707
 21
-39.7053789099
  0
LINE
  5
479
100
AcDbEntity
  8
IMPORT_IGES
100
AcDbLine
 62
7
  6
CONTINUOUS
 10
89.3288877707
 20
-39.7053789099
 11
86.5446947921
 21
-39.6994686278
  0
LINE
  5
47A
100
AcDbEntity
  8
IMPORT_IGES
100
AcDbLine
 62
7
  6
CONTINUOUS
 10
86.5446947921
 20
-39.6994686278
 11
83.7638079255
 21
-39.6924647895
  0
LINE
  5
47B
100
AcDbEntity
  8
IMPORT_IGES
100
AcDbLine
 62
7
  6
CONTINUOUS
 10
83.7638079255
 20
-39.6924647895
 11
80.986252659
 21
-39.6843639091
  0
LWPOLYLINE
  5
47C
100
AcDbEntity
  8
IMPORT_IGES
100
AcDbPolyline
 62
7
  6
CONTINUOUS
 90
22
 70
0
 10
79.0180594414
 20
-39.627934854
 10
79.0492062449
 20
-39.6333709847
 10
79.0800953134
 20
-39.6384689207
 10
79.1107266467
 20
-39.6432286621
 10
79.1411273178
 20
-39.6476433723
 10
79.1712702539
 20
-39.6517198879
 10
79.2010742364
 20
-39.655478718
 10
79.230551701
 20
-39.6589172118
 10
79.2596902122
 20
-39.6620380201
 10
79.2883712448
 20
-39.664869605
 10
79.3165591774
 20
-39.6674081672
 10
79.3442896314
 20
-39.6696575059
 10
79.3715509464
 20
-39.6716574806
 10
79.398314876
 20
-39.6734086149
 10
79.4246096667
 20
-39.6749103852
 10
79.4505083972
 20
-39.6762010802
 10
79.4759986453
 20
-39.6772818682
 10
79.5010928332
 20
-39.6781515808
 10
79.5259013064
 20
-39.6788450015
 10
79.5504608466
 20
-39.6793737249
 10
79.5747346721
 20
-39.6797261564
 10
80.986252659
 20
-39.6843639091
  0
LINE
  5
47D
100
AcDbEntity
  8
IMPORT_IGES
100
AcDbLine
 62
253
  6
CONTINUOUS
 10
100.1126071808
 20
-38.0117649006
 11
92.6163804895
 21
-38.1833796438
  0
LINE
  5
47E
100
AcDbEntity
  8
IMPORT_IGES
100
AcDbLine
 62
253
  6
CONTINUOUS
 10
79.5677791166
 20
-37.8967227135
 11
79.5959378968
 21
-37.8966450038
  0
LINE
  5
47F
100
AcDbEntity
  8
IMPORT_IGES
100
AcDbLine
 62
253
  6
CONTINUOUS
 10
92.1163804895
 20
-38.0198919233
 11
92.6163804609
 21
-38.02156942
  0
LWPOLYLINE
  5
480
100
AcDbEntity
  8
IMPORT_IGES
100
AcDbPolyline
 62
253
  6
CONTINUOUS
 90
25
 70
0
 10
79.56777912
 20
-37.8967226966
 10
79.4465125269
 20
-37.8956828497
 10
79.3247348953
 20
-37.8919717454
 10
79.2031716629
 20
-37.8855574605
 10
79.082543798
 20
-37.8763901807
 10
78.9636288002
 20
-37.8645060077
 10
78.8472436216
 20
-37.8500303138
 10
78.7351640212
 20
-37.8331883514
 10
78.6269427249
 20
-37.8138789848
 10
78.5202290046
 20
-37.7916514384
 10
78.4141665761
 20
-37.7660197794
 10
78.3115689892
 20
-37.7374010317
 10
78.2155085827
 20
-37.7067071306
 10
78.1275161823
 20
-37.6743970161
 10
78.0467748474
 20
-37.6403020324
 10
77.972588831
 20
-37.6044574567
 10
77.9053631639
 20
-37.5669592301
 10
77.8455119903
 20
-37.5279464332
 10
77.7927600491
 20
-37.4874732565
 10
77.7473444667
 20
-37.4454444578
 10
77.709887527
 20
-37.4022129281
 10
77.6807131168
 20
-37.3585021788
 10
77.6598631679
 20
-37.314653624
 10
77.6472062953
 20
-37.2706216728
 10
77.6425516005
 20
-37.2265485519
  0
LINE
  5
481
100
AcDbEntity
  8
IMPORT_IGES
100
AcDbLine
 62
253
  6
CONTINUOUS
 10
92.1163804895
 20
-38.4952618897
 11
92.6163804895
 21
-38.5038670608
  0
LINE
  5
482
100
AcDbEntity
  8
IMPORT_IGES
100
AcDbLine
 62
7
  6
CONTINUOUS
 10
92.1163804895
 20
-38.7898849674
 11
92.6163804895
 21
-38.7987242624
  0
LINE
  5
483
100
AcDbEntity
  8
IMPORT_IGES
100
AcDbLine
 62
253
  6
CONTINUOUS
 10
79.5910074338
 20
-39.1064769638
 11
92.1163804895
 21
-39.3912494594
  0
LINE
  5
484
100
AcDbEntity
  8
IMPORT_IGES
100
AcDbLine
 62
253
  6
CONTINUOUS
 10
92.1163804895
 20
-38.1833794035
 11
79.5959378968
 21
-37.8966450049
  0
LWPOLYLINE
  5
485
100
AcDbEntity
  8
IMPORT_IGES
100
AcDbPolyline
 62
7
  6
CONTINUOUS
 90
22
 70
0
 10
79.0333870623
 20
-40.5106588273
 10
78.9244161497
 20
-40.4707062478
 10
78.8177984857
 20
-40.4244304893
 10
78.7140954104
 20
-40.3720647182
 10
78.6140814713
 20
-40.3140594403
 10
78.5179839428
 20
-40.2506509138
 10
78.4255521813
 20
-40.1817052732
 10
78.3373075891
 20
-40.1076005684
 10
78.2536231205
 20
-40.0286822685
 10
78.1741590704
 20
-39.9445733064
 10
78.0993170832
 20
-39.8555363297
 10
78.0296121847
 20
-39.7620633723
 10
77.9650472722
 20
-39.663997575
 10
77.9059985808
 20
-39.561662882
 10
77.8529438163
 20
-39.4556929593
 10
77.806111418
 20
-39.3463928915
 10
77.7658584596
 20
-39.2345060393
 10
77.732345832
 20
-39.1205013196
 10
77.7055821227
 20
-39.0043023491
 10
77.6857395079
 20
-38.8863427244
 10
77.6729957738
 20
-38.7675578059
 10
77.667374382
 20
-38.6486476122
  0
LINE
  5
486
100
AcDbEntity
  8
IMPORT_IGES
100
AcDbLine
 62
7
  6
CONTINUOUS
 10
48.4663804895
 20
7.5732732402
 11
48.4663804895
 21
11.5332732402
  0
LINE
  5
487
100
AcDbEntity
  8
IMPORT_IGES
100
AcDbLine
 62
7
  6
CONTINUOUS
 10
48.4663804895
 20
26.5732732402
 11
48.4663804895
 21
30.5332732402
  0
LWPOLYLINE
  5
488
100
AcDbEntity
  8
IMPORT_IGES
100
AcDbPolyline
 62
253
  6
CONTINUOUS
 90
16
 70
0
 10
103.3318079697
 20
40.4318897512
 10
103.3179953206
 20
40.4262359956
 10
103.3012461073
 20
40.4209535656
 10
103.2815603299
 20
40.4160441506
 10
103.258810524
 20
40.4114947939
 10
103.233124154
 20
40.407321505
 10
103.2048836125
 20
40.4035695371
 10
103.1739190749
 20
40.4002328408
 10
103.1404003659
 20
40.3973204118
 10
103.1052193519
 20
40.3949004578
 10
103.0684905371
 20
40.3929896021
 10
103.0300994174
 20
40.3915739289
 10
102.9905943464
 20
40.3906759533
 10
102.950158109
 20
40.3903037356
 10
102.9086079203
 20
40.3904507908
 10
102.8659437804
 20
40.3911175581
  0
LINE
  5
489
100
AcDbEntity
  8
IMPORT_IGES
100
AcDbLine
 62
7
  6
CONTINUOUS
 10
104.8552536311
 20
-30.0014582551
 11
104.9057900183
 21
-30.0014582551
  0
LINE
  5
48A
100
AcDbEntity
  8
IMPORT_IGES
100
AcDbLine
 62
7
  6
CONTINUOUS
 10
104.8366311592
 20
-29.9242623934
 11
104.8214968124
 21
-29.9242623934
  0
LINE
  5
48B
100
AcDbEntity
  8
IMPORT_IGES
100
AcDbLine
 62
7
  6
CONTINUOUS
 10
104.4605651345
 20
-29.9242623934
 11
104.546096157
 21
-29.9242623934
  0
LINE
  5
48C
100
AcDbEntity
  8
IMPORT_IGES
100
AcDbLine
 62
7
  6
CONTINUOUS
 10
104.3151086544
 20
-29.9242623934
 11
104.4055517407
 21
-29.9242623934
  0
LINE
  5
48D
100
AcDbEntity
  8
IMPORT_IGES
100
AcDbLine
 62
7
  6
CONTINUOUS
 10
104.8383799563
 20
-29.9242623934
 11
104.8888051548
 21
-29.9242623934
  0
LINE
  5
48E
100
AcDbEntity
  8
IMPORT_IGES
100
AcDbLine
 62
7
  6
CONTINUOUS
 10
104.7501921838
 20
-29.9242623934
 11
104.8165153636
 21
-29.9242623934
  0
LINE
  5
48F
100
AcDbEntity
  8
IMPORT_IGES
100
AcDbLine
 62
7
  6
CONTINUOUS
 10
104.5811269045
 20
-29.9242623934
 11
104.6935659319
 21
-29.9242623934
  0
LINE
  5
490
100
AcDbEntity
  8
IMPORT_IGES
100
AcDbLine
 62
7
  6
CONTINUOUS
 10
104.896669467
 20
-29.9242623934
 11
104.9191371693
 21
-29.9242623934
  0
LINE
  5
491
100
AcDbEntity
  8
IMPORT_IGES
100
AcDbLine
 62
7
  6
CONTINUOUS
 10
104.9681283131
 20
-28.6517339611
 11
104.897825577
 21
-28.6517339611
  0
LINE
  5
492
100
AcDbEntity
  8
IMPORT_IGES
100
AcDbLine
 62
7
  6
CONTINUOUS
 10
105.009337868
 20
-28.3325799593
 11
104.947610735
 21
-28.3325799593
  0
LINE
  5
493
100
AcDbEntity
  8
IMPORT_IGES
100
AcDbLine
 62
7
  6
CONTINUOUS
 10
105.1134584939
 20
-27.7925511712
 11
105.1639526245
 21
-27.7925511712
  0
LINE
  5
494
100
AcDbEntity
  8
IMPORT_IGES
100
AcDbLine
 62
7
  6
CONTINUOUS
 10
55.4663804895
 20
7.6032732402
 11
55.4663804895
 21
11.5032732402
  0
LINE
  5
495
100
AcDbEntity
  8
IMPORT_IGES
100
AcDbLine
 62
7
  6
CONTINUOUS
 10
55.4663804895
 20
26.6032732402
 11
55.4663804895
 21
30.5032732402
  0
LINE
  5
496
100
AcDbEntity
  8
IMPORT_IGES
100
AcDbLine
 62
253
  6
CONTINUOUS
 10
55.5971474578
 20
30.5332732402
 11
55.5971474578
 21
26.5732732402
  0
LINE
  5
497
100
AcDbEntity
  8
IMPORT_IGES
100
AcDbLine
 62
253
  6
CONTINUOUS
 10
55.5971474578
 20
11.5332732402
 11
55.5971474578
 21
7.5732732402
  0
LWPOLYLINE
  5
498
100
AcDbEntity
  8
IMPORT_IGES
100
AcDbPolyline
 62
253
  6
CONTINUOUS
 90
22
 70
0
 10
58.9663804895
 20
33.5750373969
 10
58.9691587217
 20
33.6458635343
 10
58.977393163
 20
33.7157582741
 10
58.9909128402
 20
33.7843525588
 10
59.0094565633
 20
33.8510959279
 10
59.0328393592
 20
33.9158764324
 10
59.0611072072
 20
33.9789719714
 10
59.0942054258
 20
34.0401704105
 10
59.131925781
 20
34.0990093707
 10
59.1742228122
 20
34.1553356281
 10
59.2209002279
 20
34.2087821108
 10
59.2717859228
 20
34.2590552374
 10
59.3269245983
 20
34.3060505898
 10
59.3863221841
 20
34.3495477001
 10
59.4495510299
 20
34.3890192927
 10
59.5159547098
 20
34.4239384573
 10
59.5850875129
 20
34.4540226109
 10
59.6566564522
 20
34.4790977396
 10
59.7301379498
 20
34.4989389972
 10
59.8050675378
 20
34.5134001218
 10
59.8810536387
 20
34.5223850502
 10
59.957653954
 20
34.525816456
  0
LWPOLYLINE
  5
499
100
AcDbEntity
  8
IMPORT_IGES
100
AcDbPolyline
 62
253
  6
CONTINUOUS
 90
16
 70
0
 10
77.1663804895
 20
32.8460667431
 10
77.1645122897
 20
32.844084802
 10
77.1589756166
 20
32.8421318765
 10
77.1498912589
 20
32.8402218727
 10
77.1374678262
 20
32.8383761767
 10
77.1218360015
 20
32.8365981086
 10
77.1028969766
 20
32.834875629
 10
77.0806329157
 20
32.8332159742
 10
77.0552160363
 20
32.8316396509
 10
77.0267232319
 20
32.8301573857
 10
76.9952373356
 20
32.8287803389
 10
76.9609875666
 20
32.8275248495
 10
76.9243272064
 20
32.8264078093
 10
76.8855431848
 20
32.8254402163
 10
76.8448911755
 20
32.824630595
 10
76.8027467758
 20
32.8239881811
  0
LWPOLYLINE
  5
49A
100
AcDbEntity
  8
IMPORT_IGES
100
AcDbPolyline
 62
253
  6
CONTINUOUS
 90
19
 70
0
 10
104.7317756057
 20
39.0239949985
 10
104.978586139
 20
39.1473006318
 10
105.2080624545
 20
39.2657957492
 10
105.420836317
 20
39.3793871831
 10
105.6173752403
 20
39.4879115475
 10
105.7984024812
 20
39.59133558
 10
105.9648151068
 20
39.6897439428
 10
106.1168717224
 20
39.7829029626
 10
106.2551902142
 20
39.8707550912
 10
106.3810062319
 20
39.9535928255
 10
106.4949049233
 20
40.0313972964
 10
106.5969756243
 20
40.1038571492
 10
106.6876562387
 20
40.1707991248
 10
106.7674793714
 20
40.2320977481
 10
106.8370100391
 20
40.2877134102
 10
106.8968012699
 20
40.3376339177
 10
106.9473796325
 20
40.3818156656
 10
106.9892522915
 20
40.4202153456
 10
107.0229237594
 20
40.4528367188
  0
LINE
  5
49B
100
AcDbEntity
  8
IMPORT_IGES
100
AcDbLine
 62
7
  6
CONTINUOUS
 10
105.3840117805
 20
-26.5810388633
 11
105.3581952651
 21
-26.5810538208
  0
LINE
  5
49C
100
AcDbEntity
  8
IMPORT_IGES
100
AcDbLine
 62
7
  6
CONTINUOUS
 10
105.3200093316
 20
-26.8400388333
 11
105.3488491564
 21
-26.8400388333
  0
LINE
  5
49D
100
AcDbEntity
  8
IMPORT_IGES
100
AcDbLine
 62
7
  6
CONTINUOUS
 10
105.4638884345
 20
-25.8266460934
 11
105.4916305975
 21
-25.8266460934
  0
LINE
  5
49E
100
AcDbEntity
  8
IMPORT_IGES
100
AcDbLine
 62
7
  6
CONTINUOUS
 10
105.3378705897
 20
-25.7934621388
 11
105.3145389593
 21
-25.7934621388
  0
LINE
  5
49F
100
AcDbEntity
  8
IMPORT_IGES
100
AcDbLine
 62
7
  6
CONTINUOUS
 10
104.8838528604
 20
-25.7934620971
 11
105.0008483067
 21
-25.7934621388
  0
LINE
  5
4A0
100
AcDbEntity
  8
IMPORT_IGES
100
AcDbLine
 62
7
  6
CONTINUOUS
 10
105.3986919058
 20
-25.7934621388
 11
105.4144625645
 21
-25.7934621388
  0
LINE
  5
4A1
100
AcDbEntity
  8
IMPORT_IGES
100
AcDbLine
 62
7
  6
CONTINUOUS
 10
105.1356226311
 20
-25.7934620744
 11
105.2309467165
 21
-25.7934621388
  0
LINE
  5
4A2
100
AcDbEntity
  8
IMPORT_IGES
100
AcDbLine
 62
7
  6
CONTINUOUS
 10
105.4135328235
 20
-25.7928176476
 11
105.4638884345
 21
-25.7934618912
  0
LINE
  5
4A3
100
AcDbEntity
  8
IMPORT_IGES
100
AcDbLine
 62
7
  6
CONTINUOUS
 10
105.3483622982
 20
-25.7921202262
 11
105.3986983413
 21
-25.793462275
  0
LINE
  5
4A4
100
AcDbEntity
  8
IMPORT_IGES
100
AcDbLine
 62
7
  6
CONTINUOUS
 10
105.2643059817
 20
-25.7915316404
 11
105.3145405332
 21
-25.7934618868
  0
LINE
  5
4A5
100
AcDbEntity
  8
IMPORT_IGES
100
AcDbLine
 62
253
  6
CONTINUOUS
 10
59.9576535251
 20
3.5806580325
 11
59.9565213009
 21
3.7704423956
  0
LINE
  5
4A6
100
AcDbEntity
  8
IMPORT_IGES
100
AcDbLine
 62
253
  6
CONTINUOUS
 10
59.9576813464
 20
32.7152406827
 11
59.9560128129
 21
33.4877049133
  0
LINE
  5
4A7
100
AcDbEntity
  8
IMPORT_IGES
100
AcDbLine
 62
253
  6
CONTINUOUS
 10
59.9565213009
 20
3.7704423956
 11
59.9557922171
 21
4.2260410801
  0
LINE
  5
4A8
100
AcDbEntity
  8
IMPORT_IGES
100
AcDbLine
 62
7
  6
CONTINUOUS
 10
58.9663804895
 20
34.3531309928
 11
58.9663804895
 21
3.7534154877
  0
LINE
  5
4A9
100
AcDbEntity
  8
IMPORT_IGES
100
AcDbLine
 62
253
  6
CONTINUOUS
 10
59.957653954
 20
35.3530949589
 11
59.957653954
 21
34.5258164565
  0
LINE
  5
4AA
100
AcDbEntity
  8
IMPORT_IGES
100
AcDbLine
 62
253
  6
CONTINUOUS
 10
59.957653954
 20
3.5807300233
 11
59.957653954
 21
2.7534515215
  0
LINE
  5
4AB
100
AcDbEntity
  8
IMPORT_IGES
100
AcDbLine
 62
253
  6
CONTINUOUS
 10
59.9560128129
 20
33.4877049133
 11
59.9558966457
 21
34.0528255412
  0
LINE
  5
4AC
100
AcDbEntity
  8
IMPORT_IGES
100
AcDbLine
 62
253
  6
CONTINUOUS
 10
59.9557922171
 20
4.2260410801
 11
59.9563333201
 21
4.832902509
  0
LWPOLYLINE
  5
4AD
100
AcDbEntity
  8
IMPORT_IGES
100
AcDbPolyline
 62
253
  6
CONTINUOUS
 90
3
 70
0
 10
59.9563333201
 20
4.832902509
 10
59.9573564462
 20
5.2786625352
 10
59.957653954
 20
32.7153750977
  0
LINE
  5
4AE
100
AcDbEntity
  8
IMPORT_IGES
100
AcDbLine
 62
253
  6
CONTINUOUS
 10
59.9558966457
 20
34.0528255412
 11
59.9567612043
 21
34.3927107761
  0
LINE
  5
4AF
100
AcDbEntity
  8
IMPORT_IGES
100
AcDbLine
 62
253
  6
CONTINUOUS
 10
59.9567612043
 20
34.3927107761
 11
59.9576536297
 21
34.525888448
  0
LINE
  5
4B0
100
AcDbEntity
  8
IMPORT_IGES
100
AcDbLine
 62
7
  6
CONTINUOUS
 10
77.3170730104
 20
-21.4448299264
 11
77.3670806268
 21
-21.4448299264
  0
LINE
  5
4B1
100
AcDbEntity
  8
IMPORT_IGES
100
AcDbLine
 62
7
  6
CONTINUOUS
 10
77.3622699944
 20
-21.1692289765
 11
77.3122623779
 21
-21.1692289765
  0
LINE
  5
4B2
100
AcDbEntity
  8
IMPORT_IGES
100
AcDbLine
 62
7
  6
CONTINUOUS
 10
77.344814894
 20
-20.1692269499
 11
77.2948072776
 21
-20.1692269499
  0
LWPOLYLINE
  5
4B3
100
AcDbEntity
  8
IMPORT_IGES
100
AcDbPolyline
 62
253
  6
CONTINUOUS
 90
16
 70
0
 10
100.573909835
 20
-39.2756917403
 10
100.5632784288
 20
-39.2685596696
 10
100.5491469262
 20
-39.2618174785
 10
100.5315153272
 20
-39.2554674466
 10
100.5102601111
 20
-39.2494695036
 10
100.4855047986
 20
-39.2438677855
 10
100.4576199523
 20
-39.2387915838
 10
100.4262975801
 20
-39.2342441591
 10
100.3918456742
 20
-39.2302273011
 10
100.3555587733
 20
-39.2268694161
 10
100.3174719271
 20
-39.22421763
 10
100.2775500858
 20
-39.2222298035
 10
100.2369826386
 20
-39.2209007316
 10
100.1961660487
 20
-39.2202295865
 10
100.1547038529
 20
-39.2202198361
 10
100.1125960513
 20
-39.2208721814
  0
LINE
  5
4B4
100
AcDbEntity
  8
IMPORT_IGES
100
AcDbLine
 62
7
  6
CONTINUOUS
 10
77.3298988404
 20
-19.3146868086
 11
77.279891224
 21
-19.3146868086
  0
LINE
  5
4B5
100
AcDbEntity
  8
IMPORT_IGES
100
AcDbLine
 62
7
  6
CONTINUOUS
 10
77.317065982
 20
-18.5794928427
 11
77.2670583656
 21
-18.5794928427
  0
LINE
  5
4B6
100
AcDbEntity
  8
IMPORT_IGES
100
AcDbLine
 62
7
  6
CONTINUOUS
 10
77.31692173
 20
-18.5712286506
 11
77.2669141136
 21
-18.5712286506
  0
LINE
  5
4B7
100
AcDbEntity
  8
IMPORT_IGES
100
AcDbLine
 62
7
  6
CONTINUOUS
 10
77.3153397731
 20
-18.4805984031
 11
77.2653321567
 21
-18.4805984031
  0
LINE
  5
4B8
100
AcDbEntity
  8
IMPORT_IGES
100
AcDbLine
 62
7
  6
CONTINUOUS
 10
106.1918168906
 20
-17.7934621388
 11
106.2917182031
 21
-17.7934621388
  0
LINE
  5
4B9
100
AcDbEntity
  8
IMPORT_IGES
100
AcDbLine
 62
7
  6
CONTINUOUS
 10
106.4354634034
 20
-17.7934621387
 11
106.4502546205
 21
-17.7934621387
  0
LINE
  5
4BA
100
AcDbEntity
  8
IMPORT_IGES
100
AcDbLine
 62
7
  6
CONTINUOUS
 10
106.3239148807
 20
-17.7934621388
 11
106.4175984639
 21
-17.793462147
  0
LINE
  5
4BB
100
AcDbEntity
  8
IMPORT_IGES
100
AcDbLine
 62
7
  6
CONTINUOUS
 10
77.2330408844
 20
-16.6306326506
 11
77.2830485008
 21
-16.6306326506
  0
LWPOLYLINE
  5
4BC
100
AcDbEntity
  8
IMPORT_IGES
100
AcDbPolyline
 62
253
  6
CONTINUOUS
 90
13
 70
0
 10
100.573909835
 20
-39.2756917403
 10
100.8031568741
 20
-39.4740988781
 10
101.0092796341
 20
-39.6623796081
 10
101.192278115
 20
-39.8392947447
 10
101.3515335487
 20
-40.0035760144
 10
101.4876647033
 20
-40.1539196381
 10
101.6025278826
 20
-40.2889717267
 10
101.6954678664
 20
-40.4073603593
 10
101.7671398749
 20
-40.5076690996
 10
101.8213658734
 20
-40.5883874491
 10
101.8594198505
 20
-40.647986508
 10
101.8800278176
 20
-40.6849527415
 10
101.8831897747
 20
-40.6977238273
  0
LWPOLYLINE
  5
4BD
100
AcDbEntity
  8
IMPORT_IGES
100
AcDbPolyline
 62
253
  6
CONTINUOUS
 90
4
 70
0
 10
90.623135439
 20
27.2716070489
 10
90.6109675282
 20
27.2615528872
 10
90.5970163169
 20
27.2514609412
 10
90.5952879924
 20
27.2503673198
  0
LINE
  5
4BE
100
AcDbEntity
  8
IMPORT_IGES
100
AcDbLine
 62
7
  6
CONTINUOUS
 10
93.6907302806
 20
19.8923689634
 11
94.2033009591
 21
20.1724313865
  0
LINE
  5
4BF
100
AcDbEntity
  8
IMPORT_IGES
100
AcDbLine
 62
7
  6
CONTINUOUS
 10
77.2446119242
 20
-14.4286026506
 11
77.1946043077
 21
-14.4286026506
  0
LINE
  5
4C0
100
AcDbEntity
  8
IMPORT_IGES
100
AcDbLine
 62
7
  6
CONTINUOUS
 10
77.233584861
 20
-13.7968626506
 11
77.1835772446
 21
-13.7968626506
  0
LINE
  5
4C1
100
AcDbEntity
  8
IMPORT_IGES
100
AcDbLine
 62
7
  6
CONTINUOUS
 10
106.8054201731
 20
-13.2940101388
 11
106.762776729
 21
-13.2940101388
  0
LINE
  5
4C2
100
AcDbEntity
  8
IMPORT_IGES
100
AcDbLine
 62
7
  6
CONTINUOUS
 10
106.5305328792
 20
-13.2940101428
 11
106.6584542697
 21
-13.2940101429
  0
LINE
  5
4C3
100
AcDbEntity
  8
IMPORT_IGES
100
AcDbLine
 62
7
  6
CONTINUOUS
 10
106.8718540042
 20
-13.2938545501
 11
106.8190096418
 21
-13.2937401388
  0
LINE
  5
4C4
100
AcDbEntity
  8
IMPORT_IGES
100
AcDbLine
 62
7
  6
CONTINUOUS
 10
77.2146643563
 20
-12.7129076506
 11
77.16465674
 21
-12.7129076506
  0
LINE
  5
4C5
100
AcDbEntity
  8
IMPORT_IGES
100
AcDbLine
 62
7
  6
CONTINUOUS
 10
77.2130824037
 20
-12.6222776602
 11
77.1630747873
 21
-12.6222776602
  0
LINE
  5
4C6
100
AcDbEntity
  8
IMPORT_IGES
100
AcDbLine
 62
7
  6
CONTINUOUS
 10
77.2121720241
 20
-12.5701220214
 11
77.1621644077
 21
-12.5701220214
  0
LINE
  5
4C7
100
AcDbEntity
  8
IMPORT_IGES
100
AcDbLine
 62
7
  6
CONTINUOUS
 10
77.211624787
 20
-12.5387708242
 11
77.1616171705
 21
-12.5387708242
  0
LINE
  5
4C8
100
AcDbEntity
  8
IMPORT_IGES
100
AcDbLine
 62
7
  6
CONTINUOUS
 10
106.8874038723
 20
-13.2939234475
 11
106.8991046715
 21
-13.2940101509
  0
LINE
  5
4C9
100
AcDbEntity
  8
IMPORT_IGES
100
AcDbLine
 62
7
  6
CONTINUOUS
 10
106.8054286421
 20
-13.2935208768
 11
106.8190098195
 21
-13.2937401397
  0
LINE
  5
4CA
100
AcDbEntity
  8
IMPORT_IGES
100
AcDbLine
 62
7
  6
CONTINUOUS
 10
106.7126425169
 20
-13.2927236064
 11
106.762776541
 21
-13.2940100011
  0
LWPOLYLINE
  5
4CB
100
AcDbEntity
  8
IMPORT_IGES
100
AcDbPolyline
 62
7
  6
CONTINUOUS
 90
5
 70
0
 10
100.5997785343
 20
-39.6934642771
 10
100.6370069186
 20
-39.7294384428
 10
100.7954810974
 20
-39.8915829019
 10
100.9272430454
 20
-40.0366722392
 10
101.0328329395
 20
-40.1626198352
  0
LWPOLYLINE
  5
4CC
100
AcDbEntity
  8
IMPORT_IGES
100
AcDbPolyline
 62
253
  6
CONTINUOUS
 90
3
 70
0
 10
101.1831337548
 20
-40.0581940343
 10
101.0134964086
 20
-39.883002407
 10
100.8176610045
 20
-39.6928945081
  0
LINE
  5
4CD
100
AcDbEntity
  8
IMPORT_IGES
100
AcDbLine
 62
253
  6
CONTINUOUS
 10
101.3265730433
 20
-40.2166109629
 11
101.1831337548
 21
-40.0581940343
  0
LWPOLYLINE
  5
4CE
100
AcDbEntity
  8
IMPORT_IGES
100
AcDbPolyline
 62
253
  6
CONTINUOUS
 90
17
 70
0
 10
58.9663804895
 20
5.4367297682
 10
58.9691587217
 20
5.4333360001
 10
58.977393163
 20
5.4299868616
 10
58.9909128402
 20
5.4267000369
 10
59.0094565633
 20
5.4235019023
 10
59.0328393592
 20
5.420397822
 10
59.0611072071
 20
5.4173744801
 10
59.0942054258
 20
5.4144420413
 10
59.1319257809
 20
5.4116226614
 10
59.1742228122
 20
5.4089236824
 10
59.2209002279
 20
5.4063626932
 10
59.2717859228
 20
5.4039537614
 10
59.3269245983
 20
5.4017018903
 10
59.3863221841
 20
5.3996176441
 10
59.4495510299
 20
5.3977262882
 10
59.5159547098
 20
5.3960530705
 10
59.6566564522
 20
5.3934100093
  0
LWPOLYLINE
  5
4CF
100
AcDbEntity
  8
IMPORT_IGES
100
AcDbPolyline
 62
253
  6
CONTINUOUS
 90
28
 70
0
 10
77.1663804895
 20
38.4125955821
 10
77.1699762524
 20
38.438723933
 10
77.1806908316
 20
38.4644684152
 10
77.1983968969
 20
38.4898290285
 10
77.2229740995
 20
38.5149079394
 10
77.2542338135
 20
38.5396029815
 10
77.2918472489
 20
38.5636076557
 10
77.3355479362
 20
38.5869065607
 10
77.3850377204
 20
38.6095150979
 10
77.4397810577
 20
38.6311729717
 10
77.4988241604
 20
38.6517013815
 10
77.5622641251
 20
38.671279128
 10
77.6314272448
 20
38.6901823177
 10
77.7073594889
 20
38.7086726972
 10
77.7890288433
 20
38.7264885199
 10
77.8746999365
 20
38.7431206524
 10
77.9635294324
 20
38.7584286078
 10
78.0555669329
 20
38.7725528731
 10
78.1501173695
 20
38.7854057754
 10
78.2459639502
 20
38.7969181806
 10
78.3434891262
 20
38.8071592227
 10
78.4445448196
 20
38.8162486315
 10
78.5497008184
 20
38.8242856548
 10
78.6579327153
 20
38.8311710448
 10
78.7688247405
 20
38.8367267872
 10
78.8820154212
 20
38.840893544
 10
78.9972047564
 20
38.8437306533
 10
79.11402659
 20
38.8452381151
  0
LINE
  5
4D0
100
AcDbEntity
  8
IMPORT_IGES
100
AcDbLine
 62
253
  6
CONTINUOUS
 10
79.1140265929
 20
-10.0358086231
 11
78.8578946309
 21
-10.0368097598
  0
LINE
  5
4D1
100
AcDbEntity
  8
IMPORT_IGES
100
AcDbLine
 62
253
  6
CONTINUOUS
 10
78.8578946309
 20
-10.0368097598
 11
78.6068651378
 21
-10.0360194558
  0
LINE
  5
4D2
100
AcDbEntity
  8
IMPORT_IGES
100
AcDbLine
 62
253
  6
CONTINUOUS
 10
78.6068651378
 20
-10.0360194558
 11
78.3650889223
 21
-10.0334731269
  0
LWPOLYLINE
  5
4D3
100
AcDbEntity
  8
IMPORT_IGES
100
AcDbPolyline
 62
253
  6
CONTINUOUS
 90
18
 70
0
 10
78.3650889223
 20
-10.0334731269
 10
78.1365635854
 20
-10.0292034289
 10
78.0284610026
 20
-10.0264417503
 10
77.925067405
 20
-10.0232776471
 10
77.8268106507
 20
-10.0197284085
 10
77.7340972908
 20
-10.0158015542
 10
77.6473109491
 20
-10.0115162029
 10
77.5668107583
 20
-10.0068938881
 10
77.4929298397
 20
-10.0019477034
 10
77.4259738794
 20
-9.9967002644
 10
77.3662199334
 20
-9.9911765562
 10
77.3139152832
 20
-9.9853947655
 10
77.2692874566
 20
-9.9793818965
 10
77.2325056416
 20
-9.9731637858
 10
77.2037016295
 20
-9.9667576206
 10
77.1830099774
 20
-9.9601876154
 10
77.1705455817
 20
-9.9534852361
 10
77.1663804895
 20
-9.9466789835
  0
LWPOLYLINE
  5
4D4
100
AcDbEntity
  8
IMPORT_IGES
100
AcDbPolyline
 62
7
  6
CONTINUOUS
 90
4
 70
0
 10
101.0328329395
 20
-40.1626198352
 10
101.1127495713
 20
-40.2666410726
 10
101.1676413652
 20
-40.3452650996
 10
101.199287185
 20
-40.3956837832
  0
LWPOLYLINE
  5
4D5
100
AcDbEntity
  8
IMPORT_IGES
100
AcDbPolyline
 62
253
  6
CONTINUOUS
 90
9
 70
0
 10
79.5910074338
 20
-39.1064769637
 10
79.5873504244
 20
-39.0865963822
 10
79.5837526884
 20
-39.0599108736
 10
79.5803271607
 20
-39.0264308628
 10
79.5772339541
 20
-38.9861589864
 10
79.5745512712
 20
-38.9393765509
 10
79.5722086102
 20
-38.8868084911
 10
79.570242953
 20
-38.8295260939
 10
79.5686892362
 20
-38.7676873319
  0
LWPOLYLINE
  5
4D6
100
AcDbEntity
  8
IMPORT_IGES
100
AcDbPolyline
 62
253
  6
CONTINUOUS
 90
25
 70
0
 10
77.6425545041
 20
-37.2267177604
 10
77.649053436
 20
-37.3522497233
 10
77.6642004375
 20
-37.4775673231
 10
77.6879411991
 20
-37.6017461792
 10
77.7200908959
 20
-37.7238661701
 10
77.7603283285
 20
-37.843060105
 10
77.8081940843
 20
-37.958537152
 10
77.862799388
 20
-38.0689488002
 10
77.923739765
 20
-38.1742983561
 10
77.9915194384
 20
-38.2758173086
 10
78.0657570384
 20
-38.3729284323
 10
78.1459273033
 20
-38.4650214963
 10
78.2328827156
 20
-38.5529976195
 10
78.3273916322
 20
-38.6371155206
 10
78.4279837573
 20
-38.715623645
 10
78.5320227071
 20
-38.7866356503
 10
78.6368103185
 20
-38.8490295426
 10
78.7432759557
 20
-38.9040740163
 10
78.854214477
 20
-38.95334328
 10
78.9699538545
 20
-38.9966436574
 10
79.088929904
 20
-39.0331339323
 10
79.2112571851
 20
-39.0626958434
 10
79.3364249645
 20
-39.0849852451
 10
79.4633022049
 20
-39.099631568
 10
79.5910074649
 20
-39.1064757453
  0
LWPOLYLINE
  5
4D7
100
AcDbEntity
  8
IMPORT_IGES
100
AcDbPolyline
 62
253
  6
CONTINUOUS
 90
19
 70
0
 10
77.1663804895
 20
3.0035504846
 10
77.1645122897
 20
3.0445176539
 10
77.1589756166
 20
3.0848850639
 10
77.1498912589
 20
3.1243652751
 10
77.1374678261
 20
3.1625162277
 10
77.1218360015
 20
3.1992692964
 10
77.1028969766
 20
3.2348733369
 10
77.0806329157
 20
3.2691787772
 10
77.0552160363
 20
3.3017617358
 10
77.0267232319
 20
3.3324004906
 10
76.9952373356
 20
3.3608643585
 10
76.9609875666
 20
3.3868156086
 10
76.9243272064
 20
3.4099050808
 10
76.8855431848
 20
3.4299054482
 10
76.8448911755
 20
3.4466405028
 10
76.8027467758
 20
3.4599193434
 10
76.7594598798
 20
3.4696102465
 10
76.7153432111
 20
3.4756222167
 10
76.6707437573
 20
3.4778840053
  0
LINE
  5
4D8
100
AcDbEntity
  8
IMPORT_IGES
100
AcDbLine
 62
7
  6
CONTINUOUS
 10
77.3170730104
 20
-21.4448299264
 11
77.3122774823
 21
-21.1701016223
  0
LINE
  5
4D9
100
AcDbEntity
  8
IMPORT_IGES
100
AcDbLine
 62
7
  6
CONTINUOUS
 10
77.2670583656
 20
-18.5794928427
 11
77.3122623779
 21
-21.1692289765
  0
LINE
  5
4DA
100
AcDbEntity
  8
IMPORT_IGES
100
AcDbLine
 62
7
  6
CONTINUOUS
 10
77.2669141136
 20
-18.5712286506
 11
77.1947180434
 21
-14.4351185615
  0
LINE
  5
4DB
100
AcDbEntity
  8
IMPORT_IGES
100
AcDbLine
 62
7
  6
CONTINUOUS
 10
77.1946043077
 20
-14.4286026506
 11
77.1616171705
 21
-12.5387708242
  0
LINE
  5
4DC
100
AcDbEntity
  8
IMPORT_IGES
100
AcDbLine
 62
7
  6
CONTINUOUS
 10
77.1663805215
 20
-9.9467285901
 11
77.6673752016
 21
-38.6486945959
  0
LINE
  5
4DD
100
AcDbEntity
  8
IMPORT_IGES
100
AcDbLine
 62
253
  6
CONTINUOUS
 10
76.6707446946
 20
34.6285802266
 11
76.6716033867
 21
34.1560940122
  0
LINE
  5
4DE
100
AcDbEntity
  8
IMPORT_IGES
100
AcDbLine
 62
253
  6
CONTINUOUS
 10
76.6707437573
 20
34.6286624749
 11
76.6707437573
 21
35.498947884
  0
LINE
  5
4DF
100
AcDbEntity
  8
IMPORT_IGES
100
AcDbLine
 62
7
  6
CONTINUOUS
 10
77.1663804895
 20
-9.9467285865
 11
77.1663804895
 21
39.9069326936
  0
LINE
  5
4E0
100
AcDbEntity
  8
IMPORT_IGES
100
AcDbLine
 62
253
  6
CONTINUOUS
 10
76.6716033867
 20
34.1560940122
 11
76.671277446
 21
33.270321481
  0
LWPOLYLINE
  5
4E1
100
AcDbEntity
  8
IMPORT_IGES
100
AcDbPolyline
 62
253
  6
CONTINUOUS
 90
3
 70
0
 10
76.671277446
 20
33.270321481
 10
76.6708834922
 20
32.9355937552
 10
76.6714006981
 20
3.7302823914
  0
LINE
  5
4E2
100
AcDbEntity
  8
IMPORT_IGES
100
AcDbLine
 62
253
  6
CONTINUOUS
 10
76.6714006981
 20
3.7302823914
 11
76.6707437573
 21
2.6075985964
  0
LWPOLYLINE
  5
4E3
100
AcDbEntity
  8
IMPORT_IGES
100
AcDbPolyline
 62
253
  6
CONTINUOUS
 90
11
 70
0
 10
79.1140251573
 20
40.3289733251
 10
79.1118138478
 20
40.3106926902
 10
79.1098060007
 20
40.2858231426
 10
79.1080071827
 20
40.2546027422
 10
79.1064254003
 20
40.2173912625
 10
79.1050591975
 20
40.1744035608
 10
79.103902769
 20
40.1255629112
 10
79.1029605545
 20
40.0709807593
 10
79.1022392583
 20
40.0109518886
 10
79.1017415027
 20
39.94554004
 10
79.1014345969
 20
39.7995964044
  0
LWPOLYLINE
  5
4E4
100
AcDbEntity
  8
IMPORT_IGES
100
AcDbPolyline
 62
253
  6
CONTINUOUS
 90
16
 70
0
 10
105.2937099397
 20
16.0437716024
 10
105.3074071203
 20
16.0493251415
 10
105.3243660479
 20
16.0549631353
 10
105.3444389767
 20
16.0606265491
 10
105.3674624069
 20
16.0662526125
 10
105.3933011041
 20
16.0717863123
 10
105.421865915
 20
16.0771795979
 10
105.4530378106
 20
16.0823745175
 10
105.4866663656
 20
16.0873080768
 10
105.5224884693
 20
16.0919311742
 10
105.5599930817
 20
16.0961961788
 10
105.5987398853
 20
16.1000660094
 10
105.6384129681
 20
16.1035129153
 10
105.6786467186
 20
16.1065166065
 10
105.718990128
 20
16.1090624439
 10
105.7590321567
 20
16.1111411044
  0
LINE
  5
4E5
100
AcDbEntity
  8
IMPORT_IGES
100
AcDbLine
 62
253
  6
CONTINUOUS
 10
79.1078785545
 20
39.1553808897
 11
79.11404524
 21
38.8452344033
  0
LINE
  5
4E6
100
AcDbEntity
  8
IMPORT_IGES
100
AcDbLine
 62
253
  6
CONTINUOUS
 10
79.0179718252
 20
-39.6280297785
 11
79.0334129392
 21
-40.5107819619
  0
LINE
  5
4E7
100
AcDbEntity
  8
IMPORT_IGES
100
AcDbLine
 62
7
  6
CONTINUOUS
 10
79.6917504123
 20
-40.0276957457
 11
79.685684536
 21
-39.6801819221
  0
LINE
  5
4E8
100
AcDbEntity
  8
IMPORT_IGES
100
AcDbLine
 62
253
  6
CONTINUOUS
 10
79.5959378968
 20
-37.8966450049
 11
79.1140265929
 21
-10.0357561199
  0
LWPOLYLINE
  5
4E9
100
AcDbEntity
  8
IMPORT_IGES
100
AcDbPolyline
 62
253
  6
CONTINUOUS
 90
8
 70
0
 10
79.586977101
 20
-39.0098956489
 10
79.5873011519
 20
-39.0288884279
 10
79.5877034967
 20
-39.04610401
 10
79.5881885635
 20
-39.0615766168
 10
79.5887575762
 20
-39.0753235201
 10
79.5894139874
 20
-39.0873686801
 10
79.5901627569
 20
-39.0977418527
 10
79.5910074338
 20
-39.1064769637
  0
LINE
  5
4EA
100
AcDbEntity
  8
IMPORT_IGES
100
AcDbLine
 62
253
  6
CONTINUOUS
 10
79.5686892362
 20
-38.7676873319
 11
79.5662888451
 21
-38.6285878173
  0
LINE
  5
4EB
100
AcDbEntity
  8
IMPORT_IGES
100
AcDbLine
 62
253
  6
CONTINUOUS
 10
79.5910074338
 20
-39.1064769638
 11
79.5987221584
 21
-39.6799013241
  0
LINE
  5
4EC
100
AcDbEntity
  8
IMPORT_IGES
100
AcDbLine
 62
253
  6
CONTINUOUS
 10
79.1036838757
 20
39.451434578
 11
79.1078785545
 21
39.1553808897
  0
LINE
  5
4ED
100
AcDbEntity
  8
IMPORT_IGES
100
AcDbLine
 62
253
  6
CONTINUOUS
 10
79.5865485167
 20
-38.9666902171
 11
79.586977101
 21
-39.0098956489
  0
LINE
  5
4EE
100
AcDbEntity
  8
IMPORT_IGES
100
AcDbLine
 62
253
  6
CONTINUOUS
 10
79.1020726311
 20
39.6340838269
 11
79.1036838757
 21
39.451434578
  0
LINE
  5
4EF
100
AcDbEntity
  8
IMPORT_IGES
100
AcDbLine
 62
253
  6
CONTINUOUS
 10
79.5662888451
 20
-38.6285878173
 11
79.5648803224
 21
-38.4703591353
  0
LINE
  5
4F0
100
AcDbEntity
  8
IMPORT_IGES
100
AcDbLine
 62
253
  6
CONTINUOUS
 10
79.1014345969
 20
39.7995964044
 11
79.1020726311
 21
39.6340838269
  0
LINE
  5
4F1
100
AcDbEntity
  8
IMPORT_IGES
100
AcDbLine
 62
253
  6
CONTINUOUS
 10
79.5863827214
 20
-38.9168737743
 11
79.5865485167
 21
-38.9666902171
  0
LINE
  5
4F2
100
AcDbEntity
  8
IMPORT_IGES
100
AcDbLine
 62
253
  6
CONTINUOUS
 10
79.1140265929
 20
41.9062481404
 11
79.1140265929
 21
40.3289193995
  0
LINE
  5
4F3
100
AcDbEntity
  8
IMPORT_IGES
100
AcDbLine
 62
253
  6
CONTINUOUS
 10
79.11402659
 20
38.8452381151
 11
79.1140265929
 21
-10.0357561199
  0
LINE
  5
4F4
100
AcDbEntity
  8
IMPORT_IGES
100
AcDbLine
 62
253
  6
CONTINUOUS
 10
79.5648803224
 20
-38.4703591353
 11
79.5646298024
 21
-38.2906655052
  0
LINE
  5
4F5
100
AcDbEntity
  8
IMPORT_IGES
100
AcDbLine
 62
253
  6
CONTINUOUS
 10
79.5866656188
 20
-38.7988975652
 11
79.5863827214
 21
-38.9168737743
  0
LINE
  5
4F6
100
AcDbEntity
  8
IMPORT_IGES
100
AcDbLine
 62
253
  6
CONTINUOUS
 10
79.5874372865
 20
-38.6585492729
 11
79.5866656188
 21
-38.7988975652
  0
LINE
  5
4F7
100
AcDbEntity
  8
IMPORT_IGES
100
AcDbLine
 62
253
  6
CONTINUOUS
 10
79.5646298024
 20
-38.2906655052
 11
79.5656095495
 21
-38.0973138884
  0
LINE
  5
4F8
100
AcDbEntity
  8
IMPORT_IGES
100
AcDbLine
 62
253
  6
CONTINUOUS
 10
79.589986182
 20
-38.321758745
 11
79.5874372865
 21
-38.6585492729
  0
LINE
  5
4F9
100
AcDbEntity
  8
IMPORT_IGES
100
AcDbLine
 62
253
  6
CONTINUOUS
 10
79.5656095495
 20
-38.0973138884
 11
79.5677791166
 21
-37.8967227135
  0
LINE
  5
4FA
100
AcDbEntity
  8
IMPORT_IGES
100
AcDbLine
 62
253
  6
CONTINUOUS
 10
79.5928068908
 20
-38.0866769575
 11
79.589986182
 21
-38.321758745
  0
LINE
  5
4FB
100
AcDbEntity
  8
IMPORT_IGES
100
AcDbLine
 62
253
  6
CONTINUOUS
 10
79.5959378968
 20
-37.8966450038
 11
79.5928068908
 21
-38.0866769575
  0
LWPOLYLINE
  5
4FC
100
AcDbEntity
  8
IMPORT_IGES
100
AcDbPolyline
 62
253
  6
CONTINUOUS
 90
13
 70
0
 10
105.6347826445
 20
41.9037200121
 10
105.6188230441
 20
41.8795390391
 10
105.5713459613
 20
41.8303452639
 10
105.4923513962
 20
41.7583258136
 10
105.3824636073
 20
41.6655164756
 10
105.2410583359
 20
41.5540464758
 10
105.0662628064
 20
41.4262982975
 10
104.8567394521
 20
41.2844786356
 10
104.6138258397
 20
41.1304985141
 10
104.3396618928
 20
40.9663725464
 10
104.0349609195
 20
40.7940328438
 10
103.6990096118
 20
40.6152872919
 10
103.3318079697
 20
40.4318897512
  0
LINE
  5
4FD
100
AcDbEntity
  8
IMPORT_IGES
100
AcDbLine
 62
7
  6
CONTINUOUS
 10
90.9456291898
 20
17.8273070947
 11
90.7579274806
 21
17.5544692082
  0
LINE
  5
4FE
100
AcDbEntity
  8
IMPORT_IGES
100
AcDbLine
 62
7
  6
CONTINUOUS
 10
93.6643034068
 20
20.2793077607
 11
93.902747192
 21
20.6259402291
  0
LWPOLYLINE
  5
4FF
100
AcDbEntity
  8
IMPORT_IGES
100
AcDbPolyline
 62
253
  6
CONTINUOUS
 90
4
 70
0
 10
94.1374487652
 20
10.8562107176
 10
94.1370094848
 20
10.8559364883
 10
94.122365677
 20
10.845446395
 10
94.1095976011
 20
10.834930624
  0
LINE
  5
500
100
AcDbEntity
  8
IMPORT_IGES
100
AcDbLine
 62
7
  6
CONTINUOUS
 10
123.1751066927
 20
-2.1553019758
 11
108.1169319131
 21
-2.4181433943
  0
LINE
  5
501
100
AcDbEntity
  8
IMPORT_IGES
100
AcDbLine
 62
7
  6
CONTINUOUS
 10
101.1992887194
 20
-40.3956877684
 11
101.2105189849
 21
-40.4157127989
  0
LWPOLYLINE
  5
502
100
AcDbEntity
  8
IMPORT_IGES
100
AcDbPolyline
 62
7
  6
CONTINUOUS
 90
15
 70
0
 10
101.2046126647
 20
-40.4028190656
 10
101.2186323367
 20
-40.4323150756
 10
101.2392316968
 20
-40.4686454837
 10
101.2629905296
 20
-40.503475589
 10
101.2898140937
 20
-40.5362903354
 10
101.3198173845
 20
-40.5669701768
 10
101.3527494301
 20
-40.5952692056
 10
101.3881632588
 20
-40.6208185733
 10
101.4257400186
 20
-40.6433580366
 10
101.4648790995
 20
-40.6624604879
 10
101.505248639
 20
-40.6778890758
 10
101.5469811235
 20
-40.6897308168
 10
101.5898069958
 20
-40.6979383946
 10
101.6329984348
 20
-40.7024117406
 10
101.6759313517
 20
-40.7031510791
  0
LINE
  5
503
100
AcDbEntity
  8
IMPORT_IGES
100
AcDbLine
 62
253
  6
CONTINUOUS
 10
90.2471668381
 20
29.0757969762
 11
90.2565534827
 21
29.1269321458
  0
LINE
  5
504
100
AcDbEntity
  8
IMPORT_IGES
100
AcDbLine
 62
253
  6
CONTINUOUS
 10
90.2565534827
 20
29.1269321458
 11
90.2671857315
 21
29.1778730203
  0
LINE
  5
505
100
AcDbEntity
  8
IMPORT_IGES
100
AcDbLine
 62
253
  6
CONTINUOUS
 10
77.1663804895
 20
1.7325902855
 11
103.1776582531
 21
1.7325914689
  0
LINE
  5
506
100
AcDbEntity
  8
IMPORT_IGES
100
AcDbLine
 62
7
  6
CONTINUOUS
 10
92.2163804895
 20
3.6111925713
 11
92.6163804895
 21
3.6111925713
  0
LINE
  5
507
100
AcDbEntity
  8
IMPORT_IGES
100
AcDbLine
 62
253
  6
CONTINUOUS
 10
59.9576535251
 20
3.5806580325
 11
76.6707446948
 21
3.4779662535
  0
LINE
  5
508
100
AcDbEntity
  8
IMPORT_IGES
100
AcDbLine
 62
7
  6
CONTINUOUS
 10
59.957653954
 20
2.7534515215
 11
76.6707437573
 21
2.6075985964
  0
LINE
  5
509
100
AcDbEntity
  8
IMPORT_IGES
100
AcDbLine
 62
253
  6
CONTINUOUS
 10
105.0225310729
 20
1.6642789653
 11
103.1771907772
 21
1.7326096449
  0
LWPOLYLINE
  5
50A
100
AcDbEntity
  8
IMPORT_IGES
100
AcDbPolyline
 62
253
  6
CONTINUOUS
 90
22
 70
0
 10
59.957653954
 20
3.5807300244
 10
59.8831911288
 20
3.5839895763
 10
59.8097554577
 20
3.5924286501
 10
59.7377335825
 20
3.6058814675
 10
59.6677021369
 20
3.624094891
 10
59.5997772427
 20
3.646892075
 10
59.533667038
 20
3.6743191607
 10
59.4695941453
 20
3.7063223068
 10
59.4080430263
 20
3.7426994938
 10
59.3491744284
 20
3.7834061612
 10
59.2933726846
 20
3.8282524755
 10
59.2409450488
 20
3.8770722407
 10
59.1920017265
 20
3.9299070464
 10
59.1467746333
 20
3.9867606061
 10
59.1058145666
 20
4.0472217178
 10
59.0696699434
 20
4.1106616675
 10
59.0386340637
 20
4.1766542168
 10
59.0128873789
 20
4.2449192811
 10
58.9926617879
 20
4.3149570923
 10
58.9781070596
 20
4.386324768
 10
58.9693208056
 20
4.458649166
 10
58.9663804895
 20
4.5315090835
  0
LWPOLYLINE
  5
50B
100
AcDbEntity
  8
IMPORT_IGES
100
AcDbPolyline
 62
253
  6
CONTINUOUS
 90
19
 70
0
 10
103.3205845607
 20
-39.461808586
 10
103.317980019
 20
-39.4562138286
 10
103.3096764729
 20
-39.4398778837
 10
103.2949792894
 20
-39.4131578546
 10
103.2731968829
 20
-39.376406998
 10
103.2437585286
 20
-39.3300237988
 10
103.2061282269
 20
-39.2744497603
 10
103.1597648693
 20
-39.2100482924
 10
103.1042666724
 20
-39.1372273366
 10
103.0393407987
 20
-39.0565232066
 10
102.964802859
 20
-38.9685049009
 10
102.8803234539
 20
-38.8734696812
 10
102.7853445825
 20
-38.7715036834
 10
102.6795207985
 20
-38.6628953893
 10
102.5627576942
 20
-38.5480874043
 10
102.4347851889
 20
-38.4273307756
 10
102.2954372063
 20
-38.3009623492
 10
102.1446105191
 20
-38.169307607
 10
101.9820543181
 20
-38.0325481533
  0
LINE
  5
50C
100
AcDbEntity
  8
IMPORT_IGES
100
AcDbLine
 62
7
  6
CONTINUOUS
 10
101.2105189849
 20
-40.4157127989
 11
101.2046075795
 21
-40.4028074898
  0
LINE
  5
50D
100
AcDbEntity
  8
RACCORDO
100
AcDbLine
 62
7
  6
CONTINUOUS
 10
86.1163804895
 20
-41.7467267598
 11
86.1163804895
 21
-39.6984324207
  0
LINE
  5
50E
100
AcDbEntity
  8
RACCORDO
100
AcDbLine
 62
253
  6
CONTINUOUS
 10
86.6163804895
 20
-42.2467267598
 11
86.6163804895
 21
-39.699627877
  0
LINE
  5
50F
100
AcDbEntity
  8
IMPORT_IGES
100
AcDbLine
 62
7
  6
CONTINUOUS
 10
88.4163804895
 20
9.5532732402
 11
88.4163804895
 21
28.5532732402
  0
LINE
  5
510
100
AcDbEntity
  8
IMPORT_IGES
100
AcDbLine
 62
7
  6
CONTINUOUS
 10
88.4663804895
 20
9.6532732402
 11
88.4663804895
 21
28.4532732402
  0
LINE
  5
511
100
AcDbEntity
  8
IMPORT_IGES
100
AcDbLine
 62
253
  6
CONTINUOUS
 10
88.6663807663
 20
28.4538527516
 11
88.6663807663
 21
9.6516915512
  0
LWPOLYLINE
  5
512
100
AcDbEntity
  8
IMPORT_IGES
100
AcDbPolyline
 62
253
  6
CONTINUOUS
 90
8
 70
0
 10
90.2164145745
 20
28.7133483
 10
90.2170476213
 20
28.7654267462
 10
90.2189348643
 20
28.8174150947
 10
90.2220763034
 20
28.8693133455
 10
90.2264748027
 20
28.921156231
 10
90.2321274982
 20
28.9729090187
 10
90.239025798
 20
29.0244675113
 10
90.2471668381
 20
29.0757969762
  0
LWPOLYLINE
  5
513
100
AcDbEntity
  8
IMPORT_IGES
100
AcDbPolyline
 62
253
  6
CONTINUOUS
 90
10
 70
0
 10
90.4231534695
 20
29.127556932
 10
90.4268573281
 20
29.2361370738
 10
90.438826903
 20
29.3439696084
 10
90.4590621941
 20
29.4510545357
 10
90.4876789468
 20
29.558252131
 10
90.5245614157
 20
29.664702119
 10
90.5693623653
 20
29.7678236739
 10
90.6219660503
 20
29.8667565205
 10
90.6824882161
 20
29.9623609339
 10
90.707502335
 20
29.996086541
  0
LINE
  5
514
100
AcDbEntity
  8
IMPORT_IGES
100
AcDbLine
 62
7
  6
CONTINUOUS
 10
92.1163804895
 20
4.7945457077
 11
92.2163804895
 21
4.7962912142
  0
LINE
  5
515
100
AcDbEntity
  8
IMPORT_IGES
100
AcDbLine
 62
7
  6
CONTINUOUS
 10
92.1163804895
 20
5.3532732402
 11
92.2163804895
 21
5.3532732402
  0
LINE
  5
516
100
AcDbEntity
  8
IMPORT_IGES
100
AcDbLine
 62
7
  6
CONTINUOUS
 10
92.2163804895
 20
5.6032732402
 11
92.1163804895
 21
5.6032732402
  0
LINE
  5
517
100
AcDbEntity
  8
IMPORT_IGES
100
AcDbLine
 62
7
  6
CONTINUOUS
 10
92.2163804895
 20
5.6111925713
 11
92.6163804895
 21
5.6111925713
  0
LINE
  5
518
100
AcDbEntity
  8
IMPORT_IGES
100
AcDbLine
 62
253
  6
CONTINUOUS
 10
91.1304302392
 20
5.8032732402
 11
91.7438855096
 21
5.8032732402
  0
LINE
  5
519
100
AcDbEntity
  8
IMPORT_IGES
100
AcDbLine
 62
253
  6
CONTINUOUS
 10
92.9888754694
 20
5.8032732402
 11
93.6025428458
 21
5.8032732402
  0
LINE
  5
51A
100
AcDbEntity
  8
IMPORT_IGES
100
AcDbLine
 62
7
  6
CONTINUOUS
 10
41.9163804895
 20
7.5732732402
 11
48.4663804895
 21
7.5732732402
  0
LINE
  5
51B
100
AcDbEntity
  8
IMPORT_IGES
100
AcDbLine
 62
7
  6
CONTINUOUS
 10
55.5971474578
 20
7.5732732402
 11
58.9663804895
 21
7.5732732402
  0
LINE
  5
51C
100
AcDbEntity
  8
IMPORT_IGES
100
AcDbLine
 62
7
  6
CONTINUOUS
 10
55.4663804895
 20
7.6032732402
 11
48.4663804895
 21
7.6032732402
  0
LINE
  5
51D
100
AcDbEntity
  8
IMPORT_IGES
100
AcDbLine
 62
253
  6
CONTINUOUS
 10
59.8050675378
 20
5.3917663458
 11
59.957653954
 21
5.3911713937
  0
LINE
  5
51E
100
AcDbEntity
  8
IMPORT_IGES
100
AcDbLine
 62
253
  6
CONTINUOUS
 10
59.957681451
 20
5.3913058519
 11
76.7565355827
 21
5.2830521501
  0
LINE
  5
51F
100
AcDbEntity
  8
IMPORT_IGES
100
AcDbLine
 62
253
  6
CONTINUOUS
 10
59.6566564522
 20
5.3934100093
 11
59.8050675378
 21
5.3917663458
  0
LWPOLYLINE
  5
520
100
AcDbEntity
  8
IMPORT_IGES
100
AcDbPolyline
 62
253
  6
CONTINUOUS
 90
16
 70
0
 10
76.7565355827
 20
5.2830521501
 10
76.8382134312
 20
5.2820305311
 10
76.8768041159
 20
5.2812970849
 10
76.91415269
 20
5.2804124435
 10
76.9501042567
 20
5.2793757878
 10
76.9842111428
 20
5.2781952806
 10
77.0162463137
 20
5.2768743098
 10
77.0459701233
 20
5.2754165221
 10
77.0730229039
 20
5.2738327098
 10
77.0970335047
 20
5.2721395834
 10
77.1177667094
 20
5.2703503306
 10
77.1350381949
 20
5.2684768957
 10
77.1486462516
 20
5.2665374114
 10
77.1584596501
 20
5.2645483271
 10
77.1643931147
 20
5.2625237945
 10
77.1663804895
 20
5.2604797373
  0
LINE
  5
521
100
AcDbEntity
  8
IMPORT_IGES
100
AcDbLine
 62
253
  6
CONTINUOUS
 10
90.2164145745
 20
28.7133483
 11
90.2164069087
 21
28.0881334962
  0
LINE
  5
522
100
AcDbEntity
  8
IMPORT_IGES
100
AcDbLine
 62
7
  6
CONTINUOUS
 10
90.2663804895
 20
27.992718184
 11
90.2663804895
 21
29.1275373053
  0
LINE
  5
523
100
AcDbEntity
  8
IMPORT_IGES
100
AcDbLine
 62
253
  6
CONTINUOUS
 10
90.4231534695
 20
29.127556932
 11
90.4231534695
 21
27.9927515849
  0
LINE
  5
524
100
AcDbEntity
  8
IMPORT_IGES
100
AcDbLine
 62
7
  6
CONTINUOUS
 10
92.1163804895
 20
-39.7101959695
 11
92.1163804895
 21
5.6111925713
  0
LINE
  5
525
100
AcDbEntity
  8
IMPORT_IGES
100
AcDbLine
 62
7
  6
CONTINUOUS
 10
92.1163804895
 20
32.4953539091
 11
92.1163804895
 21
42.2467258328
  0
LINE
  5
526
100
AcDbEntity
  8
IMPORT_IGES
100
AcDbLine
 62
7
  6
CONTINUOUS
 10
92.2163804895
 20
3.6111925713
 11
92.2163804895
 21
5.6111925713
  0
LINE
  5
527
100
AcDbEntity
  8
IMPORT_IGES
100
AcDbLine
 62
7
  6
CONTINUOUS
 10
92.2163804895
 20
32.4953539091
 11
92.2163804895
 21
34.4953539091
  0
LINE
  5
528
100
AcDbEntity
  8
IMPORT_IGES
100
AcDbLine
 62
7
  6
CONTINUOUS
 10
92.6163804895
 20
5.6111925713
 11
92.6163804895
 21
-39.7101959695
  0
LINE
  5
529
100
AcDbEntity
  8
IMPORT_IGES
100
AcDbLine
 62
7
  6
CONTINUOUS
 10
92.6163804895
 20
32.4953539091
 11
92.6163804895
 21
42.2467258328
  0
LINE
  5
52A
100
AcDbEntity
  8
IMPORT_IGES
100
AcDbLine
 62
253
  6
CONTINUOUS
 10
94.4855941413
 20
9.0307495028
 11
94.4762074966
 21
8.979614331
  0
LINE
  5
52B
100
AcDbEntity
  8
IMPORT_IGES
100
AcDbLine
 62
253
  6
CONTINUOUS
 10
94.4762074966
 20
8.979614331
 11
94.4655752473
 21
8.9286734537
  0
LWPOLYLINE
  5
52C
100
AcDbEntity
  8
IMPORT_IGES
100
AcDbPolyline
 62
253
  6
CONTINUOUS
 90
4
 70
0
 10
94.5163804897
 20
9.3931981877
 10
94.5337413301
 20
9.3933511798
 10
94.5505757193
 20
9.3938055391
 10
94.5589839227
 20
9.3942004764
  0
LINE
  5
52D
100
AcDbEntity
  8
IMPORT_IGES
100
AcDbLine
 62
253
  6
CONTINUOUS
 10
94.3096085144
 20
8.9790091761
 11
94.4663804895
 21
8.9790091761
  0
LINE
  5
52E
100
AcDbEntity
  8
IMPORT_IGES
100
AcDbLine
 62
253
  6
CONTINUOUS
 10
88.4663804895
 20
9.6532732402
 11
88.6663807663
 21
9.6532732402
  0
LINE
  5
52F
100
AcDbEntity
  8
IMPORT_IGES
100
AcDbLine
 62
253
  6
CONTINUOUS
 10
96.0663804895
 20
9.6532732402
 11
96.2663804895
 21
9.6532732402
  0
LINE
  5
530
100
AcDbEntity
  8
IMPORT_IGES
100
AcDbLine
 62
253
  6
CONTINUOUS
 10
94.4663804895
 20
10.113828353
 11
94.3096085144
 21
10.113828353
  0
LINE
  5
531
100
AcDbEntity
  8
IMPORT_IGES
100
AcDbLine
 62
7
  6
CONTINUOUS
 10
55.4663804895
 20
11.5032732402
 11
48.4663804895
 21
11.5032732402
  0
LINE
  5
532
100
AcDbEntity
  8
IMPORT_IGES
100
AcDbLine
 62
7
  6
CONTINUOUS
 10
41.9163804895
 20
11.5332732402
 11
48.4663804895
 21
11.5332732402
  0
LINE
  5
533
100
AcDbEntity
  8
IMPORT_IGES
100
AcDbLine
 62
7
  6
CONTINUOUS
 10
55.5971474578
 20
11.5332732402
 11
58.9663804895
 21
11.5332732402
  0
LWPOLYLINE
  5
534
100
AcDbEntity
  8
IMPORT_IGES
100
AcDbPolyline
 62
253
  6
CONTINUOUS
 90
7
 70
0
 10
101.6759213783
 20
-40.7031513412
 10
101.672394073
 20
-40.6877166163
 10
101.6469878008
 20
-40.643237103
 10
101.5997025618
 20
-40.5718343832
 10
101.5319780528
 20
-40.4755300597
 10
101.442374577
 20
-40.3563997799
 10
101.3265730433
 20
-40.2166109629
  0
LINE
  5
535
100
AcDbEntity
  8
IMPORT_IGES
100
AcDbLine
 62
253
  6
CONTINUOUS
 10
94.3096085142
 20
8.9789982263
 11
94.3096085142
 21
10.113815545
  0
LINE
  5
536
100
AcDbEntity
  8
IMPORT_IGES
100
AcDbLine
 62
7
  6
CONTINUOUS
 10
94.4663804895
 20
10.1138283595
 11
94.4663804895
 21
8.9790091734
  0
LINE
  5
537
100
AcDbEntity
  8
IMPORT_IGES
100
AcDbLine
 62
253
  6
CONTINUOUS
 10
94.5163464036
 20
9.3931981807
 11
94.5163540696
 21
10.0184129884
  0
LINE
  5
538
100
AcDbEntity
  8
RACCORDO
100
AcDbLine
 62
253
  6
CONTINUOUS
 10
95.5163804895
 20
-39.7051293815
 11
95.5163804895
 21
-42.2467267598
  0
LINE
  5
539
100
AcDbEntity
  8
RACCORDO
100
AcDbLine
 62
7
  6
CONTINUOUS
 10
96.0163804895
 20
-41.7467267598
 11
96.0163804895
 21
-39.7041374222
  0
LINE
  5
53A
100
AcDbEntity
  8
IMPORT_IGES
100
AcDbLine
 62
253
  6
CONTINUOUS
 10
96.0663803511
 20
9.6526954009
 11
96.0663803511
 21
28.4548613631
  0
LINE
  5
53B
100
AcDbEntity
  8
IMPORT_IGES
100
AcDbLine
 62
7
  6
CONTINUOUS
 10
96.2663804895
 20
28.4532732402
 11
96.2663804895
 21
9.6532732402
  0
LINE
  5
53C
100
AcDbEntity
  8
IMPORT_IGES
100
AcDbLine
 62
7
  6
CONTINUOUS
 10
96.3163804895
 20
9.5528110648
 11
96.3163804895
 21
28.5537354267
  0
LWPOLYLINE
  5
53D
100
AcDbEntity
  8
IMPORT_IGES
100
AcDbPolyline
 62
253
  6
CONTINUOUS
 90
8
 70
0
 10
94.5163464036
 20
9.3931981807
 10
94.5157133569
 20
9.3411197345
 10
94.513826114
 20
9.2891313859
 10
94.5106846751
 20
9.2372331351
 10
94.5062861762
 20
9.1853902498
 10
94.5006334811
 20
9.1336374622
 10
94.4937351815
 20
9.0820789691
 10
94.4855941413
 20
9.0307495028
  0
LWPOLYLINE
  5
53E
100
AcDbEntity
  8
IMPORT_IGES
100
AcDbPolyline
 62
253
  6
CONTINUOUS
 90
10
 70
0
 10
94.3096085142
 20
8.9789982263
 10
94.3064082968
 20
8.8741759356
 10
94.2949556654
 20
8.7690444278
 10
94.27525062
 20
8.663603703
 10
94.2473631172
 20
8.5568372717
 10
94.2112232005
 20
8.4497616234
 10
94.166621
 20
8.3454262263
 10
94.1134865591
 20
8.24484757
 10
94.0518898345
 20
8.1470091649
 10
94.022897335
 20
8.1076547228
  0
LINE
  5
53F
100
AcDbEntity
  8
IMPORT_IGES
100
AcDbLine
 62
253
  6
CONTINUOUS
 10
105.6347826445
 20
41.9037200121
 11
105.6351676462
 21
41.9058178204
  0
LWPOLYLINE
  5
540
100
AcDbEntity
  8
IMPORT_IGES
100
AcDbPolyline
 62
253
  6
CONTINUOUS
 90
10
 70
0
 10
94.1096069379
 20
10.8349389006
 10
94.1513705856
 20
10.7601808341
 10
94.188290017
 20
10.6837694392
 10
94.2203652323
 20
10.6057047159
 10
94.2476510266
 20
10.5255711432
 10
94.2700926046
 20
10.4437842422
 10
94.287525581
 20
10.3615905756
 10
94.2998951605
 20
10.2794056644
 10
94.3072561382
 20
10.1968139875
 10
94.3096085142
 20
10.113815545
  0
LINE
  5
541
100
AcDbEntity
  8
IMPORT_IGES
100
AcDbLine
 62
253
  6
CONTINUOUS
 10
100.117245933
 20
-38.2967416414
 11
100.112596065
 21
-38.0117640081
  0
LINE
  5
542
100
AcDbEntity
  8
IMPORT_IGES
100
AcDbLine
 62
253
  6
CONTINUOUS
 10
100.1198925808
 20
-38.5266347551
 11
100.117245933
 21
-38.2967416414
  0
LINE
  5
543
100
AcDbEntity
  8
IMPORT_IGES
100
AcDbLine
 62
253
  6
CONTINUOUS
 10
100.1210321773
 20
-38.6955806361
 11
100.1198925808
 21
-38.5266347551
  0
LINE
  5
544
100
AcDbEntity
  8
IMPORT_IGES
100
AcDbLine
 62
253
  6
CONTINUOUS
 10
100.1212879522
 20
-38.8101574234
 11
100.1210321773
 21
-38.6955806361
  0
LINE
  5
545
100
AcDbEntity
  8
IMPORT_IGES
100
AcDbLine
 62
253
  6
CONTINUOUS
 10
100.1210289933
 20
-38.9133051187
 11
100.1212879522
 21
-38.8101574234
  0
LINE
  5
546
100
AcDbEntity
  8
IMPORT_IGES
100
AcDbLine
 62
253
  6
CONTINUOUS
 10
100.1205702995
 20
-38.9753562104
 11
100.1210289933
 21
-38.9133051187
  0
LINE
  5
547
100
AcDbEntity
  8
IMPORT_IGES
100
AcDbLine
 62
253
  6
CONTINUOUS
 10
100.1198864811
 20
-39.0313515573
 11
100.1205702995
 21
-38.9753562104
  0
LINE
  5
548
100
AcDbEntity
  8
IMPORT_IGES
100
AcDbLine
 62
7
  6
CONTINUOUS
 10
58.9663804895
 20
17.0732732402
 11
41.4050159949
 21
17.0732732402
  0
LWPOLYLINE
  5
549
100
AcDbEntity
  8
IMPORT_IGES
100
AcDbPolyline
 62
253
  6
CONTINUOUS
 90
7
 70
0
 10
93.8796351176
 20
11.14776803
 10
93.9194597678
 20
11.1017200414
 10
93.961113343
 20
11.050346134
 10
94.0009636027
 20
10.9979595985
 10
94.0389813632
 20
10.9446319941
 10
94.0751958083
 20
10.8902917614
 10
94.1096069379
 20
10.8349389006
  0
LINE
  5
54A
100
AcDbEntity
  8
IMPORT_IGES
100
AcDbLine
 62
7
  6
CONTINUOUS
 10
90.7575443629
 20
20.5526341612
 11
90.9456291898
 21
20.2792393858
  0
LINE
  5
54B
100
AcDbEntity
  8
IMPORT_IGES
100
AcDbLine
 62
7
  6
CONTINUOUS
 10
93.9027652805
 20
17.4805799556
 11
93.6643034068
 21
17.8272387197
  0
LWPOLYLINE
  5
54C
100
AcDbEntity
  8
IMPORT_IGES
100
AcDbPolyline
 62
7
  6
CONTINUOUS
 90
11
 70
0
 10
94.3867605195
 20
19.9198285156
 10
94.4010643841
 20
19.8579175187
 10
94.435135303
 20
19.6648230874
 10
94.4604203555
 20
19.4645502523
 10
94.4765439742
 20
19.2589110409
 10
94.4822195584
 20
19.0533415359
 10
94.476580961
 20
18.847939738
 10
94.4604945295
 20
18.6426076464
 10
94.4352266708
 20
18.4424873415
 10
94.4011459178
 20
18.2492928502
 10
94.3858499946
 20
18.1830445979
  0
LWPOLYLINE
  5
54D
100
AcDbEntity
  8
IMPORT_IGES
100
AcDbPolyline
 62
253
  6
CONTINUOUS
 90
10
 70
0
 10
102.8658665308
 20
38.9075220816
 10
103.0642260249
 20
34.779573181
 10
103.2216590952
 20
30.6506684081
 10
103.3381657418
 20
26.5208077629
 10
103.4137493894
 20
22.389583064
 10
103.4484066132
 20
18.2574024928
 10
103.4421271389
 20
14.1254905933
 10
103.3949075417
 20
9.9942555468
 10
103.3067512464
 20
5.863289172
 10
103.1776582531
 20
1.7325914689
  0
LWPOLYLINE
  5
54E
100
AcDbEntity
  8
IMPORT_IGES
100
AcDbPolyline
 62
253
  6
CONTINUOUS
 90
8
 70
0
 10
102.877215601
 20
40.1177417323
 10
102.8762916631
 20
40.1759149362
 10
102.8751290662
 20
40.2281558774
 10
102.8737307519
 20
40.2742120556
 10
102.8721048561
 20
40.3137345724
 10
102.8702599497
 20
40.3464968562
 10
102.8682034723
 20
40.3723526241
 10
102.8659448805
 20
40.3911596036
  0
LWPOLYLINE
  5
54F
100
AcDbEntity
  8
IMPORT_IGES
100
AcDbPolyline
 62
253
  6
CONTINUOUS
 90
10
 70
0
 10
105.2647794038
 20
22.1480323925
 10
105.2383155963
 20
24.0369016047
 10
105.2036228527
 20
25.9224165868
 10
105.1607193919
 20
27.8045401754
 10
105.1096168866
 20
29.6832324112
 10
105.0503338681
 20
31.5584582079
 10
104.9828963474
 20
33.4301867234
 10
104.9073201853
 20
35.2983807538
 10
104.823610749
 20
37.162997095
 10
104.7317756057
 20
39.0239949985
  0
LINE
  5
550
100
AcDbEntity
  8
IMPORT_IGES
100
AcDbLine
 62
253
  6
CONTINUOUS
 10
102.8783346686
 20
39.9853717626
 11
102.877215601
 21
40.1177417323
  0
LWPOLYLINE
  5
551
100
AcDbEntity
  8
IMPORT_IGES
100
AcDbPolyline
 62
253
  6
CONTINUOUS
 90
10
 70
0
 10
105.6732517308
 20
19.054999976
 10
105.6729452025
 20
19.3883206942
 10
105.6744316535
 20
19.7223999726
 10
105.677711084
 20
20.0571548349
 10
105.6829527928
 20
20.3923679361
 10
105.6899874809
 20
20.7280873211
 10
105.6983072517
 20
21.0646254326
 10
105.7077428062
 20
21.402026006
 10
105.7184634432
 20
21.7400650849
 10
105.7304691629
 20
22.0786500701
  0
LINE
  5
552
100
AcDbEntity
  8
IMPORT_IGES
100
AcDbLine
 62
253
  6
CONTINUOUS
 10
102.8784904018
 20
39.8356204498
 11
102.8783346686
 21
39.9853717626
  0
LINE
  5
553
100
AcDbEntity
  8
IMPORT_IGES
100
AcDbLine
 62
253
  6
CONTINUOUS
 10
102.8777191498
 20
39.6706409881
 11
102.8784904018
 21
39.8356204498
  0
LINE
  5
554
100
AcDbEntity
  8
IMPORT_IGES
100
AcDbLine
 62
253
  6
CONTINUOUS
 10
102.8748949732
 20
39.4006437975
 11
102.8777191498
 21
39.6706409881
  0
LINE
  5
555
100
AcDbEntity
  8
IMPORT_IGES
100
AcDbLine
 62
253
  6
CONTINUOUS
 10
102.8701470608
 20
39.109973038
 11
102.8748949732
 21
39.4006437975
  0
LINE
  5
556
100
AcDbEntity
  8
IMPORT_IGES
100
AcDbLine
 62
253
  6
CONTINUOUS
 10
102.8659289882
 20
38.907520388
 11
102.8701470608
 21
39.109973038
  0
LWPOLYLINE
  5
557
100
AcDbEntity
  8
IMPORT_IGES
100
AcDbPolyline
 62
253
  6
CONTINUOUS
 90
10
 70
0
 10
105.2646903364
 20
22.1478293855
 10
105.2484953084
 20
21.4689882768
 10
105.2353091841
 20
20.79016482
 10
105.2267005038
 20
20.1113517705
 10
105.2237091133
 20
19.4323162138
 10
105.2268747212
 20
18.7532372614
 10
105.2362446838
 20
18.0747112442
 10
105.2513381027
 20
17.3969114541
 10
105.271144188
 20
16.7195924101
 10
105.2941500186
 20
16.0427272099
  0
LWPOLYLINE
  5
558
100
AcDbEntity
  8
IMPORT_IGES
100
AcDbPolyline
 62
253
  6
CONTINUOUS
 90
10
 70
0
 10
105.0225568819
 20
1.6642779536
 10
105.0731739834
 20
3.1671344437
 10
105.1192817158
 20
4.693738165
 10
105.1606217035
 20
6.2440808189
 10
105.1969189008
 20
7.8181482188
 10
105.2279163908
 20
9.415924808
 10
105.2533750515
 20
11.0373976808
 10
105.2730271673
 20
12.682548763
 10
105.2865766283
 20
14.3513529031
 10
105.2937331516
 20
16.0437841043
  0
LWPOLYLINE
  5
559
100
AcDbEntity
  8
IMPORT_IGES
100
AcDbPolyline
 62
253
  6
CONTINUOUS
 90
16
 70
0
 10
103.1776582783
 20
1.7325902855
 10
103.0746603088
 20
-0.9502547748
 10
102.9575481691
 20
-3.6302365593
 10
102.826321859
 20
-6.3069755802
 10
102.6810978671
 20
-8.9799308084
 10
102.5217597048
 20
-11.6488913792
 10
102.3479579075
 20
-14.3139759548
 10
102.1597310736
 20
-16.9754846181
 10
101.9570406046
 20
-19.6323758946
 10
101.7394212401
 20
-22.2827639263
 10
101.5069645802
 20
-24.9263059222
 10
101.2595790248
 20
-27.5626313675
 10
100.9965245132
 20
-30.1898311329
 10
100.7175543586
 20
-32.8070482025
 10
100.4229152478
 20
-35.4144690683
 10
100.1126071808
 20
-38.0117649006
  0
LWPOLYLINE
  5
55A
100
AcDbEntity
  8
IMPORT_IGES
100
AcDbPolyline
 62
253
  6
CONTINUOUS
 90
17
 70
0
 10
105.7304691629
 20
22.0786500701
 10
105.759111114
 20
22.7794520444
 10
105.7928797204
 20
23.4765560364
 10
105.8317749822
 20
24.1691862359
 10
105.8761437429
 20
24.8556773622
 10
105.9256391589
 20
25.5361694648
 10
105.9792206991
 20
26.2125230727
 10
106.037110213
 20
26.885544859
 10
106.0990858511
 20
27.5526681923
 10
106.1634415333
 20
28.2107007336
 10
106.2301511508
 20
28.8583569381
 10
106.2992408123
 20
29.4954079051
 10
106.3690827644
 20
30.1204019318
 10
106.4395485372
 20
30.7318794712
 10
106.5107666006
 20
31.3299608026
 10
106.5814946102
 20
31.9155241914
 10
106.6517408955
 20
32.4884417155
  0
LWPOLYLINE
  5
55B
100
AcDbEntity
  8
IMPORT_IGES
100
AcDbPolyline
 62
253
  6
CONTINUOUS
 90
14
 70
0
 10
107.0229237594
 20
40.4528367188
 10
107.0101348335
 20
40.2783347442
 10
106.9945315859
 20
40.0798327531
 10
106.9759649837
 20
39.857492484
 10
106.9542207599
 20
39.6115679926
 10
106.92917329
 20
39.3421576406
 10
106.9008340802
 20
39.0492233363
 10
106.8690048047
 20
38.7322487129
 10
106.8335640177
 20
38.3921424938
 10
106.7947981107
 20
38.0310583476
 10
106.752767518
 20
37.6499713748
 10
106.7073452017
 20
37.248392401
 10
106.6587091132
 20
36.8263170269
 10
106.606851549
 20
36.3839974793
  0
LWPOLYLINE
  5
55C
100
AcDbEntity
  8
IMPORT_IGES
100
AcDbPolyline
 62
253
  6
CONTINUOUS
 90
11
 70
0
 10
100.1125960516
 20
-39.2208721794
 10
100.1134610256
 20
-39.2120796581
 10
100.1142929275
 20
-39.2016279303
 10
100.1150894297
 20
-39.1895002965
 10
100.1158485983
 20
-39.1756718867
 10
100.1165676203
 20
-39.1601320525
 10
100.1172430351
 20
-39.1428937384
 10
100.1178727515
 20
-39.1239461436
 10
100.1184545325
 20
-39.1032827075
 10
100.1189852087
 20
-39.0809416223
 10
100.1198864811
 20
-39.0313515573
  0
LWPOLYLINE
  5
55D
100
AcDbEntity
  8
IMPORT_IGES
100
AcDbPolyline
 62
253
  6
CONTINUOUS
 90
17
 70
0
 10
106.1679946783
 20
32.7465217931
 10
106.0986522546
 20
32.1621828666
 10
106.0289256386
 20
31.564840231
 10
105.9589990878
 20
30.9541549952
 10
105.8896457873
 20
30.3310233771
 10
105.8210822295
 20
29.6949562307
 10
105.7535889983
 20
29.0465067868
 10
105.6881402211
 20
28.3880809657
 10
105.6250559569
 20
27.718823993
 10
105.5646015156
 20
27.0395417972
 10
105.5078062766
 20
26.355067178
 10
105.4552044777
 20
25.6667653801
 10
105.4069273916
 20
24.9730885818
 10
105.3634621722
 20
24.274450715
 10
105.3251521336
 20
23.5709034658
 10
105.292183452
 20
22.8621434017
 10
105.2647794038
 20
22.1480323925
  0
LINE
  5
55E
100
AcDbEntity
  8
IMPORT_IGES
100
AcDbLine
 62
253
  6
CONTINUOUS
 10
106.606851549
 20
36.3839974793
 11
106.4939074859
 21
35.4390963483
  0
LWPOLYLINE
  5
55F
100
AcDbEntity
  8
IMPORT_IGES
100
AcDbPolyline
 62
253
  6
CONTINUOUS
 90
14
 70
0
 10
107.0955077351
 20
36.046568592
 10
107.1477085523
 20
36.4784471951
 10
107.1965780632
 20
36.8903716194
 10
107.2421881292
 20
37.2819186575
 10
107.2844012438
 20
37.6535049073
 10
107.3231939292
 20
38.0053585718
 10
107.3585896632
 20
38.336146932
 10
107.3905213724
 20
38.6441181845
 10
107.4188549792
 20
38.9286037336
 10
107.4437245611
 20
39.1900519729
 10
107.4654652775
 20
39.4286293207
 10
107.4841888481
 20
39.6442562518
 10
107.4997835533
 20
39.8366986368
 10
107.5122493929
 20
40.00584948
  0
LINE
  5
560
100
AcDbEntity
  8
IMPORT_IGES
100
AcDbLine
 62
253
  6
CONTINUOUS
 10
106.3037933502
 20
33.8723504371
 11
106.1679946783
 21
32.7465217931
  0
LINE
  5
561
100
AcDbEntity
  8
IMPORT_IGES
100
AcDbLine
 62
253
  6
CONTINUOUS
 10
106.4939074859
 20
35.4390963483
 11
106.3037933502
 21
33.8723504371
  0
LINE
  5
562
100
AcDbEntity
  8
IMPORT_IGES
100
AcDbLine
 62
253
  6
CONTINUOUS
 10
106.9816808567
 20
35.1236580554
 11
107.0955077351
 21
36.046568592
  0
LINE
  5
563
100
AcDbEntity
  8
IMPORT_IGES
100
AcDbLine
 62
253
  6
CONTINUOUS
 10
106.6517408955
 20
32.4884417155
 11
106.9816808567
 21
35.1236580554
  0
LINE
  5
564
100
AcDbEntity
  8
IMPORT_IGES
100
AcDbLine
 62
7
  6
CONTINUOUS
 10
58.9663804895
 20
21.0332732402
 11
41.4050159949
 21
21.0332732402
  0
LINE
  5
565
100
AcDbEntity
  8
IMPORT_IGES
100
AcDbLine
 62
7
  6
CONTINUOUS
 10
94.2033004201
 20
17.9341153883
 11
93.6907302806
 21
18.214177517
  0
LWPOLYLINE
  5
566
100
AcDbEntity
  8
IMPORT_IGES
100
AcDbPolyline
 62
253
  6
CONTINUOUS
 90
10
 70
0
 10
90.6231539265
 20
27.2716077202
 10
90.5813852303
 20
27.3463864991
 10
90.544462407
 20
27.4228141338
 10
90.5123854568
 20
27.5008906243
 10
90.4851000692
 20
27.5810316725
 10
90.4626605545
 20
27.6628215764
 10
90.4452298441
 20
27.7450132303
 10
90.4328622484
 20
27.827190932
 10
90.4255034568
 20
27.9097703835
 10
90.4231534695
 20
27.9927515849
  0
LINE
  5
567
100
AcDbEntity
  8
IMPORT_IGES
100
AcDbLine
 62
253
  6
CONTINUOUS
 10
105.6735340796
 20
19.0592839792
 11
105.6737796337
 21
19.0550778763
  0
LWPOLYLINE
  5
568
100
AcDbEntity
  8
IMPORT_IGES
100
AcDbPolyline
 62
253
  6
CONTINUOUS
 90
10
 70
0
 10
105.2937331516
 20
16.0437841043
 10
105.3298560191
 20
15.3081333447
 10
105.3724249908
 20
14.5772192792
 10
105.421293984
 20
13.8508587066
 10
105.4765210764
 20
13.1271694751
 10
105.5376192686
 20
12.4076732718
 10
105.6036123324
 20
11.6973297224
 10
105.6741353741
 20
10.9975887766
 10
105.7490148247
 20
10.3067479197
 10
105.8275812517
 20
9.6250899397
  0
LWPOLYLINE
  5
569
100
AcDbEntity
  8
IMPORT_IGES
100
AcDbPolyline
 62
253
  6
CONTINUOUS
 90
5
 70
0
 10
108.1169326894
 20
-2.4181433807
 10
108.1163220321
 20
-2.4055555676
 10
108.1127772075
 20
-2.3679357703
 10
108.1062982157
 20
-2.3054758434
 10
108.0850966272
 20
-2.1072665423
  0
LWPOLYLINE
  5
56A
100
AcDbEntity
  8
IMPORT_IGES
100
AcDbPolyline
 62
253
  6
CONTINUOUS
 90
10
 70
0
 10
105.7590248599
 20
16.1111407653
 10
105.7439683049
 20
16.444136065
 10
105.7301940461
 20
16.7756653487
 10
105.7177020837
 20
17.1056365152
 10
105.7063405248
 20
17.4336972609
 10
105.6962612623
 20
17.7600241165
 10
105.6879199741
 20
18.0853247581
 10
105.6814685529
 20
18.4097837077
 10
105.6767551061
 20
18.7330600006
 10
105.6737796337
 20
19.0550778763
  0
LWPOLYLINE
  5
56B
100
AcDbEntity
  8
IMPORT_IGES
100
AcDbPolyline
 62
253
  6
CONTINUOUS
 90
10
 70
0
 10
107.5122493929
 20
40.00584948
 10
107.5157121495
 20
40.097655427
 10
107.5171228903
 20
40.1811462371
 10
107.5164816153
 20
40.2561826237
 10
107.5130932447
 20
40.322612653
 10
107.5076528583
 20
40.3803248946
 10
107.5022456953
 20
40.4292088787
 10
107.4975668355
 20
40.4691027005
 10
107.4929211992
 20
40.4998329224
 10
107.4883087864
 20
40.521240004
  0
LINE
  5
56C
100
AcDbEntity
  8
IMPORT_IGES
100
AcDbLine
 62
7
  6
CONTINUOUS
 10
107.6264904194
 20
-2.889227011
 11
107.5870863726
 21
-3.5580611385
  0
LINE
  5
56D
100
AcDbEntity
  8
IMPORT_IGES
100
AcDbLine
 62
7
  6
CONTINUOUS
 10
107.5870863726
 20
-3.5580611385
 11
107.5462371199
 21
-4.2268049874
  0
LINE
  5
56E
100
AcDbEntity
  8
IMPORT_IGES
100
AcDbLine
 62
7
  6
CONTINUOUS
 10
107.5462371199
 20
-4.2268049874
 11
107.5039428027
 21
-4.8954563049
  0
LWPOLYLINE
  5
56F
100
AcDbEntity
  8
IMPORT_IGES
100
AcDbPolyline
 62
7
  6
CONTINUOUS
 90
3
 70
0
 10
107.5039428027
 20
-4.8954563049
 10
107.4602033986
 20
-5.5640154497
 10
107.4377918682
 20
-5.8982592638
  0
LINE
  5
570
100
AcDbEntity
  8
IMPORT_IGES
100
AcDbLine
 62
7
  6
CONTINUOUS
 10
106.6584536025
 20
-13.294010043
 11
106.6080780981
 21
-13.9808456659
  0
LWPOLYLINE
  5
571
100
AcDbEntity
  8
IMPORT_IGES
100
AcDbPolyline
 62
7
  6
CONTINUOUS
 90
6
 70
0
 10
106.4045958987
 20
-15.7873785079
 10
106.4422274044
 20
-15.2874300641
 10
106.4786754958
 20
-14.7881183044
 10
106.5139412682
 20
-14.2894455664
 10
106.5480236265
 20
-13.7914095126
 10
106.5809225705
 20
-13.2940101428
  0
LINE
  5
572
100
AcDbEntity
  8
IMPORT_IGES
100
AcDbLine
 62
7
  6
CONTINUOUS
 10
106.6080780981
 20
-13.9808456659
 11
106.5556494091
 21
-14.6684907646
  0
LINE
  5
573
100
AcDbEntity
  8
IMPORT_IGES
100
AcDbLine
 62
7
  6
CONTINUOUS
 10
106.3579105481
 20
-16.3865182418
 11
106.4045958987
 21
-15.7873785079
  0
LINE
  5
574
100
AcDbEntity
  8
IMPORT_IGES
100
AcDbLine
 62
7
  6
CONTINUOUS
 10
106.5556494091
 20
-14.6684907646
 11
106.501166895
 21
-15.356943363
  0
LWPOLYLINE
  5
575
100
AcDbEntity
  8
IMPORT_IGES
100
AcDbPolyline
 62
7
  6
CONTINUOUS
 90
3
 70
0
 10
106.501166895
 20
-15.356943363
 10
106.4446279925
 20
-16.0461955564
 10
106.4155875559
 20
-16.3911219954
  0
LWPOLYLINE
  5
576
100
AcDbEntity
  8
IMPORT_IGES
100
AcDbPolyline
 62
7
  6
CONTINUOUS
 90
4
 70
0
 10
106.2421995942
 20
-17.793461985
 10
106.2845789936
 20
-17.2909971929
 10
106.3257716934
 20
-16.7891620723
 10
106.3579105481
 20
-16.3865182418
  0
LWPOLYLINE
  5
577
100
AcDbEntity
  8
IMPORT_IGES
100
AcDbPolyline
 62
7
  6
CONTINUOUS
 90
10
 70
0
 10
106.1918168954
 20
-17.793461985
 10
106.2339853313
 20
-17.2938401177
 10
106.2750205684
 20
-16.794137178
 10
106.3149226069
 20
-16.2943531659
 10
106.3536916239
 20
-15.7944857271
 10
106.3913274423
 20
-15.2945372158
 10
106.4278295302
 20
-14.7945146954
 10
106.4631977103
 20
-14.2944205204
 10
106.49743216
 20
-13.7942523361
 10
106.5305328792
 20
-13.2940101428
  0
LINE
  5
578
100
AcDbEntity
  8
IMPORT_IGES
100
AcDbLine
 62
7
  6
CONTINUOUS
 10
106.8874029708
 20
-13.2940451103
 11
106.8387379872
 21
-13.8468402567
  0
LWPOLYLINE
  5
579
100
AcDbEntity
  8
IMPORT_IGES
100
AcDbPolyline
 62
7
  6
CONTINUOUS
 90
10
 70
0
 10
106.8490528656
 20
-13.2923122965
 10
106.9231670203
 20
-12.4718809362
 10
106.9951124432
 20
-11.6511209238
 10
107.0648875043
 20
-10.8300379585
 10
107.1324941106
 20
-10.0085940476
 10
107.1979268698
 20
-9.1868385814
 10
107.2611743385
 20
-8.3649084335
 10
107.3222329008
 20
-7.5428531423
 10
107.3811055526
 20
-6.7206348146
 10
107.4377918682
 20
-5.8982592638
  0
LINE
  5
57A
100
AcDbEntity
  8
IMPORT_IGES
100
AcDbLine
 62
7
  6
CONTINUOUS
 10
106.8387379872
 20
-13.8468402567
 11
106.7886336469
 21
-14.4009699283
  0
LINE
  5
57B
100
AcDbEntity
  8
IMPORT_IGES
100
AcDbLine
 62
7
  6
CONTINUOUS
 10
106.7728159502
 20
-13.7939351404
 11
106.8190098195
 21
-13.2937401397
  0
LWPOLYLINE
  5
57C
100
AcDbEntity
  8
IMPORT_IGES
100
AcDbPolyline
 62
7
  6
CONTINUOUS
 90
10
 70
0
 10
106.8497245248
 20
-13.2937401392
 10
106.8035003824
 20
-13.7939737084
 10
106.7564658897
 20
-14.2941421444
 10
106.7086210466
 20
-14.7942454471
 10
106.6599657562
 20
-15.2942849248
 10
106.6105001154
 20
-15.7942592693
 10
106.5602244148
 20
-16.2941645554
 10
106.5091387511
 20
-16.7939994748
 10
106.4572430275
 20
-17.2937653359
 10
106.4045372441
 20
-17.7934621387
  0
LINE
  5
57D
100
AcDbEntity
  8
IMPORT_IGES
100
AcDbLine
 62
7
  6
CONTINUOUS
 10
106.6767905047
 20
-15.5049926609
 11
106.736965468
 21
-14.855405139
  0
LINE
  5
57E
100
AcDbEntity
  8
IMPORT_IGES
100
AcDbLine
 62
7
  6
CONTINUOUS
 10
106.7886336469
 20
-14.4009699283
 11
106.7370886302
 21
-14.9564330484
  0
LINE
  5
57F
100
AcDbEntity
  8
IMPORT_IGES
100
AcDbLine
 62
7
  6
CONTINUOUS
 10
106.8471290243
 20
-13.8539000788
 11
106.8991068683
 21
-13.294010169
  0
LINE
  5
580
100
AcDbEntity
  8
IMPORT_IGES
100
AcDbLine
 62
7
  6
CONTINUOUS
 10
106.8246911533
 20
-13.7940105003
 11
106.8718540042
 21
-13.2938545501
  0
LINE
  5
581
100
AcDbEntity
  8
IMPORT_IGES
100
AcDbLine
 62
7
  6
CONTINUOUS
 10
106.7370886302
 20
-14.9564330484
 11
106.6840976579
 21
-15.5132253106
  0
LINE
  5
582
100
AcDbEntity
  8
IMPORT_IGES
100
AcDbLine
 62
7
  6
CONTINUOUS
 10
106.7941105609
 20
-14.4110739493
 11
106.8471290243
 21
-13.8539000788
  0
LINE
  5
583
100
AcDbEntity
  8
IMPORT_IGES
100
AcDbLine
 62
7
  6
CONTINUOUS
 10
106.6145969653
 20
-16.1564813226
 11
106.6767905047
 21
-15.5049926609
  0
LINE
  5
584
100
AcDbEntity
  8
IMPORT_IGES
100
AcDbLine
 62
7
  6
CONTINUOUS
 10
106.6840976579
 20
-15.5132253106
 11
106.6570602683
 21
-15.7921201391
  0
LWPOLYLINE
  5
585
100
AcDbEntity
  8
IMPORT_IGES
100
AcDbPolyline
 62
7
  6
CONTINUOUS
 90
5
 70
0
 10
106.5799343691
 20
-15.7941628453
 10
106.629370694
 20
-15.2941885022
 10
106.6779964223
 20
-14.7941586678
 10
106.7258114845
 20
-14.2940746498
 10
106.7728159502
 20
-13.7939351404
  0
LINE
  5
586
100
AcDbEntity
  8
IMPORT_IGES
100
AcDbLine
 62
7
  6
CONTINUOUS
 10
106.5503826251
 20
-16.8098693516
 11
106.6145969653
 21
-16.1564813226
  0
LWPOLYLINE
  5
587
100
AcDbEntity
  8
IMPORT_IGES
100
AcDbPolyline
 62
7
  6
CONTINUOUS
 90
19
 70
0
 10
107.6264900086
 20
-2.8892341349
 10
107.6305371406
 20
-2.8485317297
 10
107.6379130738
 20
-2.8081812802
 10
107.648508262
 20
-2.768670693
 10
107.6620649827
 20
-2.7307428985
 10
107.6785049557
 20
-2.6944165483
 10
107.698079842
 20
-2.6590784743
 10
107.7207487246
 20
-2.6249203034
 10
107.7462196612
 20
-2.592541363
 10
107.7745726244
 20
-2.5620653574
 10
107.8057232331
 20
-2.5338740398
 10
107.8393138027
 20
-2.5083066265
 10
107.8750833672
 20
-2.4855158356
 10
107.9125203537
 20
-2.4658260555
 10
107.9513159801
 20
-2.4494392031
 10
107.9915446465
 20
-2.4363954697
 10
108.0329624768
 20
-2.4267648037
 10
108.0749367569
 20
-2.4206675136
 10
108.1169370036
 20
-2.4181433055
  0
LINE
  5
588
100
AcDbEntity
  8
IMPORT_IGES
100
AcDbLine
 62
7
  6
CONTINUOUS
 10
106.7369599795
 20
-14.8554051391
 11
106.6724077275
 21
-15.5084977552
  0
LINE
  5
589
100
AcDbEntity
  8
IMPORT_IGES
100
AcDbLine
 62
7
  6
CONTINUOUS
 10
106.6724077275
 20
-15.5084977552
 11
106.6064570872
 21
-16.1614828307
  0
LINE
  5
58A
100
AcDbEntity
  8
IMPORT_IGES
100
AcDbLine
 62
7
  6
CONTINUOUS
 10
106.6570629422
 20
-15.7921201391
 11
106.7941105609
 21
-14.4110739493
  0
LINE
  5
58B
100
AcDbEntity
  8
IMPORT_IGES
100
AcDbLine
 62
7
  6
CONTINUOUS
 10
106.6593246838
 20
-15.7973959772
 11
106.6120977429
 21
-16.2646934888
  0
LINE
  5
58C
100
AcDbEntity
  8
IMPORT_IGES
100
AcDbLine
 62
7
  6
CONTINUOUS
 10
106.5186993841
 20
-16.4016542338
 11
106.5799343691
 21
-15.7941628453
  0
LINE
  5
58D
100
AcDbEntity
  8
IMPORT_IGES
100
AcDbLine
 62
7
  6
CONTINUOUS
 10
106.4689267967
 20
-16.3965709592
 11
106.5230603747
 21
-15.8597349424
  0
LINE
  5
58E
100
AcDbEntity
  8
IMPORT_IGES
100
AcDbLine
 62
7
  6
CONTINUOUS
 10
105.0008489394
 20
-25.7934619572
 11
104.9594113936
 21
-26.1950761888
  0
LWPOLYLINE
  5
58F
100
AcDbEntity
  8
IMPORT_IGES
100
AcDbPolyline
 62
7
  6
CONTINUOUS
 90
3
 70
0
 10
106.4502559828
 20
-17.7934998597
 10
106.4841385845
 20
-17.4651496588
 10
106.5503826251
 20
-16.8098693516
  0
LINE
  5
590
100
AcDbEntity
  8
IMPORT_IGES
100
AcDbLine
 62
7
  6
CONTINUOUS
 10
106.6064570872
 20
-16.1614828307
 11
106.5391081333
 21
-16.8143592568
  0
LINE
  5
591
100
AcDbEntity
  8
IMPORT_IGES
100
AcDbLine
 62
7
  6
CONTINUOUS
 10
106.6120977429
 20
-16.2646934888
 11
106.5215329055
 21
-17.1435287503
  0
LWPOLYLINE
  5
592
100
AcDbEntity
  8
IMPORT_IGES
100
AcDbPolyline
 62
7
  6
CONTINUOUS
 90
9
 70
0
 10
104.9594113936
 20
-26.1950761888
 10
104.9172429202
 20
-26.5968716405
 10
104.8743435194
 20
-26.9988483125
 10
104.8307133346
 20
-27.4010073445
 10
104.7863522223
 20
-27.8033475968
 10
104.7412597518
 20
-28.2058656495
 10
104.6954357795
 20
-28.6085603626
 10
104.6488804491
 20
-29.0114328763
 10
104.6015937606
 20
-29.4144831903
  0
LWPOLYLINE
  5
593
100
AcDbEntity
  8
IMPORT_IGES
100
AcDbPolyline
 62
7
  6
CONTINUOUS
 90
4
 70
0
 10
106.3239148682
 20
-17.7920999384
 10
106.3765835652
 20
-17.2925158731
 10
106.4284442252
 20
-16.7928499005
 10
106.4689267967
 20
-16.3965709592
  0
LWPOLYLINE
  5
594
100
AcDbEntity
  8
IMPORT_IGES
100
AcDbPolyline
 62
7
  6
CONTINUOUS
 90
4
 70
0
 10
106.3740854074
 20
-17.7934621405
 10
106.4267632112
 20
-17.2937267666
 10
106.4786306279
 20
-16.7939319775
 10
106.5186993841
 20
-16.4016542338
  0
LWPOLYLINE
  5
595
100
AcDbEntity
  8
IMPORT_IGES
100
AcDbPolyline
 62
7
  6
CONTINUOUS
 90
6
 70
0
 10
106.8054207434
 20
-13.2940101245
 10
106.7508178183
 20
-13.8103234656
 10
106.6955775636
 20
-14.3225427782
 10
106.6396999789
 20
-14.8306680623
 10
106.5831602389
 20
-15.334698696
 10
106.525983169
 20
-15.8346353011
  0
LWPOLYLINE
  5
596
100
AcDbEntity
  8
IMPORT_IGES
100
AcDbPolyline
 62
7
  6
CONTINUOUS
 90
3
 70
0
 10
106.5391081333
 20
-16.8143592568
 10
106.4703611632
 20
-17.4671225985
 10
106.4354634034
 20
-17.7934621399
  0
LINE
  5
597
100
AcDbEntity
  8
IMPORT_IGES
100
AcDbLine
 62
7
  6
CONTINUOUS
 10
106.5592616554
 20
-16.77678175
 11
106.5153899723
 21
-17.193765645
  0
LWPOLYLINE
  5
598
100
AcDbEntity
  8
IMPORT_IGES
100
AcDbPolyline
 62
7
  6
CONTINUOUS
 90
9
 70
0
 10
106.4175976489
 20
-17.7934621479
 10
106.4713803455
 20
-17.293713322
 10
106.5243356387
 20
-16.7939115997
 10
106.5764635285
 20
-16.294056981
 10
106.6277640663
 20
-15.7941481287
 10
106.678237201
 20
-15.29418638
 10
106.7278827775
 20
-14.7941757466
 10
106.7767007444
 20
-14.2941175658
 10
106.8246911533
 20
-13.7940105003
  0
LINE
  5
599
100
AcDbEntity
  8
IMPORT_IGES
100
AcDbLine
 62
7
  6
CONTINUOUS
 10
106.6387904188
 20
-13.9816007354
 11
106.7126425169
 21
-13.2927236064
  0
LINE
  5
59A
100
AcDbEntity
  8
IMPORT_IGES
100
AcDbLine
 62
7
  6
CONTINUOUS
 10
106.6885332994
 20
-13.9865257361
 11
106.762776541
 21
-13.2940100011
  0
LWPOLYLINE
  5
59B
100
AcDbEntity
  8
IMPORT_IGES
100
AcDbPolyline
 62
7
  6
CONTINUOUS
 90
5
 70
0
 10
106.4014436298
 20
-17.7931264715
 10
106.197364141
 20
-19.6739872246
 10
105.9076628511
 20
-22.1570648601
 10
105.5979477183
 20
-24.6377175896
 10
105.4446618287
 20
-25.789806959
  0
LWPOLYLINE
  5
59C
100
AcDbEntity
  8
IMPORT_IGES
100
AcDbPolyline
 62
7
  6
CONTINUOUS
 90
4
 70
0
 10
104.6966814353
 20
-27.8610039792
 10
104.6562284432
 20
-28.2268406984
 10
104.608540561
 20
-28.6508965657
 10
104.5600331273
 20
-29.0751514134
  0
LINE
  5
59D
100
AcDbEntity
  8
IMPORT_IGES
100
AcDbLine
 62
7
  6
CONTINUOUS
 10
106.6126170322
 20
-14.6766037321
 11
106.6885332994
 21
-13.9865257361
  0
LWPOLYLINE
  5
59E
100
AcDbEntity
  8
IMPORT_IGES
100
AcDbPolyline
 62
7
  6
CONTINUOUS
 90
3
 70
0
 10
106.5380213463
 20
-14.8932987671
 10
106.5630258094
 20
-14.6702839645
 10
106.6387904188
 20
-13.9816007354
  0
LINE
  5
59F
100
AcDbEntity
  8
IMPORT_IGES
100
AcDbLine
 62
7
  6
CONTINUOUS
 10
105.3483622982
 20
-25.7921202262
 11
105.298502005
 21
-26.2339424583
  0
LINE
  5
5A0
100
AcDbEntity
  8
IMPORT_IGES
100
AcDbLine
 62
7
  6
CONTINUOUS
 10
106.5350349413
 20
-15.3642429849
 11
106.6126170322
 21
-14.6766037321
  0
LINE
  5
5A1
100
AcDbEntity
  8
IMPORT_IGES
100
AcDbLine
 62
7
  6
CONTINUOUS
 10
105.3234995685
 20
-26.4558725263
 11
105.3986983413
 21
-25.793462275
  0
LINE
  5
5A2
100
AcDbEntity
  8
IMPORT_IGES
100
AcDbLine
 62
7
  6
CONTINUOUS
 10
104.5600331273
 20
-29.0751514134
 11
104.5107063272
 21
-29.4996066061
  0
LWPOLYLINE
  5
5A3
100
AcDbEntity
  8
IMPORT_IGES
100
AcDbPolyline
 62
7
  6
CONTINUOUS
 90
9
 70
0
 10
104.5614395575
 20
-29.4996013196
 10
104.6107596087
 20
-29.0751421804
 10
104.6592624033
 20
-28.6508847261
 10
104.7069478653
 20
-28.2268276167
 10
104.7538160708
 20
-27.8029721922
 10
104.7998672486
 20
-27.3793224736
 10
104.845101475
 20
-26.9558798011
 10
104.8895186737
 20
-26.5326428344
 10
104.9331188448
 20
-26.1096115735
  0
LINE
  5
5A4
100
AcDbEntity
  8
IMPORT_IGES
100
AcDbLine
 62
7
  6
CONTINUOUS
 10
105.298502005
 20
-26.2339424583
 11
105.2473061331
 21
-26.6773193206
  0
LINE
  5
5A5
100
AcDbEntity
  8
IMPORT_IGES
100
AcDbLine
 62
7
  6
CONTINUOUS
 10
105.4144616241
 20
-25.7934618617
 11
105.3508857072
 21
-26.343489565
  0
LWPOLYLINE
  5
5A6
100
AcDbEntity
  8
IMPORT_IGES
100
AcDbPolyline
 62
7
  6
CONTINUOUS
 90
3
 70
0
 10
106.4155905989
 20
-16.3911219397
 10
106.4558158341
 20
-16.0494394774
 10
106.5350349413
 20
-15.3642429849
  0
LINE
  5
5A7
100
AcDbEntity
  8
IMPORT_IGES
100
AcDbLine
 62
7
  6
CONTINUOUS
 10
104.5107063272
 20
-29.4996066061
 11
104.4605601608
 21
-29.9242621439
  0
LINE
  5
5A8
100
AcDbEntity
  8
IMPORT_IGES
100
AcDbLine
 62
7
  6
CONTINUOUS
 10
104.5113022499
 20
-29.9242621439
 11
104.5614395575
 21
-29.4996013196
  0
LINE
  5
5A9
100
AcDbEntity
  8
IMPORT_IGES
100
AcDbLine
 62
7
  6
CONTINUOUS
 10
106.525983169
 20
-15.8346353011
 11
106.4597295505
 21
-16.4023188315
  0
LWPOLYLINE
  5
5AA
100
AcDbEntity
  8
IMPORT_IGES
100
AcDbPolyline
 62
7
  6
CONTINUOUS
 90
4
 70
0
 10
106.4597295505
 20
-16.4023188315
 10
106.409965297
 20
-16.8222326458
 10
106.3511244945
 20
-17.3098933855
 10
106.2917208395
 20
-17.7934619626
  0
LINE
  5
5AB
100
AcDbEntity
  8
IMPORT_IGES
100
AcDbLine
 62
7
  6
CONTINUOUS
 10
105.3378692974
 20
-25.7934620084
 11
105.2835297383
 21
-26.2515030221
  0
LINE
  5
5AC
100
AcDbEntity
  8
IMPORT_IGES
100
AcDbLine
 62
7
  6
CONTINUOUS
 10
105.2473061331
 20
-26.6773193206
 11
105.1947730248
 21
-27.1222498053
  0
LINE
  5
5AD
100
AcDbEntity
  8
IMPORT_IGES
100
AcDbLine
 62
7
  6
CONTINUOUS
 10
105.2452543605
 20
-27.1222379646
 11
105.3234995685
 21
-26.4558725263
  0
LWPOLYLINE
  5
5AE
100
AcDbEntity
  8
IMPORT_IGES
100
AcDbPolyline
 62
253
  6
CONTINUOUS
 90
16
 70
0
 10
101.9820543181
 20
-38.0325481533
 10
102.2698864095
 20
-35.6208402409
 10
102.5461214041
 20
-33.1743456854
 10
102.8108269629
 20
-30.6929497762
 10
103.0642142167
 20
-28.1760524994
 10
103.3061282562
 20
-25.6240489474
 10
103.5360151194
 20
-23.0383777155
 10
103.7537663209
 20
-20.4186268692
 10
103.9592641955
 20
-17.7651720119
 10
104.1518865013
 20
-15.0807397157
 10
104.3313014456
 20
-12.3662403518
 10
104.497427342
 20
-9.6209200924
 10
104.6499797733
 20
-6.8450686064
 10
104.7886275373
 20
-4.0388479303
 10
104.9129731317
 20
-1.2023281434
 10
105.0225568819
 20
1.6642779536
  0
LINE
  5
5AF
100
AcDbEntity
  8
IMPORT_IGES
100
AcDbLine
 62
7
  6
CONTINUOUS
 10
105.3508857072
 20
-26.343489565
 11
105.2852827288
 21
-26.8960803448
  0
LINE
  5
5B0
100
AcDbEntity
  8
IMPORT_IGES
100
AcDbLine
 62
7
  6
CONTINUOUS
 10
105.2689314345
 20
-26.2252743926
 11
105.2127992385
 21
-26.6937428474
  0
LWPOLYLINE
  5
5B1
100
AcDbEntity
  8
IMPORT_IGES
100
AcDbPolyline
 62
7
  6
CONTINUOUS
 90
4
 70
0
 10
105.2835297383
 20
-26.2515030221
 10
105.2282932076
 20
-26.7097793764
 10
105.1721597054
 20
-27.1682910711
 10
105.1151296754
 20
-27.6270396186
  0
LWPOLYLINE
  5
5B2
100
AcDbEntity
  8
IMPORT_IGES
100
AcDbPolyline
 62
7
  6
CONTINUOUS
 90
3
 70
0
 10
105.1947730248
 20
-27.1222498053
 10
105.1408960489
 20
-27.5687298812
 10
105.1134540252
 20
-27.7925512677
  0
LINE
  5
5B3
100
AcDbEntity
  8
IMPORT_IGES
100
AcDbLine
 62
7
  6
CONTINUOUS
 10
105.2127992385
 20
-26.6937428474
 11
105.1557781891
 21
-27.1621102767
  0
LINE
  5
5B4
100
AcDbEntity
  8
IMPORT_IGES
100
AcDbLine
 62
7
  6
CONTINUOUS
 10
105.1639584395
 20
-27.7925512677
 11
105.2452543605
 21
-27.1222379646
  0
LINE
  5
5B5
100
AcDbEntity
  8
IMPORT_IGES
100
AcDbLine
 62
7
  6
CONTINUOUS
 10
105.2852827288
 20
-26.8960803448
 11
105.2176527214
 21
-27.4512308153
  0
LINE
  5
5B6
100
AcDbEntity
  8
IMPORT_IGES
100
AcDbLine
 62
7
  6
CONTINUOUS
 10
105.1557781891
 20
-27.1621102767
 11
105.0978683603
 21
-27.630376081
  0
LWPOLYLINE
  5
5B7
100
AcDbEntity
  8
IMPORT_IGES
100
AcDbPolyline
 62
7
  6
CONTINUOUS
 90
3
 70
0
 10
105.0978683603
 20
-27.630376081
 10
105.0390700471
 20
-28.0985378621
 10
105.0093376904
 20
-28.3325798938
  0
LINE
  5
5B8
100
AcDbEntity
  8
IMPORT_IGES
100
AcDbLine
 62
7
  6
CONTINUOUS
 10
104.9595875856
 20
-28.3262591096
 11
105.0073885444
 21
-27.9488926034
  0
LINE
  5
5B9
100
AcDbEntity
  8
IMPORT_IGES
100
AcDbLine
 62
7
  6
CONTINUOUS
 10
105.1764572914
 20
-27.7925512441
 11
105.1168703433
 21
-28.2629217922
  0
LINE
  5
5BA
100
AcDbEntity
  8
IMPORT_IGES
100
AcDbLine
 62
7
  6
CONTINUOUS
 10
105.1151296754
 20
-27.6270396186
 11
105.024359451
 21
-28.3424113078
  0
LINE
  5
5BB
100
AcDbEntity
  8
IMPORT_IGES
100
AcDbLine
 62
7
  6
CONTINUOUS
 10
105.0475285902
 20
-28.7242970911
 11
105.1233615705
 21
-28.1288089698
  0
LWPOLYLINE
  5
5BC
100
AcDbEntity
  8
IMPORT_IGES
100
AcDbPolyline
 62
7
  6
CONTINUOUS
 90
4
 70
0
 10
105.024359451
 20
-28.3424113078
 10
104.9386533189
 20
-29.0046821824
 10
104.8780309656
 20
-29.4643569704
 10
104.8165103096
 20
-29.9242625624
  0
LINE
  5
5BD
100
AcDbEntity
  8
IMPORT_IGES
100
AcDbLine
 62
7
  6
CONTINUOUS
 10
105.1168703433
 20
-28.2629217922
 11
105.055809778
 21
-28.735204549
  0
LINE
  5
5BE
100
AcDbEntity
  8
IMPORT_IGES
100
AcDbLine
 62
7
  6
CONTINUOUS
 10
104.9175679025
 20
-28.6517339036
 11
104.8440098267
 21
-29.2163510295
  0
LWPOLYLINE
  5
5BF
100
AcDbEntity
  8
IMPORT_IGES
100
AcDbPolyline
 62
7
  6
CONTINUOUS
 90
9
 70
0
 10
104.8838528604
 20
-25.7934620971
 10
104.8235004724
 20
-26.2514745302
 10
104.7624381381
 20
-26.7097290873
 10
104.7006658577
 20
-27.1682257682
 10
104.6381842737
 20
-27.6269656124
 10
104.5749927435
 20
-28.0859475804
 10
104.5110893394
 20
-28.5451685544
 10
104.4464734187
 20
-29.0046274948
 10
104.3811456241
 20
-29.464325441
  0
LINE
  5
5C0
100
AcDbEntity
  8
IMPORT_IGES
100
AcDbLine
 62
7
  6
CONTINUOUS
 10
104.9693503907
 20
-29.3227839572
 11
105.0475285902
 21
-28.7242970911
  0
LINE
  5
5C1
100
AcDbEntity
  8
IMPORT_IGES
100
AcDbLine
 62
7
  6
CONTINUOUS
 10
105.055809778
 20
-28.735204549
 11
104.9932719977
 21
-29.2093982315
  0
LWPOLYLINE
  5
5C2
100
AcDbEntity
  8
IMPORT_IGES
100
AcDbPolyline
 62
7
  6
CONTINUOUS
 90
10
 70
0
 10
105.2309467933
 20
-25.7934621387
 10
105.1700983054
 20
-26.2522385563
 10
105.1085550508
 20
-26.7110660872
 10
105.0463170296
 20
-27.1699447316
 10
104.9833844302
 20
-27.6288755112
 10
104.9197570641
 20
-28.0878574043
 10
104.8554343659
 20
-28.5468873448
 10
104.790416147
 20
-29.005964311
 10
104.7247025959
 20
-29.4650893247
 10
104.6582937126
 20
-29.9242623859
  0
LINE
  5
5C3
100
AcDbEntity
  8
IMPORT_IGES
100
AcDbLine
 62
7
  6
CONTINUOUS
 10
104.8440098267
 20
-29.2163510295
 11
104.7691218689
 21
-29.7812462298
  0
LINE
  5
5C4
100
AcDbEntity
  8
IMPORT_IGES
100
AcDbLine
 62
7
  6
CONTINUOUS
 10
104.7691218689
 20
-29.7812462298
 11
104.7501920461
 21
-29.9225132626
  0
LWPOLYLINE
  5
5C5
100
AcDbEntity
  8
IMPORT_IGES
100
AcDbPolyline
 62
7
  6
CONTINUOUS
 90
3
 70
0
 10
104.8005386278
 20
-29.9242623468
 10
104.8194919739
 20
-29.7828037103
 10
104.9681266961
 20
-28.6517339036
  0
LINE
  5
5C6
100
AcDbEntity
  8
IMPORT_IGES
100
AcDbLine
 62
7
  6
CONTINUOUS
 10
104.9331129263
 20
-26.1096115264
 11
104.8201009317
 21
-26.9560297967
  0
LINE
  5
5C7
100
AcDbEntity
  8
IMPORT_IGES
100
AcDbLine
 62
7
  6
CONTINUOUS
 10
105.0485600632
 20
-26.9565790969
 11
105.1622926958
 21
-26.1091851213
  0
LINE
  5
5C8
100
AcDbEntity
  8
IMPORT_IGES
100
AcDbLine
 62
7
  6
CONTINUOUS
 10
104.8458379946
 20
-29.868148319
 11
104.8383764876
 21
-29.9234001383
  0
LINE
  5
5C9
100
AcDbEntity
  8
IMPORT_IGES
100
AcDbLine
 62
7
  6
CONTINUOUS
 10
104.8888054875
 20
-29.9242621727
 11
104.9693503907
 21
-29.3227839572
  0
LWPOLYLINE
  5
5CA
100
AcDbEntity
  8
IMPORT_IGES
100
AcDbPolyline
 62
7
  6
CONTINUOUS
 90
3
 70
0
 10
104.9932719977
 20
-29.2093982315
 10
104.9292426123
 20
-29.6854977072
 10
104.896669467
 20
-29.9242624383
  0
LINE
  5
5CB
100
AcDbEntity
  8
IMPORT_IGES
100
AcDbLine
 62
7
  6
CONTINUOUS
 10
105.3840117805
 20
-26.5810388633
 11
105.3488491564
 21
-26.8400388333
  0
LINE
  5
5CC
100
AcDbEntity
  8
IMPORT_IGES
100
AcDbLine
 62
7
  6
CONTINUOUS
 10
105.3650705535
 20
-26.7740871301
 11
105.3700329435
 21
-26.7377682835
  0
LINE
  5
5CD
100
AcDbEntity
  8
IMPORT_IGES
100
AcDbLine
 62
7
  6
CONTINUOUS
 10
104.8201009317
 20
-26.9560297967
 11
104.7046774943
 21
-27.8031842669
  0
LINE
  5
5CE
100
AcDbEntity
  8
IMPORT_IGES
100
AcDbLine
 62
7
  6
CONTINUOUS
 10
105.428518858
 20
-26.2943147623
 11
105.4916305977
 21
-25.826745071
  0
LINE
  5
5CF
100
AcDbEntity
  8
IMPORT_IGES
100
AcDbLine
 62
7
  6
CONTINUOUS
 10
104.9324535043
 20
-27.8042057471
 11
105.0485600632
 21
-26.9565790969
  0
LINE
  5
5D0
100
AcDbEntity
  8
IMPORT_IGES
100
AcDbLine
 62
7
  6
CONTINUOUS
 10
105.3548348828
 20
-26.8413663503
 11
105.2679653398
 21
-27.4744433893
  0
LINE
  5
5D1
100
AcDbEntity
  8
IMPORT_IGES
100
AcDbLine
 62
7
  6
CONTINUOUS
 10
104.7046774943
 20
-27.8031842669
 11
104.5868409898
 21
-28.651072441
  0
LINE
  5
5D2
100
AcDbEntity
  8
IMPORT_IGES
100
AcDbLine
 62
7
  6
CONTINUOUS
 10
105.2679653398
 20
-27.4744433893
 11
105.170299055
 21
-28.1746596427
  0
LINE
  5
5D3
100
AcDbEntity
  8
IMPORT_IGES
100
AcDbLine
 62
7
  6
CONTINUOUS
 10
104.8139725341
 20
-28.6520626645
 11
104.9324535043
 21
-27.8042057471
  0
LINE
  5
5D4
100
AcDbEntity
  8
IMPORT_IGES
100
AcDbLine
 62
7
  6
CONTINUOUS
 10
105.4113811504
 20
-26.4170503206
 11
105.428518858
 21
-26.2943147623
  0
LINE
  5
5D5
100
AcDbEntity
  8
IMPORT_IGES
100
AcDbLine
 62
7
  6
CONTINUOUS
 10
104.7958270017
 20
-28.4207170079
 11
104.7031920489
 21
-29.0760726567
  0
LINE
  5
5D6
100
AcDbEntity
  8
IMPORT_IGES
100
AcDbLine
 62
7
  6
CONTINUOUS
 10
104.5868409898
 20
-28.651072441
 11
104.4665849214
 21
-29.4996843356
  0
LINE
  5
5D7
100
AcDbEntity
  8
IMPORT_IGES
100
AcDbLine
 62
7
  6
CONTINUOUS
 10
105.170299055
 20
-28.1746596427
 11
105.0710304781
 21
-28.8746938465
  0
LINE
  5
5D8
100
AcDbEntity
  8
IMPORT_IGES
100
AcDbLine
 62
7
  6
CONTINUOUS
 10
104.3811456241
 20
-29.464325441
 11
104.3151059555
 21
-29.9242623931
  0
LWPOLYLINE
  5
5D9
100
AcDbEntity
  8
IMPORT_IGES
100
AcDbPolyline
 62
7
  6
CONTINUOUS
 90
10
 70
0
 10
104.365943466
 20
-29.9242623931
 10
104.4319709924
 20
-29.4643334503
 10
104.4972873594
 20
-29.0046415037
 10
104.561892567
 20
-28.5451865533
 10
104.6257859349
 20
-28.08596755
 10
104.6889681435
 20
-27.6269855429
 10
104.7514412336
 20
-27.1682436793
 10
104.8132058856
 20
-26.7097430084
 10
104.8742614191
 20
-26.251482481
 10
104.9346078342
 20
-25.7934620971
  0
LINE
  5
5DA
100
AcDbEntity
  8
IMPORT_IGES
100
AcDbLine
 62
7
  6
CONTINUOUS
 10
104.4665849214
 20
-29.4996843356
 11
104.4055499568
 21
-29.9242623021
  0
LINE
  5
5DB
100
AcDbEntity
  8
IMPORT_IGES
100
AcDbLine
 62
7
  6
CONTINUOUS
 10
105.4721339837
 20
-25.7934621388
 11
105.4074498068
 21
-26.2435310806
  0
LINE
  5
5DC
100
AcDbEntity
  8
IMPORT_IGES
100
AcDbLine
 62
7
  6
CONTINUOUS
 10
104.7031920489
 20
-29.0760726567
 11
104.581125831
 21
-29.9242623383
  0
LINE
  5
5DD
100
AcDbEntity
  8
IMPORT_IGES
100
AcDbLine
 62
7
  6
CONTINUOUS
 10
104.631795543
 20
-29.9242623383
 11
104.8139725341
 21
-28.6520626645
  0
LWPOLYLINE
  5
5DE
100
AcDbEntity
  8
IMPORT_IGES
100
AcDbPolyline
 62
7
  6
CONTINUOUS
 90
3
 70
0
 10
105.0710304781
 20
-28.8746938465
 10
104.9701672634
 20
-29.5744905702
 10
104.9191371884
 20
-29.9243033415
  0
LINE
  5
5DF
100
AcDbEntity
  8
IMPORT_IGES
100
AcDbLine
 62
7
  6
CONTINUOUS
 10
105.4035605373
 20
-26.4712575743
 11
105.4113811504
 21
-26.4170503206
  0
LINE
  5
5E0
100
AcDbEntity
  8
IMPORT_IGES
100
AcDbLine
 62
7
  6
CONTINUOUS
 10
105.4074498068
 20
-26.2435310806
 11
105.3421689172
 21
-26.6902697509
  0
LINE
  5
5E1
100
AcDbEntity
  8
IMPORT_IGES
100
AcDbLine
 62
7
  6
CONTINUOUS
 10
105.3554408278
 20
-26.5359516957
 11
105.4638884345
 21
-25.7934618912
  0
LINE
  5
5E2
100
AcDbEntity
  8
IMPORT_IGES
100
AcDbLine
 62
7
  6
CONTINUOUS
 10
105.2643059817
 20
-25.7915316404
 11
105.1937905202
 21
-26.2651189341
  0
LINE
  5
5E3
100
AcDbEntity
  8
IMPORT_IGES
100
AcDbLine
 62
7
  6
CONTINUOUS
 10
105.2440789853
 20
-26.2667358872
 11
105.3145405332
 21
-25.7934618868
  0
LINE
  5
5E4
100
AcDbEntity
  8
IMPORT_IGES
100
AcDbLine
 62
7
  6
CONTINUOUS
 10
105.3421689172
 20
-26.6902697509
 11
105.2763000677
 21
-27.1336785517
  0
LWPOLYLINE
  5
5E5
100
AcDbEntity
  8
IMPORT_IGES
100
AcDbPolyline
 62
7
  6
CONTINUOUS
 90
5
 70
0
 10
104.8677204689
 20
-29.9311728841
 10
104.5489328934
 20
-32.0635145794
 10
104.1593754891
 20
-34.5328825528
 10
103.7499172632
 20
-36.9990340311
 10
103.3205845607
 20
-39.461808586
  0
LWPOLYLINE
  5
5E6
100
AcDbEntity
  8
IMPORT_IGES
100
AcDbPolyline
 62
7
  6
CONTINUOUS
 90
3
 70
0
 10
105.1937905202
 20
-26.2651189341
 10
105.1229717194
 20
-26.7351063143
 10
105.0518495793
 20
-27.2014937809
  0
LINE
  5
5E7
100
AcDbEntity
  8
IMPORT_IGES
100
AcDbLine
 62
7
  6
CONTINUOUS
 10
105.1637200894
 20
-26.9279790748
 11
105.2689314211
 21
-26.2252743642
  0
LWPOLYLINE
  5
5E8
100
AcDbEntity
  8
IMPORT_IGES
100
AcDbPolyline
 62
7
  6
CONTINUOUS
 90
3
 70
0
 10
105.2763000677
 20
-27.1336785517
 10
105.2098782692
 20
-27.5737590906
 10
105.1764578258
 20
-27.7925511615
  0
LINE
  5
5E9
100
AcDbEntity
  8
IMPORT_IGES
100
AcDbLine
 62
7
  6
CONTINUOUS
 10
105.39840867
 20
-26.5056775027
 11
105.4035605373
 21
-26.4712575743
  0
LWPOLYLINE
  5
5EA
100
AcDbEntity
  8
IMPORT_IGES
100
AcDbPolyline
 62
7
  6
CONTINUOUS
 90
3
 70
0
 10
105.2176565491
 20
-27.4512307225
 10
105.2454044613
 20
-27.2693152697
 10
105.3554408278
 20
-26.5359516957
  0
LINE
  5
5EB
100
AcDbEntity
  8
IMPORT_IGES
100
AcDbLine
 62
7
  6
CONTINUOUS
 10
105.0566128848
 20
-27.6304158132
 11
105.1637200894
 21
-26.9279790748
  0
LWPOLYLINE
  5
5EC
100
AcDbEntity
  8
IMPORT_IGES
100
AcDbPolyline
 62
7
  6
CONTINUOUS
 90
4
 70
0
 10
105.0308458113
 20
-27.6651054662
 10
105.1022411364
 20
-27.20255842
 10
105.1733125197
 20
-26.7364347316
 10
105.2440789853
 20
-26.2667358872
  0
LWPOLYLINE
  5
5ED
100
AcDbEntity
  8
IMPORT_IGES
100
AcDbPolyline
 62
7
  6
CONTINUOUS
 90
7
 70
0
 10
105.1622904751
 20
-26.1091851191
 10
105.0948112633
 20
-26.5451263089
 10
105.0270734622
 20
-26.9780555409
 10
104.9590770717
 20
-27.4079728151
 10
104.8908064089
 20
-27.8348767709
 10
104.8222771567
 20
-28.258768769
 10
104.7535363643
 20
-28.6796528915
  0
LINE
  5
5EE
100
AcDbEntity
  8
IMPORT_IGES
100
AcDbLine
 62
7
  6
CONTINUOUS
 10
105.1356226311
 20
-25.7934620744
 11
105.0715835039
 21
-26.2065912895
  0
LINE
  5
5EF
100
AcDbEntity
  8
IMPORT_IGES
100
AcDbLine
 62
7
  6
CONTINUOUS
 10
105.1221849777
 20
-26.2066121475
 11
105.1862174515
 21
-25.7934620744
  0
LINE
  5
5F0
100
AcDbEntity
  8
IMPORT_IGES
100
AcDbLine
 62
7
  6
CONTINUOUS
 10
105.0518495793
 20
-27.2014937809
 11
104.9633093537
 21
-27.7736889329
  0
LINE
  5
5F1
100
AcDbEntity
  8
IMPORT_IGES
100
AcDbLine
 62
7
  6
CONTINUOUS
 10
104.9476105372
 20
-28.3325797883
 11
105.0566128848
 21
-27.6304158132
  0
LWPOLYLINE
  5
5F2
100
AcDbEntity
  8
IMPORT_IGES
100
AcDbPolyline
 62
7
  6
CONTINUOUS
 90
5
 70
0
 10
105.0715835039
 20
-26.2065912895
 10
105.0073014037
 20
-26.6170213044
 10
104.9427763308
 20
-27.0247521189
 10
104.877995048
 20
-27.4297826483
 10
104.8129707924
 20
-27.8321139774
  0
LINE
  5
5F3
100
AcDbEntity
  8
IMPORT_IGES
100
AcDbLine
 62
7
  6
CONTINUOUS
 10
105.1233609162
 20
-28.1288088749
 11
105.0604046185
 21
-28.532446591
  0
LINE
  5
5F4
100
AcDbEntity
  8
IMPORT_IGES
100
AcDbLine
 62
7
  6
CONTINUOUS
 10
105.0512345623
 20
-28.5114932267
 11
105.1639526245
 21
-27.7925511712
  0
LINE
  5
5F5
100
AcDbEntity
  8
IMPORT_IGES
100
AcDbLine
 62
7
  6
CONTINUOUS
 10
105.1134584939
 20
-27.7925511712
 11
105.0270229544
 21
-28.3451350145
  0
LINE
  5
5F6
100
AcDbEntity
  8
IMPORT_IGES
100
AcDbLine
 62
7
  6
CONTINUOUS
 10
105.0270229544
 20
-28.3451350145
 11
105.0111483323
 21
-28.4455427727
  0
LINE
  5
5F7
100
AcDbEntity
  8
IMPORT_IGES
100
AcDbLine
 62
7
  6
CONTINUOUS
 10
105.0604046185
 20
-28.532446591
 11
104.9970077296
 21
-28.9334283566
  0
LINE
  5
5F8
100
AcDbEntity
  8
IMPORT_IGES
100
AcDbLine
 62
7
  6
CONTINUOUS
 10
104.8150205712
 20
-29.0313105283
 11
104.877956189
 21
-28.6373296128
  0
LINE
  5
5F9
100
AcDbEntity
  8
IMPORT_IGES
100
AcDbLine
 62
7
  6
CONTINUOUS
 10
104.877956189
 20
-28.6373296128
 11
105.0308458113
 21
-27.6651054662
  0
LINE
  5
5FA
100
AcDbEntity
  8
IMPORT_IGES
100
AcDbLine
 62
7
  6
CONTINUOUS
 10
104.8978192609
 20
-28.6517338008
 11
104.8072787083
 21
-29.2206956644
  0
LWPOLYLINE
  5
5FB
100
AcDbEntity
  8
IMPORT_IGES
100
AcDbPolyline
 62
7
  6
CONTINUOUS
 90
3
 70
0
 10
104.9192901412
 20
-29.9242623934
 10
104.9137622424
 20
-29.9591520678
 10
104.9121599928
 20
-29.9689596052
  0
LINE
  5
5FC
100
AcDbEntity
  8
IMPORT_IGES
100
AcDbLine
 62
7
  6
CONTINUOUS
 10
104.9752754263
 20
-28.9861370249
 11
105.0512345623
 21
-28.5114932267
  0
LINE
  5
5FD
100
AcDbEntity
  8
IMPORT_IGES
100
AcDbLine
 62
7
  6
CONTINUOUS
 10
104.9970077296
 20
-28.9334283566
 11
104.9331742214
 21
-29.3317540947
  0
LWPOLYLINE
  5
5FE
100
AcDbEntity
  8
IMPORT_IGES
100
AcDbPolyline
 62
7
  6
CONTINUOUS
 90
3
 70
0
 10
104.8072787083
 20
-29.2206956644
 10
104.7163545371
 20
-29.7842276095
 10
104.6935660803
 20
-29.924262329
  0
LWPOLYLINE
  5
5FF
100
AcDbEntity
  8
IMPORT_IGES
100
AcDbPolyline
 62
7
  6
CONTINUOUS
 90
3
 70
0
 10
104.9331742214
 20
-29.3317540947
 10
104.868919981
 20
-29.7274234975
 10
104.8366340933
 20
-29.9242620925
  0
LINE
  5
600
100
AcDbEntity
  8
IMPORT_IGES
100
AcDbLine
 62
7
  6
CONTINUOUS
 10
104.8986933957
 20
-29.4570600711
 11
104.9752754263
 21
-28.9861370249
  0
LWPOLYLINE
  5
601
100
AcDbEntity
  8
IMPORT_IGES
100
AcDbPolyline
 62
7
  6
CONTINUOUS
 90
3
 70
0
 10
104.6699232168
 20
-29.9242623933
 10
104.7425958166
 20
-29.4795718098
 10
104.8150205712
 20
-29.0313105283
  0
LINE
  5
602
100
AcDbEntity
  8
IMPORT_IGES
100
AcDbLine
 62
7
  6
CONTINUOUS
 10
104.8129707924
 20
-27.8321139774
 11
104.7172807283
 21
-28.4165899827
  0
LINE
  5
603
100
AcDbEntity
  8
IMPORT_IGES
100
AcDbLine
 62
7
  6
CONTINUOUS
 10
104.8214957417
 20
-29.9242623582
 11
104.8986933957
 21
-29.4570600711
  0
LINE
  5
604
100
AcDbEntity
  8
IMPORT_IGES
100
AcDbLine
 62
7
  6
CONTINUOUS
 10
104.7535363643
 20
-28.6796528915
 11
104.629585371
 21
-29.4276011229
  0
LWPOLYLINE
  5
605
100
AcDbEntity
  8
IMPORT_IGES
100
AcDbPolyline
 62
7
  6
CONTINUOUS
 90
9
 70
0
 10
104.6015989306
 20
-29.4144830912
 10
104.6674005944
 20
-29.0229549156
 10
104.7330013817
 20
-28.6287257307
 10
104.7984012926
 20
-28.2317955366
 10
104.863613842
 20
-27.8321654851
 10
104.928625515
 20
-27.4298344243
 10
104.9933957669
 20
-27.0247988984
 10
105.0579110828
 20
-26.6170577555
 10
105.1221849777
 20
-26.2066121475
  0
LINE
  5
606
100
AcDbEntity
  8
IMPORT_IGES
100
AcDbLine
 62
7
  6
CONTINUOUS
 10
104.629585371
 20
-29.4276011229
 11
104.5460917954
 21
-29.924262088
  0
LWPOLYLINE
  5
607
100
AcDbEntity
  8
IMPORT_IGES
100
AcDbPolyline
 62
7
  6
CONTINUOUS
 90
8
 70
0
 10
104.9121599928
 20
-29.9689596052
 10
104.9106976226
 20
-29.977613353
 10
104.9094075022
 20
-29.9850191284
 10
104.9082913701
 20
-29.9911338826
 10
104.9073474878
 20
-29.9958836014
 10
104.9066030108
 20
-29.9991996973
 10
104.9060593317
 20
-30.0010664852
 10
104.9057959533
 20
-30.0014582551
  0
LINE
  5
608
100
AcDbEntity
  8
IMPORT_IGES
100
AcDbLine
 62
7
  6
CONTINUOUS
 10
41.9163804895
 20
26.5732732402
 11
48.4663804895
 21
26.5732732402
  0
LINE
  5
609
100
AcDbEntity
  8
IMPORT_IGES
100
AcDbLine
 62
7
  6
CONTINUOUS
 10
55.5971474578
 20
26.5732732402
 11
58.9663804895
 21
26.5732732402
  0
LINE
  5
60A
100
AcDbEntity
  8
IMPORT_IGES
100
AcDbLine
 62
7
  6
CONTINUOUS
 10
55.4663804895
 20
26.6032732402
 11
48.4663804895
 21
26.6032732402
  0
LINE
  5
60B
100
AcDbEntity
  8
IMPORT_IGES
100
AcDbLine
 62
253
  6
CONTINUOUS
 10
90.2663804895
 20
27.992718341
 11
90.4231534694
 21
27.992718341
  0
LWPOLYLINE
  5
60C
100
AcDbEntity
  8
IMPORT_IGES
100
AcDbPolyline
 62
253
  6
CONTINUOUS
 90
7
 70
0
 10
90.8531306948
 20
26.9587738856
 10
90.8132992045
 20
27.0048295826
 10
90.7716456748
 20
27.0562032613
 10
90.7317956321
 20
27.1085893796
 10
90.6937782432
 20
27.1619163869
 10
90.6575643413
 20
27.2162558338
 10
90.6231539265
 20
27.2716077202
  0
LINE
  5
60D
100
AcDbEntity
  8
IMPORT_IGES
100
AcDbLine
 62
253
  6
CONTINUOUS
 10
107.5557187082
 20
1.5045593436
 11
107.1698369177
 21
3.876082869
  0
LWPOLYLINE
  5
60E
100
AcDbEntity
  8
IMPORT_IGES
100
AcDbPolyline
 62
253
  6
CONTINUOUS
 90
20
 70
0
 10
107.1698369177
 20
3.876082869
 10
107.0848070248
 20
4.4044879753
 10
106.9979700041
 20
4.9494944699
 10
106.9093608225
 20
5.5107138922
 10
106.820237587
 20
6.0889795454
 10
106.7303582832
 20
6.6848585075
 10
106.6399649254
 20
7.2966475915
 10
106.5510416634
 20
7.9217187624
 10
106.4636023439
 20
8.5591303043
 10
106.3776331201
 20
9.2082300365
 10
106.2950766021
 20
9.8665773178
 10
106.216151611
 20
10.5318821588
 10
106.1406393256
 20
11.2046064917
 10
106.0698258923
 20
11.8864568199
 10
106.0036647903
 20
12.5781845293
 10
105.9422025403
 20
13.2774845927
 10
105.8868648513
 20
13.9815044016
 10
105.8381269598
 20
14.6886886853
 10
105.7955136293
 20
15.3988514122
 10
105.7590248599
 20
16.1111407653
  0
LWPOLYLINE
  5
60F
100
AcDbEntity
  8
IMPORT_IGES
100
AcDbPolyline
 62
253
  6
CONTINUOUS
 90
19
 70
0
 10
107.0039677684
 20
1.5379834996
 10
107.1379934781
 20
0.6790557811
 10
107.198884173
 20
0.283724898
 10
107.2555717784
 20
-0.0895869604
 10
107.3080632123
 20
-0.4409714812
 10
107.3564019333
 20
-0.770100746
 10
107.4005370093
 20
-1.0767407035
 10
107.4405733507
 20
-1.3611347338
 10
107.4764659768
 20
-1.6228223746
 10
107.5080700294
 20
-1.8605245166
 10
107.5355111938
 20
-2.0739244585
 10
107.5589633546
 20
-2.2631760984
 10
107.5784992388
 20
-2.427718903
 10
107.594265245
 20
-2.5674785381
 10
107.606543388
 20
-2.6824363072
 10
107.6156556782
 20
-2.7721343817
 10
107.6218677669
 20
-2.8364194316
 10
107.6254043429
 20
-2.8754441789
 10
107.6264904194
 20
-2.889227011
  0
LWPOLYLINE
  5
610
100
AcDbEntity
  8
IMPORT_IGES
100
AcDbPolyline
 62
253
  6
CONTINUOUS
 90
12
 70
0
 10
105.8275812517
 20
9.6250899397
 10
105.9096968918
 20
8.9513187537
 10
105.9947913264
 20
8.2865358108
 10
106.0816083331
 20
7.6346798424
 10
106.1699187712
 20
6.9956015749
 10
106.2592808374
 20
6.3693869911
 10
106.3482922101
 20
5.7604195423
 10
106.4365164785
 20
5.1700712441
 10
106.5238726987
 20
4.5970469483
 10
106.6096437801
 20
4.0417944285
 10
106.6936178312
 20
3.5042088896
 10
107.0039677684
 20
1.5379834996
  0
LWPOLYLINE
  5
611
100
AcDbEntity
  8
IMPORT_IGES
100
AcDbPolyline
 62
253
  6
CONTINUOUS
 90
22
 70
0
 10
104.7317736797
 20
39.0240176447
 10
104.7197449983
 20
39.1249221113
 10
104.7010417453
 20
39.2252756205
 10
104.6758686674
 20
39.3242214003
 10
104.6446295265
 20
39.4205040355
 10
104.6074582783
 20
39.5139656891
 10
104.5639103825
 20
39.6054798361
 10
104.5141671354
 20
39.6946030295
 10
104.4587537217
 20
39.7804689788
 10
104.3975105557
 20
39.8631856124
 10
104.3306545876
 20
39.9420921252
 10
104.258495175
 20
40.0164115086
 10
104.1808946153
 20
40.0860245055
 10
104.0982746663
 20
40.1505567835
 10
104.0113863678
 20
40.2094089758
 10
103.9207278377
 20
40.2621736969
 10
103.8271363978
 20
40.3082323372
 10
103.7311936037
 20
40.3471943339
 10
103.6329838335
 20
40.3791441636
 10
103.533033212
 20
40.4040075942
 10
103.4323519424
 20
40.421614259
 10
103.3318254869
 20
40.4318885987
  0
LWPOLYLINE
  5
612
100
AcDbEntity
  8
IMPORT_IGES
100
AcDbPolyline
 62
253
  6
CONTINUOUS
 90
13
 70
0
 10
108.0850966272
 20
-2.1072665423
 10
108.0692562371
 20
-1.9713871496
 10
108.0495267909
 20
-1.8106359579
 10
108.0260248323
 20
-1.6252295261
 10
107.9982616479
 20
-1.4153313531
 10
107.9660648289
 20
-1.1807175147
 10
107.9296067839
 20
-0.9218226388
 10
107.8889160255
 20
-0.6402057088
 10
107.8440103098
 20
-0.3372703162
 10
107.7948718807
 20
-0.0128347943
 10
107.7414759816
 20
0.3337940363
 10
107.6837483304
 20
0.702372128
 10
107.5557187082
 20
1.5045593436
  0
LWPOLYLINE
  5
613
100
AcDbEntity
  8
IMPORT_IGES
100
AcDbPolyline
 62
7
  6
CONTINUOUS
 90
13
 70
0
 10
105.3840117805
 20
-26.5810388633
 10
105.3847518618
 20
-26.5790138101
 10
105.3855318109
 20
-26.5764931974
 10
105.3863527435
 20
-26.5734778248
 10
105.3872026797
 20
-26.5700687673
 10
105.3880956848
 20
-26.566166473
 10
105.3890720126
 20
-26.5614708631
 10
105.3901453171
 20
-26.5558897135
 10
105.3913040471
 20
-26.5495168374
 10
105.3925508176
 20
-26.5423313571
 10
105.3938930706
 20
-26.534284367
 10
105.3953253836
 20
-26.5254263891
 10
105.39840867
 20
-26.5056775027
  0
LWPOLYLINE
  5
614
100
AcDbEntity
  8
IMPORT_IGES
100
AcDbPolyline
 62
253
  6
CONTINUOUS
 90
4
 70
0
 10
90.2163804895
 20
28.7133482928
 10
90.1990196475
 20
28.7131953007
 10
90.1821852543
 20
28.7127409412
 10
90.1737770562
 20
28.7123460041
  0
LINE
  5
615
100
AcDbEntity
  8
IMPORT_IGES
100
AcDbLine
 62
253
  6
CONTINUOUS
 10
96.2663804895
 20
28.4532732402
 11
96.0663804895
 21
28.4532732402
  0
LINE
  5
616
100
AcDbEntity
  8
IMPORT_IGES
100
AcDbLine
 62
253
  6
CONTINUOUS
 10
88.6663807663
 20
28.4532732402
 11
88.4663804895
 21
28.4532732402
  0
LINE
  5
617
100
AcDbEntity
  8
IMPORT_IGES
100
AcDbLine
 62
253
  6
CONTINUOUS
 10
90.4231534694
 20
29.1275373032
 11
90.2663804895
 21
29.1275373032
  0
LINE
  5
618
100
AcDbEntity
  8
IMPORT_IGES
100
AcDbLine
 62
7
  6
CONTINUOUS
 10
55.4663804895
 20
30.5032732402
 11
48.4663804895
 21
30.5032732402
  0
LINE
  5
619
100
AcDbEntity
  8
IMPORT_IGES
100
AcDbLine
 62
7
  6
CONTINUOUS
 10
41.9163804895
 20
30.5332732402
 11
48.4663804895
 21
30.5332732402
  0
LINE
  5
61A
100
AcDbEntity
  8
IMPORT_IGES
100
AcDbLine
 62
7
  6
CONTINUOUS
 10
55.5971474578
 20
30.5332732402
 11
58.9663804895
 21
30.5332732402
  0
LINE
  5
61B
100
AcDbEntity
  8
IMPORT_IGES
100
AcDbLine
 62
253
  6
CONTINUOUS
 10
93.6025423869
 20
32.3032732402
 11
92.9888754694
 21
32.3032732402
  0
LINE
  5
61C
100
AcDbEntity
  8
IMPORT_IGES
100
AcDbLine
 62
253
  6
CONTINUOUS
 10
91.7438855096
 20
32.3032732402
 11
91.1304302255
 21
32.3032732402
  0
LWPOLYLINE
  5
61D
100
AcDbEntity
  8
IMPORT_IGES
100
AcDbPolyline
 62
253
  6
CONTINUOUS
 90
16
 70
0
 10
105.2647810948
 20
22.1480383088
 10
105.278952646
 20
22.1421975607
 10
105.2963421714
 20
22.1363710152
 10
105.3168352095
 20
22.1306228812
 10
105.340250112
 20
22.1250279315
 10
105.3664297947
 20
22.1196274852
 10
105.3952733977
 20
22.1144345297
 10
105.4265013102
 20
22.1095057119
 10
105.4598289518
 20
22.1048970908
 10
105.4951859582
 20
22.1006183402
 10
105.532193553
 20
22.0967059137
 10
105.5704333318
 20
22.0931995732
 10
105.609752733
 20
22.0901174779
 10
105.6498423412
 20
22.0874791442
 10
105.6902076032
 20
22.0853027729
 10
105.7304144541
 20
22.0835989403
  0
LINE
  5
61E
100
AcDbEntity
  8
IMPORT_IGES
100
AcDbLine
 62
253
  6
CONTINUOUS
 10
107.4863146348
 20
40.5356973402
 11
107.4883087864
 21
40.521240004
  0
LWPOLYLINE
  5
61F
100
AcDbEntity
  8
IMPORT_IGES
100
AcDbPolyline
 62
253
  6
CONTINUOUS
 90
19
 70
0
 10
107.0229222119
 20
40.4528483142
 10
107.0279697984
 20
40.4143153663
 10
107.0362537406
 20
40.3758167661
 10
107.0477574641
 20
40.3377890121
 10
107.0624118565
 20
40.3007276444
 10
107.0801944007
 20
40.2648962097
 10
107.1010679206
 20
40.2303699403
 10
107.1247791494
 20
40.1975126486
 10
107.1510772453
 20
40.1666762644
 10
107.1799606342
 20
40.1379738967
 10
107.211216001
 20
40.1117443322
 10
107.2444823891
 20
40.0881730984
 10
107.2796434725
 20
40.0672545941
 10
107.3163230266
 20
40.0492095545
 10
107.3541320583
 20
40.0342605185
 10
107.3929898723
 20
40.0224386924
 10
107.4326251014
 20
40.0137481144
 10
107.4725271334
 20
40.0082227431
 10
107.5122489002
 20
40.0058494897
  0
LINE
  5
620
100
AcDbEntity
  8
IMPORT_IGES
100
AcDbLine
 62
253
  6
CONTINUOUS
 10
107.0216834869
 20
40.8666959229
 11
107.0201659551
 21
40.8783201923
  0
LWPOLYLINE
  5
621
100
AcDbEntity
  8
IMPORT_IGES
100
AcDbPolyline
 62
253
  6
CONTINUOUS
 90
10
 70
0
 10
107.0216389792
 20
40.8667045337
 10
107.0238304292
 20
40.8491437784
 10
107.0264775866
 20
40.8242897924
 10
107.0292630937
 20
40.7921761355
 10
107.0318111238
 20
40.7528138944
 10
107.0336577249
 20
40.7063067509
 10
107.0342620817
 20
40.6528610176
 10
107.033054161
 20
40.5926623597
 10
107.0294329519
 20
40.5258961041
 10
107.0227446993
 20
40.4528688864
  0
LWPOLYLINE
  5
622
100
AcDbEntity
  8
IMPORT_IGES
100
AcDbPolyline
 62
253
  6
CONTINUOUS
 90
19
 70
0
 10
76.6707437573
 20
34.6286624751
 10
76.7139819421
 20
34.6307989712
 10
76.7565357047
 20
34.6364191522
 10
76.7981026198
 20
34.6454010634
 10
76.8382135811
 20
34.6575362775
 10
76.876804246
 20
34.6726967822
 10
76.9141528005
 20
34.690982521
 10
76.9501043535
 20
34.7124104334
 10
76.984211226
 20
34.7368117844
 10
77.0162463836
 20
34.7641165478
 10
77.0459701804
 20
34.7942493483
 10
77.0730229488
 20
34.8269871013
 10
77.0970335386
 20
34.8619844008
 10
77.1177667333
 20
34.8989686534
 10
77.1350382103
 20
34.9376929678
 10
77.1486462603
 20
34.9777825367
 10
77.158459654
 20
35.0188973483
 10
77.1643931157
 20
35.060744883
 10
77.1663804895
 20
35.1029959959
  0
LWPOLYLINE
  5
623
100
AcDbEntity
  8
IMPORT_IGES
100
AcDbPolyline
 62
253
  6
CONTINUOUS
 90
15
 70
0
 10
59.4695942841
 20
32.7093570989
 10
59.4080431507
 20
32.7076140175
 10
59.3491745385
 20
32.7056634807
 10
59.2933727806
 20
32.7035145849
 10
59.2409451311
 20
32.7011752936
 10
59.1920017955
 20
32.698643614
 10
59.1467746892
 20
32.6959193681
 10
59.1058146103
 20
32.6930222594
 10
59.0696699761
 20
32.6899824141
 10
59.0386340866
 20
32.686820256
 10
59.0128873936
 20
32.683549206
 10
58.9926617961
 20
32.6801932115
 10
58.9781070633
 20
32.676773494
 10
58.9693208065
 20
32.6733079333
 10
58.9663804895
 20
32.6698167122
  0
LINE
  5
624
100
AcDbEntity
  8
IMPORT_IGES
100
AcDbLine
 62
253
  6
CONTINUOUS
 10
59.5997774173
 20
32.7122048102
 11
59.4695942841
 21
32.7093570989
  0
LINE
  5
625
100
AcDbEntity
  8
IMPORT_IGES
100
AcDbLine
 62
253
  6
CONTINUOUS
 10
59.7377337754
 20
32.7141699099
 11
59.5997774173
 21
32.7122048102
  0
LINE
  5
626
100
AcDbEntity
  8
IMPORT_IGES
100
AcDbLine
 62
7
  6
CONTINUOUS
 10
59.957653954
 20
35.3530949589
 11
76.6707437573
 21
35.498947884
  0
LWPOLYLINE
  5
627
100
AcDbEntity
  8
IMPORT_IGES
100
AcDbPolyline
 62
253
  6
CONTINUOUS
 90
3
 70
0
 10
76.8027467758
 20
32.8239881811
 10
76.7153432111
 20
32.8232284954
 10
59.9576813464
 20
32.7152406827
  0
LINE
  5
628
100
AcDbEntity
  8
IMPORT_IGES
100
AcDbLine
 62
253
  6
CONTINUOUS
 10
76.6707446946
 20
34.6285802266
 11
59.9576536297
 21
34.525888448
  0
LWPOLYLINE
  5
629
100
AcDbEntity
  8
IMPORT_IGES
100
AcDbPolyline
 62
253
  6
CONTINUOUS
 90
3
 70
0
 10
59.957653954
 20
32.7153750867
 10
59.8831912197
 20
32.7152188995
 10
59.7377337754
 20
32.7141699099
  0
LINE
  5
62A
100
AcDbEntity
  8
IMPORT_IGES
100
AcDbLine
 62
7
  6
CONTINUOUS
 10
92.2163804895
 20
32.4953539091
 11
92.6163804895
 21
32.4953539091
  0
LINE
  5
62B
100
AcDbEntity
  8
IMPORT_IGES
100
AcDbLine
 62
7
  6
CONTINUOUS
 10
92.1163804895
 20
32.5032732402
 11
92.2163804895
 21
32.5032732402
  0
LINE
  5
62C
100
AcDbEntity
  8
IMPORT_IGES
100
AcDbLine
 62
7
  6
CONTINUOUS
 10
92.2163804895
 20
32.7532732402
 11
92.1163804895
 21
32.7532732402
  0
LINE
  5
62D
100
AcDbEntity
  8
IMPORT_IGES
100
AcDbLine
 62
7
  6
CONTINUOUS
 10
92.2163804895
 20
34.4953539091
 11
92.6163804895
 21
34.4953539091
  0
LINE
  5
62E
100
AcDbEntity
  8
IMPORT_IGES
100
AcDbLine
 62
7
  6
CONTINUOUS
 10
92.2163804895
 20
33.3102552662
 11
92.1163804895
 21
33.3120007727
  0
LWPOLYLINE
  5
62F
100
AcDbEntity
  8
IMPORT_IGES
100
AcDbPolyline
 62
253
  6
CONTINUOUS
 90
9
 70
0
 10
104.2598769599
 20
38.9773032292
 10
104.3404268927
 20
38.9833757618
 10
104.4154552745
 20
38.9894292117
 10
104.4844706626
 20
38.9954407628
 10
104.5470422675
 20
39.0013827084
 10
104.6032328158
 20
39.0072224762
 10
104.6529166264
 20
39.0129407924
 10
104.6958281992
 20
39.0185342411
 10
104.7317807748
 20
39.0239918135
  0
LINE
  5
630
100
AcDbEntity
  8
IMPORT_IGES
100
AcDbLine
 62
253
  6
CONTINUOUS
 10
104.0828000729
 20
38.9652085574
 11
104.2598769599
 21
38.9773032292
  0
LINE
  5
631
100
AcDbEntity
  8
IMPORT_IGES
100
AcDbLine
 62
253
  6
CONTINUOUS
 10
103.8868547131
 20
38.9533226007
 11
104.0828000729
 21
38.9652085574
  0
LINE
  5
632
100
AcDbEntity
  8
IMPORT_IGES
100
AcDbLine
 62
253
  6
CONTINUOUS
 10
103.6754279521
 20
38.9418618785
 11
103.8868547131
 21
38.9533226007
  0
LINE
  5
633
100
AcDbEntity
  8
IMPORT_IGES
100
AcDbLine
 62
253
  6
CONTINUOUS
 10
103.4519157595
 20
38.9309886508
 11
103.6754279521
 21
38.9418618785
  0
LINE
  5
634
100
AcDbEntity
  8
IMPORT_IGES
100
AcDbLine
 62
253
  6
CONTINUOUS
 10
103.2202820473
 20
38.9208924408
 11
103.4519157595
 21
38.9309886508
  0
LWPOLYLINE
  5
635
100
AcDbEntity
  8
IMPORT_IGES
100
AcDbPolyline
 62
253
  6
CONTINUOUS
 90
3
 70
0
 10
102.8653970329
 20
38.9074908361
 10
102.983698655
 20
38.9116710781
 10
103.2202820473
 20
38.9208924408
  0
LINE
  5
636
100
AcDbEntity
  8
IMPORT_IGES
100
AcDbLine
 62
253
  6
CONTINUOUS
 10
79.11402659
 20
38.8452381151
 11
92.1163804934
 21
39.139210681
  0
LINE
  5
637
100
AcDbEntity
  8
IMPORT_IGES
100
AcDbLine
 62
253
  6
CONTINUOUS
 10
92.1163804895
 20
39.7235463441
 11
92.6163788354
 21
39.7321794462
  0
LINE
  5
638
100
AcDbEntity
  8
IMPORT_IGES
100
AcDbLine
 62
253
  6
CONTINUOUS
 10
92.6163806889
 20
39.1393458769
 11
92.1163804895
 21
39.1393458769
  0
LINE
  5
639
100
AcDbEntity
  8
IMPORT_IGES
100
AcDbLine
 62
253
  6
CONTINUOUS
 10
92.6163805065
 20
39.1392110024
 11
102.8658665308
 21
38.9075220816
  0
LWPOLYLINE
  5
63A
100
AcDbEntity
  8
IMPORT_IGES
100
AcDbPolyline
 62
253
  6
CONTINUOUS
 90
16
 70
0
 10
107.021687837
 20
40.8666824869
 10
107.0358557989
 20
40.8284407321
 10
107.0531675516
 20
40.7913226898
 10
107.0734413693
 20
40.755742569
 10
107.0963275404
 20
40.7222938592
 10
107.1216923843
 20
40.6910342963
 10
107.1497720259
 20
40.6616037229
 10
107.1804920682
 20
40.6342310286
 10
107.2134923209
 20
40.609419562
 10
107.2487149076
 20
40.5872979055
 10
107.2857690796
 20
40.5680947312
 10
107.3242832582
 20
40.5520125317
 10
107.3641824438
 20
40.5391734076
 10
107.405172111
 20
40.5297191569
 10
107.4467067349
 20
40.5237322204
 10
107.4883087982
 20
40.5212400347
  0
LWPOLYLINE
  5
63B
100
AcDbEntity
  8
IMPORT_IGES
100
AcDbPolyline
 62
7
  6
CONTINUOUS
 90
19
 70
0
 10
107.0201729019
 20
40.8782992347
 10
106.985050968
 20
40.9733691493
 10
106.9435507017
 20
41.0659291923
 10
106.8959762572
 20
41.1553222408
 10
106.842989858
 20
41.2405384615
 10
106.7848480428
 20
41.3214714966
 10
106.721106864
 20
41.3987665717
 10
106.6519734062
 20
41.4720055217
 10
106.5780134291
 20
41.5404987354
 10
106.4990656854
 20
41.6042877974
 10
106.4155347052
 20
41.6628854447
 10
106.3280280924
 20
41.7157722573
 10
106.2366314776
 20
41.7628063896
 10
106.1421022983
 20
41.8035199494
 10
106.0449951702
 20
41.8376579377
 10
105.9450947058
 20
41.8652186784
 10
105.8428453032
 20
41.885929974
 10
105.739360546
 20
41.8994880922
 10
105.6354629491
 20
41.9058100785
  0
LWPOLYLINE
  5
63C
100
AcDbEntity
  8
IMPORT_IGES
100
AcDbPolyline
 62
253
  6
CONTINUOUS
 90
19
 70
0
 10
107.0216767315
 20
40.8667167494
 10
106.9875495506
 20
40.96110979
 10
106.9468018617
 20
41.053809441
 10
106.8995671794
 20
41.1441233544
 10
106.8460578329
 20
41.231400971
 10
106.7866095409
 20
41.3149701719
 10
106.7216935716
 20
41.394163795
 10
106.6520613409
 20
41.468211981
 10
106.5780583401
 20
41.5369542064
 10
106.4995229074
 20
41.600616029
 10
106.4174407456
 20
41.6584729162
 10
106.3319826299
 20
41.7105320182
 10
106.2414884984
 20
41.7576193915
 10
106.1453130169
 20
41.7995141985
 10
106.0452219283
 20
41.8349715405
 10
105.9431499096
 20
41.8631934304
 10
105.8402995467
 20
41.8839844865
 10
105.7370810927
 20
41.8974553495
 10
105.6342784501
 20
41.9037066847
  0
LINE
  5
63D
100
AcDbEntity
  8
IMPORT_IGES
100
AcDbLine
 62
253
  6
CONTINUOUS
 10
123.1751066927
 20
-2.1553019758
 11
123.1751066927
 21
40.2618484562
  0
LINE
  5
63E
100
AcDbEntity
  8
IMPORT_IGES
100
AcDbLine
 62
7
  6
CONTINUOUS
 10
123.6663804895
 20
39.7619246087
 11
123.6663804895
 21
-1.6553781282
  0
LWPOLYLINE
  5
63F
100
AcDbEntity
  8
IMPORT_IGES
100
AcDbPolyline
 62
253
  6
CONTINUOUS
 90
25
 70
0
 10
79.1140265929
 20
40.3289193996
 10
78.9908230656
 20
40.3221821452
 10
78.8676896062
 20
40.3080941403
 10
78.7451129588
 20
40.2866006535
 10
78.623289795
 20
40.2576002163
 10
78.5030352373
 20
40.2211407868
 10
78.3857216643
 20
40.177605751
 10
78.2732321291
 20
40.1279158466
 10
78.1644529066
 20
40.0718186885
 10
78.0565240501
 20
40.0075086798
 10
77.9478939952
 20
39.9329588474
 10
77.8420258601
 20
39.8493426058
 10
77.7433766466
 20
39.7598955885
 10
77.6534915983
 20
39.666692791
 10
77.5710860564
 20
39.5690809262
 10
77.4957881878
 20
39.4668658553
 10
77.4278352336
 20
39.3605337197
 10
77.3674453914
 20
39.2506102061
 10
77.3144574484
 20
39.1367820642
 10
77.2688854104
 20
39.0187007726
 10
77.2313915417
 20
38.897631951
 10
77.2025551957
 20
38.7757395161
 10
77.1823096542
 20
38.654171748
 10
77.1703230249
 20
38.5329474226
 10
77.1663804895
 20
38.4125955821
  0
LINE
  5
640
100
AcDbEntity
  8
IMPORT_IGES
100
AcDbLine
 62
7
  6
CONTINUOUS
 10
79.1140265929
 20
41.9062481404
 11
92.1163804895
 21
42.2467267598
  0
LINE
  5
641
100
AcDbEntity
  8
IMPORT_IGES
100
AcDbLine
 62
7
  6
CONTINUOUS
 10
92.116381965
 20
40.6224121295
 11
79.1140251573
 21
40.3289733251
  0
LINE
  5
642
100
AcDbEntity
  8
IMPORT_IGES
100
AcDbLine
 62
7
  6
CONTINUOUS
 10
92.1163804895
 20
41.3379992274
 11
92.6163804895
 21
41.3467267599
  0
LINE
  5
643
100
AcDbEntity
  8
IMPORT_IGES
100
AcDbLine
 62
7
  6
CONTINUOUS
 10
123.1751066927
 20
40.2618484562
 11
107.4863146348
 21
40.5356973402
  0
LINE
  5
644
100
AcDbEntity
  8
IMPORT_IGES
100
AcDbLine
 62
7
  6
CONTINUOUS
 10
102.8659448805
 20
40.3911596036
 11
92.6163794295
 21
40.622425013
  0
LINE
  5
645
100
AcDbEntity
  8
IMPORT_IGES
100
AcDbLine
 62
7
  6
CONTINUOUS
 10
105.6352047311
 20
41.9058168493
 11
92.6163804895
 21
42.2467267598
  0
LWPOLYLINE
  5
646
100
AcDbEntity
  8
IMPORT_IGES
100
AcDbPolyline
 62
7
  6
CONTINUOUS
 90
16
 70
0
 10
107.4863146359
 20
40.5356974103
 10
107.4453096013
 20
40.5380787736
 10
107.4045943501
 20
40.5438258236
 10
107.3646077163
 20
40.5528669122
 10
107.3260556613
 20
40.5649525024
 10
107.2890210294
 20
40.5799232889
 10
107.2530144294
 20
40.5979601619
 10
107.2182732047
 20
40.6190372092
 10
107.1853061849
 20
40.6429067321
 10
107.1541201168
 20
40.6696293711
 10
107.125081929
 20
40.698986385
 10
107.0985160697
 20
40.7307030951
 10
107.0744649102
 20
40.7648152318
 10
107.0531831441
 20
40.8011145743
 10
107.0350209351
 20
40.8390932668
 10
107.0201659423
 20
40.878320231
  0
ARC
  5
647
100
AcDbEntity
  8
RACCORDO
100
AcDbCircle
 62
7
  6
CONTINUOUS
 10
-7.0
 20
-41.7467267598
 40
0.5
100
AcDbArc
 50
180.0
 51
270.0
  0
ARC
  5
648
100
AcDbEntity
  8
IMPORT_IGES
100
AcDbCircle
 62
7
  6
CONTINUOUS
 10
-197.9
 20
1.7325902855
 40
221.1934535196
100
AcDbArc
 50
349.603607543
 51
360.0
  0
ARC
  5
649
100
AcDbEntity
  8
IMPORT_IGES
100
AcDbCircle
 62
7
  6
CONTINUOUS
 10
-0.0010073846
 20
19.0478361756
 40
7.9943901113
100
AcDbArc
 50
254.8138445895
 51
275.9768738021
  0
ARC
  5
64A
100
AcDbEntity
  8
IMPORT_IGES
100
AcDbCircle
 62
7
  6
CONTINUOUS
 10
-0.1072729789
 20
9.7719901226
 40
2.6072729789
100
AcDbArc
 50
337.1639173713
 51
351.3208433818
  0
ARC
  5
64B
100
AcDbEntity
  8
IMPORT_IGES
100
AcDbCircle
 62
7
  6
CONTINUOUS
 10
-0.5
 20
29.1777730401
 40
2.0
100
AcDbArc
 50
152.6747894559
 51
180.0000065247
  0
ARC
  5
64C
100
AcDbEntity
  8
IMPORT_IGES
100
AcDbCircle
 62
7
  6
CONTINUOUS
 10
-0.5
 20
27.9287734404
 40
2.0
100
AcDbArc
 50
179.9999999435
 51
207.3252170924
  0
ARC
  5
64D
100
AcDbEntity
  8
IMPORT_IGES
100
AcDbCircle
 62
7
  6
CONTINUOUS
 10
-0.9872962777
 20
28.5018311228
 40
1.5
100
AcDbArc
 50
171.3125859819
 51
275.9652879818
  0
ARC
  5
64E
100
AcDbEntity
  8
IMPORT_IGES
100
AcDbCircle
 62
7
  6
CONTINUOUS
 10
-1.37399085
 20
28.9584309444
 40
1.0
100
AcDbArc
 50
97.8973703255
 51
157.1612695075
  0
ARC
  5
64F
100
AcDbEntity
  8
IMPORT_IGES
100
AcDbCircle
 62
7
  6
CONTINUOUS
 10
-19.2
 20
19.0115308097
 40
0.5
100
AcDbArc
 50
241.8610749875
 51
246.4218215218
  0
ARC
  5
650
100
AcDbEntity
  8
IMPORT_IGES
100
AcDbCircle
 62
7
  6
CONTINUOUS
 10
-19.2
 20
19.0950156707
 40
0.5
100
AcDbArc
 50
113.5781784782
 51
118.1389250125
  0
ARC
  5
651
100
AcDbEntity
  8
IMPORT_IGES
100
AcDbCircle
 62
7
  6
CONTINUOUS
 10
-23.1
 20
32.1532732402
 40
0.2
100
AcDbArc
 50
145.6251801994
 51
179.9813677983
  0
ARC
  5
652
100
AcDbEntity
  8
IMPORT_IGES
100
AcDbCircle
 62
7
  6
CONTINUOUS
 10
-23.1
 20
5.9532732402
 40
0.2
100
AcDbArc
 50
180.0186178754
 51
214.3748028282
  0
ARC
  5
653
100
AcDbEntity
  8
IMPORT_IGES
100
AcDbCircle
 62
7
  6
CONTINUOUS
 10
0.0
 20
-107.7467267598
 40
149.9934535196
100
AcDbArc
 50
81.5604176384
 51
98.4395859492
  0
ARC
  5
654
100
AcDbEntity
  8
RACCORDO
100
AcDbCircle
 62
7
  6
CONTINUOUS
 10
7.0
 20
-41.7467267598
 40
0.5
100
AcDbArc
 50
270.0
 51
360.0
  0
ARC
  5
655
100
AcDbEntity
  8
IMPORT_IGES
100
AcDbCircle
 62
7
  6
CONTINUOUS
 10
7.0445095635
 20
-14.6308370245
 40
0.6007960628
100
AcDbArc
 50
3.256755948
 51
83.379749626
  0
CIRCLE
  5
656
100
AcDbEntity
  8
IMPORT_IGES
100
AcDbCircle
 62
253
  6
CONTINUOUS
 10
0.0
 20
9.5532732402
 40
3.25
  0
CIRCLE
  5
657
100
AcDbEntity
  8
IMPORT_IGES
100
AcDbCircle
 62
7
  6
CONTINUOUS
 10
0.0
 20
9.5532732402
 40
2.75
  0
ARC
  5
658
100
AcDbEntity
  8
IMPORT_IGES
100
AcDbCircle
 62
7
  6
CONTINUOUS
 10
0.5
 20
8.9287734404
 40
2.0
100
AcDbArc
 50
332.6747895577
 51
360.0
  0
ARC
  5
659
100
AcDbEntity
  8
IMPORT_IGES
100
AcDbCircle
 62
7
  6
CONTINUOUS
 10
0.5
 20
10.1777730401
 40
2.0
100
AcDbArc
 50
0.0
 51
27.3252170924
  0
CIRCLE
  5
65A
100
AcDbEntity
  8
IMPORT_IGES
100
AcDbCircle
 62
253
  6
CONTINUOUS
 10
0.0
 20
19.0532732402
 40
21.208575216
  0
CIRCLE
  5
65B
100
AcDbEntity
  8
IMPORT_IGES
100
AcDbCircle
 62
253
  6
CONTINUOUS
 10
0.0
 20
19.0532732402
 40
20.7086513684
  0
CIRCLE
  5
65C
100
AcDbEntity
  8
IMPORT_IGES
100
AcDbCircle
 62
253
  6
CONTINUOUS
 10
0.0
 20
19.0532732402
 40
19.9505575086
  0
CIRCLE
  5
65D
100
AcDbEntity
  8
IMPORT_IGES
100
AcDbCircle
 62
7
  6
CONTINUOUS
 10
0.0
 20
19.0532732402
 40
19.450576547
  0
ARC
  5
65E
100
AcDbEntity
  8
IMPORT_IGES
100
AcDbCircle
 62
7
  6
CONTINUOUS
 10
0.0
 20
19.0532732402
 40
19.4418116016
100
AcDbArc
 50
173.2058991281
 51
186.7941008719
  0
ARC
  5
65F
100
AcDbEntity
  8
IMPORT_IGES
100
AcDbCircle
 62
7
  6
CONTINUOUS
 10
0.0
 20
19.0532732402
 40
19.4418116016
100
AcDbArc
 50
353.2058991281
 51
6.7941008719
  0
ARC
  5
660
100
AcDbEntity
  8
IMPORT_IGES
100
AcDbCircle
 62
7
  6
CONTINUOUS
 10
0.0
 20
19.0532732402
 40
19.426539583
100
AcDbArc
 50
277.8420681205
 51
281.1281024747
  0
ARC
  5
661
100
AcDbEntity
  8
IMPORT_IGES
100
AcDbCircle
 62
7
  6
CONTINUOUS
 10
0.0
 20
19.0532732402
 40
19.426539583
100
AcDbArc
 50
78.8718975253
 51
82.1579318795
  0
ARC
  5
662
100
AcDbEntity
  8
IMPORT_IGES
100
AcDbCircle
 62
7
  6
CONTINUOUS
 10
0.0
 20
19.0532732402
 40
19.426539583
100
AcDbArc
 50
97.8420681205
 51
101.1281024747
  0
ARC
  5
663
100
AcDbEntity
  8
IMPORT_IGES
100
AcDbCircle
 62
7
  6
CONTINUOUS
 10
0.0
 20
19.0532732402
 40
19.426539583
100
AcDbArc
 50
258.8718975253
 51
262.1579318795
  0
ARC
  5
664
100
AcDbEntity
  8
IMPORT_IGES
100
AcDbCircle
 62
7
  6
CONTINUOUS
 10
0.0
 20
19.0532732402
 40
19.3
100
AcDbArc
 50
186.8442601645
 51
258.6447770295
  0
ARC
  5
665
100
AcDbEntity
  8
IMPORT_IGES
100
AcDbCircle
 62
7
  6
CONTINUOUS
 10
0.0
 20
19.0532732402
 40
19.3
100
AcDbArc
 50
262.2578584539
 51
277.7421415461
  0
ARC
  5
666
100
AcDbEntity
  8
IMPORT_IGES
100
AcDbCircle
 62
7
  6
CONTINUOUS
 10
0.0
 20
19.0532732402
 40
19.3
100
AcDbArc
 50
281.3552229705
 51
353.1557398355
  0
ARC
  5
667
100
AcDbEntity
  8
IMPORT_IGES
100
AcDbCircle
 62
7
  6
CONTINUOUS
 10
0.0
 20
19.0532732402
 40
19.3
100
AcDbArc
 50
6.8442601645
 51
78.6447770295
  0
ARC
  5
668
100
AcDbEntity
  8
IMPORT_IGES
100
AcDbCircle
 62
7
  6
CONTINUOUS
 10
0.0
 20
19.0532732402
 40
19.3
100
AcDbArc
 50
82.2578584539
 51
97.7421415461
  0
ARC
  5
669
100
AcDbEntity
  8
IMPORT_IGES
100
AcDbCircle
 62
7
  6
CONTINUOUS
 10
0.0
 20
19.0532732402
 40
19.3
100
AcDbArc
 50
101.3552229705
 51
173.1557398355
  0
ARC
  5
66A
100
AcDbEntity
  8
IMPORT_IGES
100
AcDbCircle
 62
7
  6
CONTINUOUS
 10
0.0001584323
 20
19.0605062185
 40
11.0070233492
100
AcDbArc
 50
257.0600977751
 51
277.8908628987
  0
ARC
  5
66B
100
AcDbEntity
  8
IMPORT_IGES
100
AcDbCircle
 62
7
  6
CONTINUOUS
 10
0.0
 20
19.0532732402
 40
11.0
100
AcDbArc
 50
77.0526535796
 51
97.8973703256
  0
ARC
  5
66C
100
AcDbEntity
  8
IMPORT_IGES
100
AcDbCircle
 62
7
  6
CONTINUOUS
 10
0.0
 20
19.0532732402
 40
8.0
100
AcDbArc
 50
74.8159041452
 51
95.9652879818
  0
CIRCLE
  5
66D
100
AcDbEntity
  8
IMPORT_IGES
100
AcDbCircle
 62
253
  6
CONTINUOUS
 10
0.0
 20
19.0532732402
 40
2.7
  0
CIRCLE
  5
66E
100
AcDbEntity
  8
IMPORT_IGES
100
AcDbCircle
 62
7
  6
CONTINUOUS
 10
0.0
 20
19.0532732402
 40
2.2
  0
CIRCLE
  5
66F
100
AcDbEntity
  8
IMPORT_IGES
100
AcDbCircle
 62
7
  6
CONTINUOUS
 10
0.0
 20
19.0532732402
 40
1.2
  0
CIRCLE
  5
670
100
AcDbEntity
  8
IMPORT_IGES
100
AcDbCircle
 62
7
  6
CONTINUOUS
 10
0.0
 20
19.0532732402
 40
0.75
  0
ARC
  5
671
100
AcDbEntity
  8
IMPORT_IGES
100
AcDbCircle
 62
7
  6
CONTINUOUS
 10
0.9873204487
 20
9.6049012899
 40
1.5
100
AcDbArc
 50
351.3208433818
 51
95.9650598058
  0
ARC
  5
672
100
AcDbEntity
  8
IMPORT_IGES
100
AcDbCircle
 62
7
  6
CONTINUOUS
 10
1.3740202189
 20
9.1482138078
 40
1.0
100
AcDbArc
 50
277.8859146545
 51
337.1639173714
  0
ARC
  5
673
100
AcDbEntity
  8
IMPORT_IGES
100
AcDbCircle
 62
7
  6
CONTINUOUS
 10
19.2
 20
19.0950156707
 40
0.5
100
AcDbArc
 50
61.8610749875
 51
66.4218215218
  0
ARC
  5
674
100
AcDbEntity
  8
IMPORT_IGES
100
AcDbCircle
 62
7
  6
CONTINUOUS
 10
19.2
 20
19.0115308097
 40
0.5
100
AcDbArc
 50
293.5781784782
 51
298.1389250125
  0
ARC
  5
675
100
AcDbEntity
  8
IMPORT_IGES
100
AcDbCircle
 62
7
  6
CONTINUOUS
 10
23.1
 20
5.9532732402
 40
0.2
100
AcDbArc
 50
325.6251801341
 51
359.9813821246
  0
ARC
  5
676
100
AcDbEntity
  8
IMPORT_IGES
100
AcDbCircle
 62
7
  6
CONTINUOUS
 10
-0.0
 20
69.5530697512
 40
110.4934535196
100
AcDbArc
 50
278.5577348577
 51
279.6055486275
  0
ARC
  5
677
100
AcDbEntity
  8
IMPORT_IGES
100
AcDbCircle
 62
7
  6
CONTINUOUS
 10
-0.0
 20
69.5530697512
 40
110.4934535196
100
AcDbArc
 50
260.39445136
 51
261.4422651423
  0
CIRCLE
  5
678
100
AcDbEntity
  8
IMPORT_IGES
100
AcDbCircle
 62
253
  6
CONTINUOUS
 10
0.0
 20
28.5532732402
 40
3.25
  0
CIRCLE
  5
679
100
AcDbEntity
  8
IMPORT_IGES
100
AcDbCircle
 62
7
  6
CONTINUOUS
 10
0.0
 20
28.5532732402
 40
2.75
  0
ARC
  5
67A
100
AcDbEntity
  8
IMPORT_IGES
100
AcDbCircle
 62
7
  6
CONTINUOUS
 10
0.1072798687
 20
28.3345834996
 40
2.6072798687
100
AcDbArc
 50
157.1612695079
 51
171.3125859818
  0
ARC
  5
67B
100
AcDbEntity
  8
IMPORT_IGES
100
AcDbCircle
 62
7
  6
CONTINUOUS
 10
23.1
 20
32.1532732402
 40
0.2
100
AcDbArc
 50
0.0186322017
 51
34.3748027667
  0
ARC
  5
67C
100
AcDbEntity
  8
IMPORT_IGES
100
AcDbCircle
 62
7
  6
CONTINUOUS
 10
197.9
 20
1.7325902855
 40
221.1934535196
100
AcDbArc
 50
179.9999999999
 51
190.3963924524
  0
ARC
  5
67D
100
AcDbEntity
  8
IMPORT_IGES
100
AcDbCircle
 62
7
  6
CONTINUOUS
 10
79.1918285677
 20
-40.0365409236
 40
0.5000000738
100
AcDbArc
 50
251.5302417868
 51
1.0
  0
ARC
  5
67E
100
AcDbEntity
  8
IMPORT_IGES
100
AcDbCircle
 62
7
  6
CONTINUOUS
 10
79.1663804895
 20
39.9069334905
 40
2.0
100
AcDbArc
 50
91.5
 51
180.0
  0
ARC
  5
67F
100
AcDbEntity
  8
IMPORT_IGES
100
AcDbCircle
 62
7
  6
CONTINUOUS
 10
41.9163804895
 20
9.5232732402
 40
1.95
100
AcDbArc
 50
180.0000124474
 51
270.0
  0
ARC
  5
680
100
AcDbEntity
  8
IMPORT_IGES
100
AcDbCircle
 62
7
  6
CONTINUOUS
 10
41.9163804895
 20
9.5832732402
 40
1.95
100
AcDbArc
 50
90.0
 51
179.9999875526
  0
ARC
  5
681
100
AcDbEntity
  8
IMPORT_IGES
100
AcDbCircle
 62
7
  6
CONTINUOUS
 10
41.9163804895
 20
28.5232732402
 40
1.95
100
AcDbArc
 50
180.0000124474
 51
270.0
  0
ARC
  5
682
100
AcDbEntity
  8
IMPORT_IGES
100
AcDbCircle
 62
7
  6
CONTINUOUS
 10
41.9163804895
 20
28.5832732402
 40
1.95
100
AcDbArc
 50
90.0
 51
179.9999875526
  0
ARC
  5
683
100
AcDbEntity
  8
IMPORT_IGES
100
AcDbCircle
 62
7
  6
CONTINUOUS
 10
41.4050159949
 20
19.0232732402
 40
1.95
100
AcDbArc
 50
180.0000124474
 51
270.0
  0
ARC
  5
684
100
AcDbEntity
  8
IMPORT_IGES
100
AcDbCircle
 62
7
  6
CONTINUOUS
 10
41.4050159949
 20
19.0832732402
 40
1.95
100
AcDbArc
 50
90.0
 51
179.9999875526
  0
ARC
  5
685
100
AcDbEntity
  8
IMPORT_IGES
100
AcDbCircle
 62
7
  6
CONTINUOUS
 10
59.9663804895
 20
34.3531330358
 40
1.0
100
AcDbArc
 50
90.5000000001
 51
180.0
  0
ARC
  5
686
100
AcDbEntity
  8
IMPORT_IGES
100
AcDbCircle
 62
7
  6
CONTINUOUS
 10
59.9663804895
 20
3.7534134446
 40
1.0
100
AcDbArc
 50
180.0
 51
269.4999999999
  0
ARC
  5
687
100
AcDbEntity
  8
IMPORT_IGES
100
AcDbCircle
 62
7
  6
CONTINUOUS
 10
76.6663804895
 20
2.1076176349
 40
0.5
100
AcDbArc
 50
0.0
 51
89.4999999999
  0
ARC
  5
688
100
AcDbEntity
  8
IMPORT_IGES
100
AcDbCircle
 62
7
  6
CONTINUOUS
 10
76.6663804895
 20
35.9989288455
 40
0.5
100
AcDbArc
 50
270.5000000001
 51
360.0
  0
ARC
  5
689
100
AcDbEntity
  8
IMPORT_IGES
100
AcDbCircle
 62
7
  6
CONTINUOUS
 10
55.5971474578
 20
30.2332732402
 40
0.3
100
AcDbArc
 50
90.0
 51
115.8419327631
  0
ARC
  5
68A
100
AcDbEntity
  8
IMPORT_IGES
100
AcDbCircle
 62
7
  6
CONTINUOUS
 10
55.5971474578
 20
26.8732732402
 40
0.3
100
AcDbArc
 50
244.1580672369
 51
270.0
  0
ARC
  5
68B
100
AcDbEntity
  8
IMPORT_IGES
100
AcDbCircle
 62
7
  6
CONTINUOUS
 10
55.5971474578
 20
11.2332732402
 40
0.3
100
AcDbArc
 50
90.0
 51
115.8419327631
  0
ARC
  5
68C
100
AcDbEntity
  8
IMPORT_IGES
100
AcDbCircle
 62
7
  6
CONTINUOUS
 10
55.5971474578
 20
7.8732732402
 40
0.3
100
AcDbArc
 50
244.1580672369
 51
270.0
  0
ARC
  5
68D
100
AcDbEntity
  8
RACCORDO
100
AcDbCircle
 62
7
  6
CONTINUOUS
 10
95.5163804895
 20
-41.7467267598
 40
0.5
100
AcDbArc
 50
270.0
 51
360.0
  0
ARC
  5
68E
100
AcDbEntity
  8
RACCORDO
100
AcDbCircle
 62
7
  6
CONTINUOUS
 10
86.6163804895
 20
-41.7467267598
 40
0.5
100
AcDbArc
 50
180.0
 51
270.0
  0
ARC
  5
68F
100
AcDbEntity
  8
IMPORT_IGES
100
AcDbCircle
 62
7
  6
CONTINUOUS
 10
123.1663804895
 20
-1.6553781282
 40
0.5
100
AcDbArc
 50
271.0000000002
 51
360.0
  0
ARC
  5
690
100
AcDbEntity
  8
IMPORT_IGES
100
AcDbCircle
 62
7
  6
CONTINUOUS
 10
89.9245128641
 20
21.7635051464
 40
1.8
100
AcDbArc
 50
285.1893604024
 51
304.526438447
  0
ARC
  5
691
100
AcDbEntity
  8
IMPORT_IGES
100
AcDbCircle
 62
7
  6
CONTINUOUS
 10
89.9245128641
 20
16.3430413341
 40
1.8
100
AcDbArc
 50
55.4735615528
 51
74.8724739091
  0
ARC
  5
692
100
AcDbEntity
  8
IMPORT_IGES
100
AcDbCircle
 62
7
  6
CONTINUOUS
 10
92.3663804895
 20
9.5532732402
 40
3.95
100
AcDbArc
 50
180.0
 51
266.3712594367
  0
ARC
  5
693
100
AcDbEntity
  8
IMPORT_IGES
100
AcDbCircle
 62
7
  6
CONTINUOUS
 10
92.3663804895
 20
9.5532732402
 40
3.95
100
AcDbArc
 50
273.6287405633
 51
360.0
  0
ARC
  5
694
100
AcDbEntity
  8
IMPORT_IGES
100
AcDbCircle
 62
7
  6
CONTINUOUS
 10
92.3663804895
 20
9.6532732402
 40
3.9
100
AcDbArc
 50
180.0
 51
360.0
  0
ARC
  5
695
100
AcDbEntity
  8
IMPORT_IGES
100
AcDbCircle
 62
253
  6
CONTINUOUS
 10
92.3663804895
 20
9.6532732402
 40
3.7000649886
100
AcDbArc
 50
180.0244930018
 51
359.9910519584
  0
CIRCLE
  5
696
100
AcDbEntity
  8
IMPORT_IGES
100
AcDbCircle
 62
253
  6
CONTINUOUS
 10
92.3663804895
 20
9.5532732402
 40
2.4999845241
  0
CIRCLE
  5
697
100
AcDbEntity
  8
IMPORT_IGES
100
AcDbCircle
 62
7
  6
CONTINUOUS
 10
92.3663804895
 20
9.5532732402
 40
2.2
  0
ARC
  5
698
100
AcDbEntity
  8
IMPORT_IGES
100
AcDbCircle
 62
7
  6
CONTINUOUS
 10
92.8913804895
 20
8.9790091715
 40
1.575
100
AcDbArc
 50
356.8732750969
 51
0.0000000693
  0
ARC
  5
699
100
AcDbEntity
  8
IMPORT_IGES
100
AcDbCircle
 62
7
  6
CONTINUOUS
 10
92.9663804895
 20
10.1138283678
 40
1.5
100
AcDbArc
 50
359.9999996849
 51
4.0564239345
  0
ARC
  5
69A
100
AcDbEntity
  8
IMPORT_IGES
100
AcDbCircle
 62
253
  6
CONTINUOUS
 10
92.3050159949
 20
18.3032732402
 40
2.5448574779
100
AcDbArc
 50
55.4764435421
 51
124.5264384471
  0
ARC
  5
69B
100
AcDbEntity
  8
IMPORT_IGES
100
AcDbCircle
 62
253
  6
CONTINUOUS
 10
92.3050159949
 20
19.8032732402
 40
2.5448574779
100
AcDbArc
 50
235.4735615529
 51
304.523556458
  0
CIRCLE
  5
69C
100
AcDbEntity
  8
IMPORT_IGES
100
AcDbCircle
 62
253
  6
CONTINUOUS
 10
92.3663804895
 20
19.0532732402
 40
2.4999924259
  0
ARC
  5
69D
100
AcDbEntity
  8
IMPORT_IGES
100
AcDbCircle
 62
7
  6
CONTINUOUS
 10
92.3050159949
 20
19.8032732402
 40
2.4
100
AcDbArc
 50
304.52355646
 51
305.2175867093
  0
ARC
  5
69E
100
AcDbEntity
  8
IMPORT_IGES
100
AcDbCircle
 62
7
  6
CONTINUOUS
 10
92.3050159949
 20
18.3032732402
 40
2.4
100
AcDbArc
 50
54.7824132896
 51
55.476443542
  0
ARC
  5
69F
100
AcDbEntity
  8
IMPORT_IGES
100
AcDbCircle
 62
7
  6
CONTINUOUS
 10
92.3050159949
 20
19.8032732402
 40
2.3984108685
100
AcDbArc
 50
235.4735615529
 51
304.5235564578
  0
ARC
  5
6A0
100
AcDbEntity
  8
IMPORT_IGES
100
AcDbCircle
 62
7
  6
CONTINUOUS
 10
92.3050159949
 20
18.3032732402
 40
2.3984108685
100
AcDbArc
 50
55.476443542
 51
124.5264384471
  0
CIRCLE
  5
6A1
100
AcDbEntity
  8
IMPORT_IGES
100
AcDbCircle
 62
7
  6
CONTINUOUS
 10
92.3663804895
 20
19.0532732402
 40
2.2
  0
ARC
  5
6A2
100
AcDbEntity
  8
IMPORT_IGES
100
AcDbCircle
 62
7
  6
CONTINUOUS
 10
92.1550159949
 20
19.0532732402
 40
1.75
100
AcDbArc
 50
137.9571899675
 51
222.0428100335
  0
ARC
  5
6A3
100
AcDbEntity
  8
IMPORT_IGES
100
AcDbCircle
 62
7
  6
CONTINUOUS
 10
92.1550159949
 20
19.0532732402
 40
1.75
100
AcDbArc
 50
296.8263886269
 51
63.1736113727
  0
ARC
  5
6A4
100
AcDbEntity
  8
IMPORT_IGES
100
AcDbCircle
 62
7
  6
CONTINUOUS
 10
94.0050159949
 20
16.8532732402
 40
1.1
100
AcDbArc
 50
76.9892131187
 51
86.5545247728
  0
ARC
  5
6A5
100
AcDbEntity
  8
IMPORT_IGES
100
AcDbCircle
 62
7
  6
CONTINUOUS
 10
94.0050159949
 20
21.2532732402
 40
1.1
100
AcDbArc
 50
273.4454752259
 51
283.0863813832
  0
ARC
  5
6A6
100
AcDbEntity
  8
IMPORT_IGES
100
AcDbCircle
 62
7
  6
CONTINUOUS
 10
94.03506532
 20
17.3523694615
 40
0.6
100
AcDbArc
 50
86.5545247718
 51
125.2175867135
  0
ARC
  5
6A7
100
AcDbEntity
  8
IMPORT_IGES
100
AcDbCircle
 62
7
  6
CONTINUOUS
 10
94.03506532
 20
20.754177019
 40
0.6
100
AcDbArc
 50
234.7824132904
 51
273.4454752258
  0
ARC
  5
6A8
100
AcDbEntity
  8
IMPORT_IGES
100
AcDbCircle
 62
7
  6
CONTINUOUS
 10
92.3663804895
 20
28.5532732402
 40
3.95
100
AcDbArc
 50
93.6287405633
 51
180.0
  0
ARC
  5
6A9
100
AcDbEntity
  8
IMPORT_IGES
100
AcDbCircle
 62
7
  6
CONTINUOUS
 10
92.3663804895
 20
28.5532732402
 40
3.95
100
AcDbArc
 50
0.0
 51
86.3712594367
  0
ARC
  5
6AA
100
AcDbEntity
  8
IMPORT_IGES
100
AcDbCircle
 62
7
  6
CONTINUOUS
 10
92.3663804895
 20
28.4532732402
 40
3.9
100
AcDbArc
 50
0.0
 51
180.0
  0
ARC
  5
6AB
100
AcDbEntity
  8
IMPORT_IGES
100
AcDbCircle
 62
253
  6
CONTINUOUS
 10
92.3663804895
 20
28.4532732402
 40
3.7000650387
100
AcDbArc
 50
0.0245926317
 51
179.9910260646
  0
CIRCLE
  5
6AC
100
AcDbEntity
  8
IMPORT_IGES
100
AcDbCircle
 62
253
  6
CONTINUOUS
 10
92.3663804895
 20
28.5532732402
 40
2.4999845241
  0
CIRCLE
  5
6AD
100
AcDbEntity
  8
IMPORT_IGES
100
AcDbCircle
 62
7
  6
CONTINUOUS
 10
92.3663804895
 20
28.5532732402
 40
2.2
  0
ARC
  5
6AE
100
AcDbEntity
  8
IMPORT_IGES
100
AcDbCircle
 62
7
  6
CONTINUOUS
 10
91.8413804895
 20
29.1275373089
 40
1.575
100
AcDbArc
 50
176.8739020291
 51
180.0
  0
ARC
  5
6AF
100
AcDbEntity
  8
IMPORT_IGES
100
AcDbCircle
 62
7
  6
CONTINUOUS
 10
91.7663804895
 20
27.9927181127
 40
1.5
100
AcDbArc
 50
180.0
 51
183.8983748682
  0
ARC
  5
6B0
100
AcDbEntity
  8
IMPORT_IGES
100
AcDbCircle
 62
7
  6
CONTINUOUS
 10
123.1663804895
 20
39.7619246087
 40
0.5
100
AcDbArc
 50
0.0
 51
88.9999999998
  0
ELLIPSE
  5
6B1
100
AcDbEntity
  8
IMPORT_IGES
100
AcDbEllipse
 62
7
  6
CONTINUOUS
 10
-15.4
 20
20.6532732402
 30
0.0
 11
3.2
 21
0.0
 31
0.0
 40
1.0
 41
2.920958832
 42
3.0162648224
  0
ELLIPSE
  5
6B2
100
AcDbEntity
  8
IMPORT_IGES
100
AcDbEllipse
 62
7
  6
CONTINUOUS
 10
15.4
 20
17.4532732402
 30
0.0
 11
3.2
 21
0.0
 31
0.0
 40
1.0
 41
-0.2206338216
 42
-0.1253278312
  0
ELLIPSE
  5
6B3
100
AcDbEntity
  8
IMPORT_IGES
100
AcDbEllipse
 62
7
  6
CONTINUOUS
 10
-15.4
 20
17.4532732402
 30
0.0
 11
-0.0
 21
3.2
 31
0.0
 40
1.0
 41
-4.5870611492
 42
-4.4917673306
  0
ELLIPSE
  5
6B4
100
AcDbEntity
  8
IMPORT_IGES
100
AcDbEllipse
 62
7
  6
CONTINUOUS
 10
15.4
 20
20.6532732402
 30
0.0
 11
-0.0
 21
3.2
 31
0.0
 40
1.0
 41
-1.4454684956
 42
-1.350174677
  0
ELLIPSE
  5
6B5
100
AcDbEntity
  8
IMPORT_IGES
100
AcDbEllipse
 62
7
  6
CONTINUOUS
 10
2.6471240812
 20
1.4061430666
 30
0.0
 11
-0.0
 21
1.0
 31
0.0
 40
0.0034906727
 41
-1.5707963268
 42
-0.0034906585
  0
ELLIPSE
  5
6B6
100
AcDbEntity
  8
IMPORT_IGES
100
AcDbEllipse
 62
7
  6
CONTINUOUS
 10
3.7528759188
 20
1.4061430666
 30
0.0
 11
-0.0
 21
1.0
 31
0.0
 40
0.0034906727
 41
0.0034906585
 42
1.5707963268
  0
ELLIPSE
  5
6B7
100
AcDbEntity
  8
IMPORT_IGES
100
AcDbEllipse
 62
7
  6
CONTINUOUS
 10
3.7528759188
 20
36.7004034138
 30
0.0
 11
-0.0
 21
1.0
 31
0.0
 40
0.0034906727
 41
-4.7123889804
 42
-3.1450833121
  0
ELLIPSE
  5
6B8
100
AcDbEntity
  8
IMPORT_IGES
100
AcDbEllipse
 62
7
  6
CONTINUOUS
 10
2.6471240812
 20
36.7004034138
 30
0.0
 11
0.0
 21
1.0
 31
0.0
 40
0.0034906727
 41
-3.1381019951
 42
-1.5707963268
  0
ELLIPSE
  5
6B9
100
AcDbEntity
  8
IMPORT_IGES
100
AcDbEllipse
 62
7
  6
CONTINUOUS
 10
-2.6471240812
 20
36.7004034138
 30
0.0
 11
-0.0
 21
1.0
 31
0.0
 40
0.0034906727
 41
-4.7123889804
 42
-3.1450833121
  0
ELLIPSE
  5
6BA
100
AcDbEntity
  8
IMPORT_IGES
100
AcDbEllipse
 62
7
  6
CONTINUOUS
 10
-3.7528759188
 20
36.7004034138
 30
0.0
 11
0.0
 21
1.0
 31
0.0
 40
0.0034906727
 41
-3.1381019951
 42
-1.5707963268
  0
ELLIPSE
  5
6BB
100
AcDbEntity
  8
IMPORT_IGES
100
AcDbEllipse
 62
7
  6
CONTINUOUS
 10
-3.7528759188
 20
1.4061430666
 30
0.0
 11
-0.0
 21
1.0
 31
0.0
 40
0.0034906727
 41
-1.5707963268
 42
-0.0034906585
  0
ELLIPSE
  5
6BC
100
AcDbEntity
  8
IMPORT_IGES
100
AcDbEllipse
 62
7
  6
CONTINUOUS
 10
-2.6471240812
 20
1.4061430666
 30
0.0
 11
-0.0
 21
1.0
 31
0.0
 40
0.0034906727
 41
0.0034906585
 42
1.5707963268
  0
ENDSEC
  0
SECTION
  2
OBJECTS
  0
DICTIONARY
  5
C
100
AcDbDictionary
280
0
281
1
  3
ACAD_GROUP
350
D
  3
ACAD_MLINESTYLE
350
17
  3
ACAD_LAYOUT
350
1A
  3
ACAD_PLOTSETTINGS
350
19
  3
ACAD_PLOTSTYLENAME
350
E
  0
DICTIONARY
  5
D
102
{ACAD_REACTORS
330
C
102
}
100
AcDbDictionary
280
0
281
1
  0
ACDBDICTIONARYWDFLT
  5
E
102
{ACAD_REACTORS
330
C
102
}
100
AcDbDictionary
281
1
  3
Normal
350
F
100
AcDbDictionaryWithDefault
340
F
  0
DICTIONARY
  5
17
102
{ACAD_REACTORS
330
C
102
}
100
AcDbDictionary
280
0
281
1
  3
Standard
350
18
  0
DICTIONARY
  5
19
102
{ACAD_REACTORS
330
C
102
}
100
AcDbDictionary
281
1
  0
DICTIONARY
  5
1A
102
{ACAD_REACTORS
330
C
102
}
100
AcDbDictionary
281
1
  3
Model
350
6BD
  3
Layout1
350
6BE
  0
ACDBPLACEHOLDER
  5
F
102
{ACAD_REACTORS
330
E
102
}
  0
MLINESTYLE
  5
18
102
{ACAD_REACTORS
330
17
102
}
100
AcDbMlineStyle
  2
STANDARD
 70
0
  3

 62
256
 51
90.0
 52
90.0
 71
2
 49
0.5
 62
256
  6
BYLAYER
 49
-0.5
 62
256
  6
BYLAYER
  0
LAYOUT
  5
6BD
102
{ACAD_REACTORS
330
1A
102
}
100
AcDbPlotSettings
  1

  2
none_device
  4
ISO_A4_(297.00_x_210.00_MM)
  6

 40
0.0
 41
0.0
 42
0.0
 43
0.0
 44
297.0
 45
210.0
 46
0.0
 47
0.0
 48
0.0
 49
0.0
140
0.0
141
0.0
142
1.0
143
1.0
 70
1024
 72
1
 73
0
 74
0
  7

 75
0
147
1.0
148
0.0
149
0.0
100
AcDbLayout
  1
Model
 70
0
 71
0
 10
0.0
 20
0.0
 11
297.0
 21
210.0
 12
0.0
 22
0.0
 32
0.0
 14
0.0
 24
0.0
 34
0.0
 15
0.0
 25
0.0
 35
0.0
146
0.0
 13
0.0
 23
0.0
 33
0.0
 16
1.0
 26
0.0
 36
0.0
 17
0.0
 27
1.0
 37
0.0
 76
0
330
212
345
0
346
0
  0
LAYOUT
  5
6BE
102
{ACAD_REACTORS
330
1A
102
}
100
AcDbPlotSettings
  1

  2
none_device
  4
ISO_A4_(297.00_x_210.00_MM)
  6

 40
0.0
 41
0.0
 42
0.0
 43
0.0
 44
297.0
 45
210.0
 46
0.0
 47
0.0
 48
0.0
 49
0.0
140
0.0
141
0.0
142
1.0
143
1.0
 70
0
 72
1
 73
0
 74
0
  7

 75
0
147
1.0
148
0.0
149
0.0
100
AcDbLayout
  1
Layout1
 70
0
 71
1
 10
0.0
 20
0.0
 11
297.0
 21
210.0
 12
0.0
 22
0.0
 32
0.0
 14
0.0
 24
0.0
 34
0.0
 15
0.0
 25
0.0
 35
0.0
146
0.0
 13
0.0
 23
0.0
 33
0.0
 16
1.0
 26
0.0
 36
0.0
 17
0.0
 27
1.0
 37
0.0
 76
0
330
213
345
0
346
0
  0
ENDSEC
  0
EOF
