  0
SECTION
  2
HEADER
  9
$ACADVER
  1
AC1015
  9
$DWGCODEPAGE
  3
ANSI_1252
  9
$EXTMAX
 10
297.0
 20
210.0
 30
0.0
  9
$EXTMIN
 10
0.0
 20
0.0
 30
0.0
  9
$LIMMIN
 10
0.0
 20
0.0
  9
$LIMMAX
 10
297.0
 20
210.0
  9
$VIEWCTR
 10
148.5
 20
105.0
  9
$VIEWSIZE
 40
210.0
  9
$CLAYER
  8
0
  9
$LTSCALE
 40
16.335
  9
$CELTYPE
  6
BYLAYER
  9
$DIMSCALE
 40
1.0
  9
$DIMASZ
 40
3.0
  9
$DIMEXO
 40
0.5
  9
$DIMDLI
 40
11.286
  9
$DIMEXE
 40
1.5
  9
$DIMCEN
 40
2.673
  9
$DIMLFAC
 40
1.0
  9
$DIMBLK
  1
_FILLED
  9
$DIMTXT
 40
3.0
  9
$DIMTOL
 70
1
  9
$DIMLIM
 70
0
  9
$DIMTFAC
 40
1.0
  9
$DIMTP
 40
0.01
  9
$DIMTM
 40
0.01
  9
$DIMGAP
 40
0.625
  9
$DIMDSEP
 70
44
  9
$PDMODE
 70
3
  9
$PDSIZE
 40
3.0
  9
$HANDSEED
  5
56A
  9
$TILEMODE
 70
1
  9
$MEASUREMENT
 70
1
  9
$INSUNITS
 70
4
  0
ENDSEC
  0
SECTION
  2
CLASSES
  0
CLASS
  1
ACDBDICTIONARYWDFLT
  2
AcDbDictionaryWithDefault
  3
AutoCAD 2000
 90
0
280
0
281
0
  0
CLASS
  1
ACDBPLACEHOLDER
  2
AcDbPlaceHolder
  3
AutoCAD 2000
 90
0
280
0
281
0
  0
CLASS
  1
LAYOUT
  2
AcDbLayout
  3
AutoCAD 2000
 90
0
280
0
281
0
  0
ENDSEC
  0
SECTION
  2
TABLES
  0
TABLE
  2
VPORT
  5
8
100
AcDbSymbolTable
 70
2
  0
VPORT
  5
1F4
100
AcDbSymbolTableRecord
100
AcDbViewportTableRecord
  2
*ACTIVE
 70
0
 10
0.0
 20
0.0
 11
1.0
 21
1.0
 12
148.5
 22
105.0
 13
0.0
 23
0.0
 14
1.0
 24
1.0
 15
0.0
 25
0.0
 16
0.0
 26
0.0
 36
1.0
 17
0.0
 27
0.0
 37
0.0
 40
210.0
 41
1.4142857143
 42
50.0
 43
0.0
 44
0.0
 50
0.0
 51
0.0
 71
0
 72
100
 73
1
 74
1
 75
0
 76
0
 77
0
 78
0
  0
ENDTAB
  0
TABLE
  2
LTYPE
  5
5
100
AcDbSymbolTable
 70
6
  0
LTYPE
  5
14
100
AcDbSymbolTableRecord
100
AcDbLinetypeTableRecord
  2
BYBLOCK
 70
0
  3

 72
65
 73
0
 40
0.0
  0
LTYPE
  5
15
100
AcDbSymbolTableRecord
100
AcDbLinetypeTableRecord
  2
BYLAYER
 70
0
  3

 72
65
 73
0
 40
0.0
  0
LTYPE
  5
16
100
AcDbSymbolTableRecord
100
AcDbLinetypeTableRecord
  2
CONTINUOUS
 70
64
  3
Solid line
 72
65
 73
0
 40
0.0
  0
LTYPE
  5
1F5
100
AcDbSymbolTableRecord
100
AcDbLinetypeTableRecord
  2
CENTER
 70
64
  3
____ _ ____ _ ____ _ ____ _ ____ _ ____ _ ____
 72
65
 73
4
 40
0.6
 49
0.375
 74
0
 49
-0.075
 74
0
 49
0.075
 74
0
 49
-0.075
 74
0
  0
LTYPE
  5
1F6
100
AcDbSymbolTableRecord
100
AcDbLinetypeTableRecord
  2
HIDDEN
 70
64
  3
- - - - - - - - - - - - - - - - - - - -
 72
65
 73
2
 40
0.2
 49
0.1
 74
0
 49
-0.1
 74
0
  0
LTYPE
  5
1F7
100
AcDbSymbolTableRecord
100
AcDbLinetypeTableRecord
  2
PHANTOM
 70
64
  3
_____ _ _ _____ _ _ _____ _ _ _____
 72
65
 73
6
 40
0.8
 49
0.45
 74
0
 49
-0.05
 74
0
 49
0.1
 74
0
 49
-0.05
 74
0
 49
0.1
 74
0
 49
-0.05
 74
0
  0
LTYPE
  5
1F8
100
AcDbSymbolTableRecord
100
AcDbLinetypeTableRecord
  2
DOT
 70
64
  3
. . . . . . . . . . . . . . . . . . . .
 72
65
 73
2
 40
0.2
 49
0.1
 74
0
 49
-0.1
 74
0
  0
LTYPE
  5
1F9
100
AcDbSymbolTableRecord
100
AcDbLinetypeTableRecord
  2
DASHED
 70
64
  3
- - - - - - - - - - - - - - - - - - - -
 72
65
 73
2
 40
0.2
 49
0.1
 74
0
 49
-0.1
 74
0
  0
ENDTAB
  0
TABLE
  2
LAYER
  5
2
100
AcDbSymbolTable
 70
36
  0
LAYER
  5
10
100
AcDbSymbolTableRecord
100
AcDbLayerTableRecord
  2
0
 70
0
 62
7
  6
CONTINUOUS
370
-3
390
F
  0
LAYER
  5
1FA
100
AcDbSymbolTableRecord
100
AcDbLayerTableRecord
  2
DEFAULT_1
 70
0
 62
7
  6
CENTER
370
-3
390
F
  0
LAYER
  5
1FB
100
AcDbSymbolTableRecord
100
AcDbLayerTableRecord
  2
DEFAULT_2
 70
0
 62
7
  6
HIDDEN
370
-3
390
F
  0
LAYER
  5
1FC
100
AcDbSymbolTableRecord
100
AcDbLayerTableRecord
  2
DEFAULT_3
 70
0
 62
7
  6
PHANTOM
370
-3
390
F
  0
LAYER
  5
1FD
100
AcDbSymbolTableRecord
100
AcDbLayerTableRecord
  2
21814000
 70
0
 62
7
  6
CONTINUOUS
370
-3
390
F
  0
LAYER
  5
1FE
100
AcDbSymbolTableRecord
100
AcDbLayerTableRecord
  2
260140000
 70
0
 62
7
  6
CONTINUOUS
370
-3
390
F
  0
LAYER
  5
1FF
100
AcDbSymbolTableRecord
100
AcDbLayerTableRecord
  2
26814000
 70
0
 62
7
  6
CONTINUOUS
370
-3
390
F
  0
LAYER
  5
200
100
AcDbSymbolTableRecord
100
AcDbLayerTableRecord
  2
28414000
 70
0
 62
7
  6
CONTINUOUS
370
-3
390
F
  0
LAYER
  5
201
100
AcDbSymbolTableRecord
100
AcDbLayerTableRecord
  2
290140000
 70
0
 62
7
  6
CONTINUOUS
370
-3
390
F
  0
LAYER
  5
202
100
AcDbSymbolTableRecord
100
AcDbLayerTableRecord
  2
340000230
 70
0
 62
7
  6
CONTINUOUS
370
-3
390
F
  0
LAYER
  5
203
100
AcDbSymbolTableRecord
100
AcDbLayerTableRecord
  2
712140000
 70
0
 62
7
  6
CONTINUOUS
370
-3
390
F
  0
LAYER
  5
204
100
AcDbSymbolTableRecord
100
AcDbLayerTableRecord
  2
715140000
 70
0
 62
7
  6
CONTINUOUS
370
-3
390
F
  0
LAYER
  5
205
100
AcDbSymbolTableRecord
100
AcDbLayerTableRecord
  2
ASSI
 70
0
 62
7
  6
CONTINUOUS
370
-3
390
F
  0
LAYER
  5
206
100
AcDbSymbolTableRecord
100
AcDbLayerTableRecord
  2
COLORE_TOP
 70
0
 62
7
  6
CONTINUOUS
370
-3
390
F
  0
LAYER
  5
207
100
AcDbSymbolTableRecord
100
AcDbLayerTableRecord
  2
COORDINATE
 70
0
 62
7
  6
CONTINUOUS
370
-3
390
F
  0
LAYER
  5
208
100
AcDbSymbolTableRecord
100
AcDbLayerTableRecord
  2
COORD_ORIGINE
 70
0
 62
7
  6
CONTINUOUS
370
-3
390
F
  0
LAYER
  5
209
100
AcDbSymbolTableRecord
100
AcDbLayerTableRecord
  2
COPY_PUBLISH
 70
0
 62
7
  6
CONTINUOUS
370
-3
390
F
  0
LAYER
  5
20A
100
AcDbSymbolTableRecord
100
AcDbLayerTableRecord
  2
COSMETICHE
 70
0
 62
7
  6
CONTINUOUS
370
-3
390
F
  0
LAYER
  5
20B
100
AcDbSymbolTableRecord
100
AcDbLayerTableRecord
  2
COSMETICI
 70
0
 62
7
  6
CONTINUOUS
370
-3
390
F
  0
LAYER
  5
20C
100
AcDbSymbolTableRecord
100
AcDbLayerTableRecord
  2
CURVE
 70
0
 62
7
  6
CONTINUOUS
370
-3
390
F
  0
LAYER
  5
20D
100
AcDbSymbolTableRecord
100
AcDbLayerTableRecord
  2
DRAFT
 70
0
 62
7
  6
CONTINUOUS
370
-3
390
F
  0
LAYER
  5
20E
100
AcDbSymbolTableRecord
100
AcDbLayerTableRecord
  2
IMPORT
 70
0
 62
7
  6
CONTINUOUS
370
-3
390
F
  0
LAYER
  5
20F
100
AcDbSymbolTableRecord
100
AcDbLayerTableRecord
  2
IMPORTED
 70
0
 62
7
  6
CONTINUOUS
370
-3
390
F
  0
LAYER
  5
210
100
AcDbSymbolTableRecord
100
AcDbLayerTableRecord
  2
IMPORT_IGES
 70
0
 62
7
  6
CONTINUOUS
370
-3
390
F
  0
LAYER
  5
211
100
AcDbSymbolTableRecord
100
AcDbLayerTableRecord
  2
INCISIONI_LASER
 70
0
 62
7
  6
CONTINUOUS
370
-3
390
F
  0
LAYER
  5
212
100
AcDbSymbolTableRecord
100
AcDbLayerTableRecord
  2
INTF_11
 70
0
 62
7
  6
CONTINUOUS
370
-3
390
F
  0
LAYER
  5
213
100
AcDbSymbolTableRecord
100
AcDbLayerTableRecord
  2
NOTE
 70
0
 62
7
  6
CONTINUOUS
370
-3
390
F
  0
LAYER
  5
214
100
AcDbSymbolTableRecord
100
AcDbLayerTableRecord
  2
PIANI
 70
0
 62
7
  6
CONTINUOUS
370
-3
390
F
  0
LAYER
  5
215
100
AcDbSymbolTableRecord
100
AcDbLayerTableRecord
  2
PIANI_DI_RIFERIMENTO
 70
0
 62
7
  6
CONTINUOUS
370
-3
390
F
  0
LAYER
  5
216
100
AcDbSymbolTableRecord
100
AcDbLayerTableRecord
  2
PIANI_ORIGINE
 70
0
 62
7
  6
CONTINUOUS
370
-3
390
F
  0
LAYER
  5
217
100
AcDbSymbolTableRecord
100
AcDbLayerTableRecord
  2
PIANI_RIFERIMENTO
 70
0
 62
7
  6
CONTINUOUS
370
-3
390
F
  0
LAYER
  5
218
100
AcDbSymbolTableRecord
100
AcDbLayerTableRecord
  2
PIANI_SFORMO
 70
0
 62
7
  6
CONTINUOUS
370
-3
390
F
  0
LAYER
  5
219
100
AcDbSymbolTableRecord
100
AcDbLayerTableRecord
  2
PUNTI
 70
0
 62
7
  6
CONTINUOUS
370
-3
390
F
  0
LAYER
  5
21A
100
AcDbSymbolTableRecord
100
AcDbLayerTableRecord
  2
RACCORDO
 70
0
 62
7
  6
CONTINUOUS
370
-3
390
F
  0
LAYER
  5
21B
100
AcDbSymbolTableRecord
100
AcDbLayerTableRecord
  2
RINTRACCIABILITA
 70
0
 62
7
  6
CONTINUOUS
370
-3
390
F
  0
LAYER
  5
21C
100
AcDbSymbolTableRecord
100
AcDbLayerTableRecord
  2
SIMBOLI
 70
0
 62
7
  6
CONTINUOUS
370
-3
390
F
  0
LAYER
  5
21D
100
AcDbSymbolTableRecord
100
AcDbLayerTableRecord
  2
SMUSSO
 70
0
 62
7
  6
CONTINUOUS
370
-3
390
F
  0
LAYER
  5
21E
100
AcDbSymbolTableRecord
100
AcDbLayerTableRecord
  2
SNAPLINE
 70
0
 62
7
  6
CONTINUOUS
370
-3
390
F
  0
LAYER
  5
21F
100
AcDbSymbolTableRecord
100
AcDbLayerTableRecord
  2
SUPERFICI
 70
0
 62
7
  6
CONTINUOUS
370
-3
390
F
  0
LAYER
  5
220
100
AcDbSymbolTableRecord
100
AcDbLayerTableRecord
  2
TRASH
 70
0
 62
7
  6
CONTINUOUS
370
-3
390
F
  0
LAYER
  5
221
100
AcDbSymbolTableRecord
100
AcDbLayerTableRecord
  2
XSEC_DATUMS
 70
0
 62
7
  6
CONTINUOUS
370
-3
390
F
  0
ENDTAB
  0
TABLE
  2
STYLE
  5
3
100
AcDbSymbolTable
 70
1
  0
STYLE
  5
11
100
AcDbSymbolTableRecord
100
AcDbTextStyleTableRecord
  2
STANDARD
 70
0
 40
0.0
 41
0.8
 50
0.0
 71
0
 42
0.2
  3
txt
  4

  0
STYLE
  5
222
100
AcDbSymbolTableRecord
100
AcDbTextStyleTableRecord
  2
TEXTSTYLE_1
 70
0
 40
0.0
 41
0.8
 50
0.0
 71
0
 42
0.2
  3
gdt
  4

  0
ENDTAB
  0
TABLE
  2
VIEW
  5
6
100
AcDbSymbolTable
 70
0
  0
ENDTAB
  0
TABLE
  2
UCS
  5
7
100
AcDbSymbolTable
 70
0
  0
ENDTAB
  0
TABLE
  2
APPID
  5
9
100
AcDbSymbolTable
 70
1
  0
APPID
  5
223
100
AcDbSymbolTableRecord
100
AcDbRegAppTableRecord
  2
ACAD
 70
0
  0
ENDTAB
  0
TABLE
  2
BLOCK_RECORD
  5
1
100
AcDbSymbolTable
 70
0
  0
BLOCK_RECORD
  5
224
100
AcDbSymbolTableRecord
100
AcDbBlockTableRecord
  2
*Model_Space
  0
BLOCK_RECORD
  5
225
100
AcDbSymbolTableRecord
100
AcDbBlockTableRecord
  2
*Paper_Space
  0
BLOCK_RECORD
  5
226
100
AcDbSymbolTableRecord
100
AcDbBlockTableRecord
  2
_FILLED
  0
BLOCK_RECORD
  5
227
100
AcDbSymbolTableRecord
100
AcDbBlockTableRecord
  2
*D0
  0
BLOCK_RECORD
  5
228
100
AcDbSymbolTableRecord
100
AcDbBlockTableRecord
  2
*D1
  0
BLOCK_RECORD
  5
229
100
AcDbSymbolTableRecord
100
AcDbBlockTableRecord
  2
*D2
  0
BLOCK_RECORD
  5
22A
100
AcDbSymbolTableRecord
100
AcDbBlockTableRecord
  2
*D3
  0
ENDTAB
  0
TABLE
  2
DIMSTYLE
  5
A
100
AcDbSymbolTable
 70
1
100
AcDbDimStyleTable
 71
0
  0
DIMSTYLE
105
22B
100
AcDbSymbolTableRecord
100
AcDbDimStyleTableRecord
  2
STANDARD
 70
0
  3

  4

 40
1.0
 41
3.0
 42
0.5
 43
0.38
 44
1.5
 45
0.0
 46
0.0
 47
0.01
 48
0.01
140
3.0
141
0.09
142
0.0
143
25.4
144
1.0
145
0.0
146
1.0
147
0.625
 71
1.0
 72
0.0
 73
0
 74
0
 75
0
 76
0
 77
1
 78
8
170
0
171
2
172
0
173
0
174
0
175
0
176
0
177
0
178
0
270
2
271
2
272
2
273
2
274
2
275
0
280
0
281
0
282
0
283
1
284
8
285
0
286
0
287
3
288
0
340
11
278
44
341
226
342
226
343
226
344
226
  0
DIMSTYLE
105
22C
100
AcDbSymbolTableRecord
100
AcDbDimStyleTableRecord
  2
DIMSTYLE_1
 70
0
  3

  4

 40
1.0
 41
3.0
 42
0.5
 43
0.38
 44
1.5
 45
0.0
 46
0.0
 47
0.0
 48
0.0
140
3.0
141
0.09
142
0.0
143
25.4
144
1.0
145
0.0
146
1.0
147
0.75
 71
0.0
 72
0.0
 73
0
 74
0
 75
0
 76
0
 77
1
 78
8
170
0
171
2
172
0
173
0
174
0
175
0
176
0
177
0
178
0
270
2
271
2
272
2
273
2
274
2
275
0
280
0
281
0
282
0
283
1
284
8
285
0
286
0
287
3
288
0
340
11
278
44
341
226
342
226
343
226
344
226
  0
DIMSTYLE
105
22D
100
AcDbSymbolTableRecord
100
AcDbDimStyleTableRecord
  2
DIMSTYLE_2
 70
0
  3

  4

 40
1.0
 41
3.0
 42
0.5
 43
0.38
 44
1.5
 45
0.0
 46
0.0
 47
0.0
 48
0.0
140
3.0
141
0.09
142
0.0
143
25.4
144
1.0
145
0.0
146
1.0
147
0.75
 71
0.0
 72
0.0
 73
0
 74
0
 75
0
 76
0
 77
1
 78
8
170
0
171
2
172
0
173
0
174
0
175
0
176
0
177
0
178
0
270
2
271
1
272
1
273
2
274
2
275
0
280
0
281
0
282
0
283
1
284
8
285
0
286
0
287
3
288
0
340
11
278
44
341
226
342
226
343
226
344
226
  0
ENDTAB
  0
ENDSEC
  0
SECTION
  2
BLOCKS
  0
BLOCK
  5
20
100
AcDbEntity
  8
0
100
AcDbBlockBegin
  2
*Model_Space
 70
0
 10
0.0
 20
0.0
 30
0.0
  3
*Model_Space
  1

  0
ENDBLK
  5
21
100
AcDbEntity
  8
0
100
AcDbBlockEnd
  0
BLOCK
  5
1C
100
AcDbEntity
  8
0
100
AcDbBlockBegin
  2
*Paper_Space
 70
0
 10
0.0
 20
0.0
 30
0.0
  3
*Paper_Space
  1

  0
ENDBLK
  5
1D
100
AcDbEntity
  8
0
100
AcDbBlockEnd
  0
BLOCK
  5
22E
100
AcDbEntity
  8
0
100
AcDbBlockBegin
  2
_FILLED
 70
64
 10
0.0
 20
0.0
  3
_FILLED
  1

  0
SOLID
  5
22F
100
AcDbEntity
  8
0
  6
BYBLOCK
 62
0
100
AcDbTrace
 10
0.0
 20
0.0
 11
-1.0
 21
0.3166666667
 12
-1.0
 22
-0.3166666667
 13
-1.0
 23
-0.3166666667
  0
ENDBLK
  5
230
100
AcDbEntity
  8
0
  6
BYBLOCK
 62
0
100
AcDbBlockEnd
  0
BLOCK
  5
231
100
AcDbEntity
  8
0
100
AcDbBlockBegin
 62
7
  6
CONTINUOUS
  2
*D0
 70
65
 10
0.0
 20
0.0
  3
*D0
  1

  0
MTEXT
  5
232
100
AcDbEntity
  8
0
100
AcDbMText
 62
7
  6
CONTINUOUS
  7
STANDARD
 71
2
 72
1
 10
-1.1743622449
 20
36.3097576531
 30
0.0
 11
1.0
 21
0.0
 31
0.0
 44
0.9
  1
22,3
 40
3.0
 41
12.8571428571
  0
LINE
  5
233
100
AcDbEntity
  8
0
100
AcDbLine
 62
7
  6
CONTINUOUS
 10
9.9756377551
 20
22.518555408
 11
9.9756377551
 21
34.0597576531
  0
LINE
  5
234
100
AcDbEntity
  8
0
100
AcDbLine
 62
7
  6
CONTINUOUS
 10
-12.3243622449
 20
22.518555408
 11
-12.3243622449
 21
34.0597576531
  0
LINE
  5
235
100
AcDbEntity
  8
0
100
AcDbLine
 62
7
  6
CONTINUOUS
 10
9.9756377551
 20
32.5597576531
 11
-1.1743622449
 21
32.5597576531
  0
LINE
  5
236
100
AcDbEntity
  8
0
100
AcDbLine
 62
7
  6
CONTINUOUS
 10
-12.3243622449
 20
32.5597576531
 11
-1.1743622449
 21
32.5597576531
  0
INSERT
  5
237
100
AcDbEntity
  8
0
100
AcDbBlockReference
 62
7
  6
CONTINUOUS
  2
_FILLED
 10
9.9756377551
 20
32.5597576531
 41
3.0
 42
3.0
 43
3.0
  0
INSERT
  5
238
100
AcDbEntity
  8
0
100
AcDbBlockReference
 62
7
  6
CONTINUOUS
  2
_FILLED
 10
-12.3243622449
 20
32.5597576531
 41
3.0
 42
3.0
 43
3.0
 50
180.0
  0
ENDBLK
  5
239
100
AcDbEntity
  8
0
  6
BYBLOCK
 62
0
100
AcDbBlockEnd
  0
BLOCK
  5
23A
100
AcDbEntity
  8
0
100
AcDbBlockBegin
 62
7
  6
CONTINUOUS
  2
*D1
 70
65
 10
0.0
 20
0.0
  3
*D1
  1

  0
MTEXT
  5
23B
100
AcDbEntity
  8
0
100
AcDbMText
 62
7
  6
CONTINUOUS
  7
STANDARD
 71
2
 72
1
 10
14.2650509809
 20
0.1597576531
 30
0.0
 11
0.0
 21
1.0
 31
0.0
 44
0.9
  1
48,8
 40
3.0
 41
13.1785714286
  0
LINE
  5
23C
100
AcDbEntity
  8
0
100
AcDbLine
 62
7
  6
CONTINUOUS
 10
9.9256377551
 20
-24.2402423469
 11
19.5150509809
 21
-24.2402423469
  0
LINE
  5
23D
100
AcDbEntity
  8
0
100
AcDbLine
 62
7
  6
CONTINUOUS
 10
9.9256377551
 20
24.5597576531
 11
19.5150509809
 21
24.5597576531
  0
LINE
  5
23E
100
AcDbEntity
  8
0
100
AcDbLine
 62
7
  6
CONTINUOUS
 10
18.0150509809
 20
-24.2402423469
 11
18.0150509809
 21
0.1597576531
  0
LINE
  5
23F
100
AcDbEntity
  8
0
100
AcDbLine
 62
7
  6
CONTINUOUS
 10
18.0150509809
 20
24.5597576531
 11
18.0150509809
 21
0.1597576531
  0
INSERT
  5
240
100
AcDbEntity
  8
0
100
AcDbBlockReference
 62
7
  6
CONTINUOUS
  2
_FILLED
 10
18.0150509809
 20
-24.2402423469
 41
3.0
 42
3.0
 43
3.0
 50
270.0
  0
INSERT
  5
241
100
AcDbEntity
  8
0
100
AcDbBlockReference
 62
7
  6
CONTINUOUS
  2
_FILLED
 10
18.0150509809
 20
24.5597576531
 41
3.0
 42
3.0
 43
3.0
 50
90.0
  0
ENDBLK
  5
242
100
AcDbEntity
  8
0
  6
BYBLOCK
 62
0
100
AcDbBlockEnd
  0
BLOCK
  5
243
100
AcDbEntity
  8
0
100
AcDbBlockBegin
 62
7
  6
CONTINUOUS
  2
*D2
 70
65
 10
0.0
 20
0.0
  3
*D2
  1

  0
MTEXT
  5
244
100
AcDbEntity
  8
0
100
AcDbMText
 62
7
  6
CONTINUOUS
  7
STANDARD
 71
2
 72
1
 10
-37.0672126576
 20
36.3097576531
 30
0.0
 11
1.0
 21
0.0
 31
0.0
 44
0.9
  1
25
 40
3.0
 41
6.75
  0
LINE
  5
245
100
AcDbEntity
  8
0
100
AcDbLine
 62
7
  6
CONTINUOUS
 10
-24.5672126576
 20
15.3836343747
 11
-24.5672126576
 21
34.0597576531
  0
LINE
  5
246
100
AcDbEntity
  8
0
100
AcDbLine
 62
7
  6
CONTINUOUS
 10
-49.5672126576
 20
25.0597576531
 11
-49.5672126576
 21
34.0597576531
  0
LINE
  5
247
100
AcDbEntity
  8
0
100
AcDbLine
 62
7
  6
CONTINUOUS
 10
-24.5672126576
 20
32.5597576531
 11
-37.0672126576
 21
32.5597576531
  0
LINE
  5
248
100
AcDbEntity
  8
0
100
AcDbLine
 62
7
  6
CONTINUOUS
 10
-49.5672126576
 20
32.5597576531
 11
-37.0672126576
 21
32.5597576531
  0
INSERT
  5
249
100
AcDbEntity
  8
0
100
AcDbBlockReference
 62
7
  6
CONTINUOUS
  2
_FILLED
 10
-24.5672126576
 20
32.5597576531
 41
3.0
 42
3.0
 43
3.0
  0
INSERT
  5
24A
100
AcDbEntity
  8
0
100
AcDbBlockReference
 62
7
  6
CONTINUOUS
  2
_FILLED
 10
-49.5672126576
 20
32.5597576531
 41
3.0
 42
3.0
 43
3.0
 50
180.0
  0
ENDBLK
  5
24B
100
AcDbEntity
  8
0
  6
BYBLOCK
 62
0
100
AcDbBlockEnd
  0
BLOCK
  5
24C
100
AcDbEntity
  8
0
100
AcDbBlockBegin
 62
7
  6
CONTINUOUS
  2
*D3
 70
65
 10
0.0
 20
0.0
  3
*D3
  1

  0
MTEXT
  5
24D
100
AcDbEntity
  8
0
100
AcDbMText
 62
7
  6
CONTINUOUS
  7
STANDARD
 71
2
 72
1
 10
-43.7469020638
 20
46.3097576531
 30
0.0
 11
1.0
 21
0.0
 31
0.0
 44
0.9
  1
38,4
 40
3.0
 41
12.8571428571
  0
LINE
  5
24E
100
AcDbEntity
  8
0
100
AcDbLine
 62
7
  6
CONTINUOUS
 10
-24.5672126576
 20
15.3836343747
 11
-24.5672126576
 21
44.0597576531
  0
LINE
  5
24F
100
AcDbEntity
  8
0
100
AcDbLine
 62
7
  6
CONTINUOUS
 10
-62.9265914701
 20
-19.0534591602
 11
-62.9265914701
 21
44.0597576531
  0
LINE
  5
250
100
AcDbEntity
  8
0
100
AcDbLine
 62
7
  6
CONTINUOUS
 10
-24.5672126576
 20
42.5597576531
 11
-43.7469020638
 21
42.5597576531
  0
LINE
  5
251
100
AcDbEntity
  8
0
100
AcDbLine
 62
7
  6
CONTINUOUS
 10
-62.9265914701
 20
42.5597576531
 11
-43.7469020638
 21
42.5597576531
  0
INSERT
  5
252
100
AcDbEntity
  8
0
100
AcDbBlockReference
 62
7
  6
CONTINUOUS
  2
_FILLED
 10
-24.5672126576
 20
42.5597576531
 41
3.0
 42
3.0
 43
3.0
 50
0.0
  0
INSERT
  5
253
100
AcDbEntity
  8
0
100
AcDbBlockReference
 62
7
  6
CONTINUOUS
  2
_FILLED
 10
-62.9265914701
 20
42.5597576531
 41
3.0
 42
3.0
 43
3.0
 50
180.0
  0
ENDBLK
  5
254
100
AcDbEntity
  8
0
  6
BYBLOCK
 62
0
100
AcDbBlockEnd
  0
ENDSEC
  0
SECTION
  2
ENTITIES
  0
DIMENSION
  5
255
100
AcDbEntity
  8
0
100
AcDbDimension
 62
7
  6
CONTINUOUS
  2
*D0
 10
-12.3243622449
 20
32.5597576531
 11
-1.1743622449
 21
32.5597576531
 70
160
 71
2
 42
22.3
  3
DIMSTYLE_1
100
AcDbAlignedDimension
 13
9.9756377551
 23
22.018555408
 14
-12.3243622449
 24
22.018555408
 50
180.0
100
AcDbRotatedDimension
  0
DIMENSION
  5
256
100
AcDbEntity
  8
0
100
AcDbDimension
 62
7
  6
CONTINUOUS
  2
*D1
 10
18.0150509809
 20
24.5597576531
 11
18.0150509809
 21
0.1597576531
 70
160
 71
2
 42
48.8
  3
DIMSTYLE_1
100
AcDbAlignedDimension
 13
9.4256377551
 23
-24.2402423469
 14
9.4256377551
 24
24.5597576531
 50
90.0
100
AcDbRotatedDimension
  0
DIMENSION
  5
257
100
AcDbEntity
  8
0
100
AcDbDimension
 62
7
  6
CONTINUOUS
  2
*D2
 10
-49.5672126576
 20
32.5597576531
 11
-37.0672126576
 21
32.5597576531
 70
160
 71
2
 42
25.0
  3
DIMSTYLE_1
100
AcDbAlignedDimension
 13
-24.5672126576
 23
14.8836343747
 14
-49.5672126576
 24
24.5597576531
 50
180.0
100
AcDbRotatedDimension
  0
DIMENSION
  5
258
100
AcDbEntity
  8
0
100
AcDbDimension
 62
7
  6
CONTINUOUS
  2
*D3
 10
-62.9265914701
 20
42.5597576531
 11
-43.7469020638
 21
42.5597576531
 70
160
 71
2
 42
38.3593788124
  3
DIMSTYLE_2
100
AcDbAlignedDimension
 13
-24.5672126576
 23
14.8836343747
 14
-62.9265914701
 24
-19.5534591602
 50
180.0
100
AcDbRotatedDimension
  0
LINE
  5
259
100
AcDbEntity
  8
26814000
100
AcDbLine
 62
7
  6
CONTINUOUS
 10
-9.4874608236
 20
24.5466590743
 11
-9.4743622449
 21
24.5597576531
  0
LINE
  5
25A
100
AcDbEntity
  8
26814000
100
AcDbLine
 62
7
  6
CONTINUOUS
 10
9.4256377551
 20
-24.2402423469
 11
7.1256377551
 21
-24.2402423469
  0
LINE
  5
25B
100
AcDbEntity
  8
26814000
100
AcDbLine
 62
7
  6
CONTINUOUS
 10
-9.4743622449
 20
-24.2402423469
 11
-11.7743622449
 21
-24.2402423469
  0
LINE
  5
25C
100
AcDbEntity
  8
26814000
100
AcDbLine
 62
253
  6
CONTINUOUS
 10
-11.7612636662
 20
-24.2271437682
 11
-9.4874608236
 21
-24.2271437682
  0
LINE
  5
25D
100
AcDbEntity
  8
26814000
100
AcDbLine
 62
253
  6
CONTINUOUS
 10
7.1387363338
 20
-24.2271437682
 11
9.4125391764
 21
-24.2271437682
  0
LINE
  5
25E
100
AcDbEntity
  8
26814000
100
AcDbLine
 62
253
  6
CONTINUOUS
 10
-11.7598176704
 20
-23.977147999
 11
-9.4889068194
 21
-23.977147999
  0
LINE
  5
25F
100
AcDbEntity
  8
26814000
100
AcDbLine
 62
253
  6
CONTINUOUS
 10
7.1401823296
 20
-23.977147999
 11
9.4110931806
 21
-23.977147999
  0
LINE
  5
260
100
AcDbEntity
  8
26814000
100
AcDbLine
 62
253
  6
CONTINUOUS
 10
9.4110931806
 20
-23.6845799142
 11
7.1401823296
 21
-23.6845799142
  0
LINE
  5
261
100
AcDbEntity
  8
26814000
100
AcDbLine
 62
253
  6
CONTINUOUS
 10
-9.4889068194
 20
-23.6845799142
 11
-11.7598176704
 21
-23.6845799142
  0
LINE
  5
262
100
AcDbEntity
  8
26814000
100
AcDbLine
 62
7
  6
CONTINUOUS
 10
3.2256377551
 20
-23.6402423469
 11
-5.5743622449
 21
-23.6402423469
  0
LINE
  5
263
100
AcDbEntity
  8
26814000
100
AcDbLine
 62
7
  6
CONTINUOUS
 10
2.9215601972
 20
-23.6344245171
 11
-5.270284687
 21
-23.6344245171
  0
LINE
  5
264
100
AcDbEntity
  8
26814000
100
AcDbLine
 62
253
  6
CONTINUOUS
 10
9.4118204093
 20
-23.4680735633
 11
7.1394551009
 21
-23.4680735633
  0
LINE
  5
265
100
AcDbEntity
  8
26814000
100
AcDbLine
 62
253
  6
CONTINUOUS
 10
-9.4881795907
 20
-23.4680735633
 11
-11.7605448991
 21
-23.4680735633
  0
LINE
  5
266
100
AcDbEntity
  8
26814000
100
AcDbLine
 62
7
  6
CONTINUOUS
 10
9.4169110104
 20
-22.9628920777
 11
7.1343644998
 21
-22.9628920777
  0
LINE
  5
267
100
AcDbEntity
  8
26814000
100
AcDbLine
 62
7
  6
CONTINUOUS
 10
-9.4830889896
 20
-22.9628920777
 11
-11.7656355002
 21
-22.9628920777
  0
LINE
  5
268
100
AcDbEntity
  8
26814000
100
AcDbLine
 62
7
  6
CONTINUOUS
 10
-9.4874608236
 20
-24.2271437682
 11
-9.4743622449
 21
-24.2402423469
  0
LINE
  5
269
100
AcDbEntity
  8
26814000
100
AcDbLine
 62
7
  6
CONTINUOUS
 10
-11.9743622449
 20
-22.2402423469
 11
-11.7743622449
 21
-22.2402423469
  0
LINE
  5
26A
100
AcDbEntity
  8
26814000
100
AcDbLine
 62
7
  6
CONTINUOUS
 10
-9.4743622449
 20
-22.2402423469
 11
-5.5743622449
 21
-22.2402423469
  0
LINE
  5
26B
100
AcDbEntity
  8
26814000
100
AcDbLine
 62
7
  6
CONTINUOUS
 10
3.2256377551
 20
-22.2402423469
 11
7.1256377551
 21
-22.2402423469
  0
LINE
  5
26C
100
AcDbEntity
  8
26814000
100
AcDbLine
 62
7
  6
CONTINUOUS
 10
9.4256377551
 20
-22.2402423469
 11
9.6256377551
 21
-22.2402423469
  0
LINE
  5
26D
100
AcDbEntity
  8
26814000
100
AcDbLine
 62
7
  6
CONTINUOUS
 10
-5.270284687
 20
-22.2315154791
 11
2.9215601972
 21
-22.2315154791
  0
LINE
  5
26E
100
AcDbEntity
  8
26814000
100
AcDbLine
 62
7
  6
CONTINUOUS
 10
9.4169110104
 20
-22.2271520453
 11
7.1343644998
 21
-22.2271520453
  0
LINE
  5
26F
100
AcDbEntity
  8
26814000
100
AcDbLine
 62
7
  6
CONTINUOUS
 10
-9.4830889896
 20
-22.2271520453
 11
-11.7656355002
 21
-22.2271520453
  0
LINE
  5
270
100
AcDbEntity
  8
26814000
100
AcDbLine
 62
7
  6
CONTINUOUS
 10
-11.9743622449
 20
-22.2184251775
 11
9.6256377551
 21
-22.2184251775
  0
LINE
  5
271
100
AcDbEntity
  8
290140000
100
AcDbLine
 62
7
  6
CONTINUOUS
 10
-11.4746363849
 20
-21.8475461884
 11
9.1259118951
 21
-21.8475461884
  0
LINE
  5
272
100
AcDbEntity
  8
26814000
100
AcDbLine
 62
7
  6
CONTINUOUS
 10
-12.3243622449
 20
-21.8402423469
 11
-11.5820659857
 21
-21.8402423469
  0
LINE
  5
273
100
AcDbEntity
  8
26814000
100
AcDbLine
 62
7
  6
CONTINUOUS
 10
9.2333414468
 20
-21.8402423469
 11
9.9756377551
 21
-21.8402423469
  0
LINE
  5
274
100
AcDbEntity
  8
26814000
100
AcDbLine
 62
7
  6
CONTINUOUS
 10
-12.3243622449
 20
-21.6990401019
 11
-11.9392961663
 21
-21.6990401019
  0
LINE
  5
275
100
AcDbEntity
  8
26814000
100
AcDbLine
 62
7
  6
CONTINUOUS
 10
9.5905716755
 20
-21.6990401019
 11
9.9756377551
 21
-21.6990401019
  0
LINE
  5
276
100
AcDbEntity
  8
290140000
100
AcDbLine
 62
253
  6
CONTINUOUS
 10
8.9752116632
 20
-21.096109191
 11
-11.323936153
 21
-21.096109191
  0
LINE
  5
277
100
AcDbEntity
  8
26814000
100
AcDbLine
 62
7
  6
CONTINUOUS
 10
-12.3243622449
 20
-19.7938910955
 11
-12.2743622449
 21
-19.7938910955
  0
LINE
  5
278
100
AcDbEntity
  8
26814000
100
AcDbLine
 62
7
  6
CONTINUOUS
 10
9.9256377551
 20
-19.7938910955
 11
9.9756377551
 21
-19.7938910955
  0
LWPOLYLINE
  5
279
100
AcDbEntity
  8
290140000
100
AcDbPolyline
 62
253
  6
CONTINUOUS
 90
16
 70
0
 10
-12.1058537136
 20
20.6916737114
 10
-12.0994687411
 20
20.7057719259
 10
-12.0846782538
 20
20.7196975641
 10
-12.0616389583
 20
20.7333030828
 10
-12.0305949578
 20
20.7464443303
 10
-11.9918751664
 20
20.7589820737
 10
-11.9458898235
 20
20.7707834748
 10
-11.893126148
 20
20.7817234965
 10
-11.8341431756
 20
20.7916862284
 10
-11.7695658362
 20
20.8005661146
 10
-11.7000783322
 20
20.8082690718
 10
-11.62641689
 20
20.8147134865
 10
-11.5493619589
 20
20.8198310799
 10
-11.4697299428
 20
20.8235676305
 10
-11.3883645499
 20
20.8258835493
 10
-11.3061278536
 20
20.8267542991
  0
LINE
  5
27A
100
AcDbEntity
  8
26814000
100
AcDbLine
 62
7
  6
CONTINUOUS
 10
-9.4743622449
 20
22.5597576531
 11
-9.4830889896
 21
22.5466673514
  0
LINE
  5
27B
100
AcDbEntity
  8
26814000
100
AcDbLine
 62
7
  6
CONTINUOUS
 10
-9.4830889896
 20
-22.2271520453
 11
-9.4743622449
 21
-22.2402423469
  0
LINE
  5
27C
100
AcDbEntity
  8
290140000
100
AcDbLine
 62
7
  6
CONTINUOUS
 10
-12.0828133652
 20
21.5204048056
 11
-12.2336551758
 21
21.0682928205
  0
LINE
  5
27D
100
AcDbEntity
  8
290140000
100
AcDbLine
 62
253
  6
CONTINUOUS
 10
-12.123662013
 20
21.269403398
 11
-12.2743622449
 21
20.8177157612
  0
LINE
  5
27E
100
AcDbEntity
  8
26814000
100
AcDbLine
 62
7
  6
CONTINUOUS
 10
3.2215551203
 20
23.9556750182
 11
3.2256377551
 21
23.9597576531
  0
LWPOLYLINE
  5
27F
100
AcDbEntity
  8
290140000
100
AcDbPolyline
 62
253
  6
CONTINUOUS
 90
16
 70
0
 10
9.7571292237
 20
-19.5808609652
 10
9.7507439929
 20
-19.5778356263
 10
9.735953287
 20
-19.5748655365
 10
9.7129138143
 20
-19.5719821642
 10
9.6818696788
 20
-19.5692160588
 10
9.6431497947
 20
-19.5665965273
 10
9.5971644006
 20
-19.5641513237
 10
9.5444007137
 20
-19.5619063551
 10
9.4854177677
 20
-19.5598854071
 10
9.4208404891
 20
-19.5581098916
 10
9.3513530771
 20
-19.5565986203
 10
9.2776917537
 20
-19.5553676052
 10
9.2006369638
 20
-19.5544298892
 10
9.121005106
 20
-19.5537954075
 10
9.0396398834
 20
-19.5534708824
 10
-11.3883649358
 20
-19.5534702944
  0
LINE
  5
280
100
AcDbEntity
  8
26814000
100
AcDbLine
 62
7
  6
CONTINUOUS
 10
3.2215551203
 20
-23.6361597121
 11
3.2256377551
 21
-23.6402423469
  0
LWPOLYLINE
  5
281
100
AcDbEntity
  8
290140000
100
AcDbPolyline
 62
253
  6
CONTINUOUS
 90
16
 70
0
 10
-12.123662013
 20
-20.3007643129
 10
-12.1192276538
 20
-20.3836472239
 10
-12.1060876102
 20
-20.4656469081
 10
-12.0843856917
 20
-20.5458657487
 10
-12.0543594308
 20
-20.6234256203
 10
-12.0163374858
 20
-20.6974774951
 10
-11.970736046
 20
-20.7672107386
 10
-11.9180542688
 20
-20.8318619945
 10
-11.8588688238
 20
-20.8907235288
 10
-11.7938275876
 20
-20.9431509761
 10
-11.7236425306
 20
-20.9885704133
 10
-11.6490819379
 20
-21.0264846268
 10
-11.5709620147
 20
-21.0564785534
 10
-11.4901379212
 20
-21.0782238415
 10
-11.4074944084
 20
-21.0914824387
 10
-11.3239361531
 20
-21.0961091912
  0
LWPOLYLINE
  5
282
100
AcDbEntity
  8
26814000
100
AcDbPolyline
 62
7
  6
CONTINUOUS
 90
31
 70
0
 10
-12.3243622449
 20
-21.8902290195
 10
-12.3238826059
 20
-21.9085468538
 10
-12.3224450005
 20
-21.9268145021
 10
-12.3200533648
 20
-21.9449818999
 10
-12.3167142498
 20
-21.9629992594
 10
-12.3124368031
 20
-21.9808171989
 10
-12.307232743
 20
-21.9983868779
 10
-12.3011163282
 20
-22.0156601434
 10
-12.2941043182
 20
-22.0325896537
 10
-12.2862159265
 20
-22.0491290009
 10
-12.2774727689
 20
-22.065232854
 10
-12.2678988049
 20
-22.0808570751
 10
-12.2575202706
 20
-22.0959588317
 10
-12.2463656077
 20
-22.1104967313
 10
-12.234465386
 20
-22.1244309267
 10
-12.2218522192
 20
-22.1377232158
 10
-12.2085606749
 20
-22.1503371643
 10
-12.1946271809
 20
-22.1622381971
 10
-12.1800899258
 20
-22.1733936843
 10
-12.1649887523
 20
-22.1837730469
 10
-12.1493650494
 20
-22.1933478339
 10
-12.13326164
 20
-22.2020917917
 10
-12.1167226611
 20
-22.2099809504
 10
-12.0997934438
 20
-22.2169936835
 10
-12.08252039
 20
-22.2231107614
 10
-12.0649508445
 20
-22.2283154132
 10
-12.0471329639
 20
-22.23259337
 10
-12.0291155859
 20
-22.2359328996
 10
-12.0109480958
 20
-22.2383248432
 10
-11.9926802912
 20
-22.2397626408
 10
-11.9743622449
 20
-22.2402423469
  0
LINE
  5
283
100
AcDbEntity
  8
26814000
100
AcDbLine
 62
7
  6
CONTINUOUS
 10
-11.7605448991
 20
-23.4680735633
 11
-11.7656355002
 21
-22.9628920777
  0
LWPOLYLINE
  5
284
100
AcDbEntity
  8
290140000
100
AcDbPolyline
 62
253
  6
CONTINUOUS
 90
21
 70
0
 10
-12.1059873496
 20
20.7400324468
 10
-12.1062081461
 20
20.7871611383
 10
-12.1065161033
 20
20.8330597858
 10
-12.1069135913
 20
20.8779611116
 10
-12.1073982399
 20
20.9216323935
 10
-12.1079629383
 20
20.9633754649
 10
-12.1086089751
 20
21.0031484862
 10
-12.1093350619
 20
21.040993297
 10
-12.1101302219
 20
21.0763372486
 10
-12.1109953136
 20
21.1091352363
 10
-12.1119294786
 20
21.1394323647
 10
-12.1129191652
 20
21.1667912998
 10
-12.1139653598
 20
21.1911726733
 10
-12.115067076
 20
21.2126158534
 10
-12.1162078027
 20
21.2308016099
 10
-12.1173885674
 20
21.2456779179
 10
-12.1186083427
 20
21.2572968024
 10
-12.1198475342
 20
21.2654951081
 10
-12.1210996108
 20
21.2702184501
 10
-12.1223711037
 20
21.2715212134
 10
-12.123662013
 20
21.269403398
  0
LINE
  5
285
100
AcDbEntity
  8
26814000
100
AcDbLine
 62
7
  6
CONTINUOUS
 10
-12.3243622449
 20
22.1879271561
 11
-12.3243622449
 21
-21.86841185
  0
LINE
  5
286
100
AcDbEntity
  8
290140000
100
AcDbLine
 62
7
  6
CONTINUOUS
 10
-12.2743622449
 20
-21.0522013104
 11
-12.2743622449
 21
20.8177157612
  0
LINE
  5
287
100
AcDbEntity
  8
26814000
100
AcDbLine
 62
253
  6
CONTINUOUS
 10
-11.9743622449
 20
-22.2402423469
 11
-11.9743622449
 21
-22.2184251775
  0
LINE
  5
288
100
AcDbEntity
  8
26814000
100
AcDbLine
 62
253
  6
CONTINUOUS
 10
-11.9743622449
 20
22.5379404836
 11
-11.9743622449
 21
22.5597576531
  0
LINE
  5
289
100
AcDbEntity
  8
26814000
100
AcDbLine
 62
7
  6
CONTINUOUS
 10
-11.7743622449
 20
-22.2402423469
 11
-11.7743622449
 21
-24.2402423469
  0
LINE
  5
28A
100
AcDbEntity
  8
26814000
100
AcDbLine
 62
7
  6
CONTINUOUS
 10
-11.7743622449
 20
22.5597576531
 11
-11.7743622449
 21
24.5597576531
  0
LINE
  5
28B
100
AcDbEntity
  8
26814000
100
AcDbLine
 62
7
  6
CONTINUOUS
 10
-11.7656355002
 20
-22.9628920777
 11
-11.7656355002
 21
-22.2271520453
  0
LINE
  5
28C
100
AcDbEntity
  8
26814000
100
AcDbLine
 62
7
  6
CONTINUOUS
 10
-11.7656355002
 20
22.5466673514
 11
-11.7656355002
 21
23.2824073839
  0
LINE
  5
28D
100
AcDbEntity
  8
26814000
100
AcDbLine
 62
7
  6
CONTINUOUS
 10
-11.7598176704
 20
-23.977147999
 11
-11.7598176704
 21
-23.6845799142
  0
LINE
  5
28E
100
AcDbEntity
  8
26814000
100
AcDbLine
 62
7
  6
CONTINUOUS
 10
-11.7598176704
 20
24.0040952204
 11
-11.7598176704
 21
24.2966633051
  0
LWPOLYLINE
  5
28F
100
AcDbEntity
  8
290140000
100
AcDbPolyline
 62
253
  6
CONTINUOUS
 90
12
 70
0
 10
-12.1003667028
 20
-16.2061400359
 10
-12.0958771707
 20
-12.834110801
 10
-12.0923851171
 20
-9.4647732607
 10
-12.0898903474
 20
-6.0976966362
 10
-12.0883930563
 20
-2.7333117063
 10
-12.0878938277
 20
0.6270891928
 10
-12.0883930498
 20
3.9835038584
 10
-12.0898903345
 20
7.3359344932
 10
-12.0923851012
 20
10.6830953687
 10
-12.0958771566
 20
14.0245579088
 10
-12.100366694
 20
17.3607506897
 10
-12.1059873496
 20
20.7400324468
  0
LINE
  5
290
100
AcDbEntity
  8
26814000
100
AcDbLine
 62
7
  6
CONTINUOUS
 10
-11.7656355002
 20
23.2824073839
 11
-11.7605448991
 21
23.7875888694
  0
LWPOLYLINE
  5
291
100
AcDbEntity
  8
26814000
100
AcDbPolyline
 62
7
  6
CONTINUOUS
 90
31
 70
0
 10
-12.3243622449
 20
22.2097443256
 10
-12.3238826059
 20
22.2280621599
 10
-12.3224450005
 20
22.2463298082
 10
-12.3200533648
 20
22.264497206
 10
-12.3167142498
 20
22.2825145655
 10
-12.3124368031
 20
22.300332505
 10
-12.307232743
 20
22.317902184
 10
-12.3011163282
 20
22.3351754495
 10
-12.2941043182
 20
22.3521049599
 10
-12.2862159265
 20
22.368644307
 10
-12.2774727689
 20
22.3847481601
 10
-12.2678988049
 20
22.4003723813
 10
-12.2575202706
 20
22.4154741378
 10
-12.2463656077
 20
22.4300120374
 10
-12.234465386
 20
22.4439462328
 10
-12.2218522192
 20
22.4572385219
 10
-12.2085606749
 20
22.4698524704
 10
-12.1946271809
 20
22.4817535032
 10
-12.1800899258
 20
22.4929089904
 10
-12.1649887523
 20
22.503288353
 10
-12.1493650494
 20
22.51286314
 10
-12.13326164
 20
22.5216070979
 10
-12.1167226611
 20
22.5294962565
 10
-12.0997934438
 20
22.5365089896
 10
-12.08252039
 20
22.5426260676
 10
-12.0649508445
 20
22.5478307193
 10
-12.0471329639
 20
22.5521086762
 10
-12.0291155859
 20
22.5554482057
 10
-12.0109480958
 20
22.5578401493
 10
-11.9926802912
 20
22.5592779469
 10
-11.9743622449
 20
22.5597576531
  0
LWPOLYLINE
  5
292
100
AcDbEntity
  8
290140000
100
AcDbPolyline
 62
253
  6
CONTINUOUS
 90
4
 70
0
 10
-12.123662013
 20
21.269403398
 10
-12.1192275924
 20
21.3527200357
 10
-12.106087386
 20
21.4351006723
 10
-12.0829536254
 20
21.5199840182
  0
LWPOLYLINE
  5
293
100
AcDbEntity
  8
290140000
100
AcDbPolyline
 62
253
  6
CONTINUOUS
 90
21
 70
0
 10
-11.3006408255
 20
17.4876276986
 10
-11.3062628324
 20
20.9299780939
 10
-11.3064845957
 20
21.0314095015
 10
-11.3067931434
 20
21.1305491844
 10
-11.3071907733
 20
21.2269021727
 10
-11.3076751876
 20
21.3199985132
 10
-11.3082394938
 20
21.409393648
 10
-11.308885085
 20
21.4946568381
 10
-11.3096105681
 20
21.5753515932
 10
-11.3104048705
 20
21.6510572313
 10
-11.3112687138
 20
21.7213879627
 10
-11.3122013763
 20
21.7860156616
 10
-11.3131896215
 20
21.8446439394
 10
-11.314234612
 20
21.8969896841
 10
-11.315335185
 20
21.9427782868
 10
-11.3164746157
 20
21.9817709666
 10
-11.3176531662
 20
22.0137727465
 10
-11.3188705744
 20
22.0386321813
 10
-11.3201093283
 20
22.0562296754
 10
-11.3213635907
 20
22.066477206
 10
-11.3224868273
 20
22.0693722602
  0
LWPOLYLINE
  5
294
100
AcDbEntity
  8
290140000
100
AcDbPolyline
 62
253
  6
CONTINUOUS
 90
12
 70
0
 10
-11.306262789
 20
-19.6589406087
 10
-11.3006408253
 20
-16.1704135403
 10
-11.2961512826
 20
-12.7892127187
 10
-11.2926592255
 20
-9.4102874538
 10
-11.2901644634
 20
-6.0340682555
 10
-11.2886671869
 20
-2.6609852059
 10
-11.2881679678
 20
0.7085320951
 10
-11.2886671871
 20
4.0740543776
 10
-11.2901644636
 20
7.4351528801
 10
-11.2926592258
 20
10.7913995288
 10
-11.2961512828
 20
14.1423667845
 10
-11.3006408255
 20
17.4876276986
  0
LINE
  5
295
100
AcDbEntity
  8
26814000
100
AcDbLine
 62
7
  6
CONTINUOUS
 10
3.2215551203
 20
22.5536336144
 11
3.2256377551
 21
22.5597576531
  0
LINE
  5
296
100
AcDbEntity
  8
26814000
100
AcDbLine
 62
7
  6
CONTINUOUS
 10
9.4125391764
 20
24.5466590743
 11
9.4256377551
 21
24.5597576531
  0
LINE
  5
297
100
AcDbEntity
  8
26814000
100
AcDbLine
 62
7
  6
CONTINUOUS
 10
9.4125391764
 20
-24.2271437682
 11
9.4256377551
 21
-24.2402423469
  0
LINE
  5
298
100
AcDbEntity
  8
26814000
100
AcDbLine
 62
7
  6
CONTINUOUS
 10
3.2215551203
 20
-22.2341183083
 11
3.2256377551
 21
-22.2402423469
  0
LINE
  5
299
100
AcDbEntity
  8
26814000
100
AcDbLine
 62
7
  6
CONTINUOUS
 10
-9.4830889896
 20
23.2824073839
 11
-9.4881795907
 21
23.7875888694
  0
LINE
  5
29A
100
AcDbEntity
  8
26814000
100
AcDbLine
 62
7
  6
CONTINUOUS
 10
-9.4889068194
 20
24.2966633051
 11
-9.4889068194
 21
24.0040952204
  0
LINE
  5
29B
100
AcDbEntity
  8
26814000
100
AcDbLine
 62
7
  6
CONTINUOUS
 10
-9.4889068194
 20
-23.6845799142
 11
-9.4889068194
 21
-23.977147999
  0
LINE
  5
29C
100
AcDbEntity
  8
26814000
100
AcDbLine
 62
7
  6
CONTINUOUS
 10
-9.4830889896
 20
-22.9628920777
 11
-9.4830889896
 21
-22.2271520453
  0
LINE
  5
29D
100
AcDbEntity
  8
26814000
100
AcDbLine
 62
7
  6
CONTINUOUS
 10
-9.4830889896
 20
22.5466673514
 11
-9.4830889896
 21
23.2824073839
  0
LINE
  5
29E
100
AcDbEntity
  8
26814000
100
AcDbLine
 62
7
  6
CONTINUOUS
 10
-9.4743622449
 20
-22.2402423469
 11
-9.4743622449
 21
-24.2402423469
  0
LINE
  5
29F
100
AcDbEntity
  8
26814000
100
AcDbLine
 62
7
  6
CONTINUOUS
 10
-9.4743622449
 20
22.5597576531
 11
-9.4743622449
 21
24.5597576531
  0
LINE
  5
2A0
100
AcDbEntity
  8
26814000
100
AcDbLine
 62
7
  6
CONTINUOUS
 10
-9.4881795907
 20
-23.4680735633
 11
-9.4830889896
 21
-22.9628920777
  0
LWPOLYLINE
  5
2A1
100
AcDbEntity
  8
290140000
100
AcDbPolyline
 62
253
  6
CONTINUOUS
 90
21
 70
0
 10
-11.323936153
 20
-21.096109191
 10
-11.3226389865
 20
-21.0786695102
 10
-11.321363227
 20
-21.0539621016
 10
-11.3201088747
 20
-21.0221108661
 10
-11.3188701335
 20
-20.9832773113
 10
-11.3176527994
 20
-20.9376534827
 10
-11.3164742605
 20
-20.8854572944
 10
-11.3153346938
 20
-20.8269360945
 10
-11.3142339224
 20
-20.7623848947
 10
-11.3131888032
 20
-20.6921414739
 10
-11.3122005485
 20
-20.6165726625
 10
-11.3112679459
 20
-20.5360406137
 10
-11.3104042155
 20
-20.4509147845
 10
-11.3096101167
 20
-20.3615952427
 10
-11.30888489
 20
-20.2685383021
 10
-11.3082394771
 20
-20.1722266897
 10
-11.307675196
 20
-20.0731501261
 10
-11.3071907286
 20
-19.9717869913
 10
-11.306793062
 20
-19.8686250284
 10
-11.3064845251
 20
-19.7641693072
 10
-11.306262789
 20
-19.6589406087
  0
LWPOLYLINE
  5
2A2
100
AcDbEntity
  8
290140000
100
AcDbPolyline
 62
253
  6
CONTINUOUS
 90
22
 70
0
 10
-12.123662013
 20
-20.3007643129
 10
-12.1223701178
 20
-20.2925663068
 10
-12.1210978226
 20
-20.2811020845
 10
-12.1198451271
 20
-20.2663716458
 10
-12.1186055602
 20
-20.2482691474
 10
-12.1173855932
 20
-20.2269004328
 10
-12.11620464
 20
-20.2025830318
 10
-12.1150636157
 20
-20.1752702081
 10
-12.1139616052
 20
-20.145008698
 10
-12.1129152772
 20
-20.1122562408
 10
-12.1119256928
 20
-20.0769827908
 10
-12.1109917908
 20
-20.0392183936
 10
-12.1101270564
 20
-19.9995109253
 10
-12.1093323811
 20
-19.957825051
 10
-12.1086068734
 20
-19.9141961056
 10
-12.1079613439
 20
-19.8692779703
 10
-12.1073970116
 20
-19.8230346414
 10
-12.1069126574
 20
-19.7755021226
 10
-12.1065154352
 20
-19.7274423063
 10
-12.1062077294
 20
-19.6791091568
 10
-12.1059871556
 20
-19.6302487097
 10
-12.1003667028
 20
-16.2061400359
  0
LINE
  5
2A3
100
AcDbEntity
  8
290140000
100
AcDbLine
 62
253
  6
CONTINUOUS
 10
-12.2743622449
 20
-21.0522013104
 11
-12.123662013
 21
-20.3007643129
  0
LINE
  5
2A4
100
AcDbEntity
  8
290140000
100
AcDbLine
 62
253
  6
CONTINUOUS
 10
-11.4746363849
 20
-21.8475461884
 11
-11.323936153
 21
-21.096109191
  0
LINE
  5
2A5
100
AcDbEntity
  8
26814000
100
AcDbLine
 62
7
  6
CONTINUOUS
 10
-5.5743622449
 20
-23.6402423469
 11
-5.5743622449
 21
-22.2402423469
  0
LINE
  5
2A6
100
AcDbEntity
  8
26814000
100
AcDbLine
 62
7
  6
CONTINUOUS
 10
-5.5743622449
 20
22.5597576531
 11
-5.5743622449
 21
23.9597576531
  0
LINE
  5
2A7
100
AcDbEntity
  8
26814000
100
AcDbLine
 62
253
  6
CONTINUOUS
 10
-5.5702796101
 20
23.9556750182
 11
-5.5702796101
 21
22.5536336144
  0
LINE
  5
2A8
100
AcDbEntity
  8
26814000
100
AcDbLine
 62
253
  6
CONTINUOUS
 10
-5.5702796101
 20
-22.2341183083
 11
-5.5702796101
 21
-23.6361597121
  0
LINE
  5
2A9
100
AcDbEntity
  8
26814000
100
AcDbLine
 62
253
  6
CONTINUOUS
 10
-5.270284687
 20
23.9539398233
 11
-5.270284687
 21
22.5510307853
  0
LINE
  5
2AA
100
AcDbEntity
  8
26814000
100
AcDbLine
 62
253
  6
CONTINUOUS
 10
-5.270284687
 20
-22.2315154791
 11
-5.270284687
 21
-23.6344245171
  0
LINE
  5
2AB
100
AcDbEntity
  8
26814000
100
AcDbLine
 62
7
  6
CONTINUOUS
 10
9.4256377551
 20
22.5597576531
 11
9.4169110104
 21
22.5466673514
  0
LINE
  5
2AC
100
AcDbEntity
  8
26814000
100
AcDbLine
 62
7
  6
CONTINUOUS
 10
9.4169110104
 20
-22.2271520453
 11
9.4256377551
 21
-22.2402423469
  0
LINE
  5
2AD
100
AcDbEntity
  8
26814000
100
AcDbLine
 62
7
  6
CONTINUOUS
 10
-12.3243622449
 20
0.1597576531
 11
-12.2743622449
 21
0.1597576531
  0
LINE
  5
2AE
100
AcDbEntity
  8
26814000
100
AcDbLine
 62
7
  6
CONTINUOUS
 10
9.9256377551
 20
0.1597576531
 11
9.9756377551
 21
0.1597576531
  0
LWPOLYLINE
  5
2AF
100
AcDbEntity
  8
290140000
100
AcDbPolyline
 62
253
  6
CONTINUOUS
 90
20
 70
0
 10
8.9737623279
 20
22.0693722601
 10
8.972639101
 20
22.066477206
 10
8.9713848386
 20
22.0562296754
 10
8.9701460846
 20
22.0386321813
 10
8.9689286764
 20
22.0137727465
 10
8.9677501258
 20
21.9817709666
 10
8.9666106952
 20
21.9427782868
 10
8.9655101222
 20
21.8969896841
 10
8.9644651317
 20
21.8446439394
 10
8.9634768866
 20
21.7860156616
 10
8.962544224
 20
21.7213879627
 10
8.9616803808
 20
21.6510572313
 10
8.9608860783
 20
21.5753515932
 10
8.9601605952
 20
21.4946568381
 10
8.959515004
 20
21.409393648
 10
8.9589506978
 20
21.3199985132
 10
8.9584662835
 20
21.2269021727
 10
8.9580686536
 20
21.1305491844
 10
8.9577601059
 20
21.0314095015
 10
8.9575383426
 20
20.9299780939
  0
LINE
  5
2B0
100
AcDbEntity
  8
26814000
100
AcDbLine
 62
7
  6
CONTINUOUS
 10
-11.7656355002
 20
-22.2271520453
 11
-11.7743622449
 21
-22.2402423469
  0
LINE
  5
2B1
100
AcDbEntity
  8
26814000
100
AcDbLine
 62
7
  6
CONTINUOUS
 10
-11.7743622449
 20
22.5597576531
 11
-11.7656355002
 21
22.5466673514
  0
LINE
  5
2B2
100
AcDbEntity
  8
26814000
100
AcDbLine
 62
253
  6
CONTINUOUS
 10
2.9215601972
 20
-23.6344245171
 11
2.9215601972
 21
-22.2315154791
  0
LINE
  5
2B3
100
AcDbEntity
  8
26814000
100
AcDbLine
 62
253
  6
CONTINUOUS
 10
2.9215601972
 20
22.5510307853
 11
2.9215601972
 21
23.9539398233
  0
LINE
  5
2B4
100
AcDbEntity
  8
26814000
100
AcDbLine
 62
253
  6
CONTINUOUS
 10
3.2215551203
 20
-23.6361597121
 11
3.2215551203
 21
-22.2341183083
  0
LINE
  5
2B5
100
AcDbEntity
  8
26814000
100
AcDbLine
 62
253
  6
CONTINUOUS
 10
3.2215551203
 20
22.5536336144
 11
3.2215551203
 21
23.9556750182
  0
LINE
  5
2B6
100
AcDbEntity
  8
26814000
100
AcDbLine
 62
7
  6
CONTINUOUS
 10
3.2256377551
 20
23.9597576531
 11
3.2256377551
 21
22.5597576531
  0
LINE
  5
2B7
100
AcDbEntity
  8
26814000
100
AcDbLine
 62
7
  6
CONTINUOUS
 10
3.2256377551
 20
-22.2402423469
 11
3.2256377551
 21
-23.6402423469
  0
LINE
  5
2B8
100
AcDbEntity
  8
290140000
100
AcDbLine
 62
253
  6
CONTINUOUS
 10
8.9752116632
 20
-21.096109191
 11
9.1259118951
 21
-21.8475461884
  0
LINE
  5
2B9
100
AcDbEntity
  8
290140000
100
AcDbLine
 62
253
  6
CONTINUOUS
 10
9.7749375232
 20
-20.3007643129
 11
9.9256377551
 21
-21.0522013104
  0
LINE
  5
2BA
100
AcDbEntity
  8
26814000
100
AcDbLine
 62
7
  6
CONTINUOUS
 10
7.1394551009
 20
-23.4680735633
 11
7.1343644998
 21
-22.9628920777
  0
LINE
  5
2BB
100
AcDbEntity
  8
26814000
100
AcDbLine
 62
7
  6
CONTINUOUS
 10
7.1256377551
 20
-22.2402423469
 11
7.1256377551
 21
-24.2402423469
  0
LINE
  5
2BC
100
AcDbEntity
  8
26814000
100
AcDbLine
 62
7
  6
CONTINUOUS
 10
7.1256377551
 20
22.5597576531
 11
7.1256377551
 21
24.5597576531
  0
LINE
  5
2BD
100
AcDbEntity
  8
26814000
100
AcDbLine
 62
7
  6
CONTINUOUS
 10
7.1343644998
 20
-22.9628920777
 11
7.1343644998
 21
-22.2271520453
  0
LINE
  5
2BE
100
AcDbEntity
  8
26814000
100
AcDbLine
 62
7
  6
CONTINUOUS
 10
7.1343644998
 20
22.5466673514
 11
7.1343644998
 21
23.2824073839
  0
LINE
  5
2BF
100
AcDbEntity
  8
26814000
100
AcDbLine
 62
7
  6
CONTINUOUS
 10
7.1401823296
 20
-23.977147999
 11
7.1401823296
 21
-23.6845799142
  0
LINE
  5
2C0
100
AcDbEntity
  8
26814000
100
AcDbLine
 62
7
  6
CONTINUOUS
 10
7.1401823296
 20
24.0040952204
 11
7.1401823296
 21
24.2966633051
  0
LINE
  5
2C1
100
AcDbEntity
  8
26814000
100
AcDbLine
 62
7
  6
CONTINUOUS
 10
7.1343644998
 20
23.2824073839
 11
7.1394551009
 21
23.7875888694
  0
LINE
  5
2C2
100
AcDbEntity
  8
26814000
100
AcDbLine
 62
7
  6
CONTINUOUS
 10
-5.5702796101
 20
-22.2341183083
 11
-5.5743622449
 21
-22.2402423469
  0
LINE
  5
2C3
100
AcDbEntity
  8
26814000
100
AcDbLine
 62
7
  6
CONTINUOUS
 10
-5.5702796101
 20
22.5536336144
 11
-5.5743622449
 21
22.5597576531
  0
LINE
  5
2C4
100
AcDbEntity
  8
26814000
100
AcDbLine
 62
7
  6
CONTINUOUS
 10
9.4169110104
 20
23.2824073839
 11
9.4118204093
 21
23.7875888694
  0
LWPOLYLINE
  5
2C5
100
AcDbEntity
  8
290140000
100
AcDbPolyline
 62
253
  6
CONTINUOUS
 90
21
 70
0
 10
9.7572626658
 20
-19.6302487097
 10
9.7574832397
 20
-19.6791091568
 10
9.7577909454
 20
-19.7274423063
 10
9.7581881677
 20
-19.7755021226
 10
9.7586725218
 20
-19.8230346414
 10
9.7592368541
 20
-19.8692779703
 10
9.7598823836
 20
-19.9141961056
 10
9.7606078913
 20
-19.957825051
 10
9.7614025666
 20
-19.9995109253
 10
9.762267301
 20
-20.0392183936
 10
9.763201203
 20
-20.0769827908
 10
9.7641907874
 20
-20.1122562408
 10
9.7652371154
 20
-20.145008698
 10
9.7663391259
 20
-20.1752702081
 10
9.7674801502
 20
-20.2025830318
 10
9.7686611034
 20
-20.2269004328
 10
9.7698810704
 20
-20.2482691474
 10
9.7711206373
 20
-20.2663716457
 10
9.7723733328
 20
-20.2811020844
 10
9.773645628
 20
-20.2925663068
 10
9.7749375232
 20
-20.3007643129
  0
LWPOLYLINE
  5
2C6
100
AcDbEntity
  8
290140000
100
AcDbPolyline
 62
253
  6
CONTINUOUS
 90
22
 70
0
 10
8.9519163355
 20
-16.1704135403
 10
8.9575382992
 20
-19.6589406087
 10
8.9577600353
 20
-19.7641693072
 10
8.9580685722
 20
-19.8686250284
 10
8.9584662388
 20
-19.9717869913
 10
8.9589507062
 20
-20.0731501261
 10
8.9595149873
 20
-20.1722266897
 10
8.9601604002
 20
-20.2685383021
 10
8.9608856269
 20
-20.3615952427
 10
8.9616797257
 20
-20.4509147845
 10
8.9625434561
 20
-20.5360406137
 10
8.9634760586
 20
-20.6165726625
 10
8.9644643134
 20
-20.6921414739
 10
8.9655094326
 20
-20.7623848947
 10
8.9666102041
 20
-20.8269360945
 10
8.9677497707
 20
-20.8854572944
 10
8.9689283096
 20
-20.9376534827
 10
8.9701456437
 20
-20.9832773113
 10
8.9713843848
 20
-21.0221108661
 10
8.9726387372
 20
-21.0539621016
 10
8.9739144966
 20
-21.0786695102
 10
8.9752116632
 20
-21.096109191
  0
LINE
  5
2C7
100
AcDbEntity
  8
26814000
100
AcDbLine
 62
7
  6
CONTINUOUS
 10
9.4110931806
 20
24.2966633051
 11
9.4110931806
 21
24.0040952204
  0
LINE
  5
2C8
100
AcDbEntity
  8
26814000
100
AcDbLine
 62
7
  6
CONTINUOUS
 10
9.4110931806
 20
-23.6845799142
 11
9.4110931806
 21
-23.977147999
  0
LINE
  5
2C9
100
AcDbEntity
  8
26814000
100
AcDbLine
 62
7
  6
CONTINUOUS
 10
9.4169110104
 20
-22.9628920777
 11
9.4169110104
 21
-22.2271520453
  0
LINE
  5
2CA
100
AcDbEntity
  8
26814000
100
AcDbLine
 62
7
  6
CONTINUOUS
 10
9.4169110104
 20
22.5466673514
 11
9.4169110104
 21
23.2824073839
  0
LINE
  5
2CB
100
AcDbEntity
  8
26814000
100
AcDbLine
 62
7
  6
CONTINUOUS
 10
9.4256377551
 20
-22.2402423469
 11
9.4256377551
 21
-24.2402423469
  0
LINE
  5
2CC
100
AcDbEntity
  8
26814000
100
AcDbLine
 62
7
  6
CONTINUOUS
 10
9.4256377551
 20
22.5597576531
 11
9.4256377551
 21
24.5597576531
  0
LINE
  5
2CD
100
AcDbEntity
  8
26814000
100
AcDbLine
 62
253
  6
CONTINUOUS
 10
9.6256377551
 20
22.5597576531
 11
9.6256377551
 21
22.5379404836
  0
LINE
  5
2CE
100
AcDbEntity
  8
26814000
100
AcDbLine
 62
253
  6
CONTINUOUS
 10
9.6256377551
 20
-22.2184251775
 11
9.6256377551
 21
-22.2402423469
  0
LWPOLYLINE
  5
2CF
100
AcDbEntity
  8
290140000
100
AcDbPolyline
 62
253
  6
CONTINUOUS
 90
12
 70
0
 10
9.7516422042
 20
17.3607506897
 10
9.7471526668
 20
14.0245579088
 10
9.7436606114
 20
10.6830953687
 10
9.7411658447
 20
7.3359344932
 10
9.73966856
 20
3.9835038584
 10
9.7391693379
 20
0.6270891928
 10
9.7396685665
 20
-2.7333117063
 10
9.7411658576
 20
-6.0976966362
 10
9.7436606273
 20
-9.4647732607
 10
9.7471526809
 20
-12.834110801
 10
9.751642213
 20
-16.2061400359
 10
9.7572626658
 20
-19.6302487097
  0
LWPOLYLINE
  5
2D0
100
AcDbEntity
  8
290140000
100
AcDbPolyline
 62
253
  6
CONTINUOUS
 90
12
 70
0
 10
8.9575383426
 20
20.9299780939
 10
8.9519163357
 20
17.4876276986
 10
8.947426793
 20
14.1423667845
 10
8.943934736
 20
10.7913995288
 10
8.9414399738
 20
7.4351528801
 10
8.9399426973
 20
4.0740543776
 10
8.939443478
 20
0.7085320951
 10
8.9399426971
 20
-2.6609852059
 10
8.9414399736
 20
-6.0340682555
 10
8.9439347357
 20
-9.4102874538
 10
8.9474267928
 20
-12.7892127187
 10
8.9519163355
 20
-16.1704135403
  0
LINE
  5
2D1
100
AcDbEntity
  8
26814000
100
AcDbLine
 62
7
  6
CONTINUOUS
 10
9.4118204093
 20
-23.4680735633
 11
9.4169110104
 21
-22.9628920777
  0
LINE
  5
2D2
100
AcDbEntity
  8
26814000
100
AcDbLine
 62
7
  6
CONTINUOUS
 10
-11.7612636662
 20
-24.2271437682
 11
-11.7743622449
 21
-24.2402423469
  0
LINE
  5
2D3
100
AcDbEntity
  8
26814000
100
AcDbLine
 62
7
  6
CONTINUOUS
 10
-11.7612636662
 20
24.5466590743
 11
-11.7743622449
 21
24.5597576531
  0
LWPOLYLINE
  5
2D4
100
AcDbEntity
  8
290140000
100
AcDbPolyline
 62
253
  6
CONTINUOUS
 90
4
 70
0
 10
9.7749375232
 20
21.269403398
 10
9.7705031968
 20
21.3527191478
 10
9.7573632403
 20
21.4350990633
 10
9.7343920074
 20
21.5194944095
  0
LWPOLYLINE
  5
2D5
100
AcDbEntity
  8
26814000
100
AcDbPolyline
 62
7
  6
CONTINUOUS
 90
31
 70
0
 10
9.9756377551
 20
22.2097443256
 10
9.9751581161
 20
22.2280621599
 10
9.9737205107
 20
22.2463298082
 10
9.971328875
 20
22.264497206
 10
9.96798976
 20
22.2825145655
 10
9.9637123133
 20
22.300332505
 10
9.9585082532
 20
22.317902184
 10
9.9523918384
 20
22.3351754495
 10
9.9453798284
 20
22.3521049599
 10
9.9374914367
 20
22.368644307
 10
9.9287482791
 20
22.3847481601
 10
9.9191743151
 20
22.4003723813
 10
9.9087957808
 20
22.4154741378
 10
9.8976411179
 20
22.4300120374
 10
9.8857408962
 20
22.4439462328
 10
9.8731277294
 20
22.4572385219
 10
9.8598361851
 20
22.4698524704
 10
9.8459026911
 20
22.4817535032
 10
9.831365436
 20
22.4929089904
 10
9.8162642625
 20
22.503288353
 10
9.8006405596
 20
22.51286314
 10
9.7845371502
 20
22.5216070979
 10
9.7679981713
 20
22.5294962565
 10
9.751068954
 20
22.5365089896
 10
9.7337959003
 20
22.5426260676
 10
9.7162263547
 20
22.5478307193
 10
9.6984084741
 20
22.5521086762
 10
9.6803910961
 20
22.5554482057
 10
9.662223606
 20
22.5578401493
 10
9.6439558015
 20
22.5592779469
 10
9.6256377551
 20
22.5597576531
  0
LINE
  5
2D6
100
AcDbEntity
  8
290140000
100
AcDbLine
 62
7
  6
CONTINUOUS
 10
9.9256377551
 20
-21.0522013104
 11
9.9256377551
 21
20.8177157612
  0
LINE
  5
2D7
100
AcDbEntity
  8
26814000
100
AcDbLine
 62
7
  6
CONTINUOUS
 10
9.9756377551
 20
22.1879271561
 11
9.9756377551
 21
-21.86841185
  0
LWPOLYLINE
  5
2D8
100
AcDbEntity
  8
26814000
100
AcDbPolyline
 62
7
  6
CONTINUOUS
 90
31
 70
0
 10
9.9756377551
 20
-21.8902290195
 10
9.9751581161
 20
-21.9085468538
 10
9.9737205107
 20
-21.9268145021
 10
9.971328875
 20
-21.9449818999
 10
9.96798976
 20
-21.9629992594
 10
9.9637123133
 20
-21.9808171989
 10
9.9585082532
 20
-21.9983868779
 10
9.9523918384
 20
-22.0156601434
 10
9.9453798284
 20
-22.0325896537
 10
9.9374914367
 20
-22.0491290009
 10
9.9287482791
 20
-22.065232854
 10
9.9191743151
 20
-22.0808570751
 10
9.9087957808
 20
-22.0959588317
 10
9.8976411179
 20
-22.1104967313
 10
9.8857408962
 20
-22.1244309267
 10
9.8731277294
 20
-22.1377232158
 10
9.8598361851
 20
-22.1503371643
 10
9.8459026911
 20
-22.1622381971
 10
9.831365436
 20
-22.1733936843
 10
9.8162642625
 20
-22.1837730469
 10
9.8006405596
 20
-22.1933478339
 10
9.7845371502
 20
-22.2020917917
 10
9.7679981713
 20
-22.2099809504
 10
9.751068954
 20
-22.2169936835
 10
9.7337959003
 20
-22.2231107614
 10
9.7162263547
 20
-22.2283154132
 10
9.6984084741
 20
-22.23259337
 10
9.6803910961
 20
-22.2359328996
 10
9.662223606
 20
-22.2383248432
 10
9.6439558015
 20
-22.2397626408
 10
9.6256377551
 20
-22.2402423469
  0
LWPOLYLINE
  5
2D9
100
AcDbEntity
  8
290140000
100
AcDbPolyline
 62
253
  6
CONTINUOUS
 90
16
 70
0
 10
9.7749375232
 20
-20.3007643129
 10
9.7705031026
 20
-20.3836478017
 10
9.7573628962
 20
-20.4656479551
 10
9.7356607452
 20
-20.5458671453
 10
9.7056342158
 20
-20.6234272399
 10
9.6676119982
 20
-20.697479215
 10
9.6220103088
 20
-20.7672124485
 10
9.5693283337
 20
-20.8318635945
 10
9.5101427648
 20
-20.8907249387
 10
9.4451014863
 20
-20.943152146
 10
9.3749164832
 20
-20.9885713135
 10
9.3003560468
 20
-21.0264852529
 10
9.222236365
 20
-21.0564789331
 10
9.1414125875
 20
-21.0782240236
 10
9.0587694649
 20
-21.0914824882
 10
8.9752116632
 20
-21.096109191
  0
LINE
  5
2DA
100
AcDbEntity
  8
26814000
100
AcDbLine
 62
7
  6
CONTINUOUS
 10
-5.5702796101
 20
-23.6361597121
 11
-5.5743622449
 21
-23.6402423469
  0
LWPOLYLINE
  5
2DB
100
AcDbEntity
  8
290140000
100
AcDbPolyline
 62
253
  6
CONTINUOUS
 90
15
 70
0
 10
-12.1058537136
 20
-19.5808609652
 10
-12.0994693055
 20
-19.5778355721
 10
-12.0846792958
 20
-19.5748654262
 10
-12.0616403873
 20
-19.571981997
 10
-12.0305966816
 20
-19.5692158349
 10
-11.9918770927
 20
-19.5665962479
 10
-11.9458918617
 20
-19.5641509909
 10
-11.893128211
 20
-19.561905972
 10
-11.8341451812
 20
-19.5598849776
 10
-11.7695677087
 20
-19.5581094205
 10
-11.7000800039
 20
-19.5565981129
 10
-11.626418302
 20
-19.5553670676
 10
-11.5493630627
 20
-19.5544293279
 10
-11.4697307007
 20
-19.5537948293
 10
-11.3883649358
 20
-19.5534702944
  0
LINE
  5
2DC
100
AcDbEntity
  8
26814000
100
AcDbLine
 62
7
  6
CONTINUOUS
 10
-5.5702796101
 20
23.9556750182
 11
-5.5743622449
 21
23.9597576531
  0
LWPOLYLINE
  5
2DD
100
AcDbEntity
  8
290140000
100
AcDbPolyline
 62
7
  6
CONTINUOUS
 90
24
 70
0
 10
9.7343886874
 20
21.5194933045
 10
9.7269844382
 20
21.54078155
 10
9.7130791469
 20
21.5764036171
 10
9.6971393772
 20
21.6120976987
 10
9.6791418265
 20
21.6476209788
 10
9.6589542696
 20
21.6829617989
 10
9.6366709459
 20
21.7177252425
 10
9.6123445739
 20
21.7516735715
 10
9.5858986075
 20
21.7847675605
 10
9.5572819283
 20
21.8169082318
 10
9.5264814973
 20
21.8479440384
 10
9.4935217805
 20
21.877690971
 10
9.4584170546
 20
21.9059830675
 10
9.4212050996
 20
21.9326401728
 10
9.3819384137
 20
21.9574791254
 10
9.3406729333
 20
21.9803210519
 10
9.2974946961
 20
22.0009766573
 10
9.2525006636
 20
22.0192601377
 10
9.2057858667
 20
22.034992505
 10
9.1574840709
 20
22.0479871508
 10
9.1077490935
 20
22.0580617478
 10
9.0567319927
 20
22.0650427836
 10
9.0046172216
 20
22.0687588085
 10
8.9737682739
 20
22.0693533514
  0
LINE
  5
2DE
100
AcDbEntity
  8
290140000
100
AcDbLine
 62
253
  6
CONTINUOUS
 10
9.9256377551
 20
20.8177157612
 11
9.7749375232
 21
21.269403398
  0
LINE
  5
2DF
100
AcDbEntity
  8
290140000
100
AcDbLine
 62
7
  6
CONTINUOUS
 10
9.8849306861
 20
21.0682928204
 11
9.7340888752
 21
21.5204048061
  0
LINE
  5
2E0
100
AcDbEntity
  8
26814000
100
AcDbLine
 62
7
  6
CONTINUOUS
 10
7.1343644998
 20
-22.2271520453
 11
7.1256377551
 21
-22.2402423469
  0
LINE
  5
2E1
100
AcDbEntity
  8
26814000
100
AcDbLine
 62
7
  6
CONTINUOUS
 10
7.1256377551
 20
22.5597576531
 11
7.1343644998
 21
22.5466673514
  0
LWPOLYLINE
  5
2E2
100
AcDbEntity
  8
290140000
100
AcDbPolyline
 62
253
  6
CONTINUOUS
 90
16
 70
0
 10
9.7571292238
 20
20.6916737114
 10
9.7507448169
 20
20.7057720694
 10
9.7359548081
 20
20.7196978598
 10
9.7129159004
 20
20.7333035362
 10
9.6818721953
 20
20.7464449441
 10
9.6431526068
 20
20.7589828476
 10
9.5971673761
 20
20.7707844053
 10
9.5444037254
 20
20.7817245776
 10
9.4854206955
 20
20.7916874512
 10
9.4208432227
 20
20.8005674676
 10
9.3513555175
 20
20.8082705413
 10
9.2776938151
 20
20.8147150569
 10
9.2006385752
 20
20.8198327336
 10
9.1210062125
 20
20.8235693488
 10
9.0396404468
 20
20.8258853122
 10
8.9574033638
 20
20.8267560857
  0
LINE
  5
2E3
100
AcDbEntity
  8
26814000
100
AcDbLine
 62
7
  6
CONTINUOUS
 10
-12.3243622449
 20
20.1134064016
 11
-12.2743622449
 21
20.1134064016
  0
LINE
  5
2E4
100
AcDbEntity
  8
26814000
100
AcDbLine
 62
7
  6
CONTINUOUS
 10
9.9256377551
 20
20.1134064016
 11
9.9756377551
 21
20.1134064016
  0
LINE
  5
2E5
100
AcDbEntity
  8
290140000
100
AcDbLine
 62
253
  6
CONTINUOUS
 10
8.9574033638
 20
20.8267560904
 11
-11.3061278536
 21
20.8267560904
  0
LWPOLYLINE
  5
2E6
100
AcDbEntity
  8
290140000
100
AcDbPolyline
 62
253
  6
CONTINUOUS
 90
22
 70
0
 10
9.7749375232
 20
21.269403398
 10
9.7736466139
 20
21.2715212134
 10
9.772375121
 20
21.2702184501
 10
9.7711230445
 20
21.2654951081
 10
9.7698838529
 20
21.2572968024
 10
9.7686640776
 20
21.245677918
 10
9.7674833129
 20
21.23080161
 10
9.7663425862
 20
21.2126158534
 10
9.76524087
 20
21.1911726733
 10
9.7641946754
 20
21.1667912998
 10
9.7632049888
 20
21.1394323647
 10
9.7622708238
 20
21.1091352363
 10
9.7614057321
 20
21.0763372486
 10
9.7606105721
 20
21.040993297
 10
9.7598844853
 20
21.0031484862
 10
9.7592384485
 20
20.9633754648
 10
9.7586737501
 20
20.9216323935
 10
9.7581891015
 20
20.8779611116
 10
9.7577916135
 20
20.8330597858
 10
9.7574836563
 20
20.7871611383
 10
9.7572628598
 20
20.7400324468
 10
9.7516422042
 20
17.3607506897
  0
LINE
  5
2E7
100
AcDbEntity
  8
26814000
100
AcDbLine
 62
7
  6
CONTINUOUS
 10
7.1387363338
 20
-24.2271437682
 11
7.1256377551
 21
-24.2402423469
  0
LWPOLYLINE
  5
2E8
100
AcDbEntity
  8
290140000
100
AcDbPolyline
 62
7
  6
CONTINUOUS
 90
24
 70
0
 10
-11.3224927732
 20
22.0693533512
 10
-11.3525945653
 20
22.0687872711
 10
-11.4043622135
 20
22.0651560451
 10
-11.4550561959
 20
22.0583010598
 10
-11.5044946039
 20
22.0483892977
 10
-11.5525267822
 20
22.0355903952
 10
-11.5990011829
 20
22.0200824367
 10
-11.6437857973
 20
22.0020477543
 10
-11.6867847175
 20
21.9816622607
 10
-11.7279018732
 20
21.959108036
 10
-11.7670519095
 20
21.934570591
 10
-11.8041774679
 20
21.9082264751
 10
-11.8392261864
 20
21.8802555875
 10
-11.872159973
 20
21.8508350602
 10
-11.9029624564
 20
21.8201297092
 10
-11.9316113384
 20
21.7883177924
 10
-11.9581159622
 20
21.755551517
 10
-11.9825183469
 20
21.721940468
 10
-12.0048854877
 20
21.6875418388
 10
-12.0251778903
 20
21.6525751901
 10
-12.0433210639
 20
21.6173904944
 10
-12.0594394559
 20
21.5820024852
 10
-12.0735519105
 20
21.5466464742
 10
-12.0829502987
 20
21.5199829084
  0
LINE
  5
2E9
100
AcDbEntity
  8
26814000
100
AcDbLine
 62
7
  6
CONTINUOUS
 10
-12.3243622449
 20
22.018555408
 11
-11.6027931759
 21
22.018555408
  0
LINE
  5
2EA
100
AcDbEntity
  8
26814000
100
AcDbLine
 62
7
  6
CONTINUOUS
 10
9.2542349411
 20
22.018555408
 11
9.9756377551
 21
22.018555408
  0
LINE
  5
2EB
100
AcDbEntity
  8
290140000
100
AcDbLine
 62
7
  6
CONTINUOUS
 10
8.9737873043
 20
22.0693722755
 11
-11.322511794
 21
22.0693722755
  0
LINE
  5
2EC
100
AcDbEntity
  8
26814000
100
AcDbLine
 62
7
  6
CONTINUOUS
 10
-12.3243622449
 20
22.1597576531
 11
9.9756377551
 21
22.1597576531
  0
LINE
  5
2ED
100
AcDbEntity
  8
26814000
100
AcDbLine
 62
7
  6
CONTINUOUS
 10
9.6256377551
 20
22.5379404836
 11
-11.9743622449
 21
22.5379404836
  0
LINE
  5
2EE
100
AcDbEntity
  8
26814000
100
AcDbLine
 62
7
  6
CONTINUOUS
 10
9.4169110104
 20
22.5466673514
 11
7.1343644998
 21
22.5466673514
  0
LINE
  5
2EF
100
AcDbEntity
  8
26814000
100
AcDbLine
 62
7
  6
CONTINUOUS
 10
-9.4830889896
 20
22.5466673514
 11
-11.7656355002
 21
22.5466673514
  0
LINE
  5
2F0
100
AcDbEntity
  8
26814000
100
AcDbLine
 62
7
  6
CONTINUOUS
 10
-5.270284687
 20
22.5510307853
 11
2.9215601972
 21
22.5510307853
  0
LINE
  5
2F1
100
AcDbEntity
  8
26814000
100
AcDbLine
 62
7
  6
CONTINUOUS
 10
-11.9743622449
 20
22.5597576531
 11
-11.7743622449
 21
22.5597576531
  0
LINE
  5
2F2
100
AcDbEntity
  8
26814000
100
AcDbLine
 62
7
  6
CONTINUOUS
 10
-9.4743622449
 20
22.5597576531
 11
-5.5743622449
 21
22.5597576531
  0
LINE
  5
2F3
100
AcDbEntity
  8
26814000
100
AcDbLine
 62
7
  6
CONTINUOUS
 10
3.2256377551
 20
22.5597576531
 11
7.1256377551
 21
22.5597576531
  0
LINE
  5
2F4
100
AcDbEntity
  8
26814000
100
AcDbLine
 62
7
  6
CONTINUOUS
 10
9.4256377551
 20
22.5597576531
 11
9.6256377551
 21
22.5597576531
  0
LINE
  5
2F5
100
AcDbEntity
  8
26814000
100
AcDbLine
 62
7
  6
CONTINUOUS
 10
9.4169110104
 20
23.2824073839
 11
7.1343644998
 21
23.2824073839
  0
LINE
  5
2F6
100
AcDbEntity
  8
26814000
100
AcDbLine
 62
7
  6
CONTINUOUS
 10
-9.4830889896
 20
23.2824073839
 11
-11.7656355002
 21
23.2824073839
  0
LINE
  5
2F7
100
AcDbEntity
  8
26814000
100
AcDbLine
 62
7
  6
CONTINUOUS
 10
7.1387363338
 20
24.5466590743
 11
7.1256377551
 21
24.5597576531
  0
LINE
  5
2F8
100
AcDbEntity
  8
26814000
100
AcDbLine
 62
253
  6
CONTINUOUS
 10
-11.7605448991
 20
23.7875888694
 11
-9.4881795907
 21
23.7875888694
  0
LINE
  5
2F9
100
AcDbEntity
  8
26814000
100
AcDbLine
 62
253
  6
CONTINUOUS
 10
7.1394551009
 20
23.7875888694
 11
9.4118204093
 21
23.7875888694
  0
LINE
  5
2FA
100
AcDbEntity
  8
26814000
100
AcDbLine
 62
7
  6
CONTINUOUS
 10
-5.270284687
 20
23.9539398233
 11
2.9215601972
 21
23.9539398233
  0
LINE
  5
2FB
100
AcDbEntity
  8
26814000
100
AcDbLine
 62
7
  6
CONTINUOUS
 10
-5.5743622449
 20
23.9597576531
 11
3.2256377551
 21
23.9597576531
  0
LINE
  5
2FC
100
AcDbEntity
  8
26814000
100
AcDbLine
 62
253
  6
CONTINUOUS
 10
-11.7598176704
 20
24.0040952204
 11
-9.4889068194
 21
24.0040952204
  0
LINE
  5
2FD
100
AcDbEntity
  8
26814000
100
AcDbLine
 62
253
  6
CONTINUOUS
 10
7.1401823296
 20
24.0040952204
 11
9.4110931806
 21
24.0040952204
  0
LINE
  5
2FE
100
AcDbEntity
  8
26814000
100
AcDbLine
 62
253
  6
CONTINUOUS
 10
9.4110931806
 20
24.2966633051
 11
7.1401823296
 21
24.2966633051
  0
LINE
  5
2FF
100
AcDbEntity
  8
26814000
100
AcDbLine
 62
253
  6
CONTINUOUS
 10
-9.4889068194
 20
24.2966633051
 11
-11.7598176704
 21
24.2966633051
  0
LINE
  5
300
100
AcDbEntity
  8
26814000
100
AcDbLine
 62
253
  6
CONTINUOUS
 10
9.4125391764
 20
24.5466590743
 11
7.1387363338
 21
24.5466590743
  0
LINE
  5
301
100
AcDbEntity
  8
26814000
100
AcDbLine
 62
253
  6
CONTINUOUS
 10
-9.4874608236
 20
24.5466590743
 11
-11.7612636662
 21
24.5466590743
  0
LINE
  5
302
100
AcDbEntity
  8
26814000
100
AcDbLine
 62
7
  6
CONTINUOUS
 10
-11.7743622449
 20
24.5597576531
 11
-9.4743622449
 21
24.5597576531
  0
LINE
  5
303
100
AcDbEntity
  8
26814000
100
AcDbLine
 62
7
  6
CONTINUOUS
 10
7.1256377551
 20
24.5597576531
 11
9.4256377551
 21
24.5597576531
  0
LINE
  5
304
100
AcDbEntity
  8
26814000
100
AcDbLine
 62
7
  6
CONTINUOUS
 10
-48.6922126576
 20
23.7875888694
 11
-49.4422126576
 21
23.3545761675
  0
LINE
  5
305
100
AcDbEntity
  8
26814000
100
AcDbLine
 62
7
  6
CONTINUOUS
 10
-49.5672126576
 20
-24.2402423469
 11
-48.8157582248
 21
-24.2358705129
  0
LINE
  5
306
100
AcDbEntity
  8
26814000
100
AcDbLine
 62
7
  6
CONTINUOUS
 10
-41.5672126576
 20
-23.5936997085
 11
-48.5723089798
 21
-23.6344541667
  0
LINE
  5
307
100
AcDbEntity
  8
26814000
100
AcDbLine
 62
7
  6
CONTINUOUS
 10
-51.8186670905
 20
-24.2271437682
 11
-49.5672126576
 21
-24.2402423469
  0
LINE
  5
308
100
AcDbEntity
  8
28414000
100
AcDbLine
 62
7
  6
CONTINUOUS
 10
-54.8688904303
 20
-21.454813704
 11
-54.3716294826
 21
-21.5070779356
  0
LINE
  5
309
100
AcDbEntity
  8
290140000
100
AcDbLine
 62
7
  6
CONTINUOUS
 10
-61.623407221
 20
-21.096109191
 11
-55.9156765573
 21
-21.8475461884
  0
LINE
  5
30A
100
AcDbEntity
  8
290140000
100
AcDbLine
 62
253
  6
CONTINUOUS
 10
-61.5398131059
 20
-20.3007643129
 11
-55.8320824421
 21
-21.0522013104
  0
LINE
  5
30B
100
AcDbEntity
  8
26814000
100
AcDbLine
 62
7
  6
CONTINUOUS
 10
-49.4422126576
 20
-23.0350608614
 11
-48.6922126576
 21
-23.4680735633
  0
LINE
  5
30C
100
AcDbEntity
  8
26814000
100
AcDbLine
 62
7
  6
CONTINUOUS
 10
-50.9172126576
 20
-21.6990401019
 11
-52.0672126576
 21
-21.8402423469
  0
LINE
  5
30D
100
AcDbEntity
  8
0
100
AcDbLine
 62
7
  6
CONTINUOUS
 10
-38.5672126576
 20
-20.5156916977
 11
-48.5672126576
 21
-20.6902423469
  0
LINE
  5
30E
100
AcDbEntity
  8
21814000
100
AcDbLine
 62
7
  6
CONTINUOUS
 10
-38.5672126576
 20
-20.5156916977
 11
-48.5672126576
 21
-20.6902423469
  0
LINE
  5
30F
100
AcDbEntity
  8
26814000
100
AcDbLine
 62
7
  6
CONTINUOUS
 10
-49.5672126576
 20
-22.2402423469
 11
-39.5584861221
 21
-22.1528975137
  0
LINE
  5
310
100
AcDbEntity
  8
26814000
100
AcDbLine
 62
253
  6
CONTINUOUS
 10
-48.5672126576
 20
-22.14363609
 11
-39.1493540964
 21
-22.0614476835
  0
LINE
  5
311
100
AcDbEntity
  8
26814000
100
AcDbLine
 62
253
  6
CONTINUOUS
 10
-49.5672126576
 20
-21.8902290195
 11
-48.5672126576
 21
-21.8815021517
  0
LINE
  5
312
100
AcDbEntity
  8
26814000
100
AcDbLine
 62
253
  6
CONTINUOUS
 10
-48.5672126576
 20
-21.0402423469
 11
-38.8619769357
 21
-21.0402423469
  0
LINE
  5
313
100
AcDbEntity
  8
26814000
100
AcDbLine
 62
7
  6
CONTINUOUS
 10
-48.5672126576
 20
-20.7402423469
 11
-38.5672126576
 21
-20.7402423469
  0
LINE
  5
314
100
AcDbEntity
  8
26814000
100
AcDbLine
 62
7
  6
CONTINUOUS
 10
-52.0672126576
 20
-22.2184251775
 11
-49.5672126576
 21
-22.2402423469
  0
LINE
  5
315
100
AcDbEntity
  8
26814000
100
AcDbLine
 62
253
  6
CONTINUOUS
 10
-52.0672126576
 20
-21.86841185
 11
-49.5672126576
 21
-21.8902290195
  0
LINE
  5
316
100
AcDbEntity
  8
26814000
100
AcDbLine
 62
253
  6
CONTINUOUS
 10
-48.5672126576
 20
-21.328156011
 11
-38.6513789825
 21
-21.5012375316
  0
LINE
  5
317
100
AcDbEntity
  8
26814000
100
AcDbLine
 62
253
  6
CONTINUOUS
 10
-48.5672126576
 20
-21.1159325868
 11
-38.8619769357
 21
-21.2853381064
  0
LINE
  5
318
100
AcDbEntity
  8
28414000
100
AcDbLine
 62
7
  6
CONTINUOUS
 10
-55.7484310161
 20
-20.2563111558
 11
-55.1520831247
 21
-20.3189898449
  0
LINE
  5
319
100
AcDbEntity
  8
28414000
100
AcDbLine
 62
7
  6
CONTINUOUS
 10
-55.0046017005
 20
-19.2113484239
 11
-55.6229968601
 21
-19.0628848814
  0
LWPOLYLINE
  5
31A
100
AcDbEntity
  8
290140000
100
AcDbPolyline
 62
253
  6
CONTINUOUS
 90
22
 70
0
 10
-62.1479657554
 20
-19.5808609652
 10
-62.1480326031
 20
-19.6302487097
 10
-62.1446982683
 20
-19.6791091568
 10
-62.137962751
 20
-19.7274423063
 10
-62.1277611794
 20
-19.7755021226
 10
-62.1141584254
 20
-19.8230346414
 10
-62.0973491041
 20
-19.8692779703
 10
-62.0772826242
 20
-19.9141961056
 10
-62.054009577
 20
-19.957825051
 10
-62.0278763517
 20
-19.9995109253
 10
-61.9988450017
 20
-20.0392183936
 10
-61.9669534735
 20
-20.0769827908
 10
-61.9326619965
 20
-20.1122562408
 10
-61.8959266653
 20
-20.145008698
 10
-61.8567913852
 20
-20.1752702081
 10
-61.8158481015
 20
-20.2025830318
 10
-61.7730567627
 20
-20.2269004328
 10
-61.7284574202
 20
-20.2482691474
 10
-61.6827621734
 20
-20.2663716457
 10
-61.6362083886
 20
-20.2811020844
 10
-61.5885586994
 20
-20.2925663068
 10
-61.5398131059
 20
-20.3007643129
  0
LINE
  5
31B
100
AcDbEntity
  8
0
100
AcDbLine
 62
7
  6
CONTINUOUS
 10
-27.7515054918
 20
-19.262432645
 11
-38.5672126576
 21
-19.4512215158
  0
LINE
  5
31C
100
AcDbEntity
  8
21814000
100
AcDbLine
 62
7
  6
CONTINUOUS
 10
-27.7515054918
 20
-19.262432645
 11
-38.5672126576
 21
-19.4512215158
  0
LINE
  5
31D
100
AcDbEntity
  8
0
100
AcDbLine
 62
253
  6
CONTINUOUS
 10
-27.7515054918
 20
-18.669108946
 11
-48.5672126576
 21
-18.9260287846
  0
LINE
  5
31E
100
AcDbEntity
  8
21814000
100
AcDbLine
 62
253
  6
CONTINUOUS
 10
-27.7515054918
 20
-18.669108946
 11
-48.5672126576
 21
-18.9260287846
  0
LINE
  5
31F
100
AcDbEntity
  8
26814000
100
AcDbLine
 62
7
  6
CONTINUOUS
 10
-51.1102121064
 20
-18.2220367238
 11
-55.5265179973
 21
-18.1449498178
  0
LWPOLYLINE
  5
320
100
AcDbEntity
  8
290140000
100
AcDbPolyline
 62
253
  6
CONTINUOUS
 90
3
 70
0
 10
-62.9096693622
 20
-19.5537954075
 10
-62.9223350001
 20
-19.5534708824
 10
-62.926575407
 20
-19.5534597523
  0
LINE
  5
321
100
AcDbEntity
  8
290140000
100
AcDbLine
 62
253
  6
CONTINUOUS
 10
-62.8596870097
 20
-19.5553676052
 11
-62.9096693622
 21
-19.5537954075
  0
LINE
  5
322
100
AcDbEntity
  8
290140000
100
AcDbLine
 62
253
  6
CONTINUOUS
 10
-62.7787409991
 20
-19.5581098916
 11
-62.8596870097
 21
-19.5553676052
  0
LINE
  5
323
100
AcDbEntity
  8
290140000
100
AcDbLine
 62
253
  6
CONTINUOUS
 10
-62.6070727986
 20
-19.5641513237
 11
-62.7787409991
 21
-19.5581098916
  0
LINE
  5
324
100
AcDbEntity
  8
290140000
100
AcDbLine
 62
253
  6
CONTINUOUS
 10
-62.3109584628
 20
-19.5748655365
 11
-62.6070727986
 21
-19.5641513237
  0
LINE
  5
325
100
AcDbEntity
  8
290140000
100
AcDbLine
 62
253
  6
CONTINUOUS
 10
-62.1479657554
 20
-19.5808609652
 11
-62.3109584628
 21
-19.5748655365
  0
LWPOLYLINE
  5
326
100
AcDbEntity
  8
290140000
100
AcDbPolyline
 62
253
  6
CONTINUOUS
 90
13
 70
0
 10
-57.915151796
 20
20.6916737114
 10
-58.4759409458
 20
17.3607506897
 10
-58.9989818419
 20
14.0245579088
 10
-59.4842744841
 20
10.6830953687
 10
-59.931871347
 20
7.3359344932
 10
-60.341719956
 20
3.9835038584
 10
-60.7136628882
 20
0.6270891928
 10
-61.0476854714
 20
-2.7333117063
 10
-61.3438023777
 20
-6.0976966362
 10
-61.6019002
 20
-9.4647732607
 10
-61.8219411358
 20
-12.834110801
 10
-62.0039629876
 20
-16.2061400359
 10
-62.1479657554
 20
-19.5808609652
  0
LWPOLYLINE
  5
327
100
AcDbEntity
  8
INCISIONI_LASER
100
AcDbPolyline
 62
253
  6
CONTINUOUS
 90
17
 70
0
 10
-34.5672126576
 20
-15.8898216729
 10
-34.1303336256
 20
-15.8469787841
 10
-33.7100951803
 20
-15.7200819901
 10
-33.3225040733
 20
-15.5139647502
 10
-32.9767621316
 20
-15.2309351432
 10
-32.6981318887
 20
-14.8916734627
 10
-32.4906943516
 20
-14.5047451599
 10
-32.3623507516
 20
-14.0848882135
 10
-32.3179759535
 20
-13.6402423469
 10
-32.3608123171
 20
-13.203296766
 10
-32.4876897841
 20
-12.7829943066
 10
-32.6937756313
 20
-12.3953441586
 10
-32.9767621316
 20
-12.0495495507
 10
-33.3159721409
 20
-11.7708768646
 10
-33.7028415127
 20
-11.563407729
 10
-34.1226345128
 20
-11.4350445787
 10
-34.5672128543
 20
-11.390663021
  0
LINE
  5
328
100
AcDbEntity
  8
0
100
AcDbLine
 62
253
  6
CONTINUOUS
 10
-26.8672126576
 20
-17.6197371305
 11
-26.8721120314
 21
-17.6197371307
  0
LINE
  5
329
100
AcDbEntity
  8
21814000
100
AcDbLine
 62
253
  6
CONTINUOUS
 10
-26.8672126576
 20
-17.6197371305
 11
-26.8721120314
 21
-17.6197371307
  0
LINE
  5
32A
100
AcDbEntity
  8
0
100
AcDbLine
 62
253
  6
CONTINUOUS
 10
-26.8713646263
 20
-17.5118152222
 11
-48.5672126576
 21
-17.5118152222
  0
LINE
  5
32B
100
AcDbEntity
  8
21814000
100
AcDbLine
 62
253
  6
CONTINUOUS
 10
-26.8713646263
 20
-17.5118152222
 11
-48.5672126576
 21
-17.5118152222
  0
LINE
  5
32C
100
AcDbEntity
  8
0
100
AcDbLine
 62
253
  6
CONTINUOUS
 10
-26.8727332692
 20
-17.6211956893
 11
-26.8721303837
 21
-17.621201671
  0
LINE
  5
32D
100
AcDbEntity
  8
21814000
100
AcDbLine
 62
253
  6
CONTINUOUS
 10
-26.8727332692
 20
-17.6211956893
 11
-26.8721303837
 21
-17.621201671
  0
LINE
  5
32E
100
AcDbEntity
  8
26814000
100
AcDbLine
 62
253
  6
CONTINUOUS
 10
-51.2332416451
 20
-17.2200415401
 11
-55.4216222118
 21
-17.1469330854
  0
LWPOLYLINE
  5
32F
100
AcDbEntity
  8
290140000
100
AcDbPolyline
 62
253
  6
CONTINUOUS
 90
16
 70
0
 10
-57.1706124187
 20
21.269403398
 10
-57.1639388937
 20
21.3527191478
 10
-57.1571104286
 20
21.4350990633
 10
-57.1502017702
 20
21.5156413687
 10
-57.1432885439
 20
21.5934643988
 10
-57.1364464259
 20
21.6677162421
 10
-57.1297503151
 20
21.7375840686
 10
-57.1232735119
 20
21.802303043
 10
-57.1170869171
 20
21.8611646799
 10
-57.1112582563
 20
21.9135245983
 10
-57.1058513354
 20
21.9588096041
 10
-57.1009253446
 20
21.9965239431
 10
-57.0965342115
 20
22.0262547243
 10
-57.0927260069
 20
22.0476764662
 10
-57.0895424194
 20
22.0605546498
 10
-57.0870183011
 20
22.0647482759
  0
LWPOLYLINE
  5
330
100
AcDbEntity
  8
290140000
100
AcDbPolyline
 62
253
  6
CONTINUOUS
 90
16
 70
0
 10
-61.5398131059
 20
-20.3007643129
 10
-61.5506078429
 20
-20.3836478017
 10
-61.5610564293
 20
-20.4656479551
 10
-61.5710444878
 20
-20.5458671453
 10
-61.5804626826
 20
-20.6234272399
 10
-61.5892079159
 20
-20.697479215
 10
-61.5971844567
 20
-20.7672124485
 10
-61.6043049883
 20
-20.8318635945
 10
-61.6104915647
 20
-20.8907249387
 10
-61.6156764637
 20
-20.943152146
 10
-61.6198029278
 20
-20.9885713135
 10
-61.6228257861
 20
-21.0264852529
 10
-61.6247119485
 20
-21.0564789331
 10
-61.6254407678
 20
-21.0782240236
 10
-61.6250042659
 20
-21.0914824882
 10
-61.623407221
 20
-21.096109191
  0
LINE
  5
331
100
AcDbEntity
  8
INCISIONI_LASER
100
AcDbLine
 62
253
  6
CONTINUOUS
 10
-43.0672126576
 20
16.1597576531
 11
-45.9663303565
 21
15.1516926531
  0
LINE
  5
332
100
AcDbEntity
  8
INCISIONI_LASER
100
AcDbLine
 62
253
  6
CONTINUOUS
 10
-43.6816644469
 20
15.3243416531
 11
-43.0672126576
 21
15.5333316531
  0
LINE
  5
333
100
AcDbEntity
  8
INCISIONI_LASER
100
AcDbLine
 62
253
  6
CONTINUOUS
 10
-45.4121751961
 20
14.7662066531
 11
-44.1634506566
 21
15.1676266531
  0
LINE
  5
334
100
AcDbEntity
  8
28414000
100
AcDbLine
 62
7
  6
CONTINUOUS
 10
-55.1520831247
 20
-20.3189898449
 11
-54.8688904303
 21
-21.454813704
  0
LINE
  5
335
100
AcDbEntity
  8
0
100
AcDbLine
 62
253
  6
CONTINUOUS
 10
-41.5682787915
 20
14.1883292111
 11
-39.6685681707
 21
14.7311860951
  0
LWPOLYLINE
  5
336
100
AcDbEntity
  8
INCISIONI_LASER
100
AcDbPolyline
 62
253
  6
CONTINUOUS
 90
17
 70
0
 10
-34.5672126576
 20
-11.390663021
 10
-35.0040916896
 20
-11.4335059098
 10
-35.424330135
 20
-11.5604027038
 10
-35.8119212419
 20
-11.7665199437
 10
-36.1576631836
 20
-12.0495495507
 10
-36.4362934265
 20
-12.3888112312
 10
-36.6437309636
 20
-12.775739534
 10
-36.7720745636
 20
-13.1955964804
 10
-36.8164493618
 20
-13.6402423469
 10
-36.7736129982
 20
-14.0771879278
 10
-36.6467355311
 20
-14.4974903873
 10
-36.4406496839
 20
-14.8851405353
 10
-36.1576631836
 20
-15.2309351432
 10
-35.8184531744
 20
-15.5096078292
 10
-35.4315838026
 20
-15.7170769649
 10
-35.0117908024
 20
-15.8454401152
 10
-34.567212461
 20
-15.8898216729
  0
LINE
  5
337
100
AcDbEntity
  8
INCISIONI_LASER
100
AcDbLine
 62
253
  6
CONTINUOUS
 10
-36.202120535
 20
-13.6402423469
 11
-32.9323047802
 21
-13.6402423469
  0
LINE
  5
338
100
AcDbEntity
  8
INCISIONI_LASER
100
AcDbLine
 62
253
  6
CONTINUOUS
 10
-45.9664673148
 20
-13.0112483469
 11
-43.0672126576
 21
-13.0112563469
  0
LINE
  5
339
100
AcDbEntity
  8
INCISIONI_LASER
100
AcDbLine
 62
253
  6
CONTINUOUS
 10
-43.0672196555
 20
-12.4312343469
 11
-45.9664673148
 21
-12.4312273469
  0
LINE
  5
33A
100
AcDbEntity
  8
INCISIONI_LASER
100
AcDbLine
 62
253
  6
CONTINUOUS
 10
-45.9664673148
 20
-13.9779563469
 11
-43.9701785426
 21
-14.6190813469
  0
LINE
  5
33B
100
AcDbEntity
  8
INCISIONI_LASER
100
AcDbLine
 62
253
  6
CONTINUOUS
 10
-43.0672196555
 20
-14.3290663469
 11
-45.9664673148
 21
-13.3979273469
  0
LWPOLYLINE
  5
33C
100
AcDbEntity
  8
26814000
100
AcDbPolyline
 62
7
  6
CONTINUOUS
 90
6
 70
0
 10
-38.64874106
 20
21.8235203136
 10
-38.6461530406
 20
21.8263051501
 10
-38.6436149243
 20
21.8291073474
 10
-38.6411267111
 20
21.8319269054
 10
-38.6386884009
 20
21.8347638241
 10
-38.6362999938
 20
21.8376181035
  0
LINE
  5
33D
100
AcDbEntity
  8
26814000
100
AcDbLine
 62
7
  6
CONTINUOUS
 10
-38.64874106
 20
21.8235203136
 11
-38.6636327983
 21
21.8079577078
  0
LINE
  5
33E
100
AcDbEntity
  8
26814000
100
AcDbLine
 62
7
  6
CONTINUOUS
 10
-38.6636327983
 20
21.8079577078
 11
-38.7303690179
 21
21.7393436113
  0
LINE
  5
33F
100
AcDbEntity
  8
26814000
100
AcDbLine
 62
7
  6
CONTINUOUS
 10
-38.7303690179
 20
21.7393436113
 11
-38.8025296753
 21
21.6654514539
  0
LINE
  5
340
100
AcDbEntity
  8
26814000
100
AcDbLine
 62
7
  6
CONTINUOUS
 10
-38.8025296753
 20
21.6654514539
 11
-38.8619769357
 21
21.6048534126
  0
LINE
  5
341
100
AcDbEntity
  8
INCISIONI_LASER
100
AcDbLine
 62
253
  6
CONTINUOUS
 10
-45.9663303565
 20
11.3758966531
 11
-43.668916331
 21
12.4885116531
  0
LINE
  5
342
100
AcDbEntity
  8
INCISIONI_LASER
100
AcDbLine
 62
253
  6
CONTINUOUS
 10
-43.0672126576
 20
12.1873036531
 11
-45.4935773945
 21
11.0345276531
  0
LINE
  5
343
100
AcDbEntity
  8
INCISIONI_LASER
100
AcDbLine
 62
253
  6
CONTINUOUS
 10
-45.9664673148
 20
-11.8512273469
 11
-43.0672196555
 21
-11.8512273469
  0
LINE
  5
344
100
AcDbEntity
  8
INCISIONI_LASER
100
AcDbLine
 62
253
  6
CONTINUOUS
 10
-43.0672196555
 20
-11.2712053469
 11
-44.9790791515
 21
-11.2712053469
  0
LINE
  5
345
100
AcDbEntity
  8
INCISIONI_LASER
100
AcDbLine
 62
253
  6
CONTINUOUS
 10
-45.9664673148
 20
-9.8912543469
 11
-44.0783735778
 21
-10.4328223469
  0
LINE
  5
346
100
AcDbEntity
  8
26814000
100
AcDbLine
 62
7
  6
CONTINUOUS
 10
-38.8025296753
 20
-21.3459361477
 11
-38.8470922172
 21
-21.3005590935
  0
LINE
  5
347
100
AcDbEntity
  8
26814000
100
AcDbLine
 62
7
  6
CONTINUOUS
 10
-38.8470922172
 20
-21.3005590935
 11
-38.8619769357
 21
-21.2853381064
  0
LINE
  5
348
100
AcDbEntity
  8
26814000
100
AcDbLine
 62
7
  6
CONTINUOUS
 10
-38.6636327983
 20
-21.4884424017
 11
-38.7028249792
 21
-21.4481667874
  0
LINE
  5
349
100
AcDbEntity
  8
26814000
100
AcDbLine
 62
7
  6
CONTINUOUS
 10
-38.7028249792
 20
-21.4481667874
 11
-38.8025296753
 21
-21.3459361477
  0
LWPOLYLINE
  5
34A
100
AcDbEntity
  8
26814000
100
AcDbPolyline
 62
7
  6
CONTINUOUS
 90
7
 70
0
 10
-38.6636327983
 20
-21.4884424017
 10
-38.64874106
 20
-21.5040050074
 10
-38.6461530406
 20
-21.506789844
 10
-38.6436149243
 20
-21.5095920413
 10
-38.6411267111
 20
-21.5124115992
 10
-38.6386884009
 20
-21.5152485179
 10
-38.6362999938
 20
-21.5181027974
  0
LINE
  5
34B
100
AcDbEntity
  8
26814000
100
AcDbLine
 62
7
  6
CONTINUOUS
 10
-52.0672126576
 20
24.2966633051
 11
-52.0672126576
 21
24.0040952204
  0
LINE
  5
34C
100
AcDbEntity
  8
26814000
100
AcDbLine
 62
7
  6
CONTINUOUS
 10
-52.0672126576
 20
-21.8402423469
 11
-52.0672126576
 21
-22.2184251775
  0
LINE
  5
34D
100
AcDbEntity
  8
26814000
100
AcDbLine
 62
7
  6
CONTINUOUS
 10
-52.0672126576
 20
-23.6845799142
 11
-52.0672126576
 21
-23.977147999
  0
LINE
  5
34E
100
AcDbEntity
  8
26814000
100
AcDbLine
 62
7
  6
CONTINUOUS
 10
-52.0672126576
 20
22.1597576531
 11
-52.0672126576
 21
22.5379404836
  0
LINE
  5
34F
100
AcDbEntity
  8
290140000
100
AcDbLine
 62
7
  6
CONTINUOUS
 10
-55.9156765573
 20
-21.8475461884
 11
-51.3477827125
 21
21.6130606392
  0
LINE
  5
350
100
AcDbEntity
  8
28414000
100
AcDbLine
 62
7
  6
CONTINUOUS
 10
-54.3716294826
 20
-21.5070779356
 11
-54.243525169
 21
-20.2882468076
  0
LINE
  5
351
100
AcDbEntity
  8
26814000
100
AcDbLine
 62
7
  6
CONTINUOUS
 10
-50.9172126576
 20
20.1134064016
 11
-53.3672126576
 21
0.1597576531
  0
LINE
  5
352
100
AcDbEntity
  8
0
100
AcDbLine
 62
253
  6
CONTINUOUS
 10
-41.5230475323
 20
15.8169007691
 11
-41.2968915762
 21
16.0883292111
  0
LINE
  5
353
100
AcDbEntity
  8
0
100
AcDbLine
 62
253
  6
CONTINUOUS
 10
-40.6184234811
 20
15.9526145371
 11
-40.3470362658
 21
16.2240429791
  0
LINE
  5
354
100
AcDbEntity
  8
INCISIONI_LASER
100
AcDbLine
 62
7
  6
CONTINUOUS
 10
-45.8799578299
 20
10.4520826531
 11
-45.2975128299
 21
11.0345276531
  0
LINE
  5
355
100
AcDbEntity
  8
INCISIONI_LASER
100
AcDbLine
 62
7
  6
CONTINUOUS
 10
-45.1200469667
 20
11.2119935163
 11
-44.007503041
 21
12.324537442
  0
LINE
  5
356
100
AcDbEntity
  8
INCISIONI_LASER
100
AcDbLine
 62
7
  6
CONTINUOUS
 10
-43.8435288299
 20
12.4885116531
 11
-43.2610848299
 21
13.0709556531
  0
LINE
  5
357
100
AcDbEntity
  8
0
100
AcDbLine
 62
253
  6
CONTINUOUS
 10
-39.985186617
 20
12.9669003161
 11
-39.8947241977
 21
13.0121386917
  0
LINE
  5
358
100
AcDbEntity
  8
0
100
AcDbLine
 62
253
  6
CONTINUOUS
 10
-39.7590305829
 20
12.8764244707
 11
-39.8494929951
 21
12.8311860951
  0
LINE
  5
359
100
AcDbEntity
  8
0
100
AcDbLine
 62
253
  6
CONTINUOUS
 10
-41.2968915762
 20
10.7954718741
 11
-41.0255043608
 21
10.9311860951
  0
LINE
  5
35A
100
AcDbEntity
  8
INCISIONI_LASER
100
AcDbLine
 62
253
  6
CONTINUOUS
 10
-43.0672126576
 20
10.1348316531
 11
-45.9663303565
 21
9.1266576531
  0
LINE
  5
35B
100
AcDbEntity
  8
INCISIONI_LASER
100
AcDbLine
 62
253
  6
CONTINUOUS
 10
-43.6816644469
 20
9.2993066531
 11
-43.0672126576
 21
9.5081886531
  0
LINE
  5
35C
100
AcDbEntity
  8
INCISIONI_LASER
100
AcDbLine
 62
253
  6
CONTINUOUS
 10
-45.4123391461
 20
8.7412286531
 11
-44.1634506566
 21
9.1427006531
  0
LINE
  5
35D
100
AcDbEntity
  8
INCISIONI_LASER
100
AcDbLine
 62
253
  6
CONTINUOUS
 10
-44.9790791515
 20
-9.5944473469
 11
-43.0672196555
 21
-9.5944393469
  0
LINE
  5
35E
100
AcDbEntity
  8
INCISIONI_LASER
100
AcDbLine
 62
253
  6
CONTINUOUS
 10
-43.0672196555
 20
-9.0144183469
 11
-45.9664673148
 21
-9.0144183469
  0
LWPOLYLINE
  5
35F
100
AcDbEntity
  8
0
100
AcDbPolyline
 62
253
  6
CONTINUOUS
 90
22
 70
0
 10
-26.7677886288
 20
-11.6529128309
 10
-26.6189788401
 20
-11.6790360432
 10
-26.4734435081
 20
-11.714825188
 10
-26.3311826328
 20
-11.7602802654
 10
-26.1915080241
 20
-11.8157116899
 10
-26.0551078721
 20
-11.880809047
 10
-25.9240467469
 20
-11.9546410928
 10
-25.7984627236
 20
-12.0373159311
 10
-25.6782177272
 20
-12.1287254582
 10
-25.5649621024
 20
-12.2276141186
 10
-25.4587864734
 20
-12.3340897715
 10
-25.359600216
 20
-12.4480445577
 10
-25.268781802
 20
-12.5678993443
 10
-25.1864489823
 20
-12.6937355042
 10
-25.1124840059
 20
-12.8254716644
 10
-25.0479120921
 20
-12.9612845731
 10
-24.9928638903
 20
-13.1012288964
 10
-24.9472087511
 20
-13.2452499681
 10
-24.9115799452
 20
-13.3913605371
 10
-24.8861885631
 20
-13.5388981863
 10
-24.8708235143
 20
-13.6885253327
 10
-24.8654847989
 20
-13.8402419764
  0
LWPOLYLINE
  5
360
100
AcDbEntity
  8
21814000
100
AcDbPolyline
 62
253
  6
CONTINUOUS
 90
22
 70
0
 10
-26.7677886288
 20
-11.6529128309
 10
-26.6189788401
 20
-11.6790360432
 10
-26.4734435081
 20
-11.714825188
 10
-26.3311826328
 20
-11.7602802654
 10
-26.1915080241
 20
-11.8157116899
 10
-26.0551078721
 20
-11.880809047
 10
-25.9240467469
 20
-11.9546410928
 10
-25.7984627236
 20
-12.0373159311
 10
-25.6782177272
 20
-12.1287254582
 10
-25.5649621024
 20
-12.2276141186
 10
-25.4587864734
 20
-12.3340897715
 10
-25.359600216
 20
-12.4480445577
 10
-25.268781802
 20
-12.5678993443
 10
-25.1864489823
 20
-12.6937355042
 10
-25.1124840059
 20
-12.8254716644
 10
-25.0479120921
 20
-12.9612845731
 10
-24.9928638903
 20
-13.1012288964
 10
-24.9472087511
 20
-13.2452499681
 10
-24.9115799452
 20
-13.3913605371
 10
-24.8861885631
 20
-13.5388981863
 10
-24.8708235143
 20
-13.6885253327
 10
-24.8654847989
 20
-13.8402419764
  0
LINE
  5
361
100
AcDbEntity
  8
INCISIONI_LASER
100
AcDbLine
 62
253
  6
CONTINUOUS
 10
-43.0672276531
 20
-10.1428223469
 11
-44.9790791515
 21
-9.5944473469
  0
LINE
  5
362
100
AcDbEntity
  8
INCISIONI_LASER
100
AcDbLine
 62
253
  6
CONTINUOUS
 10
-43.0672196555
 20
-8.6277393469
 11
-45.9664743126
 21
-7.6966143469
  0
LINE
  5
363
100
AcDbEntity
  8
26814000
100
AcDbLine
 62
7
  6
CONTINUOUS
 10
-53.3672126576
 20
0.1597576531
 11
-50.9172126576
 21
-19.7938910955
  0
LINE
  5
364
100
AcDbEntity
  8
26814000
100
AcDbLine
 62
7
  6
CONTINUOUS
 10
-51.0672126576
 20
-22.9628920777
 11
-51.0672126576
 21
-22.2271520453
  0
LINE
  5
365
100
AcDbEntity
  8
26814000
100
AcDbLine
 62
7
  6
CONTINUOUS
 10
-51.0672126576
 20
22.5466673514
 11
-51.0672126576
 21
23.2824073839
  0
LINE
  5
366
100
AcDbEntity
  8
26814000
100
AcDbLine
 62
7
  6
CONTINUOUS
 10
-50.9172126576
 20
22.018555408
 11
-50.9172126576
 21
20.1134064016
  0
LINE
  5
367
100
AcDbEntity
  8
26814000
100
AcDbLine
 62
7
  6
CONTINUOUS
 10
-50.9172126576
 20
-19.7938910955
 11
-50.9172126576
 21
-21.6990401019
  0
LINE
  5
368
100
AcDbEntity
  8
0
100
AcDbLine
 62
253
  6
CONTINUOUS
 10
-39.9399554144
 20
10.1169003161
 11
-40.2113426581
 21
9.9811860951
  0
LINE
  5
369
100
AcDbEntity
  8
0
100
AcDbLine
 62
253
  6
CONTINUOUS
 10
-41.2968915762
 20
9.3026147636
 11
-41.0255043608
 21
9.4383289846
  0
LINE
  5
36A
100
AcDbEntity
  8
INCISIONI_LASER
100
AcDbLine
 62
253
  6
CONTINUOUS
 10
-28.5672126576
 20
14.0497036531
 11
-29.8668166952
 21
13.4793706531
  0
LINE
  5
36B
100
AcDbEntity
  8
INCISIONI_LASER
100
AcDbLine
 62
253
  6
CONTINUOUS
 10
-43.0672276531
 20
-5.7987453469
 11
-45.9664743126
 21
-5.7987453469
  0
LINE
  5
36C
100
AcDbEntity
  8
INCISIONI_LASER
100
AcDbLine
 62
253
  6
CONTINUOUS
 10
-45.0635084276
 20
-7.4065923469
 11
-44.188236105
 21
-7.6876823469
  0
LINE
  5
36D
100
AcDbEntity
  8
INCISIONI_LASER
100
AcDbLine
 62
253
  6
CONTINUOUS
 10
-43.6373819388
 20
-7.8646043469
 11
-43.0672276531
 21
-8.0477173469
  0
LINE
  5
36E
100
AcDbEntity
  8
26814000
100
AcDbLine
 62
7
  6
CONTINUOUS
 10
-49.5672126576
 20
-21.8902290195
 11
-49.5672126576
 21
-24.2402423469
  0
LINE
  5
36F
100
AcDbEntity
  8
26814000
100
AcDbLine
 62
7
  6
CONTINUOUS
 10
-49.5672126576
 20
22.2097443256
 11
-49.5672126576
 21
24.5597576531
  0
LINE
  5
370
100
AcDbEntity
  8
26814000
100
AcDbLine
 62
7
  6
CONTINUOUS
 10
-48.5672126576
 20
24.3053900498
 11
-48.5672126576
 21
24.0040952204
  0
LINE
  5
371
100
AcDbEntity
  8
26814000
100
AcDbLine
 62
7
  6
CONTINUOUS
 10
-48.5672126576
 20
-23.6845799142
 11
-48.5672126576
 21
-23.9858747437
  0
LINE
  5
372
100
AcDbEntity
  8
0
100
AcDbLine
 62
7
  6
CONTINUOUS
 10
-48.5672126576
 20
-17.5118152222
 11
-48.5672126576
 21
17.8313305283
  0
LINE
  5
373
100
AcDbEntity
  8
21814000
100
AcDbLine
 62
7
  6
CONTINUOUS
 10
-48.5672126576
 20
-17.5118152222
 11
-48.5672126576
 21
17.8313305283
  0
LINE
  5
374
100
AcDbEntity
  8
26814000
100
AcDbLine
 62
7
  6
CONTINUOUS
 10
-48.5672126576
 20
-22.2315154791
 11
-48.5672126576
 21
22.5510307853
  0
LINE
  5
375
100
AcDbEntity
  8
0
100
AcDbLine
 62
253
  6
CONTINUOUS
 10
-41.5682787915
 20
10.5240434321
 11
-41.2968915762
 21
10.7954718741
  0
LINE
  5
376
100
AcDbEntity
  8
0
100
AcDbLine
 62
253
  6
CONTINUOUS
 10
-41.5682787915
 20
9.0311863216
 11
-41.2968915762
 21
9.3026147636
  0
LINE
  5
377
100
AcDbEntity
  8
0
100
AcDbLine
 62
253
  6
CONTINUOUS
 10
-39.6685681707
 20
10.3883292111
 11
-39.9399554144
 21
10.1169003161
  0
LINE
  5
378
100
AcDbEntity
  8
INCISIONI_LASER
100
AcDbLine
 62
253
  6
CONTINUOUS
 10
-29.8668166952
 20
15.2076236531
 11
-29.07009444
 21
15.6833616531
  0
LINE
  5
379
100
AcDbEntity
  8
0
100
AcDbLine
 62
253
  6
CONTINUOUS
 10
-39.9399554144
 20
8.6240434321
 11
-40.2113426581
 21
8.4883289846
  0
LINE
  5
37A
100
AcDbEntity
  8
INCISIONI_LASER
100
AcDbLine
 62
253
  6
CONTINUOUS
 10
-45.43011573
 20
-5.2267203469
 11
-44.7246016855
 21
-5.2267133469
  0
LINE
  5
37B
100
AcDbEntity
  8
26814000
100
AcDbLine
 62
253
  6
CONTINUOUS
 10
-54.1491577402
 20
-5.0402423469
 11
-52.7287329409
 21
-5.0402423469
  0
LINE
  5
37C
100
AcDbEntity
  8
26814000
100
AcDbLine
 62
7
  6
CONTINUOUS
 10
-54.1281368931
 20
-4.8402423469
 11
-52.7532898531
 21
-4.8402423469
  0
LINE
  5
37D
100
AcDbEntity
  8
26814000
100
AcDbLine
 62
253
  6
CONTINUOUS
 10
-54.1071160461
 20
-4.6402423469
 11
-52.7778467653
 21
-4.6402423469
  0
LINE
  5
37E
100
AcDbEntity
  8
INCISIONI_LASER
100
AcDbLine
 62
253
  6
CONTINUOUS
 10
-44.1882431029
 20
-5.2186513469
 11
-43.0672276531
 21
-5.2187163469
  0
LINE
  5
37F
100
AcDbEntity
  8
INCISIONI_LASER
100
AcDbLine
 62
253
  6
CONTINUOUS
 10
-45.9664743126
 20
-7.6966143469
 11
-45.9664743126
 21
-7.1165633469
  0
LINE
  5
380
100
AcDbEntity
  8
INCISIONI_LASER
100
AcDbLine
 62
253
  6
CONTINUOUS
 10
-45.9664743126
 20
-5.7987453469
 11
-45.9664743126
 21
-4.4405303469
  0
LINE
  5
381
100
AcDbEntity
  8
INCISIONI_LASER
100
AcDbLine
 62
253
  6
CONTINUOUS
 10
-45.9664673148
 20
-9.0144183469
 11
-45.9664673148
 21
-9.8912543469
  0
LINE
  5
382
100
AcDbEntity
  8
INCISIONI_LASER
100
AcDbLine
 62
253
  6
CONTINUOUS
 10
-45.9664673148
 20
-10.9743903469
 11
-45.9664673148
 21
-11.8512273469
  0
LINE
  5
383
100
AcDbEntity
  8
INCISIONI_LASER
100
AcDbLine
 62
253
  6
CONTINUOUS
 10
-45.9664673148
 20
-12.4312273469
 11
-45.9664673148
 21
-13.0112483469
  0
LINE
  5
384
100
AcDbEntity
  8
INCISIONI_LASER
100
AcDbLine
 62
253
  6
CONTINUOUS
 10
-45.9664673148
 20
-13.3979273469
 11
-45.9664673148
 21
-13.9779563469
  0
LINE
  5
385
100
AcDbEntity
  8
INCISIONI_LASER
100
AcDbLine
 62
253
  6
CONTINUOUS
 10
-45.9664673148
 20
-15.2602133469
 11
-45.9664673148
 21
-15.8402423469
  0
LINE
  5
386
100
AcDbEntity
  8
INCISIONI_LASER
100
AcDbLine
 62
253
  6
CONTINUOUS
 10
-45.9663303565
 20
15.1516926531
 11
-45.9663303565
 21
14.4126416531
  0
LINE
  5
387
100
AcDbEntity
  8
INCISIONI_LASER
100
AcDbLine
 62
253
  6
CONTINUOUS
 10
-45.9663303565
 20
9.1266576531
 11
-45.9663303565
 21
8.3876066531
  0
LINE
  5
388
100
AcDbEntity
  8
INCISIONI_LASER
100
AcDbLine
 62
253
  6
CONTINUOUS
 10
-45.9663303565
 20
3.7479776531
 11
-45.9663303565
 21
2.8605476531
  0
LINE
  5
389
100
AcDbEntity
  8
INCISIONI_LASER
100
AcDbLine
 62
253
  6
CONTINUOUS
 10
-45.9663303565
 20
5.3308906531
 11
-45.9663303565
 21
5.9534966531
  0
LINE
  5
38A
100
AcDbEntity
  8
INCISIONI_LASER
100
AcDbLine
 62
253
  6
CONTINUOUS
 10
-45.9663303565
 20
10.4520826531
 11
-45.9663303565
 21
11.3758966531
  0
LINE
  5
38B
100
AcDbEntity
  8
INCISIONI_LASER
100
AcDbLine
 62
253
  6
CONTINUOUS
 10
-45.9663303565
 20
12.4885116531
 11
-45.9663303565
 21
13.0709556531
  0
LWPOLYLINE
  5
38C
100
AcDbEntity
  8
INCISIONI_LASER
100
AcDbPolyline
 62
253
  6
CONTINUOUS
 90
54
 70
0
 10
-45.4845440744
 20
3.846369784
 10
-45.4810732911
 20
3.8746793661
 10
-45.4776723463
 20
3.9029976078
 10
-45.4741745074
 20
3.9313113562
 10
-45.4719600794
 20
3.9482788829
 10
-45.4696065107
 20
3.96522806
 10
-45.4670694367
 20
3.982146882
 10
-45.4643044931
 20
3.9990233434
 10
-45.4612673154
 20
4.0158454386
 10
-45.4584795854
 20
4.0298759757
 10
-45.4554198821
 20
4.0438575049
 10
-45.452038038
 20
4.0577875177
 10
-45.4498311782
 20
4.0660961847
 10
-45.4474368308
 20
4.0743523149
 10
-45.4448009558
 20
4.0825227358
 10
-45.4418695132
 20
4.0905742749
 10
-45.4385884631
 20
4.0984737597
 10
-45.4349405162
 20
4.1061485882
 10
-45.4309213864
 20
4.1136437779
 10
-45.426558735
 20
4.1209627122
 10
-45.4218802231
 20
4.1281087747
 10
-45.416913512
 20
4.135085349
 10
-45.4116862626
 20
4.1418958187
 10
-45.4062261362
 20
4.1485435674
 10
-45.4005607941
 20
4.1550319786
 10
-45.3947178972
 20
4.1613644359
 10
-45.3887251068
 20
4.1675443229
 10
-45.3799162703
 20
4.1761394149
 10
-45.3708578065
 20
4.1844193955
 10
-45.3615511878
 20
4.1923756251
 10
-45.3519978868
 20
4.1999994641
 10
-45.3421993758
 20
4.2072822727
 10
-45.3321571274
 20
4.2142154114
 10
-45.321872614
 20
4.2207902404
 10
-45.3113498111
 20
4.2269991398
 10
-45.3006041481
 20
4.2328377288
 10
-45.2896535682
 20
4.238302663
 10
-45.2785160147
 20
4.243390598
 10
-45.2672094308
 20
4.2480981893
 10
-45.2557517599
 20
4.2524220926
 10
-45.2441609452
 20
4.2563589634
 10
-45.2315711048
 20
4.2601600091
 10
-45.2188615197
 20
4.2635317058
 10
-45.2060455789
 20
4.2664958514
 10
-45.1931366717
 20
4.2690742438
 10
-45.1801481871
 20
4.271288681
 10
-45.1670935141
 20
4.2731609609
 10
-45.1539860419
 20
4.2747128813
 10
-45.1408391596
 20
4.2759662402
 10
-45.1276662562
 20
4.2769428355
 10
-45.1144807209
 20
4.2776644651
 10
-45.1012959427
 20
4.278152927
 10
-45.0881253107
 20
4.2784300189
 10
-45.0749822141
 20
4.2785175389
  0
LINE
  5
38D
100
AcDbEntity
  8
0
100
AcDbLine
 62
253
  6
CONTINUOUS
 10
-41.5682787915
 20
15.6811860951
 11
-41.5230475323
 21
15.8169007691
  0
LINE
  5
38E
100
AcDbEntity
  8
0
100
AcDbLine
 62
253
  6
CONTINUOUS
 10
-39.6685681707
 20
8.8954718741
 11
-39.9399554144
 21
8.6240434321
  0
LINE
  5
38F
100
AcDbEntity
  8
INCISIONI_LASER
100
AcDbLine
 62
7
  6
CONTINUOUS
 10
-45.0710642694
 20
2.8605476531
 11
-44.183634507
 21
3.7479774155
  0
LINE
  5
390
100
AcDbEntity
  8
0
100
AcDbLine
 62
7
  6
CONTINUOUS
 10
-26.5933593804
 20
-1.2162832897
 11
-24.8410659348
 21
-1.0629774781
  0
LINE
  5
391
100
AcDbEntity
  8
21814000
100
AcDbLine
 62
7
  6
CONTINUOUS
 10
-26.5933593804
 20
-1.2162832897
 11
-24.8410659348
 21
-1.0629774781
  0
LINE
  5
392
100
AcDbEntity
  8
0
100
AcDbLine
 62
7
  6
CONTINUOUS
 10
-26.8672126576
 20
-3.1402423469
 11
-26.6672126576
 21
-3.1402423469
  0
LINE
  5
393
100
AcDbEntity
  8
21814000
100
AcDbLine
 62
7
  6
CONTINUOUS
 10
-26.8672126576
 20
-3.1402423469
 11
-26.6672126576
 21
-3.1402423469
  0
LINE
  5
394
100
AcDbEntity
  8
26814000
100
AcDbLine
 62
7
  6
CONTINUOUS
 10
-53.1482734962
 20
-1.6233587245
 11
-53.788853591
 21
-1.6121773573
  0
LWPOLYLINE
  5
395
100
AcDbEntity
  8
INCISIONI_LASER
100
AcDbPolyline
 62
253
  6
CONTINUOUS
 90
73
 70
0
 10
-44.2579688589
 20
-4.0952663469
 10
-44.2716724234
 20
-4.0643971958
 10
-44.2865668527
 20
-4.0340316447
 10
-44.3026228634
 20
-4.0042199294
 10
-44.3198111721
 20
-3.9750122859
 10
-44.3381024953
 20
-3.94645895
 10
-44.3574675496
 20
-3.9186101576
 10
-44.3778770517
 20
-3.8915161446
 10
-44.3993017181
 20
-3.8652271468
 10
-44.4217110892
 20
-3.8397900561
 10
-44.4450700002
 20
-3.8152383877
 10
-44.4693421104
 20
-3.7916023129
 10
-44.4944910786
 20
-3.7689120029
 10
-44.5204805641
 20
-3.7471976291
 10
-44.5472742258
 20
-3.7264893625
 10
-44.5748357229
 20
-3.7068173746
 10
-44.6031287144
 20
-3.6882118365
 10
-44.6321153326
 20
-3.6707012692
 10
-44.6617516022
 20
-3.6543075925
 10
-44.6919920212
 20
-3.639051076
 10
-44.7227910876
 20
-3.6249519894
 10
-44.7541032993
 20
-3.6120306022
 10
-44.7858831544
 20
-3.600307184
 10
-44.8180851507
 20
-3.5898020044
 10
-44.8506637862
 20
-3.580535333
 10
-44.8835729746
 20
-3.5725249026
 10
-44.916764292
 20
-3.5657782994
 10
-44.95018873
 20
-3.560300573
 10
-44.9837972806
 20
-3.5560967729
 10
-45.0175409353
 20
-3.5531719484
 10
-45.0513706861
 20
-3.5515311492
 10
-45.0852375246
 20
-3.5511794246
 10
-45.1190924427
 20
-3.5521218243
 10
-45.1528865352
 20
-3.5543609263
 10
-45.18657131
 20
-3.5578894232
 10
-45.220098378
 20
-3.5626975364
 10
-45.2534193502
 20
-3.568775487
 10
-45.2864858375
 20
-3.5761134964
 10
-45.319249451
 20
-3.5847017858
 10
-45.3516618016
 20
-3.5945305766
 10
-45.3836745003
 20
-3.6055900898
 10
-45.4152400221
 20
-3.6178682293
 10
-45.4463142978
 20
-3.6313436281
 10
-45.4768541226
 20
-3.6459926018
 10
-45.5068162912
 20
-3.6617914658
 10
-45.5361575987
 20
-3.6787165357
 10
-45.56483484
 20
-3.696744127
 10
-45.5928048101
 20
-3.7158505553
 10
-45.6200243039
 20
-3.7360121359
 10
-45.6464516393
 20
-3.7572030737
 10
-45.6720512263
 20
-3.7793891301
 10
-45.6967889977
 20
-3.8025339557
 10
-45.7206308864
 20
-3.826601201
 10
-45.7435428253
 20
-3.8515545168
 10
-45.7654907473
 20
-3.8773575537
 10
-45.7864405852
 20
-3.9039739622
 10
-45.8063582719
 20
-3.931367393
 10
-45.8252117879
 20
-3.9595005688
 10
-45.8429773038
 20
-3.9883325005
 10
-45.8596330379
 20
-4.0178212711
 10
-45.8751572083
 20
-4.0479249635
 10
-45.8895280332
 20
-4.0786016608
 10
-45.9027237309
 20
-4.1098094459
 10
-45.9147225196
 20
-4.1415064019
 10
-45.9255026174
 20
-4.1736506116
 10
-45.9350446244
 20
-4.206197533
 10
-45.9433386678
 20
-4.2390921238
 10
-45.9503772567
 20
-4.2722767164
 10
-45.9561529001
 20
-4.3056936435
 10
-45.960658107
 20
-4.3392852375
 10
-45.9638853864
 20
-4.3729938311
 10
-45.9658272475
 20
-4.4067617567
 10
-45.9664761992
 20
-4.4405313469
  0
LWPOLYLINE
  5
396
100
AcDbEntity
  8
INCISIONI_LASER
100
AcDbPolyline
 62
253
  6
CONTINUOUS
 90
56
 70
0
 10
-44.1836342123
 20
3.7479777105
 10
-44.1863860148
 20
3.8190996759
 10
-44.1894925606
 20
3.8902071638
 10
-44.1931362953
 20
3.9612838288
 10
-44.1963375814
 20
4.0145903297
 10
-44.20004783
 20
4.0678736076
 10
-44.2021510836
 20
4.0945284025
 10
-44.2045578741
 20
4.1211554972
 10
-44.2074182757
 20
4.1477321721
 10
-44.2108823626
 20
4.1742357079
 10
-44.2150630159
 20
4.2005786521
 10
-44.2199873033
 20
4.2267994956
 10
-44.2256487584
 20
4.2528715307
 10
-44.2320409148
 20
4.27876805
 10
-44.2391533835
 20
4.3045186163
 10
-44.2468795329
 20
4.3300922751
 10
-44.2551061197
 20
4.3555150929
 10
-44.2637199007
 20
4.3808131364
 10
-44.2756698738
 20
4.4143499625
 10
-44.2882408754
 20
4.4476498642
 10
-44.3015676159
 20
4.4806511429
 10
-44.3121502256
 20
4.5051713693
 10
-44.3233319803
 20
4.5294265292
 10
-44.3352108031
 20
4.5533543764
 10
-44.3478846169
 20
4.5768926647
 10
-44.3613850512
 20
4.5999036313
 10
-44.3757574344
 20
4.6224161382
 10
-44.3909868504
 20
4.6443804701
 10
-44.4070583833
 20
4.6657469117
 10
-44.4239571169
 20
4.6864657477
 10
-44.4416681354
 20
4.7064872628
 10
-44.4601765226
 20
4.7257617417
 10
-44.4794673626
 20
4.7442394691
 10
-44.4995900717
 20
4.7619370765
 10
-44.5204367832
 20
4.7787772555
 10
-44.5419586998
 20
4.7947548486
 10
-44.5641070239
 20
4.8098646984
 10
-44.5868329584
 20
4.8241016474
 10
-44.6100877057
 20
4.8374605382
 10
-44.6338224686
 20
4.8499362134
 10
-44.6579884497
 20
4.8615235156
 10
-44.6825454715
 20
4.8722243314
 10
-44.707451265
 20
4.8820530596
 10
-44.7326719915
 20
4.8910315856
 10
-44.7581738127
 20
4.8991817946
 10
-44.7839228898
 20
4.9065255721
 10
-44.8098853845
 20
4.9130848034
 10
-44.8360274582
 20
4.9188813738
 10
-44.8623152723
 20
4.9239371688
 10
-44.8924594153
 20
4.9288333297
 10
-44.9227242813
 20
4.9328418815
 10
-44.9530848064
 20
4.9360117941
 10
-44.9835159263
 20
4.9383920376
 10
-45.0139925769
 20
4.9400315819
 10
-45.0444896943
 20
4.9409793972
 10
-45.0749822141
 20
4.9412844534
  0
LINE
  5
397
100
AcDbEntity
  8
INCISIONI_LASER
100
AcDbLine
 62
253
  6
CONTINUOUS
 10
-45.4845441468
 20
3.4831536531
 11
-45.4845441468
 21
3.8463696531
  0
LINE
  5
398
100
AcDbEntity
  8
INCISIONI_LASER
100
AcDbLine
 62
253
  6
CONTINUOUS
 10
-45.43011573
 20
-4.5210343469
 11
-45.43011573
 21
-5.2267203469
  0
LINE
  5
399
100
AcDbEntity
  8
INCISIONI_LASER
100
AcDbLine
 62
253
  6
CONTINUOUS
 10
-44.7246016855
 20
-5.2267133469
 11
-44.7246016855
 21
-4.5210343469
  0
LINE
  5
39A
100
AcDbEntity
  8
INCISIONI_LASER
100
AcDbLine
 62
253
  6
CONTINUOUS
 10
-44.6654207167
 20
3.4831536531
 11
-44.6654207167
 21
3.8463696531
  0
LINE
  5
39B
100
AcDbEntity
  8
INCISIONI_LASER
100
AcDbLine
 62
253
  6
CONTINUOUS
 10
-44.188236105
 20
-7.6876823469
 11
-44.188236105
 21
-7.1254883469
  0
LINE
  5
39C
100
AcDbEntity
  8
INCISIONI_LASER
100
AcDbLine
 62
253
  6
CONTINUOUS
 10
-44.188236105
 20
-4.7124203469
 11
-44.1882431029
 21
-5.2186513469
  0
LINE
  5
39D
100
AcDbEntity
  8
INCISIONI_LASER
100
AcDbLine
 62
253
  6
CONTINUOUS
 10
-44.183634507
 20
3.7479776531
 11
-44.183634507
 21
3.4831536531
  0
LINE
  5
39E
100
AcDbEntity
  8
INCISIONI_LASER
100
AcDbLine
 62
253
  6
CONTINUOUS
 10
-44.1634506566
 20
15.1676266531
 11
-44.1634506566
 21
14.3362486531
  0
LINE
  5
39F
100
AcDbEntity
  8
INCISIONI_LASER
100
AcDbLine
 62
253
  6
CONTINUOUS
 10
-44.1634506566
 20
9.1427006531
 11
-44.1634506566
 21
8.3112136531
  0
LINE
  5
3A0
100
AcDbEntity
  8
INCISIONI_LASER
100
AcDbLine
 62
253
  6
CONTINUOUS
 10
-43.6816644469
 20
8.1505696531
 11
-43.6816644469
 21
9.2993066531
  0
LINE
  5
3A1
100
AcDbEntity
  8
INCISIONI_LASER
100
AcDbLine
 62
253
  6
CONTINUOUS
 10
-43.6816644469
 20
14.1756036531
 11
-43.6816644469
 21
15.3243416531
  0
LINE
  5
3A2
100
AcDbEntity
  8
INCISIONI_LASER
100
AcDbLine
 62
253
  6
CONTINUOUS
 10
-43.6373819388
 20
-6.9485593469
 11
-43.6373819388
 21
-7.8646043469
  0
LINE
  5
3A3
100
AcDbEntity
  8
INCISIONI_LASER
100
AcDbLine
 62
253
  6
CONTINUOUS
 10
-43.5489988673
 20
5.9534966531
 11
-43.5489988673
 21
7.0264956531
  0
LINE
  5
3A4
100
AcDbEntity
  8
0
100
AcDbLine
 62
7
  6
CONTINUOUS
 10
-26.8576176255
 20
-1.4402423469
 11
-26.6672126576
 21
-1.4402423469
  0
LINE
  5
3A5
100
AcDbEntity
  8
21814000
100
AcDbLine
 62
7
  6
CONTINUOUS
 10
-26.8576176255
 20
-1.4402423469
 11
-26.6672126576
 21
-1.4402423469
  0
LINE
  5
3A6
100
AcDbEntity
  8
INCISIONI_LASER
100
AcDbLine
 62
253
  6
CONTINUOUS
 10
-34.5672126576
 20
-13.6402423469
 11
-35.6000889616
 21
-12.3092203469
  0
LINE
  5
3A7
100
AcDbEntity
  8
INCISIONI_LASER
100
AcDbLine
 62
253
  6
CONTINUOUS
 10
-43.0672126576
 20
-14.9091103469
 11
-43.0672196555
 21
-14.3290663469
  0
LINE
  5
3A8
100
AcDbEntity
  8
INCISIONI_LASER
100
AcDbLine
 62
253
  6
CONTINUOUS
 10
-43.0672126576
 20
-13.0112563469
 11
-43.0672196555
 21
-12.4312343469
  0
LINE
  5
3A9
100
AcDbEntity
  8
INCISIONI_LASER
100
AcDbLine
 62
253
  6
CONTINUOUS
 10
-43.0672196555
 20
-10.7228293469
 11
-43.0672276531
 21
-10.1428223469
  0
LINE
  5
3AA
100
AcDbEntity
  8
INCISIONI_LASER
100
AcDbLine
 62
253
  6
CONTINUOUS
 10
-43.0672276531
 20
-8.0477173469
 11
-43.0672196555
 21
-8.6277393469
  0
LINE
  5
3AB
100
AcDbEntity
  8
INCISIONI_LASER
100
AcDbLine
 62
253
  6
CONTINUOUS
 10
-43.0672346509
 20
-3.4778613469
 11
-43.0672276531
 21
-4.1311663469
  0
LINE
  5
3AC
100
AcDbEntity
  8
INCISIONI_LASER
100
AcDbLine
 62
253
  6
CONTINUOUS
 10
-43.0672276531
 20
-5.2187163469
 11
-43.0672276531
 21
-5.7987453469
  0
LINE
  5
3AD
100
AcDbEntity
  8
INCISIONI_LASER
100
AcDbLine
 62
253
  6
CONTINUOUS
 10
-43.0672196555
 20
-11.8512273469
 11
-43.0672196555
 21
-11.2712053469
  0
LINE
  5
3AE
100
AcDbEntity
  8
INCISIONI_LASER
100
AcDbLine
 62
253
  6
CONTINUOUS
 10
-43.0672196555
 20
-9.5944393469
 11
-43.0672196555
 21
-9.0144183469
  0
LINE
  5
3AF
100
AcDbEntity
  8
INCISIONI_LASER
100
AcDbLine
 62
253
  6
CONTINUOUS
 10
-43.0672126576
 20
13.0709556531
 11
-43.0672126576
 21
12.1873036531
  0
LINE
  5
3B0
100
AcDbEntity
  8
INCISIONI_LASER
100
AcDbLine
 62
253
  6
CONTINUOUS
 10
-43.0672126576
 20
11.0345276531
 11
-43.0672126576
 21
10.4520826531
  0
LINE
  5
3B1
100
AcDbEntity
  8
INCISIONI_LASER
100
AcDbLine
 62
253
  6
CONTINUOUS
 10
-43.0672126576
 20
7.0264956531
 11
-43.0672126576
 21
5.3308906531
  0
LINE
  5
3B2
100
AcDbEntity
  8
INCISIONI_LASER
100
AcDbLine
 62
253
  6
CONTINUOUS
 10
-43.0672126576
 20
2.8605476531
 11
-43.0672126576
 21
3.4831536531
  0
LINE
  5
3B3
100
AcDbEntity
  8
INCISIONI_LASER
100
AcDbLine
 62
253
  6
CONTINUOUS
 10
-43.0672126576
 20
7.3392716531
 11
-43.0672126576
 21
7.9337216531
  0
LINE
  5
3B4
100
AcDbEntity
  8
INCISIONI_LASER
100
AcDbLine
 62
253
  6
CONTINUOUS
 10
-43.0672126576
 20
9.5081886531
 11
-43.0672126576
 21
10.1348316531
  0
LINE
  5
3B5
100
AcDbEntity
  8
INCISIONI_LASER
100
AcDbLine
 62
253
  6
CONTINUOUS
 10
-43.0672126576
 20
13.3641976531
 11
-43.0672126576
 21
13.9586466531
  0
LINE
  5
3B6
100
AcDbEntity
  8
INCISIONI_LASER
100
AcDbLine
 62
253
  6
CONTINUOUS
 10
-43.0672126576
 20
15.5333316531
 11
-43.0672126576
 21
16.1597576531
  0
LINE
  5
3B7
100
AcDbEntity
  8
INCISIONI_LASER
100
AcDbLine
 62
253
  6
CONTINUOUS
 10
-43.0672196555
 20
-6.1854243469
 11
-43.0672276531
 21
-6.7654533469
  0
LINE
  5
3B8
100
AcDbEntity
  8
26814000
100
AcDbLine
 62
253
  6
CONTINUOUS
 10
-41.8654673382
 20
23.9149502095
 11
-41.8654673382
 21
22.4925455399
  0
LINE
  5
3B9
100
AcDbEntity
  8
26814000
100
AcDbLine
 62
253
  6
CONTINUOUS
 10
-41.8654673382
 20
-22.1730302338
 11
-41.8654673382
 21
-23.5954349034
  0
LINE
  5
3BA
100
AcDbEntity
  8
0
100
AcDbLine
 62
253
  6
CONTINUOUS
 10
-41.5682787915
 20
8.8954718741
 11
-41.5682787915
 21
9.0311863216
  0
LINE
  5
3BB
100
AcDbEntity
  8
0
100
AcDbLine
 62
253
  6
CONTINUOUS
 10
-41.5682787915
 20
10.3883292111
 11
-41.5682787915
 21
10.5240434321
  0
LINE
  5
3BC
100
AcDbEntity
  8
0
100
AcDbLine
 62
253
  6
CONTINUOUS
 10
-41.5682787915
 20
15.2740429791
 11
-41.5682787915
 21
15.6811860951
  0
LINE
  5
3BD
100
AcDbEntity
  8
26814000
100
AcDbLine
 62
7
  6
CONTINUOUS
 10
-41.5672126576
 20
23.9132150146
 11
-41.5672126576
 21
22.4899427107
  0
LINE
  5
3BE
100
AcDbEntity
  8
26814000
100
AcDbLine
 62
7
  6
CONTINUOUS
 10
-41.5672126576
 20
-22.1704274046
 11
-41.5672126576
 21
-23.5936997085
  0
LWPOLYLINE
  5
3BF
100
AcDbEntity
  8
0
100
AcDbPolyline
 62
7
  6
CONTINUOUS
 90
7
 70
0
 10
-27.7515054918
 20
11.2779950619
 10
-27.7299181449
 20
11.2970691198
 10
-27.7066352014
 20
11.3141573953
 10
-27.6816566613
 20
11.3292598884
 10
-27.6549825245
 20
11.3423765992
 10
-27.6266127911
 20
11.3535075275
 10
-27.5965474611
 20
11.3626526735
  0
LWPOLYLINE
  5
3C0
100
AcDbEntity
  8
21814000
100
AcDbPolyline
 62
7
  6
CONTINUOUS
 90
7
 70
0
 10
-27.7515054918
 20
11.2779950619
 10
-27.7299181449
 20
11.2970691198
 10
-27.7066352014
 20
11.3141573953
 10
-27.6816566613
 20
11.3292598884
 10
-27.6549825245
 20
11.3423765992
 10
-27.6266127911
 20
11.3535075275
 10
-27.5965474611
 20
11.3626526735
  0
LINE
  5
3C1
100
AcDbEntity
  8
INCISIONI_LASER
100
AcDbLine
 62
253
  6
CONTINUOUS
 10
-28.5672126576
 20
10.6149386531
 11
-29.8668166952
 21
9.5828136531
  0
LINE
  5
3C2
100
AcDbEntity
  8
INCISIONI_LASER
100
AcDbLine
 62
253
  6
CONTINUOUS
 10
-28.5672126576
 20
5.8999816531
 11
-29.8668166952
 21
5.3296476531
  0
LINE
  5
3C3
100
AcDbEntity
  8
26814000
100
AcDbLine
 62
7
  6
CONTINUOUS
 10
-53.4156932421
 20
1.9382062016
 11
-53.1482734962
 21
1.9428740306
  0
LINE
  5
3C4
100
AcDbEntity
  8
0
100
AcDbLine
 62
253
  6
CONTINUOUS
 10
-40.6184234811
 20
15.2740429791
 11
-40.6184234811
 21
15.9526145371
  0
LINE
  5
3C5
100
AcDbEntity
  8
0
100
AcDbLine
 62
253
  6
CONTINUOUS
 10
-40.2113426581
 20
13.8264240177
 11
-40.2113426581
 21
14.5502334984
  0
LINE
  5
3C6
100
AcDbEntity
  8
0
100
AcDbLine
 62
253
  6
CONTINUOUS
 10
-40.0756490221
 20
7.9454718741
 11
-40.0756490221
 21
6.9954719873
  0
LINE
  5
3C7
100
AcDbEntity
  8
0
100
AcDbLine
 62
253
  6
CONTINUOUS
 10
-39.985186617
 20
12.8764244707
 11
-39.985186617
 21
12.9669003161
  0
LINE
  5
3C8
100
AcDbEntity
  8
0
100
AcDbLine
 62
253
  6
CONTINUOUS
 10
-39.7590305829
 20
12.9669003161
 11
-39.7590305829
 21
12.8764244707
  0
LINE
  5
3C9
100
AcDbEntity
  8
0
100
AcDbLine
 62
253
  6
CONTINUOUS
 10
-39.6685681707
 20
15.9526145371
 11
-39.6685681707
 21
15.2740429791
  0
LINE
  5
3CA
100
AcDbEntity
  8
0
100
AcDbLine
 62
253
  6
CONTINUOUS
 10
-39.6685681707
 20
10.5240434321
 11
-39.6685681707
 21
10.3883292111
  0
LINE
  5
3CB
100
AcDbEntity
  8
0
100
AcDbLine
 62
253
  6
CONTINUOUS
 10
-39.6685681707
 20
9.0311863216
 11
-39.6685681707
 21
8.8954718741
  0
LINE
  5
3CC
100
AcDbEntity
  8
INCISIONI_LASER
100
AcDbLine
 62
253
  6
CONTINUOUS
 10
-44.2579668595
 20
-4.0952643469
 11
-43.0672346509
 21
-3.4778613469
  0
LINE
  5
3CD
100
AcDbEntity
  8
INCISIONI_LASER
100
AcDbLine
 62
253
  6
CONTINUOUS
 10
-43.0672276531
 20
-4.1311663469
 11
-44.188236105
 21
-4.7124203469
  0
LINE
  5
3CE
100
AcDbEntity
  8
INCISIONI_LASER
100
AcDbLine
 62
253
  6
CONTINUOUS
 10
-28.5672126576
 20
3.9626266531
 11
-29.8668166952
 21
3.3397576531
  0
LWPOLYLINE
  5
3CF
100
AcDbEntity
  8
0
100
AcDbPolyline
 62
253
  6
CONTINUOUS
 90
38
 70
0
 10
-26.6014989993
 20
0.9639331618
 10
-26.6085868476
 20
0.9618304948
 10
-26.6157999813
 20
0.959216948
 10
-26.6231384002
 20
0.9560925215
 10
-26.6306209649
 20
0.9524642657
 10
-26.6382288148
 20
0.9483251301
 10
-26.6459053691
 20
0.943653963
 10
-26.6536574698
 20
0.9384296468
 10
-26.6614782749
 20
0.932673299
 10
-26.6692906765
 20
0.9264271204
 10
-26.6770851378
 20
0.9196837836
 10
-26.6848711957
 20
0.912450616
 10
-26.6926003529
 20
0.9047917999
 10
-26.7002549461
 20
0.8967212546
 10
-26.7078526387
 20
0.8882250609
 10
-26.7153979238
 20
0.8793256437
 10
-26.7228902436
 20
0.8700268284
 10
-26.730330156
 20
0.8603247897
 10
-26.7377238272
 20
0.8502304767
 10
-26.7450721795
 20
0.8397460934
 10
-26.7523742907
 20
0.8288694359
 10
-26.7596335605
 20
0.8176048422
 10
-26.7668466486
 20
0.8059627223
 10
-26.7740168953
 20
0.7939326661
 10
-26.7811577218
 20
0.7814877817
 10
-26.7882704087
 20
0.7686330136
 10
-26.7953536754
 20
0.7553634171
 10
-26.8024171005
 20
0.7416372667
 10
-26.8094641717
 20
0.7274551711
 10
-26.8164914014
 20
0.7128165215
 10
-26.8234979051
 20
0.6976777655
 10
-26.8304874348
 20
0.682038219
 10
-26.8374562386
 20
0.6658985662
 10
-26.8443921766
 20
0.6492173074
 10
-26.8512985911
 20
0.631994876
 10
-26.8581721397
 20
0.6142308386
 10
-26.8649906561
 20
0.5958823954
 10
-26.8713646263
 20
0.5780524609
  0
LWPOLYLINE
  5
3D0
100
AcDbEntity
  8
21814000
100
AcDbPolyline
 62
253
  6
CONTINUOUS
 90
38
 70
0
 10
-26.6014989993
 20
0.9639331618
 10
-26.6085868476
 20
0.9618304948
 10
-26.6157999813
 20
0.959216948
 10
-26.6231384002
 20
0.9560925215
 10
-26.6306209649
 20
0.9524642657
 10
-26.6382288148
 20
0.9483251301
 10
-26.6459053691
 20
0.943653963
 10
-26.6536574698
 20
0.9384296468
 10
-26.6614782749
 20
0.932673299
 10
-26.6692906765
 20
0.9264271204
 10
-26.6770851378
 20
0.9196837836
 10
-26.6848711957
 20
0.912450616
 10
-26.6926003529
 20
0.9047917999
 10
-26.7002549461
 20
0.8967212546
 10
-26.7078526387
 20
0.8882250609
 10
-26.7153979238
 20
0.8793256437
 10
-26.7228902436
 20
0.8700268284
 10
-26.730330156
 20
0.8603247897
 10
-26.7377238272
 20
0.8502304767
 10
-26.7450721795
 20
0.8397460934
 10
-26.7523742907
 20
0.8288694359
 10
-26.7596335605
 20
0.8176048422
 10
-26.7668466486
 20
0.8059627223
 10
-26.7740168953
 20
0.7939326661
 10
-26.7811577218
 20
0.7814877817
 10
-26.7882704087
 20
0.7686330136
 10
-26.7953536754
 20
0.7553634171
 10
-26.8024171005
 20
0.7416372667
 10
-26.8094641717
 20
0.7274551711
 10
-26.8164914014
 20
0.7128165215
 10
-26.8234979051
 20
0.6976777655
 10
-26.8304874348
 20
0.682038219
 10
-26.8374562386
 20
0.6658985662
 10
-26.8443921766
 20
0.6492173074
 10
-26.8512985911
 20
0.631994876
 10
-26.8581721397
 20
0.6142308386
 10
-26.8649906561
 20
0.5958823954
 10
-26.8713646263
 20
0.5780524609
  0
LINE
  5
3D1
100
AcDbEntity
  8
INCISIONI_LASER
100
AcDbLine
 62
253
  6
CONTINUOUS
 10
-45.9663303565
 20
2.8605476531
 11
-43.0672126576
 21
2.8605476531
  0
LINE
  5
3D2
100
AcDbEntity
  8
INCISIONI_LASER
100
AcDbLine
 62
253
  6
CONTINUOUS
 10
-29.8668166952
 20
3.3397576531
 11
-28.5672126576
 21
3.3397576531
  0
LINE
  5
3D3
100
AcDbEntity
  8
INCISIONI_LASER
100
AcDbLine
 62
253
  6
CONTINUOUS
 10
-43.0672126576
 20
3.4831536531
 11
-44.183634507
 21
3.4831536531
  0
LINE
  5
3D4
100
AcDbEntity
  8
INCISIONI_LASER
100
AcDbLine
 62
253
  6
CONTINUOUS
 10
-44.6654207167
 20
3.4831536531
 11
-45.4845441468
 21
3.4831536531
  0
LWPOLYLINE
  5
3D5
100
AcDbEntity
  8
INCISIONI_LASER
100
AcDbPolyline
 62
253
  6
CONTINUOUS
 90
54
 70
0
 10
-45.0749822141
 20
4.2785175389
 10
-45.0618391174
 20
4.2784300189
 10
-45.0486684855
 20
4.278152927
 10
-45.0354837073
 20
4.2776644651
 10
-45.022298172
 20
4.2769428355
 10
-45.0091252686
 20
4.2759662402
 10
-44.9959783863
 20
4.2747128813
 10
-44.9828709141
 20
4.2731609609
 10
-44.9698162411
 20
4.271288681
 10
-44.9568277565
 20
4.2690742438
 10
-44.9439188492
 20
4.2664958514
 10
-44.9311029085
 20
4.2635317058
 10
-44.9183933234
 20
4.2601600091
 10
-44.905803483
 20
4.2563589634
 10
-44.8942126683
 20
4.2524220926
 10
-44.8827549973
 20
4.2480981893
 10
-44.8714484135
 20
4.243390598
 10
-44.86031086
 20
4.238302663
 10
-44.8493602801
 20
4.2328377288
 10
-44.838614617
 20
4.2269991398
 10
-44.8280918142
 20
4.2207902404
 10
-44.8178073008
 20
4.2142154114
 10
-44.8077650524
 20
4.2072822727
 10
-44.7979665414
 20
4.1999994641
 10
-44.7884132403
 20
4.1923756251
 10
-44.7791066217
 20
4.1844193955
 10
-44.7700481579
 20
4.1761394149
 10
-44.7612393214
 20
4.1675443229
 10
-44.755246531
 20
4.1613644359
 10
-44.7494036341
 20
4.1550319786
 10
-44.7437382919
 20
4.1485435674
 10
-44.7382781656
 20
4.1418958187
 10
-44.7330509162
 20
4.135085349
 10
-44.728084205
 20
4.1281087747
 10
-44.7234056932
 20
4.1209627122
 10
-44.7190430418
 20
4.1136437779
 10
-44.715023912
 20
4.1061485882
 10
-44.7113759651
 20
4.0984737597
 10
-44.708094915
 20
4.0905742749
 10
-44.7051634724
 20
4.0825227358
 10
-44.7025275974
 20
4.0743523149
 10
-44.70013325
 20
4.0660961847
 10
-44.6979263902
 20
4.0577875177
 10
-44.6945445461
 20
4.0438575049
 10
-44.6914848428
 20
4.0298759757
 10
-44.6886971128
 20
4.0158454386
 10
-44.6856599351
 20
3.9990233434
 10
-44.6828949915
 20
3.982146882
 10
-44.6803579175
 20
3.96522806
 10
-44.6780043487
 20
3.9482788829
 10
-44.6757899207
 20
3.9313113562
 10
-44.6722920819
 20
3.9029976078
 10
-44.6688911371
 20
3.8746793661
 10
-44.6654203538
 20
3.846369784
  0
LINE
  5
3D6
100
AcDbEntity
  8
26814000
100
AcDbLine
 62
253
  6
CONTINUOUS
 10
-38.864594697
 20
-20.7402423469
 11
-38.864594697
 21
-20.5208825205
  0
LINE
  5
3D7
100
AcDbEntity
  8
26814000
100
AcDbLine
 62
253
  6
CONTINUOUS
 10
-38.864594697
 20
20.8403978266
 11
-38.864594697
 21
21.0597576531
  0
LINE
  5
3D8
100
AcDbEntity
  8
26814000
100
AcDbLine
 62
253
  6
CONTINUOUS
 10
-38.8619769357
 20
21.6048534126
 11
-38.8619769357
 21
21.3597576531
  0
LINE
  5
3D9
100
AcDbEntity
  8
26814000
100
AcDbLine
 62
253
  6
CONTINUOUS
 10
-38.8619769357
 20
-21.0402423469
 11
-38.8619769357
 21
-21.2853381064
  0
LINE
  5
3DA
100
AcDbEntity
  8
0
100
AcDbLine
 62
7
  6
CONTINUOUS
 10
-38.5672126576
 20
-19.4512215158
 11
-38.5672126576
 21
-20.5156916977
  0
LINE
  5
3DB
100
AcDbEntity
  8
21814000
100
AcDbLine
 62
7
  6
CONTINUOUS
 10
-38.5672126576
 20
-19.4512215158
 11
-38.5672126576
 21
-20.5156916977
  0
LINE
  5
3DC
100
AcDbEntity
  8
26814000
100
AcDbLine
 62
7
  6
CONTINUOUS
 10
-38.5672126576
 20
-20.5156916977
 11
-38.5672126576
 21
-21.1529355906
  0
LINE
  5
3DD
100
AcDbEntity
  8
0
100
AcDbLine
 62
7
  6
CONTINUOUS
 10
-38.5672126576
 20
19.7707368219
 11
-38.5672126576
 21
20.8352070038
  0
LINE
  5
3DE
100
AcDbEntity
  8
21814000
100
AcDbLine
 62
7
  6
CONTINUOUS
 10
-38.5672126576
 20
19.7707368219
 11
-38.5672126576
 21
20.8352070038
  0
LINE
  5
3DF
100
AcDbEntity
  8
26814000
100
AcDbLine
 62
7
  6
CONTINUOUS
 10
-38.5672126576
 20
20.8352070038
 11
-38.5672126576
 21
21.4724508968
  0
LWPOLYLINE
  5
3E0
100
AcDbEntity
  8
0
100
AcDbPolyline
 62
253
  6
CONTINUOUS
 90
58
 70
0
 10
-26.5933593804
 20
0.9339503245
 10
-26.5986712872
 20
0.9318301097
 10
-26.6040824167
 20
0.9292002584
 10
-26.609590302
 20
0.9260588614
 10
-26.6152034769
 20
0.9224086012
 10
-26.6209076968
 20
0.9182426327
 10
-26.626666301
 20
0.9135452669
 10
-26.6324814408
 20
0.9082946144
 10
-26.6383446619
 20
0.9025093316
 10
-26.6442041527
 20
0.8962360408
 10
-26.6500506259
 20
0.8894676588
 10
-26.655887867
 20
0.8822098793
 10
-26.6616848012
 20
0.8745299784
 10
-26.6674263185
 20
0.8664417472
 10
-26.6731231159
 20
0.8579311984
 10
-26.6787831543
 20
0.8490242646
 10
-26.6844031268
 20
0.8397239723
 10
-26.6899814082
 20
0.8300264796
 10
-26.6955279229
 20
0.8199468658
 10
-26.7010399687
 20
0.8094861475
 10
-26.7065145608
 20
0.7986419107
 10
-26.711960455
 20
0.7874234744
 10
-26.7173709146
 20
0.7758394746
 10
-26.7227460858
 20
0.7638793735
 10
-26.7281037915
 20
0.7515228404
 10
-26.7334390957
 20
0.7387721248
 10
-26.7387481588
 20
0.7256219032
 10
-26.7440484776
 20
0.7120392371
 10
-26.7493349332
 20
0.6980212628
 10
-26.7546008842
 20
0.6835664356
 10
-26.7598592239
 20
0.6686424896
 10
-26.76510298
 20
0.653244627
 10
-26.7703238217
 20
0.6373719698
 10
-26.7755300682
 20
0.6209968651
 10
-26.7807119454
 20
0.6041150007
 10
-26.7858597627
 20
0.5867238557
 10
-26.7909790375
 20
0.5687971648
 10
-26.7960548592
 20
0.5503386537
 10
-26.8010776187
 20
0.5313367033
 10
-26.806056519
 20
0.5117402938
 10
-26.8109740814
 20
0.4915463796
 10
-26.8158151484
 20
0.4707484237
 10
-26.8205860363
 20
0.4492878087
 10
-26.8252639944
 20
0.4271582281
 10
-26.8298280463
 20
0.4043547642
 10
-26.8342785112
 20
0.380818093
 10
-26.8385877349
 20
0.356525221
 10
-26.8427243236
 20
0.3314866932
 10
-26.8466728904
 20
0.3056909064
 10
-26.850394371
 20
0.2791342125
 10
-26.8538528454
 20
0.2518093539
 10
-26.8570247258
 20
0.2236969062
 10
-26.8598567166
 20
0.194823902
 10
-26.8623052032
 20
0.1651564763
 10
-26.8643363145
 20
0.1345802004
 10
-26.865884042
 20
0.1030549535
 10
-26.866867799
 20
0.0706200779
 10
-26.8672126576
 20
0.0372815308
  0
LWPOLYLINE
  5
3E1
100
AcDbEntity
  8
21814000
100
AcDbPolyline
 62
253
  6
CONTINUOUS
 90
58
 70
0
 10
-26.5933593804
 20
0.9339503245
 10
-26.5986712872
 20
0.9318301097
 10
-26.6040824167
 20
0.9292002584
 10
-26.609590302
 20
0.9260588614
 10
-26.6152034769
 20
0.9224086012
 10
-26.6209076968
 20
0.9182426327
 10
-26.626666301
 20
0.9135452669
 10
-26.6324814408
 20
0.9082946144
 10
-26.6383446619
 20
0.9025093316
 10
-26.6442041527
 20
0.8962360408
 10
-26.6500506259
 20
0.8894676588
 10
-26.655887867
 20
0.8822098793
 10
-26.6616848012
 20
0.8745299784
 10
-26.6674263185
 20
0.8664417472
 10
-26.6731231159
 20
0.8579311984
 10
-26.6787831543
 20
0.8490242646
 10
-26.6844031268
 20
0.8397239723
 10
-26.6899814082
 20
0.8300264796
 10
-26.6955279229
 20
0.8199468658
 10
-26.7010399687
 20
0.8094861475
 10
-26.7065145608
 20
0.7986419107
 10
-26.711960455
 20
0.7874234744
 10
-26.7173709146
 20
0.7758394746
 10
-26.7227460858
 20
0.7638793735
 10
-26.7281037915
 20
0.7515228404
 10
-26.7334390957
 20
0.7387721248
 10
-26.7387481588
 20
0.7256219032
 10
-26.7440484776
 20
0.7120392371
 10
-26.7493349332
 20
0.6980212628
 10
-26.7546008842
 20
0.6835664356
 10
-26.7598592239
 20
0.6686424896
 10
-26.76510298
 20
0.653244627
 10
-26.7703238217
 20
0.6373719698
 10
-26.7755300682
 20
0.6209968651
 10
-26.7807119454
 20
0.6041150007
 10
-26.7858597627
 20
0.5867238557
 10
-26.7909790375
 20
0.5687971648
 10
-26.7960548592
 20
0.5503386537
 10
-26.8010776187
 20
0.5313367033
 10
-26.806056519
 20
0.5117402938
 10
-26.8109740814
 20
0.4915463796
 10
-26.8158151484
 20
0.4707484237
 10
-26.8205860363
 20
0.4492878087
 10
-26.8252639944
 20
0.4271582281
 10
-26.8298280463
 20
0.4043547642
 10
-26.8342785112
 20
0.380818093
 10
-26.8385877349
 20
0.356525221
 10
-26.8427243236
 20
0.3314866932
 10
-26.8466728904
 20
0.3056909064
 10
-26.850394371
 20
0.2791342125
 10
-26.8538528454
 20
0.2518093539
 10
-26.8570247258
 20
0.2236969062
 10
-26.8598567166
 20
0.194823902
 10
-26.8623052032
 20
0.1651564763
 10
-26.8643363145
 20
0.1345802004
 10
-26.865884042
 20
0.1030549535
 10
-26.866867799
 20
0.0706200779
 10
-26.8672126576
 20
0.0372815308
  0
LINE
  5
3E2
100
AcDbEntity
  8
INCISIONI_LASER
100
AcDbLine
 62
253
  6
CONTINUOUS
 10
-45.9664743126
 20
-7.1165633469
 11
-43.0672196555
 21
-6.1854243469
  0
LWPOLYLINE
  5
3E3
100
AcDbEntity
  8
0
100
AcDbPolyline
 62
253
  6
CONTINUOUS
 90
43
 70
0
 10
-27.7515054918
 20
11.2779950619
 10
-27.7277560046
 20
11.2847058389
 10
-27.7036737995
 20
11.2883454162
 10
-27.6792778428
 20
11.2889137939
 10
-27.6545388504
 20
11.2864426915
 10
-27.6295291874
 20
11.2809003895
 10
-27.6044209469
 20
11.2721917292
 10
-27.5791934302
 20
11.260097728
 10
-27.5539150052
 20
11.2448373686
 10
-27.5288855
 20
11.2269724399
 10
-27.5042193938
 20
11.2064797658
 10
-27.4798380529
 20
11.1833825224
 10
-27.4557457688
 20
11.1583120275
 10
-27.4320225293
 20
11.1313832958
 10
-27.408621839
 20
11.1024813125
 10
-27.3853649772
 20
11.0718923504
 10
-27.362280425
 20
11.0396823966
 10
-27.3393883153
 20
11.005785464
 10
-27.3165143324
 20
10.9702898649
 10
-27.2936742286
 20
10.9331940862
 10
-27.2709263623
 20
10.8944996411
 10
-27.2481797112
 20
10.8542993807
 10
-27.2254839362
 20
10.8126002872
 10
-27.2028911496
 20
10.7693953785
 10
-27.1803350987
 20
10.7247565598
 10
-27.1579149532
 20
10.6787409156
 10
-27.1356696158
 20
10.6312913614
 10
-27.1134778616
 20
10.5823085486
 10
-27.0914763524
 20
10.5318404541
 10
-27.0697367375
 20
10.4798391011
 10
-27.0481082118
 20
10.4260612109
 10
-27.0267698612
 20
10.3704704628
 10
-27.0058821744
 20
10.3131031776
 10
-26.9853767641
 20
10.2538250391
 10
-26.9655336991
 20
10.1925599285
 10
-26.9466142434
 20
10.1293839646
 10
-26.92868909
 20
10.0643911869
 10
-26.9121209454
 20
9.9972054817
 10
-26.8974258574
 20
9.9282029628
 10
-26.8850530369
 20
9.8586060115
 10
-26.8755200863
 20
9.7888220881
 10
-26.8693851001
 20
9.7184437324
 10
-26.8672126576
 20
9.6474709441
  0
LWPOLYLINE
  5
3E4
100
AcDbEntity
  8
21814000
100
AcDbPolyline
 62
253
  6
CONTINUOUS
 90
43
 70
0
 10
-27.7515054918
 20
11.2779950619
 10
-27.7277560046
 20
11.2847058389
 10
-27.7036737995
 20
11.2883454162
 10
-27.6792778428
 20
11.2889137939
 10
-27.6545388504
 20
11.2864426915
 10
-27.6295291874
 20
11.2809003895
 10
-27.6044209469
 20
11.2721917292
 10
-27.5791934302
 20
11.260097728
 10
-27.5539150052
 20
11.2448373686
 10
-27.5288855
 20
11.2269724399
 10
-27.5042193938
 20
11.2064797658
 10
-27.4798380529
 20
11.1833825224
 10
-27.4557457688
 20
11.1583120275
 10
-27.4320225293
 20
11.1313832958
 10
-27.408621839
 20
11.1024813125
 10
-27.3853649772
 20
11.0718923504
 10
-27.362280425
 20
11.0396823966
 10
-27.3393883153
 20
11.005785464
 10
-27.3165143324
 20
10.9702898649
 10
-27.2936742286
 20
10.9331940862
 10
-27.2709263623
 20
10.8944996411
 10
-27.2481797112
 20
10.8542993807
 10
-27.2254839362
 20
10.8126002872
 10
-27.2028911496
 20
10.7693953785
 10
-27.1803350987
 20
10.7247565598
 10
-27.1579149532
 20
10.6787409156
 10
-27.1356696158
 20
10.6312913614
 10
-27.1134778616
 20
10.5823085486
 10
-27.0914763524
 20
10.5318404541
 10
-27.0697367375
 20
10.4798391011
 10
-27.0481082118
 20
10.4260612109
 10
-27.0267698612
 20
10.3704704628
 10
-27.0058821744
 20
10.3131031776
 10
-26.9853767641
 20
10.2538250391
 10
-26.9655336991
 20
10.1925599285
 10
-26.9466142434
 20
10.1293839646
 10
-26.92868909
 20
10.0643911869
 10
-26.9121209454
 20
9.9972054817
 10
-26.8974258574
 20
9.9282029628
 10
-26.8850530369
 20
9.8586060115
 10
-26.8755200863
 20
9.7888220881
 10
-26.8693851001
 20
9.7184437324
 10
-26.8672126576
 20
9.6474709441
  0
LWPOLYLINE
  5
3E5
100
AcDbEntity
  8
INCISIONI_LASER
100
AcDbPolyline
 62
253
  6
CONTINUOUS
 90
56
 70
0
 10
-45.0749822141
 20
4.9412844534
 10
-45.1054747339
 20
4.9409793972
 10
-45.1359718512
 20
4.9400315819
 10
-45.1664485019
 20
4.9383920376
 10
-45.1968796218
 20
4.9360117941
 10
-45.2272401469
 20
4.9328418815
 10
-45.2575050129
 20
4.9288333297
 10
-45.2876491559
 20
4.9239371688
 10
-45.31393697
 20
4.9188813738
 10
-45.3400790436
 20
4.9130848034
 10
-45.3660415383
 20
4.9065255721
 10
-45.3917906155
 20
4.8991817946
 10
-45.4172924367
 20
4.8910315856
 10
-45.4425131632
 20
4.8820530596
 10
-45.4674189567
 20
4.8722243314
 10
-45.4919759785
 20
4.8615235156
 10
-45.5161419596
 20
4.8499362134
 10
-45.5398767225
 20
4.8374605382
 10
-45.5631314698
 20
4.8241016474
 10
-45.5858574043
 20
4.8098646984
 10
-45.6080057284
 20
4.7947548486
 10
-45.629527645
 20
4.7787772555
 10
-45.6503743565
 20
4.7619370765
 10
-45.6704970656
 20
4.7442394691
 10
-45.6897879056
 20
4.7257617417
 10
-45.7082962928
 20
4.7064872628
 10
-45.7260073113
 20
4.6864657477
 10
-45.7429060449
 20
4.6657469117
 10
-45.7589775778
 20
4.6443804701
 10
-45.7742069938
 20
4.6224161382
 10
-45.788579377
 20
4.5999036313
 10
-45.8020798113
 20
4.5768926647
 10
-45.8147536251
 20
4.5533543764
 10
-45.8266324479
 20
4.5294265292
 10
-45.8378142026
 20
4.5051713693
 10
-45.8483968123
 20
4.4806511429
 10
-45.8617235528
 20
4.4476498642
 10
-45.8742945544
 20
4.4143499625
 10
-45.8862445275
 20
4.3808131364
 10
-45.8948583085
 20
4.3555150929
 10
-45.9030848953
 20
4.3300922751
 10
-45.9108110446
 20
4.3045186163
 10
-45.9179235133
 20
4.27876805
 10
-45.9243156698
 20
4.2528715307
 10
-45.9299771249
 20
4.2267994956
 10
-45.9349014123
 20
4.2005786521
 10
-45.9390820656
 20
4.1742357079
 10
-45.9425461525
 20
4.1477321721
 10
-45.9454065541
 20
4.1211554972
 10
-45.9478133445
 20
4.0945284025
 10
-45.9499165982
 20
4.0678736076
 10
-45.9536268468
 20
4.0145903297
 10
-45.9568281329
 20
3.9612838288
 10
-45.9604718676
 20
3.8902071638
 10
-45.9635784133
 20
3.8190996759
 10
-45.9663302159
 20
3.7479777105
  0
LINE
  5
3E6
100
AcDbEntity
  8
INCISIONI_LASER
100
AcDbLine
 62
253
  6
CONTINUOUS
 10
-28.5672126576
 20
4.5854936531
 11
-29.8668166952
 21
4.5854936531
  0
LINE
  5
3E7
100
AcDbEntity
  8
26814000
100
AcDbLine
 62
253
  6
CONTINUOUS
 10
-52.7778467653
 20
4.9597576531
 11
-53.0981153875
 21
4.9597576531
  0
LINE
  5
3E8
100
AcDbEntity
  8
26814000
100
AcDbLine
 62
7
  6
CONTINUOUS
 10
-52.7532898531
 20
5.1597576531
 11
-53.0770945404
 21
5.1597576531
  0
LINE
  5
3E9
100
AcDbEntity
  8
INCISIONI_LASER
100
AcDbLine
 62
253
  6
CONTINUOUS
 10
-43.0672126576
 20
5.3308906531
 11
-45.9663303565
 21
5.3308906531
  0
LINE
  5
3EA
100
AcDbEntity
  8
26814000
100
AcDbLine
 62
253
  6
CONTINUOUS
 10
-52.7287329409
 20
5.3597576531
 11
-53.0560736934
 21
5.3597576531
  0
LINE
  5
3EB
100
AcDbEntity
  8
0
100
AcDbLine
 62
7
  6
CONTINUOUS
 10
-26.8672126576
 20
5.6597576531
 11
-26.6672126576
 21
5.6597576531
  0
LINE
  5
3EC
100
AcDbEntity
  8
21814000
100
AcDbLine
 62
7
  6
CONTINUOUS
 10
-26.8672126576
 20
5.6597576531
 11
-26.6672126576
 21
5.6597576531
  0
LINE
  5
3ED
100
AcDbEntity
  8
INCISIONI_LASER
100
AcDbLine
 62
253
  6
CONTINUOUS
 10
-45.9663303565
 20
5.9534966531
 11
-43.5489988673
 21
5.9534966531
  0
LINE
  5
3EE
100
AcDbEntity
  8
INCISIONI_LASER
100
AcDbLine
 62
253
  6
CONTINUOUS
 10
-29.8668166952
 20
6.0701646531
 11
-28.5672126576
 21
6.0701646531
  0
LINE
  5
3EF
100
AcDbEntity
  8
0
100
AcDbLine
 62
253
  6
CONTINUOUS
 10
-41.5682787915
 20
6.4526148202
 11
-39.6685681707
 21
6.4526148202
  0
LINE
  5
3F0
100
AcDbEntity
  8
0
100
AcDbLine
 62
253
  6
CONTINUOUS
 10
-26.8718836224
 20
5.7580462894
 11
-26.8713646263
 21
5.7580462174
  0
LINE
  5
3F1
100
AcDbEntity
  8
21814000
100
AcDbLine
 62
253
  6
CONTINUOUS
 10
-26.8718836224
 20
5.7580462894
 11
-26.8713646263
 21
5.7580462174
  0
LINE
  5
3F2
100
AcDbEntity
  8
0
100
AcDbLine
 62
7
  6
CONTINUOUS
 10
-26.5933593804
 20
4.9357985958
 11
-24.8410659348
 21
4.7824927842
  0
LINE
  5
3F3
100
AcDbEntity
  8
21814000
100
AcDbLine
 62
7
  6
CONTINUOUS
 10
-26.5933593804
 20
4.9357985958
 11
-24.8410659348
 21
4.7824927842
  0
LINE
  5
3F4
100
AcDbEntity
  8
0
100
AcDbLine
 62
253
  6
CONTINUOUS
 10
-41.0255043608
 20
5.9097576531
 11
-41.5682787915
 21
6.4526148202
  0
LWPOLYLINE
  5
3F5
100
AcDbEntity
  8
0
100
AcDbPolyline
 62
253
  6
CONTINUOUS
 90
7
 70
0
 10
-26.8713646263
 20
-11.5394864286
 10
-26.8690087671
 20
-11.5425695584
 10
-26.8505371468
 20
-11.5646644293
 10
-26.8311397978
 20
-11.5867155385
 10
-26.8109484701
 20
-11.6088250644
 10
-26.7898314138
 20
-11.6308908285
 10
-26.7677886288
 20
-11.6529128309
  0
LWPOLYLINE
  5
3F6
100
AcDbEntity
  8
21814000
100
AcDbPolyline
 62
253
  6
CONTINUOUS
 90
7
 70
0
 10
-26.8713646263
 20
-11.5394864286
 10
-26.8690087671
 20
-11.5425695584
 10
-26.8505371468
 20
-11.5646644293
 10
-26.8311397978
 20
-11.5867155385
 10
-26.8109484701
 20
-11.6088250644
 10
-26.7898314138
 20
-11.6308908285
 10
-26.7677886288
 20
-11.6529128309
  0
LWPOLYLINE
  5
3F7
100
AcDbEntity
  8
INCISIONI_LASER
100
AcDbPolyline
 62
253
  6
CONTINUOUS
 90
12
 70
0
 10
-35.9132063767
 20
11.6247750888
 10
-35.9135358428
 20
11.6384148097
 10
-35.9137621518
 20
11.6520543226
 10
-35.9138852568
 20
11.6656927006
 10
-35.9139051113
 20
11.679329017
 10
-35.9138216684
 20
11.692962345
 10
-35.9136348814
 20
11.7065917576
 10
-35.9133447037
 20
11.7202163282
 10
-35.9129510884
 20
11.7338351298
 10
-35.9124539889
 20
11.7474472357
 10
-35.9118533584
 20
11.7610517191
 10
-35.9111491501
 20
11.7746476531
  0
LINE
  5
3F8
100
AcDbEntity
  8
INCISIONI_LASER
100
AcDbLine
 62
253
  6
CONTINUOUS
 10
-36.202120535
 20
-13.8880313469
 11
-36.202120535
 21
-13.3924533469
  0
LWPOLYLINE
  5
3F9
100
AcDbEntity
  8
INCISIONI_LASER
100
AcDbPolyline
 62
253
  6
CONTINUOUS
 90
83
 70
0
 10
-36.6617374614
 20
16.1597606531
 10
-36.6636855722
 20
16.062192483
 10
-36.6618887
 20
15.964522984
 10
-36.6563567172
 20
15.8669217683
 10
-36.6470994959
 20
15.7695584482
 10
-36.6341269083
 20
15.672602636
 10
-36.6174488265
 20
15.576223944
 10
-36.5970807437
 20
15.4805854322
 10
-36.5730606369
 20
15.3858239518
 10
-36.5454321042
 20
15.2920698015
 10
-36.5142387437
 20
15.1994532803
 10
-36.4795241534
 20
15.1081046868
 10
-36.4413319314
 20
15.0181543199
 10
-36.3997106423
 20
14.9297317052
 10
-36.3547287176
 20
14.8429632748
 10
-36.3064595551
 20
14.7579746876
 10
-36.2549765529
 20
14.6748916026
 10
-36.2003531091
 20
14.5938396786
 10
-36.1426626216
 20
14.5149445746
 10
-36.0819828835
 20
14.4383282182
 10
-36.0184092685
 20
14.3640976116
 10
-35.9520415456
 20
14.2923560258
 10
-35.8829794834
 20
14.223206732
 10
-35.811322851
 20
14.1567530011
 10
-35.737171417
 20
14.0930981042
 10
-35.6606284503
 20
14.0323411714
 10
-35.5818112189
 20
13.9745647701
 10
-35.5008404909
 20
13.9198473266
 10
-35.4178370342
 20
13.8682672674
 10
-35.3329216168
 20
13.819903019
 10
-35.2462150067
 20
13.7748330078
 10
-35.1578404169
 20
13.7331306976
 10
-35.0679308402
 20
13.6948497023
 10
-34.9766217144
 20
13.6600386727
 10
-34.8840484772
 20
13.62874626
 10
-34.7903465663
 20
13.6010211154
 10
-34.6956514196
 20
13.5769118898
 10
-34.6000997295
 20
13.5564618812
 10
-34.5038332072
 20
13.5396929743
 10
-34.4069948188
 20
13.5266217007
 10
-34.3097275302
 20
13.517264592
 10
-34.2121743074
 20
13.5116381798
 10
-34.1144781163
 20
13.5097589955
 10
-34.0167819229
 20
13.5116380604
 10
-33.9192286931
 20
13.5172643534
 10
-33.8219613931
 20
13.5266213433
 10
-33.7251229887
 20
13.5396924985
 10
-33.628856446
 20
13.5564612877
 10
-33.5333047309
 20
13.5769111796
 10
-33.4386095547
 20
13.6010202894
 10
-33.34490761
 20
13.6287453196
 10
-33.2523343346
 20
13.6600376191
 10
-33.1610251662
 20
13.6948485371
 10
-33.0711155428
 20
13.7331294226
 10
-32.982740902
 20
13.7748316247
 10
-32.8960342369
 20
13.81990153
 10
-32.8111187605
 20
13.8682656746
 10
-32.7281152408
 20
13.9198456324
 10
-32.6471444459
 20
13.9745629769
 10
-32.568327144
 20
14.0323392819
 10
-32.491784103
 20
14.0930961211
 10
-32.4176325913
 20
14.1567509275
 10
-32.3459758777
 20
14.2232045708
 10
-32.2769137311
 20
14.2923537802
 10
-32.2105459206
 20
14.3640952848
 10
-32.146972215
 20
14.4383258137
 10
-32.0862923833
 20
14.514942096
 10
-32.0286017994
 20
14.5938371295
 10
-31.9739782566
 20
14.6748889867
 10
-31.9224951529
 20
14.7579720088
 10
-31.8742258867
 20
14.842960537
 10
-31.8292438559
 20
14.9297289124
 10
-31.7876224589
 20
15.0181514763
 10
-31.749430127
 20
15.1081017965
 10
-31.7147154251
 20
15.1994503476
 10
-31.6835219515
 20
15.2920668307
 10
-31.6558933043
 20
15.3858209472
 10
-31.6318730818
 20
15.4805823983
 10
-31.6115048822
 20
15.5762208851
 10
-31.5948266827
 20
15.6725995568
 10
-31.5818539766
 20
15.7695553531
 10
-31.5725966364
 20
15.8669186619
 10
-31.5670645344
 20
15.9645198709
  0
LWPOLYLINE
  5
3FA
100
AcDbEntity
  8
INCISIONI_LASER
100
AcDbPolyline
 62
253
  6
CONTINUOUS
 90
83
 70
0
 10
-36.6617374614
 20
11.7746476531
 10
-36.6636854574
 20
11.6770795207
 10
-36.6618884733
 20
11.5794100639
 10
-36.6563563815
 20
11.4818088946
 10
-36.6470990543
 20
11.384445625
 10
-36.6341263642
 20
11.2874898672
 10
-36.6174481834
 20
11.1911112332
 10
-36.5970800052
 20
11.0954727829
 10
-36.5730598069
 20
11.0007113672
 10
-36.5454311866
 20
10.9069572847
 10
-36.5142377424
 20
10.814340834
 10
-36.4795230724
 20
10.7229923138
 10
-36.4413307748
 20
10.6330420226
 10
-36.3997094144
 20
10.5446194859
 10
-36.3547274226
 20
10.4578511356
 10
-36.3064581973
 20
10.3728626303
 10
-36.2549751367
 20
10.2897796288
 10
-36.2003516388
 20
10.2087277898
 10
-36.1426611015
 20
10.129832772
 10
-36.0819813182
 20
10.0532165026
 10
-36.0184076624
 20
9.978985984
 10
-35.952039903
 20
9.9072444867
 10
-35.8829778088
 20
9.8380952818
 10
-35.8113211486
 20
9.7716416399
 10
-35.7371696913
 20
9.7079868319
 10
-35.6606267055
 20
9.6472299879
 10
-35.5818094592
 20
9.5894536749
 10
-35.5008387204
 20
9.5347363191
 10
-35.4178352571
 20
9.4831563467
 10
-35.332919837
 20
9.4347921842
 10
-35.2462132283
 20
9.3897222577
 10
-35.1578386436
 20
9.3480200309
 10
-35.0679290758
 20
9.3097391173
 10
-34.9766199624
 20
9.2749281678
 10
-34.8840467411
 20
9.2436358335
 10
-34.7903448496
 20
9.2159107652
 10
-34.6956497254
 20
9.1918016139
 10
-34.600098061
 20
9.1713516772
 10
-34.5038315674
 20
9.1545828398
 10
-34.4069932105
 20
9.1415116333
 10
-34.3097259561
 20
9.132154589
 10
-34.2121727699
 20
9.1265282385
 10
-34.1144766179
 20
9.1246491132
 10
-34.0167804657
 20
9.126528234
 10
-33.9192272793
 20
9.13215458
 10
-33.8219600244
 20
9.1415116198
 10
-33.7251216669
 20
9.1545828219
 10
-33.6288551726
 20
9.1713516548
 10
-33.5333035072
 20
9.191801587
 10
-33.438608382
 20
9.215910734
 10
-33.3449064891
 20
9.243635798
 10
-33.2523332664
 20
9.2749281281
 10
-33.1610241514
 20
9.3097390733
 10
-33.0711145818
 20
9.3480199827
 10
-32.9827399952
 20
9.3897222054
 10
-32.8960333844
 20
9.434792128
 10
-32.8111179621
 20
9.4831562866
 10
-32.7281144964
 20
9.5347362551
 10
-32.6471437551
 20
9.5894536071
 10
-32.5683265062
 20
9.6472299166
 10
-32.4917835175
 20
9.707986757
 10
-32.4176320573
 20
9.7716415616
 10
-32.345975394
 20
9.8380952002
 10
-32.2769132966
 20
9.9072444019
 10
-32.2105455339
 20
9.9789858961
 10
-32.1469718747
 20
10.0532164118
 10
-32.0862920878
 20
10.1298326784
 10
-32.028601547
 20
10.2087276936
 10
-31.9739780453
 20
10.2897795301
 10
-31.9224949808
 20
10.3728625292
 10
-31.8742257517
 20
10.4578510322
 10
-31.8292437558
 20
10.5446193804
 10
-31.7876223913
 20
10.6330419153
 10
-31.7494300896
 20
10.7229922046
 10
-31.7147154154
 20
10.8143407232
 10
-31.683521967
 20
10.9069571725
 10
-31.6558933423
 20
11.0007112537
 10
-31.6318731396
 20
11.0954726683
 10
-31.6115049571
 20
11.1911111177
 10
-31.5948267718
 20
11.2874897509
 10
-31.5818540772
 20
11.3844455082
 10
-31.5725967455
 20
11.4818087773
 10
-31.5670646492
 20
11.5794099463
  0
LINE
  5
3FB
100
AcDbEntity
  8
INCISIONI_LASER
100
AcDbLine
 62
253
  6
CONTINUOUS
 10
-44.188236105
 20
-7.1254883469
 11
-45.0635084276
 21
-7.4065923469
  0
LINE
  5
3FC
100
AcDbEntity
  8
INCISIONI_LASER
100
AcDbLine
 62
253
  6
CONTINUOUS
 10
-43.0672276531
 20
-6.7654533469
 11
-43.6373819388
 21
-6.9485593469
  0
LWPOLYLINE
  5
3FD
100
AcDbEntity
  8
0
100
AcDbPolyline
 62
7
  6
CONTINUOUS
 90
76
 70
0
 10
-27.5965474611
 20
11.3626526735
 10
-27.5072892214
 20
11.3851806653
 10
-27.4204829435
 20
11.4075867971
 10
-27.3361286276
 20
11.4298710689
 10
-27.2542827435
 20
11.4520211973
 10
-27.1748888213
 20
11.4740494657
 10
-27.0977774511
 20
11.4959927241
 10
-27.0229387869
 20
11.517850282
 10
-26.9503826746
 20
11.53962283
 10
-26.8799692429
 20
11.5613492899
 10
-26.8116914913
 20
11.5830273673
 10
-26.7455564203
 20
11.6046593566
 10
-26.6814451599
 20
11.6262910634
 10
-26.6193494299
 20
11.6479191013
 10
-26.5592775104
 20
11.6695468566
 10
-26.5011353717
 20
11.6912302939
 10
-26.4449122362
 20
11.7129643833
 10
-26.3906188814
 20
11.7347541546
 10
-26.3381936102
 20
11.7566706615
 10
-26.2876210195
 20
11.7787062557
 10
-26.2389165123
 20
11.8008685855
 10
-26.1920646006
 20
11.8232516503
 10
-26.1470391388
 20
11.8458448213
 10
-26.1038662724
 20
11.8686587272
 10
-26.06260895
 20
11.8918192536
 10
-26.0232229091
 20
11.9153110006
 10
-25.9857524122
 20
11.9391493681
 10
-25.9503931959
 20
11.9635064418
 10
-25.9170459778
 20
11.9883931806
 10
-25.8858100404
 20
12.0137986256
 10
-25.8571789667
 20
12.0398619861
 10
-25.8310431582
 20
12.0666729143
 10
-25.8075122135
 20
12.0941417579
 10
-25.7874085123
 20
12.1221387703
 10
-25.7707993566
 20
12.1507073714
 10
-25.7576174445
 20
12.1798041412
 10
-25.7484832488
 20
12.209169073
 10
-25.7435540142
 20
12.2388208694
 10
-25.7426724961
 20
12.2687408278
 10
-25.7459874333
 20
12.2986128329
 10
-25.7537370072
 20
12.3284922465
 10
-25.7656830364
 20
12.3583237068
 10
-25.7812597154
 20
12.3876250128
 10
-25.8005767397
 20
12.4162927823
 10
-25.8235244138
 20
12.4444303975
 10
-25.8492078451
 20
12.4718658039
 10
-25.8775116545
 20
12.498492783
 10
-25.9085512211
 20
12.5244175532
 10
-25.9417777894
 20
12.5497867159
 10
-25.9770844137
 20
12.5745886729
 10
-26.0145780397
 20
12.5988350224
 10
-26.0540307478
 20
12.6227071591
 10
-26.0953916954
 20
12.6462204724
 10
-26.1387117251
 20
12.669359573
 10
-26.1839154464
 20
12.6922596886
 10
-26.2309749632
 20
12.7149327664
 10
-26.2799181716
 20
12.7373668592
 10
-26.3307533691
 20
12.7596613526
 10
-26.3834629674
 20
12.7818241395
 10
-26.4380645548
 20
12.803847327
 10
-26.4946191936
 20
12.8258066222
 10
-26.5531188927
 20
12.8477086226
 10
-26.6135716432
 20
12.8695467307
 10
-26.6760624804
 20
12.8913768615
 10
-26.7405854486
 20
12.9132031447
 10
-26.8071465036
 20
12.9350214507
 10
-26.8758485476
 20
12.9568753057
 10
-26.9466763099
 20
12.9787646181
 10
-27.0196450611
 20
13.0006894796
 10
-27.0949035156
 20
13.0226936905
 10
-27.172441751
 20
13.0447789527
 10
-27.2522696897
 20
13.0669435645
 10
-27.3345658133
 20
13.0892262202
 10
-27.4193896157
 20
13.1116398181
 10
-27.5066816031
 20
13.1341714601
 10
-27.5964417754
 20
13.1568211461
  0
LWPOLYLINE
  5
3FE
100
AcDbEntity
  8
21814000
100
AcDbPolyline
 62
7
  6
CONTINUOUS
 90
76
 70
0
 10
-27.5965474611
 20
11.3626526735
 10
-27.5072892214
 20
11.3851806653
 10
-27.4204829435
 20
11.4075867971
 10
-27.3361286276
 20
11.4298710689
 10
-27.2542827435
 20
11.4520211973
 10
-27.1748888213
 20
11.4740494657
 10
-27.0977774511
 20
11.4959927241
 10
-27.0229387869
 20
11.517850282
 10
-26.9503826746
 20
11.53962283
 10
-26.8799692429
 20
11.5613492899
 10
-26.8116914913
 20
11.5830273673
 10
-26.7455564203
 20
11.6046593566
 10
-26.6814451599
 20
11.6262910634
 10
-26.6193494299
 20
11.6479191013
 10
-26.5592775104
 20
11.6695468566
 10
-26.5011353717
 20
11.6912302939
 10
-26.4449122362
 20
11.7129643833
 10
-26.3906188814
 20
11.7347541546
 10
-26.3381936102
 20
11.7566706615
 10
-26.2876210195
 20
11.7787062557
 10
-26.2389165123
 20
11.8008685855
 10
-26.1920646006
 20
11.8232516503
 10
-26.1470391388
 20
11.8458448213
 10
-26.1038662724
 20
11.8686587272
 10
-26.06260895
 20
11.8918192536
 10
-26.0232229091
 20
11.9153110006
 10
-25.9857524122
 20
11.9391493681
 10
-25.9503931959
 20
11.9635064418
 10
-25.9170459778
 20
11.9883931806
 10
-25.8858100404
 20
12.0137986256
 10
-25.8571789667
 20
12.0398619861
 10
-25.8310431582
 20
12.0666729143
 10
-25.8075122135
 20
12.0941417579
 10
-25.7874085123
 20
12.1221387703
 10
-25.7707993566
 20
12.1507073714
 10
-25.7576174445
 20
12.1798041412
 10
-25.7484832488
 20
12.209169073
 10
-25.7435540142
 20
12.2388208694
 10
-25.7426724961
 20
12.2687408278
 10
-25.7459874333
 20
12.2986128329
 10
-25.7537370072
 20
12.3284922465
 10
-25.7656830364
 20
12.3583237068
 10
-25.7812597154
 20
12.3876250128
 10
-25.8005767397
 20
12.4162927823
 10
-25.8235244138
 20
12.4444303975
 10
-25.8492078451
 20
12.4718658039
 10
-25.8775116545
 20
12.498492783
 10
-25.9085512211
 20
12.5244175532
 10
-25.9417777894
 20
12.5497867159
 10
-25.9770844137
 20
12.5745886729
 10
-26.0145780397
 20
12.5988350224
 10
-26.0540307478
 20
12.6227071591
 10
-26.0953916954
 20
12.6462204724
 10
-26.1387117251
 20
12.669359573
 10
-26.1839154464
 20
12.6922596886
 10
-26.2309749632
 20
12.7149327664
 10
-26.2799181716
 20
12.7373668592
 10
-26.3307533691
 20
12.7596613526
 10
-26.3834629674
 20
12.7818241395
 10
-26.4380645548
 20
12.803847327
 10
-26.4946191936
 20
12.8258066222
 10
-26.5531188927
 20
12.8477086226
 10
-26.6135716432
 20
12.8695467307
 10
-26.6760624804
 20
12.8913768615
 10
-26.7405854486
 20
12.9132031447
 10
-26.8071465036
 20
12.9350214507
 10
-26.8758485476
 20
12.9568753057
 10
-26.9466763099
 20
12.9787646181
 10
-27.0196450611
 20
13.0006894796
 10
-27.0949035156
 20
13.0226936905
 10
-27.172441751
 20
13.0447789527
 10
-27.2522696897
 20
13.0669435645
 10
-27.3345658133
 20
13.0892262202
 10
-27.4193896157
 20
13.1116398181
 10
-27.5066816031
 20
13.1341714601
 10
-27.5964417754
 20
13.1568211461
  0
LINE
  5
3FF
100
AcDbEntity
  8
0
100
AcDbLine
 62
7
  6
CONTINUOUS
 10
-26.5933593804
 20
9.1837167103
 11
-24.8410659348
 21
9.3370225219
  0
LINE
  5
400
100
AcDbEntity
  8
21814000
100
AcDbLine
 62
7
  6
CONTINUOUS
 10
-26.5933593804
 20
9.1837167103
 11
-24.8410659348
 21
9.3370225219
  0
LINE
  5
401
100
AcDbEntity
  8
INCISIONI_LASER
100
AcDbLine
 62
253
  6
CONTINUOUS
 10
-43.5489988673
 20
7.0264956531
 11
-43.0672126576
 21
7.0264956531
  0
LINE
  5
402
100
AcDbEntity
  8
0
100
AcDbLine
 62
7
  6
CONTINUOUS
 10
-26.8672126576
 20
7.3172044622
 11
-26.6672126576
 21
7.3172044622
  0
LINE
  5
403
100
AcDbEntity
  8
21814000
100
AcDbLine
 62
7
  6
CONTINUOUS
 10
-26.8672126576
 20
7.3172044622
 11
-26.6672126576
 21
7.3172044622
  0
LINE
  5
404
100
AcDbEntity
  8
INCISIONI_LASER
100
AcDbLine
 62
253
  6
CONTINUOUS
 10
-29.8668166952
 20
7.3865126531
 11
-28.5672126576
 21
7.3865126531
  0
LINE
  5
405
100
AcDbEntity
  8
0
100
AcDbLine
 62
7
  6
CONTINUOUS
 10
-26.8672126576
 20
7.5597576531
 11
-26.6672126576
 21
7.5597576531
  0
LINE
  5
406
100
AcDbEntity
  8
21814000
100
AcDbLine
 62
7
  6
CONTINUOUS
 10
-26.8672126576
 20
7.5597576531
 11
-26.6672126576
 21
7.5597576531
  0
LINE
  5
407
100
AcDbEntity
  8
0
100
AcDbLine
 62
253
  6
CONTINUOUS
 10
-39.6685681707
 20
7.6288052829
 11
-40.6184234811
 21
7.6288052829
  0
LINE
  5
408
100
AcDbEntity
  8
0
100
AcDbLine
 62
253
  6
CONTINUOUS
 10
-40.2113426581
 20
8.4883289846
 11
-41.0255043608
 21
8.4883289846
  0
LINE
  5
409
100
AcDbEntity
  8
0
100
AcDbLine
 62
253
  6
CONTINUOUS
 10
-40.0756490221
 20
6.9954719873
 11
-41.5682787915
 21
7.4026147636
  0
LWPOLYLINE
  5
40A
100
AcDbEntity
  8
0
100
AcDbPolyline
 62
253
  6
CONTINUOUS
 90
73
 70
0
 10
-26.6014989993
 20
2.7555821443
 10
-26.5156343418
 20
2.7318955121
 10
-26.4323709277
 20
2.7083738934
 10
-26.351708757
 20
2.6850172884
 10
-26.2737255232
 20
2.6618425741
 10
-26.1983435328
 20
2.6388328733
 10
-26.1253297055
 20
2.6159375551
 10
-26.0546797521
 20
2.5931612441
 10
-25.9863979619
 20
2.5704993157
 10
-25.9202641221
 20
2.5478872653
 10
-25.8562683367
 20
2.5253301122
 10
-25.7944205018
 20
2.5028228371
 10
-25.7345300921
 20
2.4802858777
 10
-25.6765711903
 20
2.4577203067
 10
-25.6205697137
 20
2.4351250513
 10
-25.5664128887
 20
2.4124173302
 10
-25.5140926678
 20
2.3896101514
 10
-25.4636170985
 20
2.366690507
 10
-25.41489755
 20
2.3435365917
 10
-25.3679040804
 20
2.3201619988
 10
-25.3226666316
 20
2.296553135
 10
-25.279186399
 20
2.2725474151
 10
-25.2373762265
 20
2.248132415
 10
-25.1973232701
 20
2.2233205587
 10
-25.1592901934
 20
2.1979865336
 10
-25.1232301222
 20
2.1721566669
 10
-25.0891899307
 20
2.1458046314
 10
-25.0575729052
 20
2.1187261328
 10
-25.0282294412
 20
2.0908295951
 10
-25.0013091432
 20
2.0622065943
 10
-24.9776641107
 20
2.0329275648
 10
-24.9573269269
 20
2.0027651022
 10
-24.9402650086
 20
1.9719466108
 10
-24.9272327061
 20
1.9412247371
 10
-24.9184831899
 20
1.9109275881
 10
-24.9137632894
 20
1.8807270568
 10
-24.9130678435
 20
1.8503914698
 10
-24.9164016089
 20
1.8197768252
 10
-24.9237598289
 20
1.7890271248
 10
-24.9351230717
 20
1.7583427005
 10
-24.9507543137
 20
1.7275938384
 10
-24.9703905786
 20
1.6969102523
 10
-24.9932235047
 20
1.6668814156
 10
-25.0192495745
 20
1.6376932877
 10
-25.0484723057
 20
1.6091599092
 10
-25.0800938892
 20
1.5813128757
 10
-25.1139852431
 20
1.5542192048
 10
-25.1502754494
 20
1.5278118788
 10
-25.1885539457
 20
1.5019214409
 10
-25.2287955969
 20
1.4765197759
 10
-25.2710255381
 20
1.4516349989
 10
-25.3149086121
 20
1.4271819981
 10
-25.3604170161
 20
1.4031543472
 10
-25.4075785529
 20
1.3795584724
 10
-25.4561414739
 20
1.3563285402
 10
-25.5060674374
 20
1.3334670416
 10
-25.5573947851
 20
1.3109714856
 10
-25.6099867941
 20
1.2887685656
 10
-25.6636494221
 20
1.2669140678
 10
-25.7185767114
 20
1.2453522061
 10
-25.775214066
 20
1.2238423152
 10
-25.8336806918
 20
1.202320833
 10
-25.893857383
 20
1.1808513217
 10
-25.9558319254
 20
1.1593838029
 10
-26.0195899277
 20
1.1379177777
 10
-26.0851457813
 20
1.116453745
 10
-26.1526304467
 20
1.0949432233
 10
-26.2219692963
 20
1.073402411
 10
-26.2932369577
 20
1.0518151096
 10
-26.3667882744
 20
1.0300842417
 10
-26.4427415274
 20
1.0081774482
 10
-26.5209784357
 20
0.9861270883
 10
-26.6014989993
 20
0.9639331618
  0
LWPOLYLINE
  5
40B
100
AcDbEntity
  8
21814000
100
AcDbPolyline
 62
253
  6
CONTINUOUS
 90
73
 70
0
 10
-26.6014989993
 20
2.7555821443
 10
-26.5156343418
 20
2.7318955121
 10
-26.4323709277
 20
2.7083738934
 10
-26.351708757
 20
2.6850172884
 10
-26.2737255232
 20
2.6618425741
 10
-26.1983435328
 20
2.6388328733
 10
-26.1253297055
 20
2.6159375551
 10
-26.0546797521
 20
2.5931612441
 10
-25.9863979619
 20
2.5704993157
 10
-25.9202641221
 20
2.5478872653
 10
-25.8562683367
 20
2.5253301122
 10
-25.7944205018
 20
2.5028228371
 10
-25.7345300921
 20
2.4802858777
 10
-25.6765711903
 20
2.4577203067
 10
-25.6205697137
 20
2.4351250513
 10
-25.5664128887
 20
2.4124173302
 10
-25.5140926678
 20
2.3896101514
 10
-25.4636170985
 20
2.366690507
 10
-25.41489755
 20
2.3435365917
 10
-25.3679040804
 20
2.3201619988
 10
-25.3226666316
 20
2.296553135
 10
-25.279186399
 20
2.2725474151
 10
-25.2373762265
 20
2.248132415
 10
-25.1973232701
 20
2.2233205587
 10
-25.1592901934
 20
2.1979865336
 10
-25.1232301222
 20
2.1721566669
 10
-25.0891899307
 20
2.1458046314
 10
-25.0575729052
 20
2.1187261328
 10
-25.0282294412
 20
2.0908295951
 10
-25.0013091432
 20
2.0622065943
 10
-24.9776641107
 20
2.0329275648
 10
-24.9573269269
 20
2.0027651022
 10
-24.9402650086
 20
1.9719466108
 10
-24.9272327061
 20
1.9412247371
 10
-24.9184831899
 20
1.9109275881
 10
-24.9137632894
 20
1.8807270568
 10
-24.9130678435
 20
1.8503914698
 10
-24.9164016089
 20
1.8197768252
 10
-24.9237598289
 20
1.7890271248
 10
-24.9351230717
 20
1.7583427005
 10
-24.9507543137
 20
1.7275938384
 10
-24.9703905786
 20
1.6969102523
 10
-24.9932235047
 20
1.6668814156
 10
-25.0192495745
 20
1.6376932877
 10
-25.0484723057
 20
1.6091599092
 10
-25.0800938892
 20
1.5813128757
 10
-25.1139852431
 20
1.5542192048
 10
-25.1502754494
 20
1.5278118788
 10
-25.1885539457
 20
1.5019214409
 10
-25.2287955969
 20
1.4765197759
 10
-25.2710255381
 20
1.4516349989
 10
-25.3149086121
 20
1.4271819981
 10
-25.3604170161
 20
1.4031543472
 10
-25.4075785529
 20
1.3795584724
 10
-25.4561414739
 20
1.3563285402
 10
-25.5060674374
 20
1.3334670416
 10
-25.5573947851
 20
1.3109714856
 10
-25.6099867941
 20
1.2887685656
 10
-25.6636494221
 20
1.2669140678
 10
-25.7185767114
 20
1.2453522061
 10
-25.775214066
 20
1.2238423152
 10
-25.8336806918
 20
1.202320833
 10
-25.893857383
 20
1.1808513217
 10
-25.9558319254
 20
1.1593838029
 10
-26.0195899277
 20
1.1379177777
 10
-26.0851457813
 20
1.116453745
 10
-26.1526304467
 20
1.0949432233
 10
-26.2219692963
 20
1.073402411
 10
-26.2932369577
 20
1.0518151096
 10
-26.3667882744
 20
1.0300842417
 10
-26.4427415274
 20
1.0081774482
 10
-26.5209784357
 20
0.9861270883
 10
-26.6014989993
 20
0.9639331618
  0
LWPOLYLINE
  5
40C
100
AcDbEntity
  8
0
100
AcDbPolyline
 62
253
  6
CONTINUOUS
 90
73
 70
0
 10
-26.5933593804
 20
2.7855649816
 10
-26.5074956479
 20
2.7611538188
 10
-26.4242329053
 20
2.7369143375
 10
-26.3435711528
 20
2.7128432163
 10
-26.2655879997
 20
2.6889511566
 10
-26.1902058366
 20
2.6652206259
 10
-26.1171918351
 20
2.6416063589
 10
-26.046541791
 20
2.6181107208
 10
-25.9782599085
 20
2.5947253585
 10
-25.9121259726
 20
2.5713897708
 10
-25.8481300842
 20
2.5481070376
 10
-25.7862821424
 20
2.524868816
 10
-25.7263916293
 20
2.5015982477
 10
-25.6684326341
 20
2.4782945499
 10
-25.6124310676
 20
2.4549539027
 10
-25.5582741438
 20
2.431495479
 10
-25.5059538141
 20
2.4079308962
 10
-25.4554781272
 20
2.3842442855
 10
-25.4067584432
 20
2.3603140025
 10
-25.3597648106
 20
2.3361523268
 10
-25.3145271809
 20
2.3117431
 10
-25.2710467688
 20
2.2869222328
 10
-25.2292364223
 20
2.2616747325
 10
-25.1891832934
 20
2.2360118571
 10
-25.151150052
 20
2.2098083576
 10
-25.1150898423
 20
2.1830879466
 10
-25.0810495202
 20
2.1558220566
 10
-25.0494323239
 20
2.1278055254
 10
-25.0200884535
 20
2.0989384062
 10
-24.9931677089
 20
2.0693142087
 10
-24.9695227275
 20
2.0390148038
 10
-24.9491866351
 20
2.0077959269
 10
-24.9321263059
 20
1.9758907018
 10
-24.9190950001
 20
1.9440926559
 10
-24.9103451636
 20
1.9127319886
 10
-24.9056243505
 20
1.8814625781
 10
-24.904928484
 20
1.8500612907
 10
-24.9082631802
 20
1.8183715026
 10
-24.9156228229
 20
1.7865343875
 10
-24.9269864863
 20
1.7547735841
 10
-24.9426159913
 20
1.7229483446
 10
-24.9622495169
 20
1.6911836473
 10
-24.9850806743
 20
1.6601041241
 10
-25.0111070218
 20
1.6299005037
 10
-25.040331001
 20
1.6003714348
 10
-25.0719535483
 20
1.5715578348
 10
-25.105845041
 20
1.5435275138
 10
-25.1421351018
 20
1.5162063386
 10
-25.1804135355
 20
1.489425331
 10
-25.2206553749
 20
1.4631544479
 10
-25.2628855872
 20
1.4374190295
 10
-25.3067688782
 20
1.4121348484
 10
-25.3522773747
 20
1.3872942774
 10
-25.3994389498
 20
1.3629016159
 10
-25.4480019293
 20
1.338891757
 10
-25.4979279898
 20
1.31526662
 10
-25.5492554546
 20
1.2920219054
 10
-25.6018476201
 20
1.2690839289
 10
-25.6555104914
 20
1.2465089071
 10
-25.7104380634
 20
1.224238876
 10
-25.7670756167
 20
1.2020282515
 10
-25.8255422762
 20
1.1798087495
 10
-25.8857189169
 20
1.1576447707
 10
-25.9476934458
 20
1.1354887374
 10
-26.0114515212
 20
1.1133378733
 10
-26.0770074848
 20
1.0911909975
 10
-26.1444922675
 20
1.069002538
 10
-26.2138313151
 20
1.0467864573
 10
-26.285099182
 20
1.0245245296
 10
-26.3586504625
 20
1.0021220376
 10
-26.4346033548
 20
0.9795452782
 10
-26.5128396608
 20
0.9568222836
 10
-26.5933593804
 20
0.9339503245
  0
LWPOLYLINE
  5
40D
100
AcDbEntity
  8
21814000
100
AcDbPolyline
 62
253
  6
CONTINUOUS
 90
73
 70
0
 10
-26.5933593804
 20
2.7855649816
 10
-26.5074956479
 20
2.7611538188
 10
-26.4242329053
 20
2.7369143375
 10
-26.3435711528
 20
2.7128432163
 10
-26.2655879997
 20
2.6889511566
 10
-26.1902058366
 20
2.6652206259
 10
-26.1171918351
 20
2.6416063589
 10
-26.046541791
 20
2.6181107208
 10
-25.9782599085
 20
2.5947253585
 10
-25.9121259726
 20
2.5713897708
 10
-25.8481300842
 20
2.5481070376
 10
-25.7862821424
 20
2.524868816
 10
-25.7263916293
 20
2.5015982477
 10
-25.6684326341
 20
2.4782945499
 10
-25.6124310676
 20
2.4549539027
 10
-25.5582741438
 20
2.431495479
 10
-25.5059538141
 20
2.4079308962
 10
-25.4554781272
 20
2.3842442855
 10
-25.4067584432
 20
2.3603140025
 10
-25.3597648106
 20
2.3361523268
 10
-25.3145271809
 20
2.3117431
 10
-25.2710467688
 20
2.2869222328
 10
-25.2292364223
 20
2.2616747325
 10
-25.1891832934
 20
2.2360118571
 10
-25.151150052
 20
2.2098083576
 10
-25.1150898423
 20
2.1830879466
 10
-25.0810495202
 20
2.1558220566
 10
-25.0494323239
 20
2.1278055254
 10
-25.0200884535
 20
2.0989384062
 10
-24.9931677089
 20
2.0693142087
 10
-24.9695227275
 20
2.0390148038
 10
-24.9491866351
 20
2.0077959269
 10
-24.9321263059
 20
1.9758907018
 10
-24.9190950001
 20
1.9440926559
 10
-24.9103451636
 20
1.9127319886
 10
-24.9056243505
 20
1.8814625781
 10
-24.904928484
 20
1.8500612907
 10
-24.9082631802
 20
1.8183715026
 10
-24.9156228229
 20
1.7865343875
 10
-24.9269864863
 20
1.7547735841
 10
-24.9426159913
 20
1.7229483446
 10
-24.9622495169
 20
1.6911836473
 10
-24.9850806743
 20
1.6601041241
 10
-25.0111070218
 20
1.6299005037
 10
-25.040331001
 20
1.6003714348
 10
-25.0719535483
 20
1.5715578348
 10
-25.105845041
 20
1.5435275138
 10
-25.1421351018
 20
1.5162063386
 10
-25.1804135355
 20
1.489425331
 10
-25.2206553749
 20
1.4631544479
 10
-25.2628855872
 20
1.4374190295
 10
-25.3067688782
 20
1.4121348484
 10
-25.3522773747
 20
1.3872942774
 10
-25.3994389498
 20
1.3629016159
 10
-25.4480019293
 20
1.338891757
 10
-25.4979279898
 20
1.31526662
 10
-25.5492554546
 20
1.2920219054
 10
-25.6018476201
 20
1.2690839289
 10
-25.6555104914
 20
1.2465089071
 10
-25.7104380634
 20
1.224238876
 10
-25.7670756167
 20
1.2020282515
 10
-25.8255422762
 20
1.1798087495
 10
-25.8857189169
 20
1.1576447707
 10
-25.9476934458
 20
1.1354887374
 10
-26.0114515212
 20
1.1133378733
 10
-26.0770074848
 20
1.0911909975
 10
-26.1444922675
 20
1.069002538
 10
-26.2138313151
 20
1.0467864573
 10
-26.285099182
 20
1.0245245296
 10
-26.3586504625
 20
1.0021220376
 10
-26.4346033548
 20
0.9795452782
 10
-26.5128396608
 20
0.9568222836
 10
-26.5933593804
 20
0.9339503245
  0
LINE
  5
40E
100
AcDbEntity
  8
INCISIONI_LASER
100
AcDbLine
 62
253
  6
CONTINUOUS
 10
-44.1634506566
 20
8.3112136531
 11
-45.4123391461
 21
8.7412286531
  0
LINE
  5
40F
100
AcDbEntity
  8
INCISIONI_LASER
100
AcDbLine
 62
253
  6
CONTINUOUS
 10
-43.0672126576
 20
7.9337216531
 11
-43.6816644469
 21
8.1505696531
  0
LINE
  5
410
100
AcDbEntity
  8
INCISIONI_LASER
100
AcDbLine
 62
253
  6
CONTINUOUS
 10
-45.9663303565
 20
8.3876066531
 11
-43.0672126576
 21
7.3392716531
  0
LINE
  5
411
100
AcDbEntity
  8
0
100
AcDbLine
 62
253
  6
CONTINUOUS
 10
-41.2968915762
 20
8.6240434321
 11
-41.5682787915
 21
8.8954718741
  0
LINE
  5
412
100
AcDbEntity
  8
INCISIONI_LASER
100
AcDbLine
 62
253
  6
CONTINUOUS
 10
-34.4893623391
 20
14.2992576531
 11
-34.4893623391
 21
15.7597576531
  0
LINE
  5
413
100
AcDbEntity
  8
INCISIONI_LASER
100
AcDbLine
 62
253
  6
CONTINUOUS
 10
-33.739590779
 20
15.7597576531
 11
-33.739590779
 21
14.2992576531
  0
LINE
  5
414
100
AcDbEntity
  8
INCISIONI_LASER
100
AcDbLine
 62
253
  6
CONTINUOUS
 10
-44.0783735778
 20
-10.4328223469
 11
-45.9664673148
 21
-10.9743903469
  0
LINE
  5
415
100
AcDbEntity
  8
INCISIONI_LASER
100
AcDbLine
 62
253
  6
CONTINUOUS
 10
-29.8668166952
 20
9.1944856531
 11
-28.5672126576
 21
9.1944856531
  0
LINE
  5
416
100
AcDbEntity
  8
0
100
AcDbLine
 62
253
  6
CONTINUOUS
 10
-41.0255043608
 20
9.4383289846
 11
-40.2113426581
 21
9.4383289846
  0
LINE
  5
417
100
AcDbEntity
  8
INCISIONI_LASER
100
AcDbLine
 62
253
  6
CONTINUOUS
 10
-29.8668166952
 20
9.5828136531
 11
-28.5672126576
 21
9.5828136531
  0
LINE
  5
418
100
AcDbEntity
  8
0
100
AcDbLine
 62
253
  6
CONTINUOUS
 10
-40.2113426581
 20
9.9811860951
 11
-41.0255043608
 21
9.9811860951
  0
LINE
  5
419
100
AcDbEntity
  8
INCISIONI_LASER
100
AcDbLine
 62
253
  6
CONTINUOUS
 10
-43.0672126576
 20
10.4520826531
 11
-45.9663303565
 21
10.4520826531
  0
LINE
  5
41A
100
AcDbEntity
  8
INCISIONI_LASER
100
AcDbLine
 62
253
  6
CONTINUOUS
 10
-29.8668166952
 20
10.6149386531
 11
-28.5672126576
 21
10.6149386531
  0
LINE
  5
41B
100
AcDbEntity
  8
INCISIONI_LASER
100
AcDbLine
 62
253
  6
CONTINUOUS
 10
-29.8668166952
 20
5.3296476531
 11
-28.5672126576
 21
4.7593146531
  0
LINE
  5
41C
100
AcDbEntity
  8
INCISIONI_LASER
100
AcDbLine
 62
253
  6
CONTINUOUS
 10
-29.8668166952
 20
4.5854936531
 11
-28.5672126576
 21
3.9626266531
  0
LINE
  5
41D
100
AcDbEntity
  8
0
100
AcDbLine
 62
253
  6
CONTINUOUS
 10
-41.0255043608
 20
8.4883289846
 11
-41.2968915762
 21
8.6240434321
  0
LINE
  5
41E
100
AcDbEntity
  8
0
100
AcDbLine
 62
253
  6
CONTINUOUS
 10
-40.2113426581
 20
9.4383289846
 11
-39.9399554144
 21
9.3026147636
  0
LINE
  5
41F
100
AcDbEntity
  8
0
100
AcDbLine
 62
253
  6
CONTINUOUS
 10
-41.0255043608
 20
9.9811860951
 11
-41.2968915762
 21
10.1169003161
  0
LINE
  5
420
100
AcDbEntity
  8
0
100
AcDbLine
 62
253
  6
CONTINUOUS
 10
-41.2968915762
 20
10.1169003161
 11
-41.5682787915
 21
10.3883292111
  0
LINE
  5
421
100
AcDbEntity
  8
0
100
AcDbLine
 62
253
  6
CONTINUOUS
 10
-39.9399554144
 20
9.3026147636
 11
-39.6685681707
 21
9.0311863216
  0
LINE
  5
422
100
AcDbEntity
  8
0
100
AcDbLine
 62
253
  6
CONTINUOUS
 10
-41.0255043608
 20
11.4740434321
 11
-41.5682787915
 21
12.0169003161
  0
LINE
  5
423
100
AcDbEntity
  8
0
100
AcDbLine
 62
253
  6
CONTINUOUS
 10
-39.9399554144
 20
10.7954718741
 11
-39.6685681707
 21
10.5240434321
  0
LWPOLYLINE
  5
424
100
AcDbEntity
  8
INCISIONI_LASER
100
AcDbPolyline
 62
253
  6
CONTINUOUS
 90
46
 70
0
 10
-32.3178071694
 20
16.1597604192
 10
-32.3155642228
 20
16.1033017498
 10
-32.315105324
 20
16.0467375993
 10
-32.3164261312
 20
15.9901342415
 10
-32.3195223028
 20
15.9335579501
 10
-32.3243894973
 20
15.877074999
 10
-32.3310233731
 20
15.8207516618
 10
-32.3394195885
 20
15.7646542124
 10
-32.349573802
 20
15.7088489245
 10
-32.361481672
 20
15.653402072
 10
-32.3751361993
 20
15.5983771784
 10
-32.3905197545
 20
15.5438267671
 10
-32.4076120505
 20
15.4898006111
 10
-32.4263928003
 20
15.4363484837
 10
-32.4468417169
 20
15.3835201579
 10
-32.4689385133
 20
15.3313654071
 10
-32.4926629025
 20
15.2799340042
 10
-32.5179945974
 20
15.2292757225
 10
-32.544913311
 20
15.1794403351
 10
-32.5733963253
 20
15.1304769253
 10
-32.6034111985
 20
15.0824318165
 10
-32.6349230577
 20
15.0353506423
 10
-32.66789703
 20
14.9892790364
 10
-32.7022982426
 20
14.9442626322
 10
-32.7380918226
 20
14.9003470635
 10
-32.7752428972
 20
14.8575779636
 10
-32.8137165936
 20
14.8160009663
 10
-32.8534780388
 20
14.7756617051
 10
-32.8944910567
 20
14.736603648
 10
-32.9367142578
 20
14.698861601
 10
-32.9801049493
 20
14.6624682044
 10
-33.0246204384
 20
14.6274560987
 10
-33.0702180323
 20
14.5938579241
 10
-33.1168550381
 20
14.5617063212
 10
-33.1644887632
 20
14.5310339301
 10
-33.2130765145
 20
14.5018733914
 10
-33.2625755995
 20
14.4742573454
 10
-33.312939975
 20
14.4482165887
 10
-33.3641101973
 20
14.4237745428
 10
-33.4160234726
 20
14.4009527854
 10
-33.468617007
 20
14.3797728943
 10
-33.5218280066
 20
14.3602564471
 10
-33.5755936774
 20
14.3424250217
 10
-33.6298512257
 20
14.3263001958
 10
-33.6845378575
 20
14.311903547
 10
-33.739590779
 20
14.2992566531
  0
LWPOLYLINE
  5
425
100
AcDbEntity
  8
INCISIONI_LASER
100
AcDbPolyline
 62
253
  6
CONTINUOUS
 90
77
 70
0
 10
-32.3178039618
 20
11.7746475421
 10
-32.3152119207
 20
11.6997774875
 10
-32.3157467445
 20
11.6247749777
 10
-32.3194006588
 20
11.5497942117
 10
-32.3261658892
 20
11.4749893887
 10
-32.3360346615
 20
11.4005147077
 10
-32.3489992011
 20
11.326524368
 10
-32.3650461167
 20
11.2531665211
 10
-32.3841395478
 20
11.1805651294
 10
-32.406238017
 20
11.1088381078
 10
-32.4313000468
 20
11.0381033711
 10
-32.4592841597
 20
10.9684788343
 10
-32.4901488782
 20
10.9000824122
 10
-32.5238478868
 20
10.8330310154
 10
-32.5603155179
 20
10.7674375376
 10
-32.5994812655
 20
10.7034138681
 10
-32.641274624
 20
10.6410718962
 10
-32.6856250876
 20
10.5805235112
 10
-32.7324621506
 20
10.5218806024
 10
-32.7817111075
 20
10.4652512143
 10
-32.8332804547
 20
10.4107280118
 10
-32.8870744887
 20
10.3583998147
 10
-32.9429975061
 20
10.3083554431
 10
-33.0009538037
 20
10.260683717
 10
-33.0608476779
 20
10.2154734563
 10
-33.1225802444
 20
10.1728091638
 10
-33.1860398938
 20
10.1327580744
 10
-33.251111836
 20
10.0953831056
 10
-33.3176812804
 20
10.0607471749
 10
-33.3856334369
 20
10.0289132002
 10
-33.4548535151
 20
9.9999440989
 10
-33.5252247283
 20
9.9738976985
 10
-33.5966223043
 20
9.9508114664
 10
-33.6689194746
 20
9.9307177794
 10
-33.7419894705
 20
9.9136490147
 10
-33.8157055236
 20
9.8996375495
 10
-33.8899408653
 20
9.8887157606
 10
-33.9645680484
 20
9.8809106292
 10
-34.0394569115
 20
9.8762275512
 10
-34.1144766146
 20
9.8746665268
 10
-34.1894963176
 20
9.8762275558
 10
-34.2643851804
 20
9.8809106384
 10
-34.339012363
 20
9.8887157745
 10
-34.413247704
 20
9.8996375679
 10
-34.4869637563
 20
9.9136490377
 10
-34.5600337512
 20
9.9307178069
 10
-34.6323309202
 20
9.9508114983
 10
-34.7037284947
 20
9.9738977349
 10
-34.7740997063
 20
9.9999441396
 10
-34.8433197827
 20
10.0289132452
 10
-34.9112719373
 20
10.0607472241
 10
-34.9778413796
 20
10.0953831589
 10
-35.0429133194
 20
10.1327581317
 10
-35.1063729664
 20
10.1728092251
 10
-35.1681055302
 20
10.2154735213
 10
-35.2279994017
 20
10.2606837858
 10
-35.2859556963
 20
10.3083555155
 10
-35.3418787107
 20
10.3583998905
 10
-35.3956727414
 20
10.4107280909
 10
-35.4472420852
 20
10.4652512966
 10
-35.4964910387
 20
10.5218806878
 10
-35.543328098
 20
10.5805235994
 10
-35.5876785579
 20
10.6410719872
 10
-35.6294719125
 20
10.7034139617
 10
-35.6686376562
 20
10.7674376336
 10
-35.7051052832
 20
10.8330311137
 10
-35.7388042877
 20
10.9000825125
 10
-35.769669002
 20
10.9684789365
 10
-35.7976531106
 20
11.038103475
 10
-35.8227151361
 20
11.1088382133
 10
-35.8448136009
 20
11.1805652363
 10
-35.8639070275
 20
11.2531666291
 10
-35.8799539385
 20
11.326524477
 10
-35.8929184736
 20
11.4005148176
 10
-35.9027872412
 20
11.4749894991
 10
-35.909552467
 20
11.5497943226
 10
-35.9132063767
 20
11.6247750888
  0
LINE
  5
426
100
AcDbEntity
  8
INCISIONI_LASER
100
AcDbLine
 62
253
  6
CONTINUOUS
 10
-32.9323047802
 20
-13.8880313469
 11
-32.9323047802
 21
-13.3924533469
  0
LINE
  5
427
100
AcDbEntity
  8
INCISIONI_LASER
100
AcDbLine
 62
253
  6
CONTINUOUS
 10
-32.3179759535
 20
-13.1050183469
 11
-32.3179759535
 21
-13.6402423469
  0
LWPOLYLINE
  5
428
100
AcDbEntity
  8
INCISIONI_LASER
100
AcDbPolyline
 62
253
  6
CONTINUOUS
 90
11
 70
0
 10
-31.5670645344
 20
15.9645198709
 10
-31.5664060113
 20
15.9840537348
 10
-31.5658969717
 20
16.0035889733
 10
-31.5655374944
 20
16.0231242296
 10
-31.5653276586
 20
16.0426581467
 10
-31.565267543
 20
16.0621893677
 10
-31.5653572268
 20
16.0817165357
 10
-31.5655967888
 20
16.1012382939
 10
-31.5659863082
 20
16.1207532853
 10
-31.5665258637
 20
16.140260153
 10
-31.5672155346
 20
16.1597575401
  0
LWPOLYLINE
  5
429
100
AcDbEntity
  8
INCISIONI_LASER
100
AcDbPolyline
 62
253
  6
CONTINUOUS
 90
11
 70
0
 10
-31.5670646492
 20
11.5794099463
 10
-31.566406127
 20
11.5989438023
 10
-31.565897088
 20
11.6184790328
 10
-31.5655376113
 20
11.638014281
 10
-31.5653277759
 20
11.6575481901
 10
-31.5652676606
 20
11.6770794031
 10
-31.5653573446
 20
11.6966065631
 10
-31.5655969068
 20
11.7161283133
 10
-31.5659864261
 20
11.7356432966
 10
-31.5665259815
 20
11.7551501564
 10
-31.5672156521
 20
11.7746475355
  0
LINE
  5
42A
100
AcDbEntity
  8
INCISIONI_LASER
100
AcDbLine
 62
253
  6
CONTINUOUS
 10
-44.9790791515
 20
-11.2712053469
 11
-43.0672196555
 21
-10.7228293469
  0
LINE
  5
42B
100
AcDbEntity
  8
0
100
AcDbLine
 62
253
  6
CONTINUOUS
 10
-41.0255043608
 20
10.9311860951
 11
-40.2113426581
 21
10.9311860951
  0
LINE
  5
42C
100
AcDbEntity
  8
INCISIONI_LASER
100
AcDbLine
 62
253
  6
CONTINUOUS
 10
-45.4935773945
 20
11.0345276531
 11
-43.0672126576
 21
11.0345276531
  0
LINE
  5
42D
100
AcDbEntity
  8
INCISIONI_LASER
100
AcDbLine
 62
253
  6
CONTINUOUS
 10
-29.8668166952
 20
11.5084696531
 11
-28.5672126576
 21
11.5084696531
  0
LINE
  5
42E
100
AcDbEntity
  8
INCISIONI_LASER
100
AcDbLine
 62
253
  6
CONTINUOUS
 10
-36.6617404605
 20
11.7746476531
 11
-35.9111491501
 21
11.7746476531
  0
LINE
  5
42F
100
AcDbEntity
  8
INCISIONI_LASER
100
AcDbLine
 62
253
  6
CONTINUOUS
 10
-32.317803968
 20
11.7746476531
 11
-31.5672126576
 21
11.7746476531
  0
LINE
  5
430
100
AcDbEntity
  8
0
100
AcDbLine
 62
253
  6
CONTINUOUS
 10
-41.5682787915
 20
12.0169003161
 11
-39.6685681707
 21
12.0169003161
  0
LINE
  5
431
100
AcDbEntity
  8
INCISIONI_LASER
100
AcDbLine
 62
253
  6
CONTINUOUS
 10
-28.5672126576
 20
12.3124096531
 11
-29.8668166952
 21
12.3124096531
  0
LINE
  5
432
100
AcDbEntity
  8
INCISIONI_LASER
100
AcDbLine
 62
253
  6
CONTINUOUS
 10
-43.668916331
 20
12.4885116531
 11
-45.9663303565
 21
12.4885116531
  0
LINE
  5
433
100
AcDbEntity
  8
0
100
AcDbLine
 62
253
  6
CONTINUOUS
 10
-39.8494929951
 20
12.8311860951
 11
-39.8947241977
 21
12.8311860951
  0
LINE
  5
434
100
AcDbEntity
  8
INCISIONI_LASER
100
AcDbLine
 62
253
  6
CONTINUOUS
 10
-45.9663303565
 20
14.4126416531
 11
-43.0672126576
 21
13.3641976531
  0
LINE
  5
435
100
AcDbEntity
  8
0
100
AcDbLine
 62
253
  6
CONTINUOUS
 10
-40.2113426581
 20
10.9311860951
 11
-39.9399554144
 21
10.7954718741
  0
LWPOLYLINE
  5
436
100
AcDbEntity
  8
0
100
AcDbPolyline
 62
253
  6
CONTINUOUS
 90
3
 70
0
 10
-26.7943896436
 20
-11.5723474796
 10
-26.7813115936
 20
-11.6112479135
 10
-26.7677883519
 20
-11.6529136169
  0
LWPOLYLINE
  5
437
100
AcDbEntity
  8
21814000
100
AcDbPolyline
 62
253
  6
CONTINUOUS
 90
3
 70
0
 10
-26.7943896436
 20
-11.5723474796
 10
-26.7813115936
 20
-11.6112479135
 10
-26.7677883519
 20
-11.6529136169
  0
LINE
  5
438
100
AcDbEntity
  8
INCISIONI_LASER
100
AcDbLine
 62
253
  6
CONTINUOUS
 10
-29.8668166952
 20
8.3334996531
 11
-29.8668166952
 21
7.3865126531
  0
LINE
  5
439
100
AcDbEntity
  8
INCISIONI_LASER
100
AcDbLine
 62
253
  6
CONTINUOUS
 10
-29.8668166952
 20
6.5000006531
 11
-29.8668166952
 21
6.0701646531
  0
LINE
  5
43A
100
AcDbEntity
  8
INCISIONI_LASER
100
AcDbLine
 62
253
  6
CONTINUOUS
 10
-29.8668166952
 20
11.7846126531
 11
-29.8668166952
 21
12.8402046531
  0
LINE
  5
43B
100
AcDbEntity
  8
INCISIONI_LASER
100
AcDbLine
 62
253
  6
CONTINUOUS
 10
-29.2170146764
 20
7.3865126531
 11
-29.2170146764
 21
8.2671036531
  0
LINE
  5
43C
100
AcDbEntity
  8
INCISIONI_LASER
100
AcDbLine
 62
253
  6
CONTINUOUS
 10
-29.0389099412
 20
13.1160416531
 11
-29.0389099412
 21
13.8426986531
  0
LINE
  5
43D
100
AcDbEntity
  8
INCISIONI_LASER
100
AcDbLine
 62
253
  6
CONTINUOUS
 10
-29.0314712077
 20
4.9630556531
 11
-29.0314712077
 21
5.6962406531
  0
LWPOLYLINE
  5
43E
100
AcDbEntity
  8
26814000
100
AcDbPolyline
 62
7
  6
CONTINUOUS
 90
4
 70
0
 10
-38.5672126576
 20
-20.7402880384
 10
-38.5675643541
 20
-20.7409559312
 10
-38.5685953629
 20
-20.7422230292
 10
-38.5702689636
 20
-20.7440893322
  0
LINE
  5
43F
100
AcDbEntity
  8
INCISIONI_LASER
100
AcDbLine
 62
253
  6
CONTINUOUS
 10
-43.9701785426
 20
-14.6190813469
 11
-45.9664673148
 21
-15.2602133469
  0
LINE
  5
440
100
AcDbEntity
  8
INCISIONI_LASER
100
AcDbLine
 62
253
  6
CONTINUOUS
 10
-45.9664673148
 20
-15.8402423469
 11
-43.0672126576
 21
-14.9091103469
  0
LINE
  5
441
100
AcDbEntity
  8
0
100
AcDbLine
 62
253
  6
CONTINUOUS
 10
-39.8947241977
 20
13.0121386917
 11
-39.8494929951
 21
13.0121386917
  0
LINE
  5
442
100
AcDbEntity
  8
INCISIONI_LASER
100
AcDbLine
 62
253
  6
CONTINUOUS
 10
-45.9663303565
 20
13.0709556531
 11
-43.0672126576
 21
13.0709556531
  0
LINE
  5
443
100
AcDbEntity
  8
INCISIONI_LASER
100
AcDbLine
 62
253
  6
CONTINUOUS
 10
-29.8668166952
 20
14.2986756531
 11
-28.5672126576
 21
14.2986756531
  0
LINE
  5
444
100
AcDbEntity
  8
0
100
AcDbLine
 62
253
  6
CONTINUOUS
 10
-39.6685681707
 20
13.6454723271
 11
-41.5682787915
 21
14.1883292111
  0
LINE
  5
445
100
AcDbEntity
  8
INCISIONI_LASER
100
AcDbLine
 62
253
  6
CONTINUOUS
 10
-44.1634506566
 20
14.3362486531
 11
-45.4121751961
 21
14.7662066531
  0
LINE
  5
446
100
AcDbEntity
  8
INCISIONI_LASER
100
AcDbLine
 62
253
  6
CONTINUOUS
 10
-43.0672126576
 20
13.9586466531
 11
-43.6816644469
 21
14.1756036531
  0
LINE
  5
447
100
AcDbEntity
  8
0
100
AcDbLine
 62
253
  6
CONTINUOUS
 10
-39.8947241977
 20
12.8311860951
 11
-39.985186617
 21
12.8764244707
  0
LINE
  5
448
100
AcDbEntity
  8
0
100
AcDbLine
 62
253
  6
CONTINUOUS
 10
-39.8494929951
 20
13.0121386917
 11
-39.7590305829
 21
12.9669003161
  0
LINE
  5
449
100
AcDbEntity
  8
0
100
AcDbLine
 62
253
  6
CONTINUOUS
 10
-40.8898106965
 20
16.0883292111
 11
-40.6184234811
 21
15.8169007691
  0
LINE
  5
44A
100
AcDbEntity
  8
0
100
AcDbLine
 62
253
  6
CONTINUOUS
 10
-39.9399554144
 20
16.2240429791
 11
-39.6685681707
 21
15.9526145371
  0
LWPOLYLINE
  5
44B
100
AcDbEntity
  8
26814000
100
AcDbPolyline
 62
7
  6
CONTINUOUS
 90
5
 70
0
 10
-38.5672126576
 20
21.0598033445
 10
-38.5675643541
 20
21.0604712373
 10
-38.5685953629
 20
21.0617383353
 10
-38.5702689636
 20
21.0636046383
 10
-38.5753932523
 20
21.069208905
  0
LWPOLYLINE
  5
44C
100
AcDbEntity
  8
0
100
AcDbPolyline
 62
253
  6
CONTINUOUS
 90
4
 70
0
 10
-26.8695824987
 20
-18.1681542903
 10
-26.8707911593
 20
-18.1496033145
 10
-26.8718937513
 20
-18.1280013323
 10
-26.8727594468
 20
-18.1033556891
  0
LWPOLYLINE
  5
44D
100
AcDbEntity
  8
21814000
100
AcDbPolyline
 62
253
  6
CONTINUOUS
 90
4
 70
0
 10
-26.8695824987
 20
-18.1681542903
 10
-26.8707911593
 20
-18.1496033145
 10
-26.8718937513
 20
-18.1280013323
 10
-26.8727594468
 20
-18.1033556891
  0
LWPOLYLINE
  5
44E
100
AcDbEntity
  8
0
100
AcDbPolyline
 62
7
  6
CONTINUOUS
 90
4
 70
0
 10
-26.868389744
 20
-18.175367513
 10
-26.8702990377
 20
-18.1424563972
 10
-26.8712463099
 20
-18.1220211328
 10
-26.8720369537
 20
-18.0981419906
  0
LWPOLYLINE
  5
44F
100
AcDbEntity
  8
21814000
100
AcDbPolyline
 62
7
  6
CONTINUOUS
 90
4
 70
0
 10
-26.868389744
 20
-18.175367513
 10
-26.8702990377
 20
-18.1424563972
 10
-26.8712463099
 20
-18.1220211328
 10
-26.8720369537
 20
-18.0981419906
  0
LINE
  5
450
100
AcDbEntity
  8
0
100
AcDbLine
 62
7
  6
CONTINUOUS
 10
-26.8676321896
 20
-18.1896809639
 11
-26.868389744
 21
-18.175367513
  0
LINE
  5
451
100
AcDbEntity
  8
21814000
100
AcDbLine
 62
7
  6
CONTINUOUS
 10
-26.8676321896
 20
-18.1896809639
 11
-26.868389744
 21
-18.175367513
  0
LWPOLYLINE
  5
452
100
AcDbEntity
  8
0
100
AcDbPolyline
 62
253
  6
CONTINUOUS
 90
10
 70
0
 10
-26.8672069316
 20
-11.3044088871
 10
-26.8663654635
 20
-11.3235622567
 10
-26.8638633674
 20
-11.3442331033
 10
-26.859748905
 20
-11.3663863704
 10
-26.8540777235
 20
-11.3899221982
 10
-26.846947082
 20
-11.4149505318
 10
-26.8385108288
 20
-11.4418697887
 10
-26.828951214
 20
-11.4709828574
 10
-26.8183707586
 20
-11.5023624444
 10
-26.7943896436
 20
-11.5723474796
  0
LWPOLYLINE
  5
453
100
AcDbEntity
  8
21814000
100
AcDbPolyline
 62
253
  6
CONTINUOUS
 90
10
 70
0
 10
-26.8672069316
 20
-11.3044088871
 10
-26.8663654635
 20
-11.3235622567
 10
-26.8638633674
 20
-11.3442331033
 10
-26.859748905
 20
-11.3663863704
 10
-26.8540777235
 20
-11.3899221982
 10
-26.846947082
 20
-11.4149505318
 10
-26.8385108288
 20
-11.4418697887
 10
-26.828951214
 20
-11.4709828574
 10
-26.8183707586
 20
-11.5023624444
 10
-26.7943896436
 20
-11.5723474796
  0
LINE
  5
454
100
AcDbEntity
  8
0
100
AcDbLine
 62
253
  6
CONTINUOUS
 10
-26.7677887301
 20
-11.6529128167
 11
-26.769293125
 21
-11.6196441206
  0
LINE
  5
455
100
AcDbEntity
  8
21814000
100
AcDbLine
 62
253
  6
CONTINUOUS
 10
-26.7677887301
 20
-11.6529128167
 11
-26.769293125
 21
-11.6196441206
  0
LWPOLYLINE
  5
456
100
AcDbEntity
  8
0
100
AcDbPolyline
 62
253
  6
CONTINUOUS
 90
3
 70
0
 10
-26.8672266796
 20
-18.2039150725
 10
-26.8675650036
 20
-18.1960799836
 10
-26.8695824987
 20
-18.1681542903
  0
LWPOLYLINE
  5
457
100
AcDbEntity
  8
21814000
100
AcDbPolyline
 62
253
  6
CONTINUOUS
 90
3
 70
0
 10
-26.8672266796
 20
-18.2039150725
 10
-26.8675650036
 20
-18.1960799836
 10
-26.8695824987
 20
-18.1681542903
  0
LINE
  5
458
100
AcDbEntity
  8
0
100
AcDbLine
 62
253
  6
CONTINUOUS
 10
-26.769293125
 20
-11.6196441206
 11
-26.7722731199
 21
-11.5475773384
  0
LINE
  5
459
100
AcDbEntity
  8
21814000
100
AcDbLine
 62
253
  6
CONTINUOUS
 10
-26.769293125
 20
-11.6196441206
 11
-26.7722731199
 21
-11.5475773384
  0
LINE
  5
45A
100
AcDbEntity
  8
0
100
AcDbLine
 62
253
  6
CONTINUOUS
 10
-26.7722731199
 20
-11.5475773384
 11
-26.774449455
 21
-11.4908508539
  0
LINE
  5
45B
100
AcDbEntity
  8
21814000
100
AcDbLine
 62
253
  6
CONTINUOUS
 10
-26.7722731199
 20
-11.5475773384
 11
-26.774449455
 21
-11.4908508539
  0
LINE
  5
45C
100
AcDbEntity
  8
0
100
AcDbLine
 62
253
  6
CONTINUOUS
 10
-26.774449455
 20
-11.4908508539
 11
-26.776391184
 21
-11.4363445585
  0
LINE
  5
45D
100
AcDbEntity
  8
21814000
100
AcDbLine
 62
253
  6
CONTINUOUS
 10
-26.774449455
 20
-11.4908508539
 11
-26.776391184
 21
-11.4363445585
  0
LINE
  5
45E
100
AcDbEntity
  8
0
100
AcDbLine
 62
253
  6
CONTINUOUS
 10
-26.776391184
 20
-11.4363445585
 11
-26.7782681453
 21
-11.3787353339
  0
LINE
  5
45F
100
AcDbEntity
  8
21814000
100
AcDbLine
 62
253
  6
CONTINUOUS
 10
-26.776391184
 20
-11.4363445585
 11
-26.7782681453
 21
-11.3787353339
  0
LINE
  5
460
100
AcDbEntity
  8
0
100
AcDbLine
 62
7
  6
CONTINUOUS
 10
-26.8672328149
 20
-18.2038477575
 11
-26.8676321896
 21
-18.1896809639
  0
LINE
  5
461
100
AcDbEntity
  8
21814000
100
AcDbLine
 62
7
  6
CONTINUOUS
 10
-26.8672328149
 20
-18.2038477575
 11
-26.8676321896
 21
-18.1896809639
  0
LINE
  5
462
100
AcDbEntity
  8
0
100
AcDbLine
 62
253
  6
CONTINUOUS
 10
-26.7782681453
 20
-11.3787353339
 11
-26.7788110445
 21
-11.3603406911
  0
LINE
  5
463
100
AcDbEntity
  8
21814000
100
AcDbLine
 62
253
  6
CONTINUOUS
 10
-26.7782681453
 20
-11.3787353339
 11
-26.7788110445
 21
-11.3603406911
  0
LINE
  5
464
100
AcDbEntity
  8
0
100
AcDbLine
 62
253
  6
CONTINUOUS
 10
-26.8727594468
 20
-18.1033556891
 11
-26.8734768029
 21
-18.073758096
  0
LINE
  5
465
100
AcDbEntity
  8
21814000
100
AcDbLine
 62
253
  6
CONTINUOUS
 10
-26.8727594468
 20
-18.1033556891
 11
-26.8734768029
 21
-18.073758096
  0
LINE
  5
466
100
AcDbEntity
  8
0
100
AcDbLine
 62
7
  6
CONTINUOUS
 10
-26.8720369537
 20
-18.0981419906
 11
-26.8725720829
 21
-18.0754202219
  0
LINE
  5
467
100
AcDbEntity
  8
21814000
100
AcDbLine
 62
7
  6
CONTINUOUS
 10
-26.8720369537
 20
-18.0981419906
 11
-26.8725720829
 21
-18.0754202219
  0
LINE
  5
468
100
AcDbEntity
  8
0
100
AcDbLine
 62
253
  6
CONTINUOUS
 10
-26.7788110445
 20
-11.3603406911
 11
-26.7790510473
 21
-11.3491825014
  0
LINE
  5
469
100
AcDbEntity
  8
21814000
100
AcDbLine
 62
253
  6
CONTINUOUS
 10
-26.7788110445
 20
-11.3603406911
 11
-26.7790510473
 21
-11.3491825014
  0
LWPOLYLINE
  5
46A
100
AcDbEntity
  8
0
100
AcDbPolyline
 62
253
  6
CONTINUOUS
 90
3
 70
0
 10
-26.8734768029
 20
-18.073758096
 10
-26.8740938872
 20
-18.0412662863
 10
-26.874591064
 20
-18.0061193708
  0
LWPOLYLINE
  5
46B
100
AcDbEntity
  8
21814000
100
AcDbPolyline
 62
253
  6
CONTINUOUS
 90
3
 70
0
 10
-26.8734768029
 20
-18.073758096
 10
-26.8740938872
 20
-18.0412662863
 10
-26.874591064
 20
-18.0061193708
  0
LINE
  5
46C
100
AcDbEntity
  8
0
100
AcDbLine
 62
7
  6
CONTINUOUS
 10
-26.8725720829
 20
-18.0754202219
 11
-26.8732977336
 21
-18.0349839509
  0
LINE
  5
46D
100
AcDbEntity
  8
21814000
100
AcDbLine
 62
7
  6
CONTINUOUS
 10
-26.8725720829
 20
-18.0754202219
 11
-26.8732977336
 21
-18.0349839509
  0
LWPOLYLINE
  5
46E
100
AcDbEntity
  8
0
100
AcDbPolyline
 62
7
  6
CONTINUOUS
 90
9
 70
0
 10
-26.8732977336
 20
-18.0349839509
 10
-26.8738514239
 20
-17.9902962579
 10
-26.8742078814
 20
-17.9417943009
 10
-26.8743422043
 20
-17.8899353353
 10
-26.8742453635
 20
-17.8351857296
 10
-26.8739202398
 20
-17.7780904631
 10
-26.8733810399
 20
-17.7192531339
 10
-26.8726616449
 20
-17.6592597721
 10
-26.8717876554
 20
-17.5938498933
  0
LWPOLYLINE
  5
46F
100
AcDbEntity
  8
21814000
100
AcDbPolyline
 62
7
  6
CONTINUOUS
 90
9
 70
0
 10
-26.8732977336
 20
-18.0349839509
 10
-26.8738514239
 20
-17.9902962579
 10
-26.8742078814
 20
-17.9417943009
 10
-26.8743422043
 20
-17.8899353353
 10
-26.8742453635
 20
-17.8351857296
 10
-26.8739202398
 20
-17.7780904631
 10
-26.8733810399
 20
-17.7192531339
 10
-26.8726616449
 20
-17.6592597721
 10
-26.8717876554
 20
-17.5938498933
  0
LWPOLYLINE
  5
470
100
AcDbEntity
  8
0
100
AcDbPolyline
 62
253
  6
CONTINUOUS
 90
10
 70
0
 10
-26.874591064
 20
-18.0061193708
 10
-26.8749536912
 20
-17.9686003127
 10
-26.8751705259
 20
-17.9289581597
 10
-26.8752336422
 20
-17.8873995979
 10
-26.8751345258
 20
-17.8439589704
 10
-26.874882757
 20
-17.7992005349
 10
-26.8745034113
 20
-17.7541547136
 10
-26.8740122357
 20
-17.7093846812
 10
-26.8734166224
 20
-17.6649659995
 10
-26.8727335413
 20
-17.6211956853
  0
LWPOLYLINE
  5
471
100
AcDbEntity
  8
21814000
100
AcDbPolyline
 62
253
  6
CONTINUOUS
 90
10
 70
0
 10
-26.874591064
 20
-18.0061193708
 10
-26.8749536912
 20
-17.9686003127
 10
-26.8751705259
 20
-17.9289581597
 10
-26.8752336422
 20
-17.8873995979
 10
-26.8751345258
 20
-17.8439589704
 10
-26.874882757
 20
-17.7992005349
 10
-26.8745034113
 20
-17.7541547136
 10
-26.8740122357
 20
-17.7093846812
 10
-26.8734166224
 20
-17.6649659995
 10
-26.8727335413
 20
-17.6211956853
  0
LINE
  5
472
100
AcDbEntity
  8
0
100
AcDbLine
 62
253
  6
CONTINUOUS
 10
-26.8672126576
 20
-18.2054535067
 11
-26.8672266796
 21
-18.2039150725
  0
LINE
  5
473
100
AcDbEntity
  8
21814000
100
AcDbLine
 62
253
  6
CONTINUOUS
 10
-26.8672126576
 20
-18.2054535067
 11
-26.8672266796
 21
-18.2039150725
  0
LINE
  5
474
100
AcDbEntity
  8
INCISIONI_LASER
100
AcDbLine
 62
253
  6
CONTINUOUS
 10
-28.5672126576
 20
6.0701646531
 11
-28.5672126576
 21
6.5000006531
  0
LINE
  5
475
100
AcDbEntity
  8
INCISIONI_LASER
100
AcDbLine
 62
253
  6
CONTINUOUS
 10
-28.5672126576
 20
7.3865126531
 11
-28.5672126576
 21
8.3461896531
  0
LINE
  5
476
100
AcDbEntity
  8
INCISIONI_LASER
100
AcDbLine
 62
253
  6
CONTINUOUS
 10
-28.5672126576
 20
14.2986756531
 11
-28.5672126576
 21
15.0456096531
  0
LINE
  5
477
100
AcDbEntity
  8
0
100
AcDbLine
 62
253
  6
CONTINUOUS
 10
-27.7515054918
 20
19.5819479511
 11
-27.7515054918
 21
13.2415202442
  0
LINE
  5
478
100
AcDbEntity
  8
21814000
100
AcDbLine
 62
253
  6
CONTINUOUS
 10
-27.7515054918
 20
19.5819479511
 11
-27.7515054918
 21
13.2415202442
  0
LINE
  5
479
100
AcDbEntity
  8
0
100
AcDbLine
 62
253
  6
CONTINUOUS
 10
-27.7515054918
 20
-19.262432645
 11
-27.7515054918
 21
11.2779950619
  0
LINE
  5
47A
100
AcDbEntity
  8
21814000
100
AcDbLine
 62
253
  6
CONTINUOUS
 10
-27.7515054918
 20
-19.262432645
 11
-27.7515054918
 21
11.2779950619
  0
LINE
  5
47B
100
AcDbEntity
  8
0
100
AcDbLine
 62
7
  6
CONTINUOUS
 10
-26.867417564
 20
6.0284180865
 11
-26.8672357882
 21
6.0498542518
  0
LINE
  5
47C
100
AcDbEntity
  8
21814000
100
AcDbLine
 62
7
  6
CONTINUOUS
 10
-26.867417564
 20
6.0284180865
 11
-26.8672357882
 21
6.0498542518
  0
LINE
  5
47D
100
AcDbEntity
  8
0
100
AcDbLine
 62
7
  6
CONTINUOUS
 10
-26.8702219761
 20
5.8958485305
 11
-26.8679392686
 21
5.9962434694
  0
LINE
  5
47E
100
AcDbEntity
  8
21814000
100
AcDbLine
 62
7
  6
CONTINUOUS
 10
-26.8702219761
 20
5.8958485305
 11
-26.8679392686
 21
5.9962434694
  0
LWPOLYLINE
  5
47F
100
AcDbEntity
  8
0
100
AcDbPolyline
 62
253
  6
CONTINUOUS
 90
46
 70
0
 10
-26.8672126576
 20
14.872044362
 10
-26.8691900619
 20
14.8043902262
 10
-26.8747290298
 20
14.7379127255
 10
-26.8832541549
 20
14.6726118597
 10
-26.8941568568
 20
14.608384191
 10
-26.9069486148
 20
14.5453331573
 10
-26.9213854797
 20
14.4837690723
 10
-26.9371363636
 20
14.4237605649
 10
-26.9538448706
 20
14.3652390062
 10
-26.9714331546
 20
14.308308824
 10
-26.9896677078
 20
14.253067454
 10
-27.0083252894
 20
14.1994174605
 10
-27.0274790396
 20
14.1471709638
 10
-27.0470074388
 20
14.0963247571
 10
-27.0667485289
 20
14.0468820472
 10
-27.0868085587
 20
13.9986645748
 10
-27.107129193
 20
13.9516187719
 10
-27.1275873416
 20
13.9057982066
 10
-27.1482446685
 20
13.861185324
 10
-27.1690536837
 20
13.8177513653
 10
-27.1899325135
 20
13.7755250893
 10
-27.2109181146
 20
13.734575217
 10
-27.2319576025
 20
13.694907799
 10
-27.2530056628
 20
13.6565167848
 10
-27.274128495
 20
13.6194527434
 10
-27.2952795496
 20
13.5837191674
 10
-27.3164329141
 20
13.5493125643
 10
-27.3377020266
 20
13.5162730255
 10
-27.359065582
 20
13.4845648799
 10
-27.3804945253
 20
13.4542237985
 10
-27.402104355
 20
13.4253968866
 10
-27.4238892486
 20
13.3980310082
 10
-27.4458186994
 20
13.3721792993
 10
-27.4679801271
 20
13.3481482728
 10
-27.4903656575
 20
13.3258972507
 10
-27.512953226
 20
13.3054669109
 10
-27.5358140159
 20
13.2872858009
 10
-27.5589589762
 20
13.2713361594
 10
-27.5823494427
 20
13.2576357477
 10
-27.6059837221
 20
13.2466663965
 10
-27.6298709233
 20
13.2385015301
 10
-27.6539712463
 20
13.2330677242
 10
-27.6782083438
 20
13.2306265368
 10
-27.7025448564
 20
13.2312651541
 10
-27.7269831799
 20
13.2348963899
 10
-27.7515054918
 20
13.2415202442
  0
LWPOLYLINE
  5
480
100
AcDbEntity
  8
21814000
100
AcDbPolyline
 62
253
  6
CONTINUOUS
 90
46
 70
0
 10
-26.8672126576
 20
14.872044362
 10
-26.8691900619
 20
14.8043902262
 10
-26.8747290298
 20
14.7379127255
 10
-26.8832541549
 20
14.6726118597
 10
-26.8941568568
 20
14.608384191
 10
-26.9069486148
 20
14.5453331573
 10
-26.9213854797
 20
14.4837690723
 10
-26.9371363636
 20
14.4237605649
 10
-26.9538448706
 20
14.3652390062
 10
-26.9714331546
 20
14.308308824
 10
-26.9896677078
 20
14.253067454
 10
-27.0083252894
 20
14.1994174605
 10
-27.0274790396
 20
14.1471709638
 10
-27.0470074388
 20
14.0963247571
 10
-27.0667485289
 20
14.0468820472
 10
-27.0868085587
 20
13.9986645748
 10
-27.107129193
 20
13.9516187719
 10
-27.1275873416
 20
13.9057982066
 10
-27.1482446685
 20
13.861185324
 10
-27.1690536837
 20
13.8177513653
 10
-27.1899325135
 20
13.7755250893
 10
-27.2109181146
 20
13.734575217
 10
-27.2319576025
 20
13.694907799
 10
-27.2530056628
 20
13.6565167848
 10
-27.274128495
 20
13.6194527434
 10
-27.2952795496
 20
13.5837191674
 10
-27.3164329141
 20
13.5493125643
 10
-27.3377020266
 20
13.5162730255
 10
-27.359065582
 20
13.4845648799
 10
-27.3804945253
 20
13.4542237985
 10
-27.402104355
 20
13.4253968866
 10
-27.4238892486
 20
13.3980310082
 10
-27.4458186994
 20
13.3721792993
 10
-27.4679801271
 20
13.3481482728
 10
-27.4903656575
 20
13.3258972507
 10
-27.512953226
 20
13.3054669109
 10
-27.5358140159
 20
13.2872858009
 10
-27.5589589762
 20
13.2713361594
 10
-27.5823494427
 20
13.2576357477
 10
-27.6059837221
 20
13.2466663965
 10
-27.6298709233
 20
13.2385015301
 10
-27.6539712463
 20
13.2330677242
 10
-27.6782083438
 20
13.2306265368
 10
-27.7025448564
 20
13.2312651541
 10
-27.7269831799
 20
13.2348963899
 10
-27.7515054918
 20
13.2415202442
  0
LWPOLYLINE
  5
481
100
AcDbEntity
  8
0
100
AcDbPolyline
 62
253
  6
CONTINUOUS
 90
40
 70
0
 10
-26.5933593804
 20
14.640717804
 10
-26.5973261016
 20
14.5786685328
 10
-26.6046388336
 20
14.517172022
 10
-26.6152975763
 20
14.4565281299
 10
-26.6298230339
 20
14.3971489479
 10
-26.6476945022
 20
14.3391602316
 10
-26.6673498691
 20
14.2823849373
 10
-26.688567057
 20
14.2270259372
 10
-26.7115681434
 20
14.1732740179
 10
-26.7354572482
 20
14.1208779719
 10
-26.7600696933
 20
14.0700176117
 10
-26.7855701568
 20
14.0207947331
 10
-26.8115567928
 20
13.9727864464
 10
-26.8379535772
 20
13.9260359285
 10
-26.8648365342
 20
13.8806840085
 10
-26.8920318902
 20
13.8364097701
 10
-26.9195264914
 20
13.7931996971
 10
-26.9473334917
 20
13.7511924439
 10
-26.9753185797
 20
13.7102715076
 10
-27.003471786
 20
13.6704484688
 10
-27.0318030799
 20
13.6318073826
 10
-27.0602080578
 20
13.5943303727
 10
-27.0886568855
 20
13.5580563163
 10
-27.1171793971
 20
13.5230234207
 10
-27.1457606908
 20
13.4892067911
 10
-27.1743678502
 20
13.4566307816
 10
-27.2030337916
 20
13.4253317617
 10
-27.2318423629
 20
13.3952977104
 10
-27.2607896686
 20
13.3665069655
 10
-27.289879604
 20
13.339028415
 10
-27.3192077029
 20
13.312983494
 10
-27.3487822359
 20
13.2883411231
 10
-27.3785949324
 20
13.2651722071
 10
-27.4087165135
 20
13.2437525296
 10
-27.4391521654
 20
13.2240624398
 10
-27.4698967019
 20
13.2061576261
 10
-27.5010052867
 20
13.1904302339
 10
-27.5324963076
 20
13.1770231354
 10
-27.5643513768
 20
13.1658266303
 10
-27.5965704942
 20
13.1568545018
  0
LWPOLYLINE
  5
482
100
AcDbEntity
  8
21814000
100
AcDbPolyline
 62
253
  6
CONTINUOUS
 90
40
 70
0
 10
-26.5933593804
 20
14.640717804
 10
-26.5973261016
 20
14.5786685328
 10
-26.6046388336
 20
14.517172022
 10
-26.6152975763
 20
14.4565281299
 10
-26.6298230339
 20
14.3971489479
 10
-26.6476945022
 20
14.3391602316
 10
-26.6673498691
 20
14.2823849373
 10
-26.688567057
 20
14.2270259372
 10
-26.7115681434
 20
14.1732740179
 10
-26.7354572482
 20
14.1208779719
 10
-26.7600696933
 20
14.0700176117
 10
-26.7855701568
 20
14.0207947331
 10
-26.8115567928
 20
13.9727864464
 10
-26.8379535772
 20
13.9260359285
 10
-26.8648365342
 20
13.8806840085
 10
-26.8920318902
 20
13.8364097701
 10
-26.9195264914
 20
13.7931996971
 10
-26.9473334917
 20
13.7511924439
 10
-26.9753185797
 20
13.7102715076
 10
-27.003471786
 20
13.6704484688
 10
-27.0318030799
 20
13.6318073826
 10
-27.0602080578
 20
13.5943303727
 10
-27.0886568855
 20
13.5580563163
 10
-27.1171793971
 20
13.5230234207
 10
-27.1457606908
 20
13.4892067911
 10
-27.1743678502
 20
13.4566307816
 10
-27.2030337916
 20
13.4253317617
 10
-27.2318423629
 20
13.3952977104
 10
-27.2607896686
 20
13.3665069655
 10
-27.289879604
 20
13.339028415
 10
-27.3192077029
 20
13.312983494
 10
-27.3487822359
 20
13.2883411231
 10
-27.3785949324
 20
13.2651722071
 10
-27.4087165135
 20
13.2437525296
 10
-27.4391521654
 20
13.2240624398
 10
-27.4698967019
 20
13.2061576261
 10
-27.5010052867
 20
13.1904302339
 10
-27.5324963076
 20
13.1770231354
 10
-27.5643513768
 20
13.1658266303
 10
-27.5965704942
 20
13.1568545018
  0
LWPOLYLINE
  5
483
100
AcDbEntity
  8
0
100
AcDbPolyline
 62
253
  6
CONTINUOUS
 90
13
 70
0
 10
-26.8672126576
 20
9.6474709442
 10
-26.8649229409
 20
9.6761058827
 10
-26.8580887721
 20
9.7043036254
 10
-26.846814516
 20
9.7316337491
 10
-26.8312723148
 20
9.7576790765
 10
-26.8116994503
 20
9.7820420589
 10
-26.7883947135
 20
9.8043508406
 10
-26.7617138674
 20
9.8242649085
 10
-26.7320641959
 20
9.8414803141
 10
-26.6998982627
 20
9.8557343147
 10
-26.6657070501
 20
9.8668093543
 10
-26.6300124734
 20
9.8745363932
 10
-26.5933593805
 20
9.8787975026
  0
LWPOLYLINE
  5
484
100
AcDbEntity
  8
21814000
100
AcDbPolyline
 62
253
  6
CONTINUOUS
 90
13
 70
0
 10
-26.8672126576
 20
9.6474709442
 10
-26.8649229409
 20
9.6761058827
 10
-26.8580887721
 20
9.7043036254
 10
-26.846814516
 20
9.7316337491
 10
-26.8312723148
 20
9.7576790765
 10
-26.8116994503
 20
9.7820420589
 10
-26.7883947135
 20
9.8043508406
 10
-26.7617138674
 20
9.8242649085
 10
-26.7320641959
 20
9.8414803141
 10
-26.6998982627
 20
9.8557343147
 10
-26.6657070501
 20
9.8668093543
 10
-26.6300124734
 20
9.8745363932
 10
-26.5933593805
 20
9.8787975026
  0
LINE
  5
485
100
AcDbEntity
  8
0
100
AcDbLine
 62
253
  6
CONTINUOUS
 10
-26.5933593604
 20
2.7855650506
 11
-26.6014989993
 21
2.7555821443
  0
LINE
  5
486
100
AcDbEntity
  8
21814000
100
AcDbLine
 62
253
  6
CONTINUOUS
 10
-26.5933593604
 20
2.7855650506
 11
-26.6014989993
 21
2.7555821443
  0
LINE
  5
487
100
AcDbEntity
  8
INCISIONI_LASER
100
AcDbLine
 62
253
  6
CONTINUOUS
 10
-35.6000889616
 20
-14.9712643469
 11
-34.5672126576
 21
-13.6402423469
  0
LWPOLYLINE
  5
488
100
AcDbEntity
  8
INCISIONI_LASER
100
AcDbPolyline
 62
253
  6
CONTINUOUS
 90
51
 70
0
 10
-35.6000890755
 20
-12.3092202001
 10
-35.5591011743
 20
-12.2783953585
 10
-35.5171371015
 20
-12.2488088162
 10
-35.4742458497
 20
-12.2204892616
 10
-35.4304764112
 20
-12.1934653828
 10
-35.3858777786
 20
-12.1677658683
 10
-35.3404989441
 20
-12.1434194063
 10
-35.2943889004
 20
-12.120454685
 10
-35.2475966397
 20
-12.0989003928
 10
-35.2001711545
 20
-12.0787852179
 10
-35.1521614373
 20
-12.0601378487
 10
-35.1036158583
 20
-12.0429835874
 10
-35.0545802989
 20
-12.0273341922
 10
-35.0051000183
 20
-12.0131980355
 10
-34.9552202759
 20
-12.0005834894
 10
-34.9049863309
 20
-11.9894989263
 10
-34.8544434425
 20
-11.9799527184
 10
-34.80363687
 20
-11.9719532378
 10
-34.7526118726
 20
-11.965508857
 10
-34.7014137096
 20
-11.960627948
 10
-34.6500876402
 20
-11.9573188832
 10
-34.598679517
 20
-11.9555877941
 10
-34.547237566
 20
-11.9554318492
 10
-34.4958106064
 20
-11.9568459761
 10
-34.4444474575
 20
-11.9598251027
 10
-34.3931969385
 20
-11.9643641566
 10
-34.3421078687
 20
-11.9704580656
 10
-34.2912290674
 20
-11.9781017574
 10
-34.2406093539
 20
-11.9872901598
 10
-34.1902975474
 20
-11.9980182005
 10
-34.1403424672
 20
-12.0102808073
 10
-34.0907918916
 20
-12.0240708369
 10
-34.0416894345
 20
-12.0393728623
 10
-33.9930776689
 20
-12.0561693857
 10
-33.944999168
 20
-12.074442909
 10
-33.8974965047
 20
-12.0941759345
 10
-33.8506122519
 20
-12.1153509642
 10
-33.8043889828
 20
-12.1379505001
 10
-33.7588692703
 20
-12.1619570444
 10
-33.7140956874
 20
-12.1873530991
 10
-33.6701108071
 20
-12.2141211664
 10
-33.6269571157
 20
-12.2422403066
 10
-33.5846767524
 20
-12.2716758136
 10
-33.5433117697
 20
-12.3023895397
 10
-33.5029042201
 20
-12.3343433372
 10
-33.463496156
 20
-12.3674990583
 10
-33.4251296299
 20
-12.4018185553
 10
-33.3878466942
 20
-12.4372636804
 10
-33.3516894016
 20
-12.4737962859
 10
-33.3166998043
 20
-12.511378224
 10
-33.282919955
 20
-12.5499713469
  0
LINE
  5
489
100
AcDbEntity
  8
26814000
100
AcDbLine
 62
7
  6
CONTINUOUS
 10
-51.9422126576
 20
-23.4680735633
 11
-51.0672126576
 21
-22.9628920777
  0
LINE
  5
48A
100
AcDbEntity
  8
0
100
AcDbLine
 62
253
  6
CONTINUOUS
 10
-39.6685681707
 20
15.2740429791
 11
-41.5682787915
 21
15.2740429791
  0
LINE
  5
48B
100
AcDbEntity
  8
INCISIONI_LASER
100
AcDbLine
 62
253
  6
CONTINUOUS
 10
-28.5672126576
 20
15.6833616531
 11
-29.07009444
 21
15.6833616531
  0
LINE
  5
48C
100
AcDbEntity
  8
INCISIONI_LASER
100
AcDbLine
 62
253
  6
CONTINUOUS
 10
-34.4893623391
 20
15.7597576531
 11
-33.739590779
 21
15.7597576531
  0
LINE
  5
48D
100
AcDbEntity
  8
0
100
AcDbLine
 62
7
  6
CONTINUOUS
 10
-26.8672126576
 20
15.7597576531
 11
-26.6672126576
 21
15.7597576531
  0
LINE
  5
48E
100
AcDbEntity
  8
21814000
100
AcDbLine
 62
7
  6
CONTINUOUS
 10
-26.8672126576
 20
15.7597576531
 11
-26.6672126576
 21
15.7597576531
  0
LINE
  5
48F
100
AcDbEntity
  8
0
100
AcDbLine
 62
253
  6
CONTINUOUS
 10
-41.2968915762
 20
16.0883292111
 11
-40.8898106965
 21
16.0883292111
  0
LINE
  5
490
100
AcDbEntity
  8
INCISIONI_LASER
100
AcDbLine
 62
253
  6
CONTINUOUS
 10
-36.6617404605
 20
16.1597576531
 11
-35.9111491501
 21
16.1597576531
  0
LINE
  5
491
100
AcDbEntity
  8
INCISIONI_LASER
100
AcDbLine
 62
253
  6
CONTINUOUS
 10
-32.317803968
 20
16.1597576531
 11
-31.5672126576
 21
16.1597576531
  0
LINE
  5
492
100
AcDbEntity
  8
0
100
AcDbLine
 62
253
  6
CONTINUOUS
 10
-40.3470362658
 20
16.2240429791
 11
-39.9399554144
 21
16.2240429791
  0
LINE
  5
493
100
AcDbEntity
  8
0
100
AcDbLine
 62
7
  6
CONTINUOUS
 10
-26.5933593804
 20
15.3357985958
 11
-24.8410659348
 21
15.1824927842
  0
LINE
  5
494
100
AcDbEntity
  8
21814000
100
AcDbLine
 62
7
  6
CONTINUOUS
 10
-26.5933593804
 20
15.3357985958
 11
-24.8410659348
 21
15.1824927842
  0
LWPOLYLINE
  5
495
100
AcDbEntity
  8
INCISIONI_LASER
100
AcDbPolyline
 62
253
  6
CONTINUOUS
 90
46
 70
0
 10
-34.4893620167
 20
14.2992534724
 10
-34.5444149962
 20
14.3119003474
 10
-34.5991016869
 20
14.3262969777
 10
-34.653359295
 20
14.3424217858
 10
-34.7071250266
 20
14.3602531938
 10
-34.7603360879
 20
14.3797696242
 10
-34.812929685
 20
14.4009494992
 10
-34.864843024
 20
14.4237712413
 10
-34.9160133111
 20
14.4482132726
 10
-34.9663777524
 20
14.4742540156
 10
-35.0158769043
 20
14.5018700487
 10
-35.0644647237
 20
14.5310305755
 10
-35.1120985178
 20
14.5617029557
 10
-35.1587355939
 20
14.5938545488
 10
-35.204333259
 20
14.6274527146
 10
-35.2488488205
 20
14.6624648128
 10
-35.2922395854
 20
14.6988582031
 10
-35.334462861
 20
14.7366002451
 10
-35.3754759545
 20
14.7756582984
 10
-35.4152374764
 20
14.8159975574
 10
-35.4537112504
 20
14.8575745539
 10
-35.4908624037
 20
14.9003436545
 10
-35.5266560635
 20
14.9442592257
 10
-35.5610573567
 20
14.9892756338
 10
-35.5940314107
 20
15.0353472456
 10
-35.6255433524
 20
15.0824284273
 10
-35.6555583089
 20
15.1304735455
 10
-35.6840414075
 20
15.1794369668
 10
-35.7109602062
 20
15.2292723675
 10
-35.7362919869
 20
15.2799306647
 10
-35.7600164626
 20
15.3313620851
 10
-35.7821133462
 20
15.3835168557
 10
-35.8025623507
 20
15.4363452034
 10
-35.8213431889
 20
15.4897973551
 10
-35.8384355738
 20
15.5438235377
 10
-35.8538192183
 20
15.5983739781
 10
-35.8674738354
 20
15.6533989032
 10
-35.8793817955
 20
15.7088457897
 10
-35.8895360994
 20
15.7646511142
 10
-35.8979324054
 20
15.8207486028
 10
-35.9045663718
 20
15.8770719818
 10
-35.9094336569
 20
15.9335549776
 10
-35.9125299189
 20
15.9901313163
 10
-35.9138508163
 20
16.0467347242
 10
-35.9133920072
 20
16.1032989277
 10
-35.9111491501
 20
16.1597576531
  0
LWPOLYLINE
  5
496
100
AcDbEntity
  8
0
100
AcDbPolyline
 62
253
  6
CONTINUOUS
 90
37
 70
0
 10
-27.5965474611
 20
11.3626526735
 10
-27.5621231873
 20
11.3530116173
 10
-27.5279727336
 20
11.3407290546
 10
-27.4940961
 20
11.3258229704
 10
-27.4604370365
 20
11.3081133795
 10
-27.4270517931
 20
11.2878248081
 10
-27.3941091202
 20
11.2655797599
 10
-27.3617201323
 20
11.2415114187
 10
-27.3297737148
 20
11.2155305023
 10
-27.2981052743
 20
11.1879199873
 10
-27.2667223001
 20
11.1587886887
 10
-27.2356173028
 20
11.1280782544
 10
-27.2046032205
 20
11.0958217524
 10
-27.1736258469
 20
11.0620622769
 10
-27.1427393883
 20
11.0268225027
 10
-27.1119194013
 20
10.9901098152
 10
-27.0811316886
 20
10.9519747107
 10
-27.0504104475
 20
10.9124505218
 10
-27.0198338269
 20
10.8715252184
 10
-26.9894018502
 20
10.8293196237
 10
-26.9591144939
 20
10.785818262
 10
-26.9290498362
 20
10.7408185621
 10
-26.8991805585
 20
10.6944787495
 10
-26.8695339794
 20
10.6467870726
 10
-26.8402701327
 20
10.5973187812
 10
-26.8112728824
 20
10.5462027409
 10
-26.7826583645
 20
10.4935359164
 10
-26.7549350209
 20
10.4388986946
 10
-26.7279199365
 20
10.3824652069
 10
-26.7017960264
 20
10.3244010934
 10
-26.6776204774
 20
10.2643428803
 10
-26.6550878248
 20
10.2022116773
 10
-26.6345035335
 20
10.1386021296
 10
-26.6178411852
 20
10.0741664697
 10
-26.6057586406
 20
10.0092703726
 10
-26.597598039
 20
9.944051941
 10
-26.5933593804
 20
9.8787975021
  0
LWPOLYLINE
  5
497
100
AcDbEntity
  8
21814000
100
AcDbPolyline
 62
253
  6
CONTINUOUS
 90
37
 70
0
 10
-27.5965474611
 20
11.3626526735
 10
-27.5621231873
 20
11.3530116173
 10
-27.5279727336
 20
11.3407290546
 10
-27.4940961
 20
11.3258229704
 10
-27.4604370365
 20
11.3081133795
 10
-27.4270517931
 20
11.2878248081
 10
-27.3941091202
 20
11.2655797599
 10
-27.3617201323
 20
11.2415114187
 10
-27.3297737148
 20
11.2155305023
 10
-27.2981052743
 20
11.1879199873
 10
-27.2667223001
 20
11.1587886887
 10
-27.2356173028
 20
11.1280782544
 10
-27.2046032205
 20
11.0958217524
 10
-27.1736258469
 20
11.0620622769
 10
-27.1427393883
 20
11.0268225027
 10
-27.1119194013
 20
10.9901098152
 10
-27.0811316886
 20
10.9519747107
 10
-27.0504104475
 20
10.9124505218
 10
-27.0198338269
 20
10.8715252184
 10
-26.9894018502
 20
10.8293196237
 10
-26.9591144939
 20
10.785818262
 10
-26.9290498362
 20
10.7408185621
 10
-26.8991805585
 20
10.6944787495
 10
-26.8695339794
 20
10.6467870726
 10
-26.8402701327
 20
10.5973187812
 10
-26.8112728824
 20
10.5462027409
 10
-26.7826583645
 20
10.4935359164
 10
-26.7549350209
 20
10.4388986946
 10
-26.7279199365
 20
10.3824652069
 10
-26.7017960264
 20
10.3244010934
 10
-26.6776204774
 20
10.2643428803
 10
-26.6550878248
 20
10.2022116773
 10
-26.6345035335
 20
10.1386021296
 10
-26.6178411852
 20
10.0741664697
 10
-26.6057586406
 20
10.0092703726
 10
-26.597598039
 20
9.944051941
 10
-26.5933593804
 20
9.8787975021
  0
LINE
  5
498
100
AcDbEntity
  8
26814000
100
AcDbLine
 62
7
  6
CONTINUOUS
 10
-51.0672126576
 20
23.2824073839
 11
-51.9422126576
 21
23.7875888694
  0
LINE
  5
499
100
AcDbEntity
  8
0
100
AcDbLine
 62
253
  6
CONTINUOUS
 10
-26.5933593563
 20
0.9339502413
 11
-26.6014990008
 21
0.9639331618
  0
LINE
  5
49A
100
AcDbEntity
  8
21814000
100
AcDbLine
 62
253
  6
CONTINUOUS
 10
-26.5933593563
 20
0.9339502413
 11
-26.6014990008
 21
0.9639331618
  0
LWPOLYLINE
  5
49B
100
AcDbEntity
  8
0
100
AcDbPolyline
 62
253
  6
CONTINUOUS
 90
13
 70
0
 10
-26.8672126576
 20
14.872044362
 10
-26.8649229096
 20
14.843408948
 10
-26.8580886651
 20
14.8152108451
 10
-26.8468143168
 20
14.7878804773
 10
-26.8312720415
 20
14.7618350247
 10
-26.8116991426
 20
14.737472018
 10
-26.7883944022
 20
14.7151632812
 10
-26.7617135892
 20
14.6952493219
 10
-26.7320639916
 20
14.6780340762
 10
-26.6998981345
 20
14.6637802605
 10
-26.6657069784
 20
14.6527054289
 10
-26.6300124458
 20
14.6449786319
 10
-26.5933593805
 20
14.6407178035
  0
LWPOLYLINE
  5
49C
100
AcDbEntity
  8
21814000
100
AcDbPolyline
 62
253
  6
CONTINUOUS
 90
13
 70
0
 10
-26.8672126576
 20
14.872044362
 10
-26.8649229096
 20
14.843408948
 10
-26.8580886651
 20
14.8152108451
 10
-26.8468143168
 20
14.7878804773
 10
-26.8312720415
 20
14.7618350247
 10
-26.8116991426
 20
14.737472018
 10
-26.7883944022
 20
14.7151632812
 10
-26.7617135892
 20
14.6952493219
 10
-26.7320639916
 20
14.6780340762
 10
-26.6998981345
 20
14.6637802605
 10
-26.6657069784
 20
14.6527054289
 10
-26.6300124458
 20
14.6449786319
 10
-26.5933593805
 20
14.6407178035
  0
LWPOLYLINE
  5
49D
100
AcDbEntity
  8
0
100
AcDbPolyline
 62
253
  6
CONTINUOUS
 90
6
 70
0
 10
-26.8672126576
 20
18.3523250753
 10
-26.8705617931
 20
18.4071759053
 10
-26.8805842734
 20
18.4616185068
 10
-26.8972055061
 20
18.5152476894
 10
-26.9203017873
 20
18.5676643166
 10
-26.9497012223
 20
18.6184782765
  0
LWPOLYLINE
  5
49E
100
AcDbEntity
  8
21814000
100
AcDbPolyline
 62
253
  6
CONTINUOUS
 90
6
 70
0
 10
-26.8672126576
 20
18.3523250753
 10
-26.8705617931
 20
18.4071759053
 10
-26.8805842734
 20
18.4616185068
 10
-26.8972055061
 20
18.5152476894
 10
-26.9203017873
 20
18.5676643166
 10
-26.9497012223
 20
18.6184782765
  0
LWPOLYLINE
  5
49F
100
AcDbEntity
  8
0
100
AcDbPolyline
 62
253
  6
CONTINUOUS
 90
58
 70
0
 10
-26.8672126576
 20
3.6822337753
 10
-26.8668530331
 20
3.6481709323
 10
-26.8658326451
 20
3.6151711252
 10
-26.8642373747
 20
3.5832395613
 10
-26.8621587816
 20
3.5524176683
 10
-26.8596716849
 20
3.5226601877
 10
-26.8568150041
 20
3.4938409103
 10
-26.8536398371
 20
3.4659384399
 10
-26.8502044103
 20
3.4389638237
 10
-26.846528895
 20
3.4128441058
 10
-26.8426519217
 20
3.3875752148
 10
-26.838614593
 20
3.3631481431
 10
-26.8344229652
 20
3.339486365
 10
-26.8301055445
 20
3.3165877655
 10
-26.8256919826
 20
3.2944416896
 10
-26.8211771997
 20
3.2729623575
 10
-26.8165794276
 20
3.252136672
 10
-26.811922257
 20
3.2319667976
 10
-26.8071996512
 20
3.2123927778
 10
-26.8024224286
 20
3.1933940067
 10
-26.7976109084
 20
3.1749818168
 10
-26.7927683534
 20
3.1571458672
 10
-26.7879068407
 20
3.1398819695
 10
-26.783039889
 20
3.1231855614
 10
-26.7781703564
 20
3.1070466131
 10
-26.7733118612
 20
3.0914728325
 10
-26.7684719636
 20
3.0764483909
 10
-26.7636419199
 20
3.0619289753
 10
-26.7588365902
 20
3.0479302363
 10
-26.7540575307
 20
3.0344297555
 10
-26.7492724218
 20
3.0213279406
 10
-26.7444887807
 20
3.0086246804
 10
-26.7397096943
 20
2.9963158647
 10
-26.7348919566
 20
2.9842983388
 10
-26.7300410078
 20
2.9725697939
 10
-26.7251572986
 20
2.9611308297
 10
-26.7201860002
 20
2.9498853278
 10
-26.7151261305
 20
2.9388183027
 10
-26.7099804168
 20
2.9279458086
 10
-26.7046959085
 20
2.9172209913
 10
-26.6992522845
 20
2.9065979255
 10
-26.6936685851
 20
2.8961263411
 10
-26.687949591
 20
2.8859041084
 10
-26.6820397109
 20
2.8758564501
 10
-26.6759941755
 20
2.8660622573
 10
-26.6699889643
 20
2.8568457973
 10
-26.6641063993
 20
2.8483357707
 10
-26.6582748645
 20
2.8403976492
 10
-26.6524424262
 20
2.8329581194
 10
-26.6466723643
 20
2.8260484429
 10
-26.6409081719
 20
2.8196345178
 10
-26.6349132165
 20
2.8135509372
 10
-26.6286161204
 20
2.807685856
 10
-26.6220871464
 20
2.802159769
 10
-26.6152986751
 20
2.797161298
 10
-26.6082420866
 20
2.792756816
 10
-26.6009282352
 20
2.7888897119
 10
-26.5933593804
 20
2.7855649816
  0
LWPOLYLINE
  5
4A0
100
AcDbEntity
  8
21814000
100
AcDbPolyline
 62
253
  6
CONTINUOUS
 90
58
 70
0
 10
-26.8672126576
 20
3.6822337753
 10
-26.8668530331
 20
3.6481709323
 10
-26.8658326451
 20
3.6151711252
 10
-26.8642373747
 20
3.5832395613
 10
-26.8621587816
 20
3.5524176683
 10
-26.8596716849
 20
3.5226601877
 10
-26.8568150041
 20
3.4938409103
 10
-26.8536398371
 20
3.4659384399
 10
-26.8502044103
 20
3.4389638237
 10
-26.846528895
 20
3.4128441058
 10
-26.8426519217
 20
3.3875752148
 10
-26.838614593
 20
3.3631481431
 10
-26.8344229652
 20
3.339486365
 10
-26.8301055445
 20
3.3165877655
 10
-26.8256919826
 20
3.2944416896
 10
-26.8211771997
 20
3.2729623575
 10
-26.8165794276
 20
3.252136672
 10
-26.811922257
 20
3.2319667976
 10
-26.8071996512
 20
3.2123927778
 10
-26.8024224286
 20
3.1933940067
 10
-26.7976109084
 20
3.1749818168
 10
-26.7927683534
 20
3.1571458672
 10
-26.7879068407
 20
3.1398819695
 10
-26.783039889
 20
3.1231855614
 10
-26.7781703564
 20
3.1070466131
 10
-26.7733118612
 20
3.0914728325
 10
-26.7684719636
 20
3.0764483909
 10
-26.7636419199
 20
3.0619289753
 10
-26.7588365902
 20
3.0479302363
 10
-26.7540575307
 20
3.0344297555
 10
-26.7492724218
 20
3.0213279406
 10
-26.7444887807
 20
3.0086246804
 10
-26.7397096943
 20
2.9963158647
 10
-26.7348919566
 20
2.9842983388
 10
-26.7300410078
 20
2.9725697939
 10
-26.7251572986
 20
2.9611308297
 10
-26.7201860002
 20
2.9498853278
 10
-26.7151261305
 20
2.9388183027
 10
-26.7099804168
 20
2.9279458086
 10
-26.7046959085
 20
2.9172209913
 10
-26.6992522845
 20
2.9065979255
 10
-26.6936685851
 20
2.8961263411
 10
-26.687949591
 20
2.8859041084
 10
-26.6820397109
 20
2.8758564501
 10
-26.6759941755
 20
2.8660622573
 10
-26.6699889643
 20
2.8568457973
 10
-26.6641063993
 20
2.8483357707
 10
-26.6582748645
 20
2.8403976492
 10
-26.6524424262
 20
2.8329581194
 10
-26.6466723643
 20
2.8260484429
 10
-26.6409081719
 20
2.8196345178
 10
-26.6349132165
 20
2.8135509372
 10
-26.6286161204
 20
2.807685856
 10
-26.6220871464
 20
2.802159769
 10
-26.6152986751
 20
2.797161298
 10
-26.6082420866
 20
2.792756816
 10
-26.6009282352
 20
2.7888897119
 10
-26.5933593804
 20
2.7855649816
  0
LWPOLYLINE
  5
4A1
100
AcDbEntity
  8
0
100
AcDbPolyline
 62
253
  6
CONTINUOUS
 90
3
 70
0
 10
-26.7790515588
 20
-16.3312993029
 10
-26.7790536912
 20
-16.330147314
 10
-26.7789818401
 20
-16.3266981313
  0
LWPOLYLINE
  5
4A2
100
AcDbEntity
  8
21814000
100
AcDbPolyline
 62
253
  6
CONTINUOUS
 90
3
 70
0
 10
-26.7790515588
 20
-16.3312993029
 10
-26.7790536912
 20
-16.330147314
 10
-26.7789818401
 20
-16.3266981313
  0
LINE
  5
4A3
100
AcDbEntity
  8
0
100
AcDbLine
 62
7
  6
CONTINUOUS
 10
-26.8672126576
 20
18.6820850255
 11
-26.8672126576
 21
14.872044362
  0
LINE
  5
4A4
100
AcDbEntity
  8
21814000
100
AcDbLine
 62
7
  6
CONTINUOUS
 10
-26.8672126576
 20
18.6820850255
 11
-26.8672126576
 21
14.872044362
  0
LINE
  5
4A5
100
AcDbEntity
  8
0
100
AcDbLine
 62
7
  6
CONTINUOUS
 10
-26.8672126576
 20
-17.5118152221
 11
-26.8672126576
 21
-18.3625697193
  0
LINE
  5
4A6
100
AcDbEntity
  8
21814000
100
AcDbLine
 62
7
  6
CONTINUOUS
 10
-26.8672126576
 20
-17.5118152221
 11
-26.8672126576
 21
-18.3625697193
  0
LINE
  5
4A7
100
AcDbEntity
  8
0
100
AcDbLine
 62
7
  6
CONTINUOUS
 10
-26.6672126576
 20
17.6597576531
 11
-26.6672126576
 21
15.7597576531
  0
LINE
  5
4A8
100
AcDbEntity
  8
21814000
100
AcDbLine
 62
7
  6
CONTINUOUS
 10
-26.6672126576
 20
17.6597576531
 11
-26.6672126576
 21
15.7597576531
  0
LINE
  5
4A9
100
AcDbEntity
  8
0
100
AcDbLine
 62
7
  6
CONTINUOUS
 10
-26.6672126576
 20
7.5597576531
 11
-26.6672126576
 21
5.6597576531
  0
LINE
  5
4AA
100
AcDbEntity
  8
21814000
100
AcDbLine
 62
7
  6
CONTINUOUS
 10
-26.6672126576
 20
7.5597576531
 11
-26.6672126576
 21
5.6597576531
  0
LINE
  5
4AB
100
AcDbEntity
  8
0
100
AcDbLine
 62
7
  6
CONTINUOUS
 10
-26.6672126576
 20
-1.4402423469
 11
-26.6672126576
 21
-3.1402423469
  0
LINE
  5
4AC
100
AcDbEntity
  8
21814000
100
AcDbLine
 62
7
  6
CONTINUOUS
 10
-26.6672126576
 20
-1.4402423469
 11
-26.6672126576
 21
-3.1402423469
  0
LINE
  5
4AD
100
AcDbEntity
  8
0
100
AcDbLine
 62
253
  6
CONTINUOUS
 10
-26.5933593804
 20
15.3357985958
 11
-26.5933593804
 21
14.640717804
  0
LINE
  5
4AE
100
AcDbEntity
  8
21814000
100
AcDbLine
 62
253
  6
CONTINUOUS
 10
-26.5933593804
 20
15.3357985958
 11
-26.5933593804
 21
14.640717804
  0
LINE
  5
4AF
100
AcDbEntity
  8
0
100
AcDbLine
 62
253
  6
CONTINUOUS
 10
-26.5933593804
 20
9.8787975021
 11
-26.5933593804
 21
9.1837167103
  0
LINE
  5
4B0
100
AcDbEntity
  8
21814000
100
AcDbLine
 62
253
  6
CONTINUOUS
 10
-26.5933593804
 20
9.8787975021
 11
-26.5933593804
 21
9.1837167103
  0
LINE
  5
4B1
100
AcDbEntity
  8
0
100
AcDbLine
 62
253
  6
CONTINUOUS
 10
-26.5933593804
 20
4.9357985958
 11
-26.5933593804
 21
2.7855649816
  0
LINE
  5
4B2
100
AcDbEntity
  8
21814000
100
AcDbLine
 62
253
  6
CONTINUOUS
 10
-26.5933593804
 20
4.9357985958
 11
-26.5933593804
 21
2.7855649816
  0
LINE
  5
4B3
100
AcDbEntity
  8
0
100
AcDbLine
 62
253
  6
CONTINUOUS
 10
-26.5933593804
 20
0.9339503245
 11
-26.5933593804
 21
-1.2162832897
  0
LINE
  5
4B4
100
AcDbEntity
  8
21814000
100
AcDbLine
 62
253
  6
CONTINUOUS
 10
-26.5933593804
 20
0.9339503245
 11
-26.5933593804
 21
-1.2162832897
  0
LINE
  5
4B5
100
AcDbEntity
  8
0
100
AcDbLine
 62
7
  6
CONTINUOUS
 10
-26.8672126576
 20
5.7580462174
 11
-26.8672126576
 21
9.6474709441
  0
LINE
  5
4B6
100
AcDbEntity
  8
21814000
100
AcDbLine
 62
7
  6
CONTINUOUS
 10
-26.8672126576
 20
5.7580462174
 11
-26.8672126576
 21
9.6474709441
  0
LWPOLYLINE
  5
4B7
100
AcDbEntity
  8
0
100
AcDbPolyline
 62
7
  6
CONTINUOUS
 90
5
 70
0
 10
-26.8718836224
 20
5.7580462894
 10
-26.8717722359
 20
5.7927291088
 10
-26.8714383707
 20
5.8272337392
 10
-26.8709076567
 20
5.8615601806
 10
-26.8702219761
 20
5.8958485305
  0
LWPOLYLINE
  5
4B8
100
AcDbEntity
  8
21814000
100
AcDbPolyline
 62
7
  6
CONTINUOUS
 90
5
 70
0
 10
-26.8718836224
 20
5.7580462894
 10
-26.8717722359
 20
5.7927291088
 10
-26.8714383707
 20
5.8272337392
 10
-26.8709076567
 20
5.8615601806
 10
-26.8702219761
 20
5.8958485305
  0
LINE
  5
4B9
100
AcDbEntity
  8
0
100
AcDbLine
 62
253
  6
CONTINUOUS
 10
-26.8719661055
 20
-17.5470614202
 11
-26.8718836224
 21
5.7580462894
  0
LINE
  5
4BA
100
AcDbEntity
  8
21814000
100
AcDbLine
 62
253
  6
CONTINUOUS
 10
-26.8719661055
 20
-17.5470614202
 11
-26.8718836224
 21
5.7580462894
  0
LWPOLYLINE
  5
4BB
100
AcDbEntity
  8
0
100
AcDbPolyline
 62
7
  6
CONTINUOUS
 90
7
 70
0
 10
-26.8713514857
 20
5.7694089596
 10
-26.871020899
 20
5.8214043149
 10
-26.8702673517
 20
5.8741600356
 10
-26.8692317965
 20
5.9271989062
 10
-26.8681336812
 20
5.9799363767
 10
-26.8673512886
 20
6.03201487
 10
-26.8672347204
 20
6.0497238822
  0
LWPOLYLINE
  5
4BC
100
AcDbEntity
  8
21814000
100
AcDbPolyline
 62
7
  6
CONTINUOUS
 90
7
 70
0
 10
-26.8713514857
 20
5.7694089596
 10
-26.871020899
 20
5.8214043149
 10
-26.8702673517
 20
5.8741600356
 10
-26.8692317965
 20
5.9271989062
 10
-26.8681336812
 20
5.9799363767
 10
-26.8673512886
 20
6.03201487
 10
-26.8672347204
 20
6.0497238822
  0
LWPOLYLINE
  5
4BD
100
AcDbEntity
  8
0
100
AcDbPolyline
 62
7
  6
CONTINUOUS
 90
4
 70
0
 10
-26.8717876554
 20
-17.5938498933
 10
-26.8715365382
 20
-17.5644397289
 10
-26.8713951655
 20
-17.5341211433
 10
-26.8713514857
 20
5.7694089596
  0
LWPOLYLINE
  5
4BE
100
AcDbEntity
  8
21814000
100
AcDbPolyline
 62
7
  6
CONTINUOUS
 90
4
 70
0
 10
-26.8717876554
 20
-17.5938498933
 10
-26.8715365382
 20
-17.5644397289
 10
-26.8713951655
 20
-17.5341211433
 10
-26.8713514857
 20
5.7694089596
  0
LINE
  5
4BF
100
AcDbEntity
  8
0
100
AcDbLine
 62
253
  6
CONTINUOUS
 10
-26.8722439249
 20
-17.583464022
 11
-26.8719661055
 21
-17.5470614202
  0
LINE
  5
4C0
100
AcDbEntity
  8
21814000
100
AcDbLine
 62
253
  6
CONTINUOUS
 10
-26.8722439249
 20
-17.583464022
 11
-26.8719661055
 21
-17.5470614202
  0
LINE
  5
4C1
100
AcDbEntity
  8
0
100
AcDbLine
 62
253
  6
CONTINUOUS
 10
-26.8727335413
 20
-17.6211956853
 11
-26.8722439249
 21
-17.583464022
  0
LINE
  5
4C2
100
AcDbEntity
  8
21814000
100
AcDbLine
 62
253
  6
CONTINUOUS
 10
-26.8727335413
 20
-17.6211956853
 11
-26.8722439249
 21
-17.583464022
  0
LINE
  5
4C3
100
AcDbEntity
  8
0
100
AcDbLine
 62
253
  6
CONTINUOUS
 10
-26.7789818401
 20
-16.3266981313
 11
-26.7783100542
 21
-16.3030373105
  0
LINE
  5
4C4
100
AcDbEntity
  8
21814000
100
AcDbLine
 62
253
  6
CONTINUOUS
 10
-26.7789818401
 20
-16.3266981313
 11
-26.7783100542
 21
-16.3030373105
  0
LINE
  5
4C5
100
AcDbEntity
  8
0
100
AcDbLine
 62
253
  6
CONTINUOUS
 10
-26.7783100542
 20
-16.3030373105
 11
-26.776950523
 21
-16.2607448281
  0
LINE
  5
4C6
100
AcDbEntity
  8
21814000
100
AcDbLine
 62
253
  6
CONTINUOUS
 10
-26.7783100542
 20
-16.3030373105
 11
-26.776950523
 21
-16.2607448281
  0
LINE
  5
4C7
100
AcDbEntity
  8
0
100
AcDbLine
 62
253
  6
CONTINUOUS
 10
-26.776950523
 20
-16.2607448281
 11
-26.7749117617
 21
-16.2024149885
  0
LINE
  5
4C8
100
AcDbEntity
  8
21814000
100
AcDbLine
 62
253
  6
CONTINUOUS
 10
-26.776950523
 20
-16.2607448281
 11
-26.7749117617
 21
-16.2024149885
  0
LINE
  5
4C9
100
AcDbEntity
  8
0
100
AcDbLine
 62
253
  6
CONTINUOUS
 10
-26.7749117617
 20
-16.2024149885
 11
-26.7731971089
 21
-16.1565052148
  0
LINE
  5
4CA
100
AcDbEntity
  8
21814000
100
AcDbLine
 62
253
  6
CONTINUOUS
 10
-26.7749117617
 20
-16.2024149885
 11
-26.7731971089
 21
-16.1565052148
  0
LWPOLYLINE
  5
4CB
100
AcDbEntity
  8
0
100
AcDbPolyline
 62
253
  6
CONTINUOUS
 90
4
 70
0
 10
-26.7731971089
 20
-16.1565052148
 10
-26.7701479605
 20
-16.0806084154
 10
-26.7690146518
 20
-16.0542032928
 10
-26.7677925423
 20
-16.0275696028
  0
LWPOLYLINE
  5
4CC
100
AcDbEntity
  8
21814000
100
AcDbPolyline
 62
253
  6
CONTINUOUS
 90
4
 70
0
 10
-26.7731971089
 20
-16.1565052148
 10
-26.7701479605
 20
-16.0806084154
 10
-26.7690146518
 20
-16.0542032928
 10
-26.7677925423
 20
-16.0275696028
  0
LINE
  5
4CD
100
AcDbEntity
  8
0
100
AcDbLine
 62
253
  6
CONTINUOUS
 10
-26.8727652515
 20
-18.1033552309
 11
-26.8721744611
 21
-18.0931538925
  0
LINE
  5
4CE
100
AcDbEntity
  8
21814000
100
AcDbLine
 62
253
  6
CONTINUOUS
 10
-26.8727652515
 20
-18.1033552309
 11
-26.8721744611
 21
-18.0931538925
  0
LWPOLYLINE
  5
4CF
100
AcDbEntity
  8
INCISIONI_LASER
100
AcDbPolyline
 62
253
  6
CONTINUOUS
 90
51
 70
0
 10
-33.2829200967
 20
-14.7305132267
 10
-33.3166999423
 20
-14.7691063454
 10
-33.3516895356
 20
-14.8066882793
 10
-33.3878468243
 20
-14.8432208808
 10
-33.4251297558
 20
-14.878666002
 10
-33.4634962777
 20
-14.9129854952
 10
-33.5029043375
 20
-14.9461412126
 10
-33.5433118827
 20
-14.9780950066
 10
-33.5846768608
 20
-15.0088087293
 10
-33.6269572194
 20
-15.0382442331
 10
-33.6701109061
 20
-15.0663633702
 10
-33.7140957815
 20
-15.0931314345
 10
-33.7588693595
 20
-15.1185274864
 10
-33.804389067
 20
-15.142534028
 10
-33.850612331
 20
-15.1651335615
 10
-33.8974965786
 20
-15.1863085888
 10
-33.9449992367
 20
-15.2060416121
 10
-33.9930777323
 20
-15.2243151335
 10
-34.0416894924
 20
-15.241111655
 10
-34.0907919441
 20
-15.2564136787
 10
-34.1403425143
 20
-15.2702037068
 10
-34.190297589
 20
-15.2824663122
 10
-34.2406093899
 20
-15.2931943517
 10
-34.2912290979
 20
-15.3023827531
 10
-34.3421078935
 20
-15.3100264441
 10
-34.3931969577
 20
-15.3161203524
 10
-34.444447471
 20
-15.3206594059
 10
-34.4958106143
 20
-15.3236385321
 10
-34.5472375682
 20
-15.3250526589
 10
-34.5986795136
 20
-15.3248967139
 10
-34.6500876311
 20
-15.323165625
 10
-34.7014136948
 20
-15.3198565606
 10
-34.7526118522
 20
-15.3149756522
 10
-34.8036368439
 20
-15.308531272
 10
-34.8544434108
 20
-15.3005317924
 10
-34.9049862937
 20
-15.2909855855
 10
-34.9552202331
 20
-15.2799010236
 10
-35.00509997
 20
-15.2672864789
 10
-35.0545802451
 20
-15.2531503238
 10
-35.1036157991
 20
-15.2375009303
 10
-35.1521613728
 20
-15.2203466709
 10
-35.2001710847
 20
-15.2016993037
 10
-35.2475965646
 20
-15.1815841311
 10
-35.2943888202
 20
-15.1600298413
 10
-35.3404988589
 20
-15.1370651225
 10
-35.3858776883
 20
-15.1127186631
 10
-35.430476316
 20
-15.0870191514
 10
-35.4742457496
 20
-15.0599952757
 10
-35.5171369967
 20
-15.0316757242
 10
-35.5591010649
 20
-15.0020891851
 10
-35.6000889616
 20
-14.9712643469
  0
LWPOLYLINE
  5
4D0
100
AcDbEntity
  8
26814000
100
AcDbPolyline
 62
7
  6
CONTINUOUS
 90
4
 70
0
 10
-38.5702689636
 20
-20.7440893322
 10
-38.5753932523
 20
-20.7496935989
 10
-38.5787705664
 20
-20.7532834719
 10
-38.5869684797
 20
-20.7619185274
  0
LINE
  5
4D1
100
AcDbEntity
  8
26814000
100
AcDbLine
 62
7
  6
CONTINUOUS
 10
-38.5869684797
 20
-20.7619185274
 11
-38.6082619912
 21
-20.7839747161
  0
LINE
  5
4D2
100
AcDbEntity
  8
26814000
100
AcDbLine
 62
7
  6
CONTINUOUS
 10
-38.6082619912
 20
-20.7839747161
 11
-38.6276632889
 21
-20.8038813548
  0
LINE
  5
4D3
100
AcDbEntity
  8
26814000
100
AcDbLine
 62
7
  6
CONTINUOUS
 10
-38.6276632889
 20
-20.8038813548
 11
-38.6894743122
 21
-20.8667531137
  0
LINE
  5
4D4
100
AcDbEntity
  8
26814000
100
AcDbLine
 62
7
  6
CONTINUOUS
 10
-38.6894743122
 20
-20.8667531137
 11
-38.769520804
 21
-20.9475190832
  0
LINE
  5
4D5
100
AcDbEntity
  8
26814000
100
AcDbLine
 62
7
  6
CONTINUOUS
 10
-38.769520804
 20
-20.9475190832
 11
-38.8619769357
 21
-21.0402423469
  0
LWPOLYLINE
  5
4D6
100
AcDbEntity
  8
INCISIONI_LASER
100
AcDbPolyline
 62
253
  6
CONTINUOUS
 90
34
 70
0
 10
-32.0108115401
 20
-12.3876113469
 10
-32.0281465289
 20
-12.4045559062
 10
-32.0450733698
 20
-12.4219377885
 10
-32.06158099
 20
-12.4397434695
 10
-32.0776583167
 20
-12.4579594249
 10
-32.0932942771
 20
-12.4765721304
 10
-32.1084777983
 20
-12.4955680618
 10
-32.1231978076
 20
-12.5149336947
 10
-32.1374432322
 20
-12.5346555049
 10
-32.1512029993
 20
-12.5547199681
 10
-32.164466036
 20
-12.5751135599
 10
-32.1772212695
 20
-12.5958227561
 10
-32.1894585979
 20
-12.6168342435
 10
-32.2011718021
 20
-12.6381355534
 10
-32.2123556339
 20
-12.6597144282
 10
-32.2230048452
 20
-12.6815586102
 10
-32.2331141876
 20
-12.7036558418
 10
-32.242678413
 20
-12.7259938655
 10
-32.2516922733
 20
-12.7485604235
 10
-32.2601505201
 20
-12.7713432583
 10
-32.2680479053
 20
-12.7943301123
 10
-32.2753791806
 20
-12.8175087278
 10
-32.2821390979
 20
-12.8408668472
 10
-32.288322926
 20
-12.8643913645
 10
-32.2939280021
 20
-12.8880657792
 10
-32.2989521803
 20
-12.9118727426
 10
-32.303393315
 20
-12.935794906
 10
-32.3072492602
 20
-12.9598149204
 10
-32.3105178703
 20
-12.9839154371
 10
-32.3131969993
 20
-13.0080791073
 10
-32.3152845017
 20
-13.0322885822
 10
-32.3167782314
 20
-13.056526513
 10
-32.3176760429
 20
-13.0807755508
 10
-32.3179757902
 20
-13.1050183469
  0
LINE
  5
4D7
100
AcDbEntity
  8
28414000
100
AcDbLine
 62
7
  6
CONTINUOUS
 10
-51.6404624096
 20
18.8283993322
 11
-51.0731677052
 21
18.8432544668
  0
LINE
  5
4D8
100
AcDbEntity
  8
26814000
100
AcDbLine
 62
253
  6
CONTINUOUS
 10
-51.2332416451
 20
17.5395568462
 11
-51.7769226514
 21
17.530066859
  0
LINE
  5
4D9
100
AcDbEntity
  8
26814000
100
AcDbLine
 62
7
  6
CONTINUOUS
 10
-51.1102121064
 20
18.54155203
 11
-51.6716412746
 21
18.5317522474
  0
LINE
  5
4DA
100
AcDbEntity
  8
0
100
AcDbLine
 62
7
  6
CONTINUOUS
 10
-26.8672126576
 20
17.6597576531
 11
-26.6672126576
 21
17.6597576531
  0
LINE
  5
4DB
100
AcDbEntity
  8
21814000
100
AcDbLine
 62
7
  6
CONTINUOUS
 10
-26.8672126576
 20
17.6597576531
 11
-26.6672126576
 21
17.6597576531
  0
LINE
  5
4DC
100
AcDbEntity
  8
0
100
AcDbLine
 62
253
  6
CONTINUOUS
 10
-26.8672126576
 20
17.8313305283
 11
-48.5672126576
 21
17.8313305283
  0
LINE
  5
4DD
100
AcDbEntity
  8
21814000
100
AcDbLine
 62
253
  6
CONTINUOUS
 10
-26.8672126576
 20
17.8313305283
 11
-48.5672126576
 21
17.8313305283
  0
LINE
  5
4DE
100
AcDbEntity
  8
290140000
100
AcDbLine
 62
253
  6
CONTINUOUS
 10
-57.915151796
 20
20.6916737114
 11
-58.1537102023
 21
20.7333035362
  0
LINE
  5
4DF
100
AcDbEntity
  8
290140000
100
AcDbLine
 62
253
  6
CONTINUOUS
 10
-58.1537102023
 20
20.7333035362
 11
-58.3677088869
 21
20.7707844053
  0
LINE
  5
4E0
100
AcDbEntity
  8
290140000
100
AcDbLine
 62
253
  6
CONTINUOUS
 10
-58.3677088869
 20
20.7707844053
 11
-58.5368855272
 21
20.8005674676
  0
LINE
  5
4E1
100
AcDbEntity
  8
290140000
100
AcDbLine
 62
253
  6
CONTINUOUS
 10
-58.5368855272
 20
20.8005674676
 11
-58.6166346904
 21
20.8147150569
  0
LWPOLYLINE
  5
4E2
100
AcDbEntity
  8
290140000
100
AcDbPolyline
 62
253
  6
CONTINUOUS
 90
4
 70
0
 10
-58.6166346904
 20
20.8147150569
 10
-58.6658529077
 20
20.8235693488
 10
-58.6783095859
 20
20.8258853122
 10
-58.6824597993
 20
20.8267560857
  0
LWPOLYLINE
  5
4E3
100
AcDbEntity
  8
0
100
AcDbPolyline
 62
7
  6
CONTINUOUS
 90
7
 70
0
 10
-27.5964417754
 20
13.1568211461
 10
-27.6266274794
 20
13.1660227363
 10
-27.655076483
 20
13.177190297
 10
-27.681788786
 20
13.1903238281
 10
-27.7067643884
 20
13.2054233297
 10
-27.7300032904
 20
13.2224888017
 10
-27.7515054918
 20
13.2415202442
  0
LWPOLYLINE
  5
4E4
100
AcDbEntity
  8
21814000
100
AcDbPolyline
 62
7
  6
CONTINUOUS
 90
7
 70
0
 10
-27.5964417754
 20
13.1568211461
 10
-27.6266274794
 20
13.1660227363
 10
-27.655076483
 20
13.177190297
 10
-27.681788786
 20
13.1903238281
 10
-27.7067643884
 20
13.2054233297
 10
-27.7300032904
 20
13.2224888017
 10
-27.7515054918
 20
13.2415202442
  0
LINE
  5
4E5
100
AcDbEntity
  8
INCISIONI_LASER
100
AcDbLine
 62
253
  6
CONTINUOUS
 10
-29.8668166952
 20
13.4793706531
 11
-28.5672126576
 21
12.9090366531
  0
LINE
  5
4E6
100
AcDbEntity
  8
26814000
100
AcDbLine
 62
7
  6
CONTINUOUS
 10
-38.7880330012
 20
21.2856359291
 11
-38.8619769357
 21
21.3597576531
  0
LINE
  5
4E7
100
AcDbEntity
  8
26814000
100
AcDbLine
 62
7
  6
CONTINUOUS
 10
-38.6023980459
 20
21.097450879
 11
-38.7880330012
 21
21.2856359291
  0
LWPOLYLINE
  5
4E8
100
AcDbEntity
  8
26814000
100
AcDbPolyline
 62
7
  6
CONTINUOUS
 90
3
 70
0
 10
-38.5787705664
 20
21.072798778
 10
-38.5869684797
 20
21.0814338335
 10
-38.6023980459
 20
21.097450879
  0
LINE
  5
4E9
100
AcDbEntity
  8
26814000
100
AcDbLine
 62
7
  6
CONTINUOUS
 10
-38.5753932523
 20
21.069208905
 11
-38.5787705664
 21
21.072798778
  0
LWPOLYLINE
  5
4EA
100
AcDbEntity
  8
0
100
AcDbPolyline
 62
253
  6
CONTINUOUS
 90
38
 70
0
 10
-26.8713646263
 20
3.1415262914
 10
-26.8673768535
 20
3.1302193565
 10
-26.860901917
 20
3.1125380617
 10
-26.8544022883
 20
3.0954724625
 10
-26.8479129708
 20
3.0789951184
 10
-26.8414412211
 20
3.0631167852
 10
-26.8349797826
 20
3.0478267073
 10
-26.8285418888
 20
3.0330651768
 10
-26.8221403438
 20
3.0188495811
 10
-26.8157623435
 20
3.0051625329
 10
-26.8093827095
 20
2.9918921632
 10
-26.8030085802
 20
2.9790381569
 10
-26.7966328171
 20
2.966600829
 10
-26.7902088256
 20
2.9544692561
 10
-26.7837437165
 20
2.9426396547
 10
-26.777230379
 20
2.9311158081
 10
-26.7706008862
 20
2.9197981436
 10
-26.7638558996
 20
2.9086689478
 10
-26.7569947576
 20
2.897745934
 10
-26.7499475482
 20
2.8869826691
 10
-26.7426889396
 20
2.876330528
 10
-26.7352442636
 20
2.8658381358
 10
-26.7276196033
 20
2.8556049351
 10
-26.7197364947
 20
2.8455571649
 10
-26.7116734018
 20
2.8357685862
 10
-26.7036717995
 20
2.826559924
 10
-26.6958316281
 20
2.8180645532
 10
-26.6880529472
 20
2.8101490989
 10
-26.6802774107
 20
2.8027341621
 10
-26.6725897806
 20
2.7958483639
 10
-26.6649052949
 20
2.7894630832
 10
-26.656911322
 20
2.7834130568
 10
-26.648515651
 20
2.7775780328
 10
-26.6398104927
 20
2.7720782632
 10
-26.6307598483
 20
2.7671092403
 10
-26.6213517181
 20
2.7627361282
 10
-26.6115981018
 20
2.7588937629
 10
-26.6014989993
 20
2.7555821443
  0
LWPOLYLINE
  5
4EB
100
AcDbEntity
  8
21814000
100
AcDbPolyline
 62
253
  6
CONTINUOUS
 90
38
 70
0
 10
-26.8713646263
 20
3.1415262914
 10
-26.8673768535
 20
3.1302193565
 10
-26.860901917
 20
3.1125380617
 10
-26.8544022883
 20
3.0954724625
 10
-26.8479129708
 20
3.0789951184
 10
-26.8414412211
 20
3.0631167852
 10
-26.8349797826
 20
3.0478267073
 10
-26.8285418888
 20
3.0330651768
 10
-26.8221403438
 20
3.0188495811
 10
-26.8157623435
 20
3.0051625329
 10
-26.8093827095
 20
2.9918921632
 10
-26.8030085802
 20
2.9790381569
 10
-26.7966328171
 20
2.966600829
 10
-26.7902088256
 20
2.9544692561
 10
-26.7837437165
 20
2.9426396547
 10
-26.777230379
 20
2.9311158081
 10
-26.7706008862
 20
2.9197981436
 10
-26.7638558996
 20
2.9086689478
 10
-26.7569947576
 20
2.897745934
 10
-26.7499475482
 20
2.8869826691
 10
-26.7426889396
 20
2.876330528
 10
-26.7352442636
 20
2.8658381358
 10
-26.7276196033
 20
2.8556049351
 10
-26.7197364947
 20
2.8455571649
 10
-26.7116734018
 20
2.8357685862
 10
-26.7036717995
 20
2.826559924
 10
-26.6958316281
 20
2.8180645532
 10
-26.6880529472
 20
2.8101490989
 10
-26.6802774107
 20
2.8027341621
 10
-26.6725897806
 20
2.7958483639
 10
-26.6649052949
 20
2.7894630832
 10
-26.656911322
 20
2.7834130568
 10
-26.648515651
 20
2.7775780328
 10
-26.6398104927
 20
2.7720782632
 10
-26.6307598483
 20
2.7671092403
 10
-26.6213517181
 20
2.7627361282
 10
-26.6115981018
 20
2.7588937629
 10
-26.6014989993
 20
2.7555821443
  0
LINE
  5
4EC
100
AcDbEntity
  8
0
100
AcDbLine
 62
253
  6
CONTINUOUS
 10
-24.8410659348
 20
15.1824927842
 11
-24.8410659348
 21
9.3370225219
  0
LINE
  5
4ED
100
AcDbEntity
  8
21814000
100
AcDbLine
 62
253
  6
CONTINUOUS
 10
-24.8410659348
 20
15.1824927842
 11
-24.8410659348
 21
9.3370225219
  0
LINE
  5
4EE
100
AcDbEntity
  8
0
100
AcDbLine
 62
253
  6
CONTINUOUS
 10
-24.8410659348
 20
4.7824927842
 11
-24.8410659348
 21
-1.0629774781
  0
LINE
  5
4EF
100
AcDbEntity
  8
21814000
100
AcDbLine
 62
253
  6
CONTINUOUS
 10
-24.8410659348
 20
4.7824927842
 11
-24.8410659348
 21
-1.0629774781
  0
LINE
  5
4F0
100
AcDbEntity
  8
0
100
AcDbLine
 62
7
  6
CONTINUOUS
 10
-24.5672126576
 20
14.8835994903
 11
-24.5672126576
 21
9.6359159098
  0
LINE
  5
4F1
100
AcDbEntity
  8
21814000
100
AcDbLine
 62
7
  6
CONTINUOUS
 10
-24.5672126576
 20
14.8835994903
 11
-24.5672126576
 21
9.6359159098
  0
LINE
  5
4F2
100
AcDbEntity
  8
0
100
AcDbLine
 62
7
  6
CONTINUOUS
 10
-24.5672126576
 20
4.4835994876
 11
-24.5672126576
 21
-0.7640840869
  0
LINE
  5
4F3
100
AcDbEntity
  8
21814000
100
AcDbLine
 62
7
  6
CONTINUOUS
 10
-24.5672126576
 20
4.4835994876
 11
-24.5672126576
 21
-0.7640840869
  0
LWPOLYLINE
  5
4F4
100
AcDbEntity
  8
0
100
AcDbPolyline
 62
253
  6
CONTINUOUS
 90
22
 70
0
 10
-24.8654847989
 20
-13.8402419764
 10
-24.8708193712
 20
-13.99189888
 10
-24.8861724022
 20
-14.1414682157
 10
-24.9115438919
 20
-14.2889499836
 10
-24.9471443167
 20
-14.435005247
 10
-24.9927632001
 20
-14.5789729425
 10
-25.0477691128
 20
-14.7188698801
 10
-25.1122942382
 20
-14.8546438395
 10
-25.1862063928
 20
-14.986347041
 10
-25.2684775972
 20
-15.112152955
 10
-25.3592183097
 20
-15.2319739219
 10
-25.4583180721
 20
-15.3458976013
 10
-25.5644175298
 20
-15.4523604429
 10
-25.6776309451
 20
-15.5512694511
 10
-25.7978440556
 20
-15.6427176215
 10
-25.9233547208
 20
-15.7254203896
 10
-26.0542057277
 20
-15.7992401372
 10
-26.1903542891
 20
-15.8643144826
 10
-26.3299699033
 20
-15.919771717
 10
-26.4724424029
 20
-15.9653212707
 10
-26.6183819553
 20
-16.0012537133
 10
-26.7677885605
 20
-16.0275690449
  0
LWPOLYLINE
  5
4F5
100
AcDbEntity
  8
21814000
100
AcDbPolyline
 62
253
  6
CONTINUOUS
 90
22
 70
0
 10
-24.8654847989
 20
-13.8402419764
 10
-24.8708193712
 20
-13.99189888
 10
-24.8861724022
 20
-14.1414682157
 10
-24.9115438919
 20
-14.2889499836
 10
-24.9471443167
 20
-14.435005247
 10
-24.9927632001
 20
-14.5789729425
 10
-25.0477691128
 20
-14.7188698801
 10
-25.1122942382
 20
-14.8546438395
 10
-25.1862063928
 20
-14.986347041
 10
-25.2684775972
 20
-15.112152955
 10
-25.3592183097
 20
-15.2319739219
 10
-25.4583180721
 20
-15.3458976013
 10
-25.5644175298
 20
-15.4523604429
 10
-25.6776309451
 20
-15.5512694511
 10
-25.7978440556
 20
-15.6427176215
 10
-25.9233547208
 20
-15.7254203896
 10
-26.0542057277
 20
-15.7992401372
 10
-26.1903542891
 20
-15.8643144826
 10
-26.3299699033
 20
-15.919771717
 10
-26.4724424029
 20
-15.9653212707
 10
-26.6183819553
 20
-16.0012537133
 10
-26.7677885605
 20
-16.0275690449
  0
LINE
  5
4F6
100
AcDbEntity
  8
0
100
AcDbLine
 62
253
  6
CONTINUOUS
 10
-26.8727594468
 20
-18.1033556891
 11
-26.8836129541
 21
-18.1537468682
  0
LINE
  5
4F7
100
AcDbEntity
  8
21814000
100
AcDbLine
 62
253
  6
CONTINUOUS
 10
-26.8727594468
 20
-18.1033556891
 11
-26.8836129541
 21
-18.1537468682
  0
LINE
  5
4F8
100
AcDbEntity
  8
26814000
100
AcDbLine
 62
7
  6
CONTINUOUS
 10
-48.5672126576
 20
21.0597576531
 11
-38.5672126576
 21
21.0597576531
  0
LINE
  5
4F9
100
AcDbEntity
  8
0
100
AcDbLine
 62
253
  6
CONTINUOUS
 10
-27.7515054918
 20
18.9886242521
 11
-48.5672126576
 21
19.2455440907
  0
LINE
  5
4FA
100
AcDbEntity
  8
21814000
100
AcDbLine
 62
253
  6
CONTINUOUS
 10
-27.7515054918
 20
18.9886242521
 11
-48.5672126576
 21
19.2455440907
  0
LINE
  5
4FB
100
AcDbEntity
  8
0
100
AcDbLine
 62
7
  6
CONTINUOUS
 10
-27.7515054918
 20
19.5819479511
 11
-38.5672126576
 21
19.7707368219
  0
LINE
  5
4FC
100
AcDbEntity
  8
21814000
100
AcDbLine
 62
7
  6
CONTINUOUS
 10
-27.7515054918
 20
19.5819479511
 11
-38.5672126576
 21
19.7707368219
  0
LINE
  5
4FD
100
AcDbEntity
  8
0
100
AcDbLine
 62
7
  6
CONTINUOUS
 10
-38.5672126576
 20
20.8352070038
 11
-48.5672126576
 21
21.0097576531
  0
LINE
  5
4FE
100
AcDbEntity
  8
21814000
100
AcDbLine
 62
7
  6
CONTINUOUS
 10
-38.5672126576
 20
20.8352070038
 11
-48.5672126576
 21
21.0097576531
  0
LWPOLYLINE
  5
4FF
100
AcDbEntity
  8
290140000
100
AcDbPolyline
 62
253
  6
CONTINUOUS
 90
22
 70
0
 10
-57.1706124187
 20
21.269403398
 10
-57.2199592094
 20
21.2715212134
 10
-57.2689199526
 20
21.2702184501
 10
-57.3174946484
 20
21.2654951081
 10
-57.3659398097
 20
21.2572968024
 10
-57.4139989236
 20
21.245677918
 10
-57.4609024511
 20
21.23080161
 10
-57.5066163992
 20
21.2126158534
 10
-57.5511747609
 20
21.1911726733
 10
-57.5939099769
 20
21.1667912998
 10
-57.6347883063
 20
21.1394323647
 10
-57.67384349
 20
21.1091352363
 10
-57.7105091918
 20
21.0763372486
 10
-57.7447571908
 20
21.040993297
 10
-57.7766157079
 20
21.0031484862
 10
-57.8056030691
 20
20.9633754648
 10
-57.8316741912
 20
20.9216323935
 10
-57.8548741574
 20
20.8779611116
 10
-57.8748565434
 20
20.8330597858
 10
-57.8915058745
 20
20.7871611383
 10
-57.9049376253
 20
20.7400324468
 10
-57.915151796
 20
20.6916737114
  0
LINE
  5
500
100
AcDbEntity
  8
290140000
100
AcDbLine
 62
253
  6
CONTINUOUS
 10
-51.4313768277
 20
20.8177157612
 11
-57.1706124187
 21
21.269403398
  0
LINE
  5
501
100
AcDbEntity
  8
290140000
100
AcDbLine
 62
7
  6
CONTINUOUS
 10
-51.3477827125
 20
21.6130606392
 11
-57.0870183036
 21
22.0647482761
  0
LINE
  5
502
100
AcDbEntity
  8
28414000
100
AcDbLine
 62
7
  6
CONTINUOUS
 10
-50.9359307217
 20
19.9609600034
 11
-51.5150282537
 21
20.0218256066
  0
LINE
  5
503
100
AcDbEntity
  8
26814000
100
AcDbLine
 62
7
  6
CONTINUOUS
 10
-52.0672126576
 20
22.1597576531
 11
-50.9172126576
 21
22.018555408
  0
LINE
  5
504
100
AcDbEntity
  8
INCISIONI_LASER
100
AcDbLine
 62
253
  6
CONTINUOUS
 10
-29.07009444
 20
15.6833616531
 11
-29.8668166952
 21
16.1591006531
  0
LWPOLYLINE
  5
505
100
AcDbEntity
  8
0
100
AcDbPolyline
 62
253
  6
CONTINUOUS
 90
4
 70
0
 10
-26.7677895107
 20
-16.0275716704
 10
-26.7813892195
 20
-16.0694715251
 10
-26.794527442
 20
-16.1085518627
 10
-26.8185777357
 20
-16.1787341717
  0
LWPOLYLINE
  5
506
100
AcDbEntity
  8
21814000
100
AcDbPolyline
 62
253
  6
CONTINUOUS
 90
4
 70
0
 10
-26.7677895107
 20
-16.0275716704
 10
-26.7813892195
 20
-16.0694715251
 10
-26.794527442
 20
-16.1085518627
 10
-26.8185777357
 20
-16.1787341717
  0
LWPOLYLINE
  5
507
100
AcDbEntity
  8
0
100
AcDbPolyline
 62
253
  6
CONTINUOUS
 90
4
 70
0
 10
-26.8836129541
 20
-18.1537468682
 10
-26.9001355888
 20
-18.2033638028
 10
-26.9222218943
 20
-18.2518880769
 10
-26.9497310242
 20
-18.2990087352
  0
LWPOLYLINE
  5
508
100
AcDbEntity
  8
21814000
100
AcDbPolyline
 62
253
  6
CONTINUOUS
 90
4
 70
0
 10
-26.8836129541
 20
-18.1537468682
 10
-26.9001355888
 20
-18.2033638028
 10
-26.9222218943
 20
-18.2518880769
 10
-26.9497310242
 20
-18.2990087352
  0
LWPOLYLINE
  5
509
100
AcDbEntity
  8
0
100
AcDbPolyline
 62
253
  6
CONTINUOUS
 90
9
 70
0
 10
-26.8185777357
 20
-16.1787341717
 10
-26.8291678529
 20
-16.2101407468
 10
-26.838715809
 20
-16.239243293
 10
-26.8471153008
 20
-16.2660979224
 10
-26.8541983657
 20
-16.2910220275
 10
-26.8598248852
 20
-16.3144496306
 10
-26.8639034852
 20
-16.3364983844
 10
-26.8663783815
 20
-16.3570501214
 10
-26.8672081574
 20
-16.3760721503
  0
LWPOLYLINE
  5
50A
100
AcDbEntity
  8
21814000
100
AcDbPolyline
 62
253
  6
CONTINUOUS
 90
9
 70
0
 10
-26.8185777357
 20
-16.1787341717
 10
-26.8291678529
 20
-16.2101407468
 10
-26.838715809
 20
-16.239243293
 10
-26.8471153008
 20
-16.2660979224
 10
-26.8541983657
 20
-16.2910220275
 10
-26.8598248852
 20
-16.3144496306
 10
-26.8639034852
 20
-16.3364983844
 10
-26.8663783815
 20
-16.3570501214
 10
-26.8672081574
 20
-16.3760721503
  0
LINE
  5
50B
100
AcDbEntity
  8
26814000
100
AcDbLine
 62
253
  6
CONTINUOUS
 10
-48.5672126576
 20
21.4354478929
 11
-38.8619769357
 21
21.6048534126
  0
LINE
  5
50C
100
AcDbEntity
  8
26814000
100
AcDbLine
 62
253
  6
CONTINUOUS
 10
-48.5672126576
 20
21.6476713171
 11
-38.6513789825
 21
21.8207528377
  0
LINE
  5
50D
100
AcDbEntity
  8
26814000
100
AcDbLine
 62
253
  6
CONTINUOUS
 10
-49.5672126576
 20
22.2097443256
 11
-52.0672126576
 21
22.1879271561
  0
LINE
  5
50E
100
AcDbEntity
  8
26814000
100
AcDbLine
 62
7
  6
CONTINUOUS
 10
-49.5672126576
 20
22.5597576531
 11
-52.0672126576
 21
22.5379404836
  0
LINE
  5
50F
100
AcDbEntity
  8
26814000
100
AcDbLine
 62
253
  6
CONTINUOUS
 10
-48.5672126576
 20
21.3597576531
 11
-38.8619769357
 21
21.3597576531
  0
LINE
  5
510
100
AcDbEntity
  8
26814000
100
AcDbLine
 62
253
  6
CONTINUOUS
 10
-48.5672126576
 20
22.2010174578
 11
-49.5672126576
 21
22.2097443256
  0
LINE
  5
511
100
AcDbEntity
  8
26814000
100
AcDbLine
 62
253
  6
CONTINUOUS
 10
-48.5672126576
 20
22.4631513961
 11
-39.1493540964
 21
22.3809629896
  0
LINE
  5
512
100
AcDbEntity
  8
26814000
100
AcDbLine
 62
7
  6
CONTINUOUS
 10
-39.5584861221
 20
22.4724128198
 11
-49.5672126576
 21
22.5597576531
  0
LWPOLYLINE
  5
513
100
AcDbEntity
  8
0
100
AcDbPolyline
 62
253
  6
CONTINUOUS
 90
15
 70
0
 10
-26.9497310242
 20
-18.2990087352
 10
-26.9824867727
 20
-18.3444227387
 10
-27.0202781388
 20
-18.3878371094
 10
-27.0628621277
 20
-18.4289728233
 10
-27.1099658644
 20
-18.4675663981
 10
-27.1612870889
 20
-18.5033701825
 10
-27.2164964779
 20
-18.5361544271
 10
-27.2752397583
 20
-18.5657087588
 10
-27.3371399802
 20
-18.5918435303
 10
-27.4017999361
 20
-18.6143910373
 10
-27.4688047093
 20
-18.6332065948
 10
-27.5377243368
 20
-18.648169465
 10
-27.6081165683
 20
-18.6591836329
 10
-27.6795297036
 20
-18.6661784215
 10
-27.7515054918
 20
-18.669108946
  0
LWPOLYLINE
  5
514
100
AcDbEntity
  8
21814000
100
AcDbPolyline
 62
253
  6
CONTINUOUS
 90
15
 70
0
 10
-26.9497310242
 20
-18.2990087352
 10
-26.9824867727
 20
-18.3444227387
 10
-27.0202781388
 20
-18.3878371094
 10
-27.0628621277
 20
-18.4289728233
 10
-27.1099658644
 20
-18.4675663981
 10
-27.1612870889
 20
-18.5033701825
 10
-27.2164964779
 20
-18.5361544271
 10
-27.2752397583
 20
-18.5657087588
 10
-27.3371399802
 20
-18.5918435303
 10
-27.4017999361
 20
-18.6143910373
 10
-27.4688047093
 20
-18.6332065948
 10
-27.5377243368
 20
-18.648169465
 10
-27.6081165683
 20
-18.6591836329
 10
-27.6795297036
 20
-18.6661784215
 10
-27.7515054918
 20
-18.669108946
  0
LWPOLYLINE
  5
515
100
AcDbEntity
  8
0
100
AcDbPolyline
 62
253
  6
CONTINUOUS
 90
6
 70
0
 10
-26.7677885605
 20
-16.0275690449
 10
-26.7955538659
 20
-16.0551021548
 10
-26.8216773942
 20
-16.0828020404
 10
-26.8461591452
 20
-16.1106687017
 10
-26.869244557
 20
-16.1385621867
 10
-26.8713646263
 20
-16.1413364224
  0
LWPOLYLINE
  5
516
100
AcDbEntity
  8
21814000
100
AcDbPolyline
 62
253
  6
CONTINUOUS
 90
6
 70
0
 10
-26.7677885605
 20
-16.0275690449
 10
-26.7955538659
 20
-16.0551021548
 10
-26.8216773942
 20
-16.0828020404
 10
-26.8461591452
 20
-16.1106687017
 10
-26.869244557
 20
-16.1385621867
 10
-26.8713646263
 20
-16.1413364224
  0
LINE
  5
517
100
AcDbEntity
  8
26814000
100
AcDbLine
 62
7
  6
CONTINUOUS
 10
-51.8186670905
 20
24.5466590743
 11
-49.5672126576
 21
24.5597576531
  0
LINE
  5
518
100
AcDbEntity
  8
26814000
100
AcDbLine
 62
7
  6
CONTINUOUS
 10
-48.5723089798
 20
23.9539694728
 11
-41.5672126576
 21
23.9132150146
  0
LINE
  5
519
100
AcDbEntity
  8
26814000
100
AcDbLine
 62
7
  6
CONTINUOUS
 10
-49.5672126576
 20
24.5597576531
 11
-48.8157582248
 21
24.5553858191
  0
LWPOLYLINE
  5
51A
100
AcDbEntity
  8
0
100
AcDbPolyline
 62
253
  6
CONTINUOUS
 90
14
 70
0
 10
-26.9497012223
 20
18.6184782765
 10
-26.9851850051
 20
18.6673113851
 10
-27.0264890469
 20
18.7138002007
 10
-27.0733059414
 20
18.7575987293
 10
-27.1252872529
 20
18.7983809993
 10
-27.1820461091
 20
18.8358434878
 10
-27.2431600809
 20
18.8697073792
 10
-27.3081743263
 20
18.8997206409
 10
-27.3766049752
 20
18.9256598982
 10
-27.4479427308
 20
18.9473320978
 10
-27.5216566604
 20
18.9645759439
 10
-27.5971981461
 20
18.9772630989
 10
-27.6740049688
 20
18.9852991383
 10
-27.7515054918
 20
18.9886242536
  0
LWPOLYLINE
  5
51B
100
AcDbEntity
  8
21814000
100
AcDbPolyline
 62
253
  6
CONTINUOUS
 90
14
 70
0
 10
-26.9497012223
 20
18.6184782765
 10
-26.9851850051
 20
18.6673113851
 10
-27.0264890469
 20
18.7138002007
 10
-27.0733059414
 20
18.7575987293
 10
-27.1252872529
 20
18.7983809993
 10
-27.1820461091
 20
18.8358434878
 10
-27.2431600809
 20
18.8697073792
 10
-27.3081743263
 20
18.8997206409
 10
-27.3766049752
 20
18.9256598982
 10
-27.4479427308
 20
18.9473320978
 10
-27.5216566604
 20
18.9645759439
 10
-27.5971981461
 20
18.9772630989
 10
-27.6740049688
 20
18.9852991383
 10
-27.7515054918
 20
18.9886242536
  0
ARC
  5
51C
100
AcDbEntity
  8
0
100
AcDbCircle
 62
7
  6
CONTINUOUS
 10
-27.0759083098
 20
-13.8402423469
 40
2.5086956522
100
AcDbArc
 50
276.7959242607
 51
83.2040757388
  0
ARC
  5
51D
100
AcDbEntity
  8
21814000
100
AcDbCircle
 62
7
  6
CONTINUOUS
 10
-27.0759083098
 20
-13.8402423469
 40
2.5086956522
100
AcDbArc
 50
276.7959242607
 51
83.2040757388
  0
ARC
  5
51E
100
AcDbEntity
  8
290140000
100
AcDbCircle
 62
7
  6
CONTINUOUS
 10
-61.4276179327
 20
-19.6089418989
 40
1.5
100
AcDbArc
 50
177.880231945
 51
262.5
  0
ARC
  5
51F
100
AcDbEntity
  8
28414000
100
AcDbCircle
 62
7
  6
CONTINUOUS
 10
-55.2380470643
 20
-20.1837183443
 40
1.0
100
AcDbArc
 50
354.0
 51
76.5
  0
ARC
  5
520
100
AcDbEntity
  8
26814000
100
AcDbCircle
 62
7
  6
CONTINUOUS
 10
-39.5672126576
 20
-21.1529355906
 40
1.0
100
AcDbArc
 50
270.5
 51
360.0
  0
ARC
  5
521
100
AcDbEntity
  8
0
100
AcDbCircle
 62
7
  6
CONTINUOUS
 10
-27.7672126576
 20
-18.3625697193
 40
0.9
100
AcDbArc
 50
271.0
 51
360.0
  0
ARC
  5
522
100
AcDbEntity
  8
21814000
100
AcDbCircle
 62
7
  6
CONTINUOUS
 10
-27.7672126576
 20
-18.3625697193
 40
0.9
100
AcDbArc
 50
271.0
 51
360.0
  0
ARC
  5
523
100
AcDbEntity
  8
26814000
100
AcDbCircle
 62
7
  6
CONTINUOUS
 10
-51.8172126576
 20
-23.6845799142
 40
0.25
100
AcDbArc
 50
120.0
 51
180.0
  0
ARC
  5
524
100
AcDbEntity
  8
26814000
100
AcDbCircle
 62
7
  6
CONTINUOUS
 10
-51.8172126576
 20
-23.977147999
 40
0.25
100
AcDbArc
 50
180.0
 51
269.6666666667
  0
ARC
  5
525
100
AcDbEntity
  8
26814000
100
AcDbCircle
 62
7
  6
CONTINUOUS
 10
-48.8172126576
 20
-23.9858747437
 40
0.25
100
AcDbArc
 50
270.3333333333
 51
360.0
  0
ARC
  5
526
100
AcDbEntity
  8
26814000
100
AcDbCircle
 62
7
  6
CONTINUOUS
 10
-48.8172126576
 20
-23.6845799142
 40
0.25
100
AcDbArc
 50
0.0
 51
60.0
  0
ARC
  5
527
100
AcDbEntity
  8
26814000
100
AcDbCircle
 62
7
  6
CONTINUOUS
 10
-49.3172126576
 20
-22.8185545105
 40
0.25
100
AcDbArc
 50
180.0
 51
240.0
  0
ARC
  5
528
100
AcDbEntity
  8
0
100
AcDbCircle
 62
7
  6
CONTINUOUS
 10
-26.7672126576
 20
-11.2498755775
 40
0.1
100
AcDbArc
 50
189.2473775885
 51
263.2031754299
  0
ARC
  5
529
100
AcDbEntity
  8
21814000
100
AcDbCircle
 62
7
  6
CONTINUOUS
 10
-26.7672126576
 20
-11.2498755775
 40
0.1
100
AcDbArc
 50
189.2473775885
 51
263.2031754299
  0
ARC
  5
52A
100
AcDbEntity
  8
0
100
AcDbCircle
 62
7
  6
CONTINUOUS
 10
-26.7672126576
 20
-16.4305889414
 40
0.0999982373
100
AcDbArc
 50
96.7981887064
 51
179.0542651601
  0
ARC
  5
52B
100
AcDbEntity
  8
21814000
100
AcDbCircle
 62
7
  6
CONTINUOUS
 10
-26.7672126576
 20
-16.4305889414
 40
0.0999982373
100
AcDbArc
 50
96.7981887064
 51
179.0542651601
  0
ARC
  5
52C
100
AcDbEntity
  8
290140000
100
AcDbCircle
 62
7
  6
CONTINUOUS
 10
-57.2047069471
 20
20.5693722755
 40
1.5
100
AcDbArc
 50
85.5
 51
170.119768055
  0
ARC
  5
52D
100
AcDbEntity
  8
26814000
100
AcDbCircle
 62
7
  6
CONTINUOUS
 10
-39.5672126576
 20
21.4724508968
 40
1.0
100
AcDbArc
 50
0.0
 51
89.5
  0
ARC
  5
52E
100
AcDbEntity
  8
0
100
AcDbCircle
 62
7
  6
CONTINUOUS
 10
-27.7672126576
 20
18.6820850255
 40
0.9
100
AcDbArc
 50
0.0
 51
89.0
  0
ARC
  5
52F
100
AcDbEntity
  8
21814000
100
AcDbCircle
 62
7
  6
CONTINUOUS
 10
-27.7672126576
 20
18.6820850255
 40
0.9
100
AcDbArc
 50
0.0
 51
89.0
  0
ARC
  5
530
100
AcDbEntity
  8
0
100
AcDbCircle
 62
7
  6
CONTINUOUS
 10
-24.8672126576
 20
4.4836343747
 40
0.3
100
AcDbArc
 50
0.0
 51
85.0
  0
ARC
  5
531
100
AcDbEntity
  8
0
100
AcDbCircle
 62
7
  6
CONTINUOUS
 10
-24.8672126576
 20
-0.7641190686
 40
0.3
100
AcDbArc
 50
275.0
 51
360.0
  0
ARC
  5
532
100
AcDbEntity
  8
0
100
AcDbCircle
 62
7
  6
CONTINUOUS
 10
-24.8672126576
 20
14.8836343747
 40
0.3
100
AcDbArc
 50
0.0
 51
85.0
  0
ARC
  5
533
100
AcDbEntity
  8
0
100
AcDbCircle
 62
7
  6
CONTINUOUS
 10
-24.8672126576
 20
9.6358809314
 40
0.3
100
AcDbArc
 50
275.0
 51
360.0
  0
ARC
  5
534
100
AcDbEntity
  8
0
100
AcDbCircle
 62
7
  6
CONTINUOUS
 10
-26.5672126576
 20
8.8848583009
 40
0.3
100
AcDbArc
 50
95.0
 51
180.0
  0
ARC
  5
535
100
AcDbEntity
  8
0
100
AcDbCircle
 62
7
  6
CONTINUOUS
 10
-26.5672126576
 20
15.6346570053
 40
0.3
100
AcDbArc
 50
180.0
 51
265.0
  0
ARC
  5
536
100
AcDbEntity
  8
0
100
AcDbCircle
 62
7
  6
CONTINUOUS
 10
-26.5672126576
 20
5.2346570053
 40
0.3
100
AcDbArc
 50
180.0
 51
265.0
  0
ARC
  5
537
100
AcDbEntity
  8
0
100
AcDbCircle
 62
7
  6
CONTINUOUS
 10
-26.5672126576
 20
-1.5151416991
 40
0.3
100
AcDbArc
 50
95.0
 51
180.0
  0
ARC
  5
538
100
AcDbEntity
  8
21814000
100
AcDbCircle
 62
7
  6
CONTINUOUS
 10
-24.8672126576
 20
4.4836343747
 40
0.3
100
AcDbArc
 50
0.0
 51
85.0
  0
ARC
  5
539
100
AcDbEntity
  8
21814000
100
AcDbCircle
 62
7
  6
CONTINUOUS
 10
-24.8672126576
 20
-0.7641190686
 40
0.3
100
AcDbArc
 50
275.0
 51
360.0
  0
ARC
  5
53A
100
AcDbEntity
  8
21814000
100
AcDbCircle
 62
7
  6
CONTINUOUS
 10
-24.8672126576
 20
14.8836343747
 40
0.3
100
AcDbArc
 50
0.0
 51
85.0
  0
ARC
  5
53B
100
AcDbEntity
  8
21814000
100
AcDbCircle
 62
7
  6
CONTINUOUS
 10
-24.8672126576
 20
9.6358809314
 40
0.3
100
AcDbArc
 50
275.0
 51
360.0
  0
ARC
  5
53C
100
AcDbEntity
  8
21814000
100
AcDbCircle
 62
7
  6
CONTINUOUS
 10
-26.5672126576
 20
8.8848583009
 40
0.3
100
AcDbArc
 50
95.0
 51
180.0
  0
ARC
  5
53D
100
AcDbEntity
  8
21814000
100
AcDbCircle
 62
7
  6
CONTINUOUS
 10
-26.5672126576
 20
15.6346570053
 40
0.3
100
AcDbArc
 50
180.0
 51
265.0
  0
ARC
  5
53E
100
AcDbEntity
  8
21814000
100
AcDbCircle
 62
7
  6
CONTINUOUS
 10
-26.5672126576
 20
5.2346570053
 40
0.3
100
AcDbArc
 50
180.0
 51
265.0
  0
ARC
  5
53F
100
AcDbEntity
  8
21814000
100
AcDbCircle
 62
7
  6
CONTINUOUS
 10
-26.5672126576
 20
-1.5151416991
 40
0.3
100
AcDbArc
 50
95.0
 51
180.0
  0
ARC
  5
540
100
AcDbEntity
  8
26814000
100
AcDbCircle
 62
7
  6
CONTINUOUS
 10
-51.8172126576
 20
24.0040952204
 40
0.25
100
AcDbArc
 50
180.0
 51
240.0
  0
ARC
  5
541
100
AcDbEntity
  8
26814000
100
AcDbCircle
 62
7
  6
CONTINUOUS
 10
-51.8172126576
 20
24.2966633051
 40
0.25
100
AcDbArc
 50
90.3333333333
 51
180.0
  0
ARC
  5
542
100
AcDbEntity
  8
26814000
100
AcDbCircle
 62
7
  6
CONTINUOUS
 10
-48.8172126576
 20
24.3053900498
 40
0.25
100
AcDbArc
 50
0.0
 51
89.6666666667
  0
ARC
  5
543
100
AcDbEntity
  8
26814000
100
AcDbCircle
 62
7
  6
CONTINUOUS
 10
-48.8172126576
 20
24.0040952204
 40
0.25
100
AcDbArc
 50
300.0
 51
360.0
  0
ARC
  5
544
100
AcDbEntity
  8
26814000
100
AcDbCircle
 62
7
  6
CONTINUOUS
 10
-49.3172126576
 20
23.1380698166
 40
0.25
100
AcDbArc
 50
120.0
 51
180.0
  0
ARC
  5
545
100
AcDbEntity
  8
290140000
100
AcDbCircle
 62
7
  6
CONTINUOUS
 10
236.8681160022
 20
-30.6500068951
 40
300.0
100
AcDbArc
 50
170.119768055
 51
177.880231945
  0
ELLIPSE
  5
546
100
AcDbEntity
  8
290140000
100
AcDbEllipse
 62
7
  6
CONTINUOUS
 10
9.1253635211
 20
20.8171703912
 30
0.0
 11
0.798751001
 21
0.0496266508
 31
0.0
 40
0.9944795551
 41
-0.0617088791
 42
0.2586777849
  0
ELLIPSE
  5
547
100
AcDbEntity
  8
290140000
100
AcDbEllipse
 62
7
  6
CONTINUOUS
 10
-11.4740880109
 20
-21.0516559404
 30
0.0
 11
0.798751001
 21
0.0496266508
 31
0.0
 40
0.9944795551
 41
3.0798837745
 42
4.6499948686
  0
ELLIPSE
  5
548
100
AcDbEntity
  8
290140000
100
AcDbEllipse
 62
7
  6
CONTINUOUS
 10
-11.4740880109
 20
20.8171703912
 30
0.0
 11
0.798751001
 21
-0.0496266508
 31
0.0
 40
0.9944795551
 41
2.8829148806
 42
3.2033015327
  0
ELLIPSE
  5
549
100
AcDbEntity
  8
290140000
100
AcDbEllipse
 62
7
  6
CONTINUOUS
 10
9.1253635211
 20
-21.0516559404
 30
0.0
 11
0.798751001
 21
-0.0496266508
 31
0.0
 40
0.9944795551
 41
-1.508402215
 42
0.0617088791
  0
ELLIPSE
  5
54A
100
AcDbEntity
  8
26814000
100
AcDbEllipse
 62
7
  6
CONTINUOUS
 10
-11.9743622449
 20
-21.86841185
 30
0.0
 11
0.0
 21
0.3500133274
 31
0.0
 40
0.9999619231
 41
7.853981634
 42
9.4247779608
  0
ELLIPSE
  5
54B
100
AcDbEntity
  8
26814000
100
AcDbEllipse
 62
7
  6
CONTINUOUS
 10
9.6256377551
 20
22.1879271561
 30
0.0
 11
-0.0
 21
-0.3500133274
 31
0.0
 40
0.9999619231
 41
7.853981634
 42
9.4247779608
  0
ELLIPSE
  5
54C
100
AcDbEntity
  8
26814000
100
AcDbEllipse
 62
7
  6
CONTINUOUS
 10
-11.9743622449
 20
22.1879271561
 30
0.0
 11
0.0
 21
0.3500133274
 31
0.0
 40
0.9999619231
 41
-0.0
 42
1.5707963268
  0
ELLIPSE
  5
54D
100
AcDbEntity
  8
26814000
100
AcDbEllipse
 62
7
  6
CONTINUOUS
 10
9.6256377551
 20
-21.86841185
 30
0.0
 11
-0.0
 21
-0.3500133274
 31
0.0
 40
0.9999619231
 41
-0.0
 42
1.5707963268
  0
ELLIPSE
  5
54E
100
AcDbEntity
  8
26814000
100
AcDbEllipse
 62
7
  6
CONTINUOUS
 10
9.412547638
 20
-23.6845799142
 30
0.0
 11
0.0
 21
0.25
 31
0.0
 40
0.0058178298
 41
0.5235987756
 42
1.5707963268
  0
ELLIPSE
  5
54F
100
AcDbEntity
  8
26814000
100
AcDbEllipse
 62
7
  6
CONTINUOUS
 10
7.1387278722
 20
-23.6845799142
 30
0.0
 11
0.0
 21
0.25
 31
0.0
 40
0.0058178298
 41
-1.5707963268
 42
-0.5235987756
  0
ELLIPSE
  5
550
100
AcDbEntity
  8
26814000
100
AcDbEllipse
 62
7
  6
CONTINUOUS
 10
7.1387278722
 20
-23.977147999
 30
0.0
 11
-0.0
 21
0.25
 31
0.0
 40
0.0058178298
 41
-3.1357748894
 42
-1.5707963268
  0
ELLIPSE
  5
551
100
AcDbEntity
  8
26814000
100
AcDbEllipse
 62
7
  6
CONTINUOUS
 10
9.412547638
 20
-23.977147999
 30
0.0
 11
-0.0
 21
0.25
 31
0.0
 40
0.0058178298
 41
-4.7123889804
 42
-3.1474104178
  0
ELLIPSE
  5
552
100
AcDbEntity
  8
26814000
100
AcDbEllipse
 62
7
  6
CONTINUOUS
 10
-9.487452362
 20
-23.6845799142
 30
0.0
 11
0.0
 21
0.25
 31
0.0
 40
0.0058178298
 41
0.5235987756
 42
1.5707963268
  0
ELLIPSE
  5
553
100
AcDbEntity
  8
26814000
100
AcDbEllipse
 62
7
  6
CONTINUOUS
 10
-11.7612721278
 20
-23.6845799142
 30
0.0
 11
0.0
 21
0.25
 31
0.0
 40
0.0058178298
 41
-1.5707963268
 42
-0.5235987756
  0
ELLIPSE
  5
554
100
AcDbEntity
  8
26814000
100
AcDbEllipse
 62
7
  6
CONTINUOUS
 10
-11.7612721278
 20
-23.977147999
 30
0.0
 11
-0.0
 21
0.25
 31
0.0
 40
0.0058178298
 41
-3.1357748894
 42
-1.5707963268
  0
ELLIPSE
  5
555
100
AcDbEntity
  8
26814000
100
AcDbEllipse
 62
7
  6
CONTINUOUS
 10
-9.487452362
 20
-23.977147999
 30
0.0
 11
-0.0
 21
0.25
 31
0.0
 40
0.0058178298
 41
-4.7123889804
 42
-3.1474104178
  0
ELLIPSE
  5
556
100
AcDbEntity
  8
26814000
100
AcDbEllipse
 62
7
  6
CONTINUOUS
 10
-11.7612721278
 20
24.0040952204
 30
0.0
 11
0.0
 21
0.25
 31
0.0
 40
0.0058178298
 41
-2.617993878
 42
-1.5707963268
  0
ELLIPSE
  5
557
100
AcDbEntity
  8
26814000
100
AcDbEllipse
 62
7
  6
CONTINUOUS
 10
-9.487452362
 20
24.0040952204
 30
0.0
 11
0.0
 21
0.25
 31
0.0
 40
0.0058178298
 41
-4.7123889804
 42
-3.6651914292
  0
ELLIPSE
  5
558
100
AcDbEntity
  8
26814000
100
AcDbEllipse
 62
7
  6
CONTINUOUS
 10
-9.487452362
 20
24.2966633051
 30
0.0
 11
0.0
 21
0.25
 31
0.0
 40
0.0058178298
 41
0.0058177642
 42
1.5707963268
  0
ELLIPSE
  5
559
100
AcDbEntity
  8
26814000
100
AcDbEllipse
 62
7
  6
CONTINUOUS
 10
-11.7612721278
 20
24.2966633051
 30
0.0
 11
0.0
 21
0.25
 31
0.0
 40
0.0058178298
 41
-1.5707963268
 42
-0.0058177642
  0
ELLIPSE
  5
55A
100
AcDbEntity
  8
26814000
100
AcDbEllipse
 62
7
  6
CONTINUOUS
 10
7.1387278722
 20
24.0040952204
 30
0.0
 11
0.0
 21
0.25
 31
0.0
 40
0.0058178298
 41
-2.617993878
 42
-1.5707963268
  0
ELLIPSE
  5
55B
100
AcDbEntity
  8
26814000
100
AcDbEllipse
 62
7
  6
CONTINUOUS
 10
9.412547638
 20
24.0040952204
 30
0.0
 11
0.0
 21
0.25
 31
0.0
 40
0.0058178298
 41
-4.7123889804
 42
-3.6651914292
  0
ELLIPSE
  5
55C
100
AcDbEntity
  8
26814000
100
AcDbEllipse
 62
7
  6
CONTINUOUS
 10
9.412547638
 20
24.2966633051
 30
0.0
 11
0.0
 21
0.25
 31
0.0
 40
0.0058178298
 41
0.0058177642
 42
1.5707963268
  0
ELLIPSE
  5
55D
100
AcDbEntity
  8
26814000
100
AcDbEllipse
 62
7
  6
CONTINUOUS
 10
7.1387278722
 20
24.2966633051
 30
0.0
 11
0.0
 21
0.25
 31
0.0
 40
0.0058178298
 41
-1.5707963268
 42
-0.0058177642
  0
ELLIPSE
  5
55E
100
AcDbEntity
  8
26814000
100
AcDbEllipse
 62
7
  6
CONTINUOUS
 10
-5.270284687
 20
-22.2341335395
 30
0.0
 11
0.3
 21
-0.0
 31
0.0
 40
0.0087268678
 41
1.5707963268
 42
3.1357748894
  0
ELLIPSE
  5
55F
100
AcDbEntity
  8
26814000
100
AcDbEllipse
 62
7
  6
CONTINUOUS
 10
-5.270284687
 20
-23.6361698661
 30
0.0
 11
0.3
 21
0.0
 31
0.0
 40
0.0058178298
 41
1.5707963268
 42
3.1357748894
  0
ELLIPSE
  5
560
100
AcDbEntity
  8
26814000
100
AcDbEllipse
 62
7
  6
CONTINUOUS
 10
2.9215601972
 20
-23.6361698661
 30
0.0
 11
0.3
 21
0.0
 31
0.0
 40
0.0058178298
 41
0.0058177642
 42
1.5707963268
  0
ELLIPSE
  5
561
100
AcDbEntity
  8
26814000
100
AcDbEllipse
 62
7
  6
CONTINUOUS
 10
2.9215601972
 20
-22.2341335395
 30
0.0
 11
0.3
 21
0.0
 31
0.0
 40
0.0087268678
 41
0.0058177642
 42
1.5707963268
  0
ELLIPSE
  5
562
100
AcDbEntity
  8
26814000
100
AcDbEllipse
 62
7
  6
CONTINUOUS
 10
-5.270284687
 20
23.9556851722
 30
0.0
 11
0.3
 21
-0.0
 31
0.0
 40
0.0058178298
 41
-3.1357748894
 42
-1.5707963268
  0
ELLIPSE
  5
563
100
AcDbEntity
  8
26814000
100
AcDbEllipse
 62
7
  6
CONTINUOUS
 10
-5.270284687
 20
22.5536488456
 30
0.0
 11
0.3
 21
0.0
 31
0.0
 40
0.0087268678
 41
-3.1357748894
 42
-1.5707963268
  0
ELLIPSE
  5
564
100
AcDbEntity
  8
26814000
100
AcDbEllipse
 62
7
  6
CONTINUOUS
 10
2.9215601972
 20
22.5536488456
 30
0.0
 11
0.3
 21
0.0
 31
0.0
 40
0.0087268678
 41
-1.5707963268
 42
-0.0058177642
  0
ELLIPSE
  5
565
100
AcDbEntity
  8
26814000
100
AcDbEllipse
 62
7
  6
CONTINUOUS
 10
2.9215601972
 20
23.9556851722
 30
0.0
 11
0.3
 21
-0.0
 31
0.0
 40
0.0058178298
 41
-1.5707963268
 42
-0.0058177642
  0
ELLIPSE
  5
566
100
AcDbEntity
  8
INCISIONI_LASER
100
AcDbEllipse
 62
253
  6
CONTINUOUS
 10
-29.2170146764
 20
6.5000006531
 30
0.0
 11
-0.0
 21
0.65
 31
0.0
 40
0.9996954135
 41
-1.5707963268
 42
1.5707963268
  0
ELLIPSE
  5
567
100
AcDbEntity
  8
INCISIONI_LASER
100
AcDbEllipse
 62
253
  6
CONTINUOUS
 10
-45.0773572082
 20
-4.5210373469
 30
0.0
 11
-0.0
 21
0.352865
 31
0.0
 40
0.9996954135
 41
-1.5707963268
 42
1.5707963268
  0
ENDSEC
  0
SECTION
  2
OBJECTS
  0
DICTIONARY
  5
C
100
AcDbDictionary
280
0
281
1
  3
ACAD_GROUP
350
D
  3
ACAD_MLINESTYLE
350
17
  3
ACAD_LAYOUT
350
1A
  3
ACAD_PLOTSETTINGS
350
19
  3
ACAD_PLOTSTYLENAME
350
E
  0
DICTIONARY
  5
D
102
{ACAD_REACTORS
330
C
102
}
100
AcDbDictionary
280
0
281
1
  0
ACDBDICTIONARYWDFLT
  5
E
102
{ACAD_REACTORS
330
C
102
}
100
AcDbDictionary
281
1
  3
Normal
350
F
100
AcDbDictionaryWithDefault
340
F
  0
DICTIONARY
  5
17
102
{ACAD_REACTORS
330
C
102
}
100
AcDbDictionary
280
0
281
1
  3
Standard
350
18
  0
DICTIONARY
  5
19
102
{ACAD_REACTORS
330
C
102
}
100
AcDbDictionary
281
1
  0
DICTIONARY
  5
1A
102
{ACAD_REACTORS
330
C
102
}
100
AcDbDictionary
281
1
  3
Model
350
568
  3
Layout1
350
569
  0
ACDBPLACEHOLDER
  5
F
102
{ACAD_REACTORS
330
E
102
}
  0
MLINESTYLE
  5
18
102
{ACAD_REACTORS
330
17
102
}
100
AcDbMlineStyle
  2
STANDARD
 70
0
  3

 62
256
 51
90.0
 52
90.0
 71
2
 49
0.5
 62
256
  6
BYLAYER
 49
-0.5
 62
256
  6
BYLAYER
  0
LAYOUT
  5
568
102
{ACAD_REACTORS
330
1A
102
}
100
AcDbPlotSettings
  1

  2
none_device
  4
ISO_A4_(297.00_x_210.00_MM)
  6

 40
0.0
 41
0.0
 42
0.0
 43
0.0
 44
297.0
 45
210.0
 46
0.0
 47
0.0
 48
0.0
 49
0.0
140
0.0
141
0.0
142
1.0
143
1.0
 70
1024
 72
1
 73
0
 74
0
  7

 75
0
147
1.0
148
0.0
149
0.0
100
AcDbLayout
  1
Model
 70
0
 71
0
 10
0.0
 20
0.0
 11
297.0
 21
210.0
 12
0.0
 22
0.0
 32
0.0
 14
0.0
 24
0.0
 34
0.0
 15
0.0
 25
0.0
 35
0.0
146
0.0
 13
0.0
 23
0.0
 33
0.0
 16
1.0
 26
0.0
 36
0.0
 17
0.0
 27
1.0
 37
0.0
 76
0
330
224
345
0
346
0
  0
LAYOUT
  5
569
102
{ACAD_REACTORS
330
1A
102
}
100
AcDbPlotSettings
  1

  2
none_device
  4
ISO_A4_(297.00_x_210.00_MM)
  6

 40
0.0
 41
0.0
 42
0.0
 43
0.0
 44
297.0
 45
210.0
 46
0.0
 47
0.0
 48
0.0
 49
0.0
140
0.0
141
0.0
142
1.0
143
1.0
 70
0
 72
1
 73
0
 74
0
  7

 75
0
147
1.0
148
0.0
149
0.0
100
AcDbLayout
  1
Layout1
 70
0
 71
1
 10
0.0
 20
0.0
 11
297.0
 21
210.0
 12
0.0
 22
0.0
 32
0.0
 14
0.0
 24
0.0
 34
0.0
 15
0.0
 25
0.0
 35
0.0
146
0.0
 13
0.0
 23
0.0
 33
0.0
 16
1.0
 26
0.0
 36
0.0
 17
0.0
 27
1.0
 37
0.0
 76
0
330
225
345
0
346
0
  0
ENDSEC
  0
EOF
