  0
SECTION
  2
HEADER
  9
$ACADVER
  1
AC1015
  9
$DWGCODEPAGE
  3
ANSI_1252
  9
$EXTMAX
 10
297.0
 20
210.0
 30
0.0
  9
$EXTMIN
 10
0.0
 20
0.0
 30
0.0
  9
$LIMMIN
 10
0.0
 20
0.0
  9
$LIMMAX
 10
297.0
 20
210.0
  9
$VIEWCTR
 10
148.5
 20
105.0
  9
$VIEWSIZE
 40
210.0
  9
$CLAYER
  8
0
  9
$LTSCALE
 40
16.335
  9
$CELTYPE
  6
BYLAYER
  9
$DIMSCALE
 40
1.0
  9
$DIMASZ
 40
3.0
  9
$DIMEXO
 40
1.85625
  9
$DIMDLI
 40
11.286
  9
$DIMEXE
 40
5.346
  9
$DIMCEN
 40
2.673
  9
$DIMLFAC
 40
1.0
  9
$DIMBLK
  1
_FILLED
  9
$DIMTXT
 40
3.0
  9
$DIMTOL
 70
1
  9
$DIMLIM
 70
0
  9
$DIMTFAC
 40
1.0
  9
$DIMTP
 40
0.01
  9
$DIMTM
 40
0.01
  9
$PDMODE
 70
3
  9
$PDSIZE
 40
3.0
  9
$HANDSEED
  5
4E0
  9
$TILEMODE
 70
1
  9
$MEASUREMENT
 70
1
  9
$INSUNITS
 70
4
  0
ENDSEC
  0
SECTION
  2
CLASSES
  0
CLASS
  1
ACDBDICTIONARYWDFLT
  2
AcDbDictionaryWithDefault
  3
AutoCAD 2000
 90
0
280
0
281
0
  0
CLASS
  1
ACDBPLACEHOLDER
  2
AcDbPlaceHolder
  3
AutoCAD 2000
 90
0
280
0
281
0
  0
CLASS
  1
LAYOUT
  2
AcDbLayout
  3
AutoCAD 2000
 90
0
280
0
281
0
  0
ENDSEC
  0
SECTION
  2
TABLES
  0
TABLE
  2
VPORT
  5
8
100
AcDbSymbolTable
 70
2
  0
VPORT
  5
1F4
100
AcDbSymbolTableRecord
100
AcDbViewportTableRecord
  2
*ACTIVE
 70
0
 10
0.0
 20
0.0
 11
1.0
 21
1.0
 12
148.5
 22
105.0
 13
0.0
 23
0.0
 14
1.0
 24
1.0
 15
0.0
 25
0.0
 16
0.0
 26
0.0
 36
1.0
 17
0.0
 27
0.0
 37
0.0
 40
210.0
 41
1.4142857143
 42
50.0
 43
0.0
 44
0.0
 50
0.0
 51
0.0
 71
0
 72
100
 73
1
 74
1
 75
0
 76
0
 77
0
 78
0
  0
ENDTAB
  0
TABLE
  2
LTYPE
  5
5
100
AcDbSymbolTable
 70
6
  0
LTYPE
  5
14
100
AcDbSymbolTableRecord
100
AcDbLinetypeTableRecord
  2
BYBLOCK
 70
0
  3

 72
65
 73
0
 40
0.0
  0
LTYPE
  5
15
100
AcDbSymbolTableRecord
100
AcDbLinetypeTableRecord
  2
BYLAYER
 70
0
  3

 72
65
 73
0
 40
0.0
  0
LTYPE
  5
16
100
AcDbSymbolTableRecord
100
AcDbLinetypeTableRecord
  2
CONTINUOUS
 70
64
  3
Solid line
 72
65
 73
0
 40
0.0
  0
LTYPE
  5
1F5
100
AcDbSymbolTableRecord
100
AcDbLinetypeTableRecord
  2
CENTER
 70
64
  3
____ _ ____ _ ____ _ ____ _ ____ _ ____ _ ____
 72
65
 73
4
 40
0.6
 49
0.375
 74
0
 49
-0.075
 74
0
 49
0.075
 74
0
 49
-0.075
 74
0
  0
LTYPE
  5
1F6
100
AcDbSymbolTableRecord
100
AcDbLinetypeTableRecord
  2
HIDDEN
 70
64
  3
- - - - - - - - - - - - - - - - - - - -
 72
65
 73
2
 40
0.2
 49
0.1
 74
0
 49
-0.1
 74
0
  0
LTYPE
  5
1F7
100
AcDbSymbolTableRecord
100
AcDbLinetypeTableRecord
  2
PHANTOM
 70
64
  3
_____ _ _ _____ _ _ _____ _ _ _____
 72
65
 73
6
 40
0.8
 49
0.45
 74
0
 49
-0.05
 74
0
 49
0.1
 74
0
 49
-0.05
 74
0
 49
0.1
 74
0
 49
-0.05
 74
0
  0
LTYPE
  5
1F8
100
AcDbSymbolTableRecord
100
AcDbLinetypeTableRecord
  2
DOT
 70
64
  3
. . . . . . . . . . . . . . . . . . . .
 72
65
 73
2
 40
0.2
 49
0.1
 74
0
 49
-0.1
 74
0
  0
LTYPE
  5
1F9
100
AcDbSymbolTableRecord
100
AcDbLinetypeTableRecord
  2
DASHED
 70
64
  3
- - - - - - - - - - - - - - - - - - - -
 72
65
 73
2
 40
0.2
 49
0.1
 74
0
 49
-0.1
 74
0
  0
ENDTAB
  0
TABLE
  2
LAYER
  5
2
100
AcDbSymbolTable
 70
36
  0
LAYER
  5
10
100
AcDbSymbolTableRecord
100
AcDbLayerTableRecord
  2
0
 70
0
 62
7
  6
CONTINUOUS
370
-3
390
F
  0
LAYER
  5
1FA
100
AcDbSymbolTableRecord
100
AcDbLayerTableRecord
  2
DEFAULT_1
 70
0
 62
7
  6
CENTER
370
-3
390
F
  0
LAYER
  5
1FB
100
AcDbSymbolTableRecord
100
AcDbLayerTableRecord
  2
DEFAULT_2
 70
0
 62
7
  6
HIDDEN
370
-3
390
F
  0
LAYER
  5
1FC
100
AcDbSymbolTableRecord
100
AcDbLayerTableRecord
  2
DEFAULT_3
 70
0
 62
7
  6
PHANTOM
370
-3
390
F
  0
LAYER
  5
1FD
100
AcDbSymbolTableRecord
100
AcDbLayerTableRecord
  2
ASSI
 70
0
 62
7
  6
CONTINUOUS
370
-3
390
F
  0
LAYER
  5
1FE
100
AcDbSymbolTableRecord
100
AcDbLayerTableRecord
  2
COLOR5
 70
0
 62
7
  6
CONTINUOUS
370
-3
390
F
  0
LAYER
  5
1FF
100
AcDbSymbolTableRecord
100
AcDbLayerTableRecord
  2
COORDINATE
 70
0
 62
7
  6
CONTINUOUS
370
-3
390
F
  0
LAYER
  5
200
100
AcDbSymbolTableRecord
100
AcDbLayerTableRecord
  2
COORD_ORIGINE
 70
0
 62
7
  6
CONTINUOUS
370
-3
390
F
  0
LAYER
  5
201
100
AcDbSymbolTableRecord
100
AcDbLayerTableRecord
  2
COPY_GEOMETRY
 70
0
 62
7
  6
CONTINUOUS
370
-3
390
F
  0
LAYER
  5
202
100
AcDbSymbolTableRecord
100
AcDbLayerTableRecord
  2
CURVE
 70
0
 62
7
  6
CONTINUOUS
370
-3
390
F
  0
LAYER
  5
203
100
AcDbSymbolTableRecord
100
AcDbLayerTableRecord
  2
DRAFT
 70
0
 62
7
  6
CONTINUOUS
370
-3
390
F
  0
LAYER
  5
204
100
AcDbSymbolTableRecord
100
AcDbLayerTableRecord
  2
IGES_SCRITTE
 70
0
 62
7
  6
CONTINUOUS
370
-3
390
F
  0
LAYER
  5
205
100
AcDbSymbolTableRecord
100
AcDbLayerTableRecord
  2
IMPORT_IGES
 70
0
 62
7
  6
CONTINUOUS
370
-3
390
F
  0
LAYER
  5
206
100
AcDbSymbolTableRecord
100
AcDbLayerTableRecord
  2
IMPORT_SUPERF
 70
0
 62
7
  6
CONTINUOUS
370
-3
390
F
  0
LAYER
  5
207
100
AcDbSymbolTableRecord
100
AcDbLayerTableRecord
  2
NOTE
 70
0
 62
7
  6
CONTINUOUS
370
-3
390
F
  0
LAYER
  5
208
100
AcDbSymbolTableRecord
100
AcDbLayerTableRecord
  2
PIANI
 70
0
 62
7
  6
CONTINUOUS
370
-3
390
F
  0
LAYER
  5
209
100
AcDbSymbolTableRecord
100
AcDbLayerTableRecord
  2
PIANI_ORIGINE
 70
0
 62
7
  6
CONTINUOUS
370
-3
390
F
  0
LAYER
  5
20A
100
AcDbSymbolTableRecord
100
AcDbLayerTableRecord
  2
PUNTI
 70
0
 62
7
  6
CONTINUOUS
370
-3
390
F
  0
LAYER
  5
20B
100
AcDbSymbolTableRecord
100
AcDbLayerTableRecord
  2
RACCORDO
 70
0
 62
7
  6
CONTINUOUS
370
-3
390
F
  0
LAYER
  5
20C
100
AcDbSymbolTableRecord
100
AcDbLayerTableRecord
  2
SKELETON
 70
0
 62
7
  6
CONTINUOUS
370
-3
390
F
  0
LAYER
  5
20D
100
AcDbSymbolTableRecord
100
AcDbLayerTableRecord
  2
SMUSSO
 70
0
 62
7
  6
CONTINUOUS
370
-3
390
F
  0
LAYER
  5
20E
100
AcDbSymbolTableRecord
100
AcDbLayerTableRecord
  2
SNAPLINE
 70
0
 62
7
  6
CONTINUOUS
370
-3
390
F
  0
LAYER
  5
20F
100
AcDbSymbolTableRecord
100
AcDbLayerTableRecord
  2
SOLIDO_BASE
 70
0
 62
7
  6
CONTINUOUS
370
-3
390
F
  0
LAYER
  5
210
100
AcDbSymbolTableRecord
100
AcDbLayerTableRecord
  2
SUPERFICI
 70
0
 62
7
  6
CONTINUOUS
370
-3
390
F
  0
LAYER
  5
211
100
AcDbSymbolTableRecord
100
AcDbLayerTableRecord
  2
TRASH
 70
0
 62
7
  6
CONTINUOUS
370
-3
390
F
  0
LAYER
  5
212
100
AcDbSymbolTableRecord
100
AcDbLayerTableRecord
  2
XSEC_DATUMS
 70
0
 62
7
  6
CONTINUOUS
370
-3
390
F
  0
ENDTAB
  0
TABLE
  2
STYLE
  5
3
100
AcDbSymbolTable
 70
1
  0
STYLE
  5
11
100
AcDbSymbolTableRecord
100
AcDbTextStyleTableRecord
  2
STANDARD
 70
0
 40
0.0
 41
0.8
 50
0.0
 71
0
 42
0.2
  3
txt
  4

  0
STYLE
  5
213
100
AcDbSymbolTableRecord
100
AcDbTextStyleTableRecord
  2
TEXTSTYLE_1
 70
0
 40
0.0
 41
0.8
 50
0.0
 71
0
 42
0.2
  3
gdt
  4

  0
ENDTAB
  0
TABLE
  2
VIEW
  5
6
100
AcDbSymbolTable
 70
0
  0
ENDTAB
  0
TABLE
  2
UCS
  5
7
100
AcDbSymbolTable
 70
0
  0
ENDTAB
  0
TABLE
  2
APPID
  5
9
100
AcDbSymbolTable
 70
1
  0
APPID
  5
214
100
AcDbSymbolTableRecord
100
AcDbRegAppTableRecord
  2
ACAD
 70
0
  0
ENDTAB
  0
TABLE
  2
BLOCK_RECORD
  5
1
100
AcDbSymbolTable
 70
0
  0
BLOCK_RECORD
  5
215
100
AcDbSymbolTableRecord
100
AcDbBlockTableRecord
  2
*Model_Space
  0
BLOCK_RECORD
  5
216
100
AcDbSymbolTableRecord
100
AcDbBlockTableRecord
  2
*Paper_Space
  0
BLOCK_RECORD
  5
217
100
AcDbSymbolTableRecord
100
AcDbBlockTableRecord
  2
_FILLED
  0
BLOCK_RECORD
  5
218
100
AcDbSymbolTableRecord
100
AcDbBlockTableRecord
  2
*D0
  0
BLOCK_RECORD
  5
219
100
AcDbSymbolTableRecord
100
AcDbBlockTableRecord
  2
*D1
  0
BLOCK_RECORD
  5
21A
100
AcDbSymbolTableRecord
100
AcDbBlockTableRecord
  2
*D2
  0
ENDTAB
  0
TABLE
  2
DIMSTYLE
  5
A
100
AcDbSymbolTable
 70
1
100
AcDbDimStyleTable
 71
0
  0
DIMSTYLE
105
21B
100
AcDbSymbolTableRecord
100
AcDbDimStyleTableRecord
  2
STANDARD
 70
0
  3

  4

 40
1.0
 41
3.0
 42
0.0625
 43
0.38
 44
0.18
 45
0.0
 46
0.0
 47
0.01
 48
0.01
140
3.0
141
0.09
142
0.0
143
25.4
144
1.0
145
0.0
146
1.0
147
0.09
 71
1.0
 72
0.0
 73
0
 74
0
 75
0
 76
0
 77
1
 78
8
170
0
171
2
172
0
173
0
174
0
175
0
176
0
177
0
178
0
270
2
271
2
272
2
273
2
274
2
275
0
280
0
281
0
282
0
283
1
284
8
285
0
286
0
287
3
288
0
340
11
341
217
342
217
343
217
344
217
  0
DIMSTYLE
105
21C
100
AcDbSymbolTableRecord
100
AcDbDimStyleTableRecord
  2
DIMSTYLE_1
 70
0
  3

  4

 40
1.0
 41
3.0
 42
0.0625
 43
0.38
 44
0.18
 45
0.0
 46
0.0
 47
0.0
 48
0.0
140
3.0
141
0.09
142
0.0
143
25.4
144
1.0
145
0.0
146
1.0
147
0.09
 71
0.0
 72
0.0
 73
0
 74
0
 75
0
 76
0
 77
1
 78
8
170
0
171
2
172
0
173
0
174
0
175
0
176
0
177
0
178
0
270
2
271
2
272
2
273
2
274
2
275
0
280
0
281
0
282
0
283
1
284
8
285
0
286
0
287
3
288
0
340
11
341
217
342
217
343
217
344
217
  0
ENDTAB
  0
ENDSEC
  0
SECTION
  2
BLOCKS
  0
BLOCK
  5
20
100
AcDbEntity
  8
0
100
AcDbBlockBegin
  2
*Model_Space
 70
0
 10
0.0
 20
0.0
 30
0.0
  3
*Model_Space
  1

  0
ENDBLK
  5
21
100
AcDbEntity
  8
0
100
AcDbBlockEnd
  0
BLOCK
  5
1C
100
AcDbEntity
  8
0
100
AcDbBlockBegin
  2
*Paper_Space
 70
0
 10
0.0
 20
0.0
 30
0.0
  3
*Paper_Space
  1

  0
ENDBLK
  5
1D
100
AcDbEntity
  8
0
100
AcDbBlockEnd
  0
BLOCK
  5
21D
100
AcDbEntity
  8
0
100
AcDbBlockBegin
  2
_FILLED
 70
64
 10
0.0
 20
0.0
  3
_FILLED
  1

  0
SOLID
  5
21E
100
AcDbEntity
  8
0
  6
BYBLOCK
 62
0
100
AcDbTrace
 10
0.0
 20
0.0
 11
-1.0
 21
0.3166666667
 12
-1.0
 22
-0.3166666667
 13
-1.0
 23
-0.3166666667
  0
ENDBLK
  5
21F
100
AcDbEntity
  8
0
  6
BYBLOCK
 62
0
100
AcDbBlockEnd
  0
BLOCK
  5
220
100
AcDbEntity
  8
0
100
AcDbBlockBegin
 62
7
  6
CONTINUOUS
  2
*D0
 70
65
 10
0.0
 20
0.0
  3
*D0
  1

  0
MTEXT
  5
221
100
AcDbEntity
  8
0
100
AcDbMText
 62
7
  6
CONTINUOUS
  7
STANDARD
 71
2
 72
1
 10
-84.0781944444
 20
58.0400053666
 30
0.0
 11
1.0
 21
0.0
 31
0.0
 44
0.9
  1
54,5
 40
3.0
 41
8.3571428571
  0
LINE
  5
222
100
AcDbEntity
  8
0
100
AcDbLine
 62
7
  6
CONTINUOUS
 10
-111.3281944444
 20
17.9100053666
 11
-111.3281944444
 21
55.7900053666
  0
LINE
  5
223
100
AcDbEntity
  8
0
100
AcDbLine
 62
7
  6
CONTINUOUS
 10
-56.8281944444
 20
22.2100053666
 11
-56.8281944444
 21
55.7900053666
  0
LINE
  5
224
100
AcDbEntity
  8
0
100
AcDbLine
 62
7
  6
CONTINUOUS
 10
-111.3281944444
 20
54.2900053666
 11
-84.0781944444
 21
54.2900053666
  0
LINE
  5
225
100
AcDbEntity
  8
0
100
AcDbLine
 62
7
  6
CONTINUOUS
 10
-56.8281944444
 20
54.2900053666
 11
-84.0781944444
 21
54.2900053666
  0
INSERT
  5
226
100
AcDbEntity
  8
0
100
AcDbBlockReference
 62
7
  6
CONTINUOUS
  2
_FILLED
 10
-111.3281944444
 20
54.2900053666
 41
3.0
 42
3.0
 43
3.0
 50
180.0
  0
INSERT
  5
227
100
AcDbEntity
  8
0
100
AcDbBlockReference
 62
7
  6
CONTINUOUS
  2
_FILLED
 10
-56.8281944444
 20
54.2900053666
 41
3.0
 42
3.0
 43
3.0
  0
ENDBLK
  5
228
100
AcDbEntity
  8
0
  6
BYBLOCK
 62
0
100
AcDbBlockEnd
  0
BLOCK
  5
229
100
AcDbEntity
  8
0
100
AcDbBlockBegin
 62
7
  6
CONTINUOUS
  2
*D1
 70
65
 10
0.0
 20
0.0
  3
*D1
  1

  0
MTEXT
  5
22A
100
AcDbEntity
  8
0
100
AcDbMText
 62
7
  6
CONTINUOUS
  7
STANDARD
 71
2
 72
1
 10
0.0
 20
58.0400053666
 30
0.0
 11
1.0
 21
0.0
 31
0.0
 44
0.9
  1
68
 40
3.0
 41
4.7142857143
  0
LINE
  5
22B
100
AcDbEntity
  8
0
100
AcDbLine
 62
7
  6
CONTINUOUS
 10
34.0
 20
31.2100053666
 11
34.0
 21
55.7900053666
  0
LINE
  5
22C
100
AcDbEntity
  8
0
100
AcDbLine
 62
7
  6
CONTINUOUS
 10
-34.0
 20
31.2100053666
 11
-34.0
 21
55.7900053666
  0
LINE
  5
22D
100
AcDbEntity
  8
0
100
AcDbLine
 62
7
  6
CONTINUOUS
 10
34.0
 20
54.2900053666
 11
0.0
 21
54.2900053666
  0
LINE
  5
22E
100
AcDbEntity
  8
0
100
AcDbLine
 62
7
  6
CONTINUOUS
 10
-34.0
 20
54.2900053666
 11
0.0
 21
54.2900053666
  0
INSERT
  5
22F
100
AcDbEntity
  8
0
100
AcDbBlockReference
 62
7
  6
CONTINUOUS
  2
_FILLED
 10
34.0
 20
54.2900053666
 41
3.0
 42
3.0
 43
3.0
  0
INSERT
  5
230
100
AcDbEntity
  8
0
100
AcDbBlockReference
 62
7
  6
CONTINUOUS
  2
_FILLED
 10
-34.0
 20
54.2900053666
 41
3.0
 42
3.0
 43
3.0
 50
180.0
  0
ENDBLK
  5
231
100
AcDbEntity
  8
0
  6
BYBLOCK
 62
0
100
AcDbBlockEnd
  0
BLOCK
  5
232
100
AcDbEntity
  8
0
100
AcDbBlockBegin
 62
7
  6
CONTINUOUS
  2
*D2
 70
65
 10
0.0
 20
0.0
  3
*D2
  1

  0
MTEXT
  5
233
100
AcDbEntity
  8
0
100
AcDbMText
 62
7
  6
CONTINUOUS
  7
STANDARD
 71
2
 72
1
 10
38.2500081406
 20
-4.7899946334
 30
0.0
 11
0.0
 21
1.0
 31
0.0
 44
0.9
  1
83
 40
3.0
 41
4.5
  0
LINE
  5
234
100
AcDbEntity
  8
0
100
AcDbLine
 62
7
  6
CONTINUOUS
 10
28.5
 20
36.7100053666
 11
43.5000081406
 21
36.7100053666
  0
LINE
  5
235
100
AcDbEntity
  8
0
100
AcDbLine
 62
7
  6
CONTINUOUS
 10
28.5
 20
-46.2899946334
 11
43.5000081406
 21
-46.2899946334
  0
LINE
  5
236
100
AcDbEntity
  8
0
100
AcDbLine
 62
7
  6
CONTINUOUS
 10
42.0000081406
 20
36.7100053666
 11
42.0000081406
 21
-4.7899946334
  0
LINE
  5
237
100
AcDbEntity
  8
0
100
AcDbLine
 62
7
  6
CONTINUOUS
 10
42.0000081406
 20
-46.2899946334
 11
42.0000081406
 21
-4.7899946334
  0
INSERT
  5
238
100
AcDbEntity
  8
0
100
AcDbBlockReference
 62
7
  6
CONTINUOUS
  2
_FILLED
 10
42.0000081406
 20
36.7100053666
 41
3.0
 42
3.0
 43
3.0
 50
90.0
  0
INSERT
  5
239
100
AcDbEntity
  8
0
100
AcDbBlockReference
 62
7
  6
CONTINUOUS
  2
_FILLED
 10
42.0000081406
 20
-46.2899946334
 41
3.0
 42
3.0
 43
3.0
 50
270.0
  0
ENDBLK
  5
23A
100
AcDbEntity
  8
0
  6
BYBLOCK
 62
0
100
AcDbBlockEnd
  0
ENDSEC
  0
SECTION
  2
ENTITIES
  0
DIMENSION
  5
23B
100
AcDbEntity
  8
0
100
AcDbDimension
 62
7
  6
CONTINUOUS
  2
*D0
 10
-56.8281944444
 20
54.2900053666
 11
-88.256765873
 21
56.5400053666
 70
160
 71
2
 42
54.5
  3
DIMSTYLE_1
100
AcDbAlignedDimension
 13
-111.3281944444
 23
17.9100053666
 14
-56.8281944444
 24
22.2100053666
100
AcDbRotatedDimension
  0
DIMENSION
  5
23C
100
AcDbEntity
  8
0
100
AcDbDimension
 62
7
  6
CONTINUOUS
  2
*D1
 10
-34.0
 20
54.2900053666
 11
-2.3571428571
 21
56.5400053666
 70
160
 71
2
 42
68.0
  3
DIMSTYLE_1
100
AcDbAlignedDimension
 13
34.0
 23
31.2100053666
 14
-34.0
 24
31.2100053666
 50
180.0
100
AcDbRotatedDimension
  0
DIMENSION
  5
23D
100
AcDbEntity
  8
0
100
AcDbDimension
 62
7
  6
CONTINUOUS
  2
*D2
 10
42.0000081406
 20
-46.2899946334
 11
40.7581737769
 21
-6.8014871265
 70
160
 71
2
 42
83.0
  3
DIMSTYLE_1
100
AcDbAlignedDimension
 13
28.5
 23
36.7100053666
 14
28.5
 24
-46.2899946334
 50
270.0
100
AcDbRotatedDimension
  0
LINE
  5
23E
100
AcDbEntity
  8
SUPERFICI
100
AcDbLine
 62
7
  6
CONTINUOUS
 10
-28.0095873347
 20
-46.2900021666
 11
28.0095552235
 21
-46.2900053666
  0
LINE
  5
23F
100
AcDbEntity
  8
DRAFT
100
AcDbLine
 62
7
  6
CONTINUOUS
 10
28.0
 20
-46.2899946334
 11
-28.0
 21
-46.2899946334
  0
LINE
  5
240
100
AcDbEntity
  8
0
100
AcDbLine
 62
7
  6
CONTINUOUS
 10
-27.6549273753
 20
-41.4615996144
 11
-27.7611776175
 21
-41.4121009271
  0
LINE
  5
241
100
AcDbEntity
  8
0
100
AcDbLine
 62
7
  6
CONTINUOUS
 10
-28.3450726247
 20
-39.1183896524
 11
-28.2388223825
 21
-39.1678883397
  0
LINE
  5
242
100
AcDbEntity
  8
0
100
AcDbLine
 62
7
  6
CONTINUOUS
 10
-25.1678446783
 20
-40.8899946334
 11
-27.5461926334
 21
-40.8899946334
  0
LINE
  5
243
100
AcDbEntity
  8
0
100
AcDbLine
 62
7
  6
CONTINUOUS
 10
-28.4538073666
 20
-40.8899946334
 11
-30.8321553217
 21
-40.8899946334
  0
LINE
  5
244
100
AcDbEntity
  8
RACCORDO
100
AcDbLine
 62
253
  6
CONTINUOUS
 10
34.0000081406
 20
-40.2899946334
 11
33.8006996035
 21
-40.2899946022
  0
LINE
  5
245
100
AcDbEntity
  8
RACCORDO
100
AcDbLine
 62
253
  6
CONTINUOUS
 10
-33.8006996035
 20
-40.2899946022
 11
-34.0000081406
 21
-40.2899946334
  0
LINE
  5
246
100
AcDbEntity
  8
0
100
AcDbLine
 62
7
  6
CONTINUOUS
 10
-30.8321553217
 20
-39.6899946334
 11
-28.4538073666
 21
-39.6899946334
  0
LINE
  5
247
100
AcDbEntity
  8
0
100
AcDbLine
 62
7
  6
CONTINUOUS
 10
-27.5461926334
 20
-39.6899946334
 11
-25.1678446783
 21
-39.6899946334
  0
LINE
  5
248
100
AcDbEntity
  8
SUPERFICI
100
AcDbLine
 62
7
  6
CONTINUOUS
 10
-33.99999988
 20
30.7100715651
 11
-34.0000081406
 21
-40.2899904433
  0
LINE
  5
249
100
AcDbEntity
  8
DRAFT
100
AcDbLine
 62
7
  6
CONTINUOUS
 10
-34.0
 20
-40.2899946334
 11
-34.0
 21
30.7100053666
  0
LINE
  5
24A
100
AcDbEntity
  8
0
100
AcDbLine
 62
7
  6
CONTINUOUS
 10
13.0
 20
-34.2899946334
 11
12.346695
 21
-34.2900016334
  0
LINE
  5
24B
100
AcDbEntity
  8
0
100
AcDbLine
 62
7
  6
CONTINUOUS
 10
8.430144
 20
-34.2900016334
 11
7.850122
 21
-34.2900096334
  0
LINE
  5
24C
100
AcDbEntity
  8
0
100
AcDbLine
 62
7
  6
CONTINUOUS
 10
6.335039
 20
-34.2900016334
 11
5.755031
 21
-34.2900096334
  0
LINE
  5
24D
100
AcDbEntity
  8
0
100
AcDbLine
 62
7
  6
CONTINUOUS
 10
4.046627
 20
-34.2900096334
 11
3.466605
 21
-34.2900166334
  0
LINE
  5
24E
100
AcDbEntity
  8
0
100
AcDbLine
 62
7
  6
CONTINUOUS
 10
2.148794
 20
-34.2900096334
 11
1.568751
 21
-34.2900166334
  0
LINE
  5
24F
100
AcDbEntity
  8
0
100
AcDbLine
 62
7
  6
CONTINUOUS
 10
7.463443
 20
-34.2900096334
 11
6.883421
 21
-34.2900096334
  0
LINE
  5
250
100
AcDbEntity
  8
0
100
AcDbLine
 62
7
  6
CONTINUOUS
 10
5.206656
 20
-34.2900096334
 11
4.626634
 21
-34.2900096334
  0
LINE
  5
251
100
AcDbEntity
  8
0
100
AcDbLine
 62
7
  6
CONTINUOUS
 10
11.259144
 20
-34.2900016334
 11
10.679115
 21
-34.2900016334
  0
LINE
  5
252
100
AcDbEntity
  8
0
100
AcDbLine
 62
7
  6
CONTINUOUS
 10
10.292437
 20
-34.2900096334
 11
9.712408
 21
-34.2900016334
  0
LINE
  5
253
100
AcDbEntity
  8
0
100
AcDbLine
 62
7
  6
CONTINUOUS
 10
9.529302
 20
-33.7196736334
 11
8.613257
 21
-33.7196736334
  0
LINE
  5
254
100
AcDbEntity
  8
0
100
AcDbLine
 62
7
  6
CONTINUOUS
 10
8.790179
 20
-33.1686516334
 11
9.352373
 21
-33.1686516334
  0
LINE
  5
255
100
AcDbEntity
  8
0
100
AcDbLine
 62
7
  6
CONTINUOUS
 10
11.765441
 20
-33.1686516334
 11
11.25921
 21
-33.1686446334
  0
LINE
  5
256
100
AcDbEntity
  8
0
100
AcDbLine
 62
7
  6
CONTINUOUS
 10
11.251148
 20
-32.6321226334
 11
11.956824
 21
-32.6321226334
  0
LINE
  5
257
100
AcDbEntity
  8
0
100
AcDbLine
 62
7
  6
CONTINUOUS
 10
11.956824
 20
-31.9263926334
 11
11.25114
 21
-31.9263926334
  0
LINE
  5
258
100
AcDbEntity
  8
0
100
AcDbLine
 62
7
  6
CONTINUOUS
 10
0.637619
 20
-31.3898786334
 11
1.217648
 21
-31.3898786334
  0
LINE
  5
259
100
AcDbEntity
  8
0
100
AcDbLine
 62
7
  6
CONTINUOUS
 10
2.499905
 20
-31.3898786334
 11
3.079934
 21
-31.3898786334
  0
LINE
  5
25A
100
AcDbEntity
  8
0
100
AcDbLine
 62
7
  6
CONTINUOUS
 10
3.466612
 20
-31.3898786334
 11
4.046634
 21
-31.3898786334
  0
LINE
  5
25B
100
AcDbEntity
  8
0
100
AcDbLine
 62
7
  6
CONTINUOUS
 10
4.626634
 20
-31.3898786334
 11
5.503471
 21
-31.3898786334
  0
LINE
  5
25C
100
AcDbEntity
  8
0
100
AcDbLine
 62
7
  6
CONTINUOUS
 10
6.586606
 20
-31.3898786334
 11
7.463443
 21
-31.3898786334
  0
LINE
  5
25D
100
AcDbEntity
  8
0
100
AcDbLine
 62
7
  6
CONTINUOUS
 10
8.781247
 20
-31.3898716334
 11
9.361297
 21
-31.3898716334
  0
LINE
  5
25E
100
AcDbEntity
  8
0
100
AcDbLine
 62
7
  6
CONTINUOUS
 10
10.679115
 20
-31.3898716334
 11
12.03733
 21
-31.3898716334
  0
LINE
  5
25F
100
AcDbEntity
  8
RACCORDO
100
AcDbLine
 62
253
  6
CONTINUOUS
 10
-28.0000098934
 20
36.5106515571
 11
-28.00001
 21
36.7100129004
  0
LINE
  5
260
100
AcDbEntity
  8
RACCORDO
100
AcDbLine
 62
253
  6
CONTINUOUS
 10
-28.0000098904
 20
-46.0906408249
 11
-28.00001
 21
-46.2900021672
  0
LINE
  5
261
100
AcDbEntity
  8
RACCORDO
100
AcDbLine
 62
253
  6
CONTINUOUS
 10
14.6428737738
 20
-26.9884495275
 11
12.8498951593
 21
-26.9899946334
  0
LINE
  5
262
100
AcDbEntity
  8
RACCORDO
100
AcDbLine
 62
253
  6
CONTINUOUS
 10
-10.95
 20
-28.8905067957
 11
-0.0000000001
 21
-28.8900115343
  0
LINE
  5
263
100
AcDbEntity
  8
RACCORDO
100
AcDbLine
 62
253
  6
CONTINUOUS
 10
-0.0000000001
 20
-28.8900115343
 11
10.95
 21
-28.8905067957
  0
LINE
  5
264
100
AcDbEntity
  8
0
100
AcDbLine
 62
7
  6
CONTINUOUS
 10
10.95
 20
-27.2899946334
 11
-10.95
 21
-27.2899946334
  0
LINE
  5
265
100
AcDbEntity
  8
RACCORDO
100
AcDbLine
 62
7
  6
CONTINUOUS
 10
-2.9458892987
 20
-27.1899946334
 11
2.9458892987
 21
-27.1899946334
  0
LINE
  5
266
100
AcDbEntity
  8
RACCORDO
100
AcDbLine
 62
253
  6
CONTINUOUS
 10
-12.8498951591
 20
-26.9899946334
 11
-11.25
 21
-26.9899946334
  0
LINE
  5
267
100
AcDbEntity
  8
RACCORDO
100
AcDbLine
 62
253
  6
CONTINUOUS
 10
12.8498951591
 20
-26.9899946334
 11
11.25
 21
-26.9899946334
  0
LINE
  5
268
100
AcDbEntity
  8
RACCORDO
100
AcDbLine
 62
253
  6
CONTINUOUS
 10
-14.6428737741
 20
-26.9884495276
 11
-12.8498950044
 21
-26.9899946334
  0
LINE
  5
269
100
AcDbEntity
  8
0
100
AcDbLine
 62
7
  6
CONTINUOUS
 10
28.2388223726
 20
31.8321116536
 11
28.3450726739
 21
31.8816102556
  0
LINE
  5
26A
100
AcDbEntity
  8
0
100
AcDbLine
 62
7
  6
CONTINUOUS
 10
27.7611776274
 20
29.5878990796
 11
27.6549273261
 21
29.5384004777
  0
LINE
  5
26B
100
AcDbEntity
  8
RACCORDO
100
AcDbLine
 62
253
  6
CONTINUOUS
 10
-10.9476598516
 20
-30.673605441
 11
-10.95
 21
-28.8905067827
  0
LINE
  5
26C
100
AcDbEntity
  8
0
100
AcDbLine
 62
7
  6
CONTINUOUS
 10
-14.0
 20
37.5126130187
 11
-14.0
 21
36.7100137038
  0
LINE
  5
26D
100
AcDbEntity
  8
RACCORDO
100
AcDbLine
 62
7
  6
CONTINUOUS
 10
-14.0
 20
36.7100137038
 11
-14.0
 21
37.5126130187
  0
LINE
  5
26E
100
AcDbEntity
  8
RACCORDO
100
AcDbLine
 62
253
  6
CONTINUOUS
 10
-12.8498951591
 20
17.4100053666
 11
-12.8498951591
 21
-26.9899946334
  0
LINE
  5
26F
100
AcDbEntity
  8
0
100
AcDbLine
 62
7
  6
CONTINUOUS
 10
-11.85
 20
39.9167292084
 11
-11.85
 21
39.4900053666
  0
LINE
  5
270
100
AcDbEntity
  8
RACCORDO
100
AcDbLine
 62
7
  6
CONTINUOUS
 10
-11.85
 20
39.4900053666
 11
-11.85
 21
39.9167292084
  0
LINE
  5
271
100
AcDbEntity
  8
0
100
AcDbLine
 62
7
  6
CONTINUOUS
 10
-11.35
 20
39.4900053666
 11
-11.35
 21
38.9900053666
  0
LINE
  5
272
100
AcDbEntity
  8
0
100
AcDbLine
 62
7
  6
CONTINUOUS
 10
-11.25
 20
-26.9899946334
 11
-11.25
 21
17.4100053666
  0
LINE
  5
273
100
AcDbEntity
  8
RACCORDO
100
AcDbLine
 62
253
  6
CONTINUOUS
 10
-10.9476598523
 20
21.0936161791
 11
-10.95
 21
19.3105174153
  0
LINE
  5
274
100
AcDbEntity
  8
ASSI
100
AcDbLine
 62
7
  6
CONTINUOUS
 10
-6.843988
 20
17.5848993666
 11
-6.8038204469
 21
17.7100053666
  0
LINE
  5
275
100
AcDbEntity
  8
RACCORDO
100
AcDbLine
 62
253
  6
CONTINUOUS
 10
-10.95
 20
19.310517529
 11
-10.95
 21
17.7100053666
  0
LINE
  5
276
100
AcDbEntity
  8
RACCORDO
100
AcDbLine
 62
253
  6
CONTINUOUS
 10
-10.95
 20
-28.8905067957
 11
-10.95
 21
-27.2899946334
  0
LINE
  5
277
100
AcDbEntity
  8
0
100
AcDbLine
 62
7
  6
CONTINUOUS
 10
-10.1
 20
41.7569215872
 11
-10.1
 21
41.2900053666
  0
LINE
  5
278
100
AcDbEntity
  8
RACCORDO
100
AcDbLine
 62
7
  6
CONTINUOUS
 10
-10.1
 20
41.2900053666
 11
-10.1
 21
41.7569215872
  0
LINE
  5
279
100
AcDbEntity
  8
0
100
AcDbLine
 62
7
  6
CONTINUOUS
 10
-9.45
 20
41.2900053666
 11
-9.45
 21
40.7900053666
  0
LINE
  5
27A
100
AcDbEntity
  8
0
100
AcDbLine
 62
7
  6
CONTINUOUS
 10
-8.35
 20
43.530126668
 11
-8.35
 21
43.0900053666
  0
LINE
  5
27B
100
AcDbEntity
  8
RACCORDO
100
AcDbLine
 62
7
  6
CONTINUOUS
 10
-8.35
 20
43.0900053666
 11
-8.35
 21
43.530126668
  0
LINE
  5
27C
100
AcDbEntity
  8
0
100
AcDbLine
 62
7
  6
CONTINUOUS
 10
-7.85
 20
43.0900053666
 11
-7.85
 21
42.5900053666
  0
LINE
  5
27D
100
AcDbEntity
  8
0
100
AcDbLine
 62
7
  6
CONTINUOUS
 10
1.568751
 20
-34.2900166334
 11
0.637619
 21
-31.3898786334
  0
LINE
  5
27E
100
AcDbEntity
  8
0
100
AcDbLine
 62
7
  6
CONTINUOUS
 10
1.217648
 20
-31.3898786334
 11
1.85878
 21
-33.3867746334
  0
LINE
  5
27F
100
AcDbEntity
  8
ASSI
100
AcDbLine
 62
7
  6
CONTINUOUS
 10
-4.9127127056
 20
17.7100053666
 11
-4.912713
 21
17.5848883666
  0
LINE
  5
280
100
AcDbEntity
  8
0
100
AcDbLine
 62
7
  6
CONTINUOUS
 10
-4.1
 20
45.2291647737
 11
-4.1
 21
44.8900053666
  0
LINE
  5
281
100
AcDbEntity
  8
RACCORDO
100
AcDbLine
 62
7
  6
CONTINUOUS
 10
-4.1
 20
44.8900053666
 11
-4.1
 21
45.2291647737
  0
LINE
  5
282
100
AcDbEntity
  8
ASSI
100
AcDbLine
 62
7
  6
CONTINUOUS
 10
-4.062681
 20
17.5848993666
 11
-4.0626807056
 21
17.7100053666
  0
LINE
  5
283
100
AcDbEntity
  8
0
100
AcDbLine
 62
7
  6
CONTINUOUS
 10
-3.6
 20
44.8900053666
 11
-3.6
 21
44.3900053666
  0
LINE
  5
284
100
AcDbEntity
  8
RACCORDO
100
AcDbLine
 62
7
  6
CONTINUOUS
 10
-3.0253098441
 20
17.6100053666
 11
-3.0235643377
 21
17.7100053666
  0
LINE
  5
285
100
AcDbEntity
  8
ASSI
100
AcDbLine
 62
7
  6
CONTINUOUS
 10
-0.708974
 20
17.5849093666
 11
-0.7017779249
 21
17.6100053666
  0
LINE
  5
286
100
AcDbEntity
  8
ASSI
100
AcDbLine
 62
7
  6
CONTINUOUS
 10
1.5194665923
 20
17.6100053666
 11
1.511406
 21
17.5848993666
  0
LINE
  5
287
100
AcDbEntity
  8
RACCORDO
100
AcDbLine
 62
253
  6
CONTINUOUS
 10
12.8499149539
 20
-4.7899938574
 11
33.798661025
 21
-4.7899949559
  0
LINE
  5
288
100
AcDbEntity
  8
RACCORDO
100
AcDbLine
 62
253
  6
CONTINUOUS
 10
-12.8499149539
 20
-4.789993858
 11
-33.798661025
 21
-4.7899949958
  0
LINE
  5
289
100
AcDbEntity
  8
0
100
AcDbLine
 62
7
  6
CONTINUOUS
 10
12.346695
 20
-34.2900016334
 11
11.765441
 21
-33.1686516334
  0
LINE
  5
28A
100
AcDbEntity
  8
0
100
AcDbLine
 62
7
  6
CONTINUOUS
 10
12.3825957907
 20
-33.0988973003
 11
13.0
 21
-34.2899946334
  0
LINE
  5
28B
100
AcDbEntity
  8
0
100
AcDbLine
 62
7
  6
CONTINUOUS
 10
5.755031
 20
-34.2900096334
 11
5.206656
 21
-32.3775676334
  0
LINE
  5
28C
100
AcDbEntity
  8
0
100
AcDbLine
 62
7
  6
CONTINUOUS
 10
5.503471
 20
-31.3898786334
 11
6.045039
 21
-33.2785466334
  0
LINE
  5
28D
100
AcDbEntity
  8
ASSI
100
AcDbLine
 62
7
  6
CONTINUOUS
 10
-3.212671
 20
17.7100053666
 11
-3.212671
 21
17.5848993666
  0
LINE
  5
28E
100
AcDbEntity
  8
ASSI
100
AcDbLine
 62
7
  6
CONTINUOUS
 10
-2.362639
 20
17.5848993666
 11
-2.362639
 21
17.6100053666
  0
LINE
  5
28F
100
AcDbEntity
  8
RACCORDO
100
AcDbLine
 62
253
  6
CONTINUOUS
 10
-0.0000001209
 20
-46.0886580597
 11
-0.0000000001
 21
-28.8900115343
  0
LINE
  5
290
100
AcDbEntity
  8
RACCORDO
100
AcDbLine
 62
253
  6
CONTINUOUS
 10
0.0000000001
 20
19.3100222675
 11
-0.0000001074
 21
36.5086688003
  0
LINE
  5
291
100
AcDbEntity
  8
ASSI
100
AcDbLine
 62
7
  6
CONTINUOUS
 10
0.0946899015
 20
17.6100053666
 11
0.09469
 21
17.5848993666
  0
LINE
  5
292
100
AcDbEntity
  8
RACCORDO
100
AcDbLine
 62
7
  6
CONTINUOUS
 10
-2.9476348052
 20
-27.2899946334
 11
-2.9458892987
 21
-27.1899946334
  0
LINE
  5
293
100
AcDbEntity
  8
ASSI
100
AcDbLine
 62
7
  6
CONTINUOUS
 10
2.361438
 20
17.5849093666
 11
2.3694954834
 21
17.6100053666
  0
LINE
  5
294
100
AcDbEntity
  8
ASSI
100
AcDbLine
 62
7
  6
CONTINUOUS
 10
-7.7342216571
 20
17.7100053666
 11
-7.694051
 21
17.5848883666
  0
LINE
  5
295
100
AcDbEntity
  8
0
100
AcDbLine
 62
7
  6
CONTINUOUS
 10
9.352373
 20
-33.1686516334
 11
9.071268
 21
-32.2931126334
  0
LINE
  5
296
100
AcDbEntity
  8
0
100
AcDbLine
 62
7
  6
CONTINUOUS
 10
9.712408
 20
-34.2900016334
 11
9.529302
 21
-33.7196736334
  0
LINE
  5
297
100
AcDbEntity
  8
0
100
AcDbLine
 62
7
  6
CONTINUOUS
 10
9.361297
 20
-31.3898716334
 11
10.292437
 21
-34.2900096334
  0
LINE
  5
298
100
AcDbEntity
  8
RACCORDO
100
AcDbLine
 62
7
  6
CONTINUOUS
 10
2.9458892987
 20
-27.1899946334
 11
2.9476348052
 21
-27.2899946334
  0
LINE
  5
299
100
AcDbEntity
  8
RACCORDO
100
AcDbLine
 62
7
  6
CONTINUOUS
 10
3.0235643377
 20
17.7100053666
 11
3.0253098441
 21
17.6100053666
  0
LINE
  5
29A
100
AcDbEntity
  8
ASSI
100
AcDbLine
 62
7
  6
CONTINUOUS
 10
0.944722
 20
17.5848993666
 11
0.944722
 21
17.6100053666
  0
LINE
  5
29B
100
AcDbEntity
  8
0
100
AcDbLine
 62
7
  6
CONTINUOUS
 10
3.466605
 20
-34.2900166334
 11
3.466612
 21
-31.3898786334
  0
LINE
  5
29C
100
AcDbEntity
  8
0
100
AcDbLine
 62
7
  6
CONTINUOUS
 10
3.6
 20
44.8900053666
 11
3.6
 21
44.3900053666
  0
LINE
  5
29D
100
AcDbEntity
  8
0
100
AcDbLine
 62
7
  6
CONTINUOUS
 10
4.046634
 20
-31.3898786334
 11
4.046627
 21
-34.2900096334
  0
LINE
  5
29E
100
AcDbEntity
  8
0
100
AcDbLine
 62
7
  6
CONTINUOUS
 10
4.1
 20
45.2291647737
 11
4.1
 21
44.8900053666
  0
LINE
  5
29F
100
AcDbEntity
  8
RACCORDO
100
AcDbLine
 62
7
  6
CONTINUOUS
 10
4.1
 20
44.8900053666
 11
4.1
 21
45.2291647737
  0
LINE
  5
2A0
100
AcDbEntity
  8
ASSI
100
AcDbLine
 62
7
  6
CONTINUOUS
 10
-1.5661839258
 20
17.6100053666
 11
-1.558985
 21
17.5848993666
  0
LINE
  5
2A1
100
AcDbEntity
  8
0
100
AcDbLine
 62
7
  6
CONTINUOUS
 10
4.626634
 20
-34.2900096334
 11
4.626634
 21
-31.3898786334
  0
LINE
  5
2A2
100
AcDbEntity
  8
0
100
AcDbLine
 62
7
  6
CONTINUOUS
 10
5.206656
 20
-32.3775676334
 11
5.206656
 21
-34.2900096334
  0
LINE
  5
2A3
100
AcDbEntity
  8
ASSI
100
AcDbLine
 62
7
  6
CONTINUOUS
 10
5.657345
 20
17.7100053666
 11
5.657345
 21
17.5849093666
  0
LINE
  5
2A4
100
AcDbEntity
  8
0
100
AcDbLine
 62
7
  6
CONTINUOUS
 10
6.883421
 20
-34.2900096334
 11
6.883414
 21
-32.3775676334
  0
LINE
  5
2A5
100
AcDbEntity
  8
0
100
AcDbLine
 62
7
  6
CONTINUOUS
 10
7.463443
 20
-31.3898786334
 11
7.463443
 21
-34.2900096334
  0
LINE
  5
2A6
100
AcDbEntity
  8
0
100
AcDbLine
 62
7
  6
CONTINUOUS
 10
7.85
 20
43.0900053666
 11
7.85
 21
42.5900053666
  0
LINE
  5
2A7
100
AcDbEntity
  8
ASSI
100
AcDbLine
 62
7
  6
CONTINUOUS
 10
6.507388
 20
17.5849093666
 11
6.5073952316
 21
17.7100053666
  0
LINE
  5
2A8
100
AcDbEntity
  8
RACCORDO
100
AcDbLine
 62
253
  6
CONTINUOUS
 10
10.9476598516
 20
21.0936161742
 11
10.95
 21
19.3105175159
  0
LINE
  5
2A9
100
AcDbEntity
  8
0
100
AcDbLine
 62
7
  6
CONTINUOUS
 10
8.35
 20
43.530126668
 11
8.35
 21
43.0900053666
  0
LINE
  5
2AA
100
AcDbEntity
  8
RACCORDO
100
AcDbLine
 62
7
  6
CONTINUOUS
 10
8.35
 20
43.0900053666
 11
8.35
 21
43.530126668
  0
LINE
  5
2AB
100
AcDbEntity
  8
0
100
AcDbLine
 62
7
  6
CONTINUOUS
 10
9.45
 20
41.2900053666
 11
9.45
 21
40.7900053666
  0
LINE
  5
2AC
100
AcDbEntity
  8
RACCORDO
100
AcDbLine
 62
7
  6
CONTINUOUS
 10
10.1
 20
41.2900053666
 11
10.1
 21
41.7569215872
  0
LINE
  5
2AD
100
AcDbEntity
  8
0
100
AcDbLine
 62
7
  6
CONTINUOUS
 10
10.679115
 20
-34.2900016334
 11
10.679115
 21
-31.3898716334
  0
LINE
  5
2AE
100
AcDbEntity
  8
RACCORDO
100
AcDbLine
 62
253
  6
CONTINUOUS
 10
10.95
 20
19.310517529
 11
10.95
 21
17.7100053666
  0
LINE
  5
2AF
100
AcDbEntity
  8
RACCORDO
100
AcDbLine
 62
253
  6
CONTINUOUS
 10
10.95
 20
-28.8905067957
 11
10.95
 21
-27.2899946334
  0
LINE
  5
2B0
100
AcDbEntity
  8
0
100
AcDbLine
 62
7
  6
CONTINUOUS
 10
11.25
 20
17.4100053666
 11
11.25
 21
-26.9899946334
  0
LINE
  5
2B1
100
AcDbEntity
  8
0
100
AcDbLine
 62
7
  6
CONTINUOUS
 10
11.25114
 20
-31.9263926334
 11
11.251148
 21
-32.6321226334
  0
LINE
  5
2B2
100
AcDbEntity
  8
0
100
AcDbLine
 62
7
  6
CONTINUOUS
 10
11.35
 20
39.4900053666
 11
11.35
 21
38.9900053666
  0
LINE
  5
2B3
100
AcDbEntity
  8
0
100
AcDbLine
 62
7
  6
CONTINUOUS
 10
11.85
 20
39.9167292084
 11
11.85
 21
39.4900053666
  0
LINE
  5
2B4
100
AcDbEntity
  8
RACCORDO
100
AcDbLine
 62
7
  6
CONTINUOUS
 10
11.85
 20
39.4900053666
 11
11.85
 21
39.9167292084
  0
LINE
  5
2B5
100
AcDbEntity
  8
0
100
AcDbLine
 62
7
  6
CONTINUOUS
 10
11.25921
 20
-33.1686446334
 11
11.259144
 21
-34.2900016334
  0
LINE
  5
2B6
100
AcDbEntity
  8
RACCORDO
100
AcDbLine
 62
253
  6
CONTINUOUS
 10
10.9476598523
 20
-30.6736054459
 11
10.95
 21
-28.8905066821
  0
LINE
  5
2B7
100
AcDbEntity
  8
0
100
AcDbLine
 62
7
  6
CONTINUOUS
 10
1.85878
 20
-33.3867746334
 11
2.499905
 21
-31.3898786334
  0
LINE
  5
2B8
100
AcDbEntity
  8
ASSI
100
AcDbLine
 62
7
  6
CONTINUOUS
 10
4.2004555189
 20
17.7100053666
 11
4.240618
 21
17.5849093666
  0
LINE
  5
2B9
100
AcDbEntity
  8
ASSI
100
AcDbLine
 62
7
  6
CONTINUOUS
 10
5.090661
 20
17.5848993666
 11
5.0504935509
 21
17.7100053666
  0
LINE
  5
2BA
100
AcDbEntity
  8
RACCORDO
100
AcDbLine
 62
253
  6
CONTINUOUS
 10
12.8498951591
 20
-26.9899946334
 11
12.8498951591
 21
17.4100053666
  0
LINE
  5
2BB
100
AcDbEntity
  8
0
100
AcDbLine
 62
7
  6
CONTINUOUS
 10
14.0
 20
37.5126130187
 11
14.0
 21
36.7100153105
  0
LINE
  5
2BC
100
AcDbEntity
  8
RACCORDO
100
AcDbLine
 62
7
  6
CONTINUOUS
 10
14.0
 20
36.7100153105
 11
14.0
 21
37.5126130187
  0
LINE
  5
2BD
100
AcDbEntity
  8
0
100
AcDbLine
 62
7
  6
CONTINUOUS
 10
6.045039
 20
-33.2785466334
 11
6.586606
 21
-31.3898786334
  0
LINE
  5
2BE
100
AcDbEntity
  8
0
100
AcDbLine
 62
7
  6
CONTINUOUS
 10
6.883414
 20
-32.3775676334
 11
6.335039
 21
-34.2900016334
  0
LINE
  5
2BF
100
AcDbEntity
  8
0
100
AcDbLine
 62
7
  6
CONTINUOUS
 10
3.079934
 20
-31.3898786334
 11
2.148794
 21
-34.2900096334
  0
LINE
  5
2C0
100
AcDbEntity
  8
ASSI
100
AcDbLine
 62
7
  6
CONTINUOUS
 10
8.0363682311
 20
17.7100053666
 11
8.101212
 21
17.5849093666
  0
LINE
  5
2C1
100
AcDbEntity
  8
0
100
AcDbLine
 62
7
  6
CONTINUOUS
 10
7.850122
 20
-34.2900096334
 11
8.781247
 21
-31.3898716334
  0
LINE
  5
2C2
100
AcDbEntity
  8
0
100
AcDbLine
 62
7
  6
CONTINUOUS
 10
9.071268
 20
-32.2931126334
 11
8.790179
 21
-33.1686516334
  0
LINE
  5
2C3
100
AcDbEntity
  8
0
100
AcDbLine
 62
7
  6
CONTINUOUS
 10
8.613257
 20
-33.7196736334
 11
8.430144
 21
-34.2900016334
  0
LINE
  5
2C4
100
AcDbEntity
  8
RACCORDO
100
AcDbLine
 62
253
  6
CONTINUOUS
 10
-14.6428737738
 20
17.4084602608
 11
-12.8498951593
 21
17.4100053666
  0
LINE
  5
2C5
100
AcDbEntity
  8
RACCORDO
100
AcDbLine
 62
253
  6
CONTINUOUS
 10
-12.8498951591
 20
17.4100053666
 11
-11.25
 21
17.4100053666
  0
LINE
  5
2C6
100
AcDbEntity
  8
RACCORDO
100
AcDbLine
 62
253
  6
CONTINUOUS
 10
12.8498951591
 20
17.4100053666
 11
11.25
 21
17.4100053666
  0
LINE
  5
2C7
100
AcDbEntity
  8
ASSI
100
AcDbLine
 62
7
  6
CONTINUOUS
 10
8.101212
 20
17.5849093666
 11
9.058641
 21
17.5849203666
  0
LINE
  5
2C8
100
AcDbEntity
  8
ASSI
100
AcDbLine
 62
7
  6
CONTINUOUS
 10
1.511406
 20
17.5848993666
 11
2.361438
 21
17.5849093666
  0
LINE
  5
2C9
100
AcDbEntity
  8
ASSI
100
AcDbLine
 62
7
  6
CONTINUOUS
 10
-3.212671
 20
17.5848993666
 11
-2.362639
 21
17.5848993666
  0
LINE
  5
2CA
100
AcDbEntity
  8
ASSI
100
AcDbLine
 62
7
  6
CONTINUOUS
 10
0.09469
 20
17.5848993666
 11
0.944722
 21
17.5848993666
  0
LINE
  5
2CB
100
AcDbEntity
  8
ASSI
100
AcDbLine
 62
7
  6
CONTINUOUS
 10
5.657345
 20
17.5849093666
 11
6.507388
 21
17.5849093666
  0
LINE
  5
2CC
100
AcDbEntity
  8
ASSI
100
AcDbLine
 62
7
  6
CONTINUOUS
 10
-1.558985
 20
17.5848993666
 11
-0.708974
 21
17.5849093666
  0
LINE
  5
2CD
100
AcDbEntity
  8
ASSI
100
AcDbLine
 62
7
  6
CONTINUOUS
 10
-4.912713
 20
17.5848883666
 11
-4.062681
 21
17.5848993666
  0
LINE
  5
2CE
100
AcDbEntity
  8
ASSI
100
AcDbLine
 62
7
  6
CONTINUOUS
 10
4.240618
 20
17.5849093666
 11
5.090661
 21
17.5848993666
  0
LINE
  5
2CF
100
AcDbEntity
  8
ASSI
100
AcDbLine
 62
7
  6
CONTINUOUS
 10
-7.694051
 20
17.5848883666
 11
-6.843988
 21
17.5848993666
  0
LINE
  5
2D0
100
AcDbEntity
  8
RACCORDO
100
AcDbLine
 62
7
  6
CONTINUOUS
 10
3.0253098441
 20
17.6100053666
 11
-3.0253098441
 21
17.6100053666
  0
LINE
  5
2D1
100
AcDbEntity
  8
0
100
AcDbLine
 62
7
  6
CONTINUOUS
 10
-10.95
 20
17.7100053666
 11
10.95
 21
17.7100053666
  0
LINE
  5
2D2
100
AcDbEntity
  8
RACCORDO
100
AcDbLine
 62
253
  6
CONTINUOUS
 10
10.95
 20
19.310517529
 11
0.0000000001
 21
19.3100222675
  0
LINE
  5
2D3
100
AcDbEntity
  8
RACCORDO
100
AcDbLine
 62
253
  6
CONTINUOUS
 10
0.0000000001
 20
19.3100222675
 11
-10.95
 21
19.310517529
  0
LINE
  5
2D4
100
AcDbEntity
  8
RACCORDO
100
AcDbLine
 62
253
  6
CONTINUOUS
 10
14.6428737741
 20
17.4084602608
 11
12.8498950044
 21
17.4100053666
  0
LINE
  5
2D5
100
AcDbEntity
  8
ASSI
100
AcDbLine
 62
7
  6
CONTINUOUS
 10
9.058641
 20
17.5849203666
 11
8.9938033857
 21
17.7100053666
  0
LINE
  5
2D6
100
AcDbEntity
  8
0
100
AcDbLine
 62
7
  6
CONTINUOUS
 10
-27.7611776274
 20
-39.1678883464
 11
-27.6549273261
 21
-39.1183897444
  0
LINE
  5
2D7
100
AcDbEntity
  8
0
100
AcDbLine
 62
7
  6
CONTINUOUS
 10
-28.2388223726
 20
-41.4121009204
 11
-28.3450726739
 21
-41.4615995223
  0
LINE
  5
2D8
100
AcDbEntity
  8
RACCORDO
100
AcDbLine
 62
253
  6
CONTINUOUS
 10
28.00001
 20
-46.2900053661
 11
28.0000098904
 21
-46.0906440314
  0
LINE
  5
2D9
100
AcDbEntity
  8
RACCORDO
100
AcDbLine
 62
253
  6
CONTINUOUS
 10
28.00001
 20
36.7100161139
 11
28.0000098934
 21
36.5106547783
  0
LINE
  5
2DA
100
AcDbEntity
  8
0
100
AcDbLine
 62
7
  6
CONTINUOUS
 10
30.8321553217
 20
30.1100053666
 11
28.4538073666
 21
30.1100053666
  0
LINE
  5
2DB
100
AcDbEntity
  8
0
100
AcDbLine
 62
7
  6
CONTINUOUS
 10
27.5461926334
 20
30.1100053666
 11
25.1678446783
 21
30.1100053666
  0
LINE
  5
2DC
100
AcDbEntity
  8
RACCORDO
100
AcDbLine
 62
253
  6
CONTINUOUS
 10
33.99999988
 20
30.7100053666
 11
33.8006913258
 21
30.7100053383
  0
LINE
  5
2DD
100
AcDbEntity
  8
RACCORDO
100
AcDbLine
 62
253
  6
CONTINUOUS
 10
-33.8006913258
 20
30.7100053383
 11
-33.99999988
 21
30.7100053666
  0
LINE
  5
2DE
100
AcDbEntity
  8
DRAFT
100
AcDbLine
 62
7
  6
CONTINUOUS
 10
34.0
 20
30.7100053666
 11
34.0
 21
-40.2899946334
  0
LINE
  5
2DF
100
AcDbEntity
  8
SUPERFICI
100
AcDbLine
 62
7
  6
CONTINUOUS
 10
34.0000081406
 20
-40.2899904433
 11
33.99999988
 21
30.7100715651
  0
LINE
  5
2E0
100
AcDbEntity
  8
0
100
AcDbLine
 62
7
  6
CONTINUOUS
 10
25.1678446783
 20
31.3100053666
 11
27.5461926334
 21
31.3100053666
  0
LINE
  5
2E1
100
AcDbEntity
  8
0
100
AcDbLine
 62
7
  6
CONTINUOUS
 10
28.4538073666
 20
31.3100053666
 11
30.8321553217
 21
31.3100053666
  0
LINE
  5
2E2
100
AcDbEntity
  8
DRAFT
100
AcDbLine
 62
7
  6
CONTINUOUS
 10
-28.0
 20
36.7100053666
 11
28.0
 21
36.7100053666
  0
LINE
  5
2E3
100
AcDbEntity
  8
SUPERFICI
100
AcDbLine
 62
7
  6
CONTINUOUS
 10
28.0086838119
 20
36.7100161144
 11
-28.0087161024
 21
36.7100128999
  0
LINE
  5
2E4
100
AcDbEntity
  8
RACCORDO
100
AcDbLine
 62
253
  6
CONTINUOUS
 10
-14.0
 20
37.5126130187
 11
14.0
 21
37.5126130187
  0
LINE
  5
2E5
100
AcDbEntity
  8
RACCORDO
100
AcDbLine
 62
253
  6
CONTINUOUS
 10
-13.2588190451
 20
38.478538845
 11
13.2588190451
 21
38.478538845
  0
LINE
  5
2E6
100
AcDbEntity
  8
0
100
AcDbLine
 62
7
  6
CONTINUOUS
 10
28.3450726247
 20
29.5384003856
 11
28.2388223825
 21
29.5878990729
  0
LINE
  5
2E7
100
AcDbEntity
  8
0
100
AcDbLine
 62
7
  6
CONTINUOUS
 10
-11.35
 20
38.9900053666
 11
-13.2588190451
 21
38.478538845
  0
LINE
  5
2E8
100
AcDbEntity
  8
RACCORDO
100
AcDbLine
 62
7
  6
CONTINUOUS
 10
-13.2588190451
 20
38.478538845
 11
-11.35
 21
38.9900053666
  0
LINE
  5
2E9
100
AcDbEntity
  8
0
100
AcDbLine
 62
7
  6
CONTINUOUS
 10
-9.45
 20
40.7900053666
 11
-11.6276457135
 21
40.2065069563
  0
LINE
  5
2EA
100
AcDbEntity
  8
RACCORDO
100
AcDbLine
 62
7
  6
CONTINUOUS
 10
-11.6276457135
 20
40.2065069563
 11
-9.45
 21
40.7900053666
  0
LINE
  5
2EB
100
AcDbEntity
  8
0
100
AcDbLine
 62
7
  6
CONTINUOUS
 10
11.35
 20
38.9900053666
 11
-11.35
 21
38.9900053666
  0
LINE
  5
2EC
100
AcDbEntity
  8
0
100
AcDbLine
 62
7
  6
CONTINUOUS
 10
11.85
 20
39.4900053666
 11
-11.85
 21
39.4900053666
  0
LINE
  5
2ED
100
AcDbEntity
  8
RACCORDO
100
AcDbLine
 62
253
  6
CONTINUOUS
 10
-11.85
 20
39.9167292084
 11
11.85
 21
39.9167292084
  0
LINE
  5
2EE
100
AcDbEntity
  8
RACCORDO
100
AcDbLine
 62
253
  6
CONTINUOUS
 10
-11.6276457135
 20
40.2065069563
 11
11.6276457135
 21
40.2065069563
  0
LINE
  5
2EF
100
AcDbEntity
  8
0
100
AcDbLine
 62
7
  6
CONTINUOUS
 10
9.45
 20
40.7900053666
 11
-9.45
 21
40.7900053666
  0
LINE
  5
2F0
100
AcDbEntity
  8
0
100
AcDbLine
 62
7
  6
CONTINUOUS
 10
10.1
 20
41.2900053666
 11
-10.1
 21
41.2900053666
  0
LINE
  5
2F1
100
AcDbEntity
  8
RACCORDO
100
AcDbLine
 62
253
  6
CONTINUOUS
 10
-10.1
 20
41.7569215872
 11
10.1
 21
41.7569215872
  0
LINE
  5
2F2
100
AcDbEntity
  8
RACCORDO
100
AcDbLine
 62
253
  6
CONTINUOUS
 10
-9.8776457135
 20
42.0466993351
 11
9.8776457135
 21
42.0466993351
  0
LINE
  5
2F3
100
AcDbEntity
  8
0
100
AcDbLine
 62
7
  6
CONTINUOUS
 10
7.85
 20
42.5900053666
 11
-7.85
 21
42.5900053666
  0
LINE
  5
2F4
100
AcDbEntity
  8
0
100
AcDbLine
 62
7
  6
CONTINUOUS
 10
11.35
 20
38.9900053666
 11
13.2588190451
 21
38.478538845
  0
LINE
  5
2F5
100
AcDbEntity
  8
RACCORDO
100
AcDbLine
 62
7
  6
CONTINUOUS
 10
13.2588190451
 20
38.478538845
 11
11.35
 21
38.9900053666
  0
LINE
  5
2F6
100
AcDbEntity
  8
0
100
AcDbLine
 62
7
  6
CONTINUOUS
 10
9.45
 20
40.7900053666
 11
11.6276457135
 21
40.2065069563
  0
LINE
  5
2F7
100
AcDbEntity
  8
RACCORDO
100
AcDbLine
 62
7
  6
CONTINUOUS
 10
11.6276457135
 20
40.2065069563
 11
9.45
 21
40.7900053666
  0
LINE
  5
2F8
100
AcDbEntity
  8
0
100
AcDbLine
 62
7
  6
CONTINUOUS
 10
27.6549273753
 20
31.8816103476
 11
27.7611776175
 21
31.8321116603
  0
LINE
  5
2F9
100
AcDbEntity
  8
0
100
AcDbLine
 62
7
  6
CONTINUOUS
 10
-7.85
 20
42.5900053666
 11
-9.8776457135
 21
42.0466993351
  0
LINE
  5
2FA
100
AcDbEntity
  8
RACCORDO
100
AcDbLine
 62
7
  6
CONTINUOUS
 10
-9.8776457135
 20
42.0466993351
 11
-7.85
 21
42.5900053666
  0
LINE
  5
2FB
100
AcDbEntity
  8
0
100
AcDbLine
 62
7
  6
CONTINUOUS
 10
-6.0
 20
44.3900053666
 11
-8.1276457135
 21
43.8199044159
  0
LINE
  5
2FC
100
AcDbEntity
  8
RACCORDO
100
AcDbLine
 62
7
  6
CONTINUOUS
 10
-8.1276457135
 20
43.8199044159
 11
-6.0
 21
44.3900053666
  0
LINE
  5
2FD
100
AcDbEntity
  8
0
100
AcDbLine
 62
7
  6
CONTINUOUS
 10
-1.0
 20
46.2900053666
 11
-3.8776457135
 21
45.5189425216
  0
LINE
  5
2FE
100
AcDbEntity
  8
RACCORDO
100
AcDbLine
 62
7
  6
CONTINUOUS
 10
-3.8776457135
 20
45.5189425216
 11
-1.0
 21
46.2900053666
  0
LINE
  5
2FF
100
AcDbEntity
  8
0
100
AcDbLine
 62
7
  6
CONTINUOUS
 10
8.35
 20
43.0900053666
 11
-8.35
 21
43.0900053666
  0
LINE
  5
300
100
AcDbEntity
  8
RACCORDO
100
AcDbLine
 62
253
  6
CONTINUOUS
 10
-8.35
 20
43.530126668
 11
8.35
 21
43.530126668
  0
LINE
  5
301
100
AcDbEntity
  8
RACCORDO
100
AcDbLine
 62
253
  6
CONTINUOUS
 10
-8.1276457135
 20
43.8199044159
 11
8.1276457135
 21
43.8199044159
  0
LINE
  5
302
100
AcDbEntity
  8
0
100
AcDbLine
 62
7
  6
CONTINUOUS
 10
6.0
 20
44.3900053666
 11
-6.0
 21
44.3900053666
  0
LINE
  5
303
100
AcDbEntity
  8
0
100
AcDbLine
 62
7
  6
CONTINUOUS
 10
4.1
 20
44.8900053666
 11
-4.1
 21
44.8900053666
  0
LINE
  5
304
100
AcDbEntity
  8
RACCORDO
100
AcDbLine
 62
253
  6
CONTINUOUS
 10
-4.1
 20
45.2291647737
 11
4.1
 21
45.2291647737
  0
LINE
  5
305
100
AcDbEntity
  8
RACCORDO
100
AcDbLine
 62
253
  6
CONTINUOUS
 10
-3.8776457135
 20
45.5189425216
 11
3.8776457135
 21
45.5189425216
  0
LINE
  5
306
100
AcDbEntity
  8
0
100
AcDbLine
 62
7
  6
CONTINUOUS
 10
1.0
 20
46.2900053666
 11
-1.0
 21
46.2900053666
  0
LINE
  5
307
100
AcDbEntity
  8
0
100
AcDbLine
 62
7
  6
CONTINUOUS
 10
7.85
 20
42.5900053666
 11
9.8776457135
 21
42.0466993351
  0
LINE
  5
308
100
AcDbEntity
  8
RACCORDO
100
AcDbLine
 62
7
  6
CONTINUOUS
 10
9.8776457135
 20
42.0466993351
 11
7.85
 21
42.5900053666
  0
LINE
  5
309
100
AcDbEntity
  8
0
100
AcDbLine
 62
7
  6
CONTINUOUS
 10
6.0
 20
44.3900053666
 11
8.1276457135
 21
43.8199044159
  0
LINE
  5
30A
100
AcDbEntity
  8
RACCORDO
100
AcDbLine
 62
7
  6
CONTINUOUS
 10
8.1276457135
 20
43.8199044159
 11
6.0
 21
44.3900053666
  0
LINE
  5
30B
100
AcDbEntity
  8
0
100
AcDbLine
 62
7
  6
CONTINUOUS
 10
1.0
 20
46.2900053666
 11
3.8776457135
 21
45.5189425216
  0
LINE
  5
30C
100
AcDbEntity
  8
RACCORDO
100
AcDbLine
 62
7
  6
CONTINUOUS
 10
3.8776457135
 20
45.5189425216
 11
1.0
 21
46.2900053666
  0
LINE
  5
30D
100
AcDbEntity
  8
RACCORDO
100
AcDbLine
 62
7
  6
CONTINUOUS
 10
-106.9136361162
 20
-46.0013220694
 11
-106.752580805
 21
-46.0433922644
  0
LWPOLYLINE
  5
30E
100
AcDbEntity
  8
RACCORDO
100
AcDbPolyline
 62
7
  6
CONTINUOUS
 90
3
 70
0
 10
-107.2225165746
 20
-45.8778099824
 10
-107.0706442537
 20
-45.9460009761
 10
-106.9136361162
 20
-46.0013220694
  0
LINE
  5
30F
100
AcDbEntity
  8
RACCORDO
100
AcDbLine
 62
7
  6
CONTINUOUS
 10
-58.9089967974
 20
-45.6630227063
 11
-94.8281944444
 21
-46.2899946334
  0
LINE
  5
310
100
AcDbEntity
  8
DRAFT
100
AcDbLine
 62
7
  6
CONTINUOUS
 10
-58.9089967974
 20
-45.6630227063
 11
-94.8281944444
 21
-46.2899946334
  0
LINE
  5
311
100
AcDbEntity
  8
RACCORDO
100
AcDbLine
 62
7
  6
CONTINUOUS
 10
-94.8281944444
 20
-46.2900053661
 11
-106.3629805778
 21
-46.0886580597
  0
LINE
  5
312
100
AcDbEntity
  8
RACCORDO
100
AcDbLine
 62
7
  6
CONTINUOUS
 10
-106.3629805778
 20
-46.0886580597
 11
-106.3624267218
 21
-46.0886679679
  0
LWPOLYLINE
  5
313
100
AcDbEntity
  8
RACCORDO
100
AcDbPolyline
 62
7
  6
CONTINUOUS
 90
4
 70
0
 10
-106.5885770551
 20
-46.0719248093
 10
-106.4887303507
 20
-46.0824941009
 10
-106.4134244719
 20
-46.0871335203
 10
-106.3624267378
 20
-46.0886679676
  0
LINE
  5
314
100
AcDbEntity
  8
RACCORDO
100
AcDbLine
 62
7
  6
CONTINUOUS
 10
-106.752580805
 20
-46.0433922644
 11
-106.5885945966
 21
-46.0719224982
  0
LWPOLYLINE
  5
315
100
AcDbEntity
  8
RACCORDO
100
AcDbPolyline
 62
7
  6
CONTINUOUS
 90
7
 70
0
 10
-107.5066730778
 20
36.1248035795
 10
-107.6369975944
 20
36.0211646223
 10
-107.7582565431
 20
35.9070368654
 10
-107.8696074319
 20
35.7832098398
 10
-107.9702763875
 20
35.6505404739
 10
-108.0595634929
 20
35.5099471327
 10
-108.1368474967
 20
35.3624034774
  0
LWPOLYLINE
  5
316
100
AcDbEntity
  8
RACCORDO
100
AcDbPolyline
 62
7
  6
CONTINUOUS
 90
5
 70
0
 10
-106.913632843
 20
36.4213338114
 10
-107.0706406201
 20
36.3660131685
 10
-107.2225127401
 20
36.2978226389
 10
-107.3681959879
 20
36.2172324162
 10
-107.5066798566
 20
36.1247986349
  0
LINE
  5
317
100
AcDbEntity
  8
RACCORDO
100
AcDbLine
 62
253
  6
CONTINUOUS
 10
-108.1555560053
 20
-40.3599839505
 11
-106.2464637586
 21
-40.2899950152
  0
LINE
  5
318
100
AcDbEntity
  8
ASSI
100
AcDbLine
 62
7
  6
CONTINUOUS
 10
-57.3281944444
 20
-40.7899946334
 11
-57.8281944444
 21
-40.7899946334
  0
LINE
  5
319
100
AcDbEntity
  8
RACCORDO
100
AcDbLine
 62
253
  6
CONTINUOUS
 10
-57.8281975039
 20
-40.2899946334
 11
-106.2464637698
 21
-40.2899946022
  0
LINE
  5
31A
100
AcDbEntity
  8
RACCORDO
100
AcDbLine
 62
7
  6
CONTINUOUS
 10
-111.1283224542
 20
-28.8898243436
 11
-111.1278215319
 21
-28.8904916015
  0
LWPOLYLINE
  5
31B
100
AcDbEntity
  8
RACCORDO
100
AcDbPolyline
 62
7
  6
CONTINUOUS
 90
9
 70
0
 10
-108.1368478538
 20
-44.942391986
 10
-108.0595640496
 20
-45.089935434
 10
-107.9702771406
 20
-45.2305286541
 10
-107.8696083606
 20
-45.3631979791
 10
-107.7582576112
 20
-45.487025035
 10
-107.6369987508
 20
-45.6011528832
 10
-107.5066742577
 20
-45.7047919803
 10
-107.3681891706
 20
-45.7972258297
 10
-107.2225045192
 20
-45.8778160129
  0
LINE
  5
31C
100
AcDbEntity
  8
RACCORDO
100
AcDbLine
 62
7
  6
CONTINUOUS
 10
-108.2015918595
 20
-44.7889163504
 11
-108.1368478538
 21
-44.942391986
  0
LINE
  5
31D
100
AcDbEntity
  8
RACCORDO
100
AcDbLine
 62
7
  6
CONTINUOUS
 10
-108.1368474967
 20
35.3624034774
 11
-108.2015912525
 21
35.2089287679
  0
LINE
  5
31E
100
AcDbEntity
  8
RACCORDO
100
AcDbLine
 62
7
  6
CONTINUOUS
 10
-108.2231871216
 20
-44.7281425461
 11
-108.2015918595
 21
-44.7889163504
  0
LINE
  5
31F
100
AcDbEntity
  8
SUPERFICI
100
AcDbLine
 62
7
  6
CONTINUOUS
 10
-108.5541793914
 20
-43.7054883672
 11
-108.2231870747
 21
-44.7281425471
  0
LINE
  5
320
100
AcDbEntity
  8
SUPERFICI
100
AcDbLine
 62
7
  6
CONTINUOUS
 10
-109.0129201708
 20
-42.1219217517
 11
-108.5541793914
 21
-43.7054883672
  0
LWPOLYLINE
  5
321
100
AcDbEntity
  8
SUPERFICI
100
AcDbPolyline
 62
7
  6
CONTINUOUS
 90
7
 70
0
 10
-108.5541800812
 20
34.1254959794
 10
-109.0129176666
 20
32.5419417782
 10
-109.4137868631
 20
30.934318049
 10
-109.7555023659
 20
29.3042281026
 10
-110.0365925538
 20
27.6541109844
 10
-110.2555559601
 20
25.9872942911
 10
-110.4111634229
 20
24.3061851061
  0
LINE
  5
322
100
AcDbEntity
  8
SUPERFICI
100
AcDbLine
 62
7
  6
CONTINUOUS
 10
-108.2231870772
 20
35.1481532728
 11
-108.5541800812
 21
34.1254959794
  0
LINE
  5
323
100
AcDbEntity
  8
RACCORDO
100
AcDbLine
 62
7
  6
CONTINUOUS
 10
-108.2015912525
 20
35.2089287679
 11
-108.2231871204
 21
35.1481532819
  0
LINE
  5
324
100
AcDbEntity
  8
RACCORDO
100
AcDbLine
 62
7
  6
CONTINUOUS
 10
-111.128327145
 20
19.3098285924
 11
-111.1278088012
 21
19.3105193061
  0
LINE
  5
325
100
AcDbEntity
  8
0
100
AcDbLine
 62
7
  6
CONTINUOUS
 10
-110.3633782069
 20
-34.2899946334
 11
-110.4135411165
 21
-34.2899946334
  0
LINE
  5
326
100
AcDbEntity
  8
0
100
AcDbLine
 62
253
  6
CONTINUOUS
 10
-64.3420827075
 20
-33.8899946334
 11
-63.6281944444
 21
-33.8899946334
  0
LINE
  5
327
100
AcDbEntity
  8
0
100
AcDbLine
 62
7
  6
CONTINUOUS
 10
-110.4483368996
 20
-33.0988973003
 11
-110.4984115921
 21
-33.0988973003
  0
LWPOLYLINE
  5
328
100
AcDbEntity
  8
SUPERFICI
100
AcDbPolyline
 62
7
  6
CONTINUOUS
 90
6
 70
0
 10
-110.3737968338
 20
-34.2898650366
 10
-110.2555564243
 20
-35.5672794124
 10
-110.0365933812
 20
-37.2340947664
 10
-109.7555036565
 20
-38.8842105755
 10
-109.4137887137
 20
-40.5142992505
 10
-109.0129201708
 20
-42.1219217517
  0
LINE
  5
329
100
AcDbEntity
  8
0
100
AcDbLine
 62
7
  6
CONTINUOUS
 10
-110.5148520326
 20
-31.3898716334
 11
-110.5648618338
 21
-31.3898716334
  0
LINE
  5
32A
100
AcDbEntity
  8
ASSI
100
AcDbLine
 62
7
  6
CONTINUOUS
 10
-110.5648617941
 20
-31.3898697463
 11
-110.5148520723
 21
-31.3898697463
  0
LINE
  5
32B
100
AcDbEntity
  8
0
100
AcDbLine
 62
253
  6
CONTINUOUS
 10
-64.3420827075
 20
-28.6899946334
 11
-63.6281944445
 21
-28.6899946387
  0
LINE
  5
32C
100
AcDbEntity
  8
SUPERFICI
100
AcDbLine
 62
7
  6
CONTINUOUS
 10
-110.5281437603
 20
-30.6899556454
 11
-110.5160943669
 21
-31.3898113964
  0
LINE
  5
32D
100
AcDbEntity
  8
0
100
AcDbLine
 62
7
  6
CONTINUOUS
 10
-111.3281944444
 20
18.7100053666
 11
-111.3281944444
 21
-28.2899946334
  0
LINE
  5
32E
100
AcDbEntity
  8
RACCORDO
100
AcDbLine
 62
253
  6
CONTINUOUS
 10
-111.1282730644
 20
-26.9899946334
 11
-111.1282730644
 21
17.4100053666
  0
LINE
  5
32F
100
AcDbEntity
  8
SUPERFICI
100
AcDbLine
 62
7
  6
CONTINUOUS
 10
-110.5289082399
 20
15.7276780569
 11
-110.5286125576
 21
-9.8414756487
  0
LINE
  5
330
100
AcDbEntity
  8
SUPERFICI
100
AcDbLine
 62
7
  6
CONTINUOUS
 10
-110.5286125576
 20
-9.8414756487
 11
-110.5289082664
 21
-25.3073307493
  0
LWPOLYLINE
  5
331
100
AcDbEntity
  8
SUPERFICI
100
AcDbPolyline
 62
7
  6
CONTINUOUS
 90
3
 70
0
 10
-110.4111634229
 20
24.3061851061
 10
-110.5022791299
 20
22.6122406356
 10
-110.5281437603
 20
21.1099663786
  0
LINE
  5
332
100
AcDbEntity
  8
RACCORDO
100
AcDbLine
 62
253
  6
CONTINUOUS
 10
-110.5285173718
 20
-26.9884495275
 11
-111.3281944444
 21
-26.9899946334
  0
LINE
  5
333
100
AcDbEntity
  8
ASSI
100
AcDbLine
 62
7
  6
CONTINUOUS
 10
-57.3281944444
 20
-21.7899946334
 11
-57.8281944444
 21
-21.7899946334
  0
LINE
  5
334
100
AcDbEntity
  8
0
100
AcDbLine
 62
7
  6
CONTINUOUS
 10
-57.8281944444
 20
-21.2899946334
 11
-57.6281944444
 21
-21.2899946334
  0
LINE
  5
335
100
AcDbEntity
  8
ASSI
100
AcDbLine
 62
7
  6
CONTINUOUS
 10
-57.3281944444
 20
-18.7899946334
 11
-57.6281944444
 21
-18.7899946334
  0
LINE
  5
336
100
AcDbEntity
  8
DRAFT
100
AcDbLine
 62
7
  6
CONTINUOUS
 10
-94.8281944444
 20
36.7100053666
 11
-94.8281944444
 21
-46.2892000202
  0
LINE
  5
337
100
AcDbEntity
  8
SUPERFICI
100
AcDbLine
 62
7
  6
CONTINUOUS
 10
-94.8281944444
 20
-46.2900053666
 11
-94.8281944444
 21
36.7092766564
  0
LINE
  5
338
100
AcDbEntity
  8
0
100
AcDbLine
 62
7
  6
CONTINUOUS
 10
-57.8281944444
 20
-6.5939248924
 11
-57.6281944444
 21
-6.5939246334
  0
LINE
  5
339
100
AcDbEntity
  8
0
100
AcDbLine
 62
7
  6
CONTINUOUS
 10
-57.8281944444
 20
-6.3937976279
 11
-57.6281944444
 21
-6.3937976334
  0
LINE
  5
33A
100
AcDbEntity
  8
0
100
AcDbLine
 62
7
  6
CONTINUOUS
 10
-57.8281944444
 20
-6.3661156334
 11
-57.6281944444
 21
-6.3661156334
  0
LINE
  5
33B
100
AcDbEntity
  8
0
100
AcDbLine
 62
7
  6
CONTINUOUS
 10
-57.8281944444
 20
-4.9050836334
 11
-57.6281944444
 21
-4.9050836334
  0
LINE
  5
33C
100
AcDbEntity
  8
0
100
AcDbLine
 62
7
  6
CONTINUOUS
 10
-57.6281944444
 20
-4.8050856326
 11
-57.8281944444
 21
-4.8050856326
  0
LINE
  5
33D
100
AcDbEntity
  8
RACCORDO
100
AcDbLine
 62
253
  6
CONTINUOUS
 10
-106.3630161141
 20
-4.7899949559
 11
-111.1282582219
 21
-4.7899938574
  0
LINE
  5
33E
100
AcDbEntity
  8
0
100
AcDbLine
 62
7
  6
CONTINUOUS
 10
-57.8281944444
 20
-4.3311421305
 11
-57.6281944444
 21
-4.3311416334
  0
LINE
  5
33F
100
AcDbEntity
  8
0
100
AcDbLine
 62
7
  6
CONTINUOUS
 10
-57.8281944444
 20
-4.214259345
 11
-57.6281944444
 21
-4.2142596334
  0
LINE
  5
340
100
AcDbEntity
  8
0
100
AcDbLine
 62
7
  6
CONTINUOUS
 10
-86.8281944444
 20
37.5126130188
 11
-86.8281944444
 21
36.5703648472
  0
LINE
  5
341
100
AcDbEntity
  8
0
100
AcDbLine
 62
7
  6
CONTINUOUS
 10
-84.6781944444
 20
39.9167292085
 11
-84.6781944444
 21
39.4900053666
  0
LINE
  5
342
100
AcDbEntity
  8
0
100
AcDbLine
 62
7
  6
CONTINUOUS
 10
-84.1781944444
 20
39.4900053666
 11
-84.1781944444
 21
38.9900053666
  0
LINE
  5
343
100
AcDbEntity
  8
0
100
AcDbLine
 62
7
  6
CONTINUOUS
 10
-57.8281944444
 20
-2.568480038
 11
-57.6281944444
 21
-2.568480038
  0
LINE
  5
344
100
AcDbEntity
  8
0
100
AcDbLine
 62
7
  6
CONTINUOUS
 10
-57.6281944444
 20
-2.4889003033
 11
-57.8281944444
 21
-2.4889003033
  0
LINE
  5
345
100
AcDbEntity
  8
0
100
AcDbLine
 62
7
  6
CONTINUOUS
 10
-82.9281944444
 20
41.7569215872
 11
-82.9281944444
 21
41.2900053666
  0
LINE
  5
346
100
AcDbEntity
  8
0
100
AcDbLine
 62
7
  6
CONTINUOUS
 10
-82.2781944444
 20
41.2900053666
 11
-82.2781944444
 21
40.7900053666
  0
LINE
  5
347
100
AcDbEntity
  8
0
100
AcDbLine
 62
7
  6
CONTINUOUS
 10
-81.1781944444
 20
43.530126668
 11
-81.1781944444
 21
43.0900053666
  0
LINE
  5
348
100
AcDbEntity
  8
0
100
AcDbLine
 62
7
  6
CONTINUOUS
 10
-80.6781944444
 20
43.0900053666
 11
-80.6781944444
 21
42.5900053666
  0
LINE
  5
349
100
AcDbEntity
  8
0
100
AcDbLine
 62
7
  6
CONTINUOUS
 10
-76.9281944444
 20
45.2291647761
 11
-76.9281944444
 21
44.8900053666
  0
LINE
  5
34A
100
AcDbEntity
  8
0
100
AcDbLine
 62
7
  6
CONTINUOUS
 10
-76.4281944444
 20
44.8900053666
 11
-76.4281944444
 21
44.3900053666
  0
LINE
  5
34B
100
AcDbEntity
  8
ASSI
100
AcDbLine
 62
7
  6
CONTINUOUS
 10
-57.3281944444
 20
9.2100053666
 11
-57.6281944444
 21
9.2100053666
  0
LINE
  5
34C
100
AcDbEntity
  8
0
100
AcDbLine
 62
7
  6
CONTINUOUS
 10
-57.8281944444
 20
11.7100053666
 11
-57.6281944444
 21
11.7100053666
  0
LINE
  5
34D
100
AcDbEntity
  8
ASSI
100
AcDbLine
 62
7
  6
CONTINUOUS
 10
-57.8281944444
 20
12.2100053666
 11
-57.3281944444
 21
12.2100053666
  0
LINE
  5
34E
100
AcDbEntity
  8
0
100
AcDbLine
 62
7
  6
CONTINUOUS
 10
-69.2281944444
 20
44.8900053666
 11
-69.2281944444
 21
44.3900053666
  0
LINE
  5
34F
100
AcDbEntity
  8
0
100
AcDbLine
 62
7
  6
CONTINUOUS
 10
-68.7281944444
 20
45.2291647761
 11
-68.7281944444
 21
44.8900053666
  0
LINE
  5
350
100
AcDbEntity
  8
RACCORDO
100
AcDbLine
 62
253
  6
CONTINUOUS
 10
-110.52851751
 20
17.4084602608
 11
-111.3281944444
 21
17.4100053666
  0
LINE
  5
351
100
AcDbEntity
  8
0
100
AcDbLine
 62
7
  6
CONTINUOUS
 10
-64.9781944444
 20
43.0900053666
 11
-64.9781944444
 21
42.5900053666
  0
LINE
  5
352
100
AcDbEntity
  8
0
100
AcDbLine
 62
7
  6
CONTINUOUS
 10
-64.4781944444
 20
43.530126668
 11
-64.4781944444
 21
43.0900053666
  0
LINE
  5
353
100
AcDbEntity
  8
0
100
AcDbLine
 62
253
  6
CONTINUOUS
 10
-64.3420827075
 20
-33.8899946334
 11
-64.3420827075
 21
-28.6899946334
  0
LINE
  5
354
100
AcDbEntity
  8
0
100
AcDbLine
 62
7
  6
CONTINUOUS
 10
-63.6281944444
 20
-33.8899946282
 11
-63.6281944444
 21
-28.6899946387
  0
LINE
  5
355
100
AcDbEntity
  8
0
100
AcDbLine
 62
7
  6
CONTINUOUS
 10
-63.3781944444
 20
41.2900053666
 11
-63.3781944444
 21
40.7900053666
  0
LINE
  5
356
100
AcDbEntity
  8
0
100
AcDbLine
 62
7
  6
CONTINUOUS
 10
-62.7281944444
 20
41.7569215872
 11
-62.7281944444
 21
41.2900053666
  0
LINE
  5
357
100
AcDbEntity
  8
0
100
AcDbLine
 62
7
  6
CONTINUOUS
 10
-61.4781944444
 20
39.4900053666
 11
-61.4781944444
 21
38.9900053666
  0
LINE
  5
358
100
AcDbEntity
  8
0
100
AcDbLine
 62
7
  6
CONTINUOUS
 10
-60.9781944444
 20
39.9167292085
 11
-60.9781944444
 21
39.4900053666
  0
LINE
  5
359
100
AcDbEntity
  8
RACCORDO
100
AcDbLine
 62
253
  6
CONTINUOUS
 10
-58.9089967974
 20
36.0830334395
 11
-58.9089967974
 21
30.7100053666
  0
LINE
  5
35A
100
AcDbEntity
  8
0
100
AcDbLine
 62
253
  6
CONTINUOUS
 10
-58.9089967974
 20
30.7100053666
 11
-58.9089967974
 21
-27.7133921884
  0
LINE
  5
35B
100
AcDbEntity
  8
0
100
AcDbLine
 62
253
  6
CONTINUOUS
 10
-58.9089967974
 20
-34.8665970742
 11
-58.9089967974
 21
-40.2899946334
  0
LINE
  5
35C
100
AcDbEntity
  8
RACCORDO
100
AcDbLine
 62
253
  6
CONTINUOUS
 10
-58.9089967974
 20
-40.2899946334
 11
-58.9089967974
 21
-45.6630227063
  0
LINE
  5
35D
100
AcDbEntity
  8
0
100
AcDbLine
 62
7
  6
CONTINUOUS
 10
-58.8281944444
 20
37.5126130188
 11
-58.8281944444
 21
36.0900053666
  0
LINE
  5
35E
100
AcDbEntity
  8
0
100
AcDbLine
 62
7
  6
CONTINUOUS
 10
-58.1025096522
 20
-28.3899946334
 11
-58.1025096522
 21
-34.1899946334
  0
LINE
  5
35F
100
AcDbEntity
  8
RACCORDO
100
AcDbLine
 62
7
  6
CONTINUOUS
 10
-57.8282397164
 20
34.9857946023
 11
-57.8282397164
 21
-44.565783869
  0
LINE
  5
360
100
AcDbEntity
  8
0
100
AcDbLine
 62
7
  6
CONTINUOUS
 10
-57.6281944444
 20
11.7100053666
 11
-57.6281944444
 21
-21.2899946334
  0
LINE
  5
361
100
AcDbEntity
  8
RACCORDO
100
AcDbLine
 62
253
  6
CONTINUOUS
 10
-57.3281944444
 20
31.2100053666
 11
-57.3281944444
 21
9.2100053666
  0
LINE
  5
362
100
AcDbEntity
  8
RACCORDO
100
AcDbLine
 62
253
  6
CONTINUOUS
 10
-57.3281944444
 20
-18.7899946334
 11
-57.3281944444
 21
-40.7899946334
  0
LINE
  5
363
100
AcDbEntity
  8
RACCORDO
100
AcDbLine
 62
7
  6
CONTINUOUS
 10
-56.8281944444
 20
30.7097601007
 11
-56.8281944444
 21
9.7100059212
  0
LINE
  5
364
100
AcDbEntity
  8
RACCORDO
100
AcDbLine
 62
7
  6
CONTINUOUS
 10
-56.8281944444
 20
-19.289995188
 11
-56.8281944444
 21
-40.2899944131
  0
LINE
  5
365
100
AcDbEntity
  8
RACCORDO
100
AcDbLine
 62
253
  6
CONTINUOUS
 10
-57.8281975039
 20
30.7100053666
 11
-106.2464647447
 21
30.7100053383
  0
LINE
  5
366
100
AcDbEntity
  8
ASSI
100
AcDbLine
 62
7
  6
CONTINUOUS
 10
-57.8281944444
 20
31.2100053666
 11
-57.3281944444
 21
31.2100053666
  0
LINE
  5
367
100
AcDbEntity
  8
RACCORDO
100
AcDbLine
 62
253
  6
CONTINUOUS
 10
-108.1555562343
 20
30.779993375
 11
-106.2464642514
 21
30.710005353
  0
LINE
  5
368
100
AcDbEntity
  8
0
100
AcDbLine
 62
7
  6
CONTINUOUS
 10
-59.3084182334
 20
36.0900053666
 11
-58.8281944444
 21
36.0900053666
  0
LINE
  5
369
100
AcDbEntity
  8
0
100
AcDbLine
 62
7
  6
CONTINUOUS
 10
-84.1781944444
 20
38.9900053666
 11
-86.0870134868
 21
38.4785388457
  0
LINE
  5
36A
100
AcDbEntity
  8
0
100
AcDbLine
 62
7
  6
CONTINUOUS
 10
-82.2781944444
 20
40.7900053666
 11
-84.4558401525
 21
40.2065069577
  0
LINE
  5
36B
100
AcDbEntity
  8
RACCORDO
100
AcDbLine
 62
7
  6
CONTINUOUS
 10
-106.5885774746
 20
36.4919354944
 11
-106.7525645429
 21
36.4634065421
  0
LINE
  5
36C
100
AcDbEntity
  8
RACCORDO
100
AcDbLine
 62
7
  6
CONTINUOUS
 10
-106.4887318492
 20
36.5025047236
 11
-106.5885774746
 21
36.4919354944
  0
LWPOLYLINE
  5
36D
100
AcDbEntity
  8
RACCORDO
100
AcDbPolyline
 62
7
  6
CONTINUOUS
 90
3
 70
0
 10
-106.3624266638
 20
36.5086787105
 10
-106.413426678
 20
36.5071441676
 10
-106.4887318492
 20
36.5025047236
  0
LINE
  5
36E
100
AcDbEntity
  8
RACCORDO
100
AcDbLine
 62
7
  6
CONTINUOUS
 10
-94.8281944444
 20
36.7100161139
 11
-106.3629805753
 21
36.5086688003
  0
LINE
  5
36F
100
AcDbEntity
  8
RACCORDO
100
AcDbLine
 62
7
  6
CONTINUOUS
 10
-106.3629805753
 20
36.5086688003
 11
-106.3624640297
 21
36.5086775862
  0
LINE
  5
370
100
AcDbEntity
  8
RACCORDO
100
AcDbLine
 62
253
  6
CONTINUOUS
 10
-86.8281944444
 20
37.5126130188
 11
-58.8281944444
 21
37.5126130188
  0
LINE
  5
371
100
AcDbEntity
  8
RACCORDO
100
AcDbLine
 62
253
  6
CONTINUOUS
 10
-86.0870134861
 20
38.4785388459
 11
-59.5693754027
 21
38.4785388459
  0
LINE
  5
372
100
AcDbEntity
  8
0
100
AcDbLine
 62
7
  6
CONTINUOUS
 10
-61.4781944444
 20
38.9900053666
 11
-84.1781944444
 21
38.9900053666
  0
LINE
  5
373
100
AcDbEntity
  8
0
100
AcDbLine
 62
7
  6
CONTINUOUS
 10
-60.9781944444
 20
39.4900053666
 11
-84.6781944444
 21
39.4900053666
  0
LINE
  5
374
100
AcDbEntity
  8
RACCORDO
100
AcDbLine
 62
7
  6
CONTINUOUS
 10
-58.9089967974
 20
36.0830334395
 11
-94.8281944444
 21
36.7100053666
  0
LINE
  5
375
100
AcDbEntity
  8
0
100
AcDbLine
 62
7
  6
CONTINUOUS
 10
-80.6781944444
 20
42.5900053666
 11
-82.7058401603
 21
42.0466993345
  0
LINE
  5
376
100
AcDbEntity
  8
0
100
AcDbLine
 62
7
  6
CONTINUOUS
 10
-78.8281944444
 20
44.3900053666
 11
-80.9558401585
 21
43.8199044158
  0
LINE
  5
377
100
AcDbEntity
  8
0
100
AcDbLine
 62
7
  6
CONTINUOUS
 10
-73.8281944444
 20
46.2900053666
 11
-76.7058401015
 21
45.5189425367
  0
LINE
  5
378
100
AcDbEntity
  8
RACCORDO
100
AcDbLine
 62
7
  6
CONTINUOUS
 10
-106.7525645429
 20
36.4634065421
 11
-106.9136208321
 21
36.4213374938
  0
LINE
  5
379
100
AcDbEntity
  8
RACCORDO
100
AcDbLine
 62
253
  6
CONTINUOUS
 10
-84.6781944444
 20
39.9167292085
 11
-60.9781944444
 21
39.9167292085
  0
LINE
  5
37A
100
AcDbEntity
  8
RACCORDO
100
AcDbLine
 62
253
  6
CONTINUOUS
 10
-84.4558401518
 20
40.2065069579
 11
-61.2005487371
 21
40.2065069579
  0
LINE
  5
37B
100
AcDbEntity
  8
0
100
AcDbLine
 62
7
  6
CONTINUOUS
 10
-63.3781944444
 20
40.7900053666
 11
-82.2781944444
 21
40.7900053666
  0
LINE
  5
37C
100
AcDbEntity
  8
0
100
AcDbLine
 62
7
  6
CONTINUOUS
 10
-62.7281944444
 20
41.2900053666
 11
-82.9281944444
 21
41.2900053666
  0
LINE
  5
37D
100
AcDbEntity
  8
RACCORDO
100
AcDbLine
 62
253
  6
CONTINUOUS
 10
-82.9281944444
 20
41.7569215871
 11
-62.7281944444
 21
41.7569215871
  0
LINE
  5
37E
100
AcDbEntity
  8
RACCORDO
100
AcDbLine
 62
253
  6
CONTINUOUS
 10
-82.7058401654
 20
42.0466993331
 11
-62.9505487235
 21
42.0466993331
  0
LINE
  5
37F
100
AcDbEntity
  8
0
100
AcDbLine
 62
7
  6
CONTINUOUS
 10
-64.9781944444
 20
42.5900053666
 11
-80.6781944444
 21
42.5900053666
  0
LINE
  5
380
100
AcDbEntity
  8
0
100
AcDbLine
 62
7
  6
CONTINUOUS
 10
-64.4782624604
 20
43.0900053666
 11
-81.1781264285
 21
43.0900053666
  0
LINE
  5
381
100
AcDbEntity
  8
RACCORDO
100
AcDbLine
 62
253
  6
CONTINUOUS
 10
-81.1781944444
 20
43.5301266679
 11
-64.4781944444
 21
43.5301266679
  0
LINE
  5
382
100
AcDbEntity
  8
RACCORDO
100
AcDbLine
 62
253
  6
CONTINUOUS
 10
-80.9558401644
 20
43.8199044142
 11
-64.7005487245
 21
43.8199044142
  0
LINE
  5
383
100
AcDbEntity
  8
0
100
AcDbLine
 62
7
  6
CONTINUOUS
 10
-66.8282647476
 20
44.3900053666
 11
-78.8281241413
 21
44.3900053666
  0
LINE
  5
384
100
AcDbEntity
  8
0
100
AcDbLine
 62
7
  6
CONTINUOUS
 10
-68.7282661067
 20
44.8900053666
 11
-76.9281227821
 21
44.8900053666
  0
LINE
  5
385
100
AcDbEntity
  8
RACCORDO
100
AcDbLine
 62
253
  6
CONTINUOUS
 10
-76.9281944444
 20
45.2291647761
 11
-68.7281944445
 21
45.2291647761
  0
LINE
  5
386
100
AcDbEntity
  8
RACCORDO
100
AcDbLine
 62
253
  6
CONTINUOUS
 10
-76.7058401015
 20
45.5189425367
 11
-68.9505487874
 21
45.5189425367
  0
LINE
  5
387
100
AcDbEntity
  8
0
100
AcDbLine
 62
7
  6
CONTINUOUS
 10
-71.8282739914
 20
46.2900053666
 11
-73.8281148975
 21
46.2900053666
  0
LINE
  5
388
100
AcDbEntity
  8
0
100
AcDbLine
 62
7
  6
CONTINUOUS
 10
-61.4781944444
 20
38.9900053666
 11
-59.5693754021
 21
38.4785388457
  0
LINE
  5
389
100
AcDbEntity
  8
0
100
AcDbLine
 62
7
  6
CONTINUOUS
 10
-63.3781944444
 20
40.7900053666
 11
-61.2005487364
 21
40.2065069577
  0
LINE
  5
38A
100
AcDbEntity
  8
0
100
AcDbLine
 62
7
  6
CONTINUOUS
 10
-64.9781944444
 20
42.5900053666
 11
-62.9505487286
 21
42.0466993345
  0
LINE
  5
38B
100
AcDbEntity
  8
0
100
AcDbLine
 62
7
  6
CONTINUOUS
 10
-66.8281944444
 20
44.3900053666
 11
-64.7005487304
 21
43.8199044158
  0
LINE
  5
38C
100
AcDbEntity
  8
0
100
AcDbLine
 62
7
  6
CONTINUOUS
 10
-71.8281944444
 20
46.2900053666
 11
-68.9505487874
 21
45.5189425367
  0
ARC
  5
38D
100
AcDbEntity
  8
0
100
AcDbCircle
 62
7
  6
CONTINUOUS
 10
-87.0985962383
 20
-51.6927602492
 40
60.7503985821
100
AcDbArc
 50
11.9634546111
 51
12.4284888515
  0
ARC
  5
38E
100
AcDbEntity
  8
0
100
AcDbCircle
 62
7
  6
CONTINUOUS
 10
-94.3397678217
 20
-27.2801559679
 40
68.1675678913
100
AcDbArc
 50
347.5622420293
 51
347.9769606335
  0
ARC
  5
38F
100
AcDbEntity
  8
0
100
AcDbCircle
 62
7
  6
CONTINUOUS
 10
-21.3489979253
 20
-54.4504023614
 40
16.3387675916
100
AcDbArc
 50
116.0349730838
 51
116.1979446203
  0
ARC
  5
390
100
AcDbEntity
  8
0
100
AcDbCircle
 62
7
  6
CONTINUOUS
 10
-13.840321179
 20
-46.940638111
 40
16.337955254
100
AcDbArc
 50
153.8020552904
 51
153.9650349025
  0
ARC
  5
391
100
AcDbEntity
  8
0
100
AcDbCircle
 62
7
  6
CONTINUOUS
 10
-34.6341698139
 20
-54.4159209511
 40
16.3003971269
100
AcDbArc
 50
63.8016338066
 51
63.9649905686
  0
ARC
  5
392
100
AcDbEntity
  8
0
100
AcDbCircle
 62
7
  6
CONTINUOUS
 10
-42.1225339406
 20
-46.9225305826
 40
16.2966318515
100
AcDbArc
 50
26.0350829578
 51
26.1984781096
  0
ARC
  5
393
100
AcDbEntity
  8
0
100
AcDbCircle
 62
7
  6
CONTINUOUS
 10
-33.8706028826
 20
-52.7255659251
 40
14.5897650617
100
AcDbArc
 50
63.3130487244
 51
63.5527387092
  0
ARC
  5
394
100
AcDbEntity
  8
0
100
AcDbCircle
 62
7
  6
CONTINUOUS
 10
-22.1495774262
 20
-52.6852983115
 40
14.5447241037
100
AcDbArc
 50
116.4467334955
 51
116.6871679444
  0
ARC
  5
395
100
AcDbEntity
  8
SUPERFICI
100
AcDbCircle
 62
7
  6
CONTINUOUS
 10
-28.0000028528
 20
-40.2899974862
 40
6.0000048868
100
AcDbArc
 50
179.9999327458
 51
269.9084750888
  0
ARC
  5
396
100
AcDbEntity
  8
DRAFT
100
AcDbCircle
 62
7
  6
CONTINUOUS
 10
-28.0
 20
-40.2899946334
 40
6.0
100
AcDbArc
 50
180.0
 51
270.0
  0
ARC
  5
397
100
AcDbEntity
  8
RACCORDO
100
AcDbCircle
 62
253
  6
CONTINUOUS
 10
-27.9993683833
 20
-40.289326943
 40
5.8015055154
100
AcDbArc
 50
180.0065940098
 51
269.9936642551
  0
CIRCLE
  5
398
100
AcDbEntity
  8
DRAFT
100
AcDbCircle
 62
7
  6
CONTINUOUS
 10
-28.0
 20
-40.2899946334
 40
3.25
  0
CIRCLE
  5
399
100
AcDbEntity
  8
0
100
AcDbCircle
 62
7
  6
CONTINUOUS
 10
-28.0
 20
-40.2899946334
 40
3.0
  0
ARC
  5
39A
100
AcDbEntity
  8
0
100
AcDbCircle
 62
7
  6
CONTINUOUS
 10
-28.0
 20
-40.2899946334
 40
2.8950136038
100
AcDbArc
 50
168.0385857315
 51
191.9614142685
  0
ARC
  5
39B
100
AcDbEntity
  8
0
100
AcDbCircle
 62
7
  6
CONTINUOUS
 10
-28.0
 20
-40.2899946334
 40
2.8950136038
100
AcDbArc
 50
348.0385857315
 51
11.9614142685
  0
ARC
  5
39C
100
AcDbEntity
  8
0
100
AcDbCircle
 62
7
  6
CONTINUOUS
 10
-28.0
 20
-40.2899946334
 40
2.8155023425
100
AcDbArc
 50
12.3044249574
 51
167.6955750426
  0
ARC
  5
39D
100
AcDbEntity
  8
0
100
AcDbCircle
 62
7
  6
CONTINUOUS
 10
-28.0
 20
-40.2899946334
 40
2.8155023425
100
AcDbArc
 50
192.3044249574
 51
347.6955750426
  0
ARC
  5
39E
100
AcDbEntity
  8
0
100
AcDbCircle
 62
7
  6
CONTINUOUS
 10
-28.0
 20
-40.2899946334
 40
1.6874840352
100
AcDbArc
 50
82.230101045
 51
97.7632444202
  0
ARC
  5
39F
100
AcDbEntity
  8
0
100
AcDbCircle
 62
7
  6
CONTINUOUS
 10
-28.0
 20
-40.2899946334
 40
1.6874840352
100
AcDbArc
 50
262.2301010241
 51
277.7632444202
  0
ARC
  5
3A0
100
AcDbEntity
  8
TRASH
100
AcDbCircle
 62
7
  6
CONTINUOUS
 10
-28.0
 20
-40.2899946334
 40
1.1472328625
100
AcDbArc
 50
257.9845776281
 51
282.0153200785
  0
ARC
  5
3A1
100
AcDbEntity
  8
TRASH
100
AcDbCircle
 62
7
  6
CONTINUOUS
 10
-28.0
 20
-40.2899946334
 40
1.1472328625
100
AcDbArc
 50
77.9845776281
 51
102.0153200785
  0
ARC
  5
3A2
100
AcDbEntity
  8
0
100
AcDbCircle
 62
7
  6
CONTINUOUS
 10
-28.0
 20
-40.2899946334
 40
0.7522905861
100
AcDbArc
 50
48.3509867785
 51
52.8981211086
  0
ARC
  5
3A3
100
AcDbEntity
  8
0
100
AcDbCircle
 62
7
  6
CONTINUOUS
 10
-28.0
 20
-40.2899946334
 40
0.7522905861
100
AcDbArc
 50
318.3509342563
 51
41.6490283615
  0
ARC
  5
3A4
100
AcDbEntity
  8
0
100
AcDbCircle
 62
7
  6
CONTINUOUS
 10
-28.0
 20
-40.2899946334
 40
0.7522905861
100
AcDbArc
 50
307.1018788914
 51
311.6490663885
  0
ARC
  5
3A5
100
AcDbEntity
  8
0
100
AcDbCircle
 62
7
  6
CONTINUOUS
 10
-28.0
 20
-40.2899946334
 40
0.7522905861
100
AcDbArc
 50
228.3509867785
 51
232.8981211086
  0
ARC
  5
3A6
100
AcDbEntity
  8
0
100
AcDbCircle
 62
7
  6
CONTINUOUS
 10
-28.0
 20
-40.2899946334
 40
0.7522905861
100
AcDbArc
 50
138.3509342563
 51
221.6490283615
  0
ARC
  5
3A7
100
AcDbEntity
  8
0
100
AcDbCircle
 62
7
  6
CONTINUOUS
 10
-28.0
 20
-40.2899946334
 40
0.7522905861
100
AcDbArc
 50
127.1018788914
 51
131.6490663885
  0
ARC
  5
3A8
100
AcDbEntity
  8
0
100
AcDbCircle
 62
7
  6
CONTINUOUS
 10
-42.1608491088
 20
-33.6387774209
 40
16.3392586119
100
AcDbArc
 50
333.8020617908
 51
333.9650284022
  0
ARC
  5
3A9
100
AcDbEntity
  8
0
100
AcDbCircle
 62
7
  6
CONTINUOUS
 10
-34.6510020764
 20
-26.129586902
 40
16.3387675953
100
AcDbArc
 50
296.0349730838
 51
296.1979446202
  0
ARC
  5
3AA
100
AcDbEntity
  8
0
100
AcDbCircle
 62
7
  6
CONTINUOUS
 10
-21.3658301881
 20
-26.1640683198
 40
16.3003971223
100
AcDbArc
 50
243.8016338065
 51
243.9649905687
  0
ARC
  5
3AB
100
AcDbEntity
  8
0
100
AcDbCircle
 62
7
  6
CONTINUOUS
 10
-13.8774993107
 20
-33.6574749859
 40
16.2965948192
100
AcDbArc
 50
206.0350827721
 51
206.1984782953
  0
ARC
  5
3AC
100
AcDbEntity
  8
0
100
AcDbCircle
 62
7
  6
CONTINUOUS
 10
-22.1293971172
 20
-27.8544233413
 40
14.5897650621
100
AcDbArc
 50
243.3130487244
 51
243.5527387092
  0
ARC
  5
3AD
100
AcDbEntity
  8
0
100
AcDbCircle
 62
7
  6
CONTINUOUS
 10
-33.8504225736
 20
-27.8946909557
 40
14.5447241032
100
AcDbArc
 50
296.4467334955
 51
296.6871679444
  0
ARC
  5
3AE
100
AcDbEntity
  8
DRAFT
100
AcDbCircle
 62
253
  6
CONTINUOUS
 10
-17.5
 20
-31.2899946334
 40
8.5
100
AcDbArc
 50
28.0885656997
 51
42.6517990314
  0
ARC
  5
3AF
100
AcDbEntity
  8
RACCORDO
100
AcDbCircle
 62
7
  6
CONTINUOUS
 10
-17.5
 20
-31.2899946334
 40
8.0
100
AcDbArc
 50
30.0020749185
 51
38.5954364222
  0
CIRCLE
  5
3B0
100
AcDbEntity
  8
RACCORDO
100
AcDbCircle
 62
253
  6
CONTINUOUS
 10
0.0
 20
-23.5899946334
 40
3.4999943975
  0
CIRCLE
  5
3B1
100
AcDbEntity
  8
RACCORDO
100
AcDbCircle
 62
7
  6
CONTINUOUS
 10
0.0
 20
-23.5899946334
 40
3.0
  0
ARC
  5
3B2
100
AcDbEntity
  8
RACCORDO
100
AcDbCircle
 62
253
  6
CONTINUOUS
 10
-10.949608638
 20
-26.9902836303
 40
1.9003009114
100
AcDbArc
 50
179.9912864182
 51
269.9881996023
  0
CIRCLE
  5
3B3
100
AcDbEntity
  8
ASSI
100
AcDbCircle
 62
7
  6
CONTINUOUS
 10
0.0
 20
-23.5899946334
 40
1.3856406461
  0
ARC
  5
3B4
100
AcDbEntity
  8
ASSI
100
AcDbCircle
 62
7
  6
CONTINUOUS
 10
-6.189592
 20
-27.3820926334
 40
0.49219
100
AcDbArc
 50
10.8459071712
 51
169.1540928288
  0
ARC
  5
3B5
100
AcDbEntity
  8
0
100
AcDbCircle
 62
7
  6
CONTINUOUS
 10
-10.95
 20
-26.9899946334
 40
0.3
100
AcDbArc
 50
180.0
 51
270.0
  0
ARC
  5
3B6
100
AcDbEntity
  8
0
100
AcDbCircle
 62
7
  6
CONTINUOUS
 10
-31.0985962382
 20
19.3072397508
 40
60.750398582
100
AcDbArc
 50
11.9634546111
 51
12.4284888515
  0
ARC
  5
3B7
100
AcDbEntity
  8
0
100
AcDbCircle
 62
7
  6
CONTINUOUS
 10
-38.3397678216
 20
43.7198440321
 40
68.1675678913
100
AcDbArc
 50
347.5622420293
 51
347.9769606335
  0
ARC
  5
3B8
100
AcDbEntity
  8
SUPERFICI
100
AcDbCircle
 62
7
  6
CONTINUOUS
 10
-27.9999972513
 20
30.710002618
 40
6.0000091571
100
AcDbArc
 50
90.0832586932
 51
179.9993416037
  0
ARC
  5
3B9
100
AcDbEntity
  8
DRAFT
100
AcDbCircle
 62
7
  6
CONTINUOUS
 10
-28.0
 20
30.7100053666
 40
6.0
100
AcDbArc
 50
90.0
 51
180.0
  0
ARC
  5
3BA
100
AcDbEntity
  8
RACCORDO
100
AcDbCircle
 62
253
  6
CONTINUOUS
 10
-27.9993991115
 20
30.7093605155
 40
5.8014702402
100
AcDbArc
 50
90.0060323161
 51
179.993631494
  0
ARC
  5
3BB
100
AcDbEntity
  8
ASSI
100
AcDbCircle
 62
253
  6
CONTINUOUS
 10
-17.5
 20
21.7100053666
 40
8.5
100
AcDbArc
 50
317.3561348341
 51
331.9110648048
  0
ARC
  5
3BC
100
AcDbEntity
  8
RACCORDO
100
AcDbCircle
 62
7
  6
CONTINUOUS
 10
-17.5
 20
21.7100053666
 40
8.0
100
AcDbArc
 50
321.4045635778
 51
329.9979250815
  0
CIRCLE
  5
3BD
100
AcDbEntity
  8
RACCORDO
100
AcDbCircle
 62
253
  6
CONTINUOUS
 10
0.0
 20
14.0100053666
 40
3.4999943972
  0
CIRCLE
  5
3BE
100
AcDbEntity
  8
RACCORDO
100
AcDbCircle
 62
7
  6
CONTINUOUS
 10
0.0
 20
14.0100053666
 40
3.0
  0
ARC
  5
3BF
100
AcDbEntity
  8
RACCORDO
100
AcDbCircle
 62
253
  6
CONTINUOUS
 10
-10.9496192536
 20
17.4103278248
 40
1.900278696
100
AcDbArc
 50
90.0114805183
 51
180.0097225324
  0
CIRCLE
  5
3C0
100
AcDbEntity
  8
ASSI
100
AcDbCircle
 62
7
  6
CONTINUOUS
 10
0.0
 20
14.0100053666
 40
1.3856406461
  0
ARC
  5
3C1
100
AcDbEntity
  8
0
100
AcDbCircle
 62
7
  6
CONTINUOUS
 10
-10.95
 20
17.4100053666
 40
0.3
100
AcDbArc
 50
90.0
 51
180.0
  0
ARC
  5
3C2
100
AcDbEntity
  8
RACCORDO
100
AcDbCircle
 62
7
  6
CONTINUOUS
 10
-13.0
 20
37.5126130187
 40
1.0
100
AcDbArc
 50
105.0
 51
180.0
  0
ARC
  5
3C3
100
AcDbEntity
  8
RACCORDO
100
AcDbCircle
 62
7
  6
CONTINUOUS
 10
-3.8
 20
45.2291647737
 40
0.3
100
AcDbArc
 50
104.9999999924
 51
180.0
  0
ARC
  5
3C4
100
AcDbEntity
  8
RACCORDO
100
AcDbCircle
 62
7
  6
CONTINUOUS
 10
-11.55
 20
39.9167292084
 40
0.3
100
AcDbArc
 50
104.9999999999
 51
180.0
  0
ARC
  5
3C5
100
AcDbEntity
  8
RACCORDO
100
AcDbCircle
 62
7
  6
CONTINUOUS
 10
-9.8
 20
41.7569215872
 40
0.3
100
AcDbArc
 50
104.9999999999
 51
180.0
  0
ARC
  5
3C6
100
AcDbEntity
  8
RACCORDO
100
AcDbCircle
 62
7
  6
CONTINUOUS
 10
-8.05
 20
43.530126668
 40
0.3
100
AcDbArc
 50
104.9999999998
 51
180.0
  0
ARC
  5
3C7
100
AcDbEntity
  8
0
100
AcDbCircle
 62
7
  6
CONTINUOUS
 10
38.6513384385
 20
-53.3673700115
 40
68.4863730366
100
AcDbArc
 50
167.5632075305
 51
167.9759956103
  0
ARC
  5
3C8
100
AcDbEntity
  8
0
100
AcDbCircle
 62
7
  6
CONTINUOUS
 10
31.0985977541
 20
-28.8872286557
 40
60.7504001406
100
AcDbArc
 50
191.9634546475
 51
192.4284888769
  0
ARC
  5
3C9
100
AcDbEntity
  8
RACCORDO
100
AcDbCircle
 62
253
  6
CONTINUOUS
 10
17.5
 20
-31.2899946334
 40
8.4999986766
100
AcDbArc
 50
137.3594966884
 51
151.9100404541
  0
ARC
  5
3CA
100
AcDbEntity
  8
RACCORDO
100
AcDbCircle
 62
7
  6
CONTINUOUS
 10
17.5
 20
-31.2899946334
 40
8.0
100
AcDbArc
 50
141.4045635778
 51
149.9979250815
  0
ARC
  5
3CB
100
AcDbEntity
  8
SUPERFICI
100
AcDbCircle
 62
7
  6
CONTINUOUS
 10
28.0000028528
 20
-40.2899974862
 40
6.0000048868
100
AcDbArc
 50
270.0912182245
 51
0.0000672542
  0
ARC
  5
3CC
100
AcDbEntity
  8
DRAFT
100
AcDbCircle
 62
7
  6
CONTINUOUS
 10
28.0
 20
-40.2899946334
 40
6.0
100
AcDbArc
 50
270.0
 51
360.0
  0
ARC
  5
3CD
100
AcDbEntity
  8
RACCORDO
100
AcDbCircle
 62
253
  6
CONTINUOUS
 10
27.9993671122
 20
-40.2893288299
 40
5.801504518
100
AcDbArc
 50
270.0063483005
 51
359.9934246265
  0
ARC
  5
3CE
100
AcDbEntity
  8
RACCORDO
100
AcDbCircle
 62
253
  6
CONTINUOUS
 10
10.9496186697
 20
-26.9903165396
 40
1.9002791862
100
AcDbArc
 50
270.0114981206
 51
0.0097058854
  0
ARC
  5
3CF
100
AcDbEntity
  8
0
100
AcDbCircle
 62
7
  6
CONTINUOUS
 10
12.03733
 20
-32.2792596334
 40
0.8893898871
100
AcDbArc
 50
292.842868527
 51
90.0
  0
ARC
  5
3D0
100
AcDbEntity
  8
0
100
AcDbCircle
 62
7
  6
CONTINUOUS
 10
11.956824
 20
-32.2792596334
 40
0.352865
100
AcDbArc
 50
270.0
 51
90.0
  0
ARC
  5
3D1
100
AcDbEntity
  8
0
100
AcDbCircle
 62
7
  6
CONTINUOUS
 10
10.95
 20
-26.9899946334
 40
0.3
100
AcDbArc
 50
270.0
 51
360.0
  0
ARC
  5
3D2
100
AcDbEntity
  8
0
100
AcDbCircle
 62
7
  6
CONTINUOUS
 10
21.3658301861
 20
16.5840790489
 40
16.3003971269
100
AcDbArc
 50
63.8016338065
 51
63.9649905686
  0
ARC
  5
3D3
100
AcDbEntity
  8
0
100
AcDbCircle
 62
7
  6
CONTINUOUS
 10
22.1293971162
 20
18.2744340726
 40
14.5897650643
100
AcDbArc
 50
63.3130487244
 51
63.5527387092
  0
ARC
  5
3D4
100
AcDbEntity
  8
RACCORDO
100
AcDbCircle
 62
253
  6
CONTINUOUS
 10
17.5
 20
21.7100053666
 40
8.4999986764
100
AcDbArc
 50
208.0899595532
 51
222.6405033122
  0
ARC
  5
3D5
100
AcDbEntity
  8
RACCORDO
100
AcDbCircle
 62
7
  6
CONTINUOUS
 10
17.5
 20
21.7100053666
 40
8.0
100
AcDbArc
 50
210.0020749185
 51
218.5954364222
  0
ARC
  5
3D6
100
AcDbEntity
  8
RACCORDO
100
AcDbCircle
 62
253
  6
CONTINUOUS
 10
10.9496081776
 20
17.4102940346
 40
1.9003014939
100
AcDbArc
 50
359.9912963383
 51
89.9881857209
  0
ARC
  5
3D7
100
AcDbEntity
  8
0
100
AcDbCircle
 62
7
  6
CONTINUOUS
 10
10.95
 20
17.4100053666
 40
0.3
100
AcDbArc
 50
0.0
 51
90.0
  0
ARC
  5
3D8
100
AcDbEntity
  8
0
100
AcDbCircle
 62
7
  6
CONTINUOUS
 10
13.8774660577
 20
24.0774694166
 40
16.2966318534
100
AcDbArc
 50
26.0350829578
 51
26.1984781096
  0
ARC
  5
3D9
100
AcDbEntity
  8
0
100
AcDbCircle
 62
7
  6
CONTINUOUS
 10
34.6510020747
 20
16.5495976386
 40
16.3387675916
100
AcDbArc
 50
116.0349730838
 51
116.1979446203
  0
ARC
  5
3DA
100
AcDbEntity
  8
0
100
AcDbCircle
 62
7
  6
CONTINUOUS
 10
33.850422575
 20
18.3147016862
 40
14.5447241062
100
AcDbArc
 50
116.4467334955
 51
116.6871679444
  0
ARC
  5
3DB
100
AcDbEntity
  8
0
100
AcDbCircle
 62
7
  6
CONTINUOUS
 10
42.1596788201
 20
24.0593618894
 40
16.3379552531
100
AcDbArc
 50
153.8020552904
 51
153.9650349025
  0
ARC
  5
3DC
100
AcDbEntity
  8
SUPERFICI
100
AcDbCircle
 62
7
  6
CONTINUOUS
 10
27.9999972513
 20
30.710002618
 40
6.0000091571
100
AcDbArc
 50
0.0006583963
 51
89.9170497018
  0
ARC
  5
3DD
100
AcDbEntity
  8
DRAFT
100
AcDbCircle
 62
7
  6
CONTINUOUS
 10
28.0
 20
30.7100053666
 40
6.0
100
AcDbArc
 50
0.0
 51
90.0
  0
ARC
  5
3DE
100
AcDbEntity
  8
RACCORDO
100
AcDbCircle
 62
253
  6
CONTINUOUS
 10
27.9994012639
 20
30.709359382
 40
5.8014699898
100
AcDbArc
 50
0.0063797026
 51
89.993988943
  0
CIRCLE
  5
3DF
100
AcDbEntity
  8
DRAFT
100
AcDbCircle
 62
7
  6
CONTINUOUS
 10
28.0
 20
30.7100053666
 40
3.25
  0
CIRCLE
  5
3E0
100
AcDbEntity
  8
0
100
AcDbCircle
 62
7
  6
CONTINUOUS
 10
28.0
 20
30.7100053666
 40
3.0
  0
ARC
  5
3E1
100
AcDbEntity
  8
0
100
AcDbCircle
 62
7
  6
CONTINUOUS
 10
28.0
 20
30.7100053666
 40
2.8950136038
100
AcDbArc
 50
168.0385857315
 51
191.9614142685
  0
ARC
  5
3E2
100
AcDbEntity
  8
0
100
AcDbCircle
 62
7
  6
CONTINUOUS
 10
28.0
 20
30.7100053666
 40
2.8950136038
100
AcDbArc
 50
348.0385857315
 51
11.9614142685
  0
ARC
  5
3E3
100
AcDbEntity
  8
0
100
AcDbCircle
 62
7
  6
CONTINUOUS
 10
28.0
 20
30.7100053666
 40
2.8155023425
100
AcDbArc
 50
12.3044249574
 51
167.6955750426
  0
ARC
  5
3E4
100
AcDbEntity
  8
0
100
AcDbCircle
 62
7
  6
CONTINUOUS
 10
28.0
 20
30.7100053666
 40
2.8155023425
100
AcDbArc
 50
192.3044249574
 51
347.6955750426
  0
ARC
  5
3E5
100
AcDbEntity
  8
0
100
AcDbCircle
 62
7
  6
CONTINUOUS
 10
28.0
 20
30.7100053666
 40
1.6874840352
100
AcDbArc
 50
82.230101045
 51
97.7632444202
  0
ARC
  5
3E6
100
AcDbEntity
  8
0
100
AcDbCircle
 62
7
  6
CONTINUOUS
 10
28.0
 20
30.7100053666
 40
1.6874840352
100
AcDbArc
 50
262.2301010241
 51
277.7632444202
  0
ARC
  5
3E7
100
AcDbEntity
  8
TRASH
100
AcDbCircle
 62
7
  6
CONTINUOUS
 10
28.0
 20
30.7100053666
 40
1.1472328625
100
AcDbArc
 50
257.9845776281
 51
282.0153200785
  0
ARC
  5
3E8
100
AcDbEntity
  8
TRASH
100
AcDbCircle
 62
7
  6
CONTINUOUS
 10
28.0
 20
30.7100053666
 40
1.1472328625
100
AcDbArc
 50
77.9845776281
 51
102.0153200785
  0
ARC
  5
3E9
100
AcDbEntity
  8
0
100
AcDbCircle
 62
7
  6
CONTINUOUS
 10
28.0
 20
30.7100053666
 40
0.7522905861
100
AcDbArc
 50
48.3509867785
 51
52.8981211086
  0
ARC
  5
3EA
100
AcDbEntity
  8
0
100
AcDbCircle
 62
7
  6
CONTINUOUS
 10
28.0
 20
30.7100053666
 40
0.7522905861
100
AcDbArc
 50
318.3509342563
 51
41.6490283615
  0
ARC
  5
3EB
100
AcDbEntity
  8
0
100
AcDbCircle
 62
7
  6
CONTINUOUS
 10
28.0
 20
30.7100053666
 40
0.7522905861
100
AcDbArc
 50
307.1018788914
 51
311.6490663885
  0
ARC
  5
3EC
100
AcDbEntity
  8
0
100
AcDbCircle
 62
7
  6
CONTINUOUS
 10
28.0
 20
30.7100053666
 40
0.7522905861
100
AcDbArc
 50
228.3509867785
 51
232.8981211086
  0
ARC
  5
3ED
100
AcDbEntity
  8
0
100
AcDbCircle
 62
7
  6
CONTINUOUS
 10
28.0
 20
30.7100053666
 40
0.7522905861
100
AcDbArc
 50
138.3509342563
 51
221.6490283615
  0
ARC
  5
3EE
100
AcDbEntity
  8
0
100
AcDbCircle
 62
7
  6
CONTINUOUS
 10
28.0
 20
30.7100053666
 40
0.7522905861
100
AcDbArc
 50
127.1018788914
 51
131.6490663885
  0
ARC
  5
3EF
100
AcDbEntity
  8
0
100
AcDbCircle
 62
7
  6
CONTINUOUS
 10
13.8391508888
 20
37.3612225803
 40
16.3392586147
100
AcDbArc
 50
333.8020617908
 51
333.9650284022
  0
ARC
  5
3F0
100
AcDbEntity
  8
0
100
AcDbCircle
 62
7
  6
CONTINUOUS
 10
21.3489979253
 20
44.8704130947
 40
16.3387675916
100
AcDbArc
 50
296.0349730838
 51
296.1979446203
  0
ARC
  5
3F1
100
AcDbEntity
  8
0
100
AcDbCircle
 62
7
  6
CONTINUOUS
 10
34.6341698135
 20
44.8359316835
 40
16.300397126
100
AcDbArc
 50
243.8016338065
 51
243.9649905686
  0
ARC
  5
3F2
100
AcDbEntity
  8
0
100
AcDbCircle
 62
7
  6
CONTINUOUS
 10
42.1225006926
 20
37.3425250157
 40
16.2965948228
100
AcDbArc
 50
206.0350827721
 51
206.1984782953
  0
ARC
  5
3F3
100
AcDbEntity
  8
0
100
AcDbCircle
 62
7
  6
CONTINUOUS
 10
33.8706028836
 20
43.1455766602
 40
14.5897650639
100
AcDbArc
 50
243.3130487244
 51
243.5527387092
  0
ARC
  5
3F4
100
AcDbEntity
  8
0
100
AcDbCircle
 62
7
  6
CONTINUOUS
 10
22.1495774275
 20
43.105309042
 40
14.5447241007
100
AcDbArc
 50
296.4467334955
 51
296.6871679444
  0
ARC
  5
3F5
100
AcDbEntity
  8
RACCORDO
100
AcDbCircle
 62
7
  6
CONTINUOUS
 10
13.0
 20
37.5126130187
 40
1.0
100
AcDbArc
 50
0.0
 51
75.0
  0
ARC
  5
3F6
100
AcDbEntity
  8
RACCORDO
100
AcDbCircle
 62
7
  6
CONTINUOUS
 10
3.8
 20
45.2291647737
 40
0.3
100
AcDbArc
 50
0.0
 51
75.0000000076
  0
ARC
  5
3F7
100
AcDbEntity
  8
RACCORDO
100
AcDbCircle
 62
7
  6
CONTINUOUS
 10
11.55
 20
39.9167292084
 40
0.3
100
AcDbArc
 50
0.0
 51
75.0000000001
  0
ARC
  5
3F8
100
AcDbEntity
  8
RACCORDO
100
AcDbCircle
 62
7
  6
CONTINUOUS
 10
9.8
 20
41.7569215872
 40
0.3
100
AcDbArc
 50
0.0
 51
75.0000000001
  0
ARC
  5
3F9
100
AcDbEntity
  8
RACCORDO
100
AcDbCircle
 62
7
  6
CONTINUOUS
 10
8.05
 20
43.530126668
 40
0.3
100
AcDbArc
 50
0.0
 51
75.0000000002
  0
ARC
  5
3FA
100
AcDbEntity
  8
0
100
AcDbCircle
 62
7
  6
CONTINUOUS
 10
94.6513384385
 20
17.6326299885
 40
68.4863730366
100
AcDbArc
 50
167.5632075305
 51
167.9759956103
  0
ARC
  5
3FB
100
AcDbEntity
  8
0
100
AcDbCircle
 62
7
  6
CONTINUOUS
 10
87.098597754
 20
42.1127713443
 40
60.7504001406
100
AcDbArc
 50
191.9634546475
 51
192.4284888769
  0
ARC
  5
3FC
100
AcDbEntity
  8
0
100
AcDbCircle
 62
253
  6
CONTINUOUS
 10
-77.879921996
 20
-1754.188775751
 40
1726.5796060904
100
AcDbArc
 50
89.3704455829
 51
89.5166383156
  0
ARC
  5
3FD
100
AcDbEntity
  8
RACCORDO
100
AcDbCircle
 62
7
  6
CONTINUOUS
 10
-113.528143746
 20
-30.6900622298
 40
3.0
100
AcDbArc
 50
0.0020407933
 51
36.8711079231
  0
ARC
  5
3FE
100
AcDbEntity
  8
RACCORDO
100
AcDbCircle
 62
7
  6
CONTINUOUS
 10
-113.5266573835
 20
-30.6920420234
 40
2.9999997938
100
AcDbArc
 50
0.3521151564
 51
36.9065629774
  0
ARC
  5
3FF
100
AcDbEntity
  8
RACCORDO
100
AcDbCircle
 62
7
  6
CONTINUOUS
 10
-106.3280748883
 20
-44.0889626847
 40
2.0
100
AcDbArc
 50
198.6380917912
 51
268.9999748852
  0
ARC
  5
400
100
AcDbEntity
  8
RACCORDO
100
AcDbCircle
 62
253
  6
CONTINUOUS
 10
-106.2139056699
 20
-44.0923561601
 40
1.998623281
100
AcDbArc
 50
195.9569079778
 51
268.9852968276
  0
ARC
  5
401
100
AcDbEntity
  8
RACCORDO
100
AcDbCircle
 62
7
  6
CONTINUOUS
 10
-110.3281944444
 20
-28.2899946334
 40
1.0
100
AcDbArc
 50
180.0
 51
216.9065873847
  0
ARC
  5
402
100
AcDbEntity
  8
0
100
AcDbCircle
 62
7
  6
CONTINUOUS
 10
-110.3281944444
 20
-28.2899946334
 40
1.0
100
AcDbArc
 50
180.0
 51
216.9065873847
  0
ARC
  5
403
100
AcDbEntity
  8
RACCORDO
100
AcDbCircle
 62
7
  6
CONTINUOUS
 10
-113.5266577948
 20
21.1120528731
 40
3.0000000165
100
AcDbArc
 50
323.0934399612
 51
359.6478826666
  0
ARC
  5
404
100
AcDbEntity
  8
RACCORDO
100
AcDbCircle
 62
7
  6
CONTINUOUS
 10
-113.528143746
 20
21.1100729631
 40
3.0
100
AcDbArc
 50
323.1288920769
 51
359.9979592067
  0
ARC
  5
405
100
AcDbEntity
  8
RACCORDO
100
AcDbCircle
 62
7
  6
CONTINUOUS
 10
-106.3280748906
 20
34.5089734252
 40
2.0
100
AcDbArc
 50
91.0000249781
 51
161.3619081522
  0
ARC
  5
406
100
AcDbEntity
  8
RACCORDO
100
AcDbCircle
 62
253
  6
CONTINUOUS
 10
-106.2139262812
 20
34.5123685359
 40
1.9986261374
100
AcDbArc
 50
91.0141171991
 51
164.0429807716
  0
ARC
  5
407
100
AcDbEntity
  8
0
100
AcDbCircle
 62
7
  6
CONTINUOUS
 10
-110.3281944444
 20
18.7100053666
 40
1.0
100
AcDbArc
 50
143.0934126153
 51
180.0
  0
ARC
  5
408
100
AcDbEntity
  8
RACCORDO
100
AcDbCircle
 62
7
  6
CONTINUOUS
 10
-110.3281944444
 20
18.7100053666
 40
1.0
100
AcDbArc
 50
143.0934126153
 51
180.0
  0
ARC
  5
409
100
AcDbEntity
  8
RACCORDO
100
AcDbCircle
 62
7
  6
CONTINUOUS
 10
-85.8281944444
 20
37.5126130187
 40
1.0
100
AcDbArc
 50
104.9999998361
 51
180.0
  0
ARC
  5
40A
100
AcDbEntity
  8
RACCORDO
100
AcDbCircle
 62
7
  6
CONTINUOUS
 10
-76.6281944444
 20
45.2291647737
 40
0.3
100
AcDbArc
 50
104.9999888319
 51
180.0
  0
ARC
  5
40B
100
AcDbEntity
  8
RACCORDO
100
AcDbCircle
 62
7
  6
CONTINUOUS
 10
-80.8781944444
 20
43.530126668
 40
0.3
100
AcDbArc
 50
105.0000000949
 51
180.0
  0
ARC
  5
40C
100
AcDbEntity
  8
RACCORDO
100
AcDbCircle
 62
7
  6
CONTINUOUS
 10
-82.6281944444
 20
41.7569215872
 40
0.3
100
AcDbArc
 50
105.0000004607
 51
180.0
  0
ARC
  5
40D
100
AcDbEntity
  8
RACCORDO
100
AcDbCircle
 62
7
  6
CONTINUOUS
 10
-84.3781944444
 20
39.9167292084
 40
0.3
100
AcDbArc
 50
104.9999989109
 51
180.0
  0
ARC
  5
40E
100
AcDbEntity
  8
0
100
AcDbCircle
 62
253
  6
CONTINUOUS
 10
-78.2653598929
 20
1731.2968660887
 40
1766.2695397321
100
AcDbArc
 50
270.4850033984
 51
270.6279110261
  0
ARC
  5
40F
100
AcDbEntity
  8
0
100
AcDbCircle
 62
7
  6
CONTINUOUS
 10
-34.4316225296
 20
-29.3325520935
 40
76.159880524
100
AcDbArc
 50
182.1100655549
 51
182.342627774
  0
ARC
  5
410
100
AcDbEntity
  8
0
100
AcDbCircle
 62
7
  6
CONTINUOUS
 10
-36.1699178763
 20
-29.384537139
 40
74.420915495
100
AcDbArc
 50
182.3573415146
 51
182.5762823978
  0
ARC
  5
411
100
AcDbEntity
  8
0
100
AcDbCircle
 62
7
  6
CONTINUOUS
 10
-49.5178680402
 20
-29.960953068
 40
61.0105338593
100
AcDbArc
 50
182.2980112667
 51
182.4708722314
  0
ARC
  5
412
100
AcDbEntity
  8
0
100
AcDbCircle
 62
7
  6
CONTINUOUS
 10
-64.512116079
 20
-30.3756783174
 40
46.0614222201
100
AcDbArc
 50
182.0007537428
 51
182.1910718091
  0
ARC
  5
413
100
AcDbEntity
  8
0
100
AcDbCircle
 62
7
  6
CONTINUOUS
 10
-64.6266147652
 20
-30.4310348056
 40
45.9493115772
100
AcDbArc
 50
183.328521557
 51
183.6533967711
  0
ARC
  5
414
100
AcDbEntity
  8
0
100
AcDbCircle
 62
7
  6
CONTINUOUS
 10
-64.6292058597
 20
-30.4314045042
 40
45.8967132491
100
AcDbArc
 50
183.3318780978
 51
183.6572633979
  0
ARC
  5
415
100
AcDbEntity
  8
0
100
AcDbCircle
 62
7
  6
CONTINUOUS
 10
-64.8874032386
 20
-30.4480811453
 40
45.6379781577
100
AcDbArc
 50
183.6570464615
 51
184.659048738
  0
ARC
  5
416
100
AcDbEntity
  8
0
100
AcDbCircle
 62
7
  6
CONTINUOUS
 10
-64.9710240355
 20
-30.4538929685
 40
45.6041449563
100
AcDbArc
 50
183.6523090748
 51
184.8252732988
  0
ARC
  5
417
100
AcDbEntity
  8
0
100
AcDbCircle
 62
7
  6
CONTINUOUS
 10
-65.1368210692
 20
-30.4674422633
 40
45.3878108873
100
AcDbArc
 50
184.6602632662
 51
184.831161848
  0
ARC
  5
418
100
AcDbEntity
  8
RACCORDO
100
AcDbCircle
 62
7
  6
CONTINUOUS
 10
-66.5061106491
 20
-30.6682833913
 40
44.0228409118
100
AcDbArc
 50
184.7194667621
 51
196.9036889578
  0
ARC
  5
419
100
AcDbEntity
  8
RACCORDO
100
AcDbCircle
 62
7
  6
CONTINUOUS
 10
-66.7117085714
 20
-30.7276733051
 40
43.8088575385
100
AcDbArc
 50
196.9075555991
 51
198.564623559
  0
ARC
  5
41A
100
AcDbEntity
  8
RACCORDO
100
AcDbCircle
 62
7
  6
CONTINUOUS
 10
-66.8082011537
 20
-30.6883393852
 40
43.7199426185
100
AcDbArc
 50
180.0021177831
 51
180.919460197
  0
ARC
  5
41B
100
AcDbEntity
  8
RACCORDO
100
AcDbCircle
 62
7
  6
CONTINUOUS
 10
-58.9281944444
 20
-44.5631902416
 40
1.1
100
AcDbArc
 50
271.0
 51
359.8648670373
  0
ARC
  5
41C
100
AcDbEntity
  8
RACCORDO
100
AcDbCircle
 62
7
  6
CONTINUOUS
 10
-57.3281944444
 20
-40.2899946334
 40
0.5
100
AcDbArc
 50
270.0
 51
0.0000252418
  0
ARC
  5
41D
100
AcDbEntity
  8
RACCORDO
100
AcDbCircle
 62
7
  6
CONTINUOUS
 10
-57.3281944444
 20
-22.2899946334
 40
0.5
100
AcDbArc
 50
359.9999747582
 51
90.0
  0
ARC
  5
41E
100
AcDbEntity
  8
RACCORDO
100
AcDbCircle
 62
7
  6
CONTINUOUS
 10
-57.3281944444
 20
-19.2899946334
 40
0.5
100
AcDbArc
 50
359.99993665
 51
90.0
  0
ARC
  5
41F
100
AcDbEntity
  8
RACCORDO
100
AcDbCircle
 62
7
  6
CONTINUOUS
 10
-66.5227499181
 20
21.0921607369
 40
44.0057962891
100
AcDbArc
 50
163.0948430874
 51
177.9690615609
  0
ARC
  5
420
100
AcDbEntity
  8
RACCORDO
100
AcDbCircle
 62
7
  6
CONTINUOUS
 10
-66.7117081164
 20
21.1476838899
 40
43.808858017
100
AcDbArc
 50
161.4353751537
 51
163.0924588863
  0
ARC
  5
421
100
AcDbEntity
  8
RACCORDO
100
AcDbCircle
 62
7
  6
CONTINUOUS
 10
-66.781877889
 20
21.1081240105
 40
43.7462658921
100
AcDbArc
 50
177.9779283956
 51
179.997587351
  0
ARC
  5
422
100
AcDbEntity
  8
0
100
AcDbCircle
 62
7
  6
CONTINUOUS
 10
-72.8501110726
 20
-4.789019808
 40
11.4991269656
100
AcDbArc
 50
359.995142858
 51
89.8908532393
  0
ARC
  5
423
100
AcDbEntity
  8
0
100
AcDbCircle
 62
7
  6
CONTINUOUS
 10
-72.8501110726
 20
-4.7909694587
 40
11.4991269656
100
AcDbArc
 50
270.1091467607
 51
0.004857142
  0
ARC
  5
424
100
AcDbEntity
  8
0
100
AcDbCircle
 62
7
  6
CONTINUOUS
 10
-72.8272235285
 20
-4.7890321587
 40
11.4991239212
100
AcDbArc
 50
90.0048377576
 51
180.0047956071
  0
ARC
  5
425
100
AcDbEntity
  8
0
100
AcDbCircle
 62
7
  6
CONTINUOUS
 10
-72.829164223
 20
-4.790958264
 40
11.4991239212
100
AcDbArc
 50
270.0048320909
 51
0.0048013668
  0
ARC
  5
426
100
AcDbEntity
  8
0
100
AcDbCircle
 62
7
  6
CONTINUOUS
 10
-72.8274166795
 20
-4.7911523834
 40
11.4988829327
100
AcDbArc
 50
179.9942313213
 51
269.9961245852
  0
ARC
  5
427
100
AcDbEntity
  8
0
100
AcDbCircle
 62
7
  6
CONTINUOUS
 10
-72.8289739742
 20
-4.7888387082
 40
11.4988829327
100
AcDbArc
 50
359.9942404147
 51
89.9961157921
  0
ARC
  5
428
100
AcDbEntity
  8
0
100
AcDbCircle
 62
7
  6
CONTINUOUS
 10
-72.8491325476
 20
-4.7917756306
 40
11.2480300962
100
AcDbArc
 50
179.9909280739
 51
0.0090719261
  0
ARC
  5
429
100
AcDbEntity
  8
0
100
AcDbCircle
 62
7
  6
CONTINUOUS
 10
-72.8491325476
 20
-4.7882134627
 40
11.2480293325
100
AcDbArc
 50
359.9909271904
 51
180.0090728096
  0
ARC
  5
42A
100
AcDbEntity
  8
0
100
AcDbCircle
 62
7
  6
CONTINUOUS
 10
-72.8369158631
 20
-4.7916648134
 40
10.5481526676
100
AcDbArc
 50
179.9909280718
 51
0.0090719282
  0
ARC
  5
42B
100
AcDbEntity
  8
0
100
AcDbCircle
 62
7
  6
CONTINUOUS
 10
-72.8369158631
 20
-4.7883242908
 40
10.5481519518
100
AcDbArc
 50
359.990927189
 51
180.009072811
  0
ARC
  5
42C
100
AcDbEntity
  8
RACCORDO
100
AcDbCircle
 62
7
  6
CONTINUOUS
 10
-58.9281944444
 20
34.9832009748
 40
1.1
100
AcDbArc
 50
0.0
 51
89.0
  0
ARC
  5
42D
100
AcDbEntity
  8
RACCORDO
100
AcDbCircle
 62
7
  6
CONTINUOUS
 10
-59.8281944444
 20
37.5126130187
 40
1.0
100
AcDbArc
 50
0.0
 51
75.0000001639
  0
ARC
  5
42E
100
AcDbEntity
  8
RACCORDO
100
AcDbCircle
 62
7
  6
CONTINUOUS
 10
-57.3281944444
 20
12.7100053666
 40
0.5
100
AcDbArc
 50
270.0
 51
0.0000252419
  0
ARC
  5
42F
100
AcDbEntity
  8
RACCORDO
100
AcDbCircle
 62
7
  6
CONTINUOUS
 10
-57.3281944444
 20
30.7100053666
 40
0.5
100
AcDbArc
 50
359.9999747581
 51
90.0
  0
ARC
  5
430
100
AcDbEntity
  8
RACCORDO
100
AcDbCircle
 62
7
  6
CONTINUOUS
 10
-57.3281944444
 20
9.7100053666
 40
0.5
100
AcDbArc
 50
270.0
 51
0.00006335
  0
ARC
  5
431
100
AcDbEntity
  8
RACCORDO
100
AcDbCircle
 62
7
  6
CONTINUOUS
 10
-69.0281944444
 20
45.2291647737
 40
0.3
100
AcDbArc
 50
0.0
 51
75.0000111681
  0
ARC
  5
432
100
AcDbEntity
  8
RACCORDO
100
AcDbCircle
 62
7
  6
CONTINUOUS
 10
-64.7781944444
 20
43.530126668
 40
0.3
100
AcDbArc
 50
0.0
 51
74.9999999051
  0
ARC
  5
433
100
AcDbEntity
  8
RACCORDO
100
AcDbCircle
 62
7
  6
CONTINUOUS
 10
-63.0281944444
 20
41.7569215872
 40
0.3
100
AcDbArc
 50
0.0
 51
74.9999995393
  0
ARC
  5
434
100
AcDbEntity
  8
RACCORDO
100
AcDbCircle
 62
7
  6
CONTINUOUS
 10
-61.2781944444
 20
39.9167292084
 40
0.3
100
AcDbArc
 50
0.0
 51
75.0000010891
  0
LINE
  5
435
100
AcDbEntity
  8
0
100
AcDbLine
 62
7
  6
CONTINUOUS
 10
27.4000001418
 20
30.1100053666
 11
27.3727027659
 21
30.08270796
  0
LINE
  5
436
100
AcDbEntity
  8
0
100
AcDbLine
 62
7
  6
CONTINUOUS
 10
27.4802765158
 20
30.1902818824
 11
27.4795953519
 21
30.1896007184
  0
LINE
  5
437
100
AcDbEntity
  8
0
100
AcDbLine
 62
7
  6
CONTINUOUS
 10
27.3727024837
 20
31.3373028759
 11
27.3999999936
 21
31.3100053666
  0
LINE
  5
438
100
AcDbEntity
  8
0
100
AcDbLine
 62
7
  6
CONTINUOUS
 10
27.4795953518
 20
31.2304100148
 11
27.4802765158
 21
31.2297288508
  0
LINE
  5
439
100
AcDbEntity
  8
0
100
AcDbLine
 62
7
  6
CONTINUOUS
 10
28.5197267822
 20
31.2297228016
 11
28.5621338622
 21
31.2099520108
  0
SPLINE
  5
43A
100
AcDbEntity
  8
0
100
AcDbSpline
 62
7
  6
CONTINUOUS
 70
0
 71
3
 72
9
 73
5
 74
3
 42
0.0000001
 43
0.0000001
 44
0.0000000001
 12
0.1041126532
 22
-0.0452995647
 32
0.0
 13
0.1041126532
 23
-0.0452995647
 33
0.0
 40
0.0
 40
0.0
 40
0.0
 40
0.0
 40
0.4996939835
 40
1.0
 40
1.0
 40
1.0
 40
1.0
 10
27.6675285871
 20
31.8998120622
 30
0.0
 10
27.6848700759
 20
31.8922667556
 30
0.0
 10
27.7194691566
 20
31.8769221275
 30
0.0
 10
27.754489043
 20
31.8625571917
 30
0.0
 10
27.7718517719
 20
31.8550026435
 30
0.0
 11
27.6675285871
 21
31.8998120622
 31
0.0
 11
27.7195530535
 21
31.8771761423
 31
0.0
 11
27.7718517719
 21
31.8550026435
 31
0.0
  0
SPLINE
  5
43B
100
AcDbEntity
  8
0
100
AcDbSpline
 62
7
  6
CONTINUOUS
 70
0
 71
3
 72
9
 73
5
 74
3
 42
0.0000001
 43
0.0000001
 44
0.0000000001
 12
0.0010793166
 22
0.5269772644
 32
0.0
 13
-0.0000227564
 23
0.5269783692
 33
0.0
 40
0.0
 40
0.0
 40
0.0
 40
0.0
 40
0.4866884719
 40
1.0
 40
1.0
 40
1.0
 40
1.0
 10
27.7716467289
 20
31.8550449497
 30
0.0
 10
27.7718218259
 20
31.9405362029
 30
0.0
 10
27.7720059196
 20
32.1161956286
 30
0.0
 10
27.7720585941
 20
32.2918550786
 30
0.0
 10
27.7720547004
 20
32.3820231026
 30
0.0
 11
27.7716467289
 21
31.8550449497
 31
0.0
 11
27.7719698898
 21
32.1115190436
 31
0.0
 11
27.7720547004
 21
32.3820231026
 31
0.0
  0
LINE
  5
43C
100
AcDbEntity
  8
TRASH
100
AcDbLine
 62
7
  6
CONTINUOUS
 10
27.7611776175
 20
31.8321116603
 11
27.7718517719
 21
31.8550026435
  0
LINE
  5
43D
100
AcDbEntity
  8
TRASH
100
AcDbLine
 62
7
  6
CONTINUOUS
 10
28.2281482181
 20
31.8550026367
 11
28.2388223726
 21
31.8321116536
  0
LINE
  5
43E
100
AcDbEntity
  8
0
100
AcDbLine
 62
7
  6
CONTINUOUS
 10
27.5000535044
 20
30.1478713723
 11
27.480282565
 21
30.1902785844
  0
LINE
  5
43F
100
AcDbEntity
  8
0
100
AcDbLine
 62
7
  6
CONTINUOUS
 10
28.2281394921
 20
32.3819966169
 11
28.22819274
 21
31.8550132898
  0
LINE
  5
440
100
AcDbEntity
  8
0
100
AcDbLine
 62
7
  6
CONTINUOUS
 10
28.2281482181
 20
31.8550026367
 11
28.3323044581
 21
31.9000531157
  0
LINE
  5
441
100
AcDbEntity
  8
0
100
AcDbLine
 62
7
  6
CONTINUOUS
 10
27.7611739822
 20
29.5879025531
 11
27.517710713
 21
30.1100053666
  0
LINE
  5
442
100
AcDbEntity
  8
0
100
AcDbLine
 62
7
  6
CONTINUOUS
 10
28.5999998582
 20
31.3100053666
 11
28.6272972341
 21
31.3373027732
  0
LINE
  5
443
100
AcDbEntity
  8
0
100
AcDbLine
 62
7
  6
CONTINUOUS
 10
28.4822898071
 20
30.1100053666
 11
28.238824741
 21
29.5878987133
  0
LINE
  5
444
100
AcDbEntity
  8
0
100
AcDbLine
 62
7
  6
CONTINUOUS
 10
28.5197234839
 20
30.1902818828
 11
28.4999470172
 21
30.1478718363
  0
LINE
  5
445
100
AcDbEntity
  8
0
100
AcDbLine
 62
7
  6
CONTINUOUS
 10
27.6675285871
 20
31.8998120622
 11
27.6549273753
 21
31.8816103476
  0
SPLINE
  5
446
100
AcDbEntity
  8
0
100
AcDbSpline
 62
7
  6
CONTINUOUS
 70
0
 71
3
 72
14
 73
10
 74
8
 42
0.0000001
 43
0.0000001
 44
0.0000000001
 12
0.2730585867
 22
0.5489866675
 32
0.0
 13
0.289044073
 23
0.540741044
 33
0.0
 40
0.0
 40
0.0
 40
0.0
 40
0.0
 40
0.1676248277
 40
0.3171576827
 40
0.4562893429
 40
0.5918233207
 40
0.7276155638
 40
0.864047256
 40
1.0
 40
1.0
 40
1.0
 40
1.0
 10
27.3727024837
 20
31.3373028759
 30
0.0
 10
27.3879596165
 20
31.3679774744
 30
0.0
 10
27.4170404994
 20
31.4259100243
 30
0.0
 10
27.4593856473
 20
31.5089995854
 30
0.0
 10
27.4991217211
 20
31.5860561588
 30
0.0
 10
27.5378704201
 20
31.6604612929
 30
0.0
 10
27.5766233302
 20
31.7342414427
 30
0.0
 10
27.6156478457
 20
31.807975104
 30
0.0
 10
27.641828597
 20
31.8571052713
 30
0.0
 10
27.6549273753
 20
31.8816103476
 30
0.0
 11
27.3727024837
 21
31.3373028759
 31
0.0
 11
27.4187978272
 21
31.429164833
 31
0.0
 11
27.4604183046
 21
31.5108590603
 31
0.0
 11
27.4995101966
 21
31.5866829982
 31
0.0
 11
27.5378890585
 21
31.6603919698
 31
0.0
 11
27.5766010257
 21
31.734105451
 31
0.0
 11
27.6157284872
 21
31.8080431133
 31
0.0
 11
27.6549273753
 21
31.8816103476
 31
0.0
  0
LINE
  5
447
100
AcDbEntity
  8
0
100
AcDbLine
 62
7
  6
CONTINUOUS
 10
28.5197234842
 20
31.2297288508
 11
28.5204046481
 21
31.2304100148
  0
SPLINE
  5
448
100
AcDbEntity
  8
0
100
AcDbSpline
 62
7
  6
CONTINUOUS
 70
0
 71
3
 72
14
 73
10
 74
8
 42
0.0000001
 43
0.0000001
 44
0.0000000001
 12
0.2890440051
 22
-0.5407409237
 32
0.0
 13
0.2730624198
 23
-0.5489846067
 33
0.0
 40
0.0
 40
0.0
 40
0.0
 40
0.0
 40
0.1360891828
 40
0.2724205737
 40
0.4077679873
 40
0.5429185838
 40
0.6821509024
 40
0.8319710672
 40
1.0
 40
1.0
 40
1.0
 40
1.0
 10
28.3450726739
 20
31.8816102556
 30
0.0
 10
28.3581845947
 20
31.8570805921
 30
0.0
 10
28.384368606
 20
31.8079438071
 30
0.0
 10
28.4233541525
 20
31.7342840493
 30
0.0
 10
28.4620189291
 20
31.6606719864
 30
0.0
 10
28.5007002545
 20
31.5863994423
 30
0.0
 10
28.540438111
 20
31.5093427585
 30
0.0
 10
28.5828598752
 20
31.426110565
 30
0.0
 10
28.6120031051
 20
31.3680512057
 30
0.0
 10
28.6272972341
 20
31.3373027732
 30
0.0
 11
28.3450726739
 21
31.8816102556
 31
0.0
 11
28.3843107253
 21
31.8079691187
 31
0.0
 11
28.423409377
 21
31.7340858115
 31
0.0
 11
28.4619947999
 21
31.6606139638
 31
0.0
 11
28.5002662962
 21
31.5871141344
 31
0.0
 11
28.539388172
 21
31.5112362387
 31
0.0
 11
28.5810907405
 21
31.4293861502
 31
0.0
 11
28.6272972341
 21
31.3373027732
 31
0.0
  0
LINE
  5
449
100
AcDbEntity
  8
0
100
AcDbLine
 62
7
  6
CONTINUOUS
 10
28.3323044581
 20
31.9000531157
 11
28.3450726739
 21
31.8816102556
  0
SPLINE
  5
44A
100
AcDbEntity
  8
0
100
AcDbSpline
 62
7
  6
CONTINUOUS
 70
0
 71
3
 72
14
 73
10
 74
8
 42
0.0000001
 43
0.0000001
 44
0.0000000001
 12
-0.2890440051
 22
0.5407409237
 32
0.0
 13
-0.2730624198
 23
0.5489846067
 33
0.0
 40
0.0
 40
0.0
 40
0.0
 40
0.0
 40
0.1360891828
 40
0.2724205737
 40
0.4077679873
 40
0.5429185838
 40
0.6821509024
 40
0.8319710672
 40
1.0
 40
1.0
 40
1.0
 40
1.0
 10
27.6549273261
 20
29.5384004777
 30
0.0
 10
27.6418154053
 20
29.5629301411
 30
0.0
 10
27.615631394
 20
29.6120669261
 30
0.0
 10
27.5766458475
 20
29.6857266839
 30
0.0
 10
27.5379810709
 20
29.7593387468
 30
0.0
 10
27.4992997455
 20
29.8336112909
 30
0.0
 10
27.459561889
 20
29.9106679748
 30
0.0
 10
27.4171401248
 20
29.9939001682
 30
0.0
 10
27.3879968949
 20
30.0519595275
 30
0.0
 10
27.3727027659
 20
30.08270796
 30
0.0
 11
27.6549273261
 21
29.5384004777
 31
0.0
 11
27.6156892747
 21
29.6120416146
 31
0.0
 11
27.576590623
 21
29.6859249217
 31
0.0
 11
27.5380052001
 21
29.7593967694
 31
0.0
 11
27.4997337038
 21
29.8328965988
 31
0.0
 11
27.460611828
 21
29.9087744945
 31
0.0
 11
27.4189092595
 21
29.9906245831
 31
0.0
 11
27.3727027659
 21
30.08270796
 31
0.0
  0
LINE
  5
44B
100
AcDbEntity
  8
0
100
AcDbLine
 62
7
  6
CONTINUOUS
 10
27.6549273261
 20
29.5384004777
 11
27.6676955411
 21
29.5199576186
  0
LINE
  5
44C
100
AcDbEntity
  8
0
100
AcDbLine
 62
7
  6
CONTINUOUS
 10
28.3450726247
 20
29.5384003856
 11
28.3324714129
 21
29.520198671
  0
SPLINE
  5
44D
100
AcDbEntity
  8
0
100
AcDbSpline
 62
7
  6
CONTINUOUS
 70
0
 71
3
 72
14
 73
10
 74
8
 42
0.0000001
 43
0.0000001
 44
0.0000000001
 12
-0.2730585867
 22
-0.5489866675
 32
0.0
 13
-0.289044073
 23
-0.540741044
 33
0.0
 40
0.0
 40
0.0
 40
0.0
 40
0.0
 40
0.1676248277
 40
0.3171576827
 40
0.4562893429
 40
0.5918233207
 40
0.7276155638
 40
0.864047256
 40
1.0
 40
1.0
 40
1.0
 40
1.0
 10
28.6272975163
 20
30.0827078573
 30
0.0
 10
28.6120403835
 20
30.0520332588
 30
0.0
 10
28.5829595006
 20
29.9941007089
 30
0.0
 10
28.5406143527
 20
29.9110111478
 30
0.0
 10
28.5008782789
 20
29.8339545744
 30
0.0
 10
28.4621295799
 20
29.7595494404
 30
0.0
 10
28.4233766698
 20
29.6857692905
 30
0.0
 10
28.3843521543
 20
29.6120356292
 30
0.0
 10
28.358171403
 20
29.5629054619
 30
0.0
 10
28.3450726247
 20
29.5384003856
 30
0.0
 11
28.6272975163
 21
30.0827078573
 31
0.0
 11
28.5812021728
 21
29.9908459002
 31
0.0
 11
28.5395816954
 21
29.9091516729
 31
0.0
 11
28.5004898034
 21
29.8333277351
 31
0.0
 11
28.4621109415
 21
29.7596187634
 31
0.0
 11
28.4233989743
 21
29.6859052822
 31
0.0
 11
28.3842715128
 21
29.6119676199
 31
0.0
 11
28.3450726247
 21
29.5384003856
 31
0.0
  0
LINE
  5
44E
100
AcDbEntity
  8
0
100
AcDbLine
 62
7
  6
CONTINUOUS
 10
27.437866464
 20
31.2099523775
 11
27.4802765161
 21
31.2297288505
  0
LINE
  5
44F
100
AcDbEntity
  8
0
100
AcDbLine
 62
7
  6
CONTINUOUS
 10
27.4802765161
 20
31.2297288505
 11
27.5000529828
 21
31.272138897
  0
LINE
  5
450
100
AcDbEntity
  8
0
100
AcDbLine
 62
7
  6
CONTINUOUS
 10
27.5177101929
 20
31.3100053666
 11
27.761175259
 21
31.83211202
  0
LINE
  5
451
100
AcDbEntity
  8
0
100
AcDbLine
 62
7
  6
CONTINUOUS
 10
28.2388260178
 20
31.8321081801
 11
28.482289287
 21
31.3100053666
  0
LINE
  5
452
100
AcDbEntity
  8
0
100
AcDbLine
 62
7
  6
CONTINUOUS
 10
28.4999464956
 20
31.2721393609
 11
28.519717435
 21
31.2297321489
  0
LINE
  5
453
100
AcDbEntity
  8
0
100
AcDbLine
 62
7
  6
CONTINUOUS
 10
27.4802732178
 20
30.1902879317
 11
27.4378661378
 21
30.2100587225
  0
LINE
  5
454
100
AcDbEntity
  8
0
100
AcDbLine
 62
7
  6
CONTINUOUS
 10
28.562133536
 20
30.2100583557
 11
28.5197234839
 21
30.1902818828
  0
LINE
  5
455
100
AcDbEntity
  8
0
100
AcDbLine
 62
7
  6
CONTINUOUS
 10
28.6000000064
 20
30.1100053666
 11
28.6272975163
 21
30.0827078573
  0
LINE
  5
456
100
AcDbEntity
  8
0
100
AcDbLine
 62
7
  6
CONTINUOUS
 10
28.5197234842
 20
30.1902818824
 11
28.5204046482
 21
30.1896007184
  0
SPLINE
  5
457
100
AcDbEntity
  8
0
100
AcDbSpline
 62
7
  6
CONTINUOUS
 70
0
 71
3
 72
9
 73
5
 74
3
 42
0.0000001
 43
0.0000001
 44
0.0000000001
 12
-0.1041126532
 22
0.0452995647
 32
0.0
 13
-0.1041126532
 23
0.0452995647
 33
0.0
 40
0.0
 40
0.0
 40
0.0
 40
0.0
 40
0.4996939835
 40
1.0
 40
1.0
 40
1.0
 40
1.0
 10
28.3324714129
 20
29.520198671
 30
0.0
 10
28.3151299241
 20
29.5277439777
 30
0.0
 10
28.2805308434
 20
29.5430886057
 30
0.0
 10
28.245510957
 20
29.5574535415
 30
0.0
 10
28.2281482281
 20
29.5650080897
 30
0.0
 11
28.3324714129
 21
29.520198671
 31
0.0
 11
28.2804469465
 21
29.5428345909
 31
0.0
 11
28.2281482281
 21
29.5650080897
 31
0.0
  0
SPLINE
  5
458
100
AcDbEntity
  8
0
100
AcDbSpline
 62
7
  6
CONTINUOUS
 70
0
 71
3
 72
9
 73
5
 74
3
 42
0.0000001
 43
0.0000001
 44
0.0000000001
 12
-0.0010793166
 22
-0.5269772644
 32
0.0
 13
0.0000227564
 23
-0.5269783692
 33
0.0
 40
0.0
 40
0.0
 40
0.0
 40
0.0
 40
0.4866884719
 40
1.0
 40
1.0
 40
1.0
 40
1.0
 10
28.2283532711
 20
29.5649657835
 30
0.0
 10
28.2281781741
 20
29.4794745303
 30
0.0
 10
28.2279940804
 20
29.3038151046
 30
0.0
 10
28.2279414059
 20
29.1281556547
 30
0.0
 10
28.2279452996
 20
29.0379876307
 30
0.0
 11
28.2283532711
 21
29.5649657835
 31
0.0
 11
28.2280301102
 21
29.3084916896
 31
0.0
 11
28.2279452996
 21
29.0379876307
 31
0.0
  0
LINE
  5
459
100
AcDbEntity
  8
TRASH
100
AcDbLine
 62
7
  6
CONTINUOUS
 10
28.2388223825
 20
29.5878990729
 11
28.2281482281
 21
29.5650080897
  0
LINE
  5
45A
100
AcDbEntity
  8
0
100
AcDbLine
 62
7
  6
CONTINUOUS
 10
27.7718072551
 20
29.5649974425
 11
27.7718605073
 21
29.0380141164
  0
LINE
  5
45B
100
AcDbEntity
  8
0
100
AcDbLine
 62
7
  6
CONTINUOUS
 10
27.7718517819
 20
29.5650080965
 11
27.6676955411
 21
29.5199576186
  0
LINE
  5
45C
100
AcDbEntity
  8
TRASH
100
AcDbLine
 62
7
  6
CONTINUOUS
 10
27.7611776274
 20
29.5878990796
 11
27.7718517819
 21
29.5650080965
  0
LINE
  5
45D
100
AcDbEntity
  8
0
100
AcDbLine
 62
7
  6
CONTINUOUS
 10
-28.5999998582
 20
-40.8899946334
 11
-28.6272972341
 21
-40.91729204
  0
LINE
  5
45E
100
AcDbEntity
  8
0
100
AcDbLine
 62
7
  6
CONTINUOUS
 10
-28.5197234842
 20
-40.8097181176
 11
-28.5204046481
 21
-40.8103992816
  0
LINE
  5
45F
100
AcDbEntity
  8
0
100
AcDbLine
 62
7
  6
CONTINUOUS
 10
-28.6272975163
 20
-39.6626971241
 11
-28.6000000064
 21
-39.6899946334
  0
LINE
  5
460
100
AcDbEntity
  8
0
100
AcDbLine
 62
7
  6
CONTINUOUS
 10
-28.5204046482
 20
-39.7695899852
 11
-28.5197234842
 21
-39.7702711492
  0
LINE
  5
461
100
AcDbEntity
  8
0
100
AcDbLine
 62
7
  6
CONTINUOUS
 10
-27.4802732178
 20
-39.7702771984
 11
-27.4378661378
 21
-39.7900479892
  0
SPLINE
  5
462
100
AcDbEntity
  8
0
100
AcDbSpline
 62
7
  6
CONTINUOUS
 70
0
 71
3
 72
9
 73
5
 74
3
 42
0.0000001
 43
0.0000001
 44
0.0000000001
 12
0.1041126532
 22
-0.0452995647
 32
0.0
 13
0.1041126532
 23
-0.0452995647
 33
0.0
 40
0.0
 40
0.0
 40
0.0
 40
0.0
 40
0.4996939835
 40
1.0
 40
1.0
 40
1.0
 40
1.0
 10
-28.3324714129
 20
-39.1001879378
 30
0.0
 10
-28.3151299241
 20
-39.1077332444
 30
0.0
 10
-28.2805308434
 20
-39.1230778725
 30
0.0
 10
-28.245510957
 20
-39.1374428083
 30
0.0
 10
-28.2281482281
 20
-39.1449973565
 30
0.0
 11
-28.3324714129
 21
-39.1001879378
 31
0.0
 11
-28.2804469465
 21
-39.1228238577
 31
0.0
 11
-28.2281482281
 21
-39.1449973565
 31
0.0
  0
SPLINE
  5
463
100
AcDbEntity
  8
0
100
AcDbSpline
 62
7
  6
CONTINUOUS
 70
0
 71
3
 72
9
 73
5
 74
3
 42
0.0000001
 43
0.0000001
 44
0.0000000001
 12
0.0010793166
 22
0.5269772644
 32
0.0
 13
-0.0000227564
 23
0.5269783692
 33
0.0
 40
0.0
 40
0.0
 40
0.0
 40
0.0
 40
0.4866884719
 40
1.0
 40
1.0
 40
1.0
 40
1.0
 10
-28.2283532711
 20
-39.1449550503
 30
0.0
 10
-28.2281781741
 20
-39.0594637971
 30
0.0
 10
-28.2279940804
 20
-38.8838043714
 30
0.0
 10
-28.2279414059
 20
-38.7081449214
 30
0.0
 10
-28.2279452996
 20
-38.6179768974
 30
0.0
 11
-28.2283532711
 21
-39.1449550503
 31
0.0
 11
-28.2280301102
 21
-38.8884809564
 31
0.0
 11
-28.2279452996
 21
-38.6179768974
 31
0.0
  0
LINE
  5
464
100
AcDbEntity
  8
TRASH
100
AcDbLine
 62
7
  6
CONTINUOUS
 10
-28.2388223825
 20
-39.1678883397
 11
-28.2281482281
 21
-39.1449973565
  0
LINE
  5
465
100
AcDbEntity
  8
TRASH
100
AcDbLine
 62
7
  6
CONTINUOUS
 10
-27.7718517819
 20
-39.1449973633
 11
-27.7611776274
 21
-39.1678883464
  0
LINE
  5
466
100
AcDbEntity
  8
0
100
AcDbLine
 62
7
  6
CONTINUOUS
 10
-28.4999464956
 20
-40.8521286277
 11
-28.519717435
 21
-40.8097214156
  0
LINE
  5
467
100
AcDbEntity
  8
0
100
AcDbLine
 62
7
  6
CONTINUOUS
 10
-27.7718605079
 20
-38.6180033831
 11
-27.77180726
 21
-39.1449867102
  0
LINE
  5
468
100
AcDbEntity
  8
0
100
AcDbLine
 62
7
  6
CONTINUOUS
 10
-27.7718517819
 20
-39.1449973633
 11
-27.6676955419
 21
-39.0999468843
  0
LINE
  5
469
100
AcDbEntity
  8
0
100
AcDbLine
 62
7
  6
CONTINUOUS
 10
-28.2388260178
 20
-41.4120974469
 11
-28.482289287
 21
-40.8899946334
  0
LINE
  5
46A
100
AcDbEntity
  8
0
100
AcDbLine
 62
7
  6
CONTINUOUS
 10
-27.4000001418
 20
-39.6899946334
 11
-27.3727027659
 21
-39.6626972268
  0
LINE
  5
46B
100
AcDbEntity
  8
0
100
AcDbLine
 62
7
  6
CONTINUOUS
 10
-27.5177101929
 20
-40.8899946334
 11
-27.761175259
 21
-41.4121012867
  0
LINE
  5
46C
100
AcDbEntity
  8
0
100
AcDbLine
 62
7
  6
CONTINUOUS
 10
-27.4802765161
 20
-40.8097181172
 11
-27.5000529828
 21
-40.8521281637
  0
LINE
  5
46D
100
AcDbEntity
  8
0
100
AcDbLine
 62
7
  6
CONTINUOUS
 10
-28.3324714129
 20
-39.1001879378
 11
-28.3450726247
 21
-39.1183896524
  0
SPLINE
  5
46E
100
AcDbEntity
  8
0
100
AcDbSpline
 62
7
  6
CONTINUOUS
 70
0
 71
3
 72
14
 73
10
 74
8
 42
0.0000001
 43
0.0000001
 44
0.0000000001
 12
0.2730585867
 22
0.5489866675
 32
0.0
 13
0.289044073
 23
0.540741044
 33
0.0
 40
0.0
 40
0.0
 40
0.0
 40
0.0
 40
0.1676248277
 40
0.3171576827
 40
0.4562893429
 40
0.5918233207
 40
0.7276155638
 40
0.864047256
 40
1.0
 40
1.0
 40
1.0
 40
1.0
 10
-28.6272975163
 20
-39.6626971241
 30
0.0
 10
-28.6120403835
 20
-39.6320225256
 30
0.0
 10
-28.5829595006
 20
-39.5740899757
 30
0.0
 10
-28.5406143527
 20
-39.4910004146
 30
0.0
 10
-28.5008782789
 20
-39.4139438412
 30
0.0
 10
-28.4621295799
 20
-39.3395387071
 30
0.0
 10
-28.4233766698
 20
-39.2657585573
 30
0.0
 10
-28.3843521543
 20
-39.192024896
 30
0.0
 10
-28.358171403
 20
-39.1428947287
 30
0.0
 10
-28.3450726247
 20
-39.1183896524
 30
0.0
 11
-28.6272975163
 21
-39.6626971241
 31
0.0
 11
-28.5812021728
 21
-39.570835167
 31
0.0
 11
-28.5395816954
 21
-39.4891409397
 31
0.0
 11
-28.5004898034
 21
-39.4133170018
 31
0.0
 11
-28.4621109415
 21
-39.3396080302
 31
0.0
 11
-28.4233989743
 21
-39.265894549
 31
0.0
 11
-28.3842715128
 21
-39.1919568867
 31
0.0
 11
-28.3450726247
 21
-39.1183896524
 31
0.0
  0
LINE
  5
46F
100
AcDbEntity
  8
0
100
AcDbLine
 62
7
  6
CONTINUOUS
 10
-27.4802765158
 20
-39.7702711492
 11
-27.4795953519
 21
-39.7695899852
  0
SPLINE
  5
470
100
AcDbEntity
  8
0
100
AcDbSpline
 62
7
  6
CONTINUOUS
 70
0
 71
3
 72
14
 73
10
 74
8
 42
0.0000001
 43
0.0000001
 44
0.0000000001
 12
0.2890440051
 22
-0.5407409237
 32
0.0
 13
0.2730624198
 23
-0.5489846067
 33
0.0
 40
0.0
 40
0.0
 40
0.0
 40
0.0
 40
0.1360891828
 40
0.2724205737
 40
0.4077679873
 40
0.5429185838
 40
0.6821509024
 40
0.8319710672
 40
1.0
 40
1.0
 40
1.0
 40
1.0
 10
-27.6549273261
 20
-39.1183897444
 30
0.0
 10
-27.6418154053
 20
-39.1429194079
 30
0.0
 10
-27.615631394
 20
-39.1920561929
 30
0.0
 10
-27.5766458475
 20
-39.2657159507
 30
0.0
 10
-27.5379810709
 20
-39.3393280136
 30
0.0
 10
-27.4992997455
 20
-39.4136005577
 30
0.0
 10
-27.459561889
 20
-39.4906572415
 30
0.0
 10
-27.4171401248
 20
-39.573889435
 30
0.0
 10
-27.3879968949
 20
-39.6319487943
 30
0.0
 10
-27.3727027659
 20
-39.6626972268
 30
0.0
 11
-27.6549273261
 21
-39.1183897444
 31
0.0
 11
-27.6156892747
 21
-39.1920308813
 31
0.0
 11
-27.576590623
 21
-39.2659141885
 31
0.0
 11
-27.5380052001
 21
-39.3393860362
 31
0.0
 11
-27.4997337038
 21
-39.4128858656
 31
0.0
 11
-27.460611828
 21
-39.4887637613
 31
0.0
 11
-27.4189092595
 21
-39.5706138498
 31
0.0
 11
-27.3727027659
 21
-39.6626972268
 31
0.0
  0
LINE
  5
471
100
AcDbEntity
  8
0
100
AcDbLine
 62
7
  6
CONTINUOUS
 10
-27.6676955419
 20
-39.0999468843
 11
-27.6549273261
 21
-39.1183897444
  0
SPLINE
  5
472
100
AcDbEntity
  8
0
100
AcDbSpline
 62
7
  6
CONTINUOUS
 70
0
 71
3
 72
14
 73
10
 74
8
 42
0.0000001
 43
0.0000001
 44
0.0000000001
 12
-0.2890440051
 22
0.5407409237
 32
0.0
 13
-0.2730624198
 23
0.5489846067
 33
0.0
 40
0.0
 40
0.0
 40
0.0
 40
0.0
 40
0.1360891828
 40
0.2724205737
 40
0.4077679873
 40
0.5429185838
 40
0.6821509024
 40
0.8319710672
 40
1.0
 40
1.0
 40
1.0
 40
1.0
 10
-28.3450726739
 20
-41.4615995223
 30
0.0
 10
-28.3581845947
 20
-41.4370698589
 30
0.0
 10
-28.384368606
 20
-41.3879330739
 30
0.0
 10
-28.4233541525
 20
-41.3142733161
 30
0.0
 10
-28.4620189291
 20
-41.2406612532
 30
0.0
 10
-28.5007002545
 20
-41.1663887091
 30
0.0
 10
-28.540438111
 20
-41.0893320252
 30
0.0
 10
-28.5828598752
 20
-41.0060998318
 30
0.0
 10
-28.6120031051
 20
-40.9480404725
 30
0.0
 10
-28.6272972341
 20
-40.91729204
 30
0.0
 11
-28.3450726739
 21
-41.4615995223
 31
0.0
 11
-28.3843107253
 21
-41.3879583854
 31
0.0
 11
-28.423409377
 21
-41.3140750783
 31
0.0
 11
-28.4619947999
 21
-41.2406032306
 31
0.0
 11
-28.5002662962
 21
-41.1671034012
 31
0.0
 11
-28.539388172
 21
-41.0912255055
 31
0.0
 11
-28.5810907405
 21
-41.0093754169
 31
0.0
 11
-28.6272972341
 21
-40.91729204
 31
0.0
  0
LINE
  5
473
100
AcDbEntity
  8
0
100
AcDbLine
 62
7
  6
CONTINUOUS
 10
-28.3450726739
 20
-41.4615995223
 11
-28.3323044589
 21
-41.4800423814
  0
LINE
  5
474
100
AcDbEntity
  8
0
100
AcDbLine
 62
7
  6
CONTINUOUS
 10
-27.6549273753
 20
-41.4615996144
 11
-27.6675285871
 21
-41.479801329
  0
SPLINE
  5
475
100
AcDbEntity
  8
0
100
AcDbSpline
 62
7
  6
CONTINUOUS
 70
0
 71
3
 72
14
 73
10
 74
8
 42
0.0000001
 43
0.0000001
 44
0.0000000001
 12
-0.2730585867
 22
-0.5489866675
 32
0.0
 13
-0.289044073
 23
-0.540741044
 33
0.0
 40
0.0
 40
0.0
 40
0.0
 40
0.0
 40
0.1676248277
 40
0.3171576827
 40
0.4562893429
 40
0.5918233207
 40
0.7276155638
 40
0.864047256
 40
1.0
 40
1.0
 40
1.0
 40
1.0
 10
-27.3727024837
 20
-40.9172921427
 30
0.0
 10
-27.3879596165
 20
-40.9479667412
 30
0.0
 10
-27.4170404994
 20
-41.0058992911
 30
0.0
 10
-27.4593856473
 20
-41.0889888522
 30
0.0
 10
-27.4991217211
 20
-41.1660454256
 30
0.0
 10
-27.5378704201
 20
-41.2404505596
 30
0.0
 10
-27.5766233302
 20
-41.3142307095
 30
0.0
 10
-27.6156478457
 20
-41.3879643708
 30
0.0
 10
-27.641828597
 20
-41.4370945381
 30
0.0
 10
-27.6549273753
 20
-41.4615996144
 30
0.0
 11
-27.3727024837
 21
-40.9172921427
 31
0.0
 11
-27.4187978272
 21
-41.0091540998
 31
0.0
 11
-27.4604183046
 21
-41.0908483271
 31
0.0
 11
-27.4995101966
 21
-41.1666722649
 31
0.0
 11
-27.5378890585
 21
-41.2403812366
 31
0.0
 11
-27.5766010257
 21
-41.3140947178
 31
0.0
 11
-27.6157284872
 21
-41.3880323801
 31
0.0
 11
-27.6549273753
 21
-41.4615996144
 31
0.0
  0
LINE
  5
476
100
AcDbEntity
  8
0
100
AcDbLine
 62
7
  6
CONTINUOUS
 10
-28.562133536
 20
-39.7900476225
 11
-28.5197234839
 21
-39.7702711495
  0
LINE
  5
477
100
AcDbEntity
  8
0
100
AcDbLine
 62
7
  6
CONTINUOUS
 10
-28.5197234839
 20
-39.7702711495
 11
-28.4999470172
 21
-39.727861103
  0
LINE
  5
478
100
AcDbEntity
  8
0
100
AcDbLine
 62
7
  6
CONTINUOUS
 10
-28.4822898071
 20
-39.6899946334
 11
-28.238824741
 21
-39.16788798
  0
LINE
  5
479
100
AcDbEntity
  8
0
100
AcDbLine
 62
7
  6
CONTINUOUS
 10
-27.7611739822
 20
-39.1678918199
 11
-27.517710713
 21
-39.6899946334
  0
LINE
  5
47A
100
AcDbEntity
  8
0
100
AcDbLine
 62
7
  6
CONTINUOUS
 10
-27.5000535044
 20
-39.7278606391
 11
-27.480282565
 21
-39.7702678511
  0
LINE
  5
47B
100
AcDbEntity
  8
0
100
AcDbLine
 62
7
  6
CONTINUOUS
 10
-28.5197267822
 20
-40.8097120683
 11
-28.5621338622
 21
-40.7899412775
  0
LINE
  5
47C
100
AcDbEntity
  8
0
100
AcDbLine
 62
7
  6
CONTINUOUS
 10
-27.437866464
 20
-40.7899416443
 11
-27.4802765161
 21
-40.8097181172
  0
LINE
  5
47D
100
AcDbEntity
  8
0
100
AcDbLine
 62
7
  6
CONTINUOUS
 10
-27.3999999936
 20
-40.8899946334
 11
-27.3727024837
 21
-40.9172921427
  0
LINE
  5
47E
100
AcDbEntity
  8
0
100
AcDbLine
 62
7
  6
CONTINUOUS
 10
-27.4802765158
 20
-40.8097181176
 11
-27.4795953518
 21
-40.8103992816
  0
SPLINE
  5
47F
100
AcDbEntity
  8
0
100
AcDbSpline
 62
7
  6
CONTINUOUS
 70
0
 71
3
 72
9
 73
5
 74
3
 42
0.0000001
 43
0.0000001
 44
0.0000000001
 12
-0.1041126532
 22
0.0452995647
 32
0.0
 13
-0.1041126532
 23
0.0452995647
 33
0.0
 40
0.0
 40
0.0
 40
0.0
 40
0.0
 40
0.4996939835
 40
1.0
 40
1.0
 40
1.0
 40
1.0
 10
-27.6675285871
 20
-41.479801329
 30
0.0
 10
-27.6848700759
 20
-41.4722560223
 30
0.0
 10
-27.7194691566
 20
-41.4569113943
 30
0.0
 10
-27.754489043
 20
-41.4425464585
 30
0.0
 10
-27.7718517719
 20
-41.4349919103
 30
0.0
 11
-27.6675285871
 21
-41.479801329
 31
0.0
 11
-27.7195530535
 21
-41.4571654091
 31
0.0
 11
-27.7718517719
 21
-41.4349919103
 31
0.0
  0
SPLINE
  5
480
100
AcDbEntity
  8
0
100
AcDbSpline
 62
7
  6
CONTINUOUS
 70
0
 71
3
 72
9
 73
5
 74
3
 42
0.0000001
 43
0.0000001
 44
0.0000000001
 12
-0.0010793166
 22
-0.5269772644
 32
0.0
 13
0.0000227564
 23
-0.5269783692
 33
0.0
 40
0.0
 40
0.0
 40
0.0
 40
0.0
 40
0.4866884719
 40
1.0
 40
1.0
 40
1.0
 40
1.0
 10
-27.7716467289
 20
-41.4350342165
 30
0.0
 10
-27.7718218259
 20
-41.5205254697
 30
0.0
 10
-27.7720059196
 20
-41.6961848954
 30
0.0
 10
-27.7720585941
 20
-41.8718443453
 30
0.0
 10
-27.7720547004
 20
-41.9620123693
 30
0.0
 11
-27.7716467289
 21
-41.4350342165
 31
0.0
 11
-27.7719698898
 21
-41.6915083104
 31
0.0
 11
-27.7720547004
 21
-41.9620123693
 31
0.0
  0
LINE
  5
481
100
AcDbEntity
  8
TRASH
100
AcDbLine
 62
7
  6
CONTINUOUS
 10
-27.7611776175
 20
-41.4121009271
 11
-27.7718517719
 21
-41.4349919103
  0
LINE
  5
482
100
AcDbEntity
  8
0
100
AcDbLine
 62
7
  6
CONTINUOUS
 10
-28.2281927449
 20
-41.4350025575
 11
-28.2281394927
 21
-41.9619858836
  0
LINE
  5
483
100
AcDbEntity
  8
0
100
AcDbLine
 62
7
  6
CONTINUOUS
 10
-28.2281482181
 20
-41.4349919035
 11
-28.3323044589
 21
-41.4800423814
  0
LINE
  5
484
100
AcDbEntity
  8
TRASH
100
AcDbLine
 62
7
  6
CONTINUOUS
 10
-28.2388223726
 20
-41.4121009204
 11
-28.2281482181
 21
-41.4349919035
  0
SPLINE
  5
485
100
AcDbEntity
  8
DRAFT
100
AcDbSpline
 62
7
  6
CONTINUOUS
 70
0
 71
3
 72
27
 73
23
 74
21
 42
0.0000001
 43
0.0000001
 44
0.0000000001
 12
0.0023859146
 22
-10.3603583326
 32
0.0
 13
0.0092808682
 23
10.3603544504
 33
0.0
 40
0.0
 40
0.0
 40
0.0
 40
0.0
 40
0.0612866642
 40
0.1188965616
 40
0.1773034237
 40
0.2411727133
 40
0.3136676847
 40
0.391132077
 40
0.4673401847
 40
0.5386417388
 40
0.6019174245
 40
0.6579400412
 40
0.7078036559
 40
0.752471729
 40
0.7915371332
 40
0.8257356747
 40
0.8565483007
 40
0.8854789283
 40
0.914071646
 40
0.9428459978
 40
0.9715540524
 40
1.0
 40
1.0
 40
1.0
 40
1.0
 10
31.2989670886
 20
30.7100053666
 30
0.0
 10
31.2990158301
 20
30.498354766
 30
0.0
 10
31.2593721893
 20
30.0866096819
 30
0.0
 10
31.0875434757
 20
29.495633732
 30
0.0
 10
30.8073803706
 20
28.9372267413
 30
0.0
 10
30.3937691824
 20
28.4011109148
 30
0.0
 10
29.8237475105
 20
27.9215675548
 30
0.0
 10
29.1181038541
 20
27.5688457878
 30
0.0
 10
28.3528848879
 20
27.3962818143
 30
0.0
 10
27.6188288155
 20
27.4037640175
 30
0.0
 10
26.972482672
 20
27.5494888734
 30
0.0
 10
26.4337500302
 20
27.7831305574
 30
0.0
 10
25.9958023997
 20
28.0672903827
 30
0.0
 10
25.649042116
 20
28.3739271256
 30
0.0
 10
25.3812969696
 20
28.6821746798
 30
0.0
 10
25.1779249159
 20
28.9793632908
 30
0.0
 10
25.02271065
 20
29.2648226537
 30
0.0
 10
24.9025712031
 20
29.5456891453
 30
0.0
 10
24.8104381833
 20
29.8295349537
 30
0.0
 10
24.7443851381
 20
30.1197805907
 30
0.0
 10
24.7048316665
 20
30.4142691787
 30
0.0
 10
24.6961848645
 20
30.6117686665
 30
0.0
 10
24.6962728655
 20
30.7100053666
 30
0.0
 11
31.2989670886
 21
30.7100053666
 31
0.0
 11
31.2380641105
 21
30.0779811272
 31
0.0
 11
31.0714855658
 21
29.5048384847
 31
0.0
 11
30.8000935105
 21
28.9639949114
 31
0.0
 11
30.3958664101
 21
28.4401066469
 31
0.0
 11
29.821076271
 21
27.9566520995
 31
0.0
 11
29.1031974459
 21
27.5978335451
 31
0.0
 11
28.3330022445
 21
27.4241153442
 31
0.0
 11
27.5943303991
 21
27.4315906279
 31
0.0
 11
26.95481373
 21
27.5757286324
 31
0.0
 11
26.4223106705
 21
27.8066428278
 31
0.0
 11
25.9889304123
 21
28.0878228524
 31
0.0
 11
25.6422497991
 21
28.3943768283
 31
0.0
 11
25.3768356025
 21
28.6999303743
 31
0.0
 11
25.1767383767
 21
28.9923274958
 31
0.0
 11
25.0242448348
 21
29.2727796673
 31
0.0
 11
24.9063662867
 21
29.5483585591
 31
0.0
 11
24.814910708
 21
29.8301183316
 31
0.0
 11
24.7487573828
 21
30.1207983307
 31
0.0
 11
24.7091670119
 21
30.4155773553
 31
0.0
 11
24.6962728655
 21
30.7100053666
 31
0.0
  0
SPLINE
  5
486
100
AcDbEntity
  8
RACCORDO
100
AcDbSpline
 62
253
  6
CONTINUOUS
 70
0
 71
3
 72
29
 73
25
 74
23
 42
0.0000001
 43
0.0000001
 44
0.0000000001
 12
-0.0000011874
 22
-35.4999998931
 32
0.0
 13
-0.022438275
 23
-35.4999928019
 33
0.0
 40
0.0
 40
0.0
 40
0.0
 40
0.0
 40
0.0236519394
 40
0.0489884904
 40
0.0759942845
 40
0.1048699862
 40
0.1359737019
 40
0.1696582953
 40
0.2059464324
 40
0.2446354466
 40
0.2861642011
 40
0.3310630638
 40
0.3796807091
 40
0.4319355187
 40
0.4896530287
 40
0.5535179204
 40
0.6211308599
 40
0.6893106468
 40
0.7543510377
 40
0.8134383663
 40
0.8668348384
 40
0.9152595694
 40
0.9594616235
 40
1.0
 40
1.0
 40
1.0
 40
1.0
 10
-33.798661025
 20
-4.7899949959
 30
0.0
 10
-33.7986610343
 20
-5.0698762776
 30
0.0
 10
-33.798661133
 20
-5.6495734121
 30
0.0
 10
-33.7986614786
 20
-6.5488391096
 30
0.0
 10
-33.7986620337
 20
-7.5099193277
 30
0.0
 10
-33.798662819
 20
-8.5392443273
 30
0.0
 10
-33.7986638728
 20
-9.6476017851
 30
0.0
 10
-33.7986652468
 20
-10.8436730618
 30
0.0
 10
-33.7986670179
 20
-12.1295037037
 30
0.0
 10
-33.7986693288
 20
-13.5081569173
 30
0.0
 10
-33.7986723642
 20
-14.9887037171
 30
0.0
 10
-33.7986764053
 20
-16.5867393184
 30
0.0
 10
-33.7986817918
 20
-18.3116999051
 30
0.0
 10
-33.7986893973
 20
-20.1883478177
 30
0.0
 10
-33.7987010154
 20
-22.2454214789
 30
0.0
 10
-33.7987193546
 20
-24.4842330101
 30
0.0
 10
-33.7987484465
 20
-26.8468481508
 30
0.0
 10
-33.7987980764
 20
-29.2233733638
 30
0.0
 10
-33.7988771687
 20
-31.4990121816
 30
0.0
 10
-33.799002875
 20
-33.5997151053
 30
0.0
 10
-33.7991955695
 20
-35.5037993821
 30
0.0
 10
-33.7994862595
 20
-37.2317412319
 30
0.0
 10
-33.7999297541
 20
-38.8075289137
 30
0.0
 10
-33.8003963997
 20
-39.8102905779
 30
0.0
 10
-33.8006996035
 20
-40.2899946022
 30
0.0
 11
-33.798661025
 21
-4.7899949959
 31
0.0
 11
-33.7986611586
 21
-5.6296388409
 31
0.0
 11
-33.798661499
 21
-6.5290863994
 31
0.0
 11
-33.7986620496
 21
-7.4877920886
 31
0.0
 11
-33.7986628298
 21
-8.5128794951
 31
0.0
 11
-33.7986638787
 21
-9.6170613982
 31
0.0
 11
-33.7986652553
 21
-10.8128644621
 31
0.0
 11
-33.7986670409
 21
-12.101093325
 31
0.0
 11
-33.7986693551
 21
-13.4745533242
 31
0.0
 11
-33.7986723954
 21
-14.9488241028
 31
0.0
 11
-33.7986764455
 21
-16.5427337242
 31
0.0
 11
-33.7986819153
 21
-18.2686601282
 31
0.0
 11
-33.798689604
 21
-20.1237058629
 31
0.0
 11
-33.7987014292
 21
-22.1726774618
 31
0.0
 11
-33.7987205044
 21
-24.439881112
 31
0.0
 11
-33.798751778
 21
-26.8401404565
 31
0.0
 11
-33.7988045803
 21
-29.2605228834
 31
0.0
 11
-33.7988897329
 21
-31.56945675
 31
0.0
 11
-33.7990220959
 21
-33.6670569074
 31
0.0
 11
-33.7992237336
 21
-35.5626316482
 31
0.0
 11
-33.7995285817
 21
-37.2817095658
 31
0.0
 11
-33.7999921349
 21
-38.8508824159
 31
0.0
 11
-33.8006996035
 21
-40.2899946022
 31
0.0
  0
SPLINE
  5
487
100
AcDbEntity
  8
RACCORDO
100
AcDbSpline
 62
253
  6
CONTINUOUS
 70
0
 71
3
 72
29
 73
25
 74
23
 42
0.0000001
 43
0.0000001
 44
0.0000000001
 12
-0.0003969987
 22
-35.5701254942
 32
0.0
 13
0.5497850572
 23
-35.5658764017
 33
0.0
 40
0.0
 40
0.0
 40
0.0
 40
0.0
 40
0.0236059557
 40
0.0488930771
 40
0.0758460875
 40
0.1046652906
 40
0.1357081103
 40
0.1693267549
 40
0.2055439538
 40
0.2441574861
 40
0.2856053933
 40
0.3304170865
 40
0.3789408343
 40
0.4310960513
 40
0.4887055766
 40
0.5524543391
 40
0.619953292
 40
0.6880343349
 40
0.7530076045
 40
0.8120840055
 40
0.8655446557
 40
0.9141581296
 40
0.9587413721
 40
1.0
 40
1.0
 40
1.0
 40
1.0
 10
-32.3038113997
 20
-4.7899906581
 30
0.0
 10
-32.3038145235
 20
-5.0698795938
 30
0.0
 10
-32.303815673
 20
-5.6495905568
 30
0.0
 10
-32.3038070653
 20
-6.5488755071
 30
0.0
 10
-32.3037900313
 20
-7.5099724116
 30
0.0
 10
-32.3037657015
 20
-8.5393129535
 30
0.0
 10
-32.3037346301
 20
-9.6476859768
 30
0.0
 10
-32.3036973867
 20
-10.8437748798
 30
0.0
 10
-32.3036539122
 20
-12.1296275141
 30
0.0
 10
-32.3036047127
 20
-13.5083094329
 30
0.0
 10
-32.30355032
 20
-14.9888937654
 30
0.0
 10
-32.3034909712
 20
-16.586980635
 30
0.0
 10
-32.3034281888
 20
-18.3120209558
 30
0.0
 10
-32.3033501109
 20
-20.1888014404
 30
0.0
 10
-32.3032480704
 20
-22.2461004851
 30
0.0
 10
-32.3031267775
 20
-24.4853257317
 30
0.0
 10
-32.3028954496
 20
-26.8487087058
 30
0.0
 10
-32.3024441054
 20
-29.2266102679
 30
0.0
 10
-32.3017044453
 20
-31.5046480432
 30
0.0
 10
-32.300092414
 20
-33.6093356525
 30
0.0
 10
-32.2974763575
 20
-35.5200488134
 30
0.0
 10
-32.2925067353
 20
-37.2589168367
 30
0.0
 10
-32.2839264919
 20
-38.8530927486
 30
0.0
 10
-32.2733160123
 20
-39.8708510527
 30
0.0
 10
-32.2657548866
 20
-40.3599841396
 30
0.0
 11
-32.3038113997
 21
-4.7899906581
 31
0.0
 11
-32.3038140721
 21
-5.6296574652
 31
0.0
 11
-32.3038060713
 21
-6.5291235471
 31
0.0
 11
-32.3037895103
 21
-7.4878455087
 31
0.0
 11
-32.3037656014
 21
-8.5129481787
 31
0.0
 11
-32.3037349378
 21
-9.6171451729
 31
0.0
 11
-32.3036978333
 21
-10.8129645787
 31
0.0
 11
-32.3036544829
 21
-12.1012148877
 31
0.0
 11
-32.3036056798
 21
-13.4747030758
 31
0.0
 11
-32.3035516908
 21
-14.9490103351
 31
0.0
 11
-32.3034927952
 21
-16.5429678852
 31
0.0
 11
-32.3034283119
 21
-18.2689636848
 31
0.0
 11
-32.3033504515
 21
-20.124131297
 31
0.0
 11
-32.3032501996
 21
-22.1733093386
 31
0.0
 11
-32.303113138
 21
-24.440860818
 31
0.0
 11
-32.3028594975
 21
-26.8418070276
 31
0.0
 11
-32.3023813995
 21
-29.2634582199
 31
0.0
 11
-32.3015037087
 21
-31.5745654091
 31
0.0
 11
-32.2998196075
 21
-33.6759197321
 31
0.0
 11
-32.2969034114
 21
-35.577519532
 31
0.0
 11
-32.2916112345
 21
-37.3066988009
 31
0.0
 11
-32.2823298939
 21
-38.8925031702
 31
0.0
 11
-32.2657548866
 21
-40.3599841396
 31
0.0
  0
SPLINE
  5
488
100
AcDbEntity
  8
RACCORDO
100
AcDbSpline
 62
253
  6
CONTINUOUS
 70
0
 71
3
 72
12
 73
8
 74
6
 42
0.0000001
 43
0.0000001
 44
0.0000000001
 12
-1.5383882888
 22
-0.0142507736
 32
0.0
 13
-0.6686759814
 23
-1.3855374566
 33
0.0
 40
0.0
 40
0.0
 40
0.0
 40
0.0
 40
0.3192441638
 40
0.5955794545
 40
0.8099534682
 40
0.947681358
 40
1.0
 40
1.0
 40
1.0
 40
1.0
 10
-32.265749108
 20
30.7799934076
 30
0.0
 10
-32.4294562689
 20
30.7784769156
 30
0.0
 10
-32.7363466491
 20
30.7755704785
 30
0.0
 10
-33.1460477158
 20
30.7598504143
 30
0.0
 10
-33.4818013593
 20
30.7588000277
 30
0.0
 10
-33.6623175865
 20
30.7200547337
 30
0.0
 10
-33.7890299194
 20
30.7341684693
 30
0.0
 10
-33.8006913258
 20
30.7100053233
 30
0.0
 11
-32.265749108
 21
30.7799934076
 31
0.0
 11
-32.7568400729
 21
30.7728749197
 31
0.0
 11
-33.1818146111
 21
30.7614079837
 31
0.0
 11
-33.5112769303
 21
30.7463857079
 31
0.0
 11
-33.7224378866
 21
30.7288471253
 31
0.0
 11
-33.8006913258
 21
30.7100053233
 31
0.0
  0
SPLINE
  5
489
100
AcDbEntity
  8
RACCORDO
100
AcDbSpline
 62
253
  6
CONTINUOUS
 70
0
 71
3
 72
28
 73
24
 74
22
 42
0.0000001
 43
0.0000001
 44
0.0000000001
 12
0.0224313021
 22
-35.4999935317
 32
0.0
 13
-0.0000071081
 23
-35.5000006185
 33
0.0
 40
0.0
 40
0.0
 40
0.0
 40
0.0
 40
0.0485595978
 40
0.0987639659
 40
0.1510086014
 40
0.2070479321
 40
0.2692998145
 40
0.3384150292
 40
0.4117555972
 40
0.4860545543
 40
0.5543434663
 40
0.6138860713
 40
0.6675659456
 40
0.7156915478
 40
0.7589526984
 40
0.7983959283
 40
0.8348507231
 40
0.8681129897
 40
0.8983900098
 40
0.9263072507
 40
0.9524192689
 40
0.9769787078
 40
1.0
 40
1.0
 40
1.0
 40
1.0
 10
-33.8006913258
 20
30.7100053383
 30
0.0
 10
-33.8003282408
 20
30.1353835357
 30
0.0
 10
-33.7998200488
 20
28.9666766756
 30
0.0
 10
-33.7993796149
 20
27.1797415806
 30
0.0
 10
-33.7991141954
 20
25.3042962754
 30
0.0
 10
-33.7989438641
 20
23.2862887063
 30
0.0
 10
-33.7988363809
 20
21.0686459409
 30
0.0
 10
-33.7987679278
 20
18.6462718623
 30
0.0
 10
-33.7987267426
 20
16.0813407302
 30
0.0
 10
-33.7987026907
 20
13.5261875136
 30
0.0
 10
-33.7986880946
 20
11.1343101945
 30
0.0
 10
-33.7986794112
 20
8.9864253594
 30
0.0
 10
-33.7986737992
 20
7.077139694
 30
0.0
 10
-33.7986698684
 20
5.3605179106
 30
0.0
 10
-33.7986670992
 20
3.8123630889
 30
0.0
 10
-33.798665114
 20
2.4023128236
 30
0.0
 10
-33.7986636773
 20
1.1105826879
 30
0.0
 10
-33.7986626257
 20
-0.0726806308
 30
0.0
 10
-33.7986618742
 20
-1.1549162259
 30
0.0
 10
-33.7986613643
 20
-2.1525405479
 30
0.0
 10
-33.7986610566
 20
-3.0825068236
 30
0.0
 10
-33.7986609327
 20
-3.9545377056
 30
0.0
 10
-33.7986609704
 20
-4.5175763666
 30
0.0
 10
-33.798661025
 20
-4.7899949959
 30
0.0
 11
-33.8006913258
 21
30.7100053383
 31
0.0
 11
-33.7998817282
 21
28.9861397764
 31
0.0
 11
-33.7994161196
 21
27.2038847374
 31
0.0
 11
-33.7991375875
 21
25.3492001679
 31
0.0
 11
-33.7989613593
 21
23.3598039019
 31
0.0
 11
-33.7988473716
 21
21.1498620412
 31
0.0
 11
-33.7987741824
 21
18.6962718768
 31
0.0
 11
-33.798729789
 21
16.0926816678
 31
0.0
 11
-33.798703538
 21
13.4550686455
 31
0.0
 11
-33.7986883521
 21
11.0308122274
 31
0.0
 11
-33.7986795396
 21
8.9170497104
 31
0.0
 11
-33.7986738235
 21
7.0114141403
 31
0.0
 11
-33.7986698869
 21
5.3029552313
 31
0.0
 11
-33.7986671203
 21
3.7671843603
 31
0.0
 11
-33.7986651359
 21
2.3669496751
 31
0.0
 11
-33.7986636857
 21
1.0728044355
 31
0.0
 11
-33.7986626344
 21
-0.1080060469
 31
0.0
 11
-33.798661889
 21
-1.182840281
 31
0.0
 11
-33.7986613842
 21
-2.1739023498
 31
0.0
 11
-33.7986610806
 21
-3.1008790129
 31
0.0
 11
-33.7986609615
 21
-3.9727391081
 31
0.0
 11
-33.798661025
 21
-4.7899949959
 31
0.0
  0
SPLINE
  5
48A
100
AcDbEntity
  8
RACCORDO
100
AcDbSpline
 62
253
  6
CONTINUOUS
 70
0
 71
3
 72
28
 73
24
 74
22
 42
0.0000001
 43
0.0000001
 44
0.0000000001
 12
-0.5494534681
 22
-35.5658703628
 32
0.0
 13
0.0003884597
 23
-35.5701143325
 33
0.0
 40
0.0
 40
0.0
 40
0.0
 40
0.0
 40
0.0493709503
 40
0.0999384829
 40
0.1523312213
 40
0.2084056028
 40
0.2706235083
 40
0.3396536003
 40
0.4128794895
 40
0.4870470124
 40
0.5552091588
 40
0.6146385651
 40
0.6682148296
 40
0.7162469666
 40
0.7594238673
 40
0.7987901256
 40
0.8351736428
 40
0.8683707877
 40
0.8985885405
 40
0.9264511729
 40
0.9525121703
 40
0.9770237105
 40
1.0
 40
1.0
 40
1.0
 40
1.0
 10
-32.265749108
 20
30.7799934076
 30
0.0
 10
-32.2747914546
 20
30.1946864684
 30
0.0
 10
-32.2860257375
 20
29.0097815123
 30
0.0
 10
-32.2943158604
 20
27.2036547872
 30
0.0
 10
-32.2985213249
 20
25.3180308298
 30
0.0
 10
-32.3007814711
 20
23.2942702688
 30
0.0
 10
-32.302064479
 20
21.0732443404
 30
0.0
 10
-32.3026543175
 20
18.648857913
 30
0.0
 10
-32.3030384709
 20
16.0827883383
 30
0.0
 10
-32.3031979727
 20
13.5270097228
 30
0.0
 10
-32.3033228952
 20
11.1348119304
 30
0.0
 10
-32.303415317
 20
8.9867586087
 30
0.0
 10
-32.3034855561
 20
7.0773808651
 30
0.0
 10
-32.3035496612
 20
5.360704282
 30
0.0
 10
-32.3036068698
 20
3.8125115469
 30
0.0
 10
-32.3036573218
 20
2.4024330577
 30
0.0
 10
-32.3037009233
 20
1.1106815868
 30
0.0
 10
-32.3037376324
 20
-0.0725987549
 30
0.0
 10
-32.3037677372
 20
-1.1548494819
 30
0.0
 10
-32.30379105
 20
-2.1524890148
 30
0.0
 10
-32.3038072933
 20
-3.0824716701
 30
0.0
 10
-32.3038154864
 20
-3.9545183996
 30
0.0
 10
-32.303814375
 20
-4.5175675768
 30
0.0
 10
-32.3038113998
 20
-4.7899906581
 30
0.0
 11
-32.265749108
 21
30.7799934076
 31
0.0
 11
-32.2844768493
 21
29.0239629221
 31
0.0
 11
-32.2935216807
 21
27.2252927479
 31
0.0
 11
-32.298089861
 21
25.3616826509
 31
0.0
 11
-32.3005302034
 21
23.3671119832
 31
0.0
 11
-32.3019008899
 21
21.1540143941
 31
0.0
 11
-32.3026050438
 21
18.6986062294
 31
0.0
 11
-32.3029991453
 21
16.0939530083
 31
0.0
 11
-32.3031977481
 21
13.4558057467
 31
0.0
 11
-32.3033243323
 21
11.0312704089
 31
0.0
 11
-32.3034159908
 21
8.9173596342
 31
0.0
 11
-32.3034881606
 21
7.0116457822
 31
0.0
 11
-32.3035516937
 21
5.303137179
 31
0.0
 11
-32.3036082254
 21
3.7673298848
 31
0.0
 11
-32.3036580958
 21
2.3670675769
 31
0.0
 11
-32.3037015825
 21
1.0729017113
 31
0.0
 11
-32.3037380676
 21
-0.107924528
 31
0.0
 11
-32.3037676846
 21
-1.1827734481
 31
0.0
 11
-32.3037905417
 21
-2.1738504698
 31
0.0
 11
-32.303806329
 21
-3.1008431267
 31
0.0
 11
-32.3038139519
 21
-3.972721414
 31
0.0
 11
-32.3038113998
 21
-4.7899906581
 31
0.0
  0
SPLINE
  5
48B
100
AcDbEntity
  8
RACCORDO
100
AcDbSpline
 62
253
  6
CONTINUOUS
 70
0
 71
3
 72
11
 73
7
 74
5
 42
0.0000001
 43
0.0000001
 44
0.0000000001
 12
0.0174459877
 22
1.4526945121
 32
0.0
 13
1.3291538051
 23
0.586494561
 33
0.0
 40
0.0
 40
0.0
 40
0.0
 40
0.0
 40
0.395505768
 40
0.7132133873
 40
0.921352147
 40
1.0
 40
1.0
 40
1.0
 40
1.0
 10
-28.0755989258
 20
35.0618232482
 30
0.0
 10
-28.0732989296
 20
35.2533396011
 30
0.0
 10
-28.0612742753
 20
35.5924482974
 30
0.0
 10
-28.0650670157
 20
36.0593760253
 30
0.0
 10
-28.0093362835
 20
36.3110430988
 30
0.0
 10
-28.0348552841
 20
36.4952729971
 30
0.0
 10
-28.0000102531
 20
36.5106485097
 30
0.0
 11
-28.0755989258
 21
35.0618232482
 31
0.0
 11
-28.0645632225
 21
35.636307751
 31
0.0
 11
-28.0470309074
 21
36.097540049
 31
0.0
 11
-28.0247663732
 21
36.3991031033
 31
0.0
 11
-28.0000102531
 21
36.5106485097
 31
0.0
  0
SPLINE
  5
48C
100
AcDbEntity
  8
RACCORDO
100
AcDbSpline
 62
253
  6
CONTINUOUS
 70
0
 71
3
 72
17
 73
13
 74
11
 42
0.0000001
 43
0.0000001
 44
0.0000000001
 12
-6.5392529705
 22
-0.183455739
 32
0.0
 13
-0.1019490801
 23
-6.5410314023
 33
0.0
 40
0.0
 40
0.0
 40
0.0
 40
0.0
 40
0.0626771908
 40
0.1332149675
 40
0.2127806513
 40
0.302952668
 40
0.4061672904
 40
0.52359049
 40
0.6490961665
 40
0.7747355906
 40
0.8934072756
 40
1.0
 40
1.0
 40
1.0
 40
1.0
 10
-28.0755989258
 20
35.0618232482
 30
0.0
 10
-28.2122195945
 20
35.0579904181
 30
0.0
 10
-28.5023786899
 20
35.0331664335
 30
0.0
 10
-28.9577836986
 20
34.9384351597
 30
0.0
 10
-29.4541575054
 20
34.7658707615
 30
0.0
 10
-29.9862484351
 20
34.4949208464
 30
0.0
 10
-30.5432220229
 20
34.1048761635
 30
0.0
 10
-31.0965785406
 20
33.58766459
 30
0.0
 10
-31.5967345881
 20
32.9540190839
 30
0.0
 10
-31.9808336654
 20
32.2394710207
 30
0.0
 10
-32.2084522659
 20
31.5039370971
 30
0.0
 10
-32.2621265989
 20
31.0124021686
 30
0.0
 10
-32.2657489423
 20
30.7799933827
 30
0.0
 11
-28.0755989258
 21
35.0618232482
 31
0.0
 11
-28.4841405405
 21
35.0269975618
 31
0.0
 11
-28.9359953914
 21
34.9334055368
 31
0.0
 11
-29.4279027227
 21
34.7632512756
 31
0.0
 11
-29.9542060436
 21
34.4968407095
 31
0.0
 11
-30.5084232761
 21
34.1111535069
 31
0.0
 11
-31.0699443168
 21
33.5869711272
 31
0.0
 11
-31.5765829667
 21
32.9408923018
 31
0.0
 11
-31.9628749138
 21
32.2154154893
 31
0.0
 11
-32.1906308175
 21
31.4732465497
 31
0.0
 11
-32.2657489423
 21
30.7799933827
 31
0.0
  0
SPLINE
  5
48D
100
AcDbEntity
  8
RACCORDO
100
AcDbSpline
 62
253
  6
CONTINUOUS
 70
0
 71
3
 72
26
 73
22
 74
20
 42
0.0000001
 43
0.0000001
 44
0.0000000001
 12
-28.0000100833
 22
-0.0000064773
 32
0.0
 13
-28.0000033772
 23
0.0193788689
 33
0.0
 40
0.0
 40
0.0
 40
0.0
 40
0.0
 40
0.0212392333
 40
0.0446853316
 40
0.0705331269
 40
0.0990887695
 40
0.1304902924
 40
0.1645845623
 40
0.201343692
 40
0.240691403
 40
0.2828267464
 40
0.3283215777
 40
0.3776867464
 40
0.4310121653
 40
0.4890730903
 40
0.5534552851
 40
0.6251855915
 40
0.7050621597
 40
0.7937357058
 40
0.8915110829
 40
1.0
 40
1.0
 40
1.0
 40
1.0
 10
-0.0000001073
 20
36.5086688003
 30
0.0
 10
-0.1982330232
 20
36.5086687544
 30
0.0
 10
-0.6152962683
 20
36.5086689691
 30
0.0
 10
-1.27360569
 20
36.5086699403
 30
0.0
 10
-2.0002016225
 20
36.5086715258
 30
0.0
 10
-2.8010482117
 20
36.5086736951
 30
0.0
 10
-3.6788619245
 20
36.5086764215
 30
0.0
 10
-4.6332415446
 20
36.5086796578
 30
0.0
 10
-5.6617856141
 20
36.508683345
 30
0.0
 10
-6.7653797301
 20
36.5086875082
 30
0.0
 10
-7.9505070902
 20
36.5086922065
 30
0.0
 10
-9.2291307552
 20
36.5086975362
 30
0.0
 10
-10.6121951628
 20
36.5087035827
 30
0.0
 10
-12.1125431545
 20
36.5087106115
 30
0.0
 10
-13.7530501069
 20
36.5087205609
 30
0.0
 10
-15.5653360708
 20
36.5087368901
 30
0.0
 10
-17.5812347779
 20
36.5087648366
 30
0.0
 10
-19.8238528432
 20
36.5088252764
 30
0.0
 10
-22.3095583272
 20
36.5089608928
 30
0.0
 10
-25.0623124528
 20
36.5093202699
 30
0.0
 10
-26.9874465452
 20
36.5099507595
 30
0.0
 10
-28.0000098934
 20
36.5106515571
 30
0.0
 11
-0.0000001073
 21
36.5086688003
 31
0.0
 11
-0.5946988549
 21
36.508669049
 31
0.0
 11
-1.2511898426
 21
36.5086699808
 31
0.0
 11
-1.9749283725
 21
36.508671531
 31
0.0
 11
-2.7744866522
 21
36.5086736736
 31
0.0
 11
-3.6537296104
 21
36.5086763835
 31
0.0
 11
-4.6083695108
 21
36.5086796032
 31
0.0
 11
-5.6376255127
 21
36.5086832895
 31
0.0
 11
-6.7393618187
 21
36.5086874441
 31
0.0
 11
-7.9191518589
 21
36.5086921207
 31
0.0
 11
-9.193007593
 21
36.5086974271
 31
0.0
 11
-10.5752328138
 21
36.5087034905
 31
0.0
 11
-12.0683450816
 21
36.5087107333
 31
0.0
 11
-13.6940515681
 21
36.5087209599
 31
0.0
 11
-15.4967536708
 21
36.5087376515
 31
0.0
 11
-17.5052029734
 21
36.5087679281
 31
0.0
 11
-19.7417476878
 21
36.5088328176
 31
0.0
 11
-22.2246078668
 21
36.5089861697
 31
0.0
 11
-24.9623193824
 21
36.5093924144
 31
0.0
 11
-28.0000098934
 21
36.5106515571
 31
0.0
  0
SPLINE
  5
48E
100
AcDbEntity
  8
RACCORDO
100
AcDbSpline
 62
253
  6
CONTINUOUS
 70
0
 71
3
 72
26
 73
22
 74
20
 42
0.0000001
 43
0.0000001
 44
0.0000000001
 12
-28.0761032136
 22
0.000643889
 32
0.0
 13
-28.0651365776
 23
-0.7846533964
 33
0.0
 40
0.0
 40
0.0
 40
0.0
 40
0.0
 40
0.0211861651
 40
0.0445718026
 40
0.07035174
 40
0.0988315524
 40
0.1301490287
 40
0.1641515283
 40
0.2008114193
 40
0.2400528466
 40
0.2820743153
 40
0.3274461182
 40
0.3766779136
 40
0.4298613509
 40
0.487772117
 40
0.5519942873
 40
0.6235615169
 40
0.7033005038
 40
0.7919221621
 40
0.8899662736
 40
1.0
 40
1.0
 40
1.0
 40
1.0
 10
0.0000091303
 20
35.148152109
 30
0.0
 10
-0.1982658555
 20
35.1481566561
 30
0.0
 10
-0.615400033
 20
35.1481456217
 30
0.0
 10
-1.2738009348
 20
35.1480842402
 30
0.0
 10
-2.0004608967
 20
35.1479786243
 30
0.0
 10
-2.8013525603
 20
35.1478278168
 30
0.0
 10
-3.6791967181
 20
35.1476298473
 30
0.0
 10
-4.633595777
 20
35.1473831324
 30
0.0
 10
-5.6621527126
 20
35.1470848204
 30
0.0
 10
-6.7657567683
 20
35.1467276352
 30
0.0
 10
-7.9508929848
 20
35.1463030654
 30
0.0
 10
-9.2295260445
 20
35.1457946595
 30
0.0
 10
-10.6126206038
 20
35.1451913069
 30
0.0
 10
-12.1130635038
 20
35.1444299469
 30
0.0
 10
-13.7537967605
 20
35.1434276213
 30
0.0
 10
-15.5665781096
 20
35.1420761914
 30
0.0
 10
-17.5836434171
 20
35.1401409457
 30
0.0
 10
-19.8290523134
 20
35.1367410748
 30
0.0
 10
-22.3222565816
 20
35.1306684381
 30
0.0
 10
-25.0989121997
 20
35.1164555488
 30
0.0
 10
-27.0462285718
 20
35.0906038957
 30
0.0
 10
-28.0755990912
 20
35.06182445
 30
0.0
 11
0.0000091303
 21
35.148152109
 31
0.0
 11
-0.5948158272
 21
35.148139873
 31
0.0
 11
-1.251393398
 21
35.1480809039
 31
0.0
 11
-1.9751935726
 21
35.1479773728
 31
0.0
 11
-2.7747957112
 21
35.1478280929
 31
0.0
 11
-3.6540683873
 21
35.1476308791
 31
0.0
 11
-4.6087260446
 21
35.1473847337
 31
0.0
 11
-5.6379928861
 21
35.1470862557
 31
0.0
 11
-6.7397391908
 21
35.1467299212
 31
0.0
 11
-7.9195382076
 21
35.1463068532
 31
0.0
 11
-9.1934015289
 21
35.145801159
 31
0.0
 11
-10.5756383627
 21
35.1451916724
 31
0.0
 11
-12.0688218442
 21
35.1444277401
 31
0.0
 11
-13.6947301832
 21
35.1434291155
 31
0.0
 11
-15.4978379506
 21
35.1420666234
 31
0.0
 11
-17.507165853
 21
35.1400385894
 31
0.0
 11
-19.7459231484
 21
35.1365412371
 31
0.0
 11
-22.2340649153
 21
35.1298268011
 31
0.0
 11
-24.9867131111
 21
35.1135033235
 31
0.0
 11
-28.0755990912
 21
35.06182445
 31
0.0
  0
SPLINE
  5
48F
100
AcDbEntity
  8
RACCORDO
100
AcDbSpline
 62
253
  6
CONTINUOUS
 70
0
 71
3
 72
11
 73
7
 74
5
 42
0.0000001
 43
0.0000001
 44
0.0000000001
 12
-0.017464394
 22
1.4526919179
 32
0.0
 13
-1.3292348615
 23
0.5863049516
 33
0.0
 40
0.0
 40
0.0
 40
0.0
 40
0.0
 40
0.3955087546
 40
0.7132177568
 40
0.9213556703
 40
1.0
 40
1.0
 40
1.0
 40
1.0
 10
28.0755998383
 20
35.0618312634
 30
0.0
 10
28.073297398
 20
35.2533487205
 30
0.0
 10
28.0612681251
 20
35.5924571299
 30
0.0
 10
28.0650632075
 20
36.059391613
 30
0.0
 10
28.0093262807
 20
36.3110460039
 30
0.0
 10
28.0348549098
 20
36.4952849246
 30
0.0
 10
28.0000093149
 20
36.5106547779
 30
0.0
 11
28.0755998383
 21
35.0618312634
 31
0.0
 11
28.0645585425
 21
35.6363190598
 31
0.0
 11
28.0470247036
 21
36.0975525562
 31
0.0
 11
28.0247618254
 21
36.3991140047
 31
0.0
 11
28.0000093149
 21
36.5106547779
 31
0.0
  0
SPLINE
  5
490
100
AcDbEntity
  8
RACCORDO
100
AcDbSpline
 62
253
  6
CONTINUOUS
 70
0
 71
3
 72
26
 73
22
 74
20
 42
0.0000001
 43
0.0000001
 44
0.0000000001
 12
-28.0000035617
 22
-0.0194237671
 32
0.0
 13
-28.0000102989
 23
0.0000032011
 33
0.0
 40
0.0
 40
0.0
 40
0.0
 40
0.0
 40
0.1055367342
 40
0.2122618024
 40
0.3073262127
 40
0.3912979823
 40
0.4664910576
 40
0.5334649622
 40
0.5931140678
 40
0.6470036436
 40
0.6954570706
 40
0.7391527454
 40
0.7790121169
 40
0.8159038908
 40
0.8498544928
 40
0.8809490008
 40
0.9093434638
 40
0.9351801239
 40
0.9587436699
 40
0.9802999284
 40
1.0
 40
1.0
 40
1.0
 40
1.0
 10
28.0000098934
 20
36.5106547783
 30
0.0
 10
27.0150002489
 20
36.5099714713
 30
0.0
 10
25.0338893864
 20
36.5093086175
 30
0.0
 10
22.1655103862
 20
36.5089477946
 30
0.0
 10
19.4984044202
 20
36.5088144373
 30
0.0
 10
17.1255971672
 20
36.5087586061
 30
0.0
 10
15.0149680627
 20
36.5087327453
 30
0.0
 10
13.1313505724
 20
36.5087178037
 30
0.0
 10
11.4465658169
 20
36.508708657
 30
0.0
 10
9.9346389149
 20
36.5087017384
 30
0.0
 10
8.5716107553
 20
36.5086957495
 30
0.0
 10
7.3395312178
 20
36.5086906036
 30
0.0
 10
6.2153604825
 20
36.5086861259
 30
0.0
 10
5.1821437938
 20
36.5086822039
 30
0.0
 10
4.2307325279
 20
36.5086787582
 30
0.0
 10
3.3586295264
 20
36.5086757867
 30
0.0
 10
2.5622566763
 20
36.5086733147
 30
0.0
 10
1.8361728307
 20
36.5086713524
 30
0.0
 10
1.173912251
 20
36.5086699073
 30
0.0
 10
0.5689265182
 20
36.5086690017
 30
0.0
 10
0.1838672956
 20
36.5086687792
 30
0.0
 10
-0.0000001073
 20
36.5086688003
 30
0.0
 11
28.0000098934
 21
36.5106547783
 31
0.0
 11
25.044980509
 21
36.5094145846
 31
0.0
 11
22.056677533
 21
36.508974034
 31
0.0
 11
19.3948730692
 21
36.5088217318
 31
0.0
 11
17.0436626571
 21
36.5087613411
 31
0.0
 11
14.9382557738
 21
36.508733409
 31
0.0
 11
13.0629857571
 21
36.5087180891
 31
0.0
 11
11.3928101861
 21
36.5087086146
 31
0.0
 11
9.8839015077
 21
36.5087015545
 31
0.0
 11
8.527205051
 21
36.508695606
 31
0.0
 11
7.3037257074
 21
36.5086904953
 31
0.0
 11
6.1876628951
 21
36.5086860517
 31
0.0
 11
5.154692845
 21
36.5086821309
 31
0.0
 11
4.2040756411
 21
36.5086786971
 31
0.0
 11
3.3334290976
 21
36.5086757468
 31
0.0
 11
2.5383838404
 21
36.5086732963
 31
0.0
 11
1.814957091
 21
36.5086713607
 31
0.0
 11
1.1551775607
 21
36.5086699451
 31
0.0
 11
0.5516021013
 21
36.5086690724
 31
0.0
 11
-0.0000001073
 21
36.5086688003
 31
0.0
  0
SPLINE
  5
491
100
AcDbEntity
  8
RACCORDO
100
AcDbSpline
 62
253
  6
CONTINUOUS
 70
0
 71
3
 72
26
 73
22
 74
20
 42
0.0000001
 43
0.0000001
 44
0.0000000001
 12
-28.0651126391
 22
0.7849435933
 32
0.0
 13
-28.0760873961
 23
-0.0006476586
 33
0.0
 40
0.0
 40
0.0
 40
0.0
 40
0.0
 40
0.1070736236
 40
0.2140851112
 40
0.3090761783
 40
0.3928919325
 40
0.4679074088
 40
0.5347116859
 40
0.5942040529
 40
0.6479482958
 40
0.6962703256
 40
0.7398475701
 40
0.7795990072
 40
0.8163909747
 40
0.8502498254
 40
0.881260653
 40
0.909579171
 40
0.93534729
 40
0.9588490525
 40
0.9803497906
 40
1.0
 40
1.0
 40
1.0
 40
1.0
 10
28.0755998383
 20
35.0618312634
 30
0.0
 10
27.0739220694
 20
35.0898468484
 30
0.0
 10
25.0704030755
 20
35.1171179477
 30
0.0
 10
22.1779159971
 20
35.131291571
 30
0.0
 10
19.5030273756
 20
35.1373801069
 30
0.0
 10
17.1275856939
 20
35.1406821271
 30
0.0
 10
15.0159319617
 20
35.1425205101
 30
0.0
 10
13.1319136184
 20
35.1438379076
 30
0.0
 10
11.446965968
 20
35.144789557
 30
0.0
 10
9.9349879741
 20
35.1454955499
 30
0.0
 10
8.5719547182
 20
35.1460640922
 30
0.0
 10
7.3398758451
 20
35.1465280006
 30
0.0
 10
6.2157032957
 20
35.1469107684
 30
0.0
 10
5.1824822218
 20
35.1472283851
 30
0.0
 10
4.2310618396
 20
35.147490757
 30
0.0
 10
3.3589418846
 20
35.1477053949
 30
0.0
 10
2.5625406176
 20
35.1478756473
 30
0.0
 10
1.8364144006
 20
35.1480048124
 30
0.0
 10
1.1740937057
 20
35.1480952046
 30
0.0
 10
0.5690286621
 20
35.1481475233
 30
0.0
 10
0.1839094624
 20
35.1481563504
 30
0.0
 10
0.0000091303
 20
35.1481521082
 30
0.0
 11
28.0755998383
 21
35.0618312634
 31
0.0
 11
25.0698228504
 21
35.1127599349
 31
0.0
 11
22.0654110552
 21
35.1304507375
 31
0.0
 11
19.3984420909
 21
35.1371996701
 31
0.0
 11
17.0452260815
 21
35.1405815836
 31
0.0
 11
14.9390859075
 21
35.1425237846
 31
0.0
 11
13.0634836457
 21
35.1438412934
 31
0.0
 11
11.3931710212
 21
35.144791314
 31
0.0
 11
9.884243131
 21
35.1455060502
 31
0.0
 11
8.5275497158
 21
35.1460729622
 31
0.0
 11
7.3040712768
 21
35.1465337963
 31
0.0
 11
6.1880065199
 21
35.1469138069
 31
0.0
 11
5.1550320732
 21
35.1472311508
 31
0.0
 11
4.2044080586
 21
35.147493202
 31
0.0
 11
3.3337453762
 21
35.1477066912
 31
0.0
 11
2.5386722096
 21
35.1478757691
 31
0.0
 11
1.8152042588
 21
35.1480033632
 31
0.0
 11
1.1553667264
 21
35.1480920161
 31
0.0
 11
0.5517101265
 21
35.1481423398
 31
0.0
 11
0.0000091303
 21
35.1481521082
 31
0.0
  0
SPLINE
  5
492
100
AcDbEntity
  8
RACCORDO
100
AcDbSpline
 62
253
  6
CONTINUOUS
 70
0
 71
3
 72
12
 73
8
 74
6
 42
0.0000001
 43
0.0000001
 44
0.0000000001
 12
1.5383785352
 22
-0.0142489697
 32
0.0
 13
0.6686044685
 23
-1.3855611193
 33
0.0
 40
0.0
 40
0.0
 40
0.0
 40
0.0
 40
0.3192446735
 40
0.5955801939
 40
0.8099541711
 40
0.9476817883
 40
1.0
 40
1.0
 40
1.0
 40
1.0
 10
32.2657488932
 20
30.779993375
 30
0.0
 10
32.4294552776
 20
30.7784770725
 30
0.0
 10
32.7363442164
 20
30.7755709351
 30
0.0
 10
33.1460425902
 20
30.7598510099
 30
0.0
 10
33.4817951701
 20
30.7588007071
 30
0.0
 10
33.6623077856
 20
30.7200551193
 30
0.0
 10
33.7890211533
 20
30.734168713
 30
0.0
 10
33.8006812167
 20
30.710005353
 30
0.0
 11
32.2657488932
 21
30.779993375
 31
0.0
 11
32.7568375296
 21
30.772875337
 31
0.0
 11
33.1818097255
 21
30.7614085807
 31
0.0
 11
33.5112698895
 21
30.7463862555
 31
0.0
 11
33.7224290569
 21
30.7288474572
 31
0.0
 11
33.8006812167
 21
30.710005353
 31
0.0
  0
SPLINE
  5
493
100
AcDbEntity
  8
RACCORDO
100
AcDbSpline
 62
253
  6
CONTINUOUS
 70
0
 71
3
 72
17
 73
13
 74
11
 42
0.0000001
 43
0.0000001
 44
0.0000000001
 12
-0.1018952017
 22
6.5411240338
 32
0.0
 13
-6.5393443665
 23
0.1834707438
 33
0.0
 40
0.0
 40
0.0
 40
0.0
 40
0.0
 40
0.1043287179
 40
0.2203463546
 40
0.3434097537
 40
0.4683279147
 40
0.5871559122
 40
0.6920362607
 40
0.7836305772
 40
0.864485347
 40
0.9362162969
 40
1.0
 40
1.0
 40
1.0
 40
1.0
 10
32.2657488932
 20
30.779993375
 30
0.0
 10
32.2622053613
 20
31.0074690698
 30
0.0
 10
32.2106681529
 20
31.48825083
 30
0.0
 10
31.9923076977
 20
32.2092334049
 30
0.0
 10
31.6209669194
 20
32.9159657772
 30
0.0
 10
31.1296318225
 20
33.5516659711
 30
0.0
 10
30.5769802937
 20
34.077645258
 30
0.0
 10
30.0150838256
 20
34.4778394126
 30
0.0
 10
29.476252759
 20
34.7567351336
 30
0.0
 10
28.9726414438
 20
34.9346244469
 30
0.0
 10
28.5098060782
 20
35.0323667847
 30
0.0
 10
28.2146335129
 20
35.0579241895
 30
0.0
 10
28.0755989796
 20
35.061825004
 30
0.0
 11
32.2657488932
 21
30.779993375
 31
0.0
 11
32.1935460236
 21
31.4586733295
 31
0.0
 11
31.9751514675
 21
32.1855510037
 31
0.0
 11
31.6033581381
 21
32.899629727
 31
0.0
 11
31.1057418074
 21
33.5478587661
 31
0.0
 11
30.5424446071
 21
34.0835727323
 31
0.0
 11
29.9824020395
 21
34.4799451046
 31
0.0
 11
29.4495714913
 21
34.7540531325
 31
0.0
 11
28.950540369
 21
34.9294127922
 31
0.0
 11
28.4913230054
 21
35.025965632
 31
0.0
 11
28.0755989796
 21
35.061825004
 31
0.0
  0
SPLINE
  5
494
100
AcDbEntity
  8
RACCORDO
100
AcDbSpline
 62
253
  6
CONTINUOUS
 70
0
 71
3
 72
29
 73
25
 74
23
 42
0.0000001
 43
0.0000001
 44
0.0000000001
 12
-0.000007111
 22
35.5000005809
 32
0.0
 13
0.0224300238
 23
35.4999934949
 33
0.0
 40
0.0
 40
0.0
 40
0.0
 40
0.0
 40
0.0236519764
 40
0.0489885719
 40
0.0759944184
 40
0.104870182
 40
0.1359739701
 40
0.1696586463
 40
0.2059468718
 40
0.244635984
 40
0.2861648529
 40
0.3310638484
 40
0.3796816357
 40
0.4319366116
 40
0.4896543599
 40
0.5535194784
 40
0.6211325327
 40
0.6893122911
 40
0.7543525224
 40
0.8134396477
 40
0.8668358916
 40
0.9152603405
 40
0.9594620418
 40
1.0
 40
1.0
 40
1.0
 40
1.0
 10
33.798661025
 20
-4.7899949562
 30
0.0
 10
33.7986609689
 20
-4.5101132312
 30
0.0
 10
33.7986609321
 20
-3.9304151213
 30
0.0
 10
33.7986610674
 20
-3.031147822
 30
0.0
 10
33.7986613979
 20
-2.0700657067
 30
0.0
 10
33.7986619426
 20
-1.0407384776
 30
0.0
 10
33.7986627373
 20
0.0676215703
 30
0.0
 10
33.7986638317
 20
1.2636957523
 30
0.0
 10
33.7986653023
 20
2.5495296051
 30
0.0
 10
33.7986672909
 20
3.9281864056
 30
0.0
 10
33.7986699802
 20
5.4087373203
 30
0.0
 10
33.7986736478
 20
7.0067775574
 30
0.0
 10
33.7986786311
 20
8.7317433978
 30
0.0
 10
33.798685798
 20
10.6083978141
 30
0.0
 10
33.7986969354
 20
12.6654789867
 30
0.0
 10
33.7987147514
 20
14.9042974228
 30
0.0
 10
33.7987432915
 20
17.2669163135
 30
0.0
 10
33.7987923666
 20
19.6434407064
 30
0.0
 10
33.7988709276
 20
21.9190749362
 30
0.0
 10
33.7989961446
 20
24.0197709069
 30
0.0
 10
33.7991883943
 20
25.9238467768
 30
0.0
 10
33.7994786856
 20
27.6517784462
 30
0.0
 10
33.7999218004
 20
29.2275536956
 30
0.0
 10
33.8003882367
 20
30.2303062536
 30
0.0
 10
33.8006913258
 20
30.7100053383
 30
0.0
 11
33.798661025
 21
-4.7899949562
 31
0.0
 11
33.7986609623
 21
-3.9503497811
 31
0.0
 11
33.7986610925
 21
-3.0509006266
 31
0.0
 11
33.7986614189
 21
-2.0921930584
 31
0.0
 11
33.7986619595
 21
-1.067103435
 31
0.0
 11
33.7986627504
 21
0.0370810607
 31
0.0
 11
33.7986638474
 21
1.2328870851
 31
0.0
 11
33.7986653319
 21
2.5211191112
 31
0.0
 11
33.798667325
 21
3.8945826189
 31
0.0
 11
33.7986700208
 21
5.3688574867
 31
0.0
 11
33.7986736983
 21
6.9627718553
 31
0.0
 11
33.7986787647
 21
8.6887033303
 31
0.0
 11
33.7986860198
 21
10.5437550078
 31
0.0
 11
33.7986973662
 21
12.5927351043
 31
0.0
 11
33.7987159117
 21
14.8599468478
 31
0.0
 11
33.7987466246
 21
17.2602103161
 31
0.0
 11
33.7987988618
 21
19.6805917762
 31
0.0
 11
33.7988834756
 21
21.9895200253
 31
0.0
 11
33.7990153497
 21
24.0871130032
 31
0.0
 11
33.7992165458
 21
25.9826796816
 31
0.0
 11
33.7995209935
 21
27.7017476206
 31
0.0
 11
33.7999841801
 21
29.2709079707
 31
0.0
 11
33.8006913258
 21
30.7100053383
 31
0.0
  0
SPLINE
  5
495
100
AcDbEntity
  8
RACCORDO
100
AcDbSpline
 62
253
  6
CONTINUOUS
 70
0
 71
3
 72
29
 73
25
 74
23
 42
0.0000001
 43
0.0000001
 44
0.0000000001
 12
0.0003884386
 22
35.5701253321
 32
0.0
 13
-0.5497954055
 23
35.5658760796
 33
0.0
 40
0.0
 40
0.0
 40
0.0
 40
0.0
 40
0.0236059928
 40
0.0488931586
 40
0.0758462214
 40
0.1046654863
 40
0.1357083783
 40
0.1693271054
 40
0.2055443924
 40
0.2441580224
 40
0.2856060435
 40
0.3304178689
 40
0.378941758
 40
0.4310971404
 40
0.4887069026
 40
0.5524558907
 40
0.6199549583
 40
0.6880359739
 40
0.753009087
 40
0.8120852885
 40
0.8655457148
 40
0.9141589111
 40
0.9587418039
 40
1.0
 40
1.0
 40
1.0
 40
1.0
 10
32.3038113997
 20
-4.789999759
 30
0.0
 10
32.3038144561
 20
-4.5101103854
 30
0.0
 10
32.3038154661
 20
-3.9303984584
 30
0.0
 10
32.303806642
 20
-3.0311119248
 30
0.0
 10
32.3037893767
 20
-2.0700131436
 30
0.0
 10
32.3037647991
 20
-1.040670396
 30
0.0
 10
32.3037334609
 20
0.0677051898
 30
0.0
 10
32.3036959296
 20
1.2637969674
 30
0.0
 10
32.3036521456
 20
2.5496527781
 30
0.0
 10
32.3036026143
 20
3.9283382452
 30
0.0
 10
32.3035478653
 20
5.4089266481
 30
0.0
 10
32.303488132
 20
7.0070181033
 30
0.0
 10
32.3034249344
 20
8.7320636196
 30
0.0
 10
32.3033464049
 20
10.6088505395
 30
0.0
 10
32.3032438688
 20
12.6661570188
 30
0.0
 10
32.3031220376
 20
14.9053890989
 30
0.0
 10
32.3028901349
 20
17.2687757742
 30
0.0
 10
32.3024382217
 20
19.6466765062
 30
0.0
 10
32.3016979767
 20
21.9247097253
 30
0.0
 10
32.3000854966
 20
24.0293904489
 30
0.0
 10
32.2974687036
 20
25.9400952872
 30
0.0
 10
32.2924994308
 20
27.6789532186
 30
0.0
 10
32.2839161172
 20
29.2731165339
 30
0.0
 10
32.273311552
 20
30.2908656333
 30
0.0
 10
32.2657503631
 20
30.7799935968
 30
0.0
 11
32.3038113997
 21
-4.789999759
 31
0.0
 11
32.30381387
 21
-3.9503316382
 31
0.0
 11
32.3038056528
 21
-3.0508639783
 31
0.0
 11
32.303788861
 21
-2.092140158
 31
0.0
 11
32.3037647053
 21
-1.0670352947
 31
0.0
 11
32.3037337759
 21
0.0371642645
 31
0.0
 11
32.3036963836
 21
1.2329865995
 31
0.0
 11
32.3036527232
 21
2.521240038
 31
0.0
 11
32.3036035895
 21
3.8947316967
 31
0.0
 11
32.3035492457
 21
5.3690430008
 31
0.0
 11
32.3034899665
 21
6.9630052469
 31
0.0
 11
32.3034250679
 21
8.6890060621
 31
0.0
 11
32.303346761
 21
10.5441795494
 31
0.0
 11
32.3032460156
 21
12.5933660061
 31
0.0
 11
32.3031084076
 21
14.8609254991
 31
0.0
 11
32.3028541856
 21
17.2618757804
 31
0.0
 11
32.3023754991
 21
19.6835259912
 31
0.0
 11
32.3014972391
 21
21.9946275997
 31
0.0
 11
32.2998126115
 21
24.0959748167
 31
0.0
 11
32.296895927
 21
25.9975666435
 31
0.0
 11
32.2916032928
 21
27.7267360314
 31
0.0
 11
32.2823215552
 21
29.312527951
 31
0.0
 11
32.2657503631
 21
30.7799935968
 31
0.0
  0
SPLINE
  5
496
100
AcDbEntity
  8
RACCORDO
100
AcDbSpline
 62
253
  6
CONTINUOUS
 70
0
 71
3
 72
12
 73
8
 74
6
 42
0.0000001
 43
0.0000001
 44
0.0000000001
 12
1.5383920829
 22
0.0142513568
 32
0.0
 13
0.6686905743
 23
1.3855346325
 33
0.0
 40
0.0
 40
0.0
 40
0.0
 40
0.0
 40
0.3192439421
 40
0.5955791559
 40
0.8099532022
 40
0.9476812001
 40
1.0
 40
1.0
 40
1.0
 40
1.0
 10
32.2657536314
 20
-40.3599839505
 30
0.0
 10
32.4294610824
 20
-40.3584673973
 30
0.0
 10
32.7363520377
 20
-40.3555608297
 30
0.0
 10
33.1460540777
 20
-40.3398406225
 30
0.0
 10
33.4818083327
 20
-40.3387899779
 30
0.0
 10
33.6623255985
 20
-40.3000446884
 30
0.0
 10
33.7890379075
 20
-40.3141581849
 30
0.0
 10
33.8006996037
 20
-40.2899950152
 30
0.0
 11
32.2657536314
 21
-40.3599839505
 31
0.0
 11
32.7568454654
 21
-40.3528652709
 31
0.0
 11
33.1818209306
 21
-40.3413981461
 31
0.0
 11
33.5112841071
 21
-40.3263756923
 31
0.0
 11
33.7224457423
 21
-40.3088369505
 31
0.0
 11
33.8006996037
 21
-40.2899950152
 31
0.0
  0
SPLINE
  5
497
100
AcDbEntity
  8
RACCORDO
100
AcDbSpline
 62
253
  6
CONTINUOUS
 70
0
 71
3
 72
28
 73
24
 74
22
 42
0.0000001
 43
0.0000001
 44
0.0000000001
 12
-0.022439559
 22
35.4999928387
 32
0.0
 13
-0.0000011903
 23
35.4999999307
 33
0.0
 40
0.0
 40
0.0
 40
0.0
 40
0.0
 40
0.0485601459
 40
0.0987648659
 40
0.1510097403
 40
0.2070492849
 40
0.2693014088
 40
0.3384168045
 40
0.4117574164
 40
0.4860561994
 40
0.554344764
 40
0.6138871162
 40
0.6675667961
 40
0.7156922263
 40
0.7589532383
 40
0.798396359
 40
0.834851059
 40
0.8681132409
 40
0.8983901905
 40
0.9263073738
 40
0.9524193438
 40
0.9769787419
 40
1.0
 40
1.0
 40
1.0
 40
1.0
 10
33.8006996035
 20
-40.2899946022
 30
0.0
 10
33.8003363807
 20
-39.7153663253
 30
0.0
 10
33.7998279407
 20
-38.546648838
 30
0.0
 10
33.7993870791
 20
-36.7597003008
 30
0.0
 10
33.7991212261
 20
-34.8842455087
 30
0.0
 10
33.7989504236
 20
-32.8662297619
 30
0.0
 10
33.7988424235
 20
-30.6485795086
 30
0.0
 10
33.7987734048
 20
-28.2261999585
 30
0.0
 10
33.7987316207
 20
-25.6612682749
 30
0.0
 10
33.7987069718
 20
-23.106120759
 30
0.0
 10
33.7986918168
 20
-20.7142526493
 30
0.0
 10
33.7986826314
 20
-18.5663772603
 30
0.0
 10
33.7986765731
 20
-16.6570989607
 30
0.0
 10
33.7986722411
 20
-14.9404831851
 30
0.0
 10
33.79866911
 20
-13.3923333597
 30
0.0
 10
33.7986667952
 20
-11.9822871755
 30
0.0
 10
33.7986650566
 20
-10.6905604817
 30
0.0
 10
33.7986637284
 20
-9.5073001444
 30
0.0
 10
33.7986627239
 20
-8.4250670877
 30
0.0
 10
33.7986619808
 20
-7.427444871
 30
0.0
 10
33.7986614557
 20
-6.4974803479
 30
0.0
 10
33.798661128
 20
-5.6254509396
 30
0.0
 10
33.7986610341
 20
-5.0624131762
 30
0.0
 10
33.798661025
 20
-4.7899949562
 30
0.0
 11
33.8006996035
 21
-40.2899946022
 31
0.0
 11
33.7998896155
 21
-38.5661096173
 31
0.0
 11
33.7994235915
 21
-36.7838421199
 31
0.0
 11
33.7991446278
 21
-34.9291491049
 31
0.0
 11
33.7989679361
 21
-32.9397452825
 31
0.0
 11
33.798853433
 21
-30.7297948903
 31
0.0
 11
33.798779671
 21
-28.2761983503
 31
0.0
 11
33.7987346696
 21
-25.6726066338
 31
0.0
 11
33.7987078025
 21
-23.0349998403
 31
0.0
 11
33.7986920501
 21
-20.6107558028
 31
0.0
 11
33.7986827436
 21
-18.4970023048
 31
0.0
 11
33.7986765821
 21
-16.5913736734
 31
0.0
 11
33.7986722461
 21
-14.8829209038
 31
0.0
 11
33.7986691206
 21
-13.3471549783
 31
0.0
 11
33.7986668089
 21
-11.9469241971
 31
0.0
 11
33.7986650562
 21
-10.6527823512
 31
0.0
 11
33.7986637288
 21
-9.4719748966
 31
0.0
 11
33.7986627322
 21
-8.3971431854
 31
0.0
 11
33.7986619957
 21
-7.4060831811
 31
0.0
 11
33.7986614754
 21
-6.4791082463
 31
0.0
 11
33.7986611525
 21
-5.6072496161
 31
0.0
 11
33.798661025
 21
-4.7899949562
 31
0.0
  0
SPLINE
  5
498
100
AcDbEntity
  8
RACCORDO
100
AcDbSpline
 62
253
  6
CONTINUOUS
 70
0
 71
3
 72
28
 73
24
 74
22
 42
0.0000001
 43
0.0000001
 44
0.0000000001
 12
0.5494431148
 22
35.5658706823
 32
0.0
 13
-0.0003970198
 23
35.5701144919
 33
0.0
 40
0.0
 40
0.0
 40
0.0
 40
0.0
 40
0.0493715132
 40
0.0999393942
 40
0.1523323673
 40
0.2084069591
 40
0.2706251024
 40
0.3396553724
 40
0.4128813037
 40
0.4870486524
 40
0.5552104528
 40
0.6146396076
 40
0.6682156784
 40
0.7162476441
 40
0.7594244068
 40
0.7987905562
 40
0.8351739787
 40
0.8683710391
 40
0.8985887215
 40
0.9264512963
 40
0.9525122454
 40
0.9770237448
 40
1.0
 40
1.0
 40
1.0
 40
1.0
 10
32.2657536314
 20
-40.3599839505
 30
0.0
 10
32.2747959107
 20
-39.7746703328
 30
0.0
 10
32.2860359478
 20
-38.5897546274
 30
0.0
 10
32.2943231188
 20
-36.7836142775
 30
0.0
 10
32.2985287837
 20
-34.897980911
 30
0.0
 10
32.3007882164
 20
-32.8742122428
 30
0.0
 10
32.3020707327
 20
-30.6531788824
 30
0.0
 10
32.3026599616
 20
-28.228787015
 30
0.0
 10
32.3030434981
 20
-25.6627168841
 30
0.0
 10
32.3032023812
 20
-23.106943925
 30
0.0
 10
32.3033267283
 20
-20.7147552714
 30
0.0
 10
32.3034186328
 20
-18.5667113206
 30
0.0
 10
32.3034884124
 20
-16.6573408779
 30
0.0
 10
32.3035521044
 20
-14.9406702501
 30
0.0
 10
32.3036089403
 20
-13.3924824668
 30
0.0
 10
32.303659053
 20
-11.982408022
 30
0.0
 10
32.3037023435
 20
-10.6906599616
 30
0.0
 10
32.3037387678
 20
-9.5073825743
 30
0.0
 10
32.3037686121
 20
-8.4251343621
 30
0.0
 10
32.3037916847
 20
-7.4274969147
 30
0.0
 10
32.3038077042
 20
-6.4975159951
 30
0.0
 10
32.3038156874
 20
-5.6254707244
 30
0.0
 10
32.3038144405
 20
-5.0624224355
 30
0.0
 10
32.3038113998
 20
-4.789999759
 30
0.0
 11
32.2657536314
 21
-40.3599839505
 31
0.0
 11
32.2844851348
 21
-38.6039334741
 31
0.0
 11
32.2935294952
 21
-36.8052508966
 31
0.0
 11
32.298097179
 21
-34.9416324404
 31
0.0
 11
32.3005370159
 21
-32.9470542843
 31
0.0
 11
32.3019071514
 21
-30.7339482273
 31
0.0
 11
32.3026107053
 21
-28.2785337207
 31
0.0
 11
32.3030041749
 21
-25.6738789897
 31
0.0
 11
32.3032021402
 21
-23.0357379113
 31
0.0
 11
32.3033281404
 21
-20.6112148693
 31
0.0
 11
32.30341929
 21
-18.4973130322
 31
0.0
 11
32.303491001
 21
-16.5916060596
 31
0.0
 11
32.303554123
 21
-14.8831035419
 31
0.0
 11
32.3036102851
 21
-13.3473011489
 31
0.0
 11
32.3036598184
 21
-11.9470427094
 31
0.0
 11
32.3037029937
 21
-10.6528802074
 31
0.0
 11
32.3037391946
 21
-9.4720569679
 31
0.0
 11
32.3037685528
 21
-8.3972105473
 31
0.0
 11
32.3037911714
 21
-7.4061355708
 31
0.0
 11
32.3038067355
 21
-6.4791446256
 31
0.0
 11
32.3038141486
 21
-5.6072677886
 31
0.0
 11
32.3038113998
 21
-4.789999759
 31
0.0
  0
SPLINE
  5
499
100
AcDbEntity
  8
RACCORDO
100
AcDbSpline
 62
253
  6
CONTINUOUS
 70
0
 71
3
 72
11
 73
7
 74
5
 42
0.0000001
 43
0.0000001
 44
0.0000000001
 12
-0.0174474136
 22
-1.4526940808
 32
0.0
 13
-1.3291530624
 23
-0.5864952186
 33
0.0
 40
0.0
 40
0.0
 40
0.0
 40
0.0
 40
0.395505747
 40
0.7132133447
 40
0.9213521056
 40
1.0
 40
1.0
 40
1.0
 40
1.0
 10
28.0756001119
 20
-44.6418143894
 30
0.0
 10
28.0732999277
 20
-44.8333306753
 30
0.0
 10
28.0612749605
 20
-45.1724392632
 30
0.0
 10
28.0650671713
 20
-45.6393667717
 30
0.0
 10
28.0093362837
 20
-45.8910338571
 30
0.0
 10
28.0348549551
 20
-46.0752636115
 30
0.0
 10
28.0000099252
 20
-46.0906391495
 30
0.0
 11
28.0756001119
 21
-44.6418143894
 31
0.0
 11
28.0645638437
 21
-45.216298687
 31
0.0
 11
28.0470310633
 21
-45.6775308044
 31
0.0
 11
28.0247662034
 21
-45.9790937498
 31
0.0
 11
28.0000099252
 21
-46.0906391495
 31
0.0
  0
SPLINE
  5
49A
100
AcDbEntity
  8
RACCORDO
100
AcDbSpline
 62
253
  6
CONTINUOUS
 70
0
 71
3
 72
18
 73
14
 74
12
 42
0.0000001
 43
0.0000001
 44
0.0000000001
 12
6.5400464159
 22
0.1833319193
 32
0.0
 13
0.1019940324
 23
6.5418204601
 33
0.0
 40
0.0
 40
0.0
 40
0.0
 40
0.0
 40
0.0526038255
 40
0.111367268
 40
0.177074028
 40
0.2507301974
 40
0.3337850279
 40
0.4280104656
 40
0.5343009853
 40
0.651707037
 40
0.7756105964
 40
0.8936806798
 40
1.0
 40
1.0
 40
1.0
 40
1.0
 10
28.0756001119
 20
-44.6418143894
 30
0.0
 10
28.1902772652
 20
-44.638599736
 30
0.0
 10
28.4328812395
 20
-44.620093487
 30
0.0
 10
28.8137201866
 20
-44.552130873
 30
0.0
 10
29.2292064043
 20
-44.4301868143
 30
0.0
 10
29.6767402031
 20
-44.2401794592
 30
0.0
 10
30.1522634702
 20
-43.9665608091
 30
0.0
 10
30.6474888043
 20
-43.5935059108
 30
0.0
 10
31.1459548906
 20
-43.1087406265
 30
0.0
 10
31.6120957491
 20
-42.5071815355
 30
0.0
 10
31.9835260264
 20
-41.811822338
 30
0.0
 10
32.2087810886
 20
-41.0815073322
 30
0.0
 10
32.2621386134
 20
-40.5918245292
 30
0.0
 10
32.2657532588
 20
-40.3599838944
 30
0.0
 11
28.0756001119
 21
-44.6418143894
 31
0.0
 11
28.4187752591
 21
-44.6157094116
 31
0.0
 11
28.7972983971
 21
-44.5483684248
 31
0.0
 11
29.2099043313
 21
-44.4276818391
 31
0.0
 11
29.6537736657
 21
-44.2400346273
 31
0.0
 11
30.1253129216
 21
-43.9699795414
 31
0.0
 11
30.6185147338
 21
-43.6001139421
 31
0.0
 11
31.1170694486
 21
-43.1152950112
 31
0.0
 11
31.5858176009
 21
-42.5067571675
 31
0.0
 11
31.9650150083
 21
-41.7902600082
 31
0.0
 11
32.1909740963
 21
-41.0515591885
 31
0.0
 11
32.2657532588
 21
-40.3599838944
 31
0.0
  0
SPLINE
  5
49B
100
AcDbEntity
  8
RACCORDO
100
AcDbSpline
 62
253
  6
CONTINUOUS
 70
0
 71
3
 72
27
 73
23
 74
21
 42
0.0000001
 43
0.0000001
 44
0.0000000001
 12
28.0000103115
 22
0.0000032303
 32
0.0
 13
28.000003576
 23
-0.019421345
 33
0.0
 40
0.0
 40
0.0
 40
0.0
 40
0.0
 40
0.0201392156
 40
0.0422666188
 40
0.0665381012
 40
0.0932162903
 40
0.1224793833
 40
0.1542030685
 40
0.1883216851
 40
0.2248353738
 40
0.2637049724
 40
0.3053828694
 40
0.3503445397
 40
0.3989212709
 40
0.4511348087
 40
0.5081724565
 40
0.5712774902
 40
0.6411878726
 40
0.7186057777
 40
0.8040592504
 40
0.8977067274
 40
1.0
 40
1.0
 40
1.0
 40
1.0
 10
-0.0000001208
 20
-46.0886580597
 30
0.0
 10
0.1879659605
 20
-46.088658038
 30
0.0
 10
0.5824545478
 20
-46.0886582718
 30
0.0
 10
1.2034770541
 20
-46.0886592185
 30
0.0
 10
1.8855300029
 20
-46.0886607308
 30
0.0
 10
2.6341827475
 20
-46.0886627824
 30
0.0
 10
3.4523894109
 20
-46.0886653521
 30
0.0
 10
4.340040089
 20
-46.0886684034
 30
0.0
 10
5.2953630189
 20
-46.0886718831
 30
0.0
 10
6.3173811645
 20
-46.0886757829
 30
0.0
 10
7.4099526207
 20
-46.0886801517
 30
0.0
 10
8.5813719337
 20
-46.0886850535
 30
0.0
 10
9.8433911846
 20
-46.0886905926
 30
0.0
 10
11.2037431184
 20
-46.088696794
 30
0.0
 10
12.6768042174
 20
-46.0887044439
 30
0.0
 10
14.2854628568
 20
-46.0887156325
 30
0.0
 10
16.0592921065
 20
-46.0887339233
 30
0.0
 10
18.0233371614
 20
-46.0887652123
 30
0.0
 10
20.1959677213
 20
-46.088832895
 30
0.0
 10
22.5901445828
 20
-46.0889790298
 30
0.0
 10
25.2164915833
 20
-46.0893526896
 30
0.0
 10
27.045272558
 20
-46.0899818071
 30
0.0
 10
28.0000098904
 20
-46.0906440314
 30
0.0
 11
-0.0000001208
 21
-46.0886580597
 31
0.0
 11
0.5638981229
 21
-46.0886583443
 31
0.0
 11
1.1834656411
 21
-46.0886592563
 31
0.0
 11
1.8630673983
 21
-46.0886607375
 31
0.0
 11
2.6100569693
 21
-46.0886627638
 31
0.0
 11
3.4294238748
 21
-46.0886653189
 31
0.0
 11
4.3176873886
 21
-46.0886683558
 31
0.0
 11
5.2730090035
 21
-46.0886718283
 31
0.0
 11
6.2953926645
 21
-46.0886757292
 31
0.0
 11
7.3837418253
 21
-46.0886800795
 31
0.0
 11
8.5507233722
 21
-46.0886849636
 31
0.0
 11
9.8096506036
 21
-46.0886904787
 31
0.0
 11
11.169799578
 21
-46.0886967779
 31
0.0
 11
12.6317791735
 21
-46.0887046205
 31
0.0
 11
14.2288339007
 21
-46.0887160869
 31
0.0
 11
15.995775496
 21
-46.0887348385
 31
0.0
 11
17.9532669226
 21
-46.0887688089
 31
0.0
 11
20.1209690638
 21
-46.088840823
 31
0.0
 11
22.5136671747
 21
-46.0890052752
 31
0.0
 11
25.1357974633
 21
-46.0894254817
 31
0.0
 11
28.0000098904
 21
-46.0906440314
 31
0.0
  0
SPLINE
  5
49C
100
AcDbEntity
  8
RACCORDO
100
AcDbSpline
 62
253
  6
CONTINUOUS
 70
0
 71
3
 72
27
 73
23
 74
21
 42
0.0000001
 43
0.0000001
 44
0.0000000001
 12
28.0761102124
 22
-0.0006474583
 32
0.0
 13
28.0651329623
 23
0.7850330504
 33
0.0
 40
0.0
 40
0.0
 40
0.0
 40
0.0
 40
0.0200888644
 40
0.0421592103
 40
0.0663669744
 40
0.0929743042
 40
0.1221590451
 40
0.1537972873
 40
0.1878236564
 40
0.2242385417
 40
0.2630028865
 40
0.304567857
 40
0.3494076482
 40
0.3978532212
 40
0.4499288095
 40
0.5068201204
 40
0.5697700285
 40
0.6395274926
 40
0.7168219645
 40
0.8022467908
 40
0.8961898909
 40
1.0
 40
1.0
 40
1.0
 40
1.0
 10
-0.0000091296
 20
-44.7281413666
 30
0.0
 10
0.1879965941
 20
-44.7281457022
 30
0.0
 10
0.5825521395
 20
-44.728136276
 30
0.0
 10
1.2036609664
 20
-44.7280813463
 30
0.0
 10
1.8857741737
 20
-44.7279864372
 30
0.0
 10
2.6344688881
 20
-44.7278508713
 30
0.0
 10
3.4527032365
 20
-44.7276730269
 30
0.0
 10
4.3403701649
 20
-44.7274513204
 30
0.0
 10
5.2957018607
 20
-44.7271843593
 30
0.0
 10
6.3177246242
 20
-44.7268665749
 30
0.0
 10
7.4102989075
 20
-44.7264914009
 30
0.0
 10
8.5817193676
 20
-44.7260485654
 30
0.0
 10
9.8437435453
 20
-44.7255225638
 30
0.0
 10
11.2041334446
 20
-44.7248967701
 30
0.0
 10
12.6773098632
 20
-44.7240948236
 30
0.0
 10
14.2862279525
 20
-44.7230429679
 30
0.0
 10
16.0606251703
 20
-44.7216515199
 30
0.0
 10
18.0259694535
 20
-44.7195539289
 30
0.0
 10
20.201646155
 20
-44.7159973943
 30
0.0
 10
22.6036726429
 20
-44.7095269618
 30
0.0
 10
25.2537885073
 20
-44.6949528364
 30
0.0
 10
27.1044528386
 20
-44.6689856874
 30
0.0
 10
28.0756010098
 20
-44.6418208985
 30
0.0
 11
-0.0000091296
 21
-44.7281413666
 31
0.0
 11
0.5640080417
 21
-44.7281309366
 31
0.0
 11
1.1836575031
 21
-44.728078121
 31
0.0
 11
1.8633173488
 21
-44.7279850365
 31
0.0
 11
2.6103476621
 21
-44.7278509303
 31
0.0
 11
3.4297416448
 21
-44.7276737698
 31
0.0
 11
4.3180203929
 21
-44.7274526683
 31
0.0
 11
5.2733484459
 21
-44.7271857614
 31
0.0
 11
6.2957367294
 21
-44.7268680553
 31
0.0
 11
7.3840886805
 21
-44.7264943354
 31
0.0
 11
8.5510712915
 21
-44.7260528986
 31
0.0
 11
9.8099981027
 21
-44.725527911
 31
0.0
 11
11.1701612017
 21
-44.7248939655
 31
0.0
 11
12.6322409391
 21
-44.724093877
 31
0.0
 11
14.2295273104
 21
-44.7230470737
 31
0.0
 11
15.9969152952
 21
-44.721622364
 31
0.0
 11
17.9554323461
 21
-44.719453498
 31
0.0
 11
20.1255573096
 21
-44.7157578655
 31
0.0
 11
22.5239436881
 21
-44.7086734917
 31
0.0
 11
25.1614471682
 21
-44.6918973604
 31
0.0
 11
28.0756010098
 21
-44.6418208985
 31
0.0
  0
SPLINE
  5
49D
100
AcDbEntity
  8
RACCORDO
100
AcDbSpline
 62
253
  6
CONTINUOUS
 70
0
 71
3
 72
11
 73
7
 74
5
 42
0.0000001
 43
0.0000001
 44
0.0000000001
 12
0.0174526187
 22
-1.4526965718
 32
0.0
 13
1.3291475058
 23
-0.5865141356
 33
0.0
 40
0.0
 40
0.0
 40
0.0
 40
0.0
 40
0.3955058627
 40
0.7132135783
 40
0.921352352
 40
1.0
 40
1.0
 40
1.0
 40
1.0
 10
-28.0756001467
 20
-44.6418132459
 30
0.0
 10
-28.0732992757
 20
-44.8333299162
 30
0.0
 10
-28.0612731888
 20
-45.1724392621
 30
0.0
 10
-28.0650656525
 20
-45.639367459
 30
0.0
 10
-28.0093340146
 20
-45.8910354268
 30
0.0
 10
-28.0348547176
 20
-46.0752648392
 30
0.0
 10
-28.0000099425
 20
-46.0906408249
 30
0.0
 11
-28.0756001467
 21
-44.6418132459
 31
0.0
 11
-28.0645623546
 21
-45.2162986924
 31
0.0
 11
-28.0470292716
 21
-45.6775317815
 31
0.0
 11
-28.0247650442
 21
-45.9790953252
 31
0.0
 11
-28.0000099425
 21
-46.0906408249
 31
0.0
  0
SPLINE
  5
49E
100
AcDbEntity
  8
RACCORDO
100
AcDbSpline
 62
253
  6
CONTINUOUS
 70
0
 71
3
 72
25
 73
21
 74
19
 42
0.0000001
 43
0.0000001
 44
0.0000000001
 12
28.0000033516
 22
0.0193821874
 32
0.0
 13
28.00001006
 23
-0.0000064474
 33
0.0
 40
0.0
 40
0.0
 40
0.0
 40
0.0
 40
0.1225833596
 40
0.2316380475
 40
0.3281670541
 40
0.4138336287
 40
0.4901226812
 40
0.5575014066
 40
0.6175461269
 40
0.6714771395
 40
0.719699292
 40
0.7632085559
 40
0.8031085525
 40
0.8398135256
 40
0.8733134392
 40
0.9037871891
 40
0.9313969127
 40
0.9564455935
 40
0.9792507136
 40
1.0
 40
1.0
 40
1.0
 40
1.0
 10
-28.0000098904
 20
-46.0906408249
 30
0.0
 10
-26.8558983968
 20
-46.089848847
 30
0.0
 10
-24.6939424845
 20
-46.0892237357
 30
0.0
 10
-21.6310489244
 20
-46.0888957223
 30
0.0
 10
-18.9127120982
 20
-46.0887828539
 30
0.0
 10
-16.5001879852
 20
-46.0887367274
 30
0.0
 10
-14.3597332592
 20
-46.0887142739
 30
0.0
 10
-12.4584159263
 20
-46.088701598
 30
0.0
 10
-10.7657737069
 20
-46.0886935103
 30
0.0
 10
-9.2519262327
 20
-46.0886868904
 30
0.0
 10
-7.89240974
 20
-46.0886812278
 30
0.0
 10
-6.6638494445
 20
-46.0886763751
 30
0.0
 10
-5.542782862
 20
-46.0886721693
 30
0.0
 10
-4.5151369154
 20
-46.0886685064
 30
0.0
 10
-3.5754693023
 20
-46.0886653473
 30
0.0
 10
-2.7206907154
 20
-46.0886627243
 30
0.0
 10
-1.9447903293
 20
-46.0886606535
 30
0.0
 10
-1.2404638479
 20
-46.088659143
 30
0.0
 10
-0.6001681365
 20
-46.0886582175
 30
0.0
 10
-0.1936601968
 20
-46.0886580151
 30
0.0
 10
-0.0000001208
 20
-46.0886580597
 30
0.0
 11
-28.0000098904
 21
-46.0906408249
 31
0.0
 11
-24.56767485
 21
-46.089297451
 31
0.0
 11
-21.5141425179
 21
-46.0889186065
 31
0.0
 11
-18.8113293627
 21
-46.0887893372
 31
0.0
 11
-16.4126644148
 21
-46.0887387036
 31
0.0
 11
-14.2765701767
 21
-46.088714847
 31
0.0
 11
-12.3899651861
 21
-46.0887017697
 31
0.0
 11
-10.708712416
 21
-46.0886933573
 31
0.0
 11
-9.1986435185
 21
-46.0886867126
 31
0.0
 11
-7.8484227637
 21
-46.0886810955
 31
0.0
 11
-6.6301629377
 21
-46.0886762841
 31
0.0
 11
-5.5129626322
 21
-46.0886720937
 31
0.0
 11
-4.485223016
 21
-46.088668436
 31
0.0
 11
-3.5472250979
 21
-46.0886653004
 31
0.0
 11
-2.693959793
 21
-46.0886627019
 31
0.0
 11
-1.9208872551
 21
-46.0886606605
 31
0.0
 11
-1.2195239398
 21
-46.0886591837
 31
0.0
 11
-0.5809803488
 21
-46.0886582954
 31
0.0
 11
-0.0000001208
 21
-46.0886580597
 31
0.0
  0
SPLINE
  5
49F
100
AcDbEntity
  8
RACCORDO
100
AcDbSpline
 62
253
  6
CONTINUOUS
 70
0
 71
3
 72
25
 73
21
 74
19
 42
0.0000001
 43
0.0000001
 44
0.0000000001
 12
28.0651215172
 22
-0.7841374519
 32
0.0
 13
28.0760737445
 23
0.0006440947
 33
0.0
 40
0.0
 40
0.0
 40
0.0
 40
0.0
 40
0.124203239
 40
0.2334564057
 40
0.3298799754
 40
0.4153735361
 40
0.4914774345
 40
0.5586833395
 40
0.6185687106
 40
0.6723539595
 40
0.7204456172
 40
0.7638372481
 40
0.8036294523
 40
0.8402353353
 40
0.8736451188
 40
0.9040373638
 40
0.9315738317
 40
0.9565568132
 40
0.9793031775
 40
1.0
 40
1.0
 40
1.0
 40
1.0
 10
-28.0756001467
 20
-44.6418132459
 30
0.0
 10
-26.9136738148
 20
-44.674277383
 30
0.0
 10
-24.7287825467
 20
-44.6997077604
 30
0.0
 10
-21.6416132768
 20
-44.7129929089
 30
0.0
 10
-18.9166332967
 20
-44.7183336229
 30
0.0
 10
-16.5018985192
 20
-44.7213085716
 30
0.0
 10
-14.3605985229
 20
-44.7229977787
 30
0.0
 10
-12.4589581536
 20
-44.7242331545
 30
0.0
 10
-10.7661907965
 20
-44.7251121986
 30
0.0
 10
-9.252307735
 20
-44.7257758173
 30
0.0
 10
-7.8927844491
 20
-44.7263149755
 30
0.0
 10
-6.6642177209
 20
-44.7267517033
 30
0.0
 10
-5.5431427912
 20
-44.7271105139
 30
0.0
 10
-4.5154848735
 20
-44.7274044828
 30
0.0
 10
-3.5757982605
 20
-44.7276438568
 30
0.0
 10
-2.7209894951
 20
-44.7278333666
 30
0.0
 10
-1.9450445597
 20
-44.7279768182
 30
0.0
 10
-1.2406550542
 20
-44.7280771679
 30
0.0
 10
-0.6002756735
 20
-44.7281354949
 30
0.0
 10
-0.1937043009
 20
-44.7281458125
 30
0.0
 10
-0.0000091296
 20
-44.7281413689
 30
0.0
 11
-28.0756001467
 21
-44.6418132459
 31
0.0
 11
-24.5888943949
 21
-44.6967995063
 31
0.0
 11
-21.5215332751
 21
-44.7122368789
 31
0.0
 11
-18.8143445578
 21
-44.7181859342
 31
0.0
 11
-16.4140229711
 21
-44.7212292583
 31
0.0
 11
-14.2773250491
 21
-44.7230108089
 31
0.0
 11
-12.390447501
 21
-44.7242343103
 31
0.0
 11
-10.7091016389
 21
-44.7251179465
 31
0.0
 11
-9.1990231729
 21
-44.7257880729
 31
0.0
 11
-7.8487983481
 21
-44.7263226949
 31
0.0
 11
-6.6305317979
 21
-44.7267561752
 31
0.0
 11
-5.5133229953
 21
-44.7271134626
 31
0.0
 11
-4.4855735639
 21
-44.7274074296
 31
0.0
 11
-3.5475580487
 21
-44.7276456411
 31
0.0
 11
-2.6942631582
 21
-44.7278337965
 31
0.0
 11
-1.9211472692
 21
-44.7279755058
 31
0.0
 11
-1.2197232439
 21
-44.7280738617
 31
0.0
 11
-0.5810946434
 21
-44.7281299185
 31
0.0
 11
-0.0000091296
 21
-44.7281413689
 31
0.0
  0
SPLINE
  5
4A0
100
AcDbEntity
  8
RACCORDO
100
AcDbSpline
 62
253
  6
CONTINUOUS
 70
0
 71
3
 72
12
 73
8
 74
6
 42
0.0000001
 43
0.0000001
 44
0.0000000001
 12
-1.5383818348
 22
0.0142504674
 32
0.0
 13
-0.6686423922
 23
1.3855464975
 33
0.0
 40
0.0
 40
0.0
 40
0.0
 40
0.0
 40
0.3192443731
 40
0.5955797264
 40
0.8099536951
 40
0.9476814731
 40
1.0
 40
1.0
 40
1.0
 40
1.0
 10
-32.2657532081
 20
-40.3599838865
 30
0.0
 10
-32.4294597895
 20
-40.3584674259
 30
0.0
 10
-32.7363490724
 20
-40.3555609655
 30
0.0
 10
-33.1460483433
 20
-40.3398407168
 30
0.0
 10
-33.4818009694
 20
-40.3387898792
 30
0.0
 10
-33.6623154166
 20
-40.3000444319
 30
0.0
 10
-33.7890280005
 20
-40.3141575883
 30
0.0
 10
-33.8006887955
 20
-40.2899943377
 30
0.0
 11
-32.2657532081
 21
-40.3599838865
 31
0.0
 11
-32.7568424331
 21
-40.3528653705
 31
0.0
 11
-33.1818152764
 21
-40.3413981944
 31
0.0
 11
-33.5112761235
 21
-40.3263755398
 31
0.0
 11
-33.7224359791
 21
-40.3088365269
 31
0.0
 11
-33.8006887955
 21
-40.2899943377
 31
0.0
  0
SPLINE
  5
4A1
100
AcDbEntity
  8
RACCORDO
100
AcDbSpline
 62
253
  6
CONTINUOUS
 70
0
 71
3
 72
18
 73
14
 74
12
 42
0.0000001
 43
0.0000001
 44
0.0000000001
 12
0.1019341794
 22
-6.5419278673
 32
0.0
 13
6.5401526787
 23
-0.1833404935
 33
0.0
 40
0.0
 40
0.0
 40
0.0
 40
0.0
 40
0.1040574913
 40
0.2194832509
 40
0.3410829184
 40
0.4582422665
 40
0.5656167304
 40
0.6611397978
 40
0.7453802944
 40
0.820101725
 40
0.8867954801
 40
0.9464937667
 40
1.0
 40
1.0
 40
1.0
 40
1.0
 10
-32.2657532081
 20
-40.3599838865
 30
0.0
 10
-32.2622175364
 20
-40.5868960872
 30
0.0
 10
-32.2109864827
 20
-41.0658517515
 30
0.0
 10
-31.9947551873
 20
-41.7821939101
 30
0.0
 10
-31.6350756331
 20
-42.4707555133
 30
0.0
 10
-31.1766822696
 20
-43.0742791667
 30
0.0
 10
-30.6789874084
 20
-43.5665741873
 30
0.0
 10
-30.1803638029
 20
-43.9481058443
 30
0.0
 10
-29.699934642
 20
-44.2287957414
 30
0.0
 10
-29.2469066725
 20
-44.4240413846
 30
0.0
 10
-28.8256259489
 20
-44.5495258126
 30
0.0
 10
-28.4388563609
 20
-44.6195280613
 30
0.0
 10
-28.1922463797
 20
-44.6385427193
 30
0.0
 10
-28.075600068
 20
-44.6418126724
 30
0.0
 11
-32.2657532081
 21
-40.3599838865
 31
0.0
 11
-32.1938799045
 21
-41.0369987006
 31
0.0
 11
-31.9772219063
 21
-41.7604517521
 31
0.0
 11
-31.6114415563
 21
-42.4669732767
 31
0.0
 11
-31.14962096
 21
-43.0787795406
 31
0.0
 11
-30.6502443212
 21
-43.5729041193
 31
0.0
 11
-30.1530904372
 21
-43.9516376741
 31
0.0
 11
-29.6766177638
 21
-44.2286819043
 31
0.0
 11
-29.2273500574
 21
-44.4214607762
 31
0.0
 11
-28.8090298515
 21
-44.5456264617
 31
0.0
 11
-28.4246462557
 21
-44.614975189
 31
0.0
 11
-28.075600068
 21
-44.6418126724
 31
0.0
  0
SPLINE
  5
4A2
100
AcDbEntity
  8
RACCORDO
100
AcDbSpline
 62
253
  6
CONTINUOUS
 70
0
 71
3
 72
27
 73
23
 74
21
 42
0.0000001
 43
0.0000001
 44
0.0000000001
 12
-0.0001925858
 22
-22.1984696595
 32
0.0
 13
0.1046188532
 23
-22.1982231306
 33
0.0
 40
0.0
 40
0.0
 40
0.0
 40
0.0
 40
0.0246718928
 40
0.0516512567
 40
0.0811838312
 40
0.1136232695
 40
0.1491838052
 40
0.187460718
 40
0.2287228305
 40
0.2733271419
 40
0.3211779829
 40
0.3722244022
 40
0.4273243531
 40
0.487583846
 40
0.5539178315
 40
0.6251336663
 40
0.6985522475
 40
0.7710306724
 40
0.8384618412
 40
0.8982788363
 40
0.9515565803
 40
1.0
 40
1.0
 40
1.0
 40
1.0
 10
-14.649734937
 20
-4.7899952408
 30
0.0
 10
-14.6497365209
 20
-4.9725546622
 30
0.0
 10
-14.6497499172
 20
-5.3547476134
 30
0.0
 10
-14.6497942666
 20
-5.9554665496
 30
0.0
 10
-14.6498640577
 20
-6.6136613579
 30
0.0
 10
-14.649961151
 20
-7.3353524579
 30
0.0
 10
-14.650087875
 20
-8.1217471968
 30
0.0
 10
-14.6502471642
 20
-8.9734252198
 30
0.0
 10
-14.6504428073
 20
-9.8920225636
 30
0.0
 10
-14.6506801631
 20
-10.8814620846
 30
0.0
 10
-14.6509665359
 20
-11.9433004753
 30
0.0
 10
-14.6513089379
 20
-13.0828012304
 30
0.0
 10
-14.6517099665
 20
-14.3141196662
 30
0.0
 10
-14.6521761011
 20
-15.6585582775
 30
0.0
 10
-14.6527004553
 20
-17.1222461966
 30
0.0
 10
-14.6532014565
 20
-18.6833046698
 30
0.0
 10
-14.6535511463
 20
-20.2898289102
 30
0.0
 10
-14.6534685309
 20
-21.8683486134
 30
0.0
 10
-14.6526412545
 20
-23.3462233672
 30
0.0
 10
-14.6507467859
 20
-24.6820218836
 30
0.0
 10
-14.6476272654
 20
-25.8773181486
 30
0.0
 10
-14.6445631382
 20
-26.6299969145
 30
0.0
 10
-14.6428737732
 20
-26.9884495274
 30
0.0
 11
-14.649734937
 21
-4.7899952408
 31
0.0
 11
-14.6497527001
 21
-5.3376735047
 31
0.0
 11
-14.6497959414
 21
-5.9365740929
 31
0.0
 11
-14.6498647451
 21
-6.5921520486
 31
0.0
 11
-14.649961091
 21
-7.3122579286
 31
0.0
 11
-14.6500879162
 21
-8.1016473921
 31
0.0
 11
-14.6502465699
 21
-8.9513362643
 31
0.0
 11
-14.6504414882
 21
-9.8672919959
 31
0.0
 11
-14.6506791464
 21
-10.8574394217
 31
0.0
 11
-14.6509654334
 21
-11.9196548246
 31
0.0
 11
-14.6513045038
 21
-13.0528071653
 31
0.0
 11
-14.6517016263
 21
-14.2759416873
 31
0.0
 11
-14.6521629639
 21
-15.6136101327
 31
0.0
 11
-14.6526786841
 21
-17.0861230071
 31
0.0
 11
-14.6531694307
 21
-18.6670054801
 31
0.0
 11
-14.6534788462
 21
-20.2967855967
 31
0.0
 11
-14.6533255974
 21
-21.9056957067
 31
0.0
 11
-14.6523827357
 21
-23.4025641653
 31
0.0
 11
-14.6503992052
 21
-24.7304084347
 31
0.0
 11
-14.6472322156
 21
-25.9130885783
 31
0.0
 11
-14.6428737732
 21
-26.9884495274
 31
0.0
  0
SPLINE
  5
4A3
100
AcDbEntity
  8
RACCORDO
100
AcDbSpline
 62
253
  6
CONTINUOUS
 70
0
 71
3
 72
27
 73
23
 74
21
 42
0.0000001
 43
0.0000001
 44
0.0000000001
 12
-0.1046305435
 22
-22.1982243523
 32
0.0
 13
0.0001926338
 23
-22.1984709363
 33
0.0
 40
0.0
 40
0.0
 40
0.0
 40
0.0
 40
0.0423490998
 40
0.0889650507
 40
0.1397403714
 40
0.1946456629
 40
0.2541183531
 40
0.3192525639
 40
0.3903617016
 40
0.4639583597
 40
0.5355643687
 40
0.6025779378
 40
0.663748152
 40
0.7180341501
 40
0.7661972546
 40
0.8097050732
 40
0.8493232837
 40
0.8855016451
 40
0.9182803818
 40
0.9480426325
 40
0.9751884883
 40
1.0
 40
1.0
 40
1.0
 40
1.0
 10
-14.6428737738
 20
17.4084602608
 30
0.0
 10
-14.6443507769
 20
17.0951019881
 30
0.0
 10
-14.6470888744
 20
16.4368114661
 30
0.0
 10
-14.6500526086
 20
15.4028079261
 30
0.0
 10
-14.6520229995
 20
14.2758925228
 30
0.0
 10
-14.6531179693
 20
13.0538426523
 30
0.0
 10
-14.6535438146
 20
11.7255439468
 30
0.0
 10
-14.653478994
 20
10.2773449979
 30
0.0
 10
-14.6530907053
 20
8.7246359464
 30
0.0
 10
-14.6525533399
 20
7.124038932
 30
0.0
 10
-14.6519893654
 20
5.5537470497
 30
0.0
 10
-14.6514904228
 20
4.0754045005
 30
0.0
 10
-14.651070007
 20
2.7252211858
 30
0.0
 10
-14.6507338495
 20
1.5145216827
 30
0.0
 10
-14.6504702032
 20
0.4345148904
 30
0.0
 10
-14.6502608282
 20
-0.5369577593
 30
0.0
 10
-14.6500944296
 20
-1.4197494258
 30
0.0
 10
-14.6499642565
 20
-2.2231513595
 30
0.0
 10
-14.6498655427
 20
-2.9536242177
 30
0.0
 10
-14.6497948848
 20
-3.6172611409
 30
0.0
 10
-14.6497500611
 20
-4.2219446624
 30
0.0
 10
-14.6497365301
 20
-4.6064027
 30
0.0
 10
-14.649734937
 20
-4.7899952408
 30
0.0
 11
-14.6428737738
 21
17.4084602608
 31
0.0
 11
-14.6467646639
 21
16.4683830521
 31
0.0
 11
-14.6497798459
 21
15.433584613
 31
0.0
 11
-14.6518156836
 21
14.3064519718
 31
0.0
 11
-14.6529754675
 21
13.0876390044
 31
0.0
 11
-14.6534536465
 21
11.7674363066
 31
0.0
 11
-14.6534336665
 21
10.3215564221
 31
0.0
 11
-14.6530731606
 21
8.743042335
 31
0.0
 11
-14.652541929
 21
7.1093091472
 31
0.0
 11
-14.6519830868
 21
5.5197653352
 31
0.0
 11
-14.6514826024
 21
4.032166653
 31
0.0
 11
-14.6510622322
 21
2.6742814951
 31
0.0
 11
-14.6507284089
 21
1.4692153907
 31
0.0
 11
-14.6504671478
 21
0.4000681477
 31
0.0
 11
-14.6502591801
 21
-0.5657388774
 31
0.0
 11
-14.650093687
 21
-1.4452025558
 31
0.0
 11
-14.6499639574
 21
-2.2483068501
 31
0.0
 11
-14.6498661705
 21
-2.9759446772
 31
0.0
 11
-14.6497965487
 21
-3.6366211294
 31
0.0
 11
-14.6497528665
 21
-4.2392176189
 31
0.0
 11
-14.649734937
 21
-4.7899952408
 31
0.0
  0
SPLINE
  5
4A4
100
AcDbEntity
  8
RACCORDO
100
AcDbSpline
 62
253
  6
CONTINUOUS
 70
0
 71
3
 72
16
 73
12
 74
10
 42
0.0000001
 43
0.0000001
 44
0.0000000001
 12
-5.7899913354
 22
-0.0280774988
 32
0.0
 13
-0.0268719421
 23
-5.789997056
 33
0.0
 40
0.0
 40
0.0
 40
0.0
 40
0.0
 40
0.0837371286
 40
0.1762859745
 40
0.2789008493
 40
0.3937765134
 40
0.5218571139
 40
0.6563221447
 40
0.7833766096
 40
0.8977727729
 40
1.0
 40
1.0
 40
1.0
 40
1.0
 10
-10.9476598523
 20
21.0936161791
 30
0.0
 10
-11.1092722686
 20
21.0928324694
 30
0.0
 10
-11.4497754612
 20
21.069662759
 30
0.0
 10
-11.9788233589
 20
20.9613676101
 30
0.0
 10
-12.5428364857
 20
20.7539588764
 30
0.0
 10
-13.1238145071
 20
20.4189868605
 30
0.0
 10
-13.6770548045
 20
19.9373061359
 30
0.0
 10
-14.1326541474
 20
19.3318218793
 30
0.0
 10
-14.4424750275
 20
18.6703767139
 30
0.0
 10
-14.6072316733
 20
18.0243937657
 30
0.0
 10
-14.641958094
 20
17.6057587091
 30
0.0
 10
-14.6428737754
 20
17.4084602611
 30
0.0
 11
-10.9476598523
 21
21.0936161791
 31
0.0
 11
-11.4313776301
 21
21.0606041014
 31
0.0
 11
-11.9563173745
 21
20.95295765
 31
0.0
 11
-12.5138529773
 21
20.7476194301
 31
0.0
 11
-13.089916276
 21
20.4151164992
 31
0.0
 11
-13.6491737532
 21
19.9280916954
 31
0.0
 11
-14.1174519684
 21
19.3061013476
 31
0.0
 11
-14.4298562397
 21
18.6400767526
 31
0.0
 11
-14.5937890678
 21
17.9983232417
 31
0.0
 11
-14.6428737754
 21
17.4084602611
 31
0.0
  0
SPLINE
  5
4A5
100
AcDbEntity
  8
RACCORDO
100
AcDbSpline
 62
253
  6
CONTINUOUS
 70
0
 71
3
 72
26
 73
22
 74
20
 42
0.0000001
 43
0.0000001
 44
0.0000000001
 12
-10.9476792684
 22
0.0002265158
 32
0.0
 13
-10.9475496629
 23
-0.0532709416
 33
0.0
 40
0.0
 40
0.0
 40
0.0
 40
0.0
 40
0.0236196673
 40
0.0494400648
 40
0.0775607455
 40
0.108184881
 40
0.1416410484
 40
0.1780745324
 40
0.2171609885
 40
0.2590961228
 40
0.3042552964
 40
0.3529291836
 40
0.4051480782
 40
0.4609814263
 40
0.5208206134
 40
0.5851618583
 40
0.6544834289
 40
0.7294265966
 40
0.8111493418
 40
0.9008775316
 40
1.0
 40
1.0
 40
1.0
 40
1.0
 10
-0.0000029517
 20
21.1099661074
 30
0.0
 10
-0.0861964658
 20
21.1099678908
 30
0.0
 10
-0.2666144567
 20
21.109962095
 30
0.0
 10
-0.549651177
 20
21.1099317394
 30
0.0
 10
-0.8582487851
 20
21.1098801221
 30
0.0
 10
-1.1947110429
 20
21.1098068219
 30
0.0
 10
-1.5615085975
 20
21.1097104804
 30
0.0
 10
-1.9591870704
 20
21.1095898115
 30
0.0
 10
-2.3878072066
 20
21.1094425485
 30
0.0
 10
-2.8482693495
 20
21.1092614868
 30
0.0
 10
-3.3437181842
 20
21.1090372908
 30
0.0
 10
-3.8766947659
 20
21.1087577898
 30
0.0
 10
-4.4486237946
 20
21.1084087476
 30
0.0
 10
-5.0612974792
 20
21.1079673803
 30
0.0
 10
-5.7182082702
 20
21.107387053
 30
0.0
 10
-6.424340464
 20
21.1066029012
 30
0.0
 10
-7.1855901822
 20
21.1055247536
 30
0.0
 10
-8.0102683045
 20
21.1039986545
 30
0.0
 10
-8.9094134657
 20
21.1017592166
 30
0.0
 10
-9.8967917008
 20
21.0984501569
 30
0.0
 10
-10.5859438028
 20
21.0953762862
 30
0.0
 10
-10.9476598512
 20
21.0936161704
 30
0.0
 11
-0.0000029517
 21
21.1099661074
 31
0.0
 11
-0.2585834939
 21
21.1099592594
 31
0.0
 11
-0.5412569222
 21
21.1099299328
 31
0.0
 11
-0.8491131112
 21
21.109879165
 31
0.0
 11
-1.1843763172
 21
21.1098066807
 31
0.0
 11
-1.5506436947
 21
21.1097109509
 31
0.0
 11
-1.9495057738
 21
21.1095901744
 31
0.0
 11
-2.3774117345
 21
21.1094427042
 31
0.0
 11
-2.8365040994
 21
21.1092617442
 31
0.0
 11
-3.3308921967
 21
21.1090373919
 31
0.0
 11
-3.8637582293
 21
21.1087572153
 31
0.0
 11
-4.4354338309
 21
21.1084066574
 31
0.0
 11
-5.0466792567
 21
21.1079618785
 31
0.0
 11
-5.701779225
 21
21.1073776733
 31
0.0
 11
-6.4061660964
 21
21.1065885213
 31
0.0
 11
-7.1650756386
 21
21.105501022
 31
0.0
 11
-7.9855279561
 21
21.1039606979
 31
0.0
 11
-8.8801995278
 21
21.1017096256
 31
0.0
 11
-9.8625093706
 21
21.0983925172
 31
0.0
 11
-10.9476598512
 21
21.0936161704
 31
0.0
  0
SPLINE
  5
4A6
100
AcDbEntity
  8
RACCORDO
100
AcDbSpline
 62
253
  6
CONTINUOUS
 70
0
 71
3
 72
25
 73
21
 74
19
 42
0.0000001
 43
0.0000001
 44
0.0000000001
 12
-10.9475557469
 22
0.0532258732
 32
0.0
 13
-10.9476851331
 23
-0.0002265665
 33
0.0
 40
0.0
 40
0.0
 40
0.0
 40
0.0
 40
0.1138678391
 40
0.2146207
 40
0.3043613504
 40
0.3849395607
 40
0.457875276
 40
0.524147252
 40
0.5847274929
 40
0.640499052
 40
0.6917649185
 40
0.7386490221
 40
0.7816012134
 40
0.8212235725
 40
0.8579487456
 40
0.8915896658
 40
0.9223273142
 40
0.9505109563
 40
0.9763631315
 40
1.0
 40
1.0
 40
1.0
 40
1.0
 10
10.9476598516
 20
21.0936161742
 30
0.0
 10
10.532135013
 20
21.0956364126
 30
0.0
 10
9.7489423775
 20
21.0990727056
 30
0.0
 10
8.6382634936
 20
21.102542255
 30
0.0
 10
7.6490632334
 20
21.1047414058
 30
0.0
 10
6.7613728431
 20
21.1061682304
 30
0.0
 10
5.9593244765
 20
21.1071457246
 30
0.0
 10
5.2302530021
 20
21.1078328918
 30
0.0
 10
4.5638173215
 20
21.1083333221
 30
0.0
 10
3.9521422948
 20
21.1087155398
 30
0.0
 10
3.3904475614
 20
21.1090149578
 30
0.0
 10
2.8755336031
 20
21.1092502278
 30
0.0
 10
2.4031094456
 20
21.1094370505
 30
0.0
 10
1.9677575351
 20
21.1095871001
 30
0.0
 10
1.5663845719
 20
21.1097091259
 30
0.0
 10
1.1974339414
 20
21.1098061877
 30
0.0
 10
0.8596533032
 20
21.1098798646
 30
0.0
 10
0.5502955706
 20
21.1099316593
 30
0.0
 10
0.2668502026
 20
21.1099620836
 30
0.0
 10
0.0862533796
 20
21.1099678924
 30
0.0
 10
-0.0000029517
 20
21.1099661073
 30
0.0
 11
10.9476598516
 21
21.0936161742
 31
0.0
 11
9.7010822463
 21
21.0990040911
 31
0.0
 11
8.5980771649
 21
21.1024926474
 31
0.0
 11
7.6156272811
 21
21.10470948
 31
0.0
 11
6.7334835875
 21
21.1061530806
 31
0.0
 11
5.9350069469
 21
21.1071368422
 31
0.0
 11
5.2094825498
 21
21.1078282582
 31
0.0
 11
4.5462693389
 21
21.1083319919
 31
0.0
 11
3.9356999908
 21
21.1087160782
 31
0.0
 11
3.3744575067
 21
21.1090160403
 31
0.0
 11
2.8611851561
 21
21.1092512964
 31
0.0
 11
2.3909581269
 21
21.1094377146
 31
0.0
 11
1.9571850411
 21
21.1095876943
 31
0.0
 11
1.5551294286
 21
21.1097096837
 31
0.0
 11
1.186839239
 21
21.109806091
 31
0.0
 11
0.8503331508
 21
21.1098789311
 31
0.0
 11
0.5417875151
 21
21.1099298604
 31
0.0
 11
0.2587660422
 21
21.1099592467
 31
0.0
 11
-0.0000029517
 21
21.1099661073
 31
0.0
  0
SPLINE
  5
4A7
100
AcDbEntity
  8
RACCORDO
100
AcDbSpline
 62
253
  6
CONTINUOUS
 70
0
 71
3
 72
17
 73
13
 74
11
 42
0.0000001
 43
0.0000001
 44
0.0000000001
 12
-0.0273340769
 22
5.7906602491
 32
0.0
 13
-5.7906595663
 23
0.0274783419
 33
0.0
 40
0.0
 40
0.0
 40
0.0
 40
0.0
 40
0.0625883118
 40
0.1308922677
 40
0.2054989449
 40
0.2883469525
 40
0.3807140951
 40
0.4845162768
 40
0.6018805472
 40
0.734089457
 40
0.8722130437
 40
1.0
 40
1.0
 40
1.0
 40
1.0
 10
14.6428737741
 20
17.4084602608
 30
0.0
 10
14.6423035095
 20
17.5292694773
 30
0.0
 10
14.6290228778
 20
17.7820238899
 30
0.0
 10
14.5684881083
 20
18.174752269
 30
0.0
 10
14.4548085161
 20
18.596445211
 30
0.0
 10
14.2727795329
 20
19.0444412904
 30
0.0
 10
14.0025112353
 20
19.5124937206
 30
0.0
 10
13.6206416095
 20
19.9855453388
 30
0.0
 10
13.1027482444
 20
20.4355407366
 30
0.0
 10
12.4472162693
 20
20.8079295115
 30
0.0
 10
11.7086801362
 20
21.0402551749
 30
0.0
 10
11.1943167748
 20
21.0924457371
 30
0.0
 10
10.9476598545
 20
21.093616195
 30
0.0
 11
14.6428737741
 21
17.4084602608
 31
0.0
 11
14.623823405
 21
17.7703909327
 31
0.0
 11
14.5635227325
 21
18.1612967295
 31
0.0
 11
14.4510012588
 21
18.5784130395
 31
0.0
 11
14.2703135473
 21
19.0228362863
 31
0.0
 11
14.0027448121
 21
19.4859731743
 31
0.0
 11
13.6250965696
 21
19.9536170871
 31
0.0
 11
13.1120706519
 21
20.3993675142
 31
0.0
 11
12.4465985517
 21
20.777874978
 31
0.0
 11
11.6838165844
 21
21.0185007777
 31
0.0
 11
10.9476598545
 21
21.093616195
 31
0.0
  0
SPLINE
  5
4A8
100
AcDbEntity
  8
RACCORDO
100
AcDbSpline
 62
253
  6
CONTINUOUS
 70
0
 71
3
 72
27
 73
23
 74
21
 42
0.0000001
 43
0.0000001
 44
0.0000000001
 12
0.0001925845
 22
22.1984681081
 32
0.0
 13
-0.1046188459
 23
22.1982215792
 33
0.0
 40
0.0
 40
0.0
 40
0.0
 40
0.0
 40
0.0246718978
 40
0.0516512666
 40
0.0811838463
 40
0.11362329
 40
0.1491838296
 40
0.1874607457
 40
0.2287228616
 40
0.2733271757
 40
0.3211780183
 40
0.3722244392
 40
0.4273243921
 40
0.4875838871
 40
0.5539178732
 40
0.6251337056
 40
0.6985522813
 40
0.7710306984
 40
0.8384618584
 40
0.8982788459
 40
0.9515565844
 40
1.0
 40
1.0
 40
1.0
 40
1.0
 10
14.649734937
 20
-4.7899924746
 30
0.0
 10
14.6497365209
 20
-4.6074330291
 30
0.0
 10
14.6497499173
 20
-4.2252400313
 30
0.0
 10
14.6497942668
 20
-3.6245210254
 30
0.0
 10
14.6498640579
 20
-2.9663261478
 30
0.0
 10
14.6499611512
 20
-2.2446349907
 30
0.0
 10
14.6500878754
 20
-1.4582402131
 30
0.0
 10
14.6502471645
 20
-0.6065621717
 30
0.0
 10
14.6504428078
 20
0.3120351768
 30
0.0
 10
14.6506801636
 20
1.3014746852
 30
0.0
 10
14.6509665364
 20
2.3633130452
 30
0.0
 10
14.6513089385
 20
3.5028137599
 30
0.0
 10
14.6517099671
 20
4.7341321525
 30
0.0
 10
14.6521761017
 20
6.0785707051
 30
0.0
 10
14.6527004559
 20
7.542258524
 30
0.0
 10
14.6532014569
 20
9.1033168336
 30
0.0
 10
14.6535511464
 20
10.7098408449
 30
0.0
 10
14.6534685306
 20
12.2883602743
 30
0.0
 10
14.6526412538
 20
13.7662347456
 30
0.0
 10
14.6507467851
 20
15.1020330066
 30
0.0
 10
14.6476272647
 20
16.2973290608
 30
0.0
 10
14.6445631379
 20
17.050007703
 30
0.0
 10
14.6428737732
 20
17.4084602606
 30
0.0
 11
14.649734937
 21
-4.7899924746
 31
0.0
 11
14.6497527001
 21
-4.2423141385
 31
0.0
 11
14.6497959415
 21
-3.6434134826
 31
0.0
 11
14.6498647453
 21
-2.9878354576
 31
0.0
 11
14.6499610913
 21
-2.2677295067
 31
0.0
 11
14.6500879165
 21
-1.4783400122
 31
0.0
 11
14.6502465703
 21
-0.6286511258
 31
0.0
 11
14.6504414886
 21
0.287304616
 31
0.0
 11
14.6506791468
 21
1.2774520315
 31
0.0
 11
14.6509654339
 21
2.3396673965
 31
0.0
 11
14.6513045044
 21
3.4728196935
 31
0.0
 11
14.6517016269
 21
4.6959541756
 31
0.0
 11
14.6521629645
 21
6.0336225751
 31
0.0
 11
14.6526786846
 21
7.5061353592
 31
0.0
 11
14.6531694311
 21
9.0870176678
 31
0.0
 11
14.6534788463
 21
10.7167975482
 31
0.0
 11
14.6533255971
 21
12.3257073718
 31
0.0
 11
14.6523827351
 21
13.8225755311
 31
0.0
 11
14.6503992044
 21
15.150419539
 31
0.0
 11
14.647232215
 21
16.3330994774
 31
0.0
 11
14.6428737732
 21
17.4084602606
 31
0.0
  0
SPLINE
  5
4A9
100
AcDbEntity
  8
RACCORDO
100
AcDbSpline
 62
253
  6
CONTINUOUS
 70
0
 71
3
 72
27
 73
23
 74
21
 42
0.0000001
 43
0.0000001
 44
0.0000000001
 12
0.1046305509
 22
22.1982259038
 32
0.0
 13
-0.000192635
 23
22.1984724878
 33
0.0
 40
0.0
 40
0.0
 40
0.0
 40
0.0
 40
0.0423491032
 40
0.0889650586
 40
0.1397403847
 40
0.1946456829
 40
0.2541183814
 40
0.3192526026
 40
0.3903617502
 40
0.4639584142
 40
0.5355644247
 40
0.6025779919
 40
0.6637482011
 40
0.7180341924
 40
0.7661972906
 40
0.8097051041
 40
0.8493233097
 40
0.8855016661
 40
0.9182803971
 40
0.9480426424
 40
0.9751884932
 40
1.0
 40
1.0
 40
1.0
 40
1.0
 10
14.6428737738
 20
-26.9884495275
 30
0.0
 10
14.6443507771
 20
-26.6750912074
 30
0.0
 10
14.647088875
 20
-26.0168005809
 30
0.0
 10
14.6500526094
 20
-24.9827968698
 30
0.0
 10
14.6520230002
 20
-23.8558812657
 30
0.0
 10
14.6531179698
 20
-22.6338311592
 30
0.0
 10
14.6535438147
 20
-21.3055321732
 30
0.0
 10
14.6534789938
 20
-19.8573329115
 30
0.0
 10
14.6530907048
 20
-18.3046235572
 30
0.0
 10
14.6525533393
 20
-16.7040263027
 30
0.0
 10
14.6519893647
 20
-15.1337342697
 30
0.0
 10
14.6514904221
 20
-13.6553916574
 30
0.0
 10
14.6510700063
 20
-12.3052083502
 30
0.0
 10
14.650733849
 20
-11.0945088963
 30
0.0
 10
14.6504702028
 20
-10.0145021636
 30
0.0
 10
14.6502608278
 20
-9.0430295668
 30
0.0
 10
14.6500944293
 20
-8.16023795
 30
0.0
 10
14.6499642563
 20
-7.3568360755
 30
0.0
 10
14.6498655425
 20
-6.6263632848
 30
0.0
 10
14.6497948847
 20
-5.9627264334
 30
0.0
 10
14.649750061
 20
-5.3580429824
 30
0.0
 10
14.6497365301
 20
-4.9735849914
 30
0.0
 10
14.6497349369
 20
-4.7899924746
 30
0.0
 11
14.6428737738
 21
-26.9884495275
 31
0.0
 11
14.6467646644
 21
-26.0483721766
 31
0.0
 11
14.6497798466
 21
-25.0135735661
 31
0.0
 11
14.6518156843
 21
-23.8864407252
 31
0.0
 11
14.652975468
 21
-22.6676275266
 31
0.0
 11
14.6534536466
 21
-21.3474245518
 31
0.0
 11
14.6534336663
 21
-19.9015443341
 31
0.0
 11
14.6530731601
 21
-18.3230299187
 31
0.0
 11
14.6525419284
 21
-16.689296484
 31
0.0
 11
14.651983086
 21
-15.0997525266
 31
0.0
 11
14.6514826017
 21
-13.6121537848
 31
0.0
 11
14.6510622316
 21
-12.2542686424
 31
0.0
 11
14.6507284084
 21
-11.0492026047
 31
0.0
 11
14.6504671474
 21
-9.9800554272
 31
0.0
 11
14.6502591797
 21
-9.0142484486
 31
0.0
 11
14.6500936867
 21
-8.1347848171
 31
0.0
 11
14.6499639571
 21
-7.3316805783
 31
0.0
 11
14.6498661703
 21
-6.6040428266
 31
0.0
 11
14.6497965485
 21
-5.9433664458
 31
0.0
 11
14.6497528664
 21
-5.3407700249
 31
0.0
 11
14.6497349369
 21
-4.7899924746
 31
0.0
  0
SPLINE
  5
4AA
100
AcDbEntity
  8
RACCORDO
100
AcDbSpline
 62
253
  6
CONTINUOUS
 70
0
 71
3
 72
16
 73
12
 74
10
 42
0.0000001
 43
0.0000001
 44
0.0000000001
 12
5.7899913355
 22
0.0280774988
 32
0.0
 13
0.0268719422
 23
5.7899970561
 33
0.0
 40
0.0
 40
0.0
 40
0.0
 40
0.0
 40
0.0837371295
 40
0.1762859764
 40
0.2789008521
 40
0.3937765175
 40
0.5218571185
 40
0.6563221482
 40
0.7833766112
 40
0.8977727735
 40
1.0
 40
1.0
 40
1.0
 40
1.0
 10
10.9476598523
 20
-30.6736054459
 30
0.0
 10
11.1092722705
 20
-30.6728217362
 30
0.0
 10
11.4497754667
 20
-30.6496520253
 30
0.0
 10
11.9788233696
 20
-30.5413568741
 30
0.0
 10
12.5428365013
 20
-30.3339481363
 30
0.0
 10
13.1238145255
 20
-29.9989761145
 30
0.0
 10
13.6770548205
 20
-29.5172953853
 30
0.0
 10
14.1326541567
 20
-28.9118111295
 30
0.0
 10
14.4424750307
 20
-28.2503659701
 30
0.0
 10
14.6072316738
 20
-27.6043830282
 30
0.0
 10
14.641958094
 20
-27.1857479748
 30
0.0
 10
14.6428737754
 20
-26.9884495279
 30
0.0
 11
10.9476598523
 21
-30.6736054459
 31
0.0
 11
11.4313776356
 21
-30.6405933675
 31
0.0
 11
11.956317385
 21
-30.5329469138
 31
0.0
 11
12.5138529924
 21
-30.3276086899
 31
0.0
 11
13.0899162951
 21
-29.9951057525
 31
0.0
 11
13.6491737714
 21
-29.5080809426
 31
0.0
 11
14.1174519788
 21
-28.8860905971
 31
0.0
 11
14.4298562428
 21
-28.2200660104
 31
0.0
 11
14.5937890683
 21
-27.5783125052
 31
0.0
 11
14.6428737754
 21
-26.9884495279
 31
0.0
  0
SPLINE
  5
4AB
100
AcDbEntity
  8
RACCORDO
100
AcDbSpline
 62
253
  6
CONTINUOUS
 70
0
 71
3
 72
26
 73
22
 74
20
 42
0.0000001
 43
0.0000001
 44
0.0000000001
 12
10.9476792683
 22
-0.0002265158
 32
0.0
 13
10.9475496628
 23
0.0532709416
 33
0.0
 40
0.0
 40
0.0
 40
0.0
 40
0.0
 40
0.0236196667
 40
0.0494400634
 40
0.0775607434
 40
0.1081848783
 40
0.1416410451
 40
0.1780745286
 40
0.2171609844
 40
0.2590961183
 40
0.3042552916
 40
0.3529291787
 40
0.4051480731
 40
0.4609814212
 40
0.5208206085
 40
0.5851618537
 40
0.6544834247
 40
0.729426593
 40
0.8111493391
 40
0.90087753
 40
1.0
 40
1.0
 40
1.0
 40
1.0
 10
0.0000029517
 20
-30.6899553742
 30
0.0
 10
0.0861964634
 20
-30.6899571576
 30
0.0
 10
0.2666144493
 20
-30.6899513617
 30
0.0
 10
0.5496511621
 20
-30.6899210062
 30
0.0
 10
0.8582487628
 20
-30.6898693888
 30
0.0
 10
1.1947110137
 20
-30.6897960887
 30
0.0
 10
1.561508562
 20
-30.6896997472
 30
0.0
 10
1.9591870296
 20
-30.6895790783
 30
0.0
 10
2.3878071612
 20
-30.6894318153
 30
0.0
 10
2.8482693002
 20
-30.6892507536
 30
0.0
 10
3.343718132
 20
-30.6890265576
 30
0.0
 10
3.8766947119
 20
-30.6887470566
 30
0.0
 10
4.4486237398
 20
-30.6883980144
 30
0.0
 10
5.0612974248
 20
-30.6879566472
 30
0.0
 10
5.7182082173
 20
-30.6873763198
 30
0.0
 10
6.424340414
 20
-30.686592168
 30
0.0
 10
7.1855901368
 20
-30.6855140204
 30
0.0
 10
8.0102682658
 20
-30.6839879214
 30
0.0
 10
8.9094134365
 20
-30.6817484835
 30
0.0
 10
9.8967916849
 20
-30.6784394238
 30
0.0
 10
10.585943797
 20
-30.675365553
 30
0.0
 10
10.9476598512
 20
-30.6736054372
 30
0.0
 11
0.0000029517
 21
-30.6899553742
 31
0.0
 11
0.2585834867
 21
-30.6899485262
 31
0.0
 11
0.5412569073
 21
-30.6899191996
 31
0.0
 11
0.8491130887
 21
-30.6898684317
 31
0.0
 11
1.1843762877
 21
-30.6897959475
 31
0.0
 11
1.550643659
 21
-30.6897002177
 31
0.0
 11
1.9495057327
 21
-30.6895794412
 31
0.0
 11
2.3774116888
 21
-30.689431971
 31
0.0
 11
2.8365040498
 21
-30.689251011
 31
0.0
 11
3.3308921441
 21
-30.6890266587
 31
0.0
 11
3.8637581749
 21
-30.6887464821
 31
0.0
 11
4.4354337758
 21
-30.6883959242
 31
0.0
 11
5.0466792019
 21
-30.6879511453
 31
0.0
 11
5.7017791716
 21
-30.6873669401
 31
0.0
 11
6.4061660458
 21
-30.6865777881
 31
0.0
 11
7.1650755926
 21
-30.6854902888
 31
0.0
 11
7.9855279165
 21
-30.6839499648
 31
0.0
 11
8.8801994974
 21
-30.6816988925
 31
0.0
 11
9.8625093531
 21
-30.6783817841
 31
0.0
 11
10.9476598512
 21
-30.6736054372
 31
0.0
  0
SPLINE
  5
4AC
100
AcDbEntity
  8
RACCORDO
100
AcDbSpline
 62
253
  6
CONTINUOUS
 70
0
 71
3
 72
25
 73
21
 74
19
 42
0.0000001
 43
0.0000001
 44
0.0000000001
 12
10.9475557469
 22
-0.0532258732
 32
0.0
 13
10.9476851331
 23
0.0002265665
 33
0.0
 40
0.0
 40
0.0
 40
0.0
 40
0.0
 40
0.1138678416
 40
0.2146207042
 40
0.3043613557
 40
0.3849395666
 40
0.4578752823
 40
0.5241472584
 40
0.5847274991
 40
0.6404990581
 40
0.6917649242
 40
0.7386490275
 40
0.7816012182
 40
0.8212235768
 40
0.8579487492
 40
0.8915896688
 40
0.9223273165
 40
0.9505109578
 40
0.9763631323
 40
1.0
 40
1.0
 40
1.0
 40
1.0
 10
-10.9476598516
 20
-30.673605441
 30
0.0
 10
-10.5321350039
 20
-30.6756256794
 30
0.0
 10
-9.7489423531
 20
-30.6790619724
 30
0.0
 10
-8.6382634501
 20
-30.6825315218
 30
0.0
 10
-7.6490631775
 20
-30.6847306727
 30
0.0
 10
-6.7613727797
 20
-30.6861574973
 30
0.0
 10
-5.9593244092
 20
-30.6871349915
 30
0.0
 10
-5.2302529335
 20
-30.6878221586
 30
0.0
 10
-4.5638172536
 20
-30.6883225889
 30
0.0
 10
-3.9521422289
 20
-30.6887048066
 30
0.0
 10
-3.3904474989
 20
-30.6890042246
 30
0.0
 10
-2.8755335451
 20
-30.6892394946
 30
0.0
 10
-2.403109393
 20
-30.6894263173
 30
0.0
 10
-1.9677574884
 20
-30.6895763669
 30
0.0
 10
-1.5663845317
 20
-30.6896983927
 30
0.0
 10
-1.1974339083
 20
-30.6897954545
 30
0.0
 10
-0.8596532779
 20
-30.6898691314
 30
0.0
 10
-0.5502955536
 20
-30.6899209261
 30
0.0
 10
-0.2668501942
 20
-30.6899513504
 30
0.0
 10
-0.0862533768
 20
-30.6899571591
 30
0.0
 10
0.0000029517
 20
-30.689955374
 30
0.0
 11
-10.9476598516
 21
-30.673605441
 31
0.0
 11
-9.7010822189
 21
-30.678993358
 31
0.0
 11
-8.5980771192
 21
-30.6824819143
 31
0.0
 11
-7.6156272236
 21
-30.6846987469
 31
0.0
 11
-6.7334835229
 21
-30.6861423474
 31
0.0
 11
-5.9350068787
 21
-30.6871261091
 31
0.0
 11
-5.2094824806
 21
-30.687817525
 31
0.0
 11
-4.5462692705
 21
-30.6883212587
 31
0.0
 11
-3.9356999245
 21
-30.688705345
 31
0.0
 11
-3.3744574438
 21
-30.6890053071
 31
0.0
 11
-2.8611850978
 21
-30.6892405632
 31
0.0
 11
-2.3909580742
 21
-30.6894269814
 31
0.0
 11
-1.9571849943
 21
-30.6895769611
 31
0.0
 11
-1.5551293883
 21
-30.6896989505
 31
0.0
 11
-1.1868392056
 21
-30.6897953578
 31
0.0
 11
-0.8503331253
 21
-30.6898681979
 31
0.0
 11
-0.5417874981
 21
-30.6899191272
 31
0.0
 11
-0.2587660339
 21
-30.6899485135
 31
0.0
 11
0.0000029517
 21
-30.689955374
 31
0.0
  0
SPLINE
  5
4AD
100
AcDbEntity
  8
RACCORDO
100
AcDbSpline
 62
253
  6
CONTINUOUS
 70
0
 71
3
 72
17
 73
13
 74
11
 42
0.0000001
 43
0.0000001
 44
0.0000000001
 12
0.0273340769
 22
-5.790660249
 32
0.0
 13
5.7906595663
 23
-0.0274783419
 33
0.0
 40
0.0
 40
0.0
 40
0.0
 40
0.0
 40
0.0625883118
 40
0.1308922676
 40
0.2054989447
 40
0.2883469523
 40
0.3807140948
 40
0.4845162764
 40
0.6018805468
 40
0.7340894566
 40
0.8722130435
 40
1.0
 40
1.0
 40
1.0
 40
1.0
 10
-14.6428737741
 20
-26.9884495276
 30
0.0
 10
-14.6423035095
 20
-27.1092587439
 30
0.0
 10
-14.6290228778
 20
-27.3620131563
 30
0.0
 10
-14.5684881085
 20
-27.754741535
 30
0.0
 10
-14.4548085165
 20
-28.1764344767
 30
0.0
 10
-14.2727795336
 20
-28.6244305558
 30
0.0
 10
-14.0025112364
 20
-29.0924829857
 30
0.0
 10
-13.6206416111
 20
-29.5655346039
 30
0.0
 10
-13.1027482464
 20
-30.015530002
 30
0.0
 10
-12.4472162711
 20
-30.3879187776
 30
0.0
 10
-11.7086801372
 20
-30.6202444415
 30
0.0
 10
-11.1943167752
 20
-30.6724350039
 30
0.0
 10
-10.9476598545
 20
-30.6736054618
 30
0.0
 11
-14.6428737741
 21
-26.9884495276
 31
0.0
 11
-14.623823405
 21
-27.3503801991
 31
0.0
 11
-14.5635227326
 21
-27.7412859955
 31
0.0
 11
-14.4510012592
 21
-28.1584023052
 31
0.0
 11
-14.270313548
 21
-28.6028255517
 31
0.0
 11
-14.0027448132
 21
-29.0659624394
 31
0.0
 11
-13.6250965713
 21
-29.5336063521
 31
0.0
 11
-13.112070654
 21
-29.9793567794
 31
0.0
 11
-12.4465985537
 21
-30.3578642439
 31
0.0
 11
-11.6838165854
 21
-30.5984900443
 31
0.0
 11
-10.9476598545
 21
-30.6736054618
 31
0.0
  0
SPLINE
  5
4AE
100
AcDbEntity
  8
DRAFT
100
AcDbSpline
 62
7
  6
CONTINUOUS
 70
0
 71
3
 72
21
 73
17
 74
15
 42
0.0000001
 43
0.0000001
 44
0.0000000001
 12
-0.0092669113
 22
-10.344774196
 32
0.0
 13
-0.0023823266
 23
10.3447780724
 33
0.0
 40
0.0
 40
0.0
 40
0.0
 40
0.0
 40
0.0752919939
 40
0.154991502
 40
0.2335523687
 40
0.3053121856
 40
0.3691846949
 40
0.4271664123
 40
0.4836745853
 40
0.5440735466
 40
0.6124651059
 40
0.6889288787
 40
0.7694110366
 40
0.8506883552
 40
0.9290212962
 40
1.0
 40
1.0
 40
1.0
 40
1.0
 10
-24.6962728655
 20
-40.2899946334
 30
0.0
 10
-24.6965054402
 20
-40.5496208587
 30
0.0
 10
-24.7606041767
 20
-41.0860894878
 30
0.0
 10
-25.0492586206
 20
-41.8466975889
 30
0.0
 10
-25.50909229
 20
-42.5030371764
 30
0.0
 10
-26.0673131817
 20
-42.9961845934
 30
0.0
 10
-26.6536092764
 20
-43.3247883467
 30
0.0
 10
-27.2406736544
 20
-43.5191907439
 30
0.0
 10
-27.8409183402
 20
-43.6039578846
 30
0.0
 10
-28.4830919066
 20
-43.5763133955
 30
0.0
 10
-29.1750041636
 20
-43.4032512446
 30
0.0
 10
-29.8735728122
 20
-43.0460720902
 30
0.0
 10
-30.4981150175
 20
-42.4989734477
 30
0.0
 10
-30.9686439023
 20
-41.8066703054
 30
0.0
 10
-31.2411113981
 20
-41.0513392353
 30
0.0
 10
-31.2989107237
 20
-40.5347476128
 30
0.0
 10
-31.2989670886
 20
-40.2899946334
 30
0.0
 11
-24.6962728655
 21
-40.2899946334
 31
0.0
 11
-24.7888598511
 21
-41.063351038
 31
0.0
 11
-25.081296888
 21
-41.8342190794
 31
0.0
 11
-25.5476125024
 21
-42.4998184399
 31
0.0
 11
-26.1038910576
 21
-42.9913689994
 31
0.0
 11
-26.6802610413
 21
-43.3144544
 31
0.0
 11
-27.2496562736
 21
-43.5030246102
 31
0.0
 11
-27.8284785875
 21
-43.584758397
 31
0.0
 11
-28.4527127142
 21
-43.5578488435
 31
0.0
 11
-29.1390452992
 21
-43.3861004942
 31
0.0
 11
-29.843292393
 21
-43.0259362719
 31
0.0
 11
-30.4695263182
 21
-42.4772979437
 31
0.0
 11
-30.9422072131
 21
-41.781948804
 31
0.0
 11
-31.2171504147
 21
-41.0196810378
 31
0.0
 11
-31.2989670886
 21
-40.2899946334
 31
0.0
  0
SPLINE
  5
4AF
100
AcDbEntity
  8
DRAFT
100
AcDbSpline
 62
7
  6
CONTINUOUS
 70
0
 71
3
 72
27
 73
23
 74
21
 42
0.0000001
 43
0.0000001
 44
0.0000000001
 12
-0.0023859146
 22
10.3603583326
 32
0.0
 13
-0.0092808682
 23
-10.3603544504
 33
0.0
 40
0.0
 40
0.0
 40
0.0
 40
0.0
 40
0.0612866642
 40
0.1188965616
 40
0.1773034238
 40
0.2411727134
 40
0.3136676848
 40
0.3911320772
 40
0.4673401849
 40
0.5386417389
 40
0.6019174247
 40
0.6579400413
 40
0.7078036561
 40
0.7524717291
 40
0.7915371333
 40
0.8257356748
 40
0.8565483008
 40
0.8854789284
 40
0.9140716461
 40
0.9428459979
 40
0.9715540524
 40
1.0
 40
1.0
 40
1.0
 40
1.0
 10
-31.2989670886
 20
-40.2899946334
 30
0.0
 10
-31.2990158301
 20
-40.0783440327
 30
0.0
 10
-31.2593721893
 20
-39.6665989485
 30
0.0
 10
-31.0875434756
 20
-39.0756229983
 30
0.0
 10
-30.8073803702
 20
-38.5172160074
 30
0.0
 10
-30.3937691816
 20
-37.9811001807
 30
0.0
 10
-29.8237475092
 20
-37.5015568208
 30
0.0
 10
-29.1181038524
 20
-37.148835054
 30
0.0
 10
-28.352884886
 20
-36.9762710809
 30
0.0
 10
-27.6188288136
 20
-36.9837532845
 30
0.0
 10
-26.9724826703
 20
-37.1294781407
 30
0.0
 10
-26.4337500288
 20
-37.363119825
 30
0.0
 10
-25.9958023985
 20
-37.6472796503
 30
0.0
 10
-25.649042115
 20
-37.9539163933
 30
0.0
 10
-25.3812969688
 20
-38.2621639475
 30
0.0
 10
-25.1779249153
 20
-38.5593525585
 30
0.0
 10
-25.0227106496
 20
-38.8448119212
 30
0.0
 10
-24.9025712028
 20
-39.1256784127
 30
0.0
 10
-24.8104381831
 20
-39.409524221
 30
0.0
 10
-24.7443851381
 20
-39.6997698578
 30
0.0
 10
-24.7048316665
 20
-39.9942584456
 30
0.0
 10
-24.6961848645
 20
-40.1917579334
 30
0.0
 10
-24.6962728655
 20
-40.2899946334
 30
0.0
 11
-31.2989670886
 21
-40.2899946334
 31
0.0
 11
-31.2380641105
 21
-39.6579703938
 31
0.0
 11
-31.0714855657
 21
-39.0848277511
 31
0.0
 11
-30.8000935101
 21
-38.5439841775
 31
0.0
 11
-30.3958664093
 21
-38.0200959129
 31
0.0
 11
-29.8210762698
 21
-37.5366413654
 31
0.0
 11
-29.1031974441
 21
-37.1778228113
 31
0.0
 11
-28.3330022426
 21
-37.0041046108
 31
0.0
 11
-27.5943303972
 21
-37.0115798949
 31
0.0
 11
-26.9548137284
 21
-37.1557178997
 31
0.0
 11
-26.4223106691
 21
-37.3866320953
 31
0.0
 11
-25.9889304112
 21
-37.6678121201
 31
0.0
 11
-25.6422497982
 21
-37.974366096
 31
0.0
 11
-25.3768356018
 21
-38.279919642
 31
0.0
 11
-25.1767383762
 21
-38.5723167635
 31
0.0
 11
-25.0242448344
 21
-38.8527689349
 31
0.0
 11
-24.9063662864
 21
-39.1283478266
 31
0.0
 11
-24.8149107079
 21
-39.4101075989
 31
0.0
 11
-24.7487573827
 21
-39.7007875978
 31
0.0
 11
-24.7091670118
 21
-39.9955666223
 31
0.0
 11
-24.6962728655
 21
-40.2899946334
 31
0.0
  0
SPLINE
  5
4B0
100
AcDbEntity
  8
DRAFT
100
AcDbSpline
 62
7
  6
CONTINUOUS
 70
0
 71
3
 72
21
 73
17
 74
15
 42
0.0000001
 43
0.0000001
 44
0.0000000001
 12
0.0092669113
 22
10.344774196
 32
0.0
 13
0.0023823266
 23
-10.3447780724
 33
0.0
 40
0.0
 40
0.0
 40
0.0
 40
0.0
 40
0.075291994
 40
0.1549915021
 40
0.2335523688
 40
0.3053121856
 40
0.369184695
 40
0.4271664125
 40
0.4836745856
 40
0.544073547
 40
0.6124651062
 40
0.688928879
 40
0.7694110368
 40
0.8506883554
 40
0.9290212964
 40
1.0
 40
1.0
 40
1.0
 40
1.0
 10
24.6962728655
 20
30.7100053666
 30
0.0
 10
24.6965054402
 20
30.969631592
 30
0.0
 10
24.7606041767
 20
31.5061002213
 30
0.0
 10
25.0492586208
 20
32.2667083227
 30
0.0
 10
25.5090922904
 20
32.9230479101
 30
0.0
 10
26.0673131824
 20
33.4161953272
 30
0.0
 10
26.6536092777
 20
33.7447990805
 30
0.0
 10
27.2406736565
 20
33.9392014776
 30
0.0
 10
27.8409183431
 20
34.023968618
 30
0.0
 10
28.4830919098
 20
33.9963241283
 30
0.0
 10
29.1750041665
 20
33.8232619767
 30
0.0
 10
29.8735728146
 20
33.4660828218
 30
0.0
 10
30.4981150191
 20
32.918984179
 30
0.0
 10
30.9686439031
 20
32.2266810369
 30
0.0
 10
31.2411113983
 20
31.4713499675
 30
0.0
 10
31.2989107237
 20
30.9547583456
 30
0.0
 10
31.2989670886
 20
30.7100053666
 30
0.0
 11
24.6962728655
 21
30.7100053666
 31
0.0
 11
24.7888598512
 21
31.4833617717
 31
0.0
 11
25.0812968883
 21
32.2542298131
 31
0.0
 11
25.5476125028
 21
32.9198291736
 31
0.0
 11
26.1038910582
 21
33.411379733
 31
0.0
 11
26.6802610425
 21
33.7344651337
 31
0.0
 11
27.2496562758
 21
33.9230353439
 31
0.0
 11
27.8284785906
 21
34.0047691304
 31
0.0
 11
28.4527127177
 21
33.9778595763
 31
0.0
 11
29.139045302
 21
33.8061112264
 31
0.0
 11
29.8432923954
 21
33.4459470035
 31
0.0
 11
30.46952632
 21
32.8973086749
 31
0.0
 11
30.942207214
 21
32.2019595355
 31
0.0
 11
31.217150415
 21
31.4396917699
 31
0.0
 11
31.2989670886
 21
30.7100053666
 31
0.0
  0
LINE
  5
4B1
100
AcDbEntity
  8
RACCORDO
100
AcDbLine
 62
7
  6
CONTINUOUS
 10
-108.2409791698
 20
35.0952889362
 11
-108.2231871493
 21
35.1481520966
  0
SPLINE
  5
4B2
100
AcDbEntity
  8
DRAFT
100
AcDbSpline
 62
7
  6
CONTINUOUS
 70
0
 71
3
 72
15
 73
11
 74
9
 42
0.0000001
 43
0.0000001
 44
0.0000000001
 12
-0.1527285555
 22
-3.4725036996
 32
0.0
 13
-3.6312884685
 23
0.0848400179
 33
0.0
 40
0.0
 40
0.0
 40
0.0
 40
0.0
 40
0.1821694231
 40
0.3478486572
 40
0.5049764378
 40
0.6585521324
 40
0.8029411929
 40
0.9154790174
 40
0.9821584144
 40
1.0
 40
1.0
 40
1.0
 40
1.0
 10
-108.380134011
 20
30.7100053666
 30
0.0
 10
-108.3894081686
 20
30.4991440347
 30
0.0
 10
-108.4134566193
 20
30.0966971425
 30
0.0
 10
-108.4697183967
 20
29.5143783233
 30
0.0
 10
-108.5453204215
 20
28.9668329919
 30
0.0
 10
-108.6449562095
 20
28.4508863356
 30
0.0
 10
-108.7666327165
 20
27.9836011086
 30
0.0
 10
-108.9094264015
 20
27.6523527824
 30
0.0
 10
-109.0352011971
 20
27.4295091581
 30
0.0
 10
-109.138367952
 20
27.4139996054
 30
0.0
 10
-109.1599639333
 20
27.4145041655
 30
0.0
 11
-108.380134011
 21
30.7100053666
 31
0.0
 11
-108.4186302768
 21
30.0779811272
 31
0.0
 11
-108.474692037
 21
29.5048384847
 31
0.0
 11
-108.5506705389
 21
28.9639949114
 31
0.0
 11
-108.6530999188
 21
28.4401066469
 31
0.0
 11
-108.7878273818
 21
27.9566520995
 31
0.0
 11
-108.9435833886
 21
27.5978335451
 31
0.0
 11
-109.0970061087
 21
27.4241153442
 31
0.0
 11
-109.1599639333
 21
27.4145041655
 31
0.0
  0
LINE
  5
4B3
100
AcDbEntity
  8
RACCORDO
100
AcDbLine
 62
7
  6
CONTINUOUS
 10
-108.2231871519
 20
-44.7281413557
 11
-108.2409794845
 21
-44.675277266
  0
SPLINE
  5
4B4
100
AcDbEntity
  8
DRAFT
100
AcDbSpline
 62
7
  6
CONTINUOUS
 70
0
 71
3
 72
14
 73
10
 74
8
 42
0.0000001
 43
0.0000001
 44
0.0000000001
 12
2.561959107
 22
-1.4273328016
 32
0.0
 13
-0.145070768
 23
-3.2983928709
 33
0.0
 40
0.0
 40
0.0
 40
0.0
 40
0.0
 40
0.009882356
 40
0.0621050274
 40
0.1712064317
 40
0.3373949935
 40
0.5480276938
 40
0.7789072935
 40
1.0
 40
1.0
 40
1.0
 40
1.0
 10
-108.4231260126
 20
34.0022185474
 30
0.0
 10
-108.4146866153
 20
33.9975167438
 30
0.0
 10
-108.3580693183
 20
33.9365935329
 30
0.0
 10
-108.4064195558
 20
33.7394052296
 30
0.0
 10
-108.3635866747
 20
33.3853508659
 30
0.0
 10
-108.3759545529
 20
32.8474915216
 30
0.0
 10
-108.3567710337
 20
32.1800010895
 30
0.0
 10
-108.3571765138
 20
31.4503552435
 30
0.0
 10
-108.3694426481
 20
30.9530889022
 30
0.0
 10
-108.380134011
 20
30.7100053666
 30
0.0
 11
-108.4231260126
 21
34.0022185474
 31
0.0
 11
-108.3985460089
 21
33.9778595763
 31
0.0
 11
-108.3833714281
 21
33.8061112264
 31
0.0
 11
-108.3778080195
 21
33.4459470035
 31
0.0
 11
-108.3706441556
 21
32.8973086749
 31
0.0
 11
-108.3606437703
 21
32.2019595355
 31
0.0
 11
-108.3603111053
 21
31.4396917699
 31
0.0
 11
-108.380134011
 21
30.7100053666
 31
0.0
  0
SPLINE
  5
4B5
100
AcDbEntity
  8
RACCORDO
100
AcDbSpline
 62
7
  6
CONTINUOUS
 70
0
 71
3
 72
11
 73
7
 74
5
 42
0.0000001
 43
0.0000001
 44
0.0000000001
 12
0.0028548757
 22
0.0162285584
 32
0.0
 13
0.0025064722
 23
0.0162272387
 33
0.0
 40
0.0
 40
0.0
 40
0.0
 40
0.0
 40
0.2071768761
 40
0.5047082487
 40
0.7072072261
 40
1.0
 40
1.0
 40
1.0
 40
1.0
 10
-110.5281438049
 20
-30.689955698
 30
0.0
 10
-110.5279466501
 20
-30.6888349707
 30
0.0
 10
-110.5276519766
 20
-30.6860893763
 30
0.0
 10
-110.5275452137
 20
-30.6822163051
 30
0.0
 10
-110.5272431944
 20
-30.6778879623
 30
0.0
 10
-110.5269593538
 20
-30.6751891766
 30
0.0
 10
-110.5267147281
 20
-30.6736054372
 30
0.0
 11
-110.5281438049
 21
-30.689955698
 31
0.0
 11
-110.5277415442
 21
-30.6865777881
 31
0.0
 11
-110.5274901522
 21
-30.6816988925
 31
0.0
 11
-110.5272616839
 21
-30.6783817841
 31
0.0
 11
-110.5267147281
 21
-30.6736054372
 31
0.0
  0
LINE
  5
4B6
100
AcDbEntity
  8
RACCORDO
100
AcDbLine
 62
7
  6
CONTINUOUS
 10
-110.5285173718
 20
-26.9884495275
 11
-110.528908505
 21
-25.3073306276
  0
SPLINE
  5
4B7
100
AcDbEntity
  8
RACCORDO
100
AcDbSpline
 62
7
  6
CONTINUOUS
 70
0
 71
3
 72
26
 73
22
 74
20
 42
0.0000001
 43
0.0000001
 44
0.0000000001
 12
-0.0000184281
 22
20.517670479
 32
0.0
 13
0.001628159
 23
20.5176703959
 33
0.0
 40
0.0
 40
0.0
 40
0.0
 40
0.0
 40
0.0266930077
 40
0.0558825132
 40
0.0878343874
 40
0.1229312544
 40
0.1614048957
 40
0.2028174375
 40
0.247459725
 40
0.2957180015
 40
0.3474887602
 40
0.4027168768
 40
0.462330588
 40
0.5275265079
 40
0.5992945376
 40
0.6763443328
 40
0.7557773212
 40
0.8341931348
 40
0.9071482084
 40
0.9718653023
 40
1.0
 40
1.0
 40
1.0
 40
1.0
 10
-110.528449551
 20
-4.7899924746
 30
0.0
 10
-110.528449715
 20
-4.6074330292
 30
0.0
 10
-110.5284530606
 20
-4.2252400319
 30
0.0
 10
-110.5284645474
 20
-3.6245210262
 30
0.0
 10
-110.5284822695
 20
-2.9663261489
 30
0.0
 10
-110.5285060332
 20
-2.2446349921
 30
0.0
 10
-110.5285356265
 20
-1.4582402149
 30
0.0
 10
-110.5285707185
 20
-0.606562174
 30
0.0
 10
-110.5286108292
 20
0.3120351739
 30
0.0
 10
-110.5286553992
 20
1.3014746813
 30
0.0
 10
-110.5287034179
 20
2.3633130405
 30
0.0
 10
-110.5287536433
 20
3.5028137552
 30
0.0
 10
-110.5288048995
 20
4.734132148
 30
0.0
 10
-110.5288552464
 20
6.0785707032
 30
0.0
 10
-110.5289004748
 20
7.5422585339
 30
0.0
 10
-110.5289364999
 20
9.1033168583
 30
0.0
 10
-110.5289583214
 20
10.7098408625
 30
0.0
 10
-110.5289682013
 20
12.2883601505
 30
0.0
 10
-110.528968585
 20
13.766234147
 30
0.0
 10
-110.5289563483
 20
14.9002243561
 30
0.0
 10
-110.5289236681
 20
15.5352585085
 30
0.0
 10
-110.5289083989
 20
15.7276779931
 30
0.0
 11
-110.528449551
 21
-4.7899924746
 31
0.0
 11
-110.5284538153
 21
-4.2423141385
 31
0.0
 11
-110.5284649299
 21
-3.6434134826
 31
0.0
 11
-110.5284823154
 21
-2.9878354576
 31
0.0
 11
-110.5285058114
 21
-2.2677295067
 31
0.0
 11
-110.5285353228
 21
-1.4783400122
 31
0.0
 11
-110.5285701439
 21
-0.6286511258
 31
0.0
 11
-110.5286099519
 21
0.287304616
 31
0.0
 11
-110.5286543452
 21
1.2774520315
 31
0.0
 11
-110.5287021524
 21
2.3396673965
 31
0.0
 11
-110.5287518763
 21
3.4728196935
 31
0.0
 11
-110.5288024965
 21
4.6959541756
 31
0.0
 11
-110.5288521734
 21
6.0336225751
 31
0.0
 11
-110.5288975068
 21
7.5061353592
 31
0.0
 11
-110.5289336603
 21
9.0870176678
 31
0.0
 11
-110.5289564136
 21
10.7167975482
 31
0.0
 11
-110.5289667683
 21
12.3257073718
 31
0.0
 11
-110.5289656778
 21
13.8225755311
 31
0.0
 11
-110.5289411014
 21
15.150419539
 31
0.0
 11
-110.5289083989
 21
15.7276779931
 31
0.0
  0
SPLINE
  5
4B8
100
AcDbEntity
  8
RACCORDO
100
AcDbSpline
 62
7
  6
CONTINUOUS
 70
0
 71
3
 72
11
 73
7
 74
5
 42
0.0000001
 43
0.0000001
 44
0.0000000001
 12
-0.0025127752
 22
0.0162251349
 32
0.0
 13
-0.002849951
 23
0.01623501
 33
0.0
 40
0.0
 40
0.0
 40
0.0
 40
0.0
 40
0.3301569629
 40
0.5430655918
 40
0.7662910732
 40
1.0
 40
1.0
 40
1.0
 40
1.0
 10
-110.5267153428
 20
21.0936161742
 30
0.0
 10
-110.5269918795
 20
21.095401788
 30
0.0
 10
-110.5272859132
 20
21.0983631448
 30
0.0
 10
-110.5275527693
 20
21.1025478162
 30
0.0
 10
-110.5276833594
 20
21.1062133366
 30
0.0
 10
-110.5279217858
 20
21.1087016739
 30
0.0
 10
-110.5281438055
 20
21.1099664295
 30
0.0
 11
-110.5267153428
 21
21.0936161742
 31
0.0
 11
-110.5273106185
 21
21.0990040911
 31
0.0
 11
-110.5275332444
 21
21.1024926474
 31
0.0
 11
-110.5277169581
 21
21.1061530806
 31
0.0
 11
-110.5281438055
 21
21.1099664295
 31
0.0
  0
SPLINE
  5
4B9
100
AcDbEntity
  8
RACCORDO
100
AcDbSpline
 62
7
  6
CONTINUOUS
 70
0
 71
3
 72
13
 73
9
 74
7
 42
0.0000001
 43
0.0000001
 44
0.0000000001
 12
-0.0926372015
 22
0.0824252071
 32
0.0
 13
-0.0366304118
 23
0.1165451182
 33
0.0
 40
0.0
 40
0.0
 40
0.0
 40
0.0
 40
0.6141262484
 40
0.8267455077
 40
0.9021085416
 40
0.9351494972
 40
0.9636433036
 40
1.0
 40
1.0
 40
1.0
 40
1.0
 10
-108.1355699384
 20
35.0618312634
 30
0.0
 10
-108.154533584
 20
35.0787044245
 30
0.0
 10
-108.1796926046
 20
35.1018411083
 30
0.0
 10
-108.2076853486
 20
35.1264590925
 30
0.0
 10
-108.2172125283
 20
35.1357227081
 30
0.0
 10
-108.2205625201
 20
35.1403412087
 30
0.0
 10
-108.22204525
 20
35.1441236262
 30
0.0
 10
-108.2227435586
 20
35.146740646
 30
0.0
 10
-108.2231874789
 20
35.1481530445
 30
0.0
 11
-108.1355699384
 21
35.0618312634
 31
0.0
 11
-108.1921842582
 21
35.1127599349
 31
0.0
 11
-108.2117320953
 21
35.1304507375
 31
0.0
 11
-108.2181957453
 21
35.1371996701
 31
0.0
 11
-108.2205083713
 21
35.1405815836
 31
0.0
 11
-108.2218713342
 21
35.1438412934
 31
0.0
 11
-108.2231874789
 21
35.1481530445
 31
0.0
  0
SPLINE
  5
4BA
100
AcDbEntity
  8
RACCORDO
100
AcDbSpline
 62
7
  6
CONTINUOUS
 70
0
 71
3
 72
13
 73
9
 74
7
 42
0.0000001
 43
0.0000001
 44
0.0000000001
 12
0.0499650976
 22
0.1127813285
 32
0.0
 13
0.0926189455
 23
0.082427024
 33
0.0
 40
0.0
 40
0.0
 40
0.0
 40
0.0
 40
0.0276000956
 40
0.0553331086
 40
0.1129688417
 40
0.1936288673
 40
0.3962496851
 40
1.0
 40
1.0
 40
1.0
 40
1.0
 10
-108.2231875287
 20
-44.728142145
 30
0.0
 10
-108.2227278482
 20
-44.7271045532
 30
0.0
 10
-108.2221050747
 20
-44.7248900385
 30
0.0
 10
-108.2208677379
 20
-44.7203574275
 30
0.0
 10
-108.2164178963
 20
-44.7148967015
 30
0.0
 10
-108.2063469978
 20
-44.7051583748
 30
0.0
 10
-108.1786243558
 20
-44.6810287426
 30
0.0
 10
-108.1542099844
 20
-44.6584093458
 30
0.0
 10
-108.1355704119
 20
-44.6418208985
 30
0.0
 11
-108.2231875287
 21
-44.728142145
 31
0.0
 11
-108.2221107294
 21
-44.7248939655
 31
0.0
 11
-108.2210524722
 21
-44.721622364
 31
0.0
 11
-108.2169691932
 21
-44.7157578655
 31
0.0
 11
-108.2099104656
 21
-44.7086734917
 31
0.0
 11
-108.1912106867
 21
-44.6918973604
 31
0.0
 11
-108.1355704119
 21
-44.6418208985
 31
0.0
  0
SPLINE
  5
4BB
100
AcDbEntity
  8
RACCORDO
100
AcDbSpline
 62
7
  6
CONTINUOUS
 70
0
 71
3
 72
26
 73
22
 74
20
 42
0.0000001
 43
0.0000001
 44
0.0000000001
 12
-0.0016036209
 22
20.5173380792
 32
0.0
 13
0.0000184104
 23
20.5173381638
 33
0.0
 40
0.0
 40
0.0
 40
0.0
 40
0.0
 40
0.0143175036
 40
0.0692531308
 40
0.1286571914
 40
0.1930029152
 40
0.2634740555
 40
0.3404096893
 40
0.4200366576
 40
0.4975098633
 40
0.5700143339
 40
0.636196659
 40
0.694930693
 40
0.7470401417
 40
0.7941128648
 40
0.8369772766
 40
0.8761199877
 40
0.9115845175
 40
0.9437853993
 40
0.9731555065
 40
1.0
 40
1.0
 40
1.0
 40
1.0
 10
-110.528908505
 20
-25.3073306276
 30
0.0
 10
-110.5289161583
 20
-25.2094116072
 30
0.0
 10
-110.5289465512
 20
-24.7357816407
 30
0.0
 10
-110.5289651854
 20
-23.8558806059
 30
0.0
 10
-110.5289691643
 20
-22.6338309346
 30
0.0
 10
-110.5289653353
 20
-21.3055321374
 30
0.0
 10
-110.5289535702
 20
-19.8573329348
 30
0.0
 10
-110.528929085
 20
-18.3046235788
 30
0.0
 10
-110.5288889501
 20
-16.7040263096
 30
0.0
 10
-110.5288368518
 20
-15.133734265
 30
0.0
 10
-110.5287781813
 20
-13.6553916512
 30
0.0
 10
-110.5287196622
 20
-12.3052083439
 30
0.0
 10
-110.5286650627
 20
-11.0945088914
 30
0.0
 10
-110.5286162683
 20
-10.0145021602
 30
0.0
 10
-110.5285736609
 20
-9.0430295643
 30
0.0
 10
-110.5285371297
 20
-8.1602379481
 30
0.0
 10
-110.5285067818
 20
-7.3568360741
 30
0.0
 10
-110.5284826424
 20
-6.6263632836
 30
0.0
 10
-110.5284647069
 20
-5.9627264325
 30
0.0
 10
-110.5284530978
 20
-5.3580429818
 30
0.0
 10
-110.5284497148
 20
-4.9735849914
 30
0.0
 10
-110.5284495501
 20
-4.7899924746
 30
0.0
 11
-110.528908505
 21
-25.3073306276
 31
0.0
 11
-110.5289278549
 21
-25.0135735661
 31
0.0
 11
-110.5289613031
 21
-23.8864407252
 31
0.0
 11
-110.5289678571
 21
-22.6676275266
 31
0.0
 11
-110.5289643552
 21
-21.3474245518
 31
0.0
 11
-110.5289521678
 21
-19.9015443341
 31
0.0
 11
-110.5289269692
 21
-18.3230299187
 31
0.0
 11
-110.5288863443
 21
-16.689296484
 31
0.0
 11
-110.5288339428
 21
-15.0997525266
 31
0.0
 11
-110.5287755179
 21
-13.6121537848
 31
0.0
 11
-110.5287170333
 21
-12.2542686424
 31
0.0
 11
-110.528663002
 21
-11.0492026047
 31
0.0
 11
-110.5286149594
 21
-9.9800554272
 31
0.0
 11
-110.528572816
 21
-9.0142484486
 31
0.0
 11
-110.5285366291
 21
-8.1347848171
 31
0.0
 11
-110.5285064956
 21
-7.3316805783
 31
0.0
 11
-110.5284826701
 21
-6.6040428266
 31
0.0
 11
-110.5284650852
 21
-5.9433664458
 31
0.0
 11
-110.5284538575
 21
-5.3407700249
 31
0.0
 11
-110.5284495501
 21
-4.7899924746
 31
0.0
  0
LINE
  5
4BC
100
AcDbEntity
  8
RACCORDO
100
AcDbLine
 62
7
  6
CONTINUOUS
 10
-110.5289083989
 20
15.7276779931
 11
-110.528517087
 21
17.4084602606
  0
SPLINE
  5
4BD
100
AcDbEntity
  8
DRAFT
100
AcDbSpline
 62
7
  6
CONTINUOUS
 70
0
 71
3
 72
20
 73
16
 74
14
 42
0.0000001
 43
0.0000001
 44
0.0000000001
 12
-3.5628990312
 22
0.0832421936
 32
0.0
 13
0.5751112684
 23
3.3615569677
 33
0.0
 40
0.0
 40
0.0
 40
0.0
 40
0.0
 40
0.0209336171
 40
0.0727350578
 40
0.1437131141
 40
0.2273019783
 40
0.3174983774
 40
0.4071225545
 40
0.4928715133
 40
0.5752093763
 40
0.6562601595
 40
0.739309551
 40
0.8252002259
 40
0.9125333715
 40
1.0
 40
1.0
 40
1.0
 40
1.0
 10
-109.1599639333
 20
27.4145041655
 30
0.0
 10
-109.184825388
 20
27.4150850189
 30
0.0
 10
-109.2703719424
 20
27.4345022139
 30
0.0
 10
-109.3472351905
 20
27.5999784734
 30
0.0
 10
-109.4139159011
 20
27.8171153643
 30
0.0
 10
-109.4564176435
 20
28.0956498269
 30
0.0
 10
-109.4801448081
 20
28.3933867362
 30
0.0
 10
-109.4872124521
 20
28.6955804096
 30
0.0
 10
-109.4819828673
 20
28.9884960142
 30
0.0
 10
-109.4675679255
 20
29.2714074269
 30
0.0
 10
-109.4456241299
 20
29.5507228206
 30
0.0
 10
-109.4165456792
 20
29.833446658
 30
0.0
 10
-109.3804460251
 20
30.1225534854
 30
0.0
 10
-109.3379525294
 20
30.4158607271
 30
0.0
 10
-109.3059951977
 20
30.6119973485
 30
0.0
 10
-109.2892275165
 20
30.7100053666
 30
0.0
 11
-109.1599639333
 21
27.4145041655
 31
0.0
 11
-109.2302033545
 21
27.4315906279
 31
0.0
 11
-109.3323515227
 21
27.5757286324
 31
0.0
 11
-109.4049693781
 21
27.8066428278
 31
0.0
 11
-109.4519104372
 21
28.0878228524
 31
0.0
 11
-109.4773251338
 21
28.3943768283
 31
0.0
 11
-109.4851671996
 21
28.6999303743
 31
0.0
 11
-109.4802702996
 21
28.9923274958
 31
0.0
 11
-109.4661995097
 21
29.2727796673
 31
0.0
 11
-109.4447102579
 21
29.5483585591
 31
0.0
 11
-109.4158740538
 21
29.8301183316
 31
0.0
 11
-109.3797063371
 21
30.1207983307
 31
0.0
 11
-109.3371095274
 21
30.4155773553
 31
0.0
 11
-109.2892275165
 21
30.7100053666
 31
0.0
  0
SPLINE
  5
4BE
100
AcDbEntity
  8
RACCORDO
100
AcDbSpline
 62
253
  6
CONTINUOUS
 70
0
 71
3
 72
16
 73
12
 74
10
 42
0.0000001
 43
0.0000001
 44
0.0000000001
 12
0.5665965032
 22
3.6413397372
 32
0.0
 13
-0.0019157184
 23
3.6851571214
 33
0.0
 40
0.0
 40
0.0
 40
0.0
 40
0.0
 40
0.0089583346
 40
0.0381691532
 40
0.0938895657
 40
0.184117255
 40
0.3162757725
 40
0.4850583446
 40
0.6657899897
 40
0.839935466
 40
1.0
 40
1.0
 40
1.0
 40
1.0
 10
-110.5267161454
 20
-30.6736054459
 30
0.0
 10
-110.5250242251
 20
-30.6627319993
 30
0.0
 10
-110.5287665255
 20
-30.6155124949
 30
0.0
 10
-110.5248407532
 20
-30.5005345443
 30
0.0
 10
-110.5279511312
 20
-30.2851355466
 30
0.0
 10
-110.5269757363
 20
-29.9436395318
 30
0.0
 10
-110.5279971992
 20
-29.4630759587
 30
0.0
 10
-110.5279047039
 20
-28.8714177954
 30
0.0
 10
-110.5280829696
 20
-28.2281549612
 30
0.0
 10
-110.5282191671
 20
-27.5956096873
 30
0.0
 10
-110.5284158556
 20
-27.1850705137
 30
0.0
 10
-110.5285180684
 20
-26.9884495279
 30
0.0
 11
-110.5267161454
 21
-30.6736054459
 31
0.0
 11
-110.5264868125
 21
-30.6405933675
 31
0.0
 11
-110.5265476682
 21
-30.5329469138
 31
0.0
 11
-110.5268860034
 21
-30.3276086899
 31
0.0
 11
-110.5273467858
 21
-29.9951057525
 31
0.0
 11
-110.5277388636
 21
-29.5080809426
 31
0.0
 11
-110.5279503966
 21
-28.8860905971
 31
0.0
 11
-110.5280782227
 21
-28.2200660104
 31
0.0
 11
-110.528252294
 21
-27.5783125052
 31
0.0
 11
-110.5285180684
 21
-26.9884495279
 31
0.0
  0
SPLINE
  5
4BF
100
AcDbEntity
  8
RACCORDO
100
AcDbSpline
 62
253
  6
CONTINUOUS
 70
0
 71
3
 72
16
 73
12
 74
10
 42
0.0000001
 43
0.0000001
 44
0.0000000001
 12
0.0098035871
 22
1.9004945555
 32
0.0
 13
-0.0004793357
 23
1.9005123297
 33
0.0
 40
0.0
 40
0.0
 40
0.0
 40
0.0
 40
0.0085614431
 40
0.0379334418
 40
0.0942586828
 40
0.1852115676
 40
0.3177415327
 40
0.4863571768
 40
0.6666639615
 40
0.8403598221
 40
1.0
 40
1.0
 40
1.0
 40
1.0
 10
-111.1278100664
 20
-28.8905067957
 30
0.0
 10
-111.1277820888
 20
-28.885083137
 30
0.0
 10
-111.1276968577
 20
-28.8610523015
 30
0.0
 10
-111.1278071868
 20
-28.8013388644
 30
0.0
 10
-111.1278628956
 20
-28.6894304524
 30
0.0
 10
-111.1280103709
 20
-28.5121708449
 30
0.0
 10
-111.1280897816
 20
-28.2637748721
 30
0.0
 10
-111.1281354526
 20
-27.9587727827
 30
0.0
 10
-111.1281580116
 20
-27.6276919424
 30
0.0
 10
-111.1281977474
 20
-27.3022970935
 30
0.0
 10
-111.1282475573
 20
-27.0911273422
 30
0.0
 10
-111.1282730644
 20
-26.9899946334
 30
0.0
 11
-111.1278100664
 21
-28.8905067957
 31
0.0
 11
-111.1277502194
 21
-28.874235777
 31
0.0
 11
-111.1277670296
 21
-28.8184139321
 31
0.0
 11
-111.1278565355
 21
-28.7113671513
 31
0.0
 11
-111.1279764445
 21
-28.5385101084
 31
0.0
 11
-111.1280761937
 21
-28.2866352874
 31
0.0
 11
-111.1281301313
 21
-27.966179171
 31
0.0
 11
-111.1281614374
 21
-27.6235038941
 31
0.0
 11
-111.1282053576
 21
-27.293392762
 31
0.0
 11
-111.1282730644
 21
-26.9899946334
 31
0.0
  0
LINE
  5
4C0
100
AcDbEntity
  8
0
100
AcDbLine
 62
7
  6
CONTINUOUS
 10
-110.4483368996
 20
-33.0988973003
 11
-110.4500149722
 21
-33.0627542244
  0
SPLINE
  5
4C1
100
AcDbEntity
  8
0
100
AcDbSpline
 62
7
  6
CONTINUOUS
 70
0
 71
3
 72
10
 73
6
 74
4
 42
0.0000001
 43
0.0000001
 44
0.0000000001
 12
-0.0221075511
 22
0.4715345874
 32
0.0
 13
-0.0203480174
 23
0.4716213327
 33
0.0
 40
0.0
 40
0.0
 40
0.0
 40
0.0
 40
0.2053379087
 40
0.6429725726
 40
1.0
 40
1.0
 40
1.0
 40
1.0
 10
-110.4500149722
 20
-33.0627542244
 30
0.0
 10
-110.451528145
 20
-33.0304795824
 30
0.0
 10
-110.4563712535
 20
-32.9294233529
 30
0.0
 10
-110.4637040373
 20
-32.7722354421
 30
0.0
 10
-110.4692568236
 20
-32.6473353477
 30
0.0
 10
-110.4716784237
 20
-32.5912080973
 30
0.0
 11
-110.4500149722
 21
-33.0627542244
 31
0.0
 11
-110.4546084198
 21
-32.9659323661
 31
0.0
 11
-110.4642119205
 21
-32.7595683496
 31
0.0
 11
-110.4716784237
 21
-32.5912080973
 31
0.0
  0
LINE
  5
4C2
100
AcDbEntity
  8
0
100
AcDbLine
 62
7
  6
CONTINUOUS
 10
-110.4793364645
 20
-32.4072991875
 11
-110.4903567406
 21
-32.1255010622
  0
SPLINE
  5
4C3
100
AcDbEntity
  8
0
100
AcDbSpline
 62
7
  6
CONTINUOUS
 70
0
 71
3
 72
9
 73
5
 74
3
 42
0.0000001
 43
0.0000001
 44
0.0000000001
 12
-0.0095057052
 22
0.251369965
 32
0.0
 13
-0.0074900285
 23
0.2526972275
 33
0.0
 40
0.0
 40
0.0
 40
0.0
 40
0.0
 40
0.6905033209
 40
1.0
 40
1.0
 40
1.0
 40
1.0
 10
-110.4903567406
 20
-32.1255010622
 30
0.0
 10
-110.4925446476
 20
-32.067643797
 30
0.0
 10
-110.4955582666
 20
-31.9837884787
 30
0.0
 10
-110.4979697838
 20
-31.8994230139
 30
0.0
 10
-110.4987424968
 20
-31.873353363
 30
0.0
 11
-110.4903567406
 21
-32.1255010622
 31
0.0
 11
-110.4964193964
 21
-31.9515958103
 31
0.0
 11
-110.4987424968
 21
-31.873353363
 31
0.0
  0
SPLINE
  5
4C4
100
AcDbEntity
  8
0
100
AcDbSpline
 62
7
  6
CONTINUOUS
 70
0
 71
3
 72
12
 73
8
 74
6
 42
0.0000001
 43
0.0000001
 44
0.0000000001
 12
-0.0143973032
 22
0.4857336128
 32
0.0
 13
-0.4840883295
 23
0.0
 33
0.0
 40
0.0
 40
0.0
 40
0.0
 40
0.0
 40
0.2848243192
 40
0.6071433406
 40
0.8227343012
 40
0.9527430583
 40
1.0
 40
1.0
 40
1.0
 40
1.0
 10
-110.4987424968
 20
-31.873353363
 30
0.0
 10
-110.5001093975
 20
-31.8272371145
 30
0.0
 10
-110.5031989474
 20
-31.7292084939
 30
0.0
 10
-110.5107575156
 20
-31.6002334343
 30
0.0
 10
-110.5054141304
 20
-31.4831895564
 30
0.0
 10
-110.5224165334
 20
-31.4360398742
 30
0.0
 10
-110.5072265609
 20
-31.3898697463
 30
0.0
 10
-110.5148520723
 20
-31.3898697463
 30
0.0
 11
-110.4987424968
 21
-31.873353363
 31
0.0
 11
-110.5035557755
 21
-31.735889656
 31
0.0
 11
-110.5084185837
 21
-31.5799345742
 31
0.0
 11
-110.5116259381
 21
-31.4756188021
 31
0.0
 11
-110.5137007216
 21
-31.4127172888
 31
0.0
 11
-110.5148520723
 21
-31.3898697463
 31
0.0
  0
SPLINE
  5
4C5
100
AcDbEntity
  8
RACCORDO
100
AcDbSpline
 62
253
  6
CONTINUOUS
 70
0
 71
3
 72
17
 73
13
 74
11
 42
0.0000001
 43
0.0000001
 44
0.0000000001
 12
0.0018562006
 22
3.6851567476
 32
0.0
 13
-0.5950456073
 23
3.6367986506
 33
0.0
 40
0.0
 40
0.0
 40
0.0
 40
0.0
 40
0.0982130997
 40
0.2042888523
 40
0.3174770557
 40
0.4380752361
 40
0.5637515294
 40
0.690650851
 40
0.811609209
 40
0.9143206542
 40
0.9796166656
 40
1.0
 40
1.0
 40
1.0
 40
1.0
 10
-110.52851751
 20
17.4084602608
 30
0.0
 10
-110.5284567423
 20
17.5291038166
 30
0.0
 10
-110.5283341371
 20
17.7800492619
 30
0.0
 10
-110.5281831605
 20
18.1700337058
 30
0.0
 10
-110.5280869088
 20
18.5875147494
 30
0.0
 10
-110.5279758353
 20
19.0290766036
 30
0.0
 10
-110.5280234613
 20
19.4874659936
 30
0.0
 10
-110.527342175
 20
19.9463545065
 30
0.0
 10
-110.5287682833
 20
20.3768367327
 30
0.0
 10
-110.5234045803
 20
20.7322227398
 30
0.0
 10
-110.5323006097
 20
20.9628260509
 30
0.0
 10
-110.5226757241
 20
21.0689061674
 30
0.0
 10
-110.5267187286
 20
21.093616195
 30
0.0
 11
-110.52851751
 21
17.4084602608
 31
0.0
 11
-110.5283447393
 21
17.7703909327
 31
0.0
 11
-110.5281964134
 21
18.1612967295
 31
0.0
 11
-110.528087594
 21
18.5784130395
 31
0.0
 11
-110.5280031895
 21
19.0228362863
 31
0.0
 11
-110.5279012692
 21
19.4859731743
 31
0.0
 11
-110.5277141373
 21
19.9536170871
 31
0.0
 11
-110.5273622335
 21
20.3993675142
 31
0.0
 11
-110.5268407691
 21
20.777874978
 31
0.0
 11
-110.526481561
 21
21.0185007777
 31
0.0
 11
-110.5267187286
 21
21.093616195
 31
0.0
  0
SPLINE
  5
4C6
100
AcDbEntity
  8
0
100
AcDbSpline
 62
7
  6
CONTINUOUS
 70
0
 71
3
 72
9
 73
5
 74
3
 42
0.0000001
 43
0.0000001
 44
0.0000000001
 12
0.08105717
 22
0.0
 32
0.0
 13
0.0121079233
 23
-0.0706458122
 33
0.0
 40
0.0
 40
0.0
 40
0.0
 40
0.0
 40
0.2617185549
 40
1.0
 40
1.0
 40
1.0
 40
1.0
 10
-110.5648617941
 20
-31.3898697463
 30
0.0
 10
-110.5577904056
 20
-31.3898697463
 30
0.0
 10
-110.5720342
 20
-31.4334182914
 30
0.0
 10
-110.5647662743
 20
-31.4534804763
 30
0.0
 10
-110.5617865893
 20
-31.4708659738
 30
0.0
 11
-110.5648617941
 21
-31.3898697463
 31
0.0
 11
-110.5637726565
 21
-31.411055935
 31
0.0
 11
-110.5617865893
 21
-31.4708659738
 31
0.0
  0
SPLINE
  5
4C7
100
AcDbEntity
  8
0
100
AcDbSpline
 62
7
  6
CONTINUOUS
 70
0
 71
3
 72
11
 73
7
 74
5
 42
0.0000001
 43
0.0000001
 44
0.0000000001
 12
0.0766397936
 22
-0.4471683832
 32
0.0
 13
0.0176345566
 23
-0.5129664338
 33
0.0
 40
0.0
 40
0.0
 40
0.0
 40
0.0
 40
0.1947762627
 40
0.4787796023
 40
0.8584380902
 40
1.0
 40
1.0
 40
1.0
 40
1.0
 10
-110.5617865893
 20
-31.4708659738
 30
0.0
 10
-110.5568107184
 20
-31.4998985693
 30
0.0
 10
-110.5609357825
 20
-31.5889076677
 30
0.0
 10
-110.5525903356
 20
-31.731520568
 30
0.0
 10
-110.5492165591
 20
-31.8703707257
 30
0.0
 10
-110.546289901
 20
-31.9595988498
 30
0.0
 10
-110.5454577738
 20
-31.9838043525
 30
0.0
 11
-110.5617865893
 21
-31.4708659738
 31
0.0
 11
-110.558713988
 21
-31.5707524649
 31
0.0
 11
-110.5541925684
 21
-31.7163957189
 31
0.0
 11
-110.5478248504
 21
-31.9110827589
 31
0.0
 11
-110.5454577738
 21
-31.9838043525
 31
0.0
  0
SPLINE
  5
4C8
100
AcDbEntity
  8
0
100
AcDbSpline
 62
7
  6
CONTINUOUS
 70
0
 71
3
 72
10
 73
6
 74
4
 42
0.0000001
 43
0.0000001
 44
0.0000000001
 12
0.0165927351
 22
-0.3692145664
 32
0.0
 13
0.01692449
 23
-0.3691917356
 33
0.0
 40
0.0
 40
0.0
 40
0.0
 40
0.0
 40
0.1765117741
 40
0.6508919891
 40
1.0
 40
1.0
 40
1.0
 40
1.0
 10
-110.5156133406
 20
-32.7297171135
 30
0.0
 10
-110.5146370695
 20
-32.7514406862
 30
0.0
 10
-110.5110043785
 20
-32.8315458248
 30
0.0
 10
-110.5052417746
 20
-32.9546026983
 30
0.0
 10
-110.5003810838
 20
-33.0559347028
 30
0.0
 10
-110.4984115921
 20
-33.0988973003
 30
0.0
 11
-110.5156133406
 21
-32.7297171135
 31
0.0
 11
-110.5126581228
 21
-32.794886601
 31
0.0
 11
-110.5044816337
 21
-32.9700170159
 31
0.0
 11
-110.4984115921
 21
-33.0988973003
 31
0.0
  0
SPLINE
  5
4C9
100
AcDbEntity
  8
RACCORDO
100
AcDbSpline
 62
253
  6
CONTINUOUS
 70
0
 71
3
 72
17
 73
13
 74
11
 42
0.0000001
 43
0.0000001
 44
0.0000000001
 12
0.0004777081
 22
1.9005122712
 32
0.0
 13
-0.0049153153
 23
1.9005090444
 33
0.0
 40
0.0
 40
0.0
 40
0.0
 40
0.0
 40
0.097956027
 40
0.2037532399
 40
0.3166465314
 40
0.4369439519
 40
0.5623632688
 40
0.6891864767
 40
0.8104918429
 40
0.9140392441
 40
0.9800040111
 40
1.0
 40
1.0
 40
1.0
 40
1.0
 10
-111.1282730644
 20
17.4100053666
 30
0.0
 10
-111.1282574663
 20
17.4720609104
 30
0.0
 10
-111.1282261566
 20
17.6011394216
 30
0.0
 10
-111.1281883031
 20
17.8017362973
 30
0.0
 10
-111.1281619847
 20
18.0164865397
 30
0.0
 10
-111.1281437001
 20
18.2436674661
 30
0.0
 10
-111.1281200514
 20
18.4796730528
 30
0.0
 10
-111.1280828483
 20
18.7163171698
 30
0.0
 10
-111.1279838436
 20
18.9391053473
 30
0.0
 10
-111.1279095823
 20
19.1233393731
 30
0.0
 10
-111.1276940476
 20
19.2433935871
 30
0.0
 10
-111.1277773042
 20
19.2978500097
 30
0.0
 10
-111.1278100664
 20
19.310517529
 30
0.0
 11
-111.1282730644
 21
17.4100053666
 31
0.0
 11
-111.1282289683
 21
17.5961719986
 31
0.0
 11
-111.1281912963
 21
17.7972409028
 31
0.0
 11
-111.1281640161
 21
18.0117959936
 31
0.0
 11
-111.1281432255
 21
18.2404227238
 31
0.0
 11
-111.1281178884
 21
18.4787836809
 31
0.0
 11
-111.1280705059
 21
18.7198127466
 31
0.0
 11
-111.1279805569
 21
18.9503550735
 31
0.0
 11
-111.1278441978
 21
19.1471481391
 31
0.0
 11
-111.1277483656
 21
19.2725149555
 31
0.0
 11
-111.1278100664
 21
19.310517529
 31
0.0
  0
SPLINE
  5
4CA
100
AcDbEntity
  8
DRAFT
100
AcDbSpline
 62
7
  6
CONTINUOUS
 70
0
 71
3
 72
15
 73
11
 74
9
 42
0.0000001
 43
0.0000001
 44
0.0000000001
 12
0.5769498073
 22
3.3723033285
 32
0.0
 13
2.6548589207
 23
-1.4790896587
 33
0.0
 40
0.0
 40
0.0
 40
0.0
 40
0.0
 40
0.2301310462
 40
0.4611634071
 40
0.6620670173
 40
0.8115330013
 40
0.9107141432
 40
0.9697193402
 40
0.9975579209
 40
1.0
 40
1.0
 40
1.0
 40
1.0
 10
-109.2892275165
 20
30.7100053666
 30
0.0
 10
-109.2449694956
 20
30.968695931
 30
0.0
 10
-109.1455403087
 20
31.4856850275
 30
0.0
 10
-108.9781348886
 20
32.2203293187
 30
0.0
 10
-108.8131146989
 20
32.8676722823
 30
0.0
 10
-108.6723360828
 20
33.3482505176
 30
0.0
 10
-108.5676651883
 20
33.7092343096
 30
0.0
 10
-108.4937006561
 20
33.8619650792
 30
0.0
 10
-108.4516208492
 20
34.0142924485
 30
0.0
 10
-108.4252871378
 20
34.0034225654
 30
0.0
 10
-108.4231260126
 20
34.0022185474
 30
0.0
 11
-109.2892275165
 21
30.7100053666
 31
0.0
 11
-109.141457102
 21
31.4833617717
 31
0.0
 11
-108.9666885839
 21
32.2542298131
 31
0.0
 11
-108.7951371536
 21
32.9198291736
 31
0.0
 11
-108.6541569827
 21
33.411379733
 31
0.0
 11
-108.5504280829
 21
33.7344651337
 31
0.0
 11
-108.4783544636
 21
33.9230353439
 31
0.0
 11
-108.4294562109
 21
34.0047691304
 31
0.0
 11
-108.4231260126
 21
34.0022185474
 31
0.0
  0
SPLINE
  5
4CB
100
AcDbEntity
  8
RACCORDO
100
AcDbSpline
 62
253
  6
CONTINUOUS
 70
0
 71
3
 72
18
 73
14
 74
12
 42
0.0000001
 43
0.0000001
 44
0.0000000001
 12
3.1923715176
 22
2.8583982311
 32
0.0
 13
-0.1381740833
 23
4.2828243341
 33
0.0
 40
0.0
 40
0.0
 40
0.0
 40
0.0
 40
0.0063089183
 40
0.0220242735
 40
0.0502489959
 40
0.0941742617
 40
0.1573372945
 40
0.2437204726
 40
0.3568640229
 40
0.4989107929
 40
0.6661839694
 40
0.8385870672
 40
1.0
 40
1.0
 40
1.0
 40
1.0
 10
-108.1355477117
 20
-44.6418143894
 30
0.0
 10
-108.1288342413
 20
-44.6358032558
 30
0.0
 10
-108.1282264881
 20
-44.5998294333
 30
0.0
 10
-108.1278210669
 20
-44.5320950552
 30
0.0
 10
-108.138613379
 20
-44.4044481283
 30
0.0
 10
-108.153590326
 20
-44.2130753907
 30
0.0
 10
-108.1727416794
 20
-43.9367790822
 30
0.0
 10
-108.1873869579
 20
-43.5620242179
 30
0.0
 10
-108.1887666278
 20
-43.0739406324
 30
0.0
 10
-108.1731460699
 20
-42.4707241307
 30
0.0
 10
-108.1513267703
 20
-41.7829925081
 30
0.0
 10
-108.1410649226
 20
-41.0672707469
 30
0.0
 10
-108.1481200854
 20
-40.5904183065
 30
0.0
 10
-108.1555544468
 20
-40.3599838944
 30
0.0
 11
-108.1355477117
 21
-44.6418143894
 31
0.0
 11
-108.1285213443
 21
-44.6157094116
 31
0.0
 11
-108.1286577185
 21
-44.5483684248
 31
0.0
 11
-108.1365508267
 21
-44.4276818391
 31
0.0
 11
-108.1512502949
 21
-44.2400346273
 31
0.0
 11
-108.1692897008
 21
-43.9699795414
 31
0.0
 11
-108.1839610663
 21
-43.6001139421
 31
0.0
 11
-108.1865924369
 21
-43.1152950112
 31
0.0
 11
-108.1735361338
 21
-42.5067571675
 31
0.0
 11
-108.1536032406
 21
-41.7902600082
 31
0.0
 11
-108.1445451429
 21
-41.0515591885
 31
0.0
 11
-108.1555544468
 21
-40.3599838944
 31
0.0
  0
SPLINE
  5
4CC
100
AcDbEntity
  8
RACCORDO
100
AcDbSpline
 62
253
  6
CONTINUOUS
 70
0
 71
3
 72
9
 73
5
 74
3
 42
0.0000001
 43
0.0000001
 44
0.0000000001
 12
0.0999795632
 22
-0.0017375092
 32
0.0
 13
0.0015415293
 23
0.0894888994
 33
0.0
 40
0.0
 40
0.0
 40
0.0
 40
0.0
 40
0.2416692369
 40
1.0
 40
1.0
 40
1.0
 40
1.0
 10
-106.2492988326
 20
-46.0906418523
 30
0.0
 10
-106.2412448377
 20
-46.0907818198
 30
0.0
 10
-106.2371004018
 20
-46.0422429186
 30
0.0
 10
-106.2357840339
 20
-46.0154915144
 30
0.0
 10
-106.2353943708
 20
-45.992870786
 30
0.0
 11
-106.2492988326
 21
-46.0906418523
 31
0.0
 11
-106.2394068429
 21
-46.0685935788
 31
0.0
 11
-106.2353943708
 21
-45.992870786
 31
0.0
  0
SPLINE
  5
4CD
100
AcDbEntity
  8
RACCORDO
100
AcDbSpline
 62
253
  6
CONTINUOUS
 70
0
 71
3
 72
16
 73
12
 74
10
 42
0.0000001
 43
0.0000001
 44
0.0000000001
 12
0.087926363
 22
5.1043036003
 32
0.0
 13
-0.1347663325
 23
5.701942972
 33
0.0
 40
0.0
 40
0.0
 40
0.0
 40
0.0
 40
0.0252988848
 40
0.0655021169
 40
0.1239256318
 40
0.2048423263
 40
0.3138072706
 40
0.456793181
 40
0.6330585406
 40
0.8208934222
 40
1.0
 40
1.0
 40
1.0
 40
1.0
 10
-106.2353943708
 20
-45.992870786
 30
0.0
 10
-106.2346528912
 20
-45.9498263898
 30
0.0
 10
-106.2384385705
 20
-45.8164944778
 30
0.0
 10
-106.2465267055
 20
-45.5865930691
 30
0.0
 10
-106.2576677233
 20
-45.2428560998
 30
0.0
 10
-106.2656550703
 20
-44.7719319344
 30
0.0
 10
-106.2643662978
 20
-44.138601598
 30
0.0
 10
-106.2514451106
 20
-43.3247632864
 30
0.0
 10
-106.2350780571
 20
-42.3607746309
 30
0.0
 10
-106.2294618924
 20
-41.3280366328
 30
0.0
 10
-106.2384177101
 20
-40.6304130997
 30
0.0
 10
-106.2464635557
 20
-40.2899946022
 30
0.0
 11
-106.2353943708
 21
-45.992870786
 31
0.0
 11
-106.2376501805
 21
-45.8485953363
 31
0.0
 11
-106.2452848669
 21
-45.6194219159
 31
0.0
 11
-106.2555399217
 21
-45.2863591729
 31
0.0
 11
-106.2635101234
 21
-44.8249167713
 31
0.0
 11
-106.2632584838
 21
-44.2034314091
 31
0.0
 11
-106.2523146722
 21
-43.3879796457
 31
0.0
 11
-106.2373234807
 21
-42.3827557119
 31
0.0
 11
-106.2327124875
 21
-41.3114427456
 31
0.0
 11
-106.2464635557
 21
-40.2899946022
 31
0.0
  0
SPLINE
  5
4CE
100
AcDbEntity
  8
RACCORDO
100
AcDbSpline
 62
253
  6
CONTINUOUS
 70
0
 71
3
 72
28
 73
24
 74
22
 42
0.0000001
 43
0.0000001
 44
0.0000000001
 12
-1.149700557
 22
35.5521759849
 32
0.0
 13
0.000064967
 23
35.5707608666
 33
0.0
 40
0.0
 40
0.0
 40
0.0
 40
0.0
 40
0.0493822673
 40
0.0999532959
 40
0.152346813
 40
0.2084209746
 40
0.2706382171
 40
0.339667322
 40
0.4128919542
 40
0.4870579664
 40
0.5552185323
 40
0.6146466087
 40
0.6682217067
 40
0.7162527999
 40
0.7594287783
 40
0.7987942124
 40
0.8351769738
 40
0.868373431
 40
0.8985905642
 40
0.9264526328
 40
0.9525131084
 40
0.9770241623
 40
1.0
 40
1.0
 40
1.0
 40
1.0
 10
-108.1555560053
 20
-40.3599839505
 30
0.0
 10
-108.1744809454
 20
-39.7747682648
 30
0.0
 10
-108.2011560978
 20
-38.5898788996
 30
0.0
 10
-108.2244693253
 20
-36.7836599956
 30
0.0
 10
-108.2386271988
 20
-34.8979967872
 30
0.0
 10
-108.247799185
 20
-32.8742191289
 30
0.0
 10
-108.2536207744
 20
-30.6531814017
 30
0.0
 10
-108.2573907536
 20
-28.2287880641
 30
0.0
 10
-108.2596577998
 20
-25.6627172136
 30
0.0
 10
-108.2610053996
 20
-23.1069440361
 30
0.0
 10
-108.2618214347
 20
-20.7147553084
 30
0.0
 10
-108.2623070293
 20
-18.5667113331
 30
0.0
 10
-108.2626216235
 20
-16.657340883
 30
0.0
 10
-108.2628406327
 20
-14.9406702527
 30
0.0
 10
-108.2629940589
 20
-13.3924824681
 30
0.0
 10
-108.2631036056
 20
-11.9824080227
 30
0.0
 10
-108.2631828556
 20
-10.690659962
 30
0.0
 10
-108.2632412139
 20
-9.5073825745
 30
0.0
 10
-108.2632835009
 20
-8.4251343622
 30
0.0
 10
-108.2633132113
 20
-7.4274969147
 30
0.0
 10
-108.2633327801
 20
-6.4975159951
 30
0.0
 10
-108.2633435765
 20
-5.6254707244
 30
0.0
 10
-108.2633455041
 20
-5.0624224355
 30
0.0
 10
-108.2633450065
 20
-4.789999759
 30
0.0
 11
-108.1555560053
 21
-40.3599839505
 31
0.0
 11
-108.1980612215
 21
-38.6039334741
 31
0.0
 11
-108.2226006619
 21
-36.8052508966
 31
0.0
 11
-108.2374065506
 21
-34.9416324404
 31
0.0
 11
-108.2468668009
 21
-32.9470542843
 31
0.0
 11
-108.2530362542
 21
-30.7339482273
 31
0.0
 11
-108.2570466811
 21
-28.2785337207
 31
0.0
 11
-108.2594942996
 21
-25.6738789897
 31
0.0
 11
-108.2609576422
 21
-23.0357379113
 31
0.0
 11
-108.2618070779
 21
-20.6112148693
 31
0.0
 11
-108.262300002
 21
-18.4973130322
 31
0.0
 11
-108.262619999
 21
-16.5916060596
 31
0.0
 11
-108.2628394363
 21
-14.8831035419
 31
0.0
 11
-108.2629928026
 21
-13.3473011489
 31
0.0
 11
-108.2631023901
 21
-11.9470427094
 31
0.0
 11
-108.2631824594
 21
-10.6528802074
 31
0.0
 11
-108.263240845
 21
-9.4720569679
 31
0.0
 11
-108.2632828598
 21
-8.3972105473
 31
0.0
 11
-108.2633123558
 21
-7.4061355708
 31
0.0
 11
-108.2633317875
 21
-6.4791446256
 31
0.0
 11
-108.2633424582
 21
-5.6072677886
 31
0.0
 11
-108.2633450065
 21
-4.789999759
 31
0.0
  0
SPLINE
  5
4CF
100
AcDbEntity
  8
RACCORDO
100
AcDbSpline
 62
253
  6
CONTINUOUS
 70
0
 71
3
 72
28
 73
24
 74
22
 42
0.0000001
 43
0.0000001
 44
0.0000000001
 12
-1.2845049765
 22
35.4776875088
 32
0.0
 13
0.0001684338
 23
35.5009332832
 33
0.0
 40
0.0
 40
0.0
 40
0.0
 40
0.0
 40
0.0485764444
 40
0.0987854703
 40
0.151030907
 40
0.2070697016
 40
0.2693204618
 40
0.338434142
 40
0.4117728612
 40
0.4860697032
 40
0.554356477
 40
0.6138972655
 40
0.6675755349
 40
0.7156997004
 40
0.7589595753
 40
0.7984016592
 40
0.8348554008
 40
0.8681167082
 40
0.8983928619
 40
0.9263093112
 40
0.9524205948
 40
0.9769793472
 40
1.0
 40
1.0
 40
1.0
 40
1.0
 10
-106.2464637698
 20
-40.2899946022
 30
0.0
 10
-106.2672626646
 20
-39.7155346302
 30
0.0
 10
-106.2963867394
 20
-38.5468397296
 30
0.0
 10
-106.3216332013
 20
-36.7597661858
 30
0.0
 10
-106.3368519966
 20
-34.8842661714
 30
0.0
 10
-106.3466237317
 20
-32.8662384034
 30
0.0
 10
-106.3527962604
 20
-30.6485825291
 30
0.0
 10
-106.3567341502
 20
-28.2262011536
 30
0.0
 10
-106.3591108456
 20
-25.6612686506
 30
0.0
 10
-106.3605059305
 20
-23.1061208794
 30
0.0
 10
-106.3613582122
 20
-20.7142526896
 30
0.0
 10
-106.3618701192
 20
-18.5663772742
 30
0.0
 10
-106.3622044688
 20
-16.6570989662
 30
0.0
 10
-106.3624412063
 20
-14.940483188
 30
0.0
 10
-106.3626102653
 20
-13.3923333613
 30
0.0
 10
-106.3627334819
 20
-11.9822871764
 30
0.0
 10
-106.3628244741
 20
-10.6905604822
 30
0.0
 10
-106.3628926784
 20
-9.5073001448
 30
0.0
 10
-106.3629430113
 20
-8.4250670879
 30
0.0
 10
-106.3629789339
 20
-7.4274448711
 30
0.0
 10
-106.3630028178
 20
-6.497480348
 30
0.0
 10
-106.3630157836
 20
-5.6254509396
 30
0.0
 10
-106.3630174066
 20
-5.0624131762
 30
0.0
 10
-106.3630161141
 20
-4.7899949562
 30
0.0
 11
-106.2464637698
 21
-40.2899946022
 31
0.0
 11
-106.2928560147
 21
-38.5661096173
 31
0.0
 11
-106.319542376
 21
-36.7838421199
 31
0.0
 11
-106.335511682
 21
-34.9291491049
 31
0.0
 11
-106.3456209867
 21
-32.9397452825
 31
0.0
 11
-106.3521660729
 21
-30.7297948903
 31
0.0
 11
-106.3563755006
 21
-28.2761983503
 31
0.0
 11
-106.3589362477
 21
-25.6726066338
 31
0.0
 11
-106.3604578704
 21
-23.0349998403
 31
0.0
 11
-106.3613441549
 21
-20.6107558028
 31
0.0
 11
-106.3618632307
 21
-18.4970023048
 31
0.0
 11
-106.362203516
 21
-16.5913736734
 31
0.0
 11
-106.362440535
 21
-14.8829209038
 31
0.0
 11
-106.362609357
 21
-13.3471549783
 31
0.0
 11
-106.3627324625
 21
-11.9469241971
 31
0.0
 11
-106.3628242477
 21
-10.6527823512
 31
0.0
 11
-106.3628924207
 21
-9.4719748966
 31
0.0
 11
-106.3629423527
 21
-8.3971431854
 31
0.0
 11
-106.3629779406
 21
-7.4060831811
 31
0.0
 11
-106.3630015677
 21
-6.4791082463
 31
0.0
 11
-106.3630142563
 21
-5.6072496161
 31
0.0
 11
-106.3630161141
 21
-4.7899949562
 31
0.0
  0
SPLINE
  5
4D0
100
AcDbEntity
  8
RACCORDO
100
AcDbSpline
 62
253
  6
CONTINUOUS
 70
0
 71
3
 72
29
 73
25
 74
23
 42
0.0000001
 43
0.0000001
 44
0.0000000001
 12
-0.0000672915
 22
35.5707752183
 32
0.0
 13
1.1495993303
 23
35.5521936175
 33
0.0
 40
0.0
 40
0.0
 40
0.0
 40
0.0
 40
0.0236055615
 40
0.0488922654
 40
0.0758448357
 40
0.104663574
 40
0.1357058989
 40
0.1693240118
 40
0.2055406372
 40
0.2441535618
 40
0.2856008258
 40
0.3304118329
 40
0.378934836
 40
0.4310892668
 40
0.488697979
 40
0.552445809
 40
0.61994366
 40
0.6880234783
 40
0.7529955292
 40
0.8120709708
 40
0.8655312153
 40
0.9141454104
 40
0.9587319958
 40
1.0
 40
1.0
 40
1.0
 40
1.0
 10
-108.2633450059
 20
-4.789999759
 30
0.0
 10
-108.2633455354
 20
-4.5101103854
 30
0.0
 10
-108.2633435059
 20
-3.9303984584
 30
0.0
 10
-108.2633320976
 20
-3.0311119248
 30
0.0
 10
-108.2633113454
 20
-2.0700131435
 30
0.0
 10
-108.2632798368
 20
-1.0406703959
 30
0.0
 10
-108.2632353006
 20
0.0677051901
 30
0.0
 10
-108.263174704
 20
1.2637969678
 30
0.0
 10
-108.2630936833
 20
2.5496527789
 30
0.0
 10
-108.2629839991
 20
3.9283382465
 30
0.0
 10
-108.2628350383
 20
5.4089266505
 30
0.0
 10
-108.2626307939
 20
7.0070181075
 30
0.0
 10
-108.2623515668
 20
8.7320636285
 30
0.0
 10
-108.2619507841
 20
10.608850562
 30
0.0
 10
-108.2613285768
 20
12.6661570781
 30
0.0
 10
-108.2603291844
 20
14.9053892546
 30
0.0
 10
-108.2587457051
 20
17.2687762708
 30
0.0
 10
-108.2560470811
 20
19.6466778937
 30
0.0
 10
-108.2517391896
 20
21.9247132405
 30
0.0
 10
-108.2449876927
 20
24.029399525
 30
0.0
 10
-108.2346462055
 20
25.9401152967
 30
0.0
 10
-108.2192400111
 20
27.6790029183
 30
0.0
 10
-108.1958098478
 20
29.2732256395
 30
0.0
 10
-108.1713762728
 20
30.2909375714
 30
0.0
 10
-108.1555623828
 20
30.7799935968
 30
0.0
 11
-108.2633450059
 21
-4.789999759
 31
0.0
 11
-108.2633423345
 21
-3.9503316382
 31
0.0
 11
-108.2633310556
 21
-3.0508639783
 31
0.0
 11
-108.2633104304
 21
-2.092140158
 31
0.0
 11
-108.2632790693
 21
-1.0670352947
 31
0.0
 11
-108.2632346758
 21
0.0371642645
 31
0.0
 11
-108.2631738957
 21
1.2329865995
 31
0.0
 11
-108.2630920343
 21
2.521240038
 31
0.0
 11
-108.2629820242
 21
3.8947316967
 31
0.0
 11
-108.262832629
 21
5.3690430008
 31
0.0
 11
-108.2626277301
 21
6.9630052469
 31
0.0
 11
-108.2623442058
 21
8.6890060621
 31
0.0
 11
-108.2619384756
 21
10.5441795494
 31
0.0
 11
-108.2613039404
 21
12.5933660061
 31
0.0
 11
-108.2602669047
 21
14.8609254991
 31
0.0
 11
-108.2585651046
 21
17.2618757804
 31
0.0
 11
-108.2556929343
 21
19.6835259912
 31
0.0
 11
-108.2510756653
 21
21.9946275997
 31
0.0
 11
-108.2439635339
 21
24.0959748167
 31
0.0
 11
-108.2331908052
 21
25.9975666435
 31
0.0
 11
-108.2170622842
 21
27.7267360314
 31
0.0
 11
-108.1926764522
 21
29.312527951
 31
0.0
 11
-108.1555623828
 21
30.7799935968
 31
0.0
  0
SPLINE
  5
4D1
100
AcDbEntity
  8
RACCORDO
100
AcDbSpline
 62
253
  6
CONTINUOUS
 70
0
 71
3
 72
29
 73
25
 74
23
 42
0.0000001
 43
0.0000001
 44
0.0000000001
 12
-0.0001707647
 22
35.5009407036
 32
0.0
 13
1.2844323453
 23
35.4776975637
 33
0.0
 40
0.0
 40
0.0
 40
0.0
 40
0.0
 40
0.02365135
 40
0.0489872746
 40
0.075992406
 40
0.1048674049
 40
0.1359703693
 40
0.1696541536
 40
0.2059414182
 40
0.244629506
 40
0.2861572754
 40
0.3310550824
 40
0.3796715829
 40
0.4319251764
 40
0.4896413993
 40
0.5535048337
 40
0.6211161161
 40
0.6892941215
 40
0.7543327747
 40
0.8134187198
 40
0.8668145387
 40
0.9152402001
 40
0.9594470535
 40
1.0
 40
1.0
 40
1.0
 40
1.0
 10
-106.3630161141
 20
-4.7899949562
 30
0.0
 10
-106.3630174604
 20
-4.5101132312
 30
0.0
 10
-106.3630157057
 20
-3.9304151213
 30
0.0
 10
-106.3630019597
 20
-3.0311478219
 30
0.0
 10
-106.3629766179
 20
-2.0700657065
 30
0.0
 10
-106.3629385565
 20
-1.0407384773
 30
0.0
 10
-106.3628856395
 20
0.0676215706
 30
0.0
 10
-106.3628149694
 20
1.2636957529
 30
0.0
 10
-106.3627221476
 20
2.549529606
 30
0.0
 10
-106.3625990306
 20
3.9281864071
 30
0.0
 10
-106.3624350965
 20
5.4087373229
 30
0.0
 10
-106.3622143287
 20
7.006777562
 30
0.0
 10
-106.3619173401
 20
8.7317434077
 30
0.0
 10
-106.3614942474
 20
10.6083978387
 30
0.0
 10
-106.360842481
 20
12.6654790505
 30
0.0
 10
-106.3598068867
 20
14.9042975969
 30
0.0
 10
-106.3581560959
 20
17.2669168822
 30
0.0
 10
-106.3553287699
 20
19.6434422984
 30
0.0
 10
-106.3508128815
 20
21.9190792756
 30
0.0
 10
-106.3436252222
 20
24.0197822693
 30
0.0
 10
-106.33259857
 20
25.923873996
 30
0.0
 10
-106.3159556858
 20
27.6518503575
 30
0.0
 10
-106.2905574153
 20
29.2277257722
 30
0.0
 10
-106.2638272501
 20
30.2304302809
 30
0.0
 10
-106.2464647447
 20
30.7100053383
 30
0.0
 11
-106.3630161141
 21
-4.7899949562
 31
0.0
 11
-106.3630141095
 21
-3.9503497811
 31
0.0
 11
-106.3630006533
 21
-3.0509006266
 31
0.0
 11
-106.3629755629
 21
-2.0921930584
 31
0.0
 11
-106.3629377603
 21
-1.067103435
 31
0.0
 11
-106.3628850936
 21
0.0370810607
 31
0.0
 11
-106.3628142755
 21
1.2328870851
 31
0.0
 11
-106.3627206417
 21
2.5211191112
 31
0.0
 11
-106.3625973012
 21
3.8945826189
 31
0.0
 11
-106.3624330365
 21
5.3688574867
 31
0.0
 11
-106.3622117295
 21
6.9627718553
 31
0.0
 11
-106.3619099767
 21
8.6887033303
 31
0.0
 11
-106.3614819693
 21
10.5437550078
 31
0.0
 11
-106.3608182816
 21
12.5927351043
 31
0.0
 11
-106.359740712
 21
14.8599468478
 31
0.0
 11
-106.3579651894
 21
17.2602103161
 31
0.0
 11
-106.3549564144
 21
19.6805917762
 31
0.0
 11
-106.3500935488
 21
21.9895200253
 31
0.0
 11
-106.3425245825
 21
24.0871130032
 31
0.0
 11
-106.3309855406
 21
25.9826796816
 31
0.0
 11
-106.3135324473
 21
27.7017476206
 31
0.0
 11
-106.2869863048
 21
29.2709079707
 31
0.0
 11
-106.2464647447
 21
30.7100053383
 31
0.0
  0
SPLINE
  5
4D2
100
AcDbEntity
  8
RACCORDO
100
AcDbSpline
 62
253
  6
CONTINUOUS
 70
0
 71
3
 72
17
 73
13
 74
11
 42
0.0000001
 43
0.0000001
 44
0.0000000001
 12
0.1381901652
 22
4.2826678635
 32
0.0
 13
-3.1904925215
 23
2.8602618797
 33
0.0
 40
0.0
 40
0.0
 40
0.0
 40
0.0
 40
0.158409651
 40
0.3280583454
 40
0.4947719549
 40
0.646089313
 40
0.771117294
 40
0.8637214719
 40
0.9278621042
 40
0.9689022657
 40
0.9914451192
 40
1.0
 40
1.0
 40
1.0
 40
1.0
 10
-108.1555562343
 20
30.779993375
 30
0.0
 10
-108.148259349
 20
31.0061320156
 30
0.0
 10
-108.1411789301
 20
31.474733602
 30
0.0
 10
-108.1508112817
 20
32.1814295845
 30
0.0
 10
-108.1726958153
 20
32.877591695
 30
0.0
 10
-108.1893473943
 20
33.5103614846
 30
0.0
 10
-108.1870518533
 20
34.0370720918
 30
0.0
 10
-108.1674914546
 20
34.4401635074
 30
0.0
 10
-108.1479499583
 20
34.7197181249
 30
0.0
 10
-108.1296166767
 20
34.9057457547
 30
0.0
 10
-108.1295967342
 20
35.0018975896
 30
0.0
 10
-108.126450015
 20
35.0536686042
 30
0.0
 10
-108.1355481094
 20
35.061825004
 30
0.0
 11
-108.1555562343
 21
30.779993375
 31
0.0
 11
-108.1445615508
 21
31.4586733295
 31
0.0
 11
-108.1530423218
 21
32.1855510037
 31
0.0
 11
-108.1727494902
 21
32.899629727
 31
0.0
 11
-108.1867059113
 21
33.5478587661
 31
0.0
 11
-108.1823108133
 21
34.0835727323
 31
0.0
 11
-108.1639080113
 21
34.4799451046
 31
0.0
 11
-108.1439177602
 21
34.7540531325
 31
0.0
 11
-108.1307565706
 21
34.9294127922
 31
0.0
 11
-108.1279438312
 21
35.025965632
 31
0.0
 11
-108.1355481094
 21
35.061825004
 31
0.0
  0
SPLINE
  5
4D3
100
AcDbEntity
  8
RACCORDO
100
AcDbSpline
 62
253
  6
CONTINUOUS
 70
0
 71
3
 72
17
 73
13
 74
11
 42
0.0000001
 43
0.0000001
 44
0.0000000001
 12
0.1371820101
 22
5.8015906615
 32
0.0
 13
-5.8023841932
 23
-0.0980345972
 33
0.0
 40
0.0
 40
0.0
 40
0.0
 40
0.0
 40
0.1727607382
 40
0.3545266563
 40
0.5274516558
 40
0.6772487293
 40
0.7952477925
 40
0.8802032864
 40
0.938307177
 40
0.9748974012
 40
0.994096393
 40
1.0
 40
1.0
 40
1.0
 40
1.0
 10
-106.246464605
 20
30.7100053383
 30
0.0
 10
-106.2385647166
 20
31.0441010334
 30
0.0
 10
-106.2296360928
 20
31.7298786002
 30
0.0
 10
-106.2347195667
 20
32.7502779313
 30
0.0
 10
-106.2510845164
 20
33.7257975345
 30
0.0
 10
-106.2647209588
 20
34.5789146458
 30
0.0
 10
-106.265879273
 20
35.2595065168
 30
0.0
 10
-106.2542097802
 20
35.7686976305
 30
0.0
 10
-106.2442479611
 20
36.1068007172
 30
0.0
 10
-106.232312714
 20
36.3445690353
 30
0.0
 10
-106.238796436
 20
36.4373913263
 30
0.0
 10
-106.2378804945
 20
36.5108450554
 30
0.0
 10
-106.2492988266
 20
36.5106521362
 30
0.0
 11
-106.246464605
 21
30.7100053383
 31
0.0
 11
-106.2327944554
 21
31.712479379
 31
0.0
 11
-106.2369286411
 21
32.7672974908
 31
0.0
 11
-106.2516959979
 21
33.7707093159
 31
0.0
 11
-106.2633873472
 21
34.6399349144
 31
0.0
 11
-106.2626957915
 21
35.3247081813
 31
0.0
 11
-106.2524671158
 21
35.8176168294
 31
0.0
 11
-106.2412958422
 21
36.1546209365
 31
0.0
 11
-106.2355272302
 21
36.3668834041
 31
0.0
 11
-106.2381147381
 21
36.4782691796
 31
0.0
 11
-106.2492988266
 21
36.5106521362
 31
0.0
  0
SPLINE
  5
4D4
100
AcDbEntity
  8
0
100
AcDbSpline
 62
7
  6
CONTINUOUS
 70
0
 71
3
 72
13
 73
9
 74
7
 42
0.0000001
 43
0.0000001
 44
0.0000000001
 12
-0.8418924662
 22
-0.6322675264
 32
0.0
 13
-0.7966974065
 23
-0.6883446754
 33
0.0
 40
0.0
 40
0.0
 40
0.0
 40
0.0
 40
0.1423055526
 40
0.2982108916
 40
0.4645912932
 40
0.638046537
 40
0.8174871489
 40
1.0
 40
1.0
 40
1.0
 40
1.0
 10
-58.1025096522
 20
-34.1899946334
 30
0.0
 10
-58.1424449764
 20
-34.21998636
 30
0.0
 10
-58.2247526536
 20
-34.2846677788
 30
0.0
 10
-58.3507437649
 20
-34.3881726062
 30
0.0
 10
-58.483751068
 20
-34.5003374171
 30
0.0
 10
-58.6221930481
 20
-34.6188573778
 30
0.0
 10
-58.7644505764
 20
-34.7416237844
 30
0.0
 10
-58.8605276257
 20
-34.8247258424
 30
0.0
 10
-58.9089967974
 20
-34.8666030921
 30
0.0
 11
-58.1025096522
 21
-34.1899946334
 31
0.0
 11
-58.2206718687
 21
-34.2821178913
 31
0.0
 11
-58.3476853304
 21
-34.3861006073
 31
0.0
 11
-58.4817148689
 21
-34.4988982811
 31
0.0
 11
-58.6205200132
 21
-34.6175811409
 31
0.0
 11
-58.7636112803
 21
-34.7409458866
 31
0.0
 11
-58.9089967974
 21
-34.8666030921
 31
0.0
  0
LINE
  5
4D5
100
AcDbEntity
  8
0
100
AcDbLine
 62
7
  6
CONTINUOUS
 10
-58.1025096522
 20
-34.1899946334
 11
-63.328194439
 21
-34.1899946334
  0
SPLINE
  5
4D6
100
AcDbEntity
  8
0
100
AcDbSpline
 62
253
  6
CONTINUOUS
 70
0
 71
3
 72
10
 73
6
 74
4
 42
0.0000001
 43
0.0000001
 44
0.0000000001
 12
-0.0061386747
 22
0.7195241284
 32
0.0
 13
-0.0318702996
 23
0.7188441685
 33
0.0
 40
0.0
 40
0.0
 40
0.0
 40
0.0
 40
0.4048616181
 40
0.754172048
 40
1.0
 40
1.0
 40
1.0
 40
1.0
 10
-63.3142323421
 20
-34.9093905691
 30
0.0
 10
-63.31506078
 20
-34.8122880015
 30
0.0
 10
-63.3171341413
 20
-34.6314085724
 30
0.0
 10
-63.3216500294
 20
-34.3916037195
 30
0.0
 10
-63.3255829021
 20
-34.2489020328
 30
0.0
 10
-63.328194439
 20
-34.1899980362
 30
0.0
 11
-63.3142323421
 21
-34.9093905691
 31
0.0
 11
-63.3176708392
 21
-34.618092558
 31
0.0
 11
-63.3225463466
 21
-34.3667934193
 31
0.0
 11
-63.328194439
 21
-34.1899980362
 31
0.0
  0
SPLINE
  5
4D7
100
AcDbEntity
  8
0
100
AcDbSpline
 62
7
  6
CONTINUOUS
 70
0
 71
3
 72
11
 73
7
 74
5
 42
0.0000001
 43
0.0000001
 44
0.0000000001
 12
-0.4682124753
 22
-0.0007535442
 32
0.0
 13
0.0007352701
 23
0.4682125044
 33
0.0
 40
0.0
 40
0.0
 40
0.0
 40
0.0
 40
0.2497047197
 40
0.4999871579
 40
0.7502775587
 40
1.0
 40
1.0
 40
1.0
 40
1.0
 10
-63.328194439
 20
-34.1899946334
 30
0.0
 10
-63.3671660606
 20
-34.1900573546
 30
0.0
 10
-63.44604736
 20
-34.1743692576
 30
0.0
 10
-63.5458345049
 20
-34.1076419845
 30
0.0
 10
-63.6125685435
 20
-34.0078546059
 30
0.0
 10
-63.6282556489
 20
-33.928969018
 30
0.0
 10
-63.6281944444
 20
-33.8899946282
 30
0.0
 11
-63.328194439
 21
-34.1899946334
 31
0.0
 11
-63.4428676515
 21
-34.1672092135
 31
0.0
 11
-63.5403202362
 21
-34.1021289716
 31
0.0
 11
-63.6054062301
 21
-34.0046757452
 31
0.0
 11
-63.6281944444
 21
-33.8899946282
 31
0.0
  0
SPLINE
  5
4D8
100
AcDbEntity
  8
0
100
AcDbSpline
 62
253
  6
CONTINUOUS
 70
0
 71
3
 72
14
 73
10
 74
8
 42
0.0000001
 43
0.0000001
 44
0.0000000001
 12
-1.6062960635
 22
-0.0157377483
 32
0.0
 13
0.0020681138
 23
1.606371826
 33
0.0
 40
0.0
 40
0.0
 40
0.0
 40
0.0
 40
0.1397988774
 40
0.2827683639
 40
0.4276104912
 40
0.5728556619
 40
0.7175332162
 40
0.860294546
 40
1.0
 40
1.0
 40
1.0
 40
1.0
 10
-63.3142325193
 20
-34.9093905694
 30
0.0
 10
-63.3890853148
 20
-34.9101239426
 30
0.0
 10
-63.5411576004
 20
-34.8944448289
 30
0.0
 10
-63.7598860518
 20
-34.8207198814
 30
0.0
 10
-63.9590129537
 20
-34.6979155639
 30
0.0
 10
-64.1256779815
 20
-34.5324780577
 30
0.0
 10
-64.249873556
 20
-34.3344609357
 30
0.0
 10
-64.325252812
 20
-34.1165714502
 30
0.0
 10
-64.3421790164
 20
-33.9648009352
 30
0.0
 10
-64.3420827075
 20
-33.8899946334
 30
0.0
 11
-63.3142325193
 21
-34.9093905694
 31
0.0
 11
-63.5376357617
 21
-34.886536669
 31
0.0
 11
-63.7552567243
 21
-34.8131479132
 31
0.0
 11
-63.9532971494
 21
-34.6910186613
 31
0.0
 11
-64.1188876018
 21
-34.5266499758
 31
0.0
 11
-64.2423722918
 21
-34.3297638537
 31
0.0
 11
-64.317382688
 21
-34.1130503161
 31
0.0
 11
-64.3420827075
 21
-33.8899946334
 31
0.0
  0
SPLINE
  5
4D9
100
AcDbEntity
  8
0
100
AcDbSpline
 62
7
  6
CONTINUOUS
 70
0
 71
3
 72
11
 73
7
 74
5
 42
0.0000001
 43
0.0000001
 44
0.0000000001
 12
-0.0007355783
 22
0.4682125047
 32
0.0
 13
0.4682124766
 23
-0.0007532218
 33
0.0
 40
0.0
 40
0.0
 40
0.0
 40
0.0
 40
0.2497225752
 40
0.500014872
 40
0.7502953882
 40
1.0
 40
1.0
 40
1.0
 40
1.0
 10
-63.6281944444
 20
-28.6899946387
 30
0.0
 10
-63.6282556746
 20
-28.6510202279
 30
0.0
 10
-63.612568389
 20
-28.5721343368
 30
0.0
 10
-63.5458342155
 20
-28.4723470001
 30
0.0
 10
-63.4460470437
 20
-28.4056198485
 30
0.0
 10
-63.367166044
 20
-28.3899319391
 30
0.0
 10
-63.3281944391
 20
-28.3899946334
 30
0.0
 11
-63.6281944444
 21
-28.6899946387
 31
0.0
 11
-63.6054061607
 21
-28.5753134714
 31
0.0
 11
-63.5403195369
 21
-28.4778595979
 31
0.0
 11
-63.4428676139
 21
-28.4127799852
 31
0.0
 11
-63.3281944391
 21
-28.3899946334
 31
0.0
  0
SPLINE
  5
4DA
100
AcDbEntity
  8
0
100
AcDbSpline
 62
253
  6
CONTINUOUS
 70
0
 71
3
 72
14
 73
10
 74
8
 42
0.0000001
 43
0.0000001
 44
0.0000000001
 12
-0.0020690179
 22
1.6063718239
 32
0.0
 13
1.606296072
 23
-0.0157367861
 33
0.0
 40
0.0
 40
0.0
 40
0.0
 40
0.0
 40
0.1398175693
 40
0.2828337033
 40
0.4277239981
 40
0.5729699781
 40
0.7175998348
 40
0.8603140605
 40
1.0
 40
1.0
 40
1.0
 40
1.0
 10
-64.3420827075
 20
-28.6899946334
 30
0.0
 10
-64.3421791358
 20
-28.6151282988
 30
0.0
 10
-64.3252170852
 20
-28.4631601403
 30
0.0
 10
-64.2496507924
 20
-28.2449967131
 30
0.0
 10
-64.125168394
 20
-28.0468534611
 30
0.0
 10
-63.958350528
 20
-27.8815690475
 30
0.0
 10
-63.7593511565
 20
-27.7590503749
 30
0.0
 10
-63.5408984918
 20
-27.685510714
 30
0.0
 10
-63.3890248446
 20
-27.6698659615
 30
0.0
 10
-63.3142325193
 20
-27.6705986974
 30
0.0
 11
-64.3420827075
 21
-28.6899946334
 31
0.0
 11
-64.3173428945
 21
-28.4667621584
 31
0.0
 11
-64.2421163251
 21
-28.2496903261
 31
0.0
 11
-64.1183020781
 21
-28.0526075822
 31
0.0
 11
-63.9525595584
 21
-27.8883903892
 31
0.0
 11
-63.7547176506
 21
-27.7665889725
 31
0.0
 11
-63.5374573412
 21
-27.6934140072
 31
0.0
 11
-63.3142325193
 21
-27.6705986974
 31
0.0
  0
SPLINE
  5
4DB
100
AcDbEntity
  8
0
100
AcDbSpline
 62
253
  6
CONTINUOUS
 70
0
 71
3
 72
10
 73
6
 74
4
 42
0.0000001
 43
0.0000001
 44
0.0000000001
 12
-0.0061077884
 22
-0.7195279124
 32
0.0
 13
-0.0318973721
 23
-0.7188464923
 33
0.0
 40
0.0
 40
0.0
 40
0.0
 40
0.0
 40
0.4048597704
 40
0.7541704723
 40
1.0
 40
1.0
 40
1.0
 40
1.0
 10
-63.3142325094
 20
-27.6705986975
 30
0.0
 10
-63.3150567754
 20
-27.7677013326
 30
0.0
 10
-63.317125811
 20
-27.9485813364
 30
0.0
 10
-63.3216432672
 20
-28.1883873482
 30
0.0
 10
-63.3255806671
 20
-28.3310900688
 30
0.0
 10
-63.3281944391
 20
-28.3899946334
 30
0.0
 11
-63.3142325094
 21
-27.6705986975
 31
0.0
 11
-63.3176637682
 21
-27.9618968899
 31
0.0
 11
-63.322540974
 21
-28.2131974216
 31
0.0
 11
-63.3281944391
 21
-28.3899946334
 31
0.0
  0
LINE
  5
4DC
100
AcDbEntity
  8
0
100
AcDbLine
 62
7
  6
CONTINUOUS
 10
-63.3281944391
 20
-28.3899946334
 11
-58.1025096522
 21
-28.3899946334
  0
SPLINE
  5
4DD
100
AcDbEntity
  8
0
100
AcDbSpline
 62
7
  6
CONTINUOUS
 70
0
 71
3
 72
13
 73
9
 74
7
 42
0.0000001
 43
0.0000001
 44
0.0000000001
 12
0.7966974119
 22
-0.6883446782
 32
0.0
 13
0.8418924747
 23
-0.6322675249
 33
0.0
 40
0.0
 40
0.0
 40
0.0
 40
0.0
 40
0.1826366888
 40
0.3621229741
 40
0.5355658483
 40
0.7018991827
 40
0.8577446293
 40
1.0
 40
1.0
 40
1.0
 40
1.0
 10
-58.9089967974
 20
-27.7133861746
 30
0.0
 10
-58.8604947383
 20
-27.7552918389
 30
0.0
 10
-58.7643727341
 20
-27.838432863
 30
0.0
 10
-58.6220732227
 20
-27.9612350361
 30
0.0
 10
-58.4836342958
 20
-28.0797511393
 30
0.0
 10
-58.350658092
 20
-28.1918878664
 30
0.0
 10
-58.2247086335
 20
-28.2953565196
 30
0.0
 10
-58.1424308943
 20
-28.360013483
 30
0.0
 10
-58.1025096522
 20
-28.3899946334
 30
0.0
 11
-58.9089967974
 21
-27.7133861746
 31
0.0
 11
-58.7635126193
 21
-27.839128625
 31
0.0
 11
-58.6203846599
 21
-27.9625244584
 31
0.0
 11
-58.4815887741
 21
-28.0811981076
 31
0.0
 11
-58.3475962361
 21
-28.1939627864
 31
0.0
 11
-58.2206306582
 21
-28.297904447
 31
0.0
 11
-58.1025096522
 21
-28.3899946334
 31
0.0
  0
ENDSEC
  0
SECTION
  2
OBJECTS
  0
DICTIONARY
  5
C
100
AcDbDictionary
280
0
281
1
  3
ACAD_GROUP
350
D
  3
ACAD_MLINESTYLE
350
17
  3
ACAD_LAYOUT
350
1A
  3
ACAD_PLOTSETTINGS
350
19
  3
ACAD_PLOTSTYLENAME
350
E
  0
DICTIONARY
  5
D
102
{ACAD_REACTORS
330
C
102
}
100
AcDbDictionary
280
0
281
1
  0
ACDBDICTIONARYWDFLT
  5
E
102
{ACAD_REACTORS
330
C
102
}
100
AcDbDictionary
281
1
  3
Normal
350
F
100
AcDbDictionaryWithDefault
340
F
  0
DICTIONARY
  5
17
102
{ACAD_REACTORS
330
C
102
}
100
AcDbDictionary
280
0
281
1
  3
Standard
350
18
  0
DICTIONARY
  5
19
102
{ACAD_REACTORS
330
C
102
}
100
AcDbDictionary
281
1
  0
DICTIONARY
  5
1A
102
{ACAD_REACTORS
330
C
102
}
100
AcDbDictionary
281
1
  3
Model
350
4DE
  3
Layout1
350
4DF
  0
ACDBPLACEHOLDER
  5
F
102
{ACAD_REACTORS
330
E
102
}
  0
MLINESTYLE
  5
18
102
{ACAD_REACTORS
330
17
102
}
100
AcDbMlineStyle
  2
STANDARD
 70
0
  3

 62
256
 51
90.0
 52
90.0
 71
2
 49
0.5
 62
256
  6
BYLAYER
 49
-0.5
 62
256
  6
BYLAYER
  0
LAYOUT
  5
4DE
102
{ACAD_REACTORS
330
1A
102
}
100
AcDbPlotSettings
  1

  2
none_device
  4
ISO_A4_(297.00_x_210.00_MM)
  6

 40
0.0
 41
0.0
 42
0.0
 43
0.0
 44
297.0
 45
210.0
 46
0.0
 47
0.0
 48
0.0
 49
0.0
140
0.0
141
0.0
142
1.0
143
1.0
 70
1024
 72
1
 73
0
 74
0
  7

 75
0
147
1.0
148
0.0
149
0.0
100
AcDbLayout
  1
Model
 70
0
 71
0
 10
0.0
 20
0.0
 11
297.0
 21
210.0
 12
0.0
 22
0.0
 32
0.0
 14
0.0
 24
0.0
 34
0.0
 15
0.0
 25
0.0
 35
0.0
146
0.0
 13
0.0
 23
0.0
 33
0.0
 16
1.0
 26
0.0
 36
0.0
 17
0.0
 27
1.0
 37
0.0
 76
0
330
215
345
0
346
0
  0
LAYOUT
  5
4DF
102
{ACAD_REACTORS
330
1A
102
}
100
AcDbPlotSettings
  1

  2
none_device
  4
ISO_A4_(297.00_x_210.00_MM)
  6

 40
0.0
 41
0.0
 42
0.0
 43
0.0
 44
297.0
 45
210.0
 46
0.0
 47
0.0
 48
0.0
 49
0.0
140
0.0
141
0.0
142
1.0
143
1.0
 70
0
 72
1
 73
0
 74
0
  7

 75
0
147
1.0
148
0.0
149
0.0
100
AcDbLayout
  1
Layout1
 70
0
 71
1
 10
0.0
 20
0.0
 11
297.0
 21
210.0
 12
0.0
 22
0.0
 32
0.0
 14
0.0
 24
0.0
 34
0.0
 15
0.0
 25
0.0
 35
0.0
146
0.0
 13
0.0
 23
0.0
 33
0.0
 16
1.0
 26
0.0
 36
0.0
 17
0.0
 27
1.0
 37
0.0
 76
0
330
216
345
0
346
0
  0
ENDSEC
  0
EOF
