  0
SECTION
  2
HEADER
  9
$ACADVER
  1
AC1024
  9
$DWGCODEPAGE
  3
ANSI_1252
  9
$EXTMAX
 10
297.0
 20
210.0
 30
0.0
  9
$EXTMIN
 10
0.0
 20
0.0
 30
0.0
  9
$LIMMIN
 10
0.0
 20
0.0
  9
$LIMMAX
 10
297.0
 20
210.0
  9
$VIEWCTR
 10
148.5
 20
105.0
  9
$VIEWSIZE
 40
210.0
  9
$CLAYER
  8
0
  9
$LTSCALE
 40
16.335
  9
$CELTYPE
  6
BYLAYER
  9
$DIMSCALE
 40
1.0
  9
$DIMASZ
 40
3.0
  9
$DIMEXO
 40
0.5
  9
$DIMDLI
 40
11.286
  9
$DIMEXE
 40
1.5
  9
$DIMCEN
 40
2.673
  9
$DIMLFAC
 40
1.0
  9
$DIMBLK
  1
_FILLED
  9
$DIMALT
 70
0
  9
$DIMALTF
 40
0.0393700787
  9
$DIMTXT
 40
3.0
  9
$DIMTOL
 70
1
  9
$DIMLIM
 70
0
  9
$DIMTFAC
 40
1.0
  9
$DIMTP
 40
0.01
  9
$DIMTM
 40
0.01
  9
$DIMGAP
 40
0.625
  9
$DIMDSEP
 70
44
  9
$AUNITS
 70
0
  9
$PDMODE
 70
3
  9
$PDSIZE
 40
3.0
  9
$HANDSEED
  5
771
  9
$TILEMODE
 70
1
  9
$MEASUREMENT
 70
1
  9
$INSUNITS
 70
4
  0
ENDSEC
  0
SECTION
  2
CLASSES
  0
CLASS
  1
ACDBDICTIONARYWDFLT
  2
AcDbDictionaryWithDefault
  3
AutoCAD 2000
 90
0
 91
1
280
0
281
0
  0
CLASS
  1
ACDBPLACEHOLDER
  2
AcDbPlaceHolder
  3
AutoCAD 2000
 90
0
 91
1
280
0
281
0
  0
CLASS
  1
LAYOUT
  2
AcDbLayout
  3
AutoCAD 2000
 90
0
 91
0
280
0
281
0
  0
ENDSEC
  0
SECTION
  2
TABLES
  0
TABLE
  2
VPORT
  5
8
100
AcDbSymbolTable
 70
2
  0
VPORT
  5
1F4
100
AcDbSymbolTableRecord
100
AcDbViewportTableRecord
  2
*ACTIVE
 70
0
 10
0.0
 20
0.0
 11
1.0
 21
1.0
 12
148.5
 22
105.0
 13
0.0
 23
0.0
 14
1.0
 24
1.0
 15
0.0
 25
0.0
 16
0.0
 26
0.0
 36
1.0
 17
0.0
 27
0.0
 37
0.0
 40
210.0
 41
1.4142857143
 42
50.0
 43
0.0
 44
0.0
 50
0.0
 51
0.0
 71
0
 72
100
 73
1
 74
1
 75
0
 76
0
 77
0
 78
0
  0
ENDTAB
  0
TABLE
  2
LTYPE
  5
5
100
AcDbSymbolTable
 70
6
  0
LTYPE
  5
14
100
AcDbSymbolTableRecord
100
AcDbLinetypeTableRecord
  2
BYBLOCK
 70
0
  3

 72
65
 73
0
 40
0.0
  0
LTYPE
  5
15
100
AcDbSymbolTableRecord
100
AcDbLinetypeTableRecord
  2
BYLAYER
 70
0
  3

 72
65
 73
0
 40
0.0
  0
LTYPE
  5
16
100
AcDbSymbolTableRecord
100
AcDbLinetypeTableRecord
  2
CONTINUOUS
 70
64
  3
Solid line
 72
65
 73
0
 40
0.0
  0
LTYPE
  5
1F5
100
AcDbSymbolTableRecord
100
AcDbLinetypeTableRecord
  2
CENTER
 70
64
  3
____ _ ____ _ ____ _ ____ _ ____ _ ____ _ ____
 72
65
 73
4
 40
0.6
 49
0.375
 74
0
 49
-0.075
 74
0
 49
0.075
 74
0
 49
-0.075
 74
0
  0
LTYPE
  5
1F6
100
AcDbSymbolTableRecord
100
AcDbLinetypeTableRecord
  2
HIDDEN
 70
64
  3
- - - - - - - - - - - - - - - - - - - -
 72
65
 73
2
 40
0.2
 49
0.1
 74
0
 49
-0.1
 74
0
  0
LTYPE
  5
1F7
100
AcDbSymbolTableRecord
100
AcDbLinetypeTableRecord
  2
PHANTOM
 70
64
  3
_____ _ _ _____ _ _ _____ _ _ _____
 72
65
 73
6
 40
0.8
 49
0.45
 74
0
 49
-0.05
 74
0
 49
0.1
 74
0
 49
-0.05
 74
0
 49
0.1
 74
0
 49
-0.05
 74
0
  0
LTYPE
  5
1F8
100
AcDbSymbolTableRecord
100
AcDbLinetypeTableRecord
  2
DOT
 70
64
  3
. . . . . . . . . . . . . . . . . . . .
 72
65
 73
2
 40
0.2
 49
0.1
 74
0
 49
-0.1
 74
0
  0
LTYPE
  5
1F9
100
AcDbSymbolTableRecord
100
AcDbLinetypeTableRecord
  2
DASHED
 70
64
  3
- - - - - - - - - - - - - - - - - - - -
 72
65
 73
2
 40
0.2
 49
0.1
 74
0
 49
-0.1
 74
0
  0
ENDTAB
  0
TABLE
  2
LAYER
  5
2
100
AcDbSymbolTable
 70
36
  0
LAYER
  5
10
100
AcDbSymbolTableRecord
100
AcDbLayerTableRecord
  2
0
 70
0
 62
7
  6
CONTINUOUS
370
-3
390
F
  0
LAYER
  5
1FA
100
AcDbSymbolTableRecord
100
AcDbLayerTableRecord
  2
DEFAULT_1
 70
0
 62
7
  6
CENTER
370
-3
390
F
  0
LAYER
  5
1FB
100
AcDbSymbolTableRecord
100
AcDbLayerTableRecord
  2
DEFAULT_2
 70
0
 62
7
  6
HIDDEN
370
-3
390
F
  0
LAYER
  5
1FC
100
AcDbSymbolTableRecord
100
AcDbLayerTableRecord
  2
DEFAULT_3
 70
0
 62
7
  6
PHANTOM
370
-3
390
F
  0
LAYER
  5
1FD
100
AcDbSymbolTableRecord
100
AcDbLayerTableRecord
  2
ASSI
 70
0
 62
7
  6
CONTINUOUS
370
-3
390
F
  0
LAYER
  5
1FE
100
AcDbSymbolTableRecord
100
AcDbLayerTableRecord
  2
COLOR5
 70
0
 62
7
  6
CONTINUOUS
370
-3
390
F
  0
LAYER
  5
1FF
100
AcDbSymbolTableRecord
100
AcDbLayerTableRecord
  2
COORDINATE
 70
0
 62
7
  6
CONTINUOUS
370
-3
390
F
  0
LAYER
  5
200
100
AcDbSymbolTableRecord
100
AcDbLayerTableRecord
  2
COORD_ORIGINE
 70
0
 62
7
  6
CONTINUOUS
370
-3
390
F
  0
LAYER
  5
201
100
AcDbSymbolTableRecord
100
AcDbLayerTableRecord
  2
CURVE
 70
0
 62
7
  6
CONTINUOUS
370
-3
390
F
  0
LAYER
  5
202
100
AcDbSymbolTableRecord
100
AcDbLayerTableRecord
  2
DRAFT
 70
0
 62
7
  6
CONTINUOUS
370
-3
390
F
  0
LAYER
  5
203
100
AcDbSymbolTableRecord
100
AcDbLayerTableRecord
  2
IMPORT_IGS
 70
0
 62
7
  6
CONTINUOUS
370
-3
390
F
  0
LAYER
  5
204
100
AcDbSymbolTableRecord
100
AcDbLayerTableRecord
  2
INTF_1
 70
0
 62
7
  6
CONTINUOUS
370
-3
390
F
  0
LAYER
  5
205
100
AcDbSymbolTableRecord
100
AcDbLayerTableRecord
  2
INTF_7
 70
0
 62
7
  6
CONTINUOUS
370
-3
390
F
  0
LAYER
  5
206
100
AcDbSymbolTableRecord
100
AcDbLayerTableRecord
  2
LAY0001
 70
0
 62
7
  6
CONTINUOUS
370
-3
390
F
  0
LAYER
  5
207
100
AcDbSymbolTableRecord
100
AcDbLayerTableRecord
  2
NOTE
 70
0
 62
7
  6
CONTINUOUS
370
-3
390
F
  0
LAYER
  5
208
100
AcDbSymbolTableRecord
100
AcDbLayerTableRecord
  2
PIANI
 70
0
 62
7
  6
CONTINUOUS
370
-3
390
F
  0
LAYER
  5
209
100
AcDbSymbolTableRecord
100
AcDbLayerTableRecord
  2
PIANI_ORIGINE
 70
0
 62
7
  6
CONTINUOUS
370
-3
390
F
  0
LAYER
  5
20A
100
AcDbSymbolTableRecord
100
AcDbLayerTableRecord
  2
PUNTI
 70
0
 62
7
  6
CONTINUOUS
370
-3
390
F
  0
LAYER
  5
20B
100
AcDbSymbolTableRecord
100
AcDbLayerTableRecord
  2
RACCORDO
 70
0
 62
7
  6
CONTINUOUS
370
-3
390
F
  0
LAYER
  5
20C
100
AcDbSymbolTableRecord
100
AcDbLayerTableRecord
  2
RGB__255__255__255__
 70
0
 62
7
  6
CONTINUOUS
370
-3
390
F
  0
LAYER
  5
20D
100
AcDbSymbolTableRecord
100
AcDbLayerTableRecord
  2
RGB____0____0____0__
 70
0
 62
7
  6
CONTINUOUS
370
-3
390
F
  0
LAYER
  5
20E
100
AcDbSymbolTableRecord
100
AcDbLayerTableRecord
  2
SCRITTE
 70
0
 62
7
  6
CONTINUOUS
370
-3
390
F
  0
LAYER
  5
20F
100
AcDbSymbolTableRecord
100
AcDbLayerTableRecord
  2
SKEL
 70
0
 62
7
  6
CONTINUOUS
370
-3
390
F
  0
LAYER
  5
210
100
AcDbSymbolTableRecord
100
AcDbLayerTableRecord
  2
SMUSSO
 70
0
 62
7
  6
CONTINUOUS
370
-3
390
F
  0
LAYER
  5
211
100
AcDbSymbolTableRecord
100
AcDbLayerTableRecord
  2
SNAPLINE
 70
0
 62
7
  6
CONTINUOUS
370
-3
390
F
  0
LAYER
  5
212
100
AcDbSymbolTableRecord
100
AcDbLayerTableRecord
  2
SUPERFICI
 70
0
 62
7
  6
CONTINUOUS
370
-3
390
F
  0
LAYER
  5
213
100
AcDbSymbolTableRecord
100
AcDbLayerTableRecord
  2
TRASH
 70
0
 62
7
  6
CONTINUOUS
370
-3
390
F
  0
LAYER
  5
214
100
AcDbSymbolTableRecord
100
AcDbLayerTableRecord
  2
XSEC_DATUMS
 70
0
 62
7
  6
CONTINUOUS
370
-3
390
F
  0
ENDTAB
  0
TABLE
  2
STYLE
  5
3
100
AcDbSymbolTable
 70
1
  0
STYLE
  5
11
100
AcDbSymbolTableRecord
100
AcDbTextStyleTableRecord
  2
STANDARD
 70
0
 40
0.0
 41
0.8
 50
0.0
 71
0
 42
0.2
  3
txt
  4

  0
STYLE
  5
215
100
AcDbSymbolTableRecord
100
AcDbTextStyleTableRecord
  2
TEXTSTYLE_1
 70
0
 40
0.0
 41
0.8
 50
0.0
 71
0
 42
0.2
  3
gdt
  4

  0
ENDTAB
  0
TABLE
  2
VIEW
  5
6
100
AcDbSymbolTable
 70
0
  0
ENDTAB
  0
TABLE
  2
UCS
  5
7
100
AcDbSymbolTable
 70
0
  0
ENDTAB
  0
TABLE
  2
APPID
  5
9
100
AcDbSymbolTable
 70
1
  0
APPID
  5
216
100
AcDbSymbolTableRecord
100
AcDbRegAppTableRecord
  2
ACAD
 70
0
  0
ENDTAB
  0
TABLE
  2
BLOCK_RECORD
  5
1
100
AcDbSymbolTable
 70
0
  0
BLOCK_RECORD
  5
217
100
AcDbSymbolTableRecord
100
AcDbBlockTableRecord
  2
*Model_Space
  0
BLOCK_RECORD
  5
218
100
AcDbSymbolTableRecord
100
AcDbBlockTableRecord
  2
*Paper_Space
  0
BLOCK_RECORD
  5
219
100
AcDbSymbolTableRecord
100
AcDbBlockTableRecord
  2
_FILLED
  0
BLOCK_RECORD
  5
21A
100
AcDbSymbolTableRecord
100
AcDbBlockTableRecord
  2
*D0
  0
BLOCK_RECORD
  5
21B
100
AcDbSymbolTableRecord
100
AcDbBlockTableRecord
  2
*D1
  0
BLOCK_RECORD
  5
21C
100
AcDbSymbolTableRecord
100
AcDbBlockTableRecord
  2
*D2
  0
ENDTAB
  0
TABLE
  2
DIMSTYLE
  5
A
100
AcDbSymbolTable
 70
1
100
AcDbDimStyleTable
 71
0
  0
DIMSTYLE
105
21D
100
AcDbSymbolTableRecord
100
AcDbDimStyleTableRecord
  2
STANDARD
 70
0
  3

  4

 40
1.0
 41
3.0
 42
0.5
 43
0.38
 44
1.5
 45
0.0
 46
0.0
 47
0.01
 48
0.01
140
3.0
141
0.09
142
0.0
143
25.4
144
1.0
145
0.0
146
1.0
147
0.625
 71
1
 72
0
 73
0
 74
0
 75
0
 76
0
 77
1
 78
8
 79
2
170
0
171
1
172
0
173
0
174
0
175
0
176
0
177
0
178
0
270
2
179
2
271
2
272
2
273
2
274
2
275
0
280
0
281
0
282
0
283
1
284
8
285
0
286
0
287
3
288
0
340
11
278
44
341
219
342
219
343
219
344
219
  0
DIMSTYLE
105
21E
100
AcDbSymbolTableRecord
100
AcDbDimStyleTableRecord
  2
DIMSTYLE_1
 70
0
  3

  4

 40
1.0
 41
3.0
 42
0.5
 43
0.38
 44
1.5
 45
0.0
 46
0.0
 47
0.0
 48
0.0
140
3.0
141
0.09
142
0.0
143
25.4
144
1.0
145
0.0
146
1.0
147
0.75
 71
0
 72
0
 73
0
 74
0
 75
0
 76
0
 77
1
 78
8
 79
2
170
0
171
1
172
0
173
0
174
0
175
0
176
0
177
0
178
0
270
2
179
2
271
2
272
2
273
2
274
2
275
0
280
0
281
0
282
0
283
1
284
8
285
0
286
0
287
3
288
0
340
11
278
44
341
219
342
219
343
219
344
219
  0
ENDTAB
  0
ENDSEC
  0
SECTION
  2
BLOCKS
  0
BLOCK
  5
20
100
AcDbEntity
  8
0
100
AcDbBlockBegin
  2
*Model_Space
 70
0
 10
0.0
 20
0.0
 30
0.0
  3
*Model_Space
  1

  0
ENDBLK
  5
21
100
AcDbEntity
  8
0
100
AcDbBlockEnd
  0
BLOCK
  5
1C
100
AcDbEntity
  8
0
100
AcDbBlockBegin
  2
*Paper_Space
 70
0
 10
0.0
 20
0.0
 30
0.0
  3
*Paper_Space
  1

  0
ENDBLK
  5
1D
100
AcDbEntity
  8
0
100
AcDbBlockEnd
  0
BLOCK
  5
21F
100
AcDbEntity
  8
0
100
AcDbBlockBegin
  2
_FILLED
 70
64
 10
0.0
 20
0.0
  3
_FILLED
  1

  0
SOLID
  5
220
100
AcDbEntity
  8
0
  6
BYBLOCK
 62
0
100
AcDbTrace
 10
0.0
 20
0.0
 11
-1.0
 21
0.3166666667
 12
-1.0
 22
-0.3166666667
 13
-1.0
 23
-0.3166666667
  0
ENDBLK
  5
221
100
AcDbEntity
  8
0
  6
BYBLOCK
 62
0
100
AcDbBlockEnd
  0
BLOCK
  5
222
100
AcDbEntity
  8
0
100
AcDbBlockBegin
 62
7
  6
CONTINUOUS
  2
*D0
 70
65
 10
0.0
 20
0.0
  3
*D0
  1

  0
LINE
  5
223
100
AcDbEntity
  8
0
100
AcDbLine
 62
7
  6
CONTINUOUS
 10
-175.5362240407
 20
22.7
 11
-175.5362240407
 21
51.0000004316
  0
LINE
  5
224
100
AcDbEntity
  8
0
100
AcDbLine
 62
7
  6
CONTINUOUS
 10
-121.0362240408
 20
35.9999982989
 11
-121.0362240408
 21
51.0000004316
  0
LINE
  5
225
100
AcDbEntity
  8
0
100
AcDbLine
 62
7
  6
CONTINUOUS
 10
-175.5362240407
 20
49.5000004316
 11
-148.2862240407
 21
49.5000004316
  0
LINE
  5
226
100
AcDbEntity
  8
0
100
AcDbLine
 62
7
  6
CONTINUOUS
 10
-121.0362240408
 20
49.5000004316
 11
-148.2862240407
 21
49.5000004316
  0
INSERT
  5
227
100
AcDbEntity
  8
0
100
AcDbBlockReference
 62
7
  6
CONTINUOUS
  2
_FILLED
 10
-175.5362240407
 20
49.5000004316
 41
3.0
 42
3.0
 43
3.0
 50
180.0
  0
INSERT
  5
228
100
AcDbEntity
  8
0
100
AcDbBlockReference
 62
7
  6
CONTINUOUS
  2
_FILLED
 10
-121.0362240408
 20
49.5000004316
 41
3.0
 42
3.0
 43
3.0
  0
ENDBLK
  5
229
100
AcDbEntity
  8
0
  6
BYBLOCK
 62
0
100
AcDbBlockEnd
  0
BLOCK
  5
22A
100
AcDbEntity
  8
0
100
AcDbBlockBegin
 62
7
  6
CONTINUOUS
  2
*D1
 70
65
 10
0.0
 20
0.0
  3
*D1
  1

  0
LINE
  5
22B
100
AcDbEntity
  8
0
100
AcDbLine
 62
7
  6
CONTINUOUS
 10
-102.0000003491
 20
36.0000000145
 11
-102.0000003491
 21
51.0000004316
  0
LINE
  5
22C
100
AcDbEntity
  8
0
100
AcDbLine
 62
7
  6
CONTINUOUS
 10
102.0000003491
 20
36.0000000145
 11
102.0000003491
 21
51.0000004316
  0
LINE
  5
22D
100
AcDbEntity
  8
0
100
AcDbLine
 62
7
  6
CONTINUOUS
 10
-102.0000003491
 20
49.5000004316
 11
0.0
 21
49.5000004316
  0
LINE
  5
22E
100
AcDbEntity
  8
0
100
AcDbLine
 62
7
  6
CONTINUOUS
 10
102.0000003491
 20
49.5000004316
 11
0.0
 21
49.5000004316
  0
INSERT
  5
22F
100
AcDbEntity
  8
0
100
AcDbBlockReference
 62
7
  6
CONTINUOUS
  2
_FILLED
 10
-102.0000003491
 20
49.5000004316
 41
3.0
 42
3.0
 43
3.0
 50
180.0
  0
INSERT
  5
230
100
AcDbEntity
  8
0
100
AcDbBlockReference
 62
7
  6
CONTINUOUS
  2
_FILLED
 10
102.0000003491
 20
49.5000004316
 41
3.0
 42
3.0
 43
3.0
  0
ENDBLK
  5
231
100
AcDbEntity
  8
0
  6
BYBLOCK
 62
0
100
AcDbBlockEnd
  0
BLOCK
  5
232
100
AcDbEntity
  8
0
100
AcDbBlockBegin
 62
7
  6
CONTINUOUS
  2
*D2
 70
65
 10
0.0
 20
0.0
  3
*D2
  1

  0
LINE
  5
233
100
AcDbEntity
  8
0
100
AcDbLine
 62
7
  6
CONTINUOUS
 10
96.5000001209
 20
41.5000003491
 11
111.500000424
 21
41.5000003491
  0
LINE
  5
234
100
AcDbEntity
  8
0
100
AcDbLine
 62
7
  6
CONTINUOUS
 10
96.5000000088
 20
-41.5000003491
 11
111.500000424
 21
-41.5000003491
  0
LINE
  5
235
100
AcDbEntity
  8
0
100
AcDbLine
 62
7
  6
CONTINUOUS
 10
110.000000424
 20
41.5000003491
 11
110.000000424
 21
-0.0
  0
LINE
  5
236
100
AcDbEntity
  8
0
100
AcDbLine
 62
7
  6
CONTINUOUS
 10
110.000000424
 20
-41.5000003491
 11
110.000000424
 21
-0.0
  0
INSERT
  5
237
100
AcDbEntity
  8
0
100
AcDbBlockReference
 62
7
  6
CONTINUOUS
  2
_FILLED
 10
110.000000424
 20
41.5000003491
 41
3.0
 42
3.0
 43
3.0
 50
90.0
  0
INSERT
  5
238
100
AcDbEntity
  8
0
100
AcDbBlockReference
 62
7
  6
CONTINUOUS
  2
_FILLED
 10
110.000000424
 20
-41.5000003491
 41
3.0
 42
3.0
 43
3.0
 50
270.0
  0
ENDBLK
  5
239
100
AcDbEntity
  8
0
  6
BYBLOCK
 62
0
100
AcDbBlockEnd
  0
ENDSEC
  0
SECTION
  2
ENTITIES
  0
DIMENSION
  5
23A
100
AcDbEntity
  8
0
100
AcDbDimension
 62
7
  6
CONTINUOUS
  2
*D0
 10
-121.0362240408
 20
49.5000004316
 11
-152.4647954693
 21
49.5000004316
 70
160
 71
2
 72
2
 41
0.9
 42
54.5
  3
DIMSTYLE_1
100
AcDbAlignedDimension
 13
-175.5362240407
 23
22.2
 14
-121.0362240408
 24
35.4999982989
100
AcDbRotatedDimension
  0
DIMENSION
  5
23B
100
AcDbEntity
  8
0
100
AcDbDimension
 62
7
  6
CONTINUOUS
  2
*D1
 10
102.0000003491
 20
49.5000004316
 11
-3.5357142857
 21
49.5000004316
 70
160
 71
2
 72
2
 41
0.9
 42
204.0000006982
  3
DIMSTYLE_1
100
AcDbAlignedDimension
 13
-102.0000003491
 23
35.5000000145
 14
102.0000003491
 24
35.5000000145
100
AcDbRotatedDimension
  0
DIMENSION
  5
23C
100
AcDbEntity
  8
0
100
AcDbDimension
 62
7
  6
CONTINUOUS
  2
*D2
 10
110.000000424
 20
-41.5000003491
 11
110.000000424
 21
-2.25
 70
160
 71
2
 72
2
 41
0.9
 42
83.0000006982
  3
DIMSTYLE_1
100
AcDbAlignedDimension
 13
96.0000001209
 23
41.5000003491
 14
96.0000000088
 24
-41.5000003491
 50
270.0
100
AcDbRotatedDimension
  0
LWPOLYLINE
  5
23D
100
AcDbEntity
  8
RACCORDO
100
AcDbPolyline
 62
250
  6
CONTINUOUS
 90
25
 70
0
 10
-101.8015710578
 20
-35.4999995694
 10
-101.7950455734
 20
-35.7784086056
 10
-101.7741623252
 20
-36.0663340694
 10
-101.737456461
 20
-36.3629489786
 10
-101.6835650683
 20
-36.6667714067
 10
-101.6109919913
 20
-36.9771589394
 10
-101.5178533685
 20
-37.2942365155
 10
-101.4025492453
 20
-37.616358653
 10
-101.2635232396
 20
-37.9417526031
 10
-101.0985362334
 20
-38.2698390919
 10
-100.90516879
 20
-38.5994527762
 10
-100.6826232425
 20
-38.9264359436
 10
-100.4315563233
 20
-39.2455072085
 10
-100.1504639106
 20
-39.5547790155
 10
-99.8399851615
 20
-39.8499565517
 10
-99.5059926228
 20
-40.123372872
 10
-99.1500665991
 20
-40.3728409646
 10
-98.7736209543
 20
-40.5965077801
 10
-98.3844260432
 20
-40.7897518564
 10
-97.9847335468
 20
-40.9522588397
 10
-97.5772922877
 20
-41.0836820835
 10
-97.1718450586
 20
-41.1824928836
 10
-96.77351072
 20
-41.2501022264
 10
-96.3822206915
 20
-41.2890825587
 10
-96.0000002059
 20
-41.3014370206
  0
LINE
  5
23E
100
AcDbEntity
  8
SKEL
100
AcDbLine
 62
7
  6
CONTINUOUS
 10
-102.0000003491
 20
35.5000000145
 11
-102.0000003491
 21
-35.5000000243
  0
LINE
  5
23F
100
AcDbEntity
  8
DRAFT
100
AcDbLine
 62
7
  6
CONTINUOUS
 10
-102.0
 20
-35.5
 11
-102.0
 21
35.5
  0
LINE
  5
240
100
AcDbEntity
  8
RACCORDO
100
AcDbLine
 62
250
  6
CONTINUOUS
 10
-101.799503858
 20
32.2841617394
 11
-101.7988669307
 21
-27.3966936323
  0
LINE
  5
241
100
AcDbEntity
  8
RACCORDO
100
AcDbLine
 62
250
  6
CONTINUOUS
 10
-101.7988669307
 20
-27.3966936323
 11
-101.7995205095
 21
-32.3689075342
  0
LINE
  5
242
100
AcDbEntity
  8
0
100
AcDbLine
 62
7
  6
CONTINUOUS
 10
-97.1597282293
 20
35.2369554872
 11
-97.1449972769
 21
35.2718517719
  0
LINE
  5
243
100
AcDbEntity
  8
0
100
AcDbLine
 62
7
  6
CONTINUOUS
 10
-97.1746647022
 20
35.2021810922
 11
-97.1597282293
 21
35.2369554872
  0
LINE
  5
244
100
AcDbEntity
  8
0
100
AcDbLine
 62
7
  6
CONTINUOUS
 10
-97.1898066956
 20
35.1675285871
 11
-97.1746647022
 21
35.2021810922
  0
LINE
  5
245
100
AcDbEntity
  8
0
100
AcDbLine
 62
7
  6
CONTINUOUS
 10
-97.171604981
 20
35.1549273753
 11
-97.1221062937
 21
35.2611776175
  0
LINE
  5
246
100
AcDbEntity
  8
0
100
AcDbLine
 62
7
  6
CONTINUOUS
 10
-96.519717435
 20
36.0197267822
 11
-96.4999466442
 21
36.0621338622
  0
LINE
  5
247
100
AcDbEntity
  8
0
100
AcDbLine
 62
7
  6
CONTINUOUS
 10
-96.4999466442
 20
36.0621338622
 11
-96.5204046482
 21
36.0204046481
  0
LINE
  5
248
100
AcDbEntity
  8
0
100
AcDbLine
 62
7
  6
CONTINUOUS
 10
-96.6272974066
 20
36.1272972341
 11
-96.6
 21
36.1818871521
  0
LINE
  5
249
100
AcDbEntity
  8
0
100
AcDbLine
 62
7
  6
CONTINUOUS
 10
-96.6
 20
-36.1818880101
 11
-96.6272975093
 21
-36.1272975163
  0
LINE
  5
24A
100
AcDbEntity
  8
0
100
AcDbLine
 62
7
  6
CONTINUOUS
 10
-96.5204046482
 20
-36.0204046482
 11
-96.4999470109
 21
-36.062133536
  0
LINE
  5
24B
100
AcDbEntity
  8
0
100
AcDbLine
 62
7
  6
CONTINUOUS
 10
-96.4999470109
 20
-36.062133536
 11
-96.5197234839
 21
-36.0197234839
  0
LINE
  5
24C
100
AcDbEntity
  8
0
100
AcDbLine
 62
7
  6
CONTINUOUS
 10
-97.122106287
 20
-35.2611776274
 11
-97.1716048889
 21
-35.1549273261
  0
LINE
  5
24D
100
AcDbEntity
  8
0
100
AcDbLine
 62
7
  6
CONTINUOUS
 10
-97.1449972701
 20
-35.2718517819
 11
-97.1900477491
 21
-35.1676955419
  0
LWPOLYLINE
  5
24E
100
AcDbEntity
  8
RACCORDO
100
AcDbPolyline
 62
250
  6
CONTINUOUS
 90
25
 70
0
 10
-100.207986942
 20
-35.6027333004
 10
-100.1998114892
 20
-35.7889270916
 10
-100.1815244914
 20
-35.9846121745
 10
-100.1518212477
 20
-36.1881648587
 10
-100.1108658976
 20
-36.3949934258
 10
-100.0575023188
 20
-36.6059222656
 10
-99.9878997818
 20
-36.825946898
 10
-99.9008062455
 20
-37.0534795435
 10
-99.7987667815
 20
-37.2813441805
 10
-99.6809151474
 20
-37.5079910821
 10
-99.5421242225
 20
-37.7394026587
 10
-99.3801594688
 20
-37.9752670258
 10
-99.1990378565
 20
-38.2061377532
 10
-98.9991824869
 20
-38.429868753
 10
-98.7785163428
 20
-38.6463138547
 10
-98.541276115
 20
-38.8489519932
 10
-98.2896736356
 20
-39.0363757895
 10
-98.0254903389
 20
-39.2065844782
 10
-97.7543657966
 20
-39.3535842271
 10
-97.4775236186
 20
-39.4785921148
 10
-97.1967932828
 20
-39.5826694344
 10
-96.9192343091
 20
-39.6624671457
 10
-96.6481870713
 20
-39.7186548678
 10
-96.3827962662
 20
-39.7548156154
 10
-96.1241503432
 20
-39.7721419415
  0
LINE
  5
24F
100
AcDbEntity
  8
RACCORDO
100
AcDbLine
 62
250
  6
CONTINUOUS
 10
-100.258825515
 20
-32.485397354
 11
-100.242980557
 21
-33.0679742339
  0
LWPOLYLINE
  5
250
100
AcDbEntity
  8
RACCORDO
100
AcDbPolyline
 62
250
  6
CONTINUOUS
 90
13
 70
0
 10
-96.1241503288
 20
-39.772141887
 10
-96.119863558
 20
-39.9820619715
 10
-96.1141370701
 20
-40.1838087552
 10
-96.1070396364
 20
-40.3749584741
 10
-96.0986564987
 20
-40.5532146764
 10
-96.0890883447
 20
-40.7164358116
 10
-96.0784500989
 20
-40.8626609586
 10
-96.0668695414
 20
-40.9901333844
 10
-96.0544857732
 20
-41.0973216494
 10
-96.0414475453
 20
-41.1829380052
 10
-96.027911471
 20
-41.2459538663
 10
-96.0140401437
 20
-41.2856121669
 10
-96.0000001848
 20
-41.3014364564
  0
LINE
  5
251
100
AcDbEntity
  8
RACCORDO
100
AcDbLine
 62
250
  6
CONTINUOUS
 10
-100.242980557
 20
-33.0679742339
 11
-100.2357437627
 21
-33.4024711156
  0
LINE
  5
252
100
AcDbEntity
  8
RACCORDO
100
AcDbLine
 62
250
  6
CONTINUOUS
 10
-100.2357437627
 20
-33.4024711156
 11
-100.2299182492
 21
-33.7707101133
  0
LWPOLYLINE
  5
253
100
AcDbEntity
  8
RACCORDO
100
AcDbPolyline
 62
250
  6
CONTINUOUS
 90
3
 70
0
 10
-100.2632712054
 20
-32.2065967843
 10
-100.2622273946
 20
-32.3005291922
 10
-100.258825515
 20
-32.485397354
  0
LINE
  5
254
100
AcDbEntity
  8
RACCORDO
100
AcDbLine
 62
250
  6
CONTINUOUS
 10
-100.2299182492
 20
-33.7707101133
 11
-100.2176360005
 21
-34.9134897379
  0
LWPOLYLINE
  5
255
100
AcDbEntity
  8
RACCORDO
100
AcDbPolyline
 62
250
  6
CONTINUOUS
 90
4
 70
0
 10
-100.2176360005
 20
-34.9134897379
 10
-100.2151543318
 20
-35.2487272733
 10
-100.2126050045
 20
-35.4241814607
 10
-100.207986942
 20
-35.6027333004
  0
LINE
  5
256
100
AcDbEntity
  8
RACCORDO
100
AcDbLine
 62
250
  6
CONTINUOUS
 10
-100.2640242001
 20
-32.0122303779
 11
-100.2632712054
 21
-32.2065967843
  0
LINE
  5
257
100
AcDbEntity
  8
RACCORDO
100
AcDbLine
 62
250
  6
CONTINUOUS
 10
-100.2762294579
 20
-25.1708568606
 11
-100.2630853957
 21
-29.6730679588
  0
LINE
  5
258
100
AcDbEntity
  8
RACCORDO
100
AcDbLine
 62
250
  6
CONTINUOUS
 10
-100.2905163958
 20
-8.3946305389
 11
-100.2762294579
 21
-25.1708568606
  0
LINE
  5
259
100
AcDbEntity
  8
RACCORDO
100
AcDbLine
 62
250
  6
CONTINUOUS
 10
-101.8015787468
 20
35.4999993365
 11
-101.7995745347
 21
32.5719472659
  0
LINE
  5
25A
100
AcDbEntity
  8
RACCORDO
100
AcDbLine
 62
250
  6
CONTINUOUS
 10
-101.7995745347
 20
32.5719472659
 11
-101.799503858
 21
32.2841617394
  0
LINE
  5
25B
100
AcDbEntity
  8
RACCORDO
100
AcDbLine
 62
250
  6
CONTINUOUS
 10
-100.2630853957
 20
-29.6730679588
 11
-100.2622229108
 21
-30.4987429319
  0
LINE
  5
25C
100
AcDbEntity
  8
0
100
AcDbLine
 62
7
  6
CONTINUOUS
 10
-96.6
 20
-38.3321553217
 11
-96.6
 21
-35.9538073666
  0
LINE
  5
25D
100
AcDbEntity
  8
0
100
AcDbLine
 62
7
  6
CONTINUOUS
 10
-96.6
 20
-35.0461926334
 11
-96.6
 21
-32.6678446783
  0
LINE
  5
25E
100
AcDbEntity
  8
0
100
AcDbLine
 62
7
  6
CONTINUOUS
 10
-96.6
 20
32.6678446783
 11
-96.6
 21
35.0461926334
  0
LINE
  5
25F
100
AcDbEntity
  8
0
100
AcDbLine
 62
7
  6
CONTINUOUS
 10
-96.6
 20
35.9538073666
 11
-96.6
 21
38.3321553217
  0
LINE
  5
260
100
AcDbEntity
  8
RACCORDO
100
AcDbLine
 62
250
  6
CONTINUOUS
 10
-96.0000028231
 20
41.3014375389
 11
-96.0000001209
 21
41.5000003491
  0
LINE
  5
261
100
AcDbEntity
  8
RACCORDO
100
AcDbLine
 62
250
  6
CONTINUOUS
 10
-96.0000002059
 20
-41.3014364564
 11
-96.0000000088
 21
-41.5000003491
  0
LINE
  5
262
100
AcDbEntity
  8
0
100
AcDbLine
 62
7
  6
CONTINUOUS
 10
-95.4
 20
38.3321553217
 11
-95.4
 21
35.9538073666
  0
LINE
  5
263
100
AcDbEntity
  8
0
100
AcDbLine
 62
7
  6
CONTINUOUS
 10
-95.4
 20
35.0461926334
 11
-95.4
 21
32.6678446783
  0
LINE
  5
264
100
AcDbEntity
  8
0
100
AcDbLine
 62
7
  6
CONTINUOUS
 10
-95.4
 20
-32.6678446783
 11
-95.4
 21
-35.0461926334
  0
LINE
  5
265
100
AcDbEntity
  8
0
100
AcDbLine
 62
7
  6
CONTINUOUS
 10
-95.4
 20
-35.9538073666
 11
-95.4
 21
-38.3321553217
  0
LINE
  5
266
100
AcDbEntity
  8
RACCORDO
100
AcDbLine
 62
250
  6
CONTINUOUS
 10
-100.293664713
 20
3.259729346
 11
-100.2905163958
 21
-8.3946305389
  0
LINE
  5
267
100
AcDbEntity
  8
RACCORDO
100
AcDbLine
 62
250
  6
CONTINUOUS
 10
-101.7995205095
 20
-32.3689075342
 11
-101.8015749741
 21
-35.4999995694
  0
LINE
  5
268
100
AcDbEntity
  8
RACCORDO
100
AcDbLine
 62
250
  6
CONTINUOUS
 10
-100.2622229108
 20
-30.4987429319
 11
-100.2631905495
 21
-31.4631020589
  0
LINE
  5
269
100
AcDbEntity
  8
RACCORDO
100
AcDbLine
 62
250
  6
CONTINUOUS
 10
-100.2631905495
 20
-31.4631020589
 11
-100.2640242001
 21
-32.0122303779
  0
LINE
  5
26A
100
AcDbEntity
  8
RACCORDO
100
AcDbLine
 62
250
  6
CONTINUOUS
 10
-100.2634624524
 20
32.1027733517
 11
-100.2629896271
 21
30.041249171
  0
LINE
  5
26B
100
AcDbEntity
  8
RACCORDO
100
AcDbLine
 62
250
  6
CONTINUOUS
 10
-100.2629896271
 20
30.041249171
 11
-100.293664713
 21
3.259729346
  0
LINE
  5
26C
100
AcDbEntity
  8
RACCORDO
100
AcDbLine
 62
250
  6
CONTINUOUS
 10
-100.2157263057
 20
35.217515145
 11
-100.2177697162
 21
34.8557481217
  0
LINE
  5
26D
100
AcDbEntity
  8
RACCORDO
100
AcDbLine
 62
250
  6
CONTINUOUS
 10
-100.2177697162
 20
34.8557481217
 11
-100.2259318252
 21
34.0657676613
  0
LINE
  5
26E
100
AcDbEntity
  8
RACCORDO
100
AcDbLine
 62
250
  6
CONTINUOUS
 10
-100.2259318252
 20
34.0657676613
 11
-100.2335413915
 21
33.5139158011
  0
LWPOLYLINE
  5
26F
100
AcDbEntity
  8
RACCORDO
100
AcDbPolyline
 62
250
  6
CONTINUOUS
 90
3
 70
0
 10
-100.2601764306
 20
32.4059479521
 10
-100.2617993797
 20
32.3062472317
 10
-100.2634624524
 20
32.1027733517
  0
LINE
  5
270
100
AcDbEntity
  8
RACCORDO
100
AcDbLine
 62
250
  6
CONTINUOUS
 10
-100.2335413915
 20
33.5139158011
 11
-100.2381824587
 21
33.262929671
  0
LWPOLYLINE
  5
271
100
AcDbEntity
  8
RACCORDO
100
AcDbPolyline
 62
250
  6
CONTINUOUS
 90
13
 70
0
 10
-96.1240293163
 20
39.772229723
 10
-96.1197480262
 20
39.9821330902
 10
-96.1140282544
 20
40.1838623484
 10
-96.106938687
 20
40.3749941465
 10
-96.0985644685
 20
40.5532324394
 10
-96.0890061796
 20
40.7164360703
 10
-96.0783786283
 20
40.8626444921
 10
-96.0668094706
 20
40.9901013194
 10
-96.0544376772
 20
41.0972754274
 10
-96.0414118639
 20
41.1828793455
 10
-96.0278885051
 20
41.2458847234
 10
-96.0140300535
 20
41.2855346843
 10
-96.0000029891
 20
41.3013529176
  0
LINE
  5
272
100
AcDbEntity
  8
RACCORDO
100
AcDbLine
 62
250
  6
CONTINUOUS
 10
-100.2381824587
 20
33.262929671
 11
-100.2466716042
 21
32.9182751429
  0
LWPOLYLINE
  5
273
100
AcDbEntity
  8
RACCORDO
100
AcDbPolyline
 62
250
  6
CONTINUOUS
 90
3
 70
0
 10
-100.2079026369
 20
35.6024103055
 10
-100.2131237713
 20
35.4080741954
 10
-100.2157263057
 20
35.217515145
  0
LWPOLYLINE
  5
274
100
AcDbEntity
  8
RACCORDO
100
AcDbPolyline
 62
250
  6
CONTINUOUS
 90
3
 70
0
 10
-100.2466716042
 20
32.9182751429
 10
-100.2527971063
 20
32.7073388387
 10
-100.2601764306
 20
32.4059479521
  0
LWPOLYLINE
  5
275
100
AcDbEntity
  8
DRAFT
100
AcDbPolyline
 62
7
  6
CONTINUOUS
 90
37
 70
0
 10
-99.4115817633
 20
35.5
 10
-99.3967663587
 20
35.8145810838
 10
-99.35301563
 20
36.1266663605
 10
-99.2806416609
 20
36.4335979414
 10
-99.1802253715
 20
36.7327116821
 10
-99.0525459472
 20
37.0214861233
 10
-98.8985388842
 20
37.2975399005
 10
-98.719299085
 20
37.5586241174
 10
-98.5163854892
 20
37.8022474976
 10
-98.2918376411
 20
38.0259053336
 10
-98.0471712719
 20
38.2280221625
 10
-97.7848981276
 20
38.406477384
 10
-97.5092394963
 20
38.5588213586
 10
-97.2215121572
 20
38.6848220791
 10
-96.9256102459
 20
38.7832428936
 10
-96.6305111274
 20
38.8526837469
 10
-96.341945981
 20
38.8945622565
 10
-96.0595452867
 20
38.9115570674
 10
-95.7831146633
 20
38.9055678786
 10
-95.5152449537
 20
38.8783117497
 10
-95.2566085704
 20
38.8314817069
 10
-95.0039166123
 20
38.7654319167
 10
-94.758863463
 20
38.681041935
 10
-94.5223846439
 20
38.5790784392
 10
-94.2906348497
 20
38.4575706458
 10
-94.0637650055
 20
38.3152703255
 10
-93.8454608822
 20
38.1530686213
 10
-93.6377938291
 20
37.9712733727
 10
-93.4435124659
 20
37.7711963791
 10
-93.2637114648
 20
37.5527488301
 10
-93.0986389701
 20
37.31395318
 10
-92.9506657582
 20
37.0547965797
 10
-92.8230407979
 20
36.7768908083
 10
-92.7183120389
 20
36.4805925098
 10
-92.6394939151
 20
36.1672832225
 10
-92.589713046
 20
35.8395150794
 10
-92.5718494717
 20
35.5
  0
LWPOLYLINE
  5
276
100
AcDbEntity
  8
DRAFT
100
AcDbPolyline
 62
7
  6
CONTINUOUS
 90
40
 70
0
 10
-99.4115860543
 20
-35.5
 10
-99.395786412
 20
-35.1680663105
 10
-99.3481878415
 20
-34.8409030032
 10
-99.2697253141
 20
-34.5214847704
 10
-99.1608409529
 20
-34.210740633
 10
-99.0233850692
 20
-33.9133816243
 10
-98.8623723996
 20
-33.6370732286
 10
-98.6827144648
 20
-33.3851692895
 10
-98.4863973722
 20
-33.1561921533
 10
-98.2752398078
 20
-32.9494793449
 10
-98.0536795497
 20
-32.7667606308
 10
-97.8227655938
 20
-32.6065294813
 10
-97.5775914613
 20
-32.4648084086
 10
-97.3171392468
 20
-32.3419923391
 10
-97.0452546683
 20
-32.2408460823
 10
-96.7633683653
 20
-32.1625527964
 10
-96.4711888114
 20
-32.1079793554
 10
-96.1729081048
 20
-32.0788403285
 10
-95.8770482491
 20
-32.0758066713
 10
-95.5850922494
 20
-32.0980026351
 10
-95.2998688264
 20
-32.1443113602
 10
-95.0314918661
 20
-32.2110266972
 10
-94.7850082717
 20
-32.2932869243
 10
-94.5567767459
 20
-32.3887931619
 10
-94.3432360216
 20
-32.4965898152
 10
-94.145428469
 20
-32.6141187672
 10
-93.9625895048
 20
-32.7398077545
 10
-93.7892449609
 20
-32.8762923429
 10
-93.6253931845
 20
-33.0233559742
 10
-93.4721980217
 20
-33.1797405574
 10
-93.3272403245
 20
-33.3482199872
 10
-93.1916571393
 20
-33.528452272
 10
-93.0665315259
 20
-33.7200863683
 10
-92.9508144484
 20
-33.9268656493
 10
-92.8463785372
 20
-34.1489552594
 10
-92.7555325254
 20
-34.385611438
 10
-92.6795578703
 20
-34.6396723484
 10
-92.6213095253
 20
-34.9115576734
 10
-92.5843366607
 20
-35.1989019145
 10
-92.5718361721
 20
-35.5
  0
LINE
  5
277
100
AcDbEntity
  8
0
100
AcDbLine
 62
7
  6
CONTINUOUS
 10
-94.8402717707
 20
35.7630445128
 11
-94.8550027231
 21
35.7281482281
  0
LINE
  5
278
100
AcDbEntity
  8
0
100
AcDbLine
 62
7
  6
CONTINUOUS
 10
-94.8253352978
 20
35.7978189078
 11
-94.8402717707
 21
35.7630445128
  0
LINE
  5
279
100
AcDbEntity
  8
0
100
AcDbLine
 62
7
  6
CONTINUOUS
 10
-94.8101933044
 20
35.8324714129
 11
-94.8253352978
 21
35.7978189078
  0
LINE
  5
27A
100
AcDbEntity
  8
0
100
AcDbLine
 62
7
  6
CONTINUOUS
 10
-94.828395019
 20
35.8450726247
 11
-94.8778937063
 21
35.7388223825
  0
LINE
  5
27B
100
AcDbEntity
  8
0
100
AcDbLine
 62
7
  6
CONTINUOUS
 10
-95.480282565
 20
34.9802732178
 11
-95.5000533558
 21
34.9378661378
  0
LINE
  5
27C
100
AcDbEntity
  8
0
100
AcDbLine
 62
7
  6
CONTINUOUS
 10
-95.5000533558
 20
34.9378661378
 11
-95.4795953518
 21
34.9795953519
  0
LINE
  5
27D
100
AcDbEntity
  8
0
100
AcDbLine
 62
7
  6
CONTINUOUS
 10
-95.3727025934
 20
34.8727027659
 11
-95.4
 21
34.8181128479
  0
LINE
  5
27E
100
AcDbEntity
  8
0
100
AcDbLine
 62
7
  6
CONTINUOUS
 10
-95.4
 20
-34.8181119898
 11
-95.3727024907
 21
-34.8727024837
  0
LINE
  5
27F
100
AcDbEntity
  8
0
100
AcDbLine
 62
7
  6
CONTINUOUS
 10
-95.4795953518
 20
-34.9795953518
 11
-95.5000529891
 21
-34.937866464
  0
LINE
  5
280
100
AcDbEntity
  8
0
100
AcDbLine
 62
7
  6
CONTINUOUS
 10
-95.5000529891
 20
-34.937866464
 11
-95.4802765161
 21
-34.9802765161
  0
LINE
  5
281
100
AcDbEntity
  8
0
100
AcDbLine
 62
7
  6
CONTINUOUS
 10
-94.877893713
 20
-35.7388223726
 11
-94.8283951111
 21
-35.8450726739
  0
LINE
  5
282
100
AcDbEntity
  8
0
100
AcDbLine
 62
7
  6
CONTINUOUS
 10
-94.8550027299
 20
-35.7281482181
 11
-94.809952252
 21
-35.8323044589
  0
LWPOLYLINE
  5
283
100
AcDbEntity
  8
DRAFT
100
AcDbPolyline
 62
7
  6
CONTINUOUS
 90
40
 70
0
 10
-92.5718494717
 20
35.5
 10
-92.584494098
 20
35.1970983806
 10
-92.621961966
 20
34.9077495706
 10
-92.6810896876
 20
34.6337063562
 10
-92.7587921303
 20
34.376106519
 10
-92.8519752037
 20
34.1359266312
 10
-92.9574815368
 20
33.9139866331
 10
-93.0713838895
 20
33.7121072512
 10
-93.1918706918
 20
33.5281562782
 10
-93.320084301
 20
33.3571467845
 10
-93.4542911794
 20
33.1993928739
 10
-93.5934104026
 20
33.0543882818
 10
-93.7415100347
 20
32.9172014595
 10
-93.8985555872
 20
32.7881369475
 10
-94.0637579456
 20
32.6681185246
 10
-94.2414916759
 20
32.5548048825
 10
-94.4320344946
 20
32.4494929586
 10
-94.6349312898
 20
32.3539066182
 10
-94.8542241348
 20
32.2680906347
 10
-95.0919316118
 20
32.1939957825
 10
-95.3453852427
 20
32.1352621401
 10
-95.6113961219
 20
32.0949744213
 10
-95.8885444223
 20
32.0754586566
 10
-96.175211268
 20
32.0789763844
 10
-96.4672879398
 20
32.1074282924
 10
-96.7626490015
 20
32.162394461
 10
-97.058466745
 20
32.2451820439
 10
-97.3493804004
 20
32.3557678687
 10
-97.6317565946
 20
32.4938223001
 10
-97.9036120881
 20
32.6594736732
 10
-98.1621177734
 20
32.8522939621
 10
-98.4045455179
 20
33.071789715
 10
-98.6275568146
 20
33.3166287767
 10
-98.8276212182
 20
33.584451474
 10
-99.0026084409
 20
33.8741978874
 10
-99.1493214894
 20
34.1827042068
 10
-99.2642391647
 20
34.5032455253
 10
-99.3462611653
 20
34.8311654363
 10
-99.3954310061
 20
35.1645059183
 10
-99.4115817633
 20
35.5
  0
LWPOLYLINE
  5
284
100
AcDbEntity
  8
DRAFT
100
AcDbPolyline
 62
7
  6
CONTINUOUS
 90
37
 70
0
 10
-92.5718361721
 20
-35.5
 10
-92.589679903
 20
-35.8393014422
 10
-92.6394054898
 20
-36.1668912016
 10
-92.7181437701
 20
-36.4800608068
 10
-92.8227886863
 20
-36.7762836031
 10
-92.9503300181
 20
-37.0541513751
 10
-93.0981862533
 20
-37.3132389067
 10
-93.26306544
 20
-37.5518968901
 10
-93.4426169813
 20
-37.7701981317
 10
-93.6366545421
 20
-37.9701942488
 10
-93.8441244854
 20
-38.1519927191
 10
-94.0622625664
 20
-38.3142457264
 10
-94.2889860729
 20
-38.4566257406
 10
-94.5206186046
 20
-38.5782381806
 10
-94.7570073258
 20
-38.6803241427
 10
-95.0019620496
 20
-38.7648414199
 10
-95.2545160202
 20
-38.8310198427
 10
-95.5130058834
 20
-38.8779949907
 10
-95.7807795948
 20
-38.9054236845
 10
-96.0571671251
 20
-38.9116040079
 10
-96.3395811791
 20
-38.8948073611
 10
-96.6282770852
 20
-38.8531120467
 10
-96.9236915615
 20
-38.7837932885
 10
-97.2200070411
 20
-38.6854099867
 10
-97.5080814744
 20
-38.5594028406
 10
-97.7839620262
 20
-38.4070580292
 10
-98.0463969615
 20
-38.2286021599
 10
-98.2911989357
 20
-38.0264785296
 10
-98.5158574097
 20
-37.8028176588
 10
-98.7188616637
 20
-37.5591971613
 10
-98.898198606
 20
-37.2980867831
 10
-99.0523148591
 20
-37.0219508164
 10
-99.1800922736
 20
-36.73306042
 10
-99.2805776405
 20
-36.433834179
 10
-99.3529925464
 20
-36.1268105557
 10
-99.3967646036
 20
-35.8146455989
 10
-99.4115860543
 20
-35.5
  0
LINE
  5
285
100
AcDbEntity
  8
0
100
AcDbLine
 62
7
  6
CONTINUOUS
 10
-96.5204046482
 20
34.9795953518
 11
-96.5197234842
 21
34.9802765158
  0
LINE
  5
286
100
AcDbEntity
  8
0
100
AcDbLine
 62
7
  6
CONTINUOUS
 10
-96.6272975093
 20
34.8727024837
 11
-96.6
 21
34.8999999936
  0
LINE
  5
287
100
AcDbEntity
  8
0
100
AcDbLine
 62
7
  6
CONTINUOUS
 10
-95.4802765158
 20
36.0197234842
 11
-95.4795953518
 21
36.0204046482
  0
LINE
  5
288
100
AcDbEntity
  8
0
100
AcDbLine
 62
7
  6
CONTINUOUS
 10
-95.4
 20
36.1000000064
 11
-95.3727024907
 21
36.1272975163
  0
LINE
  5
289
100
AcDbEntity
  8
0
100
AcDbLine
 62
7
  6
CONTINUOUS
 10
-95.4802765158
 20
-36.0197234842
 11
-95.4795953518
 21
-36.0204046481
  0
LINE
  5
28A
100
AcDbEntity
  8
0
100
AcDbLine
 62
7
  6
CONTINUOUS
 10
-96.5197234842
 20
-34.9802765158
 11
-96.5204046482
 21
-34.9795953519
  0
LINE
  5
28B
100
AcDbEntity
  8
0
100
AcDbLine
 62
7
  6
CONTINUOUS
 10
-95.4
 20
-36.0999998582
 11
-95.3727025934
 21
-36.1272972341
  0
LINE
  5
28C
100
AcDbEntity
  8
0
100
AcDbLine
 62
7
  6
CONTINUOUS
 10
-96.6
 20
-34.9000001418
 11
-96.6272974066
 21
-34.8727027659
  0
LWPOLYLINE
  5
28D
100
AcDbEntity
  8
RACCORDO
100
AcDbPolyline
 62
250
  6
CONTINUOUS
 90
22
 70
0
 10
-82.3873166686
 20
-22.1993602702
 10
-82.3750874673
 20
-22.4323868591
 10
-82.3530065794
 20
-22.6745593608
 10
-82.3170731441
 20
-22.9243126172
 10
-82.2590325767
 20
-23.1807507122
 10
-82.1757676753
 20
-23.4407473623
 10
-82.0716222221
 20
-23.6998647432
 10
-81.9473464548
 20
-23.9593234736
 10
-81.7954070392
 20
-24.2151420593
 10
-81.616334618
 20
-24.4575027397
 10
-81.4173540022
 20
-24.6870408143
 10
-81.2019184146
 20
-24.9045894724
 10
-80.9695877914
 20
-25.1018462571
 10
-80.722661732
 20
-25.2765444818
 10
-80.4668576828
 20
-25.4299660966
 10
-80.2061232968
 20
-25.5589425539
 10
-79.9438365532
 20
-25.6636159195
 10
-79.683266538
 20
-25.7457256372
 10
-79.4274402501
 20
-25.8064289987
 10
-79.1776570074
 20
-25.8481735666
 10
-78.9332967929
 20
-25.873049361
 10
-78.6939568631
 20
-25.8817506947
  0
LWPOLYLINE
  5
28E
100
AcDbEntity
  8
RACCORDO
100
AcDbPolyline
 62
250
  6
CONTINUOUS
 90
22
 70
0
 10
-80.6022179567
 20
-22.2
 10
-80.5984103207
 20
-22.3201243635
 10
-80.5863873309
 20
-22.4447610454
 10
-80.5652131612
 20
-22.5732741463
 10
-80.5338798171
 20
-22.7051910795
 10
-80.4915475093
 20
-22.8392849815
 10
-80.4377824336
 20
-22.973642126
 10
-80.3717872023
 20
-23.1076030801
 10
-80.293267183
 20
-23.2394272241
 10
-80.2034010136
 20
-23.3657786741
 10
-80.1023421893
 20
-23.4857345241
 10
-79.9905672283
 20
-23.5980655342
 10
-79.8709535812
 20
-23.6998109346
 10
-79.7446356534
 20
-23.7904825887
 10
-79.6125907568
 20
-23.8698353269
 10
-79.4783564928
 20
-23.9365186272
 10
-79.3439103404
 20
-23.9907421891
 10
-79.2097439836
 20
-24.0334317561
 10
-79.0773675117
 20
-24.06513121
 10
-78.9478641722
 20
-24.0866282486
 10
-78.8218566155
 20
-24.0988187867
 10
-78.7
 20
-24.1025766005
  0
LWPOLYLINE
  5
28F
100
AcDbEntity
  8
RACCORDO
100
AcDbPolyline
 62
250
  6
CONTINUOUS
 90
10
 70
0
 10
-82.3925214536
 20
-17.4117713957
 10
-82.3878797715
 20
-18.5027819275
 10
-82.3886436577
 20
-19.021504314
 10
-82.3876736127
 20
-19.5238428473
 10
-82.383762863
 20
-20.009200845
 10
-82.3820083218
 20
-20.4781295997
 10
-82.3863693131
 20
-20.9333590926
 10
-82.3958704052
 20
-21.3747025976
 10
-82.3992818587
 20
-21.797785549
 10
-82.3873166686
 20
-22.1993602702
  0
LINE
  5
290
100
AcDbEntity
  8
RACCORDO
100
AcDbLine
 62
250
  6
CONTINUOUS
 10
-82.3945508336
 20
16.0525761827
 11
-82.3914796369
 21
14.7129375489
  0
LINE
  5
291
100
AcDbEntity
  8
RACCORDO
100
AcDbLine
 62
250
  6
CONTINUOUS
 10
-82.3919321729
 20
10.265311426
 11
-82.3887299991
 21
5.3285153986
  0
LINE
  5
292
100
AcDbEntity
  8
RACCORDO
100
AcDbLine
 62
250
  6
CONTINUOUS
 10
-80.6021819848
 20
22.2
 11
-80.6022179567
 21
-22.2
  0
LINE
  5
293
100
AcDbEntity
  8
RACCORDO
100
AcDbLine
 62
250
  6
CONTINUOUS
 10
-82.3914796369
 20
14.7129375489
 11
-82.3919321729
 21
10.265311426
  0
LWPOLYLINE
  5
294
100
AcDbEntity
  8
RACCORDO
100
AcDbPolyline
 62
250
  6
CONTINUOUS
 90
3
 70
0
 10
-82.3887299991
 20
5.3285153986
 10
-82.3906107261
 20
-10.5889860958
 10
-82.3897767894
 20
-13.6224898475
  0
LWPOLYLINE
  5
295
100
AcDbEntity
  8
RACCORDO
100
AcDbPolyline
 62
250
  6
CONTINUOUS
 90
3
 70
0
 10
-82.3897767894
 20
-13.6224898475
 10
-82.3907554692
 20
-14.3185936066
 10
-82.3907920321
 20
-16.2424135748
  0
LWPOLYLINE
  5
296
100
AcDbEntity
  8
RACCORDO
100
AcDbPolyline
 62
250
  6
CONTINUOUS
 90
3
 70
0
 10
-82.3907920321
 20
-16.2424135748
 10
-82.392449307
 20
-16.8386061485
 10
-82.3925214536
 20
-17.4117713957
  0
LWPOLYLINE
  5
297
100
AcDbEntity
  8
RACCORDO
100
AcDbPolyline
 62
250
  6
CONTINUOUS
 90
12
 70
0
 10
-82.3879616569
 20
22.1990749496
 10
-82.4022183546
 20
21.731727556
 10
-82.3972852336
 20
21.2386814072
 10
-82.3876498647
 20
20.7255828478
 10
-82.3835729931
 20
20.1966259625
 10
-82.3848389683
 20
19.6524106956
 10
-82.3897980119
 20
19.093069363
 10
-82.3926961991
 20
18.5185479003
 10
-82.3918547784
 20
17.9278844026
 10
-82.3922079699
 20
17.320141004
 10
-82.3945172615
 20
16.6952668275
 10
-82.3945508336
 20
16.0525761827
  0
LINE
  5
298
100
AcDbEntity
  8
0
100
AcDbLine
 62
7
  6
CONTINUOUS
 10
-97.1900477491
 20
35.8323044581
 11
-97.1716048889
 21
35.8450726739
  0
LINE
  5
299
100
AcDbEntity
  8
0
100
AcDbLine
 62
7
  6
CONTINUOUS
 10
-94.8283951111
 20
35.1549273261
 11
-94.809952252
 21
35.1676955411
  0
LINE
  5
29A
100
AcDbEntity
  8
0
100
AcDbLine
 62
7
  6
CONTINUOUS
 10
-97.1898066956
 20
-35.8324714129
 11
-97.171604981
 21
-35.8450726247
  0
LINE
  5
29B
100
AcDbEntity
  8
0
100
AcDbLine
 62
7
  6
CONTINUOUS
 10
-94.828395019
 20
-35.1549273753
 11
-94.8101933044
 21
-35.1675285871
  0
LINE
  5
29C
100
AcDbEntity
  8
RACCORDO
100
AcDbLine
 62
250
  6
CONTINUOUS
 10
-78.6951695219
 20
-25.4586689181
 11
-78.7
 21
-24.1025766018
  0
LINE
  5
29D
100
AcDbEntity
  8
RACCORDO
100
AcDbLine
 62
250
  6
CONTINUOUS
 10
-78.6939568625
 20
-25.8817506919
 11
-78.6951695219
 21
-25.4586689181
  0
LINE
  5
29E
100
AcDbEntity
  8
0
100
AcDbLine
 62
7
  6
CONTINUOUS
 10
-79.0
 20
22.2
 11
-79.0
 21
-22.2
  0
LINE
  5
29F
100
AcDbEntity
  8
RACCORDO
100
AcDbLine
 62
250
  6
CONTINUOUS
 10
-78.7
 20
-22.5
 11
-78.7
 21
-24.1025766005
  0
LWPOLYLINE
  5
2A0
100
AcDbEntity
  8
RACCORDO
100
AcDbPolyline
 62
250
  6
CONTINUOUS
 90
3
 70
0
 10
-78.6944817969
 20
25.8811687839
 10
-78.6993439181
 20
24.2764126567
 10
-78.7
 20
22.5
  0
LINE
  5
2A1
100
AcDbEntity
  8
0
100
AcDbLine
 62
7
  6
CONTINUOUS
 10
-97.1597282293
 20
-35.7630445128
 11
-97.1449972769
 21
-35.7281482281
  0
LINE
  5
2A2
100
AcDbEntity
  8
0
100
AcDbLine
 62
7
  6
CONTINUOUS
 10
-94.8402717707
 20
-35.2369554872
 11
-94.8550027231
 21
-35.2718517719
  0
LINE
  5
2A3
100
AcDbEntity
  8
0
100
AcDbLine
 62
7
  6
CONTINUOUS
 10
-97.1746647022
 20
-35.7978189078
 11
-97.1597282293
 21
-35.7630445128
  0
LINE
  5
2A4
100
AcDbEntity
  8
0
100
AcDbLine
 62
7
  6
CONTINUOUS
 10
-94.8253352978
 20
-35.2021810922
 11
-94.8402717707
 21
-35.2369554872
  0
LINE
  5
2A5
100
AcDbEntity
  8
0
100
AcDbLine
 62
7
  6
CONTINUOUS
 10
-97.1898066956
 20
-35.8324714129
 11
-97.1746647022
 21
-35.7978189078
  0
LINE
  5
2A6
100
AcDbEntity
  8
0
100
AcDbLine
 62
7
  6
CONTINUOUS
 10
-94.8101933044
 20
-35.1675285871
 11
-94.8253352978
 21
-35.2021810922
  0
LINE
  5
2A7
100
AcDbEntity
  8
0
100
AcDbLine
 62
7
  6
CONTINUOUS
 10
-97.171604981
 20
-35.8450726247
 11
-97.1221062937
 21
-35.7388223825
  0
LINE
  5
2A8
100
AcDbEntity
  8
0
100
AcDbLine
 62
7
  6
CONTINUOUS
 10
-96.519717435
 20
-34.9802732178
 11
-96.4999466442
 21
-34.9378661378
  0
LINE
  5
2A9
100
AcDbEntity
  8
0
100
AcDbLine
 62
7
  6
CONTINUOUS
 10
-97.1716048889
 20
35.8450726739
 11
-97.0240804449
 21
35.923409377
  0
LINE
  5
2AA
100
AcDbEntity
  8
0
100
AcDbLine
 62
7
  6
CONTINUOUS
 10
-94.8283951111
 20
35.1549273261
 11
-94.9759195551
 21
35.076590623
  0
LINE
  5
2AB
100
AcDbEntity
  8
0
100
AcDbLine
 62
7
  6
CONTINUOUS
 10
-97.0240804449
 20
35.923409377
 11
-96.9261983137
 21
35.974736128
  0
LINE
  5
2AC
100
AcDbEntity
  8
0
100
AcDbLine
 62
7
  6
CONTINUOUS
 10
-94.9759195551
 20
35.076590623
 11
-95.0738016863
 21
35.025263872
  0
LINE
  5
2AD
100
AcDbEntity
  8
0
100
AcDbLine
 62
7
  6
CONTINUOUS
 10
-96.9261983137
 20
35.974736128
 11
-96.852211212
 21
36.01313863
  0
LINE
  5
2AE
100
AcDbEntity
  8
0
100
AcDbLine
 62
7
  6
CONTINUOUS
 10
-95.0738016863
 20
35.025263872
 11
-95.147788788
 21
34.98686137
  0
LWPOLYLINE
  5
2AF
100
AcDbEntity
  8
0
100
AcDbPolyline
 62
7
  6
CONTINUOUS
 90
4
 70
0
 10
-96.852211212
 20
36.01313863
 10
-96.7747633728
 20
36.0529281995
 10
-96.747603948
 20
36.0666770756
 10
-96.6899108284
 20
36.0961974303
  0
LWPOLYLINE
  5
2B0
100
AcDbEntity
  8
0
100
AcDbPolyline
 62
7
  6
CONTINUOUS
 90
4
 70
0
 10
-95.147788788
 20
34.98686137
 10
-95.2252366272
 20
34.9470718005
 10
-95.252396052
 20
34.9333229245
 10
-95.3100891716
 20
34.9038025697
  0
LWPOLYLINE
  5
2B1
100
AcDbEntity
  8
0
100
AcDbPolyline
 62
7
  6
CONTINUOUS
 90
3
 70
0
 10
-96.6899108284
 20
36.0961974303
 10
-96.6592374971
 20
36.1116535241
 10
-96.6272974066
 20
36.1272972341
  0
LWPOLYLINE
  5
2B2
100
AcDbEntity
  8
0
100
AcDbPolyline
 62
7
  6
CONTINUOUS
 90
3
 70
0
 10
-95.3100891716
 20
34.9038025697
 10
-95.3407625029
 20
34.8883464759
 10
-95.3727025934
 20
34.8727027659
  0
LINE
  5
2B3
100
AcDbEntity
  8
0
100
AcDbLine
 62
7
  6
CONTINUOUS
 10
-96.5204046482
 20
36.0204046481
 11
-96.5621339943
 21
35.9999464956
  0
LINE
  5
2B4
100
AcDbEntity
  8
0
100
AcDbLine
 62
7
  6
CONTINUOUS
 10
-95.4795953518
 20
34.9795953519
 11
-95.4378660057
 21
35.0000535044
  0
LINE
  5
2B5
100
AcDbEntity
  8
TRASH
100
AcDbLine
 62
7
  6
CONTINUOUS
 10
-97.1449972701
 20
35.7281482181
 11
-97.122106287
 21
35.7388223726
  0
LINE
  5
2B6
100
AcDbEntity
  8
0
100
AcDbLine
 62
7
  6
CONTINUOUS
 10
-96.5621339943
 20
35.9999464956
 11
-96.5197267822
 21
36.019717435
  0
LINE
  5
2B7
100
AcDbEntity
  8
0
100
AcDbLine
 62
7
  6
CONTINUOUS
 10
-97.1221028135
 20
35.7388260178
 11
-96.6
 21
35.982289287
  0
LINE
  5
2B8
100
AcDbEntity
  8
0
100
AcDbLine
 62
7
  6
CONTINUOUS
 10
-96.5197234839
 20
-36.0197234839
 11
-96.5621335303
 21
-35.9999470172
  0
LINE
  5
2B9
100
AcDbEntity
  8
TRASH
100
AcDbLine
 62
7
  6
CONTINUOUS
 10
-97.1221062937
 20
-35.7388223825
 11
-97.1449972769
 21
-35.7281482281
  0
LINE
  5
2BA
100
AcDbEntity
  8
0
100
AcDbLine
 62
7
  6
CONTINUOUS
 10
-96.6
 20
-35.9822898071
 11
-97.1221066534
 21
-35.738824741
  0
LWPOLYLINE
  5
2BB
100
AcDbEntity
  8
0
100
AcDbPolyline
 62
7
  6
CONTINUOUS
 90
4
 70
0
 10
-96.6272975093
 20
-36.1272975163
 10
-96.6591558065
 20
-36.111691826
 10
-96.6897554608
 20
-36.0962732603
 10
-96.7191594664
 20
-36.0812021728
  0
LWPOLYLINE
  5
2BC
100
AcDbEntity
  8
0
100
AcDbPolyline
 62
7
  6
CONTINUOUS
 90
4
 70
0
 10
-95.3727024907
 20
-34.8727024837
 10
-95.3408441935
 20
-34.888308174
 10
-95.3102445392
 20
-34.9037267397
 10
-95.2808405336
 20
-34.9187978272
  0
LINE
  5
2BD
100
AcDbEntity
  8
0
100
AcDbLine
 62
7
  6
CONTINUOUS
 10
-96.5621335303
 20
-35.9999470172
 11
-96.5204046482
 21
-36.0204046482
  0
LINE
  5
2BE
100
AcDbEntity
  8
0
100
AcDbLine
 62
7
  6
CONTINUOUS
 10
-95.4378664697
 20
-35.0000529828
 11
-95.4795953518
 21
-34.9795953518
  0
LINE
  5
2BF
100
AcDbEntity
  8
0
100
AcDbLine
 62
7
  6
CONTINUOUS
 10
-96.7191594664
 20
-36.0812021728
 11
-96.8008536937
 21
-36.0395816954
  0
LINE
  5
2C0
100
AcDbEntity
  8
0
100
AcDbLine
 62
7
  6
CONTINUOUS
 10
-95.2808405336
 20
-34.9187978272
 11
-95.1991463063
 21
-34.9604183046
  0
LINE
  5
2C1
100
AcDbEntity
  8
0
100
AcDbLine
 62
7
  6
CONTINUOUS
 10
-96.8008536937
 20
-36.0395816954
 11
-96.8766776316
 21
-36.0004898034
  0
LINE
  5
2C2
100
AcDbEntity
  8
0
100
AcDbLine
 62
7
  6
CONTINUOUS
 10
-95.1991463063
 20
-34.9604183046
 11
-95.1233223684
 21
-34.9995101966
  0
LINE
  5
2C3
100
AcDbEntity
  8
0
100
AcDbLine
 62
7
  6
CONTINUOUS
 10
-96.8766776316
 20
-36.0004898034
 11
-96.9995138679
 21
-35.9363522233
  0
LINE
  5
2C4
100
AcDbEntity
  8
0
100
AcDbLine
 62
7
  6
CONTINUOUS
 10
-95.1233223684
 20
-34.9995101966
 11
-95.0004861321
 21
-35.0636477767
  0
LWPOLYLINE
  5
2C5
100
AcDbEntity
  8
0
100
AcDbPolyline
 62
7
  6
CONTINUOUS
 90
4
 70
0
 10
-96.9995138679
 20
-35.9363522233
 10
-97.0980377467
 20
-35.8842715128
 10
-97.1225892044
 20
-35.8711775398
 10
-97.171604981
 20
-35.8450726247
  0
LINE
  5
2C6
100
AcDbEntity
  8
0
100
AcDbLine
 62
7
  6
CONTINUOUS
 10
-95.0004861321
 20
-35.0636477767
 11
-94.9019622533
 21
-35.1157284872
  0
LINE
  5
2C7
100
AcDbEntity
  8
0
100
AcDbLine
 62
7
  6
CONTINUOUS
 10
-94.9019622533
 20
-35.1157284872
 11
-94.828395019
 21
-35.1549273753
  0
LINE
  5
2C8
100
AcDbEntity
  8
0
100
AcDbLine
 62
7
  6
CONTINUOUS
 10
-96.4999470109
 20
34.937866464
 11
-96.5197234839
 21
34.9802765161
  0
LINE
  5
2C9
100
AcDbEntity
  8
0
100
AcDbLine
 62
7
  6
CONTINUOUS
 10
-97.122106287
 20
35.7388223726
 11
-97.1716048889
 21
35.8450726739
  0
LINE
  5
2CA
100
AcDbEntity
  8
0
100
AcDbLine
 62
7
  6
CONTINUOUS
 10
-97.1449972701
 20
35.7281482181
 11
-97.1900477491
 21
35.8323044581
  0
LINE
  5
2CB
100
AcDbEntity
  8
0
100
AcDbLine
 62
7
  6
CONTINUOUS
 10
-94.8550027299
 20
35.2718517819
 11
-94.809952252
 21
35.1676955411
  0
LINE
  5
2CC
100
AcDbEntity
  8
RACCORDO
100
AcDbLine
 62
7
  6
CONTINUOUS
 10
-70.6958892987
 20
22.4
 11
-70.6976348052
 21
22.5
  0
LINE
  5
2CD
100
AcDbEntity
  8
RACCORDO
100
AcDbLine
 62
7
  6
CONTINUOUS
 10
-64.8041107013
 20
-22.4
 11
-64.8023651948
 21
-22.5
  0
LINE
  5
2CE
100
AcDbEntity
  8
RACCORDO
100
AcDbLine
 62
7
  6
CONTINUOUS
 10
-70.6976348052
 20
-22.5
 11
-70.6958892987
 21
-22.4
  0
LINE
  5
2CF
100
AcDbEntity
  8
RACCORDO
100
AcDbLine
 62
7
  6
CONTINUOUS
 10
-64.8023651948
 20
22.5
 11
-64.8041107013
 21
22.4
  0
LINE
  5
2D0
100
AcDbEntity
  8
0
100
AcDbLine
 62
7
  6
CONTINUOUS
 10
-94.828395019
 20
-35.1549273753
 11
-94.8778937063
 21
-35.2611776175
  0
LINE
  5
2D1
100
AcDbEntity
  8
0
100
AcDbLine
 62
7
  6
CONTINUOUS
 10
-95.480282565
 20
-36.0197267822
 11
-95.5000533558
 21
-36.0621338622
  0
LINE
  5
2D2
100
AcDbEntity
  8
0
100
AcDbLine
 62
7
  6
CONTINUOUS
 10
-96.4999466442
 20
-34.9378661378
 11
-96.5204046482
 21
-34.9795953519
  0
LINE
  5
2D3
100
AcDbEntity
  8
0
100
AcDbLine
 62
7
  6
CONTINUOUS
 10
-95.5000533558
 20
-36.0621338622
 11
-95.4795953518
 21
-36.0204046481
  0
LINE
  5
2D4
100
AcDbEntity
  8
0
100
AcDbLine
 62
7
  6
CONTINUOUS
 10
-96.6272974066
 20
-34.8727027659
 11
-96.6
 21
-34.8181128479
  0
LINE
  5
2D5
100
AcDbEntity
  8
0
100
AcDbLine
 62
7
  6
CONTINUOUS
 10
-95.3727025934
 20
-36.1272972341
 11
-95.4
 21
-36.1818871521
  0
LINE
  5
2D6
100
AcDbEntity
  8
TRASH
100
AcDbLine
 62
7
  6
CONTINUOUS
 10
-94.877893713
 20
35.2611776274
 11
-94.8550027299
 21
35.2718517819
  0
LINE
  5
2D7
100
AcDbEntity
  8
0
100
AcDbLine
 62
7
  6
CONTINUOUS
 10
-95.4378660057
 20
35.0000535044
 11
-95.4802732178
 21
34.980282565
  0
LINE
  5
2D8
100
AcDbEntity
  8
0
100
AcDbLine
 62
7
  6
CONTINUOUS
 10
-94.8778971865
 20
35.2611739822
 11
-95.4
 21
35.017710713
  0
LINE
  5
2D9
100
AcDbEntity
  8
0
100
AcDbLine
 62
7
  6
CONTINUOUS
 10
-95.4802765161
 20
-34.9802765161
 11
-95.4378664697
 21
-35.0000529828
  0
LINE
  5
2DA
100
AcDbEntity
  8
TRASH
100
AcDbLine
 62
7
  6
CONTINUOUS
 10
-94.8778937063
 20
-35.2611776175
 11
-94.8550027231
 21
-35.2718517719
  0
LINE
  5
2DB
100
AcDbEntity
  8
0
100
AcDbLine
 62
7
  6
CONTINUOUS
 10
-95.4
 20
-35.0177101929
 11
-94.8778933466
 21
-35.261175259
  0
LINE
  5
2DC
100
AcDbEntity
  8
0
100
AcDbLine
 62
7
  6
CONTINUOUS
 10
-96.6
 20
34.8181119899
 11
-96.6044491399
 21
34.8269852887
  0
LINE
  5
2DD
100
AcDbEntity
  8
0
100
AcDbLine
 62
7
  6
CONTINUOUS
 10
-95.4
 20
36.1818880102
 11
-95.3955508601
 21
36.1730147113
  0
LINE
  5
2DE
100
AcDbEntity
  8
0
100
AcDbLine
 62
7
  6
CONTINUOUS
 10
-96.6044491399
 20
34.8269852887
 11
-96.6272975093
 21
34.8727024837
  0
LINE
  5
2DF
100
AcDbEntity
  8
0
100
AcDbLine
 62
7
  6
CONTINUOUS
 10
-95.3955508601
 20
36.1730147113
 11
-95.3727024907
 21
36.1272975163
  0
LINE
  5
2E0
100
AcDbEntity
  8
0
100
AcDbLine
 62
7
  6
CONTINUOUS
 10
-96.5204046482
 20
34.9795953518
 11
-96.4999470109
 21
34.937866464
  0
LINE
  5
2E1
100
AcDbEntity
  8
0
100
AcDbLine
 62
7
  6
CONTINUOUS
 10
-95.4795953518
 20
36.0204046482
 11
-95.5000529891
 21
36.062133536
  0
LINE
  5
2E2
100
AcDbEntity
  8
0
100
AcDbLine
 62
7
  6
CONTINUOUS
 10
-95.5000529891
 20
36.062133536
 11
-95.4802765161
 21
36.0197234839
  0
LINE
  5
2E3
100
AcDbEntity
  8
0
100
AcDbLine
 62
7
  6
CONTINUOUS
 10
-94.877893713
 20
35.2611776274
 11
-94.8283951111
 21
35.1549273261
  0
LINE
  5
2E4
100
AcDbEntity
  8
0
100
AcDbLine
 62
7
  6
CONTINUOUS
 10
97.6719912502
 20
-35.7281394927
 11
97.4052030739
 21
-35.786308213
  0
LINE
  5
2E5
100
AcDbEntity
  8
0
100
AcDbLine
 62
7
  6
CONTINUOUS
 10
94.3280087497
 20
-35.2718605079
 11
94.5947969249
 21
-35.2136917878
  0
LINE
  5
2E6
100
AcDbEntity
  8
0
100
AcDbLine
 62
7
  6
CONTINUOUS
 10
97.4052030739
 20
-35.786308213
 11
97.190047748
 21
-35.8323044589
  0
LINE
  5
2E7
100
AcDbEntity
  8
0
100
AcDbLine
 62
7
  6
CONTINUOUS
 10
94.5947969249
 20
-35.2136917878
 11
94.8099522509
 21
-35.1676955419
  0
LINE
  5
2E8
100
AcDbEntity
  8
0
100
AcDbLine
 62
7
  6
CONTINUOUS
 10
-97.5119012961
 20
-35.7630581777
 11
-97.1898066956
 21
-35.8324714129
  0
LINE
  5
2E9
100
AcDbEntity
  8
0
100
AcDbLine
 62
7
  6
CONTINUOUS
 10
-94.8101933044
 20
-35.1675285871
 11
-94.4881002192
 21
-35.2369414919
  0
LINE
  5
2EA
100
AcDbEntity
  8
0
100
AcDbLine
 62
7
  6
CONTINUOUS
 10
-97.6720177359
 20
-35.7279452996
 11
-97.5119012961
 21
-35.7630581777
  0
LINE
  5
2EB
100
AcDbEntity
  8
0
100
AcDbLine
 62
7
  6
CONTINUOUS
 10
-94.4881002192
 20
-35.2369414919
 11
-94.3279822641
 21
-35.2720547004
  0
LINE
  5
2EC
100
AcDbEntity
  8
RACCORDO
100
AcDbLine
 62
7
  6
CONTINUOUS
 10
-48.1958892987
 20
22.4
 11
-48.1976348052
 21
22.5
  0
LINE
  5
2ED
100
AcDbEntity
  8
RACCORDO
100
AcDbLine
 62
7
  6
CONTINUOUS
 10
-48.1976348052
 20
-22.5
 11
-48.1958892987
 21
-22.4
  0
LWPOLYLINE
  5
2EE
100
AcDbEntity
  8
RACCORDO
100
AcDbPolyline
 62
250
  6
CONTINUOUS
 90
25
 70
0
 10
96.1241503432
 20
-39.7721419415
 10
96.3828033049
 20
-39.754814608
 10
96.6481986772
 20
-39.7186527935
 10
96.9192481045
 20
-39.6624640874
 10
97.1968060938
 20
-39.5826657555
 10
97.4775333018
 20
-39.4785882934
 10
97.7543729475
 20
-39.3535803961
 10
98.0254965976
 20
-39.206580474
 10
98.2896794911
 20
-39.0363716361
 10
98.5412814118
 20
-38.8489478471
 10
98.7785207108
 20
-38.646309958
 10
98.9991858667
 20
-38.4298652632
 10
99.199040353
 20
-38.2061347721
 10
99.3801612082
 20
-37.9752646426
 10
99.5421253182
 20
-37.7394009118
 10
99.6809157687
 20
-37.5079899087
 10
99.7987671163
 20
-37.2813434529
 10
99.9008063967
 20
-37.0534792354
 10
99.9878997436
 20
-36.8259471863
 10
100.0575020151
 20
-36.6059236663
 10
100.1108653869
 20
-36.3949961309
 10
100.1518207447
 20
-36.1881682107
 10
100.1815241579
 20
-35.984615168
 10
100.1998113464
 20
-35.7889289655
 10
100.207986942
 20
-35.6027333004
  0
LWPOLYLINE
  5
2EF
100
AcDbEntity
  8
RACCORDO
100
AcDbPolyline
 62
250
  6
CONTINUOUS
 90
25
 70
0
 10
96.0000002059
 20
-41.3014370206
 10
96.3822206901
 20
-41.2890825603
 10
96.7735107179
 20
-41.2501022289
 10
97.1718450564
 20
-41.1824928864
 10
97.5772922862
 20
-41.0836820854
 10
97.9847335461
 20
-40.9522588397
 10
98.3844260431
 20
-40.7897518551
 10
98.7736209543
 20
-40.5965077789
 10
99.1500665991
 20
-40.3728409643
 10
99.505992623
 20
-40.1233728723
 10
99.8399851617
 20
-39.8499565519
 10
100.1504639107
 20
-39.5547790156
 10
100.4315563233
 20
-39.2455072085
 10
100.6826232423
 20
-38.9264359436
 10
100.9051687896
 20
-38.5994527761
 10
101.0985362331
 20
-38.2698390917
 10
101.2635232399
 20
-37.941752603
 10
101.4025492464
 20
-37.6163586527
 10
101.5178533698
 20
-37.2942365153
 10
101.6109919913
 20
-36.9771589399
 10
101.6835650666
 20
-36.6667714084
 10
101.7374564584
 20
-36.362948981
 10
101.7741623229
 20
-36.0663340716
 10
101.795045572
 20
-35.7784086071
 10
101.8015710578
 20
-35.4999995694
  0
LWPOLYLINE
  5
2F0
100
AcDbEntity
  8
RACCORDO
100
AcDbPolyline
 62
250
  6
CONTINUOUS
 90
3
 70
0
 10
-96.1241503432
 20
-39.7721419415
 10
-95.7648024954
 20
-39.786213876
 10
-95.4174993201
 20
-39.7968924518
  0
LINE
  5
2F1
100
AcDbEntity
  8
RACCORDO
100
AcDbLine
 62
7
  6
CONTINUOUS
 10
-42.3041107013
 20
-22.4
 11
-42.3023651948
 21
-22.5
  0
LINE
  5
2F2
100
AcDbEntity
  8
RACCORDO
100
AcDbLine
 62
7
  6
CONTINUOUS
 10
-42.3023651948
 20
22.5
 11
-42.3041107013
 21
22.4
  0
LINE
  5
2F3
100
AcDbEntity
  8
0
100
AcDbLine
 62
7
  6
CONTINUOUS
 10
-96.5204046482
 20
-36.0204046482
 11
-96.5197234842
 21
-36.0197234842
  0
LINE
  5
2F4
100
AcDbEntity
  8
0
100
AcDbLine
 62
7
  6
CONTINUOUS
 10
-96.6272975093
 20
-36.1272975163
 11
-96.6
 21
-36.1000000064
  0
LINE
  5
2F5
100
AcDbEntity
  8
0
100
AcDbLine
 62
7
  6
CONTINUOUS
 10
-95.4802765158
 20
-34.9802765158
 11
-95.4795953518
 21
-34.9795953518
  0
LINE
  5
2F6
100
AcDbEntity
  8
0
100
AcDbLine
 62
7
  6
CONTINUOUS
 10
-95.4
 20
-34.8999999936
 11
-95.3727024907
 21
-34.8727024837
  0
LWPOLYLINE
  5
2F7
100
AcDbEntity
  8
RACCORDO
100
AcDbPolyline
 62
250
  6
CONTINUOUS
 90
4
 70
0
 10
94.7598550891
 20
-39.809738742
 10
95.4131682331
 20
-39.7971989937
 10
95.7622126946
 20
-39.7865200506
 10
96.1241503432
 20
-39.7721419415
  0
LWPOLYLINE
  5
2F8
100
AcDbEntity
  8
RACCORDO
100
AcDbPolyline
 62
250
  6
CONTINUOUS
 90
13
 70
0
 10
100.2079852696
 20
-35.6027328767
 10
100.4250903268
 20
-35.5994834192
 10
100.6343291435
 20
-35.5949785058
 10
100.8330606816
 20
-35.5892749772
 10
101.0187765271
 20
-35.5824448033
 10
101.189132552
 20
-35.5745741745
 10
101.3419785014
 20
-35.5657624138
 10
101.4753851352
 20
-35.5561207233
 10
101.5876685782
 20
-35.5457707803
 10
101.6774115752
 20
-35.5348432018
 10
101.743481379
 20
-35.5234758955
 10
101.7850440484
 20
-35.5118123193
 10
101.8015749742
 20
-35.4999996706
  0
LINE
  5
2F9
100
AcDbEntity
  8
RACCORDO
100
AcDbLine
 62
250
  6
CONTINUOUS
 10
89.5583367969
 20
-39.8684925126
 11
91.1305285693
 21
-39.8430648505
  0
LINE
  5
2FA
100
AcDbEntity
  8
RACCORDO
100
AcDbLine
 62
250
  6
CONTINUOUS
 10
91.1305285693
 20
-39.8430648505
 11
91.7101978514
 21
-39.8350087494
  0
LINE
  5
2FB
100
AcDbEntity
  8
RACCORDO
100
AcDbLine
 62
250
  6
CONTINUOUS
 10
89.3269638933
 20
-39.8711647839
 11
89.5583367969
 21
-39.8684925126
  0
LINE
  5
2FC
100
AcDbEntity
  8
RACCORDO
100
AcDbLine
 62
250
  6
CONTINUOUS
 10
91.7101978514
 20
-39.8350087494
 11
92.2790401605
 21
-39.8298605933
  0
LWPOLYLINE
  5
2FD
100
AcDbEntity
  8
RACCORDO
100
AcDbPolyline
 62
250
  6
CONTINUOUS
 90
3
 70
0
 10
92.2790401605
 20
-39.8298605933
 10
93.0974096409
 20
-39.8251415945
 10
93.8923418745
 20
-39.8201726675
  0
LINE
  5
2FE
100
AcDbEntity
  8
RACCORDO
100
AcDbLine
 62
250
  6
CONTINUOUS
 10
80.6733477014
 20
-39.8776225458
 11
83.4998076348
 21
-39.867100417
  0
LINE
  5
2FF
100
AcDbEntity
  8
RACCORDO
100
AcDbLine
 62
250
  6
CONTINUOUS
 10
-87.5280151866
 20
-39.8662352566
 11
-86.728438145
 21
-39.8633634203
  0
LINE
  5
300
100
AcDbEntity
  8
RACCORDO
100
AcDbLine
 62
250
  6
CONTINUOUS
 10
79.5933001867
 20
-39.8800365449
 11
80.6733477014
 21
-39.8776225458
  0
LWPOLYLINE
  5
301
100
AcDbEntity
  8
RACCORDO
100
AcDbPolyline
 62
250
  6
CONTINUOUS
 90
3
 70
0
 10
34.004747151
 20
-39.9340816559
 10
38.5095195202
 20
-39.9254548584
 10
39.1482983553
 20
-39.9244252718
  0
LINE
  5
302
100
AcDbEntity
  8
RACCORDO
100
AcDbLine
 62
250
  6
CONTINUOUS
 10
39.1482983553
 20
-39.9244252718
 11
40.4923568682
 21
-39.9224307231
  0
LINE
  5
303
100
AcDbEntity
  8
RACCORDO
100
AcDbLine
 62
250
  6
CONTINUOUS
 10
76.5411674624
 20
-39.8845527922
 11
79.5933001867
 21
-39.8800365449
  0
LINE
  5
304
100
AcDbEntity
  8
RACCORDO
100
AcDbLine
 62
250
  6
CONTINUOUS
 10
83.4998076348
 20
-39.867100417
 11
85.0333129666
 21
-39.863256228
  0
LINE
  5
305
100
AcDbEntity
  8
RACCORDO
100
AcDbLine
 62
250
  6
CONTINUOUS
 10
71.2775476564
 20
-39.8907739501
 11
76.5411674624
 21
-39.8845527922
  0
LINE
  5
306
100
AcDbEntity
  8
RACCORDO
100
AcDbLine
 62
250
  6
CONTINUOUS
 10
40.4923568682
 20
-39.9224307231
 11
48.0473015193
 21
-39.9136586383
  0
LWPOLYLINE
  5
307
100
AcDbEntity
  8
RACCORDO
100
AcDbPolyline
 62
250
  6
CONTINUOUS
 90
4
 70
0
 10
93.8923418745
 20
-39.8201726675
 10
94.1703268318
 20
-39.8198466181
 10
94.4609613544
 20
-39.816656472
 10
94.7598550891
 20
-39.809738742
  0
LINE
  5
308
100
AcDbEntity
  8
RACCORDO
100
AcDbLine
 62
250
  6
CONTINUOUS
 10
48.0473015193
 20
-39.9136586383
 11
71.2775476564
 21
-39.8907739501
  0
LINE
  5
309
100
AcDbEntity
  8
RACCORDO
100
AcDbLine
 62
250
  6
CONTINUOUS
 10
-86.728438145
 20
-39.8633634203
 11
-85.8405019462
 21
-39.8625938223
  0
LINE
  5
30A
100
AcDbEntity
  8
SKEL
100
AcDbLine
 62
7
  6
CONTINUOUS
 10
-96.0000000088
 20
-41.5000003491
 11
96.0000000088
 21
-41.5000003491
  0
LINE
  5
30B
100
AcDbEntity
  8
DRAFT
100
AcDbLine
 62
7
  6
CONTINUOUS
 10
96.0
 20
-41.5
 11
-96.0
 21
-41.5
  0
LINE
  5
30C
100
AcDbEntity
  8
RACCORDO
100
AcDbLine
 62
250
  6
CONTINUOUS
 10
-40.0912614027
 20
-41.298932786
 11
33.9986404319
 21
-41.2986874865
  0
LINE
  5
30D
100
AcDbEntity
  8
RACCORDO
100
AcDbLine
 62
250
  6
CONTINUOUS
 10
-96.0000002059
 20
-41.3014364564
 11
-89.8104859981
 21
-41.2979517475
  0
LINE
  5
30E
100
AcDbEntity
  8
RACCORDO
100
AcDbLine
 62
250
  6
CONTINUOUS
 10
-34.0013539484
 20
-39.9340380355
 11
34.0013539484
 21
-39.9340380355
  0
LINE
  5
30F
100
AcDbEntity
  8
0
100
AcDbLine
 62
7
  6
CONTINUOUS
 10
97.1450079241
 20
-35.7281927449
 11
97.4907690241
 21
-35.7281059713
  0
LINE
  5
310
100
AcDbEntity
  8
0
100
AcDbLine
 62
7
  6
CONTINUOUS
 10
94.4197091687
 20
-35.7279470864
 11
94.3279822641
 21
-35.7279452996
  0
LINE
  5
311
100
AcDbEntity
  8
RACCORDO
100
AcDbLine
 62
250
  6
CONTINUOUS
 10
-89.8104859981
 20
-41.2979517475
 11
-40.0912614027
 21
-41.298932786
  0
LINE
  5
312
100
AcDbEntity
  8
RACCORDO
100
AcDbLine
 62
250
  6
CONTINUOUS
 10
33.9986404319
 20
-41.2986874865
 11
82.630188144
 21
-41.297755737
  0
LINE
  5
313
100
AcDbEntity
  8
RACCORDO
100
AcDbLine
 62
250
  6
CONTINUOUS
 10
82.630188144
 20
-41.297755737
 11
89.7882128172
 21
-41.2979502707
  0
LWPOLYLINE
  5
314
100
AcDbEntity
  8
RACCORDO
100
AcDbPolyline
 62
250
  6
CONTINUOUS
 90
3
 70
0
 10
89.7882128172
 20
-41.2979502707
 10
90.0306641449
 20
-41.2979721176
 10
90.2853858555
 20
-41.2980065634
  0
LWPOLYLINE
  5
315
100
AcDbEntity
  8
RACCORDO
100
AcDbPolyline
 62
250
  6
CONTINUOUS
 90
3
 70
0
 10
-88.9080611083
 20
-39.8735959992
 10
-88.6877063103
 20
-39.8736341182
 10
-87.5280151866
 20
-39.8662352566
  0
LINE
  5
316
100
AcDbEntity
  8
RACCORDO
100
AcDbLine
 62
250
  6
CONTINUOUS
 10
85.0333129666
 20
-39.863256228
 11
86.0329890165
 21
-39.862646534
  0
LWPOLYLINE
  5
317
100
AcDbEntity
  8
RACCORDO
100
AcDbPolyline
 62
250
  6
CONTINUOUS
 90
4
 70
0
 10
90.2853858555
 20
-41.2980065634
 10
90.8199993917
 20
-41.2981139435
 10
91.0982215774
 20
-41.2981927859
 10
91.3827548439
 20
-41.2982868453
  0
LWPOLYLINE
  5
318
100
AcDbEntity
  8
RACCORDO
100
AcDbPolyline
 62
250
  6
CONTINUOUS
 90
3
 70
0
 10
88.6556200819
 20
-39.8735223734
 10
88.8789253281
 20
-39.8736085181
 10
89.3269638933
 20
-39.8711647839
  0
LINE
  5
319
100
AcDbEntity
  8
0
100
AcDbLine
 62
7
  6
CONTINUOUS
 10
-94.5977568803
 20
-35.7281073858
 11
-94.3280087498
 21
-35.7281394927
  0
LWPOLYLINE
  5
31A
100
AcDbEntity
  8
RACCORDO
100
AcDbPolyline
 62
250
  6
CONTINUOUS
 90
5
 70
0
 10
91.3827548439
 20
-41.2982868453
 10
91.9469771811
 20
-41.2985108941
 10
92.2266662517
 20
-41.2986408835
 10
92.5018856346
 20
-41.2987778627
 10
92.7700118296
 20
-41.2989200483
  0
LWPOLYLINE
  5
31B
100
AcDbEntity
  8
RACCORDO
100
AcDbPolyline
 62
250
  6
CONTINUOUS
 90
3
 70
0
 10
92.7700118296
 20
-41.2989200483
 10
93.8214686835
 20
-41.2995545563
 10
94.0936976237
 20
-41.2997415566
  0
LINE
  5
31C
100
AcDbEntity
  8
RACCORDO
100
AcDbLine
 62
250
  6
CONTINUOUS
 10
94.0936976237
 20
-41.2997415566
 11
94.6724163536
 21
-41.3001686168
  0
LWPOLYLINE
  5
31D
100
AcDbEntity
  8
RACCORDO
100
AcDbPolyline
 62
250
  6
CONTINUOUS
 90
4
 70
0
 10
94.6724163536
 20
-41.3001686168
 10
95.3063880584
 20
-41.3007279271
 10
95.645921888
 20
-41.3010642464
 10
96.0000002059
 20
-41.3014364564
  0
LWPOLYLINE
  5
31E
100
AcDbEntity
  8
RACCORDO
100
AcDbPolyline
 62
250
  6
CONTINUOUS
 90
3
 70
0
 10
-76.176715995
 20
-39.8849699781
 10
-74.841965116
 20
-39.8866183712
 10
-72.6898856793
 20
-39.889166496
  0
LINE
  5
31F
100
AcDbEntity
  8
RACCORDO
100
AcDbLine
 62
250
  6
CONTINUOUS
 10
-72.6898856793
 20
-39.889166496
 11
-45.7220633372
 21
-39.9160973956
  0
LINE
  5
320
100
AcDbEntity
  8
0
100
AcDbLine
 62
7
  6
CONTINUOUS
 10
-97.1450395831
 20
-35.7283532711
 11
-97.6720177359
 21
-35.7279452996
  0
LINE
  5
321
100
AcDbEntity
  8
RACCORDO
100
AcDbLine
 62
250
  6
CONTINUOUS
 10
-45.7220633372
 20
-39.9160973956
 11
-37.3716993883
 21
-39.9274050516
  0
LINE
  5
322
100
AcDbEntity
  8
RACCORDO
100
AcDbLine
 62
250
  6
CONTINUOUS
 10
-85.8405019462
 20
-39.8625938223
 11
-84.518039443
 21
-39.8641554468
  0
LINE
  5
323
100
AcDbEntity
  8
RACCORDO
100
AcDbLine
 62
250
  6
CONTINUOUS
 10
-37.3716993883
 20
-39.9274050516
 11
-34.004747151
 21
-39.9340816555
  0
LINE
  5
324
100
AcDbEntity
  8
RACCORDO
100
AcDbLine
 62
250
  6
CONTINUOUS
 10
86.0329890165
 20
-39.862646534
 11
86.9278168779
 21
-39.8638942784
  0
LINE
  5
325
100
AcDbEntity
  8
RACCORDO
100
AcDbLine
 62
250
  6
CONTINUOUS
 10
-81.1879682558
 20
-39.8761235051
 11
-76.176715995
 21
-39.8849699781
  0
LWPOLYLINE
  5
326
100
AcDbEntity
  8
RACCORDO
100
AcDbPolyline
 62
250
  6
CONTINUOUS
 90
3
 70
0
 10
-84.518039443
 20
-39.8641554468
 10
-83.3904865011
 20
-39.867447557
 10
-81.1879682558
 20
-39.8761235051
  0
LINE
  5
327
100
AcDbEntity
  8
RACCORDO
100
AcDbLine
 62
250
  6
CONTINUOUS
 10
86.9278168779
 20
-39.8638942784
 11
87.7204886301
 21
-39.8673374081
  0
LINE
  5
328
100
AcDbEntity
  8
RACCORDO
100
AcDbLine
 62
250
  6
CONTINUOUS
 10
-93.8929806339
 20
-39.820150999
 11
-92.0046101155
 21
-39.831956936
  0
LINE
  5
329
100
AcDbEntity
  8
RACCORDO
100
AcDbLine
 62
250
  6
CONTINUOUS
 10
87.7204886301
 20
-39.8673374081
 11
88.6556200819
 21
-39.8735223734
  0
LWPOLYLINE
  5
32A
100
AcDbEntity
  8
RACCORDO
100
AcDbPolyline
 62
250
  6
CONTINUOUS
 90
3
 70
0
 10
-89.5821295243
 20
-39.8681568773
 10
-89.3522069684
 20
-39.8708943109
 10
-88.9080611083
 20
-39.8735959992
  0
LINE
  5
32B
100
AcDbEntity
  8
RACCORDO
100
AcDbLine
 62
250
  6
CONTINUOUS
 10
-92.0046101155
 20
-39.831956936
 11
-91.4344160543
 21
-39.8386799139
  0
LWPOLYLINE
  5
32C
100
AcDbEntity
  8
RACCORDO
100
AcDbPolyline
 62
250
  6
CONTINUOUS
 90
13
 70
0
 10
-100.207985198
 20
-35.6027328588
 10
-100.4250888642
 20
-35.5994841074
 10
-100.6343261867
 20
-35.5949796933
 10
-100.8330561781
 20
-35.5892764803
 10
-101.0187704747
 20
-35.5824464619
 10
-101.1891249962
 20
-35.5745758527
 10
-101.341969533
 20
-35.5657640006
 10
-101.475374886
 20
-35.5561221324
 10
-101.5876572168
 20
-35.5457719504
 10
-101.6773993013
 20
-35.5348440964
 10
-101.7434684175
 20
-35.5234765026
 10
-101.7850306433
 20
-35.5118126509
 10
-101.8015613812
 20
-35.499999762
  0
LWPOLYLINE
  5
32D
100
AcDbEntity
  8
RACCORDO
100
AcDbPolyline
 62
250
  6
CONTINUOUS
 90
3
 70
0
 10
-91.4344160543
 20
-39.8386799139
 10
-90.5908179181
 20
-39.8513555809
 10
-89.5821295243
 20
-39.8681568773
  0
LWPOLYLINE
  5
32E
100
AcDbEntity
  8
RACCORDO
100
AcDbPolyline
 62
250
  6
CONTINUOUS
 90
5
 70
0
 10
-95.4174993201
 20
-39.7968924518
 10
-94.7643159019
 20
-39.8097606071
 10
-94.4636669942
 20
-39.8166984078
 10
-94.1716056491
 20
-39.8198358076
 10
-93.8929806339
 20
-39.820150999
  0
LINE
  5
32F
100
AcDbEntity
  8
0
100
AcDbLine
 62
7
  6
CONTINUOUS
 10
-95.4802765158
 20
34.9802765158
 11
-95.4795953518
 21
34.9795953519
  0
LINE
  5
330
100
AcDbEntity
  8
0
100
AcDbLine
 62
7
  6
CONTINUOUS
 10
-96.5197234842
 20
36.0197234842
 11
-96.5204046482
 21
36.0204046481
  0
LINE
  5
331
100
AcDbEntity
  8
0
100
AcDbLine
 62
7
  6
CONTINUOUS
 10
-95.4
 20
34.9000001418
 11
-95.3727025934
 21
34.8727027659
  0
LINE
  5
332
100
AcDbEntity
  8
0
100
AcDbLine
 62
7
  6
CONTINUOUS
 10
-96.6
 20
36.0999998582
 11
-96.6272974066
 21
36.1272972341
  0
LINE
  5
333
100
AcDbEntity
  8
RACCORDO
100
AcDbLine
 62
250
  6
CONTINUOUS
 10
-34.004747151
 20
-39.9340816555
 11
-34.0070026327
 21
-38.8740890382
  0
LINE
  5
334
100
AcDbEntity
  8
RACCORDO
100
AcDbLine
 62
250
  6
CONTINUOUS
 10
-34.0070026327
 20
-38.8740890382
 11
-34.0085963484
 21
-36.6899277286
  0
LINE
  5
335
100
AcDbEntity
  8
RACCORDO
100
AcDbLine
 62
250
  6
CONTINUOUS
 10
-34.0067095783
 20
34.4268521973
 11
-34.0085964805
 21
36.6922121866
  0
LINE
  5
336
100
AcDbEntity
  8
RACCORDO
100
AcDbLine
 62
250
  6
CONTINUOUS
 10
-34.0013539484
 20
-39.9340380355
 11
-34.0013539484
 21
-41.2986874865
  0
LINE
  5
337
100
AcDbEntity
  8
RACCORDO
100
AcDbLine
 62
250
  6
CONTINUOUS
 10
-33.9896098835
 20
-25.8770236831
 11
-33.9896098835
 21
-24.1027230241
  0
LWPOLYLINE
  5
338
100
AcDbEntity
  8
RACCORDO
100
AcDbPolyline
 62
250
  6
CONTINUOUS
 90
3
 70
0
 10
-34.0067095783
 20
34.4268521973
 10
-33.9896234162
 20
25.6654241118
 10
-33.9896098814
 20
24.1027230177
  0
LWPOLYLINE
  5
339
100
AcDbEntity
  8
RACCORDO
100
AcDbPolyline
 62
250
  6
CONTINUOUS
 90
3
 70
0
 10
-34.0085964805
 20
36.6922121866
 10
-34.0070011698
 20
38.8749975515
 10
-34.0047471505
 20
39.9340818774
  0
LINE
  5
33A
100
AcDbEntity
  8
RACCORDO
100
AcDbLine
 62
250
  6
CONTINUOUS
 10
-34.0085963484
 20
-36.6899277286
 11
-34.0067046964
 21
-34.4236964867
  0
LWPOLYLINE
  5
33B
100
AcDbEntity
  8
RACCORDO
100
AcDbPolyline
 62
250
  6
CONTINUOUS
 90
3
 70
0
 10
-34.0067046964
 20
-34.4236964867
 10
-33.9993985791
 20
-30.8732731839
 10
-33.9896098792
 20
-25.8770203897
  0
LINE
  5
33C
100
AcDbEntity
  8
RACCORDO
100
AcDbLine
 62
250
  6
CONTINUOUS
 10
-34.0014312601
 20
39.9340380644
 11
-33.9996602491
 21
40.7825596707
  0
LWPOLYLINE
  5
33D
100
AcDbEntity
  8
RACCORDO
100
AcDbPolyline
 62
250
  6
CONTINUOUS
 90
5
 70
0
 10
-33.9996602491
 20
40.7825596707
 10
-33.9974607988
 20
41.1942895245
 10
-33.9968542841
 20
41.2496940885
 10
-33.9962281851
 20
41.2846155834
 10
-33.9955825018
 20
41.2986873279
  0
LINE
  5
33E
100
AcDbEntity
  8
0
100
AcDbLine
 62
7
  6
CONTINUOUS
 10
-94.8549920759
 20
-35.7281927449
 11
-94.5977568803
 21
-35.7281073858
  0
LINE
  5
33F
100
AcDbEntity
  8
RACCORDO
100
AcDbLine
 62
250
  6
CONTINUOUS
 10
101.8015749741
 20
-35.4999995694
 11
102.0000003491
 21
-35.5000000243
  0
LINE
  5
340
100
AcDbEntity
  8
RACCORDO
100
AcDbLine
 62
250
  6
CONTINUOUS
 10
-101.8015749741
 20
-35.4999995694
 11
-102.0000003491
 21
-35.5000000243
  0
LINE
  5
341
100
AcDbEntity
  8
0
100
AcDbLine
 62
7
  6
CONTINUOUS
 10
76.282525
 20
-29.399985
 11
75.702503
 21
-29.399993
  0
LINE
  5
342
100
AcDbEntity
  8
0
100
AcDbLine
 62
7
  6
CONTINUOUS
 10
74.18742
 20
-29.399985
 11
73.607413
 21
-29.399993
  0
LINE
  5
343
100
AcDbEntity
  8
0
100
AcDbLine
 62
7
  6
CONTINUOUS
 10
71.899008
 20
-29.399993
 11
71.318986
 21
-29.4
  0
LINE
  5
344
100
AcDbEntity
  8
0
100
AcDbLine
 62
7
  6
CONTINUOUS
 10
80.852381
 20
-29.399978
 11
80.199076
 21
-29.399985
  0
LINE
  5
345
100
AcDbEntity
  8
0
100
AcDbLine
 62
7
  6
CONTINUOUS
 10
70.001176
 20
-29.399993
 11
69.421132
 21
-29.4
  0
LINE
  5
346
100
AcDbEntity
  8
0
100
AcDbLine
 62
7
  6
CONTINUOUS
 10
75.315824
 20
-29.399993
 11
74.735803
 21
-29.399993
  0
LINE
  5
347
100
AcDbEntity
  8
0
100
AcDbLine
 62
7
  6
CONTINUOUS
 10
73.059037
 20
-29.399993
 11
72.479015
 21
-29.399993
  0
LINE
  5
348
100
AcDbEntity
  8
0
100
AcDbLine
 62
7
  6
CONTINUOUS
 10
79.111526
 20
-29.399985
 11
78.531497
 21
-29.399985
  0
LINE
  5
349
100
AcDbEntity
  8
0
100
AcDbLine
 62
7
  6
CONTINUOUS
 10
78.144818
 20
-29.399993
 11
77.564789
 21
-29.399985
  0
LINE
  5
34A
100
AcDbEntity
  8
0
100
AcDbLine
 62
7
  6
CONTINUOUS
 10
77.381683
 20
-28.829657
 11
76.465638
 21
-28.829657
  0
LINE
  5
34B
100
AcDbEntity
  8
0
100
AcDbLine
 62
7
  6
CONTINUOUS
 10
97.4907690241
 20
-35.7281059713
 11
97.6719912502
 21
-35.7281394927
  0
LINE
  5
34C
100
AcDbEntity
  8
0
100
AcDbLine
 62
7
  6
CONTINUOUS
 10
-97.6719912503
 20
-35.2718605079
 11
-97.1450079232
 21
-35.27180726
  0
LINE
  5
34D
100
AcDbEntity
  8
0
100
AcDbLine
 62
7
  6
CONTINUOUS
 10
94.3280087497
 20
-35.2718605079
 11
94.8549920768
 21
-35.27180726
  0
LINE
  5
34E
100
AcDbEntity
  8
0
100
AcDbLine
 62
7
  6
CONTINUOUS
 10
94.8549604169
 20
-35.7283532711
 11
94.4197091687
 21
-35.7279470864
  0
LINE
  5
34F
100
AcDbEntity
  8
0
100
AcDbLine
 62
7
  6
CONTINUOUS
 10
-94.8549604169
 20
-35.2716467289
 11
-94.3279822641
 21
-35.2720547004
  0
LINE
  5
350
100
AcDbEntity
  8
0
100
AcDbLine
 62
7
  6
CONTINUOUS
 10
97.1450395831
 20
-35.2716467289
 11
97.6720177359
 21
-35.2720547004
  0
LINE
  5
351
100
AcDbEntity
  8
RACCORDO
100
AcDbLine
 62
7
  6
CONTINUOUS
 10
-25.6958892987
 20
22.4
 11
-25.6976348052
 21
22.5
  0
LINE
  5
352
100
AcDbEntity
  8
RACCORDO
100
AcDbLine
 62
7
  6
CONTINUOUS
 10
-25.6976348052
 20
-22.5
 11
-25.6958892987
 21
-22.4
  0
LINE
  5
353
100
AcDbEntity
  8
RACCORDO
100
AcDbLine
 62
250
  6
CONTINUOUS
 10
-9.7744503659
 20
25.3039018237
 11
-10.7607679021
 21
23.7924933902
  0
LINE
  5
354
100
AcDbEntity
  8
0
100
AcDbLine
 62
7
  6
CONTINUOUS
 10
-97.1900477491
 20
-35.1676955419
 11
-97.1716048889
 21
-35.1549273261
  0
LINE
  5
355
100
AcDbEntity
  8
0
100
AcDbLine
 62
7
  6
CONTINUOUS
 10
-94.8283951111
 20
-35.8450726739
 11
-94.809952252
 21
-35.8323044589
  0
LWPOLYLINE
  5
356
100
AcDbEntity
  8
RACCORDO
100
AcDbPolyline
 62
250
  6
CONTINUOUS
 90
10
 70
0
 10
-11.8
 20
-24.1027230242
 10
-11.6781814476
 20
-24.098771747
 10
-11.5567677712
 20
-24.0869821688
 10
-11.4362664546
 20
-24.0673837175
 10
-11.3171581135
 20
-24.0400124917
 10
-11.1999732967
 20
-24.0049872786
 10
-11.0852727885
 20
-23.9625249796
 10
-10.9735466163
 20
-23.9128293823
 10
-10.8652296719
 20
-23.8560748387
 10
-10.760766547
 20
-23.7924925059
  0
LWPOLYLINE
  5
357
100
AcDbEntity
  8
RACCORDO
100
AcDbPolyline
 62
250
  6
CONTINUOUS
 90
10
 70
0
 10
-11.8
 20
-25.8770236833
 10
-11.5607836324
 20
-25.8694618032
 10
-11.3243751414
 20
-25.8476229064
 10
-11.0907745268
 20
-25.8115068227
 10
-10.8590072897
 20
-25.7607828353
 10
-10.6300479291
 20
-25.6957811228
 10
-10.4068199426
 20
-25.6174928532
 10
-10.1902978292
 20
-25.5262483882
 10
-9.9795070899
 20
-25.4217173422
 10
-9.7744477246
 20
-25.3039001
  0
LWPOLYLINE
  5
358
100
AcDbEntity
  8
RACCORDO
100
AcDbPolyline
 62
250
  6
CONTINUOUS
 90
25
 70
0
 10
78.6939568631
 20
-25.8817506947
 10
78.8589389372
 20
-25.8777166018
 10
79.0283108673
 20
-25.8654932129
 10
79.2022581543
 20
-25.8448501769
 10
79.3812122564
 20
-25.8153842253
 10
79.5651336146
 20
-25.7761517682
 10
79.7531700271
 20
-25.7257925291
 10
79.9441609756
 20
-25.6634930911
 10
80.1381011798
 20
-25.5882963102
 10
80.3352411383
 20
-25.4984277624
 10
80.5334256496
 20
-25.3931939711
 10
80.7313887085
 20
-25.2717821382
 10
80.9300523173
 20
-25.1321485369
 10
81.1248047601
 20
-24.9729800623
 10
81.3143643747
 20
-24.7946407089
 10
81.5024795663
 20
-24.5963113461
 10
81.6844981591
 20
-24.371455998
 10
81.8503915502
 20
-24.122038661
 10
81.9956599342
 20
-23.8598817392
 10
82.1240307706
 20
-23.5851062493
 10
82.2277483374
 20
-23.2968866229
 10
82.2991361844
 20
-23.0100835775
 10
82.3434346957
 20
-22.7323680967
 10
82.3710879452
 20
-22.461468048
 10
82.3873166686
 20
-22.1993602702
  0
LWPOLYLINE
  5
359
100
AcDbEntity
  8
RACCORDO
100
AcDbPolyline
 62
250
  6
CONTINUOUS
 90
25
 70
0
 10
78.7
 20
-24.1025766005
 10
78.7843323401
 20
-24.1008162808
 10
78.8715958348
 20
-24.0950250766
 10
78.9615750746
 20
-24.0847886601
 10
79.0538552231
 20
-24.0697194184
 10
79.1482971126
 20
-24.0493897071
 10
79.2450180869
 20
-24.0232560862
 10
79.3435573461
 20
-23.9908634373
 10
79.4434807177
 20
-23.9517395026
 10
79.5448011052
 20
-23.9051671038
 10
79.646802534
 20
-23.8506667261
 10
79.7488033575
 20
-23.7877440138
 10
79.8506267786
 20
-23.7154885428
 10
79.9512244041
 20
-23.6334352081
 10
80.0495169662
 20
-23.5411556817
 10
80.1449076607
 20
-23.4376389136
 10
80.2370745856
 20
-23.3209561707
 10
80.3229613709
 20
-23.1923649663
 10
80.398562146
 20
-23.0563981829
 10
80.4633226808
 20
-22.9135093572
 10
80.5163902389
 20
-22.7648794696
 10
80.5558317631
 20
-22.6174203093
 10
80.5822970083
 20
-22.4744219846
 10
80.5974074272
 20
-22.3349881876
 10
80.6022179567
 20
-22.2
  0
LWPOLYLINE
  5
35A
100
AcDbEntity
  8
RACCORDO
100
AcDbPolyline
 62
250
  6
CONTINUOUS
 90
3
 70
0
 10
-75.787827113
 20
-25.8743242061
 10
-75.2471972472
 20
-25.8687994664
 10
-74.3564089155
 20
-25.8655195849
  0
LWPOLYLINE
  5
35B
100
AcDbEntity
  8
RACCORDO
100
AcDbPolyline
 62
250
  6
CONTINUOUS
 90
3
 70
0
 10
-76.5309098975
 20
-25.8804109721
 10
-76.0435955665
 20
-25.8758036529
 10
-75.787827113
 20
-25.8743242061
  0
LINE
  5
35C
100
AcDbEntity
  8
RACCORDO
100
AcDbLine
 62
250
  6
CONTINUOUS
 10
78.1133266407
 20
-25.8834791371
 11
78.5568397661
 21
-25.8818105637
  0
LINE
  5
35D
100
AcDbEntity
  8
RACCORDO
100
AcDbLine
 62
250
  6
CONTINUOUS
 10
-78.6939568631
 20
-25.8817506947
 11
-78.5300029956
 21
-25.8815329756
  0
LINE
  5
35E
100
AcDbEntity
  8
RACCORDO
100
AcDbLine
 62
250
  6
CONTINUOUS
 10
71.3132050582
 20
-25.8715228974
 11
73.0635767525
 21
-25.8682009573
  0
LINE
  5
35F
100
AcDbEntity
  8
RACCORDO
100
AcDbLine
 62
250
  6
CONTINUOUS
 10
73.0635767525
 20
-25.8682009573
 11
74.2860258135
 21
-25.8661128201
  0
LINE
  5
360
100
AcDbEntity
  8
RACCORDO
100
AcDbLine
 62
250
  6
CONTINUOUS
 10
78.5568397661
 20
-25.8818105637
 11
78.6939568631
 21
-25.8817506947
  0
LINE
  5
361
100
AcDbEntity
  8
0
100
AcDbLine
 62
7
  6
CONTINUOUS
 10
76.64256
 20
-28.278635
 11
77.204754
 21
-28.278635
  0
LINE
  5
362
100
AcDbEntity
  8
0
100
AcDbLine
 62
7
  6
CONTINUOUS
 10
79.617822
 20
-28.278635
 11
79.111591
 21
-28.278628
  0
LINE
  5
363
100
AcDbEntity
  8
0
100
AcDbLine
 62
7
  6
CONTINUOUS
 10
79.103529
 20
-27.742106
 11
79.809205
 21
-27.742106
  0
LINE
  5
364
100
AcDbEntity
  8
0
100
AcDbLine
 62
7
  6
CONTINUOUS
 10
79.809205
 20
-27.036377
 11
79.103522
 21
-27.036377
  0
LINE
  5
365
100
AcDbEntity
  8
0
100
AcDbLine
 62
7
  6
CONTINUOUS
 10
68.49
 20
-26.499862
 11
69.070029
 21
-26.499862
  0
LINE
  5
366
100
AcDbEntity
  8
0
100
AcDbLine
 62
7
  6
CONTINUOUS
 10
70.352286
 20
-26.499862
 11
70.932315
 21
-26.499862
  0
LINE
  5
367
100
AcDbEntity
  8
0
100
AcDbLine
 62
7
  6
CONTINUOUS
 10
71.318994
 20
-26.499862
 11
71.899015
 21
-26.499862
  0
LINE
  5
368
100
AcDbEntity
  8
0
100
AcDbLine
 62
7
  6
CONTINUOUS
 10
72.479015
 20
-26.499862
 11
73.355852
 21
-26.499862
  0
LINE
  5
369
100
AcDbEntity
  8
0
100
AcDbLine
 62
7
  6
CONTINUOUS
 10
74.438988
 20
-26.499862
 11
75.315824
 21
-26.499862
  0
LINE
  5
36A
100
AcDbEntity
  8
0
100
AcDbLine
 62
7
  6
CONTINUOUS
 10
76.633628
 20
-26.499855
 11
77.213679
 21
-26.499855
  0
LINE
  5
36B
100
AcDbEntity
  8
0
100
AcDbLine
 62
7
  6
CONTINUOUS
 10
78.531497
 20
-26.499855
 11
79.889711
 21
-26.499855
  0
LINE
  5
36C
100
AcDbEntity
  8
RACCORDO
100
AcDbLine
 62
250
  6
CONTINUOUS
 10
56.2756569374
 20
-25.8730608334
 11
57.1615980662
 21
-25.8729538558
  0
LINE
  5
36D
100
AcDbEntity
  8
RACCORDO
100
AcDbLine
 62
250
  6
CONTINUOUS
 10
33.9896098792
 20
-25.8770203897
 11
54.5571969464
 21
-25.873115104
  0
LINE
  5
36E
100
AcDbEntity
  8
RACCORDO
100
AcDbLine
 62
250
  6
CONTINUOUS
 10
-77.9988661666
 20
-25.8836726075
 11
-76.5309098975
 21
-25.8804109721
  0
LINE
  5
36F
100
AcDbEntity
  8
RACCORDO
100
AcDbLine
 62
250
  6
CONTINUOUS
 10
11.8
 20
-25.8770236833
 11
33.9896098835
 21
-25.8770236831
  0
LINE
  5
370
100
AcDbEntity
  8
RACCORDO
100
AcDbLine
 62
250
  6
CONTINUOUS
 10
54.5571969464
 20
-25.873115104
 11
56.2756569374
 21
-25.8730608334
  0
LINE
  5
371
100
AcDbEntity
  8
RACCORDO
100
AcDbLine
 62
250
  6
CONTINUOUS
 10
70.1262088446
 20
-25.8732966531
 11
71.3132050582
 21
-25.8715228974
  0
LINE
  5
372
100
AcDbEntity
  8
RACCORDO
100
AcDbLine
 62
250
  6
CONTINUOUS
 10
-9.7744477246
 20
-25.3039001
 11
9.7744477246
 21
-25.3039001
  0
LINE
  5
373
100
AcDbEntity
  8
RACCORDO
100
AcDbLine
 62
250
  6
CONTINUOUS
 10
-78.7
 20
-24.1025766005
 11
-11.8
 21
-24.1027230242
  0
LINE
  5
374
100
AcDbEntity
  8
RACCORDO
100
AcDbLine
 62
250
  6
CONTINUOUS
 10
11.8
 20
-24.1027230242
 11
78.7
 21
-24.1025766005
  0
LINE
  5
375
100
AcDbEntity
  8
0
100
AcDbLine
 62
7
  6
CONTINUOUS
 10
-78.7
 20
-22.5
 11
-11.8
 21
-22.5
  0
LINE
  5
376
100
AcDbEntity
  8
0
100
AcDbLine
 62
7
  6
CONTINUOUS
 10
11.8
 20
-22.5
 11
78.7
 21
-22.5
  0
LINE
  5
377
100
AcDbEntity
  8
RACCORDO
100
AcDbLine
 62
7
  6
CONTINUOUS
 10
-70.6958892987
 20
-22.4
 11
-64.8041107013
 21
-22.4
  0
LINE
  5
378
100
AcDbEntity
  8
RACCORDO
100
AcDbLine
 62
7
  6
CONTINUOUS
 10
-48.1958892987
 20
-22.4
 11
-42.3041107013
 21
-22.4
  0
LINE
  5
379
100
AcDbEntity
  8
RACCORDO
100
AcDbLine
 62
7
  6
CONTINUOUS
 10
-25.6958892987
 20
-22.4
 11
-19.8041107013
 21
-22.4
  0
LINE
  5
37A
100
AcDbEntity
  8
RACCORDO
100
AcDbLine
 62
7
  6
CONTINUOUS
 10
19.8041107013
 20
-22.4
 11
25.6958892987
 21
-22.4
  0
LINE
  5
37B
100
AcDbEntity
  8
RACCORDO
100
AcDbLine
 62
7
  6
CONTINUOUS
 10
42.3041107013
 20
-22.4
 11
48.1958892987
 21
-22.4
  0
LINE
  5
37C
100
AcDbEntity
  8
RACCORDO
100
AcDbLine
 62
7
  6
CONTINUOUS
 10
64.8041107013
 20
-22.4
 11
70.6958892987
 21
-22.4
  0
LINE
  5
37D
100
AcDbEntity
  8
RACCORDO
100
AcDbLine
 62
250
  6
CONTINUOUS
 10
8.0936465831
 20
-22.2
 11
11.5
 21
-22.2
  0
LINE
  5
37E
100
AcDbEntity
  8
RACCORDO
100
AcDbLine
 62
250
  6
CONTINUOUS
 10
-8.0936465831
 20
-22.2
 11
-11.5
 21
-22.2
  0
LINE
  5
37F
100
AcDbEntity
  8
RACCORDO
100
AcDbLine
 62
250
  6
CONTINUOUS
 10
79.0
 20
-22.2
 11
82.3873166894
 21
-22.1993602708
  0
LINE
  5
380
100
AcDbEntity
  8
RACCORDO
100
AcDbLine
 62
250
  6
CONTINUOUS
 10
-69.8118362421
 20
-25.8735575391
 11
-66.89955976
 21
-25.8723890683
  0
LINE
  5
381
100
AcDbEntity
  8
RACCORDO
100
AcDbLine
 62
250
  6
CONTINUOUS
 10
58.8804470394
 20
-25.8730355518
 11
65.7745323191
 21
-25.8715743246
  0
LINE
  5
382
100
AcDbEntity
  8
RACCORDO
100
AcDbLine
 62
250
  6
CONTINUOUS
 10
57.1615980662
 20
-25.8729538558
 11
58.8804470394
 21
-25.8730355518
  0
LINE
  5
383
100
AcDbEntity
  8
RACCORDO
100
AcDbLine
 62
250
  6
CONTINUOUS
 10
-66.89955976
 20
-25.8723890683
 11
-65.2584985718
 21
-25.8715809887
  0
LINE
  5
384
100
AcDbEntity
  8
RACCORDO
100
AcDbLine
 62
250
  6
CONTINUOUS
 10
-39.5840896408
 20
-25.8754125929
 11
-11.8
 21
-25.8770236833
  0
LINE
  5
385
100
AcDbEntity
  8
RACCORDO
100
AcDbLine
 62
250
  6
CONTINUOUS
 10
-82.3873167973
 20
-22.1993602738
 11
-79.0
 21
-22.2
  0
LINE
  5
386
100
AcDbEntity
  8
RACCORDO
100
AcDbLine
 62
250
  6
CONTINUOUS
 10
-65.2584985718
 20
-25.8715809887
 11
-39.5840896408
 21
-25.8754125929
  0
LINE
  5
387
100
AcDbEntity
  8
RACCORDO
100
AcDbLine
 62
250
  6
CONTINUOUS
 10
65.7745323191
 20
-25.8715743246
 11
70.1262088446
 21
-25.8732966531
  0
LWPOLYLINE
  5
388
100
AcDbEntity
  8
RACCORDO
100
AcDbPolyline
 62
250
  6
CONTINUOUS
 90
3
 70
0
 10
-71.095002046
 20
-25.872043245
 10
-70.2521797231
 20
-25.8726280782
 10
-69.8118362421
 20
-25.8735575391
  0
LINE
  5
389
100
AcDbEntity
  8
RACCORDO
100
AcDbLine
 62
250
  6
CONTINUOUS
 10
-72.6482476937
 20
-25.8690827534
 11
-71.8933377951
 21
-25.8700267113
  0
LINE
  5
38A
100
AcDbEntity
  8
RACCORDO
100
AcDbLine
 62
250
  6
CONTINUOUS
 10
-71.8933377951
 20
-25.8700267113
 11
-71.095002046
 21
-25.872043245
  0
LINE
  5
38B
100
AcDbEntity
  8
RACCORDO
100
AcDbLine
 62
250
  6
CONTINUOUS
 10
77.0807786127
 20
-25.8823700675
 11
78.1133266407
 21
-25.8834791371
  0
LINE
  5
38C
100
AcDbEntity
  8
RACCORDO
100
AcDbLine
 62
250
  6
CONTINUOUS
 10
74.2860258135
 20
-25.8661128201
 11
75.097857172
 21
-25.8677783614
  0
LINE
  5
38D
100
AcDbEntity
  8
RACCORDO
100
AcDbLine
 62
250
  6
CONTINUOUS
 10
-74.3564089155
 20
-25.8655195849
 11
-72.6482476937
 21
-25.8690827534
  0
LWPOLYLINE
  5
38E
100
AcDbEntity
  8
RACCORDO
100
AcDbPolyline
 62
250
  6
CONTINUOUS
 90
3
 70
0
 10
-78.5300029956
 20
-25.8815329756
 10
-78.1819321907
 20
-25.8833724127
 10
-77.9988661666
 20
-25.8836726075
  0
LWPOLYLINE
  5
38F
100
AcDbEntity
  8
RACCORDO
100
AcDbPolyline
 62
250
  6
CONTINUOUS
 90
4
 70
0
 10
75.5919717096
 20
-25.8726359563
 10
76.0535087743
 20
-25.8758626391
 10
76.2728649519
 20
-25.878290158
 10
77.0807786127
 20
-25.8823700675
  0
LINE
  5
390
100
AcDbEntity
  8
RACCORDO
100
AcDbLine
 62
250
  6
CONTINUOUS
 10
75.097857172
 20
-25.8677783614
 11
75.5919717096
 21
-25.8726359563
  0
LINE
  5
391
100
AcDbEntity
  8
0
100
AcDbLine
 62
7
  6
CONTINUOUS
 10
-97.1898066956
 20
35.1675285871
 11
-97.171604981
 21
35.1549273753
  0
LINE
  5
392
100
AcDbEntity
  8
0
100
AcDbLine
 62
7
  6
CONTINUOUS
 10
-94.828395019
 20
35.8450726247
 11
-94.8101933044
 21
35.8324714129
  0
LINE
  5
393
100
AcDbEntity
  8
RACCORDO
100
AcDbLine
 62
250
  6
CONTINUOUS
 10
-9.7744477246
 20
-25.3039001
 11
-10.760766547
 21
-23.7924925059
  0
LINE
  5
394
100
AcDbEntity
  8
RACCORDO
100
AcDbLine
 62
7
  6
CONTINUOUS
 10
-19.8041107013
 20
-22.4
 11
-19.8023651948
 21
-22.5
  0
LINE
  5
395
100
AcDbEntity
  8
RACCORDO
100
AcDbLine
 62
7
  6
CONTINUOUS
 10
-19.8023651948
 20
22.5
 11
-19.8041107013
 21
22.4
  0
LINE
  5
396
100
AcDbEntity
  8
0
100
AcDbLine
 62
7
  6
CONTINUOUS
 10
-97.1716048889
 20
-35.1549273261
 11
-97.0240804449
 21
-35.076590623
  0
LINE
  5
397
100
AcDbEntity
  8
0
100
AcDbLine
 62
7
  6
CONTINUOUS
 10
-97.0240804449
 20
-35.076590623
 11
-96.9261983137
 21
-35.025263872
  0
LINE
  5
398
100
AcDbEntity
  8
0
100
AcDbLine
 62
7
  6
CONTINUOUS
 10
-94.3280087498
 20
-35.7281394927
 11
-94.5947969261
 21
-35.786308213
  0
LWPOLYLINE
  5
399
100
AcDbEntity
  8
0
100
AcDbPolyline
 62
7
  6
CONTINUOUS
 90
3
 70
0
 10
-97.5124034566
 20
-35.2369125547
 10
-97.2439112959
 20
-35.1791346494
 10
-97.1900477491
 20
-35.1676955419
  0
LINE
  5
39A
100
AcDbEntity
  8
0
100
AcDbLine
 62
7
  6
CONTINUOUS
 10
-94.5947969261
 20
-35.786308213
 11
-94.809952252
 21
-35.8323044589
  0
LINE
  5
39B
100
AcDbEntity
  8
0
100
AcDbLine
 62
7
  6
CONTINUOUS
 10
94.4880987039
 20
-35.7630581777
 11
94.8101933044
 21
-35.8324714129
  0
LINE
  5
39C
100
AcDbEntity
  8
0
100
AcDbLine
 62
7
  6
CONTINUOUS
 10
97.1898066956
 20
-35.1675285871
 11
97.5118997808
 21
-35.2369414919
  0
LINE
  5
39D
100
AcDbEntity
  8
0
100
AcDbLine
 62
7
  6
CONTINUOUS
 10
94.3279822641
 20
-35.7279452996
 11
94.4880987039
 21
-35.7630581777
  0
LINE
  5
39E
100
AcDbEntity
  8
0
100
AcDbLine
 62
7
  6
CONTINUOUS
 10
-96.9258947508
 20
35.0251039337
 11
-97.0241000844
 21
35.0766010257
  0
LWPOLYLINE
  5
39F
100
AcDbEntity
  8
0
100
AcDbPolyline
 62
7
  6
CONTINUOUS
 90
3
 70
0
 10
-97.0241000844
 20
35.0766010257
 10
-97.1225892044
 20
35.1288224602
 10
-97.171604981
 20
35.1549273753
  0
LWPOLYLINE
  5
3A0
100
AcDbEntity
  8
RACCORDO
100
AcDbPolyline
 62
250
  6
CONTINUOUS
 90
10
 70
0
 10
9.7744477246
 20
-25.3039001
 10
9.9799459647
 20
-25.4219100347
 10
10.1910264451
 20
-25.5265584105
 10
10.4076891657
 20
-25.6178448421
 10
10.6308560724
 20
-25.6960634657
 10
10.8596052193
 20
-25.7609201734
 10
11.0911707693
 20
-25.8115325501
 10
11.3246307765
 20
-25.8476066664
 10
11.5609071867
 20
-25.8694369875
 10
11.8
 20
-25.8770236833
  0
LWPOLYLINE
  5
3A1
100
AcDbEntity
  8
RACCORDO
100
AcDbPolyline
 62
250
  6
CONTINUOUS
 90
10
 70
0
 10
10.760766547
 20
-23.7924925059
 10
10.8654459227
 20
-23.8561981499
 10
10.9739099161
 20
-23.9130063052
 10
11.0857036811
 20
-23.9627009638
 10
11.2003443396
 20
-24.005110227
 10
11.3173739597
 20
-24.0400664459
 10
11.4363521218
 20
-24.0673964848
 10
11.5567932032
 20
-24.0869818651
 10
11.6781779404
 20
-24.0987692466
 10
11.8
 20
-24.1027230242
  0
LINE
  5
3A2
100
AcDbEntity
  8
RACCORDO
100
AcDbLine
 62
250
  6
CONTINUOUS
 10
-11.8
 20
-22.5
 11
-11.8
 21
-25.8770236833
  0
LINE
  5
3A3
100
AcDbEntity
  8
RACCORDO
100
AcDbLine
 62
250
  6
CONTINUOUS
 10
-11.8
 20
22.5
 11
-11.8
 21
25.8770237531
  0
LINE
  5
3A4
100
AcDbEntity
  8
0
100
AcDbLine
 62
7
  6
CONTINUOUS
 10
-11.5
 20
-22.2
 11
-11.5
 21
22.2
  0
LINE
  5
3A5
100
AcDbEntity
  8
RACCORDO
100
AcDbLine
 62
250
  6
CONTINUOUS
 10
-9.8984116458
 20
-22.2
 11
-9.8984116458
 21
22.2
  0
LINE
  5
3A6
100
AcDbEntity
  8
RACCORDO
100
AcDbLine
 62
250
  6
CONTINUOUS
 10
-8.0936465831
 20
-22.2
 11
-8.0936465831
 21
22.2
  0
LINE
  5
3A7
100
AcDbEntity
  8
0
100
AcDbLine
 62
7
  6
CONTINUOUS
 10
-94.8283951111
 20
-35.8450726739
 11
-94.9759195551
 21
-35.923409377
  0
LINE
  5
3A8
100
AcDbEntity
  8
0
100
AcDbLine
 62
7
  6
CONTINUOUS
 10
-94.9759195551
 20
-35.923409377
 11
-95.0738016863
 21
-35.974736128
  0
LINE
  5
3A9
100
AcDbEntity
  8
0
100
AcDbLine
 62
7
  6
CONTINUOUS
 10
-96.9261983137
 20
-35.025263872
 11
-96.852211212
 21
-34.98686137
  0
LINE
  5
3AA
100
AcDbEntity
  8
0
100
AcDbLine
 62
7
  6
CONTINUOUS
 10
-95.0738016863
 20
-35.974736128
 11
-95.147788788
 21
-36.01313863
  0
LWPOLYLINE
  5
3AB
100
AcDbEntity
  8
0
100
AcDbPolyline
 62
7
  6
CONTINUOUS
 90
4
 70
0
 10
-96.852211212
 20
-34.98686137
 10
-96.7747633728
 20
-34.9470718005
 10
-96.747603948
 20
-34.9333229244
 10
-96.6899108284
 20
-34.9038025697
  0
LWPOLYLINE
  5
3AC
100
AcDbEntity
  8
0
100
AcDbPolyline
 62
7
  6
CONTINUOUS
 90
4
 70
0
 10
-95.147788788
 20
-36.01313863
 10
-95.2252366272
 20
-36.0529281995
 10
-95.252396052
 20
-36.0666770755
 10
-95.3100891716
 20
-36.0961974303
  0
LWPOLYLINE
  5
3AD
100
AcDbEntity
  8
0
100
AcDbPolyline
 62
7
  6
CONTINUOUS
 90
3
 70
0
 10
-96.6899108284
 20
-34.9038025697
 10
-96.6592374971
 20
-34.8883464759
 10
-96.6272974066
 20
-34.8727027659
  0
LWPOLYLINE
  5
3AE
100
AcDbEntity
  8
0
100
AcDbPolyline
 62
7
  6
CONTINUOUS
 90
3
 70
0
 10
-95.3100891716
 20
-36.0961974303
 10
-95.3407625029
 20
-36.1116535241
 10
-95.3727025934
 20
-36.1272972341
  0
LINE
  5
3AF
100
AcDbEntity
  8
0
100
AcDbLine
 62
7
  6
CONTINUOUS
 10
-96.5204046482
 20
-34.9795953519
 11
-96.5621339943
 21
-35.0000535044
  0
LINE
  5
3B0
100
AcDbEntity
  8
0
100
AcDbLine
 62
7
  6
CONTINUOUS
 10
-95.4795953518
 20
-36.0204046481
 11
-95.4378660057
 21
-35.9999464956
  0
LINE
  5
3B1
100
AcDbEntity
  8
TRASH
100
AcDbLine
 62
7
  6
CONTINUOUS
 10
-97.1449972701
 20
-35.2718517819
 11
-97.122106287
 21
-35.2611776274
  0
LINE
  5
3B2
100
AcDbEntity
  8
TRASH
100
AcDbLine
 62
7
  6
CONTINUOUS
 10
-94.877893713
 20
-35.7388223726
 11
-94.8550027299
 21
-35.7281482181
  0
LINE
  5
3B3
100
AcDbEntity
  8
0
100
AcDbLine
 62
7
  6
CONTINUOUS
 10
-96.5621339943
 20
-35.0000535044
 11
-96.5197267822
 21
-34.980282565
  0
LINE
  5
3B4
100
AcDbEntity
  8
0
100
AcDbLine
 62
7
  6
CONTINUOUS
 10
-95.4378660057
 20
-35.9999464956
 11
-95.4802732178
 21
-36.019717435
  0
LINE
  5
3B5
100
AcDbEntity
  8
0
100
AcDbLine
 62
7
  6
CONTINUOUS
 10
-97.1221028135
 20
-35.2611739822
 11
-96.6
 21
-35.017710713
  0
LINE
  5
3B6
100
AcDbEntity
  8
0
100
AcDbLine
 62
7
  6
CONTINUOUS
 10
-94.8778971865
 20
-35.7388260178
 11
-95.4
 21
-35.982289287
  0
LINE
  5
3B7
100
AcDbEntity
  8
0
100
AcDbLine
 62
7
  6
CONTINUOUS
 10
-97.6719912503
 20
-35.2718605079
 11
-97.5124034566
 21
-35.2369125547
  0
LINE
  5
3B8
100
AcDbEntity
  8
0
100
AcDbLine
 62
7
  6
CONTINUOUS
 10
97.5118997808
 20
-35.2369414919
 11
97.6720177359
 21
-35.2720547004
  0
LINE
  5
3B9
100
AcDbEntity
  8
0
100
AcDbLine
 62
7
  6
CONTINUOUS
 10
-96.5197234839
 20
34.9802765161
 11
-96.5621335303
 21
35.0000529828
  0
LINE
  5
3BA
100
AcDbEntity
  8
TRASH
100
AcDbLine
 62
7
  6
CONTINUOUS
 10
-97.1221062937
 20
35.2611776175
 11
-97.1449972769
 21
35.2718517719
  0
LINE
  5
3BB
100
AcDbEntity
  8
0
100
AcDbLine
 62
7
  6
CONTINUOUS
 10
-95.4802765161
 20
36.0197234839
 11
-95.4378664697
 21
35.9999470172
  0
LINE
  5
3BC
100
AcDbEntity
  8
TRASH
100
AcDbLine
 62
7
  6
CONTINUOUS
 10
-94.8778937063
 20
35.7388223825
 11
-94.8550027231
 21
35.7281482281
  0
LINE
  5
3BD
100
AcDbEntity
  8
0
100
AcDbLine
 62
7
  6
CONTINUOUS
 10
-96.6
 20
35.0177101929
 11
-97.1221066534
 21
35.261175259
  0
LINE
  5
3BE
100
AcDbEntity
  8
0
100
AcDbLine
 62
7
  6
CONTINUOUS
 10
-95.4
 20
35.9822898071
 11
-94.8778933466
 21
35.738824741
  0
LWPOLYLINE
  5
3BF
100
AcDbEntity
  8
0
100
AcDbPolyline
 62
7
  6
CONTINUOUS
 90
4
 70
0
 10
-96.6272975093
 20
34.8727024837
 10
-96.6591558065
 20
34.888308174
 10
-96.6897554608
 20
34.9037267397
 10
-96.7191594664
 20
34.9187978272
  0
LWPOLYLINE
  5
3C0
100
AcDbEntity
  8
0
100
AcDbPolyline
 62
7
  6
CONTINUOUS
 90
4
 70
0
 10
-95.3727024907
 20
36.1272975163
 10
-95.3408441935
 20
36.111691826
 10
-95.3102445392
 20
36.0962732603
 10
-95.2808405336
 20
36.0812021728
  0
LINE
  5
3C1
100
AcDbEntity
  8
0
100
AcDbLine
 62
7
  6
CONTINUOUS
 10
-96.5621335303
 20
35.0000529828
 11
-96.5204046482
 21
34.9795953518
  0
LINE
  5
3C2
100
AcDbEntity
  8
0
100
AcDbLine
 62
7
  6
CONTINUOUS
 10
-95.4378664697
 20
35.9999470172
 11
-95.4795953518
 21
36.0204046482
  0
LINE
  5
3C3
100
AcDbEntity
  8
0
100
AcDbLine
 62
7
  6
CONTINUOUS
 10
-96.7191594664
 20
34.9187978272
 11
-96.8008536937
 21
34.9604183046
  0
LINE
  5
3C4
100
AcDbEntity
  8
0
100
AcDbLine
 62
7
  6
CONTINUOUS
 10
-95.2808405336
 20
36.0812021728
 11
-95.1991463063
 21
36.0395816954
  0
LWPOLYLINE
  5
3C5
100
AcDbEntity
  8
0
100
AcDbPolyline
 62
7
  6
CONTINUOUS
 90
3
 70
0
 10
-96.8008536937
 20
34.9604183046
 10
-96.8766776316
 20
34.9995101966
 10
-96.9258947508
 20
35.0251039337
  0
LINE
  5
3C6
100
AcDbEntity
  8
0
100
AcDbLine
 62
7
  6
CONTINUOUS
 10
-95.1991463063
 20
36.0395816954
 11
-95.1233223684
 21
36.0004898034
  0
LINE
  5
3C7
100
AcDbEntity
  8
0
100
AcDbLine
 62
7
  6
CONTINUOUS
 10
-95.1233223684
 20
36.0004898034
 11
-95.0004861321
 21
35.9363522233
  0
LWPOLYLINE
  5
3C8
100
AcDbEntity
  8
0
100
AcDbPolyline
 62
7
  6
CONTINUOUS
 90
4
 70
0
 10
-95.0004861321
 20
35.9363522233
 10
-94.9019622533
 20
35.8842715128
 10
-94.8774107956
 20
35.8711775398
 10
-94.828395019
 20
35.8450726247
  0
LWPOLYLINE
  5
3C9
100
AcDbEntity
  8
0
100
AcDbPolyline
 62
7
  6
CONTINUOUS
 90
13
 70
0
 43
0.3500000006
 10
-1.1785713937
 20
51.1071438904
 10
-1.1785713937
 20
52.3928553314
 10
-0.9642857051
 20
52.821428833
 10
-0.5357142924
 20
53.2500023346
 10
-0.3214285684
 20
53.2500023346
 10
0.1071428532
 20
52.821428833
 10
0.3214285684
 20
52.3928553314
 10
0.3214285684
 20
51.1071438904
 10
0.1071428532
 20
50.6785703888
 10
-0.3214285684
 20
50.2500014191
 10
-0.5357142924
 20
50.2500014191
 10
-0.9642857051
 20
50.6785703888
 10
-1.1785713937
 20
51.1071438904
  0
LWPOLYLINE
  5
3CA
100
AcDbEntity
  8
0
100
AcDbPolyline
 62
7
  6
CONTINUOUS
 90
4
 70
0
 43
0.3500000006
 10
108.8214326477
 20
-2.2499998741
 10
107.9642856445
 20
-2.2499998741
 10
107.5357166748
 20
-1.8214286385
 10
107.5357166748
 20
-1.178571785
  0
LINE
  5
3CB
100
AcDbEntity
  8
RACCORDO
100
AcDbLine
 62
250
  6
CONTINUOUS
 10
100.2945201975
 20
0.0001239468
 11
101.7986786601
 21
0.0001785247
  0
LINE
  5
3CC
100
AcDbEntity
  8
RACCORDO
100
AcDbLine
 62
250
  6
CONTINUOUS
 10
-96.88791189
 20
-0.0000151605
 11
-99.1700626215
 21
0.0000331302
  0
LINE
  5
3CD
100
AcDbEntity
  8
RACCORDO
100
AcDbLine
 62
250
  6
CONTINUOUS
 10
-99.1700626215
 20
0.0000331302
 11
-101.7986786601
 21
0.0001785247
  0
LINE
  5
3CE
100
AcDbEntity
  8
RACCORDO
100
AcDbLine
 62
250
  6
CONTINUOUS
 10
95.7307544394
 20
0.0000615043
 11
100.2945186573
 21
-0.0000056267
  0
LWPOLYLINE
  5
3CF
100
AcDbEntity
  8
RACCORDO
100
AcDbPolyline
 62
250
  6
CONTINUOUS
 90
3
 70
0
 10
80.6023182284
 20
0.0000723827
 10
89.7968780061
 20
0.0018208951
 10
91.0024680805
 20
0.0015024321
  0
LWPOLYLINE
  5
3D0
100
AcDbEntity
  8
RACCORDO
100
AcDbPolyline
 62
250
  6
CONTINUOUS
 90
3
 70
0
 10
-83.6416002369
 20
0.0005705934
 10
-86.12792172
 20
0.001464095
 10
-96.88791189
 20
-0.0000151605
  0
LINE
  5
3D1
100
AcDbEntity
  8
RACCORDO
100
AcDbLine
 62
250
  6
CONTINUOUS
 10
-80.6023182285
 20
0.0000723827
 11
-83.6416002369
 21
0.0005705934
  0
LWPOLYLINE
  5
3D2
100
AcDbEntity
  8
RACCORDO
100
AcDbPolyline
 62
250
  6
CONTINUOUS
 90
3
 70
0
 10
91.0024680805
 20
0.0015024321
 10
93.3859010008
 20
0.0006188472
 10
95.7307544394
 20
0.0000615043
  0
LWPOLYLINE
  5
3D3
100
AcDbEntity
  8
0
100
AcDbPolyline
 62
7
  6
CONTINUOUS
 90
2
 70
0
 43
0.3500000006
 10
2.1785714865
 20
50.2500014191
 10
2.1785714865
 20
51.7500018768
  0
LINE
  5
3D4
100
AcDbEntity
  8
RACCORDO
100
AcDbLine
 62
250
  6
CONTINUOUS
 10
8.0936465831
 20
22.2
 11
8.0936465831
 21
-22.2
  0
LINE
  5
3D5
100
AcDbEntity
  8
TRASH
100
AcDbLine
 62
7
  6
CONTINUOUS
 10
94.8550027299
 20
35.7281482181
 11
94.877893713
 21
35.7388223726
  0
LINE
  5
3D6
100
AcDbEntity
  8
0
100
AcDbLine
 62
7
  6
CONTINUOUS
 10
95.4378660057
 20
35.9999464956
 11
95.4802732178
 21
36.019717435
  0
LINE
  5
3D7
100
AcDbEntity
  8
0
100
AcDbLine
 62
7
  6
CONTINUOUS
 10
94.8778971865
 20
35.7388260178
 11
95.4
 21
35.982289287
  0
LINE
  5
3D8
100
AcDbEntity
  8
TRASH
100
AcDbLine
 62
7
  6
CONTINUOUS
 10
94.8778937063
 20
-35.7388223825
 11
94.8550027231
 21
-35.7281482281
  0
LINE
  5
3D9
100
AcDbEntity
  8
0
100
AcDbLine
 62
7
  6
CONTINUOUS
 10
95.4802765161
 20
-36.0197234839
 11
95.4378664697
 21
-35.9999470172
  0
LINE
  5
3DA
100
AcDbEntity
  8
0
100
AcDbLine
 62
7
  6
CONTINUOUS
 10
95.4
 20
-35.9822898071
 11
94.8778933466
 21
-35.738824741
  0
LINE
  5
3DB
100
AcDbEntity
  8
RACCORDO
100
AcDbLine
 62
250
  6
CONTINUOUS
 10
9.8984116458
 20
22.2
 11
9.8984116458
 21
-22.2
  0
LINE
  5
3DC
100
AcDbEntity
  8
0
100
AcDbLine
 62
7
  6
CONTINUOUS
 10
11.5
 20
22.2
 11
11.5
 21
-22.2
  0
LINE
  5
3DD
100
AcDbEntity
  8
RACCORDO
100
AcDbLine
 62
250
  6
CONTINUOUS
 10
11.8
 20
-22.5
 11
11.8
 21
-25.8770236833
  0
LINE
  5
3DE
100
AcDbEntity
  8
RACCORDO
100
AcDbLine
 62
250
  6
CONTINUOUS
 10
11.8
 20
22.5
 11
11.8
 21
25.8770237531
  0
LINE
  5
3DF
100
AcDbEntity
  8
0
100
AcDbLine
 62
7
  6
CONTINUOUS
 10
94.8283951111
 20
35.8450726739
 11
94.9759195551
 21
35.923409377
  0
LINE
  5
3E0
100
AcDbEntity
  8
0
100
AcDbLine
 62
7
  6
CONTINUOUS
 10
97.1716048889
 20
35.1549273261
 11
97.0240804449
 21
35.076590623
  0
LINE
  5
3E1
100
AcDbEntity
  8
0
100
AcDbLine
 62
7
  6
CONTINUOUS
 10
94.9759195551
 20
35.923409377
 11
95.0738016863
 21
35.974736128
  0
LINE
  5
3E2
100
AcDbEntity
  8
0
100
AcDbLine
 62
7
  6
CONTINUOUS
 10
97.0240804449
 20
35.076590623
 11
96.9261983137
 21
35.025263872
  0
LINE
  5
3E3
100
AcDbEntity
  8
0
100
AcDbLine
 62
7
  6
CONTINUOUS
 10
95.0738016863
 20
35.974736128
 11
95.147788788
 21
36.01313863
  0
LINE
  5
3E4
100
AcDbEntity
  8
0
100
AcDbLine
 62
7
  6
CONTINUOUS
 10
96.9261983137
 20
35.025263872
 11
96.852211212
 21
34.98686137
  0
LWPOLYLINE
  5
3E5
100
AcDbEntity
  8
0
100
AcDbPolyline
 62
7
  6
CONTINUOUS
 90
4
 70
0
 10
95.147788788
 20
36.01313863
 10
95.2252366272
 20
36.0529281995
 10
95.252396052
 20
36.0666770756
 10
95.3100891716
 20
36.0961974303
  0
LWPOLYLINE
  5
3E6
100
AcDbEntity
  8
0
100
AcDbPolyline
 62
7
  6
CONTINUOUS
 90
4
 70
0
 10
96.852211212
 20
34.98686137
 10
96.7747633728
 20
34.9470718005
 10
96.747603948
 20
34.9333229245
 10
96.6899108284
 20
34.9038025697
  0
LWPOLYLINE
  5
3E7
100
AcDbEntity
  8
0
100
AcDbPolyline
 62
7
  6
CONTINUOUS
 90
3
 70
0
 10
95.3100891716
 20
36.0961974303
 10
95.3407625029
 20
36.1116535241
 10
95.3727025934
 20
36.1272972341
  0
LWPOLYLINE
  5
3E8
100
AcDbEntity
  8
0
100
AcDbPolyline
 62
7
  6
CONTINUOUS
 90
3
 70
0
 10
96.6899108284
 20
34.9038025697
 10
96.6592374971
 20
34.8883464759
 10
96.6272974066
 20
34.8727027659
  0
LINE
  5
3E9
100
AcDbEntity
  8
0
100
AcDbLine
 62
7
  6
CONTINUOUS
 10
95.4795953518
 20
36.0204046481
 11
95.4378660057
 21
35.9999464956
  0
LINE
  5
3EA
100
AcDbEntity
  8
0
100
AcDbLine
 62
7
  6
CONTINUOUS
 10
96.5204046482
 20
34.9795953519
 11
96.5621339943
 21
35.0000535044
  0
LINE
  5
3EB
100
AcDbEntity
  8
TRASH
100
AcDbLine
 62
7
  6
CONTINUOUS
 10
97.122106287
 20
35.2611776274
 11
97.1449972701
 21
35.2718517819
  0
LINE
  5
3EC
100
AcDbEntity
  8
0
100
AcDbLine
 62
7
  6
CONTINUOUS
 10
96.5621339943
 20
35.0000535044
 11
96.5197267822
 21
34.980282565
  0
LINE
  5
3ED
100
AcDbEntity
  8
0
100
AcDbLine
 62
7
  6
CONTINUOUS
 10
97.1221028135
 20
35.2611739822
 11
96.6
 21
35.017710713
  0
LINE
  5
3EE
100
AcDbEntity
  8
0
100
AcDbLine
 62
7
  6
CONTINUOUS
 10
97.6719912502
 20
35.2718605073
 11
97.4052030739
 21
35.213691787
  0
LINE
  5
3EF
100
AcDbEntity
  8
0
100
AcDbLine
 62
7
  6
CONTINUOUS
 10
94.3280087497
 20
35.7281394921
 11
94.5947969249
 21
35.7863082122
  0
LINE
  5
3F0
100
AcDbEntity
  8
0
100
AcDbLine
 62
7
  6
CONTINUOUS
 10
97.4052030739
 20
35.213691787
 11
97.190047748
 21
35.1676955411
  0
LINE
  5
3F1
100
AcDbEntity
  8
0
100
AcDbLine
 62
7
  6
CONTINUOUS
 10
94.5947969249
 20
35.7863082122
 11
94.8099522509
 21
35.8323044581
  0
LINE
  5
3F2
100
AcDbEntity
  8
0
100
AcDbLine
 62
7
  6
CONTINUOUS
 10
-97.5119012961
 20
35.2369418223
 11
-97.1898066956
 21
35.1675285871
  0
LINE
  5
3F3
100
AcDbEntity
  8
0
100
AcDbLine
 62
7
  6
CONTINUOUS
 10
-94.8101933044
 20
35.8324714129
 11
-94.4881002192
 21
35.7630585081
  0
LINE
  5
3F4
100
AcDbEntity
  8
0
100
AcDbLine
 62
7
  6
CONTINUOUS
 10
-97.6720177359
 20
35.2720547004
 11
-97.5119012961
 21
35.2369418223
  0
LINE
  5
3F5
100
AcDbEntity
  8
0
100
AcDbLine
 62
7
  6
CONTINUOUS
 10
-94.4881002192
 20
35.7630585081
 11
-94.3279822641
 21
35.7279452996
  0
LINE
  5
3F6
100
AcDbEntity
  8
TRASH
100
AcDbLine
 62
7
  6
CONTINUOUS
 10
97.1221062937
 20
-35.2611776175
 11
97.1449972769
 21
-35.2718517719
  0
LINE
  5
3F7
100
AcDbEntity
  8
0
100
AcDbLine
 62
7
  6
CONTINUOUS
 10
96.5197234839
 20
-34.9802765161
 11
96.5621335303
 21
-35.0000529828
  0
LINE
  5
3F8
100
AcDbEntity
  8
0
100
AcDbLine
 62
7
  6
CONTINUOUS
 10
96.6
 20
-35.0177101929
 11
97.1221066534
 21
-35.261175259
  0
LWPOLYLINE
  5
3F9
100
AcDbEntity
  8
0
100
AcDbPolyline
 62
7
  6
CONTINUOUS
 90
4
 70
0
 10
95.3727024907
 20
-36.1272975163
 10
95.3408441935
 20
-36.111691826
 10
95.3102445392
 20
-36.0962732603
 10
95.2808405336
 20
-36.0812021728
  0
LWPOLYLINE
  5
3FA
100
AcDbEntity
  8
0
100
AcDbPolyline
 62
7
  6
CONTINUOUS
 90
4
 70
0
 10
96.6272975093
 20
-34.8727024837
 10
96.6591558065
 20
-34.888308174
 10
96.6897554608
 20
-34.9037267397
 10
96.7191594664
 20
-34.9187978272
  0
LINE
  5
3FB
100
AcDbEntity
  8
0
100
AcDbLine
 62
7
  6
CONTINUOUS
 10
95.4378664697
 20
-35.9999470172
 11
95.4795953518
 21
-36.0204046482
  0
LINE
  5
3FC
100
AcDbEntity
  8
0
100
AcDbLine
 62
7
  6
CONTINUOUS
 10
96.5621335303
 20
-35.0000529828
 11
96.5204046482
 21
-34.9795953518
  0
LINE
  5
3FD
100
AcDbEntity
  8
0
100
AcDbLine
 62
7
  6
CONTINUOUS
 10
95.2808405336
 20
-36.0812021728
 11
95.1991463063
 21
-36.0395816954
  0
LINE
  5
3FE
100
AcDbEntity
  8
0
100
AcDbLine
 62
7
  6
CONTINUOUS
 10
96.7191594664
 20
-34.9187978272
 11
96.8008536937
 21
-34.9604183046
  0
LINE
  5
3FF
100
AcDbEntity
  8
0
100
AcDbLine
 62
7
  6
CONTINUOUS
 10
95.1991463063
 20
-36.0395816954
 11
95.1233223684
 21
-36.0004898034
  0
LINE
  5
400
100
AcDbEntity
  8
0
100
AcDbLine
 62
7
  6
CONTINUOUS
 10
96.8008536937
 20
-34.9604183046
 11
96.8766776316
 21
-34.9995101966
  0
LINE
  5
401
100
AcDbEntity
  8
0
100
AcDbLine
 62
7
  6
CONTINUOUS
 10
95.1233223684
 20
-36.0004898034
 11
95.0004861321
 21
-35.9363522233
  0
LINE
  5
402
100
AcDbEntity
  8
0
100
AcDbLine
 62
7
  6
CONTINUOUS
 10
96.8766776316
 20
-34.9995101966
 11
96.9995138679
 21
-35.0636477767
  0
LWPOLYLINE
  5
403
100
AcDbEntity
  8
0
100
AcDbPolyline
 62
7
  6
CONTINUOUS
 90
4
 70
0
 10
95.0004861321
 20
-35.9363522233
 10
94.9019622533
 20
-35.8842715128
 10
94.8774107956
 20
-35.8711775398
 10
94.828395019
 20
-35.8450726247
  0
LWPOLYLINE
  5
404
100
AcDbEntity
  8
0
100
AcDbPolyline
 62
7
  6
CONTINUOUS
 90
4
 70
0
 10
96.9995138679
 20
-35.0636477767
 10
97.0980377467
 20
-35.1157284872
 10
97.1225892044
 20
-35.1288224602
 10
97.171604981
 20
-35.1549273753
  0
LWPOLYLINE
  5
405
100
AcDbEntity
  8
RACCORDO
100
AcDbPolyline
 62
250
  6
CONTINUOUS
 90
10
 70
0
 10
-10.7607679021
 20
23.7924933902
 10
-10.8654400825
 20
23.8561949087
 10
-10.9738997224
 20
23.9130014889
 10
-11.0856923583
 20
23.9626965129
 10
-11.2003375284
 20
24.0051081433
 10
-11.3173754831
 20
24.04006706
 10
-11.4363593327
 20
24.0673981045
 10
-11.5568010354
 20
24.0869830484
 10
-11.6781833797
 20
24.0987696955
 10
-11.8
 20
24.1027230177
  0
LINE
  5
406
100
AcDbEntity
  8
RACCORDO
100
AcDbLine
 62
7
  6
CONTINUOUS
 10
19.8041107013
 20
22.4
 11
19.8023651948
 21
22.5
  0
LINE
  5
407
100
AcDbEntity
  8
RACCORDO
100
AcDbLine
 62
7
  6
CONTINUOUS
 10
19.8023651948
 20
-22.5
 11
19.8041107013
 21
-22.4
  0
LINE
  5
408
100
AcDbEntity
  8
RACCORDO
100
AcDbLine
 62
250
  6
CONTINUOUS
 10
9.7744477246
 20
-25.3039001
 11
10.760766547
 21
-23.7924925059
  0
LINE
  5
409
100
AcDbEntity
  8
RACCORDO
100
AcDbLine
 62
250
  6
CONTINUOUS
 10
8.0936465831
 20
22.2
 11
11.5
 21
22.2
  0
LINE
  5
40A
100
AcDbEntity
  8
RACCORDO
100
AcDbLine
 62
250
  6
CONTINUOUS
 10
-8.0936465831
 20
22.2
 11
-11.5
 21
22.2
  0
LINE
  5
40B
100
AcDbEntity
  8
RACCORDO
100
AcDbLine
 62
250
  6
CONTINUOUS
 10
-79.0
 20
22.2
 11
-82.3879616767
 21
22.1990749505
  0
LINE
  5
40C
100
AcDbEntity
  8
RACCORDO
100
AcDbLine
 62
7
  6
CONTINUOUS
 10
70.6958892987
 20
22.4
 11
64.8041107013
 21
22.4
  0
LINE
  5
40D
100
AcDbEntity
  8
RACCORDO
100
AcDbLine
 62
7
  6
CONTINUOUS
 10
48.1958892987
 20
22.4
 11
42.3041107013
 21
22.4
  0
LINE
  5
40E
100
AcDbEntity
  8
RACCORDO
100
AcDbLine
 62
7
  6
CONTINUOUS
 10
25.6958892987
 20
22.4
 11
19.8041107013
 21
22.4
  0
LINE
  5
40F
100
AcDbEntity
  8
RACCORDO
100
AcDbLine
 62
7
  6
CONTINUOUS
 10
-19.8041107013
 20
22.4
 11
-25.6958892987
 21
22.4
  0
LINE
  5
410
100
AcDbEntity
  8
RACCORDO
100
AcDbLine
 62
7
  6
CONTINUOUS
 10
-42.3041107013
 20
22.4
 11
-48.1958892987
 21
22.4
  0
LINE
  5
411
100
AcDbEntity
  8
RACCORDO
100
AcDbLine
 62
7
  6
CONTINUOUS
 10
-64.8041107013
 20
22.4
 11
-70.6958892987
 21
22.4
  0
LINE
  5
412
100
AcDbEntity
  8
0
100
AcDbLine
 62
7
  6
CONTINUOUS
 10
78.7
 20
22.5
 11
11.8
 21
22.5
  0
LINE
  5
413
100
AcDbEntity
  8
0
100
AcDbLine
 62
7
  6
CONTINUOUS
 10
-11.8
 20
22.5
 11
-78.7
 21
22.5
  0
LINE
  5
414
100
AcDbEntity
  8
RACCORDO
100
AcDbLine
 62
250
  6
CONTINUOUS
 10
82.3879617503
 20
22.1990749536
 11
79.0
 21
22.2
  0
LWPOLYLINE
  5
415
100
AcDbEntity
  8
RACCORDO
100
AcDbPolyline
 62
250
  6
CONTINUOUS
 90
10
 70
0
 10
-9.7744503658
 20
25.3039018236
 10
-9.9799391095
 20
25.4219067332
 10
-10.1910146472
 20
25.5265523739
 10
-10.4076769787
 20
25.6178383604
 10
-10.6308510537
 20
25.6960602684
 10
-10.8596119225
 20
25.7609225503
 10
-11.0911847365
 20
25.8115384726
 10
-11.3246445459
 20
25.8476126665
 10
-11.5609163004
 20
25.8694410367
 10
-11.8
 20
25.8770237531
  0
LINE
  5
416
100
AcDbEntity
  8
RACCORDO
100
AcDbLine
 62
250
  6
CONTINUOUS
 10
9.7744503659
 20
25.3039018237
 11
10.7607679021
 21
23.7924933902
  0
LINE
  5
417
100
AcDbEntity
  8
RACCORDO
100
AcDbLine
 62
7
  6
CONTINUOUS
 10
25.6958892987
 20
-22.4
 11
25.6976348052
 21
-22.5
  0
LINE
  5
418
100
AcDbEntity
  8
RACCORDO
100
AcDbLine
 62
7
  6
CONTINUOUS
 10
25.6976348052
 20
22.5
 11
25.6958892987
 21
22.4
  0
LINE
  5
419
100
AcDbEntity
  8
0
100
AcDbLine
 62
7
  6
CONTINUOUS
 10
94.8099522509
 20
35.8323044581
 11
94.8283951111
 21
35.8450726739
  0
LINE
  5
41A
100
AcDbEntity
  8
0
100
AcDbLine
 62
7
  6
CONTINUOUS
 10
97.1716048889
 20
35.1549273261
 11
97.190047748
 21
35.1676955411
  0
LWPOLYLINE
  5
41B
100
AcDbEntity
  8
RACCORDO
100
AcDbPolyline
 62
250
  6
CONTINUOUS
 90
10
 70
0
 10
11.8
 20
24.1027230177
 10
11.6781971639
 20
24.0987728157
 10
11.5567903172
 20
24.0869851556
 10
11.4362870294
 20
24.0673877788
 10
11.3171619512
 20
24.0400134345
 10
11.1999526574
 20
24.0049801811
 10
11.0852387208
 20
23.9625108285
 10
10.9735154356
 20
23.9128140233
 10
10.8652106699
 20
23.8560639075
 10
10.7607679021
 20
23.7924933902
  0
LWPOLYLINE
  5
41C
100
AcDbEntity
  8
RACCORDO
100
AcDbPolyline
 62
250
  6
CONTINUOUS
 90
10
 70
0
 10
11.8
 20
25.8770237531
 10
11.5608077192
 20
25.8694679697
 10
11.3244100033
 20
25.8476310139
 10
11.0908068523
 20
25.8115127153
 10
10.8590139492
 20
25.760778787
 10
10.6300156111
 20
25.6957629774
 10
10.4067647886
 20
25.6174671652
 10
10.1902457987
 20
25.5262252826
 10
9.9794743244
 20
25.4217033738
 10
9.7744503658
 20
25.3039018236
  0
LWPOLYLINE
  5
41D
100
AcDbEntity
  8
RACCORDO
100
AcDbPolyline
 62
250
  6
CONTINUOUS
 90
22
 70
0
 10
-78.6944817967
 20
25.8811687826
 10
-78.893545885
 20
25.8755765597
 10
-79.0980140736
 20
25.858495038
 10
-79.3081138586
 20
25.8290822427
 10
-79.5241522593
 20
25.7862507482
 10
-79.7459736876
 20
25.7283056327
 10
-79.9728591726
 20
25.6532419695
 10
-80.2025798924
 20
25.5603821977
 10
-80.4339320411
 20
25.44805421
 10
-80.6674231966
 20
25.3131467659
 10
-80.8987871798
 20
25.1539243298
 10
-81.1253307889
 20
24.9706458155
 10
-81.3494076263
 20
24.7630343721
 10
-81.5657716438
 20
24.5237179988
 10
-81.7631599104
 20
24.255320729
 10
-81.9358636858
 20
23.9731861322
 10
-82.0861899427
 20
23.6785246647
 10
-82.2058679008
 20
23.3694681061
 10
-82.2873518821
 20
23.0619884221
 10
-82.3377646415
 20
22.7648988822
 10
-82.3692264278
 20
22.4764299087
 10
-82.3879616569
 20
22.1990749496
  0
LWPOLYLINE
  5
41E
100
AcDbEntity
  8
RACCORDO
100
AcDbPolyline
 62
250
  6
CONTINUOUS
 90
22
 70
0
 10
-78.7
 20
24.1025681183
 10
-78.8016696776
 20
24.0999701429
 10
-78.9071485372
 20
24.0914794366
 10
-79.0160512201
 20
24.0764387027
 10
-79.1276355603
 20
24.0542581523
 10
-79.2416373634
 20
24.0242623803
 10
-79.3582200497
 20
23.9855299475
 10
-79.4765447935
 20
23.9373301912
 10
-79.5957420531
 20
23.8789458393
 10
-79.7156140171
 20
23.8092013928
 10
-79.8350276626
 20
23.7272163737
 10
-79.9523346437
 20
23.6324542969
 10
-80.0661759514
 20
23.5241645401
 10
-80.1761882169
 20
23.4001158698
 10
-80.2785169896
 20
23.2617186621
 10
-80.367742341
 20
23.1150156909
 10
-80.4431526536
 20
22.9614836372
 10
-80.5043625828
 20
22.8021940241
 10
-80.5495724225
 20
22.6442955515
 10
-80.5797249002
 20
22.4913982634
 10
-80.5967975509
 20
22.3429367208
 10
-80.6021819848
 20
22.2
  0
LWPOLYLINE
  5
41F
100
AcDbEntity
  8
RACCORDO
100
AcDbPolyline
 62
250
  6
CONTINUOUS
 90
4
 70
0
 10
76.191266555
 20
25.8779910683
 10
75.9138254817
 20
25.8746136897
 10
75.6259089671
 20
25.8723664286
 10
75.3276762011
 20
25.8714675174
  0
LWPOLYLINE
  5
420
100
AcDbEntity
  8
RACCORDO
100
AcDbPolyline
 62
250
  6
CONTINUOUS
 90
5
 70
0
 10
75.3276762011
 20
25.8714675174
 10
74.6974522989
 20
25.8649749778
 10
74.3631289849
 20
25.8654999555
 10
74.016432021
 20
25.8673821728
 10
73.2857498154
 20
25.8678718331
  0
LINE
  5
421
100
AcDbEntity
  8
RACCORDO
100
AcDbLine
 62
250
  6
CONTINUOUS
 10
77.2096184201
 20
25.8828672298
 11
76.191266555
 21
25.8779910683
  0
LINE
  5
422
100
AcDbEntity
  8
RACCORDO
100
AcDbLine
 62
250
  6
CONTINUOUS
 10
78.6944817967
 20
25.8811687826
 11
78.5045665141
 21
25.880649203
  0
LWPOLYLINE
  5
423
100
AcDbEntity
  8
RACCORDO
100
AcDbPolyline
 62
250
  6
CONTINUOUS
 90
4
 70
0
 10
-70.2941701256
 20
25.8734177865
 10
-70.7182297421
 20
25.872371209
 10
-71.1289808819
 20
25.8713394226
 10
-71.5262199319
 20
25.8713222608
  0
LINE
  5
424
100
AcDbEntity
  8
RACCORDO
100
AcDbLine
 62
250
  6
CONTINUOUS
 10
-78.0353590774
 20
25.8832396668
 11
-78.5388230257
 21
25.8810547318
  0
LWPOLYLINE
  5
425
100
AcDbEntity
  8
RACCORDO
100
AcDbPolyline
 62
250
  6
CONTINUOUS
 90
5
 70
0
 10
-73.9954508651
 20
25.8673911034
 10
-74.6063481948
 20
25.8655879907
 10
-74.8949699085
 20
25.8678181086
 10
-75.1724509582
 20
25.8699774402
 10
-75.4400478546
 20
25.8707244032
  0
LINE
  5
426
100
AcDbEntity
  8
RACCORDO
100
AcDbLine
 62
250
  6
CONTINUOUS
 10
-71.5262199319
 20
25.8713222608
 11
-73.3425232613
 21
25.867947267
  0
LINE
  5
427
100
AcDbEntity
  8
RACCORDO
100
AcDbLine
 62
250
  6
CONTINUOUS
 10
-73.3425232613
 20
25.867947267
 11
-73.9954508651
 21
25.8673911034
  0
LINE
  5
428
100
AcDbEntity
  8
RACCORDO
100
AcDbLine
 62
250
  6
CONTINUOUS
 10
71.2665618796
 20
25.8719110666
 11
70.8293694504
 21
25.8717974362
  0
LINE
  5
429
100
AcDbEntity
  8
RACCORDO
100
AcDbLine
 62
250
  6
CONTINUOUS
 10
-33.9896098771
 20
25.8770204999
 11
-46.302911068
 21
25.8738918032
  0
LINE
  5
42A
100
AcDbEntity
  8
RACCORDO
100
AcDbLine
 62
250
  6
CONTINUOUS
 10
78.7
 20
24.1025681183
 11
11.8
 21
24.1027230177
  0
LINE
  5
42B
100
AcDbEntity
  8
RACCORDO
100
AcDbLine
 62
250
  6
CONTINUOUS
 10
-11.8
 20
24.1027230177
 11
-78.7
 21
24.1025681183
  0
LINE
  5
42C
100
AcDbEntity
  8
RACCORDO
100
AcDbLine
 62
250
  6
CONTINUOUS
 10
9.7744503658
 20
25.3039018236
 11
-9.7744503658
 21
25.3039018236
  0
LINE
  5
42D
100
AcDbEntity
  8
RACCORDO
100
AcDbLine
 62
250
  6
CONTINUOUS
 10
-52.6295892782
 20
25.8730290756
 11
-55.938347566
 21
25.8727956802
  0
LINE
  5
42E
100
AcDbEntity
  8
RACCORDO
100
AcDbLine
 62
250
  6
CONTINUOUS
 10
-11.8
 20
25.8770237531
 11
-33.9896098814
 21
25.8770237529
  0
LINE
  5
42F
100
AcDbEntity
  8
RACCORDO
100
AcDbLine
 62
250
  6
CONTINUOUS
 10
-46.302911068
 20
25.8738918032
 11
-52.6295892782
 21
25.8730290756
  0
LWPOLYLINE
  5
430
100
AcDbEntity
  8
RACCORDO
100
AcDbPolyline
 62
250
  6
CONTINUOUS
 90
3
 70
0
 10
69.916090506
 20
25.873822389
 10
68.4481374282
 20
25.8731723524
 10
66.8548748366
 20
25.8725080311
  0
LINE
  5
431
100
AcDbEntity
  8
RACCORDO
100
AcDbLine
 62
250
  6
CONTINUOUS
 10
61.2618389797
 20
25.8727268545
 11
36.0353533468
 21
25.8762783684
  0
LINE
  5
432
100
AcDbEntity
  8
RACCORDO
100
AcDbLine
 62
250
  6
CONTINUOUS
 10
36.0353533468
 20
25.8762783684
 11
11.8
 21
25.8770237531
  0
LINE
  5
433
100
AcDbEntity
  8
RACCORDO
100
AcDbLine
 62
250
  6
CONTINUOUS
 10
66.8548748366
 20
25.8725080311
 11
64.5268322755
 21
25.8718208134
  0
LINE
  5
434
100
AcDbEntity
  8
RACCORDO
100
AcDbLine
 62
250
  6
CONTINUOUS
 10
-78.5388230257
 20
25.8810547318
 11
-78.6944817967
 21
25.8811687826
  0
LINE
  5
435
100
AcDbEntity
  8
RACCORDO
100
AcDbLine
 62
250
  6
CONTINUOUS
 10
64.5268322755
 20
25.8718208134
 11
61.2618389797
 21
25.8727268545
  0
LINE
  5
436
100
AcDbEntity
  8
RACCORDO
100
AcDbLine
 62
250
  6
CONTINUOUS
 10
-67.9553578412
 20
25.8729578464
 11
-70.2941701256
 21
25.8734177865
  0
LWPOLYLINE
  5
437
100
AcDbEntity
  8
RACCORDO
100
AcDbPolyline
 62
250
  6
CONTINUOUS
 90
3
 70
0
 10
-55.938347566
 20
25.8727956802
 10
-66.3474344936
 20
25.8723725028
 10
-67.9553578412
 20
25.8729578464
  0
LINE
  5
438
100
AcDbEntity
  8
RACCORDO
100
AcDbLine
 62
250
  6
CONTINUOUS
 10
70.8293694504
 20
25.8717974362
 11
69.916090506
 21
25.873822389
  0
LINE
  5
439
100
AcDbEntity
  8
RACCORDO
100
AcDbLine
 62
250
  6
CONTINUOUS
 10
73.2857498154
 20
25.8678718331
 11
71.2665618796
 21
25.8719110666
  0
LINE
  5
43A
100
AcDbEntity
  8
RACCORDO
100
AcDbLine
 62
250
  6
CONTINUOUS
 10
-76.6479573074
 20
25.8807144008
 11
-78.0353590774
 21
25.8832396668
  0
LWPOLYLINE
  5
43B
100
AcDbEntity
  8
RACCORDO
100
AcDbPolyline
 62
250
  6
CONTINUOUS
 90
3
 70
0
 10
78.5045665141
 20
25.880649203
 10
78.1012488821
 20
25.8830875813
 10
77.2096184201
 20
25.8828672298
  0
LINE
  5
43C
100
AcDbEntity
  8
RACCORDO
100
AcDbLine
 62
250
  6
CONTINUOUS
 10
-75.4400478546
 20
25.8707244032
 11
-76.6479573074
 21
25.8807144008
  0
LINE
  5
43D
100
AcDbEntity
  8
0
100
AcDbLine
 62
7
  6
CONTINUOUS
 10
94.8101933044
 20
-35.8324714129
 11
94.828395019
 21
-35.8450726247
  0
LINE
  5
43E
100
AcDbEntity
  8
0
100
AcDbLine
 62
7
  6
CONTINUOUS
 10
97.171604981
 20
-35.1549273753
 11
97.1898066956
 21
-35.1675285871
  0
LINE
  5
43F
100
AcDbEntity
  8
RACCORDO
100
AcDbLine
 62
250
  6
CONTINUOUS
 10
34.0070011698
 20
38.8749975535
 11
34.0047471505
 21
39.9340818754
  0
LINE
  5
440
100
AcDbEntity
  8
RACCORDO
100
AcDbLine
 62
250
  6
CONTINUOUS
 10
34.0067046964
 20
-34.4236964827
 11
33.9916500251
 21
-27.1519574352
  0
LINE
  5
441
100
AcDbEntity
  8
RACCORDO
100
AcDbLine
 62
250
  6
CONTINUOUS
 10
34.0085963484
 20
-36.6899277239
 11
34.0067046964
 21
-34.4236964827
  0
LINE
  5
442
100
AcDbEntity
  8
RACCORDO
100
AcDbLine
 62
250
  6
CONTINUOUS
 10
34.0085964805
 20
36.6922121933
 11
34.0070011698
 21
38.8749975535
  0
LINE
  5
443
100
AcDbEntity
  8
RACCORDO
100
AcDbLine
 62
250
  6
CONTINUOUS
 10
33.9896098814
 20
25.8770237529
 11
33.9896098814
 21
24.1027230177
  0
LINE
  5
444
100
AcDbEntity
  8
RACCORDO
100
AcDbLine
 62
250
  6
CONTINUOUS
 10
34.0014312601
 20
39.9340380644
 11
34.0014312601
 21
41.2986874863
  0
LINE
  5
445
100
AcDbEntity
  8
RACCORDO
100
AcDbLine
 62
250
  6
CONTINUOUS
 10
33.9916500251
 20
-27.1519574352
 11
33.9896311986
 21
-25.4550485286
  0
LINE
  5
446
100
AcDbEntity
  8
RACCORDO
100
AcDbLine
 62
250
  6
CONTINUOUS
 10
33.9896311986
 20
-25.4550485286
 11
33.9896098835
 21
-24.1027230241
  0
LINE
  5
447
100
AcDbEntity
  8
RACCORDO
100
AcDbLine
 62
250
  6
CONTINUOUS
 10
34.0067095783
 20
34.426852203
 11
34.0085964805
 21
36.6922121933
  0
LINE
  5
448
100
AcDbEntity
  8
RACCORDO
100
AcDbLine
 62
250
  6
CONTINUOUS
 10
33.9896098771
 20
25.8770204999
 11
33.9967554686
 21
29.6520442354
  0
LWPOLYLINE
  5
449
100
AcDbEntity
  8
RACCORDO
100
AcDbPolyline
 62
250
  6
CONTINUOUS
 90
3
 70
0
 10
34.004747151
 20
-39.9340816559
 10
34.0070026327
 20
-38.8740890363
 10
34.0085963484
 20
-36.6899277239
  0
LINE
  5
44A
100
AcDbEntity
  8
RACCORDO
100
AcDbLine
 62
250
  6
CONTINUOUS
 10
33.9967554686
 20
29.6520442354
 11
34.0067095783
 21
34.426852203
  0
LINE
  5
44B
100
AcDbEntity
  8
RACCORDO
100
AcDbLine
 62
250
  6
CONTINUOUS
 10
34.0013539484
 20
-39.9340380355
 11
33.9996232713
 21
-40.7825596248
  0
LWPOLYLINE
  5
44C
100
AcDbEntity
  8
RACCORDO
100
AcDbPolyline
 62
250
  6
CONTINUOUS
 90
5
 70
0
 10
33.9996232713
 20
-40.7825596248
 10
33.9974739318
 20
-41.1942895873
 10
33.9968812349
 20
-41.2496941473
 10
33.9962693998
 20
-41.2846156238
 10
33.9956384265
 20
-41.2986873353
  0
LWPOLYLINE
  5
44D
100
AcDbEntity
  8
RACCORDO
100
AcDbPolyline
 62
250
  6
CONTINUOUS
 90
13
 70
0
 10
-100.2079002573
 20
35.6024097052
 10
-100.4250148694
 20
35.5991785555
 10
-100.634263731
 20
35.5946940412
 10
-100.8330055065
 20
35.58901289
 10
-101.0187314907
 20
35.5822069353
 10
-101.1890972756
 20
35.5743622092
 10
-101.3419523445
 20
35.5655778566
 10
-101.475367217
 20
35.555964884
 10
-101.5876578055
 20
35.5456447581
 10
-101.6774066727
 20
35.5347478728
 10
-101.7434809241
 20
35.5234119032
 10
-101.7850465087
 20
35.5117800676
 10
-101.8015787467
 20
35.4999993201
  0
LINE
  5
44E
100
AcDbEntity
  8
RACCORDO
100
AcDbLine
 62
250
  6
CONTINUOUS
 10
101.8015787468
 20
35.4999993365
 11
102.0000003491
 21
35.5000000145
  0
LINE
  5
44F
100
AcDbEntity
  8
RACCORDO
100
AcDbLine
 62
250
  6
CONTINUOUS
 10
-101.8015787468
 20
35.4999993365
 11
-102.0000003491
 21
35.5000000145
  0
LINE
  5
450
100
AcDbEntity
  8
0
100
AcDbLine
 62
7
  6
CONTINUOUS
 10
-94.8549920759
 20
35.2718072551
 11
-94.3280087498
 21
35.2718605073
  0
LINE
  5
451
100
AcDbEntity
  8
0
100
AcDbLine
 62
7
  6
CONTINUOUS
 10
97.1450079241
 20
35.2718072551
 11
97.6719912502
 21
35.2718605073
  0
LINE
  5
452
100
AcDbEntity
  8
0
100
AcDbLine
 62
7
  6
CONTINUOUS
 10
-97.6719912503
 20
35.7281394921
 11
-97.1450079232
 21
35.72819274
  0
LINE
  5
453
100
AcDbEntity
  8
0
100
AcDbLine
 62
7
  6
CONTINUOUS
 10
94.3280087497
 20
35.7281394921
 11
94.8549920768
 21
35.72819274
  0
LINE
  5
454
100
AcDbEntity
  8
0
100
AcDbLine
 62
7
  6
CONTINUOUS
 10
-97.1450395831
 20
35.2716467289
 11
-97.6720177359
 21
35.2720547004
  0
LINE
  5
455
100
AcDbEntity
  8
0
100
AcDbLine
 62
7
  6
CONTINUOUS
 10
94.8549604169
 20
35.2716467289
 11
94.3279822641
 21
35.2720547004
  0
LINE
  5
456
100
AcDbEntity
  8
0
100
AcDbLine
 62
7
  6
CONTINUOUS
 10
-94.8549604169
 20
35.7283532711
 11
-94.3279822641
 21
35.7279452996
  0
LINE
  5
457
100
AcDbEntity
  8
0
100
AcDbLine
 62
7
  6
CONTINUOUS
 10
97.1450395831
 20
35.7283532711
 11
97.6720177359
 21
35.7279452996
  0
LWPOLYLINE
  5
458
100
AcDbEntity
  8
RACCORDO
100
AcDbPolyline
 62
250
  6
CONTINUOUS
 90
13
 70
0
 10
100.207900772
 20
35.6024098348
 10
100.4250142682
 20
35.5991717698
 10
100.6342619131
 20
35.5946818448
 10
100.8330024069
 20
35.5889967606
 10
101.0187270796
 20
35.5821883008
 10
101.1890915581
 20
35.5743424255
 10
101.3419453583
 20
35.5655581864
 10
101.4753590309
 20
35.5559464767
 10
101.5876485162
 20
35.5456286318
 10
101.6773964017
 20
35.5347348978
 10
101.7434698141
 20
35.523402788
 10
101.7850347189
 20
35.5117753472
 10
101.8015664491
 20
35.4999993466
  0
LINE
  5
459
100
AcDbEntity
  8
RACCORDO
100
AcDbLine
 62
7
  6
CONTINUOUS
 10
42.3041107013
 20
22.4
 11
42.3023651948
 21
22.5
  0
LINE
  5
45A
100
AcDbEntity
  8
RACCORDO
100
AcDbLine
 62
7
  6
CONTINUOUS
 10
42.3023651948
 20
-22.5
 11
42.3041107013
 21
-22.4
  0
LINE
  5
45B
100
AcDbEntity
  8
0
100
AcDbLine
 62
7
  6
CONTINUOUS
 10
95.4795953518
 20
34.9795953518
 11
95.4802765158
 21
34.9802765158
  0
LINE
  5
45C
100
AcDbEntity
  8
0
100
AcDbLine
 62
7
  6
CONTINUOUS
 10
95.3727024907
 20
34.8727024837
 11
95.4
 21
34.8999999936
  0
LINE
  5
45D
100
AcDbEntity
  8
0
100
AcDbLine
 62
7
  6
CONTINUOUS
 10
96.5197234842
 20
36.0197234842
 11
96.5204046482
 21
36.0204046482
  0
LINE
  5
45E
100
AcDbEntity
  8
0
100
AcDbLine
 62
7
  6
CONTINUOUS
 10
96.6
 20
36.1000000064
 11
96.6272975093
 21
36.1272975163
  0
LWPOLYLINE
  5
45F
100
AcDbEntity
  8
RACCORDO
100
AcDbPolyline
 62
250
  6
CONTINUOUS
 90
25
 70
0
 10
-96.0000028231
 20
41.3014381028
 10
-96.3896965682
 20
41.2885896849
 10
-96.7903636595
 20
41.2478191494
 10
-97.1997918082
 20
41.1766698713
 10
-97.6185625709
 20
41.071872838
 10
-98.0403862232
 20
40.9316923705
 10
-98.4528933707
 20
40.7583680254
 10
-98.853589264
 20
40.5521800974
 10
-99.2394965978
 20
40.3138600364
 10
-99.5995392462
 20
40.0509252161
 10
-99.9315666197
 20
39.7673621503
 10
-100.2360403972
 20
39.4652837814
 10
-100.5085537443
 20
39.1524452192
 10
-100.7486973721
 20
38.8342478539
 10
-100.9591590735
 20
38.5123048682
 10
-101.1415250589
 20
38.1891959234
 10
-101.2971069719
 20
37.8680057604
 10
-101.4278432464
 20
37.5506003038
 10
-101.5360890622
 20
37.2371290543
 10
-101.6233997857
 20
36.9291612184
 10
-101.6913236023
 20
36.6282709172
 10
-101.7417121292
 20
36.334105971
 10
-101.7760043643
 20
36.0471675814
 10
-101.7954937135
 20
35.7688827144
 10
-101.8015748305
 20
35.4999993365
  0
LWPOLYLINE
  5
460
100
AcDbEntity
  8
RACCORDO
100
AcDbPolyline
 62
250
  6
CONTINUOUS
 90
5
 70
0
 10
-94.5467676794
 20
39.8159334078
 10
-95.1350227733
 20
39.8020164129
 10
-95.4532729199
 20
39.7952195007
 10
-95.7827684213
 20
39.7850850966
 10
-96.1240284094
 20
39.7722262789
  0
LINE
  5
461
100
AcDbEntity
  8
RACCORDO
100
AcDbLine
 62
250
  6
CONTINUOUS
 10
-89.6503757473
 20
39.867550613
 11
-90.8555133633
 21
39.8469110009
  0
LINE
  5
462
100
AcDbEntity
  8
RACCORDO
100
AcDbLine
 62
250
  6
CONTINUOUS
 10
-90.8555133633
 20
39.8469110009
 11
-92.2127780134
 21
39.8301292672
  0
LINE
  5
463
100
AcDbEntity
  8
RACCORDO
100
AcDbLine
 62
250
  6
CONTINUOUS
 10
-92.2127780134
 20
39.8301292672
 11
-92.9996945704
 21
39.8247187257
  0
LWPOLYLINE
  5
464
100
AcDbEntity
  8
RACCORDO
100
AcDbPolyline
 62
250
  6
CONTINUOUS
 90
3
 70
0
 10
-89.0258001039
 20
39.873934471
 10
-89.2304208587
 20
39.8726743176
 10
-89.6503757473
 20
39.867550613
  0
LINE
  5
465
100
AcDbEntity
  8
RACCORDO
100
AcDbLine
 62
250
  6
CONTINUOUS
 10
88.6494236544
 20
39.8731652378
 11
87.5445518937
 21
39.8660936397
  0
LINE
  5
466
100
AcDbEntity
  8
RACCORDO
100
AcDbLine
 62
250
  6
CONTINUOUS
 10
87.5445518937
 20
39.8660936397
 11
86.7814824944
 21
39.8632840576
  0
LINE
  5
467
100
AcDbEntity
  8
RACCORDO
100
AcDbLine
 62
250
  6
CONTINUOUS
 10
-79.8680325927
 20
39.8795490264
 11
-84.958224698
 21
39.8631256519
  0
LINE
  5
468
100
AcDbEntity
  8
RACCORDO
100
AcDbLine
 62
250
  6
CONTINUOUS
 10
-34.0047471505
 20
39.9340818774
 11
-42.2253000218
 21
39.9198176715
  0
LWPOLYLINE
  5
469
100
AcDbEntity
  8
RACCORDO
100
AcDbPolyline
 62
250
  6
CONTINUOUS
 90
3
 70
0
 10
-42.2253000218
 20
39.9198176715
 10
-67.1310319451
 20
39.8950019383
 10
-79.8680325927
 20
39.8795490264
  0
LWPOLYLINE
  5
46A
100
AcDbEntity
  8
RACCORDO
100
AcDbPolyline
 62
250
  6
CONTINUOUS
 90
3
 70
0
 10
96.0000028231
 20
41.3014375389
 10
95.3444143388
 20
41.3007640906
 10
95.0367551447
 20
41.3004772614
  0
LWPOLYLINE
  5
46B
100
AcDbEntity
  8
RACCORDO
100
AcDbPolyline
 62
250
  6
CONTINUOUS
 90
3
 70
0
 10
-92.9996945704
 20
39.8247187257
 10
-94.2688662112
 20
39.818961445
 10
-94.5467676794
 20
39.8159334078
  0
LWPOLYLINE
  5
46C
100
AcDbEntity
  8
RACCORDO
100
AcDbPolyline
 62
250
  6
CONTINUOUS
 90
4
 70
0
 10
95.0367551447
 20
41.3004772614
 10
94.4639039575
 20
41.3000134874
 10
94.1943177553
 20
41.2998163536
 10
93.9364266767
 20
41.2996358346
  0
LINE
  5
46D
100
AcDbEntity
  8
RACCORDO
100
AcDbLine
 62
250
  6
CONTINUOUS
 10
93.9364266767
 20
41.2996358346
 11
92.9565239942
 21
41.2990253317
  0
LINE
  5
46E
100
AcDbEntity
  8
RACCORDO
100
AcDbLine
 62
250
  6
CONTINUOUS
 10
86.7814824944
 20
39.8632840576
 11
85.931731302
 21
39.8623392696
  0
LWPOLYLINE
  5
46F
100
AcDbEntity
  8
RACCORDO
100
AcDbPolyline
 62
250
  6
CONTINUOUS
 90
4
 70
0
 10
92.9565239942
 20
41.2990253317
 10
91.9479560523
 20
41.2985096914
 10
91.6857821422
 20
41.2983995477
 10
91.4206190107
 20
41.2982981022
  0
LWPOLYLINE
  5
470
100
AcDbEntity
  8
RACCORDO
100
AcDbPolyline
 62
250
  6
CONTINUOUS
 90
4
 70
0
 10
91.4206190107
 20
41.2982981022
 10
90.8983172361
 20
41.2981350832
 10
90.6411785931
 20
41.2980735097
 10
90.3920312593
 20
41.2980242006
  0
LINE
  5
471
100
AcDbEntity
  8
RACCORDO
100
AcDbLine
 62
250
  6
CONTINUOUS
 10
-84.958224698
 20
39.8631256519
 11
-85.9054313111
 21
39.8623356418
  0
LINE
  5
472
100
AcDbEntity
  8
RACCORDO
100
AcDbLine
 62
250
  6
CONTINUOUS
 10
34.0014312601
 20
39.9340380644
 11
-34.0014312601
 21
39.9340380644
  0
LWPOLYLINE
  5
473
100
AcDbEntity
  8
RACCORDO
100
AcDbPolyline
 62
250
  6
CONTINUOUS
 90
3
 70
0
 10
90.3920312593
 20
41.2980242006
 10
89.6978851908
 20
41.2979493445
 10
89.482061842
 20
41.297941403
  0
LINE
  5
474
100
AcDbEntity
  8
DRAFT
100
AcDbLine
 62
7
  6
CONTINUOUS
 10
-96.0
 20
41.5
 11
96.0
 21
41.5
  0
LINE
  5
475
100
AcDbEntity
  8
SKEL
100
AcDbLine
 62
7
  6
CONTINUOUS
 10
-96.0000001209
 20
41.5000003491
 11
96.0000001209
 21
41.5000003491
  0
LINE
  5
476
100
AcDbEntity
  8
RACCORDO
100
AcDbLine
 62
250
  6
CONTINUOUS
 10
-61.8590018067
 20
41.2988117203
 11
-86.7531004735
 21
41.2979147874
  0
LINE
  5
477
100
AcDbEntity
  8
RACCORDO
100
AcDbLine
 62
250
  6
CONTINUOUS
 10
-33.9986348781
 20
41.2986874863
 11
-61.8590018067
 21
41.2988117203
  0
LINE
  5
478
100
AcDbEntity
  8
RACCORDO
100
AcDbLine
 62
250
  6
CONTINUOUS
 10
89.482061842
 20
41.297941403
 11
-33.9986348781
 21
41.2986874863
  0
LINE
  5
479
100
AcDbEntity
  8
RACCORDO
100
AcDbLine
 62
250
  6
CONTINUOUS
 10
-86.7531004735
 20
41.2979147874
 11
-93.1850949615
 21
41.2991601727
  0
LWPOLYLINE
  5
47A
100
AcDbEntity
  8
RACCORDO
100
AcDbPolyline
 62
250
  6
CONTINUOUS
 90
4
 70
0
 10
-93.1850949615
 20
41.2991601727
 10
-95.3461320667
 20
41.3007652902
 10
-95.666703413
 20
41.3010850271
 10
-96.0000028231
 20
41.3014375389
  0
LINE
  5
47B
100
AcDbEntity
  8
RACCORDO
100
AcDbLine
 62
250
  6
CONTINUOUS
 10
72.7415722728
 20
39.8890781448
 11
44.8229341408
 21
39.9167411648
  0
LINE
  5
47C
100
AcDbEntity
  8
RACCORDO
100
AcDbLine
 62
250
  6
CONTINUOUS
 10
74.824516991
 20
39.8866432006
 11
72.7415722728
 21
39.8890781448
  0
LINE
  5
47D
100
AcDbEntity
  8
RACCORDO
100
AcDbLine
 62
250
  6
CONTINUOUS
 10
44.8229341408
 20
39.9167411648
 11
41.478883308
 21
39.9207828233
  0
LINE
  5
47E
100
AcDbEntity
  8
RACCORDO
100
AcDbLine
 62
250
  6
CONTINUOUS
 10
41.478883308
 20
39.9207828233
 11
39.9754619824
 21
39.9228893801
  0
LINE
  5
47F
100
AcDbEntity
  8
RACCORDO
100
AcDbLine
 62
250
  6
CONTINUOUS
 10
85.931731302
 20
39.8623392696
 11
84.6674512963
 21
39.8635752702
  0
LINE
  5
480
100
AcDbEntity
  8
RACCORDO
100
AcDbLine
 62
250
  6
CONTINUOUS
 10
78.4811122109
 20
39.8820119777
 11
74.824516991
 21
39.8866432006
  0
LINE
  5
481
100
AcDbEntity
  8
RACCORDO
100
AcDbLine
 62
250
  6
CONTINUOUS
 10
39.9754619824
 20
39.9228893801
 11
38.5896759855
 21
39.9250819423
  0
LINE
  5
482
100
AcDbEntity
  8
RACCORDO
100
AcDbLine
 62
250
  6
CONTINUOUS
 10
-85.9054313111
 20
39.8623356418
 11
-86.7586184983
 21
39.8632313067
  0
LINE
  5
483
100
AcDbEntity
  8
RACCORDO
100
AcDbLine
 62
250
  6
CONTINUOUS
 10
38.5896759855
 20
39.9250819423
 11
36.7013729059
 21
39.9284684924
  0
LINE
  5
484
100
AcDbEntity
  8
RACCORDO
100
AcDbLine
 62
250
  6
CONTINUOUS
 10
36.7013729059
 20
39.9284684924
 11
34.0047471505
 21
39.9340818754
  0
LINE
  5
485
100
AcDbEntity
  8
RACCORDO
100
AcDbLine
 62
250
  6
CONTINUOUS
 10
84.6674512963
 20
39.8635752702
 11
83.9632114519
 21
39.8655524067
  0
LINE
  5
486
100
AcDbEntity
  8
RACCORDO
100
AcDbLine
 62
250
  6
CONTINUOUS
 10
81.9475047789
 20
39.8735692291
 11
78.4811122109
 21
39.8820119777
  0
LINE
  5
487
100
AcDbEntity
  8
RACCORDO
100
AcDbLine
 62
250
  6
CONTINUOUS
 10
-88.6188679681
 20
39.8730121999
 11
-89.0258001039
 21
39.873934471
  0
LINE
  5
488
100
AcDbEntity
  8
RACCORDO
100
AcDbLine
 62
250
  6
CONTINUOUS
 10
83.9632114519
 20
39.8655524067
 11
81.9475047789
 21
39.8735692291
  0
LINE
  5
489
100
AcDbEntity
  8
RACCORDO
100
AcDbLine
 62
250
  6
CONTINUOUS
 10
-86.7586184983
 20
39.8632313067
 11
-87.5207785754
 21
39.8659736667
  0
LWPOLYLINE
  5
48A
100
AcDbEntity
  8
RACCORDO
100
AcDbPolyline
 62
250
  6
CONTINUOUS
 90
3
 70
0
 10
89.2723740248
 20
39.8723142505
 10
89.0630924973
 20
39.8737822319
 10
88.6494236544
 20
39.8731652378
  0
LINE
  5
48B
100
AcDbEntity
  8
RACCORDO
100
AcDbLine
 62
250
  6
CONTINUOUS
 10
94.0089058258
 20
39.8191935733
 11
92.7709729393
 21
39.8261353697
  0
LINE
  5
48C
100
AcDbEntity
  8
RACCORDO
100
AcDbLine
 62
250
  6
CONTINUOUS
 10
-87.5207785754
 20
39.8659736667
 11
-88.6188679681
 21
39.8730121999
  0
LINE
  5
48D
100
AcDbEntity
  8
RACCORDO
100
AcDbLine
 62
250
  6
CONTINUOUS
 10
92.7709729393
 20
39.8261353697
 11
91.9965783471
 21
39.8321808748
  0
LINE
  5
48E
100
AcDbEntity
  8
RACCORDO
100
AcDbLine
 62
250
  6
CONTINUOUS
 10
91.9965783471
 20
39.8321808748
 11
90.9265081483
 21
39.845763788
  0
LWPOLYLINE
  5
48F
100
AcDbEntity
  8
RACCORDO
100
AcDbPolyline
 62
250
  6
CONTINUOUS
 90
3
 70
0
 10
90.9265081483
 20
39.845763788
 10
89.9306475574
 20
39.8632868291
 10
89.2723740248
 20
39.8723142505
  0
LWPOLYLINE
  5
490
100
AcDbEntity
  8
RACCORDO
100
AcDbPolyline
 62
250
  6
CONTINUOUS
 90
5
 70
0
 10
95.4513511712
 20
39.7953877377
 10
94.8325345236
 20
39.8088777498
 10
94.5481297799
 20
39.8158563322
 10
94.2722227398
 20
39.8189297324
 10
94.0089058258
 20
39.8191935733
  0
LWPOLYLINE
  5
491
100
AcDbEntity
  8
RACCORDO
100
AcDbPolyline
 62
250
  6
CONTINUOUS
 90
3
 70
0
 10
96.1240284094
 20
39.7722262789
 10
95.7814649411
 20
39.7852705763
 10
95.4513511712
 20
39.7953877377
  0
LINE
  5
492
100
AcDbEntity
  8
0
100
AcDbLine
 62
7
  6
CONTINUOUS
 10
95.4
 20
-34.9000001418
 11
95.3727025934
 21
-34.8727027659
  0
LINE
  5
493
100
AcDbEntity
  8
0
100
AcDbLine
 62
7
  6
CONTINUOUS
 10
96.6
 20
-36.0999998582
 11
96.6272974066
 21
-36.1272972341
  0
LINE
  5
494
100
AcDbEntity
  8
0
100
AcDbLine
 62
7
  6
CONTINUOUS
 10
95.4802765158
 20
-34.9802765158
 11
95.4795953518
 21
-34.9795953519
  0
LINE
  5
495
100
AcDbEntity
  8
0
100
AcDbLine
 62
7
  6
CONTINUOUS
 10
96.5197234842
 20
-36.0197234842
 11
96.5204046482
 21
-36.0204046481
  0
LINE
  5
496
100
AcDbEntity
  8
RACCORDO
100
AcDbLine
 62
7
  6
CONTINUOUS
 10
48.1958892987
 20
-22.4
 11
48.1976348052
 21
-22.5
  0
LINE
  5
497
100
AcDbEntity
  8
RACCORDO
100
AcDbLine
 62
7
  6
CONTINUOUS
 10
48.1976348052
 20
22.5
 11
48.1958892987
 21
22.4
  0
LWPOLYLINE
  5
498
100
AcDbEntity
  8
RACCORDO
100
AcDbPolyline
 62
250
  6
CONTINUOUS
 90
25
 70
0
 10
-96.1240284094
 20
39.7722262789
 10
-96.387766839
 20
39.7542931233
 10
-96.659720757
 20
39.7164084406
 10
-96.9386591189
 20
39.6572135783
 10
-97.2257626956
 20
39.5724878587
 10
-97.5166926506
 20
39.4614886963
 10
-97.8024599991
 20
39.3284393017
 10
-98.0813434392
 20
39.1723664392
 10
-98.3518553279
 20
38.9925172201
 10
-98.6063221265
 20
38.7965615173
 10
-98.8425092036
 20
38.5868612411
 10
-99.0596249548
 20
38.3650199157
 10
-99.2541283213
 20
38.1392863997
 10
-99.4277825004
 20
37.910033863
 10
-99.581371674
 20
37.6777454778
 10
-99.7126859902
 20
37.4499964062
 10
-99.8238103248
 20
37.228120462
 10
-99.919516199
 20
37.006852095
 10
-100.001108522
 20
36.7865522058
 10
-100.0665580808
 20
36.573166163
 10
-100.1167050709
 20
36.3686842021
 10
-100.1550954786
 20
36.1684169285
 10
-100.1829045046
 20
35.9716120691
 10
-100.2000878364
 20
35.7824639747
 10
-100.2079026369
 20
35.6024103055
  0
LWPOLYLINE
  5
499
100
AcDbEntity
  8
0
100
AcDbPolyline
 62
7
  6
CONTINUOUS
 90
7
 70
0
 43
0.3500000006
 10
-2.0357142191
 20
50.2500014191
 10
-3.5357143936
 20
50.2500014191
 10
-2.0357142191
 20
52.3928553314
 10
-2.0357142191
 20
52.821428833
 10
-2.464285738
 20
53.2500023346
 10
-3.1071428747
 20
53.2500023346
 10
-3.5357143936
 20
52.6071443481
  0
LWPOLYLINE
  5
49A
100
AcDbEntity
  8
0
100
AcDbPolyline
 62
7
  6
CONTINUOUS
 90
3
 70
0
 43
0.3500000006
 10
2.6785713558
 20
50.8928594055
 10
1.1785713937
 20
50.8928594055
 10
1.8214286013
 20
53.2500023346
  0
LINE
  5
49B
100
AcDbEntity
  8
0
100
AcDbLine
 62
7
  6
CONTINUOUS
 10
-94.3280087498
 20
35.2718605073
 11
-94.5947969261
 21
35.213691787
  0
LINE
  5
49C
100
AcDbEntity
  8
0
100
AcDbLine
 62
7
  6
CONTINUOUS
 10
-97.6719912503
 20
35.7281394921
 11
-97.4052030751
 21
35.7863082122
  0
LINE
  5
49D
100
AcDbEntity
  8
0
100
AcDbLine
 62
7
  6
CONTINUOUS
 10
-94.5947969261
 20
35.213691787
 11
-94.809952252
 21
35.1676955411
  0
LINE
  5
49E
100
AcDbEntity
  8
0
100
AcDbLine
 62
7
  6
CONTINUOUS
 10
-97.4052030751
 20
35.7863082122
 11
-97.1900477491
 21
35.8323044581
  0
LINE
  5
49F
100
AcDbEntity
  8
0
100
AcDbLine
 62
7
  6
CONTINUOUS
 10
94.4880987039
 20
35.2369418223
 11
94.8101933044
 21
35.1675285871
  0
LINE
  5
4A0
100
AcDbEntity
  8
0
100
AcDbLine
 62
7
  6
CONTINUOUS
 10
97.1898066956
 20
35.8324714129
 11
97.5118997808
 21
35.7630585081
  0
LINE
  5
4A1
100
AcDbEntity
  8
0
100
AcDbLine
 62
7
  6
CONTINUOUS
 10
94.3279822641
 20
35.2720547004
 11
94.4880987039
 21
35.2369418223
  0
LINE
  5
4A2
100
AcDbEntity
  8
0
100
AcDbLine
 62
7
  6
CONTINUOUS
 10
97.5118997808
 20
35.7630585081
 11
97.6720177359
 21
35.7279452996
  0
LINE
  5
4A3
100
AcDbEntity
  8
0
100
AcDbLine
 62
7
  6
CONTINUOUS
 10
80.199076
 20
-29.399985
 11
79.617822
 21
-28.278635
  0
LINE
  5
4A4
100
AcDbEntity
  8
0
100
AcDbLine
 62
7
  6
CONTINUOUS
 10
80.2349767907
 20
-28.2088806669
 11
80.852381
 21
-29.399978
  0
LINE
  5
4A5
100
AcDbEntity
  8
0
100
AcDbLine
 62
7
  6
CONTINUOUS
 10
69.421132
 20
-29.4
 11
68.49
 21
-26.499862
  0
LINE
  5
4A6
100
AcDbEntity
  8
0
100
AcDbLine
 62
7
  6
CONTINUOUS
 10
69.070029
 20
-26.499862
 11
69.711161
 21
-28.496759
  0
LINE
  5
4A7
100
AcDbEntity
  8
RACCORDO
100
AcDbLine
 62
7
  6
CONTINUOUS
 10
64.8041107013
 20
22.4
 11
64.8023651948
 21
22.5
  0
LINE
  5
4A8
100
AcDbEntity
  8
RACCORDO
100
AcDbLine
 62
7
  6
CONTINUOUS
 10
64.8023651948
 20
-22.5
 11
64.8041107013
 21
-22.4
  0
LINE
  5
4A9
100
AcDbEntity
  8
0
100
AcDbLine
 62
7
  6
CONTINUOUS
 10
77.204754
 20
-28.278635
 11
76.92365
 21
-27.403096
  0
LINE
  5
4AA
100
AcDbEntity
  8
0
100
AcDbLine
 62
7
  6
CONTINUOUS
 10
77.564789
 20
-29.399985
 11
77.381683
 21
-28.829657
  0
LINE
  5
4AB
100
AcDbEntity
  8
0
100
AcDbLine
 62
7
  6
CONTINUOUS
 10
77.213679
 20
-26.499855
 11
78.144818
 21
-29.399993
  0
LINE
  5
4AC
100
AcDbEntity
  8
0
100
AcDbLine
 62
7
  6
CONTINUOUS
 10
73.607413
 20
-29.399993
 11
73.059037
 21
-27.487551
  0
LINE
  5
4AD
100
AcDbEntity
  8
0
100
AcDbLine
 62
7
  6
CONTINUOUS
 10
73.355852
 20
-26.499862
 11
73.89742
 21
-28.388531
  0
LINE
  5
4AE
100
AcDbEntity
  8
RACCORDO
100
AcDbLine
 62
7
  6
CONTINUOUS
 10
70.6958892987
 20
-22.4
 11
70.6976348052
 21
-22.5
  0
LINE
  5
4AF
100
AcDbEntity
  8
0
100
AcDbLine
 62
7
  6
CONTINUOUS
 10
71.318986
 20
-29.4
 11
71.318994
 21
-26.499862
  0
LINE
  5
4B0
100
AcDbEntity
  8
0
100
AcDbLine
 62
7
  6
CONTINUOUS
 10
71.899015
 20
-26.499862
 11
71.899008
 21
-29.399993
  0
LINE
  5
4B1
100
AcDbEntity
  8
0
100
AcDbLine
 62
7
  6
CONTINUOUS
 10
72.479015
 20
-29.399993
 11
72.479015
 21
-26.499862
  0
LINE
  5
4B2
100
AcDbEntity
  8
0
100
AcDbLine
 62
7
  6
CONTINUOUS
 10
73.059037
 20
-27.487551
 11
73.059037
 21
-29.399993
  0
LINE
  5
4B3
100
AcDbEntity
  8
RACCORDO
100
AcDbLine
 62
7
  6
CONTINUOUS
 10
70.6976348052
 20
22.5
 11
70.6958892987
 21
22.4
  0
LINE
  5
4B4
100
AcDbEntity
  8
0
100
AcDbLine
 62
7
  6
CONTINUOUS
 10
94.8402717707
 20
35.2369554872
 11
94.8550027231
 21
35.2718517719
  0
LINE
  5
4B5
100
AcDbEntity
  8
0
100
AcDbLine
 62
7
  6
CONTINUOUS
 10
94.8253352978
 20
35.2021810922
 11
94.8402717707
 21
35.2369554872
  0
LINE
  5
4B6
100
AcDbEntity
  8
0
100
AcDbLine
 62
7
  6
CONTINUOUS
 10
94.8101933044
 20
35.1675285871
 11
94.8253352978
 21
35.2021810922
  0
LINE
  5
4B7
100
AcDbEntity
  8
0
100
AcDbLine
 62
7
  6
CONTINUOUS
 10
94.828395019
 20
35.1549273753
 11
94.8778937063
 21
35.2611776175
  0
LINE
  5
4B8
100
AcDbEntity
  8
0
100
AcDbLine
 62
7
  6
CONTINUOUS
 10
97.171604981
 20
35.8450726247
 11
97.1221062937
 21
35.7388223825
  0
LINE
  5
4B9
100
AcDbEntity
  8
0
100
AcDbLine
 62
7
  6
CONTINUOUS
 10
95.480282565
 20
36.0197267822
 11
95.5000533558
 21
36.0621338622
  0
LINE
  5
4BA
100
AcDbEntity
  8
0
100
AcDbLine
 62
7
  6
CONTINUOUS
 10
96.519717435
 20
34.9802732178
 11
96.4999466442
 21
34.9378661378
  0
LINE
  5
4BB
100
AcDbEntity
  8
0
100
AcDbLine
 62
7
  6
CONTINUOUS
 10
95.5000533558
 20
36.0621338622
 11
95.4795953518
 21
36.0204046481
  0
LINE
  5
4BC
100
AcDbEntity
  8
0
100
AcDbLine
 62
7
  6
CONTINUOUS
 10
96.4999466442
 20
34.9378661378
 11
96.5204046482
 21
34.9795953519
  0
LINE
  5
4BD
100
AcDbEntity
  8
0
100
AcDbLine
 62
7
  6
CONTINUOUS
 10
95.3727025934
 20
36.1272972341
 11
95.4
 21
36.1818871521
  0
LINE
  5
4BE
100
AcDbEntity
  8
0
100
AcDbLine
 62
7
  6
CONTINUOUS
 10
96.6272974066
 20
34.8727027659
 11
96.6
 21
34.8181128479
  0
LWPOLYLINE
  5
4BF
100
AcDbEntity
  8
0
100
AcDbPolyline
 62
7
  6
CONTINUOUS
 90
3
 70
0
 10
95.3100891716
 20
-34.9038025697
 10
95.3407625029
 20
-34.8883464759
 10
95.3727025934
 20
-34.8727027659
  0
LINE
  5
4C0
100
AcDbEntity
  8
0
100
AcDbLine
 62
7
  6
CONTINUOUS
 10
95.4795953518
 20
-34.9795953519
 11
95.4378660057
 21
-35.0000535044
  0
LINE
  5
4C1
100
AcDbEntity
  8
TRASH
100
AcDbLine
 62
7
  6
CONTINUOUS
 10
94.8550027299
 20
-35.2718517819
 11
94.877893713
 21
-35.2611776274
  0
LINE
  5
4C2
100
AcDbEntity
  8
TRASH
100
AcDbLine
 62
7
  6
CONTINUOUS
 10
97.122106287
 20
-35.7388223726
 11
97.1449972701
 21
-35.7281482181
  0
LINE
  5
4C3
100
AcDbEntity
  8
0
100
AcDbLine
 62
7
  6
CONTINUOUS
 10
95.4378660057
 20
-35.0000535044
 11
95.4802732178
 21
-34.980282565
  0
LINE
  5
4C4
100
AcDbEntity
  8
0
100
AcDbLine
 62
7
  6
CONTINUOUS
 10
96.5621339943
 20
-35.9999464956
 11
96.5197267822
 21
-36.019717435
  0
LINE
  5
4C5
100
AcDbEntity
  8
0
100
AcDbLine
 62
7
  6
CONTINUOUS
 10
94.8778971865
 20
-35.2611739822
 11
95.4
 21
-35.017710713
  0
LINE
  5
4C6
100
AcDbEntity
  8
0
100
AcDbLine
 62
7
  6
CONTINUOUS
 10
97.1221028135
 20
-35.7388260178
 11
96.6
 21
-35.982289287
  0
LINE
  5
4C7
100
AcDbEntity
  8
TRASH
100
AcDbLine
 62
7
  6
CONTINUOUS
 10
94.8778937063
 20
35.2611776175
 11
94.8550027231
 21
35.2718517719
  0
LINE
  5
4C8
100
AcDbEntity
  8
0
100
AcDbLine
 62
7
  6
CONTINUOUS
 10
95.4802765161
 20
34.9802765161
 11
95.4378664697
 21
35.0000529828
  0
LINE
  5
4C9
100
AcDbEntity
  8
TRASH
100
AcDbLine
 62
7
  6
CONTINUOUS
 10
97.1221062937
 20
35.7388223825
 11
97.1449972769
 21
35.7281482281
  0
LINE
  5
4CA
100
AcDbEntity
  8
0
100
AcDbLine
 62
7
  6
CONTINUOUS
 10
96.5197234839
 20
36.0197234839
 11
96.5621335303
 21
35.9999470172
  0
LINE
  5
4CB
100
AcDbEntity
  8
0
100
AcDbLine
 62
7
  6
CONTINUOUS
 10
95.4
 20
35.0177101929
 11
94.8778933466
 21
35.261175259
  0
LINE
  5
4CC
100
AcDbEntity
  8
0
100
AcDbLine
 62
7
  6
CONTINUOUS
 10
96.6
 20
35.9822898071
 11
97.1221066534
 21
35.738824741
  0
LWPOLYLINE
  5
4CD
100
AcDbEntity
  8
0
100
AcDbPolyline
 62
7
  6
CONTINUOUS
 90
4
 70
0
 10
95.3727024907
 20
34.8727024837
 10
95.3408441935
 20
34.888308174
 10
95.3102445392
 20
34.9037267397
 10
95.2526777095
 20
34.933179744
  0
LINE
  5
4CE
100
AcDbEntity
  8
0
100
AcDbLine
 62
7
  6
CONTINUOUS
 10
95.4378664697
 20
35.0000529828
 11
95.4795953518
 21
34.9795953518
  0
LINE
  5
4CF
100
AcDbEntity
  8
0
100
AcDbLine
 62
7
  6
CONTINUOUS
 10
95.2526777095
 20
34.933179744
 11
95.2255718282
 21
34.9469013407
  0
LINE
  5
4D0
100
AcDbEntity
  8
0
100
AcDbLine
 62
7
  6
CONTINUOUS
 10
95.4
 20
-36.1818880101
 11
95.3727024907
 21
-36.1272975163
  0
LINE
  5
4D1
100
AcDbEntity
  8
0
100
AcDbLine
 62
7
  6
CONTINUOUS
 10
96.6
 20
-34.8181119898
 11
96.6272975093
 21
-34.8727024837
  0
LINE
  5
4D2
100
AcDbEntity
  8
0
100
AcDbLine
 62
7
  6
CONTINUOUS
 10
95.4795953518
 20
-36.0204046482
 11
95.5000529891
 21
-36.062133536
  0
LINE
  5
4D3
100
AcDbEntity
  8
0
100
AcDbLine
 62
7
  6
CONTINUOUS
 10
96.5204046482
 20
-34.9795953518
 11
96.4999470109
 21
-34.937866464
  0
LINE
  5
4D4
100
AcDbEntity
  8
0
100
AcDbLine
 62
7
  6
CONTINUOUS
 10
95.5000529891
 20
-36.062133536
 11
95.4802765161
 21
-36.0197234839
  0
LINE
  5
4D5
100
AcDbEntity
  8
0
100
AcDbLine
 62
7
  6
CONTINUOUS
 10
96.4999470109
 20
-34.937866464
 11
96.5197234839
 21
-34.9802765161
  0
LINE
  5
4D6
100
AcDbEntity
  8
0
100
AcDbLine
 62
7
  6
CONTINUOUS
 10
94.877893713
 20
-35.2611776274
 11
94.8283951111
 21
-35.1549273261
  0
LINE
  5
4D7
100
AcDbEntity
  8
0
100
AcDbLine
 62
7
  6
CONTINUOUS
 10
97.122106287
 20
-35.7388223726
 11
97.1716048889
 21
-35.8450726739
  0
LINE
  5
4D8
100
AcDbEntity
  8
0
100
AcDbLine
 62
7
  6
CONTINUOUS
 10
94.8550027299
 20
-35.2718517819
 11
94.8099522509
 21
-35.1676955419
  0
LWPOLYLINE
  5
4D9
100
AcDbEntity
  8
RACCORDO
100
AcDbPolyline
 62
250
  6
CONTINUOUS
 90
22
 70
0
 10
80.6021819848
 20
22.2
 10
80.5983394686
 20
22.3208342063
 10
80.586185554
 20
22.4461769827
 10
80.5647791157
 20
22.5753816392
 10
80.533102369
 20
22.7079800679
 10
80.49031581
 20
22.8427137242
 10
80.4360097677
 20
22.977606223
 10
80.3693976733
 20
23.1119902215
 10
80.2902014682
 20
23.244113775
 10
80.1996612349
 20
23.3705902456
 10
80.0979434441
 20
23.4905228336
 10
79.9855673645
 20
23.6026734602
 10
79.8655518677
 20
23.7040219053
 10
79.739137622
 20
23.7940880753
 10
79.6072770735
 20
23.872733809
 10
79.4734482685
 20
23.9387117209
 10
79.3396624911
 20
23.9922579011
 10
79.2063772659
 20
24.0343496575
 10
79.0749044155
 20
24.0656081174
 10
78.9462428517
 20
24.0868211425
 10
78.8210608681
 20
24.0988540393
 10
78.7
 20
24.1025681183
  0
LINE
  5
4DA
100
AcDbEntity
  8
RACCORDO
100
AcDbLine
 62
250
  6
CONTINUOUS
 10
78.6944817971
 20
25.8811687849
 11
78.7
 21
24.1025681035
  0
LINE
  5
4DB
100
AcDbEntity
  8
0
100
AcDbLine
 62
7
  6
CONTINUOUS
 10
74.735803
 20
-29.399993
 11
74.735795
 21
-27.487551
  0
LINE
  5
4DC
100
AcDbEntity
  8
0
100
AcDbLine
 62
7
  6
CONTINUOUS
 10
75.315824
 20
-26.499862
 11
75.315824
 21
-29.399993
  0
LINE
  5
4DD
100
AcDbEntity
  8
0
100
AcDbLine
 62
7
  6
CONTINUOUS
 10
78.531497
 20
-29.399985
 11
78.531497
 21
-26.499855
  0
LINE
  5
4DE
100
AcDbEntity
  8
RACCORDO
100
AcDbLine
 62
250
  6
CONTINUOUS
 10
78.7
 20
22.5
 11
78.7
 21
24.1025681183
  0
LINE
  5
4DF
100
AcDbEntity
  8
0
100
AcDbLine
 62
7
  6
CONTINUOUS
 10
79.0
 20
-22.2
 11
79.0
 21
22.2
  0
LINE
  5
4E0
100
AcDbEntity
  8
0
100
AcDbLine
 62
7
  6
CONTINUOUS
 10
79.103522
 20
-27.036377
 11
79.103529
 21
-27.742106
  0
LINE
  5
4E1
100
AcDbEntity
  8
RACCORDO
100
AcDbLine
 62
250
  6
CONTINUOUS
 10
80.6022179567
 20
-22.2
 11
80.6021819848
 21
22.2
  0
LINE
  5
4E2
100
AcDbEntity
  8
0
100
AcDbLine
 62
7
  6
CONTINUOUS
 10
79.111591
 20
-28.278628
 11
79.111526
 21
-29.399985
  0
LWPOLYLINE
  5
4E3
100
AcDbEntity
  8
RACCORDO
100
AcDbPolyline
 62
250
  6
CONTINUOUS
 90
3
 70
0
 10
78.6939568631
 20
-25.8817506943
 10
78.6992836665
 20
-24.2764731198
 10
78.7
 20
-22.5
  0
LINE
  5
4E4
100
AcDbEntity
  8
0
100
AcDbLine
 62
7
  6
CONTINUOUS
 10
73.89742
 20
-28.388531
 11
74.438988
 21
-26.499862
  0
LINE
  5
4E5
100
AcDbEntity
  8
0
100
AcDbLine
 62
7
  6
CONTINUOUS
 10
74.735795
 20
-27.487551
 11
74.18742
 21
-29.399985
  0
LINE
  5
4E6
100
AcDbEntity
  8
0
100
AcDbLine
 62
7
  6
CONTINUOUS
 10
69.711161
 20
-28.496759
 11
70.352286
 21
-26.499862
  0
LINE
  5
4E7
100
AcDbEntity
  8
0
100
AcDbLine
 62
7
  6
CONTINUOUS
 10
70.932315
 20
-26.499862
 11
70.001176
 21
-29.399993
  0
LINE
  5
4E8
100
AcDbEntity
  8
0
100
AcDbLine
 62
7
  6
CONTINUOUS
 10
75.702503
 20
-29.399993
 11
76.633628
 21
-26.499855
  0
LINE
  5
4E9
100
AcDbEntity
  8
0
100
AcDbLine
 62
7
  6
CONTINUOUS
 10
76.92365
 20
-27.403096
 11
76.64256
 21
-28.278635
  0
LINE
  5
4EA
100
AcDbEntity
  8
0
100
AcDbLine
 62
7
  6
CONTINUOUS
 10
76.465638
 20
-28.829657
 11
76.282525
 21
-29.399985
  0
LINE
  5
4EB
100
AcDbEntity
  8
0
100
AcDbLine
 62
7
  6
CONTINUOUS
 10
97.1597282293
 20
35.7630445128
 11
97.1449972769
 21
35.7281482281
  0
LINE
  5
4EC
100
AcDbEntity
  8
0
100
AcDbLine
 62
7
  6
CONTINUOUS
 10
97.1746647022
 20
35.7978189078
 11
97.1597282293
 21
35.7630445128
  0
LINE
  5
4ED
100
AcDbEntity
  8
0
100
AcDbLine
 62
7
  6
CONTINUOUS
 10
97.1898066956
 20
35.8324714129
 11
97.1746647022
 21
35.7978189078
  0
LINE
  5
4EE
100
AcDbEntity
  8
0
100
AcDbLine
 62
7
  6
CONTINUOUS
 10
94.8283951111
 20
-35.1549273261
 11
94.9759195551
 21
-35.076590623
  0
LINE
  5
4EF
100
AcDbEntity
  8
0
100
AcDbLine
 62
7
  6
CONTINUOUS
 10
97.1716048889
 20
-35.8450726739
 11
97.0240804449
 21
-35.923409377
  0
LINE
  5
4F0
100
AcDbEntity
  8
0
100
AcDbLine
 62
7
  6
CONTINUOUS
 10
94.9759195551
 20
-35.076590623
 11
95.0738016863
 21
-35.025263872
  0
LINE
  5
4F1
100
AcDbEntity
  8
0
100
AcDbLine
 62
7
  6
CONTINUOUS
 10
97.0240804449
 20
-35.923409377
 11
96.9261983137
 21
-35.974736128
  0
LINE
  5
4F2
100
AcDbEntity
  8
0
100
AcDbLine
 62
7
  6
CONTINUOUS
 10
95.0738016863
 20
-35.025263872
 11
95.147788788
 21
-34.98686137
  0
LINE
  5
4F3
100
AcDbEntity
  8
0
100
AcDbLine
 62
7
  6
CONTINUOUS
 10
96.9261983137
 20
-35.974736128
 11
96.852211212
 21
-36.01313863
  0
LWPOLYLINE
  5
4F4
100
AcDbEntity
  8
0
100
AcDbPolyline
 62
7
  6
CONTINUOUS
 90
4
 70
0
 10
95.147788788
 20
-34.98686137
 10
95.2252366272
 20
-34.9470718005
 10
95.252396052
 20
-34.9333229244
 10
95.3100891716
 20
-34.9038025697
  0
LWPOLYLINE
  5
4F5
100
AcDbEntity
  8
0
100
AcDbPolyline
 62
7
  6
CONTINUOUS
 90
4
 70
0
 10
96.852211212
 20
-36.01313863
 10
96.7747633728
 20
-36.0529281995
 10
96.747603948
 20
-36.0666770755
 10
96.6899108284
 20
-36.0961974303
  0
LWPOLYLINE
  5
4F6
100
AcDbEntity
  8
0
100
AcDbPolyline
 62
7
  6
CONTINUOUS
 90
3
 70
0
 10
96.6899108284
 20
-36.0961974303
 10
96.6592374971
 20
-36.1116535241
 10
96.6272974066
 20
-36.1272972341
  0
LINE
  5
4F7
100
AcDbEntity
  8
0
100
AcDbLine
 62
7
  6
CONTINUOUS
 10
96.5204046482
 20
-36.0204046481
 11
96.5621339943
 21
-35.9999464956
  0
LWPOLYLINE
  5
4F8
100
AcDbEntity
  8
0
100
AcDbPolyline
 62
7
  6
CONTINUOUS
 90
4
 70
0
 10
96.6272975093
 20
36.1272975163
 10
96.6591558065
 20
36.111691826
 10
96.6897554608
 20
36.0962732603
 10
96.7191594664
 20
36.0812021728
  0
LINE
  5
4F9
100
AcDbEntity
  8
0
100
AcDbLine
 62
7
  6
CONTINUOUS
 10
96.5621335303
 20
35.9999470172
 11
96.5204046482
 21
36.0204046482
  0
LINE
  5
4FA
100
AcDbEntity
  8
0
100
AcDbLine
 62
7
  6
CONTINUOUS
 10
96.7191594664
 20
36.0812021728
 11
96.8008536937
 21
36.0395816954
  0
LINE
  5
4FB
100
AcDbEntity
  8
0
100
AcDbLine
 62
7
  6
CONTINUOUS
 10
95.2255718282
 20
34.9469013407
 11
95.1233223684
 21
34.9995101966
  0
LINE
  5
4FC
100
AcDbEntity
  8
0
100
AcDbLine
 62
7
  6
CONTINUOUS
 10
96.8008536937
 20
36.0395816954
 11
96.8766776316
 21
36.0004898034
  0
LINE
  5
4FD
100
AcDbEntity
  8
0
100
AcDbLine
 62
7
  6
CONTINUOUS
 10
95.1233223684
 20
34.9995101966
 11
95.0004861321
 21
35.0636477767
  0
LINE
  5
4FE
100
AcDbEntity
  8
0
100
AcDbLine
 62
7
  6
CONTINUOUS
 10
96.8766776316
 20
36.0004898034
 11
96.9995138679
 21
35.9363522233
  0
LWPOLYLINE
  5
4FF
100
AcDbEntity
  8
0
100
AcDbPolyline
 62
7
  6
CONTINUOUS
 90
3
 70
0
 10
95.0004861321
 20
35.0636477767
 10
94.9019622533
 20
35.1157284872
 10
94.828395019
 20
35.1549273753
  0
LWPOLYLINE
  5
500
100
AcDbEntity
  8
0
100
AcDbPolyline
 62
7
  6
CONTINUOUS
 90
4
 70
0
 10
96.9995138679
 20
35.9363522233
 10
97.0980377467
 20
35.8842715128
 10
97.1225892044
 20
35.8711775398
 10
97.171604981
 20
35.8450726247
  0
LINE
  5
501
100
AcDbEntity
  8
0
100
AcDbLine
 62
7
  6
CONTINUOUS
 10
97.1449972701
 20
-35.7281482181
 11
97.190047748
 21
-35.8323044589
  0
LWPOLYLINE
  5
502
100
AcDbEntity
  8
RACCORDO
100
AcDbPolyline
 62
250
  6
CONTINUOUS
 90
22
 70
0
 10
82.3879616569
 20
22.1990749496
 10
82.3756885431
 20
22.433423859
 10
82.3531676526
 20
22.6770004462
 10
82.3164991392
 20
22.9281940751
 10
82.2575431789
 20
23.1860110226
 10
82.1733240862
 20
23.4472760857
 10
82.068238435
 20
23.7075228375
 10
81.9427793372
 20
23.9678812718
 10
81.7894568023
 20
24.2242376614
 10
81.6090687357
 20
24.466775228
 10
81.4086753645
 20
24.6962689496
 10
81.1919405441
 20
24.9135313574
 10
80.9590876124
 20
25.1100663198
 10
80.7122141074
 20
25.2834761332
 10
80.4568813815
 20
25.4354581643
 10
80.196790887
 20
25.562949852
 10
79.9355154052
 20
25.6663151216
 10
79.6765415779
 20
25.7477521824
 10
79.4224580845
 20
25.8080157756
 10
79.1744061442
 20
25.849050547
 10
78.9318455
 20
25.872998614
 10
78.6944817967
 20
25.8811687826
  0
LWPOLYLINE
  5
503
100
AcDbEntity
  8
RACCORDO
100
AcDbPolyline
 62
250
  6
CONTINUOUS
 90
10
 70
0
 10
82.3943640092
 20
17.4231352861
 10
82.3895281289
 20
18.5073699363
 10
82.3902348836
 20
19.0239137417
 10
82.3891204441
 20
19.524462676
 10
82.3850606062
 20
20.0083053501
 10
82.3832764296
 20
20.4763156748
 10
82.3875105343
 20
20.9312887971
 10
82.39646462
 20
21.372975069
 10
82.3995123383
 20
21.7966976717
 10
82.3879616569
 20
22.1990749496
  0
LINE
  5
504
100
AcDbEntity
  8
RACCORDO
100
AcDbLine
 62
250
  6
CONTINUOUS
 10
82.3924412615
 20
-16.0257372892
 11
82.3895015303
 21
-14.6768667154
  0
LINE
  5
505
100
AcDbEntity
  8
RACCORDO
100
AcDbLine
 62
250
  6
CONTINUOUS
 10
82.387774603
 20
-1.7880287378
 11
82.3912642215
 21
9.8876150163
  0
LWPOLYLINE
  5
506
100
AcDbEntity
  8
RACCORDO
100
AcDbPolyline
 62
250
  6
CONTINUOUS
 90
3
 70
0
 10
82.3912642215
 20
9.8876150163
 10
82.3920769538
 20
10.6702489891
 10
82.391976255
 20
13.6749917863
  0
LINE
  5
507
100
AcDbEntity
  8
RACCORDO
100
AcDbLine
 62
250
  6
CONTINUOUS
 10
82.3895015303
 20
-14.6768667154
 11
82.387774603
 21
-1.7880287378
  0
LWPOLYLINE
  5
508
100
AcDbEntity
  8
RACCORDO
100
AcDbPolyline
 62
250
  6
CONTINUOUS
 90
3
 70
0
 10
82.391976255
 20
13.6749917863
 10
82.3927466453
 20
14.360404692
 10
82.392789896
 20
16.2630687509
  0
LWPOLYLINE
  5
509
100
AcDbEntity
  8
RACCORDO
100
AcDbPolyline
 62
250
  6
CONTINUOUS
 90
3
 70
0
 10
82.392789896
 20
16.2630687509
 10
82.3943715437
 20
16.8541832604
 10
82.3943640092
 20
17.4231352861
  0
LWPOLYLINE
  5
50A
100
AcDbEntity
  8
RACCORDO
100
AcDbPolyline
 62
250
  6
CONTINUOUS
 90
12
 70
0
 10
82.3873166686
 20
-22.1993602702
 10
82.4019575396
 20
-21.7325835888
 10
82.3964766045
 20
-21.2397419799
 10
82.3864605397
 20
-20.7262150816
 10
82.3824059179
 20
-20.1958814217
 10
82.3835412194
 20
-19.6494405648
 10
82.3882761489
 20
-19.0871194273
 10
82.3911583152
 20
-18.509049138
 10
82.3902315595
 20
-17.9144679138
 10
82.3903414033
 20
-17.3024476838
 10
82.3924007271
 20
-16.6730275541
 10
82.3924412615
 20
-16.0257372892
  0
LWPOLYLINE
  5
50B
100
AcDbEntity
  8
0
100
AcDbPolyline
 62
7
  6
CONTINUOUS
 90
13
 70
0
 43
0.3500000006
 10
107.5357166748
 20
-1.8214286385
 10
107.3214321899
 20
-2.1071431732
 10
106.6785696716
 20
-2.1071431732
 10
106.2500007019
 20
-1.8214286385
 10
106.2500007019
 20
-1.178571785
 10
106.6785696716
 20
-0.8928561172
 10
107.3214321899
 20
-0.8928561172
 10
107.5357166748
 20
-1.178571785
 10
107.9642856445
 20
-0.7500005493
 10
108.8214326477
 20
-0.7500005493
 10
109.2500016174
 20
-1.178571785
 10
109.2500016174
 20
-1.8214286385
 10
108.8214326477
 20
-2.2499998741
  0
LINE
  5
50C
100
AcDbEntity
  8
0
100
AcDbLine
 62
7
  6
CONTINUOUS
 10
94.8099522509
 20
-35.1676955419
 11
94.8283951111
 21
-35.1549273261
  0
LINE
  5
50D
100
AcDbEntity
  8
0
100
AcDbLine
 62
7
  6
CONTINUOUS
 10
97.1716048889
 20
-35.8450726739
 11
97.190047748
 21
-35.8323044589
  0
LINE
  5
50E
100
AcDbEntity
  8
0
100
AcDbLine
 62
7
  6
CONTINUOUS
 10
94.8101933044
 20
35.1675285871
 11
94.828395019
 21
35.1549273753
  0
LINE
  5
50F
100
AcDbEntity
  8
0
100
AcDbLine
 62
7
  6
CONTINUOUS
 10
97.171604981
 20
35.8450726247
 11
97.1898066956
 21
35.8324714129
  0
LINE
  5
510
100
AcDbEntity
  8
0
100
AcDbLine
 62
7
  6
CONTINUOUS
 10
95.4
 20
-38.3321553217
 11
95.4
 21
-35.9538073666
  0
LINE
  5
511
100
AcDbEntity
  8
0
100
AcDbLine
 62
7
  6
CONTINUOUS
 10
95.4
 20
-35.0461926334
 11
95.4
 21
-32.6678446783
  0
LINE
  5
512
100
AcDbEntity
  8
0
100
AcDbLine
 62
7
  6
CONTINUOUS
 10
95.4
 20
32.6678446783
 11
95.4
 21
35.0461926334
  0
LINE
  5
513
100
AcDbEntity
  8
0
100
AcDbLine
 62
7
  6
CONTINUOUS
 10
95.4
 20
35.9538073666
 11
95.4
 21
38.3321553217
  0
LINE
  5
514
100
AcDbEntity
  8
RACCORDO
100
AcDbLine
 62
250
  6
CONTINUOUS
 10
96.0000002059
 20
-41.3014364564
 11
96.0000000088
 21
-41.5000003491
  0
LINE
  5
515
100
AcDbEntity
  8
RACCORDO
100
AcDbLine
 62
250
  6
CONTINUOUS
 10
96.0000028231
 20
41.3014375389
 11
96.0000001209
 21
41.5000003491
  0
LWPOLYLINE
  5
516
100
AcDbEntity
  8
DRAFT
100
AcDbPolyline
 62
7
  6
CONTINUOUS
 90
40
 70
0
 10
92.5718361721
 20
-35.5
 10
92.5841906832
 20
-35.2006016348
 10
92.6207955278
 20
-34.914550089
 10
92.6785659295
 20
-34.6435375477
 10
92.7544245954
 20
-34.3888633333
 10
92.8453985533
 20
-34.1512592359
 10
92.9487139743
 20
-33.9309519301
 10
93.0608159352
 20
-33.7295474966
 10
93.1799105206
 20
-33.5452965134
 10
93.3070354787
 20
-33.373553519
 10
93.4405524054
 20
-33.2146654735
 10
93.5794121377
 20
-33.0682166141
 10
93.7273634936
 20
-32.9296106477
 10
93.8842609504
 20
-32.7992404425
 10
94.0494096551
 20
-32.6779441811
 10
94.2271235086
 20
-32.5633896351
 10
94.4176612245
 20
-32.4568785789
 10
94.6205805876
 20
-32.3601240949
 10
94.8399166926
 20
-32.273148603
 10
95.0776080318
 20
-32.1979130135
 10
95.3310706065
 20
-32.1380286304
 10
95.597371747
 20
-32.0965550809
 10
95.8752396891
 20
-32.0758698207
 10
96.1629155176
 20
-32.0783229544
 10
96.4561105965
 20
-32.1058635483
 10
96.7526657084
 20
-32.1600868454
 10
97.0497466628
 20
-32.2423189516
 10
97.3418543013
 20
-32.3525101813
 10
97.6252999374
 20
-32.4902899951
 10
97.8981339613
 20
-32.6557753428
 10
98.1575332803
 20
-32.8485233997
 10
98.400739611
 20
-33.0679935207
 10
98.6244448797
 20
-33.3128551787
 10
98.8251917289
 20
-33.5808348885
 10
99.0008487664
 20
-33.8709152077
 10
99.1481606032
 20
-34.1798922016
 10
99.2635713661
 20
-34.5010165069
 10
99.3459604638
 20
-34.8296099021
 10
99.3953588085
 20
-35.1637004193
 10
99.4115860543
 20
-35.5
  0
LWPOLYLINE
  5
517
100
AcDbEntity
  8
DRAFT
100
AcDbPolyline
 62
7
  6
CONTINUOUS
 90
37
 70
0
 10
92.5718494717
 20
35.5
 10
92.5897130002
 20
35.839514635
 10
92.63949379
 20
36.1672826036
 10
92.7183118785
 20
36.4805919797
 10
92.8230407253
 20
36.7768906292
 10
92.9506659544
 20
37.0547969609
 10
93.0986396358
 20
37.3139542361
 10
93.2637128986
 20
37.5527507269
 10
93.4435149361
 20
37.7711991396
 10
93.637797331
 20
37.9712766968
 10
93.8454652633
 20
38.1530721551
 10
94.0637701472
 20
38.3152738381
 10
94.2906405621
 20
38.4575739249
 10
94.5223906563
 20
38.5790813042
 10
94.7588695202
 20
38.6810442808
 10
95.0039225473
 20
38.7654337124
 10
95.2566142611
 20
38.8314829646
 10
95.5152502262
 20
38.8783124967
 10
95.7831192968
 20
38.9055681665
 10
96.0595490791
 20
38.9115569962
 10
96.3419487307
 20
38.8945619765
 10
96.6305125675
 20
38.8526834747
 10
96.9256098347
 20
38.7832430096
 10
97.22150974
 20
38.6848230073
 10
97.5092357903
 20
38.5588231889
 10
97.7848941884
 20
38.4064798049
 10
98.0471676761
 20
38.228024862
 10
98.2918345516
 20
38.0259081374
 10
98.5163829928
 20
37.8022502265
 10
98.7192972574
 20
37.5586265315
 10
98.8985375981
 20
37.2975419739
 10
99.0525450225
 20
37.0214879775
 10
99.1802247253
 20
36.7327133477
 10
99.2806412634
 20
36.433599336
 10
99.3530154425
 20
36.126667361
 10
99.3967663091
 20
35.814581616
 10
99.4115817633
 20
35.5
  0
LINE
  5
518
100
AcDbEntity
  8
0
100
AcDbLine
 62
7
  6
CONTINUOUS
 10
95.4795953518
 20
-36.0204046482
 11
95.4802765158
 21
-36.0197234842
  0
LINE
  5
519
100
AcDbEntity
  8
0
100
AcDbLine
 62
7
  6
CONTINUOUS
 10
95.3727024907
 20
-36.1272975163
 11
95.4
 21
-36.1000000064
  0
LINE
  5
51A
100
AcDbEntity
  8
0
100
AcDbLine
 62
7
  6
CONTINUOUS
 10
96.5197234842
 20
-34.9802765158
 11
96.5204046482
 21
-34.9795953518
  0
LINE
  5
51B
100
AcDbEntity
  8
0
100
AcDbLine
 62
7
  6
CONTINUOUS
 10
96.6
 20
-34.8999999936
 11
96.6272975093
 21
-34.8727024837
  0
LINE
  5
51C
100
AcDbEntity
  8
0
100
AcDbLine
 62
7
  6
CONTINUOUS
 10
95.4
 20
36.0999998582
 11
95.3727025934
 21
36.1272972341
  0
LINE
  5
51D
100
AcDbEntity
  8
0
100
AcDbLine
 62
7
  6
CONTINUOUS
 10
96.6
 20
34.9000001418
 11
96.6272974066
 21
34.8727027659
  0
LINE
  5
51E
100
AcDbEntity
  8
0
100
AcDbLine
 62
7
  6
CONTINUOUS
 10
95.4802765158
 20
36.0197234842
 11
95.4795953518
 21
36.0204046481
  0
LINE
  5
51F
100
AcDbEntity
  8
0
100
AcDbLine
 62
7
  6
CONTINUOUS
 10
96.5197234842
 20
34.9802765158
 11
96.5204046482
 21
34.9795953519
  0
LWPOLYLINE
  5
520
100
AcDbEntity
  8
0
100
AcDbPolyline
 62
7
  6
CONTINUOUS
 90
5
 70
0
 43
0.3500000006
 10
107.5357166748
 20
0.9642866592
 10
107.3214321899
 20
1.321428978
 10
106.6785696716
 20
1.321428978
 10
106.2500007019
 20
0.9642866592
 10
106.2500007019
 20
0.107141922
  0
LWPOLYLINE
  5
521
100
AcDbEntity
  8
RACCORDO
100
AcDbPolyline
 62
250
  6
CONTINUOUS
 90
25
 70
0
 10
100.2079026369
 20
35.6024103055
 10
100.2000878559
 20
35.7824642416
 10
100.1829044828
 20
35.9716127054
 10
100.1550953391
 20
36.1684180256
 10
100.1167047159
 20
36.3686858376
 10
100.0665574206
 20
36.573168394
 10
100.0011074968
 20
36.7865550548
 10
99.9195147661
 20
37.0068555711
 10
99.82380844
 20
37.228124518
 10
99.7126835601
 20
37.4500009779
 10
99.5813685578
 20
37.6777505528
 10
99.4277785287
 20
37.9100394963
 10
99.2541233638
 20
38.1392925491
 10
99.0596188761
 20
38.3650264796
 10
98.8425019189
 20
38.5868680647
 10
98.6063137011
 20
38.7965684024
 10
98.351846219
 20
38.9925238878
 10
98.0813338756
 20
39.1723726935
 10
97.8024494452
 20
39.3284450857
 10
97.5166791342
 20
39.4614941801
 10
97.2257455164
 20
39.5724928756
 10
96.9386409709
 20
39.6572175941
 10
96.6597056292
 20
39.7164110956
 10
96.3877577261
 20
39.7542943827
 10
96.1240284094
 20
39.7722262789
  0
LINE
  5
522
100
AcDbEntity
  8
RACCORDO
100
AcDbLine
 62
250
  6
CONTINUOUS
 10
100.255146888
 20
32.6187393333
 11
100.2433655239
 21
33.044836751
  0
LWPOLYLINE
  5
523
100
AcDbEntity
  8
RACCORDO
100
AcDbPolyline
 62
250
  6
CONTINUOUS
 90
25
 70
0
 10
101.8015748305
 20
35.4999993365
 10
101.7954937153
 20
35.7688827125
 10
101.7760043672
 20
36.0471675785
 10
101.7417121324
 20
36.334105968
 10
101.6913236045
 20
36.6282709151
 10
101.6233997858
 20
36.9291612178
 10
101.5360890609
 20
37.2371290546
 10
101.4278432452
 20
37.5506003042
 10
101.2971069716
 20
37.8680057606
 10
101.1415250592
 20
38.1891959235
 10
100.9591590738
 20
38.5123048683
 10
100.7486973723
 20
38.834247854
 10
100.5085537443
 20
39.1524452192
 10
100.2360403969
 20
39.4652837812
 10
99.9315666193
 20
39.7673621498
 10
99.5995392458
 20
40.0509252157
 10
99.2394965977
 20
40.3138600374
 10
98.8535892642
 20
40.5521801002
 10
98.4528933712
 20
40.7583680282
 10
98.0403862253
 20
40.9316923692
 10
97.6185625759
 20
41.071872831
 10
97.1997918154
 20
41.1766698615
 10
96.7903636666
 20
41.2478191408
 10
96.389696573
 20
41.2885896797
 10
96.0000028231
 20
41.3014381028
  0
LINE
  5
524
100
AcDbEntity
  8
RACCORDO
100
AcDbLine
 62
250
  6
CONTINUOUS
 10
100.2433655239
 20
33.044836751
 11
100.2378160546
 21
33.2807868944
  0
LWPOLYLINE
  5
525
100
AcDbEntity
  8
RACCORDO
100
AcDbPolyline
 62
250
  6
CONTINUOUS
 90
13
 70
0
 10
96.1240299054
 20
39.772231949
 10
96.1197486817
 20
39.982143599
 10
96.1140288495
 20
40.1838814138
 10
96.1069391295
 20
40.3750218672
 10
96.0985646997
 20
40.5532687417
 10
96.0890061714
 20
40.7164807136
 10
96.0783783808
 20
40.8626970772
 10
96.0668090093
 20
40.9901612993
 10
96.0544370503
 20
41.0973421207
 10
96.0414111393
 20
41.1829519516
 10
96.0278877675
 20
41.2459623402
 10
96.0140294019
 20
41.2856163269
 10
96.0000025338
 20
41.3014375385
  0
LWPOLYLINE
  5
526
100
AcDbEntity
  8
RACCORDO
100
AcDbPolyline
 62
250
  6
CONTINUOUS
 90
3
 70
0
 10
100.2616286345
 20
32.3183953967
 10
100.2599469998
 20
32.4182869189
 10
100.255146888
 20
32.6187393333
  0
LINE
  5
527
100
AcDbEntity
  8
RACCORDO
100
AcDbLine
 62
250
  6
CONTINUOUS
 10
100.2378160546
 20
33.2807868944
 11
100.2311716058
 21
33.6667591672
  0
LINE
  5
528
100
AcDbEntity
  8
RACCORDO
100
AcDbLine
 62
250
  6
CONTINUOUS
 10
100.2311716058
 20
33.6667591672
 11
100.2240445744
 21
34.2373236043
  0
LINE
  5
529
100
AcDbEntity
  8
RACCORDO
100
AcDbLine
 62
250
  6
CONTINUOUS
 10
100.2633987986
 20
32.1148162134
 11
100.2616286345
 21
32.3183953967
  0
LWPOLYLINE
  5
52A
100
AcDbEntity
  8
RACCORDO
100
AcDbPolyline
 62
250
  6
CONTINUOUS
 90
5
 70
0
 10
100.2240445744
 20
34.2373236043
 10
100.2165645798
 20
35.0472919336
 10
100.2154598669
 20
35.2282187141
 10
100.2128753022
 20
35.413777494
 10
100.2079026369
 20
35.6024103055
  0
LINE
  5
52B
100
AcDbEntity
  8
RACCORDO
100
AcDbLine
 62
250
  6
CONTINUOUS
 10
100.2641888451
 20
29.512565606
 11
100.2626992439
 21
30.3849311351
  0
LINE
  5
52C
100
AcDbEntity
  8
RACCORDO
100
AcDbLine
 62
250
  6
CONTINUOUS
 10
100.2638650984
 20
31.899490644
 11
100.2633987986
 21
32.1148162134
  0
LINE
  5
52D
100
AcDbEntity
  8
RACCORDO
100
AcDbLine
 62
250
  6
CONTINUOUS
 10
101.8015749741
 20
-35.4999995694
 11
101.7994624821
 21
-32.0450479825
  0
LINE
  5
52E
100
AcDbEntity
  8
0
100
AcDbLine
 62
7
  6
CONTINUOUS
 10
96.6
 20
38.3321553217
 11
96.6
 21
35.9538073666
  0
LINE
  5
52F
100
AcDbEntity
  8
0
100
AcDbLine
 62
7
  6
CONTINUOUS
 10
96.6
 20
35.0461926334
 11
96.6
 21
32.6678446783
  0
LINE
  5
530
100
AcDbEntity
  8
0
100
AcDbLine
 62
7
  6
CONTINUOUS
 10
96.6
 20
-32.6678446783
 11
96.6
 21
-35.0461926334
  0
LINE
  5
531
100
AcDbEntity
  8
0
100
AcDbLine
 62
7
  6
CONTINUOUS
 10
96.6
 20
-35.9538073666
 11
96.6
 21
-38.3321553217
  0
LINE
  5
532
100
AcDbEntity
  8
RACCORDO
100
AcDbLine
 62
250
  6
CONTINUOUS
 10
101.7994624821
 20
-32.0450479825
 11
101.7988542868
 21
21.8156597007
  0
LINE
  5
533
100
AcDbEntity
  8
DRAFT
100
AcDbLine
 62
7
  6
CONTINUOUS
 10
102.0
 20
35.5
 11
102.0
 21
-35.5
  0
LINE
  5
534
100
AcDbEntity
  8
SKEL
100
AcDbLine
 62
7
  6
CONTINUOUS
 10
102.0000003491
 20
35.5000000145
 11
102.0000003491
 21
-35.5000000243
  0
LWPOLYLINE
  5
535
100
AcDbEntity
  8
0
100
AcDbPolyline
 62
7
  6
CONTINUOUS
 90
6
 70
0
 43
0.3500000006
 10
109.2500016174
 20
0.107141922
 10
109.2500016174
 20
1.1785711441
 10
109.0357171326
 20
1.3928578949
 10
107.9642856445
 20
1.3928578949
 10
107.5357166748
 20
0.9642866592
 10
107.5357166748
 20
0.5357131577
  0
LINE
  5
536
100
AcDbEntity
  8
RACCORDO
100
AcDbLine
 62
250
  6
CONTINUOUS
 10
101.7988542868
 20
21.8156597007
 11
101.7995273799
 21
32.3929994504
  0
LINE
  5
537
100
AcDbEntity
  8
RACCORDO
100
AcDbLine
 62
250
  6
CONTINUOUS
 10
100.2626992439
 20
30.3849311351
 11
100.2628632972
 21
30.8573117984
  0
LINE
  5
538
100
AcDbEntity
  8
RACCORDO
100
AcDbLine
 62
250
  6
CONTINUOUS
 10
101.7995273799
 20
32.3929994504
 11
101.8015787468
 21
35.4999993365
  0
LINE
  5
539
100
AcDbEntity
  8
RACCORDO
100
AcDbLine
 62
250
  6
CONTINUOUS
 10
100.2628632972
 20
30.8573117984
 11
100.2638650984
 21
31.899490644
  0
LINE
  5
53A
100
AcDbEntity
  8
RACCORDO
100
AcDbLine
 62
250
  6
CONTINUOUS
 10
100.2639473236
 20
-32.06310704
 11
100.26322247
 21
-29.6136226633
  0
LWPOLYLINE
  5
53B
100
AcDbEntity
  8
RACCORDO
100
AcDbPolyline
 62
250
  6
CONTINUOUS
 90
3
 70
0
 10
100.26322247
 20
-29.6136226633
 10
100.2670399993
 20
-28.4646464504
 10
100.2641888451
 20
29.512565606
  0
LINE
  5
53C
100
AcDbEntity
  8
RACCORDO
100
AcDbLine
 62
250
  6
CONTINUOUS
 10
100.2158892416
 20
-35.2202191897
 11
100.2179470976
 21
-34.8645258252
  0
LWPOLYLINE
  5
53D
100
AcDbEntity
  8
RACCORDO
100
AcDbPolyline
 62
250
  6
CONTINUOUS
 90
3
 70
0
 10
100.2627521725
 20
-32.2539168189
 10
100.2635740183
 20
-32.1596813544
 10
100.2639473236
 20
-32.06310704
  0
LINE
  5
53E
100
AcDbEntity
  8
RACCORDO
100
AcDbLine
 62
250
  6
CONTINUOUS
 10
100.2179470976
 20
-34.8645258252
 11
100.232814945
 21
-33.5748167148
  0
LWPOLYLINE
  5
53F
100
AcDbEntity
  8
RACCORDO
100
AcDbPolyline
 62
250
  6
CONTINUOUS
 90
13
 70
0
 10
96.1241507759
 20
-39.7721435808
 10
96.1198654575
 20
-39.9820568577
 10
96.114140203
 20
-40.1837964698
 10
96.1070437471
 20
-40.374938789
 10
96.0986613043
 20
-40.5531874992
 10
96.0890935449
 20
-40.7164011835
 10
96.0784553858
 20
-40.8626190507
 10
96.0668746088
 20
-40.990084491
 10
96.0544903256
 20
-41.0972661798
 10
96.0414513063
 20
-41.1828764744
 10
96.0279141904
 20
-41.2458868831
 10
96.014041605
 20
-41.2855404209
 10
96.0000002101
 20
-41.3013607045
  0
LINE
  5
540
100
AcDbEntity
  8
RACCORDO
100
AcDbLine
 62
250
  6
CONTINUOUS
 10
100.232814945
 20
-33.5748167148
 11
100.2393688205
 21
-33.2238710069
  0
LWPOLYLINE
  5
541
100
AcDbEntity
  8
RACCORDO
100
AcDbPolyline
 62
250
  6
CONTINUOUS
 90
3
 70
0
 10
100.2578535282
 20
-32.5297352987
 10
100.259890561
 20
-32.4380931498
 10
100.2627521725
 20
-32.2539168189
  0
LWPOLYLINE
  5
542
100
AcDbEntity
  8
RACCORDO
100
AcDbPolyline
 62
250
  6
CONTINUOUS
 90
3
 70
0
 10
100.2393688205
 20
-33.2238710069
 10
100.2471466039
 20
-32.9091336389
 10
100.2578535282
 20
-32.5297352987
  0
LWPOLYLINE
  5
543
100
AcDbEntity
  8
RACCORDO
100
AcDbPolyline
 62
250
  6
CONTINUOUS
 90
3
 70
0
 10
100.207986942
 20
-35.6027333004
 10
100.2132748606
 20
-35.4090695555
 10
100.2158892416
 20
-35.2202191897
  0
LWPOLYLINE
  5
544
100
AcDbEntity
  8
DRAFT
100
AcDbPolyline
 62
7
  6
CONTINUOUS
 90
37
 70
0
 10
99.4115860543
 20
-35.5
 10
99.3967646447
 20
-35.8146451581
 10
99.3529927015
 20
-36.1268097287
 10
99.2805779685
 20
-36.4338330287
 10
99.1800928046
 20
-36.7330590519
 10
99.0523156159
 20
-37.0219492996
 10
98.8981996585
 20
-37.2980850869
 10
98.7188631704
 20
-37.559195172
 10
98.5158594813
 20
-37.8028153953
 10
98.2912014977
 20
-38.0264762057
 10
98.0463999094
 20
-38.228599948
 10
97.7839652043
 20
-38.4070560775
 10
97.508084416
 20
-38.5594013892
 10
97.220008903
 20
-38.6854092727
 10
96.9236917679
 20
-38.7837932305
 10
96.6282757691
 20
-38.8531122945
 10
96.339578789
 20
-38.8948076028
 10
96.0571638864
 20
-38.9116040665
 10
95.7807756783
 20
-38.9054234385
 10
95.5130014623
 20
-38.8779943613
 10
95.2545112802
 20
-38.831018792
 10
95.0019571294
 20
-38.7648399281
 10
94.7570023174
 20
-38.6803221997
 10
94.5206136412
 20
-38.578235812
 10
94.2889813646
 20
-38.4566230344
 10
94.0622583396
 20
-38.3142428356
 10
93.8441208956
 20
-38.1519898206
 10
93.6366516795
 20
-37.970191529
 10
93.4426149607
 20
-37.7701958718
 10
93.2630642613
 20
-37.5518953298
 10
93.0981856993
 20
-37.3132380274
 10
92.9503298478
 20
-37.0541510441
 10
92.8227887368
 20
-36.776283728
 10
92.7181438947
 20
-36.480061219
 10
92.6394055886
 20
-36.1668916902
 10
92.5896799394
 20
-35.8393017954
 10
92.5718361721
 20
-35.5
  0
LWPOLYLINE
  5
545
100
AcDbEntity
  8
DRAFT
100
AcDbPolyline
 62
7
  6
CONTINUOUS
 90
40
 70
0
 10
99.4115817633
 20
35.5
 10
99.395484457
 20
35.1650054855
 10
99.3471279916
 20
34.8355334763
 10
99.2676604183
 20
34.5145953302
 10
99.1578260809
 20
34.2033539428
 10
99.0196287562
 20
33.9062218234
 10
98.8578605929
 20
33.6301340727
 10
98.6772016124
 20
33.3781659766
 10
98.4797958006
 20
33.1491761797
 10
98.2676916297
 20
32.9427316729
 10
98.0450933348
 20
32.7602945992
 10
97.8133440578
 20
32.6005799292
 10
97.5688104822
 20
32.4602307876
 10
97.3113414934
 20
32.3395655423
 10
97.0442723757
 20
32.2405359569
 10
96.7682799277
 20
32.1637048921
 10
96.4833795454
 20
32.1097417588
 10
96.193286313
 20
32.0800007572
 10
95.9044109364
 20
32.0750213263
 10
95.6173762838
 20
32.0943193339
 10
95.3356387805
 20
32.1371522635
 10
95.0694856807
 20
32.2001848261
 10
94.8236176462
 20
32.2790296007
 10
94.5948845362
 20
32.3714984928
 10
94.3810988571
 20
32.4761067684
 10
94.1838384687
 20
32.5898812877
 10
94.0016863839
 20
32.7114532272
 10
93.8286526017
 20
32.8436592211
 10
93.6650197905
 20
32.9860224118
 10
93.5116031264
 20
33.1375763606
 10
93.3647709222
 20
33.3024455399
 10
93.2255797995
 20
33.480993352
 10
93.0957887172
 20
33.6726975166
 10
92.9745701536
 20
33.8815692685
 10
92.8639443211
 20
34.1085468744
 10
92.7670430005
 20
34.3524794157
 10
92.6861210937
 20
34.614520875
 10
92.6243024533
 20
34.8943954165
 10
92.585098646
 20
35.1901787339
 10
92.5718494717
 20
35.5
  0
LINE
  5
546
100
AcDbEntity
  8
0
100
AcDbLine
 62
7
  6
CONTINUOUS
 10
94.8402717707
 20
-35.7630445128
 11
94.8550027231
 21
-35.7281482281
  0
LINE
  5
547
100
AcDbEntity
  8
0
100
AcDbLine
 62
7
  6
CONTINUOUS
 10
97.1597282293
 20
-35.2369554872
 11
97.1449972769
 21
-35.2718517719
  0
LINE
  5
548
100
AcDbEntity
  8
0
100
AcDbLine
 62
7
  6
CONTINUOUS
 10
94.8253352978
 20
-35.7978189078
 11
94.8402717707
 21
-35.7630445128
  0
LINE
  5
549
100
AcDbEntity
  8
0
100
AcDbLine
 62
7
  6
CONTINUOUS
 10
97.1746647022
 20
-35.2021810922
 11
97.1597282293
 21
-35.2369554872
  0
LINE
  5
54A
100
AcDbEntity
  8
0
100
AcDbLine
 62
7
  6
CONTINUOUS
 10
94.8101933044
 20
-35.8324714129
 11
94.8253352978
 21
-35.7978189078
  0
LINE
  5
54B
100
AcDbEntity
  8
0
100
AcDbLine
 62
7
  6
CONTINUOUS
 10
97.1898066956
 20
-35.1675285871
 11
97.1746647022
 21
-35.2021810922
  0
LINE
  5
54C
100
AcDbEntity
  8
0
100
AcDbLine
 62
7
  6
CONTINUOUS
 10
94.828395019
 20
-35.8450726247
 11
94.8778937063
 21
-35.7388223825
  0
LINE
  5
54D
100
AcDbEntity
  8
0
100
AcDbLine
 62
7
  6
CONTINUOUS
 10
97.171604981
 20
-35.1549273753
 11
97.1221062937
 21
-35.2611776175
  0
LINE
  5
54E
100
AcDbEntity
  8
0
100
AcDbLine
 62
7
  6
CONTINUOUS
 10
95.480282565
 20
-34.9802732178
 11
95.5000533558
 21
-34.9378661378
  0
LINE
  5
54F
100
AcDbEntity
  8
0
100
AcDbLine
 62
7
  6
CONTINUOUS
 10
96.519717435
 20
-36.0197267822
 11
96.4999466442
 21
-36.0621338622
  0
LINE
  5
550
100
AcDbEntity
  8
0
100
AcDbLine
 62
7
  6
CONTINUOUS
 10
95.5000533558
 20
-34.9378661378
 11
95.4795953518
 21
-34.9795953519
  0
LINE
  5
551
100
AcDbEntity
  8
0
100
AcDbLine
 62
7
  6
CONTINUOUS
 10
96.4999466442
 20
-36.0621338622
 11
96.5204046482
 21
-36.0204046481
  0
LINE
  5
552
100
AcDbEntity
  8
0
100
AcDbLine
 62
7
  6
CONTINUOUS
 10
95.3727025934
 20
-34.8727027659
 11
95.4
 21
-34.8181128479
  0
LINE
  5
553
100
AcDbEntity
  8
0
100
AcDbLine
 62
7
  6
CONTINUOUS
 10
96.6272974066
 20
-36.1272972341
 11
96.6
 21
-36.1818871521
  0
LINE
  5
554
100
AcDbEntity
  8
0
100
AcDbLine
 62
7
  6
CONTINUOUS
 10
95.4
 20
34.8181119899
 11
95.3727024907
 21
34.8727024837
  0
LINE
  5
555
100
AcDbEntity
  8
0
100
AcDbLine
 62
7
  6
CONTINUOUS
 10
96.6
 20
36.1818880102
 11
96.6272975093
 21
36.1272975163
  0
LINE
  5
556
100
AcDbEntity
  8
0
100
AcDbLine
 62
7
  6
CONTINUOUS
 10
95.4795953518
 20
34.9795953518
 11
95.5000529891
 21
34.937866464
  0
LINE
  5
557
100
AcDbEntity
  8
0
100
AcDbLine
 62
7
  6
CONTINUOUS
 10
96.5204046482
 20
36.0204046482
 11
96.4999470109
 21
36.062133536
  0
LINE
  5
558
100
AcDbEntity
  8
0
100
AcDbLine
 62
7
  6
CONTINUOUS
 10
95.5000529891
 20
34.937866464
 11
95.4802765161
 21
34.9802765161
  0
LINE
  5
559
100
AcDbEntity
  8
0
100
AcDbLine
 62
7
  6
CONTINUOUS
 10
96.4999470109
 20
36.062133536
 11
96.5197234839
 21
36.0197234839
  0
LINE
  5
55A
100
AcDbEntity
  8
0
100
AcDbLine
 62
7
  6
CONTINUOUS
 10
94.877893713
 20
35.7388223726
 11
94.8283951111
 21
35.8450726739
  0
LINE
  5
55B
100
AcDbEntity
  8
0
100
AcDbLine
 62
7
  6
CONTINUOUS
 10
97.122106287
 20
35.2611776274
 11
97.1716048889
 21
35.1549273261
  0
LINE
  5
55C
100
AcDbEntity
  8
0
100
AcDbLine
 62
7
  6
CONTINUOUS
 10
94.8550027299
 20
35.7281482181
 11
94.8099522509
 21
35.8323044581
  0
LINE
  5
55D
100
AcDbEntity
  8
0
100
AcDbLine
 62
7
  6
CONTINUOUS
 10
97.1449972701
 20
35.2718517819
 11
97.190047748
 21
35.1676955411
  0
LWPOLYLINE
  5
55E
100
AcDbEntity
  8
DRAFT
100
AcDbPolyline
 62
7
  6
CONTINUOUS
 90
20
 70
0
 10
-172.5267230112
 20
-38.9121608059
 10
-172.5442634305
 20
-38.9054234385
 10
-172.5698253125
 20
-38.8779943613
 10
-172.5985791735
 20
-38.831018792
 10
-172.6307149071
 20
-38.7648399281
 10
-172.6661464648
 20
-38.6803221997
 10
-172.7049598951
 20
-38.578235812
 10
-172.7476032375
 20
-38.4566230344
 10
-172.79456419
 20
-38.3142428356
 10
-172.8453550545
 20
-38.1519898206
 10
-172.8989607765
 20
-37.970191529
 10
-172.9554778686
 20
-37.7701958718
 10
-173.0148098182
 20
-37.5518953298
 10
-173.0756520326
 20
-37.3132380274
 10
-173.1385544175
 20
-37.0541510441
 10
-173.2029670672
 20
-36.776283728
 10
-173.265935672
 20
-36.480061219
 10
-173.3264754621
 20
-36.1668916902
 10
-173.3855712072
 20
-35.8393017954
 10
-173.4432229075
 20
-35.5
  0
LWPOLYLINE
  5
55F
100
AcDbEntity
  8
RACCORDO
100
AcDbPolyline
 62
250
  6
CONTINUOUS
 90
16
 70
0
 10
-172.4952612416
 20
39.8650761017
 10
-172.4953710602
 20
39.8649177706
 10
-172.4962393282
 20
39.863998423
 10
-172.4971632515
 20
39.8632840576
 10
-172.4981372782
 20
39.8627310505
 10
-172.4991091923
 20
39.8624456684
 10
-172.5000814766
 20
39.8623392696
 10
-172.5010510586
 20
39.8623543496
 10
-172.5019542668
 20
39.8626431602
 10
-172.5028013515
 20
39.8630651601
 10
-172.5035804198
 20
39.8635752702
 10
-172.5041882869
 20
39.8644563103
 10
-172.5046323442
 20
39.8655524067
 10
-172.5049044404
 20
39.8667291021
 10
-172.5048736855
 20
39.8682494974
 10
-172.5045036592
 20
39.8700042264
  0
LINE
  5
560
100
AcDbEntity
  8
0
100
AcDbLine
 62
7
  6
CONTINUOUS
 10
-123.215281153
 20
-40.8747431161
 11
-159.0362240407
 21
-41.5
  0
LINE
  5
561
100
AcDbEntity
  8
RACCORDO
100
AcDbLine
 62
7
  6
CONTINUOUS
 10
-170.6227589405
 20
-41.2977553114
 11
-159.0362240407
 21
-41.5000003491
  0
LWPOLYLINE
  5
562
100
AcDbEntity
  8
RACCORDO
100
AcDbPolyline
 62
7
  6
CONTINUOUS
 90
3
 70
0
 10
-172.2482760114
 20
40.4132034397
 10
-172.3475988255
 20
40.2487852255
 10
-172.430693608
 20
40.0755889511
  0
LWPOLYLINE
  5
563
100
AcDbEntity
  8
RACCORDO
100
AcDbPolyline
 62
7
  6
CONTINUOUS
 90
3
 70
0
 10
-172.430693608
 20
40.0755889511
 10
-172.4967915285
 20
39.8952113617
 10
-172.5044814991
 20
39.8700512441
  0
LWPOLYLINE
  5
564
100
AcDbEntity
  8
RACCORDO
100
AcDbPolyline
 62
7
  6
CONTINUOUS
 90
9
 70
0
 10
-174.7286401104
 20
25.8811687826
 10
-174.7289691376
 20
25.880649203
 10
-174.7292499298
 20
25.8815475216
 10
-174.7294851994
 20
25.8830875813
 10
-174.729680325
 20
25.8835375663
 10
-174.7298267977
 20
25.8829601206
 10
-174.7299142403
 20
25.8829533131
 10
-174.7299543692
 20
25.8828672298
 10
-174.7299584643
 20
25.8826812476
  0
LINE
  5
565
100
AcDbEntity
  8
RACCORDO
100
AcDbLine
 62
7
  6
CONTINUOUS
 10
-175.2789701663
 20
24.1783920406
 11
-175.2940454661
 21
24.1572310848
  0
LINE
  5
566
100
AcDbEntity
  8
RACCORDO
100
AcDbLine
 62
7
  6
CONTINUOUS
 10
-175.2940454661
 20
24.1572310848
 11
-175.308832018
 21
24.1368455575
  0
LINE
  5
567
100
AcDbEntity
  8
RACCORDO
100
AcDbLine
 62
7
  6
CONTINUOUS
 10
-175.308832018
 20
24.1368455575
 11
-175.3223344392
 21
24.1185398756
  0
LINE
  5
568
100
AcDbEntity
  8
RACCORDO
100
AcDbLine
 62
7
  6
CONTINUOUS
 10
-175.3223344392
 20
24.1185398756
 11
-175.3333204065
 21
24.1038573666
  0
LINE
  5
569
100
AcDbEntity
  8
RACCORDO
100
AcDbLine
 62
7
  6
CONTINUOUS
 10
-175.3304611477
 20
24.1076606979
 11
-175.3368013147
 21
24.0992492473
  0
LINE
  5
56A
100
AcDbEntity
  8
RACCORDO
100
AcDbLine
 62
250
  6
CONTINUOUS
 10
-172.3249614121
 20
-35.6027328767
 11
-171.062984253
 21
-35.5348432018
  0
LINE
  5
56B
100
AcDbEntity
  8
RACCORDO
100
AcDbLine
 62
250
  6
CONTINUOUS
 10
-171.062984253
 20
-35.5348432018
 11
-170.4042355228
 21
-35.4999996706
  0
LINE
  5
56C
100
AcDbEntity
  8
0
100
AcDbLine
 62
7
  6
CONTINUOUS
 10
-122.0362240407
 20
-33.7242099741
 11
-122.0743802107
 21
-33.7248759926
  0
LINE
  5
56D
100
AcDbEntity
  8
ASSI
100
AcDbLine
 62
7
  6
CONTINUOUS
 10
-122.0362240407
 20
-36.0
 11
-121.5362240407
 21
-36.0
  0
LINE
  5
56E
100
AcDbEntity
  8
RACCORDO
100
AcDbLine
 62
250
  6
CONTINUOUS
 10
-170.4042355278
 20
-35.4999995694
 11
-159.0362240407
 21
-35.5000000243
  0
LINE
  5
56F
100
AcDbEntity
  8
DRAFT
100
AcDbLine
 62
250
  6
CONTINUOUS
 10
-122.0743802107
 20
-35.5
 11
-122.0362240407
 21
-35.5
  0
LINE
  5
570
100
AcDbEntity
  8
0
100
AcDbLine
 62
250
  6
CONTINUOUS
 10
-122.0743802107
 20
-35.5
 11
-159.0362240407
 21
-35.5
  0
LWPOLYLINE
  5
571
100
AcDbEntity
  8
DRAFT
100
AcDbPolyline
 62
7
  6
CONTINUOUS
 90
18
 70
0
 10
-173.3230385586
 20
-32.0739459399
 10
-173.2936646842
 20
-32.0783229544
 10
-173.2416775102
 20
-32.1058635483
 10
-173.185849319
 20
-32.1600868454
 10
-173.1266734627
 20
-32.2423189516
 10
-173.0664996964
 20
-32.3525101813
 10
-173.0052842642
 20
-32.4902899951
 10
-172.9430709219
 20
-32.6557753428
 10
-172.8823406926
 20
-32.8485233997
 10
-172.8230719021
 20
-33.0679935207
 10
-172.7652862246
 20
-33.3128551787
 10
-172.7115297056
 20
-33.5808348885
 10
-172.6621033275
 20
-33.8709152077
 10
-172.6167061078
 20
-34.1798922016
 10
-172.5769811447
 20
-34.5010165069
 10
-172.5434761374
 20
-34.8296099021
 10
-172.5156433867
 20
-35.1637004193
 10
-172.4934828926
 20
-35.5
  0
LINE
  5
572
100
AcDbEntity
  8
RACCORDO
100
AcDbLine
 62
7
  6
CONTINUOUS
 10
-175.3347742004
 20
-24.1019312153
 11
-175.3305111123
 21
-24.1075939596
  0
LINE
  5
573
100
AcDbEntity
  8
RACCORDO
100
AcDbLine
 62
7
  6
CONTINUOUS
 10
-175.3325177776
 20
-24.1049237473
 11
-175.3204703861
 21
-24.1210498113
  0
LINE
  5
574
100
AcDbEntity
  8
RACCORDO
100
AcDbLine
 62
7
  6
CONTINUOUS
 10
-175.3204703861
 20
-24.1210498113
 11
-175.312414017
 21
-24.1319610048
  0
LINE
  5
575
100
AcDbEntity
  8
RACCORDO
100
AcDbLine
 62
7
  6
CONTINUOUS
 10
-175.3136313698
 20
-24.1303057018
 11
-175.3023010134
 21
-24.1458055046
  0
LINE
  5
576
100
AcDbEntity
  8
RACCORDO
100
AcDbLine
 62
7
  6
CONTINUOUS
 10
-175.306182425
 20
-24.1404722307
 11
-175.2958490335
 21
-24.1547256648
  0
LINE
  5
577
100
AcDbEntity
  8
RACCORDO
100
AcDbLine
 62
7
  6
CONTINUOUS
 10
-175.2986289973
 20
-24.1508737258
 11
-175.2895639793
 21
-24.1634817842
  0
LINE
  5
578
100
AcDbEntity
  8
RACCORDO
100
AcDbLine
 62
7
  6
CONTINUOUS
 10
-175.2892711951
 20
-24.163891346
 11
-175.2753153902
 21
-24.183581958
  0
LINE
  5
579
100
AcDbEntity
  8
RACCORDO
100
AcDbLine
 62
7
  6
CONTINUOUS
 10
-175.2792331126
 20
-24.1780203363
 11
-175.2682914697
 21
-24.193620689
  0
LINE
  5
57A
100
AcDbEntity
  8
RACCORDO
100
AcDbLine
 62
7
  6
CONTINUOUS
 10
-175.2680173502
 20
-24.1940142387
 11
-175.2568540643
 21
-24.2101564203
  0
LINE
  5
57B
100
AcDbEntity
  8
RACCORDO
100
AcDbLine
 62
7
  6
CONTINUOUS
 10
-175.26052857
 20
-24.2048180809
 11
-175.2448442099
 21
-24.2277786385
  0
LINE
  5
57C
100
AcDbEntity
  8
RACCORDO
100
AcDbLine
 62
7
  6
CONTINUOUS
 10
-175.25302001
 20
-24.2157529483
 11
-175.2455482177
 21
-24.2267381245
  0
LINE
  5
57D
100
AcDbEntity
  8
RACCORDO
100
AcDbLine
 62
7
  6
CONTINUOUS
 10
-175.2455482177
 20
-24.2267381245
 11
-175.2326057441
 21
-24.2460176994
  0
LINE
  5
57E
100
AcDbEntity
  8
RACCORDO
100
AcDbLine
 62
7
  6
CONTINUOUS
 10
-175.2380588307
 20
-24.2378551901
 11
-175.2305533003
 21
-24.2491048486
  0
LINE
  5
57F
100
AcDbEntity
  8
RACCORDO
100
AcDbLine
 62
7
  6
CONTINUOUS
 10
-175.2326057441
 20
-24.2460176994
 11
-175.2155009236
 21
-24.2720028719
  0
LINE
  5
580
100
AcDbEntity
  8
RACCORDO
100
AcDbLine
 62
7
  6
CONTINUOUS
 10
-175.2202141687
 20
-24.2647839593
 11
-175.2076175582
 21
-24.2841798237
  0
LWPOLYLINE
  5
581
100
AcDbEntity
  8
RACCORDO
100
AcDbPolyline
 62
7
  6
CONTINUOUS
 90
3
 70
0
 10
-175.2079548464
 20
-24.2836560446
 10
-175.1949545566
 20
-24.3040138905
 10
-175.1822476474
 20
-24.3242680531
  0
LINE
  5
582
100
AcDbEntity
  8
RACCORDO
100
AcDbLine
 62
7
  6
CONTINUOUS
 10
-175.2003936291
 20
-24.2954524439
 11
-175.1928223397
 21
-24.3073874194
  0
LINE
  5
583
100
AcDbEntity
  8
RACCORDO
100
AcDbLine
 62
7
  6
CONTINUOUS
 10
-175.185251026
 20
-24.3194481473
 11
-175.1694917975
 21
-24.3449679506
  0
LINE
  5
584
100
AcDbEntity
  8
RACCORDO
100
AcDbLine
 62
7
  6
CONTINUOUS
 10
-175.177681272
 20
-24.3316349495
 11
-175.1701144145
 21
-24.3439485627
  0
LWPOLYLINE
  5
585
100
AcDbEntity
  8
RACCORDO
100
AcDbPolyline
 62
7
  6
CONTINUOUS
 90
3
 70
0
 10
-175.1701144145
 20
-24.3439485627
 10
-175.1567769009
 20
-24.3659827774
 10
-175.1441287577
 20
-24.3872807023
  0
LINE
  5
586
100
AcDbEntity
  8
RACCORDO
100
AcDbLine
 62
7
  6
CONTINUOUS
 10
-175.1625597776
 20
-24.3563765392
 11
-175.1550200297
 21
-24.3689170061
  0
LINE
  5
587
100
AcDbEntity
  8
RACCORDO
100
AcDbLine
 62
7
  6
CONTINUOUS
 10
-175.1474951148
 20
-24.3815726093
 11
-175.1315332029
 21
-24.4088966422
  0
LINE
  5
588
100
AcDbEntity
  8
RACCORDO
100
AcDbLine
 62
7
  6
CONTINUOUS
 10
-175.1399900116
 20
-24.3943374988
 11
-175.1325067523
 21
-24.4072106488
  0
LINE
  5
589
100
AcDbEntity
  8
RACCORDO
100
AcDbLine
 62
7
  6
CONTINUOUS
 10
-175.1325067523
 20
-24.4072106488
 11
-175.1190162096
 21
-24.4307973166
  0
LINE
  5
58A
100
AcDbEntity
  8
RACCORDO
100
AcDbLine
 62
7
  6
CONTINUOUS
 10
-175.1250458119
 20
-24.4201937081
 11
-175.1176097246
 21
-24.4332847526
  0
LINE
  5
58B
100
AcDbEntity
  8
RACCORDO
100
AcDbLine
 62
7
  6
CONTINUOUS
 10
-175.1190162096
 20
-24.4307973166
 11
-175.102817153
 21
-24.4597918539
  0
LINE
  5
58C
100
AcDbEntity
  8
RACCORDO
100
AcDbLine
 62
7
  6
CONTINUOUS
 10
-175.1065881646
 20
-24.4529748314
 11
-175.0942494477
 21
-24.4754390266
  0
LINE
  5
58D
100
AcDbEntity
  8
RACCORDO
100
AcDbLine
 62
7
  6
CONTINUOUS
 10
-175.0954643881
 20
-24.4732062662
 11
-175.0820100456
 21
-24.4981825068
  0
LINE
  5
58E
100
AcDbEntity
  8
RACCORDO
100
AcDbLine
 62
7
  6
CONTINUOUS
 10
-175.0881427097
 20
-24.4867275071
 11
-175.0808533771
 21
-24.5003557998
  0
LINE
  5
58F
100
AcDbEntity
  8
RACCORDO
100
AcDbLine
 62
7
  6
CONTINUOUS
 10
-175.0820100456
 20
-24.4981825068
 11
-175.066380275
 21
-24.5279277515
  0
LINE
  5
590
100
AcDbEntity
  8
RACCORDO
100
AcDbLine
 62
7
  6
CONTINUOUS
 10
-175.0698753791
 20
-24.5212059858
 11
-175.0578509061
 21
-24.5445101549
  0
LWPOLYLINE
  5
591
100
AcDbEntity
  8
RACCORDO
100
AcDbPolyline
 62
7
  6
CONTINUOUS
 90
4
 70
0
 10
-175.0591990032
 20
-24.5418717742
 10
-175.0459463317
 20
-24.5680872556
 10
-175.0341670243
 20
-24.5919377069
 10
-175.0225184087
 20
-24.6160618531
  0
LINE
  5
592
100
AcDbEntity
  8
RACCORDO
100
AcDbLine
 62
7
  6
CONTINUOUS
 10
-175.0520573871
 20
-24.5559191654
 11
-175.0449566626
 21
-24.5700700656
  0
LWPOLYLINE
  5
593
100
AcDbEntity
  8
SKEL
100
AcDbPolyline
 62
7
  6
CONTINUOUS
 90
5
 70
0
 10
-173.6773938738
 20
35.3370151538
 10
-173.7189240699
 20
35.1310413044
 10
-173.7597028918
 20
34.9239492541
 10
-173.7990092005
 20
34.7196366551
 10
-173.8757287513
 20
34.3071652159
  0
LINE
  5
594
100
AcDbEntity
  8
SKEL
100
AcDbLine
 62
7
  6
CONTINUOUS
 10
-173.5996821075
 20
35.7097041062
 11
-173.6773938738
 21
35.3370151538
  0
LINE
  5
595
100
AcDbEntity
  8
SKEL
100
AcDbLine
 62
7
  6
CONTINUOUS
 10
-173.5274592534
 20
36.0420724177
 11
-173.5996821075
 21
35.7097041062
  0
LWPOLYLINE
  5
596
100
AcDbEntity
  8
SKEL
100
AcDbPolyline
 62
7
  6
CONTINUOUS
 90
10
 70
0
 10
-173.1073588948
 20
37.7524269871
 10
-173.1554133091
 20
37.573201815
 10
-173.2018219297
 20
37.3967230342
 10
-173.2466609026
 20
37.2226637643
 10
-173.2901808969
 20
37.0501999371
 10
-173.3324443236
 20
36.8792537747
 10
-173.373471874
 20
36.7099095976
 10
-173.4134430319
 20
36.5415779187
 10
-173.4522676661
 20
36.3747864936
 10
-173.5274592534
 20
36.0420724177
  0
LINE
  5
597
100
AcDbEntity
  8
SKEL
100
AcDbLine
 62
7
  6
CONTINUOUS
 10
-173.0067706848
 20
38.1179026656
 11
-173.1073588948
 21
37.7524269871
  0
LINE
  5
598
100
AcDbEntity
  8
SKEL
100
AcDbLine
 62
7
  6
CONTINUOUS
 10
-172.9006173948
 20
38.4923538324
 11
-173.0067706848
 21
38.1179026656
  0
LINE
  5
599
100
AcDbEntity
  8
SKEL
100
AcDbLine
 62
7
  6
CONTINUOUS
 10
-172.7899411961
 20
38.8737547342
 11
-172.9006173948
 21
38.4923538324
  0
LWPOLYLINE
  5
59A
100
AcDbEntity
  8
SKEL
100
AcDbPolyline
 62
7
  6
CONTINUOUS
 90
8
 70
0
 10
-172.6093132412
 20
39.5188203036
 10
-172.9080844358
 20
38.5028540304
 10
-173.1947430876
 20
37.4664600478
 10
-173.4583546391
 20
36.398586743
 10
-173.6945331016
 20
35.3089370096
 10
-173.9006480997
 20
34.2279431213
 10
-174.0804891143
 20
33.1618363871
 10
-174.2383410443
 20
32.1044608383
  0
LINE
  5
59B
100
AcDbEntity
  8
RACCORDO
100
AcDbLine
 62
7
  6
CONTINUOUS
 10
-172.5045036592
 20
39.8700042264
 11
-172.5044716309
 21
39.8701128511
  0
LINE
  5
59C
100
AcDbEntity
  8
SKEL
100
AcDbLine
 62
7
  6
CONTINUOUS
 10
-172.5045081657
 20
39.8699891257
 11
-172.6093132412
 21
39.5188203036
  0
LWPOLYLINE
  5
59D
100
AcDbEntity
  8
SKEL
100
AcDbPolyline
 62
7
  6
CONTINUOUS
 90
3
 70
0
 10
-172.4932356433
 20
39.8718429883
 10
-172.5542633692
 20
39.6679685548
 10
-172.7899411961
 20
38.8737547342
  0
LWPOLYLINE
  5
59E
100
AcDbEntity
  8
RACCORDO
100
AcDbPolyline
 62
250
  6
CONTINUOUS
 90
13
 70
0
 10
-172.3168370292
 20
39.772231949
 10
-172.2538150248
 20
39.982143599
 10
-172.1682454503
 20
40.1838814138
 10
-172.0611562735
 20
40.3750218672
 10
-171.9338339827
 20
40.5532687417
 10
-171.7878081316
 20
40.7164807136
 10
-171.6248329643
 20
40.8626970772
 10
-171.4468663413
 20
40.9901612993
 10
-171.256046219
 20
41.0973421207
 10
-171.0546649662
 20
41.1829519516
 10
-170.8451418249
 20
41.2459623402
 10
-170.629993848
 20
41.2856163269
 10
-170.4118056608
 20
41.3014375385
  0
LWPOLYLINE
  5
59F
100
AcDbEntity
  8
RACCORDO
100
AcDbPolyline
 62
7
  6
CONTINUOUS
 90
7
 70
0
 10
-172.49322889
 20
39.8718655428
 10
-172.4930899417
 20
39.8723142505
 10
-172.4925071276
 20
39.8737822319
 10
-172.4922210884
 20
39.8738588138
 10
-172.4921462033
 20
39.8731652378
 10
-172.4922594562
 20
39.8720812841
 10
-172.4926230681
 20
39.8706109923
  0
LINE
  5
5A0
100
AcDbEntity
  8
RACCORDO
100
AcDbLine
 62
250
  6
CONTINUOUS
 10
-127.8362240407
 20
-31.6086513684
 11
-128.3274978375
 21
-31.6086513684
  0
LINE
  5
5A1
100
AcDbEntity
  8
RACCORDO
100
AcDbLine
 62
250
  6
CONTINUOUS
 10
-123.215281153
 20
-32.6805827057
 11
-122.0362240407
 21
-32.6925864934
  0
LINE
  5
5A2
100
AcDbEntity
  8
RACCORDO
100
AcDbLine
 62
250
  6
CONTINUOUS
 10
-127.344950244
 20
-32.6084990636
 11
-123.215281153
 21
-32.6805827057
  0
LINE
  5
5A3
100
AcDbEntity
  8
RACCORDO
100
AcDbLine
 62
7
  6
CONTINUOUS
 10
-127.344950244
 20
-32.108575216
 11
-122.5590543191
 21
-32.1921133401
  0
LWPOLYLINE
  5
5A4
100
AcDbEntity
  8
RACCORDO
100
AcDbPolyline
 62
7
  6
CONTINUOUS
 90
7
 70
0
 10
-122.5590510164
 20
-32.1921133978
 10
-122.553788123
 20
-32.1922300673
 10
-122.5485268417
 20
-32.1923970651
 10
-122.5432671725
 20
-32.192614391
 10
-122.5380091154
 20
-32.1928820451
 10
-122.5327526704
 20
-32.1932000274
 10
-122.5274978375
 20
-32.1935683378
  0
LINE
  5
5A5
100
AcDbEntity
  8
RACCORDO
100
AcDbLine
 62
7
  6
CONTINUOUS
 10
-175.0378980741
 20
-24.5843246059
 11
-175.0308839615
 21
-24.5986806671
  0
LINE
  5
5A6
100
AcDbEntity
  8
RACCORDO
100
AcDbLine
 62
7
  6
CONTINUOUS
 10
-175.0239155496
 20
-24.6131383433
 11
-175.0110099144
 21
-24.6404514946
  0
LINE
  5
5A7
100
AcDbEntity
  8
RACCORDO
100
AcDbLine
 62
7
  6
CONTINUOUS
 10
-175.0169940713
 20
-24.6276977186
 11
-175.0101218179
 21
-24.6423566096
  0
LINE
  5
5A8
100
AcDbEntity
  8
RACCORDO
100
AcDbLine
 62
7
  6
CONTINUOUS
 10
-175.0110099144
 20
-24.6404514946
 11
-174.996529838
 21
-24.6719731167
  0
LINE
  5
5A9
100
AcDbEntity
  8
RACCORDO
100
AcDbLine
 62
7
  6
CONTINUOUS
 10
-174.9996468414
 20
-24.665106727
 11
-174.988434541
 21
-24.690027564
  0
LWPOLYLINE
  5
5AA
100
AcDbEntity
  8
RACCORDO
100
AcDbPolyline
 62
7
  6
CONTINUOUS
 90
4
 70
0
 10
-174.9898135694
 20
-24.6869285221
 10
-174.977382134
 20
-24.7152053578
 10
-174.9664948247
 20
-24.7406398734
 10
-174.955777861
 20
-24.7663307942
  0
LINE
  5
5AB
100
AcDbEntity
  8
RACCORDO
100
AcDbLine
 62
7
  6
CONTINUOUS
 10
-174.9831523896
 20
-24.7019812793
 11
-174.9765475001
 21
-24.717131378
  0
LINE
  5
5AC
100
AcDbEntity
  8
RACCORDO
100
AcDbLine
 62
7
  6
CONTINUOUS
 10
-174.9700010849
 20
-24.7323765063
 11
-174.9635143199
 21
-24.7477166169
  0
LINE
  5
5AD
100
AcDbEntity
  8
RACCORDO
100
AcDbLine
 62
7
  6
CONTINUOUS
 10
-174.9570883868
 20
-24.7631516521
 11
-174.9452400161
 21
-24.7922690312
  0
LINE
  5
5AE
100
AcDbEntity
  8
RACCORDO
100
AcDbLine
 62
7
  6
CONTINUOUS
 10
-174.9507254107
 20
-24.7786792365
 11
-174.9444265458
 21
-24.7942992756
  0
LWPOLYLINE
  5
5AF
100
AcDbEntity
  8
RACCORDO
100
AcDbPolyline
 62
7
  6
CONTINUOUS
 90
3
 70
0
 10
-174.9452400161
 20
-24.7922690312
 10
-174.9348863704
 20
-24.8184540182
 10
-174.9247220393
 20
-24.8448851084
  0
LINE
  5
5B0
100
AcDbEntity
  8
RACCORDO
100
AcDbLine
 62
7
  6
CONTINUOUS
 10
-174.9381929513
 20
-24.8100116645
 11
-174.9320266903
 21
-24.8258139649
  0
LWPOLYLINE
  5
5B1
100
AcDbEntity
  8
RACCORDO
100
AcDbPolyline
 62
7
  6
CONTINUOUS
 90
4
 70
0
 10
-174.9259288926
 20
-24.8417060356
 10
-174.9147554115
 20
-24.8715527802
 10
-174.9049914192
 20
-24.8984561252
 10
-174.8954350122
 20
-24.9255941831
  0
LINE
  5
5B2
100
AcDbEntity
  8
RACCORDO
100
AcDbLine
 62
7
  6
CONTINUOUS
 10
-174.9199006923
 20
-24.8576877248
 11
-174.913944087
 21
-24.8737565324
  0
LINE
  5
5B3
100
AcDbEntity
  8
RACCORDO
100
AcDbLine
 62
7
  6
CONTINUOUS
 10
-174.9080601792
 20
-24.8899122706
 11
-174.9022500755
 21
-24.9061547415
  0
LWPOLYLINE
  5
5B4
100
AcDbEntity
  8
RACCORDO
100
AcDbPolyline
 62
7
  6
CONTINUOUS
 90
4
 70
0
 10
-174.8965157046
 20
-24.9224813841
 10
-174.8860941441
 20
-24.9529570528
 10
-174.8769735666
 20
-24.9805435037
 10
-174.8680780421
 20
-25.0083522547
  0
LINE
  5
5B5
100
AcDbEntity
  8
RACCORDO
100
AcDbLine
 62
7
  6
CONTINUOUS
 10
-174.8908581396
 20
-24.9388919646
 11
-174.8852784565
 21
-24.9553862399
  0
LINE
  5
5B6
100
AcDbEntity
  8
RACCORDO
100
AcDbLine
 62
7
  6
CONTINUOUS
 10
-174.8797785115
 20
-24.9719615907
 11
-174.8743593453
 21
-24.9886177389
  0
LWPOLYLINE
  5
5B7
100
AcDbEntity
  8
RACCORDO
100
AcDbPolyline
 62
7
  6
CONTINUOUS
 90
4
 70
0
 10
-174.8690220013
 20
-25.0053543961
 10
-174.8594150579
 20
-25.0363730407
 10
-174.8509891514
 20
-25.0646043428
 10
-174.8428048793
 20
-25.0930445431
  0
LINE
  5
5B8
100
AcDbEntity
  8
RACCORDO
100
AcDbLine
 62
7
  6
CONTINUOUS
 10
-174.8637682606
 20
-25.0221688848
 11
-174.8585991292
 21
-25.0390608831
  0
LWPOLYLINE
  5
5B9
100
AcDbEntity
  8
RACCORDO
100
AcDbPolyline
 62
250
  6
CONTINUOUS
 90
13
 70
0
 10
-172.3168946683
 20
-39.7721435808
 10
-172.253876761
 20
-39.9820568577
 10
-172.1683104678
 20
-40.1837964698
 10
-172.0612237547
 20
-40.374938789
 10
-171.9339031261
 20
-40.5531874992
 10
-171.7878781691
 20
-40.7164011835
 10
-171.6249031773
 20
-40.8626190507
 10
-171.446936076
 20
-40.990084491
 10
-171.2561148996
 20
-41.0972661798
 10
-171.0547321069
 20
-41.1828764744
 10
-170.8452070396
 20
-41.2458868831
 10
-170.6300568578
 20
-41.2855404209
 10
-170.4118662995
 20
-41.3013607045
  0
LINE
  5
5BA
100
AcDbEntity
  8
RACCORDO
100
AcDbLine
 62
7
  6
CONTINUOUS
 10
-174.853515615
 20
-25.0560300588
 11
-174.8485194209
 21
-25.0730736779
  0
LINE
  5
5BB
100
AcDbEntity
  8
SKEL
100
AcDbLine
 62
7
  6
CONTINUOUS
 10
-172.8302209326
 20
-38.7366414221
 11
-172.4935561168
 21
-39.8718518665
  0
LINE
  5
5BC
100
AcDbEntity
  8
RACCORDO
100
AcDbLine
 62
7
  6
CONTINUOUS
 10
-172.5043598073
 20
-39.8700715576
 11
-172.5043801763
 21
-39.8700017669
  0
LWPOLYLINE
  5
5BD
100
AcDbEntity
  8
RACCORDO
100
AcDbPolyline
 62
7
  6
CONTINUOUS
 90
7
 70
0
 10
-172.4931119605
 20
-39.8702440942
 10
-172.4930287395
 20
-39.8705297104
 10
-172.4925980005
 20
-39.8723055802
 10
-172.4924723239
 20
-39.8735223734
 10
-172.4927371161
 20
-39.8736085181
 10
-172.4932366423
 20
-39.8727079217
 10
-172.4936222274
 20
-39.8716310113
  0
LWPOLYLINE
  5
5BE
100
AcDbEntity
  8
SKEL
100
AcDbPolyline
 62
7
  6
CONTINUOUS
 90
3
 70
0
 10
-173.0375016331
 20
-38.0457971336
 10
-172.6546919619
 20
-39.366052759
 10
-172.5043645518
 20
-39.8700541216
  0
LINE
  5
5BF
100
AcDbEntity
  8
SKEL
100
AcDbLine
 62
7
  6
CONTINUOUS
 10
-172.9504195709
 20
-38.3186624003
 11
-172.8302209326
 21
-38.7366414221
  0
LWPOLYLINE
  5
5C0
100
AcDbEntity
  8
RACCORDO
100
AcDbPolyline
 62
250
  6
CONTINUOUS
 90
26
 70
0
 10
-172.4936222274
 20
-39.8716310113
 10
-172.4937515442
 20
-39.8711647839
 10
-172.4942984767
 20
-39.8684925126
 10
-172.4947526495
 20
-39.8646745409
 10
-172.4946777986
 20
-39.8607540907
 10
-172.4939892953
 20
-39.8565202039
 10
-172.4926475943
 20
-39.8516754289
 10
-172.4903471053
 20
-39.8471738869
 10
-172.4870282333
 20
-39.8430648505
 10
-172.4827734905
 20
-39.8388633757
 10
-172.4775978088
 20
-39.8350087494
 10
-172.4715233307
 20
-39.8320509687
 10
-172.4646598795
 20
-39.8298605933
 10
-172.4572162289
 20
-39.8280024424
 10
-172.4493869159
 20
-39.8263849264
 10
-172.4411805657
 20
-39.8251415945
 10
-172.4324958532
 20
-39.823937713
 10
-172.4236719047
 20
-39.8219577393
 10
-172.4144150536
 20
-39.8201726675
 10
-172.4037744519
 20
-39.8198466181
 10
-172.3927783694
 20
-39.816656472
 10
-172.3815772159
 20
-39.809738742
 10
-172.3682570449
 20
-39.803433313
 10
-172.3525306026
 20
-39.7971989937
 10
-172.3355700308
 20
-39.7865200506
 10
-172.3168879088
 20
-39.7721419415
  0
LINE
  5
5C1
100
AcDbEntity
  8
RACCORDO
100
AcDbLine
 62
7
  6
CONTINUOUS
 10
-174.8436115158
 20
-25.0901913759
 11
-174.834869253
 21
-25.1216829563
  0
LINE
  5
5C2
100
AcDbEntity
  8
RACCORDO
100
AcDbLine
 62
7
  6
CONTINUOUS
 10
-174.8387928696
 20
-25.107382778
 11
-174.834065104
 21
-25.1246450963
  0
LWPOLYLINE
  5
5C3
100
AcDbEntity
  8
RACCORDO
100
AcDbPolyline
 62
7
  6
CONTINUOUS
 90
3
 70
0
 10
-174.834869253
 20
-25.1216829563
 10
-174.8271865784
 20
-25.1505177494
 10
-174.8197611674
 20
-25.1795470157
  0
LINE
  5
5C4
100
AcDbEntity
  8
RACCORDO
100
AcDbLine
 62
7
  6
CONTINUOUS
 10
-174.8294291482
 20
-25.1419779247
 11
-174.8248859318
 21
-25.1593808475
  0
LWPOLYLINE
  5
5C5
100
AcDbEntity
  8
RACCORDO
100
AcDbPolyline
 62
7
  6
CONTINUOUS
 90
4
 70
0
 10
-174.8204369925
 20
-25.1768510246
 10
-174.8125995118
 20
-25.2087597029
 10
-174.8057056571
 20
-25.2381536897
 10
-174.7990836479
 20
-25.2677267838
  0
LINE
  5
5C6
100
AcDbEntity
  8
RACCORDO
100
AcDbLine
 62
7
  6
CONTINUOUS
 10
-174.8160832174
 20
-25.1943880102
 11
-174.8118254937
 21
-25.2119913491
  0
LWPOLYLINE
  5
5C7
100
AcDbEntity
  8
RACCORDO
100
AcDbPolyline
 62
7
  6
CONTINUOUS
 90
5
 70
0
 10
-173.5716318331
 20
-35.8504337876
 10
-173.6381747751
 20
-35.5668644843
 10
-173.8750002711
 20
-34.4236964827
 10
-174.0845504424
 20
-33.2600925871
 10
-174.2661086556
 20
-32.0763952911
  0
LWPOLYLINE
  5
5C8
100
AcDbEntity
  8
RACCORDO
100
AcDbPolyline
 62
250
  6
CONTINUOUS
 90
15
 70
0
 10
-172.5043801763
 20
-39.8700017669
 10
-172.5046698011
 20
-39.8687445085
 10
-172.5047642056
 20
-39.867100417
 10
-172.5045050323
 20
-39.8658308013
 10
-172.5040503117
 20
-39.8646416899
 10
-172.5034065311
 20
-39.8637217443
 10
-172.5025672601
 20
-39.863256228
 10
-172.5016674025
 20
-39.8628759973
 10
-172.5007285591
 20
-39.862612465
 10
-172.4997301287
 20
-39.862646534
 10
-172.4987361219
 20
-39.8628216658
 10
-172.4977488204
 20
-39.8632041773
 10
-172.4967686177
 20
-39.8638942784
 10
-172.4958536272
 20
-39.8647760692
 10
-172.4955525384
 20
-39.8651823022
  0
LINE
  5
5C9
100
AcDbEntity
  8
SKEL
100
AcDbLine
 62
7
  6
CONTINUOUS
 10
-174.3840948921
 20
-30.9723215722
 11
-174.3830516389
 21
-30.9824142901
  0
LINE
  5
5CA
100
AcDbEntity
  8
RACCORDO
100
AcDbLine
 62
7
  6
CONTINUOUS
 10
-174.7463433275
 20
-25.5944175727
 11
-174.7444342406
 21
-25.6131170801
  0
LINE
  5
5CB
100
AcDbEntity
  8
RACCORDO
100
AcDbLine
 62
7
  6
CONTINUOUS
 10
-174.4189146183
 20
-30.8732731816
 11
-174.5422765559
 21
-29.6509833388
  0
LWPOLYLINE
  5
5CC
100
AcDbEntity
  8
SKEL
100
AcDbPolyline
 62
7
  6
CONTINUOUS
 90
13
 70
0
 10
-174.5181376883
 20
-29.7538492632
 10
-174.4952939812
 20
-29.9824753815
 10
-174.471501099
 20
-30.2100122279
 10
-174.4466025534
 20
-30.4380813864
 10
-174.4207172331
 20
-30.6656711033
 10
-174.3937338525
 20
-30.8938317908
 10
-174.3650681218
 20
-31.1272560226
 10
-174.3341971607
 20
-31.3695105618
 10
-174.301501835
 20
-31.6169519295
 10
-174.2677844628
 20
-31.8634211503
 10
-174.2330246931
 20
-32.1093149787
 10
-174.1973392138
 20
-32.3540869483
 10
-174.1277033691
 20
-32.8124654354
  0
LINE
  5
5CD
100
AcDbEntity
  8
SKEL
100
AcDbLine
 62
7
  6
CONTINUOUS
 10
-174.5513709579
 20
-29.399978198
 11
-174.5181376883
 21
-29.7538492632
  0
LINE
  5
5CE
100
AcDbEntity
  8
0
100
AcDbLine
 62
7
  6
CONTINUOUS
 10
-174.551369997
 20
-29.399978
 11
-174.5688083823
 21
-29.2017365385
  0
LWPOLYLINE
  5
5CF
100
AcDbEntity
  8
RACCORDO
100
AcDbPolyline
 62
7
  6
CONTINUOUS
 90
4
 70
0
 10
-174.7426403561
 20
-25.6318497544
 10
-174.7397062746
 20
-25.6656252485
 10
-174.7373195459
 20
-25.6970609069
 10
-174.7352592623
 20
-25.7285869963
  0
LINE
  5
5D0
100
AcDbEntity
  8
0
100
AcDbLine
 62
7
  6
CONTINUOUS
 10
-174.5688083823
 20
-29.2017365385
 11
-174.5853620882
 21
-29.0033851727
  0
LWPOLYLINE
  5
5D1
100
AcDbEntity
  8
0
100
AcDbPolyline
 62
7
  6
CONTINUOUS
 90
3
 70
0
 10
-174.6355292589
 20
-29.0033132895
 10
-174.6189932125
 20
-29.2016916115
 10
-174.6015724016
 20
-29.399978
  0
LINE
  5
5D2
100
AcDbEntity
  8
RACCORDO
100
AcDbLine
 62
7
  6
CONTINUOUS
 10
-174.7409621502
 20
-25.6506148973
 11
-174.7394002942
 21
-25.6694093232
  0
LINE
  5
5D3
100
AcDbEntity
  8
0
100
AcDbLine
 62
7
  6
CONTINUOUS
 10
-174.6511805411
 20
-28.8048430341
 11
-174.6355292589
 21
-29.0033132895
  0
LWPOLYLINE
  5
5D4
100
AcDbEntity
  8
0
100
AcDbPolyline
 62
7
  6
CONTINUOUS
 90
5
 70
0
 10
-174.5853620882
 20
-29.0033851727
 10
-174.6010311148
 20
-28.8049239027
 10
-174.615815462
 20
-28.6063527284
 10
-174.6297151298
 20
-28.4076716498
 10
-174.6427301182
 20
-28.2088806669
  0
LWPOLYLINE
  5
5D5
100
AcDbEntity
  8
RACCORDO
100
AcDbPolyline
 62
7
  6
CONTINUOUS
 90
11
 70
0
 10
-174.7299703073
 20
-25.882569367
 10
-174.7299652685
 20
-25.8826363107
 10
-174.7299375088
 20
-25.8828574672
 10
-174.7298806712
 20
-25.8833989414
 10
-174.7297951883
 20
-25.883401012
 10
-174.7296731466
 20
-25.8832520955
 10
-174.729511608
 20
-25.8834791371
 10
-174.7293223343
 20
-25.8832071947
 10
-174.7291101445
 20
-25.8823611481
 10
-174.7288720373
 20
-25.8818105637
 10
-174.7286102379
 20
-25.8817506947
  0
LINE
  5
5D6
100
AcDbEntity
  8
RACCORDO
100
AcDbLine
 62
7
  6
CONTINUOUS
 10
-174.5422765559
 20
-29.6509833388
 11
-174.5610043703
 21
-29.4015842379
  0
LINE
  5
5D7
100
AcDbEntity
  8
0
100
AcDbLine
 62
7
  6
CONTINUOUS
 10
-174.6659470588
 20
-28.6062808452
 11
-174.6511805411
 21
-28.8048430341
  0
LWPOLYLINE
  5
5D8
100
AcDbEntity
  8
RACCORDO
100
AcDbPolyline
 62
7
  6
CONTINUOUS
 90
6
 70
0
 10
-174.5421833027
 20
29.6520442354
 10
-174.41870901
 20
30.8750783812
 10
-174.2657352778
 20
32.079059377
 10
-174.0840199964
 20
33.2632745288
 10
-173.8743893379
 20
34.426852203
 10
-173.728423921
 20
35.1311926969
  0
LWPOLYLINE
  5
5D9
100
AcDbEntity
  8
SKEL
100
AcDbPolyline
 62
7
  6
CONTINUOUS
 90
14
 70
0
 10
-174.350846881
 20
31.237937637
 10
-174.3821736895
 20
30.9866585821
 10
-174.4123412167
 20
30.7349085598
 10
-174.4413612589
 20
30.482379332
 10
-174.469173326
 20
30.2293443499
 10
-174.4956500733
 20
29.976775364
 10
-174.5207766005
 20
29.7247179231
 10
-174.544548452
 20
29.4731302846
 10
-174.5668778536
 20
29.222913031
 10
-174.587758343
 20
28.9741678394
 10
-174.6071976948
 20
28.726847305
 10
-174.6251565147
 20
28.4815772808
 10
-174.6416404623
 20
28.238504433
 10
-174.6566749379
 20
27.9975017683
  0
LWPOLYLINE
  5
5DA
100
AcDbEntity
  8
RACCORDO
100
AcDbPolyline
 62
7
  6
CONTINUOUS
 90
10
 70
0
 10
-174.7524029605
 20
25.5413105111
 10
-174.7549465011
 20
25.5212414989
 10
-174.757620834
 20
25.5012227752
 10
-174.7604251778
 20
25.4812551592
 10
-174.7633587471
 20
25.4613394603
 10
-174.7664203042
 20
25.4414793254
 10
-174.7696089996
 20
25.4216755356
 10
-174.7729239802
 20
25.4019288619
 10
-174.7763638846
 20
25.3822429024
 10
-174.7799277975
 20
25.3626183972
  0
LWPOLYLINE
  5
5DB
100
AcDbEntity
  8
SKEL
100
AcDbPolyline
 62
7
  6
CONTINUOUS
 90
3
 70
0
 10
-174.2383410443
 20
32.1044608383
 10
-174.3730091995
 20
31.0680932204
 10
-174.3807125658
 20
30.9983785689
  0
LWPOLYLINE
  5
5DC
100
AcDbEntity
  8
SKEL
100
AcDbPolyline
 62
7
  6
CONTINUOUS
 90
7
 70
0
 10
-174.1034580663
 20
32.9677512641
 10
-174.1411567022
 20
32.7266797779
 10
-174.1783014682
 20
32.4825036251
 10
-174.2146550956
 20
32.2364773988
 10
-174.2501681453
 20
31.9886739541
 10
-174.284809374
 20
31.7390367629
 10
-174.3183957382
 20
31.4886474738
  0
LINE
  5
5DD
100
AcDbEntity
  8
SKEL
100
AcDbLine
 62
7
  6
CONTINUOUS
 10
-174.0262370556
 20
33.4428061819
 11
-174.1034580663
 21
32.9677512641
  0
LWPOLYLINE
  5
5DE
100
AcDbEntity
  8
DRAFT
100
AcDbPolyline
 62
7
  6
CONTINUOUS
 90
20
 70
0
 10
-173.4424609729
 20
35.5
 10
-173.3848940586
 20
35.839514635
 10
-173.3258796403
 20
36.1672826036
 10
-173.265417718
 20
36.4805919797
 10
-173.2025349377
 20
36.7768906292
 10
-173.1382046533
 20
37.0547969609
 10
-173.0753469267
 20
37.3139542361
 10
-173.0144829479
 20
37.5527507269
 10
-172.9550915269
 20
37.7711991396
 10
-172.8985291543
 20
37.9712766968
 10
-172.8449114362
 20
38.1530721551
 10
-172.7941227667
 20
38.3152738381
 10
-172.7471728185
 20
38.4575739249
 10
-172.7045517453
 20
38.5790813042
 10
-172.6657693935
 20
38.6810442808
 10
-172.6303649751
 20
38.7654337124
 10
-172.5982558894
 20
38.8314829646
 10
-172.5695247372
 20
38.8783124967
 10
-172.5439585325
 20
38.9055681665
 10
-172.5265564692
 20
38.9121580694
  0
LINE
  5
5DF
100
AcDbEntity
  8
SKEL
100
AcDbLine
 62
7
  6
CONTINUOUS
 10
-173.9502662962
 20
33.8886195314
 11
-174.0262370556
 21
33.4428061819
  0
LINE
  5
5E0
100
AcDbEntity
  8
SKEL
100
AcDbLine
 62
7
  6
CONTINUOUS
 10
-173.8757287513
 20
34.3071652159
 11
-173.9502662962
 21
33.8886195314
  0
LWPOLYLINE
  5
5E1
100
AcDbEntity
  8
RACCORDO
100
AcDbPolyline
 62
7
  6
CONTINUOUS
 90
74
 70
0
 10
-174.7836148007
 20
25.3430560757
 10
-174.7874234121
 20
25.323559483
 10
-174.791352653
 20
25.3041293154
 10
-174.795401543
 20
25.2847662577
 10
-174.799568482
 20
25.2654737981
 10
-174.8038524312
 20
25.2462525863
 10
-174.8082523502
 20
25.2271032598
 10
-174.812766525
 20
25.2080292463
 10
-174.817393859
 20
25.1890311462
 10
-174.8221332552
 20
25.1701095473
 10
-174.826982889
 20
25.1512678133
 10
-174.8319416091
 20
25.1325064931
 10
-174.8370082647
 20
25.1138261222
 10
-174.8421809247
 20
25.0952299974
 10
-174.8474583863
 20
25.0767186137
 10
-174.8528394482
 20
25.0582924525
 10
-174.8583220762
 20
25.0399547408
 10
-174.8639050195
 20
25.0217059177
 10
-174.8695870296
 20
25.0035464087
 10
-174.8753659737
 20
24.9854793676
 10
-174.881240556
 20
24.9675051768
 10
-174.8872094842
 20
24.9496242036
 10
-174.8932705317
 20
24.931839525
 10
-174.899422362
 20
24.9141514631
 10
-174.9056636419
 20
24.896560328
 10
-174.9119920532
 20
24.8790691228
 10
-174.9184062215
 20
24.8616781105
 10
-174.9249047768
 20
24.8443875403
 10
-174.9314853152
 20
24.8272003369
 10
-174.9381464275
 20
24.8101167025
 10
-174.9448867108
 20
24.7931368254
 10
-174.9517036796
 20
24.7762635497
 10
-174.9585958944
 20
24.7594970161
 10
-174.9655619221
 20
24.7428373513
 10
-174.9725992008
 20
24.7262873179
 10
-174.9797062637
 20
24.7098469945
 10
-174.986881652
 20
24.693516446
 10
-174.9941227313
 20
24.6772983524
 10
-175.0014280116
 20
24.6611927303
 10
-175.0087960117
 20
24.6451995826
 10
-175.0162240296
 20
24.6293215061
 10
-175.0237105557
 20
24.6135584555
 10
-175.0312540899
 20
24.597910372
 10
-175.0388518676
 20
24.5823797687
 10
-175.046502363
 20
24.5669665389
 10
-175.0542040609
 20
24.5516705623
 10
-175.0619541384
 20
24.5364942688
 10
-175.0697510575
 20
24.5214374905
 10
-175.0775932915
 20
24.5065000464
 10
-175.0854779639
 20
24.4916842835
 10
-175.0934035278
 20
24.4769899735
 10
-175.1013684486
 20
24.4624168761
 10
-175.1093698007
 20
24.4479672557
 10
-175.1174060332
 20
24.4336408234
 10
-175.1254756057
 20
24.4194372822
 10
-175.1335755454
 20
24.4053588204
 10
-175.141705421
 20
24.3914031778
 10
-175.1498625899
 20
24.377571926
 10
-175.1580406092
 20
24.3638728834
 10
-175.1662412415
 20
24.3502999913
 10
-175.1744595129
 20
24.3368584228
 10
-175.1826783748
 20
24.3235725101
 10
-175.1908964852
 20
24.3104405123
 10
-175.1991112601
 20
24.2974627132
 10
-175.2073030069
 20
24.2846659566
 10
-175.2154688823
 20
24.2720500184
 10
-175.2236071109
 20
24.259613062
 10
-175.2316988564
 20
24.247378989
 10
-175.2397405264
 20
24.2353480209
 10
-175.2477305852
 20
24.2235173523
 10
-175.2556526875
 20
24.2119059009
 10
-175.263506875
 20
24.2005081899
 10
-175.2712877506
 20
24.1893267557
 10
-175.2789701663
 20
24.1783920406
  0
LWPOLYLINE
  5
5E2
100
AcDbEntity
  8
RACCORDO
100
AcDbPolyline
 62
7
  6
CONTINUOUS
 90
7
 70
0
 10
-122.5274978375
 20
-26.2064316619
 10
-122.5327556182
 20
-26.2068001082
 10
-122.5380138318
 20
-26.207118172
 10
-122.5432724785
 20
-26.2073858533
 10
-122.5485315582
 20
-26.2076031521
 10
-122.5537910708
 20
-26.2077700684
 10
-122.5590510164
 20
-26.2078866022
  0
LINE
  5
5E3
100
AcDbEntity
  8
RACCORDO
100
AcDbLine
 62
7
  6
CONTINUOUS
 10
-122.5590543238
 20
-26.20788666
 11
-127.344950244
 21
-26.291424784
  0
LINE
  5
5E4
100
AcDbEntity
  8
0
100
AcDbLine
 62
7
  6
CONTINUOUS
 10
-174.6015724016
 20
-29.399978
 11
-174.551369997
 21
-29.399978
  0
LINE
  5
5E5
100
AcDbEntity
  8
0
100
AcDbLine
 62
7
  6
CONTINUOUS
 10
-174.6928258014
 20
-28.2088806669
 11
-174.6427301182
 21
-28.2088806669
  0
LINE
  5
5E6
100
AcDbEntity
  8
RACCORDO
100
AcDbLine
 62
250
  6
CONTINUOUS
 10
-127.8362240407
 20
-26.7913486316
 11
-128.3274978375
 21
-26.7913486316
  0
LWPOLYLINE
  5
5E7
100
AcDbEntity
  8
RACCORDO
100
AcDbPolyline
 62
7
  6
CONTINUOUS
 90
3
 70
0
 10
-122.5274978375
 20
-32.1935683378
 10
-122.4933747389
 20
-32.1972995131
 10
-122.4595178393
 20
-32.2028895386
  0
LINE
  5
5E8
100
AcDbEntity
  8
RACCORDO
100
AcDbLine
 62
7
  6
CONTINUOUS
 10
-174.807665272
 20
-25.2296581513
 11
-174.8036033951
 21
-25.247387933
  0
LWPOLYLINE
  5
5E9
100
AcDbEntity
  8
RACCORDO
100
AcDbPolyline
 62
7
  6
CONTINUOUS
 90
3
 70
0
 10
-174.7996407057
 20
-25.265180201
 10
-174.7927394263
 20
-25.2974675888
 10
-174.7866767525
 20
-25.3273737117
  0
LINE
  5
5EA
100
AcDbEntity
  8
RACCORDO
100
AcDbLine
 62
7
  6
CONTINUOUS
 10
-174.7957785645
 20
-25.2830320182
 11
-174.7920177683
 21
-25.3009428642
  0
LINE
  5
5EB
100
AcDbEntity
  8
RACCORDO
100
AcDbLine
 62
7
  6
CONTINUOUS
 10
-174.7883591126
 20
-25.3189122102
 11
-174.7848038663
 21
-25.3369370743
  0
LWPOLYLINE
  5
5EC
100
AcDbEntity
  8
SKEL
100
AcDbPolyline
 62
7
  6
CONTINUOUS
 90
17
 70
0
 10
-173.8321517919
 20
-34.544383636
 10
-173.7869740602
 20
-34.7833113374
 10
-173.7388985304
 20
-35.0307613457
 10
-173.689381678
 20
-35.2785622278
 10
-173.6382961237
 20
-35.5270190613
 10
-173.5856753327
 20
-35.7756593272
 10
-173.5335076281
 20
-36.0152136793
 10
-173.482986468
 20
-36.2409372882
 10
-173.4332000421
 20
-36.4576338093
 10
-173.3830578324
 20
-36.6703892774
 10
-173.3324698735
 20
-36.8797174241
 10
-173.2815873938
 20
-37.0851299719
 10
-173.22953818
 20
-37.2901770671
 10
-173.1760576719
 20
-37.4957783534
 10
-173.1214152045
 20
-37.7010131048
 10
-173.0655058532
 20
-37.9066517012
 10
-172.9504195709
 20
-38.3186624003
  0
LINE
  5
5ED
100
AcDbEntity
  8
SKEL
100
AcDbLine
 62
7
  6
CONTINUOUS
 10
-173.9126045025
 20
-34.102954323
 11
-173.8321517919
 21
-34.544383636
  0
LINE
  5
5EE
100
AcDbEntity
  8
RACCORDO
100
AcDbLine
 62
7
  6
CONTINUOUS
 10
-174.7808993793
 20
-25.3574426921
 11
-174.7747664869
 21
-25.3913367342
  0
LINE
  5
5EF
100
AcDbEntity
  8
SKEL
100
AcDbLine
 62
7
  6
CONTINUOUS
 10
-173.9877559997
 20
-33.67133756
 11
-173.9126045025
 21
-34.102954323
  0
LWPOLYLINE
  5
5F0
100
AcDbEntity
  8
RACCORDO
100
AcDbPolyline
 62
7
  6
CONTINUOUS
 90
3
 70
0
 10
-174.7754126705
 20
-25.3876628153
 10
-174.7702200778
 20
-25.4180314358
 10
-174.7653250394
 20
-25.4485458451
  0
LINE
  5
5F1
100
AcDbEntity
  8
RACCORDO
100
AcDbLine
 62
7
  6
CONTINUOUS
 10
-174.7716331573
 20
-25.4095731287
 11
-174.7686073001
 21
-25.4278597182
  0
LINE
  5
5F2
100
AcDbEntity
  8
SKEL
100
AcDbLine
 62
7
  6
CONTINUOUS
 10
-174.0595966166
 20
-33.2400064965
 11
-173.9877559997
 21
-33.67133756
  0
LINE
  5
5F3
100
AcDbEntity
  8
SKEL
100
AcDbLine
 62
7
  6
CONTINUOUS
 10
-174.1277033691
 20
-32.8124654354
 11
-174.0595966166
 21
-33.2400064965
  0
LWPOLYLINE
  5
5F4
100
AcDbEntity
  8
RACCORDO
100
AcDbPolyline
 62
7
  6
CONTINUOUS
 90
4
 70
0
 10
-174.7656899927
 20
-25.4461934403
 10
-174.760732314
 20
-25.4791940392
 10
-174.7564450233
 20
-25.5099731416
 10
-174.7524662698
 20
-25.540880218
  0
LWPOLYLINE
  5
5F5
100
AcDbEntity
  8
0
100
AcDbPolyline
 62
7
  6
CONTINUOUS
 90
5
 70
0
 10
-174.7641716229
 20
-26.4998531129
 10
-174.7637145877
 20
-26.5029388075
 10
-174.7630400944
 20
-26.5126355597
 10
-174.7621481428
 20
-26.5295772448
 10
-174.7610611623
 20
-26.5543282104
  0
LINE
  5
5F6
100
AcDbEntity
  8
RACCORDO
100
AcDbLine
 62
7
  6
CONTINUOUS
 10
-174.7628818811
 20
-25.4645736778
 11
-174.7601836085
 21
-25.4829998066
  0
LWPOLYLINE
  5
5F7
100
AcDbEntity
  8
DRAFT
100
AcDbPolyline
 62
7
  6
CONTINUOUS
 90
24
 70
0
 10
-173.4432229075
 20
-35.5
 10
-173.4857111151
 20
-35.2006016348
 10
-173.5223130845
 20
-34.914550089
 10
-173.5530288158
 20
-34.6435375477
 10
-173.5775142633
 20
-34.3888633333
 10
-173.5961134727
 20
-34.1512592359
 10
-173.6098585809
 20
-33.9309519301
 10
-173.6185976118
 20
-33.7295474966
 10
-173.6224825414
 20
-33.5452965134
 10
-173.6230014352
 20
-33.373553519
 10
-173.6204413629
 20
-33.2146654735
 10
-173.6145152547
 20
-33.0682166141
 10
-173.6058499677
 20
-32.9296106477
 10
-173.5947940956
 20
-32.7992404425
 10
-173.5809990447
 20
-32.6779441811
 10
-173.5640458907
 20
-32.5633896351
 10
-173.5441076819
 20
-32.4568785789
 10
-173.5210113701
 20
-32.3601240949
 10
-173.4938188866
 20
-32.273148603
 10
-173.4622579395
 20
-32.1979130135
 10
-173.4266008207
 20
-32.1380286304
 10
-173.3867263376
 20
-32.0965550809
 10
-173.342304193
 20
-32.0758698207
 10
-173.3230385586
 20
-32.0739459399
  0
LWPOLYLINE
  5
5F8
100
AcDbEntity
  8
SKEL
100
AcDbPolyline
 62
7
  6
CONTINUOUS
 90
5
 70
0
 10
-174.3830516389
 20
-30.9824142901
 10
-174.1225833332
 20
-32.8918095135
 10
-173.7922440391
 20
-34.8128087732
 10
-173.4226681589
 20
-36.5510678885
 10
-173.0375016331
 20
-38.0457971336
  0
LINE
  5
5F9
100
AcDbEntity
  8
RACCORDO
100
AcDbLine
 62
7
  6
CONTINUOUS
 10
-174.7575961535
 20
-25.5014687283
 11
-174.7551201083
 21
-25.5199797981
  0
LINE
  5
5FA
100
AcDbEntity
  8
RACCORDO
100
AcDbLine
 62
7
  6
CONTINUOUS
 10
-174.2661086556
 20
-32.0763952911
 11
-174.4189146183
 21
-30.8732731816
  0
LWPOLYLINE
  5
5FB
100
AcDbEntity
  8
RACCORDO
100
AcDbPolyline
 62
7
  6
CONTINUOUS
 90
4
 70
0
 10
-174.7527560621
 20
-25.5385323645
 10
-174.7488001829
 20
-25.5719030062
 10
-174.7454495345
 20
-25.603038423
 10
-174.7424170723
 20
-25.6342833325
  0
LINE
  5
5FC
100
AcDbEntity
  8
RACCORDO
100
AcDbLine
 62
7
  6
CONTINUOUS
 10
-174.7379552101
 20
-25.6882323193
 11
-174.7366273162
 21
-25.7070831678
  0
LWPOLYLINE
  5
5FD
100
AcDbEntity
  8
0
100
AcDbPolyline
 62
7
  6
CONTINUOUS
 90
3
 70
0
 10
-174.6928258014
 20
-28.2088806669
 10
-174.6798288123
 20
-28.4076267228
 10
-174.6659470588
 20
-28.6062808452
  0
LINE
  5
5FE
100
AcDbEntity
  8
0
100
AcDbLine
 62
7
  6
CONTINUOUS
 10
-174.6427301182
 20
-28.2088806669
 11
-174.645523921
 21
-28.1615527885
  0
LINE
  5
5FF
100
AcDbEntity
  8
0
100
AcDbLine
 62
7
  6
CONTINUOUS
 10
-174.6954876961
 20
-28.1633515909
 11
-174.6928258014
 21
-28.2088806669
  0
LINE
  5
600
100
AcDbEntity
  8
RACCORDO
100
AcDbLine
 62
7
  6
CONTINUOUS
 10
-174.7354171779
 20
-25.7259586609
 11
-174.7335282321
 21
-25.7601908428
  0
LINE
  5
601
100
AcDbEntity
  8
RACCORDO
100
AcDbLine
 62
7
  6
CONTINUOUS
 10
-174.7343251583
 20
-25.7448580685
 11
-174.7333516163
 21
-25.7637806563
  0
LWPOLYLINE
  5
602
100
AcDbEntity
  8
DRAFT
100
AcDbPolyline
 62
7
  6
CONTINUOUS
 90
3
 70
0
 10
-172.4934828926
 20
-35.5
 10
-172.4774637915
 20
-35.8146451581
 10
-172.4643543955
 20
-36.1268097287
  0
LINE
  5
603
100
AcDbEntity
  8
0
100
AcDbLine
 62
7
  6
CONTINUOUS
 10
-174.7061427906
 20
-27.9545634574
 11
-174.6954876961
 21
-28.1633515909
  0
LINE
  5
604
100
AcDbEntity
  8
0
100
AcDbLine
 62
7
  6
CONTINUOUS
 10
-174.645523921
 20
-28.1615527885
 11
-174.6563584034
 21
-27.9484599516
  0
LWPOLYLINE
  5
605
100
AcDbEntity
  8
0
100
AcDbPolyline
 62
7
  6
CONTINUOUS
 90
5
 70
0
 10
-174.7119298025
 20
-26.5340762517
 10
-174.7126567896
 20
-26.5188950361
 10
-174.7132805893
 20
-26.508195539
 10
-174.7137793612
 20
-26.5019277846
 10
-174.7141531053
 20
-26.4998535847
  0
LINE
  5
606
100
AcDbEntity
  8
0
100
AcDbLine
 62
7
  6
CONTINUOUS
 10
-174.7151895615
 20
-27.760000044
 11
-174.7061427906
 21
-27.9545634574
  0
LINE
  5
607
100
AcDbEntity
  8
0
100
AcDbLine
 62
7
  6
CONTINUOUS
 10
-174.6563584034
 20
-27.9484599516
 11
-174.6652981996
 21
-27.7561958801
  0
LWPOLYLINE
  5
608
100
AcDbEntity
  8
RACCORDO
100
AcDbPolyline
 62
7
  6
CONTINUOUS
 90
10
 70
0
 10
-174.7286102041
 20
-25.8817506943
 10
-174.7381445895
 20
-25.6696066906
 10
-174.7626626194
 20
-25.4586687547
 10
-174.8020414412
 20
-25.2499938364
 10
-174.8560837386
 20
-25.0446275456
 10
-174.9245187213
 20
-24.843598914
 10
-175.0070034812
 20
-24.6479152386
 10
-175.1031247106
 20
-24.4585570339
 10
-175.2124007737
 20
-24.2764731198
 10
-175.3342841194
 20
-24.1025758666
  0
LINE
  5
609
100
AcDbEntity
  8
RACCORDO
100
AcDbLine
 62
250
  6
CONTINUOUS
 10
-172.3166013192
 20
-35.7889289655
 11
-172.3584464906
 21
-34.8645258252
  0
LINE
  5
60A
100
AcDbEntity
  8
RACCORDO
100
AcDbLine
 62
250
  6
CONTINUOUS
 10
-172.3584464906
 20
-34.8645258252
 11
-172.3718866314
 21
-34.5421596605
  0
LINE
  5
60B
100
AcDbEntity
  8
RACCORDO
100
AcDbLine
 62
7
  6
CONTINUOUS
 10
-174.7324970108
 20
-25.7827231979
 11
-174.7317616448
 21
-25.8016849487
  0
LINE
  5
60C
100
AcDbEntity
  8
0
100
AcDbLine
 62
7
  6
CONTINUOUS
 10
-174.6652981996
 20
-27.7561958801
 11
-174.6823681875
 21
-27.33391587
  0
LINE
  5
60D
100
AcDbEntity
  8
0
100
AcDbLine
 62
7
  6
CONTINUOUS
 10
-174.7087967933
 20
-26.611789331
 11
-174.7119298025
 21
-26.5340762517
  0
LINE
  5
60E
100
AcDbEntity
  8
0
100
AcDbLine
 62
7
  6
CONTINUOUS
 10
-174.7335088415
 20
-27.3048550698
 11
-174.7151895615
 21
-27.760000044
  0
LINE
  5
60F
100
AcDbEntity
  8
RACCORDO
100
AcDbLine
 62
250
  6
CONTINUOUS
 10
-172.3718866314
 20
-34.5421596605
 11
-172.3949366656
 21
-33.9622576368
  0
LINE
  5
610
100
AcDbEntity
  8
RACCORDO
100
AcDbLine
 62
250
  6
CONTINUOUS
 10
-172.3091340221
 20
-35.984615168
 11
-172.3166013192
 21
-35.7889289655
  0
LINE
  5
611
100
AcDbEntity
  8
0
100
AcDbLine
 62
7
  6
CONTINUOUS
 10
-174.7610611623
 20
-26.5543282104
 11
-174.7335088415
 21
-27.3048550698
  0
LINE
  5
612
100
AcDbEntity
  8
0
100
AcDbLine
 62
7
  6
CONTINUOUS
 10
-174.6823681875
 20
-27.33391587
 11
-174.7087967933
 21
-26.611789331
  0
LINE
  5
613
100
AcDbEntity
  8
RACCORDO
100
AcDbLine
 62
250
  6
CONTINUOUS
 10
-172.3949366656
 20
-33.9622576368
 11
-172.4087497048
 21
-33.5748167148
  0
LINE
  5
614
100
AcDbEntity
  8
RACCORDO
100
AcDbLine
 62
7
  6
CONTINUOUS
 10
-174.7321284769
 20
-25.7918690287
 11
-174.7310619867
 21
-25.823618096
  0
LWPOLYLINE
  5
615
100
AcDbEntity
  8
DRAFT
100
AcDbPolyline
 62
7
  6
CONTINUOUS
 90
4
 70
0
 10
-172.4643543955
 20
-36.1268097287
 10
-172.4541547048
 20
-36.4338330287
 10
-172.4473432323
 20
-36.7330590519
 10
-172.4434414651
 20
-37.0219492996
  0
LINE
  5
616
100
AcDbEntity
  8
RACCORDO
100
AcDbLine
 62
250
  6
CONTINUOUS
 10
-175.3341849356
 20
24.0988540393
 11
-175.3342914958
 21
24.1025681183
  0
LWPOLYLINE
  5
617
100
AcDbEntity
  8
RACCORDO
100
AcDbPolyline
 62
250
  6
CONTINUOUS
 90
3
 70
0
 10
-172.4087497048
 20
-33.5748167148
 10
-172.4194053339
 20
-33.2238710069
 10
-172.4221981726
 20
-33.1149177171
  0
LWPOLYLINE
  5
618
100
AcDbEntity
  8
RACCORDO
100
AcDbPolyline
 62
7
  6
CONTINUOUS
 90
3
 70
0
 10
-174.7311458168
 20
-25.8206651604
 10
-174.7303308834
 20
-25.8554252203
 10
-174.7299753551
 20
-25.882389461
  0
LINE
  5
619
100
AcDbEntity
  8
RACCORDO
100
AcDbLine
 62
7
  6
CONTINUOUS
 10
-174.7306498781
 20
-25.8396605921
 11
-174.7302740709
 21
-25.8586704874
  0
LWPOLYLINE
  5
61A
100
AcDbEntity
  8
SKEL
100
AcDbPolyline
 62
7
  6
CONTINUOUS
 90
3
 70
0
 10
-174.726646337
 20
-26.1562037448
 10
-174.7228548358
 20
-26.3645412948
 10
-174.7196871802
 20
-26.499855
  0
LWPOLYLINE
  5
61B
100
AcDbEntity
  8
RACCORDO
100
AcDbPolyline
 62
250
  6
CONTINUOUS
 90
3
 70
0
 10
-174.7279078033
 20
25.849050547
 10
-174.7282427148
 20
25.872998614
 10
-174.7286401104
 20
25.8811687826
  0
LINE
  5
61C
100
AcDbEntity
  8
SKEL
100
AcDbLine
 62
7
  6
CONTINUOUS
 10
-174.7299714836
 20
-25.8824339478
 11
-174.726646337
 21
-26.1562037448
  0
LINE
  5
61D
100
AcDbEntity
  8
RACCORDO
100
AcDbLine
 62
250
  6
CONTINUOUS
 10
-175.3340371204
 20
24.0656081174
 11
-175.3341849356
 21
24.0988540393
  0
LINE
  5
61E
100
AcDbEntity
  8
RACCORDO
100
AcDbLine
 62
250
  6
CONTINUOUS
 10
-174.7274701099
 20
25.7477521824
 11
-174.7279078033
 21
25.849050547
  0
LINE
  5
61F
100
AcDbEntity
  8
0
100
AcDbLine
 62
7
  6
CONTINUOUS
 10
-175.5362240407
 20
-23.5
 11
-175.5362240407
 21
23.5
  0
LINE
  5
620
100
AcDbEntity
  8
RACCORDO
100
AcDbLine
 62
250
  6
CONTINUOUS
 10
-174.7301275738
 20
8.359385876
 11
-174.730351491
 21
17.9737278892
  0
LINE
  5
621
100
AcDbEntity
  8
RACCORDO
100
AcDbLine
 62
250
  6
CONTINUOUS
 10
-174.7302878174
 20
-14.6768667154
 11
-174.7301275738
 21
8.359385876
  0
LINE
  5
622
100
AcDbEntity
  8
RACCORDO
100
AcDbLine
 62
250
  6
CONTINUOUS
 10
-174.7295330327
 20
-23.8598817392
 11
-174.7302878174
 21
-14.6768667154
  0
LINE
  5
623
100
AcDbEntity
  8
RACCORDO
100
AcDbLine
 62
250
  6
CONTINUOUS
 10
-174.730351491
 20
17.9737278892
 11
-174.7296187537
 21
23.7075228375
  0
LINE
  5
624
100
AcDbEntity
  8
RACCORDO
100
AcDbLine
 62
250
  6
CONTINUOUS
 10
-175.3345805652
 20
22.7079800679
 11
-175.3340371204
 21
24.0656081174
  0
LINE
  5
625
100
AcDbEntity
  8
RACCORDO
100
AcDbLine
 62
250
  6
CONTINUOUS
 10
-174.7275151896
 20
-25.7761517682
 11
-174.7295330327
 21
-23.8598817392
  0
LINE
  5
626
100
AcDbEntity
  8
RACCORDO
100
AcDbLine
 62
250
  6
CONTINUOUS
 10
-174.7296187537
 20
23.7075228375
 11
-174.7274701099
 21
25.7477521824
  0
LWPOLYLINE
  5
627
100
AcDbEntity
  8
RACCORDO
100
AcDbPolyline
 62
7
  6
CONTINUOUS
 90
3
 70
0
 10
-174.729962889
 20
25.8824300711
 10
-174.7301279879
 20
25.8676234283
 10
-174.7304794364
 20
25.8470160708
  0
LINE
  5
628
100
AcDbEntity
  8
SKEL
100
AcDbLine
 62
7
  6
CONTINUOUS
 10
-174.7267825973
 20
26.1463684761
 11
-174.7299618387
 21
25.8823264504
  0
LINE
  5
629
100
AcDbEntity
  8
SKEL
100
AcDbLine
 62
7
  6
CONTINUOUS
 10
-174.7226775241
 20
26.372110543
 11
-174.726797789
 21
26.145378901
  0
LINE
  5
62A
100
AcDbEntity
  8
SKEL
100
AcDbLine
 62
7
  6
CONTINUOUS
 10
-174.7172768048
 20
26.5990258857
 11
-174.7226982873
 21
26.3711210325
  0
LWPOLYLINE
  5
62B
100
AcDbEntity
  8
RACCORDO
100
AcDbPolyline
 62
7
  6
CONTINUOUS
 90
4
 70
0
 10
-174.7304794364
 20
25.8470160708
 10
-174.7309720214
 20
25.826427303
 10
-174.7316052981
 20
25.8058609677
 10
-174.7323788546
 20
25.7853180206
  0
LINE
  5
62C
100
AcDbEntity
  8
RACCORDO
100
AcDbLine
 62
250
  6
CONTINUOUS
 10
-172.4237370996
 20
33.044836751
 11
-172.4177116272
 21
33.2807868944
  0
LINE
  5
62D
100
AcDbEntity
  8
SKEL
100
AcDbLine
 62
7
  6
CONTINUOUS
 10
-174.7105688218
 20
26.827305969
 11
-174.7173030353
 21
26.598039147
  0
LWPOLYLINE
  5
62E
100
AcDbEntity
  8
RACCORDO
100
AcDbPolyline
 62
250
  6
CONTINUOUS
 90
7
 70
0
 10
-172.3094558976
 20
35.9716127054
 10
-172.3031681722
 20
36.1684180256
 10
-172.2979133376
 20
36.3686858376
 10
-172.293722002
 20
36.573168394
 10
-172.2907280712
 20
36.7865550548
 10
-172.2888620254
 20
37.0068555711
 10
-172.2854400171
 20
38.3650264796
  0
LINE
  5
62F
100
AcDbEntity
  8
RACCORDO
100
AcDbLine
 62
250
  6
CONTINUOUS
 10
-172.4177116272
 20
33.2807868944
 11
-172.4054852445
 21
33.6667591672
  0
LINE
  5
630
100
AcDbEntity
  8
SKEL
100
AcDbLine
 62
7
  6
CONTINUOUS
 10
-174.7025271415
 20
27.0574468526
 11
-174.7106003805
 21
26.8263244148
  0
LINE
  5
631
100
AcDbEntity
  8
RACCORDO
100
AcDbLine
 62
250
  6
CONTINUOUS
 10
-172.4054852445
 20
33.6667591672
 11
-172.3899601938
 21
34.088814928
  0
LINE
  5
632
100
AcDbEntity
  8
RACCORDO
100
AcDbLine
 62
250
  6
CONTINUOUS
 10
-172.3167151943
 20
35.7824642416
 11
-172.3094558976
 21
35.9716127054
  0
LINE
  5
633
100
AcDbEntity
  8
SKEL
100
AcDbLine
 62
7
  6
CONTINUOUS
 10
-174.6931344231
 20
27.2894989789
 11
-174.7025638921
 21
27.0564719879
  0
LINE
  5
634
100
AcDbEntity
  8
RACCORDO
100
AcDbLine
 62
250
  6
CONTINUOUS
 10
-172.3899601938
 20
34.088814928
 11
-172.3647504548
 21
34.7081301785
  0
LWPOLYLINE
  5
635
100
AcDbEntity
  8
DRAFT
100
AcDbPolyline
 62
7
  6
CONTINUOUS
 90
3
 70
0
 10
-172.4641364496
 20
36.126667361
 10
-172.4772230063
 20
35.814581616
 10
-172.493237063
 20
35.5
  0
LWPOLYLINE
  5
636
100
AcDbEntity
  8
RACCORDO
100
AcDbPolyline
 62
7
  6
CONTINUOUS
 90
10
 70
0
 10
-174.7286403406
 20
25.8811687849
 10
-174.738208689
 20
25.6690908655
 10
-174.762751352
 20
25.4582206991
 10
-174.8021454287
 20
25.2496142504
 10
-174.8561936471
 20
25.0443161484
 10
-174.9246253525
 20
24.8433544549
 10
-175.0070978625
 20
24.6477355165
 10
-175.1031981835
 20
24.4584389251
 10
-175.2124450783
 20
24.2764126125
 10
-175.3342914762
 20
24.1025681035
  0
LINE
  5
637
100
AcDbEntity
  8
RACCORDO
100
AcDbLine
 62
250
  6
CONTINUOUS
 10
-172.3647504548
 20
34.7081301785
 11
-172.3167151943
 21
35.7824642416
  0
LINE
  5
638
100
AcDbEntity
  8
SKEL
100
AcDbLine
 62
7
  6
CONTINUOUS
 10
-174.6824223817
 20
27.5224944882
 11
-174.693176214
 21
27.2885320604
  0
LWPOLYLINE
  5
639
100
AcDbEntity
  8
RACCORDO
100
AcDbPolyline
 62
250
  6
CONTINUOUS
 90
5
 70
0
 10
-175.3342850914
 20
-24.1025766005
 10
-175.3342023857
 20
-24.1008162808
 10
-175.3341327753
 20
-24.0950250766
 10
-175.3340762663
 20
-24.0847886601
 10
-175.3345805652
 20
22.7079800679
  0
LWPOLYLINE
  5
63A
100
AcDbEntity
  8
RACCORDO
100
AcDbPolyline
 62
7
  6
CONTINUOUS
 90
3
 70
0
 10
-174.6526987161
 20
28.0612406093
 10
-174.6354110024
 20
28.4108093793
 10
-174.5421833027
 20
29.6520442354
  0
LWPOLYLINE
  5
63B
100
AcDbEntity
  8
RACCORDO
100
AcDbPolyline
 62
7
  6
CONTINUOUS
 90
10
 70
0
 10
-174.7332922729
 20
25.764799412
 10
-174.7343449714
 20
25.7443089643
 10
-174.7355364612
 20
25.7238476132
 10
-174.7368662476
 20
25.7034162883
 10
-174.7383336135
 20
25.6830187864
 10
-174.7399379945
 20
25.6626560197
 10
-174.7416788204
 20
25.6423288931
 10
-174.7435552408
 20
25.6220411729
 10
-174.7455666169
 20
25.601793744
 10
-174.747712305
 20
25.5815874829
  0
LWPOLYLINE
  5
63C
100
AcDbEntity
  8
SKEL
100
AcDbPolyline
 62
7
  6
CONTINUOUS
 90
3
 70
0
 10
-174.6566192709
 20
27.9984347646
 10
-174.6702145858
 20
27.7597042214
 10
-174.6823757409
 20
27.5234518482
  0
LWPOLYLINE
  5
63D
100
AcDbEntity
  8
DRAFT
100
AcDbPolyline
 62
7
  6
CONTINUOUS
 90
19
 70
0
 10
-172.493237063
 20
35.5
 10
-172.5154517678
 20
35.1650054855
 10
-172.5426975275
 20
34.8355334763
 10
-172.574974342
 20
34.5145953302
 10
-172.612986904
 20
34.2033539428
 10
-172.6560305207
 20
33.9062218234
 10
-172.7019911146
 20
33.6301340727
 10
-172.7508195332
 20
33.3781659766
 10
-172.8025649289
 20
33.1491761797
 10
-172.8552606815
 20
32.9427316729
 10
-172.9084368382
 20
32.7602945992
 10
-172.9625633519
 20
32.6005799292
 10
-173.0170834602
 20
32.4602307876
 10
-173.0723377015
 20
32.3395655423
 10
-173.1279855376
 20
32.2405359569
 10
-173.1824485908
 20
32.1637048921
 10
-173.2358859232
 20
32.1097417588
 10
-173.2881384728
 20
32.0800007572
 10
-173.3214977593
 20
32.0739610412
  0
LWPOLYLINE
  5
63E
100
AcDbEntity
  8
RACCORDO
100
AcDbPolyline
 62
250
  6
CONTINUOUS
 90
28
 70
0
 10
-127.344950244
 20
-25.7915009364
 10
-127.3935335829
 20
-25.7930814044
 10
-127.443415399
 20
-25.7977178437
 10
-127.4945956923
 20
-25.8054102543
 10
-127.547468161
 20
-25.8159975061
 10
-127.6016391068
 20
-25.8296407293
 10
-127.6559274354
 20
-25.8468233138
 10
-127.7103662539
 20
-25.8677043155
 10
-127.7649224552
 20
-25.8921246784
 10
-127.8183156232
 20
-25.920090625
 10
-127.8704948128
 20
-25.9517573216
 10
-127.9215109691
 20
-25.9869696018
 10
-127.9702365121
 20
-26.0252681879
 10
-128.0165660885
 20
-26.0667704792
 10
-128.0606050517
 20
-26.1113590764
 10
-128.1015418819
 20
-26.1582225038
 10
-128.1392547414
 20
-26.2074541447
 10
-128.173865468
 20
-26.2589606159
 10
-128.2049280545
 20
-26.3116502911
 10
-128.2322958774
 20
-26.365578247
 10
-128.2561155603
 20
-26.420689407
 10
-128.2763809662
 20
-26.4757269155
 10
-128.2929353636
 20
-26.5306622996
 10
-128.3059354841
 20
-26.5855240321
 10
-128.3158453859
 20
-26.6391406754
 10
-128.3228197551
 20
-26.6911217501
 10
-128.3267039056
 20
-26.7418577355
 10
-128.3274978375
 20
-26.7913486316
  0
LINE
  5
63F
100
AcDbEntity
  8
RACCORDO
100
AcDbLine
 62
250
  6
CONTINUOUS
 10
-123.215281153
 20
-25.7194172943
 11
-127.344950244
 21
-25.7915009364
  0
LINE
  5
640
100
AcDbEntity
  8
RACCORDO
100
AcDbLine
 62
250
  6
CONTINUOUS
 10
-122.0362240407
 20
-25.7074135063
 11
-123.215281153
 21
-25.7194172943
  0
LINE
  5
641
100
AcDbEntity
  8
0
100
AcDbLine
 62
7
  6
CONTINUOUS
 10
-174.7641716654
 20
-26.499855
 11
-174.7141530736
 21
-26.499855
  0
LWPOLYLINE
  5
642
100
AcDbEntity
  8
RACCORDO
100
AcDbPolyline
 62
7
  6
CONTINUOUS
 90
14
 70
0
 10
-122.4595178393
 20
-32.2028895386
 10
-122.4260829979
 20
-32.2103384143
 10
-122.3930573696
 20
-32.2197997247
 10
-122.3607618539
 20
-32.2311198852
 10
-122.3298131182
 20
-32.2438381431
 10
-122.3003327787
 20
-32.2579911861
 10
-122.272368222
 20
-32.2735423264
 10
-122.2463247711
 20
-32.2899207471
 10
-122.2222457475
 20
-32.3071024143
 10
-122.2000588873
 20
-32.3251113619
 10
-122.1798983987
 20
-32.3434488743
 10
-122.1617363589
 20
-32.3619487131
 10
-122.1454171449
 20
-32.3807771167
 10
-122.1308368477
 20
-32.3999340851
  0
LINE
  5
643
100
AcDbEntity
  8
RACCORDO
100
AcDbLine
 62
250
  6
CONTINUOUS
 10
-170.4042355278
 20
-35.4999995694
 11
-170.4314017895
 21
-34.9475437727
  0
LINE
  5
644
100
AcDbEntity
  8
RACCORDO
100
AcDbLine
 62
250
  6
CONTINUOUS
 10
-170.4314017895
 20
-34.9475437727
 11
-170.4599343249
 21
-34.3058919683
  0
LINE
  5
645
100
AcDbEntity
  8
RACCORDO
100
AcDbLine
 62
250
  6
CONTINUOUS
 10
-170.4599343249
 20
-34.3058919683
 11
-170.4827568026
 21
-33.7525937018
  0
LINE
  5
646
100
AcDbEntity
  8
RACCORDO
100
AcDbLine
 62
250
  6
CONTINUOUS
 10
-170.4827568026
 20
-33.7525937018
 11
-170.5005314875
 21
-33.270843378
  0
LINE
  5
647
100
AcDbEntity
  8
RACCORDO
100
AcDbLine
 62
250
  6
CONTINUOUS
 10
-170.5005314875
 20
-33.270843378
 11
-170.5102759461
 21
-32.9563893261
  0
LINE
  5
648
100
AcDbEntity
  8
RACCORDO
100
AcDbLine
 62
250
  6
CONTINUOUS
 10
-170.5102759461
 20
-32.9563893261
 11
-170.5150512629
 21
-32.76733813
  0
LINE
  5
649
100
AcDbEntity
  8
RACCORDO
100
AcDbLine
 62
250
  6
CONTINUOUS
 10
-172.4221981726
 20
-33.1149177171
 11
-172.426677121
 21
-32.9091336389
  0
LINE
  5
64A
100
AcDbEntity
  8
RACCORDO
100
AcDbLine
 62
250
  6
CONTINUOUS
 10
-170.5150512629
 20
-32.76733813
 11
-170.5186896218
 21
-32.5876370418
  0
LINE
  5
64B
100
AcDbEntity
  8
RACCORDO
100
AcDbLine
 62
250
  6
CONTINUOUS
 10
-172.426677121
 20
-32.9091336389
 11
-172.4297908445
 21
-32.7156973392
  0
LWPOLYLINE
  5
64C
100
AcDbEntity
  8
RACCORDO
100
AcDbPolyline
 62
250
  6
CONTINUOUS
 90
5
 70
0
 10
-172.2903816465
 20
-36.8259471863
 10
-172.2932679993
 20
-36.6059236663
 10
-172.2974331493
 20
-36.3949961309
 10
-172.3027282393
 20
-36.1881682107
 10
-172.3091340221
 20
-35.984615168
  0
LINE
  5
64D
100
AcDbEntity
  8
RACCORDO
100
AcDbLine
 62
250
  6
CONTINUOUS
 10
-170.5186896218
 20
-32.5876370418
 11
-170.5224770899
 21
-32.3236403988
  0
LWPOLYLINE
  5
64E
100
AcDbEntity
  8
RACCORDO
100
AcDbPolyline
 62
250
  6
CONTINUOUS
 90
8
 70
0
 10
-170.3584342447
 20
40.5521801002
 10
-170.3602850655
 20
40.7583680282
 10
-170.3635531555
 20
40.9316923692
 10
-170.3682237005
 20
41.071872831
 10
-170.3752853552
 20
41.1766698615
 10
-170.3850676713
 20
41.2478191408
 10
-170.3972410974
 20
41.2885896797
 10
-170.4118056338
 20
41.3014381028
  0
LINE
  5
64F
100
AcDbEntity
  8
RACCORDO
100
AcDbLine
 62
250
  6
CONTINUOUS
 10
-170.5224770899
 20
-32.3236403988
 11
-170.5464325092
 21
-29.7711686353
  0
LWPOLYLINE
  5
650
100
AcDbEntity
  8
RACCORDO
100
AcDbPolyline
 62
250
  6
CONTINUOUS
 90
3
 70
0
 10
-172.4297908445
 20
-32.7156973392
 10
-172.433421432
 20
-32.3464470485
 10
-172.4541964436
 20
-30.1220792972
  0
LWPOLYLINE
  5
651
100
AcDbEntity
  8
RACCORDO
100
AcDbPolyline
 62
250
  6
CONTINUOUS
 90
8
 70
0
 10
-170.3633115976
 20
-37.6163586527
 10
-170.3658903725
 20
-37.2942365153
 10
-170.3696490492
 20
-36.9771589399
 10
-170.3744022865
 20
-36.6667714084
 10
-170.380229627
 20
-36.362948981
 10
-170.3871575848
 20
-36.0663340716
 10
-170.3951596459
 20
-35.7784086071
 10
-170.4042358104
 20
-35.4999995694
  0
LINE
  5
652
100
AcDbEntity
  8
RACCORDO
100
AcDbLine
 62
250
  6
CONTINUOUS
 10
-172.4541964436
 20
-30.1220792972
 11
-172.4609412489
 21
-29.251281903
  0
LINE
  5
653
100
AcDbEntity
  8
RACCORDO
100
AcDbLine
 62
250
  6
CONTINUOUS
 10
-170.5464325092
 20
-29.7711686353
 11
-170.5532341215
 21
-28.857040105
  0
LINE
  5
654
100
AcDbEntity
  8
RACCORDO
100
AcDbLine
 62
250
  6
CONTINUOUS
 10
-172.2796231898
 20
-39.206580474
 11
-172.2838339679
 21
-38.646309958
  0
LWPOLYLINE
  5
655
100
AcDbEntity
  8
DRAFT
100
AcDbPolyline
 62
7
  6
CONTINUOUS
 90
13
 70
0
 10
-172.4434414651
 20
-37.0219492996
 10
-172.4395899128
 20
-37.559195172
 10
-172.4396401279
 20
-37.8028153953
 10
-172.4411405178
 20
-38.0264762057
 10
-172.4438611884
 20
-38.228599948
 10
-172.448032034
 20
-38.4070560775
 10
-172.4543187453
 20
-38.5594013892
 10
-172.4627039655
 20
-38.6854092727
 10
-172.4732050515
 20
-38.7837932305
 10
-172.4865397649
 20
-38.8531122945
 10
-172.5028279089
 20
-38.8948076028
 10
-172.5219496802
 20
-38.9116040665
 10
-172.5267230112
 20
-38.9121608059
  0
LINE
  5
656
100
AcDbEntity
  8
RACCORDO
100
AcDbLine
 62
250
  6
CONTINUOUS
 10
-172.4609412489
 20
-29.251281903
 11
-172.4650729096
 21
-28.4646464504
  0
LINE
  5
657
100
AcDbEntity
  8
RACCORDO
100
AcDbLine
 62
250
  6
CONTINUOUS
 10
-172.2876998669
 20
-37.2813434529
 11
-172.2903816465
 21
-36.8259471863
  0
LINE
  5
658
100
AcDbEntity
  8
RACCORDO
100
AcDbLine
 62
250
  6
CONTINUOUS
 10
-170.5532341215
 20
-28.857040105
 11
-170.5573748205
 21
-28.028343228
  0
LINE
  5
659
100
AcDbEntity
  8
RACCORDO
100
AcDbLine
 62
250
  6
CONTINUOUS
 10
-172.4650729096
 20
-28.4646464504
 11
-172.4677375768
 21
-27.5794442913
  0
LINE
  5
65A
100
AcDbEntity
  8
RACCORDO
100
AcDbLine
 62
250
  6
CONTINUOUS
 10
-170.5573748205
 20
-28.028343228
 11
-170.5600669948
 21
-27.0887596666
  0
LINE
  5
65B
100
AcDbEntity
  8
RACCORDO
100
AcDbLine
 62
250
  6
CONTINUOUS
 10
-170.3588016061
 20
-38.9264359436
 11
-170.3633115976
 21
-37.6163586527
  0
LINE
  5
65C
100
AcDbEntity
  8
RACCORDO
100
AcDbLine
 62
250
  6
CONTINUOUS
 10
-172.2838339679
 20
-38.646309958
 11
-172.2876998669
 21
-37.2813434529
  0
LINE
  5
65D
100
AcDbEntity
  8
RACCORDO
100
AcDbLine
 62
250
  6
CONTINUOUS
 10
-170.5551449963
 20
-12.3550043819
 11
-170.5690125506
 21
-1.737742437
  0
LINE
  5
65E
100
AcDbEntity
  8
RACCORDO
100
AcDbLine
 62
250
  6
CONTINUOUS
 10
-172.4677375768
 20
-27.5794442913
 11
-172.46906062
 21
-26.2998023471
  0
LINE
  5
65F
100
AcDbEntity
  8
RACCORDO
100
AcDbLine
 62
250
  6
CONTINUOUS
 10
-172.4595440445
 20
-12.3560439452
 11
-172.4718374596
 21
-1.7387710824
  0
LINE
  5
660
100
AcDbEntity
  8
RACCORDO
100
AcDbLine
 62
250
  6
CONTINUOUS
 10
-170.5600669948
 20
-27.0887596666
 11
-170.5614104823
 21
-25.724312461
  0
LINE
  5
661
100
AcDbEntity
  8
RACCORDO
100
AcDbLine
 62
250
  6
CONTINUOUS
 10
-172.4718374596
 20
-1.7387710824
 11
-172.4729029854
 21
-0.0000056267
  0
LINE
  5
662
100
AcDbEntity
  8
RACCORDO
100
AcDbLine
 62
250
  6
CONTINUOUS
 10
-170.5690125506
 20
-1.737742437
 11
-170.5701685952
 21
0.0001785247
  0
LINE
  5
663
100
AcDbEntity
  8
RACCORDO
100
AcDbLine
 62
250
  6
CONTINUOUS
 10
-172.4600124916
 20
13.73496581
 11
-172.4698214408
 21
26.097351618
  0
LINE
  5
664
100
AcDbEntity
  8
RACCORDO
100
AcDbLine
 62
250
  6
CONTINUOUS
 10
-170.3579452123
 20
39.7673621498
 11
-170.3584342447
 21
40.5521801002
  0
LINE
  5
665
100
AcDbEntity
  8
RACCORDO
100
AcDbLine
 62
250
  6
CONTINUOUS
 10
-170.5569940371
 20
10.7009521461
 11
-170.5620909769
 21
26.3761873471
  0
LINE
  5
666
100
AcDbEntity
  8
RACCORDO
100
AcDbLine
 62
250
  6
CONTINUOUS
 10
-170.5614104823
 20
-25.724312461
 11
-170.5604007092
 21
-23.3480424971
  0
LINE
  5
667
100
AcDbEntity
  8
RACCORDO
100
AcDbLine
 62
250
  6
CONTINUOUS
 10
-172.46906062
 20
-26.2998023471
 11
-172.467889474
 21
-24.090424946
  0
LINE
  5
668
100
AcDbEntity
  8
RACCORDO
100
AcDbLine
 62
250
  6
CONTINUOUS
 10
-170.5701685952
 20
0.0001785247
 11
-170.5690228328
 21
1.7896776334
  0
LWPOLYLINE
  5
669
100
AcDbEntity
  8
RACCORDO
100
AcDbPolyline
 62
250
  6
CONTINUOUS
 90
3
 70
0
 10
-170.5604007092
 20
-23.3480424971
 10
-170.5588933913
 20
-21.6945570376
 10
-170.5551449963
 20
-12.3550043819
  0
LINE
  5
66A
100
AcDbEntity
  8
RACCORDO
100
AcDbLine
 62
250
  6
CONTINUOUS
 10
-172.4729036
 20
-0.0000056265
 11
-172.4712986542
 21
2.2666977781
  0
LWPOLYLINE
  5
66B
100
AcDbEntity
  8
RACCORDO
100
AcDbPolyline
 62
250
  6
CONTINUOUS
 90
3
 70
0
 10
-172.467889474
 20
-24.090424946
 10
-172.4651564517
 20
-21.692913908
 10
-172.4595440445
 20
-12.3560439452
  0
LINE
  5
66C
100
AcDbEntity
  8
RACCORDO
100
AcDbLine
 62
250
  6
CONTINUOUS
 10
-172.4698214408
 20
26.097351618
 11
-172.468752278
 21
27.4109039869
  0
LINE
  5
66D
100
AcDbEntity
  8
RACCORDO
100
AcDbLine
 62
250
  6
CONTINUOUS
 10
-172.4712986542
 20
2.2666977781
 11
-172.4600124916
 21
13.73496581
  0
LINE
  5
66E
100
AcDbEntity
  8
RACCORDO
100
AcDbLine
 62
250
  6
CONTINUOUS
 10
-170.5690228328
 20
1.7896776334
 11
-170.5569940371
 21
10.7009521461
  0
LINE
  5
66F
100
AcDbEntity
  8
RACCORDO
100
AcDbLine
 62
250
  6
CONTINUOUS
 10
-170.3592378691
 20
38.834247854
 11
-170.3579452123
 21
39.7673621498
  0
LINE
  5
670
100
AcDbEntity
  8
RACCORDO
100
AcDbLine
 62
250
  6
CONTINUOUS
 10
-170.5620909769
 20
26.3761873471
 11
-170.5603200885
 21
27.4058746091
  0
LINE
  5
671
100
AcDbEntity
  8
RACCORDO
100
AcDbLine
 62
250
  6
CONTINUOUS
 10
-172.468752278
 20
27.4109039869
 11
-172.4662810099
 21
28.3191293827
  0
LINE
  5
672
100
AcDbEntity
  8
RACCORDO
100
AcDbLine
 62
250
  6
CONTINUOUS
 10
-170.5603200885
 20
27.4058746091
 11
-170.5570538272
 21
28.3102275975
  0
LINE
  5
673
100
AcDbEntity
  8
RACCORDO
100
AcDbLine
 62
250
  6
CONTINUOUS
 10
-172.4662810099
 20
28.3191293827
 11
-172.4622568548
 21
29.1333497653
  0
LINE
  5
674
100
AcDbEntity
  8
RACCORDO
100
AcDbLine
 62
250
  6
CONTINUOUS
 10
-170.5570538272
 20
28.3102275975
 11
-170.5522836354
 21
29.1197945579
  0
LWPOLYLINE
  5
675
100
AcDbEntity
  8
DRAFT
100
AcDbPolyline
 62
7
  6
CONTINUOUS
 90
5
 70
0
 10
-172.4397501145
 20
37.5586265315
 10
-172.4434119948
 20
37.0214879775
 10
-172.4472309438
 20
36.7327133477
 10
-172.4539773927
 20
36.433599336
 10
-172.4641364496
 20
36.126667361
  0
LINE
  5
676
100
AcDbEntity
  8
RACCORDO
100
AcDbLine
 62
250
  6
CONTINUOUS
 10
-172.4622568548
 20
29.1333497653
 11
-172.4553307488
 21
30.0487951978
  0
LWPOLYLINE
  5
677
100
AcDbEntity
  8
RACCORDO
100
AcDbPolyline
 62
250
  6
CONTINUOUS
 90
10
 70
0
 10
-172.2854400171
 20
38.3650264796
 10
-172.2810121634
 20
38.9925238878
 10
-172.279465985
 20
39.1723726935
 10
-172.2788317215
 20
39.3284450857
 10
-172.2793963372
 20
39.4614941801
 10
-172.2815109727
 20
39.5724928756
 10
-172.2860964548
 20
39.6572175941
 10
-172.293544844
 20
39.7164110956
 10
-172.3037366261
 20
39.7542943827
 10
-172.3168136506
 20
39.7722262789
  0
LINE
  5
678
100
AcDbEntity
  8
RACCORDO
100
AcDbLine
 62
250
  6
CONTINUOUS
 10
-170.5522836354
 20
29.1197945579
 11
-170.5447837959
 21
30.0310055212
  0
LINE
  5
679
100
AcDbEntity
  8
RACCORDO
100
AcDbLine
 62
250
  6
CONTINUOUS
 10
-172.4553307488
 20
30.0487951978
 11
-172.4407837415
 21
31.5461773369
  0
LINE
  5
67A
100
AcDbEntity
  8
RACCORDO
100
AcDbLine
 62
250
  6
CONTINUOUS
 10
-172.4407837415
 20
31.5461773369
 11
-172.4309168556
 21
32.6187393333
  0
LINE
  5
67B
100
AcDbEntity
  8
RACCORDO
100
AcDbLine
 62
250
  6
CONTINUOUS
 10
-170.5447837959
 20
30.0310055212
 11
-170.5227563782
 21
32.2959723899
  0
LINE
  5
67C
100
AcDbEntity
  8
RACCORDO
100
AcDbLine
 62
250
  6
CONTINUOUS
 10
-172.4309168556
 20
32.6187393333
 11
-172.4280578159
 21
32.8256566235
  0
LINE
  5
67D
100
AcDbEntity
  8
RACCORDO
100
AcDbLine
 62
250
  6
CONTINUOUS
 10
-170.5227563782
 20
32.2959723899
 11
-170.5186248555
 21
32.5843802008
  0
LINE
  5
67E
100
AcDbEntity
  8
RACCORDO
100
AcDbLine
 62
250
  6
CONTINUOUS
 10
-172.4280578159
 20
32.8256566235
 11
-172.4237370996
 21
33.044836751
  0
LINE
  5
67F
100
AcDbEntity
  8
RACCORDO
100
AcDbLine
 62
250
  6
CONTINUOUS
 10
-170.5186248555
 20
32.5843802008
 11
-170.5146092495
 21
32.7803657561
  0
LINE
  5
680
100
AcDbEntity
  8
RACCORDO
100
AcDbLine
 62
250
  6
CONTINUOUS
 10
-170.5146092495
 20
32.7803657561
 11
-170.5091562139
 21
32.9899280347
  0
LWPOLYLINE
  5
681
100
AcDbEntity
  8
RACCORDO
100
AcDbPolyline
 62
250
  6
CONTINUOUS
 90
10
 70
0
 10
-170.4040196718
 20
35.4999993365
 10
-170.395254606
 20
35.7688827125
 10
-170.387483608
 20
36.0471675785
 10
-170.3807066779
 20
36.334105968
 10
-170.3749345934
 20
36.6282709151
 10
-170.3701565766
 20
36.9291612178
 10
-170.3663402939
 20
37.2371290546
 10
-170.3636498353
 20
37.5506003042
 10
-170.3619211104
 20
37.8680057606
 10
-170.3592378691
 20
38.834247854
  0
LINE
  5
682
100
AcDbEntity
  8
RACCORDO
100
AcDbLine
 62
250
  6
CONTINUOUS
 10
-170.5091562139
 20
32.9899280347
 11
-170.4980426663
 21
33.337561265
  0
LINE
  5
683
100
AcDbEntity
  8
RACCORDO
100
AcDbLine
 62
250
  6
CONTINUOUS
 10
-170.4980426663
 20
33.337561265
 11
-170.4835460573
 21
33.7271846648
  0
LINE
  5
684
100
AcDbEntity
  8
RACCORDO
100
AcDbLine
 62
250
  6
CONTINUOUS
 10
-170.4835460573
 20
33.7271846648
 11
-170.4596014307
 21
34.3062387372
  0
LINE
  5
685
100
AcDbEntity
  8
RACCORDO
100
AcDbLine
 62
250
  6
CONTINUOUS
 10
-170.4596014307
 20
34.3062387372
 11
-170.4306306626
 21
34.9572796522
  0
LINE
  5
686
100
AcDbEntity
  8
RACCORDO
100
AcDbLine
 62
250
  6
CONTINUOUS
 10
-170.4306306626
 20
34.9572796522
 11
-170.4040193885
 21
35.4999993365
  0
LWPOLYLINE
  5
687
100
AcDbEntity
  8
RACCORDO
100
AcDbPolyline
 62
250
  6
CONTINUOUS
 90
5
 70
0
 10
-174.7286102379
 20
-25.8817506947
 10
-174.728298259
 20
-25.8777166018
 10
-174.7280254119
 20
-25.8654932129
 10
-174.7278031405
 20
-25.8448501769
 10
-174.7275151896
 20
-25.7761517682
  0
LINE
  5
688
100
AcDbEntity
  8
RACCORDO
100
AcDbLine
 62
250
  6
CONTINUOUS
 10
-174.7296313183
 20
-22.1993602708
 11
-174.7628847418
 21
-22.199489785
  0
LINE
  5
689
100
AcDbEntity
  8
RACCORDO
100
AcDbLine
 62
250
  6
CONTINUOUS
 10
-175.5362240407
 20
-22.2
 11
-174.7628847418
 21
-22.199489785
  0
LWPOLYLINE
  5
68A
100
AcDbEntity
  8
RACCORDO
100
AcDbPolyline
 62
250
  6
CONTINUOUS
 90
6
 70
0
 10
-170.3689891694
 20
-41.0836820854
 10
-170.3643638019
 20
-40.9522588397
 10
-170.3610646623
 20
-40.7897518551
 10
-170.3590791954
 20
-40.5965077789
 10
-170.3584199565
 20
-40.3728409643
 10
-170.3588016061
 20
-38.9264359436
  0
LINE
  5
68B
100
AcDbEntity
  8
ASSI
100
AcDbLine
 62
7
  6
CONTINUOUS
 10
-122.0362240407
 20
-17.0
 11
-121.5362240407
 21
-17.0
  0
LWPOLYLINE
  5
68C
100
AcDbEntity
  8
0
100
AcDbPolyline
 62
7
  6
CONTINUOUS
 90
3
 70
0
 43
0.3500000006
 10
-147.2505117188
 20
50.5357125549
 10
-147.3219338379
 20
50.3214280701
 10
-147.4647962036
 20
50.0357169342
  0
LINE
  5
68D
100
AcDbEntity
  8
0
100
AcDbLine
 62
7
  6
CONTINUOUS
 10
-121.8362240407
 20
-16.0
 11
-122.0362240407
 21
-16.0
  0
LINE
  5
68E
100
AcDbEntity
  8
DRAFT
100
AcDbLine
 62
7
  6
CONTINUOUS
 10
-159.0362240407
 20
41.5
 11
-159.0362240407
 21
-41.5
  0
LINE
  5
68F
100
AcDbEntity
  8
SKEL
100
AcDbLine
 62
7
  6
CONTINUOUS
 10
-159.0362240407
 20
-41.5000003491
 11
-159.0362240407
 21
41.5000003491
  0
LINE
  5
690
100
AcDbEntity
  8
ASSI
100
AcDbLine
 62
7
  6
CONTINUOUS
 10
-121.5362240407
 20
-4.8
 11
-121.8362240407
 21
-4.8
  0
LINE
  5
691
100
AcDbEntity
  8
RACCORDO
100
AcDbLine
 62
250
  6
CONTINUOUS
 10
-174.7105103603
 20
0.0005705934
 11
-174.6148436615
 21
0.001464095
  0
LINE
  5
692
100
AcDbEntity
  8
RACCORDO
100
AcDbLine
 62
250
  6
CONTINUOUS
 10
-174.6148436615
 20
0.001464095
 11
-174.442593604
 21
0.0019209178
  0
LINE
  5
693
100
AcDbEntity
  8
0
100
AcDbLine
 62
7
  6
CONTINUOUS
 10
-121.8362240407
 20
-2.5
 11
-122.0362240407
 21
-2.5
  0
LINE
  5
694
100
AcDbEntity
  8
0
100
AcDbLine
 62
7
  6
CONTINUOUS
 10
-121.8362240407
 20
-0.3750000596
 11
-122.0362240407
 21
-0.3750000596
  0
LINE
  5
695
100
AcDbEntity
  8
0
100
AcDbLine
 62
7
  6
CONTINUOUS
 10
-121.8362240407
 20
-0.25
 11
-122.0362240407
 21
-0.25
  0
LINE
  5
696
100
AcDbEntity
  8
RACCORDO
100
AcDbLine
 62
250
  6
CONTINUOUS
 10
-174.7293269519
 20
0.0000847645
 11
-175.334480109
 21
0.0000723827
  0
LINE
  5
697
100
AcDbEntity
  8
0
100
AcDbLine
 62
7
  6
CONTINUOUS
 10
-121.8362240407
 20
0.2500000596
 11
-122.0362240407
 21
0.2500000596
  0
LINE
  5
698
100
AcDbEntity
  8
0
100
AcDbLine
 62
7
  6
CONTINUOUS
 10
-121.8362240407
 20
0.3125
 11
-122.0362240407
 21
0.3125
  0
LINE
  5
699
100
AcDbEntity
  8
0
100
AcDbLine
 62
7
  6
CONTINUOUS
 10
-121.8362240407
 20
0.3749999404
 11
-122.0362240407
 21
0.3749999404
  0
LINE
  5
69A
100
AcDbEntity
  8
RACCORDO
100
AcDbLine
 62
250
  6
CONTINUOUS
 10
-174.442593604
 20
0.0019209178
 11
-170.5701685952
 21
0.0001785247
  0
LWPOLYLINE
  5
69B
100
AcDbEntity
  8
ASSI
100
AcDbPolyline
 62
7
  6
CONTINUOUS
 90
61
 70
0
 10
-148.305453499
 20
0.0
 10
-148.289687384
 20
-0.5914441635
 10
-148.2435256929
 20
-1.1780734074
 10
-148.1669684258
 20
-1.7598877317
 10
-148.0596398079
 20
-2.3384525898
 10
-147.9219156139
 20
-2.9122025282
 10
-147.7549231685
 20
-3.4764411867
 10
-147.5584222446
 20
-4.0310904988
 10
-147.3326530693
 20
-4.5762285309
 10
-147.0794636487
 20
-5.1073931221
 10
-146.7986289238
 20
-5.6244695813
 10
-146.4903739535
 20
-6.1275725996
 10
-146.1572219216
 20
-6.6125840883
 10
-145.7989684786
 20
-7.0793555562
 10
-145.4158179738
 20
-7.5280354946
 10
-145.0109066392
 20
-7.9549512883
 10
-144.5840558668
 20
-8.3599243023
 10
-144.1354442646
 20
-8.7431331716
 10
-143.6687438882
 20
-9.1014411867
 10
-143.1838062691
 20
-9.434643967
 10
-142.6807798759
 20
-9.7429458931
 10
-142.1637821698
 20
-10.0238233971
 10
-141.6326984777
 20
-10.2770513855
 10
-141.0876434727
 20
-10.5028549518
 10
-140.5330786364
 20
-10.6993858083
 10
-139.9689259142
 20
-10.8664036913
 10
-139.3952633606
 20
-11.0041488646
 10
-138.8167866207
 20
-11.1114938317
 10
-138.2334561809
 20
-11.1881890747
 10
-137.6453115547
 20
-11.2344841116
 10
-137.0571669285
 20
-11.25
 10
-136.4690223023
 20
-11.2344841116
 10
-135.8808776761
 20
-11.1881890747
 10
-135.2975472362
 20
-11.1114938317
 10
-134.7190704963
 20
-11.0041488646
 10
-134.1454079428
 20
-10.8664036913
 10
-133.5812552206
 20
-10.6993858083
 10
-133.0266903843
 20
-10.5028549518
 10
-132.4816353793
 20
-10.2770513855
 10
-131.9505516871
 20
-10.0238233971
 10
-131.4335539811
 20
-9.7429458931
 10
-130.9305275879
 20
-9.434643967
 10
-130.4455899688
 20
-9.1014411867
 10
-129.9788895924
 20
-8.7431331716
 10
-129.5302779901
 20
-8.3599243023
 10
-129.1034272177
 20
-7.9549512883
 10
-128.6985158831
 20
-7.5280354946
 10
-128.3153653784
 20
-7.0793555562
 10
-127.9571119353
 20
-6.6125840883
 10
-127.6239599034
 20
-6.1275725996
 10
-127.3157049332
 20
-5.6244695813
 10
-127.0348702082
 20
-5.1073931221
 10
-126.7816807876
 20
-4.5762285309
 10
-126.5559116124
 20
-4.0310904988
 10
-126.3594106884
 20
-3.4764411867
 10
-126.1924182431
 20
-2.9122025282
 10
-126.0546940491
 20
-2.3384525898
 10
-125.9473654311
 20
-1.7598877317
 10
-125.870808164
 20
-1.1780734074
 10
-125.824646473
 20
-0.5914441635
 10
-125.808880358
 20
0.0
  0
LWPOLYLINE
  5
69C
100
AcDbEntity
  8
ASSI
100
AcDbPolyline
 62
7
  6
CONTINUOUS
 90
61
 70
0
 10
-147.5933434279
 20
0.0
 10
-147.5785583156
 20
-0.5546431934
 10
-147.5352689075
 20
-1.1047710621
 10
-147.4634752037
 20
-1.6503836062
 10
-147.3628248109
 20
-2.1929488731
 10
-147.2336701223
 20
-2.7309988154
 10
-147.077068318
 20
-3.2601292907
 10
-146.8927941182
 20
-3.78026709
 10
-146.6810728027
 20
-4.2914854224
 10
-146.4436373905
 20
-4.7895997722
 10
-146.1802768262
 20
-5.2745025852
 10
-145.8912021653
 20
-5.7463014156
 10
-145.5787795931
 20
-6.2011344117
 10
-145.2428174754
 20
-6.6388623216
 10
-144.8835074465
 20
-7.0596243972
 10
-144.5037905949
 20
-7.4599765415
 10
-144.1034994261
 20
-7.8397512346
 10
-143.6828014347
 20
-8.1991159965
 10
-143.2451401928
 20
-8.5351292907
 10
-142.7903764701
 20
-8.8475994535
 10
-142.3186494968
 20
-9.1367181487
 10
-141.833820537
 20
-9.4001188302
 10
-141.3357820523
 20
-9.6375904104
 10
-140.824641581
 20
-9.849343977
 10
-140.3045830011
 20
-10.0336462469
 10
-139.775533115
 20
-10.1902719061
 10
-139.2375651203
 20
-10.3194462685
 10
-138.6950824887
 20
-10.4201119933
 10
-138.1480481651
 20
-10.4920350878
 10
-137.5964992045
 20
-10.5354495447
 10
-137.044950244
 20
-10.55
 10
-136.4934012834
 20
-10.5354495447
 10
-135.9418523228
 20
-10.4920350878
 10
-135.3948179992
 20
-10.4201119933
 10
-134.8523353676
 20
-10.3194462685
 10
-134.314367373
 20
-10.1902719061
 10
-133.7853174868
 20
-10.0336462469
 10
-133.265258907
 20
-9.849343977
 10
-132.7541184356
 20
-9.6375904104
 10
-132.256079951
 20
-9.4001188302
 10
-131.7712509911
 20
-9.1367181487
 10
-131.2995240179
 20
-8.8475994535
 10
-130.8447602951
 20
-8.5351292907
 10
-130.4070990532
 20
-8.1991159965
 10
-129.9864010618
 20
-7.8397512346
 10
-129.586109893
 20
-7.4599765415
 10
-129.2063930415
 20
-7.0596243972
 10
-128.8470830126
 20
-6.6388623216
 10
-128.5111208948
 20
-6.2011344117
 10
-128.1986983227
 20
-5.7463014156
 10
-127.9096236617
 20
-5.2745025852
 10
-127.6462630974
 20
-4.7895997722
 10
-127.4088276852
 20
-4.2914854224
 10
-127.1971063697
 20
-3.78026709
 10
-127.01283217
 20
-3.2601292907
 10
-126.8562303656
 20
-2.7309988154
 10
-126.7270756771
 20
-2.1929488731
 10
-126.6264252842
 20
-1.6503836062
 10
-126.5546315804
 20
-1.1047710621
 10
-126.5113421724
 20
-0.5546431934
 10
-126.4965570601
 20
0.0
  0
LWPOLYLINE
  5
69D
100
AcDbEntity
  8
DRAFT
100
AcDbPolyline
 62
7
  6
CONTINUOUS
 90
64
 70
0
 10
-148.5554154228
 20
0.0
 10
-148.5408618155
 20
-0.575420124
 10
-148.498062053
 20
-1.1466898662
 10
-148.4270161353
 20
-1.7138092265
 10
-148.3273763654
 20
-2.2782663012
 10
-148.1994904402
 20
-2.8385729939
 10
-148.0444014505
 20
-3.3902650164
 10
-147.8620055074
 20
-3.9330225654
 10
-147.6524064998
 20
-4.4671654441
 10
-147.4169591847
 20
-4.989188773
 10
-147.1552861501
 20
-5.4993479807
 10
-146.8677648079
 20
-5.9973876386
 10
-146.5568821509
 20
-6.4790365823
 10
-146.2227554398
 20
-6.9437714204
 10
-145.8652674138
 20
-7.3921155443
 10
-145.4865532836
 20
-7.8213679638
 10
-145.0860483809
 20
-8.2318068085
 10
-144.6643173739
 20
-8.6231539489
 10
-144.225189478
 20
-8.9918740061
 10
-143.7690567661
 20
-9.3373954219
 10
-143.2955271653
 20
-9.6602897546
 10
-142.8072536712
 20
-9.9587362997
 10
-142.3035003037
 20
-10.2329056122
 10
-141.7850030431
 20
-10.482627137
 10
-141.2566228256
 20
-10.7055685051
 10
-140.7189987107
 20
-10.9012566639
 10
-140.171491639
 20
-11.070164666
 10
-139.6170453694
 20
-11.2113793001
 10
-139.0548342435
 20
-11.3248676505
 10
-138.4856839198
 20
-11.4106626329
 10
-137.9150151326
 20
-11.4679497838
 10
-137.3436224843
 20
-11.4964576153
 10
-136.7707113726
 20
-11.4964576153
 10
-136.1993187244
 20
-11.4679497838
 10
-135.6286499371
 20
-11.4106626329
 10
-135.0594996134
 20
-11.3248676505
 10
-134.4972884875
 20
-11.2113793001
 10
-133.942842218
 20
-11.070164666
 10
-133.3953351463
 20
-10.9012566639
 10
-132.8577110313
 20
-10.7055685051
 10
-132.3293308139
 20
-10.482627137
 10
-131.8108335532
 20
-10.2329056122
 10
-131.3070801857
 20
-9.9587362997
 10
-130.8188066917
 20
-9.6602897546
 10
-130.3452770908
 20
-9.3373954219
 10
-129.889144379
 20
-8.9918740061
 10
-129.450016483
 20
-8.6231539489
 10
-129.0282854761
 20
-8.2318068085
 10
-128.6277805734
 20
-7.8213679638
 10
-128.2490664431
 20
-7.3921155443
 10
-127.8915784172
 20
-6.9437714204
 10
-127.557451706
 20
-6.4790365823
 10
-127.246569049
 20
-5.9973876386
 10
-126.9590477069
 20
-5.4993479807
 10
-126.6973746723
 20
-4.989188773
 10
-126.4619273571
 20
-4.4671654441
 10
-126.2523283495
 20
-3.9330225654
 10
-126.0699324065
 20
-3.3902650164
 10
-125.9148434168
 20
-2.8385729939
 10
-125.7869574916
 20
-2.2782663012
 10
-125.6873177217
 20
-1.7138092265
 10
-125.6162718039
 20
-1.1466898662
 10
-125.5734720414
 20
-0.575420124
 10
-125.5589184342
 20
0.0
  0
LWPOLYLINE
  5
69E
100
AcDbEntity
  8
0
100
AcDbPolyline
 62
7
  6
CONTINUOUS
 90
2
 70
0
 43
0.3500000006
 10
-149.3219344482
 20
50.2500014191
 10
-149.3219344482
 20
51.7500018768
  0
LWPOLYLINE
  5
69F
100
AcDbEntity
  8
DRAFT
100
AcDbPolyline
 62
7
  6
CONTINUOUS
 90
64
 70
0
 10
-148.565890855
 20
0.0
 10
-148.5512971119
 20
0.5769914638
 10
-148.5083807832
 20
1.149819635
 10
-148.437141869
 20
1.7184845139
 10
-148.3372322595
 20
2.284476556
 10
-148.2090000644
 20
2.8463053056
 10
-148.0534896131
 20
3.3994993955
 10
-147.8705953043
 20
3.9437421037
 10
-147.6604227392
 20
4.4793501522
 10
-147.4243330507
 20
5.0028023393
 10
-147.1619501157
 20
5.5143501903
 10
-146.8736500574
 20
6.0137421799
 10
-146.5619223776
 20
6.4967025305
 10
-146.2268817075
 20
6.9627108391
 10
-145.8684134159
 20
7.4122875088
 10
-145.4886631114
 20
7.8427179715
 10
-145.0870675889
 20
8.2542776495
 10
-144.6641900534
 20
8.6466911205
 10
-144.2238657284
 20
9.0164175489
 10
-143.7664852628
 20
9.3628860812
 10
-143.2916580077
 20
9.6866675709
 10
-142.8020472391
 20
9.9859337428
 10
-142.2969163246
 20
10.2608545279
 10
-141.7770018966
 20
10.5112599952
 10
-141.2471771289
 20
10.7348120768
 10
-140.708082694
 20
10.9310366818
 10
-140.1590779194
 20
11.100407901
 10
-139.603113961
 20
11.2420099393
 10
-139.0393619346
 20
11.3558098506
 10
-138.4686507245
 20
11.441840581
 10
-137.8964181393
 20
11.4992851742
 10
-137.323462532
 20
11.5278713114
 10
-136.7489855495
 20
11.5278713114
 10
-136.1760299422
 20
11.4992851742
 10
-135.603797357
 20
11.441840581
 10
-135.0330861469
 20
11.3558098506
 10
-134.4693341205
 20
11.2420099393
 10
-133.9133701621
 20
11.100407901
 10
-133.3643653875
 20
10.9310366818
 10
-132.8252709526
 20
10.7348120768
 10
-132.2954461849
 20
10.5112599952
 10
-131.7755317569
 20
10.2608545279
 10
-131.2704008424
 20
9.9859337428
 10
-130.7807900738
 20
9.6866675709
 10
-130.3059628187
 20
9.3628860812
 10
-129.8485823531
 20
9.0164175489
 10
-129.4082580281
 20
8.6466911205
 10
-128.9853804926
 20
8.2542776495
 10
-128.5837849701
 20
7.8427179715
 10
-128.2040346656
 20
7.4122875088
 10
-127.845566374
 20
6.9627108391
 10
-127.5105257039
 20
6.4967025305
 10
-127.1987980241
 20
6.0137421799
 10
-126.9104979658
 20
5.5143501903
 10
-126.6481150308
 20
5.0028023393
 10
-126.4120253423
 20
4.4793501522
 10
-126.2018527772
 20
3.9437421037
 10
-126.0189584684
 20
3.3994993955
 10
-125.8634480171
 20
2.8463053056
 10
-125.735215822
 20
2.284476556
 10
-125.6353062125
 20
1.7184845139
 10
-125.5640672983
 20
1.149819635
 10
-125.5211509696
 20
0.5769914638
 10
-125.5065572265
 20
0.0
  0
LWPOLYLINE
  5
6A0
100
AcDbEntity
  8
DRAFT
100
AcDbPolyline
 62
7
  6
CONTINUOUS
 90
64
 70
0
 10
-148.5554154228
 20
0.0
 10
-148.5408618155
 20
0.575420124
 10
-148.498062053
 20
1.1466898662
 10
-148.4270161353
 20
1.7138092265
 10
-148.3273763654
 20
2.2782663012
 10
-148.1994904402
 20
2.8385729939
 10
-148.0444014505
 20
3.3902650164
 10
-147.8620055074
 20
3.9330225654
 10
-147.6524064998
 20
4.4671654441
 10
-147.4169591847
 20
4.989188773
 10
-147.1552861501
 20
5.4993479807
 10
-146.8677648079
 20
5.9973876386
 10
-146.5568821509
 20
6.4790365823
 10
-146.2227554398
 20
6.9437714204
 10
-145.8652674138
 20
7.3921155443
 10
-145.4865532836
 20
7.8213679638
 10
-145.0860483809
 20
8.2318068085
 10
-144.6643173739
 20
8.6231539489
 10
-144.225189478
 20
8.9918740061
 10
-143.7690567661
 20
9.3373954219
 10
-143.2955271653
 20
9.6602897546
 10
-142.8072536712
 20
9.9587362997
 10
-142.3035003037
 20
10.2329056122
 10
-141.7850030431
 20
10.482627137
 10
-141.2566228256
 20
10.7055685051
 10
-140.7189987107
 20
10.9012566639
 10
-140.171491639
 20
11.070164666
 10
-139.6170453694
 20
11.2113793001
 10
-139.0548342436
 20
11.3248676505
 10
-138.4856839198
 20
11.4106626329
 10
-137.9150151326
 20
11.4679497838
 10
-137.3436224843
 20
11.4964576153
 10
-136.7707113726
 20
11.4964576153
 10
-136.1993187244
 20
11.4679497838
 10
-135.6286499371
 20
11.4106626329
 10
-135.0594996134
 20
11.3248676505
 10
-134.4972884875
 20
11.2113793001
 10
-133.942842218
 20
11.070164666
 10
-133.3953351463
 20
10.9012566639
 10
-132.8577110313
 20
10.7055685051
 10
-132.3293308139
 20
10.482627137
 10
-131.8108335532
 20
10.2329056122
 10
-131.3070801857
 20
9.9587362997
 10
-130.8188066917
 20
9.6602897546
 10
-130.3452770908
 20
9.3373954219
 10
-129.889144379
 20
8.9918740061
 10
-129.450016483
 20
8.6231539489
 10
-129.0282854761
 20
8.2318068085
 10
-128.6277805734
 20
7.8213679638
 10
-128.2490664431
 20
7.3921155443
 10
-127.8915784172
 20
6.9437714204
 10
-127.557451706
 20
6.4790365823
 10
-127.246569049
 20
5.9973876386
 10
-126.9590477069
 20
5.4993479807
 10
-126.6973746723
 20
4.989188773
 10
-126.4619273571
 20
4.4671654441
 10
-126.2523283495
 20
3.9330225654
 10
-126.0699324065
 20
3.3902650164
 10
-125.9148434168
 20
2.8385729939
 10
-125.7869574916
 20
2.2782663012
 10
-125.6873177217
 20
1.7138092265
 10
-125.6162718039
 20
1.1466898662
 10
-125.5734720414
 20
0.575420124
 10
-125.5589184342
 20
0.0
  0
LWPOLYLINE
  5
6A1
100
AcDbEntity
  8
ASSI
100
AcDbPolyline
 62
7
  6
CONTINUOUS
 90
61
 70
0
 10
-148.305453499
 20
0.0
 10
-148.289687384
 20
0.5914441635
 10
-148.2435256929
 20
1.1780734074
 10
-148.1669684258
 20
1.7598877317
 10
-148.0596398079
 20
2.3384525898
 10
-147.9219156139
 20
2.9122025282
 10
-147.7549231685
 20
3.4764411867
 10
-147.5584222446
 20
4.0310904988
 10
-147.3326530693
 20
4.576228531
 10
-147.0794636487
 20
5.1073931221
 10
-146.7986289238
 20
5.6244695813
 10
-146.4903739535
 20
6.1275725996
 10
-146.1572219216
 20
6.6125840883
 10
-145.7989684786
 20
7.0793555562
 10
-145.4158179738
 20
7.5280354946
 10
-145.0109066392
 20
7.9549512884
 10
-144.5840558668
 20
8.3599243023
 10
-144.1354442646
 20
8.7431331716
 10
-143.6687438882
 20
9.1014411867
 10
-143.1838062691
 20
9.434643967
 10
-142.6807798759
 20
9.7429458932
 10
-142.1637821698
 20
10.0238233971
 10
-141.6326984777
 20
10.2770513855
 10
-141.0876434727
 20
10.5028549518
 10
-140.5330786364
 20
10.6993858083
 10
-139.9689259142
 20
10.8664036913
 10
-139.3952633606
 20
11.0041488646
 10
-138.8167866207
 20
11.1114938317
 10
-138.2334561809
 20
11.1881890747
 10
-137.6453115547
 20
11.2344841116
 10
-137.0571669285
 20
11.25
 10
-136.4690223023
 20
11.2344841116
 10
-135.8808776761
 20
11.1881890747
 10
-135.2975472362
 20
11.1114938317
 10
-134.7190704963
 20
11.0041488646
 10
-134.1454079428
 20
10.8664036913
 10
-133.5812552206
 20
10.6993858083
 10
-133.0266903843
 20
10.5028549518
 10
-132.4816353793
 20
10.2770513855
 10
-131.9505516871
 20
10.0238233971
 10
-131.4335539811
 20
9.7429458932
 10
-130.9305275879
 20
9.434643967
 10
-130.4455899688
 20
9.1014411867
 10
-129.9788895924
 20
8.7431331716
 10
-129.5302779901
 20
8.3599243023
 10
-129.1034272177
 20
7.9549512884
 10
-128.6985158831
 20
7.5280354946
 10
-128.3153653784
 20
7.0793555562
 10
-127.9571119353
 20
6.6125840883
 10
-127.6239599034
 20
6.1275725996
 10
-127.3157049332
 20
5.6244695813
 10
-127.0348702082
 20
5.1073931221
 10
-126.7816807876
 20
4.576228531
 10
-126.5559116124
 20
4.0310904988
 10
-126.3594106884
 20
3.4764411867
 10
-126.1924182431
 20
2.9122025282
 10
-126.0546940491
 20
2.3384525898
 10
-125.9473654311
 20
1.7598877317
 10
-125.870808164
 20
1.1780734074
 10
-125.824646473
 20
0.5914441635
 10
-125.808880358
 20
0.0
  0
LWPOLYLINE
  5
6A2
100
AcDbEntity
  8
ASSI
100
AcDbPolyline
 62
7
  6
CONTINUOUS
 90
61
 70
0
 10
-147.5933434279
 20
0.0
 10
-147.5785583156
 20
0.5546431934
 10
-147.5352689075
 20
1.1047710621
 10
-147.4634752037
 20
1.6503836062
 10
-147.3628248109
 20
2.1929488731
 10
-147.2336701223
 20
2.7309988154
 10
-147.077068318
 20
3.2601292907
 10
-146.8927941182
 20
3.78026709
 10
-146.6810728027
 20
4.2914854224
 10
-146.4436373905
 20
4.7895997723
 10
-146.1802768262
 20
5.2745025852
 10
-145.8912021653
 20
5.7463014156
 10
-145.5787795931
 20
6.2011344117
 10
-145.2428174754
 20
6.6388623216
 10
-144.8835074465
 20
7.0596243972
 10
-144.5037905949
 20
7.4599765415
 10
-144.1034994261
 20
7.8397512346
 10
-143.6828014347
 20
8.1991159965
 10
-143.2451401928
 20
8.5351292907
 10
-142.7903764701
 20
8.8475994535
 10
-142.3186494968
 20
9.1367181487
 10
-141.833820537
 20
9.4001188302
 10
-141.3357820523
 20
9.6375904104
 10
-140.824641581
 20
9.849343977
 10
-140.3045830011
 20
10.0336462469
 10
-139.775533115
 20
10.1902719061
 10
-139.2375651203
 20
10.3194462686
 10
-138.6950824887
 20
10.4201119933
 10
-138.1480481651
 20
10.4920350878
 10
-137.5964992045
 20
10.5354495447
 10
-137.044950244
 20
10.55
 10
-136.4934012834
 20
10.5354495447
 10
-135.9418523228
 20
10.4920350878
 10
-135.3948179992
 20
10.4201119933
 10
-134.8523353676
 20
10.3194462686
 10
-134.314367373
 20
10.1902719061
 10
-133.7853174868
 20
10.0336462469
 10
-133.265258907
 20
9.849343977
 10
-132.7541184356
 20
9.6375904104
 10
-132.256079951
 20
9.4001188302
 10
-131.7712509911
 20
9.1367181487
 10
-131.2995240179
 20
8.8475994535
 10
-130.8447602951
 20
8.5351292907
 10
-130.4070990532
 20
8.1991159965
 10
-129.9864010618
 20
7.8397512346
 10
-129.586109893
 20
7.4599765415
 10
-129.2063930415
 20
7.0596243972
 10
-128.8470830126
 20
6.6388623216
 10
-128.5111208948
 20
6.2011344117
 10
-128.1986983227
 20
5.7463014156
 10
-127.9096236617
 20
5.2745025852
 10
-127.6462630974
 20
4.7895997723
 10
-127.4088276852
 20
4.2914854224
 10
-127.1971063697
 20
3.78026709
 10
-127.01283217
 20
3.2601292907
 10
-126.8562303656
 20
2.7309988154
 10
-126.7270756771
 20
2.1929488731
 10
-126.6264252842
 20
1.6503836062
 10
-126.5546315804
 20
1.1047710621
 10
-126.5113421724
 20
0.5546431934
 10
-126.4965570601
 20
0.0
  0
LINE
  5
6A3
100
AcDbEntity
  8
RACCORDO
100
AcDbLine
 62
250
  6
CONTINUOUS
 10
-174.7293267963
 20
0.0001747589
 11
-174.7105103603
 21
0.0005705934
  0
LINE
  5
6A4
100
AcDbEntity
  8
0
100
AcDbLine
 62
7
  6
CONTINUOUS
 10
-121.8362240407
 20
0.6249998808
 11
-122.0362240407
 21
0.6249998808
  0
LINE
  5
6A5
100
AcDbEntity
  8
0
100
AcDbLine
 62
7
  6
CONTINUOUS
 10
-121.8362240407
 20
0.875
 11
-122.0362240407
 21
0.875
  0
LINE
  5
6A6
100
AcDbEntity
  8
0
100
AcDbLine
 62
7
  6
CONTINUOUS
 10
-121.8362240407
 20
1.3125001192
 11
-122.0362240407
 21
1.3125001192
  0
LINE
  5
6A7
100
AcDbEntity
  8
0
100
AcDbLine
 62
7
  6
CONTINUOUS
 10
-121.8362240407
 20
1.4375
 11
-122.0362240407
 21
1.4375
  0
LINE
  5
6A8
100
AcDbEntity
  8
0
100
AcDbLine
 62
7
  6
CONTINUOUS
 10
-121.8362240407
 20
1.8750001192
 11
-122.0362240407
 21
1.8750001192
  0
LINE
  5
6A9
100
AcDbEntity
  8
0
100
AcDbLine
 62
7
  6
CONTINUOUS
 10
-121.8362240407
 20
2.1249998808
 11
-122.0362240407
 21
2.1249998808
  0
LINE
  5
6AA
100
AcDbEntity
  8
0
100
AcDbLine
 62
7
  6
CONTINUOUS
 10
-121.8362240407
 20
2.375
 11
-122.0362240407
 21
2.375
  0
LINE
  5
6AB
100
AcDbEntity
  8
0
100
AcDbLine
 62
7
  6
CONTINUOUS
 10
-121.8362240407
 20
2.4375001192
 11
-122.0362240407
 21
2.4375001192
  0
LINE
  5
6AC
100
AcDbEntity
  8
0
100
AcDbLine
 62
7
  6
CONTINUOUS
 10
-121.8362240407
 20
2.4999998808
 11
-122.0362240407
 21
2.4999998808
  0
LWPOLYLINE
  5
6AD
100
AcDbEntity
  8
RACCORDO
100
AcDbPolyline
 62
250
  6
CONTINUOUS
 90
8
 70
0
 10
-172.3168879088
 20
-39.7721419415
 10
-172.3039925675
 20
-39.754814608
 10
-172.2938896705
 20
-39.7186527935
 10
-172.2864733262
 20
-39.6624640874
 10
-172.2818684479
 20
-39.5826657555
 10
-172.2797011226
 20
-39.4785882934
 10
-172.2790745626
 20
-39.3535803961
 10
-172.2796231898
 20
-39.206580474
  0
LINE
  5
6AE
100
AcDbEntity
  8
ASSI
100
AcDbLine
 62
7
  6
CONTINUOUS
 10
-121.5362240407
 20
4.8
 11
-121.8362240407
 21
4.8
  0
LWPOLYLINE
  5
6AF
100
AcDbEntity
  8
RACCORDO
100
AcDbPolyline
 62
250
  6
CONTINUOUS
 90
7
 70
0
 10
-127.344950244
 20
-32.108575216
 10
-127.3440863458
 20
-32.1113287036
 10
-127.3433274782
 20
-32.1195271835
 10
-127.342681952
 20
-32.133080866
 10
-127.3421568372
 20
-32.1518413118
 10
-127.3417578848
 20
-32.1756030572
 10
-127.341489464
 20
-32.2041058643
  0
LINE
  5
6B0
100
AcDbEntity
  8
0
100
AcDbLine
 62
7
  6
CONTINUOUS
 10
-121.8362240407
 20
16.0
 11
-122.0362240407
 21
16.0
  0
LINE
  5
6B1
100
AcDbEntity
  8
ASSI
100
AcDbLine
 62
7
  6
CONTINUOUS
 10
-122.0362240407
 20
17.0
 11
-121.5362240407
 21
17.0
  0
LWPOLYLINE
  5
6B2
100
AcDbEntity
  8
RACCORDO
100
AcDbPolyline
 62
250
  6
CONTINUOUS
 90
7
 70
0
 10
-123.215281153
 20
-32.1806588581
 10
-123.2144172712
 20
-32.1834122763
 10
-123.2136584148
 20
-32.1916105718
 10
-123.2130128953
 20
-32.2051639917
 10
-123.2124877831
 20
-32.2239241349
 10
-123.2120888298
 20
-32.2476855739
 10
-123.2118204055
 20
-32.2761881013
  0
LWPOLYLINE
  5
6B3
100
AcDbEntity
  8
RACCORDO
100
AcDbPolyline
 62
250
  6
CONTINUOUS
 90
5
 70
0
 10
-170.4118676302
 20
-41.3014370206
 10
-170.397558828
 20
-41.2890825603
 10
-170.3855866823
 20
-41.2501022289
 10
-170.375951193
 20
-41.1824928864
 10
-170.3689891694
 20
-41.0836820854
  0
LWPOLYLINE
  5
6B4
100
AcDbEntity
  8
RACCORDO
100
AcDbPolyline
 62
250
  6
CONTINUOUS
 90
27
 70
0
 10
-172.3168136506
 20
39.7722262789
 10
-172.3346742618
 20
39.7852705763
 10
-172.3508506129
 20
39.7953877377
 10
-172.3657188229
 20
39.8020644567
 10
-172.3783531884
 20
39.8088777498
 10
-172.3891048198
 20
39.8158563322
 10
-172.3997155918
 20
39.8189297324
 10
-172.4099936566
 20
39.8191935733
 10
-172.4189945637
 20
39.8206912725
 10
-172.4275285663
 20
39.8224702261
 10
-172.4359063631
 20
39.8234709006
 10
-172.4438012431
 20
39.8245946408
 10
-172.451351426
 20
39.8261353697
 10
-172.458574989
 20
39.8278615399
 10
-172.4653589409
 20
39.8297246658
 10
-172.4715852163
 20
39.8321808748
 10
-172.4771695972
 20
39.8353422988
 10
-172.4820810641
 20
39.838730391
 10
-172.4862700982
 20
39.8420230114
 10
-172.4895852943
 20
39.845763788
 10
-172.4919135507
 20
39.8502317707
 10
-172.4934263999
 20
39.8546561284
 10
-172.4942205748
 20
39.8590039239
 10
-172.4943912769
 20
39.8632868291
 10
-172.4942422409
 20
39.8667396979
 10
-172.4937931401
 20
39.8696730484
 10
-172.49322889
 20
39.8718655428
  0
LWPOLYLINE
  5
6B5
100
AcDbEntity
  8
RACCORDO
100
AcDbPolyline
 62
250
  6
CONTINUOUS
 90
28
 70
0
 10
-128.3274978375
 20
-31.6086513684
 10
-128.32670164
 20
-31.658164663
 10
-128.3228147971
 20
-31.7089180908
 10
-128.3158373089
 20
-31.7609116518
 10
-128.3059233184
 20
-31.814535254
 10
-128.2929186825
 20
-31.8693989894
 10
-128.2763609716
 20
-31.9243331338
 10
-128.2560937559
 20
-31.9793660627
 10
-128.2322734651
 20
-32.0344694004
 10
-128.2049069587
 20
-32.0883882962
 10
-128.1738479516
 20
-32.1410677512
 10
-128.1392427289
 20
-32.1925627642
 10
-128.1015370054
 20
-32.241783481
 10
-128.0606093032
 20
-32.2886366859
 10
-128.0165811002
 20
-32.3332155946
 10
-127.9702625455
 20
-32.3747100001
 10
-127.9215484669
 20
-32.4130028616
 10
-127.8705440365
 20
-32.4482112198
 10
-127.8183749195
 20
-32.4798759897
 10
-127.7649902031
 20
-32.5078423667
 10
-127.7104408
 20
-32.5322651552
 10
-127.6560051139
 20
-32.5531496842
 10
-127.601716154
 20
-32.5703371742
 10
-127.5475409112
 20
-32.5839864047
 10
-127.4946587612
 20
-32.5945790422
 10
-127.4434628293
 20
-32.6022756423
 10
-127.3935599902
 20
-32.6069156494
 10
-127.344950244
 20
-32.6084990636
  0
LINE
  5
6B6
100
AcDbEntity
  8
RACCORDO
100
AcDbLine
 62
250
  6
CONTINUOUS
 10
-127.3426819495
 20
-25.9459571615
 11
-127.344950244
 21
-25.7915009364
  0
LINE
  5
6B7
100
AcDbEntity
  8
RACCORDO
100
AcDbLine
 62
250
  6
CONTINUOUS
 10
-127.3417578828
 20
-26.0414191794
 11
-127.3426819495
 21
-25.9459571615
  0
LINE
  5
6B8
100
AcDbEntity
  8
RACCORDO
100
AcDbLine
 62
250
  6
CONTINUOUS
 10
-127.3413545142
 20
-26.1259627338
 11
-127.3417578828
 21
-26.0414191794
  0
LINE
  5
6B9
100
AcDbEntity
  8
RACCORDO
100
AcDbLine
 62
250
  6
CONTINUOUS
 10
-128.3274978375
 20
-26.7913486316
 11
-128.3274978375
 21
-31.6086513684
  0
LINE
  5
6BA
100
AcDbEntity
  8
RACCORDO
100
AcDbLine
 62
7
  6
CONTINUOUS
 10
-127.8362240407
 20
-26.7913486316
 11
-127.8362240407
 21
-31.6086513684
  0
LINE
  5
6BB
100
AcDbEntity
  8
RACCORDO
100
AcDbLine
 62
250
  6
CONTINUOUS
 10
-127.341489464
 20
-32.2041058643
 11
-127.3413545146
 21
-32.2740375116
  0
LINE
  5
6BC
100
AcDbEntity
  8
RACCORDO
100
AcDbLine
 62
250
  6
CONTINUOUS
 10
-127.3413545146
 20
-32.2740375116
 11
-127.3417578848
 21
-32.3585810861
  0
LINE
  5
6BD
100
AcDbEntity
  8
RACCORDO
100
AcDbLine
 62
250
  6
CONTINUOUS
 10
-127.3417578848
 20
-32.3585810861
 11
-127.3433274782
 21
-32.5045789054
  0
LINE
  5
6BE
100
AcDbEntity
  8
RACCORDO
100
AcDbLine
 62
250
  6
CONTINUOUS
 10
-127.3433274782
 20
-32.5045789054
 11
-127.344950244
 21
-32.6084990636
  0
LWPOLYLINE
  5
6BF
100
AcDbEntity
  8
RACCORDO
100
AcDbPolyline
 62
250
  6
CONTINUOUS
 90
3
 70
0
 10
-174.7297449716
 20
22.1990749536
 10
-174.7387821671
 20
22.1991640411
 10
-175.5362240407
 20
22.2
  0
LINE
  5
6C0
100
AcDbEntity
  8
RACCORDO
100
AcDbLine
 62
250
  6
CONTINUOUS
 10
-123.21301286
 20
-25.8738733025
 11
-123.215281153
 21
-25.7194172943
  0
LINE
  5
6C1
100
AcDbEntity
  8
RACCORDO
100
AcDbLine
 62
250
  6
CONTINUOUS
 10
-123.2120887929
 20
-25.9693352718
 11
-123.21301286
 21
-25.8738733025
  0
LINE
  5
6C2
100
AcDbEntity
  8
RACCORDO
100
AcDbLine
 62
250
  6
CONTINUOUS
 10
-123.2116854231
 20
-26.0538788463
 11
-123.2120887929
 21
-25.9693352718
  0
LINE
  5
6C3
100
AcDbEntity
  8
RACCORDO
100
AcDbLine
 62
250
  6
CONTINUOUS
 10
-123.215281153
 20
35.5
 11
-123.215281153
 21
-25.7194172943
  0
LINE
  5
6C4
100
AcDbEntity
  8
0
100
AcDbLine
 62
250
  6
CONTINUOUS
 10
-123.215281153
 20
-40.8747431161
 11
-123.215281153
 21
-35.5
  0
LINE
  5
6C5
100
AcDbEntity
  8
RACCORDO
100
AcDbLine
 62
250
  6
CONTINUOUS
 10
-123.215281153
 20
-32.6805827057
 11
-123.215281153
 21
-35.5
  0
LINE
  5
6C6
100
AcDbEntity
  8
0
100
AcDbLine
 62
250
  6
CONTINUOUS
 10
-123.215281153
 20
35.5
 11
-123.215281153
 21
40.8747431161
  0
LINE
  5
6C7
100
AcDbEntity
  8
RACCORDO
100
AcDbLine
 62
250
  6
CONTINUOUS
 10
-123.2118204055
 20
-32.2761881013
 11
-123.2116854442
 21
-32.3461193913
  0
LINE
  5
6C8
100
AcDbEntity
  8
RACCORDO
100
AcDbLine
 62
250
  6
CONTINUOUS
 10
-123.2116854442
 20
-32.3461193913
 11
-123.2120888011
 21
-32.4306629841
  0
LINE
  5
6C9
100
AcDbEntity
  8
RACCORDO
100
AcDbLine
 62
250
  6
CONTINUOUS
 10
-123.2120888011
 20
-32.4306629841
 11
-123.213658383
 21
-32.5766616073
  0
LINE
  5
6CA
100
AcDbEntity
  8
RACCORDO
100
AcDbLine
 62
250
  6
CONTINUOUS
 10
-123.213658383
 20
-32.5766616073
 11
-123.2152811507
 21
-32.6805827058
  0
LWPOLYLINE
  5
6CB
100
AcDbEntity
  8
DRAFT
100
AcDbPolyline
 62
7
  6
CONTINUOUS
 90
64
 70
0
 10
-125.5065572265
 20
0.0
 10
-125.5211509696
 20
-0.5769914638
 10
-125.5640672983
 20
-1.149819635
 10
-125.6353062125
 20
-1.7184845138
 10
-125.735215822
 20
-2.2844765559
 10
-125.8634480171
 20
-2.8463053056
 10
-126.0189584684
 20
-3.3994993954
 10
-126.2018527772
 20
-3.9437421037
 10
-126.4120253423
 20
-4.4793501522
 10
-126.6481150308
 20
-5.0028023393
 10
-126.9104979658
 20
-5.5143501903
 10
-127.1987980241
 20
-6.0137421798
 10
-127.5105257039
 20
-6.4967025305
 10
-127.845566374
 20
-6.9627108391
 10
-128.2040346656
 20
-7.4122875088
 10
-128.5837849701
 20
-7.8427179715
 10
-128.9853804926
 20
-8.2542776495
 10
-129.4082580281
 20
-8.6466911205
 10
-129.8485823531
 20
-9.0164175489
 10
-130.3059628187
 20
-9.3628860812
 10
-130.7807900738
 20
-9.6866675709
 10
-131.2704008424
 20
-9.9859337428
 10
-131.7755317569
 20
-10.2608545279
 10
-132.2954461849
 20
-10.5112599952
 10
-132.8252709526
 20
-10.7348120768
 10
-133.3643653875
 20
-10.9310366818
 10
-133.9133701621
 20
-11.100407901
 10
-134.4693341205
 20
-11.2420099393
 10
-135.0330861469
 20
-11.3558098506
 10
-135.603797357
 20
-11.441840581
 10
-136.1760299422
 20
-11.4992851742
 10
-136.7489855495
 20
-11.5278713114
 10
-137.323462532
 20
-11.5278713114
 10
-137.8964181393
 20
-11.4992851742
 10
-138.4686507245
 20
-11.441840581
 10
-139.0393619346
 20
-11.3558098506
 10
-139.603113961
 20
-11.2420099393
 10
-140.1590779194
 20
-11.100407901
 10
-140.708082694
 20
-10.9310366818
 10
-141.2471771289
 20
-10.7348120768
 10
-141.7770018966
 20
-10.5112599952
 10
-142.2969163246
 20
-10.2608545279
 10
-142.8020472391
 20
-9.9859337428
 10
-143.2916580077
 20
-9.6866675709
 10
-143.7664852628
 20
-9.3628860812
 10
-144.2238657284
 20
-9.0164175489
 10
-144.6641900534
 20
-8.6466911205
 10
-145.0870675889
 20
-8.2542776495
 10
-145.4886631114
 20
-7.8427179715
 10
-145.8684134159
 20
-7.4122875088
 10
-146.2268817075
 20
-6.9627108391
 10
-146.5619223776
 20
-6.4967025305
 10
-146.8736500574
 20
-6.0137421798
 10
-147.1619501157
 20
-5.5143501903
 10
-147.4243330507
 20
-5.0028023393
 10
-147.6604227392
 20
-4.4793501522
 10
-147.8705953043
 20
-3.9437421037
 10
-148.0534896131
 20
-3.3994993954
 10
-148.2090000644
 20
-2.8463053056
 10
-148.3372322595
 20
-2.2844765559
 10
-148.437141869
 20
-1.7184845138
 10
-148.5083807832
 20
-1.149819635
 10
-148.5512971119
 20
-0.5769914638
 10
-148.565890855
 20
0.0
  0
LWPOLYLINE
  5
6CC
100
AcDbEntity
  8
0
100
AcDbPolyline
 62
7
  6
CONTINUOUS
 90
10
 70
0
 43
0.3500000006
 10
-147.3219338379
 20
50.7500015717
 10
-147.2505117188
 20
50.6071437378
 10
-147.2505117188
 20
50.5357125549
 10
-147.3933650208
 20
50.3928592529
 10
-147.4647962036
 20
50.3928592529
 10
-147.5362273865
 20
50.4642859039
 10
-147.5362273865
 20
50.5357125549
 10
-147.4647962036
 20
50.6785703888
 10
-147.3933650208
 20
50.7500015717
 10
-147.3219338379
 20
50.7500015717
  0
LINE
  5
6CD
100
AcDbEntity
  8
RACCORDO
100
AcDbLine
 62
250
  6
CONTINUOUS
 10
-122.5274978375
 20
-26.2064316619
 11
-122.5274978375
 21
-32.1935683378
  0
LINE
  5
6CE
100
AcDbEntity
  8
0
100
AcDbLine
 62
7
  6
CONTINUOUS
 10
-122.0743802107
 20
-33.7248759926
 11
-122.0743802107
 21
-39.9751240074
  0
LINE
  5
6CF
100
AcDbEntity
  8
0
100
AcDbLine
 62
7
  6
CONTINUOUS
 10
-122.0743802107
 20
33.7248759926
 11
-122.0743802107
 21
39.9751240074
  0
LINE
  5
6D0
100
AcDbEntity
  8
0
100
AcDbLine
 62
7
  6
CONTINUOUS
 10
-122.0362240407
 20
39.6749258819
 11
-122.0362240407
 21
35.5
  0
LINE
  5
6D1
100
AcDbEntity
  8
DRAFT
100
AcDbLine
 62
7
  6
CONTINUOUS
 10
-122.0362240407
 20
35.5
 11
-122.0362240407
 21
33.7248759926
  0
LINE
  5
6D2
100
AcDbEntity
  8
0
100
AcDbLine
 62
7
  6
CONTINUOUS
 10
-122.0362240407
 20
33.7242099741
 11
-122.0362240407
 21
-25.7074135063
  0
LINE
  5
6D3
100
AcDbEntity
  8
RACCORDO
100
AcDbLine
 62
7
  6
CONTINUOUS
 10
-122.0362240407
 20
33.7242099741
 11
-122.0362240407
 21
-33.7242099741
  0
LINE
  5
6D4
100
AcDbEntity
  8
0
100
AcDbLine
 62
7
  6
CONTINUOUS
 10
-122.0362240407
 20
-32.6925864934
 11
-122.0362240407
 21
-33.7242099741
  0
LINE
  5
6D5
100
AcDbEntity
  8
DRAFT
100
AcDbLine
 62
7
  6
CONTINUOUS
 10
-122.0362240407
 20
-33.7242099741
 11
-122.0362240407
 21
-35.5
  0
LINE
  5
6D6
100
AcDbEntity
  8
0
100
AcDbLine
 62
7
  6
CONTINUOUS
 10
-122.0362240407
 20
-35.5
 11
-122.0362240407
 21
-39.6749258819
  0
LINE
  5
6D7
100
AcDbEntity
  8
0
100
AcDbLine
 62
7
  6
CONTINUOUS
 10
-121.8362240407
 20
-16.0
 11
-121.8362240407
 21
16.0
  0
LINE
  5
6D8
100
AcDbEntity
  8
RACCORDO
100
AcDbLine
 62
250
  6
CONTINUOUS
 10
-121.5362240407
 20
36.0
 11
-121.5362240407
 21
17.0
  0
LINE
  5
6D9
100
AcDbEntity
  8
RACCORDO
100
AcDbLine
 62
250
  6
CONTINUOUS
 10
-121.5362240407
 20
4.8
 11
-121.5362240407
 21
-4.8
  0
LINE
  5
6DA
100
AcDbEntity
  8
RACCORDO
100
AcDbLine
 62
250
  6
CONTINUOUS
 10
-121.5362240407
 20
-17.0
 11
-121.5362240407
 21
-36.0
  0
LINE
  5
6DB
100
AcDbEntity
  8
RACCORDO
100
AcDbLine
 62
7
  6
CONTINUOUS
 10
-121.0362240407
 20
35.4998538756
 11
-121.0362240407
 21
17.5000003615
  0
LINE
  5
6DC
100
AcDbEntity
  8
RACCORDO
100
AcDbLine
 62
7
  6
CONTINUOUS
 10
-121.0362240407
 20
4.2999984573
 11
-121.0362240407
 21
-4.2999984573
  0
LINE
  5
6DD
100
AcDbEntity
  8
RACCORDO
100
AcDbLine
 62
7
  6
CONTINUOUS
 10
-121.0362240407
 20
-17.5001461244
 11
-121.0362240407
 21
-35.4998538756
  0
LWPOLYLINE
  5
6DE
100
AcDbEntity
  8
RACCORDO
100
AcDbPolyline
 62
250
  6
CONTINUOUS
 90
8
 70
0
 10
-127.344950244
 20
-26.291424784
 10
-127.3440863469
 20
-26.2886713035
 10
-127.3433274799
 20
-26.2804728435
 10
-127.3426819541
 20
-26.2669191908
 10
-127.3421568393
 20
-26.2481587825
 10
-127.3417578865
 20
-26.2243970792
 10
-127.3414894652
 20
-26.1958943138
 10
-127.3413545142
 20
-26.1259627338
  0
LWPOLYLINE
  5
6DF
100
AcDbEntity
  8
DRAFT
100
AcDbPolyline
 62
7
  6
CONTINUOUS
 90
23
 70
0
 10
-173.3214977593
 20
32.0739610412
 10
-173.3371506765
 20
32.0750213263
 10
-173.3826715739
 20
32.0943193339
 10
-173.4249521255
 20
32.1371522635
 10
-173.4626896492
 20
32.2001848261
 10
-173.4951766526
 20
32.2790296007
 10
-173.5231206281
 20
32.3714984928
 10
-173.5473413712
 20
32.4761067684
 10
-173.5679050047
 20
32.5898812877
 10
-173.5847454058
 20
32.7114532272
 10
-173.5984840012
 20
32.8436592211
 10
-173.6095049005
 20
32.9860224118
 10
-173.6174239942
 20
33.1375763606
 10
-173.6217103797
 20
33.3024455399
 10
-173.6226904214
 20
33.480993352
 10
-173.620037755
 20
33.6726975166
 10
-173.6122423855
 20
33.8815692685
 10
-173.5992451456
 20
34.1085468744
 10
-173.5811052026
 20
34.3524794157
 10
-173.5564900632
 20
34.614520875
 10
-173.5249555628
 20
34.8943954165
 10
-173.4869458661
 20
35.1901787339
 10
-173.4424609729
 20
35.5
  0
LWPOLYLINE
  5
6E0
100
AcDbEntity
  8
RACCORDO
100
AcDbPolyline
 62
250
  6
CONTINUOUS
 90
8
 70
0
 10
-123.215281153
 20
-26.2193411419
 10
-123.2144172549
 20
-26.2165876542
 10
-123.2136583872
 20
-26.2083891744
 10
-123.213012861
 20
-26.1948354919
 10
-123.2124877461
 20
-26.1760750461
 10
-123.2120887936
 20
-26.1523133007
 10
-123.2118203727
 20
-26.1238104936
 10
-123.2116854231
 20
-26.0538788463
  0
LINE
  5
6E1
100
AcDbEntity
  8
RACCORDO
100
AcDbLine
 62
250
  6
CONTINUOUS
 10
-170.4040193885
 20
35.4999993365
 11
-159.0362240407
 21
35.5000000145
  0
LINE
  5
6E2
100
AcDbEntity
  8
DRAFT
100
AcDbLine
 62
250
  6
CONTINUOUS
 10
-122.0743802107
 20
35.5
 11
-122.0362240407
 21
35.5
  0
LINE
  5
6E3
100
AcDbEntity
  8
0
100
AcDbLine
 62
250
  6
CONTINUOUS
 10
-122.0743802107
 20
35.5
 11
-159.0362240407
 21
35.5
  0
LINE
  5
6E4
100
AcDbEntity
  8
ASSI
100
AcDbLine
 62
7
  6
CONTINUOUS
 10
-122.0362240407
 20
36.0
 11
-121.5362240407
 21
36.0
  0
LINE
  5
6E5
100
AcDbEntity
  8
0
100
AcDbLine
 62
7
  6
CONTINUOUS
 10
-122.0362240407
 20
33.7242099741
 11
-122.0743802107
 21
33.7248759926
  0
LINE
  5
6E6
100
AcDbEntity
  8
RACCORDO
100
AcDbLine
 62
250
  6
CONTINUOUS
 10
-172.3247795625
 20
35.6024098348
 11
-170.4040195252
 21
35.4999993466
  0
LWPOLYLINE
  5
6E7
100
AcDbEntity
  8
DRAFT
100
AcDbPolyline
 62
7
  6
CONTINUOUS
 90
12
 70
0
 10
-172.5265564692
 20
38.9121580694
 10
-172.5215904913
 20
38.9115569962
 10
-172.5023873976
 20
38.8945619765
 10
-172.4860366168
 20
38.8526834747
 10
-172.4726488482
 20
38.7832430096
 10
-172.4621133926
 20
38.6848230073
 10
-172.4537855169
 20
38.5588231889
 10
-172.4477400419
 20
38.4064798049
 10
-172.4439021469
 20
38.228024862
 10
-172.4414026369
 20
38.0259081374
 10
-172.4399071832
 20
37.8022502265
 10
-172.4397501145
 20
37.5586265315
  0
LWPOLYLINE
  5
6E8
100
AcDbEntity
  8
RACCORDO
100
AcDbPolyline
 62
7
  6
CONTINUOUS
 90
16
 70
0
 10
-122.1308368472
 20
-26.0000659117
 10
-122.1457293819
 20
-26.0195828208
 10
-122.1623308034
 20
-26.0386795953
 10
-122.1807327607
 20
-26.0573562353
 10
-122.2010586522
 20
-26.0757548955
 10
-122.2233409201
 20
-26.0937334212
 10
-122.247497063
 20
-26.1108653479
 10
-122.2736451664
 20
-26.1272033656
 10
-122.3016930339
 20
-26.1426947844
 10
-122.3311454288
 20
-26.1567550688
 10
-122.3618562739
 20
-26.1693176043
 10
-122.3937813471
 20
-26.1804490055
 10
-122.4264861278
 20
-26.189764581
 10
-122.4597203244
 20
-26.1971361003
 10
-122.4934416489
 20
-26.2026917939
 10
-122.5274978375
 20
-26.2064316619
  0
LINE
  5
6E9
100
AcDbEntity
  8
RACCORDO
100
AcDbLine
 62
7
  6
CONTINUOUS
 10
-170.8171227944
 20
41.2848913136
 11
-171.0065987963
 21
41.2537642514
  0
LINE
  5
6EA
100
AcDbEntity
  8
RACCORDO
100
AcDbLine
 62
7
  6
CONTINUOUS
 10
-170.6255402894
 20
41.2977046
 11
-170.8171227944
 21
41.2848913136
  0
LINE
  5
6EB
100
AcDbEntity
  8
RACCORDO
100
AcDbLine
 62
7
  6
CONTINUOUS
 10
-159.0362240407
 20
41.5000003491
 11
-170.6228867944
 21
41.2977530797
  0
LINE
  5
6EC
100
AcDbEntity
  8
0
100
AcDbLine
 62
7
  6
CONTINUOUS
 10
-123.215281153
 20
40.8747431161
 11
-159.0362240407
 21
41.5
  0
LWPOLYLINE
  5
6ED
100
AcDbEntity
  8
RACCORDO
100
AcDbPolyline
 62
7
  6
CONTINUOUS
 90
9
 70
0
 10
-171.0065987963
 20
41.2537642514
 10
-171.1922215581
 20
41.2046088387
 10
-171.3722779666
 20
41.1378774379
 10
-171.5451094343
 20
41.0541834111
 10
-171.7091264654
 20
40.9542939364
 10
-171.862817143
 20
40.8391258041
 10
-172.0047602744
 20
40.7097397205
 10
-172.13364353
 20
40.5673281595
 10
-172.2482760114
 20
40.4132034397
  0
LWPOLYLINE
  5
6EE
100
AcDbEntity
  8
0
100
AcDbPolyline
 62
7
  6
CONTINUOUS
 90
8
 70
0
 43
0.3500000006
 10
-152.4647977295
 20
50.2500014191
 10
-151.6076507263
 20
50.2500014191
 10
-151.1790817566
 20
50.6785703888
 10
-151.1790817566
 20
51.5357128601
 10
-151.6076507263
 20
51.9642863617
 10
-152.4647977295
 20
51.9642863617
 10
-152.4647977295
 20
53.2500023346
 10
-151.1790817566
 20
53.2500023346
  0
LWPOLYLINE
  5
6EF
100
AcDbEntity
  8
0
100
AcDbPolyline
 62
7
  6
CONTINUOUS
 90
8
 70
0
 43
0.3500000006
 10
-146.2505114136
 20
50.2500014191
 10
-145.3933644104
 20
50.2500014191
 10
-144.9647954407
 20
50.6785703888
 10
-144.9647954407
 20
51.5357128601
 10
-145.3933644104
 20
51.9642863617
 10
-146.2505114136
 20
51.9642863617
 10
-146.2505114136
 20
53.2500023346
 10
-144.9647954407
 20
53.2500023346
  0
LWPOLYLINE
  5
6F0
100
AcDbEntity
  8
0
100
AcDbPolyline
 62
7
  6
CONTINUOUS
 90
3
 70
0
 43
0.3500000006
 10
-148.8219342957
 20
50.8928594055
 10
-150.3219347534
 20
50.8928594055
 10
-149.6790812988
 20
53.2500023346
  0
ARC
  5
6F1
100
AcDbEntity
  8
SKEL
100
AcDbCircle
 62
7
  6
CONTINUOUS
 10
-96.0
 20
-35.5
 40
6.0000004289
100
AcDbArc
 50
180.0000165401
 51
269.9999818696
  0
ARC
  5
6F2
100
AcDbEntity
  8
DRAFT
100
AcDbCircle
 62
7
  6
CONTINUOUS
 10
-96.0
 20
-35.5
 40
6.0
100
AcDbArc
 50
180.0
 51
270.0
  0
CIRCLE
  5
6F3
100
AcDbEntity
  8
DRAFT
100
AcDbCircle
 62
7
  6
CONTINUOUS
 10
-96.0
 20
-35.5
 40
3.25
  0
CIRCLE
  5
6F4
100
AcDbEntity
  8
0
100
AcDbCircle
 62
7
  6
CONTINUOUS
 10
-96.0
 20
-35.5
 40
3.0
  0
ARC
  5
6F5
100
AcDbEntity
  8
0
100
AcDbCircle
 62
7
  6
CONTINUOUS
 10
-96.0
 20
-35.5
 40
2.8950136038
100
AcDbArc
 50
258.0385857315
 51
281.9614142685
  0
ARC
  5
6F6
100
AcDbEntity
  8
0
100
AcDbCircle
 62
7
  6
CONTINUOUS
 10
-96.0
 20
-35.5
 40
2.8950136038
100
AcDbArc
 50
78.0385857315
 51
101.9614142685
  0
ARC
  5
6F7
100
AcDbEntity
  8
0
100
AcDbCircle
 62
7
  6
CONTINUOUS
 10
-96.0
 20
-35.5
 40
2.8155023425
100
AcDbArc
 50
282.3044249574
 51
77.6955750426
  0
ARC
  5
6F8
100
AcDbEntity
  8
0
100
AcDbCircle
 62
7
  6
CONTINUOUS
 10
-96.0
 20
-35.5
 40
2.8155023425
100
AcDbArc
 50
102.3044249574
 51
257.6955750426
  0
ARC
  5
6F9
100
AcDbEntity
  8
0
100
AcDbCircle
 62
7
  6
CONTINUOUS
 10
-96.0
 20
-35.5
 40
1.6874840352
100
AcDbArc
 50
352.2301010241
 51
7.7632444202
  0
ARC
  5
6FA
100
AcDbEntity
  8
0
100
AcDbCircle
 62
7
  6
CONTINUOUS
 10
-96.0
 20
-35.5
 40
1.6874840352
100
AcDbArc
 50
172.230101045
 51
187.7632444202
  0
ARC
  5
6FB
100
AcDbEntity
  8
TRASH
100
AcDbCircle
 62
7
  6
CONTINUOUS
 10
-96.0
 20
-35.5
 40
1.1472328625
100
AcDbArc
 50
167.9845776281
 51
192.0153200785
  0
ARC
  5
6FC
100
AcDbEntity
  8
TRASH
100
AcDbCircle
 62
7
  6
CONTINUOUS
 10
-96.0
 20
-35.5
 40
1.1472328625
100
AcDbArc
 50
347.9845776281
 51
12.0153200785
  0
ARC
  5
6FD
100
AcDbEntity
  8
0
100
AcDbCircle
 62
7
  6
CONTINUOUS
 10
-96.0
 20
-35.5
 40
0.7522905861
100
AcDbArc
 50
217.1018788914
 51
221.6490663885
  0
ARC
  5
6FE
100
AcDbEntity
  8
0
100
AcDbCircle
 62
7
  6
CONTINUOUS
 10
-96.0
 20
-35.5
 40
0.7522905861
100
AcDbArc
 50
228.3509342563
 51
311.6490283615
  0
ARC
  5
6FF
100
AcDbEntity
  8
0
100
AcDbCircle
 62
7
  6
CONTINUOUS
 10
-96.0
 20
-35.5
 40
0.7522905861
100
AcDbArc
 50
318.3509867785
 51
322.8981211086
  0
ARC
  5
700
100
AcDbEntity
  8
0
100
AcDbCircle
 62
7
  6
CONTINUOUS
 10
-96.0
 20
-35.5
 40
0.7522905861
100
AcDbArc
 50
37.1018788914
 51
41.6490663885
  0
ARC
  5
701
100
AcDbEntity
  8
0
100
AcDbCircle
 62
7
  6
CONTINUOUS
 10
-96.0
 20
-35.5
 40
0.7522905861
100
AcDbArc
 50
48.3509342563
 51
131.6490283615
  0
ARC
  5
702
100
AcDbEntity
  8
0
100
AcDbCircle
 62
7
  6
CONTINUOUS
 10
-96.0
 20
-35.5
 40
0.7522905861
100
AcDbArc
 50
138.3509867785
 51
142.8981211086
  0
ARC
  5
703
100
AcDbEntity
  8
RACCORDO
100
AcDbCircle
 62
250
  6
CONTINUOUS
 10
-85.5
 20
-26.5
 40
8.2748993522
100
AcDbArc
 50
28.900483217
 51
38.210561876
  0
ARC
  5
704
100
AcDbEntity
  8
RACCORDO
100
AcDbCircle
 62
250
  6
CONTINUOUS
 10
-85.5
 20
-26.5
 40
7.9760409428
100
AcDbArc
 50
30.0978014061
 51
35.3924219906
  0
ARC
  5
705
100
AcDbEntity
  8
DRAFT
100
AcDbCircle
 62
7
  6
CONTINUOUS
 10
-85.5
 20
-26.5
 40
7.9125113365
100
AcDbArc
 50
30.3723645421
 51
34.7407628805
  0
ARC
  5
706
100
AcDbEntity
  8
0
100
AcDbCircle
 62
7
  6
CONTINUOUS
 10
-78.7
 20
-22.2
 40
0.3
100
AcDbArc
 50
180.0
 51
270.0
  0
ARC
  5
707
100
AcDbEntity
  8
RACCORDO
100
AcDbCircle
 62
250
  6
CONTINUOUS
 10
-11.8
 20
-22.2
 40
3.7063328474
100
AcDbArc
 50
303.1277813377
 51
360.0
  0
ARC
  5
708
100
AcDbEntity
  8
RACCORDO
100
AcDbCircle
 62
250
  6
CONTINUOUS
 10
-11.8
 20
-22.2
 40
1.9015864925
100
AcDbArc
 50
303.1277813377
 51
360.0
  0
ARC
  5
709
100
AcDbEntity
  8
0
100
AcDbCircle
 62
7
  6
CONTINUOUS
 10
-11.8
 20
-22.2
 40
0.3
100
AcDbArc
 50
270.0
 51
360.0
  0
ARC
  5
70A
100
AcDbEntity
  8
SKEL
100
AcDbCircle
 62
7
  6
CONTINUOUS
 10
-96.0
 20
35.5
 40
6.0000004289
100
AcDbArc
 50
90.0000192217
 51
179.9999834907
  0
ARC
  5
70B
100
AcDbEntity
  8
DRAFT
100
AcDbCircle
 62
7
  6
CONTINUOUS
 10
-96.0
 20
35.5
 40
6.0
100
AcDbArc
 50
90.0
 51
180.0
  0
CIRCLE
  5
70C
100
AcDbEntity
  8
DRAFT
100
AcDbCircle
 62
7
  6
CONTINUOUS
 10
-96.0
 20
35.5
 40
3.25
  0
CIRCLE
  5
70D
100
AcDbEntity
  8
0
100
AcDbCircle
 62
7
  6
CONTINUOUS
 10
-96.0
 20
35.5
 40
3.0
  0
ARC
  5
70E
100
AcDbEntity
  8
0
100
AcDbCircle
 62
7
  6
CONTINUOUS
 10
-96.0
 20
35.5
 40
2.8950136038
100
AcDbArc
 50
258.0385857315
 51
281.9614142685
  0
ARC
  5
70F
100
AcDbEntity
  8
0
100
AcDbCircle
 62
7
  6
CONTINUOUS
 10
-96.0
 20
35.5
 40
2.8950136038
100
AcDbArc
 50
78.0385857315
 51
101.9614142685
  0
ARC
  5
710
100
AcDbEntity
  8
0
100
AcDbCircle
 62
7
  6
CONTINUOUS
 10
-96.0
 20
35.5
 40
2.8155023425
100
AcDbArc
 50
282.3044249574
 51
77.6955750426
  0
ARC
  5
711
100
AcDbEntity
  8
0
100
AcDbCircle
 62
7
  6
CONTINUOUS
 10
-96.0
 20
35.5
 40
2.8155023425
100
AcDbArc
 50
102.3044249574
 51
257.6955750426
  0
ARC
  5
712
100
AcDbEntity
  8
0
100
AcDbCircle
 62
7
  6
CONTINUOUS
 10
-96.0
 20
35.5
 40
1.6874840352
100
AcDbArc
 50
352.2301010241
 51
7.7632444202
  0
ARC
  5
713
100
AcDbEntity
  8
0
100
AcDbCircle
 62
7
  6
CONTINUOUS
 10
-96.0
 20
35.5
 40
1.6874840352
100
AcDbArc
 50
172.230101045
 51
187.7632444202
  0
ARC
  5
714
100
AcDbEntity
  8
TRASH
100
AcDbCircle
 62
7
  6
CONTINUOUS
 10
-96.0
 20
35.5
 40
1.1472328625
100
AcDbArc
 50
167.9845776281
 51
192.0153200785
  0
ARC
  5
715
100
AcDbEntity
  8
TRASH
100
AcDbCircle
 62
7
  6
CONTINUOUS
 10
-96.0
 20
35.5
 40
1.1472328625
100
AcDbArc
 50
347.9845776281
 51
12.0153200785
  0
ARC
  5
716
100
AcDbEntity
  8
0
100
AcDbCircle
 62
7
  6
CONTINUOUS
 10
-96.0
 20
35.5
 40
0.7522905861
100
AcDbArc
 50
217.1018788914
 51
221.6490663885
  0
ARC
  5
717
100
AcDbEntity
  8
0
100
AcDbCircle
 62
7
  6
CONTINUOUS
 10
-96.0
 20
35.5
 40
0.7522905861
100
AcDbArc
 50
228.3509342563
 51
311.6490283615
  0
ARC
  5
718
100
AcDbEntity
  8
0
100
AcDbCircle
 62
7
  6
CONTINUOUS
 10
-96.0
 20
35.5
 40
0.7522905861
100
AcDbArc
 50
318.3509867785
 51
322.8981211086
  0
ARC
  5
719
100
AcDbEntity
  8
0
100
AcDbCircle
 62
7
  6
CONTINUOUS
 10
-96.0
 20
35.5
 40
0.7522905861
100
AcDbArc
 50
37.1018788914
 51
41.6490663885
  0
ARC
  5
71A
100
AcDbEntity
  8
0
100
AcDbCircle
 62
7
  6
CONTINUOUS
 10
-96.0
 20
35.5
 40
0.7522905861
100
AcDbArc
 50
48.3509342563
 51
131.6490283615
  0
ARC
  5
71B
100
AcDbEntity
  8
0
100
AcDbCircle
 62
7
  6
CONTINUOUS
 10
-96.0
 20
35.5
 40
0.7522905861
100
AcDbArc
 50
138.3509867785
 51
142.8981211086
  0
ARC
  5
71C
100
AcDbEntity
  8
RACCORDO
100
AcDbCircle
 62
250
  6
CONTINUOUS
 10
-85.5
 20
26.5
 40
8.2748980455
100
AcDbArc
 50
321.7873160854
 51
331.0992822767
  0
ARC
  5
71D
100
AcDbEntity
  8
RACCORDO
100
AcDbCircle
 62
250
  6
CONTINUOUS
 10
-85.5
 20
26.5
 40
7.9760409329
100
AcDbArc
 50
324.6067460167
 51
329.9024385245
  0
ARC
  5
71E
100
AcDbEntity
  8
DRAFT
100
AcDbCircle
 62
7
  6
CONTINUOUS
 10
-85.5
 20
26.5
 40
7.9125113365
100
AcDbArc
 50
325.2592371195
 51
329.6276354579
  0
ARC
  5
71F
100
AcDbEntity
  8
0
100
AcDbCircle
 62
7
  6
CONTINUOUS
 10
-78.7
 20
22.2
 40
0.3
100
AcDbArc
 50
90.0
 51
180.0
  0
CIRCLE
  5
720
100
AcDbEntity
  8
RACCORDO
100
AcDbCircle
 62
250
  6
CONTINUOUS
 10
-45.3
 20
0.0
 40
3.4999940798
  0
CIRCLE
  5
721
100
AcDbEntity
  8
RACCORDO
100
AcDbCircle
 62
7
  6
CONTINUOUS
 10
-45.3
 20
0.0
 40
3.0
  0
CIRCLE
  5
722
100
AcDbEntity
  8
ASSI
100
AcDbCircle
 62
7
  6
CONTINUOUS
 10
-45.3
 20
0.0
 40
1.3856406461
  0
ARC
  5
723
100
AcDbEntity
  8
RACCORDO
100
AcDbCircle
 62
250
  6
CONTINUOUS
 10
-11.8
 20
22.2
 40
3.70634741
100
AcDbArc
 50
0.0
 51
56.872267417
  0
ARC
  5
724
100
AcDbEntity
  8
RACCORDO
100
AcDbCircle
 62
250
  6
CONTINUOUS
 10
-11.8
 20
22.2
 40
1.9015878206
100
AcDbArc
 50
0.0
 51
56.872267417
  0
ARC
  5
725
100
AcDbEntity
  8
0
100
AcDbCircle
 62
7
  6
CONTINUOUS
 10
-11.8
 20
22.2
 40
0.3
100
AcDbArc
 50
0.0
 51
90.0
  0
ARC
  5
726
100
AcDbEntity
  8
RACCORDO
100
AcDbCircle
 62
250
  6
CONTINUOUS
 10
11.8
 20
-22.2
 40
3.7063435691
100
AcDbArc
 50
180.0
 51
236.8722186623
  0
ARC
  5
727
100
AcDbEntity
  8
RACCORDO
100
AcDbCircle
 62
250
  6
CONTINUOUS
 10
11.8
 20
-22.2
 40
1.9015874656
100
AcDbArc
 50
180.0
 51
236.8722186623
  0
ARC
  5
728
100
AcDbEntity
  8
0
100
AcDbCircle
 62
7
  6
CONTINUOUS
 10
11.8
 20
-22.2
 40
0.3
100
AcDbArc
 50
180.0
 51
270.0
  0
ARC
  5
729
100
AcDbEntity
  8
SKEL
100
AcDbCircle
 62
7
  6
CONTINUOUS
 10
96.0
 20
-35.5
 40
6.0000004289
100
AcDbArc
 50
270.0000181304
 51
359.9999834599
  0
ARC
  5
72A
100
AcDbEntity
  8
DRAFT
100
AcDbCircle
 62
7
  6
CONTINUOUS
 10
96.0
 20
-35.5
 40
6.0
100
AcDbArc
 50
270.0
 51
360.0
  0
CIRCLE
  5
72B
100
AcDbEntity
  8
DRAFT
100
AcDbCircle
 62
7
  6
CONTINUOUS
 10
96.0
 20
-35.5
 40
3.25
  0
CIRCLE
  5
72C
100
AcDbEntity
  8
0
100
AcDbCircle
 62
7
  6
CONTINUOUS
 10
96.0
 20
-35.5
 40
3.0
  0
ARC
  5
72D
100
AcDbEntity
  8
0
100
AcDbCircle
 62
7
  6
CONTINUOUS
 10
96.0
 20
-35.5
 40
2.8950136038
100
AcDbArc
 50
258.0385857315
 51
281.9614142685
  0
ARC
  5
72E
100
AcDbEntity
  8
0
100
AcDbCircle
 62
7
  6
CONTINUOUS
 10
96.0
 20
-35.5
 40
2.8950136038
100
AcDbArc
 50
78.0385857315
 51
101.9614142685
  0
ARC
  5
72F
100
AcDbEntity
  8
0
100
AcDbCircle
 62
7
  6
CONTINUOUS
 10
96.0
 20
-35.5
 40
2.8155023425
100
AcDbArc
 50
282.3044249574
 51
77.6955750426
  0
ARC
  5
730
100
AcDbEntity
  8
0
100
AcDbCircle
 62
7
  6
CONTINUOUS
 10
96.0
 20
-35.5
 40
2.8155023425
100
AcDbArc
 50
102.3044249574
 51
257.6955750426
  0
ARC
  5
731
100
AcDbEntity
  8
0
100
AcDbCircle
 62
7
  6
CONTINUOUS
 10
96.0
 20
-35.5
 40
1.6874840352
100
AcDbArc
 50
352.2301010241
 51
7.7632444202
  0
ARC
  5
732
100
AcDbEntity
  8
0
100
AcDbCircle
 62
7
  6
CONTINUOUS
 10
96.0
 20
-35.5
 40
1.6874840352
100
AcDbArc
 50
172.230101045
 51
187.7632444202
  0
ARC
  5
733
100
AcDbEntity
  8
TRASH
100
AcDbCircle
 62
7
  6
CONTINUOUS
 10
96.0
 20
-35.5
 40
1.1472328625
100
AcDbArc
 50
167.9845776281
 51
192.0153200785
  0
ARC
  5
734
100
AcDbEntity
  8
TRASH
100
AcDbCircle
 62
7
  6
CONTINUOUS
 10
96.0
 20
-35.5
 40
1.1472328625
100
AcDbArc
 50
347.9845776281
 51
12.0153200785
  0
ARC
  5
735
100
AcDbEntity
  8
0
100
AcDbCircle
 62
7
  6
CONTINUOUS
 10
96.0
 20
-35.5
 40
0.7522905861
100
AcDbArc
 50
217.1018788914
 51
221.6490663885
  0
ARC
  5
736
100
AcDbEntity
  8
0
100
AcDbCircle
 62
7
  6
CONTINUOUS
 10
96.0
 20
-35.5
 40
0.7522905861
100
AcDbArc
 50
228.3509342563
 51
311.6490283615
  0
ARC
  5
737
100
AcDbEntity
  8
0
100
AcDbCircle
 62
7
  6
CONTINUOUS
 10
96.0
 20
-35.5
 40
0.7522905861
100
AcDbArc
 50
318.3509867785
 51
322.8981211086
  0
ARC
  5
738
100
AcDbEntity
  8
0
100
AcDbCircle
 62
7
  6
CONTINUOUS
 10
96.0
 20
-35.5
 40
0.7522905861
100
AcDbArc
 50
37.1018788914
 51
41.6490663885
  0
ARC
  5
739
100
AcDbEntity
  8
0
100
AcDbCircle
 62
7
  6
CONTINUOUS
 10
96.0
 20
-35.5
 40
0.7522905861
100
AcDbArc
 50
48.3509342563
 51
131.6490283615
  0
ARC
  5
73A
100
AcDbEntity
  8
0
100
AcDbCircle
 62
7
  6
CONTINUOUS
 10
96.0
 20
-35.5
 40
0.7522905861
100
AcDbArc
 50
138.3509867785
 51
142.8981211086
  0
ARC
  5
73B
100
AcDbEntity
  8
RACCORDO
100
AcDbCircle
 62
250
  6
CONTINUOUS
 10
85.5
 20
-26.5
 40
8.2748980455
100
AcDbArc
 50
141.7873160854
 51
151.0992822767
  0
ARC
  5
73C
100
AcDbEntity
  8
RACCORDO
100
AcDbCircle
 62
250
  6
CONTINUOUS
 10
85.5
 20
-26.5
 40
7.9760409329
100
AcDbArc
 50
144.6067460167
 51
149.9024385245
  0
ARC
  5
73D
100
AcDbEntity
  8
DRAFT
100
AcDbCircle
 62
7
  6
CONTINUOUS
 10
85.5
 20
-26.5
 40
7.9125113365
100
AcDbArc
 50
145.2592371195
 51
149.6276354579
  0
ARC
  5
73E
100
AcDbEntity
  8
0
100
AcDbCircle
 62
7
  6
CONTINUOUS
 10
79.889711
 20
-27.389243
 40
0.8893898871
100
AcDbArc
 50
292.842868527
 51
90.0
  0
ARC
  5
73F
100
AcDbEntity
  8
0
100
AcDbCircle
 62
7
  6
CONTINUOUS
 10
79.809205
 20
-27.389243
 40
0.352865
100
AcDbArc
 50
270.0
 51
90.0
  0
ARC
  5
740
100
AcDbEntity
  8
0
100
AcDbCircle
 62
7
  6
CONTINUOUS
 10
78.7
 20
-22.2
 40
0.3
100
AcDbArc
 50
270.0
 51
360.0
  0
CIRCLE
  5
741
100
AcDbEntity
  8
RACCORDO
100
AcDbCircle
 62
250
  6
CONTINUOUS
 10
45.3
 20
0.0
 40
3.49999408
  0
CIRCLE
  5
742
100
AcDbEntity
  8
RACCORDO
100
AcDbCircle
 62
7
  6
CONTINUOUS
 10
45.3
 20
0.0
 40
3.0
  0
CIRCLE
  5
743
100
AcDbEntity
  8
ASSI
100
AcDbCircle
 62
7
  6
CONTINUOUS
 10
45.3
 20
0.0
 40
1.3856406461
  0
ARC
  5
744
100
AcDbEntity
  8
RACCORDO
100
AcDbCircle
 62
250
  6
CONTINUOUS
 10
11.8
 20
22.2
 40
3.7063536274
100
AcDbArc
 50
123.127732583
 51
180.0
  0
ARC
  5
745
100
AcDbEntity
  8
RACCORDO
100
AcDbCircle
 62
250
  6
CONTINUOUS
 10
11.8
 20
22.2
 40
1.9015883694
100
AcDbArc
 50
123.127732583
 51
180.0
  0
ARC
  5
746
100
AcDbEntity
  8
0
100
AcDbCircle
 62
7
  6
CONTINUOUS
 10
11.8
 20
22.2
 40
0.3
100
AcDbArc
 50
90.0
 51
180.0
  0
ARC
  5
747
100
AcDbEntity
  8
RACCORDO
100
AcDbCircle
 62
250
  6
CONTINUOUS
 10
85.5
 20
26.5
 40
8.2748980455
100
AcDbArc
 50
208.9021272366
 51
218.2219734972
  0
ARC
  5
748
100
AcDbEntity
  8
RACCORDO
100
AcDbCircle
 62
250
  6
CONTINUOUS
 10
85.5
 20
26.5
 40
7.9760409329
100
AcDbArc
 50
210.0956991184
 51
215.4036892612
  0
ARC
  5
749
100
AcDbEntity
  8
DRAFT
100
AcDbCircle
 62
7
  6
CONTINUOUS
 10
85.5
 20
26.5
 40
7.9125113365
100
AcDbArc
 50
210.3723645421
 51
214.7407628805
  0
ARC
  5
74A
100
AcDbEntity
  8
SKEL
100
AcDbCircle
 62
7
  6
CONTINUOUS
 10
96.0
 20
35.5
 40
6.0000004289
100
AcDbArc
 50
0.0000165093
 51
89.9999807783
  0
ARC
  5
74B
100
AcDbEntity
  8
DRAFT
100
AcDbCircle
 62
7
  6
CONTINUOUS
 10
96.0
 20
35.5
 40
6.0
100
AcDbArc
 50
0.0
 51
90.0
  0
CIRCLE
  5
74C
100
AcDbEntity
  8
DRAFT
100
AcDbCircle
 62
7
  6
CONTINUOUS
 10
96.0
 20
35.5
 40
3.25
  0
CIRCLE
  5
74D
100
AcDbEntity
  8
0
100
AcDbCircle
 62
7
  6
CONTINUOUS
 10
96.0
 20
35.5
 40
3.0
  0
ARC
  5
74E
100
AcDbEntity
  8
0
100
AcDbCircle
 62
7
  6
CONTINUOUS
 10
96.0
 20
35.5
 40
2.8950136038
100
AcDbArc
 50
258.0385857315
 51
281.9614142685
  0
ARC
  5
74F
100
AcDbEntity
  8
0
100
AcDbCircle
 62
7
  6
CONTINUOUS
 10
96.0
 20
35.5
 40
2.8950136038
100
AcDbArc
 50
78.0385857315
 51
101.9614142685
  0
ARC
  5
750
100
AcDbEntity
  8
0
100
AcDbCircle
 62
7
  6
CONTINUOUS
 10
96.0
 20
35.5
 40
2.8155023425
100
AcDbArc
 50
282.3044249574
 51
77.6955750426
  0
ARC
  5
751
100
AcDbEntity
  8
0
100
AcDbCircle
 62
7
  6
CONTINUOUS
 10
96.0
 20
35.5
 40
2.8155023425
100
AcDbArc
 50
102.3044249574
 51
257.6955750426
  0
ARC
  5
752
100
AcDbEntity
  8
0
100
AcDbCircle
 62
7
  6
CONTINUOUS
 10
96.0
 20
35.5
 40
1.6874840352
100
AcDbArc
 50
352.2301010241
 51
7.7632444202
  0
ARC
  5
753
100
AcDbEntity
  8
0
100
AcDbCircle
 62
7
  6
CONTINUOUS
 10
96.0
 20
35.5
 40
1.6874840352
100
AcDbArc
 50
172.230101045
 51
187.7632444202
  0
ARC
  5
754
100
AcDbEntity
  8
TRASH
100
AcDbCircle
 62
7
  6
CONTINUOUS
 10
96.0
 20
35.5
 40
1.1472328625
100
AcDbArc
 50
167.9845776281
 51
192.0153200785
  0
ARC
  5
755
100
AcDbEntity
  8
TRASH
100
AcDbCircle
 62
7
  6
CONTINUOUS
 10
96.0
 20
35.5
 40
1.1472328625
100
AcDbArc
 50
347.9845776281
 51
12.0153200785
  0
ARC
  5
756
100
AcDbEntity
  8
0
100
AcDbCircle
 62
7
  6
CONTINUOUS
 10
96.0
 20
35.5
 40
0.7522905861
100
AcDbArc
 50
217.1018788914
 51
221.6490663885
  0
ARC
  5
757
100
AcDbEntity
  8
0
100
AcDbCircle
 62
7
  6
CONTINUOUS
 10
96.0
 20
35.5
 40
0.7522905861
100
AcDbArc
 50
228.3509342563
 51
311.6490283615
  0
ARC
  5
758
100
AcDbEntity
  8
0
100
AcDbCircle
 62
7
  6
CONTINUOUS
 10
96.0
 20
35.5
 40
0.7522905861
100
AcDbArc
 50
318.3509867785
 51
322.8981211086
  0
ARC
  5
759
100
AcDbEntity
  8
0
100
AcDbCircle
 62
7
  6
CONTINUOUS
 10
96.0
 20
35.5
 40
0.7522905861
100
AcDbArc
 50
37.1018788914
 51
41.6490663885
  0
ARC
  5
75A
100
AcDbEntity
  8
0
100
AcDbCircle
 62
7
  6
CONTINUOUS
 10
96.0
 20
35.5
 40
0.7522905861
100
AcDbArc
 50
48.3509342563
 51
131.6490283615
  0
ARC
  5
75B
100
AcDbEntity
  8
0
100
AcDbCircle
 62
7
  6
CONTINUOUS
 10
96.0
 20
35.5
 40
0.7522905861
100
AcDbArc
 50
138.3509867785
 51
142.8981211086
  0
ARC
  5
75C
100
AcDbEntity
  8
0
100
AcDbCircle
 62
7
  6
CONTINUOUS
 10
78.7
 20
22.2
 40
0.3
100
AcDbArc
 50
0.0
 51
90.0
  0
ARC
  5
75D
100
AcDbEntity
  8
RACCORDO
100
AcDbCircle
 62
7
  6
CONTINUOUS
 10
-170.5878827097
 20
-39.2980594222
 40
2.0
100
AcDbArc
 50
196.6190851261
 51
268.9999936342
  0
ARC
  5
75E
100
AcDbEntity
  8
RACCORDO
100
AcDbCircle
 62
7
  6
CONTINUOUS
 10
-170.5880086351
 20
39.2980572242
 40
2.0
100
AcDbArc
 50
91.0000065412
 51
163.3802237217
  0
ARC
  5
75F
100
AcDbEntity
  8
0
100
AcDbCircle
 62
7
  6
CONTINUOUS
 10
-123.2362240407
 20
39.6749258819
 40
1.2
100
AcDbArc
 50
0.0
 51
89.0
  0
ARC
  5
760
100
AcDbEntity
  8
0
100
AcDbCircle
 62
7
  6
CONTINUOUS
 10
-123.2362240407
 20
-39.6749258819
 40
1.2
100
AcDbArc
 50
271.0
 51
360.0
  0
ARC
  5
761
100
AcDbEntity
  8
0
100
AcDbCircle
 62
7
  6
CONTINUOUS
 10
-174.5362240407
 20
-23.5
 40
1.0
100
AcDbArc
 50
180.0
 51
217.0546568042
  0
ARC
  5
762
100
AcDbEntity
  8
RACCORDO
100
AcDbCircle
 62
7
  6
CONTINUOUS
 10
-174.5362240407
 20
-23.5
 40
1.0
100
AcDbArc
 50
180.0000001129
 51
217.0546568042
  0
ARC
  5
763
100
AcDbEntity
  8
0
100
AcDbCircle
 62
7
  6
CONTINUOUS
 10
-174.5362240407
 20
23.5
 40
1.0
100
AcDbArc
 50
142.9459521634
 51
180.0
  0
ARC
  5
764
100
AcDbEntity
  8
RACCORDO
100
AcDbCircle
 62
7
  6
CONTINUOUS
 10
-174.5362240407
 20
23.5
 40
1.0
100
AcDbArc
 50
142.9459521634
 51
180.0000011378
  0
ARC
  5
765
100
AcDbEntity
  8
RACCORDO
100
AcDbCircle
 62
7
  6
CONTINUOUS
 10
-121.5362240407
 20
4.3
 40
0.5
100
AcDbArc
 50
359.9999308054
 51
90.0
  0
ARC
  5
766
100
AcDbEntity
  8
RACCORDO
100
AcDbCircle
 62
7
  6
CONTINUOUS
 10
-121.5362240407
 20
-4.3
 40
0.5
100
AcDbArc
 50
270.0
 51
0.0000691946
  0
ARC
  5
767
100
AcDbEntity
  8
RACCORDO
100
AcDbCircle
 62
7
  6
CONTINUOUS
 10
-121.5362240407
 20
35.5
 40
0.5
100
AcDbArc
 50
359.999958576
 51
90.0
  0
ARC
  5
768
100
AcDbEntity
  8
RACCORDO
100
AcDbCircle
 62
7
  6
CONTINUOUS
 10
-121.5362240407
 20
17.5
 40
0.5
100
AcDbArc
 50
270.0
 51
0.000041424
  0
ARC
  5
769
100
AcDbEntity
  8
RACCORDO
100
AcDbCircle
 62
7
  6
CONTINUOUS
 10
-121.5362240407
 20
-17.5
 40
0.5
100
AcDbArc
 50
359.999958576
 51
90.0
  0
ARC
  5
76A
100
AcDbEntity
  8
RACCORDO
100
AcDbCircle
 62
7
  6
CONTINUOUS
 10
-121.5362240407
 20
-35.5
 40
0.5
100
AcDbArc
 50
270.0
 51
0.000041424
  0
ARC
  5
76B
100
AcDbEntity
  8
RACCORDO
100
AcDbCircle
 62
7
  6
CONTINUOUS
 10
-122.5362368599
 20
-25.7074122156
 40
0.5
100
AcDbArc
 50
324.1749071504
 51
0.0000256403
  0
ARC
  5
76C
100
AcDbEntity
  8
RACCORDO
100
AcDbCircle
 62
7
  6
CONTINUOUS
 10
-122.5362368429
 20
-32.6925877847
 40
0.5
100
AcDbArc
 50
359.9999743938
 51
35.8250943454
  0
ARC
  5
76D
100
AcDbEntity
  8
RACCORDO
100
AcDbCircle
 62
7
  6
CONTINUOUS
 10
-127.3362240407
 20
-26.7913486316
 40
0.5
100
AcDbArc
 50
91.0
 51
180.0
  0
ARC
  5
76E
100
AcDbEntity
  8
RACCORDO
100
AcDbCircle
 62
7
  6
CONTINUOUS
 10
-127.3362240407
 20
-31.6086513684
 40
0.5
100
AcDbArc
 50
180.0
 51
269.0
  0
ENDSEC
  0
SECTION
  2
OBJECTS
  0
DICTIONARY
  5
C
100
AcDbDictionary
280
0
281
1
  3
ACAD_GROUP
350
D
  3
ACAD_MLINESTYLE
350
17
  3
ACAD_LAYOUT
350
1A
  3
ACAD_PLOTSETTINGS
350
19
  3
ACAD_PLOTSTYLENAME
350
E
  0
DICTIONARY
  5
D
102
{ACAD_REACTORS
330
C
102
}
100
AcDbDictionary
280
0
281
1
  0
ACDBDICTIONARYWDFLT
  5
E
102
{ACAD_REACTORS
330
C
102
}
100
AcDbDictionary
281
1
  3
Normal
350
F
100
AcDbDictionaryWithDefault
340
F
  0
DICTIONARY
  5
17
102
{ACAD_REACTORS
330
C
102
}
100
AcDbDictionary
280
0
281
1
  3
Standard
350
18
  0
DICTIONARY
  5
19
102
{ACAD_REACTORS
330
C
102
}
100
AcDbDictionary
281
1
  0
DICTIONARY
  5
1A
102
{ACAD_REACTORS
330
C
102
}
100
AcDbDictionary
281
1
  3
Model
350
76F
  3
Layout1
350
770
  0
ACDBPLACEHOLDER
  5
F
102
{ACAD_REACTORS
330
E
102
}
  0
MLINESTYLE
  5
18
102
{ACAD_REACTORS
330
17
102
}
100
AcDbMlineStyle
  2
STANDARD
 70
0
  3

 62
256
 51
90.0
 52
90.0
 71
2
 49
0.5
 62
256
  6
BYLAYER
 49
-0.5
 62
256
  6
BYLAYER
  0
LAYOUT
  5
76F
102
{ACAD_REACTORS
330
1A
102
}
100
AcDbPlotSettings
  1

  2
none_device
  4
ISO_A4_(297.00_x_210.00_MM)
  6

 40
0.0
 41
0.0
 42
0.0
 43
0.0
 44
297.0
 45
210.0
 46
0.0
 47
0.0
 48
0.0
 49
0.0
140
0.0
141
0.0
142
1.0
143
1.0
 70
1024
 72
1
 73
0
 74
0
  7

 75
0
147
1.0
148
0.0
149
0.0
100
AcDbLayout
  1
Model
 70
0
 71
0
 10
0.0
 20
0.0
 11
297.0
 21
210.0
 12
0.0
 22
0.0
 32
0.0
 14
0.0
 24
0.0
 34
0.0
 15
0.0
 25
0.0
 35
0.0
146
0.0
 13
0.0
 23
0.0
 33
0.0
 16
1.0
 26
0.0
 36
0.0
 17
0.0
 27
1.0
 37
0.0
 76
0
330
217
345
0
346
0
  0
LAYOUT
  5
770
102
{ACAD_REACTORS
330
1A
102
}
100
AcDbPlotSettings
  1

  2
none_device
  4
ISO_A4_(297.00_x_210.00_MM)
  6

 40
0.0
 41
0.0
 42
0.0
 43
0.0
 44
297.0
 45
210.0
 46
0.0
 47
0.0
 48
0.0
 49
0.0
140
0.0
141
0.0
142
1.0
143
1.0
 70
0
 72
1
 73
0
 74
0
  7

 75
0
147
1.0
148
0.0
149
0.0
100
AcDbLayout
  1
Layout1
 70
0
 71
1
 10
0.0
 20
0.0
 11
297.0
 21
210.0
 12
0.0
 22
0.0
 32
0.0
 14
0.0
 24
0.0
 34
0.0
 15
0.0
 25
0.0
 35
0.0
146
0.0
 13
0.0
 23
0.0
 33
0.0
 16
1.0
 26
0.0
 36
0.0
 17
0.0
 27
1.0
 37
0.0
 76
0
330
218
345
0
346
0
  0
ENDSEC
  0
EOF
