  0
SECTION
  2
HEADER
  9
$ACADVER
  1
AC1024
  9
$DWGCODEPAGE
  3
ANSI_1252
  9
$EXTMAX
 10
297.0
 20
210.0
 30
0.0
  9
$EXTMIN
 10
0.0
 20
0.0
 30
0.0
  9
$LIMMIN
 10
0.0
 20
0.0
  9
$LIMMAX
 10
297.0
 20
210.0
  9
$VIEWCTR
 10
148.5
 20
105.0
  9
$VIEWSIZE
 40
210.0
  9
$CLAYER
  8
0
  9
$LTSCALE
 40
16.335
  9
$CELTYPE
  6
BYLAYER
  9
$DIMSCALE
 40
1.0
  9
$DIMASZ
 40
3.0
  9
$DIMEXO
 40
0.5
  9
$DIMDLI
 40
11.286
  9
$DIMEXE
 40
1.5
  9
$DIMCEN
 40
2.673
  9
$DIMLFAC
 40
1.0
  9
$DIMBLK
  1
_FILLED
  9
$DIMALT
 70
0
  9
$DIMALTF
 40
0.0393700787
  9
$DIMTXT
 40
3.0
  9
$DIMTOL
 70
1
  9
$DIMLIM
 70
0
  9
$DIMTFAC
 40
1.0
  9
$DIMTP
 40
0.01
  9
$DIMTM
 40
0.01
  9
$DIMGAP
 40
0.625
  9
$DIMDSEP
 70
44
  9
$AUNITS
 70
0
  9
$PDMODE
 70
3
  9
$PDSIZE
 40
3.0
  9
$HANDSEED
  5
5E7
  9
$TILEMODE
 70
1
  9
$MEASUREMENT
 70
1
  9
$INSUNITS
 70
4
  0
ENDSEC
  0
SECTION
  2
CLASSES
  0
CLASS
  1
ACDBDICTIONARYWDFLT
  2
AcDbDictionaryWithDefault
  3
AutoCAD 2000
 90
0
 91
1
280
0
281
0
  0
CLASS
  1
ACDBPLACEHOLDER
  2
AcDbPlaceHolder
  3
AutoCAD 2000
 90
0
 91
1
280
0
281
0
  0
CLASS
  1
LAYOUT
  2
AcDbLayout
  3
AutoCAD 2000
 90
0
 91
0
280
0
281
0
  0
ENDSEC
  0
SECTION
  2
TABLES
  0
TABLE
  2
VPORT
  5
8
100
AcDbSymbolTable
 70
2
  0
VPORT
  5
1F4
100
AcDbSymbolTableRecord
100
AcDbViewportTableRecord
  2
*ACTIVE
 70
0
 10
0.0
 20
0.0
 11
1.0
 21
1.0
 12
148.5
 22
105.0
 13
0.0
 23
0.0
 14
1.0
 24
1.0
 15
0.0
 25
0.0
 16
0.0
 26
0.0
 36
1.0
 17
0.0
 27
0.0
 37
0.0
 40
210.0
 41
1.4142857143
 42
50.0
 43
0.0
 44
0.0
 50
0.0
 51
0.0
 71
0
 72
100
 73
1
 74
1
 75
0
 76
0
 77
0
 78
0
  0
ENDTAB
  0
TABLE
  2
LTYPE
  5
5
100
AcDbSymbolTable
 70
6
  0
LTYPE
  5
14
100
AcDbSymbolTableRecord
100
AcDbLinetypeTableRecord
  2
BYBLOCK
 70
0
  3

 72
65
 73
0
 40
0.0
  0
LTYPE
  5
15
100
AcDbSymbolTableRecord
100
AcDbLinetypeTableRecord
  2
BYLAYER
 70
0
  3

 72
65
 73
0
 40
0.0
  0
LTYPE
  5
16
100
AcDbSymbolTableRecord
100
AcDbLinetypeTableRecord
  2
CONTINUOUS
 70
64
  3
Solid line
 72
65
 73
0
 40
0.0
  0
LTYPE
  5
1F5
100
AcDbSymbolTableRecord
100
AcDbLinetypeTableRecord
  2
CENTER
 70
64
  3
____ _ ____ _ ____ _ ____ _ ____ _ ____ _ ____
 72
65
 73
4
 40
0.6
 49
0.375
 74
0
 49
-0.075
 74
0
 49
0.075
 74
0
 49
-0.075
 74
0
  0
LTYPE
  5
1F6
100
AcDbSymbolTableRecord
100
AcDbLinetypeTableRecord
  2
HIDDEN
 70
64
  3
- - - - - - - - - - - - - - - - - - - -
 72
65
 73
2
 40
0.2
 49
0.1
 74
0
 49
-0.1
 74
0
  0
LTYPE
  5
1F7
100
AcDbSymbolTableRecord
100
AcDbLinetypeTableRecord
  2
PHANTOM
 70
64
  3
_____ _ _ _____ _ _ _____ _ _ _____
 72
65
 73
6
 40
0.8
 49
0.45
 74
0
 49
-0.05
 74
0
 49
0.1
 74
0
 49
-0.05
 74
0
 49
0.1
 74
0
 49
-0.05
 74
0
  0
LTYPE
  5
1F8
100
AcDbSymbolTableRecord
100
AcDbLinetypeTableRecord
  2
DOT
 70
64
  3
. . . . . . . . . . . . . . . . . . . .
 72
65
 73
2
 40
0.2
 49
0.1
 74
0
 49
-0.1
 74
0
  0
LTYPE
  5
1F9
100
AcDbSymbolTableRecord
100
AcDbLinetypeTableRecord
  2
DASHED
 70
64
  3
- - - - - - - - - - - - - - - - - - - -
 72
65
 73
2
 40
0.2
 49
0.1
 74
0
 49
-0.1
 74
0
  0
ENDTAB
  0
TABLE
  2
LAYER
  5
2
100
AcDbSymbolTable
 70
36
  0
LAYER
  5
10
100
AcDbSymbolTableRecord
100
AcDbLayerTableRecord
  2
0
 70
0
 62
7
  6
CONTINUOUS
370
-3
390
F
  0
LAYER
  5
1FA
100
AcDbSymbolTableRecord
100
AcDbLayerTableRecord
  2
DEFAULT_1
 70
0
 62
7
  6
CENTER
370
-3
390
F
  0
LAYER
  5
1FB
100
AcDbSymbolTableRecord
100
AcDbLayerTableRecord
  2
DEFAULT_2
 70
0
 62
7
  6
HIDDEN
370
-3
390
F
  0
LAYER
  5
1FC
100
AcDbSymbolTableRecord
100
AcDbLayerTableRecord
  2
DEFAULT_3
 70
0
 62
7
  6
PHANTOM
370
-3
390
F
  0
LAYER
  5
1FD
100
AcDbSymbolTableRecord
100
AcDbLayerTableRecord
  2
26216763_GEN
 70
0
 62
7
  6
CONTINUOUS
370
-3
390
F
  0
LAYER
  5
1FE
100
AcDbSymbolTableRecord
100
AcDbLayerTableRecord
  2
ASSI
 70
0
 62
7
  6
CONTINUOUS
370
-3
390
F
  0
LAYER
  5
1FF
100
AcDbSymbolTableRecord
100
AcDbLayerTableRecord
  2
COORDINATE
 70
0
 62
7
  6
CONTINUOUS
370
-3
390
F
  0
LAYER
  5
200
100
AcDbSymbolTableRecord
100
AcDbLayerTableRecord
  2
COORD_ORIGINE
 70
0
 62
7
  6
CONTINUOUS
370
-3
390
F
  0
LAYER
  5
201
100
AcDbSymbolTableRecord
100
AcDbLayerTableRecord
  2
COSMETICI
 70
0
 62
7
  6
CONTINUOUS
370
-3
390
F
  0
LAYER
  5
202
100
AcDbSymbolTableRecord
100
AcDbLayerTableRecord
  2
CURVE
 70
0
 62
7
  6
CONTINUOUS
370
-3
390
F
  0
LAYER
  5
203
100
AcDbSymbolTableRecord
100
AcDbLayerTableRecord
  2
DRAFT
 70
0
 62
7
  6
CONTINUOUS
370
-3
390
F
  0
LAYER
  5
204
100
AcDbSymbolTableRecord
100
AcDbLayerTableRecord
  2
IGES_SCRITTE
 70
0
 62
7
  6
CONTINUOUS
370
-3
390
F
  0
LAYER
  5
205
100
AcDbSymbolTableRecord
100
AcDbLayerTableRecord
  2
IMPORT_FEATURE
 70
0
 62
7
  6
CONTINUOUS
370
-3
390
F
  0
LAYER
  5
206
100
AcDbSymbolTableRecord
100
AcDbLayerTableRecord
  2
INTF_1
 70
0
 62
7
  6
CONTINUOUS
370
-3
390
F
  0
LAYER
  5
207
100
AcDbSymbolTableRecord
100
AcDbLayerTableRecord
  2
LAY0001
 70
0
 62
7
  6
CONTINUOUS
370
-3
390
F
  0
LAYER
  5
208
100
AcDbSymbolTableRecord
100
AcDbLayerTableRecord
  2
NOTE
 70
0
 62
7
  6
CONTINUOUS
370
-3
390
F
  0
LAYER
  5
209
100
AcDbSymbolTableRecord
100
AcDbLayerTableRecord
  2
PIANI
 70
0
 62
7
  6
CONTINUOUS
370
-3
390
F
  0
LAYER
  5
20A
100
AcDbSymbolTableRecord
100
AcDbLayerTableRecord
  2
PIANI_DI_RIFERIMENTO
 70
0
 62
7
  6
CONTINUOUS
370
-3
390
F
  0
LAYER
  5
20B
100
AcDbSymbolTableRecord
100
AcDbLayerTableRecord
  2
PIANI_ORIGINE
 70
0
 62
7
  6
CONTINUOUS
370
-3
390
F
  0
LAYER
  5
20C
100
AcDbSymbolTableRecord
100
AcDbLayerTableRecord
  2
PUNTI
 70
0
 62
7
  6
CONTINUOUS
370
-3
390
F
  0
LAYER
  5
20D
100
AcDbSymbolTableRecord
100
AcDbLayerTableRecord
  2
RACCORDO
 70
0
 62
7
  6
CONTINUOUS
370
-3
390
F
  0
LAYER
  5
20E
100
AcDbSymbolTableRecord
100
AcDbLayerTableRecord
  2
RGB____0____0____0__
 70
0
 62
7
  6
CONTINUOUS
370
-3
390
F
  0
LAYER
  5
20F
100
AcDbSymbolTableRecord
100
AcDbLayerTableRecord
  2
SIMBOLI
 70
0
 62
7
  6
CONTINUOUS
370
-3
390
F
  0
LAYER
  5
210
100
AcDbSymbolTableRecord
100
AcDbLayerTableRecord
  2
SNAPLINE
 70
0
 62
7
  6
CONTINUOUS
370
-3
390
F
  0
LAYER
  5
211
100
AcDbSymbolTableRecord
100
AcDbLayerTableRecord
  2
SUPERFICI
 70
0
 62
7
  6
CONTINUOUS
370
-3
390
F
  0
LAYER
  5
212
100
AcDbSymbolTableRecord
100
AcDbLayerTableRecord
  2
TRASH
 70
0
 62
7
  6
CONTINUOUS
370
-3
390
F
  0
LAYER
  5
213
100
AcDbSymbolTableRecord
100
AcDbLayerTableRecord
  2
XSEC_DATUMS
 70
0
 62
7
  6
CONTINUOUS
370
-3
390
F
  0
ENDTAB
  0
TABLE
  2
STYLE
  5
3
100
AcDbSymbolTable
 70
1
  0
STYLE
  5
11
100
AcDbSymbolTableRecord
100
AcDbTextStyleTableRecord
  2
STANDARD
 70
0
 40
0.0
 41
0.8
 50
0.0
 71
0
 42
0.2
  3
txt
  4

  0
STYLE
  5
214
100
AcDbSymbolTableRecord
100
AcDbTextStyleTableRecord
  2
TEXTSTYLE_1
 70
0
 40
0.0
 41
0.8
 50
0.0
 71
0
 42
0.2
  3
gdt
  4

  0
ENDTAB
  0
TABLE
  2
VIEW
  5
6
100
AcDbSymbolTable
 70
0
  0
ENDTAB
  0
TABLE
  2
UCS
  5
7
100
AcDbSymbolTable
 70
0
  0
ENDTAB
  0
TABLE
  2
APPID
  5
9
100
AcDbSymbolTable
 70
1
  0
APPID
  5
215
100
AcDbSymbolTableRecord
100
AcDbRegAppTableRecord
  2
ACAD
 70
0
  0
ENDTAB
  0
TABLE
  2
BLOCK_RECORD
  5
1
100
AcDbSymbolTable
 70
0
  0
BLOCK_RECORD
  5
216
100
AcDbSymbolTableRecord
100
AcDbBlockTableRecord
  2
*Model_Space
  0
BLOCK_RECORD
  5
217
100
AcDbSymbolTableRecord
100
AcDbBlockTableRecord
  2
*Paper_Space
  0
BLOCK_RECORD
  5
218
100
AcDbSymbolTableRecord
100
AcDbBlockTableRecord
  2
_FILLED
  0
BLOCK_RECORD
  5
219
100
AcDbSymbolTableRecord
100
AcDbBlockTableRecord
  2
*D0
  0
BLOCK_RECORD
  5
21A
100
AcDbSymbolTableRecord
100
AcDbBlockTableRecord
  2
*D1
  0
BLOCK_RECORD
  5
21B
100
AcDbSymbolTableRecord
100
AcDbBlockTableRecord
  2
*D2
  0
ENDTAB
  0
TABLE
  2
DIMSTYLE
  5
A
100
AcDbSymbolTable
 70
1
100
AcDbDimStyleTable
 71
0
  0
DIMSTYLE
105
21C
100
AcDbSymbolTableRecord
100
AcDbDimStyleTableRecord
  2
STANDARD
 70
0
  3

  4

 40
1.0
 41
3.0
 42
0.5
 43
0.38
 44
1.5
 45
0.0
 46
0.0
 47
0.01
 48
0.01
140
3.0
141
0.09
142
0.0
143
25.4
144
1.0
145
0.0
146
1.0
147
0.625
 71
1
 72
0
 73
0
 74
0
 75
0
 76
0
 77
1
 78
8
 79
2
170
0
171
1
172
0
173
0
174
0
175
0
176
0
177
0
178
0
270
2
179
2
271
2
272
2
273
2
274
2
275
0
280
0
281
0
282
0
283
1
284
8
285
0
286
0
287
3
288
0
340
11
278
44
341
218
342
218
343
218
344
218
  0
DIMSTYLE
105
21D
100
AcDbSymbolTableRecord
100
AcDbDimStyleTableRecord
  2
DIMSTYLE_1
 70
0
  3

  4

 40
1.0
 41
3.0
 42
0.5
 43
0.38
 44
1.5
 45
0.0
 46
0.0
 47
0.0
 48
0.0
140
3.0
141
0.09
142
0.0
143
25.4
144
1.0
145
0.0
146
1.0
147
0.75
 71
0
 72
0
 73
0
 74
0
 75
0
 76
0
 77
1
 78
8
 79
2
170
0
171
1
172
0
173
0
174
0
175
0
176
0
177
0
178
0
270
2
179
2
271
1
272
1
273
2
274
2
275
0
280
0
281
0
282
0
283
1
284
8
285
0
286
0
287
3
288
0
340
11
278
44
341
218
342
218
343
218
344
218
  0
DIMSTYLE
105
21E
100
AcDbSymbolTableRecord
100
AcDbDimStyleTableRecord
  2
DIMSTYLE_2
 70
0
  3

  4

 40
1.0
 41
3.0
 42
0.5
 43
0.38
 44
1.5
 45
0.0
 46
0.0
 47
0.0
 48
0.0
140
3.0
141
0.09
142
0.0
143
25.4
144
1.0
145
0.0
146
1.0
147
0.75
 71
0
 72
0
 73
0
 74
0
 75
0
 76
0
 77
1
 78
8
 79
2
170
0
171
1
172
0
173
0
174
0
175
0
176
0
177
0
178
0
270
2
179
2
271
2
272
2
273
2
274
2
275
0
280
0
281
0
282
0
283
1
284
8
285
0
286
0
287
3
288
0
340
11
278
44
341
218
342
218
343
218
344
218
  0
ENDTAB
  0
ENDSEC
  0
SECTION
  2
BLOCKS
  0
BLOCK
  5
20
100
AcDbEntity
  8
0
100
AcDbBlockBegin
  2
*Model_Space
 70
0
 10
0.0
 20
0.0
 30
0.0
  3
*Model_Space
  1

  0
ENDBLK
  5
21
100
AcDbEntity
  8
0
100
AcDbBlockEnd
  0
BLOCK
  5
1C
100
AcDbEntity
  8
0
100
AcDbBlockBegin
  2
*Paper_Space
 70
0
 10
0.0
 20
0.0
 30
0.0
  3
*Paper_Space
  1

  0
ENDBLK
  5
1D
100
AcDbEntity
  8
0
100
AcDbBlockEnd
  0
BLOCK
  5
21F
100
AcDbEntity
  8
0
100
AcDbBlockBegin
  2
_FILLED
 70
64
 10
0.0
 20
0.0
  3
_FILLED
  1

  0
SOLID
  5
220
100
AcDbEntity
  8
0
  6
BYBLOCK
 62
0
100
AcDbTrace
 10
0.0
 20
0.0
 11
-1.0
 21
0.3166666667
 12
-1.0
 22
-0.3166666667
 13
-1.0
 23
-0.3166666667
  0
ENDBLK
  5
221
100
AcDbEntity
  8
0
  6
BYBLOCK
 62
0
100
AcDbBlockEnd
  0
BLOCK
  5
222
100
AcDbEntity
  8
0
100
AcDbBlockBegin
 62
7
  6
CONTINUOUS
  2
*D0
 70
65
 10
0.0
 20
0.0
  3
*D0
  1

  0
LINE
  5
223
100
AcDbEntity
  8
0
100
AcDbLine
 62
7
  6
CONTINUOUS
 10
-98.9131247834
 20
7.6114412593
 11
-98.9131247834
 21
50.5
  0
LINE
  5
224
100
AcDbEntity
  8
0
100
AcDbLine
 62
7
  6
CONTINUOUS
 10
98.9131247834
 20
7.6114412593
 11
98.9131247834
 21
50.5
  0
LINE
  5
225
100
AcDbEntity
  8
0
100
AcDbLine
 62
7
  6
CONTINUOUS
 10
-98.9131247834
 20
49.0
 11
0.0
 21
49.0
  0
LINE
  5
226
100
AcDbEntity
  8
0
100
AcDbLine
 62
7
  6
CONTINUOUS
 10
98.9131247834
 20
49.0
 11
0.0
 21
49.0
  0
INSERT
  5
227
100
AcDbEntity
  8
0
100
AcDbBlockReference
 62
7
  6
CONTINUOUS
  2
_FILLED
 10
-98.9131247834
 20
49.0
 41
3.0
 42
3.0
 43
3.0
 50
180.0
  0
INSERT
  5
228
100
AcDbEntity
  8
0
100
AcDbBlockReference
 62
7
  6
CONTINUOUS
  2
_FILLED
 10
98.9131247834
 20
49.0
 41
3.0
 42
3.0
 43
3.0
  0
ENDBLK
  5
229
100
AcDbEntity
  8
0
  6
BYBLOCK
 62
0
100
AcDbBlockEnd
  0
BLOCK
  5
22A
100
AcDbEntity
  8
0
100
AcDbBlockBegin
 62
7
  6
CONTINUOUS
  2
*D1
 70
65
 10
0.0
 20
0.0
  3
*D1
  1

  0
LINE
  5
22B
100
AcDbEntity
  8
0
100
AcDbLine
 62
7
  6
CONTINUOUS
 10
-110.2607360198
 20
41.0
 11
-128.2607360198
 21
41.0
  0
LINE
  5
22C
100
AcDbEntity
  8
0
100
AcDbLine
 62
7
  6
CONTINUOUS
 10
-110.2607360198
 20
-41.0
 11
-128.2607360198
 21
-41.0
  0
LINE
  5
22D
100
AcDbEntity
  8
0
100
AcDbLine
 62
7
  6
CONTINUOUS
 10
-126.7607360198
 20
41.0
 11
-126.7607360198
 21
0.0
  0
LINE
  5
22E
100
AcDbEntity
  8
0
100
AcDbLine
 62
7
  6
CONTINUOUS
 10
-126.7607360198
 20
-41.0
 11
-126.7607360198
 21
0.0
  0
INSERT
  5
22F
100
AcDbEntity
  8
0
100
AcDbBlockReference
 62
7
  6
CONTINUOUS
  2
_FILLED
 10
-126.7607360198
 20
41.0
 41
3.0
 42
3.0
 43
3.0
 50
90.0
  0
INSERT
  5
230
100
AcDbEntity
  8
0
100
AcDbBlockReference
 62
7
  6
CONTINUOUS
  2
_FILLED
 10
-126.7607360198
 20
-41.0
 41
3.0
 42
3.0
 43
3.0
 50
270.0
  0
ENDBLK
  5
231
100
AcDbEntity
  8
0
  6
BYBLOCK
 62
0
100
AcDbBlockEnd
  0
BLOCK
  5
232
100
AcDbEntity
  8
0
100
AcDbBlockBegin
 62
7
  6
CONTINUOUS
  2
*D2
 70
65
 10
0.0
 20
0.0
  3
*D2
  1

  0
LINE
  5
233
100
AcDbEntity
  8
0
100
AcDbLine
 62
7
  6
CONTINUOUS
 10
-118.7607360198
 20
0.5
 11
-118.7607360198
 21
50.5
  0
LINE
  5
234
100
AcDbEntity
  8
0
100
AcDbLine
 62
7
  6
CONTINUOUS
 10
-109.7607360198
 20
39.6900850968
 11
-109.7607360198
 21
50.5
  0
LINE
  5
235
100
AcDbEntity
  8
0
100
AcDbLine
 62
7
  6
CONTINUOUS
 10
-118.7607360198
 20
49.0
 11
-122.7607360198
 21
49.0
  0
LINE
  5
236
100
AcDbEntity
  8
0
100
AcDbLine
 62
7
  6
CONTINUOUS
 10
-122.7607360198
 20
49.0
 11
-114.2607360198
 21
49.0
  0
LINE
  5
237
100
AcDbEntity
  8
0
100
AcDbLine
 62
7
  6
CONTINUOUS
 10
-109.7607360198
 20
49.0
 11
-105.7607360198
 21
49.0
  0
LINE
  5
238
100
AcDbEntity
  8
0
100
AcDbLine
 62
7
  6
CONTINUOUS
 10
-105.7607360198
 20
49.0
 11
-114.2607360198
 21
49.0
  0
INSERT
  5
239
100
AcDbEntity
  8
0
100
AcDbBlockReference
 62
7
  6
CONTINUOUS
  2
_FILLED
 10
-118.7607360198
 20
49.0
 41
3.0
 42
3.0
 43
3.0
  0
INSERT
  5
23A
100
AcDbEntity
  8
0
100
AcDbBlockReference
 62
7
  6
CONTINUOUS
  2
_FILLED
 10
-109.7607360198
 20
49.0
 41
3.0
 42
3.0
 43
3.0
 50
180.0
  0
ENDBLK
  5
23B
100
AcDbEntity
  8
0
  6
BYBLOCK
 62
0
100
AcDbBlockEnd
  0
ENDSEC
  0
SECTION
  2
ENTITIES
  0
DIMENSION
  5
23C
100
AcDbEntity
  8
0
100
AcDbDimension
 62
7
  6
CONTINUOUS
  2
*D0
 10
98.9131247834
 20
49.0
 11
-5.25
 21
49.0
 70
160
 71
2
 72
2
 41
0.9
 42
197.8262495669
  3
DIMSTYLE_1
100
AcDbAlignedDimension
 13
-98.9131247834
 23
7.1114412593
 14
98.9131247834
 24
7.1114412593
100
AcDbRotatedDimension
  0
DIMENSION
  5
23D
100
AcDbEntity
  8
0
100
AcDbDimension
 62
7
  6
CONTINUOUS
  2
*D1
 10
-126.7607360198
 20
-41.0
 11
-126.7607360198
 21
-2.3571428571
 70
160
 71
2
 72
2
 41
0.9
 42
82.0
  3
DIMSTYLE_2
100
AcDbAlignedDimension
 13
-109.7607360198
 23
41.0
 14
-109.7607360198
 24
-41.0
 50
270.0
100
AcDbRotatedDimension
  0
DIMENSION
  5
23E
100
AcDbEntity
  8
0
100
AcDbDimension
 62
7
  6
CONTINUOUS
  2
*D2
 10
-109.7607360198
 20
49.0
 11
-115.4393074484
 21
49.0
 70
160
 71
2
 72
2
 41
0.9
 42
9.0
  3
DIMSTYLE_2
100
AcDbAlignedDimension
 13
-118.7607360198
 23
0.0
 14
-109.7607360198
 24
39.1900850968
100
AcDbRotatedDimension
  0
LWPOLYLINE
  5
23F
100
AcDbEntity
  8
0
100
AcDbPolyline
 62
250
  6
CONTINUOUS
 90
49
 70
0
 10
-96.8205110488
 20
-33.8748188837
 10
-96.9635066884
 20
-32.4658775758
 10
-97.1004045114
 20
-31.0565706967
 10
-97.2312053222
 20
-29.646921705
 10
-97.3559108875
 20
-28.236944207
 10
-97.4745211731
 20
-26.8266714495
 10
-97.587034809
 20
-25.4161563563
 10
-97.6934512548
 20
-24.0054506124
 10
-97.7937744107
 20
-22.5945493536
 10
-97.888009311
 20
-21.1834206318
 10
-97.9761574878
 20
-19.7720772785
 10
-98.0582192638
 20
-18.3605530448
 10
-98.134196844
 20
-16.9488472737
 10
-98.2040910538
 20
-15.5369827864
 10
-98.2679027651
 20
-14.1249832282
 10
-98.3256336979
 20
-12.7128491294
 10
-98.3772842947
 20
-11.3006106625
 10
-98.4228556608
 20
-9.8882840265
 10
-98.4623496779
 20
-8.4758487464
 10
-98.4957668012
 20
-7.063319488
 10
-98.5231071632
 20
-5.6507278676
 10
-98.5443713912
 20
-4.2380788049
 10
-98.559559675
 20
-2.8254010565
 10
-98.5686724501
 20
-1.4127121128
 10
-98.5717100635
 20
0.0000000183
 10
-98.5686724495
 20
1.4127123137
 10
-98.5595596709
 20
2.8254015676
 10
-98.5443713823
 20
4.2380794978
 10
-98.5231071528
 20
5.6507284558
 10
-98.4957667934
 20
7.0633198433
 10
-98.4623496729
 20
8.4758489398
 10
-98.422855655
 20
9.8882842215
 10
-98.3772842856
 20
11.30061093
 10
-98.325633685
 20
12.7128494631
 10
-98.2679027484
 20
14.1249836179
 10
-98.2040910331
 20
15.5369832256
 10
-98.1341968225
 20
16.9488476905
 10
-98.0582192505
 20
18.3605532797
 10
-97.9761574887
 20
19.7720772596
 10
-97.8880093205
 20
21.1834204851
 10
-97.793774411
 20
22.5945493534
 10
-97.6934512351
 20
24.0054508844
 10
-97.5870347764
 20
25.416156777
 10
-97.4745211485
 20
26.8266717472
 10
-97.3559108829
 20
28.2369442586
 10
-97.2312053332
 20
29.6469215842
 10
-97.1004045261
 20
31.0565705427
 10
-96.9635066999
 20
32.4658774621
 10
-96.8205110488
 20
33.8748188837
  0
LINE
  5
240
100
AcDbEntity
  8
RACCORDO
100
AcDbLine
 62
7
  6
CONTINUOUS
 10
-98.9115791701
 20
-7.2767007921
 11
-98.9104032874
 21
-7.3314391493
  0
LWPOLYLINE
  5
241
100
AcDbEntity
  8
RACCORDO
100
AcDbPolyline
 62
7
  6
CONTINUOUS
 90
3
 70
0
 10
-98.9127246746
 20
-7.1949642414
 10
-98.91242527
 20
-7.2221330027
 10
-98.9115791701
 20
-7.2767007921
  0
LINE
  5
242
100
AcDbEntity
  8
RACCORDO
100
AcDbLine
 62
7
  6
CONTINUOUS
 10
-98.9120433732
 20
7.2493852162
 11
-98.9127246746
 21
7.1949642414
  0
LWPOLYLINE
  5
243
100
AcDbEntity
  8
RACCORDO
100
AcDbPolyline
 62
7
  6
CONTINUOUS
 90
3
 70
0
 10
-98.9104032874
 20
7.3314391493
 10
-98.9110324748
 20
7.3040589385
 10
-98.9120433732
 20
7.2493852162
  0
LWPOLYLINE
  5
244
100
AcDbEntity
  8
0
100
AcDbPolyline
 62
250
  6
CONTINUOUS
 90
85
 70
0
 10
-96.8205110488
 20
33.8748188837
 10
-96.8045339548
 20
34.0084747234
 10
-96.7862348027
 20
34.1418320578
 10
-96.765619271
 20
34.2748505569
 10
-96.7426938513
 20
34.4074900416
 10
-96.7174655061
 20
34.5397103757
 10
-96.6899416736
 20
34.6714714586
 10
-96.6601308253
 20
34.8027335152
 10
-96.6280421242
 20
34.933456805
 10
-96.5936851059
 20
35.0636014813
 10
-96.5570703418
 20
35.1931281178
 10
-96.5182090545
 20
35.3219976496
 10
-96.4771128013
 20
35.4501710282
 10
-96.4337941698
 20
35.5776095416
 10
-96.3882664331
 20
35.7042746454
 10
-96.3405432002
 20
35.8301278512
 10
-96.2906390778
 20
35.9551311211
 10
-96.2385693328
 20
36.0792466871
 10
-96.1843495748
 20
36.2024368285
 10
-96.1279963888
 20
36.3246643106
 10
-96.0695269947
 20
36.4458922224
 10
-96.0089589416
 20
36.566083744
 10
-95.9463107511
 20
36.6852025359
 10
-95.8816015436
 20
36.8032126552
 10
-95.8148507238
 20
36.9200783411
 10
-95.746078662
 20
37.0357643074
 10
-95.6753063537
 20
37.1502356142
 10
-95.6025550707
 20
37.2634575324
 10
-95.5278470222
 20
37.3753958542
 10
-95.4512049828
 20
37.4860168144
 10
-95.3726519728
 20
37.5952869077
 10
-95.2922119409
 20
37.7031731497
 10
-95.2099094099
 20
37.8096429862
 10
-95.1257691261
 20
37.9146641616
 10
-95.0398167474
 20
38.0182049613
 10
-94.9520784458
 20
38.1202341772
 10
-94.8625805671
 20
38.2207209602
 10
-94.771350365
 20
38.3196349973
 10
-94.678415625
 20
38.4169464601
 10
-94.5838042808
 20
38.5126259143
 10
-94.4875451523
 20
38.6066444849
 10
-94.3896675214
 20
38.6989738539
 10
-94.2902007654
 20
38.7895861478
 10
-94.1891751462
 20
38.8784540472
 10
-94.0866214018
 20
38.9655507756
 10
-93.9825703306
 20
39.0508500356
 10
-93.8770535972
 20
39.1343261015
 10
-93.7701032713
 20
39.2159538496
 10
-93.6617514232
 20
39.2957086802
 10
-93.5520309876
 20
39.3735665627
 10
-93.4409753201
 20
39.4495040555
 10
-93.3286177398
 20
39.523498269
 10
-93.2149924086
 20
39.5955269015
 10
-93.1001338336
 20
39.6655682909
 10
-92.9840764232
 20
39.7336013629
 10
-92.8668554325
 20
39.7996056269
 10
-92.7485064637
 20
39.8635612297
 10
-92.6290649688
 20
39.9254489338
 10
-92.508567233
 20
39.9852500968
 10
-92.3870498262
 20
40.0429467467
 10
-92.2645491006
 20
40.0985215549
 10
-92.141102227
 20
40.151957796
 10
-92.0167466879
 20
40.203239402
 10
-91.8915197265
 20
40.2523509571
 10
-91.7654593571
 20
40.2992776756
 10
-91.6386038188
 20
40.3440054647
 10
-91.5109910653
 20
40.3865208962
 10
-91.3826598444
 20
40.4268111667
 10
-91.253649055
 20
40.4648641895
 10
-91.1239971964
 20
40.5006685704
 10
-90.9937436182
 20
40.5342135265
 10
-90.8629277993
 20
40.5654889943
 10
-90.7315886978
 20
40.5944856234
 10
-90.5997660567
 20
40.6211946942
 10
-90.4674999309
 20
40.6456081672
 10
-90.3348299612
 20
40.6677186988
 10
-90.2017962931
 20
40.687519643
 10
-90.0684393411
 20
40.7050050486
 10
-89.9347993144
 20
40.7201696354
 10
-89.8009168766
 20
40.7330088397
 10
-89.6668324714
 20
40.7435188565
 10
-89.5325860871
 20
40.7516965626
 10
-89.3982181997
 20
40.7575395092
 10
-89.2637697615
 20
40.7610459613
 10
-89.1292815281
 20
40.7622148997
  0
LWPOLYLINE
  5
245
100
AcDbEntity
  8
0
100
AcDbPolyline
 62
250
  6
CONTINUOUS
 90
49
 70
0
 10
-91.3856837327
 20
-33.7875965416
 10
-91.5258179671
 20
-32.382254998
 10
-91.6599778423
 20
-30.9765527422
 10
-91.788163358
 20
-29.570512819
 10
-91.9103741292
 20
-28.164148285
 10
-92.026610541
 20
-26.7574921422
 10
-92.1368737491
 20
-25.3505973689
 10
-92.2411616451
 20
-23.9435152289
 10
-92.3394763374
 20
-22.5362405339
 10
-92.4318253061
 20
-21.1287415493
 10
-92.518209707
 20
-19.721030817
 10
-92.5986283844
 20
-18.3131416979
 10
-92.6730853505
 20
-16.9050736137
 10
-92.7415808454
 20
-15.4968490865
 10
-92.804114629
 20
-14.0884914257
 10
-92.8606899941
 20
-12.680001197
 10
-92.9113070611
 20
-11.2714082679
 10
-92.9559657095
 20
-9.8627285421
 10
-92.9946688703
 20
-8.4539416027
 10
-93.0274171062
 20
-7.0450618603
 10
-93.0542098545
 20
-5.6361206137
 10
-93.0750483576
 20
-4.2271227547
 10
-93.0899328211
 20
-2.8180967499
 10
-93.0988630396
 20
-1.409059821
 10
-93.101839639
 20
0.0000000184
 10
-93.0988630362
 20
1.4090600218
 10
-93.0899328144
 20
2.8180972601
 10
-93.0750483488
 20
4.2271234461
 10
-93.0542098465
 20
5.6361212008
 10
-93.0274171004
 20
7.0450622151
 10
-92.9946688654
 20
8.4539417961
 10
-92.9559657029
 20
9.8627287369
 10
-92.9113070515
 20
11.2714085351
 10
-92.8606899814
 20
12.6800015303
 10
-92.8041146121
 20
14.0884918148
 10
-92.7415808242
 20
15.496849525
 10
-92.6730853294
 20
16.9050740299
 10
-92.5986283732
 20
18.3131419325
 10
-92.51820971
 20
19.7210307986
 10
-92.4318253153
 20
21.1287414033
 10
-92.3394763351
 20
22.5362405341
 10
-92.2411616233
 20
23.9435155006
 10
-92.136873717
 20
25.3505977889
 10
-92.026610519
 20
26.7574924396
 10
-91.9103741265
 20
28.1641483369
 10
-91.7881633687
 20
29.5705126989
 10
-91.6599778554
 20
30.9765525889
 10
-91.5258179767
 20
32.3822548847
 10
-91.3856837327
 20
33.7875965416
  0
LINE
  5
246
100
AcDbEntity
  8
RACCORDO
100
AcDbLine
 62
7
  6
CONTINUOUS
 10
-98.9040519699
 20
6.7424148261
 11
-98.8872077416
 21
6.4447003113
  0
LINE
  5
247
100
AcDbEntity
  8
RACCORDO
100
AcDbLine
 62
7
  6
CONTINUOUS
 10
-98.8872077416
 20
6.4447003113
 11
-98.8723967314
 21
6.1626257666
  0
LINE
  5
248
100
AcDbEntity
  8
RACCORDO
100
AcDbLine
 62
7
  6
CONTINUOUS
 10
-98.8723967314
 20
6.1626257666
 11
-98.8583788473
 21
5.874532934
  0
LINE
  5
249
100
AcDbEntity
  8
RACCORDO
100
AcDbLine
 62
7
  6
CONTINUOUS
 10
-98.9062969158
 20
6.7875735448
 11
-98.9040519699
 21
6.7424148261
  0
LINE
  5
24A
100
AcDbEntity
  8
RACCORDO
100
AcDbLine
 62
7
  6
CONTINUOUS
 10
-98.8583788473
 20
5.874532934
 11
-98.8451485451
 21
5.5806729333
  0
LINE
  5
24B
100
AcDbEntity
  8
RACCORDO
100
AcDbLine
 62
7
  6
CONTINUOUS
 10
-98.8451485451
 20
5.5806729333
 11
-98.8327028365
 21
5.2813605967
  0
LINE
  5
24C
100
AcDbEntity
  8
RACCORDO
100
AcDbLine
 62
7
  6
CONTINUOUS
 10
-98.9082339116
 20
6.8343512788
 11
-98.9062969158
 21
6.7875735448
  0
LINE
  5
24D
100
AcDbEntity
  8
RACCORDO
100
AcDbLine
 62
7
  6
CONTINUOUS
 10
-98.8327028365
 20
5.2813605967
 11
-98.821038786
 21
4.9768865687
  0
LINE
  5
24E
100
AcDbEntity
  8
RACCORDO
100
AcDbLine
 62
7
  6
CONTINUOUS
 10
-98.821038786
 20
4.9768865687
 11
-98.8101505121
 21
4.6675096856
  0
LINE
  5
24F
100
AcDbEntity
  8
RACCORDO
100
AcDbLine
 62
7
  6
CONTINUOUS
 10
-98.909854589
 20
6.8826098156
 11
-98.9082339116
 21
6.8343512788
  0
LINE
  5
250
100
AcDbEntity
  8
RACCORDO
100
AcDbLine
 62
7
  6
CONTINUOUS
 10
-98.8101505121
 20
4.6675096856
 11
-98.8000347223
 21
4.3535669316
  0
LINE
  5
251
100
AcDbEntity
  8
RACCORDO
100
AcDbLine
 62
7
  6
CONTINUOUS
 10
-98.8000347223
 20
4.3535669316
 11
-98.7906884348
 21
4.0353645848
  0
LINE
  5
252
100
AcDbEntity
  8
RACCORDO
100
AcDbLine
 62
7
  6
CONTINUOUS
 10
-98.7906884348
 20
4.0353645848
 11
-98.7821060119
 21
3.7131741492
  0
LINE
  5
253
100
AcDbEntity
  8
RACCORDO
100
AcDbLine
 62
7
  6
CONTINUOUS
 10
-98.911155005
 20
6.9322049549
 11
-98.909854589
 21
6.8826098156
  0
LINE
  5
254
100
AcDbEntity
  8
RACCORDO
100
AcDbLine
 62
7
  6
CONTINUOUS
 10
-98.7821060119
 20
3.7131741492
 11
-98.7742841781
 21
3.3873466533
  0
LINE
  5
255
100
AcDbEntity
  8
RACCORDO
100
AcDbLine
 62
7
  6
CONTINUOUS
 10
-98.7742841781
 20
3.3873466533
 11
-98.7672202362
 21
3.0582013724
  0
LINE
  5
256
100
AcDbEntity
  8
RACCORDO
100
AcDbLine
 62
7
  6
CONTINUOUS
 10
-98.7672202362
 20
3.0582013724
 11
-98.7609094182
 21
2.7260251789
  0
LINE
  5
257
100
AcDbEntity
  8
RACCORDO
100
AcDbLine
 62
7
  6
CONTINUOUS
 10
-98.9121298348
 20
6.9829887071
 11
-98.911155005
 21
6.9322049549
  0
LINE
  5
258
100
AcDbEntity
  8
RACCORDO
100
AcDbLine
 62
7
  6
CONTINUOUS
 10
-98.7609094182
 20
2.7260251789
 11
-98.7553488579
 21
2.3911753753
  0
LINE
  5
259
100
AcDbEntity
  8
RACCORDO
100
AcDbLine
 62
7
  6
CONTINUOUS
 10
-98.7553488579
 20
2.3911753753
 11
-98.7505364203
 21
2.0539813908
  0
LINE
  5
25A
100
AcDbEntity
  8
RACCORDO
100
AcDbLine
 62
7
  6
CONTINUOUS
 10
-98.7505364203
 20
2.0539813908
 11
-98.7464686238
 21
1.7147472561
  0
LINE
  5
25B
100
AcDbEntity
  8
RACCORDO
100
AcDbLine
 62
7
  6
CONTINUOUS
 10
-98.9127758255
 20
7.0348113227
 11
-98.9121298348
 21
6.9829887071
  0
LINE
  5
25C
100
AcDbEntity
  8
RACCORDO
100
AcDbLine
 62
7
  6
CONTINUOUS
 10
-98.7464686238
 20
1.7147472561
 11
-98.743143401
 21
1.3738293444
  0
LINE
  5
25D
100
AcDbEntity
  8
RACCORDO
100
AcDbLine
 62
7
  6
CONTINUOUS
 10
-98.743143401
 20
1.3738293444
 11
-98.7405593867
 21
1.0315642632
  0
LINE
  5
25E
100
AcDbEntity
  8
RACCORDO
100
AcDbLine
 62
7
  6
CONTINUOUS
 10
-98.9130741462
 20
-7.1409555257
 11
-98.9127246746
 21
-7.1949642414
  0
LINE
  5
25F
100
AcDbEntity
  8
RACCORDO
100
AcDbLine
 62
7
  6
CONTINUOUS
 10
-98.7405593867
 20
1.0315642632
 11
-98.7387145963
 21
0.6882741455
  0
LINE
  5
260
100
AcDbEntity
  8
RACCORDO
100
AcDbLine
 62
7
  6
CONTINUOUS
 10
-98.9130912454
 20
7.0875188961
 11
-98.9127758255
 21
7.0348113227
  0
LINE
  5
261
100
AcDbEntity
  8
RACCORDO
100
AcDbLine
 62
7
  6
CONTINUOUS
 10
-98.7387145963
 20
0.6882741455
 11
-98.7376080947
 21
0.3443073028
  0
LINE
  5
262
100
AcDbEntity
  8
RACCORDO
100
AcDbLine
 62
7
  6
CONTINUOUS
 10
-98.7376080947
 20
0.3443073028
 11
-98.7372394118
 21
0.0000031885
  0
LINE
  5
263
100
AcDbEntity
  8
RACCORDO
100
AcDbLine
 62
7
  6
CONTINUOUS
 10
-98.9130912454
 20
-7.0875188961
 11
-98.9130741462
 21
-7.1409555257
  0
LINE
  5
264
100
AcDbEntity
  8
RACCORDO
100
AcDbLine
 62
7
  6
CONTINUOUS
 10
-98.7372394118
 20
0.0000031885
 11
-98.7376080859
 21
-0.3443027015
  0
LINE
  5
265
100
AcDbEntity
  8
RACCORDO
100
AcDbLine
 62
7
  6
CONTINUOUS
 10
-98.9130741462
 20
7.1409555257
 11
-98.9130912454
 21
7.0875188961
  0
LINE
  5
266
100
AcDbEntity
  8
RACCORDO
100
AcDbLine
 62
7
  6
CONTINUOUS
 10
-98.7376080859
 20
-0.3443027015
 11
-98.738714588
 21
-0.6882720302
  0
LINE
  5
267
100
AcDbEntity
  8
RACCORDO
100
AcDbLine
 62
7
  6
CONTINUOUS
 10
-98.738714588
 20
-0.6882720302
 11
-98.740559387
 21
-1.0315642998
  0
LINE
  5
268
100
AcDbEntity
  8
RACCORDO
100
AcDbLine
 62
7
  6
CONTINUOUS
 10
-98.9127758255
 20
-7.0348113227
 11
-98.9130912454
 21
-7.0875188961
  0
LINE
  5
269
100
AcDbEntity
  8
RACCORDO
100
AcDbLine
 62
7
  6
CONTINUOUS
 10
-98.9127246746
 20
7.1949642414
 11
-98.9130741462
 21
7.1409555257
  0
LINE
  5
26A
100
AcDbEntity
  8
RACCORDO
100
AcDbLine
 62
7
  6
CONTINUOUS
 10
-98.740559387
 20
-1.0315642998
 11
-98.7431434024
 21
-1.373829581
  0
LINE
  5
26B
100
AcDbEntity
  8
RACCORDO
100
AcDbLine
 62
7
  6
CONTINUOUS
 10
-98.7431434024
 20
-1.373829581
 11
-98.7464686252
 21
-1.7147473919
  0
LINE
  5
26C
100
AcDbEntity
  8
RACCORDO
100
AcDbLine
 62
7
  6
CONTINUOUS
 10
-98.7464686252
 20
-1.7147473919
 11
-98.7505364216
 21
-2.0539814902
  0
LINE
  5
26D
100
AcDbEntity
  8
RACCORDO
100
AcDbLine
 62
7
  6
CONTINUOUS
 10
-98.9121298348
 20
-6.9829887071
 11
-98.9127758255
 21
-7.0348113227
  0
LINE
  5
26E
100
AcDbEntity
  8
RACCORDO
100
AcDbLine
 62
7
  6
CONTINUOUS
 10
-98.7505364216
 20
-2.0539814902
 11
-98.7553488593
 21
-2.391175471
  0
LINE
  5
26F
100
AcDbEntity
  8
RACCORDO
100
AcDbLine
 62
7
  6
CONTINUOUS
 10
-98.7553488593
 20
-2.391175471
 11
-98.7609094198
 21
-2.7260252657
  0
LINE
  5
270
100
AcDbEntity
  8
RACCORDO
100
AcDbLine
 62
7
  6
CONTINUOUS
 10
-98.7609094198
 20
-2.7260252657
 11
-98.7672202376
 21
-3.0582014458
  0
LINE
  5
271
100
AcDbEntity
  8
RACCORDO
100
AcDbLine
 62
7
  6
CONTINUOUS
 10
-98.911155005
 20
-6.9322049549
 11
-98.9121298348
 21
-6.9829887071
  0
LINE
  5
272
100
AcDbEntity
  8
RACCORDO
100
AcDbLine
 62
7
  6
CONTINUOUS
 10
-98.7672202376
 20
-3.0582014458
 11
-98.7742841802
 21
-3.3873467425
  0
LINE
  5
273
100
AcDbEntity
  8
RACCORDO
100
AcDbLine
 62
7
  6
CONTINUOUS
 10
-98.7742841802
 20
-3.3873467425
 11
-98.7821060138
 21
-3.7131742248
  0
LINE
  5
274
100
AcDbEntity
  8
RACCORDO
100
AcDbLine
 62
7
  6
CONTINUOUS
 10
-98.7821060138
 20
-3.7131742248
 11
-98.790688436
 21
-4.0353646252
  0
LINE
  5
275
100
AcDbEntity
  8
RACCORDO
100
AcDbLine
 62
7
  6
CONTINUOUS
 10
-98.909854589
 20
-6.8826098156
 11
-98.911155005
 21
-6.9322049549
  0
LINE
  5
276
100
AcDbEntity
  8
RACCORDO
100
AcDbLine
 62
7
  6
CONTINUOUS
 10
-98.790688436
 20
-4.0353646252
 11
-98.8000347248
 21
-4.3535670101
  0
LINE
  5
277
100
AcDbEntity
  8
RACCORDO
100
AcDbLine
 62
7
  6
CONTINUOUS
 10
-98.8000347248
 20
-4.3535670101
 11
-98.8101505142
 21
-4.667509752
  0
LINE
  5
278
100
AcDbEntity
  8
RACCORDO
100
AcDbLine
 62
7
  6
CONTINUOUS
 10
-98.9082339116
 20
-6.8343512788
 11
-98.909854589
 21
-6.8826098156
  0
LINE
  5
279
100
AcDbEntity
  8
RACCORDO
100
AcDbLine
 62
7
  6
CONTINUOUS
 10
-98.8101505142
 20
-4.667509752
 11
-98.8210387864
 21
-4.976886581
  0
LINE
  5
27A
100
AcDbEntity
  8
RACCORDO
100
AcDbLine
 62
7
  6
CONTINUOUS
 10
-98.8210387864
 20
-4.976886581
 11
-98.8327028393
 21
-5.2813606645
  0
LINE
  5
27B
100
AcDbEntity
  8
RACCORDO
100
AcDbLine
 62
7
  6
CONTINUOUS
 10
-98.8327028393
 20
-5.2813606645
 11
-98.8451485473
 21
-5.5806729881
  0
LINE
  5
27C
100
AcDbEntity
  8
RACCORDO
100
AcDbLine
 62
7
  6
CONTINUOUS
 10
-98.9062969158
 20
-6.7875735448
 11
-98.9082339116
 21
-6.8343512788
  0
LINE
  5
27D
100
AcDbEntity
  8
RACCORDO
100
AcDbLine
 62
7
  6
CONTINUOUS
 10
-98.8451485473
 20
-5.5806729881
 11
-98.8583788463
 21
-5.8745329143
  0
LINE
  5
27E
100
AcDbEntity
  8
RACCORDO
100
AcDbLine
 62
7
  6
CONTINUOUS
 10
-98.8583788463
 20
-5.8745329143
 11
-98.872396733
 21
-6.1626257965
  0
LINE
  5
27F
100
AcDbEntity
  8
RACCORDO
100
AcDbLine
 62
7
  6
CONTINUOUS
 10
-98.9040519699
 20
-6.7424148261
 11
-98.9062969158
 21
-6.7875735448
  0
LINE
  5
280
100
AcDbEntity
  8
RACCORDO
100
AcDbLine
 62
7
  6
CONTINUOUS
 10
-98.872396733
 20
-6.1626257965
 11
-98.887207744
 21
-6.4447003574
  0
LINE
  5
281
100
AcDbEntity
  8
RACCORDO
100
AcDbLine
 62
7
  6
CONTINUOUS
 10
-98.887207744
 20
-6.4447003574
 11
-98.9040519699
 21
-6.7424148261
  0
LWPOLYLINE
  5
282
100
AcDbEntity
  8
0
100
AcDbPolyline
 62
250
  6
CONTINUOUS
 90
64
 70
0
 10
-91.3856837327
 20
33.7875965416
 10
-91.3795376413
 20
33.841683663
 10
-91.3721466707
 20
33.8955544999
 10
-91.3635108211
 20
33.9492090609
 10
-91.3536219579
 20
34.0026843833
 10
-91.3424882155
 20
34.0559434455
 10
-91.3301339973
 20
34.1088751723
 10
-91.3165580212
 20
34.1614714346
 10
-91.3017615691
 20
34.2137403884
 10
-91.2857728909
 20
34.2655953947
 10
-91.2685893139
 20
34.3170370288
 10
-91.2502135108
 20
34.3680647492
 10
-91.2306817489
 20
34.4185902487
 10
-91.2099920914
 20
34.4686117482
 10
-91.1881464752
 20
34.5181310677
 10
-91.1651869784
 20
34.5670653046
 10
-91.1411116357
 20
34.6154131364
 10
-91.1159224124
 20
34.6631759325
 10
-91.089667283
 20
34.7102748345
 10
-91.062344617
 20
34.7567081213
 10
-91.0339560449
 20
34.8024775657
 10
-91.0045544321
 20
34.8475095568
 10
-90.9741374982
 20
34.8918033305
 10
-90.9427075237
 20
34.9353597061
 10
-90.9103242157
 20
34.9781074535
 10
-90.8769877734
 20
35.0200429335
 10
-90.8426979978
 20
35.0611698432
 10
-90.8075139979
 20
35.1014279609
 10
-90.7714334105
 20
35.1408170346
 10
-90.734458599
 20
35.1793373754
 10
-90.6966557622
 20
35.2169296092
 10
-90.6580235545
 20
35.2535920329
 10
-90.6185633216
 20
35.2893264088
 10
-90.5783452996
 20
35.3240785631
 10
-90.5373702158
 20
35.3578454442
 10
-90.495637343
 20
35.3906301618
 10
-90.4532147359
 20
35.4223877864
 10
-90.4101000872
 20
35.4531177652
 10
-90.3662957042
 20
35.4828207066
 10
-90.3218765643
 20
35.5114534239
 10
-90.2768431447
 20
35.5390134373
 10
-90.2311949682
 20
35.5655032791
 10
-90.1850055799
 20
35.5908872811
 10
-90.1382741889
 20
35.6151639577
 10
-90.0910015862
 20
35.6383348425
 10
-90.0432636899
 20
35.6603687963
 10
-89.995060244
 20
35.6812640833
 10
-89.9463915045
 20
35.7010224821
 10
-89.8973341567
 20
35.7196181242
 10
-89.8478882838
 20
35.7370492999
 10
-89.7980538027
 20
35.7533177558
 10
-89.7479071489
 20
35.7684028073
 10
-89.6974472978
 20
35.7823030605
 10
-89.6466752739
 20
35.7950199397
 10
-89.595670586
 20
35.8065369862
 10
-89.5444350234
 20
35.816852323
 10
-89.4929667968
 20
35.8259678503
 10
-89.4413400465
 20
35.8338727736
 10
-89.3895468001
 20
35.8405659358
 10
-89.3375950301
 20
35.8460485096
 10
-89.2855827941
 20
35.8503131942
 10
-89.2335427782
 20
35.8533575586
 10
-89.1814422963
 20
35.8551840416
 10
-89.1292813485
 20
35.8557926453
  0
LINE
  5
283
100
AcDbEntity
  8
0
100
AcDbLine
 62
250
  6
CONTINUOUS
 10
-89.1292815281
 20
41.0
 11
-89.1292815281
 21
35.8557926453
  0
LINE
  5
284
100
AcDbEntity
  8
0
100
AcDbLine
 62
250
  6
CONTINUOUS
 10
-89.1292815281
 20
-41.0
 11
-89.1292815281
 21
-35.8557926453
  0
LWPOLYLINE
  5
285
100
AcDbEntity
  8
RACCORDO
100
AcDbPolyline
 62
250
  6
CONTINUOUS
 90
49
 70
0
 10
-75.3939664298
 20
24.2174730565
 10
-75.392361781
 20
24.2282745211
 10
-75.3899541001
 20
24.2390651064
 10
-75.3867458119
 20
24.2498339444
 10
-75.382740148
 20
24.2605701888
 10
-75.3779411426
 20
24.2712630261
 10
-75.3723536294
 20
24.2819016867
 10
-75.3659832361
 20
24.2924754552
 10
-75.3588363789
 20
24.3029736821
 10
-75.3509202559
 20
24.3133857934
 10
-75.3422428404
 20
24.3237013023
 10
-75.3328128721
 20
24.333909819
 10
-75.3226398487
 20
24.3440010617
 10
-75.3117340165
 20
24.3539648665
 10
-75.3001063598
 20
24.363791198
 10
-75.2877685897
 20
24.3734701592
 10
-75.2747331328
 20
24.3829920016
 10
-75.2610131183
 20
24.3923471347
 10
-75.2466223649
 20
24.4015261363
 10
-75.2315753668
 20
24.4105197613
 10
-75.2158872792
 20
24.4193189515
 10
-75.199573903
 20
24.4279148443
 10
-75.1826516689
 20
24.4362987821
 10
-75.1651376208
 20
24.4444623206
 10
-75.1470493988
 20
24.4523972377
 10
-75.128405221
 20
24.4600955412
 10
-75.1092238657
 20
24.4675494777
 10
-75.0895246523
 20
24.4747515395
 10
-75.0693274215
 20
24.4816944728
 10
-75.0486525159
 20
24.4883712848
 10
-75.0275207591
 20
24.4947752505
 10
-75.0059534346
 20
24.5008999201
 10
-74.983972265
 20
24.5067391248
 10
-74.9615993895
 20
24.5122869834
 10
-74.9388573418
 20
24.5175379082
 10
-74.9157690275
 20
24.5224866105
 10
-74.892357701
 20
24.5271281059
 10
-74.8686469418
 20
24.5314577197
 10
-74.8446606313
 20
24.5354710911
 10
-74.8204229282
 20
24.5391641778
 10
-74.7959582446
 20
24.5425332603
 10
-74.7712912209
 20
24.5455749452
 10
-74.7464467017
 20
24.5482861689
 10
-74.7214497101
 20
24.5506642008
 10
-74.6963254228
 20
24.5527066456
 10
-74.6710991448
 20
24.5544114464
 10
-74.6457962836
 20
24.555776886
 10
-74.6204423242
 20
24.5568015891
 10
-74.5950628028
 20
24.5574845237
  0
LINE
  5
286
100
AcDbEntity
  8
RACCORDO
100
AcDbLine
 62
250
  6
CONTINUOUS
 10
-75.3001806818
 20
22.4966076584
 11
-75.2959422896
 21
22.5086887924
  0
LINE
  5
287
100
AcDbEntity
  8
RACCORDO
100
AcDbLine
 62
250
  6
CONTINUOUS
 10
-75.3010436347
 20
22.4941898377
 11
-75.3001806818
 21
22.4966076584
  0
LINE
  5
288
100
AcDbEntity
  8
RACCORDO
100
AcDbLine
 62
250
  6
CONTINUOUS
 10
-75.2959422896
 20
22.5086887924
 11
-75.2949135479
 21
22.5115618947
  0
LINE
  5
289
100
AcDbEntity
  8
RACCORDO
100
AcDbLine
 62
250
  6
CONTINUOUS
 10
-75.2949135479
 20
22.5115618947
 11
-75.2942536738
 21
22.5133670852
  0
LINE
  5
28A
100
AcDbEntity
  8
RACCORDO
100
AcDbLine
 62
250
  6
CONTINUOUS
 10
-75.2942536738
 20
22.5133670852
 11
-75.2936134712
 21
22.5150827236
  0
LWPOLYLINE
  5
28B
100
AcDbEntity
  8
RACCORDO
100
AcDbPolyline
 62
250
  6
CONTINUOUS
 90
48
 70
0
 10
-75.2936134712
 20
22.5150827236
 10
-75.2929917249
 20
22.5167076449
 10
-75.292687412
 20
22.5174859748
 10
-75.2923873215
 20
22.5182414859
 10
-75.2920914815
 20
22.5189741884
 10
-75.2917996072
 20
22.5196839486
 10
-75.2915116757
 20
22.5203707473
 10
-75.2912277099
 20
22.5210346037
 10
-75.290947494
 20
22.5216754423
 10
-75.2906710542
 20
22.5222931473
 10
-75.2903983642
 20
22.5228878344
 10
-75.2901291294
 20
22.5234597752
 10
-75.2898633415
 20
22.5240089533
 10
-75.2896010088
 20
22.524535385
 10
-75.2893418612
 20
22.5250393911
 10
-75.2890858813
 20
22.525520978
 10
-75.2888330867
 20
22.5259801393
 10
-75.28858326
 20
22.5264171768
 10
-75.288336395
 20
22.5268320779
 10
-75.288092498
 20
22.5272248551
 10
-75.2878513713
 20
22.5275958474
 10
-75.287613013
 20
22.5279450421
 10
-75.287377425
 20
22.5282724519
 10
-75.2871444153
 20
22.5285784543
 10
-75.2869139785
 20
22.5288630474
 10
-75.2866861201
 20
22.5291262332
 10
-75.2864606642
 20
22.5293683944
 10
-75.2862376062
 20
22.5295895318
 10
-75.2860169508
 20
22.5297896447
 10
-75.2857985361
 20
22.5299691142
 10
-75.2855823606
 20
22.5301279426
 10
-75.285368426
 20
22.5302661275
 10
-75.2851565747
 20
22.5303840434
 10
-75.2849468046
 20
22.5304816983
 10
-75.2847391179
 20
22.5305590841
 10
-75.2845333639
 20
22.530616551
 10
-75.2843295377
 20
22.5306541102
 10
-75.2841276442
 20
22.5306717505
 10
-75.2839275474
 20
22.5306697887
 10
-75.2837292446
 20
22.5306482368
 10
-75.2835327386
 20
22.5306070828
 10
-75.2833379012
 20
22.5305466073
 10
-75.2831447303
 20
22.5304668246
 10
-75.282953228
 20
22.5303677204
 10
-75.282763273
 20
22.5302495331
 10
-75.2825748246
 20
22.5301123419
 10
-75.2823879233
 20
22.5299560676
 10
-75.2822025692
 20
22.5297807101
  0
LWPOLYLINE
  5
28C
100
AcDbEntity
  8
0
100
AcDbPolyline
 62
250
  6
CONTINUOUS
 90
32
 70
0
 10
-96.8205110434
 20
33.874818883
 10
-96.8072884467
 20
33.8836879582
 10
-96.7920236107
 20
33.8923208369
 10
-96.7747222856
 20
33.9007142671
 10
-96.7553909884
 20
33.9088650872
 10
-96.7340370009
 20
33.9167702268
 10
-96.710668367
 20
33.9244267083
 10
-96.6852938892
 20
33.9318316475
 10
-96.6579231257
 20
33.9389822552
 10
-96.6285663867
 20
33.9458758377
 10
-96.5972347305
 20
33.9525097984
 10
-96.5639399592
 20
33.9588816384
 10
-96.5286946144
 20
33.9649889574
 10
-96.4915119727
 20
33.970829455
 10
-96.45240604
 20
33.9764009311
 10
-96.4113915472
 20
33.981701287
 10
-96.3684839436
 20
33.9867285261
 10
-96.3236993921
 20
33.9914807549
 10
-96.2770547622
 20
33.9959561831
 10
-96.2285676244
 20
34.0001531249
 10
-96.178256243
 20
34.0040699994
 10
-96.1261395696
 20
34.0077053312
 10
-96.0722372358
 20
34.011057751
 10
-96.0165695458
 20
34.0141259958
 10
-95.9591574688
 20
34.01690891
 10
-95.9000226311
 20
34.0194054452
 10
-95.8391873079
 20
34.021614661
 10
-95.776674415
 20
34.0235357254
 10
-95.7125075002
 20
34.0251679145
 10
-95.646710734
 20
34.0265106137
 10
-95.5793089013
 20
34.0275633171
 10
-95.5103273912
 20
34.0283256282
  0
LWPOLYLINE
  5
28D
100
AcDbEntity
  8
0
100
AcDbPolyline
 62
250
  6
CONTINUOUS
 90
33
 70
0
 10
-96.8205110484
 20
-33.8748188836
 10
-96.8072884517
 20
-33.8836879588
 10
-96.7920236157
 20
-33.8923208375
 10
-96.7747222905
 20
-33.9007142677
 10
-96.7553909933
 20
-33.9088650877
 10
-96.7340370058
 20
-33.9167702274
 10
-96.7106683719
 20
-33.9244267089
 10
-96.685293894
 20
-33.9318316481
 10
-96.6579231305
 20
-33.9389822558
 10
-96.6285663915
 20
-33.9458758383
 10
-96.5972347352
 20
-33.952509799
 10
-96.5639399638
 20
-33.958881639
 10
-96.528694619
 20
-33.964988958
 10
-96.4915119772
 20
-33.9708294556
 10
-96.4524060445
 20
-33.9764009317
 10
-96.4113915516
 20
-33.9817012876
 10
-96.368483948
 20
-33.9867285267
 10
-96.3236993964
 20
-33.9914807554
 10
-96.2770547665
 20
-33.9959561836
 10
-96.2285676287
 20
-34.0001531254
 10
-96.1782562472
 20
-34.00407
 10
-96.1261395738
 20
-34.0077053318
 10
-96.0722372399
 20
-34.0110577515
 10
-96.0165695498
 20
-34.0141259963
 10
-95.9591574727
 20
-34.0169089105
 10
-95.900022635
 20
-34.0194054457
 10
-95.8391873117
 20
-34.0216146616
 10
-95.7766744188
 20
-34.0235357259
 10
-95.7125075038
 20
-34.025167915
 10
-95.6467107376
 20
-34.0265106142
 10
-95.5793089048
 20
-34.0275633176
 10
-95.5103273947
 20
-34.0283256287
 10
-95.3677298651
 20
-34.0289780348
  0
LINE
  5
28E
100
AcDbEntity
  8
RACCORDO
100
AcDbLine
 62
250
  6
CONTINUOUS
 10
-75.2937333384
 20
-22.5158716614
 11
-75.2943455971
 21
-22.5141074843
  0
LWPOLYLINE
  5
28F
100
AcDbEntity
  8
RACCORDO
100
AcDbPolyline
 62
250
  6
CONTINUOUS
 90
68
 70
0
 10
-75.3040038244
 20
-22.4841341249
 10
-75.3044953445
 20
-22.4826908686
 10
-75.3049976087
 20
-22.4812386176
 10
-75.3055108031
 20
-22.479777768
 10
-75.3060365187
 20
-22.4783152808
 10
-75.3065738114
 20
-22.4768520137
 10
-75.3071236254
 20
-22.475387109
 10
-75.3076903839
 20
-22.4739249541
 10
-75.3082757887
 20
-22.4724592703
 10
-75.308878138
 20
-22.4709963363
 10
-75.3094967504
 20
-22.4695593768
 10
-75.3101342943
 20
-22.4681428238
 10
-75.3107881012
 20
-22.4667522452
 10
-75.311449484
 20
-22.46542757
 10
-75.3121209228
 20
-22.4641694012
 10
-75.3127999375
 20
-22.4629771358
 10
-75.313470401
 20
-22.4618888937
 10
-75.314129265
 20
-22.4609159959
 10
-75.3147795778
 20
-22.4600471215
 10
-75.3154143576
 20
-22.4592864273
 10
-75.3160308607
 20
-22.4586392719
 10
-75.3166318307
 20
-22.4581002967
 10
-75.3172185163
 20
-22.4576575827
 10
-75.3177906474
 20
-22.4573108497
 10
-75.3183484941
 20
-22.4570603778
 10
-75.3188941159
 20
-22.4568950887
 10
-75.3194277092
 20
-22.4568142524
 10
-75.3199490775
 20
-22.4568185988
 10
-75.3204596916
 20
-22.4568992394
 10
-75.3209596517
 20
-22.457055679
 10
-75.3214488576
 20
-22.4572884128
 10
-75.3219284787
 20
-22.4575900375
 10
-75.3223985882
 20
-22.4579601784
 10
-75.322859113
 20
-22.4583992101
 10
-75.3233110033
 20
-22.4589008536
 10
-75.3237543185
 20
-22.45946483
 10
-75.3241889992
 20
-22.460091418
 10
-75.3246158174
 20
-22.4607751751
 10
-75.3250348072
 20
-22.4615158633
 10
-75.3254459345
 20
-22.4623137205
 10
-75.3258498686
 20
-22.4631640173
 10
-75.3262466397
 20
-22.4640665596
 10
-75.3266362175
 20
-22.4650215415
 10
-75.3270191804
 20
-22.4660248157
 10
-75.3273955439
 20
-22.4670761865
 10
-75.3277652925
 20
-22.4681758496
 10
-75.3281289575
 20
-22.4693202454
 10
-75.3284865648
 20
-22.4705092422
 10
-75.3288380886
 20
-22.4717429717
 10
-75.3291839822
 20
-22.4730182698
 10
-75.3295242573
 20
-22.4743349864
 10
-75.3298589023
 20
-22.4756932716
 10
-75.3301883353
 20
-22.4770904105
 10
-75.3305125698
 20
-22.4785262776
 10
-75.3308315924
 20
-22.4800009984
 10
-75.331145781
 20
-22.4815122347
 10
-75.3314551497
 20
-22.4830598867
 10
-75.3317596844
 20
-22.4846440541
 10
-75.3320597212
 20
-22.4862626973
 10
-75.3323552761
 20
-22.4879157569
 10
-75.332646333
 20
-22.4896032924
 10
-75.3329331797
 20
-22.4913234416
 10
-75.3332158234
 20
-22.4930761155
 10
-75.3334942568
 20
-22.4948614033
 10
-75.3337687462
 20
-22.4966777102
 10
-75.3340392734
 20
-22.4985247529
 10
-75.3343058566
 20
-22.5004028147
 10
-75.3348281487
 20
-22.5042495147
  0
LINE
  5
290
100
AcDbEntity
  8
RACCORDO
100
AcDbLine
 62
250
  6
CONTINUOUS
 10
-75.2943455971
 20
-22.5141074843
 11
-75.2949763775
 21
-22.5122432525
  0
LINE
  5
291
100
AcDbEntity
  8
RACCORDO
100
AcDbLine
 62
250
  6
CONTINUOUS
 10
-75.303052542
 20
-22.4869890686
 11
-75.3040038244
 21
-22.4841341249
  0
LINE
  5
292
100
AcDbEntity
  8
RACCORDO
100
AcDbLine
 62
250
  6
CONTINUOUS
 10
-75.2949763775
 20
-22.5122432525
 11
-75.2956268519
 21
-22.5102789871
  0
LINE
  5
293
100
AcDbEntity
  8
RACCORDO
100
AcDbLine
 62
250
  6
CONTINUOUS
 10
-75.2956268519
 20
-22.5102789871
 11
-75.2962983839
 21
-22.5082153871
  0
LINE
  5
294
100
AcDbEntity
  8
RACCORDO
100
AcDbLine
 62
250
  6
CONTINUOUS
 10
-75.3021409318
 20
-22.489784895
 11
-75.303052542
 21
-22.4869890686
  0
LINE
  5
295
100
AcDbEntity
  8
RACCORDO
100
AcDbLine
 62
250
  6
CONTINUOUS
 10
-75.2962983839
 20
-22.5082153871
 11
-75.2973473834
 21
-22.50493591
  0
LINE
  5
296
100
AcDbEntity
  8
RACCORDO
100
AcDbLine
 62
250
  6
CONTINUOUS
 10
-75.3008406812
 20
-22.4938501915
 11
-75.3021409318
 21
-22.489784895
  0
LINE
  5
297
100
AcDbEntity
  8
RACCORDO
100
AcDbLine
 62
250
  6
CONTINUOUS
 10
-75.2973473834
 20
-22.50493591
 11
-75.3008406812
 21
-22.4938501915
  0
LWPOLYLINE
  5
298
100
AcDbEntity
  8
RACCORDO
100
AcDbPolyline
 62
250
  6
CONTINUOUS
 90
49
 70
0
 10
-75.3943043287
 20
-24.1245085149
 10
-75.392716361
 20
-24.1360025812
 10
-75.3903246149
 20
-24.1474850604
 10
-75.3871315014
 20
-24.1589443768
 10
-75.3831402397
 20
-24.1703689782
 10
-75.3783548532
 20
-24.1817473476
 10
-75.3727801662
 20
-24.1930680141
 10
-75.3664217986
 20
-24.2043195655
 10
-75.3592861602
 20
-24.2154906589
 10
-75.3513804445
 20
-24.2265700328
 10
-75.3427126214
 20
-24.2375465179
 10
-75.3332914288
 20
-24.2484090488
 10
-75.3231263645
 20
-24.2591466749
 10
-75.3122276757
 20
-24.2697485715
 10
-75.3006063496
 20
-24.2802040508
 10
-75.2882741016
 20
-24.2905025727
 10
-75.2752433641
 20
-24.300633755
 10
-75.2615272732
 20
-24.3105873845
 10
-75.2471396564
 20
-24.3203534268
 10
-75.2320950177
 20
-24.3299220369
 10
-75.2164085239
 20
-24.3392835684
 10
-75.2000959886
 20
-24.348428584
 10
-75.1831738564
 20
-24.3573478645
 10
-75.1656591868
 20
-24.3660324184
 10
-75.1475696363
 20
-24.3744734907
 10
-75.1289234411
 20
-24.382662572
 10
-75.1097393986
 20
-24.3905914067
 10
-75.0900368482
 20
-24.3982520017
 10
-75.0698356523
 20
-24.4056366344
 10
-75.0491561758
 20
-24.4127378603
 10
-75.0280192657
 20
-24.4195485206
 10
-75.0064462303
 20
-24.4260617494
 10
-74.9844588175
 20
-24.4322709807
 10
-74.9620791929
 20
-24.4381699549
 10
-74.9393299176
 20
-24.4437527252
 10
-74.9162339252
 20
-24.4490136637
 10
-74.8928144989
 20
-24.4539474667
 10
-74.869095248
 20
-24.4585491605
 10
-74.8451000839
 20
-24.462814106
 10
-74.8208531963
 20
-24.4667380037
 10
-74.7963790288
 20
-24.4703168979
 10
-74.7717022537
 20
-24.4735471808
 10
-74.7468477478
 20
-24.4764255958
 10
-74.7218405673
 20
-24.4789492412
 10
-74.6967059218
 20
-24.4811155729
 10
-74.6714691498
 20
-24.482922407
 10
-74.6461556927
 20
-24.484367922
 10
-74.620791069
 20
-24.4854506607
 10
-74.595400849
 20
-24.4861695316
  0
LINE
  5
299
100
AcDbEntity
  8
RACCORDO
100
AcDbLine
 62
250
  6
CONTINUOUS
 10
-75.3364978148
 20
22.5351491286
 11
-75.3360075086
 21
22.5306205671
  0
LINE
  5
29A
100
AcDbEntity
  8
RACCORDO
100
AcDbLine
 62
7
  6
CONTINUOUS
 10
-75.3163582165
 20
-8.4444938676
 11
-75.3171546704
 21
-8.4369285563
  0
LINE
  5
29B
100
AcDbEntity
  8
RACCORDO
100
AcDbLine
 62
250
  6
CONTINUOUS
 10
-75.3369747538
 20
22.5397840613
 11
-75.3364978148
 21
22.5351491286
  0
LWPOLYLINE
  5
29C
100
AcDbEntity
  8
RACCORDO
100
AcDbPolyline
 62
250
  6
CONTINUOUS
 90
16
 70
0
 10
-75.3161618944
 20
-8.478615273
 10
-75.3149019844
 20
-8.4911257836
 10
-75.3136232213
 20
-8.502996265
 10
-75.312328388
 20
-8.514197289
 10
-75.3110171447
 20
-8.5247287934
 10
-75.309689831
 20
-8.5345908405
 10
-75.3083502487
 20
-8.5437541895
 10
-75.3069982743
 20
-8.5522156054
 10
-75.3056340312
 20
-8.5599783232
 10
-75.3042616912
 20
-8.5670228069
 10
-75.3028811297
 20
-8.5733452743
 10
-75.3014924714
 20
-8.5789495075
 10
-75.3001002613
 20
-8.5838273172
 10
-75.2987060144
 20
-8.5879759734
 10
-75.2973082159
 20
-8.5913982061
 10
-75.2959068656
 20
-8.5940940151
  0
LINE
  5
29D
100
AcDbEntity
  8
RACCORDO
100
AcDbLine
 62
7
  6
CONTINUOUS
 10
-75.3171546704
 20
-8.4369285563
 11
-75.3180079745
 21
-8.4283248459
  0
LINE
  5
29E
100
AcDbEntity
  8
RACCORDO
100
AcDbLine
 62
250
  6
CONTINUOUS
 10
-75.3374384399
 20
22.5445185829
 11
-75.3369747538
 21
22.5397840613
  0
LINE
  5
29F
100
AcDbEntity
  8
RACCORDO
100
AcDbLine
 62
250
  6
CONTINUOUS
 10
-75.3378890126
 20
22.5493457621
 11
-75.3374384399
 21
22.5445185829
  0
LINE
  5
2A0
100
AcDbEntity
  8
RACCORDO
100
AcDbLine
 62
7
  6
CONTINUOUS
 10
-75.3180079745
 20
-8.4283248459
 11
-75.3189104253
 21
-8.4186674805
  0
LWPOLYLINE
  5
2A1
100
AcDbEntity
  8
RACCORDO
100
AcDbPolyline
 62
250
  6
CONTINUOUS
 90
52
 70
0
 10
-75.3442898003
 20
-22.6348859044
 10
-75.3429469967
 20
-22.6498043956
 10
-75.34088668
 20
-22.6647100853
 10
-75.3381107005
 20
-22.6795895573
 10
-75.3346215607
 20
-22.6944296603
 10
-75.3304223877
 20
-22.7092167957
 10
-75.3255169341
 20
-22.723936936
 10
-75.3199096062
 20
-22.7385766052
 10
-75.3136054562
 20
-22.7531228688
 10
-75.3066101555
 20
-22.7675626262
 10
-75.2989299966
 20
-22.7818828607
 10
-75.29057189
 20
-22.7960707161
 10
-75.2815433581
 20
-22.8101134934
 10
-75.2718525229
 20
-22.8239985429
 10
-75.2615081037
 20
-22.8377133884
 10
-75.2505194117
 20
-22.8512458029
 10
-75.2388963331
 20
-22.8645836098
 10
-75.2266493249
 20
-22.8777148093
 10
-75.2137894101
 20
-22.8906277008
 10
-75.20032816
 20
-22.9033107029
 10
-75.1862776836
 20
-22.9157523661
 10
-75.1716506215
 20
-22.927941496
 10
-75.1564601349
 20
-22.9398671667
 10
-75.1407198885
 20
-22.9515186071
 10
-75.1244440384
 20
-22.9628852118
 10
-75.1076472277
 20
-22.9739567634
 10
-75.0903445679
 20
-22.9847232931
 10
-75.0725516197
 20
-22.9951749694
 10
-75.0542843902
 20
-23.0053023681
 10
-75.0355593149
 20
-23.0150964014
 10
-75.0163932368
 20
-23.02454818
 10
-74.9968033982
 20
-23.0336491735
 10
-74.9768074246
 20
-23.0423912232
 10
-74.9564233057
 20
-23.05076647
 10
-74.9356693791
 20
-23.0587673415
 10
-74.914564318
 20
-23.0663866776
 10
-74.8931271149
 20
-23.073617741
 10
-74.8713770556
 20
-23.0804540078
 10
-74.8493337086
 20
-23.0868893444
 10
-74.8270169132
 20
-23.0929181296
 10
-74.8044467476
 20
-23.0985349472
 10
-74.781643517
 20
-23.1037347336
 10
-74.7586277428
 20
-23.1085129516
 10
-74.735420133
 20
-23.1128653243
 10
-74.7120415654
 20
-23.116787912
 10
-74.6885130757
 20
-23.120277258
 10
-74.664855834
 20
-23.1233302586
 10
-74.6410911218
 20
-23.1259441315
 10
-74.617240316
 20
-23.128116491
 10
-74.5933248732
 20
-23.129845372
 10
-74.5693663107
 20
-23.1311292323
 10
-74.5453861836
 20
-23.1319669187
  0
LWPOLYLINE
  5
2A2
100
AcDbEntity
  8
RACCORDO
100
AcDbPolyline
 62
250
  6
CONTINUOUS
 90
3
 70
0
 10
-75.3186246869
 20
-8.4516767259
 10
-75.3174027171
 20
-8.4654660141
 10
-75.3161618944
 20
-8.478615273
  0
LINE
  5
2A3
100
AcDbEntity
  8
RACCORDO
100
AcDbLine
 62
7
  6
CONTINUOUS
 10
-75.3189104253
 20
-8.4186674805
 11
-75.3198558425
 21
-8.4079305758
  0
LINE
  5
2A4
100
AcDbEntity
  8
RACCORDO
100
AcDbLine
 62
250
  6
CONTINUOUS
 10
-75.3385404106
 20
22.5567475417
 11
-75.3378890126
 21
22.5493457621
  0
LWPOLYLINE
  5
2A5
100
AcDbEntity
  8
RACCORDO
100
AcDbPolyline
 62
250
  6
CONTINUOUS
 90
3
 70
0
 10
-75.5796378269
 20
26.9042870198
 10
-75.5482282058
 20
26.532798551
 10
-75.4890461727
 20
25.8494737607
  0
LWPOLYLINE
  5
2A6
100
AcDbEntity
  8
RACCORDO
100
AcDbPolyline
 62
250
  6
CONTINUOUS
 90
15
 70
0
 10
-75.4890461727
 20
25.8494737607
 10
-75.4673668265
 20
25.5891243241
 10
-75.4573722375
 20
25.463521114
 10
-75.448019299
 20
25.3411003875
 10
-75.4393655386
 20
25.2218255253
 10
-75.4314348771
 20
25.1061285792
 10
-75.4242681431
 20
24.9941651985
 10
-75.4178759228
 20
24.8857232368
 10
-75.4122357572
 20
24.7806806343
 10
-75.4073571532
 20
24.6790905339
 10
-75.4032379177
 20
24.580852804
 10
-75.3998470546
 20
24.4856217288
 10
-75.397174679
 20
24.3932706607
 10
-75.3952196704
 20
24.3038920898
 10
-75.3939663791
 20
24.2174730565
  0
LINE
  5
2A7
100
AcDbEntity
  8
RACCORDO
100
AcDbLine
 62
7
  6
CONTINUOUS
 10
-75.3198558425
 20
-8.4079305758
 11
-75.3208386254
 21
-8.3960895022
  0
LINE
  5
2A8
100
AcDbEntity
  8
RACCORDO
100
AcDbLine
 62
250
  6
CONTINUOUS
 10
-75.3391625041
 20
22.5643174313
 11
-75.3385404106
 21
22.5567475417
  0
LWPOLYLINE
  5
2A9
100
AcDbEntity
  8
RACCORDO
100
AcDbPolyline
 62
250
  6
CONTINUOUS
 90
3
 70
0
 10
-75.3210058962
 20
-8.4222532963
 10
-75.3198257243
 20
-8.4372729929
 10
-75.3186246869
 20
-8.4516767259
  0
LINE
  5
2AA
100
AcDbEntity
  8
RACCORDO
100
AcDbLine
 62
7
  6
CONTINUOUS
 10
-75.3208386254
 20
-8.3960895022
 11
-75.3218516006
 21
-8.3831412459
  0
LINE
  5
2AB
100
AcDbEntity
  8
RACCORDO
100
AcDbLine
 62
250
  6
CONTINUOUS
 10
-75.3397552627
 20
22.5720252223
 11
-75.3391625041
 21
22.5643174313
  0
LINE
  5
2AC
100
AcDbEntity
  8
RACCORDO
100
AcDbLine
 62
250
  6
CONTINUOUS
 10
-75.3403189442
 20
22.5798421132
 11
-75.3397552627
 21
22.5720252223
  0
LINE
  5
2AD
100
AcDbEntity
  8
RACCORDO
100
AcDbLine
 62
7
  6
CONTINUOUS
 10
-75.3218516006
 20
-8.3831412459
 11
-75.3234156551
 21
-8.3615999278
  0
LINE
  5
2AE
100
AcDbEntity
  8
RACCORDO
100
AcDbLine
 62
250
  6
CONTINUOUS
 10
-75.323301163
 20
-8.3904007097
 11
-75.3210058962
 21
-8.4222532963
  0
LINE
  5
2AF
100
AcDbEntity
  8
RACCORDO
100
AcDbLine
 62
250
  6
CONTINUOUS
 10
-75.3410271773
 20
22.5904042185
 11
-75.3403189442
 21
22.5798421132
  0
LWPOLYLINE
  5
2B0
100
AcDbEntity
  8
RACCORDO
100
AcDbPolyline
 62
250
  6
CONTINUOUS
 90
41
 70
0
 10
-74.5456964685
 20
23.1445316001
 10
-74.5454715798
 20
23.1410755796
 10
-74.5454049934
 20
23.1375455784
 10
-74.5454967093
 20
23.13394285
 10
-74.5457286992
 20
23.1302918546
 10
-74.5461189914
 20
23.1265705548
 10
-74.5467216711
 20
23.1227115217
 10
-74.5475340468
 20
23.118694534
 10
-74.54855881
 20
23.1145452031
 10
-74.5498581212
 20
23.1102660471
 10
-74.5514342209
 20
23.1058573413
 10
-74.5532848686
 20
23.1013248515
 10
-74.5554655041
 20
23.0966794013
 10
-74.5579796698
 20
23.0919248979
 10
-74.5608238234
 20
23.0870639901
 10
-74.5640427772
 20
23.0821055544
 10
-74.5676414839
 20
23.0770537834
 10
-74.5716149908
 20
23.0719116459
 10
-74.5759932531
 20
23.0666861885
 10
-74.5807806403
 20
23.0613834053
 10
-74.5859727828
 20
23.0560051279
 10
-74.591586527
 20
23.0505523852
 10
-74.5976165261
 20
23.0450387346
 10
-74.6040681269
 20
23.0394593829
 10
-74.6109742162
 20
23.0337891716
 10
-74.6183381581
 20
23.0280347797
 10
-74.6261565885
 20
23.0222016686
 10
-74.6344523016
 20
23.0162654261
 10
-74.643303759
 20
23.0101895813
 10
-74.6526324991
 20
23.004028266
 10
-74.6622259322
 20
22.9978900988
 10
-74.6720110556
 20
22.9918299701
 10
-74.6820608719
 20
22.9857998933
 10
-74.6923817993
 20
22.9797523674
 10
-74.7029687672
 20
22.9736989211
 10
-74.7138268462
 20
22.9676426113
 10
-74.7249776662
 20
22.9615298767
 10
-74.7364514451
 20
22.9553606237
 10
-74.748217965
 20
22.9491596003
 10
-74.7602082021
 20
22.9429165189
 10
-74.7724531308
 20
22.9366346855
  0
LINE
  5
2B1
100
AcDbEntity
  8
RACCORDO
100
AcDbLine
 62
7
  6
CONTINUOUS
 10
-75.3234156551
 20
-8.3615999278
 11
-75.3250179041
 21
-8.3374707583
  0
LINE
  5
2B2
100
AcDbEntity
  8
RACCORDO
100
AcDbLine
 62
250
  6
CONTINUOUS
 10
-75.3255037604
 20
-8.3562046878
 11
-75.323301163
 21
-8.3904007097
  0
LINE
  5
2B3
100
AcDbEntity
  8
RACCORDO
100
AcDbLine
 62
250
  6
CONTINUOUS
 10
-75.3416898206
 20
22.6011141036
 11
-75.3410271773
 21
22.5904042185
  0
LINE
  5
2B4
100
AcDbEntity
  8
RACCORDO
100
AcDbLine
 62
7
  6
CONTINUOUS
 10
-75.3250179041
 20
-8.3374707583
 11
-75.3266395724
 21
-8.3107319961
  0
LINE
  5
2B5
100
AcDbEntity
  8
RACCORDO
100
AcDbLine
 62
250
  6
CONTINUOUS
 10
-75.3276057983
 20
-8.3197882825
 11
-75.3255037604
 21
-8.3562046878
  0
LINE
  5
2B6
100
AcDbEntity
  8
RACCORDO
100
AcDbLine
 62
250
  6
CONTINUOUS
 10
-75.3423109464
 20
22.6119704399
 11
-75.3416898206
 21
22.6011141036
  0
LINE
  5
2B7
100
AcDbEntity
  8
RACCORDO
100
AcDbLine
 62
7
  6
CONTINUOUS
 10
-75.3266395724
 20
-8.3107319961
 11
-75.3282650744
 21
-8.2813503337
  0
LINE
  5
2B8
100
AcDbEntity
  8
RACCORDO
100
AcDbLine
 62
250
  6
CONTINUOUS
 10
-75.3430368372
 20
22.6258002283
 11
-75.3423109464
 21
22.6119704399
  0
LINE
  5
2B9
100
AcDbEntity
  8
RACCORDO
100
AcDbLine
 62
250
  6
CONTINUOUS
 10
-75.329602365
 20
-8.2812351751
 11
-75.3276057983
 21
-8.3197882825
  0
LINE
  5
2BA
100
AcDbEntity
  8
RACCORDO
100
AcDbLine
 62
7
  6
CONTINUOUS
 10
-75.3282650744
 20
-8.2813503337
 11
-75.3298775462
 21
-8.2493203498
  0
LINE
  5
2BB
100
AcDbEntity
  8
RACCORDO
100
AcDbLine
 62
250
  6
CONTINUOUS
 10
-75.3437161046
 20
22.6400289038
 11
-75.3430368372
 21
22.6258002283
  0
LINE
  5
2BC
100
AcDbEntity
  8
RACCORDO
100
AcDbLine
 62
250
  6
CONTINUOUS
 10
-75.3314862869
 20
-8.2406767314
 11
-75.329602365
 21
-8.2812351751
  0
LINE
  5
2BD
100
AcDbEntity
  8
RACCORDO
100
AcDbLine
 62
7
  6
CONTINUOUS
 10
-75.3298775462
 20
-8.2493203498
 11
-75.3314630852
 21
-8.2146135726
  0
LINE
  5
2BE
100
AcDbEntity
  8
RACCORDO
100
AcDbLine
 62
250
  6
CONTINUOUS
 10
-75.3444781672
 20
22.6577553576
 11
-75.3437161046
 21
22.6400289038
  0
LINE
  5
2BF
100
AcDbEntity
  8
RACCORDO
100
AcDbLine
 62
250
  6
CONTINUOUS
 10
-74.5569272099
 20
23.4122498763
 11
-74.5456964674
 21
23.1445316001
  0
LINE
  5
2C0
100
AcDbEntity
  8
RACCORDO
100
AcDbLine
 62
250
  6
CONTINUOUS
 10
-75.3332512033
 20
-8.1982602569
 11
-75.3314862869
 21
-8.2406767314
  0
LINE
  5
2C1
100
AcDbEntity
  8
RACCORDO
100
AcDbLine
 62
7
  6
CONTINUOUS
 10
-75.3314630852
 20
-8.2146135726
 11
-75.3335126936
 21
-8.1640844425
  0
LINE
  5
2C2
100
AcDbEntity
  8
RACCORDO
100
AcDbLine
 62
250
  6
CONTINUOUS
 10
-75.3558306325
 20
22.9557359098
 11
-75.3444781672
 21
22.6577553576
  0
LINE
  5
2C3
100
AcDbEntity
  8
RACCORDO
100
AcDbLine
 62
250
  6
CONTINUOUS
 10
-74.5708711206
 20
23.7814867969
 11
-74.5569272099
 21
23.4122498763
  0
LINE
  5
2C4
100
AcDbEntity
  8
RACCORDO
100
AcDbLine
 62
250
  6
CONTINUOUS
 10
-75.3356657087
 20
-8.1313994519
 11
-75.3332512033
 21
-8.1982602569
  0
LINE
  5
2C5
100
AcDbEntity
  8
RACCORDO
100
AcDbLine
 62
7
  6
CONTINUOUS
 10
-75.3335126936
 20
-8.1640844425
 11
-75.3354607665
 21
-8.1085574945
  0
LINE
  5
2C6
100
AcDbEntity
  8
RACCORDO
100
AcDbLine
 62
250
  6
CONTINUOUS
 10
-75.3697742824
 20
23.3625174527
 11
-75.3558306325
 21
22.9557359098
  0
LINE
  5
2C7
100
AcDbEntity
  8
RACCORDO
100
AcDbLine
 62
250
  6
CONTINUOUS
 10
-74.583597484
 20
24.1636632285
 11
-74.5708711206
 21
23.7814867969
  0
LINE
  5
2C8
100
AcDbEntity
  8
RACCORDO
100
AcDbLine
 62
250
  6
CONTINUOUS
 10
-75.3825004997
 20
23.7835764477
 11
-75.3697742824
 21
23.3625174527
  0
LINE
  5
2C9
100
AcDbEntity
  8
RACCORDO
100
AcDbLine
 62
250
  6
CONTINUOUS
 10
-75.3377865297
 20
-8.0610728935
 11
-75.3356657087
 21
-8.1313994519
  0
LINE
  5
2CA
100
AcDbEntity
  8
RACCORDO
100
AcDbLine
 62
7
  6
CONTINUOUS
 10
-75.3354607665
 20
-8.1085574945
 11
-75.3372740421
 21
-8.0479218581
  0
LINE
  5
2CB
100
AcDbEntity
  8
RACCORDO
100
AcDbLine
 62
250
  6
CONTINUOUS
 10
-74.5950628028
 20
24.557484522
 11
-74.583597484
 21
24.1636632285
  0
LINE
  5
2CC
100
AcDbEntity
  8
RACCORDO
100
AcDbLine
 62
250
  6
CONTINUOUS
 10
-75.3939664305
 20
24.2174730518
 11
-75.3825004997
 21
23.7835764477
  0
LINE
  5
2CD
100
AcDbEntity
  8
RACCORDO
100
AcDbLine
 62
7
  6
CONTINUOUS
 10
-75.3372740421
 20
-8.0479218581
 11
-75.3389175052
 21
-7.9820538749
  0
LINE
  5
2CE
100
AcDbEntity
  8
RACCORDO
100
AcDbLine
 62
250
  6
CONTINUOUS
 10
-75.3396022171
 20
-7.9876650009
 11
-75.3377865297
 21
-8.0610728935
  0
LWPOLYLINE
  5
2CF
100
AcDbEntity
  8
RACCORDO
100
AcDbPolyline
 62
250
  6
CONTINUOUS
 90
43
 70
0
 10
-75.2829772403
 20
-22.5305553812
 10
-75.2827378397
 20
-22.5417378842
 10
-75.2820812305
 20
-22.552904802
 10
-75.2810083278
 20
-22.564040571
 10
-75.2795206269
 20
-22.5751296711
 10
-75.2776202012
 20
-22.5861566473
 10
-75.2753096994
 20
-22.5971061309
 10
-75.2725923418
 20
-22.6079628616
 10
-75.2694719154
 20
-22.6187117081
 10
-75.2659527694
 20
-22.6293376896
 10
-75.2620398083
 20
-22.6398259964
 10
-75.2577384859
 20
-22.6501620109
 10
-75.2530547968
 20
-22.6603313274
 10
-75.2479952689
 20
-22.670319773
 10
-75.2425669537
 20
-22.6801134264
 10
-75.2367774167
 20
-22.6896986381
 10
-75.2306347269
 20
-22.6990620491
 10
-75.2241474455
 20
-22.7081906093
 10
-75.217324614
 20
-22.7170715962
 10
-75.2101757413
 20
-22.7256926321
 10
-75.2027107912
 20
-22.7340417017
 10
-75.1949401674
 20
-22.7421071689
 10
-75.1868747003
 20
-22.7498777926
 10
-75.1785256306
 20
-22.7573427428
 10
-75.1699045947
 20
-22.7644916154
 10
-75.1610236078
 20
-22.771314447
 10
-75.1518950476
 20
-22.7778017284
 10
-75.1425316366
 20
-22.7839444181
 10
-75.1329464249
 20
-22.7897339551
 10
-75.1231527715
 20
-22.7951622703
 10
-75.113164326
 20
-22.8002217983
 10
-75.1029950094
 20
-22.8049054873
 10
-75.092658995
 20
-22.8092068098
 10
-75.0821706881
 20
-22.8131197708
 10
-75.0715447066
 20
-22.8166389168
 10
-75.0607958601
 20
-22.8197593432
 10
-75.0499391294
 20
-22.8224767008
 10
-75.0389896458
 20
-22.8247872026
 10
-75.0279626697
 20
-22.8266876282
 10
-75.0168735696
 20
-22.8281753291
 10
-75.0057378006
 20
-22.8292482319
 10
-74.9945708829
 20
-22.8299048411
 10
-74.9833883798
 20
-22.8301442416
  0
LINE
  5
2D0
100
AcDbEntity
  8
RACCORDO
100
AcDbLine
 62
7
  6
CONTINUOUS
 10
-75.3389175052
 20
-7.9820538749
 11
-75.340353598
 21
-7.9107825
  0
LINE
  5
2D1
100
AcDbEntity
  8
RACCORDO
100
AcDbLine
 62
250
  6
CONTINUOUS
 10
-75.3411019348
 20
-7.9115720259
 11
-75.3396022171
 21
-7.9876650009
  0
LINE
  5
2D2
100
AcDbEntity
  8
RACCORDO
100
AcDbLine
 62
7
  6
CONTINUOUS
 10
-75.340353598
 20
-7.9107825
 11
-75.34153842
 21
-7.8339988332
  0
LINE
  5
2D3
100
AcDbEntity
  8
RACCORDO
100
AcDbLine
 62
250
  6
CONTINUOUS
 10
-75.3422735187
 20
-7.8333516044
 11
-75.3411019348
 21
-7.9115720259
  0
LWPOLYLINE
  5
2D4
100
AcDbEntity
  8
RACCORDO
100
AcDbPolyline
 62
250
  6
CONTINUOUS
 90
13
 70
0
 10
-75.2275752953
 20
-8.708165587
 10
-75.2278015159
 20
-8.6907316004
 10
-75.2286393352
 20
-8.6733189779
 10
-75.2300877266
 20
-8.6559490576
 10
-75.2321449152
 20
-8.638643125
 10
-75.23480838
 20
-8.6214223875
 10
-75.2380748571
 20
-8.6043079477
 10
-75.2419403438
 20
-8.5873207784
 10
-75.246400103
 20
-8.5704816961
 10
-75.2514486696
 20
-8.553811336
 10
-75.2570798571
 20
-8.5373301264
 10
-75.2632867647
 20
-8.5210582639
 10
-75.2698073294
 20
-8.5056182171
  0
LWPOLYLINE
  5
2D5
100
AcDbEntity
  8
RACCORDO
100
AcDbPolyline
 62
250
  6
CONTINUOUS
 90
9
 70
0
 10
-75.2959068656
 20
-8.5940940151
 10
-75.2961010229
 20
-8.5777492432
 10
-75.2968327598
 20
-8.5614220754
 10
-75.2981012881
 20
-8.5451300971
 10
-75.2999052414
 20
-8.5288908555
 10
-75.3022426769
 20
-8.5127218412
 10
-75.305111077
 20
-8.496640469
 10
-75.3085073523
 20
-8.4806640595
 10
-75.3124278448
 20
-8.4648098202
  0
LINE
  5
2D6
100
AcDbEntity
  8
RACCORDO
100
AcDbLine
 62
250
  6
CONTINUOUS
 10
-75.3431069251
 20
-7.7537040977
 11
-75.3422735187
 21
-7.8333516044
  0
LINE
  5
2D7
100
AcDbEntity
  8
RACCORDO
100
AcDbLine
 62
7
  6
CONTINUOUS
 10
-75.34153842
 20
-7.8339988332
 11
-75.3424211513
 21
-7.7516957485
  0
LINE
  5
2D8
100
AcDbEntity
  8
RACCORDO
100
AcDbLine
 62
250
  6
CONTINUOUS
 10
-76.1724335119
 20
-29.3591342462
 11
-76.1592434934
 21
-32.2156939465
  0
LINE
  5
2D9
100
AcDbEntity
  8
RACCORDO
100
AcDbLine
 62
7
  6
CONTINUOUS
 10
-75.3424211513
 20
-7.7516957485
 11
-75.3429441735
 21
-7.6639841103
  0
LINE
  5
2DA
100
AcDbEntity
  8
RACCORDO
100
AcDbLine
 62
250
  6
CONTINUOUS
 10
-76.184398988
 20
-26.5006050345
 11
-76.1724335119
 21
-29.3591342462
  0
LINE
  5
2DB
100
AcDbEntity
  8
RACCORDO
100
AcDbLine
 62
250
  6
CONTINUOUS
 10
-76.1951396452
 20
-23.6402983443
 11
-76.184398988
 21
-26.5006050345
  0
LINE
  5
2DC
100
AcDbEntity
  8
RACCORDO
100
AcDbLine
 62
250
  6
CONTINUOUS
 10
-75.4042769086
 20
-21.1985367325
 11
-75.3943044765
 21
-24.1245085042
  0
LINE
  5
2DD
100
AcDbEntity
  8
RACCORDO
100
AcDbLine
 62
250
  6
CONTINUOUS
 10
-76.2046545315
 20
-20.7784067569
 11
-76.1951396452
 21
-23.6402983443
  0
LINE
  5
2DE
100
AcDbEntity
  8
RACCORDO
100
AcDbLine
 62
250
  6
CONTINUOUS
 10
-75.3436850827
 20
-7.6466281482
 11
-75.3431069251
 21
-7.7537040977
  0
LINE
  5
2DF
100
AcDbEntity
  8
RACCORDO
100
AcDbLine
 62
250
  6
CONTINUOUS
 10
-76.212942967
 20
-17.9151221683
 11
-76.2046545315
 21
-20.7784067569
  0
LINE
  5
2E0
100
AcDbEntity
  8
RACCORDO
100
AcDbLine
 62
250
  6
CONTINUOUS
 10
-75.4129612598
 20
-18.2711197035
 11
-75.4042769086
 21
-21.1985367325
  0
LINE
  5
2E1
100
AcDbEntity
  8
RACCORDO
100
AcDbLine
 62
250
  6
CONTINUOUS
 10
-75.4203573019
 20
-15.3423417808
 11
-75.4129612598
 21
-18.2711197035
  0
LINE
  5
2E2
100
AcDbEntity
  8
RACCORDO
100
AcDbLine
 62
250
  6
CONTINUOUS
 10
-76.220004536
 20
-15.0506366732
 11
-76.212942967
 21
-17.9151221683
  0
LINE
  5
2E3
100
AcDbEntity
  8
RACCORDO
100
AcDbLine
 62
250
  6
CONTINUOUS
 10
-76.2258386701
 20
-12.1851423382
 11
-76.220004536
 21
-15.0506366732
  0
LINE
  5
2E4
100
AcDbEntity
  8
RACCORDO
100
AcDbLine
 62
250
  6
CONTINUOUS
 10
-75.4264642234
 20
-12.4124889637
 11
-75.4203573019
 21
-15.3423417808
  0
LINE
  5
2E5
100
AcDbEntity
  8
RACCORDO
100
AcDbLine
 62
250
  6
CONTINUOUS
 10
-75.4312816039
 20
-9.4817880022
 11
-75.4264642234
 21
-12.4124889637
  0
LINE
  5
2E6
100
AcDbEntity
  8
RACCORDO
100
AcDbLine
 62
250
  6
CONTINUOUS
 10
-76.2304449697
 20
-9.3188311497
 11
-76.2258386701
 21
-12.1851423382
  0
LINE
  5
2E7
100
AcDbEntity
  8
RACCORDO
100
AcDbLine
 62
250
  6
CONTINUOUS
 10
-76.2338232042
 20
-6.4518952889
 11
-76.2304449697
 21
-9.3188311497
  0
LINE
  5
2E8
100
AcDbEntity
  8
RACCORDO
100
AcDbLine
 62
250
  6
CONTINUOUS
 10
-75.4348091905
 20
-6.5503932839
 11
-75.4312816039
 21
-9.4817880022
  0
LWPOLYLINE
  5
2E9
100
AcDbEntity
  8
RACCORDO
100
AcDbPolyline
 62
7
  6
CONTINUOUS
 90
9
 70
0
 10
-75.3429441735
 20
-7.6639841103
 10
-75.3447678576
 20
-5.9389680739
 10
-75.3460706245
 20
-4.2424116399
 10
-75.3469392083
 20
-2.5457536842
 10
-75.3473735924
 20
-0.8490348079
 10
-75.3473737627
 20
0.8477044009
 10
-75.3469397189
 20
2.5444233735
 10
-75.3460714754
 20
4.2410815218
 10
-75.344769049
 20
5.9376382431
  0
LINE
  5
2EA
100
AcDbEntity
  8
RACCORDO
100
AcDbLine
 62
250
  6
CONTINUOUS
 10
-75.3436850827
 20
-7.6466281482
 11
-75.3461670423
 21
-5.0800658367
  0
LINE
  5
2EB
100
AcDbEntity
  8
RACCORDO
100
AcDbLine
 62
250
  6
CONTINUOUS
 10
-75.4370466628
 20
-3.6185362198
 11
-75.4348091905
 21
-6.5503932839
  0
LINE
  5
2EC
100
AcDbEntity
  8
RACCORDO
100
AcDbLine
 62
250
  6
CONTINUOUS
 10
-76.2359730822
 20
-3.5845268422
 11
-76.2338232042
 21
-6.4518952889
  0
LINE
  5
2ED
100
AcDbEntity
  8
RACCORDO
100
AcDbLine
 62
250
  6
CONTINUOUS
 10
-75.3461670423
 20
-5.0800658367
 11
-75.3476266452
 21
-2.5401023837
  0
LINE
  5
2EE
100
AcDbEntity
  8
RACCORDO
100
AcDbLine
 62
250
  6
CONTINUOUS
 10
-76.2368944805
 20
-0.7169180211
 11
-76.2359730822
 21
-3.5845268422
  0
LINE
  5
2EF
100
AcDbEntity
  8
RACCORDO
100
AcDbLine
 62
250
  6
CONTINUOUS
 10
-75.4379938851
 20
-0.6864494598
 11
-75.4370466628
 21
-3.6185362198
  0
LINE
  5
2F0
100
AcDbEntity
  8
RACCORDO
100
AcDbLine
 62
250
  6
CONTINUOUS
 10
-75.3476266452
 20
-2.5401023837
 11
-75.3481131876
 21
0.0000126344
  0
LINE
  5
2F1
100
AcDbEntity
  8
RACCORDO
100
AcDbLine
 62
250
  6
CONTINUOUS
 10
-75.2275752953
 20
-22.4751534362
 11
-75.2275752953
 21
-8.708165587
  0
LINE
  5
2F2
100
AcDbEntity
  8
RACCORDO
100
AcDbLine
 62
250
  6
CONTINUOUS
 10
-75.2275752953
 20
8.708165587
 11
-75.2275752953
 21
22.4751534362
  0
LINE
  5
2F3
100
AcDbEntity
  8
RACCORDO
100
AcDbLine
 62
7
  6
CONTINUOUS
 10
-75.2268863198
 20
-22.476637462
 11
-75.2268900626
 21
-8.708165587
  0
LINE
  5
2F4
100
AcDbEntity
  8
RACCORDO
100
AcDbLine
 62
7
  6
CONTINUOUS
 10
-75.2268900626
 20
8.708165587
 11
-75.2268900626
 21
22.4751534362
  0
LINE
  5
2F5
100
AcDbEntity
  8
RACCORDO
100
AcDbLine
 62
250
  6
CONTINUOUS
 10
-74.9279864348
 20
22.7747422966
 11
-74.9279864348
 21
22.774057064
  0
LINE
  5
2F6
100
AcDbEntity
  8
RACCORDO
100
AcDbLine
 62
250
  6
CONTINUOUS
 10
-74.9279864348
 20
-22.7747422966
 11
-74.9279864348
 21
-22.774057064
  0
LINE
  5
2F7
100
AcDbEntity
  8
RACCORDO
100
AcDbLine
 62
250
  6
CONTINUOUS
 10
-76.2365873533
 20
2.1507388487
 11
-76.2368944805
 21
-0.7169180211
  0
LINE
  5
2F8
100
AcDbEntity
  8
RACCORDO
100
AcDbLine
 62
250
  6
CONTINUOUS
 10
-75.4376508075
 20
2.2457115354
 11
-75.4379938851
 21
-0.6864494598
  0
LINE
  5
2F9
100
AcDbEntity
  8
RACCORDO
100
AcDbLine
 62
250
  6
CONTINUOUS
 10
-75.3481131876
 20
0.0000126344
 11
-75.347626632
 21
2.5401311635
  0
LINE
  5
2FA
100
AcDbEntity
  8
RACCORDO
100
AcDbLine
 62
250
  6
CONTINUOUS
 10
-76.2350516851
 20
5.0182514936
 11
-76.2365873533
 21
2.1507388487
  0
LINE
  5
2FB
100
AcDbEntity
  8
RACCORDO
100
AcDbLine
 62
250
  6
CONTINUOUS
 10
-75.4360174157
 20
5.1777123839
 11
-75.4376508075
 21
2.2457115354
  0
LINE
  5
2FC
100
AcDbEntity
  8
RACCORDO
100
AcDbLine
 62
250
  6
CONTINUOUS
 10
-75.347626632
 20
2.5401311635
 11
-75.3461670289
 21
5.0800871881
  0
LINE
  5
2FD
100
AcDbEntity
  8
RACCORDO
100
AcDbLine
 62
250
  6
CONTINUOUS
 10
-76.2322876296
 20
7.885427706
 11
-76.2350516851
 21
5.0182514936
  0
LINE
  5
2FE
100
AcDbEntity
  8
RACCORDO
100
AcDbLine
 62
250
  6
CONTINUOUS
 10
-75.4330938826
 20
8.1093216518
 11
-75.4360174157
 21
5.1777123839
  0
LINE
  5
2FF
100
AcDbEntity
  8
RACCORDO
100
AcDbLine
 62
250
  6
CONTINUOUS
 10
-76.2282953249
 20
10.752075226
 11
-76.2322876296
 21
7.885427706
  0
LINE
  5
300
100
AcDbEntity
  8
RACCORDO
100
AcDbLine
 62
250
  6
CONTINUOUS
 10
-75.4288803627
 20
11.0403848527
 11
-75.4330938826
 21
8.1093216518
  0
LINE
  5
301
100
AcDbEntity
  8
RACCORDO
100
AcDbLine
 62
250
  6
CONTINUOUS
 10
-76.2230750319
 20
13.61800198
 11
-76.2282953249
 21
10.752075226
  0
LINE
  5
302
100
AcDbEntity
  8
RACCORDO
100
AcDbLine
 62
250
  6
CONTINUOUS
 10
-75.4233771462
 20
13.9706703838
 11
-75.4288803627
 21
11.0403848527
  0
LINE
  5
303
100
AcDbEntity
  8
RACCORDO
100
AcDbLine
 62
250
  6
CONTINUOUS
 10
-76.216627181
 20
16.4830159392
 11
-76.2230750319
 21
13.61800198
  0
LINE
  5
304
100
AcDbEntity
  8
RACCORDO
100
AcDbLine
 62
250
  6
CONTINUOUS
 10
-75.4165846995
 20
16.8999490231
 11
-75.4233771462
 21
13.9706703838
  0
LINE
  5
305
100
AcDbEntity
  8
RACCORDO
100
AcDbLine
 62
250
  6
CONTINUOUS
 10
-76.2089520951
 20
19.3469249692
 11
-76.216627181
 21
16.4830159392
  0
LINE
  5
306
100
AcDbEntity
  8
RACCORDO
100
AcDbLine
 62
250
  6
CONTINUOUS
 10
-75.408503404
 20
19.8280594598
 11
-75.4165846995
 21
16.8999490231
  0
LINE
  5
307
100
AcDbEntity
  8
RACCORDO
100
AcDbLine
 62
250
  6
CONTINUOUS
 10
-76.2000503113
 20
22.2095370651
 11
-76.2089520951
 21
19.3469249692
  0
LWPOLYLINE
  5
308
100
AcDbEntity
  8
RACCORDO
100
AcDbPolyline
 62
250
  6
CONTINUOUS
 90
3
 70
0
 10
-75.3939664305
 20
24.2174730518
 10
-75.3991341228
 20
22.7546909126
 10
-75.408503404
 20
19.8280594598
  0
LINE
  5
309
100
AcDbEntity
  8
RACCORDO
100
AcDbLine
 62
250
  6
CONTINUOUS
 10
-76.1899225405
 20
25.0706601533
 11
-76.2000503113
 21
22.2095370651
  0
LINE
  5
30A
100
AcDbEntity
  8
RACCORDO
100
AcDbLine
 62
250
  6
CONTINUOUS
 10
-76.1785692899
 20
27.9301022477
 11
-76.1899225405
 21
25.0706601533
  0
LWPOLYLINE
  5
30B
100
AcDbEntity
  8
RACCORDO
100
AcDbPolyline
 62
250
  6
CONTINUOUS
 90
3
 70
0
 10
-76.1592434939
 20
32.2156939465
 10
-76.1659915853
 20
30.7876715542
 10
-76.1785692899
 20
27.9301022477
  0
LINE
  5
30C
100
AcDbEntity
  8
RACCORDO
100
AcDbLine
 62
250
  6
CONTINUOUS
 10
-75.343472112
 20
7.7001884169
 11
-75.3461670289
 21
5.0800871881
  0
LINE
  5
30D
100
AcDbEntity
  8
RACCORDO
100
AcDbLine
 62
7
  6
CONTINUOUS
 10
-75.344769049
 20
5.9376382431
 11
-75.342791361
 21
7.6980112391
  0
LWPOLYLINE
  5
30E
100
AcDbEntity
  8
RACCORDO
100
AcDbPolyline
 62
250
  6
CONTINUOUS
 90
55
 70
0
 10
-75.2275752953
 20
22.4751534362
 10
-75.2274904971
 20
22.4838071092
 10
-75.2271562582
 20
22.4924731603
 10
-75.2265710686
 20
22.5011443958
 10
-75.2257335139
 20
22.5098151226
 10
-75.2246425262
 20
22.5184763578
 10
-75.2232978293
 20
22.5271158929
 10
-75.2216986399
 20
22.5357288016
 10
-75.2198452994
 20
22.5443050013
 10
-75.2177410046
 20
22.5528247624
 10
-75.2153875831
 20
22.561279472
 10
-75.2127864199
 20
22.5696632051
 10
-75.2099421202
 20
22.5779607666
 10
-75.2068580229
 20
22.5861637827
 10
-75.2035366367
 20
22.5942669275
 10
-75.1999826075
 20
22.6022600587
 10
-75.1962006627
 20
22.6101345199
 10
-75.1921936785
 20
22.6178862088
 10
-75.1879638101
 20
22.6255119806
 10
-75.1835153533
 20
22.6330049464
 10
-75.1788520202
 20
22.6403596665
 10
-75.1739746434
 20
22.6475749374
 10
-75.1688863394
 20
22.6546457869
 10
-75.1635920885
 20
22.6615649523
 10
-75.1580952553
 20
22.6683276136
 10
-75.1523991779
 20
22.6749291013
 10
-75.1465094724
 20
22.6813623913
 10
-75.1404332977
 20
22.6876194394
 10
-75.1341758232
 20
22.6936949219
 10
-75.1277423215
 20
22.6995837567
 10
-75.1211407413
 20
22.7052788967
 10
-75.1143781758
 20
22.7107746847
 10
-75.107459239
 20
22.7160678449
 10
-75.1003884383
 20
22.7211552432
 10
-75.0931729298
 20
22.7260319417
 10
-75.0858177604
 20
22.7306947392
 10
-75.0783240705
 20
22.7351428105
 10
-75.0706971751
 20
22.7393724779
 10
-75.0629440589
 20
22.7433793543
 10
-75.0550681473
 20
22.7471611221
 10
-75.0470735035
 20
22.7507149204
 10
-75.0389688274
 20
22.7540360007
 10
-75.0307646951
 20
22.7571195618
 10
-75.0224666228
 20
22.7599630737
 10
-75.0140828273
 20
22.7625633022
 10
-75.0056284255
 20
22.7649157053
 10
-74.9971089159
 20
22.7670190284
 10
-74.9885333449
 20
22.7688713499
 10
-74.979922672
 20
22.770469299
 10
-74.9712882885
 20
22.7718124909
 10
-74.9626338529
 20
22.7729021013
 10
-74.9539689204
 20
22.7737387631
 10
-74.9453015633
 20
22.774323501
 10
-74.9366383405
 20
22.7746575393
 10
-74.9279864348
 20
22.7747422966
  0
LINE
  5
30F
100
AcDbEntity
  8
RACCORDO
100
AcDbLine
 62
7
  6
CONTINUOUS
 10
-75.342791361
 20
7.6980112391
 11
-75.3420304926
 21
7.7926636711
  0
LINE
  5
310
100
AcDbEntity
  8
RACCORDO
100
AcDbLine
 62
250
  6
CONTINUOUS
 10
-75.3425890227
 20
7.8069390309
 11
-75.343472112
 21
7.7001884169
  0
LWPOLYLINE
  5
311
100
AcDbEntity
  8
RACCORDO
100
AcDbPolyline
 62
250
  6
CONTINUOUS
 90
9
 70
0
 10
-75.2959068656
 20
8.5940940151
 10
-75.2961010229
 20
8.5777492435
 10
-75.2968327598
 20
8.5614220761
 10
-75.298101288
 20
8.5451300981
 10
-75.2999052412
 20
8.5288908569
 10
-75.3022426766
 20
8.5127218429
 10
-75.3051110766
 20
8.4966404711
 10
-75.3085073517
 20
8.4806640619
 10
-75.3124278441
 20
8.4648098229
  0
LINE
  5
312
100
AcDbEntity
  8
RACCORDO
100
AcDbLine
 62
250
  6
CONTINUOUS
 10
-75.3415292756
 20
7.885717197
 11
-75.3425890227
 21
7.8069390309
  0
LINE
  5
313
100
AcDbEntity
  8
RACCORDO
100
AcDbLine
 62
7
  6
CONTINUOUS
 10
-75.3420304926
 20
7.7926636711
 11
-75.3408630961
 21
7.8805688668
  0
LWPOLYLINE
  5
314
100
AcDbEntity
  8
RACCORDO
100
AcDbPolyline
 62
250
  6
CONTINUOUS
 90
17
 70
0
 10
-75.3943043287
 20
-24.1245085149
 10
-75.3955381348
 20
-24.2029031859
 10
-75.3974361403
 20
-24.2837775249
 10
-75.4000143343
 20
-24.367132344
 10
-75.4032842382
 20
-24.4528973519
 10
-75.4072603994
 20
-24.5411503256
 10
-75.4119633975
 20
-24.6321158999
 10
-75.4174017772
 20
-24.7257620744
 10
-75.4235858939
 20
-24.8221307429
 10
-75.4305439143
 20
-24.9215603781
 10
-75.4382920349
 20
-25.0241823284
 10
-75.4468252246
 20
-25.1298803228
 10
-75.4561375109
 20
-25.238622155
 10
-75.4662127763
 20
-25.3503249535
 10
-75.4770468161
 20
-25.4650867199
 10
-75.4886446041
 20
-25.5831464978
 10
-75.5010199916
 20
-25.7048636038
  0
LINE
  5
315
100
AcDbEntity
  8
RACCORDO
100
AcDbLine
 62
250
  6
CONTINUOUS
 10
-75.3401375576
 20
7.9625912106
 11
-75.3415292756
 21
7.885717197
  0
LWPOLYLINE
  5
316
100
AcDbEntity
  8
RACCORDO
100
AcDbPolyline
 62
7
  6
CONTINUOUS
 90
41
 70
0
 10
-75.2268899672
 20
22.4751534362
 10
-75.2266385524
 20
22.4874559709
 10
-75.2259298647
 20
22.4991732777
 10
-75.2247653064
 20
22.5108448056
 10
-75.2231470929
 20
22.5224538059
 10
-75.2210782173
 20
22.5339838975
 10
-75.2185621068
 20
22.5454175591
 10
-75.2156030989
 20
22.5567375912
 10
-75.212205729
 20
22.567928078
 10
-75.2083752989
 20
22.5789724919
 10
-75.2041180067
 20
22.5898540992
 10
-75.1994402235
 20
22.6005569284
 10
-75.1943493024
 20
22.6110651441
 10
-75.1888529337
 20
22.6213629267
 10
-75.1829596064
 20
22.6314351127
 10
-75.1766781763
 20
22.6412666297
 10
-75.1700182144
 20
22.6508428922
 10
-75.1629896886
 20
22.660149734
 10
-75.1556031083
 20
22.6691732905
 10
-75.1478696621
 20
22.6779001482
 10
-75.1398007858
 20
22.6863172243
 10
-75.1314086701
 20
22.6944120726
 10
-75.1227057249
 20
22.7021724517
 10
-75.1137050143
 20
22.7095868798
 10
-75.1044199045
 20
22.7166441163
 10
-75.0948642385
 20
22.7233336192
 10
-75.0850521609
 20
22.7296453488
 10
-75.0749982351
 20
22.7355697042
 10
-75.0647175009
 20
22.7410977717
 10
-75.0542251218
 20
22.7462210134
 10
-75.0435368922
 20
22.750931692
 10
-75.0326686247
 20
22.7552224041
 10
-75.0216363064
 20
22.7590867328
 10
-75.0104566531
 20
22.7625184201
 10
-74.9991461735
 20
22.7655121387
 10
-74.9877207789
 20
22.7680632918
 10
-74.9761976638
 20
22.7701675131
 10
-74.9645943391
 20
22.7718213185
 10
-74.9529271697
 20
22.7730216771
 10
-74.9412128832
 20
22.7737663311
 10
-74.9294692553
 20
22.7740533177
  0
LINE
  5
317
100
AcDbEntity
  8
RACCORDO
100
AcDbLine
 62
7
  6
CONTINUOUS
 10
-75.3408630961
 20
7.8805688668
 11
-75.3393626896
 21
7.961690061
  0
LWPOLYLINE
  5
318
100
AcDbEntity
  8
RACCORDO
100
AcDbPolyline
 62
250
  6
CONTINUOUS
 90
43
 70
0
 10
-75.2822025692
 20
22.5297807101
 10
-75.2819631686
 20
22.540963213
 10
-75.2813065593
 20
22.5521301307
 10
-75.2802336566
 20
22.5632658996
 10
-75.2787459557
 20
22.5743549996
 10
-75.27684553
 20
22.5853819756
 10
-75.2745350282
 20
22.5963314592
 10
-75.2718176706
 20
22.6071881898
 10
-75.2686972442
 20
22.6179370362
 10
-75.2651780982
 20
22.6285630176
 10
-75.2612651372
 20
22.6390513243
 10
-75.2569638148
 20
22.6493873387
 10
-75.2522801257
 20
22.6595566552
 10
-75.2472205979
 20
22.6695451007
 10
-75.2417922827
 20
22.6793387541
 10
-75.2360027457
 20
22.6889239658
 10
-75.229860056
 20
22.6982873767
 10
-75.2233727746
 20
22.7074159369
 10
-75.2165499431
 20
22.7162969238
 10
-75.2094010705
 20
22.7249179597
 10
-75.2019361204
 20
22.7332670294
 10
-75.1941654967
 20
22.7413324966
 10
-75.1861000295
 20
22.7491031203
 10
-75.1777509599
 20
22.7565680706
 10
-75.169129924
 20
22.7637169432
 10
-75.1602489371
 20
22.7705397748
 10
-75.1511203769
 20
22.7770270563
 10
-75.1417569659
 20
22.7831697461
 10
-75.1321717542
 20
22.7889592832
 10
-75.1223781008
 20
22.7943875985
 10
-75.1123896552
 20
22.7994471264
 10
-75.1022203387
 20
22.8041308156
 10
-75.0918843242
 20
22.8084321381
 10
-75.0813960173
 20
22.8123450992
 10
-75.0707700358
 20
22.8158642453
 10
-75.0600211893
 20
22.8189846717
 10
-75.0491644586
 20
22.8217020294
 10
-75.0382149749
 20
22.8240125312
 10
-75.0271879988
 20
22.825912957
 10
-75.0160988987
 20
22.8274006579
 10
-75.0049631296
 20
22.8284735607
 10
-74.9937962118
 20
22.8291301699
 10
-74.9826137088
 20
22.8293695705
  0
LINE
  5
319
100
AcDbEntity
  8
RACCORDO
100
AcDbLine
 62
250
  6
CONTINUOUS
 10
-75.3384258032
 20
8.0369438101
 11
-75.3401375576
 21
7.9625912106
  0
LINE
  5
31A
100
AcDbEntity
  8
RACCORDO
100
AcDbLine
 62
7
  6
CONTINUOUS
 10
-75.3393626896
 20
7.961690061
 11
-75.337591293
 21
8.0361622501
  0
LINE
  5
31B
100
AcDbEntity
  8
RACCORDO
100
AcDbLine
 62
250
  6
CONTINUOUS
 10
-75.382523007
 20
-23.7090042307
 11
-75.3943044765
 21
-24.1245085042
  0
LINE
  5
31C
100
AcDbEntity
  8
RACCORDO
100
AcDbLine
 62
250
  6
CONTINUOUS
 10
-75.3364055046
 20
8.1083341575
 11
-75.3384258032
 21
8.0369438101
  0
LINE
  5
31D
100
AcDbEntity
  8
RACCORDO
100
AcDbLine
 62
7
  6
CONTINUOUS
 10
-75.337591293
 20
8.0361622501
 11
-75.3356004616
 21
8.1042323927
  0
LINE
  5
31E
100
AcDbEntity
  8
RACCORDO
100
AcDbLine
 62
250
  6
CONTINUOUS
 10
-74.5836199343
 20
-24.1084491597
 11
-74.595400849
 21
-24.486169292
  0
LINE
  5
31F
100
AcDbEntity
  8
RACCORDO
100
AcDbLine
 62
250
  6
CONTINUOUS
 10
-75.3695896634
 20
-23.306154766
 11
-75.382523007
 21
-23.7090042307
  0
LINE
  5
320
100
AcDbEntity
  8
RACCORDO
100
AcDbLine
 62
7
  6
CONTINUOUS
 10
-75.3356004616
 20
8.1042323927
 11
-75.3339929186
 21
8.1511568682
  0
LINE
  5
321
100
AcDbEntity
  8
RACCORDO
100
AcDbLine
 62
250
  6
CONTINUOUS
 10
-75.3340874308
 20
8.1763945442
 11
-75.3364055046
 21
8.1083341575
  0
LINE
  5
322
100
AcDbEntity
  8
RACCORDO
100
AcDbLine
 62
250
  6
CONTINUOUS
 10
-74.5706866062
 20
-23.7422318311
 11
-74.5836199343
 21
-24.1084491597
  0
LWPOLYLINE
  5
323
100
AcDbEntity
  8
RACCORDO
100
AcDbPolyline
 62
250
  6
CONTINUOUS
 90
20
 70
0
 10
-74.595400849
 20
-24.486169292
 10
-74.5980988277
 20
-24.5588894474
 10
-74.6021935389
 20
-24.6338529593
 10
-74.6076849824
 20
-24.711080231
 10
-74.61454376
 20
-24.7905421664
 10
-74.62279927
 20
-24.8723063091
 10
-74.6325397077
 20
-24.9565392129
 10
-74.643765627
 20
-25.0432241659
 10
-74.6564764741
 20
-25.1324159287
 10
-74.6707587827
 20
-25.2243927969
 10
-74.6866486473
 20
-25.3192871141
 10
-74.7041099735
 20
-25.417006458
 10
-74.7231210121
 20
-25.5174925717
 10
-74.7436944335
 20
-25.6206700319
 10
-74.7658175672
 20
-25.7266402667
 10
-74.7894306522
 20
-25.8356090001
 10
-74.8146532666
 20
-25.9478965678
 10
-74.8413658322
 20
-26.0632040709
 10
-74.8691498537
 20
-26.180798253
 10
-74.8980925866
 20
-26.3007534149
  0
LINE
  5
324
100
AcDbEntity
  8
RACCORDO
100
AcDbLine
 62
250
  6
CONTINUOUS
 10
-75.3555383374
 20
-22.9170348367
 11
-75.3695896634
 21
-23.306154766
  0
LINE
  5
325
100
AcDbEntity
  8
RACCORDO
100
AcDbLine
 62
7
  6
CONTINUOUS
 10
-75.3339929186
 20
8.1511568682
 11
-75.332310989
 21
8.1945555762
  0
LINE
  5
326
100
AcDbEntity
  8
RACCORDO
100
AcDbLine
 62
250
  6
CONTINUOUS
 10
-75.3323830597
 20
8.2197157868
 11
-75.3340874308
 21
8.1763945442
  0
LINE
  5
327
100
AcDbEntity
  8
RACCORDO
100
AcDbLine
 62
250
  6
CONTINUOUS
 10
-74.5566348341
 20
-23.3884689306
 11
-74.5706866062
 21
-23.7422318311
  0
LINE
  5
328
100
AcDbEntity
  8
RACCORDO
100
AcDbLine
 62
250
  6
CONTINUOUS
 10
-75.3440457622
 20
-22.6291255498
 11
-75.3555383374
 21
-22.9170348367
  0
LINE
  5
329
100
AcDbEntity
  8
RACCORDO
100
AcDbLine
 62
250
  6
CONTINUOUS
 10
-74.5453861835
 20
-23.1319668478
 11
-74.5566348341
 21
-23.3884689306
  0
LINE
  5
32A
100
AcDbEntity
  8
RACCORDO
100
AcDbLine
 62
250
  6
CONTINUOUS
 10
-75.3305574714
 20
8.2612260022
 11
-75.3323830597
 21
8.2197157868
  0
LINE
  5
32B
100
AcDbEntity
  8
RACCORDO
100
AcDbLine
 62
7
  6
CONTINUOUS
 10
-75.332310989
 20
8.1945555762
 11
-75.3305754016
 21
8.2344677378
  0
LINE
  5
32C
100
AcDbEntity
  8
RACCORDO
100
AcDbLine
 62
250
  6
CONTINUOUS
 10
-75.3432806866
 20
-22.6123967671
 11
-75.3440457622
 21
-22.6291255498
  0
LINE
  5
32D
100
AcDbEntity
  8
RACCORDO
100
AcDbLine
 62
7
  6
CONTINUOUS
 10
-75.3305754016
 20
8.2344677378
 11
-75.3288055513
 21
8.2709525454
  0
LINE
  5
32E
100
AcDbEntity
  8
RACCORDO
100
AcDbLine
 62
250
  6
CONTINUOUS
 10
-75.3286171735
 20
8.3007807681
 11
-75.3305574714
 21
8.2612260022
  0
LINE
  5
32F
100
AcDbEntity
  8
RACCORDO
100
AcDbLine
 62
250
  6
CONTINUOUS
 10
-75.3426002879
 20
-22.5989903295
 11
-75.3432806866
 21
-22.6123967671
  0
LINE
  5
330
100
AcDbEntity
  8
RACCORDO
100
AcDbLine
 62
7
  6
CONTINUOUS
 10
-75.3288055513
 20
8.2709525454
 11
-75.3270205145
 21
8.3040889285
  0
LINE
  5
331
100
AcDbEntity
  8
RACCORDO
100
AcDbLine
 62
250
  6
CONTINUOUS
 10
-75.3265666684
 20
8.3382874178
 11
-75.3286171735
 21
8.3007807681
  0
LINE
  5
332
100
AcDbEntity
  8
RACCORDO
100
AcDbLine
 62
250
  6
CONTINUOUS
 10
-75.3418740153
 20
-22.5859754561
 11
-75.3426002879
 21
-22.5989903295
  0
LINE
  5
333
100
AcDbEntity
  8
RACCORDO
100
AcDbLine
 62
7
  6
CONTINUOUS
 10
-75.3270205145
 20
8.3040889285
 11
-75.3252364764
 21
8.3340075414
  0
LINE
  5
334
100
AcDbEntity
  8
RACCORDO
100
AcDbLine
 62
250
  6
CONTINUOUS
 10
-75.3244130155
 20
8.3736112019
 11
-75.3265666684
 21
8.3382874178
  0
LINE
  5
335
100
AcDbEntity
  8
RACCORDO
100
AcDbLine
 62
250
  6
CONTINUOUS
 10
-75.3412545472
 20
-22.5757965046
 11
-75.3418740153
 21
-22.5859754561
  0
LINE
  5
336
100
AcDbEntity
  8
RACCORDO
100
AcDbLine
 62
250
  6
CONTINUOUS
 10
-75.3405954636
 20
-22.565789422
 11
-75.3412545472
 21
-22.5757965046
  0
LINE
  5
337
100
AcDbEntity
  8
RACCORDO
100
AcDbLine
 62
7
  6
CONTINUOUS
 10
-75.3252364764
 20
8.3340075414
 11
-75.3234701766
 21
8.3608140363
  0
LINE
  5
338
100
AcDbEntity
  8
RACCORDO
100
AcDbLine
 62
250
  6
CONTINUOUS
 10
-75.3400710738
 20
-22.5583758407
 11
-75.3405954636
 21
-22.565789422
  0
LINE
  5
339
100
AcDbEntity
  8
RACCORDO
100
AcDbLine
 62
7
  6
CONTINUOUS
 10
-75.3234701766
 20
8.3608140363
 11
-75.3223114822
 21
8.3770061975
  0
LINE
  5
33A
100
AcDbEntity
  8
RACCORDO
100
AcDbLine
 62
250
  6
CONTINUOUS
 10
-75.3395185289
 20
-22.5510435587
 11
-75.3400710738
 21
-22.5583758407
  0
LINE
  5
33B
100
AcDbEntity
  8
RACCORDO
100
AcDbLine
 62
7
  6
CONTINUOUS
 10
-75.3223114822
 20
8.3770061975
 11
-75.3211746954
 21
8.3918785788
  0
LINE
  5
33C
100
AcDbEntity
  8
RACCORDO
100
AcDbLine
 62
250
  6
CONTINUOUS
 10
-75.3389369543
 20
-22.5438155886
 11
-75.3395185289
 21
-22.5510435587
  0
LINE
  5
33D
100
AcDbEntity
  8
RACCORDO
100
AcDbLine
 62
7
  6
CONTINUOUS
 10
-75.3211746954
 20
8.3918785788
 11
-75.3200668404
 21
8.4054472033
  0
LWPOLYLINE
  5
33E
100
AcDbEntity
  8
RACCORDO
100
AcDbPolyline
 62
250
  6
CONTINUOUS
 90
5
 70
0
 10
-75.318623552
 20
8.4516899351
 10
-75.3198246254
 20
8.4372865835
 10
-75.3210048171
 20
8.422267473
 10
-75.3221640638
 20
8.4066340581
 10
-75.3244130155
 20
8.3736112019
  0
LINE
  5
33F
100
AcDbEntity
  8
RACCORDO
100
AcDbLine
 62
250
  6
CONTINUOUS
 10
-75.3383258166
 20
-22.5367191363
 11
-75.3389369543
 21
-22.5438155886
  0
LINE
  5
340
100
AcDbEntity
  8
RACCORDO
100
AcDbLine
 62
7
  6
CONTINUOUS
 10
-75.3200668404
 20
8.4054472033
 11
-75.3189969619
 21
8.4177111906
  0
LWPOLYLINE
  5
341
100
AcDbEntity
  8
RACCORDO
100
AcDbPolyline
 62
250
  6
CONTINUOUS
 90
7
 70
0
 10
-75.7193499321
 20
-27.8118833945
 10
-75.7466810635
 20
-28.112454692
 10
-75.7748627019
 20
-28.4159480377
 10
-75.8039009899
 20
-28.7225865895
 10
-75.8337388682
 20
-29.0321184526
 10
-75.8642452011
 20
-29.3438136116
 10
-75.8953893994
 20
-29.657651134
  0
LWPOLYLINE
  5
342
100
AcDbEntity
  8
RACCORDO
100
AcDbPolyline
 62
250
  6
CONTINUOUS
 90
52
 70
0
 10
-75.3446000782
 20
22.6607900504
 10
-75.3432417787
 20
22.6753023636
 10
-75.3411666113
 20
22.6898022036
 10
-75.3383764393
 20
22.7042765312
 10
-75.3348737749
 20
22.7187125266
 10
-75.3306617576
 20
22.733097012
 10
-75.3257441531
 20
22.7474164682
 10
-75.3201253756
 20
22.7616578301
 10
-75.313810482
 20
22.7758084928
 10
-75.3068051488
 20
22.7898557371
 10
-75.2991156732
 20
22.8037869357
 10
-75.2907489668
 20
22.8175895678
 10
-75.2817125506
 20
22.8312512307
 10
-75.2720145471
 20
22.8447596437
 10
-75.2616636735
 20
22.8581026658
 10
-75.2506692345
 20
22.871268311
 10
-75.2390411126
 20
22.8842447472
 10
-75.22678976
 20
22.8970203086
 10
-75.2139261892
 20
22.9095835129
 10
-75.2004619631
 20
22.9219230693
 10
-75.1864091843
 20
22.9340278846
 10
-75.1717804842
 20
22.945887075
 10
-75.1565890122
 20
22.9574899777
 10
-75.1408484237
 20
22.9688261664
 10
-75.1245728676
 20
22.979885457
 10
-75.1077769737
 20
22.9906579074
 10
-75.0904758393
 20
23.0011338359
 10
-75.0726850164
 20
23.0113038349
 10
-75.0544204968
 20
23.0211587647
 10
-75.0356986979
 20
23.030689765
 10
-75.0165364484
 20
23.0398882717
 10
-74.9969509727
 20
23.0487460176
 10
-74.9769598759
 20
23.0572550394
 10
-74.9565811272
 20
23.0654076877
 10
-74.9358330446
 20
23.0731966332
 10
-74.9147342781
 20
23.0806148756
 10
-74.8933037928
 20
23.0876557481
 10
-74.871560852
 20
23.0943129209
 10
-74.849525
 20
23.1005804109
 10
-74.8272160444
 20
23.1064525882
 10
-74.8046540381
 20
23.111924174
 10
-74.7818592615
 20
23.1169902505
 10
-74.7588522045
 20
23.1216462686
 10
-74.7356535476
 20
23.1258880439
 10
-74.7122841434
 20
23.1297117629
 10
-74.6887649982
 20
23.1331139916
 10
-74.6651172529
 20
23.1360916734
 10
-74.6413621637
 20
23.1386421303
 10
-74.6175210834
 20
23.1407630683
 10
-74.593615442
 20
23.1424525805
 10
-74.5696667277
 20
23.1437091488
 10
-74.5456964674
 20
23.1445316438
  0
LWPOLYLINE
  5
343
100
AcDbEntity
  8
RACCORDO
100
AcDbPolyline
 62
250
  6
CONTINUOUS
 90
3
 70
0
 10
-75.3161606474
 20
8.4786280822
 10
-75.3174015336
 20
8.4654789823
 10
-75.318623552
 20
8.4516899351
  0
LINE
  5
344
100
AcDbEntity
  8
RACCORDO
100
AcDbLine
 62
250
  6
CONTINUOUS
 10
-75.337684726
 20
-22.5297819471
 11
-75.3383258166
 21
-22.5367191363
  0
LINE
  5
345
100
AcDbEntity
  8
RACCORDO
100
AcDbLine
 62
7
  6
CONTINUOUS
 10
-75.3189969619
 20
8.4177111906
 11
-75.3179732294
 21
8.4286850614
  0
LINE
  5
346
100
AcDbEntity
  8
RACCORDO
100
AcDbLine
 62
250
  6
CONTINUOUS
 10
-75.3372407594
 20
-22.5252619467
 11
-75.337684726
 21
-22.5297819471
  0
LINE
  5
347
100
AcDbEntity
  8
RACCORDO
100
AcDbLine
 62
7
  6
CONTINUOUS
 10
-75.3179732294
 20
8.4286850614
 11
-75.3170055207
 21
8.4383798502
  0
LINE
  5
348
100
AcDbEntity
  8
RACCORDO
100
AcDbLine
 62
250
  6
CONTINUOUS
 10
-75.8953893994
 20
-29.657651134
 11
-75.959364205
 21
-30.291037208
  0
LWPOLYLINE
  5
349
100
AcDbEntity
  8
RACCORDO
100
AcDbPolyline
 62
250
  6
CONTINUOUS
 90
5
 70
0
 10
-75.645576618
 20
-27.0272669187
 10
-75.6586743004
 20
-27.1542534031
 10
-75.6709400104
 20
-27.2775922495
 10
-75.6823600129
 20
-27.397600046
 10
-75.7193499321
 20
-27.8118833945
  0
LINE
  5
34A
100
AcDbEntity
  8
RACCORDO
100
AcDbLine
 62
250
  6
CONTINUOUS
 10
-75.959364205
 20
-30.291037208
 11
-76.0250943444
 21
-30.9302220086
  0
LINE
  5
34B
100
AcDbEntity
  8
RACCORDO
100
AcDbLine
 62
250
  6
CONTINUOUS
 10
-76.0250943444
 20
-30.9302220086
 11
-76.0918538925
 21
-31.5720829328
  0
LINE
  5
34C
100
AcDbEntity
  8
RACCORDO
100
AcDbLine
 62
250
  6
CONTINUOUS
 10
-75.336783695
 20
-22.52083539
 11
-75.3372407594
 21
-22.5252619467
  0
LINE
  5
34D
100
AcDbEntity
  8
RACCORDO
100
AcDbLine
 62
250
  6
CONTINUOUS
 10
-76.0918538925
 20
-31.5720829328
 11
-76.1592434865
 21
-32.2156955138
  0
LINE
  5
34E
100
AcDbEntity
  8
RACCORDO
100
AcDbLine
 62
250
  6
CONTINUOUS
 10
-75.5010199916
 20
-25.7048636038
 11
-75.5277892992
 21
-25.95746607
  0
LINE
  5
34F
100
AcDbEntity
  8
RACCORDO
100
AcDbLine
 62
7
  6
CONTINUOUS
 10
-75.3170055207
 20
8.4383798502
 11
-75.3161074203
 21
8.4467812833
  0
LINE
  5
350
100
AcDbEntity
  8
RACCORDO
100
AcDbLine
 62
250
  6
CONTINUOUS
 10
-75.6173312732
 20
-26.7644775485
 11
-75.645576618
 21
-27.0272669187
  0
LINE
  5
351
100
AcDbEntity
  8
RACCORDO
100
AcDbLine
 62
250
  6
CONTINUOUS
 10
-75.3363138382
 20
-22.5165139084
 11
-75.336783695
 21
-22.52083539
  0
LINE
  5
352
100
AcDbEntity
  8
RACCORDO
100
AcDbLine
 62
250
  6
CONTINUOUS
 10
-75.5277892992
 20
-25.95746607
 11
-75.5567188414
 21
-26.2204061037
  0
LINE
  5
353
100
AcDbEntity
  8
RACCORDO
100
AcDbLine
 62
250
  6
CONTINUOUS
 10
-75.5567188414
 20
-26.2204061037
 11
-75.6173312732
 21
-26.7644775485
  0
LINE
  5
354
100
AcDbEntity
  8
RACCORDO
100
AcDbLine
 62
250
  6
CONTINUOUS
 10
-75.3358313941
 20
-22.512306423
 11
-75.3363138382
 21
-22.5165139084
  0
LINE
  5
355
100
AcDbEntity
  8
RACCORDO
100
AcDbLine
 62
7
  6
CONTINUOUS
 10
-75.3161074203
 20
8.4467812833
 11
-75.3152925255
 21
8.4538896546
  0
LINE
  5
356
100
AcDbEntity
  8
RACCORDO
100
AcDbLine
 62
250
  6
CONTINUOUS
 10
-75.3353362794
 20
-22.5082170543
 11
-75.3358313941
 21
-22.512306423
  0
LWPOLYLINE
  5
357
100
AcDbEntity
  8
RACCORDO
100
AcDbPolyline
 62
7
  6
CONTINUOUS
 90
9
 70
0
 10
-75.3152925255
 20
8.4538896546
 10
-75.3145764198
 20
8.4597081211
 10
-75.3142629302
 20
8.4621191683
 10
-75.3139814037
 20
8.4642065021
 10
-75.3137366939
 20
8.4659548532
 10
-75.3135308892
 20
8.4673713398
 10
-75.313366258
 20
8.4684624962
 10
-75.3132486788
 20
8.4692129008
 10
-75.3131782537
 20
8.4696457803
  0
LINE
  5
358
100
AcDbEntity
  8
RACCORDO
100
AcDbLine
 62
250
  6
CONTINUOUS
 10
-75.3348281487
 20
-22.5042495147
 11
-75.3353362794
 21
-22.5082170543
  0
LINE
  5
359
100
AcDbEntity
  8
RACCORDO
100
AcDbLine
 62
250
  6
CONTINUOUS
 10
-75.3124278441
 20
8.4648098229
 11
-75.3151270549
 21
8.4552572491
  0
LWPOLYLINE
  5
35A
100
AcDbEntity
  8
RACCORDO
100
AcDbPolyline
 62
250
  6
CONTINUOUS
 90
13
 70
0
 10
-75.2695807082
 20
8.5061548337
 10
-75.2632867647
 20
8.5210582639
 10
-75.2570798571
 20
8.5373301264
 10
-75.2514486696
 20
8.553811336
 10
-75.246400103
 20
8.5704816961
 10
-75.2419403438
 20
8.5873207784
 10
-75.2380748571
 20
8.6043079477
 10
-75.23480838
 20
8.6214223875
 10
-75.2321449152
 20
8.638643125
 10
-75.2300877266
 20
8.6559490576
 10
-75.2286393352
 20
8.6733189779
 10
-75.2278015159
 20
8.6907316004
 10
-75.2275752953
 20
8.708165587
  0
LINE
  5
35B
100
AcDbEntity
  8
RACCORDO
100
AcDbLine
 62
250
  6
CONTINUOUS
 10
-75.2708821195
 20
8.5032493175
 11
-75.2695807082
 21
8.5061548337
  0
LINE
  5
35C
100
AcDbEntity
  8
RACCORDO
100
AcDbLine
 62
250
  6
CONTINUOUS
 10
-75.2773966196
 20
8.4892220596
 11
-75.2708821195
 21
8.5032493175
  0
LINE
  5
35D
100
AcDbEntity
  8
RACCORDO
100
AcDbLine
 62
250
  6
CONTINUOUS
 10
-75.2852822763
 20
8.4736967308
 11
-75.2773966196
 21
8.4892220596
  0
LWPOLYLINE
  5
35E
100
AcDbEntity
  8
RACCORDO
100
AcDbPolyline
 62
250
  6
CONTINUOUS
 90
16
 70
0
 10
-75.2959068656
 20
8.5940940151
 10
-75.2973078579
 20
8.5913990957
 10
-75.2987053416
 20
8.5879778838
 10
-75.3000993165
 20
8.5838303796
 10
-75.3014912988
 20
8.5789539124
 10
-75.3028797724
 20
8.5733511527
 10
-75.3042601892
 20
8.5670301123
 10
-75.3056324237
 20
8.5599870151
 10
-75.3069966015
 20
8.552225637
 10
-75.308348551
 20
8.5437653181
 10
-75.3096881583
 20
8.5346027363
 10
-75.3110155374
 20
8.5247412135
 10
-75.3123268589
 20
8.5142100561
 10
-75.3136217828
 20
8.503009137
 10
-75.314900649
 20
8.4911385832
 10
-75.3161606474
 20
8.4786280822
  0
LINE
  5
35F
100
AcDbEntity
  8
RACCORDO
100
AcDbLine
 62
250
  6
CONTINUOUS
 10
-75.2773966196
 20
-8.4892220596
 11
-75.2852822763
 21
-8.4736967308
  0
LINE
  5
360
100
AcDbEntity
  8
RACCORDO
100
AcDbLine
 62
250
  6
CONTINUOUS
 10
-75.2707834682
 20
-8.5034617372
 11
-75.2773966196
 21
-8.4892220596
  0
LINE
  5
361
100
AcDbEntity
  8
RACCORDO
100
AcDbLine
 62
250
  6
CONTINUOUS
 10
-75.2698073294
 20
-8.5056182171
 11
-75.2707834682
 21
-8.5034617372
  0
LINE
  5
362
100
AcDbEntity
  8
RACCORDO
100
AcDbLine
 62
250
  6
CONTINUOUS
 10
-75.3124278448
 20
-8.4648098202
 11
-75.3151277683
 21
-8.4552547243
  0
LWPOLYLINE
  5
363
100
AcDbEntity
  8
RACCORDO
100
AcDbPolyline
 62
7
  6
CONTINUOUS
 90
7
 70
0
 10
-75.3131644127
 20
-8.4697282201
 10
-75.3131878295
 20
-8.4695879612
 10
-75.3132546234
 20
-8.469175721
 10
-75.3133623294
 20
-8.4684880666
 10
-75.3135047057
 20
-8.467547641
 10
-75.3136794045
 20
-8.4663544543
 10
-75.3138851009
 20
-8.4649022495
  0
LWPOLYLINE
  5
364
100
AcDbEntity
  8
RACCORDO
100
AcDbPolyline
 62
250
  6
CONTINUOUS
 90
68
 70
0
 10
-75.3333432422
 20
22.5096993135
 10
-75.333055236
 20
22.5077722842
 10
-75.332762949
 20
22.5058767595
 10
-75.3324663737
 20
22.5040128256
 10
-75.3321652218
 20
22.502182216
 10
-75.3318595067
 20
22.5003848647
 10
-75.3315492149
 20
22.4986208376
 10
-75.3312340172
 20
22.4968920655
 10
-75.3309139238
 20
22.4951984425
 10
-75.3305889245
 20
22.4935400745
 10
-75.3302586593
 20
22.4919192098
 10
-75.3299231412
 20
22.4903357385
 10
-75.3295823572
 20
22.4887897704
 10
-75.3292359079
 20
22.4872838839
 10
-75.3288838035
 20
22.4858179391
 10
-75.3285260338
 20
22.4843920758
 10
-75.3281621687
 20
22.4830092917
 10
-75.3277922287
 20
22.4816694639
 10
-75.3274161934
 20
22.4803727153
 10
-75.3270335704
 20
22.4791224123
 10
-75.3266443775
 20
22.4779183905
 10
-75.326248597
 20
22.4767608144
 10
-75.325845683
 20
22.4756535444
 10
-75.3254356557
 20
22.4745963954
 10
-75.3250184949
 20
22.4735895526
 10
-75.3245935945
 20
22.4726374315
 10
-75.3241609821
 20
22.4717398306
 10
-75.3237206301
 20
22.4708969514
 10
-75.3232718503
 20
22.4701138144
 10
-75.3228147019
 20
22.4693902045
 10
-75.3223491258
 20
22.4687263367
 10
-75.3218742563
 20
22.4681278766
 10
-75.3213901546
 20
22.4675945102
 10
-75.3208967596
 20
22.4671265513
 10
-75.3203930227
 20
22.4667306072
 10
-75.3198790295
 20
22.4664062747
 10
-75.3193546943
 20
22.4661539569
 10
-75.3188187118
 20
22.4659814702
 10
-75.3182712775
 20
22.4658882298
 10
-75.3177121958
 20
22.4658748206
 10
-75.317139575
 20
22.4659508141
 10
-75.31655312
 20
22.4661158553
 10
-75.3159531259
 20
22.4663702991
 10
-75.3153385866
 20
22.466724782
 10
-75.3147071577
 20
22.4671828133
 10
-75.3140611837
 20
22.4677408835
 10
-75.3134066914
 20
22.4683991011
 10
-75.31274112
 20
22.4691659556
 10
-75.3120670304
 20
22.4700329574
 10
-75.311398132
 20
22.4709747461
 10
-75.3107358702
 20
22.4719944785
 10
-75.3100787997
 20
22.4730889977
 10
-75.3094362942
 20
22.474223473
 10
-75.3088110044
 20
22.4753941985
 10
-75.3082002796
 20
22.4766048801
 10
-75.3076055415
 20
22.4778318049
 10
-75.307028295
 20
22.4790702756
 10
-75.3064670352
 20
22.4803249894
 10
-75.3059186688
 20
22.4815863253
 10
-75.3053828927
 20
22.4828533179
 10
-75.30486001
 20
22.4841269326
 10
-75.3043478369
 20
22.4854004442
 10
-75.3038459262
 20
22.4866739724
 10
-75.3033547251
 20
22.4879473974
 10
-75.3028733913
 20
22.4892136349
 10
-75.302402023
 20
22.4904717415
 10
-75.3019405219
 20
22.4917226606
 10
-75.3010436347
 20
22.4941898377
  0
LINE
  5
365
100
AcDbEntity
  8
RACCORDO
100
AcDbLine
 62
250
  6
CONTINUOUS
 10
-75.3339066565
 20
22.5136466703
 11
-75.3333432422
 21
22.5096993135
  0
LINE
  5
366
100
AcDbEntity
  8
RACCORDO
100
AcDbLine
 62
7
  6
CONTINUOUS
 10
-75.3138851009
 20
-8.4649022495
 11
-75.314375752
 21
-8.4612615222
  0
LINE
  5
367
100
AcDbEntity
  8
RACCORDO
100
AcDbLine
 62
250
  6
CONTINUOUS
 10
-75.3344539565
 20
22.5177139806
 11
-75.3339066565
 21
22.5136466703
  0
LINE
  5
368
100
AcDbEntity
  8
RACCORDO
100
AcDbLine
 62
250
  6
CONTINUOUS
 10
-75.3349861134
 20
22.521899629
 11
-75.3344539565
 21
22.5177139806
  0
LINE
  5
369
100
AcDbEntity
  8
RACCORDO
100
AcDbLine
 62
7
  6
CONTINUOUS
 10
-75.314375752
 20
-8.4612615222
 11
-75.3149608952
 21
-8.4566360057
  0
LINE
  5
36A
100
AcDbEntity
  8
RACCORDO
100
AcDbLine
 62
250
  6
CONTINUOUS
 10
-76.1592434883
 20
32.215695144
 11
-76.0590180277
 21
31.3776969433
  0
LINE
  5
36B
100
AcDbEntity
  8
RACCORDO
100
AcDbLine
 62
250
  6
CONTINUOUS
 10
-75.3355036865
 20
22.5262022543
 11
-75.3349861134
 21
22.521899629
  0
LINE
  5
36C
100
AcDbEntity
  8
RACCORDO
100
AcDbLine
 62
250
  6
CONTINUOUS
 10
-76.0590180277
 20
31.3776969433
 11
-75.9930700897
 21
30.8208656619
  0
LINE
  5
36D
100
AcDbEntity
  8
RACCORDO
100
AcDbLine
 62
7
  6
CONTINUOUS
 10
-75.3149608952
 20
-8.4566360057
 11
-75.3156245051
 21
-8.451054528
  0
LWPOLYLINE
  5
36E
100
AcDbEntity
  8
RACCORDO
100
AcDbPolyline
 62
250
  6
CONTINUOUS
 90
15
 70
0
 10
-75.9930700897
 20
30.8208656619
 10
-75.9286082732
 20
30.2685106632
 10
-75.8970661208
 20
29.9943580989
 10
-75.8661259182
 20
29.7221476861
 10
-75.8358121294
 20
29.4518539112
 10
-75.80615745
 20
29.1835281553
 10
-75.7772978903
 20
28.9178959939
 10
-75.7492675834
 20
28.6550612822
 10
-75.7220805672
 20
28.3949468912
 10
-75.6958287841
 20
28.1380053546
 10
-75.670531421
 20
27.8842455212
 10
-75.6462082681
 20
27.6336831127
 10
-75.6229369684
 20
27.386778219
 10
-75.6007480749
 20
27.1436909462
 10
-75.5796378269
 20
26.9042870198
  0
LINE
  5
36F
100
AcDbEntity
  8
RACCORDO
100
AcDbLine
 62
250
  6
CONTINUOUS
 10
-75.3360075086
 20
22.5306205671
 11
-75.3355036865
 21
22.5262022543
  0
LINE
  5
370
100
AcDbEntity
  8
RACCORDO
100
AcDbLine
 62
7
  6
CONTINUOUS
 10
-75.3156245051
 20
-8.451054528
 11
-75.3163582165
 21
-8.4444938676
  0
LWPOLYLINE
  5
371
100
AcDbEntity
  8
RACCORDO
100
AcDbPolyline
 62
250
  6
CONTINUOUS
 90
11
 70
0
 10
-75.2055568799
 20
-27.6112964501
 10
-75.2597807261
 20
-27.9033757686
 10
-75.3156791123
 20
-28.1982828262
 10
-75.3732520386
 20
-28.4959927642
 10
-75.4326246012
 20
-28.7967025718
 10
-75.4936717038
 20
-29.1001609242
 10
-75.5560180579
 20
-29.4056677671
 10
-75.6196744171
 20
-29.7131792627
 10
-75.6846300279
 20
-30.0226754456
 10
-75.7504773411
 20
-30.3334901096
 10
-75.8172371265
 20
-30.6456428256
  0
LWPOLYLINE
  5
372
100
AcDbEntity
  8
RACCORDO
100
AcDbPolyline
 62
250
  6
CONTINUOUS
 90
5
 70
0
 10
-75.8172371265
 20
-30.6456428256
 10
-75.9529619457
 20
-31.272864857
 10
-76.0213005007
 20
-31.5868049365
 10
-76.0900608992
 20
-31.901093334
 10
-76.159243141
 20
-32.2156939465
  0
LWPOLYLINE
  5
373
100
AcDbEntity
  8
RACCORDO
100
AcDbPolyline
 62
250
  6
CONTINUOUS
 90
10
 70
0
 10
-74.8980925866
 20
-26.3007534149
 10
-74.9895320732
 20
-26.6719942631
 10
-75.0209431822
 20
-26.7987365805
 10
-75.0513952064
 20
-26.9234118669
 10
-75.0806495024
 20
-27.0451595875
 10
-75.1089447136
 20
-27.1647431698
 10
-75.1356464918
 20
-27.2812725805
 10
-75.1605433875
 20
-27.394423441
 10
-75.1838468502
 20
-27.5044420902
 10
-75.2055568799
 20
-27.6112964501
  0
LINE
  5
374
100
AcDbEntity
  8
RACCORDO
100
AcDbLine
 62
250
  6
CONTINUOUS
 10
-75.2937090931
 20
8.4584587276
 11
-75.2852822763
 21
8.4736967308
  0
LINE
  5
375
100
AcDbEntity
  8
RACCORDO
100
AcDbLine
 62
250
  6
CONTINUOUS
 10
-75.297958953
 20
8.4512257046
 11
-75.2937090931
 21
8.4584587276
  0
LINE
  5
376
100
AcDbEntity
  8
RACCORDO
100
AcDbLine
 62
250
  6
CONTINUOUS
 10
-75.2959068656
 20
8.5940940151
 11
-75.2275752953
 21
8.708165587
  0
LINE
  5
377
100
AcDbEntity
  8
RACCORDO
100
AcDbLine
 62
7
  6
CONTINUOUS
 10
-75.3191642408
 20
8.4158259545
 11
-75.297958953
 21
8.4512257046
  0
LINE
  5
378
100
AcDbEntity
  8
RACCORDO
100
AcDbLine
 62
250
  6
CONTINUOUS
 10
-75.2275752953
 20
-8.708165587
 11
-75.2959068656
 21
-8.5940940151
  0
LINE
  5
379
100
AcDbEntity
  8
RACCORDO
100
AcDbLine
 62
7
  6
CONTINUOUS
 10
-75.297958953
 20
-8.4512257046
 11
-75.3191644732
 21
-8.4158255665
  0
LWPOLYLINE
  5
37A
100
AcDbEntity
  8
RACCORDO
100
AcDbPolyline
 62
250
  6
CONTINUOUS
 90
3
 70
0
 10
-75.2852822763
 20
-8.4736967308
 10
-75.2937090931
 20
-8.4584587276
 10
-75.297958953
 20
-8.4512257046
  0
LINE
  5
37B
100
AcDbEntity
  8
RACCORDO
100
AcDbLine
 62
250
  6
CONTINUOUS
 10
-76.1592431849
 20
32.2156939465
 11
-76.0906755139
 21
31.9443132594
  0
LINE
  5
37C
100
AcDbEntity
  8
RACCORDO
100
AcDbLine
 62
250
  6
CONTINUOUS
 10
-76.0906755139
 20
31.9443132594
 11
-75.9548001748
 21
31.4023966053
  0
LWPOLYLINE
  5
37D
100
AcDbEntity
  8
RACCORDO
100
AcDbPolyline
 62
250
  6
CONTINUOUS
 90
18
 70
0
 10
-75.9548001748
 20
31.4023966053
 10
-75.8202936991
 20
30.8613754978
 10
-75.7541371737
 20
30.5921932484
 10
-75.6888922941
 20
30.3242483166
 10
-75.6245341264
 20
30.0575136364
 10
-75.56145458
 20
29.7925563642
 10
-75.4996579099
 20
29.5293681728
 10
-75.4391398611
 20
29.2680228988
 10
-75.3802795769
 20
29.0092084153
 10
-75.323112887
 20
28.7530358262
 10
-75.2676039618
 20
28.4994488949
 10
-75.2140244556
 20
28.2488804541
 10
-75.1623907456
 20
28.0013433959
 10
-75.1126864547
 20
27.7568672897
 10
-75.0651341059
 20
27.5159051033
 10
-75.0198078735
 20
27.278616698
 10
-74.9766335833
 20
27.0448703123
 10
-74.9356112352
 20
26.8146773088
  0
LINE
  5
37E
100
AcDbEntity
  8
RACCORDO
100
AcDbLine
 62
250
  6
CONTINUOUS
 10
-74.8880606719
 20
26.5653754651
 11
-74.8149895862
 21
26.1868904935
  0
LWPOLYLINE
  5
37F
100
AcDbEntity
  8
RACCORDO
100
AcDbPolyline
 62
250
  6
CONTINUOUS
 90
17
 70
0
 10
-74.8149895862
 20
26.1868904935
 10
-74.7912649768
 20
26.0626050336
 10
-74.7686376577
 20
25.9415952732
 10
-74.7468983277
 20
25.8230816724
 10
-74.7264482866
 20
25.7074458197
 10
-74.7073468274
 20
25.5946777062
 10
-74.6895346571
 20
25.4847772121
 10
-74.6732351971
 20
25.3781265247
 10
-74.6585179694
 20
25.2748673408
 10
-74.6453134521
 20
25.1748200555
 10
-74.6336365006
 20
25.077877224
 10
-74.6235150513
 20
24.9840802767
 10
-74.6149211678
 20
24.8933413472
 10
-74.6077858966
 20
24.8053620088
 10
-74.6020862531
 20
24.7200293891
 10
-74.5978452219
 20
24.6374116702
 10
-74.5950628028
 20
24.557484522
  0
LINE
  5
380
100
AcDbEntity
  8
RACCORDO
100
AcDbLine
 62
250
  6
CONTINUOUS
 10
-74.9356112352
 20
26.8146773088
 11
-74.8880606719
 21
26.5653754651
  0
LWPOLYLINE
  5
381
100
AcDbEntity
  8
RACCORDO
100
AcDbPolyline
 62
250
  6
CONTINUOUS
 90
22
 70
0
 10
-74.9537341111
 20
22.8486239796
 10
-74.9577047857
 20
22.8466304671
 10
-74.9612879995
 20
22.8447951061
 10
-74.9645420482
 20
22.8431065574
 10
-74.967468433
 20
22.8415566526
 10
-74.9700656526
 20
22.8401373319
 10
-74.9723874992
 20
22.8388385767
 10
-74.9744356072
 20
22.8376532742
 10
-74.9762083422
 20
22.8365744109
 10
-74.9777545924
 20
22.83559324
 10
-74.9790762534
 20
22.8347032634
 10
-74.9801714297
 20
22.8338989063
 10
-74.9810833225
 20
22.833173659
 10
-74.9818128311
 20
22.83252183
 10
-74.9823590563
 20
22.8319384946
 10
-74.9827625008
 20
22.8314187119
 10
-74.9830237793
 20
22.8309579613
 10
-74.9831422772
 20
22.8305511431
 10
-74.9831566532
 20
22.8301929452
 10
-74.9830797936
 20
22.8298790385
 10
-74.9828988121
 20
22.8296058214
 10
-74.9826137088
 20
22.8293695705
  0
LWPOLYLINE
  5
382
100
AcDbEntity
  8
RACCORDO
100
AcDbPolyline
 62
250
  6
CONTINUOUS
 90
3
 70
0
 10
-74.7724531308
 20
22.9366346855
 10
-74.797452193
 20
22.9240676853
 10
-74.8101326039
 20
22.9177780178
  0
LINE
  5
383
100
AcDbEntity
  8
RACCORDO
100
AcDbLine
 62
250
  6
CONTINUOUS
 10
-74.9446330601
 20
22.853122055
 11
-74.9537341111
 21
22.8486239796
  0
LINE
  5
384
100
AcDbEntity
  8
RACCORDO
100
AcDbLine
 62
250
  6
CONTINUOUS
 10
-74.8101326039
 20
22.9177780178
 11
-74.8472294092
 21
22.8997224729
  0
LINE
  5
385
100
AcDbEntity
  8
RACCORDO
100
AcDbLine
 62
250
  6
CONTINUOUS
 10
-74.9277040207
 20
22.8613108483
 11
-74.9446330601
 21
22.853122055
  0
LINE
  5
386
100
AcDbEntity
  8
RACCORDO
100
AcDbLine
 62
250
  6
CONTINUOUS
 10
-74.8472294092
 20
22.8997224729
 11
-74.8798718844
 21
22.8841068328
  0
LWPOLYLINE
  5
387
100
AcDbEntity
  8
RACCORDO
100
AcDbPolyline
 62
250
  6
CONTINUOUS
 90
3
 70
0
 10
-74.8798718844
 20
22.8841068328
 10
-74.8981116281
 20
22.8754218481
 10
-74.9277040207
 20
22.8613108483
  0
LWPOLYLINE
  5
388
100
AcDbEntity
  8
RACCORDO
100
AcDbPolyline
 62
250
  6
CONTINUOUS
 90
22
 70
0
 10
-75.5596200072
 20
26.6685813041
 10
-75.5446499901
 20
26.6736816305
 10
-75.5291169772
 20
26.6788102373
 10
-75.5130353271
 20
26.6839623836
 10
-75.4964199057
 20
26.6891333067
 10
-75.4792860723
 20
26.6943182266
 10
-75.4616496656
 20
26.6995123503
 10
-75.4435269885
 20
26.7047108765
 10
-75.4249347937
 20
26.7099089995
 10
-75.4058902678
 20
26.7151019143
 10
-75.3864110157
 20
26.7202848205
 10
-75.3665150439
 20
26.725452927
 10
-75.3462207443
 20
26.7306014564
 10
-75.3255468769
 20
26.7357256494
 10
-75.3045125528
 20
26.7408207692
 10
-75.283137216
 20
26.7458821059
 10
-75.2614406259
 20
26.7509049808
 10
-75.2394428389
 20
26.7558847507
 10
-75.2171641897
 20
26.7608168123
 10
-75.1946252728
 20
26.7656966064
 10
-75.1718469231
 20
26.7705196221
 10
-75.148850197
 20
26.775281401
  0
LINE
  5
389
100
AcDbEntity
  8
RACCORDO
100
AcDbLine
 62
250
  6
CONTINUOUS
 10
-74.9337287177
 20
-22.858347994
 11
-74.8492355334
 21
-22.896873941
  0
LINE
  5
38A
100
AcDbEntity
  8
RACCORDO
100
AcDbLine
 62
250
  6
CONTINUOUS
 10
-74.8492355334
 20
-22.896873941
 11
-74.8254197038
 21
-22.907854729
  0
LWPOLYLINE
  5
38B
100
AcDbEntity
  8
RACCORDO
100
AcDbPolyline
 62
250
  6
CONTINUOUS
 90
3
 70
0
 10
-74.9491289314
 20
-22.8511795003
 10
-74.9444067774
 20
-22.8533931613
 10
-74.9337287177
 20
-22.858347994
  0
LWPOLYLINE
  5
38C
100
AcDbEntity
  8
RACCORDO
100
AcDbPolyline
 62
250
  6
CONTINUOUS
 90
4
 70
0
 10
-74.8254197038
 20
-22.907854729
 10
-74.801137694
 20
-22.9192500685
 10
-74.7890040688
 20
-22.9249979185
 10
-74.7770255869
 20
-22.9307527991
  0
LWPOLYLINE
  5
38D
100
AcDbEntity
  8
RACCORDO
100
AcDbPolyline
 62
250
  6
CONTINUOUS
 90
42
 70
0
 10
-74.7770255869
 20
-22.9307527991
 10
-74.7535879157
 20
-22.9422048371
 10
-74.7422017372
 20
-22.9478924847
 10
-74.7310991684
 20
-22.9535295388
 10
-74.7202516849
 20
-22.9591146525
 10
-74.7096736562
 20
-22.9646768216
 10
-74.6993871718
 20
-22.9701980298
 10
-74.6893701421
 20
-22.9756792751
 10
-74.6795706671
 20
-22.9811844725
 10
-74.6699539146
 20
-22.9867298335
 10
-74.6605547168
 20
-22.9922914672
 10
-74.65142567
 20
-22.9978774296
 10
-74.6425181959
 20
-23.0035217674
 10
-74.6338808729
 20
-23.0091846888
 10
-74.6257120334
 20
-23.0147599189
 10
-74.6180930576
 20
-23.020192042
 10
-74.6109425654
 20
-23.0255211145
 10
-74.6042147487
 20
-23.0307817458
 10
-74.597903727
 20
-23.0359758488
 10
-74.5920153808
 20
-23.04109191
 10
-74.5865215431
 20
-23.04614677
 10
-74.5814192621
 20
-23.0511435487
 10
-74.5767114896
 20
-23.056071737
 10
-74.5723789144
 20
-23.0609286069
 10
-74.5684256398
 20
-23.0657122798
 10
-74.5648475625
 20
-23.070417926
 10
-74.5616130604
 20
-23.0750385015
 10
-74.5587263049
 20
-23.0795712529
 10
-74.5561831247
 20
-23.0840127403
 10
-74.5539393832
 20
-23.0883548677
 10
-74.5519976915
 20
-23.0925960348
 10
-74.5503554386
 20
-23.0967321595
 10
-74.5489606552
 20
-23.1007513223
 10
-74.5478154204
 20
-23.1046462648
 10
-74.5469176552
 20
-23.1084188903
 10
-74.5462091529
 20
-23.1120711093
 10
-74.5456864392
 20
-23.1155795468
 10
-74.5453529884
 20
-23.1189629323
 10
-74.5451610175
 20
-23.1222875046
 10
-74.5450945986
 20
-23.1255750439
 10
-74.5451696596
 20
-23.1288018324
 10
-74.5453862003
 20
-23.1319668478
  0
LINE
  5
38E
100
AcDbEntity
  8
RACCORDO
100
AcDbLine
 62
250
  6
CONTINUOUS
 10
75.6928959636
 20
-27.514250199
 11
75.6526247753
 21
-27.5232517502
  0
LINE
  5
38F
100
AcDbEntity
  8
RACCORDO
100
AcDbLine
 62
250
  6
CONTINUOUS
 10
75.6526247753
 20
-27.5232517502
 11
75.6105494558
 21
-27.5324102677
  0
LINE
  5
390
100
AcDbEntity
  8
RACCORDO
100
AcDbLine
 62
250
  6
CONTINUOUS
 10
75.6105494558
 20
-27.5324102677
 11
75.5668397989
 21
-27.5416887927
  0
LINE
  5
391
100
AcDbEntity
  8
RACCORDO
100
AcDbLine
 62
250
  6
CONTINUOUS
 10
75.5668397989
 20
-27.5416887927
 11
75.5216721941
 21
-27.5510498819
  0
LINE
  5
392
100
AcDbEntity
  8
RACCORDO
100
AcDbLine
 62
250
  6
CONTINUOUS
 10
75.5216721941
 20
-27.5510498819
 11
75.4752289139
 21
-27.5604557588
  0
LINE
  5
393
100
AcDbEntity
  8
RACCORDO
100
AcDbLine
 62
250
  6
CONTINUOUS
 10
-75.5216721901
 20
-27.5510498827
 11
-75.4752289119
 21
-27.5604557595
  0
LINE
  5
394
100
AcDbEntity
  8
RACCORDO
100
AcDbLine
 62
250
  6
CONTINUOUS
 10
-75.5668397925
 20
-27.5416887937
 11
-75.5216721901
 21
-27.5510498827
  0
LINE
  5
395
100
AcDbEntity
  8
RACCORDO
100
AcDbLine
 62
250
  6
CONTINUOUS
 10
-75.6105494463
 20
-27.5324102689
 11
-75.5668397925
 21
-27.5416887937
  0
LINE
  5
396
100
AcDbEntity
  8
RACCORDO
100
AcDbLine
 62
250
  6
CONTINUOUS
 10
-75.6526247624
 20
-27.5232517515
 11
-75.6105494463
 21
-27.5324102689
  0
LINE
  5
397
100
AcDbEntity
  8
RACCORDO
100
AcDbLine
 62
250
  6
CONTINUOUS
 10
-75.6928959467
 20
-27.5142502006
 11
-75.6526247624
 21
-27.5232517515
  0
LWPOLYLINE
  5
398
100
AcDbEntity
  8
0
100
AcDbPolyline
 62
7
  6
CONTINUOUS
 90
3
 70
0
 43
0.3500000006
 10
-5.2499999027
 20
51.8928551788
 10
-4.3928571482
 20
52.750002182
 10
-4.3928571482
 20
49.7500012665
  0
LWPOLYLINE
  5
399
100
AcDbEntity
  8
0
100
AcDbPolyline
 62
7
  6
CONTINUOUS
 90
10
 70
0
 43
0.3500000006
 10
-3.1071428747
 20
49.7500012665
 10
-2.2499999785
 20
50.6071437378
 10
-2.0357142191
 20
51.4642862091
 10
-2.0357142191
 20
52.3214286804
 10
-2.464285738
 20
52.750002182
 10
-3.1071428747
 20
52.750002182
 10
-3.5357143936
 20
52.3214286804
 10
-3.5357143936
 20
51.4642862091
 10
-3.1071428747
 20
51.0357127075
 10
-2.1785714865
 20
51.0357127075
  0
LINE
  5
39A
100
AcDbEntity
  8
RACCORDO
100
AcDbLine
 62
250
  6
CONTINUOUS
 10
-75.2275752953
 20
-22.4751534362
 11
-75.2829772403
 21
-22.5305553812
  0
LINE
  5
39B
100
AcDbEntity
  8
RACCORDO
100
AcDbLine
 62
250
  6
CONTINUOUS
 10
-74.9279864348
 20
-22.7747422966
 11
-74.9833883798
 21
-22.8301442416
  0
LWPOLYLINE
  5
39C
100
AcDbEntity
  8
RACCORDO
100
AcDbPolyline
 62
250
  6
CONTINUOUS
 90
48
 70
0
 10
-75.2829772403
 20
-22.5305553812
 10
-75.2831571607
 20
-22.530725277
 10
-75.2833385537
 20
-22.5308759051
 10
-75.2835214191
 20
-22.5310072658
 10
-75.2837057169
 20
-22.5311194496
 10
-75.2838914873
 20
-22.5312123658
 10
-75.2840788504
 20
-22.5312857422
 10
-75.2842678039
 20
-22.5313395967
 10
-75.2844583502
 20
-22.5313739113
 10
-75.2846506172
 20
-22.5313883599
 10
-75.2848446025
 20
-22.5313829582
 10
-75.2850403084
 20
-22.5313576904
 10
-75.2852378701
 20
-22.5313121834
 10
-75.2854372831
 20
-22.531246452
 10
-75.2856385519
 20
-22.5311604813
 10
-75.2858418241
 20
-22.5310538533
 10
-75.2860470975
 20
-22.5309265798
 10
-75.2862543744
 20
-22.530778649
 10
-75.2864638094
 20
-22.5306096072
 10
-75.2866754011
 20
-22.530419461
 10
-75.2868891508
 20
-22.5302082038
 10
-75.287105218
 20
-22.5299753624
 10
-75.2873235984
 20
-22.5297209416
 10
-75.2875442963
 20
-22.5294449367
 10
-75.2877674838
 20
-22.5291468595
 10
-75.287993153
 20
-22.5288267183
 10
-75.2882213118
 20
-22.5284845049
 10
-75.2884521567
 20
-22.5281197062
 10
-75.2886856849
 20
-22.5277323185
 10
-75.2889218991
 20
-22.5273223456
 10
-75.2891610038
 20
-22.5268892854
 10
-75.2894029952
 20
-22.5264331279
 10
-75.2896478769
 20
-22.5259538831
 10
-75.2898958643
 20
-22.525451079
 10
-75.2901469419
 20
-22.524924725
 10
-75.2904011251
 20
-22.5243748117
 10
-75.2906586746
 20
-22.5238008381
 10
-75.2909195817
 20
-22.5232027967
 10
-75.2911838551
 20
-22.5225806949
 10
-75.2914517823
 20
-22.5219340551
 10
-75.2917233786
 20
-22.5212627926
 10
-75.2919986286
 20
-22.5205669921
 10
-75.2922777735
 20
-22.5198464292
 10
-75.2925608091
 20
-22.5191010472
 10
-75.2928477396
 20
-22.5183309029
 10
-75.293138819
 20
-22.5175359424
 10
-75.2934340042
 20
-22.51671621
 10
-75.2937333384
 20
-22.5158716614
  0
LINE
  5
39D
100
AcDbEntity
  8
RACCORDO
100
AcDbLine
 62
250
  6
CONTINUOUS
 10
75.4752289139
 20
-27.5604557588
 11
75.4035833074
 21
-27.5745655081
  0
LINE
  5
39E
100
AcDbEntity
  8
RACCORDO
100
AcDbLine
 62
250
  6
CONTINUOUS
 10
75.4035833074
 20
-27.5745655081
 11
75.3301404134
 21
-27.5885625595
  0
LINE
  5
39F
100
AcDbEntity
  8
RACCORDO
100
AcDbLine
 62
250
  6
CONTINUOUS
 10
75.3301404134
 20
-27.5885625595
 11
75.2555667999
 21
-27.6023198759
  0
LINE
  5
3A0
100
AcDbEntity
  8
RACCORDO
100
AcDbLine
 62
250
  6
CONTINUOUS
 10
75.2555667999
 20
-27.6023198759
 11
75.2055568799
 21
-27.6112964502
  0
LINE
  5
3A1
100
AcDbEntity
  8
0
100
AcDbLine
 62
7
  6
CONTINUOUS
 10
-89.1292815281
 20
-41.0
 11
89.1292815281
 21
-41.0
  0
LINE
  5
3A2
100
AcDbEntity
  8
0
100
AcDbLine
 62
250
  6
CONTINUOUS
 10
89.1292815281
 20
-40.7622148997
 11
-89.1292815281
 21
-40.7622148997
  0
LINE
  5
3A3
100
AcDbEntity
  8
0
100
AcDbLine
 62
250
  6
CONTINUOUS
 10
89.1292815281
 20
-35.8557926453
 11
-89.1292815281
 21
-35.8557926453
  0
LWPOLYLINE
  5
3A4
100
AcDbEntity
  8
0
100
AcDbPolyline
 62
250
  6
CONTINUOUS
 90
85
 70
0
 10
-89.1292815281
 20
-40.7622148997
 10
-89.2637697548
 20
-40.7610459613
 10
-89.3982181871
 20
-40.7575395095
 10
-89.5325860694
 20
-40.7516965634
 10
-89.6668324494
 20
-40.7435188579
 10
-89.800916851
 20
-40.7330088418
 10
-89.934799286
 20
-40.7201696383
 10
-90.0684393106
 20
-40.7050050522
 10
-90.2017962612
 20
-40.6875196473
 10
-90.3348299287
 20
-40.6677187036
 10
-90.4674998992
 20
-40.6456081724
 10
-90.5997660267
 20
-40.6211946997
 10
-90.7315886694
 20
-40.5944856292
 10
-90.8629277723
 20
-40.5654890001
 10
-90.9937435926
 20
-40.5342135325
 10
-91.1239971719
 20
-40.5006685765
 10
-91.2536490311
 20
-40.4648641958
 10
-91.3826598208
 20
-40.4268111734
 10
-91.510991042
 20
-40.3865209033
 10
-91.6386037957
 20
-40.3440054721
 10
-91.7654593341
 20
-40.2992776833
 10
-91.8915197038
 20
-40.2523509652
 10
-92.0167466658
 20
-40.2032394103
 10
-92.1411022054
 20
-40.1519578044
 10
-92.2645490797
 20
-40.0985215634
 10
-92.387049806
 20
-40.0429467553
 10
-92.5085672134
 20
-39.9852501055
 10
-92.6290649498
 20
-39.9254489426
 10
-92.7485064452
 20
-39.8635612386
 10
-92.8668554146
 20
-39.7996056359
 10
-92.9840764059
 20
-39.7336013719
 10
-93.1001338168
 20
-39.6655683
 10
-93.2149923923
 20
-39.5955269106
 10
-93.3286177239
 20
-39.5234982782
 10
-93.4409753048
 20
-39.4495040647
 10
-93.5520309729
 20
-39.3735665718
 10
-93.661751409
 20
-39.2957086893
 10
-93.7701032576
 20
-39.2159538586
 10
-93.877053584
 20
-39.1343261104
 10
-93.9825703179
 20
-39.0508500444
 10
-94.0866213896
 20
-38.9655507844
 10
-94.1891751346
 20
-38.8784540558
 10
-94.2902007542
 20
-38.7895861563
 10
-94.3896675108
 20
-38.6989738622
 10
-94.4875451421
 20
-38.6066444931
 10
-94.5838042711
 20
-38.5126259222
 10
-94.6784156158
 20
-38.4169464679
 10
-94.7713503563
 20
-38.3196350049
 10
-94.8625805588
 20
-38.2207209676
 10
-94.952078438
 20
-38.1202341843
 10
-95.03981674
 20
-38.0182049682
 10
-95.1257691191
 20
-37.9146641683
 10
-95.2099094034
 20
-37.8096429926
 10
-95.2922119347
 20
-37.7031731559
 10
-95.372651967
 20
-37.5952869136
 10
-95.4512049774
 20
-37.48601682
 10
-95.5278470171
 20
-37.3753958595
 10
-95.6025550661
 20
-37.2634575373
 10
-95.6753063494
 20
-37.1502356187
 10
-95.746078658
 20
-37.0357643116
 10
-95.8148507202
 20
-36.920078345
 10
-95.8816015403
 20
-36.8032126587
 10
-95.9463107481
 20
-36.685202539
 10
-96.0089589387
 20
-36.5660837468
 10
-96.0695269921
 20
-36.445892225
 10
-96.1279963863
 20
-36.3246643131
 10
-96.1843495725
 20
-36.2024368307
 10
-96.2385693308
 20
-36.0792466889
 10
-96.290639076
 20
-35.9551311224
 10
-96.3405431987
 20
-35.8301278519
 10
-96.3882664318
 20
-35.7042746454
 10
-96.4337941688
 20
-35.5776095408
 10
-96.4771128006
 20
-35.4501710267
 10
-96.5182090538
 20
-35.3219976478
 10
-96.5570703411
 20
-35.1931281158
 10
-96.5936851052
 20
-35.0636014791
 10
-96.6280421236
 20
-34.9334568027
 10
-96.6601308248
 20
-34.8027335128
 10
-96.6899416732
 20
-34.6714714561
 10
-96.7174655056
 20
-34.5397103727
 10
-96.7426938506
 20
-34.407490038
 10
-96.7656192702
 20
-34.2748505532
 10
-96.786234802
 20
-34.1418320548
 10
-96.8045339544
 20
-34.0084747217
 10
-96.8205110488
 20
-33.8748188837
  0
LWPOLYLINE
  5
3A5
100
AcDbEntity
  8
0
100
AcDbPolyline
 62
250
  6
CONTINUOUS
 90
85
 70
0
 10
-89.1292815281
 20
-35.8557926453
 10
-89.1690167412
 20
-35.8554384141
 10
-89.2087159636
 20
-35.8543784782
 10
-89.2483791952
 20
-35.852612837
 10
-89.2880188569
 20
-35.850140494
 10
-89.3276225278
 20
-35.846962443
 10
-89.3671529452
 20
-35.8430816679
 10
-89.4066098662
 20
-35.8384974959
 10
-89.4459935337
 20
-35.8332105946
 10
-89.4852674137
 20
-35.8272259575
 10
-89.5244313741
 20
-35.8205429202
 10
-89.5634855469
 20
-35.8131621392
 10
-89.6023937947
 20
-35.80509059
 10
-89.6411559497
 20
-35.796327622
 10
-89.6797721797
 20
-35.7868738754
 10
-89.7182068509
 20
-35.7767382608
 10
-89.7564597932
 20
-35.7659201302
 10
-89.7945311767
 20
-35.7544201189
 10
-89.8323858781
 20
-35.7422490623
 10
-89.8700236948
 20
-35.7294063199
 10
-89.9074448294
 20
-35.7158925174
 10
-89.9446147665
 20
-35.701720388
 10
-89.9815332638
 20
-35.6868893045
 10
-90.0182005637
 20
-35.6713998773
 10
-90.054582878
 20
-35.6552666965
 10
-90.0906799238
 20
-35.6384891529
 10
-90.1264919841
 20
-35.621067837
 10
-90.1619861189
 20
-35.6030191386
 10
-90.1971620226
 20
-35.5843424606
 10
-90.2320200007
 20
-35.5650383799
 10
-90.26652803
 20
-35.5451250466
 10
-90.3006857698
 20
-35.5246018843
 10
-90.3344935607
 20
-35.5034694479
 10
-90.3679204014
 20
-35.4817475854
 10
-90.4009659266
 20
-35.4594357368
 10
-90.4336305016
 20
-35.4365344393
 10
-90.4658842212
 20
-35.4130651874
 10
-90.4977266854
 20
-35.3890274474
 10
-90.5291582942
 20
-35.3644217294
 10
-90.5601503432
 20
-35.3392710943
 10
-90.5907024118
 20
-35.3135750265
 10
-90.6208149206
 20
-35.2873340176
 10
-90.6504604265
 20
-35.2605726397
 10
-90.6796384772
 20
-35.2332904077
 10
-90.708349525
 20
-35.2054877826
 10
-90.7365674839
 20
-35.1771907564
 10
-90.7642918837
 20
-35.1483988645
 10
-90.7915231947
 20
-35.1191125473
 10
-90.8182367419
 20
-35.0893591555
 10
-90.8444320263
 20
-35.0591382591
 10
-90.8701095468
 20
-35.0284502642
 10
-90.8952461259
 20
-34.9973237765
 10
-90.9198412497
 20
-34.9657583877
 10
-90.9438954319
 20
-34.9337544829
 10
-90.9673870358
 20
-34.9013418587
 10
-90.9903155231
 20
-34.8685201442
 10
-91.0126814321
 20
-34.8352896879
 10
-91.0344647404
 20
-34.8016813671
 10
-91.0556648968
 20
-34.7676948358
 10
-91.0762824525
 20
-34.7333304187
 10
-91.0962990387
 20
-34.6986200007
 10
-91.1157140833
 20
-34.6635632781
 10
-91.1345281585
 20
-34.6281605347
 10
-91.1527246119
 20
-34.592444539
 10
-91.1703028642
 20
-34.5564150078
 10
-91.1872634947
 20
-34.5200722059
 10
-91.2035915887
 20
-34.4834497261
 10
-91.2192865516
 20
-34.4465473243
 10
-91.234348978
 20
-34.4093652279
 10
-91.2487657375
 20
-34.3719377388
 10
-91.2625362242
 20
-34.3342646503
 10
-91.2756610439
 20
-34.2963461543
 10
-91.2881288836
 20
-34.2582171535
 10
-91.2999391282
 20
-34.2198774861
 10
-91.3110923928
 20
-34.181327301
 10
-91.3215792094
 20
-34.1426019694
 10
-91.3313989643
 20
-34.1037013295
 10
-91.3405522712
 20
-34.0646255325
 10
-91.3490315038
 20
-34.0254104214
 10
-91.3568360589
 20
-33.9860556865
 10
-91.3639665397
 20
-33.9465616294
 10
-91.3704171292
 20
-33.9069650124
 10
-91.3761858884
 20
-33.8672780884
 10
-91.3812747562
 20
-33.8274885991
 10
-91.3856837327
 20
-33.7875965416
  0
LINE
  5
3A6
100
AcDbEntity
  8
RACCORDO
100
AcDbLine
 62
250
  6
CONTINUOUS
 10
-75.2805086718
 20
-27.5977685061
 11
-75.2055568799
 21
-27.6112964502
  0
LINE
  5
3A7
100
AcDbEntity
  8
RACCORDO
100
AcDbLine
 62
250
  6
CONTINUOUS
 10
-75.3547802009
 20
-27.5839172737
 11
-75.2805086718
 21
-27.5977685061
  0
LINE
  5
3A8
100
AcDbEntity
  8
RACCORDO
100
AcDbLine
 62
250
  6
CONTINUOUS
 10
-75.4276973787
 20
-27.5698684669
 11
-75.3547802009
 21
-27.5839172737
  0
LINE
  5
3A9
100
AcDbEntity
  8
RACCORDO
100
AcDbLine
 62
250
  6
CONTINUOUS
 10
-75.4752289119
 20
-27.5604557595
 11
-75.4276973787
 21
-27.5698684669
  0
LINE
  5
3AA
100
AcDbEntity
  8
RACCORDO
100
AcDbLine
 62
250
  6
CONTINUOUS
 10
-75.2822025692
 20
22.5297807101
 11
-75.2275752953
 21
22.4751534362
  0
LINE
  5
3AB
100
AcDbEntity
  8
RACCORDO
100
AcDbLine
 62
250
  6
CONTINUOUS
 10
-74.9826137088
 20
22.8293695705
 11
-74.9279864348
 21
22.7747422966
  0
LWPOLYLINE
  5
3AC
100
AcDbEntity
  8
RACCORDO
100
AcDbPolyline
 62
250
  6
CONTINUOUS
 90
23
 70
0
 10
-74.9833883798
 20
-22.8301442416
 10
-74.9836537437
 20
-22.8303626847
 10
-74.9838259003
 20
-22.830613634
 10
-74.9839048498
 20
-22.8309002712
 10
-74.9839024237
 20
-22.8312255526
 10
-74.9838067905
 20
-22.8315932791
 10
-74.9835824552
 20
-22.8320084014
 10
-74.9832302124
 20
-22.8324754899
 10
-74.9827492675
 20
-22.83299838
 10
-74.9821017412
 20
-22.8335814425
 10
-74.9812881732
 20
-22.8342291558
 10
-74.9803080238
 20
-22.8349463701
 10
-74.9791217956
 20
-22.8357383094
 10
-74.9777312931
 20
-22.8366096089
 10
-74.9761347117
 20
-22.8375660239
 10
-74.9742871404
 20
-22.8386150986
 10
-74.9721901343
 20
-22.8397628626
 10
-74.9698421382
 20
-22.8410154557
 10
-74.9671935758
 20
-22.8423815481
 10
-74.9642458614
 20
-22.8438681027
 10
-74.9609975807
 20
-22.8454821516
 10
-74.9573949139
 20
-22.847233463
 10
-74.9491289314
 20
-22.8511795003
  0
LWPOLYLINE
  5
3AD
100
AcDbEntity
  8
RACCORDO
100
AcDbPolyline
 62
250
  6
CONTINUOUS
 90
3
 70
0
 10
-75.3437344037
 20
-7.6198268758
 10
-75.3431353568
 20
-7.6194547921
 10
-75.3430495029
 20
-7.6192508752
  0
LINE
  5
3AE
100
AcDbEntity
  8
0
100
AcDbLine
 62
250
  6
CONTINUOUS
 10
-93.456471165
 20
-33.9603886729
 11
-93.2583886585
 21
-33.9475102786
  0
LINE
  5
3AF
100
AcDbEntity
  8
0
100
AcDbLine
 62
250
  6
CONTINUOUS
 10
-93.6514338239
 20
-33.9722068127
 11
-93.456471165
 21
-33.9603886729
  0
LINE
  5
3B0
100
AcDbEntity
  8
0
100
AcDbLine
 62
250
  6
CONTINUOUS
 10
-93.8429829045
 20
-33.9829468927
 11
-93.6514338239
 21
-33.9722068127
  0
LINE
  5
3B1
100
AcDbEntity
  8
0
100
AcDbLine
 62
250
  6
CONTINUOUS
 10
-94.0308298191
 20
-33.992592732
 11
-93.8429829045
 21
-33.9829468927
  0
LINE
  5
3B2
100
AcDbEntity
  8
0
100
AcDbLine
 62
250
  6
CONTINUOUS
 10
-94.2146915576
 20
-34.0011297981
 11
-94.0308298191
 21
-33.992592732
  0
LINE
  5
3B3
100
AcDbEntity
  8
0
100
AcDbLine
 62
250
  6
CONTINUOUS
 10
-94.3942911139
 20
-34.008545229
 11
-94.2146915576
 21
-34.0011297981
  0
LINE
  5
3B4
100
AcDbEntity
  8
0
100
AcDbLine
 62
250
  6
CONTINUOUS
 10
-94.5693579034
 20
-34.0148278528
 11
-94.3942911139
 21
-34.008545229
  0
LINE
  5
3B5
100
AcDbEntity
  8
0
100
AcDbLine
 62
250
  6
CONTINUOUS
 10
-94.7396281705
 20
-34.019968204
 11
-94.5693579034
 21
-34.0148278528
  0
LINE
  5
3B6
100
AcDbEntity
  8
0
100
AcDbLine
 62
250
  6
CONTINUOUS
 10
-94.9048453862
 20
-34.0239585382
 11
-94.7396281705
 21
-34.019968204
  0
LINE
  5
3B7
100
AcDbEntity
  8
0
100
AcDbLine
 62
250
  6
CONTINUOUS
 10
-95.0647606342
 20
-34.0267928434
 11
-94.9048453862
 21
-34.0239585382
  0
LINE
  5
3B8
100
AcDbEntity
  8
0
100
AcDbLine
 62
250
  6
CONTINUOUS
 10
-95.2191329863
 20
-34.0284668497
 11
-95.0647606342
 21
-34.0267928434
  0
LINE
  5
3B9
100
AcDbEntity
  8
0
100
AcDbLine
 62
250
  6
CONTINUOUS
 10
95.5103273912
 20
-34.0283256282
 11
95.3677298618
 21
-34.0289780343
  0
LINE
  5
3BA
100
AcDbEntity
  8
0
100
AcDbLine
 62
250
  6
CONTINUOUS
 10
-95.3677298651
 20
-34.0289780348
 11
-95.2191329863
 21
-34.0284668497
  0
LINE
  5
3BB
100
AcDbEntity
  8
RACCORDO
100
AcDbLine
 62
250
  6
CONTINUOUS
 10
76.159243141
 20
-32.2156939465
 11
-76.159243141
 21
-32.2156939465
  0
LINE
  5
3BC
100
AcDbEntity
  8
RACCORDO
100
AcDbLine
 62
250
  6
CONTINUOUS
 10
-75.2055568799
 20
-27.6112964501
 11
75.2055568799
 21
-27.6112964501
  0
LINE
  5
3BD
100
AcDbEntity
  8
0
100
AcDbLine
 62
250
  6
CONTINUOUS
 10
95.3677298618
 20
-34.0289780343
 11
95.2191329832
 21
-34.0284668492
  0
LINE
  5
3BE
100
AcDbEntity
  8
0
100
AcDbLine
 62
250
  6
CONTINUOUS
 10
95.2191329832
 20
-34.0284668492
 11
95.0647606313
 21
-34.026792843
  0
LINE
  5
3BF
100
AcDbEntity
  8
0
100
AcDbLine
 62
250
  6
CONTINUOUS
 10
95.0647606313
 20
-34.026792843
 11
94.9048453834
 21
-34.0239585377
  0
LINE
  5
3C0
100
AcDbEntity
  8
0
100
AcDbLine
 62
250
  6
CONTINUOUS
 10
94.9048453834
 20
-34.0239585377
 11
94.7396281679
 21
-34.0199682036
  0
LINE
  5
3C1
100
AcDbEntity
  8
0
100
AcDbLine
 62
250
  6
CONTINUOUS
 10
94.7396281679
 20
-34.0199682036
 11
94.5693579009
 21
-34.0148278524
  0
LINE
  5
3C2
100
AcDbEntity
  8
0
100
AcDbLine
 62
250
  6
CONTINUOUS
 10
94.5693579009
 20
-34.0148278524
 11
94.3942911116
 21
-34.0085452287
  0
LINE
  5
3C3
100
AcDbEntity
  8
0
100
AcDbLine
 62
250
  6
CONTINUOUS
 10
94.3942911116
 20
-34.0085452287
 11
94.2146915555
 21
-34.0011297977
  0
LINE
  5
3C4
100
AcDbEntity
  8
0
100
AcDbLine
 62
250
  6
CONTINUOUS
 10
94.2146915555
 20
-34.0011297977
 11
94.0308298172
 21
-33.9925927316
  0
LINE
  5
3C5
100
AcDbEntity
  8
0
100
AcDbLine
 62
250
  6
CONTINUOUS
 10
94.0308298172
 20
-33.9925927316
 11
93.8429829028
 21
-33.9829468924
  0
LINE
  5
3C6
100
AcDbEntity
  8
0
100
AcDbLine
 62
250
  6
CONTINUOUS
 10
93.8429829028
 20
-33.9829468924
 11
93.6514338223
 21
-33.9722068124
  0
LINE
  5
3C7
100
AcDbEntity
  8
0
100
AcDbLine
 62
250
  6
CONTINUOUS
 10
93.6514338223
 20
-33.9722068124
 11
93.4564711636
 21
-33.9603886727
  0
LINE
  5
3C8
100
AcDbEntity
  8
0
100
AcDbLine
 62
250
  6
CONTINUOUS
 10
93.4564711636
 20
-33.9603886727
 11
93.2583886572
 21
-33.9475102784
  0
LWPOLYLINE
  5
3C9
100
AcDbEntity
  8
RACCORDO
100
AcDbPolyline
 62
250
  6
CONTINUOUS
 90
3
 70
0
 10
-75.3437344037
 20
7.6198268757
 10
-75.3431353537
 20
7.6194575347
 10
-75.3430494983
 20
7.6192548231
  0
LINE
  5
3CA
100
AcDbEntity
  8
0
100
AcDbLine
 62
250
  6
CONTINUOUS
 10
-97.0780289672
 20
-33.904109589
 11
-96.8205110488
 21
-33.8748188837
  0
LINE
  5
3CB
100
AcDbEntity
  8
0
100
AcDbLine
 62
250
  6
CONTINUOUS
 10
-91.5980024397
 20
-33.8089631399
 11
-91.3856837327
 21
-33.7875965416
  0
LINE
  5
3CC
100
AcDbEntity
  8
0
100
AcDbLine
 62
250
  6
CONTINUOUS
 10
-91.8100012674
 20
-33.8294976214
 11
-91.5980024397
 21
-33.8089631399
  0
LINE
  5
3CD
100
AcDbEntity
  8
0
100
AcDbLine
 62
250
  6
CONTINUOUS
 10
-92.0213608184
 20
-33.8491690487
 11
-91.8100012674
 21
-33.8294976214
  0
LINE
  5
3CE
100
AcDbEntity
  8
0
100
AcDbLine
 62
250
  6
CONTINUOUS
 10
-92.2317626586
 20
-33.8679477849
 11
-92.0213608184
 21
-33.8491690487
  0
LINE
  5
3CF
100
AcDbEntity
  8
0
100
AcDbLine
 62
250
  6
CONTINUOUS
 10
-92.4408897966
 20
-33.885805538
 11
-92.2317626586
 21
-33.8679477849
  0
LINE
  5
3D0
100
AcDbEntity
  8
0
100
AcDbLine
 62
250
  6
CONTINUOUS
 10
-92.6484271615
 20
-33.9027154034
 11
-92.4408897966
 21
-33.885805538
  0
LINE
  5
3D1
100
AcDbEntity
  8
0
100
AcDbLine
 62
250
  6
CONTINUOUS
 10
-92.8540620776
 20
-33.9186519049
 11
-92.6484271615
 21
-33.9027154034
  0
LINE
  5
3D2
100
AcDbEntity
  8
0
100
AcDbLine
 62
250
  6
CONTINUOUS
 10
-93.0574847355
 20
-33.9335910324
 11
-92.8540620776
 21
-33.9186519049
  0
LINE
  5
3D3
100
AcDbEntity
  8
0
100
AcDbLine
 62
250
  6
CONTINUOUS
 10
-93.2583886585
 20
-33.9475102786
 11
-93.0574847355
 21
-33.9335910324
  0
LINE
  5
3D4
100
AcDbEntity
  8
RACCORDO
100
AcDbLine
 62
250
  6
CONTINUOUS
 10
-74.5453862003
 20
-23.1319668478
 11
74.5453862003
 21
-23.1319668478
  0
LINE
  5
3D5
100
AcDbEntity
  8
RACCORDO
100
AcDbLine
 62
250
  6
CONTINUOUS
 10
-74.9833883798
 20
-22.8301442416
 11
74.9833883798
 21
-22.8301442416
  0
LINE
  5
3D6
100
AcDbEntity
  8
RACCORDO
100
AcDbLine
 62
250
  6
CONTINUOUS
 10
74.9279864348
 20
-22.7747422966
 11
-74.9279864348
 21
-22.7747422966
  0
LINE
  5
3D7
100
AcDbEntity
  8
RACCORDO
100
AcDbLine
 62
7
  6
CONTINUOUS
 10
74.9294692553
 20
-22.7740533177
 11
-74.9279864348
 21
-22.774057064
  0
LINE
  5
3D8
100
AcDbEntity
  8
RACCORDO
100
AcDbLine
 62
250
  6
CONTINUOUS
 10
-75.2275752953
 20
-22.4751534362
 11
-75.2268900626
 21
-22.4751534362
  0
LINE
  5
3D9
100
AcDbEntity
  8
RACCORDO
100
AcDbLine
 62
250
  6
CONTINUOUS
 10
75.2275752953
 20
-22.4751534362
 11
75.2268900626
 21
-22.4751534362
  0
LINE
  5
3DA
100
AcDbEntity
  8
0
100
AcDbLine
 62
7
  6
CONTINUOUS
 10
-75.2268900626
 20
-22.4
 11
75.2268900626
 21
-22.4
  0
LWPOLYLINE
  5
3DB
100
AcDbEntity
  8
RACCORDO
100
AcDbPolyline
 62
250
  6
CONTINUOUS
 90
55
 70
0
 10
-74.9279864348
 20
-22.7747422966
 10
-74.9366383405
 20
-22.7746575393
 10
-74.9453015633
 20
-22.774323501
 10
-74.9539689204
 20
-22.7737387631
 10
-74.9626338529
 20
-22.7729021013
 10
-74.9712882885
 20
-22.7718124909
 10
-74.979922672
 20
-22.770469299
 10
-74.9885333449
 20
-22.7688713499
 10
-74.9971089159
 20
-22.7670190284
 10
-75.0056284255
 20
-22.7649157053
 10
-75.0140828273
 20
-22.7625633022
 10
-75.0224666228
 20
-22.7599630737
 10
-75.0307646951
 20
-22.7571195618
 10
-75.0389688274
 20
-22.7540360007
 10
-75.0470735035
 20
-22.7507149204
 10
-75.0550681473
 20
-22.7471611221
 10
-75.0629440589
 20
-22.7433793543
 10
-75.0706971751
 20
-22.7393724779
 10
-75.0783240705
 20
-22.7351428105
 10
-75.0858177604
 20
-22.7306947392
 10
-75.0931729298
 20
-22.7260319417
 10
-75.1003884383
 20
-22.7211552432
 10
-75.107459239
 20
-22.7160678449
 10
-75.1143781758
 20
-22.7107746847
 10
-75.1211407413
 20
-22.7052788967
 10
-75.1277423215
 20
-22.6995837567
 10
-75.1341758232
 20
-22.6936949219
 10
-75.1404332977
 20
-22.6876194394
 10
-75.1465094724
 20
-22.6813623913
 10
-75.1523991779
 20
-22.6749291013
 10
-75.1580952553
 20
-22.6683276136
 10
-75.1635920885
 20
-22.6615649523
 10
-75.1688863394
 20
-22.6546457869
 10
-75.1739746434
 20
-22.6475749374
 10
-75.1788520202
 20
-22.6403596665
 10
-75.1835153533
 20
-22.6330049464
 10
-75.1879638101
 20
-22.6255119806
 10
-75.1921936785
 20
-22.6178862088
 10
-75.1962006627
 20
-22.6101345199
 10
-75.1999826075
 20
-22.6022600587
 10
-75.2035366367
 20
-22.5942669275
 10
-75.2068580229
 20
-22.5861637827
 10
-75.2099421202
 20
-22.5779607666
 10
-75.2127864199
 20
-22.5696632051
 10
-75.2153875831
 20
-22.561279472
 10
-75.2177410046
 20
-22.5528247624
 10
-75.2198452994
 20
-22.5443050013
 10
-75.2216986399
 20
-22.5357288016
 10
-75.2232978293
 20
-22.5271158929
 10
-75.2246425262
 20
-22.5184763578
 10
-75.2257335139
 20
-22.5098151226
 10
-75.2265710686
 20
-22.5011443958
 10
-75.2271562582
 20
-22.4924731603
 10
-75.2274904971
 20
-22.4838071092
 10
-75.2275752953
 20
-22.4751534362
  0
LWPOLYLINE
  5
3DC
100
AcDbEntity
  8
RACCORDO
100
AcDbPolyline
 62
7
  6
CONTINUOUS
 90
41
 70
0
 10
-74.9279864348
 20
-22.7740569626
 10
-74.9402867805
 20
-22.7738056395
 10
-74.9520033866
 20
-22.7730970986
 10
-74.9636743703
 20
-22.7719327203
 10
-74.9752830138
 20
-22.770314702
 10
-74.986812963
 20
-22.7682459947
 10
-74.9982466939
 20
-22.7657300445
 10
-75.0095669711
 20
-22.7627711156
 10
-75.0207578489
 20
-22.7593737875
 10
-75.0318028038
 20
-22.7555432868
 10
-75.0426850889
 20
-22.751285843
 10
-75.0533886168
 20
-22.7466078286
 10
-75.0638975481
 20
-22.7415166019
 10
-75.0741960649
 20
-22.7360198621
 10
-75.0842689079
 20
-22.7301261119
 10
-75.0941010238
 20
-22.7238442556
 10
-75.103677801
 20
-22.7171838228
 10
-75.112985039
 20
-22.7101548851
 10
-75.1220088418
 20
-22.7027679304
 10
-75.130735839
 20
-22.6950341856
 10
-75.1391528984
 20
-22.6869651209
 10
-75.1472475687
 20
-22.678572972
 10
-75.1550076626
 20
-22.6698701526
 10
-75.1624217243
 20
-22.6608696713
 10
-75.169478557
 20
-22.6515849417
 10
-75.1761675941
 20
-22.642029774
 10
-75.1824788996
 20
-22.6322182788
 10
-75.1884028345
 20
-22.6221649961
 10
-75.1939305271
 20
-22.6118849812
 10
-75.199053463
 20
-22.601393308
 10
-75.2037639028
 20
-22.5907057675
 10
-75.20805446
 20
-22.5798381733
 10
-75.2119187093
 20
-22.5688063946
 10
-75.2153504308
 20
-22.5576271366
 10
-75.2183442201
 20
-22.5463169108
 10
-75.2208955245
 20
-22.5348915976
 10
-75.2229999095
 20
-22.5233683577
 10
-75.2246539016
 20
-22.5117646959
 10
-75.2258544403
 20
-22.5000969963
 10
-75.2265992374
 20
-22.4883820227
 10
-75.2268863198
 20
-22.476637462
  0
LINE
  5
3DD
100
AcDbEntity
  8
0
100
AcDbLine
 62
250
  6
CONTINUOUS
 10
93.2583886572
 20
-33.9475102784
 11
93.0574847344
 21
-33.9335910322
  0
LINE
  5
3DE
100
AcDbEntity
  8
0
100
AcDbLine
 62
250
  6
CONTINUOUS
 10
93.0574847344
 20
-33.9335910322
 11
92.8540620767
 21
-33.9186519047
  0
LINE
  5
3DF
100
AcDbEntity
  8
0
100
AcDbLine
 62
250
  6
CONTINUOUS
 10
92.8540620767
 20
-33.9186519047
 11
92.6484271607
 21
-33.9027154033
  0
LINE
  5
3E0
100
AcDbEntity
  8
0
100
AcDbLine
 62
250
  6
CONTINUOUS
 10
92.6484271607
 20
-33.9027154033
 11
92.4408897959
 21
-33.8858055379
  0
LINE
  5
3E1
100
AcDbEntity
  8
0
100
AcDbLine
 62
250
  6
CONTINUOUS
 10
92.4408897959
 20
-33.8858055379
 11
92.2317626581
 21
-33.8679477848
  0
LINE
  5
3E2
100
AcDbEntity
  8
0
100
AcDbLine
 62
250
  6
CONTINUOUS
 10
92.2317626581
 20
-33.8679477848
 11
92.021360818
 21
-33.8491690486
  0
LINE
  5
3E3
100
AcDbEntity
  8
0
100
AcDbLine
 62
250
  6
CONTINUOUS
 10
92.021360818
 20
-33.8491690486
 11
91.8100012671
 21
-33.8294976213
  0
LINE
  5
3E4
100
AcDbEntity
  8
0
100
AcDbLine
 62
250
  6
CONTINUOUS
 10
91.8100012671
 20
-33.8294976213
 11
91.5980024396
 21
-33.8089631399
  0
LINE
  5
3E5
100
AcDbEntity
  8
0
100
AcDbLine
 62
250
  6
CONTINUOUS
 10
91.5980024396
 20
-33.8089631399
 11
91.3856837327
 21
-33.7875965416
  0
LINE
  5
3E6
100
AcDbEntity
  8
0
100
AcDbLine
 62
250
  6
CONTINUOUS
 10
97.0780289672
 20
-33.904109589
 11
96.8205110488
 21
-33.8748188837
  0
LWPOLYLINE
  5
3E7
100
AcDbEntity
  8
0
100
AcDbPolyline
 62
7
  6
CONTINUOUS
 90
3
 70
0
 43
0.3500000006
 10
1.8928570933
 20
50.0357124023
 10
1.8214286013
 20
49.8214279175
 10
1.6785714755
 20
49.5357122498
  0
LINE
  5
3E8
100
AcDbEntity
  8
RACCORDO
100
AcDbLine
 62
250
  6
CONTINUOUS
 10
75.2275752953
 20
-8.708165587
 11
75.2268900626
 21
-8.708165587
  0
LINE
  5
3E9
100
AcDbEntity
  8
RACCORDO
100
AcDbLine
 62
250
  6
CONTINUOUS
 10
-75.2275752953
 20
-8.708165587
 11
-75.2268900627
 21
-8.708165587
  0
LWPOLYLINE
  5
3EA
100
AcDbEntity
  8
0
100
AcDbPolyline
 62
7
  6
CONTINUOUS
 90
4
 70
0
 43
0.3500000006
 10
-1.1785713937
 20
52.1071441956
 10
-1.1785713937
 20
52.750002182
 10
0.3214285684
 20
52.750002182
 10
-0.5357142924
 20
49.7500012665
  0
LWPOLYLINE
  5
3EB
100
AcDbEntity
  8
0
100
AcDbPolyline
 62
7
  6
CONTINUOUS
 90
4
 70
0
 43
0.3500000006
 10
2.8928572569
 20
50.1785702362
 10
2.8928572569
 20
51.0357127075
 10
3.3214284925
 20
51.4642862091
 10
3.9642856293
 20
51.4642862091
  0
LINE
  5
3EC
100
AcDbEntity
  8
RACCORDO
100
AcDbLine
 62
250
  6
CONTINUOUS
 10
-75.2275752953
 20
8.708165587
 11
-75.2268900626
 21
8.708165587
  0
LINE
  5
3ED
100
AcDbEntity
  8
RACCORDO
100
AcDbLine
 62
250
  6
CONTINUOUS
 10
75.2275752953
 20
8.708165587
 11
75.2268900627
 21
8.708165587
  0
LINE
  5
3EE
100
AcDbEntity
  8
0
100
AcDbLine
 62
250
  6
CONTINUOUS
 10
97.0780289672
 20
33.904109589
 11
96.8205110488
 21
33.8748188837
  0
LINE
  5
3EF
100
AcDbEntity
  8
0
100
AcDbLine
 62
250
  6
CONTINUOUS
 10
91.5980024397
 20
33.8089631399
 11
91.3856837327
 21
33.7875965416
  0
LINE
  5
3F0
100
AcDbEntity
  8
0
100
AcDbLine
 62
250
  6
CONTINUOUS
 10
91.8100012674
 20
33.8294976214
 11
91.5980024397
 21
33.8089631399
  0
LINE
  5
3F1
100
AcDbEntity
  8
0
100
AcDbLine
 62
250
  6
CONTINUOUS
 10
92.0213608184
 20
33.8491690487
 11
91.8100012674
 21
33.8294976214
  0
LINE
  5
3F2
100
AcDbEntity
  8
0
100
AcDbLine
 62
250
  6
CONTINUOUS
 10
92.2317626586
 20
33.8679477849
 11
92.0213608184
 21
33.8491690487
  0
LINE
  5
3F3
100
AcDbEntity
  8
0
100
AcDbLine
 62
250
  6
CONTINUOUS
 10
92.4408897966
 20
33.885805538
 11
92.2317626586
 21
33.8679477849
  0
LINE
  5
3F4
100
AcDbEntity
  8
0
100
AcDbLine
 62
250
  6
CONTINUOUS
 10
92.6484271615
 20
33.9027154034
 11
92.4408897966
 21
33.885805538
  0
LINE
  5
3F5
100
AcDbEntity
  8
0
100
AcDbLine
 62
250
  6
CONTINUOUS
 10
92.8540620776
 20
33.9186519049
 11
92.6484271615
 21
33.9027154034
  0
LINE
  5
3F6
100
AcDbEntity
  8
0
100
AcDbLine
 62
250
  6
CONTINUOUS
 10
93.0574847355
 20
33.9335910324
 11
92.8540620776
 21
33.9186519049
  0
LINE
  5
3F7
100
AcDbEntity
  8
0
100
AcDbLine
 62
250
  6
CONTINUOUS
 10
93.2583886585
 20
33.9475102786
 11
93.0574847355
 21
33.9335910324
  0
LINE
  5
3F8
100
AcDbEntity
  8
0
100
AcDbLine
 62
250
  6
CONTINUOUS
 10
93.456471165
 20
33.9603886729
 11
93.2583886585
 21
33.9475102786
  0
LINE
  5
3F9
100
AcDbEntity
  8
0
100
AcDbLine
 62
250
  6
CONTINUOUS
 10
93.6514338239
 20
33.9722068127
 11
93.456471165
 21
33.9603886729
  0
LINE
  5
3FA
100
AcDbEntity
  8
0
100
AcDbLine
 62
250
  6
CONTINUOUS
 10
93.8429829045
 20
33.9829468927
 11
93.6514338239
 21
33.9722068127
  0
LWPOLYLINE
  5
3FB
100
AcDbEntity
  8
0
100
AcDbPolyline
 62
250
  6
CONTINUOUS
 90
3
 70
0
 10
94.1232762939
 20
33.9970007049
 10
94.0308298191
 20
33.992592732
 10
93.8429829045
 20
33.9829468927
  0
LINE
  5
3FC
100
AcDbEntity
  8
0
100
AcDbLine
 62
7
  6
CONTINUOUS
 10
75.2268900626
 20
22.4
 11
-75.2268900626
 21
22.4
  0
LINE
  5
3FD
100
AcDbEntity
  8
RACCORDO
100
AcDbLine
 62
250
  6
CONTINUOUS
 10
-75.2275752953
 20
22.4751534362
 11
-75.2268900626
 21
22.4751534362
  0
LINE
  5
3FE
100
AcDbEntity
  8
RACCORDO
100
AcDbLine
 62
250
  6
CONTINUOUS
 10
75.2275752953
 20
22.4751534362
 11
75.2268900626
 21
22.4751534362
  0
LINE
  5
3FF
100
AcDbEntity
  8
RACCORDO
100
AcDbLine
 62
7
  6
CONTINUOUS
 10
-74.9294692553
 20
22.7740533177
 11
74.9279864348
 21
22.774057064
  0
LINE
  5
400
100
AcDbEntity
  8
RACCORDO
100
AcDbLine
 62
250
  6
CONTINUOUS
 10
-74.9279864348
 20
22.7747422966
 11
74.9279864348
 21
22.7747422966
  0
LINE
  5
401
100
AcDbEntity
  8
RACCORDO
100
AcDbLine
 62
250
  6
CONTINUOUS
 10
-74.9826137088
 20
22.8293695705
 11
74.9826137088
 21
22.8293695705
  0
LINE
  5
402
100
AcDbEntity
  8
RACCORDO
100
AcDbLine
 62
250
  6
CONTINUOUS
 10
-74.5456964685
 20
23.1445316001
 11
74.5456964685
 21
23.1445316001
  0
LINE
  5
403
100
AcDbEntity
  8
RACCORDO
100
AcDbLine
 62
250
  6
CONTINUOUS
 10
-74.9356112352
 20
26.8146773088
 11
74.9356112352
 21
26.8146773088
  0
LWPOLYLINE
  5
404
100
AcDbEntity
  8
RACCORDO
100
AcDbPolyline
 62
250
  6
CONTINUOUS
 90
55
 70
0
 10
74.9279864348
 20
22.7747422966
 10
74.9366383405
 20
22.7746575393
 10
74.9453015633
 20
22.774323501
 10
74.9539689204
 20
22.7737387631
 10
74.9626338529
 20
22.7729021013
 10
74.9712882885
 20
22.7718124909
 10
74.979922672
 20
22.770469299
 10
74.9885333449
 20
22.7688713499
 10
74.9971089159
 20
22.7670190284
 10
75.0056284255
 20
22.7649157053
 10
75.0140828273
 20
22.7625633022
 10
75.0224666228
 20
22.7599630737
 10
75.0307646951
 20
22.7571195618
 10
75.0389688274
 20
22.7540360007
 10
75.0470735035
 20
22.7507149204
 10
75.0550681473
 20
22.7471611221
 10
75.0629440589
 20
22.7433793543
 10
75.0706971751
 20
22.7393724779
 10
75.0783240705
 20
22.7351428105
 10
75.0858177604
 20
22.7306947392
 10
75.0931729298
 20
22.7260319417
 10
75.1003884383
 20
22.7211552432
 10
75.107459239
 20
22.7160678449
 10
75.1143781758
 20
22.7107746847
 10
75.1211407413
 20
22.7052788967
 10
75.1277423215
 20
22.6995837567
 10
75.1341758232
 20
22.6936949219
 10
75.1404332977
 20
22.6876194394
 10
75.1465094724
 20
22.6813623913
 10
75.1523991779
 20
22.6749291013
 10
75.1580952553
 20
22.6683276136
 10
75.1635920885
 20
22.6615649523
 10
75.1688863394
 20
22.6546457869
 10
75.1739746434
 20
22.6475749374
 10
75.1788520202
 20
22.6403596665
 10
75.1835153533
 20
22.6330049464
 10
75.1879638101
 20
22.6255119806
 10
75.1921936785
 20
22.6178862088
 10
75.1962006627
 20
22.6101345199
 10
75.1999826075
 20
22.6022600587
 10
75.2035366367
 20
22.5942669275
 10
75.2068580229
 20
22.5861637827
 10
75.2099421202
 20
22.5779607666
 10
75.2127864199
 20
22.5696632051
 10
75.2153875831
 20
22.561279472
 10
75.2177410046
 20
22.5528247624
 10
75.2198452994
 20
22.5443050013
 10
75.2216986399
 20
22.5357288016
 10
75.2232978293
 20
22.5271158929
 10
75.2246425262
 20
22.5184763578
 10
75.2257335139
 20
22.5098151226
 10
75.2265710686
 20
22.5011443958
 10
75.2271562582
 20
22.4924731603
 10
75.2274904971
 20
22.4838071092
 10
75.2275752953
 20
22.4751534362
  0
LWPOLYLINE
  5
405
100
AcDbEntity
  8
RACCORDO
100
AcDbPolyline
 62
7
  6
CONTINUOUS
 90
41
 70
0
 10
74.9279864348
 20
22.7740569626
 10
74.9402867805
 20
22.7738056395
 10
74.9520033866
 20
22.7730970986
 10
74.9636743703
 20
22.7719327203
 10
74.9752830138
 20
22.770314702
 10
74.986812963
 20
22.7682459947
 10
74.998246694
 20
22.7657300445
 10
75.0095669711
 20
22.7627711156
 10
75.0207578489
 20
22.7593737875
 10
75.0318028038
 20
22.7555432868
 10
75.0426850889
 20
22.751285843
 10
75.0533886168
 20
22.7466078286
 10
75.0638975481
 20
22.7415166019
 10
75.0741960649
 20
22.7360198621
 10
75.0842689079
 20
22.7301261119
 10
75.0941010238
 20
22.7238442556
 10
75.103677801
 20
22.7171838228
 10
75.112985039
 20
22.7101548851
 10
75.1220088418
 20
22.7027679304
 10
75.130735839
 20
22.6950341856
 10
75.1391528984
 20
22.6869651209
 10
75.1472475687
 20
22.678572972
 10
75.1550076626
 20
22.6698701526
 10
75.1624217243
 20
22.6608696713
 10
75.169478557
 20
22.6515849417
 10
75.1761675941
 20
22.642029774
 10
75.1824788996
 20
22.6322182788
 10
75.1884028345
 20
22.6221649961
 10
75.1939305271
 20
22.6118849812
 10
75.199053463
 20
22.601393308
 10
75.2037639028
 20
22.5907057675
 10
75.20805446
 20
22.5798381733
 10
75.2119187093
 20
22.5688063946
 10
75.2153504308
 20
22.5576271366
 10
75.2183442201
 20
22.5463169108
 10
75.2208955245
 20
22.5348915976
 10
75.2229999095
 20
22.5233683577
 10
75.2246539016
 20
22.5117646959
 10
75.2258544403
 20
22.5000969963
 10
75.2265992374
 20
22.4883820227
 10
75.2268863198
 20
22.476637462
  0
LINE
  5
406
100
AcDbEntity
  8
0
100
AcDbLine
 62
250
  6
CONTINUOUS
 10
-94.1232762919
 20
33.9970007046
 11
-93.9373869546
 21
33.9879075393
  0
LINE
  5
407
100
AcDbEntity
  8
0
100
AcDbLine
 62
250
  6
CONTINUOUS
 10
-93.9373869546
 20
33.9879075393
 11
-93.7476532222
 21
33.9777126596
  0
LINE
  5
408
100
AcDbEntity
  8
0
100
AcDbLine
 62
250
  6
CONTINUOUS
 10
-93.7476532222
 20
33.9777126596
 11
-93.5543609474
 21
33.966431425
  0
LINE
  5
409
100
AcDbEntity
  8
0
100
AcDbLine
 62
250
  6
CONTINUOUS
 10
-93.5543609474
 20
33.966431425
 11
-93.3578013443
 21
33.9540808318
  0
LINE
  5
40A
100
AcDbEntity
  8
0
100
AcDbLine
 62
250
  6
CONTINUOUS
 10
-93.3578013443
 20
33.9540808318
 11
-93.1582705496
 21
33.9406794875
  0
LINE
  5
40B
100
AcDbEntity
  8
0
100
AcDbLine
 62
250
  6
CONTINUOUS
 10
-93.1582705496
 20
33.9406794875
 11
-92.9560691761
 21
33.9262475825
  0
LINE
  5
40C
100
AcDbEntity
  8
0
100
AcDbLine
 62
250
  6
CONTINUOUS
 10
-92.9560691761
 20
33.9262475825
 11
-92.7515018606
 21
33.9108068599
  0
LINE
  5
40D
100
AcDbEntity
  8
0
100
AcDbLine
 62
250
  6
CONTINUOUS
 10
-92.7515018606
 20
33.9108068599
 11
-92.5448768039
 21
33.8943805827
  0
LINE
  5
40E
100
AcDbEntity
  8
0
100
AcDbLine
 62
250
  6
CONTINUOUS
 10
-92.5448768039
 20
33.8943805827
 11
-92.3365053073
 21
33.8769934988
  0
LINE
  5
40F
100
AcDbEntity
  8
0
100
AcDbLine
 62
250
  6
CONTINUOUS
 10
-92.3365053073
 20
33.8769934988
 11
-92.1267013033
 21
33.8586718034
  0
LINE
  5
410
100
AcDbEntity
  8
0
100
AcDbLine
 62
250
  6
CONTINUOUS
 10
-92.1267013033
 20
33.8586718034
 11
-91.9157808825
 21
33.8394431001
  0
LINE
  5
411
100
AcDbEntity
  8
0
100
AcDbLine
 62
250
  6
CONTINUOUS
 10
-91.9157808825
 20
33.8394431001
 11
-91.7040618175
 21
33.8193363588
  0
LWPOLYLINE
  5
412
100
AcDbEntity
  8
0
100
AcDbPolyline
 62
250
  6
CONTINUOUS
 90
3
 70
0
 10
-91.7040618175
 20
33.8193363588
 10
-91.4918630842
 20
33.7983818723
 10
-91.3856837327
 20
33.7875965416
  0
LINE
  5
413
100
AcDbEntity
  8
0
100
AcDbLine
 62
250
  6
CONTINUOUS
 10
-97.0780289672
 20
33.904109589
 11
-96.8205110488
 21
33.8748188837
  0
LWPOLYLINE
  5
414
100
AcDbEntity
  8
0
100
AcDbPolyline
 62
7
  6
CONTINUOUS
 90
10
 70
0
 43
0.3500000006
 10
1.8214286013
 20
50.2500014191
 10
1.8928570933
 20
50.1071435852
 10
1.8928570933
 20
50.0357124023
 10
1.7499999676
 20
49.8928591003
 10
1.6785714755
 20
49.8928591003
 10
1.6071428418
 20
49.9642857513
 10
1.6071428418
 20
50.0357124023
 10
1.6785714755
 20
50.1785702362
 10
1.7499999676
 20
50.2500014191
 10
1.8214286013
 20
50.2500014191
  0
LWPOLYLINE
  5
415
100
AcDbEntity
  8
RACCORDO
100
AcDbPolyline
 62
250
  6
CONTINUOUS
 90
47
 70
0
 10
75.2822025692
 20
22.5297807101
 10
75.2823878759
 20
22.5299560252
 10
75.2825747288
 20
22.5301122669
 10
75.2827631281
 20
22.5302494352
 10
75.2829530332
 20
22.5303676095
 10
75.2831444846
 20
22.5304667103
 10
75.2833376037
 20
22.5305464997
 10
75.2835323884
 20
22.5306069918
 10
75.2837288408
 20
22.5306481726
 10
75.2839270889
 20
22.5306697614
 10
75.2841271302
 20
22.5306717705
 10
75.2843289671
 20
22.5306541877
 10
75.2845327356
 20
22.5306166965
 10
75.284738431
 20
22.530559308
 10
75.2849460579
 20
22.5304820111
 10
75.2851557668
 20
22.5303844562
 10
75.2853675553
 20
22.530266651
 10
75.2855814258
 20
22.5301285878
 10
75.2857975351
 20
22.5299698931
 10
75.2860158817
 20
22.5297905688
 10
75.2862364671
 20
22.529590613
 10
75.2864594525
 20
22.5293696457
 10
75.2866848331
 20
22.5291276678
 10
75.2869126137
 20
22.5288646784
 10
75.2871429699
 20
22.5285802958
 10
75.2873758955
 20
22.5282745192
 10
75.2876113968
 20
22.5279473494
 10
75.2878496674
 20
22.5275984062
 10
75.2880907053
 20
22.5272276779
 10
75.2883345125
 20
22.5268351762
 10
75.2885812895
 20
22.5264205562
 10
75.2888310312
 20
22.5259838034
 10
75.2890837426
 20
22.5255249322
 10
75.2893396394
 20
22.5250436418
 10
75.2895987046
 20
22.5245399368
 10
75.2898609552
 20
22.5240138125
 10
75.290126658
 20
22.5234649539
 10
75.2903958037
 20
22.5228933459
 10
75.2906684015
 20
22.5222990037
 10
75.2909447452
 20
22.5216816571
 10
75.2912248594
 20
22.5210411954
 10
75.2915087195
 20
22.5203777293
 10
75.2917965463
 20
22.5196913218
 10
75.2920883215
 20
22.5189819423
 10
75.2923840634
 20
22.5182496213
 10
75.2926840477
 20
22.5174945138
 10
75.2929882433
 20
22.5167166168
  0
LWPOLYLINE
  5
416
100
AcDbEntity
  8
RACCORDO
100
AcDbPolyline
 62
250
  6
CONTINUOUS
 90
3
 70
0
 10
75.3437344037
 20
7.6198268757
 10
75.3431353567
 20
7.6194547978
 10
75.3430495028
 20
7.6192508833
  0
LINE
  5
417
100
AcDbEntity
  8
0
100
AcDbLine
 62
250
  6
CONTINUOUS
 10
94.3050411754
 20
34.004978456
 11
94.1232762939
 21
33.9970007049
  0
LINE
  5
418
100
AcDbEntity
  8
0
100
AcDbLine
 62
250
  6
CONTINUOUS
 10
94.482407754
 20
34.0118287736
 11
94.3050411754
 21
34.004978456
  0
LINE
  5
419
100
AcDbEntity
  8
0
100
AcDbLine
 62
250
  6
CONTINUOUS
 10
94.6551088093
 20
34.017541337
 11
94.482407754
 21
34.0118287736
  0
LINE
  5
41A
100
AcDbEntity
  8
0
100
AcDbLine
 62
250
  6
CONTINUOUS
 10
94.8228841499
 20
34.0221075397
 11
94.6551088093
 21
34.017541337
  0
LINE
  5
41B
100
AcDbEntity
  8
0
100
AcDbLine
 62
250
  6
CONTINUOUS
 10
94.9854810057
 20
34.0255205022
 11
94.8228841499
 21
34.0221075397
  0
LINE
  5
41C
100
AcDbEntity
  8
0
100
AcDbLine
 62
250
  6
CONTINUOUS
 10
95.1426544082
 20
34.0277750826
 11
94.9854810057
 21
34.0255205022
  0
LINE
  5
41D
100
AcDbEntity
  8
0
100
AcDbLine
 62
250
  6
CONTINUOUS
 10
95.29416756
 20
34.0288678841
 11
95.1426544082
 21
34.0277750826
  0
LINE
  5
41E
100
AcDbEntity
  8
0
100
AcDbLine
 62
250
  6
CONTINUOUS
 10
-95.5103273912
 20
34.0283256282
 11
-95.3677298618
 21
34.0289780343
  0
LINE
  5
41F
100
AcDbEntity
  8
RACCORDO
100
AcDbLine
 62
250
  6
CONTINUOUS
 10
-76.1592431849
 20
32.2156939465
 11
76.1592431849
 21
32.2156939465
  0
LINE
  5
420
100
AcDbEntity
  8
0
100
AcDbLine
 62
250
  6
CONTINUOUS
 10
-89.1292815281
 20
35.8557926453
 11
89.1292815281
 21
35.8557926453
  0
LINE
  5
421
100
AcDbEntity
  8
0
100
AcDbLine
 62
250
  6
CONTINUOUS
 10
-95.3677298618
 20
34.0289780343
 11
-95.2191329832
 21
34.0284668492
  0
LWPOLYLINE
  5
422
100
AcDbEntity
  8
0
100
AcDbPolyline
 62
250
  6
CONTINUOUS
 90
85
 70
0
 10
89.1292815281
 20
35.8557926453
 10
89.1690167412
 20
35.8554384141
 10
89.2087159636
 20
35.8543784782
 10
89.2483791952
 20
35.852612837
 10
89.2880188569
 20
35.850140494
 10
89.3276225278
 20
35.846962443
 10
89.3671529452
 20
35.8430816679
 10
89.4066098662
 20
35.8384974959
 10
89.4459935337
 20
35.8332105946
 10
89.4852674137
 20
35.8272259575
 10
89.5244313741
 20
35.8205429202
 10
89.5634855469
 20
35.8131621392
 10
89.6023937947
 20
35.80509059
 10
89.6411559497
 20
35.796327622
 10
89.6797721797
 20
35.7868738754
 10
89.7182068509
 20
35.7767382608
 10
89.7564597932
 20
35.7659201302
 10
89.7945311767
 20
35.7544201189
 10
89.8323858781
 20
35.7422490623
 10
89.8700236948
 20
35.7294063199
 10
89.9074448294
 20
35.7158925174
 10
89.9446147665
 20
35.701720388
 10
89.9815332638
 20
35.6868893045
 10
90.0182005637
 20
35.6713998773
 10
90.054582878
 20
35.6552666965
 10
90.0906799238
 20
35.6384891529
 10
90.1264919841
 20
35.621067837
 10
90.1619861189
 20
35.6030191386
 10
90.1971620226
 20
35.5843424606
 10
90.2320200007
 20
35.5650383799
 10
90.26652803
 20
35.5451250466
 10
90.3006857698
 20
35.5246018843
 10
90.3344935607
 20
35.5034694479
 10
90.3679204014
 20
35.4817475854
 10
90.4009659266
 20
35.4594357368
 10
90.4336305016
 20
35.4365344393
 10
90.4658842212
 20
35.4130651874
 10
90.4977266854
 20
35.3890274474
 10
90.5291582942
 20
35.3644217294
 10
90.5601503432
 20
35.3392710943
 10
90.5907024118
 20
35.3135750265
 10
90.6208149206
 20
35.2873340176
 10
90.6504604265
 20
35.2605726397
 10
90.6796384772
 20
35.2332904077
 10
90.708349525
 20
35.2054877826
 10
90.7365674839
 20
35.1771907564
 10
90.7642918837
 20
35.1483988645
 10
90.7915231947
 20
35.1191125473
 10
90.8182367419
 20
35.0893591555
 10
90.8444320263
 20
35.0591382591
 10
90.8701095468
 20
35.0284502642
 10
90.8952461259
 20
34.9973237765
 10
90.9198412497
 20
34.9657583877
 10
90.9438954319
 20
34.9337544829
 10
90.9673870358
 20
34.9013418587
 10
90.9903155231
 20
34.8685201442
 10
91.0126814321
 20
34.8352896879
 10
91.0344647404
 20
34.8016813671
 10
91.0556648968
 20
34.7676948358
 10
91.0762824525
 20
34.7333304187
 10
91.0962990387
 20
34.6986200007
 10
91.1157140833
 20
34.6635632781
 10
91.1345281585
 20
34.6281605347
 10
91.1527246119
 20
34.592444539
 10
91.1703028642
 20
34.5564150078
 10
91.1872634947
 20
34.5200722059
 10
91.2035915887
 20
34.4834497261
 10
91.2192865516
 20
34.4465473243
 10
91.234348978
 20
34.4093652279
 10
91.2487657375
 20
34.3719377388
 10
91.2625362242
 20
34.3342646503
 10
91.2756610439
 20
34.2963461543
 10
91.2881288836
 20
34.2582171535
 10
91.2999391282
 20
34.2198774861
 10
91.3110923928
 20
34.181327301
 10
91.3215792094
 20
34.1426019694
 10
91.3313989643
 20
34.1037013295
 10
91.3405522712
 20
34.0646255325
 10
91.3490315038
 20
34.0254104214
 10
91.3568360589
 20
33.9860556865
 10
91.3639665397
 20
33.9465616294
 10
91.3704171292
 20
33.9069650124
 10
91.3761858884
 20
33.8672780884
 10
91.3812747562
 20
33.8274885991
 10
91.3856837327
 20
33.7875965416
  0
LINE
  5
423
100
AcDbEntity
  8
0
100
AcDbLine
 62
250
  6
CONTINUOUS
 10
-95.2191329832
 20
34.0284668492
 11
-95.0647606313
 21
34.026792843
  0
LINE
  5
424
100
AcDbEntity
  8
0
100
AcDbLine
 62
250
  6
CONTINUOUS
 10
-95.0647606313
 20
34.026792843
 11
-94.9048453834
 21
34.0239585377
  0
LINE
  5
425
100
AcDbEntity
  8
0
100
AcDbLine
 62
250
  6
CONTINUOUS
 10
-94.9048453834
 20
34.0239585377
 11
-94.7396281679
 21
34.0199682036
  0
LINE
  5
426
100
AcDbEntity
  8
0
100
AcDbLine
 62
250
  6
CONTINUOUS
 10
-94.7396281679
 20
34.0199682036
 11
-94.5693579009
 21
34.0148278524
  0
LINE
  5
427
100
AcDbEntity
  8
0
100
AcDbLine
 62
250
  6
CONTINUOUS
 10
-94.5693579009
 20
34.0148278524
 11
-94.3942911116
 21
34.0085452287
  0
LWPOLYLINE
  5
428
100
AcDbEntity
  8
0
100
AcDbPolyline
 62
250
  6
CONTINUOUS
 90
3
 70
0
 10
-94.3942911116
 20
34.0085452287
 10
-94.2146915555
 20
34.0011297977
 10
-94.1232762919
 20
33.9970007046
  0
LWPOLYLINE
  5
429
100
AcDbEntity
  8
RACCORDO
100
AcDbPolyline
 62
250
  6
CONTINUOUS
 90
3
 70
0
 10
75.3437344037
 20
-7.6198268758
 10
75.3431353539
 20
-7.6194573481
 10
75.3430494986
 20
-7.6192545524
  0
LWPOLYLINE
  5
42A
100
AcDbEntity
  8
RACCORDO
100
AcDbPolyline
 62
250
  6
CONTINUOUS
 90
22
 70
0
 10
74.9833883798
 20
-22.8301442416
 10
74.9836537435
 20
-22.8303626846
 10
74.9838259001
 20
-22.8306136338
 10
74.9839048497
 20
-22.8309002708
 10
74.9839024238
 20
-22.8312255519
 10
74.983806791
 20
-22.8315932779
 10
74.9835824563
 20
-22.8320083996
 10
74.9832302147
 20
-22.8324754874
 10
74.9827492712
 20
-22.8329983763
 10
74.9821017466
 20
-22.8335814379
 10
74.9812881802
 20
-22.8342291503
 10
74.9803080326
 20
-22.8349463639
 10
74.9791218057
 20
-22.8357383026
 10
74.9777313039
 20
-22.8366096019
 10
74.9761347229
 20
-22.8375660169
 10
74.9742871509
 20
-22.8386150921
 10
74.9721901434
 20
-22.8397628569
 10
74.9698421449
 20
-22.8410154512
 10
74.9671935783
 20
-22.8423815456
 10
74.9642458576
 20
-22.8438681031
 10
74.9609975687
 20
-22.8454821557
 10
74.9573948917
 20
-22.8472334717
  0
LINE
  5
42B
100
AcDbEntity
  8
RACCORDO
100
AcDbLine
 62
250
  6
CONTINUOUS
 10
74.9279864348
 20
22.7747422966
 11
74.9826137088
 21
22.8293695705
  0
LINE
  5
42C
100
AcDbEntity
  8
RACCORDO
100
AcDbLine
 62
250
  6
CONTINUOUS
 10
75.2275752953
 20
22.4751534362
 11
75.2822025692
 21
22.5297807101
  0
LINE
  5
42D
100
AcDbEntity
  8
RACCORDO
100
AcDbLine
 62
250
  6
CONTINUOUS
 10
-75.148850197
 20
26.775281401
 11
-75.1022868304
 21
26.7846037021
  0
LINE
  5
42E
100
AcDbEntity
  8
RACCORDO
100
AcDbLine
 62
250
  6
CONTINUOUS
 10
-75.1022868304
 20
26.7846037021
 11
-75.0551073061
 21
26.7936290473
  0
LINE
  5
42F
100
AcDbEntity
  8
RACCORDO
100
AcDbLine
 62
250
  6
CONTINUOUS
 10
-75.0551073061
 20
26.7936290473
 11
-75.0074860349
 21
26.8023240723
  0
LWPOLYLINE
  5
430
100
AcDbEntity
  8
RACCORDO
100
AcDbPolyline
 62
250
  6
CONTINUOUS
 90
3
 70
0
 10
-75.0074860349
 20
26.8023240723
 10
-74.9595990607
 20
26.8106566337
 10
-74.9356112352
 20
26.814677309
  0
LINE
  5
431
100
AcDbEntity
  8
0
100
AcDbLine
 62
250
  6
CONTINUOUS
 10
-89.1292815281
 20
40.7622148997
 11
89.1292815281
 21
40.7622148997
  0
LINE
  5
432
100
AcDbEntity
  8
0
100
AcDbLine
 62
7
  6
CONTINUOUS
 10
89.1292815281
 20
41.0
 11
-89.1292815281
 21
41.0
  0
LWPOLYLINE
  5
433
100
AcDbEntity
  8
0
100
AcDbPolyline
 62
250
  6
CONTINUOUS
 90
85
 70
0
 10
89.1292815281
 20
40.7622148997
 10
89.2637697548
 20
40.7610459613
 10
89.3982181871
 20
40.7575395095
 10
89.5325860694
 20
40.7516965634
 10
89.6668324494
 20
40.7435188579
 10
89.800916851
 20
40.7330088418
 10
89.934799286
 20
40.7201696383
 10
90.0684393106
 20
40.7050050522
 10
90.2017962612
 20
40.6875196473
 10
90.3348299287
 20
40.6677187036
 10
90.4674998992
 20
40.6456081724
 10
90.5997660267
 20
40.6211946997
 10
90.7315886694
 20
40.5944856292
 10
90.8629277723
 20
40.5654890001
 10
90.9937435926
 20
40.5342135325
 10
91.1239971719
 20
40.5006685765
 10
91.2536490311
 20
40.4648641958
 10
91.3826598208
 20
40.4268111734
 10
91.510991042
 20
40.3865209033
 10
91.6386037957
 20
40.3440054721
 10
91.7654593341
 20
40.2992776833
 10
91.8915197038
 20
40.2523509652
 10
92.0167466658
 20
40.2032394103
 10
92.1411022054
 20
40.1519578044
 10
92.2645490797
 20
40.0985215634
 10
92.387049806
 20
40.0429467553
 10
92.5085672134
 20
39.9852501055
 10
92.6290649498
 20
39.9254489426
 10
92.7485064452
 20
39.8635612386
 10
92.8668554146
 20
39.7996056359
 10
92.9840764059
 20
39.7336013719
 10
93.1001338168
 20
39.6655683
 10
93.2149923923
 20
39.5955269106
 10
93.3286177239
 20
39.5234982782
 10
93.4409753048
 20
39.4495040647
 10
93.5520309729
 20
39.3735665718
 10
93.661751409
 20
39.2957086893
 10
93.7701032576
 20
39.2159538586
 10
93.877053584
 20
39.1343261104
 10
93.9825703179
 20
39.0508500444
 10
94.0866213896
 20
38.9655507844
 10
94.1891751346
 20
38.8784540558
 10
94.2902007542
 20
38.7895861563
 10
94.3896675108
 20
38.6989738622
 10
94.4875451421
 20
38.6066444931
 10
94.5838042711
 20
38.5126259222
 10
94.6784156158
 20
38.4169464679
 10
94.7713503563
 20
38.3196350049
 10
94.8625805588
 20
38.2207209676
 10
94.952078438
 20
38.1202341843
 10
95.03981674
 20
38.0182049682
 10
95.1257691191
 20
37.9146641683
 10
95.2099094034
 20
37.8096429926
 10
95.2922119347
 20
37.7031731559
 10
95.372651967
 20
37.5952869136
 10
95.4512049774
 20
37.48601682
 10
95.5278470171
 20
37.3753958595
 10
95.6025550661
 20
37.2634575373
 10
95.6753063494
 20
37.1502356187
 10
95.746078658
 20
37.0357643116
 10
95.8148507202
 20
36.920078345
 10
95.8816015403
 20
36.8032126587
 10
95.9463107481
 20
36.685202539
 10
96.0089589387
 20
36.5660837468
 10
96.0695269921
 20
36.445892225
 10
96.1279963863
 20
36.3246643131
 10
96.1843495725
 20
36.2024368307
 10
96.2385693308
 20
36.0792466889
 10
96.290639076
 20
35.9551311224
 10
96.3405431987
 20
35.8301278519
 10
96.3882664318
 20
35.7042746454
 10
96.4337941688
 20
35.5776095408
 10
96.4771128006
 20
35.4501710267
 10
96.5182090538
 20
35.3219976478
 10
96.5570703411
 20
35.1931281158
 10
96.5936851052
 20
35.0636014791
 10
96.6280421236
 20
34.9334568027
 10
96.6601308248
 20
34.8027335128
 10
96.6899416732
 20
34.6714714561
 10
96.7174655056
 20
34.5397103727
 10
96.7426938506
 20
34.407490038
 10
96.7656192702
 20
34.2748505532
 10
96.786234802
 20
34.1418320548
 10
96.8045339544
 20
34.0084747217
 10
96.8205110488
 20
33.8748188837
  0
LINE
  5
434
100
AcDbEntity
  8
RACCORDO
100
AcDbLine
 62
250
  6
CONTINUOUS
 10
74.9835647108
 20
26.8065376194
 11
74.9356112352
 21
26.8146773093
  0
LINE
  5
435
100
AcDbEntity
  8
RACCORDO
100
AcDbLine
 62
250
  6
CONTINUOUS
 10
75.0313409145
 20
26.7980198895
 11
74.9835647108
 21
26.8065376194
  0
LINE
  5
436
100
AcDbEntity
  8
RACCORDO
100
AcDbLine
 62
250
  6
CONTINUOUS
 10
75.0787632296
 20
26.7891556075
 11
75.0313409145
 21
26.7980198895
  0
LWPOLYLINE
  5
437
100
AcDbEntity
  8
0
100
AcDbPolyline
 62
7
  6
CONTINUOUS
 90
13
 70
0
 43
0.3500000006
 10
3.3214284925
 20
51.4642862091
 10
3.035714241
 20
51.678570694
 10
3.035714241
 20
52.3214286804
 10
3.3214284925
 20
52.750002182
 10
3.9642856293
 20
52.750002182
 10
4.2499998808
 20
52.3214286804
 10
4.2499998808
 20
51.678570694
 10
3.9642856293
 20
51.4642862091
 10
4.3928571482
 20
51.0357127075
 10
4.3928571482
 20
50.1785702362
 10
3.9642856293
 20
49.7500012665
 10
3.3214284925
 20
49.7500012665
 10
2.8928572569
 20
50.1785702362
  0
LINE
  5
438
100
AcDbEntity
  8
RACCORDO
100
AcDbLine
 62
250
  6
CONTINUOUS
 10
74.9833883798
 20
-22.8301442416
 11
74.9279864348
 21
-22.7747422966
  0
LINE
  5
439
100
AcDbEntity
  8
RACCORDO
100
AcDbLine
 62
250
  6
CONTINUOUS
 10
75.2829772403
 20
-22.5305553812
 11
75.2275752953
 21
-22.4751534362
  0
LWPOLYLINE
  5
43A
100
AcDbEntity
  8
RACCORDO
100
AcDbPolyline
 62
250
  6
CONTINUOUS
 90
24
 70
0
 10
75.5596199831
 20
26.6685813055
 10
75.5446499671
 20
26.673681632
 10
75.5291169551
 20
26.6788102389
 10
75.5130353059
 20
26.6839623852
 10
75.4964198855
 20
26.6891333084
 10
75.4792860531
 20
26.6943182283
 10
75.4616496473
 20
26.6995123521
 10
75.4435269711
 20
26.7047108782
 10
75.4249347773
 20
26.7099090013
 10
75.4058902523
 20
26.7151019161
 10
75.3864110011
 20
26.7202848222
 10
75.3665150301
 20
26.7254529287
 10
75.3462207314
 20
26.7306014581
 10
75.3255468649
 20
26.7357256511
 10
75.3045125416
 20
26.7408207709
 10
75.2831372057
 20
26.7458821075
 10
75.2614406164
 20
26.7509049823
 10
75.2394428302
 20
26.7558847521
 10
75.2171641818
 20
26.7608168136
 10
75.1946252657
 20
26.7656966077
 10
75.1718469167
 20
26.7705196233
 10
75.1488501913
 20
26.7752814021
 10
75.1256563477
 20
26.7799775424
 10
75.0787632296
 20
26.7891556075
  0
LWPOLYLINE
  5
43B
100
AcDbEntity
  8
RACCORDO
100
AcDbPolyline
 62
250
  6
CONTINUOUS
 90
41
 70
0
 10
74.7535881365
 20
-22.9422047182
 10
74.7422020168
 20
-22.9478923302
 10
74.7310994049
 20
-22.9535294047
 10
74.7202518318
 20
-22.9591145669
 10
74.70967374
 20
-22.9646767718
 10
74.6993872527
 20
-22.9701979827
 10
74.6893702466
 20
-22.9756792156
 10
74.6795707948
 20
-22.9811844004
 10
74.6699540738
 20
-22.9867297425
 10
74.6605549071
 20
-22.992291357
 10
74.6514258376
 20
-22.9978773347
 10
74.6425182374
 20
-23.0035217553
 10
74.6338807344
 20
-23.009184798
 10
74.6257117553
 20
-23.0147601284
 10
74.6180927228
 20
-23.020192302
 10
74.6109422142
 20
-23.0255214013
 10
74.6042143878
 20
-23.0307820561
 10
74.5979033524
 20
-23.0359761868
 10
74.5920149991
 20
-23.0410922725
 10
74.5865211605
 20
-23.0461471525
 10
74.5814188848
 20
-23.0511439467
 10
74.5767111238
 20
-23.0560721458
 10
74.5723785644
 20
-23.06092902
 10
74.5684253094
 20
-23.0657126911
 10
74.5648472562
 20
-23.0704183284
 10
74.5616127834
 20
-23.0750388851
 10
74.5587260654
 20
-23.0795716034
 10
74.5561829278
 20
-23.0840130471
 10
74.5539392261
 20
-23.088355129
 10
74.5519975698
 20
-23.0925962472
 10
74.5503553494
 20
-23.0967323209
 10
74.5489605921
 20
-23.1007514437
 10
74.547815374
 20
-23.1046463643
 10
74.546917619
 20
-23.1084189791
 10
74.5462091253
 20
-23.112071191
 10
74.5456864201
 20
-23.1155796257
 10
74.5453529764
 20
-23.1189630121
 10
74.5451610108
 20
-23.1222875781
 10
74.5450945958
 20
-23.1255751004
 10
74.5451696589
 20
-23.1288018643
 10
74.5453862003
 20
-23.1319668478
  0
LWPOLYLINE
  5
43C
100
AcDbEntity
  8
RACCORDO
100
AcDbPolyline
 62
250
  6
CONTINUOUS
 90
3
 70
0
 10
74.7890041917
 20
-22.92499786
 10
74.7770256432
 20
-22.9307527719
 10
74.7535881365
 20
-22.9422047182
  0
LINE
  5
43D
100
AcDbEntity
  8
RACCORDO
100
AcDbLine
 62
250
  6
CONTINUOUS
 10
74.9573948917
 20
-22.8472334717
 11
74.9491288809
 21
-22.8511795217
  0
LINE
  5
43E
100
AcDbEntity
  8
RACCORDO
100
AcDbLine
 62
250
  6
CONTINUOUS
 10
74.8132459771
 20
-22.9135484887
 11
74.7890041917
 21
-22.92499786
  0
LINE
  5
43F
100
AcDbEntity
  8
RACCORDO
100
AcDbLine
 62
250
  6
CONTINUOUS
 10
74.9491288809
 20
-22.8511795217
 11
74.9392736518
 21
-22.8557796898
  0
LINE
  5
440
100
AcDbEntity
  8
RACCORDO
100
AcDbLine
 62
250
  6
CONTINUOUS
 10
74.8375678358
 20
-22.9022367355
 11
74.8132459771
 21
-22.9135484887
  0
LINE
  5
441
100
AcDbEntity
  8
RACCORDO
100
AcDbLine
 62
250
  6
CONTINUOUS
 10
74.9392736518
 20
-22.8557796898
 11
74.927710804
 21
-22.8611106252
  0
LINE
  5
442
100
AcDbEntity
  8
RACCORDO
100
AcDbLine
 62
250
  6
CONTINUOUS
 10
74.8709326664
 20
-22.8869435026
 11
74.8375678358
 21
-22.9022367355
  0
LINE
  5
443
100
AcDbEntity
  8
RACCORDO
100
AcDbLine
 62
250
  6
CONTINUOUS
 10
74.927710804
 20
-22.8611106252
 11
74.8901292215
 21
-22.8782245701
  0
LINE
  5
444
100
AcDbEntity
  8
RACCORDO
100
AcDbLine
 62
250
  6
CONTINUOUS
 10
74.8901292215
 20
-22.8782245701
 11
74.8709326664
 21
-22.8869435026
  0
LINE
  5
445
100
AcDbEntity
  8
RACCORDO
100
AcDbLine
 62
250
  6
CONTINUOUS
 10
74.8472292512
 20
22.8997225501
 11
74.9337966667
 21
22.8583746863
  0
LINE
  5
446
100
AcDbEntity
  8
RACCORDO
100
AcDbLine
 62
250
  6
CONTINUOUS
 10
74.9337966667
 20
22.8583746863
 11
74.944633265
 21
22.8531219548
  0
LINE
  5
447
100
AcDbEntity
  8
RACCORDO
100
AcDbLine
 62
250
  6
CONTINUOUS
 10
74.810131541
 20
22.917778543
 11
74.8472292512
 21
22.8997225501
  0
LWPOLYLINE
  5
448
100
AcDbEntity
  8
RACCORDO
100
AcDbPolyline
 62
250
  6
CONTINUOUS
 90
23
 70
0
 10
74.944633265
 20
22.8531219548
 10
74.9537342714
 20
22.8486238995
 10
74.9577049264
 20
22.8466303958
 10
74.961288122
 20
22.8447950432
 10
74.9645421541
 20
22.843106502
 10
74.9674685238
 20
22.8415566041
 10
74.9700657299
 20
22.8401372896
 10
74.9723875642
 20
22.8388385401
 10
74.9744356611
 20
22.8376532428
 10
74.9762083861
 20
22.8365743841
 10
74.9777546276
 20
22.8355932174
 10
74.9790762811
 20
22.8347032444
 10
74.980171451
 20
22.8338988904
 10
74.9810833384
 20
22.8331736458
 10
74.9818128426
 20
22.832521819
 10
74.9823590642
 20
22.8319384854
 10
74.9827625058
 20
22.8314187045
 10
74.9830237819
 20
22.8309579556
 10
74.983142278
 20
22.8305511391
 10
74.9831566529
 20
22.8301929425
 10
74.9830797928
 20
22.8298790369
 10
74.9828988114
 20
22.8296058207
 10
74.9826137088
 20
22.8293695705
  0
LWPOLYLINE
  5
449
100
AcDbEntity
  8
RACCORDO
100
AcDbPolyline
 62
250
  6
CONTINUOUS
 90
19
 70
0
 10
75.5420163104
 20
-26.0876635513
 10
75.5141103094
 20
-25.8299048619
 10
75.5010199833
 20
-25.7048635236
 10
75.488644596
 20
-25.5831464167
 10
75.4770468083
 20
-25.4650866389
 10
75.4662127688
 20
-25.3503248728
 10
75.4561375037
 20
-25.2386220741
 10
75.4468252179
 20
-25.1298802404
 10
75.4382920286
 20
-25.0241822448
 10
75.4305439084
 20
-24.9215602956
 10
75.4235858885
 20
-24.8221306654
 10
75.4174017724
 20
-24.7257620022
 10
75.4119633932
 20
-24.6321158262
 10
75.4072603954
 20
-24.5411502382
 10
75.4032842345
 20
-24.4528972482
 10
75.4000143312
 20
-24.3671322443
 10
75.3974361387
 20
-24.2837774686
 10
75.395538135
 20
-24.2029031879
 10
75.3943043294
 20
-24.1245085149
  0
LINE
  5
44A
100
AcDbEntity
  8
RACCORDO
100
AcDbLine
 62
250
  6
CONTINUOUS
 10
75.8970661207
 20
29.9943581011
 11
75.9606173075
 21
30.5439948785
  0
LINE
  5
44B
100
AcDbEntity
  8
RACCORDO
100
AcDbLine
 62
250
  6
CONTINUOUS
 10
75.9606173075
 20
30.5439948785
 11
76.0259264782
 21
31.0990390148
  0
LINE
  5
44C
100
AcDbEntity
  8
RACCORDO
100
AcDbLine
 62
250
  6
CONTINUOUS
 10
75.3352424258
 20
22.5240015822
 11
75.3357530433
 21
22.5283594445
  0
LINE
  5
44D
100
AcDbEntity
  8
RACCORDO
100
AcDbLine
 62
250
  6
CONTINUOUS
 10
76.0259264782
 20
31.0990390148
 11
76.09226529
 21
31.6565595384
  0
LINE
  5
44E
100
AcDbEntity
  8
RACCORDO
100
AcDbLine
 62
250
  6
CONTINUOUS
 10
76.09226529
 20
31.6565595384
 11
76.1592434883
 21
32.215695144
  0
LINE
  5
44F
100
AcDbEntity
  8
RACCORDO
100
AcDbLine
 62
250
  6
CONTINUOUS
 10
75.3347179138
 20
22.5197608928
 11
75.3352424258
 21
22.5240015822
  0
LINE
  5
450
100
AcDbEntity
  8
RACCORDO
100
AcDbLine
 62
250
  6
CONTINUOUS
 10
75.3341785633
 20
22.5156373722
 11
75.3347179138
 21
22.5197608928
  0
LWPOLYLINE
  5
451
100
AcDbEntity
  8
RACCORDO
100
AcDbPolyline
 62
250
  6
CONTINUOUS
 90
17
 70
0
 10
74.9356112352
 20
26.8146773088
 10
74.9766335833
 20
27.0448703123
 10
75.0198078735
 20
27.278616698
 10
75.0651341059
 20
27.5159051033
 10
75.1126864547
 20
27.7568672898
 10
75.1623907456
 20
28.0013433959
 10
75.2140244556
 20
28.2488804541
 10
75.2676039618
 20
28.4994488949
 10
75.323112887
 20
28.7530358261
 10
75.3802795768
 20
29.0092084152
 10
75.439139861
 20
29.2680228987
 10
75.4996579099
 20
29.5293681727
 10
75.56145458
 20
29.7925563641
 10
75.6245341264
 20
30.0575136363
 10
75.6888922941
 20
30.3242483166
 10
75.7541371737
 20
30.5921932483
 10
75.8202936991
 20
30.8613754978
  0
LINE
  5
452
100
AcDbEntity
  8
RACCORDO
100
AcDbLine
 62
250
  6
CONTINUOUS
 10
74.8640735692
 20
26.4401446416
 11
74.9356112352
 21
26.8146773088
  0
LINE
  5
453
100
AcDbEntity
  8
RACCORDO
100
AcDbLine
 62
250
  6
CONTINUOUS
 10
75.8202936991
 20
30.8613754978
 11
75.9548001748
 21
31.4023966053
  0
LWPOLYLINE
  5
454
100
AcDbEntity
  8
RACCORDO
100
AcDbPolyline
 62
250
  6
CONTINUOUS
 90
3
 70
0
 10
75.9548001748
 20
31.4023966053
 10
76.0906755139
 20
31.9443132594
 10
76.1592431849
 20
32.2156939465
  0
LINE
  5
455
100
AcDbEntity
  8
RACCORDO
100
AcDbLine
 62
250
  6
CONTINUOUS
 10
75.2708821195
 20
-8.5032493175
 11
75.2695807082
 21
-8.5061548337
  0
LINE
  5
456
100
AcDbEntity
  8
RACCORDO
100
AcDbLine
 62
250
  6
CONTINUOUS
 10
75.2773966196
 20
-8.4892220596
 11
75.2708821195
 21
-8.5032493175
  0
LINE
  5
457
100
AcDbEntity
  8
RACCORDO
100
AcDbLine
 62
250
  6
CONTINUOUS
 10
75.2852822763
 20
-8.4736967308
 11
75.2773966196
 21
-8.4892220596
  0
LWPOLYLINE
  5
458
100
AcDbEntity
  8
RACCORDO
100
AcDbPolyline
 62
250
  6
CONTINUOUS
 90
16
 70
0
 10
75.2959068656
 20
-8.5940940151
 10
75.2973082159
 20
-8.5913982061
 10
75.2987060144
 20
-8.5879759735
 10
75.3001002613
 20
-8.5838273173
 10
75.3014924714
 20
-8.5789495076
 10
75.3028811297
 20
-8.5733452743
 10
75.3042616912
 20
-8.5670228068
 10
75.3056340312
 20
-8.5599783232
 10
75.3069982743
 20
-8.5522156054
 10
75.3083502487
 20
-8.5437541895
 10
75.309689831
 20
-8.5345908405
 10
75.3110171447
 20
-8.5247287934
 10
75.312328388
 20
-8.514197289
 10
75.3136232213
 20
-8.502996265
 10
75.3149019844
 20
-8.4911257836
 10
75.3161618944
 20
-8.478615273
  0
LINE
  5
459
100
AcDbEntity
  8
RACCORDO
100
AcDbLine
 62
250
  6
CONTINUOUS
 10
75.2937090931
 20
-8.4584587276
 11
75.2852822763
 21
-8.4736967308
  0
LINE
  5
45A
100
AcDbEntity
  8
RACCORDO
100
AcDbLine
 62
250
  6
CONTINUOUS
 10
75.297958953
 20
-8.4512257046
 11
75.2937090931
 21
-8.4584587276
  0
LINE
  5
45B
100
AcDbEntity
  8
RACCORDO
100
AcDbLine
 62
7
  6
CONTINUOUS
 10
75.319164233
 20
-8.4158259675
 11
75.297958953
 21
-8.4512257046
  0
LINE
  5
45C
100
AcDbEntity
  8
RACCORDO
100
AcDbLine
 62
250
  6
CONTINUOUS
 10
75.2959068656
 20
-8.5940940151
 11
75.2275752953
 21
-8.708165587
  0
LINE
  5
45D
100
AcDbEntity
  8
RACCORDO
100
AcDbLine
 62
7
  6
CONTINUOUS
 10
75.297958953
 20
8.4512257046
 11
75.3191644793
 21
8.4158255563
  0
LINE
  5
45E
100
AcDbEntity
  8
RACCORDO
100
AcDbLine
 62
250
  6
CONTINUOUS
 10
75.2275752953
 20
8.708165587
 11
75.2959068656
 21
8.5940940151
  0
LWPOLYLINE
  5
45F
100
AcDbEntity
  8
RACCORDO
100
AcDbPolyline
 62
250
  6
CONTINUOUS
 90
3
 70
0
 10
75.2852822763
 20
8.4736967308
 10
75.2937090931
 20
8.4584587276
 10
75.297958953
 20
8.4512257046
  0
LINE
  5
460
100
AcDbEntity
  8
RACCORDO
100
AcDbLine
 62
250
  6
CONTINUOUS
 10
75.2773966196
 20
8.4892220596
 11
75.2852822763
 21
8.4736967308
  0
LINE
  5
461
100
AcDbEntity
  8
RACCORDO
100
AcDbLine
 62
250
  6
CONTINUOUS
 10
75.2707834682
 20
8.5034617372
 11
75.2773966196
 21
8.4892220596
  0
LINE
  5
462
100
AcDbEntity
  8
RACCORDO
100
AcDbLine
 62
250
  6
CONTINUOUS
 10
75.2698073294
 20
8.5056182172
 11
75.2707834682
 21
8.5034617372
  0
LWPOLYLINE
  5
463
100
AcDbEntity
  8
RACCORDO
100
AcDbPolyline
 62
250
  6
CONTINUOUS
 90
22
 70
0
 10
75.0209431823
 20
-26.7987365804
 10
74.9281067753
 20
-26.4229818359
 10
74.8980925866
 20
-26.3007534149
 10
74.8691498537
 20
-26.1807982529
 10
74.8413658322
 20
-26.0632040708
 10
74.8146532666
 20
-25.9478965677
 10
74.7894306522
 20
-25.835609
 10
74.7658175672
 20
-25.7266402666
 10
74.7436944334
 20
-25.6206700318
 10
74.723121012
 20
-25.5174925716
 10
74.7041099736
 20
-25.4170064579
 10
74.6866486475
 20
-25.3192871141
 10
74.6707587829
 20
-25.2243927968
 10
74.656476474
 20
-25.1324159286
 10
74.6437656267
 20
-25.0432241659
 10
74.6325397073
 20
-24.956539213
 10
74.6227992699
 20
-24.8723063091
 10
74.6145437603
 20
-24.7905421664
 10
74.6076849831
 20
-24.711080231
 10
74.6021935395
 20
-24.6338529593
 10
74.5980988281
 20
-24.5588894474
 10
74.595400849
 20
-24.486169292
  0
LWPOLYLINE
  5
464
100
AcDbEntity
  8
RACCORDO
100
AcDbPolyline
 62
250
  6
CONTINUOUS
 90
3
 70
0
 10
76.159243141
 20
-32.2156939465
 10
76.0900608992
 20
-31.901093334
 10
76.0213005007
 20
-31.5868049365
  0
LWPOLYLINE
  5
465
100
AcDbEntity
  8
RACCORDO
100
AcDbPolyline
 62
250
  6
CONTINUOUS
 90
13
 70
0
 10
76.0213005007
 20
-31.5868049365
 10
75.8848886144
 20
-30.9590442482
 10
75.8172371265
 20
-30.6456428256
 10
75.750477341
 20
-30.3334901096
 10
75.6846300279
 20
-30.0226754456
 10
75.6196744172
 20
-29.7131792627
 10
75.5560180579
 20
-29.4056677671
 10
75.4936717038
 20
-29.1001609242
 10
75.4326246012
 20
-28.7967025718
 10
75.3732520386
 20
-28.4959927641
 10
75.3156791123
 20
-28.1982828262
 10
75.259780726
 20
-27.9033757686
 10
75.2055568799
 20
-27.6112964501
  0
LWPOLYLINE
  5
466
100
AcDbEntity
  8
RACCORDO
100
AcDbPolyline
 62
250
  6
CONTINUOUS
 90
8
 70
0
 10
75.2055568799
 20
-27.6112964501
 10
75.1838468503
 20
-27.5044420901
 10
75.1605433876
 20
-27.394423441
 10
75.135646492
 20
-27.2812725804
 10
75.1089447138
 20
-27.1647431698
 10
75.0806495026
 20
-27.0451595875
 10
75.0513952066
 20
-26.9234118668
 10
75.0209431823
 20
-26.7987365804
  0
LWPOLYLINE
  5
467
100
AcDbEntity
  8
RACCORDO
100
AcDbPolyline
 62
250
  6
CONTINUOUS
 90
68
 70
0
 10
75.3340412678
 20
-22.4985385855
 10
75.3337706923
 20
-22.4966907955
 10
75.3334961797
 20
-22.494873916
 10
75.3332177451
 20
-22.493088225
 10
75.3329350975
 20
-22.4913351409
 10
75.3326482343
 20
-22.4896145059
 10
75.3323571581
 20
-22.4879264778
 10
75.3320615866
 20
-22.4862729484
 10
75.3317615402
 20
-22.4846538824
 10
75.3314569985
 20
-22.4830693152
 10
75.3311476169
 20
-22.4815212447
 10
75.3308334038
 20
-22.4800095441
 10
75.330514351
 20
-22.4785343402
 10
75.3301900882
 20
-22.4770980112
 10
75.3298606331
 20
-22.475700451
 10
75.3295259681
 20
-22.4743417657
 10
75.3291856706
 20
-22.4730246518
 10
75.3288397517
 20
-22.4717489543
 10
75.3284882002
 20
-22.4705148283
 10
75.3281305607
 20
-22.4693254354
 10
75.3277668548
 20
-22.4681806331
 10
75.3273970608
 20
-22.467080564
 10
75.3270206581
 20
-22.4660288174
 10
75.3266376721
 20
-22.4650252215
 10
75.3262480774
 20
-22.4640699482
 10
75.3258512763
 20
-22.4631671021
 10
75.3254472877
 20
-22.4623164626
 10
75.3250360927
 20
-22.4615182504
 10
75.3246170371
 20
-22.4607772319
 10
75.3241901604
 20
-22.460093183
 10
75.3237554231
 20
-22.4594663279
 10
75.3233120533
 20
-22.4589021055
 10
75.3228601053
 20
-22.4584002359
 10
75.3223995248
 20
-22.4579609991
 10
75.3219293766
 20
-22.4575906745
 10
75.3214497571
 20
-22.4572888911
 10
75.32096057
 20
-22.4570560199
 10
75.320460591
 20
-22.4568994522
 10
75.3199498932
 20
-22.456818678
 10
75.3194284035
 20
-22.4568142073
 10
75.3188946777
 20
-22.4568949618
 10
75.3183489968
 20
-22.4570601329
 10
75.3177910798
 20
-22.4573105292
 10
75.3172186398
 20
-22.4576574981
 10
75.3166311108
 20
-22.4581010878
 10
75.3160290588
 20
-22.4586412501
 10
75.3154118941
 20
-22.4592891877
 10
75.3147771386
 20
-22.4600501074
 10
75.3141272705
 20
-22.4609188025
 10
75.3134691349
 20
-22.4618908548
 10
75.3127996785
 20
-22.4629774955
 10
75.3121219547
 20
-22.4641674935
 10
75.3114519691
 20
-22.4654227379
 10
75.3107923411
 20
-22.466743392
 10
75.3101404513
 20
-22.4681292926
 10
75.3095044463
 20
-22.4695418391
 10
75.3088868707
 20
-22.4709756389
 10
75.3082851798
 20
-22.4724360846
 10
75.3076998866
 20
-22.473900754
 10
75.3071323533
 20
-22.4753643667
 10
75.3065812176
 20
-22.476832203
 10
75.3060429055
 20
-22.4782976819
 10
75.3055168631
 20
-22.4797606572
 10
75.3050036442
 20
-22.4812212752
 10
75.3045013364
 20
-22.482673393
 10
75.3040096423
 20
-22.4841169006
 10
75.3035288593
 20
-22.485551908
 10
75.302597002
 20
-22.4883781761
  0
LINE
  5
468
100
AcDbEntity
  8
RACCORDO
100
AcDbLine
 62
250
  6
CONTINUOUS
 10
75.334570988
 20
-22.5023271472
 11
75.3340412678
 21
-22.4985385855
  0
LINE
  5
469
100
AcDbEntity
  8
RACCORDO
100
AcDbLine
 62
250
  6
CONTINUOUS
 10
75.335086434
 20
-22.5062383286
 11
75.334570988
 21
-22.5023271472
  0
LINE
  5
46A
100
AcDbEntity
  8
RACCORDO
100
AcDbLine
 62
250
  6
CONTINUOUS
 10
75.335588269
 20
-22.5102696594
 11
75.335086434
 21
-22.5062383286
  0
LINE
  5
46B
100
AcDbEntity
  8
RACCORDO
100
AcDbLine
 62
250
  6
CONTINUOUS
 10
75.3370143436
 20
-22.523040515
 11
75.3365521371
 21
-22.5186778427
  0
LINE
  5
46C
100
AcDbEntity
  8
RACCORDO
100
AcDbLine
 62
250
  6
CONTINUOUS
 10
76.1592434865
 20
-32.2156955138
 11
76.0583963165
 21
-31.2510410445
  0
LINE
  5
46D
100
AcDbEntity
  8
RACCORDO
100
AcDbLine
 62
7
  6
CONTINUOUS
 10
75.3163586937
 20
8.4444895474
 11
75.3171550236
 21
8.4369251679
  0
LINE
  5
46E
100
AcDbEntity
  8
RACCORDO
100
AcDbLine
 62
250
  6
CONTINUOUS
 10
76.0583963165
 20
-31.2510410445
 11
75.9920278783
 21
-30.6099267507
  0
LWPOLYLINE
  5
46F
100
AcDbEntity
  8
RACCORDO
100
AcDbPolyline
 62
250
  6
CONTINUOUS
 90
10
 70
0
 10
75.9920278783
 20
-30.6099267507
 10
75.9271425099
 20
-29.9736271327
 10
75.8953894002
 20
-29.6576511364
 10
75.8642452008
 20
-29.3438136094
 10
75.8337388664
 20
-29.0321184423
 10
75.8039009874
 20
-28.7225865754
 10
75.7748627015
 20
-28.4159480337
 10
75.7466810684
 20
-28.1124547137
 10
75.7193499395
 20
-27.8118834293
 10
75.6823600156
 20
-27.3976001246
  0
LWPOLYLINE
  5
470
100
AcDbEntity
  8
RACCORDO
100
AcDbPolyline
 62
250
  6
CONTINUOUS
 90
16
 70
0
 10
75.3161606474
 20
8.4786280822
 10
75.314900649
 20
8.4911385832
 10
75.3136217828
 20
8.503009137
 10
75.3123268589
 20
8.5142100561
 10
75.3110155374
 20
8.5247412135
 10
75.3096881583
 20
8.5346027363
 10
75.308348551
 20
8.5437653181
 10
75.3069966015
 20
8.552225637
 10
75.3056324237
 20
8.5599870151
 10
75.3042601892
 20
8.5670301124
 10
75.3028797724
 20
8.5733511527
 10
75.3014912988
 20
8.5789539123
 10
75.3000993165
 20
8.5838303795
 10
75.2987053416
 20
8.5879778837
 10
75.2973078579
 20
8.5913990956
 10
75.2959068656
 20
8.5940940151
  0
LINE
  5
471
100
AcDbEntity
  8
RACCORDO
100
AcDbLine
 62
250
  6
CONTINUOUS
 10
75.3374634369
 20
-22.527500958
 11
75.3370143436
 21
-22.523040515
  0
LINE
  5
472
100
AcDbEntity
  8
RACCORDO
100
AcDbLine
 62
7
  6
CONTINUOUS
 10
75.3171550236
 20
8.4369251679
 11
75.3180083979
 21
8.4283203328
  0
LWPOLYLINE
  5
473
100
AcDbEntity
  8
RACCORDO
100
AcDbPolyline
 62
250
  6
CONTINUOUS
 90
7
 70
0
 10
75.6823600156
 20
-27.3976001246
 10
75.6709400095
 20
-27.2775922747
 10
75.6586742944
 20
-27.1542533428
 10
75.6455766097
 20
-27.0272668242
 10
75.6317355955
 20
-26.8969955351
 10
75.6173312661
 20
-26.7644774842
 10
75.5420163104
 20
-26.0876635513
  0
LINE
  5
474
100
AcDbEntity
  8
RACCORDO
100
AcDbLine
 62
250
  6
CONTINUOUS
 10
75.3378994839
 20
-22.5320511916
 11
75.3374634369
 21
-22.527500958
  0
LWPOLYLINE
  5
475
100
AcDbEntity
  8
RACCORDO
100
AcDbPolyline
 62
250
  6
CONTINUOUS
 90
52
 70
0
 10
75.3446000782
 20
22.6607900504
 10
75.3432417418
 20
22.6753013914
 10
75.3411665432
 20
22.6898003892
 10
75.3383763453
 20
22.7042740035
 10
75.3348736607
 20
22.7187094405
 10
75.3306616274
 20
22.7330934941
 10
75.3257440085
 20
22.7474125633
 10
75.3201252178
 20
22.761653566
 10
75.3138103124
 20
22.7758039136
 10
75.306804968
 20
22.7898508561
 10
75.2991154811
 20
22.8037817539
 10
75.290748764
 20
22.8175840985
 10
75.2817123376
 20
22.8312454926
 10
75.2720143243
 20
22.8447536482
 10
75.2616634416
 20
22.8580964314
 10
75.2506689952
 20
22.8712618827
 10
75.2390408675
 20
22.8842381653
 10
75.2267895108
 20
22.8970136175
 10
75.2139259391
 20
22.9095767965
 10
75.200461716
 20
22.9219164243
 10
75.1864089433
 20
22.9340213936
 10
75.1717802526
 20
22.9458808191
 10
75.1565887939
 20
22.9574840585
 10
75.1408482217
 20
22.9688206637
 10
75.1245726825
 20
22.9798803861
 10
75.1077768062
 20
22.990653288
 10
75.09047569
 20
23.0011296831
 10
75.0726848828
 20
23.0113000882
 10
75.054420376
 20
23.0211553506
 10
75.0356985876
 20
23.0306866238
 10
75.0165363447
 20
23.0398853086
 10
74.9969508713
 20
23.0487431237
 10
74.9769597729
 20
23.0572521211
 10
74.9565810194
 20
23.0654046612
 10
74.9358329278
 20
23.0731933993
 10
74.9147341489
 20
23.0806113513
 10
74.8933036503
 20
23.0876519087
 10
74.8715606948
 20
23.0943087349
 10
74.8495248271
 20
23.1005758536
 10
74.8272158579
 20
23.1064477132
 10
74.8046538403
 20
23.1119190393
 10
74.7818590547
 20
23.1169849091
 10
74.7588519934
 20
23.1216408377
 10
74.7356533374
 20
23.1258826501
 10
74.7122839388
 20
23.1297065226
 10
74.6887648053
 20
23.133109055
 10
74.6651170774
 20
23.1360872055
 10
74.6413620117
 20
23.1386382808
 10
74.6175209624
 20
23.1407599756
 10
74.5936153603
 20
23.1424503796
 10
74.569666693
 20
23.1437079785
 10
74.5456964873
 20
23.1445316433
  0
LINE
  5
476
100
AcDbEntity
  8
RACCORDO
100
AcDbLine
 62
7
  6
CONTINUOUS
 10
75.3180083979
 20
8.4283203328
 11
75.3189108806
 21
8.4186624768
  0
LWPOLYLINE
  5
477
100
AcDbEntity
  8
RACCORDO
100
AcDbPolyline
 62
250
  6
CONTINUOUS
 90
3
 70
0
 10
75.318623552
 20
8.4516899351
 10
75.3174015336
 20
8.4654789823
 10
75.3161606474
 20
8.4786280822
  0
LINE
  5
478
100
AcDbEntity
  8
RACCORDO
100
AcDbLine
 62
250
  6
CONTINUOUS
 10
75.3385291781
 20
-22.5390270413
 11
75.3378994839
 21
-22.5320511916
  0
LINE
  5
479
100
AcDbEntity
  8
RACCORDO
100
AcDbLine
 62
7
  6
CONTINUOUS
 10
75.3189108806
 20
8.4186624768
 11
75.3198562523
 21
8.4079259123
  0
LINE
  5
47A
100
AcDbEntity
  8
RACCORDO
100
AcDbLine
 62
250
  6
CONTINUOUS
 10
75.3391297297
 20
-22.5461590994
 11
75.3385291781
 21
-22.5390270413
  0
LINE
  5
47B
100
AcDbEntity
  8
RACCORDO
100
AcDbLine
 62
7
  6
CONTINUOUS
 10
75.3198562523
 20
8.4079259123
 11
75.3208390315
 21
8.396084332
  0
LWPOLYLINE
  5
47C
100
AcDbEntity
  8
RACCORDO
100
AcDbPolyline
 62
250
  6
CONTINUOUS
 90
3
 70
0
 10
75.3210048171
 20
8.422267473
 10
75.3198246254
 20
8.4372865835
 10
75.318623552
 20
8.4516899351
  0
LINE
  5
47D
100
AcDbEntity
  8
RACCORDO
100
AcDbLine
 62
7
  6
CONTINUOUS
 10
75.3208390315
 20
8.396084332
 11
75.32185201
 21
8.3831358326
  0
LINE
  5
47E
100
AcDbEntity
  8
RACCORDO
100
AcDbLine
 62
250
  6
CONTINUOUS
 10
75.3397012946
 20
-22.5534176673
 11
75.3391297297
 21
-22.5461590994
  0
LINE
  5
47F
100
AcDbEntity
  8
RACCORDO
100
AcDbLine
 62
250
  6
CONTINUOUS
 10
75.3402446251
 20
-22.5607793728
 11
75.3397012946
 21
-22.5534176673
  0
LINE
  5
480
100
AcDbEntity
  8
RACCORDO
100
AcDbLine
 62
7
  6
CONTINUOUS
 10
75.32185201
 20
8.3831358326
 11
75.3234160367
 21
8.361594486
  0
LINE
  5
481
100
AcDbEntity
  8
RACCORDO
100
AcDbLine
 62
250
  6
CONTINUOUS
 10
75.3233000989
 20
8.3904163445
 11
75.3210048171
 21
8.422267473
  0
LINE
  5
482
100
AcDbEntity
  8
RACCORDO
100
AcDbLine
 62
250
  6
CONTINUOUS
 10
75.340928006
 20
-22.5707383
 11
75.3402446251
 21
-22.5607793728
  0
LINE
  5
483
100
AcDbEntity
  8
RACCORDO
100
AcDbLine
 62
7
  6
CONTINUOUS
 10
75.3234160367
 20
8.361594486
 11
75.3250182634
 21
8.3374650856
  0
LINE
  5
484
100
AcDbEntity
  8
RACCORDO
100
AcDbLine
 62
250
  6
CONTINUOUS
 10
75.3255027206
 20
8.3562217607
 11
75.3233000989
 21
8.3904163445
  0
LINE
  5
485
100
AcDbEntity
  8
RACCORDO
100
AcDbLine
 62
250
  6
CONTINUOUS
 10
75.3415685092
 20
-22.5808557227
 11
75.340928006
 21
-22.5707383
  0
LINE
  5
486
100
AcDbEntity
  8
RACCORDO
100
AcDbLine
 62
7
  6
CONTINUOUS
 10
75.3250182634
 20
8.3374650856
 11
75.3266398961
 21
8.3107263786
  0
LINE
  5
487
100
AcDbEntity
  8
RACCORDO
100
AcDbLine
 62
250
  6
CONTINUOUS
 10
75.3421705491
 20
-22.5911400516
 11
75.3415685092
 21
-22.5808557227
  0
LINE
  5
488
100
AcDbEntity
  8
RACCORDO
100
AcDbLine
 62
250
  6
CONTINUOUS
 10
75.3276047996
 20
8.3198065437
 11
75.3255027206
 21
8.3562217607
  0
LINE
  5
489
100
AcDbEntity
  8
RACCORDO
100
AcDbLine
 62
7
  6
CONTINUOUS
 10
75.3266398961
 20
8.3107263786
 11
75.3282653814
 21
8.2813445959
  0
LINE
  5
48A
100
AcDbEntity
  8
RACCORDO
100
AcDbLine
 62
250
  6
CONTINUOUS
 10
75.3428774615
 20
-22.6042994107
 11
75.3421705491
 21
-22.5911400516
  0
LINE
  5
48B
100
AcDbEntity
  8
RACCORDO
100
AcDbLine
 62
250
  6
CONTINUOUS
 10
75.3296014232
 20
8.281254376
 11
75.3276047996
 21
8.3198065437
  0
LINE
  5
48C
100
AcDbEntity
  8
RACCORDO
100
AcDbLine
 62
7
  6
CONTINUOUS
 10
75.3282653814
 20
8.2813445959
 11
75.3298777953
 21
8.2493149426
  0
LINE
  5
48D
100
AcDbEntity
  8
RACCORDO
100
AcDbLine
 62
250
  6
CONTINUOUS
 10
75.3435415243
 20
-22.6178883743
 11
75.3428774615
 21
-22.6042994107
  0
LINE
  5
48E
100
AcDbEntity
  8
RACCORDO
100
AcDbLine
 62
250
  6
CONTINUOUS
 10
75.3314853954
 20
8.2406970121
 11
75.3296014232
 21
8.281254376
  0
LINE
  5
48F
100
AcDbEntity
  8
RACCORDO
100
AcDbLine
 62
7
  6
CONTINUOUS
 10
75.3298777953
 20
8.2493149426
 11
75.3314633444
 21
8.2146078599
  0
LINE
  5
490
100
AcDbEntity
  8
RACCORDO
100
AcDbLine
 62
250
  6
CONTINUOUS
 10
75.3442897066
 20
-22.6348829863
 11
75.3435415243
 21
-22.6178883743
  0
LINE
  5
491
100
AcDbEntity
  8
RACCORDO
100
AcDbLine
 62
250
  6
CONTINUOUS
 10
74.5602503339
 20
-23.4756832362
 11
74.545386194
 21
-23.1319668478
  0
LINE
  5
492
100
AcDbEntity
  8
RACCORDO
100
AcDbLine
 62
250
  6
CONTINUOUS
 10
75.3332503751
 20
8.1982812831
 11
75.3314853954
 21
8.2406970121
  0
LINE
  5
493
100
AcDbEntity
  8
RACCORDO
100
AcDbLine
 62
7
  6
CONTINUOUS
 10
75.3314633444
 20
8.2146078599
 11
75.3335129008
 21
8.1640789678
  0
LINE
  5
494
100
AcDbEntity
  8
RACCORDO
100
AcDbLine
 62
250
  6
CONTINUOUS
 10
75.3591537273
 20
-23.0129618484
 11
75.3442897066
 21
-22.6348829863
  0
LINE
  5
495
100
AcDbEntity
  8
RACCORDO
100
AcDbLine
 62
250
  6
CONTINUOUS
 10
74.5740265917
 20
-23.8326591283
 11
74.5602503339
 21
-23.4756832362
  0
LINE
  5
496
100
AcDbEntity
  8
RACCORDO
100
AcDbLine
 62
250
  6
CONTINUOUS
 10
75.3356649955
 20
8.1314209814
 11
75.3332503751
 21
8.1982812831
  0
LINE
  5
497
100
AcDbEntity
  8
RACCORDO
100
AcDbLine
 62
250
  6
CONTINUOUS
 10
75.3729296152
 20
-23.4056353363
 11
75.3591537273
 21
-23.0129618484
  0
LINE
  5
498
100
AcDbEntity
  8
RACCORDO
100
AcDbLine
 62
7
  6
CONTINUOUS
 10
75.3335129008
 20
8.1640789678
 11
75.3354609342
 21
8.1085520372
  0
LINE
  5
499
100
AcDbEntity
  8
RACCORDO
100
AcDbLine
 62
250
  6
CONTINUOUS
 10
74.5866741706
 20
-24.2018359044
 11
74.5740265917
 21
-23.8326591283
  0
LINE
  5
49A
100
AcDbEntity
  8
RACCORDO
100
AcDbLine
 62
250
  6
CONTINUOUS
 10
74.595400849
 20
-24.486169292
 11
74.5866741706
 21
-24.2018359044
  0
LINE
  5
49B
100
AcDbEntity
  8
RACCORDO
100
AcDbLine
 62
250
  6
CONTINUOUS
 10
75.3855773226
 20
-23.8117256394
 11
75.3729296152
 21
-23.4056353363
  0
LINE
  5
49C
100
AcDbEntity
  8
RACCORDO
100
AcDbLine
 62
250
  6
CONTINUOUS
 10
75.3377859084
 20
8.0610955718
 11
75.3356649955
 21
8.1314209814
  0
LINE
  5
49D
100
AcDbEntity
  8
RACCORDO
100
AcDbLine
 62
7
  6
CONTINUOUS
 10
75.3354609342
 20
8.1085520372
 11
75.3372741674
 21
8.0479168502
  0
LINE
  5
49E
100
AcDbEntity
  8
RACCORDO
100
AcDbLine
 62
250
  6
CONTINUOUS
 10
75.3943044765
 20
-24.1245085042
 11
75.3855773226
 21
-23.8117256394
  0
LINE
  5
49F
100
AcDbEntity
  8
RACCORDO
100
AcDbLine
 62
250
  6
CONTINUOUS
 10
75.3396016277
 20
7.9876916295
 11
75.3377859084
 21
8.0610955718
  0
LINE
  5
4A0
100
AcDbEntity
  8
RACCORDO
100
AcDbLine
 62
7
  6
CONTINUOUS
 10
75.3372741674
 20
8.0479168502
 11
75.3389176031
 21
7.9820491533
  0
LWPOLYLINE
  5
4A1
100
AcDbEntity
  8
RACCORDO
100
AcDbPolyline
 62
250
  6
CONTINUOUS
 90
43
 70
0
 10
75.2822025692
 20
22.5297807101
 10
75.2819631686
 20
22.540963213
 10
75.2813065593
 20
22.5521301307
 10
75.2802336566
 20
22.5632658996
 10
75.2787459557
 20
22.5743549996
 10
75.27684553
 20
22.5853819756
 10
75.2745350282
 20
22.5963314592
 10
75.2718176706
 20
22.6071881897
 10
75.2686972442
 20
22.6179370362
 10
75.2651780982
 20
22.6285630176
 10
75.2612651372
 20
22.6390513243
 10
75.2569638147
 20
22.6493873387
 10
75.2522801257
 20
22.6595566552
 10
75.2472205978
 20
22.6695451007
 10
75.2417922826
 20
22.679338754
 10
75.2360027457
 20
22.6889239657
 10
75.2298600559
 20
22.6982873767
 10
75.2233727746
 20
22.7074159369
 10
75.2165499431
 20
22.7162969237
 10
75.2094010705
 20
22.7249179597
 10
75.2019361203
 20
22.7332670293
 10
75.1941654966
 20
22.7413324966
 10
75.1861000295
 20
22.7491031203
 10
75.1777509598
 20
22.7565680705
 10
75.1691299239
 20
22.7637169432
 10
75.1602489371
 20
22.7705397748
 10
75.1511203769
 20
22.7770270562
 10
75.1417569659
 20
22.7831697461
 10
75.1321717542
 20
22.7889592831
 10
75.1223781007
 20
22.7943875984
 10
75.1123896552
 20
22.7994471264
 10
75.1022203386
 20
22.8041308155
 10
75.0918843242
 20
22.8084321381
 10
75.0813960173
 20
22.8123450992
 10
75.0707700358
 20
22.8158642453
 10
75.0600211893
 20
22.8189846717
 10
75.0491644586
 20
22.8217020294
 10
75.0382149749
 20
22.8240125312
 10
75.0271879988
 20
22.8259129569
 10
75.0160988986
 20
22.8274006579
 10
75.0049631296
 20
22.8284735607
 10
74.9937962118
 20
22.8291301699
 10
74.9826137088
 20
22.8293695705
  0
LINE
  5
4A2
100
AcDbEntity
  8
RACCORDO
100
AcDbLine
 62
7
  6
CONTINUOUS
 10
75.3389176031
 20
7.9820491533
 11
75.3403536665
 21
7.9107786084
  0
LINE
  5
4A3
100
AcDbEntity
  8
RACCORDO
100
AcDbLine
 62
250
  6
CONTINUOUS
 10
75.3411013815
 20
7.9116039943
 11
75.3396016277
 21
7.9876916295
  0
LINE
  5
4A4
100
AcDbEntity
  8
RACCORDO
100
AcDbLine
 62
7
  6
CONTINUOUS
 10
75.3403536665
 20
7.9107786084
 11
75.3415384616
 21
7.8339955941
  0
LINE
  5
4A5
100
AcDbEntity
  8
RACCORDO
100
AcDbLine
 62
250
  6
CONTINUOUS
 10
75.3422730962
 20
7.8333847153
 11
75.3411013815
 21
7.9116039943
  0
LWPOLYLINE
  5
4A6
100
AcDbEntity
  8
RACCORDO
100
AcDbPolyline
 62
250
  6
CONTINUOUS
 90
13
 70
0
 10
75.2275752953
 20
8.708165587
 10
75.2278015159
 20
8.6907316004
 10
75.2286393352
 20
8.6733189779
 10
75.2300877266
 20
8.6559490576
 10
75.2321449152
 20
8.638643125
 10
75.23480838
 20
8.6214223875
 10
75.2380748571
 20
8.6043079477
 10
75.2419403438
 20
8.5873207784
 10
75.246400103
 20
8.5704816961
 10
75.2514486696
 20
8.553811336
 10
75.2570798571
 20
8.5373301264
 10
75.2632867647
 20
8.5210582639
 10
75.2698073294
 20
8.5056182172
  0
LWPOLYLINE
  5
4A7
100
AcDbEntity
  8
RACCORDO
100
AcDbPolyline
 62
250
  6
CONTINUOUS
 90
9
 70
0
 10
75.2959068656
 20
8.5940940151
 10
75.2961010229
 20
8.5777492435
 10
75.2968327598
 20
8.5614220761
 10
75.298101288
 20
8.5451300981
 10
75.2999052412
 20
8.5288908569
 10
75.3022426766
 20
8.5127218429
 10
75.3051110766
 20
8.4966404711
 10
75.3085073517
 20
8.4806640619
 10
75.3124278441
 20
8.4648098229
  0
LINE
  5
4A8
100
AcDbEntity
  8
RACCORDO
100
AcDbLine
 62
7
  6
CONTINUOUS
 10
75.3415384616
 20
7.8339955941
 11
75.3424211797
 21
7.7516930845
  0
LINE
  5
4A9
100
AcDbEntity
  8
RACCORDO
100
AcDbLine
 62
250
  6
CONTINUOUS
 10
75.3431067026
 20
7.7537308014
 11
75.3422730962
 21
7.8333847153
  0
LINE
  5
4AA
100
AcDbEntity
  8
RACCORDO
100
AcDbLine
 62
250
  6
CONTINUOUS
 10
76.1724335131
 20
29.3591339749
 11
76.1592434935
 21
32.2156939465
  0
LINE
  5
4AB
100
AcDbEntity
  8
RACCORDO
100
AcDbLine
 62
7
  6
CONTINUOUS
 10
75.3424211797
 20
7.7516930845
 11
75.3429441574
 21
7.6639826323
  0
LINE
  5
4AC
100
AcDbEntity
  8
RACCORDO
100
AcDbLine
 62
250
  6
CONTINUOUS
 10
76.1843989895
 20
26.5006046703
 11
76.1724335131
 21
29.3591339749
  0
LINE
  5
4AD
100
AcDbEntity
  8
RACCORDO
100
AcDbLine
 62
250
  6
CONTINUOUS
 10
76.1951396464
 20
23.6402980245
 11
76.1843989895
 21
26.5006046703
  0
LINE
  5
4AE
100
AcDbEntity
  8
RACCORDO
100
AcDbLine
 62
250
  6
CONTINUOUS
 10
75.4039797807
 20
21.291553048
 11
75.3939664305
 21
24.2174730518
  0
LINE
  5
4AF
100
AcDbEntity
  8
RACCORDO
100
AcDbLine
 62
250
  6
CONTINUOUS
 10
75.3436850589
 20
7.6466352326
 11
75.3431067026
 21
7.7537308014
  0
LINE
  5
4B0
100
AcDbEntity
  8
RACCORDO
100
AcDbLine
 62
250
  6
CONTINUOUS
 10
76.2046545325
 20
20.7784064537
 11
76.1951396464
 21
23.6402980245
  0
LINE
  5
4B1
100
AcDbEntity
  8
RACCORDO
100
AcDbLine
 62
250
  6
CONTINUOUS
 10
75.412705069
 20
18.364182103
 11
75.4039797807
 21
21.291553048
  0
LINE
  5
4B2
100
AcDbEntity
  8
RACCORDO
100
AcDbLine
 62
250
  6
CONTINUOUS
 10
76.2129429678
 20
17.9151218814
 11
76.2046545325
 21
20.7784064537
  0
LINE
  5
4B3
100
AcDbEntity
  8
RACCORDO
100
AcDbLine
 62
250
  6
CONTINUOUS
 10
75.420142067
 20
15.4354443441
 11
75.412705069
 21
18.364182103
  0
LINE
  5
4B4
100
AcDbEntity
  8
RACCORDO
100
AcDbLine
 62
250
  6
CONTINUOUS
 10
76.2200045367
 20
15.0506364026
 11
76.2129429678
 21
17.9151218814
  0
LINE
  5
4B5
100
AcDbEntity
  8
RACCORDO
100
AcDbLine
 62
250
  6
CONTINUOUS
 10
75.4262899623
 20
12.5056248244
 11
75.420142067
 21
15.4354443441
  0
LINE
  5
4B6
100
AcDbEntity
  8
RACCORDO
100
AcDbLine
 62
250
  6
CONTINUOUS
 10
76.2258386706
 20
12.1851420839
 11
76.2200045367
 21
15.0506364026
  0
LINE
  5
4B7
100
AcDbEntity
  8
RACCORDO
100
AcDbLine
 62
250
  6
CONTINUOUS
 10
75.4311483305
 20
9.5749504584
 11
75.4262899623
 21
12.5056248244
  0
LINE
  5
4B8
100
AcDbEntity
  8
RACCORDO
100
AcDbLine
 62
250
  6
CONTINUOUS
 10
76.23044497
 20
9.3188309118
 11
76.2258386706
 21
12.1851420839
  0
LWPOLYLINE
  5
4B9
100
AcDbEntity
  8
RACCORDO
100
AcDbPolyline
 62
7
  6
CONTINUOUS
 90
9
 70
0
 10
75.3429441574
 20
7.6639826323
 10
75.3447678579
 20
5.9389678813
 10
75.3460706246
 20
4.2424113127
 10
75.3469392084
 20
2.5457532846
 10
75.3473735925
 20
0.8490343997
 10
75.3473737626
 20
-0.8477047539
 10
75.3469397189
 20
-2.5444236077
 10
75.3460714755
 20
-4.2410815733
 10
75.344769049
 20
-5.9376380497
  0
LINE
  5
4BA
100
AcDbEntity
  8
RACCORDO
100
AcDbLine
 62
250
  6
CONTINUOUS
 10
75.4347169166
 20
6.6435756344
 11
75.4311483305
 21
9.5749504584
  0
LINE
  5
4BB
100
AcDbEntity
  8
RACCORDO
100
AcDbLine
 62
250
  6
CONTINUOUS
 10
76.2338232044
 20
6.4518950676
 11
76.23044497
 21
9.3188309118
  0
LINE
  5
4BC
100
AcDbEntity
  8
RACCORDO
100
AcDbLine
 62
250
  6
CONTINUOUS
 10
75.3436850589
 20
7.6466352326
 11
75.3461670416
 21
5.0800667179
  0
LINE
  5
4BD
100
AcDbEntity
  8
RACCORDO
100
AcDbLine
 62
250
  6
CONTINUOUS
 10
75.4369953966
 20
3.7117319227
 11
75.4347169166
 21
6.6435756344
  0
LINE
  5
4BE
100
AcDbEntity
  8
RACCORDO
100
AcDbLine
 62
250
  6
CONTINUOUS
 10
75.3461670416
 20
5.0800667179
 11
75.3476266446
 21
2.5401034746
  0
LINE
  5
4BF
100
AcDbEntity
  8
RACCORDO
100
AcDbLine
 62
250
  6
CONTINUOUS
 10
76.2359730823
 20
3.5845266375
 11
76.2338232044
 21
6.4518950676
  0
LINE
  5
4C0
100
AcDbEntity
  8
RACCORDO
100
AcDbLine
 62
250
  6
CONTINUOUS
 10
75.4379836314
 20
0.7796510008
 11
75.4369953966
 21
3.7117319227
  0
LINE
  5
4C1
100
AcDbEntity
  8
RACCORDO
100
AcDbLine
 62
250
  6
CONTINUOUS
 10
76.2368944806
 20
0.716917833
 11
76.2359730823
 21
3.5845266375
  0
LINE
  5
4C2
100
AcDbEntity
  8
RACCORDO
100
AcDbLine
 62
250
  6
CONTINUOUS
 10
74.9279864348
 20
22.7747422966
 11
74.9279864348
 21
22.774057064
  0
LINE
  5
4C3
100
AcDbEntity
  8
RACCORDO
100
AcDbLine
 62
250
  6
CONTINUOUS
 10
74.9279864348
 20
-22.7747422966
 11
74.9279864348
 21
-22.774057064
  0
LINE
  5
4C4
100
AcDbEntity
  8
RACCORDO
100
AcDbLine
 62
7
  6
CONTINUOUS
 10
75.2268863198
 20
22.476637462
 11
75.2268900626
 21
8.708165587
  0
LINE
  5
4C5
100
AcDbEntity
  8
RACCORDO
100
AcDbLine
 62
7
  6
CONTINUOUS
 10
75.2268900626
 20
-8.708165587
 11
75.2268900626
 21
-22.4751534362
  0
LINE
  5
4C6
100
AcDbEntity
  8
RACCORDO
100
AcDbLine
 62
250
  6
CONTINUOUS
 10
75.2275752953
 20
22.4751534362
 11
75.2275752953
 21
8.708165587
  0
LINE
  5
4C7
100
AcDbEntity
  8
RACCORDO
100
AcDbLine
 62
250
  6
CONTINUOUS
 10
75.2275752953
 20
-8.708165587
 11
75.2275752953
 21
-22.4751534362
  0
LINE
  5
4C8
100
AcDbEntity
  8
RACCORDO
100
AcDbLine
 62
250
  6
CONTINUOUS
 10
75.3476266446
 20
2.5401034746
 11
75.3481131876
 21
-0.000011758
  0
LINE
  5
4C9
100
AcDbEntity
  8
RACCORDO
100
AcDbLine
 62
250
  6
CONTINUOUS
 10
75.437681568
 20
-2.1525119134
 11
75.4379836314
 21
0.7796510008
  0
LINE
  5
4CA
100
AcDbEntity
  8
RACCORDO
100
AcDbLine
 62
250
  6
CONTINUOUS
 10
76.2365873533
 20
-2.1507390202
 11
76.2368944806
 21
0.716917833
  0
LINE
  5
4CB
100
AcDbEntity
  8
RACCORDO
100
AcDbLine
 62
250
  6
CONTINUOUS
 10
75.3481131876
 20
-0.000011758
 11
75.3476266323
 21
-2.5401306008
  0
LINE
  5
4CC
100
AcDbEntity
  8
RACCORDO
100
AcDbLine
 62
250
  6
CONTINUOUS
 10
75.3476266323
 20
-2.5401306008
 11
75.3461670291
 21
-5.0800869578
  0
LINE
  5
4CD
100
AcDbEntity
  8
RACCORDO
100
AcDbLine
 62
250
  6
CONTINUOUS
 10
75.4360891867
 20
-5.0845225193
 11
75.437681568
 21
-2.1525119134
  0
LINE
  5
4CE
100
AcDbEntity
  8
RACCORDO
100
AcDbLine
 62
250
  6
CONTINUOUS
 10
76.235051685
 20
-5.0182516486
 11
76.2365873533
 21
-2.1507390202
  0
LINE
  5
4CF
100
AcDbEntity
  8
RACCORDO
100
AcDbLine
 62
250
  6
CONTINUOUS
 10
75.4332066573
 20
-8.0161484105
 11
75.4360891867
 21
-5.0845225193
  0
LINE
  5
4D0
100
AcDbEntity
  8
RACCORDO
100
AcDbLine
 62
250
  6
CONTINUOUS
 10
76.2322876295
 20
-7.8854278445
 11
76.235051685
 21
-5.0182516486
  0
LINE
  5
4D1
100
AcDbEntity
  8
RACCORDO
100
AcDbLine
 62
250
  6
CONTINUOUS
 10
75.4290341315
 20
-10.9472348569
 11
75.4332066573
 21
-8.0161484105
  0
LINE
  5
4D2
100
AcDbEntity
  8
RACCORDO
100
AcDbLine
 62
250
  6
CONTINUOUS
 10
76.2282953247
 20
-10.7520753479
 11
76.2322876295
 21
-7.8854278445
  0
LINE
  5
4D3
100
AcDbEntity
  8
RACCORDO
100
AcDbLine
 62
250
  6
CONTINUOUS
 10
76.2230750317
 20
-13.6180020851
 11
76.2282953247
 21
-10.7520753479
  0
LINE
  5
4D4
100
AcDbEntity
  8
RACCORDO
100
AcDbLine
 62
250
  6
CONTINUOUS
 10
75.4235718963
 20
-13.8775503333
 11
75.4290341315
 21
-10.9472348569
  0
LINE
  5
4D5
100
AcDbEntity
  8
RACCORDO
100
AcDbLine
 62
250
  6
CONTINUOUS
 10
75.4168204145
 20
-16.8068657032
 11
75.4235718963
 21
-13.8775503333
  0
LINE
  5
4D6
100
AcDbEntity
  8
RACCORDO
100
AcDbLine
 62
250
  6
CONTINUOUS
 10
76.2166271808
 20
-16.4830160275
 11
76.2230750317
 21
-13.6180020851
  0
LINE
  5
4D7
100
AcDbEntity
  8
RACCORDO
100
AcDbLine
 62
250
  6
CONTINUOUS
 10
76.2089520949
 20
-19.3469250408
 11
76.2166271808
 21
-16.4830160275
  0
LINE
  5
4D8
100
AcDbEntity
  8
RACCORDO
100
AcDbLine
 62
250
  6
CONTINUOUS
 10
75.4087800658
 20
-19.7350194213
 11
75.4168204145
 21
-16.8068657032
  0
LINE
  5
4D9
100
AcDbEntity
  8
RACCORDO
100
AcDbLine
 62
250
  6
CONTINUOUS
 10
76.2000503111
 20
-22.2095371202
 11
76.2089520949
 21
-19.3469250408
  0
LWPOLYLINE
  5
4DA
100
AcDbEntity
  8
RACCORDO
100
AcDbPolyline
 62
250
  6
CONTINUOUS
 90
3
 70
0
 10
75.3943044765
 20
-24.1245085042
 10
75.3994517122
 20
-22.6616997607
 10
75.4087800658
 20
-19.7350194213
  0
LINE
  5
4DB
100
AcDbEntity
  8
RACCORDO
100
AcDbLine
 62
250
  6
CONTINUOUS
 10
76.1899225404
 20
-25.0706601923
 11
76.2000503111
 21
-22.2095371202
  0
LINE
  5
4DC
100
AcDbEntity
  8
RACCORDO
100
AcDbLine
 62
250
  6
CONTINUOUS
 10
76.1785692898
 20
-27.9301022709
 11
76.1899225404
 21
-25.0706601923
  0
LINE
  5
4DD
100
AcDbEntity
  8
RACCORDO
100
AcDbLine
 62
7
  6
CONTINUOUS
 10
75.344769049
 20
-5.9376380497
 11
75.3427913475
 21
-7.6980126163
  0
LINE
  5
4DE
100
AcDbEntity
  8
RACCORDO
100
AcDbLine
 62
250
  6
CONTINUOUS
 10
75.343472212
 20
-7.7001699029
 11
75.3461670291
 21
-5.0800869578
  0
LWPOLYLINE
  5
4DF
100
AcDbEntity
  8
RACCORDO
100
AcDbPolyline
 62
250
  6
CONTINUOUS
 90
3
 70
0
 10
76.1592434939
 20
-32.2156939465
 10
76.1659915853
 20
-30.7876715618
 10
76.1785692898
 20
-27.9301022709
  0
LWPOLYLINE
  5
4E0
100
AcDbEntity
  8
RACCORDO
100
AcDbPolyline
 62
250
  6
CONTINUOUS
 90
55
 70
0
 10
75.2275752953
 20
-22.4751534362
 10
75.2274904971
 20
-22.4838071092
 10
75.2271562582
 20
-22.4924731603
 10
75.2265710686
 20
-22.5011443958
 10
75.2257335139
 20
-22.5098151226
 10
75.2246425262
 20
-22.5184763578
 10
75.2232978293
 20
-22.5271158929
 10
75.2216986399
 20
-22.5357288016
 10
75.2198452994
 20
-22.5443050013
 10
75.2177410046
 20
-22.5528247624
 10
75.2153875831
 20
-22.561279472
 10
75.2127864199
 20
-22.5696632051
 10
75.2099421202
 20
-22.5779607666
 10
75.2068580229
 20
-22.5861637827
 10
75.2035366367
 20
-22.5942669275
 10
75.1999826075
 20
-22.6022600587
 10
75.1962006627
 20
-22.6101345199
 10
75.1921936785
 20
-22.6178862088
 10
75.1879638101
 20
-22.6255119806
 10
75.1835153533
 20
-22.6330049464
 10
75.1788520202
 20
-22.6403596665
 10
75.1739746434
 20
-22.6475749374
 10
75.1688863394
 20
-22.6546457869
 10
75.1635920885
 20
-22.6615649523
 10
75.1580952553
 20
-22.6683276136
 10
75.1523991779
 20
-22.6749291013
 10
75.1465094724
 20
-22.6813623913
 10
75.1404332977
 20
-22.6876194394
 10
75.1341758232
 20
-22.6936949219
 10
75.1277423215
 20
-22.6995837567
 10
75.1211407413
 20
-22.7052788967
 10
75.1143781758
 20
-22.7107746847
 10
75.107459239
 20
-22.7160678449
 10
75.1003884383
 20
-22.7211552432
 10
75.0931729298
 20
-22.7260319417
 10
75.0858177604
 20
-22.7306947392
 10
75.0783240705
 20
-22.7351428105
 10
75.0706971751
 20
-22.7393724779
 10
75.0629440589
 20
-22.7433793543
 10
75.0550681473
 20
-22.7471611221
 10
75.0470735035
 20
-22.7507149204
 10
75.0389688274
 20
-22.7540360007
 10
75.0307646951
 20
-22.7571195618
 10
75.0224666228
 20
-22.7599630737
 10
75.0140828273
 20
-22.7625633022
 10
75.0056284255
 20
-22.7649157053
 10
74.9971089159
 20
-22.7670190284
 10
74.9885333449
 20
-22.7688713499
 10
74.979922672
 20
-22.770469299
 10
74.9712882885
 20
-22.7718124909
 10
74.9626338529
 20
-22.7729021013
 10
74.9539689204
 20
-22.7737387631
 10
74.9453015633
 20
-22.774323501
 10
74.9366383405
 20
-22.7746575393
 10
74.9279864348
 20
-22.7747422966
  0
LINE
  5
4E1
100
AcDbEntity
  8
RACCORDO
100
AcDbLine
 62
7
  6
CONTINUOUS
 10
75.3427913475
 20
-7.6980126163
 11
75.3420304773
 21
-7.7926651889
  0
LINE
  5
4E2
100
AcDbEntity
  8
RACCORDO
100
AcDbLine
 62
250
  6
CONTINUOUS
 10
75.3425893782
 20
-7.8069072777
 11
75.343472212
 21
-7.7001699029
  0
LWPOLYLINE
  5
4E3
100
AcDbEntity
  8
RACCORDO
100
AcDbPolyline
 62
250
  6
CONTINUOUS
 90
9
 70
0
 10
75.2959068656
 20
-8.5940940151
 10
75.2961010229
 20
-8.5777492432
 10
75.2968327598
 20
-8.5614220754
 10
75.2981012881
 20
-8.5451300971
 10
75.2999052414
 20
-8.5288908555
 10
75.3022426769
 20
-8.5127218412
 10
75.305111077
 20
-8.496640469
 10
75.3085073523
 20
-8.4806640595
 10
75.3124278448
 20
-8.4648098202
  0
LWPOLYLINE
  5
4E4
100
AcDbEntity
  8
RACCORDO
100
AcDbPolyline
 62
250
  6
CONTINUOUS
 90
13
 70
0
 10
75.3939663779
 20
24.2174730565
 10
75.3952196689
 20
24.3038920853
 10
75.3971746798
 20
24.3932707196
 10
75.3998470574
 20
24.4856218366
 10
75.4032379213
 20
24.5808529156
 10
75.4073571571
 20
24.679090625
 10
75.4122357614
 20
24.7806807061
 10
75.4178759271
 20
24.8857233033
 10
75.4242681475
 20
24.9941652676
 10
75.4314348817
 20
25.1061286512
 10
75.4393655434
 20
25.2218255957
 10
75.4480193039
 20
25.3411004529
 10
75.4573722422
 20
25.4635211728
  0
LINE
  5
4E5
100
AcDbEntity
  8
RACCORDO
100
AcDbLine
 62
250
  6
CONTINUOUS
 10
75.3415297969
 20
-7.8856839785
 11
75.3425893782
 21
-7.8069072777
  0
LINE
  5
4E6
100
AcDbEntity
  8
RACCORDO
100
AcDbLine
 62
7
  6
CONTINUOUS
 10
75.3420304773
 20
-7.7926651889
 11
75.3408630726
 21
-7.8805706908
  0
LINE
  5
4E7
100
AcDbEntity
  8
RACCORDO
100
AcDbLine
 62
250
  6
CONTINUOUS
 10
75.3401381449
 20
-7.9625625371
 11
75.3415297969
 21
-7.8856839785
  0
LWPOLYLINE
  5
4E8
100
AcDbEntity
  8
RACCORDO
100
AcDbPolyline
 62
7
  6
CONTINUOUS
 90
41
 70
0
 10
75.2268899672
 20
-22.4751534362
 10
75.2266385524
 20
-22.4874559709
 10
75.2259298647
 20
-22.4991732777
 10
75.2247653064
 20
-22.5108448056
 10
75.2231470929
 20
-22.5224538059
 10
75.2210782173
 20
-22.5339838975
 10
75.2185621068
 20
-22.5454175591
 10
75.2156030989
 20
-22.5567375912
 10
75.212205729
 20
-22.567928078
 10
75.2083752989
 20
-22.5789724919
 10
75.2041180067
 20
-22.5898540992
 10
75.1994402235
 20
-22.6005569284
 10
75.1943493024
 20
-22.6110651441
 10
75.1888529337
 20
-22.6213629267
 10
75.1829596064
 20
-22.6314351127
 10
75.1766781763
 20
-22.6412666297
 10
75.1700182144
 20
-22.6508428922
 10
75.1629896886
 20
-22.660149734
 10
75.1556031083
 20
-22.6691732905
 10
75.1478696621
 20
-22.6779001482
 10
75.1398007858
 20
-22.6863172243
 10
75.1314086701
 20
-22.6944120726
 10
75.1227057249
 20
-22.7021724517
 10
75.1137050143
 20
-22.7095868798
 10
75.1044199045
 20
-22.7166441163
 10
75.0948642385
 20
-22.7233336192
 10
75.0850521609
 20
-22.7296453488
 10
75.0749982351
 20
-22.7355697042
 10
75.0647175009
 20
-22.7410977717
 10
75.0542251218
 20
-22.7462210134
 10
75.0435368922
 20
-22.750931692
 10
75.0326686247
 20
-22.7552224041
 10
75.0216363064
 20
-22.7590867328
 10
75.0104566531
 20
-22.7625184201
 10
74.9991461735
 20
-22.7655121387
 10
74.9877207789
 20
-22.7680632918
 10
74.9761976638
 20
-22.7701675131
 10
74.9645943391
 20
-22.7718213185
 10
74.9529271697
 20
-22.7730216771
 10
74.9412128832
 20
-22.7737663311
 10
74.9294692553
 20
-22.7740533177
  0
LINE
  5
4E9
100
AcDbEntity
  8
RACCORDO
100
AcDbLine
 62
7
  6
CONTINUOUS
 10
75.3408630726
 20
-7.8805706908
 11
75.3393626523
 21
-7.961692253
  0
LWPOLYLINE
  5
4EA
100
AcDbEntity
  8
RACCORDO
100
AcDbPolyline
 62
250
  6
CONTINUOUS
 90
43
 70
0
 10
75.2829772403
 20
-22.5305553812
 10
75.2827378397
 20
-22.5417378842
 10
75.2820812304
 20
-22.552904802
 10
75.2810083277
 20
-22.5640405709
 10
75.2795206267
 20
-22.575129671
 10
75.277620201
 20
-22.5861566471
 10
75.2753096992
 20
-22.5971061307
 10
75.2725923415
 20
-22.6079628614
 10
75.2694719151
 20
-22.6187117079
 10
75.2659527691
 20
-22.6293376893
 10
75.262039808
 20
-22.6398259961
 10
75.2577384855
 20
-22.6501620105
 10
75.2530547964
 20
-22.6603313271
 10
75.2479952685
 20
-22.6703197726
 10
75.2425669533
 20
-22.680113426
 10
75.2367774163
 20
-22.6896986377
 10
75.2306347265
 20
-22.6990620486
 10
75.2241474451
 20
-22.7081906088
 10
75.2173246135
 20
-22.7170715957
 10
75.2101757409
 20
-22.7256926316
 10
75.2027107907
 20
-22.7340417013
 10
75.194940167
 20
-22.7421071684
 10
75.1868746998
 20
-22.7498777922
 10
75.1785256301
 20
-22.7573427423
 10
75.1699045942
 20
-22.764491615
 10
75.1610236074
 20
-22.7713144465
 10
75.1518950471
 20
-22.7778017279
 10
75.1425316362
 20
-22.7839444177
 10
75.1329464245
 20
-22.7897339547
 10
75.1231527711
 20
-22.7951622699
 10
75.1131643256
 20
-22.8002217979
 10
75.102995009
 20
-22.8049054869
 10
75.0926589946
 20
-22.8092068094
 10
75.0821706878
 20
-22.8131197705
 10
75.0715447064
 20
-22.8166389165
 10
75.0607958599
 20
-22.8197593429
 10
75.0499391292
 20
-22.8224767006
 10
75.0389896456
 20
-22.8247872024
 10
75.0279626695
 20
-22.8266876281
 10
75.0168735695
 20
-22.828175329
 10
75.0057378005
 20
-22.8292482318
 10
74.9945708828
 20
-22.829904841
 10
74.9833883798
 20
-22.8301442416
  0
LINE
  5
4EB
100
AcDbEntity
  8
RACCORDO
100
AcDbLine
 62
250
  6
CONTINUOUS
 10
75.3384264095
 20
-8.0369201791
 11
75.3401381449
 21
-7.9625625371
  0
LINE
  5
4EC
100
AcDbEntity
  8
RACCORDO
100
AcDbLine
 62
7
  6
CONTINUOUS
 10
75.3393626523
 20
-7.961692253
 11
75.337591239
 21
-8.0361646071
  0
LINE
  5
4ED
100
AcDbEntity
  8
RACCORDO
100
AcDbLine
 62
250
  6
CONTINUOUS
 10
75.3825004997
 20
23.7835764477
 11
75.3939664305
 21
24.2174730518
  0
LINE
  5
4EE
100
AcDbEntity
  8
RACCORDO
100
AcDbLine
 62
250
  6
CONTINUOUS
 10
75.3364061793
 20
-8.1083125299
 11
75.3384264095
 21
-8.0369201791
  0
LINE
  5
4EF
100
AcDbEntity
  8
RACCORDO
100
AcDbLine
 62
250
  6
CONTINUOUS
 10
74.583597484
 20
24.1636632287
 11
74.5950628028
 21
24.557484522
  0
LINE
  5
4F0
100
AcDbEntity
  8
RACCORDO
100
AcDbLine
 62
7
  6
CONTINUOUS
 10
75.337591239
 20
-8.0361646071
 11
75.3356003814
 21
-8.1042350951
  0
LINE
  5
4F1
100
AcDbEntity
  8
RACCORDO
100
AcDbLine
 62
250
  6
CONTINUOUS
 10
75.3697742824
 20
23.3625174527
 11
75.3825004997
 21
23.7835764477
  0
LINE
  5
4F2
100
AcDbEntity
  8
RACCORDO
100
AcDbLine
 62
250
  6
CONTINUOUS
 10
74.5708711206
 20
23.7814867973
 11
74.583597484
 21
24.1636632287
  0
LWPOLYLINE
  5
4F3
100
AcDbEntity
  8
RACCORDO
100
AcDbPolyline
 62
250
  6
CONTINUOUS
 90
18
 70
0
 10
74.5950628028
 20
24.557484522
 10
74.5978452215
 20
24.6374116703
 10
74.6020862526
 20
24.7200293891
 10
74.6077858961
 20
24.8053620088
 10
74.6149211675
 20
24.8933413473
 10
74.6235150514
 20
24.9840802767
 10
74.6336365009
 20
25.077877224
 10
74.6453134523
 20
25.1748200555
 10
74.6585179694
 20
25.2748673408
 10
74.673235197
 20
25.3781265247
 10
74.6895346569
 20
25.4847772121
 10
74.7073468273
 20
25.5946777062
 10
74.7264482867
 20
25.7074458197
 10
74.7468983277
 20
25.8230816724
 10
74.7686376577
 20
25.9415952732
 10
74.7912649768
 20
26.0626050336
 10
74.8149895862
 20
26.1868904935
 10
74.8640735692
 20
26.4401446416
  0
LINE
  5
4F4
100
AcDbEntity
  8
RACCORDO
100
AcDbLine
 62
7
  6
CONTINUOUS
 10
75.3356003814
 20
-8.1042350951
 11
75.3339928052
 21
-8.1511596801
  0
LINE
  5
4F5
100
AcDbEntity
  8
RACCORDO
100
AcDbLine
 62
250
  6
CONTINUOUS
 10
75.3558306325
 20
22.9557359098
 11
75.3697742824
 21
23.3625174527
  0
LINE
  5
4F6
100
AcDbEntity
  8
RACCORDO
100
AcDbLine
 62
250
  6
CONTINUOUS
 10
75.3340882207
 20
-8.1763733154
 11
75.3364061793
 21
-8.1083125299
  0
LINE
  5
4F7
100
AcDbEntity
  8
RACCORDO
100
AcDbLine
 62
250
  6
CONTINUOUS
 10
74.5569272099
 20
23.4122498767
 11
74.5708711206
 21
23.7814867973
  0
LINE
  5
4F8
100
AcDbEntity
  8
RACCORDO
100
AcDbLine
 62
7
  6
CONTINUOUS
 10
75.3339928052
 20
-8.1511596801
 11
75.3323108903
 21
-8.1945580556
  0
LINE
  5
4F9
100
AcDbEntity
  8
RACCORDO
100
AcDbLine
 62
250
  6
CONTINUOUS
 10
75.3323839225
 20
-8.2196950567
 11
75.3340882207
 21
-8.1763733154
  0
LINE
  5
4FA
100
AcDbEntity
  8
RACCORDO
100
AcDbLine
 62
250
  6
CONTINUOUS
 10
75.3443547618
 20
22.6547430695
 11
75.3558306325
 21
22.9557359098
  0
LINE
  5
4FB
100
AcDbEntity
  8
RACCORDO
100
AcDbLine
 62
250
  6
CONTINUOUS
 10
74.5456964874
 20
23.1445316001
 11
74.5569272099
 21
23.4122498767
  0
LINE
  5
4FC
100
AcDbEntity
  8
RACCORDO
100
AcDbLine
 62
7
  6
CONTINUOUS
 10
75.3323108903
 20
-8.1945580556
 11
75.3305752683
 21
-8.2344707923
  0
LINE
  5
4FD
100
AcDbEntity
  8
RACCORDO
100
AcDbLine
 62
250
  6
CONTINUOUS
 10
75.330558388
 20
-8.2612062645
 11
75.3323839225
 21
-8.2196950567
  0
LINE
  5
4FE
100
AcDbEntity
  8
RACCORDO
100
AcDbLine
 62
250
  6
CONTINUOUS
 10
75.3435837554
 20
22.6371489006
 11
75.3443547618
 21
22.6547430695
  0
LINE
  5
4FF
100
AcDbEntity
  8
RACCORDO
100
AcDbLine
 62
7
  6
CONTINUOUS
 10
75.3305752683
 20
-8.2344707923
 11
75.3288053971
 21
-8.2709553287
  0
LINE
  5
500
100
AcDbEntity
  8
RACCORDO
100
AcDbLine
 62
250
  6
CONTINUOUS
 10
75.3428959708
 20
22.6230121306
 11
75.3435837554
 21
22.6371489006
  0
LINE
  5
501
100
AcDbEntity
  8
RACCORDO
100
AcDbLine
 62
250
  6
CONTINUOUS
 10
75.3286181437
 20
-8.30076204
 11
75.330558388
 21
-8.2612062645
  0
LINE
  5
502
100
AcDbEntity
  8
RACCORDO
100
AcDbLine
 62
250
  6
CONTINUOUS
 10
75.3421589505
 20
22.6092357141
 11
75.3428959708
 21
22.6230121306
  0
LINE
  5
503
100
AcDbEntity
  8
RACCORDO
100
AcDbLine
 62
7
  6
CONTINUOUS
 10
75.3288053971
 20
-8.2709553287
 11
75.3270203895
 21
-8.3040913256
  0
LINE
  5
504
100
AcDbEntity
  8
RACCORDO
100
AcDbLine
 62
250
  6
CONTINUOUS
 10
75.3265676913
 20
-8.3382696918
 11
75.3286181437
 21
-8.30076204
  0
LINE
  5
505
100
AcDbEntity
  8
RACCORDO
100
AcDbLine
 62
250
  6
CONTINUOUS
 10
75.3415277921
 20
22.5984162669
 11
75.3421589505
 21
22.6092357141
  0
LINE
  5
506
100
AcDbEntity
  8
RACCORDO
100
AcDbLine
 62
7
  6
CONTINUOUS
 10
75.3270203895
 20
-8.3040913256
 11
75.3252362923
 21
-8.3340104219
  0
LINE
  5
507
100
AcDbEntity
  8
RACCORDO
100
AcDbLine
 62
250
  6
CONTINUOUS
 10
75.3244140678
 20
-8.3735948507
 11
75.3265676913
 21
-8.3382696918
  0
LINE
  5
508
100
AcDbEntity
  8
RACCORDO
100
AcDbLine
 62
250
  6
CONTINUOUS
 10
75.3408546292
 20
22.5877499497
 11
75.3415277921
 21
22.5984162669
  0
LWPOLYLINE
  5
509
100
AcDbEntity
  8
RACCORDO
100
AcDbPolyline
 62
250
  6
CONTINUOUS
 90
43
 70
0
 10
74.5456964685
 20
23.1445316001
 10
74.5454715808
 20
23.1410755705
 10
74.545404995
 20
23.1375455665
 10
74.5454967113
 20
23.1339428418
 10
74.545728702
 20
23.1302918562
 10
74.5461189947
 20
23.1265705725
 10
74.546721672
 20
23.1227115618
 10
74.547534042
 20
23.1186946046
 10
74.5485587966
 20
23.1145453102
 10
74.5498580949
 20
23.1102661902
 10
74.5514341768
 20
23.1058575178
 10
74.5532848023
 20
23.1013250608
 10
74.5554654101
 20
23.0966796429
 10
74.5579795437
 20
23.0919251696
 10
74.5608236597
 20
23.0870642914
 10
74.5640425669
 20
23.0821058894
 10
74.5676412149
 20
23.0770541597
 10
74.5716146542
 20
23.0719120673
 10
74.5759928449
 20
23.0666866535
 10
74.580780156
 20
23.0613839118
 10
74.5859722185
 20
23.0560056744
 10
74.5915858856
 20
23.0505529663
 10
74.5976158145
 20
23.0450393422
 10
74.604067348
 20
23.039460012
 10
74.6109733679
 20
23.0337898228
 10
74.6183372191
 20
23.0280354674
 10
74.6261555566
 20
23.022202393
 10
74.6344512277
 20
23.0162661527
 10
74.643302743
 20
23.0101902444
 10
74.6526315919
 20
23.004028835
 10
74.6622250891
 20
22.9978906067
 10
74.6720101809
 20
22.9918304817
 10
74.6820599211
 20
22.9858004379
 10
74.6923807863
 20
22.9797529364
 10
74.7029677267
 20
22.9736994927
 10
74.7138257921
 20
22.9676431781
 10
74.7249766078
 20
22.9615304363
 10
74.7364504026
 20
22.9553611697
 10
74.7482169478
 20
22.9491601306
 10
74.7602071825
 20
22.9429170476
 10
74.7724520244
 20
22.9366352541
 10
74.7849205558
 20
22.9303428595
 10
74.810131541
 20
22.917778543
  0
LINE
  5
50A
100
AcDbEntity
  8
RACCORDO
100
AcDbLine
 62
7
  6
CONTINUOUS
 10
75.3252362923
 20
-8.3340104219
 11
75.3234700673
 21
-8.3608155904
  0
LINE
  5
50B
100
AcDbEntity
  8
RACCORDO
100
AcDbLine
 62
250
  6
CONTINUOUS
 10
75.3401343351
 20
22.5772276418
 11
75.3408546292
 21
22.5877499497
  0
LINE
  5
50C
100
AcDbEntity
  8
RACCORDO
100
AcDbLine
 62
7
  6
CONTINUOUS
 10
75.3234700673
 20
-8.3608155904
 11
75.3223113047
 21
-8.3770085058
  0
LINE
  5
50D
100
AcDbEntity
  8
RACCORDO
100
AcDbLine
 62
250
  6
CONTINUOUS
 10
75.3395611511
 20
22.5694457952
 11
75.3401343351
 21
22.5772276418
  0
LINE
  5
50E
100
AcDbEntity
  8
RACCORDO
100
AcDbLine
 62
7
  6
CONTINUOUS
 10
75.3223113047
 20
-8.3770085058
 11
75.3211745288
 21
-8.3918808308
  0
LINE
  5
50F
100
AcDbEntity
  8
RACCORDO
100
AcDbLine
 62
250
  6
CONTINUOUS
 10
75.3389588363
 20
22.5617829927
 11
75.3395611511
 21
22.5694457952
  0
LINE
  5
510
100
AcDbEntity
  8
RACCORDO
100
AcDbLine
 62
250
  6
CONTINUOUS
 10
75.4573722422
 20
25.4635211728
 11
75.4779373444
 21
25.7179301268
  0
LINE
  5
511
100
AcDbEntity
  8
RACCORDO
100
AcDbLine
 62
7
  6
CONTINUOUS
 10
75.3211745288
 20
-8.3918808308
 11
75.3200667171
 21
-8.4054485609
  0
LWPOLYLINE
  5
512
100
AcDbEntity
  8
RACCORDO
100
AcDbPolyline
 62
250
  6
CONTINUOUS
 90
5
 70
0
 10
75.3186246869
 20
-8.4516767259
 10
75.3198257243
 20
-8.4372729929
 10
75.3210058962
 20
-8.4222532963
 10
75.3221651357
 20
-8.406619155
 10
75.3244140678
 20
-8.3735948507
  0
LINE
  5
513
100
AcDbEntity
  8
RACCORDO
100
AcDbLine
 62
250
  6
CONTINUOUS
 10
75.4779373444
 20
25.7179301268
 11
75.5006831041
 21
25.9846547218
  0
LINE
  5
514
100
AcDbEntity
  8
RACCORDO
100
AcDbLine
 62
250
  6
CONTINUOUS
 10
75.3383266692
 20
22.5542620553
 11
75.3389588363
 21
22.5617829927
  0
LWPOLYLINE
  5
515
100
AcDbEntity
  8
RACCORDO
100
AcDbPolyline
 62
250
  6
CONTINUOUS
 90
4
 70
0
 10
75.5006831041
 20
25.9846547218
 10
75.5246551112
 20
26.2603490319
 10
75.5365334001
 20
26.3967204968
 10
75.5796378167
 20
26.9042869718
  0
LWPOLYLINE
  5
516
100
AcDbEntity
  8
RACCORDO
100
AcDbPolyline
 62
250
  6
CONTINUOUS
 90
13
 70
0
 10
75.5796378167
 20
26.9042869718
 10
75.6007480685
 20
27.1436909195
 10
75.6229369694
 20
27.3867782305
 10
75.646208272
 20
27.6336831379
 10
75.6705314239
 20
27.8842455399
 10
75.6958287849
 20
28.1380053618
 10
75.7220805671
 20
28.3949468938
 10
75.7492675835
 20
28.6550612859
 10
75.777297891
 20
28.9178960005
 10
75.806157451
 20
29.183528163
 10
75.8358121303
 20
29.4518539181
 10
75.8661259187
 20
29.7221476909
 10
75.8970661207
 20
29.9943581011
  0
LINE
  5
517
100
AcDbEntity
  8
RACCORDO
100
AcDbLine
 62
7
  6
CONTINUOUS
 10
75.3200667171
 20
-8.4054485609
 11
75.3189967825
 21
-8.4177131465
  0
LWPOLYLINE
  5
518
100
AcDbEntity
  8
RACCORDO
100
AcDbPolyline
 62
250
  6
CONTINUOUS
 90
52
 70
0
 10
75.3442898003
 20
-22.6348859044
 10
75.3429470073
 20
-22.649804703
 10
75.3408866976
 20
-22.6647106306
 10
75.3381107223
 20
-22.6795902712
 10
75.3346215824
 20
-22.6944304244
 10
75.3304224077
 20
-22.7092175423
 10
75.325516956
 20
-22.7239377465
 10
75.3199096346
 20
-22.7385776003
 10
75.3136054947
 20
-22.7531241284
 10
75.3066102086
 20
-22.7675642572
 10
75.2989300701
 20
-22.781884998
 10
75.2905719884
 20
-22.7960734649
 10
75.2815434835
 20
-22.8101168996
 10
75.2718526781
 20
-22.8240026692
 10
75.2615082907
 20
-22.8377182802
 10
75.250519628
 20
-22.8512513962
 10
75.2388965762
 20
-22.8645898459
 10
75.2266495922
 20
-22.8777216255
 10
75.2137896939
 20
-22.8906349124
 10
75.200328451
 20
-22.9033180889
 10
75.1862779742
 20
-22.9157597448
 10
75.1716509041
 20
-22.9279486793
 10
75.1564604
 20
-22.9398739198
 10
75.1407201286
 20
-22.9515247445
 10
75.1244442515
 20
-22.9628906844
 10
75.1076474117
 20
-22.9739615129
 10
75.0903447208
 20
-22.9847272711
 10
75.0725517462
 20
-22.9951782888
 10
75.054284496
 20
-23.0053051688
 10
75.0355594045
 20
-23.0150987949
 10
75.0163933181
 20
-23.0245503565
 10
74.9968034801
 20
-23.0336513523
 10
74.9768075149
 20
-23.0423935923
 10
74.956423412
 20
-23.0507692056
 10
74.9356695103
 20
-23.0587706543
 10
74.9145644815
 20
-23.0663907422
 10
74.8931273135
 20
-23.073622616
 10
74.8713772925
 20
-23.0804597675
 10
74.8493339865
 20
-23.0868960472
 10
74.8270172275
 20
-23.0929256722
 10
74.8044470933
 20
-23.098543218
 10
74.7816438896
 20
-23.1037436302
 10
74.7586281321
 20
-23.108522237
 10
74.7354205275
 20
-23.1128747418
 10
74.7120419549
 20
-23.1167972262
 10
74.6885134473
 20
-23.1202861601
 10
74.6648561731
 20
-23.1233384097
 10
74.6410914156
 20
-23.1259512239
 10
74.617240554
 20
-23.1281222369
 10
74.5933250458
 20
-23.1298494902
 10
74.5693664075
 20
-23.1311314352
 10
74.545386194
 20
-23.1319669184
  0
LINE
  5
519
100
AcDbEntity
  8
RACCORDO
100
AcDbLine
 62
250
  6
CONTINUOUS
 10
75.3376642839
 20
22.5469093316
 11
75.3383266692
 21
22.5542620553
  0
LWPOLYLINE
  5
51A
100
AcDbEntity
  8
RACCORDO
100
AcDbPolyline
 62
250
  6
CONTINUOUS
 90
3
 70
0
 10
75.3161618944
 20
-8.478615273
 10
75.3174027171
 20
-8.4654660141
 10
75.3186246869
 20
-8.4516767259
  0
LINE
  5
51B
100
AcDbEntity
  8
RACCORDO
100
AcDbLine
 62
7
  6
CONTINUOUS
 10
75.3189967825
 20
-8.4177131465
 11
75.3179730684
 21
-8.4286868456
  0
LINE
  5
51C
100
AcDbEntity
  8
RACCORDO
100
AcDbLine
 62
250
  6
CONTINUOUS
 10
75.3372060004
 20
22.5421159401
 11
75.3376642839
 21
22.5469093316
  0
LINE
  5
51D
100
AcDbEntity
  8
RACCORDO
100
AcDbLine
 62
7
  6
CONTINUOUS
 10
75.3179730684
 20
-8.4286868456
 11
75.3170054194
 21
-8.4383807353
  0
LINE
  5
51E
100
AcDbEntity
  8
RACCORDO
100
AcDbLine
 62
250
  6
CONTINUOUS
 10
75.3367346218
 20
22.5374219145
 11
75.3372060004
 21
22.5421159401
  0
LINE
  5
51F
100
AcDbEntity
  8
RACCORDO
100
AcDbLine
 62
250
  6
CONTINUOUS
 10
75.3362502408
 20
22.5328334279
 11
75.3367346218
 21
22.5374219145
  0
LINE
  5
520
100
AcDbEntity
  8
RACCORDO
100
AcDbLine
 62
7
  6
CONTINUOUS
 10
75.3170054194
 20
-8.4383807353
 11
75.3161072329
 21
-8.4467829438
  0
LINE
  5
521
100
AcDbEntity
  8
RACCORDO
100
AcDbLine
 62
250
  6
CONTINUOUS
 10
75.3357530433
 20
22.5283594445
 11
75.3362502408
 21
22.5328334279
  0
LINE
  5
522
100
AcDbEntity
  8
RACCORDO
100
AcDbLine
 62
7
  6
CONTINUOUS
 10
75.3161072329
 20
-8.4467829438
 11
75.3152923945
 21
-8.4538908516
  0
LWPOLYLINE
  5
523
100
AcDbEntity
  8
RACCORDO
100
AcDbPolyline
 62
7
  6
CONTINUOUS
 90
9
 70
0
 10
75.3152923945
 20
-8.4538908516
 10
75.3145764518
 20
-8.4597078314
 10
75.3142628999
 20
-8.4621193211
 10
75.3139812584
 20
-8.4642075105
 10
75.313736495
 20
-8.4659562501
 10
75.3135307884
 20
-8.4673720689
 10
75.3133663276
 20
-8.4684621079
 10
75.313248851
 20
-8.4692118568
 10
75.3131783615
 20
-8.4696450866
  0
LWPOLYLINE
  5
524
100
AcDbEntity
  8
RACCORDO
100
AcDbPolyline
 62
250
  6
CONTINUOUS
 90
49
 70
0
 10
75.3943044512
 20
-24.1245085149
 10
75.3927164845
 20
-24.1360025758
 10
75.3903247392
 20
-24.1474850496
 10
75.3871316264
 20
-24.1589443607
 10
75.383140365
 20
-24.1703689569
 10
75.3783549787
 20
-24.1817473211
 10
75.3727802917
 20
-24.1930679825
 10
75.3664219239
 20
-24.2043195288
 10
75.359286285
 20
-24.2154906172
 10
75.3513805687
 20
-24.2265699861
 10
75.3427127447
 20
-24.2375464663
 10
75.3332915511
 20
-24.2484089924
 10
75.3231264854
 20
-24.2591466137
 10
75.3122277951
 20
-24.2697485057
 10
75.3006064673
 20
-24.2802039804
 10
75.2882742174
 20
-24.2905024977
 10
75.2752434777
 20
-24.3006336756
 10
75.2615273845
 20
-24.3105873007
 10
75.2471397651
 20
-24.3203533387
 10
75.2320951237
 20
-24.3299219445
 10
75.216408627
 20
-24.3392834719
 10
75.2000960886
 20
-24.3484284834
 10
75.1831739532
 20
-24.3573477599
 10
75.1656592802
 20
-24.3660323099
 10
75.1475697261
 20
-24.3744733784
 10
75.1289235273
 20
-24.3826624558
 10
75.109739481
 20
-24.3905912868
 10
75.0900369267
 20
-24.3982518782
 10
75.0698357268
 20
-24.4056365074
 10
75.0491562461
 20
-24.4127377298
 10
75.0280193319
 20
-24.4195483866
 10
75.0064462923
 20
-24.4260616121
 10
74.9844588752
 20
-24.4322708401
 10
74.9620792464
 20
-24.4381698111
 10
74.9393299668
 20
-24.4437525783
 10
74.9162339701
 20
-24.4490135138
 10
74.8928145396
 20
-24.4539473138
 10
74.8690952845
 20
-24.4585490047
 10
74.8451001163
 20
-24.4628139474
 10
74.8208532248
 20
-24.4667378424
 10
74.7963790533
 20
-24.4703167339
 10
74.7717022744
 20
-24.4735470142
 10
74.746847765
 20
-24.4764254267
 10
74.721840581
 20
-24.4789490697
 10
74.6967059323
 20
-24.4811153991
 10
74.6714691573
 20
-24.482922231
 10
74.6461556974
 20
-24.4843677439
 10
74.6207910712
 20
-24.4854504806
 10
74.595400849
 20
-24.4861693495
  0
LINE
  5
525
100
AcDbEntity
  8
RACCORDO
100
AcDbLine
 62
250
  6
CONTINUOUS
 10
75.3124278448
 20
-8.4648098202
 11
75.3151270743
 21
-8.4552571804
  0
LINE
  5
526
100
AcDbEntity
  8
RACCORDO
100
AcDbLine
 62
250
  6
CONTINUOUS
 10
75.3012699642
 20
-22.4924985167
 11
75.2969949807
 21
-22.5060435847
  0
LINE
  5
527
100
AcDbEntity
  8
RACCORDO
100
AcDbLine
 62
250
  6
CONTINUOUS
 10
75.2969949807
 20
-22.5060435847
 11
75.2959626685
 21
-22.5092512117
  0
LINE
  5
528
100
AcDbEntity
  8
RACCORDO
100
AcDbLine
 62
250
  6
CONTINUOUS
 10
75.302597002
 20
-22.4883781761
 11
75.3012699642
 21
-22.4924985167
  0
LINE
  5
529
100
AcDbEntity
  8
RACCORDO
100
AcDbLine
 62
250
  6
CONTINUOUS
 10
75.2959626685
 20
-22.5092512117
 11
75.2953016639
 21
-22.5112660128
  0
LINE
  5
52A
100
AcDbEntity
  8
RACCORDO
100
AcDbLine
 62
250
  6
CONTINUOUS
 10
75.2953016639
 20
-22.5112660128
 11
75.2946608391
 21
-22.5131810059
  0
LWPOLYLINE
  5
52B
100
AcDbEntity
  8
RACCORDO
100
AcDbPolyline
 62
250
  6
CONTINUOUS
 90
50
 70
0
 10
75.2946608391
 20
-22.5131810059
 10
75.2940393505
 20
-22.514995925
 10
75.2937354072
 20
-22.5158657819
 10
75.2934360018
 20
-22.5167106176
 10
75.293140752
 20
-22.5175306174
 10
75.2928496181
 20
-22.5183258167
 10
75.2925626399
 20
-22.5190961801
 10
75.2922795536
 20
-22.5198417867
 10
75.2920003497
 20
-22.5205625938
 10
75.2917250377
 20
-22.5212586441
 10
75.2914533827
 20
-22.5219301452
 10
75.2911854023
 20
-22.5225770062
 10
75.2909210789
 20
-22.5231993181
 10
75.2906601239
 20
-22.5237975616
 10
75.2904025295
 20
-22.5243717275
 10
75.2901483035
 20
-22.524921825
 10
75.2898971813
 20
-22.5254483628
 10
75.289649146
 20
-22.525951354
 10
75.2894042145
 20
-22.5264307854
 10
75.2891621716
 20
-22.5268871269
 10
75.288923013
 20
-22.5273203694
 10
75.2886867431
 20
-22.5277305219
 10
75.2884531599
 20
-22.5281180812
 10
75.2882222608
 20
-22.5284830427
 10
75.2879940483
 20
-22.5288254111
 10
75.2877683278
 20
-22.5291456972
 10
75.2875450918
 20
-22.5294439079
 10
75.2873243478
 20
-22.5297200363
 10
75.287105923
 20
-22.5299745718
 10
75.286889813
 20
-22.5302075196
 10
75.2866760223
 20
-22.5304188747
 10
75.2864643909
 20
-22.5306091112
 10
75.2862549175
 20
-22.530778236
 10
75.2860476034
 20
-22.5309262423
 10
75.2858422937
 20
-22.5310535845
 10
75.2856389861
 20
-22.5311602746
 10
75.2854376829
 20
-22.5312463007
 10
75.2852382359
 20
-22.531312081
 10
75.2850406408
 20
-22.5313576306
 10
75.2848449019
 20
-22.5313829346
 10
75.2846508843
 20
-22.5313883662
 10
75.2844585854
 20
-22.5313739412
 10
75.2842680078
 20
-22.531339644
 10
75.2840790236
 20
-22.5312858008
 10
75.2838916303
 20
-22.5312124296
 10
75.2837058304
 20
-22.5311195124
 10
75.2835215035
 20
-22.5310073218
 10
75.2833386094
 20
-22.5308759484
 10
75.2831571883
 20
-22.5307253015
 10
75.2829772403
 20
-22.5305553812
  0
LWPOLYLINE
  5
52C
100
AcDbEntity
  8
RACCORDO
100
AcDbPolyline
 62
250
  6
CONTINUOUS
 90
13
 70
0
 10
75.2695807082
 20
-8.5061548337
 10
75.2632867647
 20
-8.5210582639
 10
75.2570798571
 20
-8.5373301264
 10
75.2514486696
 20
-8.553811336
 10
75.246400103
 20
-8.5704816961
 10
75.2419403438
 20
-8.5873207784
 10
75.2380748571
 20
-8.6043079477
 10
75.23480838
 20
-8.6214223875
 10
75.2321449152
 20
-8.638643125
 10
75.2300877266
 20
-8.6559490576
 10
75.2286393352
 20
-8.6733189779
 10
75.2278015159
 20
-8.6907316004
 10
75.2275752953
 20
-8.708165587
  0
LINE
  5
52D
100
AcDbEntity
  8
RACCORDO
100
AcDbLine
 62
250
  6
CONTINUOUS
 10
75.2929882433
 20
22.5167166168
 11
75.2936097308
 21
22.5150926268
  0
LWPOLYLINE
  5
52E
100
AcDbEntity
  8
RACCORDO
100
AcDbPolyline
 62
250
  6
CONTINUOUS
 90
68
 70
0
 10
75.3023933259
 20
22.4904951392
 10
75.3028643782
 20
22.4892375457
 10
75.3033454361
 20
22.4879716573
 10
75.3038363771
 20
22.4866984784
 10
75.3043379985
 20
22.4854251909
 10
75.3048499239
 20
22.4841517788
 10
75.3053725296
 20
22.4828782582
 10
75.3059077414
 20
22.4816118596
 10
75.3064548661
 20
22.480352434
 10
75.3070145969
 20
22.4791001305
 10
75.307590939
 20
22.4778626268
 10
75.3081857792
 20
22.4766342739
 10
75.3087972307
 20
22.4754207208
 10
75.3094236386
 20
22.4742465923
 10
75.3100676675
 20
22.4731082137
 10
75.3107266528
 20
22.4720092597
 10
75.3113909455
 20
22.4709853789
 10
75.3120620979
 20
22.4700397926
 10
75.3127385578
 20
22.4691692797
 10
75.3134060192
 20
22.4683998253
 10
75.3140617183
 20
22.4677403274
 10
75.314708419
 20
22.4671818881
 10
75.3153401062
 20
22.4667237984
 10
75.3159542479
 20
22.4663695293
 10
75.3165533763
 20
22.4661156099
 10
75.3171390723
 20
22.4659509178
 10
75.3177112377
 20
22.4658748925
 10
75.3182699709
 20
22.4658880946
 10
75.3188171481
 20
22.4659810832
 10
75.3193529887
 20
22.4661533094
 10
75.3198772733
 20
22.4664053221
 10
75.3203912206
 20
22.4667293282
 10
75.3208948879
 20
22.4671249314
 10
75.3213882177
 20
22.4675925278
 10
75.3218722567
 20
22.4681255125
 10
75.3223470691
 20
22.4687235804
 10
75.3228125906
 20
22.4693870365
 10
75.3232696742
 20
22.4701101911
 10
75.32371837
 20
22.4708928135
 10
75.324158628
 20
22.4717351344
 10
75.3245911508
 20
22.472632156
 10
75.3250159693
 20
22.4735836777
 10
75.3254330527
 20
22.4745899001
 10
75.3258430114
 20
22.475646427
 10
75.3262458702
 20
22.4767530875
 10
75.3266416042
 20
22.4779100525
 10
75.3270307499
 20
22.4791134391
 10
75.3274133224
 20
22.4803630786
 10
75.3277893065
 20
22.4816591396
 10
75.3281591922
 20
22.4829982443
 10
75.3285229963
 20
22.4843802521
 10
75.3288807021
 20
22.4858053036
 10
75.3292327496
 20
22.4872704437
 10
75.329579152
 20
22.4887755397
 10
75.3299198962
 20
22.4903207242
 10
75.3302553835
 20
22.4919034402
 10
75.3305856268
 20
22.4935235749
 10
75.3309106132
 20
22.495181241
 10
75.3312307052
 20
22.4968742203
 10
75.3315459233
 20
22.4986024712
 10
75.331856247
 20
22.5003660353
 10
75.3321619775
 20
22.5021628182
 10
75.3324631228
 20
22.5039927353
 10
75.332759675
 20
22.5058558714
 10
75.3330519121
 20
22.507750386
 10
75.333339829
 20
22.5096761048
 10
75.3336234307
 20
22.5116332022
 10
75.3341785633
 20
22.5156373722
  0
LINE
  5
52F
100
AcDbEntity
  8
RACCORDO
100
AcDbLine
 62
250
  6
CONTINUOUS
 10
75.2936097308
 20
22.5150926268
 11
75.294249643
 21
22.5133780057
  0
LINE
  5
530
100
AcDbEntity
  8
RACCORDO
100
AcDbLine
 62
250
  6
CONTINUOUS
 10
75.301479707
 20
22.4929842855
 11
75.3023933259
 21
22.4904951392
  0
LINE
  5
531
100
AcDbEntity
  8
RACCORDO
100
AcDbLine
 62
250
  6
CONTINUOUS
 10
75.294249643
 20
22.5133780057
 11
75.2949091916
 21
22.5115739227
  0
LINE
  5
532
100
AcDbEntity
  8
RACCORDO
100
AcDbLine
 62
250
  6
CONTINUOUS
 10
75.3006008029
 20
22.4954269547
 11
75.301479707
 21
22.4929842855
  0
LINE
  5
533
100
AcDbEntity
  8
RACCORDO
100
AcDbLine
 62
250
  6
CONTINUOUS
 10
75.2949091916
 20
22.5115739227
 11
75.2959373946
 21
22.5087025968
  0
LINE
  5
534
100
AcDbEntity
  8
RACCORDO
100
AcDbLine
 62
250
  6
CONTINUOUS
 10
75.299342195
 20
22.4989852817
 11
75.3006008029
 21
22.4954269547
  0
LINE
  5
535
100
AcDbEntity
  8
RACCORDO
100
AcDbLine
 62
250
  6
CONTINUOUS
 10
75.2959373946
 20
22.5087025968
 11
75.299342195
 21
22.4989852817
  0
LINE
  5
536
100
AcDbEntity
  8
RACCORDO
100
AcDbLine
 62
250
  6
CONTINUOUS
 10
75.3124278441
 20
8.4648098229
 11
75.3151277491
 21
8.4552547921
  0
LWPOLYLINE
  5
537
100
AcDbEntity
  8
RACCORDO
100
AcDbPolyline
 62
7
  6
CONTINUOUS
 90
7
 70
0
 10
75.3131642294
 20
8.4697293641
 10
75.313187593
 20
8.469589425
 10
75.3132545166
 20
8.4691763544
 10
75.3133624408
 20
8.4684872798
 10
75.313504984
 20
8.4675457201
 10
75.3136797483
 20
8.4663520517
 10
75.3138854651
 20
8.4648996665
  0
LWPOLYLINE
  5
538
100
AcDbEntity
  8
RACCORDO
100
AcDbPolyline
 62
250
  6
CONTINUOUS
 90
49
 70
0
 10
75.3939663779
 20
24.2174730565
 10
75.3923617325
 20
24.2282745124
 10
75.3899540551
 20
24.2390650895
 10
75.3867457705
 20
24.2498339197
 10
75.3827401102
 20
24.2605701567
 10
75.3779411086
 20
24.271262987
 10
75.3723535992
 20
24.281901641
 10
75.3659832098
 20
24.2924754035
 10
75.3588363565
 20
24.3029736247
 10
75.3509202375
 20
24.3133857309
 10
75.3422428259
 20
24.323701235
 10
75.3328128615
 20
24.3339097475
 10
75.322639842
 20
24.3440009864
 10
75.3117340137
 20
24.3539647878
 10
75.3001063607
 20
24.3637911164
 10
75.2877685944
 20
24.3734700752
 10
75.2747331412
 20
24.3829919155
 10
75.2610131303
 20
24.3923470471
 10
75.2466223803
 20
24.4015260476
 10
75.2315753855
 20
24.410519672
 10
75.215887301
 20
24.4193188619
 10
75.1995739278
 20
24.4279147549
 10
75.1826516965
 20
24.4362986933
 10
75.165137651
 20
24.4444622328
 10
75.1470494313
 20
24.4523971513
 10
75.1284052557
 20
24.4600954567
 10
75.1092239024
 20
24.4675493954
 10
75.0895246906
 20
24.4747514598
 10
75.0693274613
 20
24.4816943961
 10
75.0486525569
 20
24.4883712114
 10
75.0275208009
 20
24.4947751808
 10
75.0059534771
 20
24.5008998545
 10
74.9839723078
 20
24.5067390635
 10
74.9615994322
 20
24.5122869268
 10
74.9388573842
 20
24.5175378566
 10
74.9157690692
 20
24.5224865641
 10
74.8923577416
 20
24.5271280651
 10
74.8686469811
 20
24.5314576847
 10
74.8446606689
 20
24.5354710622
 10
74.8204229637
 20
24.5391641552
 10
74.7959582776
 20
24.5425332442
 10
74.7712912512
 20
24.5455749358
 10
74.7464467288
 20
24.5482861665
 10
74.7214497337
 20
24.5506642054
 10
74.6963254424
 20
24.5527066576
 10
74.67109916
 20
24.5544114658
 10
74.6457962942
 20
24.5557769129
 10
74.6204423297
 20
24.5568016238
 10
74.5950628028
 20
24.5574845662
  0
LINE
  5
539
100
AcDbEntity
  8
RACCORDO
100
AcDbLine
 62
7
  6
CONTINUOUS
 10
75.3138854651
 20
8.4648996665
 11
75.314376095
 21
8.4612589694
  0
LINE
  5
53A
100
AcDbEntity
  8
RACCORDO
100
AcDbLine
 62
7
  6
CONTINUOUS
 10
75.314376095
 20
8.4612589694
 11
75.3149611786
 21
8.4566336212
  0
LINE
  5
53B
100
AcDbEntity
  8
RACCORDO
100
AcDbLine
 62
7
  6
CONTINUOUS
 10
75.3149611786
 20
8.4566336212
 11
75.3156249587
 21
8.4510505369
  0
LINE
  5
53C
100
AcDbEntity
  8
RACCORDO
100
AcDbLine
 62
7
  6
CONTINUOUS
 10
75.3156249587
 20
8.4510505369
 11
75.3163586937
 21
8.4444895474
  0
LWPOLYLINE
  5
53D
100
AcDbEntity
  8
RACCORDO
100
AcDbPolyline
 62
250
  6
CONTINUOUS
 90
4
 70
0
 10
75.3365521371
 20
-22.5186778427
 10
75.3363161084
 20
-22.5165341888
 10
75.3360767822
 20
-22.5144182144
 10
75.335588269
 20
-22.5102696594
  0
LWPOLYLINE
  5
53E
100
AcDbEntity
  8
0
100
AcDbPolyline
 62
250
  6
CONTINUOUS
 90
32
 70
0
 10
96.8205110434
 20
-33.874818883
 10
96.8072884467
 20
-33.8836879582
 10
96.7920236107
 20
-33.8923208369
 10
96.7747222856
 20
-33.9007142671
 10
96.7553909884
 20
-33.9088650872
 10
96.7340370009
 20
-33.9167702268
 10
96.710668367
 20
-33.9244267083
 10
96.6852938892
 20
-33.9318316475
 10
96.6579231257
 20
-33.9389822552
 10
96.6285663867
 20
-33.9458758377
 10
96.5972347305
 20
-33.9525097984
 10
96.5639399592
 20
-33.9588816384
 10
96.5286946144
 20
-33.9649889574
 10
96.4915119727
 20
-33.970829455
 10
96.45240604
 20
-33.9764009311
 10
96.4113915472
 20
-33.981701287
 10
96.3684839436
 20
-33.9867285261
 10
96.3236993921
 20
-33.9914807549
 10
96.2770547622
 20
-33.9959561831
 10
96.2285676244
 20
-34.0001531249
 10
96.178256243
 20
-34.0040699994
 10
96.1261395697
 20
-34.0077053312
 10
96.0722372358
 20
-34.011057751
 10
96.0165695458
 20
-34.0141259958
 10
95.9591574688
 20
-34.01690891
 10
95.9000226311
 20
-34.0194054452
 10
95.8391873079
 20
-34.021614661
 10
95.776674415
 20
-34.0235357254
 10
95.7125075002
 20
-34.0251679145
 10
95.646710734
 20
-34.0265106137
 10
95.5793089013
 20
-34.0275633171
 10
95.5103273912
 20
-34.0283256282
  0
LWPOLYLINE
  5
53F
100
AcDbEntity
  8
0
100
AcDbPolyline
 62
250
  6
CONTINUOUS
 90
34
 70
0
 10
96.8205110484
 20
33.8748188836
 10
96.8072884517
 20
33.8836879588
 10
96.7920236157
 20
33.8923208375
 10
96.7747222905
 20
33.9007142677
 10
96.7553909933
 20
33.9088650877
 10
96.7340370058
 20
33.9167702274
 10
96.7106683719
 20
33.9244267089
 10
96.685293894
 20
33.9318316481
 10
96.6579231305
 20
33.9389822558
 10
96.6285663915
 20
33.9458758383
 10
96.5972347352
 20
33.952509799
 10
96.5639399638
 20
33.958881639
 10
96.528694619
 20
33.964988958
 10
96.4915119772
 20
33.9708294556
 10
96.4524060445
 20
33.9764009317
 10
96.4113915516
 20
33.9817012876
 10
96.368483948
 20
33.9867285267
 10
96.3236993964
 20
33.9914807554
 10
96.2770547665
 20
33.9959561836
 10
96.2285676287
 20
34.0001531254
 10
96.1782562472
 20
34.00407
 10
96.1261395738
 20
34.0077053318
 10
96.0722372399
 20
34.0110577515
 10
96.0165695498
 20
34.0141259963
 10
95.9591574727
 20
34.0169089105
 10
95.900022635
 20
34.0194054457
 10
95.8391873117
 20
34.0216146616
 10
95.7766744188
 20
34.0235357259
 10
95.7125075038
 20
34.025167915
 10
95.6467107376
 20
34.0265106142
 10
95.5793089048
 20
34.0275633176
 10
95.5103273947
 20
34.0283256287
 10
95.4397921916
 20
34.0287972603
 10
95.29416756
 20
34.0288678841
  0
LINE
  5
540
100
AcDbEntity
  8
0
100
AcDbLine
 62
250
  6
CONTINUOUS
 10
89.1292815281
 20
41.0
 11
89.1292815281
 21
35.8557926453
  0
LINE
  5
541
100
AcDbEntity
  8
0
100
AcDbLine
 62
250
  6
CONTINUOUS
 10
89.1292815281
 20
-41.0
 11
89.1292815281
 21
-35.8557926453
  0
LWPOLYLINE
  5
542
100
AcDbEntity
  8
0
100
AcDbPolyline
 62
250
  6
CONTINUOUS
 90
49
 70
0
 10
96.8205110488
 20
33.8748188837
 10
96.9635066924
 20
32.4658775364
 10
97.1004045142
 20
31.0565706673
 10
97.2312053196
 20
29.6469217346
 10
97.355910871
 20
28.236944397
 10
97.4745211402
 20
26.8266718491
 10
97.58703477
 20
25.4161568594
 10
97.6934512273
 20
24.0054509895
 10
97.793774401
 20
22.5945494983
 10
97.8880093098
 20
21.1834206508
 10
97.9761574799
 20
19.7720774056
 10
98.0582192445
 20
18.3605533869
 10
98.1341968184
 20
16.9488477695
 10
98.2040910296
 20
15.5369832995
 10
98.2679027449
 20
14.1249836972
 10
98.3256336816
 20
12.7128495498
 10
98.3772842822
 20
11.3006110278
 10
98.4228556517
 20
9.8882843324
 10
98.46234967
 20
8.4758490518
 10
98.4957667916
 20
7.0633199287
 10
98.5231071521
 20
5.6507285028
 10
98.5443713819
 20
4.2380795272
 10
98.5595596703
 20
2.8254016264
 10
98.568672449
 20
1.4127124229
 10
98.5717100635
 20
0.0000001542
 10
98.5686724506
 20
-1.4127120036
 10
98.5595596756
 20
-2.8254009977
 10
98.5443713916
 20
-4.2380787754
 10
98.5231071639
 20
-5.6507278206
 10
98.495766803
 20
-7.0633194026
 10
98.4623496808
 20
-8.4758486346
 10
98.4228556642
 20
-9.8882839158
 10
98.3772842981
 20
-11.3006105646
 10
98.3256337013
 20
-12.7128490426
 10
98.2679027685
 20
-14.1249831488
 10
98.2040910574
 20
-15.5369827125
 10
98.1341968481
 20
-16.9488471948
 10
98.0582192698
 20
-18.3605529377
 10
97.9761574965
 20
-19.7720771326
 10
97.8880093218
 20
-21.1834204661
 10
97.7937744208
 20
-22.5945492087
 10
97.6934512625
 20
-24.0054505073
 10
97.5870348154
 20
-25.4161562741
 10
97.4745211814
 20
-26.8266713477
 10
97.3559108994
 20
-28.2369440689
 10
97.2312053359
 20
-29.6469215548
 10
97.1004045232
 20
-31.0565705724
 10
96.9635066958
 20
-32.4658775015
 10
96.8205110488
 20
-33.8748188837
  0
LWPOLYLINE
  5
543
100
AcDbEntity
  8
0
100
AcDbPolyline
 62
250
  6
CONTINUOUS
 90
49
 70
0
 10
91.3856837327
 20
33.7875965416
 10
91.5258179699
 20
32.3822549587
 10
91.6599778442
 20
30.9765527128
 10
91.7881633554
 20
29.5705128485
 10
91.9103741144
 20
28.1641484745
 10
92.0266105105
 20
26.7574925408
 10
92.1368737108
 20
25.3505978706
 10
92.2411616161
 20
23.9435156051
 10
92.3394763257
 20
22.5362406782
 10
92.4318253049
 20
21.1287415681
 10
92.5182097011
 20
19.7210309437
 10
92.598628367
 20
18.3131420391
 10
92.6730853254
 20
16.9050741083
 10
92.7415808209
 20
15.4968495984
 10
92.8041146088
 20
14.0884918935
 10
92.8606899781
 20
12.6800016163
 10
92.9113070483
 20
11.2714086323
 10
92.9559656998
 20
9.8627288472
 10
92.9946688626
 20
8.4539419074
 10
93.0274170983
 20
7.0450623
 10
93.0542098454
 20
5.6361212473
 10
93.0750483485
 20
4.2271234751
 10
93.0899328143
 20
2.8180973184
 10
93.0988630362
 20
1.4090601303
 10
93.101839639
 20
0.0000001536
 10
93.0988630396
 20
-1.4090597125
 10
93.0899328212
 20
-2.8180966916
 10
93.075048358
 20
-4.2271227256
 10
93.0542098556
 20
-5.6361205673
 10
93.0274171083
 20
-7.0450617756
 10
92.9946688731
 20
-8.4539414916
 10
92.9559657126
 20
-9.862728432
 10
92.9113070643
 20
-11.2714081707
 10
92.8606899973
 20
-12.6800011108
 10
92.8041146323
 20
-14.088491347
 10
92.7415808487
 20
-15.4968490133
 10
92.6730853545
 20
-16.9050735355
 10
92.5986283905
 20
-18.3131415914
 10
92.5182097159
 20
-19.7210306718
 10
92.4318253165
 20
-21.1287413843
 10
92.3394763468
 20
-22.5362403898
 10
92.2411616523
 20
-23.9435151245
 10
92.1368737553
 20
-25.3505972873
 10
92.0266105495
 20
-26.7574920411
 10
91.9103741412
 20
-28.1641481477
 10
91.7881633713
 20
-29.5705126696
 10
91.6599778534
 20
-30.9765526185
 10
91.5258179739
 20
-32.3822549241
 10
91.3856837327
 20
-33.7875965416
  0
LINE
  5
544
100
AcDbEntity
  8
RACCORDO
100
AcDbLine
 62
7
  6
CONTINUOUS
 10
98.9040519699
 20
-6.7424148261
 11
98.887207744
 21
-6.444700357
  0
LINE
  5
545
100
AcDbEntity
  8
RACCORDO
100
AcDbLine
 62
7
  6
CONTINUOUS
 10
98.887207744
 20
-6.444700357
 11
98.8723967329
 21
-6.1626257957
  0
LINE
  5
546
100
AcDbEntity
  8
RACCORDO
100
AcDbLine
 62
7
  6
CONTINUOUS
 10
98.8723967329
 20
-6.1626257957
 11
98.8583788463
 21
-5.874532913
  0
LINE
  5
547
100
AcDbEntity
  8
RACCORDO
100
AcDbLine
 62
7
  6
CONTINUOUS
 10
98.9062969158
 20
-6.7875735448
 11
98.9040519699
 21
-6.7424148261
  0
LINE
  5
548
100
AcDbEntity
  8
RACCORDO
100
AcDbLine
 62
7
  6
CONTINUOUS
 10
98.8583788463
 20
-5.874532913
 11
98.8451485473
 21
-5.5806729863
  0
LINE
  5
549
100
AcDbEntity
  8
RACCORDO
100
AcDbLine
 62
7
  6
CONTINUOUS
 10
98.8451485473
 20
-5.5806729863
 11
98.8327028393
 21
-5.2813606623
  0
LINE
  5
54A
100
AcDbEntity
  8
RACCORDO
100
AcDbLine
 62
7
  6
CONTINUOUS
 10
98.9082339116
 20
-6.8343512788
 11
98.9062969158
 21
-6.7875735448
  0
LINE
  5
54B
100
AcDbEntity
  8
RACCORDO
100
AcDbLine
 62
7
  6
CONTINUOUS
 10
98.8327028393
 20
-5.2813606623
 11
98.8210387863
 21
-4.9768865783
  0
LINE
  5
54C
100
AcDbEntity
  8
RACCORDO
100
AcDbLine
 62
7
  6
CONTINUOUS
 10
98.8210387863
 20
-4.9768865783
 11
98.8101505141
 21
-4.6675097489
  0
LINE
  5
54D
100
AcDbEntity
  8
RACCORDO
100
AcDbLine
 62
7
  6
CONTINUOUS
 10
98.909854589
 20
-6.8826098156
 11
98.9082339116
 21
-6.8343512788
  0
LINE
  5
54E
100
AcDbEntity
  8
RACCORDO
100
AcDbLine
 62
7
  6
CONTINUOUS
 10
98.8101505141
 20
-4.6675097489
 11
98.8000347247
 21
-4.3535670064
  0
LINE
  5
54F
100
AcDbEntity
  8
RACCORDO
100
AcDbLine
 62
7
  6
CONTINUOUS
 10
98.8000347247
 20
-4.3535670064
 11
98.7906884358
 21
-4.035364621
  0
LINE
  5
550
100
AcDbEntity
  8
RACCORDO
100
AcDbLine
 62
7
  6
CONTINUOUS
 10
98.7906884358
 20
-4.035364621
 11
98.7821060136
 21
-3.7131742201
  0
LINE
  5
551
100
AcDbEntity
  8
RACCORDO
100
AcDbLine
 62
7
  6
CONTINUOUS
 10
98.911155005
 20
-6.9322049549
 11
98.909854589
 21
-6.8826098156
  0
LINE
  5
552
100
AcDbEntity
  8
RACCORDO
100
AcDbLine
 62
7
  6
CONTINUOUS
 10
98.7821060136
 20
-3.7131742201
 11
98.7742841801
 21
-3.3873467373
  0
LINE
  5
553
100
AcDbEntity
  8
RACCORDO
100
AcDbLine
 62
7
  6
CONTINUOUS
 10
98.7742841801
 20
-3.3873467373
 11
98.7672202375
 21
-3.05820144
  0
LINE
  5
554
100
AcDbEntity
  8
RACCORDO
100
AcDbLine
 62
7
  6
CONTINUOUS
 10
98.9115791701
 20
7.2767007921
 11
98.9104032874
 21
7.3314391493
  0
LINE
  5
555
100
AcDbEntity
  8
RACCORDO
100
AcDbLine
 62
7
  6
CONTINUOUS
 10
98.7672202375
 20
-3.05820144
 11
98.7609094197
 21
-2.7260252592
  0
LINE
  5
556
100
AcDbEntity
  8
RACCORDO
100
AcDbLine
 62
7
  6
CONTINUOUS
 10
98.9121298348
 20
-6.9829887071
 11
98.911155005
 21
-6.9322049549
  0
LINE
  5
557
100
AcDbEntity
  8
RACCORDO
100
AcDbLine
 62
7
  6
CONTINUOUS
 10
98.7609094197
 20
-2.7260252592
 11
98.7553488592
 21
-2.3911754643
  0
LINE
  5
558
100
AcDbEntity
  8
RACCORDO
100
AcDbLine
 62
7
  6
CONTINUOUS
 10
98.91242527
 20
7.2221330027
 11
98.9115791701
 21
7.2767007921
  0
LINE
  5
559
100
AcDbEntity
  8
RACCORDO
100
AcDbLine
 62
7
  6
CONTINUOUS
 10
98.7553488592
 20
-2.3911754643
 11
98.7505364215
 21
-2.0539814829
  0
LINE
  5
55A
100
AcDbEntity
  8
RACCORDO
100
AcDbLine
 62
7
  6
CONTINUOUS
 10
98.7505364215
 20
-2.0539814829
 11
98.7464686251
 21
-1.7147473771
  0
LINE
  5
55B
100
AcDbEntity
  8
RACCORDO
100
AcDbLine
 62
7
  6
CONTINUOUS
 10
98.9127758255
 20
-7.0348113227
 11
98.9121298348
 21
-6.9829887071
  0
LINE
  5
55C
100
AcDbEntity
  8
RACCORDO
100
AcDbLine
 62
7
  6
CONTINUOUS
 10
98.7464686251
 20
-1.7147473771
 11
98.7431434022
 21
-1.3738295516
  0
LINE
  5
55D
100
AcDbEntity
  8
RACCORDO
100
AcDbLine
 62
7
  6
CONTINUOUS
 10
98.9129410302
 20
7.1678983163
 11
98.91242527
 21
7.2221330027
  0
LINE
  5
55E
100
AcDbEntity
  8
RACCORDO
100
AcDbLine
 62
7
  6
CONTINUOUS
 10
98.7431434022
 20
-1.3738295516
 11
98.740559387
 21
-1.0315643057
  0
LINE
  5
55F
100
AcDbEntity
  8
RACCORDO
100
AcDbLine
 62
7
  6
CONTINUOUS
 10
98.740559387
 20
-1.0315643057
 11
98.7387145893
 21
-0.688272374
  0
LINE
  5
560
100
AcDbEntity
  8
RACCORDO
100
AcDbLine
 62
7
  6
CONTINUOUS
 10
98.9130912454
 20
-7.0875188961
 11
98.9127758255
 21
-7.0348113227
  0
LINE
  5
561
100
AcDbEntity
  8
RACCORDO
100
AcDbLine
 62
7
  6
CONTINUOUS
 10
98.7387145893
 20
-0.688272374
 11
98.7376080873
 21
-0.3443034429
  0
LINE
  5
562
100
AcDbEntity
  8
RACCORDO
100
AcDbLine
 62
7
  6
CONTINUOUS
 10
98.9131242132
 20
7.1141560309
 11
98.9129410302
 21
7.1678983163
  0
LINE
  5
563
100
AcDbEntity
  8
RACCORDO
100
AcDbLine
 62
7
  6
CONTINUOUS
 10
98.7376080873
 20
-0.3443034429
 11
98.7372394118
 21
0.0000021556
  0
LINE
  5
564
100
AcDbEntity
  8
RACCORDO
100
AcDbLine
 62
7
  6
CONTINUOUS
 10
98.7372394118
 20
0.0000021556
 11
98.7376080932
 21
0.3443065499
  0
LINE
  5
565
100
AcDbEntity
  8
RACCORDO
100
AcDbLine
 62
7
  6
CONTINUOUS
 10
98.9130741462
 20
-7.1409555257
 11
98.9130912454
 21
-7.0875188961
  0
LINE
  5
566
100
AcDbEntity
  8
RACCORDO
100
AcDbLine
 62
7
  6
CONTINUOUS
 10
98.7376080932
 20
0.3443065499
 11
98.7387145949
 21
0.6882737857
  0
LINE
  5
567
100
AcDbEntity
  8
RACCORDO
100
AcDbLine
 62
7
  6
CONTINUOUS
 10
98.9129750528
 20
7.0610640256
 11
98.9131242132
 21
7.1141560309
  0
LINE
  5
568
100
AcDbEntity
  8
RACCORDO
100
AcDbLine
 62
7
  6
CONTINUOUS
 10
98.7387145949
 20
0.6882737857
 11
98.7405593866
 21
1.0315642432
  0
LINE
  5
569
100
AcDbEntity
  8
RACCORDO
100
AcDbLine
 62
7
  6
CONTINUOUS
 10
98.9127246746
 20
-7.1949642414
 11
98.9130741462
 21
-7.1409555257
  0
LINE
  5
56A
100
AcDbEntity
  8
RACCORDO
100
AcDbLine
 62
7
  6
CONTINUOUS
 10
98.7405593866
 20
1.0315642432
 11
98.743143401
 21
1.3738293581
  0
LINE
  5
56B
100
AcDbEntity
  8
RACCORDO
100
AcDbLine
 62
7
  6
CONTINUOUS
 10
98.743143401
 20
1.3738293581
 11
98.7464686238
 21
1.7147472548
  0
LINE
  5
56C
100
AcDbEntity
  8
RACCORDO
100
AcDbLine
 62
7
  6
CONTINUOUS
 10
98.9124941486
 20
7.0087796853
 11
98.9129750528
 21
7.0610640256
  0
LINE
  5
56D
100
AcDbEntity
  8
RACCORDO
100
AcDbLine
 62
7
  6
CONTINUOUS
 10
98.7464686238
 20
1.7147472548
 11
98.7505364202
 21
2.0539813833
  0
LINE
  5
56E
100
AcDbEntity
  8
RACCORDO
100
AcDbLine
 62
7
  6
CONTINUOUS
 10
98.9120433732
 20
-7.2493852162
 11
98.9127246746
 21
-7.1949642414
  0
LINE
  5
56F
100
AcDbEntity
  8
RACCORDO
100
AcDbLine
 62
7
  6
CONTINUOUS
 10
98.7505364202
 20
2.0539813833
 11
98.7553488578
 21
2.3911753682
  0
LINE
  5
570
100
AcDbEntity
  8
RACCORDO
100
AcDbLine
 62
7
  6
CONTINUOUS
 10
98.7553488578
 20
2.3911753682
 11
98.7609094181
 21
2.7260251727
  0
LINE
  5
571
100
AcDbEntity
  8
RACCORDO
100
AcDbLine
 62
7
  6
CONTINUOUS
 10
98.9116830713
 20
6.957457707
 11
98.9124941486
 21
7.0087796853
  0
LINE
  5
572
100
AcDbEntity
  8
RACCORDO
100
AcDbLine
 62
7
  6
CONTINUOUS
 10
98.7609094181
 20
2.7260251727
 11
98.767220236
 21
3.0582013667
  0
LINE
  5
573
100
AcDbEntity
  8
RACCORDO
100
AcDbLine
 62
7
  6
CONTINUOUS
 10
98.767220236
 20
3.0582013667
 11
98.774284178
 21
3.387346648
  0
LWPOLYLINE
  5
574
100
AcDbEntity
  8
RACCORDO
100
AcDbPolyline
 62
7
  6
CONTINUOUS
 90
3
 70
0
 10
98.9104032874
 20
-7.3314391493
 10
98.9110324748
 20
-7.3040589385
 10
98.9120433732
 20
-7.2493852162
  0
LINE
  5
575
100
AcDbEntity
  8
RACCORDO
100
AcDbLine
 62
7
  6
CONTINUOUS
 10
98.9105454485
 20
6.90724936
 11
98.9116830713
 21
6.957457707
  0
LINE
  5
576
100
AcDbEntity
  8
RACCORDO
100
AcDbLine
 62
7
  6
CONTINUOUS
 10
98.774284178
 20
3.387346648
 11
98.7821060118
 21
3.7131741444
  0
LINE
  5
577
100
AcDbEntity
  8
RACCORDO
100
AcDbLine
 62
7
  6
CONTINUOUS
 10
98.7821060118
 20
3.7131741444
 11
98.7906884347
 21
4.0353645806
  0
LINE
  5
578
100
AcDbEntity
  8
RACCORDO
100
AcDbLine
 62
7
  6
CONTINUOUS
 10
98.7906884347
 20
4.0353645806
 11
98.8000347222
 21
4.3535669279
  0
LINE
  5
579
100
AcDbEntity
  8
RACCORDO
100
AcDbLine
 62
7
  6
CONTINUOUS
 10
98.9090841352
 20
6.8583042997
 11
98.9105454485
 21
6.90724936
  0
LINE
  5
57A
100
AcDbEntity
  8
RACCORDO
100
AcDbLine
 62
7
  6
CONTINUOUS
 10
98.8000347222
 20
4.3535669279
 11
98.810150512
 21
4.6675096824
  0
LINE
  5
57B
100
AcDbEntity
  8
RACCORDO
100
AcDbLine
 62
7
  6
CONTINUOUS
 10
98.810150512
 20
4.6675096824
 11
98.8210387859
 21
4.976886566
  0
LINE
  5
57C
100
AcDbEntity
  8
RACCORDO
100
AcDbLine
 62
7
  6
CONTINUOUS
 10
98.8210387859
 20
4.976886566
 11
98.8327028364
 21
5.2813605945
  0
LINE
  5
57D
100
AcDbEntity
  8
RACCORDO
100
AcDbLine
 62
7
  6
CONTINUOUS
 10
98.9073040936
 20
6.8107687212
 11
98.9090841352
 21
6.8583042997
  0
LINE
  5
57E
100
AcDbEntity
  8
RACCORDO
100
AcDbLine
 62
7
  6
CONTINUOUS
 10
98.8327028364
 20
5.2813605945
 11
98.845148545
 21
5.5806729316
  0
LINE
  5
57F
100
AcDbEntity
  8
RACCORDO
100
AcDbLine
 62
7
  6
CONTINUOUS
 10
98.845148545
 20
5.5806729316
 11
98.8583788472
 21
5.8745329327
  0
LINE
  5
580
100
AcDbEntity
  8
RACCORDO
100
AcDbLine
 62
7
  6
CONTINUOUS
 10
98.8583788472
 20
5.8745329327
 11
98.8723967313
 21
6.1626257657
  0
LWPOLYLINE
  5
581
100
AcDbEntity
  8
RACCORDO
100
AcDbPolyline
 62
7
  6
CONTINUOUS
 90
3
 70
0
 10
98.9040519699
 20
6.7424148261
 10
98.9052131228
 20
6.7647830439
 10
98.9073040936
 20
6.8107687212
  0
LINE
  5
582
100
AcDbEntity
  8
RACCORDO
100
AcDbLine
 62
7
  6
CONTINUOUS
 10
98.8723967313
 20
6.1626257657
 11
98.8872077416
 21
6.4447003109
  0
LINE
  5
583
100
AcDbEntity
  8
RACCORDO
100
AcDbLine
 62
7
  6
CONTINUOUS
 10
98.8872077416
 20
6.4447003109
 11
98.9040519699
 21
6.7424148261
  0
LWPOLYLINE
  5
584
100
AcDbEntity
  8
0
100
AcDbPolyline
 62
250
  6
CONTINUOUS
 90
85
 70
0
 10
91.3856837327
 20
-33.7875965416
 10
91.3812747266
 20
-33.8274888076
 10
91.3761858346
 20
-33.8672784531
 10
91.3704170566
 20
-33.9069654811
 10
91.3639664556
 20
-33.9465621325
 10
91.3568359687
 20
-33.9860561719
 10
91.3490314073
 20
-34.0254108889
 10
91.3405521664
 20
-34.0646259993
 10
91.331398851
 20
-34.1037017955
 10
91.3215790878
 20
-34.1426024345
 10
91.3110922629
 20
-34.181327765
 10
91.2999389901
 20
-34.2198779488
 10
91.2881287373
 20
-34.2582176147
 10
91.2756608894
 20
-34.2963466139
 10
91.2625360615
 20
-34.3342651079
 10
91.2487655666
 20
-34.3719381944
 10
91.234348799
 20
-34.4093656813
 10
91.2192863644
 20
-34.4465477755
 10
91.2035913934
 20
-34.4834501749
 10
91.1872632912
 20
-34.5200726522
 10
91.1703026525
 20
-34.5564154514
 10
91.1527243921
 20
-34.5924449798
 10
91.1345279307
 20
-34.6281609725
 10
91.1157138476
 20
-34.6635637128
 10
91.096298795
 20
-34.6986204321
 10
91.0762822008
 20
-34.7333308466
 10
91.0556646372
 20
-34.7676952601
 10
91.034464473
 20
-34.8016817876
 10
91.012681157
 20
-34.8352901045
 10
90.9903152403
 20
-34.8685205567
 10
90.9673867453
 20
-34.9013422671
 10
90.9438951337
 20
-34.9337548869
 10
90.9198409439
 20
-34.9657587873
 10
90.8952458126
 20
-34.9973241714
 10
90.8701092262
 20
-35.0284506544
 10
90.8444316982
 20
-35.0591386443
 10
90.8182364065
 20
-35.0893595357
 10
90.7915228521
 20
-35.1191129223
 10
90.7642915339
 20
-35.1483992341
 10
90.7365671271
 20
-35.1771911205
 10
90.7083491612
 20
-35.205488141
 10
90.6796381067
 20
-35.2332907602
 10
90.6504600497
 20
-35.2605729858
 10
90.6208145382
 20
-35.2873343568
 10
90.5907020243
 20
-35.3135753583
 10
90.5601499507
 20
-35.3392714186
 10
90.5291578969
 20
-35.3644220461
 10
90.4977262835
 20
-35.3890277564
 10
90.4658838149
 20
-35.4130654886
 10
90.4336300908
 20
-35.4365347327
 10
90.4009655117
 20
-35.4594360222
 10
90.3679199825
 20
-35.4817478629
 10
90.3344931378
 20
-35.5034697174
 10
90.3006853432
 20
-35.5246021457
 10
90.2665275999
 20
-35.5451252999
 10
90.2320195671
 20
-35.565038625
 10
90.1971615856
 20
-35.5843426975
 10
90.1619856788
 20
-35.6030193672
 10
90.1264915411
 20
-35.6210680573
 10
90.090679478
 20
-35.6384893649
 10
90.0545824294
 20
-35.6552669001
 10
90.0182001127
 20
-35.6714000725
 10
89.9815328104
 20
-35.6868894912
 10
89.9446143109
 20
-35.7017205663
 10
89.9074443716
 20
-35.7158926872
 10
89.8700232349
 20
-35.7294064813
 10
89.8323854164
 20
-35.7422492152
 10
89.7945307133
 20
-35.7544202633
 10
89.7564593282
 20
-35.765920266
 10
89.7182063846
 20
-35.7767383881
 10
89.6797717124
 20
-35.7868739941
 10
89.6411554816
 20
-35.796327732
 10
89.602393326
 20
-35.8050906914
 10
89.5634850778
 20
-35.8131622321
 10
89.5244309048
 20
-35.8205430045
 10
89.4852669441
 20
-35.8272260333
 10
89.4459930636
 20
-35.8332106618
 10
89.4066093954
 20
-35.8384975545
 10
89.3671524736
 20
-35.843081718
 10
89.3276220377
 20
-35.8469624849
 10
89.2880183483
 20
-35.8501405279
 10
89.248378721
 20
-35.8526128627
 10
89.2087155945
 20
-35.8543784955
 10
89.1690165302
 20
-35.8554384228
 10
89.1292815281
 20
-35.8557926453
  0
LWPOLYLINE
  5
585
100
AcDbEntity
  8
0
100
AcDbPolyline
 62
250
  6
CONTINUOUS
 90
85
 70
0
 10
96.8205110488
 20
-33.8748188837
 10
96.8045339548
 20
-34.0084747234
 10
96.7862348027
 20
-34.1418320578
 10
96.765619271
 20
-34.2748505569
 10
96.7426938513
 20
-34.4074900416
 10
96.7174655061
 20
-34.5397103757
 10
96.6899416736
 20
-34.6714714586
 10
96.6601308253
 20
-34.8027335152
 10
96.6280421242
 20
-34.933456805
 10
96.5936851059
 20
-35.0636014813
 10
96.5570703418
 20
-35.1931281178
 10
96.5182090545
 20
-35.3219976496
 10
96.4771128013
 20
-35.4501710282
 10
96.4337941698
 20
-35.5776095416
 10
96.3882664331
 20
-35.7042746455
 10
96.3405432002
 20
-35.8301278512
 10
96.2906390778
 20
-35.9551311212
 10
96.2385693328
 20
-36.0792466871
 10
96.1843495748
 20
-36.2024368285
 10
96.1279963888
 20
-36.3246643107
 10
96.0695269947
 20
-36.4458922224
 10
96.0089589416
 20
-36.566083744
 10
95.9463107511
 20
-36.6852025359
 10
95.8816015436
 20
-36.8032126552
 10
95.8148507238
 20
-36.9200783411
 10
95.746078662
 20
-37.0357643074
 10
95.6753063537
 20
-37.1502356142
 10
95.6025550707
 20
-37.2634575324
 10
95.5278470222
 20
-37.3753958542
 10
95.4512049828
 20
-37.4860168144
 10
95.3726519728
 20
-37.5952869077
 10
95.2922119409
 20
-37.7031731497
 10
95.2099094099
 20
-37.8096429862
 10
95.1257691261
 20
-37.9146641616
 10
95.0398167474
 20
-38.0182049613
 10
94.9520784458
 20
-38.1202341772
 10
94.8625805671
 20
-38.2207209602
 10
94.771350365
 20
-38.3196349973
 10
94.678415625
 20
-38.4169464601
 10
94.5838042808
 20
-38.5126259143
 10
94.4875451523
 20
-38.6066444849
 10
94.3896675214
 20
-38.6989738539
 10
94.2902007654
 20
-38.7895861478
 10
94.1891751462
 20
-38.8784540472
 10
94.0866214018
 20
-38.9655507756
 10
93.9825703306
 20
-39.0508500356
 10
93.8770535972
 20
-39.1343261015
 10
93.7701032713
 20
-39.2159538496
 10
93.6617514232
 20
-39.2957086802
 10
93.5520309876
 20
-39.3735665627
 10
93.4409753201
 20
-39.4495040555
 10
93.3286177398
 20
-39.523498269
 10
93.2149924086
 20
-39.5955269015
 10
93.1001338336
 20
-39.6655682909
 10
92.9840764232
 20
-39.7336013629
 10
92.8668554325
 20
-39.7996056269
 10
92.7485064637
 20
-39.8635612297
 10
92.6290649688
 20
-39.9254489338
 10
92.508567233
 20
-39.9852500968
 10
92.3870498262
 20
-40.0429467467
 10
92.2645491006
 20
-40.0985215549
 10
92.141102227
 20
-40.151957796
 10
92.0167466879
 20
-40.203239402
 10
91.8915197265
 20
-40.2523509571
 10
91.7654593571
 20
-40.2992776756
 10
91.6386038188
 20
-40.3440054647
 10
91.5109910653
 20
-40.3865208962
 10
91.3826598444
 20
-40.4268111667
 10
91.253649055
 20
-40.4648641895
 10
91.1239971964
 20
-40.5006685704
 10
90.9937436182
 20
-40.5342135265
 10
90.8629277993
 20
-40.5654889943
 10
90.7315886978
 20
-40.5944856234
 10
90.5997660567
 20
-40.6211946942
 10
90.4674999309
 20
-40.6456081672
 10
90.3348299612
 20
-40.6677186988
 10
90.2017962931
 20
-40.687519643
 10
90.0684393411
 20
-40.7050050486
 10
89.9347993144
 20
-40.7201696354
 10
89.8009168766
 20
-40.7330088397
 10
89.6668324714
 20
-40.7435188565
 10
89.5325860871
 20
-40.7516965626
 10
89.3982181997
 20
-40.7575395092
 10
89.2637697615
 20
-40.7610459613
 10
89.1292815281
 20
-40.7622148997
  0
LINE
  5
586
100
AcDbEntity
  8
0
100
AcDbLine
 62
7
  6
CONTINUOUS
 10
-109.7607360198
 20
-41.0
 11
-112.0231101259
 21
-40.7622148997
  0
LWPOLYLINE
  5
587
100
AcDbEntity
  8
0
100
AcDbPolyline
 62
7
  6
CONTINUOUS
 90
10
 70
0
 43
0.3500000006
 10
-115.0107393494
 20
49.7500012665
 10
-114.1535923462
 20
50.6071437378
 10
-113.9393078613
 20
51.4642862091
 10
-113.9393078613
 20
52.3214286804
 10
-114.3678768311
 20
52.750002182
 10
-115.0107393494
 20
52.750002182
 10
-115.4393083191
 20
52.3214286804
 10
-115.4393083191
 20
51.4642862091
 10
-115.0107393494
 20
51.0357127075
 10
-114.0821611633
 20
51.0357127075
  0
LINE
  5
588
100
AcDbEntity
  8
0
100
AcDbLine
 62
250
  6
CONTINUOUS
 10
-112.2266534207
 20
-33.874818883
 11
-112.4375012018
 21
-33.8923208369
  0
LINE
  5
589
100
AcDbEntity
  8
0
100
AcDbLine
 62
250
  6
CONTINUOUS
 10
-112.4375012018
 20
-33.8923208369
 11
-112.6471651656
 21
-33.9088650872
  0
LINE
  5
58A
100
AcDbEntity
  8
0
100
AcDbLine
 62
250
  6
CONTINUOUS
 10
-112.6471651656
 20
-33.9088650872
 11
-112.8553294327
 21
-33.9244267083
  0
LINE
  5
58B
100
AcDbEntity
  8
0
100
AcDbLine
 62
250
  6
CONTINUOUS
 10
-112.8553294327
 20
-33.9244267083
 11
-113.0616803826
 21
-33.9389822552
  0
LINE
  5
58C
100
AcDbEntity
  8
0
100
AcDbLine
 62
250
  6
CONTINUOUS
 10
-113.0616803826
 20
-33.9389822552
 11
-113.2659071273
 21
-33.9525097984
  0
LINE
  5
58D
100
AcDbEntity
  8
0
100
AcDbLine
 62
250
  6
CONTINUOUS
 10
-113.2659071273
 20
-33.9525097984
 11
-113.4677019787
 21
-33.9649889574
  0
LINE
  5
58E
100
AcDbEntity
  8
0
100
AcDbLine
 62
250
  6
CONTINUOUS
 10
-113.4677019787
 20
-33.9649889574
 11
-113.6667609128
 21
-33.9764009311
  0
LINE
  5
58F
100
AcDbEntity
  8
0
100
AcDbLine
 62
250
  6
CONTINUOUS
 10
-113.6667609128
 20
-33.9764009311
 11
-113.8627840275
 21
-33.9867285261
  0
LINE
  5
590
100
AcDbEntity
  8
0
100
AcDbLine
 62
250
  6
CONTINUOUS
 10
-113.8627840275
 20
-33.9867285261
 11
-114.0554759945
 21
-33.9959561831
  0
LINE
  5
591
100
AcDbEntity
  8
0
100
AcDbLine
 62
250
  6
CONTINUOUS
 10
-114.0554759945
 20
-33.9959561831
 11
-114.244546504
 21
-34.0040699994
  0
LINE
  5
592
100
AcDbEntity
  8
0
100
AcDbLine
 62
250
  6
CONTINUOUS
 10
-114.244546504
 20
-34.0040699994
 11
-114.4297107025
 21
-34.011057751
  0
LINE
  5
593
100
AcDbEntity
  8
0
100
AcDbLine
 62
250
  6
CONTINUOUS
 10
-114.4297107025
 20
-34.011057751
 11
-114.6106896218
 21
-34.01690891
  0
LINE
  5
594
100
AcDbEntity
  8
0
100
AcDbLine
 62
250
  6
CONTINUOUS
 10
-114.6106896218
 20
-34.01690891
 11
-114.7872105989
 21
-34.021614661
  0
LINE
  5
595
100
AcDbEntity
  8
0
100
AcDbLine
 62
250
  6
CONTINUOUS
 10
-114.7872105989
 20
-34.021614661
 11
-114.9590076876
 21
-34.0251679145
  0
LINE
  5
596
100
AcDbEntity
  8
0
100
AcDbLine
 62
250
  6
CONTINUOUS
 10
-114.9590076876
 20
-34.0251679145
 11
-115.1258220583
 21
-34.0275633171
  0
LINE
  5
597
100
AcDbEntity
  8
0
100
AcDbLine
 62
250
  6
CONTINUOUS
 10
-115.1258220583
 20
-34.0275633171
 11
-115.2874023886
 21
-34.0287972598
  0
LINE
  5
598
100
AcDbEntity
  8
0
100
AcDbLine
 62
250
  6
CONTINUOUS
 10
-115.2874023886
 20
-34.0287972598
 11
-115.4435052417
 21
-34.0288678836
  0
LINE
  5
599
100
AcDbEntity
  8
0
100
AcDbLine
 62
250
  6
CONTINUOUS
 10
-115.4435052417
 20
-34.0288678836
 11
-115.593895433
 21
-34.0277750821
  0
LINE
  5
59A
100
AcDbEntity
  8
0
100
AcDbLine
 62
250
  6
CONTINUOUS
 10
-109.7607360198
 20
-33.904109589
 11
-112.2266534213
 21
-33.8748188837
  0
LWPOLYLINE
  5
59B
100
AcDbEntity
  8
0
100
AcDbPolyline
 62
250
  6
CONTINUOUS
 90
39
 70
0
 10
-115.593895433
 20
-34.0277750821
 10
-115.7383463846
 20
-34.0255205018
 10
-115.8082762778
 20
-34.0239585377
 10
-115.876640467
 20
-34.0221075393
 10
-115.9434132006
 20
-34.0199682036
 10
-116.0085693262
 20
-34.0175413366
 10
-116.0720843005
 20
-34.0148278524
 10
-116.1339341983
 20
-34.0118287732
 10
-116.1940957216
 20
-34.0085452287
 10
-116.2525462086
 20
-34.0049784556
 10
-116.3092636416
 20
-34.0011297977
 10
-116.3642266562
 20
-33.9970007046
 10
-116.4174145486
 20
-33.9925927316
 10
-116.4688072836
 20
-33.9879075393
 10
-116.5183855024
 20
-33.9829468924
 10
-116.5661305295
 20
-33.9777126596
 10
-116.6120243802
 20
-33.9722068124
 10
-116.6560497668
 20
-33.966431425
 10
-116.6981901057
 20
-33.9603886727
 10
-116.7384295231
 20
-33.9540808318
 10
-116.7767528616
 20
-33.9475102784
 10
-116.8131456853
 20
-33.9406794875
 10
-116.8475942854
 20
-33.9335910322
 10
-116.8800856858
 20
-33.9262475825
 10
-116.9106076474
 20
-33.9186519047
 10
-116.9391486731
 20
-33.9108068599
 10
-116.9656980117
 20
-33.9027154033
 10
-116.9902456626
 20
-33.8943805827
 10
-117.0127823791
 20
-33.8858055379
 10
-117.0332996719
 20
-33.8769934988
 10
-117.0517898124
 20
-33.8679477848
 10
-117.0682458357
 20
-33.8586718034
 10
-117.082661543
 20
-33.8491690486
 10
-117.0950315041
 20
-33.8394431001
 10
-117.1053510594
 20
-33.8294976213
 10
-117.1136163218
 20
-33.8193363588
 10
-117.1198241779
 20
-33.8089631399
 10
-117.1239722891
 20
-33.7983818723
 10
-117.126059093
 20
-33.7875965416
  0
LWPOLYLINE
  5
59C
100
AcDbEntity
  8
0
100
AcDbPolyline
 62
7
  6
CONTINUOUS
 90
7
 70
0
 43
0.3500000006
 10
-127.5107341003
 20
1.5000001373
 10
-127.5107341003
 20
-0.0000003204
 10
-129.6535970764
 20
1.5000001373
 10
-130.0821660461
 20
1.5000001373
 10
-130.5107350159
 20
1.0714289017
 10
-130.5107350159
 20
0.4285709152
 10
-129.8678815613
 20
-0.0000003204
  0
LWPOLYLINE
  5
59D
100
AcDbEntity
  8
0
100
AcDbPolyline
 62
7
  6
CONTINUOUS
 90
13
 70
0
 43
0.3500000006
 10
-129.225019043
 20
-1.9285708809
 10
-129.4393035278
 20
-2.2142854156
 10
-130.0821660461
 20
-2.2142854156
 10
-130.5107350159
 20
-1.9285708809
 10
-130.5107350159
 20
-1.2857140274
 10
-130.0821660461
 20
-1.0000006256
 10
-129.4393035278
 20
-1.0000006256
 10
-129.225019043
 20
-1.2857140274
 10
-128.7964500732
 20
-0.8571427917
 10
-127.9393030701
 20
-0.8571427917
 10
-127.5107341003
 20
-1.2857140274
 10
-127.5107341003
 20
-1.9285708809
 10
-127.9393030701
 20
-2.3571432495
  0
LWPOLYLINE
  5
59E
100
AcDbEntity
  8
0
100
AcDbPolyline
 62
250
  6
CONTINUOUS
 90
49
 70
0
 10
-112.2266534213
 20
33.8748188837
 10
-112.3579988676
 20
32.4658775364
 10
-112.4837496229
 20
31.0565706673
 10
-112.6039056873
 20
29.6469217346
 10
-112.7184674441
 20
28.236944397
 10
-112.82743451
 20
26.8266718491
 10
-112.9308057343
 20
25.4161568594
 10
-113.0285790298
 20
24.0054509895
 10
-113.1207564837
 20
22.5945494983
 10
-113.2073432068
 20
21.1834206508
 10
-113.2883401576
 20
19.7720774056
 10
-113.3637463776
 20
18.3605533869
 10
-113.4335641019
 20
16.9488477695
 10
-113.4977934445
 20
15.5369832995
 10
-113.5564342915
 20
14.1249836972
 10
-113.6094885364
 20
12.7128495498
 10
-113.6569561771
 20
11.3006110278
 10
-113.6988372158
 20
9.8882843324
 10
-113.7351335524
 20
8.4758490518
 10
-113.7658456004
 20
7.0633199287
 10
-113.7909729463
 20
5.6507285028
 10
-113.81051625
 20
4.2380795272
 10
-113.8244755924
 20
2.8254016264
 10
-113.8328508927
 20
1.4127124229
 10
-113.8356425678
 20
0.0000001542
 10
-113.832850896
 20
-1.4127120036
 10
-113.824475599
 20
-2.8254009977
 10
-113.8105162589
 20
-4.2380787754
 10
-113.7909729559
 20
-5.6507278206
 10
-113.7658456097
 20
-7.0633194026
 10
-113.7351335623
 20
-8.4758486346
 10
-113.6988372279
 20
-9.8882839158
 10
-113.6569561921
 20
-11.3006105646
 10
-113.6094885545
 20
-12.7128490426
 10
-113.5564343135
 20
-14.1249831488
 10
-113.4977934706
 20
-15.5369827125
 10
-113.4335641292
 20
-16.9488471948
 10
-113.3637463995
 20
-18.3605529377
 10
-113.2883401714
 20
-19.7720771326
 10
-113.2073432177
 20
-21.1834204661
 10
-113.1207565035
 20
-22.5945492087
 10
-113.0285790638
 20
-24.0054505073
 10
-112.930805776
 20
-25.4161562741
 10
-112.8274345467
 20
-26.8266713477
 10
-112.7184674693
 20
-28.2369440689
 10
-112.6039057023
 20
-29.6469215548
 10
-112.4837496316
 20
-31.0565705724
 10
-112.3579988713
 20
-32.4658775015
 10
-112.2266534213
 20
-33.8748188837
  0
LWPOLYLINE
  5
59F
100
AcDbEntity
  8
0
100
AcDbPolyline
 62
7
  6
CONTINUOUS
 90
4
 70
0
 43
0.3500000006
 10
-127.9393030701
 20
-2.3571432495
 10
-128.7964500732
 20
-2.3571432495
 10
-129.225019043
 20
-1.9285708809
 10
-129.225019043
 20
-1.2857140274
  0
LINE
  5
5A0
100
AcDbEntity
  8
0
100
AcDbLine
 62
250
  6
CONTINUOUS
 10
-112.0333715348
 20
-40.4268111667
 11
-112.0231101259
 21
-40.7622148997
  0
LINE
  5
5A1
100
AcDbEntity
  8
0
100
AcDbLine
 62
250
  6
CONTINUOUS
 10
-112.0417532962
 20
-40.151957796
 11
-112.0333715348
 21
-40.4268111667
  0
LINE
  5
5A2
100
AcDbEntity
  8
0
100
AcDbLine
 62
250
  6
CONTINUOUS
 10
-112.0468252493
 20
-39.9852500968
 11
-112.0417532962
 21
-40.151957796
  0
LINE
  5
5A3
100
AcDbEntity
  8
0
100
AcDbLine
 62
250
  6
CONTINUOUS
 10
-112.0586474092
 20
-39.5955269015
 11
-112.0468252493
 21
-39.9852500968
  0
LINE
  5
5A4
100
AcDbEntity
  8
0
100
AcDbLine
 62
250
  6
CONTINUOUS
 10
-112.0653587381
 20
-39.3735665627
 11
-112.0586474092
 21
-39.5955269015
  0
LWPOLYLINE
  5
5A5
100
AcDbEntity
  8
0
100
AcDbPolyline
 62
250
  6
CONTINUOUS
 90
3
 70
0
 10
-112.0750881294
 20
-39.0508500356
 10
-112.072574895
 20
-39.1343261015
 10
-112.0653587381
 20
-39.3735665627
  0
LWPOLYLINE
  5
5A6
100
AcDbEntity
  8
0
100
AcDbPolyline
 62
250
  6
CONTINUOUS
 90
3
 70
0
 10
-112.0829407045
 20
-38.7895861478
 10
-112.0802724637
 20
-38.8784540472
 10
-112.0750881294
 20
-39.0508500356
  0
LWPOLYLINE
  5
5A7
100
AcDbEntity
  8
0
100
AcDbPolyline
 62
250
  6
CONTINUOUS
 90
3
 70
0
 10
-112.0912412975
 20
-38.5126259143
 10
-112.0884266181
 20
-38.6066444849
 10
-112.0829407045
 20
-38.7895861478
  0
LWPOLYLINE
  5
5A8
100
AcDbEntity
  8
0
100
AcDbPolyline
 62
250
  6
CONTINUOUS
 90
3
 70
0
 10
-112.0999633854
 20
-38.2207209602
 10
-112.0970112399
 20
-38.3196349973
 10
-112.0912412975
 20
-38.5126259143
  0
LWPOLYLINE
  5
5A9
100
AcDbEntity
  8
0
100
AcDbPolyline
 62
250
  6
CONTINUOUS
 90
3
 70
0
 10
-112.1090792946
 20
-37.9146641616
 10
-112.1059990252
 20
-38.0182049613
 10
-112.0999633854
 20
-38.2207209602
  0
LINE
  5
5AA
100
AcDbEntity
  8
0
100
AcDbLine
 62
250
  6
CONTINUOUS
 10
-112.1153616127
 20
-37.7031731497
 11
-112.1090792946
 21
-37.9146641616
  0
LWPOLYLINE
  5
5AB
100
AcDbEntity
  8
0
100
AcDbPolyline
 62
250
  6
CONTINUOUS
 90
3
 70
0
 10
-112.1283769199
 20
-37.2634575324
 10
-112.1250696939
 20
-37.3753958542
 10
-112.1153616127
 20
-37.7031731497
  0
LINE
  5
5AC
100
AcDbEntity
  8
0
100
AcDbLine
 62
250
  6
CONTINUOUS
 10
-112.138498669
 20
-36.9200783411
 11
-112.1283769199
 21
-37.2634575324
  0
LWPOLYLINE
  5
5AD
100
AcDbEntity
  8
0
100
AcDbPolyline
 62
250
  6
CONTINUOUS
 90
3
 70
0
 10
-112.1488945503
 20
-36.566083744
 10
-112.145401134
 20
-36.6852025359
 10
-112.138498669
 20
-36.9200783411
  0
LWPOLYLINE
  5
5AE
100
AcDbEntity
  8
0
100
AcDbPolyline
 62
250
  6
CONTINUOUS
 90
4
 70
0
 10
-112.1631271665
 20
-36.0792466871
 10
-112.15953302
 20
-36.2024368285
 10
-112.1559622795
 20
-36.3246643107
 10
-112.1488945503
 20
-36.566083744
  0
LWPOLYLINE
  5
5AF
100
AcDbEntity
  8
0
100
AcDbPolyline
 62
250
  6
CONTINUOUS
 90
5
 70
0
 10
-112.1814095207
 20
-35.4501710282
 10
-112.1777163038
 20
-35.5776095416
 10
-112.1740392804
 20
-35.7042746455
 10
-112.1703820776
 20
-35.8301278512
 10
-112.1631271665
 20
-36.0792466871
  0
LWPOLYLINE
  5
5B0
100
AcDbEntity
  8
0
100
AcDbPolyline
 62
250
  6
CONTINUOUS
 90
4
 70
0
 10
-112.196333648
 20
-34.933456805
 10
-112.1925827044
 20
-35.0636014813
 10
-112.1888444797
 20
-35.1931281178
 10
-112.1814095207
 20
-35.4501710282
  0
LWPOLYLINE
  5
5B1
100
AcDbEntity
  8
0
100
AcDbPolyline
 62
250
  6
CONTINUOUS
 90
4
 70
0
 10
-112.2114411225
 20
-34.4074900416
 10
-112.2076509773
 20
-34.5397103757
 10
-112.2038697246
 20
-34.6714714586
 10
-112.196333648
 20
-34.933456805
  0
LINE
  5
5B2
100
AcDbEntity
  8
0
100
AcDbLine
 62
250
  6
CONTINUOUS
 10
-112.2190368156
 20
-34.1418320578
 11
-112.2114411225
 21
-34.4074900416
  0
LINE
  5
5B3
100
AcDbEntity
  8
0
100
AcDbLine
 62
250
  6
CONTINUOUS
 10
-112.2266534213
 20
-33.8748188837
 11
-112.2190368156
 21
-34.1418320578
  0
LINE
  5
5B4
100
AcDbEntity
  8
0
100
AcDbLine
 62
250
  6
CONTINUOUS
 10
-112.1740392917
 20
35.7042746454
 11
-112.2266534213
 21
33.8748188837
  0
LINE
  5
5B5
100
AcDbEntity
  8
0
100
AcDbLine
 62
250
  6
CONTINUOUS
 10
-112.0586474172
 20
39.5955269106
 11
-112.1740392917
 21
35.7042746454
  0
LINE
  5
5B6
100
AcDbEntity
  8
0
100
AcDbLine
 62
250
  6
CONTINUOUS
 10
-112.0231101259
 20
40.7622148997
 11
-112.0231460715
 21
40.7610459613
  0
LINE
  5
5B7
100
AcDbEntity
  8
0
100
AcDbLine
 62
250
  6
CONTINUOUS
 10
-112.0231460715
 20
40.7610459613
 11
-112.0586474172
 21
39.5955269106
  0
LINE
  5
5B8
100
AcDbEntity
  8
0
100
AcDbLine
 62
7
  6
CONTINUOUS
 10
-109.7607360198
 20
-41.0
 11
-109.7607360198
 21
-33.904109589
  0
LINE
  5
5B9
100
AcDbEntity
  8
RACCORDO
100
AcDbLine
 62
7
  6
CONTINUOUS
 10
-109.7607360198
 20
-33.904109589
 11
-109.7607360198
 21
-7.3314391493
  0
LINE
  5
5BA
100
AcDbEntity
  8
RACCORDO
100
AcDbLine
 62
7
  6
CONTINUOUS
 10
-109.7607360198
 20
7.3314391493
 11
-109.7607360198
 21
33.904109589
  0
LINE
  5
5BB
100
AcDbEntity
  8
0
100
AcDbLine
 62
7
  6
CONTINUOUS
 10
-109.7607360198
 20
33.904109589
 11
-109.7607360198
 21
41.0
  0
LWPOLYLINE
  5
5BC
100
AcDbEntity
  8
0
100
AcDbPolyline
 62
250
  6
CONTINUOUS
 90
38
 70
0
 10
-115.7383463862
 20
34.0255205022
 10
-115.8082762793
 20
34.0239585382
 10
-115.8766404686
 20
34.0221075397
 10
-115.9434132021
 20
34.019968204
 10
-116.0085693277
 20
34.017541337
 10
-116.072084302
 20
34.0148278528
 10
-116.1339341998
 20
34.0118287736
 10
-116.1940957231
 20
34.008545229
 10
-116.25254621
 20
34.004978456
 10
-116.3092636431
 20
34.0011297981
 10
-116.3642266577
 20
33.9970007049
 10
-116.41741455
 20
33.992592732
 10
-116.4688072849
 20
33.9879075396
 10
-116.5183855037
 20
33.9829468927
 10
-116.5661305308
 20
33.9777126599
 10
-116.6120243814
 20
33.9722068127
 10
-116.656049768
 20
33.9664314252
 10
-116.6981901068
 20
33.9603886729
 10
-116.7384295242
 20
33.9540808321
 10
-116.7767528627
 20
33.9475102786
 10
-116.8131456863
 20
33.9406794877
 10
-116.8475942864
 20
33.9335910324
 10
-116.8800856867
 20
33.9262475827
 10
-116.9106076482
 20
33.9186519049
 10
-116.9391486738
 20
33.9108068601
 10
-116.9656980124
 20
33.9027154034
 10
-116.9902456632
 20
33.8943805829
 10
-117.0127823796
 20
33.885805538
 10
-117.0332996723
 20
33.8769934989
 10
-117.0517898128
 20
33.8679477849
 10
-117.068245836
 20
33.8586718035
 10
-117.0826615432
 20
33.8491690487
 10
-117.0950315042
 20
33.8394431001
 10
-117.1053510595
 20
33.8294976214
 10
-117.1136163218
 20
33.8193363588
 10
-117.1198241777
 20
33.8089631399
 10
-117.1239722889
 20
33.7983818723
 10
-117.1260590927
 20
33.7875965416
  0
LINE
  5
5BD
100
AcDbEntity
  8
0
100
AcDbLine
 62
250
  6
CONTINUOUS
 10
-115.5938954346
 20
34.0277750826
 11
-115.7383463862
 21
34.0255205022
  0
LINE
  5
5BE
100
AcDbEntity
  8
0
100
AcDbLine
 62
250
  6
CONTINUOUS
 10
-109.7607360198
 20
33.904109589
 11
-112.2266534213
 21
33.8748188837
  0
LINE
  5
5BF
100
AcDbEntity
  8
0
100
AcDbLine
 62
250
  6
CONTINUOUS
 10
-115.4435052433
 20
34.0288678841
 11
-115.5938954346
 21
34.0277750826
  0
LINE
  5
5C0
100
AcDbEntity
  8
0
100
AcDbLine
 62
250
  6
CONTINUOUS
 10
-115.2874023902
 20
34.0287972603
 11
-115.4435052433
 21
34.0288678841
  0
LINE
  5
5C1
100
AcDbEntity
  8
0
100
AcDbLine
 62
250
  6
CONTINUOUS
 10
-115.1258220599
 20
34.0275633176
 11
-115.2874023902
 21
34.0287972603
  0
LINE
  5
5C2
100
AcDbEntity
  8
0
100
AcDbLine
 62
250
  6
CONTINUOUS
 10
-114.9590076892
 20
34.025167915
 11
-115.1258220599
 21
34.0275633176
  0
LINE
  5
5C3
100
AcDbEntity
  8
0
100
AcDbLine
 62
250
  6
CONTINUOUS
 10
-114.7872106005
 20
34.0216146616
 11
-114.9590076892
 21
34.025167915
  0
LINE
  5
5C4
100
AcDbEntity
  8
0
100
AcDbLine
 62
250
  6
CONTINUOUS
 10
-114.6106896232
 20
34.0169089105
 11
-114.7872106005
 21
34.0216146616
  0
LINE
  5
5C5
100
AcDbEntity
  8
0
100
AcDbLine
 62
250
  6
CONTINUOUS
 10
-114.429710704
 20
34.0110577515
 11
-114.6106896232
 21
34.0169089105
  0
LINE
  5
5C6
100
AcDbEntity
  8
0
100
AcDbLine
 62
250
  6
CONTINUOUS
 10
-114.2445465054
 20
34.00407
 11
-114.429710704
 21
34.0110577515
  0
LINE
  5
5C7
100
AcDbEntity
  8
0
100
AcDbLine
 62
250
  6
CONTINUOUS
 10
-114.0554759958
 20
33.9959561836
 11
-114.2445465054
 21
34.00407
  0
LINE
  5
5C8
100
AcDbEntity
  8
0
100
AcDbLine
 62
250
  6
CONTINUOUS
 10
-113.8627840288
 20
33.9867285267
 11
-114.0554759958
 21
33.9959561836
  0
LINE
  5
5C9
100
AcDbEntity
  8
0
100
AcDbLine
 62
250
  6
CONTINUOUS
 10
-113.666760914
 20
33.9764009317
 11
-113.8627840288
 21
33.9867285267
  0
LINE
  5
5CA
100
AcDbEntity
  8
0
100
AcDbLine
 62
250
  6
CONTINUOUS
 10
-113.4677019798
 20
33.964988958
 11
-113.666760914
 21
33.9764009317
  0
LINE
  5
5CB
100
AcDbEntity
  8
0
100
AcDbLine
 62
250
  6
CONTINUOUS
 10
-113.2659071283
 20
33.952509799
 11
-113.4677019798
 21
33.964988958
  0
LINE
  5
5CC
100
AcDbEntity
  8
0
100
AcDbLine
 62
250
  6
CONTINUOUS
 10
-113.0616803836
 20
33.9389822558
 11
-113.2659071283
 21
33.952509799
  0
LINE
  5
5CD
100
AcDbEntity
  8
0
100
AcDbLine
 62
250
  6
CONTINUOUS
 10
-112.8553294335
 20
33.9244267089
 11
-113.0616803836
 21
33.9389822558
  0
LINE
  5
5CE
100
AcDbEntity
  8
0
100
AcDbLine
 62
250
  6
CONTINUOUS
 10
-112.6471651664
 20
33.9088650877
 11
-112.8553294335
 21
33.9244267089
  0
LINE
  5
5CF
100
AcDbEntity
  8
0
100
AcDbLine
 62
250
  6
CONTINUOUS
 10
-112.4375012024
 20
33.8923208375
 11
-112.6471651664
 21
33.9088650877
  0
LINE
  5
5D0
100
AcDbEntity
  8
0
100
AcDbLine
 62
250
  6
CONTINUOUS
 10
-112.2266534212
 20
33.8748188836
 11
-112.4375012024
 21
33.8923208375
  0
LINE
  5
5D1
100
AcDbEntity
  8
0
100
AcDbLine
 62
7
  6
CONTINUOUS
 10
-109.7607360198
 20
41.0
 11
-112.0231101259
 21
40.7622148997
  0
ARC
  5
5D2
100
AcDbEntity
  8
RACCORDO
100
AcDbCircle
 62
7
  6
CONTINUOUS
 10
201.0
 20
0.0
 40
300.0
100
AcDbArc
 50
181.4003411461
 51
186.4890714501
  0
ARC
  5
5D3
100
AcDbEntity
  8
RACCORDO
100
AcDbCircle
 62
7
  6
CONTINUOUS
 10
-201.0
 20
-0.0
 40
300.0
100
AcDbArc
 50
353.5109285499
 51
358.5996588539
  0
ARC
  5
5D4
100
AcDbEntity
  8
RACCORDO
100
AcDbCircle
 62
7
  6
CONTINUOUS
 10
-201.0
 20
-0.0
 40
300.0
100
AcDbArc
 50
1.4003411461
 51
6.4890714501
  0
ARC
  5
5D5
100
AcDbEntity
  8
RACCORDO
100
AcDbCircle
 62
7
  6
CONTINUOUS
 10
201.0
 20
0.0
 40
300.0
100
AcDbArc
 50
173.5109285499
 51
178.5996588539
  0
ARC
  5
5D6
100
AcDbEntity
  8
0
100
AcDbCircle
 62
7
  6
CONTINUOUS
 10
-89.1292815281
 20
-33.0
 40
8.0
100
AcDbArc
 50
186.4890714501
 51
270.0
  0
ARC
  5
5D7
100
AcDbEntity
  8
0
100
AcDbCircle
 62
7
  6
CONTINUOUS
 10
89.1292815281
 20
-33.0
 40
8.0
100
AcDbArc
 50
270.0
 51
353.5109285499
  0
ARC
  5
5D8
100
AcDbEntity
  8
0
100
AcDbCircle
 62
7
  6
CONTINUOUS
 10
89.1292815281
 20
33.0
 40
8.0
100
AcDbArc
 50
6.4890714501
 51
90.0
  0
ARC
  5
5D9
100
AcDbEntity
  8
0
100
AcDbCircle
 62
7
  6
CONTINUOUS
 10
-89.1292815281
 20
33.0
 40
8.0
100
AcDbArc
 50
90.0
 51
173.5109285499
  0
ARC
  5
5DA
100
AcDbEntity
  8
RACCORDO
100
AcDbCircle
 62
7
  6
CONTINUOUS
 10
-75.7268900626
 20
-8.708165587
 40
0.5
100
AcDbArc
 50
0.0
 51
30.9252469341
  0
ARC
  5
5DB
100
AcDbEntity
  8
RACCORDO
100
AcDbCircle
 62
7
  6
CONTINUOUS
 10
75.7268900626
 20
-8.708165587
 40
0.5
100
AcDbArc
 50
149.0552340506
 51
180.0
  0
ARC
  5
5DC
100
AcDbEntity
  8
RACCORDO
100
AcDbCircle
 62
7
  6
CONTINUOUS
 10
75.7268900626
 20
8.708165587
 40
0.5
100
AcDbArc
 50
180.0
 51
210.9252469341
  0
ARC
  5
5DD
100
AcDbEntity
  8
RACCORDO
100
AcDbCircle
 62
7
  6
CONTINUOUS
 10
-75.7268900626
 20
8.708165587
 40
0.5
100
AcDbArc
 50
329.0552340506
 51
360.0
  0
ARC
  5
5DE
100
AcDbEntity
  8
0
100
AcDbCircle
 62
7
  6
CONTINUOUS
 10
231.2392639802
 20
0.0
 40
350.0
100
AcDbArc
 50
174.1200110534
 51
185.8799889466
  0
ARC
  5
5DF
100
AcDbEntity
  8
RACCORDO
100
AcDbCircle
 62
7
  6
CONTINUOUS
 10
231.2392639802
 20
0.0
 40
350.0
100
AcDbArc
 50
185.1857916235
 51
185.2812561848
  0
ARC
  5
5E0
100
AcDbEntity
  8
RACCORDO
100
AcDbCircle
 62
7
  6
CONTINUOUS
 10
-101.2607360198
 20
0.0
 40
11.0
100
AcDbArc
 50
142.3415379938
 51
217.6584620062
  0
ARC
  5
5E1
100
AcDbEntity
  8
0
100
AcDbCircle
 62
7
  6
CONTINUOUS
 10
-111.4482035786
 20
-35.2923444696
 40
5.5
100
AcDbArc
 50
185.8799890049
 51
264.0000000122
  0
ARC
  5
5E2
100
AcDbEntity
  8
0
100
AcDbCircle
 62
7
  6
CONTINUOUS
 10
-111.4482035786
 20
35.2923444696
 40
5.5
100
AcDbArc
 50
95.9999999878
 51
174.1200109951
  0
ARC
  5
5E3
100
AcDbEntity
  8
RACCORDO
100
AcDbCircle
 62
7
  6
CONTINUOUS
 10
-110.7607360198
 20
-7.3314391493
 40
1.0
100
AcDbArc
 50
0.0
 51
37.6584620062
  0
ARC
  5
5E4
100
AcDbEntity
  8
RACCORDO
100
AcDbCircle
 62
7
  6
CONTINUOUS
 10
-110.7607360198
 20
7.3314391493
 40
1.0
100
AcDbArc
 50
322.3415379938
 51
360.0
  0
ENDSEC
  0
SECTION
  2
OBJECTS
  0
DICTIONARY
  5
C
100
AcDbDictionary
280
0
281
1
  3
ACAD_GROUP
350
D
  3
ACAD_MLINESTYLE
350
17
  3
ACAD_LAYOUT
350
1A
  3
ACAD_PLOTSETTINGS
350
19
  3
ACAD_PLOTSTYLENAME
350
E
  0
DICTIONARY
  5
D
102
{ACAD_REACTORS
330
C
102
}
100
AcDbDictionary
280
0
281
1
  0
ACDBDICTIONARYWDFLT
  5
E
102
{ACAD_REACTORS
330
C
102
}
100
AcDbDictionary
281
1
  3
Normal
350
F
100
AcDbDictionaryWithDefault
340
F
  0
DICTIONARY
  5
17
102
{ACAD_REACTORS
330
C
102
}
100
AcDbDictionary
280
0
281
1
  3
Standard
350
18
  0
DICTIONARY
  5
19
102
{ACAD_REACTORS
330
C
102
}
100
AcDbDictionary
281
1
  0
DICTIONARY
  5
1A
102
{ACAD_REACTORS
330
C
102
}
100
AcDbDictionary
281
1
  3
Model
350
5E5
  3
Layout1
350
5E6
  0
ACDBPLACEHOLDER
  5
F
102
{ACAD_REACTORS
330
E
102
}
  0
MLINESTYLE
  5
18
102
{ACAD_REACTORS
330
17
102
}
100
AcDbMlineStyle
  2
STANDARD
 70
0
  3

 62
256
 51
90.0
 52
90.0
 71
2
 49
0.5
 62
256
  6
BYLAYER
 49
-0.5
 62
256
  6
BYLAYER
  0
LAYOUT
  5
5E5
102
{ACAD_REACTORS
330
1A
102
}
100
AcDbPlotSettings
  1

  2
none_device
  4
ISO_A4_(297.00_x_210.00_MM)
  6

 40
0.0
 41
0.0
 42
0.0
 43
0.0
 44
297.0
 45
210.0
 46
0.0
 47
0.0
 48
0.0
 49
0.0
140
0.0
141
0.0
142
1.0
143
1.0
 70
1024
 72
1
 73
0
 74
0
  7

 75
0
147
1.0
148
0.0
149
0.0
100
AcDbLayout
  1
Model
 70
0
 71
0
 10
0.0
 20
0.0
 11
297.0
 21
210.0
 12
0.0
 22
0.0
 32
0.0
 14
0.0
 24
0.0
 34
0.0
 15
0.0
 25
0.0
 35
0.0
146
0.0
 13
0.0
 23
0.0
 33
0.0
 16
1.0
 26
0.0
 36
0.0
 17
0.0
 27
1.0
 37
0.0
 76
0
330
216
345
0
346
0
  0
LAYOUT
  5
5E6
102
{ACAD_REACTORS
330
1A
102
}
100
AcDbPlotSettings
  1

  2
none_device
  4
ISO_A4_(297.00_x_210.00_MM)
  6

 40
0.0
 41
0.0
 42
0.0
 43
0.0
 44
297.0
 45
210.0
 46
0.0
 47
0.0
 48
0.0
 49
0.0
140
0.0
141
0.0
142
1.0
143
1.0
 70
0
 72
1
 73
0
 74
0
  7

 75
0
147
1.0
148
0.0
149
0.0
100
AcDbLayout
  1
Layout1
 70
0
 71
1
 10
0.0
 20
0.0
 11
297.0
 21
210.0
 12
0.0
 22
0.0
 32
0.0
 14
0.0
 24
0.0
 34
0.0
 15
0.0
 25
0.0
 35
0.0
146
0.0
 13
0.0
 23
0.0
 33
0.0
 16
1.0
 26
0.0
 36
0.0
 17
0.0
 27
1.0
 37
0.0
 76
0
330
217
345
0
346
0
  0
ENDSEC
  0
EOF
