  0
SECTION
  2
HEADER
  9
$ACADVER
  1
AC1024
  9
$DWGCODEPAGE
  3
ANSI_1252
  9
$EXTMAX
 10
297.0
 20
210.0
 30
0.0
  9
$EXTMIN
 10
0.0
 20
0.0
 30
0.0
  9
$LIMMIN
 10
0.0
 20
0.0
  9
$LIMMAX
 10
297.0
 20
210.0
  9
$VIEWCTR
 10
148.5
 20
105.0
  9
$VIEWSIZE
 40
210.0
  9
$CLAYER
  8
0
  9
$LTSCALE
 40
16.335
  9
$CELTYPE
  6
BYLAYER
  9
$DIMSCALE
 40
1.0
  9
$DIMASZ
 40
3.0
  9
$DIMEXO
 40
0.5
  9
$DIMDLI
 40
11.286
  9
$DIMEXE
 40
1.5
  9
$DIMCEN
 40
2.673
  9
$DIMLFAC
 40
1.0
  9
$DIMBLK
  1
_FILLED
  9
$DIMALT
 70
0
  9
$DIMALTF
 40
0.0393700787
  9
$DIMTXT
 40
3.0
  9
$DIMTOL
 70
1
  9
$DIMLIM
 70
0
  9
$DIMTFAC
 40
1.0
  9
$DIMTP
 40
0.01
  9
$DIMTM
 40
0.01
  9
$DIMGAP
 40
0.625
  9
$DIMDSEP
 70
44
  9
$AUNITS
 70
0
  9
$PDMODE
 70
3
  9
$PDSIZE
 40
3.0
  9
$HANDSEED
  5
57A
  9
$TILEMODE
 70
1
  9
$MEASUREMENT
 70
1
  9
$INSUNITS
 70
4
  0
ENDSEC
  0
SECTION
  2
CLASSES
  0
CLASS
  1
ACDBDICTIONARYWDFLT
  2
AcDbDictionaryWithDefault
  3
AutoCAD 2000
 90
0
 91
1
280
0
281
0
  0
CLASS
  1
ACDBPLACEHOLDER
  2
AcDbPlaceHolder
  3
AutoCAD 2000
 90
0
 91
1
280
0
281
0
  0
CLASS
  1
LAYOUT
  2
AcDbLayout
  3
AutoCAD 2000
 90
0
 91
0
280
0
281
0
  0
ENDSEC
  0
SECTION
  2
TABLES
  0
TABLE
  2
VPORT
  5
8
100
AcDbSymbolTable
 70
2
  0
VPORT
  5
1F4
100
AcDbSymbolTableRecord
100
AcDbViewportTableRecord
  2
*ACTIVE
 70
0
 10
0.0
 20
0.0
 11
1.0
 21
1.0
 12
148.5
 22
105.0
 13
0.0
 23
0.0
 14
1.0
 24
1.0
 15
0.0
 25
0.0
 16
0.0
 26
0.0
 36
1.0
 17
0.0
 27
0.0
 37
0.0
 40
210.0
 41
1.4142857143
 42
50.0
 43
0.0
 44
0.0
 50
0.0
 51
0.0
 71
0
 72
100
 73
1
 74
1
 75
0
 76
0
 77
0
 78
0
  0
ENDTAB
  0
TABLE
  2
LTYPE
  5
5
100
AcDbSymbolTable
 70
6
  0
LTYPE
  5
14
100
AcDbSymbolTableRecord
100
AcDbLinetypeTableRecord
  2
BYBLOCK
 70
0
  3

 72
65
 73
0
 40
0.0
  0
LTYPE
  5
15
100
AcDbSymbolTableRecord
100
AcDbLinetypeTableRecord
  2
BYLAYER
 70
0
  3

 72
65
 73
0
 40
0.0
  0
LTYPE
  5
16
100
AcDbSymbolTableRecord
100
AcDbLinetypeTableRecord
  2
CONTINUOUS
 70
64
  3
Solid line
 72
65
 73
0
 40
0.0
  0
LTYPE
  5
1F5
100
AcDbSymbolTableRecord
100
AcDbLinetypeTableRecord
  2
CENTER
 70
64
  3
____ _ ____ _ ____ _ ____ _ ____ _ ____ _ ____
 72
65
 73
4
 40
0.6
 49
0.375
 74
0
 49
-0.075
 74
0
 49
0.075
 74
0
 49
-0.075
 74
0
  0
LTYPE
  5
1F6
100
AcDbSymbolTableRecord
100
AcDbLinetypeTableRecord
  2
HIDDEN
 70
64
  3
- - - - - - - - - - - - - - - - - - - -
 72
65
 73
2
 40
0.2
 49
0.1
 74
0
 49
-0.1
 74
0
  0
LTYPE
  5
1F7
100
AcDbSymbolTableRecord
100
AcDbLinetypeTableRecord
  2
PHANTOM
 70
64
  3
_____ _ _ _____ _ _ _____ _ _ _____
 72
65
 73
6
 40
0.8
 49
0.45
 74
0
 49
-0.05
 74
0
 49
0.1
 74
0
 49
-0.05
 74
0
 49
0.1
 74
0
 49
-0.05
 74
0
  0
LTYPE
  5
1F8
100
AcDbSymbolTableRecord
100
AcDbLinetypeTableRecord
  2
DOT
 70
64
  3
. . . . . . . . . . . . . . . . . . . .
 72
65
 73
2
 40
0.2
 49
0.1
 74
0
 49
-0.1
 74
0
  0
LTYPE
  5
1F9
100
AcDbSymbolTableRecord
100
AcDbLinetypeTableRecord
  2
DASHED
 70
64
  3
- - - - - - - - - - - - - - - - - - - -
 72
65
 73
2
 40
0.2
 49
0.1
 74
0
 49
-0.1
 74
0
  0
ENDTAB
  0
TABLE
  2
LAYER
  5
2
100
AcDbSymbolTable
 70
36
  0
LAYER
  5
10
100
AcDbSymbolTableRecord
100
AcDbLayerTableRecord
  2
0
 70
0
 62
7
  6
CONTINUOUS
370
-3
390
F
  0
LAYER
  5
1FA
100
AcDbSymbolTableRecord
100
AcDbLayerTableRecord
  2
DEFAULT_1
 70
0
 62
7
  6
CENTER
370
-3
390
F
  0
LAYER
  5
1FB
100
AcDbSymbolTableRecord
100
AcDbLayerTableRecord
  2
DEFAULT_2
 70
0
 62
7
  6
HIDDEN
370
-3
390
F
  0
LAYER
  5
1FC
100
AcDbSymbolTableRecord
100
AcDbLayerTableRecord
  2
DEFAULT_3
 70
0
 62
7
  6
PHANTOM
370
-3
390
F
  0
LAYER
  5
1FD
100
AcDbSymbolTableRecord
100
AcDbLayerTableRecord
  2
26216763_GEN
 70
0
 62
7
  6
CONTINUOUS
370
-3
390
F
  0
LAYER
  5
1FE
100
AcDbSymbolTableRecord
100
AcDbLayerTableRecord
  2
ASSI
 70
0
 62
7
  6
CONTINUOUS
370
-3
390
F
  0
LAYER
  5
1FF
100
AcDbSymbolTableRecord
100
AcDbLayerTableRecord
  2
COORDINATE
 70
0
 62
7
  6
CONTINUOUS
370
-3
390
F
  0
LAYER
  5
200
100
AcDbSymbolTableRecord
100
AcDbLayerTableRecord
  2
COORD_ORIGINE
 70
0
 62
7
  6
CONTINUOUS
370
-3
390
F
  0
LAYER
  5
201
100
AcDbSymbolTableRecord
100
AcDbLayerTableRecord
  2
COSMETICI
 70
0
 62
7
  6
CONTINUOUS
370
-3
390
F
  0
LAYER
  5
202
100
AcDbSymbolTableRecord
100
AcDbLayerTableRecord
  2
CURVE
 70
0
 62
7
  6
CONTINUOUS
370
-3
390
F
  0
LAYER
  5
203
100
AcDbSymbolTableRecord
100
AcDbLayerTableRecord
  2
DRAFT
 70
0
 62
7
  6
CONTINUOUS
370
-3
390
F
  0
LAYER
  5
204
100
AcDbSymbolTableRecord
100
AcDbLayerTableRecord
  2
IGES_SCRITTE
 70
0
 62
7
  6
CONTINUOUS
370
-3
390
F
  0
LAYER
  5
205
100
AcDbSymbolTableRecord
100
AcDbLayerTableRecord
  2
IMPORT_FEATURE
 70
0
 62
7
  6
CONTINUOUS
370
-3
390
F
  0
LAYER
  5
206
100
AcDbSymbolTableRecord
100
AcDbLayerTableRecord
  2
INTF_1
 70
0
 62
7
  6
CONTINUOUS
370
-3
390
F
  0
LAYER
  5
207
100
AcDbSymbolTableRecord
100
AcDbLayerTableRecord
  2
LAY0001
 70
0
 62
7
  6
CONTINUOUS
370
-3
390
F
  0
LAYER
  5
208
100
AcDbSymbolTableRecord
100
AcDbLayerTableRecord
  2
NOTE
 70
0
 62
7
  6
CONTINUOUS
370
-3
390
F
  0
LAYER
  5
209
100
AcDbSymbolTableRecord
100
AcDbLayerTableRecord
  2
PIANI
 70
0
 62
7
  6
CONTINUOUS
370
-3
390
F
  0
LAYER
  5
20A
100
AcDbSymbolTableRecord
100
AcDbLayerTableRecord
  2
PIANI_DI_RIFERIMENTO
 70
0
 62
7
  6
CONTINUOUS
370
-3
390
F
  0
LAYER
  5
20B
100
AcDbSymbolTableRecord
100
AcDbLayerTableRecord
  2
PIANI_ORIGINE
 70
0
 62
7
  6
CONTINUOUS
370
-3
390
F
  0
LAYER
  5
20C
100
AcDbSymbolTableRecord
100
AcDbLayerTableRecord
  2
PUNTI
 70
0
 62
7
  6
CONTINUOUS
370
-3
390
F
  0
LAYER
  5
20D
100
AcDbSymbolTableRecord
100
AcDbLayerTableRecord
  2
RACCORDO
 70
0
 62
7
  6
CONTINUOUS
370
-3
390
F
  0
LAYER
  5
20E
100
AcDbSymbolTableRecord
100
AcDbLayerTableRecord
  2
RGB____0____0____0__
 70
0
 62
7
  6
CONTINUOUS
370
-3
390
F
  0
LAYER
  5
20F
100
AcDbSymbolTableRecord
100
AcDbLayerTableRecord
  2
SIMBOLI
 70
0
 62
7
  6
CONTINUOUS
370
-3
390
F
  0
LAYER
  5
210
100
AcDbSymbolTableRecord
100
AcDbLayerTableRecord
  2
SNAPLINE
 70
0
 62
7
  6
CONTINUOUS
370
-3
390
F
  0
LAYER
  5
211
100
AcDbSymbolTableRecord
100
AcDbLayerTableRecord
  2
SUPERFICI
 70
0
 62
7
  6
CONTINUOUS
370
-3
390
F
  0
LAYER
  5
212
100
AcDbSymbolTableRecord
100
AcDbLayerTableRecord
  2
TRASH
 70
0
 62
7
  6
CONTINUOUS
370
-3
390
F
  0
LAYER
  5
213
100
AcDbSymbolTableRecord
100
AcDbLayerTableRecord
  2
XSEC_DATUMS
 70
0
 62
7
  6
CONTINUOUS
370
-3
390
F
  0
ENDTAB
  0
TABLE
  2
STYLE
  5
3
100
AcDbSymbolTable
 70
1
  0
STYLE
  5
11
100
AcDbSymbolTableRecord
100
AcDbTextStyleTableRecord
  2
STANDARD
 70
0
 40
0.0
 41
0.8
 50
0.0
 71
0
 42
0.2
  3
txt
  4

  0
STYLE
  5
214
100
AcDbSymbolTableRecord
100
AcDbTextStyleTableRecord
  2
TEXTSTYLE_1
 70
0
 40
0.0
 41
0.8
 50
0.0
 71
0
 42
0.2
  3
gdt
  4

  0
ENDTAB
  0
TABLE
  2
VIEW
  5
6
100
AcDbSymbolTable
 70
0
  0
ENDTAB
  0
TABLE
  2
UCS
  5
7
100
AcDbSymbolTable
 70
0
  0
ENDTAB
  0
TABLE
  2
APPID
  5
9
100
AcDbSymbolTable
 70
1
  0
APPID
  5
215
100
AcDbSymbolTableRecord
100
AcDbRegAppTableRecord
  2
ACAD
 70
0
  0
ENDTAB
  0
TABLE
  2
BLOCK_RECORD
  5
1
100
AcDbSymbolTable
 70
0
  0
BLOCK_RECORD
  5
216
100
AcDbSymbolTableRecord
100
AcDbBlockTableRecord
  2
*Model_Space
  0
BLOCK_RECORD
  5
217
100
AcDbSymbolTableRecord
100
AcDbBlockTableRecord
  2
*Paper_Space
  0
BLOCK_RECORD
  5
218
100
AcDbSymbolTableRecord
100
AcDbBlockTableRecord
  2
_FILLED
  0
BLOCK_RECORD
  5
219
100
AcDbSymbolTableRecord
100
AcDbBlockTableRecord
  2
*D0
  0
BLOCK_RECORD
  5
21A
100
AcDbSymbolTableRecord
100
AcDbBlockTableRecord
  2
*D1
  0
BLOCK_RECORD
  5
21B
100
AcDbSymbolTableRecord
100
AcDbBlockTableRecord
  2
*D2
  0
ENDTAB
  0
TABLE
  2
DIMSTYLE
  5
A
100
AcDbSymbolTable
 70
1
100
AcDbDimStyleTable
 71
0
  0
DIMSTYLE
105
21C
100
AcDbSymbolTableRecord
100
AcDbDimStyleTableRecord
  2
STANDARD
 70
0
  3

  4

 40
1.0
 41
3.0
 42
0.5
 43
0.38
 44
1.5
 45
0.0
 46
0.0
 47
0.01
 48
0.01
140
3.0
141
0.09
142
0.0
143
25.4
144
1.0
145
0.0
146
1.0
147
0.625
 71
1
 72
0
 73
0
 74
0
 75
0
 76
0
 77
1
 78
8
 79
2
170
0
171
1
172
0
173
0
174
0
175
0
176
0
177
0
178
0
270
2
179
2
271
2
272
2
273
2
274
2
275
0
280
0
281
0
282
0
283
1
284
8
285
0
286
0
287
3
288
0
340
11
278
44
341
218
342
218
343
218
344
218
  0
DIMSTYLE
105
21D
100
AcDbSymbolTableRecord
100
AcDbDimStyleTableRecord
  2
DIMSTYLE_1
 70
0
  3

  4

 40
1.0
 41
3.0
 42
0.5
 43
0.38
 44
1.5
 45
0.0
 46
0.0
 47
0.0
 48
0.0
140
3.0
141
0.09
142
0.0
143
25.4
144
1.0
145
0.0
146
1.0
147
0.75
 71
0
 72
0
 73
0
 74
0
 75
0
 76
0
 77
1
 78
8
 79
2
170
0
171
1
172
0
173
0
174
0
175
0
176
0
177
0
178
0
270
2
179
2
271
2
272
2
273
2
274
2
275
0
280
0
281
0
282
0
283
1
284
8
285
0
286
0
287
3
288
0
340
11
278
44
341
218
342
218
343
218
344
218
  0
ENDTAB
  0
ENDSEC
  0
SECTION
  2
BLOCKS
  0
BLOCK
  5
20
100
AcDbEntity
  8
0
100
AcDbBlockBegin
  2
*Model_Space
 70
0
 10
0.0
 20
0.0
 30
0.0
  3
*Model_Space
  1

  0
ENDBLK
  5
21
100
AcDbEntity
  8
0
100
AcDbBlockEnd
  0
BLOCK
  5
1C
100
AcDbEntity
  8
0
100
AcDbBlockBegin
  2
*Paper_Space
 70
0
 10
0.0
 20
0.0
 30
0.0
  3
*Paper_Space
  1

  0
ENDBLK
  5
1D
100
AcDbEntity
  8
0
100
AcDbBlockEnd
  0
BLOCK
  5
21E
100
AcDbEntity
  8
0
100
AcDbBlockBegin
  2
_FILLED
 70
64
 10
0.0
 20
0.0
  3
_FILLED
  1

  0
SOLID
  5
21F
100
AcDbEntity
  8
0
  6
BYBLOCK
 62
0
100
AcDbTrace
 10
0.0
 20
0.0
 11
-1.0
 21
0.3166666667
 12
-1.0
 22
-0.3166666667
 13
-1.0
 23
-0.3166666667
  0
ENDBLK
  5
220
100
AcDbEntity
  8
0
  6
BYBLOCK
 62
0
100
AcDbBlockEnd
  0
BLOCK
  5
221
100
AcDbEntity
  8
0
100
AcDbBlockBegin
 62
7
  6
CONTINUOUS
  2
*D0
 70
65
 10
0.0
 20
0.0
  3
*D0
  1

  0
LINE
  5
222
100
AcDbEntity
  8
0
100
AcDbLine
 62
7
  6
CONTINUOUS
 10
45.5
 20
0.5
 11
45.5
 21
49.5
  0
LINE
  5
223
100
AcDbEntity
  8
0
100
AcDbLine
 62
7
  6
CONTINUOUS
 10
-45.5
 20
0.5
 11
-45.5
 21
49.5
  0
LINE
  5
224
100
AcDbEntity
  8
0
100
AcDbLine
 62
7
  6
CONTINUOUS
 10
45.5
 20
48.0
 11
0.0
 21
48.0
  0
LINE
  5
225
100
AcDbEntity
  8
0
100
AcDbLine
 62
7
  6
CONTINUOUS
 10
-45.5
 20
48.0
 11
0.0
 21
48.0
  0
INSERT
  5
226
100
AcDbEntity
  8
0
100
AcDbBlockReference
 62
7
  6
CONTINUOUS
  2
_FILLED
 10
45.5
 20
48.0
 41
3.0
 42
3.0
 43
3.0
  0
INSERT
  5
227
100
AcDbEntity
  8
0
100
AcDbBlockReference
 62
7
  6
CONTINUOUS
  2
_FILLED
 10
-45.5
 20
48.0
 41
3.0
 42
3.0
 43
3.0
 50
180.0
  0
ENDBLK
  5
228
100
AcDbEntity
  8
0
  6
BYBLOCK
 62
0
100
AcDbBlockEnd
  0
BLOCK
  5
229
100
AcDbEntity
  8
0
100
AcDbBlockBegin
 62
7
  6
CONTINUOUS
  2
*D1
 70
65
 10
0.0
 20
0.0
  3
*D1
  1

  0
LINE
  5
22A
100
AcDbEntity
  8
0
100
AcDbLine
 62
7
  6
CONTINUOUS
 10
-68.6172803106
 20
0.5
 11
-68.6172803106
 21
49.5
  0
LINE
  5
22B
100
AcDbEntity
  8
0
100
AcDbLine
 62
7
  6
CONTINUOUS
 10
-59.6172803106
 20
40.5
 11
-59.6172803106
 21
49.5
  0
LINE
  5
22C
100
AcDbEntity
  8
0
100
AcDbLine
 62
7
  6
CONTINUOUS
 10
-68.6172803106
 20
48.0
 11
-72.6172803106
 21
48.0
  0
LINE
  5
22D
100
AcDbEntity
  8
0
100
AcDbLine
 62
7
  6
CONTINUOUS
 10
-72.6172803106
 20
48.0
 11
-64.1172803106
 21
48.0
  0
LINE
  5
22E
100
AcDbEntity
  8
0
100
AcDbLine
 62
7
  6
CONTINUOUS
 10
-59.6172803106
 20
48.0
 11
-55.6172803106
 21
48.0
  0
LINE
  5
22F
100
AcDbEntity
  8
0
100
AcDbLine
 62
7
  6
CONTINUOUS
 10
-55.6172803106
 20
48.0
 11
-64.1172803106
 21
48.0
  0
INSERT
  5
230
100
AcDbEntity
  8
0
100
AcDbBlockReference
 62
7
  6
CONTINUOUS
  2
_FILLED
 10
-68.6172803106
 20
48.0
 41
3.0
 42
3.0
 43
3.0
  0
INSERT
  5
231
100
AcDbEntity
  8
0
100
AcDbBlockReference
 62
7
  6
CONTINUOUS
  2
_FILLED
 10
-59.6172803106
 20
48.0
 41
3.0
 42
3.0
 43
3.0
 50
180.0
  0
ENDBLK
  5
232
100
AcDbEntity
  8
0
  6
BYBLOCK
 62
0
100
AcDbBlockEnd
  0
BLOCK
  5
233
100
AcDbEntity
  8
0
100
AcDbBlockBegin
 62
7
  6
CONTINUOUS
  2
*D2
 70
65
 10
0.0
 20
0.0
  3
*D2
  1

  0
LINE
  5
234
100
AcDbEntity
  8
0
100
AcDbLine
 62
7
  6
CONTINUOUS
 10
-60.1172803106
 20
40.0
 11
-78.1106720965
 21
40.0
  0
LINE
  5
235
100
AcDbEntity
  8
0
100
AcDbLine
 62
7
  6
CONTINUOUS
 10
-60.1172803106
 20
-40.0
 11
-78.1106720965
 21
-40.0
  0
LINE
  5
236
100
AcDbEntity
  8
0
100
AcDbLine
 62
7
  6
CONTINUOUS
 10
-76.6106720965
 20
40.0
 11
-76.6106720965
 21
0.0
  0
LINE
  5
237
100
AcDbEntity
  8
0
100
AcDbLine
 62
7
  6
CONTINUOUS
 10
-76.6106720965
 20
-40.0
 11
-76.6106720965
 21
0.0
  0
INSERT
  5
238
100
AcDbEntity
  8
0
100
AcDbBlockReference
 62
7
  6
CONTINUOUS
  2
_FILLED
 10
-76.6106720965
 20
40.0
 41
3.0
 42
3.0
 43
3.0
 50
90.0
  0
INSERT
  5
239
100
AcDbEntity
  8
0
100
AcDbBlockReference
 62
7
  6
CONTINUOUS
  2
_FILLED
 10
-76.6106720965
 20
-40.0
 41
3.0
 42
3.0
 43
3.0
 50
270.0
  0
ENDBLK
  5
23A
100
AcDbEntity
  8
0
  6
BYBLOCK
 62
0
100
AcDbBlockEnd
  0
ENDSEC
  0
SECTION
  2
ENTITIES
  0
DIMENSION
  5
23B
100
AcDbEntity
  8
0
100
AcDbDimension
 62
7
  6
CONTINUOUS
  2
*D0
 10
-45.5
 20
48.0
 11
-2.0357142857
 21
48.0
 70
160
 71
2
 72
2
 41
0.9
 42
91.0
  3
DIMSTYLE_1
100
AcDbAlignedDimension
 13
45.5
 23
0.0
 14
-45.5
 24
0.0
 50
180.0
100
AcDbRotatedDimension
  0
DIMENSION
  5
23C
100
AcDbEntity
  8
0
100
AcDbDimension
 62
7
  6
CONTINUOUS
  2
*D1
 10
-59.6172803106
 20
48.0
 11
-65.2958517392
 21
48.0
 70
160
 71
2
 72
2
 41
0.9
 42
9.0
  3
DIMSTYLE_1
100
AcDbAlignedDimension
 13
-68.6172803106
 23
0.0
 14
-59.6172803106
 24
40.0
100
AcDbRotatedDimension
  0
DIMENSION
  5
23D
100
AcDbEntity
  8
0
100
AcDbDimension
 62
7
  6
CONTINUOUS
  2
*D2
 10
-76.6106720965
 20
-40.0
 11
-76.6106720965
 21
-2.3571428571
 70
160
 71
2
 72
2
 41
0.9
 42
80.0
  3
DIMSTYLE_1
100
AcDbAlignedDimension
 13
-59.6172803106
 23
40.0
 14
-59.6172803106
 24
-40.0
 50
270.0
100
AcDbRotatedDimension
  0
LWPOLYLINE
  5
23E
100
AcDbEntity
  8
0
100
AcDbPolyline
 62
250
  6
CONTINUOUS
 90
33
 70
0
 10
-43.4254113364
 20
32.8471993978
 10
-43.4102900871
 20
32.8569660517
 10
-43.3925293187
 20
32.8664361242
 10
-43.3721376776
 20
32.8756050047
 10
-43.3491250913
 20
32.8844682296
 10
-43.323502763
 20
32.893021484
 10
-43.2952831665
 20
32.9012606039
 10
-43.2644800402
 20
32.9091815781
 10
-43.23110838
 20
32.9167805504
 10
-43.1951844323
 20
32.9240538215
 10
-43.1567256863
 20
32.9309978504
 10
-43.1157508649
 20
32.9376092566
 10
-43.072279916
 20
32.9438848214
 10
-43.0263340029
 20
32.9498214897
 10
-42.9779354935
 20
32.9554163712
 10
-42.9271079499
 20
32.9606667421
 10
-42.8738761167
 20
32.9655700466
 10
-42.8182659089
 20
32.9701238973
 10
-42.7603043995
 20
32.9743260774
 10
-42.7000198061
 20
32.9781745411
 10
-42.6374414774
 20
32.9816674148
 10
-42.5725998785
 20
32.9848029982
 10
-42.5055265767
 20
32.9875797646
 10
-42.4362542254
 20
32.9899963622
 10
-42.3648165488
 20
32.9920516146
 10
-42.2912483252
 20
32.9937445213
 10
-42.2155853702
 20
32.9950742579
 10
-42.137864519
 20
32.9960401773
 10
-42.0581236088
 20
32.996641809
 10
-41.9764014601
 20
32.9968788603
 10
-41.8927378582
 20
32.9967512158
 10
-41.8071735334
 20
32.9962589375
 10
-41.7197501412
 20
32.9954022651
  0
LWPOLYLINE
  5
23F
100
AcDbEntity
  8
0
100
AcDbPolyline
 62
250
  6
CONTINUOUS
 90
35
 70
0
 10
-43.4254113429
 20
-32.8471993985
 10
-43.4102900937
 20
-32.8569660525
 10
-43.3925293252
 20
-32.8664361249
 10
-43.3721376841
 20
-32.8756050054
 10
-43.3491250977
 20
-32.8844682304
 10
-43.3235027693
 20
-32.8930214848
 10
-43.2952831728
 20
-32.9012606046
 10
-43.2644800464
 20
-32.9091815788
 10
-43.2311083861
 20
-32.9167805512
 10
-43.1951844384
 20
-32.9240538223
 10
-43.1567256923
 20
-32.9309978512
 10
-43.1157508709
 20
-32.9376092574
 10
-43.072279922
 20
-32.9438848222
 10
-43.0263340087
 20
-32.9498214904
 10
-42.9779354993
 20
-32.9554163719
 10
-42.9271079556
 20
-32.9606667429
 10
-42.8738761223
 20
-32.9655700473
 10
-42.8182659144
 20
-32.970123898
 10
-42.7603044049
 20
-32.9743260781
 10
-42.7000198114
 20
-32.9781745418
 10
-42.6374414826
 20
-32.9816674155
 10
-42.5725998836
 20
-32.9848029989
 10
-42.5055265817
 20
-32.9875797653
 10
-42.4362542303
 20
-32.9899963629
 10
-42.3648165536
 20
-32.9920516153
 10
-42.2912483299
 20
-32.9937445219
 10
-42.2155853748
 20
-32.9950742586
 10
-42.1378645234
 20
-32.9960401779
 10
-42.0581236131
 20
-32.9966418097
 10
-41.9764014644
 20
-32.9968788609
 10
-41.8927378624
 20
-32.9967512164
 10
-41.8071735374
 20
-32.9962589381
 10
-41.719750145
 20
-32.9954022657
 10
-41.630510246
 20
-32.9941816163
 10
-41.4467555714
 20
-32.9906509405
  0
LWPOLYLINE
  5
240
100
AcDbEntity
  8
0
100
AcDbPolyline
 62
250
  6
CONTINUOUS
 90
46
 70
0
 10
-43.4254113434
 20
-32.8471993985
 10
-43.5685937186
 20
-31.3897468092
 10
-43.7052546481
 20
-29.9319189551
 10
-43.8353950346
 20
-28.4737417665
 10
-43.9590166636
 20
-27.0152320314
 10
-44.0761197121
 20
-25.5564247526
 10
-44.1867031942
 20
-24.0973731833
 10
-44.2907665184
 20
-22.6381355554
 10
-44.3883139384
 20
-21.1787053779
 10
-44.4793512385
 20
-19.719038754
 10
-44.5638803346
 20
-18.2591416021
 10
-44.6419009097
 20
-16.79905947
 10
-44.7134143492
 20
-15.3388078153
 10
-44.7784211211
 20
-13.878423496
 10
-44.8369228436
 20
-12.4179210297
 10
-44.8889219575
 20
-10.9572823126
 10
-44.9344190819
 20
-9.4965293849
 10
-44.9734147416
 20
-8.0356914575
 10
-45.0059102337
 20
-6.5747611348
 10
-45.0319058758
 20
-5.1137620771
 10
-45.0514020253
 20
-3.6527218073
 10
-45.0643992781
 20
-2.1916387004
 10
-45.0708977475
 20
-0.7305433355
 10
-45.0708977467
 20
0.7305437167
 10
-45.0643992755
 20
2.191639103
 10
-45.0514020201
 20
3.6527222844
 10
-45.031905867
 20
5.1137626501
 10
-45.0059102218
 20
6.5747617302
 10
-44.9734147303
 20
8.0356919094
 10
-44.9344190749
 20
9.4965296199
 10
-44.8889219533
 20
10.957282439
 10
-44.8369228336
 20
12.4179212983
 10
-44.7784210994
 20
13.878424015
 10
-44.7134143196
 20
15.338808448
 10
-44.6419008871
 20
16.799059906
 10
-44.5638803286
 20
18.2591417049
 10
-44.4793512439
 20
19.719038664
 10
-44.3883139365
 20
21.1787054115
 10
-44.2907664981
 20
22.6381358526
 10
-44.1867031611
 20
24.0973736328
 10
-44.0761196845
 20
25.5564251044
 10
-43.9590166517
 20
27.0152321742
 10
-43.8353950357
 20
28.4737417534
 10
-43.7052546539
 20
29.9319188936
 10
-43.5685937242
 20
31.3897467521
 10
-43.4254113434
 20
32.8471993985
  0
LWPOLYLINE
  5
241
100
AcDbEntity
  8
RACCORDO
100
AcDbPolyline
 62
7
  6
CONTINUOUS
 90
8
 70
0
 10
-45.3936138362
 20
6.5603886362
 10
-45.3846841731
 20
6.3981114071
 10
-45.376024468
 20
6.2337085443
 10
-45.3676355434
 20
6.067238116
 10
-45.3595165767
 20
5.8987528888
 10
-45.3516650999
 20
5.7282999486
 10
-45.3440809681
 20
5.5559311749
 10
-45.3367643262
 20
5.3817086537
  0
LINE
  5
242
100
AcDbEntity
  8
RACCORDO
100
AcDbLine
 62
7
  6
CONTINUOUS
 10
-45.3367643262
 20
5.3817086537
 11
-45.3229276259
 21
5.0279553792
  0
LWPOLYLINE
  5
243
100
AcDbEntity
  8
RACCORDO
100
AcDbPolyline
 62
7
  6
CONTINUOUS
 90
6
 70
0
 10
-45.4088501111
 20
6.8514476749
 10
-45.4078445137
 20
6.8242002112
 10
-45.4067376721
 20
6.7974527936
 10
-45.4055308446
 20
6.7712372785
 10
-45.4042227729
 20
6.7455732973
 10
-45.3936138362
 20
6.5603886362
  0
LINE
  5
244
100
AcDbEntity
  8
RACCORDO
100
AcDbLine
 62
7
  6
CONTINUOUS
 10
-45.3229276259
 20
5.0279553792
 11
-45.310150288
 21
4.6675085643
  0
LINE
  5
245
100
AcDbEntity
  8
RACCORDO
100
AcDbLine
 62
7
  6
CONTINUOUS
 10
-45.310150288
 20
4.6675085643
 11
-45.2984237208
 21
4.3008064629
  0
LINE
  5
246
100
AcDbEntity
  8
RACCORDO
100
AcDbLine
 62
7
  6
CONTINUOUS
 10
-45.4105455213
 20
6.9072631108
 11
-45.4088501111
 21
6.8514476749
  0
LINE
  5
247
100
AcDbEntity
  8
RACCORDO
100
AcDbLine
 62
7
  6
CONTINUOUS
 10
-45.2984237208
 20
4.3008064629
 11
-45.2877418879
 21
3.9283698626
  0
LINE
  5
248
100
AcDbEntity
  8
RACCORDO
100
AcDbLine
 62
7
  6
CONTINUOUS
 10
-45.2877418879
 20
3.9283698626
 11
-45.2781001838
 21
3.5506941317
  0
LINE
  5
249
100
AcDbEntity
  8
RACCORDO
100
AcDbLine
 62
7
  6
CONTINUOUS
 10
-45.2781001838
 20
3.5506941317
 11
-45.2694908298
 21
3.1682466767
  0
LINE
  5
24A
100
AcDbEntity
  8
RACCORDO
100
AcDbLine
 62
7
  6
CONTINUOUS
 10
-45.4118185383
 20
6.9646861691
 11
-45.4105455213
 21
6.9072631108
  0
LINE
  5
24B
100
AcDbEntity
  8
RACCORDO
100
AcDbLine
 62
7
  6
CONTINUOUS
 10
-45.4117202421
 20
-7.2689101834
 11
-45.4104032874
 21
-7.3314391493
  0
LINE
  5
24C
100
AcDbEntity
  8
RACCORDO
100
AcDbLine
 62
7
  6
CONTINUOUS
 10
-45.2694908298
 20
3.1682466767
 11
-45.2619083652
 21
2.7815672472
  0
LINE
  5
24D
100
AcDbEntity
  8
RACCORDO
100
AcDbLine
 62
7
  6
CONTINUOUS
 10
-45.2619083652
 20
2.7815672472
 11
-45.2553489713
 21
2.3911724431
  0
LINE
  5
24E
100
AcDbEntity
  8
RACCORDO
100
AcDbLine
 62
7
  6
CONTINUOUS
 10
-45.2553489713
 20
2.3911724431
 11
-45.249806672
 21
1.9975574999
  0
LINE
  5
24F
100
AcDbEntity
  8
RACCORDO
100
AcDbLine
 62
7
  6
CONTINUOUS
 10
-45.412606215
 20
-7.206594434
 11
-45.4117202421
 21
-7.2689101834
  0
LINE
  5
250
100
AcDbEntity
  8
RACCORDO
100
AcDbLine
 62
7
  6
CONTINUOUS
 10
-45.4126651979
 20
7.0236422723
 11
-45.4118185383
 21
6.9646861691
  0
LINE
  5
251
100
AcDbEntity
  8
RACCORDO
100
AcDbLine
 62
7
  6
CONTINUOUS
 10
-45.249806672
 20
1.9975574999
 11
-45.2452774933
 21
1.6012702847
  0
LINE
  5
252
100
AcDbEntity
  8
RACCORDO
100
AcDbLine
 62
7
  6
CONTINUOUS
 10
-45.2452774933
 20
1.6012702847
 11
-45.2417589232
 21
1.2028418428
  0
LINE
  5
253
100
AcDbEntity
  8
RACCORDO
100
AcDbLine
 62
7
  6
CONTINUOUS
 10
-45.4130604583
 20
-7.1447574258
 11
-45.412606215
 21
-7.206594434
  0
LINE
  5
254
100
AcDbEntity
  8
RACCORDO
100
AcDbLine
 62
7
  6
CONTINUOUS
 10
-45.2417589232
 20
1.2028418428
 11
-45.2392474154
 21
0.8027907726
  0
LINE
  5
255
100
AcDbEntity
  8
RACCORDO
100
AcDbLine
 62
7
  6
CONTINUOUS
 10
-45.4130798202
 20
7.0837455174
 11
-45.4126651979
 21
7.0236422723
  0
LINE
  5
256
100
AcDbEntity
  8
RACCORDO
100
AcDbLine
 62
7
  6
CONTINUOUS
 10
-45.2392474154
 20
0.8027907726
 11
-45.2377412029
 21
0.4016646798
  0
LINE
  5
257
100
AcDbEntity
  8
RACCORDO
100
AcDbLine
 62
7
  6
CONTINUOUS
 10
-45.2377412029
 20
0.4016646798
 11
-45.2372394118
 21
0.000002155
  0
LINE
  5
258
100
AcDbEntity
  8
RACCORDO
100
AcDbLine
 62
7
  6
CONTINUOUS
 10
-45.4130798202
 20
-7.0837455174
 11
-45.4130604583
 21
-7.1447574258
  0
LINE
  5
259
100
AcDbEntity
  8
RACCORDO
100
AcDbLine
 62
7
  6
CONTINUOUS
 10
-45.2372394118
 20
0.000002155
 11
-45.2377411943
 21
-0.4016610275
  0
LINE
  5
25A
100
AcDbEntity
  8
RACCORDO
100
AcDbLine
 62
7
  6
CONTINUOUS
 10
-45.4130604583
 20
7.1447574258
 11
-45.4130798202
 21
7.0837455174
  0
LINE
  5
25B
100
AcDbEntity
  8
RACCORDO
100
AcDbLine
 62
7
  6
CONTINUOUS
 10
-45.2377411943
 20
-0.4016610275
 11
-45.2392474012
 21
-0.8027879278
  0
LINE
  5
25C
100
AcDbEntity
  8
RACCORDO
100
AcDbLine
 62
7
  6
CONTINUOUS
 10
-45.2392474012
 20
-0.8027879278
 11
-45.241758907
 21
-1.2028396917
  0
LINE
  5
25D
100
AcDbEntity
  8
RACCORDO
100
AcDbLine
 62
7
  6
CONTINUOUS
 10
-45.4126651979
 20
-7.0236422723
 11
-45.4130798202
 21
-7.0837455174
  0
LINE
  5
25E
100
AcDbEntity
  8
RACCORDO
100
AcDbLine
 62
7
  6
CONTINUOUS
 10
-45.412606215
 20
7.206594434
 11
-45.4130604583
 21
7.1447574258
  0
LINE
  5
25F
100
AcDbEntity
  8
RACCORDO
100
AcDbLine
 62
7
  6
CONTINUOUS
 10
-45.241758907
 20
-1.2028396917
 11
-45.2452774772
 21
-1.6012687114
  0
LINE
  5
260
100
AcDbEntity
  8
RACCORDO
100
AcDbLine
 62
7
  6
CONTINUOUS
 10
-45.2452774772
 20
-1.6012687114
 11
-45.2498066622
 21
-1.9975566934
  0
LINE
  5
261
100
AcDbEntity
  8
RACCORDO
100
AcDbLine
 62
7
  6
CONTINUOUS
 10
-45.2498066622
 20
-1.9975566934
 11
-45.2553489717
 21
-2.3911724682
  0
LINE
  5
262
100
AcDbEntity
  8
RACCORDO
100
AcDbLine
 62
7
  6
CONTINUOUS
 10
-45.4117202421
 20
7.2689101834
 11
-45.412606215
 21
7.206594434
  0
LINE
  5
263
100
AcDbEntity
  8
RACCORDO
100
AcDbLine
 62
7
  6
CONTINUOUS
 10
-45.4118185383
 20
-6.9646861691
 11
-45.4126651979
 21
-7.0236422723
  0
LINE
  5
264
100
AcDbEntity
  8
RACCORDO
100
AcDbLine
 62
7
  6
CONTINUOUS
 10
-45.2553489717
 20
-2.3911724682
 11
-45.261908367
 21
-2.7815673622
  0
LINE
  5
265
100
AcDbEntity
  8
RACCORDO
100
AcDbLine
 62
7
  6
CONTINUOUS
 10
-45.261908367
 20
-2.7815673622
 11
-45.2694908314
 21
-3.1682467564
  0
LINE
  5
266
100
AcDbEntity
  8
RACCORDO
100
AcDbLine
 62
7
  6
CONTINUOUS
 10
-45.4104032874
 20
7.3314391493
 11
-45.4117202421
 21
7.2689101834
  0
LINE
  5
267
100
AcDbEntity
  8
RACCORDO
100
AcDbLine
 62
7
  6
CONTINUOUS
 10
-45.2694908314
 20
-3.1682467564
 11
-45.2781001851
 21
-3.5506941869
  0
LINE
  5
268
100
AcDbEntity
  8
RACCORDO
100
AcDbLine
 62
7
  6
CONTINUOUS
 10
-45.4105455213
 20
-6.9072631108
 11
-45.4118185383
 21
-6.9646861691
  0
LINE
  5
269
100
AcDbEntity
  8
RACCORDO
100
AcDbLine
 62
7
  6
CONTINUOUS
 10
-45.2781001851
 20
-3.5506941869
 11
-45.2877418893
 21
-3.9283699146
  0
LINE
  5
26A
100
AcDbEntity
  8
RACCORDO
100
AcDbLine
 62
7
  6
CONTINUOUS
 10
-45.2877418893
 20
-3.9283699146
 11
-45.2984237219
 21
-4.3008065012
  0
LINE
  5
26B
100
AcDbEntity
  8
RACCORDO
100
AcDbLine
 62
7
  6
CONTINUOUS
 10
-45.2984237219
 20
-4.3008065012
 11
-45.3101502886
 21
-4.667508582
  0
LINE
  5
26C
100
AcDbEntity
  8
RACCORDO
100
AcDbLine
 62
7
  6
CONTINUOUS
 10
-45.3101502886
 20
-4.667508582
 11
-45.3229276273
 21
-5.0279554154
  0
LWPOLYLINE
  5
26D
100
AcDbEntity
  8
RACCORDO
100
AcDbPolyline
 62
7
  6
CONTINUOUS
 90
10
 70
0
 10
-45.3229276273
 20
-5.0279554154
 10
-45.3367643268
 20
-5.3817086695
 10
-45.3440809674
 20
-5.5559311595
 10
-45.3516650983
 20
-5.7282999131
 10
-45.3595165752
 20
-5.8987528546
 10
-45.3676355423
 20
-6.0672380934
 10
-45.3760244673
 20
-6.233708532
 10
-45.3846841727
 20
-6.3981114001
 10
-45.393613836
 20
-6.5603886332
 10
-45.4042227729
 20
-6.7455732973
  0
LWPOLYLINE
  5
26E
100
AcDbEntity
  8
RACCORDO
100
AcDbPolyline
 62
7
  6
CONTINUOUS
 90
6
 70
0
 10
-45.4042227729
 20
-6.7455732973
 10
-45.4055308446
 20
-6.7712372785
 10
-45.4067376721
 20
-6.7974527936
 10
-45.4078445137
 20
-6.8242002112
 10
-45.4088501111
 20
-6.8514476749
 10
-45.4105455213
 20
-6.9072631108
  0
LWPOLYLINE
  5
26F
100
AcDbEntity
  8
0
100
AcDbPolyline
 62
250
  6
CONTINUOUS
 90
76
 70
0
 10
-43.4254113434
 20
32.8471993985
 10
-43.407841464
 20
32.9970804591
 10
-43.3873488616
 20
33.1465893343
 10
-43.3639415486
 20
33.2956690484
 10
-43.3376288108
 20
33.4442628067
 10
-43.3084207133
 20
33.5923140041
 10
-43.276328098
 20
33.7397662145
 10
-43.2413633744
 20
33.8865634211
 10
-43.2035400819
 20
34.0326495462
 10
-43.1628724296
 20
34.1779684098
 10
-43.1193761779
 20
34.3224645147
 10
-43.073068102
 20
34.4660829736
 10
-43.0239655869
 20
34.608768956
 10
-42.9720875778
 20
34.7504681251
 10
-42.917454075
 20
34.8911265144
 10
-42.8600856482
 20
35.0306903741
 10
-42.8000043767
 20
35.1691065981
 10
-42.7372334141
 20
35.3063224442
 10
-42.6717965206
 20
35.44228533
 10
-42.6037189075
 20
35.5769434484
 10
-42.5330267509
 20
35.7102455907
 10
-42.4597467973
 20
35.8421407853
 10
-42.383907244
 20
35.972578807
 10
-42.3055372412
 20
36.101510047
 10
-42.2246664486
 20
36.2288852565
 10
-42.1413259653
 20
36.3546559379
 10
-42.0555477978
 20
36.4787742788
 10
-41.9673643931
 20
36.6011929389
 10
-41.8768096025
 20
36.7218653635
 10
-41.7839182121
 20
36.8407456466
 10
-41.6887254399
 20
36.9577883819
 10
-41.5912678633
 20
37.0729490124
 10
-41.4915828506
 20
37.1861838119
 10
-41.3897081115
 20
37.2974496572
 10
-41.2856827111
 20
37.4067042589
 10
-41.179546565
 20
37.5139060884
 10
-41.0713398945
 20
37.6190142731
 10
-40.9611042363
 20
37.7219888217
 10
-40.8488818098
 20
37.8227906707
 10
-40.7347150227
 20
37.9213815145
 10
-40.618647596
 20
38.0177239141
 10
-40.5007240339
 20
38.1117812673
 10
-40.3809890052
 20
38.2035177624
 10
-40.2594884352
 20
38.2928985127
 10
-40.1362688058
 20
38.3798896475
 10
-40.011376627
 20
38.4644581743
 10
-39.8848596865
 20
38.5465719965
 10
-39.7567664501
 20
38.6261999452
 10
-39.6271453687
 20
38.7033117669
 10
-39.4960461106
 20
38.7778781564
 10
-39.3635187911
 20
38.8498708782
 10
-39.2296133695
 20
38.9192626782
 10
-39.0943810209
 20
38.9860272414
 10
-38.957873529
 20
39.0501392347
 10
-38.820142517
 20
39.1115743177
 10
-38.6812407236
 20
39.170309155
 10
-38.5412212078
 20
39.2263215287
 10
-38.4001367359
 20
39.2795902539
 10
-38.2580412591
 20
39.3300951168
 10
-38.1149890913
 20
39.3778169992
 10
-37.9710341092
 20
39.422737864
 10
-37.8262314005
 20
39.4648406484
 10
-37.6806362444
 20
39.5041094374
 10
-37.5343032773
 20
39.5405294347
 10
-37.3872882551
 20
39.5740868413
 10
-37.2396475108
 20
39.6047689095
 10
-37.0914369288
 20
39.6325639827
 10
-36.9427130351
 20
39.6574615303
 10
-36.7935327517
 20
39.6794521234
 10
-36.6439528533
 20
39.6985273844
 10
-36.4940307893
 20
39.7146800738
 10
-36.3438235332
 20
39.7279041762
 10
-36.193387339
 20
39.7381947557
 10
-36.042779295
 20
39.7455479245
 10
-35.8920573049
 20
39.7499609169
 10
-35.7412789387
 20
39.7514321078
  0
LWPOLYLINE
  5
270
100
AcDbEntity
  8
0
100
AcDbPolyline
 62
250
  6
CONTINUOUS
 90
46
 70
0
 10
-37.9884860433
 20
-32.7626024393
 10
-38.1288028954
 20
-31.3088763004
 10
-38.2627304543
 20
-29.8547799229
 10
-38.39026872
 20
-28.4003387895
 10
-38.5114171019
 20
-26.9455690955
 10
-38.6261761905
 20
-25.4905055773
 10
-38.7345477579
 20
-24.0352015409
 10
-38.8365296401
 20
-22.5797147604
 10
-38.932124001
 20
-21.1240383988
 10
-39.0213391039
 20
-19.668128797
 10
-39.1041766145
 20
-18.2119915837
 10
-39.1806348671
 20
-16.7556718651
 10
-39.2507171285
 20
-15.2991851267
 10
-39.3144231591
 20
-13.8425678712
 10
-39.3717531984
 20
-12.3858342833
 10
-39.4227112311
 20
-10.9289663318
 10
-39.4672978457
 20
-9.471985755
 10
-39.5055124537
 20
-8.0149214161
 10
-39.5373572747
 20
-6.5577659335
 10
-39.5628326738
 20
-5.1005426674
 10
-39.5819382859
 20
-3.6432788153
 10
-39.5946752354
 20
-2.1859727328
 10
-39.6010438973
 20
-0.7286546822
 10
-39.6010438966
 20
0.7286550628
 10
-39.5946752328
 20
2.1859731348
 10
-39.5819382799
 20
3.6432792915
 10
-39.5628326641
 20
5.1005432393
 10
-39.537357263
 20
6.5577665277
 10
-39.5055124445
 20
8.0149218672
 10
-39.4672978408
 20
9.4719859898
 10
-39.4227112269
 20
10.9289664583
 10
-39.3717531861
 20
12.3858345515
 10
-39.3144231352
 20
13.8425683892
 10
-39.2507170995
 20
15.2991857581
 10
-39.1806348479
 20
16.7556723004
 10
-39.1041766115
 20
18.2119916866
 10
-39.0213391092
 20
19.6681287076
 10
-38.9321239964
 20
21.1240384327
 10
-38.8365296176
 20
22.5797150573
 10
-38.7345477254
 20
24.0352019897
 10
-38.6261761653
 20
25.4905059286
 10
-38.5114170917
 20
26.9455692385
 10
-38.3902687211
 20
28.4003387769
 10
-38.2627304589
 20
29.8547798619
 10
-38.1288028996
 20
31.3088762436
 10
-37.9884860433
 20
32.7626024393
  0
LWPOLYLINE
  5
271
100
AcDbEntity
  8
0
100
AcDbPolyline
 62
250
  6
CONTINUOUS
 90
55
 70
0
 10
-37.9884860433
 20
32.7626024393
 10
-37.981403222
 20
32.8255595224
 10
-37.9726298884
 20
32.888209467
 10
-37.9621660427
 20
32.9505522866
 10
-37.949997995
 20
33.0126462745
 10
-37.9361394352
 20
33.0744331625
 10
-37.9206314323
 20
33.1357381302
 10
-37.9034714302
 20
33.1965481479
 10
-37.8846619851
 20
33.2568762902
 10
-37.8642518352
 20
33.3165869087
 10
-37.8422361107
 20
33.3756807003
 10
-37.8186196814
 20
33.434157025
 10
-37.7934658951
 20
33.4918782412
 10
-37.7667714645
 20
33.5488406893
 10
-37.7385396769
 20
33.6050480977
 10
-37.7088437413
 20
33.660373919
 10
-37.6776802709
 20
33.7148155348
 10
-37.6450526525
 20
33.7683756413
 10
-37.6110442566
 20
33.8209356744
 10
-37.5756510833
 20
33.8724937802
 10
-37.5388771324
 20
33.9230518973
 10
-37.5008177738
 20
33.9724971589
 10
-37.4614732088
 20
34.0208231636
 10
-37.4208432361
 20
34.0680364025
 10
-37.3790226212
 20
34.1140433544
 10
-37.3360069534
 20
34.15884351
 10
-37.2918006434
 20
34.2024374695
 10
-37.246511689
 20
34.2447333807
 10
-37.2001387755
 20
34.2857272036
 10
-37.1526832177
 20
34.3254230686
 10
-37.1042569564
 20
34.3637413841
 10
-37.0548600582
 20
34.4006778695
 10
-37.0044924567
 20
34.4362368926
 10
-36.953265894
 20
34.4703518373
 10
-36.9011771619
 20
34.5030208163
 10
-36.8482294686
 20
34.5342457985
 10
-36.7945441807
 20
34.5639659537
 10
-36.7401218934
 20
34.5921771495
 10
-36.6849620116
 20
34.6188835926
 10
-36.6291841163
 20
34.6440369612
 10
-36.5727875346
 20
34.6676342625
 10
-36.5157729395
 20
34.689678554
 10
-36.4582619309
 20
34.7101305891
 10
-36.4002530533
 20
34.728987591
 10
-36.3417477623
 20
34.7462523901
 10
-36.2828720244
 20
34.7618941488
 10
-36.223628604
 20
34.775909359
 10
-36.1640147369
 20
34.78830157
 10
-36.1041480972
 20
34.7990505274
 10
-36.0440159342
 20
34.8081540653
 10
-35.9836309987
 20
34.8156143777
 10
-35.9231492176
 20
34.8214177468
 10
-35.8626225667
 20
34.8255596048
 10
-35.8019990702
 20
34.8280445339
 10
-35.7412787283
 20
34.8288725375
  0
LINE
  5
272
100
AcDbEntity
  8
0
100
AcDbLine
 62
7
  6
CONTINUOUS
 10
-35.7412789387
 20
-40.0
 11
35.7412789387
 21
-40.0
  0
LWPOLYLINE
  5
273
100
AcDbEntity
  8
0
100
AcDbPolyline
 62
250
  6
CONTINUOUS
 90
76
 70
0
 10
-35.7412789387
 20
-39.7514321078
 10
-35.8920572983
 20
-39.7499609169
 10
-36.0427792823
 20
-39.7455479248
 10
-36.1933873208
 20
-39.7381947566
 10
-36.3438235099
 20
-39.7279041778
 10
-36.4940307615
 20
-39.7146800764
 10
-36.6439528217
 20
-39.698527388
 10
-36.7935327168
 20
-39.679452128
 10
-36.9427129976
 20
-39.657461536
 10
-37.0914368901
 20
-39.6325639892
 10
-37.2396474729
 20
-39.6047689166
 10
-37.3872882194
 20
-39.5740868486
 10
-37.5343032438
 20
-39.5405294423
 10
-37.6806362128
 20
-39.5041094451
 10
-37.8262313708
 20
-39.4648406562
 10
-37.9710340811
 20
-39.4227378718
 10
-38.1149890642
 20
-39.3778170074
 10
-38.2580412327
 20
-39.3300951252
 10
-38.40013671
 20
-39.2795902627
 10
-38.5412211823
 20
-39.2263215378
 10
-38.6812406982
 20
-39.1703091646
 10
-38.8201424921
 20
-39.1115743276
 10
-38.9578735048
 20
-39.0501392449
 10
-39.0943809974
 20
-38.9860272517
 10
-39.2296133468
 20
-38.9192626887
 10
-39.3635187693
 20
-38.8498708887
 10
-39.4960460896
 20
-38.7778781669
 10
-39.6271453486
 20
-38.7033117774
 10
-39.7567664308
 20
-38.6261999557
 10
-39.884859668
 20
-38.546572007
 10
-40.0113766093
 20
-38.4644581847
 10
-40.1362687887
 20
-38.3798896579
 10
-40.2594884189
 20
-38.292898523
 10
-40.3809889895
 20
-38.2035177726
 10
-40.5007240188
 20
-38.1117812775
 10
-40.6186475817
 20
-38.0177239241
 10
-40.734715009
 20
-37.9213815243
 10
-40.8488817968
 20
-37.8227906803
 10
-40.9611042241
 20
-37.721988831
 10
-41.071339883
 20
-37.6190142822
 10
-41.1795465541
 20
-37.5139060972
 10
-41.2856827008
 20
-37.4067042675
 10
-41.3897081018
 20
-37.2974496655
 10
-41.4915828415
 20
-37.1861838198
 10
-41.5912678548
 20
-37.07294902
 10
-41.688725432
 20
-36.9577883891
 10
-41.7839182048
 20
-36.8407456534
 10
-41.8768095958
 20
-36.7218653699
 10
-41.9673643868
 20
-36.6011929448
 10
-42.0555477921
 20
-36.4787742842
 10
-42.1413259602
 20
-36.3546559427
 10
-42.224666444
 20
-36.2288852608
 10
-42.3055372369
 20
-36.1015100509
 10
-42.3839072401
 20
-35.9725788107
 10
-42.4597467936
 20
-35.8421407887
 10
-42.5330267475
 20
-35.7102455938
 10
-42.6037189044
 20
-35.5769434512
 10
-42.6717965177
 20
-35.4422853323
 10
-42.7372334116
 20
-35.3063224459
 10
-42.8000043747
 20
-35.1691065988
 10
-42.8600856467
 20
-35.0306903738
 10
-42.9174540739
 20
-34.8911265131
 10
-42.9720875772
 20
-34.7504681225
 10
-43.0239655865
 20
-34.6087689526
 10
-43.0730681017
 20
-34.4660829699
 10
-43.1193761774
 20
-34.322464511
 10
-43.1628724291
 20
-34.1779684061
 10
-43.2035400815
 20
-34.0326495423
 10
-43.2413633741
 20
-33.8865634169
 10
-43.2763280978
 20
-33.7397662098
 10
-43.308420713
 20
-33.5923139986
 10
-43.3376288102
 20
-33.4442628003
 10
-43.3639415479
 20
-33.295669042
 10
-43.387348861
 20
-33.1465893291
 10
-43.4078414635
 20
-32.9970804561
 10
-43.4254113434
 20
-32.8471993985
  0
LINE
  5
274
100
AcDbEntity
  8
0
100
AcDbLine
 62
250
  6
CONTINUOUS
 10
35.7412789387
 20
-39.7514321078
 11
-35.7412789387
 21
-39.7514321078
  0
LINE
  5
275
100
AcDbEntity
  8
0
100
AcDbLine
 62
250
  6
CONTINUOUS
 10
-35.7412789387
 20
40.0
 11
-35.7412789387
 21
34.8288725375
  0
LINE
  5
276
100
AcDbEntity
  8
0
100
AcDbLine
 62
250
  6
CONTINUOUS
 10
-35.7412789387
 20
-40.0
 11
-35.7412789387
 21
-34.8288725375
  0
LWPOLYLINE
  5
277
100
AcDbEntity
  8
0
100
AcDbPolyline
 62
7
  6
CONTINUOUS
 90
3
 70
0
 43
0.3500000006
 10
0.3214285684
 20
50.8928594055
 10
1.1785713937
 20
51.7500018768
 10
1.1785713937
 20
48.7500009613
  0
LWPOLYLINE
  5
278
100
AcDbEntity
  8
0
100
AcDbPolyline
 62
7
  6
CONTINUOUS
 90
10
 70
0
 43
0.3500000006
 10
-1.6071428418
 20
48.7500009613
 10
-0.7500000165
 20
49.6071434326
 10
-0.5357142924
 20
50.4642859039
 10
-0.5357142924
 20
51.3214283752
 10
-0.9642857051
 20
51.7500018768
 10
-1.6071428418
 20
51.7500018768
 10
-2.0357142191
 20
51.3214283752
 10
-2.0357142191
 20
50.4642859039
 10
-1.6071428418
 20
50.0357124023
 10
-0.6785714536
 20
50.0357124023
  0
LWPOLYLINE
  5
279
100
AcDbEntity
  8
RACCORDO
100
AcDbPolyline
 62
250
  6
CONTINUOUS
 90
28
 70
0
 10
-22.5596200123
 20
26.668581305
 10
-22.5429516489
 20
26.6742501664
 10
-22.5255901796
 20
26.6799532924
 10
-22.5075554176
 20
26.6856841745
 10
-22.4888679444
 20
26.6914362725
 10
-22.4695490864
 20
26.697203022
 10
-22.4496208906
 20
26.702977842
 10
-22.4291060993
 20
26.7087541421
 10
-22.4080281244
 20
26.7145253303
 10
-22.3864110203
 20
26.7202848204
 10
-22.3642794568
 20
26.7260260397
 10
-22.3416586907
 20
26.7317424361
 10
-22.3185745373
 20
26.7374274861
 10
-22.2950533405
 20
26.7430747017
 10
-22.271121943
 20
26.7486776383
 10
-22.2468076556
 20
26.7542299017
 10
-22.2221382264
 20
26.7597251556
 10
-22.1971418082
 20
26.7651571288
 10
-22.1718469276
 20
26.7705196221
 10
-22.1462824512
 20
26.7758065158
 10
-22.1204775537
 20
26.7810117764
 10
-22.0944616841
 20
26.7861294637
 10
-22.0682645319
 20
26.7911537372
 10
-22.0419159939
 20
26.7960788631
 10
-22.0154461393
 20
26.8008992209
 10
-21.9888851759
 20
26.8056093094
 10
-21.9622634156
 20
26.8102037534
 10
-21.9356112394
 20
26.8146773097
  0
LINE
  5
27A
100
AcDbEntity
  8
RACCORDO
100
AcDbLine
 62
250
  6
CONTINUOUS
 10
22.6928959719
 20
-27.5142502042
 11
22.6457330161
 21
-27.5247682652
  0
LINE
  5
27B
100
AcDbEntity
  8
0
100
AcDbLine
 62
250
  6
CONTINUOUS
 10
-41.4467555714
 20
-32.9906509405
 11
-41.256267302
 21
-32.9856737851
  0
LINE
  5
27C
100
AcDbEntity
  8
0
100
AcDbLine
 62
250
  6
CONTINUOUS
 10
35.7412789387
 20
-34.8288725375
 11
-35.7412789387
 21
-34.8288725375
  0
LINE
  5
27D
100
AcDbEntity
  8
RACCORDO
100
AcDbLine
 62
250
  6
CONTINUOUS
 10
23.1592434357
 20
-32.2156939465
 11
-23.1592434357
 21
-32.2156939465
  0
LWPOLYLINE
  5
27E
100
AcDbEntity
  8
0
100
AcDbPolyline
 62
250
  6
CONTINUOUS
 90
76
 70
0
 10
-35.7412789388
 20
-34.8288725375
 10
-35.7856848689
 20
-34.8284280024
 10
-35.8300400263
 20
-34.8270987981
 10
-35.8743444112
 20
-34.8248849236
 10
-35.9186154358
 20
-34.8217848083
 10
-35.9628356877
 20
-34.8178000188
 10
-36.0069529298
 20
-34.8129352587
 10
-36.0509668531
 20
-34.807189466
 10
-36.0948777665
 20
-34.8005636946
 10
-36.1386343594
 20
-34.7930658215
 10
-36.1822364098
 20
-34.7846947991
 10
-36.2256841397
 20
-34.775451663
 10
-36.2689269043
 20
-34.7653474136
 10
-36.3119644036
 20
-34.7543810334
 10
-36.3547969377
 20
-34.7425535244
 10
-36.3973747621
 20
-34.7298789151
 10
-36.4396975823
 20
-34.7163561909
 10
-36.4817656927
 20
-34.7019863475
 10
-36.5235302327
 20
-34.6867864283
 10
-36.5649908316
 20
-34.6707554424
 10
-36.6061478601
 20
-34.6538943586
 10
-36.6469535694
 20
-34.63622316
 10
-36.687407545
 20
-34.6177408716
 10
-36.7275102013
 20
-34.5984484433
 10
-36.7672150335
 20
-34.5783687458
 10
-36.806521537
 20
-34.5575008493
 10
-36.8454302164
 20
-34.5358456561
 10
-36.8838960796
 20
-34.5134287848
 10
-36.9219186004
 20
-34.4902493209
 10
-36.9594983051
 20
-34.4663081494
 10
-36.9965917808
 20
-34.4416335888
 10
-37.0331984234
 20
-34.4162247767
 10
-37.069318837
 20
-34.3900825445
 10
-37.1049114204
 20
-34.3632377521
 10
-37.1399755458
 20
-34.3356895574
 10
-37.1745118411
 20
-34.3074387704
 10
-37.2084805881
 20
-34.2785187302
 10
-37.2418810868
 20
-34.2489286581
 10
-37.2747140372
 20
-34.2186693
 10
-37.3069418218
 20
-34.1877762837
 10
-37.3385637185
 20
-34.1562488561
 10
-37.3695804492
 20
-34.1240877372
 10
-37.3999565623
 20
-34.0913307659
 10
-37.4296912773
 20
-34.0579772553
 10
-37.4587853745
 20
-34.0240278597
 10
-37.4872057433
 20
-33.9895224312
 10
-37.5149515807
 20
-33.9544603162
 10
-37.5420236896
 20
-33.9188421364
 10
-37.5683913674
 20
-33.8827096593
 10
-37.5940537624
 20
-33.846062304
 10
-37.6190117263
 20
-33.8089006208
 10
-37.6432371117
 20
-33.7712680761
 10
-37.6667290463
 20
-33.7331641311
 10
-37.6894884024
 20
-33.6945892957
 10
-37.7114896488
 20
-33.6555886118
 10
-37.7327318843
 20
-33.6161615992
 10
-37.7532160101
 20
-33.5763087112
 10
-37.7729191992
 20
-33.5360763929
 10
-37.7918405282
 20
-33.4954642162
 10
-37.8099809203
 20
-33.4544725849
 10
-37.827320318
 20
-33.4131491953
 10
-37.843857768
 20
-33.3714937054
 10
-37.8595942235
 20
-33.3295064357
 10
-37.8745124872
 20
-33.2872360795
 10
-37.8886115977
 20
-33.2446823461
 10
-37.9018925163
 20
-33.2018455077
 10
-37.9143409299
 20
-33.1587751054
 10
-37.9259558722
 20
-33.1154708633
 10
-37.9367383094
 20
-33.0719330421
 10
-37.9466768261
 20
-33.0282119915
 10
-37.9557704589
 20
-32.984307301
 10
-37.9640201712
 20
-32.9402193694
 10
-37.9714174383
 20
-32.8959997639
 10
-37.9779594185
 20
-32.8516656718
 10
-37.9836489535
 20
-32.8071998983
 10
-37.9884860433
 20
-32.7626024393
  0
LINE
  5
27F
100
AcDbEntity
  8
0
100
AcDbLine
 62
250
  6
CONTINUOUS
 10
41.7197501412
 20
-32.9954022651
 11
41.5394972818
 21
-32.9925975837
  0
LWPOLYLINE
  5
280
100
AcDbEntity
  8
0
100
AcDbPolyline
 62
250
  6
CONTINUOUS
 90
3
 70
0
 10
41.5394972818
 20
-32.9925975837
 10
41.3523302503
 20
-32.9883426323
 10
41.2562672987
 20
-32.9856737846
  0
LINE
  5
281
100
AcDbEntity
  8
RACCORDO
100
AcDbLine
 62
250
  6
CONTINUOUS
 10
-22.6928959453
 20
-27.5142502068
 11
-22.6457329964
 21
-27.5247682673
  0
LINE
  5
282
100
AcDbEntity
  8
RACCORDO
100
AcDbLine
 62
250
  6
CONTINUOUS
 10
-22.2993807754
 20
22.4895081932
 11
-22.2958266496
 21
22.4997309653
  0
LINE
  5
283
100
AcDbEntity
  8
RACCORDO
100
AcDbLine
 62
250
  6
CONTINUOUS
 10
-22.2958266496
 20
22.4997309653
 11
-22.2950202472
 21
22.5020137961
  0
LINE
  5
284
100
AcDbEntity
  8
RACCORDO
100
AcDbLine
 62
250
  6
CONTINUOUS
 10
-22.3008714966
 20
22.4852899854
 11
-22.2993807754
 21
22.4895081932
  0
LINE
  5
285
100
AcDbEntity
  8
RACCORDO
100
AcDbLine
 62
250
  6
CONTINUOUS
 10
-22.2950202472
 20
22.5020137961
 11
-22.2942423014
 21
22.504178413
  0
LWPOLYLINE
  5
286
100
AcDbEntity
  8
RACCORDO
100
AcDbPolyline
 62
250
  6
CONTINUOUS
 90
44
 70
0
 10
-22.2942423014
 20
22.504178413
 10
-22.2934914379
 20
22.5062229499
 10
-22.2931254087
 20
22.5071993966
 10
-22.2927656691
 20
22.5081453641
 10
-22.2924116646
 20
22.5090604902
 10
-22.2920633436
 20
22.509944751
 10
-22.2917207576
 20
22.5107981704
 10
-22.2913835072
 20
22.511620458
 10
-22.2910515956
 20
22.5124114766
 10
-22.2907250195
 20
22.5131713634
 10
-22.2904033692
 20
22.513900239
 10
-22.2900866444
 20
22.5145980122
 10
-22.2897748453
 20
22.5152647742
 10
-22.2894675627
 20
22.5159009193
 10
-22.2891647824
 20
22.5165064125
 10
-22.2888665186
 20
22.5170812888
 10
-22.2885724048
 20
22.5176260468
 10
-22.2882824357
 20
22.5181406538
 10
-22.2879966166
 20
22.5186251425
 10
-22.2877145971
 20
22.5190801098
 10
-22.2874363682
 20
22.519505547
 10
-22.2871619389
 20
22.5199014628
 10
-22.2868909852
 20
22.5202684802
 10
-22.2866234896
 20
22.5206066089
 10
-22.2863594696
 20
22.5209158393
 10
-22.2860986542
 20
22.5211967646
 10
-22.2858410347
 20
22.5214493857
 10
-22.2855866198
 20
22.5216737018
 10
-22.2853351639
 20
22.521870304
 10
-22.2850866647
 20
22.5220391971
 10
-22.2848411245
 20
22.5221803763
 10
-22.2845983051
 20
22.5222944192
 10
-22.2843582016
 20
22.5223813413
 10
-22.2841208187
 20
22.5224411271
 10
-22.2838859322
 20
22.522474307
 10
-22.2836535361
 20
22.5224809033
 10
-22.2834236364
 20
22.5224608937
 10
-22.2831960265
 20
22.5224147419
 10
-22.2829707014
 20
22.5223424719
 10
-22.2827476662
 20
22.5222440597
 10
-22.2825267293
 20
22.5221198965
 10
-22.282307827
 20
22.5219701126
 10
-22.2820910231
 20
22.5217945776
 10
-22.2818763176
 20
22.5215932916
  0
LWPOLYLINE
  5
287
100
AcDbEntity
  8
RACCORDO
100
AcDbPolyline
 62
250
  6
CONTINUOUS
 90
19
 70
0
 10
-21.9588146676
 20
22.8376636829
 10
-21.9624443948
 20
22.8358061029
 10
-21.9656922195
 20
22.8341010808
 10
-21.9686127104
 20
22.8325386187
 10
-21.9712068152
 20
22.8311107293
 10
-21.9734735863
 20
22.8298094583
 10
-21.9754647504
 20
22.8286257313
 10
-21.9771815914
 20
22.8275522623
 10
-21.9786228253
 20
22.8265822456
 10
-21.9798363272
 20
22.8257081156
 10
-21.9808229862
 20
22.8249229961
 10
-21.9815819132
 20
22.8242213251
 10
-21.9821583159
 20
22.8235978203
 10
-21.9825519551
 20
22.8230468391
 10
-21.98276307
 20
22.822562364
 10
-21.9828375851
 20
22.822138756
 10
-21.9827908088
 20
22.8217707669
 10
-21.9826074328
 20
22.821453483
 10
-21.9822874572
 20
22.8211821521
  0
LINE
  5
288
100
AcDbEntity
  8
RACCORDO
100
AcDbLine
 62
250
  6
CONTINUOUS
 10
-21.9504110245
 20
22.841871828
 11
-21.9588146676
 21
22.8376636829
  0
LWPOLYLINE
  5
289
100
AcDbEntity
  8
RACCORDO
100
AcDbPolyline
 62
250
  6
CONTINUOUS
 90
3
 70
0
 10
-21.779759117
 20
22.9242403077
 10
-21.8082128599
 20
22.9101141599
 10
-21.8217938401
 20
22.9034553504
  0
LINE
  5
28A
100
AcDbEntity
  8
RACCORDO
100
AcDbLine
 62
250
  6
CONTINUOUS
 10
-21.9403097686
 20
22.8468036738
 11
-21.9504110245
 21
22.841871828
  0
LINE
  5
28B
100
AcDbEntity
  8
RACCORDO
100
AcDbLine
 62
250
  6
CONTINUOUS
 10
-21.8217938401
 20
22.9034553504
 11
-21.84746239
 21
22.8910659352
  0
LINE
  5
28C
100
AcDbEntity
  8
RACCORDO
100
AcDbLine
 62
250
  6
CONTINUOUS
 10
-21.9283955854
 20
22.8525408162
 11
-21.9403097686
 21
22.8468036738
  0
LINE
  5
28D
100
AcDbEntity
  8
RACCORDO
100
AcDbLine
 62
250
  6
CONTINUOUS
 10
-21.84746239
 20
22.8910659352
 11
-21.9283955854
 21
22.8525408162
  0
LINE
  5
28E
100
AcDbEntity
  8
RACCORDO
100
AcDbLine
 62
250
  6
CONTINUOUS
 10
22.6457330161
 20
-27.5247682652
 11
22.5961525858
 21
-27.5354916201
  0
LINE
  5
28F
100
AcDbEntity
  8
RACCORDO
100
AcDbLine
 62
250
  6
CONTINUOUS
 10
22.5961525858
 20
-27.5354916201
 11
22.54442698
 21
-27.5463613756
  0
LINE
  5
290
100
AcDbEntity
  8
RACCORDO
100
AcDbLine
 62
250
  6
CONTINUOUS
 10
22.54442698
 20
-27.5463613756
 11
22.4908402789
 21
-27.5573178344
  0
LINE
  5
291
100
AcDbEntity
  8
RACCORDO
100
AcDbLine
 62
250
  6
CONTINUOUS
 10
22.4908402789
 20
-27.5573178344
 11
22.4356867842
 21
-27.5683008228
  0
LINE
  5
292
100
AcDbEntity
  8
RACCORDO
100
AcDbLine
 62
250
  6
CONTINUOUS
 10
22.4356867842
 20
-27.5683008228
 11
22.3792694022
 21
-27.5792500215
  0
LINE
  5
293
100
AcDbEntity
  8
RACCORDO
100
AcDbLine
 62
250
  6
CONTINUOUS
 10
22.3792694022
 20
-27.5792500215
 11
22.3218979809
 21
-27.590105297
  0
LINE
  5
294
100
AcDbEntity
  8
RACCORDO
100
AcDbLine
 62
250
  6
CONTINUOUS
 10
22.3218979809
 20
-27.590105297
 11
22.2638876077
 21
-27.6008070312
  0
LINE
  5
295
100
AcDbEntity
  8
RACCORDO
100
AcDbLine
 62
250
  6
CONTINUOUS
 10
22.2638876077
 20
-27.6008070312
 11
22.2055568793
 21
-27.6112964497
  0
LINE
  5
296
100
AcDbEntity
  8
0
100
AcDbLine
 62
250
  6
CONTINUOUS
 10
-43.6930948001
 20
-32.8767123288
 11
-43.4254113434
 21
-32.8471993985
  0
LINE
  5
297
100
AcDbEntity
  8
0
100
AcDbLine
 62
250
  6
CONTINUOUS
 10
-38.229918633
 20
-32.7861074203
 11
-37.9884860433
 21
-32.7626024392
  0
LINE
  5
298
100
AcDbEntity
  8
0
100
AcDbLine
 62
250
  6
CONTINUOUS
 10
-38.4708811295
 20
-32.8085641884
 11
-38.229918633
 21
-32.7861074203
  0
LINE
  5
299
100
AcDbEntity
  8
0
100
AcDbLine
 62
250
  6
CONTINUOUS
 10
-38.7109043548
 20
-32.829929018
 11
-38.4708811295
 21
-32.8085641884
  0
LINE
  5
29A
100
AcDbEntity
  8
0
100
AcDbLine
 62
250
  6
CONTINUOUS
 10
-38.9495209598
 20
-32.8501603096
 11
-38.7109043548
 21
-32.829929018
  0
LINE
  5
29B
100
AcDbEntity
  8
0
100
AcDbLine
 62
250
  6
CONTINUOUS
 10
-39.1862663342
 20
-32.8692186709
 11
-38.9495209598
 21
-32.8501603096
  0
LINE
  5
29C
100
AcDbEntity
  8
0
100
AcDbLine
 62
250
  6
CONTINUOUS
 10
-39.4206795112
 20
-32.8870669933
 11
-39.1862663342
 21
-32.8692186709
  0
LINE
  5
29D
100
AcDbEntity
  8
0
100
AcDbLine
 62
250
  6
CONTINUOUS
 10
-39.6523040652
 20
-32.9036705245
 11
-39.4206795112
 21
-32.8870669933
  0
LINE
  5
29E
100
AcDbEntity
  8
0
100
AcDbLine
 62
250
  6
CONTINUOUS
 10
-39.880689
 20
-32.9189969356
 11
-39.6523040652
 21
-32.9036705245
  0
LINE
  5
29F
100
AcDbEntity
  8
0
100
AcDbLine
 62
250
  6
CONTINUOUS
 10
-40.1053896274
 20
-32.9330163847
 11
-39.880689
 21
-32.9189969356
  0
LINE
  5
2A0
100
AcDbEntity
  8
0
100
AcDbLine
 62
250
  6
CONTINUOUS
 10
-40.325968433
 20
-32.9457015744
 11
-40.1053896274
 21
-32.9330163847
  0
LINE
  5
2A1
100
AcDbEntity
  8
0
100
AcDbLine
 62
250
  6
CONTINUOUS
 10
-40.5419959279
 20
-32.9570278055
 11
-40.325968433
 21
-32.9457015744
  0
LINE
  5
2A2
100
AcDbEntity
  8
0
100
AcDbLine
 62
250
  6
CONTINUOUS
 10
-40.7530514851
 20
-32.9669730247
 11
-40.5419959279
 21
-32.9570278055
  0
LINE
  5
2A3
100
AcDbEntity
  8
0
100
AcDbLine
 62
250
  6
CONTINUOUS
 10
-40.9587241585
 20
-32.9755178676
 11
-40.7530514851
 21
-32.9669730247
  0
LWPOLYLINE
  5
2A4
100
AcDbEntity
  8
0
100
AcDbPolyline
 62
250
  6
CONTINUOUS
 90
3
 70
0
 10
-41.256267302
 20
-32.9856737851
 10
-41.1586134828
 20
-32.9826456965
 10
-40.9587241585
 20
-32.9755178676
  0
LINE
  5
2A5
100
AcDbEntity
  8
0
100
AcDbLine
 62
250
  6
CONTINUOUS
 10
41.2562672987
 20
-32.9856737846
 11
41.0594163344
 21
-32.9792598407
  0
LINE
  5
2A6
100
AcDbEntity
  8
0
100
AcDbLine
 62
250
  6
CONTINUOUS
 10
41.0594163344
 20
-32.9792598407
 11
40.8565859635
 21
-32.9714215969
  0
LINE
  5
2A7
100
AcDbEntity
  8
0
100
AcDbLine
 62
250
  6
CONTINUOUS
 10
40.8565859635
 20
-32.9714215969
 11
40.6481711167
 21
-32.9621743149
  0
LINE
  5
2A8
100
AcDbEntity
  8
0
100
AcDbLine
 62
250
  6
CONTINUOUS
 10
40.6481711167
 20
-32.9621743149
 11
40.4345775986
 21
-32.9515360003
  0
LINE
  5
2A9
100
AcDbEntity
  8
0
100
AcDbLine
 62
250
  6
CONTINUOUS
 10
40.4345775986
 20
-32.9515360003
 11
40.2162212969
 21
-32.9395273668
  0
LINE
  5
2AA
100
AcDbEntity
  8
0
100
AcDbLine
 62
250
  6
CONTINUOUS
 10
40.2162212969
 20
-32.9395273668
 11
39.9935273731
 21
-32.9261717965
  0
LINE
  5
2AB
100
AcDbEntity
  8
0
100
AcDbLine
 62
250
  6
CONTINUOUS
 10
39.9935273731
 20
-32.9261717965
 11
39.7669294345
 21
-32.9114952939
  0
LINE
  5
2AC
100
AcDbEntity
  8
0
100
AcDbLine
 62
250
  6
CONTINUOUS
 10
39.7669294345
 20
-32.9114952939
 11
39.5368686896
 21
-32.8955264357
  0
LINE
  5
2AD
100
AcDbEntity
  8
0
100
AcDbLine
 62
250
  6
CONTINUOUS
 10
39.5368686896
 20
-32.8955264357
 11
39.3037930898
 21
-32.8782963148
  0
LINE
  5
2AE
100
AcDbEntity
  8
0
100
AcDbLine
 62
250
  6
CONTINUOUS
 10
39.3037930898
 20
-32.8782963148
 11
39.0681564563
 21
-32.85983848
  0
LINE
  5
2AF
100
AcDbEntity
  8
0
100
AcDbLine
 62
250
  6
CONTINUOUS
 10
39.0681564563
 20
-32.85983848
 11
38.8304175971
 21
-32.8401888706
  0
LINE
  5
2B0
100
AcDbEntity
  8
0
100
AcDbLine
 62
250
  6
CONTINUOUS
 10
38.8304175971
 20
-32.8401888706
 11
38.5910394135
 21
-32.8193857462
  0
LINE
  5
2B1
100
AcDbEntity
  8
0
100
AcDbLine
 62
250
  6
CONTINUOUS
 10
38.5910394135
 20
-32.8193857462
 11
38.3504879985
 21
-32.7974696126
  0
LWPOLYLINE
  5
2B2
100
AcDbEntity
  8
0
100
AcDbPolyline
 62
250
  6
CONTINUOUS
 90
3
 70
0
 10
38.3504879985
 20
-32.7974696126
 10
38.1092317296
 20
-32.7744831428
 10
37.9884860433
 20
-32.7626024393
  0
LINE
  5
2B3
100
AcDbEntity
  8
0
100
AcDbLine
 62
250
  6
CONTINUOUS
 10
43.6930948001
 20
-32.8767123288
 11
43.4254113434
 21
-32.8471993985
  0
LINE
  5
2B4
100
AcDbEntity
  8
RACCORDO
100
AcDbLine
 62
250
  6
CONTINUOUS
 10
-22.2638876085
 20
-27.6008070317
 11
-22.2055568793
 21
-27.6112964501
  0
LINE
  5
2B5
100
AcDbEntity
  8
RACCORDO
100
AcDbLine
 62
250
  6
CONTINUOUS
 10
-22.3218979816
 20
-27.5901052975
 11
-22.2638876085
 21
-27.6008070317
  0
LINE
  5
2B6
100
AcDbEntity
  8
RACCORDO
100
AcDbLine
 62
250
  6
CONTINUOUS
 10
-22.3792694019
 20
-27.5792500221
 11
-22.3218979816
 21
-27.5901052975
  0
LINE
  5
2B7
100
AcDbEntity
  8
RACCORDO
100
AcDbLine
 62
250
  6
CONTINUOUS
 10
-22.435686782
 20
-27.5683008235
 11
-22.3792694019
 21
-27.5792500221
  0
LINE
  5
2B8
100
AcDbEntity
  8
RACCORDO
100
AcDbLine
 62
250
  6
CONTINUOUS
 10
-22.4908402738
 20
-27.5573178354
 11
-22.435686782
 21
-27.5683008235
  0
LINE
  5
2B9
100
AcDbEntity
  8
RACCORDO
100
AcDbLine
 62
250
  6
CONTINUOUS
 10
-22.544426971
 20
-27.5463613769
 11
-22.4908402738
 21
-27.5573178354
  0
LINE
  5
2BA
100
AcDbEntity
  8
RACCORDO
100
AcDbLine
 62
250
  6
CONTINUOUS
 10
-22.596152572
 20
-27.5354916217
 11
-22.544426971
 21
-27.5463613769
  0
LINE
  5
2BB
100
AcDbEntity
  8
RACCORDO
100
AcDbLine
 62
250
  6
CONTINUOUS
 10
-22.6457329964
 20
-27.5247682673
 11
-22.596152572
 21
-27.5354916217
  0
LINE
  5
2BC
100
AcDbEntity
  8
RACCORDO
100
AcDbLine
 62
250
  6
CONTINUOUS
 10
-21.928702064
 20
-22.8522073237
 11
-21.8466663411
 21
-22.8894840552
  0
LINE
  5
2BD
100
AcDbEntity
  8
RACCORDO
100
AcDbLine
 62
250
  6
CONTINUOUS
 10
-21.8466663411
 20
-22.8894840552
 11
-21.8205206384
 21
-22.9015185925
  0
LINE
  5
2BE
100
AcDbEntity
  8
RACCORDO
100
AcDbLine
 62
250
  6
CONTINUOUS
 10
-21.9407383083
 20
-22.8466660895
 11
-21.928702064
 21
-22.8522073237
  0
LINE
  5
2BF
100
AcDbEntity
  8
RACCORDO
100
AcDbLine
 62
250
  6
CONTINUOUS
 10
-21.9509351733
 20
-22.8419034939
 11
-21.9407383083
 21
-22.8466660895
  0
LWPOLYLINE
  5
2C0
100
AcDbEntity
  8
RACCORDO
100
AcDbPolyline
 62
250
  6
CONTINUOUS
 90
40
 70
0
 10
-21.8205206384
 20
-22.9015185925
 10
-21.7926692577
 20
-22.914597012
 10
-21.7782703702
 20
-22.9214489587
 10
-21.7641412809
 20
-22.9283002727
 10
-21.7504357089
 20
-22.935048337
 10
-21.736999935
 20
-22.9417475107
 10
-21.7239452061
 20
-22.9484083383
 10
-21.7112916252
 20
-22.9550105142
 10
-21.6990190893
 20
-22.9615407008
 10
-21.6871785362
 20
-22.9680260375
 10
-21.6757441155
 20
-22.9744771871
 10
-21.6647416777
 20
-22.9808599562
 10
-21.6542997113
 20
-22.9871362259
 10
-21.6444757006
 20
-22.9932665605
 10
-21.6352121615
 20
-22.999265567
 10
-21.6264651296
 20
-23.0051781318
 10
-21.6182364159
 20
-23.0109979964
 10
-21.6105242095
 20
-23.0167153099
 10
-21.6032791137
 20
-23.0223745203
 10
-21.5964913411
 20
-23.027980489
 10
-21.5901706791
 20
-23.0335179389
 10
-21.5842970931
 20
-23.0390040922
 10
-21.5788682699
 20
-23.0444429893
 10
-21.5738865228
 20
-23.0498225292
 10
-21.5693387577
 20
-23.0551365969
 10
-21.5652311523
 20
-23.0603839037
 10
-21.5615575289
 20
-23.0655582182
 10
-21.558286261
 20
-23.0706458846
 10
-21.555424147
 20
-23.0756446053
 10
-21.5529643884
 20
-23.0805494292
 10
-21.5508549631
 20
-23.0853423373
 10
-21.5491013908
 20
-23.0900207989
 10
-21.5476981517
 20
-23.0945803148
 10
-21.5465766645
 20
-23.0989994543
 10
-21.5457384553
 20
-23.1032503849
 10
-21.545181998
 20
-23.1073538928
 10
-21.5448341321
 20
-23.1113623124
 10
-21.5446704708
 20
-23.1152921342
 10
-21.5447154009
 20
-23.1191229649
 10
-21.5449689224
 20
-23.1228528744
  0
LWPOLYLINE
  5
2C1
100
AcDbEntity
  8
RACCORDO
100
AcDbPolyline
 62
250
  6
CONTINUOUS
 90
60
 70
0
 10
-22.304324704
 20
-22.4736241233
 10
-22.3049135238
 20
-22.4719217037
 10
-22.30551604
 20
-22.4702149374
 10
-22.3061339291
 20
-22.4685016263
 10
-22.3067737348
 20
-22.4667861297
 10
-22.3074376506
 20
-22.4650592901
 10
-22.3081234831
 20
-22.463330265
 10
-22.308831196
 20
-22.4616308857
 10
-22.3095650988
 20
-22.4599516394
 10
-22.3103208821
 20
-22.458302039
 10
-22.3110855815
 20
-22.4567424545
 10
-22.3118621681
 20
-22.4552758408
 10
-22.3126476708
 20
-22.4538992429
 10
-22.3134202118
 20
-22.4526641671
 10
-22.3141752134
 20
-22.4515876982
 10
-22.3149172532
 20
-22.4506527512
 10
-22.3156381859
 20
-22.4498595776
 10
-22.3163341829
 20
-22.449214728
 10
-22.3170090728
 20
-22.4487116517
 10
-22.3176661954
 20
-22.4483309487
 10
-22.3183057569
 20
-22.448071231
 10
-22.3189275511
 20
-22.4479338866
 10
-22.3195342991
 20
-22.4479036793
 10
-22.3201263022
 20
-22.4479795994
 10
-22.3207032591
 20
-22.4481626566
 10
-22.3212669872
 20
-22.4484406446
 10
-22.3218175871
 20
-22.4488128676
 10
-22.3223549583
 20
-22.4492800214
 10
-22.3228806162
 20
-22.4498319869
 10
-22.3233946482
 20
-22.4504682072
 10
-22.323896967
 20
-22.4511892392
 10
-22.3243888262
 20
-22.4519866351
 10
-22.3248703083
 20
-22.4528599919
 10
-22.3253413309
 20
-22.4538097126
 10
-22.3258029008
 20
-22.4548285575
 10
-22.3262550582
 20
-22.4559161566
 10
-22.326697763
 20
-22.4570728799
 10
-22.3271319015
 20
-22.4582925981
 10
-22.3275575207
 20
-22.4595750402
 10
-22.3279745737
 20
-22.4609204772
 10
-22.3283838059
 20
-22.4623235921
 10
-22.3287852344
 20
-22.4637840731
 10
-22.3291788421
 20
-22.4653022321
 10
-22.3295653243
 20
-22.4668736884
 10
-22.3299447171
 20
-22.4684982515
 10
-22.3303169843
 20
-22.4701761118
 10
-22.3306827124
 20
-22.4719034596
 10
-22.3310419187
 20
-22.4736800731
 10
-22.3313945859
 20
-22.4755061741
 10
-22.3317412484
 20
-22.4773786177
 10
-22.3320819478
 20
-22.479297377
 10
-22.3324166425
 20
-22.481262479
 10
-22.3327457427
 20
-22.4832708589
 10
-22.3330692262
 20
-22.4853221209
 10
-22.3333871152
 20
-22.4874166609
 10
-22.3336998868
 20
-22.4895526018
 10
-22.3340075124
 20
-22.4917293812
 10
-22.3343100206
 20
-22.4939475615
 10
-22.3346079735
 20
-22.4962069526
 10
-22.3351903549
 20
-22.5008497837
  0
LINE
  5
2C2
100
AcDbEntity
  8
RACCORDO
100
AcDbLine
 62
250
  6
CONTINUOUS
 10
-22.2938998779
 20
-22.5060781526
 11
-22.294629238
 21
-22.5039123555
  0
LWPOLYLINE
  5
2C3
100
AcDbEntity
  8
RACCORDO
100
AcDbPolyline
 62
250
  6
CONTINUOUS
 90
3
 70
0
 10
-22.3026460363
 20
-22.4786576059
 10
-22.3031916696
 20
-22.4769983737
 10
-22.304324704
 20
-22.4736241233
  0
LINE
  5
2C4
100
AcDbEntity
  8
RACCORDO
100
AcDbLine
 62
250
  6
CONTINUOUS
 10
-22.294629238
 20
-22.5039123555
 11
-22.2953853042
 21
-22.5016114561
  0
LINE
  5
2C5
100
AcDbEntity
  8
RACCORDO
100
AcDbLine
 62
250
  6
CONTINUOUS
 10
-22.3015945497
 20
-22.4819175527
 11
-22.3026460363
 21
-22.4786576059
  0
LINE
  5
2C6
100
AcDbEntity
  8
RACCORDO
100
AcDbLine
 62
250
  6
CONTINUOUS
 10
-22.2953853042
 20
-22.5016114561
 11
-22.2961694567
 21
-22.4991760963
  0
LINE
  5
2C7
100
AcDbEntity
  8
RACCORDO
100
AcDbLine
 62
250
  6
CONTINUOUS
 10
-22.2961694567
 20
-22.4991760963
 11
-22.2974031962
 21
-22.4952748949
  0
LINE
  5
2C8
100
AcDbEntity
  8
RACCORDO
100
AcDbLine
 62
250
  6
CONTINUOUS
 10
-22.3001059801
 20
-22.4866250548
 11
-22.3015945497
 21
-22.4819175527
  0
LINE
  5
2C9
100
AcDbEntity
  8
RACCORDO
100
AcDbLine
 62
250
  6
CONTINUOUS
 10
-22.2974031962
 20
-22.4952748949
 11
-22.3001059801
 21
-22.4866250548
  0
LWPOLYLINE
  5
2CA
100
AcDbEntity
  8
RACCORDO
100
AcDbPolyline
 62
250
  6
CONTINUOUS
 90
46
 70
0
 10
-22.3438725054
 20
-22.6248605815
 10
-22.3422978356
 20
-22.6418036054
 10
-22.3398017298
 20
-22.6587263582
 10
-22.3363870683
 20
-22.6756092922
 10
-22.3320577775
 20
-22.6924326067
 10
-22.3268188704
 20
-22.7091771663
 10
-22.3206764459
 20
-22.7258245137
 10
-22.3136376192
 20
-22.7423557126
 10
-22.3057105082
 20
-22.7587513509
 10
-22.2969042724
 20
-22.7749924525
 10
-22.2872290905
 20
-22.7910602962
 10
-22.2766961412
 20
-22.8069362637
 10
-22.2653175898
 20
-22.822601836
 10
-22.2531065865
 20
-22.83803893
 10
-22.2400772418
 20
-22.8532296875
 10
-22.2262446035
 20
-22.8681563257
 10
-22.2116246551
 20
-22.8828015459
 10
-22.196234294
 20
-22.8971484781
 10
-22.1800913023
 20
-22.9111804713
 10
-22.1632143315
 20
-22.9248812197
 10
-22.145622889
 20
-22.9382349847
 10
-22.1273373123
 20
-22.9512265387
 10
-22.1083787318
 20
-22.9638408456
 10
-22.0887690574
 20
-22.9760633495
 10
-22.0685309621
 20
-22.9878801935
 10
-22.0476878358
 20
-22.9992777659
 10
-22.026263763
 20
-23.0102428463
 10
-22.004283507
 20
-23.020762889
 10
-21.9817724714
 20
-23.0308257979
 10
-21.9587566678
 20
-23.040419879
 10
-21.9352626906
 20
-23.0495339811
 10
-21.9113176928
 20
-23.0581576435
 10
-21.8869493432
 20
-23.0662808286
 10
-21.8621857913
 20
-23.0738938723
 10
-21.8370556547
 20
-23.0809879856
 10
-21.8115879745
 20
-23.0875549656
 10
-21.7858121702
 20
-23.0935869283
 10
-21.7597580282
 20
-23.0990768683
 10
-21.7334556585
 20
-23.1040184807
 10
-21.7069354485
 20
-23.1084058722
 10
-21.6802280439
 20
-23.1122339046
 10
-21.6533643102
 20
-23.1154982234
 10
-21.626375289
 20
-23.118195078
 10
-21.5992921683
 20
-23.1203213575
 10
-21.5721462468
 20
-23.121874594
 10
-21.544968895
 20
-23.1228529886
  0
LWPOLYLINE
  5
2CB
100
AcDbEntity
  8
RACCORDO
100
AcDbPolyline
 62
250
  6
CONTINUOUS
 90
46
 70
0
 10
-22.3441999195
 20
22.6507483452
 10
-22.342607706
 20
22.6672317347
 10
-22.3400948881
 20
22.6836952171
 10
-22.3366643634
 20
22.7001197945
 10
-22.3323200739
 20
22.7164862065
 10
-22.3270670455
 20
22.7327758722
 10
-22.3209113868
 20
22.7489709027
 10
-22.3138602206
 20
22.7650529027
 10
-22.3059216727
 20
22.7810029954
 10
-22.2971049091
 20
22.7968027576
 10
-22.28742011
 20
22.8124339482
 10
-22.276878457
 20
22.827878516
 10
-22.265492121
 20
22.8431186146
 10
-22.2532742485
 20
22.8581366466
 10
-22.2402389464
 20
22.8729152718
 10
-22.2264012646
 20
22.8874374146
 10
-22.2117771798
 20
22.9016863002
 10
-22.1963835772
 20
22.9156454833
 10
-22.1802382307
 20
22.9292988552
 10
-22.1633597818
 20
22.9426306583
 10
-22.1457677182
 20
22.9556254924
 10
-22.1274823512
 20
22.9682683419
 10
-22.1085247934
 20
22.9805446125
 10
-22.0889169328
 20
22.9924401266
 10
-22.0686814081
 20
23.0039411284
 10
-22.0478415829
 20
23.0150343337
 10
-22.026421519
 20
23.0257069396
 10
-22.004445948
 20
23.0359466187
 10
-21.9819402427
 20
23.0457415462
 10
-21.9589303883
 20
23.0550804152
 10
-21.9354429521
 20
23.0639524442
 10
-21.9115050526
 20
23.0723473921
 10
-21.8871443286
 20
23.0802555637
 10
-21.8623889068
 20
23.0876678225
 10
-21.8372673697
 20
23.0945756124
 10
-21.8118087227
 20
23.1009709557
 10
-21.7860423598
 20
23.106846457
 10
-21.759998031
 20
23.1121953318
 10
-21.7337058069
 20
23.1170114052
 10
-21.7071960442
 20
23.1212891071
 10
-21.6804993514
 20
23.1250234947
 10
-21.6536465522
 20
23.1282102601
 10
-21.6266686498
 20
23.1308457259
 10
-21.5995967926
 20
23.1329268496
 10
-21.5724622379
 20
23.1344512275
 10
-21.5452963154
 20
23.1354170993
  0
LWPOLYLINE
  5
2CC
100
AcDbEntity
  8
RACCORDO
100
AcDbPolyline
 62
250
  6
CONTINUOUS
 90
43
 70
0
 10
-22.3939664208
 20
24.2174731034
 10
-22.392066937
 20
24.2298170001
 10
-22.3891190095
 20
24.2421446586
 10
-22.3851265164
 20
24.2544398621
 10
-22.3800947096
 20
24.2666864365
 10
-22.3740302084
 20
24.2788682718
 10
-22.3669409906
 20
24.2909693429
 10
-22.3588363819
 20
24.302973731
 10
-22.3497270438
 20
24.3148656448
 10
-22.3396249594
 20
24.3266294405
 10
-22.3285434179
 20
24.3382496431
 10
-22.3164969967
 20
24.3497109666
 10
-22.3035015428
 20
24.3609983337
 10
-22.2895741515
 20
24.3720968961
 10
-22.2747331439
 20
24.3829920538
 10
-22.2589980431
 20
24.3936694746
 10
-22.2423895484
 20
24.4041151125
 10
-22.2249295078
 20
24.4143152264
 10
-22.2066408899
 20
24.4242563983
 10
-22.1875477528
 20
24.4339255508
 10
-22.1676752132
 20
24.4433099643
 10
-22.1470494132
 20
24.4523972938
 10
-22.1256974855
 20
24.461175585
 10
-22.1036475181
 20
24.4696332904
 10
-22.0809285175
 20
24.4777592839
 10
-22.05757037
 20
24.4855428761
 10
-22.0336038027
 20
24.4929738276
 10
-22.0090603433
 20
24.5000423633
 10
-21.9839722782
 20
24.5067391846
 10
-21.9583726103
 20
24.513055482
 10
-21.9322950154
 20
24.5189829466
 10
-21.9057737981
 20
24.5245137808
 10
-21.8788438466
 20
24.529640709
 10
-21.8515405866
 20
24.5343569868
 10
-21.8238999351
 20
24.53865641
 10
-21.7959582528
 20
24.5425333228
 10
-21.7677522965
 20
24.5459826253
 10
-21.7393191705
 20
24.5489997799
 10
-21.7106962781
 20
24.5515808176
 10
-21.6819212722
 20
24.5537223431
 10
-21.6530320056
 20
24.5554215393
 10
-21.6240664817
 20
24.5566761709
 10
-21.595062804
 20
24.5574845875
  0
LINE
  5
2CD
100
AcDbEntity
  8
RACCORDO
100
AcDbLine
 62
250
  6
CONTINUOUS
 10
-22.2741697553
 20
8.5141436994
 11
-22.2777243204
 21
8.5040970188
  0
LWPOLYLINE
  5
2CE
100
AcDbEntity
  8
RACCORDO
100
AcDbPolyline
 62
7
  6
CONTINUOUS
 90
11
 70
0
 10
-22.2679214147
 20
8.509802838
 10
-22.2600937924
 20
8.5289973921
 10
-22.2530898676
 20
8.5484365193
 10
-22.2469111124
 20
8.5680934366
 10
-22.2415770241
 20
8.5878690593
 10
-22.2370695062
 20
8.6077871909
 10
-22.2333839833
 20
8.6278428028
 10
-22.2305350358
 20
8.6479021043
 10
-22.2285111716
 20
8.6679352384
 10
-22.2272962812
 20
8.6880148171
 10
-22.2268900626
 20
8.708165587
  0
LINE
  5
2CF
100
AcDbEntity
  8
RACCORDO
100
AcDbLine
 62
250
  6
CONTINUOUS
 10
-22.2679214147
 20
8.509802838
 11
-22.2685405466
 21
8.5084838327
  0
LINE
  5
2D0
100
AcDbEntity
  8
RACCORDO
100
AcDbLine
 62
250
  6
CONTINUOUS
 10
-22.2762914837
 20
8.4915110128
 11
-22.2810178903
 21
8.4821155804
  0
LWPOLYLINE
  5
2D1
100
AcDbEntity
  8
RACCORDO
100
AcDbPolyline
 62
7
  6
CONTINUOUS
 90
3
 70
0
 10
-22.2810137305
 20
8.4821457399
 10
-22.2765910325
 20
8.4908391428
 10
-22.2679214147
 20
8.509802838
  0
LINE
  5
2D2
100
AcDbEntity
  8
RACCORDO
100
AcDbLine
 62
250
  6
CONTINUOUS
 10
-22.2055568793
 20
-27.6112964501
 11
22.2055568793
 21
-27.6112964501
  0
LWPOLYLINE
  5
2D3
100
AcDbEntity
  8
RACCORDO
100
AcDbPolyline
 62
250
  6
CONTINUOUS
 90
13
 70
0
 10
-22.2490483482
 20
-8.6723188343
 10
-22.2518533042
 20
-8.6669227727
 10
-22.2546513099
 20
-8.660070531
 10
-22.2574423652
 20
-8.6517621093
 10
-22.2602294307
 20
-8.6419928369
 10
-22.2630095459
 20
-8.6307673845
 10
-22.265773829
 20
-8.618099764
 10
-22.2685221185
 20
-8.6039822126
 10
-22.271254576
 20
-8.5884224933
 10
-22.2739628052
 20
-8.5714579066
 10
-22.2766466403
 20
-8.5530811682
 10
-22.279306247
 20
-8.5332995624
 10
-22.281933726
 20
-8.5121722429
  0
LWPOLYLINE
  5
2D4
100
AcDbEntity
  8
RACCORDO
100
AcDbPolyline
 62
7
  6
CONTINUOUS
 90
3
 70
0
 10
-22.28101485
 20
-8.4821435395
 10
-22.2765910325
 20
-8.4908391428
 10
-22.2679214147
 20
-8.509802838
  0
LINE
  5
2D5
100
AcDbEntity
  8
RACCORDO
100
AcDbLine
 62
250
  6
CONTINUOUS
 10
-22.2762914837
 20
-8.4915110127
 11
-22.2810191106
 21
-8.4821131546
  0
LINE
  5
2D6
100
AcDbEntity
  8
RACCORDO
100
AcDbLine
 62
250
  6
CONTINUOUS
 10
-22.2679214147
 20
-8.509802838
 11
-22.2685405466
 21
-8.5084838325
  0
LWPOLYLINE
  5
2D7
100
AcDbEntity
  8
RACCORDO
100
AcDbPolyline
 62
7
  6
CONTINUOUS
 90
11
 70
0
 10
-22.2679214147
 20
-8.509802838
 10
-22.2600937924
 20
-8.5289973921
 10
-22.2530898676
 20
-8.5484365193
 10
-22.2469111124
 20
-8.5680934366
 10
-22.2415770241
 20
-8.5878690593
 10
-22.2370695062
 20
-8.6077871909
 10
-22.2333839833
 20
-8.6278428028
 10
-22.2305350358
 20
-8.6479021043
 10
-22.2285111716
 20
-8.6679352384
 10
-22.2272962812
 20
-8.6880148171
 10
-22.2268900626
 20
-8.708165587
  0
LINE
  5
2D8
100
AcDbEntity
  8
RACCORDO
100
AcDbLine
 62
250
  6
CONTINUOUS
 10
-22.2741697625
 20
-8.5141436777
 11
-22.2777223311
 21
-8.5041026413
  0
LWPOLYLINE
  5
2D9
100
AcDbEntity
  8
RACCORDO
100
AcDbPolyline
 62
250
  6
CONTINUOUS
 90
43
 70
0
 10
-22.3943042854
 20
-24.1245085582
 10
-22.3924238043
 20
-24.1376439602
 10
-22.3894939023
 20
-24.1507620672
 10
-22.3855184372
 20
-24.163845607
 10
-22.3805026433
 20
-24.1768773526
 10
-22.3744531249
 20
-24.1898401456
 10
-22.3673778471
 20
-24.2027169182
 10
-22.3592861258
 20
-24.2154907158
 10
-22.3501886152
 20
-24.2281447195
 10
-22.3400972938
 20
-24.2406622681
 10
-22.3290254484
 20
-24.25302688
 10
-22.3169876573
 20
-24.265222275
 10
-22.3039997702
 20
-24.2772323957
 10
-22.2900788879
 20
-24.2890414288
 10
-22.2752433398
 20
-24.3006338255
 10
-22.2595126594
 20
-24.3119943225
 10
-22.2429075589
 20
-24.3231079616
 10
-22.2254499019
 20
-24.3339601098
 10
-22.2071626744
 20
-24.3445364783
 10
-22.1880699548
 20
-24.3548231415
 10
-22.1681968819
 20
-24.3648065551
 10
-22.1475696221
 20
-24.3744735743
 10
-22.126215335
 20
-24.3838114708
 10
-22.104162137
 20
-24.3928079494
 10
-22.0814390651
 20
-24.4014511649
 10
-22.0580760383
 20
-24.4097297369
 10
-22.034103818
 20
-24.4176327652
 10
-22.0095539678
 20
-24.425149844
 10
-21.984458812
 20
-24.4322710759
 10
-21.9588513927
 20
-24.4389870844
 10
-21.9327654265
 20
-24.4452890267
 10
-21.9062352603
 20
-24.4511686053
 10
-21.8792958256
 20
-24.4566180787
 10
-21.8519825928
 20
-24.4616302715
 10
-21.8243315248
 20
-24.4661985845
 10
-21.7963790289
 20
-24.4703170026
 10
-21.7681619094
 20
-24.4739801032
 10
-21.7397173193
 20
-24.4771830632
 10
-21.7110827107
 20
-24.4799216653
 10
-21.6822957861
 20
-24.4821923037
 10
-21.6533944486
 20
-24.4839919886
 10
-21.6244167519
 20
-24.4853183505
 10
-21.5954008501
 20
-24.486169643
  0
LINE
  5
2DA
100
AcDbEntity
  8
RACCORDO
100
AcDbLine
 62
250
  6
CONTINUOUS
 10
-22.3362305314
 20
22.5267980198
 11
-22.3356641092
 21
22.5215380079
  0
LINE
  5
2DB
100
AcDbEntity
  8
RACCORDO
100
AcDbLine
 62
7
  6
CONTINUOUS
 10
-22.2875007456
 20
-8.4290542475
 11
-22.2892948848
 21
-8.4121649845
  0
LINE
  5
2DC
100
AcDbEntity
  8
RACCORDO
100
AcDbLine
 62
250
  6
CONTINUOUS
 10
-22.3367799811
 20
22.5322079423
 11
-22.3362305314
 21
22.5267980198
  0
LINE
  5
2DD
100
AcDbEntity
  8
RACCORDO
100
AcDbLine
 62
7
  6
CONTINUOUS
 10
-22.2892948848
 20
-8.4121649845
 11
-22.2911525516
 21
-8.3936653707
  0
LINE
  5
2DE
100
AcDbEntity
  8
RACCORDO
100
AcDbLine
 62
250
  6
CONTINUOUS
 10
-22.3373123769
 20
22.5377593352
 11
-22.3367799811
 21
22.5322079423
  0
LINE
  5
2DF
100
AcDbEntity
  8
RACCORDO
100
AcDbLine
 62
7
  6
CONTINUOUS
 10
-22.2911525516
 20
-8.3936653707
 11
-22.2930632511
 21
-8.3735469114
  0
LINE
  5
2E0
100
AcDbEntity
  8
RACCORDO
100
AcDbLine
 62
250
  6
CONTINUOUS
 10
-22.3378272059
 20
22.5434353319
 11
-22.3373123769
 21
22.5377593352
  0
LINE
  5
2E1
100
AcDbEntity
  8
RACCORDO
100
AcDbLine
 62
7
  6
CONTINUOUS
 10
-22.2930632511
 20
-8.3735469114
 11
-22.2950187134
 21
-8.3517839532
  0
LINE
  5
2E2
100
AcDbEntity
  8
RACCORDO
100
AcDbLine
 62
250
  6
CONTINUOUS
 10
-22.338324039
 20
22.5492162226
 11
-22.3378272059
 21
22.5434353319
  0
LWPOLYLINE
  5
2E3
100
AcDbEntity
  8
RACCORDO
100
AcDbPolyline
 62
250
  6
CONTINUOUS
 90
14
 70
0
 10
-22.5044633867
 20
26.0286693657
 10
-22.4779014104
 20
25.7173400542
 10
-22.4656042547
 20
25.5675488456
 10
-22.4541162061
 20
25.4213643376
 10
-22.443537926
 20
25.2801077731
 10
-22.4339829656
 20
25.1443225103
 10
-22.4254647776
 20
25.0133642495
 10
-22.4179332579
 20
24.8867634861
 10
-22.4114039067
 20
24.7642870462
 10
-22.4059093068
 20
24.64610225
 10
-22.4014325891
 20
24.5323448837
 10
-22.397962093
 20
24.4230341809
 10
-22.3954840822
 20
24.3180855831
 10
-22.3939663572
 20
24.2174731034
  0
LINE
  5
2E4
100
AcDbEntity
  8
RACCORDO
100
AcDbLine
 62
7
  6
CONTINUOUS
 10
-22.2950187134
 20
-8.3517839532
 11
-22.297010429
 21
-8.3283619743
  0
LWPOLYLINE
  5
2E5
100
AcDbEntity
  8
RACCORDO
100
AcDbPolyline
 62
250
  6
CONTINUOUS
 90
3
 70
0
 10
-22.5831572744
 20
26.9447591643
 10
-22.5460778244
 20
26.506921168
 10
-22.5044633867
 20
26.0286693657
  0
LINE
  5
2E6
100
AcDbEntity
  8
RACCORDO
100
AcDbLine
 62
250
  6
CONTINUOUS
 10
-22.339035333
 20
22.5580562681
 11
-22.338324039
 21
22.5492162226
  0
LINE
  5
2E7
100
AcDbEntity
  8
RACCORDO
100
AcDbLine
 62
7
  6
CONTINUOUS
 10
-22.297010429
 20
-8.3283619743
 11
-22.3000491497
 21
-8.2900906244
  0
LINE
  5
2E8
100
AcDbEntity
  8
RACCORDO
100
AcDbLine
 62
250
  6
CONTINUOUS
 10
-22.3397064544
 20
22.5670585347
 11
-22.339035333
 21
22.5580562681
  0
LINE
  5
2E9
100
AcDbEntity
  8
RACCORDO
100
AcDbLine
 62
7
  6
CONTINUOUS
 10
-22.3000491497
 20
-8.2900906244
 11
-22.3031291618
 21
-8.2479916662
  0
LINE
  5
2EA
100
AcDbEntity
  8
RACCORDO
100
AcDbLine
 62
250
  6
CONTINUOUS
 10
-22.2993192207
 20
-8.3276827113
 11
-22.303915704
 21
-8.2637746111
  0
LINE
  5
2EB
100
AcDbEntity
  8
RACCORDO
100
AcDbLine
 62
250
  6
CONTINUOUS
 10
-22.3403387927
 20
22.5761886567
 11
-22.3397064544
 21
22.5670585347
  0
LINE
  5
2EC
100
AcDbEntity
  8
RACCORDO
100
AcDbLine
 62
7
  6
CONTINUOUS
 10
-22.3031291618
 20
-8.2479916662
 11
-22.3062302407
 21
-8.2019926891
  0
LWPOLYLINE
  5
2ED
100
AcDbEntity
  8
RACCORDO
100
AcDbPolyline
 62
250
  6
CONTINUOUS
 90
38
 70
0
 10
-21.5452963257
 20
23.1354170168
 10
-21.5450424997
 20
23.1314996455
 10
-21.5450018469
 20
23.1274757381
 10
-21.5451743671
 20
23.1233473184
 10
-21.5455359113
 20
23.119134134
 10
-21.5461106287
 20
23.1148205554
 10
-21.5469709663
 20
23.1103565674
 10
-21.5481186428
 20
23.105722366
 10
-21.5495519396
 20
23.1009449314
 10
-21.5513381483
 20
23.0960452364
 10
-21.5534826749
 20
23.0910280385
 10
-21.5559801133
 20
23.0858958046
 10
-21.5588815364
 20
23.0806656619
 10
-21.562193742
 20
23.0753425543
 10
-21.5659099322
 20
23.0699290786
 10
-21.5700607869
 20
23.0644385127
 10
-21.5746526739
 20
23.0588770887
 10
-21.5796792253
 20
23.053246474
 10
-21.5851520171
 20
23.0475530018
 10
-21.5910700217
 20
23.0418083038
 10
-21.5974342668
 20
23.036009261
 10
-21.6042594109
 20
23.0301408999
 10
-21.6115349493
 20
23.0242198731
 10
-21.6192713868
 20
23.0182402607
 10
-21.6275148966
 20
23.0121562061
 10
-21.6362642232
 20
23.005979672
 10
-21.6455206221
 20
22.9997152588
 10
-21.6553340328
 20
22.9933113975
 10
-21.6657518467
 20
22.9867585066
 10
-21.6767266724
 20
22.9800921216
 10
-21.6881662744
 20
22.9733317469
 10
-21.7000691286
 20
22.9665010323
 10
-21.7124367591
 20
22.9596043698
 10
-21.7251815031
 20
22.9526345307
 10
-21.7383178865
 20
22.9456088328
 10
-21.7518313833
 20
22.9385457769
 10
-21.7655907531
 20
22.931444319
 10
-21.779759117
 20
22.9242403077
  0
LINE
  5
2EE
100
AcDbEntity
  8
RACCORDO
100
AcDbLine
 62
250
  6
CONTINUOUS
 10
-22.3409338633
 20
22.5854148163
 11
-22.3403387927
 21
22.5761886567
  0
LINE
  5
2EF
100
AcDbEntity
  8
RACCORDO
100
AcDbLine
 62
250
  6
CONTINUOUS
 10
-22.303915704
 20
-8.2637746111
 11
-22.3083257805
 21
-8.1951667328
  0
LINE
  5
2F0
100
AcDbEntity
  8
RACCORDO
100
AcDbLine
 62
7
  6
CONTINUOUS
 10
-22.3062302407
 20
-8.2019926891
 11
-22.3093324199
 21
-8.1520327208
  0
LINE
  5
2F1
100
AcDbEntity
  8
RACCORDO
100
AcDbLine
 62
250
  6
CONTINUOUS
 10
-22.3416741054
 20
22.5978525579
 11
-22.3409338633
 21
22.5854148163
  0
LINE
  5
2F2
100
AcDbEntity
  8
RACCORDO
100
AcDbLine
 62
250
  6
CONTINUOUS
 10
-22.3083257805
 20
-8.1951667328
 11
-22.3125336959
 21
-8.1221053406
  0
LINE
  5
2F3
100
AcDbEntity
  8
RACCORDO
100
AcDbLine
 62
7
  6
CONTINUOUS
 10
-22.3093324199
 20
-8.1520327208
 11
-22.3124166651
 21
-8.098058668
  0
LINE
  5
2F4
100
AcDbEntity
  8
RACCORDO
100
AcDbLine
 62
250
  6
CONTINUOUS
 10
-22.3423640153
 20
22.6105294509
 11
-22.3416741054
 21
22.5978525579
  0
LINE
  5
2F5
100
AcDbEntity
  8
RACCORDO
100
AcDbLine
 62
7
  6
CONTINUOUS
 10
-22.3124166651
 20
-8.098058668
 11
-22.3154638027
 21
-8.040034165
  0
LINE
  5
2F6
100
AcDbEntity
  8
RACCORDO
100
AcDbLine
 62
250
  6
CONTINUOUS
 10
-22.3125336959
 20
-8.1221053406
 11
-22.31652962
 21
-8.0447584231
  0
LINE
  5
2F7
100
AcDbEntity
  8
RACCORDO
100
AcDbLine
 62
250
  6
CONTINUOUS
 10
-22.3431675677
 20
22.626833705
 11
-22.3423640153
 21
22.6105294509
  0
LINE
  5
2F8
100
AcDbEntity
  8
RACCORDO
100
AcDbLine
 62
7
  6
CONTINUOUS
 10
-22.3154638027
 20
-8.040034165
 11
-22.3194380628
 21
-7.9562974467
  0
LINE
  5
2F9
100
AcDbEntity
  8
RACCORDO
100
AcDbLine
 62
250
  6
CONTINUOUS
 10
-22.31652962
 20
-8.0447584231
 11
-22.3202991278
 21
-7.9633906825
  0
LINE
  5
2FA
100
AcDbEntity
  8
RACCORDO
100
AcDbLine
 62
250
  6
CONTINUOUS
 10
-22.3439148956
 20
22.6437650782
 11
-22.3431675677
 21
22.626833705
  0
LINE
  5
2FB
100
AcDbEntity
  8
RACCORDO
100
AcDbLine
 62
250
  6
CONTINUOUS
 10
-21.5566268979
 20
23.4047739181
 11
-21.5452963154
 21
23.1354170168
  0
LINE
  5
2FC
100
AcDbEntity
  8
RACCORDO
100
AcDbLine
 62
250
  6
CONTINUOUS
 10
-22.3202991278
 20
-7.9633906825
 11
-22.3238294831
 21
-7.8782975956
  0
LINE
  5
2FD
100
AcDbEntity
  8
RACCORDO
100
AcDbLine
 62
7
  6
CONTINUOUS
 10
-22.3194380628
 20
-7.9562974467
 11
-22.3232790075
 21
-7.8650372972
  0
LINE
  5
2FE
100
AcDbEntity
  8
RACCORDO
100
AcDbLine
 62
250
  6
CONTINUOUS
 10
-22.3536897747
 20
22.8974629277
 11
-22.3439148956
 21
22.6437650782
  0
LINE
  5
2FF
100
AcDbEntity
  8
RACCORDO
100
AcDbLine
 62
250
  6
CONTINUOUS
 10
-21.5706885968
 20
23.7763487065
 11
-21.5566268979
 21
23.4047739181
  0
LINE
  5
300
100
AcDbEntity
  8
RACCORDO
100
AcDbLine
 62
7
  6
CONTINUOUS
 10
-22.3232790075
 20
-7.8650372972
 11
-22.3269522272
 21
-7.7659034906
  0
LINE
  5
301
100
AcDbEntity
  8
RACCORDO
100
AcDbLine
 62
250
  6
CONTINUOUS
 10
-22.3627124713
 20
23.1502823802
 11
-22.3536897747
 21
22.8974629277
  0
LINE
  5
302
100
AcDbEntity
  8
RACCORDO
100
AcDbLine
 62
250
  6
CONTINUOUS
 10
-22.3238294831
 20
-7.8782975956
 11
-22.3286570946
 21
-7.744170041
  0
LINE
  5
303
100
AcDbEntity
  8
RACCORDO
100
AcDbLine
 62
250
  6
CONTINUOUS
 10
-22.371263817
 20
23.4090795004
 11
-22.3627124713
 21
23.1502823802
  0
LINE
  5
304
100
AcDbEntity
  8
RACCORDO
100
AcDbLine
 62
250
  6
CONTINUOUS
 10
-21.583514583
 20
24.1610050102
 11
-21.5706885968
 21
23.7763487065
  0
LINE
  5
305
100
AcDbEntity
  8
RACCORDO
100
AcDbLine
 62
7
  6
CONTINUOUS
 10
-22.3269522272
 20
-7.7659034906
 11
-22.3304183525
 21
-7.6585412064
  0
LINE
  5
306
100
AcDbEntity
  8
RACCORDO
100
AcDbLine
 62
250
  6
CONTINUOUS
 10
-22.3831772385
 20
23.8075817797
 11
-22.371263817
 21
23.4090795004
  0
LINE
  5
307
100
AcDbEntity
  8
RACCORDO
100
AcDbLine
 62
250
  6
CONTINUOUS
 10
-22.3286570946
 20
-7.744170041
 11
-22.3328946124
 21
-7.603095441
  0
LINE
  5
308
100
AcDbEntity
  8
RACCORDO
100
AcDbLine
 62
250
  6
CONTINUOUS
 10
-21.595062804
 20
24.5574845645
 11
-21.583514583
 21
24.1610050102
  0
LINE
  5
309
100
AcDbEntity
  8
RACCORDO
100
AcDbLine
 62
7
  6
CONTINUOUS
 10
-22.3304183525
 20
-7.6585412064
 11
-22.3336310437
 21
-7.5426329019
  0
LINE
  5
30A
100
AcDbEntity
  8
RACCORDO
100
AcDbLine
 62
250
  6
CONTINUOUS
 10
-22.3939664316
 20
24.2174730964
 11
-22.3831772385
 21
23.8075817797
  0
LWPOLYLINE
  5
30B
100
AcDbEntity
  8
RACCORDO
100
AcDbPolyline
 62
250
  6
CONTINUOUS
 90
37
 70
0
 10
-22.2826358311
 20
-22.5223528051
 10
-22.2823159509
 20
-22.5353979637
 10
-22.2814283798
 20
-22.5484183766
 10
-22.2799748017
 20
-22.5613893451
 10
-22.2779579737
 20
-22.5742862641
 10
-22.2753817217
 20
-22.5870846693
 10
-22.2722509325
 20
-22.5997602831
 10
-22.2685715452
 20
-22.6122890606
 10
-22.2643505392
 20
-22.6246472359
 10
-22.2595959214
 20
-22.6368113663
 10
-22.2543167109
 20
-22.6487583775
 10
-22.2485229221
 20
-22.6604656067
 10
-22.2422255454
 20
-22.6719108464
 10
-22.2354365262
 20
-22.6830723857
 10
-22.2281687431
 20
-22.693929052
 10
-22.2204359822
 20
-22.7044602511
 10
-22.2122529122
 20
-22.7146460061
 10
-22.2036350557
 20
-22.7244669952
 10
-22.1945987601
 20
-22.733904589
 10
-22.1851611665
 20
-22.7429408849
 10
-22.1753401775
 20
-22.7515587417
 10
-22.1651544226
 20
-22.7597418121
 10
-22.1546232235
 20
-22.7674745733
 10
-22.143766557
 20
-22.774742357
 10
-22.1326050176
 20
-22.7815313765
 10
-22.1211597776
 20
-22.7878287538
 10
-22.1094525481
 20
-22.793622543
 10
-22.0975055366
 20
-22.7989017538
 10
-22.0853414057
 20
-22.803656372
 10
-22.07298323
 20
-22.8078773784
 10
-22.060454452
 20
-22.8115567661
 10
-22.0477788377
 20
-22.8146875555
 10
-22.034980432
 20
-22.8172638077
 10
-22.0220835123
 20
-22.8192806359
 10
-22.0091125433
 20
-22.8207342142
 10
-21.9960921298
 20
-22.8216217853
 10
-21.9830469707
 20
-22.8219416656
  0
LINE
  5
30C
100
AcDbEntity
  8
RACCORDO
100
AcDbLine
 62
250
  6
CONTINUOUS
 10
-22.3328946124
 20
-7.603095441
 11
-22.3365189469
 21
-7.4558487466
  0
LINE
  5
30D
100
AcDbEntity
  8
RACCORDO
100
AcDbLine
 62
7
  6
CONTINUOUS
 10
-22.3336310437
 20
-7.5426329019
 11
-22.3365376951
 21
-7.4178771723
  0
LINE
  5
30E
100
AcDbEntity
  8
RACCORDO
100
AcDbLine
 62
250
  6
CONTINUOUS
 10
-22.3365189469
 20
-7.4558487466
 11
-22.3395081173
 21
-7.3032385364
  0
LINE
  5
30F
100
AcDbEntity
  8
RACCORDO
100
AcDbLine
 62
7
  6
CONTINUOUS
 10
-22.3365376951
 20
-7.4178771723
 11
-22.3390781977
 21
-7.2840033071
  0
LWPOLYLINE
  5
310
100
AcDbEntity
  8
RACCORDO
100
AcDbPolyline
 62
250
  6
CONTINUOUS
 90
9
 70
0
 10
-22.2490483482
 20
-8.6723188343
 10
-22.2493636731
 20
-8.6522040539
 10
-22.250493084
 20
-8.6321220896
 10
-22.2524347384
 20
-8.6121057041
 10
-22.2551854685
 20
-8.5921875527
 10
-22.2587407867
 20
-8.5724001306
 10
-22.2630948927
 20
-8.5527757198
 10
-22.2682406829
 20
-8.5333463362
 10
-22.2741697625
 20
-8.5141436777
  0
LWPOLYLINE
  5
311
100
AcDbEntity
  8
RACCORDO
100
AcDbPolyline
 62
250
  6
CONTINUOUS
 90
11
 70
0
 10
-22.2275752953
 20
-8.708165587
 10
-22.2278402399
 20
-8.6895124868
 10
-22.2288057224
 20
-8.6708793735
 10
-22.2304710848
 20
-8.6522924434
 10
-22.2328349524
 20
-8.6337760373
 10
-22.235894564
 20
-8.615358129
 10
-22.2396450852
 20
-8.5970701718
 10
-22.2440808864
 20
-8.5789395081
 10
-22.2491960981
 20
-8.5609900369
 10
-22.2549833946
 20
-8.5432476007
 10
-22.2614345433
 20
-8.5257374027
  0
LINE
  5
312
100
AcDbEntity
  8
RACCORDO
100
AcDbLine
 62
250
  6
CONTINUOUS
 10
-22.3395081173
 20
-7.3032385364
 11
-22.3418375572
 21
-7.1464099165
  0
LINE
  5
313
100
AcDbEntity
  8
RACCORDO
100
AcDbLine
 62
7
  6
CONTINUOUS
 10
-22.3390781977
 20
-7.2840033071
 11
-22.3411826571
 21
-7.1408720696
  0
LINE
  5
314
100
AcDbEntity
  8
RACCORDO
100
AcDbLine
 62
250
  6
CONTINUOUS
 10
-22.3418375572
 20
-7.1464099165
 11
-22.3434874636
 21
-6.9867869037
  0
LINE
  5
315
100
AcDbEntity
  8
RACCORDO
100
AcDbLine
 62
7
  6
CONTINUOUS
 10
-22.3411826571
 20
-7.1408720696
 11
-22.3427713732
 21
-6.9885026564
  0
LINE
  5
316
100
AcDbEntity
  8
RACCORDO
100
AcDbLine
 62
250
  6
CONTINUOUS
 10
-23.1724335159
 20
-29.3591333096
 11
-23.1592434929
 21
-32.2156939465
  0
LINE
  5
317
100
AcDbEntity
  8
RACCORDO
100
AcDbLine
 62
250
  6
CONTINUOUS
 10
-22.3434874636
 20
-6.9867869037
 11
-22.3444496276
 21
-6.8259169674
  0
LINE
  5
318
100
AcDbEntity
  8
RACCORDO
100
AcDbLine
 62
7
  6
CONTINUOUS
 10
-22.3427713732
 20
-6.9885026564
 11
-22.3437556211
 21
-6.827075382
  0
LINE
  5
319
100
AcDbEntity
  8
RACCORDO
100
AcDbLine
 62
250
  6
CONTINUOUS
 10
-23.1843989935
 20
-26.5006038188
 11
-23.1724335159
 21
-29.3591333096
  0
LINE
  5
31A
100
AcDbEntity
  8
RACCORDO
100
AcDbLine
 62
250
  6
CONTINUOUS
 10
-23.1951396498
 20
-23.6402973473
 11
-23.1843989935
 21
-26.5006038188
  0
LINE
  5
31B
100
AcDbEntity
  8
RACCORDO
100
AcDbLine
 62
250
  6
CONTINUOUS
 10
-22.4042768956
 20
-21.1985411299
 11
-22.3943044776
 21
-24.1245085457
  0
LINE
  5
31C
100
AcDbEntity
  8
RACCORDO
100
AcDbLine
 62
250
  6
CONTINUOUS
 10
-23.2046545352
 20
-20.7784058326
 11
-23.1951396498
 21
-23.6402973473
  0
LINE
  5
31D
100
AcDbEntity
  8
RACCORDO
100
AcDbLine
 62
250
  6
CONTINUOUS
 10
-23.21294297
 20
-17.9151212825
 11
-23.2046545352
 21
-20.7784058326
  0
LINE
  5
31E
100
AcDbEntity
  8
RACCORDO
100
AcDbLine
 62
250
  6
CONTINUOUS
 10
-22.4129612401
 20
-18.2711269282
 11
-22.4042768956
 21
-21.1985411299
  0
LINE
  5
31F
100
AcDbEntity
  8
RACCORDO
100
AcDbLine
 62
250
  6
CONTINUOUS
 10
-22.4203572819
 20
-15.3423504071
 11
-22.4129612401
 21
-18.2711269282
  0
LINE
  5
320
100
AcDbEntity
  8
RACCORDO
100
AcDbLine
 62
250
  6
CONTINUOUS
 10
-23.2200045382
 20
-15.050635802
 11
-23.21294297
 21
-17.9151212825
  0
LINE
  5
321
100
AcDbEntity
  8
RACCORDO
100
AcDbLine
 62
250
  6
CONTINUOUS
 10
-23.2258386715
 20
-12.185141489
 11
-23.2200045382
 21
-15.050635802
  0
LINE
  5
322
100
AcDbEntity
  8
RACCORDO
100
AcDbLine
 62
250
  6
CONTINUOUS
 10
-22.4264642064
 20
-12.4124979276
 11
-22.4203572819
 21
-15.3423504071
  0
LINE
  5
323
100
AcDbEntity
  8
RACCORDO
100
AcDbLine
 62
250
  6
CONTINUOUS
 10
-22.4312815915
 20
-9.4817964517
 11
-22.4264642064
 21
-12.4124979276
  0
LINE
  5
324
100
AcDbEntity
  8
RACCORDO
100
AcDbLine
 62
250
  6
CONTINUOUS
 10
-23.2304449706
 20
-9.3188303335
 11
-23.2258386715
 21
-12.185141489
  0
LINE
  5
325
100
AcDbEntity
  8
RACCORDO
100
AcDbLine
 62
250
  6
CONTINUOUS
 10
-23.2338232049
 20
-6.4518945164
 11
-23.2304449706
 21
-9.3188303335
  0
LINE
  5
326
100
AcDbEntity
  8
RACCORDO
100
AcDbLine
 62
250
  6
CONTINUOUS
 10
-22.4348091833
 20
-6.5504005113
 11
-22.4312815915
 21
-9.4817964517
  0
LWPOLYLINE
  5
327
100
AcDbEntity
  8
RACCORDO
100
AcDbPolyline
 62
250
  6
CONTINUOUS
 90
9
 70
0
 10
-22.3444496276
 20
-6.8259169674
 10
-22.3460538941
 20
-5.2256037593
 10
-22.3470625372
 20
-3.7325960287
 10
-22.3477349659
 20
-2.2395744339
 10
-22.3480711804
 20
-0.7465297656
 10
-22.3480711805
 20
0.7465287669
 10
-22.3477349662
 20
2.2395735351
 10
-22.3470625375
 20
3.7325953296
 10
-22.3460538943
 20
5.2256033599
  0
LWPOLYLINE
  5
328
100
AcDbEntity
  8
RACCORDO
100
AcDbPolyline
 62
7
  6
CONTINUOUS
 90
8
 70
0
 10
-22.3437556211
 20
-6.827075382
 10
-22.3453587606
 20
-5.2380087233
 10
-22.3463721254
 20
-3.7416935557
 10
-22.3470477654
 20
-2.2453084541
 10
-22.3473856622
 20
-0.7488849335
 10
-22.3473858127
 20
0.7475507241
 10
-22.3470482171
 20
2.243974252
 10
-22.3463728783
 20
3.740359357
  0
LINE
  5
329
100
AcDbEntity
  8
RACCORDO
100
AcDbLine
 62
250
  6
CONTINUOUS
 10
-22.4370466599
 20
-3.6185417212
 11
-22.4348091833
 21
-6.5504005113
  0
LINE
  5
32A
100
AcDbEntity
  8
RACCORDO
100
AcDbLine
 62
250
  6
CONTINUOUS
 10
-23.2359730827
 20
-3.5845261131
 11
-23.2338232049
 21
-6.4518945164
  0
LINE
  5
32B
100
AcDbEntity
  8
RACCORDO
100
AcDbLine
 62
250
  6
CONTINUOUS
 10
-23.2368944809
 20
-0.7169173331
 11
-23.2359730827
 21
-3.5845261131
  0
LINE
  5
32C
100
AcDbEntity
  8
RACCORDO
100
AcDbLine
 62
250
  6
CONTINUOUS
 10
-22.4379938849
 20
-0.6864529362
 11
-22.4370466599
 21
-3.6185417212
  0
LINE
  5
32D
100
AcDbEntity
  8
RACCORDO
100
AcDbLine
 62
250
  6
CONTINUOUS
 10
-22.2275752953
 20
-22.4672922693
 11
-22.2275752953
 21
-8.708165587
  0
LINE
  5
32E
100
AcDbEntity
  8
RACCORDO
100
AcDbLine
 62
250
  6
CONTINUOUS
 10
-22.2275752953
 20
8.708165587
 11
-22.2275752953
 21
22.4672922693
  0
LINE
  5
32F
100
AcDbEntity
  8
RACCORDO
100
AcDbLine
 62
7
  6
CONTINUOUS
 10
-22.2268900626
 20
-22.4672922693
 11
-22.2268900626
 21
-8.708165587
  0
LINE
  5
330
100
AcDbEntity
  8
RACCORDO
100
AcDbLine
 62
7
  6
CONTINUOUS
 10
-22.2
 20
-8.05
 11
-22.2
 21
8.05
  0
LINE
  5
331
100
AcDbEntity
  8
RACCORDO
100
AcDbLine
 62
250
  6
CONTINUOUS
 10
-21.9279864348
 20
22.7668811297
 11
-21.9279864348
 21
22.7661958971
  0
LINE
  5
332
100
AcDbEntity
  8
RACCORDO
100
AcDbLine
 62
250
  6
CONTINUOUS
 10
-21.9279864348
 20
-22.7668811297
 11
-21.9279864348
 21
-22.7661958971
  0
LINE
  5
333
100
AcDbEntity
  8
RACCORDO
100
AcDbLine
 62
250
  6
CONTINUOUS
 10
-23.2365873533
 20
2.1507394975
 11
-23.2368944809
 21
-0.7169173331
  0
LINE
  5
334
100
AcDbEntity
  8
RACCORDO
100
AcDbLine
 62
250
  6
CONTINUOUS
 10
-22.4376508082
 20
2.2457102427
 11
-22.4379938849
 21
-0.6864529362
  0
LINE
  5
335
100
AcDbEntity
  8
RACCORDO
100
AcDbLine
 62
250
  6
CONTINUOUS
 10
-23.2350516847
 20
5.0182520993
 11
-23.2365873533
 21
2.1507394975
  0
LINE
  5
336
100
AcDbEntity
  8
RACCORDO
100
AcDbLine
 62
250
  6
CONTINUOUS
 10
-22.4360174151
 20
5.177713216
 11
-22.4376508082
 21
2.2457102427
  0
LINE
  5
337
100
AcDbEntity
  8
RACCORDO
100
AcDbLine
 62
7
  6
CONTINUOUS
 10
-22.3463728783
 20
3.740359357
 11
-22.3440240608
 21
6.718090903
  0
LINE
  5
338
100
AcDbEntity
  8
RACCORDO
100
AcDbLine
 62
250
  6
CONTINUOUS
 10
-23.2322876288
 20
7.885428268
 11
-23.2350516847
 21
5.0182520993
  0
LINE
  5
339
100
AcDbEntity
  8
RACCORDO
100
AcDbLine
 62
250
  6
CONTINUOUS
 10
-22.4330938792
 20
8.1093243463
 11
-22.4360174151
 21
5.177713216
  0
LINE
  5
33A
100
AcDbEntity
  8
RACCORDO
100
AcDbLine
 62
250
  6
CONTINUOUS
 10
-23.2282953238
 20
10.7520757474
 11
-23.2322876288
 21
7.885428268
  0
LINE
  5
33B
100
AcDbEntity
  8
RACCORDO
100
AcDbLine
 62
250
  6
CONTINUOUS
 10
-22.4288803555
 20
11.0403890099
 11
-22.4330938792
 21
8.1093243463
  0
LINE
  5
33C
100
AcDbEntity
  8
RACCORDO
100
AcDbLine
 62
250
  6
CONTINUOUS
 10
-23.2230750309
 20
13.6180024755
 11
-23.2282953238
 21
10.7520757474
  0
LINE
  5
33D
100
AcDbEntity
  8
RACCORDO
100
AcDbLine
 62
250
  6
CONTINUOUS
 10
-22.4233771353
 20
13.9706754026
 11
-22.4288803555
 21
11.0403890099
  0
LINE
  5
33E
100
AcDbEntity
  8
RACCORDO
100
AcDbLine
 62
250
  6
CONTINUOUS
 10
-23.2166271802
 20
16.4830164158
 11
-23.2230750309
 21
13.6180024755
  0
LINE
  5
33F
100
AcDbEntity
  8
RACCORDO
100
AcDbLine
 62
250
  6
CONTINUOUS
 10
-22.4165846866
 20
16.89995408
 11
-22.4233771353
 21
13.9706754026
  0
LINE
  5
340
100
AcDbEntity
  8
RACCORDO
100
AcDbLine
 62
250
  6
CONTINUOUS
 10
-23.2089520944
 20
19.3469254237
 11
-23.2166271802
 21
16.4830164158
  0
LINE
  5
341
100
AcDbEntity
  8
RACCORDO
100
AcDbLine
 62
250
  6
CONTINUOUS
 10
-22.4085033921
 20
19.8280635503
 11
-22.4165846866
 21
16.89995408
  0
LINE
  5
342
100
AcDbEntity
  8
RACCORDO
100
AcDbLine
 62
250
  6
CONTINUOUS
 10
-22.3460538943
 20
5.2256033599
 11
-22.3444497367
 21
6.8258887445
  0
LINE
  5
343
100
AcDbEntity
  8
RACCORDO
100
AcDbLine
 62
250
  6
CONTINUOUS
 10
-23.200050311
 20
22.2095374631
 11
-23.2089520944
 21
19.3469254237
  0
LWPOLYLINE
  5
344
100
AcDbEntity
  8
RACCORDO
100
AcDbPolyline
 62
250
  6
CONTINUOUS
 90
3
 70
0
 10
-22.3939664316
 20
24.2174730964
 10
-22.3991341182
 20
22.754692638
 10
-22.4085033921
 20
19.8280635503
  0
LINE
  5
345
100
AcDbEntity
  8
RACCORDO
100
AcDbLine
 62
250
  6
CONTINUOUS
 10
-23.1899225403
 20
25.0706604552
 11
-23.200050311
 21
22.2095374631
  0
LINE
  5
346
100
AcDbEntity
  8
RACCORDO
100
AcDbLine
 62
250
  6
CONTINUOUS
 10
-23.1785692894
 20
27.9301024221
 11
-23.1899225403
 21
25.0706604552
  0
LWPOLYLINE
  5
347
100
AcDbEntity
  8
RACCORDO
100
AcDbPolyline
 62
7
  6
CONTINUOUS
 90
37
 70
0
 10
-22.2268900626
 20
8.708165587
 10
-22.2268793006
 20
22.46981519
 10
-22.2264523739
 20
22.4835181928
 10
-22.225402502
 20
22.4971739204
 10
-22.2237334252
 20
22.5107539069
 10
-22.2214493607
 20
22.5242318266
 10
-22.2185558226
 20
22.5375823794
 10
-22.2150592742
 20
22.5507781973
 10
-22.210967654
 20
22.5637920865
 10
-22.2062896162
 20
22.5765990927
 10
-22.2010347891
 20
22.5891735062
 10
-22.1952147805
 20
22.6014895348
 10
-22.1888413717
 20
22.6135223523
 10
-22.1819281567
 20
22.6252477291
 10
-22.1744892947
 20
22.6366418427
 10
-22.1665399996
 20
22.6476820395
 10
-22.1580966095
 20
22.6583460052
 10
-22.1491762834
 20
22.6686120227
 10
-22.1397972643
 20
22.6784596585
 10
-22.1299783847
 20
22.6878686723
 10
-22.1197398378
 20
22.69682019
 10
-22.1091019884
 20
22.7052959137
 10
-22.0980865256
 20
22.7132786484
 10
-22.086715701
 20
22.720751979
 10
-22.075012125
 20
22.7277006683
 10
-22.0629995643
 20
22.734110477
 10
-22.0507022168
 20
22.7399677611
 10
-22.0381448656
 20
22.745260674
 10
-22.0253532644
 20
22.7499775301
 10
-22.0123530913
 20
22.7541086546
 10
-21.9991692418
 20
22.7576453081
 10
-21.9858288989
 20
22.7605795043
 10
-21.9723593927
 20
22.7629046788
 10
-21.9587859352
 20
22.7646152701
 10
-21.9451348078
 20
22.7657069716
 10
-21.9314345284
 20
22.7661759569
 10
-21.9279864348
 20
22.7661956956
  0
LWPOLYLINE
  5
348
100
AcDbEntity
  8
RACCORDO
100
AcDbPolyline
 62
250
  6
CONTINUOUS
 90
3
 70
0
 10
-23.159243493
 20
32.2156939465
 10
-23.1659915846
 20
30.7876716114
 10
-23.1785692894
 20
27.9301024221
  0
LINE
  5
349
100
AcDbEntity
  8
RACCORDO
100
AcDbLine
 62
7
  6
CONTINUOUS
 10
-22.344024103
 20
6.7180908886
 11
-22.3435146152
 21
6.8792426819
  0
LINE
  5
34A
100
AcDbEntity
  8
RACCORDO
100
AcDbLine
 62
250
  6
CONTINUOUS
 10
-22.3444497367
 20
6.8258887445
 11
-22.3434880405
 21
6.9867172877
  0
LINE
  5
34B
100
AcDbEntity
  8
RACCORDO
100
AcDbLine
 62
7
  6
CONTINUOUS
 10
-22.3435146152
 20
6.8792426819
 11
-22.3422134961
 21
7.0495313645
  0
LINE
  5
34C
100
AcDbEntity
  8
RACCORDO
100
AcDbLine
 62
250
  6
CONTINUOUS
 10
-22.3434880405
 20
6.9867172877
 11
-22.3418387519
 21
7.1463153114
  0
LWPOLYLINE
  5
34D
100
AcDbEntity
  8
RACCORDO
100
AcDbPolyline
 62
250
  6
CONTINUOUS
 90
46
 70
0
 10
-22.2275752953
 20
22.4672922693
 10
-22.2274434161
 20
22.4776887277
 10
-22.226951252
 20
22.4880990393
 10
-22.2260964869
 20
22.4985107036
 10
-22.2248766716
 20
22.5089160505
 10
-22.2232905994
 20
22.5192971761
 10
-22.2213400131
 20
22.5296262246
 10
-22.2190258578
 20
22.5398904908
 10
-22.2163496406
 20
22.5500770818
 10
-22.2133176919
 20
22.5601584958
 10
-22.209934555
 20
22.5701205305
 10
-22.2062040073
 20
22.5799530747
 10
-22.2021342876
 20
22.5896357308
 10
-22.1977333173
 20
22.5991530967
 10
-22.1930058178
 20
22.6084982307
 10
-22.1879562767
 20
22.6176639342
 10
-22.1825922058
 20
22.626638084
 10
-22.1769199412
 20
22.6354115129
 10
-22.1709415639
 20
22.6439811295
 10
-22.1646622226
 20
22.6523387438
 10
-22.1580909789
 20
22.6604715473
 10
-22.1512355598
 20
22.6683693765
 10
-22.1441025608
 20
22.6760239516
 10
-22.1367018176
 20
22.6834241289
 10
-22.1290469137
 20
22.6905563483
 10
-22.121149162
 20
22.6974106744
 10
-22.113016721
 20
22.7039806706
 10
-22.104659302
 20
22.7102589767
 10
-22.0960895855
 20
22.7162365835
 10
-22.0873158465
 20
22.721908238
 10
-22.0783409974
 20
22.7272719259
 10
-22.0691739447
 20
22.7323213936
 10
-22.0598270193
 20
22.7370489438
 10
-22.0503079666
 20
22.741449793
 10
-22.0406237645
 20
22.7455192205
 10
-22.0307898017
 20
22.7492493303
 10
-22.0208269962
 20
22.7526317357
 10
-22.0107456644
 20
22.755662675
 10
-22.0005598521
 20
22.758337738
 10
-21.9902970499
 20
22.7606506743
 10
-21.97997015
 20
22.7626000472
 10
-21.9695918719
 20
22.7641849772
 10
-21.9591900749
 20
22.7654037919
 10
-21.9487826592
 20
22.7662577669
 10
-21.9383772837
 20
22.7667494185
 10
-21.9279864348
 20
22.7668811297
  0
LINE
  5
34E
100
AcDbEntity
  8
RACCORDO
100
AcDbLine
 62
7
  6
CONTINUOUS
 10
-22.3422134961
 20
7.0495313645
 11
-22.3402542867
 21
7.2091892643
  0
LWPOLYLINE
  5
34F
100
AcDbEntity
  8
RACCORDO
100
AcDbPolyline
 62
250
  6
CONTINUOUS
 90
11
 70
0
 10
-22.2275752953
 20
8.708165587
 10
-22.2278402399
 20
8.6895124868
 10
-22.2288057224
 20
8.6708793736
 10
-22.2304710848
 20
8.6522924435
 10
-22.2328349523
 20
8.6337760374
 10
-22.235894564
 20
8.6153581291
 10
-22.2396450852
 20
8.597070172
 10
-22.2440808864
 20
8.5789395085
 10
-22.2491960979
 20
8.5609900376
 10
-22.2549833943
 20
8.5432476016
 10
-22.2614345431
 20
8.5257374032
  0
LWPOLYLINE
  5
350
100
AcDbEntity
  8
RACCORDO
100
AcDbPolyline
 62
250
  6
CONTINUOUS
 90
9
 70
0
 10
-22.2490483482
 20
8.6723188343
 10
-22.2493636729
 20
8.6522040575
 10
-22.2504930834
 20
8.6321220967
 10
-22.2524347371
 20
8.6121057143
 10
-22.2551854664
 20
8.5921875658
 10
-22.2587407835
 20
8.5724001463
 10
-22.2630948883
 20
8.5527757378
 10
-22.2682406772
 20
8.5333463562
 10
-22.2741697553
 20
8.5141436994
  0
LWPOLYLINE
  5
351
100
AcDbEntity
  8
RACCORDO
100
AcDbPolyline
 62
250
  6
CONTINUOUS
 90
17
 70
0
 10
-22.3943042854
 20
-24.1245085582
 10
-22.3957164327
 20
-24.2118021146
 10
-22.3979520647
 20
-24.3021693203
 10
-22.4010327388
 20
-24.3956111576
 10
-22.404973086
 20
-24.4920328279
 10
-22.4097922305
 20
-24.5915388026
 10
-22.4155176358
 20
-24.6944304312
 10
-22.4221610176
 20
-24.8006994102
 10
-22.4297326169
 20
-24.9103681121
 10
-22.4382614095
 20
-25.023786859
 10
-22.4477535275
 20
-25.1410042909
 10
-22.4582041116
 20
-25.2619915156
 10
-22.4696233441
 20
-25.386984735
 10
-22.482016888
 20
-25.5162191753
 10
-22.495340869
 20
-25.6494887309
 10
-22.5095130412
 20
-25.786363911
 10
-22.5245227997
 20
-25.9272425665
  0
LINE
  5
352
100
AcDbEntity
  8
RACCORDO
100
AcDbLine
 62
250
  6
CONTINUOUS
 10
-22.3418387519
 20
7.1463153114
 11
-22.3395097633
 21
7.3031427657
  0
LINE
  5
353
100
AcDbEntity
  8
RACCORDO
100
AcDbLine
 62
7
  6
CONTINUOUS
 10
-22.3402542867
 20
7.2091892643
 11
-22.3377428262
 21
7.3581125978
  0
LINE
  5
354
100
AcDbEntity
  8
RACCORDO
100
AcDbLine
 62
250
  6
CONTINUOUS
 10
-22.3395097633
 20
7.3031427657
 11
-22.3365207543
 21
7.4557666089
  0
LINE
  5
355
100
AcDbEntity
  8
RACCORDO
100
AcDbLine
 62
7
  6
CONTINUOUS
 10
-22.3377428262
 20
7.3581125978
 11
-22.3347711291
 21
7.4964288505
  0
LWPOLYLINE
  5
356
100
AcDbEntity
  8
RACCORDO
100
AcDbPolyline
 62
250
  6
CONTINUOUS
 90
37
 70
0
 10
-22.2818763176
 20
22.5215932916
 10
-22.2815564374
 20
22.5346384497
 10
-22.2806688665
 20
22.547658862
 10
-22.2792152885
 20
22.56062983
 10
-22.2771984608
 20
22.5735267485
 10
-22.274622209
 20
22.5863251533
 10
-22.2714914202
 20
22.5990007666
 10
-22.2678120332
 20
22.6115295437
 10
-22.2635910275
 20
22.6238877187
 10
-22.2588364101
 20
22.6360518488
 10
-22.2535572
 20
22.6479988597
 10
-22.2477634117
 20
22.6597060888
 10
-22.2414660353
 20
22.6711513283
 10
-22.2346770165
 20
22.6823128676
 10
-22.2274092337
 20
22.6931695339
 10
-22.2196764732
 20
22.7037007331
 10
-22.2114934034
 20
22.7138864882
 10
-22.2028755471
 20
22.7237074776
 10
-22.1938392517
 20
22.7331450716
 10
-22.1844016583
 20
22.7421813677
 10
-22.1745806692
 20
22.7507992249
 10
-22.1643949143
 20
22.7589822956
 10
-22.1538637151
 20
22.7667150572
 10
-22.1430070484
 20
22.7739828412
 10
-22.1318455087
 20
22.7807718612
 10
-22.1204002685
 20
22.7870692387
 10
-22.1086930386
 20
22.7928630282
 10
-22.0967460267
 20
22.7981422394
 10
-22.0845818956
 20
22.8028968578
 10
-22.0722237195
 20
22.8071178644
 10
-22.059694941
 20
22.8107972522
 10
-22.0470193264
 20
22.8139280417
 10
-22.0342209202
 20
22.8165042941
 10
-22.0213240001
 20
22.8185211224
 10
-22.0083530307
 20
22.8199747007
 10
-21.9953326168
 20
22.8208622718
 10
-21.9822874572
 20
22.8211821521
  0
LINE
  5
357
100
AcDbEntity
  8
RACCORDO
100
AcDbLine
 62
250
  6
CONTINUOUS
 10
-22.3365207543
 20
7.4557666089
 11
-22.3328965175
 21
7.6030255211
  0
LINE
  5
358
100
AcDbEntity
  8
RACCORDO
100
AcDbLine
 62
7
  6
CONTINUOUS
 10
-22.3347711291
 20
7.4964288505
 11
-22.3314183081
 21
7.6244236881
  0
LINE
  5
359
100
AcDbEntity
  8
RACCORDO
100
AcDbLine
 62
250
  6
CONTINUOUS
 10
-22.3832104513
 20
-23.7318455207
 11
-22.3943044776
 21
-24.1245085457
  0
LINE
  5
35A
100
AcDbEntity
  8
RACCORDO
100
AcDbLine
 62
250
  6
CONTINUOUS
 10
-22.3328965175
 20
7.6030255211
 11
-22.328659274
 21
7.7441039581
  0
LINE
  5
35B
100
AcDbEntity
  8
RACCORDO
100
AcDbLine
 62
250
  6
CONTINUOUS
 10
-21.5835310932
 20
-24.105776187
 11
-21.5954008501
 21
-24.4861693314
  0
LINE
  5
35C
100
AcDbEntity
  8
RACCORDO
100
AcDbLine
 62
250
  6
CONTINUOUS
 10
-22.3710889872
 20
-23.3504483438
 11
-22.3832104513
 21
-23.7318455207
  0
LINE
  5
35D
100
AcDbEntity
  8
RACCORDO
100
AcDbLine
 62
7
  6
CONTINUOUS
 10
-22.3314183081
 20
7.6244236881
 11
-22.3277517423
 21
7.7424764236
  0
LINE
  5
35E
100
AcDbEntity
  8
RACCORDO
100
AcDbLine
 62
250
  6
CONTINUOUS
 10
-22.3579646556
 20
-22.9811111707
 11
-22.3710889872
 21
-23.3504483438
  0
LINE
  5
35F
100
AcDbEntity
  8
RACCORDO
100
AcDbLine
 62
250
  6
CONTINUOUS
 10
-21.5704925421
 20
-23.7370583881
 11
-21.5835310932
 21
-24.105776187
  0
LWPOLYLINE
  5
360
100
AcDbEntity
  8
RACCORDO
100
AcDbPolyline
 62
250
  6
CONTINUOUS
 90
17
 70
0
 10
-21.5954008501
 20
-24.4861693314
 10
-21.598471812
 20
-24.5671481847
 10
-21.6032792283
 20
-24.6509025343
 10
-21.6098230988
 20
-24.737460284
 10
-21.6180657464
 20
-24.8267829497
 10
-21.6280448482
 20
-24.9189611362
 10
-21.6398734364
 20
-25.0142180304
 10
-21.6535619286
 20
-25.1125622118
 10
-21.6690999071
 20
-25.2140362765
 10
-21.6865691514
 20
-25.3189193823
 10
-21.7060030602
 20
-25.4272680138
 10
-21.7273682347
 20
-25.5390737191
 10
-21.7506462582
 20
-25.6545213027
 10
-21.7759380475
 20
-25.773822439
 10
-21.8031426858
 20
-25.8968030139
 10
-21.8319390057
 20
-26.0230608167
 10
-21.8624998233
 20
-26.1529283026
  0
LINE
  5
361
100
AcDbEntity
  8
RACCORDO
100
AcDbLine
 62
7
  6
CONTINUOUS
 10
-22.3277517423
 20
7.7424764236
 11
-22.3238332533
 21
7.8508938831
  0
LINE
  5
362
100
AcDbEntity
  8
RACCORDO
100
AcDbLine
 62
250
  6
CONTINUOUS
 10
-22.328659274
 20
7.7441039581
 11
-22.3238320521
 21
7.8782321558
  0
LINE
  5
363
100
AcDbEntity
  8
RACCORDO
100
AcDbLine
 62
250
  6
CONTINUOUS
 10
-21.5563189956
 20
-23.3809667128
 11
-21.5704925421
 21
-23.7370583881
  0
LINE
  5
364
100
AcDbEntity
  8
RACCORDO
100
AcDbLine
 62
250
  6
CONTINUOUS
 10
-22.3437315819
 20
-22.6215164702
 11
-22.3579646556
 21
-22.9811111707
  0
LINE
  5
365
100
AcDbEntity
  8
RACCORDO
100
AcDbLine
 62
250
  6
CONTINUOUS
 10
-22.3238320521
 20
7.8782321558
 11
-22.3203019383
 21
7.9633265865
  0
LINE
  5
366
100
AcDbEntity
  8
RACCORDO
100
AcDbLine
 62
7
  6
CONTINUOUS
 10
-22.3238332533
 20
7.8508938831
 11
-22.320554812
 21
7.9309051848
  0
LINE
  5
367
100
AcDbEntity
  8
RACCORDO
100
AcDbLine
 62
250
  6
CONTINUOUS
 10
-21.5449688949
 20
-23.1228528744
 11
-21.5563189956
 21
-23.3809667128
  0
LINE
  5
368
100
AcDbEntity
  8
RACCORDO
100
AcDbLine
 62
250
  6
CONTINUOUS
 10
-22.3429996016
 20
-22.6052714363
 11
-22.3437315819
 21
-22.6215164702
  0
LINE
  5
369
100
AcDbEntity
  8
RACCORDO
100
AcDbLine
 62
7
  6
CONTINUOUS
 10
-22.320554812
 20
7.9309051848
 11
-22.317176488
 21
8.0051465054
  0
LINE
  5
36A
100
AcDbEntity
  8
RACCORDO
100
AcDbLine
 62
250
  6
CONTINUOUS
 10
-22.3203019383
 20
7.9633265865
 11
-22.3165326287
 21
8.0446969275
  0
LINE
  5
36B
100
AcDbEntity
  8
RACCORDO
100
AcDbLine
 62
250
  6
CONTINUOUS
 10
-22.3423775659
 20
-22.5927668539
 11
-22.3429996016
 21
-22.6052714363
  0
LINE
  5
36C
100
AcDbEntity
  8
RACCORDO
100
AcDbLine
 62
7
  6
CONTINUOUS
 10
-22.317176488
 20
8.0051465054
 11
-22.3137216617
 21
8.0738135654
  0
LINE
  5
36D
100
AcDbEntity
  8
RACCORDO
100
AcDbLine
 62
250
  6
CONTINUOUS
 10
-22.3165326287
 20
8.0446969275
 11
-22.3125368475
 21
8.1220475589
  0
LINE
  5
36E
100
AcDbEntity
  8
RACCORDO
100
AcDbLine
 62
250
  6
CONTINUOUS
 10
-22.3417179091
 20
-22.5806214321
 11
-22.3423775659
 21
-22.5927668539
  0
LINE
  5
36F
100
AcDbEntity
  8
RACCORDO
100
AcDbLine
 62
7
  6
CONTINUOUS
 10
-22.3137216617
 20
8.0738135654
 11
-22.3102119829
 21
8.1370964035
  0
LINE
  5
370
100
AcDbEntity
  8
RACCORDO
100
AcDbLine
 62
250
  6
CONTINUOUS
 10
-22.3125368475
 20
8.1220475589
 11
-22.3083290136
 21
8.1951135368
  0
LINE
  5
371
100
AcDbEntity
  8
RACCORDO
100
AcDbLine
 62
250
  6
CONTINUOUS
 10
-22.3410148369
 20
-22.5687796569
 11
-22.3417179091
 21
-22.5806214321
  0
LINE
  5
372
100
AcDbEntity
  8
RACCORDO
100
AcDbLine
 62
7
  6
CONTINUOUS
 10
-22.3102119829
 20
8.1370964035
 11
-22.306668173
 21
8.1951876622
  0
LINE
  5
373
100
AcDbEntity
  8
RACCORDO
100
AcDbLine
 62
250
  6
CONTINUOUS
 10
-22.340453964
 20
-22.5600543689
 11
-22.3410148369
 21
-22.5687796569
  0
LINE
  5
374
100
AcDbEntity
  8
RACCORDO
100
AcDbLine
 62
250
  6
CONTINUOUS
 10
-22.3083290136
 20
8.1951135368
 11
-22.3039189741
 21
8.2637264822
  0
LINE
  5
375
100
AcDbEntity
  8
RACCORDO
100
AcDbLine
 62
7
  6
CONTINUOUS
 10
-22.306668173
 20
8.1951876622
 11
-22.3039994985
 21
8.2354593627
  0
LINE
  5
376
100
AcDbEntity
  8
RACCORDO
100
AcDbLine
 62
250
  6
CONTINUOUS
 10
-22.3398589608
 20
-22.5514266381
 11
-22.340453964
 21
-22.5600543689
  0
LINE
  5
377
100
AcDbEntity
  8
RACCORDO
100
AcDbLine
 62
7
  6
CONTINUOUS
 10
-22.3039994985
 20
8.2354593627
 11
-22.3013313096
 21
8.2729831775
  0
LWPOLYLINE
  5
378
100
AcDbEntity
  8
RACCORDO
100
AcDbPolyline
 62
250
  6
CONTINUOUS
 90
9
 70
0
 10
-22.3039189741
 20
8.2637264822
 10
-22.2993225285
 20
8.3276391928
 10
-22.2969588145
 20
8.3577771081
 10
-22.294553074
 20
8.3866797049
 10
-22.2921051892
 20
8.414349827
 10
-22.2896193568
 20
8.4407354618
 10
-22.2870950538
 20
8.4658394754
 10
-22.2845328032
 20
8.4896590017
 10
-22.2819383703
 20
8.5121334299
  0
LINE
  5
379
100
AcDbEntity
  8
RACCORDO
100
AcDbLine
 62
250
  6
CONTINUOUS
 10
-22.3392269041
 20
-22.5429054903
 11
-22.3398589608
 21
-22.5514266381
  0
LINE
  5
37A
100
AcDbEntity
  8
RACCORDO
100
AcDbLine
 62
7
  6
CONTINUOUS
 10
-22.3013313096
 20
8.2729831775
 11
-22.2986722045
 21
8.3078213311
  0
LINE
  5
37B
100
AcDbEntity
  8
RACCORDO
100
AcDbLine
 62
250
  6
CONTINUOUS
 10
-22.3385564123
 20
-22.5345254875
 11
-22.3392269041
 21
-22.5429054903
  0
LINE
  5
37C
100
AcDbEntity
  8
RACCORDO
100
AcDbLine
 62
7
  6
CONTINUOUS
 10
-22.2986722045
 20
8.3078213311
 11
-22.296031558
 21
8.3400337992
  0
LINE
  5
37D
100
AcDbEntity
  8
RACCORDO
100
AcDbLine
 62
250
  6
CONTINUOUS
 10
-22.3380873447
 20
-22.5290335382
 11
-22.3385564123
 21
-22.5345254875
  0
LINE
  5
37E
100
AcDbEntity
  8
RACCORDO
100
AcDbLine
 62
7
  6
CONTINUOUS
 10
-22.296031558
 20
8.3400337992
 11
-22.2934224892
 21
8.3696388642
  0
LINE
  5
37F
100
AcDbEntity
  8
RACCORDO
100
AcDbLine
 62
250
  6
CONTINUOUS
 10
-22.3376002435
 20
-22.5236331658
 11
-22.3380873447
 21
-22.5290335382
  0
LWPOLYLINE
  5
380
100
AcDbEntity
  8
RACCORDO
100
AcDbPolyline
 62
250
  6
CONTINUOUS
 90
8
 70
0
 10
-22.7261589173
 20
-27.8872220951
 10
-22.7607459187
 20
-28.2644857755
 10
-22.7966020443
 20
-28.6460087069
 10
-22.8337380535
 20
-29.0322246513
 10
-22.8720394773
 20
-29.422644571
 10
-22.9112418549
 20
-29.8158490503
 10
-22.951288003
 20
-30.2118536088
 10
-22.9921109868
 20
-30.6105881448
  0
LINE
  5
381
100
AcDbEntity
  8
RACCORDO
100
AcDbLine
 62
7
  6
CONTINUOUS
 10
-22.2934224892
 20
8.3696388642
 11
-22.2917074991
 21
8.3879372521
  0
LINE
  5
382
100
AcDbEntity
  8
RACCORDO
100
AcDbLine
 62
250
  6
CONTINUOUS
 10
-22.3370951091
 20
-22.518335075
 11
-22.3376002435
 21
-22.5236331658
  0
LINE
  5
383
100
AcDbEntity
  8
RACCORDO
100
AcDbLine
 62
7
  6
CONTINUOUS
 10
-22.2917074991
 20
8.3879372521
 11
-22.2900182642
 21
8.4050841713
  0
LINE
  5
384
100
AcDbEntity
  8
RACCORDO
100
AcDbLine
 62
250
  6
CONTINUOUS
 10
-22.3365722266
 20
-22.5131581823
 11
-22.3370951091
 21
-22.518335075
  0
LINE
  5
385
100
AcDbEntity
  8
RACCORDO
100
AcDbLine
 62
250
  6
CONTINUOUS
 10
-22.9921109868
 20
-30.6105881448
 11
-23.0750283551
 21
-31.411078492
  0
LINE
  5
386
100
AcDbEntity
  8
RACCORDO
100
AcDbLine
 62
250
  6
CONTINUOUS
 10
-23.0750283551
 20
-31.411078492
 11
-23.1592434918
 21
-32.2156942002
  0
LINE
  5
387
100
AcDbEntity
  8
RACCORDO
100
AcDbLine
 62
7
  6
CONTINUOUS
 10
-22.2900182642
 20
8.4050841713
 11
-22.2883602244
 21
8.4210826054
  0
LINE
  5
388
100
AcDbEntity
  8
RACCORDO
100
AcDbLine
 62
7
  6
CONTINUOUS
 10
-22.2883602244
 20
8.4210826054
 11
-22.2867401259
 21
8.4359267698
  0
LWPOLYLINE
  5
389
100
AcDbEntity
  8
RACCORDO
100
AcDbPolyline
 62
250
  6
CONTINUOUS
 90
3
 70
0
 10
-22.3357557028
 20
-22.5056561589
 10
-22.3360321375
 20
-22.5081205133
 10
-22.3365722266
 20
-22.5131581823
  0
LINE
  5
38A
100
AcDbEntity
  8
RACCORDO
100
AcDbLine
 62
7
  6
CONTINUOUS
 10
-22.2867401259
 20
8.4359267698
 11
-22.2851653404
 21
8.4496131517
  0
LINE
  5
38B
100
AcDbEntity
  8
RACCORDO
100
AcDbLine
 62
7
  6
CONTINUOUS
 10
-22.2851653404
 20
8.4496131517
 11
-22.2836440084
 21
8.462139673
  0
LWPOLYLINE
  5
38C
100
AcDbEntity
  8
RACCORDO
100
AcDbPolyline
 62
250
  6
CONTINUOUS
 90
13
 70
0
 10
-22.2819383703
 20
8.5121334299
 10
-22.2793110673
 20
8.533262258
 10
-22.2766515821
 20
8.553045988
 10
-22.2739677433
 20
8.5714255145
 10
-22.2712593624
 20
8.5883937647
 10
-22.2685266279
 20
8.6039578114
 10
-22.2657779345
 20
8.6180797685
 10
-22.263013083
 20
8.630751934
 10
-22.2602322726
 20
8.6419820098
 10
-22.2574444948
 20
8.6517552158
 10
-22.2546527467
 20
8.6600666251
 10
-22.2518540312
 20
8.6669211646
 10
-22.2490483482
 20
8.6723188343
  0
LINE
  5
38D
100
AcDbEntity
  8
RACCORDO
100
AcDbLine
 62
7
  6
CONTINUOUS
 10
-22.2836440084
 20
8.462139673
 11
-22.2821871734
 21
8.4734887283
  0
LINE
  5
38E
100
AcDbEntity
  8
RACCORDO
100
AcDbLine
 62
7
  6
CONTINUOUS
 10
-22.2821871734
 20
8.4734887283
 11
-22.2808081286
 21
8.4836364297
  0
LWPOLYLINE
  5
38F
100
AcDbEntity
  8
RACCORDO
100
AcDbPolyline
 62
7
  6
CONTINUOUS
 90
12
 70
0
 10
-22.2808081286
 20
8.4836364297
 10
-22.2795205654
 20
8.4925702239
 10
-22.2789169583
 20
8.4965711289
 10
-22.2783425527
 20
8.500262526
 10
-22.2778034153
 20
8.5036199804
 10
-22.2773012299
 20
8.5066487676
 10
-22.2768385328
 20
8.5093495808
 10
-22.2764236022
 20
8.5116921647
 10
-22.2760589238
 20
8.5136824282
 10
-22.2757478163
 20
8.5153225133
 10
-22.2755011168
 20
8.5165780331
 10
-22.2753834436
 20
8.5171596188
  0
LINE
  5
390
100
AcDbEntity
  8
RACCORDO
100
AcDbLine
 62
250
  6
CONTINUOUS
 10
-22.2490483482
 20
8.6723188343
 11
-22.2275752953
 21
8.708165587
  0
LINE
  5
391
100
AcDbEntity
  8
RACCORDO
100
AcDbLine
 62
250
  6
CONTINUOUS
 10
-21.5449689224
 20
-23.1228528744
 11
21.5449689224
 21
-23.1228528744
  0
LINE
  5
392
100
AcDbEntity
  8
RACCORDO
100
AcDbLine
 62
250
  6
CONTINUOUS
 10
-21.9830469707
 20
-22.8219416656
 11
21.9830469707
 21
-22.8219416656
  0
LINE
  5
393
100
AcDbEntity
  8
RACCORDO
100
AcDbLine
 62
250
  6
CONTINUOUS
 10
21.9279864348
 20
-22.7668811297
 11
-21.9279864348
 21
-22.7668811297
  0
LINE
  5
394
100
AcDbEntity
  8
RACCORDO
100
AcDbLine
 62
250
  6
CONTINUOUS
 10
22.2275752953
 20
-22.4672922693
 11
22.2268900626
 21
-22.4672922693
  0
LINE
  5
395
100
AcDbEntity
  8
RACCORDO
100
AcDbLine
 62
250
  6
CONTINUOUS
 10
-22.2275752953
 20
-22.4672922693
 11
-22.2268900626
 21
-22.4672922693
  0
LINE
  5
396
100
AcDbEntity
  8
ASSI
100
AcDbLine
 62
7
  6
CONTINUOUS
 10
-22.2268900626
 20
-22.4
 11
22.2268900626
 21
-22.4
  0
LWPOLYLINE
  5
397
100
AcDbEntity
  8
RACCORDO
100
AcDbPolyline
 62
7
  6
CONTINUOUS
 90
37
 70
0
 10
21.9279864348
 20
-22.7661958971
 10
-21.9305060659
 20
-22.7661851544
 10
-21.9442059371
 20
-22.7657585442
 10
-21.9578587751
 20
-22.764709269
 10
-21.9714358896
 20
-22.7630410382
 10
-21.9849110462
 20
-22.7607580905
 10
-21.9982591523
 20
-22.7578658272
 10
-22.0114528859
 20
-22.7543707591
 10
-22.0244649896
 20
-22.7502807014
 10
-22.0372705787
 20
-22.7456043337
 10
-22.0498439443
 20
-22.7403511796
 10
-22.0621592807
 20
-22.7345328344
 10
-22.0741917371
 20
-22.7281610723
 10
-22.0859170389
 20
-22.7212494048
 10
-22.0973113968
 20
-22.713812024
 10
-22.1083521008
 20
-22.7058640247
 10
-22.1190168733
 20
-22.6974217834
 10
-22.1292839192
 20
-22.6885023717
 10
-22.139132813
 20
-22.6791240411
 10
-22.1485432885
 20
-22.6693055809
 10
-22.1574964094
 20
-22.6590671499
 10
-22.1659738537
 20
-22.6484291865
 10
-22.1739583351
 20
-22.637413308
 10
-22.1814334829
 20
-22.6260418139
 10
-22.1883839167
 20
-22.6143373268
 10
-22.1947954345
 20
-22.6023236546
 10
-22.200654338
 20
-22.5900249708
 10
-22.2059487483
 20
-22.5774660972
 10
-22.2106670063
 20
-22.5646727938
 10
-22.2147993464
 20
-22.5516707452
 10
-22.2183370717
 20
-22.538484987
 10
-22.2212721077
 20
-22.5251426481
 10
-22.2235979665
 20
-22.5116711042
 10
-22.2253090154
 20
-22.4980958316
 10
-22.2264009967
 20
-22.4844432267
 10
-22.2268701199
 20
-22.4707415889
 10
-22.2268898601
 20
-22.4672922693
  0
LWPOLYLINE
  5
398
100
AcDbEntity
  8
RACCORDO
100
AcDbPolyline
 62
250
  6
CONTINUOUS
 90
46
 70
0
 10
-21.9279864348
 20
-22.7668811297
 10
-21.9383772837
 20
-22.7667494185
 10
-21.9487826592
 20
-22.7662577669
 10
-21.9591900749
 20
-22.765403792
 10
-21.9695918719
 20
-22.7641849772
 10
-21.97997015
 20
-22.7626000472
 10
-21.9902970499
 20
-22.7606506743
 10
-22.0005598521
 20
-22.758337738
 10
-22.0107456644
 20
-22.755662675
 10
-22.0208269962
 20
-22.7526317357
 10
-22.0307898017
 20
-22.7492493303
 10
-22.0406237645
 20
-22.7455192205
 10
-22.0503079666
 20
-22.741449793
 10
-22.0598270193
 20
-22.7370489438
 10
-22.0691739447
 20
-22.7323213936
 10
-22.0783409974
 20
-22.7272719259
 10
-22.0873158465
 20
-22.721908238
 10
-22.0960895855
 20
-22.7162365835
 10
-22.104659302
 20
-22.7102589767
 10
-22.113016721
 20
-22.7039806706
 10
-22.121149162
 20
-22.6974106744
 10
-22.1290469137
 20
-22.6905563483
 10
-22.1367018176
 20
-22.6834241289
 10
-22.1441025608
 20
-22.6760239516
 10
-22.1512355598
 20
-22.6683693765
 10
-22.1580909789
 20
-22.6604715473
 10
-22.1646622226
 20
-22.6523387438
 10
-22.1709415639
 20
-22.6439811295
 10
-22.1769199412
 20
-22.6354115129
 10
-22.1825922058
 20
-22.626638084
 10
-22.1879562767
 20
-22.6176639342
 10
-22.1930058178
 20
-22.6084982307
 10
-22.1977333173
 20
-22.5991530967
 10
-22.2021342876
 20
-22.5896357308
 10
-22.2062040073
 20
-22.5799530747
 10
-22.209934555
 20
-22.5701205305
 10
-22.2133176919
 20
-22.5601584958
 10
-22.2163496406
 20
-22.5500770818
 10
-22.2190258578
 20
-22.5398904908
 10
-22.2213400131
 20
-22.5296262246
 10
-22.2232905994
 20
-22.5192971761
 10
-22.2248766716
 20
-22.5089160505
 10
-22.2260964869
 20
-22.4985107036
 10
-22.226951252
 20
-22.4880990393
 10
-22.2274434161
 20
-22.4776887277
 10
-22.2275752953
 20
-22.4672922693
  0
LINE
  5
399
100
AcDbEntity
  8
RACCORDO
100
AcDbLine
 62
250
  6
CONTINUOUS
 10
-22.2275752953
 20
-8.708165587
 11
-22.2490483482
 21
-8.6723188343
  0
LWPOLYLINE
  5
39A
100
AcDbEntity
  8
RACCORDO
100
AcDbPolyline
 62
7
  6
CONTINUOUS
 90
14
 70
0
 10
-22.2752187218
 20
-8.517951789
 10
-22.275193676
 20
-8.5180626339
 10
-22.2752271135
 20
-8.5179082935
 10
-22.275348983
 20
-8.5173272936
 10
-22.2755441968
 20
-8.5163620141
 10
-22.2758078405
 20
-8.5150105997
 10
-22.276136716
 20
-8.5132636468
 10
-22.2765203052
 20
-8.5111533333
 10
-22.2769551855
 20
-8.5086772253
 10
-22.2774389495
 20
-8.5058280466
 10
-22.277963946
 20
-8.5026315386
 10
-22.2785274342
 20
-8.4990870165
 10
-22.2791279121
 20
-8.4951867586
 10
-22.2797605415
 20
-8.4909457626
  0
LINE
  5
39B
100
AcDbEntity
  8
RACCORDO
100
AcDbLine
 62
7
  6
CONTINUOUS
 10
-22.2797605415
 20
-8.4909457626
 11
-22.2811148561
 21
-8.481430333
  0
LINE
  5
39C
100
AcDbEntity
  8
RACCORDO
100
AcDbLine
 62
7
  6
CONTINUOUS
 10
-22.2811148561
 20
-8.481430333
 11
-22.2825763945
 21
-8.4705192704
  0
LINE
  5
39D
100
AcDbEntity
  8
RACCORDO
100
AcDbLine
 62
7
  6
CONTINUOUS
 10
-22.2825763945
 20
-8.4705192704
 11
-22.2841339299
 21
-8.4581805112
  0
LINE
  5
39E
100
AcDbEntity
  8
RACCORDO
100
AcDbLine
 62
7
  6
CONTINUOUS
 10
-22.2841339299
 20
-8.4581805112
 11
-22.2857778865
 21
-8.444376315
  0
LWPOLYLINE
  5
39F
100
AcDbEntity
  8
RACCORDO
100
AcDbPolyline
 62
250
  6
CONTINUOUS
 90
8
 70
0
 10
-22.281933726
 20
-8.5121722429
 10
-22.284528395
 20
-8.489698475
 10
-22.2870909362
 20
-8.4658789934
 10
-22.2896154969
 20
-8.4407751555
 10
-22.2921015284
 20
-8.4143899604
 10
-22.2945495793
 20
-8.3867204091
 10
-22.296955443
 20
-8.3578188625
 10
-22.2993192207
 20
-8.3276827113
  0
LWPOLYLINE
  5
3A0
100
AcDbEntity
  8
RACCORDO
100
AcDbPolyline
 62
250
  6
CONTINUOUS
 90
4
 70
0
 10
-22.3356641092
 20
22.5215380079
 10
-22.3353745553
 20
22.5189681317
 10
-22.3350806934
 20
22.5164377171
 10
-22.3344788075
 20
22.5114955077
  0
LINE
  5
3A1
100
AcDbEntity
  8
RACCORDO
100
AcDbLine
 62
7
  6
CONTINUOUS
 10
-22.2857778865
 20
-8.444376315
 11
-22.2875007456
 21
-8.4290542475
  0
LWPOLYLINE
  5
3A2
100
AcDbEntity
  8
RACCORDO
100
AcDbPolyline
 62
250
  6
CONTINUOUS
 90
6
 70
0
 10
-22.6233213078
 20
-26.8192614188
 10
-22.6394291215
 20
-26.9689746773
 10
-22.6545487481
 20
-27.1137975488
 10
-22.6684628191
 20
-27.2522689363
 10
-22.6812591268
 20
-27.3857672119
 10
-22.7261589173
 20
-27.8872220951
  0
LINE
  5
3A3
100
AcDbEntity
  8
RACCORDO
100
AcDbLine
 62
250
  6
CONTINUOUS
 10
-22.5245227997
 20
-25.9272425665
 11
-22.5564885951
 21
-26.2183385736
  0
LINE
  5
3A4
100
AcDbEntity
  8
RACCORDO
100
AcDbLine
 62
250
  6
CONTINUOUS
 10
-22.5564885951
 20
-26.2183385736
 11
-22.6233213078
 21
-26.8192614188
  0
LINE
  5
3A5
100
AcDbEntity
  8
RACCORDO
100
AcDbLine
 62
250
  6
CONTINUOUS
 10
-22.3351903549
 20
-22.5008497837
 11
-22.3357557028
 21
-22.5056561589
  0
LWPOLYLINE
  5
3A6
100
AcDbEntity
  8
RACCORDO
100
AcDbPolyline
 62
250
  6
CONTINUOUS
 90
13
 70
0
 10
-22.2055568793
 20
-27.6112964501
 10
-22.2738043173
 20
-27.9772878818
 10
-22.3445221642
 20
-28.347409988
 10
-22.4177104199
 20
-28.7216125604
 10
-22.4936229732
 20
-29.1002737078
 10
-22.5720059354
 20
-29.4829041197
 10
-22.6520976405
 20
-29.868146678
 10
-22.7339317816
 20
-30.2559663485
 10
-22.8174746656
 20
-30.6462669785
 10
-22.9018635475
 20
-31.0375974
 10
-22.9868108457
 20
-31.4294284608
 10
-23.0726041417
 20
-31.8221510333
 10
-23.1592434357
 20
-32.2156939465
  0
LWPOLYLINE
  5
3A7
100
AcDbEntity
  8
RACCORDO
100
AcDbPolyline
 62
250
  6
CONTINUOUS
 90
14
 70
0
 10
-21.9356112394
 20
26.8146773088
 10
-21.7684685091
 20
25.9410641507
 10
-21.7434473583
 20
25.80318883
 10
-21.7197840485
 20
25.6686069009
 10
-21.6980885934
 20
25.5384830989
 10
-21.6785397409
 20
25.4133198216
 10
-21.6609587431
 20
25.2925626754
 10
-21.6454193705
 20
25.1757727914
 10
-21.6319514727
 20
25.0627247291
 10
-21.6205252002
 20
24.9535889479
 10
-21.6111247748
 20
24.8485189679
 10
-21.6037449373
 20
24.7475374803
 10
-21.598390947
 20
24.6505404399
 10
-21.595062804
 20
24.5574845645
  0
LWPOLYLINE
  5
3A8
100
AcDbEntity
  8
RACCORDO
100
AcDbPolyline
 62
250
  6
CONTINUOUS
 90
61
 70
0
 10
-22.3338575279
 20
22.5067119933
 10
-22.3335390339
 20
22.5043799598
 10
-22.3332153084
 20
22.5020880016
 10
-22.3328858699
 20
22.4998377798
 10
-22.3325507063
 20
22.4976289354
 10
-22.3322098298
 20
22.4954618275
 10
-22.331862796
 20
22.4933391951
 10
-22.3315096102
 20
22.4912608318
 10
-22.3311502672
 20
22.489226944
 10
-22.3307843059
 20
22.4872408901
 10
-22.3304117587
 20
22.4853025778
 10
-22.3300325933
 20
22.4834120995
 10
-22.3296462524
 20
22.4815730909
 10
-22.3292527694
 20
22.4797853874
 10
-22.3288521108
 20
22.4780491537
 10
-22.3284436193
 20
22.4763685194
 10
-22.3280273156
 20
22.4747432134
 10
-22.327603179
 20
22.4731735069
 10
-22.3271704896
 20
22.4716643433
 10
-22.3267292851
 20
22.4702154621
 10
-22.3262795277
 20
22.4688271238
 10
-22.3258203841
 20
22.4675050538
 10
-22.3253518856
 20
22.4662489115
 10
-22.3248740008
 20
22.4650590376
 10
-22.3243858021
 20
22.4639421791
 10
-22.3238873402
 20
22.462897976
 10
-22.3233785644
 20
22.4619267883
 10
-22.3228583944
 20
22.4610364432
 10
-22.3223269224
 20
22.4602265234
 10
-22.3217840563
 20
22.4594974462
 10
-22.32122844
 20
22.4588582911
 10
-22.3206601507
 20
22.458308478
 10
-22.3200791112
 20
22.4578485868
 10
-22.3194837337
 20
22.457489437
 10
-22.3188743804
 20
22.4572302209
 10
-22.318250689
 20
22.4570717462
 10
-22.3176099846
 20
22.4570272542
 10
-22.3169525678
 20
22.4570952807
 10
-22.316278138
 20
22.45727729
 10
-22.315583118
 20
22.4575909158
 10
-22.3148640053
 20
22.4580401038
 10
-22.3141243024
 20
22.4586209083
 10
-22.3133709399
 20
22.4593391265
 10
-22.3125994645
 20
22.4602087755
 10
-22.3118143295
 20
22.4612158382
 10
-22.3110358243
 20
22.4623240606
 10
-22.310266003
 20
22.4635395057
 10
-22.3095028116
 20
22.4648561104
 10
-22.3087603775
 20
22.4662194313
 10
-22.3080430908
 20
22.4676226106
 10
-22.3073465613
 20
22.469072506
 10
-22.3066717464
 20
22.4705352465
 10
-22.3060210831
 20
22.4720023053
 10
-22.3053921344
 20
22.4734822092
 10
-22.3047785463
 20
22.4749666669
 10
-22.3041787881
 20
22.4764567624
 10
-22.3035943906
 20
22.4779514118
 10
-22.3030235918
 20
22.4794390722
 10
-22.3024663109
 20
22.4809185857
 10
-22.3019226288
 20
22.4823911103
 10
-22.3008714966
 20
22.4852899854
  0
LINE
  5
3A9
100
AcDbEntity
  8
RACCORDO
100
AcDbLine
 62
250
  6
CONTINUOUS
 10
-22.3344788075
 20
22.5114955077
 11
-22.3338575279
 21
22.5067119933
  0
LINE
  5
3AA
100
AcDbEntity
  8
RACCORDO
100
AcDbLine
 62
250
  6
CONTINUOUS
 10
-23.1592434921
 20
32.2156941335
 11
-23.0811238213
 21
31.5633770157
  0
LWPOLYLINE
  5
3AB
100
AcDbEntity
  8
RACCORDO
100
AcDbPolyline
 62
250
  6
CONTINUOUS
 90
15
 70
0
 10
-23.0811238213
 20
31.5633770157
 10
-23.0040544305
 20
30.9139891549
 10
-22.9660292195
 20
30.5903666092
 10
-22.9286426091
 20
30.2688440302
 10
-22.8919557726
 20
29.949544007
 10
-22.8560053641
 20
29.6323903371
 10
-22.8209957425
 20
29.3183294198
 10
-22.7869657188
 20
29.0073450517
 10
-22.7539614393
 20
28.6994948444
 10
-22.7221745993
 20
28.3958341969
 10
-22.6916599411
 20
28.0965954518
 10
-22.6624280445
 20
27.8015861796
 10
-22.6345777541
 20
27.5112203608
 10
-22.608151771
 20
27.225646945
 10
-22.5831572744
 20
26.9447591643
  0
LINE
  5
3AC
100
AcDbEntity
  8
RACCORDO
100
AcDbLine
 62
250
  6
CONTINUOUS
 10
-21.8624998233
 20
-26.1529283026
 11
-21.9275568878
 21
-26.4210886838
  0
LWPOLYLINE
  5
3AD
100
AcDbEntity
  8
RACCORDO
100
AcDbPolyline
 62
250
  6
CONTINUOUS
 90
9
 70
0
 10
-21.9275568878
 20
-26.4210886838
 10
-21.995941543
 20
-26.6972264131
 10
-22.0299433643
 20
-26.8355946709
 10
-22.0634525511
 20
-26.9737629186
 10
-22.0963951986
 20
-27.1112254015
 10
-22.1272309871
 20
-27.2441509259
 10
-22.1554464768
 20
-27.3712111548
 10
-22.1815551076
 20
-27.4936088929
 10
-22.2055568793
 20
-27.6112964501
  0
LWPOLYLINE
  5
3AE
100
AcDbEntity
  8
RACCORDO
100
AcDbPolyline
 62
250
  6
CONTINUOUS
 90
19
 70
0
 10
-23.1592434447
 20
32.2156939465
 10
-23.0791603849
 20
31.8989558782
 10
-22.9997568099
 20
31.5827593729
 10
-22.9210327195
 20
31.2671646466
 10
-22.8427489488
 20
30.951866617
 10
-22.7651446628
 20
30.6372877382
 10
-22.6889373567
 20
30.3245795365
 10
-22.614168527
 20
30.0138861973
 10
-22.5407966772
 20
29.7051752901
 10
-22.4694148135
 20
29.3993314069
 10
-22.4000419082
 20
29.0963595957
 10
-22.3326589891
 20
28.7963512068
 10
-22.2678021457
 20
28.5003140362
 10
-22.2055452457
 20
28.2084829111
 10
-22.1458144214
 20
27.9206964825
 10
-22.0889241599
 20
27.6373601549
 10
-22.0349792903
 20
27.3586253547
 10
-21.9838749834
 20
27.0843909704
 10
-21.9356112394
 20
26.8146773088
  0
LINE
  5
3AF
100
AcDbEntity
  8
RACCORDO
100
AcDbLine
 62
250
  6
CONTINUOUS
 10
22.2275752953
 20
-8.708165587
 11
22.2268900626
 21
-8.708165587
  0
LINE
  5
3B0
100
AcDbEntity
  8
RACCORDO
100
AcDbLine
 62
250
  6
CONTINUOUS
 10
-22.2268900626
 20
-8.708165587
 11
-22.2275752953
 21
-8.708165587
  0
LINE
  5
3B1
100
AcDbEntity
  8
DRAFT
100
AcDbLine
 62
7
  6
CONTINUOUS
 10
-22.3149550746
 20
-8.05
 11
-22.2
 21
-8.05
  0
LINE
  5
3B2
100
AcDbEntity
  8
DRAFT
100
AcDbLine
 62
7
  6
CONTINUOUS
 10
22.2
 20
-8.05
 11
22.314956098
 21
-8.05
  0
LINE
  5
3B3
100
AcDbEntity
  8
RACCORDO
100
AcDbLine
 62
250
  6
CONTINUOUS
 10
22.3168237993
 20
-8.0124192945
 11
22.2
 21
-8.0124192945
  0
LINE
  5
3B4
100
AcDbEntity
  8
RACCORDO
100
AcDbLine
 62
250
  6
CONTINUOUS
 10
-22.2
 20
-8.0124192945
 11
-22.3168230496
 21
-8.0124192945
  0
LWPOLYLINE
  5
3B5
100
AcDbEntity
  8
RACCORDO
100
AcDbPolyline
 62
250
  6
CONTINUOUS
 90
3
 70
0
 10
-22.3447090367
 20
-6.7185976259
 10
-22.3440528487
 20
-6.7181948561
 10
-22.3440240608
 20
-6.718090903
  0
LINE
  5
3B6
100
AcDbEntity
  8
RACCORDO
100
AcDbLine
 62
250
  6
CONTINUOUS
 10
22.344182154
 20
-6.5427578071
 11
22.2
 21
-6.5427578071
  0
LINE
  5
3B7
100
AcDbEntity
  8
RACCORDO
100
AcDbLine
 62
250
  6
CONTINUOUS
 10
-22.2
 20
-6.5427578071
 11
-22.3441821717
 21
-6.5427578071
  0
LWPOLYLINE
  5
3B8
100
AcDbEntity
  8
RACCORDO
100
AcDbPolyline
 62
250
  6
CONTINUOUS
 90
3
 70
0
 10
-22.344709086
 20
6.7185976259
 10
-22.3440528923
 20
6.7181948561
 10
-22.344024103
 20
6.718090903
  0
LINE
  5
3B9
100
AcDbEntity
  8
RACCORDO
100
AcDbLine
 62
250
  6
CONTINUOUS
 10
21.9279864348
 20
22.7668811297
 11
21.9822874572
 21
22.8211821521
  0
LINE
  5
3BA
100
AcDbEntity
  8
RACCORDO
100
AcDbLine
 62
250
  6
CONTINUOUS
 10
22.2275752953
 20
22.4672922693
 11
22.2818763176
 21
22.5215932916
  0
LINE
  5
3BB
100
AcDbEntity
  8
RACCORDO
100
AcDbLine
 62
250
  6
CONTINUOUS
 10
-22.2275752953
 20
-22.4672922693
 11
-22.2826358311
 21
-22.5223528051
  0
LWPOLYLINE
  5
3BC
100
AcDbEntity
  8
RACCORDO
100
AcDbPolyline
 62
250
  6
CONTINUOUS
 90
43
 70
0
 10
22.2818763176
 20
22.5215932916
 10
22.2820910485
 20
22.5217945999
 10
22.2823078784
 20
22.521970151
 10
22.2825268072
 20
22.522119945
 10
22.2827477711
 20
22.5222441122
 10
22.2829708338
 20
22.5223425223
 10
22.283196187
 20
22.5224147839
 10
22.2834238257
 20
22.522460921
 10
22.2836537547
 20
22.5224809096
 10
22.2838861808
 20
22.5224742859
 10
22.2841210978
 20
22.5224410721
 10
22.2843585119
 20
22.522381246
 10
22.2845986474
 20
22.5222942768
 10
22.2848414997
 20
22.5221801802
 10
22.2850870734
 20
22.5220389406
 10
22.2853356073
 20
22.5218699799
 10
22.2855870989
 20
22.521673303
 10
22.2858415506
 20
22.5214489052
 10
22.2860992081
 20
22.5211961946
 10
22.2863600628
 20
22.5209151722
 10
22.2866241234
 20
22.5206058371
 10
22.2868916616
 20
22.5202675944
 10
22.2871626604
 20
22.5199004533
 10
22.2874371368
 20
22.5195044045
 10
22.2877154145
 20
22.5190788252
 10
22.2879974848
 20
22.5186237058
 10
22.2882833563
 20
22.5181390558
 10
22.2885733781
 20
22.5176242812
 10
22.2888675445
 20
22.5170793497
 10
22.2891658611
 20
22.5165042937
 10
22.2894686941
 20
22.5158986163
 10
22.2897760283
 20
22.5152622847
 10
22.290087879
 20
22.5145953318
 10
22.2904046575
 20
22.5138973592
 10
22.2907263648
 20
22.5131682737
 10
22.2910529999
 20
22.5124081686
 10
22.2913849721
 20
22.5116169253
 10
22.2917222845
 20
22.510794407
 10
22.292064934
 20
22.5099407505
 10
22.2924133203
 20
22.509056247
 10
22.2927673911
 20
22.5081408743
 10
22.2931271988
 20
22.5071946547
 10
22.2934932998
 20
22.5062179459
  0
LWPOLYLINE
  5
3BD
100
AcDbEntity
  8
RACCORDO
100
AcDbPolyline
 62
250
  6
CONTINUOUS
 90
19
 70
0
 10
21.9830469707
 20
-22.8219416656
 10
21.9833578409
 20
-22.8222041652
 10
21.983533646
 20
-22.8225106798
 10
21.9835743858
 20
-22.8228658154
 10
21.9834958151
 20
-22.8232743218
 10
21.9832821793
 20
-22.8237413153
 10
21.9828862144
 20
-22.8242723508
 10
21.9823076606
 20
-22.8248733781
 10
21.9815467778
 20
-22.8255498553
 10
21.9805570825
 20
-22.8263067925
 10
21.9793394548
 20
-22.8271495817
 10
21.9778930145
 20
-22.8280849529
 10
21.9761686377
 20
-22.8291201797
 10
21.9741676486
 20
-22.830261867
 10
21.9718887229
 20
-22.8315171264
 10
21.9692787645
 20
-22.8328947319
 10
21.9663387113
 20
-22.8344024384
 10
21.9630676254
 20
-22.8360480109
 10
21.9594095971
 20
-22.8378410635
  0
LINE
  5
3BE
100
AcDbEntity
  8
RACCORDO
100
AcDbLine
 62
250
  6
CONTINUOUS
 10
21.9830469707
 20
-22.8219416656
 11
21.9279864348
 21
-22.7668811297
  0
LINE
  5
3BF
100
AcDbEntity
  8
RACCORDO
100
AcDbLine
 62
250
  6
CONTINUOUS
 10
22.2826358311
 20
-22.5223528051
 11
22.2275752953
 21
-22.4672922693
  0
LINE
  5
3C0
100
AcDbEntity
  8
RACCORDO
100
AcDbLine
 62
250
  6
CONTINUOUS
 10
-22.2818763176
 20
22.5215932916
 11
-22.2275752953
 21
22.4672922693
  0
LINE
  5
3C1
100
AcDbEntity
  8
RACCORDO
100
AcDbLine
 62
250
  6
CONTINUOUS
 10
-21.9279864348
 20
-22.7668811297
 11
-21.9830469707
 21
-22.8219416656
  0
LWPOLYLINE
  5
3C2
100
AcDbEntity
  8
RACCORDO
100
AcDbPolyline
 62
250
  6
CONTINUOUS
 90
43
 70
0
 10
-22.2826358311
 20
-22.5223528051
 10
-22.2828443258
 20
-22.5225478373
 10
-22.2830548201
 20
-22.5227168421
 10
-22.2832673141
 20
-22.5228598195
 10
-22.2834817443
 20
-22.5229769188
 10
-22.2836981741
 20
-22.5230679908
 10
-22.283916794
 20
-22.5231325871
 10
-22.2841375988
 20
-22.5231707394
 10
-22.2843605937
 20
-22.5231824162
 10
-22.2845859847
 20
-22.523167075
 10
-22.2848137664
 20
-22.5231247448
 10
-22.2850439442
 20
-22.5230553967
 10
-22.28527674
 20
-22.5229584014
 10
-22.2855121493
 20
-22.5228337819
 10
-22.2857501767
 20
-22.5226815152
 10
-22.2859910577
 20
-22.5225009031
 10
-22.2862347898
 20
-22.5222919579
 10
-22.2864813755
 20
-22.5220546673
 10
-22.2867310579
 20
-22.5217882958
 10
-22.2869838301
 20
-22.5214928508
 10
-22.2872396991
 20
-22.5211683249
 10
-22.2874989289
 20
-22.520813961
 10
-22.2877614988
 20
-22.520429785
 10
-22.2880274295
 20
-22.5200157709
 10
-22.2882970476
 20
-22.5195710842
 10
-22.2885703442
 20
-22.5190957295
 10
-22.2888473282
 20
-22.518589702
 10
-22.289128352
 20
-22.5180521535
 10
-22.2894134111
 20
-22.5174830631
 10
-22.2897025101
 20
-22.5168824516
 10
-22.2899960157
 20
-22.5162495324
 10
-22.2902939153
 20
-22.5155842818
 10
-22.2905962216
 20
-22.5148867235
 10
-22.290903339
 20
-22.5141561428
 10
-22.2912152645
 20
-22.5133924692
 10
-22.2915320011
 20
-22.5125957732
 10
-22.291853963
 20
-22.5117655518
 10
-22.2921811556
 20
-22.5109016755
 10
-22.2925135736
 20
-22.5100042737
 10
-22.292851615
 20
-22.509073232
 10
-22.2931952233
 20
-22.5081085668
 10
-22.2935444551
 20
-22.5071102615
 10
-22.2938998779
 20
-22.5060781526
  0
LWPOLYLINE
  5
3C3
100
AcDbEntity
  8
RACCORDO
100
AcDbPolyline
 62
250
  6
CONTINUOUS
 90
20
 70
0
 10
-21.9830469707
 20
-22.8219416656
 10
-21.9833578322
 20
-22.8222041547
 10
-21.9835336374
 20
-22.8225106567
 10
-21.9835743862
 20
-22.8228657777
 10
-21.9834958336
 20
-22.8232742673
 10
-21.9832822246
 20
-22.8237412418
 10
-21.9828862944
 20
-22.8242722563
 10
-21.9823077838
 20
-22.8248732608
 10
-21.981546952
 20
-22.8255497134
 10
-21.9805573121
 20
-22.826306625
 10
-21.9793397435
 20
-22.8271493885
 10
-21.9778933668
 20
-22.8280847338
 10
-21.976169057
 20
-22.8291199336
 10
-21.9741681386
 20
-22.8302615924
 10
-21.971889287
 20
-22.8315168227
 10
-21.9692794031
 20
-22.8328943987
 10
-21.9663394251
 20
-22.8344020757
 10
-21.9630684148
 20
-22.836047619
 10
-21.9594104589
 20
-22.8378406435
 10
-21.9509351733
 20
-22.8419034939
  0
LINE
  5
3C4
100
AcDbEntity
  8
RACCORDO
100
AcDbLine
 62
250
  6
CONTINUOUS
 10
-21.9822874572
 20
22.8211821521
 11
-21.9279864348
 21
22.7668811297
  0
LWPOLYLINE
  5
3C5
100
AcDbEntity
  8
RACCORDO
100
AcDbPolyline
 62
250
  6
CONTINUOUS
 90
3
 70
0
 10
22.3447090367
 20
6.7185976259
 10
22.3440528487
 20
6.7181948561
 10
22.3440240608
 20
6.718090903
  0
LINE
  5
3C6
100
AcDbEntity
  8
RACCORDO
100
AcDbLine
 62
250
  6
CONTINUOUS
 10
-22.344182154
 20
6.5427578071
 11
-22.2
 21
6.5427578071
  0
LINE
  5
3C7
100
AcDbEntity
  8
RACCORDO
100
AcDbLine
 62
250
  6
CONTINUOUS
 10
22.2
 20
6.5427578071
 11
22.3441821717
 21
6.5427578071
  0
LINE
  5
3C8
100
AcDbEntity
  8
RACCORDO
100
AcDbLine
 62
250
  6
CONTINUOUS
 10
-22.3168238065
 20
8.0124192945
 11
-22.2
 21
8.0124192945
  0
LINE
  5
3C9
100
AcDbEntity
  8
RACCORDO
100
AcDbLine
 62
250
  6
CONTINUOUS
 10
22.2
 20
8.0124192945
 11
22.316823056
 21
8.0124192945
  0
LINE
  5
3CA
100
AcDbEntity
  8
DRAFT
100
AcDbLine
 62
7
  6
CONTINUOUS
 10
-22.3149560831
 20
8.05
 11
-22.2
 21
8.05
  0
LINE
  5
3CB
100
AcDbEntity
  8
DRAFT
100
AcDbLine
 62
7
  6
CONTINUOUS
 10
22.2
 20
8.05
 11
22.3149550602
 21
8.05
  0
LWPOLYLINE
  5
3CC
100
AcDbEntity
  8
RACCORDO
100
AcDbPolyline
 62
250
  6
CONTINUOUS
 90
3
 70
0
 10
22.3447091204
 20
-6.7185976259
 10
22.3440529235
 20
-6.718194856
 10
22.3440241334
 20
-6.7180909031
  0
LINE
  5
3CD
100
AcDbEntity
  8
RACCORDO
100
AcDbLine
 62
250
  6
CONTINUOUS
 10
-22.2275752953
 20
8.708165587
 11
-22.2268900626
 21
8.708165587
  0
LINE
  5
3CE
100
AcDbEntity
  8
RACCORDO
100
AcDbLine
 62
250
  6
CONTINUOUS
 10
22.2268900626
 20
8.708165587
 11
22.2275752953
 21
8.708165587
  0
LINE
  5
3CF
100
AcDbEntity
  8
RACCORDO
100
AcDbLine
 62
250
  6
CONTINUOUS
 10
21.9959415431
 20
-26.6972264131
 11
21.9275568875
 21
-26.4210886838
  0
LWPOLYLINE
  5
3D0
100
AcDbEntity
  8
RACCORDO
100
AcDbPolyline
 62
250
  6
CONTINUOUS
 90
18
 70
0
 10
21.9275568875
 20
-26.4210886838
 10
21.8624998233
 20
-26.1529283026
 10
21.8319390059
 20
-26.0230608167
 10
21.8031426859
 20
-25.8968030138
 10
21.7759380475
 20
-25.773822439
 10
21.7506462581
 20
-25.6545213027
 10
21.7273682347
 20
-25.5390737191
 10
21.7060030604
 20
-25.4272680138
 10
21.6865691517
 20
-25.3189193823
 10
21.6690999071
 20
-25.2140362765
 10
21.6535619281
 20
-25.1125622119
 10
21.6398734358
 20
-25.0142180304
 10
21.628044848
 20
-24.9189611362
 10
21.6180657469
 20
-24.8267829496
 10
21.6098230998
 20
-24.737460284
 10
21.6032792292
 20
-24.6509025343
 10
21.5984718126
 20
-24.5671481847
 10
21.5954008501
 20
-24.4861693314
  0
LWPOLYLINE
  5
3D1
100
AcDbEntity
  8
RACCORDO
100
AcDbPolyline
 62
250
  6
CONTINUOUS
 90
13
 70
0
 10
23.1592434357
 20
-32.2156939465
 10
23.0726041418
 20
-31.8221510333
 10
22.9868108457
 20
-31.4294284608
 10
22.9018635475
 20
-31.0375974
 10
22.8174746656
 20
-30.6462669785
 10
22.7339317816
 20
-30.2559663485
 10
22.6520976405
 20
-29.868146678
 10
22.5720059354
 20
-29.4829041197
 10
22.4936229732
 20
-29.1002737078
 10
22.4177104199
 20
-28.7216125604
 10
22.3445221642
 20
-28.347409988
 10
22.2738043173
 20
-27.9772878818
 10
22.2055568793
 20
-27.6112964501
  0
LWPOLYLINE
  5
3D2
100
AcDbEntity
  8
RACCORDO
100
AcDbPolyline
 62
250
  6
CONTINUOUS
 90
8
 70
0
 10
22.2055568793
 20
-27.6112964501
 10
22.1815551078
 20
-27.4936088928
 10
22.1554464772
 20
-27.3712111548
 10
22.1272309876
 20
-27.2441509258
 10
22.0963951991
 20
-27.1112254014
 10
22.0634525515
 20
-26.9737629185
 10
22.0299433647
 20
-26.8355946708
 10
21.9959415431
 20
-26.6972264131
  0
LINE
  5
3D3
100
AcDbEntity
  8
RACCORDO
100
AcDbLine
 62
250
  6
CONTINUOUS
 10
22.336563055
 20
-22.5130701019
 11
22.3360225219
 21
-22.5080334731
  0
LINE
  5
3D4
100
AcDbEntity
  8
RACCORDO
100
AcDbLine
 62
250
  6
CONTINUOUS
 10
23.1592434918
 20
-32.2156942002
 11
23.0750283675
 21
-31.4110785421
  0
LWPOLYLINE
  5
3D5
100
AcDbEntity
  8
RACCORDO
100
AcDbPolyline
 62
250
  6
CONTINUOUS
 90
10
 70
0
 10
23.0750283675
 20
-31.4110785421
 10
22.9921109825
 20
-30.6105881262
 10
22.9512880005
 20
-30.2118535981
 10
22.9112418545
 20
-29.815849047
 10
22.872039475
 20
-29.4226445573
 10
22.8337380493
 20
-29.0322246279
 10
22.7966020438
 20
-28.6460087007
 10
22.7607459292
 20
-28.2644858217
 10
22.7261589334
 20
-27.8872221684
 10
22.6812591323
 20
-27.3857673847
  0
LINE
  5
3D6
100
AcDbEntity
  8
RACCORDO
100
AcDbLine
 62
250
  6
CONTINUOUS
 10
22.3370868577
 20
-22.51825101
 11
22.336563055
 21
-22.5130701019
  0
LWPOLYLINE
  5
3D7
100
AcDbEntity
  8
RACCORDO
100
AcDbPolyline
 62
250
  6
CONTINUOUS
 90
6
 70
0
 10
22.6812591323
 20
-27.3857673847
 10
22.6684628178
 20
-27.2522690045
 10
22.6545487365
 20
-27.1137974371
 10
22.6394291057
 20
-26.9689744922
 10
22.623321293
 20
-26.8192612553
 10
22.6067959535
 20
-26.6689232931
  0
LINE
  5
3D8
100
AcDbEntity
  8
RACCORDO
100
AcDbLine
 62
250
  6
CONTINUOUS
 10
22.337593305
 20
-22.5235583706
 11
22.3370868577
 21
-22.51825101
  0
LINE
  5
3D9
100
AcDbEntity
  8
RACCORDO
100
AcDbLine
 62
250
  6
CONTINUOUS
 10
22.3380818641
 20
-22.5289711302
 11
22.337593305
 21
-22.5235583706
  0
LINE
  5
3DA
100
AcDbEntity
  8
RACCORDO
100
AcDbLine
 62
250
  6
CONTINUOUS
 10
22.3385524061
 20
-22.5344773328
 11
22.3380818641
 21
-22.5289711302
  0
LINE
  5
3DB
100
AcDbEntity
  8
RACCORDO
100
AcDbLine
 62
250
  6
CONTINUOUS
 10
22.3392247695
 20
-22.5428777678
 11
22.3385524061
 21
-22.5344773328
  0
LWPOLYLINE
  5
3DC
100
AcDbEntity
  8
RACCORDO
100
AcDbPolyline
 62
250
  6
CONTINUOUS
 90
3
 70
0
 10
22.3400612925
 20
-22.5542909241
 10
22.3398584165
 20
-22.5514190241
 10
22.3392247695
 20
-22.5428777678
  0
LINE
  5
3DD
100
AcDbEntity
  8
RACCORDO
100
AcDbLine
 62
250
  6
CONTINUOUS
 10
21.5599664446
 20
-23.4687456541
 11
21.5449689123
 21
-23.1228528744
  0
LWPOLYLINE
  5
3DE
100
AcDbEntity
  8
RACCORDO
100
AcDbPolyline
 62
250
  6
CONTINUOUS
 90
3
 70
0
 10
21.5771560792
 20
-23.9199042169
 10
21.5738603516
 20
-23.8280939863
 10
21.5599664446
 20
-23.4687456541
  0
LWPOLYLINE
  5
3DF
100
AcDbEntity
  8
RACCORDO
100
AcDbPolyline
 62
250
  6
CONTINUOUS
 90
15
 70
0
 10
21.595062804
 20
24.5574845645
 10
21.5983909463
 20
24.65054044
 10
21.6037449362
 20
24.7475374804
 10
21.6111247736
 20
24.8485189679
 10
21.6205251995
 20
24.9535889479
 10
21.6319514729
 20
25.0627247291
 10
21.6454193713
 20
25.1757727914
 10
21.6609587437
 20
25.2925626753
 10
21.678539741
 20
25.4133198215
 10
21.6980885932
 20
25.5384830989
 10
21.7197840483
 20
25.6686069009
 10
21.7434473583
 20
25.80318883
 10
21.7684685091
 20
25.9410641507
 10
21.7950248591
 20
26.0825443031
 10
21.9356112394
 20
26.8146773088
  0
LINE
  5
3E0
100
AcDbEntity
  8
RACCORDO
100
AcDbLine
 62
250
  6
CONTINUOUS
 10
21.5566268979
 20
23.4047739173
 11
21.5706885968
 21
23.776348706
  0
LINE
  5
3E1
100
AcDbEntity
  8
RACCORDO
100
AcDbLine
 62
250
  6
CONTINUOUS
 10
21.5452962797
 20
23.1354170168
 11
21.5566268979
 21
23.4047739173
  0
LWPOLYLINE
  5
3E2
100
AcDbEntity
  8
RACCORDO
100
AcDbPolyline
 62
250
  6
CONTINUOUS
 90
40
 70
0
 10
21.5452963257
 20
23.1354170168
 10
21.5450424956
 20
23.1314995293
 10
21.5450018493
 20
23.1274755135
 10
21.5451743867
 20
23.1233469931
 10
21.5455359643
 20
23.1191337058
 10
21.5461107255
 20
23.1148200323
 10
21.5469711014
 20
23.1103559863
 10
21.5481188072
 20
23.1057217796
 10
21.5495521276
 20
23.1009443753
 10
21.5513383481
 20
23.0960447264
 10
21.5534828689
 20
23.0910275906
 10
21.5559802897
 20
23.0858954339
 10
21.558881695
 20
23.0806653621
 10
21.5621938905
 20
23.075342309
 10
21.5659100706
 20
23.0699288818
 10
21.5700609022
 20
23.0644383682
 10
21.5746527497
 20
23.0588770029
 10
21.5796792488
 20
23.0532464504
 10
21.5851519741
 20
23.0475530456
 10
21.5910698989
 20
23.0418084201
 10
21.5974340499
 20
23.0360094545
 10
21.6042590824
 20
23.0301411764
 10
21.6115344947
 20
23.0242202351
 10
21.6192707886
 20
23.0182407132
 10
21.6275141242
 20
23.0121567633
 10
21.6362632399
 20
23.0059803515
 10
21.6455193973
 20
22.9997160728
 10
21.6553325414
 20
22.9933123536
 10
21.6657499957
 20
22.9867596506
 10
21.6767244367
 20
22.9800934575
 10
21.6881638394
 20
22.9733331609
 10
21.7000668122
 20
22.9665023419
 10
21.7124347466
 20
22.9596054765
 10
21.7251797924
 20
22.9526354473
 10
21.7383163814
 20
22.9456096266
 10
21.7518300817
 20
22.9385464579
 10
21.7655897474
 20
22.9314448387
 10
21.7797586243
 20
22.9242405556
 10
21.7941734666
 20
22.917048023
 10
21.8217944638
 20
22.9034550534
  0
LINE
  5
3E3
100
AcDbEntity
  8
RACCORDO
100
AcDbLine
 62
250
  6
CONTINUOUS
 10
22.339257357
 20
22.5609614303
 11
22.3399140285
 21
22.5699844286
  0
LINE
  5
3E4
100
AcDbEntity
  8
RACCORDO
100
AcDbLine
 62
250
  6
CONTINUOUS
 10
22.338561671
 20
22.552094708
 11
22.339257357
 21
22.5609614303
  0
LINE
  5
3E5
100
AcDbEntity
  8
RACCORDO
100
AcDbLine
 62
250
  6
CONTINUOUS
 10
22.3380753603
 20
22.5462839444
 11
22.338561671
 21
22.552094708
  0
LWPOLYLINE
  5
3E6
100
AcDbEntity
  8
RACCORDO
100
AcDbPolyline
 62
250
  6
CONTINUOUS
 90
14
 70
0
 10
22.5460778291
 20
26.5069212024
 10
22.5831572562
 20
26.9447590806
 10
22.6081517594
 20
27.2256468961
 10
22.6345777556
 20
27.5112203771
 10
22.662428051
 20
27.8015862195
 10
22.6916599459
 20
28.0965954811
 10
22.7221746005
 20
28.3958342068
 10
22.7539614391
 20
28.6994948472
 10
22.7869657191
 20
29.007345057
 10
22.8209957433
 20
29.3183294282
 10
22.8560053644
 20
29.6323903431
 10
22.8919557723
 20
29.9495440098
 10
22.9286426099
 20
30.2688440361
 10
22.9660292237
 20
30.5903666272
  0
LINE
  5
3E7
100
AcDbEntity
  8
RACCORDO
100
AcDbLine
 62
250
  6
CONTINUOUS
 10
22.4779014176
 20
25.7173401385
 11
22.5044633907
 21
26.0286694162
  0
LINE
  5
3E8
100
AcDbEntity
  8
RACCORDO
100
AcDbLine
 62
250
  6
CONTINUOUS
 10
22.5044633907
 20
26.0286694162
 11
22.5460778291
 21
26.5069212024
  0
LINE
  5
3E9
100
AcDbEntity
  8
RACCORDO
100
AcDbLine
 62
250
  6
CONTINUOUS
 10
22.3375705966
 20
22.5405664544
 11
22.3380753603
 21
22.5462839444
  0
LINE
  5
3EA
100
AcDbEntity
  8
RACCORDO
100
AcDbLine
 62
250
  6
CONTINUOUS
 10
22.3370477473
 20
22.5349616399
 11
22.3375705966
 21
22.5405664544
  0
LINE
  5
3EB
100
AcDbEntity
  8
RACCORDO
100
AcDbLine
 62
250
  6
CONTINUOUS
 10
22.3365070573
 20
22.5294814643
 11
22.3370477473
 21
22.5349616399
  0
LINE
  5
3EC
100
AcDbEntity
  8
RACCORDO
100
AcDbLine
 62
250
  6
CONTINUOUS
 10
22.3359491241
 20
22.5241450585
 11
22.3365070573
 21
22.5294814643
  0
LINE
  5
3ED
100
AcDbEntity
  8
RACCORDO
100
AcDbLine
 62
250
  6
CONTINUOUS
 10
22.3353739961
 20
22.5189632641
 11
22.3359491241
 21
22.5241450585
  0
LINE
  5
3EE
100
AcDbEntity
  8
RACCORDO
100
AcDbLine
 62
250
  6
CONTINUOUS
 10
22.9660292237
 20
30.5903666272
 11
23.0424604509
 21
31.2384680568
  0
LWPOLYLINE
  5
3EF
100
AcDbEntity
  8
RACCORDO
100
AcDbPolyline
 62
250
  6
CONTINUOUS
 90
3
 70
0
 10
23.0424604509
 20
31.2384680568
 10
23.1200668692
 20
31.8891186364
 10
23.1592434921
 20
32.2156941335
  0
LINE
  5
3F0
100
AcDbEntity
  8
RACCORDO
100
AcDbLine
 62
250
  6
CONTINUOUS
 10
22.3347812922
 20
22.5139402347
 11
22.3353739961
 21
22.5189632641
  0
LWPOLYLINE
  5
3F1
100
AcDbEntity
  8
RACCORDO
100
AcDbPolyline
 62
250
  6
CONTINUOUS
 90
19
 70
0
 10
21.9356112394
 20
26.8146773088
 10
21.9838749835
 20
27.0843909704
 10
22.0349792903
 20
27.3586253547
 10
22.08892416
 20
27.6373601549
 10
22.1458144214
 20
27.9206964825
 10
22.2055452457
 20
28.2084829111
 10
22.2678021457
 20
28.5003140362
 10
22.3326589891
 20
28.7963512068
 10
22.4000419082
 20
29.0963595958
 10
22.4694148135
 20
29.3993314069
 10
22.5407966772
 20
29.7051752902
 10
22.614168527
 20
30.0138861973
 10
22.6889373567
 20
30.3245795365
 10
22.7651446628
 20
30.6372877383
 10
22.8427489488
 20
30.951866617
 10
22.9210327195
 20
31.2671646466
 10
22.9997568099
 20
31.582759373
 10
23.0791603849
 20
31.8989558782
 10
23.1592434447
 20
32.2156939465
  0
LWPOLYLINE
  5
3F2
100
AcDbEntity
  8
RACCORDO
100
AcDbPolyline
 62
250
  6
CONTINUOUS
 90
60
 70
0
 10
22.3343008866
 20
-22.4938795095
 10
22.3339983922
 20
-22.4916637184
 10
22.3336907576
 20
-22.4894891496
 10
22.3333779512
 20
-22.4873552417
 10
22.3330600048
 20
-22.4852625561
 10
22.3327364691
 20
-22.4832131748
 10
22.332407334
 20
-22.4812067866
 10
22.3320726097
 20
-22.4792437028
 10
22.3317318781
 20
-22.4773269392
 10
22.331385176
 20
-22.4754564426
 10
22.3310324667
 20
-22.4736322662
 10
22.3306732214
 20
-22.4718575859
 10
22.3303074616
 20
-22.4701321994
 10
22.3299351658
 20
-22.468456309
 10
22.3295557413
 20
-22.4668336968
 10
22.3291692192
 20
-22.4652641522
 10
22.3287755684
 20
-22.4637478859
 10
22.3283741028
 20
-22.4622893115
 10
22.3279648412
 20
-22.4608881295
 10
22.3275477647
 20
-22.4595446395
 10
22.3271221304
 20
-22.4582641542
 10
22.326687994
 20
-22.4570464196
 10
22.3262452997
 20
-22.4558916897
 10
22.3257931375
 20
-22.4548060396
 10
22.3253315399
 20
-22.4537890721
 10
22.3248604745
 20
-22.4528411843
 10
22.3243789342
 20
-22.4519696427
 10
22.3238869866
 20
-22.4511740362
 10
22.3233845641
 20
-22.450454776
 10
22.3228704578
 20
-22.449820362
 10
22.3223447536
 20
-22.4492702703
 10
22.3218073656
 20
-22.4488050249
 10
22.3212568277
 20
-22.4484346978
 10
22.3206933243
 20
-22.4481585862
 10
22.3201166709
 20
-22.4479773929
 10
22.3195248476
 20
-22.4479032987
 10
22.3189180511
 20
-22.4479352575
 10
22.3182960846
 20
-22.4480743153
 10
22.3176563383
 20
-22.4483357912
 10
22.3169991704
 20
-22.4487181462
 10
22.3163242226
 20
-22.4492229193
 10
22.3156278106
 20
-22.4498700472
 10
22.3149058892
 20
-22.4506663069
 10
22.3141625036
 20
-22.4516049214
 10
22.3134061042
 20
-22.4526854964
 10
22.3126321482
 20
-22.4539252548
 10
22.3118451784
 20
-22.4553069736
 10
22.3110672733
 20
-22.4567785903
 10
22.3103012944
 20
-22.4583434321
 10
22.3095443801
 20
-22.4599981716
 10
22.3088100251
 20
-22.4616807641
 10
22.3081029513
 20
-22.4633806251
 10
22.3074184366
 20
-22.4651083391
 10
22.30675581
 20
-22.4668336149
 10
22.3061170791
 20
-22.4685476173
 10
22.3055002363
 20
-22.4702591815
 10
22.3048985863
 20
-22.471964522
 10
22.3043103341
 20
-22.4736662
 10
22.3037372748
 20
-22.4753616542
 10
22.3026329839
 20
-22.4786976115
  0
LINE
  5
3F3
100
AcDbEntity
  8
RACCORDO
100
AcDbLine
 62
250
  6
CONTINUOUS
 10
22.3348921185
 20
-22.4984334159
 11
22.3343008866
 21
-22.4938795095
  0
LINE
  5
3F4
100
AcDbEntity
  8
RACCORDO
100
AcDbLine
 62
250
  6
CONTINUOUS
 10
22.335465451
 20
-22.5031505156
 11
22.3348921185
 21
-22.4984334159
  0
LINE
  5
3F5
100
AcDbEntity
  8
RACCORDO
100
AcDbLine
 62
250
  6
CONTINUOUS
 10
22.3360225219
 20
-22.5080334731
 11
22.335465451
 21
-22.5031505156
  0
LWPOLYLINE
  5
3F6
100
AcDbEntity
  8
RACCORDO
100
AcDbPolyline
 62
250
  6
CONTINUOUS
 90
19
 70
0
 10
22.6067959535
 20
-26.6689232931
 10
22.5402666826
 20
-26.0717625539
 10
22.5245227859
 20
-25.9272424359
 10
22.5095130279
 20
-25.7863637839
 10
22.4953408562
 20
-25.6494886064
 10
22.4820168758
 20
-25.5162190518
 10
22.4696233323
 20
-25.3869846106
 10
22.4582041005
 20
-25.2619913892
 10
22.4477535172
 20
-25.1410041637
 10
22.4382614001
 20
-25.023786735
 10
22.4297326083
 20
-24.9103679971
 10
22.4221610099
 20
-24.8006993035
 10
22.4155176289
 20
-24.6944303216
 10
22.409792224
 20
-24.5915386712
 10
22.4049730801
 20
-24.4920326731
 10
22.401032734
 20
-24.3956110132
 10
22.3979520624
 20
-24.3021692476
 10
22.3957164333
 20
-24.2118021283
 10
22.3943042865
 20
-24.1245085582
  0
LINE
  5
3F7
100
AcDbEntity
  8
RACCORDO
100
AcDbLine
 62
7
  6
CONTINUOUS
 10
22.2875006961
 20
8.4290546986
 11
22.2892948503
 21
8.4121651701
  0
LINE
  5
3F8
100
AcDbEntity
  8
RACCORDO
100
AcDbLine
 62
7
  6
CONTINUOUS
 10
22.2892948503
 20
8.4121651701
 11
22.2911525538
 21
8.3936654098
  0
LWPOLYLINE
  5
3F9
100
AcDbEntity
  8
RACCORDO
100
AcDbPolyline
 62
250
  6
CONTINUOUS
 90
46
 70
0
 10
22.3441999195
 20
22.6507483452
 10
22.3426077784
 20
22.6672334349
 10
22.3400950251
 20
22.6836983788
 10
22.3366645559
 20
22.7001241813
 10
22.3323203088
 20
22.7164915291
 10
22.3270673116
 20
22.7327818991
 10
22.3209116808
 20
22.7489775688
 10
22.3138605417
 20
22.7650601843
 10
22.3059220178
 20
22.7810108285
 10
22.2971052771
 20
22.7968111205
 10
22.2874205009
 20
22.8124428474
 10
22.2768788698
 20
22.8278879301
 10
22.2654925529
 20
22.84312848
 10
22.2532746974
 20
22.8581469164
 10
22.2402394095
 20
22.8729258836
 10
22.2264017358
 20
22.8874482171
 10
22.2117776523
 20
22.9016971267
 10
22.196384045
 20
22.9156561854
 10
22.1802386861
 20
22.929309247
 10
22.1633602149
 20
22.9426404964
 10
22.1457681214
 20
22.955634594
 10
22.1274827227
 20
22.9682766631
 10
22.1085251304
 20
22.9805520952
 10
22.0889172335
 20
22.9924467271
 10
22.0686816778
 20
23.003946983
 10
22.0478418284
 20
23.0150396137
 10
22.0264217458
 20
23.0257117789
 10
22.0044461639
 20
23.0359512203
 10
21.9819404573
 20
23.045746153
 10
21.9589306095
 20
23.0550852274
 10
21.9354431855
 20
23.0639576078
 10
21.9115053052
 20
23.0723530914
 10
21.8871446059
 20
23.0802619433
 10
21.8623892076
 20
23.0876748562
 10
21.8372676931
 20
23.0945832759
 10
21.8118090676
 20
23.1009792235
 10
21.7860427186
 20
23.1068551294
 10
21.7599983953
 20
23.1122041885
 10
21.7337061692
 20
23.1170202481
 10
21.7071963925
 20
23.12129763
 10
21.6804996734
 20
23.1250313546
 10
21.6536468359
 20
23.128217152
 10
21.626668879
 20
23.1308513479
 10
21.5995969497
 20
23.1329309006
 10
21.5724623067
 20
23.134453405
 10
21.5452962798
 20
23.1354171002
  0
LINE
  5
3FA
100
AcDbEntity
  8
RACCORDO
100
AcDbLine
 62
7
  6
CONTINUOUS
 10
22.2911525538
 20
8.3936654098
 11
22.2930632459
 21
8.3735470942
  0
LINE
  5
3FB
100
AcDbEntity
  8
RACCORDO
100
AcDbLine
 62
7
  6
CONTINUOUS
 10
22.2930632459
 20
8.3735470942
 11
22.2950186616
 21
8.3517844414
  0
LINE
  5
3FC
100
AcDbEntity
  8
RACCORDO
100
AcDbLine
 62
7
  6
CONTINUOUS
 10
22.2950186616
 20
8.3517844414
 11
22.2970104222
 21
8.328361937
  0
LINE
  5
3FD
100
AcDbEntity
  8
RACCORDO
100
AcDbLine
 62
7
  6
CONTINUOUS
 10
22.2970104222
 20
8.328361937
 11
22.3000491355
 21
8.2900909378
  0
LINE
  5
3FE
100
AcDbEntity
  8
RACCORDO
100
AcDbLine
 62
7
  6
CONTINUOUS
 10
22.3000491355
 20
8.2900909378
 11
22.3031291501
 21
8.247991617
  0
LINE
  5
3FF
100
AcDbEntity
  8
RACCORDO
100
AcDbLine
 62
250
  6
CONTINUOUS
 10
22.2993225285
 20
8.3276391928
 11
22.3039189741
 21
8.2637264822
  0
LINE
  5
400
100
AcDbEntity
  8
RACCORDO
100
AcDbLine
 62
250
  6
CONTINUOUS
 10
22.3406457673
 20
-22.5629697248
 11
22.3400612925
 21
-22.5542909241
  0
LINE
  5
401
100
AcDbEntity
  8
RACCORDO
100
AcDbLine
 62
7
  6
CONTINUOUS
 10
22.3031291501
 20
8.247991617
 11
22.3062302356
 21
8.201992972
  0
LINE
  5
402
100
AcDbEntity
  8
RACCORDO
100
AcDbLine
 62
250
  6
CONTINUOUS
 10
22.3039189741
 20
8.2637264822
 11
22.3083290136
 21
8.1951135368
  0
LINE
  5
403
100
AcDbEntity
  8
RACCORDO
100
AcDbLine
 62
7
  6
CONTINUOUS
 10
22.3062302356
 20
8.201992972
 11
22.3093323974
 21
8.1520328263
  0
LINE
  5
404
100
AcDbEntity
  8
RACCORDO
100
AcDbLine
 62
250
  6
CONTINUOUS
 10
22.3413734781
 20
-22.5746875829
 11
22.3406457673
 21
-22.5629697248
  0
LINE
  5
405
100
AcDbEntity
  8
RACCORDO
100
AcDbLine
 62
250
  6
CONTINUOUS
 10
22.3083290136
 20
8.1951135368
 11
22.3125368475
 21
8.1220475589
  0
LINE
  5
406
100
AcDbEntity
  8
RACCORDO
100
AcDbLine
 62
7
  6
CONTINUOUS
 10
22.3093323974
 20
8.1520328263
 11
22.3124166586
 21
8.0980590378
  0
LINE
  5
407
100
AcDbEntity
  8
RACCORDO
100
AcDbLine
 62
250
  6
CONTINUOUS
 10
22.3420534273
 20
-22.5866652041
 11
22.3413734781
 21
-22.5746875829
  0
LINE
  5
408
100
AcDbEntity
  8
RACCORDO
100
AcDbLine
 62
7
  6
CONTINUOUS
 10
22.3124166586
 20
8.0980590378
 11
22.3154637749
 21
8.0400343951
  0
LINE
  5
409
100
AcDbEntity
  8
RACCORDO
100
AcDbLine
 62
250
  6
CONTINUOUS
 10
22.3426934644
 20
-22.5989798747
 11
22.3420534273
 21
-22.5866652041
  0
LINE
  5
40A
100
AcDbEntity
  8
RACCORDO
100
AcDbLine
 62
250
  6
CONTINUOUS
 10
22.3125368475
 20
8.1220475589
 11
22.3165326287
 21
8.0446969275
  0
LINE
  5
40B
100
AcDbEntity
  8
RACCORDO
100
AcDbLine
 62
7
  6
CONTINUOUS
 10
22.3154637749
 20
8.0400343951
 11
22.319438032
 21
7.9562980649
  0
LINE
  5
40C
100
AcDbEntity
  8
RACCORDO
100
AcDbLine
 62
250
  6
CONTINUOUS
 10
22.3434445314
 20
-22.6149306435
 11
22.3426934644
 21
-22.5989798747
  0
LINE
  5
40D
100
AcDbEntity
  8
RACCORDO
100
AcDbLine
 62
250
  6
CONTINUOUS
 10
22.3165326287
 20
8.0446969275
 11
22.3203019383
 21
7.9633265865
  0
LINE
  5
40E
100
AcDbEntity
  8
RACCORDO
100
AcDbLine
 62
250
  6
CONTINUOUS
 10
22.3486773596
 20
-22.7421545658
 11
22.3434445314
 21
-22.6149306435
  0
LINE
  5
40F
100
AcDbEntity
  8
RACCORDO
100
AcDbLine
 62
250
  6
CONTINUOUS
 10
22.3203019383
 20
7.9633265865
 11
22.3238320521
 21
7.8782321558
  0
LINE
  5
410
100
AcDbEntity
  8
RACCORDO
100
AcDbLine
 62
7
  6
CONTINUOUS
 10
22.319438032
 20
7.9562980649
 11
22.3232790075
 21
7.8650377141
  0
LINE
  5
411
100
AcDbEntity
  8
RACCORDO
100
AcDbLine
 62
250
  6
CONTINUOUS
 10
22.3624482749
 20
-23.1028078047
 11
22.3486773596
 21
-22.7421545658
  0
LINE
  5
412
100
AcDbEntity
  8
RACCORDO
100
AcDbLine
 62
7
  6
CONTINUOUS
 10
22.3232790075
 20
7.8650377141
 11
22.3269522068
 21
7.7659041424
  0
LINE
  5
413
100
AcDbEntity
  8
RACCORDO
100
AcDbLine
 62
250
  6
CONTINUOUS
 10
22.3238320521
 20
7.8782321558
 11
22.328659274
 21
7.7441039581
  0
LINE
  5
414
100
AcDbEntity
  8
RACCORDO
100
AcDbLine
 62
250
  6
CONTINUOUS
 10
22.3752418149
 20
-23.4762701489
 11
22.3624482749
 21
-23.1028078047
  0
LINE
  5
415
100
AcDbEntity
  8
RACCORDO
100
AcDbLine
 62
250
  6
CONTINUOUS
 10
21.5896131468
 20
-24.2945738681
 11
21.5771560792
 21
-23.9199042169
  0
LINE
  5
416
100
AcDbEntity
  8
RACCORDO
100
AcDbLine
 62
7
  6
CONTINUOUS
 10
22.3269522068
 20
7.7659041424
 11
22.3304183134
 21
7.6585419274
  0
LINE
  5
417
100
AcDbEntity
  8
RACCORDO
100
AcDbLine
 62
250
  6
CONTINUOUS
 10
21.5954008501
 20
-24.4861693314
 11
21.5896131468
 21
-24.2945738681
  0
LINE
  5
418
100
AcDbEntity
  8
RACCORDO
100
AcDbLine
 62
250
  6
CONTINUOUS
 10
22.3870226198
 20
-23.8614814348
 11
22.3752418149
 21
-23.4762701489
  0
LINE
  5
419
100
AcDbEntity
  8
RACCORDO
100
AcDbLine
 62
250
  6
CONTINUOUS
 10
22.328659274
 20
7.7441039581
 11
22.3328965175
 21
7.6030255211
  0
LINE
  5
41A
100
AcDbEntity
  8
RACCORDO
100
AcDbLine
 62
250
  6
CONTINUOUS
 10
22.3943044776
 20
-24.1245085457
 11
22.3870226198
 21
-23.8614814348
  0
LINE
  5
41B
100
AcDbEntity
  8
RACCORDO
100
AcDbLine
 62
7
  6
CONTINUOUS
 10
22.3304183134
 20
7.6585419274
 11
22.3336310156
 21
7.5426336603
  0
LWPOLYLINE
  5
41C
100
AcDbEntity
  8
RACCORDO
100
AcDbPolyline
 62
250
  6
CONTINUOUS
 90
37
 70
0
 10
22.2818763176
 20
22.5215932916
 10
22.2815564372
 20
22.5346384494
 10
22.280668866
 20
22.5476588615
 10
22.2792152877
 20
22.5606298292
 10
22.2771984597
 20
22.5735267475
 10
22.2746222077
 20
22.586325152
 10
22.2714914187
 20
22.5990007651
 10
22.2678120315
 20
22.611529542
 10
22.2635910256
 20
22.6238877167
 10
22.258836408
 20
22.6360518467
 10
22.2535571978
 20
22.6479988574
 10
22.2477634092
 20
22.6597060863
 10
22.2414660327
 20
22.6711513257
 10
22.2346770139
 20
22.6823128649
 10
22.2274092309
 20
22.6931695311
 10
22.2196764703
 20
22.7037007302
 10
22.2114934005
 20
22.7138864852
 10
22.2028755442
 20
22.7237074746
 10
22.1938392487
 20
22.7331450685
 10
22.1844016553
 20
22.7421813647
 10
22.1745806663
 20
22.7507992219
 10
22.1643949114
 20
22.7589822927
 10
22.1538637122
 20
22.7667150543
 10
22.1430070456
 20
22.7739828384
 10
22.131845506
 20
22.7807718584
 10
22.120400266
 20
22.7870692361
 10
22.1086930362
 20
22.7928630258
 10
22.0967460245
 20
22.7981422371
 10
22.0845818935
 20
22.8028968557
 10
22.0722237176
 20
22.8071178625
 10
22.0596949394
 20
22.8107972506
 10
22.047019325
 20
22.8139280403
 10
22.034220919
 20
22.816504293
 10
22.0213239992
 20
22.8185211215
 10
22.0083530301
 20
22.8199747001
 10
21.9953326165
 20
22.8208622715
 10
21.9822874572
 20
22.8211821521
  0
LINE
  5
41D
100
AcDbEntity
  8
RACCORDO
100
AcDbLine
 62
250
  6
CONTINUOUS
 10
22.3328965175
 20
7.6030255211
 11
22.3365207543
 21
7.4557666089
  0
LINE
  5
41E
100
AcDbEntity
  8
RACCORDO
100
AcDbLine
 62
7
  6
CONTINUOUS
 10
22.3336310156
 20
7.5426336603
 11
22.3365376859
 21
7.4178778823
  0
LINE
  5
41F
100
AcDbEntity
  8
RACCORDO
100
AcDbLine
 62
250
  6
CONTINUOUS
 10
22.3365207543
 20
7.4557666089
 11
22.3395097633
 21
7.3031427657
  0
LINE
  5
420
100
AcDbEntity
  8
RACCORDO
100
AcDbLine
 62
7
  6
CONTINUOUS
 10
22.3365376859
 20
7.4178778823
 11
22.339078199
 21
7.2840040373
  0
LWPOLYLINE
  5
421
100
AcDbEntity
  8
RACCORDO
100
AcDbPolyline
 62
250
  6
CONTINUOUS
 90
9
 70
0
 10
22.2490483482
 20
8.6723188343
 10
22.2493636731
 20
8.6522040516
 10
22.2504930843
 20
8.6321220853
 10
22.2524347391
 20
8.6121056978
 10
22.2551854697
 20
8.5921875447
 10
22.2587407886
 20
8.572400121
 10
22.2630948953
 20
8.5527757088
 10
22.2682406864
 20
8.533346324
 10
22.2741697668
 20
8.5141436645
  0
LWPOLYLINE
  5
422
100
AcDbEntity
  8
RACCORDO
100
AcDbPolyline
 62
250
  6
CONTINUOUS
 90
11
 70
0
 10
22.2275752953
 20
8.708165587
 10
22.2278402399
 20
8.6895124868
 10
22.2288057224
 20
8.6708793735
 10
22.2304710848
 20
8.6522924434
 10
22.2328349524
 20
8.6337760373
 10
22.235894564
 20
8.615358129
 10
22.2396450852
 20
8.5970701718
 10
22.2440808864
 20
8.5789395081
 10
22.2491960981
 20
8.5609900369
 10
22.2549833946
 20
8.5432476007
 10
22.2614345433
 20
8.5257374027
  0
LINE
  5
423
100
AcDbEntity
  8
RACCORDO
100
AcDbLine
 62
250
  6
CONTINUOUS
 10
22.3395097633
 20
7.3031427657
 11
22.3418387519
 21
7.1463153114
  0
LINE
  5
424
100
AcDbEntity
  8
RACCORDO
100
AcDbLine
 62
7
  6
CONTINUOUS
 10
22.339078199
 20
7.2840040373
 11
22.3411826693
 21
7.1408728763
  0
LINE
  5
425
100
AcDbEntity
  8
RACCORDO
100
AcDbLine
 62
250
  6
CONTINUOUS
 10
22.3418387519
 20
7.1463153114
 11
22.3434880405
 21
6.9867172877
  0
LINE
  5
426
100
AcDbEntity
  8
RACCORDO
100
AcDbLine
 62
7
  6
CONTINUOUS
 10
22.3411826693
 20
7.1408728763
 11
22.3427713629
 21
6.9885047023
  0
LINE
  5
427
100
AcDbEntity
  8
RACCORDO
100
AcDbLine
 62
250
  6
CONTINUOUS
 10
22.3434880405
 20
6.9867172877
 11
22.3444497367
 21
6.8258887445
  0
LINE
  5
428
100
AcDbEntity
  8
RACCORDO
100
AcDbLine
 62
250
  6
CONTINUOUS
 10
23.1724335161
 20
29.359133263
 11
23.1592434929
 21
32.2156939465
  0
LINE
  5
429
100
AcDbEntity
  8
RACCORDO
100
AcDbLine
 62
7
  6
CONTINUOUS
 10
22.3427713629
 20
6.9885047023
 11
22.3437556501
 21
6.8270765854
  0
LINE
  5
42A
100
AcDbEntity
  8
RACCORDO
100
AcDbLine
 62
250
  6
CONTINUOUS
 10
23.1843989937
 20
26.5006037566
 11
23.1724335161
 21
29.359133263
  0
LINE
  5
42B
100
AcDbEntity
  8
RACCORDO
100
AcDbLine
 62
250
  6
CONTINUOUS
 10
23.19513965
 20
23.6402972934
 11
23.1843989937
 21
26.5006037566
  0
LINE
  5
42C
100
AcDbEntity
  8
RACCORDO
100
AcDbLine
 62
250
  6
CONTINUOUS
 10
22.4039797717
 20
21.2915561223
 11
22.3939664316
 21
24.2174730964
  0
LINE
  5
42D
100
AcDbEntity
  8
RACCORDO
100
AcDbLine
 62
250
  6
CONTINUOUS
 10
23.2046545354
 20
20.7784057818
 11
23.19513965
 21
23.6402972934
  0
LINE
  5
42E
100
AcDbEntity
  8
RACCORDO
100
AcDbLine
 62
250
  6
CONTINUOUS
 10
22.4127050559
 20
18.3641868432
 11
22.4039797717
 21
21.2915561223
  0
LINE
  5
42F
100
AcDbEntity
  8
RACCORDO
100
AcDbLine
 62
250
  6
CONTINUOUS
 10
23.2129429701
 20
17.9151212346
 11
23.2046545354
 21
20.7784057818
  0
LINE
  5
430
100
AcDbEntity
  8
RACCORDO
100
AcDbLine
 62
250
  6
CONTINUOUS
 10
22.4201420549
 20
15.4354494912
 11
22.4127050559
 21
18.3641868432
  0
LINE
  5
431
100
AcDbEntity
  8
RACCORDO
100
AcDbLine
 62
250
  6
CONTINUOUS
 10
23.2200045383
 20
15.0506357569
 11
23.2129429701
 21
17.9151212346
  0
LINE
  5
432
100
AcDbEntity
  8
RACCORDO
100
AcDbLine
 62
250
  6
CONTINUOUS
 10
22.4262899532
 20
12.5056294886
 11
22.4201420549
 21
15.4354494912
  0
LINE
  5
433
100
AcDbEntity
  8
RACCORDO
100
AcDbLine
 62
250
  6
CONTINUOUS
 10
23.2258386716
 20
12.1851414466
 11
23.2200045383
 21
15.0506357569
  0
LINE
  5
434
100
AcDbEntity
  8
RACCORDO
100
AcDbLine
 62
250
  6
CONTINUOUS
 10
22.4311483252
 20
9.5749539604
 11
22.4262899532
 21
12.5056294886
  0
LINE
  5
435
100
AcDbEntity
  8
RACCORDO
100
AcDbLine
 62
250
  6
CONTINUOUS
 10
23.2304449706
 20
9.3188302939
 11
23.2258386716
 21
12.1851414466
  0
LINE
  5
436
100
AcDbEntity
  8
RACCORDO
100
AcDbLine
 62
250
  6
CONTINUOUS
 10
22.4347169148
 20
6.6435774395
 11
22.4311483252
 21
9.5749539604
  0
LINE
  5
437
100
AcDbEntity
  8
RACCORDO
100
AcDbLine
 62
250
  6
CONTINUOUS
 10
23.2338232049
 20
6.4518944797
 11
23.2304449706
 21
9.3188302939
  0
LWPOLYLINE
  5
438
100
AcDbEntity
  8
RACCORDO
100
AcDbPolyline
 62
7
  6
CONTINUOUS
 90
8
 70
0
 10
22.3437556501
 20
6.8270765854
 10
22.3453587605
 20
5.2380088802
 10
22.3463721253
 20
3.7416938202
 10
22.3470477653
 20
2.2453087764
 10
22.3473856621
 20
0.7488852777
 10
22.3473858128
 20
-0.7475503799
 10
22.3470482172
 20
-2.2439739297
 10
22.3463728784
 20
-3.7403590925
  0
LWPOLYLINE
  5
439
100
AcDbEntity
  8
RACCORDO
100
AcDbPolyline
 62
250
  6
CONTINUOUS
 90
9
 70
0
 10
22.3444497367
 20
6.8258887445
 10
22.3460538943
 20
5.2256033599
 10
22.3470625375
 20
3.7325953296
 10
22.3477349662
 20
2.2395735351
 10
22.3480711805
 20
0.7465287669
 10
22.3480711804
 20
-0.7465297656
 10
22.3477349659
 20
-2.2395744339
 10
22.3470625372
 20
-3.7325960287
 10
22.3460538941
 20
-5.2256037593
  0
LINE
  5
43A
100
AcDbEntity
  8
RACCORDO
100
AcDbLine
 62
250
  6
CONTINUOUS
 10
22.4369953969
 20
3.7117316998
 11
22.4347169148
 21
6.6435774395
  0
LINE
  5
43B
100
AcDbEntity
  8
RACCORDO
100
AcDbLine
 62
250
  6
CONTINUOUS
 10
23.2359730827
 20
3.5845260794
 11
23.2338232049
 21
6.4518944797
  0
LINE
  5
43C
100
AcDbEntity
  8
RACCORDO
100
AcDbLine
 62
250
  6
CONTINUOUS
 10
22.4379836318
 20
0.7796486237
 11
22.4369953969
 21
3.7117316998
  0
LINE
  5
43D
100
AcDbEntity
  8
RACCORDO
100
AcDbLine
 62
250
  6
CONTINUOUS
 10
23.2368944809
 20
0.7169173023
 11
23.2359730827
 21
3.5845260794
  0
LINE
  5
43E
100
AcDbEntity
  8
RACCORDO
100
AcDbLine
 62
250
  6
CONTINUOUS
 10
21.9279864348
 20
22.7668811297
 11
21.9279864348
 21
22.7661958971
  0
LINE
  5
43F
100
AcDbEntity
  8
RACCORDO
100
AcDbLine
 62
250
  6
CONTINUOUS
 10
21.9279864348
 20
-22.7668811297
 11
21.9279864348
 21
-22.7661958971
  0
LINE
  5
440
100
AcDbEntity
  8
RACCORDO
100
AcDbLine
 62
7
  6
CONTINUOUS
 10
22.2
 20
-8.05
 11
22.2
 21
8.05
  0
LINE
  5
441
100
AcDbEntity
  8
RACCORDO
100
AcDbLine
 62
7
  6
CONTINUOUS
 10
22.2268900626
 20
22.4672922693
 11
22.2268900626
 21
8.708165587
  0
LINE
  5
442
100
AcDbEntity
  8
RACCORDO
100
AcDbLine
 62
250
  6
CONTINUOUS
 10
22.2275752953
 20
22.4672922693
 11
22.2275752953
 21
8.708165587
  0
LINE
  5
443
100
AcDbEntity
  8
RACCORDO
100
AcDbLine
 62
250
  6
CONTINUOUS
 10
22.2275752953
 20
-8.708165587
 11
22.2275752953
 21
-22.4672922693
  0
LINE
  5
444
100
AcDbEntity
  8
RACCORDO
100
AcDbLine
 62
250
  6
CONTINUOUS
 10
22.4376815667
 20
-2.1525164311
 11
22.4379836318
 21
0.7796486237
  0
LINE
  5
445
100
AcDbEntity
  8
RACCORDO
100
AcDbLine
 62
250
  6
CONTINUOUS
 10
23.2365873533
 20
-2.1507395254
 11
23.2368944809
 21
0.7169173023
  0
LINE
  5
446
100
AcDbEntity
  8
RACCORDO
100
AcDbLine
 62
250
  6
CONTINUOUS
 10
22.4360891818
 20
-5.0845289463
 11
22.4376815667
 21
-2.1525164311
  0
LINE
  5
447
100
AcDbEntity
  8
RACCORDO
100
AcDbLine
 62
250
  6
CONTINUOUS
 10
23.2350516847
 20
-5.0182521243
 11
23.2365873533
 21
-2.1507395254
  0
LINE
  5
448
100
AcDbEntity
  8
RACCORDO
100
AcDbLine
 62
7
  6
CONTINUOUS
 10
22.3463728784
 20
-3.7403590925
 11
22.3440240608
 21
-6.718090903
  0
LINE
  5
449
100
AcDbEntity
  8
RACCORDO
100
AcDbLine
 62
250
  6
CONTINUOUS
 10
22.4332066476
 20
-8.0161563115
 11
22.4360891818
 21
-5.0845289463
  0
LINE
  5
44A
100
AcDbEntity
  8
RACCORDO
100
AcDbLine
 62
250
  6
CONTINUOUS
 10
23.2322876287
 20
-7.8854282902
 11
23.2350516847
 21
-5.0182521243
  0
LINE
  5
44B
100
AcDbEntity
  8
RACCORDO
100
AcDbLine
 62
250
  6
CONTINUOUS
 10
22.4290341167
 20
-10.9472436595
 11
22.4332066476
 21
-8.0161563115
  0
LINE
  5
44C
100
AcDbEntity
  8
RACCORDO
100
AcDbLine
 62
250
  6
CONTINUOUS
 10
23.2282953237
 20
-10.7520757666
 11
23.2322876287
 21
-7.8854282902
  0
LINE
  5
44D
100
AcDbEntity
  8
RACCORDO
100
AcDbLine
 62
250
  6
CONTINUOUS
 10
23.2230750309
 20
-13.6180024916
 11
23.2282953237
 21
-10.7520757666
  0
LINE
  5
44E
100
AcDbEntity
  8
RACCORDO
100
AcDbLine
 62
250
  6
CONTINUOUS
 10
22.4235718774
 20
-13.8775592634
 11
22.4290341167
 21
-10.9472436595
  0
LINE
  5
44F
100
AcDbEntity
  8
RACCORDO
100
AcDbLine
 62
250
  6
CONTINUOUS
 10
22.4168203942
 20
-16.8068737637
 11
22.4235718774
 21
-13.8775592634
  0
LINE
  5
450
100
AcDbEntity
  8
RACCORDO
100
AcDbLine
 62
250
  6
CONTINUOUS
 10
23.2166271802
 20
-16.4830164288
 11
23.2230750309
 21
-13.6180024916
  0
LINE
  5
451
100
AcDbEntity
  8
RACCORDO
100
AcDbLine
 62
250
  6
CONTINUOUS
 10
23.2089520944
 20
-19.3469254337
 11
23.2166271802
 21
-16.4830164288
  0
LINE
  5
452
100
AcDbEntity
  8
RACCORDO
100
AcDbLine
 62
250
  6
CONTINUOUS
 10
22.4087800484
 20
-19.7350254362
 11
22.4168203942
 21
-16.8068737637
  0
LINE
  5
453
100
AcDbEntity
  8
RACCORDO
100
AcDbLine
 62
250
  6
CONTINUOUS
 10
22.3460538941
 20
-5.2256037593
 11
22.3444496276
 21
-6.8259169675
  0
LINE
  5
454
100
AcDbEntity
  8
RACCORDO
100
AcDbLine
 62
250
  6
CONTINUOUS
 10
23.200050311
 20
-22.2095374704
 11
23.2089520944
 21
-19.3469254337
  0
LWPOLYLINE
  5
455
100
AcDbEntity
  8
RACCORDO
100
AcDbPolyline
 62
250
  6
CONTINUOUS
 90
3
 70
0
 10
22.3943044776
 20
-24.1245085457
 10
22.3994517053
 20
-22.6617021668
 10
22.4087800484
 20
-19.7350254362
  0
LINE
  5
456
100
AcDbEntity
  8
RACCORDO
100
AcDbLine
 62
250
  6
CONTINUOUS
 10
23.1899225403
 20
-25.0706604599
 11
23.200050311
 21
-22.2095374704
  0
LWPOLYLINE
  5
457
100
AcDbEntity
  8
RACCORDO
100
AcDbPolyline
 62
7
  6
CONTINUOUS
 90
37
 70
0
 10
22.2268900626
 20
-8.708165587
 10
22.2268793006
 20
-22.46981519
 10
22.2264523739
 20
-22.4835181928
 10
22.225402502
 20
-22.4971739204
 10
22.2237334252
 20
-22.5107539069
 10
22.2214493607
 20
-22.5242318266
 10
22.2185558226
 20
-22.5375823794
 10
22.2150592742
 20
-22.5507781973
 10
22.210967654
 20
-22.5637920865
 10
22.2062896162
 20
-22.5765990927
 10
22.2010347891
 20
-22.5891735062
 10
22.1952147805
 20
-22.6014895348
 10
22.1888413717
 20
-22.6135223523
 10
22.1819281567
 20
-22.6252477291
 10
22.1744892947
 20
-22.6366418427
 10
22.1665399996
 20
-22.6476820395
 10
22.1580966095
 20
-22.6583460052
 10
22.1491762834
 20
-22.6686120227
 10
22.1397972643
 20
-22.6784596585
 10
22.1299783847
 20
-22.6878686723
 10
22.1197398378
 20
-22.69682019
 10
22.1091019884
 20
-22.7052959137
 10
22.0980865256
 20
-22.7132786484
 10
22.086715701
 20
-22.720751979
 10
22.075012125
 20
-22.7277006683
 10
22.0629995643
 20
-22.734110477
 10
22.0507022168
 20
-22.7399677611
 10
22.0381448656
 20
-22.745260674
 10
22.0253532644
 20
-22.7499775301
 10
22.0123530913
 20
-22.7541086546
 10
21.9991692418
 20
-22.7576453081
 10
21.9858288989
 20
-22.7605795043
 10
21.9723593927
 20
-22.7629046788
 10
21.9587859352
 20
-22.7646152701
 10
21.9451348078
 20
-22.7657069716
 10
21.9314345284
 20
-22.7661759569
 10
21.9279864348
 20
-22.7661956956
  0
LINE
  5
458
100
AcDbEntity
  8
RACCORDO
100
AcDbLine
 62
250
  6
CONTINUOUS
 10
23.1785692894
 20
-27.9301024247
 11
23.1899225403
 21
-25.0706604599
  0
LWPOLYLINE
  5
459
100
AcDbEntity
  8
RACCORDO
100
AcDbPolyline
 62
250
  6
CONTINUOUS
 90
3
 70
0
 10
23.159243493
 20
-32.2156939465
 10
23.1659915846
 20
-30.7876716122
 10
23.1785692894
 20
-27.9301024247
  0
LINE
  5
45A
100
AcDbEntity
  8
RACCORDO
100
AcDbLine
 62
7
  6
CONTINUOUS
 10
22.3440241334
 20
-6.7180908871
 11
22.3435146293
 21
-6.8792406981
  0
LINE
  5
45B
100
AcDbEntity
  8
RACCORDO
100
AcDbLine
 62
250
  6
CONTINUOUS
 10
22.3444496276
 20
-6.8259169675
 11
22.3434874636
 21
-6.9867869037
  0
LINE
  5
45C
100
AcDbEntity
  8
RACCORDO
100
AcDbLine
 62
7
  6
CONTINUOUS
 10
22.3435146293
 20
-6.8792406981
 11
22.3422135346
 21
-7.0495297725
  0
LINE
  5
45D
100
AcDbEntity
  8
RACCORDO
100
AcDbLine
 62
250
  6
CONTINUOUS
 10
22.3434874636
 20
-6.9867869037
 11
22.3418375572
 21
-7.1464099165
  0
LWPOLYLINE
  5
45E
100
AcDbEntity
  8
RACCORDO
100
AcDbPolyline
 62
250
  6
CONTINUOUS
 90
46
 70
0
 10
22.2275752953
 20
-22.4672922693
 10
22.2274434161
 20
-22.4776887277
 10
22.226951252
 20
-22.4880990393
 10
22.2260964869
 20
-22.4985107036
 10
22.2248766716
 20
-22.5089160505
 10
22.2232905994
 20
-22.5192971761
 10
22.2213400131
 20
-22.5296262246
 10
22.2190258578
 20
-22.5398904908
 10
22.2163496406
 20
-22.5500770818
 10
22.2133176919
 20
-22.5601584958
 10
22.209934555
 20
-22.5701205305
 10
22.2062040073
 20
-22.5799530747
 10
22.2021342876
 20
-22.5896357308
 10
22.1977333173
 20
-22.5991530967
 10
22.1930058178
 20
-22.6084982307
 10
22.1879562767
 20
-22.6176639342
 10
22.1825922058
 20
-22.626638084
 10
22.1769199412
 20
-22.6354115129
 10
22.1709415639
 20
-22.6439811295
 10
22.1646622226
 20
-22.6523387438
 10
22.1580909789
 20
-22.6604715473
 10
22.1512355598
 20
-22.6683693765
 10
22.1441025608
 20
-22.6760239516
 10
22.1367018176
 20
-22.6834241289
 10
22.1290469137
 20
-22.6905563483
 10
22.121149162
 20
-22.6974106744
 10
22.113016721
 20
-22.7039806706
 10
22.104659302
 20
-22.7102589767
 10
22.0960895855
 20
-22.7162365835
 10
22.0873158465
 20
-22.721908238
 10
22.0783409974
 20
-22.7272719259
 10
22.0691739447
 20
-22.7323213936
 10
22.0598270193
 20
-22.7370489438
 10
22.0503079666
 20
-22.741449793
 10
22.0406237645
 20
-22.7455192205
 10
22.0307898017
 20
-22.7492493303
 10
22.0208269962
 20
-22.7526317357
 10
22.0107456644
 20
-22.755662675
 10
22.0005598521
 20
-22.758337738
 10
21.9902970499
 20
-22.7606506743
 10
21.97997015
 20
-22.7626000472
 10
21.9695918719
 20
-22.7641849772
 10
21.9591900749
 20
-22.7654037919
 10
21.9487826592
 20
-22.7662577669
 10
21.9383772837
 20
-22.7667494185
 10
21.9279864348
 20
-22.7668811297
  0
LINE
  5
45F
100
AcDbEntity
  8
RACCORDO
100
AcDbLine
 62
7
  6
CONTINUOUS
 10
22.3422135346
 20
-7.0495297725
 11
22.3402543157
 21
-7.2091884
  0
LWPOLYLINE
  5
460
100
AcDbEntity
  8
RACCORDO
100
AcDbPolyline
 62
250
  6
CONTINUOUS
 90
11
 70
0
 10
22.2275752953
 20
-8.708165587
 10
22.2278402399
 20
-8.6895124868
 10
22.2288057224
 20
-8.6708793736
 10
22.2304710848
 20
-8.6522924435
 10
22.2328349523
 20
-8.6337760374
 10
22.235894564
 20
-8.6153581291
 10
22.2396450852
 20
-8.597070172
 10
22.2440808864
 20
-8.5789395085
 10
22.2491960979
 20
-8.5609900376
 10
22.2549833943
 20
-8.5432476016
 10
22.2614345431
 20
-8.5257374032
  0
LWPOLYLINE
  5
461
100
AcDbEntity
  8
RACCORDO
100
AcDbPolyline
 62
250
  6
CONTINUOUS
 90
13
 70
0
 10
22.3939663542
 20
24.2174731034
 10
22.3954840775
 20
24.3180855489
 10
22.3979620935
 20
24.4230342745
 10
22.4014325951
 20
24.5323450915
 10
22.4059093149
 20
24.6461024727
 10
22.4114039153
 20
24.7642872245
 10
22.4179332664
 20
24.8867636174
 10
22.4254647858
 20
25.0133643642
 10
22.4339829737
 20
25.1443226275
 10
22.4435379344
 20
25.2801078948
 10
22.4541162146
 20
25.4213644538
 10
22.4656042629
 20
25.567548948
 10
22.4779014176
 20
25.7173401385
  0
LWPOLYLINE
  5
462
100
AcDbEntity
  8
RACCORDO
100
AcDbPolyline
 62
250
  6
CONTINUOUS
 90
9
 70
0
 10
22.2490483482
 20
-8.6723188343
 10
22.2493636729
 20
-8.6522040575
 10
22.2504930834
 20
-8.6321220967
 10
22.2524347371
 20
-8.6121057143
 10
22.2551854664
 20
-8.5921875658
 10
22.2587407835
 20
-8.5724001463
 10
22.2630948883
 20
-8.5527757378
 10
22.2682406772
 20
-8.5333463562
 10
22.2741697553
 20
-8.5141436994
  0
LINE
  5
463
100
AcDbEntity
  8
RACCORDO
100
AcDbLine
 62
250
  6
CONTINUOUS
 10
22.3418375572
 20
-7.1464099165
 11
22.3395081173
 21
-7.3032385364
  0
LINE
  5
464
100
AcDbEntity
  8
RACCORDO
100
AcDbLine
 62
7
  6
CONTINUOUS
 10
22.3402543157
 20
-7.2091884
 11
22.3377428614
 21
-7.3581116927
  0
LINE
  5
465
100
AcDbEntity
  8
RACCORDO
100
AcDbLine
 62
250
  6
CONTINUOUS
 10
22.3395081173
 20
-7.3032385364
 11
22.3365189469
 21
-7.4558487466
  0
LINE
  5
466
100
AcDbEntity
  8
RACCORDO
100
AcDbLine
 62
7
  6
CONTINUOUS
 10
22.3377428614
 20
-7.3581116927
 11
22.3347711614
 21
-7.4964279766
  0
LWPOLYLINE
  5
467
100
AcDbEntity
  8
RACCORDO
100
AcDbPolyline
 62
250
  6
CONTINUOUS
 90
37
 70
0
 10
22.2826358311
 20
-22.5223528051
 10
22.2823159509
 20
-22.5353979638
 10
22.2814283799
 20
-22.5484183767
 10
22.2799748018
 20
-22.5613893452
 10
22.2779579739
 20
-22.5742862644
 10
22.2753817219
 20
-22.5870846696
 10
22.2722509328
 20
-22.5997602834
 10
22.2685715455
 20
-22.612289061
 10
22.2643505395
 20
-22.6246472363
 10
22.2595959217
 20
-22.6368113668
 10
22.2543167113
 20
-22.6487583779
 10
22.2485229226
 20
-22.6604656072
 10
22.2422255458
 20
-22.6719108469
 10
22.2354365267
 20
-22.6830723862
 10
22.2281687436
 20
-22.6939290526
 10
22.2204359827
 20
-22.7044602517
 10
22.2122529127
 20
-22.7146460067
 10
22.2036350562
 20
-22.7244669958
 10
22.1945987606
 20
-22.7339045896
 10
22.1851611671
 20
-22.7429408855
 10
22.175340178
 20
-22.7515587423
 10
22.1651544231
 20
-22.7597418127
 10
22.154623224
 20
-22.7674745739
 10
22.1437665575
 20
-22.7747423575
 10
22.132605018
 20
-22.7815313771
 10
22.1211597781
 20
-22.7878287542
 10
22.1094525485
 20
-22.7936225435
 10
22.097505537
 20
-22.7989017543
 10
22.0853414061
 20
-22.8036563724
 10
22.0729832304
 20
-22.8078773788
 10
22.0604544523
 20
-22.8115567664
 10
22.047778838
 20
-22.8146875557
 10
22.0349804322
 20
-22.8172638079
 10
22.0220835125
 20
-22.8192806361
 10
22.0091125434
 20
-22.8207342143
 10
21.9960921299
 20
-22.8216217854
 10
21.9830469707
 20
-22.8219416656
  0
LINE
  5
468
100
AcDbEntity
  8
RACCORDO
100
AcDbLine
 62
250
  6
CONTINUOUS
 10
22.3365189469
 20
-7.4558487466
 11
22.3328946124
 21
-7.603095441
  0
LINE
  5
469
100
AcDbEntity
  8
RACCORDO
100
AcDbLine
 62
250
  6
CONTINUOUS
 10
22.3831772385
 20
23.8075817797
 11
22.3939664316
 21
24.2174730964
  0
LINE
  5
46A
100
AcDbEntity
  8
RACCORDO
100
AcDbLine
 62
7
  6
CONTINUOUS
 10
22.3347711614
 20
-7.4964279766
 11
22.3314183242
 21
-7.6244229427
  0
LINE
  5
46B
100
AcDbEntity
  8
RACCORDO
100
AcDbLine
 62
250
  6
CONTINUOUS
 10
21.5835145829
 20
24.1610050099
 11
21.595062804
 21
24.5574845645
  0
LINE
  5
46C
100
AcDbEntity
  8
RACCORDO
100
AcDbLine
 62
250
  6
CONTINUOUS
 10
22.371263817
 20
23.4090795004
 11
22.3831772385
 21
23.8075817797
  0
LINE
  5
46D
100
AcDbEntity
  8
RACCORDO
100
AcDbLine
 62
250
  6
CONTINUOUS
 10
22.3328946124
 20
-7.603095441
 11
22.3286570946
 21
-7.744170041
  0
LINE
  5
46E
100
AcDbEntity
  8
RACCORDO
100
AcDbLine
 62
7
  6
CONTINUOUS
 10
22.3314183242
 20
-7.6244229427
 11
22.3277517474
 21
-7.7424757616
  0
LINE
  5
46F
100
AcDbEntity
  8
RACCORDO
100
AcDbLine
 62
250
  6
CONTINUOUS
 10
21.5706885968
 20
23.776348706
 11
21.5835145829
 21
24.1610050099
  0
LINE
  5
470
100
AcDbEntity
  8
RACCORDO
100
AcDbLine
 62
250
  6
CONTINUOUS
 10
22.3582590138
 20
23.0230943583
 11
22.371263817
 21
23.4090795004
  0
LINE
  5
471
100
AcDbEntity
  8
RACCORDO
100
AcDbLine
 62
250
  6
CONTINUOUS
 10
22.3490033833
 20
22.7733466388
 11
22.3582590138
 21
23.0230943583
  0
LINE
  5
472
100
AcDbEntity
  8
RACCORDO
100
AcDbLine
 62
250
  6
CONTINUOUS
 10
22.3286570946
 20
-7.744170041
 11
22.3238294831
 21
-7.8782975956
  0
LINE
  5
473
100
AcDbEntity
  8
RACCORDO
100
AcDbLine
 62
7
  6
CONTINUOUS
 10
22.3277517474
 20
-7.7424757616
 11
22.3238332705
 21
-7.8508931632
  0
LINE
  5
474
100
AcDbEntity
  8
RACCORDO
100
AcDbLine
 62
7
  6
CONTINUOUS
 10
22.3238332705
 20
-7.8508931632
 11
22.3205548581
 21
-7.9309044983
  0
LINE
  5
475
100
AcDbEntity
  8
RACCORDO
100
AcDbLine
 62
250
  6
CONTINUOUS
 10
22.3238294831
 20
-7.8782975956
 11
22.3202991278
 21
-7.9633906825
  0
LINE
  5
476
100
AcDbEntity
  8
RACCORDO
100
AcDbLine
 62
250
  6
CONTINUOUS
 10
22.3436221092
 20
22.6369065731
 11
22.3490033833
 21
22.7733466388
  0
LINE
  5
477
100
AcDbEntity
  8
RACCORDO
100
AcDbLine
 62
7
  6
CONTINUOUS
 10
22.3205548581
 20
-7.9309044983
 11
22.3171764936
 21
-8.0051460833
  0
LINE
  5
478
100
AcDbEntity
  8
RACCORDO
100
AcDbLine
 62
250
  6
CONTINUOUS
 10
22.3202991278
 20
-7.9633906825
 11
22.31652962
 21
-8.0447584231
  0
LINE
  5
479
100
AcDbEntity
  8
RACCORDO
100
AcDbLine
 62
250
  6
CONTINUOUS
 10
22.3428533985
 20
22.6202444581
 11
22.3436221092
 21
22.6369065731
  0
LINE
  5
47A
100
AcDbEntity
  8
RACCORDO
100
AcDbLine
 62
7
  6
CONTINUOUS
 10
22.3171764936
 20
-8.0051460833
 11
22.3137216976
 21
-8.0738129416
  0
LINE
  5
47B
100
AcDbEntity
  8
RACCORDO
100
AcDbLine
 62
250
  6
CONTINUOUS
 10
22.3421946095
 20
22.607311492
 11
22.3428533985
 21
22.6202444581
  0
LINE
  5
47C
100
AcDbEntity
  8
RACCORDO
100
AcDbLine
 62
250
  6
CONTINUOUS
 10
22.31652962
 20
-8.0447584231
 11
22.3125336959
 21
-8.1221053406
  0
LINE
  5
47D
100
AcDbEntity
  8
RACCORDO
100
AcDbLine
 62
7
  6
CONTINUOUS
 10
22.3137216976
 20
-8.0738129416
 11
22.3102120142
 21
-8.1370959795
  0
LINE
  5
47E
100
AcDbEntity
  8
RACCORDO
100
AcDbLine
 62
250
  6
CONTINUOUS
 10
22.3414900498
 20
22.5946530953
 11
22.3421946095
 21
22.607311492
  0
LINE
  5
47F
100
AcDbEntity
  8
RACCORDO
100
AcDbLine
 62
250
  6
CONTINUOUS
 10
22.3125336959
 20
-8.1221053406
 11
22.3083257805
 21
-8.1951667328
  0
LINE
  5
480
100
AcDbEntity
  8
RACCORDO
100
AcDbLine
 62
250
  6
CONTINUOUS
 10
22.3407322604
 20
22.5822170956
 11
22.3414900498
 21
22.5946530953
  0
LINE
  5
481
100
AcDbEntity
  8
RACCORDO
100
AcDbLine
 62
7
  6
CONTINUOUS
 10
22.3102120142
 20
-8.1370959795
 11
22.3066682018
 21
-8.1951870738
  0
LINE
  5
482
100
AcDbEntity
  8
RACCORDO
100
AcDbLine
 62
250
  6
CONTINUOUS
 10
22.3083257805
 20
-8.1951667328
 11
22.303915704
 21
-8.2637746111
  0
LINE
  5
483
100
AcDbEntity
  8
RACCORDO
100
AcDbLine
 62
7
  6
CONTINUOUS
 10
22.3066682018
 20
-8.1951870738
 11
22.3039994944
 21
-8.235459477
  0
LWPOLYLINE
  5
484
100
AcDbEntity
  8
RACCORDO
100
AcDbPolyline
 62
250
  6
CONTINUOUS
 90
3
 70
0
 10
22.3399140285
 20
22.5699844286
 10
22.3401246089
 20
22.5730224248
 10
22.3407322604
 20
22.5822170956
  0
LINE
  5
485
100
AcDbEntity
  8
RACCORDO
100
AcDbLine
 62
7
  6
CONTINUOUS
 10
22.3039994944
 20
-8.235459477
 11
22.3013313607
 21
-8.2729825599
  0
LWPOLYLINE
  5
486
100
AcDbEntity
  8
RACCORDO
100
AcDbPolyline
 62
250
  6
CONTINUOUS
 90
9
 70
0
 10
22.303915704
 20
-8.2637746111
 10
22.2993192207
 20
-8.3276827113
 10
22.296955443
 20
-8.3578188625
 10
22.2945495793
 20
-8.3867204091
 10
22.2921015284
 20
-8.4143899604
 10
22.2896154969
 20
-8.4407751555
 10
22.2870909362
 20
-8.4658789934
 10
22.284528395
 20
-8.489698475
 10
22.281933726
 20
-8.5121722429
  0
LINE
  5
487
100
AcDbEntity
  8
RACCORDO
100
AcDbLine
 62
7
  6
CONTINUOUS
 10
22.3013313607
 20
-8.2729825599
 11
22.2986722027
 21
-8.3078211632
  0
LINE
  5
488
100
AcDbEntity
  8
RACCORDO
100
AcDbLine
 62
7
  6
CONTINUOUS
 10
22.2986722027
 20
-8.3078211632
 11
22.2960316047
 21
-8.3400334294
  0
LINE
  5
489
100
AcDbEntity
  8
RACCORDO
100
AcDbLine
 62
7
  6
CONTINUOUS
 10
22.2960316047
 20
-8.3400334294
 11
22.2934225336
 21
-8.3696382845
  0
LWPOLYLINE
  5
48A
100
AcDbEntity
  8
RACCORDO
100
AcDbPolyline
 62
250
  6
CONTINUOUS
 90
46
 70
0
 10
22.3438725054
 20
-22.6248605815
 10
22.3422978198
 20
-22.64180331
 10
22.3398016999
 20
-22.6587258327
 10
22.3363870268
 20
-22.675608601
 10
22.3320577316
 20
-22.6924318908
 10
22.3268188247
 20
-22.7091764884
 10
22.3206763937
 20
-22.7258237064
 10
22.3136375499
 20
-22.7423545317
 10
22.305710415
 20
-22.7587496324
 10
22.2969041491
 20
-22.7749900382
 10
22.2872289288
 20
-22.7910569758
 10
22.276695935
 20
-22.806931882
 10
22.2653173397
 20
-22.8225964027
 10
22.253106292
 20
-22.8380324302
 10
22.2400769034
 20
-22.8532221306
 10
22.2262442315
 20
-22.8681479564
 10
22.2116242613
 20
-22.8827926537
 10
22.1962338883
 20
-22.897139303
 10
22.1800908989
 20
-22.9111713453
 10
22.1632139487
 20
-22.924872578
 10
22.1456225408
 20
-22.9382271535
 10
22.1273370032
 20
-22.9512196185
 10
22.1083784674
 20
-22.9638349615
 10
22.0887688422
 20
-22.9760586007
 10
22.0685307877
 20
-22.9878763815
 10
22.0476876913
 20
-22.9992746367
 10
22.02626364
 20
-23.0102402048
 10
22.0042833923
 20
-23.0207604161
 10
21.9817723489
 20
-23.0308231116
 10
21.9587565243
 20
-23.0404166644
 10
21.9352625164
 20
-23.0495299957
 10
21.9113174759
 20
-23.0581525795
 10
21.8869490739
 20
-23.0662744458
 10
21.8621854708
 20
-23.0738861995
 10
21.8370552842
 20
-23.0809790461
 10
21.811587555
 20
-23.0875447873
 10
21.7858117138
 20
-23.0935758206
 10
21.7597575476
 20
-23.0990651725
 10
21.7334551655
 20
-23.1040065034
 10
21.706934963
 20
-23.1083940994
 10
21.6802275874
 20
-23.1122228805
 10
21.6533639027
 20
-23.1154884317
 10
21.6263749529
 20
-23.1181870046
 10
21.5992919273
 20
-23.1203154888
 10
21.5721461236
 20
-23.1218714161
 10
21.5449689123
 20
-23.1228529882
  0
LINE
  5
48B
100
AcDbEntity
  8
RACCORDO
100
AcDbLine
 62
7
  6
CONTINUOUS
 10
22.2934225336
 20
-8.3696382845
 11
22.2917074588
 21
-8.3879375378
  0
LINE
  5
48C
100
AcDbEntity
  8
RACCORDO
100
AcDbLine
 62
7
  6
CONTINUOUS
 10
22.2917074588
 20
-8.3879375378
 11
22.2900182518
 21
-8.405084423
  0
LINE
  5
48D
100
AcDbEntity
  8
RACCORDO
100
AcDbLine
 62
7
  6
CONTINUOUS
 10
22.2900182518
 20
-8.405084423
 11
22.2883602956
 21
-8.4210820264
  0
LINE
  5
48E
100
AcDbEntity
  8
RACCORDO
100
AcDbLine
 62
7
  6
CONTINUOUS
 10
22.2883602956
 20
-8.4210820264
 11
22.2867401684
 21
-8.4359263171
  0
LINE
  5
48F
100
AcDbEntity
  8
RACCORDO
100
AcDbLine
 62
7
  6
CONTINUOUS
 10
22.2867401684
 20
-8.4359263171
 11
22.2851653295
 21
-8.4496131294
  0
LINE
  5
490
100
AcDbEntity
  8
RACCORDO
100
AcDbLine
 62
7
  6
CONTINUOUS
 10
22.2851653295
 20
-8.4496131294
 11
22.283643974
 21
-8.4621400219
  0
LWPOLYLINE
  5
491
100
AcDbEntity
  8
RACCORDO
100
AcDbPolyline
 62
250
  6
CONTINUOUS
 90
13
 70
0
 10
22.281933726
 20
-8.5121722429
 10
22.279306247
 20
-8.5332995624
 10
22.2766466403
 20
-8.5530811681
 10
22.2739628052
 20
-8.5714579065
 10
22.271254576
 20
-8.5884224933
 10
22.2685221185
 20
-8.6039822127
 10
22.265773829
 20
-8.6180997641
 10
22.2630095459
 20
-8.6307673845
 10
22.2602294307
 20
-8.6419928369
 10
22.2574423652
 20
-8.6517621093
 10
22.2546513099
 20
-8.660070531
 10
22.2518533042
 20
-8.6669227727
 10
22.2490483482
 20
-8.6723188343
  0
LINE
  5
492
100
AcDbEntity
  8
RACCORDO
100
AcDbLine
 62
7
  6
CONTINUOUS
 10
22.283643974
 20
-8.4621400219
 11
22.2821872262
 21
-8.4734884005
  0
LINE
  5
493
100
AcDbEntity
  8
RACCORDO
100
AcDbLine
 62
7
  6
CONTINUOUS
 10
22.2821872262
 20
-8.4734884005
 11
22.2808081858
 21
-8.4836359863
  0
LWPOLYLINE
  5
494
100
AcDbEntity
  8
RACCORDO
100
AcDbPolyline
 62
7
  6
CONTINUOUS
 90
12
 70
0
 10
22.2808081858
 20
-8.4836359863
 10
22.2795205405
 20
-8.4925703117
 10
22.2789169179
 20
-8.4965713494
 10
22.2783425137
 20
-8.500262813
 10
22.2778033935
 20
-8.5036202042
 10
22.2773012626
 20
-8.5066486629
 10
22.2768386407
 20
-8.50934902
 10
22.2764237517
 20
-8.5116913503
 10
22.2760590482
 20
-8.5136817335
 10
22.2757478795
 20
-8.5153221271
 10
22.2755011208
 20
-8.516577942
 10
22.2753834165
 20
-8.5171596846
  0
LINE
  5
495
100
AcDbEntity
  8
RACCORDO
100
AcDbLine
 62
250
  6
CONTINUOUS
 10
22.2741697553
 20
-8.5141436994
 11
22.2777243491
 21
-8.5040969376
  0
LWPOLYLINE
  5
496
100
AcDbEntity
  8
RACCORDO
100
AcDbPolyline
 62
7
  6
CONTINUOUS
 90
11
 70
0
 10
22.2679214147
 20
-8.509802838
 10
22.2600937924
 20
-8.5289973921
 10
22.2530898676
 20
-8.5484365193
 10
22.2469111124
 20
-8.5680934366
 10
22.2415770241
 20
-8.5878690593
 10
22.2370695062
 20
-8.6077871909
 10
22.2333839833
 20
-8.6278428028
 10
22.2305350358
 20
-8.6479021043
 10
22.2285111716
 20
-8.6679352384
 10
22.2272962812
 20
-8.6880148171
 10
22.2268900626
 20
-8.708165587
  0
LINE
  5
497
100
AcDbEntity
  8
RACCORDO
100
AcDbLine
 62
250
  6
CONTINUOUS
 10
22.2679214147
 20
-8.509802838
 11
22.2685405466
 21
-8.5084838327
  0
LINE
  5
498
100
AcDbEntity
  8
RACCORDO
100
AcDbLine
 62
250
  6
CONTINUOUS
 10
22.2762914837
 20
-8.4915110128
 11
22.2810178871
 21
-8.4821155867
  0
LWPOLYLINE
  5
499
100
AcDbEntity
  8
RACCORDO
100
AcDbPolyline
 62
7
  6
CONTINUOUS
 90
3
 70
0
 10
22.2810137274
 20
-8.4821457462
 10
22.2765910325
 20
-8.4908391428
 10
22.2679214147
 20
-8.509802838
  0
LINE
  5
49A
100
AcDbEntity
  8
RACCORDO
100
AcDbLine
 62
250
  6
CONTINUOUS
 10
22.2490483482
 20
-8.6723188343
 11
22.2275752953
 21
-8.708165587
  0
LINE
  5
49B
100
AcDbEntity
  8
ASSI
100
AcDbLine
 62
7
  6
CONTINUOUS
 10
-22.2268900626
 20
22.4
 11
22.2268900626
 21
22.4
  0
LINE
  5
49C
100
AcDbEntity
  8
RACCORDO
100
AcDbLine
 62
250
  6
CONTINUOUS
 10
-22.2275752953
 20
22.4672922693
 11
-22.2268900626
 21
22.4672922693
  0
LINE
  5
49D
100
AcDbEntity
  8
RACCORDO
100
AcDbLine
 62
250
  6
CONTINUOUS
 10
22.2275752953
 20
22.4672922693
 11
22.2268900626
 21
22.4672922693
  0
LINE
  5
49E
100
AcDbEntity
  8
RACCORDO
100
AcDbLine
 62
250
  6
CONTINUOUS
 10
-21.9279864348
 20
22.7668811297
 11
21.9279864348
 21
22.7668811297
  0
LINE
  5
49F
100
AcDbEntity
  8
RACCORDO
100
AcDbLine
 62
250
  6
CONTINUOUS
 10
-21.9822874572
 20
22.8211821521
 11
21.9822874572
 21
22.8211821521
  0
LINE
  5
4A0
100
AcDbEntity
  8
RACCORDO
100
AcDbLine
 62
250
  6
CONTINUOUS
 10
-21.5452963257
 20
23.1354170168
 11
21.5452963257
 21
23.1354170168
  0
LWPOLYLINE
  5
4A1
100
AcDbEntity
  8
RACCORDO
100
AcDbPolyline
 62
7
  6
CONTINUOUS
 90
37
 70
0
 10
-21.9279864348
 20
22.7661958971
 10
21.9305060659
 20
22.7661851544
 10
21.9442059371
 20
22.7657585442
 10
21.9578587751
 20
22.764709269
 10
21.9714358896
 20
22.7630410382
 10
21.9849110462
 20
22.7607580905
 10
21.9982591523
 20
22.7578658272
 10
22.0114528859
 20
22.7543707591
 10
22.0244649896
 20
22.7502807014
 10
22.0372705787
 20
22.7456043337
 10
22.0498439443
 20
22.7403511796
 10
22.0621592807
 20
22.7345328344
 10
22.0741917371
 20
22.7281610723
 10
22.0859170389
 20
22.7212494048
 10
22.0973113968
 20
22.713812024
 10
22.1083521008
 20
22.7058640247
 10
22.1190168733
 20
22.6974217834
 10
22.1292839192
 20
22.6885023717
 10
22.139132813
 20
22.6791240411
 10
22.1485432885
 20
22.6693055809
 10
22.1574964094
 20
22.6590671499
 10
22.1659738537
 20
22.6484291865
 10
22.1739583351
 20
22.637413308
 10
22.1814334829
 20
22.6260418139
 10
22.1883839167
 20
22.6143373268
 10
22.1947954345
 20
22.6023236546
 10
22.200654338
 20
22.5900249708
 10
22.2059487483
 20
22.5774660972
 10
22.2106670063
 20
22.5646727938
 10
22.2147993464
 20
22.5516707452
 10
22.2183370717
 20
22.538484987
 10
22.2212721077
 20
22.5251426481
 10
22.2235979665
 20
22.5116711042
 10
22.2253090154
 20
22.4980958316
 10
22.2264009967
 20
22.4844432267
 10
22.2268701199
 20
22.4707415889
 10
22.2268898601
 20
22.4672922693
  0
LWPOLYLINE
  5
4A2
100
AcDbEntity
  8
RACCORDO
100
AcDbPolyline
 62
250
  6
CONTINUOUS
 90
46
 70
0
 10
21.9279864348
 20
22.7668811297
 10
21.9383772837
 20
22.7667494185
 10
21.9487826592
 20
22.7662577669
 10
21.9591900749
 20
22.765403792
 10
21.9695918719
 20
22.7641849772
 10
21.97997015
 20
22.7626000472
 10
21.9902970499
 20
22.7606506743
 10
22.0005598521
 20
22.758337738
 10
22.0107456644
 20
22.755662675
 10
22.0208269962
 20
22.7526317357
 10
22.0307898017
 20
22.7492493303
 10
22.0406237645
 20
22.7455192205
 10
22.0503079666
 20
22.741449793
 10
22.0598270193
 20
22.7370489438
 10
22.0691739447
 20
22.7323213936
 10
22.0783409974
 20
22.7272719259
 10
22.0873158465
 20
22.721908238
 10
22.0960895855
 20
22.7162365835
 10
22.104659302
 20
22.7102589767
 10
22.113016721
 20
22.7039806706
 10
22.121149162
 20
22.6974106744
 10
22.1290469137
 20
22.6905563483
 10
22.1367018176
 20
22.6834241289
 10
22.1441025608
 20
22.6760239516
 10
22.1512355598
 20
22.6683693765
 10
22.1580909789
 20
22.6604715473
 10
22.1646622226
 20
22.6523387438
 10
22.1709415639
 20
22.6439811295
 10
22.1769199412
 20
22.6354115129
 10
22.1825922058
 20
22.626638084
 10
22.1879562767
 20
22.6176639342
 10
22.1930058178
 20
22.6084982307
 10
22.1977333173
 20
22.5991530967
 10
22.2021342876
 20
22.5896357308
 10
22.2062040073
 20
22.5799530747
 10
22.209934555
 20
22.5701205305
 10
22.2133176919
 20
22.5601584958
 10
22.2163496406
 20
22.5500770818
 10
22.2190258578
 20
22.5398904908
 10
22.2213400131
 20
22.5296262246
 10
22.2232905994
 20
22.5192971761
 10
22.2248766716
 20
22.5089160505
 10
22.2260964869
 20
22.4985107036
 10
22.226951252
 20
22.4880990393
 10
22.2274434161
 20
22.4776887277
 10
22.2275752953
 20
22.4672922693
  0
LINE
  5
4A3
100
AcDbEntity
  8
RACCORDO
100
AcDbLine
 62
250
  6
CONTINUOUS
 10
22.2275752953
 20
8.708165587
 11
22.2490483482
 21
8.6723188343
  0
LWPOLYLINE
  5
4A4
100
AcDbEntity
  8
RACCORDO
100
AcDbPolyline
 62
250
  6
CONTINUOUS
 90
13
 70
0
 10
22.2490483482
 20
8.6723188343
 10
22.2518540312
 20
8.6669211647
 10
22.2546527467
 20
8.6600666252
 10
22.2574444948
 20
8.6517552159
 10
22.2602322726
 20
8.6419820099
 10
22.263013083
 20
8.630751934
 10
22.2657779345
 20
8.6180797685
 10
22.2685266279
 20
8.6039578114
 10
22.2712593624
 20
8.5883937647
 10
22.2739677433
 20
8.5714255146
 10
22.2766515821
 20
8.553045988
 10
22.2793110673
 20
8.533262258
 10
22.2819383703
 20
8.5121334299
  0
LWPOLYLINE
  5
4A5
100
AcDbEntity
  8
RACCORDO
100
AcDbPolyline
 62
7
  6
CONTINUOUS
 90
3
 70
0
 10
22.2810148547
 20
8.4821435303
 10
22.2765910325
 20
8.4908391428
 10
22.2679214147
 20
8.509802838
  0
LINE
  5
4A6
100
AcDbEntity
  8
RACCORDO
100
AcDbLine
 62
250
  6
CONTINUOUS
 10
22.2762914837
 20
8.4915110127
 11
22.2810191153
 21
8.4821131453
  0
LINE
  5
4A7
100
AcDbEntity
  8
RACCORDO
100
AcDbLine
 62
250
  6
CONTINUOUS
 10
22.2679214147
 20
8.509802838
 11
22.2685405466
 21
8.5084838325
  0
LWPOLYLINE
  5
4A8
100
AcDbEntity
  8
RACCORDO
100
AcDbPolyline
 62
7
  6
CONTINUOUS
 90
11
 70
0
 10
22.2679214147
 20
8.509802838
 10
22.2600937924
 20
8.5289973921
 10
22.2530898676
 20
8.5484365193
 10
22.2469111124
 20
8.5680934366
 10
22.2415770241
 20
8.5878690593
 10
22.2370695062
 20
8.6077871909
 10
22.2333839833
 20
8.6278428028
 10
22.2305350358
 20
8.6479021043
 10
22.2285111716
 20
8.6679352384
 10
22.2272962812
 20
8.6880148171
 10
22.2268900626
 20
8.708165587
  0
LINE
  5
4A9
100
AcDbEntity
  8
RACCORDO
100
AcDbLine
 62
250
  6
CONTINUOUS
 10
22.2741697668
 20
8.5141436645
 11
22.2777223036
 21
8.5041027193
  0
LWPOLYLINE
  5
4AA
100
AcDbEntity
  8
RACCORDO
100
AcDbPolyline
 62
7
  6
CONTINUOUS
 90
14
 70
0
 10
22.275218826
 20
8.5179513161
 10
22.2751938028
 20
8.5180620582
 10
22.2752272181
 20
8.5179078335
 10
22.2753490268
 20
8.5173271447
 10
22.2755441798
 20
8.5163621701
 10
22.2758077679
 20
8.5150110319
 10
22.2761365914
 20
8.5132643387
 10
22.2765201648
 20
8.5111540926
 10
22.2769550981
 20
8.508677663
 10
22.2774389489
 20
8.5058279568
 10
22.2779640023
 20
8.5026311089
 10
22.2785274919
 20
8.4990866372
 10
22.2791279403
 20
8.4951866346
 10
22.2797605351
 20
8.4909458879
  0
LINE
  5
4AB
100
AcDbEntity
  8
RACCORDO
100
AcDbLine
 62
7
  6
CONTINUOUS
 10
22.2797605351
 20
8.4909458879
 11
22.2811147842
 21
8.4814308646
  0
LINE
  5
4AC
100
AcDbEntity
  8
RACCORDO
100
AcDbLine
 62
7
  6
CONTINUOUS
 10
22.2811147842
 20
8.4814308646
 11
22.282576365
 21
8.470519406
  0
LINE
  5
4AD
100
AcDbEntity
  8
RACCORDO
100
AcDbLine
 62
7
  6
CONTINUOUS
 10
22.282576365
 20
8.470519406
 11
22.2841340268
 21
8.4581797079
  0
LINE
  5
4AE
100
AcDbEntity
  8
RACCORDO
100
AcDbLine
 62
7
  6
CONTINUOUS
 10
22.2841340268
 20
8.4581797079
 11
22.2857778996
 21
8.4443763285
  0
LWPOLYLINE
  5
4AF
100
AcDbEntity
  8
RACCORDO
100
AcDbPolyline
 62
250
  6
CONTINUOUS
 90
8
 70
0
 10
22.2819383703
 20
8.5121334299
 10
22.2845328032
 20
8.4896590017
 10
22.2870950538
 20
8.4658394754
 10
22.2896193568
 20
8.4407354618
 10
22.2921051892
 20
8.414349827
 10
22.294553074
 20
8.3866797049
 10
22.2969588145
 20
8.3577771081
 10
22.2993225285
 20
8.3276391928
  0
LINE
  5
4B0
100
AcDbEntity
  8
RACCORDO
100
AcDbLine
 62
7
  6
CONTINUOUS
 10
22.2857778996
 20
8.4443763285
 11
22.2875006961
 21
8.4290546986
  0
LWPOLYLINE
  5
4B1
100
AcDbEntity
  8
RACCORDO
100
AcDbPolyline
 62
250
  6
CONTINUOUS
 90
43
 70
0
 10
22.3943044775
 20
-24.1245085582
 10
22.3924239911
 20
-24.1376439533
 10
22.3894940833
 20
-24.1507620531
 10
22.3855186121
 20
-24.1638455855
 10
22.3805028116
 20
-24.1768773237
 10
22.3744532863
 20
-24.1898401091
 10
22.3673780013
 20
-24.2027168739
 10
22.3592862726
 20
-24.2154906635
 10
22.3501887543
 20
-24.2281446591
 10
22.3400974251
 20
-24.2406621994
 10
22.3290255718
 20
-24.2530268029
 10
22.3169877726
 20
-24.2652221895
 10
22.3039998774
 20
-24.2772323017
 10
22.290078987
 20
-24.2890413261
 10
22.2752434308
 20
-24.3006337141
 10
22.2595127424
 20
-24.3119942023
 10
22.2429076341
 20
-24.3231078326
 10
22.2254499693
 20
-24.3339599719
 10
22.2071627343
 20
-24.3445363316
 10
22.1880700073
 20
-24.3548229859
 10
22.1681969273
 20
-24.3648063908
 10
22.1475696608
 20
-24.3744734012
 10
22.1262153672
 20
-24.383811289
 10
22.1041621631
 20
-24.3928077591
 10
22.0814390855
 20
-24.4014509661
 10
22.0580760533
 20
-24.4097295297
 10
22.034103828
 20
-24.4176325498
 10
22.0095539734
 20
-24.4251496206
 10
21.9844588135
 20
-24.4322708446
 10
21.9588513907
 20
-24.4389868455
 10
21.9327654215
 20
-24.4452887805
 10
21.9062352527
 20
-24.451168352
 10
21.8792958159
 20
-24.4566178184
 10
21.8519825817
 20
-24.4616300047
 10
21.8243315127
 20
-24.4661983114
 10
21.7963790163
 20
-24.4703167236
 10
21.768161897
 20
-24.4739798185
 10
21.7397173076
 20
-24.4771827733
 10
21.7110827002
 20
-24.4799213704
 10
21.6822957774
 20
-24.4821920043
 10
21.6533944423
 20
-24.4839916851
 10
21.6244167485
 20
-24.4853180433
 10
21.5954008501
 20
-24.4861693324
  0
LINE
  5
4B2
100
AcDbEntity
  8
RACCORDO
100
AcDbLine
 62
250
  6
CONTINUOUS
 10
22.3010752837
 20
-22.4835478734
 11
22.2965651493
 21
-22.4979327825
  0
LINE
  5
4B3
100
AcDbEntity
  8
RACCORDO
100
AcDbLine
 62
250
  6
CONTINUOUS
 10
22.2965651493
 20
-22.4979327825
 11
22.2957664897
 21
-22.5004324243
  0
LWPOLYLINE
  5
4B4
100
AcDbEntity
  8
RACCORDO
100
AcDbPolyline
 62
250
  6
CONTINUOUS
 90
3
 70
0
 10
22.3026329839
 20
-22.4786976115
 10
22.3021017524
 20
-22.4803381144
 10
22.3010752837
 20
-22.4835478734
  0
LINE
  5
4B5
100
AcDbEntity
  8
RACCORDO
100
AcDbLine
 62
250
  6
CONTINUOUS
 10
22.2957664897
 20
-22.5004324243
 11
22.2949973023
 21
-22.5027988013
  0
LWPOLYLINE
  5
4B6
100
AcDbEntity
  8
RACCORDO
100
AcDbPolyline
 62
250
  6
CONTINUOUS
 90
45
 70
0
 10
22.2949973023
 20
-22.5027988013
 10
22.2942554187
 20
-22.5050300993
 10
22.2938940765
 20
-22.5060951312
 10
22.2935388842
 20
-22.5071263127
 10
22.2931898729
 20
-22.5081237223
 10
22.2928464799
 20
-22.509087514
 10
22.2925086507
 20
-22.5100176985
 10
22.2921764398
 20
-22.5109142651
 10
22.2918494478
 20
-22.5117773349
 10
22.2915276792
 20
-22.5126067809
 10
22.2912111295
 20
-22.5134027301
 10
22.2908993853
 20
-22.5141656854
 10
22.2905924425
 20
-22.5148955779
 10
22.2902903052
 20
-22.5155924766
 10
22.2899925715
 20
-22.5162570913
 10
22.2896992298
 20
-22.516889396
 10
22.2894102917
 20
-22.5174894168
 10
22.2891253899
 20
-22.5180579426
 10
22.28884452
 20
-22.518594953
 10
22.2885676865
 20
-22.5191004685
 10
22.2882945357
 20
-22.5195753394
 10
22.2880250587
 20
-22.5200195714
 10
22.2877592644
 20
-22.5204331588
 10
22.2874968266
 20
-22.5208169352
 10
22.2872377242
 20
-22.5211709267
 10
22.2869819783
 20
-22.5214951072
 10
22.2867293259
 20
-22.5217902314
 10
22.2864797603
 20
-22.5220563059
 10
22.2862332881
 20
-22.5222933242
 10
22.2859896668
 20
-22.5225020202
 10
22.2857488938
 20
-22.5226824065
 10
22.2855109715
 20
-22.5228344705
 10
22.2852756649
 20
-22.5229589096
 10
22.2850429695
 20
-22.5230557466
 10
22.2848128898
 20
-22.5231249585
 10
22.284585204
 20
-22.5231671739
 10
22.284359907
 20
-22.5231824216
 10
22.2841370041
 20
-22.5231706726
 10
22.2839162894
 20
-22.5231324689
 10
22.2836977578
 20
-22.5230678416
 10
22.2834814144
 20
-22.5229767595
 10
22.2832670691
 20
-22.5228596701
 10
22.2830546584
 20
-22.5227167224
 10
22.2828442457
 20
-22.5225477675
 10
22.2826358311
 20
-22.5223528051
  0
LINE
  5
4B7
100
AcDbEntity
  8
0
100
AcDbLine
 62
250
  6
CONTINUOUS
 10
43.6930948001
 20
32.8767123288
 11
43.4254113434
 21
32.8471993985
  0
LINE
  5
4B8
100
AcDbEntity
  8
RACCORDO
100
AcDbLine
 62
250
  6
CONTINUOUS
 10
-21.9356112394
 20
26.8146773088
 11
21.9356112394
 21
26.8146773088
  0
LINE
  5
4B9
100
AcDbEntity
  8
0
100
AcDbLine
 62
250
  6
CONTINUOUS
 10
-43.6930948001
 20
32.8767123288
 11
-43.4254113434
 21
32.8471993985
  0
LINE
  5
4BA
100
AcDbEntity
  8
RACCORDO
100
AcDbLine
 62
250
  6
CONTINUOUS
 10
22.30139492
 20
22.4838378256
 11
22.3024705673
 21
22.4809071755
  0
LINE
  5
4BB
100
AcDbEntity
  8
RACCORDO
100
AcDbLine
 62
250
  6
CONTINUOUS
 10
22.2934932998
 20
22.5062179459
 11
22.2942443202
 21
22.5041728511
  0
LINE
  5
4BC
100
AcDbEntity
  8
RACCORDO
100
AcDbLine
 62
250
  6
CONTINUOUS
 10
22.2942443202
 20
22.5041728511
 11
22.295022437
 21
22.5020076446
  0
LINE
  5
4BD
100
AcDbEntity
  8
RACCORDO
100
AcDbLine
 62
250
  6
CONTINUOUS
 10
22.3003676406
 20
22.4867062014
 11
22.30139492
 21
22.4838378256
  0
LINE
  5
4BE
100
AcDbEntity
  8
RACCORDO
100
AcDbLine
 62
250
  6
CONTINUOUS
 10
22.295022437
 20
22.5020076446
 11
22.2962437985
 21
22.4985392866
  0
LINE
  5
4BF
100
AcDbEntity
  8
RACCORDO
100
AcDbLine
 62
250
  6
CONTINUOUS
 10
22.2989081258
 20
22.4908645909
 11
22.3003676406
 21
22.4867062014
  0
LINE
  5
4C0
100
AcDbEntity
  8
RACCORDO
100
AcDbLine
 62
250
  6
CONTINUOUS
 10
22.2962437985
 20
22.4985392866
 11
22.2989081258
 21
22.4908645909
  0
LWPOLYLINE
  5
4C1
100
AcDbEntity
  8
RACCORDO
100
AcDbPolyline
 62
250
  6
CONTINUOUS
 90
43
 70
0
 10
22.3939663542
 20
24.2174731034
 10
22.3920668741
 20
24.2298169856
 10
22.3891189506
 20
24.2421446304
 10
22.3851264616
 20
24.254439821
 10
22.3800946591
 20
24.2666863834
 10
22.3740301625
 20
24.2788682073
 10
22.3669409494
 20
24.2909692678
 10
22.3588363455
 20
24.3029736462
 10
22.3497270122
 20
24.3148655511
 10
22.3396249328
 20
24.3266293387
 10
22.3285433963
 20
24.3382495341
 10
22.3164969802
 20
24.3497108511
 10
22.3035015313
 20
24.3609982125
 10
22.2895741449
 20
24.3720967701
 10
22.2747331423
 20
24.3829919239
 10
22.2589980463
 20
24.3936693416
 10
22.2423895563
 20
24.4041149772
 10
22.2249295203
 20
24.4143150896
 10
22.2066409067
 20
24.4242562608
 10
22.1875477738
 20
24.4339254133
 10
22.1676752382
 20
24.4433098277
 10
22.1470494418
 20
24.4523971588
 10
22.1256975175
 20
24.4611754524
 10
22.1036475532
 20
24.4696331609
 10
22.0809285553
 20
24.4777591583
 10
22.0575704101
 20
24.485542755
 10
22.0336038448
 20
24.4929737117
 10
22.009060387
 20
24.5000422534
 10
21.983972323
 20
24.5067390812
 10
21.9583726556
 20
24.5130553858
 10
21.9322950608
 20
24.5189828582
 10
21.9057738431
 20
24.5245137008
 10
21.8788438906
 20
24.5296406379
 10
21.8515406291
 20
24.5343569251
 10
21.8238999754
 20
24.5386563582
 10
21.7959582904
 20
24.5425332815
 10
21.7677523308
 20
24.5459825948
 10
21.7393192008
 20
24.5489997606
 10
21.7106963037
 20
24.55158081
 10
21.6819212924
 20
24.5537223475
 10
21.6530320198
 20
24.555421556
 10
21.6240664891
 20
24.5566762003
 10
21.595062804
 20
24.5574846298
  0
LWPOLYLINE
  5
4C2
100
AcDbEntity
  8
RACCORDO
100
AcDbPolyline
 62
250
  6
CONTINUOUS
 90
38
 70
0
 10
21.778272831
 20
-22.921447762
 10
21.7641432285
 20
-22.9282993207
 10
21.7504371716
 20
-22.9350476107
 10
21.7370008404
 20
-22.9417470528
 10
21.7239456007
 20
-22.9484081375
 10
21.7112915171
 20
-22.9550105783
 10
21.6990185249
 20
-22.961541014
 10
21.687177796
 20
-22.9680264525
 10
21.6757436817
 20
-22.9744774349
 10
21.6647418307
 20
-22.9808598667
 10
21.6543003605
 20
-22.9871358333
 10
21.6444766146
 20
-22.9932659836
 10
21.6352132495
 20
-22.9992648482
 10
21.6264663533
 20
-23.005177286
 10
21.618237752
 20
-23.0109970305
 10
21.6105256195
 20
-23.0167142403
 10
21.6032805651
 20
-23.0223733609
 10
21.5964927986
 20
-23.0279792551
 10
21.5901721103
 20
-23.0335166456
 10
21.5842984808
 20
-23.0390027501
 10
21.5788695986
 20
-23.0444416084
 10
21.5738877752
 20
-23.0498211207
 10
21.569339926
 20
-23.0551351709
 10
21.5652322314
 20
-23.0603824667
 10
21.5615585109
 20
-23.0655567806
 10
21.5582871382
 20
-23.0706444661
 10
21.5554249082
 20
-23.0756432298
 10
21.552965026
 20
-23.0805481173
 10
21.5508554802
 20
-23.0853411083
 10
21.549101789
 20
-23.0900196758
 10
21.5476984342
 20
-23.0945793174
 10
21.5465768502
 20
-23.098998591
 10
21.5457385698
 20
-23.1032496638
 10
21.5451820603
 20
-23.1073533222
 10
21.5448341572
 20
-23.1113618903
 10
21.5446704725
 20
-23.1152918552
 10
21.5447153942
 20
-23.1191228266
 10
21.5449689224
 20
-23.1228528744
  0
LINE
  5
4C3
100
AcDbEntity
  8
RACCORDO
100
AcDbLine
 62
250
  6
CONTINUOUS
 10
21.9594095971
 20
-22.8378410635
 11
21.950934176
 21
-22.8419039659
  0
LWPOLYLINE
  5
4C4
100
AcDbEntity
  8
RACCORDO
100
AcDbPolyline
 62
250
  6
CONTINUOUS
 90
3
 70
0
 10
21.8205225191
 20
-22.9015177418
 10
21.8067683877
 20
-22.9079525428
 10
21.778272831
 20
-22.921447762
  0
LINE
  5
4C5
100
AcDbEntity
  8
RACCORDO
100
AcDbLine
 62
250
  6
CONTINUOUS
 10
21.950934176
 20
-22.8419039659
 11
21.9407372024
 21
-22.846666603
  0
LINE
  5
4C6
100
AcDbEntity
  8
RACCORDO
100
AcDbLine
 62
250
  6
CONTINUOUS
 10
21.8466656472
 20
-22.8894843743
 11
21.8205225191
 21
-22.9015177418
  0
LINE
  5
4C7
100
AcDbEntity
  8
RACCORDO
100
AcDbLine
 62
250
  6
CONTINUOUS
 10
21.9407372024
 20
-22.846666603
 11
21.9287008837
 21
-22.8522078644
  0
LINE
  5
4C8
100
AcDbEntity
  8
RACCORDO
100
AcDbLine
 62
250
  6
CONTINUOUS
 10
21.9287008837
 20
-22.8522078644
 11
21.8466656472
 21
-22.8894843743
  0
LINE
  5
4C9
100
AcDbEntity
  8
0
100
AcDbLine
 62
250
  6
CONTINUOUS
 10
38.229918633
 20
32.7861074203
 11
37.9884860433
 21
32.7626024392
  0
LINE
  5
4CA
100
AcDbEntity
  8
0
100
AcDbLine
 62
250
  6
CONTINUOUS
 10
38.4708811295
 20
32.8085641884
 11
38.229918633
 21
32.7861074203
  0
LINE
  5
4CB
100
AcDbEntity
  8
0
100
AcDbLine
 62
250
  6
CONTINUOUS
 10
38.7109043548
 20
32.829929018
 11
38.4708811295
 21
32.8085641884
  0
LINE
  5
4CC
100
AcDbEntity
  8
0
100
AcDbLine
 62
250
  6
CONTINUOUS
 10
38.9495209598
 20
32.8501603096
 11
38.7109043548
 21
32.829929018
  0
LINE
  5
4CD
100
AcDbEntity
  8
0
100
AcDbLine
 62
250
  6
CONTINUOUS
 10
39.1862663342
 20
32.8692186709
 11
38.9495209598
 21
32.8501603096
  0
LINE
  5
4CE
100
AcDbEntity
  8
0
100
AcDbLine
 62
250
  6
CONTINUOUS
 10
39.4206795112
 20
32.8870669933
 11
39.1862663342
 21
32.8692186709
  0
LINE
  5
4CF
100
AcDbEntity
  8
0
100
AcDbLine
 62
250
  6
CONTINUOUS
 10
39.6523040652
 20
32.9036705245
 11
39.4206795112
 21
32.8870669933
  0
LINE
  5
4D0
100
AcDbEntity
  8
0
100
AcDbLine
 62
250
  6
CONTINUOUS
 10
39.880689
 20
32.9189969356
 11
39.6523040652
 21
32.9036705245
  0
LINE
  5
4D1
100
AcDbEntity
  8
0
100
AcDbLine
 62
250
  6
CONTINUOUS
 10
40.1053896274
 20
32.9330163847
 11
39.880689
 21
32.9189969356
  0
LINE
  5
4D2
100
AcDbEntity
  8
0
100
AcDbLine
 62
250
  6
CONTINUOUS
 10
40.325968433
 20
32.9457015744
 11
40.1053896274
 21
32.9330163847
  0
LINE
  5
4D3
100
AcDbEntity
  8
0
100
AcDbLine
 62
250
  6
CONTINUOUS
 10
40.5419959279
 20
32.9570278055
 11
40.325968433
 21
32.9457015744
  0
LINE
  5
4D4
100
AcDbEntity
  8
0
100
AcDbLine
 62
250
  6
CONTINUOUS
 10
40.7530514851
 20
32.9669730247
 11
40.5419959279
 21
32.9570278055
  0
LINE
  5
4D5
100
AcDbEntity
  8
0
100
AcDbLine
 62
250
  6
CONTINUOUS
 10
40.9587241585
 20
32.9755178676
 11
40.7530514851
 21
32.9669730247
  0
LINE
  5
4D6
100
AcDbEntity
  8
0
100
AcDbLine
 62
250
  6
CONTINUOUS
 10
41.1586134828
 20
32.9826456965
 11
40.9587241585
 21
32.9755178676
  0
LINE
  5
4D7
100
AcDbEntity
  8
0
100
AcDbLine
 62
250
  6
CONTINUOUS
 10
41.3523302537
 20
32.9883426329
 11
41.1586134828
 21
32.9826456965
  0
LINE
  5
4D8
100
AcDbEntity
  8
0
100
AcDbLine
 62
250
  6
CONTINUOUS
 10
41.5394972854
 20
32.9925975842
 11
41.3523302537
 21
32.9883426329
  0
LINE
  5
4D9
100
AcDbEntity
  8
RACCORDO
100
AcDbLine
 62
250
  6
CONTINUOUS
 10
-23.1592434447
 20
32.2156939465
 11
23.1592434447
 21
32.2156939465
  0
LINE
  5
4DA
100
AcDbEntity
  8
0
100
AcDbLine
 62
250
  6
CONTINUOUS
 10
-41.7197501412
 20
32.9954022651
 11
-41.5394972818
 21
32.9925975837
  0
LINE
  5
4DB
100
AcDbEntity
  8
0
100
AcDbLine
 62
250
  6
CONTINUOUS
 10
-41.5394972818
 20
32.9925975837
 11
-41.3523302503
 21
32.9883426323
  0
LINE
  5
4DC
100
AcDbEntity
  8
0
100
AcDbLine
 62
250
  6
CONTINUOUS
 10
-41.3523302503
 20
32.9883426323
 11
-41.1586134797
 21
32.982645696
  0
LINE
  5
4DD
100
AcDbEntity
  8
0
100
AcDbLine
 62
250
  6
CONTINUOUS
 10
-41.1586134797
 20
32.982645696
 11
-40.9587241556
 21
32.9755178671
  0
LINE
  5
4DE
100
AcDbEntity
  8
0
100
AcDbLine
 62
250
  6
CONTINUOUS
 10
-40.9587241556
 20
32.9755178671
 11
-40.7530514825
 21
32.9669730243
  0
LINE
  5
4DF
100
AcDbEntity
  8
0
100
AcDbLine
 62
250
  6
CONTINUOUS
 10
-40.7530514825
 20
32.9669730243
 11
-40.5419959255
 21
32.9570278051
  0
LINE
  5
4E0
100
AcDbEntity
  8
0
100
AcDbLine
 62
250
  6
CONTINUOUS
 10
-40.5419959255
 20
32.9570278051
 11
-40.3259684308
 21
32.9457015741
  0
LINE
  5
4E1
100
AcDbEntity
  8
0
100
AcDbLine
 62
250
  6
CONTINUOUS
 10
-40.3259684308
 20
32.9457015741
 11
-40.1053896255
 21
32.9330163844
  0
LINE
  5
4E2
100
AcDbEntity
  8
0
100
AcDbLine
 62
250
  6
CONTINUOUS
 10
-40.1053896255
 20
32.9330163844
 11
-39.8806889983
 21
32.9189969353
  0
LINE
  5
4E3
100
AcDbEntity
  8
0
100
AcDbLine
 62
250
  6
CONTINUOUS
 10
-39.8806889983
 20
32.9189969353
 11
-39.6523040638
 21
32.9036705242
  0
LINE
  5
4E4
100
AcDbEntity
  8
0
100
AcDbLine
 62
250
  6
CONTINUOUS
 10
-39.6523040638
 20
32.9036705242
 11
-39.42067951
 21
32.8870669931
  0
LINE
  5
4E5
100
AcDbEntity
  8
0
100
AcDbLine
 62
250
  6
CONTINUOUS
 10
-39.42067951
 20
32.8870669931
 11
-39.1862663332
 21
32.8692186707
  0
LINE
  5
4E6
100
AcDbEntity
  8
0
100
AcDbLine
 62
250
  6
CONTINUOUS
 10
-39.1862663332
 20
32.8692186707
 11
-38.949520959
 21
32.8501603094
  0
LINE
  5
4E7
100
AcDbEntity
  8
0
100
AcDbLine
 62
250
  6
CONTINUOUS
 10
-38.949520959
 20
32.8501603094
 11
-38.7109043542
 21
32.8299290179
  0
LINE
  5
4E8
100
AcDbEntity
  8
0
100
AcDbLine
 62
250
  6
CONTINUOUS
 10
-38.7109043542
 20
32.8299290179
 11
-38.4708811292
 21
32.8085641883
  0
LINE
  5
4E9
100
AcDbEntity
  8
0
100
AcDbLine
 62
250
  6
CONTINUOUS
 10
-38.4708811292
 20
32.8085641883
 11
-38.2299186329
 21
32.7861074203
  0
LINE
  5
4EA
100
AcDbEntity
  8
0
100
AcDbLine
 62
250
  6
CONTINUOUS
 10
-38.2299186329
 20
32.7861074203
 11
-37.9884860433
 21
32.7626024393
  0
LWPOLYLINE
  5
4EB
100
AcDbEntity
  8
RACCORDO
100
AcDbPolyline
 62
250
  6
CONTINUOUS
 90
28
 70
0
 10
22.5596199846
 20
26.6685813066
 10
22.5429516224
 20
26.6742501683
 10
22.5255901543
 20
26.6799532945
 10
22.5075553934
 20
26.6856841767
 10
22.4888679214
 20
26.6914362748
 10
22.4695490645
 20
26.6972030245
 10
22.4496208699
 20
26.7029778445
 10
22.4291060798
 20
26.7087541446
 10
22.408028106
 20
26.7145253328
 10
22.386411003
 20
26.720284823
 10
22.3642794406
 20
26.7260260422
 10
22.3416586757
 20
26.7317424386
 10
22.3185745233
 20
26.7374274885
 10
22.2950533275
 20
26.743074704
 10
22.2711219311
 20
26.7486776405
 10
22.2468076448
 20
26.7542299038
 10
22.2221382166
 20
26.7597251576
 10
22.1971417994
 20
26.7651571305
 10
22.1718469197
 20
26.7705196237
 10
22.1462824443
 20
26.7758065172
 10
22.1204775478
 20
26.7810117776
 10
22.094461679
 20
26.7861294647
 10
22.0682645278
 20
26.791153738
 10
22.0419159906
 20
26.7960788637
 10
22.0154461369
 20
26.8008992212
 10
21.9888851744
 20
26.8056093095
 10
21.9622634148
 20
26.8102037533
 10
21.9356112394
 20
26.8146773094
  0
LINE
  5
4EC
100
AcDbEntity
  8
RACCORDO
100
AcDbLine
 62
250
  6
CONTINUOUS
 10
21.8474627731
 20
22.8910657505
 11
21.9283949722
 21
22.8525411097
  0
LINE
  5
4ED
100
AcDbEntity
  8
RACCORDO
100
AcDbLine
 62
250
  6
CONTINUOUS
 10
21.9283949722
 20
22.8525411097
 11
21.9403091582
 21
22.8468039698
  0
LINE
  5
4EE
100
AcDbEntity
  8
RACCORDO
100
AcDbLine
 62
250
  6
CONTINUOUS
 10
21.8217944638
 20
22.9034550534
 11
21.8474627731
 21
22.8910657505
  0
LINE
  5
4EF
100
AcDbEntity
  8
RACCORDO
100
AcDbLine
 62
250
  6
CONTINUOUS
 10
21.9403091582
 20
22.8468039698
 11
21.9504104518
 21
22.8418721108
  0
LWPOLYLINE
  5
4F0
100
AcDbEntity
  8
RACCORDO
100
AcDbPolyline
 62
250
  6
CONTINUOUS
 90
20
 70
0
 10
21.9504104518
 20
22.8418721108
 10
21.9588141591
 20
22.8376639414
 10
21.9624439239
 20
22.8358063466
 10
21.9656917901
 20
22.8341013083
 10
21.9686123234
 20
22.8325388291
 10
21.9712064712
 20
22.8311109222
 10
21.9734732862
 20
22.8298096334
 10
21.9754644927
 20
22.8286258888
 10
21.9771813745
 20
22.8275524025
 10
21.9786226477
 20
22.8265823689
 10
21.979836186
 20
22.8257082227
 10
21.9808228782
 20
22.824923088
 10
21.9815818355
 20
22.8242214026
 10
21.9821582642
 20
22.8235978839
 10
21.9825519254
 20
22.8230468893
 10
21.982763058
 20
22.8225624017
 10
21.9828375852
 20
22.8221387824
 10
21.9827908146
 20
22.8217707833
 10
21.9826074386
 20
22.8214534906
 10
21.9822874572
 20
22.8211821521
  0
LWPOLYLINE
  5
4F1
100
AcDbEntity
  8
RACCORDO
100
AcDbPolyline
 62
250
  6
CONTINUOUS
 90
61
 70
0
 10
22.3024705673
 20
22.4809071755
 10
22.3030279967
 20
22.4794274696
 10
22.3035988239
 20
22.4779399468
 10
22.3041832134
 20
22.4764455674
 10
22.3047831332
 20
22.4749554039
 10
22.3053972175
 20
22.4734701435
 10
22.3060268321
 20
22.471989099
 10
22.3066780431
 20
22.4705212816
 10
22.3073533333
 20
22.4690582199
 10
22.3080502199
 20
22.4676083853
 10
22.3087673206
 20
22.4662062024
 10
22.3095087588
 20
22.4648453811
 10
22.310270411
 20
22.4635322116
 10
22.3110385248
 20
22.4623199893
 10
22.3118151483
 20
22.4612145756
 10
22.3125982332
 20
22.4602101092
 10
22.3133678824
 20
22.4593423016
 10
22.3141196855
 20
22.4586248853
 10
22.3148580529
 20
22.4580441279
 10
22.3155763176
 20
22.457594544
 10
22.3162712082
 20
22.4572800029
 10
22.3169459961
 20
22.4570966354
 10
22.3176038294
 20
22.4570273473
 10
22.3182449055
 20
22.4570708642
 10
22.3188690269
 20
22.4572284607
 10
22.3194787494
 20
22.4574868663
 10
22.3200743792
 20
22.4578452691
 10
22.3206556102
 20
22.4583044811
 10
22.3212240799
 20
22.4588536668
 10
22.3217798829
 20
22.4594922485
 10
22.3223229246
 20
22.460220804
 10
22.3228545583
 20
22.4610302314
 10
22.323374873
 20
22.4619201069
 10
22.3238837798
 20
22.4628908544
 10
22.3243823656
 20
22.4639346437
 10
22.32487068
 20
22.465051105
 10
22.3253486735
 20
22.4662406081
 10
22.3258172846
 20
22.4674964319
 10
22.3262765497
 20
22.4688182464
 10
22.3267264325
 20
22.4702063816
 10
22.3271677627
 20
22.4716551067
 10
22.3276005812
 20
22.4731641774
 10
22.3280248472
 20
22.4747338381
 10
22.3284412684
 20
22.4763590911
 10
22.328849865
 20
22.4780396722
 10
22.3292506167
 20
22.4797758456
 10
22.329644171
 20
22.4815634063
 10
22.3300305534
 20
22.4834021529
 10
22.3304097384
 20
22.4852922868
 10
22.3307822962
 20
22.4872302066
 10
22.3311482445
 20
22.4892157105
 10
22.3315075657
 20
22.4912490004
 10
22.3318607774
 20
22.4933270807
 10
22.3322079159
 20
22.495449918
 10
22.332548945
 20
22.4976175457
 10
22.332884274
 20
22.4998270683
 10
22.3332138938
 20
22.5020781865
 10
22.3335378135
 20
22.5043711997
 10
22.3338564696
 20
22.5067041108
 10
22.3341698253
 20
22.5090763091
 10
22.3347812922
 20
22.5139402347
  0
LINE
  5
4F2
100
AcDbEntity
  8
0
100
AcDbLine
 62
250
  6
CONTINUOUS
 10
35.7412789387
 20
40.0
 11
35.7412789387
 21
34.8288725375
  0
LINE
  5
4F3
100
AcDbEntity
  8
0
100
AcDbLine
 62
250
  6
CONTINUOUS
 10
35.7412789387
 20
-40.0
 11
35.7412789387
 21
-34.8288725375
  0
LINE
  5
4F4
100
AcDbEntity
  8
0
100
AcDbLine
 62
250
  6
CONTINUOUS
 10
-35.7412789387
 20
34.8288725375
 11
35.7412789387
 21
34.8288725375
  0
LWPOLYLINE
  5
4F5
100
AcDbEntity
  8
0
100
AcDbPolyline
 62
250
  6
CONTINUOUS
 90
76
 70
0
 10
35.7412789387
 20
34.8288725375
 10
35.7856848689
 20
34.8284280024
 10
35.8300400263
 20
34.8270987981
 10
35.8743444112
 20
34.8248849236
 10
35.9186154358
 20
34.8217848083
 10
35.9628356877
 20
34.8178000188
 10
36.0069529298
 20
34.8129352587
 10
36.0509668531
 20
34.807189466
 10
36.0948777665
 20
34.8005636946
 10
36.1386343594
 20
34.7930658215
 10
36.1822364098
 20
34.7846947991
 10
36.2256841397
 20
34.775451663
 10
36.2689269043
 20
34.7653474136
 10
36.3119644036
 20
34.7543810334
 10
36.3547969377
 20
34.7425535244
 10
36.3973747621
 20
34.7298789151
 10
36.4396975823
 20
34.7163561909
 10
36.4817656927
 20
34.7019863475
 10
36.5235302327
 20
34.6867864283
 10
36.5649908316
 20
34.6707554424
 10
36.6061478601
 20
34.6538943586
 10
36.6469535694
 20
34.63622316
 10
36.687407545
 20
34.6177408716
 10
36.7275102013
 20
34.5984484433
 10
36.7672150335
 20
34.5783687458
 10
36.806521537
 20
34.5575008493
 10
36.8454302164
 20
34.5358456561
 10
36.8838960796
 20
34.5134287848
 10
36.9219186004
 20
34.4902493209
 10
36.9594983051
 20
34.4663081494
 10
36.9965917808
 20
34.4416335888
 10
37.0331984234
 20
34.4162247767
 10
37.069318837
 20
34.3900825445
 10
37.1049114204
 20
34.3632377521
 10
37.1399755458
 20
34.3356895574
 10
37.1745118411
 20
34.3074387704
 10
37.2084805881
 20
34.2785187302
 10
37.2418810868
 20
34.2489286581
 10
37.2747140372
 20
34.2186693
 10
37.3069418218
 20
34.1877762837
 10
37.3385637185
 20
34.1562488561
 10
37.3695804492
 20
34.1240877372
 10
37.3999565623
 20
34.0913307659
 10
37.4296912773
 20
34.0579772553
 10
37.4587853745
 20
34.0240278597
 10
37.4872057433
 20
33.9895224312
 10
37.5149515807
 20
33.9544603162
 10
37.5420236896
 20
33.9188421364
 10
37.5683913674
 20
33.8827096593
 10
37.5940537624
 20
33.846062304
 10
37.6190117263
 20
33.8089006208
 10
37.6432371117
 20
33.7712680761
 10
37.6667290463
 20
33.7331641311
 10
37.6894884024
 20
33.6945892957
 10
37.7114896488
 20
33.6555886118
 10
37.7327318843
 20
33.6161615992
 10
37.7532160101
 20
33.5763087112
 10
37.7729191992
 20
33.5360763929
 10
37.7918405282
 20
33.4954642162
 10
37.8099809203
 20
33.4544725849
 10
37.827320318
 20
33.4131491953
 10
37.843857768
 20
33.3714937054
 10
37.8595942235
 20
33.3295064357
 10
37.8745124872
 20
33.2872360795
 10
37.8886115977
 20
33.2446823461
 10
37.9018925163
 20
33.2018455077
 10
37.9143409299
 20
33.1587751054
 10
37.9259558722
 20
33.1154708633
 10
37.9367383094
 20
33.0719330421
 10
37.9466768261
 20
33.0282119915
 10
37.9557704589
 20
32.984307301
 10
37.9640201712
 20
32.9402193694
 10
37.9714174383
 20
32.8959997639
 10
37.9779594185
 20
32.8516656718
 10
37.9836489535
 20
32.8071998983
 10
37.9884860433
 20
32.7626024393
  0
LINE
  5
4F6
100
AcDbEntity
  8
0
100
AcDbLine
 62
250
  6
CONTINUOUS
 10
-35.7412789387
 20
39.7514321078
 11
35.7412789387
 21
39.7514321078
  0
LINE
  5
4F7
100
AcDbEntity
  8
0
100
AcDbLine
 62
7
  6
CONTINUOUS
 10
35.7412789387
 20
40.0
 11
-35.7412789387
 21
40.0
  0
LWPOLYLINE
  5
4F8
100
AcDbEntity
  8
0
100
AcDbPolyline
 62
250
  6
CONTINUOUS
 90
76
 70
0
 10
35.7412789387
 20
39.7514321078
 10
35.8920572983
 20
39.7499609169
 10
36.0427792823
 20
39.7455479248
 10
36.1933873208
 20
39.7381947566
 10
36.3438235099
 20
39.7279041778
 10
36.4940307615
 20
39.7146800764
 10
36.6439528217
 20
39.698527388
 10
36.7935327168
 20
39.679452128
 10
36.9427129976
 20
39.657461536
 10
37.0914368901
 20
39.6325639892
 10
37.2396474729
 20
39.6047689166
 10
37.3872882194
 20
39.5740868486
 10
37.5343032438
 20
39.5405294423
 10
37.6806362128
 20
39.5041094451
 10
37.8262313708
 20
39.4648406562
 10
37.9710340811
 20
39.4227378718
 10
38.1149890642
 20
39.3778170074
 10
38.2580412327
 20
39.3300951252
 10
38.40013671
 20
39.2795902627
 10
38.5412211823
 20
39.2263215378
 10
38.6812406982
 20
39.1703091646
 10
38.8201424921
 20
39.1115743276
 10
38.9578735048
 20
39.0501392449
 10
39.0943809974
 20
38.9860272517
 10
39.2296133468
 20
38.9192626887
 10
39.3635187693
 20
38.8498708887
 10
39.4960460896
 20
38.7778781669
 10
39.6271453486
 20
38.7033117774
 10
39.7567664308
 20
38.6261999557
 10
39.884859668
 20
38.546572007
 10
40.0113766093
 20
38.4644581847
 10
40.1362687887
 20
38.3798896579
 10
40.2594884189
 20
38.292898523
 10
40.3809889895
 20
38.2035177726
 10
40.5007240188
 20
38.1117812775
 10
40.6186475817
 20
38.0177239241
 10
40.734715009
 20
37.9213815243
 10
40.8488817968
 20
37.8227906803
 10
40.9611042241
 20
37.721988831
 10
41.071339883
 20
37.6190142822
 10
41.1795465541
 20
37.5139060972
 10
41.2856827008
 20
37.4067042675
 10
41.3897081018
 20
37.2974496655
 10
41.4915828415
 20
37.1861838198
 10
41.5912678548
 20
37.07294902
 10
41.688725432
 20
36.9577883891
 10
41.7839182048
 20
36.8407456534
 10
41.8768095958
 20
36.7218653699
 10
41.9673643868
 20
36.6011929448
 10
42.0555477921
 20
36.4787742842
 10
42.1413259602
 20
36.3546559427
 10
42.224666444
 20
36.2288852608
 10
42.3055372369
 20
36.1015100509
 10
42.3839072401
 20
35.9725788107
 10
42.4597467936
 20
35.8421407887
 10
42.5330267475
 20
35.7102455938
 10
42.6037189044
 20
35.5769434512
 10
42.6717965177
 20
35.4422853323
 10
42.7372334116
 20
35.3063224459
 10
42.8000043747
 20
35.1691065988
 10
42.8600856467
 20
35.0306903738
 10
42.9174540739
 20
34.8911265131
 10
42.9720875772
 20
34.7504681225
 10
43.0239655865
 20
34.6087689526
 10
43.0730681017
 20
34.4660829699
 10
43.1193761774
 20
34.322464511
 10
43.1628724291
 20
34.1779684061
 10
43.2035400815
 20
34.0326495423
 10
43.2413633741
 20
33.8865634169
 10
43.2763280978
 20
33.7397662098
 10
43.308420713
 20
33.5923139986
 10
43.3376288102
 20
33.4442628003
 10
43.3639415479
 20
33.295669042
 10
43.387348861
 20
33.1465893291
 10
43.4078414635
 20
32.9970804561
 10
43.4254113434
 20
32.8471993985
  0
LWPOLYLINE
  5
4F9
100
AcDbEntity
  8
0
100
AcDbPolyline
 62
250
  6
CONTINUOUS
 90
46
 70
0
 10
37.9884860433
 20
32.7626024393
 10
38.1288028942
 20
31.308876306
 10
38.2627304499
 20
29.8547799659
 10
38.3902687104
 20
28.4003389018
 10
38.5114170822
 20
26.9455693512
 10
38.6261761588
 20
25.4905060082
 10
38.7345477209
 20
24.0352020524
 10
38.836529612
 20
22.5797151446
 10
38.9321239886
 20
21.1240385607
 10
39.0213391005
 20
19.6681288542
 10
39.1041766048
 20
18.211991802
 10
39.1806348443
 20
16.7556723624
 10
39.2507170981
 20
15.2991857885
 10
39.3144231336
 20
13.8425684372
 10
39.3717531833
 20
12.3858346389
 10
39.4227112234
 20
10.9289665679
 10
39.4672978379
 20
9.4719860819
 10
39.5055124428
 20
8.0149219248
 10
39.5373572624
 20
6.5577665623
 10
39.5628326636
 20
5.1005432772
 10
39.5819382795
 20
3.6432793443
 10
39.5946752324
 20
2.1859731992
 10
39.6010438964
 20
0.7286551306
 10
39.6010438975
 20
-0.7286546143
 10
39.5946752359
 20
-2.1859726682
 10
39.5819382864
 20
-3.6432787623
 10
39.5628326742
 20
-5.1005426295
 10
39.5373572754
 20
-6.557765899
 10
39.5055124553
 20
-8.0149213585
 10
39.4672978486
 20
-9.4719856628
 10
39.4227112347
 20
-10.9289662221
 10
39.3717532013
 20
-12.3858341958
 10
39.3144231607
 20
-13.8425678232
 10
39.2507171299
 20
-15.2991850964
 10
39.1806348707
 20
-16.7556718032
 10
39.1041766212
 20
-18.2119914684
 10
39.0213391126
 20
-19.6681286505
 10
38.9321240087
 20
-21.1240382709
 10
38.8365296456
 20
-22.5797146732
 10
38.7345477624
 20
-24.0352014783
 10
38.626176197
 20
-25.4905054978
 10
38.5114171114
 20
-26.945568983
 10
38.3902687307
 20
-28.4003386648
 10
38.2627304633
 20
-29.854779819
 10
38.1288029008
 20
-31.3088762381
 10
37.9884860433
 20
-32.7626024393
  0
LWPOLYLINE
  5
4FA
100
AcDbEntity
  8
0
100
AcDbPolyline
 62
250
  6
CONTINUOUS
 90
76
 70
0
 10
37.9884860433
 20
-32.7626024393
 10
37.9836489151
 20
-32.807200165
 10
37.9779593485
 20
-32.8516661383
 10
37.9714173433
 20
-32.8960003633
 10
37.9640200604
 20
-32.9402200127
 10
37.955770339
 20
-32.9843079212
 10
37.946676697
 20
-33.0282125885
 10
37.9367381684
 20
-33.0719336377
 10
37.9259557192
 20
-33.1154714573
 10
37.9143407649
 20
-33.1587756977
 10
37.9018923396
 20
-33.201846098
 10
37.8886114092
 20
-33.2446829343
 10
37.874512287
 20
-33.2872366653
 10
37.8595940116
 20
-33.3295070186
 10
37.8438575444
 20
-33.3714942851
 10
37.8273200829
 20
-33.4131497715
 10
37.8099806736
 20
-33.4544731575
 10
37.79184027
 20
-33.4954647849
 10
37.7729189295
 20
-33.5360769576
 10
37.753215729
 20
-33.5763092716
 10
37.7327315917
 20
-33.6161621552
 10
37.7114893449
 20
-33.6555891632
 10
37.6894880871
 20
-33.6945898422
 10
37.6667287199
 20
-33.7331646724
 10
37.6432367741
 20
-33.771268612
 10
37.6190113777
 20
-33.808901151
 10
37.5940534029
 20
-33.8460628283
 10
37.5683909971
 20
-33.8827101775
 10
37.5420233085
 20
-33.9188426482
 10
37.514951189
 20
-33.9544608213
 10
37.487205341
 20
-33.9895229295
 10
37.4587849619
 20
-34.0240283509
 10
37.4296908543
 20
-34.0579777393
 10
37.3999561291
 20
-34.0913312423
 10
37.3695800059
 20
-34.124088206
 10
37.338563265
 20
-34.156249317
 10
37.3069413588
 20
-34.1877767363
 10
37.2747135653
 20
-34.2186697437
 10
37.2418806063
 20
-34.2489290922
 10
37.2084800997
 20
-34.2785191544
 10
37.1745113453
 20
-34.3074391842
 10
37.1399750432
 20
-34.3356899604
 10
37.1049109111
 20
-34.3632381441
 10
37.0693183212
 20
-34.3900829256
 10
37.0331979013
 20
-34.4162251467
 10
36.9965912527
 20
-34.4416339477
 10
36.9594977712
 20
-34.466308497
 10
36.9219180609
 20
-34.490249657
 10
36.8838955348
 20
-34.5134291095
 10
36.8454296665
 20
-34.5358459693
 10
36.8065209823
 20
-34.5575011508
 10
36.7672144741
 20
-34.5783690356
 10
36.7275096376
 20
-34.5984487214
 10
36.6874069771
 20
-34.6177411378
 10
36.6469529976
 20
-34.6362234143
 10
36.6061472845
 20
-34.653894601
 10
36.5649902524
 20
-34.6707556729
 10
36.5235296502
 20
-34.6867866468
 10
36.4817651072
 20
-34.7019865539
 10
36.439696994
 20
-34.7163563852
 10
36.3973741715
 20
-34.7298790972
 10
36.3547963451
 20
-34.7425536943
 10
36.3119638094
 20
-34.754381191
 10
36.2689263087
 20
-34.7653475588
 10
36.225683543
 20
-34.775451796
 10
36.1822358123
 20
-34.78469492
 10
36.1386337609
 20
-34.7930659302
 10
36.0948771667
 20
-34.8005637911
 10
36.0509662518
 20
-34.8071895501
 10
36.006952327
 20
-34.8129353307
 10
35.962835061
 20
-34.8178000791
 10
35.9186147852
 20
-34.8217848571
 10
35.8743438045
 20
-34.8248849606
 10
35.8300395541
 20
-34.827098823
 10
35.7856845988
 20
-34.8284280149
 10
35.7412789387
 20
-34.8288725375
  0
LWPOLYLINE
  5
4FB
100
AcDbEntity
  8
0
100
AcDbPolyline
 62
250
  6
CONTINUOUS
 90
46
 70
0
 10
43.4254113434
 20
32.8471993985
 10
43.5685937181
 20
31.3897468149
 10
43.7052546442
 20
29.9319189982
 10
43.8353950248
 20
28.4737418791
 10
43.9590166423
 20
27.0152322877
 10
44.0761196783
 20
25.5564251847
 10
44.1867031564
 20
24.0973736962
 10
44.290766492
 20
22.6381359405
 10
44.3883139281
 20
21.1787055402
 10
44.4793512351
 20
19.7190388113
 10
44.5638803222
 20
18.259141821
 10
44.641900884
 20
16.7990599686
 10
44.7134143182
 20
15.3388084788
 10
44.7784210973
 20
13.8784240635
 10
44.8369228303
 20
12.4179213862
 10
44.8889219496
 20
10.9572825493
 10
44.9344190722
 20
9.4965297127
 10
44.9734147289
 20
8.0356919675
 10
45.0059102211
 20
6.5747617653
 10
45.0319058663
 20
5.1137626885
 10
45.0514020195
 20
3.6527223377
 10
45.064399275
 20
2.1916391679
 10
45.0708977465
 20
0.7305437851
 10
45.0708977477
 20
-0.7305432671
 10
45.0643992786
 20
-2.1916386352
 10
45.0514020259
 20
-3.6527217539
 10
45.0319058764
 20
-5.1137620387
 10
45.0059102344
 20
-6.5747610998
 10
44.973414743
 20
-8.0356913994
 10
44.9344190845
 20
-9.4965292921
 10
44.8889219612
 20
-10.9572822022
 10
44.8369228469
 20
-12.4179209416
 10
44.7784211232
 20
-13.8784234475
 10
44.7134143506
 20
-15.3388077845
 10
44.6419009129
 20
-16.7990594075
 10
44.563880341
 20
-18.2591414861
 10
44.4793512474
 20
-19.7190386067
 10
44.3883139468
 20
-21.1787052493
 10
44.2907665245
 20
-22.6381354675
 10
44.1867031988
 20
-24.0973731201
 10
44.0761197183
 20
-25.5564246725
 10
43.9590166729
 20
-27.0152319181
 10
43.8353950455
 20
-28.4737416411
 10
43.7052546577
 20
-29.9319188506
 10
43.5685937246
 20
-31.3897467466
 10
43.4254113434
 20
-32.8471993985
  0
LWPOLYLINE
  5
4FC
100
AcDbEntity
  8
RACCORDO
100
AcDbPolyline
 62
7
  6
CONTINUOUS
 90
8
 70
0
 10
45.3936138374
 20
-6.5603886577
 10
45.3846841754
 20
-6.3981114497
 10
45.3760244712
 20
-6.2337086074
 10
45.3676355473
 20
-6.0672381952
 10
45.3595165812
 20
-5.8987529834
 10
45.3516651054
 20
-5.7283000694
 10
45.3440809753
 20
-5.5559313439
 10
45.3367643356
 20
-5.3817088825
  0
LINE
  5
4FD
100
AcDbEntity
  8
RACCORDO
100
AcDbLine
 62
7
  6
CONTINUOUS
 10
45.3367643356
 20
-5.3817088825
 11
45.3229276374
 21
-5.0279556869
  0
LWPOLYLINE
  5
4FE
100
AcDbEntity
  8
RACCORDO
100
AcDbPolyline
 62
7
  6
CONTINUOUS
 90
6
 70
0
 10
45.4088501111
 20
-6.8514476749
 10
45.4078445137
 20
-6.8242002112
 10
45.4067376721
 20
-6.7974527936
 10
45.4055308446
 20
-6.7712372785
 10
45.4042227729
 20
-6.7455732973
 10
45.3936138374
 20
-6.5603886577
  0
LINE
  5
4FF
100
AcDbEntity
  8
RACCORDO
100
AcDbLine
 62
7
  6
CONTINUOUS
 10
45.3229276374
 20
-5.0279556869
 11
45.3101502998
 21
-4.6675089138
  0
LINE
  5
500
100
AcDbEntity
  8
RACCORDO
100
AcDbLine
 62
7
  6
CONTINUOUS
 10
45.3101502998
 20
-4.6675089138
 11
45.2984237338
 21
-4.3008068946
  0
LINE
  5
501
100
AcDbEntity
  8
RACCORDO
100
AcDbLine
 62
7
  6
CONTINUOUS
 10
45.4105455213
 20
-6.9072631108
 11
45.4088501111
 21
-6.8514476749
  0
LINE
  5
502
100
AcDbEntity
  8
RACCORDO
100
AcDbLine
 62
7
  6
CONTINUOUS
 10
45.2984237338
 20
-4.3008068946
 11
45.2877419016
 21
-3.9283703709
  0
LINE
  5
503
100
AcDbEntity
  8
RACCORDO
100
AcDbLine
 62
7
  6
CONTINUOUS
 10
45.2877419016
 20
-3.9283703709
 11
45.2781001976
 21
-3.5506947071
  0
LINE
  5
504
100
AcDbEntity
  8
RACCORDO
100
AcDbLine
 62
7
  6
CONTINUOUS
 10
45.2781001976
 20
-3.5506947071
 11
45.2694908438
 21
-3.1682473413
  0
LINE
  5
505
100
AcDbEntity
  8
RACCORDO
100
AcDbLine
 62
7
  6
CONTINUOUS
 10
45.4118185383
 20
-6.9646861691
 11
45.4105455213
 21
-6.9072631108
  0
LINE
  5
506
100
AcDbEntity
  8
RACCORDO
100
AcDbLine
 62
7
  6
CONTINUOUS
 10
45.4117202421
 20
7.2689101834
 11
45.4104032874
 21
7.3314391493
  0
LINE
  5
507
100
AcDbEntity
  8
RACCORDO
100
AcDbLine
 62
7
  6
CONTINUOUS
 10
45.2694908438
 20
-3.1682473413
 11
45.2619083788
 21
-2.7815680123
  0
LINE
  5
508
100
AcDbEntity
  8
RACCORDO
100
AcDbLine
 62
7
  6
CONTINUOUS
 10
45.2619083788
 20
-2.7815680123
 11
45.2553489827
 21
-2.3911731837
  0
LINE
  5
509
100
AcDbEntity
  8
RACCORDO
100
AcDbLine
 62
7
  6
CONTINUOUS
 10
45.2553489827
 20
-2.3911731837
 11
45.2498066721
 21
-1.9975574744
  0
LINE
  5
50A
100
AcDbEntity
  8
RACCORDO
100
AcDbLine
 62
7
  6
CONTINUOUS
 10
45.4126651979
 20
-7.0236422723
 11
45.4118185383
 21
-6.9646861691
  0
LINE
  5
50B
100
AcDbEntity
  8
RACCORDO
100
AcDbLine
 62
7
  6
CONTINUOUS
 10
45.412606215
 20
7.206594434
 11
45.4117202421
 21
7.2689101834
  0
LINE
  5
50C
100
AcDbEntity
  8
RACCORDO
100
AcDbLine
 62
7
  6
CONTINUOUS
 10
45.2498066721
 20
-1.9975574744
 11
45.2452774857
 21
-1.6012695557
  0
LINE
  5
50D
100
AcDbEntity
  8
RACCORDO
100
AcDbLine
 62
7
  6
CONTINUOUS
 10
45.2452774857
 20
-1.6012695557
 11
45.2417589138
 21
-1.2028406029
  0
LINE
  5
50E
100
AcDbEntity
  8
RACCORDO
100
AcDbLine
 62
7
  6
CONTINUOUS
 10
45.2417589138
 20
-1.2028406029
 11
45.2392474062
 21
-0.8027889731
  0
LINE
  5
50F
100
AcDbEntity
  8
RACCORDO
100
AcDbLine
 62
7
  6
CONTINUOUS
 10
45.4130604583
 20
7.1447574258
 11
45.412606215
 21
7.206594434
  0
LINE
  5
510
100
AcDbEntity
  8
RACCORDO
100
AcDbLine
 62
7
  6
CONTINUOUS
 10
45.4130798202
 20
-7.0837455174
 11
45.4126651979
 21
-7.0236422723
  0
LINE
  5
511
100
AcDbEntity
  8
RACCORDO
100
AcDbLine
 62
7
  6
CONTINUOUS
 10
45.2392474062
 20
-0.8027889731
 11
45.2377411969
 21
-0.4016620197
  0
LINE
  5
512
100
AcDbEntity
  8
RACCORDO
100
AcDbLine
 62
7
  6
CONTINUOUS
 10
45.2377411969
 20
-0.4016620197
 11
45.2372394118
 21
0.0000014505
  0
LINE
  5
513
100
AcDbEntity
  8
RACCORDO
100
AcDbLine
 62
7
  6
CONTINUOUS
 10
45.4130798202
 20
7.0837455174
 11
45.4130604583
 21
7.1447574258
  0
LINE
  5
514
100
AcDbEntity
  8
RACCORDO
100
AcDbLine
 62
7
  6
CONTINUOUS
 10
45.2372394118
 20
0.0000014505
 11
45.2377412027
 21
0.4016644831
  0
LINE
  5
515
100
AcDbEntity
  8
RACCORDO
100
AcDbLine
 62
7
  6
CONTINUOUS
 10
45.4130604583
 20
-7.1447574258
 11
45.4130798202
 21
-7.0837455174
  0
LINE
  5
516
100
AcDbEntity
  8
RACCORDO
100
AcDbLine
 62
7
  6
CONTINUOUS
 10
45.2377412027
 20
0.4016644831
 11
45.2392474158
 21
0.8027908865
  0
LINE
  5
517
100
AcDbEntity
  8
RACCORDO
100
AcDbLine
 62
7
  6
CONTINUOUS
 10
45.2392474158
 20
0.8027908865
 11
45.2417589246
 21
1.2028420332
  0
LINE
  5
518
100
AcDbEntity
  8
RACCORDO
100
AcDbLine
 62
7
  6
CONTINUOUS
 10
45.4126651979
 20
7.0236422723
 11
45.4130798202
 21
7.0837455174
  0
LINE
  5
519
100
AcDbEntity
  8
RACCORDO
100
AcDbLine
 62
7
  6
CONTINUOUS
 10
45.412606215
 20
-7.206594434
 11
45.4130604583
 21
-7.1447574258
  0
LINE
  5
51A
100
AcDbEntity
  8
RACCORDO
100
AcDbLine
 62
7
  6
CONTINUOUS
 10
45.2417589246
 20
1.2028420332
 11
45.2452774964
 21
1.6012706018
  0
LINE
  5
51B
100
AcDbEntity
  8
RACCORDO
100
AcDbLine
 62
7
  6
CONTINUOUS
 10
45.2452774964
 20
1.6012706018
 11
45.2498066785
 21
1.9975580004
  0
LINE
  5
51C
100
AcDbEntity
  8
RACCORDO
100
AcDbLine
 62
7
  6
CONTINUOUS
 10
45.2498066785
 20
1.9975580004
 11
45.255348982
 21
2.3911731377
  0
LINE
  5
51D
100
AcDbEntity
  8
RACCORDO
100
AcDbLine
 62
7
  6
CONTINUOUS
 10
45.4117202421
 20
-7.2689101834
 11
45.412606215
 21
-7.206594434
  0
LINE
  5
51E
100
AcDbEntity
  8
RACCORDO
100
AcDbLine
 62
7
  6
CONTINUOUS
 10
45.4118185383
 20
6.9646861691
 11
45.4126651979
 21
7.0236422723
  0
LINE
  5
51F
100
AcDbEntity
  8
RACCORDO
100
AcDbLine
 62
7
  6
CONTINUOUS
 10
45.255348982
 20
2.3911731377
 11
45.2619083772
 21
2.7815679113
  0
LINE
  5
520
100
AcDbEntity
  8
RACCORDO
100
AcDbLine
 62
7
  6
CONTINUOUS
 10
45.2619083772
 20
2.7815679113
 11
45.2694908423
 21
3.1682472688
  0
LINE
  5
521
100
AcDbEntity
  8
RACCORDO
100
AcDbLine
 62
7
  6
CONTINUOUS
 10
45.4104032874
 20
-7.3314391493
 11
45.4117202421
 21
-7.2689101834
  0
LINE
  5
522
100
AcDbEntity
  8
RACCORDO
100
AcDbLine
 62
7
  6
CONTINUOUS
 10
45.2694908423
 20
3.1682472688
 11
45.2781001963
 21
3.550694652
  0
LINE
  5
523
100
AcDbEntity
  8
RACCORDO
100
AcDbLine
 62
7
  6
CONTINUOUS
 10
45.4105455213
 20
6.9072631108
 11
45.4118185383
 21
6.9646861691
  0
LINE
  5
524
100
AcDbEntity
  8
RACCORDO
100
AcDbLine
 62
7
  6
CONTINUOUS
 10
45.2781001963
 20
3.550694652
 11
45.2877419002
 21
3.9283703187
  0
LINE
  5
525
100
AcDbEntity
  8
RACCORDO
100
AcDbLine
 62
7
  6
CONTINUOUS
 10
45.2877419002
 20
3.9283703187
 11
45.2984237327
 21
4.3008068563
  0
LINE
  5
526
100
AcDbEntity
  8
RACCORDO
100
AcDbLine
 62
7
  6
CONTINUOUS
 10
45.2984237327
 20
4.3008068563
 11
45.3101502992
 21
4.667508896
  0
LINE
  5
527
100
AcDbEntity
  8
RACCORDO
100
AcDbLine
 62
7
  6
CONTINUOUS
 10
45.3101502992
 20
4.667508896
 11
45.322927636
 21
5.0279556507
  0
LWPOLYLINE
  5
528
100
AcDbEntity
  8
RACCORDO
100
AcDbPolyline
 62
7
  6
CONTINUOUS
 90
10
 70
0
 10
45.322927636
 20
5.0279556507
 10
45.336764335
 20
5.3817088667
 10
45.3440809761
 20
5.5559313594
 10
45.351665107
 20
5.728300105
 10
45.3595165828
 20
5.8987530176
 10
45.3676355484
 20
6.0672382178
 10
45.3760244718
 20
6.2337086197
 10
45.3846841758
 20
6.3981114567
 10
45.3936138375
 20
6.5603886606
 10
45.4042227729
 20
6.7455732973
  0
LWPOLYLINE
  5
529
100
AcDbEntity
  8
RACCORDO
100
AcDbPolyline
 62
7
  6
CONTINUOUS
 90
6
 70
0
 10
45.4042227729
 20
6.7455732973
 10
45.4055308446
 20
6.7712372785
 10
45.4067376721
 20
6.7974527936
 10
45.4078445137
 20
6.8242002112
 10
45.4088501111
 20
6.8514476749
 10
45.4105455213
 20
6.9072631108
  0
LWPOLYLINE
  5
52A
100
AcDbEntity
  8
0
100
AcDbPolyline
 62
250
  6
CONTINUOUS
 90
76
 70
0
 10
43.4254113434
 20
-32.8471993985
 10
43.407841464
 20
-32.9970804591
 10
43.3873488616
 20
-33.1465893343
 10
43.3639415486
 20
-33.2956690484
 10
43.3376288108
 20
-33.4442628067
 10
43.3084207133
 20
-33.5923140041
 10
43.276328098
 20
-33.7397662145
 10
43.2413633744
 20
-33.8865634211
 10
43.2035400819
 20
-34.0326495462
 10
43.1628724296
 20
-34.1779684098
 10
43.1193761779
 20
-34.3224645147
 10
43.073068102
 20
-34.4660829736
 10
43.0239655869
 20
-34.608768956
 10
42.9720875778
 20
-34.7504681251
 10
42.917454075
 20
-34.8911265144
 10
42.8600856482
 20
-35.0306903741
 10
42.8000043767
 20
-35.1691065981
 10
42.7372334141
 20
-35.3063224442
 10
42.6717965206
 20
-35.44228533
 10
42.6037189075
 20
-35.5769434484
 10
42.5330267509
 20
-35.7102455907
 10
42.4597467973
 20
-35.8421407853
 10
42.383907244
 20
-35.972578807
 10
42.3055372412
 20
-36.101510047
 10
42.2246664486
 20
-36.2288852565
 10
42.1413259653
 20
-36.3546559379
 10
42.0555477978
 20
-36.4787742788
 10
41.9673643931
 20
-36.6011929388
 10
41.8768096025
 20
-36.7218653635
 10
41.7839182121
 20
-36.8407456466
 10
41.6887254399
 20
-36.9577883819
 10
41.5912678633
 20
-37.0729490124
 10
41.4915828506
 20
-37.1861838119
 10
41.3897081115
 20
-37.2974496572
 10
41.2856827111
 20
-37.4067042589
 10
41.179546565
 20
-37.5139060884
 10
41.0713398945
 20
-37.6190142731
 10
40.9611042363
 20
-37.7219888217
 10
40.8488818098
 20
-37.8227906707
 10
40.7347150227
 20
-37.9213815145
 10
40.618647596
 20
-38.0177239141
 10
40.5007240339
 20
-38.1117812673
 10
40.3809890052
 20
-38.2035177624
 10
40.2594884352
 20
-38.2928985127
 10
40.1362688058
 20
-38.3798896475
 10
40.011376627
 20
-38.4644581743
 10
39.8848596865
 20
-38.5465719965
 10
39.7567664501
 20
-38.6261999452
 10
39.6271453687
 20
-38.7033117669
 10
39.4960461106
 20
-38.7778781564
 10
39.3635187911
 20
-38.8498708782
 10
39.2296133695
 20
-38.9192626782
 10
39.0943810209
 20
-38.9860272414
 10
38.957873529
 20
-39.0501392347
 10
38.820142517
 20
-39.1115743177
 10
38.6812407236
 20
-39.170309155
 10
38.5412212078
 20
-39.2263215287
 10
38.4001367359
 20
-39.2795902539
 10
38.2580412591
 20
-39.3300951168
 10
38.1149890913
 20
-39.3778169992
 10
37.9710341092
 20
-39.422737864
 10
37.8262314005
 20
-39.4648406484
 10
37.6806362444
 20
-39.5041094374
 10
37.5343032773
 20
-39.5405294347
 10
37.3872882551
 20
-39.5740868413
 10
37.2396475108
 20
-39.6047689095
 10
37.0914369288
 20
-39.6325639827
 10
36.9427130351
 20
-39.6574615303
 10
36.7935327517
 20
-39.6794521234
 10
36.6439528533
 20
-39.6985273844
 10
36.4940307893
 20
-39.7146800738
 10
36.3438235332
 20
-39.7279041762
 10
36.193387339
 20
-39.7381947557
 10
36.042779295
 20
-39.7455479245
 10
35.8920573049
 20
-39.7499609169
 10
35.7412789387
 20
-39.7514321078
  0
LWPOLYLINE
  5
52B
100
AcDbEntity
  8
0
100
AcDbPolyline
 62
250
  6
CONTINUOUS
 90
33
 70
0
 10
43.4254113364
 20
-32.8471993978
 10
43.4102900871
 20
-32.8569660517
 10
43.3925293187
 20
-32.8664361242
 10
43.3721376776
 20
-32.8756050047
 10
43.3491250913
 20
-32.8844682296
 10
43.323502763
 20
-32.893021484
 10
43.2952831665
 20
-32.9012606039
 10
43.2644800402
 20
-32.9091815781
 10
43.23110838
 20
-32.9167805504
 10
43.1951844323
 20
-32.9240538215
 10
43.1567256863
 20
-32.9309978504
 10
43.1157508649
 20
-32.9376092566
 10
43.072279916
 20
-32.9438848214
 10
43.0263340029
 20
-32.9498214897
 10
42.9779354935
 20
-32.9554163712
 10
42.9271079499
 20
-32.9606667421
 10
42.8738761167
 20
-32.9655700466
 10
42.8182659089
 20
-32.9701238973
 10
42.7603043995
 20
-32.9743260774
 10
42.7000198061
 20
-32.9781745411
 10
42.6374414774
 20
-32.9816674148
 10
42.5725998785
 20
-32.9848029982
 10
42.5055265767
 20
-32.9875797646
 10
42.4362542254
 20
-32.9899963622
 10
42.3648165488
 20
-32.9920516146
 10
42.2912483252
 20
-32.9937445213
 10
42.2155853702
 20
-32.9950742579
 10
42.137864519
 20
-32.9960401773
 10
42.0581236088
 20
-32.996641809
 10
41.9764014601
 20
-32.9968788603
 10
41.8927378582
 20
-32.9967512158
 10
41.8071735334
 20
-32.9962589375
 10
41.7197501412
 20
-32.9954022651
  0
LWPOLYLINE
  5
52C
100
AcDbEntity
  8
0
100
AcDbPolyline
 62
250
  6
CONTINUOUS
 90
34
 70
0
 10
43.4254113429
 20
32.8471993985
 10
43.4102900937
 20
32.8569660525
 10
43.3925293252
 20
32.8664361249
 10
43.3721376841
 20
32.8756050054
 10
43.3491250977
 20
32.8844682304
 10
43.3235027693
 20
32.8930214848
 10
43.2952831728
 20
32.9012606046
 10
43.2644800464
 20
32.9091815788
 10
43.2311083861
 20
32.9167805512
 10
43.1951844384
 20
32.9240538223
 10
43.1567256923
 20
32.9309978512
 10
43.1157508709
 20
32.9376092574
 10
43.072279922
 20
32.9438848222
 10
43.0263340087
 20
32.9498214904
 10
42.9779354993
 20
32.9554163719
 10
42.9271079556
 20
32.9606667429
 10
42.8738761223
 20
32.9655700473
 10
42.8182659144
 20
32.970123898
 10
42.7603044049
 20
32.9743260781
 10
42.7000198114
 20
32.9781745418
 10
42.6374414826
 20
32.9816674155
 10
42.5725998836
 20
32.9848029989
 10
42.5055265817
 20
32.9875797653
 10
42.4362542303
 20
32.9899963629
 10
42.3648165536
 20
32.9920516153
 10
42.2912483299
 20
32.9937445219
 10
42.2155853748
 20
32.9950742586
 10
42.1378645234
 20
32.9960401779
 10
42.0581236131
 20
32.9966418097
 10
41.9764014644
 20
32.9968788609
 10
41.8927378624
 20
32.9967512164
 10
41.8071735374
 20
32.9962589381
 10
41.719750145
 20
32.9954022657
 10
41.5394972854
 20
32.9925975842
  0
LINE
  5
52D
100
AcDbEntity
  8
0
100
AcDbLine
 62
7
  6
CONTINUOUS
 10
-59.6172803106
 20
-40.0
 11
-61.9822458285
 21
-39.7514321078
  0
LWPOLYLINE
  5
52E
100
AcDbEntity
  8
0
100
AcDbPolyline
 62
7
  6
CONTINUOUS
 90
10
 70
0
 43
0.3500000006
 10
-64.8672816467
 20
48.7500009613
 10
-64.0101391754
 20
49.6071434326
 10
-63.7958501587
 20
50.4642859039
 10
-63.7958501587
 20
51.3214283752
 10
-64.2244236603
 20
51.7500018768
 10
-64.8672816467
 20
51.7500018768
 10
-65.2958506165
 20
51.3214283752
 10
-65.2958506165
 20
50.4642859039
 10
-64.8672816467
 20
50.0357124023
 10
-63.9387079926
 20
50.0357124023
  0
LINE
  5
52F
100
AcDbEntity
  8
0
100
AcDbLine
 62
250
  6
CONTINUOUS
 10
-62.179550875
 20
-32.8471993978
 11
-62.4192349998
 21
-32.8664361242
  0
LINE
  5
530
100
AcDbEntity
  8
0
100
AcDbLine
 62
250
  6
CONTINUOUS
 10
-62.4192349998
 20
-32.8664361242
 11
-62.6573330357
 21
-32.8844682296
  0
LINE
  5
531
100
AcDbEntity
  8
0
100
AcDbLine
 62
250
  6
CONTINUOUS
 10
-62.6573330357
 20
-32.8844682296
 11
-62.8933813819
 21
-32.9012606039
  0
LINE
  5
532
100
AcDbEntity
  8
0
100
AcDbLine
 62
250
  6
CONTINUOUS
 10
-62.8933813819
 20
-32.9012606039
 11
-63.1269204288
 21
-32.9167805504
  0
LINE
  5
533
100
AcDbEntity
  8
0
100
AcDbLine
 62
250
  6
CONTINUOUS
 10
-63.1269204288
 20
-32.9167805504
 11
-63.3574954529
 21
-32.9309978504
  0
LINE
  5
534
100
AcDbEntity
  8
0
100
AcDbLine
 62
250
  6
CONTINUOUS
 10
-63.3574954529
 20
-32.9309978504
 11
-63.5846575014
 21
-32.9438848214
  0
LINE
  5
535
100
AcDbEntity
  8
0
100
AcDbLine
 62
250
  6
CONTINUOUS
 10
-63.5846575014
 20
-32.9438848214
 11
-63.8079642674
 21
-32.9554163712
  0
LINE
  5
536
100
AcDbEntity
  8
0
100
AcDbLine
 62
250
  6
CONTINUOUS
 10
-63.8079642674
 20
-32.9554163712
 11
-64.0269809504
 21
-32.9655700466
  0
LINE
  5
537
100
AcDbEntity
  8
0
100
AcDbLine
 62
250
  6
CONTINUOUS
 10
-64.0269809504
 20
-32.9655700466
 11
-64.241281103
 21
-32.9743260774
  0
LINE
  5
538
100
AcDbEntity
  8
0
100
AcDbLine
 62
250
  6
CONTINUOUS
 10
-64.241281103
 20
-32.9743260774
 11
-64.4504474616
 21
-32.9816674148
  0
LINE
  5
539
100
AcDbEntity
  8
0
100
AcDbLine
 62
250
  6
CONTINUOUS
 10
-64.4504474616
 20
-32.9816674148
 11
-64.6540727585
 21
-32.9875797646
  0
LWPOLYLINE
  5
53A
100
AcDbEntity
  8
0
100
AcDbPolyline
 62
250
  6
CONTINUOUS
 90
44
 70
0
 10
-64.6540727585
 20
-32.9875797646
 10
-64.8517605149
 20
-32.9920516146
 10
-64.9482570565
 20
-32.9937445213
 10
-65.0431258133
 20
-32.9950742579
 10
-65.1363205999
 20
-32.9960401773
 10
-65.2277960461
 20
-32.996641809
 10
-65.3175076185
 20
-32.9968788603
 10
-65.4054116423
 20
-32.9967512158
 10
-65.4914653229
 20
-32.9962589375
 10
-65.5756267665
 20
-32.9954022651
 10
-65.6578550004
 20
-32.9941816158
 10
-65.738109993
 20
-32.9925975837
 10
-65.8163526735
 20
-32.9906509399
 10
-65.8925449507
 20
-32.9883426323
 10
-65.9666497316
 20
-32.9856737846
 10
-66.0386309395
 20
-32.982645696
 10
-66.1084535314
 20
-32.9792598407
 10
-66.1760835154
 20
-32.9755178671
 10
-66.2414879668
 20
-32.9714215969
 10
-66.3046350445
 20
-32.9669730243
 10
-66.3654940064
 20
-32.9621743149
 10
-66.4240352243
 20
-32.9570278051
 10
-66.4802301983
 20
-32.9515360003
 10
-66.5340515707
 20
-32.9457015741
 10
-66.5854731396
 20
-32.9395273668
 10
-66.634469871
 20
-32.9330163844
 10
-66.6810179118
 20
-32.9261717965
 10
-66.7250946007
 20
-32.9189969353
 10
-66.7666784798
 20
-32.9114952939
 10
-66.8057493045
 20
-32.9036705242
 10
-66.8422880539
 20
-32.8955264357
 10
-66.8762769396
 20
-32.8870669931
 10
-66.9076994148
 20
-32.8782963148
 10
-66.9365401818
 20
-32.8692186707
 10
-66.9627852
 20
-32.85983848
 10
-66.9864216924
 20
-32.8501603094
 10
-67.0074381521
 20
-32.8401888706
 10
-67.0258243473
 20
-32.8299290179
 10
-67.0415713272
 20
-32.8193857462
 10
-67.0546714256
 20
-32.8085641883
 10
-67.0651182648
 20
-32.7974696126
 10
-67.0729067591
 20
-32.7861074203
 10
-67.0780331166
 20
-32.7744831428
 10
-67.0804948417
 20
-32.7626024393
  0
LINE
  5
53B
100
AcDbEntity
  8
0
100
AcDbLine
 62
250
  6
CONTINUOUS
 10
-59.6172803106
 20
-32.8767123288
 11
-62.1795508757
 21
-32.8471993985
  0
LWPOLYLINE
  5
53C
100
AcDbEntity
  8
0
100
AcDbPolyline
 62
7
  6
CONTINUOUS
 90
13
 70
0
 43
0.3500000006
 10
-79.0749538879
 20
-1.9285708809
 10
-79.2892474365
 20
-2.2142854156
 10
-79.9321008911
 20
-2.2142854156
 10
-80.3606698608
 20
-1.9285708809
 10
-80.3606698608
 20
-1.2857140274
 10
-79.9321008911
 20
-1.0000006256
 10
-79.2892474365
 20
-1.0000006256
 10
-79.0749538879
 20
-1.2857140274
 10
-78.6463849182
 20
-0.8571427917
 10
-77.7892469788
 20
-0.8571427917
 10
-77.3606689453
 20
-1.2857140274
 10
-77.3606689453
 20
-1.9285708809
 10
-77.7892469788
 20
-2.3571432495
  0
LWPOLYLINE
  5
53D
100
AcDbEntity
  8
0
100
AcDbPolyline
 62
7
  6
CONTINUOUS
 90
4
 70
0
 43
0.3500000006
 10
-77.7892469788
 20
-2.3571432495
 10
-78.6463849182
 20
-2.3571432495
 10
-79.0749538879
 20
-1.9285708809
 10
-79.0749538879
 20
-1.2857140274
  0
LWPOLYLINE
  5
53E
100
AcDbEntity
  8
0
100
AcDbPolyline
 62
250
  6
CONTINUOUS
 90
46
 70
0
 10
-62.1795508757
 20
32.8471993985
 10
-62.3110727384
 20
31.3897468149
 10
-62.4366106457
 20
29.9319189982
 10
-62.5561645978
 20
28.4737418791
 10
-62.6697348271
 20
27.0152322877
 10
-62.7773211011
 20
25.5564251847
 10
-62.8789227225
 20
24.0973736962
 10
-62.9745375341
 20
22.6381359405
 10
-63.0641676929
 20
21.1787055402
 10
-63.1478189735
 20
19.7190388113
 10
-63.2254927958
 20
18.259141821
 10
-63.2971877398
 20
16.7990599686
 10
-63.3629053193
 20
15.3388084788
 10
-63.4226451848
 20
13.8784240635
 10
-63.4764076859
 20
12.4179213862
 10
-63.5241953853
 20
10.9572825493
 10
-63.5660087003
 20
9.4965297127
 10
-63.6018472136
 20
8.0356919675
 10
-63.6317122358
 20
6.5747617653
 10
-63.6556039819
 20
5.1137626885
 10
-63.673522237
 20
3.6527223377
 10
-63.6854676667
 20
2.1916391679
 10
-63.691440493
 20
0.7305437851
 10
-63.691440494
 20
-0.7305432671
 10
-63.68546767
 20
-2.1916386352
 10
-63.6735222434
 20
-3.6527217539
 10
-63.6556039919
 20
-5.1137620387
 10
-63.6317122481
 20
-6.5747610998
 10
-63.6018472253
 20
-8.0356913994
 10
-63.5660087103
 20
-9.4965292921
 10
-63.5241953959
 20
-10.9572822022
 10
-63.4764077028
 20
-12.4179209416
 10
-63.4226452103
 20
-13.8784234475
 10
-63.3629053491
 20
-15.3388077845
 10
-63.2971877645
 20
-16.7990594075
 10
-63.2254928112
 20
-18.2591414861
 10
-63.1478189848
 20
-19.7190386067
 10
-63.0641677118
 20
-21.1787052493
 10
-62.9745375656
 20
-22.6381354675
 10
-62.8789227614
 20
-24.0973731201
 10
-62.7773211369
 20
-25.5564246725
 10
-62.6697348545
 20
-27.0152319181
 10
-62.5561646169
 20
-28.4737416411
 10
-62.4366106583
 20
-29.9319188506
 10
-62.3110727446
 20
-31.3897467466
 10
-62.1795508757
 20
-32.8471993985
  0
LWPOLYLINE
  5
53F
100
AcDbEntity
  8
0
100
AcDbPolyline
 62
7
  6
CONTINUOUS
 90
13
 70
0
 43
0.3500000006
 10
-78.2178159485
 20
-0.0000003204
 10
-79.5035319214
 20
-0.0000003204
 10
-79.9321008911
 20
0.2142864304
 10
-80.3606698608
 20
0.642857666
 10
-80.3606698608
 20
0.8571421509
 10
-79.9321008911
 20
1.2857133865
 10
-79.5035319214
 20
1.5000001373
 10
-78.2178159485
 20
1.5000001373
 10
-77.7892469788
 20
1.2857133865
 10
-77.3606689453
 20
0.8571421509
 10
-77.3606689453
 20
0.642857666
 10
-77.7892469788
 20
0.2142864304
 10
-78.2178159485
 20
-0.0000003204
  0
LINE
  5
540
100
AcDbEntity
  8
0
100
AcDbLine
 62
250
  6
CONTINUOUS
 10
-61.9822896437
 20
-39.7499609169
 11
-61.9822458285
 21
-39.7514321078
  0
LINE
  5
541
100
AcDbEntity
  8
0
100
AcDbLine
 62
250
  6
CONTINUOUS
 10
-61.990732205
 20
-39.4648406484
 11
-61.9822896437
 21
-39.7499609169
  0
LINE
  5
542
100
AcDbEntity
  8
0
100
AcDbLine
 62
250
  6
CONTINUOUS
 10
-61.9947131372
 20
-39.3300951168
 11
-61.990732205
 21
-39.4648406484
  0
LINE
  5
543
100
AcDbEntity
  8
0
100
AcDbLine
 62
250
  6
CONTINUOUS
 10
-62.0048521864
 20
-38.9860272414
 11
-61.9947131372
 21
-39.3300951168
  0
LINE
  5
544
100
AcDbEntity
  8
0
100
AcDbLine
 62
250
  6
CONTINUOUS
 10
-62.0109677745
 20
-38.7778781564
 11
-62.0048521864
 21
-38.9860272414
  0
LWPOLYLINE
  5
545
100
AcDbEntity
  8
0
100
AcDbPolyline
 62
250
  6
CONTINUOUS
 90
3
 70
0
 10
-62.0277716229
 20
-38.2035177624
 10
-62.0251638404
 20
-38.2928985127
 10
-62.0109677745
 20
-38.7778781564
  0
LINE
  5
546
100
AcDbEntity
  8
0
100
AcDbLine
 62
250
  6
CONTINUOUS
 10
-62.0359881673
 20
-37.9213815145
 11
-62.0277716229
 21
-38.2035177624
  0
LWPOLYLINE
  5
547
100
AcDbEntity
  8
0
100
AcDbPolyline
 62
250
  6
CONTINUOUS
 90
3
 70
0
 10
-62.0447661826
 20
-37.6190142731
 10
-62.0417804241
 20
-37.7219888217
 10
-62.0359881673
 20
-37.9213815145
  0
LINE
  5
548
100
AcDbEntity
  8
0
100
AcDbLine
 62
250
  6
CONTINUOUS
 10
-62.0540701327
 20
-37.2974496572
 11
-62.0447661826
 21
-37.6190142731
  0
LINE
  5
549
100
AcDbEntity
  8
0
100
AcDbLine
 62
250
  6
CONTINUOUS
 10
-62.060547071
 20
-37.0729490124
 11
-62.0540701327
 21
-37.2974496572
  0
LWPOLYLINE
  5
54A
100
AcDbEntity
  8
0
100
AcDbPolyline
 62
250
  6
CONTINUOUS
 90
3
 70
0
 10
-62.0741047082
 20
-36.6011929388
 10
-62.0706437246
 20
-36.7218653635
 10
-62.060547071
 20
-37.0729490124
  0
LINE
  5
54B
100
AcDbEntity
  8
0
100
AcDbLine
 62
250
  6
CONTINUOUS
 10
-62.0847559428
 20
-36.2288852565
 11
-62.0741047082
 21
-36.6011929388
  0
LINE
  5
54C
100
AcDbEntity
  8
0
100
AcDbLine
 62
250
  6
CONTINUOUS
 10
-62.0920641274
 20
-35.972578807
 11
-62.0847559428
 21
-36.2288852565
  0
LWPOLYLINE
  5
54D
100
AcDbEntity
  8
0
100
AcDbPolyline
 62
250
  6
CONTINUOUS
 90
5
 70
0
 10
-62.1109640543
 20
-35.3063224442
 10
-62.107118573
 20
-35.44228533
 10
-62.1033044008
 20
-35.5769434484
 10
-62.0995215207
 20
-35.7102455907
 10
-62.0920641274
 20
-35.972578807
  0
LWPOLYLINE
  5
54E
100
AcDbEntity
  8
0
100
AcDbPolyline
 62
250
  6
CONTINUOUS
 90
4
 70
0
 10
-62.1266297262
 20
-34.7504681251
 10
-62.1226736637
 20
-34.8911265144
 10
-62.1187440224
 20
-35.0306903741
 10
-62.1109640543
 20
-35.3063224442
  0
LWPOLYLINE
  5
54F
100
AcDbEntity
  8
0
100
AcDbPolyline
 62
250
  6
CONTINUOUS
 90
4
 70
0
 10
-62.1426637658
 20
-34.1779684098
 10
-62.1386266872
 20
-34.3224645147
 10
-62.1346062379
 20
-34.4660829736
 10
-62.1266297262
 20
-34.7504681251
  0
LWPOLYLINE
  5
550
100
AcDbEntity
  8
0
100
AcDbPolyline
 62
250
  6
CONTINUOUS
 90
4
 70
0
 10
-62.1589631679
 20
-33.5923140041
 10
-62.1548699324
 20
-33.7397662145
 10
-62.150788009
 20
-33.8865634211
 10
-62.1426637658
 20
-34.1779684098
  0
LWPOLYLINE
  5
551
100
AcDbEntity
  8
0
100
AcDbPolyline
 62
250
  6
CONTINUOUS
 90
3
 70
0
 10
-62.1712964104
 20
-33.1465893343
 10
-62.1671794844
 20
-33.2956690484
 10
-62.1589631679
 20
-33.5923140041
  0
LINE
  5
552
100
AcDbEntity
  8
0
100
AcDbLine
 62
250
  6
CONTINUOUS
 10
-62.1795508757
 20
-32.8471993985
 11
-62.1712964104
 21
-33.1465893343
  0
LINE
  5
553
100
AcDbEntity
  8
0
100
AcDbLine
 62
250
  6
CONTINUOUS
 10
-62.1187440368
 20
35.0306903738
 11
-62.1795508757
 21
32.8471993985
  0
LINE
  5
554
100
AcDbEntity
  8
0
100
AcDbLine
 62
250
  6
CONTINUOUS
 10
-62.0706437384
 20
36.7218653699
 11
-62.1187440368
 21
35.0306903738
  0
LINE
  5
555
100
AcDbEntity
  8
0
100
AcDbLine
 62
250
  6
CONTINUOUS
 10
-61.9822458285
 20
39.7514321078
 11
-62.0706437384
 21
36.7218653699
  0
LINE
  5
556
100
AcDbEntity
  8
0
100
AcDbLine
 62
7
  6
CONTINUOUS
 10
-59.6172803106
 20
-40.0
 11
-59.6172803106
 21
-32.8767123288
  0
LINE
  5
557
100
AcDbEntity
  8
RACCORDO
100
AcDbLine
 62
7
  6
CONTINUOUS
 10
-59.6172803106
 20
-32.8767123288
 11
-59.6172803106
 21
-7.3314391493
  0
LINE
  5
558
100
AcDbEntity
  8
RACCORDO
100
AcDbLine
 62
7
  6
CONTINUOUS
 10
-59.6172803106
 20
7.3314391493
 11
-59.6172803106
 21
32.8767123288
  0
LINE
  5
559
100
AcDbEntity
  8
0
100
AcDbLine
 62
7
  6
CONTINUOUS
 10
-59.6172803106
 20
32.8767123288
 11
-59.6172803106
 21
40.0
  0
LINE
  5
55A
100
AcDbEntity
  8
0
100
AcDbLine
 62
250
  6
CONTINUOUS
 10
-59.6172803106
 20
32.8767123288
 11
-62.1795508757
 21
32.8471993985
  0
LWPOLYLINE
  5
55B
100
AcDbEntity
  8
0
100
AcDbPolyline
 62
250
  6
CONTINUOUS
 90
42
 70
0
 10
-64.9482570587
 20
32.9937445219
 10
-65.0431258155
 20
32.9950742586
 10
-65.1363206022
 20
32.9960401779
 10
-65.2277960484
 20
32.9966418097
 10
-65.3175076208
 20
32.9968788609
 10
-65.4054116446
 20
32.9967512164
 10
-65.4914653252
 20
32.9962589381
 10
-65.5756267688
 20
32.9954022657
 10
-65.6578550027
 20
32.9941816163
 10
-65.7381099953
 20
32.9925975842
 10
-65.8163526758
 20
32.9906509405
 10
-65.892544953
 20
32.9883426329
 10
-65.9666497339
 20
32.9856737851
 10
-66.0386309417
 20
32.9826456965
 10
-66.1084535336
 20
32.9792598412
 10
-66.1760835175
 20
32.9755178676
 10
-66.2414879689
 20
32.9714215973
 10
-66.3046350466
 20
32.9669730247
 10
-66.3654940084
 20
32.9621743154
 10
-66.4240352263
 20
32.9570278055
 10
-66.4802302002
 20
32.9515360007
 10
-66.5340515726
 20
32.9457015744
 10
-66.5854731413
 20
32.9395273672
 10
-66.6344698727
 20
32.9330163847
 10
-66.6810179134
 20
32.9261717968
 10
-66.7250946022
 20
32.9189969356
 10
-66.7666784812
 20
32.9114952942
 10
-66.8057493059
 20
32.9036705245
 10
-66.8422880552
 20
32.8955264359
 10
-66.8762769408
 20
32.8870669933
 10
-66.9076994158
 20
32.878296315
 10
-66.9365401827
 20
32.8692186709
 10
-66.9627852008
 20
32.8598384802
 10
-66.9864216932
 20
32.8501603096
 10
-67.0074381527
 20
32.8401888707
 10
-67.0258243478
 20
32.829929018
 10
-67.0415713276
 20
32.8193857463
 10
-67.0546714258
 20
32.8085641884
 10
-67.0651182649
 20
32.7974696127
 10
-67.072906759
 20
32.7861074203
 10
-67.0780331164
 20
32.7744831428
 10
-67.0804948414
 20
32.7626024392
  0
LINE
  5
55C
100
AcDbEntity
  8
0
100
AcDbLine
 62
250
  6
CONTINUOUS
 10
-64.7536831686
 20
32.9899963629
 11
-64.9482570587
 21
32.9937445219
  0
LINE
  5
55D
100
AcDbEntity
  8
0
100
AcDbLine
 62
250
  6
CONTINUOUS
 10
-64.5529777868
 20
32.9848029989
 11
-64.7536831686
 21
32.9899963629
  0
LINE
  5
55E
100
AcDbEntity
  8
0
100
AcDbLine
 62
250
  6
CONTINUOUS
 10
-64.3465317064
 20
32.9781745418
 11
-64.5529777868
 21
32.9848029989
  0
LINE
  5
55F
100
AcDbEntity
  8
0
100
AcDbLine
 62
250
  6
CONTINUOUS
 10
-64.1347468987
 20
32.970123898
 11
-64.3465317064
 21
32.9781745418
  0
LINE
  5
560
100
AcDbEntity
  8
0
100
AcDbLine
 62
250
  6
CONTINUOUS
 10
-63.9180357296
 20
32.9606667429
 11
-64.1347468987
 21
32.970123898
  0
LINE
  5
561
100
AcDbEntity
  8
0
100
AcDbLine
 62
250
  6
CONTINUOUS
 10
-63.6968201574
 20
32.9498214904
 11
-63.9180357296
 21
32.9606667429
  0
LINE
  5
562
100
AcDbEntity
  8
0
100
AcDbLine
 62
250
  6
CONTINUOUS
 10
-63.4715309107
 20
32.9376092574
 11
-63.6968201574
 21
32.9498214904
  0
LINE
  5
563
100
AcDbEntity
  8
0
100
AcDbLine
 62
250
  6
CONTINUOUS
 10
-63.2426066502
 20
32.9240538223
 11
-63.4715309107
 21
32.9376092574
  0
LINE
  5
564
100
AcDbEntity
  8
0
100
AcDbLine
 62
250
  6
CONTINUOUS
 10
-63.0104931142
 20
32.9091815788
 11
-63.2426066502
 21
32.9240538223
  0
LINE
  5
565
100
AcDbEntity
  8
0
100
AcDbLine
 62
250
  6
CONTINUOUS
 10
-62.7756422507
 20
32.8930214848
 11
-63.0104931142
 21
32.9091815788
  0
LINE
  5
566
100
AcDbEntity
  8
0
100
AcDbLine
 62
250
  6
CONTINUOUS
 10
-62.5385113379
 20
32.8756050054
 11
-62.7756422507
 21
32.8930214848
  0
LWPOLYLINE
  5
567
100
AcDbEntity
  8
0
100
AcDbPolyline
 62
250
  6
CONTINUOUS
 90
3
 70
0
 10
-62.1795508757
 20
32.8471993985
 10
-62.299562093
 20
32.8569660525
 10
-62.5385113379
 20
32.8756050054
  0
LINE
  5
568
100
AcDbEntity
  8
0
100
AcDbLine
 62
7
  6
CONTINUOUS
 10
-59.6172803106
 20
40.0
 11
-61.9822458285
 21
39.7514321078
  0
ARC
  5
569
100
AcDbEntity
  8
RACCORDO
100
AcDbCircle
 62
7
  6
CONTINUOUS
 10
254.5
 20
0.0
 40
300.0
100
AcDbArc
 50
181.4003411461
 51
186.2916261394
  0
ARC
  5
56A
100
AcDbEntity
  8
RACCORDO
100
AcDbCircle
 62
7
  6
CONTINUOUS
 10
-254.5
 20
-0.0
 40
300.0
100
AcDbArc
 50
353.7083738606
 51
358.5996588539
  0
ARC
  5
56B
100
AcDbEntity
  8
RACCORDO
100
AcDbCircle
 62
7
  6
CONTINUOUS
 10
-254.5
 20
-0.0
 40
300.0
100
AcDbArc
 50
1.4003411461
 51
6.2916261394
  0
ARC
  5
56C
100
AcDbEntity
  8
RACCORDO
100
AcDbCircle
 62
7
  6
CONTINUOUS
 10
254.5
 20
0.0
 40
300.0
100
AcDbArc
 50
173.7083738606
 51
178.5996588539
  0
ARC
  5
56D
100
AcDbEntity
  8
0
100
AcDbCircle
 62
7
  6
CONTINUOUS
 10
-35.7412789387
 20
-32.0
 40
8.0
100
AcDbArc
 50
186.2916261394
 51
270.0
  0
ARC
  5
56E
100
AcDbEntity
  8
0
100
AcDbCircle
 62
7
  6
CONTINUOUS
 10
35.7412789387
 20
-32.0
 40
8.0
100
AcDbArc
 50
270.0
 51
353.7083738606
  0
ARC
  5
56F
100
AcDbEntity
  8
0
100
AcDbCircle
 62
7
  6
CONTINUOUS
 10
35.7412789387
 20
32.0
 40
8.0
100
AcDbArc
 50
6.2916261394
 51
90.0
  0
ARC
  5
570
100
AcDbEntity
  8
0
100
AcDbCircle
 62
7
  6
CONTINUOUS
 10
-35.7412789387
 20
32.0
 40
8.0
100
AcDbArc
 50
90.0
 51
173.7083738606
  0
ARC
  5
571
100
AcDbEntity
  8
0
100
AcDbCircle
 62
7
  6
CONTINUOUS
 10
281.3827196894
 20
0.0
 40
350.0
100
AcDbArc
 50
174.2889839045
 51
185.7110160955
  0
ARC
  5
572
100
AcDbEntity
  8
RACCORDO
100
AcDbCircle
 62
7
  6
CONTINUOUS
 10
281.3827196894
 20
0.0
 40
350.0
100
AcDbArc
 50
174.7950830866
 51
185.2812561848
  0
ARC
  5
573
100
AcDbEntity
  8
RACCORDO
100
AcDbCircle
 62
7
  6
CONTINUOUS
 10
-51.1172803106
 20
0.0
 40
11.0
100
AcDbArc
 50
142.3415379938
 51
217.6584620062
  0
ARC
  5
574
100
AcDbEntity
  8
0
100
AcDbCircle
 62
7
  6
CONTINUOUS
 10
-61.4073392813
 20
-34.2815616757
 40
5.5
100
AcDbArc
 50
185.7110161755
 51
264.0000000165
  0
ARC
  5
575
100
AcDbEntity
  8
0
100
AcDbCircle
 62
7
  6
CONTINUOUS
 10
-61.4073392813
 20
34.2815616757
 40
5.5
100
AcDbArc
 50
95.9999999835
 51
174.2889838245
  0
ARC
  5
576
100
AcDbEntity
  8
RACCORDO
100
AcDbCircle
 62
7
  6
CONTINUOUS
 10
-60.6172803106
 20
-7.3314391493
 40
1.0
100
AcDbArc
 50
0.0
 51
37.6584620062
  0
ARC
  5
577
100
AcDbEntity
  8
RACCORDO
100
AcDbCircle
 62
7
  6
CONTINUOUS
 10
-60.6172803106
 20
7.3314391493
 40
1.0
100
AcDbArc
 50
322.3415379938
 51
360.0
  0
ENDSEC
  0
SECTION
  2
OBJECTS
  0
DICTIONARY
  5
C
100
AcDbDictionary
280
0
281
1
  3
ACAD_GROUP
350
D
  3
ACAD_MLINESTYLE
350
17
  3
ACAD_LAYOUT
350
1A
  3
ACAD_PLOTSETTINGS
350
19
  3
ACAD_PLOTSTYLENAME
350
E
  0
DICTIONARY
  5
D
102
{ACAD_REACTORS
330
C
102
}
100
AcDbDictionary
280
0
281
1
  0
ACDBDICTIONARYWDFLT
  5
E
102
{ACAD_REACTORS
330
C
102
}
100
AcDbDictionary
281
1
  3
Normal
350
F
100
AcDbDictionaryWithDefault
340
F
  0
DICTIONARY
  5
17
102
{ACAD_REACTORS
330
C
102
}
100
AcDbDictionary
280
0
281
1
  3
Standard
350
18
  0
DICTIONARY
  5
19
102
{ACAD_REACTORS
330
C
102
}
100
AcDbDictionary
281
1
  0
DICTIONARY
  5
1A
102
{ACAD_REACTORS
330
C
102
}
100
AcDbDictionary
281
1
  3
Model
350
578
  3
Layout1
350
579
  0
ACDBPLACEHOLDER
  5
F
102
{ACAD_REACTORS
330
E
102
}
  0
MLINESTYLE
  5
18
102
{ACAD_REACTORS
330
17
102
}
100
AcDbMlineStyle
  2
STANDARD
 70
0
  3

 62
256
 51
90.0
 52
90.0
 71
2
 49
0.5
 62
256
  6
BYLAYER
 49
-0.5
 62
256
  6
BYLAYER
  0
LAYOUT
  5
578
102
{ACAD_REACTORS
330
1A
102
}
100
AcDbPlotSettings
  1

  2
none_device
  4
ISO_A4_(297.00_x_210.00_MM)
  6

 40
0.0
 41
0.0
 42
0.0
 43
0.0
 44
297.0
 45
210.0
 46
0.0
 47
0.0
 48
0.0
 49
0.0
140
0.0
141
0.0
142
1.0
143
1.0
 70
1024
 72
1
 73
0
 74
0
  7

 75
0
147
1.0
148
0.0
149
0.0
100
AcDbLayout
  1
Model
 70
0
 71
0
 10
0.0
 20
0.0
 11
297.0
 21
210.0
 12
0.0
 22
0.0
 32
0.0
 14
0.0
 24
0.0
 34
0.0
 15
0.0
 25
0.0
 35
0.0
146
0.0
 13
0.0
 23
0.0
 33
0.0
 16
1.0
 26
0.0
 36
0.0
 17
0.0
 27
1.0
 37
0.0
 76
0
330
216
345
0
346
0
  0
LAYOUT
  5
579
102
{ACAD_REACTORS
330
1A
102
}
100
AcDbPlotSettings
  1

  2
none_device
  4
ISO_A4_(297.00_x_210.00_MM)
  6

 40
0.0
 41
0.0
 42
0.0
 43
0.0
 44
297.0
 45
210.0
 46
0.0
 47
0.0
 48
0.0
 49
0.0
140
0.0
141
0.0
142
1.0
143
1.0
 70
0
 72
1
 73
0
 74
0
  7

 75
0
147
1.0
148
0.0
149
0.0
100
AcDbLayout
  1
Layout1
 70
0
 71
1
 10
0.0
 20
0.0
 11
297.0
 21
210.0
 12
0.0
 22
0.0
 32
0.0
 14
0.0
 24
0.0
 34
0.0
 15
0.0
 25
0.0
 35
0.0
146
0.0
 13
0.0
 23
0.0
 33
0.0
 16
1.0
 26
0.0
 36
0.0
 17
0.0
 27
1.0
 37
0.0
 76
0
330
217
345
0
346
0
  0
ENDSEC
  0
EOF
