  0
SECTION
  2
HEADER
  9
$ACADVER
  1
AC1021
  9
$DWGCODEPAGE
  3
ANSI_1252
  9
$EXTMAX
 10
297.0
 20
210.0
 30
0.0
  9
$EXTMIN
 10
0.0
 20
0.0
 30
0.0
  9
$LIMMIN
 10
0.0
 20
0.0
  9
$LIMMAX
 10
297.0
 20
210.0
  9
$VIEWCTR
 10
148.5
 20
105.0
  9
$VIEWSIZE
 40
210.0
  9
$CLAYER
  8
0
  9
$LTSCALE
 40
16.335
  9
$CELTYPE
  6
BYLAYER
  9
$DIMSCALE
 40
1.0
  9
$DIMASZ
 40
3.0
  9
$DIMEXO
 40
1.85625
  9
$DIMDLI
 40
11.286
  9
$DIMEXE
 40
5.346
  9
$DIMCEN
 40
2.673
  9
$DIMLFAC
 40
1.0
  9
$DIMBLK
  1
_FILLED
  9
$DIMTXT
 40
3.0
  9
$DIMTOL
 70
1
  9
$DIMLIM
 70
0
  9
$DIMTFAC
 40
1.0
  9
$DIMTP
 40
0.01
  9
$DIMTM
 40
0.01
  9
$PDMODE
 70
3
  9
$PDSIZE
 40
3.0
  9
$HANDSEED
  5
40E
  9
$TILEMODE
 70
1
  9
$MEASUREMENT
 70
1
  9
$INSUNITS
 70
4
  0
ENDSEC
  0
SECTION
  2
CLASSES
  0
CLASS
  1
ACDBDICTIONARYWDFLT
  2
AcDbDictionaryWithDefault
  3
AutoCAD 2000
 90
0
 91
1
280
0
281
0
  0
CLASS
  1
ACDBPLACEHOLDER
  2
AcDbPlaceHolder
  3
AutoCAD 2000
 90
0
 91
1
280
0
281
0
  0
CLASS
  1
LAYOUT
  2
AcDbLayout
  3
AutoCAD 2000
 90
0
 91
0
280
0
281
0
  0
ENDSEC
  0
SECTION
  2
TABLES
  0
TABLE
  2
VPORT
  5
8
100
AcDbSymbolTable
 70
2
  0
VPORT
  5
1F4
100
AcDbSymbolTableRecord
100
AcDbViewportTableRecord
  2
*ACTIVE
 70
0
 10
0.0
 20
0.0
 11
1.0
 21
1.0
 12
148.5
 22
105.0
 13
0.0
 23
0.0
 14
1.0
 24
1.0
 15
0.0
 25
0.0
 16
0.0
 26
0.0
 36
1.0
 17
0.0
 27
0.0
 37
0.0
 40
210.0
 41
1.4142857143
 42
50.0
 43
0.0
 44
0.0
 50
0.0
 51
0.0
 71
0
 72
100
 73
1
 74
1
 75
0
 76
0
 77
0
 78
0
  0
ENDTAB
  0
TABLE
  2
LTYPE
  5
5
100
AcDbSymbolTable
 70
6
  0
LTYPE
  5
14
100
AcDbSymbolTableRecord
100
AcDbLinetypeTableRecord
  2
BYBLOCK
 70
0
  3

 72
65
 73
0
 40
0.0
  0
LTYPE
  5
15
100
AcDbSymbolTableRecord
100
AcDbLinetypeTableRecord
  2
BYLAYER
 70
0
  3

 72
65
 73
0
 40
0.0
  0
LTYPE
  5
16
100
AcDbSymbolTableRecord
100
AcDbLinetypeTableRecord
  2
CONTINUOUS
 70
64
  3
Solid line
 72
65
 73
0
 40
0.0
  0
LTYPE
  5
1F5
100
AcDbSymbolTableRecord
100
AcDbLinetypeTableRecord
  2
CENTER
 70
64
  3
____ _ ____ _ ____ _ ____ _ ____ _ ____ _ ____
 72
65
 73
4
 40
0.6
 49
0.375
 74
0
 49
-0.075
 74
0
 49
0.075
 74
0
 49
-0.075
 74
0
  0
LTYPE
  5
1F6
100
AcDbSymbolTableRecord
100
AcDbLinetypeTableRecord
  2
HIDDEN
 70
64
  3
- - - - - - - - - - - - - - - - - - - -
 72
65
 73
2
 40
0.2
 49
0.1
 74
0
 49
-0.1
 74
0
  0
LTYPE
  5
1F7
100
AcDbSymbolTableRecord
100
AcDbLinetypeTableRecord
  2
PHANTOM
 70
64
  3
_____ _ _ _____ _ _ _____ _ _ _____
 72
65
 73
6
 40
0.8
 49
0.45
 74
0
 49
-0.05
 74
0
 49
0.1
 74
0
 49
-0.05
 74
0
 49
0.1
 74
0
 49
-0.05
 74
0
  0
LTYPE
  5
1F8
100
AcDbSymbolTableRecord
100
AcDbLinetypeTableRecord
  2
DOT
 70
64
  3
. . . . . . . . . . . . . . . . . . . .
 72
65
 73
2
 40
0.2
 49
0.1
 74
0
 49
-0.1
 74
0
  0
LTYPE
  5
1F9
100
AcDbSymbolTableRecord
100
AcDbLinetypeTableRecord
  2
DASHED
 70
64
  3
- - - - - - - - - - - - - - - - - - - -
 72
65
 73
2
 40
0.2
 49
0.1
 74
0
 49
-0.1
 74
0
  0
ENDTAB
  0
TABLE
  2
LAYER
  5
2
100
AcDbSymbolTable
 70
36
  0
LAYER
  5
10
100
AcDbSymbolTableRecord
100
AcDbLayerTableRecord
  2
0
 70
0
 62
7
  6
CONTINUOUS
370
-3
390
F
  0
LAYER
  5
1FA
100
AcDbSymbolTableRecord
100
AcDbLayerTableRecord
  2
DEFAULT_1
 70
0
 62
7
  6
CENTER
370
-3
390
F
  0
LAYER
  5
1FB
100
AcDbSymbolTableRecord
100
AcDbLayerTableRecord
  2
DEFAULT_2
 70
0
 62
7
  6
HIDDEN
370
-3
390
F
  0
LAYER
  5
1FC
100
AcDbSymbolTableRecord
100
AcDbLayerTableRecord
  2
DEFAULT_3
 70
0
 62
7
  6
PHANTOM
370
-3
390
F
  0
LAYER
  5
1FD
100
AcDbSymbolTableRecord
100
AcDbLayerTableRecord
  2
ASSI
 70
0
 62
7
  6
CONTINUOUS
370
-3
390
F
  0
LAYER
  5
1FE
100
AcDbSymbolTableRecord
100
AcDbLayerTableRecord
  2
COORDINATE
 70
0
 62
7
  6
CONTINUOUS
370
-3
390
F
  0
LAYER
  5
1FF
100
AcDbSymbolTableRecord
100
AcDbLayerTableRecord
  2
COPY_PUBLISH
 70
0
 62
7
  6
CONTINUOUS
370
-3
390
F
  0
LAYER
  5
200
100
AcDbSymbolTableRecord
100
AcDbLayerTableRecord
  2
COSMETICI
 70
0
 62
7
  6
CONTINUOUS
370
-3
390
F
  0
LAYER
  5
201
100
AcDbSymbolTableRecord
100
AcDbLayerTableRecord
  2
COSTOLE_APPOGGIO
 70
0
 62
7
  6
CONTINUOUS
370
-3
390
F
  0
LAYER
  5
202
100
AcDbSymbolTableRecord
100
AcDbLayerTableRecord
  2
CURVE
 70
0
 62
7
  6
CONTINUOUS
370
-3
390
F
  0
LAYER
  5
203
100
AcDbSymbolTableRecord
100
AcDbLayerTableRecord
  2
DRAFT
 70
0
 62
7
  6
CONTINUOUS
370
-3
390
F
  0
LAYER
  5
204
100
AcDbSymbolTableRecord
100
AcDbLayerTableRecord
  2
IMPORT_IGES
 70
0
 62
7
  6
CONTINUOUS
370
-3
390
F
  0
LAYER
  5
205
100
AcDbSymbolTableRecord
100
AcDbLayerTableRecord
  2
INTF_1
 70
0
 62
7
  6
CONTINUOUS
370
-3
390
F
  0
LAYER
  5
206
100
AcDbSymbolTableRecord
100
AcDbLayerTableRecord
  2
NOTE
 70
0
 62
7
  6
CONTINUOUS
370
-3
390
F
  0
LAYER
  5
207
100
AcDbSymbolTableRecord
100
AcDbLayerTableRecord
  2
PIANI
 70
0
 62
7
  6
CONTINUOUS
370
-3
390
F
  0
LAYER
  5
208
100
AcDbSymbolTableRecord
100
AcDbLayerTableRecord
  2
PUNTI
 70
0
 62
7
  6
CONTINUOUS
370
-3
390
F
  0
LAYER
  5
209
100
AcDbSymbolTableRecord
100
AcDbLayerTableRecord
  2
RACCORDO
 70
0
 62
7
  6
CONTINUOUS
370
-3
390
F
  0
LAYER
  5
20A
100
AcDbSymbolTableRecord
100
AcDbLayerTableRecord
  2
SCRITTE
 70
0
 62
7
  6
CONTINUOUS
370
-3
390
F
  0
LAYER
  5
20B
100
AcDbSymbolTableRecord
100
AcDbLayerTableRecord
  2
SIMBOLI
 70
0
 62
7
  6
CONTINUOUS
370
-3
390
F
  0
LAYER
  5
20C
100
AcDbSymbolTableRecord
100
AcDbLayerTableRecord
  2
SMUSSO
 70
0
 62
7
  6
CONTINUOUS
370
-3
390
F
  0
LAYER
  5
20D
100
AcDbSymbolTableRecord
100
AcDbLayerTableRecord
  2
SNAPLINE
 70
0
 62
7
  6
CONTINUOUS
370
-3
390
F
  0
LAYER
  5
20E
100
AcDbSymbolTableRecord
100
AcDbLayerTableRecord
  2
SUPERFICI
 70
0
 62
7
  6
CONTINUOUS
370
-3
390
F
  0
LAYER
  5
20F
100
AcDbSymbolTableRecord
100
AcDbLayerTableRecord
  2
TRASH
 70
0
 62
7
  6
CONTINUOUS
370
-3
390
F
  0
LAYER
  5
210
100
AcDbSymbolTableRecord
100
AcDbLayerTableRecord
  2
XSEC_DATUMS
 70
0
 62
7
  6
CONTINUOUS
370
-3
390
F
  0
ENDTAB
  0
TABLE
  2
STYLE
  5
3
100
AcDbSymbolTable
 70
1
  0
STYLE
  5
11
100
AcDbSymbolTableRecord
100
AcDbTextStyleTableRecord
  2
STANDARD
 70
0
 40
0.0
 41
0.8
 50
0.0
 71
0
 42
0.2
  3
txt
  4

  0
STYLE
  5
211
100
AcDbSymbolTableRecord
100
AcDbTextStyleTableRecord
  2
TEXTSTYLE_1
 70
0
 40
0.0
 41
0.8
 50
0.0
 71
0
 42
0.2
  3
gdt
  4

  0
ENDTAB
  0
TABLE
  2
VIEW
  5
6
100
AcDbSymbolTable
 70
0
  0
ENDTAB
  0
TABLE
  2
UCS
  5
7
100
AcDbSymbolTable
 70
0
  0
ENDTAB
  0
TABLE
  2
APPID
  5
9
100
AcDbSymbolTable
 70
1
  0
APPID
  5
212
100
AcDbSymbolTableRecord
100
AcDbRegAppTableRecord
  2
ACAD
 70
0
  0
ENDTAB
  0
TABLE
  2
BLOCK_RECORD
  5
1
100
AcDbSymbolTable
 70
0
  0
BLOCK_RECORD
  5
213
100
AcDbSymbolTableRecord
100
AcDbBlockTableRecord
  2
*Model_Space
  0
BLOCK_RECORD
  5
214
100
AcDbSymbolTableRecord
100
AcDbBlockTableRecord
  2
*Paper_Space
  0
BLOCK_RECORD
  5
215
100
AcDbSymbolTableRecord
100
AcDbBlockTableRecord
  2
_FILLED
  0
BLOCK_RECORD
  5
216
100
AcDbSymbolTableRecord
100
AcDbBlockTableRecord
  2
*D0
  0
BLOCK_RECORD
  5
217
100
AcDbSymbolTableRecord
100
AcDbBlockTableRecord
  2
*D1
  0
BLOCK_RECORD
  5
218
100
AcDbSymbolTableRecord
100
AcDbBlockTableRecord
  2
*D2
  0
ENDTAB
  0
TABLE
  2
DIMSTYLE
  5
A
100
AcDbSymbolTable
 70
1
100
AcDbDimStyleTable
 71
0
  0
DIMSTYLE
105
219
100
AcDbSymbolTableRecord
100
AcDbDimStyleTableRecord
  2
STANDARD
 70
0
  3

  4

 40
1.0
 41
3.0
 42
0.0625
 43
0.38
 44
0.18
 45
0.0
 46
0.0
 47
0.01
 48
0.01
140
3.0
141
0.09
142
0.0
143
25.4
144
1.0
145
0.0
146
1.0
147
0.09
 71
1.0
 72
0.0
 73
0
 74
0
 75
0
 76
0
 77
1
 78
8
170
0
171
2
172
0
173
0
174
0
175
0
176
0
177
0
178
0
270
2
271
2
272
2
273
2
274
2
275
0
280
0
281
0
282
0
283
1
284
8
285
0
286
0
287
3
288
0
340
11
341
215
342
215
343
215
344
215
  0
DIMSTYLE
105
21A
100
AcDbSymbolTableRecord
100
AcDbDimStyleTableRecord
  2
DIMSTYLE_1
 70
0
  3

  4

 40
1.0
 41
3.0
 42
0.0625
 43
0.38
 44
0.18
 45
0.0
 46
0.0
 47
0.0
 48
0.0
140
3.0
141
0.09
142
0.0
143
25.4
144
1.0
145
0.0
146
1.0
147
0.09
 71
0.0
 72
0.0
 73
0
 74
0
 75
0
 76
0
 77
1
 78
8
170
0
171
2
172
0
173
0
174
0
175
0
176
0
177
0
178
0
270
2
271
2
272
2
273
2
274
2
275
0
280
0
281
0
282
0
283
1
284
8
285
0
286
0
287
3
288
0
340
11
341
215
342
215
343
215
344
215
  0
DIMSTYLE
105
21B
100
AcDbSymbolTableRecord
100
AcDbDimStyleTableRecord
  2
DIMSTYLE_2
 70
0
  3

  4

 40
1.0
 41
3.0
 42
0.0625
 43
0.38
 44
0.18
 45
0.0
 46
0.0
 47
0.0
 48
0.0
140
3.0
141
0.09
142
0.0
143
25.4
144
1.0
145
0.0
146
1.0
147
0.09
 71
0.0
 72
0.0
 73
0
 74
0
 75
0
 76
0
 77
1
 78
8
170
0
171
2
172
0
173
0
174
0
175
0
176
0
177
0
178
0
270
2
271
1
272
1
273
2
274
2
275
0
280
0
281
0
282
0
283
1
284
8
285
0
286
0
287
3
288
0
340
11
341
215
342
215
343
215
344
215
  0
ENDTAB
  0
ENDSEC
  0
SECTION
  2
BLOCKS
  0
BLOCK
  5
20
100
AcDbEntity
  8
0
100
AcDbBlockBegin
  2
*Model_Space
 70
0
 10
0.0
 20
0.0
 30
0.0
  3
*Model_Space
  1

  0
ENDBLK
  5
21
100
AcDbEntity
  8
0
100
AcDbBlockEnd
  0
BLOCK
  5
1C
100
AcDbEntity
  8
0
100
AcDbBlockBegin
  2
*Paper_Space
 70
0
 10
0.0
 20
0.0
 30
0.0
  3
*Paper_Space
  1

  0
ENDBLK
  5
1D
100
AcDbEntity
  8
0
100
AcDbBlockEnd
  0
BLOCK
  5
21C
100
AcDbEntity
  8
0
100
AcDbBlockBegin
  2
_FILLED
 70
64
 10
0.0
 20
0.0
  3
_FILLED
  1

  0
SOLID
  5
21D
100
AcDbEntity
  8
0
  6
BYBLOCK
 62
0
100
AcDbTrace
 10
0.0
 20
0.0
 11
-1.0
 21
0.3166666667
 12
-1.0
 22
-0.3166666667
 13
-1.0
 23
-0.3166666667
  0
ENDBLK
  5
21E
100
AcDbEntity
  8
0
  6
BYBLOCK
 62
0
100
AcDbBlockEnd
  0
BLOCK
  5
21F
100
AcDbEntity
  8
0
100
AcDbBlockBegin
 62
7
  6
CONTINUOUS
  2
*D0
 70
65
 10
0.0
 20
0.0
  3
*D0
  1

  0
LINE
  5
220
100
AcDbEntity
  8
0
100
AcDbLine
 62
7
  6
CONTINUOUS
 10
233.5181174023
 20
139.953241604
 11
233.5181174023
 21
158.4007786194
  0
LINE
  5
221
100
AcDbEntity
  8
0
100
AcDbLine
 62
7
  6
CONTINUOUS
 10
143.5181174023
 20
139.953241604
 11
143.5181174023
 21
158.4007786194
  0
LINE
  5
222
100
AcDbEntity
  8
0
100
AcDbLine
 62
7
  6
CONTINUOUS
 10
233.5181174023
 20
156.9007786194
 11
188.5181174023
 21
156.9007786194
  0
LINE
  5
223
100
AcDbEntity
  8
0
100
AcDbLine
 62
7
  6
CONTINUOUS
 10
143.5181174023
 20
156.9007786194
 11
188.5181174023
 21
156.9007786194
  0
INSERT
  5
224
100
AcDbEntity
  8
0
100
AcDbBlockReference
 62
7
  6
CONTINUOUS
  2
_FILLED
 10
233.5181174023
 20
156.9007786194
 41
3.0
 42
3.0
 43
3.0
  0
INSERT
  5
225
100
AcDbEntity
  8
0
100
AcDbBlockReference
 62
7
  6
CONTINUOUS
  2
_FILLED
 10
143.5181174023
 20
156.9007786194
 41
3.0
 42
3.0
 43
3.0
 50
180.0
  0
ENDBLK
  5
226
100
AcDbEntity
  8
0
  6
BYBLOCK
 62
0
100
AcDbBlockEnd
  0
BLOCK
  5
227
100
AcDbEntity
  8
0
100
AcDbBlockBegin
 62
7
  6
CONTINUOUS
  2
*D1
 70
65
 10
0.0
 20
0.0
  3
*D1
  1

  0
LINE
  5
228
100
AcDbEntity
  8
0
100
AcDbLine
 62
7
  6
CONTINUOUS
 10
233.2181174023
 20
140.253241604
 11
253.032129515
 21
140.253241604
  0
LINE
  5
229
100
AcDbEntity
  8
0
100
AcDbLine
 62
7
  6
CONTINUOUS
 10
233.2181174023
 20
50.253241604
 11
253.032129515
 21
50.253241604
  0
LINE
  5
22A
100
AcDbEntity
  8
0
100
AcDbLine
 62
7
  6
CONTINUOUS
 10
251.532129515
 20
140.253241604
 11
251.532129515
 21
95.253241604
  0
LINE
  5
22B
100
AcDbEntity
  8
0
100
AcDbLine
 62
7
  6
CONTINUOUS
 10
251.532129515
 20
50.253241604
 11
251.532129515
 21
95.253241604
  0
INSERT
  5
22C
100
AcDbEntity
  8
0
100
AcDbBlockReference
 62
7
  6
CONTINUOUS
  2
_FILLED
 10
251.532129515
 20
140.253241604
 41
3.0
 42
3.0
 43
3.0
 50
90.0
  0
INSERT
  5
22D
100
AcDbEntity
  8
0
100
AcDbBlockReference
 62
7
  6
CONTINUOUS
  2
_FILLED
 10
251.532129515
 20
50.253241604
 41
3.0
 42
3.0
 43
3.0
 50
270.0
  0
ENDBLK
  5
22E
100
AcDbEntity
  8
0
  6
BYBLOCK
 62
0
100
AcDbBlockEnd
  0
BLOCK
  5
22F
100
AcDbEntity
  8
0
100
AcDbBlockBegin
 62
7
  6
CONTINUOUS
  2
*D2
 70
65
 10
0.0
 20
0.0
  3
*D2
  1

  0
LINE
  5
230
100
AcDbEntity
  8
0
100
AcDbLine
 62
7
  6
CONTINUOUS
 10
114.5201012252
 20
138.3157717112
 11
114.5201012238
 21
158.5468248522
  0
LINE
  5
231
100
AcDbEntity
  8
0
100
AcDbLine
 62
7
  6
CONTINUOUS
 10
105.9501012266
 20
95.7532415731
 11
105.9501012222
 21
158.5468248516
  0
LINE
  5
232
100
AcDbEntity
  8
0
100
AcDbLine
 62
7
  6
CONTINUOUS
 10
114.5201012239
 20
157.0468248522
 11
118.5201012239
 21
157.0468248525
  0
LINE
  5
233
100
AcDbEntity
  8
0
100
AcDbLine
 62
7
  6
CONTINUOUS
 10
118.5201012239
 20
157.0468248525
 11
110.2351012231
 21
157.0468248519
  0
LINE
  5
234
100
AcDbEntity
  8
0
100
AcDbLine
 62
7
  6
CONTINUOUS
 10
105.9501012223
 20
157.0468248516
 11
101.9501012223
 21
157.0468248514
  0
LINE
  5
235
100
AcDbEntity
  8
0
100
AcDbLine
 62
7
  6
CONTINUOUS
 10
101.9501012223
 20
157.0468248514
 11
110.2351012231
 21
157.0468248519
  0
INSERT
  5
236
100
AcDbEntity
  8
0
100
AcDbBlockReference
 62
7
  6
CONTINUOUS
  2
_FILLED
 10
114.5201012239
 20
157.0468248522
 41
3.0
 42
3.0
 43
3.0
 50
180.0000000039
  0
INSERT
  5
237
100
AcDbEntity
  8
0
100
AcDbBlockReference
 62
7
  6
CONTINUOUS
  2
_FILLED
 10
105.9501012223
 20
157.0468248516
 41
3.0
 42
3.0
 43
3.0
 50
0.0000000039
  0
ENDBLK
  5
238
100
AcDbEntity
  8
0
  6
BYBLOCK
 62
0
100
AcDbBlockEnd
  0
ENDSEC
  0
SECTION
  2
ENTITIES
  0
DIMENSION
  5
239
100
AcDbEntity
  8
0
100
AcDbDimension
 62
7
  6
CONTINUOUS
  2
*D0
 10
143.5181174023
 20
156.9007786194
 11
186.1609745452
 21
157.6507786194
 70
160
 71
2
 42
90.0
  3
DIMSTYLE_1
100
AcDbAlignedDimension
 13
233.5181174023
 23
139.953241604
 14
143.5181174023
 24
139.953241604
 50
180.0
100
AcDbRotatedDimension
  0
DIMENSION
  5
23A
100
AcDbEntity
  8
0
100
AcDbDimension
 62
7
  6
CONTINUOUS
  2
*D1
 10
251.532129515
 20
50.253241604
 11
250.782129515
 21
92.8960987469
 70
160
 71
2
 42
90.0
  3
DIMSTYLE_1
100
AcDbAlignedDimension
 13
233.2181174023
 23
140.253241604
 14
233.2181174023
 24
50.253241604
 50
270.0
100
AcDbRotatedDimension
  0
DIMENSION
  5
23B
100
AcDbEntity
  8
0
100
AcDbDimension
 62
7
  6
CONTINUOUS
  2
*D2
 10
105.9501012223
 20
157.0468248516
 11
107.0208155087
 21
157.7968248519
 70
160
 71
2
 42
8.5700000015
  3
DIMSTYLE_2
100
AcDbAlignedDimension
 13
114.5201012252
 23
138.3157717112
 14
105.9501012266
 24
95.7532415731
 50
180.0000000039
100
AcDbRotatedDimension
  0
LWPOLYLINE
  5
23C
100
AcDbEntity
  8
RACCORDO
100
AcDbPolyline
 62
253
  6
CONTINUOUS
 90
19
 70
0
 10
143.6287770816
 20
139.3435985252
 10
143.6341072902
 20
139.3508840289
 10
143.6427759038
 20
139.3580661838
 10
143.6547241862
 20
139.3650963251
 10
143.6698711791
 20
139.3719268184
 10
143.688114251
 20
139.3785113819
 10
143.7093297918
 20
139.3848054001
 10
143.733374051
 20
139.3907662262
 10
143.7600841115
 20
139.3963534713
 10
143.7892789935
 20
139.4015292773
 10
143.8207608806
 20
139.4062585744
 10
143.8543164604
 20
139.410509318
 10
143.8897183698
 20
139.4142527061
 10
143.9267267354
 20
139.4174633745
 10
143.965090799
 20
139.4201195685
 10
144.0045506164
 20
139.4222032906
 10
144.044838819
 20
139.423700422
 10
144.0856824254
 20
139.4246008186
 10
144.1268046908
 20
139.4248983797
  0
LWPOLYLINE
  5
23D
100
AcDbEntity
  8
ASSI
100
AcDbPolyline
 62
253
  6
CONTINUOUS
 90
19
 70
0
 10
143.6287770816
 20
139.3435985252
 10
143.6341072902
 20
139.3508840289
 10
143.6427759038
 20
139.3580661838
 10
143.6547241862
 20
139.3650963251
 10
143.6698711791
 20
139.3719268184
 10
143.688114251
 20
139.3785113819
 10
143.7093297918
 20
139.3848054001
 10
143.733374051
 20
139.3907662262
 10
143.7600841115
 20
139.3963534713
 10
143.7892789935
 20
139.4015292773
 10
143.8207608806
 20
139.4062585744
 10
143.8543164604
 20
139.410509318
 10
143.8897183698
 20
139.4142527061
 10
143.9267267354
 20
139.4174633745
 10
143.965090799
 20
139.4201195685
 10
144.0045506164
 20
139.4222032906
 10
144.044838819
 20
139.423700422
 10
144.0856824254
 20
139.4246008186
 10
144.1268046908
 20
139.4248983797
  0
LWPOLYLINE
  5
23E
100
AcDbEntity
  8
RACCORDO
100
AcDbPolyline
 62
253
  6
CONTINUOUS
 90
19
 70
0
 10
143.6287705786
 20
51.1628845786
 10
143.6341008965
 20
51.1555990983
 10
143.6427696657
 20
51.1484169648
 10
143.6547181486
 20
51.1413868425
 10
143.6698653849
 20
51.134556366
 10
143.6881087404
 20
51.1279718171
 10
143.709324602
 20
51.1216778113
 10
143.7333692158
 20
51.1157169954
 10
143.760079661
 20
51.1101297584
 10
143.7892749533
 20
51.1049539583
 10
143.8207572721
 20
51.1002246651
 10
143.8543133001
 20
51.0959739235
 10
143.8897156692
 20
51.0922305356
 10
143.9267245008
 20
51.0890198657
 10
143.9650890312
 20
51.0863636686
 10
144.004549311
 20
51.0842799421
 10
144.044837966
 20
51.0827828051
 10
144.0856820093
 20
51.0818824018
 10
144.1268046908
 20
51.0815848332
  0
LWPOLYLINE
  5
23F
100
AcDbEntity
  8
ASSI
100
AcDbPolyline
 62
253
  6
CONTINUOUS
 90
19
 70
0
 10
143.6287705786
 20
51.1628845786
 10
143.6341008965
 20
51.1555990983
 10
143.6427696657
 20
51.1484169648
 10
143.6547181486
 20
51.1413868425
 10
143.6698653849
 20
51.134556366
 10
143.6881087404
 20
51.1279718171
 10
143.709324602
 20
51.1216778113
 10
143.7333692158
 20
51.1157169954
 10
143.760079661
 20
51.1101297584
 10
143.7892749533
 20
51.1049539583
 10
143.8207572721
 20
51.1002246651
 10
143.8543133001
 20
51.0959739235
 10
143.8897156692
 20
51.0922305356
 10
143.9267245008
 20
51.0890198657
 10
143.9650890312
 20
51.0863636686
 10
144.004549311
 20
51.0842799421
 10
144.044837966
 20
51.0827828051
 10
144.0856820093
 20
51.0818824018
 10
144.1268046908
 20
51.0815848332
  0
LWPOLYLINE
  5
240
100
AcDbEntity
  8
RACCORDO
100
AcDbPolyline
 62
253
  6
CONTINUOUS
 90
25
 70
0
 10
143.6287705754
 20
139.3435986196
 10
143.6311996136
 20
139.3955700263
 10
143.6369652637
 20
139.4472326281
 10
143.6460368956
 20
139.4983726553
 10
143.6583680379
 20
139.5487784274
 10
143.6739028186
 20
139.5982429165
 10
143.6925775967
 20
139.6465641751
 10
143.7143113067
 20
139.6935460528
 10
143.7390076547
 20
139.7389931208
 10
143.7665622614
 20
139.7827130895
 10
143.7968549455
 20
139.824525418
 10
143.8297562804
 20
139.8642619735
 10
143.8651317079
 20
139.9017609953
 10
143.9028306795
 20
139.9368688494
 10
143.9426943376
 20
139.9694441998
 10
143.9845632822
 20
139.9993570989
 10
144.0282647843
 20
140.0264862279
 10
144.0736143042
 20
140.0507201139
 10
144.1204247753
 20
140.0719595089
 10
144.1684965043
 20
140.0901158161
 10
144.2176347302
 20
140.1051182391
 10
144.267653422
 20
140.1169097207
 10
144.3183521085
 20
140.1254401654
 10
144.3695156234
 20
140.1306703684
 10
144.420932582
 20
140.1325762312
  0
LWPOLYLINE
  5
241
100
AcDbEntity
  8
ASSI
100
AcDbPolyline
 62
253
  6
CONTINUOUS
 90
25
 70
0
 10
143.6287705754
 20
139.3435986196
 10
143.6311996136
 20
139.3955700263
 10
143.6369652637
 20
139.4472326281
 10
143.6460368956
 20
139.4983726553
 10
143.6583680379
 20
139.5487784274
 10
143.6739028186
 20
139.5982429165
 10
143.6925775967
 20
139.6465641751
 10
143.7143113067
 20
139.6935460528
 10
143.7390076547
 20
139.7389931208
 10
143.7665622614
 20
139.7827130895
 10
143.7968549455
 20
139.824525418
 10
143.8297562804
 20
139.8642619735
 10
143.8651317079
 20
139.9017609953
 10
143.9028306795
 20
139.9368688494
 10
143.9426943376
 20
139.9694441998
 10
143.9845632822
 20
139.9993570989
 10
144.0282647843
 20
140.0264862279
 10
144.0736143042
 20
140.0507201139
 10
144.1204247753
 20
140.0719595089
 10
144.1684965043
 20
140.0901158161
 10
144.2176347302
 20
140.1051182391
 10
144.267653422
 20
140.1169097207
 10
144.3183521085
 20
140.1254401654
 10
144.3695156234
 20
140.1306703684
 10
144.420932582
 20
140.1325762312
  0
LINE
  5
242
100
AcDbEntity
  8
RACCORDO
100
AcDbLine
 62
7
  6
CONTINUOUS
 10
232.7181174023
 20
50.253241604
 11
144.3181174023
 21
50.253241604
  0
LINE
  5
243
100
AcDbEntity
  8
ASSI
100
AcDbLine
 62
7
  6
CONTINUOUS
 10
232.7181174023
 20
50.253241604
 11
144.3181174023
 21
50.253241604
  0
LINE
  5
244
100
AcDbEntity
  8
RACCORDO
100
AcDbLine
 62
253
  6
CONTINUOUS
 10
232.6153022226
 20
50.3739069768
 11
144.420932582
 21
50.3739069768
  0
LINE
  5
245
100
AcDbEntity
  8
ASSI
100
AcDbLine
 62
253
  6
CONTINUOUS
 10
232.6153022226
 20
50.3739069768
 11
144.420932582
 21
50.3739069768
  0
LWPOLYLINE
  5
246
100
AcDbEntity
  8
RACCORDO
100
AcDbPolyline
 62
253
  6
CONTINUOUS
 90
25
 70
0
 10
144.420932582
 20
50.7818462383
 10
144.4015344008
 20
50.7824903457
 10
144.3823797255
 20
50.7843797597
 10
144.3634685561
 20
50.7875144881
 10
144.3447182307
 20
50.7919171528
 10
144.3262114112
 20
50.7975651634
 10
144.3081960834
 20
50.8043907156
 10
144.2906848215
 20
50.8124078148
 10
144.2736650512
 20
50.8216025139
 10
144.2573470357
 20
50.831865083
 10
144.2417387005
 20
50.8432091131
 10
144.2268321201
 20
50.85562109
 10
144.2128137805
 20
50.8689506229
 10
144.1996937762
 20
50.8832104987
 10
144.1874620127
 20
50.8983880146
 10
144.1762746923
 20
50.914294533
 10
144.1661456933
 20
50.9309386647
 10
144.1570611374
 20
50.9483118774
 10
144.1491355924
 20
50.9661997995
 10
144.1423830254
 20
50.9846170634
 10
144.1367894694
 20
51.0035490986
 10
144.1324275913
 20
51.0227377015
 10
144.1293216133
 20
51.0420968078
 10
144.1274473131
 20
51.0617125103
 10
144.1268046908
 20
51.0815848252
  0
LWPOLYLINE
  5
247
100
AcDbEntity
  8
ASSI
100
AcDbPolyline
 62
253
  6
CONTINUOUS
 90
25
 70
0
 10
144.420932582
 20
50.7818462383
 10
144.4015344008
 20
50.7824903457
 10
144.3823797255
 20
50.7843797597
 10
144.3634685561
 20
50.7875144881
 10
144.3447182307
 20
50.7919171528
 10
144.3262114112
 20
50.7975651634
 10
144.3081960834
 20
50.8043907156
 10
144.2906848215
 20
50.8124078148
 10
144.2736650512
 20
50.8216025139
 10
144.2573470357
 20
50.831865083
 10
144.2417387005
 20
50.8432091131
 10
144.2268321201
 20
50.85562109
 10
144.2128137805
 20
50.8689506229
 10
144.1996937762
 20
50.8832104987
 10
144.1874620127
 20
50.8983880146
 10
144.1762746923
 20
50.914294533
 10
144.1661456933
 20
50.9309386647
 10
144.1570611374
 20
50.9483118774
 10
144.1491355924
 20
50.9661997995
 10
144.1423830254
 20
50.9846170634
 10
144.1367894694
 20
51.0035490986
 10
144.1324275913
 20
51.0227377015
 10
144.1293216133
 20
51.0420968078
 10
144.1274473131
 20
51.0617125103
 10
144.1268046908
 20
51.0815848252
  0
LWPOLYLINE
  5
248
100
AcDbEntity
  8
RACCORDO
100
AcDbPolyline
 62
253
  6
CONTINUOUS
 90
25
 70
0
 10
144.420932582
 20
50.3739069768
 10
144.3695160097
 20
50.3758128151
 10
144.3183527032
 20
50.3810429704
 10
144.2676540481
 20
50.3895733784
 10
144.2176351199
 20
50.4013648999
 10
144.1684964989
 20
50.4163674532
 10
144.120424505
 20
50.4345238784
 10
144.0736139975
 20
50.4557632912
 10
144.0282645497
 20
50.4799971185
 10
143.9845631725
 20
50.5071261311
 10
143.9426943847
 20
50.5370388449
 10
143.9028309168
 20
50.5696139321
 10
143.8651321547
 20
50.6047214846
 10
143.8297569738
 20
50.6422201609
 10
143.7968558858
 20
50.6819563269
 10
143.7665633702
 20
50.723768288
 10
143.7390088611
 20
50.7674879265
 10
143.7143125467
 20
50.8129347074
 10
143.6925787587
 20
50.8599164136
 10
143.6739037992
 20
50.9082376325
 10
143.6583687808
 20
50.9577022225
 10
143.6460373821
 20
51.0081083028
 10
143.6369655164
 20
51.05924887
 10
143.6311996914
 20
51.1109122235
 10
143.6287705754
 20
51.1628845885
  0
LWPOLYLINE
  5
249
100
AcDbEntity
  8
ASSI
100
AcDbPolyline
 62
253
  6
CONTINUOUS
 90
25
 70
0
 10
144.420932582
 20
50.3739069768
 10
144.3695160097
 20
50.3758128151
 10
144.3183527032
 20
50.3810429704
 10
144.2676540481
 20
50.3895733784
 10
144.2176351199
 20
50.4013648999
 10
144.1684964989
 20
50.4163674532
 10
144.120424505
 20
50.4345238784
 10
144.0736139975
 20
50.4557632912
 10
144.0282645497
 20
50.4799971185
 10
143.9845631725
 20
50.5071261311
 10
143.9426943847
 20
50.5370388449
 10
143.9028309168
 20
50.5696139321
 10
143.8651321547
 20
50.6047214846
 10
143.8297569738
 20
50.6422201609
 10
143.7968558858
 20
50.6819563269
 10
143.7665633702
 20
50.723768288
 10
143.7390088611
 20
50.7674879265
 10
143.7143125467
 20
50.8129347074
 10
143.6925787587
 20
50.8599164136
 10
143.6739037992
 20
50.9082376325
 10
143.6583687808
 20
50.9577022225
 10
143.6460373821
 20
51.0081083028
 10
143.6369655164
 20
51.05924887
 10
143.6311996914
 20
51.1109122235
 10
143.6287705754
 20
51.1628845885
  0
LINE
  5
24A
100
AcDbEntity
  8
RACCORDO
100
AcDbLine
 62
7
  6
CONTINUOUS
 10
143.5181174023
 20
51.053241604
 11
143.5181174023
 21
72.7386193818
  0
LINE
  5
24B
100
AcDbEntity
  8
DRAFT
100
AcDbLine
 62
7
  6
CONTINUOUS
 10
143.5181174023
 20
72.7386193818
 11
143.5181174023
 21
117.7678638263
  0
LINE
  5
24C
100
AcDbEntity
  8
RACCORDO
100
AcDbLine
 62
7
  6
CONTINUOUS
 10
143.5181174023
 20
117.7678638263
 11
143.5181174023
 21
139.453241604
  0
LINE
  5
24D
100
AcDbEntity
  8
ASSI
100
AcDbLine
 62
7
  6
CONTINUOUS
 10
143.5181174023
 20
51.053241604
 11
143.5181174023
 21
139.453241604
  0
LINE
  5
24E
100
AcDbEntity
  8
RACCORDO
100
AcDbLine
 62
253
  6
CONTINUOUS
 10
143.6287705755
 20
51.1628845887
 11
143.6269399293
 21
87.7455785722
  0
LINE
  5
24F
100
AcDbEntity
  8
ASSI
100
AcDbLine
 62
253
  6
CONTINUOUS
 10
143.6287705755
 20
51.1628845887
 11
143.6269399293
 21
87.7455785722
  0
LINE
  5
250
100
AcDbEntity
  8
RACCORDO
100
AcDbLine
 62
253
  6
CONTINUOUS
 10
144.1268046908
 20
51.0815848252
 11
144.1250367391
 21
87.7379568996
  0
LINE
  5
251
100
AcDbEntity
  8
ASSI
100
AcDbLine
 62
253
  6
CONTINUOUS
 10
144.1268046908
 20
51.0815848252
 11
144.1250367391
 21
87.7379568996
  0
LINE
  5
252
100
AcDbEntity
  8
RACCORDO
100
AcDbLine
 62
253
  6
CONTINUOUS
 10
144.420932582
 20
140.1325762312
 11
144.420932582
 21
139.7246369698
  0
LINE
  5
253
100
AcDbEntity
  8
ASSI
100
AcDbLine
 62
253
  6
CONTINUOUS
 10
144.420932582
 20
140.1325762312
 11
144.420932582
 21
139.7246369698
  0
LINE
  5
254
100
AcDbEntity
  8
RACCORDO
100
AcDbLine
 62
253
  6
CONTINUOUS
 10
144.420932582
 20
50.3739069768
 11
144.420932582
 21
50.7818462383
  0
LINE
  5
255
100
AcDbEntity
  8
ASSI
100
AcDbLine
 62
253
  6
CONTINUOUS
 10
144.420932582
 20
50.3739069768
 11
144.420932582
 21
50.7818462383
  0
LWPOLYLINE
  5
256
100
AcDbEntity
  8
RACCORDO
100
AcDbPolyline
 62
253
  6
CONTINUOUS
 90
3
 70
0
 10
143.6269399293
 20
87.7455785722
 10
143.6272718296
 20
122.6358893832
 10
143.6287705755
 20
139.3435986194
  0
LWPOLYLINE
  5
257
100
AcDbEntity
  8
ASSI
100
AcDbPolyline
 62
253
  6
CONTINUOUS
 90
3
 70
0
 10
143.6269399293
 20
87.7455785722
 10
143.6272718296
 20
122.6358893832
 10
143.6287705755
 20
139.3435986194
  0
LWPOLYLINE
  5
258
100
AcDbEntity
  8
RACCORDO
100
AcDbPolyline
 62
253
  6
CONTINUOUS
 90
3
 70
0
 10
144.1250367391
 20
87.7379568996
 10
144.1253638023
 20
122.6718535406
 10
144.1268046908
 20
139.4248983828
  0
LWPOLYLINE
  5
259
100
AcDbEntity
  8
ASSI
100
AcDbPolyline
 62
253
  6
CONTINUOUS
 90
3
 70
0
 10
144.1250367391
 20
87.7379568996
 10
144.1253638023
 20
122.6718535406
 10
144.1268046908
 20
139.4248983828
  0
LWPOLYLINE
  5
25A
100
AcDbEntity
  8
RACCORDO
100
AcDbPolyline
 62
253
  6
CONTINUOUS
 90
25
 70
0
 10
144.1268046908
 20
139.4248983828
 10
144.1274480056
 20
139.444774251
 10
144.1293227551
 20
139.4643921232
 10
144.1324289394
 20
139.4837520157
 10
144.1367908409
 20
139.502939606
 10
144.1423841771
 20
139.5218692453
 10
144.1491361006
 20
139.5402839761
 10
144.1570605053
 20
139.5581695486
 10
144.1661434974
 20
139.5755402746
 10
144.1762705482
 20
139.5921820659
 10
144.1874548698
 20
139.608085985
 10
144.19968325
 20
139.6232610479
 10
144.2128015243
 20
139.6375201156
 10
144.2268209841
 20
139.6508516879
 10
144.241730338
 20
139.663267349
 10
144.2573415468
 20
139.6746145978
 10
144.2736621306
 20
139.6848792217
 10
144.2906845695
 20
139.6940755102
 10
144.3081982645
 20
139.7020937194
 10
144.3262160914
 20
139.708919816
 10
144.3447251745
 20
139.7145678917
 10
144.3634762878
 20
139.7189703873
 10
144.3823863557
 20
139.7221047942
 10
144.4015384538
 20
139.7239936524
 10
144.420932582
 20
139.7246369698
  0
LWPOLYLINE
  5
25B
100
AcDbEntity
  8
ASSI
100
AcDbPolyline
 62
253
  6
CONTINUOUS
 90
25
 70
0
 10
144.1268046908
 20
139.4248983828
 10
144.1274480056
 20
139.444774251
 10
144.1293227551
 20
139.4643921232
 10
144.1324289394
 20
139.4837520157
 10
144.1367908409
 20
139.502939606
 10
144.1423841771
 20
139.5218692453
 10
144.1491361006
 20
139.5402839761
 10
144.1570605053
 20
139.5581695486
 10
144.1661434974
 20
139.5755402746
 10
144.1762705482
 20
139.5921820659
 10
144.1874548698
 20
139.608085985
 10
144.19968325
 20
139.6232610479
 10
144.2128015243
 20
139.6375201156
 10
144.2268209841
 20
139.6508516879
 10
144.241730338
 20
139.663267349
 10
144.2573415468
 20
139.6746145978
 10
144.2736621306
 20
139.6848792217
 10
144.2906845695
 20
139.6940755102
 10
144.3081982645
 20
139.7020937194
 10
144.3262160914
 20
139.708919816
 10
144.3447251745
 20
139.7145678917
 10
144.3634762878
 20
139.7189703873
 10
144.3823863557
 20
139.7221047942
 10
144.4015384538
 20
139.7239936524
 10
144.420932582
 20
139.7246369698
  0
LWPOLYLINE
  5
25C
100
AcDbEntity
  8
0
100
AcDbPolyline
 62
7
  6
CONTINUOUS
 90
10
 70
0
 43
0.3500000006
 10
186.5895430298
 20
157.6507728882
 10
187.4466809692
 20
158.5079289551
 10
187.6609835815
 20
159.3650668945
 10
187.6609835815
 20
160.222204834
 10
187.2323964844
 20
160.6507738037
 10
186.5895430298
 20
160.6507738037
 10
186.1609740601
 20
160.222204834
 10
186.1609740601
 20
159.3650668945
 10
186.5895430298
 20
158.9364979248
 10
187.5181212158
 20
158.9364979248
  0
LINE
  5
25D
100
AcDbEntity
  8
RACCORDO
100
AcDbLine
 62
253
  6
CONTINUOUS
 10
232.6153022226
 20
50.7818462383
 11
144.420932582
 21
50.7818462383
  0
LINE
  5
25E
100
AcDbEntity
  8
ASSI
100
AcDbLine
 62
253
  6
CONTINUOUS
 10
232.6153022226
 20
50.7818462383
 11
144.420932582
 21
50.7818462383
  0
LWPOLYLINE
  5
25F
100
AcDbEntity
  8
RACCORDO
100
AcDbPolyline
 62
253
  6
CONTINUOUS
 90
16
 70
0
 10
143.6270597303
 20
117.8303382612
 10
143.6323420849
 20
117.8323898823
 10
143.6409695939
 20
117.834412591
 10
143.6528836945
 20
117.8363926574
 10
143.6680035147
 20
117.8383166408
 10
143.6862264225
 20
117.8401714815
 10
143.7074287223
 20
117.841944589
 10
143.7314664946
 20
117.8436239275
 10
143.758176573
 20
117.8451980979
 10
143.7873776517
 20
117.8466564147
 10
143.8188715162
 20
117.8479889792
 10
143.8524443887
 20
117.8491867458
 10
143.8878683795
 20
117.8502415844
 10
143.9249030333
 20
117.8511463347
 10
143.9632969621
 20
117.8518948553
 10
144.0027895509
 20
117.8524820654
  0
LWPOLYLINE
  5
260
100
AcDbEntity
  8
ASSI
100
AcDbPolyline
 62
253
  6
CONTINUOUS
 90
16
 70
0
 10
143.6270597303
 20
117.8303382612
 10
143.6323420849
 20
117.8323898823
 10
143.6409695939
 20
117.834412591
 10
143.6528836945
 20
117.8363926574
 10
143.6680035147
 20
117.8383166408
 10
143.6862264225
 20
117.8401714815
 10
143.7074287223
 20
117.841944589
 10
143.7314664946
 20
117.8436239275
 10
143.758176573
 20
117.8451980979
 10
143.7873776517
 20
117.8466564147
 10
143.8188715162
 20
117.8479889792
 10
143.8524443887
 20
117.8491867458
 10
143.8878683795
 20
117.8502415844
 10
143.9249030333
 20
117.8511463347
 10
143.9632969621
 20
117.8518948553
 10
144.0027895509
 20
117.8524820654
  0
LWPOLYLINE
  5
261
100
AcDbEntity
  8
RACCORDO
100
AcDbPolyline
 62
253
  6
CONTINUOUS
 90
16
 70
0
 10
143.6270582443
 20
117.7678662786
 10
143.6323405375
 20
117.7699123357
 10
143.6409679937
 20
117.7719296297
 10
143.6528820502
 20
117.7739044675
 10
143.6680018354
 20
117.7758234438
 10
143.686224717
 20
117.7776735329
 10
143.7074269993
 20
117.7794421765
 10
143.7314647628
 20
117.7811173691
 10
143.7581748407
 20
117.7826877397
 10
143.7873759267
 20
117.7841426286
 10
143.818869806
 20
117.7854721602
 10
143.8524427
 20
117.7866673097
 10
143.8878667184
 20
117.7877199646
 10
143.9249014052
 20
117.7886229794
 10
143.9632953715
 20
117.7893702245
 10
144.0027880016
 20
117.7899566278
  0
LWPOLYLINE
  5
262
100
AcDbEntity
  8
ASSI
100
AcDbPolyline
 62
253
  6
CONTINUOUS
 90
16
 70
0
 10
143.6270582443
 20
117.7678662786
 10
143.6323405375
 20
117.7699123357
 10
143.6409679937
 20
117.7719296297
 10
143.6528820502
 20
117.7739044675
 10
143.6680018354
 20
117.7758234438
 10
143.686224717
 20
117.7776735329
 10
143.7074269993
 20
117.7794421765
 10
143.7314647628
 20
117.7811173691
 10
143.7581748407
 20
117.7826877397
 10
143.7873759267
 20
117.7841426286
 10
143.818869806
 20
117.7854721602
 10
143.8524427
 20
117.7866673097
 10
143.8878667184
 20
117.7877199646
 10
143.9249014052
 20
117.7886229794
 10
143.9632953715
 20
117.7893702245
 10
144.0027880016
 20
117.7899566278
  0
LWPOLYLINE
  5
263
100
AcDbEntity
  8
RACCORDO
100
AcDbPolyline
 62
253
  6
CONTINUOUS
 90
18
 70
0
 10
143.6270582447
 20
72.7386193818
 10
143.6323405384
 20
72.7365733249
 10
143.6409679949
 20
72.7345560311
 10
143.6528820517
 20
72.7325811936
 10
143.6680018371
 20
72.7306622175
 10
143.6862247188
 20
72.7288121286
 10
143.7074270013
 20
72.7270434852
 10
143.7314647649
 20
72.7253682928
 10
143.7581748427
 20
72.7237979224
 10
143.7873759288
 20
72.7223430336
 10
143.8188698079
 20
72.7210135022
 10
143.8524427018
 20
72.7198183528
 10
143.88786672
 20
72.7187656981
 10
143.9249014066
 20
72.7178626833
 10
143.9632953726
 20
72.7171154382
 10
144.0027880025
 20
72.716529035
 10
144.0431112228
 20
72.7161074541
 10
144.1251508096
 20
72.7157690677
  0
LWPOLYLINE
  5
264
100
AcDbEntity
  8
ASSI
100
AcDbPolyline
 62
253
  6
CONTINUOUS
 90
18
 70
0
 10
143.6270582447
 20
72.7386193818
 10
143.6323405384
 20
72.7365733249
 10
143.6409679949
 20
72.7345560311
 10
143.6528820517
 20
72.7325811936
 10
143.6680018371
 20
72.7306622175
 10
143.6862247188
 20
72.7288121286
 10
143.7074270013
 20
72.7270434852
 10
143.7314647649
 20
72.7253682928
 10
143.7581748427
 20
72.7237979224
 10
143.7873759288
 20
72.7223430336
 10
143.8188698079
 20
72.7210135022
 10
143.8524427018
 20
72.7198183528
 10
143.88786672
 20
72.7187656981
 10
143.9249014066
 20
72.7178626833
 10
143.9632953726
 20
72.7171154382
 10
144.0027880025
 20
72.716529035
 10
144.0431112228
 20
72.7161074541
 10
144.1251508096
 20
72.7157690677
  0
LWPOLYLINE
  5
265
100
AcDbEntity
  8
RACCORDO
100
AcDbPolyline
 62
253
  6
CONTINUOUS
 90
17
 70
0
 10
143.6270597285
 20
72.6761449469
 10
143.6323420813
 20
72.6740933257
 10
143.6409695887
 20
72.6720706169
 10
143.652883688
 20
72.6700905504
 10
143.6680035071
 20
72.6681665669
 10
143.6862264141
 20
72.6663117261
 10
143.7074287133
 20
72.6645386185
 10
143.7314664853
 20
72.6628592799
 10
143.7581765637
 20
72.6612851094
 10
143.7873776426
 20
72.6598267925
 10
143.8188715075
 20
72.658494228
 10
143.8524443807
 20
72.6572964612
 10
143.8878683722
 20
72.6562416226
 10
143.924903027
 20
72.6553368723
 10
143.9632969568
 20
72.6545883516
 10
144.0027895469
 20
72.6540011414
 10
144.0839927798
 20
72.6533254744
  0
LWPOLYLINE
  5
266
100
AcDbEntity
  8
ASSI
100
AcDbPolyline
 62
253
  6
CONTINUOUS
 90
17
 70
0
 10
143.6270597285
 20
72.6761449469
 10
143.6323420813
 20
72.6740933257
 10
143.6409695887
 20
72.6720706169
 10
143.652883688
 20
72.6700905504
 10
143.6680035071
 20
72.6681665669
 10
143.6862264141
 20
72.6663117261
 10
143.7074287133
 20
72.6645386185
 10
143.7314664853
 20
72.6628592799
 10
143.7581765637
 20
72.6612851094
 10
143.7873776426
 20
72.6598267925
 10
143.8188715075
 20
72.658494228
 10
143.8524443807
 20
72.6572964612
 10
143.8878683722
 20
72.6562416226
 10
143.924903027
 20
72.6553368723
 10
143.9632969568
 20
72.6545883516
 10
144.0027895469
 20
72.6540011414
 10
144.0839927798
 20
72.6533254744
  0
LWPOLYLINE
  5
267
100
AcDbEntity
  8
SCRITTE
100
AcDbPolyline
 62
253
  6
CONTINUOUS
 90
56
 70
0
 10
192.7347980455
 20
67.9296135174
 10
192.7510499907
 20
67.930116832
 10
192.7674066514
 20
67.9309203385
 10
192.7838894803
 20
67.9320503485
 10
192.80051993
 20
67.9335331739
 10
192.8173048362
 20
67.9353949377
 10
192.834192567
 20
67.9376610076
 10
192.8511168733
 20
67.9403565625
 10
192.8680115061
 20
67.9435067814
 10
192.8814602593
 20
67.9463694012
 10
192.8948072888
 20
67.9495410098
 10
192.9080122614
 20
67.9530234966
 10
192.9210348437
 20
67.9568187511
 10
192.9338347025
 20
67.9609286626
 10
192.9463757738
 20
67.9653547762
 10
192.9586390713
 20
67.9700972596
 10
192.9706098777
 20
67.9751559363
 10
192.9822734759
 20
67.9805306297
 10
192.993615149
 20
67.9862211631
 10
193.0028118979
 20
67.9912052837
 10
193.0117776756
 20
67.9964137333
 10
193.0205152903
 20
68.00185163
 10
193.0290265952
 20
68.007524475
 10
193.0373096246
 20
68.013439302
 10
193.0453614582
 20
68.0196035277
 10
193.053179687
 20
68.0260226479
 10
193.0607639485
 20
68.0326944749
 10
193.0681143916
 20
68.0396149004
 10
193.0752317888
 20
68.0467786162
 10
193.0821194056
 20
68.054175516
 10
193.088781131
 20
68.0617942939
 10
193.0964828498
 20
68.0712170778
 10
193.1038737005
 20
68.08094329
 10
193.1109624985
 20
68.0909731348
 10
193.1177580591
 20
68.1013068167
 10
193.1242691977
 20
68.1119445402
 10
193.1305025125
 20
68.1228854015
 10
193.1364557321
 20
68.1341240649
 10
193.1421243681
 20
68.1456540865
 10
193.1475039319
 20
68.1574690226
 10
193.1525899352
 20
68.1695624291
 10
193.1573767623
 20
68.1819231079
 10
193.1618542901
 20
68.194520843
 10
193.1660112684
 20
68.2073206643
 10
193.1698364469
 20
68.2202876015
 10
193.1733185755
 20
68.2333866843
 10
193.1764483322
 20
68.2465824724
 10
193.1792241077
 20
68.2598376463
 10
193.1816462213
 20
68.2731144162
 10
193.1837149918
 20
68.2863749925
 10
193.1854307383
 20
68.2995815855
 10
193.1867941248
 20
68.3127048096
 10
193.1878071945
 20
68.325748895
 10
193.1884723354
 20
68.338726476
 10
193.1887919357
 20
68.3516501867
 10
193.1887683834
 20
68.3645326614
  0
LINE
  5
268
100
AcDbEntity
  8
SCRITTE
100
AcDbLine
 62
253
  6
CONTINUOUS
 10
193.8772656142
 20
66.3754402497
 11
193.3151330242
 21
66.3754402497
  0
LINE
  5
269
100
AcDbEntity
  8
SCRITTE
100
AcDbLine
 62
253
  6
CONTINUOUS
 10
192.4201927472
 20
66.3754402497
 11
191.8381362046
 21
66.3754402497
  0
LINE
  5
26A
100
AcDbEntity
  8
SCRITTE
100
AcDbLine
 62
253
  6
CONTINUOUS
 10
186.1182404023
 20
66.375440604
 11
185.5338324023
 21
66.375440604
  0
LINE
  5
26B
100
AcDbEntity
  8
SCRITTE
100
AcDbLine
 62
253
  6
CONTINUOUS
 10
183.9020104023
 20
66.375440604
 11
184.4170204023
 21
66.375440604
  0
LINE
  5
26C
100
AcDbEntity
  8
SCRITTE
100
AcDbLine
 62
253
  6
CONTINUOUS
 10
186.4328454023
 20
66.375440604
 11
186.9919344023
 21
66.375440604
  0
LINE
  5
26D
100
AcDbEntity
  8
SCRITTE
100
AcDbLine
 62
253
  6
CONTINUOUS
 10
187.8036304023
 20
66.375440604
 11
187.8855934023
 21
66.375440604
  0
LINE
  5
26E
100
AcDbEntity
  8
SCRITTE
100
AcDbLine
 62
253
  6
CONTINUOUS
 10
188.7005234023
 20
66.375440604
 11
189.2722294023
 21
66.375440604
  0
LINE
  5
26F
100
AcDbEntity
  8
SCRITTE
100
AcDbLine
 62
253
  6
CONTINUOUS
 10
189.3639974023
 20
66.375440604
 11
189.9420644023
 21
66.375440604
  0
LINE
  5
270
100
AcDbEntity
  8
SCRITTE
100
AcDbLine
 62
253
  6
CONTINUOUS
 10
191.0505834023
 20
66.375440604
 11
191.6665254023
 21
66.375440604
  0
LINE
  5
271
100
AcDbEntity
  8
SCRITTE
100
AcDbLine
 62
253
  6
CONTINUOUS
 10
190.1033244023
 20
66.934360604
 11
190.8991914023
 21
66.934360604
  0
LINE
  5
272
100
AcDbEntity
  8
SCRITTE
100
AcDbLine
 62
253
  6
CONTINUOUS
 10
190.7823974023
 20
67.366850604
 11
190.2228684023
 21
67.366850604
  0
LINE
  5
273
100
AcDbEntity
  8
SCRITTE
100
AcDbLine
 62
253
  6
CONTINUOUS
 10
192.7335383646
 20
67.4710896793
 11
192.4201927472
 21
67.4710896793
  0
LINE
  5
274
100
AcDbEntity
  8
SCRITTE
100
AcDbLine
 62
253
  6
CONTINUOUS
 10
192.4008146564
 20
67.9296135174
 11
192.7347980455
 21
67.9296135174
  0
LWPOLYLINE
  5
275
100
AcDbEntity
  8
SCRITTE
100
AcDbPolyline
 62
253
  6
CONTINUOUS
 90
36
 70
0
 10
191.8381362046
 20
69.142434263
 10
191.8819561433
 20
69.1487849887
 10
191.9250894253
 20
69.1548375874
 10
191.967518234
 20
69.1605815761
 10
192.0092247527
 20
69.1660064717
 10
192.0501911645
 20
69.1711017912
 10
192.0904122186
 20
69.175859408
 10
192.1299329265
 20
69.1802806207
 10
192.1688108654
 20
69.1843690845
 10
192.2071036126
 20
69.1881284545
 10
192.2448687453
 20
69.1915623858
 10
192.2914129374
 20
69.1954013348
 10
192.3372872654
 20
69.198736325
 10
192.3825562981
 20
69.2015661843
 10
192.4272846047
 20
69.2038897409
 10
192.4715401323
 20
69.2057041693
 10
192.5154043417
 20
69.2070000304
 10
192.5589620716
 20
69.2077662313
 10
192.6022981608
 20
69.2079916795
 10
192.6598564527
 20
69.2074313949
 10
192.717222513
 20
69.2058605268
 10
192.7744473132
 20
69.2032495502
 10
192.8172993328
 20
69.2005842256
 10
192.8600948216
 20
69.1972642163
 10
192.9028280359
 20
69.1932365064
 10
192.9454932323
 20
69.18844808
 10
192.9795690673
 20
69.1840306036
 10
193.0135738179
 20
69.1790448377
 10
193.047483607
 20
69.1734432816
 10
193.0812745574
 20
69.1671784346
 10
193.1149227922
 20
69.1602027961
 10
193.1484058606
 20
69.1524685255
 10
193.1817070176
 20
69.143926423
 10
193.2148109443
 20
69.1345269494
 10
193.247702322
 20
69.1242205651
 10
193.2803658321
 20
69.1129577306
  0
LWPOLYLINE
  5
276
100
AcDbEntity
  8
RACCORDO
100
AcDbPolyline
 62
7
  6
CONTINUOUS
 90
22
 70
0
 10
199.6676126799
 20
72.553241604
 10
199.69774432
 20
72.5544094476
 10
199.7273705733
 20
72.5577290848
 10
199.7564914399
 20
72.563200518
 10
199.785239337
 20
72.5708633739
 10
199.8134818473
 20
72.5806780355
 10
199.8408217191
 20
72.5925256419
 10
199.8672746856
 20
72.6064396439
 10
199.8928250135
 20
72.6223866085
 10
199.9170282507
 20
72.6401473496
 10
199.9398925059
 20
72.6598034854
 10
199.9614096705
 20
72.681273421
 10
199.9811109662
 20
72.7040931472
 10
199.998917685
 20
72.7282670033
 10
200.014908535
 20
72.7537906715
 10
200.0288508627
 20
72.7801871498
 10
200.0407005669
 20
72.8074180822
 10
200.0505017489
 20
72.8355218401
 10
200.0581540592
 20
72.8641365059
 10
200.0636240479
 20
72.8931414421
 10
200.0669451649
 20
72.9226572951
 10
200.0681174102
 20
72.9526840698
  0
LWPOLYLINE
  5
277
100
AcDbEntity
  8
ASSI
100
AcDbPolyline
 62
7
  6
CONTINUOUS
 90
22
 70
0
 10
199.6676126799
 20
72.553241604
 10
199.69774432
 20
72.5544094476
 10
199.7273705733
 20
72.5577290848
 10
199.7564914399
 20
72.563200518
 10
199.785239337
 20
72.5708633739
 10
199.8134818473
 20
72.5806780355
 10
199.8408217191
 20
72.5925256419
 10
199.8672746856
 20
72.6064396439
 10
199.8928250135
 20
72.6223866085
 10
199.9170282507
 20
72.6401473496
 10
199.9398925059
 20
72.6598034854
 10
199.9614096705
 20
72.681273421
 10
199.9811109662
 20
72.7040931472
 10
199.998917685
 20
72.7282670033
 10
200.014908535
 20
72.7537906715
 10
200.0288508627
 20
72.7801871498
 10
200.0407005669
 20
72.8074180822
 10
200.0505017489
 20
72.8355218401
 10
200.0581540592
 20
72.8641365059
 10
200.0636240479
 20
72.8931414421
 10
200.0669451649
 20
72.9226572951
 10
200.0681174102
 20
72.9526840698
  0
LWPOLYLINE
  5
278
100
AcDbEntity
  8
RACCORDO
100
AcDbPolyline
 62
253
  6
CONTINUOUS
 90
16
 70
0
 10
176.5401414239
 20
72.8762120188
 10
176.5804815586
 20
72.8768218748
 10
176.6196445839
 20
72.8775985865
 10
176.6573519972
 20
72.8785366304
 10
176.6933356467
 20
72.8796293358
 10
176.7273396395
 20
72.8808689319
 10
176.7591221603
 20
72.8822466035
 10
176.7884571919
 20
72.8837525536
 10
176.8151361219
 20
72.8853760727
 10
176.8389692264
 20
72.8871056154
 10
176.8597870193
 20
72.8889288822
 10
176.8774414576
 20
72.8908329073
 10
176.8918069939
 20
72.8928041504
 10
176.9027814696
 20
72.8948285932
 10
176.910286841
 20
72.8968918392
 10
176.9142697347
 20
72.8989792159
  0
LWPOLYLINE
  5
279
100
AcDbEntity
  8
ASSI
100
AcDbPolyline
 62
253
  6
CONTINUOUS
 90
16
 70
0
 10
176.5401414239
 20
72.8762120188
 10
176.5804815586
 20
72.8768218748
 10
176.6196445839
 20
72.8775985865
 10
176.6573519972
 20
72.8785366304
 10
176.6933356467
 20
72.8796293358
 10
176.7273396395
 20
72.8808689319
 10
176.7591221603
 20
72.8822466035
 10
176.7884571919
 20
72.8837525536
 10
176.8151361219
 20
72.8853760727
 10
176.8389692264
 20
72.8871056154
 10
176.8597870193
 20
72.8889288822
 10
176.8774414576
 20
72.8908329073
 10
176.8918069939
 20
72.8928041504
 10
176.9027814696
 20
72.8948285932
 10
176.910286841
 20
72.8968918392
 10
176.9142697347
 20
72.8989792159
  0
LINE
  5
27A
100
AcDbEntity
  8
RACCORDO
100
AcDbLine
 62
253
  6
CONTINUOUS
 10
233.033445255
 20
72.6540011422
 11
232.9522420239
 21
72.6533254753
  0
LINE
  5
27B
100
AcDbEntity
  8
ASSI
100
AcDbLine
 62
253
  6
CONTINUOUS
 10
233.033445255
 20
72.6540011422
 11
232.9522420239
 21
72.6533254753
  0
LWPOLYLINE
  5
27C
100
AcDbEntity
  8
RACCORDO
100
AcDbPolyline
 62
253
  6
CONTINUOUS
 90
3
 70
0
 10
233.0334468031
 20
72.7165290347
 10
232.9522434826
 20
72.7158535569
 10
232.911083995
 20
72.7157690674
  0
LWPOLYLINE
  5
27D
100
AcDbEntity
  8
ASSI
100
AcDbPolyline
 62
253
  6
CONTINUOUS
 90
3
 70
0
 10
233.0334468031
 20
72.7165290347
 10
232.9522434826
 20
72.7158535569
 10
232.911083995
 20
72.7157690674
  0
LWPOLYLINE
  5
27E
100
AcDbEntity
  8
RACCORDO
100
AcDbPolyline
 62
253
  6
CONTINUOUS
 90
3
 70
0
 10
176.4149566709
 20
72.8754208446
 10
176.4570836527
 20
72.875509004
 10
176.5401414239
 20
72.8762120188
  0
LWPOLYLINE
  5
27F
100
AcDbEntity
  8
ASSI
100
AcDbPolyline
 62
253
  6
CONTINUOUS
 90
3
 70
0
 10
176.4149566709
 20
72.8754208446
 10
176.4570836527
 20
72.875509004
 10
176.5401414239
 20
72.8762120188
  0
LINE
  5
280
100
AcDbEntity
  8
SCRITTE
100
AcDbLine
 62
253
  6
CONTINUOUS
 10
190.8075074023
 20
69.175143604
 11
190.2421624023
 21
69.175143604
  0
LINE
  5
281
100
AcDbEntity
  8
SCRITTE
100
AcDbLine
 62
253
  6
CONTINUOUS
 10
189.0104254023
 20
69.175143604
 11
188.4322114023
 21
69.175143604
  0
LINE
  5
282
100
AcDbEntity
  8
SCRITTE
100
AcDbLine
 62
253
  6
CONTINUOUS
 10
187.2695674023
 20
69.175143604
 11
186.6856424023
 21
69.175143604
  0
LINE
  5
283
100
AcDbEntity
  8
SCRITTE
100
AcDbLine
 62
253
  6
CONTINUOUS
 10
185.3169574023
 20
69.175143604
 11
184.7329484023
 21
69.175143604
  0
LINE
  5
284
100
AcDbEntity
  8
SCRITTE
100
AcDbLine
 62
253
  6
CONTINUOUS
 10
183.6492974023
 20
69.175143604
 11
183.0144494023
 21
69.175143604
  0
LINE
  5
285
100
AcDbEntity
  8
SCRITTE
100
AcDbLine
 62
253
  6
CONTINUOUS
 10
185.5338324023
 20
69.175311604
 11
186.1182404023
 21
69.175311604
  0
LINE
  5
286
100
AcDbEntity
  8
RACCORDO
100
AcDbLine
 62
253
  6
CONTINUOUS
 10
199.7200709053
 20
71.9744754678
 11
177.3161638993
 21
71.9744754678
  0
LINE
  5
287
100
AcDbEntity
  8
ASSI
100
AcDbLine
 62
253
  6
CONTINUOUS
 10
199.7200709053
 20
71.9744754678
 11
177.3161638993
 21
71.9744754678
  0
LINE
  5
288
100
AcDbEntity
  8
RACCORDO
100
AcDbLine
 62
253
  6
CONTINUOUS
 10
199.7200630951
 20
72.5009200417
 11
177.3161436664
 21
72.5009200417
  0
LINE
  5
289
100
AcDbEntity
  8
ASSI
100
AcDbLine
 62
253
  6
CONTINUOUS
 10
199.7200630951
 20
72.5009200417
 11
177.3161436664
 21
72.5009200417
  0
LINE
  5
28A
100
AcDbEntity
  8
RACCORDO
100
AcDbLine
 62
7
  6
CONTINUOUS
 10
177.3686221247
 20
72.553241604
 11
199.6676126799
 21
72.553241604
  0
LINE
  5
28B
100
AcDbEntity
  8
ASSI
100
AcDbLine
 62
7
  6
CONTINUOUS
 10
177.3686221247
 20
72.553241604
 11
199.6676126799
 21
72.553241604
  0
LINE
  5
28C
100
AcDbEntity
  8
RACCORDO
100
AcDbLine
 62
253
  6
CONTINUOUS
 10
200.5933743254
 20
72.653241604
 11
232.9522420239
 21
72.6533254753
  0
LINE
  5
28D
100
AcDbEntity
  8
ASSI
100
AcDbLine
 62
253
  6
CONTINUOUS
 10
200.5933743254
 20
72.653241604
 11
232.9522420239
 21
72.6533254753
  0
LINE
  5
28E
100
AcDbEntity
  8
RACCORDO
100
AcDbLine
 62
253
  6
CONTINUOUS
 10
233.5181174023
 20
72.7386193818
 11
233.4091765604
 21
72.7386193818
  0
LINE
  5
28F
100
AcDbEntity
  8
ASSI
100
AcDbLine
 62
253
  6
CONTINUOUS
 10
233.5181174023
 20
72.7386193818
 11
233.4091765604
 21
72.7386193818
  0
LINE
  5
290
100
AcDbEntity
  8
RACCORDO
100
AcDbLine
 62
253
  6
CONTINUOUS
 10
143.5181174023
 20
72.7386193818
 11
143.6270582442
 21
72.7386193818
  0
LINE
  5
291
100
AcDbEntity
  8
ASSI
100
AcDbLine
 62
253
  6
CONTINUOUS
 10
143.5181174023
 20
72.7386193818
 11
143.6270582442
 21
72.7386193818
  0
LINE
  5
292
100
AcDbEntity
  8
RACCORDO
100
AcDbLine
 62
253
  6
CONTINUOUS
 10
144.0839927798
 20
72.6533254744
 11
176.4428604793
 21
72.653241604
  0
LINE
  5
293
100
AcDbEntity
  8
ASSI
100
AcDbLine
 62
253
  6
CONTINUOUS
 10
144.0839927798
 20
72.6533254744
 11
176.4428604793
 21
72.653241604
  0
LWPOLYLINE
  5
294
100
AcDbEntity
  8
RACCORDO
100
AcDbPolyline
 62
253
  6
CONTINUOUS
 90
18
 70
0
 10
200.6212781337
 20
72.8754208054
 10
200.5373237709
 20
72.8757733231
 10
200.4960934174
 20
72.8762119898
 10
200.455753303
 20
72.876821849
 10
200.4165903006
 20
72.8775985637
 10
200.3788829126
 20
72.8785366104
 10
200.3428992896
 20
72.8796293183
 10
200.3088953241
 20
72.8808689168
 10
200.2771128306
 20
72.8822465907
 10
200.2477778258
 20
72.8837525429
 10
200.2210989214
 20
72.8853760639
 10
200.1972658407
 20
72.8871056083
 10
200.1764480693
 20
72.8889288767
 10
200.1587936499
 20
72.8908329033
 10
200.1444281294
 20
72.8928041477
 10
200.1334536662
 20
72.8948285918
 10
200.1259483035
 20
72.896891839
 10
200.1219654148
 20
72.8989792168
  0
LWPOLYLINE
  5
295
100
AcDbEntity
  8
ASSI
100
AcDbPolyline
 62
253
  6
CONTINUOUS
 90
18
 70
0
 10
200.6212781337
 20
72.8754208054
 10
200.5373237709
 20
72.8757733231
 10
200.4960934174
 20
72.8762119898
 10
200.455753303
 20
72.876821849
 10
200.4165903006
 20
72.8775985637
 10
200.3788829126
 20
72.8785366104
 10
200.3428992896
 20
72.8796293183
 10
200.3088953241
 20
72.8808689168
 10
200.2771128306
 20
72.8822465907
 10
200.2477778258
 20
72.8837525429
 10
200.2210989214
 20
72.8853760639
 10
200.1972658407
 20
72.8871056083
 10
200.1764480693
 20
72.8889288767
 10
200.1587936499
 20
72.8908329033
 10
200.1444281294
 20
72.8928041477
 10
200.1334536662
 20
72.8948285918
 10
200.1259483035
 20
72.896891839
 10
200.1219654148
 20
72.8989792168
  0
LWPOLYLINE
  5
296
100
AcDbEntity
  8
RACCORDO
100
AcDbPolyline
 62
253
  6
CONTINUOUS
 90
22
 70
0
 10
177.3161435973
 20
72.5009199732
 10
177.2908110471
 20
72.5016277165
 10
177.2655943049
 20
72.5039200892
 10
177.2405926531
 20
72.5077847176
 10
177.2159103088
 20
72.5132006827
 10
177.1916376177
 20
72.520144831
 10
177.1678518898
 20
72.5285960535
 10
177.1446369306
 20
72.5385262536
 10
177.1220953768
 20
72.5498931629
 10
177.1003295159
 20
72.5626471852
 10
177.0794375366
 20
72.5767268275
 10
177.0594867572
 20
72.5920825327
 10
177.0405308858
 20
72.6086778727
 10
177.0226316924
 20
72.6264682584
 10
177.0058823926
 20
72.6453708456
 10
176.9903769218
 20
72.665284874
 10
176.976165253
 20
72.6861461639
 10
176.9633146025
 20
72.7078550967
 10
176.9519160651
 20
72.7302387446
 10
176.9420090246
 20
72.7531703494
 10
176.933598509
 20
72.7765798688
 10
176.9266987248
 20
72.8003698308
  0
LWPOLYLINE
  5
297
100
AcDbEntity
  8
ASSI
100
AcDbPolyline
 62
253
  6
CONTINUOUS
 90
22
 70
0
 10
177.3161435973
 20
72.5009199732
 10
177.2908110471
 20
72.5016277165
 10
177.2655943049
 20
72.5039200892
 10
177.2405926531
 20
72.5077847176
 10
177.2159103088
 20
72.5132006827
 10
177.1916376177
 20
72.520144831
 10
177.1678518898
 20
72.5285960535
 10
177.1446369306
 20
72.5385262536
 10
177.1220953768
 20
72.5498931629
 10
177.1003295159
 20
72.5626471852
 10
177.0794375366
 20
72.5767268275
 10
177.0594867572
 20
72.5920825327
 10
177.0405308858
 20
72.6086778727
 10
177.0226316924
 20
72.6264682584
 10
177.0058823926
 20
72.6453708456
 10
176.9903769218
 20
72.665284874
 10
176.976165253
 20
72.6861461639
 10
176.9633146025
 20
72.7078550967
 10
176.9519160651
 20
72.7302387446
 10
176.9420090246
 20
72.7531703494
 10
176.933598509
 20
72.7765798688
 10
176.9266987248
 20
72.8003698308
  0
LWPOLYLINE
  5
298
100
AcDbEntity
  8
RACCORDO
100
AcDbPolyline
 62
253
  6
CONTINUOUS
 90
22
 70
0
 10
177.3161638993
 20
71.9744754678
 10
177.2589336335
 20
71.9763418019
 10
177.2024115915
 20
71.9817075108
 10
177.1465977734
 20
71.9905726124
 10
177.0912933793
 20
72.0029977246
 10
177.0366972091
 20
72.0189223022
 10
176.9834056623
 20
72.0381646342
 10
176.931409712
 20
72.0607707407
 10
176.8807183852
 20
72.0866947355
 10
176.8319551624
 20
72.1156170526
 10
176.7851683037
 20
72.1475497707
 10
176.740309549
 20
72.1824809838
 10
176.6978575986
 20
72.2200551408
 10
176.6578025806
 20
72.2603413011
 10
176.620154367
 20
72.3032705972
 10
176.5854212732
 20
72.3482805617
 10
176.5536392701
 20
72.395467895
 10
176.5247723868
 20
72.4447360711
 10
176.4992210259
 20
72.4952327267
 10
176.4771186547
 20
72.5466737587
 10
176.4583318058
 20
72.5993433667
 10
176.4428604793
 20
72.653241604
  0
LWPOLYLINE
  5
299
100
AcDbEntity
  8
ASSI
100
AcDbPolyline
 62
253
  6
CONTINUOUS
 90
22
 70
0
 10
177.3161638993
 20
71.9744754678
 10
177.2589336335
 20
71.9763418019
 10
177.2024115915
 20
71.9817075108
 10
177.1465977734
 20
71.9905726124
 10
177.0912933793
 20
72.0029977246
 10
177.0366972091
 20
72.0189223022
 10
176.9834056623
 20
72.0381646342
 10
176.931409712
 20
72.0607707407
 10
176.8807183852
 20
72.0866947355
 10
176.8319551624
 20
72.1156170526
 10
176.7851683037
 20
72.1475497707
 10
176.740309549
 20
72.1824809838
 10
176.6978575986
 20
72.2200551408
 10
176.6578025806
 20
72.2603413011
 10
176.620154367
 20
72.3032705972
 10
176.5854212732
 20
72.3482805617
 10
176.5536392701
 20
72.395467895
 10
176.5247723868
 20
72.4447360711
 10
176.4992210259
 20
72.4952327267
 10
176.4771186547
 20
72.5466737587
 10
176.4583318058
 20
72.5993433667
 10
176.4428604793
 20
72.653241604
  0
LWPOLYLINE
  5
29A
100
AcDbEntity
  8
SCRITTE
100
AcDbPolyline
 62
253
  6
CONTINUOUS
 90
24
 70
0
 10
192.8586258848
 20
68.7146699292
 10
192.8371244426
 20
68.717006528
 10
192.8155983383
 20
68.7190290687
 10
192.7940510206
 20
68.7207382797
 10
192.772485938
 20
68.7221348892
 10
192.7509065391
 20
68.7232196255
 10
192.7293162725
 20
68.7239932168
 10
192.7077185867
 20
68.7244563913
 10
192.6888158156
 20
68.7246075248
 10
192.6699037885
 20
68.7245215732
 10
192.6509762895
 20
68.7241985566
 10
192.6320271026
 20
68.7236384952
 10
192.6130491682
 20
68.7228403693
 10
192.5940320527
 20
68.7217990009
 10
192.574964479
 20
68.7205081723
 10
192.5558351699
 20
68.7189616658
 10
192.5366364598
 20
68.7171560575
 10
192.5173751289
 20
68.7150990981
 10
192.4980615691
 20
68.7128013321
 10
192.4787061721
 20
68.7102733041
 10
192.4593152769
 20
68.7075273922
 10
192.4398790101
 20
68.7045833084
 10
192.4203834454
 20
68.7014625985
 10
192.4008146564
 20
68.6981868081
  0
LWPOLYLINE
  5
29B
100
AcDbEntity
  8
SCRITTE
100
AcDbPolyline
 62
253
  6
CONTINUOUS
 90
86
 70
0
 10
193.2803658321
 20
69.1129577306
 10
193.2958989796
 20
69.1070248974
 10
193.3116438389
 20
69.1003431336
 10
193.327625869
 20
69.0928820087
 10
193.343870529
 20
69.0846110919
 10
193.3604032778
 20
69.0754999527
 10
193.3772495746
 20
69.0655181604
 10
193.3944141403
 20
69.0546449894
 10
193.4118187433
 20
69.0428985348
 10
193.4293644141
 20
69.0303065966
 10
193.446952183
 20
69.0168969749
 10
193.4644830804
 20
69.0026974698
 10
193.4818581367
 20
68.9877358814
 10
193.4989871194
 20
68.972036884
 10
193.5158147451
 20
68.9556126491
 10
193.5322944677
 20
68.9384722226
 10
193.5483797408
 20
68.9206246502
 10
193.5640240183
 20
68.9020789776
 10
193.579180754
 20
68.8828442507
 10
193.593802767
 20
68.8629416479
 10
193.6078403377
 20
68.8424408776
 10
193.6212431116
 20
68.821423781
 10
193.6339607346
 20
68.7999721992
 10
193.6459428522
 20
68.7781679733
 10
193.6571391102
 20
68.7560929444
 10
193.6675102457
 20
68.7338219102
 10
193.6770613615
 20
68.7114014938
 10
193.6858086522
 20
68.688871275
 10
193.6937683121
 20
68.6662708335
 10
193.7009565356
 20
68.643639749
 10
193.7073895171
 20
68.6210176012
 10
193.7141403044
 20
68.5939420679
 10
193.7198868111
 20
68.5670259074
 10
193.724688985
 20
68.5403586289
 10
193.728606774
 20
68.5140297415
 10
193.7317001262
 20
68.4881287543
 10
193.7340266274
 20
68.4627335826
 10
193.7356344163
 20
68.4378757664
 10
193.7365692696
 20
68.4135752518
 10
193.7368769638
 20
68.3898519848
 10
193.7366032758
 20
68.3667259117
 10
193.7357910164
 20
68.344211062
 10
193.7344711338
 20
68.3222977992
 10
193.7326716103
 20
68.3009705705
 10
193.7304204283
 20
68.2802138227
 10
193.7277455703
 20
68.2600120031
 10
193.723845854
 20
68.235514151
 10
193.7193646479
 20
68.2118151886
 10
193.7143387333
 20
68.1888712321
 10
193.7088048918
 20
68.1666383975
 10
193.7028000494
 20
68.1450795638
 10
193.6963617102
 20
68.1241846614
 10
193.6895275228
 20
68.1039503837
 10
193.6823351359
 20
68.084373424
 10
193.6748216352
 20
68.0654502477
 10
193.6670218556
 20
68.0471764095
 10
193.658970069
 20
68.0295472362
 10
193.6507005476
 20
68.0125580547
 10
193.6393884758
 20
67.9908872934
 10
193.6277920036
 20
67.9702990013
 10
193.615952887
 20
67.9507461926
 10
193.6039120989
 20
67.9321863527
 10
193.5917074815
 20
67.9145948525
 10
193.5793760941
 20
67.8979515344
 10
193.566955735
 20
67.882228959
 10
193.5544871583
 20
67.8673705586
 10
193.5420118571
 20
67.8533124837
 10
193.5295722846
 20
67.8399928418
 10
193.5172147348
 20
67.8273575674
 10
193.5049864618
 20
67.815354552
 10
193.4929303703
 20
67.8039330186
 10
193.4810719689
 20
67.7930475161
 10
193.4694324167
 20
67.7826539248
 10
193.4524145279
 20
67.7678903236
 10
193.4359416074
 20
67.7539985455
 10
193.4200607453
 20
67.7409057546
 10
193.4122830446
 20
67.7346809304
 10
193.4045009216
 20
67.7287029527
 10
193.396627512
 20
67.7230179883
 10
193.388683855
 20
67.7177359524
 10
193.3807125758
 20
67.7129721636
 10
193.3727347395
 20
67.7087998054
 10
193.3647578854
 20
67.7052748991
 10
193.3567570088
 20
67.7024269512
 10
193.3487077118
 20
67.7002797813
 10
193.3406205672
 20
67.698860976
  0
LWPOLYLINE
  5
29C
100
AcDbEntity
  8
SCRITTE
100
AcDbPolyline
 62
253
  6
CONTINUOUS
 90
41
 70
0
 10
193.3406205672
 20
67.6823171672
 10
193.3499138524
 20
67.6784372835
 10
193.3591534506
 20
67.6742263967
 10
193.36834464
 20
67.669676344
 10
193.3774926992
 20
67.6647789628
 10
193.3866023807
 20
67.6595254857
 10
193.3956763334
 20
67.6539047262
 10
193.4047166805
 20
67.6479048935
 10
193.4137255452
 20
67.6415141963
 10
193.4227014604
 20
67.6347241961
 10
193.4316285973
 20
67.6275398641
 10
193.4404875371
 20
67.6199695237
 10
193.4492588607
 20
67.6120214986
 10
193.4579243154
 20
67.6037055668
 10
193.4664703138
 20
67.5950373239
 10
193.4748844344
 20
67.5860338202
 10
193.4831542561
 20
67.5767121057
 10
193.4912706819
 20
67.5670855877
 10
193.4992379129
 20
67.5571531015
 10
193.5070634744
 20
67.5469098398
 10
193.5147548917
 20
67.536350995
 10
193.5223178588
 20
67.5254740029
 10
193.5297507443
 20
67.5142852731
 10
193.5370500851
 20
67.5027934582
 10
193.5442124183
 20
67.4910072112
 10
193.5522267456
 20
67.4771866383
 10
193.5600584941
 20
67.4629988377
 10
193.5677085564
 20
67.4484498443
 10
193.5751778255
 20
67.4335456932
 10
193.582467194
 20
67.4182924196
 10
193.5895775548
 20
67.4026960584
 10
193.5965098008
 20
67.3867626448
 10
193.604373378
 20
67.3677566245
 10
193.6119964539
 20
67.3483150813
 10
193.6193797463
 20
67.3284530441
 10
193.6265239726
 20
67.3081855414
 10
193.6334298507
 20
67.2875276019
 10
193.6400980983
 20
67.2664942543
 10
193.6465402616
 20
67.245100014
 10
193.6528112024
 20
67.2233573445
 10
193.658976611
 20
67.2012781957
  0
LWPOLYLINE
  5
29D
100
AcDbEntity
  8
RACCORDO
100
AcDbPolyline
 62
253
  6
CONTINUOUS
 90
22
 70
0
 10
176.4428604793
 20
117.8532416041
 10
176.4586228155
 20
117.907822668
 10
176.4776303864
 20
117.9609659467
 10
176.499883192
 20
118.0126715038
 10
176.5255007657
 20
118.0631559851
 10
176.5543635741
 20
118.1122028631
 10
176.5861130166
 20
118.1591624703
 10
176.6207778684
 20
118.2039876976
 10
176.6583293543
 20
118.2467258267
 10
176.698322548
 20
118.2868688216
 10
176.7407860542
 20
118.3243846533
 10
176.7856912681
 20
118.3593055377
 10
176.8325074495
 20
118.3912198312
 10
176.8812666204
 20
118.4200939477
 10
176.9319367588
 20
118.4459616466
 10
176.9838910585
 20
118.4685123117
 10
177.0371119445
 20
118.4876992216
 10
177.0916169919
 20
118.503569231
 10
177.1468321192
 20
118.5159520825
 10
177.2025659659
 20
118.5247910484
 10
177.2590098927
 20
118.5301429283
 10
177.3161638993
 20
118.5320077403
  0
LWPOLYLINE
  5
29E
100
AcDbEntity
  8
ASSI
100
AcDbPolyline
 62
253
  6
CONTINUOUS
 90
22
 70
0
 10
176.4428604793
 20
117.8532416041
 10
176.4586228155
 20
117.907822668
 10
176.4776303864
 20
117.9609659467
 10
176.499883192
 20
118.0126715038
 10
176.5255007657
 20
118.0631559851
 10
176.5543635741
 20
118.1122028631
 10
176.5861130166
 20
118.1591624703
 10
176.6207778684
 20
118.2039876976
 10
176.6583293543
 20
118.2467258267
 10
176.698322548
 20
118.2868688216
 10
176.7407860542
 20
118.3243846533
 10
176.7856912681
 20
118.3593055377
 10
176.8325074495
 20
118.3912198312
 10
176.8812666204
 20
118.4200939477
 10
176.9319367588
 20
118.4459616466
 10
176.9838910585
 20
118.4685123117
 10
177.0371119445
 20
118.4876992216
 10
177.0916169919
 20
118.503569231
 10
177.1468321192
 20
118.5159520825
 10
177.2025659659
 20
118.5247910484
 10
177.2590098927
 20
118.5301429283
 10
177.3161638993
 20
118.5320077403
  0
LWPOLYLINE
  5
29F
100
AcDbEntity
  8
RACCORDO
100
AcDbPolyline
 62
253
  6
CONTINUOUS
 90
15
 70
0
 10
176.6033588682
 20
72.695562602
 10
176.6413295909
 20
72.7060251114
 10
176.6778869039
 20
72.7162905567
 10
176.7127704513
 20
72.7262858289
 10
176.7457317975
 20
72.7359397432
 10
176.7765361964
 20
72.7451835457
 10
176.8049642635
 20
72.7539514034
 10
176.8308135381
 20
72.762180873
 10
176.8538999253
 20
72.7698133452
 10
176.8740590071
 20
72.7767944628
 10
176.8911472135
 20
72.7830745073
 10
176.9050428446
 20
72.7886087531
 10
176.9156469378
 20
72.793357786
 10
176.9228839721
 20
72.7972877843
 10
176.9267024064
 20
72.800370759
  0
LWPOLYLINE
  5
2A0
100
AcDbEntity
  8
ASSI
100
AcDbPolyline
 62
253
  6
CONTINUOUS
 90
15
 70
0
 10
176.6033588682
 20
72.695562602
 10
176.6413295909
 20
72.7060251114
 10
176.6778869039
 20
72.7162905567
 10
176.7127704513
 20
72.7262858289
 10
176.7457317975
 20
72.7359397432
 10
176.7765361964
 20
72.7451835457
 10
176.8049642635
 20
72.7539514034
 10
176.8308135381
 20
72.762180873
 10
176.8538999253
 20
72.7698133452
 10
176.8740590071
 20
72.7767944628
 10
176.8911472135
 20
72.7830745073
 10
176.9050428446
 20
72.7886087531
 10
176.9156469378
 20
72.793357786
 10
176.9228839721
 20
72.7972877843
 10
176.9267024064
 20
72.800370759
  0
LINE
  5
2A1
100
AcDbEntity
  8
RACCORDO
100
AcDbLine
 62
253
  6
CONTINUOUS
 10
176.5242670228
 20
72.6743453139
 11
176.6033588682
 21
72.695562602
  0
LINE
  5
2A2
100
AcDbEntity
  8
ASSI
100
AcDbLine
 62
253
  6
CONTINUOUS
 10
176.5242670228
 20
72.6743453139
 11
176.6033588682
 21
72.695562602
  0
LINE
  5
2A3
100
AcDbEntity
  8
RACCORDO
100
AcDbLine
 62
253
  6
CONTINUOUS
 10
176.4428604796
 20
72.6532420422
 11
176.5242670228
 21
72.6743453139
  0
LINE
  5
2A4
100
AcDbEntity
  8
ASSI
100
AcDbLine
 62
253
  6
CONTINUOUS
 10
176.4428604796
 20
72.6532420422
 11
176.5242670228
 21
72.6743453139
  0
LINE
  5
2A5
100
AcDbEntity
  8
RACCORDO
100
AcDbLine
 62
253
  6
CONTINUOUS
 10
200.5933743253
 20
72.6532421221
 11
200.5119677454
 21
72.6743453931
  0
LINE
  5
2A6
100
AcDbEntity
  8
ASSI
100
AcDbLine
 62
253
  6
CONTINUOUS
 10
200.5933743253
 20
72.6532421221
 11
200.5119677454
 21
72.6743453931
  0
LWPOLYLINE
  5
2A7
100
AcDbEntity
  8
RACCORDO
100
AcDbPolyline
 62
253
  6
CONTINUOUS
 90
16
 70
0
 10
200.5119677454
 20
72.6743453931
 10
200.4328758238
 20
72.6955626901
 10
200.3949050521
 20
72.7060252068
 10
200.3583476845
 20
72.7162906608
 10
200.3234640789
 20
72.7262859428
 10
200.2905026721
 20
72.7359398676
 10
200.2596982119
 20
72.745183681
 10
200.2312700842
 20
72.7539515496
 10
200.2054207509
 20
72.7621810297
 10
200.1823343082
 20
72.7698135118
 10
200.1621751751
 20
72.7767946384
 10
200.1450869228
 20
72.7830746906
 10
200.1311912519
 20
72.7886089427
 10
200.1205871259
 20
72.7933579804
 10
200.1133500662
 20
72.7972879815
 10
200.1095316144
 20
72.8003709572
  0
LWPOLYLINE
  5
2A8
100
AcDbEntity
  8
ASSI
100
AcDbPolyline
 62
253
  6
CONTINUOUS
 90
16
 70
0
 10
200.5119677454
 20
72.6743453931
 10
200.4328758238
 20
72.6955626901
 10
200.3949050521
 20
72.7060252068
 10
200.3583476845
 20
72.7162906608
 10
200.3234640789
 20
72.7262859428
 10
200.2905026721
 20
72.7359398676
 10
200.2596982119
 20
72.745183681
 10
200.2312700842
 20
72.7539515496
 10
200.2054207509
 20
72.7621810297
 10
200.1823343082
 20
72.7698135118
 10
200.1621751751
 20
72.7767946384
 10
200.1450869228
 20
72.7830746906
 10
200.1311912519
 20
72.7886089427
 10
200.1205871259
 20
72.7933579804
 10
200.1133500662
 20
72.7972879815
 10
200.1095316144
 20
72.8003709572
  0
LWPOLYLINE
  5
2A9
100
AcDbEntity
  8
RACCORDO
100
AcDbPolyline
 62
253
  6
CONTINUOUS
 90
7
 70
0
 10
176.4428604793
 20
72.653241604
 10
176.4343878442
 20
72.6894776582
 10
176.4274440092
 20
72.7260312353
 10
176.4220289744
 20
72.7629023387
 10
176.4181427398
 20
72.8000909721
 10
176.4157853053
 20
72.8375971394
 10
176.4149566709
 20
72.8754208441
  0
LWPOLYLINE
  5
2AA
100
AcDbEntity
  8
ASSI
100
AcDbPolyline
 62
253
  6
CONTINUOUS
 90
7
 70
0
 10
176.4428604793
 20
72.653241604
 10
176.4343878442
 20
72.6894776582
 10
176.4274440092
 20
72.7260312353
 10
176.4220289744
 20
72.7629023387
 10
176.4181427398
 20
72.8000909721
 10
176.4157853053
 20
72.8375971394
 10
176.4149566709
 20
72.8754208441
  0
LWPOLYLINE
  5
2AB
100
AcDbEntity
  8
RACCORDO
100
AcDbPolyline
 62
7
  6
CONTINUOUS
 90
22
 70
0
 10
176.9681173945
 20
72.9526840698
 10
176.9692834382
 20
72.922678104
 10
176.9726025013
 20
72.893171264
 10
176.9780745839
 20
72.864163545
 10
176.9857381628
 20
72.8355235471
 10
176.9955547611
 20
72.8073826616
 10
177.0074089479
 20
72.7801350672
 10
177.0213341113
 20
72.7537642236
 10
177.0372968631
 20
72.7282866552
 10
177.0550816081
 20
72.7041461316
 10
177.0747704487
 20
72.6813337668
 10
177.0962812824
 20
72.6598584258
 10
177.1191522064
 20
72.6401904978
 10
177.1433885555
 20
72.6224079463
 10
177.1689849949
 20
72.6064327848
 10
177.1954636174
 20
72.5925014743
 10
177.2227867224
 20
72.5806582133
 10
177.2509920104
 20
72.5708587855
 10
177.2797146753
 20
72.5632070307
 10
177.3088331149
 20
72.5577375591
 10
177.3384689314
 20
72.554415751
 10
177.3686221247
 20
72.553241604
  0
LWPOLYLINE
  5
2AC
100
AcDbEntity
  8
ASSI
100
AcDbPolyline
 62
7
  6
CONTINUOUS
 90
22
 70
0
 10
176.9681173945
 20
72.9526840698
 10
176.9692834382
 20
72.922678104
 10
176.9726025013
 20
72.893171264
 10
176.9780745839
 20
72.864163545
 10
176.9857381628
 20
72.8355235471
 10
176.9955547611
 20
72.8073826616
 10
177.0074089479
 20
72.7801350672
 10
177.0213341113
 20
72.7537642236
 10
177.0372968631
 20
72.7282866552
 10
177.0550816081
 20
72.7041461316
 10
177.0747704487
 20
72.6813337668
 10
177.0962812824
 20
72.6598584258
 10
177.1191522064
 20
72.6401904978
 10
177.1433885555
 20
72.6224079463
 10
177.1689849949
 20
72.6064327848
 10
177.1954636174
 20
72.5925014743
 10
177.2227867224
 20
72.5806582133
 10
177.2509920104
 20
72.5708587855
 10
177.2797146753
 20
72.5632070307
 10
177.3088331149
 20
72.5577375591
 10
177.3384689314
 20
72.554415751
 10
177.3686221247
 20
72.553241604
  0
LINE
  5
2AD
100
AcDbEntity
  8
RACCORDO
100
AcDbLine
 62
253
  6
CONTINUOUS
 10
176.4149566709
 20
72.8754208441
 11
176.4149566709
 21
117.631062364
  0
LINE
  5
2AE
100
AcDbEntity
  8
ASSI
100
AcDbLine
 62
253
  6
CONTINUOUS
 10
176.4149566709
 20
72.8754208441
 11
176.4149566709
 21
117.631062364
  0
LINE
  5
2AF
100
AcDbEntity
  8
RACCORDO
100
AcDbLine
 62
253
  6
CONTINUOUS
 10
176.9142697357
 20
72.8989798019
 11
176.91426973
 21
117.6075121088
  0
LINE
  5
2B0
100
AcDbEntity
  8
ASSI
100
AcDbLine
 62
253
  6
CONTINUOUS
 10
176.9142697357
 20
72.8989798019
 11
176.91426973
 21
117.6075121088
  0
LINE
  5
2B1
100
AcDbEntity
  8
RACCORDO
100
AcDbLine
 62
7
  6
CONTINUOUS
 10
176.9681173945
 20
117.5537991383
 11
176.9681173945
 21
72.9526840698
  0
LINE
  5
2B2
100
AcDbEntity
  8
ASSI
100
AcDbLine
 62
7
  6
CONTINUOUS
 10
176.9681173945
 20
117.5537991383
 11
176.9681173945
 21
72.9526840698
  0
LINE
  5
2B3
100
AcDbEntity
  8
RACCORDO
100
AcDbLine
 62
253
  6
CONTINUOUS
 10
177.3161638993
 20
118.5320077403
 11
177.3161638993
 21
118.0055631664
  0
LINE
  5
2B4
100
AcDbEntity
  8
ASSI
100
AcDbLine
 62
253
  6
CONTINUOUS
 10
177.3161638993
 20
118.5320077403
 11
177.3161638993
 21
118.0055631664
  0
LINE
  5
2B5
100
AcDbEntity
  8
RACCORDO
100
AcDbLine
 62
253
  6
CONTINUOUS
 10
177.3161638993
 20
71.9744754678
 11
177.3161638993
 21
72.5009200417
  0
LINE
  5
2B6
100
AcDbEntity
  8
ASSI
100
AcDbLine
 62
253
  6
CONTINUOUS
 10
177.3161638993
 20
71.9744754678
 11
177.3161638993
 21
72.5009200417
  0
LWPOLYLINE
  5
2B7
100
AcDbEntity
  8
RACCORDO
100
AcDbPolyline
 62
253
  6
CONTINUOUS
 90
7
 70
0
 10
176.9142697372
 20
117.6075121017
 10
176.9146140635
 20
117.6241068734
 10
176.9156520196
 20
117.6406752911
 10
176.9173824278
 20
117.657188704
 10
176.9198029189
 20
117.6736185061
 10
176.9229099332
 20
117.6899361862
 10
176.9266987248
 20
117.7061133772
  0
LWPOLYLINE
  5
2B8
100
AcDbEntity
  8
ASSI
100
AcDbPolyline
 62
253
  6
CONTINUOUS
 90
7
 70
0
 10
176.9142697372
 20
117.6075121017
 10
176.9146140635
 20
117.6241068734
 10
176.9156520196
 20
117.6406752911
 10
176.9173824278
 20
117.657188704
 10
176.9198029189
 20
117.6736185061
 10
176.9229099332
 20
117.6899361862
 10
176.9266987248
 20
117.7061133772
  0
LWPOLYLINE
  5
2B9
100
AcDbEntity
  8
RACCORDO
100
AcDbPolyline
 62
253
  6
CONTINUOUS
 90
7
 70
0
 10
176.4149566709
 20
117.631062364
 10
176.4157628348
 20
117.6687105102
 10
176.418106787
 20
117.7061113436
 10
176.4219885275
 20
117.7432648668
 10
176.4274080564
 20
117.7801710828
 10
176.4343653737
 20
117.8168299943
 10
176.4428604793
 20
117.8532416041
  0
LWPOLYLINE
  5
2BA
100
AcDbEntity
  8
ASSI
100
AcDbPolyline
 62
253
  6
CONTINUOUS
 90
7
 70
0
 10
176.4149566709
 20
117.631062364
 10
176.4157628348
 20
117.6687105102
 10
176.418106787
 20
117.7061113436
 10
176.4219885275
 20
117.7432648668
 10
176.4274080564
 20
117.7801710828
 10
176.4343653737
 20
117.8168299943
 10
176.4428604793
 20
117.8532416041
  0
LWPOLYLINE
  5
2BB
100
AcDbEntity
  8
RACCORDO
100
AcDbPolyline
 62
253
  6
CONTINUOUS
 90
22
 70
0
 10
176.9266987248
 20
117.7061133772
 10
176.9337098935
 20
117.7302454759
 10
176.942235692
 20
117.7538846197
 10
176.9522423683
 20
117.7769370762
 10
176.9636906845
 20
117.7993109443
 10
176.9765350687
 20
117.8209179378
 10
176.990723852
 20
117.8416737026
 10
177.006201969
 20
117.8614965887
 10
177.0229076627
 20
117.8803069613
 10
177.0407712566
 20
117.8980293531
 10
177.0597201615
 20
117.9145920831
 10
177.0796810083
 20
117.9299315801
 10
177.1005766645
 20
117.9439912177
 10
177.1223291947
 20
117.956717038
 10
177.1448492697
 20
117.9680554569
 10
177.1680372803
 20
117.9779593181
 10
177.1917881951
 20
117.9863863107
 10
177.2160208589
 20
117.993310183
 10
177.2406691789
 20
117.9987125783
 10
177.2656472109
 20
118.0025694543
 10
177.2908476755
 20
118.004857585
 10
177.3161716251
 20
118.0055631401
  0
LWPOLYLINE
  5
2BC
100
AcDbEntity
  8
ASSI
100
AcDbPolyline
 62
253
  6
CONTINUOUS
 90
22
 70
0
 10
176.9266987248
 20
117.7061133772
 10
176.9337098935
 20
117.7302454759
 10
176.942235692
 20
117.7538846197
 10
176.9522423683
 20
117.7769370762
 10
176.9636906845
 20
117.7993109443
 10
176.9765350687
 20
117.8209179378
 10
176.990723852
 20
117.8416737026
 10
177.006201969
 20
117.8614965887
 10
177.0229076627
 20
117.8803069613
 10
177.0407712566
 20
117.8980293531
 10
177.0597201615
 20
117.9145920831
 10
177.0796810083
 20
117.9299315801
 10
177.1005766645
 20
117.9439912177
 10
177.1223291947
 20
117.956717038
 10
177.1448492697
 20
117.9680554569
 10
177.1680372803
 20
117.9779593181
 10
177.1917881951
 20
117.9863863107
 10
177.2160208589
 20
117.993310183
 10
177.2406691789
 20
117.9987125783
 10
177.2656472109
 20
118.0025694543
 10
177.2908476755
 20
118.004857585
 10
177.3161716251
 20
118.0055631401
  0
LINE
  5
2BD
100
AcDbEntity
  8
SCRITTE
100
AcDbLine
 62
253
  6
CONTINUOUS
 10
187.1180494023
 20
68.203594604
 11
187.8036304023
 21
66.375440604
  0
LINE
  5
2BE
100
AcDbEntity
  8
SCRITTE
100
AcDbLine
 62
253
  6
CONTINUOUS
 10
183.0144494023
 20
69.175143604
 11
183.9020104023
 21
66.375440604
  0
LINE
  5
2BF
100
AcDbEntity
  8
SCRITTE
100
AcDbLine
 62
253
  6
CONTINUOUS
 10
184.1829714023
 20
67.248021604
 11
183.6492974023
 21
69.175143604
  0
LWPOLYLINE
  5
2C0
100
AcDbEntity
  8
RACCORDO
100
AcDbPolyline
 62
253
  6
CONTINUOUS
 90
7
 70
0
 10
176.9266987248
 20
72.8003698308
 10
176.922923006
 20
72.816485221
 10
176.9198196145
 20
72.8327656219
 10
176.9173964267
 20
72.8491834483
 10
176.9156601866
 20
72.8657107076
 10
176.9146164841
 20
72.8823190473
 10
176.9142697352
 20
72.8989798014
  0
LWPOLYLINE
  5
2C1
100
AcDbEntity
  8
ASSI
100
AcDbPolyline
 62
253
  6
CONTINUOUS
 90
7
 70
0
 10
176.9266987248
 20
72.8003698308
 10
176.922923006
 20
72.816485221
 10
176.9198196145
 20
72.8327656219
 10
176.9173964267
 20
72.8491834483
 10
176.9156601866
 20
72.8657107076
 10
176.9146164841
 20
72.8823190473
 10
176.9142697352
 20
72.8989798014
  0
LINE
  5
2C2
100
AcDbEntity
  8
RACCORDO
100
AcDbLine
 62
253
  6
CONTINUOUS
 10
199.6676126799
 20
117.953241604
 11
199.7200632179
 21
118.0055631664
  0
LINE
  5
2C3
100
AcDbEntity
  8
ASSI
100
AcDbLine
 62
253
  6
CONTINUOUS
 10
199.6676126799
 20
117.953241604
 11
199.7200632179
 21
118.0055631664
  0
LINE
  5
2C4
100
AcDbEntity
  8
RACCORDO
100
AcDbLine
 62
253
  6
CONTINUOUS
 10
200.0681174102
 20
117.5537991383
 11
200.1219650748
 21
117.6075122541
  0
LINE
  5
2C5
100
AcDbEntity
  8
ASSI
100
AcDbLine
 62
253
  6
CONTINUOUS
 10
200.0681174102
 20
117.5537991383
 11
200.1219650748
 21
117.6075122541
  0
LINE
  5
2C6
100
AcDbEntity
  8
RACCORDO
100
AcDbLine
 62
253
  6
CONTINUOUS
 10
199.7200630951
 20
72.5009200417
 11
199.6676126799
 21
72.553241604
  0
LINE
  5
2C7
100
AcDbEntity
  8
ASSI
100
AcDbLine
 62
253
  6
CONTINUOUS
 10
199.7200630951
 20
72.5009200417
 11
199.6676126799
 21
72.553241604
  0
LINE
  5
2C8
100
AcDbEntity
  8
RACCORDO
100
AcDbLine
 62
253
  6
CONTINUOUS
 10
200.1219650738
 20
72.8989724257
 11
200.0681174102
 21
72.9526840698
  0
LINE
  5
2C9
100
AcDbEntity
  8
ASSI
100
AcDbLine
 62
253
  6
CONTINUOUS
 10
200.1219650738
 20
72.8989724257
 11
200.0681174102
 21
72.9526840698
  0
LWPOLYLINE
  5
2CA
100
AcDbEntity
  8
SCRITTE
100
AcDbPolyline
 62
253
  6
CONTINUOUS
 90
47
 70
0
 10
193.0594975186
 20
67.2246371137
 10
193.0555647813
 20
67.2347334014
 10
193.0514550135
 20
67.2445884018
 10
193.0471773107
 20
67.254204569
 10
193.0427407685
 20
67.263584357
 10
193.0381544824
 20
67.27273022
 10
193.0334275476
 20
67.2816446122
 10
193.0285690599
 20
67.2903299875
 10
193.0235881145
 20
67.2987888002
 10
193.018493807
 20
67.3070235043
 10
193.0132952329
 20
67.3150365539
 10
193.0074058048
 20
67.3236831519
 10
193.0013993028
 20
67.3320636371
 10
192.9952761484
 20
67.3401825144
 10
192.9890367628
 20
67.3480442887
 10
192.9826815675
 20
67.355653465
 10
192.9762109838
 20
67.3630145481
 10
192.9696254332
 20
67.3701320429
 10
192.9629253371
 20
67.3770104544
 10
192.9561111168
 20
67.3836542875
 10
192.9491834083
 20
67.390066691
 10
192.9421437064
 20
67.3962453891
 10
192.9349937202
 20
67.4021867503
 10
192.9277351591
 20
67.4078871426
 10
192.9203697323
 20
67.4133429344
 10
192.9128991492
 20
67.4185504939
 10
192.9053251189
 20
67.4235061892
 10
192.8976493508
 20
67.4282063888
 10
192.8898735541
 20
67.4326474607
 10
192.8819992453
 20
67.4368271213
 10
192.8740271693
 20
67.4407484788
 10
192.8659578782
 20
67.4444159896
 10
192.857791924
 20
67.4478341099
 10
192.8495298588
 20
67.4510072961
 10
192.8411722347
 20
67.4539400046
 10
192.8327196037
 20
67.4566366915
 10
192.8241725179
 20
67.4591018132
 10
192.8155315295
 20
67.461339826
 10
192.8067970673
 20
67.4633539412
 10
192.797969068
 20
67.4651423897
 10
192.7890473449
 20
67.4667021575
 10
192.7800317117
 20
67.4680302304
 10
192.7709219818
 20
67.4691235944
 10
192.7617179686
 20
67.4699792354
 10
192.7524194857
 20
67.4705941393
 10
192.7430263466
 20
67.4709652919
 10
192.7335383646
 20
67.4710896793
  0
LINE
  5
2CB
100
AcDbEntity
  8
SCRITTE
100
AcDbLine
 62
253
  6
CONTINUOUS
 10
187.8478034023
 20
67.620739604
 11
187.2695674023
 21
69.175143604
  0
LINE
  5
2CC
100
AcDbEntity
  8
SCRITTE
100
AcDbLine
 62
253
  6
CONTINUOUS
 10
191.6665254023
 20
66.375440604
 11
190.8075074023
 21
69.175143604
  0
LINE
  5
2CD
100
AcDbEntity
  8
SCRITTE
100
AcDbLine
 62
253
  6
CONTINUOUS
 10
190.8991914023
 20
66.934360604
 11
191.0505834023
 21
66.375440604
  0
LINE
  5
2CE
100
AcDbEntity
  8
SCRITTE
100
AcDbLine
 62
253
  6
CONTINUOUS
 10
190.5138544023
 20
68.405856604
 11
190.7823974023
 21
67.366850604
  0
LINE
  5
2CF
100
AcDbEntity
  8
SCRITTE
100
AcDbLine
 62
253
  6
CONTINUOUS
 10
189.2722294023
 20
66.375440604
 11
189.0104254023
 21
69.175143604
  0
LINE
  5
2D0
100
AcDbEntity
  8
SCRITTE
100
AcDbLine
 62
253
  6
CONTINUOUS
 10
188.5804544023
 20
68.195972604
 11
188.7005234023
 21
66.375440604
  0
LINE
  5
2D1
100
AcDbEntity
  8
SCRITTE
100
AcDbLine
 62
253
  6
CONTINUOUS
 10
185.5338324023
 20
66.375440604
 11
185.5338324023
 21
69.1753116784
  0
LINE
  5
2D2
100
AcDbEntity
  8
SCRITTE
100
AcDbLine
 62
253
  6
CONTINUOUS
 10
186.1182404023
 20
69.175311604
 11
186.1182404023
 21
66.3754405298
  0
LWPOLYLINE
  5
2D3
100
AcDbEntity
  8
0
100
AcDbPolyline
 62
7
  6
CONTINUOUS
 90
13
 70
0
 43
0.3500000006
 10
188.518121521
 20
158.5079289551
 10
188.518121521
 20
159.7936358643
 10
188.7324060059
 20
160.222204834
 10
189.1609749756
 20
160.6507738037
 10
189.3752594604
 20
160.6507738037
 10
189.8038284302
 20
160.222204834
 10
190.018112915
 20
159.7936358643
 10
190.018112915
 20
158.5079289551
 10
189.8038284302
 20
158.0793418579
 10
189.3752594604
 20
157.6507728882
 10
189.1609749756
 20
157.6507728882
 10
188.7324060059
 20
158.0793418579
 10
188.518121521
 20
158.5079289551
  0
LINE
  5
2D4
100
AcDbEntity
  8
SCRITTE
100
AcDbLine
 62
253
  6
CONTINUOUS
 10
186.9919344023
 20
66.375440604
 11
187.1180494023
 21
68.203594604
  0
LINE
  5
2D5
100
AcDbEntity
  8
SCRITTE
100
AcDbLine
 62
253
  6
CONTINUOUS
 10
186.6856424023
 20
69.175143604
 11
186.4328454023
 21
66.375440604
  0
LINE
  5
2D6
100
AcDbEntity
  8
RACCORDO
100
AcDbLine
 62
253
  6
CONTINUOUS
 10
143.6287705755
 20
51.1628845887
 11
143.5181201242
 21
51.0503813874
  0
LINE
  5
2D7
100
AcDbEntity
  8
ASSI
100
AcDbLine
 62
253
  6
CONTINUOUS
 10
143.6287705755
 20
51.1628845887
 11
143.5181201242
 21
51.0503813874
  0
LWPOLYLINE
  5
2D8
100
AcDbEntity
  8
0
100
AcDbPolyline
 62
7
  6
CONTINUOUS
 90
13
 70
0
 43
0.3500000006
 10
249.9249924316
 20
95.2532373047
 10
248.639267395
 20
95.2532373047
 10
248.2106984253
 20
95.4675308533
 10
247.7821294556
 20
95.896099823
 10
247.7821294556
 20
96.1103843079
 10
248.2106984253
 20
96.5389532776
 10
248.639267395
 20
96.7532377625
 10
249.9249924316
 20
96.7532377625
 10
250.3535614014
 20
96.5389532776
 10
250.7821303711
 20
96.1103843079
 10
250.7821303711
 20
95.896099823
 10
250.3535614014
 20
95.4675308533
 10
249.9249924316
 20
95.2532373047
  0
LINE
  5
2D9
100
AcDbEntity
  8
RACCORDO
100
AcDbLine
 62
253
  6
CONTINUOUS
 10
232.6153022226
 20
50.3739069768
 11
232.733880193
 21
50.2533969101
  0
LINE
  5
2DA
100
AcDbEntity
  8
ASSI
100
AcDbLine
 62
253
  6
CONTINUOUS
 10
232.6153022226
 20
50.3739069768
 11
232.733880193
 21
50.2533969101
  0
LINE
  5
2DB
100
AcDbEntity
  8
RACCORDO
100
AcDbLine
 62
253
  6
CONTINUOUS
 10
144.420932582
 20
140.1325762312
 11
144.3023546116
 21
140.253086298
  0
LINE
  5
2DC
100
AcDbEntity
  8
ASSI
100
AcDbLine
 62
253
  6
CONTINUOUS
 10
144.420932582
 20
140.1325762312
 11
144.3023546116
 21
140.253086298
  0
LINE
  5
2DD
100
AcDbEntity
  8
RACCORDO
100
AcDbLine
 62
253
  6
CONTINUOUS
 10
143.6287705755
 20
139.3435986194
 11
143.5181201242
 21
139.4561018207
  0
LINE
  5
2DE
100
AcDbEntity
  8
ASSI
100
AcDbLine
 62
253
  6
CONTINUOUS
 10
143.6287705755
 20
139.3435986194
 11
143.5181201242
 21
139.4561018207
  0
LINE
  5
2DF
100
AcDbEntity
  8
RACCORDO
100
AcDbLine
 62
253
  6
CONTINUOUS
 10
233.4074642291
 20
51.1628845886
 11
233.5181146804
 21
51.0503813874
  0
LINE
  5
2E0
100
AcDbEntity
  8
ASSI
100
AcDbLine
 62
253
  6
CONTINUOUS
 10
233.4074642291
 20
51.1628845886
 11
233.5181146804
 21
51.0503813874
  0
LWPOLYLINE
  5
2E1
100
AcDbEntity
  8
SCRITTE
100
AcDbPolyline
 62
253
  6
CONTINUOUS
 90
8
 70
0
 10
193.1456480372
 20
66.9614535486
 10
193.1340697116
 20
67.0004714003
 10
193.1223221549
 20
67.0390394327
 10
193.1103623878
 20
67.0771401409
 10
193.0981474311
 20
67.1147560203
 10
193.0856343055
 20
67.1518695664
 10
193.0727800319
 20
67.1884632743
 10
193.059541631
 20
67.2245196395
  0
LINE
  5
2E2
100
AcDbEntity
  8
SCRITTE
100
AcDbLine
 62
253
  6
CONTINUOUS
 10
193.3002151327
 20
66.4270415471
 11
193.226982892
 21
66.6772613631
  0
LINE
  5
2E3
100
AcDbEntity
  8
SCRITTE
100
AcDbLine
 62
253
  6
CONTINUOUS
 10
193.3151330242
 20
66.3754402497
 11
193.3002151327
 21
66.4270415471
  0
LWPOLYLINE
  5
2E4
100
AcDbEntity
  8
SCRITTE
100
AcDbPolyline
 62
253
  6
CONTINUOUS
 90
4
 70
0
 10
193.226982892
 20
66.6772613631
 10
193.185681764
 20
66.8216198461
 10
193.1723131453
 20
66.8687663721
 10
193.1456480372
 20
66.9614535486
  0
LINE
  5
2E5
100
AcDbEntity
  8
SCRITTE
100
AcDbLine
 62
253
  6
CONTINUOUS
 10
193.658976611
 20
67.2012781957
 11
193.7125974812
 21
67.0027595914
  0
LINE
  5
2E6
100
AcDbEntity
  8
SCRITTE
100
AcDbLine
 62
253
  6
CONTINUOUS
 10
193.844757018
 20
66.4974520411
 11
193.8772656142
 21
66.3754402497
  0
LINE
  5
2E7
100
AcDbEntity
  8
SCRITTE
100
AcDbLine
 62
253
  6
CONTINUOUS
 10
193.7125974812
 20
67.0027595914
 11
193.7798764474
 21
66.7468006085
  0
LINE
  5
2E8
100
AcDbEntity
  8
SCRITTE
100
AcDbLine
 62
253
  6
CONTINUOUS
 10
193.7798764474
 20
66.7468006085
 11
193.844757018
 21
66.4974520411
  0
LWPOLYLINE
  5
2E9
100
AcDbEntity
  8
SCRITTE
100
AcDbPolyline
 62
253
  6
CONTINUOUS
 90
49
 70
0
 10
193.1887707004
 20
68.3643790327
 10
193.1884550773
 20
68.3748783077
 10
193.1878200317
 20
68.3853197728
 10
193.1868686881
 20
68.3957072456
 10
193.185604171
 20
68.4060445438
 10
193.184029605
 20
68.4163354849
 10
193.1821481144
 20
68.4265838865
 10
193.1799628239
 20
68.4367935662
 10
193.1774768578
 20
68.4469683416
 10
193.1746928124
 20
68.4571095111
 10
193.1716111702
 20
68.4672082964
 10
193.1682318857
 20
68.4772534001
 10
193.1645549131
 20
68.4872335248
 10
193.1605802066
 20
68.497137373
 10
193.1563077206
 20
68.5069536474
 10
193.1517374094
 20
68.5166710505
 10
193.1468692274
 20
68.5262782848
 10
193.1417031099
 20
68.5357635515
 10
193.1362389176
 20
68.5451130455
 10
193.1304764922
 20
68.5543124605
 10
193.1244156754
 20
68.5633474899
 10
193.1180563091
 20
68.5722038273
 10
193.111398235
 20
68.5808671663
 10
193.1044412948
 20
68.5893232004
 10
193.0971853302
 20
68.597557623
 10
193.0896321371
 20
68.6055575999
 10
193.0817913271
 20
68.6133161849
 10
193.0736744657
 20
68.6208279039
 10
193.0652931186
 20
68.6280872827
 10
193.0566588514
 20
68.6350888474
 10
193.0477832296
 20
68.6418271238
 10
193.0386778189
 20
68.6482966378
 10
193.0293541849
 20
68.6544919154
 10
193.0198239059
 20
68.6604082277
 10
193.0100986111
 20
68.6660438271
 10
193.0001899425
 20
68.6713977115
 10
192.9901095418
 20
68.6764688785
 10
192.9798690512
 20
68.6812563259
 10
192.9694801124
 20
68.6857590514
 10
192.9589543673
 20
68.6899760527
 10
192.948303458
 20
68.6939063275
 10
192.9375363577
 20
68.6975484135
 10
192.9266513648
 20
68.7008990076
 10
192.9156441093
 20
68.7039543465
 10
192.9045102211
 20
68.7067106672
 10
192.89324533
 20
68.7091642064
 10
192.881845066
 20
68.711311201
 10
192.8703050588
 20
68.7131478877
 10
192.8586209385
 20
68.7146705034
  0
LINE
  5
2EA
100
AcDbEntity
  8
SCRITTE
100
AcDbLine
 62
253
  6
CONTINUOUS
 10
191.8381362046
 20
66.3754402497
 11
191.8381362046
 21
69.1424341396
  0
LINE
  5
2EB
100
AcDbEntity
  8
SCRITTE
100
AcDbLine
 62
253
  6
CONTINUOUS
 10
192.4008146564
 20
68.6981868081
 11
192.4008146564
 21
67.9296134897
  0
LINE
  5
2EC
100
AcDbEntity
  8
SCRITTE
100
AcDbLine
 62
253
  6
CONTINUOUS
 10
192.4201927472
 20
67.4710896793
 11
192.4201927472
 21
66.3754402618
  0
LINE
  5
2ED
100
AcDbEntity
  8
SCRITTE
100
AcDbLine
 62
253
  6
CONTINUOUS
 10
193.3406205672
 20
67.698860976
 11
193.3406205672
 21
67.6823171668
  0
LINE
  5
2EE
100
AcDbEntity
  8
SCRITTE
100
AcDbLine
 62
253
  6
CONTINUOUS
 10
184.7329484023
 20
69.175143604
 11
184.1829714023
 21
67.248021604
  0
LINE
  5
2EF
100
AcDbEntity
  8
SCRITTE
100
AcDbLine
 62
253
  6
CONTINUOUS
 10
184.4170204023
 20
66.375440604
 11
185.3169574023
 21
69.175143604
  0
LINE
  5
2F0
100
AcDbEntity
  8
RACCORDO
100
AcDbLine
 62
253
  6
CONTINUOUS
 10
233.4074642291
 20
139.3435986194
 11
233.5181146804
 21
139.4561018207
  0
LINE
  5
2F1
100
AcDbEntity
  8
ASSI
100
AcDbLine
 62
253
  6
CONTINUOUS
 10
233.4074642291
 20
139.3435986194
 11
233.5181146804
 21
139.4561018207
  0
LINE
  5
2F2
100
AcDbEntity
  8
RACCORDO
100
AcDbLine
 62
253
  6
CONTINUOUS
 10
232.6153022226
 20
140.1325762312
 11
232.733880193
 21
140.253086298
  0
LINE
  5
2F3
100
AcDbEntity
  8
ASSI
100
AcDbLine
 62
253
  6
CONTINUOUS
 10
232.6153022226
 20
140.1325762312
 11
232.733880193
 21
140.253086298
  0
LINE
  5
2F4
100
AcDbEntity
  8
RACCORDO
100
AcDbLine
 62
253
  6
CONTINUOUS
 10
144.420932582
 20
50.3739069768
 11
144.3023546116
 21
50.2533969101
  0
LINE
  5
2F5
100
AcDbEntity
  8
ASSI
100
AcDbLine
 62
253
  6
CONTINUOUS
 10
144.420932582
 20
50.3739069768
 11
144.3023546116
 21
50.2533969101
  0
LINE
  5
2F6
100
AcDbEntity
  8
RACCORDO
100
AcDbLine
 62
253
  6
CONTINUOUS
 10
176.91426973
 20
117.6075121088
 11
176.9681173945
 21
117.5537991383
  0
LINE
  5
2F7
100
AcDbEntity
  8
ASSI
100
AcDbLine
 62
253
  6
CONTINUOUS
 10
176.91426973
 20
117.6075121088
 11
176.9681173945
 21
117.5537991383
  0
LWPOLYLINE
  5
2F8
100
AcDbEntity
  8
RACCORDO
100
AcDbPolyline
 62
7
  6
CONTINUOUS
 90
22
 70
0
 10
200.0681174102
 20
117.5537991383
 10
200.0669451674
 20
117.5838259055
 10
200.0636240509
 20
117.613341756
 10
200.0581540609
 20
117.6423466945
 10
200.0505017448
 20
117.6709613726
 10
200.0407005552
 20
117.6990651476
 10
200.0288508491
 20
117.7262960867
 10
200.0149085309
 20
117.7526925504
 10
199.9989176963
 20
117.7782161934
 10
199.9811109895
 20
117.8023900316
 10
199.9614097005
 20
117.8252097539
 10
199.9398925393
 20
117.8466796926
 10
199.9170282802
 20
117.866335835
 10
199.8928250245
 20
117.8840965882
 10
199.8672746709
 20
117.9000435683
 10
199.8408216908
 20
117.9139575797
 10
199.8134818308
 20
117.9258051831
 10
199.7852393441
 20
117.9356198355
 10
199.7564914626
 20
117.9432826849
 10
199.7273705966
 20
117.9487541172
 10
199.6977443357
 20
117.9520737561
 10
199.6676126799
 20
117.953241604
  0
LWPOLYLINE
  5
2F9
100
AcDbEntity
  8
ASSI
100
AcDbPolyline
 62
7
  6
CONTINUOUS
 90
22
 70
0
 10
200.0681174102
 20
117.5537991383
 10
200.0669451674
 20
117.5838259055
 10
200.0636240509
 20
117.613341756
 10
200.0581540609
 20
117.6423466945
 10
200.0505017448
 20
117.6709613726
 10
200.0407005552
 20
117.6990651476
 10
200.0288508491
 20
117.7262960867
 10
200.0149085309
 20
117.7526925504
 10
199.9989176963
 20
117.7782161934
 10
199.9811109895
 20
117.8023900316
 10
199.9614097005
 20
117.8252097539
 10
199.9398925393
 20
117.8466796926
 10
199.9170282802
 20
117.866335835
 10
199.8928250245
 20
117.8840965882
 10
199.8672746709
 20
117.9000435683
 10
199.8408216908
 20
117.9139575797
 10
199.8134818308
 20
117.9258051831
 10
199.7852393441
 20
117.9356198355
 10
199.7564914626
 20
117.9432826849
 10
199.7273705966
 20
117.9487541172
 10
199.6977443357
 20
117.9520737561
 10
199.6676126799
 20
117.953241604
  0
LINE
  5
2FA
100
AcDbEntity
  8
RACCORDO
100
AcDbLine
 62
253
  6
CONTINUOUS
 10
199.7200709053
 20
118.5320077403
 11
199.7200709053
 21
118.0055631664
  0
LINE
  5
2FB
100
AcDbEntity
  8
ASSI
100
AcDbLine
 62
253
  6
CONTINUOUS
 10
199.7200709053
 20
118.5320077403
 11
199.7200709053
 21
118.0055631664
  0
LINE
  5
2FC
100
AcDbEntity
  8
RACCORDO
100
AcDbLine
 62
253
  6
CONTINUOUS
 10
199.7200709053
 20
71.9744754678
 11
199.7200709053
 21
72.5009200417
  0
LINE
  5
2FD
100
AcDbEntity
  8
ASSI
100
AcDbLine
 62
253
  6
CONTINUOUS
 10
199.7200709053
 20
71.9744754678
 11
199.7200709053
 21
72.5009200417
  0
LINE
  5
2FE
100
AcDbEntity
  8
RACCORDO
100
AcDbLine
 62
7
  6
CONTINUOUS
 10
200.0681174102
 20
72.9526840698
 11
200.0681174102
 21
117.5537991383
  0
LINE
  5
2FF
100
AcDbEntity
  8
ASSI
100
AcDbLine
 62
7
  6
CONTINUOUS
 10
200.0681174102
 20
72.9526840698
 11
200.0681174102
 21
117.5537991383
  0
LINE
  5
300
100
AcDbEntity
  8
RACCORDO
100
AcDbLine
 62
253
  6
CONTINUOUS
 10
200.1219650748
 20
117.6075122541
 11
200.1219650738
 21
72.8989724257
  0
LINE
  5
301
100
AcDbEntity
  8
ASSI
100
AcDbLine
 62
253
  6
CONTINUOUS
 10
200.1219650748
 20
117.6075122541
 11
200.1219650738
 21
72.8989724257
  0
LINE
  5
302
100
AcDbEntity
  8
RACCORDO
100
AcDbLine
 62
253
  6
CONTINUOUS
 10
200.6212781337
 20
117.631062364
 11
200.6212781337
 21
72.8754208441
  0
LINE
  5
303
100
AcDbEntity
  8
ASSI
100
AcDbLine
 62
253
  6
CONTINUOUS
 10
200.6212781337
 20
117.631062364
 11
200.6212781337
 21
72.8754208441
  0
LWPOLYLINE
  5
304
100
AcDbEntity
  8
RACCORDO
100
AcDbPolyline
 62
253
  6
CONTINUOUS
 90
7
 70
0
 10
200.1219650678
 20
72.8989724317
 10
200.1216205001
 20
72.8823706334
 10
200.120581947
 20
72.8657979369
 10
200.1188509268
 20
72.849282995
 10
200.1164301482
 20
72.8328543875
 10
200.1133235069
 20
72.8165405712
 10
200.1095360798
 20
72.8003698308
  0
LWPOLYLINE
  5
305
100
AcDbEntity
  8
ASSI
100
AcDbPolyline
 62
253
  6
CONTINUOUS
 90
7
 70
0
 10
200.1219650678
 20
72.8989724317
 10
200.1216205001
 20
72.8823706334
 10
200.120581947
 20
72.8657979369
 10
200.1188509268
 20
72.849282995
 10
200.1164301482
 20
72.8328543875
 10
200.1133235069
 20
72.8165405712
 10
200.1095360798
 20
72.8003698308
  0
LINE
  5
306
100
AcDbEntity
  8
SCRITTE
100
AcDbLine
 62
253
  6
CONTINUOUS
 10
190.2228684023
 20
67.366850604
 11
190.5138544023
 21
68.405856604
  0
LINE
  5
307
100
AcDbEntity
  8
SCRITTE
100
AcDbLine
 62
253
  6
CONTINUOUS
 10
189.9420644023
 20
66.375440604
 11
190.1033244023
 21
66.934360604
  0
LINE
  5
308
100
AcDbEntity
  8
SCRITTE
100
AcDbLine
 62
253
  6
CONTINUOUS
 10
190.2421624023
 20
69.175143604
 11
189.3639974023
 21
66.375440604
  0
LINE
  5
309
100
AcDbEntity
  8
SCRITTE
100
AcDbLine
 62
253
  6
CONTINUOUS
 10
188.4322114023
 20
69.175143604
 11
187.8478034023
 21
67.620739604
  0
LINE
  5
30A
100
AcDbEntity
  8
SCRITTE
100
AcDbLine
 62
253
  6
CONTINUOUS
 10
187.8855934023
 20
66.375440604
 11
188.5804544023
 21
68.195972604
  0
LINE
  5
30B
100
AcDbEntity
  8
RACCORDO
100
AcDbLine
 62
253
  6
CONTINUOUS
 10
176.9142697357
 20
72.8989798019
 11
176.9681173945
 21
72.9526840698
  0
LINE
  5
30C
100
AcDbEntity
  8
ASSI
100
AcDbLine
 62
253
  6
CONTINUOUS
 10
176.9142697357
 20
72.8989798019
 11
176.9681173945
 21
72.9526840698
  0
LINE
  5
30D
100
AcDbEntity
  8
RACCORDO
100
AcDbLine
 62
253
  6
CONTINUOUS
 10
177.3161436664
 20
72.5009200417
 11
177.3686221247
 21
72.553241604
  0
LINE
  5
30E
100
AcDbEntity
  8
ASSI
100
AcDbLine
 62
253
  6
CONTINUOUS
 10
177.3161436664
 20
72.5009200417
 11
177.3686221247
 21
72.553241604
  0
LINE
  5
30F
100
AcDbEntity
  8
RACCORDO
100
AcDbLine
 62
253
  6
CONTINUOUS
 10
177.3161715988
 20
118.0055631664
 11
177.3686221247
 21
117.953241604
  0
LINE
  5
310
100
AcDbEntity
  8
ASSI
100
AcDbLine
 62
253
  6
CONTINUOUS
 10
177.3161715988
 20
118.0055631664
 11
177.3686221247
 21
117.953241604
  0
LWPOLYLINE
  5
311
100
AcDbEntity
  8
RACCORDO
100
AcDbPolyline
 62
253
  6
CONTINUOUS
 90
7
 70
0
 10
200.6212781337
 20
72.8754208441
 10
200.6204704365
 20
72.837761048
 10
200.6181255643
 20
72.8003532249
 10
200.614243517
 20
72.7631973718
 10
200.6088242948
 20
72.7262934858
 10
200.6018678976
 20
72.6896415642
 10
200.5933743254
 20
72.653241604
  0
LWPOLYLINE
  5
312
100
AcDbEntity
  8
ASSI
100
AcDbPolyline
 62
253
  6
CONTINUOUS
 90
7
 70
0
 10
200.6212781337
 20
72.8754208441
 10
200.6204704365
 20
72.837761048
 10
200.6181255643
 20
72.8003532249
 10
200.614243517
 20
72.7631973718
 10
200.6088242948
 20
72.7262934858
 10
200.6018678976
 20
72.6896415642
 10
200.5933743254
 20
72.653241604
  0
LWPOLYLINE
  5
313
100
AcDbEntity
  8
RACCORDO
100
AcDbPolyline
 62
253
  6
CONTINUOUS
 90
22
 70
0
 10
200.5933743254
 20
72.653241604
 10
200.5776111911
 20
72.5986590552
 10
200.5586031648
 20
72.5455149801
 10
200.5363502467
 20
72.4938093146
 10
200.5107325632
 20
72.4433253255
 10
200.4818699878
 20
72.3942796279
 10
200.4501221407
 20
72.3473221527
 10
200.415461224
 20
72.3025008322
 10
200.3779150356
 20
72.2597675614
 10
200.3379265896
 20
72.2196281702
 10
200.2954672792
 20
72.1821139781
 10
200.2505657113
 20
72.1471934789
 10
200.2037507203
 20
72.1152782385
 10
200.1549885428
 20
72.0864010846
 10
200.1043129421
 20
72.0605290163
 10
200.0523540433
 20
72.0379748479
 10
199.9991308037
 20
72.0187862375
 10
199.9446242658
 20
72.0029153935
 10
199.8894076819
 20
71.990531961
 10
199.8336721358
 20
71.9816924632
 10
199.7772265436
 20
71.9763403048
 10
199.7200709053
 20
71.9744754678
  0
LWPOLYLINE
  5
314
100
AcDbEntity
  8
ASSI
100
AcDbPolyline
 62
253
  6
CONTINUOUS
 90
22
 70
0
 10
200.5933743254
 20
72.653241604
 10
200.5776111911
 20
72.5986590552
 10
200.5586031648
 20
72.5455149801
 10
200.5363502467
 20
72.4938093146
 10
200.5107325632
 20
72.4433253255
 10
200.4818699878
 20
72.3942796279
 10
200.4501221407
 20
72.3473221527
 10
200.415461224
 20
72.3025008322
 10
200.3779150356
 20
72.2597675614
 10
200.3379265896
 20
72.2196281702
 10
200.2954672792
 20
72.1821139781
 10
200.2505657113
 20
72.1471934789
 10
200.2037507203
 20
72.1152782385
 10
200.1549885428
 20
72.0864010846
 10
200.1043129421
 20
72.0605290163
 10
200.0523540433
 20
72.0379748479
 10
199.9991308037
 20
72.0187862375
 10
199.9446242658
 20
72.0029153935
 10
199.8894076819
 20
71.990531961
 10
199.8336721358
 20
71.9816924632
 10
199.7772265436
 20
71.9763403048
 10
199.7200709053
 20
71.9744754678
  0
LWPOLYLINE
  5
315
100
AcDbEntity
  8
RACCORDO
100
AcDbPolyline
 62
253
  6
CONTINUOUS
 90
22
 70
0
 10
200.1095360798
 20
72.8003698308
 10
200.1025249548
 20
72.7762378644
 10
200.0939991044
 20
72.7525985668
 10
200.0839922274
 20
72.7295456915
 10
200.0725433519
 20
72.7071708798
 10
200.0596981275
 20
72.6855627597
 10
200.0455087679
 20
72.6648065235
 10
200.0300308877
 20
72.6449842772
 10
200.0133259742
 20
72.6261749984
 10
199.995463018
 20
72.6084533401
 10
199.9765141659
 20
72.5918907075
 10
199.9565530828
 20
72.5765510845
 10
199.935657233
 20
72.5624913904
 10
199.9139046673
 20
72.5497656323
 10
199.8913846244
 20
72.5384273101
 10
199.8681967919
 20
72.5285235929
 10
199.8444463729
 20
72.5200968166
 10
199.8202143709
 20
72.5131731329
 10
199.7955664511
 20
72.5077707876
 10
199.7705883971
 20
72.5039138564
 10
199.7453876208
 20
72.5016256551
 10
199.7200630684
 20
72.5009200683
  0
LWPOLYLINE
  5
316
100
AcDbEntity
  8
ASSI
100
AcDbPolyline
 62
253
  6
CONTINUOUS
 90
22
 70
0
 10
200.1095360798
 20
72.8003698308
 10
200.1025249548
 20
72.7762378644
 10
200.0939991044
 20
72.7525985668
 10
200.0839922274
 20
72.7295456915
 10
200.0725433519
 20
72.7071708798
 10
200.0596981275
 20
72.6855627597
 10
200.0455087679
 20
72.6648065235
 10
200.0300308877
 20
72.6449842772
 10
200.0133259742
 20
72.6261749984
 10
199.995463018
 20
72.6084533401
 10
199.9765141659
 20
72.5918907075
 10
199.9565530828
 20
72.5765510845
 10
199.935657233
 20
72.5624913904
 10
199.9139046673
 20
72.5497656323
 10
199.8913846244
 20
72.5384273101
 10
199.8681967919
 20
72.5285235929
 10
199.8444463729
 20
72.5200968166
 10
199.8202143709
 20
72.5131731329
 10
199.7955664511
 20
72.5077707876
 10
199.7705883971
 20
72.5039138564
 10
199.7453876208
 20
72.5016256551
 10
199.7200630684
 20
72.5009200683
  0
LWPOLYLINE
  5
317
100
AcDbEntity
  8
RACCORDO
100
AcDbPolyline
 62
253
  6
CONTINUOUS
 90
15
 70
0
 10
200.4328761498
 20
117.8109207604
 10
200.3949055127
 20
117.8004582623
 10
200.3583482927
 20
117.7901928307
 10
200.3234648434
 20
117.780197574
 10
200.2905035977
 20
117.7705436764
 10
200.2596992993
 20
117.761299891
 10
200.2312713304
 20
117.7525320504
 10
200.2054221494
 20
117.7443025973
 10
200.1823358492
 20
117.7366701402
 10
200.1621768458
 20
117.7296890361
 10
200.1450887077
 20
117.7234090029
 10
200.1311931333
 20
117.7178747659
 10
200.1205890843
 20
117.7131257388
 10
200.1133520805
 20
117.7091957431
 10
200.1095336625
 20
117.7061127676
  0
LWPOLYLINE
  5
318
100
AcDbEntity
  8
ASSI
100
AcDbPolyline
 62
253
  6
CONTINUOUS
 90
15
 70
0
 10
200.4328761498
 20
117.8109207604
 10
200.3949055127
 20
117.8004582623
 10
200.3583482927
 20
117.7901928307
 10
200.3234648434
 20
117.780197574
 10
200.2905035977
 20
117.7705436764
 10
200.2596992993
 20
117.761299891
 10
200.2312713304
 20
117.7525320504
 10
200.2054221494
 20
117.7443025973
 10
200.1823358492
 20
117.7366701402
 10
200.1621768458
 20
117.7296890361
 10
200.1450887077
 20
117.7234090029
 10
200.1311931333
 20
117.7178747659
 10
200.1205890843
 20
117.7131257388
 10
200.1133520805
 20
117.7091957431
 10
200.1095336625
 20
117.7061127676
  0
LINE
  5
319
100
AcDbEntity
  8
RACCORDO
100
AcDbLine
 62
253
  6
CONTINUOUS
 10
200.5119678578
 20
117.8321380357
 11
200.4328761498
 21
117.8109207604
  0
LINE
  5
31A
100
AcDbEntity
  8
ASSI
100
AcDbLine
 62
253
  6
CONTINUOUS
 10
200.5119678578
 20
117.8321380357
 11
200.4328761498
 21
117.8109207604
  0
LINE
  5
31B
100
AcDbEntity
  8
RACCORDO
100
AcDbLine
 62
253
  6
CONTINUOUS
 10
200.5933743253
 20
117.853241312
 11
200.5119678578
 21
117.8321380357
  0
LINE
  5
31C
100
AcDbEntity
  8
ASSI
100
AcDbLine
 62
253
  6
CONTINUOUS
 10
200.5933743253
 20
117.853241312
 11
200.5119678578
 21
117.8321380357
  0
LINE
  5
31D
100
AcDbEntity
  8
RACCORDO
100
AcDbLine
 62
253
  6
CONTINUOUS
 10
176.4428604792
 20
117.8532411205
 11
176.5242670435
 21
117.8321378485
  0
LINE
  5
31E
100
AcDbEntity
  8
ASSI
100
AcDbLine
 62
253
  6
CONTINUOUS
 10
176.4428604792
 20
117.8532411205
 11
176.5242670435
 21
117.8321378485
  0
LWPOLYLINE
  5
31F
100
AcDbEntity
  8
RACCORDO
100
AcDbPolyline
 62
253
  6
CONTINUOUS
 90
16
 70
0
 10
176.5242670435
 20
117.8321378485
 10
176.6033589365
 20
117.8109205539
 10
176.6413296904
 20
117.8004580394
 10
176.6778870385
 20
117.790192588
 10
176.7127706238
 20
117.780197309
 10
176.7457320094
 20
117.7705433875
 10
176.7765364486
 20
117.7612995775
 10
176.8049645558
 20
117.7525317122
 10
176.8308138696
 20
117.7443022353
 10
176.8539002941
 20
117.736669756
 10
176.8740594107
 20
117.729688632
 10
176.8911476486
 20
117.7234085818
 10
176.9050433076
 20
117.7178743313
 10
176.9156474242
 20
117.7131252945
 10
176.9228844774
 20
117.7091952936
 10
176.9267029257
 20
117.7061123175
  0
LWPOLYLINE
  5
320
100
AcDbEntity
  8
ASSI
100
AcDbPolyline
 62
253
  6
CONTINUOUS
 90
16
 70
0
 10
176.5242670435
 20
117.8321378485
 10
176.6033589365
 20
117.8109205539
 10
176.6413296904
 20
117.8004580394
 10
176.6778870385
 20
117.790192588
 10
176.7127706238
 20
117.780197309
 10
176.7457320094
 20
117.7705433875
 10
176.7765364486
 20
117.7612995775
 10
176.8049645558
 20
117.7525317122
 10
176.8308138696
 20
117.7443022353
 10
176.8539002941
 20
117.736669756
 10
176.8740594107
 20
117.729688632
 10
176.8911476486
 20
117.7234085818
 10
176.9050433076
 20
117.7178743313
 10
176.9156474242
 20
117.7131252945
 10
176.9228844774
 20
117.7091952936
 10
176.9267029257
 20
117.7061123175
  0
LWPOLYLINE
  5
321
100
AcDbEntity
  8
RACCORDO
100
AcDbPolyline
 62
253
  6
CONTINUOUS
 90
7
 70
0
 10
200.1095360798
 20
117.7061133772
 10
200.1133183843
 20
117.6899668448
 10
200.1164235522
 20
117.6736679519
 10
200.1188453195
 20
117.6572446826
 10
200.1205785832
 20
117.640725293
 10
200.1216194141
 20
117.624138263
 10
200.1219650674
 20
117.6075122469
  0
LWPOLYLINE
  5
322
100
AcDbEntity
  8
ASSI
100
AcDbPolyline
 62
253
  6
CONTINUOUS
 90
7
 70
0
 10
200.1095360798
 20
117.7061133772
 10
200.1133183843
 20
117.6899668448
 10
200.1164235522
 20
117.6736679519
 10
200.1188453195
 20
117.6572446826
 10
200.1205785832
 20
117.640725293
 10
200.1216194141
 20
117.624138263
 10
200.1219650674
 20
117.6075122469
  0
LWPOLYLINE
  5
323
100
AcDbEntity
  8
RACCORDO
100
AcDbPolyline
 62
253
  6
CONTINUOUS
 90
7
 70
0
 10
200.5933743254
 20
117.8532416041
 10
200.6018607083
 20
117.8168991591
 10
200.6088127919
 20
117.7802817469
 10
200.6142305762
 20
117.7433893645
 10
200.6181140613
 20
117.7062220086
 10
200.6204632472
 20
117.6687796762
 10
200.6212781337
 20
117.631062364
  0
LWPOLYLINE
  5
324
100
AcDbEntity
  8
ASSI
100
AcDbPolyline
 62
253
  6
CONTINUOUS
 90
7
 70
0
 10
200.5933743254
 20
117.8532416041
 10
200.6018607083
 20
117.8168991591
 10
200.6088127919
 20
117.7802817469
 10
200.6142305762
 20
117.7433893645
 10
200.6181140613
 20
117.7062220086
 10
200.6204632472
 20
117.6687796762
 10
200.6212781337
 20
117.631062364
  0
LWPOLYLINE
  5
325
100
AcDbEntity
  8
RACCORDO
100
AcDbPolyline
 62
7
  6
CONTINUOUS
 90
22
 70
0
 10
177.3686221247
 20
117.953241604
 10
177.3384904847
 20
117.9520737605
 10
177.3088642313
 20
117.9487541233
 10
177.2797433648
 20
117.94328269
 10
177.2509954677
 20
117.9356198341
 10
177.2227529573
 20
117.9258051726
 10
177.1954130856
 20
117.9139575662
 10
177.1689601191
 20
117.9000435642
 10
177.1434097912
 20
117.8840965996
 10
177.1192065539
 20
117.8663358585
 10
177.0963422987
 20
117.8466797226
 10
177.0748251342
 20
117.8252097871
 10
177.0551238384
 20
117.8023900609
 10
177.0373171197
 20
117.7782162047
 10
177.0213262697
 20
117.7526925366
 10
177.0073839419
 20
117.7262960583
 10
176.9955342377
 20
117.6990651259
 10
176.9857330557
 20
117.670961368
 10
176.9780807455
 20
117.6423467021
 10
176.9726107567
 20
117.6133417659
 10
176.9692896397
 20
117.5838259129
 10
176.9681173945
 20
117.5537991383
  0
LWPOLYLINE
  5
326
100
AcDbEntity
  8
ASSI
100
AcDbPolyline
 62
7
  6
CONTINUOUS
 90
22
 70
0
 10
177.3686221247
 20
117.953241604
 10
177.3384904847
 20
117.9520737605
 10
177.3088642313
 20
117.9487541233
 10
177.2797433648
 20
117.94328269
 10
177.2509954677
 20
117.9356198341
 10
177.2227529573
 20
117.9258051726
 10
177.1954130856
 20
117.9139575662
 10
177.1689601191
 20
117.9000435642
 10
177.1434097912
 20
117.8840965996
 10
177.1192065539
 20
117.8663358585
 10
177.0963422987
 20
117.8466797226
 10
177.0748251342
 20
117.8252097871
 10
177.0551238384
 20
117.8023900609
 10
177.0373171197
 20
117.7782162047
 10
177.0213262697
 20
117.7526925366
 10
177.0073839419
 20
117.7262960583
 10
176.9955342377
 20
117.6990651259
 10
176.9857330557
 20
117.670961368
 10
176.9780807455
 20
117.6423467021
 10
176.9726107567
 20
117.6133417659
 10
176.9692896397
 20
117.5838259129
 10
176.9681173945
 20
117.5537991383
  0
LWPOLYLINE
  5
327
100
AcDbEntity
  8
RACCORDO
100
AcDbPolyline
 62
253
  6
CONTINUOUS
 90
16
 70
0
 10
200.4960933807
 20
117.6302711893
 10
200.4557532461
 20
117.6296613332
 10
200.4165902207
 20
117.6288846215
 10
200.3788828075
 20
117.6279465776
 10
200.3428991579
 20
117.6268538723
 10
200.3088951651
 20
117.6256142762
 10
200.2771126443
 20
117.6242366045
 10
200.2477776127
 20
117.6227306545
 10
200.2210986827
 20
117.6211071354
 10
200.1972655782
 20
117.6193775927
 10
200.1764477853
 20
117.6175543258
 10
200.158793347
 20
117.6156503007
 10
200.1444278107
 20
117.6136790577
 10
200.133453335
 20
117.6116546148
 10
200.1259479636
 20
117.6095913688
 10
200.1219650699
 20
117.6075039921
  0
LWPOLYLINE
  5
328
100
AcDbEntity
  8
ASSI
100
AcDbPolyline
 62
253
  6
CONTINUOUS
 90
16
 70
0
 10
200.4960933807
 20
117.6302711893
 10
200.4557532461
 20
117.6296613332
 10
200.4165902207
 20
117.6288846215
 10
200.3788828075
 20
117.6279465776
 10
200.3428991579
 20
117.6268538723
 10
200.3088951651
 20
117.6256142762
 10
200.2771126443
 20
117.6242366045
 10
200.2477776127
 20
117.6227306545
 10
200.2210986827
 20
117.6211071354
 10
200.1972655782
 20
117.6193775927
 10
200.1764477853
 20
117.6175543258
 10
200.158793347
 20
117.6156503007
 10
200.1444278107
 20
117.6136790577
 10
200.133453335
 20
117.6116546148
 10
200.1259479636
 20
117.6095913688
 10
200.1219650699
 20
117.6075039921
  0
LWPOLYLINE
  5
329
100
AcDbEntity
  8
RACCORDO
100
AcDbPolyline
 62
253
  6
CONTINUOUS
 90
3
 70
0
 10
144.0027880016
 20
117.7899566278
 10
144.083991322
 20
117.7906321057
 10
144.1251508097
 20
117.7907165951
  0
LWPOLYLINE
  5
32A
100
AcDbEntity
  8
ASSI
100
AcDbPolyline
 62
253
  6
CONTINUOUS
 90
3
 70
0
 10
144.0027880016
 20
117.7899566278
 10
144.083991322
 20
117.7906321057
 10
144.1251508097
 20
117.7907165951
  0
LINE
  5
32B
100
AcDbEntity
  8
RACCORDO
100
AcDbLine
 62
253
  6
CONTINUOUS
 10
144.0027895509
 20
117.8524820654
 11
144.0839927812
 21
117.8531577324
  0
LINE
  5
32C
100
AcDbEntity
  8
ASSI
100
AcDbLine
 62
253
  6
CONTINUOUS
 10
144.0027895509
 20
117.8524820654
 11
144.0839927812
 21
117.8531577324
  0
LWPOLYLINE
  5
32D
100
AcDbEntity
  8
RACCORDO
100
AcDbPolyline
 62
253
  6
CONTINUOUS
 90
3
 70
0
 10
200.6212781337
 20
117.6310623634
 10
200.5791511519
 20
117.6309742041
 10
200.4960933807
 20
117.6302711893
  0
LWPOLYLINE
  5
32E
100
AcDbEntity
  8
ASSI
100
AcDbPolyline
 62
253
  6
CONTINUOUS
 90
3
 70
0
 10
200.6212781337
 20
117.6310623634
 10
200.5791511519
 20
117.6309742041
 10
200.4960933807
 20
117.6302711893
  0
LINE
  5
32F
100
AcDbEntity
  8
RACCORDO
100
AcDbLine
 62
253
  6
CONTINUOUS
 10
233.5181174023
 20
117.7678638263
 11
233.4091765604
 21
117.7678638263
  0
LINE
  5
330
100
AcDbEntity
  8
ASSI
100
AcDbLine
 62
253
  6
CONTINUOUS
 10
233.5181174023
 20
117.7678638263
 11
233.4091765604
 21
117.7678638263
  0
LINE
  5
331
100
AcDbEntity
  8
RACCORDO
100
AcDbLine
 62
253
  6
CONTINUOUS
 10
143.5181174023
 20
117.7678638263
 11
143.6270582443
 21
117.7678662785
  0
LINE
  5
332
100
AcDbEntity
  8
ASSI
100
AcDbLine
 62
253
  6
CONTINUOUS
 10
143.5181174023
 20
117.7678638263
 11
143.6270582443
 21
117.7678662785
  0
LINE
  5
333
100
AcDbEntity
  8
RACCORDO
100
AcDbLine
 62
253
  6
CONTINUOUS
 10
176.4428604793
 20
117.8532416041
 11
144.0839927812
 21
117.8531577324
  0
LINE
  5
334
100
AcDbEntity
  8
ASSI
100
AcDbLine
 62
253
  6
CONTINUOUS
 10
176.4428604793
 20
117.8532416041
 11
144.0839927812
 21
117.8531577324
  0
LINE
  5
335
100
AcDbEntity
  8
RACCORDO
100
AcDbLine
 62
7
  6
CONTINUOUS
 10
199.6676126799
 20
117.953241604
 11
177.3686221247
 21
117.953241604
  0
LINE
  5
336
100
AcDbEntity
  8
ASSI
100
AcDbLine
 62
7
  6
CONTINUOUS
 10
199.6676126799
 20
117.953241604
 11
177.3686221247
 21
117.953241604
  0
LINE
  5
337
100
AcDbEntity
  8
RACCORDO
100
AcDbLine
 62
253
  6
CONTINUOUS
 10
177.3161715988
 20
118.0055631664
 11
199.7200632179
 21
118.0055631664
  0
LINE
  5
338
100
AcDbEntity
  8
ASSI
100
AcDbLine
 62
253
  6
CONTINUOUS
 10
177.3161715988
 20
118.0055631664
 11
199.7200632179
 21
118.0055631664
  0
LINE
  5
339
100
AcDbEntity
  8
RACCORDO
100
AcDbLine
 62
253
  6
CONTINUOUS
 10
177.3161638993
 20
118.5320077403
 11
199.7200709053
 21
118.5320077403
  0
LINE
  5
33A
100
AcDbEntity
  8
ASSI
100
AcDbLine
 62
253
  6
CONTINUOUS
 10
177.3161638993
 20
118.5320077403
 11
199.7200709053
 21
118.5320077403
  0
LINE
  5
33B
100
AcDbEntity
  8
RACCORDO
100
AcDbLine
 62
253
  6
CONTINUOUS
 10
232.9522420248
 20
117.8531577336
 11
200.5933743254
 21
117.8532416041
  0
LINE
  5
33C
100
AcDbEntity
  8
ASSI
100
AcDbLine
 62
253
  6
CONTINUOUS
 10
232.9522420248
 20
117.8531577336
 11
200.5933743254
 21
117.8532416041
  0
LWPOLYLINE
  5
33D
100
AcDbEntity
  8
RACCORDO
100
AcDbPolyline
 62
253
  6
CONTINUOUS
 90
18
 70
0
 10
176.4149566709
 20
117.6310624004
 10
176.4989110351
 20
117.6307098832
 10
176.5401413897
 20
117.6302712166
 10
176.5804815054
 20
117.6296613577
 10
176.6196445092
 20
117.6288846432
 10
176.6573518989
 20
117.6279465966
 10
176.6933355236
 20
117.6268538888
 10
176.7273394908
 20
117.6256142904
 10
176.7591219861
 20
117.6242366167
 10
176.7884569926
 20
117.6227306647
 10
176.8151358986
 20
117.6211071438
 10
176.8389689808
 20
117.6193775994
 10
176.8597867535
 20
117.6175543311
 10
176.8774411741
 20
117.6156503046
 10
176.8918066956
 20
117.6136790602
 10
176.9027811595
 20
117.6116546162
 10
176.9102865227
 20
117.609591369
 10
176.9142694116
 20
117.6075039913
  0
LWPOLYLINE
  5
33E
100
AcDbEntity
  8
ASSI
100
AcDbPolyline
 62
253
  6
CONTINUOUS
 90
18
 70
0
 10
176.4149566709
 20
117.6310624004
 10
176.4989110351
 20
117.6307098832
 10
176.5401413897
 20
117.6302712166
 10
176.5804815054
 20
117.6296613577
 10
176.6196445092
 20
117.6288846432
 10
176.6573518989
 20
117.6279465966
 10
176.6933355236
 20
117.6268538888
 10
176.7273394908
 20
117.6256142904
 10
176.7591219861
 20
117.6242366167
 10
176.7884569926
 20
117.6227306647
 10
176.8151358986
 20
117.6211071438
 10
176.8389689808
 20
117.6193775994
 10
176.8597867535
 20
117.6175543311
 10
176.8774411741
 20
117.6156503046
 10
176.8918066956
 20
117.6136790602
 10
176.9027811595
 20
117.6116546162
 10
176.9102865227
 20
117.609591369
 10
176.9142694116
 20
117.6075039913
  0
LWPOLYLINE
  5
33F
100
AcDbEntity
  8
RACCORDO
100
AcDbPolyline
 62
253
  6
CONTINUOUS
 90
22
 70
0
 10
199.7200631916
 20
118.0055631401
 10
199.7453871257
 20
118.0048575851
 10
199.7705875796
 20
118.002569456
 10
199.7955656053
 20
117.998712582
 10
199.8202139254
 20
117.9933101881
 10
199.8444465935
 20
117.9863863159
 10
199.8681975121
 20
117.9779593229
 10
199.8913855242
 20
117.9680554619
 10
199.9139056003
 20
117.9567170433
 10
199.9356581315
 20
117.943991223
 10
199.956553789
 20
117.9299315853
 10
199.9765146371
 20
117.914592088
 10
199.9954635432
 20
117.8980293576
 10
200.0133271378
 20
117.8803069656
 10
200.0300328323
 20
117.8614965927
 10
200.0455109501
 20
117.841673706
 10
200.0596997346
 20
117.8209179398
 10
200.07254412
 20
117.7993109444
 10
200.0839924369
 20
117.7769370749
 10
200.0939991133
 20
117.7538846181
 10
200.1025249115
 20
117.7302454747
 10
200.1095360798
 20
117.7061133772
  0
LWPOLYLINE
  5
340
100
AcDbEntity
  8
ASSI
100
AcDbPolyline
 62
253
  6
CONTINUOUS
 90
22
 70
0
 10
199.7200631916
 20
118.0055631401
 10
199.7453871257
 20
118.0048575851
 10
199.7705875796
 20
118.002569456
 10
199.7955656053
 20
117.998712582
 10
199.8202139254
 20
117.9933101881
 10
199.8444465935
 20
117.9863863159
 10
199.8681975121
 20
117.9779593229
 10
199.8913855242
 20
117.9680554619
 10
199.9139056003
 20
117.9567170433
 10
199.9356581315
 20
117.943991223
 10
199.956553789
 20
117.9299315853
 10
199.9765146371
 20
117.914592088
 10
199.9954635432
 20
117.8980293576
 10
200.0133271378
 20
117.8803069656
 10
200.0300328323
 20
117.8614965927
 10
200.0455109501
 20
117.841673706
 10
200.0596997346
 20
117.8209179398
 10
200.07254412
 20
117.7993109444
 10
200.0839924369
 20
117.7769370749
 10
200.0939991133
 20
117.7538846181
 10
200.1025249115
 20
117.7302454747
 10
200.1095360798
 20
117.7061133772
  0
LWPOLYLINE
  5
341
100
AcDbEntity
  8
RACCORDO
100
AcDbPolyline
 62
253
  6
CONTINUOUS
 90
22
 70
0
 10
199.7200709053
 20
118.5320077403
 10
199.7772249081
 20
118.5301429271
 10
199.8336688318
 20
118.5247910469
 10
199.8894026763
 20
118.5159520814
 10
199.9446178023
 20
118.5035692317
 10
199.9991228491
 20
118.4876992247
 10
200.0523437348
 20
118.4685123168
 10
200.1042980338
 20
118.4459616531
 10
200.1549681717
 20
118.4200939552
 10
200.203727343
 20
118.3912198389
 10
200.2505435266
 20
118.3593055445
 10
200.2954487437
 20
118.3243846585
 10
200.3379122524
 20
118.2868688254
 10
200.3779054476
 20
118.2467258299
 10
200.4154569345
 20
118.2039877002
 10
200.4501217871
 20
118.1591624721
 10
200.4818712305
 20
118.1122028631
 10
200.5107340397
 20
118.0631559829
 10
200.5363516139
 20
118.0126715004
 10
200.5586044194
 20
117.9609659434
 10
200.5776119899
 20
117.907822666
 10
200.5933743254
 20
117.8532416041
  0
LWPOLYLINE
  5
342
100
AcDbEntity
  8
ASSI
100
AcDbPolyline
 62
253
  6
CONTINUOUS
 90
22
 70
0
 10
199.7200709053
 20
118.5320077403
 10
199.7772249081
 20
118.5301429271
 10
199.8336688318
 20
118.5247910469
 10
199.8894026763
 20
118.5159520814
 10
199.9446178023
 20
118.5035692317
 10
199.9991228491
 20
118.4876992247
 10
200.0523437348
 20
118.4685123168
 10
200.1042980338
 20
118.4459616531
 10
200.1549681717
 20
118.4200939552
 10
200.203727343
 20
118.3912198389
 10
200.2505435266
 20
118.3593055445
 10
200.2954487437
 20
118.3243846585
 10
200.3379122524
 20
118.2868688254
 10
200.3779054476
 20
118.2467258299
 10
200.4154569345
 20
118.2039877002
 10
200.4501217871
 20
118.1591624721
 10
200.4818712305
 20
118.1122028631
 10
200.5107340397
 20
118.0631559829
 10
200.5363516139
 20
118.0126715004
 10
200.5586044194
 20
117.9609659434
 10
200.5776119899
 20
117.907822666
 10
200.5933743254
 20
117.8532416041
  0
LWPOLYLINE
  5
343
100
AcDbEntity
  8
RACCORDO
100
AcDbPolyline
 62
253
  6
CONTINUOUS
 90
18
 70
0
 10
233.4091765599
 20
117.7678638263
 10
233.4038942663
 20
117.7699098831
 10
233.3952668097
 20
117.7719271769
 10
233.3833527529
 20
117.7739020144
 10
233.3682329675
 20
117.7758209906
 10
233.3500100858
 20
117.7776710795
 10
233.3288078033
 20
117.7794397228
 10
233.3047700398
 20
117.7811149153
 10
233.2780599619
 20
117.7826852856
 10
233.2488588759
 20
117.7841401744
 10
233.2173649967
 20
117.7854697059
 10
233.1837921028
 20
117.7866648553
 10
233.1483680846
 20
117.78771751
 10
233.111333398
 20
117.7886205247
 10
233.072939432
 20
117.7893677698
 10
233.0334468022
 20
117.7899541731
 10
232.9931235818
 20
117.790375754
 10
232.911083995
 20
117.7907141403
  0
LWPOLYLINE
  5
344
100
AcDbEntity
  8
ASSI
100
AcDbPolyline
 62
253
  6
CONTINUOUS
 90
18
 70
0
 10
233.4091765599
 20
117.7678638263
 10
233.4038942663
 20
117.7699098831
 10
233.3952668097
 20
117.7719271769
 10
233.3833527529
 20
117.7739020144
 10
233.3682329675
 20
117.7758209906
 10
233.3500100858
 20
117.7776710795
 10
233.3288078033
 20
117.7794397228
 10
233.3047700398
 20
117.7811149153
 10
233.2780599619
 20
117.7826852856
 10
233.2488588759
 20
117.7841401744
 10
233.2173649967
 20
117.7854697059
 10
233.1837921028
 20
117.7866648553
 10
233.1483680846
 20
117.78771751
 10
233.111333398
 20
117.7886205247
 10
233.072939432
 20
117.7893677698
 10
233.0334468022
 20
117.7899541731
 10
232.9931235818
 20
117.790375754
 10
232.911083995
 20
117.7907141403
  0
LWPOLYLINE
  5
345
100
AcDbEntity
  8
RACCORDO
100
AcDbPolyline
 62
253
  6
CONTINUOUS
 90
17
 70
0
 10
233.4091750761
 20
117.8303382612
 10
233.4038927233
 20
117.8323898824
 10
233.3952652159
 20
117.8344125912
 10
233.3833511167
 20
117.8363926576
 10
233.3682312975
 20
117.8383166412
 10
233.3500083905
 20
117.840171482
 10
233.3288060913
 20
117.8419445895
 10
233.3047683193
 20
117.8436239282
 10
233.278058241
 20
117.8451980986
 10
233.2488571621
 20
117.8466564156
 10
233.2173632971
 20
117.8479889801
 10
233.1837904239
 20
117.8491867468
 10
233.1483664324
 20
117.8502415854
 10
233.1113317776
 20
117.8511463358
 10
233.0729378478
 20
117.8518948565
 10
233.0334452577
 20
117.8524820667
 10
232.9522420248
 20
117.8531577336
  0
LWPOLYLINE
  5
346
100
AcDbEntity
  8
ASSI
100
AcDbPolyline
 62
253
  6
CONTINUOUS
 90
17
 70
0
 10
233.4091750761
 20
117.8303382612
 10
233.4038927233
 20
117.8323898824
 10
233.3952652159
 20
117.8344125912
 10
233.3833511167
 20
117.8363926576
 10
233.3682312975
 20
117.8383166412
 10
233.3500083905
 20
117.840171482
 10
233.3288060913
 20
117.8419445895
 10
233.3047683193
 20
117.8436239282
 10
233.278058241
 20
117.8451980986
 10
233.2488571621
 20
117.8466564156
 10
233.2173632971
 20
117.8479889801
 10
233.1837904239
 20
117.8491867468
 10
233.1483664324
 20
117.8502415854
 10
233.1113317776
 20
117.8511463358
 10
233.0729378478
 20
117.8518948565
 10
233.0334452577
 20
117.8524820667
 10
232.9522420248
 20
117.8531577336
  0
LWPOLYLINE
  5
347
100
AcDbEntity
  8
RACCORDO
100
AcDbPolyline
 62
253
  6
CONTINUOUS
 90
16
 70
0
 10
233.4091750748
 20
72.6761449469
 10
233.4038927208
 20
72.6740933257
 10
233.3952652123
 20
72.672070617
 10
233.3833511122
 20
72.6700905506
 10
233.3682312923
 20
72.6681665671
 10
233.3500083848
 20
72.6663117264
 10
233.3288060852
 20
72.6645386189
 10
233.304768313
 20
72.6628592803
 10
233.2780582346
 20
72.66128511
 10
233.2488571559
 20
72.6598267931
 10
233.2173632912
 20
72.6584942286
 10
233.1837904185
 20
72.6572964619
 10
233.1483664274
 20
72.6562416233
 10
233.1113317733
 20
72.655336873
 10
233.0729378442
 20
72.6545883524
 10
233.033445255
 20
72.6540011422
  0
LWPOLYLINE
  5
348
100
AcDbEntity
  8
ASSI
100
AcDbPolyline
 62
253
  6
CONTINUOUS
 90
16
 70
0
 10
233.4091750748
 20
72.6761449469
 10
233.4038927208
 20
72.6740933257
 10
233.3952652123
 20
72.672070617
 10
233.3833511122
 20
72.6700905506
 10
233.3682312923
 20
72.6681665671
 10
233.3500083848
 20
72.6663117264
 10
233.3288060852
 20
72.6645386189
 10
233.304768313
 20
72.6628592803
 10
233.2780582346
 20
72.66128511
 10
233.2488571559
 20
72.6598267931
 10
233.2173632912
 20
72.6584942286
 10
233.1837904185
 20
72.6572964619
 10
233.1483664274
 20
72.6562416233
 10
233.1113317733
 20
72.655336873
 10
233.0729378442
 20
72.6545883524
 10
233.033445255
 20
72.6540011422
  0
LWPOLYLINE
  5
349
100
AcDbEntity
  8
RACCORDO
100
AcDbPolyline
 62
253
  6
CONTINUOUS
 90
16
 70
0
 10
233.4091765604
 20
72.7386193818
 10
233.4038942672
 20
72.7365733249
 10
233.395266811
 20
72.7345560311
 10
233.3833527544
 20
72.7325811936
 10
233.3682329693
 20
72.7306622174
 10
233.3500100877
 20
72.7288121285
 10
233.3288078054
 20
72.7270434851
 10
233.3047700419
 20
72.7253682926
 10
233.278059964
 20
72.7237979222
 10
233.2488588779
 20
72.7223430335
 10
233.2173649987
 20
72.721013502
 10
233.1837921046
 20
72.7198183526
 10
233.1483680863
 20
72.7187656978
 10
233.1113333995
 20
72.7178626831
 10
233.0729394332
 20
72.717115438
 10
233.0334468031
 20
72.7165290347
  0
LWPOLYLINE
  5
34A
100
AcDbEntity
  8
ASSI
100
AcDbPolyline
 62
253
  6
CONTINUOUS
 90
16
 70
0
 10
233.4091765604
 20
72.7386193818
 10
233.4038942672
 20
72.7365733249
 10
233.395266811
 20
72.7345560311
 10
233.3833527544
 20
72.7325811936
 10
233.3682329693
 20
72.7306622174
 10
233.3500100877
 20
72.7288121285
 10
233.3288078054
 20
72.7270434851
 10
233.3047700419
 20
72.7253682926
 10
233.278059964
 20
72.7237979222
 10
233.2488588779
 20
72.7223430335
 10
233.2173649987
 20
72.721013502
 10
233.1837921046
 20
72.7198183526
 10
233.1483680863
 20
72.7187656978
 10
233.1113333995
 20
72.7178626831
 10
233.0729394332
 20
72.717115438
 10
233.0334468031
 20
72.7165290347
  0
LWPOLYLINE
  5
34B
100
AcDbEntity
  8
0
100
AcDbPolyline
 62
7
  6
CONTINUOUS
 90
10
 70
0
 43
0.3500000006
 10
250.7821303711
 20
93.3246678772
 10
249.9249924316
 20
94.1818148804
 10
249.0678363647
 20
94.3960993652
 10
248.2106984253
 20
94.3960993652
 10
247.7821294556
 20
93.9675303955
 10
247.7821294556
 20
93.3246678772
 10
248.2106984253
 20
92.8960989075
 10
249.0678363647
 20
92.8960989075
 10
249.4964234619
 20
93.3246678772
 10
249.4964234619
 20
94.2532460632
  0
LINE
  5
34C
100
AcDbEntity
  8
RACCORDO
100
AcDbLine
 62
253
  6
CONTINUOUS
 10
232.6153022226
 20
140.1325762312
 11
232.6153022226
 21
139.7246369698
  0
LINE
  5
34D
100
AcDbEntity
  8
ASSI
100
AcDbLine
 62
253
  6
CONTINUOUS
 10
232.6153022226
 20
140.1325762312
 11
232.6153022226
 21
139.7246369698
  0
LINE
  5
34E
100
AcDbEntity
  8
RACCORDO
100
AcDbLine
 62
253
  6
CONTINUOUS
 10
232.6153022226
 20
50.3739069768
 11
232.6153022226
 21
50.7818462383
  0
LINE
  5
34F
100
AcDbEntity
  8
ASSI
100
AcDbLine
 62
253
  6
CONTINUOUS
 10
232.6153022226
 20
50.3739069768
 11
232.6153022226
 21
50.7818462383
  0
LINE
  5
350
100
AcDbEntity
  8
RACCORDO
100
AcDbLine
 62
7
  6
CONTINUOUS
 10
233.5181174023
 20
139.453241604
 11
233.5181174023
 21
117.7678638263
  0
LINE
  5
351
100
AcDbEntity
  8
DRAFT
100
AcDbLine
 62
7
  6
CONTINUOUS
 10
233.5181174023
 20
117.7678638263
 11
233.5181174023
 21
72.7386193818
  0
LINE
  5
352
100
AcDbEntity
  8
RACCORDO
100
AcDbLine
 62
7
  6
CONTINUOUS
 10
233.5181174023
 20
72.7386193818
 11
233.5181174023
 21
51.053241604
  0
LINE
  5
353
100
AcDbEntity
  8
ASSI
100
AcDbLine
 62
7
  6
CONTINUOUS
 10
233.5181174023
 20
139.453241604
 11
233.5181174023
 21
51.053241604
  0
LINE
  5
354
100
AcDbEntity
  8
RACCORDO
100
AcDbLine
 62
253
  6
CONTINUOUS
 10
232.9094301139
 20
139.4248983828
 11
232.9094301139
 21
51.0815848252
  0
LINE
  5
355
100
AcDbEntity
  8
ASSI
100
AcDbLine
 62
253
  6
CONTINUOUS
 10
232.9094301139
 20
139.4248983828
 11
232.9094301139
 21
51.0815848252
  0
LINE
  5
356
100
AcDbEntity
  8
RACCORDO
100
AcDbLine
 62
253
  6
CONTINUOUS
 10
233.4074642291
 20
139.3435986194
 11
233.4074642291
 21
51.1628845886
  0
LINE
  5
357
100
AcDbEntity
  8
ASSI
100
AcDbLine
 62
253
  6
CONTINUOUS
 10
233.4074642291
 20
139.3435986194
 11
233.4074642291
 21
51.1628845886
  0
LWPOLYLINE
  5
358
100
AcDbEntity
  8
RACCORDO
100
AcDbPolyline
 62
253
  6
CONTINUOUS
 90
25
 70
0
 10
232.9094301139
 20
51.0815848252
 10
232.908786799
 20
51.061708957
 10
232.9069120495
 20
51.0420910849
 10
232.9038058652
 20
51.0227311923
 10
232.8994439638
 20
51.003543602
 10
232.8938506276
 20
50.9846139628
 10
232.887098704
 20
50.966199232
 10
232.8791742993
 20
50.9483136594
 10
232.8700913072
 20
50.9309429334
 10
232.8599642564
 20
50.9143011422
 10
232.8487799349
 20
50.8983972231
 10
232.8365515546
 20
50.8832221602
 10
232.8234332803
 20
50.8689630925
 10
232.8094138205
 20
50.8556315201
 10
232.7945044667
 20
50.8432158591
 10
232.7788932578
 20
50.8318686103
 10
232.762572674
 20
50.8216039864
 10
232.7455502352
 20
50.8124076979
 10
232.7280365402
 20
50.8043894887
 10
232.7100187132
 20
50.797563392
 10
232.6915096301
 20
50.7919153164
 10
232.6727585169
 20
50.7875128207
 10
232.6538484489
 20
50.7843784139
 10
232.6346963508
 20
50.7824895557
 10
232.6153022226
 20
50.7818462383
  0
LWPOLYLINE
  5
359
100
AcDbEntity
  8
ASSI
100
AcDbPolyline
 62
253
  6
CONTINUOUS
 90
25
 70
0
 10
232.9094301139
 20
51.0815848252
 10
232.908786799
 20
51.061708957
 10
232.9069120495
 20
51.0420910849
 10
232.9038058652
 20
51.0227311923
 10
232.8994439638
 20
51.003543602
 10
232.8938506276
 20
50.9846139628
 10
232.887098704
 20
50.966199232
 10
232.8791742993
 20
50.9483136594
 10
232.8700913072
 20
50.9309429334
 10
232.8599642564
 20
50.9143011422
 10
232.8487799349
 20
50.8983972231
 10
232.8365515546
 20
50.8832221602
 10
232.8234332803
 20
50.8689630925
 10
232.8094138205
 20
50.8556315201
 10
232.7945044667
 20
50.8432158591
 10
232.7788932578
 20
50.8318686103
 10
232.762572674
 20
50.8216039864
 10
232.7455502352
 20
50.8124076979
 10
232.7280365402
 20
50.8043894887
 10
232.7100187132
 20
50.797563392
 10
232.6915096301
 20
50.7919153164
 10
232.6727585169
 20
50.7875128207
 10
232.6538484489
 20
50.7843784139
 10
232.6346963508
 20
50.7824895557
 10
232.6153022226
 20
50.7818462383
  0
LWPOLYLINE
  5
35A
100
AcDbEntity
  8
RACCORDO
100
AcDbPolyline
 62
253
  6
CONTINUOUS
 90
25
 70
0
 10
233.4074642292
 20
51.1628845884
 10
233.405035191
 20
51.1109131817
 10
233.3992695409
 20
51.05925058
 10
233.390197909
 20
51.0081105528
 10
233.3778667667
 20
50.9577047807
 10
233.362331986
 20
50.9082402916
 10
233.3436572079
 20
50.859919033
 10
233.3219234979
 20
50.8129371552
 10
233.2972271499
 20
50.7674900873
 10
233.2696725432
 20
50.7237701186
 10
233.2393798591
 20
50.6819577901
 10
233.2064785243
 20
50.6422212346
 10
233.1711030967
 20
50.6047222128
 10
233.1334041252
 20
50.5696143587
 10
233.093540467
 20
50.5370390083
 10
233.0516715224
 20
50.5071261091
 10
233.0079700203
 20
50.4799969802
 10
232.9626205004
 20
50.4557630941
 10
232.9158100294
 20
50.4345236991
 10
232.8677383003
 20
50.416367392
 10
232.8186000744
 20
50.4013649689
 10
232.7685813826
 20
50.3895734874
 10
232.7178826961
 20
50.3810430427
 10
232.6667191812
 20
50.3758128396
 10
232.6153022226
 20
50.3739069768
  0
LWPOLYLINE
  5
35B
100
AcDbEntity
  8
ASSI
100
AcDbPolyline
 62
253
  6
CONTINUOUS
 90
25
 70
0
 10
233.4074642292
 20
51.1628845884
 10
233.405035191
 20
51.1109131817
 10
233.3992695409
 20
51.05925058
 10
233.390197909
 20
51.0081105528
 10
233.3778667667
 20
50.9577047807
 10
233.362331986
 20
50.9082402916
 10
233.3436572079
 20
50.859919033
 10
233.3219234979
 20
50.8129371552
 10
233.2972271499
 20
50.7674900873
 10
233.2696725432
 20
50.7237701186
 10
233.2393798591
 20
50.6819577901
 10
233.2064785243
 20
50.6422212346
 10
233.1711030967
 20
50.6047222128
 10
233.1334041252
 20
50.5696143587
 10
233.093540467
 20
50.5370390083
 10
233.0516715224
 20
50.5071261091
 10
233.0079700203
 20
50.4799969802
 10
232.9626205004
 20
50.4557630941
 10
232.9158100294
 20
50.4345236991
 10
232.8677383003
 20
50.416367392
 10
232.8186000744
 20
50.4013649689
 10
232.7685813826
 20
50.3895734874
 10
232.7178826961
 20
50.3810430427
 10
232.6667191812
 20
50.3758128396
 10
232.6153022226
 20
50.3739069768
  0
LINE
  5
35C
100
AcDbEntity
  8
RACCORDO
100
AcDbLine
 62
253
  6
CONTINUOUS
 10
144.420932582
 20
139.7246369698
 11
232.6153022226
 21
139.7246369698
  0
LINE
  5
35D
100
AcDbEntity
  8
ASSI
100
AcDbLine
 62
253
  6
CONTINUOUS
 10
144.420932582
 20
139.7246369698
 11
232.6153022226
 21
139.7246369698
  0
LINE
  5
35E
100
AcDbEntity
  8
RACCORDO
100
AcDbLine
 62
253
  6
CONTINUOUS
 10
144.420932582
 20
140.1325762312
 11
232.6153022226
 21
140.1325762312
  0
LINE
  5
35F
100
AcDbEntity
  8
ASSI
100
AcDbLine
 62
253
  6
CONTINUOUS
 10
144.420932582
 20
140.1325762312
 11
232.6153022226
 21
140.1325762312
  0
LINE
  5
360
100
AcDbEntity
  8
RACCORDO
100
AcDbLine
 62
7
  6
CONTINUOUS
 10
144.3181174023
 20
140.253241604
 11
232.7181174023
 21
140.253241604
  0
LINE
  5
361
100
AcDbEntity
  8
ASSI
100
AcDbLine
 62
7
  6
CONTINUOUS
 10
144.3181174023
 20
140.253241604
 11
232.7181174023
 21
140.253241604
  0
LWPOLYLINE
  5
362
100
AcDbEntity
  8
RACCORDO
100
AcDbPolyline
 62
253
  6
CONTINUOUS
 90
25
 70
0
 10
232.6153022226
 20
139.7246369698
 10
232.6347004038
 20
139.7239928624
 10
232.6538550791
 20
139.7221034484
 10
232.6727662485
 20
139.7189687199
 10
232.6915165739
 20
139.7145660552
 10
232.7100233934
 20
139.7089180447
 10
232.7280387213
 20
139.7020924924
 10
232.7455499832
 20
139.6940753933
 10
232.7625697534
 20
139.6848806942
 10
232.778887769
 20
139.674618125
 10
232.7944961041
 20
139.663274095
 10
232.8094026845
 20
139.650862118
 10
232.8234210242
 20
139.6375325852
 10
232.8365410284
 20
139.6232727093
 10
232.8487727919
 20
139.6080951934
 10
232.8599601123
 20
139.5921886751
 10
232.8700891113
 20
139.5755445434
 10
232.8791736673
 20
139.5581713307
 10
232.8870992122
 20
139.5402834086
 10
232.8938517792
 20
139.5218661447
 10
232.8994453352
 20
139.5029341095
 10
232.9038072133
 20
139.4837455066
 10
232.9069131914
 20
139.4643864002
 10
232.9087874915
 20
139.4447706978
 10
232.9094301139
 20
139.4248983828
  0
LWPOLYLINE
  5
363
100
AcDbEntity
  8
ASSI
100
AcDbPolyline
 62
253
  6
CONTINUOUS
 90
25
 70
0
 10
232.6153022226
 20
139.7246369698
 10
232.6347004038
 20
139.7239928624
 10
232.6538550791
 20
139.7221034484
 10
232.6727662485
 20
139.7189687199
 10
232.6915165739
 20
139.7145660552
 10
232.7100233934
 20
139.7089180447
 10
232.7280387213
 20
139.7020924924
 10
232.7455499832
 20
139.6940753933
 10
232.7625697534
 20
139.6848806942
 10
232.778887769
 20
139.674618125
 10
232.7944961041
 20
139.663274095
 10
232.8094026845
 20
139.650862118
 10
232.8234210242
 20
139.6375325852
 10
232.8365410284
 20
139.6232727093
 10
232.8487727919
 20
139.6080951934
 10
232.8599601123
 20
139.5921886751
 10
232.8700891113
 20
139.5755445434
 10
232.8791736673
 20
139.5581713307
 10
232.8870992122
 20
139.5402834086
 10
232.8938517792
 20
139.5218661447
 10
232.8994453352
 20
139.5029341095
 10
232.9038072133
 20
139.4837455066
 10
232.9069131914
 20
139.4643864002
 10
232.9087874915
 20
139.4447706978
 10
232.9094301139
 20
139.4248983828
  0
LWPOLYLINE
  5
364
100
AcDbEntity
  8
RACCORDO
100
AcDbPolyline
 62
253
  6
CONTINUOUS
 90
25
 70
0
 10
232.6153022226
 20
140.1325762312
 10
232.6667187949
 20
140.1306703929
 10
232.7178821014
 20
140.1254402376
 10
232.7685807566
 20
140.1169098296
 10
232.8185996847
 20
140.1051183081
 10
232.8677383057
 20
140.0901157548
 10
232.9158102997
 20
140.0719593297
 10
232.9626208071
 20
140.0507199169
 10
233.007970255
 20
140.0264860895
 10
233.0516716321
 20
139.999357077
 10
233.0935404199
 20
139.9694443632
 10
233.1334038878
 20
139.9368692759
 10
233.1711026499
 20
139.9017617234
 10
233.2064778308
 20
139.8642630471
 10
233.2393789189
 20
139.8245268812
 10
233.2696714344
 20
139.7827149201
 10
233.2972259435
 20
139.7389952816
 10
233.3219222579
 20
139.6935485007
 10
233.3436560459
 20
139.6465667945
 10
233.3623310054
 20
139.5982455756
 10
233.3778660238
 20
139.5487809855
 10
233.3901974226
 20
139.4983749053
 10
233.3992692882
 20
139.4472343381
 10
233.4050351133
 20
139.3955709845
 10
233.4074642292
 20
139.3435986195
  0
LWPOLYLINE
  5
365
100
AcDbEntity
  8
ASSI
100
AcDbPolyline
 62
253
  6
CONTINUOUS
 90
25
 70
0
 10
232.6153022226
 20
140.1325762312
 10
232.6667187949
 20
140.1306703929
 10
232.7178821014
 20
140.1254402376
 10
232.7685807566
 20
140.1169098296
 10
232.8185996847
 20
140.1051183081
 10
232.8677383057
 20
140.0901157548
 10
232.9158102997
 20
140.0719593297
 10
232.9626208071
 20
140.0507199169
 10
233.007970255
 20
140.0264860895
 10
233.0516716321
 20
139.999357077
 10
233.0935404199
 20
139.9694443632
 10
233.1334038878
 20
139.9368692759
 10
233.1711026499
 20
139.9017617234
 10
233.2064778308
 20
139.8642630471
 10
233.2393789189
 20
139.8245268812
 10
233.2696714344
 20
139.7827149201
 10
233.2972259435
 20
139.7389952816
 10
233.3219222579
 20
139.6935485007
 10
233.3436560459
 20
139.6465667945
 10
233.3623310054
 20
139.5982455756
 10
233.3778660238
 20
139.5487809855
 10
233.3901974226
 20
139.4983749053
 10
233.3992692882
 20
139.4472343381
 10
233.4050351133
 20
139.3955709845
 10
233.4074642292
 20
139.3435986195
  0
LWPOLYLINE
  5
366
100
AcDbEntity
  8
RACCORDO
100
AcDbPolyline
 62
253
  6
CONTINUOUS
 90
19
 70
0
 10
233.4074577231
 20
51.1628846828
 10
233.4021275144
 20
51.1555991791
 10
233.3934589009
 20
51.1484170243
 10
233.3815106185
 20
51.1413868829
 10
233.3663636255
 20
51.1345563896
 10
233.3481205536
 20
51.1279718262
 10
233.3269050128
 20
51.121677808
 10
233.3028607536
 20
51.1157169818
 10
233.2761506931
 20
51.1101297368
 10
233.2469558111
 20
51.1049539308
 10
233.2154739241
 20
51.1002246337
 10
233.1819183442
 20
51.0959738901
 10
233.1465164348
 20
51.092230502
 10
233.1095080692
 20
51.0890198336
 10
233.0711440057
 20
51.0863636395
 10
233.0316841883
 20
51.0842799175
 10
232.9913959856
 20
51.0827827861
 10
232.9505523792
 20
51.0818823895
 10
232.9094301139
 20
51.0815848284
  0
LWPOLYLINE
  5
367
100
AcDbEntity
  8
ASSI
100
AcDbPolyline
 62
253
  6
CONTINUOUS
 90
19
 70
0
 10
233.4074577231
 20
51.1628846828
 10
233.4021275144
 20
51.1555991791
 10
233.3934589009
 20
51.1484170243
 10
233.3815106185
 20
51.1413868829
 10
233.3663636255
 20
51.1345563896
 10
233.3481205536
 20
51.1279718262
 10
233.3269050128
 20
51.121677808
 10
233.3028607536
 20
51.1157169818
 10
233.2761506931
 20
51.1101297368
 10
233.2469558111
 20
51.1049539308
 10
233.2154739241
 20
51.1002246337
 10
233.1819183442
 20
51.0959738901
 10
233.1465164348
 20
51.092230502
 10
233.1095080692
 20
51.0890198336
 10
233.0711440057
 20
51.0863636395
 10
233.0316841883
 20
51.0842799175
 10
232.9913959856
 20
51.0827827861
 10
232.9505523792
 20
51.0818823895
 10
232.9094301139
 20
51.0815848284
  0
LWPOLYLINE
  5
368
100
AcDbEntity
  8
RACCORDO
100
AcDbPolyline
 62
253
  6
CONTINUOUS
 90
19
 70
0
 10
233.4074642261
 20
139.3435986294
 10
233.4021339081
 20
139.3508841097
 10
233.3934651389
 20
139.3580662433
 10
233.381516656
 20
139.3650963656
 10
233.3663694197
 20
139.3719268421
 10
233.3481260642
 20
139.3785113909
 10
233.3269102026
 20
139.3848053967
 10
233.3028655888
 20
139.3907662127
 10
233.2761551436
 20
139.3963534497
 10
233.2469598513
 20
139.4015292498
 10
233.2154775325
 20
139.4062585429
 10
233.1819215045
 20
139.4105092845
 10
233.1465191354
 20
139.4142526725
 10
233.1095103038
 20
139.4174633424
 10
233.0711457734
 20
139.4201195395
 10
233.0316854936
 20
139.4222032659
 10
232.9913968386
 20
139.4237004029
 10
232.9505527953
 20
139.4246008062
 10
232.9094301139
 20
139.4248983748
  0
LWPOLYLINE
  5
369
100
AcDbEntity
  8
ASSI
100
AcDbPolyline
 62
253
  6
CONTINUOUS
 90
19
 70
0
 10
233.4074642261
 20
139.3435986294
 10
233.4021339081
 20
139.3508841097
 10
233.3934651389
 20
139.3580662433
 10
233.381516656
 20
139.3650963656
 10
233.3663694197
 20
139.3719268421
 10
233.3481260642
 20
139.3785113909
 10
233.3269102026
 20
139.3848053967
 10
233.3028655888
 20
139.3907662127
 10
233.2761551436
 20
139.3963534497
 10
233.2469598513
 20
139.4015292498
 10
233.2154775325
 20
139.4062585429
 10
233.1819215045
 20
139.4105092845
 10
233.1465191354
 20
139.4142526725
 10
233.1095103038
 20
139.4174633424
 10
233.0711457734
 20
139.4201195395
 10
233.0316854936
 20
139.4222032659
 10
232.9913968386
 20
139.4237004029
 10
232.9505527953
 20
139.4246008062
 10
232.9094301139
 20
139.4248983748
  0
LINE
  5
36A
100
AcDbEntity
  8
RACCORDO
100
AcDbLine
 62
7
  6
CONTINUOUS
 10
110.8889577933
 20
50.253241604
 11
111.7031316874
 21
50.253241604
  0
LINE
  5
36B
100
AcDbEntity
  8
ASSI
100
AcDbLine
 62
7
  6
CONTINUOUS
 10
110.8889577933
 20
50.253241604
 11
111.7031316874
 21
50.253241604
  0
LINE
  5
36C
100
AcDbEntity
  8
RACCORDO
100
AcDbLine
 62
253
  6
CONTINUOUS
 10
110.7401359379
 20
51.053241604
 11
111.5535305543
 21
51.053241604
  0
LINE
  5
36D
100
AcDbEntity
  8
ASSI
100
AcDbLine
 62
253
  6
CONTINUOUS
 10
110.7401359379
 20
51.053241604
 11
111.5535305543
 21
51.053241604
  0
LINE
  5
36E
100
AcDbEntity
  8
RACCORDO
100
AcDbLine
 62
7
  6
CONTINUOUS
 10
109.5097462713
 20
50.3739069768
 11
110.887182637
 21
50.2533969101
  0
LINE
  5
36F
100
AcDbEntity
  8
ASSI
100
AcDbLine
 62
7
  6
CONTINUOUS
 10
109.5097462713
 20
50.3739069768
 11
110.887182637
 21
50.2533969101
  0
LINE
  5
370
100
AcDbEntity
  8
RACCORDO
100
AcDbLine
 62
253
  6
CONTINUOUS
 10
109.455246685
 20
51.1628845886
 11
110.7405975431
 21
51.0503813874
  0
LINE
  5
371
100
AcDbEntity
  8
ASSI
100
AcDbLine
 62
253
  6
CONTINUOUS
 10
109.455246685
 20
51.1628845886
 11
110.7405975431
 21
51.0503813874
  0
LINE
  5
372
100
AcDbEntity
  8
0
100
AcDbLine
 62
7
  6
CONTINUOUS
 10
112.0067672987
 20
51.353241604
 11
111.4902348996
 21
51.3984323333
  0
LWPOLYLINE
  5
373
100
AcDbEntity
  8
0
100
AcDbPolyline
 62
7
  6
CONTINUOUS
 90
10
 70
0
 43
0.3500000006
 10
112.1636705933
 20
160.7968265991
 10
111.5208171387
 20
160.1539731445
 10
111.0922481689
 20
159.2968170776
 10
111.0922481689
 20
158.2253946533
 10
111.5208171387
 20
157.7968256836
 10
112.1636705933
 20
157.7968256836
 10
112.592239563
 20
158.2253946533
 10
112.592239563
 20
159.0825325928
 10
112.1636705933
 20
159.5111015625
 10
111.2351014709
 20
159.5111015625
  0
LINE
  5
374
100
AcDbEntity
  8
RACCORDO
100
AcDbLine
 62
253
  6
CONTINUOUS
 10
109.4552472557
 20
51.1628846828
 11
109.0068521073
 21
51.0815848284
  0
LINE
  5
375
100
AcDbEntity
  8
ASSI
100
AcDbLine
 62
253
  6
CONTINUOUS
 10
109.4552472557
 20
51.1628846828
 11
109.0068521073
 21
51.0815848284
  0
LWPOLYLINE
  5
376
100
AcDbEntity
  8
RACCORDO
100
AcDbPolyline
 62
253
  6
CONTINUOUS
 90
13
 70
0
 10
111.971951709
 20
51.5439907021
 10
112.1266109341
 20
51.5672972891
 10
112.2812710689
 20
51.5951402362
 10
112.4357802672
 20
51.6275292679
 10
112.5897959927
 20
51.6642860164
 10
112.7433234699
 20
51.7056084005
 10
112.896708767
 20
51.7520722808
 10
113.0499192094
 20
51.803616339
 10
113.2025441758
 20
51.8603256552
 10
113.3543503798
 20
51.922999218
 10
113.5051123873
 20
51.9919135372
 10
113.654626733
 20
52.0668205056
 10
113.8026897217
 20
52.1477340803
  0
LINE
  5
377
100
AcDbEntity
  8
RACCORDO
100
AcDbLine
 62
253
  6
CONTINUOUS
 10
113.8026897217
 20
52.1477340803
 11
111.8653652649
 21
52.1360300917
  0
LINE
  5
378
100
AcDbEntity
  8
0
100
AcDbLine
 62
253
  6
CONTINUOUS
 10
111.8274407389
 20
52.3497198936
 11
111.311761018
 21
52.3948609881
  0
LWPOLYLINE
  5
379
100
AcDbEntity
  8
RACCORDO
100
AcDbPolyline
 62
253
  6
CONTINUOUS
 90
17
 70
0
 10
109.5097462713
 20
140.1325762312
 10
109.5069851914
 20
140.1306703929
 10
109.5041783226
 20
140.1254402376
 10
109.501341757
 20
140.1169098296
 10
109.4984907484
 20
140.1051183081
 10
109.4956380202
 20
140.0901157548
 10
109.4927941243
 20
140.0719593297
 10
109.4899655249
 20
140.0507199169
 10
109.4871657629
 20
140.0264860895
 10
109.484414097
 20
139.999357077
 10
109.481712119
 20
139.9694443632
 10
109.4790686235
 20
139.9368692759
 10
109.4765114256
 20
139.9017617234
 10
109.4740378618
 20
139.8642630471
 10
109.4716514232
 20
139.8245268812
 10
109.4693869253
 20
139.7827149201
 10
109.4651998357
 20
139.6935485007
  0
LWPOLYLINE
  5
37A
100
AcDbEntity
  8
ASSI
100
AcDbPolyline
 62
253
  6
CONTINUOUS
 90
17
 70
0
 10
109.5097462713
 20
140.1325762312
 10
109.5069851914
 20
140.1306703929
 10
109.5041783226
 20
140.1254402376
 10
109.501341757
 20
140.1169098296
 10
109.4984907484
 20
140.1051183081
 10
109.4956380202
 20
140.0901157548
 10
109.4927941243
 20
140.0719593297
 10
109.4899655249
 20
140.0507199169
 10
109.4871657629
 20
140.0264860895
 10
109.484414097
 20
139.999357077
 10
109.481712119
 20
139.9694443632
 10
109.4790686235
 20
139.9368692759
 10
109.4765114256
 20
139.9017617234
 10
109.4740378618
 20
139.8642630471
 10
109.4716514232
 20
139.8245268812
 10
109.4693869253
 20
139.7827149201
 10
109.4651998357
 20
139.6935485007
  0
LINE
  5
37B
100
AcDbEntity
  8
RACCORDO
100
AcDbLine
 62
253
  6
CONTINUOUS
 10
106.9737622315
 20
72.6761449469
 11
106.5179706612
 21
72.6532416049
  0
LINE
  5
37C
100
AcDbEntity
  8
ASSI
100
AcDbLine
 62
253
  6
CONTINUOUS
 10
106.9737622315
 20
72.6761449469
 11
106.5179706612
 21
72.6532416049
  0
LINE
  5
37D
100
AcDbEntity
  8
RACCORDO
100
AcDbLine
 62
253
  6
CONTINUOUS
 10
106.9706258385
 20
72.7386193818
 11
106.5148307686
 21
72.7157690674
  0
LINE
  5
37E
100
AcDbEntity
  8
ASSI
100
AcDbLine
 62
253
  6
CONTINUOUS
 10
106.9706258385
 20
72.7386193818
 11
106.5148307686
 21
72.7157690674
  0
LINE
  5
37F
100
AcDbEntity
  8
0
100
AcDbLine
 62
253
  6
CONTINUOUS
 10
114.5201012266
 20
72.8846324115
 11
111.7886918558
 21
72.8392793094
  0
LINE
  5
380
100
AcDbEntity
  8
0
100
AcDbLine
 62
253
  6
CONTINUOUS
 10
111.7886918558
 20
72.8392793094
 11
109.5141848479
 21
72.8039082707
  0
LINE
  5
381
100
AcDbEntity
  8
RACCORDO
100
AcDbLine
 62
253
  6
CONTINUOUS
 10
108.2158253595
 20
72.7386193818
 11
106.9706258385
 21
72.7386193818
  0
LINE
  5
382
100
AcDbEntity
  8
ASSI
100
AcDbLine
 62
253
  6
CONTINUOUS
 10
108.2158253595
 20
72.7386193818
 11
106.9706258385
 21
72.7386193818
  0
LINE
  5
383
100
AcDbEntity
  8
0
100
AcDbLine
 62
253
  6
CONTINUOUS
 10
109.0135537918
 20
72.8039082707
 11
109.5141848479
 21
72.8039082707
  0
LWPOLYLINE
  5
384
100
AcDbEntity
  8
0
100
AcDbPolyline
 62
7
  6
CONTINUOUS
 90
3
 70
0
 43
0.3500000006
 10
110.0922478638
 20
158.0825322876
 10
110.0208166809
 20
157.8682478027
 10
109.8779543152
 20
157.5825411987
  0
LWPOLYLINE
  5
385
100
AcDbEntity
  8
RACCORDO
100
AcDbPolyline
 62
253
  6
CONTINUOUS
 90
19
 70
0
 10
113.8026896143
 20
52.1477340733
 10
113.8248597885
 20
52.0999192431
 10
113.8446470092
 20
52.0521832899
 10
113.8619569149
 20
52.0047538584
 10
113.8767069578
 20
51.9578571312
 10
113.8888267976
 20
51.9117167509
 10
113.8982586372
 20
51.8665527533
 10
113.904957498
 20
51.8225805176
 10
113.9088914346
 20
51.7800097398
 10
113.9100416869
 20
51.7390434325
 10
113.90840277
 20
51.6998769569
 10
113.9039824998
 20
51.662697091
 10
113.8968019561
 20
51.6276811388
 10
113.886895382
 20
51.5949960854
 10
113.8743100204
 20
51.5647977997
 10
113.8591058891
 20
51.5372302919
 10
113.8413554939
 20
51.5124250264
 10
113.8211434837
 20
51.490500295
 10
113.7985662462
 20
51.4715606527
  0
LINE
  5
386
100
AcDbEntity
  8
SCRITTE
100
AcDbLine
 62
253
  6
CONTINUOUS
 10
106.951572406
 20
66.3754402497
 11
106.8851364941
 21
67.1518695664
  0
LINE
  5
387
100
AcDbEntity
  8
SCRITTE
100
AcDbLine
 62
253
  6
CONTINUOUS
 10
106.8259495974
 20
67.882228959
 11
106.8866962768
 21
67.133141376
  0
LINE
  5
388
100
AcDbEntity
  8
SCRITTE
100
AcDbLine
 62
253
  6
CONTINUOUS
 10
106.7693378571
 20
68.6210176012
 11
106.8259495974
 21
67.882228959
  0
LINE
  5
389
100
AcDbEntity
  8
SCRITTE
100
AcDbLine
 62
253
  6
CONTINUOUS
 10
106.7693378571
 20
68.6210176012
 11
106.7266931231
 21
69.2079916795
  0
LWPOLYLINE
  5
38A
100
AcDbEntity
  8
RACCORDO
100
AcDbPolyline
 62
253
  6
CONTINUOUS
 90
10
 70
0
 10
109.455246685
 20
139.3435986194
 10
109.0423744384
 20
136.9713727412
 10
108.6637470196
 20
134.5934514253
 10
108.3193648549
 20
132.2103358404
 10
108.0091722215
 20
129.822537265
 10
107.7332256921
 20
127.430546495
 10
107.491694146
 20
125.0348336722
 10
107.2846341716
 20
122.6358891922
 10
107.1119900548
 20
120.2342238769
 10
106.9737622314
 20
117.8303382612
  0
LWPOLYLINE
  5
38B
100
AcDbEntity
  8
ASSI
100
AcDbPolyline
 62
253
  6
CONTINUOUS
 90
10
 70
0
 10
109.455246685
 20
139.3435986194
 10
109.0423744384
 20
136.9713727412
 10
108.6637470196
 20
134.5934514253
 10
108.3193648549
 20
132.2103358404
 10
108.0091722215
 20
129.822537265
 10
107.7332256921
 20
127.430546495
 10
107.491694146
 20
125.0348336722
 10
107.2846341716
 20
122.6358891922
 10
107.1119900548
 20
120.2342238769
 10
106.9737622314
 20
117.8303382612
  0
LWPOLYLINE
  5
38C
100
AcDbEntity
  8
RACCORDO
100
AcDbPolyline
 62
7
  6
CONTINUOUS
 90
10
 70
0
 10
110.7401359379
 20
139.453241604
 10
110.3194445261
 20
137.0630725318
 10
109.9337281894
 20
134.6674317663
 10
109.5829869279
 20
132.2663193076
 10
109.2671166888
 20
129.8588786804
 10
108.9862215249
 20
127.44596636
 10
108.7406135942
 20
125.0301517718
 10
108.5303969495
 20
122.6122913911
 10
108.3554675379
 20
120.1915287426
 10
108.2158253595
 20
117.7678638263
  0
LWPOLYLINE
  5
38D
100
AcDbEntity
  8
ASSI
100
AcDbPolyline
 62
7
  6
CONTINUOUS
 90
10
 70
0
 10
110.7401359379
 20
139.453241604
 10
110.3194445261
 20
137.0630725318
 10
109.9337281894
 20
134.6674317663
 10
109.5829869279
 20
132.2663193076
 10
109.2671166888
 20
129.8588786804
 10
108.9862215249
 20
127.44596636
 10
108.7406135942
 20
125.0301517718
 10
108.5303969495
 20
122.6122913911
 10
108.3554675379
 20
120.1915287426
 10
108.2158253595
 20
117.7678638263
  0
LWPOLYLINE
  5
38E
100
AcDbEntity
  8
RACCORDO
100
AcDbPolyline
 62
7
  6
CONTINUOUS
 90
5
 70
0
 10
110.7401036757
 20
51.053241604
 10
110.7468077594
 20
51.0014625066
 10
110.7530411838
 20
50.9498931975
 10
110.7588039488
 20
50.8987501382
 10
110.7639835648
 20
50.8482398225
  0
LWPOLYLINE
  5
38F
100
AcDbEntity
  8
ASSI
100
AcDbPolyline
 62
7
  6
CONTINUOUS
 90
5
 70
0
 10
110.7401036757
 20
51.053241604
 10
110.7468077594
 20
51.0014625066
 10
110.7530411838
 20
50.9498931975
 10
110.7588039488
 20
50.8987501382
 10
110.7639835648
 20
50.8482398225
  0
LWPOLYLINE
  5
390
100
AcDbEntity
  8
RACCORDO
100
AcDbPolyline
 62
7
  6
CONTINUOUS
 90
17
 70
0
 10
110.7821037012
 20
50.6570720718
 10
110.786533913
 20
50.6128403176
 10
110.791073345
 20
50.5701970219
 10
110.7956918773
 20
50.5294705377
 10
110.8005114407
 20
50.4910197277
 10
110.8055371003
 20
50.4550134459
 10
110.810763791
 20
50.4215901325
 10
110.8162982477
 20
50.390990803
 10
110.8221135738
 20
50.3633788402
 10
110.828236666
 20
50.3387496041
 10
110.8348549495
 20
50.3170800036
 10
110.8419625985
 20
50.2983929185
 10
110.8495654388
 20
50.2828573017
 10
110.8578683726
 20
50.2706173349
 10
110.8669397005
 20
50.2616704402
 10
110.876711122
 20
50.2559466467
 10
110.887182637
 20
50.2533969101
  0
LWPOLYLINE
  5
391
100
AcDbEntity
  8
ASSI
100
AcDbPolyline
 62
7
  6
CONTINUOUS
 90
17
 70
0
 10
110.7821037012
 20
50.6570720718
 10
110.786533913
 20
50.6128403176
 10
110.791073345
 20
50.5701970219
 10
110.7956918773
 20
50.5294705377
 10
110.8005114407
 20
50.4910197277
 10
110.8055371003
 20
50.4550134459
 10
110.810763791
 20
50.4215901325
 10
110.8162982477
 20
50.390990803
 10
110.8221135738
 20
50.3633788402
 10
110.828236666
 20
50.3387496041
 10
110.8348549495
 20
50.3170800036
 10
110.8419625985
 20
50.2983929185
 10
110.8495654388
 20
50.2828573017
 10
110.8578683726
 20
50.2706173349
 10
110.8669397005
 20
50.2616704402
 10
110.876711122
 20
50.2559466467
 10
110.887182637
 20
50.2533969101
  0
LINE
  5
392
100
AcDbEntity
  8
RACCORDO
100
AcDbLine
 62
7
  6
CONTINUOUS
 10
110.7639835648
 20
50.8482398225
 11
110.7821037012
 21
50.6570720718
  0
LINE
  5
393
100
AcDbEntity
  8
ASSI
100
AcDbLine
 62
7
  6
CONTINUOUS
 10
110.7639835648
 20
50.8482398225
 11
110.7821037012
 21
50.6570720718
  0
LWPOLYLINE
  5
394
100
AcDbEntity
  8
RACCORDO
100
AcDbPolyline
 62
7
  6
CONTINUOUS
 90
10
 70
0
 10
108.2158253595
 20
72.7386193818
 10
108.3554675379
 20
70.3149544655
 10
108.5303969495
 20
67.894191817
 10
108.7406135942
 20
65.4763314362
 10
108.9862215249
 20
63.0605168481
 10
109.2671166888
 20
60.6476045276
 10
109.5829869279
 20
58.2401639005
 10
109.9337281894
 20
55.8390514417
 10
110.3194445261
 20
53.4434106763
 10
110.7401359379
 20
51.053241604
  0
LWPOLYLINE
  5
395
100
AcDbEntity
  8
ASSI
100
AcDbPolyline
 62
7
  6
CONTINUOUS
 90
10
 70
0
 10
108.2158253595
 20
72.7386193818
 10
108.3554675379
 20
70.3149544655
 10
108.5303969495
 20
67.894191817
 10
108.7406135942
 20
65.4763314362
 10
108.9862215249
 20
63.0605168481
 10
109.2671166888
 20
60.6476045276
 10
109.5829869279
 20
58.2401639005
 10
109.9337281894
 20
55.8390514417
 10
110.3194445261
 20
53.4434106763
 10
110.7401359379
 20
51.053241604
  0
LWPOLYLINE
  5
396
100
AcDbEntity
  8
RACCORDO
100
AcDbPolyline
 62
253
  6
CONTINUOUS
 90
10
 70
0
 10
106.9737622314
 20
72.6761449469
 10
107.1119900236
 20
70.2722597711
 10
107.2846341202
 20
67.8705947264
 10
107.4916940855
 20
65.4716503484
 10
107.7332256381
 20
63.0759373816
 10
108.0091721852
 20
60.6839463004
 10
108.3193648342
 20
58.2961474797
 10
108.663747008
 20
55.9130317925
 10
109.0423744336
 20
53.5351104393
 10
109.455246685
 20
51.1628845886
  0
LWPOLYLINE
  5
397
100
AcDbEntity
  8
ASSI
100
AcDbPolyline
 62
253
  6
CONTINUOUS
 90
10
 70
0
 10
106.9737622314
 20
72.6761449469
 10
107.1119900236
 20
70.2722597711
 10
107.2846341202
 20
67.8705947264
 10
107.4916940855
 20
65.4716503484
 10
107.7332256381
 20
63.0759373816
 10
108.0091721852
 20
60.6839463004
 10
108.3193648342
 20
58.2961474797
 10
108.663747008
 20
55.9130317925
 10
109.0423744336
 20
53.5351104393
 10
109.455246685
 20
51.1628845886
  0
LWPOLYLINE
  5
398
100
AcDbEntity
  8
RACCORDO
100
AcDbPolyline
 62
253
  6
CONTINUOUS
 90
16
 70
0
 10
109.4693859449
 20
50.7237701186
 10
109.4716500873
 20
50.6819577901
 10
109.4740362384
 20
50.6422212346
 10
109.4765097426
 20
50.6047222128
 10
109.4790672501
 20
50.5696143587
 10
109.4817112809
 20
50.5370390083
 10
109.484413749
 20
50.5071261091
 10
109.4871657996
 20
50.4799969802
 10
109.4899658976
 20
50.4557630941
 10
109.4927946871
 20
50.4345236991
 10
109.4956385318
 20
50.416367392
 10
109.4984910553
 20
50.4013649689
 10
109.5013418878
 20
50.3895734874
 10
109.5041783717
 20
50.3810430427
 10
109.5069851959
 20
50.3758128396
 10
109.5097462713
 20
50.3739069768
  0
LWPOLYLINE
  5
399
100
AcDbEntity
  8
ASSI
100
AcDbPolyline
 62
253
  6
CONTINUOUS
 90
16
 70
0
 10
109.4693859449
 20
50.7237701186
 10
109.4716500873
 20
50.6819577901
 10
109.4740362384
 20
50.6422212346
 10
109.4765097426
 20
50.6047222128
 10
109.4790672501
 20
50.5696143587
 10
109.4817112809
 20
50.5370390083
 10
109.484413749
 20
50.5071261091
 10
109.4871657996
 20
50.4799969802
 10
109.4899658976
 20
50.4557630941
 10
109.4927946871
 20
50.4345236991
 10
109.4956385318
 20
50.416367392
 10
109.4984910553
 20
50.4013649689
 10
109.5013418878
 20
50.3895734874
 10
109.5041783717
 20
50.3810430427
 10
109.5069851959
 20
50.3758128396
 10
109.5097462713
 20
50.3739069768
  0
LINE
  5
39A
100
AcDbEntity
  8
RACCORDO
100
AcDbLine
 62
253
  6
CONTINUOUS
 10
109.4651998107
 20
50.8129371552
 11
109.4693859449
 21
50.7237701186
  0
LINE
  5
39B
100
AcDbEntity
  8
ASSI
100
AcDbLine
 62
253
  6
CONTINUOUS
 10
109.4651998107
 20
50.8129371552
 11
109.4693859449
 21
50.7237701186
  0
LINE
  5
39C
100
AcDbEntity
  8
RACCORDO
100
AcDbLine
 62
253
  6
CONTINUOUS
 10
109.4615777574
 20
50.9082402916
 11
109.4651998107
 21
50.8129371552
  0
LINE
  5
39D
100
AcDbEntity
  8
ASSI
100
AcDbLine
 62
253
  6
CONTINUOUS
 10
109.4615777574
 20
50.9082402916
 11
109.4651998107
 21
50.8129371552
  0
LINE
  5
39E
100
AcDbEntity
  8
RACCORDO
100
AcDbLine
 62
253
  6
CONTINUOUS
 10
109.4585464051
 20
51.0081105528
 11
109.4615777574
 21
50.9082402916
  0
LINE
  5
39F
100
AcDbEntity
  8
ASSI
100
AcDbLine
 62
253
  6
CONTINUOUS
 10
109.4585464051
 20
51.0081105528
 11
109.4615777574
 21
50.9082402916
  0
LWPOLYLINE
  5
3A0
100
AcDbEntity
  8
RACCORDO
100
AcDbPolyline
 62
253
  6
CONTINUOUS
 90
3
 70
0
 10
109.4552466865
 20
51.1628845884
 10
109.4562075321
 20
51.1109131817
 10
109.4585464051
 20
51.0081105528
  0
LWPOLYLINE
  5
3A1
100
AcDbEntity
  8
ASSI
100
AcDbPolyline
 62
253
  6
CONTINUOUS
 90
3
 70
0
 10
109.4552466865
 20
51.1628845884
 10
109.4562075321
 20
51.1109131817
 10
109.4585464051
 20
51.0081105528
  0
LWPOLYLINE
  5
3A2
100
AcDbEntity
  8
0
100
AcDbPolyline
 62
7
  6
CONTINUOUS
 90
4
 70
0
 43
0.3500000006
 10
107.0208157654
 20
158.2253946533
 10
107.0208157654
 20
159.0825325928
 10
107.4493847351
 20
159.5111015625
 10
108.0922472534
 20
159.5111015625
  0
LINE
  5
3A3
100
AcDbEntity
  8
RACCORDO
100
AcDbLine
 62
253
  6
CONTINUOUS
 10
109.4573020633
 20
139.4472343381
 11
109.4552466865
 21
139.3435986195
  0
LINE
  5
3A4
100
AcDbEntity
  8
ASSI
100
AcDbLine
 62
253
  6
CONTINUOUS
 10
109.4573020633
 20
139.4472343381
 11
109.4552466865
 21
139.3435986195
  0
LINE
  5
3A5
100
AcDbEntity
  8
RACCORDO
100
AcDbLine
 62
253
  6
CONTINUOUS
 10
109.4599731006
 20
139.5487809855
 11
109.4573020633
 21
139.4472343381
  0
LINE
  5
3A6
100
AcDbEntity
  8
ASSI
100
AcDbLine
 62
253
  6
CONTINUOUS
 10
109.4599731006
 20
139.5487809855
 11
109.4573020633
 21
139.4472343381
  0
LWPOLYLINE
  5
3A7
100
AcDbEntity
  8
RACCORDO
100
AcDbPolyline
 62
253
  6
CONTINUOUS
 90
12
 70
0
 10
106.7982734726
 20
114.0178273535
 10
106.657255222
 20
110.2664797496
 10
106.5475710859
 20
106.5140841935
 10
106.4692177873
 20
102.7609054445
 10
106.4221986011
 20
99.0072050956
 10
106.4065233552
 20
95.2532415726
 10
106.4221986022
 20
91.4992780401
 10
106.4692177895
 20
87.7455776759
 10
106.5475710886
 20
83.9923989245
 10
106.6572552244
 20
80.2400033854
 10
106.7982734741
 20
76.4886558115
 10
106.9737622314
 20
72.6761449469
  0
LWPOLYLINE
  5
3A8
100
AcDbEntity
  8
ASSI
100
AcDbPolyline
 62
253
  6
CONTINUOUS
 90
12
 70
0
 10
106.7982734726
 20
114.0178273535
 10
106.657255222
 20
110.2664797496
 10
106.5475710859
 20
106.5140841935
 10
106.4692177873
 20
102.7609054445
 10
106.4221986011
 20
99.0072050956
 10
106.4065233552
 20
95.2532415726
 10
106.4221986022
 20
91.4992780401
 10
106.4692177895
 20
87.7455776759
 10
106.5475710886
 20
83.9923989245
 10
106.6572552244
 20
80.2400033854
 10
106.7982734741
 20
76.4886558115
 10
106.9737622314
 20
72.6761449469
  0
LWPOLYLINE
  5
3A9
100
AcDbEntity
  8
RACCORDO
100
AcDbPolyline
 62
253
  6
CONTINUOUS
 90
3
 70
0
 10
109.4651998357
 20
139.6935485007
 10
109.4633168887
 20
139.6465667945
 10
109.4599731006
 20
139.5487809855
  0
LWPOLYLINE
  5
3AA
100
AcDbEntity
  8
ASSI
100
AcDbPolyline
 62
253
  6
CONTINUOUS
 90
3
 70
0
 10
109.4651998357
 20
139.6935485007
 10
109.4633168887
 20
139.6465667945
 10
109.4599731006
 20
139.5487809855
  0
LWPOLYLINE
  5
3AB
100
AcDbEntity
  8
DRAFT
100
AcDbPolyline
 62
7
  6
CONTINUOUS
 90
13
 70
0
 10
108.2158253595
 20
117.7678638263
 10
108.0430254111
 20
114.0183495087
 10
107.9016384341
 20
110.2676661033
 10
107.7916644286
 20
106.5158136101
 10
107.7130970378
 20
102.7624023333
 10
107.6659426185
 20
99.0078219687
 10
107.6502202409
 20
95.253241604
 10
107.6659426185
 20
91.4986612394
 10
107.7130970378
 20
87.7440808748
 10
107.7916644286
 20
83.9906695979
 10
107.9016384341
 20
80.2388171048
 10
108.0430254111
 20
76.4881336994
 10
108.2158253595
 20
72.7386193818
  0
LWPOLYLINE
  5
3AC
100
AcDbEntity
  8
ASSI
100
AcDbPolyline
 62
7
  6
CONTINUOUS
 90
13
 70
0
 10
108.2158253595
 20
117.7678638263
 10
108.0430254111
 20
114.0183495087
 10
107.9016384341
 20
110.2676661033
 10
107.7916644286
 20
106.5158136101
 10
107.7130970378
 20
102.7624023333
 10
107.6659426185
 20
99.0078219687
 10
107.6502202409
 20
95.253241604
 10
107.6659426185
 20
91.4986612394
 10
107.7130970378
 20
87.7440808748
 10
107.7916644286
 20
83.9906695979
 10
107.9016384341
 20
80.2388171048
 10
108.0430254111
 20
76.4881336994
 10
108.2158253595
 20
72.7386193818
  0
LINE
  5
3AD
100
AcDbEntity
  8
RACCORDO
100
AcDbLine
 62
253
  6
CONTINUOUS
 10
106.9737622314
 20
117.8303382612
 11
106.7982734726
 21
114.0178273535
  0
LINE
  5
3AE
100
AcDbEntity
  8
ASSI
100
AcDbLine
 62
253
  6
CONTINUOUS
 10
106.9737622314
 20
117.8303382612
 11
106.7982734726
 21
114.0178273535
  0
LWPOLYLINE
  5
3AF
100
AcDbEntity
  8
RACCORDO
100
AcDbPolyline
 62
7
  6
CONTINUOUS
 90
5
 70
0
 10
110.7639835648
 20
139.6582433327
 10
110.7588039909
 20
139.6077334741
 10
110.7530412352
 20
139.5565905339
 10
110.7468077968
 20
139.5050210912
 10
110.7401036757
 20
139.453241604
  0
LWPOLYLINE
  5
3B0
100
AcDbEntity
  8
ASSI
100
AcDbPolyline
 62
7
  6
CONTINUOUS
 90
5
 70
0
 10
110.7639835648
 20
139.6582433327
 10
110.7588039909
 20
139.6077334741
 10
110.7530412352
 20
139.5565905339
 10
110.7468077968
 20
139.5050210912
 10
110.7401036757
 20
139.453241604
  0
LINE
  5
3B1
100
AcDbEntity
  8
RACCORDO
100
AcDbLine
 62
7
  6
CONTINUOUS
 10
114.5201012266
 20
91.4005876426
 11
112.6853715911
 21
91.7240999797
  0
LINE
  5
3B2
100
AcDbEntity
  8
RACCORDO
100
AcDbLine
 62
7
  6
CONTINUOUS
 10
112.5201012266
 20
91.9210615303
 11
112.5201012266
 21
98.5854216778
  0
LINE
  5
3B3
100
AcDbEntity
  8
0
100
AcDbLine
 62
253
  6
CONTINUOUS
 10
112.5201012266
 20
95.253241604
 11
108.9501012266
 21
95.253241604
  0
LINE
  5
3B4
100
AcDbEntity
  8
RACCORDO
100
AcDbLine
 62
7
  6
CONTINUOUS
 10
114.5201012266
 20
52.1532413731
 11
114.5201012266
 21
72.8846324115
  0
LINE
  5
3B5
100
AcDbEntity
  8
DRAFT
100
AcDbLine
 62
7
  6
CONTINUOUS
 10
114.5201012266
 20
72.8846324115
 11
114.5201012266
 21
91.4005876426
  0
LINE
  5
3B6
100
AcDbEntity
  8
DRAFT
100
AcDbLine
 62
7
  6
CONTINUOUS
 10
114.5201012266
 20
99.1058955654
 11
114.5201012266
 21
117.6218507966
  0
LINE
  5
3B7
100
AcDbEntity
  8
RACCORDO
100
AcDbLine
 62
7
  6
CONTINUOUS
 10
114.5201012266
 20
117.6218507966
 11
114.5201012266
 21
138.3532418365
  0
LINE
  5
3B8
100
AcDbEntity
  8
RACCORDO
100
AcDbLine
 62
7
  6
CONTINUOUS
 10
112.6853715911
 20
98.7823832284
 11
114.5201012266
 21
99.1058955654
  0
LINE
  5
3B9
100
AcDbEntity
  8
0
100
AcDbLine
 62
253
  6
CONTINUOUS
 10
109.0135537918
 20
117.7025749374
 11
109.5141848479
 21
117.7025749374
  0
LINE
  5
3BA
100
AcDbEntity
  8
RACCORDO
100
AcDbLine
 62
253
  6
CONTINUOUS
 10
108.2158253595
 20
117.7678638263
 11
106.9706258385
 21
117.7678638263
  0
LINE
  5
3BB
100
AcDbEntity
  8
ASSI
100
AcDbLine
 62
253
  6
CONTINUOUS
 10
108.2158253595
 20
117.7678638263
 11
106.9706258385
 21
117.7678638263
  0
LINE
  5
3BC
100
AcDbEntity
  8
0
100
AcDbLine
 62
253
  6
CONTINUOUS
 10
114.5201012266
 20
117.6218507966
 11
109.5141848479
 21
117.7025749374
  0
LINE
  5
3BD
100
AcDbEntity
  8
RACCORDO
100
AcDbLine
 62
253
  6
CONTINUOUS
 10
106.9706258385
 20
117.7678638263
 11
106.5148307742
 21
117.7907141403
  0
LINE
  5
3BE
100
AcDbEntity
  8
ASSI
100
AcDbLine
 62
253
  6
CONTINUOUS
 10
106.9706258385
 20
117.7678638263
 11
106.5148307742
 21
117.7907141403
  0
LINE
  5
3BF
100
AcDbEntity
  8
RACCORDO
100
AcDbLine
 62
253
  6
CONTINUOUS
 10
106.9737622314
 20
117.8303382612
 11
106.517970644
 21
117.8532416041
  0
LINE
  5
3C0
100
AcDbEntity
  8
ASSI
100
AcDbLine
 62
253
  6
CONTINUOUS
 10
106.9737622314
 20
117.8303382612
 11
106.517970644
 21
117.8532416041
  0
LWPOLYLINE
  5
3C1
100
AcDbEntity
  8
0
100
AcDbPolyline
 62
7
  6
CONTINUOUS
 90
10
 70
0
 43
0.3500000006
 10
110.0208166809
 20
158.2968167725
 10
110.0922478638
 20
158.1539725342
 10
110.0922478638
 20
158.0825322876
 10
109.949385498
 20
157.9396880493
 10
109.8779543152
 20
157.9396880493
 10
109.806532196
 20
158.0111101685
 10
109.806532196
 20
158.0825322876
 10
109.8779543152
 20
158.2253946533
 10
109.949385498
 20
158.2968167725
 10
110.0208166809
 20
158.2968167725
  0
LWPOLYLINE
  5
3C2
100
AcDbEntity
  8
RACCORDO
100
AcDbPolyline
 62
253
  6
CONTINUOUS
 90
19
 70
0
 10
113.7985675991
 20
139.0349243986
 10
113.8211447868
 20
139.0159846346
 10
113.8413567351
 20
138.9940597743
 10
113.8591070576
 20
138.9692543751
 10
113.8743111069
 20
138.9416867308
 10
113.8868963785
 20
138.911488308
 10
113.8968028562
 20
138.8788031194
 10
113.903983299
 20
138.8437870363
 10
113.9084034657
 20
138.8066070451
 10
113.9100422786
 20
138.7674404513
 10
113.9088919236
 20
138.7264740345
 10
113.9049578877
 20
138.6839031567
 10
113.8982589324
 20
138.6399308299
 10
113.8888270048
 20
138.594766751
 10
113.8767070847
 20
138.5486262993
 10
113.8619569699
 20
138.5017295083
 10
113.8446470011
 20
138.4543000193
 10
113.8248597267
 20
138.4065640157
 10
113.8026895091
 20
138.3587491417
  0
LWPOLYLINE
  5
3C3
100
AcDbEntity
  8
RACCORDO
100
AcDbPolyline
 62
253
  6
CONTINUOUS
 90
10
 70
0
 10
113.8026897217
 20
138.3587491277
 10
113.9007985475
 20
138.2997855531
 10
113.9939935224
 20
138.2403445892
 10
114.0824130221
 20
138.1804289299
 10
114.1662284764
 20
138.1198693586
 10
114.2455611538
 20
138.0588403812
 10
114.3204758136
 20
137.9978610264
 10
114.3910912246
 20
137.9371068919
 10
114.4575838251
 20
137.8764093435
 10
114.5201012252
 20
137.8157717112
  0
LWPOLYLINE
  5
3C4
100
AcDbEntity
  8
RACCORDO
100
AcDbPolyline
 62
253
  6
CONTINUOUS
 90
13
 70
0
 10
113.8026897217
 20
52.1477340803
 10
113.8841545399
 20
52.1965037189
 10
113.96104593
 20
52.2447002713
 10
114.0334841007
 20
52.2923203647
 10
114.1014241677
 20
52.3394013768
 10
114.1651606148
 20
52.3858994259
 10
114.2252992031
 20
52.4316896
 10
114.2819646608
 20
52.4767457155
 10
114.3352244745
 20
52.521088469
 10
114.3855556933
 20
52.5646638232
 10
114.4331603633
 20
52.6074523438
 10
114.4779844037
 20
52.649468964
 10
114.5201012591
 20
52.690711529
  0
LWPOLYLINE
  5
3C5
100
AcDbEntity
  8
RACCORDO
100
AcDbPolyline
 62
7
  6
CONTINUOUS
 90
18
 70
0
 10
110.887182637
 20
140.253086298
 10
110.8767110713
 20
140.2505365595
 10
110.866939514
 20
140.2448126474
 10
110.8578679651
 20
140.2358653697
 10
110.8495646742
 20
140.2236245197
 10
110.8419613916
 20
140.208087426
 10
110.8348533688
 20
140.1893985298
 10
110.8282347966
 20
140.1677267709
 10
110.8221114841
 20
140.1430951359
 10
110.8162961105
 20
140.1154814104
 10
110.8107618754
 20
140.0848818427
 10
110.8055355792
 20
140.051459581
 10
110.8005103015
 20
140.0154548246
 10
110.7956910697
 20
139.9770059094
 10
110.7910728565
 20
139.9362817822
 10
110.7865336593
 20
139.8936404189
 10
110.7821035446
 20
139.8494094843
 10
110.7639835648
 20
139.6582433327
  0
LWPOLYLINE
  5
3C6
100
AcDbEntity
  8
ASSI
100
AcDbPolyline
 62
7
  6
CONTINUOUS
 90
18
 70
0
 10
110.887182637
 20
140.253086298
 10
110.8767110713
 20
140.2505365595
 10
110.866939514
 20
140.2448126474
 10
110.8578679651
 20
140.2358653697
 10
110.8495646742
 20
140.2236245197
 10
110.8419613916
 20
140.208087426
 10
110.8348533688
 20
140.1893985298
 10
110.8282347966
 20
140.1677267709
 10
110.8221114841
 20
140.1430951359
 10
110.8162961105
 20
140.1154814104
 10
110.8107618754
 20
140.0848818427
 10
110.8055355792
 20
140.051459581
 10
110.8005103015
 20
140.0154548246
 10
110.7956910697
 20
139.9770059094
 10
110.7910728565
 20
139.9362817822
 10
110.7865336593
 20
139.8936404189
 10
110.7821035446
 20
139.8494094843
 10
110.7639835648
 20
139.6582433327
  0
LINE
  5
3C7
100
AcDbEntity
  8
0
100
AcDbLine
 62
253
  6
CONTINUOUS
 10
111.311761018
 20
138.11162222
 11
111.8274407389
 21
138.1567633144
  0
LINE
  5
3C8
100
AcDbEntity
  8
0
100
AcDbLine
 62
7
  6
CONTINUOUS
 10
112.0067672987
 20
139.153241604
 11
111.4902348996
 21
139.1080508748
  0
LINE
  5
3C9
100
AcDbEntity
  8
RACCORDO
100
AcDbLine
 62
253
  6
CONTINUOUS
 10
109.455246685
 20
139.3435986194
 11
110.7405975431
 21
139.4561018207
  0
LINE
  5
3CA
100
AcDbEntity
  8
ASSI
100
AcDbLine
 62
253
  6
CONTINUOUS
 10
109.455246685
 20
139.3435986194
 11
110.7405975431
 21
139.4561018207
  0
LINE
  5
3CB
100
AcDbEntity
  8
RACCORDO
100
AcDbLine
 62
253
  6
CONTINUOUS
 10
110.7401359379
 20
139.453241604
 11
111.5535305543
 21
139.453241604
  0
LINE
  5
3CC
100
AcDbEntity
  8
ASSI
100
AcDbLine
 62
253
  6
CONTINUOUS
 10
110.7401359379
 20
139.453241604
 11
111.5535305543
 21
139.453241604
  0
LINE
  5
3CD
100
AcDbEntity
  8
RACCORDO
100
AcDbLine
 62
253
  6
CONTINUOUS
 10
113.8026897217
 20
138.3587491277
 11
111.8653652649
 21
138.3704531163
  0
LWPOLYLINE
  5
3CE
100
AcDbEntity
  8
RACCORDO
100
AcDbPolyline
 62
253
  6
CONTINUOUS
 90
16
 70
0
 10
111.9719520614
 20
138.9624924464
 10
112.0947226778
 20
138.944284648
 10
112.2174832017
 20
138.9232705412
 10
112.3401590781
 20
138.8994453796
 10
112.4624963511
 20
138.8729163273
 10
112.5845881295
 20
138.8435667261
 10
112.7068667189
 20
138.8110552533
 10
112.8293193676
 20
138.7754020901
 10
112.9517447316
 20
138.7365754587
 10
113.0742728637
 20
138.6941543481
 10
113.1969387314
 20
138.6481474432
 10
113.319435929
 20
138.5985321239
 10
113.4413901527
 20
138.5448387311
 10
113.5626161894
 20
138.486905223
 10
113.6830866457
 20
138.4248779475
 10
113.8026897217
 20
138.3587491277
  0
LINE
  5
3CF
100
AcDbEntity
  8
RACCORDO
100
AcDbLine
 62
253
  6
CONTINUOUS
 10
109.4552466869
 20
139.3435986294
 11
109.006852134
 21
139.4248983748
  0
LINE
  5
3D0
100
AcDbEntity
  8
ASSI
100
AcDbLine
 62
253
  6
CONTINUOUS
 10
109.4552466869
 20
139.3435986294
 11
109.006852134
 21
139.4248983748
  0
LINE
  5
3D1
100
AcDbEntity
  8
RACCORDO
100
AcDbLine
 62
7
  6
CONTINUOUS
 10
109.5097462713
 20
140.1325762312
 11
110.8889577933
 21
140.253241604
  0
LINE
  5
3D2
100
AcDbEntity
  8
ASSI
100
AcDbLine
 62
7
  6
CONTINUOUS
 10
109.5097462713
 20
140.1325762312
 11
110.8889577933
 21
140.253241604
  0
LINE
  5
3D3
100
AcDbEntity
  8
RACCORDO
100
AcDbLine
 62
7
  6
CONTINUOUS
 10
110.8889577933
 20
140.253241604
 11
111.7031316874
 21
140.253241604
  0
LINE
  5
3D4
100
AcDbEntity
  8
ASSI
100
AcDbLine
 62
7
  6
CONTINUOUS
 10
110.8889577933
 20
140.253241604
 11
111.7031316874
 21
140.253241604
  0
LWPOLYLINE
  5
3D5
100
AcDbEntity
  8
0
100
AcDbPolyline
 62
7
  6
CONTINUOUS
 90
13
 70
0
 43
0.3500000006
 10
107.4493847351
 20
159.5111015625
 10
107.1636690674
 20
159.7254041748
 10
107.1636690674
 20
160.3682576294
 10
107.4493847351
 20
160.7968265991
 10
108.0922472534
 20
160.7968265991
 10
108.3779538574
 20
160.3682576294
 10
108.3779538574
 20
159.7254041748
 10
108.0922472534
 20
159.5111015625
 10
108.5208162231
 20
159.0825325928
 10
108.5208162231
 20
158.2253946533
 10
108.0922472534
 20
157.7968256836
 10
107.4493847351
 20
157.7968256836
 10
107.0208157654
 20
158.2253946533
  0
ARC
  5
3D6
100
AcDbEntity
  8
RACCORDO
100
AcDbCircle
 62
7
  6
CONTINUOUS
 10
232.7181174023
 20
51.053241604
 40
0.8
100
AcDbArc
 50
270.0
 51
360.0
  0
ARC
  5
3D7
100
AcDbEntity
  8
RACCORDO
100
AcDbCircle
 62
7
  6
CONTINUOUS
 10
232.7181174023
 20
139.453241604
 40
0.8
100
AcDbArc
 50
0.0
 51
90.0
  0
ARC
  5
3D8
100
AcDbEntity
  8
RACCORDO
100
AcDbCircle
 62
7
  6
CONTINUOUS
 10
144.3181174023
 20
51.053241604
 40
0.8
100
AcDbArc
 50
180.0
 51
270.0
  0
ARC
  5
3D9
100
AcDbEntity
  8
RACCORDO
100
AcDbCircle
 62
7
  6
CONTINUOUS
 10
144.3181174023
 20
139.453241604
 40
0.8
100
AcDbArc
 50
90.0
 51
180.0
  0
ARC
  5
3DA
100
AcDbEntity
  8
ASSI
100
AcDbCircle
 62
7
  6
CONTINUOUS
 10
232.7181174023
 20
51.053241604
 40
0.8
100
AcDbArc
 50
270.0
 51
360.0
  0
ARC
  5
3DB
100
AcDbEntity
  8
ASSI
100
AcDbCircle
 62
7
  6
CONTINUOUS
 10
232.7181174023
 20
139.453241604
 40
0.8
100
AcDbArc
 50
0.0
 51
90.0
  0
ARC
  5
3DC
100
AcDbEntity
  8
ASSI
100
AcDbCircle
 62
7
  6
CONTINUOUS
 10
144.3181174023
 20
51.053241604
 40
0.8
100
AcDbArc
 50
180.0
 51
270.0
  0
ARC
  5
3DD
100
AcDbEntity
  8
ASSI
100
AcDbCircle
 62
7
  6
CONTINUOUS
 10
144.3181174023
 20
139.453241604
 40
0.8
100
AcDbArc
 50
90.0
 51
180.0
  0
ARC
  5
3DE
100
AcDbEntity
  8
RACCORDO
100
AcDbCircle
 62
7
  6
CONTINUOUS
 10
111.4197200319
 20
54.7121923412
 40
4.0200239337
100
AcDbArc
 50
279.9999994914
 51
320.4648724279
  0
ARC
  5
3DF
100
AcDbEntity
  8
RACCORDO
100
AcDbCircle
 62
7
  6
CONTINUOUS
 10
109.5533233509
 20
50.872008589
 40
0.5
100
AcDbArc
 50
190.3886735272
 51
265.0001329639
  0
ARC
  5
3E0
100
AcDbEntity
  8
ASSI
100
AcDbCircle
 62
7
  6
CONTINUOUS
 10
109.5533233509
 20
50.872008589
 40
0.5
100
AcDbArc
 50
190.3886735272
 51
265.0001329639
  0
ARC
  5
3E1
100
AcDbEntity
  8
RACCORDO
100
AcDbCircle
 62
7
  6
CONTINUOUS
 10
112.7201012266
 20
91.9210615303
 40
0.2
100
AcDbArc
 50
180.0
 51
260.0
  0
ARC
  5
3E2
100
AcDbEntity
  8
RACCORDO
100
AcDbCircle
 62
7
  6
CONTINUOUS
 10
274.4258146297
 20
81.096601604
 40
168.12
100
AcDbArc
 50
182.8787323946
 51
190.3881766496
  0
ARC
  5
3E3
100
AcDbEntity
  8
ASSI
100
AcDbCircle
 62
7
  6
CONTINUOUS
 10
274.4258146297
 20
81.096601604
 40
168.12
100
AcDbArc
 50
182.8787323946
 51
190.3881766496
  0
ARC
  5
3E4
100
AcDbEntity
  8
SCRITTE
100
AcDbCircle
 62
253
  6
CONTINUOUS
 10
274.4258146297
 20
81.096601604
 40
168.12
100
AcDbArc
 50
184.066222377
 51
185.0234474304
  0
ARC
  5
3E5
100
AcDbEntity
  8
RACCORDO
100
AcDbCircle
 62
7
  6
CONTINUOUS
 10
274.4258146297
 20
81.096601604
 40
165.62
100
AcDbArc
 50
182.8787323946
 51
190.7328340038
  0
ARC
  5
3E6
100
AcDbEntity
  8
ASSI
100
AcDbCircle
 62
7
  6
CONTINUOUS
 10
274.4258146297
 20
81.096601604
 40
165.62
100
AcDbArc
 50
182.8787323946
 51
190.7328340038
  0
ARC
  5
3E7
100
AcDbEntity
  8
0
100
AcDbCircle
 62
7
  6
CONTINUOUS
 10
274.4258146297
 20
81.096601604
 40
165.12
100
AcDbArc
 50
182.8787323946
 51
190.1014160662
  0
ARC
  5
3E8
100
AcDbEntity
  8
RACCORDO
100
AcDbCircle
 62
7
  6
CONTINUOUS
 10
274.4258146297
 20
81.096601604
 40
165.12
100
AcDbArc
 50
190.1014160662
 51
190.5891670948
  0
ARC
  5
3E9
100
AcDbEntity
  8
RACCORDO
100
AcDbCircle
 62
7
  6
CONTINUOUS
 10
112.7201012266
 20
98.5854216778
 40
0.2
100
AcDbArc
 50
100.0
 51
180.0
  0
ARC
  5
3EA
100
AcDbEntity
  8
RACCORDO
100
AcDbCircle
 62
7
  6
CONTINUOUS
 10
111.4197200319
 20
135.7942908668
 40
4.0200239337
100
AcDbArc
 50
39.5351276004
 51
80.0000000614
  0
ARC
  5
3EB
100
AcDbEntity
  8
RACCORDO
100
AcDbCircle
 62
7
  6
CONTINUOUS
 10
109.5533233509
 20
139.634474619
 40
0.5
100
AcDbArc
 50
94.9998670361
 51
169.6113264728
  0
ARC
  5
3EC
100
AcDbEntity
  8
ASSI
100
AcDbCircle
 62
7
  6
CONTINUOUS
 10
109.5533233509
 20
139.634474619
 40
0.5
100
AcDbArc
 50
94.9998670361
 51
169.6113264728
  0
ARC
  5
3ED
100
AcDbEntity
  8
RACCORDO
100
AcDbCircle
 62
7
  6
CONTINUOUS
 10
274.4258146297
 20
109.4098816041
 40
168.12
100
AcDbArc
 50
169.6120465221
 51
177.1212676054
  0
ARC
  5
3EE
100
AcDbEntity
  8
ASSI
100
AcDbCircle
 62
7
  6
CONTINUOUS
 10
274.4258146297
 20
109.4098816041
 40
168.12
100
AcDbArc
 50
169.6120465221
 51
177.1212676054
  0
ARC
  5
3EF
100
AcDbEntity
  8
RACCORDO
100
AcDbCircle
 62
7
  6
CONTINUOUS
 10
274.4258146297
 20
109.4098816041
 40
165.62
100
AcDbArc
 50
169.2676317374
 51
177.1212676054
  0
ARC
  5
3F0
100
AcDbEntity
  8
ASSI
100
AcDbCircle
 62
7
  6
CONTINUOUS
 10
274.4258146297
 20
109.4098816041
 40
165.62
100
AcDbArc
 50
169.2676317374
 51
177.1212676054
  0
ARC
  5
3F1
100
AcDbEntity
  8
0
100
AcDbCircle
 62
7
  6
CONTINUOUS
 10
274.4258146297
 20
109.4098816041
 40
165.12
100
AcDbArc
 50
169.8985839314
 51
177.1212676054
  0
ARC
  5
3F2
100
AcDbEntity
  8
RACCORDO
100
AcDbCircle
 62
7
  6
CONTINUOUS
 10
274.4258146297
 20
109.4098816041
 40
165.12
100
AcDbArc
 50
169.4108329051
 51
169.8985839314
  0
ARC
  5
3F3
100
AcDbEntity
  8
RACCORDO
100
AcDbCircle
 62
7
  6
CONTINUOUS
 10
555.9501012266
 20
95.253241604
 40
450.0
100
AcDbArc
 50
177.1212731691
 51
182.8787274802
  0
ARC
  5
3F4
100
AcDbEntity
  8
ASSI
100
AcDbCircle
 62
7
  6
CONTINUOUS
 10
555.9501012266
 20
95.253241604
 40
450.0
100
AcDbArc
 50
177.1212731691
 51
182.8787274802
  0
ARC
  5
3F5
100
AcDbEntity
  8
DRAFT
100
AcDbCircle
 62
7
  6
CONTINUOUS
 10
555.9501012266
 20
95.253241604
 40
447.5
100
AcDbArc
 50
177.1212676054
 51
182.8787323946
  0
ARC
  5
3F6
100
AcDbEntity
  8
ASSI
100
AcDbCircle
 62
7
  6
CONTINUOUS
 10
555.9501012266
 20
95.253241604
 40
447.5
100
AcDbArc
 50
177.1212676054
 51
182.8787323946
  0
ARC
  5
3F7
100
AcDbEntity
  8
0
100
AcDbCircle
 62
7
  6
CONTINUOUS
 10
555.9501012266
 20
95.253241604
 40
447.0
100
AcDbArc
 50
177.1212676054
 51
182.8787323946
  0
ELLIPSE
  5
3F8
100
AcDbEntity
  8
SCRITTE
100
AcDbEllipse
 62
253
  6
CONTINUOUS
 10
274.4258146297
 20
81.096601604
 30
0.0
 11
48.7185110775
 21
160.9063114933
 31
0.0
 40
1.0
 41
-4.3415775256
 42
-4.3394247074
  0
ELLIPSE
  5
3F9
100
AcDbEntity
  8
SCRITTE
100
AcDbEllipse
 62
253
  6
CONTINUOUS
 10
274.4258146297
 20
81.096601604
 30
0.0
 11
160.9063114933
 21
48.7185110775
 31
0.0
 40
1.0
 41
2.9267525219
 42
2.9352670493
  0
ELLIPSE
  5
3FA
100
AcDbEntity
  8
SCRITTE
100
AcDbEllipse
 62
253
  6
CONTINUOUS
 10
274.4258146297
 20
81.096601604
 30
0.0
 11
163.6226201093
 21
-38.6260610024
 31
0.0
 40
1.0
 41
-2.8342107457
 42
-2.830823883
  0
ELLIPSE
  5
3FB
100
AcDbEntity
  8
SCRITTE
100
AcDbEllipse
 62
253
  6
CONTINUOUS
 10
274.4258146297
 20
81.096601604
 30
0.0
 11
16.5661443326
 21
167.3018148794
 31
0.0
 40
1.0
 41
-4.5349018658
 42
-4.5345300304
  0
ELLIPSE
  5
3FC
100
AcDbEntity
  8
SCRITTE
100
AcDbEllipse
 62
253
  6
CONTINUOUS
 10
274.4258146297
 20
81.096601604
 30
0.0
 11
-103.4631006448
 21
132.5130982393
 31
0.0
 40
1.0
 41
0.9922263266
 42
0.9955631924
  0
ELLIPSE
  5
3FD
100
AcDbEntity
  8
SCRITTE
100
AcDbEllipse
 62
253
  6
CONTINUOUS
 10
274.4258146297
 20
81.096601604
 30
0.0
 11
155.3226270058
 21
64.3367386492
 31
0.0
 40
1.0
 41
2.8198635423
 42
2.8280547419
  0
ELLIPSE
  5
3FE
100
AcDbEntity
  8
SCRITTE
100
AcDbEllipse
 62
253
  6
CONTINUOUS
 10
274.4258146297
 20
81.096601604
 30
0.0
 11
136.3860361717
 21
98.3014930577
 31
0.0
 40
1.0
 41
2.595859102
 42
2.5962309374
  0
ELLIPSE
  5
3FF
100
AcDbEntity
  8
SCRITTE
100
AcDbEllipse
 62
253
  6
CONTINUOUS
 10
274.4258146297
 20
81.096601604
 30
0.0
 11
-118.8787920531
 21
118.8787920531
 31
0.0
 40
1.0
 41
0.8643151771
 42
0.8730738609
  0
ELLIPSE
  5
400
100
AcDbEntity
  8
SCRITTE
100
AcDbEllipse
 62
253
  6
CONTINUOUS
 10
274.4258146297
 20
81.096601604
 30
0.0
 11
-31.7927564566
 21
165.0865077373
 31
0.0
 40
1.0
 41
1.4515131086
 42
1.459460152
  0
ELLIPSE
  5
401
100
AcDbEntity
  8
SCRITTE
100
AcDbEllipse
 62
253
  6
CONTINUOUS
 10
274.4258146297
 20
81.096601604
 30
0.0
 11
20.5414502925
 21
166.8603704295
 31
0.0
 40
1.0
 41
-4.5131349665
 42
-4.5109361421
  0
ELLIPSE
  5
402
100
AcDbEntity
  8
SCRITTE
100
AcDbEllipse
 62
253
  6
CONTINUOUS
 10
274.4258146297
 20
81.096601604
 30
0.0
 11
168.12
 21
-0.0
 31
0.0
 40
1.0
 41
3.2205779817
 42
3.2292683511
  0
ELLIPSE
  5
403
100
AcDbEntity
  8
SCRITTE
100
AcDbEllipse
 62
253
  6
CONTINUOUS
 10
274.4258146297
 20
81.096601604
 30
0.0
 11
155.3226270058
 21
-64.3367386492
 31
0.0
 40
1.0
 41
3.6052617057
 42
3.6145340284
  0
ELLIPSE
  5
404
100
AcDbEntity
  8
SCRITTE
100
AcDbEllipse
 62
253
  6
CONTINUOUS
 10
274.4258146297
 20
81.096601604
 30
0.0
 11
168.12
 21
-0.0
 31
0.0
 40
1.0
 41
-3.0706226832
 42
-3.0626296824
  0
ELLIPSE
  5
405
100
AcDbEntity
  8
SCRITTE
100
AcDbEllipse
 62
253
  6
CONTINUOUS
 10
274.4258146297
 20
81.096601604
 30
0.0
 11
163.6226201093
 21
38.6260610024
 31
0.0
 40
1.0
 41
9.27187117
 42
9.2806298537
  0
ELLIPSE
  5
406
100
AcDbEntity
  8
SCRITTE
100
AcDbEllipse
 62
253
  6
CONTINUOUS
 10
274.4258146297
 20
81.096601604
 30
0.0
 11
148.2271335449
 21
-79.3287544404
 31
0.0
 40
1.0
 41
-2.5734311096
 42
-2.5712322853
  0
ELLIPSE
  5
407
100
AcDbEntity
  8
SCRITTE
100
AcDbEllipse
 62
253
  6
CONTINUOUS
 10
274.4258146297
 20
81.096601604
 30
0.0
 11
143.0114139001
 21
88.3859145695
 31
0.0
 40
1.0
 41
8.9421735723
 42
8.9588792993
  0
ELLIPSE
  5
408
100
AcDbEntity
  8
SCRITTE
100
AcDbEllipse
 62
253
  6
CONTINUOUS
 10
274.4258146297
 20
81.096601604
 30
0.0
 11
163.6226201093
 21
-38.6260610024
 31
0.0
 40
1.0
 41
3.4524749831
 42
3.4610921556
  0
ELLIPSE
  5
409
100
AcDbEntity
  8
SCRITTE
100
AcDbEllipse
 62
253
  6
CONTINUOUS
 10
274.4258146297
 20
81.096601604
 30
0.0
 11
118.8787920531
 21
118.8787920531
 31
0.0
 40
1.0
 41
2.4271644606
 42
2.4349838248
  0
ELLIPSE
  5
40A
100
AcDbEntity
  8
SCRITTE
100
AcDbEllipse
 62
253
  6
CONTINUOUS
 10
274.4258146297
 20
81.096601604
 30
0.0
 11
118.8787920531
 21
118.8787920531
 31
0.0
 40
1.0
 41
-3.8560208466
 42
-3.8445241905
  0
ELLIPSE
  5
40B
100
AcDbEntity
  8
SCRITTE
100
AcDbEllipse
 62
253
  6
CONTINUOUS
 10
274.4258146297
 20
81.096601604
 30
0.0
 11
88.3859145695
 21
143.0114139001
 31
0.0
 40
1.0
 41
-4.0796534515
 42
-4.071138924
  0
ENDSEC
  0
SECTION
  2
OBJECTS
  0
DICTIONARY
  5
C
100
AcDbDictionary
280
0
281
1
  3
ACAD_GROUP
350
D
  3
ACAD_MLINESTYLE
350
17
  3
ACAD_LAYOUT
350
1A
  3
ACAD_PLOTSETTINGS
350
19
  3
ACAD_PLOTSTYLENAME
350
E
  0
DICTIONARY
  5
D
102
{ACAD_REACTORS
330
C
102
}
100
AcDbDictionary
280
0
281
1
  0
ACDBDICTIONARYWDFLT
  5
E
102
{ACAD_REACTORS
330
C
102
}
100
AcDbDictionary
281
1
  3
Normal
350
F
100
AcDbDictionaryWithDefault
340
F
  0
DICTIONARY
  5
17
102
{ACAD_REACTORS
330
C
102
}
100
AcDbDictionary
280
0
281
1
  3
Standard
350
18
  0
DICTIONARY
  5
19
102
{ACAD_REACTORS
330
C
102
}
100
AcDbDictionary
281
1
  0
DICTIONARY
  5
1A
102
{ACAD_REACTORS
330
C
102
}
100
AcDbDictionary
281
1
  3
Model
350
40C
  3
Layout1
350
40D
  0
ACDBPLACEHOLDER
  5
F
102
{ACAD_REACTORS
330
E
102
}
  0
MLINESTYLE
  5
18
102
{ACAD_REACTORS
330
17
102
}
100
AcDbMlineStyle
  2
STANDARD
 70
0
  3

 62
256
 51
90.0
 52
90.0
 71
2
 49
0.5
 62
256
  6
BYLAYER
 49
-0.5
 62
256
  6
BYLAYER
  0
LAYOUT
  5
40C
102
{ACAD_REACTORS
330
1A
102
}
100
AcDbPlotSettings
  1

  2
none_device
  4
ISO_A4_(297.00_x_210.00_MM)
  6

 40
0.0
 41
0.0
 42
0.0
 43
0.0
 44
297.0
 45
210.0
 46
0.0
 47
0.0
 48
0.0
 49
0.0
140
0.0
141
0.0
142
1.0
143
1.0
 70
1024
 72
1
 73
0
 74
0
  7

 75
0
147
1.0
148
0.0
149
0.0
100
AcDbLayout
  1
Model
 70
0
 71
0
 10
0.0
 20
0.0
 11
297.0
 21
210.0
 12
0.0
 22
0.0
 32
0.0
 14
0.0
 24
0.0
 34
0.0
 15
0.0
 25
0.0
 35
0.0
146
0.0
 13
0.0
 23
0.0
 33
0.0
 16
1.0
 26
0.0
 36
0.0
 17
0.0
 27
1.0
 37
0.0
 76
0
330
213
345
0
346
0
  0
LAYOUT
  5
40D
102
{ACAD_REACTORS
330
1A
102
}
100
AcDbPlotSettings
  1

  2
none_device
  4
ISO_A4_(297.00_x_210.00_MM)
  6

 40
0.0
 41
0.0
 42
0.0
 43
0.0
 44
297.0
 45
210.0
 46
0.0
 47
0.0
 48
0.0
 49
0.0
140
0.0
141
0.0
142
1.0
143
1.0
 70
0
 72
1
 73
0
 74
0
  7

 75
0
147
1.0
148
0.0
149
0.0
100
AcDbLayout
  1
Layout1
 70
0
 71
1
 10
0.0
 20
0.0
 11
297.0
 21
210.0
 12
0.0
 22
0.0
 32
0.0
 14
0.0
 24
0.0
 34
0.0
 15
0.0
 25
0.0
 35
0.0
146
0.0
 13
0.0
 23
0.0
 33
0.0
 16
1.0
 26
0.0
 36
0.0
 17
0.0
 27
1.0
 37
0.0
 76
0
330
214
345
0
346
0
  0
ENDSEC
  0
EOF
