  0
SECTION
  2
HEADER
  9
$ACADVER
  1
AC1021
  9
$DWGCODEPAGE
  3
ANSI_1252
  9
$EXTMAX
 10
297.0
 20
210.0
 30
0.0
  9
$EXTMIN
 10
0.0
 20
0.0
 30
0.0
  9
$LIMMIN
 10
0.0
 20
0.0
  9
$LIMMAX
 10
297.0
 20
210.0
  9
$VIEWCTR
 10
148.5
 20
105.0
  9
$VIEWSIZE
 40
210.0
  9
$CLAYER
  8
0
  9
$LTSCALE
 40
16.335
  9
$CELTYPE
  6
BYLAYER
  9
$DIMSCALE
 40
1.0
  9
$DIMASZ
 40
3.0
  9
$DIMEXO
 40
1.85625
  9
$DIMDLI
 40
11.286
  9
$DIMEXE
 40
5.346
  9
$DIMCEN
 40
2.673
  9
$DIMLFAC
 40
1.0
  9
$DIMBLK
  1
_FILLED
  9
$DIMTXT
 40
3.0
  9
$DIMTOL
 70
1
  9
$DIMLIM
 70
0
  9
$DIMTFAC
 40
1.0
  9
$DIMTP
 40
0.01
  9
$DIMTM
 40
0.01
  9
$PDMODE
 70
3
  9
$PDSIZE
 40
3.0
  9
$HANDSEED
  5
435
  9
$TILEMODE
 70
1
  9
$MEASUREMENT
 70
1
  9
$INSUNITS
 70
4
  0
ENDSEC
  0
SECTION
  2
CLASSES
  0
CLASS
  1
ACDBDICTIONARYWDFLT
  2
AcDbDictionaryWithDefault
  3
AutoCAD 2000
 90
0
 91
1
280
0
281
0
  0
CLASS
  1
ACDBPLACEHOLDER
  2
AcDbPlaceHolder
  3
AutoCAD 2000
 90
0
 91
1
280
0
281
0
  0
CLASS
  1
LAYOUT
  2
AcDbLayout
  3
AutoCAD 2000
 90
0
 91
0
280
0
281
0
  0
ENDSEC
  0
SECTION
  2
TABLES
  0
TABLE
  2
VPORT
  5
8
100
AcDbSymbolTable
 70
2
  0
VPORT
  5
1F4
100
AcDbSymbolTableRecord
100
AcDbViewportTableRecord
  2
*ACTIVE
 70
0
 10
0.0
 20
0.0
 11
1.0
 21
1.0
 12
148.5
 22
105.0
 13
0.0
 23
0.0
 14
1.0
 24
1.0
 15
0.0
 25
0.0
 16
0.0
 26
0.0
 36
1.0
 17
0.0
 27
0.0
 37
0.0
 40
210.0
 41
1.4142857143
 42
50.0
 43
0.0
 44
0.0
 50
0.0
 51
0.0
 71
0
 72
100
 73
1
 74
1
 75
0
 76
0
 77
0
 78
0
  0
ENDTAB
  0
TABLE
  2
LTYPE
  5
5
100
AcDbSymbolTable
 70
6
  0
LTYPE
  5
14
100
AcDbSymbolTableRecord
100
AcDbLinetypeTableRecord
  2
BYBLOCK
 70
0
  3

 72
65
 73
0
 40
0.0
  0
LTYPE
  5
15
100
AcDbSymbolTableRecord
100
AcDbLinetypeTableRecord
  2
BYLAYER
 70
0
  3

 72
65
 73
0
 40
0.0
  0
LTYPE
  5
16
100
AcDbSymbolTableRecord
100
AcDbLinetypeTableRecord
  2
CONTINUOUS
 70
64
  3
Solid line
 72
65
 73
0
 40
0.0
  0
LTYPE
  5
1F5
100
AcDbSymbolTableRecord
100
AcDbLinetypeTableRecord
  2
CENTER
 70
64
  3
____ _ ____ _ ____ _ ____ _ ____ _ ____ _ ____
 72
65
 73
4
 40
0.6
 49
0.375
 74
0
 49
-0.075
 74
0
 49
0.075
 74
0
 49
-0.075
 74
0
  0
LTYPE
  5
1F6
100
AcDbSymbolTableRecord
100
AcDbLinetypeTableRecord
  2
HIDDEN
 70
64
  3
- - - - - - - - - - - - - - - - - - - -
 72
65
 73
2
 40
0.2
 49
0.1
 74
0
 49
-0.1
 74
0
  0
LTYPE
  5
1F7
100
AcDbSymbolTableRecord
100
AcDbLinetypeTableRecord
  2
PHANTOM
 70
64
  3
_____ _ _ _____ _ _ _____ _ _ _____
 72
65
 73
6
 40
0.8
 49
0.45
 74
0
 49
-0.05
 74
0
 49
0.1
 74
0
 49
-0.05
 74
0
 49
0.1
 74
0
 49
-0.05
 74
0
  0
LTYPE
  5
1F8
100
AcDbSymbolTableRecord
100
AcDbLinetypeTableRecord
  2
DOT
 70
64
  3
. . . . . . . . . . . . . . . . . . . .
 72
65
 73
2
 40
0.2
 49
0.1
 74
0
 49
-0.1
 74
0
  0
LTYPE
  5
1F9
100
AcDbSymbolTableRecord
100
AcDbLinetypeTableRecord
  2
DASHED
 70
64
  3
- - - - - - - - - - - - - - - - - - - -
 72
65
 73
2
 40
0.2
 49
0.1
 74
0
 49
-0.1
 74
0
  0
ENDTAB
  0
TABLE
  2
LAYER
  5
2
100
AcDbSymbolTable
 70
36
  0
LAYER
  5
10
100
AcDbSymbolTableRecord
100
AcDbLayerTableRecord
  2
0
 70
0
 62
7
  6
CONTINUOUS
370
-3
390
F
  0
LAYER
  5
1FA
100
AcDbSymbolTableRecord
100
AcDbLayerTableRecord
  2
DEFAULT_1
 70
0
 62
7
  6
CENTER
370
-3
390
F
  0
LAYER
  5
1FB
100
AcDbSymbolTableRecord
100
AcDbLayerTableRecord
  2
DEFAULT_2
 70
0
 62
7
  6
HIDDEN
370
-3
390
F
  0
LAYER
  5
1FC
100
AcDbSymbolTableRecord
100
AcDbLayerTableRecord
  2
DEFAULT_3
 70
0
 62
7
  6
PHANTOM
370
-3
390
F
  0
LAYER
  5
1FD
100
AcDbSymbolTableRecord
100
AcDbLayerTableRecord
  2
ASSI
 70
0
 62
7
  6
CONTINUOUS
370
-3
390
F
  0
LAYER
  5
1FE
100
AcDbSymbolTableRecord
100
AcDbLayerTableRecord
  2
COORDINATE
 70
0
 62
7
  6
CONTINUOUS
370
-3
390
F
  0
LAYER
  5
1FF
100
AcDbSymbolTableRecord
100
AcDbLayerTableRecord
  2
COPY_PUBLISH
 70
0
 62
7
  6
CONTINUOUS
370
-3
390
F
  0
LAYER
  5
200
100
AcDbSymbolTableRecord
100
AcDbLayerTableRecord
  2
COSMETICI
 70
0
 62
7
  6
CONTINUOUS
370
-3
390
F
  0
LAYER
  5
201
100
AcDbSymbolTableRecord
100
AcDbLayerTableRecord
  2
CURVE
 70
0
 62
7
  6
CONTINUOUS
370
-3
390
F
  0
LAYER
  5
202
100
AcDbSymbolTableRecord
100
AcDbLayerTableRecord
  2
DRAFT
 70
0
 62
7
  6
CONTINUOUS
370
-3
390
F
  0
LAYER
  5
203
100
AcDbSymbolTableRecord
100
AcDbLayerTableRecord
  2
IMPORT_IGES
 70
0
 62
7
  6
CONTINUOUS
370
-3
390
F
  0
LAYER
  5
204
100
AcDbSymbolTableRecord
100
AcDbLayerTableRecord
  2
INTF_1
 70
0
 62
7
  6
CONTINUOUS
370
-3
390
F
  0
LAYER
  5
205
100
AcDbSymbolTableRecord
100
AcDbLayerTableRecord
  2
NOTE
 70
0
 62
7
  6
CONTINUOUS
370
-3
390
F
  0
LAYER
  5
206
100
AcDbSymbolTableRecord
100
AcDbLayerTableRecord
  2
PIANI
 70
0
 62
7
  6
CONTINUOUS
370
-3
390
F
  0
LAYER
  5
207
100
AcDbSymbolTableRecord
100
AcDbLayerTableRecord
  2
PUNTI
 70
0
 62
7
  6
CONTINUOUS
370
-3
390
F
  0
LAYER
  5
208
100
AcDbSymbolTableRecord
100
AcDbLayerTableRecord
  2
PUNZONI
 70
0
 62
7
  6
CONTINUOUS
370
-3
390
F
  0
LAYER
  5
209
100
AcDbSymbolTableRecord
100
AcDbLayerTableRecord
  2
RACCORDO
 70
0
 62
7
  6
CONTINUOUS
370
-3
390
F
  0
LAYER
  5
20A
100
AcDbSymbolTableRecord
100
AcDbLayerTableRecord
  2
SCRITTA
 70
0
 62
7
  6
CONTINUOUS
370
-3
390
F
  0
LAYER
  5
20B
100
AcDbSymbolTableRecord
100
AcDbLayerTableRecord
  2
SIMBOLI
 70
0
 62
7
  6
CONTINUOUS
370
-3
390
F
  0
LAYER
  5
20C
100
AcDbSymbolTableRecord
100
AcDbLayerTableRecord
  2
SMUSSO
 70
0
 62
7
  6
CONTINUOUS
370
-3
390
F
  0
LAYER
  5
20D
100
AcDbSymbolTableRecord
100
AcDbLayerTableRecord
  2
SNAPLINE
 70
0
 62
7
  6
CONTINUOUS
370
-3
390
F
  0
LAYER
  5
20E
100
AcDbSymbolTableRecord
100
AcDbLayerTableRecord
  2
SUPERFICI
 70
0
 62
7
  6
CONTINUOUS
370
-3
390
F
  0
LAYER
  5
20F
100
AcDbSymbolTableRecord
100
AcDbLayerTableRecord
  2
TRASH
 70
0
 62
7
  6
CONTINUOUS
370
-3
390
F
  0
LAYER
  5
210
100
AcDbSymbolTableRecord
100
AcDbLayerTableRecord
  2
XSEC_DATUMS
 70
0
 62
7
  6
CONTINUOUS
370
-3
390
F
  0
ENDTAB
  0
TABLE
  2
STYLE
  5
3
100
AcDbSymbolTable
 70
1
  0
STYLE
  5
11
100
AcDbSymbolTableRecord
100
AcDbTextStyleTableRecord
  2
STANDARD
 70
0
 40
0.0
 41
0.8
 50
0.0
 71
0
 42
0.2
  3
txt
  4

  0
STYLE
  5
211
100
AcDbSymbolTableRecord
100
AcDbTextStyleTableRecord
  2
TEXTSTYLE_1
 70
0
 40
0.0
 41
0.8
 50
0.0
 71
0
 42
0.2
  3
gdt
  4

  0
ENDTAB
  0
TABLE
  2
VIEW
  5
6
100
AcDbSymbolTable
 70
0
  0
ENDTAB
  0
TABLE
  2
UCS
  5
7
100
AcDbSymbolTable
 70
0
  0
ENDTAB
  0
TABLE
  2
APPID
  5
9
100
AcDbSymbolTable
 70
1
  0
APPID
  5
212
100
AcDbSymbolTableRecord
100
AcDbRegAppTableRecord
  2
ACAD
 70
0
  0
ENDTAB
  0
TABLE
  2
BLOCK_RECORD
  5
1
100
AcDbSymbolTable
 70
0
  0
BLOCK_RECORD
  5
213
100
AcDbSymbolTableRecord
100
AcDbBlockTableRecord
  2
*Model_Space
  0
BLOCK_RECORD
  5
214
100
AcDbSymbolTableRecord
100
AcDbBlockTableRecord
  2
*Paper_Space
  0
BLOCK_RECORD
  5
215
100
AcDbSymbolTableRecord
100
AcDbBlockTableRecord
  2
_FILLED
  0
BLOCK_RECORD
  5
216
100
AcDbSymbolTableRecord
100
AcDbBlockTableRecord
  2
*D0
  0
BLOCK_RECORD
  5
217
100
AcDbSymbolTableRecord
100
AcDbBlockTableRecord
  2
*D1
  0
BLOCK_RECORD
  5
218
100
AcDbSymbolTableRecord
100
AcDbBlockTableRecord
  2
*D2
  0
ENDTAB
  0
TABLE
  2
DIMSTYLE
  5
A
100
AcDbSymbolTable
 70
1
100
AcDbDimStyleTable
 71
0
  0
DIMSTYLE
105
219
100
AcDbSymbolTableRecord
100
AcDbDimStyleTableRecord
  2
STANDARD
 70
0
  3

  4

 40
1.0
 41
3.0
 42
0.0625
 43
0.38
 44
0.18
 45
0.0
 46
0.0
 47
0.01
 48
0.01
140
3.0
141
0.09
142
0.0
143
25.4
144
1.0
145
0.0
146
1.0
147
0.09
 71
1.0
 72
0.0
 73
0
 74
0
 75
0
 76
0
 77
1
 78
8
170
0
171
2
172
0
173
0
174
0
175
0
176
0
177
0
178
0
270
2
271
2
272
2
273
2
274
2
275
0
280
0
281
0
282
0
283
1
284
8
285
0
286
0
287
3
288
0
340
11
341
215
342
215
343
215
344
215
  0
DIMSTYLE
105
21A
100
AcDbSymbolTableRecord
100
AcDbDimStyleTableRecord
  2
DIMSTYLE_1
 70
0
  3

  4

 40
1.0
 41
3.0
 42
0.0625
 43
0.38
 44
0.18
 45
0.0
 46
0.0
 47
0.0
 48
0.0
140
3.0
141
0.09
142
0.0
143
25.4
144
1.0
145
0.0
146
1.0
147
0.09
 71
0.0
 72
0.0
 73
0
 74
0
 75
0
 76
0
 77
1
 78
8
170
0
171
2
172
0
173
0
174
0
175
0
176
0
177
0
178
0
270
2
271
2
272
2
273
2
274
2
275
0
280
0
281
0
282
0
283
1
284
8
285
0
286
0
287
3
288
0
340
11
341
215
342
215
343
215
344
215
  0
DIMSTYLE
105
21B
100
AcDbSymbolTableRecord
100
AcDbDimStyleTableRecord
  2
DIMSTYLE_2
 70
0
  3

  4

 40
1.0
 41
3.0
 42
0.0625
 43
0.38
 44
0.18
 45
0.0
 46
0.0
 47
0.0
 48
0.0
140
3.0
141
0.09
142
0.0
143
25.4
144
1.0
145
0.0
146
1.0
147
0.09
 71
0.0
 72
0.0
 73
0
 74
0
 75
0
 76
0
 77
1
 78
8
170
0
171
2
172
0
173
0
174
0
175
0
176
0
177
0
178
0
270
2
271
1
272
1
273
2
274
2
275
0
280
0
281
0
282
0
283
1
284
8
285
0
286
0
287
3
288
0
340
11
341
215
342
215
343
215
344
215
  0
ENDTAB
  0
ENDSEC
  0
SECTION
  2
BLOCKS
  0
BLOCK
  5
20
100
AcDbEntity
  8
0
100
AcDbBlockBegin
  2
*Model_Space
 70
0
 10
0.0
 20
0.0
 30
0.0
  3
*Model_Space
  1

  0
ENDBLK
  5
21
100
AcDbEntity
  8
0
100
AcDbBlockEnd
  0
BLOCK
  5
1C
100
AcDbEntity
  8
0
100
AcDbBlockBegin
  2
*Paper_Space
 70
0
 10
0.0
 20
0.0
 30
0.0
  3
*Paper_Space
  1

  0
ENDBLK
  5
1D
100
AcDbEntity
  8
0
100
AcDbBlockEnd
  0
BLOCK
  5
21C
100
AcDbEntity
  8
0
100
AcDbBlockBegin
  2
_FILLED
 70
64
 10
0.0
 20
0.0
  3
_FILLED
  1

  0
SOLID
  5
21D
100
AcDbEntity
  8
0
  6
BYBLOCK
 62
0
100
AcDbTrace
 10
0.0
 20
0.0
 11
-1.0
 21
0.3166666667
 12
-1.0
 22
-0.3166666667
 13
-1.0
 23
-0.3166666667
  0
ENDBLK
  5
21E
100
AcDbEntity
  8
0
  6
BYBLOCK
 62
0
100
AcDbBlockEnd
  0
BLOCK
  5
21F
100
AcDbEntity
  8
0
100
AcDbBlockBegin
 62
7
  6
CONTINUOUS
  2
*D0
 70
65
 10
0.0
 20
0.0
  3
*D0
  1

  0
MTEXT
  5
220
100
AcDbEntity
  8
0
100
AcDbMText
 62
7
  6
CONTINUOUS
  7
STANDARD
 71
2
 72
1
 10
171.7565102001
 20
161.0698089917
 30
0.0
 11
1.0
 21
0.0
 31
0.0
 44
0.9
  1
122
 40
3.0
 41
6.4285714286
  0
LINE
  5
221
100
AcDbEntity
  8
0
100
AcDbLine
 62
7
  6
CONTINUOUS
 10
232.7565102001
 20
139.0198089917
 11
232.7565102001
 21
158.8198089917
  0
LINE
  5
222
100
AcDbEntity
  8
0
100
AcDbLine
 62
7
  6
CONTINUOUS
 10
110.7565102001
 20
139.0198089917
 11
110.7565102001
 21
158.8198089917
  0
LINE
  5
223
100
AcDbEntity
  8
0
100
AcDbLine
 62
7
  6
CONTINUOUS
 10
232.7565102001
 20
157.3198089917
 11
171.7565102001
 21
157.3198089917
  0
LINE
  5
224
100
AcDbEntity
  8
0
100
AcDbLine
 62
7
  6
CONTINUOUS
 10
110.7565102001
 20
157.3198089917
 11
171.7565102001
 21
157.3198089917
  0
INSERT
  5
225
100
AcDbEntity
  8
0
100
AcDbBlockReference
 62
7
  6
CONTINUOUS
  2
_FILLED
 10
232.7565102001
 20
157.3198089917
 41
3.0
 42
3.0
 43
3.0
  0
INSERT
  5
226
100
AcDbEntity
  8
0
100
AcDbBlockReference
 62
7
  6
CONTINUOUS
  2
_FILLED
 10
110.7565102001
 20
157.3198089917
 41
3.0
 42
3.0
 43
3.0
 50
180.0
  0
ENDBLK
  5
227
100
AcDbEntity
  8
0
  6
BYBLOCK
 62
0
100
AcDbBlockEnd
  0
BLOCK
  5
228
100
AcDbEntity
  8
0
100
AcDbBlockBegin
 62
7
  6
CONTINUOUS
  2
*D1
 70
65
 10
0.0
 20
0.0
  3
*D1
  1

  0
MTEXT
  5
229
100
AcDbEntity
  8
0
100
AcDbMText
 62
7
  6
CONTINUOUS
  7
STANDARD
 71
2
 72
1
 10
246.2430299006
 20
94.3198089917
 30
0.0
 11
0.0
 21
1.0
 31
0.0
 44
0.9
  1
90
 40
3.0
 41
4.7142857143
  0
LINE
  5
22A
100
AcDbEntity
  8
0
100
AcDbLine
 62
7
  6
CONTINUOUS
 10
232.4565102001
 20
139.3198089917
 11
251.4930299006
 21
139.3198089917
  0
LINE
  5
22B
100
AcDbEntity
  8
0
100
AcDbLine
 62
7
  6
CONTINUOUS
 10
232.4565102001
 20
49.3198089917
 11
251.4930299006
 21
49.3198089917
  0
LINE
  5
22C
100
AcDbEntity
  8
0
100
AcDbLine
 62
7
  6
CONTINUOUS
 10
249.9930299006
 20
139.3198089917
 11
249.9930299006
 21
94.3198089917
  0
LINE
  5
22D
100
AcDbEntity
  8
0
100
AcDbLine
 62
7
  6
CONTINUOUS
 10
249.9930299006
 20
49.3198089917
 11
249.9930299006
 21
94.3198089917
  0
INSERT
  5
22E
100
AcDbEntity
  8
0
100
AcDbBlockReference
 62
7
  6
CONTINUOUS
  2
_FILLED
 10
249.9930299006
 20
139.3198089917
 41
3.0
 42
3.0
 43
3.0
 50
90.0
  0
INSERT
  5
22F
100
AcDbEntity
  8
0
100
AcDbBlockReference
 62
7
  6
CONTINUOUS
  2
_FILLED
 10
249.9930299006
 20
49.3198089917
 41
3.0
 42
3.0
 43
3.0
 50
270.0
  0
ENDBLK
  5
230
100
AcDbEntity
  8
0
  6
BYBLOCK
 62
0
100
AcDbBlockEnd
  0
BLOCK
  5
231
100
AcDbEntity
  8
0
100
AcDbBlockBegin
 62
7
  6
CONTINUOUS
  2
*D2
 70
65
 10
0.0
 20
0.0
  3
*D2
  1

  0
MTEXT
  5
232
100
AcDbEntity
  8
0
100
AcDbMText
 62
7
  6
CONTINUOUS
  7
STANDARD
 71
2
 72
1
 10
87.9523915755
 20
161.0698089991
 30
0.0
 11
1.0
 21
0.0
 31
0.0
 44
0.9
  1
8,6
 40
3.0
 41
6.4285714286
  0
LINE
  5
233
100
AcDbEntity
  8
0
100
AcDbLine
 62
7
  6
CONTINUOUS
 10
92.2373916316
 20
137.3823391291
 11
92.2373915956
 21
158.8198090063
  0
LINE
  5
234
100
AcDbEntity
  8
0
100
AcDbLine
 62
7
  6
CONTINUOUS
 10
83.6673916655
 20
94.8198082355
 11
83.667391558
 21
158.8198089919
  0
LINE
  5
235
100
AcDbEntity
  8
0
100
AcDbLine
 62
7
  6
CONTINUOUS
 10
92.2373915981
 20
157.3198090063
 11
96.2373915981
 21
157.319809013
  0
LINE
  5
236
100
AcDbEntity
  8
0
100
AcDbLine
 62
7
  6
CONTINUOUS
 10
96.2373915981
 20
157.319809013
 11
87.9523915793
 21
157.3198089991
  0
LINE
  5
237
100
AcDbEntity
  8
0
100
AcDbLine
 62
7
  6
CONTINUOUS
 10
83.6673915605
 20
157.3198089919
 11
79.6673915605
 21
157.3198089852
  0
LINE
  5
238
100
AcDbEntity
  8
0
100
AcDbLine
 62
7
  6
CONTINUOUS
 10
79.6673915605
 20
157.3198089852
 11
87.9523915793
 21
157.3198089991
  0
INSERT
  5
239
100
AcDbEntity
  8
0
100
AcDbBlockReference
 62
7
  6
CONTINUOUS
  2
_FILLED
 10
92.2373915981
 20
157.3198090063
 41
3.0
 42
3.0
 43
3.0
 50
180.0000000963
  0
INSERT
  5
23A
100
AcDbEntity
  8
0
100
AcDbBlockReference
 62
7
  6
CONTINUOUS
  2
_FILLED
 10
83.6673915605
 20
157.3198089919
 41
3.0
 42
3.0
 43
3.0
 50
0.0000000963
  0
ENDBLK
  5
23B
100
AcDbEntity
  8
0
  6
BYBLOCK
 62
0
100
AcDbBlockEnd
  0
ENDSEC
  0
SECTION
  2
ENTITIES
  0
DIMENSION
  5
23C
100
AcDbEntity
  8
0
100
AcDbDimension
 62
7
  6
CONTINUOUS
  2
*D0
 10
110.7565102001
 20
157.3198089917
 11
168.5422244858
 21
159.5698089917
 70
160
 71
2
 42
122.0
  3
DIMSTYLE_1
100
AcDbAlignedDimension
 13
232.7565102001
 23
139.0198089917
 14
110.7565102001
 24
139.0198089917
 50
180.0
100
AcDbRotatedDimension
  0
DIMENSION
  5
23D
100
AcDbEntity
  8
0
100
AcDbDimension
 62
7
  6
CONTINUOUS
  2
*D1
 10
249.9930299006
 20
49.3198089917
 11
248.7992034244
 21
92.2125311418
 70
160
 71
2
 42
90.0
  3
DIMSTYLE_1
100
AcDbAlignedDimension
 13
232.4565102001
 23
139.3198089917
 14
232.4565102001
 24
49.3198089917
 50
270.0
100
AcDbRotatedDimension
  0
DIMENSION
  5
23E
100
AcDbEntity
  8
0
100
AcDbDimension
 62
7
  6
CONTINUOUS
  2
*D2
 10
83.6673915605
 20
157.3198089919
 11
84.7381058612
 21
159.5698089991
 70
160
 71
2
 42
8.5700000376
  3
DIMSTYLE_2
100
AcDbAlignedDimension
 13
92.2373916316
 23
137.3823391291
 14
83.6673916655
 24
94.8198082355
 50
180.0000000963
100
AcDbRotatedDimension
  0
LWPOLYLINE
  5
23F
100
AcDbEntity
  8
RACCORDO
100
AcDbPolyline
 62
253
  6
CONTINUOUS
 90
19
 70
0
 10
110.8671698793
 20
138.4101659129
 10
110.872500088
 20
138.4174514166
 10
110.8811687016
 20
138.4246335714
 10
110.8931169839
 20
138.4316637128
 10
110.9082639769
 20
138.4384942061
 10
110.9265070488
 20
138.4450787696
 10
110.9477225896
 20
138.4513727877
 10
110.9717668488
 20
138.4573336139
 10
110.9984769093
 20
138.4629208589
 10
111.0276717913
 20
138.4680966649
 10
111.0591536784
 20
138.472825962
 10
111.0927092582
 20
138.4770767056
 10
111.1281111676
 20
138.4808200937
 10
111.1651195332
 20
138.4840307621
 10
111.2034835967
 20
138.4866869562
 10
111.2429434142
 20
138.4887706782
 10
111.2832316168
 20
138.4902678096
 10
111.3240752232
 20
138.4911682062
 10
111.3651974886
 20
138.4914657673
  0
LWPOLYLINE
  5
240
100
AcDbEntity
  8
ASSI
100
AcDbPolyline
 62
253
  6
CONTINUOUS
 90
19
 70
0
 10
110.8671698793
 20
138.4101659129
 10
110.872500088
 20
138.4174514166
 10
110.8811687016
 20
138.4246335714
 10
110.8931169839
 20
138.4316637128
 10
110.9082639769
 20
138.4384942061
 10
110.9265070488
 20
138.4450787696
 10
110.9477225896
 20
138.4513727877
 10
110.9717668488
 20
138.4573336139
 10
110.9984769093
 20
138.4629208589
 10
111.0276717913
 20
138.4680966649
 10
111.0591536784
 20
138.472825962
 10
111.0927092582
 20
138.4770767056
 10
111.1281111676
 20
138.4808200937
 10
111.1651195332
 20
138.4840307621
 10
111.2034835967
 20
138.4866869562
 10
111.2429434142
 20
138.4887706782
 10
111.2832316168
 20
138.4902678096
 10
111.3240752232
 20
138.4911682062
 10
111.3651974886
 20
138.4914657673
  0
LWPOLYLINE
  5
241
100
AcDbEntity
  8
RACCORDO
100
AcDbPolyline
 62
253
  6
CONTINUOUS
 90
19
 70
0
 10
110.8671633764
 20
50.2294519663
 10
110.8724936943
 20
50.222166486
 10
110.8811624635
 20
50.2149843524
 10
110.8931109464
 20
50.2079542301
 10
110.9082581827
 20
50.2011237537
 10
110.9265015381
 20
50.1945392048
 10
110.9477173998
 20
50.188245199
 10
110.9717620136
 20
50.182284383
 10
110.9984724587
 20
50.176697146
 10
111.0276677511
 20
50.1715213459
 10
111.0591500699
 20
50.1667920528
 10
111.0927060979
 20
50.1625413112
 10
111.128108467
 20
50.1587979232
 10
111.1651172986
 20
50.1555872533
 10
111.203481829
 20
50.1529310562
 10
111.2429421088
 20
50.1508473297
 10
111.2832307638
 20
50.1493501927
 10
111.3240748071
 20
50.1484497895
 10
111.3651974886
 20
50.1481522209
  0
LWPOLYLINE
  5
242
100
AcDbEntity
  8
ASSI
100
AcDbPolyline
 62
253
  6
CONTINUOUS
 90
19
 70
0
 10
110.8671633764
 20
50.2294519663
 10
110.8724936943
 20
50.222166486
 10
110.8811624635
 20
50.2149843524
 10
110.8931109464
 20
50.2079542301
 10
110.9082581827
 20
50.2011237537
 10
110.9265015381
 20
50.1945392048
 10
110.9477173998
 20
50.188245199
 10
110.9717620136
 20
50.182284383
 10
110.9984724587
 20
50.176697146
 10
111.0276677511
 20
50.1715213459
 10
111.0591500699
 20
50.1667920528
 10
111.0927060979
 20
50.1625413112
 10
111.128108467
 20
50.1587979232
 10
111.1651172986
 20
50.1555872533
 10
111.203481829
 20
50.1529310562
 10
111.2429421088
 20
50.1508473297
 10
111.2832307638
 20
50.1493501927
 10
111.3240748071
 20
50.1484497895
 10
111.3651974886
 20
50.1481522209
  0
LINE
  5
243
100
AcDbEntity
  8
RACCORDO
100
AcDbLine
 62
7
  6
CONTINUOUS
 10
110.7565102001
 20
50.1198089917
 11
110.7565102001
 21
71.8051867694
  0
LINE
  5
244
100
AcDbEntity
  8
DRAFT
100
AcDbLine
 62
7
  6
CONTINUOUS
 10
110.7565102001
 20
71.8051867694
 11
110.7565102001
 21
116.834431214
  0
LINE
  5
245
100
AcDbEntity
  8
RACCORDO
100
AcDbLine
 62
7
  6
CONTINUOUS
 10
110.7565102001
 20
116.834431214
 11
110.7565102001
 21
138.5198089917
  0
LINE
  5
246
100
AcDbEntity
  8
ASSI
100
AcDbLine
 62
7
  6
CONTINUOUS
 10
110.7565102001
 20
50.1198089917
 11
110.7565102001
 21
138.5198089917
  0
LINE
  5
247
100
AcDbEntity
  8
RACCORDO
100
AcDbLine
 62
253
  6
CONTINUOUS
 10
110.8671633733
 20
50.2294519763
 11
110.8653327271
 21
86.8121459402
  0
LINE
  5
248
100
AcDbEntity
  8
ASSI
100
AcDbLine
 62
253
  6
CONTINUOUS
 10
110.8671633733
 20
50.2294519763
 11
110.8653327271
 21
86.8121459402
  0
LWPOLYLINE
  5
249
100
AcDbEntity
  8
RACCORDO
100
AcDbPolyline
 62
253
  6
CONTINUOUS
 90
3
 70
0
 10
110.8653327271
 20
86.8121459402
 10
110.8656646274
 20
121.7024567709
 10
110.8671633733
 20
138.4101660071
  0
LWPOLYLINE
  5
24A
100
AcDbEntity
  8
ASSI
100
AcDbPolyline
 62
253
  6
CONTINUOUS
 90
3
 70
0
 10
110.8653327271
 20
86.8121459402
 10
110.8656646274
 20
121.7024567709
 10
110.8671633733
 20
138.4101660071
  0
LWPOLYLINE
  5
24B
100
AcDbEntity
  8
RACCORDO
100
AcDbPolyline
 62
253
  6
CONTINUOUS
 90
25
 70
0
 10
111.3651974886
 20
138.4914657705
 10
111.3658408034
 20
138.5113416387
 10
111.3677155529
 20
138.5309595109
 10
111.3708217372
 20
138.5503194034
 10
111.3751836387
 20
138.5695069937
 10
111.3807769748
 20
138.5884366329
 10
111.3875288984
 20
138.6068513637
 10
111.3954533031
 20
138.6247369363
 10
111.4045362952
 20
138.6421076623
 10
111.414663346
 20
138.6587494535
 10
111.4258476676
 20
138.6746533726
 10
111.4380760478
 20
138.6898284355
 10
111.4511943221
 20
138.7040875032
 10
111.4652137819
 20
138.7174190756
 10
111.4801231358
 20
138.7298347366
 10
111.4957343446
 20
138.7411819854
 10
111.5120549284
 20
138.7514466093
 10
111.5290773673
 20
138.7606428978
 10
111.5465910623
 20
138.768661107
 10
111.5646088892
 20
138.7754872037
 10
111.5831179723
 20
138.7811352794
 10
111.6018690855
 20
138.785537775
 10
111.6207791535
 20
138.7886721818
 10
111.6399312516
 20
138.79056104
 10
111.6593253798
 20
138.7912043574
  0
LWPOLYLINE
  5
24C
100
AcDbEntity
  8
ASSI
100
AcDbPolyline
 62
253
  6
CONTINUOUS
 90
25
 70
0
 10
111.3651974886
 20
138.4914657705
 10
111.3658408034
 20
138.5113416387
 10
111.3677155529
 20
138.5309595109
 10
111.3708217372
 20
138.5503194034
 10
111.3751836387
 20
138.5695069937
 10
111.3807769748
 20
138.5884366329
 10
111.3875288984
 20
138.6068513637
 10
111.3954533031
 20
138.6247369363
 10
111.4045362952
 20
138.6421076623
 10
111.414663346
 20
138.6587494535
 10
111.4258476676
 20
138.6746533726
 10
111.4380760478
 20
138.6898284355
 10
111.4511943221
 20
138.7040875032
 10
111.4652137819
 20
138.7174190756
 10
111.4801231358
 20
138.7298347366
 10
111.4957343446
 20
138.7411819854
 10
111.5120549284
 20
138.7514466093
 10
111.5290773673
 20
138.7606428978
 10
111.5465910623
 20
138.768661107
 10
111.5646088892
 20
138.7754872037
 10
111.5831179723
 20
138.7811352794
 10
111.6018690855
 20
138.785537775
 10
111.6207791535
 20
138.7886721818
 10
111.6399312516
 20
138.79056104
 10
111.6593253798
 20
138.7912043574
  0
LWPOLYLINE
  5
24D
100
AcDbEntity
  8
RACCORDO
100
AcDbPolyline
 62
253
  6
CONTINUOUS
 90
25
 70
0
 10
110.8671633732
 20
138.4101660072
 10
110.8695924114
 20
138.462137414
 10
110.8753580615
 20
138.5138000158
 10
110.8844296934
 20
138.5649400429
 10
110.8967608357
 20
138.615345815
 10
110.9122956164
 20
138.6648103041
 10
110.9309703945
 20
138.7131315627
 10
110.9527041045
 20
138.7601134405
 10
110.9774004525
 20
138.8055605084
 10
111.0049550592
 20
138.8492804772
 10
111.0352477433
 20
138.8910928056
 10
111.0681490782
 20
138.9308293612
 10
111.1035245057
 20
138.9683283829
 10
111.1412234773
 20
139.003436237
 10
111.1810871354
 20
139.0360115875
 10
111.22295608
 20
139.0659244866
 10
111.2666575821
 20
139.0930536155
 10
111.312007102
 20
139.1172875016
 10
111.3588175731
 20
139.1385268966
 10
111.4068893021
 20
139.1566832037
 10
111.456027528
 20
139.1716856268
 10
111.5060462198
 20
139.1834771083
 10
111.5567449063
 20
139.192007553
 10
111.6079084212
 20
139.1972377561
 10
111.6593253798
 20
139.1991436189
  0
LWPOLYLINE
  5
24E
100
AcDbEntity
  8
ASSI
100
AcDbPolyline
 62
253
  6
CONTINUOUS
 90
25
 70
0
 10
110.8671633732
 20
138.4101660072
 10
110.8695924114
 20
138.462137414
 10
110.8753580615
 20
138.5138000158
 10
110.8844296934
 20
138.5649400429
 10
110.8967608357
 20
138.615345815
 10
110.9122956164
 20
138.6648103041
 10
110.9309703945
 20
138.7131315627
 10
110.9527041045
 20
138.7601134405
 10
110.9774004525
 20
138.8055605084
 10
111.0049550592
 20
138.8492804772
 10
111.0352477433
 20
138.8910928056
 10
111.0681490782
 20
138.9308293612
 10
111.1035245057
 20
138.9683283829
 10
111.1412234773
 20
139.003436237
 10
111.1810871354
 20
139.0360115875
 10
111.22295608
 20
139.0659244866
 10
111.2666575821
 20
139.0930536155
 10
111.312007102
 20
139.1172875016
 10
111.3588175731
 20
139.1385268966
 10
111.4068893021
 20
139.1566832037
 10
111.456027528
 20
139.1716856268
 10
111.5060462198
 20
139.1834771083
 10
111.5567449063
 20
139.192007553
 10
111.6079084212
 20
139.1972377561
 10
111.6593253798
 20
139.1991436189
  0
LINE
  5
24F
100
AcDbEntity
  8
RACCORDO
100
AcDbLine
 62
253
  6
CONTINUOUS
 10
111.3651974886
 20
50.1481522129
 11
111.3634295369
 21
86.8045242676
  0
LINE
  5
250
100
AcDbEntity
  8
ASSI
100
AcDbLine
 62
253
  6
CONTINUOUS
 10
111.3651974886
 20
50.1481522129
 11
111.3634295369
 21
86.8045242676
  0
LINE
  5
251
100
AcDbEntity
  8
RACCORDO
100
AcDbLine
 62
253
  6
CONTINUOUS
 10
111.6593253798
 20
139.1991436189
 11
111.6593253798
 21
138.7912043574
  0
LINE
  5
252
100
AcDbEntity
  8
ASSI
100
AcDbLine
 62
253
  6
CONTINUOUS
 10
111.6593253798
 20
139.1991436189
 11
111.6593253798
 21
138.7912043574
  0
LINE
  5
253
100
AcDbEntity
  8
RACCORDO
100
AcDbLine
 62
253
  6
CONTINUOUS
 10
111.6593253798
 20
49.4404743645
 11
111.6593253798
 21
49.8484136259
  0
LINE
  5
254
100
AcDbEntity
  8
ASSI
100
AcDbLine
 62
253
  6
CONTINUOUS
 10
111.6593253798
 20
49.4404743645
 11
111.6593253798
 21
49.8484136259
  0
LWPOLYLINE
  5
255
100
AcDbEntity
  8
RACCORDO
100
AcDbPolyline
 62
253
  6
CONTINUOUS
 90
3
 70
0
 10
111.3634295369
 20
86.8045242676
 10
111.3637566001
 20
121.7384209283
 10
111.3651974886
 20
138.4914657705
  0
LWPOLYLINE
  5
256
100
AcDbEntity
  8
ASSI
100
AcDbPolyline
 62
253
  6
CONTINUOUS
 90
3
 70
0
 10
111.3634295369
 20
86.8045242676
 10
111.3637566001
 20
121.7384209283
 10
111.3651974886
 20
138.4914657705
  0
LWPOLYLINE
  5
257
100
AcDbEntity
  8
RACCORDO
100
AcDbPolyline
 62
253
  6
CONTINUOUS
 90
16
 70
0
 10
110.8654525281
 20
116.8969056489
 10
110.8707348827
 20
116.89895727
 10
110.8793623917
 20
116.9009799787
 10
110.8912764923
 20
116.902960045
 10
110.9063963125
 20
116.9048840285
 10
110.9246192203
 20
116.9067388692
 10
110.9458215201
 20
116.9085119766
 10
110.9698592923
 20
116.9101913152
 10
110.9965693707
 20
116.9117654855
 10
111.0257704494
 20
116.9132238024
 10
111.057264314
 20
116.9145563668
 10
111.0908371865
 20
116.9157541335
 10
111.1262611773
 20
116.916808972
 10
111.1632958311
 20
116.9177137223
 10
111.2016897599
 20
116.918462243
 10
111.2411823487
 20
116.9190494531
  0
LWPOLYLINE
  5
258
100
AcDbEntity
  8
ASSI
100
AcDbPolyline
 62
253
  6
CONTINUOUS
 90
16
 70
0
 10
110.8654525281
 20
116.8969056489
 10
110.8707348827
 20
116.89895727
 10
110.8793623917
 20
116.9009799787
 10
110.8912764923
 20
116.902960045
 10
110.9063963125
 20
116.9048840285
 10
110.9246192203
 20
116.9067388692
 10
110.9458215201
 20
116.9085119766
 10
110.9698592923
 20
116.9101913152
 10
110.9965693707
 20
116.9117654855
 10
111.0257704494
 20
116.9132238024
 10
111.057264314
 20
116.9145563668
 10
111.0908371865
 20
116.9157541335
 10
111.1262611773
 20
116.916808972
 10
111.1632958311
 20
116.9177137223
 10
111.2016897599
 20
116.918462243
 10
111.2411823487
 20
116.9190494531
  0
LWPOLYLINE
  5
259
100
AcDbEntity
  8
RACCORDO
100
AcDbPolyline
 62
253
  6
CONTINUOUS
 90
16
 70
0
 10
110.8654510421
 20
116.8344336072
 10
110.8707333353
 20
116.8364796643
 10
110.8793607915
 20
116.8384969583
 10
110.891274848
 20
116.8404717961
 10
110.9063946332
 20
116.8423907724
 10
110.9246175147
 20
116.8442408615
 10
110.9458197971
 20
116.8460095051
 10
110.9698575606
 20
116.8476846977
 10
110.9965676385
 20
116.8492550683
 10
111.0257687245
 20
116.8507099572
 10
111.0572626037
 20
116.8520394888
 10
111.0908354978
 20
116.8532346383
 10
111.1262595162
 20
116.8542872932
 10
111.163294203
 20
116.855190308
 10
111.2016881693
 20
116.8559375531
 10
111.2411807994
 20
116.8565239564
  0
LWPOLYLINE
  5
25A
100
AcDbEntity
  8
ASSI
100
AcDbPolyline
 62
253
  6
CONTINUOUS
 90
16
 70
0
 10
110.8654510421
 20
116.8344336072
 10
110.8707333353
 20
116.8364796643
 10
110.8793607915
 20
116.8384969583
 10
110.891274848
 20
116.8404717961
 10
110.9063946332
 20
116.8423907724
 10
110.9246175147
 20
116.8442408615
 10
110.9458197971
 20
116.8460095051
 10
110.9698575606
 20
116.8476846977
 10
110.9965676385
 20
116.8492550683
 10
111.0257687245
 20
116.8507099572
 10
111.0572626037
 20
116.8520394888
 10
111.0908354978
 20
116.8532346383
 10
111.1262595162
 20
116.8542872932
 10
111.163294203
 20
116.855190308
 10
111.2016881693
 20
116.8559375531
 10
111.2411807994
 20
116.8565239564
  0
LINE
  5
25B
100
AcDbEntity
  8
RACCORDO
100
AcDbLine
 62
7
  6
CONTINUOUS
 10
231.9565102001
 20
49.3198089917
 11
111.5565102001
 21
49.3198089917
  0
LINE
  5
25C
100
AcDbEntity
  8
ASSI
100
AcDbLine
 62
7
  6
CONTINUOUS
 10
231.9565102001
 20
49.3198089917
 11
111.5565102001
 21
49.3198089917
  0
LINE
  5
25D
100
AcDbEntity
  8
RACCORDO
100
AcDbLine
 62
253
  6
CONTINUOUS
 10
231.8536950204
 20
49.4404743645
 11
111.6593253798
 21
49.4404743645
  0
LINE
  5
25E
100
AcDbEntity
  8
ASSI
100
AcDbLine
 62
253
  6
CONTINUOUS
 10
231.8536950204
 20
49.4404743645
 11
111.6593253798
 21
49.4404743645
  0
LINE
  5
25F
100
AcDbEntity
  8
RACCORDO
100
AcDbLine
 62
253
  6
CONTINUOUS
 10
231.8536950204
 20
49.8484136259
 11
111.6593253798
 21
49.8484136259
  0
LINE
  5
260
100
AcDbEntity
  8
ASSI
100
AcDbLine
 62
253
  6
CONTINUOUS
 10
231.8536950204
 20
49.8484136259
 11
111.6593253798
 21
49.8484136259
  0
LWPOLYLINE
  5
261
100
AcDbEntity
  8
RACCORDO
100
AcDbPolyline
 62
253
  6
CONTINUOUS
 90
25
 70
0
 10
111.6593253798
 20
49.8484136259
 10
111.6399271986
 20
49.8490577333
 10
111.6207725233
 20
49.8509471473
 10
111.6018613539
 20
49.8540818758
 10
111.5831110285
 20
49.8584845405
 10
111.564604209
 20
49.864132551
 10
111.5465888812
 20
49.8709581033
 10
111.5290776192
 20
49.8789752024
 10
111.512057849
 20
49.8881699015
 10
111.4957398335
 20
49.8984324707
 10
111.4801314983
 20
49.9097765007
 10
111.4652249179
 20
49.9221884777
 10
111.4512065783
 20
49.9355180105
 10
111.438086574
 20
49.9497778864
 10
111.4258548105
 20
49.9649554023
 10
111.4146674901
 20
49.9808619206
 10
111.4045384911
 20
49.9975060523
 10
111.3954539352
 20
50.014879265
 10
111.3875283902
 20
50.0327671871
 10
111.3807758232
 20
50.0511844511
 10
111.3751822672
 20
50.0701164862
 10
111.3708203891
 20
50.0893050891
 10
111.3677144111
 20
50.1086641955
 10
111.3658401109
 20
50.128279898
 10
111.3651974886
 20
50.1481522129
  0
LWPOLYLINE
  5
262
100
AcDbEntity
  8
ASSI
100
AcDbPolyline
 62
253
  6
CONTINUOUS
 90
25
 70
0
 10
111.6593253798
 20
49.8484136259
 10
111.6399271986
 20
49.8490577333
 10
111.6207725233
 20
49.8509471473
 10
111.6018613539
 20
49.8540818758
 10
111.5831110285
 20
49.8584845405
 10
111.564604209
 20
49.864132551
 10
111.5465888812
 20
49.8709581033
 10
111.5290776192
 20
49.8789752024
 10
111.512057849
 20
49.8881699015
 10
111.4957398335
 20
49.8984324707
 10
111.4801314983
 20
49.9097765007
 10
111.4652249179
 20
49.9221884777
 10
111.4512065783
 20
49.9355180105
 10
111.438086574
 20
49.9497778864
 10
111.4258548105
 20
49.9649554023
 10
111.4146674901
 20
49.9808619206
 10
111.4045384911
 20
49.9975060523
 10
111.3954539352
 20
50.014879265
 10
111.3875283902
 20
50.0327671871
 10
111.3807758232
 20
50.0511844511
 10
111.3751822672
 20
50.0701164862
 10
111.3708203891
 20
50.0893050891
 10
111.3677144111
 20
50.1086641955
 10
111.3658401109
 20
50.128279898
 10
111.3651974886
 20
50.1481522129
  0
LWPOLYLINE
  5
263
100
AcDbEntity
  8
RACCORDO
100
AcDbPolyline
 62
253
  6
CONTINUOUS
 90
25
 70
0
 10
111.6593253798
 20
49.4404743645
 10
111.6079088075
 20
49.4423802028
 10
111.556745501
 20
49.4476103581
 10
111.5060468459
 20
49.4561407661
 10
111.4560279177
 20
49.4679322876
 10
111.4068892967
 20
49.4829348409
 10
111.3588173027
 20
49.501091266
 10
111.3120067953
 20
49.5223306788
 10
111.2666573474
 20
49.5465645062
 10
111.2229559703
 20
49.5736935187
 10
111.1810871825
 20
49.6036062326
 10
111.1412237146
 20
49.6361813198
 10
111.1035249525
 20
49.6712888723
 10
111.0681497716
 20
49.7087875486
 10
111.0352486835
 20
49.7485237145
 10
111.004956168
 20
49.7903356756
 10
110.9774016589
 20
49.8340553141
 10
110.9527053445
 20
49.879502095
 10
110.9309715565
 20
49.9264838012
 10
110.912296597
 20
49.9748050201
 10
110.8967615786
 20
50.0242696102
 10
110.8844301798
 20
50.0746756904
 10
110.8753583142
 20
50.1258162577
 10
110.8695924891
 20
50.1774796112
 10
110.8671633732
 20
50.2294519762
  0
LWPOLYLINE
  5
264
100
AcDbEntity
  8
ASSI
100
AcDbPolyline
 62
253
  6
CONTINUOUS
 90
25
 70
0
 10
111.6593253798
 20
49.4404743645
 10
111.6079088075
 20
49.4423802028
 10
111.556745501
 20
49.4476103581
 10
111.5060468459
 20
49.4561407661
 10
111.4560279177
 20
49.4679322876
 10
111.4068892967
 20
49.4829348409
 10
111.3588173027
 20
49.501091266
 10
111.3120067953
 20
49.5223306788
 10
111.2666573474
 20
49.5465645062
 10
111.2229559703
 20
49.5736935187
 10
111.1810871825
 20
49.6036062326
 10
111.1412237146
 20
49.6361813198
 10
111.1035249525
 20
49.6712888723
 10
111.0681497716
 20
49.7087875486
 10
111.0352486835
 20
49.7485237145
 10
111.004956168
 20
49.7903356756
 10
110.9774016589
 20
49.8340553141
 10
110.9527053445
 20
49.879502095
 10
110.9309715565
 20
49.9264838012
 10
110.912296597
 20
49.9748050201
 10
110.8967615786
 20
50.0242696102
 10
110.8844301798
 20
50.0746756904
 10
110.8753583142
 20
50.1258162577
 10
110.8695924891
 20
50.1774796112
 10
110.8671633732
 20
50.2294519762
  0
LWPOLYLINE
  5
265
100
AcDbEntity
  8
RACCORDO
100
AcDbPolyline
 62
253
  6
CONTINUOUS
 90
18
 70
0
 10
110.8654510425
 20
71.8051867694
 10
110.8707333361
 20
71.8031407126
 10
110.8793607927
 20
71.8011234188
 10
110.8912748495
 20
71.7991485813
 10
110.9063946349
 20
71.7972296051
 10
110.9246175166
 20
71.7953795162
 10
110.9458197991
 20
71.7936108729
 10
110.9698575627
 20
71.7919356804
 10
110.9965676405
 20
71.7903653101
 10
111.0257687265
 20
71.7889104213
 10
111.0572626057
 20
71.7875808898
 10
111.0908354996
 20
71.7863857404
 10
111.1262595178
 20
71.7853330857
 10
111.1632942044
 20
71.784430071
 10
111.2016881704
 20
71.7836828259
 10
111.2411808003
 20
71.7830964227
 10
111.2815040206
 20
71.7826748418
 10
111.3635436074
 20
71.7823364554
  0
LWPOLYLINE
  5
266
100
AcDbEntity
  8
ASSI
100
AcDbPolyline
 62
253
  6
CONTINUOUS
 90
18
 70
0
 10
110.8654510425
 20
71.8051867694
 10
110.8707333361
 20
71.8031407126
 10
110.8793607927
 20
71.8011234188
 10
110.8912748495
 20
71.7991485813
 10
110.9063946349
 20
71.7972296051
 10
110.9246175166
 20
71.7953795162
 10
110.9458197991
 20
71.7936108729
 10
110.9698575627
 20
71.7919356804
 10
110.9965676405
 20
71.7903653101
 10
111.0257687265
 20
71.7889104213
 10
111.0572626057
 20
71.7875808898
 10
111.0908354996
 20
71.7863857404
 10
111.1262595178
 20
71.7853330857
 10
111.1632942044
 20
71.784430071
 10
111.2016881704
 20
71.7836828259
 10
111.2411808003
 20
71.7830964227
 10
111.2815040206
 20
71.7826748418
 10
111.3635436074
 20
71.7823364554
  0
LWPOLYLINE
  5
267
100
AcDbEntity
  8
RACCORDO
100
AcDbPolyline
 62
253
  6
CONTINUOUS
 90
17
 70
0
 10
110.8654525263
 20
71.7427123345
 10
110.8707348791
 20
71.7406607133
 10
110.8793623865
 20
71.7386380045
 10
110.8912764857
 20
71.7366579381
 10
110.9063963049
 20
71.7347339545
 10
110.9246192119
 20
71.7328791137
 10
110.9458215111
 20
71.7311060062
 10
110.9698592831
 20
71.7294266676
 10
110.9965693615
 20
71.7278524971
 10
111.0257704404
 20
71.7263941801
 10
111.0572643053
 20
71.7250616156
 10
111.0908371785
 20
71.7238638489
 10
111.12626117
 20
71.7228090103
 10
111.1632958248
 20
71.7219042599
 10
111.2016897546
 20
71.7211557392
 10
111.2411823447
 20
71.7205685291
 10
111.3223855776
 20
71.7198928621
  0
LWPOLYLINE
  5
268
100
AcDbEntity
  8
ASSI
100
AcDbPolyline
 62
253
  6
CONTINUOUS
 90
17
 70
0
 10
110.8654525263
 20
71.7427123345
 10
110.8707348791
 20
71.7406607133
 10
110.8793623865
 20
71.7386380045
 10
110.8912764857
 20
71.7366579381
 10
110.9063963049
 20
71.7347339545
 10
110.9246192119
 20
71.7328791137
 10
110.9458215111
 20
71.7311060062
 10
110.9698592831
 20
71.7294266676
 10
110.9965693615
 20
71.7278524971
 10
111.0257704404
 20
71.7263941801
 10
111.0572643053
 20
71.7250616156
 10
111.0908371785
 20
71.7238638489
 10
111.12626117
 20
71.7228090103
 10
111.1632958248
 20
71.7219042599
 10
111.2016897546
 20
71.7211557392
 10
111.2411823447
 20
71.7205685291
 10
111.3223855776
 20
71.7198928621
  0
LWPOLYLINE
  5
269
100
AcDbEntity
  8
RACCORDO
100
AcDbPolyline
 62
7
  6
CONTINUOUS
 90
22
 70
0
 10
149.0565101923
 20
72.0192514575
 10
149.057676236
 20
71.9892454917
 10
149.0609952991
 20
71.9597386517
 10
149.0664673816
 20
71.9307309327
 10
149.0741309606
 20
71.9020909347
 10
149.0839475589
 20
71.8739500492
 10
149.0958017456
 20
71.8467024549
 10
149.109726909
 20
71.8203316112
 10
149.1256896609
 20
71.7948540429
 10
149.1434744059
 20
71.7707135193
 10
149.1631632465
 20
71.7479011545
 10
149.1846740802
 20
71.7264258135
 10
149.2075450042
 20
71.7067578855
 10
149.2317813533
 20
71.688975334
 10
149.2573777927
 20
71.6730001724
 10
149.2838564151
 20
71.659068862
 10
149.3111795202
 20
71.6472256009
 10
149.3393848082
 20
71.6374261731
 10
149.3681074731
 20
71.6297744184
 10
149.3972259127
 20
71.6243049468
 10
149.4268617292
 20
71.6209831387
 10
149.4570149225
 20
71.6198089917
  0
LWPOLYLINE
  5
26A
100
AcDbEntity
  8
ASSI
100
AcDbPolyline
 62
7
  6
CONTINUOUS
 90
22
 70
0
 10
149.0565101923
 20
72.0192514575
 10
149.057676236
 20
71.9892454917
 10
149.0609952991
 20
71.9597386517
 10
149.0664673816
 20
71.9307309327
 10
149.0741309606
 20
71.9020909347
 10
149.0839475589
 20
71.8739500492
 10
149.0958017456
 20
71.8467024549
 10
149.109726909
 20
71.8203316112
 10
149.1256896609
 20
71.7948540429
 10
149.1434744059
 20
71.7707135193
 10
149.1631632465
 20
71.7479011545
 10
149.1846740802
 20
71.7264258135
 10
149.2075450042
 20
71.7067578855
 10
149.2317813533
 20
71.688975334
 10
149.2573777927
 20
71.6730001724
 10
149.2838564151
 20
71.659068862
 10
149.3111795202
 20
71.6472256009
 10
149.3393848082
 20
71.6374261731
 10
149.3681074731
 20
71.6297744184
 10
149.3972259127
 20
71.6243049468
 10
149.4268617292
 20
71.6209831387
 10
149.4570149225
 20
71.6198089917
  0
LWPOLYLINE
  5
26B
100
AcDbEntity
  8
RACCORDO
100
AcDbPolyline
 62
253
  6
CONTINUOUS
 90
7
 70
0
 10
148.5033494687
 20
116.6976297516
 10
148.5041556326
 20
116.7352778979
 10
148.5064995848
 20
116.7726787313
 10
148.5103813253
 20
116.8098322545
 10
148.5158008542
 20
116.8467384705
 10
148.5227581715
 20
116.8833973819
 10
148.5312532771
 20
116.9198089917
  0
LWPOLYLINE
  5
26C
100
AcDbEntity
  8
ASSI
100
AcDbPolyline
 62
253
  6
CONTINUOUS
 90
7
 70
0
 10
148.5033494687
 20
116.6976297516
 10
148.5041556326
 20
116.7352778979
 10
148.5064995848
 20
116.7726787313
 10
148.5103813253
 20
116.8098322545
 10
148.5158008542
 20
116.8467384705
 10
148.5227581715
 20
116.8833973819
 10
148.5312532771
 20
116.9198089917
  0
LWPOLYLINE
  5
26D
100
AcDbEntity
  8
RACCORDO
100
AcDbPolyline
 62
253
  6
CONTINUOUS
 90
22
 70
0
 10
148.5312532771
 20
116.9198089917
 10
148.5470156133
 20
116.9743900557
 10
148.5660231842
 20
117.0275333343
 10
148.5882759897
 20
117.0792388915
 10
148.6138935635
 20
117.1297233728
 10
148.6427563719
 20
117.1787702508
 10
148.6745058144
 20
117.225729858
 10
148.7091706662
 20
117.2705550852
 10
148.7467221521
 20
117.3132932144
 10
148.7867153458
 20
117.3534362092
 10
148.8291788519
 20
117.390952041
 10
148.8740840659
 20
117.4258729254
 10
148.9209002473
 20
117.4577872189
 10
148.9696594182
 20
117.4866613354
 10
149.0203295566
 20
117.5125290343
 10
149.0722838563
 20
117.5350796993
 10
149.1255047423
 20
117.5542666092
 10
149.1800097897
 20
117.5701366187
 10
149.235224917
 20
117.5825194701
 10
149.2909587637
 20
117.591358436
 10
149.3474026904
 20
117.5967103159
 10
149.4045566971
 20
117.5985751279
  0
LWPOLYLINE
  5
26E
100
AcDbEntity
  8
ASSI
100
AcDbPolyline
 62
253
  6
CONTINUOUS
 90
22
 70
0
 10
148.5312532771
 20
116.9198089917
 10
148.5470156133
 20
116.9743900557
 10
148.5660231842
 20
117.0275333343
 10
148.5882759897
 20
117.0792388915
 10
148.6138935635
 20
117.1297233728
 10
148.6427563719
 20
117.1787702508
 10
148.6745058144
 20
117.225729858
 10
148.7091706662
 20
117.2705550852
 10
148.7467221521
 20
117.3132932144
 10
148.7867153458
 20
117.3534362092
 10
148.8291788519
 20
117.390952041
 10
148.8740840659
 20
117.4258729254
 10
148.9209002473
 20
117.4577872189
 10
148.9696594182
 20
117.4866613354
 10
149.0203295566
 20
117.5125290343
 10
149.0722838563
 20
117.5350796993
 10
149.1255047423
 20
117.5542666092
 10
149.1800097897
 20
117.5701366187
 10
149.235224917
 20
117.5825194701
 10
149.2909587637
 20
117.591358436
 10
149.3474026904
 20
117.5967103159
 10
149.4045566971
 20
117.5985751279
  0
LWPOLYLINE
  5
26F
100
AcDbEntity
  8
RACCORDO
100
AcDbPolyline
 62
253
  6
CONTINUOUS
 90
22
 70
0
 10
149.0150915226
 20
116.7726807649
 10
149.0221026913
 20
116.7968128635
 10
149.0306284897
 20
116.8204520074
 10
149.0406351661
 20
116.8435044638
 10
149.0520834823
 20
116.865878332
 10
149.0649278665
 20
116.8874853255
 10
149.0791166498
 20
116.9082410903
 10
149.0945947667
 20
116.9280639763
 10
149.1113004605
 20
116.946874349
 10
149.1291640544
 20
116.9645967407
 10
149.1481129593
 20
116.9811594708
 10
149.1680738061
 20
116.9964989678
 10
149.1889694623
 20
117.0105586053
 10
149.2107219925
 20
117.0232844257
 10
149.2332420675
 20
117.0346228446
 10
149.2564300781
 20
117.0445267058
 10
149.2801809929
 20
117.0529536984
 10
149.3044136566
 20
117.0598775707
 10
149.3290619766
 20
117.065279966
 10
149.3540400086
 20
117.069136842
 10
149.3792404733
 20
117.0714249726
 10
149.4045644229
 20
117.0721305278
  0
LWPOLYLINE
  5
270
100
AcDbEntity
  8
ASSI
100
AcDbPolyline
 62
253
  6
CONTINUOUS
 90
22
 70
0
 10
149.0150915226
 20
116.7726807649
 10
149.0221026913
 20
116.7968128635
 10
149.0306284897
 20
116.8204520074
 10
149.0406351661
 20
116.8435044638
 10
149.0520834823
 20
116.865878332
 10
149.0649278665
 20
116.8874853255
 10
149.0791166498
 20
116.9082410903
 10
149.0945947667
 20
116.9280639763
 10
149.1113004605
 20
116.946874349
 10
149.1291640544
 20
116.9645967407
 10
149.1481129593
 20
116.9811594708
 10
149.1680738061
 20
116.9964989678
 10
149.1889694623
 20
117.0105586053
 10
149.2107219925
 20
117.0232844257
 10
149.2332420675
 20
117.0346228446
 10
149.2564300781
 20
117.0445267058
 10
149.2801809929
 20
117.0529536984
 10
149.3044136566
 20
117.0598775707
 10
149.3290619766
 20
117.065279966
 10
149.3540400086
 20
117.069136842
 10
149.3792404733
 20
117.0714249726
 10
149.4045644229
 20
117.0721305278
  0
LWPOLYLINE
  5
271
100
AcDbEntity
  8
RACCORDO
100
AcDbPolyline
 62
253
  6
CONTINUOUS
 90
7
 70
0
 10
149.0150915226
 20
71.8669372185
 10
149.0113158038
 20
71.8830526086
 10
149.0082124123
 20
71.8993330096
 10
149.0057892245
 20
71.9157508359
 10
149.0040529844
 20
71.9322780953
 10
149.0030092819
 20
71.948886435
 10
149.002662533
 20
71.965547189
  0
LWPOLYLINE
  5
272
100
AcDbEntity
  8
ASSI
100
AcDbPolyline
 62
253
  6
CONTINUOUS
 90
7
 70
0
 10
149.0150915226
 20
71.8669372185
 10
149.0113158038
 20
71.8830526086
 10
149.0082124123
 20
71.8993330096
 10
149.0057892245
 20
71.9157508359
 10
149.0040529844
 20
71.9322780953
 10
149.0030092819
 20
71.948886435
 10
149.002662533
 20
71.965547189
  0
LWPOLYLINE
  5
273
100
AcDbEntity
  8
RACCORDO
100
AcDbPolyline
 62
253
  6
CONTINUOUS
 90
7
 70
0
 10
148.5312532771
 20
71.7198089917
 10
148.522780642
 20
71.7560450459
 10
148.515836807
 20
71.7925986229
 10
148.5104217722
 20
71.8294697263
 10
148.5065355376
 20
71.8666583598
 10
148.504178103
 20
71.904164527
 10
148.5033494687
 20
71.9419882317
  0
LWPOLYLINE
  5
274
100
AcDbEntity
  8
ASSI
100
AcDbPolyline
 62
253
  6
CONTINUOUS
 90
7
 70
0
 10
148.5312532771
 20
71.7198089917
 10
148.522780642
 20
71.7560450459
 10
148.515836807
 20
71.7925986229
 10
148.5104217722
 20
71.8294697263
 10
148.5065355376
 20
71.8666583598
 10
148.504178103
 20
71.904164527
 10
148.5033494687
 20
71.9419882317
  0
LINE
  5
275
100
AcDbEntity
  8
RACCORDO
100
AcDbLine
 62
253
  6
CONTINUOUS
 10
148.5033494687
 20
71.9419882317
 11
148.5033494687
 21
116.6976297516
  0
LINE
  5
276
100
AcDbEntity
  8
ASSI
100
AcDbLine
 62
253
  6
CONTINUOUS
 10
148.5033494687
 20
71.9419882317
 11
148.5033494687
 21
116.6976297516
  0
LINE
  5
277
100
AcDbEntity
  8
RACCORDO
100
AcDbLine
 62
253
  6
CONTINUOUS
 10
149.0026625335
 20
71.9655471895
 11
149.0026625278
 21
116.6740794965
  0
LINE
  5
278
100
AcDbEntity
  8
ASSI
100
AcDbLine
 62
253
  6
CONTINUOUS
 10
149.0026625335
 20
71.9655471895
 11
149.0026625278
 21
116.6740794965
  0
LINE
  5
279
100
AcDbEntity
  8
RACCORDO
100
AcDbLine
 62
7
  6
CONTINUOUS
 10
149.0565101923
 20
116.6203665259
 11
149.0565101923
 21
72.0192514575
  0
LINE
  5
27A
100
AcDbEntity
  8
ASSI
100
AcDbLine
 62
7
  6
CONTINUOUS
 10
149.0565101923
 20
116.6203665259
 11
149.0565101923
 21
72.0192514575
  0
LINE
  5
27B
100
AcDbEntity
  8
RACCORDO
100
AcDbLine
 62
253
  6
CONTINUOUS
 10
149.4045566971
 20
117.5985751279
 11
149.4045566971
 21
117.072130554
  0
LINE
  5
27C
100
AcDbEntity
  8
ASSI
100
AcDbLine
 62
253
  6
CONTINUOUS
 10
149.4045566971
 20
117.5985751279
 11
149.4045566971
 21
117.072130554
  0
LINE
  5
27D
100
AcDbEntity
  8
RACCORDO
100
AcDbLine
 62
253
  6
CONTINUOUS
 10
149.4045566971
 20
71.0410428554
 11
149.4045566971
 21
71.5674874293
  0
LINE
  5
27E
100
AcDbEntity
  8
ASSI
100
AcDbLine
 62
253
  6
CONTINUOUS
 10
149.4045566971
 20
71.0410428554
 11
149.4045566971
 21
71.5674874293
  0
LWPOLYLINE
  5
27F
100
AcDbEntity
  8
RACCORDO
100
AcDbPolyline
 62
253
  6
CONTINUOUS
 90
7
 70
0
 10
149.002662535
 20
116.6740794893
 10
149.0030068613
 20
116.6906742611
 10
149.0040448174
 20
116.7072426788
 10
149.0057752256
 20
116.7237560917
 10
149.0081957167
 20
116.7401858938
 10
149.011302731
 20
116.7565035738
 10
149.0150915226
 20
116.7726807649
  0
LWPOLYLINE
  5
280
100
AcDbEntity
  8
ASSI
100
AcDbPolyline
 62
253
  6
CONTINUOUS
 90
7
 70
0
 10
149.002662535
 20
116.6740794893
 10
149.0030068613
 20
116.6906742611
 10
149.0040448174
 20
116.7072426788
 10
149.0057752256
 20
116.7237560917
 10
149.0081957167
 20
116.7401858938
 10
149.011302731
 20
116.7565035738
 10
149.0150915226
 20
116.7726807649
  0
LWPOLYLINE
  5
281
100
AcDbEntity
  8
SCRITTA
100
AcDbPolyline
 62
253
  6
CONTINUOUS
 90
36
 70
0
 10
175.0765290024
 20
68.2090016507
 10
175.1203489411
 20
68.2153523764
 10
175.1634822231
 20
68.2214049751
 10
175.2059110318
 20
68.2271489638
 10
175.2476175504
 20
68.2325738594
 10
175.2885839623
 20
68.2376691789
 10
175.3288050164
 20
68.2424267957
 10
175.3683257243
 20
68.2468480084
 10
175.4072036632
 20
68.2509364722
 10
175.4454964104
 20
68.2546958422
 10
175.483261543
 20
68.2581297734
 10
175.5298057352
 20
68.2619687225
 10
175.5756800632
 20
68.2653037126
 10
175.6209490959
 20
68.268133572
 10
175.6656774025
 20
68.2704571286
 10
175.7099329301
 20
68.272271557
 10
175.7537971395
 20
68.273567418
 10
175.7973548694
 20
68.274333619
 10
175.8406909586
 20
68.2745590671
 10
175.8982492505
 20
68.2739987825
 10
175.9556153108
 20
68.2724279144
 10
176.012840111
 20
68.2698169379
 10
176.0556921306
 20
68.2671516133
 10
176.0984876194
 20
68.263831604
 10
176.1412208337
 20
68.2598038941
 10
176.1838860301
 20
68.2550154677
 10
176.2179618651
 20
68.2505979912
 10
176.2519666157
 20
68.2456122253
 10
176.2858764048
 20
68.2400106693
 10
176.3196673552
 20
68.2337458223
 10
176.35331559
 20
68.2267701838
 10
176.3867986584
 20
68.2190359131
 10
176.4200998153
 20
68.2104938107
 10
176.4532037421
 20
68.2010943371
 10
176.4860951198
 20
68.1907879527
 10
176.5187586298
 20
68.1795251182
  0
LWPOLYLINE
  5
282
100
AcDbEntity
  8
SCRITTA
100
AcDbPolyline
 62
253
  6
CONTINUOUS
 90
56
 70
0
 10
175.9731908433
 20
66.9961809051
 10
175.9894427885
 20
66.9966842197
 10
176.0057994492
 20
66.9974877261
 10
176.0222822781
 20
66.9986177362
 10
176.0389127278
 20
67.0001005616
 10
176.055697634
 20
67.0019623253
 10
176.0725853648
 20
67.0042283952
 10
176.0895096711
 20
67.0069239501
 10
176.1064043039
 20
67.0100741691
 10
176.1198530571
 20
67.0129367888
 10
176.1332000866
 20
67.0161083974
 10
176.1464050591
 20
67.0195908843
 10
176.1594276415
 20
67.0233861388
 10
176.1722275003
 20
67.0274960503
 10
176.1847685716
 20
67.0319221639
 10
176.1970318691
 20
67.0366646473
 10
176.2090026754
 20
67.041723324
 10
176.2206662737
 20
67.0470980173
 10
176.2320079468
 20
67.0527885508
 10
176.2412046957
 20
67.0577726714
 10
176.2501704734
 20
67.062981121
 10
176.2589080881
 20
67.0684190176
 10
176.2674193929
 20
67.0740918627
 10
176.2757024224
 20
67.0800066897
 10
176.283754256
 20
67.0861709153
 10
176.2915724848
 20
67.0925900355
 10
176.2991567463
 20
67.0992618626
 10
176.3065071894
 20
67.106182288
 10
176.3136245866
 20
67.1133460039
 10
176.3205122034
 20
67.1207429037
 10
176.3271739288
 20
67.1283616816
 10
176.3348756476
 20
67.1377844655
 10
176.3422664983
 20
67.1475106776
 10
176.3493552963
 20
67.1575405225
 10
176.3561508569
 20
67.1678742044
 10
176.3626619955
 20
67.1785119278
 10
176.3688953103
 20
67.1894527891
 10
176.3748485299
 20
67.2006914526
 10
176.3805171658
 20
67.2122214742
 10
176.3858967297
 20
67.2240364102
 10
176.3909827329
 20
67.2361298167
 10
176.3957695601
 20
67.2484904955
 10
176.4002470879
 20
67.2610882307
 10
176.4044040662
 20
67.273888052
 10
176.4082292447
 20
67.2868549892
 10
176.4117113733
 20
67.2999540719
 10
176.41484113
 20
67.3131498601
 10
176.4176169055
 20
67.326405034
 10
176.420039019
 20
67.3396818039
 10
176.4221077896
 20
67.3529423801
 10
176.4238235361
 20
67.3661489732
 10
176.4251869226
 20
67.3792721973
 10
176.4261999923
 20
67.3923162827
 10
176.4268651332
 20
67.4052938636
 10
176.4271847335
 20
67.4182175744
 10
176.4271611812
 20
67.4311000491
  0
LINE
  5
283
100
AcDbEntity
  8
SCRITTA
100
AcDbLine
 62
253
  6
CONTINUOUS
 10
177.115658412
 20
65.4420076373
 11
176.553525822
 21
65.4420076373
  0
LINE
  5
284
100
AcDbEntity
  8
SCRITTA
100
AcDbLine
 62
253
  6
CONTINUOUS
 10
175.658585545
 20
65.4420076373
 11
175.0765290024
 21
65.4420076373
  0
LINE
  5
285
100
AcDbEntity
  8
IMPORT_IGES
100
AcDbLine
 62
7
  6
CONTINUOUS
 10
174.9049182001
 20
65.4420079917
 11
174.2889762001
 21
65.4420079917
  0
LINE
  5
286
100
AcDbEntity
  8
IMPORT_IGES
100
AcDbLine
 62
7
  6
CONTINUOUS
 10
173.1804572001
 20
65.4420079917
 11
172.6023902001
 21
65.4420079917
  0
LINE
  5
287
100
AcDbEntity
  8
IMPORT_IGES
100
AcDbLine
 62
7
  6
CONTINUOUS
 10
172.5106222001
 20
65.4420079917
 11
171.9389162001
 21
65.4420079917
  0
LINE
  5
288
100
AcDbEntity
  8
IMPORT_IGES
100
AcDbLine
 62
7
  6
CONTINUOUS
 10
171.1239862001
 20
65.4420079917
 11
171.0420232001
 21
65.4420079917
  0
LINE
  5
289
100
AcDbEntity
  8
IMPORT_IGES
100
AcDbLine
 62
7
  6
CONTINUOUS
 10
170.2303272001
 20
65.4420079917
 11
169.6712382001
 21
65.4420079917
  0
LINE
  5
28A
100
AcDbEntity
  8
SCRITTA
100
AcDbLine
 62
253
  6
CONTINUOUS
 10
169.3566332001
 20
65.4420079917
 11
168.7722252001
 21
65.4420079917
  0
LINE
  5
28B
100
AcDbEntity
  8
IMPORT_IGES
100
AcDbLine
 62
7
  6
CONTINUOUS
 10
167.6554132001
 20
65.4420079917
 11
167.1404032001
 21
65.4420079917
  0
LINE
  5
28C
100
AcDbEntity
  8
SCRITTA
100
AcDbLine
 62
253
  6
CONTINUOUS
 10
167.1404032001
 20
65.4420079917
 11
167.6554132001
 21
65.4420079917
  0
LINE
  5
28D
100
AcDbEntity
  8
IMPORT_IGES
100
AcDbLine
 62
7
  6
CONTINUOUS
 10
168.7722252001
 20
65.4420079917
 11
169.3566332001
 21
65.4420079917
  0
LINE
  5
28E
100
AcDbEntity
  8
SCRITTA
100
AcDbLine
 62
253
  6
CONTINUOUS
 10
169.6712382001
 20
65.4420079917
 11
170.2303272001
 21
65.4420079917
  0
LINE
  5
28F
100
AcDbEntity
  8
SCRITTA
100
AcDbLine
 62
253
  6
CONTINUOUS
 10
171.0420232001
 20
65.4420079917
 11
171.1239862001
 21
65.4420079917
  0
LINE
  5
290
100
AcDbEntity
  8
SCRITTA
100
AcDbLine
 62
253
  6
CONTINUOUS
 10
171.9389162001
 20
65.4420079917
 11
172.5106222001
 21
65.4420079917
  0
LINE
  5
291
100
AcDbEntity
  8
SCRITTA
100
AcDbLine
 62
253
  6
CONTINUOUS
 10
172.6023902001
 20
65.4420079917
 11
173.1804572001
 21
65.4420079917
  0
LINE
  5
292
100
AcDbEntity
  8
SCRITTA
100
AcDbLine
 62
253
  6
CONTINUOUS
 10
174.2889762001
 20
65.4420079917
 11
174.9049182001
 21
65.4420079917
  0
LINE
  5
293
100
AcDbEntity
  8
IMPORT_IGES
100
AcDbLine
 62
7
  6
CONTINUOUS
 10
175.0765290024
 20
65.4420076373
 11
175.658585545
 21
65.4420076373
  0
LINE
  5
294
100
AcDbEntity
  8
IMPORT_IGES
100
AcDbLine
 62
7
  6
CONTINUOUS
 10
176.553525822
 20
65.4420076373
 11
177.115658412
 21
65.4420076373
  0
LINE
  5
295
100
AcDbEntity
  8
IMPORT_IGES
100
AcDbLine
 62
7
  6
CONTINUOUS
 10
174.1375842001
 20
66.0009279917
 11
173.3417172001
 21
66.0009279917
  0
LINE
  5
296
100
AcDbEntity
  8
SCRITTA
100
AcDbLine
 62
253
  6
CONTINUOUS
 10
173.3417172001
 20
66.0009279917
 11
174.1375842001
 21
66.0009279917
  0
LINE
  5
297
100
AcDbEntity
  8
SCRITTA
100
AcDbLine
 62
253
  6
CONTINUOUS
 10
174.0207902001
 20
66.4334179917
 11
173.4612612001
 21
66.4334179917
  0
LINE
  5
298
100
AcDbEntity
  8
IMPORT_IGES
100
AcDbLine
 62
7
  6
CONTINUOUS
 10
173.4612612001
 20
66.4334179917
 11
174.0207902001
 21
66.4334179917
  0
LINE
  5
299
100
AcDbEntity
  8
SCRITTA
100
AcDbLine
 62
253
  6
CONTINUOUS
 10
175.9719311624
 20
66.5376570669
 11
175.658585545
 21
66.5376570669
  0
LINE
  5
29A
100
AcDbEntity
  8
IMPORT_IGES
100
AcDbLine
 62
7
  6
CONTINUOUS
 10
175.658585545
 20
66.5376570669
 11
175.9719311624
 21
66.5376570669
  0
LINE
  5
29B
100
AcDbEntity
  8
SCRITTA
100
AcDbLine
 62
253
  6
CONTINUOUS
 10
175.6392074542
 20
66.9961809051
 11
175.9731908433
 21
66.9961809051
  0
LINE
  5
29C
100
AcDbEntity
  8
SCRITTA
100
AcDbLine
 62
253
  6
CONTINUOUS
 10
174.0459002001
 20
68.2417109917
 11
173.4805552001
 21
68.2417109917
  0
LINE
  5
29D
100
AcDbEntity
  8
SCRITTA
100
AcDbLine
 62
253
  6
CONTINUOUS
 10
172.2488182001
 20
68.2417109917
 11
171.6706042001
 21
68.2417109917
  0
LINE
  5
29E
100
AcDbEntity
  8
SCRITTA
100
AcDbLine
 62
253
  6
CONTINUOUS
 10
170.5079602001
 20
68.2417109917
 11
169.9240352001
 21
68.2417109917
  0
LINE
  5
29F
100
AcDbEntity
  8
SCRITTA
100
AcDbLine
 62
253
  6
CONTINUOUS
 10
168.5553502001
 20
68.2417109917
 11
167.9713412001
 21
68.2417109917
  0
LINE
  5
2A0
100
AcDbEntity
  8
SCRITTA
100
AcDbLine
 62
253
  6
CONTINUOUS
 10
166.8876902001
 20
68.2417109917
 11
166.2528422001
 21
68.2417109917
  0
LINE
  5
2A1
100
AcDbEntity
  8
SCRITTA
100
AcDbLine
 62
253
  6
CONTINUOUS
 10
168.7722252001
 20
68.2418789917
 11
169.3566332001
 21
68.2418789917
  0
LWPOLYLINE
  5
2A2
100
AcDbEntity
  8
IMPORT_IGES
100
AcDbPolyline
 62
7
  6
CONTINUOUS
 90
48
 70
0
 10
175.9719311624
 20
66.5376570669
 10
175.9809293451
 20
66.5375428214
 10
175.9899435043
 20
66.5371988387
 10
175.998964379
 20
66.5366232497
 10
176.0079827081
 20
66.5358141849
 10
176.0169892307
 20
66.5347697752
 10
176.0259746856
 20
66.5334881513
 10
176.034929812
 20
66.531967444
 10
176.0438453487
 20
66.530205784
 10
176.0527120349
 20
66.5282013021
 10
176.0615206093
 20
66.5259521289
 10
176.0702618112
 20
66.5234563953
 10
176.0789263793
 20
66.5207122321
 10
176.0875050527
 20
66.5177177698
 10
176.0959885705
 20
66.5144711394
 10
176.1043676715
 20
66.5109704715
 10
176.1126330948
 20
66.5072138969
 10
176.1207755793
 20
66.5031995463
 10
176.1289894782
 20
66.4988149993
 10
176.1370624109
 20
66.4941658801
 10
176.1449924332
 20
66.4892606604
 10
176.1527776009
 20
66.484107812
 10
176.1604159698
 20
66.4787158067
 10
176.1679055954
 20
66.4730931162
 10
176.1752445336
 20
66.4672482122
 10
176.1824308401
 20
66.4611895666
 10
176.1894625707
 20
66.454925651
 10
176.196337781
 20
66.4484649373
 10
176.2030545268
 20
66.4418158972
 10
176.2096108638
 20
66.4349870025
 10
176.2160048477
 20
66.427986725
 10
176.2222345344
 20
66.4208235363
 10
176.2282979794
 20
66.4135059082
 10
176.2341932386
 20
66.4060423126
 10
176.2399183677
 20
66.3984412212
 10
176.2454714224
 20
66.3907111056
 10
176.2508504584
 20
66.3828604378
 10
176.2560535315
 20
66.3748976894
 10
176.2610786974
 20
66.3668313322
 10
176.2659240118
 20
66.358669838
 10
176.2705875305
 20
66.3504216785
 10
176.2750673092
 20
66.3420953255
 10
176.2793614035
 20
66.3336992508
 10
176.2834678694
 20
66.3252419261
 10
176.2873847624
 20
66.3167318231
 10
176.2911101384
 20
66.3081774137
 10
176.294642053
 20
66.2995871695
 10
176.297978562
 20
66.2909695624
  0
LWPOLYLINE
  5
2A3
100
AcDbEntity
  8
RACCORDO
100
AcDbPolyline
 62
253
  6
CONTINUOUS
 90
22
 70
0
 10
149.4045566971
 20
71.0410428554
 10
149.3473264313
 20
71.0429091896
 10
149.2908043893
 20
71.0482748984
 10
149.2349905712
 20
71.0571400001
 10
149.1796861771
 20
71.0695651123
 10
149.1250900068
 20
71.0854896898
 10
149.0717984601
 20
71.1047320218
 10
149.0198025098
 20
71.1273381284
 10
148.969111183
 20
71.1532621231
 10
148.9203479602
 20
71.1821844402
 10
148.8735611015
 20
71.2141171584
 10
148.8287023468
 20
71.2490483715
 10
148.7862503963
 20
71.2866225285
 10
148.7461953784
 20
71.3269086888
 10
148.7085471648
 20
71.3698379849
 10
148.673814071
 20
71.4148479494
 10
148.6420320679
 20
71.4620352827
 10
148.6131651846
 20
71.5113034587
 10
148.5876138237
 20
71.5618001144
 10
148.5655114525
 20
71.6132411464
 10
148.5467246036
 20
71.6659107543
 10
148.5312532771
 20
71.7198089917
  0
LWPOLYLINE
  5
2A4
100
AcDbEntity
  8
ASSI
100
AcDbPolyline
 62
253
  6
CONTINUOUS
 90
22
 70
0
 10
149.4045566971
 20
71.0410428554
 10
149.3473264313
 20
71.0429091896
 10
149.2908043893
 20
71.0482748984
 10
149.2349905712
 20
71.0571400001
 10
149.1796861771
 20
71.0695651123
 10
149.1250900068
 20
71.0854896898
 10
149.0717984601
 20
71.1047320218
 10
149.0198025098
 20
71.1273381284
 10
148.969111183
 20
71.1532621231
 10
148.9203479602
 20
71.1821844402
 10
148.8735611015
 20
71.2141171584
 10
148.8287023468
 20
71.2490483715
 10
148.7862503963
 20
71.2866225285
 10
148.7461953784
 20
71.3269086888
 10
148.7085471648
 20
71.3698379849
 10
148.673814071
 20
71.4148479494
 10
148.6420320679
 20
71.4620352827
 10
148.6131651846
 20
71.5113034587
 10
148.5876138237
 20
71.5618001144
 10
148.5655114525
 20
71.6132411464
 10
148.5467246036
 20
71.6659107543
 10
148.5312532771
 20
71.7198089917
  0
LWPOLYLINE
  5
2A5
100
AcDbEntity
  8
SCRITTA
100
AcDbPolyline
 62
253
  6
CONTINUOUS
 90
24
 70
0
 10
176.0970186826
 20
67.7812373169
 10
176.0755172403
 20
67.7835739156
 10
176.0539911361
 20
67.7855964564
 10
176.0324438184
 20
67.7873056674
 10
176.0108787358
 20
67.7887022769
 10
175.9892993369
 20
67.7897870131
 10
175.9677090703
 20
67.7905606044
 10
175.9461113845
 20
67.791023779
 10
175.9272086134
 20
67.7911749125
 10
175.9082965863
 20
67.7910889609
 10
175.8893690873
 20
67.7907659443
 10
175.8704199003
 20
67.7902058828
 10
175.851441966
 20
67.7894077569
 10
175.8324248505
 20
67.7883663885
 10
175.8133572768
 20
67.78707556
 10
175.7942279677
 20
67.7855290535
 10
175.7750292576
 20
67.7837234451
 10
175.7557679267
 20
67.7816664857
 10
175.7364543668
 20
67.7793687198
 10
175.7170989699
 20
67.7768406918
 10
175.6977080747
 20
67.7740947798
 10
175.6782718079
 20
67.7711506961
 10
175.6587762431
 20
67.7680299861
 10
175.6392074542
 20
67.7647541957
  0
LWPOLYLINE
  5
2A6
100
AcDbEntity
  8
SCRITTA
100
AcDbPolyline
 62
253
  6
CONTINUOUS
 90
86
 70
0
 10
176.5187586298
 20
68.1795251182
 10
176.5342917774
 20
68.173592285
 10
176.5500366367
 20
68.1669105213
 10
176.5660186668
 20
68.1594493963
 10
176.5822633268
 20
68.1511784796
 10
176.5987960756
 20
68.1420673403
 10
176.6156423724
 20
68.132085548
 10
176.632806938
 20
68.1212123771
 10
176.6502115411
 20
68.1094659225
 10
176.6677572119
 20
68.0968739843
 10
176.6853449808
 20
68.0834643626
 10
176.7028758782
 20
68.0692648575
 10
176.7202509345
 20
68.0543032691
 10
176.7373799172
 20
68.0386042717
 10
176.7542075429
 20
68.0221800368
 10
176.7706872654
 20
68.0050396103
 10
176.7867725386
 20
67.9871920378
 10
176.8024168161
 20
67.9686463653
 10
176.8175735518
 20
67.9494116384
 10
176.8321955648
 20
67.9295090355
 10
176.8462331354
 20
67.9090082652
 10
176.8596359094
 20
67.8879911686
 10
176.8723535324
 20
67.8665395868
 10
176.88433565
 20
67.844735361
 10
176.895531908
 20
67.8226603321
 10
176.9059030434
 20
67.8003892978
 10
176.9154541593
 20
67.7779688814
 10
176.92420145
 20
67.7554386626
 10
176.9321611099
 20
67.7328382211
 10
176.9393493334
 20
67.7102071366
 10
176.9457823148
 20
67.6875849889
 10
176.9525331022
 20
67.6605094556
 10
176.9582796088
 20
67.6335932951
 10
176.9630817828
 20
67.6069260166
 10
176.9669995718
 20
67.5805971292
 10
176.970092924
 20
67.554696142
 10
176.9724194252
 20
67.5293009703
 10
176.9740272141
 20
67.5044431541
 10
176.9749620674
 20
67.4801426394
 10
176.9752697616
 20
67.4564193725
 10
176.9749960736
 20
67.4332932993
 10
176.9741838142
 20
67.4107784496
 10
176.9728639316
 20
67.3888651869
 10
176.9710644081
 20
67.3675379581
 10
176.9688132261
 20
67.3467812104
 10
176.9661383681
 20
67.3265793908
 10
176.9622386518
 20
67.3020815387
 10
176.9577574457
 20
67.2783825763
 10
176.9527315311
 20
67.2554386197
 10
176.9471976896
 20
67.2332057851
 10
176.9411928472
 20
67.2116469514
 10
176.934754508
 20
67.1907520491
 10
176.9279203206
 20
67.1705177714
 10
176.9207279337
 20
67.1509408116
 10
176.913214433
 20
67.1320176354
 10
176.9054146534
 20
67.1137437972
 10
176.8973628668
 20
67.0961146239
 10
176.8890933454
 20
67.0791254423
 10
176.8777812736
 20
67.057454681
 10
176.8661848014
 20
67.036866389
 10
176.8543456847
 20
67.0173135803
 10
176.8423048967
 20
66.9987537403
 10
176.8301002793
 20
66.9811622401
 10
176.8177688919
 20
66.9645189221
 10
176.8053485328
 20
66.9487963466
 10
176.7928799561
 20
66.9339379462
 10
176.7804046548
 20
66.9198798714
 10
176.7679650824
 20
66.9065602294
 10
176.7556075326
 20
66.893924955
 10
176.7433792596
 20
66.8819219397
 10
176.7313231681
 20
66.8705004063
 10
176.7194647667
 20
66.8596149037
 10
176.7078252145
 20
66.8492213124
 10
176.6908073257
 20
66.8344577113
 10
176.6743344052
 20
66.8205659332
 10
176.6584535431
 20
66.8074731422
 10
176.6506758424
 20
66.801248318
 10
176.6428937194
 20
66.7952703404
 10
176.6350203098
 20
66.789585376
 10
176.6270766528
 20
66.7843033401
 10
176.6191053736
 20
66.7795395513
 10
176.6111275373
 20
66.7753671931
 10
176.6031506832
 20
66.7718422868
 10
176.5951498066
 20
66.7689943389
 10
176.5871005096
 20
66.7668471689
 10
176.579013365
 20
66.7654283636
  0
LWPOLYLINE
  5
2A7
100
AcDbEntity
  8
SCRITTA
100
AcDbPolyline
 62
253
  6
CONTINUOUS
 90
41
 70
0
 10
176.579013365
 20
66.7488845548
 10
176.5883066502
 20
66.7450046712
 10
176.5975462484
 20
66.7407937844
 10
176.6067374378
 20
66.7362437317
 10
176.615885497
 20
66.7313463505
 10
176.6249951784
 20
66.7260928733
 10
176.6340691311
 20
66.7204721139
 10
176.6431094783
 20
66.7144722811
 10
176.652118343
 20
66.708081584
 10
176.6610942582
 20
66.7012915838
 10
176.6700213951
 20
66.6941072517
 10
176.6788803349
 20
66.6865369114
 10
176.6876516585
 20
66.6785888863
 10
176.6963171132
 20
66.6702729544
 10
176.7048631116
 20
66.6616047116
 10
176.7132772322
 20
66.6526012078
 10
176.7215470539
 20
66.6432794934
 10
176.7296634797
 20
66.6336529753
 10
176.7376307107
 20
66.6237204892
 10
176.7454562721
 20
66.6134772274
 10
176.7531476895
 20
66.6029183826
 10
176.7607106566
 20
66.5920413906
 10
176.7681435421
 20
66.5808526607
 10
176.7754428829
 20
66.5693608459
 10
176.7826052161
 20
66.5575745989
 10
176.7906195434
 20
66.543754026
 10
176.7984512919
 20
66.5295662253
 10
176.8061013542
 20
66.5150172319
 10
176.8135706233
 20
66.5001130809
 10
176.8208599918
 20
66.4848598072
 10
176.8279703526
 20
66.4692634461
 10
176.8349025986
 20
66.4533300325
 10
176.8427661758
 20
66.4343240121
 10
176.8503892517
 20
66.414882469
 10
176.8577725441
 20
66.3950204318
 10
176.8649167704
 20
66.3747529291
 10
176.8718226485
 20
66.3540949896
 10
176.878490896
 20
66.3330616419
 10
176.8849330594
 20
66.3116674017
 10
176.8912040002
 20
66.2899247321
 10
176.8973694088
 20
66.2678455834
  0
LWPOLYLINE
  5
2A8
100
AcDbEntity
  8
RACCORDO
100
AcDbPolyline
 62
7
  6
CONTINUOUS
 90
22
 70
0
 10
194.0560054777
 20
71.6198089917
 10
194.0861371178
 20
71.6209768352
 10
194.1157633711
 20
71.6242964724
 10
194.1448842376
 20
71.6297679057
 10
194.1736321347
 20
71.6374307616
 10
194.2018746451
 20
71.6472454232
 10
194.2292145168
 20
71.6590930295
 10
194.2556674834
 20
71.6730070315
 10
194.2812178113
 20
71.6889539962
 10
194.3054210485
 20
71.7067147372
 10
194.3282853037
 20
71.7263708731
 10
194.3498024682
 20
71.7478408086
 10
194.369503764
 20
71.7706605348
 10
194.3873104828
 20
71.794834391
 10
194.4033013327
 20
71.8203580591
 10
194.4172436605
 20
71.8467545374
 10
194.4290933647
 20
71.8739854698
 10
194.4388945467
 20
71.9020892277
 10
194.446546857
 20
71.9307038936
 10
194.4520168457
 20
71.9597088298
 10
194.4553379627
 20
71.9892246828
 10
194.456510208
 20
72.0192514575
  0
LWPOLYLINE
  5
2A9
100
AcDbEntity
  8
ASSI
100
AcDbPolyline
 62
7
  6
CONTINUOUS
 90
22
 70
0
 10
194.0560054777
 20
71.6198089917
 10
194.0861371178
 20
71.6209768352
 10
194.1157633711
 20
71.6242964724
 10
194.1448842376
 20
71.6297679057
 10
194.1736321347
 20
71.6374307616
 10
194.2018746451
 20
71.6472454232
 10
194.2292145168
 20
71.6590930295
 10
194.2556674834
 20
71.6730070315
 10
194.2812178113
 20
71.6889539962
 10
194.3054210485
 20
71.7067147372
 10
194.3282853037
 20
71.7263708731
 10
194.3498024682
 20
71.7478408086
 10
194.369503764
 20
71.7706605348
 10
194.3873104828
 20
71.794834391
 10
194.4033013327
 20
71.8203580591
 10
194.4172436605
 20
71.8467545374
 10
194.4290933647
 20
71.8739854698
 10
194.4388945467
 20
71.9020892277
 10
194.446546857
 20
71.9307038936
 10
194.4520168457
 20
71.9597088298
 10
194.4553379627
 20
71.9892246828
 10
194.456510208
 20
72.0192514575
  0
LWPOLYLINE
  5
2AA
100
AcDbEntity
  8
RACCORDO
100
AcDbPolyline
 62
253
  6
CONTINUOUS
 90
16
 70
0
 10
148.6285342217
 20
71.9427794064
 10
148.6688743564
 20
71.9433892625
 10
148.7080373817
 20
71.9441659742
 10
148.745744795
 20
71.9451040181
 10
148.7817284445
 20
71.9461967234
 10
148.8157324373
 20
71.9474363195
 10
148.8475149581
 20
71.9488139912
 10
148.8768499897
 20
71.9503199412
 10
148.9035289197
 20
71.9519434603
 10
148.9273620242
 20
71.953673003
 10
148.9481798171
 20
71.9554962699
 10
148.9658342554
 20
71.957400295
 10
148.9801997917
 20
71.959371538
 10
148.9911742674
 20
71.9613959809
 10
148.9986796388
 20
71.9634592269
 10
149.0026625325
 20
71.9655466036
  0
LWPOLYLINE
  5
2AB
100
AcDbEntity
  8
ASSI
100
AcDbPolyline
 62
253
  6
CONTINUOUS
 90
16
 70
0
 10
148.6285342217
 20
71.9427794064
 10
148.6688743564
 20
71.9433892625
 10
148.7080373817
 20
71.9441659742
 10
148.745744795
 20
71.9451040181
 10
148.7817284445
 20
71.9461967234
 10
148.8157324373
 20
71.9474363195
 10
148.8475149581
 20
71.9488139912
 10
148.8768499897
 20
71.9503199412
 10
148.9035289197
 20
71.9519434603
 10
148.9273620242
 20
71.953673003
 10
148.9481798171
 20
71.9554962699
 10
148.9658342554
 20
71.957400295
 10
148.9801997917
 20
71.959371538
 10
148.9911742674
 20
71.9613959809
 10
148.9986796388
 20
71.9634592269
 10
149.0026625325
 20
71.9655466036
  0
LINE
  5
2AC
100
AcDbEntity
  8
RACCORDO
100
AcDbLine
 62
253
  6
CONTINUOUS
 10
232.2718380528
 20
71.7205685299
 11
232.1906348217
 21
71.7198928629
  0
LINE
  5
2AD
100
AcDbEntity
  8
ASSI
100
AcDbLine
 62
253
  6
CONTINUOUS
 10
232.2718380528
 20
71.7205685299
 11
232.1906348217
 21
71.7198928629
  0
LWPOLYLINE
  5
2AE
100
AcDbEntity
  8
RACCORDO
100
AcDbPolyline
 62
253
  6
CONTINUOUS
 90
3
 70
0
 10
232.2718396009
 20
71.7830964224
 10
232.1906362804
 20
71.7824209446
 10
232.1494767928
 20
71.7823364551
  0
LWPOLYLINE
  5
2AF
100
AcDbEntity
  8
ASSI
100
AcDbPolyline
 62
253
  6
CONTINUOUS
 90
3
 70
0
 10
232.2718396009
 20
71.7830964224
 10
232.1906362804
 20
71.7824209446
 10
232.1494767928
 20
71.7823364551
  0
LWPOLYLINE
  5
2B0
100
AcDbEntity
  8
RACCORDO
100
AcDbPolyline
 62
253
  6
CONTINUOUS
 90
3
 70
0
 10
148.5033494687
 20
71.9419882323
 10
148.5454764505
 20
71.9420763916
 10
148.6285342217
 20
71.9427794064
  0
LWPOLYLINE
  5
2B1
100
AcDbEntity
  8
ASSI
100
AcDbPolyline
 62
253
  6
CONTINUOUS
 90
3
 70
0
 10
148.5033494687
 20
71.9419882323
 10
148.5454764505
 20
71.9420763916
 10
148.6285342217
 20
71.9427794064
  0
LINE
  5
2B2
100
AcDbEntity
  8
RACCORDO
100
AcDbLine
 62
253
  6
CONTINUOUS
 10
194.1084637031
 20
71.0410428554
 11
149.4045566971
 21
71.0410428554
  0
LINE
  5
2B3
100
AcDbEntity
  8
ASSI
100
AcDbLine
 62
253
  6
CONTINUOUS
 10
194.1084637031
 20
71.0410428554
 11
149.4045566971
 21
71.0410428554
  0
LINE
  5
2B4
100
AcDbEntity
  8
RACCORDO
100
AcDbLine
 62
253
  6
CONTINUOUS
 10
194.1084558929
 20
71.5674874293
 11
149.4045364642
 21
71.5674874293
  0
LINE
  5
2B5
100
AcDbEntity
  8
ASSI
100
AcDbLine
 62
253
  6
CONTINUOUS
 10
194.1084558929
 20
71.5674874293
 11
149.4045364642
 21
71.5674874293
  0
LINE
  5
2B6
100
AcDbEntity
  8
RACCORDO
100
AcDbLine
 62
7
  6
CONTINUOUS
 10
149.4570149225
 20
71.6198089917
 11
194.0560054777
 21
71.6198089917
  0
LINE
  5
2B7
100
AcDbEntity
  8
ASSI
100
AcDbLine
 62
7
  6
CONTINUOUS
 10
149.4570149225
 20
71.6198089917
 11
194.0560054777
 21
71.6198089917
  0
LINE
  5
2B8
100
AcDbEntity
  8
RACCORDO
100
AcDbLine
 62
253
  6
CONTINUOUS
 10
194.9817671232
 20
71.7198089917
 11
232.1906348217
 21
71.7198928629
  0
LINE
  5
2B9
100
AcDbEntity
  8
ASSI
100
AcDbLine
 62
253
  6
CONTINUOUS
 10
194.9817671232
 20
71.7198089917
 11
232.1906348217
 21
71.7198928629
  0
LINE
  5
2BA
100
AcDbEntity
  8
RACCORDO
100
AcDbLine
 62
253
  6
CONTINUOUS
 10
232.7565102001
 20
71.8051867694
 11
232.6475693582
 21
71.8051867694
  0
LINE
  5
2BB
100
AcDbEntity
  8
ASSI
100
AcDbLine
 62
253
  6
CONTINUOUS
 10
232.7565102001
 20
71.8051867694
 11
232.6475693582
 21
71.8051867694
  0
LINE
  5
2BC
100
AcDbEntity
  8
RACCORDO
100
AcDbLine
 62
253
  6
CONTINUOUS
 10
110.7565102001
 20
71.8051867694
 11
110.865451042
 21
71.8051867694
  0
LINE
  5
2BD
100
AcDbEntity
  8
ASSI
100
AcDbLine
 62
253
  6
CONTINUOUS
 10
110.7565102001
 20
71.8051867694
 11
110.865451042
 21
71.8051867694
  0
LINE
  5
2BE
100
AcDbEntity
  8
RACCORDO
100
AcDbLine
 62
253
  6
CONTINUOUS
 10
111.3223855776
 20
71.7198928621
 11
148.5312532771
 21
71.7198089917
  0
LINE
  5
2BF
100
AcDbEntity
  8
ASSI
100
AcDbLine
 62
253
  6
CONTINUOUS
 10
111.3223855776
 20
71.7198928621
 11
148.5312532771
 21
71.7198089917
  0
LWPOLYLINE
  5
2C0
100
AcDbEntity
  8
RACCORDO
100
AcDbPolyline
 62
253
  6
CONTINUOUS
 90
18
 70
0
 10
195.0096709315
 20
71.9419881931
 10
194.9257165686
 20
71.9423407107
 10
194.8844862152
 20
71.9427793775
 10
194.8441461008
 20
71.9433892366
 10
194.8049830984
 20
71.9441659513
 10
194.7672757104
 20
71.945103998
 10
194.7312920874
 20
71.9461967059
 10
194.6972881219
 20
71.9474363045
 10
194.6655056284
 20
71.9488139784
 10
194.6361706236
 20
71.9503199305
 10
194.6094917192
 20
71.9519434515
 10
194.5856586385
 20
71.9536729959
 10
194.5648408671
 20
71.9554962644
 10
194.5471864477
 20
71.9574002909
 10
194.5328209272
 20
71.9593715354
 10
194.5218464639
 20
71.9613959795
 10
194.5143411013
 20
71.9634592267
 10
194.5103582126
 20
71.9655466045
  0
LWPOLYLINE
  5
2C1
100
AcDbEntity
  8
ASSI
100
AcDbPolyline
 62
253
  6
CONTINUOUS
 90
18
 70
0
 10
195.0096709315
 20
71.9419881931
 10
194.9257165686
 20
71.9423407107
 10
194.8844862152
 20
71.9427793775
 10
194.8441461008
 20
71.9433892366
 10
194.8049830984
 20
71.9441659513
 10
194.7672757104
 20
71.945103998
 10
194.7312920874
 20
71.9461967059
 10
194.6972881219
 20
71.9474363045
 10
194.6655056284
 20
71.9488139784
 10
194.6361706236
 20
71.9503199305
 10
194.6094917192
 20
71.9519434515
 10
194.5856586385
 20
71.9536729959
 10
194.5648408671
 20
71.9554962644
 10
194.5471864477
 20
71.9574002909
 10
194.5328209272
 20
71.9593715354
 10
194.5218464639
 20
71.9613959795
 10
194.5143411013
 20
71.9634592267
 10
194.5103582126
 20
71.9655466045
  0
LWPOLYLINE
  5
2C2
100
AcDbEntity
  8
RACCORDO
100
AcDbPolyline
 62
253
  6
CONTINUOUS
 90
22
 70
0
 10
149.404536395
 20
71.5674873609
 10
149.3792038449
 20
71.5681951042
 10
149.3539871027
 20
71.5704874769
 10
149.3289854509
 20
71.5743521052
 10
149.3043031066
 20
71.5797680704
 10
149.2800304155
 20
71.5867122187
 10
149.2562446875
 20
71.5951634412
 10
149.2330297284
 20
71.6050936413
 10
149.2104881746
 20
71.6164605505
 10
149.1887223137
 20
71.6292145729
 10
149.1678303344
 20
71.6432942152
 10
149.147879555
 20
71.6586499203
 10
149.1289236835
 20
71.6752452604
 10
149.1110244902
 20
71.6930356461
 10
149.0942751904
 20
71.7119382333
 10
149.0787697196
 20
71.7318522616
 10
149.0645580508
 20
71.7527135515
 10
149.0517074003
 20
71.7744224844
 10
149.0403088629
 20
71.7968061323
 10
149.0304018224
 20
71.819737737
 10
149.0219913068
 20
71.8431472565
 10
149.0150915226
 20
71.8669372185
  0
LWPOLYLINE
  5
2C3
100
AcDbEntity
  8
ASSI
100
AcDbPolyline
 62
253
  6
CONTINUOUS
 90
22
 70
0
 10
149.404536395
 20
71.5674873609
 10
149.3792038449
 20
71.5681951042
 10
149.3539871027
 20
71.5704874769
 10
149.3289854509
 20
71.5743521052
 10
149.3043031066
 20
71.5797680704
 10
149.2800304155
 20
71.5867122187
 10
149.2562446875
 20
71.5951634412
 10
149.2330297284
 20
71.6050936413
 10
149.2104881746
 20
71.6164605505
 10
149.1887223137
 20
71.6292145729
 10
149.1678303344
 20
71.6432942152
 10
149.147879555
 20
71.6586499203
 10
149.1289236835
 20
71.6752452604
 10
149.1110244902
 20
71.6930356461
 10
149.0942751904
 20
71.7119382333
 10
149.0787697196
 20
71.7318522616
 10
149.0645580508
 20
71.7527135515
 10
149.0517074003
 20
71.7744224844
 10
149.0403088629
 20
71.7968061323
 10
149.0304018224
 20
71.819737737
 10
149.0219913068
 20
71.8431472565
 10
149.0150915226
 20
71.8669372185
  0
LINE
  5
2C4
100
AcDbEntity
  8
RACCORDO
100
AcDbLine
 62
253
  6
CONTINUOUS
 10
194.9817671231
 20
71.7198095098
 11
194.9409184091
 21
71.7303091075
  0
LINE
  5
2C5
100
AcDbEntity
  8
ASSI
100
AcDbLine
 62
253
  6
CONTINUOUS
 10
194.9817671231
 20
71.7198095098
 11
194.9409184091
 21
71.7303091075
  0
LINE
  5
2C6
100
AcDbEntity
  8
SCRITTA
100
AcDbLine
 62
253
  6
CONTINUOUS
 10
166.2528422001
 20
68.2417109917
 11
167.1404032001
 21
65.4420079917
  0
LINE
  5
2C7
100
AcDbEntity
  8
SCRITTA
100
AcDbLine
 62
253
  6
CONTINUOUS
 10
167.4213642001
 20
66.3145889917
 11
166.8876902001
 21
68.2417109917
  0
LINE
  5
2C8
100
AcDbEntity
  8
RACCORDO
100
AcDbLine
 62
253
  6
CONTINUOUS
 10
110.8671633733
 20
50.2294519763
 11
110.756512922
 21
50.116948775
  0
LINE
  5
2C9
100
AcDbEntity
  8
ASSI
100
AcDbLine
 62
253
  6
CONTINUOUS
 10
110.8671633733
 20
50.2294519763
 11
110.756512922
 21
50.116948775
  0
LINE
  5
2CA
100
AcDbEntity
  8
RACCORDO
100
AcDbLine
 62
253
  6
CONTINUOUS
 10
111.6593253798
 20
49.4404743645
 11
111.5407474094
 21
49.3199642977
  0
LINE
  5
2CB
100
AcDbEntity
  8
ASSI
100
AcDbLine
 62
253
  6
CONTINUOUS
 10
111.6593253798
 20
49.4404743645
 11
111.5407474094
 21
49.3199642977
  0
LWPOLYLINE
  5
2CC
100
AcDbEntity
  8
RACCORDO
100
AcDbPolyline
 62
253
  6
CONTINUOUS
 90
15
 70
0
 10
148.691751666
 20
71.7621299897
 10
148.7297223886
 20
71.772592499
 10
148.7662797017
 20
71.7828579443
 10
148.8011632491
 20
71.7928532166
 10
148.8341245953
 20
71.8025071308
 10
148.8649289942
 20
71.8117509333
 10
148.8933570613
 20
71.8205187911
 10
148.9192063359
 20
71.8287482606
 10
148.942292723
 20
71.8363807329
 10
148.9624518049
 20
71.8433618505
 10
148.9795400113
 20
71.849641895
 10
148.9934356424
 20
71.8551761407
 10
149.0040397355
 20
71.8599251737
 10
149.0112767699
 20
71.863855172
 10
149.0150952042
 20
71.8669381467
  0
LWPOLYLINE
  5
2CD
100
AcDbEntity
  8
ASSI
100
AcDbPolyline
 62
253
  6
CONTINUOUS
 90
15
 70
0
 10
148.691751666
 20
71.7621299897
 10
148.7297223886
 20
71.772592499
 10
148.7662797017
 20
71.7828579443
 10
148.8011632491
 20
71.7928532166
 10
148.8341245953
 20
71.8025071308
 10
148.8649289942
 20
71.8117509333
 10
148.8933570613
 20
71.8205187911
 10
148.9192063359
 20
71.8287482606
 10
148.942292723
 20
71.8363807329
 10
148.9624518049
 20
71.8433618505
 10
148.9795400113
 20
71.849641895
 10
148.9934356424
 20
71.8551761407
 10
149.0040397355
 20
71.8599251737
 10
149.0112767699
 20
71.863855172
 10
149.0150952042
 20
71.8669381467
  0
LINE
  5
2CE
100
AcDbEntity
  8
RACCORDO
100
AcDbLine
 62
253
  6
CONTINUOUS
 10
148.6126598206
 20
71.7409127016
 11
148.691751666
 21
71.7621299897
  0
LINE
  5
2CF
100
AcDbEntity
  8
ASSI
100
AcDbLine
 62
253
  6
CONTINUOUS
 10
148.6126598206
 20
71.7409127016
 11
148.691751666
 21
71.7621299897
  0
LINE
  5
2D0
100
AcDbEntity
  8
RACCORDO
100
AcDbLine
 62
253
  6
CONTINUOUS
 10
148.5312532774
 20
71.7198094299
 11
148.6126598206
 21
71.7409127016
  0
LINE
  5
2D1
100
AcDbEntity
  8
ASSI
100
AcDbLine
 62
253
  6
CONTINUOUS
 10
148.5312532774
 20
71.7198094299
 11
148.6126598206
 21
71.7409127016
  0
LWPOLYLINE
  5
2D2
100
AcDbEntity
  8
RACCORDO
100
AcDbPolyline
 62
253
  6
CONTINUOUS
 90
17
 70
0
 10
194.9409184091
 20
71.7303091075
 10
194.860382374
 20
71.7515450113
 10
194.8212686216
 20
71.7621300778
 10
194.7832978498
 20
71.7725925944
 10
194.7467404823
 20
71.7828580485
 10
194.7118568766
 20
71.7928533305
 10
194.6788954699
 20
71.8025072553
 10
194.6480910097
 20
71.8117510687
 10
194.619662882
 20
71.8205189373
 10
194.5938135487
 20
71.8287484173
 10
194.5707271059
 20
71.8363808995
 10
194.5505679729
 20
71.843362026
 10
194.5334797206
 20
71.8496420783
 10
194.5195840497
 20
71.8551763304
 10
194.5089799237
 20
71.859925368
 10
194.501742864
 20
71.8638553692
 10
194.4979244121
 20
71.8669383449
  0
LWPOLYLINE
  5
2D3
100
AcDbEntity
  8
ASSI
100
AcDbPolyline
 62
253
  6
CONTINUOUS
 90
17
 70
0
 10
194.9409184091
 20
71.7303091075
 10
194.860382374
 20
71.7515450113
 10
194.8212686216
 20
71.7621300778
 10
194.7832978498
 20
71.7725925944
 10
194.7467404823
 20
71.7828580485
 10
194.7118568766
 20
71.7928533305
 10
194.6788954699
 20
71.8025072553
 10
194.6480910097
 20
71.8117510687
 10
194.619662882
 20
71.8205189373
 10
194.5938135487
 20
71.8287484173
 10
194.5707271059
 20
71.8363808995
 10
194.5505679729
 20
71.843362026
 10
194.5334797206
 20
71.8496420783
 10
194.5195840497
 20
71.8551763304
 10
194.5089799237
 20
71.859925368
 10
194.501742864
 20
71.8638553692
 10
194.4979244121
 20
71.8669383449
  0
LINE
  5
2D4
100
AcDbEntity
  8
RACCORDO
100
AcDbLine
 62
253
  6
CONTINUOUS
 10
111.6593253798
 20
139.1991436189
 11
111.5407474094
 21
139.3196536856
  0
LINE
  5
2D5
100
AcDbEntity
  8
ASSI
100
AcDbLine
 62
253
  6
CONTINUOUS
 10
111.6593253798
 20
139.1991436189
 11
111.5407474094
 21
139.3196536856
  0
LINE
  5
2D6
100
AcDbEntity
  8
RACCORDO
100
AcDbLine
 62
253
  6
CONTINUOUS
 10
110.8671633733
 20
138.4101660071
 11
110.756512922
 21
138.5226692083
  0
LINE
  5
2D7
100
AcDbEntity
  8
ASSI
100
AcDbLine
 62
253
  6
CONTINUOUS
 10
110.8671633733
 20
138.4101660071
 11
110.756512922
 21
138.5226692083
  0
LWPOLYLINE
  5
2D8
100
AcDbEntity
  8
SCRITTA
100
AcDbPolyline
 62
253
  6
CONTINUOUS
 90
47
 70
0
 10
176.2978903164
 20
66.2912045014
 10
176.293957579
 20
66.3013007891
 10
176.2898478113
 20
66.3111557895
 10
176.2855701085
 20
66.3207719566
 10
176.2811335663
 20
66.3301517447
 10
176.2765472801
 20
66.3392976077
 10
176.2718203454
 20
66.3482119998
 10
176.2669618577
 20
66.3568973752
 10
176.2619809123
 20
66.3653561878
 10
176.2568866048
 20
66.3735908919
 10
176.2516880307
 20
66.3816039416
 10
176.2457986026
 20
66.3902505396
 10
176.2397921006
 20
66.3986310248
 10
176.2336689462
 20
66.4067499021
 10
176.2274295606
 20
66.4146116764
 10
176.2210743652
 20
66.4222208527
 10
176.2146037816
 20
66.4295819357
 10
176.208018231
 20
66.4366994306
 10
176.2013181349
 20
66.4435778421
 10
176.1945039145
 20
66.4502216752
 10
176.1875762061
 20
66.4566340786
 10
176.1805365042
 20
66.4628127768
 10
176.173386518
 20
66.4687541379
 10
176.1661279569
 20
66.4744545303
 10
176.1587625301
 20
66.4799103221
 10
176.151291947
 20
66.4851178815
 10
176.1437179167
 20
66.4900735769
 10
176.1360421486
 20
66.4947737764
 10
176.1282663519
 20
66.4992148484
 10
176.1203920431
 20
66.5033945089
 10
176.1124199671
 20
66.5073158665
 10
176.104350676
 20
66.5109833772
 10
176.0961847218
 20
66.5144014976
 10
176.0879226566
 20
66.5175746838
 10
176.0795650324
 20
66.5205073922
 10
176.0711124015
 20
66.5232040791
 10
176.0625653157
 20
66.5256692008
 10
176.0539243273
 20
66.5279072137
 10
176.0451898651
 20
66.5299213289
 10
176.0363618657
 20
66.5317097774
 10
176.0274401427
 20
66.5332695452
 10
176.0184245095
 20
66.5345976181
 10
176.0093147796
 20
66.5356909821
 10
176.0001107664
 20
66.5365466231
 10
175.9908122835
 20
66.5371615269
 10
175.9814191444
 20
66.5375326796
 10
175.9719311624
 20
66.5376570669
  0
LINE
  5
2D9
100
AcDbEntity
  8
SCRITTA
100
AcDbLine
 62
253
  6
CONTINUOUS
 10
170.3564422001
 20
67.2701619917
 11
171.0420232001
 21
65.4420079917
  0
LINE
  5
2DA
100
AcDbEntity
  8
IMPORT_IGES
100
AcDbLine
 62
7
  6
CONTINUOUS
 10
171.0420232001
 20
65.4420079917
 11
170.3564422001
 21
67.2701619917
  0
LINE
  5
2DB
100
AcDbEntity
  8
SCRITTA
100
AcDbLine
 62
253
  6
CONTINUOUS
 10
171.0861962001
 20
66.6873069917
 11
170.5079602001
 21
68.2417109917
  0
LWPOLYLINE
  5
2DC
100
AcDbEntity
  8
IMPORT_IGES
100
AcDbPolyline
 62
7
  6
CONTINUOUS
 90
8
 70
0
 10
176.297978562
 20
66.2909695624
 10
176.3121834405
 20
66.2522254833
 10
176.3258093025
 20
66.2132818779
 10
176.3389191053
 20
66.1741607977
 10
176.3515758067
 20
66.1348842942
 10
176.3638423643
 20
66.0954744189
 10
176.3757817355
 20
66.0559532232
 10
176.387456878
 20
66.0163427587
  0
LINE
  5
2DD
100
AcDbEntity
  8
IMPORT_IGES
100
AcDbLine
 62
7
  6
CONTINUOUS
 10
174.0459002001
 20
68.2417109917
 11
174.9049182001
 21
65.4420079917
  0
LINE
  5
2DE
100
AcDbEntity
  8
SCRITTA
100
AcDbLine
 62
253
  6
CONTINUOUS
 10
174.9049182001
 20
65.4420079917
 11
174.0459002001
 21
68.2417109917
  0
LINE
  5
2DF
100
AcDbEntity
  8
IMPORT_IGES
100
AcDbLine
 62
7
  6
CONTINUOUS
 10
172.2488182001
 20
68.2417109917
 11
172.5106222001
 21
65.4420079917
  0
LINE
  5
2E0
100
AcDbEntity
  8
SCRITTA
100
AcDbLine
 62
253
  6
CONTINUOUS
 10
172.5106222001
 20
65.4420079917
 11
172.2488182001
 21
68.2417109917
  0
LINE
  5
2E1
100
AcDbEntity
  8
SCRITTA
100
AcDbLine
 62
253
  6
CONTINUOUS
 10
171.8188472001
 20
67.2625399917
 11
171.9389162001
 21
65.4420079917
  0
LINE
  5
2E2
100
AcDbEntity
  8
IMPORT_IGES
100
AcDbLine
 62
7
  6
CONTINUOUS
 10
171.9389162001
 20
65.4420079917
 11
171.8188472001
 21
67.2625399917
  0
LINE
  5
2E3
100
AcDbEntity
  8
IMPORT_IGES
100
AcDbLine
 62
7
  6
CONTINUOUS
 10
168.7722252001
 20
68.2418789917
 11
168.7722252001
 21
65.4420079917
  0
LINE
  5
2E4
100
AcDbEntity
  8
SCRITTA
100
AcDbLine
 62
253
  6
CONTINUOUS
 10
168.7722252001
 20
65.4420079917
 11
168.7722252001
 21
68.241879066
  0
LINE
  5
2E5
100
AcDbEntity
  8
SCRITTA
100
AcDbLine
 62
253
  6
CONTINUOUS
 10
169.3566332001
 20
68.2418789917
 11
169.3566332001
 21
65.4420079175
  0
LINE
  5
2E6
100
AcDbEntity
  8
IMPORT_IGES
100
AcDbLine
 62
7
  6
CONTINUOUS
 10
170.3564422001
 20
67.2701619917
 11
170.2303272001
 21
65.4420079917
  0
LINE
  5
2E7
100
AcDbEntity
  8
SCRITTA
100
AcDbLine
 62
253
  6
CONTINUOUS
 10
170.2303272001
 20
65.4420079917
 11
170.3564422001
 21
67.2701619917
  0
LINE
  5
2E8
100
AcDbEntity
  8
SCRITTA
100
AcDbLine
 62
253
  6
CONTINUOUS
 10
169.9240352001
 20
68.2417109917
 11
169.6712382001
 21
65.4420079917
  0
LWPOLYLINE
  5
2E9
100
AcDbEntity
  8
SCRITTA
100
AcDbPolyline
 62
253
  6
CONTINUOUS
 90
8
 70
0
 10
176.384040835
 20
66.0280209362
 10
176.3724625094
 20
66.067038788
 10
176.3607149526
 20
66.1056068203
 10
176.3487551855
 20
66.1437075286
 10
176.3365402288
 20
66.181323408
 10
176.3240271033
 20
66.218436954
 10
176.3111728297
 20
66.255030662
 10
176.2979344287
 20
66.2910870272
  0
LINE
  5
2EA
100
AcDbEntity
  8
SCRITTA
100
AcDbLine
 62
253
  6
CONTINUOUS
 10
176.5386079305
 20
65.4936089348
 11
176.4653756897
 21
65.7438287507
  0
LINE
  5
2EB
100
AcDbEntity
  8
SCRITTA
100
AcDbLine
 62
253
  6
CONTINUOUS
 10
176.553525822
 20
65.4420076373
 11
176.5386079305
 21
65.4936089348
  0
LINE
  5
2EC
100
AcDbEntity
  8
IMPORT_IGES
100
AcDbLine
 62
7
  6
CONTINUOUS
 10
176.4440726757
 20
65.817723204
 11
176.553525822
 21
65.4420076373
  0
LINE
  5
2ED
100
AcDbEntity
  8
IMPORT_IGES
100
AcDbLine
 62
7
  6
CONTINUOUS
 10
176.387456878
 20
66.0163427587
 11
176.4102663073
 21
65.9369422288
  0
LWPOLYLINE
  5
2EE
100
AcDbEntity
  8
SCRITTA
100
AcDbPolyline
 62
253
  6
CONTINUOUS
 90
4
 70
0
 10
176.4653756897
 20
65.7438287507
 10
176.4240745618
 20
65.8881872338
 10
176.4107059431
 20
65.9353337598
 10
176.384040835
 20
66.0280209362
  0
LINE
  5
2EF
100
AcDbEntity
  8
IMPORT_IGES
100
AcDbLine
 62
7
  6
CONTINUOUS
 10
176.4102663073
 20
65.9369422288
 11
176.4440726757
 21
65.817723204
  0
LWPOLYLINE
  5
2F0
100
AcDbEntity
  8
IMPORT_IGES
100
AcDbPolyline
 62
7
  6
CONTINUOUS
 90
45
 70
0
 10
176.8982336598
 20
66.2648195087
 10
176.8922104123
 20
66.28646315
 10
176.8859756075
 20
66.3081619036
 10
176.8794453485
 20
66.3299608287
 10
176.8725357388
 20
66.3519049845
 10
176.8685734714
 20
66.3639646137
 10
176.8644704569
 20
66.3760688429
 10
176.8602241399
 20
66.3882055068
 10
176.8558319648
 20
66.40036244
 10
176.8512913759
 20
66.4125274772
 10
176.8465998178
 20
66.4246884531
 10
176.8417547349
 20
66.4368332023
 10
176.8367535715
 20
66.4489495594
 10
176.8315937721
 20
66.4610253592
 10
176.8262727812
 20
66.4730484362
 10
176.8207880432
 20
66.4850066251
 10
176.8151370025
 20
66.4968877606
 10
176.8093171036
 20
66.5086796773
 10
176.8033257908
 20
66.5203702099
 10
176.7971605087
 20
66.5319471931
 10
176.7908187015
 20
66.5433984614
 10
176.7842978139
 20
66.5547118495
 10
176.7775952901
 20
66.5658751922
 10
176.7707085747
 20
66.5768763239
 10
176.7636351121
 20
66.5877030795
 10
176.7563723467
 20
66.5983432936
 10
176.7489177229
 20
66.6087848007
 10
176.7412686851
 20
66.6190154356
 10
176.7334226779
 20
66.6290230329
 10
176.7253771455
 20
66.6387954273
 10
176.7171295325
 20
66.6483204533
 10
176.7086772834
 20
66.6575859458
 10
176.7000178424
 20
66.6665797393
 10
176.6911486541
 20
66.6752896684
 10
176.6820671629
 20
66.6837035679
 10
176.6727708131
 20
66.6918092724
 10
176.6632570494
 20
66.6995946165
 10
176.653523316
 20
66.7070474349
 10
176.6435670574
 20
66.7141555623
 10
176.633385718
 20
66.7209068332
 10
176.6229767424
 20
66.7272890824
 10
176.6123375748
 20
66.7332901445
 10
176.6014656597
 20
66.7388978542
 10
176.5903584417
 20
66.7441000461
 10
176.579013365
 20
66.7488845548
  0
LINE
  5
2F1
100
AcDbEntity
  8
SCRITTA
100
AcDbLine
 62
253
  6
CONTINUOUS
 10
174.1375842001
 20
66.0009279917
 11
174.2889762001
 21
65.4420079917
  0
LINE
  5
2F2
100
AcDbEntity
  8
IMPORT_IGES
100
AcDbLine
 62
7
  6
CONTINUOUS
 10
174.2889762001
 20
65.4420079917
 11
174.1375842001
 21
66.0009279917
  0
LINE
  5
2F3
100
AcDbEntity
  8
IMPORT_IGES
100
AcDbLine
 62
7
  6
CONTINUOUS
 10
176.943168039
 20
66.0986415455
 11
176.8982336598
 21
66.2648195087
  0
LINE
  5
2F4
100
AcDbEntity
  8
SCRITTA
100
AcDbLine
 62
253
  6
CONTINUOUS
 10
176.8973694088
 20
66.2678455834
 11
176.950990279
 21
66.0693269791
  0
LINE
  5
2F5
100
AcDbEntity
  8
IMPORT_IGES
100
AcDbLine
 62
7
  6
CONTINUOUS
 10
177.115658412
 20
65.4420076373
 11
177.0889951578
 21
65.5419621408
  0
LINE
  5
2F6
100
AcDbEntity
  8
SCRITTA
100
AcDbLine
 62
253
  6
CONTINUOUS
 10
177.0831498158
 20
65.5640194287
 11
177.115658412
 21
65.4420076373
  0
LINE
  5
2F7
100
AcDbEntity
  8
IMPORT_IGES
100
AcDbLine
 62
7
  6
CONTINUOUS
 10
176.9966647218
 20
65.8960946644
 11
176.943168039
 21
66.0986415455
  0
LINE
  5
2F8
100
AcDbEntity
  8
SCRITTA
100
AcDbLine
 62
253
  6
CONTINUOUS
 10
176.950990279
 20
66.0693269791
 11
177.0182692452
 21
65.8133679961
  0
LINE
  5
2F9
100
AcDbEntity
  8
IMPORT_IGES
100
AcDbLine
 62
7
  6
CONTINUOUS
 10
177.0889951578
 20
65.5419621408
 11
176.9966647218
 21
65.8960946644
  0
LINE
  5
2FA
100
AcDbEntity
  8
SCRITTA
100
AcDbLine
 62
253
  6
CONTINUOUS
 10
177.0182692452
 20
65.8133679961
 11
177.0831498158
 21
65.5640194287
  0
LINE
  5
2FB
100
AcDbEntity
  8
SCRITTA
100
AcDbLine
 62
253
  6
CONTINUOUS
 10
173.7522472001
 20
67.4724239917
 11
174.0207902001
 21
66.4334179917
  0
LWPOLYLINE
  5
2FC
100
AcDbEntity
  8
SCRITTA
100
AcDbPolyline
 62
253
  6
CONTINUOUS
 90
49
 70
0
 10
176.4271634982
 20
67.4309464203
 10
176.4268478751
 20
67.4414456953
 10
176.4262128295
 20
67.4518871604
 10
176.4252614859
 20
67.4622746333
 10
176.4239969688
 20
67.4726119315
 10
176.4224224028
 20
67.4829028726
 10
176.4205409122
 20
67.4931512742
 10
176.4183556217
 20
67.5033609539
 10
176.4158696556
 20
67.5135357292
 10
176.4130856102
 20
67.5236768987
 10
176.410003968
 20
67.533775684
 10
176.4066246835
 20
67.5438207877
 10
176.4029477108
 20
67.5538009124
 10
176.3989730044
 20
67.5637047607
 10
176.3947005184
 20
67.5735210351
 10
176.3901302072
 20
67.5832384381
 10
176.3852620251
 20
67.5928456725
 10
176.3800959077
 20
67.6023309391
 10
176.3746317154
 20
67.6116804332
 10
176.36886929
 20
67.6208798481
 10
176.3628084732
 20
67.6299148776
 10
176.3564491069
 20
67.638771215
 10
176.3497910328
 20
67.647434554
 10
176.3428340925
 20
67.655890588
 10
176.335578128
 20
67.6641250107
 10
176.3280249349
 20
67.6721249876
 10
176.3201841249
 20
67.6798835726
 10
176.3120672635
 20
67.6873952915
 10
176.3036859164
 20
67.6946546704
 10
176.2950516491
 20
67.7016562351
 10
176.2861760274
 20
67.7083945115
 10
176.2770706167
 20
67.7148640255
 10
176.2677469827
 20
67.721059303
 10
176.2582167037
 20
67.7269756153
 10
176.2484914089
 20
67.7326112148
 10
176.2385827402
 20
67.7379650992
 10
176.2285023396
 20
67.7430362662
 10
176.2182618489
 20
67.7478237136
 10
176.2078729101
 20
67.752326439
 10
176.1973471651
 20
67.7565434403
 10
176.1866962558
 20
67.7604737152
 10
176.1759291554
 20
67.7641158012
 10
176.1650441626
 20
67.7674663952
 10
176.1540369071
 20
67.7705217342
 10
176.1429030189
 20
67.7732780549
 10
176.1316381278
 20
67.7757315941
 10
176.1202378637
 20
67.7778785887
 10
176.1086978566
 20
67.7797152754
 10
176.0970137363
 20
67.7812378911
  0
LINE
  5
2FD
100
AcDbEntity
  8
SCRITTA
100
AcDbLine
 62
253
  6
CONTINUOUS
 10
175.0765290024
 20
65.4420076373
 11
175.0765290024
 21
68.2090015272
  0
LINE
  5
2FE
100
AcDbEntity
  8
SCRITTA
100
AcDbLine
 62
253
  6
CONTINUOUS
 10
175.6392074542
 20
67.7647541957
 11
175.6392074542
 21
66.9961808774
  0
LINE
  5
2FF
100
AcDbEntity
  8
SCRITTA
100
AcDbLine
 62
253
  6
CONTINUOUS
 10
175.658585545
 20
66.5376570669
 11
175.658585545
 21
65.4420076494
  0
LINE
  5
300
100
AcDbEntity
  8
IMPORT_IGES
100
AcDbLine
 62
7
  6
CONTINUOUS
 10
175.658585545
 20
65.4420076373
 11
175.658585545
 21
66.5376570669
  0
LINE
  5
301
100
AcDbEntity
  8
SCRITTA
100
AcDbLine
 62
253
  6
CONTINUOUS
 10
176.579013365
 20
66.7654283636
 11
176.579013365
 21
66.7488845544
  0
LINE
  5
302
100
AcDbEntity
  8
IMPORT_IGES
100
AcDbLine
 62
7
  6
CONTINUOUS
 10
176.579013365
 20
66.7488845548
 11
176.579013365
 21
66.7654283636
  0
LINE
  5
303
100
AcDbEntity
  8
SCRITTA
100
AcDbLine
 62
253
  6
CONTINUOUS
 10
167.9713412001
 20
68.2417109917
 11
167.4213642001
 21
66.3145889917
  0
LINE
  5
304
100
AcDbEntity
  8
IMPORT_IGES
100
AcDbLine
 62
7
  6
CONTINUOUS
 10
168.5553502001
 20
68.2417109917
 11
167.6554132001
 21
65.4420079917
  0
LINE
  5
305
100
AcDbEntity
  8
SCRITTA
100
AcDbLine
 62
253
  6
CONTINUOUS
 10
167.6554132001
 20
65.4420079917
 11
168.5553502001
 21
68.2417109917
  0
LINE
  5
306
100
AcDbEntity
  8
RACCORDO
100
AcDbLine
 62
253
  6
CONTINUOUS
 10
194.0560054777
 20
117.0198089917
 11
194.1084560157
 21
117.072130554
  0
LINE
  5
307
100
AcDbEntity
  8
ASSI
100
AcDbLine
 62
253
  6
CONTINUOUS
 10
194.0560054777
 20
117.0198089917
 11
194.1084560157
 21
117.072130554
  0
LINE
  5
308
100
AcDbEntity
  8
RACCORDO
100
AcDbLine
 62
253
  6
CONTINUOUS
 10
194.456510208
 20
116.6203665259
 11
194.5103578725
 21
116.6740796418
  0
LINE
  5
309
100
AcDbEntity
  8
ASSI
100
AcDbLine
 62
253
  6
CONTINUOUS
 10
194.456510208
 20
116.6203665259
 11
194.5103578725
 21
116.6740796418
  0
LINE
  5
30A
100
AcDbEntity
  8
RACCORDO
100
AcDbLine
 62
253
  6
CONTINUOUS
 10
149.0026625335
 20
71.9655471895
 11
149.0565101923
 21
72.0192514575
  0
LINE
  5
30B
100
AcDbEntity
  8
ASSI
100
AcDbLine
 62
253
  6
CONTINUOUS
 10
149.0026625335
 20
71.9655471895
 11
149.0565101923
 21
72.0192514575
  0
LINE
  5
30C
100
AcDbEntity
  8
RACCORDO
100
AcDbLine
 62
253
  6
CONTINUOUS
 10
149.4045364642
 20
71.5674874293
 11
149.4570149225
 21
71.6198089917
  0
LINE
  5
30D
100
AcDbEntity
  8
ASSI
100
AcDbLine
 62
253
  6
CONTINUOUS
 10
149.4045364642
 20
71.5674874293
 11
149.4570149225
 21
71.6198089917
  0
LINE
  5
30E
100
AcDbEntity
  8
RACCORDO
100
AcDbLine
 62
253
  6
CONTINUOUS
 10
194.1084558929
 20
71.5674874293
 11
194.0560054777
 21
71.6198089917
  0
LINE
  5
30F
100
AcDbEntity
  8
ASSI
100
AcDbLine
 62
253
  6
CONTINUOUS
 10
194.1084558929
 20
71.5674874293
 11
194.0560054777
 21
71.6198089917
  0
LINE
  5
310
100
AcDbEntity
  8
RACCORDO
100
AcDbLine
 62
253
  6
CONTINUOUS
 10
149.0026625278
 20
116.6740794965
 11
149.0565101923
 21
116.6203665259
  0
LINE
  5
311
100
AcDbEntity
  8
ASSI
100
AcDbLine
 62
253
  6
CONTINUOUS
 10
149.0026625278
 20
116.6740794965
 11
149.0565101923
 21
116.6203665259
  0
LINE
  5
312
100
AcDbEntity
  8
RACCORDO
100
AcDbLine
 62
253
  6
CONTINUOUS
 10
194.5103578716
 20
71.9655398134
 11
194.456510208
 21
72.0192514575
  0
LINE
  5
313
100
AcDbEntity
  8
ASSI
100
AcDbLine
 62
253
  6
CONTINUOUS
 10
194.5103578716
 20
71.9655398134
 11
194.456510208
 21
72.0192514575
  0
LINE
  5
314
100
AcDbEntity
  8
RACCORDO
100
AcDbLine
 62
253
  6
CONTINUOUS
 10
149.4045643966
 20
117.072130554
 11
149.4570149225
 21
117.0198089917
  0
LINE
  5
315
100
AcDbEntity
  8
ASSI
100
AcDbLine
 62
253
  6
CONTINUOUS
 10
149.4045643966
 20
117.072130554
 11
149.4570149225
 21
117.0198089917
  0
LINE
  5
316
100
AcDbEntity
  8
IMPORT_IGES
100
AcDbLine
 62
7
  6
CONTINUOUS
 10
173.7522472001
 20
67.4724239917
 11
173.4612612001
 21
66.4334179917
  0
LINE
  5
317
100
AcDbEntity
  8
SCRITTA
100
AcDbLine
 62
253
  6
CONTINUOUS
 10
173.4612612001
 20
66.4334179917
 11
173.7522472001
 21
67.4724239917
  0
LINE
  5
318
100
AcDbEntity
  8
IMPORT_IGES
100
AcDbLine
 62
7
  6
CONTINUOUS
 10
173.3417172001
 20
66.0009279917
 11
173.1804572001
 21
65.4420079917
  0
LINE
  5
319
100
AcDbEntity
  8
SCRITTA
100
AcDbLine
 62
253
  6
CONTINUOUS
 10
173.1804572001
 20
65.4420079917
 11
173.3417172001
 21
66.0009279917
  0
LINE
  5
31A
100
AcDbEntity
  8
SCRITTA
100
AcDbLine
 62
253
  6
CONTINUOUS
 10
173.4805552001
 20
68.2417109917
 11
172.6023902001
 21
65.4420079917
  0
LINE
  5
31B
100
AcDbEntity
  8
SCRITTA
100
AcDbLine
 62
253
  6
CONTINUOUS
 10
171.6706042001
 20
68.2417109917
 11
171.0861962001
 21
66.6873069917
  0
LINE
  5
31C
100
AcDbEntity
  8
IMPORT_IGES
100
AcDbLine
 62
7
  6
CONTINUOUS
 10
171.8188472001
 20
67.2625399917
 11
171.1239862001
 21
65.4420079917
  0
LINE
  5
31D
100
AcDbEntity
  8
SCRITTA
100
AcDbLine
 62
253
  6
CONTINUOUS
 10
171.1239862001
 20
65.4420079917
 11
171.8188472001
 21
67.2625399917
  0
LINE
  5
31E
100
AcDbEntity
  8
RACCORDO
100
AcDbLine
 62
253
  6
CONTINUOUS
 10
231.8536950204
 20
139.1991436189
 11
231.9722729908
 21
139.3196536856
  0
LINE
  5
31F
100
AcDbEntity
  8
ASSI
100
AcDbLine
 62
253
  6
CONTINUOUS
 10
231.8536950204
 20
139.1991436189
 11
231.9722729908
 21
139.3196536856
  0
LINE
  5
320
100
AcDbEntity
  8
RACCORDO
100
AcDbLine
 62
253
  6
CONTINUOUS
 10
231.8536950204
 20
49.4404743645
 11
231.9722729908
 21
49.3199642977
  0
LINE
  5
321
100
AcDbEntity
  8
ASSI
100
AcDbLine
 62
253
  6
CONTINUOUS
 10
231.8536950204
 20
49.4404743645
 11
231.9722729908
 21
49.3199642977
  0
LINE
  5
322
100
AcDbEntity
  8
RACCORDO
100
AcDbLine
 62
253
  6
CONTINUOUS
 10
232.6458570269
 20
138.410166007
 11
232.7565074782
 21
138.5226692083
  0
LINE
  5
323
100
AcDbEntity
  8
ASSI
100
AcDbLine
 62
253
  6
CONTINUOUS
 10
232.6458570269
 20
138.410166007
 11
232.7565074782
 21
138.5226692083
  0
LINE
  5
324
100
AcDbEntity
  8
RACCORDO
100
AcDbLine
 62
253
  6
CONTINUOUS
 10
232.6458570269
 20
50.2294519762
 11
232.7565074782
 21
50.116948775
  0
LINE
  5
325
100
AcDbEntity
  8
ASSI
100
AcDbLine
 62
253
  6
CONTINUOUS
 10
232.6458570269
 20
50.2294519762
 11
232.7565074782
 21
50.116948775
  0
LWPOLYLINE
  5
326
100
AcDbEntity
  8
RACCORDO
100
AcDbPolyline
 62
7
  6
CONTINUOUS
 90
22
 70
0
 10
194.456510208
 20
116.6203665259
 10
194.4553379652
 20
116.6503932932
 10
194.4520168487
 20
116.6799091436
 10
194.4465468587
 20
116.7089140822
 10
194.4388945426
 20
116.7375287603
 10
194.429093353
 20
116.7656325353
 10
194.4172436469
 20
116.7928634743
 10
194.4033013287
 20
116.819259938
 10
194.3873104941
 20
116.8447835811
 10
194.3695037873
 20
116.8689574193
 10
194.3498024983
 20
116.8917771416
 10
194.3282853371
 20
116.9132470802
 10
194.305421078
 20
116.9329032227
 10
194.2812178223
 20
116.9506639758
 10
194.2556674687
 20
116.966610956
 10
194.2292144886
 20
116.9805249673
 10
194.2018746285
 20
116.9923725707
 10
194.1736321419
 20
117.0021872232
 10
194.1448842604
 20
117.0098500725
 10
194.1157633944
 20
117.0153215048
 10
194.0861371335
 20
117.0186411438
 10
194.0560054777
 20
117.0198089917
  0
LWPOLYLINE
  5
327
100
AcDbEntity
  8
ASSI
100
AcDbPolyline
 62
7
  6
CONTINUOUS
 90
22
 70
0
 10
194.456510208
 20
116.6203665259
 10
194.4553379652
 20
116.6503932932
 10
194.4520168487
 20
116.6799091436
 10
194.4465468587
 20
116.7089140822
 10
194.4388945426
 20
116.7375287603
 10
194.429093353
 20
116.7656325353
 10
194.4172436469
 20
116.7928634743
 10
194.4033013287
 20
116.819259938
 10
194.3873104941
 20
116.8447835811
 10
194.3695037873
 20
116.8689574193
 10
194.3498024983
 20
116.8917771416
 10
194.3282853371
 20
116.9132470802
 10
194.305421078
 20
116.9329032227
 10
194.2812178223
 20
116.9506639758
 10
194.2556674687
 20
116.966610956
 10
194.2292144886
 20
116.9805249673
 10
194.2018746285
 20
116.9923725707
 10
194.1736321419
 20
117.0021872232
 10
194.1448842604
 20
117.0098500725
 10
194.1157633944
 20
117.0153215048
 10
194.0861371335
 20
117.0186411438
 10
194.0560054777
 20
117.0198089917
  0
LINE
  5
328
100
AcDbEntity
  8
RACCORDO
100
AcDbLine
 62
253
  6
CONTINUOUS
 10
194.1084637031
 20
117.5985751279
 11
194.1084637031
 21
117.072130554
  0
LINE
  5
329
100
AcDbEntity
  8
ASSI
100
AcDbLine
 62
253
  6
CONTINUOUS
 10
194.1084637031
 20
117.5985751279
 11
194.1084637031
 21
117.072130554
  0
LINE
  5
32A
100
AcDbEntity
  8
RACCORDO
100
AcDbLine
 62
253
  6
CONTINUOUS
 10
194.1084637031
 20
71.0410428554
 11
194.1084637031
 21
71.5674874293
  0
LINE
  5
32B
100
AcDbEntity
  8
ASSI
100
AcDbLine
 62
253
  6
CONTINUOUS
 10
194.1084637031
 20
71.0410428554
 11
194.1084637031
 21
71.5674874293
  0
LINE
  5
32C
100
AcDbEntity
  8
RACCORDO
100
AcDbLine
 62
7
  6
CONTINUOUS
 10
194.456510208
 20
72.0192514575
 11
194.456510208
 21
116.6203665259
  0
LINE
  5
32D
100
AcDbEntity
  8
ASSI
100
AcDbLine
 62
7
  6
CONTINUOUS
 10
194.456510208
 20
72.0192514575
 11
194.456510208
 21
116.6203665259
  0
LINE
  5
32E
100
AcDbEntity
  8
RACCORDO
100
AcDbLine
 62
253
  6
CONTINUOUS
 10
194.5103578725
 20
116.6740796418
 11
194.5103578716
 21
71.9655398134
  0
LINE
  5
32F
100
AcDbEntity
  8
ASSI
100
AcDbLine
 62
253
  6
CONTINUOUS
 10
194.5103578725
 20
116.6740796418
 11
194.5103578716
 21
71.9655398134
  0
LINE
  5
330
100
AcDbEntity
  8
RACCORDO
100
AcDbLine
 62
253
  6
CONTINUOUS
 10
195.0096709315
 20
116.6976297516
 11
195.0096709315
 21
71.9419882317
  0
LINE
  5
331
100
AcDbEntity
  8
ASSI
100
AcDbLine
 62
253
  6
CONTINUOUS
 10
195.0096709315
 20
116.6976297516
 11
195.0096709315
 21
71.9419882317
  0
LWPOLYLINE
  5
332
100
AcDbEntity
  8
RACCORDO
100
AcDbPolyline
 62
253
  6
CONTINUOUS
 90
7
 70
0
 10
194.5103578655
 20
71.9655398193
 10
194.5100132979
 20
71.9489380211
 10
194.5089747448
 20
71.9323653246
 10
194.5072437246
 20
71.9158503827
 10
194.504822946
 20
71.8994217752
 10
194.5017163047
 20
71.8831079588
 10
194.4979288776
 20
71.8669372185
  0
LWPOLYLINE
  5
333
100
AcDbEntity
  8
ASSI
100
AcDbPolyline
 62
253
  6
CONTINUOUS
 90
7
 70
0
 10
194.5103578655
 20
71.9655398193
 10
194.5100132979
 20
71.9489380211
 10
194.5089747448
 20
71.9323653246
 10
194.5072437246
 20
71.9158503827
 10
194.504822946
 20
71.8994217752
 10
194.5017163047
 20
71.8831079588
 10
194.4979288776
 20
71.8669372185
  0
LWPOLYLINE
  5
334
100
AcDbEntity
  8
RACCORDO
100
AcDbPolyline
 62
253
  6
CONTINUOUS
 90
7
 70
0
 10
195.0096709315
 20
71.9419882317
 10
195.0088632343
 20
71.9043284357
 10
195.006518362
 20
71.8669206126
 10
195.0026363148
 20
71.8297647595
 10
194.9972170926
 20
71.7928608735
 10
194.9902606954
 20
71.7562089519
 10
194.9817671232
 20
71.7198089917
  0
LWPOLYLINE
  5
335
100
AcDbEntity
  8
ASSI
100
AcDbPolyline
 62
253
  6
CONTINUOUS
 90
7
 70
0
 10
195.0096709315
 20
71.9419882317
 10
195.0088632343
 20
71.9043284357
 10
195.006518362
 20
71.8669206126
 10
195.0026363148
 20
71.8297647595
 10
194.9972170926
 20
71.7928608735
 10
194.9902606954
 20
71.7562089519
 10
194.9817671232
 20
71.7198089917
  0
LWPOLYLINE
  5
336
100
AcDbEntity
  8
RACCORDO
100
AcDbPolyline
 62
253
  6
CONTINUOUS
 90
15
 70
0
 10
194.8212689476
 20
116.877488148
 10
194.7832983105
 20
116.8670256499
 10
194.7467410905
 20
116.8567602184
 10
194.7118576411
 20
116.8467649616
 10
194.6788963955
 20
116.837111064
 10
194.6480920971
 20
116.8278672787
 10
194.6196641282
 20
116.819099438
 10
194.5938149472
 20
116.8108699849
 10
194.570728647
 20
116.8032375279
 10
194.5505696435
 20
116.7962564237
 10
194.5334815055
 20
116.7899763906
 10
194.5195859311
 20
116.7844421536
 10
194.5089818821
 20
116.7796931264
 10
194.5017448783
 20
116.7757631308
 10
194.4979264603
 20
116.7726801553
  0
LWPOLYLINE
  5
337
100
AcDbEntity
  8
ASSI
100
AcDbPolyline
 62
253
  6
CONTINUOUS
 90
15
 70
0
 10
194.8212689476
 20
116.877488148
 10
194.7832983105
 20
116.8670256499
 10
194.7467410905
 20
116.8567602184
 10
194.7118576411
 20
116.8467649616
 10
194.6788963955
 20
116.837111064
 10
194.6480920971
 20
116.8278672787
 10
194.6196641282
 20
116.819099438
 10
194.5938149472
 20
116.8108699849
 10
194.570728647
 20
116.8032375279
 10
194.5505696435
 20
116.7962564237
 10
194.5334815055
 20
116.7899763906
 10
194.5195859311
 20
116.7844421536
 10
194.5089818821
 20
116.7796931264
 10
194.5017448783
 20
116.7757631308
 10
194.4979264603
 20
116.7726801553
  0
LINE
  5
338
100
AcDbEntity
  8
RACCORDO
100
AcDbLine
 62
253
  6
CONTINUOUS
 10
194.9003606556
 20
116.8987054234
 11
194.8212689476
 21
116.877488148
  0
LINE
  5
339
100
AcDbEntity
  8
ASSI
100
AcDbLine
 62
253
  6
CONTINUOUS
 10
194.9003606556
 20
116.8987054234
 11
194.8212689476
 21
116.877488148
  0
LINE
  5
33A
100
AcDbEntity
  8
RACCORDO
100
AcDbLine
 62
253
  6
CONTINUOUS
 10
194.9817671231
 20
116.9198086996
 11
194.9003606556
 21
116.8987054234
  0
LINE
  5
33B
100
AcDbEntity
  8
ASSI
100
AcDbLine
 62
253
  6
CONTINUOUS
 10
194.9817671231
 20
116.9198086996
 11
194.9003606556
 21
116.8987054234
  0
LINE
  5
33C
100
AcDbEntity
  8
RACCORDO
100
AcDbLine
 62
253
  6
CONTINUOUS
 10
148.531253277
 20
116.9198085081
 11
148.6126598413
 21
116.8987052362
  0
LINE
  5
33D
100
AcDbEntity
  8
ASSI
100
AcDbLine
 62
253
  6
CONTINUOUS
 10
148.531253277
 20
116.9198085081
 11
148.6126598413
 21
116.8987052362
  0
LWPOLYLINE
  5
33E
100
AcDbEntity
  8
RACCORDO
100
AcDbPolyline
 62
253
  6
CONTINUOUS
 90
16
 70
0
 10
148.6126598413
 20
116.8987052362
 10
148.6917517343
 20
116.8774879415
 10
148.7297224882
 20
116.8670254271
 10
148.7662798363
 20
116.8567599757
 10
148.8011634215
 20
116.8467646967
 10
148.8341248072
 20
116.8371107751
 10
148.8649292464
 20
116.8278669651
 10
148.8933573536
 20
116.8190990998
 10
148.9192066673
 20
116.8108696229
 10
148.9422930919
 20
116.8032371437
 10
148.9624522085
 20
116.7962560197
 10
148.9795404464
 20
116.7899759695
 10
148.9934361053
 20
116.7844417189
 10
149.004040222
 20
116.7796926822
 10
149.0112772752
 20
116.7757626813
 10
149.0150957235
 20
116.7726797051
  0
LWPOLYLINE
  5
33F
100
AcDbEntity
  8
ASSI
100
AcDbPolyline
 62
253
  6
CONTINUOUS
 90
16
 70
0
 10
148.6126598413
 20
116.8987052362
 10
148.6917517343
 20
116.8774879415
 10
148.7297224882
 20
116.8670254271
 10
148.7662798363
 20
116.8567599757
 10
148.8011634215
 20
116.8467646967
 10
148.8341248072
 20
116.8371107751
 10
148.8649292464
 20
116.8278669651
 10
148.8933573536
 20
116.8190990998
 10
148.9192066673
 20
116.8108696229
 10
148.9422930919
 20
116.8032371437
 10
148.9624522085
 20
116.7962560197
 10
148.9795404464
 20
116.7899759695
 10
148.9934361053
 20
116.7844417189
 10
149.004040222
 20
116.7796926822
 10
149.0112772752
 20
116.7757626813
 10
149.0150957235
 20
116.7726797051
  0
LWPOLYLINE
  5
340
100
AcDbEntity
  8
RACCORDO
100
AcDbPolyline
 62
253
  6
CONTINUOUS
 90
22
 70
0
 10
194.9817671232
 20
71.7198089917
 10
194.9660039889
 20
71.6652264429
 10
194.9469959626
 20
71.6120823677
 10
194.9247430445
 20
71.5603767023
 10
194.899125361
 20
71.5098927132
 10
194.8702627856
 20
71.4608470156
 10
194.8385149385
 20
71.4138895404
 10
194.8038540218
 20
71.3690682199
 10
194.7663078334
 20
71.326334949
 10
194.7263193874
 20
71.2861955579
 10
194.683860077
 20
71.2486813658
 10
194.6389585091
 20
71.2137608666
 10
194.5921435181
 20
71.1818456262
 10
194.5433813405
 20
71.1529684722
 10
194.4927057399
 20
71.1270964039
 10
194.4407468411
 20
71.1045422356
 10
194.3875236015
 20
71.0853536251
 10
194.3330170636
 20
71.0694827812
 10
194.2778004797
 20
71.0570993486
 10
194.2220649336
 20
71.0482598508
 10
194.1656193414
 20
71.0429076925
 10
194.1084637031
 20
71.0410428554
  0
LWPOLYLINE
  5
341
100
AcDbEntity
  8
ASSI
100
AcDbPolyline
 62
253
  6
CONTINUOUS
 90
22
 70
0
 10
194.9817671232
 20
71.7198089917
 10
194.9660039889
 20
71.6652264429
 10
194.9469959626
 20
71.6120823677
 10
194.9247430445
 20
71.5603767023
 10
194.899125361
 20
71.5098927132
 10
194.8702627856
 20
71.4608470156
 10
194.8385149385
 20
71.4138895404
 10
194.8038540218
 20
71.3690682199
 10
194.7663078334
 20
71.326334949
 10
194.7263193874
 20
71.2861955579
 10
194.683860077
 20
71.2486813658
 10
194.6389585091
 20
71.2137608666
 10
194.5921435181
 20
71.1818456262
 10
194.5433813405
 20
71.1529684722
 10
194.4927057399
 20
71.1270964039
 10
194.4407468411
 20
71.1045422356
 10
194.3875236015
 20
71.0853536251
 10
194.3330170636
 20
71.0694827812
 10
194.2778004797
 20
71.0570993486
 10
194.2220649336
 20
71.0482598508
 10
194.1656193414
 20
71.0429076925
 10
194.1084637031
 20
71.0410428554
  0
LWPOLYLINE
  5
342
100
AcDbEntity
  8
RACCORDO
100
AcDbPolyline
 62
253
  6
CONTINUOUS
 90
22
 70
0
 10
194.4979288776
 20
71.8669372185
 10
194.4909177526
 20
71.842805252
 10
194.4823919022
 20
71.8191659544
 10
194.4723850252
 20
71.7961130792
 10
194.4609361496
 20
71.7737382674
 10
194.4480909253
 20
71.7521301474
 10
194.4339015657
 20
71.7313739112
 10
194.4184236855
 20
71.7115516648
 10
194.401718772
 20
71.692742386
 10
194.3838558158
 20
71.6750207278
 10
194.3649069637
 20
71.6584580952
 10
194.3449458806
 20
71.6431184721
 10
194.3240500307
 20
71.629058778
 10
194.3022974651
 20
71.6163330199
 10
194.2797774221
 20
71.6049946978
 10
194.2565895897
 20
71.5950909806
 10
194.2328391706
 20
71.5866642043
 10
194.2086071687
 20
71.5797405206
 10
194.1839592489
 20
71.5743381752
 10
194.1589811949
 20
71.5704812441
 10
194.1337804185
 20
71.5681930428
 10
194.1084558662
 20
71.567487456
  0
LWPOLYLINE
  5
343
100
AcDbEntity
  8
ASSI
100
AcDbPolyline
 62
253
  6
CONTINUOUS
 90
22
 70
0
 10
194.4979288776
 20
71.8669372185
 10
194.4909177526
 20
71.842805252
 10
194.4823919022
 20
71.8191659544
 10
194.4723850252
 20
71.7961130792
 10
194.4609361496
 20
71.7737382674
 10
194.4480909253
 20
71.7521301474
 10
194.4339015657
 20
71.7313739112
 10
194.4184236855
 20
71.7115516648
 10
194.401718772
 20
71.692742386
 10
194.3838558158
 20
71.6750207278
 10
194.3649069637
 20
71.6584580952
 10
194.3449458806
 20
71.6431184721
 10
194.3240500307
 20
71.629058778
 10
194.3022974651
 20
71.6163330199
 10
194.2797774221
 20
71.6049946978
 10
194.2565895897
 20
71.5950909806
 10
194.2328391706
 20
71.5866642043
 10
194.2086071687
 20
71.5797405206
 10
194.1839592489
 20
71.5743381752
 10
194.1589811949
 20
71.5704812441
 10
194.1337804185
 20
71.5681930428
 10
194.1084558662
 20
71.567487456
  0
LWPOLYLINE
  5
344
100
AcDbEntity
  8
RACCORDO
100
AcDbPolyline
 62
7
  6
CONTINUOUS
 90
22
 70
0
 10
149.4570149225
 20
117.0198089917
 10
149.4268832825
 20
117.0186411481
 10
149.3972570291
 20
117.0153215109
 10
149.3681361626
 20
117.0098500777
 10
149.3393882655
 20
117.0021872218
 10
149.3111457551
 20
116.9923725602
 10
149.2838058834
 20
116.9805249538
 10
149.2573529168
 20
116.9666109518
 10
149.2318025889
 20
116.9506639872
 10
149.2075993517
 20
116.9329032461
 10
149.1847350965
 20
116.9132471103
 10
149.163217932
 20
116.8917771747
 10
149.1435166362
 20
116.8689574486
 10
149.1257099174
 20
116.8447835924
 10
149.1097190675
 20
116.8192599243
 10
149.0957767397
 20
116.7928634459
 10
149.0839270355
 20
116.7656325135
 10
149.0741258535
 20
116.7375287556
 10
149.0664735433
 20
116.7089140898
 10
149.0610035545
 20
116.6799091536
 10
149.0576824375
 20
116.6503933006
 10
149.0565101923
 20
116.6203665259
  0
LWPOLYLINE
  5
345
100
AcDbEntity
  8
ASSI
100
AcDbPolyline
 62
7
  6
CONTINUOUS
 90
22
 70
0
 10
149.4570149225
 20
117.0198089917
 10
149.4268832825
 20
117.0186411481
 10
149.3972570291
 20
117.0153215109
 10
149.3681361626
 20
117.0098500777
 10
149.3393882655
 20
117.0021872218
 10
149.3111457551
 20
116.9923725602
 10
149.2838058834
 20
116.9805249538
 10
149.2573529168
 20
116.9666109518
 10
149.2318025889
 20
116.9506639872
 10
149.2075993517
 20
116.9329032461
 10
149.1847350965
 20
116.9132471103
 10
149.163217932
 20
116.8917771747
 10
149.1435166362
 20
116.8689574486
 10
149.1257099174
 20
116.8447835924
 10
149.1097190675
 20
116.8192599243
 10
149.0957767397
 20
116.7928634459
 10
149.0839270355
 20
116.7656325135
 10
149.0741258535
 20
116.7375287556
 10
149.0664735433
 20
116.7089140898
 10
149.0610035545
 20
116.6799091536
 10
149.0576824375
 20
116.6503933006
 10
149.0565101923
 20
116.6203665259
  0
LWPOLYLINE
  5
346
100
AcDbEntity
  8
RACCORDO
100
AcDbPolyline
 62
253
  6
CONTINUOUS
 90
16
 70
0
 10
194.8844861785
 20
116.6968385769
 10
194.8441460438
 20
116.6962287209
 10
194.8049830185
 20
116.6954520092
 10
194.7672756053
 20
116.6945139653
 10
194.7312919557
 20
116.6934212599
 10
194.6972879629
 20
116.6921816638
 10
194.6655054421
 20
116.6908039922
 10
194.6361704105
 20
116.6892980421
 10
194.6094914805
 20
116.687674523
 10
194.585658376
 20
116.6859449803
 10
194.5648405831
 20
116.6841217135
 10
194.5471861448
 20
116.6822176884
 10
194.5328206085
 20
116.6802464453
 10
194.5218461328
 20
116.6782220025
 10
194.5143407614
 20
116.6761587565
 10
194.5103578677
 20
116.6740713798
  0
LWPOLYLINE
  5
347
100
AcDbEntity
  8
ASSI
100
AcDbPolyline
 62
253
  6
CONTINUOUS
 90
16
 70
0
 10
194.8844861785
 20
116.6968385769
 10
194.8441460438
 20
116.6962287209
 10
194.8049830185
 20
116.6954520092
 10
194.7672756053
 20
116.6945139653
 10
194.7312919557
 20
116.6934212599
 10
194.6972879629
 20
116.6921816638
 10
194.6655054421
 20
116.6908039922
 10
194.6361704105
 20
116.6892980421
 10
194.6094914805
 20
116.687674523
 10
194.585658376
 20
116.6859449803
 10
194.5648405831
 20
116.6841217135
 10
194.5471861448
 20
116.6822176884
 10
194.5328206085
 20
116.6802464453
 10
194.5218461328
 20
116.6782220025
 10
194.5143407614
 20
116.6761587565
 10
194.5103578677
 20
116.6740713798
  0
LWPOLYLINE
  5
348
100
AcDbEntity
  8
RACCORDO
100
AcDbPolyline
 62
253
  6
CONTINUOUS
 90
3
 70
0
 10
111.2411807994
 20
116.8565239564
 10
111.3223841198
 20
116.8571994342
 10
111.3635436075
 20
116.8572839237
  0
LWPOLYLINE
  5
349
100
AcDbEntity
  8
ASSI
100
AcDbPolyline
 62
253
  6
CONTINUOUS
 90
3
 70
0
 10
111.2411807994
 20
116.8565239564
 10
111.3223841198
 20
116.8571994342
 10
111.3635436075
 20
116.8572839237
  0
LINE
  5
34A
100
AcDbEntity
  8
RACCORDO
100
AcDbLine
 62
253
  6
CONTINUOUS
 10
111.2411823487
 20
116.9190494531
 11
111.322385579
 21
116.91972512
  0
LINE
  5
34B
100
AcDbEntity
  8
ASSI
100
AcDbLine
 62
253
  6
CONTINUOUS
 10
111.2411823487
 20
116.9190494531
 11
111.322385579
 21
116.91972512
  0
LWPOLYLINE
  5
34C
100
AcDbEntity
  8
RACCORDO
100
AcDbPolyline
 62
253
  6
CONTINUOUS
 90
3
 70
0
 10
195.0096709315
 20
116.6976297511
 10
194.9675439497
 20
116.6975415917
 10
194.8844861785
 20
116.6968385769
  0
LWPOLYLINE
  5
34D
100
AcDbEntity
  8
ASSI
100
AcDbPolyline
 62
253
  6
CONTINUOUS
 90
3
 70
0
 10
195.0096709315
 20
116.6976297511
 10
194.9675439497
 20
116.6975415917
 10
194.8844861785
 20
116.6968385769
  0
LINE
  5
34E
100
AcDbEntity
  8
RACCORDO
100
AcDbLine
 62
253
  6
CONTINUOUS
 10
232.7565102001
 20
116.8344312139
 11
232.6475693582
 21
116.8344312139
  0
LINE
  5
34F
100
AcDbEntity
  8
ASSI
100
AcDbLine
 62
253
  6
CONTINUOUS
 10
232.7565102001
 20
116.8344312139
 11
232.6475693582
 21
116.8344312139
  0
LINE
  5
350
100
AcDbEntity
  8
RACCORDO
100
AcDbLine
 62
253
  6
CONTINUOUS
 10
110.7565102001
 20
116.8344312139
 11
110.8654510421
 21
116.8344336071
  0
LINE
  5
351
100
AcDbEntity
  8
ASSI
100
AcDbLine
 62
253
  6
CONTINUOUS
 10
110.7565102001
 20
116.8344312139
 11
110.8654510421
 21
116.8344336071
  0
LINE
  5
352
100
AcDbEntity
  8
RACCORDO
100
AcDbLine
 62
253
  6
CONTINUOUS
 10
148.5312532771
 20
116.9198089917
 11
111.322385579
 21
116.91972512
  0
LINE
  5
353
100
AcDbEntity
  8
ASSI
100
AcDbLine
 62
253
  6
CONTINUOUS
 10
148.5312532771
 20
116.9198089917
 11
111.322385579
 21
116.91972512
  0
LINE
  5
354
100
AcDbEntity
  8
RACCORDO
100
AcDbLine
 62
7
  6
CONTINUOUS
 10
194.0560054777
 20
117.0198089917
 11
149.4570149225
 21
117.0198089917
  0
LINE
  5
355
100
AcDbEntity
  8
ASSI
100
AcDbLine
 62
7
  6
CONTINUOUS
 10
194.0560054777
 20
117.0198089917
 11
149.4570149225
 21
117.0198089917
  0
LINE
  5
356
100
AcDbEntity
  8
RACCORDO
100
AcDbLine
 62
253
  6
CONTINUOUS
 10
149.4045643966
 20
117.072130554
 11
194.1084560157
 21
117.072130554
  0
LINE
  5
357
100
AcDbEntity
  8
ASSI
100
AcDbLine
 62
253
  6
CONTINUOUS
 10
149.4045643966
 20
117.072130554
 11
194.1084560157
 21
117.072130554
  0
LINE
  5
358
100
AcDbEntity
  8
RACCORDO
100
AcDbLine
 62
253
  6
CONTINUOUS
 10
149.4045566971
 20
117.5985751279
 11
194.1084637031
 21
117.5985751279
  0
LINE
  5
359
100
AcDbEntity
  8
ASSI
100
AcDbLine
 62
253
  6
CONTINUOUS
 10
149.4045566971
 20
117.5985751279
 11
194.1084637031
 21
117.5985751279
  0
LINE
  5
35A
100
AcDbEntity
  8
RACCORDO
100
AcDbLine
 62
253
  6
CONTINUOUS
 10
232.1906348226
 20
116.9197251213
 11
194.9817671232
 21
116.9198089917
  0
LINE
  5
35B
100
AcDbEntity
  8
ASSI
100
AcDbLine
 62
253
  6
CONTINUOUS
 10
232.1906348226
 20
116.9197251213
 11
194.9817671232
 21
116.9198089917
  0
LWPOLYLINE
  5
35C
100
AcDbEntity
  8
RACCORDO
100
AcDbPolyline
 62
253
  6
CONTINUOUS
 90
18
 70
0
 10
148.5033494687
 20
116.6976297881
 10
148.5873038329
 20
116.6972772708
 10
148.6285341875
 20
116.6968386043
 10
148.6688743032
 20
116.6962287453
 10
148.708037307
 20
116.6954520308
 10
148.7457446967
 20
116.6945139843
 10
148.7817283214
 20
116.6934212765
 10
148.8157322886
 20
116.6921816781
 10
148.8475147839
 20
116.6908040043
 10
148.8768497904
 20
116.6892980523
 10
148.9035286964
 20
116.6876745314
 10
148.9273617786
 20
116.6859449871
 10
148.9481795513
 20
116.6841217187
 10
148.9658339719
 20
116.6822176922
 10
148.9801994933
 20
116.6802464479
 10
148.9911739573
 20
116.6782220038
 10
148.9986793205
 20
116.6761587567
 10
149.0026622094
 20
116.6740713789
  0
LWPOLYLINE
  5
35D
100
AcDbEntity
  8
ASSI
100
AcDbPolyline
 62
253
  6
CONTINUOUS
 90
18
 70
0
 10
148.5033494687
 20
116.6976297881
 10
148.5873038329
 20
116.6972772708
 10
148.6285341875
 20
116.6968386043
 10
148.6688743032
 20
116.6962287453
 10
148.708037307
 20
116.6954520308
 10
148.7457446967
 20
116.6945139843
 10
148.7817283214
 20
116.6934212765
 10
148.8157322886
 20
116.6921816781
 10
148.8475147839
 20
116.6908040043
 10
148.8768497904
 20
116.6892980523
 10
148.9035286964
 20
116.6876745314
 10
148.9273617786
 20
116.6859449871
 10
148.9481795513
 20
116.6841217187
 10
148.9658339719
 20
116.6822176922
 10
148.9801994933
 20
116.6802464479
 10
148.9911739573
 20
116.6782220038
 10
148.9986793205
 20
116.6761587567
 10
149.0026622094
 20
116.6740713789
  0
LWPOLYLINE
  5
35E
100
AcDbEntity
  8
RACCORDO
100
AcDbPolyline
 62
253
  6
CONTINUOUS
 90
22
 70
0
 10
194.1084559894
 20
117.0721305278
 10
194.1337799235
 20
117.0714249728
 10
194.1589803773
 20
117.0691368436
 10
194.1839584031
 20
117.0652799697
 10
194.2086067232
 20
117.0598775757
 10
194.2328393913
 20
117.0529537035
 10
194.2565903099
 20
117.0445267106
 10
194.279778322
 20
117.0346228496
 10
194.3022983981
 20
117.0232844309
 10
194.3240509293
 20
117.0105586107
 10
194.3449465868
 20
116.996498973
 10
194.3649074349
 20
116.9811594757
 10
194.383856341
 20
116.9645967453
 10
194.4017199356
 20
116.9468743532
 10
194.4184256301
 20
116.9280639803
 10
194.4339037479
 20
116.9082410937
 10
194.4480925324
 20
116.8874853275
 10
194.4609369178
 20
116.8658783321
 10
194.4723852347
 20
116.8435044626
 10
194.4823919111
 20
116.8204520058
 10
194.4909177093
 20
116.7968128624
 10
194.4979288776
 20
116.7726807649
  0
LWPOLYLINE
  5
35F
100
AcDbEntity
  8
ASSI
100
AcDbPolyline
 62
253
  6
CONTINUOUS
 90
22
 70
0
 10
194.1084559894
 20
117.0721305278
 10
194.1337799235
 20
117.0714249728
 10
194.1589803773
 20
117.0691368436
 10
194.1839584031
 20
117.0652799697
 10
194.2086067232
 20
117.0598775757
 10
194.2328393913
 20
117.0529537035
 10
194.2565903099
 20
117.0445267106
 10
194.279778322
 20
117.0346228496
 10
194.3022983981
 20
117.0232844309
 10
194.3240509293
 20
117.0105586107
 10
194.3449465868
 20
116.996498973
 10
194.3649074349
 20
116.9811594757
 10
194.383856341
 20
116.9645967453
 10
194.4017199356
 20
116.9468743532
 10
194.4184256301
 20
116.9280639803
 10
194.4339037479
 20
116.9082410937
 10
194.4480925324
 20
116.8874853275
 10
194.4609369178
 20
116.8658783321
 10
194.4723852347
 20
116.8435044626
 10
194.4823919111
 20
116.8204520058
 10
194.4909177093
 20
116.7968128624
 10
194.4979288776
 20
116.7726807649
  0
LWPOLYLINE
  5
360
100
AcDbEntity
  8
RACCORDO
100
AcDbPolyline
 62
253
  6
CONTINUOUS
 90
22
 70
0
 10
194.1084637031
 20
117.5985751279
 10
194.1656177059
 20
117.5967103148
 10
194.2220616295
 20
117.5913584345
 10
194.277795474
 20
117.5825194691
 10
194.3330106001
 20
117.5701366193
 10
194.3875156469
 20
117.5542666123
 10
194.4407365326
 20
117.5350797045
 10
194.4926908316
 20
117.5125290408
 10
194.5433609695
 20
117.4866613428
 10
194.5921201408
 20
117.4577872265
 10
194.6389363244
 20
117.4258729322
 10
194.6838415414
 20
117.3909520462
 10
194.7263050502
 20
117.3534362131
 10
194.7662982454
 20
117.3132932175
 10
194.8038497323
 20
117.2705550878
 10
194.8385145849
 20
117.2257298597
 10
194.8702640283
 20
117.1787702507
 10
194.8991268375
 20
117.1297233706
 10
194.9247444117
 20
117.0792388881
 10
194.9469972172
 20
117.0275333311
 10
194.9660047877
 20
116.9743900536
 10
194.9817671232
 20
116.9198089917
  0
LWPOLYLINE
  5
361
100
AcDbEntity
  8
ASSI
100
AcDbPolyline
 62
253
  6
CONTINUOUS
 90
22
 70
0
 10
194.1084637031
 20
117.5985751279
 10
194.1656177059
 20
117.5967103148
 10
194.2220616295
 20
117.5913584345
 10
194.277795474
 20
117.5825194691
 10
194.3330106001
 20
117.5701366193
 10
194.3875156469
 20
117.5542666123
 10
194.4407365326
 20
117.5350797045
 10
194.4926908316
 20
117.5125290408
 10
194.5433609695
 20
117.4866613428
 10
194.5921201408
 20
117.4577872265
 10
194.6389363244
 20
117.4258729322
 10
194.6838415414
 20
117.3909520462
 10
194.7263050502
 20
117.3534362131
 10
194.7662982454
 20
117.3132932175
 10
194.8038497323
 20
117.2705550878
 10
194.8385145849
 20
117.2257298597
 10
194.8702640283
 20
117.1787702507
 10
194.8991268375
 20
117.1297233706
 10
194.9247444117
 20
117.0792388881
 10
194.9469972172
 20
117.0275333311
 10
194.9660047877
 20
116.9743900536
 10
194.9817671232
 20
116.9198089917
  0
LWPOLYLINE
  5
362
100
AcDbEntity
  8
RACCORDO
100
AcDbPolyline
 62
253
  6
CONTINUOUS
 90
7
 70
0
 10
194.4979288776
 20
116.7726807649
 10
194.501711182
 20
116.7565342325
 10
194.50481635
 20
116.7402353395
 10
194.5072381173
 20
116.7238120702
 10
194.508971381
 20
116.7072926807
 10
194.5100122119
 20
116.6907056506
 10
194.5103578652
 20
116.6740796345
  0
LWPOLYLINE
  5
363
100
AcDbEntity
  8
ASSI
100
AcDbPolyline
 62
253
  6
CONTINUOUS
 90
7
 70
0
 10
194.4979288776
 20
116.7726807649
 10
194.501711182
 20
116.7565342325
 10
194.50481635
 20
116.7402353395
 10
194.5072381173
 20
116.7238120702
 10
194.508971381
 20
116.7072926807
 10
194.5100122119
 20
116.6907056506
 10
194.5103578652
 20
116.6740796345
  0
LWPOLYLINE
  5
364
100
AcDbEntity
  8
RACCORDO
100
AcDbPolyline
 62
253
  6
CONTINUOUS
 90
7
 70
0
 10
194.9817671232
 20
116.9198089917
 10
194.990253506
 20
116.8834665467
 10
194.9972055897
 20
116.8468491346
 10
195.002623374
 20
116.8099567521
 10
195.0065068591
 20
116.7727893963
 10
195.008856045
 20
116.7353470638
 10
195.0096709315
 20
116.6976297516
  0
LWPOLYLINE
  5
365
100
AcDbEntity
  8
ASSI
100
AcDbPolyline
 62
253
  6
CONTINUOUS
 90
7
 70
0
 10
194.9817671232
 20
116.9198089917
 10
194.990253506
 20
116.8834665467
 10
194.9972055897
 20
116.8468491346
 10
195.002623374
 20
116.8099567521
 10
195.0065068591
 20
116.7727893963
 10
195.008856045
 20
116.7353470638
 10
195.0096709315
 20
116.6976297516
  0
LWPOLYLINE
  5
366
100
AcDbEntity
  8
RACCORDO
100
AcDbPolyline
 62
253
  6
CONTINUOUS
 90
16
 70
0
 10
232.6475678726
 20
71.7427123345
 10
232.6422855186
 20
71.7406607134
 10
232.6336580101
 20
71.7386380046
 10
232.62174391
 20
71.7366579383
 10
232.6066240901
 20
71.7347339548
 10
232.5884011826
 20
71.732879114
 10
232.567198883
 20
71.7311060065
 10
232.5431611108
 20
71.729426668
 10
232.5164510324
 20
71.7278524976
 10
232.4872499537
 20
71.7263941807
 10
232.455756089
 20
71.7250616163
 10
232.4221832162
 20
71.7238638496
 10
232.3867592252
 20
71.722809011
 10
232.3497245711
 20
71.7219042607
 10
232.311330642
 20
71.72115574
 10
232.2718380528
 20
71.7205685299
  0
LWPOLYLINE
  5
367
100
AcDbEntity
  8
ASSI
100
AcDbPolyline
 62
253
  6
CONTINUOUS
 90
16
 70
0
 10
232.6475678726
 20
71.7427123345
 10
232.6422855186
 20
71.7406607134
 10
232.6336580101
 20
71.7386380046
 10
232.62174391
 20
71.7366579383
 10
232.6066240901
 20
71.7347339548
 10
232.5884011826
 20
71.732879114
 10
232.567198883
 20
71.7311060065
 10
232.5431611108
 20
71.729426668
 10
232.5164510324
 20
71.7278524976
 10
232.4872499537
 20
71.7263941807
 10
232.455756089
 20
71.7250616163
 10
232.4221832162
 20
71.7238638496
 10
232.3867592252
 20
71.722809011
 10
232.3497245711
 20
71.7219042607
 10
232.311330642
 20
71.72115574
 10
232.2718380528
 20
71.7205685299
  0
LWPOLYLINE
  5
368
100
AcDbEntity
  8
RACCORDO
100
AcDbPolyline
 62
253
  6
CONTINUOUS
 90
16
 70
0
 10
232.6475693582
 20
71.8051867694
 10
232.642287065
 20
71.8031407126
 10
232.6336596088
 20
71.8011234187
 10
232.6217455522
 20
71.7991485812
 10
232.6066257671
 20
71.7972296051
 10
232.5884028855
 20
71.7953795161
 10
232.5672006031
 20
71.7936108727
 10
232.5431628397
 20
71.7919356803
 10
232.5164527618
 20
71.7903653099
 10
232.4872516757
 20
71.7889104211
 10
232.4557577965
 20
71.7875808896
 10
232.4221849024
 20
71.7863857402
 10
232.3867608841
 20
71.7853330855
 10
232.3497261973
 20
71.7844300707
 10
232.311332231
 20
71.7836828256
 10
232.2718396009
 20
71.7830964224
  0
LWPOLYLINE
  5
369
100
AcDbEntity
  8
ASSI
100
AcDbPolyline
 62
253
  6
CONTINUOUS
 90
16
 70
0
 10
232.6475693582
 20
71.8051867694
 10
232.642287065
 20
71.8031407126
 10
232.6336596088
 20
71.8011234187
 10
232.6217455522
 20
71.7991485812
 10
232.6066257671
 20
71.7972296051
 10
232.5884028855
 20
71.7953795161
 10
232.5672006031
 20
71.7936108727
 10
232.5431628397
 20
71.7919356803
 10
232.5164527618
 20
71.7903653099
 10
232.4872516757
 20
71.7889104211
 10
232.4557577965
 20
71.7875808896
 10
232.4221849024
 20
71.7863857402
 10
232.3867608841
 20
71.7853330855
 10
232.3497261973
 20
71.7844300707
 10
232.311332231
 20
71.7836828256
 10
232.2718396009
 20
71.7830964224
  0
LWPOLYLINE
  5
36A
100
AcDbEntity
  8
RACCORDO
100
AcDbPolyline
 62
253
  6
CONTINUOUS
 90
18
 70
0
 10
232.6475693577
 20
116.8344312139
 10
232.6422870641
 20
116.8364772708
 10
232.6336596075
 20
116.8384945646
 10
232.6217455507
 20
116.8404694021
 10
232.6066257653
 20
116.8423883782
 10
232.5884028836
 20
116.8442384671
 10
232.5672006011
 20
116.8460071105
 10
232.5431628375
 20
116.8476823029
 10
232.5164527597
 20
116.8492526733
 10
232.4872516737
 20
116.8507075621
 10
232.4557577945
 20
116.8520370935
 10
232.4221849006
 20
116.8532322429
 10
232.3867608824
 20
116.8542848977
 10
232.3497261958
 20
116.8551879124
 10
232.3113322298
 20
116.8559351575
 10
232.2718396
 20
116.8565215607
 10
232.2315163796
 20
116.8569431416
 10
232.1494767928
 20
116.857281528
  0
LWPOLYLINE
  5
36B
100
AcDbEntity
  8
ASSI
100
AcDbPolyline
 62
253
  6
CONTINUOUS
 90
18
 70
0
 10
232.6475693577
 20
116.8344312139
 10
232.6422870641
 20
116.8364772708
 10
232.6336596075
 20
116.8384945646
 10
232.6217455507
 20
116.8404694021
 10
232.6066257653
 20
116.8423883782
 10
232.5884028836
 20
116.8442384671
 10
232.5672006011
 20
116.8460071105
 10
232.5431628375
 20
116.8476823029
 10
232.5164527597
 20
116.8492526733
 10
232.4872516737
 20
116.8507075621
 10
232.4557577945
 20
116.8520370935
 10
232.4221849006
 20
116.8532322429
 10
232.3867608824
 20
116.8542848977
 10
232.3497261958
 20
116.8551879124
 10
232.3113322298
 20
116.8559351575
 10
232.2718396
 20
116.8565215607
 10
232.2315163796
 20
116.8569431416
 10
232.1494767928
 20
116.857281528
  0
LWPOLYLINE
  5
36C
100
AcDbEntity
  8
RACCORDO
100
AcDbPolyline
 62
253
  6
CONTINUOUS
 90
17
 70
0
 10
232.6475678739
 20
116.8969056489
 10
232.6422855211
 20
116.89895727
 10
232.6336580137
 20
116.9009799788
 10
232.6217439145
 20
116.9029600453
 10
232.6066240953
 20
116.9048840288
 10
232.5884011883
 20
116.9067388696
 10
232.5671988891
 20
116.9085119772
 10
232.5431611171
 20
116.9101913158
 10
232.5164510387
 20
116.9117654863
 10
232.4872499598
 20
116.9132238032
 10
232.4557560949
 20
116.9145563677
 10
232.4221832217
 20
116.9157541345
 10
232.3867592302
 20
116.9168089731
 10
232.3497245754
 20
116.9177137234
 10
232.3113306456
 20
116.9184622441
 10
232.2718380555
 20
116.9190494543
 10
232.1906348226
 20
116.9197251213
  0
LWPOLYLINE
  5
36D
100
AcDbEntity
  8
ASSI
100
AcDbPolyline
 62
253
  6
CONTINUOUS
 90
17
 70
0
 10
232.6475678739
 20
116.8969056489
 10
232.6422855211
 20
116.89895727
 10
232.6336580137
 20
116.9009799788
 10
232.6217439145
 20
116.9029600453
 10
232.6066240953
 20
116.9048840288
 10
232.5884011883
 20
116.9067388696
 10
232.5671988891
 20
116.9085119772
 10
232.5431611171
 20
116.9101913158
 10
232.5164510387
 20
116.9117654863
 10
232.4872499598
 20
116.9132238032
 10
232.4557560949
 20
116.9145563677
 10
232.4221832217
 20
116.9157541345
 10
232.3867592302
 20
116.9168089731
 10
232.3497245754
 20
116.9177137234
 10
232.3113306456
 20
116.9184622441
 10
232.2718380555
 20
116.9190494543
 10
232.1906348226
 20
116.9197251213
  0
LINE
  5
36E
100
AcDbEntity
  8
RACCORDO
100
AcDbLine
 62
253
  6
CONTINUOUS
 10
111.6593253798
 20
138.7912043574
 11
231.8536950204
 21
138.7912043574
  0
LINE
  5
36F
100
AcDbEntity
  8
ASSI
100
AcDbLine
 62
253
  6
CONTINUOUS
 10
111.6593253798
 20
138.7912043574
 11
231.8536950204
 21
138.7912043574
  0
LINE
  5
370
100
AcDbEntity
  8
RACCORDO
100
AcDbLine
 62
253
  6
CONTINUOUS
 10
111.6593253798
 20
139.1991436189
 11
231.8536950204
 21
139.1991436189
  0
LINE
  5
371
100
AcDbEntity
  8
ASSI
100
AcDbLine
 62
253
  6
CONTINUOUS
 10
111.6593253798
 20
139.1991436189
 11
231.8536950204
 21
139.1991436189
  0
LINE
  5
372
100
AcDbEntity
  8
RACCORDO
100
AcDbLine
 62
7
  6
CONTINUOUS
 10
111.5565102001
 20
139.3198089917
 11
231.9565102001
 21
139.3198089917
  0
LINE
  5
373
100
AcDbEntity
  8
ASSI
100
AcDbLine
 62
7
  6
CONTINUOUS
 10
111.5565102001
 20
139.3198089917
 11
231.9565102001
 21
139.3198089917
  0
LWPOLYLINE
  5
374
100
AcDbEntity
  8
RACCORDO
100
AcDbPolyline
 62
253
  6
CONTINUOUS
 90
25
 70
0
 10
231.8536950204
 20
138.7912043574
 10
231.8730932016
 20
138.79056025
 10
231.8922478769
 20
138.788670836
 10
231.9111590463
 20
138.7855361076
 10
231.9299093717
 20
138.7811334429
 10
231.9484161912
 20
138.7754854323
 10
231.966431519
 20
138.7686598801
 10
231.983942781
 20
138.7606427809
 10
232.0009625512
 20
138.7514480819
 10
232.0172805667
 20
138.7411855127
 10
232.0328889019
 20
138.7298414826
 10
232.0477954823
 20
138.7174295057
 10
232.061813822
 20
138.7040999728
 10
232.0749338262
 20
138.689840097
 10
232.0871655897
 20
138.6746625811
 10
232.0983529101
 20
138.6587560627
 10
232.1084819091
 20
138.642111931
 10
232.1175664651
 20
138.6247387183
 10
232.12549201
 20
138.6068507962
 10
232.132244577
 20
138.5884335323
 10
232.137838133
 20
138.5695014972
 10
232.1422000111
 20
138.5503128943
 10
232.1453059892
 20
138.5309537879
 10
232.1471802893
 20
138.5113380854
 10
232.1478229117
 20
138.4914657705
  0
LWPOLYLINE
  5
375
100
AcDbEntity
  8
ASSI
100
AcDbPolyline
 62
253
  6
CONTINUOUS
 90
25
 70
0
 10
231.8536950204
 20
138.7912043574
 10
231.8730932016
 20
138.79056025
 10
231.8922478769
 20
138.788670836
 10
231.9111590463
 20
138.7855361076
 10
231.9299093717
 20
138.7811334429
 10
231.9484161912
 20
138.7754854323
 10
231.966431519
 20
138.7686598801
 10
231.983942781
 20
138.7606427809
 10
232.0009625512
 20
138.7514480819
 10
232.0172805667
 20
138.7411855127
 10
232.0328889019
 20
138.7298414826
 10
232.0477954823
 20
138.7174295057
 10
232.061813822
 20
138.7040999728
 10
232.0749338262
 20
138.689840097
 10
232.0871655897
 20
138.6746625811
 10
232.0983529101
 20
138.6587560627
 10
232.1084819091
 20
138.642111931
 10
232.1175664651
 20
138.6247387183
 10
232.12549201
 20
138.6068507962
 10
232.132244577
 20
138.5884335323
 10
232.137838133
 20
138.5695014972
 10
232.1422000111
 20
138.5503128943
 10
232.1453059892
 20
138.5309537879
 10
232.1471802893
 20
138.5113380854
 10
232.1478229117
 20
138.4914657705
  0
LWPOLYLINE
  5
376
100
AcDbEntity
  8
RACCORDO
100
AcDbPolyline
 62
253
  6
CONTINUOUS
 90
25
 70
0
 10
231.8536950204
 20
139.1991436189
 10
231.9051115927
 20
139.1972377806
 10
231.9562748992
 20
139.1920076253
 10
232.0069735544
 20
139.1834772173
 10
232.0569924825
 20
139.1716856958
 10
232.1061311035
 20
139.1566831425
 10
232.1542030975
 20
139.1385267174
 10
232.2010136049
 20
139.1172873045
 10
232.2463630528
 20
139.0930534772
 10
232.2900644299
 20
139.0659244646
 10
232.3319332177
 20
139.0360117508
 10
232.3717966856
 20
139.0034366636
 10
232.4094954477
 20
138.9683291111
 10
232.4448706286
 20
138.9308304348
 10
232.4777717167
 20
138.8910942689
 10
232.5080642322
 20
138.8492823077
 10
232.5356187413
 20
138.8055626692
 10
232.5603150557
 20
138.7601158883
 10
232.5820488437
 20
138.7131341822
 10
232.6007238032
 20
138.6648129632
 10
232.6162588216
 20
138.6153483732
 10
232.6285902204
 20
138.5649422929
 10
232.637662086
 20
138.5138017257
 10
232.6434279111
 20
138.4621383722
 10
232.645857027
 20
138.4101660072
  0
LWPOLYLINE
  5
377
100
AcDbEntity
  8
ASSI
100
AcDbPolyline
 62
253
  6
CONTINUOUS
 90
25
 70
0
 10
231.8536950204
 20
139.1991436189
 10
231.9051115927
 20
139.1972377806
 10
231.9562748992
 20
139.1920076253
 10
232.0069735544
 20
139.1834772173
 10
232.0569924825
 20
139.1716856958
 10
232.1061311035
 20
139.1566831425
 10
232.1542030975
 20
139.1385267174
 10
232.2010136049
 20
139.1172873045
 10
232.2463630528
 20
139.0930534772
 10
232.2900644299
 20
139.0659244646
 10
232.3319332177
 20
139.0360117508
 10
232.3717966856
 20
139.0034366636
 10
232.4094954477
 20
138.9683291111
 10
232.4448706286
 20
138.9308304348
 10
232.4777717167
 20
138.8910942689
 10
232.5080642322
 20
138.8492823077
 10
232.5356187413
 20
138.8055626692
 10
232.5603150557
 20
138.7601158883
 10
232.5820488437
 20
138.7131341822
 10
232.6007238032
 20
138.6648129632
 10
232.6162588216
 20
138.6153483732
 10
232.6285902204
 20
138.5649422929
 10
232.637662086
 20
138.5138017257
 10
232.6434279111
 20
138.4621383722
 10
232.645857027
 20
138.4101660072
  0
LINE
  5
378
100
AcDbEntity
  8
RACCORDO
100
AcDbLine
 62
253
  6
CONTINUOUS
 10
231.8536950204
 20
139.1991436189
 11
231.8536950204
 21
138.7912043574
  0
LINE
  5
379
100
AcDbEntity
  8
ASSI
100
AcDbLine
 62
253
  6
CONTINUOUS
 10
231.8536950204
 20
139.1991436189
 11
231.8536950204
 21
138.7912043574
  0
LINE
  5
37A
100
AcDbEntity
  8
RACCORDO
100
AcDbLine
 62
253
  6
CONTINUOUS
 10
231.8536950204
 20
49.4404743645
 11
231.8536950204
 21
49.8484136259
  0
LINE
  5
37B
100
AcDbEntity
  8
ASSI
100
AcDbLine
 62
253
  6
CONTINUOUS
 10
231.8536950204
 20
49.4404743645
 11
231.8536950204
 21
49.8484136259
  0
LINE
  5
37C
100
AcDbEntity
  8
RACCORDO
100
AcDbLine
 62
7
  6
CONTINUOUS
 10
232.7565102001
 20
138.5198089917
 11
232.7565102001
 21
116.8344312139
  0
LINE
  5
37D
100
AcDbEntity
  8
DRAFT
100
AcDbLine
 62
7
  6
CONTINUOUS
 10
232.7565102001
 20
116.8344312139
 11
232.7565102001
 21
71.8051867694
  0
LINE
  5
37E
100
AcDbEntity
  8
RACCORDO
100
AcDbLine
 62
7
  6
CONTINUOUS
 10
232.7565102001
 20
71.8051867694
 11
232.7565102001
 21
50.1198089917
  0
LINE
  5
37F
100
AcDbEntity
  8
ASSI
100
AcDbLine
 62
7
  6
CONTINUOUS
 10
232.7565102001
 20
138.5198089917
 11
232.7565102001
 21
50.1198089917
  0
LINE
  5
380
100
AcDbEntity
  8
RACCORDO
100
AcDbLine
 62
253
  6
CONTINUOUS
 10
232.1478229117
 20
138.4914657705
 11
232.1478229117
 21
50.1481522129
  0
LINE
  5
381
100
AcDbEntity
  8
ASSI
100
AcDbLine
 62
253
  6
CONTINUOUS
 10
232.1478229117
 20
138.4914657705
 11
232.1478229117
 21
50.1481522129
  0
LINE
  5
382
100
AcDbEntity
  8
RACCORDO
100
AcDbLine
 62
253
  6
CONTINUOUS
 10
232.6458570269
 20
138.410166007
 11
232.6458570269
 21
50.2294519762
  0
LINE
  5
383
100
AcDbEntity
  8
ASSI
100
AcDbLine
 62
253
  6
CONTINUOUS
 10
232.6458570269
 20
138.410166007
 11
232.6458570269
 21
50.2294519762
  0
LWPOLYLINE
  5
384
100
AcDbEntity
  8
RACCORDO
100
AcDbPolyline
 62
253
  6
CONTINUOUS
 90
25
 70
0
 10
232.1478229117
 20
50.1481522129
 10
232.1471795968
 20
50.1282763447
 10
232.1453048473
 20
50.1086584725
 10
232.142198663
 20
50.08929858
 10
232.1378367615
 20
50.0701109897
 10
232.1322434254
 20
50.0511813504
 10
232.1254915018
 20
50.0327666196
 10
232.1175670971
 20
50.0148810471
 10
232.108484105
 20
49.9975103211
 10
232.0983570542
 20
49.9808685298
 10
232.0871727327
 20
49.9649646107
 10
232.0749443524
 20
49.9497895478
 10
232.0618260781
 20
49.9355304801
 10
232.0478066183
 20
49.9221989078
 10
232.0328972645
 20
49.9097832467
 10
232.0172860556
 20
49.8984359979
 10
232.0009654718
 20
49.888171374
 10
231.983943033
 20
49.8789750855
 10
231.966429338
 20
49.8709568763
 10
231.948411511
 20
49.8641307797
 10
231.9299024279
 20
49.858482704
 10
231.9111513147
 20
49.8540802084
 10
231.8922412467
 20
49.8509458015
 10
231.8730891486
 20
49.8490569433
 10
231.8536950204
 20
49.8484136259
  0
LWPOLYLINE
  5
385
100
AcDbEntity
  8
ASSI
100
AcDbPolyline
 62
253
  6
CONTINUOUS
 90
25
 70
0
 10
232.1478229117
 20
50.1481522129
 10
232.1471795968
 20
50.1282763447
 10
232.1453048473
 20
50.1086584725
 10
232.142198663
 20
50.08929858
 10
232.1378367615
 20
50.0701109897
 10
232.1322434254
 20
50.0511813504
 10
232.1254915018
 20
50.0327666196
 10
232.1175670971
 20
50.0148810471
 10
232.108484105
 20
49.9975103211
 10
232.0983570542
 20
49.9808685298
 10
232.0871727327
 20
49.9649646107
 10
232.0749443524
 20
49.9497895478
 10
232.0618260781
 20
49.9355304801
 10
232.0478066183
 20
49.9221989078
 10
232.0328972645
 20
49.9097832467
 10
232.0172860556
 20
49.8984359979
 10
232.0009654718
 20
49.888171374
 10
231.983943033
 20
49.8789750855
 10
231.966429338
 20
49.8709568763
 10
231.948411511
 20
49.8641307797
 10
231.9299024279
 20
49.858482704
 10
231.9111513147
 20
49.8540802084
 10
231.8922412467
 20
49.8509458015
 10
231.8730891486
 20
49.8490569433
 10
231.8536950204
 20
49.8484136259
  0
LWPOLYLINE
  5
386
100
AcDbEntity
  8
RACCORDO
100
AcDbPolyline
 62
253
  6
CONTINUOUS
 90
25
 70
0
 10
232.645857027
 20
50.2294519761
 10
232.6434279888
 20
50.1774805693
 10
232.6376623387
 20
50.1258179676
 10
232.6285907068
 20
50.0746779404
 10
232.6162595645
 20
50.0242721683
 10
232.6007247838
 20
49.9748076792
 10
232.5820500057
 20
49.9264864207
 10
232.5603162957
 20
49.8795045429
 10
232.5356199477
 20
49.834057475
 10
232.508065341
 20
49.7903375062
 10
232.4777726569
 20
49.7485251778
 10
232.444871322
 20
49.7087886222
 10
232.4094958945
 20
49.6712896004
 10
232.3717969229
 20
49.6361817464
 10
232.3319332648
 20
49.6036063959
 10
232.2900643202
 20
49.5736934968
 10
232.2463628181
 20
49.5465643678
 10
232.2010132982
 20
49.5223304818
 10
232.1542028271
 20
49.5010910868
 10
232.1061310981
 20
49.4829347796
 10
232.0569928722
 20
49.4679323566
 10
232.0069741804
 20
49.4561408751
 10
231.9562754939
 20
49.4476104303
 10
231.905111979
 20
49.4423802273
 10
231.8536950204
 20
49.4404743645
  0
LWPOLYLINE
  5
387
100
AcDbEntity
  8
ASSI
100
AcDbPolyline
 62
253
  6
CONTINUOUS
 90
25
 70
0
 10
232.645857027
 20
50.2294519761
 10
232.6434279888
 20
50.1774805693
 10
232.6376623387
 20
50.1258179676
 10
232.6285907068
 20
50.0746779404
 10
232.6162595645
 20
50.0242721683
 10
232.6007247838
 20
49.9748076792
 10
232.5820500057
 20
49.9264864207
 10
232.5603162957
 20
49.8795045429
 10
232.5356199477
 20
49.834057475
 10
232.508065341
 20
49.7903375062
 10
232.4777726569
 20
49.7485251778
 10
232.444871322
 20
49.7087886222
 10
232.4094958945
 20
49.6712896004
 10
232.3717969229
 20
49.6361817464
 10
232.3319332648
 20
49.6036063959
 10
232.2900643202
 20
49.5736934968
 10
232.2463628181
 20
49.5465643678
 10
232.2010132982
 20
49.5223304818
 10
232.1542028271
 20
49.5010910868
 10
232.1061310981
 20
49.4829347796
 10
232.0569928722
 20
49.4679323566
 10
232.0069741804
 20
49.4561408751
 10
231.9562754939
 20
49.4476104303
 10
231.905111979
 20
49.4423802273
 10
231.8536950204
 20
49.4404743645
  0
LWPOLYLINE
  5
388
100
AcDbEntity
  8
RACCORDO
100
AcDbPolyline
 62
253
  6
CONTINUOUS
 90
19
 70
0
 10
232.6458505209
 20
50.2294520705
 10
232.6405203122
 20
50.2221665668
 10
232.6318516986
 20
50.214984412
 10
232.6199034163
 20
50.2079542706
 10
232.6047564233
 20
50.2011237773
 10
232.5865133514
 20
50.1945392138
 10
232.5652978106
 20
50.1882451956
 10
232.5412535514
 20
50.1822843695
 10
232.5145434909
 20
50.1766971245
 10
232.4853486089
 20
50.1715213184
 10
232.4538667218
 20
50.1667920213
 10
232.420311142
 20
50.1625412778
 10
232.3849092326
 20
50.1587978896
 10
232.347900867
 20
50.1555872212
 10
232.3095368035
 20
50.1529310272
 10
232.2700769861
 20
50.1508473051
 10
232.2297887834
 20
50.1493501737
 10
232.188945177
 20
50.1484497771
 10
232.1478229117
 20
50.1481522161
  0
LWPOLYLINE
  5
389
100
AcDbEntity
  8
ASSI
100
AcDbPolyline
 62
253
  6
CONTINUOUS
 90
19
 70
0
 10
232.6458505209
 20
50.2294520705
 10
232.6405203122
 20
50.2221665668
 10
232.6318516986
 20
50.214984412
 10
232.6199034163
 20
50.2079542706
 10
232.6047564233
 20
50.2011237773
 10
232.5865133514
 20
50.1945392138
 10
232.5652978106
 20
50.1882451956
 10
232.5412535514
 20
50.1822843695
 10
232.5145434909
 20
50.1766971245
 10
232.4853486089
 20
50.1715213184
 10
232.4538667218
 20
50.1667920213
 10
232.420311142
 20
50.1625412778
 10
232.3849092326
 20
50.1587978896
 10
232.347900867
 20
50.1555872212
 10
232.3095368035
 20
50.1529310272
 10
232.2700769861
 20
50.1508473051
 10
232.2297887834
 20
50.1493501737
 10
232.188945177
 20
50.1484497771
 10
232.1478229117
 20
50.1481522161
  0
LWPOLYLINE
  5
38A
100
AcDbEntity
  8
RACCORDO
100
AcDbPolyline
 62
253
  6
CONTINUOUS
 90
19
 70
0
 10
232.6458570238
 20
138.4101660171
 10
232.6405267059
 20
138.4174514974
 10
232.6318579367
 20
138.424633631
 10
232.6199094538
 20
138.4316637532
 10
232.6047622175
 20
138.4384942297
 10
232.586518862
 20
138.4450787786
 10
232.5653030004
 20
138.4513727844
 10
232.5412583865
 20
138.4573336003
 10
232.5145479414
 20
138.4629208373
 10
232.4853526491
 20
138.4680966374
 10
232.4538703303
 20
138.4728259306
 10
232.4203143022
 20
138.4770766722
 10
232.3849119332
 20
138.4808200601
 10
232.3479031016
 20
138.48403073
 10
232.3095385712
 20
138.4866869271
 10
232.2700782914
 20
138.4887706536
 10
232.2297896364
 20
138.4902677906
 10
232.1889455931
 20
138.4911681939
 10
232.1478229117
 20
138.4914657625
  0
LWPOLYLINE
  5
38B
100
AcDbEntity
  8
ASSI
100
AcDbPolyline
 62
253
  6
CONTINUOUS
 90
19
 70
0
 10
232.6458570238
 20
138.4101660171
 10
232.6405267059
 20
138.4174514974
 10
232.6318579367
 20
138.424633631
 10
232.6199094538
 20
138.4316637532
 10
232.6047622175
 20
138.4384942297
 10
232.586518862
 20
138.4450787786
 10
232.5653030004
 20
138.4513727844
 10
232.5412583865
 20
138.4573336003
 10
232.5145479414
 20
138.4629208373
 10
232.4853526491
 20
138.4680966374
 10
232.4538703303
 20
138.4728259306
 10
232.4203143022
 20
138.4770766722
 10
232.3849119332
 20
138.4808200601
 10
232.3479031016
 20
138.48403073
 10
232.3095385712
 20
138.4866869271
 10
232.2700782914
 20
138.4887706536
 10
232.2297896364
 20
138.4902677906
 10
232.1889455931
 20
138.4911681939
 10
232.1478229117
 20
138.4914657625
  0
LINE
  5
38C
100
AcDbEntity
  8
RACCORDO
100
AcDbLine
 62
7
  6
CONTINUOUS
 10
88.6062482331
 20
49.3198089917
 11
89.4204221272
 21
49.3198089917
  0
LINE
  5
38D
100
AcDbEntity
  8
ASSI
100
AcDbLine
 62
7
  6
CONTINUOUS
 10
88.6062482331
 20
49.3198089917
 11
89.4204221272
 21
49.3198089917
  0
LINE
  5
38E
100
AcDbEntity
  8
RACCORDO
100
AcDbLine
 62
253
  6
CONTINUOUS
 10
88.4574263777
 20
50.1198089917
 11
89.2708209941
 21
50.1198089917
  0
LINE
  5
38F
100
AcDbEntity
  8
ASSI
100
AcDbLine
 62
253
  6
CONTINUOUS
 10
88.4574263777
 20
50.1198089917
 11
89.2708209941
 21
50.1198089917
  0
LINE
  5
390
100
AcDbEntity
  8
RACCORDO
100
AcDbLine
 62
7
  6
CONTINUOUS
 10
87.2270367111
 20
49.4404743645
 11
88.6044730767
 21
49.3199642977
  0
LINE
  5
391
100
AcDbEntity
  8
ASSI
100
AcDbLine
 62
7
  6
CONTINUOUS
 10
87.2270367111
 20
49.4404743645
 11
88.6044730767
 21
49.3199642977
  0
LINE
  5
392
100
AcDbEntity
  8
RACCORDO
100
AcDbLine
 62
253
  6
CONTINUOUS
 10
87.1725371248
 20
50.2294519762
 11
88.4578879829
 21
50.116948775
  0
LINE
  5
393
100
AcDbEntity
  8
ASSI
100
AcDbLine
 62
253
  6
CONTINUOUS
 10
87.1725371248
 20
50.2294519762
 11
88.4578879829
 21
50.116948775
  0
LINE
  5
394
100
AcDbEntity
  8
RACCORDO
100
AcDbLine
 62
253
  6
CONTINUOUS
 10
87.1725376955
 20
50.2294520705
 11
86.724142547
 21
50.1481522161
  0
LINE
  5
395
100
AcDbEntity
  8
ASSI
100
AcDbLine
 62
253
  6
CONTINUOUS
 10
87.1725376955
 20
50.2294520705
 11
86.724142547
 21
50.1481522161
  0
LWPOLYLINE
  5
396
100
AcDbEntity
  8
RACCORDO
100
AcDbPolyline
 62
253
  6
CONTINUOUS
 90
16
 70
0
 10
89.6892424081
 20
50.6105581336
 10
89.8129052349
 20
50.6289047453
 10
89.9365788286
 20
50.6501064704
 10
90.0601866628
 20
50.6741681795
 10
90.1835664927
 20
50.7010121872
 10
90.3067137981
 20
50.7307259865
 10
90.4297800414
 20
50.7635628174
 10
90.5526878092
 20
50.7994997288
 10
90.6753111342
 20
50.838570961
 10
90.7977178257
 20
50.8811168377
 10
90.919900843
 20
50.9271113275
 10
91.0416192039
 20
50.9765935552
 10
91.1625971297
 20
51.0300030423
 10
91.2826883901
 20
51.0874914553
 10
91.4018489585
 20
51.1489218441
 10
91.5199801615
 20
51.214301468
  0
LINE
  5
397
100
AcDbEntity
  8
RACCORDO
100
AcDbLine
 62
253
  6
CONTINUOUS
 10
91.5199801615
 20
51.214301468
 11
89.5826557046
 21
51.2025974794
  0
LINE
  5
398
100
AcDbEntity
  8
0
100
AcDbLine
 62
7
  6
CONTINUOUS
 10
89.7240577384
 20
50.4198089917
 11
89.2075253394
 21
50.4649997209
  0
LINE
  5
399
100
AcDbEntity
  8
0
100
AcDbLine
 62
253
  6
CONTINUOUS
 10
89.5447311786
 20
51.4162872813
 11
89.0290514578
 21
51.4614283757
  0
LWPOLYLINE
  5
39A
100
AcDbEntity
  8
RACCORDO
100
AcDbPolyline
 62
253
  6
CONTINUOUS
 90
17
 70
0
 10
87.2270367111
 20
139.1991436189
 10
87.2242756312
 20
139.1972377806
 10
87.2214687623
 20
139.1920076253
 10
87.2186321968
 20
139.1834772173
 10
87.2157811882
 20
139.1716856958
 10
87.21292846
 20
139.1566831425
 10
87.2100845641
 20
139.1385267174
 10
87.2072559647
 20
139.1172873045
 10
87.2044562027
 20
139.0930534772
 10
87.2017045368
 20
139.0659244646
 10
87.1990025587
 20
139.0360117508
 10
87.1963590633
 20
139.0034366636
 10
87.1938018654
 20
138.9683291111
 10
87.1913283015
 20
138.9308304348
 10
87.1889418629
 20
138.8910942689
 10
87.186677365
 20
138.8492823077
 10
87.1824902754
 20
138.7601158883
  0
LWPOLYLINE
  5
39B
100
AcDbEntity
  8
ASSI
100
AcDbPolyline
 62
253
  6
CONTINUOUS
 90
17
 70
0
 10
87.2270367111
 20
139.1991436189
 10
87.2242756312
 20
139.1972377806
 10
87.2214687623
 20
139.1920076253
 10
87.2186321968
 20
139.1834772173
 10
87.2157811882
 20
139.1716856958
 10
87.21292846
 20
139.1566831425
 10
87.2100845641
 20
139.1385267174
 10
87.2072559647
 20
139.1172873045
 10
87.2044562027
 20
139.0930534772
 10
87.2017045368
 20
139.0659244646
 10
87.1990025587
 20
139.0360117508
 10
87.1963590633
 20
139.0034366636
 10
87.1938018654
 20
138.9683291111
 10
87.1913283015
 20
138.9308304348
 10
87.1889418629
 20
138.8910942689
 10
87.186677365
 20
138.8492823077
 10
87.1824902754
 20
138.7601158883
  0
LINE
  5
39C
100
AcDbEntity
  8
RACCORDO
100
AcDbLine
 62
253
  6
CONTINUOUS
 10
84.6910526713
 20
71.7427123345
 11
84.235261101
 21
71.7198089925
  0
LINE
  5
39D
100
AcDbEntity
  8
ASSI
100
AcDbLine
 62
253
  6
CONTINUOUS
 10
84.6910526713
 20
71.7427123345
 11
84.235261101
 21
71.7198089925
  0
LINE
  5
39E
100
AcDbEntity
  8
RACCORDO
100
AcDbLine
 62
253
  6
CONTINUOUS
 10
84.6879162782
 20
71.8051867694
 11
84.2321212083
 21
71.7823364551
  0
LINE
  5
39F
100
AcDbEntity
  8
ASSI
100
AcDbLine
 62
253
  6
CONTINUOUS
 10
84.6879162782
 20
71.8051867694
 11
84.2321212083
 21
71.7823364551
  0
LINE
  5
3A0
100
AcDbEntity
  8
0
100
AcDbLine
 62
253
  6
CONTINUOUS
 10
92.2373916664
 20
71.9511997991
 11
89.5059822956
 21
71.905846697
  0
LINE
  5
3A1
100
AcDbEntity
  8
0
100
AcDbLine
 62
253
  6
CONTINUOUS
 10
89.5059822956
 20
71.905846697
 11
87.2314752877
 21
71.8704756583
  0
LINE
  5
3A2
100
AcDbEntity
  8
RACCORDO
100
AcDbLine
 62
253
  6
CONTINUOUS
 10
85.9331157993
 20
71.8051867694
 11
84.6879162782
 21
71.8051867694
  0
LINE
  5
3A3
100
AcDbEntity
  8
ASSI
100
AcDbLine
 62
253
  6
CONTINUOUS
 10
85.9331157993
 20
71.8051867694
 11
84.6879162782
 21
71.8051867694
  0
LINE
  5
3A4
100
AcDbEntity
  8
0
100
AcDbLine
 62
253
  6
CONTINUOUS
 10
86.7308442316
 20
71.8704756583
 11
87.2314752877
 21
71.8704756583
  0
LWPOLYLINE
  5
3A5
100
AcDbEntity
  8
RACCORDO
100
AcDbPolyline
 62
253
  6
CONTINUOUS
 90
19
 70
0
 10
91.5199800128
 20
51.2143014582
 10
91.5421501904
 20
51.1664866326
 10
91.561937418
 20
51.1187506819
 10
91.5792473337
 20
51.0713212504
 10
91.5939973895
 20
51.0244245211
 10
91.6061172451
 20
50.9782841359
 10
91.615549103
 20
50.9331201296
 10
91.6222479842
 20
50.8891478816
 10
91.6261819428
 20
50.846577088
 10
91.6273322182
 20
50.8056107611
 10
91.6256933248
 20
50.7664442623
 10
91.6212730777
 20
50.7292643702
 10
91.6140925562
 20
50.6942483894
 10
91.6041860026
 20
50.6615633051
 10
91.5916006592
 20
50.6313649873
 10
91.5763965432
 20
50.603797447
 10
91.55864616
 20
50.5789921494
 10
91.5384341579
 20
50.557067387
 10
91.5158569243
 20
50.5381277157
  0
LWPOLYLINE
  5
3A6
100
AcDbEntity
  8
RACCORDO
100
AcDbPolyline
 62
253
  6
CONTINUOUS
 90
10
 70
0
 10
87.1725371247
 20
138.410166007
 10
86.7596648781
 20
136.0379401289
 10
86.3810374594
 20
133.660018813
 10
86.0366552947
 20
131.2769032281
 10
85.7264626613
 20
128.8891046527
 10
85.4505161318
 20
126.4971138827
 10
85.2089845858
 20
124.1014010598
 10
85.0019246114
 20
121.7024565799
 10
84.8292804946
 20
119.3007912645
 10
84.6910526712
 20
116.8969056489
  0
LWPOLYLINE
  5
3A7
100
AcDbEntity
  8
ASSI
100
AcDbPolyline
 62
253
  6
CONTINUOUS
 90
10
 70
0
 10
87.1725371247
 20
138.410166007
 10
86.7596648781
 20
136.0379401289
 10
86.3810374594
 20
133.660018813
 10
86.0366552947
 20
131.2769032281
 10
85.7264626613
 20
128.8891046527
 10
85.4505161318
 20
126.4971138827
 10
85.2089845858
 20
124.1014010598
 10
85.0019246114
 20
121.7024565799
 10
84.8292804946
 20
119.3007912645
 10
84.6910526712
 20
116.8969056489
  0
LWPOLYLINE
  5
3A8
100
AcDbEntity
  8
RACCORDO
100
AcDbPolyline
 62
7
  6
CONTINUOUS
 90
10
 70
0
 10
88.4574263777
 20
138.5198089917
 10
88.0367349659
 20
136.1296399195
 10
87.6510186292
 20
133.733999154
 10
87.3002773677
 20
131.3328866952
 10
86.9844071286
 20
128.9254460681
 10
86.7035119647
 20
126.5125337476
 10
86.457904034
 20
124.0967191595
 10
86.2476873892
 20
121.6788587787
 10
86.0727579777
 20
119.2580961302
 10
85.9331157993
 20
116.8344312139
  0
LWPOLYLINE
  5
3A9
100
AcDbEntity
  8
ASSI
100
AcDbPolyline
 62
7
  6
CONTINUOUS
 90
10
 70
0
 10
88.4574263777
 20
138.5198089917
 10
88.0367349659
 20
136.1296399195
 10
87.6510186292
 20
133.733999154
 10
87.3002773677
 20
131.3328866952
 10
86.9844071286
 20
128.9254460681
 10
86.7035119647
 20
126.5125337476
 10
86.457904034
 20
124.0967191595
 10
86.2476873892
 20
121.6788587787
 10
86.0727579777
 20
119.2580961302
 10
85.9331157993
 20
116.8344312139
  0
LWPOLYLINE
  5
3AA
100
AcDbEntity
  8
RACCORDO
100
AcDbPolyline
 62
7
  6
CONTINUOUS
 90
17
 70
0
 10
88.4993941409
 20
49.7236394595
 10
88.5038243527
 20
49.6794077053
 10
88.5083637848
 20
49.6367644096
 10
88.5129823171
 20
49.5960379254
 10
88.5178018804
 20
49.5575871154
 10
88.5228275401
 20
49.5215808336
 10
88.5280542308
 20
49.4881575202
 10
88.5335886875
 20
49.4575581907
 10
88.5394040136
 20
49.4299462278
 10
88.5455271058
 20
49.4053169918
 10
88.5521453892
 20
49.3836473913
 10
88.5592530382
 20
49.3649603061
 10
88.5668558785
 20
49.3494246893
 10
88.5751588123
 20
49.3371847226
 10
88.5842301403
 20
49.3282378279
 10
88.5940015618
 20
49.3225140343
 10
88.6044730767
 20
49.3199642977
  0
LWPOLYLINE
  5
3AB
100
AcDbEntity
  8
ASSI
100
AcDbPolyline
 62
7
  6
CONTINUOUS
 90
17
 70
0
 10
88.4993941409
 20
49.7236394595
 10
88.5038243527
 20
49.6794077053
 10
88.5083637848
 20
49.6367644096
 10
88.5129823171
 20
49.5960379254
 10
88.5178018804
 20
49.5575871154
 10
88.5228275401
 20
49.5215808336
 10
88.5280542308
 20
49.4881575202
 10
88.5335886875
 20
49.4575581907
 10
88.5394040136
 20
49.4299462278
 10
88.5455271058
 20
49.4053169918
 10
88.5521453892
 20
49.3836473913
 10
88.5592530382
 20
49.3649603061
 10
88.5668558785
 20
49.3494246893
 10
88.5751588123
 20
49.3371847226
 10
88.5842301403
 20
49.3282378279
 10
88.5940015618
 20
49.3225140343
 10
88.6044730767
 20
49.3199642977
  0
LINE
  5
3AC
100
AcDbEntity
  8
RACCORDO
100
AcDbLine
 62
7
  6
CONTINUOUS
 10
88.4812740045
 20
49.9148072102
 11
88.4993941409
 21
49.7236394595
  0
LINE
  5
3AD
100
AcDbEntity
  8
ASSI
100
AcDbLine
 62
7
  6
CONTINUOUS
 10
88.4812740045
 20
49.9148072102
 11
88.4993941409
 21
49.7236394595
  0
LINE
  5
3AE
100
AcDbEntity
  8
SCRITTA
100
AcDbLine
 62
253
  6
CONTINUOUS
 10
84.6688628458
 20
65.4420076373
 11
84.6024269339
 21
66.218436954
  0
LINE
  5
3AF
100
AcDbEntity
  8
SCRITTA
100
AcDbLine
 62
253
  6
CONTINUOUS
 10
84.5432400371
 20
66.9487963466
 11
84.6039867165
 21
66.1997087636
  0
LINE
  5
3B0
100
AcDbEntity
  8
SCRITTA
100
AcDbLine
 62
253
  6
CONTINUOUS
 10
84.4866282969
 20
67.6875849889
 11
84.5432400371
 21
66.9487963466
  0
LINE
  5
3B1
100
AcDbEntity
  8
SCRITTA
100
AcDbLine
 62
253
  6
CONTINUOUS
 10
84.4866282969
 20
67.6875849889
 11
84.4439835629
 21
68.2745590671
  0
LWPOLYLINE
  5
3B2
100
AcDbEntity
  8
RACCORDO
100
AcDbPolyline
 62
7
  6
CONTINUOUS
 90
10
 70
0
 10
85.9331157993
 20
71.8051867694
 10
86.0727579777
 20
69.3815218532
 10
86.2476873892
 20
66.9607592047
 10
86.457904034
 20
64.5428988239
 10
86.7035119647
 20
62.1270842357
 10
86.9844071286
 20
59.7141719153
 10
87.3002773677
 20
57.3067312881
 10
87.6510186292
 20
54.9056188294
 10
88.0367349659
 20
52.5099780639
 10
88.4574263777
 20
50.1198089917
  0
LWPOLYLINE
  5
3B3
100
AcDbEntity
  8
ASSI
100
AcDbPolyline
 62
7
  6
CONTINUOUS
 90
10
 70
0
 10
85.9331157993
 20
71.8051867694
 10
86.0727579777
 20
69.3815218532
 10
86.2476873892
 20
66.9607592047
 10
86.457904034
 20
64.5428988239
 10
86.7035119647
 20
62.1270842357
 10
86.9844071286
 20
59.7141719153
 10
87.3002773677
 20
57.3067312881
 10
87.6510186292
 20
54.9056188294
 10
88.0367349659
 20
52.5099780639
 10
88.4574263777
 20
50.1198089917
  0
LWPOLYLINE
  5
3B4
100
AcDbEntity
  8
RACCORDO
100
AcDbPolyline
 62
253
  6
CONTINUOUS
 90
10
 70
0
 10
84.6910526712
 20
71.7427123345
 10
84.8292804634
 20
69.3388271587
 10
85.00192456
 20
66.9371621141
 10
85.2089845253
 20
64.5382177361
 10
85.4505160778
 20
62.1425047692
 10
85.726462625
 20
59.7505136881
 10
86.036655274
 20
57.3627148674
 10
86.3810374477
 20
54.9795991802
 10
86.7596648734
 20
52.601677827
 10
87.1725371248
 20
50.2294519762
  0
LWPOLYLINE
  5
3B5
100
AcDbEntity
  8
ASSI
100
AcDbPolyline
 62
253
  6
CONTINUOUS
 90
10
 70
0
 10
84.6910526712
 20
71.7427123345
 10
84.8292804634
 20
69.3388271587
 10
85.00192456
 20
66.9371621141
 10
85.2089845253
 20
64.5382177361
 10
85.4505160778
 20
62.1425047692
 10
85.726462625
 20
59.7505136881
 10
86.036655274
 20
57.3627148674
 10
86.3810374477
 20
54.9795991802
 10
86.7596648734
 20
52.601677827
 10
87.1725371248
 20
50.2294519762
  0
LWPOLYLINE
  5
3B6
100
AcDbEntity
  8
RACCORDO
100
AcDbPolyline
 62
253
  6
CONTINUOUS
 90
16
 70
0
 10
87.1866763847
 20
49.7903375062
 10
87.1889405271
 20
49.7485251778
 10
87.1913266782
 20
49.7087886222
 10
87.1938001824
 20
49.6712896004
 10
87.1963576898
 20
49.6361817464
 10
87.1990017206
 20
49.6036063959
 10
87.2017041888
 20
49.5736934968
 10
87.2044562394
 20
49.5465643678
 10
87.2072563374
 20
49.5223304818
 10
87.2100851268
 20
49.5010910868
 10
87.2129289716
 20
49.4829347796
 10
87.2157814951
 20
49.4679323566
 10
87.2186323276
 20
49.4561408751
 10
87.2214688114
 20
49.4476104303
 10
87.2242756357
 20
49.4423802273
 10
87.2270367111
 20
49.4404743645
  0
LWPOLYLINE
  5
3B7
100
AcDbEntity
  8
ASSI
100
AcDbPolyline
 62
253
  6
CONTINUOUS
 90
16
 70
0
 10
87.1866763847
 20
49.7903375062
 10
87.1889405271
 20
49.7485251778
 10
87.1913266782
 20
49.7087886222
 10
87.1938001824
 20
49.6712896004
 10
87.1963576898
 20
49.6361817464
 10
87.1990017206
 20
49.6036063959
 10
87.2017041888
 20
49.5736934968
 10
87.2044562394
 20
49.5465643678
 10
87.2072563374
 20
49.5223304818
 10
87.2100851268
 20
49.5010910868
 10
87.2129289716
 20
49.4829347796
 10
87.2157814951
 20
49.4679323566
 10
87.2186323276
 20
49.4561408751
 10
87.2214688114
 20
49.4476104303
 10
87.2242756357
 20
49.4423802273
 10
87.2270367111
 20
49.4404743645
  0
LWPOLYLINE
  5
3B8
100
AcDbEntity
  8
RACCORDO
100
AcDbPolyline
 62
253
  6
CONTINUOUS
 90
3
 70
0
 10
87.1806076445
 20
49.9264864207
 10
87.1824902505
 20
49.8795045429
 10
87.1866763847
 20
49.7903375062
  0
LWPOLYLINE
  5
3B9
100
AcDbEntity
  8
ASSI
100
AcDbPolyline
 62
253
  6
CONTINUOUS
 90
3
 70
0
 10
87.1806076445
 20
49.9264864207
 10
87.1824902505
 20
49.8795045429
 10
87.1866763847
 20
49.7903375062
  0
LINE
  5
3BA
100
AcDbEntity
  8
IMPORT_IGES
100
AcDbLine
 62
7
  6
CONTINUOUS
 10
84.5534599719
 20
66.8263922264
 11
84.5534599719
 21
65.4420076373
  0
LWPOLYLINE
  5
3BB
100
AcDbEntity
  8
RACCORDO
100
AcDbPolyline
 62
253
  6
CONTINUOUS
 90
12
 70
0
 10
84.5155639123
 20
113.0843947412
 10
84.3745456618
 20
109.3330471372
 10
84.2648615257
 20
105.5806515812
 10
84.1865082271
 20
101.8274728321
 10
84.1394890409
 20
98.0737724833
 10
84.123813795
 20
94.3198089602
 10
84.139489042
 20
90.5658454278
 10
84.1865082293
 20
86.8121450636
 10
84.2648615284
 20
83.0589663121
 10
84.3745456642
 20
79.3065707731
 10
84.5155639138
 20
75.5552231992
 10
84.6910526712
 20
71.7427123345
  0
LWPOLYLINE
  5
3BC
100
AcDbEntity
  8
ASSI
100
AcDbPolyline
 62
253
  6
CONTINUOUS
 90
12
 70
0
 10
84.5155639123
 20
113.0843947412
 10
84.3745456618
 20
109.3330471372
 10
84.2648615257
 20
105.5806515812
 10
84.1865082271
 20
101.8274728321
 10
84.1394890409
 20
98.0737724833
 10
84.123813795
 20
94.3198089602
 10
84.139489042
 20
90.5658454278
 10
84.1865082293
 20
86.8121450636
 10
84.2648615284
 20
83.0589663121
 10
84.3745456642
 20
79.3065707731
 10
84.5155639138
 20
75.5552231992
 10
84.6910526712
 20
71.7427123345
  0
LWPOLYLINE
  5
3BD
100
AcDbEntity
  8
RACCORDO
100
AcDbPolyline
 62
253
  6
CONTINUOUS
 90
3
 70
0
 10
87.1824902754
 20
138.7601158883
 10
87.1806073284
 20
138.7131341822
 10
87.1772635404
 20
138.6153483732
  0
LWPOLYLINE
  5
3BE
100
AcDbEntity
  8
ASSI
100
AcDbPolyline
 62
253
  6
CONTINUOUS
 90
3
 70
0
 10
87.1824902754
 20
138.7601158883
 10
87.1806073284
 20
138.7131341822
 10
87.1772635404
 20
138.6153483732
  0
LWPOLYLINE
  5
3BF
100
AcDbEntity
  8
DRAFT
100
AcDbPolyline
 62
7
  6
CONTINUOUS
 90
13
 70
0
 10
85.9331157993
 20
116.8344312139
 10
85.7603158509
 20
113.0849168963
 10
85.6189288739
 20
109.3342334909
 10
85.5089548684
 20
105.5823809978
 10
85.4303874776
 20
101.8289697209
 10
85.3832330582
 20
98.0743893563
 10
85.3675106806
 20
94.3198089917
 10
85.3832330582
 20
90.5652286271
 10
85.4303874776
 20
86.8106482624
 10
85.5089548684
 20
83.0572369856
 10
85.6189288739
 20
79.3053844924
 10
85.7603158509
 20
75.554701087
 10
85.9331157993
 20
71.8051867694
  0
LWPOLYLINE
  5
3C0
100
AcDbEntity
  8
ASSI
100
AcDbPolyline
 62
7
  6
CONTINUOUS
 90
13
 70
0
 10
85.9331157993
 20
116.8344312139
 10
85.7603158509
 20
113.0849168963
 10
85.6189288739
 20
109.3342334909
 10
85.5089548684
 20
105.5823809978
 10
85.4303874776
 20
101.8289697209
 10
85.3832330582
 20
98.0743893563
 10
85.3675106806
 20
94.3198089917
 10
85.3832330582
 20
90.5652286271
 10
85.4303874776
 20
86.8106482624
 10
85.5089548684
 20
83.0572369856
 10
85.6189288739
 20
79.3053844924
 10
85.7603158509
 20
75.554701087
 10
85.9331157993
 20
71.8051867694
  0
LINE
  5
3C1
100
AcDbEntity
  8
RACCORDO
100
AcDbLine
 62
253
  6
CONTINUOUS
 10
84.6910526712
 20
116.8969056489
 11
84.5155639123
 21
113.0843947412
  0
LINE
  5
3C2
100
AcDbEntity
  8
ASSI
100
AcDbLine
 62
253
  6
CONTINUOUS
 10
84.6910526712
 20
116.8969056489
 11
84.5155639123
 21
113.0843947412
  0
LWPOLYLINE
  5
3C3
100
AcDbEntity
  8
RACCORDO
100
AcDbPolyline
 62
7
  6
CONTINUOUS
 90
5
 70
0
 10
88.4812740046
 20
138.7248107204
 10
88.4760944306
 20
138.6743008618
 10
88.470331675
 20
138.6231579216
 10
88.4640982366
 20
138.5715884788
 10
88.4573941155
 20
138.5198089917
  0
LWPOLYLINE
  5
3C4
100
AcDbEntity
  8
ASSI
100
AcDbPolyline
 62
7
  6
CONTINUOUS
 90
5
 70
0
 10
88.4812740046
 20
138.7248107204
 10
88.4760944306
 20
138.6743008618
 10
88.470331675
 20
138.6231579216
 10
88.4640982366
 20
138.5715884788
 10
88.4573941155
 20
138.5198089917
  0
LWPOLYLINE
  5
3C5
100
AcDbEntity
  8
RACCORDO
100
AcDbPolyline
 62
7
  6
CONTINUOUS
 90
5
 70
0
 10
88.4573941155
 20
50.1198089917
 10
88.4640981992
 20
50.0680298942
 10
88.4703316235
 20
50.0164605852
 10
88.4760943885
 20
49.9653175259
 10
88.4812740045
 20
49.9148072102
  0
LWPOLYLINE
  5
3C6
100
AcDbEntity
  8
ASSI
100
AcDbPolyline
 62
7
  6
CONTINUOUS
 90
5
 70
0
 10
88.4573941155
 20
50.1198089917
 10
88.4640981992
 20
50.0680298942
 10
88.4703316235
 20
50.0164605852
 10
88.4760943885
 20
49.9653175259
 10
88.4812740045
 20
49.9148072102
  0
LINE
  5
3C7
100
AcDbEntity
  8
RACCORDO
100
AcDbLine
 62
253
  6
CONTINUOUS
 10
87.177263725
 20
50.0242721683
 11
87.1806076445
 21
49.9264864207
  0
LINE
  5
3C8
100
AcDbEntity
  8
ASSI
100
AcDbLine
 62
253
  6
CONTINUOUS
 10
87.177263725
 20
50.0242721683
 11
87.1806076445
 21
49.9264864207
  0
LINE
  5
3C9
100
AcDbEntity
  8
RACCORDO
100
AcDbLine
 62
253
  6
CONTINUOUS
 10
87.174592523
 20
50.1258179676
 11
87.177263725
 21
50.0242721683
  0
LINE
  5
3CA
100
AcDbEntity
  8
ASSI
100
AcDbLine
 62
253
  6
CONTINUOUS
 10
87.174592523
 20
50.1258179676
 11
87.177263725
 21
50.0242721683
  0
LINE
  5
3CB
100
AcDbEntity
  8
RACCORDO
100
AcDbLine
 62
253
  6
CONTINUOUS
 10
87.1725371262
 20
50.2294519761
 11
87.174592523
 21
50.1258179676
  0
LINE
  5
3CC
100
AcDbEntity
  8
ASSI
100
AcDbLine
 62
253
  6
CONTINUOUS
 10
87.1725371262
 20
50.2294519761
 11
87.174592523
 21
50.1258179676
  0
LINE
  5
3CD
100
AcDbEntity
  8
RACCORDO
100
AcDbLine
 62
253
  6
CONTINUOUS
 10
87.1745925031
 20
138.5138017257
 11
87.1725371262
 21
138.4101660072
  0
LINE
  5
3CE
100
AcDbEntity
  8
ASSI
100
AcDbLine
 62
253
  6
CONTINUOUS
 10
87.1745925031
 20
138.5138017257
 11
87.1725371262
 21
138.4101660072
  0
LINE
  5
3CF
100
AcDbEntity
  8
RACCORDO
100
AcDbLine
 62
253
  6
CONTINUOUS
 10
87.1772635404
 20
138.6153483732
 11
87.1745925031
 21
138.5138017257
  0
LINE
  5
3D0
100
AcDbEntity
  8
ASSI
100
AcDbLine
 62
253
  6
CONTINUOUS
 10
87.1772635404
 20
138.6153483732
 11
87.1745925031
 21
138.5138017257
  0
LINE
  5
3D1
100
AcDbEntity
  8
0
100
AcDbLine
 62
253
  6
CONTINUOUS
 10
90.2373916664
 20
94.3198089917
 11
86.6673916664
 21
94.3198089917
  0
LINE
  5
3D2
100
AcDbEntity
  8
RACCORDO
100
AcDbLine
 62
7
  6
CONTINUOUS
 10
92.2373916664
 20
90.4671550303
 11
90.4026620308
 21
90.7906673673
  0
LINE
  5
3D3
100
AcDbEntity
  8
RACCORDO
100
AcDbLine
 62
7
  6
CONTINUOUS
 10
90.2373916664
 20
90.9876289179
 11
90.2373916664
 21
97.6519890654
  0
LINE
  5
3D4
100
AcDbEntity
  8
RACCORDO
100
AcDbLine
 62
7
  6
CONTINUOUS
 10
92.2373916664
 20
51.2198085203
 11
92.2373916664
 21
71.9511997991
  0
LINE
  5
3D5
100
AcDbEntity
  8
DRAFT
100
AcDbLine
 62
7
  6
CONTINUOUS
 10
92.2373916664
 20
71.9511997991
 11
92.2373916664
 21
90.4671550303
  0
LINE
  5
3D6
100
AcDbEntity
  8
DRAFT
100
AcDbLine
 62
7
  6
CONTINUOUS
 10
92.2373916664
 20
98.1724629531
 11
92.2373916664
 21
116.6884181842
  0
LINE
  5
3D7
100
AcDbEntity
  8
RACCORDO
100
AcDbLine
 62
7
  6
CONTINUOUS
 10
92.2373916664
 20
116.6884181842
 11
92.2373916664
 21
137.4198094281
  0
LINE
  5
3D8
100
AcDbEntity
  8
RACCORDO
100
AcDbLine
 62
7
  6
CONTINUOUS
 10
90.4026620308
 20
97.8489506161
 11
92.2373916664
 21
98.1724629531
  0
LINE
  5
3D9
100
AcDbEntity
  8
0
100
AcDbLine
 62
253
  6
CONTINUOUS
 10
86.7308442316
 20
116.7691423251
 11
87.2314752877
 21
116.7691423251
  0
LINE
  5
3DA
100
AcDbEntity
  8
RACCORDO
100
AcDbLine
 62
253
  6
CONTINUOUS
 10
85.9331157993
 20
116.8344312139
 11
84.6879162782
 21
116.8344312139
  0
LINE
  5
3DB
100
AcDbEntity
  8
ASSI
100
AcDbLine
 62
253
  6
CONTINUOUS
 10
85.9331157993
 20
116.8344312139
 11
84.6879162782
 21
116.8344312139
  0
LINE
  5
3DC
100
AcDbEntity
  8
0
100
AcDbLine
 62
253
  6
CONTINUOUS
 10
92.2373916664
 20
116.6884181842
 11
87.2314752877
 21
116.7691423251
  0
LINE
  5
3DD
100
AcDbEntity
  8
RACCORDO
100
AcDbLine
 62
253
  6
CONTINUOUS
 10
84.6879162783
 20
116.8344312139
 11
84.232121214
 21
116.857281528
  0
LINE
  5
3DE
100
AcDbEntity
  8
ASSI
100
AcDbLine
 62
253
  6
CONTINUOUS
 10
84.6879162783
 20
116.8344312139
 11
84.232121214
 21
116.857281528
  0
LINE
  5
3DF
100
AcDbEntity
  8
RACCORDO
100
AcDbLine
 62
253
  6
CONTINUOUS
 10
84.6910526712
 20
116.8969056489
 11
84.2352610838
 21
116.9198089917
  0
LINE
  5
3E0
100
AcDbEntity
  8
ASSI
100
AcDbLine
 62
253
  6
CONTINUOUS
 10
84.6910526712
 20
116.8969056489
 11
84.2352610838
 21
116.9198089917
  0
LWPOLYLINE
  5
3E1
100
AcDbEntity
  8
RACCORDO
100
AcDbPolyline
 62
253
  6
CONTINUOUS
 90
19
 70
0
 10
91.5158578471
 20
138.1014915251
 10
91.538435037
 20
138.0825517833
 10
91.5586469909
 20
138.0606269468
 10
91.5763973218
 20
138.0358215722
 10
91.5916013821
 20
138.008253953
 10
91.604186667
 20
137.9780555552
 10
91.6140931599
 20
137.9453703906
 10
91.6212736192
 20
137.9103543302
 10
91.6256938034
 20
137.8731743598
 10
91.6273326342
 20
137.8340077846
 10
91.6261822969
 20
137.7930413838
 10
91.622248278
 20
137.7504705191
 10
91.6155493386
 20
137.7064982029
 10
91.6061174254
 20
137.6613341318
 10
91.5939975178
 20
137.615193685
 10
91.5792474136
 20
137.5682968967
 10
91.5619374532
 20
137.5208674088
 10
91.542150185
 20
137.4731314044
 10
91.5199799709
 20
137.4253165279
  0
LWPOLYLINE
  5
3E2
100
AcDbEntity
  8
RACCORDO
100
AcDbPolyline
 62
253
  6
CONTINUOUS
 90
10
 70
0
 10
91.5199801615
 20
51.214301468
 10
91.6117331483
 20
51.2692092226
 10
91.6997568115
 20
51.325031111
 10
91.7841412713
 20
51.3817660487
 10
91.8642689207
 20
51.4388225771
 10
91.9409696924
 20
51.4967889277
 10
92.0164210976
 20
51.5574374015
 10
92.0913176026
 20
51.6213622387
 10
92.1649698695
 20
51.687975237
 10
92.2373916347
 20
51.7572788564
  0
LWPOLYLINE
  5
3E3
100
AcDbEntity
  8
RACCORDO
100
AcDbPolyline
 62
253
  6
CONTINUOUS
 90
10
 70
0
 10
91.5199801615
 20
137.4253165154
 10
91.611396129
 20
137.3706542915
 10
91.6993415716
 20
137.3148894662
 10
91.7838962978
 20
137.258022667
 10
91.8646480534
 20
137.2004747319
 10
91.9421945023
 20
137.1418269209
 10
92.0180733062
 20
137.0808177975
 10
92.092789495
 20
137.0170244122
 10
92.1658847685
 20
136.9508654212
 10
92.2373916324
 20
136.8823391291
  0
LWPOLYLINE
  5
3E4
100
AcDbEntity
  8
RACCORDO
100
AcDbPolyline
 62
7
  6
CONTINUOUS
 90
18
 70
0
 10
88.6044730767
 20
139.3196536856
 10
88.594001511
 20
139.3171039472
 10
88.5842299538
 20
139.311380035
 10
88.5751584049
 20
139.3024327573
 10
88.5668551139
 20
139.2901919074
 10
88.5592518314
 20
139.2746548137
 10
88.5521438086
 20
139.2559659175
 10
88.5455252364
 20
139.2342941585
 10
88.5394019239
 20
139.2096625236
 10
88.5335865502
 20
139.1820487981
 10
88.5280523152
 20
139.1514492304
 10
88.5228260189
 20
139.1180269687
 10
88.5178007412
 20
139.0820222122
 10
88.5129815095
 20
139.0435732971
 10
88.5083632963
 20
139.0028491699
 10
88.5038240991
 20
138.9602078065
 10
88.4993939844
 20
138.915976872
 10
88.4812740046
 20
138.7248107204
  0
LWPOLYLINE
  5
3E5
100
AcDbEntity
  8
ASSI
100
AcDbPolyline
 62
7
  6
CONTINUOUS
 90
18
 70
0
 10
88.6044730767
 20
139.3196536856
 10
88.594001511
 20
139.3171039472
 10
88.5842299538
 20
139.311380035
 10
88.5751584049
 20
139.3024327573
 10
88.5668551139
 20
139.2901919074
 10
88.5592518314
 20
139.2746548137
 10
88.5521438086
 20
139.2559659175
 10
88.5455252364
 20
139.2342941585
 10
88.5394019239
 20
139.2096625236
 10
88.5335865502
 20
139.1820487981
 10
88.5280523152
 20
139.1514492304
 10
88.5228260189
 20
139.1180269687
 10
88.5178007412
 20
139.0820222122
 10
88.5129815095
 20
139.0435732971
 10
88.5083632963
 20
139.0028491699
 10
88.5038240991
 20
138.9602078065
 10
88.4993939844
 20
138.915976872
 10
88.4812740046
 20
138.7248107204
  0
LINE
  5
3E6
100
AcDbEntity
  8
0
100
AcDbLine
 62
253
  6
CONTINUOUS
 10
89.0290514578
 20
137.1781896076
 11
89.5447311786
 21
137.2233307021
  0
LINE
  5
3E7
100
AcDbEntity
  8
0
100
AcDbLine
 62
7
  6
CONTINUOUS
 10
89.7240577384
 20
138.2198089917
 11
89.2075253394
 21
138.1746182624
  0
LINE
  5
3E8
100
AcDbEntity
  8
RACCORDO
100
AcDbLine
 62
253
  6
CONTINUOUS
 10
87.1725371247
 20
138.410166007
 11
88.4578879829
 21
138.5226692083
  0
LINE
  5
3E9
100
AcDbEntity
  8
ASSI
100
AcDbLine
 62
253
  6
CONTINUOUS
 10
87.1725371247
 20
138.410166007
 11
88.4578879829
 21
138.5226692083
  0
LINE
  5
3EA
100
AcDbEntity
  8
RACCORDO
100
AcDbLine
 62
253
  6
CONTINUOUS
 10
88.4574263777
 20
138.5198089917
 11
89.2708209941
 21
138.5198089917
  0
LINE
  5
3EB
100
AcDbEntity
  8
ASSI
100
AcDbLine
 62
253
  6
CONTINUOUS
 10
88.4574263777
 20
138.5198089917
 11
89.2708209941
 21
138.5198089917
  0
LINE
  5
3EC
100
AcDbEntity
  8
RACCORDO
100
AcDbLine
 62
253
  6
CONTINUOUS
 10
91.5199801615
 20
137.4253165154
 11
89.5826557046
 21
137.437020504
  0
LWPOLYLINE
  5
3ED
100
AcDbEntity
  8
RACCORDO
100
AcDbPolyline
 62
253
  6
CONTINUOUS
 90
16
 70
0
 10
89.689242369
 20
138.0290598565
 10
89.8108978777
 20
138.0110651763
 10
89.932884816
 20
137.9902096592
 10
90.0551259424
 20
137.9664884165
 10
90.177471624
 20
137.9399932914
 10
90.2998985517
 20
137.910622542
 10
90.4225101419
 20
137.8780802132
 10
90.5451935803
 20
137.8423991284
 10
90.667848247
 20
137.8035348524
 10
90.7905844941
 20
137.7610740062
 10
90.9134232051
 20
137.7150309639
 10
91.0360727598
 20
137.6653774224
 10
91.1581821948
 20
137.6116342868
 10
91.2795731884
 20
137.553636332
 10
91.4002099851
 20
137.4915330122
 10
91.5199801615
 20
137.4253165154
  0
LINE
  5
3EE
100
AcDbEntity
  8
RACCORDO
100
AcDbLine
 62
253
  6
CONTINUOUS
 10
87.1725371266
 20
138.4101660171
 11
86.7241425738
 21
138.4914657625
  0
LINE
  5
3EF
100
AcDbEntity
  8
ASSI
100
AcDbLine
 62
253
  6
CONTINUOUS
 10
87.1725371266
 20
138.4101660171
 11
86.7241425738
 21
138.4914657625
  0
LINE
  5
3F0
100
AcDbEntity
  8
RACCORDO
100
AcDbLine
 62
7
  6
CONTINUOUS
 10
87.2270367111
 20
139.1991436189
 11
88.6062482331
 21
139.3198089917
  0
LINE
  5
3F1
100
AcDbEntity
  8
ASSI
100
AcDbLine
 62
7
  6
CONTINUOUS
 10
87.2270367111
 20
139.1991436189
 11
88.6062482331
 21
139.3198089917
  0
LINE
  5
3F2
100
AcDbEntity
  8
RACCORDO
100
AcDbLine
 62
7
  6
CONTINUOUS
 10
88.6062482331
 20
139.3198089917
 11
89.4204221272
 21
139.3198089917
  0
LINE
  5
3F3
100
AcDbEntity
  8
ASSI
100
AcDbLine
 62
7
  6
CONTINUOUS
 10
88.6062482331
 20
139.3198089917
 11
89.4204221272
 21
139.3198089917
  0
ARC
  5
3F4
100
AcDbEntity
  8
RACCORDO
100
AcDbCircle
 62
7
  6
CONTINUOUS
 10
111.5565102001
 20
50.1198089917
 40
0.8
100
AcDbArc
 50
180.0
 51
270.0
  0
ARC
  5
3F5
100
AcDbEntity
  8
RACCORDO
100
AcDbCircle
 62
7
  6
CONTINUOUS
 10
111.5565102001
 20
138.5198089917
 40
0.8
100
AcDbArc
 50
90.0
 51
180.0
  0
ARC
  5
3F6
100
AcDbEntity
  8
RACCORDO
100
AcDbCircle
 62
7
  6
CONTINUOUS
 10
231.9565102001
 20
50.1198089917
 40
0.8
100
AcDbArc
 50
270.0
 51
360.0
  0
ARC
  5
3F7
100
AcDbEntity
  8
RACCORDO
100
AcDbCircle
 62
7
  6
CONTINUOUS
 10
231.9565102001
 20
138.5198089917
 40
0.8
100
AcDbArc
 50
0.0
 51
90.0
  0
ARC
  5
3F8
100
AcDbEntity
  8
ASSI
100
AcDbCircle
 62
7
  6
CONTINUOUS
 10
111.5565102001
 20
50.1198089917
 40
0.8
100
AcDbArc
 50
180.0
 51
270.0
  0
ARC
  5
3F9
100
AcDbEntity
  8
ASSI
100
AcDbCircle
 62
7
  6
CONTINUOUS
 10
111.5565102001
 20
138.5198089917
 40
0.8
100
AcDbArc
 50
90.0
 51
180.0
  0
ARC
  5
3FA
100
AcDbEntity
  8
ASSI
100
AcDbCircle
 62
7
  6
CONTINUOUS
 10
231.9565102001
 20
50.1198089917
 40
0.8
100
AcDbArc
 50
270.0
 51
360.0
  0
ARC
  5
3FB
100
AcDbEntity
  8
ASSI
100
AcDbCircle
 62
7
  6
CONTINUOUS
 10
231.9565102001
 20
138.5198089917
 40
0.8
100
AcDbArc
 50
0.0
 51
90.0
  0
ARC
  5
3FC
100
AcDbEntity
  8
RACCORDO
100
AcDbCircle
 62
7
  6
CONTINUOUS
 10
89.1370104717
 20
53.7787597289
 40
4.0200239337
100
AcDbArc
 50
279.9999998059
 51
320.4648679848
  0
ARC
  5
3FD
100
AcDbEntity
  8
RACCORDO
100
AcDbCircle
 62
7
  6
CONTINUOUS
 10
87.2706137907
 20
49.9385759767
 40
0.5
100
AcDbArc
 50
190.3886735272
 51
265.0001329639
  0
ARC
  5
3FE
100
AcDbEntity
  8
ASSI
100
AcDbCircle
 62
7
  6
CONTINUOUS
 10
87.2706137907
 20
49.9385759767
 40
0.5
100
AcDbArc
 50
190.3886735272
 51
265.0001329639
  0
ARC
  5
3FF
100
AcDbEntity
  8
RACCORDO
100
AcDbCircle
 62
7
  6
CONTINUOUS
 10
90.4373916664
 20
90.9876289179
 40
0.2
100
AcDbArc
 50
180.0
 51
260.0
  0
ARC
  5
400
100
AcDbEntity
  8
RACCORDO
100
AcDbCircle
 62
7
  6
CONTINUOUS
 10
252.1431050694
 20
80.1631689917
 40
168.12
100
AcDbArc
 50
182.8787323946
 51
190.3881766496
  0
ARC
  5
401
100
AcDbEntity
  8
ASSI
100
AcDbCircle
 62
7
  6
CONTINUOUS
 10
252.1431050694
 20
80.1631689917
 40
168.12
100
AcDbArc
 50
182.8787323946
 51
190.3881766496
  0
ARC
  5
402
100
AcDbEntity
  8
SCRITTA
100
AcDbCircle
 62
253
  6
CONTINUOUS
 10
252.1431050694
 20
80.1631689917
 40
168.12
100
AcDbArc
 50
184.066222377
 51
185.0234475517
  0
ARC
  5
403
100
AcDbEntity
  8
RACCORDO
100
AcDbCircle
 62
7
  6
CONTINUOUS
 10
252.1431050694
 20
80.1631689917
 40
165.62
100
AcDbArc
 50
182.8787323946
 51
190.7328340038
  0
ARC
  5
404
100
AcDbEntity
  8
ASSI
100
AcDbCircle
 62
7
  6
CONTINUOUS
 10
252.1431050694
 20
80.1631689917
 40
165.62
100
AcDbArc
 50
182.8787323946
 51
190.7328340038
  0
ARC
  5
405
100
AcDbEntity
  8
0
100
AcDbCircle
 62
7
  6
CONTINUOUS
 10
252.1431050694
 20
80.1631689917
 40
165.12
100
AcDbArc
 50
182.8787323946
 51
190.1014160686
  0
ARC
  5
406
100
AcDbEntity
  8
RACCORDO
100
AcDbCircle
 62
7
  6
CONTINUOUS
 10
252.1431050694
 20
80.1631689917
 40
165.12
100
AcDbArc
 50
190.1014160686
 51
190.5891670949
  0
ARC
  5
407
100
AcDbEntity
  8
RACCORDO
100
AcDbCircle
 62
7
  6
CONTINUOUS
 10
90.4373916664
 20
97.6519890654
 40
0.2
100
AcDbArc
 50
100.0
 51
180.0
  0
ARC
  5
408
100
AcDbEntity
  8
RACCORDO
100
AcDbCircle
 62
7
  6
CONTINUOUS
 10
89.1370104717
 20
134.8608582545
 40
4.0200239337
100
AcDbArc
 50
39.5351313682
 51
80.0000000715
  0
ARC
  5
409
100
AcDbEntity
  8
RACCORDO
100
AcDbCircle
 62
7
  6
CONTINUOUS
 10
87.2706137907
 20
138.7010420067
 40
0.5
100
AcDbArc
 50
94.9998670361
 51
169.6113264728
  0
ARC
  5
40A
100
AcDbEntity
  8
ASSI
100
AcDbCircle
 62
7
  6
CONTINUOUS
 10
87.2706137907
 20
138.7010420067
 40
0.5
100
AcDbArc
 50
94.9998670361
 51
169.6113264728
  0
ARC
  5
40B
100
AcDbEntity
  8
RACCORDO
100
AcDbCircle
 62
7
  6
CONTINUOUS
 10
252.1431050694
 20
108.4764489917
 40
168.12
100
AcDbArc
 50
169.6120465221
 51
177.1212676054
  0
ARC
  5
40C
100
AcDbEntity
  8
ASSI
100
AcDbCircle
 62
7
  6
CONTINUOUS
 10
252.1431050694
 20
108.4764489917
 40
168.12
100
AcDbArc
 50
169.6120465221
 51
177.1212676054
  0
ARC
  5
40D
100
AcDbEntity
  8
RACCORDO
100
AcDbCircle
 62
7
  6
CONTINUOUS
 10
252.1431050694
 20
108.4764489917
 40
165.62
100
AcDbArc
 50
169.2676317374
 51
177.1212676054
  0
ARC
  5
40E
100
AcDbEntity
  8
ASSI
100
AcDbCircle
 62
7
  6
CONTINUOUS
 10
252.1431050694
 20
108.4764489917
 40
165.62
100
AcDbArc
 50
169.2676317374
 51
177.1212676054
  0
ARC
  5
40F
100
AcDbEntity
  8
0
100
AcDbCircle
 62
7
  6
CONTINUOUS
 10
252.1431050694
 20
108.4764489917
 40
165.12
100
AcDbArc
 50
169.8985839314
 51
177.1212676054
  0
ARC
  5
410
100
AcDbEntity
  8
RACCORDO
100
AcDbCircle
 62
7
  6
CONTINUOUS
 10
252.1431050694
 20
108.4764489917
 40
165.12
100
AcDbArc
 50
169.4108329051
 51
169.8985839314
  0
ARC
  5
411
100
AcDbEntity
  8
RACCORDO
100
AcDbCircle
 62
7
  6
CONTINUOUS
 10
533.6673916664
 20
94.3198089917
 40
450.0
100
AcDbArc
 50
177.1212731691
 51
182.8787274802
  0
ARC
  5
412
100
AcDbEntity
  8
ASSI
100
AcDbCircle
 62
7
  6
CONTINUOUS
 10
533.6673916664
 20
94.3198089917
 40
450.0
100
AcDbArc
 50
177.1212731691
 51
182.8787274802
  0
ARC
  5
413
100
AcDbEntity
  8
DRAFT
100
AcDbCircle
 62
7
  6
CONTINUOUS
 10
533.6673916664
 20
94.3198089917
 40
447.5
100
AcDbArc
 50
177.1212676054
 51
182.8787323946
  0
ARC
  5
414
100
AcDbEntity
  8
ASSI
100
AcDbCircle
 62
7
  6
CONTINUOUS
 10
533.6673916664
 20
94.3198089917
 40
447.5
100
AcDbArc
 50
177.1212676054
 51
182.8787323946
  0
ARC
  5
415
100
AcDbEntity
  8
0
100
AcDbCircle
 62
7
  6
CONTINUOUS
 10
533.6673916664
 20
94.3198089917
 40
447.0
100
AcDbArc
 50
177.1212676054
 51
182.8787323946
  0
ELLIPSE
  5
416
100
AcDbEntity
  8
SCRITTA
100
AcDbEllipse
 62
253
  6
CONTINUOUS
 10
252.1431050694
 20
80.1631689917
 30
0.0
 11
-23.3184477428
 21
166.4949981076
 31
0.0
 40
1.0
 41
1.5105213199
 42
1.5107050223
  0
ELLIPSE
  5
417
100
AcDbEntity
  8
SCRITTA
100
AcDbEllipse
 62
253
  6
CONTINUOUS
 10
252.1431050694
 20
80.1631689917
 30
0.0
 11
38.6260610024
 21
163.6226201093
 31
0.0
 40
1.0
 41
-4.4095952055
 42
-4.4016903533
  0
ELLIPSE
  5
418
100
AcDbEntity
  8
SCRITTA
100
AcDbEllipse
 62
253
  6
CONTINUOUS
 10
252.1431050694
 20
80.1631689917
 30
0.0
 11
160.9063114933
 21
-48.7185110775
 31
0.0
 40
1.0
 41
-2.7720332484
 42
-2.7686463857
  0
ELLIPSE
  5
419
100
AcDbEntity
  8
SCRITTA
100
AcDbEllipse
 62
253
  6
CONTINUOUS
 10
252.1431050694
 20
80.1631689917
 30
0.0
 11
20.5414502925
 21
166.8603704295
 31
0.0
 40
1.0
 41
-4.5109143207
 42
-4.5081422225
  0
ELLIPSE
  5
41A
100
AcDbEntity
  8
SCRITTA
100
AcDbEllipse
 62
253
  6
CONTINUOUS
 10
252.1431050694
 20
80.1631689917
 30
0.0
 11
165.949143378
 21
26.9298386943
 31
0.0
 40
1.0
 41
3.0562754798
 42
3.0596623425
  0
ELLIPSE
  5
41B
100
AcDbEntity
  8
SCRITTA
100
AcDbEllipse
 62
253
  6
CONTINUOUS
 10
252.1431050694
 20
80.1631689917
 30
0.0
 11
-58.3286031692
 21
157.6772287058
 31
0.0
 40
1.0
 41
1.2956443608
 42
1.3041588882
  0
ELLIPSE
  5
41C
100
AcDbEntity
  8
SCRITTA
100
AcDbEllipse
 62
253
  6
CONTINUOUS
 10
252.1431050694
 20
80.1631689917
 30
0.0
 11
-23.3184477428
 21
166.4949981076
 31
0.0
 40
1.0
 41
1.5026164677
 42
1.5104358319
  0
ELLIPSE
  5
41D
100
AcDbEntity
  8
SCRITTA
100
AcDbEllipse
 62
253
  6
CONTINUOUS
 10
252.1431050694
 20
80.1631689917
 30
0.0
 11
168.12
 21
0.0
 31
0.0
 40
1.0
 41
-3.0706226832
 42
-3.062717831
  0
ELLIPSE
  5
41E
100
AcDbEntity
  8
SCRITTA
100
AcDbEllipse
 62
253
  6
CONTINUOUS
 10
278.2809175416
 20
118.5971193952
 30
0.0
 11
-0.0
 21
17.4277580646
 31
0.0
210
0.0
220
-0.2744308091
230
0.9616068485
 40
0.9616068485
 41
1.6496711494
 42
1.6498548518
  0
ELLIPSE
  5
41F
100
AcDbEntity
  8
SCRITTA
100
AcDbEllipse
 62
253
  6
CONTINUOUS
 10
252.1431050694
 20
80.1631689917
 30
0.0
 11
-64.3367386492
 21
155.3226270058
 31
0.0
 40
1.0
 41
1.2624360767
 42
1.2657729426
  0
ELLIPSE
  5
420
100
AcDbEntity
  8
SCRITTA
100
AcDbEllipse
 62
253
  6
CONTINUOUS
 10
252.1431050694
 20
80.1631689917
 30
0.0
 11
-75.1855496755
 21
150.3710993509
 31
0.0
 40
1.0
 41
1.1914875494
 42
1.1948244153
  0
ELLIPSE
  5
421
100
AcDbEntity
  8
SCRITTA
100
AcDbEllipse
 62
253
  6
CONTINUOUS
 10
252.1431050694
 20
80.1631689917
 30
0.0
 11
-88.3859145695
 21
143.0114139001
 31
0.0
 40
1.0
 41
1.0963831379
 42
1.1048976654
  0
ELLIPSE
  5
422
100
AcDbEntity
  8
SCRITTA
100
AcDbEllipse
 62
253
  6
CONTINUOUS
 10
252.1431050694
 20
80.1631689917
 30
0.0
 11
88.3859145695
 21
143.0114139001
 31
0.0
 40
1.0
 41
-4.0798976078
 42
-4.0797946011
  0
ELLIPSE
  5
423
100
AcDbEntity
  8
SCRITTA
100
AcDbEllipse
 62
253
  6
CONTINUOUS
 10
252.1431050694
 20
80.1631689917
 30
0.0
 11
79.3287544404
 21
148.2271335449
 31
0.0
 40
1.0
 41
-4.1422027841
 42
-4.1418309487
  0
ELLIPSE
  5
424
100
AcDbEntity
  8
SCRITTA
100
AcDbEllipse
 62
253
  6
CONTINUOUS
 10
252.1431050694
 20
80.1631689917
 30
0.0
 11
118.8787920531
 21
-118.8787920531
 31
0.0
 40
1.0
 41
-2.2772774765
 42
-2.2744370639
  0
ELLIPSE
  5
425
100
AcDbEntity
  8
SCRITTA
100
AcDbEllipse
 62
253
  6
CONTINUOUS
 10
252.1431050694
 20
80.1631689917
 30
0.0
 11
-118.8787920531
 21
118.8787920531
 31
0.0
 40
1.0
 41
7.147603491
 42
7.156259168
  0
ELLIPSE
  5
426
100
AcDbEntity
  8
SCRITTA
100
AcDbEllipse
 62
253
  6
CONTINUOUS
 10
252.1431050694
 20
80.1631689917
 30
0.0
 11
34.9002808815
 21
164.4576078945
 31
0.0
 40
1.0
 41
-4.4243138444
 42
-4.4156011181
  0
ELLIPSE
  5
427
100
AcDbEntity
  8
SCRITTA
100
AcDbEllipse
 62
253
  6
CONTINUOUS
 10
252.1431050694
 20
80.1631689917
 30
0.0
 11
103.4631006448
 21
132.5130982393
 31
0.0
 40
1.0
 41
-3.9705171774
 42
-3.9618044511
  0
ELLIPSE
  5
428
100
AcDbEntity
  8
SCRITTA
100
AcDbEllipse
 62
253
  6
CONTINUOUS
 10
252.1431050694
 20
80.1631689917
 30
0.0
 11
-31.7927564566
 21
165.0865077373
 31
0.0
 40
1.0
 41
1.4573532913
 42
1.4597043083
  0
ELLIPSE
  5
429
100
AcDbEntity
  8
SCRITTA
100
AcDbEllipse
 62
253
  6
CONTINUOUS
 10
252.1431050694
 20
80.1631689917
 30
0.0
 11
-118.8787920531
 21
118.8787920531
 31
0.0
 40
1.0
 41
7.139553441
 42
7.1475469773
  0
ELLIPSE
  5
42A
100
AcDbEntity
  8
SCRITTA
100
AcDbEllipse
 62
253
  6
CONTINUOUS
 10
252.1431050694
 20
80.1631689917
 30
0.0
 11
-0.0
 21
168.12
 31
0.0
 40
1.0
 41
-4.6334254737
 42
-4.6247132829
  0
ELLIPSE
  5
42B
100
AcDbEntity
  8
SCRITTA
100
AcDbEllipse
 62
253
  6
CONTINUOUS
 10
252.1431050694
 20
80.1631689917
 30
0.0
 11
160.9063114933
 21
48.7185110775
 31
0.0
 40
1.0
 41
2.9265548585
 42
2.9352670493
  0
ELLIPSE
  5
42C
100
AcDbEntity
  8
SCRITTA
100
AcDbEllipse
 62
253
  6
CONTINUOUS
 10
252.1431050694
 20
80.1631689917
 30
0.0
 11
155.3226270058
 21
64.3367386492
 31
0.0
 40
1.0
 41
9.1030488495
 42
9.1145455055
  0
ELLIPSE
  5
42D
100
AcDbEntity
  8
SCRITTA
100
AcDbEllipse
 62
253
  6
CONTINUOUS
 10
252.1431050694
 20
80.1631689917
 30
0.0
 11
88.3859145695
 21
143.0114139001
 31
0.0
 40
1.0
 41
-4.0878446511
 42
-4.0800252868
  0
ELLIPSE
  5
42E
100
AcDbEntity
  8
SCRITTA
100
AcDbEllipse
 62
253
  6
CONTINUOUS
 10
252.1431050694
 20
80.1631689917
 30
0.0
 11
-20.5414502925
 21
166.8603704295
 31
0.0
 40
1.0
 41
1.5270963299
 42
1.5274681653
  0
ELLIPSE
  5
42F
100
AcDbEntity
  8
SCRITTA
100
AcDbEllipse
 62
253
  6
CONTINUOUS
 10
252.1431050694
 20
80.1631689917
 30
0.0
 11
-79.3287544404
 21
148.2271335449
 31
0.0
 40
1.0
 41
7.441374107
 42
7.4502604698
  0
ELLIPSE
  5
430
100
AcDbEntity
  8
SCRITTA
100
AcDbEllipse
 62
253
  6
CONTINUOUS
 10
252.1431050694
 20
80.1631689917
 30
0.0
 11
64.3367386492
 21
155.3226270058
 31
0.0
 40
1.0
 41
-4.2487199283
 42
-4.2407269275
  0
ELLIPSE
  5
431
100
AcDbEntity
  8
SCRITTA
100
AcDbEllipse
 62
253
  6
CONTINUOUS
 10
252.1431050694
 20
80.1631689917
 30
0.0
 11
-38.6260610024
 21
163.6226201093
 31
0.0
 40
1.0
 41
1.4177618569
 42
1.4181336923
  0
ELLIPSE
  5
432
100
AcDbEntity
  8
SCRITTA
100
AcDbEllipse
 62
253
  6
CONTINUOUS
 10
252.1431050694
 20
80.1631689917
 30
0.0
 11
64.3367386492
 21
155.3226270058
 31
0.0
 40
1.0
 41
2.0425539335
 42
2.051171106
  0
ENDSEC
  0
SECTION
  2
OBJECTS
  0
DICTIONARY
  5
C
100
AcDbDictionary
280
0
281
1
  3
ACAD_GROUP
350
D
  3
ACAD_MLINESTYLE
350
17
  3
ACAD_LAYOUT
350
1A
  3
ACAD_PLOTSETTINGS
350
19
  3
ACAD_PLOTSTYLENAME
350
E
  0
DICTIONARY
  5
D
102
{ACAD_REACTORS
330
C
102
}
100
AcDbDictionary
280
0
281
1
  0
ACDBDICTIONARYWDFLT
  5
E
102
{ACAD_REACTORS
330
C
102
}
100
AcDbDictionary
281
1
  3
Normal
350
F
100
AcDbDictionaryWithDefault
340
F
  0
DICTIONARY
  5
17
102
{ACAD_REACTORS
330
C
102
}
100
AcDbDictionary
280
0
281
1
  3
Standard
350
18
  0
DICTIONARY
  5
19
102
{ACAD_REACTORS
330
C
102
}
100
AcDbDictionary
281
1
  0
DICTIONARY
  5
1A
102
{ACAD_REACTORS
330
C
102
}
100
AcDbDictionary
281
1
  3
Model
350
433
  3
Layout1
350
434
  0
ACDBPLACEHOLDER
  5
F
102
{ACAD_REACTORS
330
E
102
}
  0
MLINESTYLE
  5
18
102
{ACAD_REACTORS
330
17
102
}
100
AcDbMlineStyle
  2
STANDARD
 70
0
  3

 62
256
 51
90.0
 52
90.0
 71
2
 49
0.5
 62
256
  6
BYLAYER
 49
-0.5
 62
256
  6
BYLAYER
  0
LAYOUT
  5
433
102
{ACAD_REACTORS
330
1A
102
}
100
AcDbPlotSettings
  1

  2
none_device
  4
ISO_A4_(297.00_x_210.00_MM)
  6

 40
0.0
 41
0.0
 42
0.0
 43
0.0
 44
297.0
 45
210.0
 46
0.0
 47
0.0
 48
0.0
 49
0.0
140
0.0
141
0.0
142
1.0
143
1.0
 70
1024
 72
1
 73
0
 74
0
  7

 75
0
147
1.0
148
0.0
149
0.0
100
AcDbLayout
  1
Model
 70
0
 71
0
 10
0.0
 20
0.0
 11
297.0
 21
210.0
 12
0.0
 22
0.0
 32
0.0
 14
0.0
 24
0.0
 34
0.0
 15
0.0
 25
0.0
 35
0.0
146
0.0
 13
0.0
 23
0.0
 33
0.0
 16
1.0
 26
0.0
 36
0.0
 17
0.0
 27
1.0
 37
0.0
 76
0
330
213
345
0
346
0
  0
LAYOUT
  5
434
102
{ACAD_REACTORS
330
1A
102
}
100
AcDbPlotSettings
  1

  2
none_device
  4
ISO_A4_(297.00_x_210.00_MM)
  6

 40
0.0
 41
0.0
 42
0.0
 43
0.0
 44
297.0
 45
210.0
 46
0.0
 47
0.0
 48
0.0
 49
0.0
140
0.0
141
0.0
142
1.0
143
1.0
 70
0
 72
1
 73
0
 74
0
  7

 75
0
147
1.0
148
0.0
149
0.0
100
AcDbLayout
  1
Layout1
 70
0
 71
1
 10
0.0
 20
0.0
 11
297.0
 21
210.0
 12
0.0
 22
0.0
 32
0.0
 14
0.0
 24
0.0
 34
0.0
 15
0.0
 25
0.0
 35
0.0
146
0.0
 13
0.0
 23
0.0
 33
0.0
 16
1.0
 26
0.0
 36
0.0
 17
0.0
 27
1.0
 37
0.0
 76
0
330
214
345
0
346
0
  0
ENDSEC
  0
EOF
