  0
SECTION
  2
HEADER
  9
$ACADVER
  1
AC1021
  9
$DWGCODEPAGE
  3
ANSI_1252
  9
$EXTMAX
 10
297.0
 20
210.0
 30
0.0
  9
$EXTMIN
 10
0.0
 20
0.0
 30
0.0
  9
$LIMMIN
 10
0.0
 20
0.0
  9
$LIMMAX
 10
297.0
 20
210.0
  9
$VIEWCTR
 10
148.5
 20
105.0
  9
$VIEWSIZE
 40
210.0
  9
$CLAYER
  8
0
  9
$LTSCALE
 40
16.335
  9
$CELTYPE
  6
BYLAYER
  9
$DIMSCALE
 40
1.0
  9
$DIMASZ
 40
3.0
  9
$DIMEXO
 40
1.85625
  9
$DIMDLI
 40
11.286
  9
$DIMEXE
 40
5.346
  9
$DIMCEN
 40
2.673
  9
$DIMLFAC
 40
1.0
  9
$DIMBLK
  1
_FILLED
  9
$DIMTXT
 40
3.0
  9
$DIMTOL
 70
1
  9
$DIMLIM
 70
0
  9
$DIMTFAC
 40
1.0
  9
$DIMTP
 40
0.01
  9
$DIMTM
 40
0.01
  9
$PDMODE
 70
3
  9
$PDSIZE
 40
3.0
  9
$HANDSEED
  5
363
  9
$TILEMODE
 70
1
  9
$MEASUREMENT
 70
1
  9
$INSUNITS
 70
4
  0
ENDSEC
  0
SECTION
  2
CLASSES
  0
CLASS
  1
ACDBDICTIONARYWDFLT
  2
AcDbDictionaryWithDefault
  3
AutoCAD 2000
 90
0
 91
1
280
0
281
0
  0
CLASS
  1
ACDBPLACEHOLDER
  2
AcDbPlaceHolder
  3
AutoCAD 2000
 90
0
 91
1
280
0
281
0
  0
CLASS
  1
LAYOUT
  2
AcDbLayout
  3
AutoCAD 2000
 90
0
 91
0
280
0
281
0
  0
ENDSEC
  0
SECTION
  2
TABLES
  0
TABLE
  2
VPORT
  5
8
100
AcDbSymbolTable
 70
2
  0
VPORT
  5
1F4
100
AcDbSymbolTableRecord
100
AcDbViewportTableRecord
  2
*ACTIVE
 70
0
 10
0.0
 20
0.0
 11
1.0
 21
1.0
 12
148.5
 22
105.0
 13
0.0
 23
0.0
 14
1.0
 24
1.0
 15
0.0
 25
0.0
 16
0.0
 26
0.0
 36
1.0
 17
0.0
 27
0.0
 37
0.0
 40
210.0
 41
1.4142857143
 42
50.0
 43
0.0
 44
0.0
 50
0.0
 51
0.0
 71
0
 72
100
 73
1
 74
1
 75
0
 76
0
 77
0
 78
0
  0
ENDTAB
  0
TABLE
  2
LTYPE
  5
5
100
AcDbSymbolTable
 70
6
  0
LTYPE
  5
14
100
AcDbSymbolTableRecord
100
AcDbLinetypeTableRecord
  2
BYBLOCK
 70
0
  3

 72
65
 73
0
 40
0.0
  0
LTYPE
  5
15
100
AcDbSymbolTableRecord
100
AcDbLinetypeTableRecord
  2
BYLAYER
 70
0
  3

 72
65
 73
0
 40
0.0
  0
LTYPE
  5
16
100
AcDbSymbolTableRecord
100
AcDbLinetypeTableRecord
  2
CONTINUOUS
 70
64
  3
Solid line
 72
65
 73
0
 40
0.0
  0
LTYPE
  5
1F5
100
AcDbSymbolTableRecord
100
AcDbLinetypeTableRecord
  2
CENTER
 70
64
  3
____ _ ____ _ ____ _ ____ _ ____ _ ____ _ ____
 72
65
 73
4
 40
0.6
 49
0.375
 74
0
 49
-0.075
 74
0
 49
0.075
 74
0
 49
-0.075
 74
0
  0
LTYPE
  5
1F6
100
AcDbSymbolTableRecord
100
AcDbLinetypeTableRecord
  2
HIDDEN
 70
64
  3
- - - - - - - - - - - - - - - - - - - -
 72
65
 73
2
 40
0.2
 49
0.1
 74
0
 49
-0.1
 74
0
  0
LTYPE
  5
1F7
100
AcDbSymbolTableRecord
100
AcDbLinetypeTableRecord
  2
PHANTOM
 70
64
  3
_____ _ _ _____ _ _ _____ _ _ _____
 72
65
 73
6
 40
0.8
 49
0.45
 74
0
 49
-0.05
 74
0
 49
0.1
 74
0
 49
-0.05
 74
0
 49
0.1
 74
0
 49
-0.05
 74
0
  0
LTYPE
  5
1F8
100
AcDbSymbolTableRecord
100
AcDbLinetypeTableRecord
  2
DOT
 70
64
  3
. . . . . . . . . . . . . . . . . . . .
 72
65
 73
2
 40
0.2
 49
0.1
 74
0
 49
-0.1
 74
0
  0
LTYPE
  5
1F9
100
AcDbSymbolTableRecord
100
AcDbLinetypeTableRecord
  2
DASHED
 70
64
  3
- - - - - - - - - - - - - - - - - - - -
 72
65
 73
2
 40
0.2
 49
0.1
 74
0
 49
-0.1
 74
0
  0
ENDTAB
  0
TABLE
  2
LAYER
  5
2
100
AcDbSymbolTable
 70
36
  0
LAYER
  5
10
100
AcDbSymbolTableRecord
100
AcDbLayerTableRecord
  2
0
 70
0
 62
7
  6
CONTINUOUS
370
-3
390
F
  0
LAYER
  5
1FA
100
AcDbSymbolTableRecord
100
AcDbLayerTableRecord
  2
DEFAULT_1
 70
0
 62
7
  6
CENTER
370
-3
390
F
  0
LAYER
  5
1FB
100
AcDbSymbolTableRecord
100
AcDbLayerTableRecord
  2
DEFAULT_2
 70
0
 62
7
  6
HIDDEN
370
-3
390
F
  0
LAYER
  5
1FC
100
AcDbSymbolTableRecord
100
AcDbLayerTableRecord
  2
DEFAULT_3
 70
0
 62
7
  6
PHANTOM
370
-3
390
F
  0
LAYER
  5
1FD
100
AcDbSymbolTableRecord
100
AcDbLayerTableRecord
  2
ASSI
 70
0
 62
7
  6
CONTINUOUS
370
-3
390
F
  0
LAYER
  5
1FE
100
AcDbSymbolTableRecord
100
AcDbLayerTableRecord
  2
COORDINATE
 70
0
 62
7
  6
CONTINUOUS
370
-3
390
F
  0
LAYER
  5
1FF
100
AcDbSymbolTableRecord
100
AcDbLayerTableRecord
  2
COPY_PUBLISH
 70
0
 62
7
  6
CONTINUOUS
370
-3
390
F
  0
LAYER
  5
200
100
AcDbSymbolTableRecord
100
AcDbLayerTableRecord
  2
COSMETICI
 70
0
 62
7
  6
CONTINUOUS
370
-3
390
F
  0
LAYER
  5
201
100
AcDbSymbolTableRecord
100
AcDbLayerTableRecord
  2
CURVE
 70
0
 62
7
  6
CONTINUOUS
370
-3
390
F
  0
LAYER
  5
202
100
AcDbSymbolTableRecord
100
AcDbLayerTableRecord
  2
DRAFT
 70
0
 62
7
  6
CONTINUOUS
370
-3
390
F
  0
LAYER
  5
203
100
AcDbSymbolTableRecord
100
AcDbLayerTableRecord
  2
IMPORT_IGES
 70
0
 62
7
  6
CONTINUOUS
370
-3
390
F
  0
LAYER
  5
204
100
AcDbSymbolTableRecord
100
AcDbLayerTableRecord
  2
INTF_1
 70
0
 62
7
  6
CONTINUOUS
370
-3
390
F
  0
LAYER
  5
205
100
AcDbSymbolTableRecord
100
AcDbLayerTableRecord
  2
NOTE
 70
0
 62
7
  6
CONTINUOUS
370
-3
390
F
  0
LAYER
  5
206
100
AcDbSymbolTableRecord
100
AcDbLayerTableRecord
  2
PIANI
 70
0
 62
7
  6
CONTINUOUS
370
-3
390
F
  0
LAYER
  5
207
100
AcDbSymbolTableRecord
100
AcDbLayerTableRecord
  2
PUNTI
 70
0
 62
7
  6
CONTINUOUS
370
-3
390
F
  0
LAYER
  5
208
100
AcDbSymbolTableRecord
100
AcDbLayerTableRecord
  2
RACCORDO
 70
0
 62
7
  6
CONTINUOUS
370
-3
390
F
  0
LAYER
  5
209
100
AcDbSymbolTableRecord
100
AcDbLayerTableRecord
  2
SIMBOLI
 70
0
 62
7
  6
CONTINUOUS
370
-3
390
F
  0
LAYER
  5
20A
100
AcDbSymbolTableRecord
100
AcDbLayerTableRecord
  2
SMUSSO
 70
0
 62
7
  6
CONTINUOUS
370
-3
390
F
  0
LAYER
  5
20B
100
AcDbSymbolTableRecord
100
AcDbLayerTableRecord
  2
SNAPLINE
 70
0
 62
7
  6
CONTINUOUS
370
-3
390
F
  0
LAYER
  5
20C
100
AcDbSymbolTableRecord
100
AcDbLayerTableRecord
  2
SUPERFICI
 70
0
 62
7
  6
CONTINUOUS
370
-3
390
F
  0
LAYER
  5
20D
100
AcDbSymbolTableRecord
100
AcDbLayerTableRecord
  2
TRASH
 70
0
 62
7
  6
CONTINUOUS
370
-3
390
F
  0
ENDTAB
  0
TABLE
  2
STYLE
  5
3
100
AcDbSymbolTable
 70
1
  0
STYLE
  5
11
100
AcDbSymbolTableRecord
100
AcDbTextStyleTableRecord
  2
STANDARD
 70
0
 40
0.0
 41
0.8
 50
0.0
 71
0
 42
0.2
  3
txt
  4

  0
STYLE
  5
20E
100
AcDbSymbolTableRecord
100
AcDbTextStyleTableRecord
  2
TEXTSTYLE_1
 70
0
 40
0.0
 41
0.8
 50
0.0
 71
0
 42
0.2
  3
gdt
  4

  0
ENDTAB
  0
TABLE
  2
VIEW
  5
6
100
AcDbSymbolTable
 70
0
  0
ENDTAB
  0
TABLE
  2
UCS
  5
7
100
AcDbSymbolTable
 70
0
  0
ENDTAB
  0
TABLE
  2
APPID
  5
9
100
AcDbSymbolTable
 70
1
  0
APPID
  5
20F
100
AcDbSymbolTableRecord
100
AcDbRegAppTableRecord
  2
ACAD
 70
0
  0
ENDTAB
  0
TABLE
  2
BLOCK_RECORD
  5
1
100
AcDbSymbolTable
 70
0
  0
BLOCK_RECORD
  5
210
100
AcDbSymbolTableRecord
100
AcDbBlockTableRecord
  2
*Model_Space
  0
BLOCK_RECORD
  5
211
100
AcDbSymbolTableRecord
100
AcDbBlockTableRecord
  2
*Paper_Space
  0
BLOCK_RECORD
  5
212
100
AcDbSymbolTableRecord
100
AcDbBlockTableRecord
  2
_FILLED
  0
BLOCK_RECORD
  5
213
100
AcDbSymbolTableRecord
100
AcDbBlockTableRecord
  2
*D0
  0
BLOCK_RECORD
  5
214
100
AcDbSymbolTableRecord
100
AcDbBlockTableRecord
  2
*D1
  0
BLOCK_RECORD
  5
215
100
AcDbSymbolTableRecord
100
AcDbBlockTableRecord
  2
*D2
  0
ENDTAB
  0
TABLE
  2
DIMSTYLE
  5
A
100
AcDbSymbolTable
 70
1
100
AcDbDimStyleTable
 71
0
  0
DIMSTYLE
105
216
100
AcDbSymbolTableRecord
100
AcDbDimStyleTableRecord
  2
STANDARD
 70
0
  3

  4

 40
1.0
 41
3.0
 42
0.0625
 43
0.38
 44
0.18
 45
0.0
 46
0.0
 47
0.01
 48
0.01
140
3.0
141
0.09
142
0.0
143
25.4
144
1.0
145
0.0
146
1.0
147
0.09
 71
1.0
 72
0.0
 73
0
 74
0
 75
0
 76
0
 77
1
 78
8
170
0
171
2
172
0
173
0
174
0
175
0
176
0
177
0
178
0
270
2
271
2
272
2
273
2
274
2
275
0
280
0
281
0
282
0
283
1
284
8
285
0
286
0
287
3
288
0
340
11
341
212
342
212
343
212
344
212
  0
DIMSTYLE
105
217
100
AcDbSymbolTableRecord
100
AcDbDimStyleTableRecord
  2
DIMSTYLE_1
 70
0
  3

  4

 40
1.0
 41
3.0
 42
0.0625
 43
0.38
 44
0.18
 45
0.0
 46
0.0
 47
0.0
 48
0.0
140
3.0
141
0.09
142
0.0
143
25.4
144
1.0
145
0.0
146
1.0
147
0.09
 71
0.0
 72
0.0
 73
0
 74
0
 75
0
 76
0
 77
1
 78
8
170
0
171
2
172
0
173
0
174
0
175
0
176
0
177
0
178
0
270
2
271
1
272
1
273
2
274
2
275
0
280
0
281
0
282
0
283
1
284
8
285
0
286
0
287
3
288
0
340
11
341
212
342
212
343
212
344
212
  0
DIMSTYLE
105
218
100
AcDbSymbolTableRecord
100
AcDbDimStyleTableRecord
  2
DIMSTYLE_2
 70
0
  3

  4

 40
1.0
 41
3.0
 42
0.0625
 43
0.38
 44
0.18
 45
0.0
 46
0.0
 47
0.0
 48
0.0
140
3.0
141
0.09
142
0.0
143
25.4
144
1.0
145
0.0
146
1.0
147
0.09
 71
0.0
 72
0.0
 73
0
 74
0
 75
0
 76
0
 77
1
 78
8
170
0
171
2
172
0
173
0
174
0
175
0
176
0
177
0
178
0
270
2
271
2
272
2
273
2
274
2
275
0
280
0
281
0
282
0
283
1
284
8
285
0
286
0
287
3
288
0
340
11
341
212
342
212
343
212
344
212
  0
ENDTAB
  0
ENDSEC
  0
SECTION
  2
BLOCKS
  0
BLOCK
  5
20
100
AcDbEntity
  8
0
100
AcDbBlockBegin
  2
*Model_Space
 70
0
 10
0.0
 20
0.0
 30
0.0
  3
*Model_Space
  1

  0
ENDBLK
  5
21
100
AcDbEntity
  8
0
100
AcDbBlockEnd
  0
BLOCK
  5
1C
100
AcDbEntity
  8
0
100
AcDbBlockBegin
  2
*Paper_Space
 70
0
 10
0.0
 20
0.0
 30
0.0
  3
*Paper_Space
  1

  0
ENDBLK
  5
1D
100
AcDbEntity
  8
0
100
AcDbBlockEnd
  0
BLOCK
  5
219
100
AcDbEntity
  8
0
100
AcDbBlockBegin
  2
_FILLED
 70
64
 10
0.0
 20
0.0
  3
_FILLED
  1

  0
SOLID
  5
21A
100
AcDbEntity
  8
0
  6
BYBLOCK
 62
0
100
AcDbTrace
 10
0.0
 20
0.0
 11
-1.0
 21
0.3166666667
 12
-1.0
 22
-0.3166666667
 13
-1.0
 23
-0.3166666667
  0
ENDBLK
  5
21B
100
AcDbEntity
  8
0
  6
BYBLOCK
 62
0
100
AcDbBlockEnd
  0
BLOCK
  5
21C
100
AcDbEntity
  8
0
100
AcDbBlockBegin
 62
7
  6
CONTINUOUS
  2
*D0
 70
65
 10
0.0
 20
0.0
  3
*D0
  1

  0
MTEXT
  5
21D
100
AcDbEntity
  8
0
100
AcDbMText
 62
7
  6
CONTINUOUS
  7
STANDARD
 71
3
 72
1
 10
93.4845410502
 20
176.1534103668
 30
0.0
 11
1.0
 21
0.0
 31
0.0
 44
0.9
  1
8,6
 40
3.0
 41
6.4285714286
  0
LINE
  5
21E
100
AcDbEntity
  8
0
100
AcDbLine
 62
7
  6
CONTINUOUS
 10
106.0701932462
 20
152.6935072683
 11
106.0701932105
 21
173.9034103879
  0
LINE
  5
21F
100
AcDbEntity
  8
0
100
AcDbLine
 62
7
  6
CONTINUOUS
 10
97.5020816832
 20
110.1309763748
 11
97.502081576
 21
173.9034103735
  0
LINE
  5
220
100
AcDbEntity
  8
0
100
AcDbLine
 62
7
  6
CONTINUOUS
 10
106.070193213
 20
172.4034103879
 11
101.7861373958
 21
172.4034103807
  0
LINE
  5
221
100
AcDbEntity
  8
0
100
AcDbLine
 62
7
  6
CONTINUOUS
 10
97.5020815785
 20
172.4034103735
 11
101.7861373958
 21
172.4034103807
  0
LINE
  5
222
100
AcDbEntity
  8
0
100
AcDbLine
 62
7
  6
CONTINUOUS
 10
101.7861373958
 20
172.4034103807
 11
87.0559696216
 21
172.4034103668
  0
INSERT
  5
223
100
AcDbEntity
  8
0
100
AcDbBlockReference
 62
7
  6
CONTINUOUS
  2
_FILLED
 10
106.070193213
 20
172.4034103879
 41
3.0
 42
3.0
 43
3.0
 50
0.0000000963
  0
INSERT
  5
224
100
AcDbEntity
  8
0
100
AcDbBlockReference
 62
7
  6
CONTINUOUS
  2
_FILLED
 10
97.5020815785
 20
172.4034103735
 41
3.0
 42
3.0
 43
3.0
 50
180.0000000963
  0
ENDBLK
  5
225
100
AcDbEntity
  8
0
  6
BYBLOCK
 62
0
100
AcDbBlockEnd
  0
BLOCK
  5
226
100
AcDbEntity
  8
0
100
AcDbBlockBegin
 62
7
  6
CONTINUOUS
  2
*D1
 70
65
 10
0.0
 20
0.0
  3
*D1
  1

  0
MTEXT
  5
227
100
AcDbEntity
  8
0
100
AcDbMText
 62
7
  6
CONTINUOUS
  7
STANDARD
 71
2
 72
1
 10
184.8826715177
 20
176.380977131
 30
0.0
 11
1.0
 21
0.0
 31
0.0
 44
0.9
  1
122
 40
3.0
 41
6.4285714286
  0
LINE
  5
228
100
AcDbEntity
  8
0
100
AcDbLine
 62
7
  6
CONTINUOUS
 10
123.8826715177
 20
153.5309772703
 11
123.8826715177
 21
174.130977131
  0
LINE
  5
229
100
AcDbEntity
  8
0
100
AcDbLine
 62
7
  6
CONTINUOUS
 10
245.8826715177
 20
153.530977131
 11
245.8826715177
 21
174.130977131
  0
LINE
  5
22A
100
AcDbEntity
  8
0
100
AcDbLine
 62
7
  6
CONTINUOUS
 10
123.8826715177
 20
172.630977131
 11
184.8826715177
 21
172.630977131
  0
LINE
  5
22B
100
AcDbEntity
  8
0
100
AcDbLine
 62
7
  6
CONTINUOUS
 10
245.8826715177
 20
172.630977131
 11
184.8826715177
 21
172.630977131
  0
INSERT
  5
22C
100
AcDbEntity
  8
0
100
AcDbBlockReference
 62
7
  6
CONTINUOUS
  2
_FILLED
 10
123.8826715177
 20
172.630977131
 41
3.0
 42
3.0
 43
3.0
 50
180.0
  0
INSERT
  5
22D
100
AcDbEntity
  8
0
100
AcDbBlockReference
 62
7
  6
CONTINUOUS
  2
_FILLED
 10
245.8826715177
 20
172.630977131
 41
3.0
 42
3.0
 43
3.0
 50
360.0
  0
ENDBLK
  5
22E
100
AcDbEntity
  8
0
  6
BYBLOCK
 62
0
100
AcDbBlockEnd
  0
BLOCK
  5
22F
100
AcDbEntity
  8
0
100
AcDbBlockBegin
 62
7
  6
CONTINUOUS
  2
*D2
 70
65
 10
0.0
 20
0.0
  3
*D2
  1

  0
MTEXT
  5
230
100
AcDbEntity
  8
0
100
AcDbMText
 62
7
  6
CONTINUOUS
  7
STANDARD
 71
2
 72
1
 10
256.1438617308
 20
109.630977131
 30
0.0
 11
0.0
 21
1.0
 31
0.0
 44
0.9
  1
90
 40
3.0
 41
4.7142857143
  0
LINE
  5
231
100
AcDbEntity
  8
0
100
AcDbLine
 62
7
  6
CONTINUOUS
 10
244.7826715177
 20
154.630977131
 11
261.3938617308
 21
154.630977131
  0
LINE
  5
232
100
AcDbEntity
  8
0
100
AcDbLine
 62
7
  6
CONTINUOUS
 10
244.7826715177
 20
64.630977131
 11
261.3938617308
 21
64.630977131
  0
LINE
  5
233
100
AcDbEntity
  8
0
100
AcDbLine
 62
7
  6
CONTINUOUS
 10
259.8938617308
 20
154.630977131
 11
259.8938617308
 21
109.630977131
  0
LINE
  5
234
100
AcDbEntity
  8
0
100
AcDbLine
 62
7
  6
CONTINUOUS
 10
259.8938617308
 20
64.630977131
 11
259.8938617308
 21
109.630977131
  0
INSERT
  5
235
100
AcDbEntity
  8
0
100
AcDbBlockReference
 62
7
  6
CONTINUOUS
  2
_FILLED
 10
259.8938617308
 20
154.630977131
 41
3.0
 42
3.0
 43
3.0
 50
90.0
  0
INSERT
  5
236
100
AcDbEntity
  8
0
100
AcDbBlockReference
 62
7
  6
CONTINUOUS
  2
_FILLED
 10
259.8938617308
 20
64.630977131
 41
3.0
 42
3.0
 43
3.0
 50
270.0
  0
ENDBLK
  5
237
100
AcDbEntity
  8
0
  6
BYBLOCK
 62
0
100
AcDbBlockEnd
  0
ENDSEC
  0
SECTION
  2
ENTITIES
  0
DIMENSION
  5
238
100
AcDbEntity
  8
0
100
AcDbDimension
 62
7
  6
CONTINUOUS
  2
*D0
 10
97.5020815785
 20
172.4034103735
 11
83.8416839073
 21
174.6534103668
 70
160
 71
3
 42
8.5681116345
  3
DIMSTYLE_1
100
AcDbAlignedDimension
 13
106.0701932462
 23
152.6935072683
 14
97.5020816832
 24
110.1309763748
 50
180.0000000963
100
AcDbRotatedDimension
  0
DIMENSION
  5
239
100
AcDbEntity
  8
0
100
AcDbDimension
 62
7
  6
CONTINUOUS
  2
*D1
 10
245.8826715177
 20
172.630977131
 11
181.6683858034
 21
174.880977131
 70
160
 71
2
 42
122.0
  3
DIMSTYLE_2
100
AcDbAlignedDimension
 13
123.8826715177
 23
153.5309772703
 14
245.8826715177
 24
153.530977131
 50
360.0
100
AcDbRotatedDimension
  0
DIMENSION
  5
23A
100
AcDbEntity
  8
0
100
AcDbDimension
 62
7
  6
CONTINUOUS
  2
*D2
 10
259.8938617308
 20
64.630977131
 11
258.7000352545
 21
107.5236992811
 70
160
 71
2
 42
90.0
  3
DIMSTYLE_2
100
AcDbAlignedDimension
 13
244.7826715177
 23
154.630977131
 14
244.7826715177
 24
64.630977131
 50
270.0
100
AcDbRotatedDimension
  0
LWPOLYLINE
  5
23B
100
AcDbEntity
  8
0
100
AcDbPolyline
 62
253
  6
CONTINUOUS
 90
25
 70
0
 10
124.0173556842
 20
153.030977128
 10
124.0269457062
 20
153.0449193338
 10
124.0414342747
 20
153.058723704
 10
124.0607661695
 20
153.0723376193
 10
124.0848677113
 20
153.0857091862
 10
124.1136470421
 20
153.0987874354
 10
124.1469944759
 20
153.1115225154
 10
124.184782916
 20
153.1238658827
 10
124.2268683397
 20
153.1357704872
 10
124.2730903477
 20
153.1471909511
 10
124.3232727746
 20
153.1580837422
 10
124.3772243608
 20
153.1684073394
 10
124.4347394815
 20
153.1781223916
 10
124.4955989301
 20
153.1871918672
 10
124.5595707539
 20
153.1955811955
 10
124.626411138
 20
153.2032583981
 10
124.6958653346
 20
153.2101942116
 10
124.767668634
 20
153.2163621982
 10
124.8415473733
 20
153.2217388471
 10
124.9172199796
 20
153.2263036639
 10
124.9943980429
 20
153.2300392488
 10
125.0727874156
 20
153.2329313629
 10
125.1520893335
 20
153.2349689823
 10
125.2320015543
 20
153.2361443404
 10
125.3122195098
 20
153.2364529574
  0
LWPOLYLINE
  5
23C
100
AcDbEntity
  8
0
100
AcDbPolyline
 62
253
  6
CONTINUOUS
 90
25
 70
0
 10
124.0173262252
 20
66.23308654
 10
124.0268982355
 20
66.219129315
 10
124.0413706389
 20
66.2053028661
 10
124.0606882584
 20
66.1916599078
 10
124.0847774438
 20
66.1782524549
 10
124.1135463534
 20
66.1651316243
 10
124.1468853034
 20
66.1523474404
 10
124.1846671864
 20
66.1399486439
 10
124.2267479561
 20
66.1279825061
 10
124.2729671762
 20
66.1164946489
 10
124.3231486323
 20
66.1055288708
 10
124.3771010037
 20
66.0951269795
 10
124.4346185927
 20
66.0853286333
 10
124.495482109
 20
66.076171189
 10
124.5594595058
 20
66.0676895601
 10
124.626306864
 20
66.0599160836
 10
124.6957693231
 20
66.0528803965
 10
124.7675820518
 20
66.0466093228
 10
124.8414712585
 20
66.0411267717
 10
124.9171552349
 20
66.0364536457
 10
124.9943454298
 20
66.0326077616
 10
125.0727475495
 20
66.029603782
 10
125.1520626799
 20
66.0274531601
 10
125.2319884258
 20
66.026164095
 10
125.312220064
 20
66.0257415017
  0
LWPOLYLINE
  5
23D
100
AcDbEntity
  8
0
100
AcDbPolyline
 62
7
  6
CONTINUOUS
 90
28
 70
0
 10
123.8826715177
 20
66.230977131
 10
123.8854355906
 20
66.1370182937
 10
123.893705276
 20
66.0434142879
 10
123.9074464252
 20
65.9504883422
 10
123.926631714
 20
65.8584784247
 10
123.9512076147
 20
65.7677142917
 10
123.9810360641
 20
65.6786659474
 10
124.015865254
 20
65.5918672033
 10
124.055550267
 20
65.5075403796
 10
124.1001089909
 20
65.4256430715
 10
124.1495832685
 20
65.3461862528
 10
124.2037441348
 20
65.2695868691
 10
124.2621227862
 20
65.1964517417
 10
124.3242704973
 20
65.1272743416
 10
124.3901008707
 20
65.0620746229
 10
124.4596760995
 20
65.0007516094
 10
124.5329736251
 20
64.9433370247
 10
124.6095225523
 20
64.8902296122
 10
124.6886938132
 20
64.8418620365
 10
124.7700900244
 20
64.7984071301
 10
124.8537395094
 20
64.7597801639
 10
124.9396503784
 20
64.7259564138
 10
125.0275770549
 20
64.6970646534
 10
125.1170163446
 20
64.6733155289
 10
125.2075440486
 20
64.6548073448
 10
125.2988411273
 20
64.641574921
 10
125.390655679
 20
64.633628154
 10
125.4826715177
 20
64.630977131
  0
LINE
  5
23E
100
AcDbEntity
  8
0
100
AcDbLine
 62
7
  6
CONTINUOUS
 10
123.8826715177
 20
153.0309772703
 11
123.8826715177
 21
66.230977131
  0
LINE
  5
23F
100
AcDbEntity
  8
0
100
AcDbLine
 62
253
  6
CONTINUOUS
 10
124.0173262247
 20
66.2330867999
 11
124.0150787259
 21
109.6309771528
  0
LINE
  5
240
100
AcDbEntity
  8
0
100
AcDbLine
 62
253
  6
CONTINUOUS
 10
124.0150787259
 20
109.6309771528
 11
124.0173266116
 21
153.030945666
  0
LWPOLYLINE
  5
241
100
AcDbEntity
  8
0
100
AcDbPolyline
 62
253
  6
CONTINUOUS
 90
46
 70
0
 10
125.3122208801
 20
153.2364693261
 10
125.312581543
 20
153.2461638591
 10
125.313363976
 20
153.255509789
 10
125.3145681791
 20
153.2645071263
 10
125.3162311953
 20
153.2731446323
 10
125.3183159816
 20
153.2814335657
 10
125.3207114097
 20
153.2894076814
 10
125.3234429676
 20
153.2971338311
 10
125.3264851672
 20
153.3045451778
 10
125.3296504158
 20
153.3114749466
 10
125.3328707679
 20
153.3177914776
 10
125.3362141691
 20
153.3236264531
 10
125.3396968636
 20
153.3292081105
 10
125.3433938145
 20
153.3346600248
 10
125.3472300589
 20
153.3398586285
 10
125.3509969523
 20
153.344661443
 10
125.354596249
 20
153.3489591301
 10
125.3581261948
 20
153.3528610408
 10
125.3616728825
 20
153.3565527292
 10
125.3652338381
 20
153.3600570792
 10
125.3688115356
 20
153.3633512116
 10
125.37249949
 20
153.3665520329
 10
125.3763527554
 20
153.3697143274
 10
125.3803162777
 20
153.3727833124
 10
125.3843184103
 20
153.3757115437
 10
125.3883314406
 20
153.3784800348
 10
125.3923830811
 20
153.3811077749
 10
125.396484822
 20
153.3836042837
 10
125.4006194133
 20
153.3859628834
 10
125.4048041051
 20
153.388190254
 10
125.4091021377
 20
153.3903159511
 10
125.4135625787
 20
153.3923607934
 10
125.4181363606
 20
153.3943039637
 10
125.4227395208
 20
153.3961125632
 10
125.4273353243
 20
153.3977755488
 10
125.4319605061
 20
153.3993039654
 10
125.4366413083
 20
153.4006980465
 10
125.4413681461
 20
153.4019571228
 10
125.4461506043
 20
153.4030818649
 10
125.4510436791
 20
153.4040745167
 10
125.4560717599
 20
153.4049440044
 10
125.4612104573
 20
153.4056814027
 10
125.466441599
 20
153.4062621782
 10
125.4717591275
 20
153.4066781533
 10
125.4771691005
 20
153.4069375061
 10
125.4826715177
 20
153.4070402368
  0
LWPOLYLINE
  5
242
100
AcDbEntity
  8
0
100
AcDbPolyline
 62
253
  6
CONTINUOUS
 90
46
 70
0
 10
124.0173550236
 20
153.0309456601
 10
124.0210247544
 20
153.1143573995
 10
124.0291260635
 20
153.1950370703
 10
124.0412413825
 20
153.27278403
 10
124.0569640737
 20
153.3474430719
 10
124.0758950918
 20
153.4189095339
 10
124.0976487946
 20
153.4871136811
 10
124.1218235514
 20
153.5519678303
 10
124.1480232509
 20
153.613402348
 10
124.1758840427
 20
153.6714001977
 10
124.2050920793
 20
153.7260273402
 10
124.2353469615
 20
153.7773534252
 10
124.266344633
 20
153.8254301829
 10
124.2977100102
 20
153.8702197297
 10
124.3292316579
 20
153.9119228967
 10
124.3609130693
 20
153.9509379976
 10
124.3924786908
 20
153.9872567971
 10
124.4238015702
 20
154.0210364168
 10
124.4552357068
 20
154.0528850517
 10
124.4866838852
 20
154.0828739458
 10
124.5180659098
 20
154.1110890532
 10
124.5498598457
 20
154.1380675694
 10
124.5820432981
 20
154.1638500665
 10
124.6145256638
 20
154.1884206551
 10
124.6477530942
 20
154.2121385814
 10
124.6818869619
 20
154.235094909
 10
124.7167132821
 20
154.2571221075
 10
124.7521531398
 20
154.2781629962
 10
124.7882257123
 20
154.2982236512
 10
124.8248901543
 20
154.317275612
 10
124.8619788773
 20
154.3352370938
 10
124.8993687948
 20
154.3520658229
 10
124.9371301032
 20
154.3678104454
 10
124.9753764817
 20
154.3825226863
 10
125.0140401458
 20
154.3961721634
 10
125.0531062834
 20
154.4087490811
 10
125.0927800998
 20
154.4203019016
 10
125.1330376013
 20
154.4307953304
 10
125.1738493153
 20
154.4401984641
 10
125.2154245437
 20
154.4485272435
 10
125.2577181542
 20
154.4557266842
 10
125.3007283761
 20
154.4617501938
 10
125.3447324329
 20
154.4665782591
 10
125.3898008694
 20
154.4701384393
 10
125.4357947341
 20
154.4723348122
 10
125.4826720094
 20
154.4730832333
  0
LINE
  5
243
100
AcDbEntity
  8
0
100
AcDbLine
 62
253
  6
CONTINUOUS
 10
125.312220064
 20
66.0257415013
 11
125.3102393444
 21
90.8547696638
  0
LINE
  5
244
100
AcDbEntity
  8
0
100
AcDbLine
 62
253
  6
CONTINUOUS
 10
125.4826715177
 20
64.630977131
 11
125.4826715177
 21
65.8549140252
  0
LINE
  5
245
100
AcDbEntity
  8
0
100
AcDbLine
 62
253
  6
CONTINUOUS
 10
125.4826715177
 20
153.4070402368
 11
125.4826715177
 21
154.630977131
  0
LWPOLYLINE
  5
246
100
AcDbEntity
  8
0
100
AcDbPolyline
 62
253
  6
CONTINUOUS
 90
3
 70
0
 10
125.3102393444
 20
90.8547696638
 10
125.3103759393
 20
134.1283120003
 10
125.3122208801
 20
153.2364693261
  0
LWPOLYLINE
  5
247
100
AcDbEntity
  8
0
100
AcDbPolyline
 62
253
  6
CONTINUOUS
 90
15
 70
0
 10
124.0152499043
 20
132.1762409187
 10
124.0247304841
 20
132.1802480021
 10
124.0391208061
 20
132.1842178177
 10
124.0583659116
 20
132.1881352044
 10
124.0823923007
 20
132.191985201
 10
124.1111082132
 20
132.1957531039
 10
124.1444039786
 20
132.1994245228
 10
124.1821524357
 20
132.2029854361
 10
124.2242094174
 20
132.2064222442
 10
124.2704143019
 20
132.2097218213
 10
124.3205906261
 20
132.2128715658
 10
124.3745467592
 20
132.2158594485
 10
124.4320766346
 20
132.2186740582
 10
124.4929605374
 20
132.2213046454
 10
124.5569659431
 20
132.2237411636
  0
LWPOLYLINE
  5
248
100
AcDbEntity
  8
0
100
AcDbPolyline
 62
253
  6
CONTINUOUS
 90
15
 70
0
 10
124.0152475712
 20
132.1001637962
 10
124.024728006
 20
132.1041576107
 10
124.0391181979
 20
132.1081144081
 10
124.0583631885
 20
132.1120190768
 10
124.082389478
 20
132.1158567043
 10
124.1111053064
 20
132.119612634
 10
124.1444010033
 20
132.1232725215
 10
124.1821494073
 20
132.126822389
 10
124.2242063512
 20
132.1302486792
 10
124.2704112129
 20
132.1335383064
 10
124.3205875289
 20
132.136678707
 10
124.3745436678
 20
132.1396578874
 10
124.4320735626
 20
132.1424644695
 10
124.4929574976
 20
132.1450877347
 10
124.5569629475
 20
132.1475176642
  0
LWPOLYLINE
  5
249
100
AcDbEntity
  8
0
100
AcDbPolyline
 62
7
  6
CONTINUOUS
 90
28
 70
0
 10
244.2826715177
 20
64.630977131
 10
244.3746783756
 20
64.6336275498
 10
244.4664907445
 20
64.6415735559
 10
244.5577943021
 20
64.6548066182
 10
244.6483281218
 20
64.673315869
 10
244.7377737438
 20
64.6970669405
 10
244.8257190408
 20
64.7259666524
 10
244.9116499657
 20
64.7598004931
 10
244.9953050851
 20
64.7984327847
 10
245.0766995925
 20
64.8418905937
 10
245.1558724004
 20
64.8902633203
 10
245.2324206436
 20
64.9433744869
 10
245.3057085049
 20
65.0007861073
 10
245.3752748714
 20
65.0621052497
 10
245.44110011
 20
65.1273034749
 10
245.5032343773
 20
65.1964682428
 10
245.5615967819
 20
65.2695824606
 10
245.6157486813
 20
65.346168802
 10
245.6652205091
 20
65.4256212462
 10
245.7097793869
 20
65.5075154392
 10
245.7494661596
 20
65.5918401308
 10
245.7842984879
 20
65.6786411862
 10
245.8141279546
 20
65.7676889716
 10
245.8387041351
 20
65.8584526923
 10
245.8578934833
 20
65.9504749894
 10
245.8716384577
 20
66.0434168654
 10
245.8799081704
 20
66.1370235632
 10
245.8826715177
 20
66.230977131
  0
LINE
  5
24A
100
AcDbEntity
  8
0
100
AcDbLine
 62
7
  6
CONTINUOUS
 10
125.4826715177
 20
64.630977131
 11
244.2826715177
 21
64.630977131
  0
LINE
  5
24B
100
AcDbEntity
  8
0
100
AcDbLine
 62
253
  6
CONTINUOUS
 10
244.2826710259
 20
64.7888710283
 11
125.4826715177
 21
64.7888710283
  0
LINE
  5
24C
100
AcDbEntity
  8
0
100
AcDbLine
 62
253
  6
CONTINUOUS
 10
244.2826715177
 20
65.8549140252
 11
125.4826715177
 21
65.8549140252
  0
LWPOLYLINE
  5
24D
100
AcDbEntity
  8
0
100
AcDbPolyline
 62
253
  6
CONTINUOUS
 90
28
 70
0
 10
125.4826715177
 20
64.7888710283
 10
125.3984761769
 20
64.7912917195
 10
125.3145063939
 20
64.7985463618
 10
125.2310449464
 20
64.8106193697
 10
125.1483470518
 20
64.8274869852
 10
125.0666614267
 20
64.8491195248
 10
124.9862756991
 20
64.8754603222
 10
124.9075260631
 20
64.9063818823
 10
124.8307713156
 20
64.9417430738
 10
124.7562628449
 20
64.9814399483
 10
124.684121412
 20
65.0254066772
 10
124.614513975
 20
65.0735379958
 10
124.5477623534
 20
65.1256135446
 10
124.4841288059
 20
65.1814493823
 10
124.4237992459
 20
65.240920473
 10
124.3669687526
 20
65.3038648198
 10
124.3138278125
 20
65.3700355939
 10
124.2646168954
 20
65.4390978974
 10
124.2195954507
 20
65.5107199834
 10
124.1788662939
 20
65.5847076653
 10
124.1424823201
 20
65.6609138007
 10
124.1105372434
 20
65.73911624
 10
124.0831638893
 20
65.8189516858
 10
124.0604741385
 20
65.9000870057
 10
124.0425159754
 20
65.9823097721
 10
124.0293229174
 20
66.0653991465
 10
124.0209191605
 20
66.1490839211
 10
124.0173246325
 20
66.233086775
  0
LWPOLYLINE
  5
24E
100
AcDbEntity
  8
0
100
AcDbPolyline
 62
253
  6
CONTINUOUS
 90
28
 70
0
 10
125.4826715177
 20
65.8549140252
 10
125.4726733002
 20
65.8552084394
 10
125.4627736815
 20
65.8560778
 10
125.4529726615
 20
65.8575221086
 10
125.4432435039
 20
65.8595483174
 10
125.4336129452
 20
65.8621494807
 10
125.4241611939
 20
65.8653047541
 10
125.4148823928
 20
65.8690150889
 10
125.4057823992
 20
65.8732795461
 10
125.3969589942
 20
65.8780744472
 10
125.3883824665
 20
65.8834477758
 10
125.3800825275
 20
65.8893515663
 10
125.3722460922
 20
65.8956182145
 10
125.3649657081
 20
65.9021639994
 10
125.3581488278
 20
65.9090726558
 10
125.3517047238
 20
65.9164277621
 10
125.345549058
 20
65.9243225794
 10
125.3397661685
 20
65.9326638701
 10
125.3345183424
 20
65.9412554616
 10
125.3298553642
 20
65.9500699048
 10
125.3257274494
 20
65.9591346622
 10
125.3221475313
 20
65.9683359208
 10
125.3191192454
 20
65.9776520791
 10
125.3166389562
 20
65.9871047463
 10
125.3147086907
 20
65.9966449202
 10
125.3133291247
 20
66.0062562679
 10
125.3124995825
 20
66.0159551274
 10
125.312220064
 20
66.0257415013
  0
LWPOLYLINE
  5
24F
100
AcDbEntity
  8
0
100
AcDbPolyline
 62
253
  6
CONTINUOUS
 90
16
 70
0
 10
124.0152475717
 20
87.1617904658
 10
124.0247280068
 20
87.1577966513
 10
124.039118199
 20
87.1538398539
 10
124.0583631898
 20
87.1499351852
 10
124.0823894795
 20
87.1460975578
 10
124.1111053081
 20
87.1423416281
 10
124.1444010052
 20
87.1386817406
 10
124.1821494093
 20
87.135131873
 10
124.2242063532
 20
87.1317055829
 10
124.270411215
 20
87.1284159557
 10
124.320587531
 20
87.1252755551
 10
124.3745436699
 20
87.1222963748
 10
124.4320735646
 20
87.1194897926
 10
124.4929574996
 20
87.1168665275
 10
124.5569629494
 20
87.114436598
 10
124.693349618
 20
87.1101930933
  0
LWPOLYLINE
  5
250
100
AcDbEntity
  8
0
100
AcDbPolyline
 62
253
  6
CONTINUOUS
 90
17
 70
0
 10
124.015249904
 20
87.0857133432
 10
124.0247304835
 20
87.0817062599
 10
124.0391208053
 20
87.0777364442
 10
124.0583659106
 20
87.0738190575
 10
124.0823922996
 20
87.0699690609
 10
124.1111082119
 20
87.066201158
 10
124.1444039772
 20
87.062529739
 10
124.1821524342
 20
87.0589688257
 10
124.2242094158
 20
87.0555320177
 10
124.2704143003
 20
87.0522324406
 10
124.3205906245
 20
87.049082696
 10
124.3745467575
 20
87.0460948133
 10
124.432076633
 20
87.0432802036
 10
124.4929605359
 20
87.0406496164
 10
124.5569659416
 20
87.0382130982
 10
124.623848404
 20
87.0359799544
 10
124.7652127509
 20
87.0321570958
  0
LINE
  5
251
100
AcDbEntity
  8
0
100
AcDbLine
 62
253
  6
CONTINUOUS
 10
124.0173262247
 20
66.2330867999
 11
123.8826715177
 21
66.230977131
  0
LINE
  5
252
100
AcDbEntity
  8
0
100
AcDbLine
 62
253
  6
CONTINUOUS
 10
245.7480164238
 20
66.231008596
 11
245.8826715177
 21
66.230977131
  0
LWPOLYLINE
  5
253
100
AcDbEntity
  8
0
100
AcDbPolyline
 62
253
  6
CONTINUOUS
 90
16
 70
0
 10
161.1867348268
 20
132.2357926895
 10
161.1626897623
 20
132.1726559883
 10
161.1409930787
 20
132.110903645
 10
161.1216447759
 20
132.0505356895
 10
161.1047998071
 20
131.9914829034
 10
161.0903032192
 20
131.9338145614
 10
161.0776901525
 20
131.8777384351
 10
161.0669481105
 20
131.8232983706
 10
161.0580895898
 20
131.7704505822
 10
161.0506872202
 20
131.7192713986
 10
161.0447217275
 20
131.6699121538
 10
161.0402123859
 20
131.6222215716
 10
161.0367896489
 20
131.5758220588
 10
161.034330334
 20
131.5305877615
 10
161.0329576236
 20
131.4866445719
 10
161.0326715177
 20
131.4439925087
  0
LWPOLYLINE
  5
254
100
AcDbEntity
  8
0
100
AcDbPolyline
 62
253
  6
CONTINUOUS
 90
25
 70
0
 10
161.1867348268
 20
87.0261615724
 10
161.2277183972
 20
86.9309570009
 10
161.2732844499
 20
86.8380286563
 10
161.3234329848
 20
86.7473763741
 10
161.3783103607
 20
86.6587123563
 10
161.4377702189
 20
86.5723240896
 10
161.5013734833
 20
86.4890742671
 10
161.5691710242
 20
86.40901303
 10
161.6411119714
 20
86.3320897836
 10
161.7166046377
 20
86.2590160014
 10
161.7956794089
 20
86.1898479239
 10
161.8783058994
 20
86.1245287971
 10
161.9638012643
 20
86.06360053
 10
162.0522024957
 20
86.0071089904
 10
162.1434726015
 20
85.9550078071
 10
162.2368177615
 20
85.9077004989
 10
162.3323355894
 20
85.8652337057
 10
162.4299284714
 20
85.8275603547
 10
162.5285097459
 20
85.7949433954
 10
162.6279360366
 20
85.7674882403
 10
162.7283507197
 20
85.7450891638
 10
162.8290972626
 20
85.7276924379
 10
162.9299568212
 20
85.7152801021
 10
163.0311482395
 20
85.7078699627
 10
163.1326715177
 20
85.7054619811
  0
LWPOLYLINE
  5
255
100
AcDbEntity
  8
0
100
AcDbPolyline
 62
253
  6
CONTINUOUS
 90
16
 70
0
 10
161.0326715177
 20
87.8179617532
 10
161.0330218852
 20
87.7733863156
 10
161.0345002019
 20
87.7277860905
 10
161.0371064679
 20
87.6811610935
 10
161.0407388825
 20
87.6336118432
 10
161.0454992463
 20
87.5850378525
 10
161.0516929609
 20
87.5351376339
 10
161.0592931137
 20
87.4838293799
 10
161.0683266173
 20
87.4311949442
 10
161.0791796113
 20
87.377178338
 10
161.0918528212
 20
87.3216787279
 10
161.1063455215
 20
87.2647970002
 10
161.1230416759
 20
87.206779742
 10
161.1420692721
 20
87.1477091627
 10
161.1633003224
 20
87.0875030981
 10
161.1867348268
 20
87.0261615724
  0
LINE
  5
256
100
AcDbEntity
  8
0
100
AcDbLine
 62
253
  6
CONTINUOUS
 10
161.0326715177
 20
131.4439925087
 11
161.0326715177
 21
87.8179617532
  0
LINE
  5
257
100
AcDbEntity
  8
0
100
AcDbLine
 62
7
  6
CONTINUOUS
 10
162.3326715177
 20
131.3809775076
 11
162.3326715177
 21
87.880976685
  0
LINE
  5
258
100
AcDbEntity
  8
0
100
AcDbLine
 62
253
  6
CONTINUOUS
 10
163.1326715177
 20
87.080977131
 11
163.1326715177
 21
85.7054619811
  0
LINE
  5
259
100
AcDbEntity
  8
0
100
AcDbLine
 62
253
  6
CONTINUOUS
 10
163.1326715177
 20
132.180977131
 11
163.1326715177
 21
133.5564922809
  0
LWPOLYLINE
  5
25A
100
AcDbEntity
  8
0
100
AcDbPolyline
 62
7
  6
CONTINUOUS
 90
25
 70
0
 10
188.20269032
 20
83.52016979
 10
188.2624437902
 20
83.5288746551
 10
188.3221582375
 20
83.5370733576
 10
188.3818336619
 20
83.5447658922
 10
188.4414318687
 20
83.5520039033
 10
188.5009910525
 20
83.5587357373
 10
188.5606257971
 20
83.5648064402
 10
188.620348265
 20
83.5702225993
 10
188.6801462936
 20
83.5749776178
 10
188.7400979789
 20
83.5788967647
 10
188.8002149178
 20
83.5819873106
 10
188.8604855134
 20
83.5842419774
 10
188.9209530707
 20
83.5854642113
 10
188.9816795388
 20
83.5856565305
 10
189.0426029687
 20
83.5848164149
 10
189.1035808189
 20
83.5827397546
 10
189.1646198864
 20
83.5794946409
 10
189.2257133743
 20
83.5750129908
 10
189.2866983503
 20
83.568886438
 10
189.3477087869
 20
83.5612038834
 10
189.4086107116
 20
83.5518764547
 10
189.4688392749
 20
83.5402291413
 10
189.5282061937
 20
83.5260369693
 10
189.5868997513
 20
83.5095249917
 10
189.6449199474
 20
83.4906932575
  0
LWPOLYLINE
  5
25B
100
AcDbEntity
  8
0
100
AcDbPolyline
 62
7
  6
CONTINUOUS
 90
31
 70
0
 10
189.0993521608
 20
82.3073490444
 10
189.123776598
 20
82.3081334414
 10
189.1480598311
 20
82.3096877439
 10
189.1722018604
 20
82.3120119537
 10
189.1962771614
 20
82.3150545202
 10
189.2202112585
 20
82.3188669996
 10
189.2437807246
 20
82.3236040554
 10
189.2669826226
 20
82.3292544071
 10
189.2898198896
 20
82.3358293485
 10
189.31207791
 20
82.3435174096
 10
189.3337964078
 20
82.3523292074
 10
189.3549356591
 20
82.3622541506
 10
189.3751618759
 20
82.3734489627
 10
189.3944370087
 20
82.3859685758
 10
189.412799107
 20
82.3997581004
 10
189.4300285316
 20
82.4148095327
 10
189.4460490873
 20
82.4312184818
 10
189.4609369693
 20
82.448889395
 10
189.4747011232
 20
82.4675275226
 10
189.4873341091
 20
82.4871270142
 10
189.4988433669
 20
82.5076937708
 10
189.5092601619
 20
82.528950656
 10
189.5185951152
 20
82.5508782874
 10
189.5268376057
 20
82.5734960874
 10
189.5339870356
 20
82.5965851131
 10
189.5400655939
 20
82.6201607732
 10
189.5450510917
 20
82.6442076885
 10
189.5488763639
 20
82.6684607187
 10
189.5515190221
 20
82.692831484
 10
189.5530014548
 20
82.7174083747
 10
189.5533236618
 20
82.7421913974
  0
LINE
  5
25C
100
AcDbEntity
  8
0
100
AcDbLine
 62
7
  6
CONTINUOUS
 10
180.2665645177
 20
80.753176131
 11
180.7815745177
 21
80.753176131
  0
LINE
  5
25D
100
AcDbEntity
  8
0
100
AcDbLine
 62
7
  6
CONTINUOUS
 10
181.8983865177
 20
80.753176131
 11
182.4827945177
 21
80.753176131
  0
LINE
  5
25E
100
AcDbEntity
  8
0
100
AcDbLine
 62
7
  6
CONTINUOUS
 10
182.7973995177
 20
80.753176131
 11
183.3564885177
 21
80.753176131
  0
LINE
  5
25F
100
AcDbEntity
  8
0
100
AcDbLine
 62
7
  6
CONTINUOUS
 10
184.1681845177
 20
80.753176131
 11
184.2501475177
 21
80.753176131
  0
LINE
  5
260
100
AcDbEntity
  8
0
100
AcDbLine
 62
7
  6
CONTINUOUS
 10
185.0650775177
 20
80.753176131
 11
185.6367835177
 21
80.753176131
  0
LINE
  5
261
100
AcDbEntity
  8
0
100
AcDbLine
 62
7
  6
CONTINUOUS
 10
185.7285515177
 20
80.753176131
 11
186.3066185177
 21
80.753176131
  0
LINE
  5
262
100
AcDbEntity
  8
0
100
AcDbLine
 62
7
  6
CONTINUOUS
 10
187.4151375177
 20
80.753176131
 11
188.0310795177
 21
80.753176131
  0
LINE
  5
263
100
AcDbEntity
  8
0
100
AcDbLine
 62
7
  6
CONTINUOUS
 10
188.20269032
 20
80.7531757766
 11
188.7847468625
 21
80.7531757766
  0
LINE
  5
264
100
AcDbEntity
  8
0
100
AcDbLine
 62
7
  6
CONTINUOUS
 10
189.6796871395
 20
80.7531757766
 11
190.2418197296
 21
80.7531757766
  0
LINE
  5
265
100
AcDbEntity
  8
0
100
AcDbLine
 62
7
  6
CONTINUOUS
 10
186.4678785177
 20
81.312096131
 11
187.2637455177
 21
81.312096131
  0
LINE
  5
266
100
AcDbEntity
  8
0
100
AcDbLine
 62
7
  6
CONTINUOUS
 10
186.5874225177
 20
81.744586131
 11
187.1469515177
 21
81.744586131
  0
LINE
  5
267
100
AcDbEntity
  8
0
100
AcDbLine
 62
7
  6
CONTINUOUS
 10
188.7847468625
 20
81.8488252062
 11
189.09809248
 21
81.8488252062
  0
LINE
  5
268
100
AcDbEntity
  8
0
100
AcDbLine
 62
7
  6
CONTINUOUS
 10
188.7653687718
 20
82.3073490444
 11
189.0993521608
 21
82.3073490444
  0
LINE
  5
269
100
AcDbEntity
  8
0
100
AcDbLine
 62
7
  6
CONTINUOUS
 10
179.3790035177
 20
83.552879131
 11
180.0138515177
 21
83.552879131
  0
LINE
  5
26A
100
AcDbEntity
  8
0
100
AcDbLine
 62
7
  6
CONTINUOUS
 10
181.0975025177
 20
83.552879131
 11
181.6815115177
 21
83.552879131
  0
LINE
  5
26B
100
AcDbEntity
  8
0
100
AcDbLine
 62
7
  6
CONTINUOUS
 10
183.0501965177
 20
83.552879131
 11
183.6341215177
 21
83.552879131
  0
LINE
  5
26C
100
AcDbEntity
  8
0
100
AcDbLine
 62
7
  6
CONTINUOUS
 10
184.7967655177
 20
83.552879131
 11
185.3749795177
 21
83.552879131
  0
LINE
  5
26D
100
AcDbEntity
  8
0
100
AcDbLine
 62
7
  6
CONTINUOUS
 10
186.6067165177
 20
83.552879131
 11
187.1720615177
 21
83.552879131
  0
LINE
  5
26E
100
AcDbEntity
  8
0
100
AcDbLine
 62
7
  6
CONTINUOUS
 10
181.8983865177
 20
83.553047131
 11
182.4827945177
 21
83.553047131
  0
LWPOLYLINE
  5
26F
100
AcDbEntity
  8
0
100
AcDbPolyline
 62
7
  6
CONTINUOUS
 90
10
 70
0
 10
189.2231849477
 20
83.092404882
 10
189.1745140035
 20
83.097323311
 10
189.1252341394
 20
83.1005699539
 10
189.0753453556
 20
83.1021448035
 10
189.0247682655
 20
83.1020687445
 10
188.9735822555
 20
83.1003208889
 10
188.9220254853
 20
83.0968385765
 10
188.8701773411
 20
83.0916009274
 10
188.8179584366
 20
83.0846288416
 10
188.7653687718
 20
83.075922335
  0
LWPOLYLINE
  5
270
100
AcDbEntity
  8
0
100
AcDbPolyline
 62
253
  6
CONTINUOUS
 90
16
 70
0
 10
162.3913640743
 20
87.5802110852
 10
162.3902285435
 20
87.5754273282
 10
162.3838148351
 20
87.5685210489
 10
162.372151078
 20
87.5595225362
 10
162.3552884263
 20
87.5484712552
 10
162.333300835
 20
87.5354156737
 10
162.3062847357
 20
87.52041305
 10
162.2743586139
 20
87.5035291815
 10
162.2376624888
 20
87.4848381162
 10
162.1963572998
 20
87.4644218281
 10
162.1506242002
 20
87.4423698574
 10
162.100663763
 20
87.418778918
 10
162.0466951013
 20
87.3937524735
 10
161.9889549069
 20
87.367400283
 10
161.9276964129
 20
87.3398379201
 10
161.8631882823
 20
87.3111862658
  0
LINE
  5
271
100
AcDbEntity
  8
0
100
AcDbLine
 62
253
  6
CONTINUOUS
 10
245.2083770928
 20
87.0382130983
 11
245.0719905453
 21
87.033958714
  0
LINE
  5
272
100
AcDbEntity
  8
0
100
AcDbLine
 62
253
  6
CONTINUOUS
 10
245.2083800878
 20
87.1144365978
 11
245.071993419
 21
87.1101930931
  0
LINE
  5
273
100
AcDbEntity
  8
0
100
AcDbLine
 62
253
  6
CONTINUOUS
 10
161.7549128239
 20
87.8285817593
 11
161.6076468182
 21
87.8244603564
  0
LWPOLYLINE
  5
274
100
AcDbEntity
  8
0
100
AcDbPolyline
 62
253
  6
CONTINUOUS
 90
25
 70
0
 10
206.6326715177
 20
85.7054619811
 10
206.734207674
 20
85.7078633459
 10
206.8354397752
 20
85.7152795213
 10
206.9363678214
 20
85.7277105459
 10
207.0372340891
 20
85.7451447352
 10
207.1377963016
 20
85.7675939287
 10
207.2373276297
 20
85.7950934906
 10
207.3359356046
 20
85.8277419597
 10
207.433512695
 20
85.8654411102
 10
207.5290094773
 20
85.9079311875
 10
207.6223399157
 20
85.955260568
 10
207.7135900459
 20
86.0073813083
 10
207.8019685515
 20
86.0638891752
 10
207.8874389472
 20
86.1248307079
 10
207.9700377182
 20
86.1901598702
 10
208.0490830037
 20
86.2593335334
 10
208.1245449446
 20
86.3324094374
 10
208.1964533999
 20
86.4093303551
 10
208.2642160859
 20
86.4893806349
 10
208.3277814362
 20
86.5726113675
 10
208.3872010172
 20
86.6589719141
 10
208.4420372434
 20
86.7475939122
 10
208.4921442532
 20
86.8381879843
 10
208.5376679082
 20
86.9310438167
 10
208.5786082085
 20
87.0261615724
  0
LINE
  5
275
100
AcDbEntity
  8
0
100
AcDbLine
 62
253
  6
CONTINUOUS
 10
245.0719905453
 20
87.033958714
 11
244.9261882906
 21
87.0305819812
  0
LINE
  5
276
100
AcDbEntity
  8
0
100
AcDbLine
 62
253
  6
CONTINUOUS
 10
245.071993419
 20
87.1101930931
 11
244.9261910056
 21
87.1068240429
  0
LINE
  5
277
100
AcDbEntity
  8
0
100
AcDbLine
 62
253
  6
CONTINUOUS
 10
161.6076468182
 20
87.8244603564
 11
161.4505428253
 21
87.8213059712
  0
LINE
  5
278
100
AcDbEntity
  8
0
100
AcDbLine
 62
253
  6
CONTINUOUS
 10
244.9261882906
 20
87.0305819812
 11
244.7731955631
 21
87.0281344356
  0
LINE
  5
279
100
AcDbEntity
  8
0
100
AcDbLine
 62
253
  6
CONTINUOUS
 10
244.9261910056
 20
87.1068240429
 11
244.7731980906
 21
87.1043808657
  0
LINE
  5
27A
100
AcDbEntity
  8
0
100
AcDbLine
 62
253
  6
CONTINUOUS
 10
161.4505428253
 20
87.8213059712
 11
161.2862889382
 21
87.819172576
  0
LINE
  5
27B
100
AcDbEntity
  8
0
100
AcDbLine
 62
253
  6
CONTINUOUS
 10
244.7731955631
 20
87.0281344356
 11
244.6153473384
 21
87.0266534317
  0
LINE
  5
27C
100
AcDbEntity
  8
0
100
AcDbLine
 62
253
  6
CONTINUOUS
 10
244.7731980906
 20
87.1043808657
 11
244.6153496586
 21
87.1029008495
  0
LWPOLYLINE
  5
27D
100
AcDbEntity
  8
0
100
AcDbPolyline
 62
253
  6
CONTINUOUS
 90
3
 70
0
 10
161.2862889382
 20
87.819172576
 10
161.1176955864
 20
87.818096674
 10
161.0326715177
 20
87.8179617532
  0
LINE
  5
27E
100
AcDbEntity
  8
0
100
AcDbLine
 62
253
  6
CONTINUOUS
 10
244.6153496586
 20
87.1029008495
 11
244.4550547994
 21
87.1024065824
  0
LINE
  5
27F
100
AcDbEntity
  8
0
100
AcDbLine
 62
253
  6
CONTINUOUS
 10
244.6153473384
 20
87.0266534317
 11
244.4550526964
 21
87.0261615726
  0
LINE
  5
280
100
AcDbEntity
  8
0
100
AcDbLine
 62
253
  6
CONTINUOUS
 10
163.1326715177
 20
85.7054619811
 11
206.6326715177
 21
85.7054619811
  0
LINE
  5
281
100
AcDbEntity
  8
0
100
AcDbLine
 62
253
  6
CONTINUOUS
 10
208.5786082085
 20
87.0261615724
 11
244.4550526967
 21
87.0261676381
  0
LINE
  5
282
100
AcDbEntity
  8
0
100
AcDbLine
 62
7
  6
CONTINUOUS
 10
163.1326715177
 20
87.080977131
 11
206.6326715177
 21
87.080977131
  0
LINE
  5
283
100
AcDbEntity
  8
0
100
AcDbLine
 62
253
  6
CONTINUOUS
 10
124.0152475712
 20
87.1617904658
 11
123.8826715177
 21
87.1617904658
  0
LINE
  5
284
100
AcDbEntity
  8
0
100
AcDbLine
 62
253
  6
CONTINUOUS
 10
245.7500954641
 20
87.1617904658
 11
245.8826715177
 21
87.1617904658
  0
LINE
  5
285
100
AcDbEntity
  8
0
100
AcDbLine
 62
253
  6
CONTINUOUS
 10
125.2299896778
 20
87.0262830334
 11
161.1867348268
 21
87.0261615724
  0
LINE
  5
286
100
AcDbEntity
  8
0
100
AcDbLine
 62
253
  6
CONTINUOUS
 10
125.1499933772
 20
87.1029008498
 11
125.310288236
 21
87.1024065827
  0
LINE
  5
287
100
AcDbEntity
  8
0
100
AcDbLine
 62
253
  6
CONTINUOUS
 10
208.5629874673
 20
87.8185008585
 11
208.7326715177
 21
87.8179617532
  0
LINE
  5
288
100
AcDbEntity
  8
0
100
AcDbLine
 62
253
  6
CONTINUOUS
 10
125.0706139044
 20
87.0272713522
 11
125.2299896778
 21
87.0262830334
  0
LINE
  5
289
100
AcDbEntity
  8
0
100
AcDbLine
 62
253
  6
CONTINUOUS
 10
124.9921449456
 20
87.104380866
 11
125.1499933772
 21
87.1029008498
  0
LINE
  5
28A
100
AcDbEntity
  8
0
100
AcDbLine
 62
253
  6
CONTINUOUS
 10
208.3962067581
 20
87.8201089502
 11
208.5629874673
 21
87.8185008585
  0
LINE
  5
28B
100
AcDbEntity
  8
0
100
AcDbLine
 62
253
  6
CONTINUOUS
 10
124.9148960735
 20
87.029239385
 11
125.0706139044
 21
87.0272713522
  0
LINE
  5
28C
100
AcDbEntity
  8
0
100
AcDbLine
 62
253
  6
CONTINUOUS
 10
124.839152031
 20
87.1068240431
 11
124.9921449456
 21
87.104380866
  0
LINE
  5
28D
100
AcDbEntity
  8
0
100
AcDbLine
 62
253
  6
CONTINUOUS
 10
208.2351830543
 20
87.8227585133
 11
208.3962067581
 21
87.8201089502
  0
LINE
  5
28E
100
AcDbEntity
  8
0
100
AcDbLine
 62
253
  6
CONTINUOUS
 10
124.7652127509
 20
87.0321570958
 11
124.9148960735
 21
87.029239385
  0
LINE
  5
28F
100
AcDbEntity
  8
0
100
AcDbLine
 62
253
  6
CONTINUOUS
 10
124.693349618
 20
87.1101930933
 11
124.839152031
 21
87.1068240431
  0
LWPOLYLINE
  5
290
100
AcDbEntity
  8
0
100
AcDbPolyline
 62
7
  6
CONTINUOUS
 90
48
 70
0
 10
189.6449199474
 20
83.4906932575
 10
189.6761549702
 20
83.4780596067
 10
189.7076022328
 20
83.4627639154
 10
189.739261735
 20
83.4448062361
 10
189.7712788594
 20
83.4242900335
 10
189.8035082236
 20
83.4011119731
 10
189.8355136801
 20
83.3749619309
 10
189.8675397381
 20
83.3457697504
 10
189.8993418884
 20
83.3136058036
 10
189.9297504559
 20
83.2783707912
 10
189.9588466992
 20
83.2396223135
 10
189.9865493596
 20
83.1978030837
 10
190.0114449866
 20
83.1541414288
 10
190.0331982349
 20
83.1083803771
 10
190.0521444497
 20
83.0607771334
 10
190.0678762163
 20
83.013331106
 10
190.0799883637
 20
82.9662860095
 10
190.0888860629
 20
82.9193981069
 10
190.0953774119
 20
82.8739354251
 10
190.0994899042
 20
82.8302591649
 10
190.1011960464
 20
82.7880079467
 10
190.1012214559
 20
82.7473658396
 10
190.0996690425
 20
82.708431987
 10
190.0964358965
 20
82.6711070725
 10
190.0919389065
 20
82.6352774762
 10
190.0861979636
 20
82.6009301227
 10
190.0791931768
 20
82.5680779472
 10
190.0712817615
 20
82.5366463578
 10
190.0624793285
 20
82.5066474521
 10
190.0527702669
 20
82.4780690138
 10
190.0424649606
 20
82.4507999918
 10
190.0315907647
 20
82.4248423075
 10
190.0201203241
 20
82.4001939439
 10
190.0082819561
 20
82.3767379538
 10
189.9961043468
 20
82.3544782766
 10
189.9835588102
 20
82.3334108975
 10
189.970787606
 20
82.3134069488
 10
189.9577881801
 20
82.2944572973
 10
189.9445630865
 20
82.2765710188
 10
189.9312622476
 20
82.2596465679
 10
189.9178825048
 20
82.2437191849
 10
189.9044270167
 20
82.2287535847
 10
189.8910551806
 20
82.2145424434
 10
189.8777772363
 20
82.2010743735
 10
189.8645829441
 20
82.1883607333
 10
189.8516009821
 20
82.1762283253
 10
189.8388574696
 20
82.1646662822
 10
189.8263262873
 20
82.1536854522
  0
LWPOLYLINE
  5
291
100
AcDbEntity
  8
0
100
AcDbPolyline
 62
7
  6
CONTINUOUS
 90
3
 70
0
 10
189.7051746826
 20
82.0600526941
 10
189.7327933683
 20
82.0468191742
 10
189.7585868165
 20
82.0321584235
  0
LWPOLYLINE
  5
292
100
AcDbEntity
  8
0
100
AcDbPolyline
 62
7
  6
CONTINUOUS
 90
22
 70
0
 10
189.7585868165
 20
82.0321584235
 10
189.7825550272
 20
82.0160704724
 10
189.8045806309
 20
81.9982893634
 10
189.8247809972
 20
81.979081128
 10
189.8435082346
 20
81.9592437624
 10
189.8607387113
 20
81.93893178
 10
189.8764960591
 20
81.9179907013
 10
189.8912032823
 20
81.8967550026
 10
189.9049184617
 20
81.8752603159
 10
189.9175835165
 20
81.8534710273
 10
189.9294472077
 20
81.8316147274
 10
189.9405370229
 20
81.8097114902
 10
189.9508254746
 20
81.7877412464
 10
189.9604788612
 20
81.7658713589
 10
189.9695028428
 20
81.7441455139
 10
189.9778917594
 20
81.7225200187
 10
189.9857949295
 20
81.7010311618
 10
189.9932049416
 20
81.6797180898
 10
190.0001292073
 20
81.6585416474
 10
190.0067392796
 20
81.6374206721
 10
190.0130217527
 20
81.6163584981
 10
190.0189900325
 20
81.5953517885
  0
LWPOLYLINE
  5
293
100
AcDbEntity
  8
0
100
AcDbPolyline
 62
253
  6
CONTINUOUS
 90
18
 70
0
 10
162.3913627321
 20
131.6817437215
 10
162.3902272108
 20
131.6865274838
 10
162.3838135216
 20
131.6934337646
 10
162.372149793
 20
131.7024322749
 10
162.3552871788
 20
131.71348355
 10
162.3332996335
 20
131.7265391219
 10
162.3062835884
 20
131.7415417328
 10
162.2743575279
 20
131.7584255855
 10
162.2376614707
 20
131.7771166322
 10
162.1963563552
 20
131.7975328994
 10
162.1506233338
 20
131.8195848472
 10
162.1006629784
 20
131.843175762
 10
162.0466944007
 20
131.8682021809
 10
161.9889542917
 20
131.8945543452
 10
161.9276958828
 20
131.9221166817
 10
161.8631878358
 20
131.95076831
 10
161.7957130647
 20
131.9803835723
 10
161.6530587632
 20
132.041981806
  0
LINE
  5
294
100
AcDbEntity
  8
0
100
AcDbLine
 62
253
  6
CONTINUOUS
 10
207.9021547525
 20
131.9507679797
 11
208.0397752521
 21
132.0108323021
  0
LINE
  5
295
100
AcDbEntity
  8
0
100
AcDbLine
 62
253
  6
CONTINUOUS
 10
208.0397752521
 20
132.0108323021
 11
208.186838007
 21
132.0736943825
  0
LINE
  5
296
100
AcDbEntity
  8
0
100
AcDbLine
 62
253
  6
CONTINUOUS
 10
208.186838007
 20
132.0736943825
 11
208.3407659358
 21
132.138252646
  0
LWPOLYLINE
  5
297
100
AcDbEntity
  8
0
100
AcDbPolyline
 62
253
  6
CONTINUOUS
 90
3
 70
0
 10
208.3407659358
 20
132.138252646
 10
208.498861654
 20
132.2033757941
 10
208.5786082086
 20
132.2357924152
  0
LINE
  5
298
100
AcDbEntity
  8
0
100
AcDbLine
 62
253
  6
CONTINUOUS
 10
208.4194648474
 20
87.09113913
 11
208.5786082085
 21
87.0261616517
  0
LINE
  5
299
100
AcDbEntity
  8
0
100
AcDbLine
 62
253
  6
CONTINUOUS
 10
208.2631102315
 20
87.1561223166
 11
208.4194648474
 21
87.09113913
  0
LINE
  5
29A
100
AcDbEntity
  8
0
100
AcDbLine
 62
253
  6
CONTINUOUS
 10
208.1122842602
 20
87.2199724708
 11
208.2631102315
 21
87.1561223166
  0
LINE
  5
29B
100
AcDbEntity
  8
0
100
AcDbLine
 62
7
  6
CONTINUOUS
 10
183.4826035177
 20
82.581330131
 11
184.1681845177
 21
80.753176131
  0
LINE
  5
29C
100
AcDbEntity
  8
0
100
AcDbLine
 62
7
  6
CONTINUOUS
 10
183.6341215177
 20
83.552879131
 11
184.2123575177
 21
81.998475131
  0
LINE
  5
29D
100
AcDbEntity
  8
0
100
AcDbLine
 62
7
  6
CONTINUOUS
 10
179.3790035177
 20
83.552879131
 11
180.2665645177
 21
80.753176131
  0
LINE
  5
29E
100
AcDbEntity
  8
0
100
AcDbLine
 62
7
  6
CONTINUOUS
 10
180.0138515177
 20
83.552879131
 11
180.5475255177
 21
81.625757131
  0
LINE
  5
29F
100
AcDbEntity
  8
0
100
AcDbLine
 62
7
  6
CONTINUOUS
 10
181.8983865177
 20
83.553047131
 11
181.8983865177
 21
80.753176131
  0
LINE
  5
2A0
100
AcDbEntity
  8
0
100
AcDbLine
 62
7
  6
CONTINUOUS
 10
182.4827945177
 20
83.553047131
 11
182.4827945177
 21
80.753176131
  0
LWPOLYLINE
  5
2A1
100
AcDbEntity
  8
0
100
AcDbPolyline
 62
253
  6
CONTINUOUS
 90
16
 70
0
 10
162.3326715177
 20
87.880977131
 10
162.3298881179
 20
87.8768557281
 10
162.3215498376
 20
87.8727519737
 10
162.3076923825
 20
87.8686834407
 10
162.2883750924
 20
87.8646675511
 10
162.2636806868
 20
87.8607215017
 10
162.233714911
 20
87.85686219
 10
162.1986060831
 20
87.8531061422
 10
162.1585045443
 20
87.8494694422
 10
162.1135820157
 20
87.845967663
 10
162.0640308624
 20
87.8426157997
 10
162.0100632701
 20
87.8394282055
 10
161.9519103361
 20
87.8364185301
 10
161.8898210804
 20
87.8335996616
 10
161.8240613786
 20
87.8309836706
 10
161.7549128239
 20
87.8285817593
  0
LWPOLYLINE
  5
2A2
100
AcDbEntity
  8
0
100
AcDbPolyline
 62
253
  6
CONTINUOUS
 90
18
 70
0
 10
162.3326715177
 20
131.380977131
 10
162.3298881179
 20
131.3850985339
 10
162.3215498376
 20
131.3892022882
 10
162.3076923824
 20
131.3932708213
 10
162.2883750922
 20
131.3972867108
 10
162.2636806865
 20
131.4012327602
 10
162.2337149106
 20
131.4050920719
 10
162.1986060825
 20
131.4088481198
 10
162.1585045436
 20
131.4124848198
 10
162.1135820149
 20
131.415986599
 10
162.0640308614
 20
131.4193384623
 10
162.0100632689
 20
131.4225260565
 10
161.9519103348
 20
131.4255357318
 10
161.8898210789
 20
131.4283546004
 10
161.824061377
 20
131.4309705914
 10
161.7549128222
 20
131.4333725026
 10
161.6826715192
 20
131.4355500489
 10
161.530159981
 20
131.4391957487
  0
LWPOLYLINE
  5
2A3
100
AcDbEntity
  8
0
100
AcDbPolyline
 62
7
  6
CONTINUOUS
 90
19
 70
0
 10
189.424073578
 20
81.6023141826
 10
189.4146583037
 20
81.6254051971
 10
189.4040797249
 20
81.6477676774
 10
189.3923378417
 20
81.6694015988
 10
189.3794036198
 20
81.690415292
 10
189.3653060935
 20
81.7107003821
 10
189.3501323654
 20
81.7299317787
 10
189.3338955319
 20
81.748125557
 10
189.3165824967
 20
81.7652655837
 10
189.2982410735
 20
81.7809784389
 10
189.2787948446
 20
81.7952503566
 10
189.2583202278
 20
81.8080950398
 10
189.2370942901
 20
81.8191802602
 10
189.2150768902
 20
81.8283675506
 10
189.1923081695
 20
81.8357953248
 10
189.169185619
 20
81.841546678
 10
189.1458417358
 20
81.845649301
 10
189.1221440228
 20
81.848075479
 10
189.09809248
 20
81.8488252062
  0
LINE
  5
2A4
100
AcDbEntity
  8
0
100
AcDbLine
 62
7
  6
CONTINUOUS
 10
187.1720615177
 20
83.552879131
 11
188.0310795177
 21
80.753176131
  0
LWPOLYLINE
  5
2A5
100
AcDbEntity
  8
0
100
AcDbPolyline
 62
7
  6
CONTINUOUS
 90
8
 70
0
 10
189.5136328788
 20
81.3275387908
 10
189.5019486942
 20
81.3671024407
 10
189.4900080686
 20
81.4065582065
 10
189.4778107736
 20
81.4459010336
 10
189.4651403254
 20
81.4851464944
 10
189.4519245628
 20
81.5242997749
 10
189.438235647
 20
81.5633556736
 10
189.424073578
 20
81.6023141826
  0
LINE
  5
2A6
100
AcDbEntity
  8
0
100
AcDbLine
 62
7
  6
CONTINUOUS
 10
189.6796871395
 20
80.7531757766
 11
189.5822242691
 21
81.0872335383
  0
LWPOLYLINE
  5
2A7
100
AcDbEntity
  8
0
100
AcDbPolyline
 62
7
  6
CONTINUOUS
 90
4
 70
0
 10
189.5822242691
 20
81.0872335383
 10
189.5591246232
 20
81.1679775323
 10
189.5478062662
 20
81.2080815797
 10
189.5136328788
 20
81.3275387908
  0
LWPOLYLINE
  5
2A8
100
AcDbEntity
  8
0
100
AcDbPolyline
 62
7
  6
CONTINUOUS
 90
3
 70
0
 10
190.0189900325
 20
81.5953517885
 10
190.0306899126
 20
81.5532008829
 10
190.0364215128
 20
81.5320566905
  0
LINE
  5
2A9
100
AcDbEntity
  8
0
100
AcDbLine
 62
7
  6
CONTINUOUS
 10
187.2637455177
 20
81.312096131
 11
187.4151375177
 21
80.753176131
  0
LINE
  5
2AA
100
AcDbEntity
  8
0
100
AcDbLine
 62
7
  6
CONTINUOUS
 10
186.8784085177
 20
82.783592131
 11
187.1469515177
 21
81.744586131
  0
LINE
  5
2AB
100
AcDbEntity
  8
0
100
AcDbLine
 62
7
  6
CONTINUOUS
 10
185.3749795177
 20
83.552879131
 11
185.6367835177
 21
80.753176131
  0
LINE
  5
2AC
100
AcDbEntity
  8
0
100
AcDbLine
 62
7
  6
CONTINUOUS
 10
184.9450085177
 20
82.573708131
 11
185.0650775177
 21
80.753176131
  0
LWPOLYLINE
  5
2AD
100
AcDbEntity
  8
0
100
AcDbPolyline
 62
7
  6
CONTINUOUS
 90
19
 70
0
 10
189.5533236618
 20
82.7421913974
 10
189.5518568655
 20
82.7692706757
 10
189.5482402059
 20
82.7961978393
 10
189.5424736829
 20
82.8229728818
 10
189.5346154727
 20
82.8497623142
 10
189.5246073992
 20
82.8763996173
 10
189.5122749335
 20
82.9023852214
 10
189.4974902209
 20
82.927905831
 10
189.4803811162
 20
82.9527746997
 10
189.4611566553
 20
82.9759320294
 10
189.4395913229
 20
82.997176212
 10
189.4159106343
 20
83.0167087495
 10
189.3910001716
 20
83.0340744673
 10
189.3649439569
 20
83.0491011616
 10
189.337657968
 20
83.0619609402
 10
189.3097757211
 20
83.0727150956
 10
189.2815083881
 20
83.0813840411
 10
189.2526447969
 20
83.0879473093
 10
189.2231849477
 20
83.092404882
  0
LINE
  5
2AE
100
AcDbEntity
  8
0
100
AcDbLine
 62
7
  6
CONTINUOUS
 10
188.20269032
 20
83.52016979
 11
188.20269032
 21
80.7531757766
  0
LINE
  5
2AF
100
AcDbEntity
  8
0
100
AcDbLine
 62
7
  6
CONTINUOUS
 10
188.7653687718
 20
83.075922335
 11
188.7653687718
 21
82.3073490444
  0
LINE
  5
2B0
100
AcDbEntity
  8
0
100
AcDbLine
 62
7
  6
CONTINUOUS
 10
188.7847468625
 20
81.8488252062
 11
188.7847468625
 21
80.7531757766
  0
LINE
  5
2B1
100
AcDbEntity
  8
0
100
AcDbLine
 62
7
  6
CONTINUOUS
 10
183.4826035177
 20
82.581330131
 11
183.3564885177
 21
80.753176131
  0
LINE
  5
2B2
100
AcDbEntity
  8
0
100
AcDbLine
 62
7
  6
CONTINUOUS
 10
183.0501965177
 20
83.552879131
 11
182.7973995177
 21
80.753176131
  0
LINE
  5
2B3
100
AcDbEntity
  8
0
100
AcDbLine
 62
7
  6
CONTINUOUS
 10
181.0975025177
 20
83.552879131
 11
180.5475255177
 21
81.625757131
  0
LINE
  5
2B4
100
AcDbEntity
  8
0
100
AcDbLine
 62
7
  6
CONTINUOUS
 10
190.0364215128
 20
81.5320566905
 11
190.1116159905
 21
81.2500660709
  0
LINE
  5
2B5
100
AcDbEntity
  8
0
100
AcDbLine
 62
7
  6
CONTINUOUS
 10
190.1116159905
 20
81.2500660709
 11
190.2418197296
 21
80.7531757766
  0
LINE
  5
2B6
100
AcDbEntity
  8
0
100
AcDbLine
 62
7
  6
CONTINUOUS
 10
189.5533236543
 20
82.7421912726
 11
189.5533219177
 21
82.7423065539
  0
LINE
  5
2B7
100
AcDbEntity
  8
0
100
AcDbLine
 62
7
  6
CONTINUOUS
 10
189.7051746826
 20
82.0765965029
 11
189.7051746826
 21
82.0600526941
  0
LINE
  5
2B8
100
AcDbEntity
  8
0
100
AcDbLine
 62
7
  6
CONTINUOUS
 10
186.8784085177
 20
82.783592131
 11
186.5874225177
 21
81.744586131
  0
LINE
  5
2B9
100
AcDbEntity
  8
0
100
AcDbLine
 62
7
  6
CONTINUOUS
 10
186.4678785177
 20
81.312096131
 11
186.3066185177
 21
80.753176131
  0
LINE
  5
2BA
100
AcDbEntity
  8
0
100
AcDbLine
 62
7
  6
CONTINUOUS
 10
186.6067165177
 20
83.552879131
 11
185.7285515177
 21
80.753176131
  0
LINE
  5
2BB
100
AcDbEntity
  8
0
100
AcDbLine
 62
7
  6
CONTINUOUS
 10
181.6815115177
 20
83.552879131
 11
180.7815745177
 21
80.753176131
  0
LINE
  5
2BC
100
AcDbEntity
  8
0
100
AcDbLine
 62
7
  6
CONTINUOUS
 10
184.7967655177
 20
83.552879131
 11
184.2123575177
 21
81.998475131
  0
LINE
  5
2BD
100
AcDbEntity
  8
0
100
AcDbLine
 62
7
  6
CONTINUOUS
 10
184.9450085177
 20
82.573708131
 11
184.2501475177
 21
80.753176131
  0
LWPOLYLINE
  5
2BE
100
AcDbEntity
  8
0
100
AcDbPolyline
 62
253
  6
CONTINUOUS
 90
16
 70
0
 10
207.4326715177
 20
131.380977131
 10
207.4354549175
 20
131.3850985339
 10
207.4437931979
 20
131.3892022883
 10
207.4576506533
 20
131.3932708214
 10
207.4769679437
 20
131.3972867109
 10
207.5016623496
 20
131.4012327604
 10
207.5316281258
 20
131.4050920721
 10
207.5667369542
 20
131.4088481199
 10
207.6068384934
 20
131.4124848199
 10
207.6517610225
 20
131.4159865992
 10
207.7013121762
 20
131.4193384625
 10
207.755279769
 20
131.4225260567
 10
207.8134327033
 20
131.425535732
 10
207.8755219593
 20
131.4283546005
 10
207.9412816612
 20
131.4309705915
 10
208.0104302161
 20
131.4333725028
  0
LWPOLYLINE
  5
2BF
100
AcDbEntity
  8
0
100
AcDbPolyline
 62
253
  6
CONTINUOUS
 90
18
 70
0
 10
207.4326715177
 20
87.880977131
 10
207.4354549174
 20
87.8768557281
 10
207.4437931978
 20
87.8727519737
 10
207.4576506529
 20
87.8686834407
 10
207.4769679431
 20
87.8646675511
 10
207.5016623488
 20
87.8607215017
 10
207.5316281247
 20
87.85686219
 10
207.5667369528
 20
87.8531061422
 10
207.6068384917
 20
87.8494694422
 10
207.6517610205
 20
87.845967663
 10
207.7013121739
 20
87.8426157996
 10
207.7552797665
 20
87.8394282054
 10
207.8134327006
 20
87.8364185301
 10
207.8755219565
 20
87.8335996616
 10
207.9412816584
 20
87.8309836706
 10
208.0104302132
 20
87.8285817593
 10
208.0826715162
 20
87.8264042131
 10
208.2351830543
 20
87.8227585133
  0
LINE
  5
2C0
100
AcDbEntity
  8
0
100
AcDbLine
 62
253
  6
CONTINUOUS
 10
161.8631882823
 20
87.3111862658
 11
161.7255677838
 21
87.2511219426
  0
LINE
  5
2C1
100
AcDbEntity
  8
0
100
AcDbLine
 62
253
  6
CONTINUOUS
 10
161.7255677838
 20
87.2511219426
 11
161.5785050295
 21
87.1882598616
  0
LINE
  5
2C2
100
AcDbEntity
  8
0
100
AcDbLine
 62
253
  6
CONTINUOUS
 10
161.5785050295
 20
87.1882598616
 11
161.4245771007
 21
87.1237015977
  0
LWPOLYLINE
  5
2C3
100
AcDbEntity
  8
0
100
AcDbPolyline
 62
253
  6
CONTINUOUS
 90
3
 70
0
 10
161.4245771007
 20
87.1237015977
 10
161.2664813818
 20
87.0585784492
 10
161.1867348267
 20
87.0261618279
  0
LINE
  5
2C4
100
AcDbEntity
  8
0
100
AcDbLine
 62
253
  6
CONTINUOUS
 10
161.3458781864
 20
132.1708151446
 11
161.1867348268
 21
132.2357926232
  0
LINE
  5
2C5
100
AcDbEntity
  8
0
100
AcDbLine
 62
253
  6
CONTINUOUS
 10
161.5022327981
 20
132.1058319587
 11
161.3458781864
 21
132.1708151446
  0
LINE
  5
2C6
100
AcDbEntity
  8
0
100
AcDbLine
 62
253
  6
CONTINUOUS
 10
161.6530587632
 20
132.041981806
 11
161.5022327981
 21
132.1058319587
  0
LINE
  5
2C7
100
AcDbEntity
  8
0
100
AcDbLine
 62
253
  6
CONTINUOUS
 10
206.6326715177
 20
87.080977131
 11
206.6326715177
 21
85.7054619811
  0
LINE
  5
2C8
100
AcDbEntity
  8
0
100
AcDbLine
 62
253
  6
CONTINUOUS
 10
206.6326715177
 20
132.180977131
 11
206.6326715177
 21
133.5564922809
  0
LINE
  5
2C9
100
AcDbEntity
  8
0
100
AcDbLine
 62
7
  6
CONTINUOUS
 10
207.4326715177
 20
87.8809767542
 11
207.4326715177
 21
131.3809773483
  0
LWPOLYLINE
  5
2CA
100
AcDbEntity
  8
0
100
AcDbPolyline
 62
253
  6
CONTINUOUS
 90
16
 70
0
 10
207.3739789448
 20
131.6817431703
 10
207.3751144767
 20
131.6865269264
 10
207.3815281862
 20
131.6934332049
 10
207.3931919444
 20
131.7024317167
 10
207.4100545973
 20
131.713482997
 10
207.4320421898
 20
131.7265385777
 10
207.4590582901
 20
131.7415412006
 10
207.4909844131
 20
131.7584250684
 10
207.5276805394
 20
131.777116133
 10
207.5689857295
 20
131.7975324205
 10
207.6147188302
 20
131.8195843906
 10
207.6646792684
 20
131.8431753293
 10
207.7186479311
 20
131.8682017733
 10
207.7763881263
 20
131.8945539633
 10
207.8376466212
 20
131.9221163258
 10
207.9021547525
 20
131.9507679797
  0
LWPOLYLINE
  5
2CB
100
AcDbEntity
  8
0
100
AcDbPolyline
 62
253
  6
CONTINUOUS
 90
18
 70
0
 10
207.3739802353
 20
87.580210568
 10
207.3751157568
 20
87.5754268062
 10
207.3815294468
 20
87.5685205257
 10
207.3931931767
 20
87.5595220153
 10
207.4100557927
 20
87.5484707402
 10
207.4320433401
 20
87.5354151679
 10
207.4590593879
 20
87.5204125565
 10
207.4909854514
 20
87.5035287031
 10
207.5276815119
 20
87.4848376556
 10
207.5689866311
 20
87.4644213874
 10
207.6147196565
 20
87.4423694386
 10
207.664680016
 20
87.4187785227
 10
207.7186485979
 20
87.3937521026
 10
207.7763887113
 20
87.3673999372
 10
207.8376471246
 20
87.3398375995
 10
207.9021551758
 20
87.3111859699
 10
207.9696299511
 20
87.2815707065
 10
208.1122842602
 20
87.2199724708
  0
LWPOLYLINE
  5
2CC
100
AcDbEntity
  8
0
100
AcDbPolyline
 62
253
  6
CONTINUOUS
 90
16
 70
0
 10
208.7326715177
 20
131.4439925087
 10
208.7323654688
 20
131.4871648848
 10
208.7309661935
 20
131.5315309871
 10
208.7284736918
 20
131.5770907978
 10
208.7250098706
 20
131.6236944704
 10
208.720452823
 20
131.6714918161
 10
208.7144368277
 20
131.7209322962
 10
208.7069741436
 20
131.7722130875
 10
208.6980525119
 20
131.8251369554
 10
208.6872694345
 20
131.8795617379
 10
208.6746413902
 20
131.9354974792
 10
208.6601519003
 20
131.9929340786
 10
208.6433490306
 20
132.0516991609
 10
208.6240821364
 20
132.111735251
 10
208.6025018623
 20
132.17309977
 10
208.5786082085
 20
132.2357926895
  0
LINE
  5
2CD
100
AcDbEntity
  8
0
100
AcDbLine
 62
253
  6
CONTINUOUS
 10
208.7326715177
 20
87.8179617532
 11
208.7326715177
 21
131.4439925087
  0
LWPOLYLINE
  5
2CE
100
AcDbEntity
  8
0
100
AcDbPolyline
 62
7
  6
CONTINUOUS
 90
10
 70
0
 10
189.8263262873
 20
82.1536854522
 10
189.8021427144
 20
82.1329556398
 10
189.7904903238
 20
82.1232066454
 10
189.7788783791
 20
82.1140274072
 10
189.7673971452
 20
82.1052601716
 10
189.7559563571
 20
82.0970626789
 10
189.7440630167
 20
82.0900373356
 10
189.7315527911
 20
82.0843849337
 10
189.718590013
 20
82.0799046586
 10
189.7051746826
 20
82.0765965029
  0
LINE
  5
2CF
100
AcDbEntity
  8
0
100
AcDbLine
 62
253
  6
CONTINUOUS
 10
124.5569629475
 20
132.1475176642
 11
124.6933496163
 21
132.1517611689
  0
LINE
  5
2D0
100
AcDbEntity
  8
0
100
AcDbLine
 62
253
  6
CONTINUOUS
 10
124.5569659431
 20
132.2237411636
 11
124.6933524905
 21
132.2279955479
  0
LINE
  5
2D1
100
AcDbEntity
  8
0
100
AcDbLine
 62
253
  6
CONTINUOUS
 10
208.0104302161
 20
131.4333725028
 11
208.1576962217
 21
131.4374939056
  0
LWPOLYLINE
  5
2D2
100
AcDbEntity
  8
0
100
AcDbPolyline
 62
253
  6
CONTINUOUS
 90
25
 70
0
 10
163.1326715177
 20
133.5564922809
 10
163.0312423088
 20
133.5541166574
 10
162.9300355145
 20
133.5467043317
 10
162.8290511346
 20
133.534255265
 10
162.7279900825
 20
133.5167682969
 10
162.6271514449
 20
133.4942444316
 10
162.5274324817
 20
133.4666868383
 10
162.4288129977
 20
133.4340145044
 10
162.331313188
 20
133.3963081306
 10
162.2358908978
 20
133.3538134281
 10
162.1426014136
 20
133.3064774693
 10
162.0513894489
 20
133.2543527489
 10
161.9630469889
 20
133.1978431109
 10
161.8776077133
 20
133.1368984851
 10
161.7950379423
 20
133.0715684386
 10
161.7160286218
 20
133.0024063043
 10
161.6406172587
 20
132.9293613154
 10
161.5687663462
 20
132.8524837279
 10
161.5010543095
 20
132.7724784817
 10
161.4375302724
 20
132.6892979293
 10
161.3781451113
 20
132.6029892667
 10
161.3233298807
 20
132.5143998134
 10
161.2732282655
 20
132.4238119302
 10
161.2276965809
 20
132.3309429439
 10
161.1867348268
 20
132.2357926895
  0
LINE
  5
2D3
100
AcDbEntity
  8
0
100
AcDbLine
 62
253
  6
CONTINUOUS
 10
124.6933496163
 20
132.1517611689
 11
124.8391520297
 21
132.1551302191
  0
LINE
  5
2D4
100
AcDbEntity
  8
0
100
AcDbLine
 62
253
  6
CONTINUOUS
 10
124.6933524905
 20
132.2279955479
 11
124.8391547451
 21
132.2313722807
  0
LINE
  5
2D5
100
AcDbEntity
  8
0
100
AcDbLine
 62
253
  6
CONTINUOUS
 10
208.1576962217
 20
131.4374939056
 11
208.3148002139
 21
131.4406482908
  0
LINE
  5
2D6
100
AcDbEntity
  8
0
100
AcDbLine
 62
253
  6
CONTINUOUS
 10
124.8391520297
 20
132.1551302191
 11
124.9921449447
 21
132.1575733962
  0
LINE
  5
2D7
100
AcDbEntity
  8
0
100
AcDbLine
 62
253
  6
CONTINUOUS
 10
124.8391547451
 20
132.2313722807
 11
124.9921474724
 21
132.2338198263
  0
LINE
  5
2D8
100
AcDbEntity
  8
0
100
AcDbLine
 62
253
  6
CONTINUOUS
 10
208.3148002139
 20
131.4406482908
 11
208.4790540998
 21
131.4427816859
  0
LINE
  5
2D9
100
AcDbEntity
  8
0
100
AcDbLine
 62
253
  6
CONTINUOUS
 10
124.9921449447
 20
132.1575733962
 11
125.1499933767
 21
132.1590534124
  0
LINE
  5
2DA
100
AcDbEntity
  8
0
100
AcDbLine
 62
253
  6
CONTINUOUS
 10
124.9921474724
 20
132.2338198263
 11
125.1499956971
 21
132.2353008302
  0
LWPOLYLINE
  5
2DB
100
AcDbEntity
  8
0
100
AcDbPolyline
 62
253
  6
CONTINUOUS
 90
3
 70
0
 10
208.4790540998
 20
131.4427816859
 10
208.64764745
 20
131.443857588
 10
208.7326715177
 20
131.4439925087
  0
LINE
  5
2DC
100
AcDbEntity
  8
0
100
AcDbLine
 62
253
  6
CONTINUOUS
 10
125.1499933767
 20
132.1590534124
 11
125.310288236
 21
132.1595476796
  0
LINE
  5
2DD
100
AcDbEntity
  8
0
100
AcDbLine
 62
253
  6
CONTINUOUS
 10
125.1499956971
 20
132.2353008302
 11
125.310290339
 21
132.2357926893
  0
LINE
  5
2DE
100
AcDbEntity
  8
0
100
AcDbLine
 62
253
  6
CONTINUOUS
 10
124.0152475712
 20
132.1001637962
 11
123.8826715177
 21
132.1001637962
  0
LINE
  5
2DF
100
AcDbEntity
  8
0
100
AcDbLine
 62
253
  6
CONTINUOUS
 10
245.7500954641
 20
132.1001637962
 11
245.8826715177
 21
132.1001637962
  0
LINE
  5
2E0
100
AcDbEntity
  8
0
100
AcDbLine
 62
7
  6
CONTINUOUS
 10
206.6326836891
 20
132.180977131
 11
163.1326548192
 21
132.180977131
  0
LINE
  5
2E1
100
AcDbEntity
  8
0
100
AcDbLine
 62
253
  6
CONTINUOUS
 10
125.3102903387
 20
132.2357858463
 11
161.1867348268
 21
132.2357926895
  0
LINE
  5
2E2
100
AcDbEntity
  8
0
100
AcDbLine
 62
253
  6
CONTINUOUS
 10
206.6326715177
 20
133.5564922809
 11
163.1326715177
 21
133.5564922809
  0
LINE
  5
2E3
100
AcDbEntity
  8
0
100
AcDbLine
 62
253
  6
CONTINUOUS
 10
244.5353533575
 20
132.2356712285
 11
208.5786082085
 21
132.2357926895
  0
LINE
  5
2E4
100
AcDbEntity
  8
0
100
AcDbLine
 62
253
  6
CONTINUOUS
 10
244.6153496582
 20
132.1590534121
 11
244.4550547994
 21
132.1595476793
  0
LINE
  5
2E5
100
AcDbEntity
  8
0
100
AcDbLine
 62
253
  6
CONTINUOUS
 10
161.2023555681
 20
131.4434534034
 11
161.0326715177
 21
131.4439925087
  0
LINE
  5
2E6
100
AcDbEntity
  8
0
100
AcDbLine
 62
253
  6
CONTINUOUS
 10
244.6947291309
 20
132.2346829098
 11
244.5353533575
 21
132.2356712285
  0
LINE
  5
2E7
100
AcDbEntity
  8
0
100
AcDbLine
 62
253
  6
CONTINUOUS
 10
244.7731980897
 20
132.157573396
 11
244.6153496582
 21
132.1590534121
  0
LINE
  5
2E8
100
AcDbEntity
  8
0
100
AcDbLine
 62
253
  6
CONTINUOUS
 10
161.3691362772
 20
131.4418453118
 11
161.2023555681
 21
131.4434534034
  0
LINE
  5
2E9
100
AcDbEntity
  8
0
100
AcDbLine
 62
253
  6
CONTINUOUS
 10
244.8504469619
 20
132.2327148769
 11
244.6947291309
 21
132.2346829098
  0
LINE
  5
2EA
100
AcDbEntity
  8
0
100
AcDbLine
 62
253
  6
CONTINUOUS
 10
244.9261910043
 20
132.1551302188
 11
244.7731980897
 21
132.157573396
  0
LINE
  5
2EB
100
AcDbEntity
  8
0
100
AcDbLine
 62
253
  6
CONTINUOUS
 10
161.530159981
 20
131.4391957487
 11
161.3691362772
 21
131.4418453118
  0
LINE
  5
2EC
100
AcDbEntity
  8
0
100
AcDbLine
 62
253
  6
CONTINUOUS
 10
245.0001302844
 20
132.2297971661
 11
244.8504469619
 21
132.2327148769
  0
LINE
  5
2ED
100
AcDbEntity
  8
0
100
AcDbLine
 62
253
  6
CONTINUOUS
 10
245.0719934174
 20
132.1517611686
 11
244.9261910043
 21
132.1551302188
  0
LWPOLYLINE
  5
2EE
100
AcDbEntity
  8
0
100
AcDbPolyline
 62
253
  6
CONTINUOUS
 90
16
 70
0
 10
208.5786082085
 20
87.0261615724
 10
208.6023604072
 20
87.0884333742
 10
208.6238349451
 20
87.1494464474
 10
208.6430318224
 20
87.2092007653
 10
208.6598118357
 20
87.2677888461
 10
208.6743141883
 20
87.3251181211
 10
208.6869564902
 20
87.3809109287
 10
208.6977363888
 20
87.4350391623
 10
208.7066562366
 20
87.4876308696
 10
208.7141407018
 20
87.5387926181
 10
208.7202232761
 20
87.5884852536
 10
208.7248704676
 20
87.6367478814
 10
208.7284064684
 20
87.683804465
 10
208.7309393423
 20
87.7297296481
 10
208.7323610254
 20
87.7744487501
 10
208.7326715177
 20
87.8179617532
  0
LWPOLYLINE
  5
2EF
100
AcDbEntity
  8
0
100
AcDbPolyline
 62
253
  6
CONTINUOUS
 90
25
 70
0
 10
208.5786082085
 20
132.2357926895
 10
208.5376031338
 20
132.3310311056
 10
208.492027354
 20
132.4239754957
 10
208.4418808692
 20
132.514626026
 10
208.387018788
 20
132.6032646192
 10
208.3275860018
 20
132.6896096671
 10
208.2640171846
 20
132.7728161066
 10
208.1962642119
 20
132.8528360581
 10
208.1243752083
 20
132.9297178544
 10
208.0489292206
 20
133.0027608643
 10
207.9698889651
 20
133.071915322
 10
207.8872917255
 20
133.137231505
 10
207.8018284002
 20
133.1981589199
 10
207.7134644103
 20
133.2546486365
 10
207.6222343346
 20
133.3067500882
 10
207.5289328076
 20
133.3540603599
 10
207.4334964262
 20
133.3965277164
 10
207.3359885936
 20
133.4342043257
 10
207.2373941531
 20
133.4668431255
 10
207.1377564571
 20
133.4943582688
 10
207.0370321533
 20
133.5168359145
 10
206.9360760288
 20
133.5342869807
 10
206.8351730125
 20
133.5467151586
 10
206.7340381755
 20
133.5541169124
 10
206.6326715177
 20
133.5564922809
  0
LWPOLYLINE
  5
2F0
100
AcDbEntity
  8
0
100
AcDbPolyline
 62
253
  6
CONTINUOUS
 90
15
 70
0
 10
245.7500931311
 20
87.0857133432
 10
245.7406125515
 20
87.0817062599
 10
245.7262222295
 20
87.0777364442
 10
245.7069771241
 20
87.0738190575
 10
245.682950735
 20
87.0699690609
 10
245.6542348226
 20
87.066201158
 10
245.6209390572
 20
87.0625297391
 10
245.5831906002
 20
87.0589688258
 10
245.5411336185
 20
87.0555320177
 10
245.494928734
 20
87.0522324407
 10
245.4447524098
 20
87.0490826961
 10
245.3907962768
 20
87.0460948134
 10
245.3332664013
 20
87.0432802037
 10
245.2723824984
 20
87.0406496165
 10
245.2083770928
 20
87.0382130983
  0
LWPOLYLINE
  5
2F1
100
AcDbEntity
  8
0
100
AcDbPolyline
 62
253
  6
CONTINUOUS
 90
15
 70
0
 10
245.7500954641
 20
87.1617904658
 10
245.7406150293
 20
87.1577966513
 10
245.7262248374
 20
87.1538398539
 10
245.7069798469
 20
87.1499351852
 10
245.6829535573
 20
87.1460975577
 10
245.654237729
 20
87.142341628
 10
245.620942032
 20
87.1386817405
 10
245.5831936281
 20
87.1351318729
 10
245.5411366842
 20
87.1317055828
 10
245.4949318224
 20
87.1284159556
 10
245.4447555065
 20
87.125275555
 10
245.3907993676
 20
87.1222963746
 10
245.3332694728
 20
87.1194897924
 10
245.2723855377
 20
87.1168665273
 10
245.2083800878
 20
87.1144365978
  0
LINE
  5
2F2
100
AcDbEntity
  8
0
100
AcDbLine
 62
253
  6
CONTINUOUS
 10
245.7480168106
 20
153.028867462
 11
245.8826715177
 21
153.030977131
  0
LINE
  5
2F3
100
AcDbEntity
  8
0
100
AcDbLine
 62
253
  6
CONTINUOUS
 10
125.4826715177
 20
153.4070402368
 11
244.2826715177
 21
153.4070402368
  0
LINE
  5
2F4
100
AcDbEntity
  8
0
100
AcDbLine
 62
253
  6
CONTINUOUS
 10
125.4826720094
 20
154.4730832337
 11
244.2826715177
 21
154.4730832337
  0
LINE
  5
2F5
100
AcDbEntity
  8
0
100
AcDbLine
 62
7
  6
CONTINUOUS
 10
125.4826715177
 20
154.630977131
 11
244.2826715177
 21
154.630977131
  0
LINE
  5
2F6
100
AcDbEntity
  8
0
100
AcDbLine
 62
253
  6
CONTINUOUS
 10
124.0173266116
 20
153.030945666
 11
123.8826715177
 21
153.0309772703
  0
LWPOLYLINE
  5
2F7
100
AcDbEntity
  8
0
100
AcDbPolyline
 62
253
  6
CONTINUOUS
 90
28
 70
0
 10
244.2826715177
 20
153.4070402368
 10
244.2926697352
 20
153.4067458225
 10
244.302569354
 20
153.4058764619
 10
244.312370374
 20
153.4044321534
 10
244.3220995316
 20
153.4024059445
 10
244.3317300904
 20
153.3998047811
 10
244.3411818417
 20
153.3966495077
 10
244.3504606429
 20
153.3929391729
 10
244.3595606366
 20
153.3886747156
 10
244.3683840416
 20
153.3838798145
 10
244.3769605693
 20
153.3785064858
 10
244.3852605084
 20
153.3726026953
 10
244.3930969437
 20
153.3663360471
 10
244.4003773277
 20
153.3597902621
 10
244.4071942081
 20
153.3528816056
 10
244.413638312
 20
153.3455264992
 10
244.4197939779
 20
153.3376316818
 10
244.4255768673
 20
153.3292903911
 10
244.4308246934
 20
153.3206987995
 10
244.4354876716
 20
153.3118843563
 10
244.4396155864
 20
153.3028195987
 10
244.4431955044
 20
153.29361834
 10
244.4462237903
 20
153.2843021817
 10
244.4487040795
 20
153.2748495145
 10
244.4506343448
 20
153.2653093407
 10
244.4520139108
 20
153.2556979932
 10
244.4528434529
 20
153.2459991341
 10
244.4531229713
 20
153.2362127606
  0
LWPOLYLINE
  5
2F8
100
AcDbEntity
  8
0
100
AcDbPolyline
 62
253
  6
CONTINUOUS
 90
16
 70
0
 10
245.7500954636
 20
132.1001637962
 10
245.7406150285
 20
132.1041576106
 10
245.7262248363
 20
132.108114408
 10
245.7069798456
 20
132.1120190767
 10
245.6829535558
 20
132.1158567042
 10
245.6542377272
 20
132.1196126339
 10
245.6209420302
 20
132.1232725214
 10
245.5831936261
 20
132.1268223889
 10
245.5411366821
 20
132.1302486791
 10
245.4949318203
 20
132.1335383062
 10
245.4447555044
 20
132.1366787068
 10
245.3907993655
 20
132.1396578872
 10
245.3332694707
 20
132.1424644693
 10
245.2723855357
 20
132.1450877345
 10
245.2083800859
 20
132.1475176639
 10
245.0719934174
 20
132.1517611686
  0
LWPOLYLINE
  5
2F9
100
AcDbEntity
  8
0
100
AcDbPolyline
 62
253
  6
CONTINUOUS
 90
17
 70
0
 10
245.7500931313
 20
132.1762409187
 10
245.7406125519
 20
132.1802480021
 10
245.7262222301
 20
132.1842178178
 10
245.7069771247
 20
132.1881352045
 10
245.6829507358
 20
132.1919852011
 10
245.6542348235
 20
132.195753104
 10
245.6209390581
 20
132.1994245229
 10
245.5831906012
 20
132.2029854362
 10
245.5411336196
 20
132.2064222443
 10
245.494928735
 20
132.2097218214
 10
245.4447524109
 20
132.2128715659
 10
245.3907962778
 20
132.2158594486
 10
245.3332664023
 20
132.2186740583
 10
245.2723824995
 20
132.2213046456
 10
245.2083770938
 20
132.2237411638
 10
245.1414946313
 20
132.2259743075
 10
245.0001302844
 20
132.2297971661
  0
LWPOLYLINE
  5
2FA
100
AcDbEntity
  8
0
100
AcDbPolyline
 62
7
  6
CONTINUOUS
 90
28
 70
0
 10
125.4826715177
 20
154.630977131
 10
125.3906646649
 20
154.6283267124
 10
125.298852301
 20
154.6203807072
 10
125.2075487482
 20
154.6071476464
 10
125.1170149333
 20
154.5886383976
 10
125.0275693159
 20
154.5648873287
 10
124.9396240232
 20
154.5359876199
 10
124.8536931022
 20
154.5021537828
 10
124.7700379864
 20
154.4635214952
 10
124.6886434823
 20
154.4200636908
 10
124.6094706772
 20
154.3716909692
 10
124.5329224366
 20
154.3185798081
 10
124.4596345773
 20
154.2611681935
 10
124.3900682121
 20
154.1998490573
 10
124.3242429744
 20
154.1346508385
 10
124.2621087076
 20
154.0654860776
 10
124.2037463028
 20
153.992371867
 10
124.1495944024
 20
153.9157855328
 10
124.1001225729
 20
153.8363330958
 10
124.0555636927
 20
153.7544389101
 10
124.015876917
 20
153.6701142259
 10
123.981044585
 20
153.5833131777
 10
123.9512151138
 20
153.4942653994
 10
123.926638928
 20
153.4035016856
 10
123.9074495739
 20
153.311479395
 10
123.8937045928
 20
153.2185375251
 10
123.8854348729
 20
153.1249308329
 10
123.8826715177
 20
153.0309772703
  0
LWPOLYLINE
  5
2FB
100
AcDbEntity
  8
0
100
AcDbPolyline
 62
253
  6
CONTINUOUS
 90
28
 70
0
 10
244.2826715177
 20
154.4730832337
 10
244.3668668587
 20
154.4706625425
 10
244.450836642
 20
154.4634079001
 10
244.5342980897
 20
154.4513348921
 10
244.6169959846
 20
154.4344672765
 10
244.69868161
 20
154.4128347368
 10
244.7790673378
 20
154.3864939392
 10
244.857816974
 20
154.3555723789
 10
244.9345717218
 20
154.3202111871
 10
245.0090801926
 20
154.2805143124
 10
245.0812216257
 20
154.2365475833
 10
245.1508290628
 20
154.1884162644
 10
245.2175806844
 20
154.1363407153
 10
245.281214232
 20
154.0805048772
 10
245.3415437921
 20
154.0210337862
 10
245.3983742854
 20
153.9580894391
 10
245.4515152256
 20
153.8919186645
 10
245.5007261427
 20
153.8228563605
 10
245.5457475873
 20
153.751234274
 10
245.5864767439
 20
153.6772465917
 10
245.6228607176
 20
153.6010404559
 10
245.6548057941
 20
153.5228380164
 10
245.6821791478
 20
153.4430025706
 10
245.7048688982
 20
153.3618672509
 10
245.7228270608
 20
153.2796444851
 10
245.7360201184
 20
153.1965551119
 10
245.744423875
 20
153.1128703388
 10
245.7480184028
 20
153.028867487
  0
LINE
  5
2FC
100
AcDbEntity
  8
0
100
AcDbLine
 62
253
  6
CONTINUOUS
 10
244.2826715177
 20
64.630977131
 11
244.2826715177
 21
65.8549140252
  0
LINE
  5
2FD
100
AcDbEntity
  8
0
100
AcDbLine
 62
253
  6
CONTINUOUS
 10
244.2826715177
 20
153.4070402368
 11
244.2826715177
 21
154.630977131
  0
LINE
  5
2FE
100
AcDbEntity
  8
0
100
AcDbLine
 62
253
  6
CONTINUOUS
 10
244.4531229713
 20
153.2362127606
 11
244.4550124598
 21
86.0847088749
  0
LINE
  5
2FF
100
AcDbEntity
  8
0
100
AcDbLine
 62
253
  6
CONTINUOUS
 10
245.7480168106
 20
153.028867462
 11
245.7500931313
 21
87.0857133432
  0
LINE
  5
300
100
AcDbEntity
  8
0
100
AcDbLine
 62
7
  6
CONTINUOUS
 10
245.8826715177
 20
153.030977131
 11
245.8826715177
 21
66.230977131
  0
LINE
  5
301
100
AcDbEntity
  8
0
100
AcDbLine
 62
253
  6
CONTINUOUS
 10
244.4550124598
 20
86.0847088749
 11
244.4531221552
 21
66.0254849356
  0
LINE
  5
302
100
AcDbEntity
  8
0
100
AcDbLine
 62
253
  6
CONTINUOUS
 10
245.7500931313
 20
87.0857133432
 11
245.7480164238
 21
66.231008596
  0
LWPOLYLINE
  5
303
100
AcDbEntity
  8
0
100
AcDbPolyline
 62
253
  6
CONTINUOUS
 90
46
 70
0
 10
244.4531221552
 20
66.0254849356
 10
244.4527614924
 20
66.0157904027
 10
244.4519790594
 20
66.0064444729
 10
244.4507748562
 20
65.9974471357
 10
244.4491118401
 20
65.9888096297
 10
244.4470270537
 20
65.9805206963
 10
244.4446316256
 20
65.9725465805
 10
244.4419000678
 20
65.9648204309
 10
244.4388578682
 20
65.9574090842
 10
244.4356926195
 20
65.9504793153
 10
244.4324722674
 20
65.9441627844
 10
244.4291288663
 20
65.9383278088
 10
244.4256461717
 20
65.9327461514
 10
244.4219492208
 20
65.9272942372
 10
244.4181129765
 20
65.9220956335
 10
244.4143460831
 20
65.917292819
 10
244.4107467863
 20
65.9129951319
 10
244.4072168405
 20
65.9090932212
 10
244.4036701528
 20
65.9054015327
 10
244.4001091972
 20
65.9018971828
 10
244.3965314998
 20
65.8986030504
 10
244.3928435453
 20
65.895402229
 10
244.3889902799
 20
65.8922399346
 10
244.3850267576
 20
65.8891709496
 10
244.3810246251
 20
65.8862427183
 10
244.3770115948
 20
65.8834742272
 10
244.3729599543
 20
65.8808464871
 10
244.3688582133
 20
65.8783499782
 10
244.364723622
 20
65.8759913785
 10
244.3605389303
 20
65.873764008
 10
244.3562408977
 20
65.8716383109
 10
244.3517804566
 20
65.8695934685
 10
244.3472066747
 20
65.8676502983
 10
244.3426035146
 20
65.8658416987
 10
244.3380077111
 20
65.8641787131
 10
244.3333825293
 20
65.8626502966
 10
244.3287017271
 20
65.8612562154
 10
244.3239748892
 20
65.8599971392
 10
244.319192431
 20
65.8588723971
 10
244.3142993562
 20
65.8578797452
 10
244.3092712754
 20
65.8570102575
 10
244.3041325781
 20
65.8562728592
 10
244.2989014364
 20
65.8556920838
 10
244.2935839078
 20
65.8552761087
 10
244.2881739349
 20
65.8550167558
 10
244.2826715177
 20
65.8549140252
  0
LWPOLYLINE
  5
304
100
AcDbEntity
  8
0
100
AcDbPolyline
 62
7
  6
CONTINUOUS
 90
28
 70
0
 10
245.8826715177
 20
153.030977131
 10
245.8799074447
 20
153.1249359683
 10
245.8716377594
 20
153.218539974
 10
245.8578966102
 20
153.3114659198
 10
245.8387113213
 20
153.4034758373
 10
245.8141354206
 20
153.4942399702
 10
245.7843069712
 20
153.5832883146
 10
245.7494777814
 20
153.6700870587
 10
245.7097927683
 20
153.7544138824
 10
245.6652340444
 20
153.8363111905
 10
245.6157597668
 20
153.9157680092
 10
245.5615989005
 20
153.9923673928
 10
245.5032202491
 20
154.0655025203
 10
245.4410725381
 20
154.1346799204
 10
245.3752421647
 20
154.199879639
 10
245.3056669359
 20
154.2612026526
 10
245.2323694102
 20
154.3186172373
 10
245.155820483
 20
154.3717246498
 10
245.0766492222
 20
154.4200922255
 10
244.9952530109
 20
154.4635471318
 10
244.9116035259
 20
154.5021740981
 10
244.825692657
 20
154.5359978481
 10
244.7377659805
 20
154.5648896085
 10
244.6483266907
 20
154.588638733
 10
244.5577989868
 20
154.6071469171
 10
244.466501908
 20
154.6203793409
 10
244.3746873563
 20
154.6283261079
 10
244.2826715177
 20
154.630977131
  0
LWPOLYLINE
  5
305
100
AcDbEntity
  8
0
100
AcDbPolyline
 62
253
  6
CONTINUOUS
 90
46
 70
0
 10
245.7479880117
 20
66.2310086019
 10
245.7443182809
 20
66.1475968625
 10
245.7362169719
 20
66.0669171916
 10
245.7241016529
 20
65.9891702319
 10
245.7083789616
 20
65.9145111901
 10
245.6894479436
 20
65.8430447281
 10
245.6676942407
 20
65.7748405808
 10
245.643519484
 20
65.7099864317
 10
245.6173197844
 20
65.648551914
 10
245.5894589927
 20
65.5905540642
 10
245.5602509561
 20
65.5359269218
 10
245.5299960738
 20
65.4846008367
 10
245.4989984024
 20
65.4365240791
 10
245.4676330251
 20
65.3917345323
 10
245.4361113775
 20
65.3500313652
 10
245.4044299661
 20
65.3110162644
 10
245.3728643445
 20
65.2746974648
 10
245.3415414651
 20
65.2409178452
 10
245.3101073286
 20
65.2090692102
 10
245.2786591501
 20
65.1790803162
 10
245.2472771255
 20
65.1508652088
 10
245.2154831897
 20
65.1238866925
 10
245.1832997373
 20
65.0981041954
 10
245.1508173715
 20
65.0735336069
 10
245.1175899412
 20
65.0498156805
 10
245.0834560735
 20
65.026859353
 10
245.0486297532
 20
65.0048321544
 10
245.0131898955
 20
64.9837912657
 10
244.9771173231
 20
64.9637306108
 10
244.9404528811
 20
64.9446786499
 10
244.9033641581
 20
64.9267171682
 10
244.8659742405
 20
64.9098884391
 10
244.8282129322
 20
64.8941438165
 10
244.7899665537
 20
64.8794315756
 10
244.7513028895
 20
64.8657820986
 10
244.712236752
 20
64.8532051808
 10
244.6725629355
 20
64.8416523604
 10
244.632305434
 20
64.8311589316
 10
244.59149372
 20
64.8217557978
 10
244.5499184916
 20
64.8134270184
 10
244.5076248812
 20
64.8062275777
 10
244.4646146593
 20
64.8002040682
 10
244.4206106024
 20
64.7953760028
 10
244.3755421659
 20
64.7918158227
 10
244.3295483012
 20
64.7896194498
 10
244.2826710259
 20
64.7888710287
  0
LWPOLYLINE
  5
306
100
AcDbEntity
  8
0
100
AcDbPolyline
 62
253
  6
CONTINUOUS
 90
25
 70
0
 10
245.7479873511
 20
66.230977134
 10
245.7383973291
 20
66.2170349282
 10
245.7239087607
 20
66.203230558
 10
245.7045768659
 20
66.1896166427
 10
245.6804753241
 20
66.1762450757
 10
245.6516959932
 20
66.1631668265
 10
245.6183485594
 20
66.1504317466
 10
245.5805601194
 20
66.1380883792
 10
245.5384746956
 20
66.1261837747
 10
245.4922526876
 20
66.1147633108
 10
245.4420702608
 20
66.1038705198
 10
245.3881186745
 20
66.0935469225
 10
245.3306035539
 20
66.0838318703
 10
245.2697441053
 20
66.0747623947
 10
245.2057722815
 20
66.0663730665
 10
245.1389318974
 20
66.0586958638
 10
245.0694777007
 20
66.0517600504
 10
244.9976744013
 20
66.0455920638
 10
244.923795662
 20
66.0402154149
 10
244.8481230558
 20
66.0356505981
 10
244.7709449925
 20
66.0319150131
 10
244.6925556197
 20
66.0290228991
 10
244.6132537018
 20
66.0269852797
 10
244.533341481
 20
66.0258099215
 10
244.4531235255
 20
66.0255013045
  0
LWPOLYLINE
  5
307
100
AcDbEntity
  8
0
100
AcDbPolyline
 62
253
  6
CONTINUOUS
 90
25
 70
0
 10
245.7480168102
 20
153.028867722
 10
245.7384447999
 20
153.0428249469
 10
245.7239723964
 20
153.0566513958
 10
245.704654777
 20
153.0702943541
 10
245.6805655915
 20
153.0837018071
 10
245.6517966819
 20
153.0968226376
 10
245.6184577319
 20
153.1096068215
 10
245.5806758489
 20
153.1220056181
 10
245.5385950792
 20
153.1339717559
 10
245.4923758592
 20
153.145459613
 10
245.4421944031
 20
153.1564253912
 10
245.3882420317
 20
153.1668272824
 10
245.3307244426
 20
153.1766256287
 10
245.2698609263
 20
153.185783073
 10
245.2058835296
 20
153.1942647018
 10
245.1390361713
 20
153.2020381783
 10
245.0695737123
 20
153.2090738655
 10
244.9977609836
 20
153.2153449391
 10
244.9238717769
 20
153.2208274902
 10
244.8481878005
 20
153.2255006162
 10
244.7709976056
 20
153.2293465004
 10
244.6925954858
 20
153.2323504799
 10
244.6132803554
 20
153.2345011019
 10
244.5333546095
 20
153.2357901669
 10
244.4531229713
 20
153.2362127602
  0
LINE
  5
308
100
AcDbEntity
  8
0
100
AcDbLine
 62
7
  6
CONTINUOUS
 10
103.1627719758
 20
66.230977131
 11
103.2324880303
 21
66.2434975438
  0
LINE
  5
309
100
AcDbEntity
  8
0
100
AcDbLine
 62
253
  6
CONTINUOUS
 10
101.6233269429
 20
66.230977134
 11
100.5173299756
 21
66.0356505981
  0
LWPOLYLINE
  5
30A
100
AcDbEntity
  8
0
100
AcDbPolyline
 62
253
  6
CONTINUOUS
 90
5
 70
0
 10
100.5173299756
 20
66.0356505981
 10
100.4786700127
 20
66.0290228991
 10
100.4664992381
 20
66.0269852797
 10
100.4591692073
 20
66.0258099215
 10
100.456707857
 20
66.0255013045
  0
LWPOLYLINE
  5
30B
100
AcDbEntity
  8
RACCORDO
100
AcDbPolyline
 62
253
  6
CONTINUOUS
 90
16
 70
0
 10
103.5220440227
 20
65.9217262729
 10
103.6457068495
 20
65.9400728846
 10
103.7693804432
 20
65.9612746097
 10
103.8929882774
 20
65.9853363188
 10
104.0163681073
 20
66.0121803265
 10
104.1395154127
 20
66.0418941258
 10
104.262581656
 20
66.0747309567
 10
104.3854894238
 20
66.1106678681
 10
104.5081127487
 20
66.1497391003
 10
104.6305194403
 20
66.192284977
 10
104.7527024576
 20
66.2382794668
 10
104.8744208185
 20
66.2877616945
 10
104.9953987443
 20
66.3411711816
 10
105.1154900047
 20
66.3986595946
 10
105.2346505731
 20
66.4600899834
 10
105.352781776
 20
66.5254696073
  0
LINE
  5
30C
100
AcDbEntity
  8
RACCORDO
100
AcDbLine
 62
253
  6
CONTINUOUS
 10
105.352781776
 20
66.5254696073
 11
103.4154573192
 21
66.5137656187
  0
LINE
  5
30D
100
AcDbEntity
  8
0
100
AcDbLine
 62
253
  6
CONTINUOUS
 10
101.6236515592
 20
66.231008596
 11
103.1627719758
 21
66.230977131
  0
LINE
  5
30E
100
AcDbEntity
  8
0
100
AcDbLine
 62
7
  6
CONTINUOUS
 10
101.6535126611
 20
64.7888710283
 11
103.4582481658
 21
64.630977131
  0
LINE
  5
30F
100
AcDbEntity
  8
RACCORDO
100
AcDbLine
 62
7
  6
CONTINUOUS
 10
103.556859353
 20
65.730977131
 11
103.4128847886
 21
65.7435732732
  0
LINE
  5
310
100
AcDbEntity
  8
RACCORDO
100
AcDbLine
 62
253
  6
CONTINUOUS
 10
103.3775327932
 20
66.7274554206
 11
103.1455448188
 21
66.7477629862
  0
LINE
  5
311
100
AcDbEntity
  8
0
100
AcDbLine
 62
253
  6
CONTINUOUS
 10
100.7667846114
 20
87.1617904658
 11
100.8365085356
 21
87.1652973296
  0
LINE
  5
312
100
AcDbEntity
  8
0
100
AcDbLine
 62
253
  6
CONTINUOUS
 10
99.2552507128
 20
87.0857133432
 11
98.0701932839
 21
87.0261615726
  0
LINE
  5
313
100
AcDbEntity
  8
0
100
AcDbLine
 62
253
  6
CONTINUOUS
 10
99.251433385
 20
87.1617904658
 11
98.0663649135
 21
87.1024065824
  0
LINE
  5
314
100
AcDbEntity
  8
0
100
AcDbLine
 62
253
  6
CONTINUOUS
 10
106.0701932809
 20
87.2623679384
 11
103.3387839101
 21
87.2170148363
  0
LINE
  5
315
100
AcDbEntity
  8
0
100
AcDbLine
 62
253
  6
CONTINUOUS
 10
103.3387839101
 20
87.2170148363
 11
101.0642769022
 21
87.1816437976
  0
LINE
  5
316
100
AcDbEntity
  8
0
100
AcDbLine
 62
253
  6
CONTINUOUS
 10
99.251433385
 20
87.1617904658
 11
100.7667846114
 21
87.1617904658
  0
LINE
  5
317
100
AcDbEntity
  8
RACCORDO
100
AcDbLine
 62
253
  6
CONTINUOUS
 10
100.8365085356
 20
87.1816437976
 11
101.0642769022
 21
87.1816437976
  0
LINE
  5
318
100
AcDbEntity
  8
0
100
AcDbLine
 62
7
  6
CONTINUOUS
 10
103.2324880222
 20
153.0184566546
 11
103.4581834144
 21
153.6430492922
  0
LINE
  5
319
100
AcDbEntity
  8
0
100
AcDbLine
 62
7
  6
CONTINUOUS
 10
103.4581834144
 20
153.6430492922
 11
103.5274470151
 21
153.8325914522
  0
LWPOLYLINE
  5
31A
100
AcDbEntity
  8
RACCORDO
100
AcDbPolyline
 62
253
  6
CONTINUOUS
 90
19
 70
0
 10
105.3527816274
 20
66.5254695975
 10
105.374951805
 20
66.4776547719
 10
105.3947390326
 20
66.4299188212
 10
105.4120489483
 20
66.3824893897
 10
105.4267990041
 20
66.3355926603
 10
105.4389188596
 20
66.2894522752
 10
105.4483507175
 20
66.2442882689
 10
105.4550495988
 20
66.2003160209
 10
105.4589835574
 20
66.1577452273
 10
105.4601338328
 20
66.1167789004
 10
105.4584949393
 20
66.0776124016
 10
105.4540746923
 20
66.0404325095
 10
105.4468941708
 20
66.0054165287
 10
105.4369876172
 20
65.9727314444
 10
105.4244022738
 20
65.9425331266
 10
105.4091981577
 20
65.9149655863
 10
105.3914477745
 20
65.8901602887
 10
105.3712357725
 20
65.8682355263
 10
105.3486585389
 20
65.849295855
  0
LINE
  5
31B
100
AcDbEntity
  8
0
100
AcDbLine
 62
7
  6
CONTINUOUS
 10
103.52797276
 20
65.4279328894
 11
103.4080726443
 21
65.7568364792
  0
LINE
  5
31C
100
AcDbEntity
  8
0
100
AcDbLine
 62
7
  6
CONTINUOUS
 10
103.4080726443
 20
65.7568364792
 11
103.2324880303
 21
66.2434975438
  0
LWPOLYLINE
  5
31D
100
AcDbEntity
  8
0
100
AcDbPolyline
 62
7
  6
CONTINUOUS
 90
10
 70
0
 10
103.1627719758
 20
153.030977131
 10
102.7649448007
 20
150.722593689
 10
102.3999785002
 20
148.4088061553
 10
102.0678734805
 20
146.09008097
 10
101.7685771252
 20
143.7668844383
 10
101.5021428631
 20
141.4396831407
 10
101.2687301679
 20
139.1089439356
 10
101.0683924681
 20
136.7751334104
 10
100.9010771472
 20
134.4387178795
 10
100.7667846114
 20
132.1001637962
  0
LWPOLYLINE
  5
31E
100
AcDbEntity
  8
0
100
AcDbPolyline
 62
7
  6
CONTINUOUS
 90
10
 70
0
 10
103.232488034
 20
153.0184567182
 10
102.8346621889
 20
150.7110905413
 10
102.4696971009
 20
148.3983149006
 10
102.1375931777
 20
146.0805968501
 10
101.8382978046
 20
143.7584033108
 10
101.5718644119
 20
141.4322014762
 10
101.3384524744
 20
139.102458815
 10
101.1381154219
 20
136.7696425278
 10
100.9708006398
 20
134.4342195444
 10
100.8365085356
 20
132.0966569323
  0
LWPOLYLINE
  5
31F
100
AcDbEntity
  8
0
100
AcDbPolyline
 62
253
  6
CONTINUOUS
 90
22
 70
0
 10
101.6232827668
 20
153.028867462
 10
101.440647025
 20
151.9810978842
 10
101.2655045514
 20
150.9385148262
 10
101.0978544577
 20
149.9011818803
 10
100.9378091705
 20
148.8691769879
 10
100.7852544976
 20
147.8425443989
 10
100.6398496351
 20
146.8212945445
 10
100.5015916064
 20
145.8054824052
 10
100.3704816639
 20
144.7951651804
 10
100.2461853664
 20
143.7903540262
 10
100.1286998437
 20
142.7910994073
 10
100.0180262794
 20
141.7974536167
 10
99.9138363312
 20
140.8094281272
 10
99.8161271751
 20
139.8270690034
 10
99.7248999844
 20
138.8504240277
 10
99.6398324283
 20
137.8795049832
 10
99.5609217369
 20
136.9143540076
 10
99.488169064
 20
135.9550143799
 10
99.421257979
 20
135.0014974728
 10
99.3600824792
 20
134.053832866
 10
99.3047469854
 20
133.1120684098
 10
99.2552507128
 20
132.1762409187
  0
LINE
  5
320
100
AcDbEntity
  8
0
100
AcDbLine
 62
7
  6
CONTINUOUS
 10
103.1627719758
 20
153.030977131
 11
103.2943554099
 21
153.7544138824
  0
LINE
  5
321
100
AcDbEntity
  8
0
100
AcDbLine
 62
7
  6
CONTINUOUS
 10
103.2943554099
 20
153.7544138824
 11
103.4338589943
 21
154.5021740981
  0
LINE
  5
322
100
AcDbEntity
  8
0
100
AcDbLine
 62
7
  6
CONTINUOUS
 10
103.4338589943
 20
154.5021740981
 11
103.4582481658
 21
154.630977131
  0
LINE
  5
323
100
AcDbEntity
  8
0
100
AcDbLine
 62
253
  6
CONTINUOUS
 10
104.0701932809
 20
109.630977131
 11
100.5001932809
 21
109.630977131
  0
LINE
  5
324
100
AcDbEntity
  8
RACCORDO
100
AcDbLine
 62
7
  6
CONTINUOUS
 10
106.0701932809
 20
105.7783231696
 11
104.2354636454
 21
106.1018355066
  0
LINE
  5
325
100
AcDbEntity
  8
0
100
AcDbLine
 62
7
  6
CONTINUOUS
 10
103.4582481658
 20
64.630977131
 11
103.3241602839
 21
65.346168802
  0
LINE
  5
326
100
AcDbEntity
  8
0
100
AcDbLine
 62
7
  6
CONTINUOUS
 10
103.3241602839
 20
65.346168802
 11
103.1965677836
 21
66.0434168654
  0
LINE
  5
327
100
AcDbEntity
  8
0
100
AcDbLine
 62
7
  6
CONTINUOUS
 10
103.1965677836
 20
66.0434168654
 11
103.1627719758
 21
66.230977131
  0
LWPOLYLINE
  5
328
100
AcDbEntity
  8
0
100
AcDbPolyline
 62
253
  6
CONTINUOUS
 90
21
 70
0
 10
99.3046876423
 20
86.1508941232
 10
99.3599628448
 20
85.2100260565
 10
99.421077119
 20
84.2631459767
 10
99.4879242227
 20
83.3103016695
 10
99.5606120079
 20
82.3515228812
 10
99.6394624249
 20
81.3868213826
 10
99.7244742622
 20
80.4162406406
 10
99.8156503764
 20
79.4398228431
 10
99.9133188345
 20
78.4575799993
 10
100.0174784091
 20
77.4695600926
 10
100.1281320081
 20
76.4758093749
 10
100.2456139179
 20
75.4763395632
 10
100.3699229011
 20
74.4712032386
 10
100.5010619128
 20
73.4604511298
 10
100.6393715453
 20
72.4440946433
 10
100.784850724
 20
71.4221901879
 10
100.9375022802
 20
70.3947942675
 10
101.0976726845
 20
69.3619210716
 10
101.2654780287
 20
68.3236163993
 10
101.4408040187
 20
67.279957543
 10
101.6236515592
 20
66.231008596
  0
LWPOLYLINE
  5
329
100
AcDbEntity
  8
0
100
AcDbPolyline
 62
7
  6
CONTINUOUS
 90
10
 70
0
 10
100.8365085356
 20
87.1652973296
 10
100.9708006399
 20
84.827734714
 10
101.1381154222
 20
82.4923117271
 10
101.3384524748
 20
80.1594954364
 10
101.5718644127
 20
77.8297527705
 10
101.8382978057
 20
75.5035509312
 10
102.1375931785
 20
73.1813573908
 10
102.4696971008
 20
70.8636393439
 10
102.8346621873
 20
68.5508637102
 10
103.2324880303
 20
66.2434975438
  0
LWPOLYLINE
  5
32A
100
AcDbEntity
  8
0
100
AcDbPolyline
 62
7
  6
CONTINUOUS
 90
10
 70
0
 10
100.7667846114
 20
87.1617904658
 10
100.9010771472
 20
84.8232363825
 10
101.0683924681
 20
82.4868208516
 10
101.2687301679
 20
80.1530103264
 10
101.5021428631
 20
77.8222711212
 10
101.7685771252
 20
75.4950698237
 10
102.0678734805
 20
73.1718732919
 10
102.3999785002
 20
70.8531481066
 10
102.7649448007
 20
68.539360573
 10
103.1627719758
 20
66.230977131
  0
LINE
  5
32B
100
AcDbEntity
  8
0
100
AcDbLine
 62
253
  6
CONTINUOUS
 10
99.251433385
 20
87.1617904658
 11
99.3046876423
 21
86.1508941232
  0
LWPOLYLINE
  5
32C
100
AcDbEntity
  8
0
100
AcDbPolyline
 62
253
  6
CONTINUOUS
 90
4
 70
0
 10
101.653371924
 20
64.7953760028
 10
101.6534694076
 20
64.7918158227
 10
101.6535222742
 20
64.7896194498
 10
101.6535126567
 20
64.7888710287
  0
LWPOLYLINE
  5
32D
100
AcDbEntity
  8
0
100
AcDbPolyline
 62
253
  6
CONTINUOUS
 90
12
 70
0
 10
99.0795235185
 20
128.3576924877
 10
98.9388673224
 20
124.6139135764
 10
98.8294647955
 20
120.8690898239
 10
98.7513126716
 20
117.1234860503
 10
98.7044142142
 20
113.3773629517
 10
98.6887792185
 20
109.6309770985
 10
98.7044142153
 20
105.8845912361
 10
98.7513126738
 20
102.1384681223
 10
98.8294647982
 20
98.3928643465
 10
98.9388673248
 20
94.6480406115
 10
99.07952352
 20
90.9042617306
 10
99.251433385
 20
87.1617904658
  0
LWPOLYLINE
  5
32E
100
AcDbEntity
  8
0
100
AcDbPolyline
 62
7
  6
CONTINUOUS
 90
13
 70
0
 10
100.7667846114
 20
132.1001637962
 10
100.5942479558
 20
128.3576717208
 10
100.4530791044
 20
124.613880341
 10
100.3432780543
 20
120.869052429
 10
100.2648417439
 20
117.1234555824
 10
100.2177732287
 20
113.3773477309
 10
100.202081684
 20
109.630977131
 10
100.2177732287
 20
105.8846065311
 10
100.2648417439
 20
102.1384986795
 10
100.3432780543
 20
98.392901833
 10
100.4530791044
 20
94.648073921
 10
100.5942479558
 20
90.9042825411
 10
100.7667846114
 20
87.1617904658
  0
LWPOLYLINE
  5
32F
100
AcDbEntity
  8
0
100
AcDbPolyline
 62
7
  6
CONTINUOUS
 90
13
 70
0
 10
100.8365085356
 20
132.0966569323
 10
100.6639720853
 20
128.35475046
 10
100.5228034018
 20
124.61154407
 10
100.4130024823
 20
120.8673006568
 10
100.3345662652
 20
117.1222879395
 10
100.2874978059
 20
113.3767639705
 10
100.2718062799
 20
109.630977131
 10
100.2874978059
 20
105.8851902915
 10
100.3345662652
 20
102.1396663225
 10
100.4130024823
 20
98.3946536051
 10
100.5228034018
 20
94.6504101919
 10
100.6639720853
 20
90.9072038019
 10
100.8365085356
 20
87.1652973296
  0
LINE
  5
330
100
AcDbEntity
  8
0
100
AcDbLine
 62
253
  6
CONTINUOUS
 10
99.2552507128
 20
132.1762409187
 11
99.0795235185
 21
128.3576924877
  0
LINE
  5
331
100
AcDbEntity
  8
RACCORDO
100
AcDbLine
 62
7
  6
CONTINUOUS
 10
104.2354636454
 20
113.1601187553
 11
106.0701932809
 21
113.4836310924
  0
LINE
  5
332
100
AcDbEntity
  8
0
100
AcDbLine
 62
253
  6
CONTINUOUS
 10
101.6233262909
 20
66.2310086019
 11
101.653371924
 21
64.7953760028
  0
LINE
  5
333
100
AcDbEntity
  8
RACCORDO
100
AcDbLine
 62
7
  6
CONTINUOUS
 10
104.0701932809
 20
106.2987970572
 11
104.0701932809
 21
112.9631572047
  0
LINE
  5
334
100
AcDbEntity
  8
0
100
AcDbLine
 62
253
  6
CONTINUOUS
 10
101.6535126611
 20
154.4730832337
 11
101.6534721684
 21
154.4706625425
  0
LINE
  5
335
100
AcDbEntity
  8
0
100
AcDbLine
 62
253
  6
CONTINUOUS
 10
101.6334726088
 20
153.5228380164
 11
101.6232835596
 21
153.028867487
  0
LINE
  5
336
100
AcDbEntity
  8
0
100
AcDbLine
 62
253
  6
CONTINUOUS
 10
101.6534721684
 20
154.4706625425
 11
101.6334726088
 21
153.5228380164
  0
LINE
  5
337
100
AcDbEntity
  8
0
100
AcDbLine
 62
7
  6
CONTINUOUS
 10
103.4582481658
 20
154.630977131
 11
103.52797276
 21
153.8340213725
  0
LINE
  5
338
100
AcDbEntity
  8
RACCORDO
100
AcDbLine
 62
7
  6
CONTINUOUS
 10
106.0701932809
 20
66.5309766596
 11
106.0701932809
 21
87.2623679384
  0
LINE
  5
339
100
AcDbEntity
  8
DRAFT
100
AcDbLine
 62
7
  6
CONTINUOUS
 10
106.0701932809
 20
87.2623679384
 11
106.0701932809
 21
105.7783231696
  0
LINE
  5
33A
100
AcDbEntity
  8
DRAFT
100
AcDbLine
 62
7
  6
CONTINUOUS
 10
106.0701932809
 20
113.4836310924
 11
106.0701932809
 21
131.9995863235
  0
LINE
  5
33B
100
AcDbEntity
  8
RACCORDO
100
AcDbLine
 62
7
  6
CONTINUOUS
 10
106.0701932809
 20
131.9995863235
 11
106.0701932809
 21
152.7309775674
  0
LINE
  5
33C
100
AcDbEntity
  8
0
100
AcDbLine
 62
7
  6
CONTINUOUS
 10
103.4582481658
 20
64.630977131
 11
103.52797276
 21
65.4279328894
  0
LINE
  5
33D
100
AcDbEntity
  8
RACCORDO
100
AcDbLine
 62
253
  6
CONTINUOUS
 10
100.8365085356
 20
132.0803104644
 11
101.0642769022
 21
132.0803104644
  0
LINE
  5
33E
100
AcDbEntity
  8
0
100
AcDbLine
 62
253
  6
CONTINUOUS
 10
99.251433385
 20
132.1001637962
 11
100.7667846114
 21
132.1001637962
  0
LINE
  5
33F
100
AcDbEntity
  8
0
100
AcDbLine
 62
253
  6
CONTINUOUS
 10
106.0701932809
 20
131.9995863235
 11
101.0642769022
 21
132.0803104644
  0
LINE
  5
340
100
AcDbEntity
  8
0
100
AcDbLine
 62
253
  6
CONTINUOUS
 10
99.251433385
 20
132.1001637962
 11
98.0663649191
 21
132.1595476793
  0
LINE
  5
341
100
AcDbEntity
  8
0
100
AcDbLine
 62
253
  6
CONTINUOUS
 10
100.7667846114
 20
132.1001637962
 11
100.8365085356
 21
132.0966569323
  0
LINE
  5
342
100
AcDbEntity
  8
0
100
AcDbLine
 62
253
  6
CONTINUOUS
 10
99.2552507128
 20
132.1762409187
 11
98.0701932809
 21
132.2357926895
  0
LWPOLYLINE
  5
343
100
AcDbEntity
  8
RACCORDO
100
AcDbPolyline
 62
253
  6
CONTINUOUS
 90
10
 70
0
 10
105.352781776
 20
66.5254696073
 10
105.4445347629
 20
66.5803773619
 10
105.5325584261
 20
66.6361992503
 10
105.6169428859
 20
66.692934188
 10
105.6970705353
 20
66.7499907164
 10
105.773771307
 20
66.807957067
 10
105.8492227122
 20
66.8686055408
 10
105.9241192172
 20
66.932530378
 10
105.9977714841
 20
66.9991433763
 10
106.0701932493
 20
67.0684469957
  0
LWPOLYLINE
  5
344
100
AcDbEntity
  8
RACCORDO
100
AcDbPolyline
 62
253
  6
CONTINUOUS
 90
10
 70
0
 10
105.352781776
 20
152.7364846547
 10
105.4441977435
 20
152.6818224308
 10
105.5321431862
 20
152.6260576055
 10
105.6166979124
 20
152.5691908063
 10
105.697449668
 20
152.5116428712
 10
105.7749961169
 20
152.4529950602
 10
105.8508749208
 20
152.3919859368
 10
105.9255911095
 20
152.3281925515
 10
105.9986863831
 20
152.2620335605
 10
106.070193247
 20
152.1935072683
  0
LWPOLYLINE
  5
345
100
AcDbEntity
  8
RACCORDO
100
AcDbPolyline
 62
253
  6
CONTINUOUS
 90
19
 70
0
 10
105.3486594617
 20
153.4126596643
 10
105.3712366516
 20
153.3937199226
 10
105.3914486054
 20
153.3717950861
 10
105.4091989364
 20
153.3469897115
 10
105.4244029967
 20
153.3194220923
 10
105.4369882816
 20
153.2892236945
 10
105.4468947745
 20
153.2565385299
 10
105.4540752338
 20
153.2215224695
 10
105.458495418
 20
153.1843424991
 10
105.4601342488
 20
153.1451759239
 10
105.4589839115
 20
153.1042095231
 10
105.4550498926
 20
153.0616386584
 10
105.4483509532
 20
153.0176663422
 10
105.43891904
 20
152.9725022711
 10
105.4267991324
 20
152.9263618243
 10
105.4120490282
 20
152.879465036
 10
105.3947390678
 20
152.8320355481
 10
105.3749517996
 20
152.7842995437
 10
105.3527815855
 20
152.7364846672
  0
LINE
  5
346
100
AcDbEntity
  8
RACCORDO
100
AcDbLine
 62
253
  6
CONTINUOUS
 10
103.1455448296
 20
152.5141913179
 11
103.3775327932
 21
152.5344988414
  0
LINE
  5
347
100
AcDbEntity
  8
RACCORDO
100
AcDbLine
 62
7
  6
CONTINUOUS
 10
103.556859353
 20
153.530977131
 11
103.4128888154
 21
153.5183813411
  0
LINE
  5
348
100
AcDbEntity
  8
0
100
AcDbLine
 62
7
  6
CONTINUOUS
 10
101.6535126611
 20
154.4730832337
 11
103.4582481658
 21
154.630977131
  0
LINE
  5
349
100
AcDbEntity
  8
0
100
AcDbLine
 62
253
  6
CONTINUOUS
 10
101.6232827668
 20
153.028867462
 11
103.1627719758
 21
153.030977131
  0
LINE
  5
34A
100
AcDbEntity
  8
RACCORDO
100
AcDbLine
 62
253
  6
CONTINUOUS
 10
105.352781776
 20
152.7364846547
 11
103.4154573192
 21
152.7481886433
  0
LWPOLYLINE
  5
34B
100
AcDbEntity
  8
RACCORDO
100
AcDbPolyline
 62
253
  6
CONTINUOUS
 90
16
 70
0
 10
103.5220439836
 20
153.3402279958
 10
103.6436994923
 20
153.3222333156
 10
103.7656864306
 20
153.3013777985
 10
103.887927557
 20
153.2776565558
 10
104.0102732386
 20
153.2511614307
 10
104.1327001663
 20
153.2217906813
 10
104.2553117565
 20
153.1892483525
 10
104.3779951949
 20
153.1535672677
 10
104.5006498616
 20
153.1147029917
 10
104.6233861087
 20
153.0722421455
 10
104.7462248197
 20
153.0261991032
 10
104.8688743744
 20
152.9765455617
 10
104.9909838094
 20
152.9228024261
 10
105.112374803
 20
152.8648044713
 10
105.2330115997
 20
152.8027011515
 10
105.352781776
 20
152.7364846547
  0
LINE
  5
34C
100
AcDbEntity
  8
0
100
AcDbLine
 62
253
  6
CONTINUOUS
 10
100.5435399005
 20
153.2208274902
 11
100.4566651276
 21
153.2362127602
  0
LINE
  5
34D
100
AcDbEntity
  8
0
100
AcDbLine
 62
253
  6
CONTINUOUS
 10
101.6232828106
 20
153.028867722
 11
100.5435399005
 21
153.2208274902
  0
LINE
  5
34E
100
AcDbEntity
  8
0
100
AcDbLine
 62
7
  6
CONTINUOUS
 10
103.1627719758
 20
153.030977131
 11
103.232488029
 21
153.0184566868
  0
ARC
  5
34F
100
AcDbEntity
  8
0
100
AcDbCircle
 62
7
  6
CONTINUOUS
 10
163.1326715177
 20
131.380977131
 40
0.8
100
AcDbArc
 50
90.0011959412
 51
179.9999730237
  0
ARC
  5
350
100
AcDbEntity
  8
0
100
AcDbCircle
 62
7
  6
CONTINUOUS
 10
206.6326715177
 20
131.380977131
 40
0.8
100
AcDbArc
 50
0.0000155658
 51
89.9991282885
  0
ARC
  5
351
100
AcDbEntity
  8
0
100
AcDbCircle
 62
7
  6
CONTINUOUS
 10
206.6326715177
 20
87.880977131
 40
0.8
100
AcDbArc
 50
270.0010785883
 51
359.9999730189
  0
ARC
  5
352
100
AcDbEntity
  8
0
100
AcDbCircle
 62
7
  6
CONTINUOUS
 10
163.1326715177
 20
87.880977131
 40
0.8
100
AcDbArc
 50
180.0000319422
 51
269.999393162
  0
ARC
  5
353
100
AcDbEntity
  8
0
100
AcDbCircle
 62
7
  6
CONTINUOUS
 10
265.978854753
 20
95.4713663325
 40
168.1209091124
100
AcDbArc
 50
182.8793442356
 51
190.1462645046
  0
ARC
  5
354
100
AcDbEntity
  8
0
100
AcDbCircle
 62
7
  6
CONTINUOUS
 10
265.975906684
 20
95.474337131
 40
165.12
100
AcDbArc
 50
182.8787323946
 51
190.1014160686
  0
ARC
  5
355
100
AcDbEntity
  8
RACCORDO
100
AcDbCircle
 62
7
  6
CONTINUOUS
 10
265.975906684
 20
95.474337131
 40
165.12
100
AcDbArc
 50
190.1014160686
 51
190.5891670949
  0
ARC
  5
356
100
AcDbEntity
  8
RACCORDO
100
AcDbCircle
 62
7
  6
CONTINUOUS
 10
102.9698120863
 20
69.0899278682
 40
4.0200239337
100
AcDbArc
 50
279.9999998059
 51
320.4648679848
  0
ARC
  5
357
100
AcDbEntity
  8
0
100
AcDbCircle
 62
7
  6
CONTINUOUS
 10
101.7668139004
 20
66.0839309891
 40
1.3
100
AcDbArc
 50
190.1465713461
 51
265.0
  0
ARC
  5
358
100
AcDbEntity
  8
RACCORDO
100
AcDbCircle
 62
7
  6
CONTINUOUS
 10
104.2701932809
 20
106.2987970572
 40
0.2
100
AcDbArc
 50
180.0
 51
260.0
  0
ARC
  5
359
100
AcDbEntity
  8
0
100
AcDbCircle
 62
7
  6
CONTINUOUS
 10
265.978854753
 20
123.7905879295
 40
168.1209091124
100
AcDbArc
 50
169.8537354954
 51
177.1206560459
  0
ARC
  5
35A
100
AcDbEntity
  8
0
100
AcDbCircle
 62
7
  6
CONTINUOUS
 10
265.975906684
 20
123.787617131
 40
165.12
100
AcDbArc
 50
169.8985839314
 51
177.1212676054
  0
ARC
  5
35B
100
AcDbEntity
  8
RACCORDO
100
AcDbCircle
 62
7
  6
CONTINUOUS
 10
265.975906684
 20
123.787617131
 40
165.12
100
AcDbArc
 50
169.4108329051
 51
169.8985839314
  0
ARC
  5
35C
100
AcDbEntity
  8
RACCORDO
100
AcDbCircle
 62
7
  6
CONTINUOUS
 10
102.9698120863
 20
150.1720263938
 40
4.0200239337
100
AcDbArc
 50
39.5351313682
 51
80.0000000715
  0
ARC
  5
35D
100
AcDbEntity
  8
0
100
AcDbCircle
 62
7
  6
CONTINUOUS
 10
101.7668151267
 20
153.1780301261
 40
1.3
100
AcDbArc
 50
95.0
 51
169.8537354954
  0
ARC
  5
35E
100
AcDbEntity
  8
RACCORDO
100
AcDbCircle
 62
7
  6
CONTINUOUS
 10
104.2701932809
 20
112.9631572047
 40
0.2
100
AcDbArc
 50
100.0
 51
180.0
  0
ARC
  5
35F
100
AcDbEntity
  8
0
100
AcDbCircle
 62
7
  6
CONTINUOUS
 10
547.502081684
 20
109.630977131
 40
450.0
100
AcDbArc
 50
177.1206545731
 51
182.8793455321
  0
ARC
  5
360
100
AcDbEntity
  8
0
100
AcDbCircle
 62
7
  6
CONTINUOUS
 10
547.5001932809
 20
109.630977131
 40
447.0
100
AcDbArc
 50
177.1212676054
 51
182.8787323946
  0
ENDSEC
  0
SECTION
  2
OBJECTS
  0
DICTIONARY
  5
C
100
AcDbDictionary
280
0
281
1
  3
ACAD_GROUP
350
D
  3
ACAD_MLINESTYLE
350
17
  3
ACAD_LAYOUT
350
1A
  3
ACAD_PLOTSETTINGS
350
19
  3
ACAD_PLOTSTYLENAME
350
E
  0
DICTIONARY
  5
D
102
{ACAD_REACTORS
330
C
102
}
100
AcDbDictionary
280
0
281
1
  0
ACDBDICTIONARYWDFLT
  5
E
102
{ACAD_REACTORS
330
C
102
}
100
AcDbDictionary
281
1
  3
Normal
350
F
100
AcDbDictionaryWithDefault
340
F
  0
DICTIONARY
  5
17
102
{ACAD_REACTORS
330
C
102
}
100
AcDbDictionary
280
0
281
1
  3
Standard
350
18
  0
DICTIONARY
  5
19
102
{ACAD_REACTORS
330
C
102
}
100
AcDbDictionary
281
1
  0
DICTIONARY
  5
1A
102
{ACAD_REACTORS
330
C
102
}
100
AcDbDictionary
281
1
  3
Model
350
361
  3
Layout1
350
362
  0
ACDBPLACEHOLDER
  5
F
102
{ACAD_REACTORS
330
E
102
}
  0
MLINESTYLE
  5
18
102
{ACAD_REACTORS
330
17
102
}
100
AcDbMlineStyle
  2
STANDARD
 70
0
  3

 62
256
 51
90.0
 52
90.0
 71
2
 49
0.5
 62
256
  6
BYLAYER
 49
-0.5
 62
256
  6
BYLAYER
  0
LAYOUT
  5
361
102
{ACAD_REACTORS
330
1A
102
}
100
AcDbPlotSettings
  1

  2
none_device
  4
ISO_A4_(297.00_x_210.00_MM)
  6

 40
0.0
 41
0.0
 42
0.0
 43
0.0
 44
297.0
 45
210.0
 46
0.0
 47
0.0
 48
0.0
 49
0.0
140
0.0
141
0.0
142
1.0
143
1.0
 70
1024
 72
1
 73
0
 74
0
  7

 75
0
147
1.0
148
0.0
149
0.0
100
AcDbLayout
  1
Model
 70
0
 71
0
 10
0.0
 20
0.0
 11
297.0
 21
210.0
 12
0.0
 22
0.0
 32
0.0
 14
0.0
 24
0.0
 34
0.0
 15
0.0
 25
0.0
 35
0.0
146
0.0
 13
0.0
 23
0.0
 33
0.0
 16
1.0
 26
0.0
 36
0.0
 17
0.0
 27
1.0
 37
0.0
 76
0
330
210
345
0
346
0
  0
LAYOUT
  5
362
102
{ACAD_REACTORS
330
1A
102
}
100
AcDbPlotSettings
  1

  2
none_device
  4
ISO_A4_(297.00_x_210.00_MM)
  6

 40
0.0
 41
0.0
 42
0.0
 43
0.0
 44
297.0
 45
210.0
 46
0.0
 47
0.0
 48
0.0
 49
0.0
140
0.0
141
0.0
142
1.0
143
1.0
 70
0
 72
1
 73
0
 74
0
  7

 75
0
147
1.0
148
0.0
149
0.0
100
AcDbLayout
  1
Layout1
 70
0
 71
1
 10
0.0
 20
0.0
 11
297.0
 21
210.0
 12
0.0
 22
0.0
 32
0.0
 14
0.0
 24
0.0
 34
0.0
 15
0.0
 25
0.0
 35
0.0
146
0.0
 13
0.0
 23
0.0
 33
0.0
 16
1.0
 26
0.0
 36
0.0
 17
0.0
 27
1.0
 37
0.0
 76
0
330
211
345
0
346
0
  0
ENDSEC
  0
EOF
