  0
SECTION
  2
HEADER
  9
$ACADVER
  1
AC1015
  9
$DWGCODEPAGE
  3
ANSI_1252
  9
$EXTMAX
 10
297.0
 20
210.0
 30
0.0
  9
$EXTMIN
 10
0.0
 20
0.0
 30
0.0
  9
$LIMMIN
 10
0.0
 20
0.0
  9
$LIMMAX
 10
297.0
 20
210.0
  9
$VIEWCTR
 10
148.5
 20
105.0
  9
$VIEWSIZE
 40
210.0
  9
$CLAYER
  8
0
  9
$LTSCALE
 40
16.335
  9
$CELTYPE
  6
BYLAYER
  9
$DIMSCALE
 40
1.0
  9
$DIMASZ
 40
3.0
  9
$DIMEXO
 40
1.85625
  9
$DIMDLI
 40
11.286
  9
$DIMEXE
 40
5.346
  9
$DIMCEN
 40
2.673
  9
$DIMLFAC
 40
1.0
  9
$DIMBLK
  1
_FILLED
  9
$DIMTXT
 40
3.0
  9
$DIMTOL
 70
1
  9
$DIMLIM
 70
0
  9
$DIMTFAC
 40
1.0
  9
$DIMTP
 40
0.01
  9
$DIMTM
 40
0.01
  9
$PDMODE
 70
3
  9
$PDSIZE
 40
3.0
  9
$HANDSEED
  5
5F8
  9
$TILEMODE
 70
1
  9
$MEASUREMENT
 70
1
  9
$INSUNITS
 70
4
  0
ENDSEC
  0
SECTION
  2
CLASSES
  0
CLASS
  1
ACDBDICTIONARYWDFLT
  2
AcDbDictionaryWithDefault
  3
AutoCAD 2000
 90
0
280
0
281
0
  0
CLASS
  1
ACDBPLACEHOLDER
  2
AcDbPlaceHolder
  3
AutoCAD 2000
 90
0
280
0
281
0
  0
CLASS
  1
LAYOUT
  2
AcDbLayout
  3
AutoCAD 2000
 90
0
280
0
281
0
  0
ENDSEC
  0
SECTION
  2
TABLES
  0
TABLE
  2
VPORT
  5
8
100
AcDbSymbolTable
 70
2
  0
VPORT
  5
1F4
100
AcDbSymbolTableRecord
100
AcDbViewportTableRecord
  2
*ACTIVE
 70
0
 10
0.0
 20
0.0
 11
1.0
 21
1.0
 12
148.5
 22
105.0
 13
0.0
 23
0.0
 14
1.0
 24
1.0
 15
0.0
 25
0.0
 16
0.0
 26
0.0
 36
1.0
 17
0.0
 27
0.0
 37
0.0
 40
210.0
 41
1.4142857143
 42
50.0
 43
0.0
 44
0.0
 50
0.0
 51
0.0
 71
0
 72
100
 73
1
 74
1
 75
0
 76
0
 77
0
 78
0
  0
ENDTAB
  0
TABLE
  2
LTYPE
  5
5
100
AcDbSymbolTable
 70
6
  0
LTYPE
  5
14
100
AcDbSymbolTableRecord
100
AcDbLinetypeTableRecord
  2
BYBLOCK
 70
0
  3

 72
65
 73
0
 40
0.0
  0
LTYPE
  5
15
100
AcDbSymbolTableRecord
100
AcDbLinetypeTableRecord
  2
BYLAYER
 70
0
  3

 72
65
 73
0
 40
0.0
  0
LTYPE
  5
16
100
AcDbSymbolTableRecord
100
AcDbLinetypeTableRecord
  2
CONTINUOUS
 70
64
  3
Solid line
 72
65
 73
0
 40
0.0
  0
LTYPE
  5
1F5
100
AcDbSymbolTableRecord
100
AcDbLinetypeTableRecord
  2
CENTER
 70
64
  3
____ _ ____ _ ____ _ ____ _ ____ _ ____ _ ____
 72
65
 73
4
 40
0.6
 49
0.375
 74
0
 49
-0.075
 74
0
 49
0.075
 74
0
 49
-0.075
 74
0
  0
LTYPE
  5
1F6
100
AcDbSymbolTableRecord
100
AcDbLinetypeTableRecord
  2
HIDDEN
 70
64
  3
- - - - - - - - - - - - - - - - - - - -
 72
65
 73
2
 40
0.2
 49
0.1
 74
0
 49
-0.1
 74
0
  0
LTYPE
  5
1F7
100
AcDbSymbolTableRecord
100
AcDbLinetypeTableRecord
  2
PHANTOM
 70
64
  3
_____ _ _ _____ _ _ _____ _ _ _____
 72
65
 73
6
 40
0.8
 49
0.45
 74
0
 49
-0.05
 74
0
 49
0.1
 74
0
 49
-0.05
 74
0
 49
0.1
 74
0
 49
-0.05
 74
0
  0
LTYPE
  5
1F8
100
AcDbSymbolTableRecord
100
AcDbLinetypeTableRecord
  2
DOT
 70
64
  3
. . . . . . . . . . . . . . . . . . . .
 72
65
 73
2
 40
0.2
 49
0.1
 74
0
 49
-0.1
 74
0
  0
LTYPE
  5
1F9
100
AcDbSymbolTableRecord
100
AcDbLinetypeTableRecord
  2
DASHED
 70
64
  3
- - - - - - - - - - - - - - - - - - - -
 72
65
 73
2
 40
0.2
 49
0.1
 74
0
 49
-0.1
 74
0
  0
ENDTAB
  0
TABLE
  2
LAYER
  5
2
100
AcDbSymbolTable
 70
36
  0
LAYER
  5
10
100
AcDbSymbolTableRecord
100
AcDbLayerTableRecord
  2
0
 70
0
 62
7
  6
CONTINUOUS
370
-3
390
F
  0
LAYER
  5
1FA
100
AcDbSymbolTableRecord
100
AcDbLayerTableRecord
  2
DEFAULT_1
 70
0
 62
7
  6
CENTER
370
-3
390
F
  0
LAYER
  5
1FB
100
AcDbSymbolTableRecord
100
AcDbLayerTableRecord
  2
DEFAULT_2
 70
0
 62
7
  6
HIDDEN
370
-3
390
F
  0
LAYER
  5
1FC
100
AcDbSymbolTableRecord
100
AcDbLayerTableRecord
  2
DEFAULT_3
 70
0
 62
7
  6
PHANTOM
370
-3
390
F
  0
LAYER
  5
1FD
100
AcDbSymbolTableRecord
100
AcDbLayerTableRecord
  2
ASSI
 70
0
 62
7
  6
CONTINUOUS
370
-3
390
F
  0
LAYER
  5
1FE
100
AcDbSymbolTableRecord
100
AcDbLayerTableRecord
  2
COLOR9
 70
0
 62
7
  6
CONTINUOUS
370
-3
390
F
  0
LAYER
  5
1FF
100
AcDbSymbolTableRecord
100
AcDbLayerTableRecord
  2
COLORE_TOP
 70
0
 62
7
  6
CONTINUOUS
370
-3
390
F
  0
LAYER
  5
200
100
AcDbSymbolTableRecord
100
AcDbLayerTableRecord
  2
COORDINATE
 70
0
 62
7
  6
CONTINUOUS
370
-3
390
F
  0
LAYER
  5
201
100
AcDbSymbolTableRecord
100
AcDbLayerTableRecord
  2
COORD_ORIGINE
 70
0
 62
7
  6
CONTINUOUS
370
-3
390
F
  0
LAYER
  5
202
100
AcDbSymbolTableRecord
100
AcDbLayerTableRecord
  2
COPY
 70
0
 62
7
  6
CONTINUOUS
370
-3
390
F
  0
LAYER
  5
203
100
AcDbSymbolTableRecord
100
AcDbLayerTableRecord
  2
COPY_PUBLISH
 70
0
 62
7
  6
CONTINUOUS
370
-3
390
F
  0
LAYER
  5
204
100
AcDbSymbolTableRecord
100
AcDbLayerTableRecord
  2
COSMETIC
 70
0
 62
7
  6
CONTINUOUS
370
-3
390
F
  0
LAYER
  5
205
100
AcDbSymbolTableRecord
100
AcDbLayerTableRecord
  2
COSMETICHE
 70
0
 62
7
  6
CONTINUOUS
370
-3
390
F
  0
LAYER
  5
206
100
AcDbSymbolTableRecord
100
AcDbLayerTableRecord
  2
COSMETICI
 70
0
 62
7
  6
CONTINUOUS
370
-3
390
F
  0
LAYER
  5
207
100
AcDbSymbolTableRecord
100
AcDbLayerTableRecord
  2
CURVE
 70
0
 62
7
  6
CONTINUOUS
370
-3
390
F
  0
LAYER
  5
208
100
AcDbSymbolTableRecord
100
AcDbLayerTableRecord
  2
DRAFT
 70
0
 62
7
  6
CONTINUOUS
370
-3
390
F
  0
LAYER
  5
209
100
AcDbSymbolTableRecord
100
AcDbLayerTableRecord
  2
IGS
 70
0
 62
7
  6
CONTINUOUS
370
-3
390
F
  0
LAYER
  5
20A
100
AcDbSymbolTableRecord
100
AcDbLayerTableRecord
  2
IMPORT
 70
0
 62
7
  6
CONTINUOUS
370
-3
390
F
  0
LAYER
  5
20B
100
AcDbSymbolTableRecord
100
AcDbLayerTableRecord
  2
IMPORTED
 70
0
 62
7
  6
CONTINUOUS
370
-3
390
F
  0
LAYER
  5
20C
100
AcDbSymbolTableRecord
100
AcDbLayerTableRecord
  2
IMPORT_IGES
 70
0
 62
7
  6
CONTINUOUS
370
-3
390
F
  0
LAYER
  5
20D
100
AcDbSymbolTableRecord
100
AcDbLayerTableRecord
  2
INCISIONI_LASER
 70
0
 62
7
  6
CONTINUOUS
370
-3
390
F
  0
LAYER
  5
20E
100
AcDbSymbolTableRecord
100
AcDbLayerTableRecord
  2
NOTE
 70
0
 62
7
  6
CONTINUOUS
370
-3
390
F
  0
LAYER
  5
20F
100
AcDbSymbolTableRecord
100
AcDbLayerTableRecord
  2
PIANI
 70
0
 62
7
  6
CONTINUOUS
370
-3
390
F
  0
LAYER
  5
210
100
AcDbSymbolTableRecord
100
AcDbLayerTableRecord
  2
PIANI_ORIGINE
 70
0
 62
7
  6
CONTINUOUS
370
-3
390
F
  0
LAYER
  5
211
100
AcDbSymbolTableRecord
100
AcDbLayerTableRecord
  2
PIANI_RIFERIMENTO
 70
0
 62
7
  6
CONTINUOUS
370
-3
390
F
  0
LAYER
  5
212
100
AcDbSymbolTableRecord
100
AcDbLayerTableRecord
  2
PIANI_SFORMO
 70
0
 62
7
  6
CONTINUOUS
370
-3
390
F
  0
LAYER
  5
213
100
AcDbSymbolTableRecord
100
AcDbLayerTableRecord
  2
PUNTI
 70
0
 62
7
  6
CONTINUOUS
370
-3
390
F
  0
LAYER
  5
214
100
AcDbSymbolTableRecord
100
AcDbLayerTableRecord
  2
RACCORDO
 70
0
 62
7
  6
CONTINUOUS
370
-3
390
F
  0
LAYER
  5
215
100
AcDbSymbolTableRecord
100
AcDbLayerTableRecord
  2
SMUSSO
 70
0
 62
7
  6
CONTINUOUS
370
-3
390
F
  0
LAYER
  5
216
100
AcDbSymbolTableRecord
100
AcDbLayerTableRecord
  2
SNAPLINE
 70
0
 62
7
  6
CONTINUOUS
370
-3
390
F
  0
LAYER
  5
217
100
AcDbSymbolTableRecord
100
AcDbLayerTableRecord
  2
SUPERFICI
 70
0
 62
7
  6
CONTINUOUS
370
-3
390
F
  0
LAYER
  5
218
100
AcDbSymbolTableRecord
100
AcDbLayerTableRecord
  2
TRASH
 70
0
 62
7
  6
CONTINUOUS
370
-3
390
F
  0
LAYER
  5
219
100
AcDbSymbolTableRecord
100
AcDbLayerTableRecord
  2
XSEC_DATUMS
 70
0
 62
7
  6
CONTINUOUS
370
-3
390
F
  0
ENDTAB
  0
TABLE
  2
STYLE
  5
3
100
AcDbSymbolTable
 70
1
  0
STYLE
  5
11
100
AcDbSymbolTableRecord
100
AcDbTextStyleTableRecord
  2
STANDARD
 70
0
 40
0.0
 41
0.8
 50
0.0
 71
0
 42
0.2
  3
txt
  4

  0
STYLE
  5
21A
100
AcDbSymbolTableRecord
100
AcDbTextStyleTableRecord
  2
TEXTSTYLE_1
 70
0
 40
0.0
 41
0.8
 50
0.0
 71
0
 42
0.2
  3
gdt
  4

  0
ENDTAB
  0
TABLE
  2
VIEW
  5
6
100
AcDbSymbolTable
 70
0
  0
ENDTAB
  0
TABLE
  2
UCS
  5
7
100
AcDbSymbolTable
 70
0
  0
ENDTAB
  0
TABLE
  2
APPID
  5
9
100
AcDbSymbolTable
 70
1
  0
APPID
  5
21B
100
AcDbSymbolTableRecord
100
AcDbRegAppTableRecord
  2
ACAD
 70
0
  0
ENDTAB
  0
TABLE
  2
BLOCK_RECORD
  5
1
100
AcDbSymbolTable
 70
0
  0
BLOCK_RECORD
  5
21C
100
AcDbSymbolTableRecord
100
AcDbBlockTableRecord
  2
*Model_Space
  0
BLOCK_RECORD
  5
21D
100
AcDbSymbolTableRecord
100
AcDbBlockTableRecord
  2
*Paper_Space
  0
BLOCK_RECORD
  5
21E
100
AcDbSymbolTableRecord
100
AcDbBlockTableRecord
  2
_FILLED
  0
BLOCK_RECORD
  5
21F
100
AcDbSymbolTableRecord
100
AcDbBlockTableRecord
  2
*D0
  0
BLOCK_RECORD
  5
220
100
AcDbSymbolTableRecord
100
AcDbBlockTableRecord
  2
*D1
  0
BLOCK_RECORD
  5
221
100
AcDbSymbolTableRecord
100
AcDbBlockTableRecord
  2
*D2
  0
BLOCK_RECORD
  5
222
100
AcDbSymbolTableRecord
100
AcDbBlockTableRecord
  2
*D3
  0
ENDTAB
  0
TABLE
  2
DIMSTYLE
  5
A
100
AcDbSymbolTable
 70
1
100
AcDbDimStyleTable
 71
0
  0
DIMSTYLE
105
223
100
AcDbSymbolTableRecord
100
AcDbDimStyleTableRecord
  2
STANDARD
 70
0
  3

  4

 40
1.0
 41
3.0
 42
0.0625
 43
0.38
 44
0.18
 45
0.0
 46
0.0
 47
0.01
 48
0.01
140
3.0
141
0.09
142
0.0
143
25.4
144
1.0
145
0.0
146
1.0
147
0.09
 71
1.0
 72
0.0
 73
0
 74
0
 75
0
 76
0
 77
1
 78
8
170
0
171
2
172
0
173
0
174
0
175
0
176
0
177
0
178
0
270
2
271
2
272
2
273
2
274
2
275
0
280
0
281
0
282
0
283
1
284
8
285
0
286
0
287
3
288
0
340
11
341
21E
342
21E
343
21E
344
21E
  0
DIMSTYLE
105
224
100
AcDbSymbolTableRecord
100
AcDbDimStyleTableRecord
  2
DIMSTYLE_1
 70
0
  3

  4

 40
1.0
 41
3.0
 42
0.0625
 43
0.38
 44
0.18
 45
0.0
 46
0.0
 47
0.0
 48
0.0
140
3.0
141
0.09
142
0.0
143
25.4
144
1.0
145
0.0
146
1.0
147
0.09
 71
0.0
 72
0.0
 73
0
 74
0
 75
0
 76
0
 77
1
 78
8
170
0
171
2
172
0
173
0
174
0
175
0
176
0
177
0
178
0
270
2
271
2
272
2
273
2
274
2
275
0
280
0
281
0
282
0
283
1
284
8
285
0
286
0
287
3
288
0
340
11
341
21E
342
21E
343
21E
344
21E
  0
ENDTAB
  0
ENDSEC
  0
SECTION
  2
BLOCKS
  0
BLOCK
  5
20
100
AcDbEntity
  8
0
100
AcDbBlockBegin
  2
*Model_Space
 70
0
 10
0.0
 20
0.0
 30
0.0
  3
*Model_Space
  1

  0
ENDBLK
  5
21
100
AcDbEntity
  8
0
100
AcDbBlockEnd
  0
BLOCK
  5
1C
100
AcDbEntity
  8
0
100
AcDbBlockBegin
  2
*Paper_Space
 70
0
 10
0.0
 20
0.0
 30
0.0
  3
*Paper_Space
  1

  0
ENDBLK
  5
1D
100
AcDbEntity
  8
0
100
AcDbBlockEnd
  0
BLOCK
  5
225
100
AcDbEntity
  8
0
100
AcDbBlockBegin
  2
_FILLED
 70
64
 10
0.0
 20
0.0
  3
_FILLED
  1

  0
SOLID
  5
226
100
AcDbEntity
  8
0
  6
BYBLOCK
 62
0
100
AcDbTrace
 10
0.0
 20
0.0
 11
-1.0
 21
0.3166666667
 12
-1.0
 22
-0.3166666667
 13
-1.0
 23
-0.3166666667
  0
ENDBLK
  5
227
100
AcDbEntity
  8
0
  6
BYBLOCK
 62
0
100
AcDbBlockEnd
  0
BLOCK
  5
228
100
AcDbEntity
  8
0
100
AcDbBlockBegin
 62
7
  6
CONTINUOUS
  2
*D0
 70
65
 10
0.0
 20
0.0
  3
*D0
  1

  0
MTEXT
  5
229
100
AcDbEntity
  8
0
100
AcDbMText
 62
7
  6
CONTINUOUS
  7
STANDARD
 71
2
 72
1
 10
0.0497818813
 20
36.25
 30
0.0
 11
1.0
 21
0.0
 31
0.0
 44
0.9
  1
44,8
 40
3.0
 41
8.7857142857
  0
LINE
  5
22A
100
AcDbEntity
  8
0
100
AcDbLine
 62
7
  6
CONTINUOUS
 10
-22.3506544621
 20
22.400016923
 11
-22.3506544621
 21
34.0
  0
LINE
  5
22B
100
AcDbEntity
  8
0
100
AcDbLine
 62
7
  6
CONTINUOUS
 10
22.4502182247
 20
22.400016923
 11
22.4502182247
 21
34.0
  0
LINE
  5
22C
100
AcDbEntity
  8
0
100
AcDbLine
 62
7
  6
CONTINUOUS
 10
-22.3506544621
 20
32.5
 11
0.0497818813
 21
32.5
  0
LINE
  5
22D
100
AcDbEntity
  8
0
100
AcDbLine
 62
7
  6
CONTINUOUS
 10
22.4502182247
 20
32.5
 11
0.0497818813
 21
32.5
  0
INSERT
  5
22E
100
AcDbEntity
  8
0
100
AcDbBlockReference
 62
7
  6
CONTINUOUS
  2
_FILLED
 10
-22.3506544621
 20
32.5
 41
3.0
 42
3.0
 43
3.0
 50
180.0
  0
INSERT
  5
22F
100
AcDbEntity
  8
0
100
AcDbBlockReference
 62
7
  6
CONTINUOUS
  2
_FILLED
 10
22.4502182247
 20
32.5
 41
3.0
 42
3.0
 43
3.0
  0
ENDBLK
  5
230
100
AcDbEntity
  8
0
  6
BYBLOCK
 62
0
100
AcDbBlockEnd
  0
BLOCK
  5
231
100
AcDbEntity
  8
0
100
AcDbBlockBegin
 62
7
  6
CONTINUOUS
  2
*D1
 70
65
 10
0.0
 20
0.0
  3
*D1
  1

  0
MTEXT
  5
232
100
AcDbEntity
  8
0
100
AcDbMText
 62
7
  6
CONTINUOUS
  7
STANDARD
 71
2
 72
1
 10
26.7002182247
 20
-0.0
 30
0.0
 11
0.0
 21
1.0
 31
0.0
 44
0.9
  1
49
 40
3.0
 41
4.7142857143
  0
LINE
  5
233
100
AcDbEntity
  8
0
100
AcDbLine
 62
7
  6
CONTINUOUS
 10
19.2997776505
 20
24.5
 11
31.9502182247
 21
24.5
  0
LINE
  5
234
100
AcDbEntity
  8
0
100
AcDbLine
 62
7
  6
CONTINUOUS
 10
19.2997776505
 20
-24.5
 11
31.9502182247
 21
-24.5
  0
LINE
  5
235
100
AcDbEntity
  8
0
100
AcDbLine
 62
7
  6
CONTINUOUS
 10
30.4502182247
 20
24.5
 11
30.4502182247
 21
-0.0
  0
LINE
  5
236
100
AcDbEntity
  8
0
100
AcDbLine
 62
7
  6
CONTINUOUS
 10
30.4502182247
 20
-24.5
 11
30.4502182247
 21
-0.0
  0
INSERT
  5
237
100
AcDbEntity
  8
0
100
AcDbBlockReference
 62
7
  6
CONTINUOUS
  2
_FILLED
 10
30.4502182247
 20
24.5
 41
3.0
 42
3.0
 43
3.0
 50
90.0
  0
INSERT
  5
238
100
AcDbEntity
  8
0
100
AcDbBlockReference
 62
7
  6
CONTINUOUS
  2
_FILLED
 10
30.4502182247
 20
-24.5
 41
3.0
 42
3.0
 43
3.0
 50
270.0
  0
ENDBLK
  5
239
100
AcDbEntity
  8
0
  6
BYBLOCK
 62
0
100
AcDbBlockEnd
  0
BLOCK
  5
23A
100
AcDbEntity
  8
0
100
AcDbBlockBegin
 62
7
  6
CONTINUOUS
  2
*D2
 70
65
 10
0.0
 20
0.0
  3
*D2
  1

  0
MTEXT
  5
23B
100
AcDbEntity
  8
0
100
AcDbMText
 62
7
  6
CONTINUOUS
  7
STANDARD
 71
2
 72
1
 10
-41.2410263959
 20
36.25
 30
0.0
 11
1.0
 21
0.0
 31
0.0
 44
0.9
  1
26
 40
3.0
 41
4.7142857143
  0
LINE
  5
23C
100
AcDbEntity
  8
0
100
AcDbLine
 62
7
  6
CONTINUOUS
 10
-28.2410263959
 20
15.2803918503
 11
-28.2410263959
 21
34.0
  0
LINE
  5
23D
100
AcDbEntity
  8
0
100
AcDbLine
 62
7
  6
CONTINUOUS
 10
-54.2410263959
 20
22.400016923
 11
-54.2410263959
 21
34.0
  0
LINE
  5
23E
100
AcDbEntity
  8
0
100
AcDbLine
 62
7
  6
CONTINUOUS
 10
-28.2410263959
 20
32.5
 11
-41.2410263959
 21
32.5
  0
LINE
  5
23F
100
AcDbEntity
  8
0
100
AcDbLine
 62
7
  6
CONTINUOUS
 10
-54.2410263959
 20
32.5
 11
-41.2410263959
 21
32.5
  0
INSERT
  5
240
100
AcDbEntity
  8
0
100
AcDbBlockReference
 62
7
  6
CONTINUOUS
  2
_FILLED
 10
-28.2410263959
 20
32.5
 41
3.0
 42
3.0
 43
3.0
  0
INSERT
  5
241
100
AcDbEntity
  8
0
100
AcDbBlockReference
 62
7
  6
CONTINUOUS
  2
_FILLED
 10
-54.2410263959
 20
32.5
 41
3.0
 42
3.0
 43
3.0
 50
180.0
  0
ENDBLK
  5
242
100
AcDbEntity
  8
0
  6
BYBLOCK
 62
0
100
AcDbBlockEnd
  0
BLOCK
  5
243
100
AcDbEntity
  8
0
100
AcDbBlockBegin
 62
7
  6
CONTINUOUS
  2
*D3
 70
65
 10
0.0
 20
0.0
  3
*D3
  1

  0
MTEXT
  5
244
100
AcDbEntity
  8
0
100
AcDbMText
 62
7
  6
CONTINUOUS
  7
STANDARD
 71
2
 72
1
 10
-46.317055396
 20
46.25
 30
0.0
 11
1.0
 21
0.0
 31
0.0
 44
0.9
  1
36,15
 40
3.0
 41
10.0714285714
  0
LINE
  5
245
100
AcDbEntity
  8
0
100
AcDbLine
 62
7
  6
CONTINUOUS
 10
-64.393084396
 20
12.7997905716
 11
-64.393084396
 21
44.0
  0
LINE
  5
246
100
AcDbEntity
  8
0
100
AcDbLine
 62
7
  6
CONTINUOUS
 10
-28.2410263959
 20
14.0597736536
 11
-28.2410263959
 21
44.0
  0
LINE
  5
247
100
AcDbEntity
  8
0
100
AcDbLine
 62
7
  6
CONTINUOUS
 10
-64.393084396
 20
42.5
 11
-46.317055396
 21
42.5
  0
LINE
  5
248
100
AcDbEntity
  8
0
100
AcDbLine
 62
7
  6
CONTINUOUS
 10
-28.2410263959
 20
42.5
 11
-46.317055396
 21
42.5
  0
INSERT
  5
249
100
AcDbEntity
  8
0
100
AcDbBlockReference
 62
7
  6
CONTINUOUS
  2
_FILLED
 10
-64.393084396
 20
42.5
 41
3.0
 42
3.0
 43
3.0
 50
180.0
  0
INSERT
  5
24A
100
AcDbEntity
  8
0
100
AcDbBlockReference
 62
7
  6
CONTINUOUS
  2
_FILLED
 10
-28.2410263959
 20
42.5
 41
3.0
 42
3.0
 43
3.0
  0
ENDBLK
  5
24B
100
AcDbEntity
  8
0
  6
BYBLOCK
 62
0
100
AcDbBlockEnd
  0
ENDSEC
  0
SECTION
  2
ENTITIES
  0
DIMENSION
  5
24C
100
AcDbEntity
  8
0
100
AcDbDimension
 62
7
  6
CONTINUOUS
  2
*D0
 10
22.4502182247
 20
32.5
 11
-4.3430752616
 21
34.75
 70
160
 71
2
 42
44.8008726868
  3
DIMSTYLE_1
100
AcDbAlignedDimension
 13
-22.3506544621
 23
22.400016923
 14
22.4502182247
 24
22.400016923
100
AcDbRotatedDimension
  0
DIMENSION
  5
24D
100
AcDbEntity
  8
0
100
AcDbDimension
 62
7
  6
CONTINUOUS
  2
*D1
 10
30.4502182247
 20
-24.5
 11
29.2563917484
 21
-2.1072778499
 70
160
 71
2
 42
49.0
  3
DIMSTYLE_1
100
AcDbAlignedDimension
 13
19.2997776505
 23
24.5
 14
19.2997776505
 24
-24.5
 50
270.0
100
AcDbRotatedDimension
  0
DIMENSION
  5
24E
100
AcDbEntity
  8
0
100
AcDbDimension
 62
7
  6
CONTINUOUS
  2
*D2
 10
-54.2410263959
 20
32.5
 11
-43.5981692531
 21
34.75
 70
160
 71
2
 42
26.0
  3
DIMSTYLE_1
100
AcDbAlignedDimension
 13
-28.2410263959
 23
15.2803918503
 14
-54.2410263959
 24
22.400016923
 50
180.0
100
AcDbRotatedDimension
  0
DIMENSION
  5
24F
100
AcDbEntity
  8
0
100
AcDbDimension
 62
7
  6
CONTINUOUS
  2
*D3
 10
-28.2410263959
 20
42.5
 11
-51.3527696817
 21
44.75
 70
160
 71
2
 42
36.1520580001
  3
DIMSTYLE_1
100
AcDbAlignedDimension
 13
-64.393084396
 23
12.7997905716
 14
-28.2410263959
 24
14.0597736536
100
AcDbRotatedDimension
  0
LWPOLYLINE
  5
250
100
AcDbEntity
  8
RACCORDO
100
AcDbPolyline
 62
7
  6
CONTINUOUS
 90
26
 70
0
 10
-21.8499899509
 20
-21.907017594
 10
-21.8432338419
 20
-21.9136443875
 10
-21.8312960782
 20
-21.9247656208
 10
-21.8189920516
 20
-21.9355008612
 10
-21.8063370074
 20
-21.9458352065
 10
-21.7933439022
 20
-21.9557567882
 10
-21.7800257696
 20
-21.9652544009
 10
-21.766399089
 20
-21.9743152646
 10
-21.75247805
 20
-21.9829291443
 10
-21.7382771419
 20
-21.9910862933
 10
-21.7238142046
 20
-21.9987758884
 10
-21.7091046288
 20
-22.0059893736
 10
-21.694163948
 20
-22.0127187668
 10
-21.679010947
 20
-22.018955414
 10
-21.6636619405
 20
-22.0246925825
 10
-21.64813329
 20
-22.0299241409
 10
-21.6324443961
 20
-22.0346436829
 10
-21.6166121407
 20
-22.0388464066
 10
-21.600653564
 20
-22.042528064
 10
-21.5845886752
 20
-22.04568446
 10
-21.5684347818
 20
-22.0483127583
 10
-21.5522092517
 20
-22.0504106953
 10
-21.5359323859
 20
-22.0519763494
 10
-21.5196226124
 20
-22.0530088393
 10
-21.5032964258
 20
-22.0535080107
 10
-21.4961708121
 20
-22.0535587533
  0
LINE
  5
251
100
AcDbEntity
  8
RACCORDO
100
AcDbLine
 62
7
  6
CONTINUOUS
 10
-21.9540846295
 20
-21.8029229641
 11
-21.8499899669
 21
-21.9070176101
  0
LINE
  5
252
100
AcDbEntity
  8
RACCORDO
100
AcDbLine
 62
253
  6
CONTINUOUS
 10
-22.1002181187
 20
-21.450196354
 11
-21.9963418237
 21
-21.554072649
  0
LINE
  5
253
100
AcDbEntity
  8
0
100
AcDbLine
 62
253
  6
CONTINUOUS
 10
-18.7133124666
 20
24.4869014213
 11
-18.7002138879
 21
24.5
  0
LINE
  5
254
100
AcDbEntity
  8
0
100
AcDbLine
 62
253
  6
CONTINUOUS
 10
-18.4633166974
 20
24.2369056521
 11
-18.4502181187
 21
24.2500042308
  0
LINE
  5
255
100
AcDbEntity
  8
0
100
AcDbLine
 62
253
  6
CONTINUOUS
 10
-18.7133124666
 20
-24.4869014213
 11
-18.7002138879
 21
-24.5
  0
LINE
  5
256
100
AcDbEntity
  8
0
100
AcDbLine
 62
253
  6
CONTINUOUS
 10
-18.4633166974
 20
-24.2369056521
 11
-18.4502181187
 21
-24.2500042308
  0
LINE
  5
257
100
AcDbEntity
  8
0
100
AcDbLine
 62
7
  6
CONTINUOUS
 10
-21.1002223495
 20
-24.5
 11
-18.7002138879
 21
-24.5
  0
LINE
  5
258
100
AcDbEntity
  8
0
100
AcDbLine
 62
7
  6
CONTINUOUS
 10
-3.7002223495
 20
-24.5
 11
-1.3002138879
 21
-24.5
  0
LINE
  5
259
100
AcDbEntity
  8
0
100
AcDbLine
 62
7
  6
CONTINUOUS
 10
1.3997776505
 20
-24.5
 11
3.7997861121
 21
-24.5
  0
LINE
  5
25A
100
AcDbEntity
  8
0
100
AcDbLine
 62
7
  6
CONTINUOUS
 10
18.7997776505
 20
-24.5
 11
21.1997861121
 21
-24.5
  0
LINE
  5
25B
100
AcDbEntity
  8
0
100
AcDbLine
 62
7
  6
CONTINUOUS
 10
-21.0871237708
 20
-24.4869014213
 11
-18.7133124666
 21
-24.4869014213
  0
LINE
  5
25C
100
AcDbEntity
  8
0
100
AcDbLine
 62
7
  6
CONTINUOUS
 10
-3.6871237708
 20
-24.4869014213
 11
-1.3133124666
 21
-24.4869014213
  0
LINE
  5
25D
100
AcDbEntity
  8
0
100
AcDbLine
 62
253
  6
CONTINUOUS
 10
1.4128762292
 20
-24.4869014213
 11
3.7866875334
 21
-24.4869014213
  0
LINE
  5
25E
100
AcDbEntity
  8
0
100
AcDbLine
 62
253
  6
CONTINUOUS
 10
18.8128762292
 20
-24.4869014213
 11
21.1866875334
 21
-24.4869014213
  0
LINE
  5
25F
100
AcDbEntity
  8
0
100
AcDbLine
 62
253
  6
CONTINUOUS
 10
1.16288046
 20
-24.2369056521
 11
4.0366833026
 21
-24.2369056521
  0
LINE
  5
260
100
AcDbEntity
  8
0
100
AcDbLine
 62
253
  6
CONTINUOUS
 10
-1.0633166974
 20
-24.2369056521
 11
-3.93711954
 21
-24.2369056521
  0
LINE
  5
261
100
AcDbEntity
  8
0
100
AcDbLine
 62
253
  6
CONTINUOUS
 10
18.56288046
 20
-24.2369056521
 11
21.4366833026
 21
-24.2369056521
  0
LINE
  5
262
100
AcDbEntity
  8
0
100
AcDbLine
 62
253
  6
CONTINUOUS
 10
-18.4633166974
 20
-24.2369056521
 11
-21.33711954
 21
-24.2369056521
  0
LINE
  5
263
100
AcDbEntity
  8
0
100
AcDbLine
 62
7
  6
CONTINUOUS
 10
-22.3231627681
 20
16.6
 11
-22.2952346642
 21
0.0
  0
LINE
  5
264
100
AcDbEntity
  8
0
100
AcDbLine
 62
7
  6
CONTINUOUS
 10
-22.3506544621
 20
21.900016923
 11
-22.3506544621
 21
-21.900016923
  0
LINE
  5
265
100
AcDbEntity
  8
RACCORDO
100
AcDbLine
 62
7
  6
CONTINUOUS
 10
-22.3502181187
 20
-17.6716990487
 11
-22.3502181187
 21
17.6716990487
  0
LINE
  5
266
100
AcDbEntity
  8
0
100
AcDbLine
 62
7
  6
CONTINUOUS
 10
-22.3231627681
 20
21.821159479
 11
-22.3231627681
 21
16.6
  0
LINE
  5
267
100
AcDbEntity
  8
0
100
AcDbLine
 62
7
  6
CONTINUOUS
 10
-22.3231627681
 20
-16.6
 11
-22.3231627681
 21
-21.821159479
  0
LINE
  5
268
100
AcDbEntity
  8
RACCORDO
100
AcDbLine
 62
7
  6
CONTINUOUS
 10
-22.1002181187
 20
-21.450196354
 11
-22.1002181187
 21
21.6909417528
  0
LINE
  5
269
100
AcDbEntity
  8
0
100
AcDbLine
 62
7
  6
CONTINUOUS
 10
-22.2952346642
 20
0.0
 11
-22.3231627681
 21
-16.6
  0
LWPOLYLINE
  5
26A
100
AcDbEntity
  8
RACCORDO
100
AcDbPolyline
 62
7
  6
CONTINUOUS
 90
26
 70
0
 10
21.5957345756
 20
-22.0535587533
 10
21.6026607481
 20
-22.0535108115
 10
21.6187872845
 20
-22.0530274062
 10
21.6348978317
 20
-22.0520236865
 10
21.6509764524
 20
-22.0504998289
 10
21.6670054385
 20
-22.0484566936
 10
21.6829653656
 20
-22.0458961089
 10
21.6988395004
 20
-22.0428202397
 10
21.714611167
 20
-22.0392317956
 10
21.7302612136
 20
-22.0351347422
 10
21.7457732134
 20
-22.0305331197
 10
21.7611308881
 20
-22.0254314959
 10
21.7763156502
 20
-22.0198359167
 10
21.7913116998
 20
-22.0137522078
 10
21.8061032922
 20
-22.0071867615
 10
21.8206724234
 20
-22.0001477315
 10
21.835004077
 20
-21.9926426885
 10
21.8490833516
 20
-21.9846797586
 10
21.8628930869
 20
-21.9762691548
 10
21.8764192238
 20
-21.9674201328
 10
21.8896479917
 20
-21.9581424114
 10
21.9025635011
 20
-21.9484480493
 10
21.9151530363
 20
-21.9383477087
 10
21.9274039836
 20
-21.9278526582
 10
21.9393016309
 20
-21.9169769259
 10
21.9495677157
 20
-21.9070035973
  0
LINE
  5
26B
100
AcDbEntity
  8
0
100
AcDbLine
 62
7
  6
CONTINUOUS
 10
15.7497818813
 20
-24.0
 11
12.4997818813
 21
-24.0
  0
LINE
  5
26C
100
AcDbEntity
  8
0
100
AcDbLine
 62
7
  6
CONTINUOUS
 10
10.0997818813
 20
-24.0
 11
6.8497818813
 21
-24.0
  0
LINE
  5
26D
100
AcDbEntity
  8
0
100
AcDbLine
 62
7
  6
CONTINUOUS
 10
-6.7502181187
 20
-24.0
 11
-7.7002181187
 21
-24.0
  0
LINE
  5
26E
100
AcDbEntity
  8
0
100
AcDbLine
 62
7
  6
CONTINUOUS
 10
-14.7002181187
 20
-24.0
 11
-15.6502181187
 21
-24.0
  0
LINE
  5
26F
100
AcDbEntity
  8
0
100
AcDbLine
 62
7
  6
CONTINUOUS
 10
-14.7002181187
 20
-23.9982478817
 11
-12.4002181187
 21
-23.9982478817
  0
LINE
  5
270
100
AcDbEntity
  8
0
100
AcDbLine
 62
7
  6
CONTINUOUS
 10
-10.0002181187
 20
-23.9982478817
 11
-7.7002181187
 21
-23.9982478817
  0
LINE
  5
271
100
AcDbEntity
  8
0
100
AcDbLine
 62
253
  6
CONTINUOUS
 10
7.7997818813
 20
-23.9982478817
 11
10.0997818813
 21
-23.9982478817
  0
LINE
  5
272
100
AcDbEntity
  8
0
100
AcDbLine
 62
253
  6
CONTINUOUS
 10
12.4997818813
 20
-23.9982478817
 11
14.7997818813
 21
-23.9982478817
  0
LINE
  5
273
100
AcDbEntity
  8
0
100
AcDbLine
 62
7
  6
CONTINUOUS
 10
15.7410551366
 20
-23.9912732553
 11
14.7997818813
 21
-23.9912732553
  0
LINE
  5
274
100
AcDbEntity
  8
0
100
AcDbLine
 62
7
  6
CONTINUOUS
 10
7.7997818813
 20
-23.9912732553
 11
6.858508626
 21
-23.9912732553
  0
LINE
  5
275
100
AcDbEntity
  8
0
100
AcDbLine
 62
7
  6
CONTINUOUS
 10
-6.7589448634
 20
-23.9912732553
 11
-7.7002181187
 21
-23.9912732553
  0
LINE
  5
276
100
AcDbEntity
  8
0
100
AcDbLine
 62
7
  6
CONTINUOUS
 10
-14.7002181187
 20
-23.9912732553
 11
-15.641491374
 21
-23.9912732553
  0
LINE
  5
277
100
AcDbEntity
  8
0
100
AcDbLine
 62
253
  6
CONTINUOUS
 10
1.16288046
 20
-23.8443375673
 11
4.0366833026
 21
-23.8443375673
  0
LINE
  5
278
100
AcDbEntity
  8
0
100
AcDbLine
 62
253
  6
CONTINUOUS
 10
-1.0633166974
 20
-23.8443375673
 11
-3.93711954
 21
-23.8443375673
  0
LINE
  5
279
100
AcDbEntity
  8
0
100
AcDbLine
 62
253
  6
CONTINUOUS
 10
18.56288046
 20
-23.8443375673
 11
21.4366833026
 21
-23.8443375673
  0
LINE
  5
27A
100
AcDbEntity
  8
0
100
AcDbLine
 62
253
  6
CONTINUOUS
 10
-18.4633166974
 20
-23.8443375673
 11
-21.33711954
 21
-23.8443375673
  0
LINE
  5
27B
100
AcDbEntity
  8
0
100
AcDbLine
 62
253
  6
CONTINUOUS
 10
-14.7002181187
 20
-23.7982512664
 11
-12.2002181187
 21
-23.7982512664
  0
LINE
  5
27C
100
AcDbEntity
  8
0
100
AcDbLine
 62
253
  6
CONTINUOUS
 10
7.7997818813
 20
-23.7982512664
 11
10.2997818813
 21
-23.7982512664
  0
LINE
  5
27D
100
AcDbEntity
  8
0
100
AcDbLine
 62
253
  6
CONTINUOUS
 10
-7.7002181187
 20
-23.7982512664
 11
-10.2002181187
 21
-23.7982512664
  0
LINE
  5
27E
100
AcDbEntity
  8
0
100
AcDbLine
 62
253
  6
CONTINUOUS
 10
12.2997818813
 20
-23.7982512664
 11
14.7997818813
 21
-23.7982512664
  0
LINE
  5
27F
100
AcDbEntity
  8
0
100
AcDbLine
 62
253
  6
CONTINUOUS
 10
21.1866875334
 20
-23.6278312164
 11
18.8128762292
 21
-23.6278312164
  0
LINE
  5
280
100
AcDbEntity
  8
0
100
AcDbLine
 62
253
  6
CONTINUOUS
 10
3.7866875334
 20
-23.6278312164
 11
1.4128762292
 21
-23.6278312164
  0
LINE
  5
281
100
AcDbEntity
  8
0
100
AcDbLine
 62
253
  6
CONTINUOUS
 10
-1.3133124666
 20
-23.6278312164
 11
-3.6871237708
 21
-23.6278312164
  0
LINE
  5
282
100
AcDbEntity
  8
0
100
AcDbLine
 62
253
  6
CONTINUOUS
 10
-18.7133124666
 20
-23.6278312164
 11
-21.0871237708
 21
-23.6278312164
  0
LINE
  5
283
100
AcDbEntity
  8
0
100
AcDbLine
 62
7
  6
CONTINUOUS
 10
-21.0929416006
 20
-23.1226497308
 11
-18.7074946368
 21
-23.1226497308
  0
LINE
  5
284
100
AcDbEntity
  8
0
100
AcDbLine
 62
7
  6
CONTINUOUS
 10
21.1925053632
 20
-23.1226497308
 11
18.8070583994
 21
-23.1226497308
  0
LINE
  5
285
100
AcDbEntity
  8
0
100
AcDbLine
 62
7
  6
CONTINUOUS
 10
1.4070583994
 20
-23.1226497308
 11
3.7925053632
 21
-23.1226497308
  0
LINE
  5
286
100
AcDbEntity
  8
0
100
AcDbLine
 62
7
  6
CONTINUOUS
 10
-1.3074946368
 20
-23.1226497308
 11
-3.6929416006
 21
-23.1226497308
  0
LINE
  5
287
100
AcDbEntity
  8
0
100
AcDbLine
 62
7
  6
CONTINUOUS
 10
-12.2002181187
 20
-22.4
 11
-10.2002181187
 21
-22.4
  0
LINE
  5
288
100
AcDbEntity
  8
0
100
AcDbLine
 62
7
  6
CONTINUOUS
 10
12.2997818813
 20
-22.4
 11
10.2997818813
 21
-22.4
  0
LINE
  5
289
100
AcDbEntity
  8
0
100
AcDbLine
 62
7
  6
CONTINUOUS
 10
0.6493391918
 20
-22.4
 11
1.1497818813
 21
-22.4
  0
LINE
  5
28A
100
AcDbEntity
  8
0
100
AcDbLine
 62
7
  6
CONTINUOUS
 10
-0.5507102722
 20
-22.4
 11
-1.0502181187
 21
-22.4
  0
LINE
  5
28B
100
AcDbEntity
  8
0
100
AcDbLine
 62
7
  6
CONTINUOUS
 10
4.0497818813
 20
-22.4
 11
6.8497818813
 21
-22.4
  0
LINE
  5
28C
100
AcDbEntity
  8
0
100
AcDbLine
 62
7
  6
CONTINUOUS
 10
-3.9502181187
 20
-22.4
 11
-6.7502181187
 21
-22.4
  0
LINE
  5
28D
100
AcDbEntity
  8
0
100
AcDbLine
 62
7
  6
CONTINUOUS
 10
15.7497818813
 20
-22.4
 11
18.5497818813
 21
-22.4
  0
LINE
  5
28E
100
AcDbEntity
  8
0
100
AcDbLine
 62
7
  6
CONTINUOUS
 10
-15.6502181187
 20
-22.4
 11
-18.4502181187
 21
-22.4
  0
LINE
  5
28F
100
AcDbEntity
  8
0
100
AcDbLine
 62
7
  6
CONTINUOUS
 10
21.4497818813
 20
-22.4
 11
21.9502245708
 21
-22.4
  0
LINE
  5
290
100
AcDbEntity
  8
0
100
AcDbLine
 62
7
  6
CONTINUOUS
 10
-21.3502181187
 20
-22.4
 11
-21.8497259652
 21
-22.4
  0
LINE
  5
291
100
AcDbEntity
  8
0
100
AcDbLine
 62
7
  6
CONTINUOUS
 10
7.7997818813
 20
-22.3737961104
 11
10.0997818813
 21
-22.3737961104
  0
LINE
  5
292
100
AcDbEntity
  8
0
100
AcDbLine
 62
7
  6
CONTINUOUS
 10
-7.7002181187
 20
-22.3737961104
 11
-10.0002181187
 21
-22.3737961104
  0
LINE
  5
293
100
AcDbEntity
  8
0
100
AcDbLine
 62
7
  6
CONTINUOUS
 10
12.4997818813
 20
-22.3737961104
 11
14.7997818813
 21
-22.3737961104
  0
LINE
  5
294
100
AcDbEntity
  8
0
100
AcDbLine
 62
7
  6
CONTINUOUS
 10
-12.4002181187
 20
-22.3737961104
 11
-14.7002181187
 21
-22.3737961104
  0
LINE
  5
295
100
AcDbEntity
  8
0
100
AcDbLine
 62
7
  6
CONTINUOUS
 10
0.6764566322
 20
-22.3213883311
 11
1.4070583994
 21
-22.3213883311
  0
LINE
  5
296
100
AcDbEntity
  8
0
100
AcDbLine
 62
7
  6
CONTINUOUS
 10
-0.5768928696
 20
-22.3213883311
 11
-1.3074946368
 21
-22.3213883311
  0
LINE
  5
297
100
AcDbEntity
  8
0
100
AcDbLine
 62
7
  6
CONTINUOUS
 10
3.7925053632
 20
-22.3213883311
 11
6.858508626
 21
-22.3213883311
  0
LINE
  5
298
100
AcDbEntity
  8
0
100
AcDbLine
 62
7
  6
CONTINUOUS
 10
-3.6929416006
 20
-22.3213883311
 11
-6.7589448634
 21
-22.3213883311
  0
LINE
  5
299
100
AcDbEntity
  8
0
100
AcDbLine
 62
7
  6
CONTINUOUS
 10
7.7997818813
 20
-22.3213883311
 11
14.7997818813
 21
-22.3213883311
  0
LINE
  5
29A
100
AcDbEntity
  8
0
100
AcDbLine
 62
7
  6
CONTINUOUS
 10
-7.7002181187
 20
-22.3213883311
 11
-14.7002181187
 21
-22.3213883311
  0
LINE
  5
29B
100
AcDbEntity
  8
0
100
AcDbLine
 62
7
  6
CONTINUOUS
 10
15.7410551366
 20
-22.3213883311
 11
18.8070583994
 21
-22.3213883311
  0
LINE
  5
29C
100
AcDbEntity
  8
0
100
AcDbLine
 62
7
  6
CONTINUOUS
 10
-15.641491374
 20
-22.3213883311
 11
-18.7074946368
 21
-22.3213883311
  0
LINE
  5
29D
100
AcDbEntity
  8
0
100
AcDbLine
 62
7
  6
CONTINUOUS
 10
21.1925053632
 20
-22.3213883311
 11
21.9231071304
 21
-22.3213883311
  0
LINE
  5
29E
100
AcDbEntity
  8
0
100
AcDbLine
 62
7
  6
CONTINUOUS
 10
-21.0929416006
 20
-22.3213883311
 11
-21.8235433678
 21
-22.3213883311
  0
LINE
  5
29F
100
AcDbEntity
  8
RACCORDO
100
AcDbLine
 62
7
  6
CONTINUOUS
 10
21.5957350188
 20
-22.0535589887
 11
-21.4961712562
 21
-22.0535589887
  0
LINE
  5
2A0
100
AcDbEntity
  8
0
100
AcDbLine
 62
253
  6
CONTINUOUS
 10
-21.33711954
 20
-23.8443375673
 11
-21.3429373698
 21
-23.2669872981
  0
LINE
  5
2A1
100
AcDbEntity
  8
0
100
AcDbLine
 62
253
  6
CONTINUOUS
 10
-21.0871237708
 20
-23.6278312164
 11
-21.0922143718
 21
-23.1226497308
  0
LINE
  5
2A2
100
AcDbEntity
  8
0
100
AcDbLine
 62
7
  6
CONTINUOUS
 10
-21.3502181187
 20
-22.4
 11
-21.3502181187
 21
-24.2500042308
  0
LINE
  5
2A3
100
AcDbEntity
  8
0
100
AcDbLine
 62
7
  6
CONTINUOUS
 10
-21.3502181187
 20
22.4
 11
-21.3502181187
 21
24.2500042308
  0
LINE
  5
2A4
100
AcDbEntity
  8
0
100
AcDbLine
 62
7
  6
CONTINUOUS
 10
-21.3429373698
 20
23.2669872981
 11
-21.3429373698
 21
22.3344140523
  0
LINE
  5
2A5
100
AcDbEntity
  8
0
100
AcDbLine
 62
7
  6
CONTINUOUS
 10
-21.3429373698
 20
-22.3344140523
 11
-21.3429373698
 21
-23.2669872981
  0
LINE
  5
2A6
100
AcDbEntity
  8
0
100
AcDbLine
 62
7
  6
CONTINUOUS
 10
-21.33711954
 20
24.2369056521
 11
-21.33711954
 21
23.8443375673
  0
LINE
  5
2A7
100
AcDbEntity
  8
0
100
AcDbLine
 62
7
  6
CONTINUOUS
 10
-21.33711954
 20
-23.8443375673
 11
-21.33711954
 21
-24.2369056521
  0
LINE
  5
2A8
100
AcDbEntity
  8
0
100
AcDbLine
 62
253
  6
CONTINUOUS
 10
-21.0929416006
 20
23.1226497308
 11
-21.0929416006
 21
22.3213883311
  0
LINE
  5
2A9
100
AcDbEntity
  8
0
100
AcDbLine
 62
253
  6
CONTINUOUS
 10
-21.0929416006
 20
-22.3213883311
 11
-21.0929416006
 21
-23.1226497308
  0
LINE
  5
2AA
100
AcDbEntity
  8
0
100
AcDbLine
 62
253
  6
CONTINUOUS
 10
-21.0871237708
 20
-23.6278312164
 11
-21.0871237708
 21
-24.4869014213
  0
LINE
  5
2AB
100
AcDbEntity
  8
0
100
AcDbLine
 62
253
  6
CONTINUOUS
 10
-21.0871237708
 20
23.6278312164
 11
-21.0871237708
 21
24.4869014213
  0
LINE
  5
2AC
100
AcDbEntity
  8
0
100
AcDbLine
 62
253
  6
CONTINUOUS
 10
-21.3429373698
 20
23.2669872981
 11
-21.33711954
 21
23.8443375673
  0
LINE
  5
2AD
100
AcDbEntity
  8
0
100
AcDbLine
 62
253
  6
CONTINUOUS
 10
-21.0922143718
 20
23.1226497308
 11
-21.0871237708
 21
23.6278312164
  0
LINE
  5
2AE
100
AcDbEntity
  8
0
100
AcDbLine
 62
7
  6
CONTINUOUS
 10
-6.7502181187
 20
24.0
 11
-6.7589448634
 21
23.9912732553
  0
LINE
  5
2AF
100
AcDbEntity
  8
RACCORDO
100
AcDbLine
 62
253
  6
CONTINUOUS
 10
21.5834716447
 20
-21.253499454
 11
-21.4839078821
 21
-21.253499454
  0
LINE
  5
2B0
100
AcDbEntity
  8
0
100
AcDbLine
 62
7
  6
CONTINUOUS
 10
-6.7502181187
 20
-24.0
 11
-6.7589448634
 21
-23.9912732553
  0
LINE
  5
2B1
100
AcDbEntity
  8
0
100
AcDbLine
 62
253
  6
CONTINUOUS
 10
-18.7133124666
 20
23.6278312164
 11
-18.7082218655
 21
23.1226497308
  0
LINE
  5
2B2
100
AcDbEntity
  8
0
100
AcDbLine
 62
253
  6
CONTINUOUS
 10
-18.4633166974
 20
23.8443375673
 11
-18.4574988676
 21
23.2669872981
  0
LINE
  5
2B3
100
AcDbEntity
  8
0
100
AcDbLine
 62
253
  6
CONTINUOUS
 10
-18.7133124666
 20
-23.6278312164
 11
-18.7133124666
 21
-24.4869014213
  0
LINE
  5
2B4
100
AcDbEntity
  8
0
100
AcDbLine
 62
253
  6
CONTINUOUS
 10
-18.7133124666
 20
23.6278312164
 11
-18.7133124666
 21
24.4869014213
  0
LINE
  5
2B5
100
AcDbEntity
  8
0
100
AcDbLine
 62
253
  6
CONTINUOUS
 10
-18.7074946368
 20
-23.1226497308
 11
-18.7074946368
 21
-22.3213883311
  0
LINE
  5
2B6
100
AcDbEntity
  8
0
100
AcDbLine
 62
253
  6
CONTINUOUS
 10
-18.7074946368
 20
22.3213883311
 11
-18.7074946368
 21
23.1226497308
  0
LINE
  5
2B7
100
AcDbEntity
  8
0
100
AcDbLine
 62
7
  6
CONTINUOUS
 10
-18.4633166974
 20
-24.2369056521
 11
-18.4633166974
 21
-23.8443375673
  0
LINE
  5
2B8
100
AcDbEntity
  8
0
100
AcDbLine
 62
7
  6
CONTINUOUS
 10
-18.4633166974
 20
23.8443375673
 11
-18.4633166974
 21
24.2369056521
  0
LINE
  5
2B9
100
AcDbEntity
  8
0
100
AcDbLine
 62
7
  6
CONTINUOUS
 10
-18.4574988676
 20
-23.2669872981
 11
-18.4574988676
 21
-22.3344140523
  0
LINE
  5
2BA
100
AcDbEntity
  8
0
100
AcDbLine
 62
7
  6
CONTINUOUS
 10
-18.4574988676
 20
22.3344140523
 11
-18.4574988676
 21
23.2669872981
  0
LINE
  5
2BB
100
AcDbEntity
  8
0
100
AcDbLine
 62
7
  6
CONTINUOUS
 10
-18.4502181187
 20
-22.4
 11
-18.4502181187
 21
-24.2500042308
  0
LINE
  5
2BC
100
AcDbEntity
  8
0
100
AcDbLine
 62
7
  6
CONTINUOUS
 10
-18.4502181187
 20
22.4
 11
-18.4502181187
 21
24.2500042308
  0
LINE
  5
2BD
100
AcDbEntity
  8
0
100
AcDbLine
 62
253
  6
CONTINUOUS
 10
-18.7082218655
 20
-23.1226497308
 11
-18.7133124666
 21
-23.6278312164
  0
LINE
  5
2BE
100
AcDbEntity
  8
0
100
AcDbLine
 62
253
  6
CONTINUOUS
 10
-18.4574988676
 20
-23.2669872981
 11
-18.4633166974
 21
-23.8443375673
  0
LINE
  5
2BF
100
AcDbEntity
  8
0
100
AcDbLine
 62
253
  6
CONTINUOUS
 10
-1.3133124666
 20
24.4869014213
 11
-1.3002138879
 21
24.5
  0
LINE
  5
2C0
100
AcDbEntity
  8
0
100
AcDbLine
 62
253
  6
CONTINUOUS
 10
-1.0633166974
 20
24.2369056521
 11
-1.0502181187
 21
24.2500042308
  0
LINE
  5
2C1
100
AcDbEntity
  8
0
100
AcDbLine
 62
253
  6
CONTINUOUS
 10
-1.3133124666
 20
-24.4869014213
 11
-1.3002138879
 21
-24.5
  0
LINE
  5
2C2
100
AcDbEntity
  8
0
100
AcDbLine
 62
253
  6
CONTINUOUS
 10
-1.0633166974
 20
-24.2369056521
 11
-1.0502181187
 21
-24.2500042308
  0
LINE
  5
2C3
100
AcDbEntity
  8
0
100
AcDbLine
 62
7
  6
CONTINUOUS
 10
-15.6502181187
 20
-22.4
 11
-15.6502181187
 21
-24.0
  0
LINE
  5
2C4
100
AcDbEntity
  8
0
100
AcDbLine
 62
7
  6
CONTINUOUS
 10
-15.6502181187
 20
22.4
 11
-15.6502181187
 21
24.0
  0
LINE
  5
2C5
100
AcDbEntity
  8
0
100
AcDbLine
 62
7
  6
CONTINUOUS
 10
-15.641491374
 20
23.9912732553
 11
-15.641491374
 21
22.3213883311
  0
LINE
  5
2C6
100
AcDbEntity
  8
0
100
AcDbLine
 62
7
  6
CONTINUOUS
 10
-15.641491374
 20
-22.3213883311
 11
-15.641491374
 21
-23.9912732553
  0
LINE
  5
2C7
100
AcDbEntity
  8
DRAFT
100
AcDbLine
 62
7
  6
CONTINUOUS
 10
-22.3231627681
 20
-16.6
 11
-22.1002181187
 21
-16.6
  0
LINE
  5
2C8
100
AcDbEntity
  8
RACCORDO
100
AcDbLine
 62
7
  6
CONTINUOUS
 10
22.4227265307
 20
-16.6
 11
22.1997818813
 21
-16.6
  0
LINE
  5
2C9
100
AcDbEntity
  8
0
100
AcDbLine
 62
7
  6
CONTINUOUS
 10
-14.7002181187
 20
-23.9912732553
 11
-14.7002181187
 21
-22.3213883311
  0
LINE
  5
2CA
100
AcDbEntity
  8
0
100
AcDbLine
 62
7
  6
CONTINUOUS
 10
-14.7002181187
 20
22.3213883311
 11
-14.7002181187
 21
23.9912732553
  0
LINE
  5
2CB
100
AcDbEntity
  8
0
100
AcDbLine
 62
7
  6
CONTINUOUS
 10
-15.6502181187
 20
-22.4
 11
-15.641491374
 21
-22.3213883311
  0
LINE
  5
2CC
100
AcDbEntity
  8
0
100
AcDbLine
 62
253
  6
CONTINUOUS
 10
-22.3493457642
 20
-21.8997723451
 11
-22.3231627681
 21
-21.821159479
  0
LINE
  5
2CD
100
AcDbEntity
  8
0
100
AcDbLine
 62
253
  6
CONTINUOUS
 10
-21.8497259652
 20
-22.4
 11
-21.8235433678
 21
-22.3213883311
  0
LINE
  5
2CE
100
AcDbEntity
  8
0
100
AcDbLine
 62
253
  6
CONTINUOUS
 10
3.7866875334
 20
24.4869014213
 11
3.7997861121
 21
24.5
  0
LINE
  5
2CF
100
AcDbEntity
  8
0
100
AcDbLine
 62
253
  6
CONTINUOUS
 10
4.0366833026
 20
24.2369056521
 11
4.0497818813
 21
24.2500042308
  0
LINE
  5
2D0
100
AcDbEntity
  8
DRAFT
100
AcDbLine
 62
7
  6
CONTINUOUS
 10
-14.8002182731
 20
-13.164054613
 11
-13.5502182447
 21
-13.164054613
  0
LINE
  5
2D1
100
AcDbEntity
  8
DRAFT
100
AcDbLine
 62
7
  6
CONTINUOUS
 10
-11.9502181311
 20
-13.164054613
 11
-10.4502180947
 21
-13.164054613
  0
LINE
  5
2D2
100
AcDbEntity
  8
DRAFT
100
AcDbLine
 62
7
  6
CONTINUOUS
 10
-8.8502182351
 20
-13.164054613
 11
-7.6002182067
 21
-13.164054613
  0
LINE
  5
2D3
100
AcDbEntity
  8
0
100
AcDbLine
 62
7
  6
CONTINUOUS
 10
-7.6002182067
 20
-13.164054613
 11
-8.8502182351
 21
-13.164054613
  0
LINE
  5
2D4
100
AcDbEntity
  8
0
100
AcDbLine
 62
7
  6
CONTINUOUS
 10
-10.4502180947
 20
-13.164054613
 11
-11.9502181311
 21
-13.164054613
  0
LINE
  5
2D5
100
AcDbEntity
  8
0
100
AcDbLine
 62
7
  6
CONTINUOUS
 10
-13.5502182447
 20
-13.164054613
 11
-14.8002182731
 21
-13.164054613
  0
LINE
  5
2D6
100
AcDbEntity
  8
0
100
AcDbLine
 62
253
  6
CONTINUOUS
 10
3.7866875334
 20
-24.4869014213
 11
3.7997861121
 21
-24.5
  0
LINE
  5
2D7
100
AcDbEntity
  8
0
100
AcDbLine
 62
253
  6
CONTINUOUS
 10
4.0366833026
 20
-24.2369056521
 11
4.0497818813
 21
-24.2500042308
  0
LINE
  5
2D8
100
AcDbEntity
  8
RACCORDO
100
AcDbLine
 62
253
  6
CONTINUOUS
 10
-21.9963418237
 20
21.3795975856
 11
-22.1002181187
 21
21.6909417528
  0
LINE
  5
2D9
100
AcDbEntity
  8
RACCORDO
100
AcDbLine
 62
253
  6
CONTINUOUS
 10
-21.4965131612
 20
21.8787412502
 11
-21.6003894562
 21
22.1900854174
  0
LINE
  5
2DA
100
AcDbEntity
  8
0
100
AcDbLine
 62
253
  6
CONTINUOUS
 10
-22.3231627681
 20
21.821159479
 11
-22.3493457642
 21
21.8997723451
  0
LINE
  5
2DB
100
AcDbEntity
  8
0
100
AcDbLine
 62
253
  6
CONTINUOUS
 10
-21.8235433678
 20
22.3213883311
 11
-21.8497259652
 21
22.4
  0
LINE
  5
2DC
100
AcDbEntity
  8
0
100
AcDbLine
 62
7
  6
CONTINUOUS
 10
-15.641491374
 20
22.3213883311
 11
-15.6502181187
 21
22.4
  0
LINE
  5
2DD
100
AcDbEntity
  8
0
100
AcDbLine
 62
253
  6
CONTINUOUS
 10
-12.4002181187
 20
-22.3737961104
 11
-12.4002181187
 21
-23.9982478817
  0
LINE
  5
2DE
100
AcDbEntity
  8
0
100
AcDbLine
 62
253
  6
CONTINUOUS
 10
-12.4002181187
 20
22.3737961104
 11
-12.4002181187
 21
23.9982478817
  0
LINE
  5
2DF
100
AcDbEntity
  8
0
100
AcDbLine
 62
7
  6
CONTINUOUS
 10
-12.2002181187
 20
-23.7982512664
 11
-12.2002181187
 21
-22.3842776662
  0
LINE
  5
2E0
100
AcDbEntity
  8
0
100
AcDbLine
 62
7
  6
CONTINUOUS
 10
-12.2002181187
 20
22.3842776662
 11
-12.2002181187
 21
23.7982512664
  0
LINE
  5
2E1
100
AcDbEntity
  8
DRAFT
100
AcDbLine
 62
7
  6
CONTINUOUS
 10
-14.8002182847
 20
-12.1681677877
 11
-13.5502182331
 21
-12.1681677877
  0
LINE
  5
2E2
100
AcDbEntity
  8
DRAFT
100
AcDbLine
 62
7
  6
CONTINUOUS
 10
-11.9502181427
 20
-12.1681677877
 11
-10.4502180831
 21
-12.1681677877
  0
LINE
  5
2E3
100
AcDbEntity
  8
DRAFT
100
AcDbLine
 62
7
  6
CONTINUOUS
 10
-8.8502182467
 20
-12.1681677877
 11
-7.6002181951
 21
-12.1681677877
  0
LINE
  5
2E4
100
AcDbEntity
  8
0
100
AcDbLine
 62
7
  6
CONTINUOUS
 10
-7.6002181951
 20
-12.1681677877
 11
-8.8502182467
 21
-12.1681677877
  0
LINE
  5
2E5
100
AcDbEntity
  8
0
100
AcDbLine
 62
7
  6
CONTINUOUS
 10
-10.4502180831
 20
-12.1681677877
 11
-11.9502181427
 21
-12.1681677877
  0
LINE
  5
2E6
100
AcDbEntity
  8
0
100
AcDbLine
 62
7
  6
CONTINUOUS
 10
-13.5502182331
 20
-12.1681677877
 11
-14.8002182847
 21
-12.1681677877
  0
LINE
  5
2E7
100
AcDbEntity
  8
0
100
AcDbLine
 62
7
  6
CONTINUOUS
 10
-10.2002181187
 20
23.7982512664
 11
-10.2002181187
 21
22.3842776662
  0
LINE
  5
2E8
100
AcDbEntity
  8
0
100
AcDbLine
 62
7
  6
CONTINUOUS
 10
-10.2002181187
 20
-22.3842776662
 11
-10.2002181187
 21
-23.7982512664
  0
LINE
  5
2E9
100
AcDbEntity
  8
0
100
AcDbLine
 62
253
  6
CONTINUOUS
 10
-10.0002181187
 20
-22.3737961104
 11
-10.0002181187
 21
-23.9982478817
  0
LINE
  5
2EA
100
AcDbEntity
  8
0
100
AcDbLine
 62
253
  6
CONTINUOUS
 10
-10.0002181187
 20
22.3737961104
 11
-10.0002181187
 21
23.9982478817
  0
LINE
  5
2EB
100
AcDbEntity
  8
0
100
AcDbLine
 62
7
  6
CONTINUOUS
 10
-6.7502181187
 20
22.4
 11
-6.7589448634
 21
22.3213883311
  0
LINE
  5
2EC
100
AcDbEntity
  8
RACCORDO
100
AcDbLine
 62
253
  6
CONTINUOUS
 10
-21.4583852831
 20
-9.6758998719
 11
21.5579490457
 21
-9.6758998719
  0
LINE
  5
2ED
100
AcDbEntity
  8
0
100
AcDbLine
 62
7
  6
CONTINUOUS
 10
-6.7589448634
 20
-22.3213883311
 11
-6.7502181187
 21
-22.4
  0
LINE
  5
2EE
100
AcDbEntity
  8
0
100
AcDbLine
 62
7
  6
CONTINUOUS
 10
-7.7002181187
 20
23.9912732553
 11
-7.7002181187
 21
22.3213883311
  0
LINE
  5
2EF
100
AcDbEntity
  8
0
100
AcDbLine
 62
7
  6
CONTINUOUS
 10
-7.7002181187
 20
-22.3213883311
 11
-7.7002181187
 21
-23.9912732553
  0
LINE
  5
2F0
100
AcDbEntity
  8
0
100
AcDbLine
 62
7
  6
CONTINUOUS
 10
-6.7589448634
 20
-23.9912732553
 11
-6.7589448634
 21
-22.3213883311
  0
LINE
  5
2F1
100
AcDbEntity
  8
0
100
AcDbLine
 62
7
  6
CONTINUOUS
 10
-6.7589448634
 20
22.3213883311
 11
-6.7589448634
 21
23.9912732553
  0
LINE
  5
2F2
100
AcDbEntity
  8
0
100
AcDbLine
 62
7
  6
CONTINUOUS
 10
-6.7502181187
 20
-22.4
 11
-6.7502181187
 21
-24.0
  0
LINE
  5
2F3
100
AcDbEntity
  8
0
100
AcDbLine
 62
7
  6
CONTINUOUS
 10
-6.7502181187
 20
22.4
 11
-6.7502181187
 21
24.0
  0
LINE
  5
2F4
100
AcDbEntity
  8
0
100
AcDbLine
 62
253
  6
CONTINUOUS
 10
-0.5507102722
 20
22.4
 11
-0.5768928696
 21
22.3213883311
  0
LINE
  5
2F5
100
AcDbEntity
  8
0
100
AcDbLine
 62
253
  6
CONTINUOUS
 10
-0.5768928696
 20
-22.3213883311
 11
-0.5507102722
 21
-22.4
  0
LINE
  5
2F6
100
AcDbEntity
  8
0
100
AcDbLine
 62
253
  6
CONTINUOUS
 10
-3.93711954
 20
-23.8443375673
 11
-3.9429373698
 21
-23.2669872981
  0
LINE
  5
2F7
100
AcDbEntity
  8
0
100
AcDbLine
 62
253
  6
CONTINUOUS
 10
-3.9429373698
 20
23.2669872981
 11
-3.93711954
 21
23.8443375673
  0
LINE
  5
2F8
100
AcDbEntity
  8
0
100
AcDbLine
 62
7
  6
CONTINUOUS
 10
15.7410551366
 20
23.9912732553
 11
15.7497818813
 21
24.0
  0
LINE
  5
2F9
100
AcDbEntity
  8
0
100
AcDbLine
 62
7
  6
CONTINUOUS
 10
15.7497818813
 20
-24.0
 11
15.7410551366
 21
-23.9912732553
  0
LINE
  5
2FA
100
AcDbEntity
  8
0
100
AcDbLine
 62
253
  6
CONTINUOUS
 10
-3.6871237708
 20
-23.6278312164
 11
-3.6922143718
 21
-23.1226497308
  0
LINE
  5
2FB
100
AcDbEntity
  8
0
100
AcDbLine
 62
7
  6
CONTINUOUS
 10
-3.9502181187
 20
-22.4
 11
-3.9502181187
 21
-24.2500042308
  0
LINE
  5
2FC
100
AcDbEntity
  8
0
100
AcDbLine
 62
7
  6
CONTINUOUS
 10
-3.9502181187
 20
22.4
 11
-3.9502181187
 21
24.2500042308
  0
LINE
  5
2FD
100
AcDbEntity
  8
0
100
AcDbLine
 62
7
  6
CONTINUOUS
 10
-3.9429373698
 20
23.2669872981
 11
-3.9429373698
 21
22.3344140523
  0
LINE
  5
2FE
100
AcDbEntity
  8
0
100
AcDbLine
 62
7
  6
CONTINUOUS
 10
-3.9429373698
 20
-22.3344140523
 11
-3.9429373698
 21
-23.2669872981
  0
LINE
  5
2FF
100
AcDbEntity
  8
0
100
AcDbLine
 62
7
  6
CONTINUOUS
 10
-3.93711954
 20
24.2369056521
 11
-3.93711954
 21
23.8443375673
  0
LINE
  5
300
100
AcDbEntity
  8
0
100
AcDbLine
 62
7
  6
CONTINUOUS
 10
-3.93711954
 20
-23.8443375673
 11
-3.93711954
 21
-24.2369056521
  0
LINE
  5
301
100
AcDbEntity
  8
0
100
AcDbLine
 62
253
  6
CONTINUOUS
 10
-3.6929416006
 20
23.1226497308
 11
-3.6929416006
 21
22.3213883311
  0
LINE
  5
302
100
AcDbEntity
  8
0
100
AcDbLine
 62
253
  6
CONTINUOUS
 10
-3.6929416006
 20
-22.3213883311
 11
-3.6929416006
 21
-23.1226497308
  0
LINE
  5
303
100
AcDbEntity
  8
0
100
AcDbLine
 62
253
  6
CONTINUOUS
 10
-3.6871237708
 20
-23.6278312164
 11
-3.6871237708
 21
-24.4869014213
  0
LINE
  5
304
100
AcDbEntity
  8
0
100
AcDbLine
 62
253
  6
CONTINUOUS
 10
-3.6871237708
 20
23.6278312164
 11
-3.6871237708
 21
24.4869014213
  0
LINE
  5
305
100
AcDbEntity
  8
0
100
AcDbLine
 62
253
  6
CONTINUOUS
 10
-3.6922143718
 20
23.1226497308
 11
-3.6871237708
 21
23.6278312164
  0
LINE
  5
306
100
AcDbEntity
  8
0
100
AcDbLine
 62
253
  6
CONTINUOUS
 10
21.1866875334
 20
24.4869014213
 11
21.1997861121
 21
24.5
  0
LINE
  5
307
100
AcDbEntity
  8
0
100
AcDbLine
 62
253
  6
CONTINUOUS
 10
21.4366833026
 20
24.2369056521
 11
21.4497818813
 21
24.2500042308
  0
LINE
  5
308
100
AcDbEntity
  8
0
100
AcDbLine
 62
253
  6
CONTINUOUS
 10
21.1866875334
 20
-24.4869014213
 11
21.1997861121
 21
-24.5
  0
LINE
  5
309
100
AcDbEntity
  8
0
100
AcDbLine
 62
253
  6
CONTINUOUS
 10
21.4366833026
 20
-24.2369056521
 11
21.4497818813
 21
-24.2500042308
  0
LINE
  5
30A
100
AcDbEntity
  8
0
100
AcDbLine
 62
253
  6
CONTINUOUS
 10
-1.3133124666
 20
23.6278312164
 11
-1.3082218655
 21
23.1226497308
  0
LINE
  5
30B
100
AcDbEntity
  8
0
100
AcDbLine
 62
253
  6
CONTINUOUS
 10
-1.0633166974
 20
23.8443375673
 11
-1.0574988676
 21
23.2669872981
  0
LINE
  5
30C
100
AcDbEntity
  8
0
100
AcDbLine
 62
253
  6
CONTINUOUS
 10
-1.3133124666
 20
-23.6278312164
 11
-1.3133124666
 21
-24.4869014213
  0
LINE
  5
30D
100
AcDbEntity
  8
0
100
AcDbLine
 62
253
  6
CONTINUOUS
 10
-1.3133124666
 20
23.6278312164
 11
-1.3133124666
 21
24.4869014213
  0
LINE
  5
30E
100
AcDbEntity
  8
0
100
AcDbLine
 62
253
  6
CONTINUOUS
 10
-1.3074946368
 20
-23.1226497308
 11
-1.3074946368
 21
-22.3213883311
  0
LINE
  5
30F
100
AcDbEntity
  8
0
100
AcDbLine
 62
253
  6
CONTINUOUS
 10
-1.3074946368
 20
22.3213883311
 11
-1.3074946368
 21
23.1226497308
  0
LINE
  5
310
100
AcDbEntity
  8
0
100
AcDbLine
 62
7
  6
CONTINUOUS
 10
-1.0633166974
 20
-24.2369056521
 11
-1.0633166974
 21
-23.8443375673
  0
LINE
  5
311
100
AcDbEntity
  8
0
100
AcDbLine
 62
7
  6
CONTINUOUS
 10
-1.0633166974
 20
23.8443375673
 11
-1.0633166974
 21
24.2369056521
  0
LINE
  5
312
100
AcDbEntity
  8
0
100
AcDbLine
 62
7
  6
CONTINUOUS
 10
-1.0574988676
 20
-23.2669872981
 11
-1.0574988676
 21
-22.3344140523
  0
LINE
  5
313
100
AcDbEntity
  8
0
100
AcDbLine
 62
7
  6
CONTINUOUS
 10
-1.0574988676
 20
22.3344140523
 11
-1.0574988676
 21
23.2669872981
  0
LINE
  5
314
100
AcDbEntity
  8
0
100
AcDbLine
 62
7
  6
CONTINUOUS
 10
-1.0502181187
 20
-22.4
 11
-1.0502181187
 21
-24.2500042308
  0
LINE
  5
315
100
AcDbEntity
  8
0
100
AcDbLine
 62
7
  6
CONTINUOUS
 10
-1.0502181187
 20
22.4
 11
-1.0502181187
 21
24.2500042308
  0
LINE
  5
316
100
AcDbEntity
  8
0
100
AcDbLine
 62
253
  6
CONTINUOUS
 10
-1.3082218655
 20
-23.1226497308
 11
-1.3133124666
 21
-23.6278312164
  0
LINE
  5
317
100
AcDbEntity
  8
0
100
AcDbLine
 62
253
  6
CONTINUOUS
 10
-1.0574988676
 20
-23.2669872981
 11
-1.0633166974
 21
-23.8443375673
  0
LINE
  5
318
100
AcDbEntity
  8
DRAFT
100
AcDbLine
 62
7
  6
CONTINUOUS
 10
-22.2952346642
 20
-0.0
 11
-22.1002181187
 21
-0.0
  0
LINE
  5
319
100
AcDbEntity
  8
DRAFT
100
AcDbLine
 62
7
  6
CONTINUOUS
 10
22.1997818813
 20
-0.0
 11
22.3948263863
 21
-0.0
  0
LINE
  5
31A
100
AcDbEntity
  8
0
100
AcDbLine
 62
253
  6
CONTINUOUS
 10
1.16288046
 20
-23.8443375673
 11
1.1570626302
 21
-23.2669872981
  0
LINE
  5
31B
100
AcDbEntity
  8
0
100
AcDbLine
 62
253
  6
CONTINUOUS
 10
1.4128762292
 20
-23.6278312164
 11
1.4077856282
 21
-23.1226497308
  0
LINE
  5
31C
100
AcDbEntity
  8
0
100
AcDbLine
 62
7
  6
CONTINUOUS
 10
1.1497818813
 20
-22.4
 11
1.1497818813
 21
-24.2500042308
  0
LINE
  5
31D
100
AcDbEntity
  8
0
100
AcDbLine
 62
7
  6
CONTINUOUS
 10
1.1497818813
 20
22.4
 11
1.1497818813
 21
24.2500042308
  0
LINE
  5
31E
100
AcDbEntity
  8
0
100
AcDbLine
 62
253
  6
CONTINUOUS
 10
1.1570626302
 20
23.2669872981
 11
1.1570626302
 21
22.3344140523
  0
LINE
  5
31F
100
AcDbEntity
  8
0
100
AcDbLine
 62
253
  6
CONTINUOUS
 10
1.1570626302
 20
-22.3344140523
 11
1.1570626302
 21
-23.2669872981
  0
LINE
  5
320
100
AcDbEntity
  8
0
100
AcDbLine
 62
253
  6
CONTINUOUS
 10
1.16288046
 20
24.2369056521
 11
1.16288046
 21
23.8443375673
  0
LINE
  5
321
100
AcDbEntity
  8
0
100
AcDbLine
 62
253
  6
CONTINUOUS
 10
1.16288046
 20
-23.8443375673
 11
1.16288046
 21
-24.2369056521
  0
LINE
  5
322
100
AcDbEntity
  8
0
100
AcDbLine
 62
253
  6
CONTINUOUS
 10
1.4070583994
 20
23.1226497308
 11
1.4070583994
 21
22.3213883311
  0
LINE
  5
323
100
AcDbEntity
  8
0
100
AcDbLine
 62
253
  6
CONTINUOUS
 10
1.4070583994
 20
-22.3213883311
 11
1.4070583994
 21
-23.1226497308
  0
LINE
  5
324
100
AcDbEntity
  8
0
100
AcDbLine
 62
253
  6
CONTINUOUS
 10
1.4128762292
 20
-23.6278312164
 11
1.4128762292
 21
-24.4869014213
  0
LINE
  5
325
100
AcDbEntity
  8
0
100
AcDbLine
 62
253
  6
CONTINUOUS
 10
1.4128762292
 20
23.6278312164
 11
1.4128762292
 21
24.4869014213
  0
LINE
  5
326
100
AcDbEntity
  8
0
100
AcDbLine
 62
253
  6
CONTINUOUS
 10
1.1570626302
 20
23.2669872981
 11
1.16288046
 21
23.8443375673
  0
LINE
  5
327
100
AcDbEntity
  8
0
100
AcDbLine
 62
253
  6
CONTINUOUS
 10
1.4077856282
 20
23.1226497308
 11
1.4128762292
 21
23.6278312164
  0
LINE
  5
328
100
AcDbEntity
  8
0
100
AcDbLine
 62
7
  6
CONTINUOUS
 10
4.0497818813
 20
22.4
 11
4.0425011324
 21
22.3344140523
  0
LINE
  5
329
100
AcDbEntity
  8
0
100
AcDbLine
 62
253
  6
CONTINUOUS
 10
-21.33711954
 20
-24.2369056521
 11
-21.3502181187
 21
-24.2500042308
  0
LINE
  5
32A
100
AcDbEntity
  8
0
100
AcDbLine
 62
253
  6
CONTINUOUS
 10
-21.0871237708
 20
-24.4869014213
 11
-21.1002223495
 21
-24.5
  0
LINE
  5
32B
100
AcDbEntity
  8
0
100
AcDbLine
 62
253
  6
CONTINUOUS
 10
-21.33711954
 20
24.2369056521
 11
-21.3502181187
 21
24.2500042308
  0
LINE
  5
32C
100
AcDbEntity
  8
0
100
AcDbLine
 62
253
  6
CONTINUOUS
 10
-21.0871237708
 20
24.4869014213
 11
-21.1002223495
 21
24.5
  0
LINE
  5
32D
100
AcDbEntity
  8
0
100
AcDbLine
 62
7
  6
CONTINUOUS
 10
4.0497818813
 20
-22.4
 11
4.0425011324
 21
-22.3344140523
  0
LINE
  5
32E
100
AcDbEntity
  8
0
100
AcDbLine
 62
253
  6
CONTINUOUS
 10
3.7866875334
 20
23.6278312164
 11
3.7917781345
 21
23.1226497308
  0
LINE
  5
32F
100
AcDbEntity
  8
0
100
AcDbLine
 62
253
  6
CONTINUOUS
 10
4.0366833026
 20
23.8443375673
 11
4.0425011324
 21
23.2669872981
  0
LINE
  5
330
100
AcDbEntity
  8
0
100
AcDbLine
 62
253
  6
CONTINUOUS
 10
3.7866875334
 20
-23.6278312164
 11
3.7866875334
 21
-24.4869014213
  0
LINE
  5
331
100
AcDbEntity
  8
0
100
AcDbLine
 62
253
  6
CONTINUOUS
 10
3.7866875334
 20
23.6278312164
 11
3.7866875334
 21
24.4869014213
  0
LINE
  5
332
100
AcDbEntity
  8
0
100
AcDbLine
 62
253
  6
CONTINUOUS
 10
3.7925053632
 20
-23.1226497308
 11
3.7925053632
 21
-22.3213883311
  0
LINE
  5
333
100
AcDbEntity
  8
0
100
AcDbLine
 62
253
  6
CONTINUOUS
 10
3.7925053632
 20
22.3213883311
 11
3.7925053632
 21
23.1226497308
  0
LINE
  5
334
100
AcDbEntity
  8
0
100
AcDbLine
 62
253
  6
CONTINUOUS
 10
4.0366833026
 20
-24.2369056521
 11
4.0366833026
 21
-23.8443375673
  0
LINE
  5
335
100
AcDbEntity
  8
0
100
AcDbLine
 62
253
  6
CONTINUOUS
 10
4.0366833026
 20
23.8443375673
 11
4.0366833026
 21
24.2369056521
  0
LINE
  5
336
100
AcDbEntity
  8
0
100
AcDbLine
 62
253
  6
CONTINUOUS
 10
4.0425011324
 20
-23.2669872981
 11
4.0425011324
 21
-22.3344140523
  0
LINE
  5
337
100
AcDbEntity
  8
0
100
AcDbLine
 62
253
  6
CONTINUOUS
 10
4.0425011324
 20
22.3344140523
 11
4.0425011324
 21
23.2669872981
  0
LINE
  5
338
100
AcDbEntity
  8
0
100
AcDbLine
 62
7
  6
CONTINUOUS
 10
4.0497818813
 20
-22.4
 11
4.0497818813
 21
-24.2500042308
  0
LINE
  5
339
100
AcDbEntity
  8
0
100
AcDbLine
 62
7
  6
CONTINUOUS
 10
4.0497818813
 20
22.4
 11
4.0497818813
 21
24.2500042308
  0
LINE
  5
33A
100
AcDbEntity
  8
0
100
AcDbLine
 62
253
  6
CONTINUOUS
 10
3.7917781345
 20
-23.1226497308
 11
3.7866875334
 21
-23.6278312164
  0
LINE
  5
33B
100
AcDbEntity
  8
0
100
AcDbLine
 62
253
  6
CONTINUOUS
 10
4.0425011324
 20
-23.2669872981
 11
4.0366833026
 21
-23.8443375673
  0
LINE
  5
33C
100
AcDbEntity
  8
0
100
AcDbLine
 62
7
  6
CONTINUOUS
 10
1.1497818813
 20
-22.4
 11
1.1570626302
 21
-22.3344140523
  0
LINE
  5
33D
100
AcDbEntity
  8
0
100
AcDbLine
 62
7
  6
CONTINUOUS
 10
1.1497818813
 20
22.4
 11
1.1570626302
 21
22.3344140523
  0
LINE
  5
33E
100
AcDbEntity
  8
0
100
AcDbLine
 62
7
  6
CONTINUOUS
 10
6.8497818813
 20
-22.4
 11
6.8497818813
 21
-24.0
  0
LINE
  5
33F
100
AcDbEntity
  8
0
100
AcDbLine
 62
7
  6
CONTINUOUS
 10
6.8497818813
 20
22.4
 11
6.8497818813
 21
24.0
  0
LINE
  5
340
100
AcDbEntity
  8
0
100
AcDbLine
 62
7
  6
CONTINUOUS
 10
6.858508626
 20
23.9912732553
 11
6.858508626
 21
22.3213883311
  0
LINE
  5
341
100
AcDbEntity
  8
0
100
AcDbLine
 62
7
  6
CONTINUOUS
 10
6.858508626
 20
-22.3213883311
 11
6.858508626
 21
-23.9912732553
  0
LINE
  5
342
100
AcDbEntity
  8
0
100
AcDbLine
 62
7
  6
CONTINUOUS
 10
-15.641491374
 20
-23.9912732553
 11
-15.6502181187
 21
-24.0
  0
LINE
  5
343
100
AcDbEntity
  8
0
100
AcDbLine
 62
7
  6
CONTINUOUS
 10
-15.6502181187
 20
24.0
 11
-15.641491374
 21
23.9912732553
  0
LINE
  5
344
100
AcDbEntity
  8
0
100
AcDbLine
 62
7
  6
CONTINUOUS
 10
7.7997818813
 20
-23.9982478817
 11
7.7997818813
 21
-22.3213883311
  0
LINE
  5
345
100
AcDbEntity
  8
0
100
AcDbLine
 62
7
  6
CONTINUOUS
 10
7.7997818813
 20
22.3213883311
 11
7.7997818813
 21
23.9982478817
  0
LINE
  5
346
100
AcDbEntity
  8
0
100
AcDbLine
 62
253
  6
CONTINUOUS
 10
0.6502740348
 20
-22.4
 11
0.6764566322
 21
-22.3213883311
  0
LINE
  5
347
100
AcDbEntity
  8
0
100
AcDbLine
 62
253
  6
CONTINUOUS
 10
0.6764566322
 20
22.3213883311
 11
0.6502740348
 21
22.4
  0
LINE
  5
348
100
AcDbEntity
  8
0
100
AcDbLine
 62
253
  6
CONTINUOUS
 10
10.0997818813
 20
-22.3737961104
 11
10.0997818813
 21
-24.0
  0
LINE
  5
349
100
AcDbEntity
  8
0
100
AcDbLine
 62
253
  6
CONTINUOUS
 10
10.0997818813
 20
22.3737961104
 11
10.0997818813
 21
24.0
  0
LINE
  5
34A
100
AcDbEntity
  8
0
100
AcDbLine
 62
7
  6
CONTINUOUS
 10
10.2997818813
 20
-23.7999966153
 11
10.2997818813
 21
-22.3842776662
  0
LINE
  5
34B
100
AcDbEntity
  8
0
100
AcDbLine
 62
7
  6
CONTINUOUS
 10
10.2997818813
 20
22.3842776662
 11
10.2997818813
 21
23.7999966153
  0
LINE
  5
34C
100
AcDbEntity
  8
0
100
AcDbLine
 62
7
  6
CONTINUOUS
 10
6.8497818813
 20
-22.4
 11
6.858508626
 21
-22.3213883311
  0
LINE
  5
34D
100
AcDbEntity
  8
RACCORDO
100
AcDbLine
 62
253
  6
CONTINUOUS
 10
-21.4583852831
 20
9.2980612885
 11
21.5579490457
 21
9.2980612885
  0
LINE
  5
34E
100
AcDbEntity
  8
0
100
AcDbLine
 62
7
  6
CONTINUOUS
 10
6.858508626
 20
22.3213883311
 11
6.8497818813
 21
22.4
  0
LINE
  5
34F
100
AcDbEntity
  8
0
100
AcDbLine
 62
7
  6
CONTINUOUS
 10
12.2997818813
 20
23.7999966153
 11
12.2997818813
 21
22.3842776662
  0
LINE
  5
350
100
AcDbEntity
  8
0
100
AcDbLine
 62
7
  6
CONTINUOUS
 10
12.2997818813
 20
-22.3842776662
 11
12.2997818813
 21
-23.7999966153
  0
LINE
  5
351
100
AcDbEntity
  8
0
100
AcDbLine
 62
253
  6
CONTINUOUS
 10
12.4997818813
 20
-22.3737961104
 11
12.4997818813
 21
-24.0
  0
LINE
  5
352
100
AcDbEntity
  8
0
100
AcDbLine
 62
253
  6
CONTINUOUS
 10
12.4997818813
 20
22.3737961104
 11
12.4997818813
 21
24.0
  0
LINE
  5
353
100
AcDbEntity
  8
0
100
AcDbLine
 62
7
  6
CONTINUOUS
 10
15.7497818813
 20
22.4
 11
15.7410551366
 21
22.3213883311
  0
LINE
  5
354
100
AcDbEntity
  8
RACCORDO
100
AcDbLine
 62
253
  6
CONTINUOUS
 10
21.6999532188
 20
22.1900854174
 11
21.5960769239
 21
21.8787412502
  0
LINE
  5
355
100
AcDbEntity
  8
0
100
AcDbLine
 62
7
  6
CONTINUOUS
 10
15.7410551366
 20
-22.3213883311
 11
15.7497818813
 21
-22.4
  0
LINE
  5
356
100
AcDbEntity
  8
0
100
AcDbLine
 62
7
  6
CONTINUOUS
 10
14.7997818813
 20
23.9982478817
 11
14.7997818813
 21
22.3213883311
  0
LINE
  5
357
100
AcDbEntity
  8
0
100
AcDbLine
 62
7
  6
CONTINUOUS
 10
14.7997818813
 20
-22.3213883311
 11
14.7997818813
 21
-23.9982478817
  0
LINE
  5
358
100
AcDbEntity
  8
0
100
AcDbLine
 62
7
  6
CONTINUOUS
 10
15.7410551366
 20
-23.9912732553
 11
15.7410551366
 21
-22.3213883311
  0
LINE
  5
359
100
AcDbEntity
  8
0
100
AcDbLine
 62
7
  6
CONTINUOUS
 10
15.7410551366
 20
22.3213883311
 11
15.7410551366
 21
23.9912732553
  0
LINE
  5
35A
100
AcDbEntity
  8
0
100
AcDbLine
 62
7
  6
CONTINUOUS
 10
15.7497818813
 20
-22.4
 11
15.7497818813
 21
-24.0
  0
LINE
  5
35B
100
AcDbEntity
  8
0
100
AcDbLine
 62
7
  6
CONTINUOUS
 10
15.7497818813
 20
22.4
 11
15.7497818813
 21
24.0
  0
LINE
  5
35C
100
AcDbEntity
  8
0
100
AcDbLine
 62
253
  6
CONTINUOUS
 10
21.9492897278
 20
22.4
 11
21.9231071304
 21
22.3213883311
  0
LINE
  5
35D
100
AcDbEntity
  8
0
100
AcDbLine
 62
253
  6
CONTINUOUS
 10
22.4489091281
 20
21.8997711479
 11
22.4227265307
 21
21.821159479
  0
LINE
  5
35E
100
AcDbEntity
  8
RACCORDO
100
AcDbLine
 62
253
  6
CONTINUOUS
 10
22.1997818813
 20
21.6909417528
 11
22.0959055863
 21
21.3795975856
  0
LINE
  5
35F
100
AcDbEntity
  8
0
100
AcDbLine
 62
253
  6
CONTINUOUS
 10
-3.93711954
 20
-24.2369056521
 11
-3.9502181187
 21
-24.2500042308
  0
LINE
  5
360
100
AcDbEntity
  8
0
100
AcDbLine
 62
253
  6
CONTINUOUS
 10
-3.6871237708
 20
-24.4869014213
 11
-3.7002223495
 21
-24.5
  0
LINE
  5
361
100
AcDbEntity
  8
0
100
AcDbLine
 62
253
  6
CONTINUOUS
 10
-3.93711954
 20
24.2369056521
 11
-3.9502181187
 21
24.2500042308
  0
LINE
  5
362
100
AcDbEntity
  8
0
100
AcDbLine
 62
253
  6
CONTINUOUS
 10
-3.6871237708
 20
24.4869014213
 11
-3.7002223495
 21
24.5
  0
LINE
  5
363
100
AcDbEntity
  8
0
100
AcDbLine
 62
253
  6
CONTINUOUS
 10
21.9231071304
 20
-22.3213883311
 11
21.9492897278
 21
-22.4
  0
LINE
  5
364
100
AcDbEntity
  8
0
100
AcDbLine
 62
253
  6
CONTINUOUS
 10
22.4227265307
 20
-21.821159479
 11
22.4489091281
 21
-21.8997711479
  0
LINE
  5
365
100
AcDbEntity
  8
0
100
AcDbLine
 62
253
  6
CONTINUOUS
 10
1.16288046
 20
-24.2369056521
 11
1.1497818813
 21
-24.2500042308
  0
LINE
  5
366
100
AcDbEntity
  8
DRAFT
100
AcDbLine
 62
7
  6
CONTINUOUS
 10
-22.3231627681
 20
16.6
 11
-22.1002181187
 21
16.6
  0
LINE
  5
367
100
AcDbEntity
  8
RACCORDO
100
AcDbLine
 62
7
  6
CONTINUOUS
 10
22.1997818813
 20
16.6
 11
22.4227265307
 21
16.6
  0
LINE
  5
368
100
AcDbEntity
  8
0
100
AcDbLine
 62
253
  6
CONTINUOUS
 10
1.16288046
 20
24.2369056521
 11
1.1497818813
 21
24.2500042308
  0
LINE
  5
369
100
AcDbEntity
  8
0
100
AcDbLine
 62
253
  6
CONTINUOUS
 10
18.56288046
 20
-23.8443375673
 11
18.5570626302
 21
-23.2669872981
  0
LINE
  5
36A
100
AcDbEntity
  8
0
100
AcDbLine
 62
253
  6
CONTINUOUS
 10
18.8128762292
 20
-23.6278312164
 11
18.8077856282
 21
-23.1226497308
  0
LINE
  5
36B
100
AcDbEntity
  8
0
100
AcDbLine
 62
7
  6
CONTINUOUS
 10
18.5497818813
 20
-22.4
 11
18.5497818813
 21
-24.2500042308
  0
LINE
  5
36C
100
AcDbEntity
  8
0
100
AcDbLine
 62
7
  6
CONTINUOUS
 10
18.5497818813
 20
22.4
 11
18.5497818813
 21
24.2500042308
  0
LINE
  5
36D
100
AcDbEntity
  8
0
100
AcDbLine
 62
253
  6
CONTINUOUS
 10
18.5570626302
 20
23.2669872981
 11
18.5570626302
 21
22.3344140523
  0
LINE
  5
36E
100
AcDbEntity
  8
0
100
AcDbLine
 62
253
  6
CONTINUOUS
 10
18.5570626302
 20
-22.3344140523
 11
18.5570626302
 21
-23.2669872981
  0
LINE
  5
36F
100
AcDbEntity
  8
0
100
AcDbLine
 62
253
  6
CONTINUOUS
 10
18.56288046
 20
24.2369056521
 11
18.56288046
 21
23.8443375673
  0
LINE
  5
370
100
AcDbEntity
  8
0
100
AcDbLine
 62
253
  6
CONTINUOUS
 10
18.56288046
 20
-23.8443375673
 11
18.56288046
 21
-24.2369056521
  0
LINE
  5
371
100
AcDbEntity
  8
0
100
AcDbLine
 62
253
  6
CONTINUOUS
 10
18.8070583994
 20
23.1226497308
 11
18.8070583994
 21
22.3213883311
  0
LINE
  5
372
100
AcDbEntity
  8
0
100
AcDbLine
 62
253
  6
CONTINUOUS
 10
18.8070583994
 20
-22.3213883311
 11
18.8070583994
 21
-23.1226497308
  0
LINE
  5
373
100
AcDbEntity
  8
0
100
AcDbLine
 62
253
  6
CONTINUOUS
 10
18.8128762292
 20
-23.6278312164
 11
18.8128762292
 21
-24.4869014213
  0
LINE
  5
374
100
AcDbEntity
  8
0
100
AcDbLine
 62
253
  6
CONTINUOUS
 10
18.8128762292
 20
23.6278312164
 11
18.8128762292
 21
24.4869014213
  0
LINE
  5
375
100
AcDbEntity
  8
0
100
AcDbLine
 62
253
  6
CONTINUOUS
 10
18.5570626302
 20
23.2669872981
 11
18.56288046
 21
23.8443375673
  0
LINE
  5
376
100
AcDbEntity
  8
0
100
AcDbLine
 62
253
  6
CONTINUOUS
 10
18.8077856282
 20
23.1226497308
 11
18.8128762292
 21
23.6278312164
  0
LINE
  5
377
100
AcDbEntity
  8
0
100
AcDbLine
 62
7
  6
CONTINUOUS
 10
21.4497818813
 20
22.4
 11
21.4425011324
 21
22.3344140523
  0
LINE
  5
378
100
AcDbEntity
  8
0
100
AcDbLine
 62
253
  6
CONTINUOUS
 10
1.4128762292
 20
-24.4869014213
 11
1.3997776505
 21
-24.5
  0
LINE
  5
379
100
AcDbEntity
  8
0
100
AcDbLine
 62
253
  6
CONTINUOUS
 10
1.4128762292
 20
24.4869014213
 11
1.3997776505
 21
24.5
  0
LINE
  5
37A
100
AcDbEntity
  8
0
100
AcDbLine
 62
7
  6
CONTINUOUS
 10
21.4497818813
 20
-22.4
 11
21.4425011324
 21
-22.3344140523
  0
LINE
  5
37B
100
AcDbEntity
  8
0
100
AcDbLine
 62
253
  6
CONTINUOUS
 10
21.1866875334
 20
23.6278312164
 11
21.1917781345
 21
23.1226497308
  0
LINE
  5
37C
100
AcDbEntity
  8
0
100
AcDbLine
 62
253
  6
CONTINUOUS
 10
21.4366833026
 20
23.8443375673
 11
21.4425011324
 21
23.2669872981
  0
LINE
  5
37D
100
AcDbEntity
  8
DRAFT
100
AcDbLine
 62
7
  6
CONTINUOUS
 10
22.3948263863
 20
0.0
 11
22.4227265307
 21
-16.6
  0
LINE
  5
37E
100
AcDbEntity
  8
0
100
AcDbLine
 62
253
  6
CONTINUOUS
 10
21.1866875334
 20
-23.6278312164
 11
21.1866875334
 21
-24.4869014213
  0
LINE
  5
37F
100
AcDbEntity
  8
0
100
AcDbLine
 62
253
  6
CONTINUOUS
 10
21.1866875334
 20
23.6278312164
 11
21.1866875334
 21
24.4869014213
  0
LINE
  5
380
100
AcDbEntity
  8
0
100
AcDbLine
 62
253
  6
CONTINUOUS
 10
21.1925053632
 20
-23.1226497308
 11
21.1925053632
 21
-22.3213883311
  0
LINE
  5
381
100
AcDbEntity
  8
0
100
AcDbLine
 62
253
  6
CONTINUOUS
 10
21.1925053632
 20
22.3213883311
 11
21.1925053632
 21
23.1226497308
  0
LINE
  5
382
100
AcDbEntity
  8
0
100
AcDbLine
 62
253
  6
CONTINUOUS
 10
21.4366833026
 20
-24.2369056521
 11
21.4366833026
 21
-23.8443375673
  0
LINE
  5
383
100
AcDbEntity
  8
0
100
AcDbLine
 62
253
  6
CONTINUOUS
 10
21.4366833026
 20
23.8443375673
 11
21.4366833026
 21
24.2369056521
  0
LINE
  5
384
100
AcDbEntity
  8
0
100
AcDbLine
 62
253
  6
CONTINUOUS
 10
21.4425011324
 20
-23.2669872981
 11
21.4425011324
 21
-22.3344140523
  0
LINE
  5
385
100
AcDbEntity
  8
0
100
AcDbLine
 62
253
  6
CONTINUOUS
 10
21.4425011324
 20
22.3344140523
 11
21.4425011324
 21
23.2669872981
  0
LINE
  5
386
100
AcDbEntity
  8
0
100
AcDbLine
 62
7
  6
CONTINUOUS
 10
21.4497818813
 20
-22.4
 11
21.4497818813
 21
-24.2500042308
  0
LINE
  5
387
100
AcDbEntity
  8
0
100
AcDbLine
 62
7
  6
CONTINUOUS
 10
21.4497818813
 20
22.4
 11
21.4497818813
 21
24.2500042308
  0
LINE
  5
388
100
AcDbEntity
  8
RACCORDO
100
AcDbLine
 62
7
  6
CONTINUOUS
 10
22.1997818813
 20
-21.450196354
 11
22.1997818813
 21
21.6909417528
  0
LINE
  5
389
100
AcDbEntity
  8
DRAFT
100
AcDbLine
 62
7
  6
CONTINUOUS
 10
22.4227265307
 20
-21.821159479
 11
22.4227265307
 21
-16.6
  0
LINE
  5
38A
100
AcDbEntity
  8
DRAFT
100
AcDbLine
 62
7
  6
CONTINUOUS
 10
22.4227265307
 20
16.6
 11
22.4227265307
 21
21.821159479
  0
LINE
  5
38B
100
AcDbEntity
  8
0
100
AcDbLine
 62
7
  6
CONTINUOUS
 10
22.4489091281
 20
-21.8997711479
 11
22.4489091281
 21
21.8997711479
  0
LINE
  5
38C
100
AcDbEntity
  8
0
100
AcDbLine
 62
7
  6
CONTINUOUS
 10
22.4502182247
 20
-21.900016923
 11
22.4502182247
 21
21.900016923
  0
LINE
  5
38D
100
AcDbEntity
  8
DRAFT
100
AcDbLine
 62
7
  6
CONTINUOUS
 10
22.4227265307
 20
16.6
 11
22.3948263863
 21
0.0
  0
LINE
  5
38E
100
AcDbEntity
  8
0
100
AcDbLine
 62
253
  6
CONTINUOUS
 10
21.1917781345
 20
-23.1226497308
 11
21.1866875334
 21
-23.6278312164
  0
LINE
  5
38F
100
AcDbEntity
  8
0
100
AcDbLine
 62
253
  6
CONTINUOUS
 10
21.4425011324
 20
-23.2669872981
 11
21.4366833026
 21
-23.8443375673
  0
LINE
  5
390
100
AcDbEntity
  8
0
100
AcDbLine
 62
7
  6
CONTINUOUS
 10
18.5497818813
 20
-22.4
 11
18.5570626302
 21
-22.3344140523
  0
LINE
  5
391
100
AcDbEntity
  8
0
100
AcDbLine
 62
7
  6
CONTINUOUS
 10
6.8497818813
 20
-24.0
 11
6.858508626
 21
-23.9912732553
  0
LINE
  5
392
100
AcDbEntity
  8
RACCORDO
100
AcDbLine
 62
253
  6
CONTINUOUS
 10
21.5834716447
 20
20.9782512575
 11
-21.4839078821
 21
20.9782512575
  0
LINE
  5
393
100
AcDbEntity
  8
RACCORDO
100
AcDbLine
 62
253
  6
CONTINUOUS
 10
21.5960769239
 20
21.8787412502
 11
-21.4965131612
 21
21.8787412502
  0
LINE
  5
394
100
AcDbEntity
  8
RACCORDO
100
AcDbLine
 62
7
  6
CONTINUOUS
 10
-21.6003894562
 20
22.1900854174
 11
21.6999532188
 21
22.1900854174
  0
LINE
  5
395
100
AcDbEntity
  8
0
100
AcDbLine
 62
7
  6
CONTINUOUS
 10
0.6764566322
 20
22.3213883311
 11
1.4070583994
 21
22.3213883311
  0
LINE
  5
396
100
AcDbEntity
  8
0
100
AcDbLine
 62
7
  6
CONTINUOUS
 10
-0.5768928696
 20
22.3213883311
 11
-1.3074946368
 21
22.3213883311
  0
LINE
  5
397
100
AcDbEntity
  8
0
100
AcDbLine
 62
7
  6
CONTINUOUS
 10
3.7925053632
 20
22.3213883311
 11
6.858508626
 21
22.3213883311
  0
LINE
  5
398
100
AcDbEntity
  8
0
100
AcDbLine
 62
7
  6
CONTINUOUS
 10
-3.6929416006
 20
22.3213883311
 11
-6.7589448634
 21
22.3213883311
  0
LINE
  5
399
100
AcDbEntity
  8
0
100
AcDbLine
 62
7
  6
CONTINUOUS
 10
7.7997818813
 20
22.3213883311
 11
14.7997818813
 21
22.3213883311
  0
LINE
  5
39A
100
AcDbEntity
  8
0
100
AcDbLine
 62
7
  6
CONTINUOUS
 10
-7.7002181187
 20
22.3213883311
 11
-14.7002181187
 21
22.3213883311
  0
LINE
  5
39B
100
AcDbEntity
  8
0
100
AcDbLine
 62
7
  6
CONTINUOUS
 10
15.7410551366
 20
22.3213883311
 11
18.8070583994
 21
22.3213883311
  0
LINE
  5
39C
100
AcDbEntity
  8
0
100
AcDbLine
 62
7
  6
CONTINUOUS
 10
-15.641491374
 20
22.3213883311
 11
-18.7074946368
 21
22.3213883311
  0
LINE
  5
39D
100
AcDbEntity
  8
0
100
AcDbLine
 62
7
  6
CONTINUOUS
 10
21.1925053632
 20
22.3213883311
 11
21.9231071304
 21
22.3213883311
  0
LINE
  5
39E
100
AcDbEntity
  8
0
100
AcDbLine
 62
7
  6
CONTINUOUS
 10
-21.0929416006
 20
22.3213883311
 11
-21.8235433678
 21
22.3213883311
  0
LINE
  5
39F
100
AcDbEntity
  8
0
100
AcDbLine
 62
7
  6
CONTINUOUS
 10
7.7997818813
 20
22.3737961104
 11
10.0997818813
 21
22.3737961104
  0
LINE
  5
3A0
100
AcDbEntity
  8
0
100
AcDbLine
 62
7
  6
CONTINUOUS
 10
-7.7002181187
 20
22.3737961104
 11
-10.0002181187
 21
22.3737961104
  0
LINE
  5
3A1
100
AcDbEntity
  8
0
100
AcDbLine
 62
7
  6
CONTINUOUS
 10
12.4997818813
 20
22.3737961104
 11
14.7997818813
 21
22.3737961104
  0
LINE
  5
3A2
100
AcDbEntity
  8
0
100
AcDbLine
 62
7
  6
CONTINUOUS
 10
-12.4002181187
 20
22.3737961104
 11
-14.7002181187
 21
22.3737961104
  0
LINE
  5
3A3
100
AcDbEntity
  8
0
100
AcDbLine
 62
7
  6
CONTINUOUS
 10
-12.2002181187
 20
22.4
 11
-10.2002181187
 21
22.4
  0
LINE
  5
3A4
100
AcDbEntity
  8
0
100
AcDbLine
 62
7
  6
CONTINUOUS
 10
12.2997818813
 20
22.4
 11
10.2997818813
 21
22.4
  0
LINE
  5
3A5
100
AcDbEntity
  8
0
100
AcDbLine
 62
7
  6
CONTINUOUS
 10
0.6502740348
 20
22.4
 11
1.1497818813
 21
22.4
  0
LINE
  5
3A6
100
AcDbEntity
  8
0
100
AcDbLine
 62
7
  6
CONTINUOUS
 10
-0.5497754292
 20
22.4
 11
-1.0502181187
 21
22.4
  0
LINE
  5
3A7
100
AcDbEntity
  8
0
100
AcDbLine
 62
7
  6
CONTINUOUS
 10
4.0497818813
 20
22.4
 11
6.8497818813
 21
22.4
  0
LINE
  5
3A8
100
AcDbEntity
  8
0
100
AcDbLine
 62
7
  6
CONTINUOUS
 10
-3.9502181187
 20
22.4
 11
-6.7502181187
 21
22.4
  0
LINE
  5
3A9
100
AcDbEntity
  8
0
100
AcDbLine
 62
7
  6
CONTINUOUS
 10
15.7497818813
 20
22.4
 11
18.5497818813
 21
22.4
  0
LINE
  5
3AA
100
AcDbEntity
  8
0
100
AcDbLine
 62
7
  6
CONTINUOUS
 10
-15.6502181187
 20
22.4
 11
-18.4502181187
 21
22.4
  0
LINE
  5
3AB
100
AcDbEntity
  8
0
100
AcDbLine
 62
7
  6
CONTINUOUS
 10
21.4497818813
 20
22.4
 11
21.9492897278
 21
22.4
  0
LINE
  5
3AC
100
AcDbEntity
  8
0
100
AcDbLine
 62
7
  6
CONTINUOUS
 10
-21.3502181187
 20
22.4
 11
-21.8506608082
 21
22.4
  0
LINE
  5
3AD
100
AcDbEntity
  8
0
100
AcDbLine
 62
7
  6
CONTINUOUS
 10
6.8497818813
 20
24.0
 11
6.858508626
 21
23.9912732553
  0
LINE
  5
3AE
100
AcDbEntity
  8
0
100
AcDbLine
 62
7
  6
CONTINUOUS
 10
18.5497818813
 20
22.4
 11
18.5570626302
 21
22.3344140523
  0
LINE
  5
3AF
100
AcDbEntity
  8
0
100
AcDbLine
 62
7
  6
CONTINUOUS
 10
-21.0929416006
 20
23.1226497308
 11
-18.7074946368
 21
23.1226497308
  0
LINE
  5
3B0
100
AcDbEntity
  8
0
100
AcDbLine
 62
7
  6
CONTINUOUS
 10
21.1925053632
 20
23.1226497308
 11
18.8070583994
 21
23.1226497308
  0
LINE
  5
3B1
100
AcDbEntity
  8
0
100
AcDbLine
 62
7
  6
CONTINUOUS
 10
1.4070583994
 20
23.1226497308
 11
3.7925053632
 21
23.1226497308
  0
LINE
  5
3B2
100
AcDbEntity
  8
0
100
AcDbLine
 62
7
  6
CONTINUOUS
 10
-1.3074946368
 20
23.1226497308
 11
-3.6929416006
 21
23.1226497308
  0
LINE
  5
3B3
100
AcDbEntity
  8
0
100
AcDbLine
 62
253
  6
CONTINUOUS
 10
-21.0871237708
 20
23.6278312164
 11
-18.7133124666
 21
23.6278312164
  0
LINE
  5
3B4
100
AcDbEntity
  8
0
100
AcDbLine
 62
253
  6
CONTINUOUS
 10
-3.6871237708
 20
23.6278312164
 11
-1.3133124666
 21
23.6278312164
  0
LINE
  5
3B5
100
AcDbEntity
  8
0
100
AcDbLine
 62
253
  6
CONTINUOUS
 10
1.4128762292
 20
23.6278312164
 11
3.7866875334
 21
23.6278312164
  0
LINE
  5
3B6
100
AcDbEntity
  8
0
100
AcDbLine
 62
253
  6
CONTINUOUS
 10
18.8128762292
 20
23.6278312164
 11
21.1866875334
 21
23.6278312164
  0
LINE
  5
3B7
100
AcDbEntity
  8
0
100
AcDbLine
 62
253
  6
CONTINUOUS
 10
14.7997818813
 20
23.7982512664
 11
12.2997818813
 21
23.7982512664
  0
LINE
  5
3B8
100
AcDbEntity
  8
0
100
AcDbLine
 62
253
  6
CONTINUOUS
 10
7.7997818813
 20
23.7982512664
 11
10.2997818813
 21
23.7982512664
  0
LINE
  5
3B9
100
AcDbEntity
  8
0
100
AcDbLine
 62
253
  6
CONTINUOUS
 10
-7.7002181187
 20
23.7982512664
 11
-10.2002181187
 21
23.7982512664
  0
LINE
  5
3BA
100
AcDbEntity
  8
0
100
AcDbLine
 62
253
  6
CONTINUOUS
 10
-12.2002181187
 20
23.7982512664
 11
-14.7002181187
 21
23.7982512664
  0
LINE
  5
3BB
100
AcDbEntity
  8
0
100
AcDbLine
 62
253
  6
CONTINUOUS
 10
1.16288046
 20
23.8443375673
 11
4.0366833026
 21
23.8443375673
  0
LINE
  5
3BC
100
AcDbEntity
  8
0
100
AcDbLine
 62
253
  6
CONTINUOUS
 10
-1.0633166974
 20
23.8443375673
 11
-3.93711954
 21
23.8443375673
  0
LINE
  5
3BD
100
AcDbEntity
  8
0
100
AcDbLine
 62
253
  6
CONTINUOUS
 10
18.56288046
 20
23.8443375673
 11
21.4366833026
 21
23.8443375673
  0
LINE
  5
3BE
100
AcDbEntity
  8
0
100
AcDbLine
 62
253
  6
CONTINUOUS
 10
-18.4633166974
 20
23.8443375673
 11
-21.33711954
 21
23.8443375673
  0
LINE
  5
3BF
100
AcDbEntity
  8
0
100
AcDbLine
 62
7
  6
CONTINUOUS
 10
-15.641491374
 20
23.9912732553
 11
-14.7002181187
 21
23.9912732553
  0
LINE
  5
3C0
100
AcDbEntity
  8
0
100
AcDbLine
 62
7
  6
CONTINUOUS
 10
-7.7002181187
 20
23.9912732553
 11
-6.7589448634
 21
23.9912732553
  0
LINE
  5
3C1
100
AcDbEntity
  8
0
100
AcDbLine
 62
7
  6
CONTINUOUS
 10
6.858508626
 20
23.9912732553
 11
7.7997818813
 21
23.9912732553
  0
LINE
  5
3C2
100
AcDbEntity
  8
0
100
AcDbLine
 62
7
  6
CONTINUOUS
 10
14.7997818813
 20
23.9912732553
 11
15.7410551366
 21
23.9912732553
  0
LINE
  5
3C3
100
AcDbEntity
  8
0
100
AcDbLine
 62
253
  6
CONTINUOUS
 10
14.7997818813
 20
23.9982478817
 11
12.4997818813
 21
23.9982478817
  0
LINE
  5
3C4
100
AcDbEntity
  8
0
100
AcDbLine
 62
253
  6
CONTINUOUS
 10
10.0997818813
 20
23.9982478817
 11
7.7997818813
 21
23.9982478817
  0
LINE
  5
3C5
100
AcDbEntity
  8
0
100
AcDbLine
 62
7
  6
CONTINUOUS
 10
-7.7002181187
 20
23.9982478817
 11
-10.0002181187
 21
23.9982478817
  0
LINE
  5
3C6
100
AcDbEntity
  8
0
100
AcDbLine
 62
7
  6
CONTINUOUS
 10
-12.4002181187
 20
23.9982478817
 11
-14.7002181187
 21
23.9982478817
  0
LINE
  5
3C7
100
AcDbEntity
  8
0
100
AcDbLine
 62
7
  6
CONTINUOUS
 10
-15.6502181187
 20
24.0
 11
-14.7002181187
 21
24.0
  0
LINE
  5
3C8
100
AcDbEntity
  8
0
100
AcDbLine
 62
7
  6
CONTINUOUS
 10
-7.7002181187
 20
24.0
 11
-6.7502181187
 21
24.0
  0
LINE
  5
3C9
100
AcDbEntity
  8
0
100
AcDbLine
 62
7
  6
CONTINUOUS
 10
6.8497818813
 20
24.0
 11
10.0997818813
 21
24.0
  0
LINE
  5
3CA
100
AcDbEntity
  8
0
100
AcDbLine
 62
7
  6
CONTINUOUS
 10
12.4997818813
 20
24.0
 11
15.7497818813
 21
24.0
  0
LINE
  5
3CB
100
AcDbEntity
  8
0
100
AcDbLine
 62
253
  6
CONTINUOUS
 10
1.16288046
 20
24.2369056521
 11
4.0366833026
 21
24.2369056521
  0
LINE
  5
3CC
100
AcDbEntity
  8
0
100
AcDbLine
 62
253
  6
CONTINUOUS
 10
-1.0633166974
 20
24.2369056521
 11
-3.93711954
 21
24.2369056521
  0
LINE
  5
3CD
100
AcDbEntity
  8
0
100
AcDbLine
 62
253
  6
CONTINUOUS
 10
18.56288046
 20
24.2369056521
 11
21.4366833026
 21
24.2369056521
  0
LINE
  5
3CE
100
AcDbEntity
  8
0
100
AcDbLine
 62
253
  6
CONTINUOUS
 10
-18.4633166974
 20
24.2369056521
 11
-21.33711954
 21
24.2369056521
  0
LINE
  5
3CF
100
AcDbEntity
  8
0
100
AcDbLine
 62
253
  6
CONTINUOUS
 10
21.1866875334
 20
24.4869014213
 11
18.8128762292
 21
24.4869014213
  0
LINE
  5
3D0
100
AcDbEntity
  8
0
100
AcDbLine
 62
253
  6
CONTINUOUS
 10
3.7866875334
 20
24.4869014213
 11
1.4128762292
 21
24.4869014213
  0
LINE
  5
3D1
100
AcDbEntity
  8
0
100
AcDbLine
 62
7
  6
CONTINUOUS
 10
-1.3133124666
 20
24.4869014213
 11
-3.6871237708
 21
24.4869014213
  0
LINE
  5
3D2
100
AcDbEntity
  8
0
100
AcDbLine
 62
7
  6
CONTINUOUS
 10
-18.7133124666
 20
24.4869014213
 11
-21.0871237708
 21
24.4869014213
  0
LINE
  5
3D3
100
AcDbEntity
  8
0
100
AcDbLine
 62
7
  6
CONTINUOUS
 10
21.1997861121
 20
24.5
 11
18.7997776505
 21
24.5
  0
LINE
  5
3D4
100
AcDbEntity
  8
0
100
AcDbLine
 62
7
  6
CONTINUOUS
 10
3.7997861121
 20
24.5
 11
1.3997776505
 21
24.5
  0
LINE
  5
3D5
100
AcDbEntity
  8
0
100
AcDbLine
 62
7
  6
CONTINUOUS
 10
-1.3002138879
 20
24.5
 11
-3.7002223495
 21
24.5
  0
LINE
  5
3D6
100
AcDbEntity
  8
0
100
AcDbLine
 62
7
  6
CONTINUOUS
 10
-18.7002138879
 20
24.5
 11
-21.1002223495
 21
24.5
  0
LINE
  5
3D7
100
AcDbEntity
  8
0
100
AcDbLine
 62
253
  6
CONTINUOUS
 10
18.56288046
 20
-24.2369056521
 11
18.5497818813
 21
-24.2500042308
  0
LINE
  5
3D8
100
AcDbEntity
  8
0
100
AcDbLine
 62
253
  6
CONTINUOUS
 10
18.8128762292
 20
-24.4869014213
 11
18.7997776505
 21
-24.5
  0
LINE
  5
3D9
100
AcDbEntity
  8
RACCORDO
100
AcDbLine
 62
253
  6
CONTINUOUS
 10
22.0959055863
 20
-21.554072649
 11
22.1997818813
 21
-21.450196354
  0
LINE
  5
3DA
100
AcDbEntity
  8
RACCORDO
100
AcDbLine
 62
7
  6
CONTINUOUS
 10
22.0536483921
 20
-21.8029229641
 11
21.9495677318
 21
-21.9070036133
  0
LINE
  5
3DB
100
AcDbEntity
  8
0
100
AcDbLine
 62
253
  6
CONTINUOUS
 10
18.56288046
 20
24.2369056521
 11
18.5497818813
 21
24.2500042308
  0
LINE
  5
3DC
100
AcDbEntity
  8
0
100
AcDbLine
 62
253
  6
CONTINUOUS
 10
18.8128762292
 20
24.4869014213
 11
18.7997776505
 21
24.5
  0
LINE
  5
3DD
100
AcDbEntity
  8
0
100
AcDbLine
 62
7
  6
CONTINUOUS
 10
-54.2410263959
 20
-24.5
 11
-53.4895719631
 21
-24.495628166
  0
LINE
  5
3DE
100
AcDbEntity
  8
0
100
AcDbLine
 62
253
  6
CONTINUOUS
 10
-54.2410263959
 20
-24.2500042308
 11
-53.4895719631
 21
-24.2456323968
  0
LINE
  5
3DF
100
AcDbEntity
  8
0
100
AcDbLine
 62
7
  6
CONTINUOUS
 10
-46.7381175303
 20
-23.9563493531
 11
-53.2410263959
 21
-23.9941821702
  0
LINE
  5
3E0
100
AcDbEntity
  8
0
100
AcDbLine
 62
253
  6
CONTINUOUS
 10
-53.2410263959
 20
-24.2456323968
 11
-53.4895719631
 21
-24.2456323968
  0
LINE
  5
3E1
100
AcDbEntity
  8
0
100
AcDbLine
 62
253
  6
CONTINUOUS
 10
-56.7410263959
 20
-24.2369056521
 11
-56.4924808288
 21
-24.2369056521
  0
LINE
  5
3E2
100
AcDbEntity
  8
0
100
AcDbLine
 62
253
  6
CONTINUOUS
 10
-56.7410263959
 20
-23.8443375673
 11
-56.4924808288
 21
-23.8443375673
  0
LINE
  5
3E3
100
AcDbEntity
  8
0
100
AcDbLine
 62
253
  6
CONTINUOUS
 10
-53.2410263959
 20
-23.8443375673
 11
-53.4895719631
 21
-23.8443375673
  0
LINE
  5
3E4
100
AcDbEntity
  8
0
100
AcDbLine
 62
7
  6
CONTINUOUS
 10
-56.4924808288
 20
-24.4869014213
 11
-54.2410263959
 21
-24.5
  0
LINE
  5
3E5
100
AcDbEntity
  8
0
100
AcDbLine
 62
253
  6
CONTINUOUS
 10
-56.4924808288
 20
-24.2369056521
 11
-54.2410263959
 21
-24.2500042308
  0
LINE
  5
3E6
100
AcDbEntity
  8
0
100
AcDbLine
 62
253
  6
CONTINUOUS
 10
-54.2410263959
 20
23.4104851482
 11
-53.4895719631
 21
23.8443375673
  0
LINE
  5
3E7
100
AcDbEntity
  8
0
100
AcDbLine
 62
7
  6
CONTINUOUS
 10
-54.2410263959
 20
23.1226497308
 11
-53.3660263959
 21
23.6278312164
  0
LINE
  5
3E8
100
AcDbEntity
  8
RACCORDO
100
AcDbLine
 62
7
  6
CONTINUOUS
 10
-60.7544294952
 20
-22.0532163137
 11
-56.787553833
 21
-21.9493400187
  0
LINE
  5
3E9
100
AcDbEntity
  8
0
100
AcDbLine
 62
7
  6
CONTINUOUS
 10
-43.2352086646
 20
-22.3359700255
 11
-54.2410263959
 21
-22.4
  0
LINE
  5
3EA
100
AcDbEntity
  8
0
100
AcDbLine
 62
253
  6
CONTINUOUS
 10
-54.2410263959
 20
-21.900016923
 11
-53.2410263959
 21
-21.8941990932
  0
LINE
  5
3EB
100
AcDbEntity
  8
0
100
AcDbLine
 62
7
  6
CONTINUOUS
 10
-42.7323001927
 20
-21.5834304982
 11
-52.2410263959
 21
-21.4174550649
  0
LINE
  5
3EC
100
AcDbEntity
  8
0
100
AcDbLine
 62
7
  6
CONTINUOUS
 10
-55.7410263959
 20
-22.3213883311
 11
-54.2410263959
 21
-22.4
  0
LINE
  5
3ED
100
AcDbEntity
  8
0
100
AcDbLine
 62
253
  6
CONTINUOUS
 10
-55.7410263959
 20
-21.821159479
 11
-54.2410263959
 21
-21.8997711479
  0
LINE
  5
3EE
100
AcDbEntity
  8
0
100
AcDbLine
 62
253
  6
CONTINUOUS
 10
-53.4895719631
 20
-23.8443375673
 11
-54.2410263959
 21
-23.4104851482
  0
LINE
  5
3EF
100
AcDbEntity
  8
0
100
AcDbLine
 62
7
  6
CONTINUOUS
 10
-53.3660263959
 20
-23.6278312164
 11
-54.2410263959
 21
-23.1226497308
  0
LINE
  5
3F0
100
AcDbEntity
  8
RACCORDO
100
AcDbLine
 62
253
  6
CONTINUOUS
 10
-60.7805885063
 20
-21.554072649
 11
-56.813712844
 21
-21.450196354
  0
LINE
  5
3F1
100
AcDbEntity
  8
RACCORDO
100
AcDbLine
 62
7
  6
CONTINUOUS
 10
-31.2235739895
 20
-19.4186688218
 11
-42.2410263959
 21
-19.6109791689
  0
LINE
  5
3F2
100
AcDbEntity
  8
DRAFT
100
AcDbLine
 62
7
  6
CONTINUOUS
 10
-56.0910263959
 20
-20.95
 11
-56.7724606265
 21
-20.95
  0
LINE
  5
3F3
100
AcDbEntity
  8
0
100
AcDbLine
 62
7
  6
CONTINUOUS
 10
-42.2410263959
 20
-20.9
 11
-52.2410263959
 21
-20.9
  0
LINE
  5
3F4
100
AcDbEntity
  8
0
100
AcDbLine
 62
7
  6
CONTINUOUS
 10
-56.1410263959
 20
-20.1
 11
-55.7410263959
 21
-20.1
  0
LINE
  5
3F5
100
AcDbEntity
  8
ASSI
100
AcDbLine
 62
7
  6
CONTINUOUS
 10
-56.1410263959
 20
-20.1
 11
-55.7410263959
 21
-20.1
  0
LINE
  5
3F6
100
AcDbEntity
  8
RACCORDO
100
AcDbLine
 62
7
  6
CONTINUOUS
 10
-42.4392810888
 20
-19.7942654032
 11
-52.2410263959
 21
-19.7087268678
  0
LINE
  5
3F7
100
AcDbEntity
  8
RACCORDO
100
AcDbLine
 62
7
  6
CONTINUOUS
 10
-56.5257632998
 20
-18.7297402965
 11
-56.9592769822
 21
-18.6726671374
  0
LINE
  5
3F8
100
AcDbEntity
  8
RACCORDO
100
AcDbLine
 62
253
  6
CONTINUOUS
 10
-42.2410499742
 20
-19.0133961437
 11
-31.2235739895
 21
-18.9337384193
  0
LINE
  5
3F9
100
AcDbEntity
  8
RACCORDO
100
AcDbLine
 62
253
  6
CONTINUOUS
 10
-44.9366116064
 20
-17.6188872195
 11
-31.2235739895
 21
-17.5197402485
  0
LINE
  5
3FA
100
AcDbEntity
  8
RACCORDO
100
AcDbLine
 62
253
  6
CONTINUOUS
 10
-42.4375359146
 20
-19.0166572575
 11
-42.2410263959
 21
-19.0166572575
  0
LINE
  5
3FB
100
AcDbEntity
  8
0
100
AcDbLine
 62
7
  6
CONTINUOUS
 10
-56.1410263959
 20
-18.1
 11
-55.7410263959
 21
-18.1
  0
LINE
  5
3FC
100
AcDbEntity
  8
ASSI
100
AcDbLine
 62
7
  6
CONTINUOUS
 10
-55.7410263959
 20
-18.1
 11
-56.1410263959
 21
-18.1
  0
LINE
  5
3FD
100
AcDbEntity
  8
DRAFT
100
AcDbLine
 62
253
  6
CONTINUOUS
 10
-31.2235739895
 20
-17.5197402485
 11
-30.244786976
 21
-17.5197402485
  0
LINE
  5
3FE
100
AcDbEntity
  8
RACCORDO
100
AcDbLine
 62
7
  6
CONTINUOUS
 10
-30.2422816099
 20
-18.4180655999
 11
-30.2410263959
 21
-18.4180728295
  0
LINE
  5
3FF
100
AcDbEntity
  8
RACCORDO
100
AcDbLine
 62
253
  6
CONTINUOUS
 10
-30.2534605702
 20
-17.9180095062
 11
-30.2410263959
 21
-17.9180811227
  0
LINE
  5
400
100
AcDbEntity
  8
0
100
AcDbLine
 62
7
  6
CONTINUOUS
 10
-53.2410263959
 20
-18.5082905244
 11
-52.2410263959
 21
-18.5170173922
  0
LINE
  5
401
100
AcDbEntity
  8
RACCORDO
100
AcDbLine
 62
7
  6
CONTINUOUS
 10
-55.7410263959
 20
-17.7
 11
-57.0114144339
 21
-17.6778252943
  0
LINE
  5
402
100
AcDbEntity
  8
RACCORDO
100
AcDbLine
 62
7
  6
CONTINUOUS
 10
-55.7410263959
 20
-17.4
 11
-57.0271511634
 21
-17.3775506087
  0
LINE
  5
403
100
AcDbEntity
  8
RACCORDO
100
AcDbLine
 62
253
  6
CONTINUOUS
 10
-55.7603019373
 20
-16.399815849
 11
-57.0795989389
 21
-16.3767874342
  0
LINE
  5
404
100
AcDbEntity
  8
DRAFT
100
AcDbLine
 62
7
  6
CONTINUOUS
 10
-56.7724606265
 20
20.95
 11
-57.1910263959
 21
19.8
  0
LINE
  5
405
100
AcDbEntity
  8
RACCORDO
100
AcDbLine
 62
7
  6
CONTINUOUS
 10
-52.2410263959
 20
14.9602976573
 11
-42.3726223667
 21
18.5521029837
  0
LINE
  5
406
100
AcDbEntity
  8
RACCORDO
100
AcDbLine
 62
7
  6
CONTINUOUS
 10
-42.3726223667
 20
-18.5521029837
 11
-52.2410263959
 21
-14.9602976573
  0
LINE
  5
407
100
AcDbEntity
  8
DRAFT
100
AcDbLine
 62
7
  6
CONTINUOUS
 10
-56.7724606265
 20
-20.95
 11
-56.8512755163
 21
-20.73345787
  0
LINE
  5
408
100
AcDbEntity
  8
0
100
AcDbLine
 62
7
  6
CONTINUOUS
 10
-58.8910263959
 20
20.5999113892
 11
-58.8910263959
 21
19.8
  0
LINE
  5
409
100
AcDbEntity
  8
RACCORDO
100
AcDbLine
 62
7
  6
CONTINUOUS
 10
-58.7410263959
 20
15.3251369698
 11
-58.7410263959
 21
17.0528256263
  0
LINE
  5
40A
100
AcDbEntity
  8
RACCORDO
100
AcDbLine
 62
253
  6
CONTINUOUS
 10
-58.4462621179
 20
9.7006994893
 11
-58.4462621179
 21
16.3529322397
  0
LINE
  5
40B
100
AcDbEntity
  8
RACCORDO
100
AcDbLine
 62
253
  6
CONTINUOUS
 10
-62.8629727348
 20
-9.6409346347
 11
-63.348629639
 21
-9.6758998718
  0
LINE
  5
40C
100
AcDbEntity
  8
DRAFT
100
AcDbLine
 62
7
  6
CONTINUOUS
 10
-57.339424596
 20
0.0
 11
-55.7410263959
 21
-16.6
  0
LINE
  5
40D
100
AcDbEntity
  8
RACCORDO
100
AcDbLine
 62
7
  6
CONTINUOUS
 10
-56.787553833
 20
-21.9493400187
 11
-59.100803099
 21
22.1900854174
  0
LINE
  5
40E
100
AcDbEntity
  8
0
100
AcDbLine
 62
7
  6
CONTINUOUS
 10
-57.8910263959
 20
20.2874886635
 11
-57.8910263959
 21
19.4
  0
LINE
  5
40F
100
AcDbEntity
  8
ASSI
100
AcDbLine
 62
7
  6
CONTINUOUS
 10
-57.8910263959
 20
19.4
 11
-57.8910263959
 21
17.3624716104
  0
LINE
  5
410
100
AcDbEntity
  8
ASSI
100
AcDbLine
 62
7
  6
CONTINUOUS
 10
-57.4589755884
 20
19.8
 11
-57.4589755884
 21
18.8
  0
LINE
  5
411
100
AcDbEntity
  8
0
100
AcDbLine
 62
7
  6
CONTINUOUS
 10
-56.7410263959
 20
-24.2369056521
 11
-56.7410263959
 21
-23.8443375673
  0
LINE
  5
412
100
AcDbEntity
  8
0
100
AcDbLine
 62
7
  6
CONTINUOUS
 10
-56.7410263959
 20
23.8443375673
 11
-56.7410263959
 21
24.2369056521
  0
LINE
  5
413
100
AcDbEntity
  8
0
100
AcDbLine
 62
253
  6
CONTINUOUS
 10
-56.4924808288
 20
-24.2369056521
 11
-56.4924808288
 21
-23.8443375673
  0
LINE
  5
414
100
AcDbEntity
  8
0
100
AcDbLine
 62
253
  6
CONTINUOUS
 10
-56.4924808288
 20
23.8443375673
 11
-56.4924808288
 21
24.2369056521
  0
LINE
  5
415
100
AcDbEntity
  8
ASSI
100
AcDbLine
 62
7
  6
CONTINUOUS
 10
-56.1410263959
 20
-20.1
 11
-56.1410263959
 21
-18.1
  0
LINE
  5
416
100
AcDbEntity
  8
ASSI
100
AcDbLine
 62
7
  6
CONTINUOUS
 10
-56.1410263959
 20
18.1
 11
-56.1410263959
 21
20.1
  0
LINE
  5
417
100
AcDbEntity
  8
RACCORDO
100
AcDbLine
 62
7
  6
CONTINUOUS
 10
-56.0910263959
 20
-20.95
 11
-56.0910263959
 21
-20.1
  0
LINE
  5
418
100
AcDbEntity
  8
RACCORDO
100
AcDbLine
 62
7
  6
CONTINUOUS
 10
-56.0910263959
 20
20.1
 11
-56.0910263959
 21
20.95
  0
LINE
  5
419
100
AcDbEntity
  8
DRAFT
100
AcDbLine
 62
7
  6
CONTINUOUS
 10
-55.7410263959
 20
16.6
 11
-57.339424596
 21
0.0
  0
LINE
  5
41A
100
AcDbEntity
  8
DRAFT
100
AcDbLine
 62
7
  6
CONTINUOUS
 10
-30.2410263959
 20
-6.2801850577
 11
-30.2447869765
 21
-6.2802178758
  0
LINE
  5
41B
100
AcDbEntity
  8
DRAFT
100
AcDbLine
 62
7
  6
CONTINUOUS
 10
-30.2410263959
 20
-8.1198149423
 11
-30.2447869766
 21
-8.1197821242
  0
LINE
  5
41C
100
AcDbEntity
  8
0
100
AcDbLine
 62
7
  6
CONTINUOUS
 10
-55.7410263959
 20
-21.821159479
 11
-55.7410263959
 21
-23.1226497308
  0
LINE
  5
41D
100
AcDbEntity
  8
DRAFT
100
AcDbLine
 62
7
  6
CONTINUOUS
 10
-55.7410263959
 20
-21.821159479
 11
-55.7410263959
 21
-16.6
  0
LINE
  5
41E
100
AcDbEntity
  8
DRAFT
100
AcDbLine
 62
7
  6
CONTINUOUS
 10
-55.7410263959
 20
16.6
 11
-55.7410263959
 21
21.821159479
  0
LINE
  5
41F
100
AcDbEntity
  8
0
100
AcDbLine
 62
7
  6
CONTINUOUS
 10
-55.7410263959
 20
21.821159479
 11
-55.7410263959
 21
23.1226497308
  0
LINE
  5
420
100
AcDbEntity
  8
0
100
AcDbLine
 62
253
  6
CONTINUOUS
 10
-55.4924808288
 20
-23.2669872981
 11
-55.4924808288
 21
-22.3344140523
  0
LINE
  5
421
100
AcDbEntity
  8
0
100
AcDbLine
 62
253
  6
CONTINUOUS
 10
-55.4924808288
 20
22.3344140523
 11
-55.4924808288
 21
23.2669872981
  0
LINE
  5
422
100
AcDbEntity
  8
0
100
AcDbLine
 62
7
  6
CONTINUOUS
 10
-54.2410263959
 20
-24.2500042308
 11
-54.2410263959
 21
24.2500042308
  0
LINE
  5
423
100
AcDbEntity
  8
DRAFT
100
AcDbLine
 62
7
  6
CONTINUOUS
 10
-30.2410263959
 20
-5.0198149423
 11
-30.2447869765
 21
-5.0197821242
  0
LINE
  5
424
100
AcDbEntity
  8
0
100
AcDbLine
 62
253
  6
CONTINUOUS
 10
-53.4895719631
 20
24.2456323968
 11
-53.4895719631
 21
23.8443375673
  0
LINE
  5
425
100
AcDbEntity
  8
0
100
AcDbLine
 62
253
  6
CONTINUOUS
 10
-53.4895719631
 20
-23.8443375673
 11
-53.4895719631
 21
-24.2456323968
  0
LINE
  5
426
100
AcDbEntity
  8
0
100
AcDbLine
 62
7
  6
CONTINUOUS
 10
-53.2410263959
 20
24.2456323968
 11
-53.2410263959
 21
23.8443375673
  0
LINE
  5
427
100
AcDbEntity
  8
0
100
AcDbLine
 62
7
  6
CONTINUOUS
 10
-53.2410263959
 20
-22.3941821702
 11
-53.2410263959
 21
-18.5082905244
  0
LINE
  5
428
100
AcDbEntity
  8
0
100
AcDbLine
 62
7
  6
CONTINUOUS
 10
-53.2410263959
 20
-23.8443375673
 11
-53.2410263959
 21
-24.2456323968
  0
LINE
  5
429
100
AcDbEntity
  8
0
100
AcDbLine
 62
7
  6
CONTINUOUS
 10
-53.2410263959
 20
18.5082905244
 11
-53.2410263959
 21
22.3941821702
  0
LINE
  5
42A
100
AcDbEntity
  8
0
100
AcDbLine
 62
7
  6
CONTINUOUS
 10
-52.2410263959
 20
21.4174550649
 11
-52.2410263959
 21
-21.4174550649
  0
LINE
  5
42B
100
AcDbEntity
  8
DRAFT
100
AcDbLine
 62
7
  6
CONTINUOUS
 10
-29.9619533381
 20
-1.6804853108
 11
-28.5200994538
 21
-1.5796610653
  0
LINE
  5
42C
100
AcDbEntity
  8
DRAFT
100
AcDbLine
 62
7
  6
CONTINUOUS
 10
-30.2410263959
 20
-3.1801850577
 11
-30.2447869764
 21
-3.1802178758
  0
LINE
  5
42D
100
AcDbEntity
  8
RACCORDO
100
AcDbLine
 62
253
  6
CONTINUOUS
 10
-28.2410263959
 20
0.745771121
 11
-28.5392985295
 21
0.745771121
  0
LINE
  5
42E
100
AcDbEntity
  8
RACCORDO
100
AcDbLine
 62
253
  6
CONTINUOUS
 10
-28.2410263959
 20
2.054229074
 11
-28.5392985295
 21
2.054229074
  0
LINE
  5
42F
100
AcDbEntity
  8
0
100
AcDbLine
 62
7
  6
CONTINUOUS
 10
-46.7410263959
 20
-23.4413184673
 11
-46.7410263959
 21
-22.8586815327
  0
LINE
  5
430
100
AcDbEntity
  8
0
100
AcDbLine
 62
7
  6
CONTINUOUS
 10
-46.7410263959
 20
22.8586815327
 11
-46.7410263959
 21
23.4413184673
  0
LINE
  5
431
100
AcDbEntity
  8
0
100
AcDbLine
 62
253
  6
CONTINUOUS
 10
-46.6914334251
 20
23.9538922731
 11
-46.6914334251
 21
22.356077753
  0
LINE
  5
432
100
AcDbEntity
  8
0
100
AcDbLine
 62
253
  6
CONTINUOUS
 10
-46.6914334251
 20
-22.356077753
 11
-46.6914334251
 21
-23.9538922731
  0
LINE
  5
433
100
AcDbEntity
  8
0
100
AcDbLine
 62
7
  6
CONTINUOUS
 10
-46.2410263959
 20
23.4563578147
 11
-46.2410263959
 21
22.3534625321
  0
LINE
  5
434
100
AcDbEntity
  8
0
100
AcDbLine
 62
7
  6
CONTINUOUS
 10
-46.2410263959
 20
-22.3534625321
 11
-46.2410263959
 21
-23.4563578147
  0
LINE
  5
435
100
AcDbEntity
  8
RACCORDO
100
AcDbLine
 62
253
  6
CONTINUOUS
 10
-30.2410263959
 20
4.8999741027
 11
-30.2447851953
 21
4.8999084926
  0
LINE
  5
436
100
AcDbEntity
  8
DRAFT
100
AcDbLine
 62
7
  6
CONTINUOUS
 10
-29.9619533381
 20
4.4804853108
 11
-28.5200994538
 21
4.3796610653
  0
LINE
  5
437
100
AcDbEntity
  8
0
100
AcDbLine
 62
253
  6
CONTINUOUS
 10
-42.7323001927
 20
-21.5834304982
 11
-42.7323001927
 21
-20.9
  0
LINE
  5
438
100
AcDbEntity
  8
0
100
AcDbLine
 62
253
  6
CONTINUOUS
 10
-42.7323001927
 20
20.9
 11
-42.7323001927
 21
21.5834304982
  0
LINE
  5
439
100
AcDbEntity
  8
RACCORDO
100
AcDbLine
 62
253
  6
CONTINUOUS
 10
-42.4392810888
 20
20.9
 11
-42.4392810888
 21
19.7942654032
  0
LINE
  5
43A
100
AcDbEntity
  8
RACCORDO
100
AcDbLine
 62
253
  6
CONTINUOUS
 10
-42.4392810888
 20
-19.7942654032
 11
-42.4392810888
 21
-20.9
  0
LINE
  5
43B
100
AcDbEntity
  8
RACCORDO
100
AcDbLine
 62
253
  6
CONTINUOUS
 10
-42.4375359146
 20
-19.7942654032
 11
-42.4375359146
 21
-19.0166572575
  0
LINE
  5
43C
100
AcDbEntity
  8
RACCORDO
100
AcDbLine
 62
253
  6
CONTINUOUS
 10
-42.4375359146
 20
19.0166572575
 11
-42.4375359146
 21
19.7942654032
  0
LINE
  5
43D
100
AcDbEntity
  8
0
100
AcDbLine
 62
7
  6
CONTINUOUS
 10
-42.2410263959
 20
-21.3359869487
 11
-42.2410263959
 21
-20.9
  0
LINE
  5
43E
100
AcDbEntity
  8
RACCORDO
100
AcDbLine
 62
7
  6
CONTINUOUS
 10
-42.2410263959
 20
-20.9
 11
-42.2410263959
 21
-18.7400415081
  0
LINE
  5
43F
100
AcDbEntity
  8
RACCORDO
100
AcDbLine
 62
7
  6
CONTINUOUS
 10
-42.2410263959
 20
18.7400415081
 11
-42.2410263959
 21
20.9
  0
LINE
  5
440
100
AcDbEntity
  8
0
100
AcDbLine
 62
7
  6
CONTINUOUS
 10
-42.2410263959
 20
20.9
 11
-42.2410263959
 21
21.3359869487
  0
LINE
  5
441
100
AcDbEntity
  8
DRAFT
100
AcDbLine
 62
7
  6
CONTINUOUS
 10
-29.9619533381
 20
9.0195146892
 11
-28.5200994538
 21
9.1203389347
  0
LINE
  5
442
100
AcDbEntity
  8
RACCORDO
100
AcDbLine
 62
253
  6
CONTINUOUS
 10
-63.8563615203
 20
9.3140525645
 11
-64.3430128079
 21
9.2980612885
  0
LINE
  5
443
100
AcDbEntity
  8
RACCORDO
100
AcDbLine
 62
253
  6
CONTINUOUS
 10
-28.2410263959
 20
10.6148245098
 11
-28.535790674
 21
10.6148245098
  0
LINE
  5
444
100
AcDbEntity
  8
RACCORDO
100
AcDbLine
 62
253
  6
CONTINUOUS
 10
-28.2410263959
 20
13.5851753059
 11
-28.535790674
 21
13.5851753059
  0
LINE
  5
445
100
AcDbEntity
  8
0
100
AcDbLine
 62
7
  6
CONTINUOUS
 10
-55.7410263959
 20
-23.1226497308
 11
-56.6160263959
 21
-23.6278312164
  0
LINE
  5
446
100
AcDbEntity
  8
0
100
AcDbLine
 62
253
  6
CONTINUOUS
 10
-55.4924808288
 20
-23.2669872981
 11
-56.4924808288
 21
-23.8443375673
  0
LINE
  5
447
100
AcDbEntity
  8
RACCORDO
100
AcDbLine
 62
253
  6
CONTINUOUS
 10
-55.7603019373
 20
16.399815849
 11
-58.4462621179
 21
16.3529322397
  0
LINE
  5
448
100
AcDbEntity
  8
RACCORDO
100
AcDbLine
 62
7
  6
CONTINUOUS
 10
-55.7410263959
 20
17.4
 11
-58.4462621179
 21
17.3527799348
  0
LINE
  5
449
100
AcDbEntity
  8
RACCORDO
100
AcDbLine
 62
253
  6
CONTINUOUS
 10
-58.7410263959
 20
16.3529322397
 11
-58.4462621179
 21
16.3529322397
  0
LINE
  5
44A
100
AcDbEntity
  8
RACCORDO
100
AcDbLine
 62
253
  6
CONTINUOUS
 10
-31.2235739895
 20
17.5197402485
 11
-30.2410263959
 21
17.5197402485
  0
LINE
  5
44B
100
AcDbEntity
  8
RACCORDO
100
AcDbLine
 62
253
  6
CONTINUOUS
 10
-31.2235739895
 20
17.5197402485
 11
-44.9366116064
 21
17.6188872195
  0
LINE
  5
44C
100
AcDbEntity
  8
DRAFT
100
AcDbLine
 62
7
  6
CONTINUOUS
 10
-29.9619533381
 20
15.1804853108
 11
-28.5200994538
 21
15.0796610653
  0
LINE
  5
44D
100
AcDbEntity
  8
0
100
AcDbLine
 62
7
  6
CONTINUOUS
 10
-56.6160263959
 20
23.6278312164
 11
-55.7410263959
 21
23.1226497308
  0
LINE
  5
44E
100
AcDbEntity
  8
0
100
AcDbLine
 62
253
  6
CONTINUOUS
 10
-56.4924808288
 20
23.8443375673
 11
-55.4924808288
 21
23.2669872981
  0
LINE
  5
44F
100
AcDbEntity
  8
RACCORDO
100
AcDbLine
 62
253
  6
CONTINUOUS
 10
-31.2235739895
 20
-19.4186688218
 11
-31.2235739895
 21
-18.9337384193
  0
LINE
  5
450
100
AcDbEntity
  8
RACCORDO
100
AcDbLine
 62
253
  6
CONTINUOUS
 10
-31.2235739895
 20
-17.5197402485
 11
-31.2235739895
 21
10.3723510721
  0
LINE
  5
451
100
AcDbEntity
  8
RACCORDO
100
AcDbLine
 62
253
  6
CONTINUOUS
 10
-31.2235739895
 20
13.8276488991
 11
-31.2235739895
 21
17.5197402485
  0
LINE
  5
452
100
AcDbEntity
  8
RACCORDO
100
AcDbLine
 62
253
  6
CONTINUOUS
 10
-31.2235739895
 20
18.9337384193
 11
-31.2235739895
 21
19.4186688218
  0
LINE
  5
453
100
AcDbEntity
  8
RACCORDO
100
AcDbLine
 62
7
  6
CONTINUOUS
 10
-30.2447869771
 20
-17.5197402485
 11
-30.244786976
 21
4.9000105113
  0
LINE
  5
454
100
AcDbEntity
  8
DRAFT
100
AcDbLine
 62
7
  6
CONTINUOUS
 10
-30.2410263959
 20
18.2267393339
 11
-30.2410263959
 21
18.0418550383
  0
LINE
  5
455
100
AcDbEntity
  8
RACCORDO
100
AcDbLine
 62
7
  6
CONTINUOUS
 10
-30.2410263959
 20
9.0880627834
 11
-30.2410263959
 21
5.1814808974
  0
LINE
  5
456
100
AcDbEntity
  8
RACCORDO
100
AcDbLine
 62
7
  6
CONTINUOUS
 10
-30.2410263959
 20
-18.4188211266
 11
-30.2410263959
 21
-16.6728853989
  0
LINE
  5
457
100
AcDbEntity
  8
RACCORDO
100
AcDbLine
 62
7
  6
CONTINUOUS
 10
-30.2410263959
 20
-11.3271146065
 11
-30.2410263959
 21
-8.1198149423
  0
LINE
  5
458
100
AcDbEntity
  8
DRAFT
100
AcDbLine
 62
7
  6
CONTINUOUS
 10
-30.2410263959
 20
-8.1198149423
 11
-30.2410263959
 21
-3.1801850577
  0
LINE
  5
459
100
AcDbEntity
  8
RACCORDO
100
AcDbLine
 62
7
  6
CONTINUOUS
 10
-30.2410263959
 20
-3.1801850577
 11
-30.2410263959
 21
-0.3325008953
  0
LINE
  5
45A
100
AcDbEntity
  8
RACCORDO
100
AcDbLine
 62
7
  6
CONTINUOUS
 10
-30.2410263959
 20
3.1325008953
 11
-30.2410263959
 21
5.1777938255
  0
LINE
  5
45B
100
AcDbEntity
  8
RACCORDO
100
AcDbLine
 62
7
  6
CONTINUOUS
 10
-30.2410263959
 20
15.1119372177
 11
-30.2410263959
 21
18.4188211266
  0
LINE
  5
45C
100
AcDbEntity
  8
RACCORDO
100
AcDbLine
 62
253
  6
CONTINUOUS
 10
-29.9619532101
 20
0.2663146171
 11
-29.9619533381
 21
-1.6804853108
  0
LINE
  5
45D
100
AcDbEntity
  8
RACCORDO
100
AcDbLine
 62
253
  6
CONTINUOUS
 10
-29.9619534912
 20
2.5336866895
 11
-29.9619533381
 21
4.4804853108
  0
LINE
  5
45E
100
AcDbEntity
  8
RACCORDO
100
AcDbLine
 62
253
  6
CONTINUOUS
 10
-29.9619533381
 20
9.0195146892
 11
-29.9619533381
 21
9.354763768
  0
LINE
  5
45F
100
AcDbEntity
  8
RACCORDO
100
AcDbLine
 62
253
  6
CONTINUOUS
 10
-29.9619533381
 20
14.845236232
 11
-29.9619533381
 21
15.1804853108
  0
LINE
  5
460
100
AcDbEntity
  8
RACCORDO
100
AcDbLine
 62
7
  6
CONTINUOUS
 10
-56.5257632998
 20
18.7297402965
 11
-57.8910263959
 21
18.55
  0
LINE
  5
461
100
AcDbEntity
  8
RACCORDO
100
AcDbLine
 62
7
  6
CONTINUOUS
 10
-55.7410263959
 20
17.7
 11
-57.8910263959
 21
17.6624716104
  0
LINE
  5
462
100
AcDbEntity
  8
0
100
AcDbLine
 62
7
  6
CONTINUOUS
 10
-53.2410263959
 20
18.5082905244
 11
-52.2410263959
 21
18.5170173922
  0
LINE
  5
463
100
AcDbEntity
  8
RACCORDO
100
AcDbLine
 62
7
  6
CONTINUOUS
 10
-42.4392810888
 20
19.7942654032
 11
-52.2410263959
 21
19.7087268678
  0
LINE
  5
464
100
AcDbEntity
  8
0
100
AcDbLine
 62
7
  6
CONTINUOUS
 10
-56.1410263959
 20
18.1
 11
-55.7410263959
 21
18.1
  0
LINE
  5
465
100
AcDbEntity
  8
ASSI
100
AcDbLine
 62
7
  6
CONTINUOUS
 10
-56.1410263959
 20
18.1
 11
-55.7410263959
 21
18.1
  0
LINE
  5
466
100
AcDbEntity
  8
ASSI
100
AcDbLine
 62
7
  6
CONTINUOUS
 10
-57.2831479931
 20
18.8
 11
-57.8910263959
 21
18.8
  0
LINE
  5
467
100
AcDbEntity
  8
RACCORDO
100
AcDbLine
 62
253
  6
CONTINUOUS
 10
-42.4375359146
 20
19.0166572575
 11
-42.2410263959
 21
19.0166572575
  0
LINE
  5
468
100
AcDbEntity
  8
RACCORDO
100
AcDbLine
 62
253
  6
CONTINUOUS
 10
-58.9258222358
 20
19.4
 11
-57.8910263959
 21
19.4
  0
LINE
  5
469
100
AcDbEntity
  8
0
100
AcDbLine
 62
7
  6
CONTINUOUS
 10
-58.8910263959
 20
19.8
 11
-57.8910263959
 21
19.8
  0
LINE
  5
46A
100
AcDbEntity
  8
ASSI
100
AcDbLine
 62
7
  6
CONTINUOUS
 10
-57.8910263959
 20
19.8
 11
-57.2314346017
 21
19.8
  0
LINE
  5
46B
100
AcDbEntity
  8
RACCORDO
100
AcDbLine
 62
253
  6
CONTINUOUS
 10
-31.2235739895
 20
18.9337384193
 11
-42.2410499742
 21
19.0133961437
  0
LINE
  5
46C
100
AcDbEntity
  8
RACCORDO
100
AcDbLine
 62
7
  6
CONTINUOUS
 10
-31.2235739895
 20
19.4186688218
 11
-42.2410263959
 21
19.6109791689
  0
LINE
  5
46D
100
AcDbEntity
  8
RACCORDO
100
AcDbLine
 62
253
  6
CONTINUOUS
 10
-28.5410263959
 20
13.387725869
 11
-28.5410263959
 21
10.812274131
  0
LINE
  5
46E
100
AcDbEntity
  8
RACCORDO
100
AcDbLine
 62
253
  6
CONTINUOUS
 10
-28.5392985295
 20
2.0542271239
 11
-28.5392985295
 21
0.7457730711
  0
LINE
  5
46F
100
AcDbEntity
  8
RACCORDO
100
AcDbLine
 62
253
  6
CONTINUOUS
 10
-28.535790674
 20
13.5851753059
 11
-28.535790674
 21
13.3878029676
  0
LINE
  5
470
100
AcDbEntity
  8
RACCORDO
100
AcDbLine
 62
253
  6
CONTINUOUS
 10
-28.535790674
 20
10.8121970324
 11
-28.535790674
 21
10.6148245098
  0
LINE
  5
471
100
AcDbEntity
  8
RACCORDO
100
AcDbLine
 62
253
  6
CONTINUOUS
 10
-28.5200994538
 20
15.0796610653
 11
-28.520099424
 21
13.8849442037
  0
LINE
  5
472
100
AcDbEntity
  8
RACCORDO
100
AcDbLine
 62
253
  6
CONTINUOUS
 10
-28.5200994458
 20
10.3150556164
 11
-28.5200994538
 21
9.1203389347
  0
LINE
  5
473
100
AcDbEntity
  8
RACCORDO
100
AcDbLine
 62
253
  6
CONTINUOUS
 10
-28.5200994538
 20
4.3796610653
 11
-28.5200996683
 21
2.1895049618
  0
LINE
  5
474
100
AcDbEntity
  8
RACCORDO
100
AcDbLine
 62
253
  6
CONTINUOUS
 10
-28.520099603
 20
0.6104952398
 11
-28.5200994538
 21
-1.5796610653
  0
LINE
  5
475
100
AcDbEntity
  8
RACCORDO
100
AcDbLine
 62
7
  6
CONTINUOUS
 10
-28.2414773302
 20
13.3167759749
 11
-28.2414773302
 21
10.8832240251
  0
LINE
  5
476
100
AcDbEntity
  8
RACCORDO
100
AcDbLine
 62
7
  6
CONTINUOUS
 10
-28.2410263959
 20
14.7803907917
 11
-28.2410263959
 21
9.4196092083
  0
LINE
  5
477
100
AcDbEntity
  8
RACCORDO
100
AcDbLine
 62
7
  6
CONTINUOUS
 10
-28.2410263959
 20
4.0803908732
 11
-28.2410263959
 21
-1.2803908732
  0
LINE
  5
478
100
AcDbEntity
  8
RACCORDO
100
AcDbLine
 62
253
  6
CONTINUOUS
 10
-58.954449659
 20
19.397495425
 11
-58.9258222358
 21
19.4
  0
LINE
  5
479
100
AcDbEntity
  8
DRAFT
100
AcDbLine
 62
7
  6
CONTINUOUS
 10
-57.231127656
 20
19.7964915944
 11
-57.1910263959
 21
19.8
  0
LINE
  5
47A
100
AcDbEntity
  8
RACCORDO
100
AcDbLine
 62
7
  6
CONTINUOUS
 10
-58.9960257107
 20
20.1908137503
 11
-58.8912902103
 21
20.1999769192
  0
LINE
  5
47B
100
AcDbEntity
  8
0
100
AcDbLine
 62
7
  6
CONTINUOUS
 10
-57.8910263959
 20
20.2874886635
 11
-58.9960257107
 21
20.1908137503
  0
LINE
  5
47C
100
AcDbEntity
  8
0
100
AcDbLine
 62
7
  6
CONTINUOUS
 10
-42.7323001927
 20
21.5834304982
 11
-52.2410263959
 21
21.4174550649
  0
LINE
  5
47D
100
AcDbEntity
  8
0
100
AcDbLine
 62
7
  6
CONTINUOUS
 10
-56.1410263959
 20
20.1
 11
-55.7410263959
 21
20.1
  0
LINE
  5
47E
100
AcDbEntity
  8
ASSI
100
AcDbLine
 62
7
  6
CONTINUOUS
 10
-55.7410263959
 20
20.1
 11
-56.1410263959
 21
20.1
  0
LINE
  5
47F
100
AcDbEntity
  8
ASSI
100
AcDbLine
 62
7
  6
CONTINUOUS
 10
-59.0174702534
 20
20.6
 11
-58.8910263959
 21
20.6
  0
LINE
  5
480
100
AcDbEntity
  8
0
100
AcDbLine
 62
7
  6
CONTINUOUS
 10
-42.2410263959
 20
20.9
 11
-52.2410263959
 21
20.9
  0
LINE
  5
481
100
AcDbEntity
  8
DRAFT
100
AcDbLine
 62
7
  6
CONTINUOUS
 10
-56.0910263959
 20
20.95
 11
-56.7724606265
 21
20.95
  0
LINE
  5
482
100
AcDbEntity
  8
0
100
AcDbLine
 62
253
  6
CONTINUOUS
 10
-53.2410263959
 20
21.8941990932
 11
-54.2410263959
 21
21.900016923
  0
LINE
  5
483
100
AcDbEntity
  8
RACCORDO
100
AcDbLine
 62
253
  6
CONTINUOUS
 10
-59.074644088
 20
21.6909417528
 11
-63.0306468197
 21
21.3795975856
  0
LINE
  5
484
100
AcDbEntity
  8
RACCORDO
100
AcDbLine
 62
7
  6
CONTINUOUS
 10
-59.100803099
 20
22.1900854174
 11
-63.0568058307
 21
21.8787412502
  0
LINE
  5
485
100
AcDbEntity
  8
0
100
AcDbLine
 62
253
  6
CONTINUOUS
 10
-54.2410263959
 20
21.8997711479
 11
-55.7410263959
 21
21.821159479
  0
LINE
  5
486
100
AcDbEntity
  8
0
100
AcDbLine
 62
7
  6
CONTINUOUS
 10
-54.2410263959
 20
22.4
 11
-55.7410263959
 21
22.3213883311
  0
LINE
  5
487
100
AcDbEntity
  8
0
100
AcDbLine
 62
253
  6
CONTINUOUS
 10
-56.7410263959
 20
23.8443375673
 11
-56.4924808288
 21
23.8443375673
  0
LINE
  5
488
100
AcDbEntity
  8
0
100
AcDbLine
 62
253
  6
CONTINUOUS
 10
-53.2410263959
 20
23.8443375673
 11
-53.4895719631
 21
23.8443375673
  0
LINE
  5
489
100
AcDbEntity
  8
0
100
AcDbLine
 62
7
  6
CONTINUOUS
 10
-43.2352086646
 20
22.3359700255
 11
-54.2410263959
 21
22.4
  0
LINE
  5
48A
100
AcDbEntity
  8
0
100
AcDbLine
 62
7
  6
CONTINUOUS
 10
-53.2410263959
 20
23.9941821702
 11
-46.7381175303
 21
23.9563493531
  0
LINE
  5
48B
100
AcDbEntity
  8
0
100
AcDbLine
 62
253
  6
CONTINUOUS
 10
-56.4924808288
 20
24.2369056521
 11
-54.2410263959
 21
24.2500042308
  0
LINE
  5
48C
100
AcDbEntity
  8
0
100
AcDbLine
 62
7
  6
CONTINUOUS
 10
-56.4924808288
 20
24.4869014213
 11
-54.2410263959
 21
24.5
  0
LINE
  5
48D
100
AcDbEntity
  8
0
100
AcDbLine
 62
253
  6
CONTINUOUS
 10
-56.7410263959
 20
24.2369056521
 11
-56.4924808288
 21
24.2369056521
  0
LINE
  5
48E
100
AcDbEntity
  8
0
100
AcDbLine
 62
253
  6
CONTINUOUS
 10
-53.2410263959
 20
24.2456323968
 11
-53.4895719631
 21
24.2456323968
  0
LINE
  5
48F
100
AcDbEntity
  8
0
100
AcDbLine
 62
253
  6
CONTINUOUS
 10
-54.2410263959
 20
24.2500042308
 11
-53.4895719631
 21
24.2456323968
  0
LINE
  5
490
100
AcDbEntity
  8
0
100
AcDbLine
 62
7
  6
CONTINUOUS
 10
-54.2410263959
 20
24.5
 11
-53.4895719631
 21
24.495628166
  0
ARC
  5
491
100
AcDbEntity
  8
RACCORDO
100
AcDbCircle
 62
253
  6
CONTINUOUS
 10
-3367.4706507811
 20
-8.0885071327
 40
3346.0126420381
100
AcDbArc
 50
359.7745673659
 51
359.9728181219
  0
ARC
  5
492
100
AcDbEntity
  8
RACCORDO
100
AcDbCircle
 62
253
  6
CONTINUOUS
 10
-3330.8962082723
 20
-8.0623602353
 40
3308.938370867
100
AcDbArc
 50
359.7733079761
 51
359.9726662621
  0
ARC
  5
493
100
AcDbEntity
  8
0
100
AcDbCircle
 62
7
  6
CONTINUOUS
 10
-15.2002181187
 20
-23.15
 40
0.5
100
AcDbArc
 50
154.1580672368
 51
205.8419327632
  0
ARC
  5
494
100
AcDbEntity
  8
0
100
AcDbCircle
 62
7
  6
CONTINUOUS
 10
-7.2002181187
 20
-23.15
 40
0.5
100
AcDbArc
 50
334.1580672368
 51
25.8419327632
  0
ARC
  5
495
100
AcDbEntity
  8
0
100
AcDbCircle
 62
7
  6
CONTINUOUS
 10
-21.8506713535
 20
-21.9000168915
 40
0.4999831086
100
AcDbArc
 50
180.0000036164
 51
270.0012084401
  0
ARC
  5
496
100
AcDbEntity
  8
RACCORDO
100
AcDbCircle
 62
253
  6
CONTINUOUS
 10
-21.4968571652
 20
-21.5537751258
 40
0.4994835663
100
AcDbArc
 50
180.0341288227
 51
224.9964739863
  0
ARC
  5
497
100
AcDbEntity
  8
0
100
AcDbCircle
 62
7
  6
CONTINUOUS
 10
-3.700195612
 20
-24.2496231241
 40
0.2503768773
100
AcDbArc
 50
261.8245330495
 51
269.9938814446
  0
ARC
  5
498
100
AcDbEntity
  8
0
100
AcDbCircle
 62
7
  6
CONTINUOUS
 10
-21.100195612
 20
-24.2496231241
 40
0.2503768773
100
AcDbArc
 50
261.8245330495
 51
269.9938814446
  0
ARC
  5
499
100
AcDbEntity
  8
0
100
AcDbCircle
 62
7
  6
CONTINUOUS
 10
-18.7005949946
 20
-24.2499774933
 40
0.2503768773
100
AcDbArc
 50
351.8245330495
 51
359.9938814446
  0
ARC
  5
49A
100
AcDbEntity
  8
0
100
AcDbCircle
 62
7
  6
CONTINUOUS
 10
-3.687112922
 20
-24.2368948033
 40
0.2500066182
100
AcDbArc
 50
180.0024862874
 51
269.9975137126
  0
ARC
  5
49B
100
AcDbEntity
  8
0
100
AcDbCircle
 62
7
  6
CONTINUOUS
 10
-21.0871129225
 20
-24.2368948038
 40
0.2500066177
100
AcDbArc
 50
180.0024861811
 51
269.9975138189
  0
ARC
  5
49C
100
AcDbEntity
  8
0
100
AcDbCircle
 62
7
  6
CONTINUOUS
 10
-18.7133233149
 20
-24.2368948038
 40
0.2500066177
100
AcDbArc
 50
270.0024861811
 51
359.9975138189
  0
ARC
  5
49D
100
AcDbEntity
  8
0
100
AcDbCircle
 62
7
  6
CONTINUOUS
 10
-10.0002164263
 20
-23.7999983076
 40
0.2000016924
100
AcDbArc
 50
179.9995151906
 51
269.9995151766
  0
ARC
  5
49E
100
AcDbEntity
  8
0
100
AcDbCircle
 62
7
  6
CONTINUOUS
 10
-12.4002198111
 20
-23.7999983076
 40
0.2000016924
100
AcDbArc
 50
270.0004848234
 51
0.0004848094
  0
ARC
  5
49F
100
AcDbEntity
  8
0
100
AcDbCircle
 62
7
  6
CONTINUOUS
 10
-12.4002169342
 20
-23.7982490662
 40
0.1999988155
100
AcDbArc
 50
269.9996606734
 51
359.9993696938
  0
ARC
  5
4A0
100
AcDbEntity
  8
0
100
AcDbCircle
 62
253
  6
CONTINUOUS
 10
-10.0002193036
 20
-23.7982490666
 40
0.1999988151
100
AcDbArc
 50
180.0006301927
 51
270.0003394401
  0
ARC
  5
4A1
100
AcDbEntity
  8
0
100
AcDbCircle
 62
7
  6
CONTINUOUS
 10
-7.7655030611
 20
-12.6672798094
 40
1.1940351101
100
AcDbArc
 50
155.2913342544
 51
157.4157972513
  0
ARC
  5
4A2
100
AcDbEntity
  8
0
100
AcDbCircle
 62
7
  6
CONTINUOUS
 10
-13.7155030991
 20
-12.6672798094
 40
1.1940351101
100
AcDbArc
 50
155.2913342544
 51
157.4157972513
  0
ARC
  5
4A3
100
AcDbEntity
  8
0
100
AcDbCircle
 62
7
  6
CONTINUOUS
 10
-10.865503209
 20
-12.6672798098
 40
1.1940348814
100
AcDbArc
 50
155.2913291879
 51
157.4157926302
  0
ARC
  5
4A4
100
AcDbEntity
  8
0
100
AcDbCircle
 62
7
  6
CONTINUOUS
 10
-11.5349192522
 20
-12.6672727072
 40
1.1940194082
100
AcDbArc
 50
22.5887872291
 51
24.7086372838
  0
ARC
  5
4A5
100
AcDbEntity
  8
0
100
AcDbCircle
 62
7
  6
CONTINUOUS
 10
-8.6849191124
 20
-12.6672727075
 40
1.1940191795
100
AcDbArc
 50
22.5887918541
 51
24.7086423503
  0
ARC
  5
4A6
100
AcDbEntity
  8
0
100
AcDbCircle
 62
7
  6
CONTINUOUS
 10
-14.6349191504
 20
-12.6672727075
 40
1.1940191795
100
AcDbArc
 50
22.5887918541
 51
24.7086423503
  0
ARC
  5
4A7
100
AcDbEntity
  8
0
100
AcDbCircle
 62
7
  6
CONTINUOUS
 10
-11.5333840537
 20
-12.665363263
 40
1.1924519098
100
AcDbArc
 50
335.2785808499
 51
337.407088001
  0
ARC
  5
4A8
100
AcDbEntity
  8
0
100
AcDbCircle
 62
7
  6
CONTINUOUS
 10
-8.6833839143
 20
-12.6653632626
 40
1.1924516817
100
AcDbArc
 50
335.2785757815
 51
337.4070833794
  0
ARC
  5
4A9
100
AcDbEntity
  8
0
100
AcDbCircle
 62
7
  6
CONTINUOUS
 10
-14.6333839523
 20
-12.6653632626
 40
1.1924516816
100
AcDbArc
 50
335.2785757814
 51
337.4070833794
  0
ARC
  5
4AA
100
AcDbEntity
  8
0
100
AcDbCircle
 62
7
  6
CONTINUOUS
 10
-7.7670621936
 20
-12.6653685189
 40
1.1924407031
100
AcDbArc
 50
202.6006028739
 51
204.7213890388
  0
ARC
  5
4AB
100
AcDbEntity
  8
0
100
AcDbCircle
 62
7
  6
CONTINUOUS
 10
-13.7170622316
 20
-12.6653685189
 40
1.1924407031
100
AcDbArc
 50
202.6006028739
 51
204.7213890389
  0
ARC
  5
4AC
100
AcDbEntity
  8
0
100
AcDbCircle
 62
7
  6
CONTINUOUS
 10
-10.867062341
 20
-12.6653685185
 40
1.192440475
100
AcDbArc
 50
202.6006075011
 51
204.7213941073
  0
ARC
  5
4AD
100
AcDbEntity
  8
DRAFT
100
AcDbCircle
 62
7
  6
CONTINUOUS
 10
-11.5316903187
 20
-12.6661223977
 40
1.1905972241
100
AcDbArc
 50
335.277677578
 51
24.7233011137
  0
ARC
  5
4AE
100
AcDbEntity
  8
DRAFT
100
AcDbCircle
 62
7
  6
CONTINUOUS
 10
-7.7687460838
 20
-12.666122324
 40
1.1905972114
100
AcDbArc
 50
155.2767006397
 51
204.7223271045
  0
ARC
  5
4AF
100
AcDbEntity
  8
DRAFT
100
AcDbCircle
 62
7
  6
CONTINUOUS
 10
-13.7187461218
 20
-12.666122324
 40
1.1905972114
100
AcDbArc
 50
155.2767006397
 51
204.7223271045
  0
ARC
  5
4B0
100
AcDbEntity
  8
DRAFT
100
AcDbCircle
 62
7
  6
CONTINUOUS
 10
-8.6816901787
 20
-12.6661223977
 40
1.1905969952
100
AcDbArc
 50
335.277672506
 51
24.7233061858
  0
ARC
  5
4B1
100
AcDbEntity
  8
DRAFT
100
AcDbCircle
 62
7
  6
CONTINUOUS
 10
-14.6316902167
 20
-12.6661223977
 40
1.1905969952
100
AcDbArc
 50
335.277672506
 51
24.7233061858
  0
ARC
  5
4B2
100
AcDbEntity
  8
DRAFT
100
AcDbCircle
 62
7
  6
CONTINUOUS
 10
-10.8687462318
 20
-12.666122324
 40
1.1905969825
100
AcDbArc
 50
155.2766955676
 51
204.7223321765
  0
ARC
  5
4B3
100
AcDbEntity
  8
0
100
AcDbCircle
 62
7
  6
CONTINUOUS
 10
-11.5316313338
 20
-12.666122613
 40
1.19054197
100
AcDbArc
 50
337.4084217559
 51
22.5984640021
  0
ARC
  5
4B4
100
AcDbEntity
  8
0
100
AcDbCircle
 62
7
  6
CONTINUOUS
 10
-7.7688052163
 20
-12.6661225466
 40
1.1905417576
100
AcDbArc
 50
157.4061892857
 51
202.5993385803
  0
ARC
  5
4B5
100
AcDbEntity
  8
0
100
AcDbCircle
 62
7
  6
CONTINUOUS
 10
-13.7188052543
 20
-12.6661225466
 40
1.1905417576
100
AcDbArc
 50
157.4061892857
 51
202.5993385803
  0
ARC
  5
4B6
100
AcDbEntity
  8
0
100
AcDbCircle
 62
7
  6
CONTINUOUS
 10
-8.6816311938
 20
-12.666122613
 40
1.1905417411
100
AcDbArc
 50
337.4084171327
 51
22.5984686305
  0
ARC
  5
4B7
100
AcDbEntity
  8
0
100
AcDbCircle
 62
7
  6
CONTINUOUS
 10
-14.6316312318
 20
-12.666122613
 40
1.1905417411
100
AcDbArc
 50
337.4084171327
 51
22.5984686305
  0
ARC
  5
4B8
100
AcDbEntity
  8
0
100
AcDbCircle
 62
7
  6
CONTINUOUS
 10
-10.8688053643
 20
-12.6661225466
 40
1.1905415286
100
AcDbArc
 50
157.4061846614
 51
202.5993432091
  0
ARC
  5
4B9
100
AcDbEntity
  8
RACCORDO
100
AcDbCircle
 62
253
  6
CONTINUOUS
 10
-3476.1900421142
 20
7.5891861606
 40
3454.7320794767
100
AcDbArc
 50
0.0283412242
 51
0.2220545109
  0
ARC
  5
4BA
100
AcDbEntity
  8
RACCORDO
100
AcDbCircle
 62
253
  6
CONTINUOUS
 10
-3438.4108238745
 20
7.6146709863
 40
3416.4530325746
100
AcDbArc
 50
0.0284995565
 51
0.223295033
  0
ARC
  5
4BB
100
AcDbEntity
  8
0
100
AcDbCircle
 62
7
  6
CONTINUOUS
 10
-7.2002181187
 20
23.15
 40
0.5
100
AcDbArc
 50
334.1580672368
 51
25.8419327632
  0
ARC
  5
4BC
100
AcDbEntity
  8
0
100
AcDbCircle
 62
7
  6
CONTINUOUS
 10
-15.2002181187
 20
23.15
 40
0.5
100
AcDbArc
 50
154.1580672368
 51
205.8419327632
  0
ARC
  5
4BD
100
AcDbEntity
  8
0
100
AcDbCircle
 62
7
  6
CONTINUOUS
 10
-21.8506713535
 20
21.9000168915
 40
0.4999831086
100
AcDbArc
 50
89.9987915599
 51
179.9999963836
  0
ARC
  5
4BE
100
AcDbEntity
  8
0
100
AcDbCircle
 62
7
  6
CONTINUOUS
 10
-3.6998412428
 20
24.2499774933
 40
0.2503768773
100
AcDbArc
 50
171.8245330495
 51
179.9938814446
  0
ARC
  5
4BF
100
AcDbEntity
  8
0
100
AcDbCircle
 62
7
  6
CONTINUOUS
 10
-18.7002406254
 20
24.2496231241
 40
0.2503768773
100
AcDbArc
 50
81.8245330495
 51
89.9938814446
  0
ARC
  5
4C0
100
AcDbEntity
  8
0
100
AcDbCircle
 62
7
  6
CONTINUOUS
 10
-21.0998412428
 20
24.2499774933
 40
0.2503768773
100
AcDbArc
 50
171.8245330495
 51
179.9938814447
  0
ARC
  5
4C1
100
AcDbEntity
  8
0
100
AcDbCircle
 62
7
  6
CONTINUOUS
 10
-3.6871129225
 20
24.2368948038
 40
0.2500066177
100
AcDbArc
 50
90.0024861811
 51
179.9975138189
  0
ARC
  5
4C2
100
AcDbEntity
  8
0
100
AcDbCircle
 62
7
  6
CONTINUOUS
 10
-18.7133233149
 20
24.2368948038
 40
0.2500066177
100
AcDbArc
 50
0.0024861811
 51
89.9975138189
  0
ARC
  5
4C3
100
AcDbEntity
  8
0
100
AcDbCircle
 62
7
  6
CONTINUOUS
 10
-21.0871129225
 20
24.2368948038
 40
0.2500066177
100
AcDbArc
 50
90.0024861811
 51
179.9975138189
  0
ARC
  5
4C4
100
AcDbEntity
  8
0
100
AcDbCircle
 62
7
  6
CONTINUOUS
 10
-10.0002164263
 20
23.7999983076
 40
0.2000016924
100
AcDbArc
 50
90.0004848234
 51
180.0004848094
  0
ARC
  5
4C5
100
AcDbEntity
  8
0
100
AcDbCircle
 62
7
  6
CONTINUOUS
 10
-12.4002198111
 20
23.7999983076
 40
0.2000016924
100
AcDbArc
 50
359.9995151906
 51
89.9995151766
  0
ARC
  5
4C6
100
AcDbEntity
  8
0
100
AcDbCircle
 62
7
  6
CONTINUOUS
 10
-10.0002193032
 20
23.7982490662
 40
0.1999988155
100
AcDbArc
 50
89.9996606734
 51
179.9993696938
  0
ARC
  5
4C7
100
AcDbEntity
  8
0
100
AcDbCircle
 62
253
  6
CONTINUOUS
 10
-12.4002169338
 20
23.7982490666
 40
0.1999988151
100
AcDbArc
 50
0.0006301927
 51
90.0003394401
  0
ARC
  5
4C8
100
AcDbEntity
  8
RACCORDO
100
AcDbCircle
 62
253
  6
CONTINUOUS
 10
3397.546397896
 20
-8.0224252042
 40
3375.9888537655
100
AcDbArc
 50
180.0280620369
 51
180.2245524753
  0
ARC
  5
4C9
100
AcDbEntity
  8
RACCORDO
100
AcDbCircle
 62
253
  6
CONTINUOUS
 10
3360.6396726083
 20
-7.9966457374
 40
3338.5822998154
100
AcDbArc
 50
180.0282188095
 51
180.2258069523
  0
ARC
  5
4CA
100
AcDbEntity
  8
0
100
AcDbCircle
 62
7
  6
CONTINUOUS
 10
7.2997818813
 20
-23.15
 40
0.5
100
AcDbArc
 50
154.1580672368
 51
205.8419327632
  0
ARC
  5
4CB
100
AcDbEntity
  8
0
100
AcDbCircle
 62
7
  6
CONTINUOUS
 10
15.2997818813
 20
-23.15
 40
0.5
100
AcDbArc
 50
334.1580672368
 51
25.8419327632
  0
ARC
  5
4CC
100
AcDbEntity
  8
0
100
AcDbCircle
 62
7
  6
CONTINUOUS
 10
0.6493315966
 20
-21.9000128362
 40
0.4999873894
100
AcDbArc
 50
197.8875548154
 51
270.0544342347
  0
ARC
  5
4CD
100
AcDbEntity
  8
0
100
AcDbCircle
 62
7
  6
CONTINUOUS
 10
-0.5497673471
 20
-21.9000131794
 40
0.4999868207
100
AcDbArc
 50
269.9990738373
 51
342.1125365483
  0
ARC
  5
4CE
100
AcDbEntity
  8
0
100
AcDbCircle
 62
7
  6
CONTINUOUS
 10
21.950234723
 20
-21.9000167264
 40
0.4999835017
100
AcDbArc
 50
269.9452723311
 51
359.9999774666
  0
ARC
  5
4CF
100
AcDbEntity
  8
0
100
AcDbCircle
 62
7
  6
CONTINUOUS
 10
0.6503697002
 20
-21.9004378836
 40
0.4995689384
100
AcDbArc
 50
197.8514769179
 51
269.9354184126
  0
ARC
  5
4D0
100
AcDbEntity
  8
RACCORDO
100
AcDbCircle
 62
253
  6
CONTINUOUS
 10
21.5964209278
 20
-21.5537751258
 40
0.4994835663
100
AcDbArc
 50
315.0035260097
 51
359.9658711779
  0
ARC
  5
4D1
100
AcDbEntity
  8
0
100
AcDbCircle
 62
7
  6
CONTINUOUS
 10
-1.3005949946
 20
-24.2499774933
 40
0.2503768773
100
AcDbArc
 50
351.8245330495
 51
359.9938814446
  0
ARC
  5
4D2
100
AcDbEntity
  8
0
100
AcDbCircle
 62
253
  6
CONTINUOUS
 10
1.412887078
 20
-24.2368948033
 40
0.2500066182
100
AcDbArc
 50
180.0024862874
 51
269.9975137126
  0
ARC
  5
4D3
100
AcDbEntity
  8
0
100
AcDbCircle
 62
7
  6
CONTINUOUS
 10
-1.3133233154
 20
-24.2368948033
 40
0.2500066182
100
AcDbArc
 50
270.0024862874
 51
359.9975137126
  0
ARC
  5
4D4
100
AcDbEntity
  8
0
100
AcDbCircle
 62
253
  6
CONTINUOUS
 10
3.7866766851
 20
-24.2368948038
 40
0.2500066177
100
AcDbArc
 50
270.0024861811
 51
359.9975138189
  0
ARC
  5
4D5
100
AcDbEntity
  8
0
100
AcDbCircle
 62
253
  6
CONTINUOUS
 10
18.8128870775
 20
-24.2368948038
 40
0.2500066177
100
AcDbArc
 50
180.0024861811
 51
269.9975138189
  0
ARC
  5
4D6
100
AcDbEntity
  8
0
100
AcDbCircle
 62
253
  6
CONTINUOUS
 10
21.1866766851
 20
-24.2368948038
 40
0.2500066177
100
AcDbArc
 50
270.0024861811
 51
359.9975138189
  0
ARC
  5
4D7
100
AcDbEntity
  8
0
100
AcDbCircle
 62
7
  6
CONTINUOUS
 10
1.3997765326
 20
-24.2500053487
 40
0.2499946513
100
AcDbArc
 50
179.9997437926
 51
270.0002562074
  0
ARC
  5
4D8
100
AcDbEntity
  8
0
100
AcDbCircle
 62
7
  6
CONTINUOUS
 10
3.79978723
 20
-24.2500053487
 40
0.2499946513
100
AcDbArc
 50
269.9997437926
 51
0.0002562074
  0
ARC
  5
4D9
100
AcDbEntity
  8
0
100
AcDbCircle
 62
7
  6
CONTINUOUS
 10
18.7997765326
 20
-24.2500053487
 40
0.2499946513
100
AcDbArc
 50
179.9997437926
 51
270.0002562074
  0
ARC
  5
4DA
100
AcDbEntity
  8
0
100
AcDbCircle
 62
7
  6
CONTINUOUS
 10
21.19978723
 20
-24.2500053487
 40
0.2499946513
100
AcDbArc
 50
269.9997437926
 51
0.0002562074
  0
ARC
  5
4DB
100
AcDbEntity
  8
0
100
AcDbCircle
 62
7
  6
CONTINUOUS
 10
10.0994933964
 20
-23.7999770436
 40
0.2002888126
100
AcDbArc
 50
355.0015847312
 51
357.4979914236
  0
ARC
  5
4DC
100
AcDbEntity
  8
0
100
AcDbCircle
 62
7
  6
CONTINUOUS
 10
10.0997718143
 20
-23.7998533212
 40
0.2001466791
100
AcDbArc
 50
270.002881872
 51
274.9992664199
  0
ARC
  5
4DD
100
AcDbEntity
  8
0
100
AcDbCircle
 62
7
  6
CONTINUOUS
 10
12.4997834006
 20
-23.7999988303
 40
0.2000011697
100
AcDbArc
 50
182.4993619243
 51
269.999564761
  0
ARC
  5
4DE
100
AcDbEntity
  8
0
100
AcDbCircle
 62
7
  6
CONTINUOUS
 10
10.0997809732
 20
-23.7999993739
 40
0.2000003839
100
AcDbArc
 50
275.0002987244
 51
355.0007795236
  0
ARC
  5
4DF
100
AcDbEntity
  8
0
100
AcDbCircle
 62
7
  6
CONTINUOUS
 10
10.0997830621
 20
-23.7982490665
 40
0.1999988152
100
AcDbArc
 50
269.9996617127
 51
359.4995522505
  0
ARC
  5
4E0
100
AcDbEntity
  8
0
100
AcDbCircle
 62
253
  6
CONTINUOUS
 10
12.4997807002
 20
-23.7982490669
 40
0.1999988149
100
AcDbArc
 50
180.5004468359
 51
270.0003383609
  0
ARC
  5
4E1
100
AcDbEntity
  8
0
100
AcDbCircle
 62
7
  6
CONTINUOUS
 10
10.0998994353
 20
-23.7999934169
 40
0.1998824461
100
AcDbArc
 50
357.497599364
 51
359.9990831778
  0
ARC
  5
4E2
100
AcDbEntity
  8
0
100
AcDbCircle
 62
7
  6
CONTINUOUS
 10
12.4996643274
 20
-23.7999934169
 40
0.1998824461
100
AcDbArc
 50
180.0009168221
 51
182.502400636
  0
ARC
  5
4E3
100
AcDbEntity
  8
0
100
AcDbCircle
 62
7
  6
CONTINUOUS
 10
10.1003524348
 20
-23.7982511033
 40
0.1994294465
100
AcDbArc
 50
359.4987086161
 51
359.9999531425
  0
ARC
  5
4E4
100
AcDbEntity
  8
0
100
AcDbCircle
 62
253
  6
CONTINUOUS
 10
12.49920891
 20
-23.7982511029
 40
0.1994270287
100
AcDbArc
 50
180.0000469726
 51
180.5012967614
  0
ARC
  5
4E5
100
AcDbEntity
  8
RACCORDO
100
AcDbCircle
 62
253
  6
CONTINUOUS
 10
3469.2045526208
 20
7.6046678414
 40
3447.6470194503
100
AcDbArc
 50
179.7777464445
 51
179.9718578204
  0
ARC
  5
4E6
100
AcDbEntity
  8
RACCORDO
100
AcDbCircle
 62
253
  6
CONTINUOUS
 10
3431.5039792271
 20
7.6300663486
 40
3409.4466173943
100
AcDbArc
 50
179.7765048144
 51
179.9717005961
  0
ARC
  5
4E7
100
AcDbEntity
  8
0
100
AcDbCircle
 62
7
  6
CONTINUOUS
 10
15.2997818813
 20
23.15
 40
0.5
100
AcDbArc
 50
334.1580672368
 51
25.8419327632
  0
ARC
  5
4E8
100
AcDbEntity
  8
0
100
AcDbCircle
 62
7
  6
CONTINUOUS
 10
7.2997818813
 20
23.15
 40
0.5
100
AcDbArc
 50
154.1580672368
 51
205.8419327632
  0
ARC
  5
4E9
100
AcDbEntity
  8
0
100
AcDbCircle
 62
7
  6
CONTINUOUS
 10
0.6493346724
 20
21.9000052951
 40
0.4999949277
100
AcDbArc
 50
89.9459190623
 51
144.5302662235
  0
ARC
  5
4EA
100
AcDbEntity
  8
0
100
AcDbCircle
 62
7
  6
CONTINUOUS
 10
-0.5497700907
 20
21.9000063536
 40
0.4999936465
100
AcDbArc
 50
35.4692863596
 51
90.0006117539
  0
ARC
  5
4EB
100
AcDbEntity
  8
0
100
AcDbCircle
 62
7
  6
CONTINUOUS
 10
21.950234723
 20
21.9000167264
 40
0.4999835017
100
AcDbArc
 50
0.0000225334
 51
90.0547276814
  0
ARC
  5
4EC
100
AcDbEntity
  8
0
100
AcDbCircle
 62
7
  6
CONTINUOUS
 10
0.6502906346
 20
21.9006270479
 40
0.4993744587
100
AcDbArc
 50
90.0555344403
 51
144.5673243499
  0
ARC
  5
4ED
100
AcDbEntity
  8
0
100
AcDbCircle
 62
7
  6
CONTINUOUS
 10
-1.3002406254
 20
24.2496231241
 40
0.2503768773
100
AcDbArc
 50
81.8245330495
 51
89.9938814446
  0
ARC
  5
4EE
100
AcDbEntity
  8
0
100
AcDbCircle
 62
253
  6
CONTINUOUS
 10
1.412887078
 20
24.2368948033
 40
0.2500066182
100
AcDbArc
 50
90.0024862874
 51
179.9975137126
  0
ARC
  5
4EF
100
AcDbEntity
  8
0
100
AcDbCircle
 62
253
  6
CONTINUOUS
 10
3.7866766846
 20
24.2368948033
 40
0.2500066182
100
AcDbArc
 50
0.0024862874
 51
89.9975137126
  0
ARC
  5
4F0
100
AcDbEntity
  8
0
100
AcDbCircle
 62
7
  6
CONTINUOUS
 10
-1.3133233154
 20
24.2368948033
 40
0.2500066182
100
AcDbArc
 50
0.0024862874
 51
89.9975137126
  0
ARC
  5
4F1
100
AcDbEntity
  8
0
100
AcDbCircle
 62
253
  6
CONTINUOUS
 10
21.1866766851
 20
24.2368948038
 40
0.2500066177
100
AcDbArc
 50
0.0024861811
 51
89.9975138189
  0
ARC
  5
4F2
100
AcDbEntity
  8
0
100
AcDbCircle
 62
253
  6
CONTINUOUS
 10
18.8128870775
 20
24.2368948038
 40
0.2500066177
100
AcDbArc
 50
90.0024861811
 51
179.9975138189
  0
ARC
  5
4F3
100
AcDbEntity
  8
0
100
AcDbCircle
 62
7
  6
CONTINUOUS
 10
1.3997765326
 20
24.2500053487
 40
0.2499946513
100
AcDbArc
 50
89.9997437926
 51
180.0002562074
  0
ARC
  5
4F4
100
AcDbEntity
  8
0
100
AcDbCircle
 62
7
  6
CONTINUOUS
 10
3.79978723
 20
24.2500053487
 40
0.2499946513
100
AcDbArc
 50
359.9997437926
 51
90.0002562074
  0
ARC
  5
4F5
100
AcDbEntity
  8
0
100
AcDbCircle
 62
7
  6
CONTINUOUS
 10
21.19978723
 20
24.2500053487
 40
0.2499946513
100
AcDbArc
 50
359.9997437926
 51
90.0002562074
  0
ARC
  5
4F6
100
AcDbEntity
  8
0
100
AcDbCircle
 62
7
  6
CONTINUOUS
 10
18.7997765326
 20
24.2500053487
 40
0.2499946513
100
AcDbArc
 50
89.9997437926
 51
180.0002562074
  0
ARC
  5
4F7
100
AcDbEntity
  8
0
100
AcDbCircle
 62
7
  6
CONTINUOUS
 10
12.5000703662
 20
23.7999770436
 40
0.2002888126
100
AcDbArc
 50
175.0015847312
 51
177.4979914237
  0
ARC
  5
4F8
100
AcDbEntity
  8
0
100
AcDbCircle
 62
7
  6
CONTINUOUS
 10
12.4997919483
 20
23.7998533212
 40
0.2001466791
100
AcDbArc
 50
90.002881872
 51
94.9992664199
  0
ARC
  5
4F9
100
AcDbEntity
  8
0
100
AcDbCircle
 62
7
  6
CONTINUOUS
 10
10.099780362
 20
23.7999988303
 40
0.2000011697
100
AcDbArc
 50
2.4993619243
 51
89.999564761
  0
ARC
  5
4FA
100
AcDbEntity
  8
0
100
AcDbCircle
 62
7
  6
CONTINUOUS
 10
12.4997827894
 20
23.7999993739
 40
0.2000003839
100
AcDbArc
 50
95.0002987244
 51
175.0007795236
  0
ARC
  5
4FB
100
AcDbEntity
  8
0
100
AcDbCircle
 62
7
  6
CONTINUOUS
 10
12.4997807005
 20
23.7982490665
 40
0.1999988152
100
AcDbArc
 50
89.9996617127
 51
179.4995522505
  0
ARC
  5
4FC
100
AcDbEntity
  8
0
100
AcDbCircle
 62
253
  6
CONTINUOUS
 10
10.0997830624
 20
23.7982490669
 40
0.1999988149
100
AcDbArc
 50
0.5004468359
 51
90.0003383609
  0
ARC
  5
4FD
100
AcDbEntity
  8
0
100
AcDbCircle
 62
7
  6
CONTINUOUS
 10
10.0998994353
 20
23.7999934169
 40
0.1998824461
100
AcDbArc
 50
0.0009168221
 51
2.502400636
  0
ARC
  5
4FE
100
AcDbEntity
  8
0
100
AcDbCircle
 62
7
  6
CONTINUOUS
 10
12.4996643274
 20
23.7999934169
 40
0.1998824461
100
AcDbArc
 50
177.497599364
 51
179.9990831778
  0
ARC
  5
4FF
100
AcDbEntity
  8
0
100
AcDbCircle
 62
7
  6
CONTINUOUS
 10
12.4992113278
 20
23.7982511033
 40
0.1994294465
100
AcDbArc
 50
179.4987086161
 51
179.9999531425
  0
ARC
  5
500
100
AcDbEntity
  8
0
100
AcDbCircle
 62
253
  6
CONTINUOUS
 10
10.1003548525
 20
23.7982511029
 40
0.1994270288
100
AcDbArc
 50
0.0000469728
 51
0.5012967613
  0
ARC
  5
501
100
AcDbEntity
  8
RACCORDO
100
AcDbCircle
 62
253
  6
CONTINUOUS
 10
-70.7617657763
 20
-439.4653346774
 40
455.0140630459
100
AcDbArc
 50
84.6752055997
 51
85.0150286135
  0
ARC
  5
502
100
AcDbEntity
  8
RACCORDO
100
AcDbCircle
 62
253
  6
CONTINUOUS
 10
-60.2134144144
 20
-292.1565697553
 40
307.678199555
100
AcDbArc
 50
84.0875891708
 51
84.4722657361
  0
ARC
  5
503
100
AcDbEntity
  8
RACCORDO
100
AcDbCircle
 62
253
  6
CONTINUOUS
 10
-93.6584454
 20
-8.5651338044
 40
65.7814277711
100
AcDbArc
 50
8.0181402306
 51
8.1371482864
  0
ARC
  5
504
100
AcDbEntity
  8
RACCORDO
100
AcDbCircle
 62
253
  6
CONTINUOUS
 10
-93.0693334275
 20
11.2814600648
 40
65.1864034568
100
AcDbArc
 50
351.8623654611
 51
351.9824598454
  0
ARC
  5
505
100
AcDbEntity
  8
RACCORDO
100
AcDbCircle
 62
253
  6
CONTINUOUS
 10
-70.0338538532
 20
8.2923337916
 40
41.5630029084
100
AcDbArc
 50
2.789481152
 51
3.2032878819
  0
ARC
  5
506
100
AcDbEntity
  8
RACCORDO
100
AcDbCircle
 62
7
  6
CONTINUOUS
 10
-60.7806064436
 20
-21.0535589887
 40
1.0
100
AcDbArc
 50
191.5334776264
 51
271.5
  0
ARC
  5
507
100
AcDbEntity
  8
RACCORDO
100
AcDbCircle
 62
253
  6
CONTINUOUS
 10
-60.7936768214
 20
-21.0542437865
 40
0.5000001957
100
AcDbArc
 50
191.5334964372
 51
271.4999811891
  0
ARC
  5
508
100
AcDbEntity
  8
RACCORDO
100
AcDbCircle
 62
7
  6
CONTINUOUS
 10
-56.5910263959
 20
-19.2254627272
 40
0.5
100
AcDbArc
 50
25.786074631
 51
82.5
  0
ARC
  5
509
100
AcDbEntity
  8
0
100
AcDbCircle
 62
7
  6
CONTINUOUS
 10
-46.7410263959
 20
-23.4563578147
 40
0.5
100
AcDbArc
 50
270.3333333333
 51
360.0
  0
ARC
  5
50A
100
AcDbEntity
  8
0
100
AcDbCircle
 62
7
  6
CONTINUOUS
 10
-56.4910263959
 20
-24.2369056521
 40
0.25
100
AcDbArc
 50
180.0
 51
269.6666666667
  0
ARC
  5
50B
100
AcDbEntity
  8
0
100
AcDbCircle
 62
7
  6
CONTINUOUS
 10
-53.4910263959
 20
-24.2456323968
 40
0.25
100
AcDbArc
 50
270.3333333333
 51
360.0
  0
ARC
  5
50C
100
AcDbEntity
  8
0
100
AcDbCircle
 62
7
  6
CONTINUOUS
 10
-56.4910263959
 20
-23.8443375673
 40
0.25
100
AcDbArc
 50
120.0
 51
180.0
  0
ARC
  5
50D
100
AcDbEntity
  8
0
100
AcDbCircle
 62
7
  6
CONTINUOUS
 10
-53.4910263959
 20
-23.8443375673
 40
0.25
100
AcDbArc
 50
0.0
 51
60.0
  0
ARC
  5
50E
100
AcDbEntity
  8
0
100
AcDbCircle
 62
7
  6
CONTINUOUS
 10
-43.2410263959
 20
-21.3359869487
 40
1.0
100
AcDbArc
 50
270.3333333333
 51
360.0
  0
ARC
  5
50F
100
AcDbEntity
  8
RACCORDO
100
AcDbCircle
 62
7
  6
CONTINUOUS
 10
-42.4410263959
 20
-19.9942577878
 40
0.2
100
AcDbArc
 50
0.0
 51
89.5
  0
ARC
  5
510
100
AcDbEntity
  8
RACCORDO
100
AcDbCircle
 62
7
  6
CONTINUOUS
 10
-31.4910263959
 20
-14.0
 40
3.25
100
AcDbArc
 50
292.6198649666
 51
67.3801346696
  0
ARC
  5
511
100
AcDbEntity
  8
RACCORDO
100
AcDbCircle
 62
253
  6
CONTINUOUS
 10
-31.4892991276
 20
-14.000000338
 40
2.9500004994
100
AcDbArc
 50
295.033192331
 51
64.9668077753
  0
ARC
  5
512
100
AcDbEntity
  8
RACCORDO
100
AcDbCircle
 62
7
  6
CONTINUOUS
 10
-31.2410263959
 20
-18.4188211266
 40
1.0
100
AcDbArc
 50
271.0
 51
360.0
  0
ARC
  5
513
100
AcDbEntity
  8
RACCORDO
100
AcDbCircle
 62
253
  6
CONTINUOUS
 10
-30.7807126194
 20
-18.2181442684
 40
0.5407022426
100
AcDbArc
 50
338.3238008424
 51
345.576824196
  0
ARC
  5
514
100
AcDbEntity
  8
RACCORDO
100
AcDbCircle
 62
7
  6
CONTINUOUS
 10
-42.4410263959
 20
-18.7400415081
 40
0.2
100
AcDbArc
 50
0.0
 51
69.9999998795
  0
ARC
  5
515
100
AcDbEntity
  8
RACCORDO
100
AcDbCircle
 62
7
  6
CONTINUOUS
 10
-32.582087504
 20
10.8206539541
 40
4.3410611254
100
AcDbArc
 50
0.0051216181
 51
0.8258637763
  0
ARC
  5
516
100
AcDbEntity
  8
RACCORDO
100
AcDbCircle
 62
7
  6
CONTINUOUS
 10
-29.9410263959
 20
-1.9797545258
 40
0.3
100
AcDbArc
 50
94.0
 51
180.0
  0
ARC
  5
517
100
AcDbEntity
  8
RACCORDO
100
AcDbCircle
 62
7
  6
CONTINUOUS
 10
-29.9410263959
 20
4.7797545258
 40
0.3
100
AcDbArc
 50
180.0
 51
266.0
  0
ARC
  5
518
100
AcDbEntity
  8
RACCORDO
100
AcDbCircle
 62
7
  6
CONTINUOUS
 10
-29.9410263959
 20
8.7202454742
 40
0.3
100
AcDbArc
 50
94.0
 51
180.0
  0
ARC
  5
519
100
AcDbEntity
  8
RACCORDO
100
AcDbCircle
 62
7
  6
CONTINUOUS
 10
-28.5410263959
 20
9.4196081497
 40
0.3
100
AcDbArc
 50
274.0
 51
360.0
  0
ARC
  5
51A
100
AcDbEntity
  8
RACCORDO
100
AcDbCircle
 62
7
  6
CONTINUOUS
 10
-28.5410263959
 20
4.0803918503
 40
0.3
100
AcDbArc
 50
0.0
 51
86.0
  0
ARC
  5
51B
100
AcDbEntity
  8
RACCORDO
100
AcDbCircle
 62
7
  6
CONTINUOUS
 10
-28.5410263959
 20
-1.2803918503
 40
0.3
100
AcDbArc
 50
274.0
 51
360.0
  0
ARC
  5
51C
100
AcDbEntity
  8
RACCORDO
100
AcDbCircle
 62
7
  6
CONTINUOUS
 10
-28.5363765558
 20
10.9502261871
 40
0.1380303981
100
AcDbArc
 50
268.069507633
 51
270.2431975533
  0
ARC
  5
51D
100
AcDbEntity
  8
RACCORDO
100
AcDbCircle
 62
7
  6
CONTINUOUS
 10
26.4223098022
 20
-3.2588575799
 40
90.0
100
AcDbArc
 50
184.08868532
 51
191.5334776264
  0
ARC
  5
51E
100
AcDbEntity
  8
0
100
AcDbCircle
 62
7
  6
CONTINUOUS
 10
26.4223097736
 20
-3.2588575828
 40
89.9999999713
100
AcDbArc
 50
185.6811476473
 51
186.2151308566
  0
ARC
  5
51F
100
AcDbEntity
  8
RACCORDO
100
AcDbCircle
 62
253
  6
CONTINUOUS
 10
26.4092476014
 20
-3.2595414342
 40
89.5000083964
100
AcDbArc
 50
184.0886856697
 51
191.5334772766
  0
ARC
  5
520
100
AcDbEntity
  8
RACCORDO
100
AcDbCircle
 62
253
  6
CONTINUOUS
 10
40.991366688
 20
9.5101088958
 40
71.2954708185
100
AcDbArc
 50
185.6155067459
 51
185.7710457102
  0
ARC
  5
521
100
AcDbEntity
  8
RACCORDO
100
AcDbCircle
 62
253
  6
CONTINUOUS
 10
40.9473157286
 20
-6.705522737
 40
71.2511819402
100
AcDbArc
 50
174.2290616406
 51
174.3846960633
  0
ARC
  5
522
100
AcDbEntity
  8
RACCORDO
100
AcDbCircle
 62
253
  6
CONTINUOUS
 10
-65.6933922524
 20
15.6804708959
 40
37.2166309419
100
AcDbArc
 50
356.7725422012
 51
357.2346758131
  0
ARC
  5
523
100
AcDbEntity
  8
RACCORDO
100
AcDbCircle
 62
7
  6
CONTINUOUS
 10
-58.4410263959
 20
17.0528256263
 40
0.3
100
AcDbArc
 50
91.0
 51
180.0
  0
ARC
  5
524
100
AcDbEntity
  8
ASSI
100
AcDbCircle
 62
7
  6
CONTINUOUS
 10
-59.1910263959
 20
19.4
 40
2.0
100
AcDbArc
 50
342.5423968763
 51
11.5369590328
  0
ARC
  5
525
100
AcDbEntity
  8
RACCORDO
100
AcDbCircle
 62
7
  6
CONTINUOUS
 10
-62.978346735
 20
20.8818239165
 40
1.0
100
AcDbArc
 50
94.5
 51
174.4665223736
  0
ARC
  5
526
100
AcDbEntity
  8
RACCORDO
100
AcDbCircle
 62
253
  6
CONTINUOUS
 10
-62.9914170928
 20
20.8811387364
 40
0.5000001958
100
AcDbArc
 50
94.5000188118
 51
174.4665035619
  0
ARC
  5
527
100
AcDbEntity
  8
0
100
AcDbCircle
 62
7
  6
CONTINUOUS
 10
-53.6166950174
 20
19.7644092314
 40
5.3172391632
100
AcDbArc
 50
178.8826325772
 51
179.6371087269
  0
ARC
  5
528
100
AcDbEntity
  8
RACCORDO
100
AcDbCircle
 62
7
  6
CONTINUOUS
 10
-56.5910263959
 20
19.2254627272
 40
0.5
100
AcDbArc
 50
277.5
 51
334.2139247579
  0
ARC
  5
529
100
AcDbEntity
  8
0
100
AcDbCircle
 62
7
  6
CONTINUOUS
 10
-56.4910263959
 20
23.8443375673
 40
0.25
100
AcDbArc
 50
180.0
 51
240.0
  0
ARC
  5
52A
100
AcDbEntity
  8
0
100
AcDbCircle
 62
7
  6
CONTINUOUS
 10
-56.4910263959
 20
24.2369056521
 40
0.25
100
AcDbArc
 50
90.3333333333
 51
180.0
  0
ARC
  5
52B
100
AcDbEntity
  8
0
100
AcDbCircle
 62
7
  6
CONTINUOUS
 10
-53.4910263959
 20
23.8443375673
 40
0.25
100
AcDbArc
 50
300.0
 51
360.0
  0
ARC
  5
52C
100
AcDbEntity
  8
0
100
AcDbCircle
 62
7
  6
CONTINUOUS
 10
-53.4910263959
 20
24.2456323968
 40
0.25
100
AcDbArc
 50
0.0
 51
89.6666666667
  0
ARC
  5
52D
100
AcDbEntity
  8
RACCORDO
100
AcDbCircle
 62
7
  6
CONTINUOUS
 10
-32.6910265939
 20
13.380136055
 40
4.4500003539
100
AcDbArc
 50
359.1841825702
 51
359.9848320354
  0
ARC
  5
52E
100
AcDbEntity
  8
RACCORDO
100
AcDbCircle
 62
7
  6
CONTINUOUS
 10
-31.2410263959
 20
18.4188211266
 40
1.0
100
AcDbArc
 50
0.0
 51
89.0
  0
ARC
  5
52F
100
AcDbEntity
  8
RACCORDO
100
AcDbCircle
 62
7
  6
CONTINUOUS
 10
-29.9410263959
 20
15.4797545258
 40
0.3
100
AcDbArc
 50
180.0
 51
266.0
  0
ARC
  5
530
100
AcDbEntity
  8
RACCORDO
100
AcDbCircle
 62
7
  6
CONTINUOUS
 10
-28.5410263959
 20
14.7803918503
 40
0.3
100
AcDbArc
 50
0.0
 51
86.0
  0
ARC
  5
531
100
AcDbEntity
  8
RACCORDO
100
AcDbCircle
 62
7
  6
CONTINUOUS
 10
-42.4410263959
 20
18.7400415081
 40
0.2
100
AcDbArc
 50
290.0000001205
 51
360.0
  0
ARC
  5
532
100
AcDbEntity
  8
RACCORDO
100
AcDbCircle
 62
7
  6
CONTINUOUS
 10
-28.5363765558
 20
13.2497738129
 40
0.138030398
100
AcDbArc
 50
89.7568024467
 51
91.9304923671
  0
ARC
  5
533
100
AcDbEntity
  8
0
100
AcDbCircle
 62
7
  6
CONTINUOUS
 10
-43.2410263959
 20
21.3359869487
 40
1.0
100
AcDbArc
 50
0.0
 51
89.6666666667
  0
ARC
  5
534
100
AcDbEntity
  8
0
100
AcDbCircle
 62
7
  6
CONTINUOUS
 10
-46.7410263959
 20
23.4563578147
 40
0.5
100
AcDbArc
 50
0.0
 51
89.6666666667
  0
ARC
  5
535
100
AcDbEntity
  8
RACCORDO
100
AcDbCircle
 62
7
  6
CONTINUOUS
 10
-42.4410263959
 20
19.9942577878
 40
0.2
100
AcDbArc
 50
270.5
 51
360.0
  0
ARC
  5
536
100
AcDbEntity
  8
RACCORDO
100
AcDbCircle
 62
253
  6
CONTINUOUS
 10
-70.7558417274
 20
463.5999578228
 40
454.9484187394
100
AcDbArc
 50
274.9849435843
 51
275.3248156295
  0
ARC
  5
537
100
AcDbEntity
  8
RACCORDO
100
AcDbCircle
 62
253
  6
CONTINUOUS
 10
-60.2172600408
 20
316.3953662567
 40
307.7171859865
100
AcDbArc
 50
275.5277510877
 51
275.9123789486
  0
ARC
  5
538
100
AcDbEntity
  8
RACCORDO
100
AcDbCircle
 62
7
  6
CONTINUOUS
 10
25.606915604
 20
12.2997905716
 40
90.0
100
AcDbArc
 50
174.4665223736
 51
181.91131468
  0
ARC
  5
539
100
AcDbEntity
  8
RACCORDO
100
AcDbCircle
 62
253
  6
CONTINUOUS
 10
25.593853477
 20
12.2991053078
 40
89.5000083964
100
AcDbArc
 50
174.4665227234
 51
181.9113143303
  0
ARC
  5
53A
100
AcDbEntity
  8
RACCORDO
100
AcDbCircle
 62
7
  6
CONTINUOUS
 10
435.3788117028
 20
25.9743350834
 40
500.0
100
AcDbArc
 50
181.91131468
 51
184.08868532
  0
ARC
  5
53B
100
AcDbEntity
  8
RACCORDO
100
AcDbCircle
 62
253
  6
CONTINUOUS
 10
435.3657267326
 20
25.9736493291
 40
499.4999855495
100
AcDbArc
 50
181.9113146485
 51
184.0886853515
  0
SPLINE
  5
53C
100
AcDbEntity
  8
0
100
AcDbSpline
 62
7
  6
CONTINUOUS
 70
0
 71
3
 72
15
 73
11
 74
9
 42
0.0000001
 43
0.0000001
 44
0.0000000001
 12
-0.3142908459
 22
0.0
 32
0.0
 13
-0.0031667975
 23
-0.3142748912
 33
0.0
 40
0.0
 40
0.0
 40
0.0
 40
0.0
 40
0.1666133779
 40
0.3262255844
 40
0.4735308137
 40
0.6056575217
 40
0.7220676483
 40
0.8241942131
 40
0.9152281509
 40
1.0
 40
1.0
 40
1.0
 40
1.0
 10
18.8070583994
 20
-23.1226497308
 30
0.0
 10
18.7896033796
 20
-23.1226497308
 30
0.0
 10
18.7553961884
 20
-23.124909705
 30
0.0
 10
18.7065197867
 20
-23.1340775763
 30
0.0
 10
18.6626783752
 20
-23.1484769636
 30
0.0
 10
18.6254357046
 20
-23.1671011817
 30
0.0
 10
18.5956833764
 20
-23.1890111222
 30
0.0
 10
18.5738868515
 20
-23.2134107396
 30
0.0
 10
18.5603831972
 20
-23.239611024
 30
0.0
 10
18.5571521153
 20
-23.2581067436
 30
0.0
 10
18.5570626302
 20
-23.2669872981
 30
0.0
 11
18.8070583994
 21
-23.1226497308
 31
0.0
 11
18.7548016638
 21
-23.126016189
 31
0.0
 11
18.7055284356
 21
-23.1354311576
 31
0.0
 11
18.6616109031
 21
-23.1500815293
 31
0.0
 11
18.6246059602
 21
-23.1689245842
 31
0.0
 11
18.595366701
 21
-23.1909165769
 31
0.0
 11
18.5742841677
 21
-23.215119319
 31
0.0
 11
18.5615028716
 21
-23.2407168857
 31
0.0
 11
18.5570626302
 21
-23.2669872981
 31
0.0
  0
SPLINE
  5
53D
100
AcDbEntity
  8
0
100
AcDbSpline
 62
253
  6
CONTINUOUS
 70
0
 71
3
 72
13
 73
9
 74
7
 42
0.0000001
 43
0.0000001
 44
0.0000000001
 12
-0.0012265944
 22
0.3651869709
 32
0.0
 13
-0.3651878721
 23
0.0009199792
 33
0.0
 40
0.0
 40
0.0
 40
0.0
 40
0.0
 40
0.1162394899
 40
0.2339784923
 40
0.3543712679
 40
0.4780982409
 40
0.7345378657
 40
1.0
 40
1.0
 40
1.0
 40
1.0
 10
21.4366833026
 20
-23.8443375673
 30
0.0
 10
21.4366357764
 20
-23.8301878516
 30
0.0
 10
21.4332772417
 20
-23.8016148337
 30
0.0
 10
21.4187206548
 20
-23.7606544968
 30
0.0
 10
21.3952497815
 20
-23.7229827139
 30
0.0
 10
21.3529470547
 20
-23.6786209789
 30
0.0
 10
21.2830207868
 20
-23.6387867994
 30
0.0
 10
21.2190020507
 20
-23.6279126229
 30
0.0
 10
21.1866875334
 20
-23.6278312164
 30
0.0
 11
21.4366833026
 21
-23.8443375673
 31
0.0
 11
21.4317555746
 21
-23.8021751679
 31
0.0
 11
21.4174450718
 21
-23.7616295042
 31
0.0
 11
21.394299404
 21
-23.7242490565
 31
0.0
 11
21.363204502
 21
-23.6914667926
 31
0.0
 11
21.2821889497
 21
-23.6444922901
 31
0.0
 11
21.1866875334
 21
-23.6278312164
 31
0.0
  0
SPLINE
  5
53E
100
AcDbEntity
  8
0
100
AcDbSpline
 62
7
  6
CONTINUOUS
 70
0
 71
3
 72
15
 73
11
 74
9
 42
0.0000001
 43
0.0000001
 44
0.0000000001
 12
-0.0031741039
 22
0.3149999784
 32
0.0
 13
-0.3150159699
 23
0.0
 33
0.0
 40
0.0
 40
0.0
 40
0.0
 40
0.0
 40
0.0847246382
 40
0.1757279367
 40
0.2778501555
 40
0.3942839058
 40
0.5264550939
 40
0.6738071548
 40
0.8334364544
 40
1.0
 40
1.0
 40
1.0
 40
1.0
 10
21.4425011324
 20
-23.2669872981
 30
0.0
 10
21.4424114908
 20
-23.2580912117
 30
0.0
 10
21.4391687018
 20
-23.2395608029
 30
0.0
 10
21.4256173112
 20
-23.2133174142
 30
0.0
 10
21.4037458663
 20
-23.1888844894
 30
0.0
 10
21.3738938053
 20
-23.1669547435
 30
0.0
 10
21.3365310743
 20
-23.1483274499
 30
0.0
 10
21.2925584691
 20
-23.133953471
 30
0.0
 10
21.2435548884
 20
-23.1248150691
 30
0.0
 10
21.2092681934
 20
-23.1226497308
 30
0.0
 10
21.1917781345
 20
-23.1226497308
 30
0.0
 11
21.4425011324
 21
-23.2669872981
 31
0.0
 11
21.4380460787
 21
-23.2406721314
 31
0.0
 11
21.4252212978
 21
-23.2150332915
 31
0.0
 11
21.4040669701
 21
-23.1907967144
 31
0.0
 11
21.3747291052
 21
-23.1687830511
 31
0.0
 11
21.3376029444
 21
-23.1499360992
 31
0.0
 11
21.2935507222
 21
-23.1353054509
 31
0.0
 11
21.2441451839
 21
-23.1259378303
 31
0.0
 11
21.1917781345
 21
-23.1226497308
 31
0.0
  0
SPLINE
  5
53F
100
AcDbEntity
  8
0
100
AcDbSpline
 62
253
  6
CONTINUOUS
 70
0
 71
3
 72
13
 73
9
 74
7
 42
0.0000001
 43
0.0000001
 44
0.0000000001
 12
0.0012265944
 22
0.3651869708
 32
0.0
 13
0.3651878719
 23
0.0009199792
 33
0.0
 40
0.0
 40
0.0
 40
0.0
 40
0.0
 40
0.1162394861
 40
0.2339784844
 40
0.3543712552
 40
0.4780982232
 40
0.7345378384
 40
1.0
 40
1.0
 40
1.0
 40
1.0
 10
18.56288046
 20
-23.8443375673
 30
0.0
 10
18.5629279863
 20
-23.830187852
 30
0.0
 10
18.5662865207
 20
-23.8016148352
 30
0.0
 10
18.5808431064
 20
-23.7606544996
 30
0.0
 10
18.6043139784
 20
-23.7229827179
 30
0.0
 10
18.6466167022
 20
-23.6786209833
 30
0.0
 10
18.7165429703
 20
-23.6387868014
 30
0.0
 10
18.7805617086
 20
-23.6279126229
 30
0.0
 10
18.8128762292
 20
-23.6278312164
 30
0.0
 11
18.56288046
 21
-23.8443375673
 31
0.0
 11
18.5678081878
 21
-23.8021751692
 31
0.0
 11
18.5821186895
 21
-23.7616295068
 31
0.0
 11
18.6052643557
 21
-23.7242490603
 31
0.0
 11
18.6363592556
 21
-23.6914667969
 31
0.0
 11
18.7173748034
 21
-23.6444922937
 31
0.0
 11
18.8128762292
 21
-23.6278312164
 31
0.0
  0
SPLINE
  5
540
100
AcDbEntity
  8
0
100
AcDbSpline
 62
253
  6
CONTINUOUS
 70
0
 71
3
 72
13
 73
9
 74
7
 42
0.0000001
 43
0.0000001
 44
0.0000000001
 12
-0.0012265944
 22
0.3651869708
 32
0.0
 13
-0.3651878719
 23
0.0009199792
 33
0.0
 40
0.0
 40
0.0
 40
0.0
 40
0.0
 40
0.1162394861
 40
0.2339784844
 40
0.3543712552
 40
0.4780982232
 40
0.7345378384
 40
1.0
 40
1.0
 40
1.0
 40
1.0
 10
4.0366833026
 20
-23.8443375673
 30
0.0
 10
4.0366357764
 20
-23.830187852
 30
0.0
 10
4.0332772419
 20
-23.8016148352
 30
0.0
 10
4.0187206562
 20
-23.7606544996
 30
0.0
 10
3.9952497842
 20
-23.7229827179
 30
0.0
 10
3.9529470604
 20
-23.6786209833
 30
0.0
 10
3.8830207923
 20
-23.6387868014
 30
0.0
 10
3.819002054
 20
-23.6279126229
 30
0.0
 10
3.7866875334
 20
-23.6278312164
 30
0.0
 11
4.0366833026
 21
-23.8443375673
 31
0.0
 11
4.0317555749
 21
-23.8021751692
 31
0.0
 11
4.0174450732
 21
-23.7616295068
 31
0.0
 11
3.9942994069
 21
-23.7242490603
 31
0.0
 11
3.963204507
 21
-23.6914667969
 31
0.0
 11
3.8821889592
 21
-23.6444922937
 31
0.0
 11
3.7866875334
 21
-23.6278312164
 31
0.0
  0
SPLINE
  5
541
100
AcDbEntity
  8
0
100
AcDbSpline
 62
7
  6
CONTINUOUS
 70
0
 71
3
 72
15
 73
11
 74
9
 42
0.0000001
 43
0.0000001
 44
0.0000000001
 12
-0.0031741039
 22
0.3149999784
 32
0.0
 13
-0.3150159699
 23
-0.0
 33
0.0
 40
0.0
 40
0.0
 40
0.0
 40
0.0
 40
0.0847246382
 40
0.1757279367
 40
0.2778501555
 40
0.3942839058
 40
0.5264550939
 40
0.6738071548
 40
0.8334364544
 40
1.0
 40
1.0
 40
1.0
 40
1.0
 10
4.0425011324
 20
-23.2669872981
 30
0.0
 10
4.0424114908
 20
-23.2580912117
 30
0.0
 10
4.0391687018
 20
-23.2395608029
 30
0.0
 10
4.0256173112
 20
-23.2133174142
 30
0.0
 10
4.0037458663
 20
-23.1888844894
 30
0.0
 10
3.9738938053
 20
-23.1669547435
 30
0.0
 10
3.9365310743
 20
-23.1483274499
 30
0.0
 10
3.8925584691
 20
-23.133953471
 30
0.0
 10
3.8435548884
 20
-23.1248150691
 30
0.0
 10
3.8092681934
 20
-23.1226497308
 30
0.0
 10
3.7917781345
 20
-23.1226497308
 30
0.0
 11
4.0425011324
 21
-23.2669872981
 31
0.0
 11
4.0380460787
 21
-23.2406721314
 31
0.0
 11
4.0252212978
 21
-23.2150332915
 31
0.0
 11
4.0040669701
 21
-23.1907967144
 31
0.0
 11
3.9747291052
 21
-23.1687830511
 31
0.0
 11
3.9376029444
 21
-23.1499360992
 31
0.0
 11
3.8935507222
 21
-23.1353054509
 31
0.0
 11
3.8441451839
 21
-23.1259378303
 31
0.0
 11
3.7917781345
 21
-23.1226497308
 31
0.0
  0
SPLINE
  5
542
100
AcDbEntity
  8
0
100
AcDbSpline
 62
7
  6
CONTINUOUS
 70
0
 71
3
 72
15
 73
11
 74
9
 42
0.0000001
 43
0.0000001
 44
0.0000000001
 12
0.0031741039
 22
0.3149999784
 32
0.0
 13
0.3150159699
 23
0.0
 33
0.0
 40
0.0
 40
0.0
 40
0.0
 40
0.0
 40
0.0847246382
 40
0.1757279367
 40
0.2778501555
 40
0.3942839058
 40
0.5264550939
 40
0.6738071548
 40
0.8334364544
 40
1.0
 40
1.0
 40
1.0
 40
1.0
 10
1.1570626302
 20
-23.2669872981
 30
0.0
 10
1.1571522718
 20
-23.2580912117
 30
0.0
 10
1.1603950609
 20
-23.2395608029
 30
0.0
 10
1.1739464514
 20
-23.2133174142
 30
0.0
 10
1.1958178963
 20
-23.1888844894
 30
0.0
 10
1.2256699573
 20
-23.1669547435
 30
0.0
 10
1.2630326883
 20
-23.1483274499
 30
0.0
 10
1.3070052935
 20
-23.133953471
 30
0.0
 10
1.3560088742
 20
-23.1248150691
 30
0.0
 10
1.3902955692
 20
-23.1226497308
 30
0.0
 10
1.4077856282
 20
-23.1226497308
 30
0.0
 11
1.1570626302
 21
-23.2669872981
 31
0.0
 11
1.1615176839
 21
-23.2406721314
 31
0.0
 11
1.1743424648
 21
-23.2150332915
 31
0.0
 11
1.1954967925
 21
-23.1907967144
 31
0.0
 11
1.2248346574
 21
-23.1687830511
 31
0.0
 11
1.2619608182
 21
-23.1499360992
 31
0.0
 11
1.3060130404
 21
-23.1353054509
 31
0.0
 11
1.3554185788
 21
-23.1259378303
 31
0.0
 11
1.4077856282
 21
-23.1226497308
 31
0.0
  0
SPLINE
  5
543
100
AcDbEntity
  8
0
100
AcDbSpline
 62
253
  6
CONTINUOUS
 70
0
 71
3
 72
13
 73
9
 74
7
 42
0.0000001
 43
0.0000001
 44
0.0000000001
 12
0.0012265943
 22
0.3651869702
 32
0.0
 13
0.3651878714
 23
0.0009199792
 33
0.0
 40
0.0
 40
0.0
 40
0.0
 40
0.0
 40
0.1162393822
 40
0.2339783947
 40
0.3543711753
 40
0.4780981573
 40
0.7345378061
 40
1.0
 40
1.0
 40
1.0
 40
1.0
 10
1.16288046
 20
-23.8443375673
 30
0.0
 10
1.1629279862
 20
-23.8301878647
 30
0.0
 10
1.1662865192
 20
-23.8016148597
 30
0.0
 10
1.1808430891
 20
-23.7606545287
 30
0.0
 10
1.2043139613
 20
-23.7229827412
 30
0.0
 10
1.2466166832
 20
-23.6786209956
 30
0.0
 10
1.3165429586
 20
-23.6387868046
 30
0.0
 10
1.3805617047
 20
-23.6279126229
 30
0.0
 10
1.4128762292
 20
-23.6278312164
 30
0.0
 11
1.16288046
 21
-23.8443375673
 31
0.0
 11
1.1678081804
 21
-23.8021752067
 31
0.0
 11
1.1821186743
 21
-23.761629536
 31
0.0
 11
1.205264338
 21
-23.7242490838
 31
0.0
 11
1.2363592373
 21
-23.6914668129
 31
0.0
 11
1.3173747923
 21
-23.644492298
 31
0.0
 11
1.4128762292
 21
-23.6278312164
 31
0.0
  0
SPLINE
  5
544
100
AcDbEntity
  8
0
100
AcDbSpline
 62
253
  6
CONTINUOUS
 70
0
 71
3
 72
13
 73
9
 74
7
 42
0.0000001
 43
0.0000001
 44
0.0000000001
 12
0.0012265944
 22
-0.3651869708
 32
0.0
 13
0.3651878719
 23
-0.0009199792
 33
0.0
 40
0.0
 40
0.0
 40
0.0
 40
0.0
 40
0.1162394861
 40
0.2339784844
 40
0.3543712552
 40
0.4780982232
 40
0.7345378384
 40
1.0
 40
1.0
 40
1.0
 40
1.0
 10
1.16288046
 20
23.8443375673
 30
0.0
 10
1.1629279863
 20
23.830187852
 30
0.0
 10
1.1662865207
 20
23.8016148352
 30
0.0
 10
1.1808431064
 20
23.7606544996
 30
0.0
 10
1.2043139784
 20
23.7229827179
 30
0.0
 10
1.2466167022
 20
23.6786209833
 30
0.0
 10
1.3165429703
 20
23.6387868014
 30
0.0
 10
1.3805617086
 20
23.6279126229
 30
0.0
 10
1.4128762292
 20
23.6278312164
 30
0.0
 11
1.16288046
 21
23.8443375673
 31
0.0
 11
1.1678081878
 21
23.8021751692
 31
0.0
 11
1.1821186895
 21
23.7616295068
 31
0.0
 11
1.2052643557
 21
23.7242490603
 31
0.0
 11
1.2363592556
 21
23.6914667969
 31
0.0
 11
1.3173748034
 21
23.6444922937
 31
0.0
 11
1.4128762292
 21
23.6278312164
 31
0.0
  0
SPLINE
  5
545
100
AcDbEntity
  8
0
100
AcDbSpline
 62
7
  6
CONTINUOUS
 70
0
 71
3
 72
15
 73
11
 74
9
 42
0.0000001
 43
0.0000001
 44
0.0000000001
 12
0.0031741039
 22
-0.3149999784
 32
0.0
 13
0.3150159699
 23
0.0
 33
0.0
 40
0.0
 40
0.0
 40
0.0
 40
0.0
 40
0.0847246382
 40
0.1757279367
 40
0.2778501555
 40
0.3942839058
 40
0.5264550939
 40
0.6738071548
 40
0.8334364544
 40
1.0
 40
1.0
 40
1.0
 40
1.0
 10
1.1570626302
 20
23.2669872981
 30
0.0
 10
1.1571522718
 20
23.2580912117
 30
0.0
 10
1.1603950609
 20
23.2395608029
 30
0.0
 10
1.1739464514
 20
23.2133174142
 30
0.0
 10
1.1958178963
 20
23.1888844894
 30
0.0
 10
1.2256699573
 20
23.1669547435
 30
0.0
 10
1.2630326883
 20
23.1483274499
 30
0.0
 10
1.3070052935
 20
23.133953471
 30
0.0
 10
1.3560088742
 20
23.1248150691
 30
0.0
 10
1.3902955692
 20
23.1226497308
 30
0.0
 10
1.4077856282
 20
23.1226497308
 30
0.0
 11
1.1570626302
 21
23.2669872981
 31
0.0
 11
1.1615176839
 21
23.2406721314
 31
0.0
 11
1.1743424648
 21
23.2150332915
 31
0.0
 11
1.1954967925
 21
23.1907967144
 31
0.0
 11
1.2248346574
 21
23.1687830511
 31
0.0
 11
1.2619608182
 21
23.1499360992
 31
0.0
 11
1.3060130404
 21
23.1353054509
 31
0.0
 11
1.3554185788
 21
23.1259378303
 31
0.0
 11
1.4077856282
 21
23.1226497308
 31
0.0
  0
SPLINE
  5
546
100
AcDbEntity
  8
0
100
AcDbSpline
 62
7
  6
CONTINUOUS
 70
0
 71
3
 72
15
 73
11
 74
9
 42
0.0000001
 43
0.0000001
 44
0.0000000001
 12
-0.0031741039
 22
-0.3149999784
 32
0.0
 13
-0.3150159699
 23
-0.0
 33
0.0
 40
0.0
 40
0.0
 40
0.0
 40
0.0
 40
0.0847246382
 40
0.1757279367
 40
0.2778501555
 40
0.3942839058
 40
0.5264550939
 40
0.6738071548
 40
0.8334364544
 40
1.0
 40
1.0
 40
1.0
 40
1.0
 10
4.0425011324
 20
23.2669872981
 30
0.0
 10
4.0424114908
 20
23.2580912117
 30
0.0
 10
4.0391687018
 20
23.2395608029
 30
0.0
 10
4.0256173112
 20
23.2133174142
 30
0.0
 10
4.0037458663
 20
23.1888844894
 30
0.0
 10
3.9738938053
 20
23.1669547435
 30
0.0
 10
3.9365310743
 20
23.1483274499
 30
0.0
 10
3.8925584691
 20
23.133953471
 30
0.0
 10
3.8435548884
 20
23.1248150691
 30
0.0
 10
3.8092681934
 20
23.1226497308
 30
0.0
 10
3.7917781345
 20
23.1226497308
 30
0.0
 11
4.0425011324
 21
23.2669872981
 31
0.0
 11
4.0380460787
 21
23.2406721314
 31
0.0
 11
4.0252212978
 21
23.2150332915
 31
0.0
 11
4.0040669701
 21
23.1907967144
 31
0.0
 11
3.9747291052
 21
23.1687830511
 31
0.0
 11
3.9376029444
 21
23.1499360992
 31
0.0
 11
3.8935507222
 21
23.1353054509
 31
0.0
 11
3.8441451839
 21
23.1259378303
 31
0.0
 11
3.7917781345
 21
23.1226497308
 31
0.0
  0
SPLINE
  5
547
100
AcDbEntity
  8
0
100
AcDbSpline
 62
253
  6
CONTINUOUS
 70
0
 71
3
 72
13
 73
9
 74
7
 42
0.0000001
 43
0.0000001
 44
0.0000000001
 12
-0.0012265943
 22
-0.3651869702
 32
0.0
 13
-0.3651878714
 23
-0.0009199792
 33
0.0
 40
0.0
 40
0.0
 40
0.0
 40
0.0
 40
0.1162393822
 40
0.2339783947
 40
0.3543711753
 40
0.4780981573
 40
0.7345378061
 40
1.0
 40
1.0
 40
1.0
 40
1.0
 10
4.0366833026
 20
23.8443375673
 30
0.0
 10
4.0366357764
 20
23.8301878647
 30
0.0
 10
4.0332772434
 20
23.8016148597
 30
0.0
 10
4.0187206735
 20
23.7606545287
 30
0.0
 10
3.9952498013
 20
23.7229827412
 30
0.0
 10
3.9529470794
 20
23.6786209956
 30
0.0
 10
3.883020804
 20
23.6387868046
 30
0.0
 10
3.8190020579
 20
23.6279126229
 30
0.0
 10
3.7866875334
 20
23.6278312164
 30
0.0
 11
4.0366833026
 21
23.8443375673
 31
0.0
 11
4.0317555822
 21
23.8021752067
 31
0.0
 11
4.0174450883
 21
23.761629536
 31
0.0
 11
3.9942994246
 21
23.7242490838
 31
0.0
 11
3.9632045253
 21
23.6914668129
 31
0.0
 11
3.8821889703
 21
23.644492298
 31
0.0
 11
3.7866875334
 21
23.6278312164
 31
0.0
  0
SPLINE
  5
548
100
AcDbEntity
  8
0
100
AcDbSpline
 62
253
  6
CONTINUOUS
 70
0
 71
3
 72
13
 73
9
 74
7
 42
0.0000001
 43
0.0000001
 44
0.0000000001
 12
0.0012265944
 22
-0.3651869708
 32
0.0
 13
0.3651878719
 23
-0.0009199792
 33
0.0
 40
0.0
 40
0.0
 40
0.0
 40
0.0
 40
0.1162394861
 40
0.2339784844
 40
0.3543712552
 40
0.4780982232
 40
0.7345378384
 40
1.0
 40
1.0
 40
1.0
 40
1.0
 10
18.56288046
 20
23.8443375673
 30
0.0
 10
18.5629279863
 20
23.830187852
 30
0.0
 10
18.5662865207
 20
23.8016148352
 30
0.0
 10
18.5808431064
 20
23.7606544996
 30
0.0
 10
18.6043139784
 20
23.7229827179
 30
0.0
 10
18.6466167022
 20
23.6786209833
 30
0.0
 10
18.7165429703
 20
23.6387868014
 30
0.0
 10
18.7805617086
 20
23.6279126229
 30
0.0
 10
18.8128762292
 20
23.6278312164
 30
0.0
 11
18.56288046
 21
23.8443375673
 31
0.0
 11
18.5678081878
 21
23.8021751692
 31
0.0
 11
18.5821186895
 21
23.7616295068
 31
0.0
 11
18.6052643557
 21
23.7242490603
 31
0.0
 11
18.6363592556
 21
23.6914667969
 31
0.0
 11
18.7173748034
 21
23.6444922937
 31
0.0
 11
18.8128762292
 21
23.6278312164
 31
0.0
  0
SPLINE
  5
549
100
AcDbEntity
  8
0
100
AcDbSpline
 62
7
  6
CONTINUOUS
 70
0
 71
3
 72
15
 73
11
 74
9
 42
0.0000001
 43
0.0000001
 44
0.0000000001
 12
0.0031741039
 22
-0.3149999784
 32
0.0
 13
0.3150159699
 23
0.0
 33
0.0
 40
0.0
 40
0.0
 40
0.0
 40
0.0
 40
0.0847246382
 40
0.1757279367
 40
0.2778501555
 40
0.3942839058
 40
0.5264550939
 40
0.6738071548
 40
0.8334364544
 40
1.0
 40
1.0
 40
1.0
 40
1.0
 10
18.5570626302
 20
23.2669872981
 30
0.0
 10
18.5571522718
 20
23.2580912117
 30
0.0
 10
18.5603950609
 20
23.2395608029
 30
0.0
 10
18.5739464514
 20
23.2133174142
 30
0.0
 10
18.5958178963
 20
23.1888844894
 30
0.0
 10
18.6256699573
 20
23.1669547435
 30
0.0
 10
18.6630326883
 20
23.1483274499
 30
0.0
 10
18.7070052935
 20
23.133953471
 30
0.0
 10
18.7560088742
 20
23.1248150691
 30
0.0
 10
18.7902955692
 20
23.1226497308
 30
0.0
 10
18.8077856282
 20
23.1226497308
 30
0.0
 11
18.5570626302
 21
23.2669872981
 31
0.0
 11
18.5615176839
 21
23.2406721314
 31
0.0
 11
18.5743424648
 21
23.2150332915
 31
0.0
 11
18.5954967925
 21
23.1907967144
 31
0.0
 11
18.6248346574
 21
23.1687830511
 31
0.0
 11
18.6619608182
 21
23.1499360992
 31
0.0
 11
18.7060130404
 21
23.1353054509
 31
0.0
 11
18.7554185788
 21
23.1259378303
 31
0.0
 11
18.8077856282
 21
23.1226497308
 31
0.0
  0
SPLINE
  5
54A
100
AcDbEntity
  8
0
100
AcDbSpline
 62
7
  6
CONTINUOUS
 70
0
 71
3
 72
15
 73
11
 74
9
 42
0.0000001
 43
0.0000001
 44
0.0000000001
 12
0.3142908459
 22
0.0
 32
0.0
 13
0.0031667975
 23
0.3142748912
 33
0.0
 40
0.0
 40
0.0
 40
0.0
 40
0.0
 40
0.1666133779
 40
0.3262255844
 40
0.4735308137
 40
0.6056575217
 40
0.7220676483
 40
0.8241942131
 40
0.9152281509
 40
1.0
 40
1.0
 40
1.0
 40
1.0
 10
21.1925053632
 20
23.1226497308
 30
0.0
 10
21.209960383
 20
23.1226497308
 30
0.0
 10
21.2441675742
 20
23.124909705
 30
0.0
 10
21.2930439759
 20
23.1340775763
 30
0.0
 10
21.3368853874
 20
23.1484769636
 30
0.0
 10
21.374128058
 20
23.1671011817
 30
0.0
 10
21.4038803862
 20
23.1890111222
 30
0.0
 10
21.4256769111
 20
23.2134107396
 30
0.0
 10
21.4391805654
 20
23.239611024
 30
0.0
 10
21.4424116473
 20
23.2581067436
 30
0.0
 10
21.4425011324
 20
23.2669872981
 30
0.0
 11
21.1925053632
 21
23.1226497308
 31
0.0
 11
21.2447620988
 21
23.126016189
 31
0.0
 11
21.294035327
 21
23.1354311576
 31
0.0
 11
21.3379528595
 21
23.1500815293
 31
0.0
 11
21.3749578024
 21
23.1689245842
 31
0.0
 11
21.4041970616
 21
23.1909165769
 31
0.0
 11
21.425279595
 21
23.215119319
 31
0.0
 11
21.438060891
 21
23.2407168857
 31
0.0
 11
21.4425011324
 21
23.2669872981
 31
0.0
  0
SPLINE
  5
54B
100
AcDbEntity
  8
0
100
AcDbSpline
 62
253
  6
CONTINUOUS
 70
0
 71
3
 72
13
 73
9
 74
7
 42
0.0000001
 43
0.0000001
 44
0.0000000001
 12
-0.0012265944
 22
-0.3651869708
 32
0.0
 13
-0.3651878719
 23
-0.0009199792
 33
0.0
 40
0.0
 40
0.0
 40
0.0
 40
0.0
 40
0.1162394861
 40
0.2339784844
 40
0.3543712552
 40
0.4780982232
 40
0.7345378384
 40
1.0
 40
1.0
 40
1.0
 40
1.0
 10
21.4366833026
 20
23.8443375673
 30
0.0
 10
21.4366357764
 20
23.830187852
 30
0.0
 10
21.4332772419
 20
23.8016148352
 30
0.0
 10
21.4187206562
 20
23.7606544996
 30
0.0
 10
21.3952497842
 20
23.7229827179
 30
0.0
 10
21.3529470604
 20
23.6786209833
 30
0.0
 10
21.2830207923
 20
23.6387868014
 30
0.0
 10
21.219002054
 20
23.6279126229
 30
0.0
 10
21.1866875334
 20
23.6278312164
 30
0.0
 11
21.4366833026
 21
23.8443375673
 31
0.0
 11
21.4317555749
 21
23.8021751692
 31
0.0
 11
21.4174450732
 21
23.7616295068
 31
0.0
 11
21.3942994069
 21
23.7242490603
 31
0.0
 11
21.363204507
 21
23.6914667969
 31
0.0
 11
21.2821889592
 21
23.6444922937
 31
0.0
 11
21.1866875334
 21
23.6278312164
 31
0.0
  0
SPLINE
  5
54C
100
AcDbEntity
  8
0
100
AcDbSpline
 62
7
  6
CONTINUOUS
 70
0
 71
3
 72
15
 73
11
 74
9
 42
0.0000001
 43
0.0000001
 44
0.0000000001
 12
0.783584949
 22
0.0
 32
0.0
 13
-0.0
 23
-0.783584949
 33
0.0
 40
0.0
 40
0.0
 40
0.0
 40
0.0
 40
0.1249998755
 40
0.2499983858
 40
0.3749979685
 40
0.4999978562
 40
0.6249980066
 40
0.7499984071
 40
0.8749983005
 40
1.0
 40
1.0
 40
1.0
 40
1.0
 10
21.9497571497
 20
22.4
 30
0.0
 10
21.9824064901
 20
22.4
 30
0.0
 10
22.0478797351
 20
22.3934475677
 30
0.0
 10
22.1421523925
 20
22.3647451103
 30
0.0
 10
22.2290404014
 20
22.3181579234
 30
0.0
 10
22.3051545143
 20
22.2555146988
 30
0.0
 10
22.3675880625
 20
22.1792278759
 30
0.0
 10
22.4139529114
 20
22.0922261856
 30
0.0
 10
22.4424890191
 20
21.9979001651
 30
0.0
 10
22.4489091281
 20
21.9324209647
 30
0.0
 10
22.4489091281
 20
21.8997711479
 30
0.0
 11
21.9497571497
 21
22.4
 31
0.0
 11
22.0472238674
 21
22.3903018677
 31
0.0
 11
22.140921361
 21
22.3617644365
 31
0.0
 11
22.2272446245
 21
22.3154819985
 31
0.0
 11
22.3028743463
 21
22.2532408395
 31
0.0
 11
22.3649099068
 21
22.1774421175
 31
0.0
 11
22.4109814856
 21
22.0910054062
 31
0.0
 11
22.4393379315
 21
21.9972518487
 31
0.0
 11
22.4489091281
 21
21.8997711479
 31
0.0
  0
SPLINE
  5
54D
100
AcDbEntity
  8
0
100
AcDbSpline
 62
7
  6
CONTINUOUS
 70
0
 71
3
 72
15
 73
11
 74
9
 42
0.0000001
 43
0.0000001
 44
0.0000000001
 12
0.0
 22
-0.7835849489
 32
0.0
 13
-0.7835849489
 23
0.0
 33
0.0
 40
0.0
 40
0.0
 40
0.0
 40
0.0
 40
0.1250016995
 40
0.2500015929
 40
0.3750019934
 40
0.5000021438
 40
0.6250020315
 40
0.7500016142
 40
0.8750001245
 40
1.0
 40
1.0
 40
1.0
 40
1.0
 10
22.4489091281
 20
-21.8997711479
 30
0.0
 10
22.4489091281
 20
-21.9324209647
 30
0.0
 10
22.4424890191
 20
-21.9979001651
 30
0.0
 10
22.4139529115
 20
-22.0922261856
 30
0.0
 10
22.3675880626
 20
-22.1792278759
 30
0.0
 10
22.3051545143
 20
-22.2555146988
 30
0.0
 10
22.2290404014
 20
-22.3181579234
 30
0.0
 10
22.1421523926
 20
-22.3647451103
 30
0.0
 10
22.0478797352
 20
-22.3934475677
 30
0.0
 10
21.9824064902
 20
-22.4
 30
0.0
 10
21.9497571498
 20
-22.4
 30
0.0
 11
22.4489091281
 21
-21.8997711479
 31
0.0
 11
22.4393379315
 21
-21.9972518487
 31
0.0
 11
22.4109814856
 21
-22.0910054062
 31
0.0
 11
22.3649099068
 21
-22.1774421175
 31
0.0
 11
22.3028743463
 21
-22.2532408395
 31
0.0
 11
22.2272446245
 21
-22.3154819984
 31
0.0
 11
22.1409213611
 21
-22.3617644365
 31
0.0
 11
22.0472238675
 21
-22.3903018677
 31
0.0
 11
21.9497571498
 21
-22.4
 31
0.0
  0
SPLINE
  5
54E
100
AcDbEntity
  8
0
100
AcDbSpline
 62
7
  6
CONTINUOUS
 70
0
 71
3
 72
8
 73
4
 74
2
 42
0.0000001
 43
0.0000001
 44
0.0000000001
 12
-0.013463044
 22
-0.0936614716
 32
0.0
 13
-0.0473104242
 23
-0.0819478406
 33
0.0
 40
0.0
 40
0.0
 40
0.0
 40
0.0
 40
1.0
 40
1.0
 40
1.0
 40
1.0
 10
-1.0527626445
 20
-24.2855823661
 30
0.0
 10
-1.0572503259
 20
-24.3168028567
 30
0.0
 10
-1.0679407428
 20
-24.3476863906
 30
0.0
 10
-1.0837108842
 20
-24.3750023375
 30
0.0
 11
-1.0527626445
 21
-24.2855823661
 31
0.0
 11
-1.0837108842
 21
-24.3750023375
 31
0.0
  0
SPLINE
  5
54F
100
AcDbEntity
  8
0
100
AcDbSpline
 62
7
  6
CONTINUOUS
 70
0
 71
3
 72
8
 73
4
 74
2
 42
0.0000001
 43
0.0000001
 44
0.0000000001
 12
-0.0647014934
 22
-0.1120714463
 32
0.0
 13
-0.1120714463
 23
-0.0647014934
 33
0.0
 40
0.0
 40
0.0
 40
0.0
 40
0.0
 40
1.0
 40
1.0
 40
1.0
 40
1.0
 10
-1.0837108842
 20
-24.3750023375
 30
0.0
 10
-1.1052780487
 20
-24.4123594863
 30
0.0
 10
-1.1378586324
 20
-24.44494007
 30
0.0
 10
-1.1752157812
 20
-24.4665072345
 30
0.0
 11
-1.0837108842
 21
-24.3750023375
 31
0.0
 11
-1.1752157812
 21
-24.4665072345
 31
0.0
  0
SPLINE
  5
550
100
AcDbEntity
  8
0
100
AcDbSpline
 62
7
  6
CONTINUOUS
 70
0
 71
3
 72
8
 73
4
 74
2
 42
0.0000001
 43
0.0000001
 44
0.0000000001
 12
-0.1120714453
 22
-0.0647014928
 32
0.0
 13
-0.1294074651
 23
0.0
 33
0.0
 40
0.0
 40
0.0
 40
0.0
 40
0.0
 40
1.0
 40
1.0
 40
1.0
 40
1.0
 10
-1.1752157812
 20
-24.4665072345
 30
0.0
 10
-1.2125729296
 20
-24.4880743987
 30
0.0
 10
-1.2570780662
 20
-24.5
 30
0.0
 10
-1.3002138879
 20
-24.5
 30
0.0
 11
-1.1752157812
 21
-24.4665072345
 31
0.0
 11
-1.3002138879
 21
-24.5
 31
0.0
  0
SPLINE
  5
551
100
AcDbEntity
  8
0
100
AcDbSpline
 62
7
  6
CONTINUOUS
 70
0
 71
3
 72
8
 73
4
 74
2
 42
0.0000001
 43
0.0000001
 44
0.0000000001
 12
-0.0936614716
 22
0.013463044
 32
0.0
 13
-0.0819478406
 23
0.0473104242
 33
0.0
 40
0.0
 40
0.0
 40
0.0
 40
0.0
 40
1.0
 40
1.0
 40
1.0
 40
1.0
 10
-3.7358004848
 20
-24.4974554741
 30
0.0
 10
-3.7670209754
 20
-24.4929677928
 30
0.0
 10
-3.7979045093
 20
-24.4822773759
 30
0.0
 10
-3.8252204562
 20
-24.4665072345
 30
0.0
 11
-3.7358004848
 21
-24.4974554741
 31
0.0
 11
-3.8252204562
 21
-24.4665072345
 31
0.0
  0
SPLINE
  5
552
100
AcDbEntity
  8
0
100
AcDbSpline
 62
7
  6
CONTINUOUS
 70
0
 71
3
 72
8
 73
4
 74
2
 42
0.0000001
 43
0.0000001
 44
0.0000000001
 12
-0.1120714463
 22
0.0647014934
 32
0.0
 13
-0.0647014934
 23
0.1120714463
 33
0.0
 40
0.0
 40
0.0
 40
0.0
 40
0.0
 40
1.0
 40
1.0
 40
1.0
 40
1.0
 10
-3.8252204562
 20
-24.4665072345
 30
0.0
 10
-3.862577605
 20
-24.44494007
 30
0.0
 10
-3.8951581887
 20
-24.4123594863
 30
0.0
 10
-3.9167253531
 20
-24.3750023375
 30
0.0
 11
-3.8252204562
 21
-24.4665072345
 31
0.0
 11
-3.9167253531
 21
-24.3750023375
 31
0.0
  0
SPLINE
  5
553
100
AcDbEntity
  8
0
100
AcDbSpline
 62
7
  6
CONTINUOUS
 70
0
 71
3
 72
8
 73
4
 74
2
 42
0.0000001
 43
0.0000001
 44
0.0000000001
 12
-0.0647014928
 22
0.1120714453
 32
0.0
 13
0.0
 23
0.1294074651
 33
0.0
 40
0.0
 40
0.0
 40
0.0
 40
0.0
 40
1.0
 40
1.0
 40
1.0
 40
1.0
 10
-3.9167253531
 20
-24.3750023375
 30
0.0
 10
-3.9382925174
 20
-24.3376451891
 30
0.0
 10
-3.9502181187
 20
-24.2931400525
 30
0.0
 10
-3.9502181187
 20
-24.2500042308
 30
0.0
 11
-3.9167253531
 21
-24.3750023375
 31
0.0
 11
-3.9502181187
 21
-24.2500042308
 31
0.0
  0
SPLINE
  5
554
100
AcDbEntity
  8
0
100
AcDbSpline
 62
7
  6
CONTINUOUS
 70
0
 71
3
 72
8
 73
4
 74
2
 42
0.0000001
 43
0.0000001
 44
0.0000000001
 12
-0.0936614716
 22
0.013463044
 32
0.0
 13
-0.0819478406
 23
0.0473104242
 33
0.0
 40
0.0
 40
0.0
 40
0.0
 40
0.0
 40
1.0
 40
1.0
 40
1.0
 40
1.0
 10
-21.1358004848
 20
-24.4974554741
 30
0.0
 10
-21.1670209754
 20
-24.4929677928
 30
0.0
 10
-21.1979045093
 20
-24.4822773759
 30
0.0
 10
-21.2252204562
 20
-24.4665072345
 30
0.0
 11
-21.1358004848
 21
-24.4974554741
 31
0.0
 11
-21.2252204562
 21
-24.4665072345
 31
0.0
  0
SPLINE
  5
555
100
AcDbEntity
  8
0
100
AcDbSpline
 62
7
  6
CONTINUOUS
 70
0
 71
3
 72
8
 73
4
 74
2
 42
0.0000001
 43
0.0000001
 44
0.0000000001
 12
-0.1120714463
 22
0.0647014934
 32
0.0
 13
-0.0647014934
 23
0.1120714463
 33
0.0
 40
0.0
 40
0.0
 40
0.0
 40
0.0
 40
1.0
 40
1.0
 40
1.0
 40
1.0
 10
-21.2252204562
 20
-24.4665072345
 30
0.0
 10
-21.262577605
 20
-24.44494007
 30
0.0
 10
-21.2951581887
 20
-24.4123594863
 30
0.0
 10
-21.3167253531
 20
-24.3750023375
 30
0.0
 11
-21.2252204562
 21
-24.4665072345
 31
0.0
 11
-21.3167253531
 21
-24.3750023375
 31
0.0
  0
SPLINE
  5
556
100
AcDbEntity
  8
0
100
AcDbSpline
 62
7
  6
CONTINUOUS
 70
0
 71
3
 72
8
 73
4
 74
2
 42
0.0000001
 43
0.0000001
 44
0.0000000001
 12
-0.0647014928
 22
0.1120714453
 32
0.0
 13
0.0
 23
0.1294074651
 33
0.0
 40
0.0
 40
0.0
 40
0.0
 40
0.0
 40
1.0
 40
1.0
 40
1.0
 40
1.0
 10
-21.3167253531
 20
-24.3750023375
 30
0.0
 10
-21.3382925174
 20
-24.3376451891
 30
0.0
 10
-21.3502181187
 20
-24.2931400525
 30
0.0
 10
-21.3502181187
 20
-24.2500042308
 30
0.0
 11
-21.3167253531
 21
-24.3750023375
 31
0.0
 11
-21.3502181187
 21
-24.2500042308
 31
0.0
  0
SPLINE
  5
557
100
AcDbEntity
  8
0
100
AcDbSpline
 62
7
  6
CONTINUOUS
 70
0
 71
3
 72
8
 73
4
 74
2
 42
0.0000001
 43
0.0000001
 44
0.0000000001
 12
-0.013463044
 22
-0.0936614716
 32
0.0
 13
-0.0473104242
 23
-0.0819478406
 33
0.0
 40
0.0
 40
0.0
 40
0.0
 40
0.0
 40
1.0
 40
1.0
 40
1.0
 40
1.0
 10
-18.4527626445
 20
-24.2855823661
 30
0.0
 10
-18.4572503259
 20
-24.3168028567
 30
0.0
 10
-18.4679407428
 20
-24.3476863906
 30
0.0
 10
-18.4837108842
 20
-24.3750023375
 30
0.0
 11
-18.4527626445
 21
-24.2855823661
 31
0.0
 11
-18.4837108842
 21
-24.3750023375
 31
0.0
  0
SPLINE
  5
558
100
AcDbEntity
  8
0
100
AcDbSpline
 62
7
  6
CONTINUOUS
 70
0
 71
3
 72
8
 73
4
 74
2
 42
0.0000001
 43
0.0000001
 44
0.0000000001
 12
-0.0647014934
 22
-0.1120714463
 32
0.0
 13
-0.1120714463
 23
-0.0647014934
 33
0.0
 40
0.0
 40
0.0
 40
0.0
 40
0.0
 40
1.0
 40
1.0
 40
1.0
 40
1.0
 10
-18.4837108842
 20
-24.3750023375
 30
0.0
 10
-18.5052780487
 20
-24.4123594863
 30
0.0
 10
-18.5378586324
 20
-24.44494007
 30
0.0
 10
-18.5752157812
 20
-24.4665072345
 30
0.0
 11
-18.4837108842
 21
-24.3750023375
 31
0.0
 11
-18.5752157812
 21
-24.4665072345
 31
0.0
  0
SPLINE
  5
559
100
AcDbEntity
  8
0
100
AcDbSpline
 62
7
  6
CONTINUOUS
 70
0
 71
3
 72
8
 73
4
 74
2
 42
0.0000001
 43
0.0000001
 44
0.0000000001
 12
-0.1120714453
 22
-0.0647014928
 32
0.0
 13
-0.1294074651
 23
0.0
 33
0.0
 40
0.0
 40
0.0
 40
0.0
 40
0.0
 40
1.0
 40
1.0
 40
1.0
 40
1.0
 10
-18.5752157812
 20
-24.4665072345
 30
0.0
 10
-18.6125729296
 20
-24.4880743987
 30
0.0
 10
-18.6570780662
 20
-24.5
 30
0.0
 10
-18.7002138879
 20
-24.5
 30
0.0
 11
-18.5752157812
 21
-24.4665072345
 31
0.0
 11
-18.7002138879
 21
-24.5
 31
0.0
  0
SPLINE
  5
55A
100
AcDbEntity
  8
0
100
AcDbSpline
 62
7
  6
CONTINUOUS
 70
0
 71
3
 72
8
 73
4
 74
2
 42
0.0000001
 43
0.0000001
 44
0.0000000001
 12
0.0936614716
 22
-0.013463044
 32
0.0
 13
0.0819478406
 23
-0.0473104242
 33
0.0
 40
0.0
 40
0.0
 40
0.0
 40
0.0
 40
1.0
 40
1.0
 40
1.0
 40
1.0
 10
-1.2646357526
 20
24.4974554741
 30
0.0
 10
-1.233415262
 20
24.4929677928
 30
0.0
 10
-1.202531728
 20
24.4822773759
 30
0.0
 10
-1.1752157812
 20
24.4665072345
 30
0.0
 11
-1.2646357526
 21
24.4974554741
 31
0.0
 11
-1.1752157812
 21
24.4665072345
 31
0.0
  0
SPLINE
  5
55B
100
AcDbEntity
  8
0
100
AcDbSpline
 62
7
  6
CONTINUOUS
 70
0
 71
3
 72
8
 73
4
 74
2
 42
0.0000001
 43
0.0000001
 44
0.0000000001
 12
0.1120714463
 22
-0.0647014934
 32
0.0
 13
0.0647014934
 23
-0.1120714463
 33
0.0
 40
0.0
 40
0.0
 40
0.0
 40
0.0
 40
1.0
 40
1.0
 40
1.0
 40
1.0
 10
-1.1752157812
 20
24.4665072345
 30
0.0
 10
-1.1378586324
 20
24.44494007
 30
0.0
 10
-1.1052780487
 20
24.4123594863
 30
0.0
 10
-1.0837108842
 20
24.3750023375
 30
0.0
 11
-1.1752157812
 21
24.4665072345
 31
0.0
 11
-1.0837108842
 21
24.3750023375
 31
0.0
  0
SPLINE
  5
55C
100
AcDbEntity
  8
0
100
AcDbSpline
 62
7
  6
CONTINUOUS
 70
0
 71
3
 72
8
 73
4
 74
2
 42
0.0000001
 43
0.0000001
 44
0.0000000001
 12
0.0647014928
 22
-0.1120714453
 32
0.0
 13
0.0
 23
-0.1294074651
 33
0.0
 40
0.0
 40
0.0
 40
0.0
 40
0.0
 40
1.0
 40
1.0
 40
1.0
 40
1.0
 10
-1.0837108842
 20
24.3750023375
 30
0.0
 10
-1.06214372
 20
24.3376451891
 30
0.0
 10
-1.0502181187
 20
24.2931400525
 30
0.0
 10
-1.0502181187
 20
24.2500042308
 30
0.0
 11
-1.0837108842
 21
24.3750023375
 31
0.0
 11
-1.0502181187
 21
24.2500042308
 31
0.0
  0
SPLINE
  5
55D
100
AcDbEntity
  8
0
100
AcDbSpline
 62
7
  6
CONTINUOUS
 70
0
 71
3
 72
8
 73
4
 74
2
 42
0.0000001
 43
0.0000001
 44
0.0000000001
 12
0.013463044
 22
0.0936614716
 32
0.0
 13
0.0473104242
 23
0.0819478406
 33
0.0
 40
0.0
 40
0.0
 40
0.0
 40
0.0
 40
1.0
 40
1.0
 40
1.0
 40
1.0
 10
-3.9476735928
 20
24.2855823661
 30
0.0
 10
-3.9431859115
 20
24.3168028567
 30
0.0
 10
-3.9324954946
 20
24.3476863906
 30
0.0
 10
-3.9167253531
 20
24.3750023375
 30
0.0
 11
-3.9476735928
 21
24.2855823661
 31
0.0
 11
-3.9167253531
 21
24.3750023375
 31
0.0
  0
SPLINE
  5
55E
100
AcDbEntity
  8
0
100
AcDbSpline
 62
7
  6
CONTINUOUS
 70
0
 71
3
 72
8
 73
4
 74
2
 42
0.0000001
 43
0.0000001
 44
0.0000000001
 12
0.0647014934
 22
0.1120714463
 32
0.0
 13
0.1120714463
 23
0.0647014934
 33
0.0
 40
0.0
 40
0.0
 40
0.0
 40
0.0
 40
1.0
 40
1.0
 40
1.0
 40
1.0
 10
-3.9167253531
 20
24.3750023375
 30
0.0
 10
-3.8951581887
 20
24.4123594863
 30
0.0
 10
-3.862577605
 20
24.44494007
 30
0.0
 10
-3.8252204562
 20
24.4665072345
 30
0.0
 11
-3.9167253531
 21
24.3750023375
 31
0.0
 11
-3.8252204562
 21
24.4665072345
 31
0.0
  0
SPLINE
  5
55F
100
AcDbEntity
  8
0
100
AcDbSpline
 62
7
  6
CONTINUOUS
 70
0
 71
3
 72
8
 73
4
 74
2
 42
0.0000001
 43
0.0000001
 44
0.0000000001
 12
0.1120714453
 22
0.0647014928
 32
0.0
 13
0.1294074651
 23
0.0
 33
0.0
 40
0.0
 40
0.0
 40
0.0
 40
0.0
 40
1.0
 40
1.0
 40
1.0
 40
1.0
 10
-3.8252204562
 20
24.4665072345
 30
0.0
 10
-3.7878633078
 20
24.4880743987
 30
0.0
 10
-3.7433581712
 20
24.5
 30
0.0
 10
-3.7002223495
 20
24.5
 30
0.0
 11
-3.8252204562
 21
24.4665072345
 31
0.0
 11
-3.7002223495
 21
24.5
 31
0.0
  0
SPLINE
  5
560
100
AcDbEntity
  8
0
100
AcDbSpline
 62
7
  6
CONTINUOUS
 70
0
 71
3
 72
8
 73
4
 74
2
 42
0.0000001
 43
0.0000001
 44
0.0000000001
 12
0.0936614716
 22
-0.013463044
 32
0.0
 13
0.0819478406
 23
-0.0473104242
 33
0.0
 40
0.0
 40
0.0
 40
0.0
 40
0.0
 40
1.0
 40
1.0
 40
1.0
 40
1.0
 10
-18.6646357526
 20
24.4974554741
 30
0.0
 10
-18.633415262
 20
24.4929677928
 30
0.0
 10
-18.602531728
 20
24.4822773759
 30
0.0
 10
-18.5752157812
 20
24.4665072345
 30
0.0
 11
-18.6646357526
 21
24.4974554741
 31
0.0
 11
-18.5752157812
 21
24.4665072345
 31
0.0
  0
SPLINE
  5
561
100
AcDbEntity
  8
0
100
AcDbSpline
 62
7
  6
CONTINUOUS
 70
0
 71
3
 72
8
 73
4
 74
2
 42
0.0000001
 43
0.0000001
 44
0.0000000001
 12
0.1120714463
 22
-0.0647014934
 32
0.0
 13
0.0647014934
 23
-0.1120714463
 33
0.0
 40
0.0
 40
0.0
 40
0.0
 40
0.0
 40
1.0
 40
1.0
 40
1.0
 40
1.0
 10
-18.5752157812
 20
24.4665072345
 30
0.0
 10
-18.5378586324
 20
24.44494007
 30
0.0
 10
-18.5052780487
 20
24.4123594863
 30
0.0
 10
-18.4837108842
 20
24.3750023375
 30
0.0
 11
-18.5752157812
 21
24.4665072345
 31
0.0
 11
-18.4837108842
 21
24.3750023375
 31
0.0
  0
SPLINE
  5
562
100
AcDbEntity
  8
0
100
AcDbSpline
 62
7
  6
CONTINUOUS
 70
0
 71
3
 72
8
 73
4
 74
2
 42
0.0000001
 43
0.0000001
 44
0.0000000001
 12
0.0647014928
 22
-0.1120714453
 32
0.0
 13
0.0
 23
-0.1294074651
 33
0.0
 40
0.0
 40
0.0
 40
0.0
 40
0.0
 40
1.0
 40
1.0
 40
1.0
 40
1.0
 10
-18.4837108842
 20
24.3750023375
 30
0.0
 10
-18.46214372
 20
24.3376451891
 30
0.0
 10
-18.4502181187
 20
24.2931400525
 30
0.0
 10
-18.4502181187
 20
24.2500042308
 30
0.0
 11
-18.4837108842
 21
24.3750023375
 31
0.0
 11
-18.4502181187
 21
24.2500042308
 31
0.0
  0
SPLINE
  5
563
100
AcDbEntity
  8
0
100
AcDbSpline
 62
7
  6
CONTINUOUS
 70
0
 71
3
 72
8
 73
4
 74
2
 42
0.0000001
 43
0.0000001
 44
0.0000000001
 12
0.013463044
 22
0.0936614716
 32
0.0
 13
0.0473104242
 23
0.0819478406
 33
0.0
 40
0.0
 40
0.0
 40
0.0
 40
0.0
 40
1.0
 40
1.0
 40
1.0
 40
1.0
 10
-21.3476735928
 20
24.2855823661
 30
0.0
 10
-21.3431859115
 20
24.3168028567
 30
0.0
 10
-21.3324954946
 20
24.3476863906
 30
0.0
 10
-21.3167253531
 20
24.3750023375
 30
0.0
 11
-21.3476735928
 21
24.2855823661
 31
0.0
 11
-21.3167253531
 21
24.3750023375
 31
0.0
  0
SPLINE
  5
564
100
AcDbEntity
  8
0
100
AcDbSpline
 62
7
  6
CONTINUOUS
 70
0
 71
3
 72
8
 73
4
 74
2
 42
0.0000001
 43
0.0000001
 44
0.0000000001
 12
0.0647014934
 22
0.1120714463
 32
0.0
 13
0.1120714463
 23
0.0647014934
 33
0.0
 40
0.0
 40
0.0
 40
0.0
 40
0.0
 40
1.0
 40
1.0
 40
1.0
 40
1.0
 10
-21.3167253531
 20
24.3750023375
 30
0.0
 10
-21.2951581887
 20
24.4123594863
 30
0.0
 10
-21.262577605
 20
24.44494007
 30
0.0
 10
-21.2252204562
 20
24.4665072345
 30
0.0
 11
-21.3167253531
 21
24.3750023375
 31
0.0
 11
-21.2252204562
 21
24.4665072345
 31
0.0
  0
SPLINE
  5
565
100
AcDbEntity
  8
0
100
AcDbSpline
 62
7
  6
CONTINUOUS
 70
0
 71
3
 72
8
 73
4
 74
2
 42
0.0000001
 43
0.0000001
 44
0.0000000001
 12
0.1120714453
 22
0.0647014928
 32
0.0
 13
0.1294074651
 23
0.0
 33
0.0
 40
0.0
 40
0.0
 40
0.0
 40
0.0
 40
1.0
 40
1.0
 40
1.0
 40
1.0
 10
-21.2252204562
 20
24.4665072345
 30
0.0
 10
-21.1878633078
 20
24.4880743987
 30
0.0
 10
-21.1433581712
 20
24.5
 30
0.0
 10
-21.1002223495
 20
24.5
 30
0.0
 11
-21.2252204562
 21
24.4665072345
 31
0.0
 11
-21.1002223495
 21
24.5
 31
0.0
  0
SPLINE
  5
566
100
AcDbEntity
  8
0
100
AcDbSpline
 62
7
  6
CONTINUOUS
 70
0
 71
3
 72
11
 73
7
 74
5
 42
0.0000001
 43
0.0000001
 44
0.0000000001
 12
0.3128734253
 22
0.0
 32
0.0
 13
0.0031525156
 23
0.3128575425
 33
0.0
 40
0.0
 40
0.0
 40
0.0
 40
0.0
 40
0.327069379
 40
0.6069908884
 40
0.8253215288
 40
1.0
 40
1.0
 40
1.0
 40
1.0
 10
-18.7074946368
 20
23.1226497308
 30
0.0
 10
-18.6733841979
 20
23.1226497308
 30
0.0
 10
-18.609758675
 20
23.1303374357
 30
0.0
 10
-18.5286240156
 20
23.1618479167
 30
0.0
 10
-18.4730523973
 20
23.2077593007
 30
0.0
 10
-18.4576824265
 20
23.2487708057
 30
0.0
 10
-18.4574988676
 20
23.2669872981
 30
0.0
 11
-18.7074946368
 21
23.1226497308
 31
0.0
 11
-18.605964673
 21
23.1354311576
 31
0.0
 11
-18.5250421976
 21
23.1689245842
 31
0.0
 11
-18.474720405
 21
23.215119319
 31
0.0
 11
-18.4574988676
 21
23.2669872981
 31
0.0
  0
SPLINE
  5
567
100
AcDbEntity
  8
0
100
AcDbSpline
 62
253
  6
CONTINUOUS
 70
0
 71
3
 72
11
 73
7
 74
5
 42
0.0000001
 43
0.0000001
 44
0.0000000001
 12
0.0012232482
 22
-0.3641907438
 32
0.0
 13
0.3641916425
 23
-0.0009174695
 33
0.0
 40
0.0
 40
0.0
 40
0.0
 40
0.0
 40
0.2331623162
 40
0.4766706026
 40
0.7338117062
 40
1.0
 40
1.0
 40
1.0
 40
1.0
 10
-21.33711954
 20
23.8443375673
 30
0.0
 10
-21.3370244682
 20
23.8160323815
 30
0.0
 10
-21.3230946093
 20
23.7574892401
 30
0.0
 10
-21.2661621814
 20
23.685828124
 30
0.0
 10
-21.1834941406
 20
23.6388299294
 30
0.0
 10
-21.1194382881
 20
23.6279126229
 30
0.0
 10
-21.0871237708
 20
23.6278312164
 30
0.0
 11
-21.33711954
 21
23.8443375673
 31
0.0
 11
-21.3178813092
 21
23.7616295042
 31
0.0
 11
-21.2636407394
 21
23.6914667926
 31
0.0
 11
-21.1826251871
 21
23.6444922901
 31
0.0
 11
-21.0871237708
 21
23.6278312164
 31
0.0
  0
SPLINE
  5
568
100
AcDbEntity
  8
0
100
AcDbSpline
 62
7
  6
CONTINUOUS
 70
0
 71
3
 72
11
 73
7
 74
5
 42
0.0000001
 43
0.0000001
 44
0.0000000001
 12
0.0031597576
 22
-0.3135762468
 32
0.0
 13
0.3135921661
 23
0.0
 33
0.0
 40
0.0
 40
0.0
 40
0.0
 40
0.0
 40
0.1745970712
 40
0.3929474236
 40
0.672962312
 40
1.0
 40
1.0
 40
1.0
 40
1.0
 10
-21.3429373698
 20
23.2669872981
 30
0.0
 10
-21.342753475
 20
23.2487374667
 30
0.0
 10
-21.3273200226
 20
23.2076402818
 30
0.0
 10
-21.2715601866
 20
23.1616935154
 30
0.0
 10
-21.1901914165
 20
23.1301817308
 30
0.0
 10
-21.1263998575
 20
23.1226497308
 30
0.0
 10
-21.0922143718
 20
23.1226497308
 30
0.0
 11
-21.3429373698
 21
23.2669872981
 31
0.0
 11
-21.3256575352
 21
23.2150332915
 31
0.0
 11
-21.2751653426
 21
23.1687830511
 31
0.0
 11
-21.1939869596
 21
23.1353054509
 31
0.0
 11
-21.0922143718
 21
23.1226497308
 31
0.0
  0
SPLINE
  5
569
100
AcDbEntity
  8
0
100
AcDbSpline
 62
253
  6
CONTINUOUS
 70
0
 71
3
 72
11
 73
7
 74
5
 42
0.0000001
 43
0.0000001
 44
0.0000000001
 12
-0.0012232482
 22
-0.3641907438
 32
0.0
 13
-0.3641916425
 23
-0.0009174695
 33
0.0
 40
0.0
 40
0.0
 40
0.0
 40
0.0
 40
0.2331623084
 40
0.476670585
 40
0.7338116789
 40
1.0
 40
1.0
 40
1.0
 40
1.0
 10
-18.4633166974
 20
23.8443375673
 30
0.0
 10
-18.4634117692
 20
23.8160323825
 30
0.0
 10
-18.477341627
 20
23.7574892432
 30
0.0
 10
-18.5342740511
 20
23.6858281285
 30
0.0
 10
-18.6169420913
 20
23.6388299314
 30
0.0
 10
-18.680997946
 20
23.6279126229
 30
0.0
 10
-18.7133124666
 20
23.6278312164
 30
0.0
 11
-18.4633166974
 21
23.8443375673
 31
0.0
 11
-18.4825549268
 21
23.7616295068
 31
0.0
 11
-18.536795493
 21
23.6914667969
 31
0.0
 11
-18.6178110408
 21
23.6444922937
 31
0.0
 11
-18.7133124666
 21
23.6278312164
 31
0.0
  0
SPLINE
  5
56A
100
AcDbEntity
  8
0
100
AcDbSpline
 62
253
  6
CONTINUOUS
 70
0
 71
3
 72
11
 73
7
 74
5
 42
0.0000001
 43
0.0000001
 44
0.0000000001
 12
0.0012232482
 22
-0.3641907438
 32
0.0
 13
0.3641916425
 23
-0.0009174695
 33
0.0
 40
0.0
 40
0.0
 40
0.0
 40
0.0
 40
0.2331623084
 40
0.476670585
 40
0.7338116789
 40
1.0
 40
1.0
 40
1.0
 40
1.0
 10
-3.93711954
 20
23.8443375673
 30
0.0
 10
-3.9370244682
 20
23.8160323825
 30
0.0
 10
-3.9230946104
 20
23.7574892432
 30
0.0
 10
-3.8661621863
 20
23.6858281285
 30
0.0
 10
-3.7834941461
 20
23.6388299314
 30
0.0
 10
-3.7194382914
 20
23.6279126229
 30
0.0
 10
-3.6871237708
 20
23.6278312164
 30
0.0
 11
-3.93711954
 21
23.8443375673
 31
0.0
 11
-3.9178813105
 21
23.7616295068
 31
0.0
 11
-3.8636407444
 21
23.6914667969
 31
0.0
 11
-3.7826251966
 21
23.6444922937
 31
0.0
 11
-3.6871237708
 21
23.6278312164
 31
0.0
  0
SPLINE
  5
56B
100
AcDbEntity
  8
0
100
AcDbSpline
 62
7
  6
CONTINUOUS
 70
0
 71
3
 72
11
 73
7
 74
5
 42
0.0000001
 43
0.0000001
 44
0.0000000001
 12
0.0031597576
 22
-0.3135762468
 32
0.0
 13
0.3135921661
 23
0.0
 33
0.0
 40
0.0
 40
0.0
 40
0.0
 40
0.0
 40
0.1745970712
 40
0.3929474236
 40
0.672962312
 40
1.0
 40
1.0
 40
1.0
 40
1.0
 10
-3.9429373698
 20
23.2669872981
 30
0.0
 10
-3.942753475
 20
23.2487374667
 30
0.0
 10
-3.9273200226
 20
23.2076402818
 30
0.0
 10
-3.8715601866
 20
23.1616935154
 30
0.0
 10
-3.7901914165
 20
23.1301817308
 30
0.0
 10
-3.7263998575
 20
23.1226497308
 30
0.0
 10
-3.6922143718
 20
23.1226497308
 30
0.0
 11
-3.9429373698
 21
23.2669872981
 31
0.0
 11
-3.9256575352
 21
23.2150332915
 31
0.0
 11
-3.8751653426
 21
23.1687830511
 31
0.0
 11
-3.7939869596
 21
23.1353054509
 31
0.0
 11
-3.6922143718
 21
23.1226497308
 31
0.0
  0
SPLINE
  5
56C
100
AcDbEntity
  8
0
100
AcDbSpline
 62
7
  6
CONTINUOUS
 70
0
 71
3
 72
11
 73
7
 74
5
 42
0.0000001
 43
0.0000001
 44
0.0000000001
 12
-0.0031597576
 22
-0.3135762468
 32
0.0
 13
-0.3135921661
 23
0.0
 33
0.0
 40
0.0
 40
0.0
 40
0.0
 40
0.0
 40
0.1745970712
 40
0.3929474236
 40
0.672962312
 40
1.0
 40
1.0
 40
1.0
 40
1.0
 10
-1.0574988676
 20
23.2669872981
 30
0.0
 10
-1.0576827624
 20
23.2487374667
 30
0.0
 10
-1.0731162148
 20
23.2076402818
 30
0.0
 10
-1.1288760508
 20
23.1616935154
 30
0.0
 10
-1.2102448209
 20
23.1301817308
 30
0.0
 10
-1.2740363799
 20
23.1226497308
 30
0.0
 10
-1.3082218655
 20
23.1226497308
 30
0.0
 11
-1.0574988676
 21
23.2669872981
 31
0.0
 11
-1.0747787022
 21
23.2150332915
 31
0.0
 11
-1.1252708948
 21
23.1687830511
 31
0.0
 11
-1.2064492778
 21
23.1353054509
 31
0.0
 11
-1.3082218655
 21
23.1226497308
 31
0.0
  0
SPLINE
  5
56D
100
AcDbEntity
  8
0
100
AcDbSpline
 62
253
  6
CONTINUOUS
 70
0
 71
3
 72
11
 73
7
 74
5
 42
0.0000001
 43
0.0000001
 44
0.0000000001
 12
-0.0012232482
 22
-0.3641907442
 32
0.0
 13
-0.3641916429
 23
-0.0009174695
 33
0.0
 40
0.0
 40
0.0
 40
0.0
 40
0.0
 40
0.2331622206
 40
0.4766705204
 40
0.7338116472
 40
1.0
 40
1.0
 40
1.0
 40
1.0
 10
-1.0633166974
 20
23.8443375673
 30
0.0
 10
-1.0634117692
 20
23.8160323931
 30
0.0
 10
-1.0773416176
 20
23.7574892617
 30
0.0
 10
-1.1342740325
 20
23.6858281428
 30
0.0
 10
-1.2169420792
 20
23.6388299344
 30
0.0
 10
-1.2809979421
 20
23.6279126229
 30
0.0
 10
-1.3133124666
 20
23.6278312164
 30
0.0
 11
-1.0633166974
 21
23.8443375673
 31
0.0
 11
-1.0825549117
 21
23.761629536
 31
0.0
 11
-1.1367954747
 21
23.6914668129
 31
0.0
 11
-1.2178110297
 21
23.644492298
 31
0.0
 11
-1.3133124666
 21
23.6278312164
 31
0.0
  0
SPLINE
  5
56E
100
AcDbEntity
  8
0
100
AcDbSpline
 62
253
  6
CONTINUOUS
 70
0
 71
3
 72
11
 73
7
 74
5
 42
0.0000001
 43
0.0000001
 44
0.0000000001
 12
-0.0012232482
 22
0.3641907438
 32
0.0
 13
-0.3641916425
 23
0.0009174695
 33
0.0
 40
0.0
 40
0.0
 40
0.0
 40
0.0
 40
0.2331623084
 40
0.476670585
 40
0.7338116789
 40
1.0
 40
1.0
 40
1.0
 40
1.0
 10
-1.0633166974
 20
-23.8443375673
 30
0.0
 10
-1.0634117692
 20
-23.8160323825
 30
0.0
 10
-1.077341627
 20
-23.7574892432
 30
0.0
 10
-1.1342740511
 20
-23.6858281285
 30
0.0
 10
-1.2169420913
 20
-23.6388299314
 30
0.0
 10
-1.280997946
 20
-23.6279126229
 30
0.0
 10
-1.3133124666
 20
-23.6278312164
 30
0.0
 11
-1.0633166974
 21
-23.8443375673
 31
0.0
 11
-1.0825549268
 21
-23.7616295068
 31
0.0
 11
-1.136795493
 21
-23.6914667969
 31
0.0
 11
-1.2178110408
 21
-23.6444922937
 31
0.0
 11
-1.3133124666
 21
-23.6278312164
 31
0.0
  0
SPLINE
  5
56F
100
AcDbEntity
  8
0
100
AcDbSpline
 62
7
  6
CONTINUOUS
 70
0
 71
3
 72
11
 73
7
 74
5
 42
0.0000001
 43
0.0000001
 44
0.0000000001
 12
-0.0031597576
 22
0.3135762468
 32
0.0
 13
-0.3135921661
 23
-0.0
 33
0.0
 40
0.0
 40
0.0
 40
0.0
 40
0.0
 40
0.1745970712
 40
0.3929474236
 40
0.672962312
 40
1.0
 40
1.0
 40
1.0
 40
1.0
 10
-1.0574988676
 20
-23.2669872981
 30
0.0
 10
-1.0576827624
 20
-23.2487374667
 30
0.0
 10
-1.0731162148
 20
-23.2076402818
 30
0.0
 10
-1.1288760508
 20
-23.1616935154
 30
0.0
 10
-1.2102448209
 20
-23.1301817308
 30
0.0
 10
-1.2740363799
 20
-23.1226497308
 30
0.0
 10
-1.3082218655
 20
-23.1226497308
 30
0.0
 11
-1.0574988676
 21
-23.2669872981
 31
0.0
 11
-1.0747787022
 21
-23.2150332915
 31
0.0
 11
-1.1252708948
 21
-23.1687830511
 31
0.0
 11
-1.2064492778
 21
-23.1353054509
 31
0.0
 11
-1.3082218655
 21
-23.1226497308
 31
0.0
  0
SPLINE
  5
570
100
AcDbEntity
  8
0
100
AcDbSpline
 62
7
  6
CONTINUOUS
 70
0
 71
3
 72
11
 73
7
 74
5
 42
0.0000001
 43
0.0000001
 44
0.0000000001
 12
0.0031597576
 22
0.3135762468
 32
0.0
 13
0.3135921661
 23
0.0
 33
0.0
 40
0.0
 40
0.0
 40
0.0
 40
0.0
 40
0.1745970712
 40
0.3929474236
 40
0.672962312
 40
1.0
 40
1.0
 40
1.0
 40
1.0
 10
-3.9429373698
 20
-23.2669872981
 30
0.0
 10
-3.942753475
 20
-23.2487374667
 30
0.0
 10
-3.9273200226
 20
-23.2076402818
 30
0.0
 10
-3.8715601866
 20
-23.1616935154
 30
0.0
 10
-3.7901914165
 20
-23.1301817308
 30
0.0
 10
-3.7263998575
 20
-23.1226497308
 30
0.0
 10
-3.6922143718
 20
-23.1226497308
 30
0.0
 11
-3.9429373698
 21
-23.2669872981
 31
0.0
 11
-3.9256575352
 21
-23.2150332915
 31
0.0
 11
-3.8751653426
 21
-23.1687830511
 31
0.0
 11
-3.7939869596
 21
-23.1353054509
 31
0.0
 11
-3.6922143718
 21
-23.1226497308
 31
0.0
  0
SPLINE
  5
571
100
AcDbEntity
  8
0
100
AcDbSpline
 62
253
  6
CONTINUOUS
 70
0
 71
3
 72
11
 73
7
 74
5
 42
0.0000001
 43
0.0000001
 44
0.0000000001
 12
0.0012232482
 22
0.3641907442
 32
0.0
 13
0.3641916429
 23
0.0009174695
 33
0.0
 40
0.0
 40
0.0
 40
0.0
 40
0.0
 40
0.2331622206
 40
0.4766705204
 40
0.7338116472
 40
1.0
 40
1.0
 40
1.0
 40
1.0
 10
-3.93711954
 20
-23.8443375673
 30
0.0
 10
-3.9370244682
 20
-23.8160323931
 30
0.0
 10
-3.9230946198
 20
-23.7574892617
 30
0.0
 10
-3.8661622049
 20
-23.6858281428
 30
0.0
 10
-3.7834941582
 20
-23.6388299344
 30
0.0
 10
-3.7194382953
 20
-23.6279126229
 30
0.0
 10
-3.6871237708
 20
-23.6278312164
 30
0.0
 11
-3.93711954
 21
-23.8443375673
 31
0.0
 11
-3.9178813257
 21
-23.761629536
 31
0.0
 11
-3.8636407627
 21
-23.6914668129
 31
0.0
 11
-3.7826252077
 21
-23.644492298
 31
0.0
 11
-3.6871237708
 21
-23.6278312164
 31
0.0
  0
SPLINE
  5
572
100
AcDbEntity
  8
0
100
AcDbSpline
 62
253
  6
CONTINUOUS
 70
0
 71
3
 72
11
 73
7
 74
5
 42
0.0000001
 43
0.0000001
 44
0.0000000001
 12
-0.0012232482
 22
0.3641907438
 32
0.0
 13
-0.3641916425
 23
0.0009174695
 33
0.0
 40
0.0
 40
0.0
 40
0.0
 40
0.0
 40
0.2331623084
 40
0.476670585
 40
0.7338116789
 40
1.0
 40
1.0
 40
1.0
 40
1.0
 10
-18.4633166974
 20
-23.8443375673
 30
0.0
 10
-18.4634117692
 20
-23.8160323825
 30
0.0
 10
-18.477341627
 20
-23.7574892432
 30
0.0
 10
-18.5342740511
 20
-23.6858281285
 30
0.0
 10
-18.6169420913
 20
-23.6388299314
 30
0.0
 10
-18.680997946
 20
-23.6279126229
 30
0.0
 10
-18.7133124666
 20
-23.6278312164
 30
0.0
 11
-18.4633166974
 21
-23.8443375673
 31
0.0
 11
-18.4825549268
 21
-23.7616295068
 31
0.0
 11
-18.536795493
 21
-23.6914667969
 31
0.0
 11
-18.6178110408
 21
-23.6444922937
 31
0.0
 11
-18.7133124666
 21
-23.6278312164
 31
0.0
  0
SPLINE
  5
573
100
AcDbEntity
  8
0
100
AcDbSpline
 62
7
  6
CONTINUOUS
 70
0
 71
3
 72
11
 73
7
 74
5
 42
0.0000001
 43
0.0000001
 44
0.0000000001
 12
-0.0031597576
 22
0.3135762468
 32
0.0
 13
-0.3135921661
 23
0.0
 33
0.0
 40
0.0
 40
0.0
 40
0.0
 40
0.0
 40
0.1745970712
 40
0.3929474236
 40
0.672962312
 40
1.0
 40
1.0
 40
1.0
 40
1.0
 10
-18.4574988676
 20
-23.2669872981
 30
0.0
 10
-18.4576827624
 20
-23.2487374667
 30
0.0
 10
-18.4731162148
 20
-23.2076402818
 30
0.0
 10
-18.5288760508
 20
-23.1616935154
 30
0.0
 10
-18.6102448209
 20
-23.1301817308
 30
0.0
 10
-18.6740363799
 20
-23.1226497308
 30
0.0
 10
-18.7082218655
 20
-23.1226497308
 30
0.0
 11
-18.4574988676
 21
-23.2669872981
 31
0.0
 11
-18.4747787022
 21
-23.2150332915
 31
0.0
 11
-18.5252708948
 21
-23.1687830511
 31
0.0
 11
-18.6064492778
 21
-23.1353054509
 31
0.0
 11
-18.7082218655
 21
-23.1226497308
 31
0.0
  0
SPLINE
  5
574
100
AcDbEntity
  8
0
100
AcDbSpline
 62
7
  6
CONTINUOUS
 70
0
 71
3
 72
11
 73
7
 74
5
 42
0.0000001
 43
0.0000001
 44
0.0000000001
 12
-0.3128734253
 22
0.0
 32
0.0
 13
-0.0031525156
 23
-0.3128575425
 33
0.0
 40
0.0
 40
0.0
 40
0.0
 40
0.0
 40
0.327069379
 40
0.6069908884
 40
0.8253215288
 40
1.0
 40
1.0
 40
1.0
 40
1.0
 10
-21.0929416006
 20
-23.1226497308
 30
0.0
 10
-21.1270520395
 20
-23.1226497308
 30
0.0
 10
-21.1906775624
 20
-23.1303374357
 30
0.0
 10
-21.2718122218
 20
-23.1618479167
 30
0.0
 10
-21.3273838401
 20
-23.2077593007
 30
0.0
 10
-21.3427538109
 20
-23.2487708057
 30
0.0
 10
-21.3429373698
 20
-23.2669872981
 30
0.0
 11
-21.0929416006
 21
-23.1226497308
 31
0.0
 11
-21.1944715644
 21
-23.1354311576
 31
0.0
 11
-21.2753940398
 21
-23.1689245842
 31
0.0
 11
-21.3257158323
 21
-23.215119319
 31
0.0
 11
-21.3429373698
 21
-23.2669872981
 31
0.0
  0
SPLINE
  5
575
100
AcDbEntity
  8
0
100
AcDbSpline
 62
253
  6
CONTINUOUS
 70
0
 71
3
 72
11
 73
7
 74
5
 42
0.0000001
 43
0.0000001
 44
0.0000000001
 12
0.0012232482
 22
0.3641907438
 32
0.0
 13
0.3641916425
 23
0.0009174695
 33
0.0
 40
0.0
 40
0.0
 40
0.0
 40
0.0
 40
0.2331623084
 40
0.476670585
 40
0.7338116789
 40
1.0
 40
1.0
 40
1.0
 40
1.0
 10
-21.33711954
 20
-23.8443375673
 30
0.0
 10
-21.3370244682
 20
-23.8160323825
 30
0.0
 10
-21.3230946104
 20
-23.7574892432
 30
0.0
 10
-21.2661621863
 20
-23.6858281285
 30
0.0
 10
-21.1834941461
 20
-23.6388299314
 30
0.0
 10
-21.1194382914
 20
-23.6279126229
 30
0.0
 10
-21.0871237708
 20
-23.6278312164
 30
0.0
 11
-21.33711954
 21
-23.8443375673
 31
0.0
 11
-21.3178813105
 21
-23.7616295068
 31
0.0
 11
-21.2636407444
 21
-23.6914667969
 31
0.0
 11
-21.1826251966
 21
-23.6444922937
 31
0.0
 11
-21.0871237708
 21
-23.6278312164
 31
0.0
  0
SPLINE
  5
576
100
AcDbEntity
  8
RACCORDO
100
AcDbSpline
 62
253
  6
CONTINUOUS
 70
0
 71
3
 72
28
 73
24
 74
22
 42
0.0000001
 43
0.0000001
 44
0.0000000001
 12
0.800478305
 22
0.0005550987
 32
0.0
 13
0.001587214
 23
0.8004769238
 33
0.0
 40
0.0
 40
0.0
 40
0.0
 40
0.0
 40
0.0004515111
 40
0.0013774339
 40
0.0028484414
 40
0.0048785412
 40
0.0106287931
 40
0.0186357237
 40
0.0288896308
 40
0.041374764
 40
0.0560691222
 40
0.0729471691
 40
0.0919780101
 40
0.113127744
 40
0.1616251385
 40
0.2180860183
 40
0.2820981119
 40
0.3531935468
 40
0.430852391
 40
0.5145064948
 40
0.6035437471
 40
0.7951262623
 40
1.0
 40
1.0
 40
1.0
 40
1.0
 10
-21.4961706959
 20
-22.0535587526
 30
0.0
 10
-21.496050221
 20
-22.053558669
 30
0.0
 10
-21.4957800605
 20
-22.0532060117
 30
0.0
 10
-21.4955673169
 20
-22.0525204767
 30
0.0
 10
-21.4952843359
 20
-22.0513498275
 30
0.0
 10
-21.4948903482
 20
-22.0489247514
 30
0.0
 10
-21.4944145156
 20
-22.0447284085
 30
0.0
 10
-21.4938877003
 20
-22.0383474608
 30
0.0
 10
-21.493356621
 20
-22.0301587743
 30
0.0
 10
-21.4928286524
 20
-22.020185014
 30
0.0
 10
-21.4923052513
 20
-22.0084406487
 30
0.0
 10
-21.4917886863
 20
-21.9949482688
 30
0.0
 10
-21.491280163
 20
-21.9797319599
 30
0.0
 10
-21.4905825496
 20
-21.9560806052
 30
0.0
 10
-21.4897568269
 20
-21.9224416257
 30
0.0
 10
-21.4888517827
 20
-21.8773649016
 30
0.0
 10
-21.4880019289
 20
-21.8262564178
 30
0.0
 10
-21.487214081
 20
-21.769490193
 30
0.0
 10
-21.486494838
 20
-21.7074816807
 30
0.0
 10
-21.4858497864
 20
-21.6406847745
 30
0.0
 10
-21.4850766305
 20
-21.5434900104
 30
0.0
 10
-21.4843456213
 20
-21.4139495211
 30
0.0
 10
-21.4840162749
 20
-21.3081650204
 30
0.0
 10
-21.4839078821
 20
-21.253499454
 30
0.0
 11
-21.4961706959
 21
-22.0535587526
 31
0.0
 11
-21.4958910825
 21
-22.0533297454
 31
0.0
 11
-21.495611879
 21
-22.0526431631
 31
0.0
 11
-21.4953332594
 21
-22.0514990912
 31
0.0
 11
-21.4950553715
 21
-22.049897976
 31
0.0
 11
-21.4945022406
 21
-22.0453283784
 31
0.0
 11
-21.4939533865
 21
-22.0389425459
 31
0.0
 11
-21.493409814
 21
-22.0307525324
 31
0.0
 11
-21.4928725683
 21
-22.0207729024
 31
0.0
 11
-21.4923426269
 21
-22.0090223285
 31
0.0
 11
-21.4918209424
 21
-21.9955218906
 31
0.0
 11
-21.4913084707
 21
-21.9802967339
 31
0.0
 11
-21.4908061604
 21
-21.9633742801
 31
0.0
 11
-21.4898356702
 21
-21.9245652912
 31
0.0
 11
-21.4889165711
 21
-21.8793789173
 31
0.0
 11
-21.4880555958
 21
-21.8281458467
 31
0.0
 11
-21.4872590487
 21
-21.7712410545
 31
0.0
 11
-21.4865327631
 21
-21.7090810624
 31
0.0
 11
-21.4858820598
 21
-21.6421209127
 31
0.0
 11
-21.485311702
 21
-21.570850789
 31
0.0
 11
-21.4844281233
 21
-21.4174956505
 31
0.0
 11
-21.4839078821
 21
-21.253499454
 31
0.0
  0
SPLINE
  5
577
100
AcDbEntity
  8
RACCORDO
100
AcDbSpline
 62
253
  6
CONTINUOUS
 70
0
 71
3
 72
9
 73
5
 74
3
 42
0.0000001
 43
0.0000001
 44
0.0000000001
 12
-0.0094359699
 22
-18.9549852915
 32
0.0
 13
0.0094547836
 23
-18.9549852821
 33
0.0
 40
0.0
 40
0.0
 40
0.0
 40
0.0
 40
0.250175458
 40
1.0
 40
1.0
 40
1.0
 40
1.0
 10
22.0577777082
 20
9.3140525645
 30
0.0
 10
22.0569908255
 20
7.7333618553
 30
0.0
 10
22.0546311387
 20
1.4150330586
 30
0.0
 10
22.0554145652
 20
-4.9032969157
 30
0.0
 10
22.0577777082
 20
-9.6409346347
 30
0.0
 11
22.0577777082
 21
9.3140525645
 31
0.0
 11
22.0560068744
 21
4.5719801801
 31
0.0
 11
22.0577777082
 21
-9.6409346347
 31
0.0
  0
SPLINE
  5
578
100
AcDbEntity
  8
RACCORDO
100
AcDbSpline
 62
253
  6
CONTINUOUS
 70
0
 71
3
 72
9
 73
5
 74
3
 42
0.0000001
 43
0.0000001
 44
0.0000000001
 12
-0.0094359699
 22
-18.9739592545
 32
0.0
 13
0.0094547836
 23
-18.9739592452
 33
0.0
 40
0.0
 40
0.0
 40
0.0
 40
0.0
 40
0.250175458
 40
1.0
 40
1.0
 40
1.0
 40
1.0
 10
21.5579490457
 20
9.2980612885
 30
0.0
 10
21.557162163
 20
7.7157883061
 30
0.0
 10
21.5548024762
 20
1.3911348554
 30
0.0
 10
21.5555859027
 20
-4.9335197718
 30
0.0
 10
21.5579490457
 20
-9.6758998719
 30
0.0
 11
21.5579490457
 21
9.2980612885
 31
0.0
 11
21.556178212
 21
4.5512420846
 31
0.0
 11
21.5579490457
 21
-9.6758998719
 31
0.0
  0
SPLINE
  5
579
100
AcDbEntity
  8
RACCORDO
100
AcDbSpline
 62
253
  6
CONTINUOUS
 70
0
 71
3
 72
23
 73
19
 74
17
 42
0.0000001
 43
0.0000001
 44
0.0000000001
 12
-0.3092328707
 22
-0.3937819077
 32
0.0
 13
-0.500688623
 23
0.0002489703
 33
0.0
 40
0.0
 40
0.0
 40
0.0
 40
0.0
 40
0.0029066128
 40
0.0079119826
 40
0.015141071
 40
0.0246169869
 40
0.0363360674
 40
0.0502793876
 40
0.0847233179
 40
0.1276530323
 40
0.1786805173
 40
0.2373374777
 40
0.3030821795
 40
0.375305568
 40
0.4533374445
 40
0.6238795357
 40
0.8083825101
 40
1.0
 40
1.0
 40
1.0
 40
1.0
 10
22.0577777082
 20
9.3140525645
 30
0.0
 10
22.0574781014
 20
9.3136710406
 30
0.0
 10
22.0562340622
 20
9.3130556332
 30
0.0
 10
22.0538535775
 20
9.312311221
 30
0.0
 10
22.0502900808
 20
9.3115511433
 30
0.0
 10
22.0456146845
 20
9.3107852421
 30
0.0
 10
22.0397967978
 20
9.3100216967
 30
0.0
 10
22.0298250031
 20
9.3089347226
 30
0.0
 10
22.0146351365
 20
9.3076614688
 30
0.0
 10
21.9932508051
 20
9.306265064
 30
0.0
 10
21.967813924
 20
9.3049382844
 30
0.0
 10
21.9385616152
 20
9.3036945908
 30
0.0
 10
21.9057653693
 20
9.302548849
 30
0.0
 10
21.8697304993
 20
9.3015125944
 30
0.0
 10
21.8162052274
 20
9.3002540527
 30
0.0
 10
21.7439353123
 20
9.2990571139
 30
0.0
 10
21.6527026686
 20
9.2982130856
 30
0.0
 10
21.5899292781
 20
9.2980453861
 30
0.0
 10
21.5579490457
 20
9.2980612885
 30
0.0
 11
22.0577777082
 21
9.3140525645
 31
0.0
 11
22.0565640754
 21
9.3132494348
 31
0.0
 11
22.0541890255
 21
9.3124495374
 31
0.0
 11
22.0506577782
 21
9.311655033
 31
0.0
 11
22.0459790643
 21
9.3108677821
 31
0.0
 11
22.040163293
 21
9.3100895385
 31
0.0
 11
22.0332243405
 21
9.3093220975
 31
0.0
 11
22.0160435994
 21
9.3078268288
 31
0.0
 11
21.9945968585
 21
9.3063959227
 31
0.0
 11
21.969083837
 21
9.305042696
 31
0.0
 11
21.9397421282
 21
9.3037797536
 31
0.0
 11
21.9068449768
 21
9.3026188554
 31
0.0
 11
21.870698734
 21
9.3015708127
 31
0.0
 11
21.831640018
 21
9.3006453851
 31
0.0
 11
21.7462638308
 21
9.2991956256
 31
0.0
 11
21.6538893965
 21
9.2983234553
 31
0.0
 11
21.5579490457
 21
9.2980612885
 31
0.0
  0
SPLINE
  5
57A
100
AcDbEntity
  8
RACCORDO
100
AcDbSpline
 62
253
  6
CONTINUOUS
 70
0
 71
3
 72
15
 73
11
 74
9
 42
0.0000001
 43
0.0000001
 44
0.0000000001
 12
0.0005379907
 22
0.7829700865
 32
0.0
 13
0.78296862
 23
0.0016080764
 33
0.0
 40
0.0
 40
0.0
 40
0.0
 40
0.0
 40
0.1247749945
 40
0.2496213404
 40
0.3745506153
 40
0.4995608316
 40
0.6246378631
 40
0.7497574495
 40
0.8748887252
 40
1.0
 40
1.0
 40
1.0
 40
1.0
 10
-21.9963418237
 20
21.3795975856
 30
0.0
 10
-21.9963194478
 20
21.412162615
 30
0.0
 10
-21.9898309638
 20
21.4774876966
 30
0.0
 10
-21.9611571467
 20
21.5715708325
 30
0.0
 10
-21.9146444708
 20
21.6583431327
 30
0.0
 10
-21.8520802454
 20
21.7344253195
 30
0.0
 10
-21.7758714381
 20
21.7969119586
 30
0.0
 10
-21.6889306678
 20
21.8434031317
 30
0.0
 10
-21.5946428298
 20
21.8721169328
 30
0.0
 10
-21.5291658953
 20
21.8786741874
 30
0.0
 10
-21.4965131612
 20
21.8787412502
 30
0.0
 11
-21.9963418237
 21
21.3795975856
 31
0.0
 11
-21.9866792868
 21
21.4768136858
 31
0.0
 11
-21.9581962948
 21
21.5703228979
 31
0.0
 11
-21.9119865221
 21
21.6565354771
 31
0.0
 11
-21.8498242581
 21
21.7321410785
 31
0.0
 11
-21.7740962828
 21
21.7942367426
 31
0.0
 11
-21.6877102544
 21
21.8404382466
 31
0.0
 11
-21.5939831778
 21
21.8689716184
 31
0.0
 11
-21.4965131612
 21
21.8787412502
 31
0.0
  0
SPLINE
  5
57B
100
AcDbEntity
  8
RACCORDO
100
AcDbSpline
 62
253
  6
CONTINUOUS
 70
0
 71
3
 72
9
 73
5
 74
3
 42
0.0000001
 43
0.0000001
 44
0.0000000001
 12
0.0094547836
 22
18.9549852825
 32
0.0
 13
-0.0094359699
 23
18.9549852919
 33
0.0
 40
0.0
 40
0.0
 40
0.0
 40
0.0
 40
0.2498020217
 40
1.0
 40
1.0
 40
1.0
 40
1.0
 10
-21.9582139456
 20
-9.6409346347
 30
0.0
 10
-21.9574266709
 20
-8.0626034196
 30
0.0
 10
-21.9550642409
 20
-1.7442746227
 30
0.0
 10
-21.9558543304
 20
4.5740553497
 30
0.0
 10
-21.9582139456
 20
9.3140525645
 30
0.0
 11
-21.9582139456
 21
-9.6409346347
 31
0.0
 11
-21.9564431118
 21
-4.9059407315
 31
0.0
 11
-21.9582139456
 21
9.3140525645
 31
0.0
  0
SPLINE
  5
57C
100
AcDbEntity
  8
RACCORDO
100
AcDbSpline
 62
253
  6
CONTINUOUS
 70
0
 71
3
 72
9
 73
5
 74
3
 42
0.0000001
 43
0.0000001
 44
0.0000000001
 12
0.0094547836
 22
18.9739592456
 32
0.0
 13
-0.0094359699
 23
18.973959255
 33
0.0
 40
0.0
 40
0.0
 40
0.0
 40
0.0
 40
0.2498020217
 40
1.0
 40
1.0
 40
1.0
 40
1.0
 10
-21.4583852831
 20
-9.6758998719
 30
0.0
 10
-21.4575980084
 20
-8.0959887453
 30
0.0
 10
-21.4552355784
 20
-1.7713352944
 30
0.0
 10
-21.4560256679
 20
4.5533193308
 30
0.0
 10
-21.4583852831
 20
9.2980612885
 30
0.0
 11
-21.4583852831
 21
-9.6758998719
 31
0.0
 11
-21.4566144493
 21
-4.9361662347
 31
0.0
 11
-21.4583852831
 21
9.2980612885
 31
0.0
  0
SPLINE
  5
57D
100
AcDbEntity
  8
RACCORDO
100
AcDbSpline
 62
253
  6
CONTINUOUS
 70
0
 71
3
 72
21
 73
17
 74
15
 42
0.0000001
 43
0.0000001
 44
0.0000000001
 12
0.17352802
 22
-0.4726631928
 32
0.0
 13
0.5035100844
 23
-0.0002498751
 33
0.0
 40
0.0
 40
0.0
 40
0.0
 40
0.0
 40
0.0041788489
 40
0.0099955433
 40
0.0177826273
 40
0.0276626112
 40
0.0538404323
 40
0.0885577043
 40
0.1315926685
 40
0.1825966505
 40
0.2411255419
 40
0.3066545649
 40
0.4562639819
 40
0.6259474652
 40
0.8094517479
 40
1.0
 40
1.0
 40
1.0
 40
1.0
 10
-21.9582139456
 20
-9.6409346347
 30
0.0
 10
-21.9579722298
 20
-9.6415930307
 30
0.0
 10
-21.956872958
 20
-9.6429505979
 30
0.0
 10
-21.9543801738
 20
-9.644605369
 30
0.0
 10
-21.9507943399
 20
-9.6462726535
 30
0.0
 10
-21.9438452997
 20
-9.6487094212
 30
0.0
 10
-21.9322864639
 20
-9.6515387325
 30
0.0
 10
-21.915123214
 20
-9.6546615611
 30
0.0
 10
-21.8937190786
 20
-9.6576776521
 30
0.0
 10
-21.8682734015
 20
-9.6605574216
 30
0.0
 10
-21.8390145422
 20
-9.6632623675
 30
0.0
 10
-21.7932144814
 20
-9.6667526391
 30
0.0
 10
-21.7287216413
 20
-9.6703582679
 30
0.0
 10
-21.6443881183
 20
-9.673481966
 30
0.0
 10
-21.5531466581
 20
-9.6754271019
 30
0.0
 10
-21.4903662719
 20
-9.6758840008
 30
0.0
 10
-21.4583852831
 20
-9.6758998719
 30
0.0
 11
-21.9582139456
 21
-9.6409346347
 31
0.0
 11
-21.9570003127
 21
-9.642653443
 31
0.0
 11
-21.9546252629
 21
-9.6443671526
 31
0.0
 11
-21.9510940156
 21
-9.646071136
 31
0.0
 11
-21.9464153017
 21
-9.6477614021
 31
0.0
 11
-21.9336605778
 21
-9.6510856268
 31
0.0
 11
-21.9164798368
 21
-9.6543089749
 31
0.0
 11
-21.8950330959
 21
-9.6574013816
 31
0.0
 11
-21.8695200743
 21
-9.6603340671
 31
0.0
 11
-21.8401783656
 21
-9.6630797148
 31
0.0
 11
-21.8072812142
 21
-9.6656127579
 31
0.0
 11
-21.7320762554
 21
-9.6699488733
 31
0.0
 11
-21.6467000682
 21
-9.6731812691
 31
0.0
 11
-21.5543256339
 21
-9.6751898175
 31
0.0
 11
-21.4583852831
 21
-9.6758998719
 31
0.0
  0
SPLINE
  5
57E
100
AcDbEntity
  8
RACCORDO
100
AcDbSpline
 62
253
  6
CONTINUOUS
 70
0
 71
3
 72
15
 73
11
 74
9
 42
0.0000001
 43
0.0000001
 44
0.0000000001
 12
-0.0005379907
 22
0.7829700865
 32
0.0
 13
-0.78296862
 23
0.0016080764
 33
0.0
 40
0.0
 40
0.0
 40
0.0
 40
0.0
 40
0.1247749944
 40
0.2496213404
 40
0.3745506153
 40
0.4995608315
 40
0.624637863
 40
0.7497574495
 40
0.8748887252
 40
1.0
 40
1.0
 40
1.0
 40
1.0
 10
22.0959055863
 20
21.3795975856
 30
0.0
 10
22.0958832104
 20
21.412162615
 30
0.0
 10
22.0893947264
 20
21.4774876966
 30
0.0
 10
22.0607209093
 20
21.5715708324
 30
0.0
 10
22.0142082334
 20
21.6583431327
 30
0.0
 10
21.951644008
 20
21.7344253195
 30
0.0
 10
21.8754352007
 20
21.7969119586
 30
0.0
 10
21.7884944304
 20
21.8434031317
 30
0.0
 10
21.6942065925
 20
21.8721169328
 30
0.0
 10
21.6287296579
 20
21.8786741874
 30
0.0
 10
21.5960769239
 20
21.8787412502
 30
0.0
 11
22.0959055863
 21
21.3795975856
 31
0.0
 11
22.0862430494
 21
21.4768136858
 31
0.0
 11
22.0577600574
 21
21.5703228978
 31
0.0
 11
22.0115502847
 21
21.6565354771
 31
0.0
 11
21.9493880207
 21
21.7321410785
 31
0.0
 11
21.8736600454
 21
21.7942367426
 31
0.0
 11
21.787274017
 21
21.8404382466
 31
0.0
 11
21.6935469405
 21
21.8689716184
 31
0.0
 11
21.5960769239
 21
21.8787412502
 31
0.0
  0
SPLINE
  5
57F
100
AcDbEntity
  8
RACCORDO
100
AcDbSpline
 62
253
  6
CONTINUOUS
 70
0
 71
3
 72
20
 73
16
 74
14
 42
0.0000001
 43
0.0000001
 44
0.0000000001
 12
-0.1426062436
 22
-0.4274794283
 32
0.0
 13
-0.0017593135
 23
-0.4506352263
 33
0.0
 40
0.0
 40
0.0
 40
0.0
 40
0.0
 40
0.0050089878
 40
0.0120633321
 40
0.0323247398
 40
0.0607042517
 40
0.0970083958
 40
0.1409716924
 40
0.1922660988
 40
0.2505057383
 40
0.3152507991
 40
0.4622506249
 40
0.6288161512
 40
0.8098977542
 40
1.0
 40
1.0
 40
1.0
 40
1.0
 10
22.0959055863
 20
21.3795975856
 30
0.0
 10
22.095667482
 20
21.3788838391
 30
0.0
 10
22.0952444214
 20
21.3771171581
 30
0.0
 10
22.0944095492
 20
21.3723342177
 30
0.0
 10
22.0934646367
 20
21.3640151425
 30
0.0
 10
22.0923950232
 20
21.3513012889
 30
0.0
 10
22.0913477662
 20
21.335013223
 30
0.0
 10
22.0903241284
 20
21.3152774465
 30
0.0
 10
22.089340997
 20
21.2922407831
 30
0.0
 10
22.0884057792
 20
21.2660783987
 30
0.0
 10
22.0871826541
 20
21.2255415143
 30
0.0
 10
22.0858685493
 20
21.1687289469
 30
0.0
 10
22.0846432119
 20
21.0944363124
 30
0.0
 10
22.083755124
 20
21.0136639543
 30
0.0
 10
22.0834117903
 20
20.9579081787
 30
0.0
 10
22.0833003072
 20
20.9293525892
 30
0.0
 11
22.0959055863
 21
21.3795975856
 31
0.0
 11
22.0953353746
 21
21.377413551
 31
0.0
 11
22.0947668013
 21
21.3742858501
 31
0.0
 11
22.0936392821
 21
21.3652251617
 31
0.0
 11
22.0925315744
 21
21.3524843187
 31
0.0
 11
22.0914521088
 21
21.3361599192
 31
0.0
 11
22.0904090838
 21
21.3163758333
 31
0.0
 11
22.0894104302
 21
21.2932821734
 31
0.0
 11
22.088463741
 21
21.2670542199
 31
0.0
 11
22.0875762175
 21
21.2378910943
 31
0.0
 11
22.0860051799
 21
21.1716659217
 31
0.0
 11
22.0847450667
 21
21.0966156341
 31
0.0
 11
22.0838342027
 21
21.0150183469
 31
0.0
 11
22.0833003072
 21
20.9293525892
 31
0.0
  0
SPLINE
  5
580
100
AcDbEntity
  8
RACCORDO
100
AcDbSpline
 62
253
  6
CONTINUOUS
 70
0
 71
3
 72
20
 73
16
 74
14
 42
0.0000001
 43
0.0000001
 44
0.0000000001
 12
-0.1481761662
 22
-0.8884154312
 32
0.0
 13
-0.0017578458
 23
-0.9006858857
 33
0.0
 40
0.0
 40
0.0
 40
0.0
 40
0.0
 40
0.0048914893
 40
0.0118665214
 40
0.0320284867
 40
0.0603517646
 40
0.0966265081
 40
0.1405795773
 40
0.1918782982
 40
0.2501336339
 40
0.3149033611
 40
0.4619722368
 40
0.6286234087
 40
0.8097993904
 40
1.0
 40
1.0
 40
1.0
 40
1.0
 10
21.5960769239
 20
21.8787412502
 30
0.0
 10
21.5958353231
 20
21.8772926921
 30
0.0
 10
21.5954136117
 20
21.8737525326
 30
0.0
 10
21.5945773372
 20
21.8641734182
 30
0.0
 10
21.5936351667
 20
21.8475458601
 30
0.0
 10
21.5925651538
 20
21.8221215989
 30
0.0
 10
21.5915185026
 20
21.7895473873
 30
0.0
 10
21.5904947761
 20
21.7500725622
 30
0.0
 10
21.589511732
 20
21.7039955423
 30
0.0
 10
21.5885765269
 20
21.651666747
 30
0.0
 10
21.5873534297
 20
21.5705857945
 30
0.0
 10
21.5860394567
 20
21.4569593775
 30
0.0
 10
21.5848143046
 20
21.3083819935
 30
0.0
 10
21.5839263808
 20
21.1468526118
 30
0.0
 10
21.5835830925
 20
21.0353549256
 30
0.0
 10
21.5834716447
 20
20.9782512575
 30
0.0
 11
21.5960769239
 21
21.8787412502
 31
0.0
 11
21.5955066655
 21
21.8743726085
 31
0.0
 11
21.5949380066
 21
21.8681160732
 31
0.0
 11
21.5938104024
 21
21.8499914835
 31
0.0
 11
21.5927025654
 21
21.8245051246
 31
0.0
 11
21.5916230208
 21
21.7918507528
 31
0.0
 11
21.5905799296
 21
21.7522765127
 31
0.0
 11
21.5895812422
 21
21.7060831853
 31
0.0
 11
21.5886345458
 21
21.6536218679
 31
0.0
 11
21.5877470424
 21
21.595291329
 31
0.0
 11
21.5861761109
 21
21.4628375316
 31
0.0
 11
21.5849161543
 21
21.3127421756
 31
0.0
 11
21.5840054399
 21
21.1495617566
 31
0.0
 11
21.5834716447
 21
20.9782512575
 31
0.0
  0
SPLINE
  5
581
100
AcDbEntity
  8
RACCORDO
100
AcDbSpline
 62
253
  6
CONTINUOUS
 70
0
 71
3
 72
19
 73
15
 74
13
 42
0.0000001
 43
0.0000001
 44
0.0000000001
 12
-0.1311854895
 22
0.4890015718
 32
0.0
 13
-0.5062887869
 23
0.0019580973
 33
0.0
 40
0.0
 40
0.0
 40
0.0
 40
0.0
 40
0.0115933752
 40
0.0199253141
 40
0.0302147105
 40
0.0569371923
 40
0.0919609001
 40
0.1351359236
 40
0.1861522654
 40
0.309933235
 40
0.4589739673
 40
0.6278754779
 40
0.8104544607
 40
1.0
 40
1.0
 40
1.0
 40
1.0
 10
22.0833003072
 20
20.9293525892
 30
0.0
 10
22.0827933463
 20
20.9312423154
 30
0.0
 10
22.080226148
 20
20.9338651214
 30
0.0
 10
22.0759674919
 20
20.9365554442
 30
0.0
 10
22.0690327603
 20
20.9398902988
 30
0.0
 10
22.0574915238
 20
20.9437547455
 30
0.0
 10
22.040299231
 20
20.948049219
 30
0.0
 10
22.0188851665
 20
20.9522022603
 30
0.0
 10
21.9825338975
 20
20.9578795431
 30
0.0
 10
21.9282061367
 20
20.9640133717
 30
0.0
 10
21.8538836721
 20
20.969892713
 30
0.0
 10
21.769524593
 20
20.9743832226
 30
0.0
 10
21.6782602377
 20
20.9773089673
 30
0.0
 10
21.6154599051
 20
20.9781275412
 30
0.0
 10
21.5834716447
 20
20.9782512574
 30
0.0
 11
22.0833003072
 21
20.9293525892
 31
0.0
 11
22.0797242841
 21
20.9340071278
 31
0.0
 11
22.0761986886
 21
20.9363233887
 31
0.0
 11
22.0715251596
 21
20.9386247893
 31
0.0
 11
22.0587793764
 21
20.9431623564
 31
0.0
 11
22.0416056408
 21
20.9475776992
 31
0.0
 11
22.0201639638
 21
20.9518296208
 31
0.0
 11
21.9946540911
 21
20.9558785353
 31
0.0
 11
21.9324160474
 21
20.9632186859
 31
0.0
 11
21.8572053299
 21
20.9693252659
 31
0.0
 11
21.7718180518
 21
20.9739712512
 31
0.0
 11
21.6794287748
 21
20.9769839161
 31
0.0
 11
21.5834716447
 21
20.9782512574
 31
0.0
  0
SPLINE
  5
582
100
AcDbEntity
  8
RACCORDO
100
AcDbSpline
 62
253
  6
CONTINUOUS
 70
0
 71
3
 72
21
 73
17
 74
15
 42
0.0000001
 43
0.0000001
 44
0.0000000001
 12
-0.1735280236
 22
-0.4726631915
 32
0.0
 13
-0.5035100844
 23
-0.0002498751
 33
0.0
 40
0.0
 40
0.0
 40
0.0
 40
0.0
 40
0.0041788489
 40
0.0099955434
 40
0.0177826273
 40
0.0276626113
 40
0.0538404324
 40
0.0885577045
 40
0.1315926687
 40
0.1825966507
 40
0.2411255421
 40
0.3066545651
 40
0.4562639821
 40
0.6259474654
 40
0.809451748
 40
1.0
 40
1.0
 40
1.0
 40
1.0
 10
22.0577777082
 20
-9.6409346347
 30
0.0
 10
22.0575359924
 20
-9.6415930307
 30
0.0
 10
22.0564367206
 20
-9.6429505979
 30
0.0
 10
22.0539439363
 20
-9.644605369
 30
0.0
 10
22.0503581025
 20
-9.6462726535
 30
0.0
 10
22.0434090622
 20
-9.6487094212
 30
0.0
 10
22.0318502264
 20
-9.6515387325
 30
0.0
 10
22.0146869765
 20
-9.654661561
 30
0.0
 10
21.9932828411
 20
-9.6576776521
 30
0.0
 10
21.967837164
 20
-9.6605574216
 30
0.0
 10
21.9385783047
 20
-9.6632623675
 30
0.0
 10
21.8927782439
 20
-9.6667526391
 30
0.0
 10
21.8282854038
 20
-9.6703582678
 30
0.0
 10
21.7439518808
 20
-9.673481966
 30
0.0
 10
21.6527104207
 20
-9.6754271019
 30
0.0
 10
21.5899300345
 20
-9.6758840008
 30
0.0
 10
21.5579490457
 20
-9.6758998718
 30
0.0
 11
22.0577777082
 21
-9.6409346347
 31
0.0
 11
22.0565640753
 21
-9.642653443
 31
0.0
 11
22.0541890255
 21
-9.6443671526
 31
0.0
 11
22.0506577781
 21
-9.646071136
 31
0.0
 11
22.0459790643
 21
-9.6477614021
 31
0.0
 11
22.0332243404
 21
-9.6510856268
 31
0.0
 11
22.0160435993
 21
-9.6543089749
 31
0.0
 11
21.9945968584
 21
-9.6574013816
 31
0.0
 11
21.9690838369
 21
-9.6603340671
 31
0.0
 11
21.9397421281
 21
-9.6630797148
 31
0.0
 11
21.9068449767
 21
-9.6656127579
 31
0.0
 11
21.8316400179
 21
-9.6699488733
 31
0.0
 11
21.7462638307
 21
-9.6731812691
 31
0.0
 11
21.6538893964
 21
-9.6751898175
 31
0.0
 11
21.5579490457
 21
-9.6758998718
 31
0.0
  0
SPLINE
  5
583
100
AcDbEntity
  8
RACCORDO
100
AcDbSpline
 62
253
  6
CONTINUOUS
 70
0
 71
3
 72
27
 73
23
 74
21
 42
0.0000001
 43
0.0000001
 44
0.0000000001
 12
0.0015909909
 22
-0.4011584068
 32
0.0
 13
0.2837102349
 23
0.2836178788
 33
0.0
 40
0.0
 40
0.0
 40
0.0
 40
0.0
 40
0.2082286745
 40
0.4025684569
 40
0.5771231388
 40
0.7266038448
 40
0.7904953988
 40
0.8464921643
 40
0.894173379
 40
0.9147822325
 40
0.9331845873
 40
0.9493474369
 40
0.9632429182
 40
0.9748488314
 40
0.9841510491
 40
0.9911466873
 40
0.9937861788
 40
0.995863272
 40
0.9973979925
 40
0.9984446188
 40
0.9991768212
 40
1.0
 40
1.0
 40
1.0
 40
1.0
 10
22.0833003072
 20
-21.1542142192
 30
0.0
 10
22.0834107371
 20
-21.1820584469
 30
0.0
 10
22.0837480797
 20
-21.2358892989
 30
0.0
 10
22.084630806
 20
-21.3130578721
 30
0.0
 10
22.0858489768
 20
-21.382365009
 30
0.0
 10
22.0871619276
 20
-21.4342230974
 30
0.0
 10
22.0883941468
 20
-21.4702224408
 30
0.0
 10
22.0893254537
 20
-21.49261078
 30
0.0
 10
22.0901754933
 20
-21.5092091728
 30
0.0
 10
22.0908945336
 20
-21.5207795276
 30
0.0
 10
22.0914165338
 20
-21.5281390447
 30
0.0
 10
22.0919461816
 20
-21.534597762
 30
0.0
 10
22.092482232
 20
-21.5401434132
 30
0.0
 10
22.0930214174
 20
-21.5447667989
 30
0.0
 10
22.0935633578
 20
-21.5484584475
 30
0.0
 10
22.0940421755
 20
-21.5509482687
 30
0.0
 10
22.0944507685
 20
-21.5524600477
 30
0.0
 10
22.094724423
 20
-21.5532528648
 30
0.0
 10
22.0950010257
 20
-21.5538096599
 30
0.0
 10
22.0952732928
 20
-21.5541737003
 30
0.0
 10
22.095640246
 20
-21.5542891112
 30
0.0
 10
22.0958277383
 20
-21.5541504717
 30
0.0
 10
22.0959055863
 20
-21.554072649
 30
0.0
 11
22.0833003072
 21
-21.1542142192
 31
0.0
 11
22.0838342029
 21
-21.2377458532
 31
0.0
 11
22.0847450668
 21
-21.3157021826
 31
0.0
 11
22.08600518
 21
-21.3857154724
 31
0.0
 11
22.0875762174
 21
-21.4456608027
 31
0.0
 11
22.088463741
 21
-21.4712762675
 31
0.0
 11
22.0894104301
 21
-21.4937200604
 31
0.0
 11
22.0904090838
 21
-21.5128218436
 31
0.0
 11
22.0909255381
 21
-21.5210731767
 31
0.0
 11
22.0914521087
 21
-21.5284366904
 31
0.0
 11
22.091987793
 21
-21.534898438
 31
0.0
 11
22.0925315743
 21
-21.5404461844
 31
0.0
 11
22.0930824222
 21
-21.5450693295
 31
0.0
 11
22.093639282
 21
-21.5487592393
 31
0.0
 11
22.094201087
 21
-21.551508812
 31
0.0
 11
22.0944835192
 21
-21.5525293128
 31
0.0
 11
22.0947668012
 21
-21.5533129306
 31
0.0
 11
22.0950508031
 21
-21.5538591847
 31
0.0
 11
22.0953353746
 21
-21.5541679025
 31
0.0
 11
22.0956203558
 21
-21.5542390637
 31
0.0
 11
22.0959055863
 21
-21.554072649
 31
0.0
  0
SPLINE
  5
584
100
AcDbEntity
  8
RACCORDO
100
AcDbSpline
 62
253
  6
CONTINUOUS
 70
0
 71
3
 72
28
 73
24
 74
22
 42
0.0000001
 43
0.0000001
 44
0.0000000001
 12
0.001587214
 22
-0.8004769238
 32
0.0
 13
0.800478305
 23
-0.0005550986
 33
0.0
 40
0.0
 40
0.0
 40
0.0
 40
0.0
 40
0.2048737377
 40
0.3964562529
 40
0.4854935052
 40
0.569147609
 40
0.6468064532
 40
0.7179018881
 40
0.7819139817
 40
0.8383748615
 40
0.886872256
 40
0.9080219899
 40
0.9270528309
 40
0.9439308778
 40
0.958625236
 40
0.9711103692
 40
0.9813642763
 40
0.9893712069
 40
0.9951214588
 40
0.9971515586
 40
0.9986225661
 40
0.9995484889
 40
1.0
 40
1.0
 40
1.0
 40
1.0
 10
21.5834716447
 20
-21.253499454
 30
0.0
 10
21.5835800375
 20
-21.3081650204
 30
0.0
 10
21.5839093839
 20
-21.4139495211
 30
0.0
 10
21.5846403931
 20
-21.5434900104
 30
0.0
 10
21.585413549
 20
-21.6406847745
 30
0.0
 10
21.5860586006
 20
-21.7074816807
 30
0.0
 10
21.5867778436
 20
-21.769490193
 30
0.0
 10
21.5875656915
 20
-21.8262564178
 30
0.0
 10
21.5884155453
 20
-21.8773649016
 30
0.0
 10
21.5893205895
 20
-21.9224416257
 30
0.0
 10
21.5901463122
 20
-21.9560806052
 30
0.0
 10
21.5908439256
 20
-21.9797319599
 30
0.0
 10
21.5913524489
 20
-21.9949482688
 30
0.0
 10
21.591869014
 20
-22.0084406487
 30
0.0
 10
21.592392415
 20
-22.020185014
 30
0.0
 10
21.5929203836
 20
-22.0301587743
 30
0.0
 10
21.593451463
 20
-22.0383474608
 30
0.0
 10
21.5939782782
 20
-22.0447284085
 30
0.0
 10
21.5944541108
 20
-22.0489247514
 30
0.0
 10
21.5948480985
 20
-22.0513498275
 30
0.0
 10
21.5951310795
 20
-22.0525204767
 30
0.0
 10
21.5953438231
 20
-22.0532060117
 30
0.0
 10
21.5956139836
 20
-22.053558669
 30
0.0
 10
21.5957344585
 20
-22.0535587526
 30
0.0
 11
21.5834716447
 21
-21.253499454
 31
0.0
 11
21.5839918859
 21
-21.4174956505
 31
0.0
 11
21.5848754647
 21
-21.570850789
 31
0.0
 11
21.5854458224
 21
-21.6421209127
 31
0.0
 11
21.5860965258
 21
-21.7090810624
 31
0.0
 11
21.5868228113
 21
-21.7712410545
 31
0.0
 11
21.5876193584
 21
-21.8281458467
 31
0.0
 11
21.5884803337
 21
-21.8793789173
 31
0.0
 11
21.5893994328
 21
-21.9245652912
 31
0.0
 11
21.5903699231
 21
-21.9633742801
 31
0.0
 11
21.5908722333
 21
-21.9802967339
 31
0.0
 11
21.591384705
 21
-21.9955218906
 31
0.0
 11
21.5919063895
 21
-22.0090223285
 31
0.0
 11
21.5924363309
 21
-22.0207729024
 31
0.0
 11
21.5929735766
 21
-22.0307525324
 31
0.0
 11
21.5935171491
 21
-22.0389425459
 31
0.0
 11
21.5940660032
 21
-22.0453283784
 31
0.0
 11
21.5946191341
 21
-22.049897976
 31
0.0
 11
21.594897022
 21
-22.0514990912
 31
0.0
 11
21.5951756416
 21
-22.0526431631
 31
0.0
 11
21.5954548451
 21
-22.0533297454
 31
0.0
 11
21.5957344585
 21
-22.0535587526
 31
0.0
  0
SPLINE
  5
585
100
AcDbEntity
  8
RACCORDO
100
AcDbSpline
 62
253
  6
CONTINUOUS
 70
0
 71
3
 72
19
 73
15
 74
13
 42
0.0000001
 43
0.0000001
 44
0.0000000001
 12
-0.0671126261
 22
-0.5184311376
 32
0.0
 13
-0.5227532764
 23
-0.0019902247
 33
0.0
 40
0.0
 40
0.0
 40
0.0
 40
0.0
 40
0.0196615152
 40
0.0437249333
 40
0.0739691996
 40
0.1111330679
 40
0.155416083
 40
0.2067256439
 40
0.2647879653
 40
0.3292023757
 40
0.4750007778
 40
0.6393015625
 40
0.8163910337
 40
1.0
 40
1.0
 40
1.0
 40
1.0
 10
22.0833003072
 20
-21.1542142192
 30
0.0
 10
22.0828604619
 20
-21.157611933
 30
0.0
 10
22.0798775077
 20
-21.1649188068
 30
0.0
 10
22.0710367912
 20
-21.1744942292
 30
0.0
 10
22.0579563363
 20
-21.1837296032
 30
0.0
 10
22.0406142446
 20
-21.1926547346
 30
0.0
 10
22.0191089598
 20
-21.2012449532
 30
0.0
 10
21.9935948033
 20
-21.2094177571
 30
0.0
 10
21.964290135
 20
-21.2170971467
 30
0.0
 10
21.9185884123
 20
-21.226983909
 30
0.0
 10
21.8540966666
 20
-21.237271764
 30
0.0
 10
21.7696514112
 20
-21.2462557911
 30
0.0
 10
21.6783200371
 20
-21.2519420992
 30
0.0
 10
21.6154657076
 20
-21.2533776342
 30
0.0
 10
21.5834716447
 20
-21.2534994419
 30
0.0
 11
22.0833003072
 21
-21.1542142192
 31
0.0
 11
22.0797242804
 21
-21.1638502632
 31
0.0
 11
22.0715251526
 21
-21.1733903702
 31
0.0
 11
22.0587793664
 21
-21.1827452516
 31
0.0
 11
22.0416056283
 21
-21.191828052
 31
0.0
 11
22.0201639493
 21
-21.2005540244
 31
0.0
 11
21.9946540751
 21
-21.2088419291
 31
0.0
 11
21.9653136576
 21
-21.2166145394
 31
0.0
 11
21.9324160303
 21
-21.2237994527
 31
0.0
 11
21.8572053141
 21
-21.2361445462
 31
0.0
 11
21.7718180397
 21
-21.245418257
 31
0.0
 11
21.6794287682
 21
-21.2512758128
 31
0.0
 11
21.5834716447
 21
-21.2534994419
 31
0.0
  0
SPLINE
  5
586
100
AcDbEntity
  8
RACCORDO
100
AcDbSpline
 62
253
  6
CONTINUOUS
 70
0
 71
3
 72
20
 73
16
 74
14
 42
0.0000001
 43
0.0000001
 44
0.0000000001
 12
-0.0017578459
 22
0.9006858857
 32
0.0
 13
-0.1481761657
 23
0.8884154313
 33
0.0
 40
0.0
 40
0.0
 40
0.0
 40
0.0
 40
0.1902006096
 40
0.3713765913
 40
0.5380277632
 40
0.6850966389
 40
0.7498663661
 40
0.8081217018
 40
0.8594204227
 40
0.9033734919
 40
0.9396482354
 40
0.9679715133
 40
0.9881334786
 40
0.9951085107
 40
1.0
 40
1.0
 40
1.0
 40
1.0
 10
-21.4839078821
 20
20.9782512575
 30
0.0
 10
-21.4840193298
 20
21.0353549256
 30
0.0
 10
-21.4843626182
 20
21.1468526118
 30
0.0
 10
-21.4852505419
 20
21.3083819935
 30
0.0
 10
-21.4864756941
 20
21.4569593775
 30
0.0
 10
-21.4877896671
 20
21.5705857945
 30
0.0
 10
-21.4890127643
 20
21.651666747
 30
0.0
 10
-21.4899479694
 20
21.7039955423
 30
0.0
 10
-21.4909310135
 20
21.7500725622
 30
0.0
 10
-21.49195474
 20
21.7895473873
 30
0.0
 10
-21.4930013911
 20
21.8221215989
 30
0.0
 10
-21.4940714041
 20
21.8475458601
 30
0.0
 10
-21.4950135746
 20
21.8641734182
 30
0.0
 10
-21.4958498491
 20
21.8737525326
 30
0.0
 10
-21.4962715605
 20
21.8772926921
 30
0.0
 10
-21.4965131612
 20
21.8787412502
 30
0.0
 11
-21.4839078821
 21
20.9782512575
 31
0.0
 11
-21.4844416773
 21
21.1495617566
 31
0.0
 11
-21.4853523916
 21
21.3127421756
 31
0.0
 11
-21.4866123483
 21
21.4628375316
 31
0.0
 11
-21.4881832798
 21
21.595291329
 31
0.0
 11
-21.4890707832
 21
21.6536218679
 31
0.0
 11
-21.4900174796
 21
21.7060831853
 31
0.0
 11
-21.4910161669
 21
21.7522765127
 31
0.0
 11
-21.4920592582
 21
21.7918507528
 31
0.0
 11
-21.4931388028
 21
21.8245051246
 31
0.0
 11
-21.4942466398
 21
21.8499914835
 31
0.0
 11
-21.495374244
 21
21.8681160732
 31
0.0
 11
-21.4959429029
 21
21.8743726085
 31
0.0
 11
-21.4965131612
 21
21.8787412502
 31
0.0
  0
SPLINE
  5
587
100
AcDbEntity
  8
RACCORDO
100
AcDbSpline
 62
253
  6
CONTINUOUS
 70
0
 71
3
 72
19
 73
15
 74
13
 42
0.0000001
 43
0.0000001
 44
0.0000000001
 12
0.1311857307
 22
0.489001505
 32
0.0
 13
0.5062887849
 23
0.0019580969
 33
0.0
 40
0.0
 40
0.0
 40
0.0
 40
0.0
 40
0.0115933777
 40
0.0199253183
 40
0.0302147165
 40
0.0569372016
 40
0.0919609122
 40
0.135135938
 40
0.1861522816
 40
0.3099332527
 40
0.4589739837
 40
0.6278754905
 40
0.8104544676
 40
1.0
 40
1.0
 40
1.0
 40
1.0
 10
-21.9837365445
 20
20.9293525892
 30
0.0
 10
-21.9832295826
 20
20.9312423156
 30
0.0
 10
-21.9806623832
 20
20.9338651212
 30
0.0
 10
-21.9764037259
 20
20.9365554439
 30
0.0
 10
-21.969468993
 20
20.9398902982
 30
0.0
 10
-21.9579277551
 20
20.9437547448
 30
0.0
 10
-21.9407354608
 20
20.9480492181
 30
0.0
 10
-21.9193213951
 20
20.9522022592
 30
0.0
 10
-21.8829701253
 20
20.9578795415
 30
0.0
 10
-21.8286423643
 20
20.9640133697
 30
0.0
 10
-21.7543199006
 20
20.9698927105
 30
0.0
 10
-21.6699608236
 20
20.9743832197
 30
0.0
 10
-21.5786964714
 20
20.9773089641
 30
0.0
 10
-21.5158961412
 20
20.9781275379
 30
0.0
 10
-21.4839078821
 20
20.9782512541
 30
0.0
 11
-21.9837365445
 21
20.9293525892
 31
0.0
 11
-21.9801605191
 21
20.9340071276
 31
0.0
 11
-21.9766349226
 21
20.9363233884
 31
0.0
 11
-21.9719613927
 21
20.938624789
 31
0.0
 11
-21.9592156077
 21
20.9431623558
 31
0.0
 11
-21.9420418706
 21
20.9475776984
 31
0.0
 11
-21.9206001924
 21
20.9518296198
 31
0.0
 11
-21.8950903188
 21
20.9558785339
 31
0.0
 11
-21.8328522746
 21
20.963218684
 31
0.0
 11
-21.757641558
 21
20.9693252635
 31
0.0
 11
-21.6722542821
 21
20.9739712484
 31
0.0
 11
-21.5798650083
 21
20.976983913
 31
0.0
 11
-21.4839078821
 21
20.9782512541
 31
0.0
  0
SPLINE
  5
588
100
AcDbEntity
  8
RACCORDO
100
AcDbSpline
 62
253
  6
CONTINUOUS
 70
0
 71
3
 72
20
 73
16
 74
14
 42
0.0000001
 43
0.0000001
 44
0.0000000001
 12
-0.0017593135
 22
0.4506352263
 32
0.0
 13
-0.1426062437
 23
0.4274794283
 33
0.0
 40
0.0
 40
0.0
 40
0.0
 40
0.0
 40
0.1901022458
 40
0.3711838488
 40
0.5377493751
 40
0.6847492009
 40
0.7494942617
 40
0.8077339012
 40
0.8590283076
 40
0.9029916042
 40
0.9392957483
 40
0.9676752602
 40
0.9879366679
 40
0.9949910122
 40
1.0
 40
1.0
 40
1.0
 40
1.0
 10
-21.9837365445
 20
20.9293525892
 30
0.0
 10
-21.9838480277
 20
20.9579081787
 30
0.0
 10
-21.9841913614
 20
21.0136639543
 30
0.0
 10
-21.9850794493
 20
21.0944363124
 30
0.0
 10
-21.9863047867
 20
21.1687289469
 30
0.0
 10
-21.9876188915
 20
21.2255415143
 30
0.0
 10
-21.9888420165
 20
21.2660783987
 30
0.0
 10
-21.9897772344
 20
21.2922407831
 30
0.0
 10
-21.9907603658
 20
21.3152774465
 30
0.0
 10
-21.9917840036
 20
21.335013223
 30
0.0
 10
-21.9928312606
 20
21.3513012889
 30
0.0
 10
-21.9939008741
 20
21.3640151425
 30
0.0
 10
-21.9948457866
 20
21.3723342177
 30
0.0
 10
-21.9956806588
 20
21.3771171581
 30
0.0
 10
-21.9961037194
 20
21.3788838391
 30
0.0
 10
-21.9963418237
 20
21.3795975856
 30
0.0
 11
-21.9837365445
 21
20.9293525892
 31
0.0
 11
-21.9842704401
 21
21.0150183469
 31
0.0
 11
-21.9851813041
 21
21.0966156341
 31
0.0
 11
-21.9864414173
 21
21.1716659217
 31
0.0
 11
-21.9880124548
 21
21.2378910943
 31
0.0
 11
-21.9888999784
 21
21.2670542199
 31
0.0
 11
-21.9898466676
 21
21.2932821734
 31
0.0
 11
-21.9908453212
 21
21.3163758333
 31
0.0
 11
-21.9918883462
 21
21.3361599192
 31
0.0
 11
-21.9929678118
 21
21.3524843187
 31
0.0
 11
-21.9940755195
 21
21.3652251617
 31
0.0
 11
-21.9952030386
 21
21.3742858501
 31
0.0
 11
-21.995771612
 21
21.377413551
 31
0.0
 11
-21.9963418237
 21
21.3795975856
 31
0.0
  0
SPLINE
  5
589
100
AcDbEntity
  8
RACCORDO
100
AcDbSpline
 62
253
  6
CONTINUOUS
 70
0
 71
3
 72
23
 73
19
 74
17
 42
0.0000001
 43
0.0000001
 44
0.0000000001
 12
0.3092328776
 22
-0.3937819023
 32
0.0
 13
0.500688623
 23
0.0002489703
 33
0.0
 40
0.0
 40
0.0
 40
0.0
 40
0.0
 40
0.0029066128
 40
0.0079119827
 40
0.0151410711
 40
0.0246169871
 40
0.0363360676
 40
0.0502793878
 40
0.0847233182
 40
0.1276530326
 40
0.1786805176
 40
0.237337478
 40
0.3030821798
 40
0.3753055683
 40
0.4533374448
 40
0.6238795359
 40
0.8083825103
 40
1.0
 40
1.0
 40
1.0
 40
1.0
 10
-21.9582139456
 20
9.3140525645
 30
0.0
 10
-21.9579143388
 20
9.3136710406
 30
0.0
 10
-21.9566702996
 20
9.3130556332
 30
0.0
 10
-21.9542898149
 20
9.312311221
 30
0.0
 10
-21.9507263181
 20
9.3115511433
 30
0.0
 10
-21.9460509218
 20
9.3107852421
 30
0.0
 10
-21.9402330351
 20
9.3100216968
 30
0.0
 10
-21.9302612403
 20
9.3089347226
 30
0.0
 10
-21.9150713738
 20
9.3076614688
 30
0.0
 10
-21.8936870424
 20
9.306265064
 30
0.0
 10
-21.8682501612
 20
9.3049382844
 30
0.0
 10
-21.8389978524
 20
9.3036945908
 30
0.0
 10
-21.8062016065
 20
9.302548849
 30
0.0
 10
-21.7701667366
 20
9.3015125944
 30
0.0
 10
-21.7166414646
 20
9.3002540527
 30
0.0
 10
-21.6443715496
 20
9.2990571139
 30
0.0
 10
-21.5531389059
 20
9.2982130856
 30
0.0
 10
-21.4903655154
 20
9.2980453861
 30
0.0
 10
-21.4583852831
 20
9.2980612885
 30
0.0
 11
-21.9582139456
 21
9.3140525645
 31
0.0
 11
-21.9570003127
 21
9.3132494348
 31
0.0
 11
-21.9546252628
 21
9.3124495374
 31
0.0
 11
-21.9510940155
 21
9.311655033
 31
0.0
 11
-21.9464153016
 21
9.3108677821
 31
0.0
 11
-21.9405995303
 21
9.3100895385
 31
0.0
 11
-21.9336605777
 21
9.3093220975
 31
0.0
 11
-21.9164798367
 21
9.3078268288
 31
0.0
 11
-21.8950330958
 21
9.3063959227
 31
0.0
 11
-21.8695200742
 21
9.305042696
 31
0.0
 11
-21.8401783654
 21
9.3037797536
 31
0.0
 11
-21.807281214
 21
9.3026188555
 31
0.0
 11
-21.7711349712
 21
9.3015708127
 31
0.0
 11
-21.7320762553
 21
9.3006453851
 31
0.0
 11
-21.6467000681
 21
9.2991956256
 31
0.0
 11
-21.5543256338
 21
9.2983234553
 31
0.0
 11
-21.4583852831
 21
9.2980612885
 31
0.0
  0
SPLINE
  5
58A
100
AcDbEntity
  8
RACCORDO
100
AcDbSpline
 62
253
  6
CONTINUOUS
 70
0
 71
3
 72
19
 73
15
 74
13
 42
0.0000001
 43
0.0000001
 44
0.0000000001
 12
0.067112419
 22
-0.5184311729
 32
0.0
 13
0.5227532849
 23
-0.0019902254
 33
0.0
 40
0.0
 40
0.0
 40
0.0
 40
0.0
 40
0.0196615137
 40
0.0437249284
 40
0.0739691905
 40
0.1111330548
 40
0.1554160663
 40
0.2067256243
 40
0.2647879436
 40
0.3292023528
 40
0.4750007557
 40
0.6393015451
 40
0.8163910241
 40
1.0
 40
1.0
 40
1.0
 40
1.0
 10
-21.9837365445
 20
-21.1542142192
 30
0.0
 10
-21.9832967006
 20
-21.157611933
 30
0.0
 10
-21.9803137495
 20
-21.1649188073
 30
0.0
 10
-21.971473036
 20
-21.1744942309
 30
0.0
 10
-21.9583925838
 20
-21.1837296057
 30
0.0
 10
-21.9410504945
 20
-21.1926547379
 30
0.0
 10
-21.9195452117
 20
-21.2012449575
 30
0.0
 10
-21.8940310565
 20
-21.2094177623
 30
0.0
 10
-21.8647263891
 20
-21.2170971529
 30
0.0
 10
-21.8190246663
 20
-21.2269839166
 30
0.0
 10
-21.7545329191
 20
-21.2372717731
 30
0.0
 10
-21.6700876601
 20
-21.2462558017
 30
0.0
 10
-21.5787562807
 20
-21.2519421108
 30
0.0
 10
-21.5159019471
 20
-21.2533776461
 30
0.0
 10
-21.4839078821
 20
-21.2534994539
 30
0.0
 11
-21.9837365445
 21
-21.1542142192
 31
0.0
 11
-21.9801605214
 21
-21.1638502639
 31
0.0
 11
-21.971961397
 21
-21.1733903717
 31
0.0
 11
-21.9592156138
 21
-21.1827452539
 31
0.0
 11
-21.9420418782
 21
-21.1918280552
 31
0.0
 11
-21.9206002012
 21
-21.2005540285
 31
0.0
 11
-21.8950903284
 21
-21.2088419341
 31
0.0
 11
-21.8657499118
 21
-21.2166145455
 31
0.0
 11
-21.8328522848
 21
-21.2237994597
 31
0.0
 11
-21.7576415673
 21
-21.2361445551
 31
0.0
 11
-21.6722542892
 21
-21.2454182675
 31
0.0
 11
-21.5798650121
 21
-21.2512758243
 31
0.0
 11
-21.4839078821
 21
-21.2534994539
 31
0.0
  0
SPLINE
  5
58B
100
AcDbEntity
  8
RACCORDO
100
AcDbSpline
 62
253
  6
CONTINUOUS
 70
0
 71
3
 72
27
 73
23
 74
21
 42
0.0000001
 43
0.0000001
 44
0.0000000001
 12
0.2837102357
 22
-0.283617878
 32
0.0
 13
0.0015909909
 23
0.4011584068
 33
0.0
 40
0.0
 40
0.0
 40
0.0
 40
0.0
 40
0.0008231788
 40
0.0015553812
 40
0.0026020075
 40
0.0041367279
 40
0.0062138212
 40
0.0088533127
 40
0.0158489509
 40
0.0251511686
 40
0.0367570818
 40
0.0506525631
 40
0.0668154127
 40
0.0852177675
 40
0.105826621
 40
0.1535078357
 40
0.2095046012
 40
0.2733961552
 40
0.4228768612
 40
0.5974315431
 40
0.7917713255
 40
1.0
 40
1.0
 40
1.0
 40
1.0
 10
-21.9963418237
 20
-21.554072649
 30
0.0
 10
-21.9962639756
 20
-21.5541504717
 30
0.0
 10
-21.9960764834
 20
-21.5542891112
 30
0.0
 10
-21.9957095302
 20
-21.5541737003
 30
0.0
 10
-21.9954372631
 20
-21.5538096599
 30
0.0
 10
-21.9951606604
 20
-21.5532528648
 30
0.0
 10
-21.9948870059
 20
-21.5524600477
 30
0.0
 10
-21.9944784129
 20
-21.5509482687
 30
0.0
 10
-21.9939995952
 20
-21.5484584475
 30
0.0
 10
-21.9934576548
 20
-21.5447667989
 30
0.0
 10
-21.9929184694
 20
-21.5401434132
 30
0.0
 10
-21.9923824189
 20
-21.534597762
 30
0.0
 10
-21.9918527712
 20
-21.5281390447
 30
0.0
 10
-21.991330771
 20
-21.5207795276
 30
0.0
 10
-21.9906117307
 20
-21.5092091728
 30
0.0
 10
-21.9897616911
 20
-21.49261078
 30
0.0
 10
-21.9888303842
 20
-21.4702224408
 30
0.0
 10
-21.987598165
 20
-21.4342230974
 30
0.0
 10
-21.9862852142
 20
-21.382365009
 30
0.0
 10
-21.9850670434
 20
-21.3130578721
 30
0.0
 10
-21.9841843171
 20
-21.2358892989
 30
0.0
 10
-21.9838469745
 20
-21.1820584469
 30
0.0
 10
-21.9837365445
 20
-21.1542142192
 30
0.0
 11
-21.9963418237
 21
-21.554072649
 31
0.0
 11
-21.9960565931
 21
-21.5542390637
 31
0.0
 11
-21.995771612
 21
-21.5541679025
 31
0.0
 11
-21.9954870404
 21
-21.5538591847
 31
0.0
 11
-21.9952030386
 21
-21.5533129306
 31
0.0
 11
-21.9949197566
 21
-21.5525293128
 31
0.0
 11
-21.9946373244
 21
-21.551508812
 31
0.0
 11
-21.9940755194
 21
-21.5487592393
 31
0.0
 11
-21.9935186596
 21
-21.5450693295
 31
0.0
 11
-21.9929678117
 21
-21.5404461844
 31
0.0
 11
-21.9924240304
 21
-21.534898438
 31
0.0
 11
-21.9918883461
 21
-21.5284366904
 31
0.0
 11
-21.9913617755
 21
-21.5210731767
 31
0.0
 11
-21.9908453212
 21
-21.5128218436
 31
0.0
 11
-21.9898466675
 21
-21.4937200604
 31
0.0
 11
-21.9888999784
 21
-21.4712762675
 31
0.0
 11
-21.9880124548
 21
-21.4456608027
 31
0.0
 11
-21.9864414174
 21
-21.3857154724
 31
0.0
 11
-21.9851813042
 21
-21.3157021826
 31
0.0
 11
-21.9842704403
 21
-21.2377458532
 31
0.0
 11
-21.9837365445
 21
-21.1542142192
 31
0.0
  0
LINE
  5
58C
100
AcDbEntity
  8
0
100
AcDbLine
 62
7
  6
CONTINUOUS
 10
-63.0309577274
 20
-13.164054613
 11
-63.0487069613
 21
-13.0024277314
  0
SPLINE
  5
58D
100
AcDbEntity
  8
RACCORDO
100
AcDbSpline
 62
253
  6
CONTINUOUS
 70
0
 71
3
 72
30
 73
26
 74
24
 42
0.0000001
 43
0.0000001
 44
0.0000000001
 12
-0.4848020192
 22
0.0470162746
 32
0.0
 13
0.046967495
 23
0.4848067474
 33
0.0
 40
0.0
 40
0.0
 40
0.0
 40
0.0
 40
0.1964477914
 40
0.3846034966
 40
0.4733670728
 40
0.5574734418
 40
0.636138923
 40
0.708630766
 40
0.7742736635
 40
0.8324561471
 40
0.8826362611
 40
0.9045764005
 40
0.9243466445
 40
0.941901079
 40
0.957198916
 40
0.9702042725
 40
0.9808874456
 40
0.9853498776
 40
0.9892230319
 40
0.9925047433
 40
0.9951928902
 40
0.9972859158
 40
0.9987833708
 40
0.9996856808
 40
1.0
 40
1.0
 40
1.0
 40
1.0
 10
-63.489087285
 20
20.9293525892
 30
0.0
 10
-63.5208333803
 20
20.9324313369
 30
0.0
 10
-63.5829833418
 20
20.9384818189
 30
0.0
 10
-63.6594712716
 20
20.9459877771
 30
0.0
 10
-63.7178028981
 20
20.9517516659
 30
0.0
 10
-63.758442005
 20
20.955787383
 30
0.0
 10
-63.7964501044
 20
20.9595829102
 30
0.0
 10
-63.8314731017
 20
20.9631028325
 30
0.0
 10
-63.8631847507
 20
20.9663142207
 30
0.0
 10
-63.8912896379
 20
20.9691870556
 30
0.0
 10
-63.9123331705
 20
20.9713637629
 30
0.0
 10
-63.9271711777
 20
20.972918467
 30
0.0
 10
-63.9367399088
 20
20.9739311916
 30
0.0
 10
-63.9452349998
 20
20.9748414449
 30
0.0
 10
-63.9526367366
 20
20.9756469676
 30
0.0
 10
-63.9589276862
 20
20.976345921
 30
0.0
 10
-63.9634690548
 20
20.9768645148
 30
0.0
 10
-63.966535061
 20
20.9772269998
 30
0.0
 10
-63.9684087254
 20
20.9774539644
 30
0.0
 10
-63.9699906707
 20
20.9776547792
 30
0.0
 10
-63.9712986044
 20
20.9778227663
 30
0.0
 10
-63.9722819467
 20
20.9779747137
 30
0.0
 10
-63.9730614382
 20
20.9780681455
 30
0.0
 10
-63.9733902632
 20
20.9781862694
 30
0.0
 10
-63.9736916819
 20
20.9782004627
 30
0.0
 10
-63.9736867609
 20
20.9782512574
 30
0.0
 11
-63.489087285
 21
20.9293525892
 31
0.0
 11
-63.584322077
 21
20.9386247893
 31
0.0
 11
-63.6755299487
 21
20.9475776992
 31
0.0
 11
-63.7185550157
 21
20.9518296208
 31
0.0
 11
-63.7593206734
 21
20.9558785353
 31
0.0
 11
-63.7974470673
 21
20.9596867149
 31
0.0
 11
-63.8325790454
 21
20.9632186859
 31
0.0
 11
-63.8643893138
 21
20.9664415441
 31
0.0
 11
-63.8925815338
 21
20.9693252659
 31
0.0
 11
-63.9168930678
 21
20.9718429867
 31
0.0
 11
-63.9275213571
 21
20.9729571304
 31
0.0
 11
-63.9370974299
 21
20.9739712512
 31
0.0
 11
-63.9455990332
 21
20.9748829923
 31
0.0
 11
-63.9530063943
 21
20.9756902333
 31
0.0
 11
-63.9593021086
 21
20.9763910788
 31
0.0
 11
-63.96447175
 21
20.9769839161
 31
0.0
 11
-63.9666302319
 21
20.9772393716
 31
0.0
 11
-63.9685029307
 21
20.9774673328
 31
0.0
 11
-63.9700887712
 21
20.9776676699
 31
0.0
 11
-63.9713866805
 21
20.9778402529
 31
0.0
 11
-63.9723958198
 21
20.9779849727
 31
0.0
 11
-63.9731157846
 21
20.9781017581
 31
0.0
 11
-63.9735462174
 21
20.9781905421
 31
0.0
 11
-63.9736867609
 21
20.9782512574
 31
0.0
  0
SPLINE
  5
58E
100
AcDbEntity
  8
RACCORDO
100
AcDbSpline
 62
253
  6
CONTINUOUS
 70
0
 71
3
 72
30
 73
26
 74
24
 42
0.0000001
 43
0.0000001
 44
0.0000000001
 12
-0.4772316253
 22
-0.097434313
 32
0.0
 13
0.097386796
 23
-0.4772413242
 33
0.0
 40
0.0
 40
0.0
 40
0.0
 40
0.0
 40
0.1964477997
 40
0.3846035098
 40
0.4733670871
 40
0.5574734563
 40
0.6361389371
 40
0.708630779
 40
0.7742736749
 40
0.8324561566
 40
0.8826362685
 40
0.9045764068
 40
0.9243466498
 40
0.9419010833
 40
0.9571989194
 40
0.9702042751
 40
0.9808874474
 40
0.9853498791
 40
0.9892230331
 40
0.9925047442
 40
0.9951928909
 40
0.9972859162
 40
0.998783371
 40
0.9996856809
 40
1.0
 40
1.0
 40
1.0
 40
1.0
 10
-61.2835810043
 20
-21.1542142192
 30
0.0
 10
-61.3148313719
 20
-21.1605944713
 30
0.0
 10
-61.3760084163
 20
-21.173108247
 30
0.0
 10
-61.4512927439
 20
-21.1885682512
 30
0.0
 10
-61.5087023273
 20
-21.2003978788
 30
0.0
 10
-61.5486969567
 20
-21.2086594303
 30
0.0
 10
-61.5861000983
 20
-21.2164070924
 30
0.0
 10
-61.6205632992
 20
-21.2235686314
 30
0.0
 10
-61.6517655424
 20
-21.2300771962
 30
0.0
 10
-61.6794161708
 20
-21.2358720532
 30
0.0
 10
-61.7001168935
 20
-21.2402364837
 30
0.0
 10
-61.7147111032
 20
-21.2433336646
 30
0.0
 10
-61.7241215557
 20
-21.2453410457
 30
0.0
 10
-61.7324749608
 20
-21.2471342911
 30
0.0
 10
-61.7397519487
 20
-21.2487090929
 30
0.0
 10
-61.7459353742
 20
-21.2500618004
 30
0.0
 10
-61.7503976559
 20
-21.2510522554
 30
0.0
 10
-61.7534089757
 20
-21.2517332395
 30
0.0
 10
-61.7552486514
 20
-21.2521548119
 30
0.0
 10
-61.7568009393
 20
-21.2525198849
 30
0.0
 10
-61.7580841484
 20
-21.252823668
 30
0.0
 10
-61.7590462207
 20
-21.2530775701
 30
0.0
 10
-61.7598116757
 20
-21.2532519692
 30
0.0
 10
-61.7601263518
 20
-21.2534038174
 30
0.0
 10
-61.7604246357
 20
-21.2534494399
 30
0.0
 10
-61.7604144322
 20
-21.2534994419
 30
0.0
 11
-61.2835810043
 21
-21.1542142192
 31
0.0
 11
-61.3773248737
 21
-21.1733903702
 31
0.0
 11
-61.4670972565
 21
-21.191828052
 31
0.0
 11
-61.5094421761
 21
-21.2005540244
 31
0.0
 11
-61.5495612837
 21
-21.2088419291
 31
0.0
 11
-61.5870807492
 21
-21.2166145394
 31
0.0
 11
-61.6216510744
 21
-21.2237994527
 31
0.0
 11
-61.6529501977
 21
-21.2303297332
 31
0.0
 11
-61.6806865425
 21
-21.2361445462
 31
0.0
 11
-61.704601718
 21
-21.2411897212
 31
0.0
 11
-61.7150553229
 21
-21.2434087199
 31
0.0
 11
-61.7244729308
 21
-21.245418257
 31
0.0
 11
-61.732832657
 21
-21.2472136628
 31
0.0
 11
-61.7401150588
 21
-21.2487907614
 31
0.0
 11
-61.7463030251
 21
-21.2501458486
 31
0.0
 11
-61.7513823773
 21
-21.2512758128
 31
0.0
 11
-61.753502332
 21
-21.2517554916
 31
0.0
 11
-61.7553409431
 21
-21.2521779542
 31
0.0
 11
-61.756897155
 21
-21.2525429592
 31
0.0
 11
-61.7581699141
 21
-21.2528502652
 31
0.0
 11
-61.7591583977
 21
-21.253099676
 31
0.0
 11
-61.7598622108
 21
-21.2532910784
 31
0.0
 11
-61.7602810052
 21
-21.2534243684
 31
0.0
 11
-61.7604144322
 21
-21.2534994419
 31
0.0
  0
SPLINE
  5
58F
100
AcDbEntity
  8
RACCORDO
100
AcDbSpline
 62
253
  6
CONTINUOUS
 70
0
 71
3
 72
24
 73
20
 74
18
 42
0.0000001
 43
0.0000001
 44
0.0000000001
 12
0.0131075782
 22
-0.5002154516
 32
0.0
 13
0.5002156865
 23
0.0130986087
 33
0.0
 40
0.0
 40
0.0
 40
0.0
 40
0.0
 40
0.1948433968
 40
0.3821836297
 40
0.4707756611
 40
0.5548350483
 40
0.633553812
 40
0.7061758309
 40
0.7720039161
 40
0.8304068309
 40
0.8808257275
 40
0.9227803527
 40
0.9558756334
 40
0.969003376
 40
0.9798126845
 40
0.9882847285
 40
0.9944169884
 40
0.9982418606
 40
1.0
 40
1.0
 40
1.0
 40
1.0
 10
-60.7805885063
 20
-21.554072649
 30
0.0
 10
-60.7797371979
 20
-21.5865605416
 30
0.0
 10
-60.7779061493
 20
-21.6502811462
 30
0.0
 10
-60.7752396947
 20
-21.7287596633
 30
0.0
 10
-60.7729288331
 20
-21.7887603358
 30
0.0
 10
-60.7711776635
 20
-21.8306513032
 30
0.0
 10
-60.7693934151
 20
-21.8698745897
 30
0.0
 10
-60.7675936643
 20
-21.9060527947
 30
0.0
 10
-60.7657965462
 20
-21.9388380574
 30
0.0
 10
-60.7640204465
 20
-21.9679147374
 30
0.0
 10
-60.7622849551
 20
-21.993004658
 30
0.0
 10
-60.76060954
 20
-22.0138638982
 30
0.0
 10
-60.7591950083
 20
-22.0285086023
 30
0.0
 10
-60.7580708816
 20
-22.0379492808
 30
0.0
 10
-60.7573101557
 20
-22.0433143913
 30
0.0
 10
-60.7566132659
 20
-22.0474629263
 30
0.0
 10
-60.7558840127
 20
-22.0505326247
 30
0.0
 10
-60.7553621276
 20
-22.0522612395
 30
0.0
 10
-60.7547226449
 20
-22.0532239901
 30
0.0
 10
-60.7544294952
 20
-22.0532163137
 30
0.0
 11
-60.7805885063
 21
-21.554072649
 31
0.0
 11
-60.7777834884
 21
-21.6515294234
 31
0.0
 11
-60.7745843273
 21
-21.745217465
 31
0.0
 11
-60.772874858
 21
-21.7895148071
 31
0.0
 11
-60.7711138423
 21
-21.8315401646
 31
0.0
 11
-60.7693182275
 21
-21.8708890744
 31
0.0
 11
-60.7675052902
 21
-21.9071829486
 31
0.0
 11
-60.7656924749
 21
-21.9400725553
 31
0.0
 11
-60.7638972248
 21
-21.9692414301
 31
0.0
 11
-60.7621368133
 21
-21.994408905
 31
0.0
 11
-60.7604281817
 21
-22.0153328137
 31
0.0
 11
-60.7587877637
 21
-22.0318118199
 31
0.0
 11
-60.7579980976
 21
-22.0383331374
 31
0.0
 11
-60.757231362
 21
-22.0436873561
 31
0.0
 11
-60.7564893977
 21
-22.0478612236
 31
0.0
 11
-60.7557739123
 21
-22.0508451469
 31
0.0
 11
-60.7550866502
 21
-22.0526314136
 31
0.0
 11
-60.7544294952
 21
-22.0532163137
 31
0.0
  0
SPLINE
  5
590
100
AcDbEntity
  8
RACCORDO
100
AcDbSpline
 62
253
  6
CONTINUOUS
 70
0
 71
3
 72
24
 73
20
 74
18
 42
0.0000001
 43
0.0000001
 44
0.0000000001
 12
-0.0392509793
 22
0.498845334
 32
0.0
 13
0.4988446301
 23
0.0392599238
 33
0.0
 40
0.0
 40
0.0
 40
0.0
 40
0.0
 40
0.1948433968
 40
0.3821836296
 40
0.4707756611
 40
0.5548350483
 40
0.633553812
 40
0.7061758308
 40
0.772003916
 40
0.8304068308
 40
0.8808257274
 40
0.9227803526
 40
0.9558756333
 40
0.9690033759
 40
0.9798126844
 40
0.9882847285
 40
0.9944169884
 40
0.9982418605
 40
1.0
 40
1.0
 40
1.0
 40
1.0
 10
-63.0306468197
 20
21.3795975856
 30
0.0
 10
-63.0331960844
 20
21.411996492
 30
0.0
 10
-63.0380356834
 20
21.4755594252
 30
0.0
 10
-63.0435870747
 20
21.5538867491
 30
0.0
 10
-63.0475606504
 20
21.6138002825
 30
0.0
 10
-63.0501978723
 20
21.6556448139
 30
0.0
 10
-63.0525233481
 20
21.6948397359
 30
0.0
 10
-63.0545151087
 20
21.7310078781
 30
0.0
 10
-63.0561548286
 20
21.7638013896
 30
0.0
 10
-63.0574277991
 20
21.7929044375
 30
0.0
 10
-63.0583244258
 20
21.8180383212
 30
0.0
 10
-63.0588385731
 20
21.8389584208
 30
0.0
 10
-63.0589625787
 20
21.8536707585
 30
0.0
 10
-63.0588314298
 20
21.8631772232
 30
0.0
 10
-63.0586356779
 20
21.8685924607
 30
0.0
 10
-63.0583762458
 20
21.8727911143
 30
0.0
 10
-63.0579718584
 20
21.8759202244
 30
0.0
 10
-63.0576335216
 20
21.8776939215
 30
0.0
 10
-63.0570981769
 20
21.8787182421
 30
0.0
 10
-63.0568058307
 20
21.8787412502
 30
0.0
 11
-63.0306468197
 21
21.3795975856
 31
0.0
 11
-63.0380441749
 21
21.4768136858
 31
0.0
 11
-63.0446556062
 21
21.5703228978
 31
0.0
 11
-63.0475858347
 21
21.6145562627
 31
0.0
 11
-63.0502273121
 21
21.6565354771
 31
0.0
 11
-63.0525546149
 21
21.6958565224
 31
0.0
 11
-63.054545352
 21
21.7321410785
 31
0.0
 11
-63.0561803675
 21
21.7650400033
 31
0.0
 11
-63.0574439297
 21
21.7942367426
 31
0.0
 11
-63.0583238794
 21
21.8194503606
 31
0.0
 11
-63.0588117518
 21
21.8404382466
 31
0.0
 11
-63.0589028454
 21
21.8569984495
 31
0.0
 11
-63.0587991684
 21
21.863566585
 31
0.0
 11
-63.0585963013
 21
21.8689716184
 31
0.0
 11
-63.0582946895
 21
21.8732001775
 31
0.0
 11
-63.0578950285
 21
21.8762425431
 31
0.0
 11
-63.0573982471
 21
21.8780908629
 31
0.0
 11
-63.0568058307
 21
21.8787412502
 31
0.0
  0
SPLINE
  5
591
100
AcDbEntity
  8
0
100
AcDbSpline
 62
7
  6
CONTINUOUS
 70
0
 71
3
 72
13
 73
9
 74
7
 42
0.0000001
 43
0.0000001
 44
0.0000000001
 12
-0.3376445664
 22
-0.0295400719
 32
0.0
 13
-0.0066511394
 23
-0.3388690476
 33
0.0
 40
0.0
 40
0.0
 40
0.0
 40
0.0
 40
0.0296649913
 40
0.0846329943
 40
0.1689159847
 40
0.2825985798
 40
0.592841892
 40
1.0
 40
1.0
 40
1.0
 40
1.0
 10
-58.8911583031
 20
20.1999770068
 30
0.0
 10
-58.8944970442
 20
20.1996849049
 30
0.0
 10
-58.9017536093
 20
20.1912906785
 30
0.0
 10
-58.9076362862
 20
20.1737658054
 30
0.0
 10
-58.9142213226
 20
20.1455984805
 30
0.0
 10
-58.9222306672
 20
20.0888749049
 30
0.0
 10
-58.9293428479
 20
19.9950658675
 30
0.0
 10
-58.9320204036
 20
19.9140891704
 30
0.0
 10
-58.9329230921
 20
19.8680980769
 30
0.0
 11
-58.8911583031
 21
20.1999770068
 31
0.0
 11
-58.8990546714
 21
20.1937528599
 31
0.0
 11
-58.9064246041
 21
20.1766420094
 31
0.0
 11
-58.913087226
 21
20.1488634469
 31
0.0
 11
-58.9189133151
 21
20.1107755297
 31
0.0
 11
-58.9278660714
 21
20.0060052422
 31
0.0
 11
-58.9329230921
 21
19.8680980769
 31
0.0
  0
SPLINE
  5
592
100
AcDbEntity
  8
0
100
AcDbSpline
 62
7
  6
CONTINUOUS
 70
0
 71
3
 72
9
 73
5
 74
3
 42
0.0000001
 43
0.0000001
 44
0.0000000001
 12
-0.0026549132
 22
-0.3981813581
 32
0.0
 13
0.0172373742
 23
-0.3978169371
 33
0.0
 40
0.0
 40
0.0
 40
0.0
 40
0.0
 40
0.2347236099
 40
1.0
 40
1.0
 40
1.0
 40
1.0
 10
-58.9338275302
 20
19.798086525
 30
0.0
 10
-58.9340352538
 20
19.7669323365
 30
0.0
 10
-58.9338824343
 20
19.6341991963
 30
0.0
 10
-58.9302193543
 20
19.5014799698
 30
0.0
 10
-58.9258222358
 20
19.4
 30
0.0
 11
-58.9338275302
 21
19.798086525
 31
0.0
 11
-58.9337701147
 21
19.7046218994
 31
0.0
 11
-58.9258222358
 21
19.4
 31
0.0
  0
SPLINE
  5
593
100
AcDbEntity
  8
RACCORDO
100
AcDbSpline
 62
7
  6
CONTINUOUS
 70
0
 71
3
 72
12
 73
8
 74
6
 42
0.0000001
 43
0.0000001
 44
0.0000000001
 12
-0.0421419552
 22
0.4330908947
 32
0.0
 13
0.0237472046
 23
0.4344879029
 33
0.0
 40
0.0
 40
0.0
 40
0.0
 40
0.0
 40
0.0834998223
 40
0.1827609192
 40
0.421663499
 40
0.7004788188
 40
1.0
 40
1.0
 40
1.0
 40
1.0
 10
-30.257051966
 20
-18.3528232768
 30
0.0
 10
-30.2582249146
 20
-18.3407689392
 30
0.0
 10
-30.2602286225
 20
-18.3143295556
 30
0.0
 10
-30.2629891783
 20
-18.2532248754
 30
0.0
 10
-30.2634998965
 20
-18.1637034382
 30
0.0
 10
-30.2601016806
 20
-18.0452029643
 30
0.0
 10
-30.2558316944
 20
-17.9614226217
 30
0.0
 10
-30.2534607642
 20
-17.9180431784
 30
0.0
 11
-30.257051966
 21
-18.3528232768
 31
0.0
 11
-30.2598873276
 21
-18.3166002663
 31
0.0
 11
-30.2619083397
 21
-18.2734554608
 31
0.0
 11
-30.2629171962
 21
-18.169505153
 31
0.0
 11
-30.2597542784
 21
-18.0482237007
 31
0.0
 11
-30.2534607642
 21
-17.9180431784
 31
0.0
  0
SPLINE
  5
594
100
AcDbEntity
  8
RACCORDO
100
AcDbSpline
 62
7
  6
CONTINUOUS
 70
0
 71
3
 72
10
 73
6
 74
4
 42
0.0000001
 43
0.0000001
 44
0.0000000001
 12
-0.0053072058
 22
0.0000305676
 32
0.0
 13
-0.0021337258
 23
0.0048594838
 33
0.0
 40
0.0
 40
0.0
 40
0.0
 40
0.0
 40
0.1280238161
 40
0.3294285918
 40
1.0
 40
1.0
 40
1.0
 40
1.0
 10
-30.2422816099
 20
-18.4180655999
 30
0.0
 10
-30.2425080929
 20
-18.4180642954
 30
0.0
 10
-30.2430576784
 20
-18.4177529313
 30
0.0
 10
-30.2441695536
 20
-18.4163866195
 30
0.0
 10
-30.2448486675
 20
-18.4149715947
 30
0.0
 10
-30.245325606
 20
-18.4138853845
 30
0.0
 11
-30.2422816099
 21
-18.4180655999
 31
0.0
 11
-30.2429075731
 21
-18.417801335
 31
0.0
 11
-30.2436324054
 21
-18.4170157167
 31
0.0
 11
-30.245325606
 21
-18.4138853845
 31
0.0
  0
SPLINE
  5
595
100
AcDbEntity
  8
RACCORDO
100
AcDbSpline
 62
7
  6
CONTINUOUS
 70
0
 71
3
 72
11
 73
7
 74
5
 42
0.0000001
 43
0.0000001
 44
0.0000000001
 12
-0.025063682
 22
0.0570816349
 32
0.0
 13
-0.0060375899
 23
0.0620487608
 33
0.0
 40
0.0
 40
0.0
 40
0.0
 40
0.0
 40
0.1452275115
 40
0.3615950207
 40
0.6473026005
 40
1.0
 40
1.0
 40
1.0
 40
1.0
 10
-30.245325606
 20
-18.4138853845
 30
0.0
 10
-30.246538918
 20
-18.4111221099
 30
0.0
 10
-30.2488200274
 20
-18.4039331687
 30
0.0
 10
-30.251867923
 20
-18.3908310343
 30
0.0
 10
-30.2547999203
 20
-18.3732986359
 30
0.0
 10
-30.2563421519
 20
-18.360118089
 30
0.0
 10
-30.257051966
 20
-18.3528232768
 30
0.0
 11
-30.245325606
 21
-18.4138853845
 31
0.0
 11
-30.2482779273
 21
-18.4053265228
 31
0.0
 11
-30.2514222204
 21
-18.3922093744
 31
0.0
 11
-30.2544404313
 21
-18.3746554314
 31
0.0
 11
-30.257051966
 21
-18.3528232768
 31
0.0
  0
SPLINE
  5
596
100
AcDbEntity
  8
RACCORDO
100
AcDbSpline
 62
7
  6
CONTINUOUS
 70
0
 71
3
 72
11
 73
7
 74
5
 42
0.0000001
 43
0.0000001
 44
0.0000000001
 12
0.0
 22
0.2814994839
 32
0.0
 13
0.0
 23
0.2814994839
 33
0.0
 40
0.0
 40
0.0
 40
0.0
 40
0.0
 40
0.2645242056
 40
0.5231697973
 40
0.7701786385
 40
1.0
 40
1.0
 40
1.0
 40
1.0
 10
-30.244786976
 20
4.9000105113
 30
0.0
 10
-30.244786976
 20
4.9248316537
 30
0.0
 10
-30.2444611607
 20
4.9739227767
 30
0.0
 10
-30.2431812528
 20
5.0461806432
 30
0.0
 10
-30.2416645423
 20
5.1151750237
 30
0.0
 10
-30.2410263959
 20
5.1599160325
 30
0.0
 10
-30.2410263959
 20
5.1814808974
 30
0.0
 11
-30.244786976
 21
4.9000105113
 31
0.0
 11
-30.2443185271
 21
4.9744724651
 31
0.0
 11
-30.243108944
 21
5.0472710175
 31
0.0
 11
-30.2417217264
 21
5.1167900395
 31
0.0
 11
-30.2410263959
 21
5.1814808974
 31
0.0
  0
SPLINE
  5
597
100
AcDbEntity
  8
RACCORDO
100
AcDbSpline
 62
7
  6
CONTINUOUS
 70
0
 71
3
 72
9
 73
5
 74
3
 42
0.0000001
 43
0.0000001
 44
0.0000000001
 12
0.0217440549
 22
0.3978375124
 32
0.0
 13
0.0000001214
 23
0.3984312867
 33
0.0
 40
0.0
 40
0.0
 40
0.0
 40
0.0
 40
0.4999918492
 40
1.0
 40
1.0
 40
1.0
 40
1.0
 10
-30.2534607642
 20
-17.9180431784
 30
0.0
 10
-30.2498368141
 20
-17.8517380073
 30
0.0
 10
-30.24573793
 20
-17.7189565104
 30
0.0
 10
-30.2447869973
 20
-17.5861465455
 30
0.0
 10
-30.2447869771
 20
-17.5197402485
 30
0.0
 11
-30.2534607642
 21
-17.9180431784
 31
0.0
 11
-30.246524959
 21
-17.7189515582
 31
0.0
 11
-30.2447869771
 21
-17.5197402485
 31
0.0
  0
SPLINE
  5
598
100
AcDbEntity
  8
RACCORDO
100
AcDbSpline
 62
253
  6
CONTINUOUS
 70
0
 71
3
 72
18
 73
14
 74
12
 42
0.0000001
 43
0.0000001
 44
0.0000000001
 12
-0.000000163
 22
0.3027038578
 32
0.0
 13
-0.3026519164
 23
0.0056074098
 33
0.0
 40
0.0
 40
0.0
 40
0.0
 40
0.0
 40
0.0249806858
 40
0.0526301874
 40
0.0848808186
 40
0.1228491314
 40
0.1670606684
 40
0.2176708721
 40
0.3375340674
 40
0.4801225013
 40
0.6414722386
 40
0.8166281639
 40
1.0
 40
1.0
 40
1.0
 40
1.0
 10
-28.2410263959
 20
2.1102092801
 30
0.0
 10
-28.2410263973
 20
2.1127298634
 30
0.0
 10
-28.2420290916
 20
2.1180737408
 30
0.0
 10
-28.2462758176
 20
2.1256349857
 30
0.0
 10
-28.2530571812
 20
2.1329043827
 30
0.0
 10
-28.2622850749
 20
2.1399089886
 30
0.0
 10
-28.2738991647
 20
2.1466409053
 30
0.0
 10
-28.2935975721
 20
2.1557092655
 30
0.0
 10
-28.3236749382
 20
2.1656431384
 30
0.0
 10
-28.3653897657
 20
2.1752123652
 30
0.0
 10
-28.4131963635
 20
2.1826244511
 30
0.0
 10
-28.4654397199
 20
2.1876068514
 30
0.0
 10
-28.5016006006
 20
2.1891624313
 30
0.0
 10
-28.5200998798
 20
2.1895051783
 30
0.0
 11
-28.2410263959
 21
2.1102092801
 31
0.0
 11
-28.2423455744
 21
2.1176550729
 31
0.0
 11
-28.2462914145
 21
2.1250361793
 31
0.0
 11
-28.2528291386
 21
2.1322861745
 31
0.0
 11
-28.2619012475
 21
2.1393423383
 31
0.0
 11
-28.2734280185
 21
2.1461422143
 31
0.0
 11
-28.2873081737
 21
2.1526260979
 31
0.0
 11
-28.3216205487
 21
2.1644210442
 31
0.0
 11
-28.3636337463
 21
2.1743132347
 31
0.0
 11
-28.4118733475
 21
2.1819553885
 31
0.0
 11
-28.4646455533
 21
2.1870792918
 31
0.0
 11
-28.5200998798
 21
2.1895051783
 31
0.0
  0
SPLINE
  5
599
100
AcDbEntity
  8
RACCORDO
100
AcDbSpline
 62
253
  6
CONTINUOUS
 70
0
 71
3
 72
18
 73
14
 74
12
 42
0.0000001
 43
0.0000001
 44
0.0000000001
 12
-0.0000000725
 22
-0.3027035216
 32
0.0
 13
-0.3026515773
 23
-0.0056075596
 33
0.0
 40
0.0
 40
0.0
 40
0.0
 40
0.0
 40
0.024980646
 40
0.0526301121
 40
0.084880714
 40
0.1228490039
 40
0.1670605234
 40
0.2176707148
 40
0.3375338997
 40
0.4801223422
 40
0.6414721086
 40
0.8166280861
 40
1.0
 40
1.0
 40
1.0
 40
1.0
 10
-28.2410263959
 20
0.6897909286
 30
0.0
 10
-28.2410263965
 20
0.6872703521
 30
0.0
 10
-28.2420290886
 20
0.681926488
 30
0.0
 10
-28.2462758082
 20
0.6743652626
 30
0.0
 10
-28.2530571621
 20
0.6670958839
 30
0.0
 10
-28.2622850434
 20
0.6600912947
 30
0.0
 10
-28.2738991183
 20
0.6533593928
 30
0.0
 10
-28.2935975028
 20
0.6442910502
 30
0.0
 10
-28.3236748353
 20
0.6343571932
 30
0.0
 10
-28.3653896188
 20
0.6247879754
 30
0.0
 10
-28.413196171
 20
0.6173758882
 30
0.0
 10
-28.4654394838
 20
0.6123934758
 30
0.0
 10
-28.5016003367
 20
0.6108378811
 30
0.0
 10
-28.520099603
 20
0.6104951248
 30
0.0
 11
-28.2410263959
 21
0.6897909286
 31
0.0
 11
-28.2423455707
 21
0.6823451559
 31
0.0
 11
-28.2462914041
 21
0.6749640687
 31
0.0
 11
-28.2528291188
 21
0.6677140915
 31
0.0
 11
-28.2619012155
 21
0.6606579442
 31
0.0
 11
-28.2734279719
 21
0.6538580831
 31
0.0
 11
-28.2873081103
 21
0.6473742124
 31
0.0
 11
-28.3216204459
 21
0.6355792853
 31
0.0
 11
-28.3636335992
 21
0.6256871044
 31
0.0
 11
-28.4118731542
 21
0.6180449496
 31
0.0
 11
-28.4646453156
 21
0.6129210343
 31
0.0
 11
-28.520099603
 21
0.6104951248
 31
0.0
  0
SPLINE
  5
59A
100
AcDbEntity
  8
RACCORDO
100
AcDbSpline
 62
253
  6
CONTINUOUS
 70
0
 71
3
 72
17
 73
13
 74
11
 42
0.0000001
 43
0.0000001
 44
0.0000000001
 12
1.3315881686
 22
-0.0164352532
 32
0.0
 13
0.0
 23
-1.3316895916
 33
0.0
 40
0.0
 40
0.0
 40
0.0
 40
0.0
 40
0.1451003611
 40
0.2872780534
 40
0.4241406651
 40
0.5538550599
 40
0.6754346233
 40
0.7890262798
 40
0.843342795
 40
0.8963401077
 40
0.9484091071
 40
1.0
 40
1.0
 40
1.0
 40
1.0
 10
-31.2235739895
 20
18.9337384193
 30
0.0
 10
-31.1591693481
 20
18.9329434989
 30
0.0
 10
-31.0315847304
 20
18.9226683072
 30
0.0
 10
-30.847238253
 20
18.8815008764
 30
0.0
 10
-30.6772214069
 20
18.8160848642
 30
0.0
 10
-30.5277665327
 20
18.7286431849
 30
0.0
 10
-30.4043928449
 20
18.6221733803
 30
0.0
 10
-30.3260700711
 20
18.5187643441
 30
0.0
 10
-30.2819785955
 20
18.430924808
 30
0.0
 10
-30.2584340756
 20
18.3639886792
 30
0.0
 10
-30.2442053503
 20
18.2957163182
 30
0.0
 10
-30.2410263959
 20
18.2496403523
 30
0.0
 10
-30.2410263959
 20
18.2267393339
 30
0.0
 11
-31.2235739895
 21
18.9337384193
 31
0.0
 11
-31.0309815157
 21
18.9180716839
 31
0.0
 11
-30.8462825726
 21
18.8764227858
 31
0.0
 11
-30.6764194841
 21
18.8103569274
 31
0.0
 11
-30.5277760299
 21
18.72235697
 31
0.0
 11
-30.405938437
 21
18.6157303727
 31
0.0
 11
-30.3154859537
 21
18.4944843163
 31
0.0
 11
-30.28314134
 21
18.4297861637
 31
0.0
 11
-30.259817929
 21
18.363175459
 31
0.0
 11
-30.245735384
 21
18.2952808193
 31
0.0
 11
-30.2410263959
 21
18.2267393339
 31
0.0
  0
SPLINE
  5
59B
100
AcDbEntity
  8
RACCORDO
100
AcDbSpline
 62
253
  6
CONTINUOUS
 70
0
 71
3
 72
10
 73
6
 74
4
 42
0.0000001
 43
0.0000001
 44
0.0000000001
 12
0.005111011
 22
1.4139923795
 32
0.0
 13
-0.0072276043
 23
1.4139831447
 33
0.0
 40
0.0
 40
0.0
 40
0.0
 40
0.0
 40
0.5411889456
 40
0.7856878719
 40
1.0
 40
1.0
 40
1.0
 40
1.0
 10
-31.2235739895
 20
17.5197402485
 30
0.0
 10
-31.2226519819
 20
17.7748192635
 30
0.0
 10
-31.2218998298
 20
18.1451409133
 30
0.0
 10
-31.2223394314
 20
18.6164748034
 30
0.0
 10
-31.2230576684
 20
18.8327271737
 30
0.0
 10
-31.2235739895
 20
18.9337384193
 30
0.0
 11
-31.2235739895
 21
17.5197402485
 31
0.0
 11
-31.2221365409
 21
18.2849809424
 31
0.0
 11
-31.2224993889
 21
18.6307026291
 31
0.0
 11
-31.2235739895
 21
18.9337384193
 31
0.0
  0
SPLINE
  5
59C
100
AcDbEntity
  8
RACCORDO
100
AcDbSpline
 62
253
  6
CONTINUOUS
 70
0
 71
3
 72
15
 73
11
 74
9
 42
0.0000001
 43
0.0000001
 44
0.0000000001
 12
0.7512932322
 22
0.6269637915
 32
0.0
 13
0.0000019191
 23
0.9785321234
 33
0.0
 40
0.0
 40
0.0
 40
0.0
 40
0.0
 40
0.1485149971
 40
0.2915895225
 40
0.4287749119
 40
0.5593899438
 40
0.6825919115
 40
0.7974832517
 40
0.9033293127
 40
1.0
 40
1.0
 40
1.0
 40
1.0
 10
-30.7130009537
 20
14.2815835719
 30
0.0
 10
-30.675808183
 20
14.3126214138
 30
0.0
 10
-30.6066188255
 20
14.3782432508
 30
0.0
 10
-30.515115621
 20
14.4842342031
 30
0.0
 10
-30.4363173818
 20
14.5928241353
 30
0.0
 10
-30.3697439564
 20
14.701762259
 30
0.0
 10
-30.3155836403
 20
14.8093042998
 30
0.0
 10
-30.2746114088
 20
14.9139607631
 30
0.0
 10
-30.2481058174
 20
15.014301699
 30
0.0
 10
-30.2410264578
 20
15.080405971
 30
0.0
 10
-30.2410263959
 20
15.111937762
 30
0.0
 11
-30.7130009537
 21
14.2815835719
 31
0.0
 11
-30.6071340393
 21
14.3811428248
 31
0.0
 11
-30.5154383137
 21
14.486938568
 31
0.0
 11
-30.4365695045
 21
14.595567164
 31
0.0
 11
-30.3700526919
 21
14.7047054548
 31
0.0
 11
-30.3161329715
 21
14.812532511
 31
0.0
 11
-30.2756639397
 21
14.9174210623
 31
0.0
 11
-30.2500254094
 21
15.0177714074
 31
0.0
 11
-30.2410263959
 21
15.111937762
 31
0.0
  0
SPLINE
  5
59D
100
AcDbEntity
  8
RACCORDO
100
AcDbSpline
 62
253
  6
CONTINUOUS
 70
0
 71
3
 72
10
 73
6
 74
4
 42
0.0000001
 43
0.0000001
 44
0.0000000001
 12
0.5052523948
 22
0.459916323
 32
0.0
 13
0.5245658022
 23
0.4377598952
 33
0.0
 40
0.0
 40
0.0
 40
0.0
 40
0.0
 40
0.511927956
 40
0.7607523703
 40
1.0
 40
1.0
 40
1.0
 40
1.0
 10
-31.2235739895
 20
13.8276488991
 30
0.0
 10
-31.1373563809
 20
13.9061302402
 30
0.0
 10
-31.0093641067
 20
14.0229084834
 30
0.0
 10
-30.8391234467
 20
14.1741917182
 30
0.0
 10
-30.754834662
 20
14.2466725661
 30
0.0
 10
-30.7130009537
 20
14.2815835719
 30
0.0
 11
-31.2235739895
 21
13.8276488991
 31
0.0
 11
-30.9644107156
 21
14.0625309329
 31
0.0
 11
-30.8371814398
 21
14.175288021
 31
0.0
 11
-30.7130009537
 21
14.2815835719
 31
0.0
  0
SPLINE
  5
59E
100
AcDbEntity
  8
RACCORDO
100
AcDbSpline
 62
253
  6
CONTINUOUS
 70
0
 71
3
 72
10
 73
6
 74
4
 42
0.0000001
 43
0.0000001
 44
0.0000000001
 12
-0.5245661435
 22
0.4377596894
 32
0.0
 13
-0.5052519753
 23
0.4599169774
 33
0.0
 40
0.0
 40
0.0
 40
0.0
 40
0.0
 40
0.2392476093
 40
0.4880720289
 40
1.0
 40
1.0
 40
1.0
 40
1.0
 10
-30.7130008809
 20
9.9184162912
 30
0.0
 10
-30.7548346128
 20
9.9533272775
 30
0.0
 10
-30.8391234929
 20
10.0258080419
 30
0.0
 10
-31.0093641783
 20
10.1770913151
 30
0.0
 10
-31.13735645
 20
10.293869617
 30
0.0
 10
-31.2235739895
 20
10.3723510721
 30
0.0
 11
-30.7130008809
 21
9.9184162912
 31
0.0
 11
-30.8371814591
 21
10.0247117608
 31
0.0
 11
-30.9644107762
 21
10.1374688568
 31
0.0
 11
-31.2235739895
 21
10.3723510721
 31
0.0
  0
SPLINE
  5
59F
100
AcDbEntity
  8
RACCORDO
100
AcDbSpline
 62
253
  6
CONTINUOUS
 70
0
 71
3
 72
15
 73
11
 74
9
 42
0.0000001
 43
0.0000001
 44
0.0000000001
 12
-0.0000019174
 22
0.9785319752
 32
0.0
 13
-0.7512930672
 23
0.6269637578
 33
0.0
 40
0.0
 40
0.0
 40
0.0
 40
0.0
 40
0.0966706902
 40
0.2025167538
 40
0.3174080955
 40
0.4406100649
 40
0.5712250976
 40
0.7084104885
 40
0.8514850161
 40
1.0
 40
1.0
 40
1.0
 40
1.0
 10
-30.2410263959
 20
9.0880622396
 30
0.0
 10
-30.2410264577
 20
9.1195940267
 30
0.0
 10
-30.2481058161
 20
9.1856982904
 30
0.0
 10
-30.2746114017
 20
9.286039214
 30
0.0
 10
-30.3155836246
 20
9.3906956644
 30
0.0
 10
-30.3697439297
 20
9.4982376916
 30
0.0
 10
-30.4363173399
 20
9.607175804
 30
0.0
 10
-30.5151155679
 20
9.715765719
 30
0.0
 10
-30.6066187256
 20
9.8217566839
 30
0.0
 10
-30.6758081216
 20
9.8873784537
 30
0.0
 10
-30.7130008809
 20
9.9184162912
 30
0.0
 11
-30.2410263959
 21
9.0880622396
 31
0.0
 11
-30.2500254077
 21
9.1822285828
 31
0.0
 11
-30.2756639326
 21
9.2825789157
 31
0.0
 11
-30.3161329558
 21
9.3874674537
 31
0.0
 11
-30.3700526651
 21
9.4952944968
 31
0.0
 11
-30.4365694635
 21
9.6044327744
 31
0.0
 11
-30.5154382556
 21
9.7130613595
 31
0.0
 11
-30.6071339606
 21
9.8188570954
 31
0.0
 11
-30.7130008809
 21
9.9184162912
 31
0.0
  0
SPLINE
  5
5A0
100
AcDbEntity
  8
RACCORDO
100
AcDbSpline
 62
253
  6
CONTINUOUS
 70
0
 71
3
 72
14
 73
10
 74
8
 42
0.0000001
 43
0.0000001
 44
0.0000000001
 12
1.1356691409
 22
0.0140171041
 32
0.0
 13
0.4190911163
 23
1.0556057565
 33
0.0
 40
0.0
 40
0.0
 40
0.0
 40
0.0
 40
0.2782828672
 40
0.4130678207
 40
0.5428567818
 40
0.6666322686
 40
0.7838811555
 40
0.8947215928
 40
1.0
 40
1.0
 40
1.0
 40
1.0
 10
-31.2235739895
 20
-18.9337384193
 30
0.0
 10
-31.1182282346
 20
-18.9324381793
 30
0.0
 10
-30.9611934621
 20
-18.913064434
 30
0.0
 10
-30.7646107287
 20
-18.8518487327
 30
0.0
 10
-30.6304791673
 20
-18.7905426948
 30
0.0
 10
-30.5116561475
 20
-18.714876906
 30
0.0
 10
-30.4110989407
 20
-18.6266004137
 30
0.0
 10
-30.3314653005
 20
-18.5278462229
 30
0.0
 10
-30.2929526308
 20
-18.4549026244
 30
0.0
 10
-30.278245549
 20
-18.4178584602
 30
0.0
 11
-31.2235739895
 21
-18.9337384193
 31
0.0
 11
-30.9100225315
 21
-18.8939860419
 31
0.0
 11
-30.7639508269
 21
-18.8481887498
 31
0.0
 11
-30.6300596937
 21
-18.7865247933
 31
0.0
 11
-30.5117675836
 21
-18.7105685581
 31
0.0
 11
-30.4120946915
 21
-18.6222593247
 31
0.0
 11
-30.3335858211
 21
-18.5238517123
 31
0.0
 11
-30.278245549
 21
-18.4178584602
 31
0.0
  0
SPLINE
  5
5A1
100
AcDbEntity
  8
RACCORDO
100
AcDbSpline
 62
253
  6
CONTINUOUS
 70
0
 71
3
 72
10
 73
6
 74
4
 42
0.0000001
 43
0.0000001
 44
0.0000000001
 12
0.0072276043
 22
1.4139831447
 32
0.0
 13
-0.005111011
 23
1.4139923795
 33
0.0
 40
0.0
 40
0.0
 40
0.0
 40
0.0
 40
0.2143121281
 40
0.4588110544
 40
1.0
 40
1.0
 40
1.0
 40
1.0
 10
-31.2235739895
 20
-18.9337384193
 30
0.0
 10
-31.2230576684
 20
-18.8327271737
 30
0.0
 10
-31.2223394314
 20
-18.6164748034
 30
0.0
 10
-31.2218998298
 20
-18.1451409133
 30
0.0
 10
-31.2226519819
 20
-17.7748192635
 30
0.0
 10
-31.2235739895
 20
-17.5197402485
 30
0.0
 11
-31.2235739895
 21
-18.9337384193
 31
0.0
 11
-31.2224993889
 21
-18.6307026291
 31
0.0
 11
-31.2221365409
 21
-18.2849809424
 31
0.0
 11
-31.2235739895
 21
-17.5197402485
 31
0.0
  0
SPLINE
  5
5A2
100
AcDbEntity
  8
RACCORDO
100
AcDbSpline
 62
253
  6
CONTINUOUS
 70
0
 71
3
 72
10
 73
6
 74
4
 42
0.0000001
 43
0.0000001
 44
0.0000000001
 12
-0.6543964751
 22
0.2470663995
 32
0.0
 13
-0.645451449
 23
0.2695718444
 33
0.0
 40
0.0
 40
0.0
 40
0.0
 40
0.0
 40
0.243021548
 40
0.4922246384
 40
1.0
 40
1.0
 40
1.0
 40
1.0
 10
-30.5755234202
 20
10.1091698881
 30
0.0
 10
-30.628534235
 20
10.129184041
 30
0.0
 10
-30.7354450574
 20
10.1709377474
 30
0.0
 10
-30.951507889
 20
10.2585852358
 30
0.0
 10
-31.1143258752
 20
10.3267237585
 30
0.0
 10
-31.2235739895
 20
10.3723510721
 30
0.0
 11
-30.5755234202
 21
10.1091698881
 31
0.0
 11
-30.7339660781
 21
10.1707518611
 31
0.0
 11
-30.8955601661
 21
10.2361161585
 31
0.0
 11
-31.2235739895
 21
10.3723510721
 31
0.0
  0
SPLINE
  5
5A3
100
AcDbEntity
  8
RACCORDO
100
AcDbSpline
 62
253
  6
CONTINUOUS
 70
0
 71
3
 72
10
 73
6
 74
4
 42
0.0000001
 43
0.0000001
 44
0.0000000001
 12
0.6454518669
 22
0.2695718415
 32
0.0
 13
0.6543967843
 23
0.2470666688
 33
0.0
 40
0.0
 40
0.0
 40
0.0
 40
0.0
 40
0.5077753705
 40
0.7569784633
 40
1.0
 40
1.0
 40
1.0
 40
1.0
 10
-31.2235739895
 20
13.8276488991
 30
0.0
 10
-31.1143258026
 20
13.8732762131
 30
0.0
 10
-30.9515076451
 20
13.9414145842
 30
0.0
 10
-30.7354446896
 20
14.0290621053
 30
0.0
 10
-30.6285338479
 20
14.0708159303
 30
0.0
 10
-30.5755230106
 20
14.0908301041
 30
0.0
 11
-31.2235739895
 21
13.8276488991
 31
0.0
 11
-30.8955598969
 21
13.9638836897
 31
0.0
 11
-30.7339657167
 21
14.0292480194
 31
0.0
 11
-30.5755230106
 21
14.0908301041
 31
0.0
  0
SPLINE
  5
5A4
100
AcDbEntity
  8
RACCORDO
100
AcDbSpline
 62
7
  6
CONTINUOUS
 70
0
 71
3
 72
13
 73
9
 74
7
 42
0.0000001
 43
0.0000001
 44
0.0000000001
 12
0.0
 22
0.6099407709
 32
0.0
 13
0.3297015352
 23
0.5131516751
 33
0.0
 40
0.0
 40
0.0
 40
0.0
 40
0.0
 40
0.2499601801
 40
0.4999309491
 40
0.6249639379
 40
0.7499917801
 40
0.8750089382
 40
1.0
 40
1.0
 40
1.0
 40
1.0
 10
-30.2410263959
 20
-0.3325008953
 30
0.0
 10
-30.2410263959
 20
-0.2816805936
 30
0.0
 10
-30.2342927527
 20
-0.1799624303
 30
0.0
 10
-30.2113124313
 20
-0.0547089101
 30
0.0
 10
-30.1843287411
 20
0.0433622819
 30
0.0
 10
-30.159463551
 20
0.115519804
 30
0.0
 10
-30.1293620364
 20
0.1856495613
 30
0.0
 10
-30.1049184829
 20
0.2303796911
 30
0.0
 10
-30.0911819012
 20
0.251759482
 30
0.0
 11
-30.2410263959
 21
-0.3325008953
 31
0.0
 11
-30.2313807348
 21
-0.1803454197
 31
0.0
 11
-30.2038535328
 21
-0.0303835908
 31
0.0
 11
-30.1835576556
 21
0.0431288534
 31
0.0
 11
-30.1585895109
 21
0.1151851859
 31
0.0
 11
-30.1282654266
 21
0.1851493149
 31
0.0
 11
-30.0911819012
 21
0.251759482
 31
0.0
  0
SPLINE
  5
5A5
100
AcDbEntity
  8
RACCORDO
100
AcDbSpline
 62
7
  6
CONTINUOUS
 70
0
 71
3
 72
9
 73
5
 74
3
 42
0.0000001
 43
0.0000001
 44
0.0000000001
 12
0.1377744925
 22
0.2144350717
 32
0.0
 13
0.1536956912
 23
0.2033269419
 33
0.0
 40
0.0
 40
0.0
 40
0.0
 40
0.0
 40
0.2500137779
 40
1.0
 40
1.0
 40
1.0
 40
1.0
 10
-30.0911819012
 20
0.251759482
 30
0.0
 10
-30.0797000607
 20
0.2696300561
 30
0.0
 10
-30.0324024431
 20
0.3402329782
 30
0.0
 10
-29.9811729632
 20
0.4080717696
 30
0.0
 10
-29.9427497463
 20
0.4589025713
 30
0.0
 11
-30.0911819012
 21
0.251759482
 31
0.0
 11
-30.0558041801
 21
0.3047606855
 31
0.0
 11
-29.9427497463
 21
0.4589025713
 31
0.0
  0
SPLINE
  5
5A6
100
AcDbEntity
  8
RACCORDO
100
AcDbSpline
 62
253
  6
CONTINUOUS
 70
0
 71
3
 72
9
 73
5
 74
3
 42
0.0000001
 43
0.0000001
 44
0.0000000001
 12
0.127329301
 22
0.0270920139
 32
0.0
 13
0.1301365146
 23
0.0033489828
 33
0.0
 40
0.0
 40
0.0
 40
0.0
 40
0.0
 40
0.4851258453
 40
1.0
 40
1.0
 40
1.0
 40
1.0
 10
-30.0911819012
 20
0.251759482
 30
0.0
 10
-30.0705916563
 20
0.256140494
 30
0.0
 10
-30.0276404013
 20
0.262847328
 30
0.0
 10
-29.9842878527
 20
0.2657404992
 30
0.0
 10
-29.9619532101
 20
0.2663152674
 30
0.0
 11
-30.0911819012
 21
0.251759482
 31
0.0
 11
-30.0288236852
 21
0.2617502766
 31
0.0
 11
-29.9619532101
 21
0.2663152674
 31
0.0
  0
SPLINE
  5
5A7
100
AcDbEntity
  8
RACCORDO
100
AcDbSpline
 62
7
  6
CONTINUOUS
 70
0
 71
3
 72
9
 73
5
 74
3
 42
0.0000001
 43
0.0000001
 44
0.0000000001
 12
0.1377737221
 22
-0.2144355539
 32
0.0
 13
0.1536935739
 23
-0.2033285288
 33
0.0
 40
0.0
 40
0.0
 40
0.0
 40
0.0
 40
0.2500137658
 40
1.0
 40
1.0
 40
1.0
 40
1.0
 10
-30.0911819453
 20
2.5482405866
 30
0.0
 10
-30.0797001696
 20
2.5303699731
 30
0.0
 10
-30.0324025804
 20
2.4597670258
 30
0.0
 10
-29.9811726382
 20
2.3919285959
 30
0.0
 10
-29.9427499499
 20
2.3410973967
 30
0.0
 11
-30.0911819453
 21
2.5482405866
 31
0.0
 11
-30.0558042737
 21
2.495239357
 31
0.0
 11
-29.9427499499
 21
2.3410973967
 31
0.0
  0
SPLINE
  5
5A8
100
AcDbEntity
  8
RACCORDO
100
AcDbSpline
 62
7
  6
CONTINUOUS
 70
0
 71
3
 72
13
 73
9
 74
7
 42
0.0000001
 43
0.0000001
 44
0.0000000001
 12
-0.3297014107
 22
0.5131516577
 32
0.0
 13
0.0
 23
0.6099406889
 33
0.0
 40
0.0
 40
0.0
 40
0.0
 40
0.0
 40
0.1249911044
 40
0.2500082728
 40
0.3750361346
 40
0.5000691349
 40
0.7500399003
 40
1.0
 40
1.0
 40
1.0
 40
1.0
 10
-30.0911819453
 20
2.5482405866
 30
0.0
 10
-30.1049185264
 20
2.5696203841
 30
0.0
 10
-30.1293620788
 20
2.6143505188
 30
0.0
 10
-30.1594635857
 20
2.6844802845
 30
0.0
 10
-30.1843287645
 20
2.7566378085
 30
0.0
 10
-30.2113124468
 20
2.8547089942
 30
0.0
 10
-30.2342927523
 20
2.9799624847
 30
0.0
 10
-30.2410263959
 20
3.0816806168
 30
0.0
 10
-30.2410263959
 20
3.1325008953
 30
0.0
 11
-30.0911819453
 21
2.5482405866
 31
0.0
 11
-30.128265471
 21
2.6148507715
 31
0.0
 11
-30.1585895447
 21
2.6848149007
 31
0.0
 11
-30.1835576806
 21
2.7568712382
 31
0.0
 11
-30.2038535512
 21
2.8303836808
 31
0.0
 11
-30.2313807398
 21
2.980345489
 31
0.0
 11
-30.2410263959
 21
3.1325008953
 31
0.0
  0
SPLINE
  5
5A9
100
AcDbEntity
  8
RACCORDO
100
AcDbSpline
 62
253
  6
CONTINUOUS
 70
0
 71
3
 72
9
 73
5
 74
3
 42
0.0000001
 43
0.0000001
 44
0.0000000001
 12
-0.1301362761
 22
0.0033490298
 32
0.0
 13
-0.1273290719
 23
0.0270919511
 33
0.0
 40
0.0
 40
0.0
 40
0.0
 40
0.0
 40
0.5148741637
 40
1.0
 40
1.0
 40
1.0
 40
1.0
 10
-29.9619534912
 20
2.5336848069
 30
0.0
 10
-29.9842880933
 20
2.5342595832
 30
0.0
 10
-30.0276405617
 20
2.5371527613
 30
0.0
 10
-30.0705917378
 20
2.5438595848
 30
0.0
 10
-30.0911819453
 20
2.5482405866
 30
0.0
 11
-29.9619534912
 21
2.5336848069
 31
0.0
 11
-30.0288238444
 21
2.5382498084
 31
0.0
 11
-30.0911819453
 21
2.5482405866
 31
0.0
  0
SPLINE
  5
5AA
100
AcDbEntity
  8
RACCORDO
100
AcDbSpline
 62
253
  6
CONTINUOUS
 70
0
 71
3
 72
10
 73
6
 74
4
 42
0.0000001
 43
0.0000001
 44
0.0000000001
 12
1.4107806089
 22
0.2495248374
 32
0.0
 13
1.3918418695
 23
0.339618582
 33
0.0
 40
0.0
 40
0.0
 40
0.0
 40
0.0
 40
0.4999980108
 40
0.75000015
 40
1.0
 40
1.0
 40
1.0
 40
1.0
 10
-29.9427497463
 20
0.4589025713
 30
0.0
 10
-29.7076205802
 20
0.5004898787
 30
0.0
 10
-29.3554722963
 20
0.5661473343
 30
0.0
 10
-28.8880282113
 20
0.6639971989
 30
0.0
 10
-28.6552852824
 20
0.7174715395
 30
0.0
 10
-28.5392985295
 20
0.7457730711
 30
0.0
 11
-29.9427497463
 21
0.4589025713
 31
0.0
 11
-29.2387871133
 21
0.591468295
 31
0.0
 11
-28.8882721543
 21
0.6651347367
 31
0.0
 11
-28.5392985295
 21
0.7457730711
 31
0.0
  0
SPLINE
  5
5AB
100
AcDbEntity
  8
RACCORDO
100
AcDbSpline
 62
253
  6
CONTINUOUS
 70
0
 71
3
 72
10
 73
6
 74
4
 42
0.0000001
 43
0.0000001
 44
0.0000000001
 12
-1.3918425576
 22
0.3396164087
 32
0.0
 13
-1.4107798113
 23
0.2495302274
 33
0.0
 40
0.0
 40
0.0
 40
0.0
 40
0.0
 40
0.2499998964
 40
0.5000020479
 40
1.0
 40
1.0
 40
1.0
 40
1.0
 10
-28.5392985295
 20
2.0542271239
 30
0.0
 10
-28.6552853613
 20
2.0825284796
 30
0.0
 10
-28.8880284219
 20
2.1360024481
 30
0.0
 10
-29.3554722994
 20
2.2338535956
 30
0.0
 10
-29.7076209444
 20
2.2995091958
 30
0.0
 10
-29.9427499499
 20
2.3410973967
 30
0.0
 11
-28.5392985295
 21
2.0542271239
 31
0.0
 11
-28.8882723288
 21
2.1348651686
 31
0.0
 11
-29.2387872613
 21
2.2085320084
 31
0.0
 11
-29.9427499499
 21
2.3410973967
 31
0.0
  0
SPLINE
  5
5AC
100
AcDbEntity
  8
RACCORDO
100
AcDbSpline
 62
253
  6
CONTINUOUS
 70
0
 71
3
 72
11
 73
7
 74
5
 42
0.0000001
 43
0.0000001
 44
0.0000000001
 12
-0.1746022027
 22
0.1595250782
 32
0.0
 13
-0.0993607052
 23
0.2146197335
 33
0.0
 40
0.0
 40
0.0
 40
0.0
 40
0.0
 40
0.2391183378
 40
0.4907959159
 40
0.747156124
 40
1.0
 40
1.0
 40
1.0
 40
1.0
 10
-30.5755203003
 20
14.0908307246
 30
0.0
 10
-30.5894371631
 20
14.1035458484
 30
0.0
 10
-30.616458869
 20
14.1313631986
 30
0.0
 10
-30.6531269364
 20
14.1775678517
 30
0.0
 10
-30.6859086678
 20
14.2279004342
 30
0.0
 10
-30.7046266246
 20
14.2634951434
 30
0.0
 10
-30.7130008732
 20
14.2815835719
 30
0.0
 11
-30.5755203003
 21
14.0908307246
 31
0.0
 11
-30.6150707208
 21
14.1312528132
 31
0.0
 11
-30.6521499305
 21
14.177815597
 31
0.0
 11
-30.6852438746
 21
14.2286173319
 31
0.0
 11
-30.7130008732
 21
14.2815835719
 31
0.0
  0
SPLINE
  5
5AD
100
AcDbEntity
  8
RACCORDO
100
AcDbSpline
 62
253
  6
CONTINUOUS
 70
0
 71
3
 72
15
 73
11
 74
9
 42
0.0000001
 43
0.0000001
 44
0.0000000001
 12
-0.4235738145
 22
0.0263957139
 32
0.0
 13
-0.0
 23
0.4243954643
 33
0.0
 40
0.0
 40
0.0
 40
0.0
 40
0.0
 40
0.132073277
 40
0.262882412
 40
0.3916772615
 40
0.5179546748
 40
0.6415440522
 40
0.7626497522
 40
0.8818434077
 40
1.0
 40
1.0
 40
1.0
 40
1.0
 10
-29.9619533381
 20
14.845236232
 30
0.0
 10
-29.980600932
 20
14.8463982881
 30
0.0
 10
-30.0176012363
 20
14.8518195989
 30
0.0
 10
-30.0705359844
 20
14.8690449433
 30
0.0
 10
-30.1190080586
 20
14.8947704184
 30
0.0
 10
-30.1613037132
 20
14.9281311899
 30
0.0
 10
-30.1959302665
 20
14.967994227
 30
0.0
 10
-30.2216330302
 20
15.0129985154
 30
0.0
 10
-30.237458431
 20
15.0615389389
 30
0.0
 10
-30.2410263959
 20
15.0952209511
 30
0.0
 10
-30.2410263959
 20
15.1119359917
 30
0.0
 11
-29.9619533381
 21
14.845236232
 31
0.0
 11
-30.0174076051
 21
14.8533954269
 31
0.0
 11
-30.0701797432
 21
14.8706289659
 31
0.0
 11
-30.1184192738
 21
14.8963322305
 31
0.0
 11
-30.1604324034
 21
14.9296031246
 31
0.0
 11
-30.1947447179
 21
14.9692736235
 31
0.0
 11
-30.2201515953
 21
15.0139514967
 31
0.0
 11
-30.2357613943
 21
15.0620680361
 31
0.0
 11
-30.2410263959
 21
15.1119359917
 31
0.0
  0
SPLINE
  5
5AE
100
AcDbEntity
  8
RACCORDO
100
AcDbSpline
 62
253
  6
CONTINUOUS
 70
0
 71
3
 72
15
 73
11
 74
9
 42
0.0000001
 43
0.0000001
 44
0.0000000001
 12
-0.4235738162
 22
-0.0263957072
 32
0.0
 13
0.0
 23
-0.4243954655
 33
0.0
 40
0.0
 40
0.0
 40
0.0
 40
0.0
 40
0.1320732763
 40
0.2628824106
 40
0.3916772593
 40
0.517954672
 40
0.6415440493
 40
0.7626497497
 40
0.8818434061
 40
1.0
 40
1.0
 40
1.0
 40
1.0
 10
-29.9619533381
 20
9.354763768
 30
0.0
 10
-29.9806009319
 20
9.3536017122
 30
0.0
 10
-30.0176012362
 20
9.3481804019
 30
0.0
 10
-30.0705359844
 20
9.3309550582
 30
0.0
 10
-30.1190080587
 20
9.3052295833
 30
0.0
 10
-30.1613037133
 20
9.2718688119
 30
0.0
 10
-30.1959302665
 20
9.2320057747
 30
0.0
 10
-30.2216330303
 20
9.1870014859
 30
0.0
 10
-30.237458431
 20
9.1384610618
 30
0.0
 10
-30.2410263959
 20
9.1047790491
 30
0.0
 10
-30.2410263959
 20
9.0880640083
 30
0.0
 11
-29.9619533381
 21
9.354763768
 31
0.0
 11
-30.0174076051
 21
9.3466045739
 31
0.0
 11
-30.0701797432
 21
9.3293710355
 31
0.0
 11
-30.1184192738
 21
9.3036677713
 31
0.0
 11
-30.1604324034
 21
9.2703968772
 31
0.0
 11
-30.1947447179
 21
9.2307263783
 31
0.0
 11
-30.2201515953
 21
9.1860485047
 31
0.0
 11
-30.2357613943
 21
9.1379319647
 31
0.0
 11
-30.2410263959
 21
9.0880640083
 31
0.0
  0
SPLINE
  5
5AF
100
AcDbEntity
  8
RACCORDO
100
AcDbSpline
 62
253
  6
CONTINUOUS
 70
0
 71
3
 72
11
 73
7
 74
5
 42
0.0000001
 43
0.0000001
 44
0.0000000001
 12
-0.1746022893
 22
-0.1595245371
 32
0.0
 13
-0.0993607749
 23
-0.2146193695
 33
0.0
 40
0.0
 40
0.0
 40
0.0
 40
0.0
 40
0.2391181402
 40
0.4907956592
 40
0.747155944
 40
1.0
 40
1.0
 40
1.0
 40
1.0
 10
-30.5755202356
 20
10.109168717
 30
0.0
 10
-30.5894370938
 20
10.0964536468
 30
0.0
 10
-30.6164587991
 20
10.0686363922
 30
0.0
 10
-30.6531268757
 20
10.0224318597
 30
0.0
 10
-30.685908632
 20
9.9720993657
 30
0.0
 10
-30.7046266091
 20
9.9365047018
 30
0.0
 10
-30.7130008695
 20
9.9184162912
 30
0.0
 11
-30.5755202356
 21
10.109168717
 31
0.0
 11
-30.6150706432
 21
10.0687467819
 31
0.0
 11
-30.652149863
 21
10.0221841208
 31
0.0
 11
-30.6852438344
 21
9.9713824741
 31
0.0
 11
-30.7130008695
 21
9.9184162912
 31
0.0
  0
SPLINE
  5
5B0
100
AcDbEntity
  8
RACCORDO
100
AcDbSpline
 62
7
  6
CONTINUOUS
 70
0
 71
3
 72
18
 73
14
 74
12
 42
0.0000001
 43
0.0000001
 44
0.0000000001
 12
-0.0650815938
 22
0.3057057455
 32
0.0
 13
-0.3125537557
 23
0.0013290883
 33
0.0
 40
0.0
 40
0.0
 40
0.0
 40
0.0
 40
0.0242978115
 40
0.052246205
 40
0.0852615383
 40
0.1241092559
 40
0.1691332608
 40
0.220409042
 40
0.3411080513
 40
0.4839073235
 40
0.6448786562
 40
0.8189045172
 40
1.0
 40
1.0
 40
1.0
 40
1.0
 10
-28.2414773302
 20
13.3167759749
 30
0.0
 10
-28.2420044436
 20
13.3192519684
 30
0.0
 10
-28.2441271646
 20
13.3243820845
 30
0.0
 10
-28.2497122535
 20
13.3313856411
 30
0.0
 10
-28.2577026998
 20
13.3381164028
 30
0.0
 10
-28.2680601991
 20
13.3445761066
 30
0.0
 10
-28.2807370966
 20
13.3507485842
 30
0.0
 10
-28.3018099651
 20
13.3589879906
 30
0.0
 10
-28.3334381398
 20
13.3679160207
 30
0.0
 10
-28.376878553
 20
13.3763638288
 30
0.0
 10
-28.4262822352
 20
13.3827115064
 30
0.0
 10
-28.4799223842
 20
13.3867221329
 30
0.0
 10
-28.5169233162
 20
13.3877227369
 30
0.0
 10
-28.535790674
 20
13.3878029676
 30
0.0
 11
-28.2414773302
 21
13.3167759749
 31
0.0
 11
-28.244259946
 21
13.3238422739
 31
0.0
 11
-28.2495667677
 21
13.3307809918
 31
0.0
 11
-28.2573655589
 21
13.3375384997
 31
0.0
 11
-28.2676062843
 21
13.3440621775
 31
0.0
 11
-28.280220356
 21
13.3503009141
 31
0.0
 11
-28.2951197363
 21
13.3562051351
 31
0.0
 11
-28.3313204453
 21
13.3668213793
 31
0.0
 11
-28.3750898753
 21
13.3755579984
 31
0.0
 11
-28.4249738766
 21
13.3821115553
 31
0.0
 11
-28.479209541
 21
13.3862447562
 31
0.0
 11
-28.535790674
 21
13.3878029676
 31
0.0
  0
SPLINE
  5
5B1
100
AcDbEntity
  8
RACCORDO
100
AcDbSpline
 62
7
  6
CONTINUOUS
 70
0
 71
3
 72
18
 73
14
 74
12
 42
0.0000001
 43
0.0000001
 44
0.0000000001
 12
0.3125537557
 22
0.0013290883
 32
0.0
 13
0.0650815938
 23
0.3057057455
 33
0.0
 40
0.0
 40
0.0
 40
0.0
 40
0.0
 40
0.1810954828
 40
0.3551213438
 40
0.5160926765
 40
0.6588919487
 40
0.779590958
 40
0.8308667392
 40
0.8758907441
 40
0.9147384617
 40
0.947753795
 40
0.9757021885
 40
1.0
 40
1.0
 40
1.0
 40
1.0
 10
-28.535790674
 20
10.8121970324
 30
0.0
 10
-28.5169233162
 20
10.8122772631
 30
0.0
 10
-28.4799223842
 20
10.8132778671
 30
0.0
 10
-28.4262822352
 20
10.8172884936
 30
0.0
 10
-28.376878553
 20
10.8236361712
 30
0.0
 10
-28.3334381398
 20
10.8320839793
 30
0.0
 10
-28.3018099651
 20
10.8410120094
 30
0.0
 10
-28.2807370966
 20
10.8492514158
 30
0.0
 10
-28.2680601991
 20
10.8554238934
 30
0.0
 10
-28.2577026998
 20
10.8618835972
 30
0.0
 10
-28.2497122535
 20
10.8686143589
 30
0.0
 10
-28.2441271646
 20
10.8756179155
 30
0.0
 10
-28.2420044436
 20
10.8807480316
 30
0.0
 10
-28.2414773302
 20
10.8832240251
 30
0.0
 11
-28.535790674
 21
10.8121970324
 31
0.0
 11
-28.479209541
 21
10.8137552438
 31
0.0
 11
-28.4249738766
 21
10.8178884447
 31
0.0
 11
-28.3750898753
 21
10.8244420016
 31
0.0
 11
-28.3313204453
 21
10.8331786207
 31
0.0
 11
-28.2951197363
 21
10.8437948649
 31
0.0
 11
-28.280220356
 21
10.8496990859
 31
0.0
 11
-28.2676062843
 21
10.8559378225
 31
0.0
 11
-28.2573655589
 21
10.8624615003
 31
0.0
 11
-28.2495667677
 21
10.8692190082
 31
0.0
 11
-28.244259946
 21
10.8761577261
 31
0.0
 11
-28.2414773302
 21
10.8832240251
 31
0.0
  0
SPLINE
  5
5B2
100
AcDbEntity
  8
RACCORDO
100
AcDbSpline
 62
253
  6
CONTINUOUS
 70
0
 71
3
 72
17
 73
13
 74
11
 42
0.0000001
 43
0.0000001
 44
0.0000000001
 12
-0.000011722
 22
1.0047247268
 32
0.0
 13
-0.8683966419
 23
0.5053306335
 33
0.0
 40
0.0
 40
0.0
 40
0.0
 40
0.0
 40
0.0863671744
 40
0.1338033629
 40
0.1842998197
 40
0.2378956174
 40
0.2945433521
 40
0.4165139118
 40
0.5491660765
 40
0.6913096182
 40
0.8418772146
 40
1.0
 40
1.0
 40
1.0
 40
1.0
 10
-29.9619533381
 20
9.354763768
 30
0.0
 10
-29.9619536755
 20
9.3836888466
 30
0.0
 10
-29.9689083287
 20
9.4285896013
 30
0.0
 10
-29.9876614039
 20
9.4874125035
 30
0.0
 10
-30.0073765807
 20
9.5342567532
 30
0.0
 10
-30.0320164093
 20
9.5821655099
 30
0.0
 10
-30.0721054073
 20
9.6488626307
 30
0.0
 10
-30.1336210398
 20
9.7332894421
 30
0.0
 10
-30.2217540844
 20
9.832952712
 30
0.0
 10
-30.325077045
 20
9.9312856678
 30
0.0
 10
-30.44313287
 20
10.0257060093
 30
0.0
 10
-30.5297511559
 20
10.0825353762
 30
0.0
 10
-30.5755222545
 20
10.1091701387
 30
0.0
 11
-29.9619533381
 21
9.354763768
 31
0.0
 11
-29.9737067743
 21
9.4407393359
 31
0.0
 11
-29.9880015385
 21
9.4862054223
 31
0.0
 11
-30.0075411872
 21
9.5330268521
 31
0.0
 11
-30.0320527133
 21
9.5809737226
 31
0.0
 11
-30.0612771481
 21
9.6298131827
 31
0.0
 11
-30.1329415644
 21
9.7292211239
 31
0.0
 11
-30.2209762289
 21
9.8292869306
 31
0.0
 11
-30.3243392483
 21
9.9278376683
 31
0.0
 11
-30.4425306193
 21
10.0222629391
 31
0.0
 11
-30.5755222545
 21
10.1091701387
 31
0.0
  0
SPLINE
  5
5B3
100
AcDbEntity
  8
RACCORDO
100
AcDbSpline
 62
253
  6
CONTINUOUS
 70
0
 71
3
 72
14
 73
10
 74
8
 42
0.0000001
 43
0.0000001
 44
0.0000000001
 12
-0.0000001981
 22
-0.3610388949
 32
0.0
 13
-0.3607225533
 23
-0.0151103656
 33
0.0
 40
0.0
 40
0.0
 40
0.0
 40
0.0
 40
0.0939845811
 40
0.1934576342
 40
0.3024145262
 40
0.4227785743
 40
0.5546063262
 40
0.6965309572
 40
1.0
 40
1.0
 40
1.0
 40
1.0
 10
-28.2410263959
 20
10.4943306788
 30
0.0
 10
-28.2410264021
 20
10.4830199824
 30
0.0
 10
-28.2448177954
 20
10.4595975461
 30
0.0
 10
-28.2612171918
 20
10.4266096492
 30
0.0
 10
-28.2873465027
 20
10.3964341835
 30
0.0
 10
-28.3221033226
 20
10.3699324968
 30
0.0
 10
-28.3642889825
 20
10.3478255634
 30
0.0
 10
-28.4299411629
 20
10.3246348347
 30
0.0
 10
-28.4836100699
 20
10.3165841998
 30
0.0
 10
-28.5200994458
 20
10.3150556904
 30
0.0
 11
-28.2410263959
 21
10.4943306788
 31
0.0
 11
-28.2462914134
 21
10.460809547
 31
0.0
 11
-28.2619012229
 21
10.428465715
 31
0.0
 11
-28.2873081053
 21
10.3984333479
 31
0.0
 11
-28.3216204193
 21
10.3717669274
 31
0.0
 11
-28.3636335438
 21
10.3494023071
 31
0.0
 11
-28.4118730655
 21
10.3321246303
 31
0.0
 11
-28.5200994458
 21
10.3150556904
 31
0.0
  0
SPLINE
  5
5B4
100
AcDbEntity
  8
RACCORDO
100
AcDbSpline
 62
253
  6
CONTINUOUS
 70
0
 71
3
 72
17
 73
13
 74
11
 42
0.0000001
 43
0.0000001
 44
0.0000000001
 12
0.8683964913
 22
0.5053304411
 32
0.0
 13
0.0000117314
 23
1.0047244999
 33
0.0
 40
0.0
 40
0.0
 40
0.0
 40
0.0
 40
0.1581227751
 40
0.3086903713
 40
0.4508339131
 40
0.5834860789
 40
0.705456639
 40
0.7621043744
 40
0.8157001732
 40
0.8661966312
 40
0.9136328213
 40
1.0
 40
1.0
 40
1.0
 40
1.0
 10
-30.5755220313
 20
14.0908299341
 30
0.0
 10
-30.5297509436
 20
14.1174646846
 30
0.0
 10
-30.4431327392
 20
14.1742941281
 30
0.0
 10
-30.3250769308
 20
14.2687144238
 30
0.0
 10
-30.2217540055
 20
14.3670473731
 30
0.0
 10
-30.1336209861
 20
14.4667106249
 30
0.0
 10
-30.0721053725
 20
14.5511374221
 30
0.0
 10
-30.0320163869
 20
14.6178345306
 30
0.0
 10
-30.007376566
 20
14.6657432787
 30
0.0
 10
-29.9876613954
 20
14.71258752
 30
0.0
 10
-29.9689083261
 20
14.7714104119
 30
0.0
 10
-29.9619536758
 20
14.8163111585
 30
0.0
 10
-29.9619533381
 20
14.845236232
 30
0.0
 11
-30.5755220313
 21
14.0908299341
 31
0.0
 11
-30.442530475
 21
14.1777371697
 31
0.0
 11
-30.3243391386
 21
14.2721624288
 31
0.0
 11
-30.2209761497
 21
14.3707131519
 31
0.0
 11
-30.132941511
 21
14.4707789428
 31
0.0
 11
-30.0612771168
 21
14.5701868662
 31
0.0
 11
-30.032052691
 21
14.6190263175
 31
0.0
 11
-30.0075411725
 21
14.6669731795
 31
0.0
 11
-29.98800153
 21
14.7137946008
 31
0.0
 11
-29.9737067704
 21
14.759260679
 31
0.0
 11
-29.9619533381
 21
14.845236232
 31
0.0
  0
SPLINE
  5
5B5
100
AcDbEntity
  8
RACCORDO
100
AcDbSpline
 62
253
  6
CONTINUOUS
 70
0
 71
3
 72
11
 73
7
 74
5
 42
0.0000001
 43
0.0000001
 44
0.0000000001
 12
-1.4247728054
 22
0.4104192859
 32
0.0
 13
-1.4526761461
 23
0.2969066378
 33
0.0
 40
0.0
 40
0.0
 40
0.0
 40
0.0
 40
0.2499960616
 40
0.4999957934
 40
0.7499973131
 40
1.0
 40
1.0
 40
1.0
 40
1.0
 10
-28.5200996683
 20
2.1895049618
 30
0.0
 10
-28.638828865
 20
2.2237060301
 30
0.0
 10
-28.8774200063
 20
2.2882065391
 30
0.0
 10
-29.2374727844
 20
2.3764043079
 30
0.0
 10
-29.5990705481
 20
2.4580258941
 30
0.0
 10
-29.8408958446
 20
2.5089442038
 30
0.0
 10
-29.9619534912
 20
2.5336866895
 30
0.0
 11
-28.5200996683
 21
2.1895049618
 31
0.0
 11
-28.8777789709
 21
2.2867805165
 31
0.0
 11
-29.237728891
 21
2.3753079482
 31
0.0
 11
-29.5992598242
 21
2.4571517079
 31
0.0
 11
-29.9619534912
 21
2.5336866895
 31
0.0
  0
SPLINE
  5
5B6
100
AcDbEntity
  8
RACCORDO
100
AcDbSpline
 62
253
  6
CONTINUOUS
 70
0
 71
3
 72
11
 73
7
 74
5
 42
0.0000001
 43
0.0000001
 44
0.0000000001
 12
1.452678237
 22
0.2968942382
 32
0.0
 13
1.4247713553
 23
0.4104227503
 33
0.0
 40
0.0
 40
0.0
 40
0.0
 40
0.0
 40
0.2500028128
 40
0.5000044218
 40
0.7500041109
 40
1.0
 40
1.0
 40
1.0
 40
1.0
 10
-29.9619532101
 20
0.2663146171
 30
0.0
 10
-29.8408953283
 20
0.2910560819
 30
0.0
 10
-29.5990701362
 20
0.3419750689
 30
0.0
 10
-29.2374720538
 20
0.4235951423
 30
0.0
 10
-28.8774197363
 20
0.5117940748
 30
0.0
 10
-28.6388285969
 20
0.5762939064
 30
0.0
 10
-28.520099603
 20
0.6104952398
 30
0.0
 11
-29.9619532101
 21
0.2663146171
 31
0.0
 11
-29.5992593032
 21
0.3428488403
 31
0.0
 11
-29.2377282029
 21
0.4246919687
 31
0.0
 11
-28.8777785466
 21
0.513219754
 31
0.0
 11
-28.520099603
 21
0.6104952398
 31
0.0
  0
SPLINE
  5
5B7
100
AcDbEntity
  8
RACCORDO
100
AcDbSpline
 62
253
  6
CONTINUOUS
 70
0
 71
3
 72
14
 73
10
 74
8
 42
0.0000001
 43
0.0000001
 44
0.0000000001
 12
-0.0000000886
 22
0.3610388608
 32
0.0
 13
-0.3607225176
 23
0.0151104028
 33
0.0
 40
0.0
 40
0.0
 40
0.0
 40
0.0
 40
0.0939845781
 40
0.193457625
 40
0.3024145105
 40
0.422778554
 40
0.5546063048
 40
0.6965309387
 40
1.0
 40
1.0
 40
1.0
 40
1.0
 10
-28.2410263959
 20
13.7056691613
 30
0.0
 10
-28.2410263987
 20
13.7169798563
 30
0.0
 10
-28.2448177846
 20
13.7404022905
 30
0.0
 10
-28.2612171712
 20
13.7733901865
 30
0.0
 10
-28.2873464733
 20
13.8035656523
 30
0.0
 10
-28.3221032852
 20
13.8300673402
 30
0.0
 10
-28.3642889385
 20
13.852174276
 30
0.0
 10
-28.4299411127
 20
13.8753650098
 30
0.0
 10
-28.4836100164
 20
13.8834156494
 30
0.0
 10
-28.520099391
 20
13.8849441626
 30
0.0
 11
-28.2410263959
 21
13.7056691613
 31
0.0
 11
-28.2462914033
 21
13.7391902903
 31
0.0
 11
-28.2619012029
 21
13.7715341208
 31
0.0
 11
-28.2873080761
 21
13.8015664877
 31
0.0
 11
-28.321620382
 21
13.8282329094
 31
0.0
 11
-28.3636334997
 21
13.8505975321
 31
0.0
 11
-28.411873016
 21
13.8678752125
 31
0.0
 11
-28.520099391
 21
13.8849441626
 31
0.0
  0
SPLINE
  5
5B8
100
AcDbEntity
  8
0
100
AcDbSpline
 62
253
  6
CONTINUOUS
 70
0
 71
3
 72
26
 73
22
 74
20
 42
0.0000001
 43
0.0000001
 44
0.0000000001
 12
0.124641584
 22
-0.2158928634
 32
0.0
 13
-0.2158910366
 23
-0.1246447481
 33
0.0
 40
0.0
 40
0.0
 40
0.0
 40
0.0
 40
0.1952373367
 40
0.3828767197
 40
0.5557522426
 40
0.6345529999
 40
0.7072370592
 40
0.7731083831
 40
0.8315339428
 40
0.8819525183
 40
0.923882571
 40
0.941534545
 40
0.956921227
 40
0.9700030008
 40
0.9807505828
 40
0.9891392048
 40
0.9951465495
 40
0.9972538103
 40
0.9987627829
 40
0.9996743245
 40
1.0
 40
1.0
 40
1.0
 40
1.0
 10
-53.4895719631
 20
23.8443375673
 30
0.0
 10
-53.4814603995
 20
23.8302874514
 30
0.0
 10
-53.4655663211
 20
23.8027262761
 30
0.0
 10
-53.4425362399
 20
23.7626974507
 30
0.0
 10
-53.4243669105
 20
23.7310346231
 30
0.0
 10
-53.4109772513
 20
23.7076424751
 30
0.0
 10
-53.4020176129
 20
23.6919598726
 30
0.0
 10
-53.3939117175
 20
23.67773947
 30
0.0
 10
-53.3867372233
 20
23.665117805
 30
0.0
 10
-53.3805629247
 20
23.6542160407
 30
0.0
 10
-53.3760750297
 20
23.646252871
 30
0.0
 10
-53.3730304892
 20
23.6408180062
 30
0.0
 10
-53.3711643649
 20
23.6374702693
 30
0.0
 10
-53.3695865711
 20
23.6346199
 30
0.0
 10
-53.3682972951
 20
23.6322710363
 30
0.0
 10
-53.3673084824
 20
23.6304369725
 30
0.0
 10
-53.3666585757
 20
23.6292158922
 30
0.0
 10
-53.3663109315
 20
23.6285132646
 30
0.0
 10
-53.3661273614
 20
23.6281552608
 30
0.0
 10
-53.36607433
 20
23.6279791158
 30
0.0
 10
-53.3660029591
 20
23.6278447476
 30
0.0
 10
-53.3660263959
 20
23.6278312164
 30
0.0
 11
-53.4895719631
 21
23.8443375673
 31
0.0
 11
-53.4652581591
 21
23.8021751679
 31
0.0
 11
-53.4419323653
 21
23.7616295042
 31
0.0
 11
-53.4204854114
 21
23.7242490565
 31
0.0
 11
-53.4107271792
 21
23.7071999644
 31
0.0
 11
-53.4017394673
 21
23.6914667926
 31
0.0
 11
-53.3936083488
 21
23.6772002194
 31
0.0
 11
-53.386411977
 21
23.6645373638
 31
0.0
 11
-53.3802194932
 21
23.6535998863
 31
0.0
 11
-53.3750900603
 21
23.6444922901
 31
0.0
 11
-53.3729398975
 21
23.6406529184
 31
0.0
 11
-53.3710730049
 21
23.6373021573
 31
0.0
 11
-53.3694942106
 21
23.6344486507
 31
0.0
 11
-53.3682070645
 21
23.632098824
 31
0.0
 11
-53.3672145713
 21
23.630258157
 31
0.0
 11
-53.3665194702
 21
23.6289316788
 31
0.0
 11
-53.3662838926
 21
23.6284621448
 31
0.0
 11
-53.366123113
 21
23.6281220646
 31
0.0
 11
-53.3660372435
 21
23.6279116759
 31
0.0
 11
-53.3660263959
 21
23.6278312164
 31
0.0
  0
SPLINE
  5
5B9
100
AcDbEntity
  8
0
100
AcDbSpline
 62
253
  6
CONTINUOUS
 70
0
 71
3
 72
26
 73
22
 74
20
 42
0.0000001
 43
0.0000001
 44
0.0000000001
 12
-0.124641584
 22
-0.2158928633
 32
0.0
 13
0.2158910366
 23
-0.1246447481
 33
0.0
 40
0.0
 40
0.0
 40
0.0
 40
0.0
 40
0.1952373303
 40
0.3828767077
 40
0.5557522251
 40
0.6345529812
 40
0.7072370395
 40
0.7731083627
 40
0.8315339236
 40
0.8819525002
 40
0.9238825542
 40
0.9415345305
 40
0.9569212142
 40
0.9700029891
 40
0.9807505739
 40
0.9891391978
 40
0.995146544
 40
0.9972538066
 40
0.998762781
 40
0.999674324
 40
1.0
 40
1.0
 40
1.0
 40
1.0
 10
-56.4924808288
 20
23.8443375673
 30
0.0
 10
-56.5005923921
 20
23.8302874519
 30
0.0
 10
-56.51648647
 20
23.8027262774
 30
0.0
 10
-56.5395165505
 20
23.7626974533
 30
0.0
 10
-56.5576858793
 20
23.7310346265
 30
0.0
 10
-56.5710755383
 20
23.7076424792
 30
0.0
 10
-56.5800351765
 20
23.6919598769
 30
0.0
 10
-56.5881410719
 20
23.6777394743
 30
0.0
 10
-56.5953155662
 20
23.6651178092
 30
0.0
 10
-56.6014898649
 20
23.6542160446
 30
0.0
 10
-56.6059777601
 20
23.6462528745
 30
0.0
 10
-56.6090223008
 20
23.6408180094
 30
0.0
 10
-56.6108884254
 20
23.6374702721
 30
0.0
 10
-56.6124662194
 20
23.6346199025
 30
0.0
 10
-56.6137554956
 20
23.6322710383
 30
0.0
 10
-56.6147443086
 20
23.630436974
 30
0.0
 10
-56.6153942155
 20
23.6292158934
 30
0.0
 10
-56.6157418599
 20
23.6285132654
 30
0.0
 10
-56.6159254302
 20
23.6281552612
 30
0.0
 10
-56.6159784617
 20
23.627979116
 30
0.0
 10
-56.6160498328
 20
23.6278447476
 30
0.0
 10
-56.6160263959
 20
23.6278312164
 30
0.0
 11
-56.4924808288
 21
23.8443375673
 31
0.0
 11
-56.5167946319
 21
23.8021751692
 31
0.0
 11
-56.540120425
 21
23.7616295068
 31
0.0
 11
-56.5615673783
 21
23.7242490603
 31
0.0
 11
-56.5713256103
 21
23.7071999685
 31
0.0
 11
-56.5803133221
 21
23.6914667969
 31
0.0
 11
-56.5884444405
 21
23.6772002239
 31
0.0
 11
-56.5956408125
 21
23.6645373679
 31
0.0
 11
-56.6018332964
 21
23.6535998903
 31
0.0
 11
-56.6069627295
 21
23.6444922937
 31
0.0
 11
-56.6091128926
 21
23.6406529215
 31
0.0
 11
-56.6109797854
 21
23.6373021601
 31
0.0
 11
-56.6125585798
 21
23.6344486533
 31
0.0
 11
-56.6138457263
 21
23.632098826
 31
0.0
 11
-56.6148382198
 21
23.6302581585
 31
0.0
 11
-56.615533321
 21
23.6289316801
 31
0.0
 11
-56.6157688988
 21
23.6284621457
 31
0.0
 11
-56.6159296786
 21
23.628122065
 31
0.0
 11
-56.6160155483
 21
23.627911676
 31
0.0
 11
-56.6160263959
 21
23.6278312164
 31
0.0
  0
SPLINE
  5
5BA
100
AcDbEntity
  8
RACCORDO
100
AcDbSpline
 62
253
  6
CONTINUOUS
 70
0
 71
3
 72
30
 73
26
 74
24
 42
0.0000001
 43
0.0000001
 44
0.0000000001
 12
-0.0052342556
 22
0.9998923024
 32
0.0
 13
0.9997104865
 23
0.0197726338
 33
0.0
 40
0.0
 40
0.0
 40
0.0
 40
0.0
 40
0.1950762081
 40
0.382652428
 40
0.4713582172
 40
0.5555250841
 40
0.6343420804
 40
0.7070502035
 40
0.7729491938
 40
0.8314045892
 40
0.8818537615
 40
0.9039215255
 40
0.923811349
 40
0.9414767709
 40
0.9568739264
 40
0.9699671348
 40
0.9807242834
 40
0.9852185957
 40
0.9891201046
 40
0.9924264243
 40
0.9951352908
 40
0.9972454875
 40
0.9987569197
 40
0.999670873
 40
1.0
 40
1.0
 40
1.0
 40
1.0
 10
-58.4462621179
 20
16.3529322397
 30
0.0
 10
-58.4466024774
 20
16.4179506393
 30
0.0
 10
-58.4472053596
 20
16.5454880594
 30
0.0
 10
-58.4477835422
 20
16.7025916675
 30
0.0
 10
-58.4481167942
 20
16.822729544
 30
0.0
 10
-58.4482943782
 20
16.9066180275
 30
0.0
 10
-58.4484028627
 20
16.9851745714
 30
0.0
 10
-58.4484413416
 20
17.0576424618
 30
0.0
 10
-58.4484098285
 20
17.1233237975
 30
0.0
 10
-58.4483089111
 20
17.1815861012
 30
0.0
 10
-58.4481631958
 20
17.2252392318
 30
0.0
 10
-58.44800617
 20
17.2560381938
 30
0.0
 10
-58.4478772079
 20
17.2759102601
 30
0.0
 10
-58.4477322999
 20
17.2935587902
 30
0.0
 10
-58.4475720735
 20
17.3089418699
 30
0.0
 10
-58.4473969939
 20
17.3220217581
 30
0.0
 10
-58.4472320527
 20
17.3314682759
 30
0.0
 10
-58.4470874691
 20
17.3378494434
 30
0.0
 10
-58.446983244
 20
17.3417505908
 30
0.0
 10
-58.4468732324
 20
17.3450476671
 30
0.0
 10
-58.446768474
 20
17.3477715063
 30
0.0
 10
-58.4466414012
 20
17.3498326975
 30
0.0
 10
-58.4465631867
 20
17.3514446106
 30
0.0
 10
-58.4463976803
 20
17.3521715435
 30
0.0
 10
-58.4463717951
 20
17.3527777656
 30
0.0
 10
-58.4462621179
 20
17.3527799348
 30
0.0
 11
-58.4462621179
 21
16.3529322397
 31
0.0
 11
-58.4471824777
 21
16.5479879398
 31
0.0
 11
-58.447866349
 21
16.7355452812
 31
0.0
 11
-58.4481110232
 21
16.8242423949
 31
0.0
 11
-58.4482874916
 21
16.9084011653
 31
0.0
 11
-58.4483940598
 21
16.9872106809
 31
0.0
 11
-58.4484296977
 21
17.0599119608
 31
0.0
 11
-58.4483940616
 21
17.1258047472
 31
0.0
 11
-58.4482874949
 21
17.1842545508
 31
0.0
 11
-58.4481110274
 21
17.2346986723
 31
0.0
 11
-58.4479970874
 21
17.2567640679
 31
0.0
 11
-58.4478663542
 21
17.2766515921
 31
0.0
 11
-58.4477191566
 21
17.2943147401
 31
0.0
 11
-58.4475558419
 21
17.3097095822
 31
0.0
 11
-58.4473768104
 21
17.3228003356
 31
0.0
 11
-58.4471824844
 21
17.3335547175
 31
0.0
 11
-58.4470797279
 21
17.3380474324
 31
0.0
 11
-58.4469733242
 21
17.3419471232
 31
0.0
 11
-58.4468633348
 21
17.3452513019
 31
0.0
 11
-58.446749822
 21
17.3479575342
 31
0.0
 11
-58.4466328599
 21
17.3500642884
 31
0.0
 11
-58.4465125323
 21
17.3515707807
 31
0.0
 11
-58.4463889236
 21
17.3524762499
 31
0.0
 11
-58.4462621179
 21
17.3527799348
 31
0.0
  0
LINE
  5
5BB
100
AcDbEntity
  8
RACCORDO
100
AcDbLine
 62
253
  6
CONTINUOUS
 10
-42.4375359201
 20
-19.0166572575
 11
-42.3726223671
 21
-18.5521029846
  0
LINE
  5
5BC
100
AcDbEntity
  8
RACCORDO
100
AcDbLine
 62
253
  6
CONTINUOUS
 10
-42.3726223671
 20
18.5521029846
 11
-42.4375359201
 21
19.0166572575
  0
SPLINE
  5
5BD
100
AcDbEntity
  8
0
100
AcDbSpline
 62
7
  6
CONTINUOUS
 70
0
 71
3
 72
13
 73
9
 74
7
 42
0.0000001
 43
0.0000001
 44
0.0000000001
 12
0.2444017232
 22
0.1512932121
 32
0.0
 13
0.2489101449
 23
0.1437119873
 33
0.0
 40
0.0
 40
0.0
 40
0.0
 40
0.0
 40
0.0225028512
 40
0.0871612167
 40
0.1883383507
 40
0.3188104058
 40
0.6393765232
 40
1.0
 40
1.0
 40
1.0
 40
1.0
 10
-55.7410263959
 20
23.1226497308
 30
0.0
 10
-55.7391931507
 20
23.1237845737
 30
0.0
 10
-55.7320599304
 20
23.1281260914
 30
0.0
 10
-55.7164497731
 20
23.1371789398
 30
0.0
 10
-55.691945543
 20
23.1515104338
 30
0.0
 10
-55.6461889688
 20
23.1780694741
 30
0.0
 10
-55.5789077468
 20
23.2170587094
 30
0.0
 10
-55.5224017761
 20
23.2497119926
 30
0.0
 10
-55.4924808288
 20
23.2669872981
 30
0.0
 11
-55.7410263959
 21
23.1226497308
 31
0.0
 11
-55.7355038453
 21
23.126016189
 31
0.0
 11
-55.719481242
 21
23.1354311576
 31
0.0
 11
-55.694361061
 21
23.1500815293
 31
0.0
 11
-55.661938916
 21
23.1689245842
 31
0.0
 11
-55.5822193721
 21
23.215119319
 31
0.0
 11
-55.4924808288
 21
23.2669872981
 31
0.0
  0
LINE
  5
5BE
100
AcDbEntity
  8
RACCORDO
100
AcDbLine
 62
253
  6
CONTINUOUS
 10
-42.4375359146
 20
-19.0166572575
 11
-52.2410263959
 21
-15.629521819
  0
LINE
  5
5BF
100
AcDbEntity
  8
RACCORDO
100
AcDbLine
 62
253
  6
CONTINUOUS
 10
-52.2410263959
 20
15.629521819
 11
-42.4375359146
 21
19.0166572575
  0
SPLINE
  5
5C0
100
AcDbEntity
  8
0
100
AcDbSpline
 62
253
  6
CONTINUOUS
 70
0
 71
3
 72
26
 73
22
 74
20
 42
0.0000001
 43
0.0000001
 44
0.0000000001
 12
0.0014544634
 22
-0.2500094792
 32
0.0
 13
-0.2500094789
 23
-0.0014545126
 33
0.0
 40
0.0
 40
0.0
 40
0.0
 40
0.0
 40
0.195080196
 40
0.3826515393
 40
0.5555245815
 40
0.6343411269
 40
0.7070484192
 40
0.7729476609
 40
0.831403253
 40
0.881851676
 40
0.9238093952
 40
0.9414738478
 40
0.9568718917
 40
0.9699637695
 40
0.9807201068
 40
0.9891161374
 40
0.9951296516
 40
0.997239688
 40
0.9987514623
 40
0.9996664469
 40
1.0
 40
1.0
 40
1.0
 40
1.0
 10
-53.4895719631
 20
-24.2456323968
 30
0.0
 10
-53.4894773841
 20
-24.2618896962
 30
0.0
 10
-53.4893097793
 20
-24.2937786412
 30
0.0
 10
-53.4891205329
 20
-24.3400745182
 30
0.0
 10
-53.4890185485
 20
-24.3766814763
 30
0.0
 10
-53.4889770042
 20
-24.403716003
 30
0.0
 10
-53.4889663159
 20
-24.4218355876
 30
0.0
 10
-53.48897509
 20
-24.4382583307
 30
0.0
 10
-53.4890030727
 20
-24.4528260562
 30
0.0
 10
-53.4890499084
 20
-24.46539845
 30
0.0
 10
-53.4891063511
 20
-24.4745714119
 30
0.0
 10
-53.4891633867
 20
-24.4808230755
 30
0.0
 10
-53.4892078527
 20
-24.4846694877
 30
0.0
 10
-53.4892566888
 20
-24.4879390802
 30
0.0
 10
-53.4893083503
 20
-24.4906278529
 30
0.0
 10
-53.4893655024
 20
-24.492719004
 30
0.0
 10
-53.4894144742
 20
-24.4941060198
 30
0.0
 10
-53.4894655248
 20
-24.4948925842
 30
0.0
 10
-53.489490483
 20
-24.4952943483
 30
0.0
 10
-53.4895309282
 20
-24.495477879
 30
0.0
 10
-53.4895441659
 20
-24.4956280043
 30
0.0
 10
-53.4895719631
 20
-24.495628166
 30
0.0
 11
-53.4895719631
 21
-24.2456323968
 31
0.0
 11
-53.4893161719
 21
-24.2944044496
 31
0.0
 11
-53.4891261155
 21
-24.3412994718
 31
0.0
 11
-53.4890090725
 21
-24.384519944
 31
0.0
 11
-53.4889794568
 21
-24.4042251386
 31
0.0
 11
-53.4889695543
 21
-24.4224029558
 31
0.0
 11
-53.4889794568
 21
-24.4388786668
 31
0.0
 11
-53.4890090727
 21
-24.4534933362
 31
0.0
 11
-53.489058117
 21
-24.4661060382
 31
0.0
 11
-53.4891261157
 21
-24.4765958229
 31
0.0
 11
-53.489167027
 21
-24.4810119887
 31
0.0
 11
-53.4892124125
 21
-24.4848614432
 31
0.0
 11
-53.4892621669
 21
-24.488134214
 31
0.0
 11
-53.4893161723
 21
-24.4908229035
 31
0.0
 11
-53.4893743056
 21
-24.4929212211
 31
0.0
 11
-53.489436435
 21
-24.4944233978
 31
0.0
 11
-53.4894689441
 21
-24.4949499332
 31
0.0
 11
-53.4895023844
 21
-24.4953264153
 31
0.0
 11
-53.489536732
 21
-24.4955525807
 31
0.0
 11
-53.4895719631
 21
-24.495628166
 31
0.0
  0
LINE
  5
5C1
100
AcDbEntity
  8
0
100
AcDbLine
 62
7
  6
CONTINUOUS
 10
-54.2410263959
 20
-24.2500042308
 11
-54.2410263959
 21
-24.5
  0
SPLINE
  5
5C2
100
AcDbEntity
  8
0
100
AcDbSpline
 62
253
  6
CONTINUOUS
 70
0
 71
3
 72
26
 73
22
 74
20
 42
0.0000001
 43
0.0000001
 44
0.0000000001
 12
-0.0014544634
 22
-0.2500094791
 32
0.0
 13
0.2500094788
 23
-0.0014545126
 33
0.0
 40
0.0
 40
0.0
 40
0.0
 40
0.0
 40
0.1950801482
 40
0.3826514546
 40
0.5555244637
 40
0.6343410028
 40
0.7070482891
 40
0.7729475285
 40
0.8314031303
 40
0.8818515616
 40
0.9238092906
 40
0.9414737585
 40
0.9568718137
 40
0.9699636982
 40
0.9807200538
 40
0.9891160957
 40
0.9951296193
 40
0.997239666
 40
0.9987514509
 40
0.9996664438
 40
1.0
 40
1.0
 40
1.0
 40
1.0
 10
-56.4924808288
 20
-24.2369056521
 30
0.0
 10
-56.4925754077
 20
-24.2531629475
 30
0.0
 10
-56.4927430125
 20
-24.2850518854
 30
0.0
 10
-56.4929322589
 20
-24.3313477526
 30
0.0
 10
-56.4930342433
 20
-24.3679547043
 30
0.0
 10
-56.4930757876
 20
-24.3949892272
 30
0.0
 10
-56.4930864759
 20
-24.4131088105
 30
0.0
 10
-56.4930777019
 20
-24.4295315538
 30
0.0
 10
-56.4930497193
 20
-24.4440992806
 30
0.0
 10
-56.4930028836
 20
-24.4566716767
 30
0.0
 10
-56.4929464409
 20
-24.4658446414
 30
0.0
 10
-56.4928894054
 20
-24.472096308
 30
0.0
 10
-56.4928449395
 20
-24.475942723
 30
0.0
 10
-56.4927961034
 20
-24.4792123186
 30
0.0
 10
-56.4927444419
 20
-24.4819010943
 30
0.0
 10
-56.4926872898
 20
-24.4839922486
 30
0.0
 10
-56.4926383178
 20
-24.4853792671
 30
0.0
 10
-56.492587267
 20
-24.4861658338
 30
0.0
 10
-56.4925623091
 20
-24.4865676007
 30
0.0
 10
-56.4925218633
 20
-24.4867511326
 30
0.0
 10
-56.4925086262
 20
-24.4869012596
 30
0.0
 10
-56.4924808288
 20
-24.4869014213
 30
0.0
 11
-56.4924808288
 21
-24.2369056521
 31
0.0
 11
-56.4927366199
 21
-24.2856776929
 31
0.0
 11
-56.4929266763
 21
-24.3325727059
 31
0.0
 11
-56.4930437193
 21
-24.3757931698
 31
0.0
 11
-56.493073335
 21
-24.3954983628
 31
0.0
 11
-56.4930832376
 21
-24.4136761785
 31
0.0
 11
-56.493073335
 21
-24.4301518888
 31
0.0
 11
-56.4930437193
 21
-24.4447665607
 31
0.0
 11
-56.492994675
 21
-24.4573792648
 31
0.0
 11
-56.4929266763
 21
-24.4678690519
 31
0.0
 11
-56.4928857651
 21
-24.4722852216
 31
0.0
 11
-56.4928403797
 21
-24.4761346789
 31
0.0
 11
-56.4927906253
 21
-24.4794074514
 31
0.0
 11
-56.4927366199
 21
-24.4820961454
 31
0.0
 11
-56.4926784866
 21
-24.4841944659
 31
0.0
 11
-56.492616357
 21
-24.4856966449
 31
0.0
 11
-56.4925838478
 21
-24.4862231829
 31
0.0
 11
-56.4925504075
 21
-24.4865996677
 31
0.0
 11
-56.4925160599
 21
-24.4868258351
 31
0.0
 11
-56.4924808288
 21
-24.4869014213
 31
0.0
  0
SPLINE
  5
5C3
100
AcDbEntity
  8
0
100
AcDbSpline
 62
253
  6
CONTINUOUS
 70
0
 71
3
 72
26
 73
22
 74
20
 42
0.0000001
 43
0.0000001
 44
0.0000000001
 12
-0.124641584
 22
0.2158928634
 32
0.0
 13
0.2158910366
 23
0.1246447481
 33
0.0
 40
0.0
 40
0.0
 40
0.0
 40
0.0
 40
0.1952373367
 40
0.3828767197
 40
0.5557522426
 40
0.6345529999
 40
0.7072370592
 40
0.7731083831
 40
0.8315339428
 40
0.8819525183
 40
0.923882571
 40
0.941534545
 40
0.956921227
 40
0.9700030008
 40
0.9807505828
 40
0.9891392048
 40
0.9951465495
 40
0.9972538103
 40
0.9987627829
 40
0.9996743245
 40
1.0
 40
1.0
 40
1.0
 40
1.0
 10
-56.4924808288
 20
-23.8443375673
 30
0.0
 10
-56.5005923924
 20
-23.8302874514
 30
0.0
 10
-56.5164864708
 20
-23.8027262761
 30
0.0
 10
-56.539516552
 20
-23.7626974507
 30
0.0
 10
-56.5576858813
 20
-23.7310346231
 30
0.0
 10
-56.5710755406
 20
-23.7076424751
 30
0.0
 10
-56.580035179
 20
-23.6919598726
 30
0.0
 10
-56.5881410743
 20
-23.67773947
 30
0.0
 10
-56.5953155686
 20
-23.665117805
 30
0.0
 10
-56.6014898671
 20
-23.6542160407
 30
0.0
 10
-56.6059777621
 20
-23.646252871
 30
0.0
 10
-56.6090223026
 20
-23.6408180062
 30
0.0
 10
-56.610888427
 20
-23.6374702693
 30
0.0
 10
-56.6124662207
 20
-23.6346199
 30
0.0
 10
-56.6137554967
 20
-23.6322710363
 30
0.0
 10
-56.6147443094
 20
-23.6304369725
 30
0.0
 10
-56.6153942161
 20
-23.6292158922
 30
0.0
 10
-56.6157418604
 20
-23.6285132646
 30
0.0
 10
-56.6159254304
 20
-23.6281552608
 30
0.0
 10
-56.6159784619
 20
-23.6279791158
 30
0.0
 10
-56.6160498327
 20
-23.6278447476
 30
0.0
 10
-56.6160263959
 20
-23.6278312164
 30
0.0
 11
-56.4924808288
 21
-23.8443375673
 31
0.0
 11
-56.5167946327
 21
-23.8021751679
 31
0.0
 11
-56.5401204265
 21
-23.7616295042
 31
0.0
 11
-56.5615673805
 21
-23.7242490565
 31
0.0
 11
-56.5713256126
 21
-23.7071999644
 31
0.0
 11
-56.5803133245
 21
-23.6914667926
 31
0.0
 11
-56.5884444431
 21
-23.6772002194
 31
0.0
 11
-56.5956408149
 21
-23.6645373638
 31
0.0
 11
-56.6018332987
 21
-23.6535998863
 31
0.0
 11
-56.6069627315
 21
-23.6444922901
 31
0.0
 11
-56.6091128944
 21
-23.6406529184
 31
0.0
 11
-56.610979787
 21
-23.6373021573
 31
0.0
 11
-56.6125585812
 21
-23.6344486507
 31
0.0
 11
-56.6138457273
 21
-23.632098824
 31
0.0
 11
-56.6148382206
 21
-23.630258157
 31
0.0
 11
-56.6155333217
 21
-23.6289316788
 31
0.0
 11
-56.6157688993
 21
-23.6284621448
 31
0.0
 11
-56.6159296788
 21
-23.6281220646
 31
0.0
 11
-56.6160155484
 21
-23.6279116759
 31
0.0
 11
-56.6160263959
 21
-23.6278312164
 31
0.0
  0
SPLINE
  5
5C4
100
AcDbEntity
  8
0
100
AcDbSpline
 62
7
  6
CONTINUOUS
 70
0
 71
3
 72
13
 73
9
 74
7
 42
0.0000001
 43
0.0000001
 44
0.0000000001
 12
-0.2489101548
 22
0.143711993
 32
0.0
 13
-0.244355276
 23
0.1513687366
 33
0.0
 40
0.0
 40
0.0
 40
0.0
 40
0.0
 40
0.3612210663
 40
0.682170423
 40
0.812667465
 40
0.9137049675
 40
0.9780318448
 40
1.0
 40
1.0
 40
1.0
 40
1.0
 10
-55.4924808288
 20
-23.2669872981
 30
0.0
 10
-55.5224513593
 20
-23.249683365
 30
0.0
 10
-55.5790387348
 20
-23.2169831279
 30
0.0
 10
-55.6464030258
 20
-23.1779450624
 30
0.0
 10
-55.6921819941
 20
-23.1513733071
 30
0.0
 10
-55.7166484734
 20
-23.1370619739
 30
0.0
 10
-55.7321760605
 20
-23.1280587384
 30
0.0
 10
-55.7392370511
 20
-23.1237581614
 30
0.0
 10
-55.7410263959
 20
-23.1226497308
 30
0.0
 11
-55.4924808288
 21
-23.2669872981
 31
0.0
 11
-55.5823680381
 21
-23.2150332915
 31
0.0
 11
-55.6621827297
 21
-23.1687830511
 31
0.0
 11
-55.694610918
 21
-23.1499360992
 31
0.0
 11
-55.7196961441
 21
-23.1353054509
 31
0.0
 11
-55.7356360633
 21
-23.1259378303
 31
0.0
 11
-55.7410263959
 21
-23.1226497308
 31
0.0
  0
SPLINE
  5
5C5
100
AcDbEntity
  8
0
100
AcDbSpline
 62
253
  6
CONTINUOUS
 70
0
 71
3
 72
26
 73
22
 74
20
 42
0.0000001
 43
0.0000001
 44
0.0000000001
 12
0.2500094789
 22
-0.0014545126
 32
0.0
 13
-0.0014544634
 23
-0.2500094792
 33
0.0
 40
0.0
 40
0.0
 40
0.0
 40
0.0
 40
0.0003335531
 40
0.0012485377
 40
0.002760312
 40
0.0048703484
 40
0.0108838626
 40
0.0192798932
 40
0.0300362305
 40
0.0431281083
 40
0.0585261522
 40
0.0761906048
 40
0.118148324
 40
0.168596747
 40
0.2270523391
 40
0.2929515808
 40
0.3656588731
 40
0.4444754185
 40
0.6173484607
 40
0.804919804
 40
1.0
 40
1.0
 40
1.0
 40
1.0
 10
-53.4895719631
 20
24.495628166
 30
0.0
 10
-53.4895441659
 20
24.4956280043
 30
0.0
 10
-53.4895309282
 20
24.495477879
 30
0.0
 10
-53.489490483
 20
24.4952943483
 30
0.0
 10
-53.4894655248
 20
24.4948925842
 30
0.0
 10
-53.4894144742
 20
24.4941060198
 30
0.0
 10
-53.4893655024
 20
24.492719004
 30
0.0
 10
-53.4893083503
 20
24.4906278529
 30
0.0
 10
-53.4892566888
 20
24.4879390802
 30
0.0
 10
-53.4892078527
 20
24.4846694877
 30
0.0
 10
-53.4891633867
 20
24.4808230755
 30
0.0
 10
-53.4891063511
 20
24.4745714119
 30
0.0
 10
-53.4890499084
 20
24.46539845
 30
0.0
 10
-53.4890030727
 20
24.4528260562
 30
0.0
 10
-53.48897509
 20
24.4382583307
 30
0.0
 10
-53.4889663159
 20
24.4218355876
 30
0.0
 10
-53.4889770042
 20
24.403716003
 30
0.0
 10
-53.4890185485
 20
24.3766814763
 30
0.0
 10
-53.4891205329
 20
24.3400745182
 30
0.0
 10
-53.4893097793
 20
24.2937786412
 30
0.0
 10
-53.4894773841
 20
24.2618896962
 30
0.0
 10
-53.4895719631
 20
24.2456323968
 30
0.0
 11
-53.4895719631
 21
24.495628166
 31
0.0
 11
-53.489536732
 21
24.4955525807
 31
0.0
 11
-53.4895023844
 21
24.4953264153
 31
0.0
 11
-53.4894689441
 21
24.4949499332
 31
0.0
 11
-53.489436435
 21
24.4944233978
 31
0.0
 11
-53.4893743056
 21
24.4929212211
 31
0.0
 11
-53.4893161723
 21
24.4908229035
 31
0.0
 11
-53.4892621669
 21
24.488134214
 31
0.0
 11
-53.4892124125
 21
24.4848614432
 31
0.0
 11
-53.489167027
 21
24.4810119887
 31
0.0
 11
-53.4891261157
 21
24.4765958229
 31
0.0
 11
-53.489058117
 21
24.4661060382
 31
0.0
 11
-53.4890090727
 21
24.4534933362
 31
0.0
 11
-53.4889794568
 21
24.4388786668
 31
0.0
 11
-53.4889695543
 21
24.4224029558
 31
0.0
 11
-53.4889794568
 21
24.4042251386
 31
0.0
 11
-53.4890090725
 21
24.384519944
 31
0.0
 11
-53.4891261155
 21
24.3412994718
 31
0.0
 11
-53.4893161719
 21
24.2944044496
 31
0.0
 11
-53.4895719631
 21
24.2456323968
 31
0.0
  0
SPLINE
  5
5C6
100
AcDbEntity
  8
0
100
AcDbSpline
 62
253
  6
CONTINUOUS
 70
0
 71
3
 72
26
 73
22
 74
20
 42
0.0000001
 43
0.0000001
 44
0.0000000001
 12
0.124641584
 22
0.2158928633
 32
0.0
 13
-0.2158910366
 23
0.1246447481
 33
0.0
 40
0.0
 40
0.0
 40
0.0
 40
0.0
 40
0.1952373303
 40
0.3828767077
 40
0.5557522251
 40
0.6345529812
 40
0.7072370395
 40
0.7731083627
 40
0.8315339236
 40
0.8819525002
 40
0.9238825542
 40
0.9415345305
 40
0.9569212142
 40
0.9700029891
 40
0.9807505739
 40
0.9891391978
 40
0.995146544
 40
0.9972538066
 40
0.998762781
 40
0.999674324
 40
1.0
 40
1.0
 40
1.0
 40
1.0
 10
-53.4895719631
 20
-23.8443375673
 30
0.0
 10
-53.4814603997
 20
-23.8302874519
 30
0.0
 10
-53.4655663218
 20
-23.8027262774
 30
0.0
 10
-53.4425362414
 20
-23.7626974533
 30
0.0
 10
-53.4243669125
 20
-23.7310346265
 30
0.0
 10
-53.4109772536
 20
-23.7076424792
 30
0.0
 10
-53.4020176153
 20
-23.6919598769
 30
0.0
 10
-53.39391172
 20
-23.6777394743
 30
0.0
 10
-53.3867372256
 20
-23.6651178092
 30
0.0
 10
-53.380562927
 20
-23.6542160446
 30
0.0
 10
-53.3760750318
 20
-23.6462528745
 30
0.0
 10
-53.373030491
 20
-23.6408180094
 30
0.0
 10
-53.3711643665
 20
-23.6374702721
 30
0.0
 10
-53.3695865725
 20
-23.6346199025
 30
0.0
 10
-53.3682972962
 20
-23.6322710383
 30
0.0
 10
-53.3673084833
 20
-23.630436974
 30
0.0
 10
-53.3666585764
 20
-23.6292158934
 30
0.0
 10
-53.3663109319
 20
-23.6285132654
 30
0.0
 10
-53.3661273617
 20
-23.6281552612
 30
0.0
 10
-53.3660743302
 20
-23.627979116
 30
0.0
 10
-53.3660029591
 20
-23.6278447476
 30
0.0
 10
-53.3660263959
 20
-23.6278312164
 30
0.0
 11
-53.4895719631
 21
-23.8443375673
 31
0.0
 11
-53.4652581599
 21
-23.8021751692
 31
0.0
 11
-53.4419323668
 21
-23.7616295068
 31
0.0
 11
-53.4204854136
 21
-23.7242490603
 31
0.0
 11
-53.4107271815
 21
-23.7071999685
 31
0.0
 11
-53.4017394698
 21
-23.6914667969
 31
0.0
 11
-53.3936083513
 21
-23.6772002239
 31
0.0
 11
-53.3864119794
 21
-23.6645373679
 31
0.0
 11
-53.3802194954
 21
-23.6535998903
 31
0.0
 11
-53.3750900624
 21
-23.6444922937
 31
0.0
 11
-53.3729398993
 21
-23.6406529215
 31
0.0
 11
-53.3710730064
 21
-23.6373021601
 31
0.0
 11
-53.369494212
 21
-23.6344486533
 31
0.0
 11
-53.3682070656
 21
-23.632098826
 31
0.0
 11
-53.3672145721
 21
-23.6302581585
 31
0.0
 11
-53.3665194709
 21
-23.6289316801
 31
0.0
 11
-53.3662838931
 21
-23.6284621457
 31
0.0
 11
-53.3661231133
 21
-23.628122065
 31
0.0
 11
-53.3660372435
 21
-23.627911676
 31
0.0
 11
-53.3660263959
 21
-23.6278312164
 31
0.0
  0
LINE
  5
5C7
100
AcDbEntity
  8
0
100
AcDbLine
 62
7
  6
CONTINUOUS
 10
-54.2410263959
 20
24.5
 11
-54.2410263959
 21
24.2500042308
  0
SPLINE
  5
5C8
100
AcDbEntity
  8
0
100
AcDbSpline
 62
253
  6
CONTINUOUS
 70
0
 71
3
 72
26
 73
22
 74
20
 42
0.0000001
 43
0.0000001
 44
0.0000000001
 12
-0.2500094788
 22
-0.0014545126
 32
0.0
 13
0.0014544634
 23
-0.2500094791
 33
0.0
 40
0.0
 40
0.0
 40
0.0
 40
0.0
 40
0.0003335562
 40
0.0012485491
 40
0.002760334
 40
0.0048703807
 40
0.0108839043
 40
0.0192799462
 40
0.0300363018
 40
0.0431281863
 40
0.0585262415
 40
0.0761907094
 40
0.1181484384
 40
0.1685968697
 40
0.2270524715
 40
0.2929517109
 40
0.3656589972
 40
0.4444755363
 40
0.6173485454
 40
0.8049198518
 40
1.0
 40
1.0
 40
1.0
 40
1.0
 10
-56.4924808288
 20
24.4869014213
 30
0.0
 10
-56.4925086262
 20
24.4869012596
 30
0.0
 10
-56.4925218633
 20
24.4867511326
 30
0.0
 10
-56.4925623091
 20
24.4865676007
 30
0.0
 10
-56.492587267
 20
24.4861658338
 30
0.0
 10
-56.4926383178
 20
24.4853792671
 30
0.0
 10
-56.4926872898
 20
24.4839922486
 30
0.0
 10
-56.4927444419
 20
24.4819010943
 30
0.0
 10
-56.4927961034
 20
24.4792123186
 30
0.0
 10
-56.4928449395
 20
24.475942723
 30
0.0
 10
-56.4928894054
 20
24.472096308
 30
0.0
 10
-56.4929464409
 20
24.4658446414
 30
0.0
 10
-56.4930028836
 20
24.4566716767
 30
0.0
 10
-56.4930497193
 20
24.4440992806
 30
0.0
 10
-56.4930777019
 20
24.4295315538
 30
0.0
 10
-56.4930864759
 20
24.4131088105
 30
0.0
 10
-56.4930757876
 20
24.3949892272
 30
0.0
 10
-56.4930342433
 20
24.3679547043
 30
0.0
 10
-56.4929322589
 20
24.3313477526
 30
0.0
 10
-56.4927430125
 20
24.2850518854
 30
0.0
 10
-56.4925754077
 20
24.2531629475
 30
0.0
 10
-56.4924808288
 20
24.2369056521
 30
0.0
 11
-56.4924808288
 21
24.4869014213
 31
0.0
 11
-56.4925160599
 21
24.4868258351
 31
0.0
 11
-56.4925504075
 21
24.4865996677
 31
0.0
 11
-56.4925838478
 21
24.4862231829
 31
0.0
 11
-56.492616357
 21
24.4856966449
 31
0.0
 11
-56.4926784866
 21
24.4841944659
 31
0.0
 11
-56.4927366199
 21
24.4820961454
 31
0.0
 11
-56.4927906253
 21
24.4794074514
 31
0.0
 11
-56.4928403797
 21
24.4761346789
 31
0.0
 11
-56.4928857651
 21
24.4722852216
 31
0.0
 11
-56.4929266763
 21
24.4678690519
 31
0.0
 11
-56.492994675
 21
24.4573792648
 31
0.0
 11
-56.4930437193
 21
24.4447665607
 31
0.0
 11
-56.493073335
 21
24.4301518888
 31
0.0
 11
-56.4930832376
 21
24.4136761785
 31
0.0
 11
-56.493073335
 21
24.3954983628
 31
0.0
 11
-56.4930437193
 21
24.3757931698
 31
0.0
 11
-56.4929266763
 21
24.3325727059
 31
0.0
 11
-56.4927366199
 21
24.2856776929
 31
0.0
 11
-56.4924808288
 21
24.2369056521
 31
0.0
  0
ELLIPSE
  5
5C9
100
AcDbEntity
  8
0
100
AcDbEllipse
 62
7
  6
CONTINUOUS
 10
10.0997818813
 20
-22.3842776662
 30
0.0
 11
0.2
 21
0.0
 31
0.0
 40
0.0524077793
 41
-0.0
 42
1.5707963268
  0
ELLIPSE
  5
5CA
100
AcDbEntity
  8
0
100
AcDbEllipse
 62
7
  6
CONTINUOUS
 10
12.4997818813
 20
-22.3842776662
 30
0.0
 11
0.2
 21
0.0
 31
0.0
 40
0.0524077793
 41
1.5707963268
 42
3.1415926536
  0
ELLIPSE
  5
5CB
100
AcDbEntity
  8
0
100
AcDbEllipse
 62
7
  6
CONTINUOUS
 10
10.0997818813
 20
22.3842776662
 30
0.0
 11
0.2
 21
-0.0
 31
0.0
 40
0.0524077793
 41
-1.5707963268
 42
0.0
  0
ELLIPSE
  5
5CC
100
AcDbEntity
  8
0
100
AcDbEllipse
 62
7
  6
CONTINUOUS
 10
12.4997818813
 20
22.3842776662
 30
0.0
 11
0.2
 21
-0.0
 31
0.0
 40
0.0524077793
 41
-3.1415926536
 42
-1.5707963268
  0
ELLIPSE
  5
5CD
100
AcDbEntity
  8
0
100
AcDbEllipse
 62
7
  6
CONTINUOUS
 10
1.4070583994
 20
-22.3344902759
 30
0.0
 11
0.25
 21
-0.0
 31
0.0
 40
0.0524077793
 41
1.5707963268
 42
3.1357748894
  0
ELLIPSE
  5
5CE
100
AcDbEntity
  8
0
100
AcDbEllipse
 62
7
  6
CONTINUOUS
 10
3.7925053632
 20
-22.3344902759
 30
0.0
 11
0.25
 21
-0.0
 31
0.0
 40
0.0524077793
 41
0.0058177642
 42
1.5707963268
  0
ELLIPSE
  5
5CF
100
AcDbEntity
  8
0
100
AcDbEllipse
 62
7
  6
CONTINUOUS
 10
21.1925053632
 20
-22.3344902759
 30
0.0
 11
0.25
 21
0.0
 31
0.0
 40
0.0524077793
 41
0.0058177642
 42
1.5707963268
  0
ELLIPSE
  5
5D0
100
AcDbEntity
  8
0
100
AcDbEllipse
 62
7
  6
CONTINUOUS
 10
18.8070583994
 20
-22.3344902759
 30
0.0
 11
0.25
 21
0.0
 31
0.0
 40
0.0524077793
 41
1.5707963268
 42
3.1357748894
  0
ELLIPSE
  5
5D1
100
AcDbEntity
  8
0
100
AcDbEllipse
 62
7
  6
CONTINUOUS
 10
1.4070583994
 20
22.3344902759
 30
0.0
 11
0.25
 21
0.0
 31
0.0
 40
0.0524077793
 41
-3.1357748894
 42
-1.5707963268
  0
ELLIPSE
  5
5D2
100
AcDbEntity
  8
0
100
AcDbEllipse
 62
7
  6
CONTINUOUS
 10
3.7925053632
 20
22.3344902759
 30
0.0
 11
0.25
 21
0.0
 31
0.0
 40
0.0524077793
 41
-1.5707963268
 42
-0.0058177642
  0
ELLIPSE
  5
5D3
100
AcDbEntity
  8
0
100
AcDbEllipse
 62
7
  6
CONTINUOUS
 10
18.8070583994
 20
22.3344902759
 30
0.0
 11
0.25
 21
0.0
 31
0.0
 40
0.0524077793
 41
-3.1357748894
 42
-1.5707963268
  0
ELLIPSE
  5
5D4
100
AcDbEntity
  8
0
100
AcDbEllipse
 62
7
  6
CONTINUOUS
 10
21.1925053632
 20
22.3344902759
 30
0.0
 11
0.25
 21
-0.0
 31
0.0
 40
0.0524077793
 41
-1.5707963268
 42
-0.0058177642
  0
ELLIPSE
  5
5D5
100
AcDbEntity
  8
0
100
AcDbEllipse
 62
7
  6
CONTINUOUS
 10
0.676913396
 20
21.8207021581
 30
0.0
 11
-0.1582391023
 21
0.4751033573
 31
0.0
 40
0.9984778551
 41
-0.3210503496
 42
0.4197925958
  0
ELLIPSE
  5
5D6
100
AcDbEntity
  8
0
100
AcDbEllipse
 62
7
  6
CONTINUOUS
 10
21.9226503666
 20
21.8207021581
 30
0.0
 11
0.1582391023
 21
0.4751033573
 31
0.0
 40
0.9984778551
 41
-1.2488325878
 42
0.3210503496
  0
ELLIPSE
  5
5D7
100
AcDbEntity
  8
0
100
AcDbEllipse
 62
7
  6
CONTINUOUS
 10
21.9226503666
 20
-21.8207021581
 30
0.0
 11
-0.1582391023
 21
0.4751033573
 31
0.0
 40
0.9984778551
 41
-3.4626430032
 42
-1.8927600658
  0
ELLIPSE
  5
5D8
100
AcDbEntity
  8
0
100
AcDbEllipse
 62
7
  6
CONTINUOUS
 10
0.676913396
 20
-21.8207021581
 30
0.0
 11
-0.1582391023
 21
-0.4751033573
 31
0.0
 40
0.9984778551
 41
-0.7660200112
 42
0.3210503496
  0
ELLIPSE
  5
5D9
100
AcDbEntity
  8
0
100
AcDbEllipse
 62
7
  6
CONTINUOUS
 10
-10.0002181187
 20
22.3842776662
 30
0.0
 11
0.2
 21
-0.0
 31
0.0
 40
0.0524077793
 41
-3.1415926536
 42
-1.5707963268
  0
ELLIPSE
  5
5DA
100
AcDbEntity
  8
0
100
AcDbEllipse
 62
7
  6
CONTINUOUS
 10
-12.4002181187
 20
22.3842776662
 30
0.0
 11
0.2
 21
0.0
 31
0.0
 40
0.0524077793
 41
-1.5707963268
 42
0.0
  0
ELLIPSE
  5
5DB
100
AcDbEntity
  8
0
100
AcDbEllipse
 62
7
  6
CONTINUOUS
 10
-10.0002181187
 20
-22.3842776662
 30
0.0
 11
0.2
 21
-0.0
 31
0.0
 40
0.0524077793
 41
1.5707963268
 42
3.1415926536
  0
ELLIPSE
  5
5DC
100
AcDbEntity
  8
0
100
AcDbEllipse
 62
7
  6
CONTINUOUS
 10
-12.4002181187
 20
-22.3842776662
 30
0.0
 11
0.2
 21
-0.0
 31
0.0
 40
0.0524077793
 41
0.0
 42
1.5707963268
  0
ELLIPSE
  5
5DD
100
AcDbEntity
  8
0
100
AcDbEllipse
 62
7
  6
CONTINUOUS
 10
-1.3074946368
 20
22.3344902759
 30
0.0
 11
0.25
 21
0.0
 31
0.0
 40
0.0524077793
 41
-1.5707963268
 42
-0.0058177642
  0
ELLIPSE
  5
5DE
100
AcDbEntity
  8
0
100
AcDbEllipse
 62
7
  6
CONTINUOUS
 10
-3.6929416006
 20
22.3344902759
 30
0.0
 11
0.25
 21
0.0
 31
0.0
 40
0.0524077793
 41
-3.1357748894
 42
-1.5707963268
  0
ELLIPSE
  5
5DF
100
AcDbEntity
  8
0
100
AcDbEllipse
 62
7
  6
CONTINUOUS
 10
-21.0929416006
 20
22.3344902759
 30
0.0
 11
0.25
 21
0.0
 31
0.0
 40
0.0524077793
 41
-3.1357748894
 42
-1.5707963268
  0
ELLIPSE
  5
5E0
100
AcDbEntity
  8
0
100
AcDbEllipse
 62
7
  6
CONTINUOUS
 10
-18.7074946368
 20
22.3344902759
 30
0.0
 11
0.25
 21
0.0
 31
0.0
 40
0.0524077793
 41
-1.5707963268
 42
-0.0058177642
  0
ELLIPSE
  5
5E1
100
AcDbEntity
  8
0
100
AcDbEllipse
 62
7
  6
CONTINUOUS
 10
-0.5773496334
 20
21.8207021581
 30
0.0
 11
0.1582391023
 21
0.4751033573
 31
0.0
 40
0.9984778551
 41
-0.4197925958
 42
0.3210503496
  0
ELLIPSE
  5
5E2
100
AcDbEntity
  8
0
100
AcDbEllipse
 62
7
  6
CONTINUOUS
 10
-21.823086604
 20
21.8207021581
 30
0.0
 11
-0.1582391023
 21
0.4751033573
 31
0.0
 40
0.9984778551
 41
-0.3210503496
 42
1.2488325878
  0
ELLIPSE
  5
5E3
100
AcDbEntity
  8
0
100
AcDbEllipse
 62
7
  6
CONTINUOUS
 10
-21.823086604
 20
-21.8207021581
 30
0.0
 11
-0.1582391023
 21
-0.4751033573
 31
0.0
 40
0.9984778551
 41
-1.2488325878
 42
0.3210503496
  0
ELLIPSE
  5
5E4
100
AcDbEntity
  8
0
100
AcDbEllipse
 62
7
  6
CONTINUOUS
 10
-0.5773496334
 20
-21.8207021581
 30
0.0
 11
-0.1582391023
 21
0.4751033573
 31
0.0
 40
0.9984778551
 41
-3.4626430032
 42
-2.3755726424
  0
ELLIPSE
  5
5E5
100
AcDbEntity
  8
0
100
AcDbEllipse
 62
7
  6
CONTINUOUS
 10
-1.3074946368
 20
-22.3344902759
 30
0.0
 11
0.25
 21
-0.0
 31
0.0
 40
0.0524077793
 41
0.0058177642
 42
1.5707963268
  0
ELLIPSE
  5
5E6
100
AcDbEntity
  8
0
100
AcDbEllipse
 62
7
  6
CONTINUOUS
 10
-3.6929416006
 20
-22.3344902759
 30
0.0
 11
0.25
 21
0.0
 31
0.0
 40
0.0524077793
 41
1.5707963268
 42
3.1357748894
  0
ELLIPSE
  5
5E7
100
AcDbEntity
  8
0
100
AcDbEllipse
 62
7
  6
CONTINUOUS
 10
-18.7074946368
 20
-22.3344902759
 30
0.0
 11
0.25
 21
0.0
 31
0.0
 40
0.0524077793
 41
0.0058177642
 42
1.5707963268
  0
ELLIPSE
  5
5E8
100
AcDbEntity
  8
0
100
AcDbEllipse
 62
7
  6
CONTINUOUS
 10
-21.0929416006
 20
-22.3344902759
 30
0.0
 11
0.25
 21
0.0
 31
0.0
 40
0.0524077793
 41
1.5707963268
 42
3.1357748894
  0
ELLIPSE
  5
5E9
100
AcDbEntity
  8
RACCORDO
100
AcDbEllipse
 62
7
  6
CONTINUOUS
 10
-21.6000467224
 20
-21.44985409
 30
0.0
 11
0.4868463568
 21
0.1148583403
 31
0.0
 40
0.9984681069
 41
2.9102483898
 42
3.6946197803
  0
ELLIPSE
  5
5EA
100
AcDbEntity
  8
RACCORDO
100
AcDbEllipse
 62
7
  6
CONTINUOUS
 10
21.6996104851
 20
21.6905994887
 30
0.0
 11
0.4868463568
 21
0.1148583403
 31
0.0
 40
0.9984681069
 41
-0.2313442638
 42
1.3387668303
  0
ELLIPSE
  5
5EB
100
AcDbEntity
  8
RACCORDO
100
AcDbEllipse
 62
7
  6
CONTINUOUS
 10
21.6996104851
 20
-21.44985409
 30
0.0
 11
0.4868463568
 21
-0.1148583403
 31
0.0
 40
0.9984681069
 41
-0.5530271267
 42
0.2313442638
  0
ELLIPSE
  5
5EC
100
AcDbEntity
  8
RACCORDO
100
AcDbEllipse
 62
7
  6
CONTINUOUS
 10
-21.6000467224
 20
21.6905994887
 30
0.0
 11
0.4868463568
 21
-0.1148583403
 31
0.0
 40
0.9984681069
 41
1.8028258233
 42
3.3729369174
  0
ELLIPSE
  5
5ED
100
AcDbEntity
  8
0
100
AcDbEllipse
 62
7
  6
CONTINUOUS
 10
-69.3210786987
 20
16.5
 30
0.0
 11
11.4300523028
 21
0.0
 31
0.0
 40
0.0874886635
 41
0.3880870514
 42
0.406692083
  0
ELLIPSE
  5
5EE
100
AcDbEntity
  8
0
100
AcDbEllipse
 62
7
  6
CONTINUOUS
 10
-69.3210786987
 20
16.5
 30
0.0
 11
11.4300523028
 21
0.0
 31
0.0
 40
0.0874886635
 41
-0.3975224166
 42
-0.3868578693
  0
ELLIPSE
  5
5EF
100
AcDbEntity
  8
RACCORDO
100
AcDbEllipse
 62
7
  6
CONTINUOUS
 10
113.8998623333
 20
12.1
 30
0.0
 11
160.4118925661
 21
-0.0
 31
0.0
 40
0.0174550649
 41
2.6637077142
 42
3.619477593
  0
ELLIPSE
  5
5F0
100
AcDbEntity
  8
0
100
AcDbEllipse
 62
7
  6
CONTINUOUS
 10
-42.7410263959
 20
22.0833543458
 30
0.0
 11
0.049268809
 21
0.4975666633
 31
0.0
 40
1.0
 41
-3.0254415811
 42
-2.1268937423
  0
ELLIPSE
  5
5F1
100
AcDbEntity
  8
0
100
AcDbEllipse
 62
7
  6
CONTINUOUS
 10
-42.7410263959
 20
-22.0833543458
 30
0.0
 11
-0.0367364561
 21
0.4986486065
 31
0.0
 40
1.0
 41
-0.989540309
 42
-0.0909924702
  0
ELLIPSE
  5
5F2
100
AcDbEntity
  8
0
100
AcDbEllipse
 62
7
  6
CONTINUOUS
 10
23.1074032801
 20
-23.15
 30
0.0
 11
85.9426996401
 21
-0.0
 31
0.0
 40
0.0058178298
 41
2.5196231925
 42
2.6905658418
  0
ELLIPSE
  5
5F3
100
AcDbEntity
  8
0
100
AcDbEllipse
 62
7
  6
CONTINUOUS
 10
23.1074032801
 20
-23.15
 30
0.0
 11
85.9426996401
 21
0.0
 31
0.0
 40
0.0058178298
 41
-2.6791261215
 42
-2.5196231925
  0
ELLIPSE
  5
5F4
100
AcDbEntity
  8
0
100
AcDbEllipse
 62
7
  6
CONTINUOUS
 10
23.1074032801
 20
23.15
 30
0.0
 11
85.9426996401
 21
0.0
 31
0.0
 40
0.0058178298
 41
2.5196231925
 42
2.6791261215
  0
ELLIPSE
  5
5F5
100
AcDbEntity
  8
0
100
AcDbEllipse
 62
7
  6
CONTINUOUS
 10
23.1074032801
 20
23.15
 30
0.0
 11
85.9426996401
 21
-0.0
 31
0.0
 40
0.0058178298
 41
-2.6905658418
 42
-2.5196231925
  0
ENDSEC
  0
SECTION
  2
OBJECTS
  0
DICTIONARY
  5
C
100
AcDbDictionary
280
0
281
1
  3
ACAD_GROUP
350
D
  3
ACAD_MLINESTYLE
350
17
  3
ACAD_LAYOUT
350
1A
  3
ACAD_PLOTSETTINGS
350
19
  3
ACAD_PLOTSTYLENAME
350
E
  0
DICTIONARY
  5
D
102
{ACAD_REACTORS
330
C
102
}
100
AcDbDictionary
280
0
281
1
  0
ACDBDICTIONARYWDFLT
  5
E
102
{ACAD_REACTORS
330
C
102
}
100
AcDbDictionary
281
1
  3
Normal
350
F
100
AcDbDictionaryWithDefault
340
F
  0
DICTIONARY
  5
17
102
{ACAD_REACTORS
330
C
102
}
100
AcDbDictionary
280
0
281
1
  3
Standard
350
18
  0
DICTIONARY
  5
19
102
{ACAD_REACTORS
330
C
102
}
100
AcDbDictionary
281
1
  0
DICTIONARY
  5
1A
102
{ACAD_REACTORS
330
C
102
}
100
AcDbDictionary
281
1
  3
Model
350
5F6
  3
Layout1
350
5F7
  0
ACDBPLACEHOLDER
  5
F
102
{ACAD_REACTORS
330
E
102
}
  0
MLINESTYLE
  5
18
102
{ACAD_REACTORS
330
17
102
}
100
AcDbMlineStyle
  2
STANDARD
 70
0
  3

 62
256
 51
90.0
 52
90.0
 71
2
 49
0.5
 62
256
  6
BYLAYER
 49
-0.5
 62
256
  6
BYLAYER
  0
LAYOUT
  5
5F6
102
{ACAD_REACTORS
330
1A
102
}
100
AcDbPlotSettings
  1

  2
none_device
  4
ISO_A4_(297.00_x_210.00_MM)
  6

 40
0.0
 41
0.0
 42
0.0
 43
0.0
 44
297.0
 45
210.0
 46
0.0
 47
0.0
 48
0.0
 49
0.0
140
0.0
141
0.0
142
1.0
143
1.0
 70
1024
 72
1
 73
0
 74
0
  7

 75
0
147
1.0
148
0.0
149
0.0
100
AcDbLayout
  1
Model
 70
0
 71
0
 10
0.0
 20
0.0
 11
297.0
 21
210.0
 12
0.0
 22
0.0
 32
0.0
 14
0.0
 24
0.0
 34
0.0
 15
0.0
 25
0.0
 35
0.0
146
0.0
 13
0.0
 23
0.0
 33
0.0
 16
1.0
 26
0.0
 36
0.0
 17
0.0
 27
1.0
 37
0.0
 76
0
330
21C
345
0
346
0
  0
LAYOUT
  5
5F7
102
{ACAD_REACTORS
330
1A
102
}
100
AcDbPlotSettings
  1

  2
none_device
  4
ISO_A4_(297.00_x_210.00_MM)
  6

 40
0.0
 41
0.0
 42
0.0
 43
0.0
 44
297.0
 45
210.0
 46
0.0
 47
0.0
 48
0.0
 49
0.0
140
0.0
141
0.0
142
1.0
143
1.0
 70
0
 72
1
 73
0
 74
0
  7

 75
0
147
1.0
148
0.0
149
0.0
100
AcDbLayout
  1
Layout1
 70
0
 71
1
 10
0.0
 20
0.0
 11
297.0
 21
210.0
 12
0.0
 22
0.0
 32
0.0
 14
0.0
 24
0.0
 34
0.0
 15
0.0
 25
0.0
 35
0.0
146
0.0
 13
0.0
 23
0.0
 33
0.0
 16
1.0
 26
0.0
 36
0.0
 17
0.0
 27
1.0
 37
0.0
 76
0
330
21D
345
0
346
0
  0
ENDSEC
  0
EOF
