  0
SECTION
  2
HEADER
  9
$ACADVER
  1
AC1015
  9
$DWGCODEPAGE
  3
ANSI_1252
  9
$EXTMAX
 10
297.0
 20
210.0
 30
0.0
  9
$EXTMIN
 10
0.0
 20
0.0
 30
0.0
  9
$LIMMIN
 10
0.0
 20
0.0
  9
$LIMMAX
 10
297.0
 20
210.0
  9
$VIEWCTR
 10
148.5
 20
105.0
  9
$VIEWSIZE
 40
210.0
  9
$CLAYER
  8
0
  9
$LTSCALE
 40
16.335
  9
$CELTYPE
  6
BYLAYER
  9
$DIMSCALE
 40
1.0
  9
$DIMASZ
 40
3.0
  9
$DIMEXO
 40
1.85625
  9
$DIMDLI
 40
11.286
  9
$DIMEXE
 40
5.346
  9
$DIMCEN
 40
2.673
  9
$DIMLFAC
 40
1.0
  9
$DIMBLK
  1
_FILLED
  9
$DIMTXT
 40
3.0
  9
$DIMTOL
 70
1
  9
$DIMLIM
 70
0
  9
$DIMTFAC
 40
1.0
  9
$DIMTP
 40
0.01
  9
$DIMTM
 40
0.01
  9
$PDMODE
 70
3
  9
$PDSIZE
 40
3.0
  9
$HANDSEED
  5
5B4
  9
$TILEMODE
 70
1
  9
$MEASUREMENT
 70
1
  9
$INSUNITS
 70
4
  0
ENDSEC
  0
SECTION
  2
CLASSES
  0
CLASS
  1
ACDBDICTIONARYWDFLT
  2
AcDbDictionaryWithDefault
  3
AutoCAD 2000
 90
0
280
0
281
0
  0
CLASS
  1
ACDBPLACEHOLDER
  2
AcDbPlaceHolder
  3
AutoCAD 2000
 90
0
280
0
281
0
  0
CLASS
  1
LAYOUT
  2
AcDbLayout
  3
AutoCAD 2000
 90
0
280
0
281
0
  0
ENDSEC
  0
SECTION
  2
TABLES
  0
TABLE
  2
VPORT
  5
8
100
AcDbSymbolTable
 70
2
  0
VPORT
  5
1F4
100
AcDbSymbolTableRecord
100
AcDbViewportTableRecord
  2
*ACTIVE
 70
0
 10
0.0
 20
0.0
 11
1.0
 21
1.0
 12
148.5
 22
105.0
 13
0.0
 23
0.0
 14
1.0
 24
1.0
 15
0.0
 25
0.0
 16
0.0
 26
0.0
 36
1.0
 17
0.0
 27
0.0
 37
0.0
 40
210.0
 41
1.4142857143
 42
50.0
 43
0.0
 44
0.0
 50
0.0
 51
0.0
 71
0
 72
100
 73
1
 74
1
 75
0
 76
0
 77
0
 78
0
  0
ENDTAB
  0
TABLE
  2
LTYPE
  5
5
100
AcDbSymbolTable
 70
6
  0
LTYPE
  5
14
100
AcDbSymbolTableRecord
100
AcDbLinetypeTableRecord
  2
BYBLOCK
 70
0
  3

 72
65
 73
0
 40
0.0
  0
LTYPE
  5
15
100
AcDbSymbolTableRecord
100
AcDbLinetypeTableRecord
  2
BYLAYER
 70
0
  3

 72
65
 73
0
 40
0.0
  0
LTYPE
  5
16
100
AcDbSymbolTableRecord
100
AcDbLinetypeTableRecord
  2
CONTINUOUS
 70
64
  3
Solid line
 72
65
 73
0
 40
0.0
  0
LTYPE
  5
1F5
100
AcDbSymbolTableRecord
100
AcDbLinetypeTableRecord
  2
CENTER
 70
64
  3
____ _ ____ _ ____ _ ____ _ ____ _ ____ _ ____
 72
65
 73
4
 40
0.6
 49
0.375
 74
0
 49
-0.075
 74
0
 49
0.075
 74
0
 49
-0.075
 74
0
  0
LTYPE
  5
1F6
100
AcDbSymbolTableRecord
100
AcDbLinetypeTableRecord
  2
HIDDEN
 70
64
  3
- - - - - - - - - - - - - - - - - - - -
 72
65
 73
2
 40
0.2
 49
0.1
 74
0
 49
-0.1
 74
0
  0
LTYPE
  5
1F7
100
AcDbSymbolTableRecord
100
AcDbLinetypeTableRecord
  2
PHANTOM
 70
64
  3
_____ _ _ _____ _ _ _____ _ _ _____
 72
65
 73
6
 40
0.8
 49
0.45
 74
0
 49
-0.05
 74
0
 49
0.1
 74
0
 49
-0.05
 74
0
 49
0.1
 74
0
 49
-0.05
 74
0
  0
LTYPE
  5
1F8
100
AcDbSymbolTableRecord
100
AcDbLinetypeTableRecord
  2
DOT
 70
64
  3
. . . . . . . . . . . . . . . . . . . .
 72
65
 73
2
 40
0.2
 49
0.1
 74
0
 49
-0.1
 74
0
  0
LTYPE
  5
1F9
100
AcDbSymbolTableRecord
100
AcDbLinetypeTableRecord
  2
DASHED
 70
64
  3
- - - - - - - - - - - - - - - - - - - -
 72
65
 73
2
 40
0.2
 49
0.1
 74
0
 49
-0.1
 74
0
  0
ENDTAB
  0
TABLE
  2
LAYER
  5
2
100
AcDbSymbolTable
 70
36
  0
LAYER
  5
10
100
AcDbSymbolTableRecord
100
AcDbLayerTableRecord
  2
0
 70
0
 62
7
  6
CONTINUOUS
370
-3
390
F
  0
LAYER
  5
1FA
100
AcDbSymbolTableRecord
100
AcDbLayerTableRecord
  2
DEFAULT_1
 70
0
 62
7
  6
CENTER
370
-3
390
F
  0
LAYER
  5
1FB
100
AcDbSymbolTableRecord
100
AcDbLayerTableRecord
  2
DEFAULT_2
 70
0
 62
7
  6
HIDDEN
370
-3
390
F
  0
LAYER
  5
1FC
100
AcDbSymbolTableRecord
100
AcDbLayerTableRecord
  2
DEFAULT_3
 70
0
 62
7
  6
PHANTOM
370
-3
390
F
  0
LAYER
  5
1FD
100
AcDbSymbolTableRecord
100
AcDbLayerTableRecord
  2
ASSI
 70
0
 62
7
  6
CONTINUOUS
370
-3
390
F
  0
LAYER
  5
1FE
100
AcDbSymbolTableRecord
100
AcDbLayerTableRecord
  2
COORDINATE
 70
0
 62
7
  6
CONTINUOUS
370
-3
390
F
  0
LAYER
  5
1FF
100
AcDbSymbolTableRecord
100
AcDbLayerTableRecord
  2
COORD_ORIGINE
 70
0
 62
7
  6
CONTINUOUS
370
-3
390
F
  0
LAYER
  5
200
100
AcDbSymbolTableRecord
100
AcDbLayerTableRecord
  2
COPY_PUBLISH
 70
0
 62
7
  6
CONTINUOUS
370
-3
390
F
  0
LAYER
  5
201
100
AcDbSymbolTableRecord
100
AcDbLayerTableRecord
  2
COSMETIC
 70
0
 62
7
  6
CONTINUOUS
370
-3
390
F
  0
LAYER
  5
202
100
AcDbSymbolTableRecord
100
AcDbLayerTableRecord
  2
COSMETICI
 70
0
 62
7
  6
CONTINUOUS
370
-3
390
F
  0
LAYER
  5
203
100
AcDbSymbolTableRecord
100
AcDbLayerTableRecord
  2
CURVE
 70
0
 62
7
  6
CONTINUOUS
370
-3
390
F
  0
LAYER
  5
204
100
AcDbSymbolTableRecord
100
AcDbLayerTableRecord
  2
DRAFT
 70
0
 62
7
  6
CONTINUOUS
370
-3
390
F
  0
LAYER
  5
205
100
AcDbSymbolTableRecord
100
AcDbLayerTableRecord
  2
IMPORT
 70
0
 62
7
  6
CONTINUOUS
370
-3
390
F
  0
LAYER
  5
206
100
AcDbSymbolTableRecord
100
AcDbLayerTableRecord
  2
IMPORT_IGES
 70
0
 62
7
  6
CONTINUOUS
370
-3
390
F
  0
LAYER
  5
207
100
AcDbSymbolTableRecord
100
AcDbLayerTableRecord
  2
NOTE
 70
0
 62
7
  6
CONTINUOUS
370
-3
390
F
  0
LAYER
  5
208
100
AcDbSymbolTableRecord
100
AcDbLayerTableRecord
  2
PIANI
 70
0
 62
7
  6
CONTINUOUS
370
-3
390
F
  0
LAYER
  5
209
100
AcDbSymbolTableRecord
100
AcDbLayerTableRecord
  2
PIANI_ORIGINE
 70
0
 62
7
  6
CONTINUOUS
370
-3
390
F
  0
LAYER
  5
20A
100
AcDbSymbolTableRecord
100
AcDbLayerTableRecord
  2
PIANI_RIFERIMENTO
 70
0
 62
7
  6
CONTINUOUS
370
-3
390
F
  0
LAYER
  5
20B
100
AcDbSymbolTableRecord
100
AcDbLayerTableRecord
  2
PUNTI
 70
0
 62
7
  6
CONTINUOUS
370
-3
390
F
  0
LAYER
  5
20C
100
AcDbSymbolTableRecord
100
AcDbLayerTableRecord
  2
RACCORDO
 70
0
 62
7
  6
CONTINUOUS
370
-3
390
F
  0
LAYER
  5
20D
100
AcDbSymbolTableRecord
100
AcDbLayerTableRecord
  2
SMUSSO
 70
0
 62
7
  6
CONTINUOUS
370
-3
390
F
  0
LAYER
  5
20E
100
AcDbSymbolTableRecord
100
AcDbLayerTableRecord
  2
SNAPLINE
 70
0
 62
7
  6
CONTINUOUS
370
-3
390
F
  0
LAYER
  5
20F
100
AcDbSymbolTableRecord
100
AcDbLayerTableRecord
  2
SUPERFICI
 70
0
 62
7
  6
CONTINUOUS
370
-3
390
F
  0
LAYER
  5
210
100
AcDbSymbolTableRecord
100
AcDbLayerTableRecord
  2
TRASH
 70
0
 62
7
  6
CONTINUOUS
370
-3
390
F
  0
LAYER
  5
211
100
AcDbSymbolTableRecord
100
AcDbLayerTableRecord
  2
XSEC_DATUMS
 70
0
 62
7
  6
CONTINUOUS
370
-3
390
F
  0
ENDTAB
  0
TABLE
  2
STYLE
  5
3
100
AcDbSymbolTable
 70
1
  0
STYLE
  5
11
100
AcDbSymbolTableRecord
100
AcDbTextStyleTableRecord
  2
STANDARD
 70
0
 40
0.0
 41
0.8
 50
0.0
 71
0
 42
0.2
  3
txt
  4

  0
STYLE
  5
212
100
AcDbSymbolTableRecord
100
AcDbTextStyleTableRecord
  2
TEXTSTYLE_1
 70
0
 40
0.0
 41
0.8
 50
0.0
 71
0
 42
0.2
  3
gdt
  4

  0
ENDTAB
  0
TABLE
  2
VIEW
  5
6
100
AcDbSymbolTable
 70
0
  0
ENDTAB
  0
TABLE
  2
UCS
  5
7
100
AcDbSymbolTable
 70
0
  0
ENDTAB
  0
TABLE
  2
APPID
  5
9
100
AcDbSymbolTable
 70
1
  0
APPID
  5
213
100
AcDbSymbolTableRecord
100
AcDbRegAppTableRecord
  2
ACAD
 70
0
  0
ENDTAB
  0
TABLE
  2
BLOCK_RECORD
  5
1
100
AcDbSymbolTable
 70
0
  0
BLOCK_RECORD
  5
214
100
AcDbSymbolTableRecord
100
AcDbBlockTableRecord
  2
*Model_Space
  0
BLOCK_RECORD
  5
215
100
AcDbSymbolTableRecord
100
AcDbBlockTableRecord
  2
*Paper_Space
  0
BLOCK_RECORD
  5
216
100
AcDbSymbolTableRecord
100
AcDbBlockTableRecord
  2
_FILLED
  0
BLOCK_RECORD
  5
217
100
AcDbSymbolTableRecord
100
AcDbBlockTableRecord
  2
*D0
  0
BLOCK_RECORD
  5
218
100
AcDbSymbolTableRecord
100
AcDbBlockTableRecord
  2
*D1
  0
BLOCK_RECORD
  5
219
100
AcDbSymbolTableRecord
100
AcDbBlockTableRecord
  2
*D2
  0
BLOCK_RECORD
  5
21A
100
AcDbSymbolTableRecord
100
AcDbBlockTableRecord
  2
*D3
  0
ENDTAB
  0
TABLE
  2
DIMSTYLE
  5
A
100
AcDbSymbolTable
 70
1
100
AcDbDimStyleTable
 71
0
  0
DIMSTYLE
105
21B
100
AcDbSymbolTableRecord
100
AcDbDimStyleTableRecord
  2
STANDARD
 70
0
  3

  4

 40
1.0
 41
3.0
 42
0.0625
 43
0.38
 44
0.18
 45
0.0
 46
0.0
 47
0.01
 48
0.01
140
3.0
141
0.09
142
0.0
143
25.4
144
1.0
145
0.0
146
1.0
147
0.09
 71
1.0
 72
0.0
 73
0
 74
0
 75
0
 76
0
 77
1
 78
8
170
0
171
2
172
0
173
0
174
0
175
0
176
0
177
0
178
0
270
2
271
2
272
2
273
2
274
2
275
0
280
0
281
0
282
0
283
1
284
8
285
0
286
0
287
3
288
0
340
11
341
216
342
216
343
216
344
216
  0
DIMSTYLE
105
21C
100
AcDbSymbolTableRecord
100
AcDbDimStyleTableRecord
  2
DIMSTYLE_1
 70
0
  3

  4

 40
1.0
 41
3.0
 42
0.0625
 43
0.38
 44
0.18
 45
0.0
 46
0.0
 47
0.0
 48
0.0
140
3.0
141
0.09
142
0.0
143
25.4
144
1.0
145
0.0
146
1.0
147
0.09
 71
0.0
 72
0.0
 73
0
 74
0
 75
0
 76
0
 77
1
 78
8
170
0
171
2
172
0
173
0
174
0
175
0
176
0
177
0
178
0
270
2
271
2
272
2
273
2
274
2
275
0
280
0
281
0
282
0
283
1
284
8
285
0
286
0
287
3
288
0
340
11
341
216
342
216
343
216
344
216
  0
ENDTAB
  0
ENDSEC
  0
SECTION
  2
BLOCKS
  0
BLOCK
  5
20
100
AcDbEntity
  8
0
100
AcDbBlockBegin
  2
*Model_Space
 70
0
 10
0.0
 20
0.0
 30
0.0
  3
*Model_Space
  1

  0
ENDBLK
  5
21
100
AcDbEntity
  8
0
100
AcDbBlockEnd
  0
BLOCK
  5
1C
100
AcDbEntity
  8
0
100
AcDbBlockBegin
  2
*Paper_Space
 70
0
 10
0.0
 20
0.0
 30
0.0
  3
*Paper_Space
  1

  0
ENDBLK
  5
1D
100
AcDbEntity
  8
0
100
AcDbBlockEnd
  0
BLOCK
  5
21D
100
AcDbEntity
  8
0
100
AcDbBlockBegin
  2
_FILLED
 70
64
 10
0.0
 20
0.0
  3
_FILLED
  1

  0
SOLID
  5
21E
100
AcDbEntity
  8
0
  6
BYBLOCK
 62
0
100
AcDbTrace
 10
0.0
 20
0.0
 11
-1.0
 21
0.3166666667
 12
-1.0
 22
-0.3166666667
 13
-1.0
 23
-0.3166666667
  0
ENDBLK
  5
21F
100
AcDbEntity
  8
0
  6
BYBLOCK
 62
0
100
AcDbBlockEnd
  0
BLOCK
  5
220
100
AcDbEntity
  8
0
100
AcDbBlockBegin
 62
7
  6
CONTINUOUS
  2
*D0
 70
65
 10
0.0
 20
0.0
  3
*D0
  1

  0
MTEXT
  5
221
100
AcDbEntity
  8
0
100
AcDbMText
 62
7
  6
CONTINUOUS
  7
STANDARD
 71
2
 72
1
 10
-0.0
 20
36.25
 30
0.0
 11
1.0
 21
0.0
 31
0.0
 44
0.9
  1
44,65
 40
3.0
 41
10.9285714286
  0
LINE
  5
222
100
AcDbEntity
  8
0
100
AcDbLine
 62
7
  6
CONTINUOUS
 10
-22.3252181717
 20
22.1001713375
 11
-22.3252181717
 21
34.0
  0
LINE
  5
223
100
AcDbEntity
  8
0
100
AcDbLine
 62
7
  6
CONTINUOUS
 10
22.3252181717
 20
22.400016923
 11
22.3252181717
 21
34.0
  0
LINE
  5
224
100
AcDbEntity
  8
0
100
AcDbLine
 62
7
  6
CONTINUOUS
 10
-22.3252181717
 20
32.5
 11
-0.0
 21
32.5
  0
LINE
  5
225
100
AcDbEntity
  8
0
100
AcDbLine
 62
7
  6
CONTINUOUS
 10
22.3252181717
 20
32.5
 11
-0.0
 21
32.5
  0
INSERT
  5
226
100
AcDbEntity
  8
0
100
AcDbBlockReference
 62
7
  6
CONTINUOUS
  2
_FILLED
 10
-22.3252181717
 20
32.5
 41
3.0
 42
3.0
 43
3.0
 50
180.0
  0
INSERT
  5
227
100
AcDbEntity
  8
0
100
AcDbBlockReference
 62
7
  6
CONTINUOUS
  2
_FILLED
 10
22.3252181717
 20
32.5
 41
3.0
 42
3.0
 43
3.0
  0
ENDBLK
  5
228
100
AcDbEntity
  8
0
  6
BYBLOCK
 62
0
100
AcDbBlockEnd
  0
BLOCK
  5
229
100
AcDbEntity
  8
0
100
AcDbBlockBegin
 62
7
  6
CONTINUOUS
  2
*D1
 70
65
 10
0.0
 20
0.0
  3
*D1
  1

  0
MTEXT
  5
22A
100
AcDbEntity
  8
0
100
AcDbMText
 62
7
  6
CONTINUOUS
  7
STANDARD
 71
2
 72
1
 10
26.5752181717
 20
-0.0
 30
0.0
 11
0.0
 21
1.0
 31
0.0
 44
0.9
  1
49
 40
3.0
 41
4.7142857143
  0
LINE
  5
22B
100
AcDbEntity
  8
0
100
AcDbLine
 62
7
  6
CONTINUOUS
 10
21.5747860591
 20
24.5
 11
31.8252181717
 21
24.5
  0
LINE
  5
22C
100
AcDbEntity
  8
0
100
AcDbLine
 62
7
  6
CONTINUOUS
 10
19.1747775975
 20
-24.5
 11
31.8252181717
 21
-24.5
  0
LINE
  5
22D
100
AcDbEntity
  8
0
100
AcDbLine
 62
7
  6
CONTINUOUS
 10
30.3252181717
 20
24.5
 11
30.3252181717
 21
0.0
  0
LINE
  5
22E
100
AcDbEntity
  8
0
100
AcDbLine
 62
7
  6
CONTINUOUS
 10
30.3252181717
 20
-24.5
 11
30.3252181717
 21
0.0
  0
INSERT
  5
22F
100
AcDbEntity
  8
0
100
AcDbBlockReference
 62
7
  6
CONTINUOUS
  2
_FILLED
 10
30.3252181717
 20
24.5
 41
3.0
 42
3.0
 43
3.0
 50
90.0
  0
INSERT
  5
230
100
AcDbEntity
  8
0
100
AcDbBlockReference
 62
7
  6
CONTINUOUS
  2
_FILLED
 10
30.3252181717
 20
-24.5
 41
3.0
 42
3.0
 43
3.0
 50
270.0
  0
ENDBLK
  5
231
100
AcDbEntity
  8
0
  6
BYBLOCK
 62
0
100
AcDbBlockEnd
  0
BLOCK
  5
232
100
AcDbEntity
  8
0
100
AcDbBlockBegin
 62
7
  6
CONTINUOUS
  2
*D2
 70
65
 10
0.0
 20
0.0
  3
*D2
  1

  0
MTEXT
  5
233
100
AcDbEntity
  8
0
100
AcDbMText
 62
7
  6
CONTINUOUS
  7
STANDARD
 71
2
 72
1
 10
-38.7252162268
 20
46.25
 30
0.0
 11
1.0
 21
0.0
 31
0.0
 44
0.9
  1
21,7
 40
3.0
 41
8.1428571429
  0
LINE
  5
234
100
AcDbEntity
  8
0
100
AcDbLine
 62
7
  6
CONTINUOUS
 10
-49.5752162268
 20
0.5
 11
-49.5752162268
 21
44.0
  0
LINE
  5
235
100
AcDbEntity
  8
0
100
AcDbLine
 62
7
  6
CONTINUOUS
 10
-27.8752162268
 20
21.4
 11
-27.8752162268
 21
44.0
  0
LINE
  5
236
100
AcDbEntity
  8
0
100
AcDbLine
 62
7
  6
CONTINUOUS
 10
-49.5752162268
 20
42.5
 11
-38.7252162268
 21
42.5
  0
LINE
  5
237
100
AcDbEntity
  8
0
100
AcDbLine
 62
7
  6
CONTINUOUS
 10
-27.8752162268
 20
42.5
 11
-38.7252162268
 21
42.5
  0
INSERT
  5
238
100
AcDbEntity
  8
0
100
AcDbBlockReference
 62
7
  6
CONTINUOUS
  2
_FILLED
 10
-49.5752162268
 20
42.5
 41
3.0
 42
3.0
 43
3.0
 50
180.0
  0
INSERT
  5
239
100
AcDbEntity
  8
0
100
AcDbBlockReference
 62
7
  6
CONTINUOUS
  2
_FILLED
 10
-27.8752162268
 20
42.5
 41
3.0
 42
3.0
 43
3.0
  0
ENDBLK
  5
23A
100
AcDbEntity
  8
0
  6
BYBLOCK
 62
0
100
AcDbBlockEnd
  0
BLOCK
  5
23B
100
AcDbEntity
  8
0
100
AcDbBlockBegin
 62
7
  6
CONTINUOUS
  2
*D3
 70
65
 10
0.0
 20
0.0
  3
*D3
  1

  0
MTEXT
  5
23C
100
AcDbEntity
  8
0
100
AcDbMText
 62
7
  6
CONTINUOUS
  7
STANDARD
 71
2
 72
1
 10
-33.3752162268
 20
36.25
 30
0.0
 11
1.0
 21
0.0
 31
0.0
 44
0.9
  1
11
 40
3.0
 41
3.4285714286
  0
LINE
  5
23D
100
AcDbEntity
  8
0
100
AcDbLine
 62
7
  6
CONTINUOUS
 10
-27.8752162268
 20
21.4
 11
-27.8752162268
 21
34.0
  0
LINE
  5
23E
100
AcDbEntity
  8
0
100
AcDbLine
 62
7
  6
CONTINUOUS
 10
-38.8752162268
 20
24.7456323968
 11
-38.8752162268
 21
34.0
  0
LINE
  5
23F
100
AcDbEntity
  8
0
100
AcDbLine
 62
7
  6
CONTINUOUS
 10
-27.8752162268
 20
32.5
 11
-23.8752162268
 21
32.5
  0
LINE
  5
240
100
AcDbEntity
  8
0
100
AcDbLine
 62
7
  6
CONTINUOUS
 10
-23.8752162268
 20
32.5
 11
-33.3752162268
 21
32.5
  0
LINE
  5
241
100
AcDbEntity
  8
0
100
AcDbLine
 62
7
  6
CONTINUOUS
 10
-38.8752162268
 20
32.5
 11
-42.8752162268
 21
32.5
  0
LINE
  5
242
100
AcDbEntity
  8
0
100
AcDbLine
 62
7
  6
CONTINUOUS
 10
-42.8752162268
 20
32.5
 11
-33.3752162268
 21
32.5
  0
INSERT
  5
243
100
AcDbEntity
  8
0
100
AcDbBlockReference
 62
7
  6
CONTINUOUS
  2
_FILLED
 10
-27.8752162268
 20
32.5
 41
3.0
 42
3.0
 43
3.0
 50
180.0
  0
INSERT
  5
244
100
AcDbEntity
  8
0
100
AcDbBlockReference
 62
7
  6
CONTINUOUS
  2
_FILLED
 10
-38.8752162268
 20
32.5
 41
3.0
 42
3.0
 43
3.0
  0
ENDBLK
  5
245
100
AcDbEntity
  8
0
  6
BYBLOCK
 62
0
100
AcDbBlockEnd
  0
ENDSEC
  0
SECTION
  2
ENTITIES
  0
SPLINE
  5
246
100
AcDbEntity
  8
CURVE
100
AcDbSpline
 62
253
  6
CONTINUOUS
 70
0
 71
3
 72
8
 73
4
 74
0
 42
0.0000001
 43
0.0000001
 44
0.0000000001
 40
0.0
 40
0.0
 40
0.0
 40
0.0
 40
1.0
 40
1.0
 40
1.0
 40
1.0
 10
-7.3991461211
 20
-12.8486854828
 30
0.0
 10
-7.3991461211
 20
-12.7164272989
 30
0.0
 10
-7.4322555476
 20
-12.6146902562
 30
0.0
 10
-7.4984755639
 20
-12.5434745366
 30
0.0
  0
SPLINE
  5
247
100
AcDbEntity
  8
CURVE
100
AcDbSpline
 62
253
  6
CONTINUOUS
 70
0
 71
3
 72
8
 73
4
 74
0
 42
0.0000001
 43
0.0000001
 44
0.0000000001
 40
0.0
 40
0.0
 40
0.0
 40
0.0
 40
1.0
 40
1.0
 40
1.0
 40
1.0
 10
-7.4297092231
 20
-13.0648766014
 30
0.0
 10
-7.4093339854
 20
-12.9936607899
 30
0.0
 10
-7.3991461211
 20
-12.919901441
 30
0.0
 10
-7.3991461211
 20
-12.8486854828
 30
0.0
  0
SPLINE
  5
248
100
AcDbEntity
  8
CURVE
100
AcDbSpline
 62
253
  6
CONTINUOUS
 70
0
 71
3
 72
8
 73
4
 74
0
 42
0.0000001
 43
0.0000001
 44
0.0000000001
 40
0.0
 40
0.0
 40
0.0
 40
0.0
 40
1.0
 40
1.0
 40
1.0
 40
1.0
 10
-7.5341323786
 20
-13.2581771435
 30
0.0
 10
-7.4831939631
 20
-13.20222177
 30
0.0
 10
-7.4500845366
 20
-13.1360926781
 30
0.0
 10
-7.4297092231
 20
-13.0648766014
 30
0.0
  0
SPLINE
  5
249
100
AcDbEntity
  8
CURVE
100
AcDbSpline
 62
253
  6
CONTINUOUS
 70
0
 71
3
 72
8
 73
4
 74
0
 42
0.0000001
 43
0.0000001
 44
0.0000000001
 40
0.0
 40
0.0
 40
0.0
 40
0.0
 40
1.0
 40
1.0
 40
1.0
 40
1.0
 10
-7.7329923429
 20
-13.395060525
 30
0.0
 10
-7.6512905531
 20
-13.3599141933
 30
0.0
 10
-7.5850707941
 20
-13.314132517
 30
0.0
 10
-7.5341323786
 20
-13.2581771435
 30
0.0
  0
SPLINE
  5
24A
100
AcDbEntity
  8
CURVE
100
AcDbSpline
 62
253
  6
CONTINUOUS
 70
0
 71
3
 72
8
 73
4
 74
0
 42
0.0000001
 43
0.0000001
 44
0.0000000001
 40
0.0
 40
0.0
 40
0.0
 40
0.0
 40
1.0
 40
1.0
 40
1.0
 40
1.0
 10
-8.0486095601
 20
-13.4489341199
 30
0.0
 10
-7.9212639742
 20
-13.4489341199
 30
0.0
 10
-7.8168404036
 20
-13.4311301356
 30
0.0
 10
-7.7329923429
 20
-13.395060525
 30
0.0
  0
SPLINE
  5
24B
100
AcDbEntity
  8
CURVE
100
AcDbSpline
 62
253
  6
CONTINUOUS
 70
0
 71
3
 72
8
 73
4
 74
0
 42
0.0000001
 43
0.0000001
 44
0.0000000001
 40
0.0
 40
0.0
 40
0.0
 40
0.0
 40
1.0
 40
1.0
 40
1.0
 40
1.0
 10
-7.7944767256
 20
-13.0998499865
 30
0.0
 10
-7.8524974757
 20
-13.1513532203
 30
0.0
 10
-7.9416392498
 20
-13.1742440762
 30
0.0
 10
-8.0638913565
 20
-13.1742440762
 30
0.0
  0
SPLINE
  5
24C
100
AcDbEntity
  8
CURVE
100
AcDbSpline
 62
253
  6
CONTINUOUS
 70
0
 71
3
 72
8
 73
4
 74
0
 42
0.0000001
 43
0.0000001
 44
0.0000000001
 40
0.0
 40
0.0
 40
0.0
 40
0.0
 40
1.0
 40
1.0
 40
1.0
 40
1.0
 10
-8.3338643246
 20
-11.8872703298
 30
0.0
 10
-8.2880198412
 20
-11.8516623507
 30
0.0
 10
-8.2167061501
 20
-11.8313148856
 30
0.0
 10
-8.114829772
 20
-11.8313148856
 30
0.0
  0
SPLINE
  5
24D
100
AcDbEntity
  8
CURVE
100
AcDbSpline
 62
253
  6
CONTINUOUS
 70
0
 71
3
 72
8
 73
4
 74
0
 42
0.0000001
 43
0.0000001
 44
0.0000000001
 40
0.0
 40
0.0
 40
0.0
 40
0.0
 40
1.0
 40
1.0
 40
1.0
 40
1.0
 10
-8.4000845366
 20
-12.0398759222
 30
0.0
 10
-8.4000845366
 20
-11.973746802
 30
0.0
 10
-8.379708808
 20
-11.9228783089
 30
0.0
 10
-8.3338643246
 20
-11.8872703298
 30
0.0
  0
SPLINE
  5
24E
100
AcDbEntity
  8
CURVE
100
AcDbSpline
 62
253
  6
CONTINUOUS
 70
0
 71
3
 72
8
 73
4
 74
0
 42
0.0000001
 43
0.0000001
 44
0.0000000001
 40
0.0
 40
0.0
 40
0.0
 40
0.0
 40
1.0
 40
1.0
 40
1.0
 40
1.0
 10
-8.3833382463
 20
-12.1395360373
 30
0.0
 10
-8.3949906044
 20
-12.1110917673
 30
0.0
 10
-8.4000845366
 20
-12.0780272637
 30
0.0
 10
-8.4000845366
 20
-12.0398759222
 30
0.0
  0
SPLINE
  5
24F
100
AcDbEntity
  8
CURVE
100
AcDbSpline
 62
253
  6
CONTINUOUS
 70
0
 71
3
 72
8
 73
4
 74
0
 42
0.0000001
 43
0.0000001
 44
0.0000000001
 40
0.0
 40
0.0
 40
0.0
 40
0.0
 40
1.0
 40
1.0
 40
1.0
 40
1.0
 10
-8.3217184675
 20
-12.2136843066
 30
0.0
 10
-8.3516928606
 20
-12.1924815146
 30
0.0
 10
-8.3720681363
 20
-12.1670472115
 30
0.0
 10
-8.3833382463
 20
-12.1395360373
 30
0.0
  0
SPLINE
  5
250
100
AcDbEntity
  8
CURVE
100
AcDbSpline
 62
253
  6
CONTINUOUS
 70
0
 71
3
 72
8
 73
4
 74
0
 42
0.0000001
 43
0.0000001
 44
0.0000000001
 40
0.0
 40
0.0
 40
0.0
 40
0.0
 40
1.0
 40
1.0
 40
1.0
 40
1.0
 10
-8.2019921672
 20
-12.2754140868
 30
0.0
 10
-8.2523632222
 20
-12.2560671592
 30
0.0
 10
-8.2905670338
 20
-12.2357196941
 30
0.0
 10
-8.3217184675
 20
-12.2136843066
 30
0.0
  0
SPLINE
  5
251
100
AcDbEntity
  8
CURVE
100
AcDbSpline
 62
253
  6
CONTINUOUS
 70
0
 71
3
 72
8
 73
4
 74
0
 42
0.0000001
 43
0.0000001
 44
0.0000000001
 40
0.0
 40
0.0
 40
0.0
 40
0.0
 40
1.0
 40
1.0
 40
1.0
 40
1.0
 10
-8.0154996806
 20
-12.3298264799
 30
0.0
 10
-8.0919073038
 20
-12.3120224904
 30
0.0
 10
-8.1530335837
 20
-12.2942185008
 30
0.0
 10
-8.2019921672
 20
-12.2754140868
 30
0.0
  0
SPLINE
  5
252
100
AcDbEntity
  8
CURVE
100
AcDbSpline
 62
253
  6
CONTINUOUS
 70
0
 71
3
 72
8
 73
4
 74
0
 42
0.0000001
 43
0.0000001
 44
0.0000000001
 40
0.0
 40
0.0
 40
0.0
 40
0.0
 40
1.0
 40
1.0
 40
1.0
 40
1.0
 10
-7.7073233538
 20
-12.8970105569
 30
0.0
 10
-7.7073233538
 20
-12.9834870856
 30
0.0
 10
-7.7378860407
 20
-13.0496161776
 30
0.0
 10
-7.7944767256
 20
-13.0998499865
 30
0.0
  0
SPLINE
  5
253
100
AcDbEntity
  8
CURVE
100
AcDbSpline
 62
253
  6
CONTINUOUS
 70
0
 71
3
 72
8
 73
4
 74
0
 42
0.0000001
 43
0.0000001
 44
0.0000000001
 40
0.0
 40
0.0
 40
0.0
 40
0.0
 40
1.0
 40
1.0
 40
1.0
 40
1.0
 10
-7.7760896524
 20
-12.7189704933
 30
0.0
 10
-7.730244916
 20
-12.759665535
 30
0.0
 10
-7.7073233538
 20
-12.8181643417
 30
0.0
 10
-7.7073233538
 20
-12.8970105569
 30
0.0
  0
SPLINE
  5
254
100
AcDbEntity
  8
CURVE
100
AcDbSpline
 62
253
  6
CONTINUOUS
 70
0
 71
3
 72
8
 73
4
 74
0
 42
0.0000001
 43
0.0000001
 44
0.0000000001
 40
0.0
 40
0.0
 40
0.0
 40
0.0
 40
1.0
 40
1.0
 40
1.0
 40
1.0
 10
-7.4984755639
 20
-12.5434745366
 30
0.0
 10
-7.5646959715
 20
-12.4722583963
 30
0.0
 10
-7.6589316512
 20
-12.4188463212
 30
0.0
 10
-7.7811833315
 20
-12.3883252866
 30
0.0
  0
SPLINE
  5
255
100
AcDbEntity
  8
CURVE
100
AcDbSpline
 62
253
  6
CONTINUOUS
 70
0
 71
3
 72
8
 73
4
 74
0
 42
0.0000001
 43
0.0000001
 44
0.0000000001
 40
0.0
 40
0.0
 40
0.0
 40
0.0
 40
1.0
 40
1.0
 40
1.0
 40
1.0
 10
-7.9747491293
 20
-12.6274074077
 30
0.0
 10
-7.8881536417
 20
-12.6477548163
 30
0.0
 10
-7.8219338828
 20
-12.6782759008
 30
0.0
 10
-7.7760896524
 20
-12.7189704933
 30
0.0
  0
SPLINE
  5
256
100
AcDbEntity
  8
CURVE
100
AcDbSpline
 62
253
  6
CONTINUOUS
 70
0
 71
3
 72
8
 73
4
 74
0
 42
0.0000001
 43
0.0000001
 44
0.0000000001
 40
0.0
 40
0.0
 40
0.0
 40
0.0
 40
1.0
 40
1.0
 40
1.0
 40
1.0
 10
-14.512684887
 20
-12.7367747075
 30
0.0
 10
-14.4184489541
 20
-12.7367747075
 30
0.0
 10
-14.331853693
 20
-12.7240576125
 30
0.0
 10
-14.253023854
 20
-12.6982471642
 30
0.0
  0
SPLINE
  5
257
100
AcDbEntity
  8
CURVE
100
AcDbSpline
 62
253
  6
CONTINUOUS
 70
0
 71
3
 72
8
 73
4
 74
0
 42
0.0000001
 43
0.0000001
 44
0.0000000001
 40
0.0
 40
0.0
 40
0.0
 40
0.0
 40
1.0
 40
1.0
 40
1.0
 40
1.0
 10
-14.253023854
 20
-12.6982471642
 30
0.0
 10
-14.1764918201
 20
-12.6731890628
 30
0.0
 10
-14.1077250951
 20
-12.6350376647
 30
0.0
 10
-14.0510619229
 20
-12.5823102678
 30
0.0
  0
SPLINE
  5
258
100
AcDbEntity
  8
CURVE
100
AcDbSpline
 62
253
  6
CONTINUOUS
 70
0
 71
3
 72
8
 73
4
 74
0
 42
0.0000001
 43
0.0000001
 44
0.0000000001
 40
0.0
 40
0.0
 40
0.0
 40
0.0
 40
1.0
 40
1.0
 40
1.0
 40
1.0
 10
-14.0510619229
 20
-12.5823102678
 30
0.0
 10
-13.9956607395
 20
-12.530757203
 30
0.0
 10
-13.9523631089
 20
-12.4620847203
 30
0.0
 10
-13.9218001133
 20
-12.3806949614
 30
0.0
  0
SPLINE
  5
259
100
AcDbEntity
  8
CURVE
100
AcDbSpline
 62
253
  6
CONTINUOUS
 70
0
 71
3
 72
8
 73
4
 74
0
 42
0.0000001
 43
0.0000001
 44
0.0000000001
 40
0.0
 40
0.0
 40
0.0
 40
0.0
 40
1.0
 40
1.0
 40
1.0
 40
1.0
 10
-13.9218001133
 20
-12.3806949614
 30
0.0
 10
-13.8912371688
 20
-12.2993053388
 30
0.0
 10
-13.8759555989
 20
-12.2026551906
 30
0.0
 10
-13.8759555989
 20
-12.0907444153
 30
0.0
  0
SPLINE
  5
25A
100
AcDbEntity
  8
CURVE
100
AcDbSpline
 62
253
  6
CONTINUOUS
 70
0
 71
3
 72
8
 73
4
 74
0
 42
0.0000001
 43
0.0000001
 44
0.0000000001
 40
0.0
 40
0.0
 40
0.0
 40
0.0
 40
1.0
 40
1.0
 40
1.0
 40
1.0
 10
-13.8759555989
 20
-12.0907444153
 30
0.0
 10
-13.8759555989
 20
-11.968659964
 30
0.0
 10
-13.8963309877
 20
-11.8720097027
 30
0.0
 10
-13.9370816766
 20
-11.8007937584
 30
0.0
  0
SPLINE
  5
25B
100
AcDbEntity
  8
CURVE
100
AcDbSpline
 62
253
  6
CONTINUOUS
 70
0
 71
3
 72
8
 73
4
 74
0
 42
0.0000001
 43
0.0000001
 44
0.0000000001
 40
0.0
 40
0.0
 40
0.0
 40
0.0
 40
1.0
 40
1.0
 40
1.0
 40
1.0
 10
-13.9370816766
 20
-11.8007937584
 30
0.0
 10
-13.9778323167
 20
-11.7295778994
 30
0.0
 10
-14.028770619
 20
-11.6761659307
 30
0.0
 10
-14.0949904912
 20
-11.6405579516
 30
0.0
  0
SPLINE
  5
25C
100
AcDbEntity
  8
CURVE
100
AcDbSpline
 62
253
  6
CONTINUOUS
 70
0
 71
3
 72
8
 73
4
 74
0
 42
0.0000001
 43
0.0000001
 44
0.0000000001
 40
0.0
 40
0.0
 40
0.0
 40
0.0
 40
1.0
 40
1.0
 40
1.0
 40
1.0
 10
-14.0949904912
 20
-11.6405579516
 30
0.0
 10
-14.1612103634
 20
-11.6049499725
 30
0.0
 10
-14.2376178735
 20
-11.5795156694
 30
0.0
 10
-14.3216660561
 20
-11.5693420002
 30
0.0
  0
SPLINE
  5
25D
100
AcDbEntity
  8
CURVE
100
AcDbSpline
 62
253
  6
CONTINUOUS
 70
0
 71
3
 72
8
 73
4
 74
0
 42
0.0000001
 43
0.0000001
 44
0.0000000001
 40
0.0
 40
0.0
 40
0.0
 40
0.0
 40
1.0
 40
1.0
 40
1.0
 40
1.0
 10
-14.3216660561
 20
-11.5693420002
 30
0.0
 10
-14.4057143503
 20
-11.5591683174
 30
0.0
 10
-14.4923094981
 20
-11.5515380038
 30
0.0
 10
-14.5789047026
 20
-11.5515380038
 30
0.0
  0
SPLINE
  5
25E
100
AcDbEntity
  8
CURVE
100
AcDbSpline
 62
253
  6
CONTINUOUS
 70
0
 71
3
 72
8
 73
4
 74
0
 42
0.0000001
 43
0.0000001
 44
0.0000000001
 40
0.0
 40
0.0
 40
0.0
 40
0.0
 40
1.0
 40
1.0
 40
1.0
 40
1.0
 10
-14.5865454309
 20
-11.8058806956
 30
0.0
 10
-14.5254193776
 20
-11.8058806956
 30
0.0
 10
-14.4719342225
 20
-11.8109675336
 30
0.0
 10
-14.421047879
 20
-11.8213914229
 30
0.0
  0
SPLINE
  5
25F
100
AcDbEntity
  8
CURVE
100
AcDbSpline
 62
253
  6
CONTINUOUS
 70
0
 71
3
 72
8
 73
4
 74
0
 42
0.0000001
 43
0.0000001
 44
0.0000000001
 40
0.0
 40
0.0
 40
0.0
 40
0.0
 40
1.0
 40
1.0
 40
1.0
 40
1.0
 10
-14.421047879
 20
-11.8213914229
 30
0.0
 10
-14.3726044708
 20
-11.8313148856
 30
0.0
 10
-14.331853693
 20
-11.8465755127
 30
0.0
 10
-14.2972488468
 20
-11.8708936666
 30
0.0
  0
SPLINE
  5
260
100
AcDbEntity
  8
CURVE
100
AcDbSpline
 62
253
  6
CONTINUOUS
 70
0
 71
3
 72
8
 73
4
 74
0
 42
0.0000001
 43
0.0000001
 44
0.0000000001
 40
0.0
 40
0.0
 40
0.0
 40
0.0
 40
1.0
 40
1.0
 40
1.0
 40
1.0
 10
-14.2972488468
 20
-11.8708936666
 30
0.0
 10
-14.263086968
 20
-11.8949005302
 30
0.0
 10
-14.2376178735
 20
-11.9254216713
 30
0.0
 10
-14.2182929013
 20
-11.9665917104
 30
0.0
  0
SPLINE
  5
261
100
AcDbEntity
  8
CURVE
100
AcDbSpline
 62
253
  6
CONTINUOUS
 70
0
 71
3
 72
8
 73
4
 74
0
 42
0.0000001
 43
0.0000001
 44
0.0000000001
 40
0.0
 40
0.0
 40
0.0
 40
0.0
 40
1.0
 40
1.0
 40
1.0
 40
1.0
 10
-14.2182929013
 20
-11.9665917104
 30
0.0
 10
-14.1994140618
 20
-12.0068113055
 30
0.0
 10
-14.189226424
 20
-12.0551364362
 30
0.0
 10
-14.189226424
 20
-12.1161787184
 30
0.0
  0
SPLINE
  5
262
100
AcDbEntity
  8
CURVE
100
AcDbSpline
 62
253
  6
CONTINUOUS
 70
0
 71
3
 72
8
 73
4
 74
0
 42
0.0000001
 43
0.0000001
 44
0.0000000001
 40
0.0
 40
0.0
 40
0.0
 40
0.0
 40
1.0
 40
1.0
 40
1.0
 40
1.0
 10
-14.189226424
 20
-12.1161787184
 30
0.0
 10
-14.189226424
 20
-12.2458933701
 30
0.0
 10
-14.2248832696
 20
-12.3374567935
 30
0.0
 10
-14.2911030243
 20
-12.3934121296
 30
0.0
  0
SPLINE
  5
263
100
AcDbEntity
  8
CURVE
100
AcDbSpline
 62
253
  6
CONTINUOUS
 70
0
 71
3
 72
8
 73
4
 74
0
 42
0.0000001
 43
0.0000001
 44
0.0000000001
 40
0.0
 40
0.0
 40
0.0
 40
0.0
 40
1.0
 40
1.0
 40
1.0
 40
1.0
 10
-14.2911030243
 20
-12.3934121296
 30
0.0
 10
-14.3573229008
 20
-12.4493675688
 30
0.0
 10
-14.4693872564
 20
-12.4773452343
 30
0.0
 10
-14.6222022765
 20
-12.4773452343
 30
0.0
  0
SPLINE
  5
264
100
AcDbEntity
  8
CURVE
100
AcDbSpline
 62
253
  6
CONTINUOUS
 70
0
 71
3
 72
8
 73
4
 74
0
 42
0.0000001
 43
0.0000001
 44
0.0000000001
 40
0.0
 40
0.0
 40
0.0
 40
0.0
 40
1.0
 40
1.0
 40
1.0
 40
1.0
 10
-12.8520949417
 20
-12.7367747075
 30
0.0
 10
-12.7094677859
 20
-12.7367747075
 30
0.0
 10
-12.6050439887
 20
-12.7825564191
 30
0.0
 10
-12.5439180966
 20
-12.8741196858
 30
0.0
  0
SPLINE
  5
265
100
AcDbEntity
  8
CURVE
100
AcDbSpline
 62
253
  6
CONTINUOUS
 70
0
 71
3
 72
8
 73
4
 74
0
 42
0.0000001
 43
0.0000001
 44
0.0000000001
 40
0.0
 40
0.0
 40
0.0
 40
0.0
 40
1.0
 40
1.0
 40
1.0
 40
1.0
 10
-12.5439180966
 20
-12.8741196858
 30
0.0
 10
-12.4827921086
 20
-12.9656830961
 30
0.0
 10
-12.4503181292
 20
-13.10304686
 30
0.0
 10
-12.4445882969
 20
-13.2861548232
 30
0.0
  0
SPLINE
  5
266
100
AcDbEntity
  8
CURVE
100
AcDbSpline
 62
253
  6
CONTINUOUS
 70
0
 71
3
 72
8
 73
4
 74
0
 42
0.0000001
 43
0.0000001
 44
0.0000000001
 40
0.0
 40
0.0
 40
0.0
 40
0.0
 40
1.0
 40
1.0
 40
1.0
 40
1.0
 10
-12.1440521889
 20
-13.2327428687
 30
0.0
 10
-12.146599155
 20
-13.1589835056
 30
0.0
 10
-12.1516928606
 20
-13.0877675757
 30
0.0
 10
-12.1618805006
 20
-13.0216384841
 30
0.0
  0
SPLINE
  5
267
100
AcDbEntity
  8
CURVE
100
AcDbSpline
 62
253
  6
CONTINUOUS
 70
0
 71
3
 72
8
 73
4
 74
0
 42
0.0000001
 43
0.0000001
 44
0.0000000001
 40
0.0
 40
0.0
 40
0.0
 40
0.0
 40
1.0
 40
1.0
 40
1.0
 40
1.0
 10
-12.1618805006
 20
-13.0216384841
 30
0.0
 10
-12.1720681363
 20
-12.9555094201
 30
0.0
 10
-12.1873497062
 20
-12.8944671379
 30
0.0
 10
-12.210724747
 20
-12.8387032836
 30
0.0
  0
SPLINE
  5
268
100
AcDbEntity
  8
CURVE
100
AcDbSpline
 62
253
  6
CONTINUOUS
 70
0
 71
3
 72
8
 73
4
 74
0
 42
0.0000001
 43
0.0000001
 44
0.0000000001
 40
0.0
 40
0.0
 40
0.0
 40
0.0
 40
1.0
 40
1.0
 40
1.0
 40
1.0
 10
-12.210724747
 20
-12.8387032836
 30
0.0
 10
-12.2331941896
 20
-12.7850998381
 30
0.0
 10
-12.2663040691
 20
-12.7393181265
 30
0.0
 10
-12.3076672015
 20
-12.6992634148
 30
0.0
  0
SPLINE
  5
269
100
AcDbEntity
  8
CURVE
100
AcDbSpline
 62
253
  6
CONTINUOUS
 70
0
 71
3
 72
8
 73
4
 74
0
 42
0.0000001
 43
0.0000001
 44
0.0000000001
 40
0.0
 40
0.0
 40
0.0
 40
0.0
 40
1.0
 40
1.0
 40
1.0
 40
1.0
 10
-12.3076672015
 20
-12.6992634148
 30
0.0
 10
-12.3503523641
 20
-12.6579284923
 30
0.0
 10
-12.4063844853
 20
-12.6274074077
 30
0.0
 10
-12.4751514368
 20
-12.6070599992
 30
0.0
  0
SPLINE
  5
26A
100
AcDbEntity
  8
CURVE
100
AcDbSpline
 62
253
  6
CONTINUOUS
 70
0
 71
3
 72
8
 73
4
 74
0
 42
0.0000001
 43
0.0000001
 44
0.0000000001
 40
0.0
 40
0.0
 40
0.0
 40
0.0
 40
1.0
 40
1.0
 40
1.0
 40
1.0
 10
-12.4751514368
 20
-12.6070599992
 30
0.0
 10
-12.3732746058
 20
-12.5612782875
 30
0.0
 10
-12.2943202429
 20
-12.4926057483
 30
0.0
 10
-12.2366298079
 20
-12.4055485508
 30
0.0
  0
SPLINE
  5
26B
100
AcDbEntity
  8
CURVE
100
AcDbSpline
 62
253
  6
CONTINUOUS
 70
0
 71
3
 72
8
 73
4
 74
0
 42
0.0000001
 43
0.0000001
 44
0.0000000001
 40
0.0
 40
0.0
 40
0.0
 40
0.0
 40
1.0
 40
1.0
 40
1.0
 40
1.0
 10
-12.2366298079
 20
-12.4055485508
 30
0.0
 10
-12.1797090345
 20
-12.3196528039
 30
0.0
 10
-12.1491458946
 20
-12.2077420286
 30
0.0
 10
-12.1491458946
 20
-12.0678535877
 30
0.0
  0
SPLINE
  5
26C
100
AcDbEntity
  8
CURVE
100
AcDbSpline
 62
253
  6
CONTINUOUS
 70
0
 71
3
 72
8
 73
4
 74
0
 42
0.0000001
 43
0.0000001
 44
0.0000000001
 40
0.0
 40
0.0
 40
0.0
 40
0.0
 40
1.0
 40
1.0
 40
1.0
 40
1.0
 10
-12.1491458946
 20
-12.0678535877
 30
0.0
 10
-12.1491458946
 20
-11.9533993369
 30
0.0
 10
-12.1695213967
 20
-11.8618360267
 30
0.0
 10
-12.2092190435
 20
-11.7940588168
 30
0.0
  0
SPLINE
  5
26D
100
AcDbEntity
  8
CURVE
100
AcDbSpline
 62
253
  6
CONTINUOUS
 70
0
 71
3
 72
8
 73
4
 74
0
 42
0.0000001
 43
0.0000001
 44
0.0000000001
 40
0.0
 40
0.0
 40
0.0
 40
0.0
 40
1.0
 40
1.0
 40
1.0
 40
1.0
 10
-12.2092190435
 20
-11.7940588168
 30
0.0
 10
-12.2484757595
 20
-11.7270344238
 30
0.0
 10
-12.2994141751
 20
-11.6736224552
 30
0.0
 10
-12.3656339341
 20
-11.6380144761
 30
0.0
  0
SPLINE
  5
26E
100
AcDbEntity
  8
CURVE
100
AcDbSpline
 62
253
  6
CONTINUOUS
 70
0
 71
3
 72
8
 73
4
 74
0
 42
0.0000001
 43
0.0000001
 44
0.0000000001
 40
0.0
 40
0.0
 40
0.0
 40
0.0
 40
1.0
 40
1.0
 40
1.0
 40
1.0
 10
-12.3656339341
 20
-11.6380144761
 30
0.0
 10
-12.431853693
 20
-11.602406497
 30
0.0
 10
-12.5057143503
 20
-11.5795156694
 30
0.0
 10
-12.5897804148
 20
-11.56949171
 30
0.0
  0
SPLINE
  5
26F
100
AcDbEntity
  8
CURVE
100
AcDbSpline
 62
253
  6
CONTINUOUS
 70
0
 71
3
 72
8
 73
4
 74
0
 42
0.0000001
 43
0.0000001
 44
0.0000000001
 40
0.0
 40
0.0
 40
0.0
 40
0.0
 40
1.0
 40
1.0
 40
1.0
 40
1.0
 10
-12.5897804148
 20
-11.56949171
 30
0.0
 10
-12.6763576799
 20
-11.5591683174
 30
0.0
 10
-12.762952941
 20
-11.5515380038
 30
0.0
 10
-12.8520949417
 20
-11.5515380038
 30
0.0
  0
SPLINE
  5
270
100
AcDbEntity
  8
CURVE
100
AcDbSpline
 62
253
  6
CONTINUOUS
 70
0
 71
3
 72
8
 73
4
 74
0
 42
0.0000001
 43
0.0000001
 44
0.0000000001
 40
0.0
 40
0.0
 40
0.0
 40
0.0
 40
1.0
 40
1.0
 40
1.0
 40
1.0
 10
-12.8419073038
 20
-11.8058806956
 30
0.0
 10
-12.7807812505
 20
-11.8058806956
 30
0.0
 10
-12.7247491293
 20
-11.8109675336
 30
0.0
 10
-12.678904646
 20
-11.8211412096
 30
0.0
  0
SPLINE
  5
271
100
AcDbEntity
  8
CURVE
100
AcDbSpline
 62
253
  6
CONTINUOUS
 70
0
 71
3
 72
8
 73
4
 74
0
 42
0.0000001
 43
0.0000001
 44
0.0000000001
 40
0.0
 40
0.0
 40
0.0
 40
0.0
 40
1.0
 40
1.0
 40
1.0
 40
1.0
 10
-12.678904646
 20
-11.8211412096
 30
0.0
 10
-12.6330601626
 20
-11.8313148856
 30
0.0
 10
-12.5923096114
 20
-11.8465755127
 30
0.0
 10
-12.5617465122
 20
-11.8694663945
 30
0.0
  0
SPLINE
  5
272
100
AcDbEntity
  8
CURVE
100
AcDbSpline
 62
253
  6
CONTINUOUS
 70
0
 71
3
 72
8
 73
4
 74
0
 42
0.0000001
 43
0.0000001
 44
0.0000000001
 40
0.0
 40
0.0
 40
0.0
 40
0.0
 40
1.0
 40
1.0
 40
1.0
 40
1.0
 10
-12.5617465122
 20
-11.8694663945
 30
0.0
 10
-12.531183558
 20
-11.8923571678
 30
0.0
 10
-12.5057143503
 20
-11.9228783089
 30
0.0
 10
-12.4904328796
 20
-11.9635731632
 30
0.0
  0
SPLINE
  5
273
100
AcDbEntity
  8
CURVE
100
AcDbSpline
 62
253
  6
CONTINUOUS
 70
0
 71
3
 72
8
 73
4
 74
0
 42
0.0000001
 43
0.0000001
 44
0.0000000001
 40
0.0
 40
0.0
 40
0.0
 40
0.0
 40
1.0
 40
1.0
 40
1.0
 40
1.0
 10
-12.4904328796
 20
-11.9635731632
 30
0.0
 10
-12.4751514368
 20
-12.0042679431
 30
0.0
 10
-12.4649635725
 20
-12.0525929606
 30
0.0
 10
-12.4649635725
 20
-12.1136352428
 30
0.0
  0
SPLINE
  5
274
100
AcDbEntity
  8
CURVE
100
AcDbSpline
 62
253
  6
CONTINUOUS
 70
0
 71
3
 72
8
 73
4
 74
0
 42
0.0000001
 43
0.0000001
 44
0.0000000001
 40
0.0
 40
0.0
 40
0.0
 40
0.0
 40
1.0
 40
1.0
 40
1.0
 40
1.0
 10
-12.4649635725
 20
-12.1136352428
 30
0.0
 10
-12.4649635725
 20
-12.2357196941
 30
0.0
 10
-12.4955267125
 20
-12.3272831174
 30
0.0
 10
-12.554752566
 20
-12.3876861694
 30
0.0
  0
SPLINE
  5
275
100
AcDbEntity
  8
CURVE
100
AcDbSpline
 62
253
  6
CONTINUOUS
 70
0
 71
3
 72
8
 73
4
 74
0
 42
0.0000001
 43
0.0000001
 44
0.0000000001
 40
0.0
 40
0.0
 40
0.0
 40
0.0
 40
1.0
 40
1.0
 40
1.0
 40
1.0
 10
-12.554752566
 20
-12.3876861694
 30
0.0
 10
-12.615231853
 20
-12.4493675688
 30
0.0
 10
-12.7120145255
 20
-12.4773452343
 30
0.0
 10
-12.8495482021
 20
-12.4773452343
 30
0.0
  0
SPLINE
  5
276
100
AcDbEntity
  8
CURVE
100
AcDbSpline
 62
253
  6
CONTINUOUS
 70
0
 71
3
 72
8
 73
4
 74
0
 42
0.0000001
 43
0.0000001
 44
0.0000000001
 40
0.0
 40
0.0
 40
0.0
 40
0.0
 40
1.0
 40
1.0
 40
1.0
 40
1.0
 10
-11.079440754
 20
-11.5515380038
 30
0.0
 10
-11.2169742041
 20
-11.5515380038
 30
0.0
 10
-11.3290388995
 20
-11.5718854689
 30
0.0
 10
-11.4207278662
 20
-11.612580286
 30
0.0
  0
SPLINE
  5
277
100
AcDbEntity
  8
CURVE
100
AcDbSpline
 62
253
  6
CONTINUOUS
 70
0
 71
3
 72
8
 73
4
 74
0
 42
0.0000001
 43
0.0000001
 44
0.0000000001
 40
0.0
 40
0.0
 40
0.0
 40
0.0
 40
1.0
 40
1.0
 40
1.0
 40
1.0
 10
-11.4207278662
 20
-11.612580286
 30
0.0
 10
-11.512416833
 20
-11.6532751032
 30
0.0
 10
-11.5837305241
 20
-11.7117739098
 30
0.0
 10
-11.6374912349
 20
-11.7904315664
 30
0.0
  0
SPLINE
  5
278
100
AcDbEntity
  8
CURVE
100
AcDbSpline
 62
253
  6
CONTINUOUS
 70
0
 71
3
 72
8
 73
4
 74
0
 42
0.0000001
 43
0.0000001
 44
0.0000000001
 40
0.0
 40
0.0
 40
0.0
 40
0.0
 40
1.0
 40
1.0
 40
1.0
 40
1.0
 10
-11.6374912349
 20
-11.7904315664
 30
0.0
 10
-11.6932480269
 20
-11.8720097027
 30
0.0
 10
-11.731451612
 20
-11.9712033264
 30
0.0
 10
-11.7530605386
 20
-12.0930632079
 30
0.0
  0
SPLINE
  5
279
100
AcDbEntity
  8
CURVE
100
AcDbSpline
 62
253
  6
CONTINUOUS
 70
0
 71
3
 72
8
 73
4
 74
0
 42
0.0000001
 43
0.0000001
 44
0.0000000001
 40
0.0
 40
0.0
 40
0.0
 40
0.0
 40
1.0
 40
1.0
 40
1.0
 40
1.0
 10
-11.7530605386
 20
-12.0930632079
 30
0.0
 10
-11.7747491293
 20
-12.2153723421
 30
0.0
 10
-11.7849367671
 20
-12.355260783
 30
0.0
 10
-11.7849367671
 20
-12.5154966324
 30
0.0
  0
SPLINE
  5
27A
100
AcDbEntity
  8
CURVE
100
AcDbSpline
 62
253
  6
CONTINUOUS
 70
0
 71
3
 72
8
 73
4
 74
0
 42
0.0000001
 43
0.0000001
 44
0.0000000001
 40
0.0
 40
0.0
 40
0.0
 40
0.0
 40
1.0
 40
1.0
 40
1.0
 40
1.0
 10
-11.7849367671
 20
-12.5154966324
 30
0.0
 10
-11.7849367671
 20
-12.6579284923
 30
0.0
 10
-11.7798430615
 20
-12.7876432571
 30
0.0
 10
-11.7659693748
 20
-12.9022588317
 30
0.0
  0
SPLINE
  5
27B
100
AcDbEntity
  8
CURVE
100
AcDbSpline
 62
253
  6
CONTINUOUS
 70
0
 71
3
 72
8
 73
4
 74
0
 42
0.0000001
 43
0.0000001
 44
0.0000000001
 40
0.0
 40
0.0
 40
0.0
 40
0.0
 40
1.0
 40
1.0
 40
1.0
 40
1.0
 10
-11.7659693748
 20
-12.9022588317
 30
0.0
 10
-11.7518268876
 20
-13.0190950648
 30
0.0
 10
-11.7212639742
 20
-13.1157452695
 30
0.0
 10
-11.6754194939
 20
-13.1971349054
 30
0.0
  0
SPLINE
  5
27C
100
AcDbEntity
  8
CURVE
100
AcDbSpline
 62
253
  6
CONTINUOUS
 70
0
 71
3
 72
8
 73
4
 74
0
 42
0.0000001
 43
0.0000001
 44
0.0000000001
 40
0.0
 40
0.0
 40
0.0
 40
0.0
 40
1.0
 40
1.0
 40
1.0
 40
1.0
 10
-11.6754194939
 20
-13.1971349054
 30
0.0
 10
-11.6295750075
 20
-13.2785245521
 30
0.0
 10
-11.5633552485
 20
-13.3395667848
 30
0.0
 10
-11.4772838048
 20
-13.3838075041
 30
0.0
  0
SPLINE
  5
27D
100
AcDbEntity
  8
CURVE
100
AcDbSpline
 62
253
  6
CONTINUOUS
 70
0
 71
3
 72
8
 73
4
 74
0
 42
0.0000001
 43
0.0000001
 44
0.0000000001
 40
0.0
 40
0.0
 40
0.0
 40
0.0
 40
1.0
 40
1.0
 40
1.0
 40
1.0
 10
-11.4772838048
 20
-13.3838075041
 30
0.0
 10
-11.3901647263
 20
-13.4285867078
 30
0.0
 10
-11.2755532914
 20
-13.4489341199
 30
0.0
 10
-11.1303791695
 20
-13.4489341199
 30
0.0
  0
SPLINE
  5
27E
100
AcDbEntity
  8
CURVE
100
AcDbSpline
 62
253
  6
CONTINUOUS
 70
0
 71
3
 72
8
 73
4
 74
0
 42
0.0000001
 43
0.0000001
 44
0.0000000001
 40
0.0
 40
0.0
 40
0.0
 40
0.0
 40
1.0
 40
1.0
 40
1.0
 40
1.0
 10
-11.0718000822
 20
-13.1895046184
 30
0.0
 10
-11.1558483773
 20
-13.1895046184
 30
0.0
 10
-11.2220681363
 20
-13.1818743332
 30
0.0
 10
-11.2730065474
 20
-13.1640703593
 30
0.0
  0
SPLINE
  5
27F
100
AcDbEntity
  8
CURVE
100
AcDbSpline
 62
253
  6
CONTINUOUS
 70
0
 71
3
 72
8
 73
4
 74
0
 42
0.0000001
 43
0.0000001
 44
0.0000000001
 40
0.0
 40
0.0
 40
0.0
 40
0.0
 40
1.0
 40
1.0
 40
1.0
 40
1.0
 10
-11.2730065474
 20
-13.1640703593
 30
0.0
 10
-11.3239449673
 20
-13.1462663823
 30
0.0
 10
-11.3646955185
 20
-13.1157452695
 30
0.0
 10
-11.3932830204
 20
-13.070327613
 30
0.0
  0
SPLINE
  5
280
100
AcDbEntity
  8
CURVE
100
AcDbSpline
 62
253
  6
CONTINUOUS
 70
0
 71
3
 72
8
 73
4
 74
0
 42
0.0000001
 43
0.0000001
 44
0.0000000001
 40
0.0
 40
0.0
 40
0.0
 40
0.0
 40
1.0
 40
1.0
 40
1.0
 40
1.0
 10
-11.3932830204
 20
-13.070327613
 30
0.0
 10
-11.4207278662
 20
-13.0267253218
 30
0.0
 10
-11.4385559492
 20
-12.9682265151
 30
0.0
 10
-11.4489190683
 20
-12.8944919211
 30
0.0
  0
SPLINE
  5
281
100
AcDbEntity
  8
CURVE
100
AcDbSpline
 62
253
  6
CONTINUOUS
 70
0
 71
3
 72
8
 73
4
 74
0
 42
0.0000001
 43
0.0000001
 44
0.0000000001
 40
0.0
 40
0.0
 40
0.0
 40
0.0
 40
1.0
 40
1.0
 40
1.0
 40
1.0
 10
-11.4489190683
 20
-12.8944919211
 30
0.0
 10
-11.4589316779
 20
-12.8232512362
 30
0.0
 10
-11.4614784174
 20
-12.7316878695
 30
0.0
 10
-11.4614784174
 20
-12.6223205132
 30
0.0
  0
SPLINE
  5
282
100
AcDbEntity
  8
CURVE
100
AcDbSpline
 62
253
  6
CONTINUOUS
 70
0
 71
3
 72
8
 73
4
 74
0
 42
0.0000001
 43
0.0000001
 44
0.0000000001
 40
0.0
 40
0.0
 40
0.0
 40
0.0
 40
1.0
 40
1.0
 40
1.0
 40
1.0
 10
-11.4614784174
 20
-12.3578041455
 30
0.0
 10
-11.4614784174
 20
-12.2687843108
 30
0.0
 10
-11.4589316779
 20
-12.189938039
 30
0.0
 10
-11.4498314477
 20
-12.1211311772
 30
0.0
  0
SPLINE
  5
283
100
AcDbEntity
  8
CURVE
100
AcDbSpline
 62
253
  6
CONTINUOUS
 70
0
 71
3
 72
8
 73
4
 74
0
 42
0.0000001
 43
0.0000001
 44
0.0000000001
 40
0.0
 40
0.0
 40
0.0
 40
0.0
 40
1.0
 40
1.0
 40
1.0
 40
1.0
 10
-11.4498314477
 20
-12.1211311772
 30
0.0
 10
-11.4411031418
 20
-12.0551364362
 30
0.0
 10
-11.4232746058
 20
-11.9991811051
 30
0.0
 10
-11.394687229
 20
-11.9537632801
 30
0.0
  0
SPLINE
  5
284
100
AcDbEntity
  8
CURVE
100
AcDbSpline
 62
253
  6
CONTINUOUS
 70
0
 71
3
 72
8
 73
4
 74
0
 42
0.0000001
 43
0.0000001
 44
0.0000000001
 40
0.0
 40
0.0
 40
0.0
 40
0.0
 40
1.0
 40
1.0
 40
1.0
 40
1.0
 10
-11.394687229
 20
-11.9537632801
 30
0.0
 10
-11.3672427111
 20
-11.9101611573
 30
0.0
 10
-11.3264917069
 20
-11.8770965407
 30
0.0
 10
-11.2725749402
 20
-11.8553029903
 30
0.0
  0
SPLINE
  5
285
100
AcDbEntity
  8
CURVE
100
AcDbSpline
 62
253
  6
CONTINUOUS
 70
0
 71
3
 72
8
 73
4
 74
0
 42
0.0000001
 43
0.0000001
 44
0.0000000001
 40
0.0
 40
0.0
 40
0.0
 40
0.0
 40
1.0
 40
1.0
 40
1.0
 40
1.0
 10
-11.2725749402
 20
-11.8553029903
 30
0.0
 10
-11.2195213967
 20
-11.8338583611
 30
0.0
 10
-11.1482077055
 20
-11.8211412096
 30
0.0
 10
-11.0565187388
 20
-11.8211412096
 30
0.0
  0
SPLINE
  5
286
100
AcDbEntity
  8
CURVE
100
AcDbSpline
 62
253
  6
CONTINUOUS
 70
0
 71
3
 72
8
 73
4
 74
0
 42
0.0000001
 43
0.0000001
 44
0.0000000001
 40
0.0
 40
0.0
 40
0.0
 40
0.0
 40
1.0
 40
1.0
 40
1.0
 40
1.0
 10
-9.6684487276
 20
-11.5515380038
 30
0.0
 10
-9.7652316265
 20
-11.5515380038
 30
0.0
 10
-9.8492799216
 20
-11.5642551554
 30
0.0
 10
-9.9232710241
 20
-11.589302501
 30
0.0
  0
SPLINE
  5
287
100
AcDbEntity
  8
CURVE
100
AcDbSpline
 62
253
  6
CONTINUOUS
 70
0
 71
3
 72
8
 73
4
 74
0
 42
0.0000001
 43
0.0000001
 44
0.0000000001
 40
0.0
 40
0.0
 40
0.0
 40
0.0
 40
1.0
 40
1.0
 40
1.0
 40
1.0
 10
-9.9232710241
 20
-11.589302501
 30
0.0
 10
-9.9995479756
 20
-11.6151236485
 30
0.0
 10
-10.063220995
 20
-11.6481881521
 30
0.0
 10
-10.1147100195
 20
-11.6933361136
 30
0.0
  0
SPLINE
  5
288
100
AcDbEntity
  8
CURVE
100
AcDbSpline
 62
253
  6
CONTINUOUS
 70
0
 71
3
 72
8
 73
4
 74
0
 42
0.0000001
 43
0.0000001
 44
0.0000000001
 40
0.0
 40
0.0
 40
0.0
 40
0.0
 40
1.0
 40
1.0
 40
1.0
 40
1.0
 10
-10.1147100195
 20
-11.6933361136
 30
0.0
 10
-10.1676445656
 20
-11.7397515754
 30
0.0
 10
-10.2083951168
 20
-11.793163544
 30
0.0
 10
-10.2344779334
 20
-11.8539396016
 30
0.0
  0
SPLINE
  5
289
100
AcDbEntity
  8
CURVE
100
AcDbSpline
 62
253
  6
CONTINUOUS
 70
0
 71
3
 72
8
 73
4
 74
0
 42
0.0000001
 43
0.0000001
 44
0.0000000001
 40
0.0
 40
0.0
 40
0.0
 40
0.0
 40
1.0
 40
1.0
 40
1.0
 40
1.0
 10
-10.2344779334
 20
-11.8539396016
 30
0.0
 10
-10.2618807249
 20
-11.9177913578
 30
0.0
 10
-10.2746153288
 20
-11.9864639535
 30
0.0
 10
-10.2746153288
 20
-12.0602232742
 30
0.0
  0
SPLINE
  5
28A
100
AcDbEntity
  8
CURVE
100
AcDbSpline
 62
253
  6
CONTINUOUS
 70
0
 71
3
 72
8
 73
4
 74
0
 42
0.0000001
 43
0.0000001
 44
0.0000000001
 40
0.0
 40
0.0
 40
0.0
 40
0.0
 40
1.0
 40
1.0
 40
1.0
 40
1.0
 10
-10.2746153288
 20
-12.0602232742
 30
0.0
 10
-10.2746153288
 20
-12.1365260704
 30
0.0
 10
-10.2669742041
 20
-12.2026551906
 30
0.0
 10
-10.2470157122
 20
-12.2562202664
 30
0.0
  0
SPLINE
  5
28B
100
AcDbEntity
  8
CURVE
100
AcDbSpline
 62
253
  6
CONTINUOUS
 70
0
 71
3
 72
8
 73
4
 74
0
 42
0.0000001
 43
0.0000001
 44
0.0000000001
 40
0.0
 40
0.0
 40
0.0
 40
0.0
 40
1.0
 40
1.0
 40
1.0
 40
1.0
 10
-10.2470157122
 20
-12.2562202664
 30
0.0
 10
-10.2262236529
 20
-12.3120224904
 30
0.0
 10
-10.1982077055
 20
-12.3578041455
 30
0.0
 10
-10.1625507263
 20
-12.3959556866
 30
0.0
  0
SPLINE
  5
28C
100
AcDbEntity
  8
CURVE
100
AcDbSpline
 62
253
  6
CONTINUOUS
 70
0
 71
3
 72
8
 73
4
 74
0
 42
0.0000001
 43
0.0000001
 44
0.0000000001
 40
0.0
 40
0.0
 40
0.0
 40
0.0
 40
1.0
 40
1.0
 40
1.0
 40
1.0
 10
-10.1625507263
 20
-12.3959556866
 30
0.0
 10
-10.1268940144
 20
-12.4341069417
 30
0.0
 10
-10.081049531
 20
-12.4646280828
 30
0.0
 10
-10.0306151575
 20
-12.4885515565
 30
0.0
  0
SPLINE
  5
28D
100
AcDbEntity
  8
CURVE
100
AcDbSpline
 62
253
  6
CONTINUOUS
 70
0
 71
3
 72
8
 73
4
 74
0
 42
0.0000001
 43
0.0000001
 44
0.0000000001
 40
0.0
 40
0.0
 40
0.0
 40
0.0
 40
1.0
 40
1.0
 40
1.0
 40
1.0
 10
-10.0306151575
 20
-12.4885515565
 30
0.0
 10
-9.9791727
 20
-12.5129532134
 30
0.0
 10
-9.9202077272
 20
-12.5317177012
 30
0.0
 10
-9.8543738537
 20
-12.548561136
 30
0.0
  0
SPLINE
  5
28E
100
AcDbEntity
  8
CURVE
100
AcDbSpline
 62
253
  6
CONTINUOUS
 70
0
 71
3
 72
8
 73
4
 74
0
 42
0.0000001
 43
0.0000001
 44
0.0000000001
 40
0.0
 40
0.0
 40
0.0
 40
0.0
 40
1.0
 40
1.0
 40
1.0
 40
1.0
 10
-9.546197074
 20
-12.6274074077
 30
0.0
 10
-9.4596015864
 20
-12.6477548163
 30
0.0
 10
-9.3933818274
 20
-12.6782759008
 30
0.0
 10
-9.347537344
 20
-12.7189707179
 30
0.0
  0
SPLINE
  5
28F
100
AcDbEntity
  8
CURVE
100
AcDbSpline
 62
253
  6
CONTINUOUS
 70
0
 71
3
 72
8
 73
4
 74
0
 42
0.0000001
 43
0.0000001
 44
0.0000000001
 40
0.0
 40
0.0
 40
0.0
 40
0.0
 40
1.0
 40
1.0
 40
1.0
 40
1.0
 10
-9.347537344
 20
-12.7189707179
 30
0.0
 10
-9.3016928606
 20
-12.759665535
 30
0.0
 10
-9.2787708455
 20
-12.8181643417
 30
0.0
 10
-9.2787708455
 20
-12.8970105569
 30
0.0
  0
SPLINE
  5
290
100
AcDbEntity
  8
CURVE
100
AcDbSpline
 62
253
  6
CONTINUOUS
 70
0
 71
3
 72
8
 73
4
 74
0
 42
0.0000001
 43
0.0000001
 44
0.0000000001
 40
0.0
 40
0.0
 40
0.0
 40
0.0
 40
1.0
 40
1.0
 40
1.0
 40
1.0
 10
-9.2787708455
 20
-12.8970105569
 30
0.0
 10
-9.2787708455
 20
-12.9834870856
 30
0.0
 10
-9.3093335324
 20
-13.0496161776
 30
0.0
 10
-9.3659244727
 20
-13.0998502133
 30
0.0
  0
SPLINE
  5
291
100
AcDbEntity
  8
CURVE
100
AcDbSpline
 62
253
  6
CONTINUOUS
 70
0
 71
3
 72
8
 73
4
 74
0
 42
0.0000001
 43
0.0000001
 44
0.0000000001
 40
0.0
 40
0.0
 40
0.0
 40
0.0
 40
1.0
 40
1.0
 40
1.0
 40
1.0
 10
-9.3659244727
 20
-13.0998502133
 30
0.0
 10
-9.4239449673
 20
-13.1513532203
 30
0.0
 10
-9.5130871945
 20
-13.1742440762
 30
0.0
 10
-9.6353388482
 20
-13.1742440762
 30
0.0
  0
SPLINE
  5
292
100
AcDbEntity
  8
CURVE
100
AcDbSpline
 62
253
  6
CONTINUOUS
 70
0
 71
3
 72
8
 73
4
 74
0
 42
0.0000001
 43
0.0000001
 44
0.0000000001
 40
0.0
 40
0.0
 40
0.0
 40
0.0
 40
1.0
 40
1.0
 40
1.0
 40
1.0
 10
-9.6200575047
 20
-13.4489341199
 30
0.0
 10
-9.4927114659
 20
-13.4489341199
 30
0.0
 10
-9.3882878952
 20
-13.4311301356
 30
0.0
 10
-9.3044402526
 20
-13.3950606061
 30
0.0
  0
SPLINE
  5
293
100
AcDbEntity
  8
CURVE
100
AcDbSpline
 62
253
  6
CONTINUOUS
 70
0
 71
3
 72
8
 73
4
 74
0
 42
0.0000001
 43
0.0000001
 44
0.0000000001
 40
0.0
 40
0.0
 40
0.0
 40
0.0
 40
1.0
 40
1.0
 40
1.0
 40
1.0
 10
-9.3044402526
 20
-13.3950606061
 30
0.0
 10
-9.2227384978
 20
-13.3599141933
 30
0.0
 10
-9.1565187388
 20
-13.314132517
 30
0.0
 10
-9.1055803233
 20
-13.2581771435
 30
0.0
  0
SPLINE
  5
294
100
AcDbEntity
  8
CURVE
100
AcDbSpline
 62
253
  6
CONTINUOUS
 70
0
 71
3
 72
8
 73
4
 74
0
 42
0.0000001
 43
0.0000001
 44
0.0000000001
 40
0.0
 40
0.0
 40
0.0
 40
0.0
 40
1.0
 40
1.0
 40
1.0
 40
1.0
 10
-9.1055803233
 20
-13.2581771435
 30
0.0
 10
-9.0546419077
 20
-13.20222177
 30
0.0
 10
-9.0215320282
 20
-13.1360926781
 30
0.0
 10
-9.0011567489
 20
-13.0648767209
 30
0.0
  0
SPLINE
  5
295
100
AcDbEntity
  8
CURVE
100
AcDbSpline
 62
253
  6
CONTINUOUS
 70
0
 71
3
 72
8
 73
4
 74
0
 42
0.0000001
 43
0.0000001
 44
0.0000000001
 40
0.0
 40
0.0
 40
0.0
 40
0.0
 40
1.0
 40
1.0
 40
1.0
 40
1.0
 10
-9.0011567489
 20
-13.0648767209
 30
0.0
 10
-8.980781477
 20
-12.9936607899
 30
0.0
 10
-8.9705936127
 20
-12.919901441
 30
0.0
 10
-8.9705936127
 20
-12.8486854828
 30
0.0
  0
SPLINE
  5
296
100
AcDbEntity
  8
CURVE
100
AcDbSpline
 62
253
  6
CONTINUOUS
 70
0
 71
3
 72
8
 73
4
 74
0
 42
0.0000001
 43
0.0000001
 44
0.0000000001
 40
0.0
 40
0.0
 40
0.0
 40
0.0
 40
1.0
 40
1.0
 40
1.0
 40
1.0
 10
-8.9705936127
 20
-12.8486854828
 30
0.0
 10
-8.9705936127
 20
-12.7164272989
 30
0.0
 10
-9.0037034922
 20
-12.6146902562
 30
0.0
 10
-9.0699233869
 20
-12.5434744238
 30
0.0
  0
SPLINE
  5
297
100
AcDbEntity
  8
CURVE
100
AcDbSpline
 62
253
  6
CONTINUOUS
 70
0
 71
3
 72
8
 73
4
 74
0
 42
0.0000001
 43
0.0000001
 44
0.0000000001
 40
0.0
 40
0.0
 40
0.0
 40
0.0
 40
1.0
 40
1.0
 40
1.0
 40
1.0
 10
-9.0699233869
 20
-12.5434744238
 30
0.0
 10
-9.1361434632
 20
-12.4722583963
 30
0.0
 10
-9.2303791695
 20
-12.4188464277
 30
0.0
 10
-9.3526312762
 20
-12.3883252866
 30
0.0
  0
SPLINE
  5
298
100
AcDbEntity
  8
CURVE
100
AcDbSpline
 62
253
  6
CONTINUOUS
 70
0
 71
3
 72
8
 73
4
 74
0
 42
0.0000001
 43
0.0000001
 44
0.0000000001
 40
0.0
 40
0.0
 40
0.0
 40
0.0
 40
1.0
 40
1.0
 40
1.0
 40
1.0
 10
-9.5869476252
 20
-12.3298264799
 30
0.0
 10
-9.6633552485
 20
-12.3120224904
 30
0.0
 10
-9.7244810753
 20
-12.2942185008
 30
0.0
 10
-9.7734396589
 20
-12.2754140868
 30
0.0
  0
SPLINE
  5
299
100
AcDbEntity
  8
CURVE
100
AcDbSpline
 62
253
  6
CONTINUOUS
 70
0
 71
3
 72
8
 73
4
 74
0
 42
0.0000001
 43
0.0000001
 44
0.0000000001
 40
0.0
 40
0.0
 40
0.0
 40
0.0
 40
1.0
 40
1.0
 40
1.0
 40
1.0
 10
-9.7734396589
 20
-12.2754140868
 30
0.0
 10
-9.8238107138
 20
-12.2560671592
 30
0.0
 10
-9.8620145255
 20
-12.2357196941
 30
0.0
 10
-9.8931663379
 20
-12.213684202
 30
0.0
  0
SPLINE
  5
29A
100
AcDbEntity
  8
CURVE
100
AcDbSpline
 62
253
  6
CONTINUOUS
 70
0
 71
3
 72
8
 73
4
 74
0
 42
0.0000001
 43
0.0000001
 44
0.0000000001
 40
0.0
 40
0.0
 40
0.0
 40
0.0
 40
1.0
 40
1.0
 40
1.0
 40
1.0
 10
-9.8931663379
 20
-12.213684202
 30
0.0
 10
-9.9231408053
 20
-12.1924815146
 30
0.0
 10
-9.9435160809
 20
-12.1670472115
 30
0.0
 10
-9.9547859352
 20
-12.1395361178
 30
0.0
  0
SPLINE
  5
29B
100
AcDbEntity
  8
CURVE
100
AcDbSpline
 62
253
  6
CONTINUOUS
 70
0
 71
3
 72
8
 73
4
 74
0
 42
0.0000001
 43
0.0000001
 44
0.0000000001
 40
0.0
 40
0.0
 40
0.0
 40
0.0
 40
1.0
 40
1.0
 40
1.0
 40
1.0
 10
-9.9547859352
 20
-12.1395361178
 30
0.0
 10
-9.9664380961
 20
-12.1110917673
 30
0.0
 10
-9.9715320282
 20
-12.0780272637
 30
0.0
 10
-9.9715320282
 20
-12.0398759222
 30
0.0
  0
SPLINE
  5
29C
100
AcDbEntity
  8
CURVE
100
AcDbSpline
 62
253
  6
CONTINUOUS
 70
0
 71
3
 72
8
 73
4
 74
0
 42
0.0000001
 43
0.0000001
 44
0.0000000001
 40
0.0
 40
0.0
 40
0.0
 40
0.0
 40
1.0
 40
1.0
 40
1.0
 40
1.0
 10
-9.9715320282
 20
-12.0398759222
 30
0.0
 10
-9.9715320282
 20
-11.973746802
 30
0.0
 10
-9.9511567526
 20
-11.9228783089
 30
0.0
 10
-9.9053122692
 20
-11.8872703298
 30
0.0
  0
SPLINE
  5
29D
100
AcDbEntity
  8
CURVE
100
AcDbSpline
 62
253
  6
CONTINUOUS
 70
0
 71
3
 72
8
 73
4
 74
0
 42
0.0000001
 43
0.0000001
 44
0.0000000001
 40
0.0
 40
0.0
 40
0.0
 40
0.0
 40
1.0
 40
1.0
 40
1.0
 40
1.0
 10
-9.9053122692
 20
-11.8872703298
 30
0.0
 10
-9.8594677859
 20
-11.8516623507
 30
0.0
 10
-9.7881540947
 20
-11.8313148856
 30
0.0
 10
-9.6862772637
 20
-11.8313148856
 30
0.0
  0
SPLINE
  5
29E
100
AcDbEntity
  8
CURVE
100
AcDbSpline
 62
253
  6
CONTINUOUS
 70
0
 71
3
 72
8
 73
4
 74
0
 42
0.0000001
 43
0.0000001
 44
0.0000000001
 40
0.0
 40
0.0
 40
0.0
 40
0.0
 40
1.0
 40
1.0
 40
1.0
 40
1.0
 10
-8.097001236
 20
-11.5515380038
 30
0.0
 10
-8.1937841349
 20
-11.5515380038
 30
0.0
 10
-8.2778324299
 20
-11.5642551554
 30
0.0
 10
-8.3518231254
 20
-11.5893023633
 30
0.0
  0
SPLINE
  5
29F
100
AcDbEntity
  8
CURVE
100
AcDbSpline
 62
253
  6
CONTINUOUS
 70
0
 71
3
 72
8
 73
4
 74
0
 42
0.0000001
 43
0.0000001
 44
0.0000000001
 40
0.0
 40
0.0
 40
0.0
 40
0.0
 40
1.0
 40
1.0
 40
1.0
 40
1.0
 10
-8.3518231254
 20
-11.5893023633
 30
0.0
 10
-8.4281004839
 20
-11.6151236485
 30
0.0
 10
-8.4917735033
 20
-11.6481881521
 30
0.0
 10
-8.5432622694
 20
-11.693335887
 30
0.0
  0
SPLINE
  5
2A0
100
AcDbEntity
  8
CURVE
100
AcDbSpline
 62
253
  6
CONTINUOUS
 70
0
 71
3
 72
8
 73
4
 74
0
 42
0.0000001
 43
0.0000001
 44
0.0000000001
 40
0.0
 40
0.0
 40
0.0
 40
0.0
 40
1.0
 40
1.0
 40
1.0
 40
1.0
 10
-8.5432622694
 20
-11.693335887
 30
0.0
 10
-8.596197074
 20
-11.7397515754
 30
0.0
 10
-8.6369476252
 20
-11.793163544
 30
0.0
 10
-8.6630302567
 20
-11.8539396852
 30
0.0
  0
SPLINE
  5
2A1
100
AcDbEntity
  8
CURVE
100
AcDbSpline
 62
253
  6
CONTINUOUS
 70
0
 71
3
 72
8
 73
4
 74
0
 42
0.0000001
 43
0.0000001
 44
0.0000000001
 40
0.0
 40
0.0
 40
0.0
 40
0.0
 40
1.0
 40
1.0
 40
1.0
 40
1.0
 10
-8.6630302567
 20
-11.8539396852
 30
0.0
 10
-8.6904327803
 20
-11.9177913578
 30
0.0
 10
-8.7031673842
 20
-11.9864639535
 30
0.0
 10
-8.7031673842
 20
-12.0602232742
 30
0.0
  0
SPLINE
  5
2A2
100
AcDbEntity
  8
CURVE
100
AcDbSpline
 62
253
  6
CONTINUOUS
 70
0
 71
3
 72
8
 73
4
 74
0
 42
0.0000001
 43
0.0000001
 44
0.0000000001
 40
0.0
 40
0.0
 40
0.0
 40
0.0
 40
1.0
 40
1.0
 40
1.0
 40
1.0
 10
-8.7031673842
 20
-12.0602232742
 30
0.0
 10
-8.7031673842
 20
-12.1365260704
 30
0.0
 10
-8.6955267125
 20
-12.2026551906
 30
0.0
 10
-8.6755682206
 20
-12.2562202664
 30
0.0
  0
SPLINE
  5
2A3
100
AcDbEntity
  8
CURVE
100
AcDbSpline
 62
253
  6
CONTINUOUS
 70
0
 71
3
 72
8
 73
4
 74
0
 42
0.0000001
 43
0.0000001
 44
0.0000000001
 40
0.0
 40
0.0
 40
0.0
 40
0.0
 40
1.0
 40
1.0
 40
1.0
 40
1.0
 10
-8.6755682206
 20
-12.2562202664
 30
0.0
 10
-8.6547761612
 20
-12.3120224904
 30
0.0
 10
-8.6267597609
 20
-12.3578041455
 30
0.0
 10
-8.5911029925
 20
-12.395955461
 30
0.0
  0
SPLINE
  5
2A4
100
AcDbEntity
  8
CURVE
100
AcDbSpline
 62
253
  6
CONTINUOUS
 70
0
 71
3
 72
8
 73
4
 74
0
 42
0.0000001
 43
0.0000001
 44
0.0000000001
 40
0.0
 40
0.0
 40
0.0
 40
0.0
 40
1.0
 40
1.0
 40
1.0
 40
1.0
 10
-8.5911029925
 20
-12.395955461
 30
0.0
 10
-8.5554460698
 20
-12.4341069417
 30
0.0
 10
-8.5096015864
 20
-12.4646280828
 30
0.0
 10
-8.4591676237
 20
-12.488551468
 30
0.0
  0
SPLINE
  5
2A5
100
AcDbEntity
  8
CURVE
100
AcDbSpline
 62
253
  6
CONTINUOUS
 70
0
 71
3
 72
8
 73
4
 74
0
 42
0.0000001
 43
0.0000001
 44
0.0000000001
 40
0.0
 40
0.0
 40
0.0
 40
0.0
 40
1.0
 40
1.0
 40
1.0
 40
1.0
 10
-8.4591676237
 20
-12.488551468
 30
0.0
 10
-8.4077252083
 20
-12.5129532134
 30
0.0
 10
-8.3487602102
 20
-12.5317175918
 30
0.0
 10
-8.2829259091
 20
-12.548561136
 30
0.0
  0
DIMENSION
  5
2A6
100
AcDbEntity
  8
0
100
AcDbDimension
 62
7
  6
CONTINUOUS
  2
*D0
 10
22.3252181717
 20
32.5
 11
-5.4642857143
 21
34.75
 70
160
 71
2
 42
44.6504363434
  3
DIMSTYLE_1
100
AcDbAlignedDimension
 13
-22.3252181717
 23
22.1001713375
 14
22.3252181717
 24
22.400016923
100
AcDbRotatedDimension
  0
DIMENSION
  5
2A7
100
AcDbEntity
  8
0
100
AcDbDimension
 62
7
  6
CONTINUOUS
  2
*D1
 10
30.3252181717
 20
-24.5
 11
29.1313916954
 21
-2.1072778499
 70
160
 71
2
 42
49.0
  3
DIMSTYLE_1
100
AcDbAlignedDimension
 13
21.5747860591
 23
24.5
 14
19.1747775975
 24
-24.5
 50
270.0
100
AcDbRotatedDimension
  0
DIMENSION
  5
2A8
100
AcDbEntity
  8
0
100
AcDbDimension
 62
7
  6
CONTINUOUS
  2
*D2
 10
-27.8752162268
 20
42.5
 11
-42.7966447983
 21
44.75
 70
160
 71
2
 42
21.7
  3
DIMSTYLE_1
100
AcDbAlignedDimension
 13
-49.5752162268
 23
0.5
 14
-27.8752162268
 24
21.4
100
AcDbRotatedDimension
  0
DIMENSION
  5
2A9
100
AcDbEntity
  8
0
100
AcDbDimension
 62
7
  6
CONTINUOUS
  2
*D3
 10
-38.8752162268
 20
32.5
 11
-35.0895019411
 21
34.75
 70
160
 71
2
 42
11.0
  3
DIMSTYLE_1
100
AcDbAlignedDimension
 13
-27.8752162268
 23
21.4
 14
-38.8752162268
 24
24.7456323968
 50
180.0
100
AcDbRotatedDimension
  0
LINE
  5
2AA
100
AcDbEntity
  8
0
100
AcDbLine
 62
7
  6
CONTINUOUS
 10
1.2747775975
 20
-24.5
 11
3.6747860591
 21
-24.5
  0
LINE
  5
2AB
100
AcDbEntity
  8
0
100
AcDbLine
 62
7
  6
CONTINUOUS
 10
18.6747775975
 20
-24.5
 11
21.0747860591
 21
-24.5
  0
LINE
  5
2AC
100
AcDbEntity
  8
0
100
AcDbLine
 62
253
  6
CONTINUOUS
 10
1.2878761762
 20
-24.4869014213
 11
3.6616874804
 21
-24.4869014213
  0
LINE
  5
2AD
100
AcDbEntity
  8
0
100
AcDbLine
 62
253
  6
CONTINUOUS
 10
18.6878761762
 20
-24.4869014213
 11
21.0616874804
 21
-24.4869014213
  0
LINE
  5
2AE
100
AcDbEntity
  8
0
100
AcDbLine
 62
253
  6
CONTINUOUS
 10
1.037880407
 20
-24.2369056521
 11
3.9116832496
 21
-24.2369056521
  0
LINE
  5
2AF
100
AcDbEntity
  8
0
100
AcDbLine
 62
253
  6
CONTINUOUS
 10
18.437880407
 20
-24.2369056521
 11
21.3116832496
 21
-24.2369056521
  0
LINE
  5
2B0
100
AcDbEntity
  8
RACCORDO
100
AcDbLine
 62
7
  6
CONTINUOUS
 10
-22.3252181717
 20
-21.6001713375
 11
-22.3252181717
 21
21.6001713375
  0
LINE
  5
2B1
100
AcDbEntity
  8
0
100
AcDbLine
 62
7
  6
CONTINUOUS
 10
15.6247818283
 20
-24.0
 11
12.3747818283
 21
-24.0
  0
LINE
  5
2B2
100
AcDbEntity
  8
0
100
AcDbLine
 62
7
  6
CONTINUOUS
 10
9.9747818283
 20
-24.0
 11
6.7247818283
 21
-24.0
  0
LINE
  5
2B3
100
AcDbEntity
  8
0
100
AcDbLine
 62
253
  6
CONTINUOUS
 10
7.6747818283
 20
-23.9982478817
 11
9.9747818283
 21
-23.9982478817
  0
LINE
  5
2B4
100
AcDbEntity
  8
0
100
AcDbLine
 62
253
  6
CONTINUOUS
 10
12.3747818283
 20
-23.9982478817
 11
14.6747818283
 21
-23.9982478817
  0
LINE
  5
2B5
100
AcDbEntity
  8
0
100
AcDbLine
 62
7
  6
CONTINUOUS
 10
15.6160550836
 20
-23.9912732553
 11
14.6747818283
 21
-23.9912732553
  0
LINE
  5
2B6
100
AcDbEntity
  8
0
100
AcDbLine
 62
7
  6
CONTINUOUS
 10
7.6747818283
 20
-23.9912732553
 11
6.733508573
 21
-23.9912732553
  0
LINE
  5
2B7
100
AcDbEntity
  8
0
100
AcDbLine
 62
253
  6
CONTINUOUS
 10
1.037880407
 20
-23.8443375673
 11
3.9116832496
 21
-23.8443375673
  0
LINE
  5
2B8
100
AcDbEntity
  8
0
100
AcDbLine
 62
253
  6
CONTINUOUS
 10
18.437880407
 20
-23.8443375673
 11
21.3116832496
 21
-23.8443375673
  0
LINE
  5
2B9
100
AcDbEntity
  8
0
100
AcDbLine
 62
253
  6
CONTINUOUS
 10
7.6747818283
 20
-23.7982512664
 11
10.1747818283
 21
-23.7982512664
  0
LINE
  5
2BA
100
AcDbEntity
  8
0
100
AcDbLine
 62
253
  6
CONTINUOUS
 10
12.1747818283
 20
-23.7982512664
 11
14.6747818283
 21
-23.7982512664
  0
LINE
  5
2BB
100
AcDbEntity
  8
0
100
AcDbLine
 62
253
  6
CONTINUOUS
 10
21.0616874804
 20
-23.6278312164
 11
18.6878761762
 21
-23.6278312164
  0
LINE
  5
2BC
100
AcDbEntity
  8
0
100
AcDbLine
 62
253
  6
CONTINUOUS
 10
3.6616874804
 20
-23.6278312164
 11
1.2878761762
 21
-23.6278312164
  0
LINE
  5
2BD
100
AcDbEntity
  8
0
100
AcDbLine
 62
7
  6
CONTINUOUS
 10
21.0675053102
 20
-23.1226497308
 11
18.6820583464
 21
-23.1226497308
  0
LINE
  5
2BE
100
AcDbEntity
  8
0
100
AcDbLine
 62
7
  6
CONTINUOUS
 10
1.2820583464
 20
-23.1226497308
 11
3.6675053102
 21
-23.1226497308
  0
LINE
  5
2BF
100
AcDbEntity
  8
0
100
AcDbLine
 62
7
  6
CONTINUOUS
 10
21.8242896748
 20
-22.4
 11
21.3247818283
 21
-22.4
  0
LINE
  5
2C0
100
AcDbEntity
  8
0
100
AcDbLine
 62
7
  6
CONTINUOUS
 10
18.4247818283
 20
-22.4
 11
15.6247818283
 21
-22.4
  0
LINE
  5
2C1
100
AcDbEntity
  8
0
100
AcDbLine
 62
7
  6
CONTINUOUS
 10
6.7247818283
 20
-22.4
 11
3.9247818283
 21
-22.4
  0
LINE
  5
2C2
100
AcDbEntity
  8
0
100
AcDbLine
 62
7
  6
CONTINUOUS
 10
1.0247818283
 20
-22.4
 11
0.5252739818
 21
-22.4
  0
LINE
  5
2C3
100
AcDbEntity
  8
0
100
AcDbLine
 62
7
  6
CONTINUOUS
 10
10.1747818283
 20
-22.4
 11
12.1747818283
 21
-22.4
  0
LINE
  5
2C4
100
AcDbEntity
  8
0
100
AcDbLine
 62
7
  6
CONTINUOUS
 10
14.6747818283
 20
-22.3737961104
 11
12.3747818283
 21
-22.3737961104
  0
LINE
  5
2C5
100
AcDbEntity
  8
0
100
AcDbLine
 62
7
  6
CONTINUOUS
 10
9.9747818283
 20
-22.3737961104
 11
7.6747818283
 21
-22.3737961104
  0
LINE
  5
2C6
100
AcDbEntity
  8
0
100
AcDbLine
 62
7
  6
CONTINUOUS
 10
21.7981070774
 20
-22.3213883311
 11
21.0675053102
 21
-22.3213883311
  0
LINE
  5
2C7
100
AcDbEntity
  8
0
100
AcDbLine
 62
7
  6
CONTINUOUS
 10
18.6820583464
 20
-22.3213883311
 11
15.6160550836
 21
-22.3213883311
  0
LINE
  5
2C8
100
AcDbEntity
  8
0
100
AcDbLine
 62
7
  6
CONTINUOUS
 10
14.6747818283
 20
-22.3213883311
 11
7.6747818283
 21
-22.3213883311
  0
LINE
  5
2C9
100
AcDbEntity
  8
0
100
AcDbLine
 62
7
  6
CONTINUOUS
 10
6.733508573
 20
-22.3213883311
 11
3.6675053102
 21
-22.3213883311
  0
LINE
  5
2CA
100
AcDbEntity
  8
0
100
AcDbLine
 62
7
  6
CONTINUOUS
 10
1.2820583464
 20
-22.3213883311
 11
0.5514565792
 21
-22.3213883311
  0
LINE
  5
2CB
100
AcDbEntity
  8
RACCORDO
100
AcDbLine
 62
7
  6
CONTINUOUS
 10
21.6749531658
 20
-22.1
 11
-21.8253895092
 21
-22.1
  0
LINE
  5
2CC
100
AcDbEntity
  8
RACCORDO
100
AcDbLine
 62
253
  6
CONTINUOUS
 10
-21.7215132142
 20
-21.996123705
 11
21.5710768709
 21
-21.996123705
  0
LINE
  5
2CD
100
AcDbEntity
  8
RACCORDO
100
AcDbLine
 62
253
  6
CONTINUOUS
 10
-21.6833853361
 20
-9.5
 11
-21.6833853361
 21
9.5
  0
LINE
  5
2CE
100
AcDbEntity
  8
RACCORDO
100
AcDbLine
 62
253
  6
CONTINUOUS
 10
-21.7089079351
 20
-21.1448536428
 11
21.5584715917
 21
-21.1448536428
  0
LINE
  5
2CF
100
AcDbEntity
  8
RACCORDO
100
AcDbLine
 62
253
  6
CONTINUOUS
 10
-17.1201030487
 20
-8.8454665181
 11
-17.1201030487
 21
-8.9436936171
  0
LINE
  5
2D0
100
AcDbEntity
  8
ASSI
100
AcDbLine
 62
253
  6
CONTINUOUS
 10
-17.1201030487
 20
-9.05
 11
-17.1201030487
 21
-9.1615759643
  0
LINE
  5
2D1
100
AcDbEntity
  8
RACCORDO
100
AcDbLine
 62
253
  6
CONTINUOUS
 10
-17.1201030487
 20
-9.05
 11
-17.1201030487
 21
-9.1615759643
  0
LINE
  5
2D2
100
AcDbEntity
  8
ASSI
100
AcDbLine
 62
253
  6
CONTINUOUS
 10
-17.1201030487
 20
-15.95
 11
-17.1201030487
 21
-15.8522821595
  0
LINE
  5
2D3
100
AcDbEntity
  8
RACCORDO
100
AcDbLine
 62
253
  6
CONTINUOUS
 10
-17.1201030487
 20
-15.9433202604
 11
-17.1201030487
 21
-15.8522821595
  0
LINE
  5
2D4
100
AcDbEntity
  8
RACCORDO
100
AcDbLine
 62
253
  6
CONTINUOUS
 10
-17.1201030487
 20
-16.1622399421
 11
-17.1201030431
 21
-16.052941261
  0
LINE
  5
2D5
100
AcDbEntity
  8
ASSI
100
AcDbLine
 62
7
  6
CONTINUOUS
 10
-16.3252181717
 20
-9.05
 11
-16.3252181717
 21
-9.0552361207
  0
LINE
  5
2D6
100
AcDbEntity
  8
DRAFT
100
AcDbLine
 62
7
  6
CONTINUOUS
 10
-16.3252181717
 20
-9.05
 11
-16.3252181717
 21
-9.0552361207
  0
LINE
  5
2D7
100
AcDbEntity
  8
CURVE
100
AcDbLine
 62
253
  6
CONTINUOUS
 10
-15.2512907513
 20
-11.5515380038
 11
-15.2512907513
 21
-13.4489341199
  0
LINE
  5
2D8
100
AcDbEntity
  8
RACCORDO
100
AcDbLine
 62
7
  6
CONTINUOUS
 10
22.2977264777
 20
-16.6
 11
22.1747818283
 21
-16.6
  0
LINE
  5
2D9
100
AcDbEntity
  8
RACCORDO
100
AcDbLine
 62
253
  6
CONTINUOUS
 10
-5.5303332947
 20
-16.1622399421
 11
-17.1201030487
 21
-16.1622399421
  0
LINE
  5
2DA
100
AcDbEntity
  8
RACCORDO
100
AcDbLine
 62
7
  6
CONTINUOUS
 10
-5.5303332947
 20
-16.052941261
 11
-17.1201030487
 21
-16.052941261
  0
LINE
  5
2DB
100
AcDbEntity
  8
ASSI
100
AcDbLine
 62
7
  6
CONTINUOUS
 10
-17.1201030487
 20
-15.95
 11
-16.3252181717
 21
-15.95
  0
LINE
  5
2DC
100
AcDbEntity
  8
DRAFT
100
AcDbLine
 62
7
  6
CONTINUOUS
 10
-17.1201030487
 20
-15.95
 11
-16.3252181717
 21
-15.95
  0
LINE
  5
2DD
100
AcDbEntity
  8
ASSI
100
AcDbLine
 62
7
  6
CONTINUOUS
 10
-6.3252181717
 20
-15.95
 11
-5.5303332947
 21
-15.95
  0
LINE
  5
2DE
100
AcDbEntity
  8
DRAFT
100
AcDbLine
 62
7
  6
CONTINUOUS
 10
-6.3252181717
 20
-15.95
 11
-5.5303332947
 21
-15.95
  0
LINE
  5
2DF
100
AcDbEntity
  8
ASSI
100
AcDbLine
 62
7
  6
CONTINUOUS
 10
-5.5303332947
 20
-15.9433202604
 11
-17.1201030487
 21
-15.9433202604
  0
LINE
  5
2E0
100
AcDbEntity
  8
RACCORDO
100
AcDbLine
 62
7
  6
CONTINUOUS
 10
-5.5303332947
 20
-15.9433202604
 11
-17.1201030487
 21
-15.9433202604
  0
LINE
  5
2E1
100
AcDbEntity
  8
ASSI
100
AcDbLine
 62
253
  6
CONTINUOUS
 10
-5.5303332947
 20
-15.8522821594
 11
-17.1201030487
 21
-15.8522821595
  0
LINE
  5
2E2
100
AcDbEntity
  8
RACCORDO
100
AcDbLine
 62
253
  6
CONTINUOUS
 10
-5.5303332947
 20
-15.8522821594
 11
-17.1201030487
 21
-15.8522821595
  0
LINE
  5
2E3
100
AcDbEntity
  8
RACCORDO
100
AcDbLine
 62
253
  6
CONTINUOUS
 10
-4.7177624093
 20
-15.4494565217
 11
-4.7144472893
 21
-15.4504742524
  0
LINE
  5
2E4
100
AcDbEntity
  8
ASSI
100
AcDbLine
 62
253
  6
CONTINUOUS
 10
-4.8133589841
 20
-15.4201086957
 11
-4.8200760128
 21
-15.4180465905
  0
LINE
  5
2E5
100
AcDbEntity
  8
RACCORDO
100
AcDbLine
 62
253
  6
CONTINUOUS
 10
-4.8133589841
 20
-15.4201086957
 11
-4.8200760128
 21
-15.4180465905
  0
LINE
  5
2E6
100
AcDbEntity
  8
CURVE
100
AcDbLine
 62
253
  6
CONTINUOUS
 10
-14.9583952867
 20
-13.4489341199
 11
-14.9583952867
 21
-12.7367747075
  0
LINE
  5
2E7
100
AcDbEntity
  8
CURVE
100
AcDbLine
 62
253
  6
CONTINUOUS
 10
-14.9533014678
 20
-12.4773452343
 11
-14.9533014678
 21
-11.8058806956
  0
LINE
  5
2E8
100
AcDbEntity
  8
CURVE
100
AcDbLine
 62
253
  6
CONTINUOUS
 10
-13.4913711958
 20
-11.5515380038
 11
-13.4913711958
 21
-13.4489341199
  0
LINE
  5
2E9
100
AcDbEntity
  8
CURVE
100
AcDbLine
 62
253
  6
CONTINUOUS
 10
-13.2035694652
 20
-13.4489341199
 11
-13.2035694652
 21
-12.7367747075
  0
LINE
  5
2EA
100
AcDbEntity
  8
CURVE
100
AcDbLine
 62
253
  6
CONTINUOUS
 10
-13.1984757595
 20
-12.4773452343
 11
-13.1984757595
 21
-11.8058806956
  0
LINE
  5
2EB
100
AcDbEntity
  8
0
100
AcDbLine
 62
253
  6
CONTINUOUS
 10
3.6616874804
 20
24.4869014213
 11
3.6747860591
 21
24.5
  0
LINE
  5
2EC
100
AcDbEntity
  8
0
100
AcDbLine
 62
253
  6
CONTINUOUS
 10
3.9116832496
 20
24.2369056521
 11
3.9247818283
 21
24.2500042308
  0
LINE
  5
2ED
100
AcDbEntity
  8
CURVE
100
AcDbLine
 62
253
  6
CONTINUOUS
 10
-15.2512907513
 20
-13.4489341199
 11
-14.9583952867
 21
-13.4489341199
  0
LINE
  5
2EE
100
AcDbEntity
  8
CURVE
100
AcDbLine
 62
253
  6
CONTINUOUS
 10
-13.4913711958
 20
-13.4489341199
 11
-13.2035694652
 21
-13.4489341199
  0
LINE
  5
2EF
100
AcDbEntity
  8
CURVE
100
AcDbLine
 62
253
  6
CONTINUOUS
 10
-12.4394945913
 20
-13.4489341199
 11
-12.1364112907
 21
-13.4489341199
  0
LINE
  5
2F0
100
AcDbEntity
  8
CURVE
100
AcDbLine
 62
253
  6
CONTINUOUS
 10
-11.1303791695
 20
-13.4489341199
 11
-10.5165723496
 21
-13.4489341199
  0
LINE
  5
2F1
100
AcDbEntity
  8
CURVE
100
AcDbLine
 62
253
  6
CONTINUOUS
 10
-10.2567867928
 20
-13.4489341199
 11
-9.6200575047
 21
-13.4489341199
  0
LINE
  5
2F2
100
AcDbEntity
  8
CURVE
100
AcDbLine
 62
253
  6
CONTINUOUS
 10
-8.6853388482
 20
-13.4489341199
 11
-8.0486095601
 21
-13.4489341199
  0
LINE
  5
2F3
100
AcDbEntity
  8
CURVE
100
AcDbLine
 62
253
  6
CONTINUOUS
 10
-10.5165723496
 20
-13.1895046184
 11
-11.0718000822
 21
-13.1895046184
  0
LINE
  5
2F4
100
AcDbEntity
  8
CURVE
100
AcDbLine
 62
253
  6
CONTINUOUS
 10
-8.0638913565
 20
-13.1742440762
 11
-8.6853388482
 21
-13.1742440762
  0
LINE
  5
2F5
100
AcDbEntity
  8
CURVE
100
AcDbLine
 62
253
  6
CONTINUOUS
 10
-9.6353388482
 20
-13.1742440762
 11
-10.2567867928
 21
-13.1742440762
  0
LINE
  5
2F6
100
AcDbEntity
  8
CURVE
100
AcDbLine
 62
253
  6
CONTINUOUS
 10
-9.3526312762
 20
-12.3883252866
 11
-9.5869476252
 21
-12.3298264799
  0
LINE
  5
2F7
100
AcDbEntity
  8
CURVE
100
AcDbLine
 62
253
  6
CONTINUOUS
 10
-7.7811833315
 20
-12.3883252866
 11
-8.0154996806
 21
-12.3298264799
  0
LINE
  5
2F8
100
AcDbEntity
  8
CURVE
100
AcDbLine
 62
253
  6
CONTINUOUS
 10
-9.8543738537
 20
-12.548561136
 11
-9.546197074
 21
-12.6274074077
  0
LINE
  5
2F9
100
AcDbEntity
  8
CURVE
100
AcDbLine
 62
253
  6
CONTINUOUS
 10
-8.2829259091
 20
-12.548561136
 11
-7.9747491293
 21
-12.6274074077
  0
LINE
  5
2FA
100
AcDbEntity
  8
ASSI
100
AcDbLine
 62
253
  6
CONTINUOUS
 10
-17.8370773593
 20
-9.5798913043
 11
-17.8278304837
 21
-9.582730064
  0
LINE
  5
2FB
100
AcDbEntity
  8
RACCORDO
100
AcDbLine
 62
253
  6
CONTINUOUS
 10
-17.8370773593
 20
-9.5798913043
 11
-17.8278304837
 21
-9.582730064
  0
LINE
  5
2FC
100
AcDbEntity
  8
RACCORDO
100
AcDbLine
 62
253
  6
CONTINUOUS
 10
-17.9326739341
 20
-9.5505434783
 11
-17.9385990534
 21
-9.5487244866
  0
LINE
  5
2FD
100
AcDbEntity
  8
0
100
AcDbLine
 62
253
  6
CONTINUOUS
 10
3.6616874804
 20
-24.4869014213
 11
3.6747860591
 21
-24.5
  0
LINE
  5
2FE
100
AcDbEntity
  8
0
100
AcDbLine
 62
253
  6
CONTINUOUS
 10
3.9116832496
 20
-24.2369056521
 11
3.9247818283
 21
-24.2500042308
  0
LINE
  5
2FF
100
AcDbEntity
  8
CURVE
100
AcDbLine
 62
253
  6
CONTINUOUS
 10
-12.1364112907
 20
-13.4489341199
 11
-12.1440521889
 21
-13.2327428687
  0
LINE
  5
300
100
AcDbEntity
  8
CURVE
100
AcDbLine
 62
253
  6
CONTINUOUS
 10
-12.4445882969
 20
-13.2861548232
 11
-12.4394945913
 21
-13.4489341199
  0
LINE
  5
301
100
AcDbEntity
  8
CURVE
100
AcDbLine
 62
253
  6
CONTINUOUS
 10
-14.9583952867
 20
-12.7367747075
 11
-14.512684887
 21
-12.7367747075
  0
LINE
  5
302
100
AcDbEntity
  8
CURVE
100
AcDbLine
 62
253
  6
CONTINUOUS
 10
-13.2035694652
 20
-12.7367747075
 11
-12.8520949417
 21
-12.7367747075
  0
LINE
  5
303
100
AcDbEntity
  8
CURVE
100
AcDbLine
 62
253
  6
CONTINUOUS
 10
-11.4614784174
 20
-12.6223205132
 11
-10.6057141238
 21
-12.6223205132
  0
LINE
  5
304
100
AcDbEntity
  8
CURVE
100
AcDbLine
 62
253
  6
CONTINUOUS
 10
-12.8495482021
 20
-12.4773452343
 11
-13.1984757595
 21
-12.4773452343
  0
LINE
  5
305
100
AcDbEntity
  8
CURVE
100
AcDbLine
 62
253
  6
CONTINUOUS
 10
-14.6222022765
 20
-12.4773452343
 11
-14.9533014678
 21
-12.4773452343
  0
LINE
  5
306
100
AcDbEntity
  8
CURVE
100
AcDbLine
 62
253
  6
CONTINUOUS
 10
-10.6057141238
 20
-12.3578041455
 11
-11.4614784174
 21
-12.3578041455
  0
LINE
  5
307
100
AcDbEntity
  8
CURVE
100
AcDbLine
 62
253
  6
CONTINUOUS
 10
-9.6862772637
 20
-11.8313148856
 11
-9.113220995
 21
-11.8313148856
  0
LINE
  5
308
100
AcDbEntity
  8
CURVE
100
AcDbLine
 62
253
  6
CONTINUOUS
 10
-8.114829772
 20
-11.8313148856
 11
-7.5417735033
 21
-11.8313148856
  0
LINE
  5
309
100
AcDbEntity
  8
CURVE
100
AcDbLine
 62
253
  6
CONTINUOUS
 10
-11.0565187388
 20
-11.8211412096
 11
-10.5293069535
 21
-11.8211412096
  0
LINE
  5
30A
100
AcDbEntity
  8
CURVE
100
AcDbLine
 62
253
  6
CONTINUOUS
 10
-14.9533014678
 20
-11.8058806956
 11
-14.5865454309
 21
-11.8058806956
  0
LINE
  5
30B
100
AcDbEntity
  8
CURVE
100
AcDbLine
 62
253
  6
CONTINUOUS
 10
-13.1984757595
 20
-11.8058806956
 11
-12.8419073038
 21
-11.8058806956
  0
LINE
  5
30C
100
AcDbEntity
  8
CURVE
100
AcDbLine
 62
253
  6
CONTINUOUS
 10
-7.5417735033
 20
-11.5515380038
 11
-8.097001236
 21
-11.5515380038
  0
LINE
  5
30D
100
AcDbEntity
  8
CURVE
100
AcDbLine
 62
253
  6
CONTINUOUS
 10
-9.113220995
 20
-11.5515380038
 11
-9.6684487276
 21
-11.5515380038
  0
LINE
  5
30E
100
AcDbEntity
  8
CURVE
100
AcDbLine
 62
253
  6
CONTINUOUS
 10
-10.5293069535
 20
-11.5515380038
 11
-11.079440754
 21
-11.5515380038
  0
LINE
  5
30F
100
AcDbEntity
  8
CURVE
100
AcDbLine
 62
253
  6
CONTINUOUS
 10
-12.8520949417
 20
-11.5515380038
 11
-13.4913711958
 21
-11.5515380038
  0
LINE
  5
310
100
AcDbEntity
  8
CURVE
100
AcDbLine
 62
253
  6
CONTINUOUS
 10
-14.5789047026
 20
-11.5515380038
 11
-15.2512907513
 21
-11.5515380038
  0
LINE
  5
311
100
AcDbEntity
  8
CURVE
100
AcDbLine
 62
253
  6
CONTINUOUS
 10
-10.6057141238
 20
-12.6223205132
 11
-10.6057141238
 21
-12.3578041455
  0
LINE
  5
312
100
AcDbEntity
  8
CURVE
100
AcDbLine
 62
253
  6
CONTINUOUS
 10
-10.5293069535
 20
-11.8211412096
 11
-10.5293069535
 21
-11.5515380038
  0
LINE
  5
313
100
AcDbEntity
  8
CURVE
100
AcDbLine
 62
253
  6
CONTINUOUS
 10
-10.5165723496
 20
-13.4489341199
 11
-10.5165723496
 21
-13.1895046184
  0
LINE
  5
314
100
AcDbEntity
  8
CURVE
100
AcDbLine
 62
253
  6
CONTINUOUS
 10
-10.2567867928
 20
-13.1742440762
 11
-10.2567867928
 21
-13.4489341199
  0
LINE
  5
315
100
AcDbEntity
  8
CURVE
100
AcDbLine
 62
253
  6
CONTINUOUS
 10
-9.113220995
 20
-11.8313148856
 11
-9.113220995
 21
-11.5515380038
  0
LINE
  5
316
100
AcDbEntity
  8
CURVE
100
AcDbLine
 62
253
  6
CONTINUOUS
 10
-8.6853388482
 20
-13.1742440762
 11
-8.6853388482
 21
-13.4489341199
  0
LINE
  5
317
100
AcDbEntity
  8
RACCORDO
100
AcDbLine
 62
253
  6
CONTINUOUS
 10
21.5329489927
 20
-9.5
 11
-4.6230457983
 21
-9.5
  0
LINE
  5
318
100
AcDbEntity
  8
ASSI
100
AcDbLine
 62
253
  6
CONTINUOUS
 10
-4.9656606805
 20
-9.5
 11
-17.6847756628
 21
-9.5
  0
LINE
  5
319
100
AcDbEntity
  8
RACCORDO
100
AcDbLine
 62
253
  6
CONTINUOUS
 10
-4.9656606805
 20
-9.5
 11
-17.6847756628
 21
-9.5
  0
LINE
  5
31A
100
AcDbEntity
  8
RACCORDO
100
AcDbLine
 62
253
  6
CONTINUOUS
 10
-18.0273905451
 20
-9.5
 11
-21.6833853361
 21
-9.5
  0
LINE
  5
31B
100
AcDbEntity
  8
ASSI
100
AcDbLine
 62
253
  6
CONTINUOUS
 10
-17.1201030487
 20
-9.1615759643
 11
-5.5303332947
 21
-9.1615759643
  0
LINE
  5
31C
100
AcDbEntity
  8
RACCORDO
100
AcDbLine
 62
253
  6
CONTINUOUS
 10
-17.1201030487
 20
-9.1615759643
 11
-5.5303332947
 21
-9.1615759643
  0
LINE
  5
31D
100
AcDbEntity
  8
ASSI
100
AcDbLine
 62
7
  6
CONTINUOUS
 10
-17.1201030487
 20
-9.0597474568
 11
-5.5303332947
 21
-9.0597474568
  0
LINE
  5
31E
100
AcDbEntity
  8
RACCORDO
100
AcDbLine
 62
7
  6
CONTINUOUS
 10
-17.1201030487
 20
-9.0597474568
 11
-5.5303332947
 21
-9.0597474568
  0
LINE
  5
31F
100
AcDbEntity
  8
ASSI
100
AcDbLine
 62
7
  6
CONTINUOUS
 10
-5.5303332947
 20
-9.05
 11
-6.3252181717
 21
-9.05
  0
LINE
  5
320
100
AcDbEntity
  8
DRAFT
100
AcDbLine
 62
7
  6
CONTINUOUS
 10
-5.5303332947
 20
-9.05
 11
-6.3252181717
 21
-9.05
  0
LINE
  5
321
100
AcDbEntity
  8
ASSI
100
AcDbLine
 62
7
  6
CONTINUOUS
 10
-16.3252181717
 20
-9.05
 11
-17.1201030487
 21
-9.05
  0
LINE
  5
322
100
AcDbEntity
  8
DRAFT
100
AcDbLine
 62
7
  6
CONTINUOUS
 10
-16.3252181717
 20
-9.05
 11
-17.1201030487
 21
-9.05
  0
LINE
  5
323
100
AcDbEntity
  8
RACCORDO
100
AcDbLine
 62
7
  6
CONTINUOUS
 10
-17.1201030487
 20
-8.9436936171
 11
-5.5303332947
 21
-8.9436936171
  0
LINE
  5
324
100
AcDbEntity
  8
RACCORDO
100
AcDbLine
 62
253
  6
CONTINUOUS
 10
-17.1201030487
 20
-8.8454665181
 11
-5.5303332947
 21
-8.8454665181
  0
LINE
  5
325
100
AcDbEntity
  8
CURVE
100
AcDbLine
 62
253
  6
CONTINUOUS
 10
-7.5417735033
 20
-11.8313148856
 11
-7.5417735033
 21
-11.5515380038
  0
LINE
  5
326
100
AcDbEntity
  8
ASSI
100
AcDbLine
 62
7
  6
CONTINUOUS
 10
-6.3252181717
 20
-9.05
 11
-6.3252181717
 21
-9.0552361207
  0
LINE
  5
327
100
AcDbEntity
  8
DRAFT
100
AcDbLine
 62
7
  6
CONTINUOUS
 10
-6.3252181717
 20
-9.05
 11
-6.3252181717
 21
-9.0552361207
  0
LINE
  5
328
100
AcDbEntity
  8
ASSI
100
AcDbLine
 62
253
  6
CONTINUOUS
 10
-5.5303332947
 20
-9.05
 11
-5.5303332947
 21
-9.1615759643
  0
LINE
  5
329
100
AcDbEntity
  8
RACCORDO
100
AcDbLine
 62
253
  6
CONTINUOUS
 10
-5.5303332947
 20
-9.05
 11
-5.5303332947
 21
-9.1615759643
  0
LINE
  5
32A
100
AcDbEntity
  8
ASSI
100
AcDbLine
 62
253
  6
CONTINUOUS
 10
-5.5303332947
 20
-15.9433202604
 11
-5.5303332947
 21
-15.8522821594
  0
LINE
  5
32B
100
AcDbEntity
  8
RACCORDO
100
AcDbLine
 62
253
  6
CONTINUOUS
 10
-5.5303332947
 20
-15.9433202604
 11
-5.5303332947
 21
-15.8522821594
  0
LINE
  5
32C
100
AcDbEntity
  8
RACCORDO
100
AcDbLine
 62
253
  6
CONTINUOUS
 10
-5.5303332947
 20
-16.1622399421
 11
-5.5303332947
 21
-16.052941261
  0
LINE
  5
32D
100
AcDbEntity
  8
RACCORDO
100
AcDbLine
 62
253
  6
CONTINUOUS
 10
-5.5303332947
 20
-8.8454665181
 11
-5.5303333011
 21
-8.9436936171
  0
LINE
  5
32E
100
AcDbEntity
  8
0
100
AcDbLine
 62
7
  6
CONTINUOUS
 10
15.6247818283
 20
24.0
 11
15.6160550836
 21
23.9912732553
  0
LINE
  5
32F
100
AcDbEntity
  8
0
100
AcDbLine
 62
7
  6
CONTINUOUS
 10
15.6247818283
 20
-24.0
 11
15.6160550836
 21
-23.9912732553
  0
LINE
  5
330
100
AcDbEntity
  8
CURVE
100
AcDbLine
 62
7
  6
CONTINUOUS
 10
-15.2512907513
 20
-11.6069443539
 11
-15.1958844013
 21
-11.5515380038
  0
LINE
  5
331
100
AcDbEntity
  8
CURVE
100
AcDbLine
 62
7
  6
CONTINUOUS
 10
-15.2512907513
 20
-11.8169550679
 11
-14.9858736872
 21
-11.5515380038
  0
LINE
  5
332
100
AcDbEntity
  8
0
100
AcDbLine
 62
253
  6
CONTINUOUS
 10
21.0616874804
 20
24.4869014213
 11
21.0747860591
 21
24.5
  0
LINE
  5
333
100
AcDbEntity
  8
CURVE
100
AcDbLine
 62
7
  6
CONTINUOUS
 10
-15.2512907513
 20
-12.0269657819
 11
-14.7758629732
 21
-11.5515380038
  0
LINE
  5
334
100
AcDbEntity
  8
CURVE
100
AcDbLine
 62
7
  6
CONTINUOUS
 10
-15.2512907513
 20
-12.2369764959
 11
-14.9533014678
 21
-11.9389872124
  0
LINE
  5
335
100
AcDbEntity
  8
CURVE
100
AcDbLine
 62
7
  6
CONTINUOUS
 10
-14.8201949509
 20
-11.8058806956
 11
-14.5659637649
 21
-11.5516495095
  0
LINE
  5
336
100
AcDbEntity
  8
0
100
AcDbLine
 62
253
  6
CONTINUOUS
 10
21.3116832496
 20
24.2369056521
 11
21.3247818283
 21
24.2500042308
  0
LINE
  5
337
100
AcDbEntity
  8
CURVE
100
AcDbLine
 62
7
  6
CONTINUOUS
 10
-15.2512907513
 20
-12.44698721
 11
-14.9533014678
 21
-12.1489979265
  0
LINE
  5
338
100
AcDbEntity
  8
CURVE
100
AcDbLine
 62
7
  6
CONTINUOUS
 10
-14.6101842369
 20
-11.8058806956
 11
-14.3683311612
 21
-11.5640276199
  0
LINE
  5
339
100
AcDbEntity
  8
0
100
AcDbLine
 62
253
  6
CONTINUOUS
 10
21.0616874804
 20
-24.4869014213
 11
21.0747860591
 21
-24.5
  0
LINE
  5
33A
100
AcDbEntity
  8
0
100
AcDbLine
 62
253
  6
CONTINUOUS
 10
21.3116832496
 20
-24.2369056521
 11
21.3247818283
 21
-24.2500042308
  0
LINE
  5
33B
100
AcDbEntity
  8
CURVE
100
AcDbLine
 62
7
  6
CONTINUOUS
 10
-15.2512907513
 20
-12.656997924
 11
-14.9533014678
 21
-12.3590086405
  0
LINE
  5
33C
100
AcDbEntity
  8
CURVE
100
AcDbLine
 62
7
  6
CONTINUOUS
 10
-14.41664996
 20
-11.8223571327
 11
-14.1927304667
 21
-11.5984376394
  0
LINE
  5
33D
100
AcDbEntity
  8
CURVE
100
AcDbLine
 62
7
  6
CONTINUOUS
 10
-15.2512907513
 20
-12.867008638
 11
-14.8616273477
 21
-12.4773452343
  0
LINE
  5
33E
100
AcDbEntity
  8
CURVE
100
AcDbLine
 62
7
  6
CONTINUOUS
 10
-14.2739272958
 20
-11.8896451825
 11
-14.0520903661
 21
-11.6678082527
  0
LINE
  5
33F
100
AcDbEntity
  8
CURVE
100
AcDbLine
 62
7
  6
CONTINUOUS
 10
-15.2512907513
 20
-13.077019352
 11
-14.9583952867
 21
-12.7841238874
  0
LINE
  5
340
100
AcDbEntity
  8
CURVE
100
AcDbLine
 62
7
  6
CONTINUOUS
 10
-14.9110461068
 20
-12.7367747075
 11
-14.6516166336
 21
-12.4773452343
  0
LINE
  5
341
100
AcDbEntity
  8
CURVE
100
AcDbLine
 62
7
  6
CONTINUOUS
 10
-14.1987083777
 20
-12.0244369784
 11
-13.9514645977
 21
-11.7771931984
  0
LINE
  5
342
100
AcDbEntity
  8
CURVE
100
AcDbLine
 62
7
  6
CONTINUOUS
 10
-15.2512907513
 20
-13.287030066
 11
-14.9583952867
 21
-12.9941346014
  0
LINE
  5
343
100
AcDbEntity
  8
CURVE
100
AcDbLine
 62
7
  6
CONTINUOUS
 10
-14.7010353928
 20
-12.7367747075
 11
-14.4191760533
 21
-12.4549153679
  0
LINE
  5
344
100
AcDbEntity
  8
CURVE
100
AcDbLine
 62
7
  6
CONTINUOUS
 10
-14.2019723865
 20
-12.2377117012
 11
-13.891192967
 21
-11.9269322817
  0
LINE
  5
345
100
AcDbEntity
  8
CURVE
100
AcDbLine
 62
7
  6
CONTINUOUS
 10
-15.2031840912
 20
-13.4489341199
 11
-14.9583952867
 21
-13.2041453154
  0
LINE
  5
346
100
AcDbEntity
  8
CURVE
100
AcDbLine
 62
7
  6
CONTINUOUS
 10
-14.4907256212
 20
-12.7364756499
 11
-13.8763902403
 21
-12.122140269
  0
LINE
  5
347
100
AcDbEntity
  8
CURVE
100
AcDbLine
 62
7
  6
CONTINUOUS
 10
-13.4913711958
 20
-11.7371212245
 11
-13.3057879752
 21
-11.5515380038
  0
LINE
  5
348
100
AcDbEntity
  8
CURVE
100
AcDbLine
 62
7
  6
CONTINUOUS
 10
-14.9931733772
 20
-13.4489341199
 11
-14.9583952867
 21
-13.4141560294
  0
LINE
  5
349
100
AcDbEntity
  8
CURVE
100
AcDbLine
 62
7
  6
CONTINUOUS
 10
-14.2368574039
 20
-12.6926181466
 11
-13.9201112366
 21
-12.3758719793
  0
LINE
  5
34A
100
AcDbEntity
  8
CURVE
100
AcDbLine
 62
7
  6
CONTINUOUS
 10
-13.4913711958
 20
-11.9471319385
 11
-13.0957772611
 21
-11.5515380038
  0
LINE
  5
34B
100
AcDbEntity
  8
CURVE
100
AcDbLine
 62
7
  6
CONTINUOUS
 10
-13.4913711958
 20
-12.1571426526
 11
-13.1984757595
 21
-11.8642472163
  0
LINE
  5
34C
100
AcDbEntity
  8
CURVE
100
AcDbLine
 62
7
  6
CONTINUOUS
 10
-13.1401092388
 20
-11.8058806956
 11
-12.8857665471
 21
-11.5515380038
  0
LINE
  5
34D
100
AcDbEntity
  8
CURVE
100
AcDbLine
 62
7
  6
CONTINUOUS
 10
-13.4913711958
 20
-12.3671533666
 11
-13.1984757595
 21
-12.0742579303
  0
LINE
  5
34E
100
AcDbEntity
  8
CURVE
100
AcDbLine
 62
7
  6
CONTINUOUS
 10
-12.9300985248
 20
-11.8058806956
 11
-12.6838321042
 21
-11.5596142749
  0
LINE
  5
34F
100
AcDbEntity
  8
CURVE
100
AcDbLine
 62
7
  6
CONTINUOUS
 10
-13.4913711958
 20
-12.5771640806
 11
-13.1984757595
 21
-12.2842686443
  0
LINE
  5
350
100
AcDbEntity
  8
CURVE
100
AcDbLine
 62
7
  6
CONTINUOUS
 10
-12.7270284896
 20
-11.8128213744
 11
-12.5002628038
 21
-11.5860556885
  0
LINE
  5
351
100
AcDbEntity
  8
RACCORDO
100
AcDbLine
 62
253
  6
CONTINUOUS
 10
-22.3252181717
 20
-21.6001713375
 11
-22.2213418767
 21
-21.4962950425
  0
LINE
  5
352
100
AcDbEntity
  8
CURVE
100
AcDbLine
 62
7
  6
CONTINUOUS
 10
-13.4913711958
 20
-12.7871747946
 11
-13.1815416356
 21
-12.4773452343
  0
LINE
  5
353
100
AcDbEntity
  8
CURVE
100
AcDbLine
 62
7
  6
CONTINUOUS
 10
-12.5687507485
 20
-11.8645543472
 11
-12.3507868935
 21
-11.6465904923
  0
LINE
  5
354
100
AcDbEntity
  8
CURVE
100
AcDbLine
 62
7
  6
CONTINUOUS
 10
-13.4913711958
 20
-12.9971855086
 11
-12.9715309215
 21
-12.4773452343
  0
LINE
  5
355
100
AcDbEntity
  8
CURVE
100
AcDbLine
 62
7
  6
CONTINUOUS
 10
-12.482208226
 20
-11.9880225388
 11
-12.2408739831
 21
-11.7466882958
  0
LINE
  5
356
100
AcDbEntity
  8
RACCORDO
100
AcDbLine
 62
253
  6
CONTINUOUS
 10
21.6749531658
 20
22.1
 11
21.5710768709
 21
21.996123705
  0
LINE
  5
357
100
AcDbEntity
  8
CURVE
100
AcDbLine
 62
7
  6
CONTINUOUS
 10
-13.4913711958
 20
-13.2071962226
 11
-13.2035694652
 21
-12.919394492
  0
LINE
  5
358
100
AcDbEntity
  8
CURVE
100
AcDbLine
 62
7
  6
CONTINUOUS
 10
-13.0209496807
 20
-12.7367747075
 11
-12.7562007163
 21
-12.4720257431
  0
LINE
  5
359
100
AcDbEntity
  8
CURVE
100
AcDbLine
 62
7
  6
CONTINUOUS
 10
-12.4688829876
 20
-12.1847080144
 11
-12.1709245177
 21
-11.8867495445
  0
LINE
  5
35A
100
AcDbEntity
  8
CURVE
100
AcDbLine
 62
7
  6
CONTINUOUS
 10
-13.4913711958
 20
-13.4172069366
 11
-13.2035694652
 21
-13.129405206
  0
LINE
  5
35B
100
AcDbEntity
  8
CURVE
100
AcDbLine
 62
7
  6
CONTINUOUS
 10
-12.8124500266
 20
-12.7382857674
 11
-12.1493076613
 21
-12.0751434021
  0
LINE
  5
35C
100
AcDbEntity
  8
CURVE
100
AcDbLine
 62
7
  6
CONTINUOUS
 10
-13.3130876651
 20
-13.4489341199
 11
-13.2035694652
 21
-13.33941592
  0
LINE
  5
35D
100
AcDbEntity
  8
CURVE
100
AcDbLine
 62
7
  6
CONTINUOUS
 10
-12.6458550702
 20
-12.781701525
 11
-12.4721604515
 21
-12.6080069063
  0
LINE
  5
35E
100
AcDbEntity
  8
CURVE
100
AcDbLine
 62
7
  6
CONTINUOUS
 10
-12.4675414594
 20
-12.6033879142
 11
-12.1983539494
 21
-12.3342004042
  0
LINE
  5
35F
100
AcDbEntity
  8
RACCORDO
100
AcDbLine
 62
253
  6
CONTINUOUS
 10
-21.8253895092
 20
-22.1
 11
-21.7215132142
 21
-21.996123705
  0
LINE
  5
360
100
AcDbEntity
  8
CURVE
100
AcDbLine
 62
7
  6
CONTINUOUS
 10
-12.5380104251
 20
-12.8838675939
 11
-12.3321348974
 21
-12.6779920662
  0
LINE
  5
361
100
AcDbEntity
  8
CURVE
100
AcDbLine
 62
7
  6
CONTINUOUS
 10
-11.7542221755
 20
-12.1000793443
 11
-11.2131472439
 21
-11.5590044127
  0
LINE
  5
362
100
AcDbEntity
  8
DRAFT
100
AcDbLine
 62
7
  6
CONTINUOUS
 10
22.2698263333
 20
-0.0
 11
22.1747818283
 21
-0.0
  0
LINE
  5
363
100
AcDbEntity
  8
RACCORDO
100
AcDbLine
 62
253
  6
CONTINUOUS
 10
-22.2213418767
 20
21.4962950425
 11
-22.3252181717
 21
21.6001713375
  0
LINE
  5
364
100
AcDbEntity
  8
RACCORDO
100
AcDbLine
 62
253
  6
CONTINUOUS
 10
21.5710768709
 20
-21.996123705
 11
21.6749531658
 21
-22.1
  0
LINE
  5
365
100
AcDbEntity
  8
RACCORDO
100
AcDbLine
 62
253
  6
CONTINUOUS
 10
-21.7215132142
 20
21.996123705
 11
-21.8253895092
 21
22.1
  0
LINE
  5
366
100
AcDbEntity
  8
0
100
AcDbLine
 62
253
  6
CONTINUOUS
 10
1.037880407
 20
-23.8443375673
 11
1.0320625772
 21
-23.2669872981
  0
LINE
  5
367
100
AcDbEntity
  8
0
100
AcDbLine
 62
253
  6
CONTINUOUS
 10
1.2878761762
 20
-23.6278312164
 11
1.2827855752
 21
-23.1226497308
  0
LINE
  5
368
100
AcDbEntity
  8
0
100
AcDbLine
 62
7
  6
CONTINUOUS
 10
1.0247818283
 20
-22.4
 11
1.0247818283
 21
-24.2500042308
  0
LINE
  5
369
100
AcDbEntity
  8
0
100
AcDbLine
 62
7
  6
CONTINUOUS
 10
1.0247818283
 20
22.4
 11
1.0247818283
 21
24.2500042308
  0
LINE
  5
36A
100
AcDbEntity
  8
0
100
AcDbLine
 62
253
  6
CONTINUOUS
 10
1.0320625772
 20
23.2669872981
 11
1.0320625772
 21
22.3344140523
  0
LINE
  5
36B
100
AcDbEntity
  8
0
100
AcDbLine
 62
253
  6
CONTINUOUS
 10
1.0320625772
 20
-22.3344140523
 11
1.0320625772
 21
-23.2669872981
  0
LINE
  5
36C
100
AcDbEntity
  8
0
100
AcDbLine
 62
253
  6
CONTINUOUS
 10
1.037880407
 20
24.2369056521
 11
1.037880407
 21
23.8443375673
  0
LINE
  5
36D
100
AcDbEntity
  8
0
100
AcDbLine
 62
253
  6
CONTINUOUS
 10
1.037880407
 20
-23.8443375673
 11
1.037880407
 21
-24.2369056521
  0
LINE
  5
36E
100
AcDbEntity
  8
0
100
AcDbLine
 62
253
  6
CONTINUOUS
 10
1.2820583464
 20
23.1226497308
 11
1.2820583464
 21
22.3213883311
  0
LINE
  5
36F
100
AcDbEntity
  8
0
100
AcDbLine
 62
253
  6
CONTINUOUS
 10
1.2820583464
 20
-22.3213883311
 11
1.2820583464
 21
-23.1226497308
  0
LINE
  5
370
100
AcDbEntity
  8
0
100
AcDbLine
 62
253
  6
CONTINUOUS
 10
1.2878761762
 20
-23.6278312164
 11
1.2878761762
 21
-24.4869014213
  0
LINE
  5
371
100
AcDbEntity
  8
0
100
AcDbLine
 62
253
  6
CONTINUOUS
 10
1.2878761762
 20
23.6278312164
 11
1.2878761762
 21
24.4869014213
  0
LINE
  5
372
100
AcDbEntity
  8
0
100
AcDbLine
 62
253
  6
CONTINUOUS
 10
1.0320625772
 20
23.2669872981
 11
1.037880407
 21
23.8443375673
  0
LINE
  5
373
100
AcDbEntity
  8
0
100
AcDbLine
 62
253
  6
CONTINUOUS
 10
1.2827855752
 20
23.1226497308
 11
1.2878761762
 21
23.6278312164
  0
LINE
  5
374
100
AcDbEntity
  8
0
100
AcDbLine
 62
7
  6
CONTINUOUS
 10
3.9247818283
 20
22.4
 11
3.9175010794
 21
22.3344140523
  0
LINE
  5
375
100
AcDbEntity
  8
CURVE
100
AcDbLine
 62
7
  6
CONTINUOUS
 10
-12.4769697812
 20
-13.032837664
 11
-12.234853874
 21
-12.7907217568
  0
LINE
  5
376
100
AcDbEntity
  8
CURVE
100
AcDbLine
 62
7
  6
CONTINUOUS
 10
-11.7801214456
 20
-12.3359893285
 11
-11.3879838283
 21
-11.9438517111
  0
LINE
  5
377
100
AcDbEntity
  8
CURVE
100
AcDbLine
 62
7
  6
CONTINUOUS
 10
-11.3309630727
 20
-11.8868309556
 11
-10.995670121
 21
-11.5515380038
  0
LINE
  5
378
100
AcDbEntity
  8
RACCORDO
100
AcDbLine
 62
253
  6
CONTINUOUS
 10
22.1747818283
 20
21.6001713375
 11
22.0709055333
 21
21.4962950425
  0
LINE
  5
379
100
AcDbEntity
  8
CURVE
100
AcDbLine
 62
7
  6
CONTINUOUS
 10
-12.4485881509
 20
-13.2144667477
 11
-12.1771660539
 21
-12.9430446507
  0
LINE
  5
37A
100
AcDbEntity
  8
CURVE
100
AcDbLine
 62
7
  6
CONTINUOUS
 10
-11.7848067198
 20
-12.5506853167
 11
-11.4586899665
 21
-12.2245685633
  0
LINE
  5
37B
100
AcDbEntity
  8
CURVE
100
AcDbLine
 62
7
  6
CONTINUOUS
 10
-11.0552626127
 20
-11.8211412096
 11
-10.785659407
 21
-11.5515380038
  0
LINE
  5
37C
100
AcDbEntity
  8
CURVE
100
AcDbLine
 62
7
  6
CONTINUOUS
 10
-12.4405125926
 20
-13.4164019034
 11
-12.1499844845
 21
-13.1258737953
  0
LINE
  5
37D
100
AcDbEntity
  8
CURVE
100
AcDbLine
 62
7
  6
CONTINUOUS
 10
-11.7787941274
 20
-12.7546834383
 11
-11.3819148346
 21
-12.3578041455
  0
LINE
  5
37E
100
AcDbEntity
  8
CURVE
100
AcDbLine
 62
7
  6
CONTINUOUS
 10
-10.8452518987
 20
-11.8211412096
 11
-10.575648693
 21
-11.5515380038
  0
LINE
  5
37F
100
AcDbEntity
  8
CURVE
100
AcDbLine
 62
7
  6
CONTINUOUS
 10
-12.263034095
 20
-13.4489341199
 11
-12.1407337795
 21
-13.3266338044
  0
LINE
  5
380
100
AcDbEntity
  8
CURVE
100
AcDbLine
 62
7
  6
CONTINUOUS
 10
-11.7597072276
 20
-12.9456072525
 11
-11.4614154364
 21
-12.6473154613
  0
LINE
  5
381
100
AcDbEntity
  8
CURVE
100
AcDbLine
 62
7
  6
CONTINUOUS
 10
-11.4364204883
 20
-12.6223205132
 11
-11.1719041206
 21
-12.3578041455
  0
LINE
  5
382
100
AcDbEntity
  8
CURVE
100
AcDbLine
 62
7
  6
CONTINUOUS
 10
-10.6352411847
 20
-11.8211412096
 11
-10.5293069535
 21
-11.7152069783
  0
LINE
  5
383
100
AcDbEntity
  8
CURVE
100
AcDbLine
 62
7
  6
CONTINUOUS
 10
-11.715592669
 20
-13.1115034079
 11
-11.4540097089
 21
-12.8499204478
  0
LINE
  5
384
100
AcDbEntity
  8
CURVE
100
AcDbLine
 62
7
  6
CONTINUOUS
 10
-11.2264097743
 20
-12.6223205132
 11
-10.9618934066
 21
-12.3578041455
  0
LINE
  5
385
100
AcDbEntity
  8
CURVE
100
AcDbLine
 62
7
  6
CONTINUOUS
 10
-11.6420277968
 20
-13.2479492497
 11
-11.4170348784
 21
-13.0229563313
  0
LINE
  5
386
100
AcDbEntity
  8
CURVE
100
AcDbLine
 62
7
  6
CONTINUOUS
 10
-11.0163990603
 20
-12.6223205132
 11
-10.7518826926
 21
-12.3578041455
  0
LINE
  5
387
100
AcDbEntity
  8
CURVE
100
AcDbLine
 62
7
  6
CONTINUOUS
 10
-10.2221188771
 20
-11.82804033
 11
-10.0280076259
 21
-11.6339290788
  0
LINE
  5
388
100
AcDbEntity
  8
CURVE
100
AcDbLine
 62
7
  6
CONTINUOUS
 10
-11.5340619607
 20
-13.3499941276
 11
-11.3238132555
 21
-13.1397454225
  0
LINE
  5
389
100
AcDbEntity
  8
CURVE
100
AcDbLine
 62
7
  6
CONTINUOUS
 10
-10.8063883463
 20
-12.6223205132
 11
-10.6057141238
 21
-12.4216462907
  0
LINE
  5
38A
100
AcDbEntity
  8
CURVE
100
AcDbLine
 62
7
  6
CONTINUOUS
 10
-10.2741429436
 20
-12.0900751105
 11
-9.7380397707
 21
-11.5539719376
  0
LINE
  5
38B
100
AcDbEntity
  8
CURVE
100
AcDbLine
 62
7
  6
CONTINUOUS
 10
-11.3916038962
 20
-13.4175467771
 11
-11.1600665773
 21
-13.1860094582
  0
LINE
  5
38C
100
AcDbEntity
  8
CURVE
100
AcDbLine
 62
7
  6
CONTINUOUS
 10
-10.2422971537
 20
-12.2682400346
 11
-9.9675410174
 21
-11.9934838984
  0
LINE
  5
38D
100
AcDbEntity
  8
CURVE
100
AcDbLine
 62
7
  6
CONTINUOUS
 10
-9.821354353
 20
-11.847297234
 11
-9.5255951229
 21
-11.5515380038
  0
LINE
  5
38E
100
AcDbEntity
  8
CURVE
100
AcDbLine
 62
7
  6
CONTINUOUS
 10
-11.2106514582
 20
-13.4466050532
 11
-10.9535510235
 21
-13.1895046184
  0
LINE
  5
38F
100
AcDbEntity
  8
CURVE
100
AcDbLine
 62
7
  6
CONTINUOUS
 10
-10.1612890553
 20
-12.3972426502
 11
-9.9362485795
 21
-12.1722021744
  0
LINE
  5
390
100
AcDbEntity
  8
CURVE
100
AcDbLine
 62
7
  6
CONTINUOUS
 10
-9.5953612906
 20
-11.8313148856
 11
-9.3155844089
 21
-11.5515380038
  0
LINE
  5
391
100
AcDbEntity
  8
CURVE
100
AcDbLine
 62
7
  6
CONTINUOUS
 10
-11.0029698109
 20
-13.4489341199
 11
-10.7435403095
 21
-13.1895046184
  0
LINE
  5
392
100
AcDbEntity
  8
CURVE
100
AcDbLine
 62
7
  6
CONTINUOUS
 10
-10.0386384882
 20
-12.4846027972
 11
-9.8129446237
 21
-12.2589089326
  0
LINE
  5
393
100
AcDbEntity
  8
CURVE
100
AcDbLine
 62
7
  6
CONTINUOUS
 10
-9.3853505766
 20
-11.8313148856
 11
-9.113220995
 21
-11.5591853039
  0
LINE
  5
394
100
AcDbEntity
  8
CURVE
100
AcDbLine
 62
7
  6
CONTINUOUS
 10
-10.7929590969
 20
-13.4489341199
 11
-10.5335295955
 21
-13.1895046184
  0
LINE
  5
395
100
AcDbEntity
  8
CURVE
100
AcDbLine
 62
7
  6
CONTINUOUS
 10
-9.8845517574
 20
-12.5405267803
 11
-9.6564932736
 21
-12.3124682966
  0
LINE
  5
396
100
AcDbEntity
  8
CURVE
100
AcDbLine
 62
7
  6
CONTINUOUS
 10
-9.1753398626
 20
-11.8313148856
 11
-9.113220995
 21
-11.7691960179
  0
LINE
  5
397
100
AcDbEntity
  8
CURVE
100
AcDbLine
 62
7
  6
CONTINUOUS
 10
-10.5829483829
 20
-13.4489341199
 11
-10.5165723496
 21
-13.3825580866
  0
LINE
  5
398
100
AcDbEntity
  8
CURVE
100
AcDbLine
 62
7
  6
CONTINUOUS
 10
-9.7175750394
 20
-12.5835607764
 11
-9.4884351178
 21
-12.3544208548
  0
LINE
  5
399
100
AcDbEntity
  8
CURVE
100
AcDbLine
 62
7
  6
CONTINUOUS
 10
-10.2567867928
 20
-13.3327832438
 11
-10.0982476252
 21
-13.1742440762
  0
LINE
  5
39A
100
AcDbEntity
  8
CURVE
100
AcDbLine
 62
7
  6
CONTINUOUS
 10
-9.5503487585
 20
-12.6263452094
 11
-9.3210099725
 21
-12.3970064235
  0
LINE
  5
39B
100
AcDbEntity
  8
CURVE
100
AcDbLine
 62
7
  6
CONTINUOUS
 10
-10.1629269549
 20
-13.4489341199
 11
-9.8882369112
 21
-13.1742440762
  0
LINE
  5
39C
100
AcDbEntity
  8
CURVE
100
AcDbLine
 62
7
  6
CONTINUOUS
 10
-9.3973697702
 20
-12.6833769352
 11
-9.1741672588
 21
-12.4601744238
  0
LINE
  5
39D
100
AcDbEntity
  8
CURVE
100
AcDbLine
 62
7
  6
CONTINUOUS
 10
-8.6982499495
 20
-11.9842571145
 11
-8.2846075807
 21
-11.5706147457
  0
LINE
  5
39E
100
AcDbEntity
  8
CURVE
100
AcDbLine
 62
7
  6
CONTINUOUS
 10
-9.9529162409
 20
-13.4489341199
 11
-9.6782261972
 21
-13.1742440762
  0
LINE
  5
39F
100
AcDbEntity
  8
CURVE
100
AcDbLine
 62
7
  6
CONTINUOUS
 10
-9.2965585236
 20
-12.7925764026
 11
-9.0596071737
 21
-12.5556250528
  0
LINE
  5
3A0
100
AcDbEntity
  8
CURVE
100
AcDbLine
 62
7
  6
CONTINUOUS
 10
-8.6932838251
 20
-12.1893017041
 11
-8.0555201248
 21
-11.5515380038
  0
LINE
  5
3A1
100
AcDbEntity
  8
RACCORDO
100
AcDbLine
 62
253
  6
CONTINUOUS
 10
22.0709055333
 20
-21.4962950425
 11
22.1747818283
 21
-21.6001713375
  0
LINE
  5
3A2
100
AcDbEntity
  8
0
100
AcDbLine
 62
7
  6
CONTINUOUS
 10
3.9247818283
 20
-22.4
 11
3.9175010794
 21
-22.3344140523
  0
LINE
  5
3A3
100
AcDbEntity
  8
0
100
AcDbLine
 62
253
  6
CONTINUOUS
 10
3.6616874804
 20
23.6278312164
 11
3.6667780815
 21
23.1226497308
  0
LINE
  5
3A4
100
AcDbEntity
  8
0
100
AcDbLine
 62
253
  6
CONTINUOUS
 10
3.9116832496
 20
23.8443375673
 11
3.9175010794
 21
23.2669872981
  0
LINE
  5
3A5
100
AcDbEntity
  8
0
100
AcDbLine
 62
253
  6
CONTINUOUS
 10
3.6616874804
 20
-23.6278312164
 11
3.6616874804
 21
-24.4869014213
  0
LINE
  5
3A6
100
AcDbEntity
  8
0
100
AcDbLine
 62
253
  6
CONTINUOUS
 10
3.6616874804
 20
23.6278312164
 11
3.6616874804
 21
24.4869014213
  0
LINE
  5
3A7
100
AcDbEntity
  8
0
100
AcDbLine
 62
253
  6
CONTINUOUS
 10
3.6675053102
 20
-23.1226497308
 11
3.6675053102
 21
-22.3213883311
  0
LINE
  5
3A8
100
AcDbEntity
  8
0
100
AcDbLine
 62
253
  6
CONTINUOUS
 10
3.6675053102
 20
22.3213883311
 11
3.6675053102
 21
23.1226497308
  0
LINE
  5
3A9
100
AcDbEntity
  8
0
100
AcDbLine
 62
253
  6
CONTINUOUS
 10
3.9116832496
 20
-24.2369056521
 11
3.9116832496
 21
-23.8443375673
  0
LINE
  5
3AA
100
AcDbEntity
  8
0
100
AcDbLine
 62
253
  6
CONTINUOUS
 10
3.9116832496
 20
23.8443375673
 11
3.9116832496
 21
24.2369056521
  0
LINE
  5
3AB
100
AcDbEntity
  8
0
100
AcDbLine
 62
253
  6
CONTINUOUS
 10
3.9175010794
 20
-23.2669872981
 11
3.9175010794
 21
-22.3344140523
  0
LINE
  5
3AC
100
AcDbEntity
  8
0
100
AcDbLine
 62
253
  6
CONTINUOUS
 10
3.9175010794
 20
22.3344140523
 11
3.9175010794
 21
23.2669872981
  0
LINE
  5
3AD
100
AcDbEntity
  8
0
100
AcDbLine
 62
7
  6
CONTINUOUS
 10
3.9247818283
 20
-22.4
 11
3.9247818283
 21
-24.2500042308
  0
LINE
  5
3AE
100
AcDbEntity
  8
0
100
AcDbLine
 62
7
  6
CONTINUOUS
 10
3.9247818283
 20
22.4
 11
3.9247818283
 21
24.2500042308
  0
LINE
  5
3AF
100
AcDbEntity
  8
0
100
AcDbLine
 62
253
  6
CONTINUOUS
 10
3.6667780815
 20
-23.1226497308
 11
3.6616874804
 21
-23.6278312164
  0
LINE
  5
3B0
100
AcDbEntity
  8
0
100
AcDbLine
 62
253
  6
CONTINUOUS
 10
3.9175010794
 20
-23.2669872981
 11
3.9116832496
 21
-23.8443375673
  0
LINE
  5
3B1
100
AcDbEntity
  8
0
100
AcDbLine
 62
7
  6
CONTINUOUS
 10
1.0247818283
 20
-22.4
 11
1.0320625772
 21
-22.3344140523
  0
LINE
  5
3B2
100
AcDbEntity
  8
CURVE
100
AcDbLine
 62
7
  6
CONTINUOUS
 10
-9.7429055269
 20
-13.4489341199
 11
-9.4366415066
 21
-13.1426700996
  0
LINE
  5
3B3
100
AcDbEntity
  8
CURVE
100
AcDbLine
 62
7
  6
CONTINUOUS
 10
-9.2978777005
 20
-13.0039062935
 11
-8.9891342505
 21
-12.6951628436
  0
LINE
  5
3B4
100
AcDbEntity
  8
CURVE
100
AcDbLine
 62
7
  6
CONTINUOUS
 10
-8.6341624673
 20
-12.3401910603
 11
-8.3947131643
 21
-12.1007417573
  0
LINE
  5
3B5
100
AcDbEntity
  8
CURVE
100
AcDbLine
 62
7
  6
CONTINUOUS
 10
-8.1255042146
 20
-11.8315328076
 11
-7.8455094108
 21
-11.5515380038
  0
LINE
  5
3B6
100
AcDbEntity
  8
CURVE
100
AcDbLine
 62
7
  6
CONTINUOUS
 10
-9.5294514972
 20
-13.4454908042
 11
-8.9716462815
 21
-12.8876855885
  0
LINE
  5
3B7
100
AcDbEntity
  8
CURVE
100
AcDbLine
 62
7
  6
CONTINUOUS
 10
-8.531183989
 20
-12.447223296
 11
-8.3073240545
 21
-12.2233633615
  0
LINE
  5
3B8
100
AcDbEntity
  8
CURVE
100
AcDbLine
 62
7
  6
CONTINUOUS
 10
-7.9152755785
 20
-11.8313148856
 11
-7.6354986968
 21
-11.5515380038
  0
LINE
  5
3B9
100
AcDbEntity
  8
CURVE
100
AcDbLine
 62
7
  6
CONTINUOUS
 10
-9.2336742598
 20
-13.3597242808
 11
-9.0428106878
 21
-13.1688607088
  0
LINE
  5
3BA
100
AcDbEntity
  8
CURVE
100
AcDbLine
 62
7
  6
CONTINUOUS
 10
-8.3904851386
 20
-12.5165351597
 11
-8.1631790671
 21
-12.2892290881
  0
LINE
  5
3BB
100
AcDbEntity
  8
CURVE
100
AcDbLine
 62
7
  6
CONTINUOUS
 10
-7.7052648645
 20
-11.8313148856
 11
-7.5417735033
 21
-11.6678235244
  0
LINE
  5
3BC
100
AcDbEntity
  8
CURVE
100
AcDbLine
 62
7
  6
CONTINUOUS
 10
-8.2268478377
 20
-12.5629085727
 11
-7.998107765
 21
-12.3341685
  0
LINE
  5
3BD
100
AcDbEntity
  8
CURVE
100
AcDbLine
 62
7
  6
CONTINUOUS
 10
-8.6853388482
 20
-13.2314102972
 11
-8.6281726271
 21
-13.1742440762
  0
LINE
  5
3BE
100
AcDbEntity
  8
CURVE
100
AcDbLine
 62
7
  6
CONTINUOUS
 10
-8.0596215567
 20
-12.6056930058
 11
-7.8300531312
 21
-12.3761245802
  0
LINE
  5
3BF
100
AcDbEntity
  8
CURVE
100
AcDbLine
 62
7
  6
CONTINUOUS
 10
-8.6853388482
 20
-13.4414210112
 11
-8.4181619131
 21
-13.1742440762
  0
LINE
  5
3C0
100
AcDbEntity
  8
CURVE
100
AcDbLine
 62
7
  6
CONTINUOUS
 10
-7.895117848
 20
-12.6512000111
 11
-7.6697628612
 21
-12.4258450242
  0
LINE
  5
3C1
100
AcDbEntity
  8
CURVE
100
AcDbLine
 62
7
  6
CONTINUOUS
 10
-8.4828412428
 20
-13.4489341199
 11
-8.2081511991
 21
-13.1742440762
  0
LINE
  5
3C2
100
AcDbEntity
  8
CURVE
100
AcDbLine
 62
7
  6
CONTINUOUS
 10
-7.7643044822
 20
-12.7303973593
 11
-7.5390496595
 21
-12.5051425366
  0
LINE
  5
3C3
100
AcDbEntity
  8
CURVE
100
AcDbLine
 62
7
  6
CONTINUOUS
 10
-8.2728305288
 20
-13.4489341199
 11
-7.9954043129
 21
-13.171507904
  0
LINE
  5
3C4
100
AcDbEntity
  8
CURVE
100
AcDbLine
 62
7
  6
CONTINUOUS
 10
-7.7077169197
 20
-12.8838205109
 11
-7.4452748405
 21
-12.6213784316
  0
LINE
  5
3C5
100
AcDbEntity
  8
CURVE
100
AcDbLine
 62
7
  6
CONTINUOUS
 10
-8.0628198148
 20
-13.4489341199
 11
-7.4019148346
 21
-12.7880291397
  0
LINE
  5
3C6
100
AcDbEntity
  8
CURVE
100
AcDbLine
 62
7
  6
CONTINUOUS
 10
-7.8303290479
 20
-13.4264540671
 11
-7.4168123605
 21
-13.0129373797
  0
LINE
  5
3C7
100
AcDbEntity
  8
0
100
AcDbLine
 62
7
  6
CONTINUOUS
 10
1.0247818283
 20
22.4
 11
1.0320625772
 21
22.3344140523
  0
LINE
  5
3C8
100
AcDbEntity
  8
0
100
AcDbLine
 62
7
  6
CONTINUOUS
 10
6.7247818283
 20
-22.4
 11
6.7247818283
 21
-24.0
  0
LINE
  5
3C9
100
AcDbEntity
  8
0
100
AcDbLine
 62
7
  6
CONTINUOUS
 10
6.7247818283
 20
22.4
 11
6.7247818283
 21
24.0
  0
LINE
  5
3CA
100
AcDbEntity
  8
0
100
AcDbLine
 62
7
  6
CONTINUOUS
 10
6.733508573
 20
23.9912732553
 11
6.733508573
 21
22.3213883311
  0
LINE
  5
3CB
100
AcDbEntity
  8
0
100
AcDbLine
 62
7
  6
CONTINUOUS
 10
6.733508573
 20
-22.3213883311
 11
6.733508573
 21
-23.9912732553
  0
LINE
  5
3CC
100
AcDbEntity
  8
0
100
AcDbLine
 62
7
  6
CONTINUOUS
 10
7.6747818283
 20
-23.9982478817
 11
7.6747818283
 21
-22.3213883311
  0
LINE
  5
3CD
100
AcDbEntity
  8
0
100
AcDbLine
 62
7
  6
CONTINUOUS
 10
7.6747818283
 20
22.3213883311
 11
7.6747818283
 21
23.9982478817
  0
LINE
  5
3CE
100
AcDbEntity
  8
0
100
AcDbLine
 62
253
  6
CONTINUOUS
 10
0.5252739818
 20
-22.4
 11
0.5514565792
 21
-22.3213883311
  0
LINE
  5
3CF
100
AcDbEntity
  8
RACCORDO
100
AcDbLine
 62
253
  6
CONTINUOUS
 10
-4.7177624093
 20
-9.5505434783
 11
-4.7118372899
 21
-9.5487244866
  0
LINE
  5
3D0
100
AcDbEntity
  8
ASSI
100
AcDbLine
 62
253
  6
CONTINUOUS
 10
-4.8133589841
 20
-9.5798913043
 11
-4.8226058597
 21
-9.582730064
  0
LINE
  5
3D1
100
AcDbEntity
  8
RACCORDO
100
AcDbLine
 62
253
  6
CONTINUOUS
 10
-4.8133589841
 20
-9.5798913043
 11
-4.8226058597
 21
-9.582730064
  0
LINE
  5
3D2
100
AcDbEntity
  8
0
100
AcDbLine
 62
253
  6
CONTINUOUS
 10
0.5514565792
 20
22.3213883311
 11
0.5252739818
 21
22.4
  0
LINE
  5
3D3
100
AcDbEntity
  8
0
100
AcDbLine
 62
253
  6
CONTINUOUS
 10
9.9747818283
 20
-22.3737961104
 11
9.9747818283
 21
-24.0
  0
LINE
  5
3D4
100
AcDbEntity
  8
0
100
AcDbLine
 62
253
  6
CONTINUOUS
 10
9.9747818283
 20
22.3737961104
 11
9.9747818283
 21
24.0
  0
LINE
  5
3D5
100
AcDbEntity
  8
0
100
AcDbLine
 62
7
  6
CONTINUOUS
 10
10.1747818283
 20
-23.7999966153
 11
10.1747818283
 21
-22.3842776662
  0
LINE
  5
3D6
100
AcDbEntity
  8
0
100
AcDbLine
 62
7
  6
CONTINUOUS
 10
10.1747818283
 20
22.3842776662
 11
10.1747818283
 21
23.7999966153
  0
LINE
  5
3D7
100
AcDbEntity
  8
0
100
AcDbLine
 62
7
  6
CONTINUOUS
 10
6.7247818283
 20
-22.4
 11
6.733508573
 21
-22.3213883311
  0
LINE
  5
3D8
100
AcDbEntity
  8
ASSI
100
AcDbLine
 62
253
  6
CONTINUOUS
 10
-17.8370773593
 20
-15.4201086957
 11
-17.8303603305
 21
-15.4180465905
  0
LINE
  5
3D9
100
AcDbEntity
  8
RACCORDO
100
AcDbLine
 62
253
  6
CONTINUOUS
 10
-17.8370773593
 20
-15.4201086957
 11
-17.8303603305
 21
-15.4180465905
  0
LINE
  5
3DA
100
AcDbEntity
  8
RACCORDO
100
AcDbLine
 62
253
  6
CONTINUOUS
 10
-17.9326739341
 20
-15.4494565217
 11
-17.9359890541
 21
-15.4504742524
  0
LINE
  5
3DB
100
AcDbEntity
  8
RACCORDO
100
AcDbLine
 62
253
  6
CONTINUOUS
 10
21.5329489927
 20
9.5
 11
-21.6833853361
 21
9.5
  0
LINE
  5
3DC
100
AcDbEntity
  8
0
100
AcDbLine
 62
7
  6
CONTINUOUS
 10
6.733508573
 20
22.3213883311
 11
6.7247818283
 21
22.4
  0
LINE
  5
3DD
100
AcDbEntity
  8
0
100
AcDbLine
 62
7
  6
CONTINUOUS
 10
12.1747818283
 20
23.7999966153
 11
12.1747818283
 21
22.3842776662
  0
LINE
  5
3DE
100
AcDbEntity
  8
0
100
AcDbLine
 62
7
  6
CONTINUOUS
 10
12.1747818283
 20
-22.3842776662
 11
12.1747818283
 21
-23.7999966153
  0
LINE
  5
3DF
100
AcDbEntity
  8
0
100
AcDbLine
 62
253
  6
CONTINUOUS
 10
12.3747818283
 20
-22.3737961104
 11
12.3747818283
 21
-24.0
  0
LINE
  5
3E0
100
AcDbEntity
  8
0
100
AcDbLine
 62
253
  6
CONTINUOUS
 10
12.3747818283
 20
22.3737961104
 11
12.3747818283
 21
24.0
  0
LINE
  5
3E1
100
AcDbEntity
  8
0
100
AcDbLine
 62
7
  6
CONTINUOUS
 10
15.6247818283
 20
22.4
 11
15.6160550836
 21
22.3213883311
  0
LINE
  5
3E2
100
AcDbEntity
  8
0
100
AcDbLine
 62
7
  6
CONTINUOUS
 10
15.6160550836
 20
-22.3213883311
 11
15.6247818283
 21
-22.4
  0
LINE
  5
3E3
100
AcDbEntity
  8
0
100
AcDbLine
 62
7
  6
CONTINUOUS
 10
14.6747818283
 20
23.9982478817
 11
14.6747818283
 21
22.3213883311
  0
LINE
  5
3E4
100
AcDbEntity
  8
0
100
AcDbLine
 62
7
  6
CONTINUOUS
 10
14.6747818283
 20
-22.3213883311
 11
14.6747818283
 21
-23.9982478817
  0
LINE
  5
3E5
100
AcDbEntity
  8
0
100
AcDbLine
 62
7
  6
CONTINUOUS
 10
15.6160550836
 20
-23.9912732553
 11
15.6160550836
 21
-22.3213883311
  0
LINE
  5
3E6
100
AcDbEntity
  8
0
100
AcDbLine
 62
7
  6
CONTINUOUS
 10
15.6160550836
 20
22.3213883311
 11
15.6160550836
 21
23.9912732553
  0
LINE
  5
3E7
100
AcDbEntity
  8
0
100
AcDbLine
 62
7
  6
CONTINUOUS
 10
15.6247818283
 20
-22.4
 11
15.6247818283
 21
-24.0
  0
LINE
  5
3E8
100
AcDbEntity
  8
0
100
AcDbLine
 62
7
  6
CONTINUOUS
 10
15.6247818283
 20
22.4
 11
15.6247818283
 21
24.0
  0
LINE
  5
3E9
100
AcDbEntity
  8
0
100
AcDbLine
 62
253
  6
CONTINUOUS
 10
21.8242896748
 20
22.4
 11
21.7981070774
 21
22.3213883311
  0
LINE
  5
3EA
100
AcDbEntity
  8
0
100
AcDbLine
 62
253
  6
CONTINUOUS
 10
22.3239090751
 20
21.8997711479
 11
22.2977264777
 21
21.821159479
  0
LINE
  5
3EB
100
AcDbEntity
  8
0
100
AcDbLine
 62
253
  6
CONTINUOUS
 10
21.7981070774
 20
-22.3213883311
 11
21.8242896748
 21
-22.4
  0
LINE
  5
3EC
100
AcDbEntity
  8
0
100
AcDbLine
 62
253
  6
CONTINUOUS
 10
22.2977264777
 20
-21.821159479
 11
22.3239090751
 21
-21.8997711479
  0
LINE
  5
3ED
100
AcDbEntity
  8
0
100
AcDbLine
 62
253
  6
CONTINUOUS
 10
1.037880407
 20
-24.2369056521
 11
1.0247818283
 21
-24.2500042308
  0
LINE
  5
3EE
100
AcDbEntity
  8
RACCORDO
100
AcDbLine
 62
7
  6
CONTINUOUS
 10
22.1747818283
 20
16.6
 11
22.2977264777
 21
16.6
  0
LINE
  5
3EF
100
AcDbEntity
  8
0
100
AcDbLine
 62
253
  6
CONTINUOUS
 10
1.037880407
 20
24.2369056521
 11
1.0247818283
 21
24.2500042308
  0
LINE
  5
3F0
100
AcDbEntity
  8
0
100
AcDbLine
 62
253
  6
CONTINUOUS
 10
18.437880407
 20
-23.8443375673
 11
18.4320625772
 21
-23.2669872981
  0
LINE
  5
3F1
100
AcDbEntity
  8
0
100
AcDbLine
 62
253
  6
CONTINUOUS
 10
18.6878761762
 20
-23.6278312164
 11
18.6827855752
 21
-23.1226497308
  0
LINE
  5
3F2
100
AcDbEntity
  8
0
100
AcDbLine
 62
7
  6
CONTINUOUS
 10
18.4247818283
 20
-22.4
 11
18.4247818283
 21
-24.2500042308
  0
LINE
  5
3F3
100
AcDbEntity
  8
0
100
AcDbLine
 62
7
  6
CONTINUOUS
 10
18.4247818283
 20
22.4
 11
18.4247818283
 21
24.2500042308
  0
LINE
  5
3F4
100
AcDbEntity
  8
0
100
AcDbLine
 62
253
  6
CONTINUOUS
 10
18.4320625772
 20
23.2669872981
 11
18.4320625772
 21
22.3344140523
  0
LINE
  5
3F5
100
AcDbEntity
  8
0
100
AcDbLine
 62
253
  6
CONTINUOUS
 10
18.4320625772
 20
-22.3344140523
 11
18.4320625772
 21
-23.2669872981
  0
LINE
  5
3F6
100
AcDbEntity
  8
0
100
AcDbLine
 62
253
  6
CONTINUOUS
 10
18.437880407
 20
24.2369056521
 11
18.437880407
 21
23.8443375673
  0
LINE
  5
3F7
100
AcDbEntity
  8
0
100
AcDbLine
 62
253
  6
CONTINUOUS
 10
18.437880407
 20
-23.8443375673
 11
18.437880407
 21
-24.2369056521
  0
LINE
  5
3F8
100
AcDbEntity
  8
0
100
AcDbLine
 62
253
  6
CONTINUOUS
 10
18.6820583464
 20
23.1226497308
 11
18.6820583464
 21
22.3213883311
  0
LINE
  5
3F9
100
AcDbEntity
  8
0
100
AcDbLine
 62
253
  6
CONTINUOUS
 10
18.6820583464
 20
-22.3213883311
 11
18.6820583464
 21
-23.1226497308
  0
LINE
  5
3FA
100
AcDbEntity
  8
0
100
AcDbLine
 62
253
  6
CONTINUOUS
 10
18.6878761762
 20
-23.6278312164
 11
18.6878761762
 21
-24.4869014213
  0
LINE
  5
3FB
100
AcDbEntity
  8
0
100
AcDbLine
 62
253
  6
CONTINUOUS
 10
18.6878761762
 20
23.6278312164
 11
18.6878761762
 21
24.4869014213
  0
LINE
  5
3FC
100
AcDbEntity
  8
0
100
AcDbLine
 62
253
  6
CONTINUOUS
 10
18.4320625772
 20
23.2669872981
 11
18.437880407
 21
23.8443375673
  0
LINE
  5
3FD
100
AcDbEntity
  8
0
100
AcDbLine
 62
253
  6
CONTINUOUS
 10
18.6827855752
 20
23.1226497308
 11
18.6878761762
 21
23.6278312164
  0
LINE
  5
3FE
100
AcDbEntity
  8
0
100
AcDbLine
 62
7
  6
CONTINUOUS
 10
21.3247818283
 20
22.4
 11
21.3175010794
 21
22.3344140523
  0
LINE
  5
3FF
100
AcDbEntity
  8
0
100
AcDbLine
 62
253
  6
CONTINUOUS
 10
1.2878761762
 20
-24.4869014213
 11
1.2747775975
 21
-24.5
  0
LINE
  5
400
100
AcDbEntity
  8
0
100
AcDbLine
 62
253
  6
CONTINUOUS
 10
1.2878761762
 20
24.4869014213
 11
1.2747775975
 21
24.5
  0
LINE
  5
401
100
AcDbEntity
  8
0
100
AcDbLine
 62
7
  6
CONTINUOUS
 10
21.3247818283
 20
-22.4
 11
21.3175010794
 21
-22.3344140523
  0
LINE
  5
402
100
AcDbEntity
  8
0
100
AcDbLine
 62
253
  6
CONTINUOUS
 10
21.0616874804
 20
23.6278312164
 11
21.0667780815
 21
23.1226497308
  0
LINE
  5
403
100
AcDbEntity
  8
0
100
AcDbLine
 62
253
  6
CONTINUOUS
 10
21.3116832496
 20
23.8443375673
 11
21.3175010794
 21
23.2669872981
  0
LINE
  5
404
100
AcDbEntity
  8
DRAFT
100
AcDbLine
 62
7
  6
CONTINUOUS
 10
22.2977264777
 20
-16.6
 11
22.2698263333
 21
-0.0
  0
LINE
  5
405
100
AcDbEntity
  8
0
100
AcDbLine
 62
253
  6
CONTINUOUS
 10
21.0616874804
 20
-23.6278312164
 11
21.0616874804
 21
-24.4869014213
  0
LINE
  5
406
100
AcDbEntity
  8
0
100
AcDbLine
 62
253
  6
CONTINUOUS
 10
21.0616874804
 20
23.6278312164
 11
21.0616874804
 21
24.4869014213
  0
LINE
  5
407
100
AcDbEntity
  8
0
100
AcDbLine
 62
253
  6
CONTINUOUS
 10
21.0675053102
 20
-23.1226497308
 11
21.0675053102
 21
-22.3213883311
  0
LINE
  5
408
100
AcDbEntity
  8
0
100
AcDbLine
 62
253
  6
CONTINUOUS
 10
21.0675053102
 20
22.3213883311
 11
21.0675053102
 21
23.1226497308
  0
LINE
  5
409
100
AcDbEntity
  8
0
100
AcDbLine
 62
253
  6
CONTINUOUS
 10
21.3116832496
 20
-24.2369056521
 11
21.3116832496
 21
-23.8443375673
  0
LINE
  5
40A
100
AcDbEntity
  8
0
100
AcDbLine
 62
253
  6
CONTINUOUS
 10
21.3116832496
 20
23.8443375673
 11
21.3116832496
 21
24.2369056521
  0
LINE
  5
40B
100
AcDbEntity
  8
0
100
AcDbLine
 62
253
  6
CONTINUOUS
 10
21.3175010794
 20
-23.2669872981
 11
21.3175010794
 21
-22.3344140523
  0
LINE
  5
40C
100
AcDbEntity
  8
0
100
AcDbLine
 62
253
  6
CONTINUOUS
 10
21.3175010794
 20
22.3344140523
 11
21.3175010794
 21
23.2669872981
  0
LINE
  5
40D
100
AcDbEntity
  8
0
100
AcDbLine
 62
7
  6
CONTINUOUS
 10
21.3247818283
 20
-22.4
 11
21.3247818283
 21
-24.2500042308
  0
LINE
  5
40E
100
AcDbEntity
  8
0
100
AcDbLine
 62
7
  6
CONTINUOUS
 10
21.3247818283
 20
22.4
 11
21.3247818283
 21
24.2500042308
  0
LINE
  5
40F
100
AcDbEntity
  8
RACCORDO
100
AcDbLine
 62
253
  6
CONTINUOUS
 10
21.5329489927
 20
9.5
 11
21.5329489927
 21
-9.5
  0
LINE
  5
410
100
AcDbEntity
  8
RACCORDO
100
AcDbLine
 62
7
  6
CONTINUOUS
 10
22.1747818283
 20
-21.6001713375
 11
22.1747818283
 21
21.6001713375
  0
LINE
  5
411
100
AcDbEntity
  8
DRAFT
100
AcDbLine
 62
7
  6
CONTINUOUS
 10
22.2977264777
 20
21.821159479
 11
22.2977264777
 21
16.6
  0
LINE
  5
412
100
AcDbEntity
  8
DRAFT
100
AcDbLine
 62
7
  6
CONTINUOUS
 10
22.2977264777
 20
-16.6
 11
22.2977264777
 21
-21.821159479
  0
LINE
  5
413
100
AcDbEntity
  8
0
100
AcDbLine
 62
7
  6
CONTINUOUS
 10
22.3239090751
 20
21.8997711479
 11
22.3239090751
 21
-21.8997711479
  0
LINE
  5
414
100
AcDbEntity
  8
0
100
AcDbLine
 62
7
  6
CONTINUOUS
 10
22.3252181717
 20
21.900016923
 11
22.3252181717
 21
-21.900016923
  0
LINE
  5
415
100
AcDbEntity
  8
DRAFT
100
AcDbLine
 62
7
  6
CONTINUOUS
 10
22.2698263333
 20
-0.0
 11
22.2977264777
 21
16.6
  0
LINE
  5
416
100
AcDbEntity
  8
0
100
AcDbLine
 62
253
  6
CONTINUOUS
 10
21.0667780815
 20
-23.1226497308
 11
21.0616874804
 21
-23.6278312164
  0
LINE
  5
417
100
AcDbEntity
  8
0
100
AcDbLine
 62
253
  6
CONTINUOUS
 10
21.3175010794
 20
-23.2669872981
 11
21.3116832496
 21
-23.8443375673
  0
LINE
  5
418
100
AcDbEntity
  8
0
100
AcDbLine
 62
7
  6
CONTINUOUS
 10
18.4247818283
 20
-22.4
 11
18.4320625772
 21
-22.3344140523
  0
LINE
  5
419
100
AcDbEntity
  8
0
100
AcDbLine
 62
7
  6
CONTINUOUS
 10
6.733508573
 20
-23.9912732553
 11
6.7247818283
 21
-24.0
  0
LINE
  5
41A
100
AcDbEntity
  8
RACCORDO
100
AcDbLine
 62
253
  6
CONTINUOUS
 10
-21.7089079351
 20
21.1448536428
 11
21.5584715917
 21
21.1448536428
  0
LINE
  5
41B
100
AcDbEntity
  8
RACCORDO
100
AcDbLine
 62
253
  6
CONTINUOUS
 10
-21.7215132142
 20
21.996123705
 11
21.5710768709
 21
21.996123705
  0
LINE
  5
41C
100
AcDbEntity
  8
RACCORDO
100
AcDbLine
 62
7
  6
CONTINUOUS
 10
21.6749531658
 20
22.1
 11
-21.8253895092
 21
22.1
  0
LINE
  5
41D
100
AcDbEntity
  8
0
100
AcDbLine
 62
7
  6
CONTINUOUS
 10
21.7981070774
 20
22.3213883311
 11
21.0675053102
 21
22.3213883311
  0
LINE
  5
41E
100
AcDbEntity
  8
0
100
AcDbLine
 62
7
  6
CONTINUOUS
 10
18.6820583464
 20
22.3213883311
 11
15.6160550836
 21
22.3213883311
  0
LINE
  5
41F
100
AcDbEntity
  8
0
100
AcDbLine
 62
7
  6
CONTINUOUS
 10
14.6747818283
 20
22.3213883311
 11
7.6747818283
 21
22.3213883311
  0
LINE
  5
420
100
AcDbEntity
  8
0
100
AcDbLine
 62
7
  6
CONTINUOUS
 10
6.733508573
 20
22.3213883311
 11
3.6675053102
 21
22.3213883311
  0
LINE
  5
421
100
AcDbEntity
  8
0
100
AcDbLine
 62
7
  6
CONTINUOUS
 10
1.2820583464
 20
22.3213883311
 11
0.5514565792
 21
22.3213883311
  0
LINE
  5
422
100
AcDbEntity
  8
0
100
AcDbLine
 62
7
  6
CONTINUOUS
 10
14.6747818283
 20
22.3737961104
 11
12.3747818283
 21
22.3737961104
  0
LINE
  5
423
100
AcDbEntity
  8
0
100
AcDbLine
 62
7
  6
CONTINUOUS
 10
9.9747818283
 20
22.3737961104
 11
7.6747818283
 21
22.3737961104
  0
LINE
  5
424
100
AcDbEntity
  8
0
100
AcDbLine
 62
7
  6
CONTINUOUS
 10
6.7247818283
 20
24.0
 11
6.733508573
 21
23.9912732553
  0
LINE
  5
425
100
AcDbEntity
  8
0
100
AcDbLine
 62
7
  6
CONTINUOUS
 10
18.4247818283
 20
22.4
 11
18.4320625772
 21
22.3344140523
  0
LINE
  5
426
100
AcDbEntity
  8
0
100
AcDbLine
 62
7
  6
CONTINUOUS
 10
21.8252245178
 20
22.4
 11
21.3247818283
 21
22.4
  0
LINE
  5
427
100
AcDbEntity
  8
0
100
AcDbLine
 62
7
  6
CONTINUOUS
 10
18.4247818283
 20
22.4
 11
15.6247818283
 21
22.4
  0
LINE
  5
428
100
AcDbEntity
  8
0
100
AcDbLine
 62
7
  6
CONTINUOUS
 10
6.7247818283
 20
22.4
 11
3.9247818283
 21
22.4
  0
LINE
  5
429
100
AcDbEntity
  8
0
100
AcDbLine
 62
7
  6
CONTINUOUS
 10
1.0247818283
 20
22.4
 11
0.5243391388
 21
22.4
  0
LINE
  5
42A
100
AcDbEntity
  8
0
100
AcDbLine
 62
7
  6
CONTINUOUS
 10
10.1747818283
 20
22.4
 11
12.1747818283
 21
22.4
  0
LINE
  5
42B
100
AcDbEntity
  8
0
100
AcDbLine
 62
7
  6
CONTINUOUS
 10
21.0675053102
 20
23.1226497308
 11
18.6820583464
 21
23.1226497308
  0
LINE
  5
42C
100
AcDbEntity
  8
0
100
AcDbLine
 62
7
  6
CONTINUOUS
 10
1.2820583464
 20
23.1226497308
 11
3.6675053102
 21
23.1226497308
  0
LINE
  5
42D
100
AcDbEntity
  8
0
100
AcDbLine
 62
253
  6
CONTINUOUS
 10
1.2878761762
 20
23.6278312164
 11
3.6616874804
 21
23.6278312164
  0
LINE
  5
42E
100
AcDbEntity
  8
0
100
AcDbLine
 62
253
  6
CONTINUOUS
 10
18.6878761762
 20
23.6278312164
 11
21.0616874804
 21
23.6278312164
  0
LINE
  5
42F
100
AcDbEntity
  8
0
100
AcDbLine
 62
253
  6
CONTINUOUS
 10
14.6747818283
 20
23.7982512664
 11
12.1747818283
 21
23.7982512664
  0
LINE
  5
430
100
AcDbEntity
  8
0
100
AcDbLine
 62
253
  6
CONTINUOUS
 10
7.6747818283
 20
23.7982512664
 11
10.1747818283
 21
23.7982512664
  0
LINE
  5
431
100
AcDbEntity
  8
0
100
AcDbLine
 62
253
  6
CONTINUOUS
 10
1.037880407
 20
23.8443375673
 11
3.9116832496
 21
23.8443375673
  0
LINE
  5
432
100
AcDbEntity
  8
0
100
AcDbLine
 62
253
  6
CONTINUOUS
 10
18.437880407
 20
23.8443375673
 11
21.3116832496
 21
23.8443375673
  0
LINE
  5
433
100
AcDbEntity
  8
0
100
AcDbLine
 62
7
  6
CONTINUOUS
 10
6.733508573
 20
23.9912732553
 11
7.6747818283
 21
23.9912732553
  0
LINE
  5
434
100
AcDbEntity
  8
0
100
AcDbLine
 62
7
  6
CONTINUOUS
 10
14.6747818283
 20
23.9912732553
 11
15.6160550836
 21
23.9912732553
  0
LINE
  5
435
100
AcDbEntity
  8
0
100
AcDbLine
 62
253
  6
CONTINUOUS
 10
14.6747818283
 20
23.9982478817
 11
12.3747818283
 21
23.9982478817
  0
LINE
  5
436
100
AcDbEntity
  8
0
100
AcDbLine
 62
253
  6
CONTINUOUS
 10
9.9747818283
 20
23.9982478817
 11
7.6747818283
 21
23.9982478817
  0
LINE
  5
437
100
AcDbEntity
  8
0
100
AcDbLine
 62
7
  6
CONTINUOUS
 10
6.7247818283
 20
24.0
 11
9.9747818283
 21
24.0
  0
LINE
  5
438
100
AcDbEntity
  8
0
100
AcDbLine
 62
7
  6
CONTINUOUS
 10
12.3747818283
 20
24.0
 11
15.6247818283
 21
24.0
  0
LINE
  5
439
100
AcDbEntity
  8
0
100
AcDbLine
 62
253
  6
CONTINUOUS
 10
1.037880407
 20
24.2369056521
 11
3.9116832496
 21
24.2369056521
  0
LINE
  5
43A
100
AcDbEntity
  8
0
100
AcDbLine
 62
253
  6
CONTINUOUS
 10
18.437880407
 20
24.2369056521
 11
21.3116832496
 21
24.2369056521
  0
LINE
  5
43B
100
AcDbEntity
  8
0
100
AcDbLine
 62
253
  6
CONTINUOUS
 10
21.0616874804
 20
24.4869014213
 11
18.6878761762
 21
24.4869014213
  0
LINE
  5
43C
100
AcDbEntity
  8
0
100
AcDbLine
 62
253
  6
CONTINUOUS
 10
3.6616874804
 20
24.4869014213
 11
1.2878761762
 21
24.4869014213
  0
LINE
  5
43D
100
AcDbEntity
  8
0
100
AcDbLine
 62
7
  6
CONTINUOUS
 10
21.0747860591
 20
24.5
 11
18.6747775975
 21
24.5
  0
LINE
  5
43E
100
AcDbEntity
  8
0
100
AcDbLine
 62
7
  6
CONTINUOUS
 10
3.6747860591
 20
24.5
 11
1.2747775975
 21
24.5
  0
LINE
  5
43F
100
AcDbEntity
  8
0
100
AcDbLine
 62
253
  6
CONTINUOUS
 10
18.437880407
 20
-24.2369056521
 11
18.4247818283
 21
-24.2500042308
  0
LINE
  5
440
100
AcDbEntity
  8
0
100
AcDbLine
 62
253
  6
CONTINUOUS
 10
18.6878761762
 20
-24.4869014213
 11
18.6747775975
 21
-24.5
  0
LINE
  5
441
100
AcDbEntity
  8
0
100
AcDbLine
 62
253
  6
CONTINUOUS
 10
18.437880407
 20
24.2369056521
 11
18.4247818283
 21
24.2500042308
  0
LINE
  5
442
100
AcDbEntity
  8
0
100
AcDbLine
 62
253
  6
CONTINUOUS
 10
18.6878761762
 20
24.4869014213
 11
18.6747775975
 21
24.5
  0
LINE
  5
443
100
AcDbEntity
  8
0
100
AcDbLine
 62
7
  6
CONTINUOUS
 10
-39.8752162268
 20
-24.5
 11
-39.123761794
 21
-24.495628166
  0
LINE
  5
444
100
AcDbEntity
  8
0
100
AcDbLine
 62
253
  6
CONTINUOUS
 10
-39.8752162268
 20
-24.2500042308
 11
-39.123761794
 21
-24.2456323968
  0
LINE
  5
445
100
AcDbEntity
  8
0
100
AcDbLine
 62
7
  6
CONTINUOUS
 10
-32.3723073612
 20
-23.9563493531
 11
-38.8752162268
 21
-23.9941821702
  0
LINE
  5
446
100
AcDbEntity
  8
0
100
AcDbLine
 62
253
  6
CONTINUOUS
 10
-38.8752162268
 20
-24.2456323968
 11
-39.123761794
 21
-24.2456323968
  0
LINE
  5
447
100
AcDbEntity
  8
0
100
AcDbLine
 62
253
  6
CONTINUOUS
 10
-42.3752162268
 20
-24.2369056521
 11
-42.1266706597
 21
-24.2369056521
  0
LINE
  5
448
100
AcDbEntity
  8
0
100
AcDbLine
 62
7
  6
CONTINUOUS
 10
-42.1266706597
 20
-24.4869014213
 11
-39.8752162268
 21
-24.5
  0
LINE
  5
449
100
AcDbEntity
  8
0
100
AcDbLine
 62
253
  6
CONTINUOUS
 10
-42.1266706597
 20
-24.2369056521
 11
-39.8752162268
 21
-24.2500042308
  0
LINE
  5
44A
100
AcDbEntity
  8
0
100
AcDbLine
 62
7
  6
CONTINUOUS
 10
-28.8693984955
 20
-22.3359700255
 11
-39.8752162268
 21
-22.4
  0
LINE
  5
44B
100
AcDbEntity
  8
0
100
AcDbLine
 62
253
  6
CONTINUOUS
 10
-39.8752162268
 20
-21.900016923
 11
-38.8752162268
 21
-21.8941990932
  0
LINE
  5
44C
100
AcDbEntity
  8
0
100
AcDbLine
 62
253
  6
CONTINUOUS
 10
-42.3752162268
 20
-23.8443375673
 11
-42.1266706597
 21
-23.8443375673
  0
LINE
  5
44D
100
AcDbEntity
  8
0
100
AcDbLine
 62
253
  6
CONTINUOUS
 10
-38.8752162268
 20
-23.8443375673
 11
-39.123761794
 21
-23.8443375673
  0
LINE
  5
44E
100
AcDbEntity
  8
RACCORDO
100
AcDbLine
 62
7
  6
CONTINUOUS
 10
-47.5420918891
 20
-21.996123705
 11
-43.5752162268
 21
-22.1
  0
LINE
  5
44F
100
AcDbEntity
  8
0
100
AcDbLine
 62
7
  6
CONTINUOUS
 10
-41.3752162268
 20
-22.3213883311
 11
-39.8752162268
 21
-22.4
  0
LINE
  5
450
100
AcDbEntity
  8
0
100
AcDbLine
 62
7
  6
CONTINUOUS
 10
-27.8752162268
 20
-20.9
 11
-37.8752162268
 21
-20.9
  0
LINE
  5
451
100
AcDbEntity
  8
RACCORDO
100
AcDbLine
 62
7
  6
CONTINUOUS
 10
-28.0734709197
 20
-19.7942654032
 11
-37.8752162268
 21
-19.7087268678
  0
LINE
  5
452
100
AcDbEntity
  8
0
100
AcDbLine
 62
7
  6
CONTINUOUS
 10
-28.3664900236
 20
-21.5834304982
 11
-37.8752162268
 21
-21.4174550649
  0
LINE
  5
453
100
AcDbEntity
  8
RACCORDO
100
AcDbLine
 62
253
  6
CONTINUOUS
 10
-47.5420918891
 20
-21.4962950425
 11
-43.5752162268
 21
-21.6001713375
  0
LINE
  5
454
100
AcDbEntity
  8
0
100
AcDbLine
 62
253
  6
CONTINUOUS
 10
-41.3752162268
 20
-21.821159479
 11
-39.8752162268
 21
-21.8997711479
  0
LINE
  5
455
100
AcDbEntity
  8
RACCORDO
100
AcDbLine
 62
253
  6
CONTINUOUS
 10
-28.0717257455
 20
-19.0166572575
 11
-27.8752162268
 21
-19.0166572575
  0
LINE
  5
456
100
AcDbEntity
  8
0
100
AcDbLine
 62
7
  6
CONTINUOUS
 10
-38.8752162268
 20
-18.5082905244
 11
-37.8752162268
 21
-18.5170173922
  0
LINE
  5
457
100
AcDbEntity
  8
0
100
AcDbLine
 62
253
  6
CONTINUOUS
 10
-39.8752162268
 20
23.4104851482
 11
-39.123761794
 21
23.8443375673
  0
LINE
  5
458
100
AcDbEntity
  8
RACCORDO
100
AcDbLine
 62
7
  6
CONTINUOUS
 10
-41.3752162268
 20
-17.4
 11
-43.5752162268
 21
-17.3615988572
  0
LINE
  5
459
100
AcDbEntity
  8
RACCORDO
100
AcDbLine
 62
253
  6
CONTINUOUS
 10
-41.3944917682
 20
-16.399815849
 11
-43.5752162268
 21
-16.361751162
  0
LINE
  5
45A
100
AcDbEntity
  8
0
100
AcDbLine
 62
253
  6
CONTINUOUS
 10
-39.123761794
 20
-23.8443375673
 11
-39.8752162268
 21
-23.4104851482
  0
LINE
  5
45B
100
AcDbEntity
  8
0
100
AcDbLine
 62
7
  6
CONTINUOUS
 10
-39.8752162268
 20
23.1226497308
 11
-39.0002162268
 21
23.6278312164
  0
LINE
  5
45C
100
AcDbEntity
  8
0
100
AcDbLine
 62
7
  6
CONTINUOUS
 10
-39.0002162268
 20
-23.6278312164
 11
-39.8752162268
 21
-23.1226497308
  0
LINE
  5
45D
100
AcDbEntity
  8
RACCORDO
100
AcDbLine
 62
7
  6
CONTINUOUS
 10
-37.8752162268
 20
14.9602976573
 11
-28.0068121976
 21
18.5521029837
  0
LINE
  5
45E
100
AcDbEntity
  8
RACCORDO
100
AcDbLine
 62
253
  6
CONTINUOUS
 10
-48.9981368126
 20
-9.4905
 11
-49.4849580173
 21
-9.4999999988
  0
LINE
  5
45F
100
AcDbEntity
  8
RACCORDO
100
AcDbLine
 62
7
  6
CONTINUOUS
 10
-28.0068121976
 20
-18.5521029837
 11
-37.8752162268
 21
-14.9602976573
  0
LINE
  5
460
100
AcDbEntity
  8
CURVE
100
AcDbLine
 62
253
  6
CONTINUOUS
 10
-49.427581833
 20
-11.5515380038
 11
-49.3281435162
 21
-13.4489341199
  0
LINE
  5
461
100
AcDbEntity
  8
DRAFT
100
AcDbLine
 62
7
  6
CONTINUOUS
 10
-41.3752162268
 20
-16.6
 11
-42.9736144269
 21
-0.0
  0
LINE
  5
462
100
AcDbEntity
  8
RACCORDO
100
AcDbLine
 62
7
  6
CONTINUOUS
 10
-43.5752162268
 20
-22.1
 11
-43.5752162268
 21
22.1
  0
LINE
  5
463
100
AcDbEntity
  8
DRAFT
100
AcDbLine
 62
7
  6
CONTINUOUS
 10
-42.9736144269
 20
-0.0
 11
-41.3752162268
 21
16.6
  0
LINE
  5
464
100
AcDbEntity
  8
0
100
AcDbLine
 62
7
  6
CONTINUOUS
 10
-42.3752162268
 20
-24.2369056521
 11
-42.3752162268
 21
-23.8443375673
  0
LINE
  5
465
100
AcDbEntity
  8
0
100
AcDbLine
 62
7
  6
CONTINUOUS
 10
-42.3752162268
 20
23.8443375673
 11
-42.3752162268
 21
24.2369056521
  0
LINE
  5
466
100
AcDbEntity
  8
0
100
AcDbLine
 62
253
  6
CONTINUOUS
 10
-42.1266706597
 20
-24.2369056521
 11
-42.1266706597
 21
-23.8443375673
  0
LINE
  5
467
100
AcDbEntity
  8
0
100
AcDbLine
 62
253
  6
CONTINUOUS
 10
-42.1266706597
 20
23.8443375673
 11
-42.1266706597
 21
24.2369056521
  0
LINE
  5
468
100
AcDbEntity
  8
DRAFT
100
AcDbLine
 62
7
  6
CONTINUOUS
 10
-41.3752162268
 20
21.821159479
 11
-41.3752162268
 21
16.6
  0
LINE
  5
469
100
AcDbEntity
  8
DRAFT
100
AcDbLine
 62
7
  6
CONTINUOUS
 10
-41.3752162268
 20
-16.6
 11
-41.3752162268
 21
-21.821159479
  0
LINE
  5
46A
100
AcDbEntity
  8
0
100
AcDbLine
 62
7
  6
CONTINUOUS
 10
-41.3752162268
 20
-21.821159479
 11
-41.3752162268
 21
-23.1226497308
  0
LINE
  5
46B
100
AcDbEntity
  8
0
100
AcDbLine
 62
7
  6
CONTINUOUS
 10
-41.3752162268
 20
21.821159479
 11
-41.3752162268
 21
23.1226497308
  0
LINE
  5
46C
100
AcDbEntity
  8
0
100
AcDbLine
 62
253
  6
CONTINUOUS
 10
-41.1266706597
 20
-23.2669872981
 11
-41.1266706597
 21
-22.3344140523
  0
LINE
  5
46D
100
AcDbEntity
  8
0
100
AcDbLine
 62
253
  6
CONTINUOUS
 10
-41.1266706597
 20
22.3344140523
 11
-41.1266706597
 21
23.2669872981
  0
LINE
  5
46E
100
AcDbEntity
  8
0
100
AcDbLine
 62
7
  6
CONTINUOUS
 10
-39.8752162268
 20
-24.2500042308
 11
-39.8752162268
 21
24.2500042308
  0
LINE
  5
46F
100
AcDbEntity
  8
0
100
AcDbLine
 62
253
  6
CONTINUOUS
 10
-39.123761794
 20
24.2456323968
 11
-39.123761794
 21
23.8443375673
  0
LINE
  5
470
100
AcDbEntity
  8
0
100
AcDbLine
 62
253
  6
CONTINUOUS
 10
-39.123761794
 20
-23.8443375673
 11
-39.123761794
 21
-24.2456323968
  0
LINE
  5
471
100
AcDbEntity
  8
0
100
AcDbLine
 62
7
  6
CONTINUOUS
 10
-38.8752162268
 20
24.2456323968
 11
-38.8752162268
 21
23.8443375673
  0
LINE
  5
472
100
AcDbEntity
  8
0
100
AcDbLine
 62
7
  6
CONTINUOUS
 10
-38.8752162268
 20
22.3941821702
 11
-38.8752162268
 21
18.5082905244
  0
LINE
  5
473
100
AcDbEntity
  8
0
100
AcDbLine
 62
7
  6
CONTINUOUS
 10
-38.8752162268
 20
-18.5082905244
 11
-38.8752162268
 21
-22.3941821702
  0
LINE
  5
474
100
AcDbEntity
  8
0
100
AcDbLine
 62
7
  6
CONTINUOUS
 10
-38.8752162268
 20
-23.8443375673
 11
-38.8752162268
 21
-24.2456323968
  0
LINE
  5
475
100
AcDbEntity
  8
RACCORDO
100
AcDbLine
 62
253
  6
CONTINUOUS
 10
-48.9981368126
 20
9.4905
 11
-49.4849580791
 21
9.5
  0
LINE
  5
476
100
AcDbEntity
  8
0
100
AcDbLine
 62
7
  6
CONTINUOUS
 10
-37.8752162268
 20
21.4174550649
 11
-37.8752162268
 21
-21.4174550649
  0
LINE
  5
477
100
AcDbEntity
  8
0
100
AcDbLine
 62
7
  6
CONTINUOUS
 10
-32.3752162268
 20
-23.4413184673
 11
-32.3752162268
 21
-22.8586815327
  0
LINE
  5
478
100
AcDbEntity
  8
0
100
AcDbLine
 62
7
  6
CONTINUOUS
 10
-32.3752162268
 20
22.8586815327
 11
-32.3752162268
 21
23.4413184673
  0
LINE
  5
479
100
AcDbEntity
  8
0
100
AcDbLine
 62
253
  6
CONTINUOUS
 10
-32.325623256
 20
-23.9538922731
 11
-32.325623256
 21
-22.356077753
  0
LINE
  5
47A
100
AcDbEntity
  8
0
100
AcDbLine
 62
253
  6
CONTINUOUS
 10
-32.325623256
 20
22.356077753
 11
-32.325623256
 21
23.9538922731
  0
LINE
  5
47B
100
AcDbEntity
  8
RACCORDO
100
AcDbLine
 62
253
  6
CONTINUOUS
 10
-41.3944917682
 20
16.399815849
 11
-43.5752162268
 21
16.361751162
  0
LINE
  5
47C
100
AcDbEntity
  8
RACCORDO
100
AcDbLine
 62
7
  6
CONTINUOUS
 10
-41.3752162268
 20
17.4
 11
-43.5752162268
 21
17.3615988572
  0
LINE
  5
47D
100
AcDbEntity
  8
0
100
AcDbLine
 62
7
  6
CONTINUOUS
 10
-31.8752162268
 20
-23.4563578147
 11
-31.8752162268
 21
-22.3534625321
  0
LINE
  5
47E
100
AcDbEntity
  8
0
100
AcDbLine
 62
7
  6
CONTINUOUS
 10
-31.8752162268
 20
22.3534625321
 11
-31.8752162268
 21
23.4563578147
  0
LINE
  5
47F
100
AcDbEntity
  8
0
100
AcDbLine
 62
7
  6
CONTINUOUS
 10
-38.8752162268
 20
18.5082905244
 11
-37.8752162268
 21
18.5170173922
  0
LINE
  5
480
100
AcDbEntity
  8
RACCORDO
100
AcDbLine
 62
7
  6
CONTINUOUS
 10
-28.0734709197
 20
19.7942654032
 11
-37.8752162268
 21
19.7087268678
  0
LINE
  5
481
100
AcDbEntity
  8
RACCORDO
100
AcDbLine
 62
253
  6
CONTINUOUS
 10
-28.0717257455
 20
19.0166572575
 11
-27.8752162268
 21
19.0166572575
  0
LINE
  5
482
100
AcDbEntity
  8
0
100
AcDbLine
 62
253
  6
CONTINUOUS
 10
-28.3664900236
 20
21.5834304982
 11
-28.3664900236
 21
20.9
  0
LINE
  5
483
100
AcDbEntity
  8
0
100
AcDbLine
 62
253
  6
CONTINUOUS
 10
-28.3664900236
 20
-20.9
 11
-28.3664900236
 21
-21.5834304982
  0
LINE
  5
484
100
AcDbEntity
  8
RACCORDO
100
AcDbLine
 62
253
  6
CONTINUOUS
 10
-28.0734709197
 20
20.9
 11
-28.0734709197
 21
19.7942654032
  0
LINE
  5
485
100
AcDbEntity
  8
RACCORDO
100
AcDbLine
 62
253
  6
CONTINUOUS
 10
-28.0734709197
 20
-19.7942654032
 11
-28.0734709197
 21
-20.9
  0
LINE
  5
486
100
AcDbEntity
  8
RACCORDO
100
AcDbLine
 62
253
  6
CONTINUOUS
 10
-28.0717257455
 20
-19.7942654032
 11
-28.0717257455
 21
-19.0166572575
  0
LINE
  5
487
100
AcDbEntity
  8
RACCORDO
100
AcDbLine
 62
253
  6
CONTINUOUS
 10
-28.0717257455
 20
19.0166572575
 11
-28.0717257455
 21
19.7942654032
  0
LINE
  5
488
100
AcDbEntity
  8
0
100
AcDbLine
 62
7
  6
CONTINUOUS
 10
-27.8752162268
 20
21.3359869487
 11
-27.8752162268
 21
20.9
  0
LINE
  5
489
100
AcDbEntity
  8
0
100
AcDbLine
 62
7
  6
CONTINUOUS
 10
-27.8752162268
 20
-20.9
 11
-27.8752162268
 21
-21.3359869487
  0
LINE
  5
48A
100
AcDbEntity
  8
RACCORDO
100
AcDbLine
 62
7
  6
CONTINUOUS
 10
-27.8752162268
 20
-20.9
 11
-27.8752162268
 21
-18.7400415081
  0
LINE
  5
48B
100
AcDbEntity
  8
RACCORDO
100
AcDbLine
 62
7
  6
CONTINUOUS
 10
-27.8752162268
 20
18.7400415081
 11
-27.8752162268
 21
20.9
  0
LINE
  5
48C
100
AcDbEntity
  8
0
100
AcDbLine
 62
253
  6
CONTINUOUS
 10
-39.8752162268
 20
21.8997711479
 11
-41.3752162268
 21
21.821159479
  0
LINE
  5
48D
100
AcDbEntity
  8
0
100
AcDbLine
 62
7
  6
CONTINUOUS
 10
-39.8752162268
 20
22.4
 11
-41.3752162268
 21
22.3213883311
  0
LINE
  5
48E
100
AcDbEntity
  8
RACCORDO
100
AcDbLine
 62
253
  6
CONTINUOUS
 10
-43.5752162268
 20
21.6001713375
 11
-47.5420918891
 21
21.4962950425
  0
LINE
  5
48F
100
AcDbEntity
  8
RACCORDO
100
AcDbLine
 62
7
  6
CONTINUOUS
 10
-43.5752162268
 20
22.1
 11
-47.5420918891
 21
21.996123705
  0
LINE
  5
490
100
AcDbEntity
  8
0
100
AcDbLine
 62
7
  6
CONTINUOUS
 10
-28.3664900236
 20
21.5834304982
 11
-37.8752162268
 21
21.4174550649
  0
LINE
  5
491
100
AcDbEntity
  8
0
100
AcDbLine
 62
7
  6
CONTINUOUS
 10
-27.8752162268
 20
20.9
 11
-37.8752162268
 21
20.9
  0
LINE
  5
492
100
AcDbEntity
  8
0
100
AcDbLine
 62
253
  6
CONTINUOUS
 10
-38.8752162268
 20
21.8941990932
 11
-39.8752162268
 21
21.900016923
  0
LINE
  5
493
100
AcDbEntity
  8
0
100
AcDbLine
 62
7
  6
CONTINUOUS
 10
-41.3752162268
 20
-23.1226497308
 11
-42.2502162268
 21
-23.6278312164
  0
LINE
  5
494
100
AcDbEntity
  8
0
100
AcDbLine
 62
253
  6
CONTINUOUS
 10
-42.1266706597
 20
24.2369056521
 11
-39.8752162268
 21
24.2500042308
  0
LINE
  5
495
100
AcDbEntity
  8
0
100
AcDbLine
 62
253
  6
CONTINUOUS
 10
-42.3752162268
 20
23.8443375673
 11
-42.1266706597
 21
23.8443375673
  0
LINE
  5
496
100
AcDbEntity
  8
0
100
AcDbLine
 62
253
  6
CONTINUOUS
 10
-38.8752162268
 20
23.8443375673
 11
-39.123761794
 21
23.8443375673
  0
LINE
  5
497
100
AcDbEntity
  8
0
100
AcDbLine
 62
253
  6
CONTINUOUS
 10
-42.3752162268
 20
24.2369056521
 11
-42.1266706597
 21
24.2369056521
  0
LINE
  5
498
100
AcDbEntity
  8
0
100
AcDbLine
 62
253
  6
CONTINUOUS
 10
-38.8752162268
 20
24.2456323968
 11
-39.123761794
 21
24.2456323968
  0
LINE
  5
499
100
AcDbEntity
  8
0
100
AcDbLine
 62
7
  6
CONTINUOUS
 10
-28.8693984955
 20
22.3359700255
 11
-39.8752162268
 21
22.4
  0
LINE
  5
49A
100
AcDbEntity
  8
0
100
AcDbLine
 62
7
  6
CONTINUOUS
 10
-32.3723073612
 20
23.9563493531
 11
-38.8752162268
 21
23.9941821702
  0
LINE
  5
49B
100
AcDbEntity
  8
0
100
AcDbLine
 62
253
  6
CONTINUOUS
 10
-39.8752162268
 20
24.2500042308
 11
-39.123761794
 21
24.2456323968
  0
LINE
  5
49C
100
AcDbEntity
  8
0
100
AcDbLine
 62
7
  6
CONTINUOUS
 10
-42.2502162268
 20
23.6278312164
 11
-41.3752162268
 21
23.1226497308
  0
LINE
  5
49D
100
AcDbEntity
  8
0
100
AcDbLine
 62
253
  6
CONTINUOUS
 10
-41.1266706597
 20
-23.2669872981
 11
-42.1266706597
 21
-23.8443375673
  0
LINE
  5
49E
100
AcDbEntity
  8
0
100
AcDbLine
 62
7
  6
CONTINUOUS
 10
-42.1266706597
 20
24.4869014213
 11
-39.8752162268
 21
24.5
  0
LINE
  5
49F
100
AcDbEntity
  8
0
100
AcDbLine
 62
7
  6
CONTINUOUS
 10
-39.8752162268
 20
24.5
 11
-39.123761794
 21
24.495628166
  0
LINE
  5
4A0
100
AcDbEntity
  8
0
100
AcDbLine
 62
253
  6
CONTINUOUS
 10
-42.1266706597
 20
23.8443375673
 11
-41.1266706597
 21
23.2669872981
  0
ARC
  5
4A1
100
AcDbEntity
  8
RACCORDO
100
AcDbCircle
 62
253
  6
CONTINUOUS
 10
-3427.64130828
 20
-7.8574491412
 40
3405.9583190106
100
AcDbArc
 50
359.7764757938
 51
359.9723686473
  0
ARC
  5
4A2
100
AcDbEntity
  8
RACCORDO
100
AcDbCircle
 62
253
  6
CONTINUOUS
 10
-3390.4026891324
 20
-7.8570738385
 40
3368.2198712008
100
AcDbArc
 50
359.7752270663
 51
359.9722142757
  0
ARC
  5
4A3
100
AcDbEntity
  8
RACCORDO
100
AcDbCircle
 62
253
  6
CONTINUOUS
 10
-21.7211073014
 20
-21.4958891297
 40
0.5002354915
100
AcDbArc
 50
180.0464923656
 51
269.9535076344
  0
ARC
  5
4A4
100
AcDbEntity
  8
RACCORDO
100
AcDbCircle
 62
253
  6
CONTINUOUS
 10
-17.1196994324
 20
-15.2083725251
 40
0.9538916814
100
AcDbArc
 50
197.0696006983
 51
269.9757560564
  0
ARC
  5
4A5
100
AcDbEntity
  8
RACCORDO
100
AcDbCircle
 62
253
  6
CONTINUOUS
 10
-17.12010857
 20
-15.1992685273
 40
0.8536741083
100
AcDbArc
 50
201.7603139637
 51
270.0003705748
  0
ARC
  5
4A6
100
AcDbEntity
  8
RACCORDO
100
AcDbCircle
 62
253
  6
CONTINUOUS
 10
-17.1230644318
 20
-15.2002087214
 40
0.8505758506
100
AcDbArc
 50
197.1114127364
 51
201.7753093807
  0
ARC
  5
4A7
100
AcDbEntity
  8
DRAFT
100
AcDbCircle
 62
7
  6
CONTINUOUS
 10
-17.1201030487
 20
-15.2
 40
0.85
100
AcDbArc
 50
197.0663096459
 51
270.0
  0
ARC
  5
4A8
100
AcDbEntity
  8
ASSI
100
AcDbCircle
 62
7
  6
CONTINUOUS
 10
-17.1201030487
 20
-15.2
 40
0.75
100
AcDbArc
 50
197.0663096459
 51
270.0
  0
ARC
  5
4A9
100
AcDbEntity
  8
DRAFT
100
AcDbCircle
 62
7
  6
CONTINUOUS
 10
-17.1201030487
 20
-15.2
 40
0.75
100
AcDbArc
 50
197.0663096459
 51
270.0
  0
ARC
  5
4AA
100
AcDbEntity
  8
RACCORDO
100
AcDbCircle
 62
7
  6
CONTINUOUS
 10
-17.1200988201
 20
-15.2005094676
 40
0.7428113369
100
AcDbArc
 50
197.9850366107
 51
269.9996738358
  0
ARC
  5
4AB
100
AcDbEntity
  8
ASSI
100
AcDbCircle
 62
7
  6
CONTINUOUS
 10
-17.1201488082
 20
-15.2005531599
 40
0.7427472798
100
AcDbArc
 50
197.9864004313
 51
265.1486979259
  0
ARC
  5
4AC
100
AcDbEntity
  8
ASSI
100
AcDbCircle
 62
7
  6
CONTINUOUS
 10
-17.1199102888
 20
-15.2011659394
 40
0.7421543461
100
AcDbArc
 50
265.1263489017
 51
269.9851185543
  0
ARC
  5
4AD
100
AcDbEntity
  8
RACCORDO
100
AcDbCircle
 62
7
  6
CONTINUOUS
 10
-17.1253882479
 20
-15.2020064359
 40
0.7373323441
100
AcDbArc
 50
197.0377917785
 51
197.9815368688
  0
ARC
  5
4AE
100
AcDbEntity
  8
ASSI
100
AcDbCircle
 62
7
  6
CONTINUOUS
 10
-17.1254328391
 20
-15.2020200753
 40
0.7372857135
100
AcDbArc
 50
197.0377936837
 51
197.9828702051
  0
ARC
  5
4AF
100
AcDbEntity
  8
RACCORDO
100
AcDbCircle
 62
253
  6
CONTINUOUS
 10
-17.1198072297
 20
-15.2092960011
 40
0.6430064716
100
AcDbArc
 50
196.9867139263
 51
269.973639905
  0
ARC
  5
4B0
100
AcDbEntity
  8
ASSI
100
AcDbCircle
 62
253
  6
CONTINUOUS
 10
-17.1198088927
 20
-15.2092982797
 40
0.6430039089
100
AcDbArc
 50
196.986563037
 51
269.9737879967
  0
ARC
  5
4B1
100
AcDbEntity
  8
RACCORDO
100
AcDbCircle
 62
253
  6
CONTINUOUS
 10
-5.5307623849
 20
-15.2083378839
 40
0.9539269252
100
AcDbArc
 50
270.0257731425
 51
342.9288594334
  0
ARC
  5
4B2
100
AcDbEntity
  8
RACCORDO
100
AcDbCircle
 62
253
  6
CONTINUOUS
 10
-5.5303243522
 20
-15.1992827792
 40
0.8536580527
100
AcDbArc
 50
269.999399797
 51
338.0365123073
  0
ARC
  5
4B3
100
AcDbEntity
  8
RACCORDO
100
AcDbCircle
 62
253
  6
CONTINUOUS
 10
-5.5284594319
 20
-15.1997480806
 40
0.8517507743
100
AcDbArc
 50
338.0186204029
 51
342.880497017
  0
ARC
  5
4B4
100
AcDbEntity
  8
DRAFT
100
AcDbCircle
 62
7
  6
CONTINUOUS
 10
-5.5303332947
 20
-15.2
 40
0.85
100
AcDbArc
 50
270.0
 51
342.9336903541
  0
ARC
  5
4B5
100
AcDbEntity
  8
ASSI
100
AcDbCircle
 62
7
  6
CONTINUOUS
 10
-5.5303332947
 20
-15.2
 40
0.75
100
AcDbArc
 50
270.0
 51
342.9336903541
  0
ARC
  5
4B6
100
AcDbEntity
  8
DRAFT
100
AcDbCircle
 62
7
  6
CONTINUOUS
 10
-5.5303332947
 20
-15.2
 40
0.75
100
AcDbArc
 50
270.0
 51
342.9336903541
  0
ARC
  5
4B7
100
AcDbEntity
  8
RACCORDO
100
AcDbCircle
 62
7
  6
CONTINUOUS
 10
-5.5305538748
 20
-15.200153831
 40
0.7431407934
100
AcDbArc
 50
338.0904126268
 51
342.0136477116
  0
ARC
  5
4B8
100
AcDbEntity
  8
ASSI
100
AcDbCircle
 62
7
  6
CONTINUOUS
 10
-5.5305421033
 20
-15.2001562797
 40
0.7431288353
100
AcDbArc
 50
338.0809156269
 51
342.0123332335
  0
ARC
  5
4B9
100
AcDbEntity
  8
RACCORDO
100
AcDbCircle
 62
7
  6
CONTINUOUS
 10
-5.530336083
 20
-15.2005125171
 40
0.7428081119
100
AcDbArc
 50
270.0002150732
 51
338.1098128481
  0
ARC
  5
4BA
100
AcDbEntity
  8
ASSI
100
AcDbCircle
 62
7
  6
CONTINUOUS
 10
-5.5303257502
 20
-15.2005032946
 40
0.7428057168
100
AcDbArc
 50
274.8541571284
 51
338.0995179661
  0
ARC
  5
4BB
100
AcDbEntity
  8
ASSI
100
AcDbCircle
 62
7
  6
CONTINUOUS
 10
-5.5305033719
 20
-15.2014205595
 40
0.7418997204
100
AcDbArc
 50
270.0131348039
 51
274.8738197584
  0
ARC
  5
4BC
100
AcDbEntity
  8
RACCORDO
100
AcDbCircle
 62
7
  6
CONTINUOUS
 10
-5.5253190016
 20
-15.2019001319
 40
0.7376225083
100
AcDbArc
 50
342.0171027902
 51
342.9604789656
  0
ARC
  5
4BD
100
AcDbEntity
  8
ASSI
100
AcDbCircle
 62
7
  6
CONTINUOUS
 10
-5.5252744078
 20
-15.2019137736
 40
0.7375758745
100
AcDbArc
 50
342.0158183127
 51
342.9604770578
  0
ARC
  5
4BE
100
AcDbEntity
  8
RACCORDO
100
AcDbCircle
 62
253
  6
CONTINUOUS
 10
-5.5306281534
 20
-15.2092955686
 40
0.6430062561
100
AcDbArc
 50
270.0262745104
 51
343.0132242214
  0
ARC
  5
4BF
100
AcDbEntity
  8
ASSI
100
AcDbCircle
 62
253
  6
CONTINUOUS
 10
-5.5306263967
 20
-15.2092979308
 40
0.6430035875
100
AcDbArc
 50
270.0261180684
 51
343.0133797939
  0
ARC
  5
4C0
100
AcDbEntity
  8
RACCORDO
100
AcDbCircle
 62
253
  6
CONTINUOUS
 10
-14.3376096673
 20
-12.5005865217
 40
10.1676531264
100
AcDbArc
 50
342.9112639697
 51
17.0386136568
  0
ARC
  5
4C1
100
AcDbEntity
  8
DRAFT
100
AcDbCircle
 62
7
  6
CONTINUOUS
 10
-14.3252181717
 20
-12.5
 40
10.05
100
AcDbArc
 50
342.9336903541
 51
17.0663096459
  0
ARC
  5
4C2
100
AcDbEntity
  8
RACCORDO
100
AcDbCircle
 62
253
  6
CONTINUOUS
 10
-14.3155153145
 20
-12.4953528006
 40
10.0455587212
100
AcDbArc
 50
342.8921103518
 51
17.0572124958
  0
ARC
  5
4C3
100
AcDbEntity
  8
ASSI
100
AcDbCircle
 62
7
  6
CONTINUOUS
 10
-14.3345387855
 20
-12.504512004
 40
9.9505599203
100
AcDbArc
 50
345.2380939964
 51
14.8201177691
  0
ARC
  5
4C4
100
AcDbEntity
  8
RACCORDO
100
AcDbCircle
 62
7
  6
CONTINUOUS
 10
-14.334477396
 20
-12.5045126585
 40
9.9505031859
100
AcDbArc
 50
342.974177297
 51
17.0755027982
  0
ARC
  5
4C5
100
AcDbEntity
  8
ASSI
100
AcDbCircle
 62
7
  6
CONTINUOUS
 10
-14.3252181717
 20
-12.5
 40
9.95
100
AcDbArc
 50
342.9336903541
 51
17.0663096459
  0
ARC
  5
4C6
100
AcDbEntity
  8
DRAFT
100
AcDbCircle
 62
7
  6
CONTINUOUS
 10
-14.3252181717
 20
-12.5
 40
9.95
100
AcDbArc
 50
342.9336903541
 51
17.0663096459
  0
ARC
  5
4C7
100
AcDbEntity
  8
ASSI
100
AcDbCircle
 62
7
  6
CONTINUOUS
 10
-14.329076266
 20
-12.506247935
 40
9.9448306785
100
AcDbArc
 50
342.9746252951
 51
345.2397461677
  0
ARC
  5
4C8
100
AcDbEntity
  8
ASSI
100
AcDbCircle
 62
7
  6
CONTINUOUS
 10
-14.3284299025
 20
-12.5025956361
 40
9.9441593758
100
AcDbArc
 50
14.8184465421
 51
17.075175634
  0
ARC
  5
4C9
100
AcDbEntity
  8
ASSI
100
AcDbCircle
 62
253
  6
CONTINUOUS
 10
-14.3561445287
 20
-12.5097574128
 40
9.8721704386
100
AcDbArc
 50
343.028513086
 51
17.0565245178
  0
ARC
  5
4CA
100
AcDbEntity
  8
RACCORDO
100
AcDbCircle
 62
253
  6
CONTINUOUS
 10
-14.3559211994
 20
-12.5097572892
 40
9.8719531125
100
AcDbArc
 50
343.0356831093
 51
17.0569040211
  0
ARC
  5
4CB
100
AcDbEntity
  8
RACCORDO
100
AcDbCircle
 62
253
  6
CONTINUOUS
 10
-17.1181914218
 20
-9.8020391971
 40
0.958055699
100
AcDbArc
 50
161.6233283722
 51
162.9606369052
  0
ARC
  5
4CC
100
AcDbEntity
  8
RACCORDO
100
AcDbCircle
 62
253
  6
CONTINUOUS
 10
-17.1199539465
 20
-9.8017527561
 40
0.9562965701
100
AcDbArc
 50
90.0089334435
 51
161.6063231806
  0
ARC
  5
4CD
100
AcDbEntity
  8
RACCORDO
100
AcDbCircle
 62
253
  6
CONTINUOUS
 10
-17.1164909059
 20
-9.8015692035
 40
0.8601244898
100
AcDbArc
 50
147.3484547838
 51
161.5719186422
  0
ARC
  5
4CE
100
AcDbEntity
  8
RACCORDO
100
AcDbCircle
 62
253
  6
CONTINUOUS
 10
-17.1200985879
 20
-9.7998418627
 40
0.8561559138
100
AcDbArc
 50
161.6052676708
 51
162.943894838
  0
ARC
  5
4CF
100
AcDbEntity
  8
RACCORDO
100
AcDbCircle
 62
253
  6
CONTINUOUS
 10
-17.12010431
 20
-9.799846362
 40
0.8561527449
100
AcDbArc
 50
89.9999155934
 51
147.3150633216
  0
ARC
  5
4D0
100
AcDbEntity
  8
DRAFT
100
AcDbCircle
 62
7
  6
CONTINUOUS
 10
-17.1201030487
 20
-9.8
 40
0.85
100
AcDbArc
 50
90.0
 51
162.9336903541
  0
ARC
  5
4D1
100
AcDbEntity
  8
ASSI
100
AcDbCircle
 62
7
  6
CONTINUOUS
 10
-17.1201030487
 20
-9.8
 40
0.75
100
AcDbArc
 50
90.0
 51
162.9336903541
  0
ARC
  5
4D2
100
AcDbEntity
  8
DRAFT
100
AcDbCircle
 62
7
  6
CONTINUOUS
 10
-17.1201030487
 20
-9.8
 40
0.75
100
AcDbArc
 50
90.0
 51
162.9336903541
  0
ARC
  5
4D3
100
AcDbEntity
  8
ASSI
100
AcDbCircle
 62
253
  6
CONTINUOUS
 10
-17.118553575
 20
-9.8007549232
 40
0.7420300347
100
AcDbArc
 50
151.8739913527
 51
162.9130783037
  0
ARC
  5
4D4
100
AcDbEntity
  8
RACCORDO
100
AcDbCircle
 62
253
  6
CONTINUOUS
 10
-17.118553575
 20
-9.8007549232
 40
0.7420300347
100
AcDbArc
 50
151.8739913527
 51
162.9130783037
  0
ARC
  5
4D5
100
AcDbEntity
  8
RACCORDO
100
AcDbCircle
 62
7
  6
CONTINUOUS
 10
-17.1194961184
 20
-9.8004797177
 40
0.7410690856
100
AcDbArc
 50
144.8746744578
 51
151.858403158
  0
ARC
  5
4D6
100
AcDbEntity
  8
RACCORDO
100
AcDbCircle
 62
7
  6
CONTINUOUS
 10
-17.1201016198
 20
-9.8001066643
 40
0.7403592074
100
AcDbArc
 50
90.000110581
 51
144.8713260846
  0
ARC
  5
4D7
100
AcDbEntity
  8
ASSI
100
AcDbCircle
 62
7
  6
CONTINUOUS
 10
-17.1201766453
 20
-9.7999753065
 40
0.7402103484
100
AcDbArc
 50
94.6651503487
 51
146.8008232566
  0
ARC
  5
4D8
100
AcDbEntity
  8
ASSI
100
AcDbCircle
 62
7
  6
CONTINUOUS
 10
-17.1218344813
 20
-9.7992940899
 40
0.7384479513
100
AcDbArc
 50
146.7746192017
 51
151.8539475435
  0
ARC
  5
4D9
100
AcDbEntity
  8
ASSI
100
AcDbCircle
 62
7
  6
CONTINUOUS
 10
-17.12004411
 20
-9.7974454106
 40
0.7376979561
100
AcDbArc
 50
90.0045776705
 51
94.6913912578
  0
ARC
  5
4DA
100
AcDbEntity
  8
ASSI
100
AcDbCircle
 62
253
  6
CONTINUOUS
 10
-17.1177149216
 20
-9.8027942326
 40
0.6428391957
100
AcDbArc
 50
151.8990569283
 51
162.9307675066
  0
ARC
  5
4DB
100
AcDbEntity
  8
RACCORDO
100
AcDbCircle
 62
253
  6
CONTINUOUS
 10
-17.1177149216
 20
-9.8027942326
 40
0.6428391957
100
AcDbArc
 50
151.8990569283
 51
162.9307675066
  0
ARC
  5
4DC
100
AcDbEntity
  8
RACCORDO
100
AcDbCircle
 62
253
  6
CONTINUOUS
 10
-17.1200736023
 20
-9.8019210789
 40
0.6403459821
100
AcDbArc
 50
90.0026347558
 51
151.868565681
  0
ARC
  5
4DD
100
AcDbEntity
  8
ASSI
100
AcDbCircle
 62
253
  6
CONTINUOUS
 10
-17.1200739515
 20
-9.8019204953
 40
0.6403453835
100
AcDbArc
 50
90.0026035176
 51
151.8685970041
  0
ARC
  5
4DE
100
AcDbEntity
  8
RACCORDO
100
AcDbCircle
 62
253
  6
CONTINUOUS
 10
-8.3128341416
 20
-12.5005865249
 40
10.1676459899
100
AcDbArc
 50
162.9613739988
 51
197.0887483747
  0
ARC
  5
4DF
100
AcDbEntity
  8
DRAFT
100
AcDbCircle
 62
7
  6
CONTINUOUS
 10
-8.3252181717
 20
-12.5
 40
10.05
100
AcDbArc
 50
162.9336903541
 51
197.0663096459
  0
ARC
  5
4E0
100
AcDbEntity
  8
RACCORDO
100
AcDbCircle
 62
253
  6
CONTINUOUS
 10
-8.3349243896
 20
-12.4953528021
 40
10.0455555088
100
AcDbArc
 50
162.9427818737
 51
197.1078952788
  0
ARC
  5
4E1
100
AcDbEntity
  8
ASSI
100
AcDbCircle
 62
7
  6
CONTINUOUS
 10
-8.315895909
 20
-12.5045122734
 40
9.9505615694
100
AcDbArc
 50
165.1809546096
 51
194.7848390826
  0
ARC
  5
4E2
100
AcDbEntity
  8
RACCORDO
100
AcDbCircle
 62
7
  6
CONTINUOUS
 10
-8.3159606056
 20
-12.5045126578
 40
9.9505016006
100
AcDbArc
 50
162.9244944023
 51
197.0258255025
  0
ARC
  5
4E3
100
AcDbEntity
  8
ASSI
100
AcDbCircle
 62
7
  6
CONTINUOUS
 10
-8.3252181717
 20
-12.5
 40
9.95
100
AcDbArc
 50
162.9336903541
 51
197.0663096459
  0
ARC
  5
4E4
100
AcDbEntity
  8
DRAFT
100
AcDbCircle
 62
7
  6
CONTINUOUS
 10
-8.3252181717
 20
-12.5
 40
9.95
100
AcDbArc
 50
162.9336903541
 51
197.0663096459
  0
ARC
  5
4E5
100
AcDbEntity
  8
ASSI
100
AcDbCircle
 62
7
  6
CONTINUOUS
 10
-8.3215513939
 20
-12.5063021817
 40
9.9446318632
100
AcDbArc
 50
194.7831830986
 51
197.0253985989
  0
ARC
  5
4E6
100
AcDbEntity
  8
ASSI
100
AcDbCircle
 62
7
  6
CONTINUOUS
 10
-8.3219889434
 20
-12.5026004367
 40
9.9441775116
100
AcDbArc
 50
162.9248275276
 51
165.1826246397
  0
ARC
  5
4E7
100
AcDbEntity
  8
ASSI
100
AcDbCircle
 62
253
  6
CONTINUOUS
 10
-8.2942931158
 20
-12.5097574161
 40
9.8721691711
100
AcDbArc
 50
162.9434732492
 51
196.9714912377
  0
ARC
  5
4E8
100
AcDbEntity
  8
RACCORDO
100
AcDbCircle
 62
253
  6
CONTINUOUS
 10
-8.294516679
 20
-12.5097572951
 40
9.8719516593
100
AcDbArc
 50
162.9430933334
 51
196.963957901
  0
ARC
  5
4E9
100
AcDbEntity
  8
RACCORDO
100
AcDbCircle
 62
253
  6
CONTINUOUS
 10
-5.5321063865
 20
-9.8019949635
 40
0.9579102833
100
AcDbArc
 50
17.039261585
 51
18.3767731375
  0
ARC
  5
4EA
100
AcDbEntity
  8
RACCORDO
100
AcDbCircle
 62
253
  6
CONTINUOUS
 10
-5.5304273839
 20
-9.8016782513
 40
0.9562170923
100
AcDbArc
 50
18.3904807722
 51
89.9943622195
  0
ARC
  5
4EB
100
AcDbEntity
  8
RACCORDO
100
AcDbCircle
 62
253
  6
CONTINUOUS
 10
-5.5342847637
 20
-9.8017321756
 40
0.8604979348
100
AcDbArc
 50
18.4312340825
 51
32.6680977042
  0
ARC
  5
4EC
100
AcDbEntity
  8
RACCORDO
100
AcDbCircle
 62
253
  6
CONTINUOUS
 10
-5.5303321034
 20
-9.7998464939
 40
0.8561528767
100
AcDbArc
 50
32.7046470639
 51
90.0000797226
  0
ARC
  5
4ED
100
AcDbEntity
  8
RACCORDO
100
AcDbCircle
 62
253
  6
CONTINUOUS
 10
-5.5302752714
 20
-9.799821891
 40
0.85609032
100
AcDbArc
 50
17.0560538768
 51
18.3947836144
  0
ARC
  5
4EE
100
AcDbEntity
  8
DRAFT
100
AcDbCircle
 62
7
  6
CONTINUOUS
 10
-5.5303332947
 20
-9.8
 40
0.85
100
AcDbArc
 50
17.0663096459
 51
90.0
  0
ARC
  5
4EF
100
AcDbEntity
  8
ASSI
100
AcDbCircle
 62
7
  6
CONTINUOUS
 10
-5.5303332947
 20
-9.8
 40
0.75
100
AcDbArc
 50
17.0663096459
 51
90.0
  0
ARC
  5
4F0
100
AcDbEntity
  8
DRAFT
100
AcDbCircle
 62
7
  6
CONTINUOUS
 10
-5.5303332947
 20
-9.8
 40
0.75
100
AcDbArc
 50
17.0663096459
 51
90.0
  0
ARC
  5
4F1
100
AcDbEntity
  8
ASSI
100
AcDbCircle
 62
253
  6
CONTINUOUS
 10
-5.5318397833
 20
-9.8007370246
 40
0.741983688
100
AcDbArc
 50
17.0865758575
 51
28.1263544862
  0
ARC
  5
4F2
100
AcDbEntity
  8
RACCORDO
100
AcDbCircle
 62
253
  6
CONTINUOUS
 10
-5.5318397833
 20
-9.8007370246
 40
0.741983688
100
AcDbArc
 50
17.0865758575
 51
28.1263544862
  0
ARC
  5
4F3
100
AcDbEntity
  8
RACCORDO
100
AcDbCircle
 62
7
  6
CONTINUOUS
 10
-5.5307980855
 20
-9.8003881641
 40
0.7409005678
100
AcDbArc
 50
28.1405381469
 51
34.396559521
  0
ARC
  5
4F4
100
AcDbEntity
  8
RACCORDO
100
AcDbCircle
 62
7
  6
CONTINUOUS
 10
-5.5303337573
 20
-9.8001048199
 40
0.7403573631
100
AcDbArc
 50
34.3987656103
 51
89.999964201
  0
ARC
  5
4F5
100
AcDbEntity
  8
ASSI
100
AcDbCircle
 62
7
  6
CONTINUOUS
 10
-5.5302592947
 20
-9.7999744469
 40
0.7402094392
100
AcDbArc
 50
33.1875404504
 51
85.3952385022
  0
ARC
  5
4F6
100
AcDbEntity
  8
ASSI
100
AcDbCircle
 62
7
  6
CONTINUOUS
 10
-5.5285770487
 20
-9.7992787025
 40
0.7384188136
100
AcDbArc
 50
28.14590792
 51
33.2138111847
  0
ARC
  5
4F7
100
AcDbEntity
  8
ASSI
100
AcDbCircle
 62
7
  6
CONTINUOUS
 10
-5.5304034562
 20
-9.7975194896
 40
0.7377720361
100
AcDbArc
 50
85.3687729887
 51
89.9945512183
  0
ARC
  5
4F8
100
AcDbEntity
  8
ASSI
100
AcDbCircle
 62
253
  6
CONTINUOUS
 10
-5.5326458793
 20
-9.8027628103
 40
0.6427577576
100
AcDbArc
 50
17.0685314604
 51
28.1016441047
  0
ARC
  5
4F9
100
AcDbEntity
  8
RACCORDO
100
AcDbCircle
 62
253
  6
CONTINUOUS
 10
-5.5326458793
 20
-9.8027628103
 40
0.6427577576
100
AcDbArc
 50
17.0685314604
 51
28.1016441047
  0
ARC
  5
4FA
100
AcDbEntity
  8
RACCORDO
100
AcDbCircle
 62
253
  6
CONTINUOUS
 10
-5.5303634591
 20
-9.8019222743
 40
0.6403473773
100
AcDbArc
 50
28.1314983542
 51
89.9973010039
  0
ARC
  5
4FB
100
AcDbEntity
  8
ASSI
100
AcDbCircle
 62
253
  6
CONTINUOUS
 10
-5.5303618559
 20
-9.8019188892
 40
0.6403440679
100
AcDbArc
 50
28.1312988794
 51
89.9974444366
  0
ARC
  5
4FC
100
AcDbEntity
  8
RACCORDO
100
AcDbCircle
 62
253
  6
CONTINUOUS
 10
-3446.3253763835
 20
7.8164983494
 40
3424.6424048393
100
AcDbArc
 50
0.0281657271
 51
0.2229898319
  0
ARC
  5
4FD
100
AcDbEntity
  8
RACCORDO
100
AcDbCircle
 62
253
  6
CONTINUOUS
 10
-3408.8795635171
 20
7.8163509249
 40
3386.6967633104
100
AcDbArc
 50
0.0283230791
 51
0.224235579
  0
ARC
  5
4FE
100
AcDbEntity
  8
RACCORDO
100
AcDbCircle
 62
253
  6
CONTINUOUS
 10
-21.7211073014
 20
21.4958891297
 40
0.5002354914
100
AcDbArc
 50
90.0464923584
 51
179.9535076416
  0
ARC
  5
4FF
100
AcDbEntity
  8
RACCORDO
100
AcDbCircle
 62
253
  6
CONTINUOUS
 10
3446.1747118965
 20
-7.8164988494
 40
3424.6421766954
100
AcDbArc
 50
180.0281657206
 51
180.2229898383
  0
ARC
  5
500
100
AcDbEntity
  8
RACCORDO
100
AcDbCircle
 62
253
  6
CONTINUOUS
 10
3408.7288975078
 20
-7.8163514311
 40
3386.6965336443
100
AcDbArc
 50
180.0283230724
 51
180.2242355856
  0
ARC
  5
501
100
AcDbEntity
  8
RACCORDO
100
AcDbCircle
 62
253
  6
CONTINUOUS
 10
21.5706652236
 20
-21.4958833953
 40
0.5002424668
100
AcDbArc
 50
270.0471486253
 51
359.9528513747
  0
ARC
  5
502
100
AcDbEntity
  8
0
100
AcDbCircle
 62
7
  6
CONTINUOUS
 10
0.5243387594
 20
-21.9000011659
 40
0.5000001395
100
AcDbArc
 50
203.5781171788
 51
270.0536060974
  0
ARC
  5
503
100
AcDbEntity
  8
0
100
AcDbCircle
 62
7
  6
CONTINUOUS
 10
7.1747818283
 20
-23.15
 40
0.5
100
AcDbArc
 50
154.1580672368
 51
205.8419327632
  0
ARC
  5
504
100
AcDbEntity
  8
0
100
AcDbCircle
 62
7
  6
CONTINUOUS
 10
15.1747818283
 20
-23.15
 40
0.5
100
AcDbArc
 50
334.1580672368
 51
25.8419327632
  0
ARC
  5
505
100
AcDbEntity
  8
0
100
AcDbCircle
 62
7
  6
CONTINUOUS
 10
21.82523467
 20
-21.9000167264
 40
0.4999835017
100
AcDbArc
 50
269.9452723311
 51
359.9999774666
  0
ARC
  5
506
100
AcDbEntity
  8
0
100
AcDbCircle
 62
7
  6
CONTINUOUS
 10
0.5253374808
 20
-21.900507654
 40
0.4994968435
100
AcDbArc
 50
203.5395254781
 51
269.939099136
  0
ARC
  5
507
100
AcDbEntity
  8
0
100
AcDbCircle
 62
253
  6
CONTINUOUS
 10
21.0616766316
 20
-24.2368948033
 40
0.2500066182
100
AcDbArc
 50
270.0024862874
 51
359.9975137126
  0
ARC
  5
508
100
AcDbEntity
  8
0
100
AcDbCircle
 62
253
  6
CONTINUOUS
 10
18.687887025
 20
-24.2368948033
 40
0.2500066182
100
AcDbArc
 50
180.0024862874
 51
269.9975137126
  0
ARC
  5
509
100
AcDbEntity
  8
0
100
AcDbCircle
 62
253
  6
CONTINUOUS
 10
1.2878870245
 20
-24.2368948038
 40
0.2500066177
100
AcDbArc
 50
180.0024861811
 51
269.9975138189
  0
ARC
  5
50A
100
AcDbEntity
  8
0
100
AcDbCircle
 62
253
  6
CONTINUOUS
 10
3.6616766321
 20
-24.2368948038
 40
0.2500066177
100
AcDbArc
 50
270.0024861811
 51
359.9975138189
  0
ARC
  5
50B
100
AcDbEntity
  8
0
100
AcDbCircle
 62
7
  6
CONTINUOUS
 10
21.074787177
 20
-24.2500053487
 40
0.2499946513
100
AcDbArc
 50
269.9997437926
 51
0.0002562074
  0
ARC
  5
50C
100
AcDbEntity
  8
0
100
AcDbCircle
 62
7
  6
CONTINUOUS
 10
18.6747764796
 20
-24.2500053487
 40
0.2499946513
100
AcDbArc
 50
179.9997437926
 51
270.0002562074
  0
ARC
  5
50D
100
AcDbEntity
  8
0
100
AcDbCircle
 62
7
  6
CONTINUOUS
 10
1.2747764796
 20
-24.2500053487
 40
0.2499946513
100
AcDbArc
 50
179.9997437926
 51
270.0002562074
  0
ARC
  5
50E
100
AcDbEntity
  8
0
100
AcDbCircle
 62
7
  6
CONTINUOUS
 10
3.674787177
 20
-24.2500053487
 40
0.2499946513
100
AcDbArc
 50
269.9997437926
 51
0.0002562074
  0
ARC
  5
50F
100
AcDbEntity
  8
0
100
AcDbCircle
 62
7
  6
CONTINUOUS
 10
9.9747830091
 20
-23.7982490665
 40
0.1999988152
100
AcDbArc
 50
269.9996617127
 51
359.4995522505
  0
ARC
  5
510
100
AcDbEntity
  8
0
100
AcDbCircle
 62
253
  6
CONTINUOUS
 10
12.3747806472
 20
-23.7982490669
 40
0.1999988149
100
AcDbArc
 50
180.5004468359
 51
270.0003383609
  0
ARC
  5
511
100
AcDbEntity
  8
0
100
AcDbCircle
 62
7
  6
CONTINUOUS
 10
12.3746642744
 20
-23.7999934169
 40
0.1998824461
100
AcDbArc
 50
180.0009168221
 51
269.999564761
  0
ARC
  5
512
100
AcDbEntity
  8
0
100
AcDbCircle
 62
7
  6
CONTINUOUS
 10
9.9748993823
 20
-23.7999934169
 40
0.1998824461
100
AcDbArc
 50
270.002881872
 51
359.9990831778
  0
ARC
  5
513
100
AcDbEntity
  8
0
100
AcDbCircle
 62
7
  6
CONTINUOUS
 10
9.9753523818
 20
-23.7982511033
 40
0.1994294465
100
AcDbArc
 50
359.4987086161
 51
359.9999531425
  0
ARC
  5
514
100
AcDbEntity
  8
0
100
AcDbCircle
 62
253
  6
CONTINUOUS
 10
12.3742088571
 20
-23.7982511029
 40
0.1994270288
100
AcDbArc
 50
180.0000469728
 51
180.5012967613
  0
ARC
  5
515
100
AcDbEntity
  8
RACCORDO
100
AcDbCircle
 62
253
  6
CONTINUOUS
 10
3427.4906442752
 20
7.8574496402
 40
3405.958091349
100
AcDbArc
 50
179.7764757872
 51
179.9723686539
  0
ARC
  5
516
100
AcDbEntity
  8
RACCORDO
100
AcDbCircle
 62
253
  6
CONTINUOUS
 10
3390.2520231268
 20
7.8570743447
 40
3368.2196415384
100
AcDbArc
 50
179.7752270596
 51
179.9722142824
  0
ARC
  5
517
100
AcDbEntity
  8
RACCORDO
100
AcDbCircle
 62
253
  6
CONTINUOUS
 10
21.5706652236
 20
21.4958833953
 40
0.5002424668
100
AcDbArc
 50
0.0471486276
 51
89.9528513724
  0
ARC
  5
518
100
AcDbEntity
  8
0
100
AcDbCircle
 62
7
  6
CONTINUOUS
 10
15.1747818283
 20
23.15
 40
0.5
100
AcDbArc
 50
334.1580672368
 51
25.8419327632
  0
ARC
  5
519
100
AcDbEntity
  8
0
100
AcDbCircle
 62
7
  6
CONTINUOUS
 10
7.1747818283
 20
23.15
 40
0.5
100
AcDbArc
 50
154.1580672368
 51
205.8419327632
  0
ARC
  5
51A
100
AcDbEntity
  8
0
100
AcDbCircle
 62
7
  6
CONTINUOUS
 10
0.524332098
 20
21.9000113415
 40
0.4999888836
100
AcDbArc
 50
89.9456294642
 51
156.4226461915
  0
ARC
  5
51B
100
AcDbEntity
  8
0
100
AcDbCircle
 62
7
  6
CONTINUOUS
 10
21.82523467
 20
21.9000167264
 40
0.4999835017
100
AcDbArc
 50
0.0000225334
 51
90.0547276814
  0
ARC
  5
51C
100
AcDbEntity
  8
0
100
AcDbCircle
 62
7
  6
CONTINUOUS
 10
0.5253375493
 20
21.9005075496
 40
0.4994968435
100
AcDbArc
 50
90.0609087188
 51
156.4604666798
  0
ARC
  5
51D
100
AcDbEntity
  8
0
100
AcDbCircle
 62
253
  6
CONTINUOUS
 10
21.0616766316
 20
24.2368948033
 40
0.2500066182
100
AcDbArc
 50
0.0024862874
 51
89.9975137126
  0
ARC
  5
51E
100
AcDbEntity
  8
0
100
AcDbCircle
 62
253
  6
CONTINUOUS
 10
18.6878870245
 20
24.2368948038
 40
0.2500066177
100
AcDbArc
 50
90.0024861811
 51
179.9975138189
  0
ARC
  5
51F
100
AcDbEntity
  8
0
100
AcDbCircle
 62
253
  6
CONTINUOUS
 10
3.6616766321
 20
24.2368948038
 40
0.2500066177
100
AcDbArc
 50
0.0024861811
 51
89.9975138189
  0
ARC
  5
520
100
AcDbEntity
  8
0
100
AcDbCircle
 62
253
  6
CONTINUOUS
 10
1.2878870245
 20
24.2368948038
 40
0.2500066177
100
AcDbArc
 50
90.0024861811
 51
179.9975138189
  0
ARC
  5
521
100
AcDbEntity
  8
0
100
AcDbCircle
 62
7
  6
CONTINUOUS
 10
21.074787177
 20
24.2500053487
 40
0.2499946513
100
AcDbArc
 50
359.9997437926
 51
90.0002562074
  0
ARC
  5
522
100
AcDbEntity
  8
0
100
AcDbCircle
 62
7
  6
CONTINUOUS
 10
18.6747764796
 20
24.2500053487
 40
0.2499946513
100
AcDbArc
 50
89.9997437926
 51
180.0002562074
  0
ARC
  5
523
100
AcDbEntity
  8
0
100
AcDbCircle
 62
7
  6
CONTINUOUS
 10
3.674787177
 20
24.2500053487
 40
0.2499946513
100
AcDbArc
 50
359.9997437926
 51
90.0002562074
  0
ARC
  5
524
100
AcDbEntity
  8
0
100
AcDbCircle
 62
7
  6
CONTINUOUS
 10
1.2747764796
 20
24.2500053487
 40
0.2499946513
100
AcDbArc
 50
89.9997437926
 51
180.0002562074
  0
ARC
  5
525
100
AcDbEntity
  8
0
100
AcDbCircle
 62
7
  6
CONTINUOUS
 10
12.3747806475
 20
23.7982490665
 40
0.1999988152
100
AcDbArc
 50
89.9996617127
 51
179.4995522505
  0
ARC
  5
526
100
AcDbEntity
  8
0
100
AcDbCircle
 62
253
  6
CONTINUOUS
 10
9.9747830094
 20
23.7982490669
 40
0.1999988149
100
AcDbArc
 50
0.5004468359
 51
90.0003383609
  0
ARC
  5
527
100
AcDbEntity
  8
0
100
AcDbCircle
 62
7
  6
CONTINUOUS
 10
12.3746642744
 20
23.7999934169
 40
0.1998824461
100
AcDbArc
 50
90.0028818721
 51
179.9990831778
  0
ARC
  5
528
100
AcDbEntity
  8
0
100
AcDbCircle
 62
7
  6
CONTINUOUS
 10
9.9748993823
 20
23.7999934169
 40
0.1998824461
100
AcDbArc
 50
0.0009168221
 51
89.999564761
  0
ARC
  5
529
100
AcDbEntity
  8
0
100
AcDbCircle
 62
7
  6
CONTINUOUS
 10
12.3742112748
 20
23.7982511033
 40
0.1994294465
100
AcDbArc
 50
179.4987086161
 51
179.9999531425
  0
ARC
  5
52A
100
AcDbEntity
  8
0
100
AcDbCircle
 62
253
  6
CONTINUOUS
 10
9.9753547996
 20
23.7982511029
 40
0.1994270287
100
AcDbArc
 50
0.0000469726
 51
0.5012967614
  0
ARC
  5
52B
100
AcDbEntity
  8
RACCORDO
100
AcDbCircle
 62
7
  6
CONTINUOUS
 10
-47.5159149407
 20
-20.9964663801
 40
1.0
100
AcDbArc
 50
188.5334776264
 51
268.5
  0
ARC
  5
52C
100
AcDbEntity
  8
0
100
AcDbCircle
 62
7
  6
CONTINUOUS
 10
-28.8752162268
 20
-21.3359869487
 40
1.0
100
AcDbArc
 50
270.3333333333
 51
360.0
  0
ARC
  5
52D
100
AcDbEntity
  8
RACCORDO
100
AcDbCircle
 62
253
  6
CONTINUOUS
 10
-47.5290022334
 20
-20.9964650439
 40
0.5000013667
100
AcDbArc
 50
188.5336089567
 51
268.4998686697
  0
ARC
  5
52E
100
AcDbEntity
  8
0
100
AcDbCircle
 62
7
  6
CONTINUOUS
 10
-32.3752162268
 20
-23.4563578147
 40
0.5
100
AcDbArc
 50
270.3333333333
 51
360.0
  0
ARC
  5
52F
100
AcDbEntity
  8
0
100
AcDbCircle
 62
7
  6
CONTINUOUS
 10
-42.1252162268
 20
-24.2369056521
 40
0.25
100
AcDbArc
 50
180.0
 51
269.6666666667
  0
ARC
  5
530
100
AcDbEntity
  8
0
100
AcDbCircle
 62
7
  6
CONTINUOUS
 10
-39.1252162268
 20
-24.2456323968
 40
0.25
100
AcDbArc
 50
270.3333333333
 51
360.0
  0
ARC
  5
531
100
AcDbEntity
  8
0
100
AcDbCircle
 62
7
  6
CONTINUOUS
 10
-39.1252162268
 20
-23.8443375673
 40
0.25
100
AcDbArc
 50
0.0
 51
60.0
  0
ARC
  5
532
100
AcDbEntity
  8
0
100
AcDbCircle
 62
7
  6
CONTINUOUS
 10
-42.1252162268
 20
-23.8443375673
 40
0.25
100
AcDbArc
 50
120.0
 51
180.0
  0
ARC
  5
533
100
AcDbEntity
  8
RACCORDO
100
AcDbCircle
 62
7
  6
CONTINUOUS
 10
-28.0752162268
 20
-19.9942577878
 40
0.2
100
AcDbArc
 50
0.0
 51
89.5
  0
ARC
  5
534
100
AcDbEntity
  8
RACCORDO
100
AcDbCircle
 62
7
  6
CONTINUOUS
 10
-28.0752162268
 20
-18.7400415081
 40
0.2
100
AcDbArc
 50
0.0
 51
69.9999998795
  0
ARC
  5
535
100
AcDbEntity
  8
ASSI
100
AcDbCircle
 62
7
  6
CONTINUOUS
 10
40.4987954533
 20
-7.79
 40
90.0
100
AcDbArc
 50
181.1023186699
 51
184.3905654634
  0
ARC
  5
536
100
AcDbEntity
  8
RACCORDO
100
AcDbCircle
 62
7
  6
CONTINUOUS
 10
40.4987954533
 20
-7.79
 40
90.0
100
AcDbArc
 50
181.08868532
 51
188.5334776264
  0
ARC
  5
537
100
AcDbEntity
  8
RACCORDO
100
AcDbCircle
 62
253
  6
CONTINUOUS
 10
40.4868011264
 20
-7.7899079088
 40
89.5010956994
100
AcDbArc
 50
181.0887309549
 51
188.5334319914
  0
ARC
  5
538
100
AcDbEntity
  8
RACCORDO
100
AcDbCircle
 62
7
  6
CONTINUOUS
 10
40.4987954533
 20
7.79
 40
90.0
100
AcDbArc
 50
171.4665223736
 51
178.91131468
  0
ARC
  5
539
100
AcDbEntity
  8
RACCORDO
100
AcDbCircle
 62
253
  6
CONTINUOUS
 10
40.4868011013
 20
7.7899079109
 40
89.5010956743
100
AcDbArc
 50
171.4665680075
 51
178.9112690461
  0
ARC
  5
53A
100
AcDbEntity
  8
RACCORDO
100
AcDbCircle
 62
7
  6
CONTINUOUS
 10
-47.5159149407
 20
20.9964663801
 40
1.0
100
AcDbArc
 50
91.5
 51
171.4665223736
  0
ARC
  5
53B
100
AcDbEntity
  8
0
100
AcDbCircle
 62
7
  6
CONTINUOUS
 10
-28.8752162268
 20
21.3359869487
 40
1.0
100
AcDbArc
 50
0.0
 51
89.6666666667
  0
ARC
  5
53C
100
AcDbEntity
  8
RACCORDO
100
AcDbCircle
 62
253
  6
CONTINUOUS
 10
-47.5290022137
 20
20.9964650216
 40
0.5000013895
100
AcDbArc
 50
91.5001335242
 51
171.4663888495
  0
ARC
  5
53D
100
AcDbEntity
  8
0
100
AcDbCircle
 62
7
  6
CONTINUOUS
 10
-32.3752162268
 20
23.4563578147
 40
0.5
100
AcDbArc
 50
0.0
 51
89.6666666667
  0
ARC
  5
53E
100
AcDbEntity
  8
0
100
AcDbCircle
 62
7
  6
CONTINUOUS
 10
-42.1252162268
 20
24.2369056521
 40
0.25
100
AcDbArc
 50
90.3333333333
 51
180.0
  0
ARC
  5
53F
100
AcDbEntity
  8
0
100
AcDbCircle
 62
7
  6
CONTINUOUS
 10
-39.1252162268
 20
24.2456323968
 40
0.25
100
AcDbArc
 50
0.0
 51
89.6666666667
  0
ARC
  5
540
100
AcDbEntity
  8
0
100
AcDbCircle
 62
7
  6
CONTINUOUS
 10
-42.1252162268
 20
23.8443375673
 40
0.25
100
AcDbArc
 50
180.0
 51
240.0
  0
ARC
  5
541
100
AcDbEntity
  8
0
100
AcDbCircle
 62
7
  6
CONTINUOUS
 10
-39.1252162268
 20
23.8443375673
 40
0.25
100
AcDbArc
 50
300.0
 51
360.0
  0
ARC
  5
542
100
AcDbEntity
  8
RACCORDO
100
AcDbCircle
 62
7
  6
CONTINUOUS
 10
-28.0752162268
 20
18.7400415081
 40
0.2
100
AcDbArc
 50
290.0000001205
 51
360.0
  0
ARC
  5
543
100
AcDbEntity
  8
RACCORDO
100
AcDbCircle
 62
7
  6
CONTINUOUS
 10
-28.0752162268
 20
19.9942577878
 40
0.2
100
AcDbArc
 50
270.5
 51
360.0
  0
ARC
  5
544
100
AcDbEntity
  8
RACCORDO
100
AcDbCircle
 62
7
  6
CONTINUOUS
 10
450.4247837732
 20
0.0
 40
500.0
100
AcDbArc
 50
178.91131468
 51
181.08868532
  0
ARC
  5
545
100
AcDbEntity
  8
RACCORDO
100
AcDbCircle
 62
253
  6
CONTINUOUS
 10
450.4570562963
 20
0.0
 40
499.5453528096
100
AcDbArc
 50
178.9114135316
 51
181.0885864684
  0
SPLINE
  5
546
100
AcDbEntity
  8
ASSI
100
AcDbSpline
 62
253
  6
CONTINUOUS
 70
0
 71
3
 72
16
 73
12
 74
10
 42
0.0000001
 43
0.0000001
 44
0.0000000001
 12
0.0010970859
 22
-0.100936989
 32
0.0
 13
-0.0890189345
 23
-0.0475931577
 33
0.0
 40
0.0
 40
0.0
 40
0.0
 40
0.0
 40
0.0058763596
 40
0.021094151
 40
0.0455718831
 40
0.0791381688
 40
0.1723284822
 40
0.2968146132
 40
0.4479903144
 40
0.6201719752
 40
1.0
 40
1.0
 40
1.0
 40
1.0
 10
-4.8774758016
 20
-9.4509523001
 30
0.0
 10
-4.8774736526
 20
-9.4511500141
 30
0.0
 10
-4.8782864057
 20
-9.451532453
 30
0.0
 10
-4.8793462064
 20
-9.4524231619
 30
0.0
 10
-4.8815645936
 20
-9.4536901707
 30
0.0
 10
-4.8858729443
 20
-9.4562992009
 30
0.0
 10
-4.8932628892
 20
-9.4604831817
 30
0.0
 10
-4.9040690132
 20
-9.4665518363
 30
0.0
 10
-4.9172711535
 20
-9.4738297016
 30
0.0
 10
-4.9380353879
 20
-9.4851674204
 30
0.0
 10
-4.9543900519
 20
-9.4939742613
 30
0.0
 10
-4.9656606805
 20
-9.4999999997
 30
0.0
 11
-4.8774758016
 21
-9.4509523001
 31
0.0
 11
-4.8779014781
 21
-9.4513654085
 31
0.0
 11
-4.8791718426
 21
-9.4522290436
 31
0.0
 11
-4.8812708882
 21
-9.4535325503
 31
0.0
 11
-4.8841826079
 21
-9.4552652733
 31
0.0
 11
-4.8923377022
 21
-9.4599540156
 31
0.0
 11
-4.9032973715
 21
-9.4661013678
 31
0.0
 11
-4.9166554068
 21
-9.4734793213
 31
0.0
 11
-4.9319091354
 21
-9.4818103724
 31
0.0
 11
-4.9656606805
 21
-9.4999999997
 31
0.0
  0
LINE
  5
547
100
AcDbEntity
  8
ASSI
100
AcDbLine
 62
253
  6
CONTINUOUS
 10
-4.9139115016
 20
-15.3914004186
 11
-4.9156689476
 21
-15.3971522733
  0
SPLINE
  5
548
100
AcDbEntity
  8
ASSI
100
AcDbSpline
 62
253
  6
CONTINUOUS
 70
0
 71
3
 72
16
 73
12
 74
10
 42
0.0000001
 43
0.0000001
 44
0.0000000001
 12
-0.0125745272
 22
-0.0998687443
 32
0.0
 13
-0.0962233069
 23
-0.0295458968
 33
0.0
 40
0.0
 40
0.0
 40
0.0
 40
0.0
 40
0.0059477478
 40
0.0211809265
 40
0.0456539645
 40
0.0792025283
 40
0.1723315107
 40
0.2967431778
 40
0.4478547038
 40
0.6200084287
 40
1.0
 40
1.0
 40
1.0
 40
1.0
 10
-4.8226059086
 20
-9.582730079
 30
0.0
 10
-4.8226308386
 20
-9.582928077
 30
0.0
 10
-4.8234985617
 20
-9.5831863736
 30
0.0
 10
-4.8246974346
 20
-9.5838574995
 30
0.0
 10
-4.8271036002
 20
-9.584705369
 30
0.0
 10
-4.831803927
 20
-9.5864603598
 30
0.0
 10
-4.8398202421
 20
-9.5891792076
 30
0.0
 10
-4.851538216
 20
-9.5930825819
 30
0.0
 10
-4.8658361043
 20
-9.5977076624
 30
0.0
 10
-4.8883186085
 20
-9.6048615805
 30
0.0
 10
-4.9060107793
 20
-9.6103611568
 30
0.0
 10
-4.9181987945
 20
-9.6141035541
 30
0.0
 11
-4.8226059086
 21
-9.582730079
 31
0.0
 11
-4.8230936002
 21
-9.5830773245
 31
0.0
 11
-4.8244932888
 21
-9.583703402
 31
0.0
 11
-4.8267874408
 21
-9.5846007046
 31
0.0
 11
-4.829958523
 21
-9.5857616251
 31
0.0
 11
-4.8388159175
 21
-9.5888309042
 31
0.0
 11
-4.8506980721
 21
-9.5927854433
 31
0.0
 11
-4.8651662605
 21
-9.5974790565
 31
0.0
 11
-4.8816781586
 21
-9.6027359501
 31
0.0
 11
-4.9181987945
 21
-9.6141035541
 31
0.0
  0
SPLINE
  5
549
100
AcDbEntity
  8
ASSI
100
AcDbSpline
 62
253
  6
CONTINUOUS
 70
0
 71
3
 72
14
 73
10
 74
8
 42
0.0000001
 43
0.0000001
 44
0.0000000001
 12
-0.0387768077
 22
-0.0904648459
 32
0.0
 13
-0.0941697113
 23
0.0286285634
 33
0.0
 40
0.0
 40
0.0
 40
0.0
 40
0.0
 40
0.0257361124
 40
0.0846763835
 40
0.1773641693
 40
0.3006240941
 40
0.450280629
 40
0.6210530842
 40
1.0
 40
1.0
 40
1.0
 40
1.0
 10
-4.8201053155
 20
-15.4180375857
 30
0.0
 10
-4.8204379703
 20
-15.4188136569
 30
0.0
 10
-4.8239513644
 20
-15.4190493137
 30
0.0
 10
-4.8291779708
 20
-15.4187138476
 30
0.0
 10
-4.8383955958
 20
-15.4172536463
 30
0.0
 10
-4.8500238989
 20
-15.4148696606
 30
0.0
 10
-4.8642386423
 20
-15.4115215064
 30
0.0
 10
-4.8864328662
 20
-15.4057695609
 30
0.0
 10
-4.9037738405
 20
-15.4007684726
 30
0.0
 10
-4.9156689477
 20
-15.3971522374
 30
0.0
 11
-4.8201053155
 21
-15.4180375857
 31
0.0
 11
-4.8224796054
 21
-15.4189203417
 31
0.0
 11
-4.8282766038
 21
-15.4186993083
 31
0.0
 11
-4.8373017533
 21
-15.4173679601
 31
0.0
 11
-4.8491972469
 21
-15.4149846955
 31
0.0
 11
-4.8635409378
 21
-15.411633445
 31
0.0
 11
-4.8798165531
 21
-15.4074353498
 31
0.0
 11
-4.9156689477
 21
-15.3971522374
 31
0.0
  0
LINE
  5
54A
100
AcDbEntity
  8
ASSI
100
AcDbLine
 62
253
  6
CONTINUOUS
 10
-17.7347673958
 20
-15.3971522733
 11
-17.7365247367
 21
-15.3914007716
  0
SPLINE
  5
54B
100
AcDbEntity
  8
ASSI
100
AcDbSpline
 62
253
  6
CONTINUOUS
 70
0
 71
3
 72
14
 73
10
 74
8
 42
0.0000001
 43
0.0000001
 44
0.0000000001
 12
0.038797024
 22
-0.0904891876
 32
0.0
 13
0.0941981078
 23
0.0286394592
 33
0.0
 40
0.0
 40
0.0
 40
0.0
 40
0.0
 40
0.0257374815
 40
0.0846833236
 40
0.1773787695
 40
0.3006460345
 40
0.4503070278
 40
0.6210785966
 40
1.0
 40
1.0
 40
1.0
 40
1.0
 10
-17.8303601342
 20
-15.4180465302
 30
0.0
 10
-17.8300272884
 20
-15.4188228515
 30
0.0
 10
-17.8265124221
 20
-15.4190580325
 30
0.0
 10
-17.8212838819
 20
-15.4187223561
 30
0.0
 10
-17.81206274
 20
-15.4172611412
 30
0.0
 10
-17.8004303188
 20
-15.414876007
 30
0.0
 10
-17.78621092
 20
-15.4115263792
 30
0.0
 10
-17.7640106777
 20
-15.4057723706
 30
0.0
 10
-17.7466652889
 20
-15.4007696377
 30
0.0
 10
-17.7347673958
 20
-15.3971522697
 30
0.0
 11
-17.8303601342
 21
-15.4180465302
 31
0.0
 11
-17.8279848652
 21
-15.4189292798
 31
0.0
 11
-17.8221855457
 21
-15.4187077958
 31
0.0
 11
-17.8131569211
 21
-15.4173755689
 31
0.0
 11
-17.8012571233
 21
-15.4149910735
 31
0.0
 11
-17.7869086663
 21
-15.4116383363
 31
0.0
 11
-17.7706282111
 21
-15.4074386112
 31
0.0
 11
-17.7347673958
 21
-15.3971522697
 31
0.0
  0
SPLINE
  5
54C
100
AcDbEntity
  8
ASSI
100
AcDbSpline
 62
253
  6
CONTINUOUS
 70
0
 71
3
 72
16
 73
12
 74
10
 42
0.0000001
 43
0.0000001
 44
0.0000000001
 12
0.0125754254
 22
-0.099864173
 32
0.0
 13
0.0962190556
 23
-0.0295446731
 33
0.0
 40
0.0
 40
0.0
 40
0.0
 40
0.0
 40
0.0059477156
 40
0.0211806963
 40
0.0456533998
 40
0.0792015189
 40
0.1723293818
 40
0.2967399514
 40
0.4478508028
 40
0.6200046516
 40
1.0
 40
1.0
 40
1.0
 40
1.0
 10
-17.8278262062
 20
-9.5827313769
 30
0.0
 10
-17.8278012746
 20
-9.5829293648
 30
0.0
 10
-17.8269336101
 20
-9.5831876547
 30
0.0
 10
-17.8257347978
 20
-9.5838587435
 30
0.0
 10
-17.8233287766
 20
-9.5847065714
 30
0.0
 10
-17.8186287155
 20
-9.5864614697
 30
0.0
 10
-17.8106128429
 20
-9.5891801796
 30
0.0
 10
-17.7988954787
 20
-9.5930833627
 30
0.0
 10
-17.7845982754
 20
-9.5977082347
 30
0.0
 10
-17.7621166613
 20
-9.604861888
 30
0.0
 10
-17.7444251468
 20
-9.6103612737
 30
0.0
 10
-17.7322375489
 20
-9.6141035532
 30
0.0
 11
-17.8278262062
 21
-9.5827313769
 31
0.0
 11
-17.827338541
 21
-9.5830786086
 31
0.0
 11
-17.8259389344
 21
-9.5837046554
 31
0.0
 11
-17.8236449165
 21
-9.5846019114
 31
0.0
 11
-17.8204740177
 21
-9.585762771
 31
0.0
 11
-17.8116171228
 21
-9.5888318897
 31
0.0
 11
-17.7997355991
 21
-9.5927862319
 31
0.0
 11
-17.785268115
 21
-9.59747963
 31
0.0
 11
-17.7687569346
 21
-9.6027363088
 31
0.0
 11
-17.7322375489
 21
-9.6141035532
 31
0.0
  0
SPLINE
  5
54D
100
AcDbEntity
  8
ASSI
100
AcDbSpline
 62
253
  6
CONTINUOUS
 70
0
 71
3
 72
16
 73
12
 74
10
 42
0.0000001
 43
0.0000001
 44
0.0000000001
 12
-0.0010978551
 22
-0.1009357599
 32
0.0
 13
0.0890178495
 23
-0.0475925978
 33
0.0
 40
0.0
 40
0.0
 40
0.0
 40
0.0
 40
0.0058763295
 40
0.0210940492
 40
0.045571676
 40
0.0791378302
 40
0.1723278281
 40
0.2968136605
 40
0.4479891855
 40
0.620170894
 40
1.0
 40
1.0
 40
1.0
 40
1.0
 10
-17.7729594649
 20
-9.4509528758
 30
0.0
 10
-17.7729616154
 20
-9.4511505864
 30
0.0
 10
-17.7721488753
 20
-9.4515330215
 30
0.0
 10
-17.7710890943
 20
-9.4524237153
 30
0.0
 10
-17.7688707433
 20
-9.4536907054
 30
0.0
 10
-17.764562462
 20
-9.456299696
 30
0.0
 10
-17.7571726293
 20
-9.4604836163
 30
0.0
 10
-17.7463666607
 20
-9.4665521868
 30
0.0
 10
-17.733164694
 20
-9.4738299598
 30
0.0
 10
-17.7124006845
 20
-9.4851675603
 30
0.0
 10
-17.6960461863
 20
-9.4939743154
 30
0.0
 10
-17.6847756628
 20
-9.5
 30
0.0
 11
-17.7729594649
 21
-9.4509528758
 31
0.0
 11
-17.7725337969
 21
-9.4513659783
 31
0.0
 11
-17.7712634547
 21
-9.4522296003
 31
0.0
 11
-17.7691644444
 21
-9.4535330869
 31
0.0
 11
-17.766252772
 21
-9.4552657836
 31
0.0
 11
-17.7580978055
 21
-9.4599544559
 31
0.0
 11
-17.7471382965
 21
-9.4661017216
 31
0.0
 11
-17.7337804398
 21
-9.4734795799
 31
0.0
 11
-17.7185268929
 21
-9.4818105352
 31
0.0
 11
-17.6847756628
 21
-9.5
 31
0.0
  0
SPLINE
  5
54E
100
AcDbEntity
  8
RACCORDO
100
AcDbSpline
 62
253
  6
CONTINUOUS
 70
0
 71
3
 72
16
 73
12
 74
10
 42
0.0000001
 43
0.0000001
 44
0.0000000001
 12
0.0010970815
 22
-0.100936562
 32
0.0
 13
-0.0890185578
 23
-0.0475929563
 33
0.0
 40
0.0
 40
0.0
 40
0.0
 40
0.0
 40
0.0059202817
 40
0.0212347536
 40
0.0457796258
 40
0.0793027647
 40
0.172207145
 40
0.2967224538
 40
0.4479491479
 40
0.6206624517
 40
1.0
 40
1.0
 40
1.0
 40
1.0
 10
-4.8774758016
 20
-9.4509523001
 30
0.0
 10
-4.8774736366
 20
-9.4511514911
 30
0.0
 10
-4.8782948113
 20
-9.451533456
 30
0.0
 10
-4.8793580342
 20
-9.4524290297
 30
0.0
 10
-4.8815811136
 20
-9.4536969953
 30
0.0
 10
-4.885881055
 20
-9.4563028842
 30
0.0
 10
-4.8932613369
 20
-9.4604833362
 30
0.0
 10
-4.9040617451
 20
-9.4665478578
 30
0.0
 10
-4.9172816049
 20
-9.4738361328
 30
0.0
 10
-4.9380495695
 20
-9.4851732594
 30
0.0
 10
-4.9544046534
 20
-9.4939820679
 30
0.0
 10
-4.9656606805
 20
-9.4999999997
 30
0.0
 11
-4.8774758016
 21
-9.4509523001
 31
0.0
 11
-4.8779060304
 21
-9.4513670755
 31
0.0
 11
-4.8791852576
 21
-9.4522350198
 31
0.0
 11
-4.8812903148
 21
-9.4535416726
 31
0.0
 11
-4.8841980338
 21
-9.4552725739
 31
0.0
 11
-4.8923271773
 21
-9.4599484652
 31
0.0
 11
-4.9032893562
 21
-9.4660972551
 31
0.0
 11
-4.9166518512
 21
-9.4734776471
 31
0.0
 11
-4.9319530792
 21
-9.4818335344
 31
0.0
 11
-4.9656606805
 21
-9.4999999997
 31
0.0
  0
LINE
  5
54F
100
AcDbEntity
  8
RACCORDO
100
AcDbLine
 62
253
  6
CONTINUOUS
 10
-4.9135318864
 20
-15.39015636
 11
-4.9156689476
 21
-15.3971522733
  0
SPLINE
  5
550
100
AcDbEntity
  8
RACCORDO
100
AcDbSpline
 62
253
  6
CONTINUOUS
 70
0
 71
3
 72
16
 73
12
 74
10
 42
0.0000001
 43
0.0000001
 44
0.0000000001
 12
-0.012574456
 22
-0.0998681881
 32
0.0
 13
-0.096222771
 23
-0.0295457323
 33
0.0
 40
0.0
 40
0.0
 40
0.0
 40
0.0
 40
0.0059903138
 40
0.021319449
 40
0.0458593003
 40
0.0793650031
 40
0.1722095016
 40
0.2966502008
 40
0.4478127698
 40
0.6204973182
 40
1.0
 40
1.0
 40
1.0
 40
1.0
 10
-4.8226059086
 20
-9.582730079
 30
0.0
 10
-4.8226310169
 20
-9.5829294929
 30
0.0
 10
-4.8235072357
 20
-9.5831856087
 30
0.0
 10
-4.8247100393
 20
-9.583860792
 30
0.0
 10
-4.8271211191
 20
-9.5847086219
 30
0.0
 10
-4.8318125179
 20
-9.5864623218
 30
0.0
 10
-4.8398187116
 20
-9.5891797827
 30
0.0
 10
-4.8515303573
 20
-9.5930800694
 30
0.0
 10
-4.8658474965
 20
-9.5977120563
 30
0.0
 10
-4.8883336398
 20
-9.6048643476
 30
0.0
 10
-4.9060265279
 20
-9.6103659926
 30
0.0
 10
-4.9181987945
 20
-9.6141035541
 30
0.0
 11
-4.8226059086
 21
-9.582730079
 31
0.0
 11
-4.823098384
 21
-9.5830779799
 31
0.0
 11
-4.8245075458
 21
-9.5837065107
 31
0.0
 11
-4.8268081569
 21
-9.5846057242
 31
0.0
 11
-4.8299749803
 21
-9.5857656736
 31
0.0
 11
-4.8388045932
 21
-9.5888275085
 31
0.0
 11
-4.8506894446
 21
-9.5927829776
 31
0.0
 11
-4.8651624474
 21
-9.5974781259
 31
0.0
 11
-4.8817255049
 21
-9.6027501362
 31
0.0
 11
-4.9181987945
 21
-9.6141035541
 31
0.0
  0
SPLINE
  5
551
100
AcDbEntity
  8
RACCORDO
100
AcDbSpline
 62
253
  6
CONTINUOUS
 70
0
 71
3
 72
14
 73
10
 74
8
 42
0.0000001
 43
0.0000001
 44
0.0000000001
 12
-0.0387749714
 22
-0.0904605984
 32
0.0
 13
-0.0941652842
 23
0.0286272165
 33
0.0
 40
0.0
 40
0.0
 40
0.0
 40
0.0
 40
0.0258170587
 40
0.0847843564
 40
0.1772144601
 40
0.3005057277
 40
0.450217697
 40
0.621511872
 40
1.0
 40
1.0
 40
1.0
 40
1.0
 10
-4.8201053155
 20
-15.4180375857
 30
0.0
 10
-4.8204390008
 20
-15.4188160612
 30
0.0
 10
-4.8239656929
 20
-15.4190288166
 30
0.0
 10
-4.8291805371
 20
-15.4187118649
 30
0.0
 10
-4.8383960058
 20
-15.41725657
 30
0.0
 10
-4.8500160134
 20
-15.4148720577
 30
0.0
 10
-4.8642507015
 20
-15.4115212381
 30
0.0
 10
-4.8864447823
 20
-15.4057588064
 30
0.0
 10
-4.9037888003
 20
-15.4007639246
 30
0.0
 10
-4.9156689477
 20
-15.3971522374
 30
0.0
 11
-4.8201053155
 21
-15.4180375857
 31
0.0
 11
-4.8224911076
 21
-15.4189118431
 31
0.0
 11
-4.8282905065
 21
-15.4186911122
 31
0.0
 11
-4.8372913101
 21
-15.417371471
 31
0.0
 11
-4.8491892965
 21
-15.4149878489
 31
0.0
 11
-4.863537599
 21
-15.4116353997
 31
0.0
 11
-4.87986108
 21
-15.4074204547
 31
0.0
 11
-4.9156689477
 21
-15.3971522374
 31
0.0
  0
LINE
  5
552
100
AcDbEntity
  8
RACCORDO
100
AcDbLine
 62
253
  6
CONTINUOUS
 10
-17.7347673958
 20
-15.3971522733
 11
-17.7369226371
 21
-15.3900967763
  0
SPLINE
  5
553
100
AcDbEntity
  8
RACCORDO
100
AcDbSpline
 62
253
  6
CONTINUOUS
 70
0
 71
3
 72
14
 73
10
 74
8
 42
0.0000001
 43
0.0000001
 44
0.0000000001
 12
0.038795198
 22
-0.0904849336
 32
0.0
 13
0.0941936791
 23
0.0286381112
 33
0.0
 40
0.0
 40
0.0
 40
0.0
 40
0.0
 40
0.0258184183
 40
0.0847912062
 40
0.1772286509
 40
0.3005270529
 40
0.4502434786
 40
0.6215369662
 40
1.0
 40
1.0
 40
1.0
 40
1.0
 10
-17.8303601342
 20
-15.4180465302
 30
0.0
 10
-17.8300262574
 20
-15.4188252562
 30
0.0
 10
-17.8264980946
 20
-15.4190375232
 30
0.0
 10
-17.8212813308
 20
-15.4187203704
 30
0.0
 10
-17.812062366
 20
-15.417264072
 30
0.0
 10
-17.8004382593
 20
-15.4148784155
 30
0.0
 10
-17.7861989095
 20
-15.411526124
 30
0.0
 10
-17.7639987912
 20
-15.4057616202
 30
0.0
 10
-17.7466503377
 20
-15.4007650918
 30
0.0
 10
-17.7347673958
 20
-15.3971522697
 30
0.0
 11
-17.8303601342
 21
-15.4180465302
 31
0.0
 11
-17.827973361
 21
-15.4189207752
 31
0.0
 11
-17.8221716483
 21
-15.4186995936
 31
0.0
 11
-17.8131674071
 21
-15.4173790871
 31
0.0
 11
-17.8012651353
 21
-15.4149942402
 31
0.0
 11
-17.7869120651
 21
-15.4116403059
 31
0.0
 11
-17.7705837108
 21
-15.4074237203
 31
0.0
 11
-17.7347673958
 21
-15.3971522697
 31
0.0
  0
SPLINE
  5
554
100
AcDbEntity
  8
RACCORDO
100
AcDbSpline
 62
253
  6
CONTINUOUS
 70
0
 71
3
 72
16
 73
12
 74
10
 42
0.0000001
 43
0.0000001
 44
0.0000000001
 12
0.0125753457
 22
-0.099863618
 32
0.0
 13
0.0962185197
 23
-0.0295445085
 33
0.0
 40
0.0
 40
0.0
 40
0.0
 40
0.0
 40
0.0059902808
 40
0.0213192173
 40
0.0458587366
 40
0.0793640035
 40
0.1722074348
 40
0.2966470691
 40
0.4478089601
 40
0.6204936039
 40
1.0
 40
1.0
 40
1.0
 40
1.0
 10
-17.8278262062
 20
-9.5827313769
 30
0.0
 10
-17.8278010963
 20
-9.5829307806
 30
0.0
 10
-17.8269249367
 20
-9.58318689
 30
0.0
 10
-17.8257221937
 20
-9.5838620359
 30
0.0
 10
-17.8233112583
 20
-9.5847098244
 30
0.0
 10
-17.8186201228
 20
-9.5864634326
 30
0.0
 10
-17.8106143681
 20
-9.5891807565
 30
0.0
 10
-17.7989033292
 20
-9.5930808529
 30
0.0
 10
-17.7845868757
 20
-9.597712631
 30
0.0
 10
-17.7621016257
 20
-9.6048646566
 30
0.0
 10
-17.7444093968
 20
-9.6103661098
 30
0.0
 10
-17.7322375489
 20
-9.6141035532
 30
0.0
 11
-17.8278262062
 21
-9.5827313769
 31
0.0
 11
-17.8273337576
 21
-9.5830792641
 31
0.0
 11
-17.8259246782
 21
-9.583707764
 31
0.0
 11
-17.8236242013
 21
-9.5846069311
 31
0.0
 11
-17.8204575603
 21
-9.5857668198
 31
0.0
 11
-17.8116284408
 21
-9.5888284961
 31
0.0
 11
-17.7997442172
 21
-9.5927837693
 31
0.0
 11
-17.7852719192
 21
-9.5974787023
 31
0.0
 11
-17.7687095844
 21
-9.6027504964
 31
0.0
 11
-17.7322375489
 21
-9.6141035532
 31
0.0
  0
SPLINE
  5
555
100
AcDbEntity
  8
RACCORDO
100
AcDbSpline
 62
253
  6
CONTINUOUS
 70
0
 71
3
 72
16
 73
12
 74
10
 42
0.0000001
 43
0.0000001
 44
0.0000000001
 12
-0.0010978504
 22
-0.1009353328
 32
0.0
 13
0.0890174729
 23
-0.0475923965
 33
0.0
 40
0.0
 40
0.0
 40
0.0
 40
0.0
 40
0.0059202516
 40
0.0212346514
 40
0.0457794191
 40
0.0793024288
 40
0.1722065072
 40
0.2967215257
 40
0.4479480432
 40
0.620661387
 40
1.0
 40
1.0
 40
1.0
 40
1.0
 10
-17.7729594649
 20
-9.4509528758
 30
0.0
 10
-17.7729616315
 20
-9.4511520634
 30
0.0
 10
-17.7721404698
 20
-9.4515340245
 30
0.0
 10
-17.7710772667
 20
-9.452429583
 30
0.0
 10
-17.7688542235
 20
-9.45369753
 30
0.0
 10
-17.7645543509
 20
-9.4563033796
 30
0.0
 10
-17.7571741803
 20
-9.4604837715
 30
0.0
 10
-17.7463739268
 20
-9.4665482095
 30
0.0
 10
-17.7331542408
 20
-9.473836392
 30
0.0
 10
-17.7123865019
 20
-9.4851733999
 30
0.0
 10
-17.6960315844
 20
-9.4939821221
 30
0.0
 10
-17.6847756628
 20
-9.5
 30
0.0
 11
-17.7729594649
 21
-9.4509528758
 31
0.0
 11
-17.7725292447
 21
-9.4513676454
 31
0.0
 11
-17.7712500399
 21
-9.4522355764
 31
0.0
 11
-17.7691450179
 21
-9.4535422092
 31
0.0
 11
-17.7662373461
 21
-9.4552730842
 31
0.0
 11
-17.7581083289
 21
-9.4599489063
 31
0.0
 11
-17.7471463095
 21
-9.4660976102
 31
0.0
 11
-17.7337839932
 21
-9.4734779069
 31
0.0
 11
-17.7184829482
 21
-9.4818336977
 31
0.0
 11
-17.6847756628
 21
-9.5
 31
0.0
  0
SPLINE
  5
556
100
AcDbEntity
  8
0
100
AcDbSpline
 62
7
  6
CONTINUOUS
 70
0
 71
3
 72
15
 73
11
 74
9
 42
0.0000001
 43
0.0000001
 44
0.0000000001
 12
0.3142908459
 22
0.0
 32
0.0
 13
0.0031667975
 23
0.3142748912
 33
0.0
 40
0.0
 40
0.0
 40
0.0
 40
0.0
 40
0.1666133779
 40
0.3262255844
 40
0.4735308137
 40
0.6056575217
 40
0.7220676483
 40
0.8241942131
 40
0.9152281509
 40
1.0
 40
1.0
 40
1.0
 40
1.0
 10
3.6675053102
 20
23.1226497308
 30
0.0
 10
3.68496033
 20
23.1226497308
 30
0.0
 10
3.7191675212
 20
23.124909705
 30
0.0
 10
3.7680439229
 20
23.1340775763
 30
0.0
 10
3.8118853344
 20
23.1484769636
 30
0.0
 10
3.849128005
 20
23.1671011817
 30
0.0
 10
3.8788803332
 20
23.1890111222
 30
0.0
 10
3.9006768581
 20
23.2134107396
 30
0.0
 10
3.9141805124
 20
23.239611024
 30
0.0
 10
3.9174115943
 20
23.2581067436
 30
0.0
 10
3.9175010794
 20
23.2669872981
 30
0.0
 11
3.6675053102
 21
23.1226497308
 31
0.0
 11
3.7197620458
 21
23.126016189
 31
0.0
 11
3.769035274
 21
23.1354311576
 31
0.0
 11
3.8129528065
 21
23.1500815293
 31
0.0
 11
3.8499577494
 21
23.1689245842
 31
0.0
 11
3.8791970086
 21
23.1909165769
 31
0.0
 11
3.900279542
 21
23.215119319
 31
0.0
 11
3.913060838
 21
23.2407168857
 31
0.0
 11
3.9175010794
 21
23.2669872981
 31
0.0
  0
SPLINE
  5
557
100
AcDbEntity
  8
0
100
AcDbSpline
 62
253
  6
CONTINUOUS
 70
0
 71
3
 72
13
 73
9
 74
7
 42
0.0000001
 43
0.0000001
 44
0.0000000001
 12
0.0012265944
 22
-0.3651869709
 32
0.0
 13
0.3651878721
 23
-0.0009199792
 33
0.0
 40
0.0
 40
0.0
 40
0.0
 40
0.0
 40
0.1162394899
 40
0.2339784923
 40
0.3543712679
 40
0.4780982409
 40
0.7345378657
 40
1.0
 40
1.0
 40
1.0
 40
1.0
 10
1.037880407
 20
23.8443375673
 30
0.0
 10
1.0379279333
 20
23.8301878516
 30
0.0
 10
1.0412864679
 20
23.8016148337
 30
0.0
 10
1.0558430548
 20
23.7606544968
 30
0.0
 10
1.0793139281
 20
23.7229827139
 30
0.0
 10
1.1216166549
 20
23.6786209789
 30
0.0
 10
1.1915429228
 20
23.6387867994
 30
0.0
 10
1.2555616589
 20
23.6279126229
 30
0.0
 10
1.2878761762
 20
23.6278312164
 30
0.0
 11
1.037880407
 21
23.8443375673
 31
0.0
 11
1.0428081351
 21
23.8021751679
 31
0.0
 11
1.0571186378
 21
23.7616295042
 31
0.0
 11
1.0802643056
 21
23.7242490565
 31
0.0
 11
1.1113592076
 21
23.6914667926
 31
0.0
 11
1.1923747599
 21
23.6444922901
 31
0.0
 11
1.2878761762
 21
23.6278312164
 31
0.0
  0
SPLINE
  5
558
100
AcDbEntity
  8
0
100
AcDbSpline
 62
7
  6
CONTINUOUS
 70
0
 71
3
 72
15
 73
11
 74
9
 42
0.0000001
 43
0.0000001
 44
0.0000000001
 12
0.0031741039
 22
-0.3149999784
 32
0.0
 13
0.3150159699
 23
0.0
 33
0.0
 40
0.0
 40
0.0
 40
0.0
 40
0.0
 40
0.0847246382
 40
0.1757279367
 40
0.2778501555
 40
0.3942839058
 40
0.5264550939
 40
0.6738071548
 40
0.8334364544
 40
1.0
 40
1.0
 40
1.0
 40
1.0
 10
1.0320625772
 20
23.2669872981
 30
0.0
 10
1.0321522188
 20
23.2580912117
 30
0.0
 10
1.0353950079
 20
23.2395608029
 30
0.0
 10
1.0489463984
 20
23.2133174142
 30
0.0
 10
1.0708178433
 20
23.1888844894
 30
0.0
 10
1.1006699043
 20
23.1669547435
 30
0.0
 10
1.1380326353
 20
23.1483274499
 30
0.0
 10
1.1820052405
 20
23.133953471
 30
0.0
 10
1.2310088212
 20
23.1248150691
 30
0.0
 10
1.2652955162
 20
23.1226497308
 30
0.0
 10
1.2827855752
 20
23.1226497308
 30
0.0
 11
1.0320625772
 21
23.2669872981
 31
0.0
 11
1.0365176309
 21
23.2406721314
 31
0.0
 11
1.0493424118
 21
23.2150332915
 31
0.0
 11
1.0704967395
 21
23.1907967144
 31
0.0
 11
1.0998346044
 21
23.1687830511
 31
0.0
 11
1.1369607652
 21
23.1499360992
 31
0.0
 11
1.1810129874
 21
23.1353054509
 31
0.0
 11
1.2304185258
 21
23.1259378303
 31
0.0
 11
1.2827855752
 21
23.1226497308
 31
0.0
  0
SPLINE
  5
559
100
AcDbEntity
  8
0
100
AcDbSpline
 62
253
  6
CONTINUOUS
 70
0
 71
3
 72
13
 73
9
 74
7
 42
0.0000001
 43
0.0000001
 44
0.0000000001
 12
-0.0012265944
 22
-0.3651869708
 32
0.0
 13
-0.3651878719
 23
-0.0009199792
 33
0.0
 40
0.0
 40
0.0
 40
0.0
 40
0.0
 40
0.1162394861
 40
0.2339784844
 40
0.3543712552
 40
0.4780982232
 40
0.7345378384
 40
1.0
 40
1.0
 40
1.0
 40
1.0
 10
3.9116832496
 20
23.8443375673
 30
0.0
 10
3.9116357234
 20
23.830187852
 30
0.0
 10
3.9082771889
 20
23.8016148352
 30
0.0
 10
3.8937206032
 20
23.7606544996
 30
0.0
 10
3.8702497312
 20
23.7229827179
 30
0.0
 10
3.8279470074
 20
23.6786209833
 30
0.0
 10
3.7580207393
 20
23.6387868014
 30
0.0
 10
3.694002001
 20
23.6279126229
 30
0.0
 10
3.6616874804
 20
23.6278312164
 30
0.0
 11
3.9116832496
 21
23.8443375673
 31
0.0
 11
3.9067555219
 21
23.8021751692
 31
0.0
 11
3.8924450202
 21
23.7616295068
 31
0.0
 11
3.8692993539
 21
23.7242490603
 31
0.0
 11
3.838204454
 21
23.6914667969
 31
0.0
 11
3.7571889062
 21
23.6444922937
 31
0.0
 11
3.6616874804
 21
23.6278312164
 31
0.0
  0
SPLINE
  5
55A
100
AcDbEntity
  8
0
100
AcDbSpline
 62
253
  6
CONTINUOUS
 70
0
 71
3
 72
13
 73
9
 74
7
 42
0.0000001
 43
0.0000001
 44
0.0000000001
 12
0.0012265944
 22
-0.3651869708
 32
0.0
 13
0.3651878719
 23
-0.0009199792
 33
0.0
 40
0.0
 40
0.0
 40
0.0
 40
0.0
 40
0.1162394861
 40
0.2339784844
 40
0.3543712552
 40
0.4780982232
 40
0.7345378384
 40
1.0
 40
1.0
 40
1.0
 40
1.0
 10
18.437880407
 20
23.8443375673
 30
0.0
 10
18.4379279333
 20
23.830187852
 30
0.0
 10
18.4412864677
 20
23.8016148352
 30
0.0
 10
18.4558430534
 20
23.7606544996
 30
0.0
 10
18.4793139254
 20
23.7229827179
 30
0.0
 10
18.5216166492
 20
23.6786209833
 30
0.0
 10
18.5915429173
 20
23.6387868014
 30
0.0
 10
18.6555616556
 20
23.6279126229
 30
0.0
 10
18.6878761762
 20
23.6278312164
 30
0.0
 11
18.437880407
 21
23.8443375673
 31
0.0
 11
18.4428081348
 21
23.8021751692
 31
0.0
 11
18.4571186365
 21
23.7616295068
 31
0.0
 11
18.4802643027
 21
23.7242490603
 31
0.0
 11
18.5113592026
 21
23.6914667969
 31
0.0
 11
18.5923747504
 21
23.6444922937
 31
0.0
 11
18.6878761762
 21
23.6278312164
 31
0.0
  0
SPLINE
  5
55B
100
AcDbEntity
  8
0
100
AcDbSpline
 62
7
  6
CONTINUOUS
 70
0
 71
3
 72
15
 73
11
 74
9
 42
0.0000001
 43
0.0000001
 44
0.0000000001
 12
0.0031741039
 22
-0.3149999784
 32
0.0
 13
0.3150159699
 23
-0.0
 33
0.0
 40
0.0
 40
0.0
 40
0.0
 40
0.0
 40
0.0847246382
 40
0.1757279367
 40
0.2778501555
 40
0.3942839058
 40
0.5264550939
 40
0.6738071548
 40
0.8334364544
 40
1.0
 40
1.0
 40
1.0
 40
1.0
 10
18.4320625772
 20
23.2669872981
 30
0.0
 10
18.4321522188
 20
23.2580912117
 30
0.0
 10
18.4353950079
 20
23.2395608029
 30
0.0
 10
18.4489463984
 20
23.2133174142
 30
0.0
 10
18.4708178433
 20
23.1888844894
 30
0.0
 10
18.5006699043
 20
23.1669547435
 30
0.0
 10
18.5380326353
 20
23.1483274499
 30
0.0
 10
18.5820052405
 20
23.133953471
 30
0.0
 10
18.6310088212
 20
23.1248150691
 30
0.0
 10
18.6652955162
 20
23.1226497308
 30
0.0
 10
18.6827855752
 20
23.1226497308
 30
0.0
 11
18.4320625772
 21
23.2669872981
 31
0.0
 11
18.4365176309
 21
23.2406721314
 31
0.0
 11
18.4493424118
 21
23.2150332915
 31
0.0
 11
18.4704967395
 21
23.1907967144
 31
0.0
 11
18.4998346044
 21
23.1687830511
 31
0.0
 11
18.5369607652
 21
23.1499360992
 31
0.0
 11
18.5810129874
 21
23.1353054509
 31
0.0
 11
18.6304185258
 21
23.1259378303
 31
0.0
 11
18.6827855752
 21
23.1226497308
 31
0.0
  0
SPLINE
  5
55C
100
AcDbEntity
  8
0
100
AcDbSpline
 62
7
  6
CONTINUOUS
 70
0
 71
3
 72
15
 73
11
 74
9
 42
0.0000001
 43
0.0000001
 44
0.0000000001
 12
-0.0031741039
 22
-0.3149999784
 32
0.0
 13
-0.3150159699
 23
0.0
 33
0.0
 40
0.0
 40
0.0
 40
0.0
 40
0.0
 40
0.0847246382
 40
0.1757279367
 40
0.2778501555
 40
0.3942839058
 40
0.5264550939
 40
0.6738071548
 40
0.8334364544
 40
1.0
 40
1.0
 40
1.0
 40
1.0
 10
21.3175010794
 20
23.2669872981
 30
0.0
 10
21.3174114378
 20
23.2580912117
 30
0.0
 10
21.3141686488
 20
23.2395608029
 30
0.0
 10
21.3006172582
 20
23.2133174142
 30
0.0
 10
21.2787458133
 20
23.1888844894
 30
0.0
 10
21.2488937523
 20
23.1669547435
 30
0.0
 10
21.2115310213
 20
23.1483274499
 30
0.0
 10
21.1675584161
 20
23.133953471
 30
0.0
 10
21.1185548354
 20
23.1248150691
 30
0.0
 10
21.0842681404
 20
23.1226497308
 30
0.0
 10
21.0667780815
 20
23.1226497308
 30
0.0
 11
21.3175010794
 21
23.2669872981
 31
0.0
 11
21.3130460257
 21
23.2406721314
 31
0.0
 11
21.3002212448
 21
23.2150332915
 31
0.0
 11
21.2790669171
 21
23.1907967144
 31
0.0
 11
21.2497290522
 21
23.1687830511
 31
0.0
 11
21.2126028914
 21
23.1499360992
 31
0.0
 11
21.1685506692
 21
23.1353054509
 31
0.0
 11
21.1191451309
 21
23.1259378303
 31
0.0
 11
21.0667780815
 21
23.1226497308
 31
0.0
  0
SPLINE
  5
55D
100
AcDbEntity
  8
0
100
AcDbSpline
 62
253
  6
CONTINUOUS
 70
0
 71
3
 72
13
 73
9
 74
7
 42
0.0000001
 43
0.0000001
 44
0.0000000001
 12
-0.0012265943
 22
-0.3651869702
 32
0.0
 13
-0.3651878714
 23
-0.0009199792
 33
0.0
 40
0.0
 40
0.0
 40
0.0
 40
0.0
 40
0.1162393822
 40
0.2339783947
 40
0.3543711753
 40
0.4780981573
 40
0.7345378061
 40
1.0
 40
1.0
 40
1.0
 40
1.0
 10
21.3116832496
 20
23.8443375673
 30
0.0
 10
21.3116357234
 20
23.8301878647
 30
0.0
 10
21.3082771904
 20
23.8016148597
 30
0.0
 10
21.2937206205
 20
23.7606545287
 30
0.0
 10
21.2702497483
 20
23.7229827412
 30
0.0
 10
21.2279470264
 20
23.6786209956
 30
0.0
 10
21.158020751
 20
23.6387868046
 30
0.0
 10
21.0940020049
 20
23.6279126229
 30
0.0
 10
21.0616874804
 20
23.6278312164
 30
0.0
 11
21.3116832496
 21
23.8443375673
 31
0.0
 11
21.3067555292
 21
23.8021752067
 31
0.0
 11
21.2924450353
 21
23.761629536
 31
0.0
 11
21.2692993716
 21
23.7242490838
 31
0.0
 11
21.2382044723
 21
23.6914668129
 31
0.0
 11
21.1571889173
 21
23.644492298
 31
0.0
 11
21.0616874804
 21
23.6278312164
 31
0.0
  0
SPLINE
  5
55E
100
AcDbEntity
  8
0
100
AcDbSpline
 62
253
  6
CONTINUOUS
 70
0
 71
3
 72
13
 73
9
 74
7
 42
0.0000001
 43
0.0000001
 44
0.0000000001
 12
-0.0012265944
 22
0.3651869708
 32
0.0
 13
-0.3651878719
 23
0.0009199792
 33
0.0
 40
0.0
 40
0.0
 40
0.0
 40
0.0
 40
0.1162394861
 40
0.2339784844
 40
0.3543712552
 40
0.4780982232
 40
0.7345378384
 40
1.0
 40
1.0
 40
1.0
 40
1.0
 10
21.3116832496
 20
-23.8443375673
 30
0.0
 10
21.3116357234
 20
-23.830187852
 30
0.0
 10
21.3082771889
 20
-23.8016148352
 30
0.0
 10
21.2937206032
 20
-23.7606544996
 30
0.0
 10
21.2702497312
 20
-23.7229827179
 30
0.0
 10
21.2279470074
 20
-23.6786209833
 30
0.0
 10
21.1580207393
 20
-23.6387868014
 30
0.0
 10
21.094002001
 20
-23.6279126229
 30
0.0
 10
21.0616874804
 20
-23.6278312164
 30
0.0
 11
21.3116832496
 21
-23.8443375673
 31
0.0
 11
21.3067555219
 21
-23.8021751692
 31
0.0
 11
21.2924450202
 21
-23.7616295068
 31
0.0
 11
21.2692993539
 21
-23.7242490603
 31
0.0
 11
21.238204454
 21
-23.6914667969
 31
0.0
 11
21.1571889062
 21
-23.6444922937
 31
0.0
 11
21.0616874804
 21
-23.6278312164
 31
0.0
  0
SPLINE
  5
55F
100
AcDbEntity
  8
0
100
AcDbSpline
 62
7
  6
CONTINUOUS
 70
0
 71
3
 72
15
 73
11
 74
9
 42
0.0000001
 43
0.0000001
 44
0.0000000001
 12
-0.0031741039
 22
0.3149999784
 32
0.0
 13
-0.3150159699
 23
0.0
 33
0.0
 40
0.0
 40
0.0
 40
0.0
 40
0.0
 40
0.0847246382
 40
0.1757279367
 40
0.2778501555
 40
0.3942839058
 40
0.5264550939
 40
0.6738071548
 40
0.8334364544
 40
1.0
 40
1.0
 40
1.0
 40
1.0
 10
21.3175010794
 20
-23.2669872981
 30
0.0
 10
21.3174114378
 20
-23.2580912117
 30
0.0
 10
21.3141686488
 20
-23.2395608029
 30
0.0
 10
21.3006172582
 20
-23.2133174142
 30
0.0
 10
21.2787458133
 20
-23.1888844894
 30
0.0
 10
21.2488937523
 20
-23.1669547435
 30
0.0
 10
21.2115310213
 20
-23.1483274499
 30
0.0
 10
21.1675584161
 20
-23.133953471
 30
0.0
 10
21.1185548354
 20
-23.1248150691
 30
0.0
 10
21.0842681404
 20
-23.1226497308
 30
0.0
 10
21.0667780815
 20
-23.1226497308
 30
0.0
 11
21.3175010794
 21
-23.2669872981
 31
0.0
 11
21.3130460257
 21
-23.2406721314
 31
0.0
 11
21.3002212448
 21
-23.2150332915
 31
0.0
 11
21.2790669171
 21
-23.1907967144
 31
0.0
 11
21.2497290522
 21
-23.1687830511
 31
0.0
 11
21.2126028914
 21
-23.1499360992
 31
0.0
 11
21.1685506692
 21
-23.1353054509
 31
0.0
 11
21.1191451309
 21
-23.1259378303
 31
0.0
 11
21.0667780815
 21
-23.1226497308
 31
0.0
  0
SPLINE
  5
560
100
AcDbEntity
  8
0
100
AcDbSpline
 62
7
  6
CONTINUOUS
 70
0
 71
3
 72
15
 73
11
 74
9
 42
0.0000001
 43
0.0000001
 44
0.0000000001
 12
0.0031741039
 22
0.3149999784
 32
0.0
 13
0.3150159699
 23
-0.0
 33
0.0
 40
0.0
 40
0.0
 40
0.0
 40
0.0
 40
0.0847246382
 40
0.1757279367
 40
0.2778501555
 40
0.3942839058
 40
0.5264550939
 40
0.6738071548
 40
0.8334364544
 40
1.0
 40
1.0
 40
1.0
 40
1.0
 10
18.4320625772
 20
-23.2669872981
 30
0.0
 10
18.4321522188
 20
-23.2580912117
 30
0.0
 10
18.4353950079
 20
-23.2395608029
 30
0.0
 10
18.4489463984
 20
-23.2133174142
 30
0.0
 10
18.4708178433
 20
-23.1888844894
 30
0.0
 10
18.5006699043
 20
-23.1669547435
 30
0.0
 10
18.5380326353
 20
-23.1483274499
 30
0.0
 10
18.5820052405
 20
-23.133953471
 30
0.0
 10
18.6310088212
 20
-23.1248150691
 30
0.0
 10
18.6652955162
 20
-23.1226497308
 30
0.0
 10
18.6827855752
 20
-23.1226497308
 30
0.0
 11
18.4320625772
 21
-23.2669872981
 31
0.0
 11
18.4365176309
 21
-23.2406721314
 31
0.0
 11
18.4493424118
 21
-23.2150332915
 31
0.0
 11
18.4704967395
 21
-23.1907967144
 31
0.0
 11
18.4998346044
 21
-23.1687830511
 31
0.0
 11
18.5369607652
 21
-23.1499360992
 31
0.0
 11
18.5810129874
 21
-23.1353054509
 31
0.0
 11
18.6304185258
 21
-23.1259378303
 31
0.0
 11
18.6827855752
 21
-23.1226497308
 31
0.0
  0
SPLINE
  5
561
100
AcDbEntity
  8
0
100
AcDbSpline
 62
253
  6
CONTINUOUS
 70
0
 71
3
 72
13
 73
9
 74
7
 42
0.0000001
 43
0.0000001
 44
0.0000000001
 12
0.0012265943
 22
0.3651869702
 32
0.0
 13
0.3651878714
 23
0.0009199792
 33
0.0
 40
0.0
 40
0.0
 40
0.0
 40
0.0
 40
0.1162393822
 40
0.2339783947
 40
0.3543711753
 40
0.4780981573
 40
0.7345378061
 40
1.0
 40
1.0
 40
1.0
 40
1.0
 10
18.437880407
 20
-23.8443375673
 30
0.0
 10
18.4379279332
 20
-23.8301878647
 30
0.0
 10
18.4412864662
 20
-23.8016148597
 30
0.0
 10
18.4558430361
 20
-23.7606545287
 30
0.0
 10
18.4793139083
 20
-23.7229827412
 30
0.0
 10
18.5216166302
 20
-23.6786209956
 30
0.0
 10
18.5915429056
 20
-23.6387868046
 30
0.0
 10
18.6555616517
 20
-23.6279126229
 30
0.0
 10
18.6878761762
 20
-23.6278312164
 30
0.0
 11
18.437880407
 21
-23.8443375673
 31
0.0
 11
18.4428081274
 21
-23.8021752067
 31
0.0
 11
18.4571186213
 21
-23.761629536
 31
0.0
 11
18.480264285
 21
-23.7242490838
 31
0.0
 11
18.5113591843
 21
-23.6914668129
 31
0.0
 11
18.5923747393
 21
-23.644492298
 31
0.0
 11
18.6878761762
 21
-23.6278312164
 31
0.0
  0
SPLINE
  5
562
100
AcDbEntity
  8
0
100
AcDbSpline
 62
253
  6
CONTINUOUS
 70
0
 71
3
 72
13
 73
9
 74
7
 42
0.0000001
 43
0.0000001
 44
0.0000000001
 12
-0.0012265944
 22
0.3651869708
 32
0.0
 13
-0.3651878719
 23
0.0009199792
 33
0.0
 40
0.0
 40
0.0
 40
0.0
 40
0.0
 40
0.1162394861
 40
0.2339784844
 40
0.3543712552
 40
0.4780982232
 40
0.7345378384
 40
1.0
 40
1.0
 40
1.0
 40
1.0
 10
3.9116832496
 20
-23.8443375673
 30
0.0
 10
3.9116357234
 20
-23.830187852
 30
0.0
 10
3.9082771889
 20
-23.8016148352
 30
0.0
 10
3.8937206032
 20
-23.7606544996
 30
0.0
 10
3.8702497312
 20
-23.7229827179
 30
0.0
 10
3.8279470074
 20
-23.6786209833
 30
0.0
 10
3.7580207393
 20
-23.6387868014
 30
0.0
 10
3.694002001
 20
-23.6279126229
 30
0.0
 10
3.6616874804
 20
-23.6278312164
 30
0.0
 11
3.9116832496
 21
-23.8443375673
 31
0.0
 11
3.9067555219
 21
-23.8021751692
 31
0.0
 11
3.8924450202
 21
-23.7616295068
 31
0.0
 11
3.8692993539
 21
-23.7242490603
 31
0.0
 11
3.838204454
 21
-23.6914667969
 31
0.0
 11
3.7571889062
 21
-23.6444922937
 31
0.0
 11
3.6616874804
 21
-23.6278312164
 31
0.0
  0
SPLINE
  5
563
100
AcDbEntity
  8
0
100
AcDbSpline
 62
7
  6
CONTINUOUS
 70
0
 71
3
 72
15
 73
11
 74
9
 42
0.0000001
 43
0.0000001
 44
0.0000000001
 12
-0.0031741039
 22
0.3149999784
 32
0.0
 13
-0.3150159699
 23
0.0
 33
0.0
 40
0.0
 40
0.0
 40
0.0
 40
0.0
 40
0.0847246382
 40
0.1757279367
 40
0.2778501555
 40
0.3942839058
 40
0.5264550939
 40
0.6738071548
 40
0.8334364544
 40
1.0
 40
1.0
 40
1.0
 40
1.0
 10
3.9175010794
 20
-23.2669872981
 30
0.0
 10
3.9174114378
 20
-23.2580912117
 30
0.0
 10
3.9141686488
 20
-23.2395608029
 30
0.0
 10
3.9006172582
 20
-23.2133174142
 30
0.0
 10
3.8787458133
 20
-23.1888844894
 30
0.0
 10
3.8488937523
 20
-23.1669547435
 30
0.0
 10
3.8115310213
 20
-23.1483274499
 30
0.0
 10
3.7675584161
 20
-23.133953471
 30
0.0
 10
3.7185548354
 20
-23.1248150691
 30
0.0
 10
3.6842681404
 20
-23.1226497308
 30
0.0
 10
3.6667780815
 20
-23.1226497308
 30
0.0
 11
3.9175010794
 21
-23.2669872981
 31
0.0
 11
3.9130460257
 21
-23.2406721314
 31
0.0
 11
3.9002212448
 21
-23.2150332915
 31
0.0
 11
3.8790669171
 21
-23.1907967144
 31
0.0
 11
3.8497290522
 21
-23.1687830511
 31
0.0
 11
3.8126028914
 21
-23.1499360992
 31
0.0
 11
3.7685506692
 21
-23.1353054509
 31
0.0
 11
3.7191451309
 21
-23.1259378303
 31
0.0
 11
3.6667780815
 21
-23.1226497308
 31
0.0
  0
SPLINE
  5
564
100
AcDbEntity
  8
0
100
AcDbSpline
 62
7
  6
CONTINUOUS
 70
0
 71
3
 72
15
 73
11
 74
9
 42
0.0000001
 43
0.0000001
 44
0.0000000001
 12
-0.3142908459
 22
0.0
 32
0.0
 13
-0.0031667975
 23
-0.3142748912
 33
0.0
 40
0.0
 40
0.0
 40
0.0
 40
0.0
 40
0.1666133779
 40
0.3262255844
 40
0.4735308137
 40
0.6056575217
 40
0.7220676483
 40
0.8241942131
 40
0.9152281509
 40
1.0
 40
1.0
 40
1.0
 40
1.0
 10
1.2820583464
 20
-23.1226497308
 30
0.0
 10
1.2646033266
 20
-23.1226497308
 30
0.0
 10
1.2303961354
 20
-23.124909705
 30
0.0
 10
1.1815197337
 20
-23.1340775763
 30
0.0
 10
1.1376783222
 20
-23.1484769636
 30
0.0
 10
1.1004356516
 20
-23.1671011817
 30
0.0
 10
1.0706833234
 20
-23.1890111222
 30
0.0
 10
1.0488867985
 20
-23.2134107396
 30
0.0
 10
1.0353831442
 20
-23.239611024
 30
0.0
 10
1.0321520623
 20
-23.2581067436
 30
0.0
 10
1.0320625772
 20
-23.2669872981
 30
0.0
 11
1.2820583464
 21
-23.1226497308
 31
0.0
 11
1.2298016108
 21
-23.126016189
 31
0.0
 11
1.1805283826
 21
-23.1354311576
 31
0.0
 11
1.1366108501
 21
-23.1500815293
 31
0.0
 11
1.0996059072
 21
-23.1689245842
 31
0.0
 11
1.070366648
 21
-23.1909165769
 31
0.0
 11
1.0492841147
 21
-23.215119319
 31
0.0
 11
1.0365028186
 21
-23.2407168857
 31
0.0
 11
1.0320625772
 21
-23.2669872981
 31
0.0
  0
SPLINE
  5
565
100
AcDbEntity
  8
0
100
AcDbSpline
 62
253
  6
CONTINUOUS
 70
0
 71
3
 72
13
 73
9
 74
7
 42
0.0000001
 43
0.0000001
 44
0.0000000001
 12
0.0012265944
 22
0.3651869708
 32
0.0
 13
0.3651878719
 23
0.0009199792
 33
0.0
 40
0.0
 40
0.0
 40
0.0
 40
0.0
 40
0.1162394861
 40
0.2339784844
 40
0.3543712552
 40
0.4780982232
 40
0.7345378384
 40
1.0
 40
1.0
 40
1.0
 40
1.0
 10
1.037880407
 20
-23.8443375673
 30
0.0
 10
1.0379279333
 20
-23.830187852
 30
0.0
 10
1.0412864677
 20
-23.8016148352
 30
0.0
 10
1.0558430534
 20
-23.7606544996
 30
0.0
 10
1.0793139254
 20
-23.7229827179
 30
0.0
 10
1.1216166492
 20
-23.6786209833
 30
0.0
 10
1.1915429173
 20
-23.6387868014
 30
0.0
 10
1.2555616556
 20
-23.6279126229
 30
0.0
 10
1.2878761762
 20
-23.6278312164
 30
0.0
 11
1.037880407
 21
-23.8443375673
 31
0.0
 11
1.0428081348
 21
-23.8021751692
 31
0.0
 11
1.0571186365
 21
-23.7616295068
 31
0.0
 11
1.0802643027
 21
-23.7242490603
 31
0.0
 11
1.1113592026
 21
-23.6914667969
 31
0.0
 11
1.1923747504
 21
-23.6444922937
 31
0.0
 11
1.2878761762
 21
-23.6278312164
 31
0.0
  0
SPLINE
  5
566
100
AcDbEntity
  8
0
100
AcDbSpline
 62
7
  6
CONTINUOUS
 70
0
 71
3
 72
15
 73
11
 74
9
 42
0.0000001
 43
0.0000001
 44
0.0000000001
 12
0.0
 22
-0.7835849489
 32
0.0
 13
-0.7835849489
 23
0.0
 33
0.0
 40
0.0
 40
0.0
 40
0.0
 40
0.0
 40
0.1250016995
 40
0.2500015929
 40
0.3750019934
 40
0.5000021438
 40
0.6250020315
 40
0.7500016142
 40
0.8750001245
 40
1.0
 40
1.0
 40
1.0
 40
1.0
 10
22.3239090751
 20
-21.8997711479
 30
0.0
 10
22.3239090751
 20
-21.9324209647
 30
0.0
 10
22.3174889661
 20
-21.9979001651
 30
0.0
 10
22.2889528585
 20
-22.0922261856
 30
0.0
 10
22.2425880096
 20
-22.1792278759
 30
0.0
 10
22.1801544613
 20
-22.2555146988
 30
0.0
 10
22.1040403484
 20
-22.3181579234
 30
0.0
 10
22.0171523396
 20
-22.3647451103
 30
0.0
 10
21.9228796822
 20
-22.3934475677
 30
0.0
 10
21.8574064372
 20
-22.4
 30
0.0
 10
21.8247570968
 20
-22.4
 30
0.0
 11
22.3239090751
 21
-21.8997711479
 31
0.0
 11
22.3143378785
 21
-21.9972518487
 31
0.0
 11
22.2859814326
 21
-22.0910054062
 31
0.0
 11
22.2399098538
 21
-22.1774421175
 31
0.0
 11
22.1778742933
 21
-22.2532408395
 31
0.0
 11
22.1022445715
 21
-22.3154819984
 31
0.0
 11
22.0159213081
 21
-22.3617644365
 31
0.0
 11
21.9222238145
 21
-22.3903018677
 31
0.0
 11
21.8247570968
 21
-22.4
 31
0.0
  0
SPLINE
  5
567
100
AcDbEntity
  8
0
100
AcDbSpline
 62
7
  6
CONTINUOUS
 70
0
 71
3
 72
15
 73
11
 74
9
 42
0.0000001
 43
0.0000001
 44
0.0000000001
 12
0.783584949
 22
0.0
 32
0.0
 13
-0.0
 23
-0.783584949
 33
0.0
 40
0.0
 40
0.0
 40
0.0
 40
0.0
 40
0.1249998755
 40
0.2499983858
 40
0.3749979685
 40
0.4999978562
 40
0.6249980066
 40
0.7499984071
 40
0.8749983005
 40
1.0
 40
1.0
 40
1.0
 40
1.0
 10
21.8247570967
 20
22.4
 30
0.0
 10
21.8574064371
 20
22.4
 30
0.0
 10
21.9228796821
 20
22.3934475677
 30
0.0
 10
22.0171523395
 20
22.3647451103
 30
0.0
 10
22.1040403484
 20
22.3181579234
 30
0.0
 10
22.1801544613
 20
22.2555146988
 30
0.0
 10
22.2425880095
 20
22.1792278759
 30
0.0
 10
22.2889528584
 20
22.0922261856
 30
0.0
 10
22.3174889661
 20
21.9979001651
 30
0.0
 10
22.3239090751
 20
21.9324209647
 30
0.0
 10
22.3239090751
 20
21.8997711479
 30
0.0
 11
21.8247570967
 21
22.4
 31
0.0
 11
21.9222238144
 21
22.3903018677
 31
0.0
 11
22.015921308
 21
22.3617644365
 31
0.0
 11
22.1022445715
 21
22.3154819985
 31
0.0
 11
22.1778742933
 21
22.2532408395
 31
0.0
 11
22.2399098538
 21
22.1774421175
 31
0.0
 11
22.2859814326
 21
22.0910054062
 31
0.0
 11
22.3143378785
 21
21.9972518487
 31
0.0
 11
22.3239090751
 21
21.8997711479
 31
0.0
  0
SPLINE
  5
568
100
AcDbEntity
  8
RACCORDO
100
AcDbSpline
 62
253
  6
CONTINUOUS
 70
0
 71
3
 72
14
 73
10
 74
8
 42
0.0000001
 43
0.0000001
 44
0.0000000001
 12
-0.0989644554
 22
0.0302341733
 32
0.0
 13
0.0197352564
 23
0.1015804525
 33
0.0
 40
0.0
 40
0.0
 40
0.0
 40
0.0
 40
0.3748529775
 40
0.546224995
 40
0.6966835567
 40
0.8210156334
 40
0.9144198707
 40
0.9740455258
 40
1.0
 40
1.0
 40
1.0
 40
1.0
 10
-4.6188543559
 20
-15.4883742496
 30
0.0
 10
-4.6312200628
 20
-15.4845964596
 30
0.0
 10
-4.6491639802
 20
-15.4788083737
 30
0.0
 10
-4.6718116895
 20
-15.4708322415
 30
0.0
 10
-4.6862551823
 20
-15.4653711951
 30
0.0
 10
-4.6978722408
 20
-15.4605910132
 30
0.0
 10
-4.7068640403
 20
-15.456414799
 30
0.0
 10
-4.7116275584
 20
-15.4536058365
 30
0.0
 10
-4.7146405832
 20
-15.45134615
 30
0.0
 10
-4.7144698438
 20
-15.4504673276
 30
0.0
 11
-4.6188543559
 21
-15.4883742496
 31
0.0
 11
-4.6557602798
 21
-15.4764329589
 31
0.0
 11
-4.6724792061
 21
-15.4705205982
 31
0.0
 11
-4.6870333053
 21
-15.4649902197
 31
0.0
 11
-4.6989096548
 21
-15.4600422272
 31
0.0
 11
-4.7076281695
 21
-15.4558698827
 31
0.0
 11
-4.7128806598
 21
-15.4526324653
 31
0.0
 11
-4.7144698438
 21
-15.4504673276
 31
0.0
  0
SPLINE
  5
569
100
AcDbEntity
  8
RACCORDO
100
AcDbSpline
 62
253
  6
CONTINUOUS
 70
0
 71
3
 72
16
 73
12
 74
10
 42
0.0000001
 43
0.0000001
 44
0.0000000001
 12
-0.0951184107
 22
-0.0291735394
 32
0.0
 13
-0.0671517333
 23
0.0734115262
 33
0.0
 40
0.0
 40
0.0
 40
0.0
 40
0.0
 40
0.3803869343
 40
0.5530696601
 40
0.7040711592
 40
0.8282769797
 40
0.9208941483
 40
0.9543065489
 40
0.9787720911
 40
0.9940484264
 40
1.0
 40
1.0
 40
1.0
 40
1.0
 10
-4.6162443552
 20
-9.5213014434
 30
0.0
 10
-4.6283049554
 20
-9.5250005211
 30
0.0
 10
-4.6458598165
 20
-9.5303206605
 30
0.0
 10
-4.6682447463
 20
-9.5369540415
 30
0.0
 10
-4.6825121727
 20
-9.541109677
 30
0.0
 10
-4.6942348808
 20
-9.5444188368
 30
0.0
 10
-4.7022704353
 20
-9.5466431512
 30
0.0
 10
-4.7070674722
 20
-9.5478165935
 30
0.0
 10
-4.7094988711
 20
-9.548467763
 30
0.0
 10
-4.7108556847
 20
-9.548584552
 30
0.0
 10
-4.7117047455
 20
-9.5488703319
 30
0.0
 10
-4.711837965
 20
-9.5487246938
 30
0.0
 11
-4.6162443552
 21
-9.5213014434
 31
0.0
 11
-4.652466319
 21
-9.532266872
 31
0.0
 11
-4.6689397069
 21
-9.5371451168
 31
0.0
 11
-4.6833670376
 21
-9.5413349566
 31
0.0
 11
-4.6952588131
 21
-9.5446953646
 31
0.0
 11
-4.7041554904
 21
-9.5470951131
 31
0.0
 11
-4.7073789163
 21
-9.5479076508
 31
0.0
 11
-4.7097509306
 21
-9.5484539894
 31
0.0
 11
-4.7112458435
 21
-9.5487282851
 31
0.0
 11
-4.711837965
 21
-9.5487246938
 31
0.0
  0
SPLINE
  5
56A
100
AcDbEntity
  8
RACCORDO
100
AcDbSpline
 62
253
  6
CONTINUOUS
 70
0
 71
3
 72
16
 73
12
 74
10
 42
0.0000001
 43
0.0000001
 44
0.0000000001
 12
-0.0943746468
 22
-0.0313753466
 32
0.0
 13
-0.0693703332
 23
0.0712653016
 33
0.0
 40
0.0
 40
0.0
 40
0.0
 40
0.0
 40
0.380422517
 40
0.5531086176
 40
0.7041077372
 40
0.8283077741
 40
0.9209178181
 40
0.9543264197
 40
0.9787878642
 40
0.9940591114
 40
1.0
 40
1.0
 40
1.0
 40
1.0
 10
-4.6230457983
 20
-9.4999999999
 30
0.0
 10
-4.6350132119
 20
-9.5039786294
 30
0.0
 10
-4.6524331218
 20
-9.5097067612
 30
0.0
 10
-4.6746482877
 20
-9.5168629356
 30
0.0
 10
-4.6888077952
 20
-9.521353045
 30
0.0
 10
-4.7004437115
 20
-9.5249382814
 30
0.0
 10
-4.708419648
 20
-9.5273538948
 30
0.0
 10
-4.7131849197
 20
-9.5286424146
 30
0.0
 10
-4.7155973372
 20
-9.5293538825
 30
0.0
 10
-4.7169510522
 20
-9.5295031823
 30
0.0
 10
-4.7177897434
 20
-9.5298128942
 30
0.0
 10
-4.7179271172
 20
-9.5296717678
 30
0.0
 11
-4.6230457983
 21
-9.4999999999
 31
0.0
 11
-4.6589904056
 21
-9.5118076891
 31
0.0
 11
-4.6753383644
 21
-9.5170706063
 31
0.0
 11
-4.6896568147
 21
-9.5215987107
 31
0.0
 11
-4.7014601686
 21
-9.5252395514
 31
0.0
 11
-4.7102925386
 21
-9.5278511551
 31
0.0
 11
-4.7134936291
 21
-9.5287414878
 31
0.0
 11
-4.7158500966
 21
-9.5293460159
 31
0.0
 11
-4.7173364297
 21
-9.5296582667
 31
0.0
 11
-4.7179271172
 21
-9.5296717678
 31
0.0
  0
SPLINE
  5
56B
100
AcDbEntity
  8
RACCORDO
100
AcDbSpline
 62
253
  6
CONTINUOUS
 70
0
 71
3
 72
16
 73
12
 74
10
 42
0.0000001
 43
0.0000001
 44
0.0000000001
 12
0.0943957708
 22
-0.031382852
 32
0.0
 13
0.0694010702
 23
0.071266657
 33
0.0
 40
0.0
 40
0.0
 40
0.0
 40
0.0
 40
0.3803996409
 40
0.5530850394
 40
0.7040879699
 40
0.828294161
 40
0.9209105681
 40
0.9543219022
 40
0.9787855761
 40
0.9940583941
 40
1.0
 40
1.0
 40
1.0
 40
1.0
 10
-18.027390544
 20
-9.4999999108
 30
0.0
 10
-18.0154211715
 20
-9.5039792527
 30
0.0
 10
-17.9979981019
 20
-9.5097085008
 30
0.0
 10
-17.9757785829
 20
-9.5168661817
 30
0.0
 10
-17.9616156142
 20
-9.5213574603
 30
0.0
 10
-17.9499765725
 20
-9.5249437276
 30
0.0
 10
-17.9419983813
 20
-9.5273600854
 30
0.0
 10
-17.9372316729
 20
-9.528649042
 30
0.0
 10
-17.9348185347
 20
-9.5293607632
 30
0.0
 10
-17.9334643321
 20
-9.5295101458
 30
0.0
 10
-17.9326254287
 20
-9.5298199853
 30
0.0
 10
-17.9324879775
 20
-9.5296788392
 30
0.0
 11
-18.027390544
 21
-9.4999999108
 31
0.0
 11
-17.9914400487
 21
-9.5118097048
 31
0.0
 11
-17.9750884949
 21
-9.5170738573
 31
0.0
 11
-17.9607664776
 21
-9.5216031637
 31
0.0
 11
-17.948959899
 21
-9.5252450713
 31
0.0
 11
-17.9401249509
 21
-9.5278575085
 31
0.0
 11
-17.9369228863
 21
-9.528748148
 31
0.0
 11
-17.9345656818
 21
-9.5293529017
 31
0.0
 11
-17.9330788685
 21
-9.5296652915
 31
0.0
 11
-17.9324879775
 21
-9.5296788392
 31
0.0
  0
SPLINE
  5
56C
100
AcDbEntity
  8
RACCORDO
100
AcDbSpline
 62
253
  6
CONTINUOUS
 70
0
 71
3
 72
16
 73
12
 74
10
 42
0.0000001
 43
0.0000001
 44
0.0000000001
 12
0.095117767
 22
-0.0291733282
 32
0.0
 13
0.0671464491
 23
0.0734154415
 33
0.0
 40
0.0
 40
0.0
 40
0.0
 40
0.0
 40
0.3803877745
 40
0.5530706122
 40
0.7040720721
 40
0.8282777416
 40
0.920894686
 40
0.9543069573
 40
0.9787723633
 40
0.9940485595
 40
1.0
 40
1.0
 40
1.0
 40
1.0
 10
-18.0341919882
 20
-9.5213014461
 30
0.0
 10
-18.022131443
 20
-9.5250005052
 30
0.0
 10
-18.0045766704
 20
-9.5303206156
 30
0.0
 10
-17.9821918636
 20
-9.5369539572
 30
0.0
 10
-17.9679245355
 20
-9.5411095622
 30
0.0
 10
-17.9562019218
 20
-9.5444186927
 30
0.0
 10
-17.9481664335
 20
-9.546642988
 30
0.0
 10
-17.9433694503
 20
-9.5478164135
 30
0.0
 10
-17.940938071
 20
-9.5484675791
 30
0.0
 10
-17.939581297
 20
-9.5485843545
 30
0.0
 10
-17.9387322321
 20
-9.5488701376
 30
0.0
 10
-17.938599026
 20
-9.548724495
 30
0.0
 11
-18.0341919882
 21
-9.5213014461
 31
0.0
 11
-17.9979701897
 21
-9.5322668199
 31
0.0
 11
-17.9814969027
 21
-9.5371450326
 31
0.0
 11
-17.9670696733
 21
-9.5413348407
 31
0.0
 11
-17.9551779927
 21
-9.5446952197
 31
0.0
 11
-17.9462813969
 21
-9.5470949439
 31
0.0
 11
-17.9430580051
 21
-9.5479074716
 31
0.0
 11
-17.9406860198
 21
-9.5484538018
 31
0.0
 11
-17.9391911303
 21
-9.5487280909
 31
0.0
 11
-17.938599026
 21
-9.548724495
 31
0.0
  0
SPLINE
  5
56D
100
AcDbEntity
  8
RACCORDO
100
AcDbSpline
 62
253
  6
CONTINUOUS
 70
0
 71
3
 72
14
 73
10
 74
8
 42
0.0000001
 43
0.0000001
 44
0.0000000001
 12
0.0989442417
 22
0.0302300281
 32
0.0
 13
-0.0197277854
 23
0.101560977
 33
0.0
 40
0.0
 40
0.0
 40
0.0
 40
0.0
 40
0.3748724449
 40
0.5462443315
 40
0.6966987794
 40
0.821024922
 40
0.9144235507
 40
0.9740455948
 40
1.0
 40
1.0
 40
1.0
 40
1.0
 10
-18.0315819888
 20
-15.4883746628
 30
0.0
 10
-18.0192181656
 20
-15.4845971946
 30
0.0
 10
-18.0012772716
 20
-15.4788097627
 30
0.0
 10
-17.9786336953
 20
-15.4708346474
 30
0.0
 10
-17.9641935167
 20
-15.4653745376
 30
0.0
 10
-17.9525793184
 20
-15.4605952571
 30
0.0
 10
-17.9435900155
 20
-15.4564198476
 30
0.0
 10
-17.938827591
 20
-15.4536114104
 30
0.0
 10
-17.9358156582
 20
-15.4513520686
 30
0.0
 10
-17.9359863325
 20
-15.450473417
 30
0.0
 11
-18.0315819888
 21
-15.4883746628
 31
0.0
 11
-17.994681683
 21
-15.4764344806
 31
0.0
 11
-17.9779661927
 21
-15.4705230035
 31
0.0
 11
-17.9634154867
 21
-15.4649935949
 31
0.0
 11
-17.9515421731
 21
-15.4600465531
 31
0.0
 11
-17.9428260329
 21
-15.4558750362
 31
0.0
 11
-17.9375750417
 21
-15.452638233
 31
0.0
 11
-17.9359863325
 21
-15.450473417
 31
0.0
  0
SPLINE
  5
56E
100
AcDbEntity
  8
RACCORDO
100
AcDbSpline
 62
253
  6
CONTINUOUS
 70
0
 71
3
 72
13
 73
9
 74
7
 42
0.0000001
 43
0.0000001
 44
0.0000000001
 12
0.0881541658
 22
0.5054733182
 32
0.0
 13
0.5130989622
 23
0.0019716514
 33
0.0
 40
0.0
 40
0.0
 40
0.0
 40
0.0
 40
0.0360020145
 40
0.1001310484
 40
0.1949879147
 40
0.3181446302
 40
0.6327285596
 40
1.0
 40
1.0
 40
1.0
 40
1.0
 10
-22.2087365975
 20
21.0706600114
 30
0.0
 10
-22.2076786884
 20
21.0767260306
 30
0.0
 10
-22.1928825315
 20
21.0892323982
 30
0.0
 10
-22.1625743199
 20
21.1008706944
 30
0.0
 10
-22.1153531814
 20
21.1131424972
 30
0.0
 10
-22.0257197641
 20
21.1283833396
 30
0.0
 10
-21.8882974136
 20
21.1409927767
 30
0.0
 10
-21.7717234667
 20
21.1446122113
 30
0.0
 10
-21.7089079351
 20
21.1448535884
 30
0.0
 11
-22.2087365975
 21
21.0706600114
 31
0.0
 11
-22.1969395387
 21
21.0848751883
 31
0.0
 11
-22.1670419497
 21
21.0986177849
 31
0.0
 11
-22.1200512928
 21
21.1112975114
 31
0.0
 11
-22.0578523481
 21
21.1224566504
 31
0.0
 11
-21.8972542624
 21
21.1386645296
 31
0.0
 11
-21.7089079351
 21
21.1448535884
 31
0.0
  0
SPLINE
  5
56F
100
AcDbEntity
  8
RACCORDO
100
AcDbSpline
 62
253
  6
CONTINUOUS
 70
0
 71
3
 72
18
 73
14
 74
12
 42
0.0000001
 43
0.0000001
 44
0.0000000001
 12
-0.0016732919
 22
0.8515323415
 32
0.0
 13
-0.3806837034
 23
0.761702072
 33
0.0
 40
0.0
 40
0.0
 40
0.0
 40
0.0
 40
0.1989114578
 40
0.3865225376
 40
0.5571351371
 40
0.7055481165
 40
0.8272476368
 40
0.8768895057
 40
0.9185405617
 40
0.9518856985
 40
0.9766758384
 40
0.9927380865
 40
1.0
 40
1.0
 40
1.0
 40
1.0
 10
-21.7089079351
 20
21.1448536428
 30
0.0
 10
-21.7090188807
 20
21.2013134892
 30
0.0
 10
-21.7093589306
 20
21.3110254991
 30
0.0
 10
-21.7102451073
 20
21.469162803
 30
0.0
 10
-21.7114637423
 20
21.612964706
 30
0.0
 10
-21.712982773
 20
21.7380511792
 30
0.0
 10
-21.7145099693
 20
21.8288045236
 30
0.0
 10
-21.7159304588
 20
21.8892371135
 30
0.0
 10
-21.7169134406
 20
21.9246183381
 30
0.0
 10
-21.7180493266
 20
21.952875587
 30
0.0
 10
-21.7188657015
 20
21.9740259741
 30
0.0
 10
-21.7203080562
 20
21.9874237252
 30
0.0
 10
-21.7205917169
 20
21.9942799002
 30
0.0
 10
-21.7215132142
 20
21.996123705
 30
0.0
 11
-21.7089079351
 21
21.1448536428
 31
0.0
 11
-21.7094416351
 21
21.3142326683
 31
0.0
 11
-21.7103521995
 21
21.4739872839
 31
0.0
 11
-21.7116121525
 21
21.6192642472
 31
0.0
 11
-21.7131832591
 21
21.7456331769
 31
0.0
 11
-21.715017763
 21
21.8492482157
 31
0.0
 11
-21.7160166155
 21
21.8915081515
 31
0.0
 11
-21.7170598276
 21
21.9269600957
 31
0.0
 11
-21.718139433
 21
21.9553340813
 31
0.0
 11
-21.7192471762
 21
21.9764146432
 31
0.0
 11
-21.7203748014
 21
21.9900456313
 31
0.0
 11
-21.7215132142
 21
21.996123705
 31
0.0
  0
SPLINE
  5
570
100
AcDbEntity
  8
RACCORDO
100
AcDbSpline
 62
253
  6
CONTINUOUS
 70
0
 71
3
 72
18
 73
14
 74
12
 42
0.0000001
 43
0.0000001
 44
0.0000000001
 12
-0.0016744192
 22
0.4261537671
 32
0.0
 13
-0.3013095002
 23
0.3013675862
 33
0.0
 40
0.0
 40
0.0
 40
0.0
 40
0.0
 40
0.198756215
 40
0.3862203901
 40
0.5567013185
 40
0.7050084085
 40
0.8266425121
 40
0.8762737265
 40
0.9179338898
 40
0.9513145447
 40
0.9761791206
 40
0.9923860717
 40
1.0
 40
1.0
 40
1.0
 40
1.0
 10
-22.2087365975
 20
21.0706600114
 30
0.0
 10
-22.2088475313
 20
21.0988935813
 30
0.0
 10
-22.2091877099
 20
21.1537563522
 30
0.0
 10
-22.2100738606
 20
21.2328322113
 30
0.0
 10
-22.2112935095
 20
21.3047375042
 30
0.0
 10
-22.2128105883
 20
21.3672803256
 30
0.0
 10
-22.2143433603
 20
21.4126574494
 30
0.0
 10
-22.2157551
 20
21.4428627534
 30
0.0
 10
-22.2167571409
 20
21.460563891
 30
0.0
 10
-22.2178423905
 20
21.4746644269
 30
0.0
 10
-22.2187819486
 20
21.4853202034
 30
0.0
 10
-22.2199942886
 20
21.4919103875
 30
0.0
 10
-22.2205771604
 20
21.4955301788
 30
0.0
 10
-22.2213418767
 20
21.4962950425
 30
0.0
 11
-22.2087365975
 21
21.0706600114
 31
0.0
 11
-22.2092703795
 21
21.1553596931
 31
0.0
 11
-22.2101811446
 21
21.2352436824
 31
0.0
 11
-22.2114413296
 21
21.307884403
 31
0.0
 11
-22.2130126051
 21
21.371066981
 31
0.0
 11
-22.2148471304
 21
21.4228697392
 31
0.0
 11
-22.2158459195
 21
21.4439968356
 31
0.0
 11
-22.2168890325
 21
21.4617199379
 31
0.0
 11
-22.2179685083
 21
21.4759043231
 31
0.0
 11
-22.2190760826
 21
21.4864424938
 31
0.0
 11
-22.2202034981
 21
21.4932565623
 31
0.0
 11
-22.2213418767
 21
21.4962950425
 31
0.0
  0
SPLINE
  5
571
100
AcDbEntity
  8
RACCORDO
100
AcDbSpline
 62
253
  6
CONTINUOUS
 70
0
 71
3
 72
18
 73
14
 74
12
 42
0.0000001
 43
0.0000001
 44
0.0000000001
 12
0.404658987
 22
0.2938663085
 32
0.0
 13
0.5001062299
 23
0.0002487742
 33
0.0
 40
0.0
 40
0.0
 40
0.0
 40
0.0
 40
0.0074247357
 40
0.0239633923
 40
0.0495092467
 40
0.0838839762
 40
0.1268427965
 40
0.1779184207
 40
0.3023243205
 40
0.4526536472
 40
0.6234464966
 40
0.8085434565
 40
1.0
 40
1.0
 40
1.0
 40
1.0
 10
-22.1832139986
 20
9.4905
 30
0.0
 10
-22.1822125032
 20
9.4912272932
 30
0.0
 10
-22.1779589333
 20
9.4914797503
 30
0.0
 10
-22.1699893311
 20
9.4926203028
 30
0.0
 10
-22.1571439677
 20
9.4932881319
 30
0.0
 10
-22.1400663441
 20
9.4941966857
 30
0.0
 10
-22.1186557735
 20
9.4949805016
 30
0.0
 10
-22.0822667885
 20
9.4961007425
 30
0.0
 10
-22.0279602433
 20
9.4972866755
 30
0.0
 10
-21.9537003944
 20
9.4984257878
 30
0.0
 10
-21.8693159687
 20
9.4992886963
 30
0.0
 10
-21.7780738456
 20
9.4998375172
 30
0.0
 10
-21.7153015395
 20
9.4999841228
 30
0.0
 10
-21.6833853361
 20
9.4999999993
 30
0.0
 11
-22.1832139986
 21
9.4905
 31
0.0
 11
-22.1796147085
 21
9.4914124945
 31
0.0
 11
-22.1713935415
 21
9.4923198424
 31
0.0
 11
-22.1586490929
 21
9.4932120709
 31
0.0
 11
-22.141479958
 21
9.494079207
 31
0.0
 11
-22.1200121213
 21
9.494911808
 31
0.0
 11
-22.0944811227
 21
9.4957025515
 31
0.0
 11
-22.0322813567
 21
9.4971312966
 31
0.0
 11
-21.9571100101
 21
9.4983134971
 31
0.0
 11
-21.8717001027
 21
9.499206781
 31
0.0
 11
-21.7791336945
 21
9.4997753338
 31
0.0
 11
-21.6833853361
 21
9.4999999993
 31
0.0
  0
SPLINE
  5
572
100
AcDbEntity
  8
RACCORDO
100
AcDbSpline
 62
253
  6
CONTINUOUS
 70
0
 71
3
 72
18
 73
14
 74
12
 42
0.0000001
 43
0.0000001
 44
0.0000000001
 12
0.4046585994
 22
-0.2938668426
 32
0.0
 13
0.5001062301
 23
-0.0002487742
 33
0.0
 40
0.0
 40
0.0
 40
0.0
 40
0.0
 40
0.0074247295
 40
0.0239633807
 40
0.0495092305
 40
0.0838839563
 40
0.1268427741
 40
0.1779183967
 40
0.302324296
 40
0.4526536255
 40
0.6234464805
 40
0.808543448
 40
1.0
 40
1.0
 40
1.0
 40
1.0
 10
-22.1832139986
 20
-9.4905
 30
0.0
 10
-22.182212505
 20
-9.4912272939
 30
0.0
 10
-22.1779589356
 20
-9.4914797498
 30
0.0
 10
-22.1699893374
 20
-9.4926203034
 30
0.0
 10
-22.1571439756
 20
-9.4932881319
 30
0.0
 10
-22.1400663541
 20
-9.494196686
 30
0.0
 10
-22.1186557847
 20
-9.4949805019
 30
0.0
 10
-22.0822668005
 20
-9.4961007428
 30
0.0
 10
-22.0279602551
 20
-9.497286676
 30
0.0
 10
-21.9537004049
 20
-9.4984257884
 30
0.0
 10
-21.8693159765
 20
-9.4992886969
 30
0.0
 10
-21.7780738497
 20
-9.4998375178
 30
0.0
 10
-21.7153015409
 20
-9.4999841235
 30
0.0
 10
-21.6833853361
 20
-9.5
 30
0.0
 11
-22.1832139986
 21
-9.4905
 31
0.0
 11
-22.1796147117
 21
-9.4914124945
 31
0.0
 11
-22.1713935474
 21
-9.4923198425
 31
0.0
 11
-22.1586491011
 21
-9.493212071
 31
0.0
 11
-22.1414799681
 21
-9.4940792072
 31
0.0
 11
-22.1200121326
 21
-9.4949118083
 31
0.0
 11
-22.0944811349
 21
-9.4957025518
 31
0.0
 11
-22.032281369
 21
-9.497131297
 31
0.0
 11
-21.957110021
 21
-9.4983134977
 31
0.0
 11
-21.8717001108
 21
-9.4992067816
 31
0.0
 11
-21.7791336988
 21
-9.4997753344
 31
0.0
 11
-21.6833853361
 21
-9.5
 31
0.0
  0
SPLINE
  5
573
100
AcDbEntity
  8
RACCORDO
100
AcDbSpline
 62
253
  6
CONTINUOUS
 70
0
 71
3
 72
9
 73
5
 74
3
 42
0.0000001
 43
0.0000001
 44
0.0000000001
 12
0.009445364
 22
18.9809980905
 32
0.0
 13
-0.009445363
 23
18.9809980905
 33
0.0
 40
0.0
 40
0.0
 40
0.0
 40
0.0
 40
0.2499885537
 40
1.0
 40
1.0
 40
1.0
 40
1.0
 10
-22.1832139986
 20
-9.4905
 30
0.0
 10
-22.1824269209
 20
-7.9088225799
 30
0.0
 10
-22.1800658658
 20
-1.5818228491
 30
0.0
 10
-22.1808526218
 20
4.7451780566
 30
0.0
 10
-22.1832139986
 20
9.4905
 30
0.0
 11
-22.1832139986
 21
-9.4905
 31
0.0
 11
-22.1814431676
 21
-4.7454674827
 31
0.0
 11
-22.1832139986
 21
9.4905
 31
0.0
  0
SPLINE
  5
574
100
AcDbEntity
  8
RACCORDO
100
AcDbSpline
 62
253
  6
CONTINUOUS
 70
0
 71
3
 72
13
 73
9
 74
7
 42
0.0000001
 43
0.0000001
 44
0.0000000001
 12
0.0881532719
 22
-0.5054734984
 32
0.0
 13
0.5130989861
 23
-0.0019716548
 33
0.0
 40
0.0
 40
0.0
 40
0.0
 40
0.0
 40
0.0360019888
 40
0.1001309819
 40
0.1949878113
 40
0.3181445043
 40
0.6327284569
 40
1.0
 40
1.0
 40
1.0
 40
1.0
 10
-22.2087365975
 20
-21.0706600114
 30
0.0
 10
-22.2076786998
 20
-21.0767260285
 30
0.0
 10
-22.1928825637
 20
-21.0892324093
 30
0.0
 10
-22.1625743691
 20
-21.1008707068
 30
0.0
 10
-22.1153532487
 20
-21.1131425189
 30
0.0
 10
-22.0257198349
 20
-21.1283833723
 30
0.0
 10
-21.8882974611
 20
-21.1409928216
 30
0.0
 10
-21.7717234872
 20
-21.1446122597
 30
0.0
 10
-21.7089079351
 20
-21.1448536373
 30
0.0
 11
-22.2087365975
 21
-21.0706600114
 31
0.0
 11
-22.1969395643
 21
-21.0848751936
 31
0.0
 11
-22.1670419996
 21
-21.0986177965
 31
0.0
 11
-22.1200513621
 21
-21.1112975304
 31
0.0
 11
-22.0578524275
 21
-21.1224566773
 31
0.0
 11
-21.8972543238
 21
-21.1386645713
 31
0.0
 11
-21.7089079351
 21
-21.1448536373
 31
0.0
  0
SPLINE
  5
575
100
AcDbEntity
  8
RACCORDO
100
AcDbSpline
 62
253
  6
CONTINUOUS
 70
0
 71
3
 72
18
 73
14
 74
12
 42
0.0000001
 43
0.0000001
 44
0.0000000001
 12
0.3808931971
 22
0.7615973282
 32
0.0
 13
0.00167257
 23
0.8515323367
 33
0.0
 40
0.0
 40
0.0
 40
0.0
 40
0.0
 40
0.0072625447
 40
0.0233261661
 40
0.0481178773
 40
0.0814657325
 40
0.1231185188
 40
0.1727634235
 40
0.2944663947
 40
0.4428807079
 40
0.613491335
 40
0.8010980914
 40
1.0
 40
1.0
 40
1.0
 40
1.0
 10
-21.7215132142
 20
-21.996123705
 30
0.0
 10
-21.7205911296
 20
-21.9942799935
 30
0.0
 10
-21.7203083552
 20
-21.9874227308
 30
0.0
 10
-21.7188654992
 20
-21.9740243527
 30
0.0
 10
-21.7180494116
 20
-21.9528721566
 30
0.0
 10
-21.7169135335
 20
-21.9246132765
 30
0.0
 10
-21.7159305921
 20
-21.8892298968
 30
0.0
 10
-21.7145102142
 20
-21.8287949849
 30
0.0
 10
-21.7129829616
 20
-21.7380394146
 30
0.0
 10
-21.7114638395
 20
-21.6129521482
 30
0.0
 10
-21.7102450792
 20
-21.4691516547
 30
0.0
 10
-21.7093588577
 20
-21.3110188501
 30
0.0
 10
-21.7090188275
 20
-21.2013107784
 30
0.0
 10
-21.7089079351
 20
-21.1448536428
 30
0.0
 11
-21.7215132142
 21
-21.996123705
 31
0.0
 11
-21.7203746555
 21
-21.9900451119
 31
0.0
 11
-21.7192471446
 21
-21.976412941
 31
0.0
 11
-21.7181394484
 21
-21.9553310369
 31
0.0
 11
-21.7170599088
 21
-21.9269547325
 31
0.0
 11
-21.7160167531
 21
-21.8915013129
 31
0.0
 11
-21.7150179446
 21
-21.8492387906
 31
0.0
 11
-21.7131834351
 21
-21.7456208136
 31
0.0
 11
-21.7116122379
 21
-21.6192507501
 31
0.0
 11
-21.7103521818
 21
-21.4739754683
 31
0.0
 11
-21.7094415679
 21
-21.3142245358
 31
0.0
 11
-21.7089079351
 21
-21.1448536428
 31
0.0
  0
SPLINE
  5
576
100
AcDbEntity
  8
RACCORDO
100
AcDbSpline
 62
253
  6
CONTINUOUS
 70
0
 71
3
 72
18
 73
14
 74
12
 42
0.0000001
 43
0.0000001
 44
0.0000000001
 12
0.3013391574
 22
0.3013378892
 32
0.0
 13
0.0016744864
 23
0.4261537368
 33
0.0
 40
0.0
 40
0.0
 40
0.0
 40
0.0
 40
0.0076152328
 40
0.0238242167
 40
0.0486902981
 40
0.0820737098
 40
0.123735542
 40
0.1733694449
 40
0.2950062165
 40
0.4433140516
 40
0.6137929023
 40
0.8012529578
 40
1.0
 40
1.0
 40
1.0
 40
1.0
 10
-22.2213418767
 20
-21.4962950425
 30
0.0
 10
-22.2205769541
 20
-21.4955301232
 30
0.0
 10
-22.2199944599
 20
-21.4919095539
 30
0.0
 10
-22.2187817515
 20
-21.485318904
 30
0.0
 10
-22.2178422661
 20
-21.4746621329
 30
0.0
 10
-22.2167569994
 20
-21.4605607925
 30
0.0
 10
-22.2157548982
 20
-21.4428586338
 30
0.0
 10
-22.2143432072
 20
-21.4126523366
 30
0.0
 10
-22.2128104031
 20
-21.3672743469
 30
0.0
 10
-22.2112933666
 20
-21.3047313401
 30
0.0
 10
-22.2100737632
 20
-21.2328268258
 30
0.0
 10
-22.2091876653
 20
-21.1537531553
 30
0.0
 10
-22.2088475306
 20
-21.0988922763
 30
0.0
 10
-22.2087365975
 20
-21.0706600114
 30
0.0
 11
-22.2213418767
 21
-21.4962950425
 31
0.0
 11
-22.2202034621
 21
-21.4932559824
 31
0.0
 11
-22.2190759751
 21
-21.4864410481
 31
0.0
 11
-22.2179683665
 21
-21.4759022367
 31
0.0
 11
-22.2168888724
 21
-21.4617166757
 31
0.0
 11
-22.215845736
 21
-21.4439928635
 31
0.0
 11
-22.2148469405
 21
-21.4228646219
 31
0.0
 11
-22.2130124196
 21
-21.3710607296
 31
0.0
 11
-22.2114411728
 21
-21.3078778376
 31
0.0
 11
-22.2101810396
 21
-21.2352380069
 31
0.0
 11
-22.2092703285
 21
-21.1553557782
 31
0.0
 11
-22.2087365975
 21
-21.0706600114
 31
0.0
  0
SPLINE
  5
577
100
AcDbEntity
  8
RACCORDO
100
AcDbSpline
 62
253
  6
CONTINUOUS
 70
0
 71
3
 72
18
 73
14
 74
12
 42
0.0000001
 43
0.0000001
 44
0.0000000001
 12
-0.3807002077
 22
-0.7616938215
 32
0.0
 13
-0.0016733625
 23
-0.8515323398
 33
0.0
 40
0.0
 40
0.0
 40
0.0
 40
0.0
 40
0.007261748
 40
0.0233236307
 40
0.0481133867
 40
0.0814578352
 40
0.1231084649
 40
0.1727496534
 40
0.2944484039
 40
0.4428610403
 40
0.6134740927
 40
0.8010861991
 40
1.0
 40
1.0
 40
1.0
 40
1.0
 10
21.5710768709
 20
21.996123705
 30
0.0
 10
21.5701553545
 20
21.9942799622
 30
0.0
 10
21.569871756
 20
21.9874239068
 30
0.0
 10
21.5684294285
 20
21.9740264356
 30
0.0
 10
21.5676130568
 20
21.9528764459
 30
0.0
 10
21.566477161
 20
21.9246196277
 30
0.0
 10
21.5654941907
 20
21.8892389107
 30
0.0
 10
21.5640736738
 20
21.8288068552
 30
0.0
 10
21.5625464707
 20
21.7380540194
 30
0.0
 10
21.5610274146
 20
21.6129677344
 30
0.0
 10
21.5598087712
 20
21.469165509
 30
0.0
 10
21.5589225795
 20
21.3110271204
 30
0.0
 10
21.5585825433
 20
21.2013141542
 30
0.0
 10
21.5584715917
 20
21.1448536428
 30
0.0
 11
21.5710768709
 21
21.996123705
 31
0.0
 11
21.5699384732
 21
21.9900457719
 31
0.0
 11
21.5688108984
 21
21.9764150918
 31
0.0
 11
21.5677031603
 21
21.955334857
 31
0.0
 11
21.5666235555
 21
21.926961458
 31
0.0
 11
21.5655803422
 21
21.8915098771
 31
0.0
 11
21.5645814819
 21
21.8492505211
 31
0.0
 11
21.5627469587
 21
21.7456361384
 31
0.0
 11
21.5611758321
 21
21.6192675013
 31
0.0
 11
21.5599158646
 21
21.4739901527
 31
0.0
 11
21.5590052918
 21
21.3142346633
 31
0.0
 11
21.5584715917
 21
21.1448536428
 31
0.0
  0
SPLINE
  5
578
100
AcDbEntity
  8
RACCORDO
100
AcDbSpline
 62
253
  6
CONTINUOUS
 70
0
 71
3
 72
18
 73
14
 74
12
 42
0.0000001
 43
0.0000001
 44
0.0000000001
 12
-0.3013016073
 22
-0.3013754784
 32
0.0
 13
-0.0016744407
 23
-0.4261537678
 33
0.0
 40
0.0
 40
0.0
 40
0.0
 40
0.0
 40
0.0076138089
 40
0.0238203748
 40
0.0486845204
 40
0.0820644552
 40
0.123724161
 40
0.1733546615
 40
0.2949879771
 40
0.4432947581
 40
0.6137761907
 40
0.8012414371
 40
1.0
 40
1.0
 40
1.0
 40
1.0
 10
22.0709055333
 20
21.4962950425
 30
0.0
 10
22.0701408491
 20
21.4955301708
 30
0.0
 10
22.0695579354
 20
21.4919105015
 30
0.0
 10
22.0683456491
 20
21.4853204098
 30
0.0
 10
22.0674060827
 20
21.4746648713
 30
0.0
 10
22.0663208331
 20
21.4605645567
 30
0.0
 10
22.0653188077
 20
21.4428636899
 30
0.0
 10
22.0639070542
 20
21.4126586641
 30
0.0
 10
22.0623742882
 20
21.367281798
 30
0.0
 10
22.0608571954
 20
21.3047390608
 30
0.0
 10
22.0596375366
 20
21.232833588
 30
0.0
 10
22.0587513709
 20
21.1537571716
 30
0.0
 10
22.0584111906
 20
21.0988939149
 30
0.0
 10
22.0583002542
 20
21.0706600114
 30
0.0
 11
22.0709055333
 21
21.4962950425
 31
0.0
 11
22.0697671651
 21
21.4932566127
 31
0.0
 11
22.0686397681
 21
21.4864427075
 31
0.0
 11
22.0675322018
 21
21.4759047204
 31
0.0
 11
22.0664527305
 21
21.4617206426
 31
0.0
 11
22.0654096225
 21
21.4439977353
 31
0.0
 11
22.0644108341
 21
21.4228709434
 31
0.0
 11
22.0625763054
 21
21.3710685213
 31
0.0
 11
22.0610050204
 21
21.307886075
 31
0.0
 11
22.0597448221
 21
21.2352451397
 31
0.0
 11
22.0588340446
 21
21.1553606937
 31
0.0
 11
22.0583002542
 21
21.0706600114
 31
0.0
  0
SPLINE
  5
579
100
AcDbEntity
  8
RACCORDO
100
AcDbSpline
 62
253
  6
CONTINUOUS
 70
0
 71
3
 72
13
 73
9
 74
7
 42
0.0000001
 43
0.0000001
 44
0.0000000001
 12
-0.0881534431
 22
0.5054734656
 32
0.0
 13
-0.5130989832
 23
0.0019716546
 33
0.0
 40
0.0
 40
0.0
 40
0.0
 40
0.0
 40
0.0360019936
 40
0.1001309917
 40
0.1949878241
 40
0.3181445179
 40
0.6327284661
 40
1.0
 40
1.0
 40
1.0
 40
1.0
 10
22.0583002542
 20
21.0706600114
 30
0.0
 10
22.0572423543
 20
21.0767260289
 30
0.0
 10
22.0424462156
 20
21.0892324076
 30
0.0
 10
22.0121380188
 20
21.1008707056
 30
0.0
 10
21.9649168969
 20
21.1131425167
 30
0.0
 10
21.8752834836
 20
21.1283833695
 30
0.0
 10
21.7378611128
 20
21.1409928179
 30
0.0
 10
21.6212871419
 20
21.1446122559
 30
0.0
 10
21.5584715917
 20
21.1448536334
 30
0.0
 11
22.0583002542
 21
21.0706600114
 31
0.0
 11
22.0465032167
 21
21.0848751931
 31
0.0
 11
22.016605649
 21
21.0986177953
 31
0.0
 11
21.96961501
 21
21.1112975285
 31
0.0
 11
21.9074160752
 21
21.1224566748
 31
0.0
 11
21.7468179746
 21
21.1386645678
 31
0.0
 11
21.5584715917
 21
21.1448536334
 31
0.0
  0
SPLINE
  5
57A
100
AcDbEntity
  8
RACCORDO
100
AcDbSpline
 62
253
  6
CONTINUOUS
 70
0
 71
3
 72
18
 73
14
 74
12
 42
0.0000001
 43
0.0000001
 44
0.0000000001
 12
-0.4046586045
 22
0.2938668356
 32
0.0
 13
-0.5001062301
 23
0.0002487742
 33
0.0
 40
0.0
 40
0.0
 40
0.0
 40
0.0
 40
0.0074247296
 40
0.0239633808
 40
0.0495092307
 40
0.0838839566
 40
0.1268427743
 40
0.177918397
 40
0.3023242963
 40
0.4526536258
 40
0.6234464807
 40
0.8085434481
 40
1.0
 40
1.0
 40
1.0
 40
1.0
 10
22.0327776552
 20
9.4905
 30
0.0
 10
22.0317761616
 20
9.4912272939
 30
0.0
 10
22.0275225922
 20
9.4914797498
 30
0.0
 10
22.0195529939
 20
9.4926203034
 30
0.0
 10
22.0067076322
 20
9.4932881319
 30
0.0
 10
21.9896300105
 20
9.494196686
 30
0.0
 10
21.9682194411
 20
9.4949805019
 30
0.0
 10
21.9318304569
 20
9.4961007428
 30
0.0
 10
21.8775239116
 20
9.497286676
 30
0.0
 10
21.8032640614
 20
9.4984257884
 30
0.0
 10
21.718879633
 20
9.4992886969
 30
0.0
 10
21.6276375062
 20
9.4998375178
 30
0.0
 10
21.5648651975
 20
9.4999841235
 30
0.0
 10
21.5329489927
 20
9.5
 30
0.0
 11
22.0327776552
 21
9.4905
 31
0.0
 11
22.0291783682
 21
9.4914124945
 31
0.0
 11
22.020957204
 21
9.4923198425
 31
0.0
 11
22.0082127576
 21
9.493212071
 31
0.0
 11
21.9910436246
 21
9.4940792072
 31
0.0
 11
21.9695757891
 21
9.4949118083
 31
0.0
 11
21.9440447913
 21
9.4957025518
 31
0.0
 11
21.8818450255
 21
9.497131297
 31
0.0
 11
21.8066736775
 21
9.4983134977
 31
0.0
 11
21.7212637673
 21
9.4992067816
 31
0.0
 11
21.6286973553
 21
9.4997753344
 31
0.0
 11
21.5329489927
 21
9.5
 31
0.0
  0
SPLINE
  5
57B
100
AcDbEntity
  8
RACCORDO
100
AcDbSpline
 62
253
  6
CONTINUOUS
 70
0
 71
3
 72
9
 73
5
 74
3
 42
0.0000001
 43
0.0000001
 44
0.0000000001
 12
-0.009445363
 22
-18.9809980905
 32
0.0
 13
0.009445364
 23
-18.9809980905
 33
0.0
 40
0.0
 40
0.0
 40
0.0
 40
0.0
 40
0.2499885537
 40
1.0
 40
1.0
 40
1.0
 40
1.0
 10
22.0327776552
 20
9.4905
 30
0.0
 10
22.0319905776
 20
7.9088225799
 30
0.0
 10
22.0296295223
 20
1.5818228492
 30
0.0
 10
22.0304162781
 20
-4.7451780566
 30
0.0
 10
22.0327776552
 20
-9.4905
 30
0.0
 11
22.0327776552
 21
9.4905
 31
0.0
 11
22.0310068242
 21
4.7454674827
 31
0.0
 11
22.0327776552
 21
-9.4905
 31
0.0
  0
SPLINE
  5
57C
100
AcDbEntity
  8
RACCORDO
100
AcDbSpline
 62
253
  6
CONTINUOUS
 70
0
 71
3
 72
18
 73
14
 74
12
 42
0.0000001
 43
0.0000001
 44
0.0000000001
 12
-0.4046592643
 22
-0.2938659266
 32
0.0
 13
-0.5001062298
 23
-0.0002487742
 33
0.0
 40
0.0
 40
0.0
 40
0.0
 40
0.0
 40
0.0074247402
 40
0.0239634007
 40
0.0495092584
 40
0.0838839904
 40
0.1268428126
 40
0.177918438
 40
0.3023243381
 40
0.4526536628
 40
0.6234465081
 40
0.8085434626
 40
1.0
 40
1.0
 40
1.0
 40
1.0
 10
22.0327776552
 20
-9.4905
 30
0.0
 10
22.0317761585
 20
-9.4912272927
 30
0.0
 10
22.0275225883
 20
-9.4914797506
 30
0.0
 10
22.0195529833
 20
-9.4926203024
 30
0.0
 10
22.0067076187
 20
-9.4932881319
 30
0.0
 10
21.9896299936
 20
-9.4941966855
 30
0.0
 10
21.9682194221
 20
-9.4949805015
 30
0.0
 10
21.9318304365
 20
-9.4961007422
 30
0.0
 10
21.8775238914
 20
-9.4972866752
 30
0.0
 10
21.8032640435
 20
-9.4984257874
 30
0.0
 10
21.7188796198
 20
-9.4992886958
 30
0.0
 10
21.6276374992
 20
-9.4998375167
 30
0.0
 10
21.564865195
 20
-9.4999841223
 30
0.0
 10
21.5329489927
 20
-9.4999999988
 30
0.0
 11
22.0327776552
 21
-9.4905
 31
0.0
 11
22.0291783628
 21
-9.4914124945
 31
0.0
 11
22.0209571938
 21
-9.4923198423
 31
0.0
 11
22.0082127436
 21
-9.4932120708
 31
0.0
 11
21.9910436075
 21
-9.4940792069
 31
0.0
 11
21.9695757698
 21
-9.4949118078
 31
0.0
 11
21.9440447706
 21
-9.4957025512
 31
0.0
 11
21.8818450044
 21
-9.4971312963
 31
0.0
 11
21.8066736588
 21
-9.4983134967
 31
0.0
 11
21.7212637535
 21
-9.4992067805
 31
0.0
 11
21.628697348
 21
-9.4997753333
 31
0.0
 11
21.5329489927
 21
-9.4999999988
 31
0.0
  0
SPLINE
  5
57D
100
AcDbEntity
  8
RACCORDO
100
AcDbSpline
 62
253
  6
CONTINUOUS
 70
0
 71
3
 72
13
 73
9
 74
7
 42
0.0000001
 43
0.0000001
 44
0.0000000001
 12
-0.0881531322
 22
-0.5054735241
 32
0.0
 13
-0.5130989874
 23
-0.0019716543
 33
0.0
 40
0.0
 40
0.0
 40
0.0
 40
0.0
 40
0.0360019852
 40
0.1001309761
 40
0.1949878058
 40
0.3181445006
 40
0.6327284566
 40
1.0
 40
1.0
 40
1.0
 40
1.0
 10
22.0583002542
 20
-21.0706600114
 30
0.0
 10
22.0572423582
 20
-21.0767260282
 30
0.0
 10
22.0424462232
 20
-21.0892324104
 30
0.0
 10
22.0121380296
 20
-21.100870707
 30
0.0
 10
21.9649169089
 20
-21.1131425194
 30
0.0
 10
21.8752834939
 20
-21.1283833723
 30
0.0
 10
21.7378611189
 20
-21.1409928212
 30
0.0
 10
21.621287144
 20
-21.1446122591
 30
0.0
 10
21.5584715917
 20
-21.1448536366
 30
0.0
 11
22.0583002542
 21
-21.0706600114
 31
0.0
 11
22.046503224
 21
-21.0848751937
 31
0.0
 11
22.0166056604
 21
-21.0986177967
 31
0.0
 11
21.9696150226
 21
-21.1112975306
 31
0.0
 11
21.9074160869
 21
-21.1224566775
 31
0.0
 11
21.746817981
 21
-21.138664571
 31
0.0
 11
21.5584715917
 21
-21.1448536366
 31
0.0
  0
SPLINE
  5
57E
100
AcDbEntity
  8
RACCORDO
100
AcDbSpline
 62
253
  6
CONTINUOUS
 70
0
 71
3
 72
18
 73
14
 74
12
 42
0.0000001
 43
0.0000001
 44
0.0000000001
 12
0.0016727185
 22
-0.8515323328
 32
0.0
 13
0.3808848504
 23
-0.7616014985
 33
0.0
 40
0.0
 40
0.0
 40
0.0
 40
0.0
 40
0.1988994075
 40
0.3865051437
 40
0.5571153508
 40
0.7055300167
 40
0.8272338795
 40
0.8768795517
 40
0.9185327419
 40
0.9518812354
 40
0.976673366
 40
0.9927372832
 40
1.0
 40
1.0
 40
1.0
 40
1.0
 10
21.5584715917
 20
-21.1448536428
 30
0.0
 10
21.5585824926
 20
-21.2013100683
 30
0.0
 10
21.5589224941
 20
-21.31101714
 30
0.0
 10
21.5598086957
 20
-21.4691488253
 30
0.0
 10
21.5610274458
 20
-21.6129490095
 30
0.0
 10
21.5625465653
 20
-21.7380365095
 30
0.0
 10
21.5640738391
 20
-21.82879265
 30
0.0
 10
21.565494211
 20
-21.8892281478
 30
0.0
 10
21.5664771753
 20
-21.92461204
 30
0.0
 10
21.5676130492
 20
-21.9528713365
 30
0.0
 10
21.5684291537
 20
-21.9740239135
 30
0.0
 10
21.5698720229
 20
-21.9874225485
 30
0.0
 10
21.5701547846
 20
-21.9942799397
 30
0.0
 10
21.5710768709
 20
-21.996123705
 30
0.0
 11
21.5584715917
 21
-21.1448536428
 31
0.0
 11
21.5590052053
 21
-21.3142224054
 31
0.0
 11
21.5599157973
 21
-21.4739724686
 31
0.0
 11
21.5611758418
 21
-21.6192473921
 31
0.0
 11
21.5627470406
 21
-21.7456177554
 31
0.0
 11
21.5645815624
 21
-21.8492364911
 31
0.0
 11
21.5655803786
 21
-21.8914996667
 31
0.0
 11
21.5666235433
 21
-21.9269534301
 31
0.0
 11
21.5677030911
 21
-21.955330278
 31
0.0
 11
21.5688108008
 21
-21.9764125388
 31
0.0
 11
21.5699383155
 21
-21.9900449622
 31
0.0
 11
21.5710768709
 21
-21.996123705
 31
0.0
  0
SPLINE
  5
57F
100
AcDbEntity
  8
RACCORDO
100
AcDbSpline
 62
253
  6
CONTINUOUS
 70
0
 71
3
 72
18
 73
14
 74
12
 42
0.0000001
 43
0.0000001
 44
0.0000000001
 12
0.0016745009
 22
-0.4261537345
 32
0.0
 13
0.3013282203
 23
-0.3013488229
 33
0.0
 40
0.0
 40
0.0
 40
0.0
 40
0.0
 40
0.1987445378
 40
0.386203614
 40
0.5566821085
 40
0.704990343
 40
0.8266280002
 40
0.8762626497
 40
0.917924854
 40
0.951308854
 40
0.97617532
 40
0.9923845814
 40
1.0
 40
1.0
 40
1.0
 40
1.0
 10
22.0583002542
 20
-21.0706600114
 30
0.0
 10
22.0584111868
 20
-21.0988919204
 30
0.0
 10
22.058751317
 20
-21.1537523042
 30
0.0
 10
22.0596373981
 20
-21.232825429
 30
0.0
 10
22.0608569905
 20
-21.30472981
 30
0.0
 10
22.0623740143
 20
-21.3672729491
 30
0.0
 10
22.0639068268
 20
-21.4126512262
 30
0.0
 10
22.0653185011
 20
-21.4428578102
 30
0.0
 10
22.0663206229
 20
-21.4605602082
 30
0.0
 10
22.0674058823
 20
-21.4746617464
 30
0.0
 10
22.068345381
 20
-21.485318681
 30
0.0
 10
22.0695580969
 20
-21.4919094781
 30
0.0
 10
22.0701406198
 20
-21.4955300767
 30
0.0
 10
22.0709055333
 20
-21.4962950425
 30
0.0
 11
22.0583002542
 21
-21.0706600114
 31
0.0
 11
22.0588339761
 21
-21.1553547106
 31
0.0
 11
22.0597446729
 21
-21.2352365216
 31
0.0
 11
22.0610047924
 21
-21.3078762004
 31
0.0
 11
22.0625760309
 21
-21.3710592625
 31
0.0
 11
22.0644105495
 21
-21.4228635323
 31
0.0
 11
22.0654093462
 21
-21.4439920922
 31
0.0
 11
22.0664524886
 21
-21.4617160628
 31
0.0
 11
22.0675319872
 21
-21.4759018748
 31
0.0
 11
22.0686396046
 21
-21.48644085
 31
0.0
 11
22.0697671101
 21
-21.4932559011
 31
0.0
 11
22.0709055333
 21
-21.4962950425
 31
0.0
  0
SPLINE
  5
580
100
AcDbEntity
  8
RACCORDO
100
AcDbSpline
 62
253
  6
CONTINUOUS
 70
0
 71
3
 72
19
 73
15
 74
13
 42
0.0000001
 43
0.0000001
 44
0.0000000001
 12
-0.0130876517
 22
-0.5001399654
 32
0.0
 13
0.5001397306
 23
-0.0130966198
 33
0.0
 40
0.0
 40
0.0
 40
0.0
 40
0.0
 40
0.1944699265
 40
0.3822416327
 40
0.5549878974
 40
0.7062826854
 40
0.7720612677
 40
0.8304516947
 40
0.8809165017
 40
0.9229200306
 40
0.9559902594
 40
0.9799032031
 40
0.9945274249
 40
1.0
 40
1.0
 40
1.0
 40
1.0
 10
-47.5420918891
 20
-21.4962950425
 30
0.0
 10
-47.5429402739
 20
-21.52871577
 30
0.0
 10
-47.5444435653
 20
-21.592444852
 30
0.0
 10
-47.5461509761
 20
-21.6849855264
 30
0.0
 10
-47.5472152348
 20
-21.7703333208
 30
0.0
 10
-47.5475675696
 20
-21.8353470589
 30
0.0
 10
-47.5474563386
 20
-21.8812804958
 30
0.0
 10
-47.5472070345
 20
-21.9104177372
 30
0.0
 10
-47.5467790836
 20
-21.935530134
 30
0.0
 10
-47.5462236712
 20
-21.9565812892
 30
0.0
 10
-47.5454299771
 20
-21.9727545224
 30
0.0
 10
-47.5447224305
 20
-21.9854042629
 30
0.0
 10
-47.543559533
 20
-21.9913619471
 30
0.0
 10
-47.5430042398
 20
-21.9960998143
 30
0.0
 10
-47.5420918891
 20
-21.996123705
 30
0.0
 11
-47.5420918891
 21
-21.4962950425
 31
0.0
 11
-47.5443851823
 21
-21.5935634893
 31
0.0
 11
-47.5460996872
 21
-21.6874921258
 31
0.0
 11
-47.5471515832
 21
-21.7739126109
 31
0.0
 11
-47.547506974
 21
-21.8496062498
 31
0.0
 11
-47.5474176802
 21
-21.8825158884
 31
0.0
 11
-47.5471515832
 21
-21.9117280596
 31
0.0
 11
-47.5467113599
 21
-21.9369723283
 31
0.0
 11
-47.5460996872
 21
-21.9579782595
 31
0.0
 11
-47.5453208022
 21
-21.9745053211
 31
0.0
 11
-47.5443851823
 21
-21.9864325936
 31
0.0
 11
-47.5433048653
 21
-21.9936690604
 31
0.0
 11
-47.5420918891
 21
-21.996123705
 31
0.0
  0
SPLINE
  5
581
100
AcDbEntity
  8
RACCORDO
100
AcDbSpline
 62
253
  6
CONTINUOUS
 70
0
 71
3
 72
22
 73
18
 74
16
 42
0.0000001
 43
0.0000001
 44
0.0000000001
 12
-0.4816743269
 22
-0.0723240208
 32
0.0
 13
0.0722759859
 23
-0.4816815369
 33
0.0
 40
0.0
 40
0.0
 40
0.0
 40
0.0
 40
0.1960531814
 40
0.3846055714
 40
0.5575436475
 40
0.708634813
 40
0.7742202805
 40
0.8323823258
 40
0.8825998489
 40
0.9243517905
 40
0.9571749689
 40
0.9701622122
 40
0.9808375975
 40
0.9891794971
 40
0.9951664925
 40
0.998777932
 40
1.0
 40
1.0
 40
1.0
 40
1.0
 10
-48.02346808
 20
-21.0706600114
 30
0.0
 10
-48.0549460081
 20
-21.0753864629
 30
0.0
 10
-48.1166940732
 20
-21.0846817455
 30
0.0
 10
-48.2061969163
 20
-21.0982245315
 30
0.0
 10
-48.2884709892
 20
-21.1107481115
 30
0.0
 10
-48.350997456
 20
-21.1203333707
 30
0.0
 10
-48.3950968071
 20
-21.1271463247
 30
0.0
 10
-48.4230054537
 20
-21.1314854866
 30
0.0
 10
-48.4470888478
 20
-21.1352577136
 30
0.0
 10
-48.4670942624
 20
-21.1384308483
 30
0.0
 10
-48.4811444245
 20
-21.1406823745
 30
0.0
 10
-48.4901717758
 20
-21.142182025
 30
0.0
 10
-48.4953428749
 20
-21.1430179769
 30
0.0
 10
-48.4992226774
 20
-21.1437694762
 30
0.0
 10
-48.502363977
 20
-21.1441479605
 30
0.0
 10
-48.5036023154
 20
-21.1447330949
 30
0.0
 10
-48.5048736719
 20
-21.1446574207
 30
0.0
 10
-48.5048442298
 20
-21.1448536366
 30
0.0
 11
-48.02346808
 21
-21.0706600114
 31
0.0
 11
-48.1178964777
 21
-21.0848751937
 31
0.0
 11
-48.2087013839
 21
-21.0986177967
 31
0.0
 11
-48.2919751837
 21
-21.1112975306
 31
0.0
 11
-48.3647167631
 21
-21.1224566775
 31
0.0
 11
-48.3962869395
 21
-21.1273356895
 31
0.0
 11
-48.4242796106
 21
-21.1316893699
 31
0.0
 11
-48.4484439483
 21
-21.1354786774
 31
0.0
 11
-48.4685291244
 21
-21.138664571
 31
0.0
 11
-48.4843121636
 21
-21.141212079
 31
0.0
 11
-48.4905537774
 21
-21.1422403424
 31
0.0
 11
-48.4956815019
 21
-21.1431025083
 31
0.0
 11
-48.4996848734
 21
-21.1437967485
 31
0.0
 11
-48.5025534278
 21
-21.1443212353
 31
0.0
 11
-48.5042767012
 21
-21.1446741406
 31
0.0
 11
-48.5048442298
 21
-21.1448536366
 31
0.0
  0
SPLINE
  5
582
100
AcDbEntity
  8
RACCORDO
100
AcDbSpline
 62
253
  6
CONTINUOUS
 70
0
 71
3
 72
22
 73
18
 74
16
 42
0.0000001
 43
0.0000001
 44
0.0000000001
 12
-0.4816743058
 22
0.0723240174
 32
0.0
 13
0.0722759541
 23
0.4816815202
 33
0.0
 40
0.0
 40
0.0
 40
0.0
 40
0.0
 40
0.1960531814
 40
0.3846055697
 40
0.5575436442
 40
0.7086348092
 40
0.7742202769
 40
0.8323823226
 40
0.8825998463
 40
0.9243517886
 40
0.9571749677
 40
0.9701622113
 40
0.9808375969
 40
0.9891794967
 40
0.9951664924
 40
0.998777932
 40
1.0
 40
1.0
 40
1.0
 40
1.0
 10
-48.02346808
 20
21.0706600114
 30
0.0
 10
-48.0549460067
 20
21.0753864626
 30
0.0
 10
-48.1166940689
 20
21.0846817448
 30
0.0
 10
-48.2061969075
 20
21.0982245301
 30
0.0
 10
-48.2884709763
 20
21.1107481095
 30
0.0
 10
-48.35099744
 20
21.1203333682
 30
0.0
 10
-48.3950967891
 20
21.1271463219
 30
0.0
 10
-48.4230054347
 20
21.1314854837
 30
0.0
 10
-48.4470888281
 20
21.1352577106
 30
0.0
 10
-48.4670942421
 20
21.1384308452
 30
0.0
 10
-48.4811444039
 20
21.1406823713
 30
0.0
 10
-48.4901717549
 20
21.1421820219
 30
0.0
 10
-48.495342854
 20
21.1430179737
 30
0.0
 10
-48.4992226564
 20
21.143769473
 30
0.0
 10
-48.5023639559
 20
21.1441479573
 30
0.0
 10
-48.5036022944
 20
21.1447330917
 30
0.0
 10
-48.5048736508
 20
21.1446574175
 30
0.0
 10
-48.5048442087
 20
21.1448536334
 30
0.0
 11
-48.02346808
 21
21.0706600114
 31
0.0
 11
-48.1178964735
 21
21.0848751931
 31
0.0
 11
-48.2087013749
 21
21.0986177953
 31
0.0
 11
-48.2919751704
 21
21.1112975285
 31
0.0
 11
-48.3647167463
 21
21.1224566748
 31
0.0
 11
-48.3962869215
 21
21.1273356867
 31
0.0
 11
-48.4242795916
 21
21.1316893669
 31
0.0
 11
-48.4484439284
 21
21.1354786744
 31
0.0
 11
-48.468529104
 21
21.1386645678
 31
0.0
 11
-48.4843121429
 21
21.1412120758
 31
0.0
 11
-48.4905537565
 21
21.1422403392
 31
0.0
 11
-48.495681481
 21
21.1431025051
 31
0.0
 11
-48.4996848523
 21
21.1437967453
 31
0.0
 11
-48.5025534067
 21
21.1443212321
 31
0.0
 11
-48.5042766802
 21
21.1446741375
 31
0.0
 11
-48.5048442087
 21
21.1448536334
 31
0.0
  0
SPLINE
  5
583
100
AcDbEntity
  8
RACCORDO
100
AcDbSpline
 62
253
  6
CONTINUOUS
 70
0
 71
3
 72
19
 73
15
 74
13
 42
0.0000001
 43
0.0000001
 44
0.0000000001
 12
-0.0130876522
 22
0.5001399654
 32
0.0
 13
0.5001397307
 23
0.0130966198
 33
0.0
 40
0.0
 40
0.0
 40
0.0
 40
0.0
 40
0.1944699265
 40
0.3822416326
 40
0.5549878972
 40
0.7062826852
 40
0.7720612675
 40
0.8304516945
 40
0.8809165015
 40
0.9229200305
 40
0.9559902593
 40
0.979903203
 40
0.9945274249
 40
1.0
 40
1.0
 40
1.0
 40
1.0
 10
-47.5420918891
 20
21.4962950425
 30
0.0
 10
-47.542940274
 20
21.52871577
 30
0.0
 10
-47.5444435654
 20
21.592444852
 30
0.0
 10
-47.5461509763
 20
21.6849855264
 30
0.0
 10
-47.547215235
 20
21.7703333207
 30
0.0
 10
-47.5475675698
 20
21.8353470588
 30
0.0
 10
-47.5474563388
 20
21.8812804957
 30
0.0
 10
-47.5472070347
 20
21.9104177371
 30
0.0
 10
-47.5467790838
 20
21.935530134
 30
0.0
 10
-47.5462236713
 20
21.9565812892
 30
0.0
 10
-47.5454299772
 20
21.9727545224
 30
0.0
 10
-47.5447224306
 20
21.9854042628
 30
0.0
 10
-47.5435595331
 20
21.9913619471
 30
0.0
 10
-47.5430042398
 20
21.9960998143
 30
0.0
 10
-47.5420918891
 20
21.996123705
 30
0.0
 11
-47.5420918891
 21
21.4962950425
 31
0.0
 11
-47.5443851824
 21
21.5935634893
 31
0.0
 11
-47.5460996874
 21
21.6874921258
 31
0.0
 11
-47.5471515834
 21
21.7739126108
 31
0.0
 11
-47.5475069743
 21
21.8496062497
 31
0.0
 11
-47.5474176804
 21
21.8825158883
 31
0.0
 11
-47.5471515834
 21
21.9117280596
 31
0.0
 11
-47.5467113601
 21
21.9369723283
 31
0.0
 11
-47.5460996874
 21
21.9579782595
 31
0.0
 11
-47.5453208023
 21
21.9745053211
 31
0.0
 11
-47.5443851824
 21
21.9864325936
 31
0.0
 11
-47.5433048654
 21
21.9936690604
 31
0.0
 11
-47.5420918891
 21
21.996123705
 31
0.0
  0
SPLINE
  5
584
100
AcDbEntity
  8
0
100
AcDbSpline
 62
253
  6
CONTINUOUS
 70
0
 71
3
 72
26
 73
22
 74
20
 42
0.0000001
 43
0.0000001
 44
0.0000000001
 12
-0.124641584
 22
-0.2158928633
 32
0.0
 13
0.2158910366
 23
-0.1246447481
 33
0.0
 40
0.0
 40
0.0
 40
0.0
 40
0.0
 40
0.1952371571
 40
0.3828765725
 40
0.5557521165
 40
0.6345528919
 40
0.7072369656
 40
0.7731083045
 40
0.8315338818
 40
0.8819524705
 40
0.9238825345
 40
0.9415345162
 40
0.9569212041
 40
0.9700029814
 40
0.9807505693
 40
0.9891391953
 40
0.9951465425
 40
0.9972538056
 40
0.9987627805
 40
0.9996743239
 40
1.0
 40
1.0
 40
1.0
 40
1.0
 10
-42.1266706597
 20
23.8443375673
 30
0.0
 10
-42.1347822158
 20
23.8302874643
 30
0.0
 10
-42.1506762881
 20
23.8027262996
 30
0.0
 10
-42.1737063642
 20
23.7626974834
 30
0.0
 10
-42.1918756965
 20
23.7310346506
 30
0.0
 10
-42.205265358
 20
23.7076424988
 30
0.0
 10
-42.2142249983
 20
23.6919598928
 30
0.0
 10
-42.2223308956
 20
23.6777394869
 30
0.0
 10
-42.2295053918
 20
23.6651178186
 30
0.0
 10
-42.2356796921
 20
23.6542160512
 30
0.0
 10
-42.2401675884
 20
23.6462528792
 30
0.0
 10
-42.2432121299
 20
23.6408180126
 30
0.0
 10
-42.245078255
 20
23.6374702745
 30
0.0
 10
-42.2466560494
 20
23.6346199041
 30
0.0
 10
-42.247945326
 20
23.6322710394
 30
0.0
 10
-42.2489341391
 20
23.6304369747
 30
0.0
 10
-42.2495840462
 20
23.6292158937
 30
0.0
 10
-42.2499316907
 20
23.6285132656
 30
0.0
 10
-42.2501152611
 20
23.6281552613
 30
0.0
 10
-42.2501682925
 20
23.627979116
 30
0.0
 10
-42.2502396637
 20
23.6278447476
 30
0.0
 10
-42.2502162268
 20
23.6278312164
 30
0.0
 11
-42.1266706597
 21
23.8443375673
 31
0.0
 11
-42.1509844413
 21
23.8021752067
 31
0.0
 11
-42.1743102392
 21
23.761629536
 31
0.0
 11
-42.1957571957
 21
23.7242490838
 31
0.0
 11
-42.2055154302
 21
23.7071999878
 31
0.0
 11
-42.2145031439
 21
23.6914668129
 31
0.0
 11
-42.2226342643
 21
23.6772002365
 31
0.0
 11
-42.2298306383
 21
23.664537377
 31
0.0
 11
-42.2360231237
 21
23.6535998967
 31
0.0
 11
-42.241152558
 21
23.644492298
 31
0.0
 11
-42.2433027218
 21
23.6406529246
 31
0.0
 11
-42.2451696151
 21
23.6373021623
 31
0.0
 11
-42.2467484098
 21
23.6344486549
 31
0.0
 11
-42.2480355566
 21
23.632098827
 31
0.0
 11
-42.2490280504
 21
23.6302581591
 31
0.0
 11
-42.2497231517
 21
23.6289316804
 31
0.0
 11
-42.2499587296
 21
23.6284621459
 31
0.0
 11
-42.2501195094
 21
23.6281220652
 31
0.0
 11
-42.2502053792
 21
23.627911676
 31
0.0
 11
-42.2502162268
 21
23.6278312164
 31
0.0
  0
SPLINE
  5
585
100
AcDbEntity
  8
0
100
AcDbSpline
 62
253
  6
CONTINUOUS
 70
0
 71
3
 72
26
 73
22
 74
20
 42
0.0000001
 43
0.0000001
 44
0.0000000001
 12
0.124641584
 22
-0.2158928633
 32
0.0
 13
-0.2158910366
 23
-0.1246447481
 33
0.0
 40
0.0
 40
0.0
 40
0.0
 40
0.0
 40
0.1952373303
 40
0.3828767077
 40
0.5557522251
 40
0.6345529812
 40
0.7072370395
 40
0.7731083627
 40
0.8315339236
 40
0.8819525002
 40
0.9238825542
 40
0.9415345305
 40
0.9569212142
 40
0.9700029891
 40
0.9807505739
 40
0.9891391978
 40
0.995146544
 40
0.9972538066
 40
0.998762781
 40
0.999674324
 40
1.0
 40
1.0
 40
1.0
 40
1.0
 10
-39.123761794
 20
23.8443375673
 30
0.0
 10
-39.1156502306
 20
23.8302874519
 30
0.0
 10
-39.0997561527
 20
23.8027262774
 30
0.0
 10
-39.0767260723
 20
23.7626974533
 30
0.0
 10
-39.0585567434
 20
23.7310346265
 30
0.0
 10
-39.0451670845
 20
23.7076424792
 30
0.0
 10
-39.0362074462
 20
23.6919598769
 30
0.0
 10
-39.0281015509
 20
23.6777394743
 30
0.0
 10
-39.0209270566
 20
23.6651178092
 30
0.0
 10
-39.0147527579
 20
23.6542160446
 30
0.0
 10
-39.0102648627
 20
23.6462528745
 30
0.0
 10
-39.0072203219
 20
23.6408180094
 30
0.0
 10
-39.0053541974
 20
23.6374702721
 30
0.0
 10
-39.0037764034
 20
23.6346199025
 30
0.0
 10
-39.0024871271
 20
23.6322710383
 30
0.0
 10
-39.0014983142
 20
23.630436974
 30
0.0
 10
-39.0008484073
 20
23.6292158934
 30
0.0
 10
-39.0005007628
 20
23.6285132654
 30
0.0
 10
-39.0003171926
 20
23.6281552612
 30
0.0
 10
-39.0002641611
 20
23.627979116
 30
0.0
 10
-39.00019279
 20
23.6278447476
 30
0.0
 10
-39.0002162268
 20
23.6278312164
 30
0.0
 11
-39.123761794
 21
23.8443375673
 31
0.0
 11
-39.0994479908
 21
23.8021751692
 31
0.0
 11
-39.0761221977
 21
23.7616295068
 31
0.0
 11
-39.0546752445
 21
23.7242490603
 31
0.0
 11
-39.0449170124
 21
23.7071999685
 31
0.0
 11
-39.0359293007
 21
23.6914667969
 31
0.0
 11
-39.0277981822
 21
23.6772002239
 31
0.0
 11
-39.0206018103
 21
23.6645373679
 31
0.0
 11
-39.0144093263
 21
23.6535998903
 31
0.0
 11
-39.0092798933
 21
23.6444922937
 31
0.0
 11
-39.0071297302
 21
23.6406529215
 31
0.0
 11
-39.0052628373
 21
23.6373021601
 31
0.0
 11
-39.0036840429
 21
23.6344486533
 31
0.0
 11
-39.0023968965
 21
23.632098826
 31
0.0
 11
-39.001404403
 21
23.6302581585
 31
0.0
 11
-39.0007093018
 21
23.6289316801
 31
0.0
 11
-39.000473724
 21
23.6284621457
 31
0.0
 11
-39.0003129442
 21
23.628122065
 31
0.0
 11
-39.0002270745
 21
23.627911676
 31
0.0
 11
-39.0002162268
 21
23.6278312164
 31
0.0
  0
SPLINE
  5
586
100
AcDbEntity
  8
0
100
AcDbSpline
 62
253
  6
CONTINUOUS
 70
0
 71
3
 72
26
 73
22
 74
20
 42
0.0000001
 43
0.0000001
 44
0.0000000001
 12
0.124641584
 22
0.2158928634
 32
0.0
 13
-0.2158910366
 23
0.1246447481
 33
0.0
 40
0.0
 40
0.0
 40
0.0
 40
0.0
 40
0.1952373367
 40
0.3828767197
 40
0.5557522426
 40
0.6345529999
 40
0.7072370592
 40
0.7731083831
 40
0.8315339428
 40
0.8819525183
 40
0.923882571
 40
0.941534545
 40
0.956921227
 40
0.9700030008
 40
0.9807505828
 40
0.9891392048
 40
0.9951465495
 40
0.9972538103
 40
0.9987627829
 40
0.9996743245
 40
1.0
 40
1.0
 40
1.0
 40
1.0
 10
-39.123761794
 20
-23.8443375673
 30
0.0
 10
-39.1156502304
 20
-23.8302874514
 30
0.0
 10
-39.099756152
 20
-23.8027262761
 30
0.0
 10
-39.0767260708
 20
-23.7626974507
 30
0.0
 10
-39.0585567414
 20
-23.7310346231
 30
0.0
 10
-39.0451670822
 20
-23.7076424751
 30
0.0
 10
-39.0362074438
 20
-23.6919598726
 30
0.0
 10
-39.0281015484
 20
-23.67773947
 30
0.0
 10
-39.0209270542
 20
-23.665117805
 30
0.0
 10
-39.0147527556
 20
-23.6542160407
 30
0.0
 10
-39.0102648606
 20
-23.646252871
 30
0.0
 10
-39.0072203201
 20
-23.6408180062
 30
0.0
 10
-39.0053541958
 20
-23.6374702693
 30
0.0
 10
-39.003776402
 20
-23.6346199
 30
0.0
 10
-39.002487126
 20
-23.6322710363
 30
0.0
 10
-39.0014983134
 20
-23.6304369725
 30
0.0
 10
-39.0008484066
 20
-23.6292158922
 30
0.0
 10
-39.0005007624
 20
-23.6285132646
 30
0.0
 10
-39.0003171923
 20
-23.6281552608
 30
0.0
 10
-39.0002641609
 20
-23.6279791158
 30
0.0
 10
-39.00019279
 20
-23.6278447476
 30
0.0
 10
-39.0002162268
 20
-23.6278312164
 30
0.0
 11
-39.123761794
 21
-23.8443375673
 31
0.0
 11
-39.09944799
 21
-23.8021751679
 31
0.0
 11
-39.0761221962
 21
-23.7616295042
 31
0.0
 11
-39.0546752423
 21
-23.7242490565
 31
0.0
 11
-39.0449170101
 21
-23.7071999644
 31
0.0
 11
-39.0359292982
 21
-23.6914667926
 31
0.0
 11
-39.0277981797
 21
-23.6772002194
 31
0.0
 11
-39.0206018079
 21
-23.6645373638
 31
0.0
 11
-39.0144093241
 21
-23.6535998863
 31
0.0
 11
-39.0092798912
 21
-23.6444922901
 31
0.0
 11
-39.0071297284
 21
-23.6406529184
 31
0.0
 11
-39.0052628358
 21
-23.6373021573
 31
0.0
 11
-39.0036840415
 21
-23.6344486507
 31
0.0
 11
-39.0023968954
 21
-23.632098824
 31
0.0
 11
-39.0014044022
 21
-23.630258157
 31
0.0
 11
-39.0007093011
 21
-23.6289316788
 31
0.0
 11
-39.0004737235
 21
-23.6284621448
 31
0.0
 11
-39.0003129439
 21
-23.6281220646
 31
0.0
 11
-39.0002270744
 21
-23.6279116759
 31
0.0
 11
-39.0002162268
 21
-23.6278312164
 31
0.0
  0
SPLINE
  5
587
100
AcDbEntity
  8
0
100
AcDbSpline
 62
253
  6
CONTINUOUS
 70
0
 71
3
 72
26
 73
22
 74
20
 42
0.0000001
 43
0.0000001
 44
0.0000000001
 12
-0.124641584
 22
0.2158928633
 32
0.0
 13
0.2158910366
 23
0.1246447481
 33
0.0
 40
0.0
 40
0.0
 40
0.0
 40
0.0
 40
0.1952373303
 40
0.3828767077
 40
0.5557522251
 40
0.6345529812
 40
0.7072370395
 40
0.7731083627
 40
0.8315339236
 40
0.8819525002
 40
0.9238825542
 40
0.9415345305
 40
0.9569212142
 40
0.9700029891
 40
0.9807505739
 40
0.9891391978
 40
0.995146544
 40
0.9972538066
 40
0.998762781
 40
0.999674324
 40
1.0
 40
1.0
 40
1.0
 40
1.0
 10
-42.1266706597
 20
-23.8443375673
 30
0.0
 10
-42.134782223
 20
-23.8302874519
 30
0.0
 10
-42.1506763009
 20
-23.8027262774
 30
0.0
 10
-42.1737063814
 20
-23.7626974533
 30
0.0
 10
-42.1918757103
 20
-23.7310346265
 30
0.0
 10
-42.2052653692
 20
-23.7076424792
 30
0.0
 10
-42.2142250075
 20
-23.6919598769
 30
0.0
 10
-42.2223309028
 20
-23.6777394743
 30
0.0
 10
-42.2295053971
 20
-23.6651178092
 30
0.0
 10
-42.2356796958
 20
-23.6542160446
 30
0.0
 10
-42.240167591
 20
-23.6462528745
 30
0.0
 10
-42.2432121317
 20
-23.6408180094
 30
0.0
 10
-42.2450782563
 20
-23.6374702721
 30
0.0
 10
-42.2466560503
 20
-23.6346199025
 30
0.0
 10
-42.2479453265
 20
-23.6322710383
 30
0.0
 10
-42.2489341395
 20
-23.630436974
 30
0.0
 10
-42.2495840464
 20
-23.6292158934
 30
0.0
 10
-42.2499316908
 20
-23.6285132654
 30
0.0
 10
-42.2501152611
 20
-23.6281552612
 30
0.0
 10
-42.2501682926
 20
-23.627979116
 30
0.0
 10
-42.2502396637
 20
-23.6278447476
 30
0.0
 10
-42.2502162268
 20
-23.6278312164
 30
0.0
 11
-42.1266706597
 21
-23.8443375673
 31
0.0
 11
-42.1509844629
 21
-23.8021751692
 31
0.0
 11
-42.1743102559
 21
-23.7616295068
 31
0.0
 11
-42.1957572092
 21
-23.7242490603
 31
0.0
 11
-42.2055154412
 21
-23.7071999685
 31
0.0
 11
-42.214503153
 21
-23.6914667969
 31
0.0
 11
-42.2226342714
 21
-23.6772002239
 31
0.0
 11
-42.2298306434
 21
-23.6645373679
 31
0.0
 11
-42.2360231274
 21
-23.6535998903
 31
0.0
 11
-42.2411525604
 21
-23.6444922937
 31
0.0
 11
-42.2433027235
 21
-23.6406529215
 31
0.0
 11
-42.2451696163
 21
-23.6373021601
 31
0.0
 11
-42.2467484107
 21
-23.6344486533
 31
0.0
 11
-42.2480355572
 21
-23.632098826
 31
0.0
 11
-42.2490280507
 21
-23.6302581585
 31
0.0
 11
-42.2497231519
 21
-23.6289316801
 31
0.0
 11
-42.2499587297
 21
-23.6284621457
 31
0.0
 11
-42.2501195095
 21
-23.628122065
 31
0.0
 11
-42.2502053792
 21
-23.627911676
 31
0.0
 11
-42.2502162268
 21
-23.6278312164
 31
0.0
  0
SPLINE
  5
588
100
AcDbEntity
  8
0
100
AcDbSpline
 62
7
  6
CONTINUOUS
 70
0
 71
3
 72
13
 73
9
 74
7
 42
0.0000001
 43
0.0000001
 44
0.0000000001
 12
-0.2489101548
 22
0.143711993
 32
0.0
 13
-0.244355276
 23
0.1513687366
 33
0.0
 40
0.0
 40
0.0
 40
0.0
 40
0.0
 40
0.3612210663
 40
0.682170423
 40
0.812667465
 40
0.9137049675
 40
0.9780318448
 40
1.0
 40
1.0
 40
1.0
 40
1.0
 10
-41.1266706597
 20
-23.2669872981
 30
0.0
 10
-41.1566411902
 20
-23.249683365
 30
0.0
 10
-41.2132285657
 20
-23.2169831279
 30
0.0
 10
-41.2805928567
 20
-23.1779450624
 30
0.0
 10
-41.326371825
 20
-23.1513733071
 30
0.0
 10
-41.3508383043
 20
-23.1370619739
 30
0.0
 10
-41.3663658914
 20
-23.1280587384
 30
0.0
 10
-41.373426882
 20
-23.1237581614
 30
0.0
 10
-41.3752162268
 20
-23.1226497308
 30
0.0
 11
-41.1266706597
 21
-23.2669872981
 31
0.0
 11
-41.216557869
 21
-23.2150332915
 31
0.0
 11
-41.2963725606
 21
-23.1687830511
 31
0.0
 11
-41.3288007489
 21
-23.1499360992
 31
0.0
 11
-41.353885975
 21
-23.1353054509
 31
0.0
 11
-41.3698258942
 21
-23.1259378303
 31
0.0
 11
-41.3752162268
 21
-23.1226497308
 31
0.0
  0
SPLINE
  5
589
100
AcDbEntity
  8
0
100
AcDbSpline
 62
253
  6
CONTINUOUS
 70
0
 71
3
 72
26
 73
22
 74
20
 42
0.0000001
 43
0.0000001
 44
0.0000000001
 12
0.0014544634
 22
-0.2500094792
 32
0.0
 13
-0.2500094789
 23
-0.0014545126
 33
0.0
 40
0.0
 40
0.0
 40
0.0
 40
0.0
 40
0.195080196
 40
0.3826515393
 40
0.5555245815
 40
0.6343411269
 40
0.7070484192
 40
0.7729476609
 40
0.831403253
 40
0.881851676
 40
0.9238093952
 40
0.9414738478
 40
0.9568718917
 40
0.9699637695
 40
0.9807201068
 40
0.9891161374
 40
0.9951296516
 40
0.997239688
 40
0.9987514623
 40
0.9996664469
 40
1.0
 40
1.0
 40
1.0
 40
1.0
 10
-39.123761794
 20
-24.2456323968
 30
0.0
 10
-39.123667215
 20
-24.2618896962
 30
0.0
 10
-39.1234996102
 20
-24.2937786412
 30
0.0
 10
-39.1233103638
 20
-24.3400745182
 30
0.0
 10
-39.1232083794
 20
-24.3766814763
 30
0.0
 10
-39.1231668351
 20
-24.403716003
 30
0.0
 10
-39.1231561468
 20
-24.4218355876
 30
0.0
 10
-39.1231649209
 20
-24.4382583307
 30
0.0
 10
-39.1231929036
 20
-24.4528260562
 30
0.0
 10
-39.1232397393
 20
-24.46539845
 30
0.0
 10
-39.123296182
 20
-24.4745714119
 30
0.0
 10
-39.1233532176
 20
-24.4808230755
 30
0.0
 10
-39.1233976836
 20
-24.4846694877
 30
0.0
 10
-39.1234465197
 20
-24.4879390802
 30
0.0
 10
-39.1234981813
 20
-24.4906278529
 30
0.0
 10
-39.1235553333
 20
-24.492719004
 30
0.0
 10
-39.1236043051
 20
-24.4941060198
 30
0.0
 10
-39.1236553557
 20
-24.4948925842
 30
0.0
 10
-39.1236803139
 20
-24.4952943483
 30
0.0
 10
-39.1237207591
 20
-24.495477879
 30
0.0
 10
-39.1237339968
 20
-24.4956280043
 30
0.0
 10
-39.123761794
 20
-24.495628166
 30
0.0
 11
-39.123761794
 21
-24.2456323968
 31
0.0
 11
-39.1235060028
 21
-24.2944044496
 31
0.0
 11
-39.1233159464
 21
-24.3412994718
 31
0.0
 11
-39.1231989034
 21
-24.384519944
 31
0.0
 11
-39.1231692877
 21
-24.4042251386
 31
0.0
 11
-39.1231593852
 21
-24.4224029558
 31
0.0
 11
-39.1231692878
 21
-24.4388786668
 31
0.0
 11
-39.1231989036
 21
-24.4534933362
 31
0.0
 11
-39.1232479479
 21
-24.4661060382
 31
0.0
 11
-39.1233159466
 21
-24.4765958229
 31
0.0
 11
-39.1233568579
 21
-24.4810119887
 31
0.0
 11
-39.1234022434
 21
-24.4848614432
 31
0.0
 11
-39.1234519978
 21
-24.488134214
 31
0.0
 11
-39.1235060032
 21
-24.4908229035
 31
0.0
 11
-39.1235641365
 21
-24.4929212211
 31
0.0
 11
-39.1236262659
 21
-24.4944233978
 31
0.0
 11
-39.123658775
 21
-24.4949499332
 31
0.0
 11
-39.1236922153
 21
-24.4953264153
 31
0.0
 11
-39.1237265629
 21
-24.4955525807
 31
0.0
 11
-39.123761794
 21
-24.495628166
 31
0.0
  0
LINE
  5
58A
100
AcDbEntity
  8
0
100
AcDbLine
 62
7
  6
CONTINUOUS
 10
-39.8752162268
 20
-24.2500042308
 11
-39.8752162268
 21
-24.5
  0
SPLINE
  5
58B
100
AcDbEntity
  8
0
100
AcDbSpline
 62
253
  6
CONTINUOUS
 70
0
 71
3
 72
26
 73
22
 74
20
 42
0.0000001
 43
0.0000001
 44
0.0000000001
 12
-0.0014544634
 22
-0.2500094792
 32
0.0
 13
0.2500094789
 23
-0.0014545126
 33
0.0
 40
0.0
 40
0.0
 40
0.0
 40
0.0
 40
0.195080196
 40
0.3826515393
 40
0.5555245815
 40
0.6343411269
 40
0.7070484192
 40
0.7729476609
 40
0.831403253
 40
0.881851676
 40
0.9238093952
 40
0.9414738478
 40
0.9568718917
 40
0.9699637695
 40
0.9807201068
 40
0.9891161374
 40
0.9951296516
 40
0.997239688
 40
0.9987514623
 40
0.9996664469
 40
1.0
 40
1.0
 40
1.0
 40
1.0
 10
-42.1266706597
 20
-24.2369056521
 30
0.0
 10
-42.1267652387
 20
-24.2531629515
 30
0.0
 10
-42.1269328434
 20
-24.2850518965
 30
0.0
 10
-42.1271220898
 20
-24.3313477735
 30
0.0
 10
-42.1272240742
 20
-24.3679547315
 30
0.0
 10
-42.1272656186
 20
-24.3949892583
 30
0.0
 10
-42.1272763068
 20
-24.4131088428
 30
0.0
 10
-42.1272675328
 20
-24.429531586
 30
0.0
 10
-42.1272395501
 20
-24.4440993115
 30
0.0
 10
-42.1271927144
 20
-24.4566717053
 30
0.0
 10
-42.1271362717
 20
-24.4658446672
 30
0.0
 10
-42.1270792361
 20
-24.4720963307
 30
0.0
 10
-42.1270347701
 20
-24.4759427429
 30
0.0
 10
-42.126985934
 20
-24.4792123355
 30
0.0
 10
-42.1269342724
 20
-24.4819011082
 30
0.0
 10
-42.1268771204
 20
-24.4839922593
 30
0.0
 10
-42.1268281486
 20
-24.4853792751
 30
0.0
 10
-42.126777098
 20
-24.4861658394
 30
0.0
 10
-42.1267521398
 20
-24.4865676036
 30
0.0
 10
-42.1267116945
 20
-24.4867511343
 30
0.0
 10
-42.1266984568
 20
-24.4869012596
 30
0.0
 10
-42.1266706597
 20
-24.4869014213
 30
0.0
 11
-42.1266706597
 21
-24.2369056521
 31
0.0
 11
-42.1269264509
 21
-24.2856777048
 31
0.0
 11
-42.1271165073
 21
-24.3325727271
 31
0.0
 11
-42.1272335502
 21
-24.3757931993
 31
0.0
 11
-42.127263166
 21
-24.3954983939
 31
0.0
 11
-42.1272730685
 21
-24.4136762111
 31
0.0
 11
-42.1272631659
 21
-24.430151922
 31
0.0
 11
-42.1272335501
 21
-24.4447665915
 31
0.0
 11
-42.1271845058
 21
-24.4573792935
 31
0.0
 11
-42.127116507
 21
-24.4678690781
 31
0.0
 11
-42.1270755957
 21
-24.472285244
 31
0.0
 11
-42.1270302103
 21
-24.4761346985
 31
0.0
 11
-42.1269804559
 21
-24.4794074693
 31
0.0
 11
-42.1269264504
 21
-24.4820961588
 31
0.0
 11
-42.1268683172
 21
-24.4841944764
 31
0.0
 11
-42.1268061878
 21
-24.4856966531
 31
0.0
 11
-42.1267736787
 21
-24.4862231885
 31
0.0
 11
-42.1267402384
 21
-24.4865996706
 31
0.0
 11
-42.1267058907
 21
-24.486825836
 31
0.0
 11
-42.1266706597
 21
-24.4869014213
 31
0.0
  0
LINE
  5
58C
100
AcDbEntity
  8
RACCORDO
100
AcDbLine
 62
253
  6
CONTINUOUS
 10
-28.0717257504
 20
-19.0166572575
 11
-28.006812198
 21
-18.5521029846
  0
SPLINE
  5
58D
100
AcDbEntity
  8
0
100
AcDbSpline
 62
253
  6
CONTINUOUS
 70
0
 71
3
 72
26
 73
22
 74
20
 42
0.0000001
 43
0.0000001
 44
0.0000000001
 12
0.2500094789
 22
-0.0014545125
 32
0.0
 13
-0.0014544634
 23
-0.2500094792
 33
0.0
 40
0.0
 40
0.0
 40
0.0
 40
0.0
 40
0.0003335531
 40
0.0012485377
 40
0.002760312
 40
0.0048703484
 40
0.0108838626
 40
0.0192798932
 40
0.0300362305
 40
0.0431281083
 40
0.0585261522
 40
0.0761906048
 40
0.118148324
 40
0.168596747
 40
0.2270523391
 40
0.2929515808
 40
0.3656588731
 40
0.4444754185
 40
0.6173484607
 40
0.804919804
 40
1.0
 40
1.0
 40
1.0
 40
1.0
 10
-39.123761794
 20
24.495628166
 30
0.0
 10
-39.1237339968
 20
24.4956280043
 30
0.0
 10
-39.1237207591
 20
24.495477879
 30
0.0
 10
-39.1236803139
 20
24.4952943483
 30
0.0
 10
-39.1236553557
 20
24.4948925842
 30
0.0
 10
-39.1236043051
 20
24.4941060198
 30
0.0
 10
-39.1235553333
 20
24.492719004
 30
0.0
 10
-39.1234981813
 20
24.4906278529
 30
0.0
 10
-39.1234465197
 20
24.4879390802
 30
0.0
 10
-39.1233976836
 20
24.4846694877
 30
0.0
 10
-39.1233532176
 20
24.4808230755
 30
0.0
 10
-39.123296182
 20
24.4745714119
 30
0.0
 10
-39.1232397393
 20
24.46539845
 30
0.0
 10
-39.1231929036
 20
24.4528260562
 30
0.0
 10
-39.1231649209
 20
24.4382583307
 30
0.0
 10
-39.1231561468
 20
24.4218355876
 30
0.0
 10
-39.1231668351
 20
24.403716003
 30
0.0
 10
-39.1232083794
 20
24.3766814763
 30
0.0
 10
-39.1233103638
 20
24.3400745182
 30
0.0
 10
-39.1234996102
 20
24.2937786412
 30
0.0
 10
-39.123667215
 20
24.2618896962
 30
0.0
 10
-39.123761794
 20
24.2456323968
 30
0.0
 11
-39.123761794
 21
24.495628166
 31
0.0
 11
-39.1237265629
 21
24.4955525807
 31
0.0
 11
-39.1236922153
 21
24.4953264153
 31
0.0
 11
-39.123658775
 21
24.4949499332
 31
0.0
 11
-39.1236262659
 21
24.4944233978
 31
0.0
 11
-39.1235641365
 21
24.4929212211
 31
0.0
 11
-39.1235060032
 21
24.4908229035
 31
0.0
 11
-39.1234519978
 21
24.488134214
 31
0.0
 11
-39.1234022434
 21
24.4848614432
 31
0.0
 11
-39.1233568579
 21
24.4810119887
 31
0.0
 11
-39.1233159466
 21
24.4765958229
 31
0.0
 11
-39.1232479479
 21
24.4661060382
 31
0.0
 11
-39.1231989036
 21
24.4534933362
 31
0.0
 11
-39.1231692878
 21
24.4388786668
 31
0.0
 11
-39.1231593852
 21
24.4224029558
 31
0.0
 11
-39.1231692877
 21
24.4042251386
 31
0.0
 11
-39.1231989034
 21
24.384519944
 31
0.0
 11
-39.1233159464
 21
24.3412994718
 31
0.0
 11
-39.1235060028
 21
24.2944044496
 31
0.0
 11
-39.123761794
 21
24.2456323968
 31
0.0
  0
LINE
  5
58E
100
AcDbEntity
  8
0
100
AcDbLine
 62
7
  6
CONTINUOUS
 10
-39.8752162268
 20
24.5
 11
-39.8752162268
 21
24.2500042308
  0
SPLINE
  5
58F
100
AcDbEntity
  8
0
100
AcDbSpline
 62
253
  6
CONTINUOUS
 70
0
 71
3
 72
26
 73
22
 74
20
 42
0.0000001
 43
0.0000001
 44
0.0000000001
 12
-0.2500094789
 22
-0.0014545126
 32
0.0
 13
0.0014544634
 23
-0.2500094792
 33
0.0
 40
0.0
 40
0.0
 40
0.0
 40
0.0
 40
0.0003335531
 40
0.0012485377
 40
0.002760312
 40
0.0048703484
 40
0.0108838626
 40
0.0192798932
 40
0.0300362305
 40
0.0431281083
 40
0.0585261522
 40
0.0761906048
 40
0.118148324
 40
0.168596747
 40
0.2270523391
 40
0.2929515808
 40
0.3656588731
 40
0.4444754185
 40
0.6173484607
 40
0.804919804
 40
1.0
 40
1.0
 40
1.0
 40
1.0
 10
-42.1266706597
 20
24.4869014213
 30
0.0
 10
-42.1266984568
 20
24.4869012596
 30
0.0
 10
-42.1267116945
 20
24.4867511343
 30
0.0
 10
-42.1267521398
 20
24.4865676036
 30
0.0
 10
-42.126777098
 20
24.4861658394
 30
0.0
 10
-42.1268281486
 20
24.4853792751
 30
0.0
 10
-42.1268771204
 20
24.4839922593
 30
0.0
 10
-42.1269342724
 20
24.4819011082
 30
0.0
 10
-42.126985934
 20
24.4792123355
 30
0.0
 10
-42.1270347701
 20
24.4759427429
 30
0.0
 10
-42.1270792361
 20
24.4720963307
 30
0.0
 10
-42.1271362717
 20
24.4658446672
 30
0.0
 10
-42.1271927144
 20
24.4566717053
 30
0.0
 10
-42.1272395501
 20
24.4440993115
 30
0.0
 10
-42.1272675328
 20
24.429531586
 30
0.0
 10
-42.1272763068
 20
24.4131088428
 30
0.0
 10
-42.1272656186
 20
24.3949892583
 30
0.0
 10
-42.1272240742
 20
24.3679547315
 30
0.0
 10
-42.1271220898
 20
24.3313477735
 30
0.0
 10
-42.1269328434
 20
24.2850518965
 30
0.0
 10
-42.1267652387
 20
24.2531629515
 30
0.0
 10
-42.1266706597
 20
24.2369056521
 30
0.0
 11
-42.1266706597
 21
24.4869014213
 31
0.0
 11
-42.1267058907
 21
24.486825836
 31
0.0
 11
-42.1267402384
 21
24.4865996706
 31
0.0
 11
-42.1267736787
 21
24.4862231885
 31
0.0
 11
-42.1268061878
 21
24.4856966531
 31
0.0
 11
-42.1268683172
 21
24.4841944764
 31
0.0
 11
-42.1269264504
 21
24.4820961588
 31
0.0
 11
-42.1269804559
 21
24.4794074693
 31
0.0
 11
-42.1270302103
 21
24.4761346985
 31
0.0
 11
-42.1270755957
 21
24.472285244
 31
0.0
 11
-42.127116507
 21
24.4678690781
 31
0.0
 11
-42.1271845058
 21
24.4573792935
 31
0.0
 11
-42.1272335501
 21
24.4447665915
 31
0.0
 11
-42.1272631659
 21
24.430151922
 31
0.0
 11
-42.1272730685
 21
24.4136762111
 31
0.0
 11
-42.127263166
 21
24.3954983939
 31
0.0
 11
-42.1272335502
 21
24.3757931993
 31
0.0
 11
-42.1271165073
 21
24.3325727271
 31
0.0
 11
-42.1269264509
 21
24.2856777048
 31
0.0
 11
-42.1266706597
 21
24.2369056521
 31
0.0
  0
LINE
  5
590
100
AcDbEntity
  8
RACCORDO
100
AcDbLine
 62
253
  6
CONTINUOUS
 10
-28.0717257455
 20
19.0166572575
 11
-37.8752162268
 21
15.629521819
  0
LINE
  5
591
100
AcDbEntity
  8
RACCORDO
100
AcDbLine
 62
253
  6
CONTINUOUS
 10
-37.8752162268
 20
-15.629521819
 11
-28.0717257455
 21
-19.0166572575
  0
LINE
  5
592
100
AcDbEntity
  8
RACCORDO
100
AcDbLine
 62
253
  6
CONTINUOUS
 10
-28.006812198
 20
18.5521029846
 11
-28.0717257504
 21
19.0166572575
  0
SPLINE
  5
593
100
AcDbEntity
  8
0
100
AcDbSpline
 62
7
  6
CONTINUOUS
 70
0
 71
3
 72
13
 73
9
 74
7
 42
0.0000001
 43
0.0000001
 44
0.0000000001
 12
-0.2489101548
 22
-0.143711993
 32
0.0
 13
-0.244355276
 23
-0.1513687366
 33
0.0
 40
0.0
 40
0.0
 40
0.0
 40
0.0
 40
0.3612210663
 40
0.682170423
 40
0.812667465
 40
0.9137049675
 40
0.9780318448
 40
1.0
 40
1.0
 40
1.0
 40
1.0
 10
-41.1266706597
 20
23.2669872981
 30
0.0
 10
-41.1566411902
 20
23.249683365
 30
0.0
 10
-41.2132285657
 20
23.2169831279
 30
0.0
 10
-41.2805928567
 20
23.1779450624
 30
0.0
 10
-41.326371825
 20
23.1513733071
 30
0.0
 10
-41.3508383043
 20
23.1370619739
 30
0.0
 10
-41.3663658914
 20
23.1280587384
 30
0.0
 10
-41.373426882
 20
23.1237581614
 30
0.0
 10
-41.3752162268
 20
23.1226497308
 30
0.0
 11
-41.1266706597
 21
23.2669872981
 31
0.0
 11
-41.216557869
 21
23.2150332915
 31
0.0
 11
-41.2963725606
 21
23.1687830511
 31
0.0
 11
-41.3288007489
 21
23.1499360992
 31
0.0
 11
-41.353885975
 21
23.1353054509
 31
0.0
 11
-41.3698258942
 21
23.1259378303
 31
0.0
 11
-41.3752162268
 21
23.1226497308
 31
0.0
  0
ELLIPSE
  5
594
100
AcDbEntity
  8
0
100
AcDbEllipse
 62
7
  6
CONTINUOUS
 10
12.3747818283
 20
22.3842776662
 30
0.0
 11
0.2
 21
0.0
 31
0.0
 40
0.0524077793
 41
-3.1415926536
 42
-1.5707963268
  0
ELLIPSE
  5
595
100
AcDbEntity
  8
0
100
AcDbEllipse
 62
7
  6
CONTINUOUS
 10
9.9747818283
 20
22.3842776662
 30
0.0
 11
0.2
 21
0.0
 31
0.0
 40
0.0524077793
 41
-1.5707963268
 42
0.0
  0
ELLIPSE
  5
596
100
AcDbEntity
  8
0
100
AcDbEllipse
 62
7
  6
CONTINUOUS
 10
12.3747818283
 20
-22.3842776662
 30
0.0
 11
0.2
 21
-0.0
 31
0.0
 40
0.0524077793
 41
1.5707963268
 42
3.1415926536
  0
ELLIPSE
  5
597
100
AcDbEntity
  8
0
100
AcDbEllipse
 62
7
  6
CONTINUOUS
 10
9.9747818283
 20
-22.3842776662
 30
0.0
 11
0.2
 21
0.0
 31
0.0
 40
0.0524077793
 41
0.0
 42
1.5707963268
  0
ELLIPSE
  5
598
100
AcDbEntity
  8
0
100
AcDbEllipse
 62
7
  6
CONTINUOUS
 10
21.0675053102
 20
22.3344902759
 30
0.0
 11
0.25
 21
0.0
 31
0.0
 40
0.0524077793
 41
-1.5707963268
 42
-0.0058177642
  0
ELLIPSE
  5
599
100
AcDbEntity
  8
0
100
AcDbEllipse
 62
7
  6
CONTINUOUS
 10
18.6820583464
 20
22.3344902759
 30
0.0
 11
0.25
 21
0.0
 31
0.0
 40
0.0524077793
 41
-3.1357748894
 42
-1.5707963268
  0
ELLIPSE
  5
59A
100
AcDbEntity
  8
0
100
AcDbEllipse
 62
7
  6
CONTINUOUS
 10
1.2820583464
 20
22.3344902759
 30
0.0
 11
0.25
 21
0.0
 31
0.0
 40
0.0524077793
 41
-3.1357748894
 42
-1.5707963268
  0
ELLIPSE
  5
59B
100
AcDbEntity
  8
0
100
AcDbEllipse
 62
7
  6
CONTINUOUS
 10
3.6675053102
 20
22.3344902759
 30
0.0
 11
0.25
 21
0.0
 31
0.0
 40
0.0524077793
 41
-1.5707963268
 42
-0.0058177642
  0
ELLIPSE
  5
59C
100
AcDbEntity
  8
0
100
AcDbEllipse
 62
7
  6
CONTINUOUS
 10
21.0675053102
 20
-22.3344902759
 30
0.0
 11
0.25
 21
0.0
 31
0.0
 40
0.0524077793
 41
0.0058177642
 42
1.5707963268
  0
ELLIPSE
  5
59D
100
AcDbEntity
  8
0
100
AcDbEllipse
 62
7
  6
CONTINUOUS
 10
18.6820583464
 20
-22.3344902759
 30
0.0
 11
0.25
 21
0.0
 31
0.0
 40
0.0524077793
 41
1.5707963268
 42
3.1357748894
  0
ELLIPSE
  5
59E
100
AcDbEntity
  8
0
100
AcDbEllipse
 62
7
  6
CONTINUOUS
 10
3.6675053102
 20
-22.3344902759
 30
0.0
 11
0.25
 21
0.0
 31
0.0
 40
0.0524077793
 41
0.0058177642
 42
1.5707963268
  0
ELLIPSE
  5
59F
100
AcDbEntity
  8
0
100
AcDbEllipse
 62
7
  6
CONTINUOUS
 10
1.2820583464
 20
-22.3344902759
 30
0.0
 11
0.25
 21
0.0
 31
0.0
 40
0.0524077793
 41
1.5707963268
 42
3.1357748894
  0
ELLIPSE
  5
5A0
100
AcDbEntity
  8
0
100
AcDbEllipse
 62
7
  6
CONTINUOUS
 10
21.7976503136
 20
-21.8207021581
 30
0.0
 11
-0.1582391023
 21
0.4751033573
 31
0.0
 40
0.9984778551
 41
-3.4626430032
 42
-1.8927600658
  0
ELLIPSE
  5
5A1
100
AcDbEntity
  8
0
100
AcDbEllipse
 62
7
  6
CONTINUOUS
 10
0.551913343
 20
-21.8207021581
 30
0.0
 11
-0.1582391023
 21
-0.4751033573
 31
0.0
 40
0.9984778551
 41
-0.6578562559
 42
0.3210503496
  0
ELLIPSE
  5
5A2
100
AcDbEntity
  8
0
100
AcDbEllipse
 62
7
  6
CONTINUOUS
 10
0.551913343
 20
21.8207021581
 30
0.0
 11
-0.1582391023
 21
0.4751033573
 31
0.0
 40
0.9984778551
 41
-0.3210503496
 42
0.6578562559
  0
ELLIPSE
  5
5A3
100
AcDbEntity
  8
0
100
AcDbEllipse
 62
7
  6
CONTINUOUS
 10
21.7976503136
 20
21.8207021581
 30
0.0
 11
0.1582391023
 21
0.4751033573
 31
0.0
 40
0.9984778551
 41
-1.2488325878
 42
0.3210503496
  0
ELLIPSE
  5
5A4
100
AcDbEntity
  8
RACCORDO
100
AcDbEllipse
 62
7
  6
CONTINUOUS
 10
-21.8250467754
 20
21.5998286038
 30
0.0
 11
-0.35379574
 21
0.35379574
 31
0.0
 40
0.999315002
 41
-0.7850555471
 42
0.7850555471
  0
ELLIPSE
  5
5A5
100
AcDbEntity
  8
RACCORDO
100
AcDbEllipse
 62
7
  6
CONTINUOUS
 10
-21.8250467754
 20
-21.5998286038
 30
0.0
 11
0.35379574
 21
0.35379574
 31
0.0
 40
0.999315002
 41
-3.9266482007
 42
-2.3565371065
  0
ELLIPSE
  5
5A6
100
AcDbEntity
  8
RACCORDO
100
AcDbEllipse
 62
7
  6
CONTINUOUS
 10
21.6746104321
 20
21.5998286038
 30
0.0
 11
0.35379574
 21
0.35379574
 31
0.0
 40
0.999315002
 41
-0.7850555471
 42
0.7850555471
  0
ELLIPSE
  5
5A7
100
AcDbEntity
  8
RACCORDO
100
AcDbEllipse
 62
7
  6
CONTINUOUS
 10
21.6746104321
 20
-21.5998286038
 30
0.0
 11
0.35379574
 21
-0.35379574
 31
0.0
 40
0.999315002
 41
-0.7850555471
 42
0.7850555471
  0
ELLIPSE
  5
5A8
100
AcDbEntity
  8
DRAFT
100
AcDbEllipse
 62
7
  6
CONTINUOUS
 10
-15.8252181717
 20
-8.95
 30
0.0
 11
-0.0
 21
0.2
 31
0.0
 40
0.0087268678
 41
-2.1262655067
 42
-1.5620696805
  0
ELLIPSE
  5
5A9
100
AcDbEntity
  8
DRAFT
100
AcDbEllipse
 62
7
  6
CONTINUOUS
 10
-6.8252181717
 20
-8.95
 30
0.0
 11
0.0
 21
0.2
 31
0.0
 40
0.0087268678
 41
1.5620696805
 42
2.1262655067
  0
ELLIPSE
  5
5AA
100
AcDbEntity
  8
DRAFT
100
AcDbEllipse
 62
7
  6
CONTINUOUS
 10
-6.8252181717
 20
-16.05
 30
0.0
 11
0.0
 21
0.2
 31
0.0
 40
0.0087268678
 41
1.0153271469
 42
1.5795229731
  0
ELLIPSE
  5
5AB
100
AcDbEntity
  8
DRAFT
100
AcDbEllipse
 62
7
  6
CONTINUOUS
 10
-15.8252181717
 20
-16.05
 30
0.0
 11
0.0
 21
0.2
 31
0.0
 40
0.0087268678
 41
-1.5795229731
 42
-1.0153271469
  0
ELLIPSE
  5
5AC
100
AcDbEntity
  8
0
100
AcDbEllipse
 62
7
  6
CONTINUOUS
 10
-28.3752162268
 20
22.0833543458
 30
0.0
 11
0.4998710509
 21
-0.0113548436
 31
0.0
 40
1.0
 41
-1.5306313946
 42
-0.6320835558
  0
ELLIPSE
  5
5AD
100
AcDbEntity
  8
0
100
AcDbEllipse
 62
7
  6
CONTINUOUS
 10
37.4732134492
 20
23.15
 30
0.0
 11
85.9426996401
 21
-0.0
 31
0.0
 40
0.0058178298
 41
2.5196231925
 42
2.6791261215
  0
ELLIPSE
  5
5AE
100
AcDbEntity
  8
0
100
AcDbEllipse
 62
7
  6
CONTINUOUS
 10
37.4732134492
 20
23.15
 30
0.0
 11
85.9426996401
 21
-0.0
 31
0.0
 40
0.0058178298
 41
-2.6905658418
 42
-2.5196231925
  0
ELLIPSE
  5
5AF
100
AcDbEntity
  8
0
100
AcDbEllipse
 62
7
  6
CONTINUOUS
 10
-28.3752162268
 20
-22.0833543458
 30
0.0
 11
0.4772567694
 21
-0.1490837887
 31
0.0
 40
1.0
 41
0.9575675273
 42
1.8561153661
  0
ELLIPSE
  5
5B0
100
AcDbEntity
  8
0
100
AcDbEllipse
 62
7
  6
CONTINUOUS
 10
37.4732134492
 20
-23.15
 30
0.0
 11
85.9426996401
 21
0.0
 31
0.0
 40
0.0058178298
 41
2.5196231925
 42
2.6905658418
  0
ELLIPSE
  5
5B1
100
AcDbEntity
  8
0
100
AcDbEllipse
 62
7
  6
CONTINUOUS
 10
37.4732134492
 20
-23.15
 30
0.0
 11
85.9426996401
 21
-0.0
 31
0.0
 40
0.0058178298
 41
-2.6791261215
 42
-2.5196231925
  0
ENDSEC
  0
SECTION
  2
OBJECTS
  0
DICTIONARY
  5
C
100
AcDbDictionary
280
0
281
1
  3
ACAD_GROUP
350
D
  3
ACAD_MLINESTYLE
350
17
  3
ACAD_LAYOUT
350
1A
  3
ACAD_PLOTSETTINGS
350
19
  3
ACAD_PLOTSTYLENAME
350
E
  0
DICTIONARY
  5
D
102
{ACAD_REACTORS
330
C
102
}
100
AcDbDictionary
280
0
281
1
  0
ACDBDICTIONARYWDFLT
  5
E
102
{ACAD_REACTORS
330
C
102
}
100
AcDbDictionary
281
1
  3
Normal
350
F
100
AcDbDictionaryWithDefault
340
F
  0
DICTIONARY
  5
17
102
{ACAD_REACTORS
330
C
102
}
100
AcDbDictionary
280
0
281
1
  3
Standard
350
18
  0
DICTIONARY
  5
19
102
{ACAD_REACTORS
330
C
102
}
100
AcDbDictionary
281
1
  0
DICTIONARY
  5
1A
102
{ACAD_REACTORS
330
C
102
}
100
AcDbDictionary
281
1
  3
Model
350
5B2
  3
Layout1
350
5B3
  0
ACDBPLACEHOLDER
  5
F
102
{ACAD_REACTORS
330
E
102
}
  0
MLINESTYLE
  5
18
102
{ACAD_REACTORS
330
17
102
}
100
AcDbMlineStyle
  2
STANDARD
 70
0
  3

 62
256
 51
90.0
 52
90.0
 71
2
 49
0.5
 62
256
  6
BYLAYER
 49
-0.5
 62
256
  6
BYLAYER
  0
LAYOUT
  5
5B2
102
{ACAD_REACTORS
330
1A
102
}
100
AcDbPlotSettings
  1

  2
none_device
  4
ISO_A4_(297.00_x_210.00_MM)
  6

 40
0.0
 41
0.0
 42
0.0
 43
0.0
 44
297.0
 45
210.0
 46
0.0
 47
0.0
 48
0.0
 49
0.0
140
0.0
141
0.0
142
1.0
143
1.0
 70
1024
 72
1
 73
0
 74
0
  7

 75
0
147
1.0
148
0.0
149
0.0
100
AcDbLayout
  1
Model
 70
0
 71
0
 10
0.0
 20
0.0
 11
297.0
 21
210.0
 12
0.0
 22
0.0
 32
0.0
 14
0.0
 24
0.0
 34
0.0
 15
0.0
 25
0.0
 35
0.0
146
0.0
 13
0.0
 23
0.0
 33
0.0
 16
1.0
 26
0.0
 36
0.0
 17
0.0
 27
1.0
 37
0.0
 76
0
330
214
345
0
346
0
  0
LAYOUT
  5
5B3
102
{ACAD_REACTORS
330
1A
102
}
100
AcDbPlotSettings
  1

  2
none_device
  4
ISO_A4_(297.00_x_210.00_MM)
  6

 40
0.0
 41
0.0
 42
0.0
 43
0.0
 44
297.0
 45
210.0
 46
0.0
 47
0.0
 48
0.0
 49
0.0
140
0.0
141
0.0
142
1.0
143
1.0
 70
0
 72
1
 73
0
 74
0
  7

 75
0
147
1.0
148
0.0
149
0.0
100
AcDbLayout
  1
Layout1
 70
0
 71
1
 10
0.0
 20
0.0
 11
297.0
 21
210.0
 12
0.0
 22
0.0
 32
0.0
 14
0.0
 24
0.0
 34
0.0
 15
0.0
 25
0.0
 35
0.0
146
0.0
 13
0.0
 23
0.0
 33
0.0
 16
1.0
 26
0.0
 36
0.0
 17
0.0
 27
1.0
 37
0.0
 76
0
330
215
345
0
346
0
  0
ENDSEC
  0
EOF
