  0
SECTION
  2
HEADER
  9
$ACADVER
  1
AC1015
  9
$DWGCODEPAGE
  3
ANSI_1252
  9
$EXTMAX
 10
297.0
 20
210.0
 30
0.0
  9
$EXTMIN
 10
0.0
 20
0.0
 30
0.0
  9
$LIMMIN
 10
0.0
 20
0.0
  9
$LIMMAX
 10
297.0
 20
210.0
  9
$VIEWCTR
 10
148.5
 20
105.0
  9
$VIEWSIZE
 40
210.0
  9
$CLAYER
  8
0
  9
$LTSCALE
 40
16.335
  9
$CELTYPE
  6
BYLAYER
  9
$DIMSCALE
 40
1.0
  9
$DIMASZ
 40
3.0
  9
$DIMEXO
 40
1.85625
  9
$DIMDLI
 40
11.286
  9
$DIMEXE
 40
5.346
  9
$DIMCEN
 40
2.673
  9
$DIMLFAC
 40
1.0
  9
$DIMBLK
  1
_FILLED
  9
$DIMTXT
 40
3.0
  9
$DIMTOL
 70
1
  9
$DIMLIM
 70
0
  9
$DIMTFAC
 40
1.0
  9
$DIMTP
 40
0.01
  9
$DIMTM
 40
0.01
  9
$PDMODE
 70
3
  9
$PDSIZE
 40
3.0
  9
$HANDSEED
  5
327
  9
$TILEMODE
 70
1
  9
$MEASUREMENT
 70
1
  9
$INSUNITS
 70
4
  0
ENDSEC
  0
SECTION
  2
CLASSES
  0
CLASS
  1
ACDBDICTIONARYWDFLT
  2
AcDbDictionaryWithDefault
  3
AutoCAD 2000
 90
0
280
0
281
0
  0
CLASS
  1
ACDBPLACEHOLDER
  2
AcDbPlaceHolder
  3
AutoCAD 2000
 90
0
280
0
281
0
  0
CLASS
  1
LAYOUT
  2
AcDbLayout
  3
AutoCAD 2000
 90
0
280
0
281
0
  0
ENDSEC
  0
SECTION
  2
TABLES
  0
TABLE
  2
VPORT
  5
8
100
AcDbSymbolTable
 70
2
  0
VPORT
  5
1F4
100
AcDbSymbolTableRecord
100
AcDbViewportTableRecord
  2
*ACTIVE
 70
0
 10
0.0
 20
0.0
 11
1.0
 21
1.0
 12
148.5
 22
105.0
 13
0.0
 23
0.0
 14
1.0
 24
1.0
 15
0.0
 25
0.0
 16
0.0
 26
0.0
 36
1.0
 17
0.0
 27
0.0
 37
0.0
 40
210.0
 41
1.4142857143
 42
50.0
 43
0.0
 44
0.0
 50
0.0
 51
0.0
 71
0
 72
100
 73
1
 74
1
 75
0
 76
0
 77
0
 78
0
  0
ENDTAB
  0
TABLE
  2
LTYPE
  5
5
100
AcDbSymbolTable
 70
6
  0
LTYPE
  5
14
100
AcDbSymbolTableRecord
100
AcDbLinetypeTableRecord
  2
BYBLOCK
 70
0
  3

 72
65
 73
0
 40
0.0
  0
LTYPE
  5
15
100
AcDbSymbolTableRecord
100
AcDbLinetypeTableRecord
  2
BYLAYER
 70
0
  3

 72
65
 73
0
 40
0.0
  0
LTYPE
  5
16
100
AcDbSymbolTableRecord
100
AcDbLinetypeTableRecord
  2
CONTINUOUS
 70
64
  3
Solid line
 72
65
 73
0
 40
0.0
  0
LTYPE
  5
1F5
100
AcDbSymbolTableRecord
100
AcDbLinetypeTableRecord
  2
CENTER
 70
64
  3
____ _ ____ _ ____ _ ____ _ ____ _ ____ _ ____
 72
65
 73
4
 40
0.6
 49
0.375
 74
0
 49
-0.075
 74
0
 49
0.075
 74
0
 49
-0.075
 74
0
  0
LTYPE
  5
1F6
100
AcDbSymbolTableRecord
100
AcDbLinetypeTableRecord
  2
HIDDEN
 70
64
  3
- - - - - - - - - - - - - - - - - - - -
 72
65
 73
2
 40
0.2
 49
0.1
 74
0
 49
-0.1
 74
0
  0
LTYPE
  5
1F7
100
AcDbSymbolTableRecord
100
AcDbLinetypeTableRecord
  2
PHANTOM
 70
64
  3
_____ _ _ _____ _ _ _____ _ _ _____
 72
65
 73
6
 40
0.8
 49
0.45
 74
0
 49
-0.05
 74
0
 49
0.1
 74
0
 49
-0.05
 74
0
 49
0.1
 74
0
 49
-0.05
 74
0
  0
LTYPE
  5
1F8
100
AcDbSymbolTableRecord
100
AcDbLinetypeTableRecord
  2
DOT
 70
64
  3
. . . . . . . . . . . . . . . . . . . .
 72
65
 73
2
 40
0.2
 49
0.1
 74
0
 49
-0.1
 74
0
  0
LTYPE
  5
1F9
100
AcDbSymbolTableRecord
100
AcDbLinetypeTableRecord
  2
DASHED
 70
64
  3
- - - - - - - - - - - - - - - - - - - -
 72
65
 73
2
 40
0.2
 49
0.1
 74
0
 49
-0.1
 74
0
  0
ENDTAB
  0
TABLE
  2
LAYER
  5
2
100
AcDbSymbolTable
 70
36
  0
LAYER
  5
10
100
AcDbSymbolTableRecord
100
AcDbLayerTableRecord
  2
0
 70
0
 62
7
  6
CONTINUOUS
370
-3
390
F
  0
LAYER
  5
1FA
100
AcDbSymbolTableRecord
100
AcDbLayerTableRecord
  2
DEFAULT_1
 70
0
 62
7
  6
CENTER
370
-3
390
F
  0
LAYER
  5
1FB
100
AcDbSymbolTableRecord
100
AcDbLayerTableRecord
  2
DEFAULT_2
 70
0
 62
7
  6
HIDDEN
370
-3
390
F
  0
LAYER
  5
1FC
100
AcDbSymbolTableRecord
100
AcDbLayerTableRecord
  2
DEFAULT_3
 70
0
 62
7
  6
PHANTOM
370
-3
390
F
  0
LAYER
  5
1FD
100
AcDbSymbolTableRecord
100
AcDbLayerTableRecord
  2
ASSI
 70
0
 62
7
  6
CONTINUOUS
370
-3
390
F
  0
LAYER
  5
1FE
100
AcDbSymbolTableRecord
100
AcDbLayerTableRecord
  2
COLOR9
 70
0
 62
7
  6
CONTINUOUS
370
-3
390
F
  0
LAYER
  5
1FF
100
AcDbSymbolTableRecord
100
AcDbLayerTableRecord
  2
COORDINATE
 70
0
 62
7
  6
CONTINUOUS
370
-3
390
F
  0
LAYER
  5
200
100
AcDbSymbolTableRecord
100
AcDbLayerTableRecord
  2
COORD_ORIGINE
 70
0
 62
7
  6
CONTINUOUS
370
-3
390
F
  0
LAYER
  5
201
100
AcDbSymbolTableRecord
100
AcDbLayerTableRecord
  2
COSMETICI
 70
0
 62
7
  6
CONTINUOUS
370
-3
390
F
  0
LAYER
  5
202
100
AcDbSymbolTableRecord
100
AcDbLayerTableRecord
  2
CURVE
 70
0
 62
7
  6
CONTINUOUS
370
-3
390
F
  0
LAYER
  5
203
100
AcDbSymbolTableRecord
100
AcDbLayerTableRecord
  2
DRAFT
 70
0
 62
7
  6
CONTINUOUS
370
-3
390
F
  0
LAYER
  5
204
100
AcDbSymbolTableRecord
100
AcDbLayerTableRecord
  2
IMPORT_IGES
 70
0
 62
7
  6
CONTINUOUS
370
-3
390
F
  0
LAYER
  5
205
100
AcDbSymbolTableRecord
100
AcDbLayerTableRecord
  2
INTF_1
 70
0
 62
7
  6
CONTINUOUS
370
-3
390
F
  0
LAYER
  5
206
100
AcDbSymbolTableRecord
100
AcDbLayerTableRecord
  2
INTF_8
 70
0
 62
7
  6
CONTINUOUS
370
-3
390
F
  0
LAYER
  5
207
100
AcDbSymbolTableRecord
100
AcDbLayerTableRecord
  2
INTF_YELLOW
 70
0
 62
7
  6
CONTINUOUS
370
-3
390
F
  0
LAYER
  5
208
100
AcDbSymbolTableRecord
100
AcDbLayerTableRecord
  2
NOTE
 70
0
 62
7
  6
CONTINUOUS
370
-3
390
F
  0
LAYER
  5
209
100
AcDbSymbolTableRecord
100
AcDbLayerTableRecord
  2
PIANI
 70
0
 62
7
  6
CONTINUOUS
370
-3
390
F
  0
LAYER
  5
20A
100
AcDbSymbolTableRecord
100
AcDbLayerTableRecord
  2
PIANI_ORIGINE
 70
0
 62
7
  6
CONTINUOUS
370
-3
390
F
  0
LAYER
  5
20B
100
AcDbSymbolTableRecord
100
AcDbLayerTableRecord
  2
PIANI_RIFERIMENTO
 70
0
 62
7
  6
CONTINUOUS
370
-3
390
F
  0
LAYER
  5
20C
100
AcDbSymbolTableRecord
100
AcDbLayerTableRecord
  2
PUNTI
 70
0
 62
7
  6
CONTINUOUS
370
-3
390
F
  0
LAYER
  5
20D
100
AcDbSymbolTableRecord
100
AcDbLayerTableRecord
  2
RACCORDO
 70
0
 62
7
  6
CONTINUOUS
370
-3
390
F
  0
LAYER
  5
20E
100
AcDbSymbolTableRecord
100
AcDbLayerTableRecord
  2
RGB__255__255__255__
 70
0
 62
7
  6
CONTINUOUS
370
-3
390
F
  0
LAYER
  5
20F
100
AcDbSymbolTableRecord
100
AcDbLayerTableRecord
  2
RGB____0____0____0__
 70
0
 62
7
  6
CONTINUOUS
370
-3
390
F
  0
LAYER
  5
210
100
AcDbSymbolTableRecord
100
AcDbLayerTableRecord
  2
SIMBOLI
 70
0
 62
7
  6
CONTINUOUS
370
-3
390
F
  0
LAYER
  5
211
100
AcDbSymbolTableRecord
100
AcDbLayerTableRecord
  2
SMUSSO
 70
0
 62
7
  6
CONTINUOUS
370
-3
390
F
  0
LAYER
  5
212
100
AcDbSymbolTableRecord
100
AcDbLayerTableRecord
  2
SNAPLINE
 70
0
 62
7
  6
CONTINUOUS
370
-3
390
F
  0
LAYER
  5
213
100
AcDbSymbolTableRecord
100
AcDbLayerTableRecord
  2
SUPERFICI
 70
0
 62
7
  6
CONTINUOUS
370
-3
390
F
  0
LAYER
  5
214
100
AcDbSymbolTableRecord
100
AcDbLayerTableRecord
  2
TRASH
 70
0
 62
7
  6
CONTINUOUS
370
-3
390
F
  0
LAYER
  5
215
100
AcDbSymbolTableRecord
100
AcDbLayerTableRecord
  2
XSEC_DATUMS
 70
0
 62
7
  6
CONTINUOUS
370
-3
390
F
  0
ENDTAB
  0
TABLE
  2
STYLE
  5
3
100
AcDbSymbolTable
 70
1
  0
STYLE
  5
11
100
AcDbSymbolTableRecord
100
AcDbTextStyleTableRecord
  2
STANDARD
 70
0
 40
0.0
 41
0.8
 50
0.0
 71
0
 42
0.2
  3
txt
  4

  0
STYLE
  5
216
100
AcDbSymbolTableRecord
100
AcDbTextStyleTableRecord
  2
TEXTSTYLE_1
 70
0
 40
0.0
 41
0.8
 50
0.0
 71
0
 42
0.2
  3
gdt
  4

  0
ENDTAB
  0
TABLE
  2
VIEW
  5
6
100
AcDbSymbolTable
 70
0
  0
ENDTAB
  0
TABLE
  2
UCS
  5
7
100
AcDbSymbolTable
 70
0
  0
ENDTAB
  0
TABLE
  2
APPID
  5
9
100
AcDbSymbolTable
 70
1
  0
APPID
  5
217
100
AcDbSymbolTableRecord
100
AcDbRegAppTableRecord
  2
ACAD
 70
0
  0
ENDTAB
  0
TABLE
  2
BLOCK_RECORD
  5
1
100
AcDbSymbolTable
 70
0
  0
BLOCK_RECORD
  5
218
100
AcDbSymbolTableRecord
100
AcDbBlockTableRecord
  2
*Model_Space
  0
BLOCK_RECORD
  5
219
100
AcDbSymbolTableRecord
100
AcDbBlockTableRecord
  2
*Paper_Space
  0
BLOCK_RECORD
  5
21A
100
AcDbSymbolTableRecord
100
AcDbBlockTableRecord
  2
_FILLED
  0
BLOCK_RECORD
  5
21B
100
AcDbSymbolTableRecord
100
AcDbBlockTableRecord
  2
*D0
  0
BLOCK_RECORD
  5
21C
100
AcDbSymbolTableRecord
100
AcDbBlockTableRecord
  2
*D1
  0
BLOCK_RECORD
  5
21D
100
AcDbSymbolTableRecord
100
AcDbBlockTableRecord
  2
*D2
  0
ENDTAB
  0
TABLE
  2
DIMSTYLE
  5
A
100
AcDbSymbolTable
 70
1
100
AcDbDimStyleTable
 71
0
  0
DIMSTYLE
105
21E
100
AcDbSymbolTableRecord
100
AcDbDimStyleTableRecord
  2
STANDARD
 70
0
  3

  4

 40
1.0
 41
3.0
 42
0.0625
 43
0.38
 44
0.18
 45
0.0
 46
0.0
 47
0.01
 48
0.01
140
3.0
141
0.09
142
0.0
143
25.4
144
1.0
145
0.0
146
1.0
147
0.09
 71
1.0
 72
0.0
 73
0
 74
0
 75
0
 76
0
 77
1
 78
8
170
0
171
2
172
0
173
0
174
0
175
0
176
0
177
0
178
0
270
2
271
2
272
2
273
2
274
2
275
0
280
0
281
0
282
0
283
1
284
8
285
0
286
0
287
3
288
0
340
11
341
21A
342
21A
343
21A
344
21A
  0
DIMSTYLE
105
21F
100
AcDbSymbolTableRecord
100
AcDbDimStyleTableRecord
  2
DIMSTYLE_1
 70
0
  3

  4

 40
1.0
 41
3.0
 42
0.0625
 43
0.38
 44
0.18
 45
0.0
 46
0.0
 47
0.0
 48
0.0
140
3.0
141
0.09
142
0.0
143
25.4
144
1.0
145
0.0
146
1.0
147
0.09
 71
0.0
 72
0.0
 73
0
 74
0
 75
0
 76
0
 77
1
 78
8
170
0
171
2
172
0
173
0
174
0
175
0
176
0
177
0
178
0
270
2
271
1
272
1
273
2
274
2
275
0
280
0
281
0
282
0
283
1
284
8
285
0
286
0
287
3
288
0
340
11
341
21A
342
21A
343
21A
344
21A
  0
DIMSTYLE
105
220
100
AcDbSymbolTableRecord
100
AcDbDimStyleTableRecord
  2
DIMSTYLE_2
 70
0
  3

  4

 40
1.0
 41
3.0
 42
0.0625
 43
0.38
 44
0.18
 45
0.0
 46
0.0
 47
0.0
 48
0.0
140
3.0
141
0.09
142
0.0
143
25.4
144
1.0
145
0.0
146
1.0
147
0.09
 71
0.0
 72
0.0
 73
0
 74
0
 75
0
 76
0
 77
1
 78
8
170
0
171
2
172
0
173
0
174
0
175
0
176
0
177
0
178
0
270
2
271
2
272
2
273
2
274
2
275
0
280
0
281
0
282
0
283
1
284
8
285
0
286
0
287
3
288
0
340
11
341
21A
342
21A
343
21A
344
21A
  0
ENDTAB
  0
ENDSEC
  0
SECTION
  2
BLOCKS
  0
BLOCK
  5
20
100
AcDbEntity
  8
0
100
AcDbBlockBegin
  2
*Model_Space
 70
0
 10
0.0
 20
0.0
 30
0.0
  3
*Model_Space
  1

  0
ENDBLK
  5
21
100
AcDbEntity
  8
0
100
AcDbBlockEnd
  0
BLOCK
  5
1C
100
AcDbEntity
  8
0
100
AcDbBlockBegin
  2
*Paper_Space
 70
0
 10
0.0
 20
0.0
 30
0.0
  3
*Paper_Space
  1

  0
ENDBLK
  5
1D
100
AcDbEntity
  8
0
100
AcDbBlockEnd
  0
BLOCK
  5
221
100
AcDbEntity
  8
0
100
AcDbBlockBegin
  2
_FILLED
 70
64
 10
0.0
 20
0.0
  3
_FILLED
  1

  0
SOLID
  5
222
100
AcDbEntity
  8
0
  6
BYBLOCK
 62
0
100
AcDbTrace
 10
0.0
 20
0.0
 11
-1.0
 21
0.3166666667
 12
-1.0
 22
-0.3166666667
 13
-1.0
 23
-0.3166666667
  0
ENDBLK
  5
223
100
AcDbEntity
  8
0
  6
BYBLOCK
 62
0
100
AcDbBlockEnd
  0
BLOCK
  5
224
100
AcDbEntity
  8
0
100
AcDbBlockBegin
 62
7
  6
CONTINUOUS
  2
*D0
 70
65
 10
0.0
 20
0.0
  3
*D0
  1

  0
LINE
  5
225
100
AcDbEntity
  8
0
100
AcDbLine
 62
7
  6
CONTINUOUS
 10
-11.0514422353
 20
22.431406897
 11
-11.0514422353
 21
31.6114422353
  0
LINE
  5
226
100
AcDbEntity
  8
0
100
AcDbLine
 62
7
  6
CONTINUOUS
 10
11.0514422353
 20
22.2482869155
 11
11.0514422353
 21
31.6114422353
  0
LINE
  5
227
100
AcDbEntity
  8
0
100
AcDbLine
 62
7
  6
CONTINUOUS
 10
-11.0514422353
 20
30.1114422353
 11
0.0
 21
30.1114422353
  0
LINE
  5
228
100
AcDbEntity
  8
0
100
AcDbLine
 62
7
  6
CONTINUOUS
 10
11.0514422353
 20
30.1114422353
 11
0.0
 21
30.1114422353
  0
INSERT
  5
229
100
AcDbEntity
  8
0
100
AcDbBlockReference
 62
7
  6
CONTINUOUS
  2
_FILLED
 10
-11.0514422353
 20
30.1114422353
 41
3.0
 42
3.0
 43
3.0
 50
180.0
  0
INSERT
  5
22A
100
AcDbEntity
  8
0
100
AcDbBlockReference
 62
7
  6
CONTINUOUS
  2
_FILLED
 10
11.0514422353
 20
30.1114422353
 41
3.0
 42
3.0
 43
3.0
  0
ENDBLK
  5
22B
100
AcDbEntity
  8
0
  6
BYBLOCK
 62
0
100
AcDbBlockEnd
  0
BLOCK
  5
22C
100
AcDbEntity
  8
0
100
AcDbBlockBegin
 62
7
  6
CONTINUOUS
  2
*D1
 70
65
 10
0.0
 20
0.0
  3
*D1
  1

  0
LINE
  5
22D
100
AcDbEntity
  8
0
100
AcDbLine
 62
7
  6
CONTINUOUS
 10
12.6436698807
 20
22.1114422353
 11
20.63
 21
22.1114422353
  0
LINE
  5
22E
100
AcDbEntity
  8
0
100
AcDbLine
 62
7
  6
CONTINUOUS
 10
12.445049191
 20
-22.1114422353
 11
20.63
 21
-22.1114422353
  0
LINE
  5
22F
100
AcDbEntity
  8
0
100
AcDbLine
 62
7
  6
CONTINUOUS
 10
19.13
 20
22.1114422353
 11
19.13
 21
0.0
  0
LINE
  5
230
100
AcDbEntity
  8
0
100
AcDbLine
 62
7
  6
CONTINUOUS
 10
19.13
 20
-22.1114422353
 11
19.13
 21
0.0
  0
INSERT
  5
231
100
AcDbEntity
  8
0
100
AcDbBlockReference
 62
7
  6
CONTINUOUS
  2
_FILLED
 10
19.13
 20
22.1114422353
 41
3.0
 42
3.0
 43
3.0
 50
90.0
  0
INSERT
  5
232
100
AcDbEntity
  8
0
100
AcDbBlockReference
 62
7
  6
CONTINUOUS
  2
_FILLED
 10
19.13
 20
-22.1114422353
 41
3.0
 42
3.0
 43
3.0
 50
270.0
  0
ENDBLK
  5
233
100
AcDbEntity
  8
0
  6
BYBLOCK
 62
0
100
AcDbBlockEnd
  0
BLOCK
  5
234
100
AcDbEntity
  8
0
100
AcDbBlockBegin
 62
7
  6
CONTINUOUS
  2
*D2
 70
65
 10
0.0
 20
0.0
  3
*D2
  1

  0
LINE
  5
235
100
AcDbEntity
  8
0
100
AcDbLine
 62
7
  6
CONTINUOUS
 10
-34.3602173581
 20
10.2310194482
 11
-34.3602173581
 21
31.6114422353
  0
LINE
  5
236
100
AcDbEntity
  8
0
100
AcDbLine
 62
7
  6
CONTINUOUS
 10
-38.3602173581
 20
0.5
 11
-38.3602173581
 21
31.6114422353
  0
LINE
  5
237
100
AcDbEntity
  8
0
100
AcDbLine
 62
7
  6
CONTINUOUS
 10
-34.3602173581
 20
30.1114422353
 11
-30.3602173581
 21
30.1114422353
  0
LINE
  5
238
100
AcDbEntity
  8
0
100
AcDbLine
 62
7
  6
CONTINUOUS
 10
-30.3602173581
 20
30.1114422353
 11
-36.3602173581
 21
30.1114422353
  0
LINE
  5
239
100
AcDbEntity
  8
0
100
AcDbLine
 62
7
  6
CONTINUOUS
 10
-38.3602173581
 20
30.1114422353
 11
-43.9009663948
 21
30.1114422353
  0
LINE
  5
23A
100
AcDbEntity
  8
0
100
AcDbLine
 62
7
  6
CONTINUOUS
 10
-43.9009663948
 20
30.1114422353
 11
-36.3602173581
 21
30.1114422353
  0
INSERT
  5
23B
100
AcDbEntity
  8
0
100
AcDbBlockReference
 62
7
  6
CONTINUOUS
  2
_FILLED
 10
-34.3602173581
 20
30.1114422353
 41
3.0
 42
3.0
 43
3.0
 50
180.0
  0
INSERT
  5
23C
100
AcDbEntity
  8
0
100
AcDbBlockReference
 62
7
  6
CONTINUOUS
  2
_FILLED
 10
-38.3602173581
 20
30.1114422353
 41
3.0
 42
3.0
 43
3.0
  0
ENDBLK
  5
23D
100
AcDbEntity
  8
0
  6
BYBLOCK
 62
0
100
AcDbBlockEnd
  0
ENDSEC
  0
SECTION
  2
ENTITIES
  0
DIMENSION
  5
23E
100
AcDbEntity
  8
0
100
AcDbDimension
 62
7
  6
CONTINUOUS
  2
*D0
 10
11.0514422353
 20
30.1114422353
 11
-4.0714285714
 21
30.8614422353
 70
160
 71
2
 42
22.1028844706
  3
DIMSTYLE_1
100
AcDbAlignedDimension
 13
-11.0514422353
 23
22.431406897
 14
11.0514422353
 24
22.2482869155
100
AcDbRotatedDimension
  0
DIMENSION
  5
23F
100
AcDbEntity
  8
0
100
AcDbDimension
 62
7
  6
CONTINUOUS
  2
*D1
 10
19.13
 20
-22.1114422353
 11
18.38
 21
-4.3928571429
 70
160
 71
2
 42
44.2228844706
  3
DIMSTYLE_1
100
AcDbAlignedDimension
 13
12.6436698807
 23
22.1114422353
 14
12.445049191
 24
-22.1114422353
 50
270.0
100
AcDbRotatedDimension
  0
DIMENSION
  5
240
100
AcDbEntity
  8
0
100
AcDbDimension
 62
7
  6
CONTINUOUS
  2
*D2
 10
-38.3602173581
 20
30.1114422353
 11
-43.9009663948
 21
30.8614422353
 70
160
 71
3
 42
4.0
  3
DIMSTYLE_2
100
AcDbAlignedDimension
 13
-34.3602173581
 23
10.2310194482
 14
-38.3602173581
 24
0.5
 50
180.0
100
AcDbRotatedDimension
  0
LWPOLYLINE
  5
241
100
AcDbEntity
  8
0
100
AcDbPolyline
 62
7
  6
CONTINUOUS
 90
3
 70
0
 43
0.3500000006
 10
2.3571427875
 20
33.0043014221
 10
3.2142856836
 20
33.8614438934
 10
3.2142856836
 20
30.8614429779
  0
LINE
  5
242
100
AcDbEntity
  8
0
100
AcDbLine
 62
7
  6
CONTINUOUS
 10
10.5516135728
 20
-22.1114422353
 11
-10.5516135728
 21
-22.1114422353
  0
LINE
  5
243
100
AcDbEntity
  8
RACCORDO
100
AcDbLine
 62
253
  6
CONTINUOUS
 10
10.5266513084
 20
-22.0864799709
 11
-10.5266513084
 21
-22.0864799709
  0
LINE
  5
244
100
AcDbEntity
  8
RACCORDO
100
AcDbLine
 62
253
  6
CONTINUOUS
 10
10.5140480307
 20
-21.2362251476
 11
-10.5140480307
 21
-21.2362251476
  0
LWPOLYLINE
  5
245
100
AcDbEntity
  8
RACCORDO
100
AcDbPolyline
 62
253
  6
CONTINUOUS
 90
16
 70
0
 10
-11.0138766931
 20
21.1615238967
 10
-11.0098965
 20
21.1692064438
 10
-11.0006612473
 20
21.1768075537
 10
-10.9862688116
 20
21.1842466688
 10
-10.9668717254
 20
21.1914449486
 10
-10.9426755615
 20
21.1983261048
 10
-10.9139367539
 20
21.2048172101
 10
-10.8809598798
 20
21.2108494709
 10
-10.8440944322
 20
21.2163589566
 10
-10.8037311155
 20
21.221287277
 10
-10.7602977052
 20
21.2255822012
 10
-10.7142545137
 20
21.2291982111
 10
-10.6660895124
 20
21.232096984
 10
-10.6163131598
 20
21.2342477985
 10
-10.5654529919
 20
21.2356278599
 10
-10.5140480307
 20
21.2362225423
  0
LWPOLYLINE
  5
246
100
AcDbEntity
  8
RACCORDO
100
AcDbPolyline
 62
253
  6
CONTINUOUS
 90
16
 70
0
 10
-11.0138766932
 20
-21.1615238967
 10
-11.0098974611
 20
-21.1692066574
 10
-11.0006630216
 20
-21.176807993
 10
-10.9862712449
 20
-21.1842473417
 10
-10.9668746607
 20
-21.1914458583
 10
-10.9426788416
 20
-21.1983272502
 10
-10.9139402246
 20
-21.2048185855
 10
-10.8809633926
 20
-21.2108510667
 10
-10.8440978473
 20
-21.216360759
 10
-10.803734304
 20
-21.2212892686
 10
-10.7603005516
 20
-21.2255843612
 10
-10.7142569181
 20
-21.2292005157
 10
-10.6660913919
 20
-21.232099407
 10
-10.6163144504
 20
-21.2342503114
 10
-10.5654536491
 20
-21.2356304329
 10
-10.5140480307
 20
-21.2362251442
  0
LWPOLYLINE
  5
247
100
AcDbEntity
  8
RACCORDO
100
AcDbPolyline
 62
253
  6
CONTINUOUS
 90
16
 70
0
 10
-11.0264799709
 20
-21.5866513084
 10
-11.0237085608
 20
-21.638873962
 10
-11.0154962044
 20
-21.6905251247
 10
-11.0019327487
 20
-21.7410393988
 10
-10.9831666165
 20
-21.7898638266
 10
-10.9594031858
 20
-21.8364639333
 10
-10.9309025464
 20
-21.8803295793
 10
-10.897976642
 20
-21.9209805652
 10
-10.8609858676
 20
-21.9579718672
 10
-10.8203351383
 20
-21.9908985062
 10
-10.7764694206
 20
-22.0194000157
 10
-10.729868886
 20
-22.0431643617
 10
-10.6810436815
 20
-22.0619313551
 10
-10.6305282932
 20
-22.0754955292
 10
-10.5788756908
 20
-22.0837083782
 10
-10.5266513085
 20
-22.086479971
  0
LWPOLYLINE
  5
248
100
AcDbEntity
  8
RACCORDO
100
AcDbPolyline
 62
253
  6
CONTINUOUS
 90
16
 70
0
 10
-11.0264799709
 20
21.5866513084
 10
-11.0237084581
 20
21.6388749344
 10
-11.015495829
 20
21.690526886
 10
-11.0019319847
 20
21.7410417469
 10
-10.9831654039
 20
21.789866548
 10
-10.9594015179
 20
21.8364668207
 10
-10.930900462
 20
21.8803324476
 10
-10.8979742277
 20
21.9209832467
 10
-10.8609832471
 20
21.9579742273
 10
-10.8203324481
 20
21.9909004617
 10
-10.7764668212
 20
22.0194015177
 10
-10.7298665484
 20
22.0431654037
 10
-10.6810417473
 20
22.0619319846
 10
-10.6305268863
 20
22.075495829
 10
-10.5788749345
 20
22.0837084581
 10
-10.5266513084
 20
22.0864799709
  0
LWPOLYLINE
  5
249
100
AcDbEntity
  8
RACCORDO
100
AcDbPolyline
 62
253
  6
CONTINUOUS
 90
7
 70
0
 10
10.9879958269
 20
-9.4905
 10
10.9840029648
 20
-9.4914768667
 10
10.9747570053
 20
-9.492443384
 10
10.960355904
 20
-9.4933893122
 10
10.9409522323
 20
-9.4943046298
 10
10.9167515612
 20
-9.4951796396
 10
10.8880102829
 20
-9.4960050712
  0
LWPOLYLINE
  5
24A
100
AcDbEntity
  8
RACCORDO
100
AcDbPolyline
 62
253
  6
CONTINUOUS
 90
8
 70
0
 10
-10.9879958269
 20
-9.4905
 10
-10.9840029683
 20
-9.4914768667
 10
-10.9747570117
 20
-9.4924433841
 10
-10.9603559128
 20
-9.4933893124
 10
-10.9409522429
 20
-9.4943046301
 10
-10.9167515731
 20
-9.4951796399
 10
-10.8880102954
 20
-9.4960050715
 10
-10.818168786
 20
-9.4974728385
  0
LWPOLYLINE
  5
24B
100
AcDbEntity
  8
RACCORDO
100
AcDbPolyline
 62
253
  6
CONTINUOUS
 90
10
 70
0
 10
-11.0181568186
 20
21.4616298466
 10
-11.0189431232
 20
21.4861047249
 10
-11.0197813036
 20
21.5083229653
 10
-11.0206563049
 20
21.5278932804
 10
-11.021569386
 20
21.5447694949
 10
-11.0225192882
 20
21.5589977841
 10
-11.0234871808
 20
21.5703253862
 10
-11.024466787
 20
21.5786680473
 10
-11.0254643837
 20
21.5841100214
 10
-11.0264799709
 20
21.5866513084
  0
LWPOLYLINE
  5
24C
100
AcDbEntity
  8
RACCORDO
100
AcDbPolyline
 62
253
  6
CONTINUOUS
 90
7
 70
0
 10
-10.5208205485
 20
21.968635596
 10
-10.5217310492
 20
22.0024936657
 10
-10.522678348
 20
22.0308586736
 10
-10.523645698
 20
22.0535589575
 10
-10.5246275169
 20
22.0704577735
 10
-10.5256293871
 20
22.0814535722
 10
-10.5266513084
 20
22.0864799709
  0
LINE
  5
24D
100
AcDbEntity
  8
RACCORDO
100
AcDbLine
 62
253
  6
CONTINUOUS
 10
-11.0167415586
 20
21.4058170317
 11
-11.0181568186
 21
21.4616298466
  0
LINE
  5
24E
100
AcDbEntity
  8
RACCORDO
100
AcDbLine
 62
253
  6
CONTINUOUS
 10
-10.5191111237
 20
21.8852903227
 11
-10.5208205485
 21
21.968635596
  0
LINE
  5
24F
100
AcDbEntity
  8
RACCORDO
100
AcDbLine
 62
253
  6
CONTINUOUS
 10
-11.0155723942
 20
21.3425178419
 11
-11.0167415586
 21
21.4058170317
  0
LINE
  5
250
100
AcDbEntity
  8
RACCORDO
100
AcDbLine
 62
253
  6
CONTINUOUS
 10
-11.014670723
 20
21.2729528004
 11
-11.0155723942
 21
21.3425178419
  0
LINE
  5
251
100
AcDbEntity
  8
RACCORDO
100
AcDbLine
 62
253
  6
CONTINUOUS
 10
-10.5169146285
 20
21.7251570648
 11
-10.5191111237
 21
21.8852903227
  0
LINE
  5
252
100
AcDbEntity
  8
RACCORDO
100
AcDbLine
 62
253
  6
CONTINUOUS
 10
-10.5148466607
 20
21.4599831598
 11
-10.5169146285
 21
21.7251570648
  0
LINE
  5
253
100
AcDbEntity
  8
RACCORDO
100
AcDbLine
 62
253
  6
CONTINUOUS
 10
-11.0138766932
 20
21.1615238967
 11
-11.014670723
 21
21.2729528004
  0
LINE
  5
254
100
AcDbEntity
  8
RACCORDO
100
AcDbLine
 62
253
  6
CONTINUOUS
 10
-10.9974325226
 20
15.9909603469
 11
-11.0138766932
 21
21.1615238967
  0
LINE
  5
255
100
AcDbEntity
  8
RACCORDO
100
AcDbLine
 62
253
  6
CONTINUOUS
 10
-10.4976037727
 20
16.0366547986
 11
-10.5140480307
 21
21.2362251476
  0
LINE
  5
256
100
AcDbEntity
  8
RACCORDO
100
AcDbLine
 62
253
  6
CONTINUOUS
 10
-10.5140480307
 20
21.2362251476
 11
-10.5148466607
 21
21.4599831598
  0
LINE
  5
257
100
AcDbEntity
  8
RACCORDO
100
AcDbLine
 62
253
  6
CONTINUOUS
 10
-10.98889248
 20
10.7928354503
 11
-10.9974325226
 21
15.9909603469
  0
LINE
  5
258
100
AcDbEntity
  8
RACCORDO
100
AcDbLine
 62
253
  6
CONTINUOUS
 10
-10.4890638443
 20
10.8091626086
 11
-10.4976037727
 21
16.0366547986
  0
LINE
  5
259
100
AcDbEntity
  8
0
100
AcDbLine
 62
7
  6
CONTINUOUS
 10
-11.0514422353
 20
21.6116135728
 11
-11.0514422353
 21
-21.6116135728
  0
LINE
  5
25A
100
AcDbEntity
  8
RACCORDO
100
AcDbLine
 62
253
  6
CONTINUOUS
 10
-10.9902843163
 20
-12.0939699785
 11
-10.98889248
 21
10.7928354503
  0
LINE
  5
25B
100
AcDbEntity
  8
RACCORDO
100
AcDbLine
 62
253
  6
CONTINUOUS
 10
-10.4904557226
 20
-12.1176863817
 11
-10.4890638443
 21
10.8091626086
  0
LINE
  5
25C
100
AcDbEntity
  8
RACCORDO
100
AcDbLine
 62
253
  6
CONTINUOUS
 10
-11.0008039357
 20
-17.2868145217
 11
-10.9902843163
 21
-12.0939699785
  0
LINE
  5
25D
100
AcDbEntity
  8
RACCORDO
100
AcDbLine
 62
253
  6
CONTINUOUS
 10
-10.500975233
 20
-17.339854897
 11
-10.4904557226
 21
-12.1176863817
  0
LINE
  5
25E
100
AcDbEntity
  8
RACCORDO
100
AcDbLine
 62
253
  6
CONTINUOUS
 10
-10.5152609176
 20
-21.5306766563
 11
-10.500975233
 21
-17.339854897
  0
LINE
  5
25F
100
AcDbEntity
  8
RACCORDO
100
AcDbLine
 62
253
  6
CONTINUOUS
 10
-11.0143326477
 20
-21.2368235579
 11
-11.0008039357
 21
-17.2868145217
  0
LINE
  5
260
100
AcDbEntity
  8
RACCORDO
100
AcDbLine
 62
253
  6
CONTINUOUS
 10
-10.5169142997
 20
-21.7251528619
 11
-10.5152609176
 21
-21.5306766563
  0
LINE
  5
261
100
AcDbEntity
  8
RACCORDO
100
AcDbLine
 62
253
  6
CONTINUOUS
 10
-11.0150841564
 20
-21.3081932214
 11
-11.0143326477
 21
-21.2368235579
  0
LINE
  5
262
100
AcDbEntity
  8
RACCORDO
100
AcDbLine
 62
253
  6
CONTINUOUS
 10
-10.5191102789
 20
-21.8852865879
 11
-10.5169142997
 21
-21.7251528619
  0
LINE
  5
263
100
AcDbEntity
  8
RACCORDO
100
AcDbLine
 62
253
  6
CONTINUOUS
 10
-11.0161223366
 20
-21.3749505517
 11
-11.0150841564
 21
-21.3081932214
  0
LINE
  5
264
100
AcDbEntity
  8
RACCORDO
100
AcDbLine
 62
253
  6
CONTINUOUS
 10
10.8880102829
 20
-9.4960050712
 11
10.8181687736
 21
-9.4974728381
  0
LWPOLYLINE
  5
265
100
AcDbEntity
  8
0
100
AcDbPolyline
 62
7
  6
CONTINUOUS
 90
3
 70
0
 43
0.3500000006
 10
1.3571429071
 20
31.1471586456
 10
1.2857142735
 20
30.9328696289
 10
1.1428571477
 20
30.647158493
  0
LINE
  5
266
100
AcDbEntity
  8
0
100
AcDbLine
 62
253
  6
CONTINUOUS
 10
10.5516135728
 20
22.1114422353
 11
10.5266513084
 21
22.0864799709
  0
LINE
  5
267
100
AcDbEntity
  8
RACCORDO
100
AcDbLine
 62
253
  6
CONTINUOUS
 10
10.8181687736
 20
-9.4974728381
 11
10.7343795892
 21
-9.4986458946
  0
LINE
  5
268
100
AcDbEntity
  8
RACCORDO
100
AcDbLine
 62
253
  6
CONTINUOUS
 10
10.7343795892
 20
-9.4986458946
 11
10.6401841195
 21
-9.499474661
  0
LINE
  5
269
100
AcDbEntity
  8
RACCORDO
100
AcDbLine
 62
253
  6
CONTINUOUS
 10
10.6401841195
 20
-9.499474661
 11
10.4881671644
 21
-9.4999999993
  0
LINE
  5
26A
100
AcDbEntity
  8
RACCORDO
100
AcDbLine
 62
253
  6
CONTINUOUS
 10
-10.5904154861
 20
-9.4997483763
 11
10.4881671644
 21
-9.5
  0
LINE
  5
26B
100
AcDbEntity
  8
RACCORDO
100
AcDbLine
 62
253
  6
CONTINUOUS
 10
-10.6883422333
 20
-9.4991058655
 11
-10.5904154861
 21
-9.4997483763
  0
LWPOLYLINE
  5
26C
100
AcDbEntity
  8
RACCORDO
100
AcDbPolyline
 62
253
  6
CONTINUOUS
 90
3
 70
0
 10
-10.818168786
 20
-9.4974728385
 10
-10.7778084852
 20
-9.4980996237
 10
-10.6883422333
 20
-9.4991058655
  0
LINE
  5
26D
100
AcDbEntity
  8
0
100
AcDbLine
 62
253
  6
CONTINUOUS
 10
10.5266513084
 20
-22.0864799709
 11
10.5516135728
 21
-22.1114422353
  0
LINE
  5
26E
100
AcDbEntity
  8
0
100
AcDbLine
 62
253
  6
CONTINUOUS
 10
11.0514422353
 20
21.6116135728
 11
11.0264799709
 21
21.5866513084
  0
LINE
  5
26F
100
AcDbEntity
  8
0
100
AcDbLine
 62
253
  6
CONTINUOUS
 10
11.0264799709
 20
-21.5866513084
 11
11.0514422353
 21
-21.6116135728
  0
LWPOLYLINE
  5
270
100
AcDbEntity
  8
RACCORDO
100
AcDbPolyline
 62
253
  6
CONTINUOUS
 90
8
 70
0
 10
-10.5266513084
 20
-22.0864799709
 10
-10.5256293033
 20
-22.0814536019
 10
-10.5246273547
 20
-22.070457797
 10
-10.5236454625
 20
-22.0535588376
 10
-10.5226780577
 20
-22.0308580893
 10
-10.5217307095
 20
-22.0024922519
 10
-10.5208201249
 20
-21.9686332738
 10
-10.5191102789
 20
-21.8852865879
  0
LWPOLYLINE
  5
271
100
AcDbEntity
  8
SUPERFICI
100
AcDbPolyline
 62
7
  6
CONTINUOUS
 90
18
 70
0
 10
-4.5145046525
 20
0.1720771509
 10
-4.5256481529
 20
0.1549280894
 10
-4.5355360103
 20
0.1372210998
 10
-4.5441682246
 20
0.1189561822
 10
-4.5515756763
 20
0.1000380231
 10
-4.557727485
 20
0.0805619361
 10
-4.5625310087
 20
0.0608138614
 10
-4.5659644997
 20
0.0408015172
 10
-4.5680497059
 20
0.0205171854
 10
-4.5687592287
 20
0.0002236523
 10
-4.5680765548
 20
-0.0200836614
 10
-4.5660181975
 20
-0.0404001764
 10
-4.5626062986
 20
-0.0604493687
 10
-4.5578204674
 20
-0.0802316754
 10
-4.5516810945
 20
-0.0997466593
 10
-4.5442714933
 20
-0.1187164852
 10
-4.5356194349
 20
-0.1370485412
 10
-4.5257339336
 20
-0.1547694965
  0
LINE
  5
272
100
AcDbEntity
  8
SUPERFICI
100
AcDbLine
 62
7
  6
CONTINUOUS
 10
-3.8563326627
 20
1.1120657275
 11
-4.5145046525
 21
0.1720771509
  0
LINE
  5
273
100
AcDbEntity
  8
0
100
AcDbLine
 62
7
  6
CONTINUOUS
 10
-4.5145027538
 20
0.1720798625
 11
-3.856332674
 21
1.1120657113
  0
LINE
  5
274
100
AcDbEntity
  8
0
100
AcDbLine
 62
7
  6
CONTINUOUS
 10
-3.4551226581
 20
0.64
 11
-3.9032426661
 21
0.0000000001
  0
LINE
  5
275
100
AcDbEntity
  8
SUPERFICI
100
AcDbLine
 62
7
  6
CONTINUOUS
 10
-3.9032426661
 20
0.0000000001
 11
-3.4551226581
 21
0.64
  0
LWPOLYLINE
  5
276
100
AcDbEntity
  8
0
100
AcDbPolyline
 62
7
  6
CONTINUOUS
 90
19
 70
0
 10
-3.856332674
 20
1.1120657113
 10
-3.8460467472
 20
1.125809694
 10
-3.835222553
 20
1.1387827735
 10
-3.8238600914
 20
1.1509849498
 10
-3.8119053358
 20
1.1624245753
 10
-3.7994123129
 20
1.173093298
 10
-3.7865431029
 20
1.1829660613
 10
-3.77332737
 20
1.1920288933
 10
-3.7597354501
 20
1.2002957661
 10
-3.7458404312
 20
1.207783539
 10
-3.7316374742
 20
1.2144976778
 10
-3.7171314183
 20
1.2204327168
 10
-3.7024098692
 20
1.2255891185
 10
-3.6874712714
 20
1.2299735951
 10
-3.6723171805
 20
1.2335794344
 10
-3.6570398682
 20
1.2363869619
 10
-3.641670092
 20
1.2383896194
 10
-3.6261770944
 20
1.2395939652
 10
-3.6105608755
 20
1.2399999991
  0
LWPOLYLINE
  5
277
100
AcDbEntity
  8
SUPERFICI
100
AcDbPolyline
 62
7
  6
CONTINUOUS
 90
3
 70
0
 10
-3.8352508212
 20
1.1387521957
 10
-3.8460617326
 20
1.125792531
 10
-3.8563326627
 20
1.1120657275
  0
LWPOLYLINE
  5
278
100
AcDbEntity
  8
0
100
AcDbPolyline
 62
7
  6
CONTINUOUS
 90
2
 70
0
 43
0.3500000006
 10
18.3799997177
 20
-3.3928568802
 10
16.8800003929
 20
-3.3928568802
  0
LWPOLYLINE
  5
279
100
AcDbEntity
  8
SUPERFICI
100
AcDbPolyline
 62
7
  6
CONTINUOUS
 90
15
 70
0
 10
-3.8470254844
 20
-1.1246474695
 10
-3.8371429994
 20
-1.1366552926
 10
-3.8266731903
 20
-1.1481060042
 10
-3.8155948178
 20
-1.1590203835
 10
-3.8039296756
 20
-1.1693769779
 10
-3.7917431453
 20
-1.1791114297
 10
-3.7790065744
 20
-1.188239116
 10
-3.7657486153
 20
-1.19674466
 10
-3.7521206069
 20
-1.2045175729
 10
-3.7382161395
 20
-1.2115186557
 10
-3.7239416228
 20
-1.2177871076
 10
-3.7091676243
 20
-1.2233300382
 10
-3.6938226831
 20
-1.2282004061
 10
-3.6779782601
 20
-1.2323452529
 10
-3.6617193054
 20
-1.2356128122
  0
LINE
  5
27A
100
AcDbEntity
  8
SUPERFICI
100
AcDbLine
 62
7
  6
CONTINUOUS
 10
-3.8563223086
 20
-1.112080514
 11
-3.8470254844
 21
-1.1246474695
  0
LINE
  5
27B
100
AcDbEntity
  8
SUPERFICI
100
AcDbLine
 62
7
  6
CONTINUOUS
 10
-4.5145046329
 20
-0.172077179
 11
-3.8563223086
 21
-1.112080514
  0
LINE
  5
27C
100
AcDbEntity
  8
0
100
AcDbLine
 62
7
  6
CONTINUOUS
 10
-3.8563223084
 20
-1.1120805143
 11
-4.5145046345
 21
-0.1720771767
  0
LINE
  5
27D
100
AcDbEntity
  8
0
100
AcDbLine
 62
7
  6
CONTINUOUS
 10
-3.9032426661
 20
0.0000000001
 11
-3.4551226581
 21
-0.6400000001
  0
LINE
  5
27E
100
AcDbEntity
  8
SUPERFICI
100
AcDbLine
 62
7
  6
CONTINUOUS
 10
-3.4551226581
 20
-0.6400000001
 11
-3.9032426661
 21
0.0000000001
  0
LINE
  5
27F
100
AcDbEntity
  8
SUPERFICI
100
AcDbLine
 62
7
  6
CONTINUOUS
 10
-4.5257339336
 20
-0.1547694965
 11
-4.5145046329
 21
-0.172077179
  0
LWPOLYLINE
  5
280
100
AcDbEntity
  8
0
100
AcDbPolyline
 62
7
  6
CONTINUOUS
 90
19
 70
0
 10
-4.5145046345
 20
-0.1720771767
 10
-4.5257419288
 20
-0.1547571736
 10
-4.5356972146
 20
-0.1368934459
 10
-4.5443704919
 20
-0.1184859937
 10
-4.5517887825
 20
-0.09943725
 10
-4.5579250645
 20
-0.0798447818
 10
-4.5626982729
 20
-0.0600012901
 10
-4.5660852388
 20
-0.0399107391
 10
-4.568109131
 20
-0.0195691648
 10
-4.568758391
 20
0.0007426246
 10
-4.5680171187
 20
0.0210156942
 10
-4.5659012143
 20
0.0412589787
 10
-4.5624468185
 20
0.0612184734
 10
-4.5576356696
 20
0.0808994354
 10
-4.5514860294
 20
0.1002966076
 10
-4.544088825
 20
0.119140214
 10
-4.5354743655
 20
0.1373403293
 10
-4.5256123417
 20
0.1549868788
 10
-4.5145027538
 20
0.1720798625
  0
LWPOLYLINE
  5
281
100
AcDbEntity
  8
SUPERFICI
100
AcDbPolyline
 62
7
  6
CONTINUOUS
 90
16
 70
0
 10
-2.1447273499
 20
-0.4452891584
 10
-2.1353149942
 20
-0.4113801136
 10
-2.1301006161
 20
-0.3766421426
 10
-2.1288352514
 20
-0.3421996855
 10
-2.1315386798
 20
-0.3080717076
 10
-2.1381911216
 20
-0.2742392441
 10
-2.1484842741
 20
-0.2417698402
 10
-2.1625028765
 20
-0.2106515194
 10
-2.1801621895
 20
-0.1808962588
 10
-2.2008996928
 20
-0.1536075348
 10
-2.2249147062
 20
-0.128815375
 10
-2.25200791
 20
-0.1064897521
 10
-2.2810188239
 20
-0.0876440598
 10
-2.3120256647
 20
-0.0724843188
 10
-2.3449502156
 20
-0.0608045084
 10
-2.3783973037
 20
-0.0529999706
  0
LWPOLYLINE
  5
282
100
AcDbEntity
  8
RACCORDO
100
AcDbPolyline
 62
253
  6
CONTINUOUS
 90
12
 70
0
 10
-11.0264799709
 20
-21.5866513084
 10
-11.0254641326
 20
-21.5841111763
 10
-11.0244661856
 20
-21.5786660206
 10
-11.0234861298
 20
-21.5703158414
 10
-11.0225176243
 20
-21.5589761121
 10
-11.0215670101
 20
-21.5447313594
 10
-11.02065331
 20
-21.5278351628
 10
-11.0197777543
 20
-21.5082362811
 10
-11.0189391127
 20
-21.4859859557
 10
-11.0181527169
 20
-21.4614914897
 10
-11.017419671
 20
-21.4347145028
 10
-11.0161223366
 20
-21.3749505517
  0
LWPOLYLINE
  5
283
100
AcDbEntity
  8
SUPERFICI
100
AcDbPolyline
 62
7
  6
CONTINUOUS
 90
4
 70
0
 10
-2.1984012455
 20
-0.5409182961
 10
-2.1763119695
 20
-0.509870843
 10
-2.158420671
 20
-0.4779944637
 10
-2.1447273974
 20
-0.445289272
  0
LINE
  5
284
100
AcDbEntity
  8
SUPERFICI
100
AcDbLine
 62
7
  6
CONTINUOUS
 10
-2.6591214214
 20
-0.1565584971
 11
-3.0624426713
 21
-0.6400000001
  0
LINE
  5
285
100
AcDbEntity
  8
0
100
AcDbLine
 62
7
  6
CONTINUOUS
 10
-3.0624426713
 20
-0.6400000001
 11
-2.659121311
 21
-0.1565583647
  0
LWPOLYLINE
  5
286
100
AcDbEntity
  8
0
100
AcDbPolyline
 62
7
  6
CONTINUOUS
 90
28
 70
0
 10
-2.659121311
 20
-0.1565583647
 10
-2.6336529168
 20
-0.1300837674
 10
-2.6064623973
 20
-0.1073106658
 10
-2.5775497525
 20
-0.0882390602
 10
-2.5465265377
 20
-0.0728149085
 10
-2.5137811977
 20
-0.061092253
 10
-2.4804790663
 20
-0.0532332193
 10
-2.446648796
 20
-0.0492879682
 10
-2.4122617342
 20
-0.0492063391
 10
-2.378397257
 20
-0.0529999758
 10
-2.3449501129
 20
-0.060804538
 10
-2.3120255533
 20
-0.0724843662
 10
-2.2810187084
 20
-0.0876441253
 10
-2.2520077957
 20
-0.1064898343
 10
-2.2249145976
 20
-0.1288154741
 10
-2.2008995915
 20
-0.1536076528
 10
-2.1801620955
 20
-0.1808963984
 10
-2.1625027914
 20
-0.2106516825
 10
-2.148484202
 20
-0.241770029
 10
-2.1381910678
 20
-0.2742394658
 10
-2.1315386483
 20
-0.3080719646
 10
-2.1288352453
 20
-0.3421999653
 10
-2.1301006461
 20
-0.3766424325
 10
-2.1353150634
 20
-0.4113804012
 10
-2.1447274377
 20
-0.4452894171
 10
-2.1584207493
 20
-0.4779946622
 10
-2.176312018
 20
-0.5098709544
 10
-2.1984012437
 20
-0.5409182939
  0
LWPOLYLINE
  5
287
100
AcDbEntity
  8
SUPERFICI
100
AcDbPolyline
 62
7
  6
CONTINUOUS
 90
4
 70
0
 10
-3.6617149653
 20
-1.2356134223
 10
-3.6450741356
 20
-1.2379524955
 10
-3.6280144341
 20
-1.2394148914
 10
-3.6105402009
 20
-1.24
  0
LWPOLYLINE
  5
288
100
AcDbEntity
  8
0
100
AcDbPolyline
 62
7
  6
CONTINUOUS
 90
19
 70
0
 10
0.2159760434
 20
0.815494658
 10
0.207387812
 20
0.7982031627
 10
0.197812955
 20
0.7816280505
 10
0.1872514723
 20
0.7657693213
 10
0.1756469409
 20
0.7505670258
 10
0.1630557839
 20
0.7360811137
 10
0.1496472706
 20
0.7224914341
 10
0.1354143542
 20
0.7098143297
 10
0.1203640816
 20
0.6980334581
 10
0.1046868626
 20
0.6872796409
 10
0.0883834799
 20
0.6775675374
 10
0.0714531508
 20
0.6688824885
 10
0.0540839371
 20
0.6613113378
 10
0.0362642663
 20
0.6548626622
 10
0.0180057109
 20
0.6495278849
 10
-0.0004689486
 20
0.6453681188
 10
-0.0190854522
 20
0.6424037347
 10
-0.03791806
 20
0.6406143617
 10
-0.0569667719
 20
0.64
  0
LINE
  5
289
100
AcDbEntity
  8
SUPERFICI
100
AcDbLine
 62
7
  6
CONTINUOUS
 10
0.2073935556
 20
0.7982147268
 11
0.21597606
 21
0.8154946944
  0
LWPOLYLINE
  5
28A
100
AcDbEntity
  8
SUPERFICI
100
AcDbPolyline
 62
7
  6
CONTINUOUS
 90
31
 70
0
 10
0.21597606
 20
0.8154946944
 10
0.2827150718
 20
0.9481936044
 10
0.3584631845
 20
1.0744011805
 10
0.4432203982
 20
1.1941174248
 10
0.5376457831
 20
1.3080634467
 10
0.6410802688
 20
1.4155181447
 10
0.7515466451
 20
1.5143182103
 10
0.8690687193
 20
1.6041741936
 10
0.9936226839
 20
1.6853755676
 10
1.1231599059
 20
1.7566274137
 10
1.2577950484
 20
1.8177857673
 10
1.3974134481
 20
1.8689946185
 10
1.5396224821
 20
1.9093909825
 10
1.6844446323
 20
1.9387855742
 10
1.8318574168
 20
1.9573676958
 10
1.9794007661
 20
1.9648422415
 10
2.127080688
 20
1.9610275147
 10
2.2748911747
 20
1.946105213
 10
2.4203541342
 20
1.9203253181
 10
2.5634378553
 20
1.8835027626
 10
2.7041740492
 20
1.8358225986
 10
2.8401797568
 20
1.7780899837
 10
2.9713748346
 20
1.710130188
 10
3.0978394261
 20
1.6321179164
 10
3.2174310038
 20
1.54538248
 10
3.3300249553
 20
1.449781317
 10
3.4357458929
 20
1.3454569658
 10
3.5328251264
 20
1.2341663927
 10
3.6211190548
 20
1.1157907763
 10
3.700771279
 20
0.9904489265
 10
3.7704439107
 20
0.8602542655
  0
LINE
  5
28B
100
AcDbEntity
  8
SUPERFICI
100
AcDbLine
 62
7
  6
CONTINUOUS
 10
-0.1469723723
 20
1.3976743283
 11
-0.2415826664
 21
1.2399999991
  0
LWPOLYLINE
  5
28C
100
AcDbEntity
  8
0
100
AcDbPolyline
 62
7
  6
CONTINUOUS
 90
46
 70
0
 10
-0.2415826664
 20
1.2399999991
 10
-0.1469723055
 20
1.3976744396
 10
-0.0422196274
 20
1.5470799773
 10
0.0726753679
 20
1.6882166206
 10
0.1985592677
 20
1.8218946138
 10
0.3345854847
 20
1.9473037361
 10
0.4782142565
 20
2.0620133086
 10
0.629295885
 20
2.1656078623
 10
0.7879800683
 20
2.258502914
 10
0.9521761374
 20
2.3395142734
 10
1.1222516385
 20
2.4085703317
 10
1.2978390254
 20
2.4657427442
 10
1.4757449913
 20
2.5100622178
 10
1.6556076818
 20
2.5412657248
 10
1.8377889511
 20
2.5596163219
 10
2.0201810555
 20
2.5649338379
 10
2.2032152615
 20
2.5570257535
 10
2.3864603026
 20
2.536084587
 10
2.5665146346
 20
2.5025077168
 10
2.7428930246
 20
2.4562095688
 10
2.9160807055
 20
2.3972756874
 10
3.0841318321
 20
2.3263601239
 10
3.2474578412
 20
2.2430229779
 10
3.4056472959
 20
2.1477041016
 10
3.5555200401
 20
2.0423771776
 10
3.6964421619
 20
1.9272646826
 10
3.8290475733
 20
1.8021440973
 10
3.9520578541
 20
1.6683216189
 10
4.0657191796
 20
1.5252370973
 10
4.1697853746
 20
1.3734506548
 10
4.2622394935
 20
1.2159489123
 10
4.3426335341
 20
1.0531841656
 10
4.4114154986
 20
0.8847041258
 10
4.4679124488
 20
0.7121385522
 10
4.5121219866
 20
0.5347961056
 10
4.54404651
 20
0.3533681552
 10
4.5630202748
 20
0.1715585334
 10
4.5687956682
 20
-0.0099951849
 10
4.5616203031
 20
-0.1919305266
 10
4.5415712741
 20
-0.3724563084
 10
4.5083575384
 20
-0.5521854331
 10
4.4622701388
 20
-0.730504953
 10
4.4042592988
 20
-0.9037849156
 10
4.3343769151
 20
-1.0713346336
 10
4.2525710911
 20
-1.2338447741
 10
4.15963636
 20
-1.3897574293
  0
LWPOLYLINE
  5
28D
100
AcDbEntity
  8
SUPERFICI
100
AcDbPolyline
 62
7
  6
CONTINUOUS
 90
27
 70
0
 10
-1.7198622971
 20
-0.747819542
 10
-1.741343123
 20
-0.7776180247
 10
-1.7588736959
 20
-0.8084500279
 10
-1.7724540159
 20
-0.840315551
 10
-1.7820661035
 20
-0.8736132773
 10
-1.7877279381
 20
-0.9079445226
 10
-1.7894934579
 20
-0.9421132357
 10
-1.7873205831
 20
-0.9760649917
 10
-1.7812513935
 20
-1.0098542153
 10
-1.7714660666
 20
-1.0424481306
 10
-1.7578149494
 20
-1.0739379977
 10
-1.7404476949
 20
-1.1042325571
 10
-1.7199934394
 20
-1.1320252554
 10
-1.6962615194
 20
-1.1572034057
 10
-1.6694425985
 20
-1.1798796965
 10
-1.6407378031
 20
-1.199085637
 10
-1.6101498855
 20
-1.2146201293
 10
-1.5776760935
 20
-1.226684273
 10
-1.5445092961
 20
-1.2349128745
 10
-1.5106721023
 20
-1.2392196047
 10
-1.4761419033
 20
-1.2396907934
 10
-1.4420437412
 20
-1.2362202343
 10
-1.4083687482
 20
-1.22878097
 10
-1.3751257922
 20
-1.2173999574
 10
-1.3434665191
 20
-1.2020518612
 10
-1.3137748108
 20
-1.1827282356
 10
-1.2856667855
 20
-1.1594375245
  0
LWPOLYLINE
  5
28E
100
AcDbEntity
  8
SUPERFICI
100
AcDbPolyline
 62
7
  6
CONTINUOUS
 90
10
 70
0
 10
-0.7658818613
 20
-0.5409190282
 10
-0.74440135
 20
-0.5111206759
 10
-0.7268710454
 20
-0.4802887869
 10
-0.7132909474
 20
-0.4484233611
 10
-0.7036790266
 20
-0.4151257046
 10
-0.6980173124
 20
-0.3807945111
 10
-0.6962518936
 20
-0.3466258623
 10
-0.6984248585
 20
-0.3126741989
 10
-0.7044941189
 20
-0.2788850805
 10
-0.7142794914
 20
-0.2462912919
  0
LINE
  5
28F
100
AcDbEntity
  8
0
100
AcDbLine
 62
7
  6
CONTINUOUS
 10
-2.1984012437
 20
-0.5409182939
 11
-2.6916634303
 21
-1.1321809161
  0
LINE
  5
290
100
AcDbEntity
  8
SUPERFICI
100
AcDbLine
 62
7
  6
CONTINUOUS
 10
-2.6916634676
 20
-1.1321809607
 11
-2.1984012455
 21
-0.5409182961
  0
LINE
  5
291
100
AcDbEntity
  8
SUPERFICI
100
AcDbLine
 62
7
  6
CONTINUOUS
 10
-1.2266030297
 20
-0.1565604188
 11
-1.7198622971
 21
-0.747819542
  0
LINE
  5
292
100
AcDbEntity
  8
0
100
AcDbLine
 62
7
  6
CONTINUOUS
 10
-1.7198630396
 20
-0.747820432
 11
-1.2266029192
 21
-0.1565602864
  0
LINE
  5
293
100
AcDbEntity
  8
0
100
AcDbLine
 62
7
  6
CONTINUOUS
 10
-0.7658818593
 20
-0.5409190258
 11
-1.2591426262
 21
-1.1321799462
  0
LINE
  5
294
100
AcDbEntity
  8
SUPERFICI
100
AcDbLine
 62
7
  6
CONTINUOUS
 10
-1.259142443
 20
-1.1321797265
 11
-0.7658818613
 21
-0.5409190282
  0
LWPOLYLINE
  5
295
100
AcDbEntity
  8
0
100
AcDbPolyline
 62
7
  6
CONTINUOUS
 90
10
 70
0
 10
-2.6916634303
 20
-1.1321809161
 10
-2.7123159931
 20
-1.1543061062
 10
-2.7343858677
 20
-1.1739454688
 10
-2.7578730543
 20
-1.1910990046
 10
-2.7830196024
 20
-1.2058340431
 10
-2.8095834623
 20
-1.2180832558
 10
-2.8368384857
 20
-1.2276446562
 10
-2.8645426229
 20
-1.2344509157
 10
-2.8929379234
 20
-1.2385693636
 10
-2.9220243873
 20
-1.24
  0
LINE
  5
296
100
AcDbEntity
  8
SUPERFICI
100
AcDbLine
 62
7
  6
CONTINUOUS
 10
-2.7123160759
 20
-1.1543061776
 11
-2.6916634676
 21
-1.1321809607
  0
LINE
  5
297
100
AcDbEntity
  8
SUPERFICI
100
AcDbLine
 62
7
  6
CONTINUOUS
 10
-1.2000785798
 20
-0.1293025406
 11
-1.2266030297
 21
-0.1565604188
  0
LWPOLYLINE
  5
298
100
AcDbEntity
  8
0
100
AcDbPolyline
 62
7
  6
CONTINUOUS
 90
28
 70
0
 10
-1.2266029192
 20
-0.1565602864
 10
-1.2000784624
 20
-0.1293024306
 10
-1.171970352
 20
-0.1060116812
 10
-1.142278588
 20
-0.0866880386
 10
-1.110619294
 20
-0.0713399569
 10
-1.0773763465
 20
-0.059958982
 10
-1.0437013742
 20
-0.0525197514
 10
-1.0096032407
 20
-0.0490492161
 10
-0.9750730824
 20
-0.0495204251
 10
-0.9412359374
 20
-0.0538271624
 10
-0.9080691991
 20
-0.0620557551
 10
-0.875595474
 20
-0.0741198761
 10
-0.8450076194
 20
-0.0896543285
 10
-0.8163028841
 20
-0.1088602054
 10
-0.7894840193
 20
-0.1315364136
 10
-0.7657521357
 20
-0.1567144763
 10
-0.7452978909
 20
-0.1845070844
 10
-0.7279306272
 20
-0.2148015466
 10
-0.7142794819
 20
-0.2462913139
 10
-0.7044941087
 20
-0.2788851228
 10
-0.698424854
 20
-0.3126742363
 10
-0.6962518934
 20
-0.3466258943
 10
-0.6980173151
 20
-0.3807945373
 10
-0.703679031
 20
-0.4151257244
 10
-0.7132909523
 20
-0.4484233749
 10
-0.7268710493
 20
-0.4802887951
 10
-0.7444013516
 20
-0.5111206787
 10
-0.7658818593
 20
-0.5409190258
  0
LINE
  5
299
100
AcDbEntity
  8
SUPERFICI
100
AcDbLine
 62
7
  6
CONTINUOUS
 10
-1.2856667855
 20
-1.1594375245
 11
-1.259142443
 21
-1.1321797265
  0
LWPOLYLINE
  5
29A
100
AcDbEntity
  8
0
100
AcDbPolyline
 62
7
  6
CONTINUOUS
 90
28
 70
0
 10
-1.2591426262
 20
-1.1321799462
 10
-1.285666946
 20
-1.1594376773
 10
-1.3137749427
 20
-1.1827283333
 10
-1.3434666163
 20
-1.2020519153
 10
-1.3751258471
 20
-1.2173999797
 10
-1.4083687548
 20
-1.2287809721
 10
-1.4420436988
 20
-1.2362202275
 10
-1.4761418112
 20
-1.2396907893
 10
-1.5106719598
 20
-1.2392196149
 10
-1.5445091071
 20
-1.2349129097
 10
-1.5776758616
 20
-1.2266843451
 10
-1.6101496148
 20
-1.2146202491
 10
-1.6407375035
 20
-1.1990858122
 10
-1.6694422809
 20
-1.1798799359
 10
-1.6962611938
 20
-1.157203717
 10
-1.7199931193
 20
-1.1320256392
 10
-1.7404473958
 20
-1.1042330129
 10
-1.7578146851
 20
-1.073938526
 10
-1.7714658492
 20
-1.0424487288
 10
-1.7812512347
 20
-1.0098548816
 10
-1.787320495
 20
-0.9760657234
 10
-1.7894934524
 20
-0.9421140232
 10
-1.787728027
 20
-0.907945355
 10
-1.7820662987
 20
-0.873614145
 10
-1.7724543296
 20
-0.8403164423
 10
-1.7588741404
 20
-0.8084509304
 10
-1.7413437104
 20
-0.7776189268
 10
-1.7198630396
 20
-0.747820432
  0
LWPOLYLINE
  5
29B
100
AcDbEntity
  8
SUPERFICI
100
AcDbPolyline
 62
7
  6
CONTINUOUS
 90
3
 70
0
 10
-2.7578731291
 20
-1.1910990484
 10
-2.7343859854
 20
-1.1739455563
 10
-2.7123160759
 20
-1.1543061776
  0
LINE
  5
29C
100
AcDbEntity
  8
SUPERFICI
100
AcDbLine
 62
7
  6
CONTINUOUS
 10
-2.7830196713
 20
-1.2058340749
 11
-2.7578731291
 21
-1.1910990484
  0
LINE
  5
29D
100
AcDbEntity
  8
SUPERFICI
100
AcDbLine
 62
7
  6
CONTINUOUS
 10
-2.8095835628
 20
-1.218083291
 11
-2.7830196713
 21
-1.2058340749
  0
LINE
  5
29E
100
AcDbEntity
  8
SUPERFICI
100
AcDbLine
 62
7
  6
CONTINUOUS
 10
-2.8368385636
 20
-1.2276446753
 11
-2.8095835628
 21
-1.218083291
  0
LWPOLYLINE
  5
29F
100
AcDbEntity
  8
SUPERFICI
100
AcDbPolyline
 62
7
  6
CONTINUOUS
 90
4
 70
0
 10
-2.9220243873
 20
-1.24
 10
-2.8929379906
 20
-1.2385693778
 10
-2.8645427398
 20
-1.2344509447
 10
-2.836838635
 20
-1.2276447004
  0
LINE
  5
2A0
100
AcDbEntity
  8
SUPERFICI
100
AcDbLine
 62
7
  6
CONTINUOUS
 10
-2.9220244101
 20
-1.24
 11
-3.6105400409
 21
-1.24
  0
LINE
  5
2A1
100
AcDbEntity
  8
0
100
AcDbLine
 62
7
  6
CONTINUOUS
 10
-2.9220244101
 20
-1.24
 11
-3.6105400409
 21
-1.24
  0
LWPOLYLINE
  5
2A2
100
AcDbEntity
  8
0
100
AcDbPolyline
 62
7
  6
CONTINUOUS
 90
2
 70
0
 43
0.3500000006
 10
18.3799997177
 20
-1.0357139511
 10
16.8800003929
 20
-1.0357139511
  0
LINE
  5
2A3
100
AcDbEntity
  8
SUPERFICI
100
AcDbLine
 62
7
  6
CONTINUOUS
 10
-3.0624426713
 20
-0.6400000001
 11
-3.4551226581
 21
-0.6400000001
  0
LINE
  5
2A4
100
AcDbEntity
  8
0
100
AcDbLine
 62
7
  6
CONTINUOUS
 10
-3.0624426713
 20
-0.6400000001
 11
-3.4551226581
 21
-0.6400000001
  0
LWPOLYLINE
  5
2A5
100
AcDbEntity
  8
0
100
AcDbPolyline
 62
7
  6
CONTINUOUS
 90
19
 70
0
 10
-3.6105447661
 20
-1.24
 10
-3.6280133973
 20
-1.2394152064
 10
-3.6450683793
 20
-1.2379533657
 10
-3.6617097121
 20
-1.2356144778
 10
-3.6779657051
 20
-1.2323481042
 10
-3.6938080489
 20
-1.2282046833
 10
-3.7091518158
 20
-1.2233355309
 10
-3.7239257678
 20
-1.2177934618
 10
-3.7382011428
 20
-1.2115256612
 10
-3.752106727
 20
-1.2045250002
 10
-3.7657359333
 20
-1.1967523055
 10
-3.7789953487
 20
-1.1882467503
 10
-3.7917335205
 20
-1.1791187255
 10
-3.8039218617
 20
-1.1693835089
 10
-3.8155889594
 20
-1.1590258225
 10
-3.826669122
 20
-1.1481102242
 10
-3.8371404525
 20
-1.1366582331
 10
-3.8470248479
 20
-1.1246483298
 10
-3.8563223084
 20
-1.1120805143
  0
LWPOLYLINE
  5
2A6
100
AcDbEntity
  8
SUPERFICI
100
AcDbPolyline
 62
7
  6
CONTINUOUS
 90
10
 70
0
 10
-2.3783973466
 20
-0.0529999605
 10
-2.4122618035
 20
-0.0492063336
 10
-2.4466488405
 20
-0.0492879691
 10
-2.4804790897
 20
-0.0532332234
 10
-2.5137812022
 20
-0.0610922507
 10
-2.5465265271
 20
-0.0728148967
 10
-2.5775497435
 20
-0.088239055
 10
-2.6064624112
 20
-0.1073106902
 10
-2.6336529705
 20
-0.1300838376
 10
-2.6591214214
 20
-0.1565584971
  0
LWPOLYLINE
  5
2A7
100
AcDbEntity
  8
SUPERFICI
100
AcDbPolyline
 62
7
  6
CONTINUOUS
 90
26
 70
0
 10
0.1975444512
 20
-0.7821436931
 10
0.1765505584
 20
-0.7522194773
 10
0.1529924044
 20
-0.725720876
 10
0.1264960664
 20
-0.7025604078
 10
0.0974354673
 20
-0.6828255557
 10
0.0669323764
 20
-0.6667787679
 10
0.0349955245
 20
-0.6544461983
 10
0.0016161807
 20
-0.6458016939
 10
-0.0321100778
 20
-0.6410292416
 10
-0.0662308074
 20
-0.6401999742
 10
-0.1006984518
 20
-0.6432427591
 10
-0.1342747655
 20
-0.6501281842
 10
-0.1670191301
 20
-0.6610491468
 10
-0.1988721641
 20
-0.6758127492
 10
-0.2284174772
 20
-0.693810886
 10
-0.2555027768
 20
-0.7152029494
 10
-0.2802803555
 20
-0.7398295462
 10
-0.3017907018
 20
-0.7666043929
 10
-0.3198662086
 20
-0.7954915786
 10
-0.334674483
 20
-0.8265270129
 10
-0.3457588345
 20
-0.8587321442
 10
-0.3530861748
 20
-0.8921552908
 10
-0.3566895924
 20
-0.9267481334
 10
-0.3562116625
 20
-0.9613871644
 10
-0.3515332438
 20
-0.9956978815
 10
-0.3427734778
 20
-1.0300547869
  0
LWPOLYLINE
  5
2A8
100
AcDbEntity
  8
SUPERFICI
100
AcDbPolyline
 62
7
  6
CONTINUOUS
 90
3
 70
0
 10
0.3587232845
 20
-1.0748073445
 10
0.2828268012
 20
-0.9484053726
 10
0.2159740831
 20
-0.8154935224
  0
LINE
  5
2A9
100
AcDbEntity
  8
SUPERFICI
100
AcDbLine
 62
7
  6
CONTINUOUS
 10
0.2159740831
 20
-0.8154935224
 11
0.1975444921
 21
-0.782143767
  0
LWPOLYLINE
  5
2AA
100
AcDbEntity
  8
0
100
AcDbPolyline
 62
7
  6
CONTINUOUS
 90
43
 70
0
 10
0.2159741063
 20
-0.8154935545
 10
0.2828268048
 20
-0.9484053754
 10
0.3587232711
 20
-1.0748073247
 10
0.4436635055
 20
-1.1946994043
 10
0.5383086268
 20
-1.308807738
 10
0.6419975161
 20
-1.4164062101
 10
0.7527468162
 20
-1.5153164693
 10
0.8705983953
 20
-1.6052516899
 10
0.9955103851
 20
-1.6864987209
 10
1.1253738231
 20
-1.7577397301
 10
1.2602852237
 20
-1.8188146598
 10
1.4001480725
 20
-1.8698835933
 10
1.5425638643
 20
-1.9101089112
 10
1.6875532221
 20
-1.9393030833
 10
1.8350955229
 20
-1.9576536567
 10
1.9827303925
 20
-1.9648856262
 10
2.1304529374
 20
-1.9608233109
 10
2.2782680512
 20
-1.9456423925
 10
2.4237300401
 20
-1.9195949047
 10
2.5668269983
 20
-1.8824925332
 10
2.7075708315
 20
-1.8345235768
 10
2.843551563
 20
-1.776504987
 10
2.9746753111
 20
-1.7082666492
 10
3.1010359575
 20
-1.629978653
 10
3.22050517
 20
-1.5429682574
 10
3.332966102
 20
-1.4470868525
 10
3.4385356001
 20
-1.3424830249
 10
3.5354358716
 20
-1.2309298344
 10
3.623515748
 20
-1.1123209571
 10
3.7029263978
 20
-0.9867627056
 10
3.7723435335
 20
-0.8563471035
 10
3.8316063993
 20
-0.7209736502
 10
3.8808757509
 20
-0.5807428517
 10
3.9193095684
 20
-0.4380482504
 10
3.9467173947
 20
-0.2928578982
 10
3.9632896868
 20
-0.1452037632
 10
3.9687557954
 20
0.0024247314
 10
3.9629268883
 20
0.1500282696
 10
3.9459917978
 20
0.2976061419
 10
3.9182463708
 20
0.4426668356
 10
3.8795123088
 20
0.5851583744
 10
3.8299679103
 20
0.7251327148
 10
3.7704439187
 20
0.860254249
  0
LWPOLYLINE
  5
2AB
100
AcDbEntity
  8
SUPERFICI
100
AcDbPolyline
 62
7
  6
CONTINUOUS
 90
30
 70
0
 10
-0.3299323643
 20
-1.0644578804
 10
-0.2478215589
 20
-1.2286239408
 10
-0.1550129893
 20
-1.3853434029
 10
-0.0515066556
 20
-1.5346162697
 10
0.0634797571
 20
-1.677309942
 10
0.1891639339
 20
-1.8125570323
 10
0.3231989302
 20
-1.9377553719
 10
0.4654347603
 20
-2.0524692949
 10
0.61602141
 20
-2.1571345099
 10
0.773061892
 20
-2.2504559218
 10
0.9369615869
 20
-2.3324183706
 10
1.1073151141
 20
-2.4030370644
 10
1.281009345
 20
-2.461062464
 10
1.4576948455
 20
-2.5062013072
 10
1.6377210497
 20
-2.5387468935
 10
1.8190231312
 20
-2.5583295238
 10
2.0020752782
 20
-2.5647831125
 10
2.1864033024
 20
-2.5582737554
 10
2.3685198124
 20
-2.5389300181
 10
2.5479132846
 20
-2.5066320329
 10
2.7250952426
 20
-2.4614996474
 10
2.8981128653
 20
-2.4040209931
 10
3.0674262295
 20
-2.3337851027
 10
3.2325752584
 20
-2.2512028999
 10
3.390226901
 20
-2.1579953527
 10
3.5397287015
 20
-2.0543403111
 10
3.6817331156
 20
-1.9400598791
 10
3.8148644596
 20
-1.8163414128
 10
3.9394161186
 20
-1.6826337929
 10
4.0550947073
 20
-1.5394881021
  0
LWPOLYLINE
  5
2AC
100
AcDbEntity
  8
SUPERFICI
100
AcDbPolyline
 62
7
  6
CONTINUOUS
 90
18
 70
0
 10
-0.7142794987
 20
-0.2462912675
 10
-0.7279306521
 20
-0.2148014971
 10
-0.745297925
 20
-0.1845070325
 10
-0.7657521795
 20
-0.1567144238
 10
-0.7894840732
 20
-0.1315363624
 10
-0.8163029484
 20
-0.1088601572
 10
-0.8450076937
 20
-0.089654285
 10
-0.8755955576
 20
-0.0741198392
 10
-0.9080692916
 20
-0.0620557265
 10
-0.941236038
 20
-0.0538271436
 10
-0.9750731904
 20
-0.0495204175
 10
-1.0096033552
 20
-0.0490492212
 10
-1.0437014936
 20
-0.0525197706
 10
-1.0773764694
 20
-0.0599590166
 10
-1.1106194189
 20
-0.0713400081
 10
-1.1422787126
 20
-0.086688108
 10
-1.1719704741
 20
-0.1060117703
 10
-1.2000785798
 20
-0.1293025406
  0
LINE
  5
2AD
100
AcDbEntity
  8
SUPERFICI
100
AcDbLine
 62
7
  6
CONTINUOUS
 10
-0.3427734778
 20
-1.0300547869
 11
-0.3299323643
 21
-1.0644578804
  0
LWPOLYLINE
  5
2AE
100
AcDbEntity
  8
0
100
AcDbPolyline
 62
7
  6
CONTINUOUS
 90
28
 70
0
 10
-0.3299428325
 20
-1.0644349561
 10
-0.342780676
 20
-1.0300323249
 10
-0.3515374513
 20
-0.9956760494
 10
-0.3562131584
 20
-0.9613661298
 10
-0.3566886627
 20
-0.9267280683
 10
-0.3530830988
 20
-0.892136363
 10
-0.3457538702
 20
-0.8587145074
 10
-0.3346678869
 20
-0.8265108534
 10
-0.3198582389
 20
-0.7954770503
 10
-0.3017816002
 20
-0.7665915381
 10
-0.2802703428
 20
-0.7398183935
 10
-0.2554920946
 20
-0.7151935412
 10
-0.2284064132
 20
-0.6938031932
 10
-0.1988610514
 20
-0.6758067631
 10
-0.1670082564
 20
-0.6610448385
 10
-0.1342643279
 20
-0.6501253932
 10
-0.1006886622
 20
-0.6432412953
 10
-0.066221863
 20
-0.6401996772
 10
-0.0321020411
 20
-0.6410299087
 10
0.0016232702
 20
-0.645803109
 10
0.0350016043
 20
-0.6544481587
 10
0.0669374502
 20
-0.6667810695
 10
0.0974395322
 20
-0.6828279952
 10
0.1264991262
 20
-0.7025627811
 10
0.1529945488
 20
-0.7257229759
 10
0.1765519059
 20
-0.7522210952
 10
0.1975450917
 20
-0.7821446218
 10
0.2159741063
 20
-0.8154935545
  0
LWPOLYLINE
  5
2AF
100
AcDbEntity
  8
SUPERFICI
100
AcDbPolyline
 62
7
  6
CONTINUOUS
 90
16
 70
0
 10
-3.6261861381
 20
1.2395935174
 10
-3.6416881296
 20
1.2383877568
 10
-3.6570668485
 20
1.2363827174
 10
-3.6723535451
 20
1.2335716418
 10
-3.6875169691
 20
1.2299612874
 10
-3.7024633702
 20
1.2255719257
 10
-3.7171907362
 20
1.2204102277
 10
-3.7317010793
 20
1.2144695224
 10
-3.7459066849
 20
1.2077500681
 10
-3.7598029622
 20
1.2002569659
 10
-3.773394502
 20
1.1919851147
 10
-3.7866073628
 20
1.1829194693
 10
-3.7994706645
 20
1.1730461292
 10
-3.8119552871
 20
1.1623789947
 10
-3.8238999285
 20
1.1509447218
 10
-3.8352242699
 20
1.1387807156
  0
LWPOLYLINE
  5
2B0
100
AcDbEntity
  8
SUPERFICI
100
AcDbPolyline
 62
7
  6
CONTINUOUS
 90
18
 70
0
 10
-0.0569599078
 20
0.64
 10
-0.0378445586
 20
0.6406188552
 10
-0.0189464333
 20
0.6424212952
 10
-0.000265532
 20
0.64540732
 10
0.0182770051
 20
0.6495997361
 10
0.0366023184
 20
0.6549757368
 10
0.0544738284
 20
0.6614669025
 10
0.0718762636
 20
0.6690831856
 10
0.0888248956
 20
0.6778146335
 10
0.1051289598
 20
0.6875629685
 10
0.1207854261
 20
0.6983410783
 10
0.1357973245
 20
0.710136075
 10
0.1499829807
 20
0.7228110178
 10
0.163333926
 20
0.7363784435
 10
0.1758586291
 20
0.7508258152
 10
0.187400821
 20
0.7659785813
 10
0.1979084119
 20
0.7817785581
 10
0.2073935556
 20
0.7982147268
  0
LINE
  5
2B1
100
AcDbEntity
  8
SUPERFICI
100
AcDbLine
 62
7
  6
CONTINUOUS
 10
-3.6105608742
 20
1.2399999991
 11
-3.6261812034
 21
1.2395936457
  0
LINE
  5
2B2
100
AcDbEntity
  8
SUPERFICI
100
AcDbLine
 62
7
  6
CONTINUOUS
 10
-0.0569598872
 20
0.64
 11
-3.4551226581
 21
0.64
  0
LINE
  5
2B3
100
AcDbEntity
  8
0
100
AcDbLine
 62
7
  6
CONTINUOUS
 10
-0.0569598872
 20
0.64
 11
-3.4551226581
 21
0.64
  0
LINE
  5
2B4
100
AcDbEntity
  8
SUPERFICI
100
AcDbLine
 62
7
  6
CONTINUOUS
 10
-0.2415826664
 20
1.2399999991
 11
-3.6105609061
 21
1.2399999991
  0
LINE
  5
2B5
100
AcDbEntity
  8
0
100
AcDbLine
 62
7
  6
CONTINUOUS
 10
-0.2415826664
 20
1.2399999991
 11
-3.6105609061
 21
1.2399999991
  0
LWPOLYLINE
  5
2B6
100
AcDbEntity
  8
RACCORDO
100
AcDbPolyline
 62
253
  6
CONTINUOUS
 90
12
 70
0
 10
11.0264799709
 20
21.5866513084
 10
11.0254643837
 20
21.5841100213
 10
11.024466787
 20
21.5786680472
 10
11.0234871808
 20
21.5703253861
 10
11.0225192882
 20
21.558997784
 10
11.021569386
 20
21.5447694949
 10
11.0206563049
 20
21.5278932804
 10
11.0197813035
 20
21.5083229654
 10
11.0189431232
 20
21.4861047249
 10
11.0181568186
 20
21.4616298466
 10
11.0174232508
 20
21.4348517581
 10
11.0161242127
 20
21.3750566723
  0
LINE
  5
2B7
100
AcDbEntity
  8
SUPERFICI
100
AcDbLine
 62
7
  6
CONTINUOUS
 10
3.8316064227
 20
-0.7209735903
 11
3.7723435626
 21
-0.8563470434
  0
LWPOLYLINE
  5
2B8
100
AcDbEntity
  8
SUPERFICI
100
AcDbPolyline
 62
7
  6
CONTINUOUS
 90
29
 70
0
 10
3.7723435626
 20
-0.8563470434
 10
3.7029264332
 20
-0.986762645
 10
3.6235157901
 20
-1.1123208961
 10
3.5354359201
 20
-1.230929774
 10
3.4385356548
 20
-1.3424829663
 10
3.3329661628
 20
-1.4470867967
 10
3.2205052364
 20
-1.5429682051
 10
3.1010360293
 20
-1.6299786047
 10
2.9746753879
 20
-1.7082666056
 10
2.8435516441
 20
-1.7765049487
 10
2.7075709159
 20
-1.8345235443
 10
2.5668270854
 20
-1.882492507
 10
2.42373013
 20
-1.9195948851
 10
2.2782681448
 20
-1.9456423795
 10
2.1304530347
 20
-1.9608233049
 10
1.9827304923
 20
-1.9648856273
 10
1.8350956236
 20
-1.9576536654
 10
1.6875533225
 20
-1.9393030998
 10
1.5425639627
 20
-1.9101089349
 10
1.4001481666
 20
-1.8698836235
 10
1.2602853118
 20
-1.8188146959
 10
1.1253739041
 20
-1.7577397706
 10
0.9955104572
 20
-1.6864987638
 10
0.8705984575
 20
-1.6052517337
 10
0.7527468687
 20
-1.5153165128
 10
0.641997561
 20
-1.416406254
 10
0.5383086644
 20
-1.3088077812
 10
0.4436635329
 20
-1.1946994401
 10
0.3587232845
 20
-1.0748073445
  0
LWPOLYLINE
  5
2B9
100
AcDbEntity
  8
SUPERFICI
100
AcDbPolyline
 62
7
  6
CONTINUOUS
 90
16
 70
0
 10
4.1596443869
 20
-1.389745013
 10
4.2525780461
 20
-1.2338321177
 10
4.3343827962
 20
-1.07132182
 10
4.4042641317
 20
-0.9037720262
 10
4.4622739566
 20
-0.7304920718
 10
4.5083603669
 20
-0.5521726415
 10
4.5415731455
 20
-0.3724436794
 10
4.5616212434
 20
-0.1919181372
 10
4.5687957096
 20
-0.0099831079
 10
4.5630194733
 20
0.1715702461
 10
4.5440449287
 20
0.3533794568
 10
4.5121196817
 20
0.5348069443
 10
4.4679094789
 20
0.7121488821
 10
4.4114119211
 20
0.8847138922
 10
4.3426294075
 20
1.0531933226
 10
4.2622348836
 20
1.2159574473
  0
LINE
  5
2BA
100
AcDbEntity
  8
SUPERFICI
100
AcDbLine
 62
7
  6
CONTINUOUS
 10
4.0550947073
 20
-1.5394881021
 11
4.1596359284
 21
-1.3897571279
  0
LWPOLYLINE
  5
2BB
100
AcDbEntity
  8
0
100
AcDbPolyline
 62
7
  6
CONTINUOUS
 90
31
 70
0
 10
4.15963636
 20
-1.3897574293
 10
4.0550856143
 20
-1.5395001996
 10
3.9394059616
 20
-1.6826454889
 10
3.8148532583
 20
-1.8163526096
 10
3.6817208864
 20
-1.9400704693
 10
3.5397154639
 20
-2.0543501972
 10
3.3902127015
 20
-2.1580044525
 10
3.2325601422
 20
-2.251211137
 10
3.0674102429
 20
-2.333792395
 10
2.8980960846
 20
-2.404027256
 10
2.7250777526
 20
-2.4615047855
 10
2.5478951615
 20
-2.5066359616
 10
2.3685011356
 20
-2.5389326835
 10
2.1863841411
 20
-2.5582751103
 10
2.0020557116
 20
-2.5647831029
 10
1.8190032731
 20
-2.558328106
 10
1.637701029
 20
-2.5387440181
 10
1.4576747758
 20
-2.5061969305
 10
1.2809893283
 20
-2.46105657
 10
1.1072952379
 20
-2.403029637
 10
0.9369419533
 20
-2.3324093938
 10
0.7730426355
 20
-2.2504454083
 10
0.6160026849
 20
-2.1571224737
 10
0.465416701
 20
-2.0524557487
 10
0.3231816438
 20
-1.9377403539
 10
0.1891475187
 20
-1.8125405867
 10
0.0634643202
 20
-1.6772921069
 10
-0.0515210085
 20
-1.5345970912
 10
-0.1550261529
 20
-1.3853229298
 10
-0.2478334276
 20
-1.228602219
 10
-0.3299428325
 20
-1.0644349561
  0
LWPOLYLINE
  5
2BC
100
AcDbEntity
  8
SUPERFICI
100
AcDbPolyline
 62
7
  6
CONTINUOUS
 90
30
 70
0
 10
4.2622348836
 20
1.2159574473
 10
4.16978035
 20
1.3734585644
 10
4.0657138059
 20
1.5252443688
 10
3.9520521952
 20
1.6683282448
 10
3.8290416956
 20
1.8021500626
 10
3.6964361293
 20
1.9272699796
 10
3.5555139062
 20
2.0423818264
 10
3.4056411101
 20
2.1477081312
 10
3.2474516571
 20
2.2430264085
 10
3.0841257055
 20
2.3263629775
 10
2.9160746996
 20
2.3972779804
 10
2.742887195
 20
2.4562113233
 10
2.5665090164
 20
2.5025089744
 10
2.3864549263
 20
2.5360853945
 10
2.2032101621
 20
2.5570261524
 10
2.0201762607
 20
2.5649338728
 10
1.8377844943
 20
2.5596160374
 10
1.6556035907
 20
2.5412651655
 10
1.4757412699
 20
2.510061432
 10
1.2978356722
 20
2.4657417818
 10
1.1222486573
 20
2.4085692412
 10
0.9521735249
 20
2.3395131015
 10
0.7879778241
 20
2.2585017085
 10
0.6292940057
 20
2.16560667
 10
0.478212722
 20
2.0620121713
 10
0.3345842727
 20
1.9473026962
 10
0.198558358
 20
1.8218937131
 10
0.0726747314
 20
1.6882158942
 10
-0.0422200226
 20
1.547079458
 10
-0.1469723723
 20
1.3976743283
  0
LWPOLYLINE
  5
2BD
100
AcDbEntity
  8
0
100
AcDbPolyline
 62
7
  6
CONTINUOUS
 90
31
 70
0
 10
3.7704439187
 20
0.860254249
 10
3.7007712856
 20
0.9904489152
 10
3.6211190592
 20
1.1157907699
 10
3.5328251281
 20
1.2341663906
 10
3.4357458914
 20
1.3454569674
 10
3.3300249499
 20
1.4497813219
 10
3.2174309945
 20
1.5453824873
 10
3.0978394131
 20
1.6321179252
 10
2.9713748177
 20
1.7101301975
 10
2.8401797361
 20
1.7780899934
 10
2.7041740243
 20
1.8358226081
 10
2.5634378262
 20
1.8835027713
 10
2.4203541008
 20
1.9203253253
 10
2.2748911369
 20
1.9461052182
 10
2.1270806457
 20
1.9610275173
 10
1.9794007198
 20
1.9648422409
 10
1.8318573668
 20
1.9573676913
 10
1.6844445792
 20
1.9387855654
 10
1.5396224266
 20
1.9093909691
 10
1.3974133915
 20
1.8689946002
 10
1.2577949914
 20
1.817785744
 10
1.1231598494
 20
1.7566273855
 10
0.9936226287
 20
1.6853755346
 10
0.869068666
 20
1.604174156
 10
0.7515465942
 20
1.5143181682
 10
0.6410802203
 20
1.4155180974
 10
0.5376457372
 20
1.3080633944
 10
0.4432203568
 20
1.1941173708
 10
0.3584631497
 20
1.0744011291
 10
0.2827150452
 20
0.9481935588
 10
0.2159760434
 20
0.815494658
  0
LWPOLYLINE
  5
2BE
100
AcDbEntity
  8
SUPERFICI
100
AcDbPolyline
 62
7
  6
CONTINUOUS
 90
12
 70
0
 10
3.7704439107
 20
0.8602542655
 10
3.8299679016
 20
0.7251327372
 10
3.8795122999
 20
0.5851584032
 10
3.9182463628
 20
0.4426668702
 10
3.9459917916
 20
0.2976061817
 10
3.9629268849
 20
0.1500283142
 10
3.9687557953
 20
0.0024247802
 10
3.9632896907
 20
-0.1452037108
 10
3.9467174031
 20
-0.2928578425
 10
3.9193095817
 20
-0.4380481924
 10
3.8808757692
 20
-0.5807427923
 10
3.8316064227
 20
-0.7209735903
  0
LWPOLYLINE
  5
2BF
100
AcDbEntity
  8
RACCORDO
100
AcDbPolyline
 62
253
  6
CONTINUOUS
 90
8
 70
0
 10
10.5266513084
 20
22.0864799709
 10
10.5256293871
 20
22.0814535722
 10
10.5246275169
 20
22.0704577735
 10
10.523645698
 20
22.0535589575
 10
10.522678348
 20
22.0308586736
 10
10.5217310492
 20
22.0024936657
 10
10.5208205485
 20
21.968635596
 10
10.5191111237
 20
21.8852903227
  0
LWPOLYLINE
  5
2C0
100
AcDbEntity
  8
0
100
AcDbPolyline
 62
7
  6
CONTINUOUS
 90
3
 70
0
 43
0.3500000006
 10
18.094285183
 20
1.0357133102
 10
18.3085719337
 20
0.9642866592
 10
18.5942853355
 20
0.8214288254
  0
LINE
  5
2C1
100
AcDbEntity
  8
0
100
AcDbLine
 62
253
  6
CONTINUOUS
 10
-11.0514422353
 20
-21.6116135728
 11
-11.0264799709
 21
-21.5866513084
  0
LINE
  5
2C2
100
AcDbEntity
  8
0
100
AcDbLine
 62
253
  6
CONTINUOUS
 10
-10.5516135728
 20
-22.1114422353
 11
-10.5266513084
 21
-22.0864799709
  0
LWPOLYLINE
  5
2C3
100
AcDbEntity
  8
0
100
AcDbPolyline
 62
7
  6
CONTINUOUS
 90
10
 70
0
 43
0.3500000006
 10
17.8799995651
 20
0.9642866592
 10
18.022857399
 20
1.0357133102
 10
18.094285183
 20
1.0357133102
 10
18.2371430168
 20
0.8928577423
 10
18.2371430168
 20
0.8214288254
 10
18.1657140999
 20
0.7499999084
 10
18.094285183
 20
0.7499999084
 10
17.9514284821
 20
0.8214288254
 10
17.8799995651
 20
0.8928577423
 10
17.8799995651
 20
0.9642866592
  0
LINE
  5
2C4
100
AcDbEntity
  8
0
100
AcDbLine
 62
253
  6
CONTINUOUS
 10
-11.0264799709
 20
21.5866513084
 11
-11.0514422353
 21
21.6116135728
  0
LINE
  5
2C5
100
AcDbEntity
  8
0
100
AcDbLine
 62
253
  6
CONTINUOUS
 10
-10.5266513084
 20
22.0864799709
 11
-10.5516135728
 21
22.1114422353
  0
LWPOLYLINE
  5
2C6
100
AcDbEntity
  8
RACCORDO
100
AcDbPolyline
 62
253
  6
CONTINUOUS
 90
7
 70
0
 10
10.5208201249
 20
-21.9686332738
 10
10.5217307095
 20
-22.0024922519
 10
10.5226780577
 20
-22.0308580893
 10
10.5236454625
 20
-22.0535588376
 10
10.5246273547
 20
-22.070457797
 10
10.5256293033
 20
-22.0814536019
 10
10.5266513084
 20
-22.0864799709
  0
LINE
  5
2C7
100
AcDbEntity
  8
RACCORDO
100
AcDbLine
 62
253
  6
CONTINUOUS
 10
10.5191102789
 20
-21.8852865879
 11
10.5208201249
 21
-21.9686332738
  0
LINE
  5
2C8
100
AcDbEntity
  8
RACCORDO
100
AcDbLine
 62
253
  6
CONTINUOUS
 10
-10.8880102879
 20
9.4960050713
 11
-10.8181687786
 21
9.4974728383
  0
LINE
  5
2C9
100
AcDbEntity
  8
RACCORDO
100
AcDbLine
 62
253
  6
CONTINUOUS
 10
-10.8181687786
 20
9.4974728383
 11
-10.7343795934
 21
9.4986458948
  0
LINE
  5
2CA
100
AcDbEntity
  8
RACCORDO
100
AcDbLine
 62
253
  6
CONTINUOUS
 10
-10.7343795934
 20
9.4986458948
 11
-10.6401841222
 21
9.4994746612
  0
LINE
  5
2CB
100
AcDbEntity
  8
RACCORDO
100
AcDbLine
 62
253
  6
CONTINUOUS
 10
-10.6401841222
 20
9.4994746612
 11
-10.4881671644
 21
9.4999999996
  0
LINE
  5
2CC
100
AcDbEntity
  8
RACCORDO
100
AcDbLine
 62
253
  6
CONTINUOUS
 10
10.590415486
 20
9.4997483763
 11
-10.4881671644
 21
9.5
  0
LINE
  5
2CD
100
AcDbEntity
  8
RACCORDO
100
AcDbLine
 62
253
  6
CONTINUOUS
 10
10.6883422333
 20
9.4991058655
 11
10.590415486
 21
9.4997483763
  0
LINE
  5
2CE
100
AcDbEntity
  8
RACCORDO
100
AcDbLine
 62
253
  6
CONTINUOUS
 10
10.7778084851
 20
9.4980996237
 11
10.6883422333
 21
9.4991058655
  0
LWPOLYLINE
  5
2CF
100
AcDbEntity
  8
RACCORDO
100
AcDbPolyline
 62
253
  6
CONTINUOUS
 90
10
 70
0
 10
11.0181527169
 20
-21.4614914897
 10
11.0189391127
 20
-21.4859859557
 10
11.0197777543
 20
-21.5082362811
 10
11.02065331
 20
-21.5278351628
 10
11.0215670101
 20
-21.5447313594
 10
11.0225176243
 20
-21.5589761122
 10
11.0234861298
 20
-21.5703158414
 10
11.0244661856
 20
-21.5786660206
 10
11.0254641326
 20
-21.5841111763
 10
11.0264799709
 20
-21.5866513084
  0
LINE
  5
2D0
100
AcDbEntity
  8
RACCORDO
100
AcDbLine
 62
253
  6
CONTINUOUS
 10
11.016738871
 20
-21.4056933754
 11
11.0181527169
 21
-21.4614914897
  0
LINE
  5
2D1
100
AcDbEntity
  8
RACCORDO
100
AcDbLine
 62
253
  6
CONTINUOUS
 10
11.0155711136
 20
-21.3424327347
 11
11.016738871
 21
-21.4056933754
  0
LINE
  5
2D2
100
AcDbEntity
  8
RACCORDO
100
AcDbLine
 62
253
  6
CONTINUOUS
 10
10.5169142997
 20
-21.7251528619
 11
10.5191102789
 21
-21.8852865879
  0
LINE
  5
2D3
100
AcDbEntity
  8
RACCORDO
100
AcDbLine
 62
253
  6
CONTINUOUS
 10
11.0146703475
 20
-21.2729143474
 11
11.0155711136
 21
-21.3424327347
  0
LINE
  5
2D4
100
AcDbEntity
  8
RACCORDO
100
AcDbLine
 62
253
  6
CONTINUOUS
 10
10.5148466646
 20
-21.4599830018
 11
10.5169142997
 21
-21.7251528619
  0
LINE
  5
2D5
100
AcDbEntity
  8
RACCORDO
100
AcDbLine
 62
253
  6
CONTINUOUS
 10
11.0138766932
 20
-21.1615238967
 11
11.0146703475
 21
-21.2729143474
  0
LINE
  5
2D6
100
AcDbEntity
  8
RACCORDO
100
AcDbLine
 62
253
  6
CONTINUOUS
 10
10.4976037732
 20
-16.0366548119
 11
10.5140480307
 21
-21.2362251476
  0
LINE
  5
2D7
100
AcDbEntity
  8
RACCORDO
100
AcDbLine
 62
253
  6
CONTINUOUS
 10
10.9974324428
 20
-15.9909275752
 11
11.0138766932
 21
-21.1615238967
  0
LINE
  5
2D8
100
AcDbEntity
  8
RACCORDO
100
AcDbLine
 62
253
  6
CONTINUOUS
 10
10.5140480307
 20
-21.2362251476
 11
10.5148466646
 21
-21.4599830018
  0
LINE
  5
2D9
100
AcDbEntity
  8
RACCORDO
100
AcDbLine
 62
253
  6
CONTINUOUS
 10
10.4890638437
 20
-10.809162614
 11
10.4976037732
 21
-16.0366548119
  0
LINE
  5
2DA
100
AcDbEntity
  8
RACCORDO
100
AcDbLine
 62
253
  6
CONTINUOUS
 10
10.9888924616
 20
-10.7928222982
 11
10.9974324428
 21
-15.9909275752
  0
LINE
  5
2DB
100
AcDbEntity
  8
RACCORDO
100
AcDbLine
 62
253
  6
CONTINUOUS
 10
10.485835169
 20
1.0555621241
 11
10.4890638437
 21
-10.809162614
  0
LINE
  5
2DC
100
AcDbEntity
  8
RACCORDO
100
AcDbLine
 62
253
  6
CONTINUOUS
 10
10.985663832
 20
1.0545216112
 11
10.9888924616
 21
-10.7928222982
  0
LINE
  5
2DD
100
AcDbEntity
  8
0
100
AcDbLine
 62
7
  6
CONTINUOUS
 10
11.0514422353
 20
21.6116135728
 11
11.0514422353
 21
-21.6116135728
  0
LINE
  5
2DE
100
AcDbEntity
  8
RACCORDO
100
AcDbLine
 62
253
  6
CONTINUOUS
 10
10.4923428018
 20
13.4252942234
 11
10.485835169
 21
1.0555621241
  0
LINE
  5
2DF
100
AcDbEntity
  8
RACCORDO
100
AcDbLine
 62
253
  6
CONTINUOUS
 10
10.9921714406
 20
13.3939726076
 11
10.985663832
 21
1.0545216112
  0
LINE
  5
2E0
100
AcDbEntity
  8
RACCORDO
100
AcDbLine
 62
253
  6
CONTINUOUS
 10
10.5048394573
 20
18.6410336052
 11
10.4923428018
 21
13.4252942234
  0
LINE
  5
2E1
100
AcDbEntity
  8
RACCORDO
100
AcDbLine
 62
253
  6
CONTINUOUS
 10
11.0046682314
 20
18.5804252298
 11
10.9921714406
 21
13.3939726076
  0
LINE
  5
2E2
100
AcDbEntity
  8
RACCORDO
100
AcDbLine
 62
253
  6
CONTINUOUS
 10
10.5152608966
 20
21.5306779274
 11
10.5048394573
 21
18.6410336052
  0
LINE
  5
2E3
100
AcDbEntity
  8
RACCORDO
100
AcDbLine
 62
253
  6
CONTINUOUS
 10
11.0143327731
 20
21.2368459471
 11
11.0046682314
 21
18.5804252298
  0
LINE
  5
2E4
100
AcDbEntity
  8
RACCORDO
100
AcDbLine
 62
253
  6
CONTINUOUS
 10
10.5169146285
 20
21.7251570648
 11
10.5152608966
 21
21.5306779274
  0
LINE
  5
2E5
100
AcDbEntity
  8
RACCORDO
100
AcDbLine
 62
253
  6
CONTINUOUS
 10
11.015084922
 20
21.3082533785
 11
11.0143327731
 21
21.2368459471
  0
LINE
  5
2E6
100
AcDbEntity
  8
RACCORDO
100
AcDbLine
 62
253
  6
CONTINUOUS
 10
10.5191111237
 20
21.8852903227
 11
10.5169146285
 21
21.7251570648
  0
LINE
  5
2E7
100
AcDbEntity
  8
RACCORDO
100
AcDbLine
 62
253
  6
CONTINUOUS
 10
11.0161242127
 20
21.3750566723
 11
11.015084922
 21
21.3082533785
  0
LWPOLYLINE
  5
2E8
100
AcDbEntity
  8
RACCORDO
100
AcDbPolyline
 62
253
  6
CONTINUOUS
 90
16
 70
0
 10
11.0264799709
 20
21.5866513084
 10
11.0237085996
 20
21.6388735973
 10
11.0154963459
 20
21.690524463
 10
11.0019330371
 20
21.7410385151
 10
10.9831670751
 20
21.7898627998
 10
10.9594038183
 20
21.8364628405
 10
10.930903339
 20
21.8803284908
 10
10.8979775626
 20
21.9209795447
 10
10.8609868701
 20
21.957970966
 10
10.8203361707
 20
21.9908977572
 10
10.7764704213
 20
22.0193994387
 10
10.7298697895
 20
22.04316396
 10
10.6810444317
 20
22.0619311116
 10
10.6305288403
 20
22.075495413
 10
10.5788759856
 20
22.0837083472
 10
10.5266513085
 20
22.086479971
  0
LWPOLYLINE
  5
2E9
100
AcDbEntity
  8
RACCORDO
100
AcDbPolyline
 62
253
  6
CONTINUOUS
 90
16
 70
0
 10
11.0264799709
 20
-21.5866513084
 10
11.0237084581
 20
-21.6388749344
 10
11.015495829
 20
-21.6905268861
 10
11.0019319847
 20
-21.741041747
 10
10.9831654038
 20
-21.7898665481
 10
10.9594015179
 20
-21.8364668208
 10
10.930900462
 20
-21.8803324477
 10
10.8979742276
 20
-21.9209832468
 10
10.860983247
 20
-21.9579742274
 10
10.820332448
 20
-21.9909004618
 10
10.776466821
 20
-22.0194015178
 10
10.7298665483
 20
-22.0431654038
 10
10.6810417472
 20
-22.0619319847
 10
10.6305268862
 20
-22.0754958291
 10
10.5788749345
 20
-22.0837084581
 10
10.5266513084
 20
-22.0864799709
  0
LWPOLYLINE
  5
2EA
100
AcDbEntity
  8
RACCORDO
100
AcDbPolyline
 62
253
  6
CONTINUOUS
 90
7
 70
0
 10
-10.9879958269
 20
9.4905
 10
-10.9840029662
 20
9.4914768667
 10
-10.9747570079
 20
9.492443384
 10
-10.9603559075
 20
9.4933893123
 10
-10.9409522366
 20
9.4943046299
 10
-10.916751566
 20
9.4951796397
 10
-10.8880102879
 20
9.4960050713
  0
LWPOLYLINE
  5
2EB
100
AcDbEntity
  8
RACCORDO
100
AcDbPolyline
 62
253
  6
CONTINUOUS
 90
9
 70
0
 10
10.9879958269
 20
9.4905
 10
10.9840029682
 20
9.4914768667
 10
10.9747570116
 20
9.4924433841
 10
10.9603559127
 20
9.4933893124
 10
10.9409522429
 20
9.4943046301
 10
10.916751573
 20
9.4951796399
 10
10.8880102953
 20
9.4960050715
 10
10.8550329074
 20
9.4967721801
 10
10.7778084851
 20
9.4980996237
  0
LWPOLYLINE
  5
2EC
100
AcDbEntity
  8
0
100
AcDbPolyline
 62
7
  6
CONTINUOUS
 90
10
 70
0
 43
0.3500000006
 10
1.2857142735
 20
31.3614431305
 10
1.3571429071
 20
31.2185852966
 10
1.3571429071
 20
31.1471586456
 10
1.2142857814
 20
31.0043008118
 10
1.1428571477
 20
31.0043008118
 10
1.0714285848
 20
31.0757274628
 10
1.0714285848
 20
31.1471586456
 10
1.1428571477
 20
31.2900119476
 10
1.2142857814
 20
31.3614431305
 10
1.2857142735
 20
31.3614431305
  0
LWPOLYLINE
  5
2ED
100
AcDbEntity
  8
0
100
AcDbPolyline
 62
7
  6
CONTINUOUS
 90
3
 70
0
 43
0.3500000006
 10
17.7371428642
 20
-0.5357137985
 10
17.7371428642
 20
-2.0357142563
 10
15.3799999352
 20
-1.3928574028
  0
LWPOLYLINE
  5
2EE
100
AcDbEntity
  8
0
100
AcDbPolyline
 62
7
  6
CONTINUOUS
 90
3
 70
0
 43
0.3500000006
 10
17.7371428642
 20
-2.8928567276
 10
17.7371428642
 20
-4.3928571854
 10
15.3799999352
 20
-3.7500003319
  0
LWPOLYLINE
  5
2EF
100
AcDbEntity
  8
0
100
AcDbPolyline
 62
7
  6
CONTINUOUS
 90
7
 70
0
 43
0.3500000006
 10
18.3799997177
 20
3.5357140732
 10
18.3799997177
 20
2.0357136154
 10
16.2371424065
 20
3.5357140732
 10
15.8085711708
 20
3.5357140732
 10
15.3799999352
 20
3.1071428375
 10
15.3799999352
 20
2.4642848511
 10
16.0228567886
 20
2.0357136154
  0
LWPOLYLINE
  5
2F0
100
AcDbEntity
  8
RACCORDO
100
AcDbPolyline
 62
253
  6
CONTINUOUS
 90
16
 70
0
 10
11.013876693
 20
-21.1615238967
 10
11.0098961887
 20
-21.1692063518
 10
11.0006606727
 20
-21.1768073667
 10
10.9862680235
 20
-21.1842463858
 10
10.9668707748
 20
-21.19144457
 10
10.9426744993
 20
-21.1983256327
 10
10.9139356299
 20
-21.2048166483
 10
10.8809587422
 20
-21.2108488247
 10
10.8440933262
 20
-21.2163582328
 10
10.803730083
 20
-21.2212864835
 10
10.7602967834
 20
-21.2255813472
 10
10.7142537351
 20
-21.2291973067
 10
10.6660889038
 20
-21.2320960401
 10
10.616312742
 20
-21.2342468266
 10
10.5654527791
 20
-21.235626872
 10
10.5140480308
 20
-21.2362215505
  0
LWPOLYLINE
  5
2F1
100
AcDbEntity
  8
RACCORDO
100
AcDbPolyline
 62
253
  6
CONTINUOUS
 90
16
 70
0
 10
11.0138766932
 20
21.1615238967
 10
11.0098974597
 20
21.1692066572
 10
11.000663019
 20
21.1768079927
 10
10.9862712413
 20
21.1842473412
 10
10.9668746564
 20
21.1914458576
 10
10.9426788368
 20
21.1983272491
 10
10.9139402194
 20
21.2048185843
 10
10.8809633874
 20
21.2108510651
 10
10.8440978422
 20
21.2163607572
 10
10.8037342993
 20
21.2212892666
 10
10.7603005474
 20
21.225584359
 10
10.7142569145
 20
21.2292005133
 10
10.6660913891
 20
21.2320994044
 10
10.6163144484
 20
21.2342503089
 10
10.565453648
 20
21.2356304304
 10
10.5140480307
 20
21.236225142
  0
LINE
  5
2F2
100
AcDbEntity
  8
RACCORDO
100
AcDbLine
 62
253
  6
CONTINUOUS
 10
10.5140480307
 20
21.2362251476
 11
-10.5140480307
 21
21.2362251476
  0
LINE
  5
2F3
100
AcDbEntity
  8
RACCORDO
100
AcDbLine
 62
253
  6
CONTINUOUS
 10
10.5266513084
 20
22.0864799709
 11
-10.5266513084
 21
22.0864799709
  0
LINE
  5
2F4
100
AcDbEntity
  8
0
100
AcDbLine
 62
7
  6
CONTINUOUS
 10
10.5516135728
 20
22.1114422353
 11
-10.5516135728
 21
22.1114422353
  0
LWPOLYLINE
  5
2F5
100
AcDbEntity
  8
0
100
AcDbPolyline
 62
7
  6
CONTINUOUS
 90
7
 70
0
 43
0.3500000006
 10
-0.2142857063
 20
30.8614429779
 10
-1.7142856507
 20
30.8614429779
 10
-0.2142857063
 20
33.0043014221
 10
-0.2142857063
 20
33.4328703918
 10
-0.6428571367
 20
33.8614438934
 10
-1.2857142735
 20
33.8614438934
 10
-1.7142856507
 20
33.218585907
  0
LWPOLYLINE
  5
2F6
100
AcDbEntity
  8
0
100
AcDbPolyline
 62
7
  6
CONTINUOUS
 90
7
 70
0
 43
0.3500000006
 10
-2.5714285469
 20
30.8614429779
 10
-4.0714284382
 20
30.8614429779
 10
-2.5714285469
 20
33.0043014221
 10
-2.5714285469
 20
33.4328703918
 10
-3.0000000658
 20
33.8614438934
 10
-3.6428572025
 20
33.8614438934
 10
-4.0714284382
 20
33.218585907
  0
LINE
  5
2F7
100
AcDbEntity
  8
RACCORDO
100
AcDbLine
 62
7
  6
CONTINUOUS
 10
-36.3134877757
 20
-22.0864799709
 11
-35.3602173581
 21
-22.1114422353
  0
LINE
  5
2F8
100
AcDbEntity
  8
0
100
AcDbLine
 62
7
  6
CONTINUOUS
 10
-36.3134877757
 20
-22.0864799709
 11
-35.3602173581
 21
-22.1114422353
  0
LINE
  5
2F9
100
AcDbEntity
  8
0
100
AcDbLine
 62
253
  6
CONTINUOUS
 10
-36.3134877757
 20
-21.5866513084
 11
-35.3602173581
 21
-21.6116135728
  0
LWPOLYLINE
  5
2FA
100
AcDbEntity
  8
RACCORDO
100
AcDbPolyline
 62
253
  6
CONTINUOUS
 90
4
 70
0
 10
-37.2527414738
 20
-21.2320960401
 10
-37.2656723548
 20
-21.2342468266
 10
-37.2734739261
 20
-21.235626872
 10
-37.2760635064
 20
-21.2362215505
  0
LINE
  5
2FB
100
AcDbEntity
  8
RACCORDO
100
AcDbLine
 62
253
  6
CONTINUOUS
 10
-37.1848059199
 20
-21.2212864835
 11
-37.2527414738
 21
-21.2320960401
  0
LWPOLYLINE
  5
2FC
100
AcDbEntity
  8
RACCORDO
100
AcDbPolyline
 62
253
  6
CONTINUOUS
 90
3
 70
0
 10
-36.7947875327
 20
-21.1615238967
 10
-36.8455274098
 20
-21.1692063518
 10
-37.1848059199
 20
-21.2212864835
  0
LINE
  5
2FD
100
AcDbEntity
  8
0
100
AcDbLine
 62
7
  6
CONTINUOUS
 10
-34.3602173581
 20
-13.2689805518
 11
-35.3602173581
 21
-13.3213883311
  0
LWPOLYLINE
  5
2FE
100
AcDbEntity
  8
0
100
AcDbPolyline
 62
7
  6
CONTINUOUS
 90
2
 70
0
 43
0.3500000006
 10
-42.9009647827
 20
30.8614429779
 10
-42.9009647827
 20
32.3614434357
  0
LINE
  5
2FF
100
AcDbEntity
  8
RACCORDO
100
AcDbLine
 62
253
  6
CONTINUOUS
 10
-38.2673115311
 20
-9.499924109
 11
-38.2699591744
 21
-9.4999999993
  0
LINE
  5
300
100
AcDbEntity
  8
RACCORDO
100
AcDbLine
 62
253
  6
CONTINUOUS
 10
-37.7831379439
 20
-9.4905
 11
-38.2673115311
 21
-9.499924109
  0
LINE
  5
301
100
AcDbEntity
  8
0
100
AcDbLine
 62
7
  6
CONTINUOUS
 10
-34.3602173581
 20
-9.7310194482
 11
-35.3602173581
 21
-9.6786116689
  0
LWPOLYLINE
  5
302
100
AcDbEntity
  8
RACCORDO
100
AcDbPolyline
 62
253
  6
CONTINUOUS
 90
10
 70
0
 10
-36.7947875327
 20
21.1615238967
 10
-36.9800360491
 20
19.8719852003
 10
-37.1464445025
 20
18.5804252298
 10
-37.2940128932
 20
17.2868439853
 10
-37.4227650719
 20
15.9909603469
 10
-37.5326771877
 20
14.6930554344
 10
-37.6236776881
 20
13.3939726076
 10
-37.6957427221
 20
12.0939929862
 10
-37.7488961407
 20
10.7928354503
 10
-37.7831379439
 20
9.4905
  0
LWPOLYLINE
  5
303
100
AcDbEntity
  8
RACCORDO
100
AcDbPolyline
 62
253
  6
CONTINUOUS
 90
19
 70
0
 10
-36.7947875327
 20
-21.1615238967
 10
-36.7874781433
 20
-21.1996934077
 10
-36.7773753322
 20
-21.2368235579
 10
-36.7644790996
 20
-21.2729143474
 10
-36.7486763741
 20
-21.3081932214
 10
-36.730080227
 20
-21.3424327347
 10
-36.7090298722
 20
-21.3749505517
 10
-36.6854853747
 20
-21.4056933754
 10
-36.6594866696
 20
-21.4347145028
 10
-36.6314927755
 20
-21.4614914897
 10
-36.6014615329
 20
-21.4859859557
 10
-36.5694351015
 20
-21.5082362811
 10
-36.5359989783
 20
-21.5278351628
 10
-36.5011061785
 20
-21.5447313594
 10
-36.464803687
 20
-21.5589761122
 10
-36.4278179558
 20
-21.5703158414
 10
-36.3903911355
 20
-21.5786660206
 10
-36.3522810755
 20
-21.5841111763
 10
-36.3134877757
 20
-21.5866513084
  0
LWPOLYLINE
  5
304
100
AcDbEntity
  8
RACCORDO
100
AcDbPolyline
 62
253
  6
CONTINUOUS
 90
10
 70
0
 10
-37.7831379439
 20
-9.4905
 10
-37.7488968459
 20
-10.7928222982
 10
-37.6957440575
 20
-12.0939699785
 10
-37.6236795789
 20
-13.393943041
 10
-37.5326796944
 20
-14.693022617
 10
-37.4227681195
 20
-15.9909275752
 10
-37.2940160012
 20
-17.2868145217
 10
-37.1464470552
 20
-18.5804023251
 10
-36.9800375657
 20
-19.8719721168
 10
-36.7947875327
 20
-21.1615238967
  0
LWPOLYLINE
  5
305
100
AcDbEntity
  8
RACCORDO
100
AcDbPolyline
 62
253
  6
CONTINUOUS
 90
10
 70
0
 10
-37.7831379439
 20
9.4905
 10
-37.8187600531
 20
7.381529647
 10
-37.8454766374
 20
5.2725447223
 10
-37.8632876967
 20
3.1635452259
 10
-37.872193234
 20
1.0545216112
 10
-37.8721932464
 20
-1.0545165753
 10
-37.8632877245
 20
-3.1635406936
 10
-37.8454766652
 20
-5.2725411972
 10
-37.8187600717
 20
-7.3815276327
 10
-37.7831379439
 20
-9.4905
  0
LINE
  5
306
100
AcDbEntity
  8
RACCORDO
100
AcDbLine
 62
253
  6
CONTINUOUS
 10
-36.3134877757
 20
21.5866513084
 11
-36.3159201623
 21
21.690524463
  0
LINE
  5
307
100
AcDbEntity
  8
RACCORDO
100
AcDbLine
 62
253
  6
CONTINUOUS
 10
-36.3159201623
 20
21.690524463
 11
-36.317674848
 21
21.7898627998
  0
LWPOLYLINE
  5
308
100
AcDbEntity
  8
RACCORDO
100
AcDbPolyline
 62
253
  6
CONTINUOUS
 90
11
 70
0
 10
-36.317674848
 20
21.7898627998
 10
-36.3186751962
 20
21.8803284908
 10
-36.3188774884
 20
21.9209795447
 10
-36.318877507
 20
21.957970966
 10
-36.3186752499
 20
21.9908977572
 10
-36.3182729289
 20
22.0193994387
 10
-36.3176749465
 20
22.04316396
 10
-36.316887848
 20
22.0619311116
 10
-36.3159202487
 20
22.075495413
 10
-36.3147827397
 20
22.0837083472
 10
-36.3134877724
 20
22.086479971
  0
LWPOLYLINE
  5
309
100
AcDbEntity
  8
RACCORDO
100
AcDbPolyline
 62
253
  6
CONTINUOUS
 90
9
 70
0
 10
-36.3188775234
 20
-21.9209832468
 10
-36.3188775232
 20
-21.9579742274
 10
-36.3186752481
 20
-21.9909004618
 10
-36.3182729123
 20
-22.0194015178
 10
-36.3176749202
 20
-22.0431654038
 10
-36.316887818
 20
-22.0619319847
 10
-36.315920222
 20
-22.0754958291
 10
-36.3147827239
 20
-22.0837084581
 10
-36.3134877757
 20
-22.0864799709
  0
LINE
  5
30A
100
AcDbEntity
  8
0
100
AcDbLine
 62
7
  6
CONTINUOUS
 10
-35.3602173581
 20
-22.1114422353
 11
-35.3602173581
 21
22.1114422353
  0
LINE
  5
30B
100
AcDbEntity
  8
RACCORDO
100
AcDbLine
 62
253
  6
CONTINUOUS
 10
-36.3182729135
 20
-21.8364668208
 11
-36.3188775234
 21
-21.9209832468
  0
LINE
  5
30C
100
AcDbEntity
  8
RACCORDO
100
AcDbLine
 62
253
  6
CONTINUOUS
 10
-36.3168878198
 20
-21.741041747
 11
-36.3182729135
 21
-21.8364668208
  0
LWPOLYLINE
  5
30D
100
AcDbEntity
  8
RACCORDO
100
AcDbPolyline
 62
253
  6
CONTINUOUS
 90
3
 70
0
 10
-36.3134877757
 20
-21.5866513084
 10
-36.3147827248
 20
-21.6388749344
 10
-36.3168878198
 20
-21.741041747
  0
LINE
  5
30E
100
AcDbEntity
  8
0
100
AcDbLine
 62
253
  6
CONTINUOUS
 10
-34.7392829756
 20
-13.288846539
 11
-34.7392829756
 21
-9.711153461
  0
LINE
  5
30F
100
AcDbEntity
  8
0
100
AcDbLine
 62
253
  6
CONTINUOUS
 10
-34.7392829756
 20
9.711153461
 11
-34.7392829756
 21
13.288846539
  0
LINE
  5
310
100
AcDbEntity
  8
0
100
AcDbLine
 62
7
  6
CONTINUOUS
 10
-34.3602173581
 20
-13.2689805518
 11
-34.3602173581
 21
-9.7310194482
  0
LINE
  5
311
100
AcDbEntity
  8
0
100
AcDbLine
 62
7
  6
CONTINUOUS
 10
-34.3602173581
 20
9.7310194482
 11
-34.3602173581
 21
13.2689805518
  0
LINE
  5
312
100
AcDbEntity
  8
0
100
AcDbLine
 62
7
  6
CONTINUOUS
 10
-34.3602173581
 20
9.7310194482
 11
-35.3602173581
 21
9.6786116689
  0
LWPOLYLINE
  5
313
100
AcDbEntity
  8
RACCORDO
100
AcDbPolyline
 62
253
  6
CONTINUOUS
 90
3
 70
0
 10
-37.7831379439
 20
9.4905
 10
-38.2673115672
 20
9.4999241097
 10
-38.2699592108
 20
9.5
  0
LINE
  5
314
100
AcDbEntity
  8
0
100
AcDbLine
 62
7
  6
CONTINUOUS
 10
-34.3602173581
 20
13.2689805518
 11
-35.3602173581
 21
13.3213883311
  0
LWPOLYLINE
  5
315
100
AcDbEntity
  8
RACCORDO
100
AcDbPolyline
 62
253
  6
CONTINUOUS
 90
19
 70
0
 10
-36.3134877757
 20
21.5866513084
 10
-36.3522714852
 20
21.5841100213
 10
-36.3903681663
 20
21.5786680472
 10
-36.4277778191
 20
21.5703253861
 10
-36.4647401472
 20
21.558997784
 10
-36.501015447
 20
21.5447694949
 10
-36.5358846073
 20
21.5278932804
 10
-36.5692995613
 20
21.5083229654
 10
-36.6013083758
 20
21.4861047249
 10
-36.6313361404
 20
21.4616298466
 10
-36.6593499631
 20
21.4348517581
 10
-36.6853827359
 20
21.4058170317
 10
-36.7089582252
 20
21.3750566723
 10
-36.7300313237
 20
21.3425178419
 10
-36.7486471386
 20
21.3082533785
 10
-36.7644647582
 20
21.2729528004
 10
-36.7773705451
 20
21.2368459471
 10
-36.7874781366
 20
21.1997029793
 10
-36.7947875327
 20
21.1615238967
  0
LINE
  5
316
100
AcDbEntity
  8
0
100
AcDbLine
 62
253
  6
CONTINUOUS
 10
-35.3602173581
 20
21.6116135728
 11
-36.3134877757
 21
21.5866513084
  0
LINE
  5
317
100
AcDbEntity
  8
RACCORDO
100
AcDbLine
 62
7
  6
CONTINUOUS
 10
-35.3602173581
 20
22.1114422353
 11
-36.3134877724
 21
22.086479971
  0
LINE
  5
318
100
AcDbEntity
  8
0
100
AcDbLine
 62
7
  6
CONTINUOUS
 10
-35.3602173581
 20
22.1114422353
 11
-36.3134877757
 21
22.0864799709
  0
LWPOLYLINE
  5
319
100
AcDbEntity
  8
0
100
AcDbPolyline
 62
7
  6
CONTINUOUS
 90
3
 70
0
 43
0.3500000006
 10
-42.4009646301
 20
31.5043009644
 10
-43.9009650879
 20
31.5043009644
 10
-43.2581071014
 20
33.8614438934
  0
LINE
  5
31A
100
AcDbEntity
  8
RACCORDO
100
AcDbLine
 62
253
  6
CONTINUOUS
 10
-36.7947875327
 20
21.1615238967
 11
-37.1532633375
 21
21.2163607572
  0
LWPOLYLINE
  5
31B
100
AcDbEntity
  8
RACCORDO
100
AcDbPolyline
 62
253
  6
CONTINUOUS
 90
6
 70
0
 10
-37.1532633375
 20
21.2163607572
 10
-37.2348394835
 20
21.2292005133
 10
-37.2527636823
 20
21.2320994044
 10
-37.2656953525
 20
21.2342503089
 10
-37.2734974393
 20
21.2356304304
 10
-37.276087253
 20
21.236225142
  0
ARC
  5
31C
100
AcDbEntity
  8
RACCORDO
100
AcDbCircle
 62
7
  6
CONTINUOUS
 10
461.6397826419
 20
0.0
 40
500.0
100
AcDbArc
 50
178.91131468
 51
181.08868532
  0
ARC
  5
31D
100
AcDbEntity
  8
RACCORDO
100
AcDbCircle
 62
7
  6
CONTINUOUS
 10
51.713794322
 20
-7.79
 40
90.0
100
AcDbArc
 50
181.08868532
 51
188.592302252
  0
ARC
  5
31E
100
AcDbEntity
  8
RACCORDO
100
AcDbCircle
 62
7
  6
CONTINUOUS
 10
51.713794322
 20
7.79
 40
90.0
100
AcDbArc
 50
171.407697748
 51
178.91131468
  0
ARC
  5
31F
100
AcDbEntity
  8
RACCORDO
100
AcDbCircle
 62
7
  6
CONTINUOUS
 10
-36.2873108274
 20
-21.0868226459
 40
1.0
100
AcDbArc
 50
188.592302252
 51
268.5
  0
ARC
  5
320
100
AcDbEntity
  8
RACCORDO
100
AcDbCircle
 62
7
  6
CONTINUOUS
 10
-36.2873108274
 20
21.0868226459
 40
1.0
100
AcDbArc
 50
91.5
 51
171.407697748
  0
ELLIPSE
  5
321
100
AcDbEntity
  8
0
100
AcDbEllipse
 62
7
  6
CONTINUOUS
 10
10.551270839
 20
21.611270839
 30
0.0
 11
-0.35379574
 21
-0.35379574
 31
0.0
 40
0.999315002
 41
2.3565371065
 42
3.9266482006
  0
ELLIPSE
  5
322
100
AcDbEntity
  8
0
100
AcDbEllipse
 62
7
  6
CONTINUOUS
 10
-10.551270839
 20
-21.611270839
 30
0.0
 11
0.35379574
 21
0.35379574
 31
0.0
 40
0.999315002
 41
2.3565371065
 42
3.9266482006
  0
ELLIPSE
  5
323
100
AcDbEntity
  8
0
100
AcDbEllipse
 62
7
  6
CONTINUOUS
 10
-10.551270839
 20
21.611270839
 30
0.0
 11
-0.35379574
 21
0.35379574
 31
0.0
 40
0.999315002
 41
-0.7850555471
 42
0.7850555471
  0
ELLIPSE
  5
324
100
AcDbEntity
  8
0
100
AcDbEllipse
 62
7
  6
CONTINUOUS
 10
10.551270839
 20
-21.611270839
 30
0.0
 11
-0.35379574
 21
0.35379574
 31
0.0
 40
0.999315002
 41
-3.9266482006
 42
-2.3565371065
  0
ENDSEC
  0
SECTION
  2
OBJECTS
  0
DICTIONARY
  5
C
100
AcDbDictionary
280
0
281
1
  3
ACAD_GROUP
350
D
  3
ACAD_MLINESTYLE
350
17
  3
ACAD_LAYOUT
350
1A
  3
ACAD_PLOTSETTINGS
350
19
  3
ACAD_PLOTSTYLENAME
350
E
  0
DICTIONARY
  5
D
102
{ACAD_REACTORS
330
C
102
}
100
AcDbDictionary
280
0
281
1
  0
ACDBDICTIONARYWDFLT
  5
E
102
{ACAD_REACTORS
330
C
102
}
100
AcDbDictionary
281
1
  3
Normal
350
F
100
AcDbDictionaryWithDefault
340
F
  0
DICTIONARY
  5
17
102
{ACAD_REACTORS
330
C
102
}
100
AcDbDictionary
280
0
281
1
  3
Standard
350
18
  0
DICTIONARY
  5
19
102
{ACAD_REACTORS
330
C
102
}
100
AcDbDictionary
281
1
  0
DICTIONARY
  5
1A
102
{ACAD_REACTORS
330
C
102
}
100
AcDbDictionary
281
1
  3
Model
350
325
  3
Layout1
350
326
  0
ACDBPLACEHOLDER
  5
F
102
{ACAD_REACTORS
330
E
102
}
  0
MLINESTYLE
  5
18
102
{ACAD_REACTORS
330
17
102
}
100
AcDbMlineStyle
  2
STANDARD
 70
0
  3

 62
256
 51
90.0
 52
90.0
 71
2
 49
0.5
 62
256
  6
BYLAYER
 49
-0.5
 62
256
  6
BYLAYER
  0
LAYOUT
  5
325
102
{ACAD_REACTORS
330
1A
102
}
100
AcDbPlotSettings
  1

  2
none_device
  4
ISO_A4_(297.00_x_210.00_MM)
  6

 40
0.0
 41
0.0
 42
0.0
 43
0.0
 44
297.0
 45
210.0
 46
0.0
 47
0.0
 48
0.0
 49
0.0
140
0.0
141
0.0
142
1.0
143
1.0
 70
1024
 72
1
 73
0
 74
0
  7

 75
0
147
1.0
148
0.0
149
0.0
100
AcDbLayout
  1
Model
 70
0
 71
0
 10
0.0
 20
0.0
 11
297.0
 21
210.0
 12
0.0
 22
0.0
 32
0.0
 14
0.0
 24
0.0
 34
0.0
 15
0.0
 25
0.0
 35
0.0
146
0.0
 13
0.0
 23
0.0
 33
0.0
 16
1.0
 26
0.0
 36
0.0
 17
0.0
 27
1.0
 37
0.0
 76
0
330
218
345
0
346
0
  0
LAYOUT
  5
326
102
{ACAD_REACTORS
330
1A
102
}
100
AcDbPlotSettings
  1

  2
none_device
  4
ISO_A4_(297.00_x_210.00_MM)
  6

 40
0.0
 41
0.0
 42
0.0
 43
0.0
 44
297.0
 45
210.0
 46
0.0
 47
0.0
 48
0.0
 49
0.0
140
0.0
141
0.0
142
1.0
143
1.0
 70
0
 72
1
 73
0
 74
0
  7

 75
0
147
1.0
148
0.0
149
0.0
100
AcDbLayout
  1
Layout1
 70
0
 71
1
 10
0.0
 20
0.0
 11
297.0
 21
210.0
 12
0.0
 22
0.0
 32
0.0
 14
0.0
 24
0.0
 34
0.0
 15
0.0
 25
0.0
 35
0.0
146
0.0
 13
0.0
 23
0.0
 33
0.0
 16
1.0
 26
0.0
 36
0.0
 17
0.0
 27
1.0
 37
0.0
 76
0
330
219
345
0
346
0
  0
ENDSEC
  0
EOF
