  0
SECTION
  2
HEADER
  9
$ACADVER
  1
AC1015
  9
$DWGCODEPAGE
  3
ANSI_1252
  9
$EXTMAX
 10
297.0
 20
210.0
 30
0.0
  9
$EXTMIN
 10
0.0
 20
0.0
 30
0.0
  9
$LIMMIN
 10
0.0
 20
0.0
  9
$LIMMAX
 10
297.0
 20
210.0
  9
$VIEWCTR
 10
148.5
 20
105.0
  9
$VIEWSIZE
 40
210.0
  9
$CLAYER
  8
0
  9
$LTSCALE
 40
16.335
  9
$CELTYPE
  6
BYLAYER
  9
$DIMSCALE
 40
1.0
  9
$DIMASZ
 40
3.0
  9
$DIMEXO
 40
0.5
  9
$DIMDLI
 40
11.286
  9
$DIMEXE
 40
1.5
  9
$DIMCEN
 40
2.673
  9
$DIMLFAC
 40
1.0
  9
$DIMBLK
  1
_FILLED
  9
$DIMTXT
 40
3.0
  9
$DIMTOL
 70
1
  9
$DIMLIM
 70
0
  9
$DIMTFAC
 40
1.0
  9
$DIMTP
 40
0.01
  9
$DIMTM
 40
0.01
  9
$DIMGAP
 40
0.625
  9
$DIMDSEP
 70
44
  9
$PDMODE
 70
3
  9
$PDSIZE
 40
3.0
  9
$HANDSEED
  5
64B
  9
$TILEMODE
 70
1
  9
$MEASUREMENT
 70
1
  9
$INSUNITS
 70
4
  0
ENDSEC
  0
SECTION
  2
CLASSES
  0
CLASS
  1
ACDBDICTIONARYWDFLT
  2
AcDbDictionaryWithDefault
  3
AutoCAD 2000
 90
0
280
0
281
0
  0
CLASS
  1
ACDBPLACEHOLDER
  2
AcDbPlaceHolder
  3
AutoCAD 2000
 90
0
280
0
281
0
  0
CLASS
  1
LAYOUT
  2
AcDbLayout
  3
AutoCAD 2000
 90
0
280
0
281
0
  0
ENDSEC
  0
SECTION
  2
TABLES
  0
TABLE
  2
VPORT
  5
8
100
AcDbSymbolTable
 70
2
  0
VPORT
  5
1F4
100
AcDbSymbolTableRecord
100
AcDbViewportTableRecord
  2
*ACTIVE
 70
0
 10
0.0
 20
0.0
 11
1.0
 21
1.0
 12
148.5
 22
105.0
 13
0.0
 23
0.0
 14
1.0
 24
1.0
 15
0.0
 25
0.0
 16
0.0
 26
0.0
 36
1.0
 17
0.0
 27
0.0
 37
0.0
 40
210.0
 41
1.4142857143
 42
50.0
 43
0.0
 44
0.0
 50
0.0
 51
0.0
 71
0
 72
100
 73
1
 74
1
 75
0
 76
0
 77
0
 78
0
  0
ENDTAB
  0
TABLE
  2
LTYPE
  5
5
100
AcDbSymbolTable
 70
6
  0
LTYPE
  5
14
100
AcDbSymbolTableRecord
100
AcDbLinetypeTableRecord
  2
BYBLOCK
 70
0
  3

 72
65
 73
0
 40
0.0
  0
LTYPE
  5
15
100
AcDbSymbolTableRecord
100
AcDbLinetypeTableRecord
  2
BYLAYER
 70
0
  3

 72
65
 73
0
 40
0.0
  0
LTYPE
  5
16
100
AcDbSymbolTableRecord
100
AcDbLinetypeTableRecord
  2
CONTINUOUS
 70
64
  3
Solid line
 72
65
 73
0
 40
0.0
  0
LTYPE
  5
1F5
100
AcDbSymbolTableRecord
100
AcDbLinetypeTableRecord
  2
CENTER
 70
64
  3
____ _ ____ _ ____ _ ____ _ ____ _ ____ _ ____
 72
65
 73
4
 40
0.6
 49
0.375
 74
0
 49
-0.075
 74
0
 49
0.075
 74
0
 49
-0.075
 74
0
  0
LTYPE
  5
1F6
100
AcDbSymbolTableRecord
100
AcDbLinetypeTableRecord
  2
HIDDEN
 70
64
  3
- - - - - - - - - - - - - - - - - - - -
 72
65
 73
2
 40
0.2
 49
0.1
 74
0
 49
-0.1
 74
0
  0
LTYPE
  5
1F7
100
AcDbSymbolTableRecord
100
AcDbLinetypeTableRecord
  2
PHANTOM
 70
64
  3
_____ _ _ _____ _ _ _____ _ _ _____
 72
65
 73
6
 40
0.8
 49
0.45
 74
0
 49
-0.05
 74
0
 49
0.1
 74
0
 49
-0.05
 74
0
 49
0.1
 74
0
 49
-0.05
 74
0
  0
LTYPE
  5
1F8
100
AcDbSymbolTableRecord
100
AcDbLinetypeTableRecord
  2
DOT
 70
64
  3
. . . . . . . . . . . . . . . . . . . .
 72
65
 73
2
 40
0.2
 49
0.1
 74
0
 49
-0.1
 74
0
  0
LTYPE
  5
1F9
100
AcDbSymbolTableRecord
100
AcDbLinetypeTableRecord
  2
DASHED
 70
64
  3
- - - - - - - - - - - - - - - - - - - -
 72
65
 73
2
 40
0.2
 49
0.1
 74
0
 49
-0.1
 74
0
  0
ENDTAB
  0
TABLE
  2
LAYER
  5
2
100
AcDbSymbolTable
 70
36
  0
LAYER
  5
10
100
AcDbSymbolTableRecord
100
AcDbLayerTableRecord
  2
0
 70
0
 62
7
  6
CONTINUOUS
370
-3
390
F
  0
LAYER
  5
1FA
100
AcDbSymbolTableRecord
100
AcDbLayerTableRecord
  2
DEFAULT_1
 70
0
 62
7
  6
CENTER
370
-3
390
F
  0
LAYER
  5
1FB
100
AcDbSymbolTableRecord
100
AcDbLayerTableRecord
  2
DEFAULT_2
 70
0
 62
7
  6
HIDDEN
370
-3
390
F
  0
LAYER
  5
1FC
100
AcDbSymbolTableRecord
100
AcDbLayerTableRecord
  2
DEFAULT_3
 70
0
 62
7
  6
PHANTOM
370
-3
390
F
  0
LAYER
  5
1FD
100
AcDbSymbolTableRecord
100
AcDbLayerTableRecord
  2
ASSI
 70
0
 62
7
  6
CONTINUOUS
370
-3
390
F
  0
LAYER
  5
1FE
100
AcDbSymbolTableRecord
100
AcDbLayerTableRecord
  2
CONTATTI
 70
0
 62
7
  6
CONTINUOUS
370
-3
390
F
  0
LAYER
  5
1FF
100
AcDbSymbolTableRecord
100
AcDbLayerTableRecord
  2
COORDINATE
 70
0
 62
7
  6
CONTINUOUS
370
-3
390
F
  0
LAYER
  5
200
100
AcDbSymbolTableRecord
100
AcDbLayerTableRecord
  2
COORD_ORIGINE
 70
0
 62
7
  6
CONTINUOUS
370
-3
390
F
  0
LAYER
  5
201
100
AcDbSymbolTableRecord
100
AcDbLayerTableRecord
  2
COPY-PUBBLISH
 70
0
 62
7
  6
CONTINUOUS
370
-3
390
F
  0
LAYER
  5
202
100
AcDbSymbolTableRecord
100
AcDbLayerTableRecord
  2
COPY_PUBLISH
 70
0
 62
7
  6
CONTINUOUS
370
-3
390
F
  0
LAYER
  5
203
100
AcDbSymbolTableRecord
100
AcDbLayerTableRecord
  2
COSMETICHE
 70
0
 62
7
  6
CONTINUOUS
370
-3
390
F
  0
LAYER
  5
204
100
AcDbSymbolTableRecord
100
AcDbLayerTableRecord
  2
COSMETICI
 70
0
 62
7
  6
CONTINUOUS
370
-3
390
F
  0
LAYER
  5
205
100
AcDbSymbolTableRecord
100
AcDbLayerTableRecord
  2
CURVE
 70
0
 62
7
  6
CONTINUOUS
370
-3
390
F
  0
LAYER
  5
206
100
AcDbSymbolTableRecord
100
AcDbLayerTableRecord
  2
DRAFT
 70
0
 62
7
  6
CONTINUOUS
370
-3
390
F
  0
LAYER
  5
207
100
AcDbSymbolTableRecord
100
AcDbLayerTableRecord
  2
IMPORT
 70
0
 62
7
  6
CONTINUOUS
370
-3
390
F
  0
LAYER
  5
208
100
AcDbSymbolTableRecord
100
AcDbLayerTableRecord
  2
IMPORT_IGES
 70
0
 62
7
  6
CONTINUOUS
370
-3
390
F
  0
LAYER
  5
209
100
AcDbSymbolTableRecord
100
AcDbLayerTableRecord
  2
NOTE
 70
0
 62
7
  6
CONTINUOUS
370
-3
390
F
  0
LAYER
  5
20A
100
AcDbSymbolTableRecord
100
AcDbLayerTableRecord
  2
PIANI
 70
0
 62
7
  6
CONTINUOUS
370
-3
390
F
  0
LAYER
  5
20B
100
AcDbSymbolTableRecord
100
AcDbLayerTableRecord
  2
PIANI-RIFERIMENTO
 70
0
 62
7
  6
CONTINUOUS
370
-3
390
F
  0
LAYER
  5
20C
100
AcDbSymbolTableRecord
100
AcDbLayerTableRecord
  2
PIANISFORMI
 70
0
 62
7
  6
CONTINUOUS
370
-3
390
F
  0
LAYER
  5
20D
100
AcDbSymbolTableRecord
100
AcDbLayerTableRecord
  2
PIANI_ORIGINE
 70
0
 62
7
  6
CONTINUOUS
370
-3
390
F
  0
LAYER
  5
20E
100
AcDbSymbolTableRecord
100
AcDbLayerTableRecord
  2
PIANI_RIFERIMENTO
 70
0
 62
7
  6
CONTINUOUS
370
-3
390
F
  0
LAYER
  5
20F
100
AcDbSymbolTableRecord
100
AcDbLayerTableRecord
  2
PUNTI
 70
0
 62
7
  6
CONTINUOUS
370
-3
390
F
  0
LAYER
  5
210
100
AcDbSymbolTableRecord
100
AcDbLayerTableRecord
  2
RACCORDO
 70
0
 62
7
  6
CONTINUOUS
370
-3
390
F
  0
LAYER
  5
211
100
AcDbSymbolTableRecord
100
AcDbLayerTableRecord
  2
SIMBOLI
 70
0
 62
7
  6
CONTINUOUS
370
-3
390
F
  0
LAYER
  5
212
100
AcDbSymbolTableRecord
100
AcDbLayerTableRecord
  2
SMUSSO
 70
0
 62
7
  6
CONTINUOUS
370
-3
390
F
  0
LAYER
  5
213
100
AcDbSymbolTableRecord
100
AcDbLayerTableRecord
  2
SNAPLINE
 70
0
 62
7
  6
CONTINUOUS
370
-3
390
F
  0
LAYER
  5
214
100
AcDbSymbolTableRecord
100
AcDbLayerTableRecord
  2
SUPERFICI
 70
0
 62
7
  6
CONTINUOUS
370
-3
390
F
  0
LAYER
  5
215
100
AcDbSymbolTableRecord
100
AcDbLayerTableRecord
  2
SUP_ROSSA
 70
0
 62
7
  6
CONTINUOUS
370
-3
390
F
  0
LAYER
  5
216
100
AcDbSymbolTableRecord
100
AcDbLayerTableRecord
  2
TRACCIABILITA
 70
0
 62
7
  6
CONTINUOUS
370
-3
390
F
  0
LAYER
  5
217
100
AcDbSymbolTableRecord
100
AcDbLayerTableRecord
  2
TRASCH
 70
0
 62
7
  6
CONTINUOUS
370
-3
390
F
  0
LAYER
  5
218
100
AcDbSymbolTableRecord
100
AcDbLayerTableRecord
  2
TRASH
 70
0
 62
7
  6
CONTINUOUS
370
-3
390
F
  0
LAYER
  5
219
100
AcDbSymbolTableRecord
100
AcDbLayerTableRecord
  2
XSEC_DATUMS
 70
0
 62
7
  6
CONTINUOUS
370
-3
390
F
  0
ENDTAB
  0
TABLE
  2
STYLE
  5
3
100
AcDbSymbolTable
 70
1
  0
STYLE
  5
11
100
AcDbSymbolTableRecord
100
AcDbTextStyleTableRecord
  2
STANDARD
 70
0
 40
0.0
 41
0.8
 50
0.0
 71
0
 42
0.2
  3
txt
  4

  0
STYLE
  5
21A
100
AcDbSymbolTableRecord
100
AcDbTextStyleTableRecord
  2
TEXTSTYLE_1
 70
0
 40
0.0
 41
0.8
 50
0.0
 71
0
 42
0.2
  3
gdt
  4

  0
ENDTAB
  0
TABLE
  2
VIEW
  5
6
100
AcDbSymbolTable
 70
0
  0
ENDTAB
  0
TABLE
  2
UCS
  5
7
100
AcDbSymbolTable
 70
0
  0
ENDTAB
  0
TABLE
  2
APPID
  5
9
100
AcDbSymbolTable
 70
1
  0
APPID
  5
21B
100
AcDbSymbolTableRecord
100
AcDbRegAppTableRecord
  2
ACAD
 70
0
  0
ENDTAB
  0
TABLE
  2
BLOCK_RECORD
  5
1
100
AcDbSymbolTable
 70
0
  0
BLOCK_RECORD
  5
21C
100
AcDbSymbolTableRecord
100
AcDbBlockTableRecord
  2
*Model_Space
  0
BLOCK_RECORD
  5
21D
100
AcDbSymbolTableRecord
100
AcDbBlockTableRecord
  2
*Paper_Space
  0
BLOCK_RECORD
  5
21E
100
AcDbSymbolTableRecord
100
AcDbBlockTableRecord
  2
_FILLED
  0
BLOCK_RECORD
  5
21F
100
AcDbSymbolTableRecord
100
AcDbBlockTableRecord
  2
*D0
  0
BLOCK_RECORD
  5
220
100
AcDbSymbolTableRecord
100
AcDbBlockTableRecord
  2
*D1
  0
BLOCK_RECORD
  5
221
100
AcDbSymbolTableRecord
100
AcDbBlockTableRecord
  2
*D2
  0
BLOCK_RECORD
  5
222
100
AcDbSymbolTableRecord
100
AcDbBlockTableRecord
  2
*D3
  0
ENDTAB
  0
TABLE
  2
DIMSTYLE
  5
A
100
AcDbSymbolTable
 70
1
100
AcDbDimStyleTable
 71
0
  0
DIMSTYLE
105
223
100
AcDbSymbolTableRecord
100
AcDbDimStyleTableRecord
  2
STANDARD
 70
0
  3

  4

 40
1.0
 41
3.0
 42
0.5
 43
0.38
 44
1.5
 45
0.0
 46
0.0
 47
0.01
 48
0.01
140
3.0
141
0.09
142
0.0
143
25.4
144
1.0
145
0.0
146
1.0
147
0.625
 71
1.0
 72
0.0
 73
0
 74
0
 75
0
 76
0
 77
1
 78
8
170
0
171
2
172
0
173
0
174
0
175
0
176
0
177
0
178
0
270
2
271
2
272
2
273
2
274
2
275
0
280
0
281
0
282
0
283
1
284
8
285
0
286
0
287
3
288
0
340
11
278
44
341
21E
342
21E
343
21E
344
21E
  0
DIMSTYLE
105
224
100
AcDbSymbolTableRecord
100
AcDbDimStyleTableRecord
  2
DIMSTYLE_1
 70
0
  3

  4

 40
1.0
 41
3.0
 42
0.5
 43
0.38
 44
1.5
 45
0.0
 46
0.0
 47
0.0
 48
0.0
140
3.0
141
0.09
142
0.0
143
25.4
144
1.0
145
0.0
146
1.0
147
0.75
 71
0.0
 72
0.0
 73
0
 74
0
 75
0
 76
0
 77
1
 78
8
170
0
171
2
172
0
173
0
174
0
175
0
176
0
177
0
178
0
270
2
271
2
272
2
273
2
274
2
275
0
280
0
281
0
282
0
283
1
284
8
285
0
286
0
287
3
288
0
340
11
278
44
341
21E
342
21E
343
21E
344
21E
  0
DIMSTYLE
105
225
100
AcDbSymbolTableRecord
100
AcDbDimStyleTableRecord
  2
DIMSTYLE_2
 70
0
  3

  4

 40
1.0
 41
3.0
 42
0.5
 43
0.38
 44
1.5
 45
0.0
 46
0.0
 47
0.0
 48
0.0
140
3.0
141
0.09
142
0.0
143
25.4
144
1.0
145
0.0
146
1.0
147
0.75
 71
0.0
 72
0.0
 73
0
 74
0
 75
0
 76
0
 77
1
 78
8
170
0
171
2
172
0
173
0
174
0
175
0
176
0
177
0
178
0
270
2
271
1
272
1
273
2
274
2
275
0
280
0
281
0
282
0
283
1
284
8
285
0
286
0
287
3
288
0
340
11
278
44
341
21E
342
21E
343
21E
344
21E
  0
ENDTAB
  0
ENDSEC
  0
SECTION
  2
BLOCKS
  0
BLOCK
  5
20
100
AcDbEntity
  8
0
100
AcDbBlockBegin
  2
*Model_Space
 70
0
 10
0.0
 20
0.0
 30
0.0
  3
*Model_Space
  1

  0
ENDBLK
  5
21
100
AcDbEntity
  8
0
100
AcDbBlockEnd
  0
BLOCK
  5
1C
100
AcDbEntity
  8
0
100
AcDbBlockBegin
  2
*Paper_Space
 70
0
 10
0.0
 20
0.0
 30
0.0
  3
*Paper_Space
  1

  0
ENDBLK
  5
1D
100
AcDbEntity
  8
0
100
AcDbBlockEnd
  0
BLOCK
  5
226
100
AcDbEntity
  8
0
100
AcDbBlockBegin
  2
_FILLED
 70
64
 10
0.0
 20
0.0
  3
_FILLED
  1

  0
SOLID
  5
227
100
AcDbEntity
  8
0
  6
BYBLOCK
 62
0
100
AcDbTrace
 10
0.0
 20
0.0
 11
-1.0
 21
0.3166666667
 12
-1.0
 22
-0.3166666667
 13
-1.0
 23
-0.3166666667
  0
ENDBLK
  5
228
100
AcDbEntity
  8
0
  6
BYBLOCK
 62
0
100
AcDbBlockEnd
  0
BLOCK
  5
229
100
AcDbEntity
  8
0
100
AcDbBlockBegin
 62
7
  6
CONTINUOUS
  2
*D0
 70
65
 10
0.0
 20
0.0
  3
*D0
  1

  0
MTEXT
  5
22A
100
AcDbEntity
  8
0
100
AcDbMText
 62
7
  6
CONTINUOUS
  7
STANDARD
 71
2
 72
1
 10
116.0551101367
 20
145.6075501212
 30
0.0
 11
1.0
 21
0.0
 31
0.0
 44
0.9
  1
26
 40
3.0
 41
7.0714285714
  0
LINE
  5
22B
100
AcDbEntity
  8
0
100
AcDbLine
 62
7
  6
CONTINUOUS
 10
129.0551101367
 20
121.9814268429
 11
129.0551101367
 21
143.3575501212
  0
LINE
  5
22C
100
AcDbEntity
  8
0
100
AcDbLine
 62
7
  6
CONTINUOUS
 10
103.0551101367
 20
132.107554352
 11
103.0551101367
 21
143.3575501212
  0
LINE
  5
22D
100
AcDbEntity
  8
0
100
AcDbLine
 62
7
  6
CONTINUOUS
 10
129.0551101367
 20
141.8575501212
 11
116.0551101367
 21
141.8575501212
  0
LINE
  5
22E
100
AcDbEntity
  8
0
100
AcDbLine
 62
7
  6
CONTINUOUS
 10
103.0551101367
 20
141.8575501212
 11
116.0551101367
 21
141.8575501212
  0
INSERT
  5
22F
100
AcDbEntity
  8
0
100
AcDbBlockReference
 62
7
  6
CONTINUOUS
  2
_FILLED
 10
129.0551101367
 20
141.8575501212
 41
3.0
 42
3.0
 43
3.0
  0
INSERT
  5
230
100
AcDbEntity
  8
0
100
AcDbBlockReference
 62
7
  6
CONTINUOUS
  2
_FILLED
 10
103.0551101367
 20
141.8575501212
 41
3.0
 42
3.0
 43
3.0
 50
180.0
  0
ENDBLK
  5
231
100
AcDbEntity
  8
0
  6
BYBLOCK
 62
0
100
AcDbBlockEnd
  0
BLOCK
  5
232
100
AcDbEntity
  8
0
100
AcDbBlockBegin
 62
7
  6
CONTINUOUS
  2
*D1
 70
65
 10
0.0
 20
0.0
  3
*D1
  1

  0
MTEXT
  5
233
100
AcDbEntity
  8
0
100
AcDbMText
 62
7
  6
CONTINUOUS
  7
STANDARD
 71
2
 72
1
 10
111.8051101367
 20
153.7877305593
 30
0.0
 11
1.0
 21
0.0
 31
0.0
 44
0.9
  1
34,5
 40
3.0
 41
12.5357142857
  0
LINE
  5
234
100
AcDbEntity
  8
0
100
AcDbLine
 62
7
  6
CONTINUOUS
 10
129.0551101367
 20
121.8027136637
 11
129.0551101367
 21
151.5377305593
  0
LINE
  5
235
100
AcDbEntity
  8
0
100
AcDbLine
 62
7
  6
CONTINUOUS
 10
94.5551101367
 20
107.8575501212
 11
94.5551101367
 21
151.5377305593
  0
LINE
  5
236
100
AcDbEntity
  8
0
100
AcDbLine
 62
7
  6
CONTINUOUS
 10
129.0551101367
 20
150.0377305593
 11
111.8051101367
 21
150.0377305593
  0
LINE
  5
237
100
AcDbEntity
  8
0
100
AcDbLine
 62
7
  6
CONTINUOUS
 10
94.5551101367
 20
150.0377305593
 11
111.8051101367
 21
150.0377305593
  0
INSERT
  5
238
100
AcDbEntity
  8
0
100
AcDbBlockReference
 62
7
  6
CONTINUOUS
  2
_FILLED
 10
129.0551101367
 20
150.0377305593
 41
3.0
 42
3.0
 43
3.0
  0
INSERT
  5
239
100
AcDbEntity
  8
0
100
AcDbBlockReference
 62
7
  6
CONTINUOUS
  2
_FILLED
 10
94.5551101367
 20
150.0377305593
 41
3.0
 42
3.0
 43
3.0
 50
180.0
  0
ENDBLK
  5
23A
100
AcDbEntity
  8
0
  6
BYBLOCK
 62
0
100
AcDbBlockEnd
  0
BLOCK
  5
23B
100
AcDbEntity
  8
0
100
AcDbBlockBegin
 62
7
  6
CONTINUOUS
  2
*D2
 70
65
 10
0.0
 20
0.0
  3
*D2
  1

  0
MTEXT
  5
23C
100
AcDbEntity
  8
0
100
AcDbMText
 62
7
  6
CONTINUOUS
  7
STANDARD
 71
2
 72
1
 10
156.721355547
 20
145.6075501212
 30
0.0
 11
1.0
 21
0.0
 31
0.0
 44
0.9
  1
22,4
 40
3.0
 41
13.1785714286
  0
LINE
  5
23D
100
AcDbEntity
  8
0
100
AcDbLine
 62
7
  6
CONTINUOUS
 10
145.5373181704
 20
126.0048961598
 11
145.5373181704
 21
143.3575501212
  0
LINE
  5
23E
100
AcDbEntity
  8
0
100
AcDbLine
 62
7
  6
CONTINUOUS
 10
167.9053929236
 20
126.0048961598
 11
167.9053929236
 21
143.3575501212
  0
LINE
  5
23F
100
AcDbEntity
  8
0
100
AcDbLine
 62
7
  6
CONTINUOUS
 10
145.5373181704
 20
141.8575501212
 11
156.721355547
 21
141.8575501212
  0
LINE
  5
240
100
AcDbEntity
  8
0
100
AcDbLine
 62
7
  6
CONTINUOUS
 10
167.9053929236
 20
141.8575501212
 11
156.721355547
 21
141.8575501212
  0
INSERT
  5
241
100
AcDbEntity
  8
0
100
AcDbBlockReference
 62
7
  6
CONTINUOUS
  2
_FILLED
 10
145.5373181704
 20
141.8575501212
 41
3.0
 42
3.0
 43
3.0
 50
180.0
  0
INSERT
  5
242
100
AcDbEntity
  8
0
100
AcDbBlockReference
 62
7
  6
CONTINUOUS
  2
_FILLED
 10
167.9053929236
 20
141.8575501212
 41
3.0
 42
3.0
 43
3.0
  0
ENDBLK
  5
243
100
AcDbEntity
  8
0
  6
BYBLOCK
 62
0
100
AcDbBlockEnd
  0
BLOCK
  5
244
100
AcDbEntity
  8
0
100
AcDbBlockBegin
 62
7
  6
CONTINUOUS
  2
*D3
 70
65
 10
0.0
 20
0.0
  3
*D3
  1

  0
MTEXT
  5
245
100
AcDbEntity
  8
0
100
AcDbMText
 62
7
  6
CONTINUOUS
  7
STANDARD
 71
2
 72
1
 10
174.971355547
 20
107.3575501212
 30
0.0
 11
0.0
 21
1.0
 31
0.0
 44
0.9
  1
49
 40
3.0
 41
7.0714285714
  0
LINE
  5
246
100
AcDbEntity
  8
0
100
AcDbLine
 62
7
  6
CONTINUOUS
 10
167.1213597778
 20
131.8575501212
 11
180.221355547
 21
131.8575501212
  0
LINE
  5
247
100
AcDbEntity
  8
0
100
AcDbLine
 62
7
  6
CONTINUOUS
 10
167.1213597778
 20
82.8575501212
 11
180.221355547
 21
82.8575501212
  0
LINE
  5
248
100
AcDbEntity
  8
0
100
AcDbLine
 62
7
  6
CONTINUOUS
 10
178.721355547
 20
131.8575501212
 11
178.721355547
 21
107.3575501212
  0
LINE
  5
249
100
AcDbEntity
  8
0
100
AcDbLine
 62
7
  6
CONTINUOUS
 10
178.721355547
 20
82.8575501212
 11
178.721355547
 21
107.3575501212
  0
INSERT
  5
24A
100
AcDbEntity
  8
0
100
AcDbBlockReference
 62
7
  6
CONTINUOUS
  2
_FILLED
 10
178.721355547
 20
131.8575501212
 41
3.0
 42
3.0
 43
3.0
 50
90.0
  0
INSERT
  5
24B
100
AcDbEntity
  8
0
100
AcDbBlockReference
 62
7
  6
CONTINUOUS
  2
_FILLED
 10
178.721355547
 20
82.8575501212
 41
3.0
 42
3.0
 43
3.0
 50
270.0
  0
ENDBLK
  5
24C
100
AcDbEntity
  8
0
  6
BYBLOCK
 62
0
100
AcDbBlockEnd
  0
ENDSEC
  0
SECTION
  2
ENTITIES
  0
DIMENSION
  5
24D
100
AcDbEntity
  8
0
100
AcDbDimension
 62
7
  6
CONTINUOUS
  2
*D0
 10
103.0551101367
 20
141.8575501212
 11
116.0551101367
 21
141.8575501212
 70
160
 71
2
 42
26.0
  3
DIMSTYLE_1
100
AcDbAlignedDimension
 13
129.0551101367
 23
121.4814268429
 14
103.0551101367
 24
131.607554352
 50
180.0
100
AcDbRotatedDimension
  0
DIMENSION
  5
24E
100
AcDbEntity
  8
0
100
AcDbDimension
 62
7
  6
CONTINUOUS
  2
*D1
 10
94.5551101367
 20
150.0377305593
 11
111.8051101367
 21
150.0377305593
 70
160
 71
2
 42
34.5
  3
DIMSTYLE_1
100
AcDbAlignedDimension
 13
129.0551101367
 23
121.3027136637
 14
94.5551101367
 24
107.3575501212
 50
180.0
100
AcDbRotatedDimension
  0
DIMENSION
  5
24F
100
AcDbEntity
  8
0
100
AcDbDimension
 62
7
  6
CONTINUOUS
  2
*D2
 10
167.9053929236
 20
141.8575501212
 11
156.721355547
 21
141.8575501212
 70
160
 71
2
 42
22.3680747532
  3
DIMSTYLE_2
100
AcDbAlignedDimension
 13
145.5373181704
 23
125.5048961598
 14
167.9053929236
 24
125.5048961598
100
AcDbRotatedDimension
  0
DIMENSION
  5
250
100
AcDbEntity
  8
0
100
AcDbDimension
 62
7
  6
CONTINUOUS
  2
*D3
 10
178.721355547
 20
82.8575501212
 11
178.721355547
 21
107.3575501212
 70
160
 71
2
 42
49.0
  3
DIMSTYLE_1
100
AcDbAlignedDimension
 13
166.6213597778
 23
131.8575501212
 14
166.6213597778
 24
82.8575501212
 50
270.0
100
AcDbRotatedDimension
  0
LWPOLYLINE
  5
251
100
AcDbEntity
  8
0
100
AcDbPolyline
 62
7
  6
CONTINUOUS
 90
12
 70
0
 10
146.6963531187
 20
131.8240575128
 10
146.7067963594
 20
131.82975989
 10
146.7174991007
 20
131.8349588934
 10
146.7284370977
 20
131.839642747
 10
146.7395855732
 20
131.8438008425
 10
146.750919268
 20
131.8474237629
 10
146.7624125082
 20
131.8505033029
 10
146.7740392595
 20
131.8530324889
 10
146.7857731808
 20
131.8550055953
 10
146.7975876914
 20
131.8564181554
 10
146.809456031
 20
131.8572669709
 10
146.8213513162
 20
131.8575501212
  0
LWPOLYLINE
  5
252
100
AcDbEntity
  8
0
100
AcDbPolyline
 62
7
  6
CONTINUOUS
 90
9
 70
0
 10
146.7857731808
 20
82.860094647
 10
146.7740392595
 20
82.8620677535
 10
146.7624125082
 20
82.8645969395
 10
146.750919268
 20
82.8676764795
 10
146.7395855732
 20
82.8712993998
 10
146.7284370977
 20
82.8754574954
 10
146.7174991007
 20
82.880141349
 10
146.7067963594
 20
82.8853403524
 10
146.6963531187
 20
82.8910427295
  0
LWPOLYLINE
  5
253
100
AcDbEntity
  8
0
100
AcDbPolyline
 62
7
  6
CONTINUOUS
 90
12
 70
0
 10
146.6963531187
 20
82.8910427295
 10
146.6861930411
 20
82.8972355631
 10
146.6763391419
 20
82.9039048257
 10
146.6668137431
 20
82.9110354105
 10
146.6576384279
 20
82.9186111623
 10
146.6488339809
 20
82.9266149207
 10
146.6404203465
 20
82.9350285551
 10
146.6324165881
 20
82.9438330021
 10
146.6248408363
 20
82.9530083173
 10
146.6177102515
 20
82.9625337161
 10
146.6110409888
 20
82.9723876153
 10
146.6048481553
 20
82.9825476929
  0
LWPOLYLINE
  5
254
100
AcDbEntity
  8
0
100
AcDbPolyline
 62
7
  6
CONTINUOUS
 90
30
 70
0
 10
145.8761991601
 20
129.7176275317
 10
145.8567388091
 20
129.7093628433
 10
145.8387592355
 20
129.7003893649
 10
145.8210892896
 20
129.6906589431
 10
145.8037592594
 20
129.6801912392
 10
145.7868988988
 20
129.6690576296
 10
145.7705195333
 20
129.6572533009
 10
145.7546098374
 20
129.6447830665
 10
145.7392655889
 20
129.6317327435
 10
145.7245136915
 20
129.6181258577
 10
145.7103272415
 20
129.6039388832
 10
145.6967213059
 20
129.5891870593
 10
145.6836725932
 20
129.5738439183
 10
145.671204395
 20
129.5579359279
 10
145.659401652
 20
129.5415577306
 10
145.6482687619
 20
129.5246975441
 10
145.6378013271
 20
129.5073671507
 10
145.6280710959
 20
129.4896965397
 10
145.6190976652
 20
129.4717154908
 10
145.6108614382
 20
129.4533942242
 10
145.6033753724
 20
129.4347733905
 10
145.5966325822
 20
129.4158369589
 10
145.5906399531
 20
129.3966009601
 10
145.5854311
 20
129.3771541362
 10
145.5810092759
 20
129.3574763014
 10
145.5773712277
 20
129.3375876415
 10
145.5745408108
 20
129.3176374559
 10
145.5725259771
 20
129.297675511
 10
145.5713187747
 20
129.2776520405
 10
145.5709192036
 20
129.2575670442
  0
LINE
  5
255
100
AcDbEntity
  8
0
100
AcDbLine
 62
7
  6
CONTINUOUS
 10
145.894798503
 20
129.7251087257
 11
145.8750582983
 21
129.7175990395
  0
LINE
  5
256
100
AcDbEntity
  8
0
100
AcDbLine
 62
7
  6
CONTINUOUS
 10
145.9137157601
 20
129.731848107
 11
145.8936788126
 21
129.7250855609
  0
LINE
  5
257
100
AcDbEntity
  8
0
100
AcDbLine
 62
7
  6
CONTINUOUS
 10
145.9329338147
 20
129.7378382756
 11
145.9126173697
 21
129.7318297119
  0
LINE
  5
258
100
AcDbEntity
  8
0
100
AcDbLine
 62
7
  6
CONTINUOUS
 10
167.4903480258
 20
84.9720552239
 11
167.5108541422
 21
84.9772760543
  0
LINE
  5
259
100
AcDbEntity
  8
0
100
AcDbLine
 62
7
  6
CONTINUOUS
 10
167.4914034792
 20
84.9720655586
 11
167.4706702437
 21
84.9676353488
  0
LINE
  5
25A
100
AcDbEntity
  8
0
100
AcDbLine
 62
7
  6
CONTINUOUS
 10
167.4717389711
 20
84.9676425034
 11
167.4507812628
 21
84.9639988995
  0
LINE
  5
25B
100
AcDbEntity
  8
0
100
AcDbLine
 62
7
  6
CONTINUOUS
 10
167.4308826708
 20
84.9611697634
 11
167.4518633821
 21
84.9640034287
  0
LINE
  5
25C
100
AcDbEntity
  8
0
100
AcDbLine
 62
7
  6
CONTINUOUS
 10
167.4110416635
 20
84.9591559029
 11
167.4318749484
 21
84.9611722605
  0
LWPOLYLINE
  5
25D
100
AcDbEntity
  8
0
100
AcDbPolyline
 62
7
  6
CONTINUOUS
 90
33
 70
0
 10
155.521355547
 20
83.3593022394
 10
155.5308733159
 20
83.3595288338
 10
155.5403695323
 20
83.3602081048
 10
155.5498226776
 20
83.3613385152
 10
155.559211337
 20
83.3629175069
 10
155.5685142292
 20
83.3649415032
 10
155.5777102551
 20
83.3674059145
 10
155.5867785712
 20
83.3703051541
 10
155.5956986344
 20
83.3736326528
 10
155.6044502296
 20
83.377380869
 10
155.6130135279
 20
83.3815413092
 10
155.6213691235
 20
83.3861045442
 10
155.6294980761
 20
83.3910602285
 10
155.6373819646
 20
83.3963971292
 10
155.6450029277
 20
83.4021031524
 10
155.6523436973
 20
83.4081653662
 10
155.6593876458
 20
83.414570037
 10
155.6661188081
 20
83.4213026458
 10
155.6725219187
 20
83.4283479188
 10
155.6785824553
 20
83.4356898659
 10
155.684286709
 20
83.443311868
 10
155.6896217926
 20
83.4511967038
 10
155.6945756579
 20
83.4593265843
 10
155.6991370265
 20
83.4676830186
 10
155.7032954771
 20
83.476246893
 10
155.7070415631
 20
83.484998676
 10
155.7103668768
 20
83.4939186397
 10
155.713263957
 20
83.502986735
 10
155.7157265978
 20
83.5121838947
 10
155.7177487204
 20
83.5214878376
 10
155.7193251184
 20
83.5308731367
 10
155.7204526999
 20
83.5403169822
 10
155.7211298118
 20
83.549799378
  0
LWPOLYLINE
  5
25E
100
AcDbEntity
  8
0
100
AcDbPolyline
 62
7
  6
CONTINUOUS
 90
36
 70
0
 10
155.521355547
 20
83.3575501212
 10
155.5300795229
 20
83.3577404845
 10
155.5387868863
 20
83.3583112112
 10
155.547461062
 20
83.3592612143
 10
155.556085538
 20
83.3605886847
 10
155.5646438968
 20
83.3622910947
 10
155.5731198471
 20
83.3643652029
 10
155.5814972546
 20
83.3668070604
 10
155.5897601721
 20
83.3696120184
 10
155.5978928708
 20
83.3727747363
 10
155.6058798696
 20
83.3762891934
 10
155.6137059649
 20
83.3801486991
 10
155.6213562594
 20
83.3843459052
 10
155.6288161903
 20
83.3888728218
 10
155.6360715577
 20
83.3937208312
 10
155.6431085506
 20
83.3988807034
 10
155.6499137741
 20
83.4043426161
 10
155.6564742745
 20
83.4100961718
 10
155.6627775639
 20
83.416130417
 10
155.6688116441
 20
83.4224338648
 10
155.6745650294
 20
83.4289945162
 10
155.6800267687
 20
83.4357998811
 10
155.6851864657
 20
83.4428370053
 10
155.6900342994
 20
83.450092493
 10
155.6945610425
 20
83.4575525319
 10
155.6987580787
 20
83.4652029216
 10
155.7026174196
 20
83.4730290993
 10
155.7061317195
 20
83.4810161665
 10
155.7092942896
 20
83.4891489198
 10
155.7120991106
 20
83.4974118784
 10
155.7145408441
 20
83.5057893128
 10
155.7166148429
 20
83.5142652765
 10
155.7183171598
 20
83.5228236358
 10
155.7196445552
 20
83.531448099
 10
155.720594503
 20
83.5401222493
 10
155.7211651955
 20
83.5488295763
  0
LINE
  5
25F
100
AcDbEntity
  8
0
100
AcDbLine
 62
7
  6
CONTINUOUS
 10
146.8213513162
 20
82.8575501212
 11
149.2213597778
 21
82.8575501212
  0
LINE
  5
260
100
AcDbEntity
  8
0
100
AcDbLine
 62
7
  6
CONTINUOUS
 10
164.2213513162
 20
82.8575501212
 11
166.6213597778
 21
82.8575501212
  0
LINE
  5
261
100
AcDbEntity
  8
0
100
AcDbLine
 62
7
  6
CONTINUOUS
 10
146.8344498949
 20
82.8706486999
 11
149.208261199
 21
82.8706486999
  0
LINE
  5
262
100
AcDbEntity
  8
0
100
AcDbLine
 62
7
  6
CONTINUOUS
 10
164.2344498949
 20
82.8706486999
 11
166.608261199
 21
82.8706486999
  0
LINE
  5
263
100
AcDbEntity
  8
0
100
AcDbLine
 62
253
  6
CONTINUOUS
 10
146.5844541257
 20
83.1206444691
 11
149.4582569683
 21
83.1206444691
  0
LINE
  5
264
100
AcDbEntity
  8
0
100
AcDbLine
 62
253
  6
CONTINUOUS
 10
163.9844541257
 20
83.1206444691
 11
166.8582569683
 21
83.1206444691
  0
LINE
  5
265
100
AcDbEntity
  8
0
100
AcDbLine
 62
7
  6
CONTINUOUS
 10
161.171355547
 20
83.3575501212
 11
160.221355547
 21
83.3575501212
  0
LINE
  5
266
100
AcDbEntity
  8
0
100
AcDbLine
 62
7
  6
CONTINUOUS
 10
153.221355547
 20
83.3575501212
 11
152.271355547
 21
83.3575501212
  0
LINE
  5
267
100
AcDbEntity
  8
0
100
AcDbLine
 62
7
  6
CONTINUOUS
 10
153.221355547
 20
83.3593022394
 11
155.521355547
 21
83.3593022394
  0
LINE
  5
268
100
AcDbEntity
  8
0
100
AcDbLine
 62
7
  6
CONTINUOUS
 10
157.921355547
 20
83.3593022394
 11
160.221355547
 21
83.3593022394
  0
LINE
  5
269
100
AcDbEntity
  8
0
100
AcDbLine
 62
7
  6
CONTINUOUS
 10
161.1626288023
 20
83.3662768659
 11
160.221355547
 21
83.3662768659
  0
LINE
  5
26A
100
AcDbEntity
  8
0
100
AcDbLine
 62
7
  6
CONTINUOUS
 10
153.221355547
 20
83.3662768659
 11
152.2800822917
 21
83.3662768659
  0
LINE
  5
26B
100
AcDbEntity
  8
0
100
AcDbLine
 62
253
  6
CONTINUOUS
 10
146.5844541257
 20
83.5132125539
 11
149.4582569683
 21
83.5132125539
  0
LINE
  5
26C
100
AcDbEntity
  8
0
100
AcDbLine
 62
253
  6
CONTINUOUS
 10
163.9844541257
 20
83.5132125539
 11
166.8582569683
 21
83.5132125539
  0
LINE
  5
26D
100
AcDbEntity
  8
0
100
AcDbLine
 62
253
  6
CONTINUOUS
 10
153.221355547
 20
83.5592988548
 11
155.721355547
 21
83.5592988548
  0
LINE
  5
26E
100
AcDbEntity
  8
0
100
AcDbLine
 62
253
  6
CONTINUOUS
 10
157.721355547
 20
83.5592988548
 11
160.221355547
 21
83.5592988548
  0
LINE
  5
26F
100
AcDbEntity
  8
0
100
AcDbLine
 62
253
  6
CONTINUOUS
 10
166.608261199
 20
83.7297189048
 11
164.2344498949
 21
83.7297189048
  0
LINE
  5
270
100
AcDbEntity
  8
0
100
AcDbLine
 62
253
  6
CONTINUOUS
 10
149.208261199
 20
83.7297189048
 11
146.8344498949
 21
83.7297189048
  0
LWPOLYLINE
  5
271
100
AcDbEntity
  8
0
100
AcDbPolyline
 62
7
  6
CONTINUOUS
 90
37
 70
0
 10
157.921355547
 20
83.3575501212
 10
157.9126315711
 20
83.3577404845
 10
157.9039242076
 20
83.3583112112
 10
157.8952500319
 20
83.3592612143
 10
157.886625556
 20
83.3605886847
 10
157.8780671972
 20
83.3622910947
 10
157.8695912468
 20
83.3643652029
 10
157.8612138394
 20
83.3668070604
 10
157.8529509218
 20
83.3696120184
 10
157.8448182232
 20
83.3727747363
 10
157.8368312244
 20
83.3762891934
 10
157.829005129
 20
83.3801486991
 10
157.8213548346
 20
83.3843459052
 10
157.8138949036
 20
83.3888728218
 10
157.8066395363
 20
83.3937208312
 10
157.7996025433
 20
83.3988807034
 10
157.7927973198
 20
83.4043426161
 10
157.7862368194
 20
83.4100961718
 10
157.7799335301
 20
83.416130417
 10
157.7738994499
 20
83.4224338648
 10
157.7681460645
 20
83.4289945162
 10
157.7626843253
 20
83.4357998811
 10
157.7575246283
 20
83.4428370053
 10
157.7526767945
 20
83.450092493
 10
157.7481500515
 20
83.4575525319
 10
157.7439530152
 20
83.4652029216
 10
157.7400936744
 20
83.4730290993
 10
157.7365793744
 20
83.4810161665
 10
157.7334168043
 20
83.4891489198
 10
157.7306119834
 20
83.4974118784
 10
157.7281702499
 20
83.5057893128
 10
157.7260962511
 20
83.5142652765
 10
157.7243939341
 20
83.5228236358
 10
157.7230665387
 20
83.531448099
 10
157.7221165909
 20
83.5401222493
 10
157.7215458984
 20
83.5488295763
 10
157.721355547
 20
83.5575535059
  0
LWPOLYLINE
  5
272
100
AcDbEntity
  8
0
100
AcDbPolyline
 62
7
  6
CONTINUOUS
 90
4
 70
0
 10
146.8213513162
 20
82.8575501212
 10
146.809456031
 20
82.8578332714
 10
146.7975876914
 20
82.8586820869
 10
146.7857731808
 20
82.860094647
  0
LWPOLYLINE
  5
273
100
AcDbEntity
  8
0
100
AcDbPolyline
 62
7
  6
CONTINUOUS
 90
34
 70
0
 10
146.8344498949
 20
82.8706486999
 10
146.8225548734
 20
82.8709322507
 10
146.8106867967
 20
82.8717814556
 10
146.7988725488
 20
82.8731943911
 10
146.7871388916
 20
82.8751678563
 10
146.7755124043
 20
82.8776973811
 10
146.7640194237
 20
82.8807772355
 10
146.7526859839
 20
82.8844004429
 10
146.7415377577
 20
82.8885587959
 10
146.7305999982
 20
82.893242875
 10
146.7198974821
 20
82.8984420697
 10
146.7094544528
 20
82.9041446025
 10
146.6992945662
 20
82.9103375561
 10
146.6894408367
 20
82.9170069019
 10
146.6799155852
 20
82.9241375325
 10
146.6707403886
 20
82.9317132952
 10
146.6619360306
 20
82.9397170294
 10
146.6535224552
 20
82.9481306048
 10
146.645518721
 20
82.9569349628
 10
146.6379429582
 20
82.9661101595
 10
146.6308123277
 20
82.9756354109
 10
146.6241429819
 20
82.9854891404
 10
146.6179500283
 20
82.995649027
 10
146.6122474955
 20
83.0060920563
 10
146.6070483008
 20
83.0167945724
 10
146.6023642217
 20
83.0277323319
 10
146.5982058687
 20
83.0388805581
 10
146.5945826613
 20
83.0502139979
 10
146.5915028069
 20
83.0617069785
 10
146.5889732821
 20
83.0733334658
 10
146.5869998168
 20
83.085067123
 10
146.5855868814
 20
83.0968813709
 10
146.5847376765
 20
83.1087494476
 10
146.5844541257
 20
83.1206444691
  0
LWPOLYLINE
  5
274
100
AcDbEntity
  8
0
100
AcDbPolyline
 62
7
  6
CONTINUOUS
 90
4
 70
0
 10
164.2213513162
 20
82.8575501212
 10
164.209456031
 20
82.8578332714
 10
164.1975876914
 20
82.8586820869
 10
164.1857731808
 20
82.860094647
  0
LWPOLYLINE
  5
275
100
AcDbEntity
  8
0
100
AcDbPolyline
 62
7
  6
CONTINUOUS
 90
34
 70
0
 10
164.2344498949
 20
82.8706486999
 10
164.2225744234
 20
82.8709313196
 10
164.2107206808
 20
82.8717782214
 10
164.1989155053
 20
82.8731882173
 10
164.1871840107
 20
82.8751591633
 10
164.1755545754
 20
82.8776871532
 10
164.1640586098
 20
82.8807657318
 10
164.1527238447
 20
82.8843873416
 10
164.1415742327
 20
82.888544196
 10
164.1306348316
 20
82.8932269696
 10
164.1199302968
 20
82.8984251549
 10
164.1094850433
 20
82.9041269434
 10
164.0993229677
 20
82.9103193058
 10
164.089467183
 20
82.916988143
 10
164.0799399215
 20
82.9241183964
 10
164.0707627083
 20
82.9316939573
 10
164.0619563167
 20
82.9396976888
 10
164.0535407305
 20
82.9481114404
 10
164.0455350363
 20
82.956916136
 10
164.0379573798
 20
82.966091823
 10
164.0308249287
 20
82.9756177172
 10
164.0241538486
 20
82.9854722333
 10
164.0179592564
 20
82.9956330455
 10
164.0122551911
 20
83.0060771307
 10
164.0070545835
 20
83.0167808171
 10
164.0023692191
 20
83.0277198507
 10
163.9982097149
 20
83.038869447
 10
163.9945854977
 20
83.0502043395
 10
163.9915047791
 20
83.0616988506
 10
163.9889745421
 20
83.0733269299
 10
163.9870005235
 20
83.0850622096
 10
163.9855871947
 20
83.0968780919
 10
163.9847377546
 20
83.1087478102
 10
163.9844541257
 20
83.1206444691
  0
LWPOLYLINE
  5
276
100
AcDbEntity
  8
0
100
AcDbPolyline
 62
253
  6
CONTINUOUS
 90
33
 70
0
 10
157.921355547
 20
83.3593022394
 10
157.9118391638
 20
83.3595287678
 10
157.9023443383
 20
83.3602078396
 10
157.8928925793
 20
83.3613379166
 10
157.8835052981
 20
83.3629164388
 10
157.8742037599
 20
83.3649398304
 10
157.8650090356
 20
83.3674035076
 10
157.8559419543
 20
83.3703018895
 10
157.8470230558
 20
83.3736284104
 10
157.8382725444
 20
83.3773755345
 10
157.8297102426
 20
83.3815347735
 10
157.821355547
 20
83.3860967052
 10
157.8132273835
 20
83.3910509956
 10
157.8053441651
 20
83.3963864214
 10
157.7977237497
 20
83.4020908964
 10
157.7903834002
 20
83.4081514979
 10
157.7833397447
 20
83.4145544968
 10
157.7766087394
 20
83.4212853882
 10
157.7702056321
 20
83.4283289245
 10
157.764144928
 20
83.4356691498
 10
157.7584403566
 20
83.4432894362
 10
157.7531048404
 20
83.4511725212
 10
157.7481504662
 20
83.4593005471
 10
157.7435884572
 20
83.4676551014
 10
157.7394291479
 20
83.4762172582
 10
157.7356819604
 20
83.4849676216
 10
157.7323553832
 20
83.4938863692
 10
157.7294569523
 20
83.502953297
 10
157.7269932333
 20
83.5121478657
 10
157.7249698075
 20
83.5214492465
 10
157.7233912586
 20
83.5308363688
 10
157.7222611625
 20
83.5402879679
 10
157.7215820791
 20
83.5497826327
  0
LINE
  5
277
100
AcDbEntity
  8
0
100
AcDbLine
 62
7
  6
CONTINUOUS
 10
146.0316694306
 20
84.9591559028
 11
146.0108361455
 21
84.9611722605
  0
LINE
  5
278
100
AcDbEntity
  8
0
100
AcDbLine
 62
7
  6
CONTINUOUS
 10
146.0118284234
 20
84.9611697634
 11
145.9908477118
 21
84.9640034287
  0
LINE
  5
279
100
AcDbEntity
  8
0
100
AcDbLine
 62
7
  6
CONTINUOUS
 10
145.9709721228
 20
84.9676425034
 11
145.9919298313
 21
84.9639988995
  0
LINE
  5
27A
100
AcDbEntity
  8
0
100
AcDbLine
 62
7
  6
CONTINUOUS
 10
145.9513076148
 20
84.9720655586
 11
145.9720408504
 21
84.9676353488
  0
LINE
  5
27B
100
AcDbEntity
  8
0
100
AcDbLine
 62
7
  6
CONTINUOUS
 10
145.9318569517
 20
84.9772760543
 11
145.9523630683
 21
84.9720552238
  0
LINE
  5
27C
100
AcDbEntity
  8
0
100
AcDbLine
 62
7
  6
CONTINUOUS
 10
145.9126173697
 20
84.9832705305
 11
145.9329338149
 21
84.9772619667
  0
LINE
  5
27D
100
AcDbEntity
  8
0
100
AcDbLine
 62
7
  6
CONTINUOUS
 10
145.9137157603
 20
84.9832521354
 11
145.8936788126
 21
84.9900146815
  0
LINE
  5
27E
100
AcDbEntity
  8
0
100
AcDbLine
 62
7
  6
CONTINUOUS
 10
145.8947985031
 20
84.9899915166
 11
145.8750582983
 21
84.9975012029
  0
LINE
  5
27F
100
AcDbEntity
  8
0
100
AcDbLine
 62
7
  6
CONTINUOUS
 10
145.8761991603
 20
84.9974727106
 11
145.8567388091
 21
85.0057373991
  0
LWPOLYLINE
  5
280
100
AcDbEntity
  8
0
100
AcDbPolyline
 62
7
  6
CONTINUOUS
 90
29
 70
0
 10
145.8579006149
 20
85.0057031172
 10
145.8399411151
 20
85.014670722
 10
145.822290322
 20
85.0243951312
 10
145.8049785744
 20
85.0348567387
 10
145.7881351374
 20
85.0459847126
 10
145.7717711854
 20
85.0577839149
 10
145.7558755438
 20
85.0702494836
 10
145.7405439539
 20
85.0832960008
 10
145.725803304
 20
85.0968999086
 10
145.7116267057
 20
85.111084765
 10
145.6980292353
 20
85.1258358256
 10
145.6849875901
 20
85.1411795144
 10
145.6725250727
 20
85.1570894074
 10
145.6607266675
 20
85.1734714887
 10
145.6495966434
 20
85.1903376885
 10
145.6391307315
 20
85.2076760767
 10
145.629401109
 20
85.2253568464
 10
145.6204273453
 20
85.2433503142
 10
145.6121898711
 20
85.2616861637
 10
145.6047021565
 20
85.2803236384
 10
145.5979573725
 20
85.2992786343
 10
145.591962348
 20
85.3185352556
 10
145.5867510395
 20
85.3380050582
 10
145.5823266486
 20
85.3577083692
 10
145.5786859737
 20
85.3776248616
 10
145.5758533663
 20
85.3976051106
 10
145.5738369434
 20
85.4175993082
 10
145.5726285881
 20
85.4376572624
 10
145.5722283002
 20
85.4577789733
  0
LWPOLYLINE
  5
281
100
AcDbEntity
  8
0
100
AcDbPolyline
 62
7
  6
CONTINUOUS
 90
12
 70
0
 10
146.6048481553
 20
131.7325525495
 10
146.6110409888
 20
131.7427126271
 10
146.6177102515
 20
131.7525665263
 10
146.6248408363
 20
131.762091925
 10
146.6324165881
 20
131.7712672402
 10
146.6404203465
 20
131.7800716873
 10
146.6488339809
 20
131.7884853217
 10
146.6576384279
 20
131.7964890801
 10
146.6668137431
 20
131.8040648319
 10
146.6763391419
 20
131.8111954167
 10
146.6861930411
 20
131.8178646793
 10
146.6963531187
 20
131.8240575128
  0
LINE
  5
282
100
AcDbEntity
  8
0
100
AcDbLine
 62
253
  6
CONTINUOUS
 10
149.208261199
 20
131.8444515425
 11
149.2213597778
 21
131.8575501212
  0
LINE
  5
283
100
AcDbEntity
  8
0
100
AcDbLine
 62
253
  6
CONTINUOUS
 10
149.4582569683
 20
131.5944557733
 11
149.471355547
 21
131.607554352
  0
LWPOLYLINE
  5
284
100
AcDbEntity
  8
RACCORDO
100
AcDbPolyline
 62
253
  6
CONTINUOUS
 90
13
 70
0
 10
167.0640714134
 20
85.0226484855
 10
167.0379713452
 20
85.0209324884
 10
167.0123177524
 20
85.0158297353
 10
166.9875494086
 20
85.0074275267
 10
166.9640899436
 20
84.9958695967
 10
166.9423405908
 20
84.9813536505
 10
166.9226733267
 20
84.964127979
 10
166.9054245217
 20
84.9444872221
 10
166.8908891746
 20
84.9227673192
 10
166.8793158678
 20
84.899339754
 10
166.8709025308
 20
84.8746052207
 10
166.8657930491
 20
84.848986774
 10
166.8640747981
 20
84.8229225786
  0
LWPOLYLINE
  5
285
100
AcDbEntity
  8
RACCORDO
100
AcDbPolyline
 62
253
  6
CONTINUOUS
 90
13
 70
0
 10
149.6640714134
 20
85.0226484855
 10
149.6379713452
 20
85.0209324884
 10
149.6123177524
 20
85.0158297353
 10
149.5875494086
 20
85.0074275267
 10
149.5640899436
 20
84.9958695967
 10
149.5423405908
 20
84.9813536505
 10
149.5226733267
 20
84.964127979
 10
149.5054245217
 20
84.9444872221
 10
149.4908891746
 20
84.9227673192
 10
149.4793158678
 20
84.899339754
 10
149.4709025308
 20
84.8746052207
 10
149.4657930491
 20
84.848986774
 10
149.4640747981
 20
84.8229225786
  0
LINE
  5
286
100
AcDbEntity
  8
0
100
AcDbLine
 62
7
  6
CONTINUOUS
 10
167.3911910451
 20
84.9579493555
 11
167.4118064155
 21
84.9591569742
  0
LINE
  5
287
100
AcDbEntity
  8
0
100
AcDbLine
 62
7
  6
CONTINUOUS
 10
167.3911910451
 20
84.9579493555
 11
167.3713308155
 21
84.9575501212
  0
LWPOLYLINE
  5
288
100
AcDbEntity
  8
0
100
AcDbPolyline
 62
7
  6
CONTINUOUS
 90
46
 70
0
 10
146.8286320651
 20
84.2349003904
 10
146.8191103548
 20
84.2347602502
 10
146.8096167749
 20
84.2344150416
 10
146.800164967
 20
84.2338647647
 10
146.7907558193
 20
84.2331046732
 10
146.7814153819
 20
84.2321395133
 10
146.7721940282
 20
84.2309835236
 10
146.7631166522
 20
84.2296362828
 10
146.7541812947
 20
84.2280982122
 10
146.7453965744
 20
84.2263848143
 10
146.7367728325
 20
84.2244958194
 10
146.7283197607
 20
84.2224314972
 10
146.7200443791
 20
84.22020816
 10
146.7119555384
 20
84.2178256624
 10
146.7040614679
 20
84.2152841497
 10
146.6963677174
 20
84.2126003698
 10
146.6888817237
 20
84.2097742785
 10
146.6816103464
 20
84.20680592
 10
146.6745578267
 20
84.2037121751
 10
146.6677302673
 20
84.2004930681
 10
146.6611332781
 20
84.1971485746
 10
146.6547700093
 20
84.1936955027
 10
146.6486453355
 20
84.1901339206
 10
146.6427637136
 20
84.1864637601
 10
146.6371273943
 20
84.1827016242
 10
146.6317401268
 20
84.1788476079
 10
146.6266053027
 20
84.1749016163
 10
146.6217244216
 20
84.170879968
 10
146.6171002012
 20
84.1667827738
 10
146.6127350437
 20
84.1626099229
 10
146.6086298001
 20
84.1583774012
 10
146.6047862374
 20
84.1540853312
 10
146.601205834
 20
84.1497335904
 10
146.5978888518
 20
84.1453377964
 10
146.5948361751
 20
84.1408980838
 10
146.592048415
 20
84.136414318
 10
146.5895252708
 20
84.1319017128
 10
146.587266803
 20
84.1273604195
 10
146.585272804
 20
84.1227902867
 10
146.5835424141
 20
84.1182060744
 10
146.5820749204
 20
84.1136079553
 10
146.5808693447
 20
84.1089957566
 10
146.5799242659
 20
84.1043837199
 10
146.5792382175
 20
84.0997765923
 10
146.5788095519
 20
84.0951696267
 10
146.5786362959
 20
84.0905628231
  0
LWPOLYLINE
  5
289
100
AcDbEntity
  8
RACCORDO
100
AcDbPolyline
 62
253
  6
CONTINUOUS
 90
15
 70
0
 10
164.1803136096
 20
85.0459467218
 10
164.1336774223
 20
85.0455571401
 10
164.0887235032
 20
85.0449260387
 10
164.0450392563
 20
85.0440397363
 10
164.0030372775
 20
85.0429119141
 10
163.963955355
 20
85.0415836155
 10
163.9278999391
 20
85.0400519056
 10
163.8947645794
 20
85.0383197193
 10
163.8654677123
 20
85.0364369051
 10
163.8400744482
 20
85.0343988959
 10
163.8185196768
 20
85.0322102587
 10
163.8015265038
 20
85.0299345441
 10
163.7893359643
 20
85.0275929354
 10
163.7817070232
 20
85.0251642492
 10
163.7786396805
 20
85.0226484855
  0
LWPOLYLINE
  5
28A
100
AcDbEntity
  8
RACCORDO
100
AcDbPolyline
 62
253
  6
CONTINUOUS
 90
15
 70
0
 10
146.7803136096
 20
85.0459467218
 10
146.7336774223
 20
85.0455571401
 10
146.6887235032
 20
85.0449260387
 10
146.6450392563
 20
85.0440397363
 10
146.6030372775
 20
85.0429119141
 10
146.563955355
 20
85.0415836155
 10
146.5278999391
 20
85.0400519056
 10
146.4947645794
 20
85.0383197193
 10
146.4654677123
 20
85.0364369051
 10
146.4400744482
 20
85.0343988959
 10
146.4185196768
 20
85.0322102587
 10
146.4015265038
 20
85.0299345441
 10
146.3893359643
 20
85.0275929354
 10
146.3817070232
 20
85.0251642492
 10
146.3786396805
 20
85.0226484855
  0
LWPOLYLINE
  5
28B
100
AcDbEntity
  8
RACCORDO
100
AcDbPolyline
 62
253
  6
CONTINUOUS
 90
16
 70
0
 10
164.2286320651
 20
84.8463688768
 10
164.2022826673
 20
84.8462219124
 10
164.176313398
 20
84.845833372
 10
164.1510072276
 20
84.8452032556
 10
164.126643839
 20
84.8443178843
 10
164.1034696761
 20
84.843190937
 10
164.0816999943
 20
84.84186345
 10
164.061575741
 20
84.8403326401
 10
164.0432820496
 20
84.8386012904
 10
164.0269452747
 20
84.8367187871
 10
164.0127412716
 20
84.8346803231
 10
164.0008410957
 20
84.8324907055
 10
163.9913661472
 20
84.8302137415
 10
163.9844404121
 20
84.8278707002
 10
163.9801725992
 20
84.8254403126
 10
163.9786362959
 20
84.8229225786
  0
LWPOLYLINE
  5
28C
100
AcDbEntity
  8
RACCORDO
100
AcDbPolyline
 62
253
  6
CONTINUOUS
 90
16
 70
0
 10
146.8286320651
 20
84.8463688768
 10
146.8022826673
 20
84.8462219124
 10
146.776313398
 20
84.845833372
 10
146.7510072276
 20
84.8452032556
 10
146.726643839
 20
84.8443178843
 10
146.7034696761
 20
84.843190937
 10
146.6816999943
 20
84.84186345
 10
146.661575741
 20
84.8403326401
 10
146.6432820496
 20
84.8386012904
 10
146.6269452747
 20
84.8367187871
 10
146.6127412716
 20
84.8346803231
 10
146.6008410957
 20
84.8324907055
 10
146.5913661472
 20
84.8302137415
 10
146.5844404121
 20
84.8278707002
 10
146.5801725992
 20
84.8254403126
 10
146.5786362959
 20
84.8229225786
  0
LINE
  5
28D
100
AcDbEntity
  8
0
100
AcDbLine
 62
7
  6
CONTINUOUS
 10
166.6140790289
 20
84.2349003904
 11
164.2286320651
 21
84.2349003904
  0
LINE
  5
28E
100
AcDbEntity
  8
0
100
AcDbLine
 62
7
  6
CONTINUOUS
 10
146.8286320651
 20
84.2349003904
 11
149.2140790289
 21
84.2349003904
  0
LINE
  5
28F
100
AcDbEntity
  8
RACCORDO
100
AcDbLine
 62
253
  6
CONTINUOUS
 10
166.6140790289
 20
84.8463688768
 11
164.2286320651
 21
84.8463688768
  0
LINE
  5
290
100
AcDbEntity
  8
RACCORDO
100
AcDbLine
 62
253
  6
CONTINUOUS
 10
149.2140790289
 20
84.8463688768
 11
146.8286320651
 21
84.8463688768
  0
LINE
  5
291
100
AcDbEntity
  8
RACCORDO
100
AcDbLine
 62
7
  6
CONTINUOUS
 10
167.3708633935
 20
84.9575501212
 11
167.0712980353
 21
84.9575501212
  0
LINE
  5
292
100
AcDbEntity
  8
RACCORDO
100
AcDbLine
 62
7
  6
CONTINUOUS
 10
163.7714130586
 20
84.9575501212
 11
161.171355547
 21
84.9575501212
  0
LINE
  5
293
100
AcDbEntity
  8
RACCORDO
100
AcDbLine
 62
7
  6
CONTINUOUS
 10
152.271355547
 20
84.9575501212
 11
149.6712980353
 21
84.9575501212
  0
LINE
  5
294
100
AcDbEntity
  8
RACCORDO
100
AcDbLine
 62
7
  6
CONTINUOUS
 10
146.3714130586
 20
84.9575501212
 11
146.0718477005
 21
84.9575501212
  0
LINE
  5
295
100
AcDbEntity
  8
0
100
AcDbLine
 62
7
  6
CONTINUOUS
 10
155.721355547
 20
84.9575501212
 11
157.721355547
 21
84.9575501212
  0
LINE
  5
296
100
AcDbEntity
  8
0
100
AcDbLine
 62
7
  6
CONTINUOUS
 10
160.221355547
 20
84.9837540108
 11
157.921355547
 21
84.9837540108
  0
LINE
  5
297
100
AcDbEntity
  8
0
100
AcDbLine
 62
7
  6
CONTINUOUS
 10
155.521355547
 20
84.9837540108
 11
153.221355547
 21
84.9837540108
  0
LINE
  5
298
100
AcDbEntity
  8
0
100
AcDbLine
 62
7
  6
CONTINUOUS
 10
152.2800822917
 20
85.0361617901
 11
153.221355547
 21
85.0361617901
  0
LINE
  5
299
100
AcDbEntity
  8
0
100
AcDbLine
 62
7
  6
CONTINUOUS
 10
160.221355547
 20
85.0361617901
 11
161.1626288023
 21
85.0361617901
  0
LINE
  5
29A
100
AcDbEntity
  8
RACCORDO
100
AcDbLine
 62
253
  6
CONTINUOUS
 10
166.6140790289
 20
85.0460947837
 11
164.1803136096
 21
85.0459467218
  0
LINE
  5
29B
100
AcDbEntity
  8
RACCORDO
100
AcDbLine
 62
253
  6
CONTINUOUS
 10
149.2140790289
 20
85.0460947837
 11
146.7803136096
 21
85.0459467218
  0
LINE
  5
29C
100
AcDbEntity
  8
0
100
AcDbLine
 62
253
  6
CONTINUOUS
 10
167.2576980695
 20
85.2973221785
 11
146.1850130245
 21
85.2973221785
  0
LWPOLYLINE
  5
29D
100
AcDbEntity
  8
0
100
AcDbPolyline
 62
7
  6
CONTINUOUS
 90
3
 70
0
 10
146.0309046785
 20
84.9591569742
 10
146.0510860562
 20
84.9579495944
 10
146.0713802786
 20
84.9575501212
  0
LWPOLYLINE
  5
29E
100
AcDbEntity
  8
RACCORDO
100
AcDbPolyline
 62
253
  6
CONTINUOUS
 90
13
 70
0
 10
146.3786396805
 20
85.0226484855
 10
146.4047394473
 20
85.0209325281
 10
146.4303928126
 20
85.0158298769
 10
146.4551610103
 20
85.0074278061
 10
146.4786204137
 20
84.9958700216
 10
146.5003697811
 20
84.9813542039
 10
146.520037119
 20
84.9641286264
 10
146.537286044
 20
84.9444879095
 10
146.5518215365
 20
84.9227679813
 10
146.5633949863
 20
84.8993403318
 10
146.5718084454
 20
84.8746056595
 10
146.5769180126
 20
84.8489870176
 10
146.5786362959
 20
84.8229225786
  0
LWPOLYLINE
  5
29F
100
AcDbEntity
  8
RACCORDO
100
AcDbPolyline
 62
253
  6
CONTINUOUS
 90
13
 70
0
 10
163.7786396805
 20
85.0226484855
 10
163.8047394473
 20
85.0209325281
 10
163.8303928126
 20
85.0158298769
 10
163.8551610103
 20
85.0074278061
 10
163.8786204137
 20
84.9958700216
 10
163.9003697811
 20
84.9813542039
 10
163.920037119
 20
84.9641286264
 10
163.937286044
 20
84.9444879095
 10
163.9518215365
 20
84.9227679813
 10
163.9633949863
 20
84.8993403318
 10
163.9718084454
 20
84.8746056595
 10
163.9769180126
 20
84.8489870176
 10
163.9786362959
 20
84.8229225786
  0
LWPOLYLINE
  5
2A0
100
AcDbEntity
  8
0
100
AcDbPolyline
 62
7
  6
CONTINUOUS
 90
9
 70
0
 10
164.1857731808
 20
82.860094647
 10
164.1740392595
 20
82.8620677535
 10
164.1624125082
 20
82.8645969395
 10
164.150919268
 20
82.8676764795
 10
164.1395855732
 20
82.8712993998
 10
164.1284370977
 20
82.8754574954
 10
164.1174991007
 20
82.880141349
 10
164.1067963594
 20
82.8853403524
 10
164.0963531187
 20
82.8910427295
  0
LWPOLYLINE
  5
2A1
100
AcDbEntity
  8
RACCORDO
100
AcDbPolyline
 62
253
  6
CONTINUOUS
 90
16
 70
0
 10
149.6640714134
 20
85.0226484855
 10
149.6610040759
 20
85.0251642493
 10
149.6533751378
 20
85.0275929356
 10
149.6411845992
 20
85.0299345443
 10
149.6241914239
 20
85.0322102588
 10
149.6026366481
 20
85.0343988959
 10
149.5772433806
 20
85.0364369051
 10
149.5479465124
 20
85.0383197192
 10
149.5148111526
 20
85.0400519054
 10
149.4787557371
 20
85.0415836154
 10
149.4396738154
 20
85.042911914
 10
149.3976718381
 20
85.0440397364
 10
149.3539875921
 20
85.0449260389
 10
149.309033673
 20
85.0455571404
 10
149.2623974853
 20
85.045946722
 10
149.2140790289
 20
85.0460947837
  0
LINE
  5
2A2
100
AcDbEntity
  8
0
100
AcDbLine
 62
253
  6
CONTINUOUS
 10
149.208261199
 20
82.8706486999
 11
149.2213597778
 21
82.8575501212
  0
LINE
  5
2A3
100
AcDbEntity
  8
0
100
AcDbLine
 62
253
  6
CONTINUOUS
 10
149.4582569683
 20
83.1206444691
 11
149.471355547
 21
83.1075458904
  0
LINE
  5
2A4
100
AcDbEntity
  8
0
100
AcDbLine
 62
253
  6
CONTINUOUS
 10
167.2495248812
 20
86.1468326301
 11
146.1931862128
 21
86.1468326301
  0
LWPOLYLINE
  5
2A5
100
AcDbEntity
  8
0
100
AcDbPolyline
 62
7
  6
CONTINUOUS
 90
12
 70
0
 10
146.6048481553
 20
82.9825476929
 10
146.5991457781
 20
82.9929909336
 10
146.5939467748
 20
83.0036936749
 10
146.5892629212
 20
83.0146316719
 10
146.5851048256
 20
83.0257801474
 10
146.5814819053
 20
83.0371138422
 10
146.5784023653
 20
83.0486070824
 10
146.5758731793
 20
83.0602338337
 10
146.5739000728
 20
83.071967755
 10
146.5724875127
 20
83.0837822656
 10
146.5716386972
 20
83.0956506052
 10
146.571355547
 20
83.1075458904
  0
LWPOLYLINE
  5
2A6
100
AcDbEntity
  8
0
100
AcDbPolyline
 62
7
  6
CONTINUOUS
 90
12
 70
0
 10
164.0963531187
 20
131.8240575128
 10
164.1067963594
 20
131.82975989
 10
164.1174991007
 20
131.8349588934
 10
164.1284370977
 20
131.839642747
 10
164.1395855732
 20
131.8438008425
 10
164.150919268
 20
131.8474237629
 10
164.1624125082
 20
131.8505033029
 10
164.1740392595
 20
131.8530324889
 10
164.1857731808
 20
131.8550055953
 10
164.1975876914
 20
131.8564181554
 10
164.209456031
 20
131.8572669709
 10
164.2213513162
 20
131.8575501212
  0
LINE
  5
2A7
100
AcDbEntity
  8
0
100
AcDbLine
 62
7
  6
CONTINUOUS
 10
145.5722283002
 20
88.8575501212
 11
145.5709192036
 21
88.8575501212
  0
LINE
  5
2A8
100
AcDbEntity
  8
0
100
AcDbLine
 62
7
  6
CONTINUOUS
 10
167.8704827937
 20
88.8575501212
 11
167.8717918904
 21
88.8575501212
  0
LWPOLYLINE
  5
2A9
100
AcDbEntity
  8
RACCORDO
100
AcDbPolyline
 62
253
  6
CONTINUOUS
 90
16
 70
0
 10
149.4640747981
 20
84.8229225786
 10
149.4625384947
 20
84.8254403128
 10
149.4582706819
 20
84.8278707006
 10
149.4513449467
 20
84.8302137419
 10
149.4418699983
 20
84.8324907059
 10
149.4299698224
 20
84.8346803234
 10
149.4157658192
 20
84.8367187872
 10
149.3994290443
 20
84.8386012901
 10
149.3811353529
 20
84.8403326393
 10
149.3610110996
 20
84.8418634492
 10
149.3392414178
 20
84.8431909367
 10
149.316067255
 20
84.8443178849
 10
149.2917038664
 20
84.8452032567
 10
149.266397696
 20
84.8458333731
 10
149.2404284266
 20
84.8462219131
 10
149.2140790289
 20
84.8463688768
  0
LWPOLYLINE
  5
2AA
100
AcDbEntity
  8
0
100
AcDbPolyline
 62
253
  6
CONTINUOUS
 90
37
 70
0
 10
145.6932623652
 20
128.4937080707
 10
145.6941000342
 20
128.4969250807
 10
145.6958669841
 20
128.5001361008
 10
145.698559925
 20
128.503335152
 10
145.7021738426
 20
128.5065162779
 10
145.7067020081
 20
128.5096735552
 10
145.71213599
 20
128.5128011054
 10
145.7184656704
 20
128.5158931049
 10
145.7256792637
 20
128.5189437966
 10
145.7337633384
 20
128.5219475002
 10
145.7427028422
 20
128.5248986229
 10
145.7524811299
 20
128.5277916697
 10
145.7630799947
 20
128.5306212541
 10
145.7744797019
 20
128.5333821073
 10
145.7866590254
 20
128.5360690887
 10
145.7995952879
 20
128.5386771954
 10
145.8132644024
 20
128.541201571
 10
145.8276409174
 20
128.5436375154
 10
145.8426980643
 20
128.5459804928
 10
145.8584078072
 20
128.5482261407
 10
145.8747408952
 20
128.5503702779
 10
145.8916669165
 20
128.552408912
 10
145.9091543555
 20
128.5543382472
 10
145.9271706511
 20
128.5561546911
 10
145.9456822577
 20
128.5578548616
 10
145.9646547074
 20
128.559435593
 10
145.984052674
 20
128.5608939421
 10
146.0038400394
 20
128.5622271934
 10
146.0239799601
 20
128.5634328647
 10
146.0444349364
 20
128.5645087108
 10
146.0651668819
 20
128.5654527287
 10
146.0861371946
 20
128.5662631606
 10
146.1073068284
 20
128.5669384975
 10
146.1286363663
 20
128.5674774821
 10
146.1500860937
 20
128.5678791106
 10
146.1716160719
 20
128.5681426354
 10
146.1931862128
 20
128.5682675657
  0
LWPOLYLINE
  5
2AB
100
AcDbEntity
  8
0
100
AcDbPolyline
 62
7
  6
CONTINUOUS
 90
12
 70
0
 10
164.0963531187
 20
82.8910427295
 10
164.0861930411
 20
82.8972355631
 10
164.0763391419
 20
82.9039048257
 10
164.0668137431
 20
82.9110354105
 10
164.0576384279
 20
82.9186111623
 10
164.0488339809
 20
82.9266149207
 10
164.0404203465
 20
82.9350285551
 10
164.0324165881
 20
82.9438330021
 10
164.0248408363
 20
82.9530083173
 10
164.0177102515
 20
82.9625337161
 10
164.0110409888
 20
82.9723876153
 10
164.0048481553
 20
82.9825476929
  0
LWPOLYLINE
  5
2AC
100
AcDbEntity
  8
0
100
AcDbPolyline
 62
253
  6
CONTINUOUS
 90
37
 70
0
 10
145.6932623652
 20
86.2213921717
 10
145.6941000276
 20
86.2181751607
 10
145.6958669709
 20
86.2149641397
 10
145.6985599051
 20
86.2117650875
 10
145.7021738161
 20
86.2085839606
 10
145.706701975
 20
86.2054266821
 10
145.7121359503
 20
86.2022991308
 10
145.7184656243
 20
86.1992071301
 10
145.7256792114
 20
86.1961564371
 10
145.73376328
 20
86.1931527322
 10
145.7427027779
 20
86.1902016081
 10
145.7524810602
 20
86.1873085598
 10
145.7630799199
 20
86.1844789739
 10
145.7744796225
 20
86.1817181191
 10
145.7866589419
 20
86.179031136
 10
145.7995952009
 20
86.1764230277
 10
145.8132643124
 20
86.1738986503
 10
145.8276408252
 20
86.1714627042
 10
145.8426979706
 20
86.169119725
 10
145.8584077127
 20
86.1668740753
 10
145.8747408007
 20
86.1647299363
 10
145.8916668228
 20
86.1626913005
 10
145.9091542634
 20
86.1607619636
 10
145.9271705615
 20
86.158945518
 10
145.9456821714
 20
86.1572453458
 10
145.9646546251
 20
86.1556646129
 10
145.9840525966
 20
86.1542062623
 10
146.0038399675
 20
86.1528730095
 10
146.0239798944
 20
86.1516673369
 10
146.0444348776
 20
86.1505914896
 10
146.0651668305
 20
86.1496474707
 10
146.086137151
 20
86.1488370378
 10
146.1073067931
 20
86.1481617001
 10
146.1286363396
 20
86.1476227149
 10
146.1500860758
 20
86.1472210859
 10
146.1716160628
 20
86.1469575608
 10
146.1931862128
 20
86.1468326303
  0
LWPOLYLINE
  5
2AD
100
AcDbEntity
  8
0
100
AcDbPolyline
 62
7
  6
CONTINUOUS
 90
9
 70
0
 10
146.5739000728
 20
131.6431324873
 10
146.5758731793
 20
131.6548664087
 10
146.5784023653
 20
131.66649316
 10
146.5814819053
 20
131.6779864002
 10
146.5851048256
 20
131.689320095
 10
146.5892629212
 20
131.7004685705
 10
146.5939467748
 20
131.7114065675
 10
146.5991457781
 20
131.7221093088
 10
146.6048481553
 20
131.7325525495
  0
LINE
  5
2AE
100
AcDbEntity
  8
0
100
AcDbLine
 62
7
  6
CONTINUOUS
 10
145.5373181704
 20
89.2102040826
 11
145.571355547
 21
88.8663664702
  0
LINE
  5
2AF
100
AcDbEntity
  8
0
100
AcDbLine
 62
7
  6
CONTINUOUS
 10
145.5373181704
 20
125.5048961598
 11
145.571355547
 21
125.8487337721
  0
LINE
  5
2B0
100
AcDbEntity
  8
0
100
AcDbLine
 62
7
  6
CONTINUOUS
 10
161.171355547
 20
131.3575501212
 11
161.1626288023
 21
131.3488233765
  0
LWPOLYLINE
  5
2B1
100
AcDbEntity
  8
0
100
AcDbPolyline
 62
253
  6
CONTINUOUS
 90
10
 70
0
 10
145.7104472497
 20
116.8480501212
 10
145.7112888929
 20
116.8484599672
 10
145.71305958
 20
116.8488690503
 10
145.7157560147
 20
116.8492766089
 10
145.7193731777
 20
116.8496818845
 10
145.7239043356
 20
116.8500841225
 10
145.7293410537
 20
116.8504825741
 10
145.7356732114
 20
116.8508764978
 10
145.7428890214
 20
116.8512651602
 10
145.7509750515
 20
116.8516478377
  0
LWPOLYLINE
  5
2B2
100
AcDbEntity
  8
0
100
AcDbPolyline
 62
253
  6
CONTINUOUS
 90
11
 70
0
 10
145.7104472497
 20
97.8670501212
 10
145.7112888929
 20
97.8666402752
 10
145.7130595798
 20
97.8662311921
 10
145.7157560145
 20
97.8658236334
 10
145.7193731775
 20
97.8654183579
 10
145.7239043353
 20
97.8650161199
 10
145.7293410534
 20
97.8646176682
 10
145.735673211
 20
97.8642237445
 10
145.742889021
 20
97.8638350822
 10
145.7509750511
 20
97.8634524046
 10
145.7696959708
 20
97.8627078409
  0
LINE
  5
2B3
100
AcDbEntity
  8
0
100
AcDbLine
 62
7
  6
CONTINUOUS
 10
161.171355547
 20
83.3575501212
 11
161.1626288023
 21
83.3662768659
  0
LINE
  5
2B4
100
AcDbEntity
  8
0
100
AcDbLine
 62
253
  6
CONTINUOUS
 10
145.6886321345
 20
128.8635494645
 11
145.6881186319
 21
128.8775248778
  0
LINE
  5
2B5
100
AcDbEntity
  8
0
100
AcDbLine
 62
253
  6
CONTINUOUS
 10
145.6891289308
 20
128.8476802907
 11
145.6886321345
 21
128.8635494645
  0
LINE
  5
2B6
100
AcDbEntity
  8
0
100
AcDbLine
 62
253
  6
CONTINUOUS
 10
145.689837544
 20
128.8204909184
 11
145.6891289308
 21
128.8476802907
  0
LWPOLYLINE
  5
2B7
100
AcDbEntity
  8
0
100
AcDbPolyline
 62
253
  6
CONTINUOUS
 90
40
 70
0
 10
145.6850891769
 20
85.7966369459
 10
145.6855125203
 20
85.7765432471
 10
145.6867451133
 20
85.7564821022
 10
145.688784959
 20
85.7364860126
 10
145.6916287525
 20
85.7165873745
 10
145.6952718866
 20
85.6968184258
 10
145.6997084591
 20
85.6772111948
 10
145.7049312822
 20
85.6577974473
 10
145.7109318943
 20
85.6386086359
 10
145.7177005737
 20
85.6196758488
 10
145.7252263545
 20
85.6010297594
 10
145.733497044
 20
85.5827005765
 10
145.7424992426
 20
85.5647179955
 10
145.7522183659
 20
85.5471111505
 10
145.7626386677
 20
85.5299085665
 10
145.7737432659
 20
85.5131381137
 10
145.7855141698
 20
85.4968269624
 10
145.7979323091
 20
85.4810015386
 10
145.810977565
 20
85.4656874812
 10
145.8246288026
 20
85.4509096009
 10
145.8388639054
 20
85.4366918396
 10
145.8536598107
 20
85.4230572319
 10
145.8689925476
 20
85.4100278673
 10
145.8848372752
 20
85.3976248551
 10
145.9011683231
 20
85.3858682895
 10
145.9179592331
 20
85.3747772177
 10
145.9351828019
 20
85.3643696084
 10
145.9528111254
 20
85.3546623234
 10
145.9708156436
 20
85.3456710894
 10
145.989167187
 20
85.3374104735
 10
146.007836024
 20
85.3298938588
 10
146.0267919087
 20
85.3231334232
 10
146.0460041306
 20
85.3171401193
 10
146.0654415633
 20
85.311923657
 10
146.0850727161
 20
85.3074924876
 10
146.1048657842
 20
85.3038537903
 10
146.1247887003
 20
85.30101346
 10
146.144809187
 20
85.2989760984
 10
146.1648948088
 20
85.2977450065
 10
146.1850130245
 20
85.2973221785
  0
LWPOLYLINE
  5
2B8
100
AcDbEntity
  8
0
100
AcDbPolyline
 62
7
  6
CONTINUOUS
 90
29
 70
0
 10
145.5709192036
 20
85.4575331982
 10
145.5713187747
 20
85.4374482019
 10
145.5725259771
 20
85.4174247313
 10
145.5745408108
 20
85.3974627865
 10
145.5773712277
 20
85.3775126009
 10
145.5810092759
 20
85.357623941
 10
145.5854311
 20
85.3379461062
 10
145.5906399531
 20
85.3184992823
 10
145.5966325822
 20
85.2992632835
 10
145.6033753724
 20
85.2803268519
 10
145.6108614382
 20
85.2617060181
 10
145.6190976652
 20
85.2433847516
 10
145.6280710959
 20
85.2254037026
 10
145.6378013271
 20
85.2077330916
 10
145.6482687619
 20
85.1904026982
 10
145.659401652
 20
85.1735425117
 10
145.671204395
 20
85.1571643144
 10
145.6836725932
 20
85.1412563241
 10
145.6967213059
 20
85.125913183
 10
145.7103272415
 20
85.1111613592
 10
145.7245136915
 20
85.0969743847
 10
145.7392655889
 20
85.0833674989
 10
145.7546098374
 20
85.0703171758
 10
145.7705195333
 20
85.0578469415
 10
145.7868988988
 20
85.0460426128
 10
145.8037592594
 20
85.0349090032
 10
145.8210892896
 20
85.0244412992
 10
145.8387592355
 20
85.0147108774
 10
145.8567388091
 20
85.0057373991
  0
LINE
  5
2B9
100
AcDbEntity
  8
0
100
AcDbLine
 62
253
  6
CONTINUOUS
 10
145.6907038567
 20
128.7783302631
 11
145.689837544
 21
128.8204909184
  0
LINE
  5
2BA
100
AcDbEntity
  8
0
100
AcDbLine
 62
253
  6
CONTINUOUS
 10
145.6916405222
 20
128.7171456581
 11
145.6907038567
 21
128.7783302631
  0
LINE
  5
2BB
100
AcDbEntity
  8
0
100
AcDbLine
 62
253
  6
CONTINUOUS
 10
146.1899865686
 20
129.2019946804
 11
146.1888063818
 21
129.2925655542
  0
LINE
  5
2BC
100
AcDbEntity
  8
0
100
AcDbLine
 62
253
  6
CONTINUOUS
 10
146.5844541257
 20
83.5132125539
 11
146.5786362959
 21
84.0905628231
  0
LINE
  5
2BD
100
AcDbEntity
  8
0
100
AcDbLine
 62
253
  6
CONTINUOUS
 10
145.6925175528
 20
128.6334647889
 11
145.6916405222
 21
128.7171456581
  0
LINE
  5
2BE
100
AcDbEntity
  8
0
100
AcDbLine
 62
253
  6
CONTINUOUS
 10
146.1915643481
 20
129.0151494204
 11
146.1899865686
 21
129.2019946804
  0
LINE
  5
2BF
100
AcDbEntity
  8
0
100
AcDbLine
 62
253
  6
CONTINUOUS
 10
145.6931591713
 20
128.5257755877
 11
145.6925175528
 21
128.6334647889
  0
LINE
  5
2C0
100
AcDbEntity
  8
0
100
AcDbLine
 62
253
  6
CONTINUOUS
 10
145.6988225347
 20
126.1764657397
 11
145.6931591713
 21
128.5257755877
  0
LINE
  5
2C1
100
AcDbEntity
  8
0
100
AcDbLine
 62
253
  6
CONTINUOUS
 10
146.1930830256
 20
128.6323541104
 11
146.1915643481
 21
129.0151494204
  0
LINE
  5
2C2
100
AcDbEntity
  8
0
100
AcDbLine
 62
253
  6
CONTINUOUS
 10
146.2003645904
 20
125.4595823053
 11
146.1931862128
 21
128.5682676123
  0
LINE
  5
2C3
100
AcDbEntity
  8
0
100
AcDbLine
 62
253
  6
CONTINUOUS
 10
145.7045883554
 20
123.0753773978
 11
145.6988225347
 21
126.1764657397
  0
LINE
  5
2C4
100
AcDbEntity
  8
0
100
AcDbLine
 62
253
  6
CONTINUOUS
 10
146.1931862128
 20
128.5682676123
 11
146.1930830256
 21
128.6323541104
  0
LINE
  5
2C5
100
AcDbEntity
  8
0
100
AcDbLine
 62
253
  6
CONTINUOUS
 10
146.2056587338
 20
122.3383778976
 11
146.2003645904
 21
125.4595823053
  0
LINE
  5
2C6
100
AcDbEntity
  8
0
100
AcDbLine
 62
253
  6
CONTINUOUS
 10
145.7076731468
 20
120.7430236605
 11
145.7045883554
 21
123.0753773978
  0
LINE
  5
2C7
100
AcDbEntity
  8
0
100
AcDbLine
 62
253
  6
CONTINUOUS
 10
146.2090620178
 20
119.2084439538
 11
146.2056587338
 21
122.3383778976
  0
LINE
  5
2C8
100
AcDbEntity
  8
0
100
AcDbLine
 62
253
  6
CONTINUOUS
 10
145.7101293281
 20
117.6276328573
 11
145.7076731468
 21
120.7430236605
  0
LINE
  5
2C9
100
AcDbEntity
  8
0
100
AcDbLine
 62
253
  6
CONTINUOUS
 10
146.2103710973
 20
116.8575501212
 11
146.2090620178
 21
119.2084439538
  0
LINE
  5
2CA
100
AcDbEntity
  8
0
100
AcDbLine
 62
7
  6
CONTINUOUS
 10
145.5373181704
 20
89.2102040826
 11
145.5373181704
 21
125.5048961598
  0
LINE
  5
2CB
100
AcDbEntity
  8
0
100
AcDbLine
 62
7
  6
CONTINUOUS
 10
145.5709192036
 20
129.2575670442
 11
145.5709192036
 21
125.8575501212
  0
LINE
  5
2CC
100
AcDbEntity
  8
0
100
AcDbLine
 62
7
  6
CONTINUOUS
 10
145.5709192036
 20
85.4575331982
 11
145.5709192036
 21
88.8575501212
  0
LINE
  5
2CD
100
AcDbEntity
  8
0
100
AcDbLine
 62
7
  6
CONTINUOUS
 10
145.5722283002
 20
129.2573212691
 11
145.5722283002
 21
125.8575501212
  0
LINE
  5
2CE
100
AcDbEntity
  8
0
100
AcDbLine
 62
7
  6
CONTINUOUS
 10
145.5722283002
 20
85.4577789733
 11
145.5722283002
 21
88.8575501212
  0
LINE
  5
2CF
100
AcDbEntity
  8
0
100
AcDbLine
 62
253
  6
CONTINUOUS
 10
145.7101293287
 20
97.0874683402
 11
145.7101293281
 21
117.6276328573
  0
LINE
  5
2D0
100
AcDbEntity
  8
0
100
AcDbLine
 62
253
  6
CONTINUOUS
 10
146.2100531745
 20
97.0737097834
 11
146.2103710973
 21
116.8575501212
  0
LINE
  5
2D1
100
AcDbEntity
  8
0
100
AcDbLine
 62
253
  6
CONTINUOUS
 10
145.7076731492
 20
93.9720788208
 11
145.7101293287
 21
97.0874683402
  0
LINE
  5
2D2
100
AcDbEntity
  8
0
100
AcDbLine
 62
253
  6
CONTINUOUS
 10
146.2075969932
 20
93.9408354928
 11
146.2100531745
 21
97.0737097834
  0
LINE
  5
2D3
100
AcDbEntity
  8
0
100
AcDbLine
 62
253
  6
CONTINUOUS
 10
145.7033238329
 20
90.8634179084
 11
145.7076731492
 21
93.9720788208
  0
LINE
  5
2D4
100
AcDbEntity
  8
0
100
AcDbLine
 62
253
  6
CONTINUOUS
 10
146.2032476808
 20
90.8147916455
 11
146.2075969932
 21
93.9408354928
  0
LINE
  5
2D5
100
AcDbEntity
  8
0
100
AcDbLine
 62
253
  6
CONTINUOUS
 10
145.6970868013
 20
87.7653843953
 11
145.7033238329
 21
90.8634179084
  0
LINE
  5
2D6
100
AcDbEntity
  8
0
100
AcDbLine
 62
253
  6
CONTINUOUS
 10
146.197010654
 20
87.6993741607
 11
146.2032476808
 21
90.8147916455
  0
LINE
  5
2D7
100
AcDbEntity
  8
0
100
AcDbLine
 62
253
  6
CONTINUOUS
 10
145.6927446577
 20
86.1115436036
 11
145.6970868013
 21
87.7653843953
  0
LINE
  5
2D8
100
AcDbEntity
  8
0
100
AcDbLine
 62
253
  6
CONTINUOUS
 10
146.1913911863
 20
85.6741036565
 11
146.197010654
 21
87.6993741607
  0
LINE
  5
2D9
100
AcDbEntity
  8
0
100
AcDbLine
 62
253
  6
CONTINUOUS
 10
146.5786362959
 20
130.6245374193
 11
146.5844541257
 21
131.2018876885
  0
LINE
  5
2DA
100
AcDbEntity
  8
0
100
AcDbLine
 62
253
  6
CONTINUOUS
 10
145.691964603
 20
86.0247543802
 11
145.6927446577
 21
86.1115436036
  0
LINE
  5
2DB
100
AcDbEntity
  8
0
100
AcDbLine
 62
253
  6
CONTINUOUS
 10
146.1897611604
 20
85.4932471181
 11
146.1913911863
 21
85.6741036565
  0
LINE
  5
2DC
100
AcDbEntity
  8
0
100
AcDbLine
 62
253
  6
CONTINUOUS
 10
146.1888064032
 20
85.4225345658
 11
146.1897611604
 21
85.4932471181
  0
LINE
  5
2DD
100
AcDbEntity
  8
0
100
AcDbLine
 62
253
  6
CONTINUOUS
 10
145.6910993909
 20
85.9601913841
 11
145.691964603
 21
86.0247543802
  0
LWPOLYLINE
  5
2DE
100
AcDbEntity
  8
0
100
AcDbPolyline
 62
7
  6
CONTINUOUS
 90
29
 70
0
 10
145.5722283002
 20
129.2573212691
 10
145.5726285881
 20
129.27744298
 10
145.5738369434
 20
129.2975009342
 10
145.5758533663
 20
129.3174951317
 10
145.5786859737
 20
129.3374753808
 10
145.5823266486
 20
129.3573918732
 10
145.5867510395
 20
129.3770951841
 10
145.591962348
 20
129.3965649868
 10
145.5979573725
 20
129.415821608
 10
145.6047021564
 20
129.4347766039
 10
145.6121898711
 20
129.4534140787
 10
145.6204273453
 20
129.4717499281
 10
145.629401109
 20
129.4897433959
 10
145.6391307314
 20
129.5074241656
 10
145.6495966434
 20
129.5247625538
 10
145.6607266675
 20
129.5416287536
 10
145.6725250727
 20
129.5580108349
 10
145.68498759
 20
129.5739207279
 10
145.6980292352
 20
129.5892644167
 10
145.7116267056
 20
129.6040154773
 10
145.7258033039
 20
129.6182003337
 10
145.7405439539
 20
129.6318042415
 10
145.7558755437
 20
129.6448507587
 10
145.7717711853
 20
129.6573163274
 10
145.7881351373
 20
129.6691155297
 10
145.8049785743
 20
129.6802435036
 10
145.8222903218
 20
129.6907051111
 10
145.8399411149
 20
129.7004295203
 10
145.8579006147
 20
129.7093971252
  0
LINE
  5
2DF
100
AcDbEntity
  8
0
100
AcDbLine
 62
253
  6
CONTINUOUS
 10
145.690282671
 20
85.9148802189
 11
145.6910993909
 21
85.9601913841
  0
LWPOLYLINE
  5
2E0
100
AcDbEntity
  8
0
100
AcDbPolyline
 62
253
  6
CONTINUOUS
 90
40
 70
0
 10
145.6850899171
 20
128.9184610741
 10
145.6855132633
 20
128.9385547603
 10
145.6867458587
 20
128.958615893
 10
145.6887857065
 20
128.978611971
 10
145.6916295022
 20
128.9985105974
 10
145.6952726384
 20
129.0182795348
 10
145.6997092122
 20
129.0378867572
 10
145.7049320359
 20
129.0573004983
 10
145.7109326479
 20
129.0764893059
 10
145.7177013259
 20
129.0954220941
 10
145.7252271038
 20
129.1140681895
 10
145.7334977891
 20
129.1323973834
 10
145.7424999814
 20
129.1503799826
 10
145.752219096
 20
129.1679868543
 10
145.7626393869
 20
129.1851894724
 10
145.7737439722
 20
129.2019599661
 10
145.7855148609
 20
129.2182711663
 10
145.7979329829
 20
129.2340966459
 10
145.81097822
 20
129.2494107637
 10
145.8246294376
 20
129.2641887086
 10
145.8388645188
 20
129.278406539
 10
145.8536604014
 20
129.2920412191
 10
145.8689931145
 20
129.3050706589
 10
145.884837817
 20
129.3174737496
 10
145.9011688387
 20
129.329230397
 10
145.9179597212
 20
129.340321554
 10
145.9351832614
 20
129.3507292518
 10
145.952811555
 20
129.3604366285
 10
145.9708160421
 20
129.3694279574
 10
145.9891675533
 20
129.3776886715
 10
146.007836357
 20
129.3852053869
 10
146.0267922076
 20
129.3919659259
 10
146.0460043942
 20
129.3979593358
 10
146.0654417911
 20
129.4031759059
 10
146.0850729073
 20
129.407607185
 10
146.104865938
 20
129.4112459941
 10
146.1247888163
 20
129.4140864372
 10
146.1448092648
 20
129.4161239126
 10
146.1648948479
 20
129.4173551196
 10
146.1850130245
 20
129.4177780638
  0
LWPOLYLINE
  5
2E1
100
AcDbEntity
  8
0
100
AcDbPolyline
 62
7
  6
CONTINUOUS
 90
4
 70
0
 10
146.571355547
 20
131.607554352
 10
146.5716386972
 20
131.6194496372
 10
146.5724875127
 20
131.6313179768
 10
146.5739000728
 20
131.6431324873
  0
LWPOLYLINE
  5
2E2
100
AcDbEntity
  8
0
100
AcDbPolyline
 62
7
  6
CONTINUOUS
 90
34
 70
0
 10
146.5844541257
 20
131.5944557733
 10
146.5847376765
 20
131.6063507948
 10
146.5855868814
 20
131.6182188714
 10
146.5869998168
 20
131.6300331194
 10
146.5889732821
 20
131.6417667766
 10
146.5915028069
 20
131.6533932638
 10
146.5945826613
 20
131.6648862444
 10
146.5982058687
 20
131.6762196843
 10
146.6023642217
 20
131.6873679105
 10
146.6070483008
 20
131.6983056699
 10
146.6122474955
 20
131.7090081861
 10
146.6179500283
 20
131.7194512153
 10
146.6241429819
 20
131.7296111019
 10
146.6308123277
 20
131.7394648314
 10
146.6379429582
 20
131.7489900829
 10
146.645518721
 20
131.7581652796
 10
146.6535224552
 20
131.7669696375
 10
146.6619360306
 20
131.7753832129
 10
146.6707403886
 20
131.7833869471
 10
146.6799155852
 20
131.7909627099
 10
146.6894408367
 20
131.7980933405
 10
146.6992945662
 20
131.8047626863
 10
146.7094544528
 20
131.8109556398
 10
146.7198974821
 20
131.8166581727
 10
146.7305999982
 20
131.8218573674
 10
146.7415377577
 20
131.8265414464
 10
146.7526859839
 20
131.8306997995
 10
146.7640194237
 20
131.8343230069
 10
146.7755124043
 20
131.8374028613
 10
146.7871388916
 20
131.839932386
 10
146.7988725488
 20
131.8419058513
 10
146.8106867967
 20
131.8433187867
 10
146.8225548734
 20
131.8441679917
 10
146.8344498949
 20
131.8444515425
  0
LINE
  5
2E3
100
AcDbEntity
  8
0
100
AcDbLine
 62
253
  6
CONTINUOUS
 10
145.6896063232
 20
85.8850992708
 11
145.690282671
 21
85.9148802189
  0
LINE
  5
2E4
100
AcDbEntity
  8
0
100
AcDbLine
 62
253
  6
CONTINUOUS
 10
145.6888824553
 20
85.8592431943
 11
145.6896063232
 21
85.8850992708
  0
LWPOLYLINE
  5
2E5
100
AcDbEntity
  8
0
100
AcDbPolyline
 62
253
  6
CONTINUOUS
 90
3
 70
0
 10
145.688117992
 20
85.8375593213
 10
145.6883767955
 20
85.8443068475
 10
145.6888824553
 20
85.8592431943
  0
LINE
  5
2E6
100
AcDbEntity
  8
0
100
AcDbLine
 62
253
  6
CONTINUOUS
 10
166.608261199
 20
131.8444515425
 11
166.6213597778
 21
131.8575501212
  0
LWPOLYLINE
  5
2E7
100
AcDbEntity
  8
RACCORDO
100
AcDbPolyline
 62
253
  6
CONTINUOUS
 90
37
 70
0
 10
156.721355547
 20
95.1329132497
 10
156.6520361087
 20
95.1336760564
 10
156.5818500432
 20
95.1364322641
 10
156.5107973506
 20
95.1411818818
 10
156.4390948294
 20
95.1477777794
 10
156.3665256811
 20
95.1563671232
 10
156.29243951
 20
95.1673913826
 10
156.2166724143
 20
95.1807940029
 10
156.1393882959
 20
95.1966316346
 10
156.0604284652
 20
95.2155155915
 10
155.9797749894
 20
95.2373681796
 10
155.8974458011
 20
95.2622672892
 10
155.8133360095
 20
95.2910576816
 10
155.7273457136
 20
95.3236690589
 10
155.6395748142
 20
95.3601720882
 10
155.5502181232
 20
95.4016231047
 10
155.4591395521
 20
95.4479630693
 10
155.3664751893
 20
95.499251668
 10
155.2728281123
 20
95.5567235256
 10
155.1780176426
 20
95.6203453775
 10
155.0822244587
 20
95.6901515434
 10
154.9865936732
 20
95.7674783156
 10
154.8908806882
 20
95.8523627348
 10
154.7953301016
 20
95.9447693462
 10
154.7018208195
 20
96.0459260525
 10
154.6099469973
 20
96.1562974836
 10
154.5201144796
 20
96.2754211685
 10
154.4354197068
 20
96.4031345285
 10
154.3558131865
 20
96.5400291677
 10
154.281344411
 20
96.6855156262
 10
154.2152582976
 20
96.8376593588
 10
154.1578918594
 20
96.9968870331
 10
154.1089080833
 20
97.1627731823
 10
154.0705408475
 20
97.3321041502
 10
154.0435347781
 20
97.5038084192
 10
154.0271452489
 20
97.6789571506
 10
154.02137226
 20
97.8575501212
  0
LWPOLYLINE
  5
2E8
100
AcDbEntity
  8
RACCORDO
100
AcDbPolyline
 62
253
  6
CONTINUOUS
 90
16
 70
0
 10
167.0640714134
 20
85.0226484855
 10
167.0610040759
 20
85.0251642493
 10
167.0533751378
 20
85.0275929356
 10
167.0411845992
 20
85.0299345443
 10
167.0241914239
 20
85.0322102588
 10
167.0026366481
 20
85.0343988959
 10
166.9772433806
 20
85.0364369051
 10
166.9479465124
 20
85.0383197192
 10
166.9148111526
 20
85.0400519054
 10
166.8787557371
 20
85.0415836154
 10
166.8396738154
 20
85.042911914
 10
166.7976718381
 20
85.0440397364
 10
166.7539875921
 20
85.0449260389
 10
166.709033673
 20
85.0455571404
 10
166.6623974853
 20
85.045946722
 10
166.6140790289
 20
85.0460947837
  0
LINE
  5
2E9
100
AcDbEntity
  8
0
100
AcDbLine
 62
253
  6
CONTINUOUS
 10
166.608261199
 20
82.8706486999
 11
166.6213597778
 21
82.8575501212
  0
LWPOLYLINE
  5
2EA
100
AcDbEntity
  8
0
100
AcDbPolyline
 62
253
  6
CONTINUOUS
 90
10
 70
0
 10
145.687590055
 20
128.8895620896
 10
145.6873210479
 20
128.8948304242
 10
145.6870489018
 20
128.8995996358
 10
145.6867744817
 20
128.9038545472
 10
145.6864977916
 20
128.9075934837
 10
145.6862188274
 20
128.91081812
 10
145.6859384424
 20
128.9135183031
 10
145.6856569209
 20
128.9156906487
 10
145.6853739785
 20
128.9173385411
 10
145.6850896153
 20
128.9184619803
  0
LINE
  5
2EB
100
AcDbEntity
  8
0
100
AcDbLine
 62
253
  6
CONTINUOUS
 10
145.6881186319
 20
128.8775248778
 11
145.687590055
 21
128.8895620896
  0
LWPOLYLINE
  5
2EC
100
AcDbEntity
  8
0
100
AcDbPolyline
 62
7
  6
CONTINUOUS
 90
46
 70
0
 10
146.5786362959
 20
130.6245374193
 10
146.5788085472
 20
130.619958765
 10
146.579234623
 20
130.6153634575
 10
146.5799168406
 20
130.6107586085
 10
146.5808572418
 20
130.6061541376
 10
146.5820576085
 20
130.6015547513
 10
146.5835195474
 20
130.596959948
 10
146.5852443482
 20
130.592377526
 10
146.5872330324
 20
130.5878150686
 10
146.5894865526
 20
130.5832719551
 10
146.5920053829
 20
130.5787563173
 10
146.5947897213
 20
130.574276076
 10
146.5978398567
 20
130.5698304966
 10
146.6011553892
 20
130.565428003
 10
146.6047356387
 20
130.5610768066
 10
146.6085802274
 20
130.556776063
 10
146.6126878355
 20
130.5525344296
 10
146.6170568386
 20
130.5483603762
 10
146.6216861501
 20
130.5442529942
 10
146.626573468
 20
130.5402211235
 10
146.6317161564
 20
130.5362734404
 10
146.6371123556
 20
130.5324090162
 10
146.6427587167
 20
130.5286368079
 10
146.648651513
 20
130.5249656424
 10
146.6547880103
 20
130.5213946219
 10
146.6611637406
 20
130.5179327414
 10
146.6677737997
 20
130.5145889078
 10
146.6746144368
 20
130.511362307
 10
146.6816799863
 20
130.5082618719
 10
146.6889642747
 20
130.5052964998
 10
146.69646236
 20
130.5024655049
 10
146.704167294
 20
130.4997776346
 10
146.7120715471
 20
130.4972416592
 10
146.720168798
 20
130.4948570503
 10
146.7284506998
 20
130.4926322265
 10
146.7369083254
 20
130.4905756717
 10
146.7455339033
 20
130.4886869979
 10
146.7543176388
 20
130.486974117
 10
146.7632491443
 20
130.4854450633
 10
146.7723191196
 20
130.484099582
 10
146.7815030071
 20
130.4829471193
 10
146.7908020353
 20
130.4819919607
 10
146.8002456965
 20
130.4812298722
 10
146.8098356677
 20
130.4806682556
 10
146.8195448882
 20
130.4803215835
 10
146.8293592938
 20
130.480199852
  0
LWPOLYLINE
  5
2ED
100
AcDbEntity
  8
0
100
AcDbPolyline
 62
253
  6
CONTINUOUS
 90
7
 70
0
 10
146.1866976972
 20
129.388578159
 10
146.1864209636
 20
129.3960585823
 10
146.1861419578
 20
129.4025015104
 10
146.1858615885
 20
129.4079001005
 10
146.1855801587
 20
129.412248617
 10
146.1852973655
 20
129.4155424383
 10
146.1850132088
 20
129.4177780638
  0
LWPOLYLINE
  5
2EE
100
AcDbEntity
  8
0
100
AcDbPolyline
 62
253
  6
CONTINUOUS
 90
34
 70
0
 10
146.5844541257
 20
131.2018876885
 10
146.5847707877
 20
131.1916047274
 10
146.5856509819
 20
131.1813449752
 10
146.5870927217
 20
131.1711315885
 10
146.5890927519
 20
131.1609876247
 10
146.5916465588
 20
131.1509359733
 10
146.5947483842
 20
131.1409993046
 10
146.5983912349
 20
131.1312000342
 10
146.6025668878
 20
131.1215602929
 10
146.6072659101
 20
131.1121018598
 10
146.6124776901
 20
131.1028460907
 10
146.6181904678
 20
131.0938138674
 10
146.624391351
 20
131.0850255724
 10
146.6310663446
 20
131.0765010398
 10
146.6382003822
 20
131.0682595109
 10
146.6457773617
 20
131.060319587
 10
146.6537801813
 20
131.052699189
 10
146.6621907784
 20
131.0454155158
 10
146.6709901709
 20
131.0384850062
 10
146.6801584969
 20
131.0319233036
 10
146.6896750643
 20
131.0257452168
 10
146.6995184005
 20
131.0199646865
 10
146.7096663019
 20
131.014594754
 10
146.7200958528
 20
131.0096475477
 10
146.7307834804
 20
131.0051342477
 10
146.7417050403
 20
131.0010650447
 10
146.7528359
 20
130.9974491108
 10
146.7641509636
 20
130.9942945969
 10
146.7756249856
 20
130.9916085607
 10
146.787231783
 20
130.9893971507
 10
146.798944292
 20
130.9876654681
 10
146.8107357689
 20
130.9864173395
 10
146.8225798797
 20
130.9856554255
 10
146.8344498949
 20
130.9853813375
  0
LINE
  5
2EF
100
AcDbEntity
  8
0
100
AcDbLine
 62
253
  6
CONTINUOUS
 10
146.1872443186
 20
129.3705376997
 11
146.1866976972
 21
129.388578159
  0
LINE
  5
2F0
100
AcDbEntity
  8
0
100
AcDbLine
 62
253
  6
CONTINUOUS
 10
146.1877792442
 20
129.3484567791
 11
146.1872443186
 21
129.3705376997
  0
LWPOLYLINE
  5
2F1
100
AcDbEntity
  8
0
100
AcDbPolyline
 62
253
  6
CONTINUOUS
 90
3
 70
0
 10
146.1888063818
 20
129.2925655542
 10
146.188555564
 20
129.3079693358
 10
146.1877792442
 20
129.3484567791
  0
LINE
  5
2F2
100
AcDbEntity
  8
0
100
AcDbLine
 62
253
  6
CONTINUOUS
 10
146.8344498949
 20
83.7297189048
 11
146.8293592938
 21
84.2349003904
  0
LINE
  5
2F3
100
AcDbEntity
  8
RACCORDO
100
AcDbLine
 62
7
  6
CONTINUOUS
 10
146.571355547
 20
130.7680352694
 11
146.571355547
 21
129.9577636115
  0
LINE
  5
2F4
100
AcDbEntity
  8
RACCORDO
100
AcDbLine
 62
7
  6
CONTINUOUS
 10
146.571355547
 20
84.7573366309
 11
146.571355547
 21
83.947064973
  0
LINE
  5
2F5
100
AcDbEntity
  8
0
100
AcDbLine
 62
7
  6
CONTINUOUS
 10
146.571355547
 20
83.1075458904
 11
146.571355547
 21
83.947064973
  0
LINE
  5
2F6
100
AcDbEntity
  8
0
100
AcDbLine
 62
7
  6
CONTINUOUS
 10
146.571355547
 20
130.7680352694
 11
146.571355547
 21
131.607554352
  0
LINE
  5
2F7
100
AcDbEntity
  8
RACCORDO
100
AcDbLine
 62
7
  6
CONTINUOUS
 10
146.5786362959
 20
130.6245374193
 11
146.5786362959
 21
129.8921776638
  0
LINE
  5
2F8
100
AcDbEntity
  8
RACCORDO
100
AcDbLine
 62
7
  6
CONTINUOUS
 10
146.5786362959
 20
84.8229225786
 11
146.5786362959
 21
84.0905628231
  0
LINE
  5
2F9
100
AcDbEntity
  8
0
100
AcDbLine
 62
7
  6
CONTINUOUS
 10
146.5844541257
 20
131.5944557733
 11
146.5844541257
 21
131.2018876885
  0
LINE
  5
2FA
100
AcDbEntity
  8
0
100
AcDbLine
 62
7
  6
CONTINUOUS
 10
146.5844541257
 20
83.5132125539
 11
146.5844541257
 21
83.1206444691
  0
LINE
  5
2FB
100
AcDbEntity
  8
RACCORDO
100
AcDbLine
 62
253
  6
CONTINUOUS
 10
146.8286320651
 20
85.0460947837
 11
146.8286320651
 21
84.2349003904
  0
LINE
  5
2FC
100
AcDbEntity
  8
RACCORDO
100
AcDbLine
 62
253
  6
CONTINUOUS
 10
146.8286320651
 20
129.6690054587
 11
146.8286320651
 21
130.480199852
  0
LINE
  5
2FD
100
AcDbEntity
  8
0
100
AcDbLine
 62
253
  6
CONTINUOUS
 10
146.8344498949
 20
82.8706486999
 11
146.8344498949
 21
83.7297189048
  0
LINE
  5
2FE
100
AcDbEntity
  8
0
100
AcDbLine
 62
253
  6
CONTINUOUS
 10
146.8344498949
 20
130.9853813375
 11
146.8344498949
 21
131.8444515425
  0
LINE
  5
2FF
100
AcDbEntity
  8
0
100
AcDbLine
 62
253
  6
CONTINUOUS
 10
146.8293592938
 20
130.480199852
 11
146.8344498949
 21
130.9853813375
  0
LINE
  5
300
100
AcDbEntity
  8
0
100
AcDbLine
 62
253
  6
CONTINUOUS
 10
146.1880420184
 20
85.3791704489
 11
146.1888064032
 21
85.4225345658
  0
LINE
  5
301
100
AcDbEntity
  8
0
100
AcDbLine
 62
253
  6
CONTINUOUS
 10
146.1875133812
 20
85.3551034821
 11
146.1880420184
 21
85.3791704489
  0
LWPOLYLINE
  5
302
100
AcDbEntity
  8
0
100
AcDbPolyline
 62
253
  6
CONTINUOUS
 90
34
 70
0
 10
146.5844541257
 20
83.5132125539
 10
146.5847707764
 20
83.5234953214
 10
146.5856509382
 20
83.5337548814
 10
146.5870926245
 20
83.5439680785
 10
146.5890925815
 20
83.5541118622
 10
146.5916462955
 20
83.5641633386
 10
146.5947480029
 20
83.5740998221
 10
146.5983907033
 20
83.5838988866
 10
146.6025661754
 20
83.5935384162
 10
146.6072649953
 20
83.6029966551
 10
146.6124765581
 20
83.6122522566
 10
146.6181891016
 20
83.6212843314
 10
146.624389733
 20
83.6300724945
 10
146.6310644577
 20
83.6385969116
 10
146.6381982114
 20
83.6468383437
 10
146.6457748935
 20
83.6547781902
 10
146.653777404
 20
83.6623985314
 10
146.6621876816
 20
83.6696821688
 10
146.6709867448
 20
83.6766126634
 10
146.6801547347
 20
83.6831743736
 10
146.6896709597
 20
83.6893524901
 10
146.6995139422
 20
83.6951330691
 10
146.7096614671
 20
83.7005030642
 10
146.7200906322
 20
83.7054503558
 10
146.7307778993
 20
83.709963778
 10
146.7416991481
 20
83.7140331442
 10
146.7528297298
 20
83.7176492703
 10
146.7641445234
 20
83.7208039948
 10
146.775617992
 20
83.7234901976
 10
146.7872242408
 20
83.7257018163
 10
146.7989370751
 20
83.7274338592
 10
146.8107300597
 20
83.7286824173
 10
146.8225765786
 20
83.7294446726
 10
146.8344498949
 20
83.7297189048
  0
LINE
  5
303
100
AcDbEntity
  8
RACCORDO
100
AcDbLine
 62
253
  6
CONTINUOUS
 10
149.6640714134
 20
129.6924517569
 11
149.6712980353
 21
129.7575501212
  0
LINE
  5
304
100
AcDbEntity
  8
0
100
AcDbLine
 62
253
  6
CONTINUOUS
 10
166.8582569683
 20
131.5944557733
 11
166.871355547
 21
131.607554352
  0
LINE
  5
305
100
AcDbEntity
  8
CONTATTI
100
AcDbLine
 62
7
  6
CONTINUOUS
 10
154.7028849367
 20
97.3271520075
 11
154.5917806562
 21
97.3059605066
  0
LINE
  5
306
100
AcDbEntity
  8
0
100
AcDbLine
 62
253
  6
CONTINUOUS
 10
167.6917360422
 20
97.8634524047
 11
167.6730151224
 21
97.862707841
  0
LINE
  5
307
100
AcDbEntity
  8
0
100
AcDbLine
 62
253
  6
CONTINUOUS
 10
167.6730151224
 20
97.862707841
 11
167.6510144545
 21
97.8619955949
  0
LINE
  5
308
100
AcDbEntity
  8
0
100
AcDbLine
 62
253
  6
CONTINUOUS
 10
167.6510144545
 20
97.8619955949
 11
167.6258977796
 21
97.8613209674
  0
LWPOLYLINE
  5
309
100
AcDbEntity
  8
RACCORDO
100
AcDbPolyline
 62
253
  6
CONTINUOUS
 90
8
 70
0
 10
154.3929376609
 20
97.8593861915
 10
154.4258745406
 20
97.8600430677
 10
154.454379983
 20
97.8607767102
 10
154.4781416926
 20
97.8615790814
 10
154.4968993447
 20
97.862441391
 10
154.5104474373
 20
97.8633541918
 10
154.5186375421
 20
97.8643074835
 10
154.5213799314
 20
97.8652908221
  0
LINE
  5
30A
100
AcDbEntity
  8
0
100
AcDbLine
 62
253
  6
CONTINUOUS
 10
167.6258977796
 20
97.8613209674
 11
167.5827951705
 21
97.8603904586
  0
LINE
  5
30B
100
AcDbEntity
  8
0
100
AcDbLine
 62
253
  6
CONTINUOUS
 10
167.5827951705
 20
97.8603904586
 11
167.5163421653
 21
97.8593255499
  0
LINE
  5
30C
100
AcDbEntity
  8
RACCORDO
100
AcDbLine
 62
253
  6
CONTINUOUS
 10
154.3152575642
 20
97.8583306041
 11
154.3929376609
 21
97.8593861915
  0
LINE
  5
30D
100
AcDbEntity
  8
0
100
AcDbLine
 62
253
  6
CONTINUOUS
 10
167.5163421653
 20
97.8593255499
 11
167.4216646589
 21
97.8583202667
  0
LINE
  5
30E
100
AcDbEntity
  8
RACCORDO
100
AcDbLine
 62
253
  6
CONTINUOUS
 10
154.2247345103
 20
97.85765608
 11
154.3152575642
 21
97.8583306041
  0
LINE
  5
30F
100
AcDbEntity
  8
0
100
AcDbLine
 62
253
  6
CONTINUOUS
 10
167.4216646589
 20
97.8583202667
 11
167.3182091937
 21
97.8577197397
  0
LINE
  5
310
100
AcDbEntity
  8
0
100
AcDbLine
 62
253
  6
CONTINUOUS
 10
167.3182091937
 20
97.8577197397
 11
167.2323399966
 21
97.8575501212
  0
LINE
  5
311
100
AcDbEntity
  8
CONTATTI
100
AcDbLine
 62
253
  6
CONTINUOUS
 10
155.3067537401
 20
98.1575501212
 11
154.5421768822
 21
98.1575495605
  0
LINE
  5
312
100
AcDbEntity
  8
RACCORDO
100
AcDbLine
 62
253
  6
CONTINUOUS
 10
167.2323399966
 20
97.8575501212
 11
159.2668359527
 21
97.8574716345
  0
LINE
  5
313
100
AcDbEntity
  8
RACCORDO
100
AcDbLine
 62
253
  6
CONTINUOUS
 10
146.2103710973
 20
97.8575501212
 11
154.2247345103
 21
97.85765608
  0
LINE
  5
314
100
AcDbEntity
  8
0
100
AcDbLine
 62
253
  6
CONTINUOUS
 10
146.0823667557
 20
97.8579091581
 11
146.2103710973
 21
97.8575501212
  0
LINE
  5
315
100
AcDbEntity
  8
RACCORDO
100
AcDbLine
 62
253
  6
CONTINUOUS
 10
159.2668359527
 20
97.8574716345
 11
159.1713469148
 21
97.8579434818
  0
LINE
  5
316
100
AcDbEntity
  8
0
100
AcDbLine
 62
253
  6
CONTINUOUS
 10
145.9818648394
 20
97.8586760184
 11
146.0823667557
 21
97.8579091581
  0
LWPOLYLINE
  5
317
100
AcDbEntity
  8
RACCORDO
100
AcDbPolyline
 62
253
  6
CONTINUOUS
 90
10
 70
0
 10
159.1713469148
 20
97.8579434818
 10
159.0867826202
 20
97.858813307
 10
159.0497753804
 20
97.8593862211
 10
159.0168387089
 20
97.860043097
 10
158.9883334448
 20
97.8607767382
 10
158.9645718787
 20
97.8615791074
 10
158.9458143312
 20
97.8624414143
 10
158.9322663014
 20
97.8633542118
 10
158.9240762152
 20
97.8643074999
 10
158.9213337995
 20
97.8652908346
  0
LINE
  5
318
100
AcDbEntity
  8
0
100
AcDbLine
 62
253
  6
CONTINUOUS
 10
145.908882613
 20
97.8595713842
 11
145.9818648394
 21
97.8586760184
  0
LINE
  5
319
100
AcDbEntity
  8
0
100
AcDbLine
 62
253
  6
CONTINUOUS
 10
145.8599159226
 20
97.8603904586
 11
145.908882613
 21
97.8595713842
  0
LINE
  5
31A
100
AcDbEntity
  8
0
100
AcDbLine
 62
253
  6
CONTINUOUS
 10
145.8168133136
 20
97.8613209674
 11
145.8599159226
 21
97.8603904586
  0
LINE
  5
31B
100
AcDbEntity
  8
0
100
AcDbLine
 62
253
  6
CONTINUOUS
 10
145.7916966387
 20
97.8619955949
 11
145.8168133136
 21
97.8613209674
  0
LINE
  5
31C
100
AcDbEntity
  8
0
100
AcDbLine
 62
253
  6
CONTINUOUS
 10
145.7696959708
 20
97.8627078409
 11
145.7916966387
 21
97.8619955949
  0
LWPOLYLINE
  5
31D
100
AcDbEntity
  8
CONTATTI
100
AcDbPolyline
 62
7
  6
CONTINUOUS
 90
10
 70
0
 10
154.7028849367
 20
97.3271520075
 10
154.7741226762
 20
97.2848710235
 10
154.8452797731
 20
97.2440357224
 10
154.9163558706
 20
97.2046340154
 10
154.9873443533
 20
97.1666530482
 10
155.0582135706
 20
97.1300769041
 10
155.1289256131
 20
97.0948889009
 10
155.1994435254
 20
97.061068707
 10
155.269734168
 20
97.0285813937
 10
155.3397653552
 20
96.9973883825
  0
LWPOLYLINE
  5
31E
100
AcDbEntity
  8
CONTATTI
100
AcDbPolyline
 62
7
  6
CONTINUOUS
 90
6
 70
0
 10
154.6974122988
 20
96.9975276219
 10
154.7001403565
 20
96.9957722288
 10
154.7761287925
 20
96.9482559802
 10
154.852060043
 20
96.9021481868
 10
154.9278285974
 20
96.8574836676
 10
155.0033449074
 20
96.8142822612
  0
LINE
  5
31F
100
AcDbEntity
  8
0
100
AcDbLine
 62
253
  6
CONTINUOUS
 10
166.8582569683
 20
83.1206444691
 11
166.871355547
 21
83.1075458904
  0
LINE
  5
320
100
AcDbEntity
  8
RACCORDO
100
AcDbLine
 62
253
  6
CONTINUOUS
 10
149.6712980353
 20
84.9575501212
 11
149.6640714134
 21
85.0226484855
  0
LWPOLYLINE
  5
321
100
AcDbEntity
  8
0
100
AcDbPolyline
 62
7
  6
CONTINUOUS
 90
46
 70
0
 10
149.4640747981
 20
84.0905628231
 10
149.4639025468
 20
84.0951414774
 10
149.4634764709
 20
84.0997367849
 10
149.4627942534
 20
84.1043416339
 10
149.4618538521
 20
84.1089461048
 10
149.4606534855
 20
84.1135454911
 10
149.4591915465
 20
84.1181402943
 10
149.4574667458
 20
84.1227227163
 10
149.4554780616
 20
84.1272851738
 10
149.4532245414
 20
84.1318282873
 10
149.4507057111
 20
84.136343925
 10
149.4479213727
 20
84.1408241664
 10
149.4448712373
 20
84.1452697458
 10
149.4415557048
 20
84.1496722394
 10
149.4379754553
 20
84.1540234357
 10
149.4341308666
 20
84.1583241794
 10
149.4300232585
 20
84.1625658128
 10
149.4256542554
 20
84.1667398661
 10
149.4210249439
 20
84.1708472481
 10
149.4161376259
 20
84.1748791188
 10
149.4109949375
 20
84.1788268019
 10
149.4055987384
 20
84.1826912262
 10
149.3999523773
 20
84.1864634344
 10
149.3940595809
 20
84.1901346
 10
149.3879230837
 20
84.1937056204
 10
149.3815473533
 20
84.197167501
 10
149.3749372943
 20
84.2005113345
 10
149.3680966572
 20
84.2037379354
 10
149.3610311077
 20
84.2068383705
 10
149.3537468192
 20
84.2098037426
 10
149.3462487339
 20
84.2126347375
 10
149.3385437999
 20
84.2153226078
 10
149.3306395469
 20
84.2178585832
 10
149.322542296
 20
84.2202431921
 10
149.3142603942
 20
84.2224680159
 10
149.3058027685
 20
84.2245245707
 10
149.2971771907
 20
84.2264132445
 10
149.2883934552
 20
84.2281261254
 10
149.2794619496
 20
84.2296551791
 10
149.2703919743
 20
84.2310006603
 10
149.2612080869
 20
84.2321531231
 10
149.2519090586
 20
84.2331082816
 10
149.2424653974
 20
84.2338703702
 10
149.2328754263
 20
84.2344319868
 10
149.2231662058
 20
84.2347786589
 10
149.2133518001
 20
84.2349003904
  0
LWPOLYLINE
  5
322
100
AcDbEntity
  8
0
100
AcDbPolyline
 62
253
  6
CONTINUOUS
 90
34
 70
0
 10
149.4582569683
 20
83.5132125539
 10
149.4579403175
 20
83.5234953214
 10
149.4570601558
 20
83.5337548814
 10
149.4556184695
 20
83.5439680785
 10
149.4536185124
 20
83.5541118622
 10
149.4510647984
 20
83.5641633386
 10
149.447963091
 20
83.5740998221
 10
149.4443203906
 20
83.5838988866
 10
149.4401449186
 20
83.5935384162
 10
149.4354460987
 20
83.6029966551
 10
149.4302345358
 20
83.6122522566
 10
149.4245219923
 20
83.6212843314
 10
149.4183213609
 20
83.6300724945
 10
149.4116466362
 20
83.6385969116
 10
149.4045128825
 20
83.6468383437
 10
149.3969362004
 20
83.6547781902
 10
149.38893369
 20
83.6623985314
 10
149.3805234124
 20
83.6696821688
 10
149.3717243491
 20
83.6766126634
 10
149.3625563592
 20
83.6831743736
 10
149.3530401343
 20
83.6893524901
 10
149.3431971518
 20
83.6951330691
 10
149.3330496268
 20
83.7005030642
 10
149.3226204618
 20
83.7054503558
 10
149.3119331946
 20
83.709963778
 10
149.3010119459
 20
83.7140331442
 10
149.2898813642
 20
83.7176492703
 10
149.2785665706
 20
83.7208039948
 10
149.2670931019
 20
83.7234901976
 10
149.2554868531
 20
83.7257018163
 10
149.2437740189
 20
83.7274338592
 10
149.2319810342
 20
83.7286824173
 10
149.2201345153
 20
83.7294446726
 10
149.208261199
 20
83.7297189048
  0
LINE
  5
323
100
AcDbEntity
  8
0
100
AcDbLine
 62
253
  6
CONTINUOUS
 10
149.208261199
 20
130.9853813375
 11
149.2133518001
 21
130.480199852
  0
LINE
  5
324
100
AcDbEntity
  8
0
100
AcDbLine
 62
253
  6
CONTINUOUS
 10
149.4582569683
 20
131.2018876885
 11
149.4640747981
 21
130.6245374193
  0
LINE
  5
325
100
AcDbEntity
  8
0
100
AcDbLine
 62
253
  6
CONTINUOUS
 10
149.208261199
 20
82.8706486999
 11
149.208261199
 21
83.7297189048
  0
LINE
  5
326
100
AcDbEntity
  8
0
100
AcDbLine
 62
253
  6
CONTINUOUS
 10
149.208261199
 20
130.9853813375
 11
149.208261199
 21
131.8444515425
  0
LINE
  5
327
100
AcDbEntity
  8
RACCORDO
100
AcDbLine
 62
253
  6
CONTINUOUS
 10
149.2140790289
 20
84.2349003904
 11
149.2140790289
 21
85.0460947837
  0
LINE
  5
328
100
AcDbEntity
  8
RACCORDO
100
AcDbLine
 62
253
  6
CONTINUOUS
 10
149.2140790289
 20
129.6690054587
 11
149.2140790289
 21
130.480199852
  0
LINE
  5
329
100
AcDbEntity
  8
0
100
AcDbLine
 62
7
  6
CONTINUOUS
 10
149.4582569683
 20
83.1206444691
 11
149.4582569683
 21
83.5132125539
  0
LINE
  5
32A
100
AcDbEntity
  8
0
100
AcDbLine
 62
7
  6
CONTINUOUS
 10
149.4582569683
 20
131.2018876885
 11
149.4582569683
 21
131.5944557733
  0
LINE
  5
32B
100
AcDbEntity
  8
RACCORDO
100
AcDbLine
 62
7
  6
CONTINUOUS
 10
149.4640747981
 20
84.0905628231
 11
149.4640747981
 21
84.8229225786
  0
LINE
  5
32C
100
AcDbEntity
  8
RACCORDO
100
AcDbLine
 62
7
  6
CONTINUOUS
 10
149.4640747981
 20
129.8921776638
 11
149.4640747981
 21
130.6245374193
  0
LINE
  5
32D
100
AcDbEntity
  8
0
100
AcDbLine
 62
7
  6
CONTINUOUS
 10
149.471355547
 20
131.607554352
 11
149.471355547
 21
130.7680352694
  0
LINE
  5
32E
100
AcDbEntity
  8
0
100
AcDbLine
 62
7
  6
CONTINUOUS
 10
149.471355547
 20
83.947064973
 11
149.471355547
 21
83.1075458904
  0
LINE
  5
32F
100
AcDbEntity
  8
RACCORDO
100
AcDbLine
 62
7
  6
CONTINUOUS
 10
149.471355547
 20
83.947064973
 11
149.471355547
 21
84.7573366309
  0
LINE
  5
330
100
AcDbEntity
  8
RACCORDO
100
AcDbLine
 62
7
  6
CONTINUOUS
 10
149.471355547
 20
129.9577636115
 11
149.471355547
 21
130.7680352694
  0
LINE
  5
331
100
AcDbEntity
  8
0
100
AcDbLine
 62
253
  6
CONTINUOUS
 10
149.2133518001
 20
84.2349003904
 11
149.208261199
 21
83.7297189048
  0
LINE
  5
332
100
AcDbEntity
  8
0
100
AcDbLine
 62
253
  6
CONTINUOUS
 10
149.4640747981
 20
84.0905628231
 11
149.4582569683
 21
83.5132125539
  0
LWPOLYLINE
  5
333
100
AcDbEntity
  8
0
100
AcDbPolyline
 62
7
  6
CONTINUOUS
 90
34
 70
0
 10
149.4582569683
 20
83.1206444691
 10
149.4579734174
 20
83.1087494476
 10
149.4571242125
 20
83.0968813709
 10
149.4557112771
 20
83.085067123
 10
149.4537378118
 20
83.0733334658
 10
149.451208287
 20
83.0617069785
 10
149.4481284327
 20
83.0502139979
 10
149.4445052253
 20
83.0388805581
 10
149.4403468722
 20
83.0277323319
 10
149.4356627931
 20
83.0167945724
 10
149.4304635985
 20
83.0060920563
 10
149.4247610656
 20
82.995649027
 10
149.4185681121
 20
82.9854891404
 10
149.4118987662
 20
82.9756354109
 10
149.4047681357
 20
82.9661101595
 10
149.3971923729
 20
82.9569349628
 10
149.3891886387
 20
82.9481306048
 10
149.3807750633
 20
82.9397170294
 10
149.3719707054
 20
82.9317132952
 10
149.3627955087
 20
82.9241375325
 10
149.3532702572
 20
82.9170069019
 10
149.3434165277
 20
82.9103375561
 10
149.3332566411
 20
82.9041446025
 10
149.3228136119
 20
82.8984420697
 10
149.3121110957
 20
82.893242875
 10
149.3011733363
 20
82.8885587959
 10
149.29002511
 20
82.8844004429
 10
149.2786916702
 20
82.8807772355
 10
149.2671986896
 20
82.8776973811
 10
149.2555722024
 20
82.8751678563
 10
149.2438385451
 20
82.8731943911
 10
149.2320242972
 20
82.8717814556
 10
149.2201562206
 20
82.8709322507
 10
149.208261199
 20
82.8706486999
  0
LWPOLYLINE
  5
334
100
AcDbEntity
  8
0
100
AcDbPolyline
 62
7
  6
CONTINUOUS
 90
4
 70
0
 10
149.471355547
 20
83.1075458904
 10
149.4710723967
 20
83.0956506052
 10
149.4702235812
 20
83.0837822656
 10
149.4688110211
 20
83.071967755
  0
LWPOLYLINE
  5
335
100
AcDbEntity
  8
0
100
AcDbPolyline
 62
253
  6
CONTINUOUS
 90
34
 70
0
 10
149.4582569683
 20
131.2018876885
 10
149.4579403175
 20
131.1916049209
 10
149.4570601558
 20
131.181345361
 10
149.4556184695
 20
131.1711321639
 10
149.4536185124
 20
131.1609883802
 10
149.4510647984
 20
131.1509369038
 10
149.447963091
 20
131.1410004203
 10
149.4443203906
 20
131.1312013558
 10
149.4401449186
 20
131.1215618261
 10
149.4354460987
 20
131.1121035872
 10
149.4302345358
 20
131.1028479857
 10
149.4245219923
 20
131.093815911
 10
149.4183213609
 20
131.0850277479
 10
149.4116466362
 20
131.0765033308
 10
149.4045128825
 20
131.0682618987
 10
149.3969362004
 20
131.0603220522
 10
149.38893369
 20
131.0527017109
 10
149.3805234124
 20
131.0454180736
 10
149.3717243491
 20
131.038487579
 10
149.3625563592
 20
131.0319258687
 10
149.3530401343
 20
131.0257477523
 10
149.3431971518
 20
131.0199671733
 10
149.3330496268
 20
131.0145971781
 10
149.3226204618
 20
131.0096498866
 10
149.3119331946
 20
131.0051364644
 10
149.3010119459
 20
131.0010670981
 10
149.2898813642
 20
130.9974509721
 10
149.2785665706
 20
130.9942962476
 10
149.2670931019
 20
130.9916100447
 10
149.2554868531
 20
130.9893984261
 10
149.2437740189
 20
130.9876663832
 10
149.2319810342
 20
130.9864178251
 10
149.2201345153
 20
130.9856555697
 10
149.208261199
 20
130.9853813375
  0
LINE
  5
336
100
AcDbEntity
  8
RACCORDO
100
AcDbLine
 62
253
  6
CONTINUOUS
 10
146.3786396805
 20
85.0226484855
 11
146.3714130586
 21
84.9575501212
  0
LWPOLYLINE
  5
337
100
AcDbEntity
  8
0
100
AcDbPolyline
 62
253
  6
CONTINUOUS
 90
9
 70
0
 10
146.1850130245
 20
85.2973221785
 10
146.1852972823
 20
85.2995578586
 10
146.1855801479
 20
85.3028517437
 10
146.1858616213
 20
85.3072003059
 10
146.1861419928
 20
85.3125988671
 10
146.1864209722
 20
85.3190416843
 10
146.1866976878
 20
85.3265220087
 10
146.1869721422
 20
85.3350319906
 10
146.1875133812
 20
85.3551034821
  0
LINE
  5
338
100
AcDbEntity
  8
CONTATTI
100
AcDbLine
 62
7
  6
CONTINUOUS
 10
158.0220988292
 20
117.6737094431
 11
158.4393661865
 21
117.9008179811
  0
LWPOLYLINE
  5
339
100
AcDbEntity
  8
RACCORDO
100
AcDbPolyline
 62
253
  6
CONTINUOUS
 90
3
 70
0
 10
157.1088210515
 20
100.0231241503
 10
157.0954971005
 20
100.0229948151
 10
156.7766284424
 20
100.0339049615
  0
LINE
  5
33A
100
AcDbEntity
  8
RACCORDO
100
AcDbLine
 62
253
  6
CONTINUOUS
 10
156.7766284424
 20
100.0339049615
 11
156.5573320587
 21
100.0512111472
  0
LINE
  5
33B
100
AcDbEntity
  8
RACCORDO
100
AcDbLine
 62
253
  6
CONTINUOUS
 10
146.3714130586
 20
129.7575501212
 11
146.3786396805
 21
129.6924517569
  0
LWPOLYLINE
  5
33C
100
AcDbEntity
  8
0
100
AcDbPolyline
 62
253
  6
CONTINUOUS
 90
11
 70
0
 10
145.6850891769
 20
85.7966369459
 10
145.6853732394
 20
85.7977571942
 10
145.6856559683
 20
85.7994023515
 10
145.6859373636
 20
85.8015724179
 10
145.6862177376
 20
85.8042708551
 10
145.6864967779
 20
85.8074942014
 10
145.6867735478
 20
85.8112320712
 10
145.6870480244
 20
85.8154860645
 10
145.6873202306
 20
85.8202545813
 10
145.6875892976
 20
85.8255224365
 10
145.688117992
 20
85.8375593213
  0
LWPOLYLINE
  5
33D
100
AcDbEntity
  8
0
100
AcDbPolyline
 62
7
  6
CONTINUOUS
 90
12
 70
0
 10
164.0048481553
 20
131.7325525495
 10
164.0110409888
 20
131.7427126271
 10
164.0177102515
 20
131.7525665263
 10
164.0248408363
 20
131.762091925
 10
164.0324165881
 20
131.7712672402
 10
164.0404203465
 20
131.7800716873
 10
164.0488339809
 20
131.7884853217
 10
164.0576384279
 20
131.7964890801
 10
164.0668137431
 20
131.8040648319
 10
164.0763391419
 20
131.8111954167
 10
164.0861930411
 20
131.8178646793
 10
164.0963531187
 20
131.8240575128
  0
LWPOLYLINE
  5
33E
100
AcDbEntity
  8
RACCORDO
100
AcDbPolyline
 62
253
  6
CONTINUOUS
 90
34
 70
0
 10
156.721355547
 20
100.5507433144
 10
156.7970806384
 20
100.5498829613
 10
156.8740259515
 20
100.5465844047
 10
156.9521914863
 20
100.5408476451
 10
157.0313214742
 20
100.5328876896
 10
157.1116716838
 20
100.5224895338
 10
157.1940094209
 20
100.5090081624
 10
157.2785701486
 20
100.4925160613
 10
157.3651184038
 20
100.4729407521
 10
157.4537151026
 20
100.4494197756
 10
157.5444006949
 20
100.4220536431
 10
157.6371347309
 20
100.3907418599
 10
157.7318567775
 20
100.3543204647
 10
157.8287238997
 20
100.3128726949
 10
157.9275790326
 20
100.2663153468
 10
158.0278905474
 20
100.2132348102
 10
158.1298692402
 20
100.1536878872
 10
158.233304315
 20
100.08761784
 10
158.3370317549
 20
100.0134407693
 10
158.4413302262
 20
99.9311555738
 10
158.5459210627
 20
99.8407634707
 10
158.6488042482
 20
99.7406840701
 10
158.7504609033
 20
99.6304984323
 10
158.8504099074
 20
99.5106256955
 10
158.9452078825
 20
99.3807426207
 10
159.035068601
 20
99.2399921326
 10
159.1197782905
 20
99.0892315936
 10
159.1952522561
 20
98.9307094121
 10
159.2610414374
 20
98.7638245979
 10
159.3175948948
 20
98.5891784381
 10
159.3621751145
 20
98.4108226664
 10
159.393869592
 20
98.2301078909
 10
159.4135908318
 20
98.0456836755
 10
159.421338834
 20
97.8575501212
  0
LWPOLYLINE
  5
33F
100
AcDbEntity
  8
0
100
AcDbPolyline
 62
7
  6
CONTINUOUS
 90
12
 70
0
 10
164.0048481553
 20
82.9825476929
 10
163.9991457781
 20
82.9929909336
 10
163.9939467748
 20
83.0036936749
 10
163.9892629212
 20
83.0146316719
 10
163.9851048256
 20
83.0257801474
 10
163.9814819053
 20
83.0371138422
 10
163.9784023653
 20
83.0486070824
 10
163.9758731793
 20
83.0602338337
 10
163.9739000728
 20
83.071967755
 10
163.9724875127
 20
83.0837822656
 10
163.9716386972
 20
83.0956506052
 10
163.971355547
 20
83.1075458904
  0
LWPOLYLINE
  5
340
100
AcDbEntity
  8
CONTATTI
100
AcDbPolyline
 62
253
  6
CONTINUOUS
 90
7
 70
0
 10
155.3489621396
 20
97.252938397
 10
155.3247943076
 20
97.3155046861
 10
155.2946294071
 20
97.4063954095
 10
155.2687342255
 20
97.4984371151
 10
155.2469376205
 20
97.5913914167
 10
155.2290524751
 20
97.685039556
 10
155.2148916725
 20
97.7791627747
  0
LINE
  5
341
100
AcDbEntity
  8
0
100
AcDbLine
 62
7
  6
CONTINUOUS
 10
152.271355547
 20
83.3575501212
 11
152.271355547
 21
84.9575501212
  0
LINE
  5
342
100
AcDbEntity
  8
0
100
AcDbLine
 62
7
  6
CONTINUOUS
 10
152.271355547
 20
129.7575501212
 11
152.271355547
 21
131.3575501212
  0
LINE
  5
343
100
AcDbEntity
  8
0
100
AcDbLine
 62
7
  6
CONTINUOUS
 10
152.2800822917
 20
131.3488233765
 11
152.2800822917
 21
129.6789384523
  0
LINE
  5
344
100
AcDbEntity
  8
0
100
AcDbLine
 62
7
  6
CONTINUOUS
 10
152.2800822917
 20
85.0361617901
 11
152.2800822917
 21
83.3662768659
  0
LINE
  5
345
100
AcDbEntity
  8
0
100
AcDbLine
 62
7
  6
CONTINUOUS
 10
153.221355547
 20
83.3662768659
 11
153.221355547
 21
85.0361617901
  0
LINE
  5
346
100
AcDbEntity
  8
0
100
AcDbLine
 62
7
  6
CONTINUOUS
 10
153.221355547
 20
129.6789384523
 11
153.221355547
 21
131.3488233765
  0
LWPOLYLINE
  5
347
100
AcDbEntity
  8
RACCORDO
100
AcDbPolyline
 62
253
  6
CONTINUOUS
 90
37
 70
0
 10
154.02137226
 20
116.8575501212
 10
154.0269767444
 20
117.0345295026
 10
154.0431020451
 20
117.208299602
 10
154.0697481622
 20
117.3788601778
 10
154.1076176579
 20
117.5472851915
 10
154.1560079699
 20
117.7125002746
 10
154.2128114111
 20
117.8712832682
 10
154.2783758827
 20
118.0232264915
 10
154.3523534836
 20
118.1687387502
 10
154.4315928224
 20
118.3058235292
 10
154.5160829335
 20
118.4339162305
 10
154.6058347825
 20
118.5535835399
 10
154.6977298755
 20
118.6645262703
 10
154.7913773433
 20
118.7662612192
 10
154.887168055
 20
118.8592737477
 10
154.9831561236
 20
118.9447173747
 10
155.079082517
 20
119.0225318725
 10
155.1752062672
 20
119.0927790747
 10
155.270358583
 20
119.1567952465
 10
155.3643575067
 20
119.2146128644
 10
155.457384996
 20
119.2662005209
 10
155.5488181333
 20
119.3127983614
 10
155.6385205005
 20
119.3544652918
 10
155.7266285156
 20
119.3911430619
 10
155.812928515
 20
119.4238958779
 10
155.8973212161
 20
119.4527938187
 10
155.9799059016
 20
119.4777671795
 10
156.0607667553
 20
119.4996703635
 10
156.1398568986
 20
119.5185779407
 10
156.2172232102
 20
119.5344155396
 10
156.2930905104
 20
119.5478140796
 10
156.3673822271
 20
119.5588380412
 10
156.4401749323
 20
119.5674230399
 10
156.5119231633
 20
119.5740066612
 10
156.5827784322
 20
119.5787347766
 10
156.6525892268
 20
119.5814615508
 10
156.721355547
 20
119.5821869927
  0
LWPOLYLINE
  5
348
100
AcDbEntity
  8
0
100
AcDbPolyline
 62
7
  6
CONTINUOUS
 90
9
 70
0
 10
149.4688110211
 20
83.071967755
 10
149.4668379147
 20
83.0602338337
 10
149.4643087287
 20
83.0486070824
 10
149.4612291887
 20
83.0371138422
 10
149.4576062683
 20
83.0257801474
 10
149.4534481728
 20
83.0146316719
 10
149.4487643192
 20
83.0036936749
 10
149.4435653158
 20
82.9929909336
 10
149.4378629386
 20
82.9825476929
  0
LINE
  5
349
100
AcDbEntity
  8
0
100
AcDbLine
 62
253
  6
CONTINUOUS
 10
145.5722283002
 20
85.4577789733
 11
145.6850891769
 21
85.7966369459
  0
LINE
  5
34A
100
AcDbEntity
  8
0
100
AcDbLine
 62
253
  6
CONTINUOUS
 10
146.0718477005
 20
84.9575501212
 11
146.1850130245
 21
85.2973221785
  0
LWPOLYLINE
  5
34B
100
AcDbEntity
  8
RACCORDO
100
AcDbPolyline
 62
253
  6
CONTINUOUS
 90
16
 70
0
 10
166.8640747981
 20
84.8229225786
 10
166.8625384947
 20
84.8254403128
 10
166.8582706819
 20
84.8278707006
 10
166.8513449467
 20
84.8302137419
 10
166.8418699983
 20
84.8324907059
 10
166.8299698224
 20
84.8346803234
 10
166.8157658192
 20
84.8367187872
 10
166.7994290443
 20
84.8386012901
 10
166.7811353529
 20
84.8403326393
 10
166.7610110996
 20
84.8418634492
 10
166.7392414178
 20
84.8431909367
 10
166.716067255
 20
84.8443178849
 10
166.6917038664
 20
84.8452032567
 10
166.666397696
 20
84.8458333731
 10
166.6404284266
 20
84.8462219131
 10
166.6140790289
 20
84.8463688768
  0
LINE
  5
34C
100
AcDbEntity
  8
0
100
AcDbLine
 62
253
  6
CONTINUOUS
 10
145.6850896153
 20
128.9184619803
 11
145.5722283002
 21
129.2573212691
  0
LINE
  5
34D
100
AcDbEntity
  8
0
100
AcDbLine
 62
253
  6
CONTINUOUS
 10
146.1850130245
 20
129.4177780638
 11
146.0718477005
 21
129.7575501212
  0
LWPOLYLINE
  5
34E
100
AcDbEntity
  8
CONTATTI
100
AcDbPolyline
 62
7
  6
CONTINUOUS
 90
10
 70
0
 10
154.7028849367
 20
97.3271520075
 10
154.6838889102
 20
97.4188883643
 10
154.667997477
 20
97.5110314182
 10
154.6549909623
 20
97.6034220012
 10
154.6446496796
 20
97.6959010041
 10
154.6367466366
 20
97.7883466029
 10
154.6310350317
 20
97.880738071
 10
154.6272647383
 20
97.9730716514
 10
154.6251856296
 20
98.0653435871
 10
154.6245475788
 20
98.1575501212
  0
LWPOLYLINE
  5
34F
100
AcDbEntity
  8
CONTATTI
100
AcDbPolyline
 62
253
  6
CONTINUOUS
 90
4
 70
0
 10
155.2042620234
 20
97.8735660465
 10
155.1969460495
 20
97.9681492727
 10
155.1927202002
 20
98.0628360866
 10
155.1913609247
 20
98.1575501212
  0
LINE
  5
350
100
AcDbEntity
  8
CONTATTI
100
AcDbLine
 62
253
  6
CONTINUOUS
 10
155.0822777189
 20
106.7975501212
 11
155.0822777189
 21
107.1746425433
  0
LINE
  5
351
100
AcDbEntity
  8
CONTATTI
100
AcDbLine
 62
7
  6
CONTINUOUS
 10
155.221355547
 20
108.9660015709
 11
155.221355547
 21
108.8475501212
  0
LINE
  5
352
100
AcDbEntity
  8
0
100
AcDbLine
 62
253
  6
CONTINUOUS
 10
155.521355547
 20
83.3593022394
 11
155.521355547
 21
84.9837540108
  0
LINE
  5
353
100
AcDbEntity
  8
0
100
AcDbLine
 62
253
  6
CONTINUOUS
 10
155.521355547
 20
129.7313462315
 11
155.521355547
 21
131.3557980029
  0
LWPOLYLINE
  5
354
100
AcDbEntity
  8
CONTATTI
100
AcDbPolyline
 62
7
  6
CONTINUOUS
 90
4
 70
0
 10
154.6245475788
 20
98.1575501212
 10
154.6297483556
 20
98.3345711497
 10
154.6453230573
 20
98.5110236412
 10
154.6632426787
 20
98.6322860572
  0
LWPOLYLINE
  5
355
100
AcDbEntity
  8
CONTATTI
100
AcDbPolyline
 62
253
  6
CONTINUOUS
 90
7
 70
0
 10
155.1913609247
 20
98.1575501212
 10
155.1956399275
 20
98.2993183003
 10
155.2084492759
 20
98.4405892359
 10
155.2297475771
 20
98.5808664104
 10
155.2594797355
 20
98.7196553652
 10
155.2975358449
 20
98.8564698771
 10
155.2978240466
 20
98.8573069843
  0
LWPOLYLINE
  5
356
100
AcDbEntity
  8
RACCORDO
100
AcDbPolyline
 62
253
  6
CONTINUOUS
 90
34
 70
0
 10
154.02137226
 20
97.8575501212
 10
154.0289107716
 20
98.0438916177
 10
154.0483077924
 20
98.2267845118
 10
154.0795633225
 20
98.4062287093
 10
154.1235370994
 20
98.5835730621
 10
154.1793693856
 20
98.7574685578
 10
154.2444809679
 20
98.9238682381
 10
154.3193384527
 20
99.0822023582
 10
154.4034752337
 20
99.2330403758
 10
154.4929122791
 20
99.3740440439
 10
154.5874853211
 20
99.5043800773
 10
154.6873586275
 20
99.624881478
 10
154.7890459695
 20
99.7357094173
 10
154.8920745348
 20
99.8364122962
 10
154.9969171358
 20
99.9274415139
 10
155.1015059804
 20
100.0103127694
 10
155.2055472949
 20
100.0850025159
 10
155.3093348531
 20
100.1515341828
 10
155.4116821848
 20
100.2114939657
 10
155.5123798427
 20
100.2649379984
 10
155.6116372742
 20
100.3118100819
 10
155.7088963508
 20
100.3535279348
 10
155.8040009307
 20
100.3901732972
 10
155.8971071557
 20
100.4216643946
 10
155.9881253228
 20
100.4491736858
 10
156.0769815612
 20
100.4727969339
 10
156.1637497418
 20
100.4924383589
 10
156.2485617734
 20
100.5089831116
 10
156.3312861853
 20
100.5225132155
 10
156.4120544482
 20
100.5329466395
 10
156.4913928837
 20
100.5409224552
 10
156.5694769323
 20
100.546653686
 10
156.6461311534
 20
100.549927306
 10
156.721355547
 20
100.5507433144
  0
LINE
  5
357
100
AcDbEntity
  8
0
100
AcDbLine
 62
7
  6
CONTINUOUS
 10
152.271355547
 20
84.9575501212
 11
152.2800822917
 21
85.0361617901
  0
LINE
  5
358
100
AcDbEntity
  8
CONTATTI
100
AcDbLine
 62
253
  6
CONTINUOUS
 10
154.538721612
 20
107.0915714569
 11
154.5627672042
 21
107.1265880201
  0
LWPOLYLINE
  5
359
100
AcDbEntity
  8
CONTATTI
100
AcDbPolyline
 62
253
  6
CONTINUOUS
 90
19
 70
0
 10
154.5627672042
 20
107.1265880201
 10
154.6481939814
 20
107.244880758
 10
154.7393897661
 20
107.3578227242
 10
154.8360991012
 20
107.4652154929
 10
154.9381358655
 20
107.5669260172
 10
155.0451857019
 20
107.6626857484
 10
155.156780086
 20
107.7521307105
 10
155.272734757
 20
107.8351602098
 10
155.3927135307
 20
107.911558675
 10
155.515950589
 20
107.9809090837
 10
155.6419486591
 20
108.0430619795
 10
155.7705483908
 20
108.0980611891
 10
155.901455214
 20
108.1458639427
 10
156.0342225491
 20
108.1863822159
 10
156.1686731357
 20
108.2196237841
 10
156.3049103933
 20
108.2456363491
 10
156.4427374923
 20
108.2643525327
 10
156.5816644512
 20
108.2756592017
 10
156.721355547
 20
108.2794786325
  0
LWPOLYLINE
  5
35A
100
AcDbEntity
  8
CONTATTI
100
AcDbPolyline
 62
7
  6
CONTINUOUS
 90
18
 70
0
 10
154.525802179
 20
107.4771683473
 10
154.5808630157
 20
107.5531698211
 10
154.6784171359
 20
107.6728336128
 10
154.7825168915
 20
107.7866124007
 10
154.8928534072
 20
107.8941386847
 10
155.0091774217
 20
107.9951900293
 10
155.1309996296
 20
108.0894118697
 10
155.2578935889
 20
108.1765055252
 10
155.3897029086
 20
108.2563160171
 10
155.5260340823
 20
108.3285187053
 10
155.666347144
 20
108.3928489631
 10
155.8103100602
 20
108.4491615709
 10
155.9574852764
 20
108.4972325884
 10
156.1072827897
 20
108.5367867102
 10
156.2591330088
 20
108.567657606
 10
156.4124673317
 20
108.5897802742
 10
156.5667317507
 20
108.6030976815
 10
156.721355547
 20
108.6075501212
  0
LINE
  5
35B
100
AcDbEntity
  8
RACCORDO
100
AcDbLine
 62
253
  6
CONTINUOUS
 10
155.7222206182
 20
109.3084113847
 11
155.7402681676
 21
109.3264589341
  0
LINE
  5
35C
100
AcDbEntity
  8
RACCORDO
100
AcDbLine
 62
7
  6
CONTINUOUS
 10
155.8281318682
 20
109.3143264424
 11
155.9200148341
 21
109.4062094083
  0
LINE
  5
35D
100
AcDbEntity
  8
RACCORDO
100
AcDbLine
 62
253
  6
CONTINUOUS
 10
155.8222168105
 20
109.2084151924
 11
155.8985847352
 21
109.2847831171
  0
LINE
  5
35E
100
AcDbEntity
  8
RACCORDO
100
AcDbLine
 62
253
  6
CONTINUOUS
 10
156.0985923506
 20
109.2847831171
 11
156.0222244259
 21
109.2084151924
  0
LINE
  5
35F
100
AcDbEntity
  8
RACCORDO
100
AcDbLine
 62
7
  6
CONTINUOUS
 10
156.1690452176
 20
109.2552397919
 11
156.4549516202
 21
109.5411461944
  0
LINE
  5
360
100
AcDbEntity
  8
RACCORDO
100
AcDbLine
 62
253
  6
CONTINUOUS
 10
156.1985885429
 20
109.1847869248
 11
156.1222206182
 21
109.1084190001
  0
LWPOLYLINE
  5
361
100
AcDbEntity
  8
CONTATTI
100
AcDbPolyline
 62
7
  6
CONTINUOUS
 90
15
 70
0
 10
154.6257032001
 20
108.0237358305
 10
154.7077712896
 20
108.0952116319
 10
154.8413965249
 20
108.1997325679
 10
154.9798592174
 20
108.296729104
 10
155.1227693248
 20
108.3859739622
 10
155.2700355091
 20
108.4673849525
 10
155.4212964454
 20
108.5406995573
 10
155.5760346929
 20
108.6056965982
 10
155.7339631652
 20
108.6622704701
 10
155.8946766406
 20
108.7102354632
 10
156.0576050029
 20
108.7493566154
 10
156.2222259552
 20
108.7795517233
 10
156.3880449524
 20
108.8008867457
 10
156.5545858026
 20
108.8134391546
 10
156.721355547
 20
108.8172852506
  0
LWPOLYLINE
  5
362
100
AcDbEntity
  8
RACCORDO
100
AcDbPolyline
 62
253
  6
CONTINUOUS
 90
67
 70
0
 10
156.721355547
 20
104.6548474185
 10
156.6480319638
 20
104.6555837171
 10
156.5730481421
 20
104.6587159674
 10
156.4964040819
 20
104.6642441696
 10
156.4182689739
 20
104.6719398654
 10
156.3384736274
 20
104.6820315141
 10
156.2565104704
 20
104.695204493
 10
156.1722087561
 20
104.7113916839
 10
156.0857392312
 20
104.7306602078
 10
155.997106564
 20
104.7538968012
 10
155.9062533375
 20
104.7810170346
 10
155.8132369687
 20
104.8121053436
 10
155.7182343772
 20
104.8483017651
 10
155.6210975992
 20
104.8895390391
 10
155.5219745986
 20
104.9358844369
 10
155.4214861867
 20
104.9886797959
 10
155.3194408556
 20
105.0478826369
 10
155.2160301132
 20
105.113535458
 10
155.1124492947
 20
105.1871075681
 10
155.00844697
 20
105.2686114536
 10
154.9042745691
 20
105.3580346563
 10
154.8018817174
 20
105.4568090742
 10
154.7009021991
 20
105.5651769323
 10
154.60170223
 20
105.6828960411
 10
154.5073300824
 20
105.8106716811
 10
154.4175171349
 20
105.949026112
 10
154.3325320088
 20
106.0974371055
 10
154.2562288407
 20
106.2550432064
 10
154.1886723291
 20
106.4226016645
 10
154.1297977755
 20
106.5993552359
 10
154.0832652204
 20
106.7821707105
 10
154.0497183292
 20
106.9720087516
 10
154.0285134365
 20
107.1679086604
 10
154.0213795868
 20
107.3638551665
 10
154.0294748392
 20
107.5599163718
 10
154.0516411346
 20
107.7560241141
 10
154.0861333399
 20
107.9459587267
 10
154.1336273704
 20
108.1287154611
 10
154.1934473109
 20
108.3052990309
 10
154.2618202819
 20
108.4725039807
 10
154.3387597471
 20
108.6294875207
 10
154.4242522429
 20
108.7770924482
 10
154.5144844989
 20
108.9146417025
 10
154.6092070546
 20
109.0416756748
 10
154.7086693704
 20
109.1586540055
 10
154.8098065577
 20
109.2662785119
 10
154.912234541
 20
109.3642927208
 10
155.0163373957
 20
109.4529531409
 10
155.1202024596
 20
109.5337310589
 10
155.2235839369
 20
109.6066246857
 10
155.3267276234
 20
109.6716358382
 10
155.4284582442
 20
109.7302412057
 10
155.5285844487
 20
109.7824851528
 10
155.6272975874
 20
109.8283233337
 10
155.7239964368
 20
109.8690993669
 10
155.8185362702
 20
109.9048824483
 10
155.9110618143
 20
109.9356033932
 10
156.0014060257
 20
109.9623982444
 10
156.0894817033
 20
109.9853489232
 10
156.1753760482
 20
110.0043735143
 10
156.2591836203
 20
110.0203623045
 10
156.3408263246
 20
110.0333924654
 10
156.4203822562
 20
110.0433868281
 10
156.4981802598
 20
110.0510041675
 10
156.5743299502
 20
110.0564640753
 10
156.6487217126
 20
110.0595469607
 10
156.721355547
 20
110.0602528239
  0
LWPOLYLINE
  5
363
100
AcDbEntity
  8
CONTATTI
100
AcDbPolyline
 62
253
  6
CONTINUOUS
 90
4
 70
0
 10
154.530847651
 20
107.1651164197
 10
154.532129807
 20
107.1636297017
 10
154.5477328022
 20
107.1450316165
 10
154.5627672042
 20
107.1265880201
  0
LWPOLYLINE
  5
364
100
AcDbEntity
  8
CONTATTI
100
AcDbPolyline
 62
253
  6
CONTINUOUS
 90
11
 70
0
 10
154.5627672042
 20
107.1265880201
 10
154.5944320865
 20
107.0865672426
 10
154.6231988842
 20
107.0491470358
 10
154.6490933328
 20
107.0145599397
 10
154.6721501758
 20
106.9830212258
 10
154.6923836101
 20
106.9547693976
 10
154.7097988295
 20
106.9300523134
 10
154.7244313441
 20
106.909037165
 10
154.7363174115
 20
106.8917806538
 10
154.7454832053
 20
106.878331231
 10
154.7519717595
 20
106.8687105512
  0
LINE
  5
365
100
AcDbEntity
  8
CONTATTI
100
AcDbLine
 62
253
  6
CONTINUOUS
 10
154.7519717595
 20
106.8687105512
 11
154.7571091277
 21
106.8609984064
  0
LINE
  5
366
100
AcDbEntity
  8
DRAFT
100
AcDbLine
 62
7
  6
CONTINUOUS
 10
155.2637211405
 20
97.8571516249
 11
155.5239832059
 21
96.0123376941
  0
LINE
  5
367
100
AcDbEntity
  8
CONTATTI
100
AcDbLine
 62
253
  6
CONTINUOUS
 10
155.2148916725
 20
97.7791627747
 11
155.2042620234
 21
97.8735660465
  0
LINE
  5
368
100
AcDbEntity
  8
0
100
AcDbLine
 62
7
  6
CONTINUOUS
 10
152.2800822917
 20
129.6789384523
 11
152.271355547
 21
129.7575501212
  0
LWPOLYLINE
  5
369
100
AcDbEntity
  8
RACCORDO
100
AcDbPolyline
 62
253
  6
CONTINUOUS
 90
13
 70
0
 10
156.1222206182
 20
109.1084190001
 10
156.1213642167
 20
109.1214705631
 10
156.118811653
 20
109.134298825
 10
156.1146066003
 20
109.1466843099
 10
156.1088209999
 20
109.1584151244
 10
156.1015538401
 20
109.1692905621
 10
156.0929294701
 20
109.179124543
 10
156.0830954572
 20
109.1877488216
 10
156.0722200487
 20
109.1950158637
 10
156.0604893067
 20
109.2008013522
 10
156.0481039278
 20
109.2050063138
 10
156.0352758109
 20
109.2075588143
 10
156.0222244259
 20
109.2084151924
  0
LINE
  5
36A
100
AcDbEntity
  8
0
100
AcDbLine
 62
253
  6
CONTINUOUS
 10
155.721355547
 20
131.1575467365
 11
155.721355547
 21
131.1558013876
  0
LINE
  5
36B
100
AcDbEntity
  8
0
100
AcDbLine
 62
253
  6
CONTINUOUS
 10
157.721355547
 20
83.5575535059
 11
157.721355547
 21
83.5592988548
  0
LINE
  5
36C
100
AcDbEntity
  8
RACCORDO
100
AcDbLine
 62
253
  6
CONTINUOUS
 10
155.6222244259
 20
107.3475501212
 11
155.6222244259
 21
107.3675501212
  0
LINE
  5
36D
100
AcDbEntity
  8
0
100
AcDbLine
 62
7
  6
CONTINUOUS
 10
155.721355547
 20
83.5592988548
 11
155.721355547
 21
84.973272455
  0
LINE
  5
36E
100
AcDbEntity
  8
0
100
AcDbLine
 62
7
  6
CONTINUOUS
 10
155.721355547
 20
129.7418277874
 11
155.721355547
 21
131.1558013876
  0
LINE
  5
36F
100
AcDbEntity
  8
RACCORDO
100
AcDbLine
 62
7
  6
CONTINUOUS
 10
155.7222206182
 20
107.3675501212
 11
155.7222206182
 21
107.3475501212
  0
LINE
  5
370
100
AcDbEntity
  8
RACCORDO
100
AcDbLine
 62
7
  6
CONTINUOUS
 10
155.7222206182
 20
109.3084113847
 11
155.7222206182
 21
109.3171003406
  0
LINE
  5
371
100
AcDbEntity
  8
RACCORDO
100
AcDbLine
 62
7
  6
CONTINUOUS
 10
155.7985885429
 20
107.3475501212
 11
155.7985885429
 21
107.5868813648
  0
LINE
  5
372
100
AcDbEntity
  8
RACCORDO
100
AcDbLine
 62
253
  6
CONTINUOUS
 10
155.8222168105
 20
109.2084151924
 11
155.8222168105
 21
109.1084190001
  0
LINE
  5
373
100
AcDbEntity
  8
CONTATTI
100
AcDbLine
 62
7
  6
CONTINUOUS
 10
155.971355547
 20
106.7575501212
 11
155.971355547
 21
107.3475501212
  0
LINE
  5
374
100
AcDbEntity
  8
RACCORDO
100
AcDbLine
 62
253
  6
CONTINUOUS
 10
156.0222244259
 20
108.7408612931
 11
156.0222244259
 21
109.2084151924
  0
LINE
  5
375
100
AcDbEntity
  8
RACCORDO
100
AcDbLine
 62
7
  6
CONTINUOUS
 10
156.1222206182
 20
108.7612085422
 11
156.1222206182
 21
109.1084190001
  0
LINE
  5
376
100
AcDbEntity
  8
RACCORDO
100
AcDbLine
 62
7
  6
CONTINUOUS
 10
156.1985885429
 20
109.1847869248
 11
156.1985885429
 21
108.7752161013
  0
LINE
  5
377
100
AcDbEntity
  8
SMUSSO
100
AcDbLine
 62
7
  6
CONTINUOUS
 10
156.454260791
 20
106.7575501212
 11
156.454260791
 21
107.1746448772
  0
LINE
  5
378
100
AcDbEntity
  8
CONTATTI
100
AcDbLine
 62
253
  6
CONTINUOUS
 10
156.721355547
 20
107.7570159481
 11
156.721355547
 21
108.8172852506
  0
LINE
  5
379
100
AcDbEntity
  8
SMUSSO
100
AcDbLine
 62
7
  6
CONTINUOUS
 10
156.854260791
 20
109.5533900643
 11
156.854260791
 21
108.8135852642
  0
LINE
  5
37A
100
AcDbEntity
  8
SMUSSO
100
AcDbLine
 62
7
  6
CONTINUOUS
 10
156.854260791
 20
107.7529268381
 11
156.854260791
 21
107.1746448772
  0
LINE
  5
37B
100
AcDbEntity
  8
RACCORDO
100
AcDbLine
 62
7
  6
CONTINUOUS
 10
156.8716132087
 20
108.8131021854
 11
156.8716132087
 21
109.5521908265
  0
LINE
  5
37C
100
AcDbEntity
  8
RACCORDO
100
AcDbLine
 62
7
  6
CONTINUOUS
 10
156.920834685
 20
108.8097653772
 11
156.920834685
 21
109.5483083333
  0
LINE
  5
37D
100
AcDbEntity
  8
RACCORDO
100
AcDbLine
 62
253
  6
CONTINUOUS
 10
157.0208333142
 20
106.7575501212
 11
157.0208333142
 21
106.8080709832
  0
LINE
  5
37E
100
AcDbEntity
  8
RACCORDO
100
AcDbLine
 62
253
  6
CONTINUOUS
 10
157.0208333142
 20
108.8019585075
 11
157.0208333142
 21
109.5369279162
  0
LINE
  5
37F
100
AcDbEntity
  8
CONTATTI
100
AcDbLine
 62
7
  6
CONTINUOUS
 10
157.121355547
 20
106.7575501212
 11
157.121355547
 21
107.7256023188
  0
LINE
  5
380
100
AcDbEntity
  8
CONTATTI
100
AcDbLine
 62
7
  6
CONTINUOUS
 10
157.121355547
 20
108.7900469394
 11
157.121355547
 21
109.5206340898
  0
LINE
  5
381
100
AcDbEntity
  8
0
100
AcDbLine
 62
7
  6
CONTINUOUS
 10
155.7211651955
 20
83.5488295763
 11
155.721355547
 21
83.5592988548
  0
LINE
  5
382
100
AcDbEntity
  8
0
100
AcDbLine
 62
7
  6
CONTINUOUS
 10
157.7215458984
 20
131.1662706661
 11
157.721355547
 21
131.1558013876
  0
LWPOLYLINE
  5
383
100
AcDbEntity
  8
RACCORDO
100
AcDbPolyline
 62
7
  6
CONTINUOUS
 90
5
 70
0
 10
156.9342329488
 20
106.7580710054
 10
156.9415001519
 20
106.7689469004
 10
156.9501247188
 20
106.7787812377
 10
156.9599590813
 20
106.7874057568
 10
156.9708349737
 20
106.7946728989
  0
LWPOLYLINE
  5
384
100
AcDbEntity
  8
CONTATTI
100
AcDbPolyline
 62
7
  6
CONTINUOUS
 90
16
 70
0
 10
154.7571091277
 20
106.8609984064
 10
154.8284889603
 20
106.9399700928
 10
154.9372978234
 20
107.0488387932
 10
155.0524584209
 20
107.1511567311
 10
155.1737401859
 20
107.2466787903
 10
155.3007001097
 20
107.3349928332
 10
155.4326619368
 20
107.415593197
 10
155.5692855561
 20
107.4882430669
 10
155.7101748659
 20
107.5526757871
 10
155.8545118636
 20
107.6085170387
 10
156.0018953012
 20
107.6556568278
 10
156.1519264981
 20
107.693980466
 10
156.3037321043
 20
107.7232908302
 10
156.4567220346
 20
107.7435223208
 10
156.6106222157
 20
107.7546580044
 10
156.721355547
 20
107.7570159481
  0
LINE
  5
385
100
AcDbEntity
  8
CONTATTI
100
AcDbLine
 62
7
  6
CONTINUOUS
 10
157.121355547
 20
106.7575501212
 11
155.971355547
 21
106.7575501212
  0
LINE
  5
386
100
AcDbEntity
  8
CONTATTI
100
AcDbLine
 62
253
  6
CONTINUOUS
 10
155.971355547
 20
106.7975501212
 11
155.0822777189
 21
106.7975501212
  0
LINE
  5
387
100
AcDbEntity
  8
RACCORDO
100
AcDbLine
 62
7
  6
CONTINUOUS
 10
157.0208333142
 20
106.8080709832
 11
157.121355547
 21
106.8080709832
  0
LINE
  5
388
100
AcDbEntity
  8
RACCORDO
100
AcDbLine
 62
7
  6
CONTINUOUS
 10
156.9716118379
 20
106.8572924594
 11
157.121355547
 21
106.8572924594
  0
LINE
  5
389
100
AcDbEntity
  8
SMUSSO
100
AcDbLine
 62
7
  6
CONTINUOUS
 10
156.854260791
 20
107.1746448772
 11
156.454260791
 21
107.1746448772
  0
LINE
  5
38A
100
AcDbEntity
  8
CONTATTI
100
AcDbLine
 62
7
  6
CONTINUOUS
 10
155.3212593552
 20
107.3475501212
 11
155.971355547
 21
107.3475501212
  0
LINE
  5
38B
100
AcDbEntity
  8
CONTATTI
100
AcDbLine
 62
7
  6
CONTINUOUS
 10
155.3376317164
 20
107.3575501212
 11
155.471355547
 21
107.3575501212
  0
LINE
  5
38C
100
AcDbEntity
  8
CONTATTI
100
AcDbLine
 62
7
  6
CONTINUOUS
 10
155.3540040777
 20
107.3675501212
 11
155.971355547
 21
107.3675501212
  0
LINE
  5
38D
100
AcDbEntity
  8
RACCORDO
100
AcDbLine
 62
7
  6
CONTINUOUS
 10
155.9801908809
 20
107.6487147873
 11
156.454260791
 21
107.1746448772
  0
LINE
  5
38E
100
AcDbEntity
  8
RACCORDO
100
AcDbLine
 62
253
  6
CONTINUOUS
 10
156.9716118379
 20
106.8572924594
 11
157.0208333142
 21
106.8080709832
  0
LINE
  5
38F
100
AcDbEntity
  8
RACCORDO
100
AcDbLine
 62
7
  6
CONTINUOUS
 10
156.305394943
 20
107.7235107251
 11
156.854260791
 21
107.1746448772
  0
LINE
  5
390
100
AcDbEntity
  8
CONTATTI
100
AcDbLine
 62
253
  6
CONTINUOUS
 10
158.2499908938
 20
116.6522641558
 11
158.2513501692
 21
116.5575501212
  0
LINE
  5
391
100
AcDbEntity
  8
0
100
AcDbLine
 62
7
  6
CONTINUOUS
 10
157.721355547
 20
131.1558013876
 11
157.721355547
 21
129.7418277874
  0
LINE
  5
392
100
AcDbEntity
  8
0
100
AcDbLine
 62
7
  6
CONTINUOUS
 10
157.721355547
 20
84.973272455
 11
157.721355547
 21
83.5592988548
  0
LINE
  5
393
100
AcDbEntity
  8
0
100
AcDbLine
 62
253
  6
CONTINUOUS
 10
157.921355547
 20
84.9837540108
 11
157.921355547
 21
83.3593022394
  0
LINE
  5
394
100
AcDbEntity
  8
0
100
AcDbLine
 62
253
  6
CONTINUOUS
 10
157.921355547
 20
129.7313462315
 11
157.921355547
 21
131.3557980029
  0
LWPOLYLINE
  5
395
100
AcDbEntity
  8
CONTATTI
100
AcDbPolyline
 62
7
  6
CONTINUOUS
 90
4
 70
0
 10
158.8181635151
 20
116.5575501212
 10
158.8129627384
 20
116.3805290926
 10
158.7973880367
 20
116.2040766011
 10
158.7794700963
 20
116.0828255608
  0
LWPOLYLINE
  5
396
100
AcDbEntity
  8
CONTATTI
100
AcDbPolyline
 62
253
  6
CONTINUOUS
 90
7
 70
0
 10
158.2513501692
 20
116.5575501212
 10
158.2470711665
 20
116.415781942
 10
158.2342618181
 20
116.2745110065
 10
158.2129635169
 20
116.134233832
 10
158.1832313585
 20
115.9954448771
 10
158.1451752491
 20
115.8586303653
 10
158.1245825544
 20
115.7988170849
  0
LWPOLYLINE
  5
397
100
AcDbEntity
  8
RACCORDO
100
AcDbPolyline
 62
253
  6
CONTINUOUS
 90
34
 70
0
 10
159.421338834
 20
116.8575501212
 10
159.413793916
 20
116.6711979537
 10
159.3943977112
 20
116.4883093669
 10
159.3631502195
 20
116.3088844553
 10
159.3191916213
 20
116.1315796736
 10
159.2633817363
 20
115.9577387283
 10
159.1983000232
 20
115.7913926583
 10
159.1234830386
 20
115.6331095651
 10
159.039394226
 20
115.4823216342
 10
158.9500033749
 20
115.3413561224
 10
158.8554743777
 20
115.2110423271
 10
158.7556433419
 20
115.0905512338
 10
158.6539883793
 20
114.9797226429
 10
158.5509783251
 20
114.8790054244
 10
158.4461443442
 20
114.7879509081
 10
158.3415580429
 20
114.7050525535
 10
158.2375141657
 20
114.6303361896
 10
158.1337179681
 20
114.563776105
 10
158.0313568226
 20
114.503788417
 10
157.9306395971
 20
114.4503171838
 10
157.8313574237
 20
114.4034184124
 10
157.7340710712
 20
114.3616761224
 10
157.6389365668
 20
114.3250089747
 10
157.5457978834
 20
114.2934983428
 10
157.4547477089
 20
114.2659723023
 10
157.3658602375
 20
114.2423354357
 10
157.2790612749
 20
114.2226831775
 10
157.1942209268
 20
114.2061298753
 10
157.111469762
 20
114.1925936495
 10
157.0306772115
 20
114.1821563873
 10
156.9513216749
 20
114.1741780835
 10
156.8732292851
 20
114.1684454037
 10
156.7965739092
 20
114.165171685
 10
156.721355547
 20
114.164356928
  0
LINE
  5
398
100
AcDbEntity
  8
0
100
AcDbLine
 62
7
  6
CONTINUOUS
 10
161.171355547
 20
129.7575501212
 11
161.1626288023
 21
129.6789384523
  0
LINE
  5
399
100
AcDbEntity
  8
CONTATTI
100
AcDbLine
 62
253
  6
CONTINUOUS
 10
158.6901807455
 20
106.8704523485
 11
158.6856019646
 21
106.8609984065
  0
LINE
  5
39A
100
AcDbEntity
  8
CONTATTI
100
AcDbLine
 62
253
  6
CONTINUOUS
 10
158.7039916214
 20
106.898474868
 11
158.6901807455
 21
106.8704523485
  0
LWPOLYLINE
  5
39B
100
AcDbEntity
  8
CONTATTI
100
AcDbPolyline
 62
253
  6
CONTINUOUS
 90
8
 70
0
 10
158.8514483364
 20
107.1749375909
 10
158.8251259054
 20
107.1285968843
 10
158.8010215609
 20
107.0850437105
 10
158.7791519441
 20
107.0445645884
 10
158.7595210983
 20
107.0074252767
 10
158.7421616038
 20
106.9739486708
 10
158.7271187536
 20
106.9444883061
 10
158.7039916214
 20
106.898474868
  0
LWPOLYLINE
  5
39C
100
AcDbEntity
  8
CONTATTI
100
AcDbPolyline
 62
253
  6
CONTINUOUS
 90
6
 70
0
 10
158.9186821019
 20
107.2844409087
 10
158.9056729667
 20
107.2642597693
 10
158.8914055643
 20
107.2416064083
 10
158.8776127882
 20
107.2191690587
 10
158.8642936792
 20
107.1969461045
 10
158.8514483364
 20
107.1749375909
  0
LWPOLYLINE
  5
39D
100
AcDbEntity
  8
RACCORDO
100
AcDbPolyline
 62
7
  6
CONTINUOUS
 90
5
 70
0
 10
156.9708349737
 20
106.7946728989
 10
156.9825663036
 20
106.8004583264
 10
156.9949523464
 20
106.8046630589
 10
157.0077811822
 20
106.8072151638
 10
157.0208333142
 20
106.8080709832
  0
LINE
  5
39E
100
AcDbEntity
  8
CONTATTI
100
AcDbLine
 62
7
  6
CONTINUOUS
 10
155.021355547
 20
108.6475501212
 11
154.9400429162
 21
108.6475501212
  0
LINE
  5
39F
100
AcDbEntity
  8
CONTATTI
100
AcDbLine
 62
253
  6
CONTINUOUS
 10
155.1036248175
 20
108.8475501212
 11
155.221355547
 21
108.8475501212
  0
LINE
  5
3A0
100
AcDbEntity
  8
RACCORDO
100
AcDbLine
 62
253
  6
CONTINUOUS
 10
156.1222206182
 20
109.1084190001
 11
155.8222168105
 21
109.1084190001
  0
LINE
  5
3A1
100
AcDbEntity
  8
RACCORDO
100
AcDbLine
 62
7
  6
CONTINUOUS
 10
156.0222244259
 20
109.2084151924
 11
155.8222168105
 21
109.2084151924
  0
LINE
  5
3A2
100
AcDbEntity
  8
RACCORDO
100
AcDbLine
 62
7
  6
CONTINUOUS
 10
155.8985847352
 20
109.2847831171
 11
156.0985923506
 21
109.2847831171
  0
LINE
  5
3A3
100
AcDbEntity
  8
RACCORDO
100
AcDbLine
 62
253
  6
CONTINUOUS
 10
155.7222206182
 20
109.3084113847
 11
155.7054644295
 21
109.3084113847
  0
LWPOLYLINE
  5
3A4
100
AcDbEntity
  8
CONTATTI
100
AcDbPolyline
 62
7
  6
CONTINUOUS
 90
16
 70
0
 10
156.721355547
 20
107.7570159484
 10
156.8274819686
 20
107.7548253274
 10
156.9804879187
 20
107.7439779436
 10
157.1331548635
 20
107.7240631447
 10
157.2850786973
 20
107.6950640862
 10
157.4355615288
 20
107.657007424
 10
157.5836381719
 20
107.6100416266
 10
157.7288014927
 20
107.5542323251
 10
157.8705184707
 20
107.4896529706
 10
158.0078706621
 20
107.4167266768
 10
158.1403928605
 20
107.3358489874
 10
158.2677052404
 20
107.2473703363
 10
158.3891042284
 20
107.1518938489
 10
158.5041062372
 20
107.0499316551
 10
158.6124281048
 20
106.9418375231
 10
158.6856019646
 20
106.8609984065
  0
LWPOLYLINE
  5
3A5
100
AcDbEntity
  8
CONTATTI
100
AcDbPolyline
 62
7
  6
CONTINUOUS
 90
19
 70
0
 10
156.721355547
 20
108.6075501212
 10
156.8700848707
 20
108.603438055
 10
157.0184174877
 20
108.5911322637
 10
157.1659088315
 20
108.5706788439
 10
157.3121305387
 20
108.5421200564
 10
157.4566104642
 20
108.5055073535
 10
157.5988524069
 20
108.4609579093
 10
157.7384111891
 20
108.408641521
 10
157.8748933378
 20
108.3487133318
 10
158.0078958603
 20
108.2813263909
 10
158.1370369332
 20
108.206633408
 10
158.2618970321
 20
108.1248900322
 10
158.3820209467
 20
108.0364174201
 10
158.4970159397
 20
107.9415129892
 10
158.6065525358
 20
107.8404272532
 10
158.7103138543
 20
107.7334582002
 10
158.8080140695
 20
107.6209454964
 10
158.8993624292
 20
107.5032381667
 10
158.916883504
 20
107.4778888139
  0
LWPOLYLINE
  5
3A6
100
AcDbEntity
  8
CONTATTI
100
AcDbPolyline
 62
7
  6
CONTINUOUS
 90
16
 70
0
 10
156.721355547
 20
108.8172852506
 10
156.8816848007
 20
108.8128217995
 10
157.0416427893
 20
108.8003339166
 10
157.2008682676
 20
108.7797857771
 10
157.3590185679
 20
108.751136995
 10
157.515704149
 20
108.7143564304
 10
157.6704930059
 20
108.6694987062
 10
157.8229901652
 20
108.6166931387
 10
157.9728566078
 20
108.5560551355
 10
158.1197439363
 20
108.4876976452
 10
158.2633286749
 20
108.4117280983
 10
158.4032468459
 20
108.3283367606
 10
158.5390931013
 20
108.2377746474
 10
158.6705303224
 20
108.1402688177
 10
158.7972917278
 20
108.0359962574
 10
158.8197269025
 20
108.015573996
  0
LWPOLYLINE
  5
3A7
100
AcDbEntity
  8
CONTATTI
100
AcDbPolyline
 62
253
  6
CONTINUOUS
 90
16
 70
0
 10
156.721355547
 20
108.2794786325
 10
156.8850337133
 20
108.274352617
 10
157.0484141859
 20
108.2588481465
 10
157.2109157553
 20
108.23296393
 10
157.3721480042
 20
108.1966556658
 10
157.5312708427
 20
108.1499784077
 10
157.6871114033
 20
108.0932182028
 10
157.8391379903
 20
108.0265577434
 10
157.9868896708
 20
107.9501554078
 10
158.129434631
 20
107.8644899859
 10
158.2663344615
 20
107.7698916575
 10
158.3972812147
 20
107.6666102147
 10
158.5216683551
 20
107.5551481333
 10
158.6390486829
 20
107.435888606
 10
158.7491068379
 20
107.3090551986
 10
158.8514483364
 20
107.1749375909
  0
LWPOLYLINE
  5
3A8
100
AcDbEntity
  8
RACCORDO
100
AcDbPolyline
 62
253
  6
CONTINUOUS
 90
13
 70
0
 10
155.8222168105
 20
109.2084151924
 10
155.8091184201
 20
109.2092756272
 10
155.7962624377
 20
109.2118397864
 10
155.7838684343
 20
109.2160570516
 10
155.7721523641
 20
109.2218455129
 10
155.7613049719
 20
109.2291020776
 10
155.7514933337
 20
109.2377116629
 10
155.7428823512
 20
109.2475323114
 10
155.7356236381
 20
109.2583941782
 10
155.7298400461
 20
109.2701170805
 10
155.7256326879
 20
109.282503663
 10
155.7230772863
 20
109.2953415365
 10
155.7222206182
 20
109.3084113847
  0
LWPOLYLINE
  5
3A9
100
AcDbEntity
  8
RACCORDO
100
AcDbPolyline
 62
253
  6
CONTINUOUS
 90
12
 70
0
 10
155.8222168105
 20
109.1084190001
 10
155.7953334618
 20
109.1104070621
 10
155.7697747393
 20
109.1155069968
 10
155.7455406429
 20
109.123718804
 10
155.7222783235
 20
109.135283218
 10
155.7003406302
 20
109.1499595047
 10
155.6807861108
 20
109.1670254612
 10
155.6637231078
 20
109.1866014083
 10
155.6490432787
 20
109.2085670253
 10
155.6374801439
 20
109.2318391479
 10
155.6292782103
 20
109.2560567213
 10
155.6273641523
 20
109.2656638534
  0
LINE
  5
3AA
100
AcDbEntity
  8
CONTATTI
100
AcDbLine
 62
253
  6
CONTINUOUS
 10
158.8514483364
 20
107.1749375909
 11
158.9049460389
 21
107.1005882965
  0
LINE
  5
3AB
100
AcDbEntity
  8
0
100
AcDbLine
 62
7
  6
CONTINUOUS
 10
161.1626288023
 20
85.0361617901
 11
161.171355547
 21
84.9575501212
  0
LINE
  5
3AC
100
AcDbEntity
  8
0
100
AcDbLine
 62
7
  6
CONTINUOUS
 10
160.221355547
 20
131.3488233765
 11
160.221355547
 21
129.6789384523
  0
LINE
  5
3AD
100
AcDbEntity
  8
0
100
AcDbLine
 62
7
  6
CONTINUOUS
 10
160.221355547
 20
85.0361617901
 11
160.221355547
 21
83.3662768659
  0
LWPOLYLINE
  5
3AE
100
AcDbEntity
  8
RACCORDO
100
AcDbPolyline
 62
253
  6
CONTINUOUS
 90
37
 70
0
 10
159.421338834
 20
97.8575501212
 10
159.4157283092
 20
97.6805547314
 10
159.3996026864
 20
97.5067833289
 10
159.3729619655
 20
97.336236153
 10
159.3351032393
 20
97.1678439023
 10
159.286729415
 20
97.0026762804
 10
159.2299492142
 20
96.84394146
 10
159.1644169478
 20
96.6920453775
 10
159.090478305
 20
96.5465809713
 10
159.0112790753
 20
96.4095360076
 10
158.9268313811
 20
96.2814732919
 10
158.8371231001
 20
96.1618279339
 10
158.7452636539
 20
96.0508957549
 10
158.6516400615
 20
95.9491560535
 10
158.555865304
 20
95.8561273764
 10
158.4598877465
 20
95.7706645558
 10
158.3639671516
 20
95.6928298295
 10
158.2678437567
 20
95.6225593543
 10
158.1726866384
 20
95.5585191853
 10
158.0786772763
 20
95.5006769924
 10
157.9856341909
 20
95.4490640364
 10
157.8941820203
 20
95.4024420527
 10
157.8044570253
 20
95.3607524441
 10
157.7163229452
 20
95.3240531515
 10
157.6299956356
 20
95.2912809231
 10
157.5455743224
 20
95.2623659398
 10
157.4629597798
 20
95.2373776461
 10
157.3820701864
 20
95.2154618129
 10
157.3029526684
 20
95.1965441004
 10
157.2255600995
 20
95.1806986497
 10
157.1496692803
 20
95.1672940256
 10
157.0753561499
 20
95.1562658518
 10
157.0025447692
 20
95.1476784085
 10
156.9307841203
 20
95.1410932828
 10
156.859923864
 20
95.1363643269
 10
156.7901143395
 20
95.1336376522
 10
156.721355547
 20
95.1329132497
  0
LWPOLYLINE
  5
3AF
100
AcDbEntity
  8
0
100
AcDbPolyline
 62
7
  6
CONTINUOUS
 90
9
 70
0
 10
163.9739000728
 20
131.6431324873
 10
163.9758731793
 20
131.6548664087
 10
163.9784023653
 20
131.66649316
 10
163.9814819053
 20
131.6779864002
 10
163.9851048256
 20
131.689320095
 10
163.9892629212
 20
131.7004685705
 10
163.9939467748
 20
131.7114065675
 10
163.9991457781
 20
131.7221093088
 10
164.0048481553
 20
131.7325525495
  0
LINE
  5
3B0
100
AcDbEntity
  8
0
100
AcDbLine
 62
253
  6
CONTINUOUS
 10
167.3708633935
 20
129.7575501212
 11
167.2576980695
 21
129.4177780638
  0
LINE
  5
3B1
100
AcDbEntity
  8
0
100
AcDbLine
 62
253
  6
CONTINUOUS
 10
167.8704827937
 20
129.2573212691
 11
167.7576335553
 21
128.9184982395
  0
LWPOLYLINE
  5
3B2
100
AcDbEntity
  8
RACCORDO
100
AcDbPolyline
 62
253
  6
CONTINUOUS
 90
67
 70
0
 10
156.721355547
 20
110.0602528239
 10
156.7944864907
 20
110.0595180611
 10
156.8692588141
 20
110.0564034864
 10
156.9456725172
 20
110.0509090997
 10
157.0235575534
 20
110.0432607665
 10
157.1030839694
 20
110.0332326203
 10
157.1847619046
 20
110.0201470617
 10
157.268760228
 20
110.0040711753
 10
157.3549100707
 20
109.9849378738
 10
157.4432149649
 20
109.9618682984
 10
157.5337315504
 20
109.9349468494
 10
157.6264031874
 20
109.9040891205
 10
157.7210634893
 20
109.8681630404
 10
157.8178589173
 20
109.8272363378
 10
157.9166430101
 20
109.7812412727
 10
158.0168099967
 20
109.7288425671
 10
158.118550054
 20
109.6700834784
 10
158.2216730052
 20
109.6049207304
 10
158.325002549
 20
109.5318892392
 10
158.4287872539
 20
109.450979712
 10
158.5327785514
 20
109.3622014138
 10
158.6350544347
 20
109.2641170913
 10
158.7359787241
 20
109.1564937825
 10
158.8351875994
 20
109.0395644143
 10
158.9296675929
 20
108.9125905623
 10
159.0196933312
 20
108.7750606597
 10
159.1049901879
 20
108.6274862419
 10
159.1817208156
 20
108.4706635408
 10
159.249836082
 20
108.3038383411
 10
159.3093851195
 20
108.1277648515
 10
159.356677978
 20
107.9455019551
 10
159.3910887846
 20
107.7560794997
 10
159.4132434122
 20
107.5604676719
 10
159.4213295292
 20
107.3646358803
 10
159.4141908707
 20
107.1684886864
 10
159.3929837016
 20
106.9721215888
 10
159.3593644851
 20
106.7817904019
 10
159.3126375857
 20
106.5984833766
 10
159.2534986387
 20
106.421212298
 10
159.1856910133
 20
106.2532682646
 10
159.1091862755
 20
106.0955020216
 10
159.0240128591
 20
105.9470628174
 10
158.9339994354
 20
105.8086894908
 10
158.8393886882
 20
105.6808504842
 10
158.7399379335
 20
105.563077324
 10
158.6387477909
 20
105.4547034711
 10
158.5362050482
 20
105.3559954544
 10
158.4319229176
 20
105.2666867093
 10
158.3278416549
 20
105.1853110607
 10
158.2242099464
 20
105.1118734202
 10
158.1207791057
 20
105.0463688482
 10
158.0187433297
 20
104.9873163998
 10
157.9182952887
 20
104.9346724623
 10
157.8192423124
 20
104.8884806295
 10
157.7222005864
 20
104.8473907725
 10
157.6273163269
 20
104.8113341503
 10
157.5344433177
 20
104.7803794925
 10
157.4437590964
 20
104.7533828803
 10
157.3553518313
 20
104.7302623852
 10
157.269133354
 20
104.7110999296
 10
157.1850166976
 20
104.6949973727
 10
157.1030812257
 20
104.681877413
 10
157.0232475746
 20
104.6718173491
 10
156.9451906869
 20
104.6641509421
 10
156.8688022102
 20
104.6586561118
 10
156.7941904969
 20
104.6555549374
 10
156.721355547
 20
104.6548474185
  0
LWPOLYLINE
  5
3B3
100
AcDbEntity
  8
RACCORDO
100
AcDbPolyline
 62
253
  6
CONTINUOUS
 90
16
 70
0
 10
146.5786362959
 20
129.8921776638
 10
146.5801725992
 20
129.8896599295
 10
146.584440412
 20
129.8872295418
 10
146.5913661472
 20
129.8848865004
 10
146.6008410957
 20
129.8826095365
 10
146.6127412716
 20
129.880419919
 10
146.6269452747
 20
129.8783814552
 10
146.6432820496
 20
129.8764989523
 10
146.6615757411
 20
129.874767603
 10
146.6816999944
 20
129.8732367932
 10
146.7034696762
 20
129.8719093056
 10
146.726643839
 20
129.8707823575
 10
146.7510072275
 20
129.8698969857
 10
146.7763133979
 20
129.8692668693
 10
146.8022826673
 20
129.8688783293
 10
146.8286320651
 20
129.8687313656
  0
LINE
  5
3B4
100
AcDbEntity
  8
0
100
AcDbLine
 62
253
  6
CONTINUOUS
 10
167.2576980695
 20
85.2973221785
 11
167.3708633935
 21
84.9575501212
  0
LINE
  5
3B5
100
AcDbEntity
  8
0
100
AcDbLine
 62
253
  6
CONTINUOUS
 10
167.7576219171
 20
85.7966369459
 11
167.8704827937
 21
85.4577789733
  0
LWPOLYLINE
  5
3B6
100
AcDbEntity
  8
DRAFT
100
AcDbPolyline
 62
7
  6
CONTINUOUS
 90
9
 70
0
 10
158.2035421816
 20
115.2321198505
 10
158.1804472316
 20
115.3337340593
 10
158.1509523613
 20
115.5077157728
 10
158.1311656073
 20
115.6830566811
 10
158.1211475886
 20
115.8592196097
 10
158.1209297942
 20
116.0356949074
 10
158.1305187182
 20
116.2119517301
 10
158.1498902504
 20
116.3874393849
 10
158.1789899535
 20
116.5616190921
  0
LWPOLYLINE
  5
3B7
100
AcDbEntity
  8
CONTATTI
100
AcDbPolyline
 62
7
  6
CONTINUOUS
 90
10
 70
0
 10
158.7398261573
 20
117.3879482348
 10
158.7588221838
 20
117.2962118781
 10
158.7747136169
 20
117.2040688242
 10
158.7877201316
 20
117.1116782412
 10
158.7980614144
 20
117.0191992383
 10
158.8059644573
 20
116.9267536395
 10
158.8116760622
 20
116.8343621714
 10
158.8154463557
 20
116.742028591
 10
158.8175254644
 20
116.6497566553
 10
158.8181635151
 20
116.5575501212
  0
LINE
  5
3B8
100
AcDbEntity
  8
DRAFT
100
AcDbLine
 62
7
  6
CONTINUOUS
 10
158.1789899535
 20
116.5616190921
 11
157.872849152
 21
118.7316349733
  0
LINE
  5
3B9
100
AcDbEntity
  8
0
100
AcDbLine
 62
7
  6
CONTINUOUS
 10
161.1626288023
 20
83.3662768659
 11
161.1626288023
 21
85.0361617901
  0
LINE
  5
3BA
100
AcDbEntity
  8
0
100
AcDbLine
 62
7
  6
CONTINUOUS
 10
161.1626288023
 20
129.6789384523
 11
161.1626288023
 21
131.3488233765
  0
LINE
  5
3BB
100
AcDbEntity
  8
0
100
AcDbLine
 62
7
  6
CONTINUOUS
 10
161.171355547
 20
84.9575501212
 11
161.171355547
 21
83.3575501212
  0
LINE
  5
3BC
100
AcDbEntity
  8
0
100
AcDbLine
 62
7
  6
CONTINUOUS
 10
161.171355547
 20
129.7575501212
 11
161.171355547
 21
131.3575501212
  0
LWPOLYLINE
  5
3BD
100
AcDbEntity
  8
0
100
AcDbPolyline
 62
253
  6
CONTINUOUS
 90
12
 70
0
 10
167.7576335553
 20
128.9184982395
 10
167.7573488039
 20
128.9173952524
 10
167.7570654841
 20
128.9157667709
 10
167.7567835957
 20
128.913612795
 10
167.75650286
 20
128.910929986
 10
167.7562235558
 20
128.9077216826
 10
167.7559465195
 20
128.9039979008
 10
167.7556717405
 20
128.8997569242
 10
167.7553992295
 20
128.8950004692
 10
167.7551298543
 20
128.8897437013
 10
167.754863625
 20
128.8839850265
 10
167.754341412
 20
128.8709866853
  0
LWPOLYLINE
  5
3BE
100
AcDbEntity
  8
0
100
AcDbPolyline
 62
7
  6
CONTINUOUS
 90
12
 70
0
 10
149.4378629386
 20
131.7325525495
 10
149.4435653158
 20
131.7221093088
 10
149.4487643192
 20
131.7114065675
 10
149.4534481728
 20
131.7004685705
 10
149.4576062683
 20
131.689320095
 10
149.4612291887
 20
131.6779864002
 10
149.4643087287
 20
131.66649316
 10
149.4668379147
 20
131.6548664087
 10
149.4688110211
 20
131.6431324873
 10
149.4702235812
 20
131.6313179768
 10
149.4710723967
 20
131.6194496372
 10
149.471355547
 20
131.607554352
  0
LWPOLYLINE
  5
3BF
100
AcDbEntity
  8
CONTATTI
100
AcDbPolyline
 62
253
  6
CONTINUOUS
 90
12
 70
0
 10
158.0325134432
 20
117.599887601
 10
158.0443648244
 20
117.5766368374
 10
158.0833749222
 20
117.4890183997
 10
158.1179167863
 20
117.3995955563
 10
158.1480816868
 20
117.3087048329
 10
158.1739768684
 20
117.2166631273
 10
158.1957734735
 20
117.1237088257
 10
158.2136586189
 20
117.0300606864
 10
158.2278194215
 20
116.9359374677
 10
158.2384490706
 20
116.8415341958
 10
158.2457650444
 20
116.7469509696
 10
158.2499908938
 20
116.6522641558
  0
LINE
  5
3C0
100
AcDbEntity
  8
0
100
AcDbLine
 62
253
  6
CONTINUOUS
 10
163.9844541257
 20
83.5132125539
 11
163.9786362959
 21
84.0905628231
  0
LINE
  5
3C1
100
AcDbEntity
  8
0
100
AcDbLine
 62
253
  6
CONTINUOUS
 10
164.2344498949
 20
83.7297189048
 11
164.2293592938
 21
84.2349003904
  0
LINE
  5
3C2
100
AcDbEntity
  8
RACCORDO
100
AcDbLine
 62
7
  6
CONTINUOUS
 10
163.971355547
 20
130.7680352694
 11
163.971355547
 21
129.9577636115
  0
LINE
  5
3C3
100
AcDbEntity
  8
RACCORDO
100
AcDbLine
 62
7
  6
CONTINUOUS
 10
163.971355547
 20
84.7573366309
 11
163.971355547
 21
83.947064973
  0
LINE
  5
3C4
100
AcDbEntity
  8
0
100
AcDbLine
 62
7
  6
CONTINUOUS
 10
163.971355547
 20
83.1075458904
 11
163.971355547
 21
83.947064973
  0
LINE
  5
3C5
100
AcDbEntity
  8
0
100
AcDbLine
 62
7
  6
CONTINUOUS
 10
163.971355547
 20
130.7680352694
 11
163.971355547
 21
131.607554352
  0
LINE
  5
3C6
100
AcDbEntity
  8
RACCORDO
100
AcDbLine
 62
7
  6
CONTINUOUS
 10
163.9786362959
 20
130.6245374193
 11
163.9786362959
 21
129.8921776638
  0
LINE
  5
3C7
100
AcDbEntity
  8
RACCORDO
100
AcDbLine
 62
7
  6
CONTINUOUS
 10
163.9786362959
 20
84.8229225786
 11
163.9786362959
 21
84.0905628231
  0
LINE
  5
3C8
100
AcDbEntity
  8
0
100
AcDbLine
 62
7
  6
CONTINUOUS
 10
163.9844541257
 20
131.5944557733
 11
163.9844541257
 21
131.2018876885
  0
LINE
  5
3C9
100
AcDbEntity
  8
0
100
AcDbLine
 62
7
  6
CONTINUOUS
 10
163.9844541257
 20
83.5132125539
 11
163.9844541257
 21
83.1206444691
  0
LINE
  5
3CA
100
AcDbEntity
  8
RACCORDO
100
AcDbLine
 62
253
  6
CONTINUOUS
 10
164.2286320651
 20
85.0460947837
 11
164.2286320651
 21
84.2349003904
  0
LINE
  5
3CB
100
AcDbEntity
  8
RACCORDO
100
AcDbLine
 62
253
  6
CONTINUOUS
 10
164.2286320651
 20
129.6690054587
 11
164.2286320651
 21
130.480199852
  0
LINE
  5
3CC
100
AcDbEntity
  8
0
100
AcDbLine
 62
253
  6
CONTINUOUS
 10
164.2344498949
 20
82.8706486999
 11
164.2344498949
 21
83.7297189048
  0
LINE
  5
3CD
100
AcDbEntity
  8
0
100
AcDbLine
 62
253
  6
CONTINUOUS
 10
164.2344498949
 20
130.9853813375
 11
164.2344498949
 21
131.8444515425
  0
LINE
  5
3CE
100
AcDbEntity
  8
0
100
AcDbLine
 62
253
  6
CONTINUOUS
 10
163.9786362959
 20
130.6245374193
 11
163.9844541257
 21
131.2018876885
  0
LINE
  5
3CF
100
AcDbEntity
  8
0
100
AcDbLine
 62
253
  6
CONTINUOUS
 10
164.2293592938
 20
130.480199852
 11
164.2344498949
 21
130.9853813375
  0
LWPOLYLINE
  5
3D0
100
AcDbEntity
  8
0
100
AcDbPolyline
 62
7
  6
CONTINUOUS
 90
4
 70
0
 10
163.971355547
 20
131.607554352
 10
163.9716386972
 20
131.6194496372
 10
163.9724875127
 20
131.6313179768
 10
163.9739000728
 20
131.6431324873
  0
LWPOLYLINE
  5
3D1
100
AcDbEntity
  8
0
100
AcDbPolyline
 62
7
  6
CONTINUOUS
 90
34
 70
0
 10
163.9844541257
 20
131.5944557733
 10
163.9847376765
 20
131.6063507948
 10
163.9855868814
 20
131.6182188714
 10
163.9869998168
 20
131.6300331194
 10
163.9889732821
 20
131.6417667766
 10
163.9915028069
 20
131.6533932638
 10
163.9945826613
 20
131.6648862444
 10
163.9982058687
 20
131.6762196843
 10
164.0023642217
 20
131.6873679105
 10
164.0070483008
 20
131.6983056699
 10
164.0122474955
 20
131.7090081861
 10
164.0179500283
 20
131.7194512153
 10
164.0241429819
 20
131.7296111019
 10
164.0308123277
 20
131.7394648314
 10
164.0379429582
 20
131.7489900829
 10
164.045518721
 20
131.7581652796
 10
164.0535224552
 20
131.7669696375
 10
164.0619360306
 20
131.7753832129
 10
164.0707403886
 20
131.7833869471
 10
164.0799155852
 20
131.7909627099
 10
164.0894408367
 20
131.7980933405
 10
164.0992945662
 20
131.8047626863
 10
164.1094544528
 20
131.8109556398
 10
164.1198974821
 20
131.8166581727
 10
164.1305999982
 20
131.8218573674
 10
164.1415377577
 20
131.8265414464
 10
164.1526859839
 20
131.8306997995
 10
164.1640194237
 20
131.8343230069
 10
164.1755124043
 20
131.8374028613
 10
164.1871388916
 20
131.839932386
 10
164.1988725488
 20
131.8419058513
 10
164.2106867967
 20
131.8433187867
 10
164.2225548734
 20
131.8441679917
 10
164.2344498949
 20
131.8444515425
  0
LINE
  5
3D2
100
AcDbEntity
  8
RACCORDO
100
AcDbLine
 62
253
  6
CONTINUOUS
 10
167.0640714134
 20
129.6924517569
 11
167.0712980353
 21
129.7575501212
  0
LWPOLYLINE
  5
3D3
100
AcDbEntity
  8
0
100
AcDbPolyline
 62
253
  6
CONTINUOUS
 90
9
 70
0
 10
167.2576978852
 20
129.4177780638
 10
167.2574137285
 20
129.4155424383
 10
167.2571309352
 20
129.412248617
 10
167.2568495054
 20
129.4079001005
 10
167.2565691362
 20
129.4025015104
 10
167.2562901303
 20
129.3960585823
 10
167.2560133968
 20
129.388578159
 10
167.2557389499
 20
129.3800681845
 10
167.2551977386
 20
129.3599968321
  0
LWPOLYLINE
  5
3D4
100
AcDbEntity
  8
0
100
AcDbPolyline
 62
7
  6
CONTINUOUS
 90
12
 70
0
 10
149.4378629386
 20
82.9825476929
 10
149.4316701051
 20
82.9723876153
 10
149.4250008425
 20
82.9625337161
 10
149.4178702577
 20
82.9530083173
 10
149.4102945058
 20
82.9438330021
 10
149.4022907475
 20
82.9350285551
 10
149.3938771131
 20
82.9266149207
 10
149.385072666
 20
82.9186111623
 10
149.3758973508
 20
82.9110354105
 10
149.3663719521
 20
82.9039048257
 10
149.3565180529
 20
82.8972355631
 10
149.3463579752
 20
82.8910427295
  0
LWPOLYLINE
  5
3D5
100
AcDbEntity
  8
RACCORDO
100
AcDbPolyline
 62
253
  6
CONTINUOUS
 90
34
 70
0
 10
156.721355547
 20
114.164356928
 10
156.6456440533
 20
114.1652155921
 10
156.5687035006
 20
114.1685137403
 10
156.490533889
 20
114.174251372
 10
156.4113890321
 20
114.1822131302
 10
156.3310151162
 20
114.1926143691
 10
156.2486507004
 20
114.2061011539
 10
156.1640615774
 20
114.2226011425
 10
156.0774819544
 20
114.2421866695
 10
155.9888530124
 20
114.265720812
 10
155.8981339204
 20
114.2931034311
 10
155.8053655094
 20
114.324434649
 10
155.7106114533
 20
114.3608779287
 10
155.6137148036
 20
114.4023504606
 10
155.5148325088
 20
114.4489350206
 10
155.4144990886
 20
114.5020434369
 10
155.3125042168
 20
114.5616192598
 10
155.2090582195
 20
114.6277188747
 10
155.1053265943
 20
114.7019233426
 10
155.0010300186
 20
114.7842358702
 10
154.8964478149
 20
114.874653135
 10
154.7935834486
 20
114.9747463713
 10
154.6919603374
 20
115.0849304337
 10
154.5920550634
 20
115.2047902693
 10
154.4973008385
 20
115.3346522179
 10
154.4074822138
 20
115.4753733566
 10
154.3228146381
 20
115.6260963215
 10
154.2473776693
 20
115.7845758
 10
154.1816195106
 20
115.9514074154
 10
154.1250919588
 20
116.1259952478
 10
154.0805299629
 20
116.3043067594
 10
154.0488451727
 20
116.4849977405
 10
154.0291259384
 20
116.6694122281
 10
154.02137226
 20
116.8575501212
  0
LINE
  5
3D6
100
AcDbEntity
  8
RACCORDO
100
AcDbLine
 62
253
  6
CONTINUOUS
 10
167.0712980353
 20
84.9575501212
 11
167.0640714134
 21
85.0226484855
  0
LWPOLYLINE
  5
3D7
100
AcDbEntity
  8
0
100
AcDbPolyline
 62
7
  6
CONTINUOUS
 90
46
 70
0
 10
163.9786362959
 20
130.6245374193
 10
163.9788085472
 20
130.619958765
 10
163.979234623
 20
130.6153634575
 10
163.9799168406
 20
130.6107586085
 10
163.9808572418
 20
130.6061541376
 10
163.9820576085
 20
130.6015547513
 10
163.9835195474
 20
130.596959948
 10
163.9852443482
 20
130.592377526
 10
163.9872330324
 20
130.5878150686
 10
163.9894865526
 20
130.5832719551
 10
163.9920053829
 20
130.5787563173
 10
163.9947897213
 20
130.574276076
 10
163.9978398567
 20
130.5698304966
 10
164.0011553892
 20
130.565428003
 10
164.0047356387
 20
130.5610768066
 10
164.0085802274
 20
130.556776063
 10
164.0126878355
 20
130.5525344296
 10
164.0170568386
 20
130.5483603762
 10
164.0216861501
 20
130.5442529942
 10
164.026573468
 20
130.5402211235
 10
164.0317161564
 20
130.5362734404
 10
164.0371123556
 20
130.5324090162
 10
164.0427587167
 20
130.5286368079
 10
164.048651513
 20
130.5249656424
 10
164.0547880103
 20
130.5213946219
 10
164.0611637406
 20
130.5179327414
 10
164.0677737997
 20
130.5145889078
 10
164.0746144368
 20
130.511362307
 10
164.0816799863
 20
130.5082618719
 10
164.0889642747
 20
130.5052964998
 10
164.09646236
 20
130.5024655049
 10
164.104167294
 20
130.4997776346
 10
164.1120715471
 20
130.4972416592
 10
164.120168798
 20
130.4948570503
 10
164.1284506998
 20
130.4926322265
 10
164.1369083254
 20
130.4905756717
 10
164.1455339033
 20
130.4886869979
 10
164.1543176388
 20
130.486974117
 10
164.1632491443
 20
130.4854450633
 10
164.1723191196
 20
130.484099582
 10
164.1815030071
 20
130.4829471193
 10
164.1908020353
 20
130.4819919607
 10
164.2002456965
 20
130.4812298722
 10
164.2098356677
 20
130.4806682556
 10
164.2195448882
 20
130.4803215835
 10
164.2293592938
 20
130.480199852
  0
LWPOLYLINE
  5
3D8
100
AcDbEntity
  8
0
100
AcDbPolyline
 62
7
  6
CONTINUOUS
 90
46
 70
0
 10
166.8640747981
 20
84.0905628231
 10
166.8639025468
 20
84.0951414774
 10
166.8634764709
 20
84.0997367849
 10
166.8627942534
 20
84.1043416339
 10
166.8618538521
 20
84.1089461048
 10
166.8606534855
 20
84.1135454911
 10
166.8591915465
 20
84.1181402943
 10
166.8574667458
 20
84.1227227163
 10
166.8554780616
 20
84.1272851738
 10
166.8532245414
 20
84.1318282873
 10
166.8507057111
 20
84.136343925
 10
166.8479213727
 20
84.1408241664
 10
166.8448712373
 20
84.1452697458
 10
166.8415557048
 20
84.1496722394
 10
166.8379754553
 20
84.1540234357
 10
166.8341308666
 20
84.1583241794
 10
166.8300232585
 20
84.1625658128
 10
166.8256542554
 20
84.1667398661
 10
166.8210249439
 20
84.1708472481
 10
166.8161376259
 20
84.1748791188
 10
166.8109949375
 20
84.1788268019
 10
166.8055987384
 20
84.1826912262
 10
166.7999523773
 20
84.1864634344
 10
166.7940595809
 20
84.1901346
 10
166.7879230837
 20
84.1937056204
 10
166.7815473533
 20
84.197167501
 10
166.7749372943
 20
84.2005113345
 10
166.7680966572
 20
84.2037379354
 10
166.7610311077
 20
84.2068383705
 10
166.7537468192
 20
84.2098037426
 10
166.7462487339
 20
84.2126347375
 10
166.7385437999
 20
84.2153226078
 10
166.7306395469
 20
84.2178585832
 10
166.722542296
 20
84.2202431921
 10
166.7142603942
 20
84.2224680159
 10
166.7058027685
 20
84.2245245707
 10
166.6971771907
 20
84.2264132445
 10
166.6883934552
 20
84.2281261254
 10
166.6794619496
 20
84.2296551791
 10
166.6703919743
 20
84.2310006603
 10
166.6612080869
 20
84.2321531231
 10
166.6519090586
 20
84.2331082816
 10
166.6424653974
 20
84.2338703702
 10
166.6328754263
 20
84.2344319868
 10
166.6231662058
 20
84.2347786589
 10
166.6133518001
 20
84.2349003904
  0
LWPOLYLINE
  5
3D9
100
AcDbEntity
  8
0
100
AcDbPolyline
 62
253
  6
CONTINUOUS
 90
34
 70
0
 10
163.9844541257
 20
131.2018876885
 10
163.9847707764
 20
131.1916049209
 10
163.9856509382
 20
131.181345361
 10
163.9870926245
 20
131.1711321639
 10
163.9890925815
 20
131.1609883802
 10
163.9916462955
 20
131.1509369038
 10
163.9947480029
 20
131.1410004203
 10
163.9983907033
 20
131.1312013558
 10
164.0025661754
 20
131.1215618261
 10
164.0072649953
 20
131.1121035872
 10
164.0124765581
 20
131.1028479857
 10
164.0181891016
 20
131.093815911
 10
164.024389733
 20
131.0850277479
 10
164.0310644577
 20
131.0765033308
 10
164.0381982114
 20
131.0682618987
 10
164.0457748935
 20
131.0603220522
 10
164.053777404
 20
131.0527017109
 10
164.0621876816
 20
131.0454180736
 10
164.0709867448
 20
131.038487579
 10
164.0801547347
 20
131.0319258687
 10
164.0896709597
 20
131.0257477523
 10
164.0995139422
 20
131.0199671733
 10
164.1096614671
 20
131.0145971781
 10
164.1200906322
 20
131.0096498866
 10
164.1307778993
 20
131.0051364644
 10
164.1416991481
 20
131.0010670981
 10
164.1528297298
 20
130.9974509721
 10
164.1641445234
 20
130.9942962476
 10
164.175617992
 20
130.9916100447
 10
164.1872242408
 20
130.9893984261
 10
164.1989370751
 20
130.9876663832
 10
164.2107300597
 20
130.9864178251
 10
164.2225765786
 20
130.9856555697
 10
164.2344498949
 20
130.9853813375
  0
LWPOLYLINE
  5
3DA
100
AcDbEntity
  8
0
100
AcDbPolyline
 62
253
  6
CONTINUOUS
 90
34
 70
0
 10
166.8582569683
 20
83.5132125539
 10
166.8579403175
 20
83.5234953214
 10
166.8570601558
 20
83.5337548814
 10
166.8556184695
 20
83.5439680785
 10
166.8536185124
 20
83.5541118622
 10
166.8510647984
 20
83.5641633386
 10
166.847963091
 20
83.5740998221
 10
166.8443203906
 20
83.5838988866
 10
166.8401449186
 20
83.5935384162
 10
166.8354460987
 20
83.6029966551
 10
166.8302345358
 20
83.6122522566
 10
166.8245219923
 20
83.6212843314
 10
166.8183213609
 20
83.6300724945
 10
166.8116466362
 20
83.6385969116
 10
166.8045128825
 20
83.6468383437
 10
166.7969362004
 20
83.6547781902
 10
166.78893369
 20
83.6623985314
 10
166.7805234124
 20
83.6696821688
 10
166.7717243491
 20
83.6766126634
 10
166.7625563592
 20
83.6831743736
 10
166.7530401343
 20
83.6893524901
 10
166.7431971518
 20
83.6951330691
 10
166.7330496268
 20
83.7005030642
 10
166.7226204618
 20
83.7054503558
 10
166.7119331946
 20
83.709963778
 10
166.7010119459
 20
83.7140331442
 10
166.6898813642
 20
83.7176492703
 10
166.6785665706
 20
83.7208039948
 10
166.6670931019
 20
83.7234901976
 10
166.6554868531
 20
83.7257018163
 10
166.6437740189
 20
83.7274338592
 10
166.6319810342
 20
83.7286824173
 10
166.6201345153
 20
83.7294446726
 10
166.608261199
 20
83.7297189048
  0
LWPOLYLINE
  5
3DB
100
AcDbEntity
  8
0
100
AcDbPolyline
 62
253
  6
CONTINUOUS
 90
34
 70
0
 10
163.9844541257
 20
83.5132125539
 10
163.9847702529
 20
83.5234863317
 10
163.9856491652
 20
83.5337392421
 10
163.9870892567
 20
83.543948152
 10
163.9890878226
 20
83.5540907513
 10
163.9916406385
 20
83.5641433409
 10
163.9947415586
 20
83.5740809616
 10
163.9983832666
 20
83.5838803938
 10
164.002557772
 20
83.5935203296
 10
164.0072557526
 20
83.6029792001
 10
164.0124667092
 20
83.6122357671
 10
164.0181788503
 20
83.6212689956
 10
164.0243791826
 20
83.6300583069
 10
164.0310536586
 20
83.6385837986
 10
164.0381872564
 20
83.6468262925
 10
164.0457638904
 20
83.6547671998
 10
164.0537664727
 20
83.6623886044
 10
164.062176931
 20
83.6696732887
 10
164.0709762634
 20
83.676604792
 10
164.0801446002
 20
83.6831674631
 10
164.0896612521
 20
83.6893464931
 10
164.0995047371
 20
83.6951279343
 10
164.1096528359
 20
83.7004987363
 10
164.1200826408
 20
83.7054467753
 10
164.1307706082
 20
83.7099608818
 10
164.1416926248
 20
83.7140308707
 10
164.152824024
 20
83.717647549
 10
164.1641396384
 20
83.7208027427
 10
164.1756138963
 20
83.7234893284
 10
164.187220922
 20
83.725701255
 10
164.1989345557
 20
83.7274335397
 10
164.2107283706
 20
83.7286822736
 10
164.2225757312
 20
83.7294446356
 10
164.2344498949
 20
83.7297189048
  0
LWPOLYLINE
  5
3DC
100
AcDbEntity
  8
0
100
AcDbPolyline
 62
253
  6
CONTINUOUS
 90
34
 70
0
 10
166.8582569683
 20
131.2018876885
 10
166.8579408411
 20
131.1916139107
 10
166.8570619288
 20
131.1813610003
 10
166.8556218373
 20
131.1711520904
 10
166.8536232713
 20
131.1610094911
 10
166.8510704554
 20
131.1509569015
 10
166.8479695353
 20
131.1410192808
 10
166.8443278273
 20
131.1312198486
 10
166.8401533219
 20
131.1215799128
 10
166.8354553413
 20
131.1121210422
 10
166.8302443848
 20
131.1028644753
 10
166.8245322436
 20
131.0938312468
 10
166.8183319114
 20
131.0850419355
 10
166.8116574353
 20
131.0765164438
 10
166.8045238375
 20
131.0682739499
 10
166.7969472035
 20
131.0603330426
 10
166.7889446213
 20
131.0527116379
 10
166.780534163
 20
131.0454269536
 10
166.7717348306
 20
131.0384954504
 10
166.7625664937
 20
131.0319327793
 10
166.7530498419
 20
131.0257537493
 10
166.7432063568
 20
131.019972308
 10
166.733058258
 20
131.0146015061
 10
166.7226284532
 20
131.0096534671
 10
166.7119404858
 20
131.0051393606
 10
166.7010184691
 20
131.0010693717
 10
166.68988707
 20
130.9974526933
 10
166.6785714556
 20
130.9942974997
 10
166.6670971977
 20
130.9916109139
 10
166.655490172
 20
130.9893989874
 10
166.6437765383
 20
130.9876667026
 10
166.6319827234
 20
130.9864179688
 10
166.6201353628
 20
130.9856556068
 10
166.608261199
 20
130.9853813375
  0
LWPOLYLINE
  5
3DD
100
AcDbEntity
  8
0
100
AcDbPolyline
 62
7
  6
CONTINUOUS
 90
46
 70
0
 10
163.9786362959
 20
84.0905628231
 10
163.9788085472
 20
84.0951414774
 10
163.979234623
 20
84.0997367849
 10
163.9799168406
 20
84.1043416339
 10
163.9808572418
 20
84.1089461048
 10
163.9820576085
 20
84.1135454911
 10
163.9835195474
 20
84.1181402943
 10
163.9852443482
 20
84.1227227163
 10
163.9872330324
 20
84.1272851738
 10
163.9894865526
 20
84.1318282873
 10
163.9920053829
 20
84.136343925
 10
163.9947897213
 20
84.1408241664
 10
163.9978398567
 20
84.1452697458
 10
164.0011553892
 20
84.1496722394
 10
164.0047356387
 20
84.1540234357
 10
164.0085802274
 20
84.1583241794
 10
164.0126878355
 20
84.1625658128
 10
164.0170568386
 20
84.1667398661
 10
164.0216861501
 20
84.1708472481
 10
164.026573468
 20
84.1748791188
 10
164.0317161564
 20
84.1788268019
 10
164.0371123556
 20
84.1826912262
 10
164.0427587167
 20
84.1864634344
 10
164.048651513
 20
84.1901346
 10
164.0547880103
 20
84.1937056204
 10
164.0611637406
 20
84.197167501
 10
164.0677737997
 20
84.2005113345
 10
164.0746144368
 20
84.2037379354
 10
164.0816799863
 20
84.2068383705
 10
164.0889642747
 20
84.2098037426
 10
164.09646236
 20
84.2126347375
 10
164.104167294
 20
84.2153226078
 10
164.1120715471
 20
84.2178585832
 10
164.120168798
 20
84.2202431921
 10
164.1284506998
 20
84.2224680159
 10
164.1369083254
 20
84.2245245707
 10
164.1455339033
 20
84.2264132445
 10
164.1543176388
 20
84.2281261254
 10
164.1632491443
 20
84.2296551791
 10
164.1723191196
 20
84.2310006603
 10
164.1815030071
 20
84.2321531231
 10
164.1908020353
 20
84.2331082816
 10
164.2002456965
 20
84.2338703702
 10
164.2098356677
 20
84.2344319868
 10
164.2195448882
 20
84.2347786589
 10
164.2293592938
 20
84.2349003904
  0
LWPOLYLINE
  5
3DE
100
AcDbEntity
  8
0
100
AcDbPolyline
 62
7
  6
CONTINUOUS
 90
46
 70
0
 10
166.8640747981
 20
130.6245374193
 10
166.8639025468
 20
130.619958765
 10
166.8634764709
 20
130.6153634575
 10
166.8627942534
 20
130.6107586085
 10
166.8618538521
 20
130.6061541376
 10
166.8606534855
 20
130.6015547513
 10
166.8591915465
 20
130.596959948
 10
166.8574667458
 20
130.592377526
 10
166.8554780616
 20
130.5878150686
 10
166.8532245414
 20
130.5832719551
 10
166.8507057111
 20
130.5787563173
 10
166.8479213727
 20
130.574276076
 10
166.8448712373
 20
130.5698304966
 10
166.8415557048
 20
130.565428003
 10
166.8379754553
 20
130.5610768066
 10
166.8341308666
 20
130.556776063
 10
166.8300232585
 20
130.5525344296
 10
166.8256542554
 20
130.5483603762
 10
166.8210249439
 20
130.5442529942
 10
166.8161376259
 20
130.5402211235
 10
166.8109949375
 20
130.5362734404
 10
166.8055987384
 20
130.5324090162
 10
166.7999523773
 20
130.5286368079
 10
166.7940595809
 20
130.5249656424
 10
166.7879230837
 20
130.5213946219
 10
166.7815473533
 20
130.5179327414
 10
166.7749372943
 20
130.5145889078
 10
166.7680966572
 20
130.511362307
 10
166.7610311077
 20
130.5082618719
 10
166.7537468192
 20
130.5052964998
 10
166.7462487339
 20
130.5024655049
 10
166.7385437999
 20
130.4997776346
 10
166.7306395469
 20
130.4972416592
 10
166.722542296
 20
130.4948570503
 10
166.7142603942
 20
130.4926322265
 10
166.7058027685
 20
130.4905756717
 10
166.6971771907
 20
130.4886869979
 10
166.6883934552
 20
130.486974117
 10
166.6794619496
 20
130.4854450633
 10
166.6703919743
 20
130.484099582
 10
166.6612080869
 20
130.4829471193
 10
166.6519090586
 20
130.4819919607
 10
166.6424653974
 20
130.4812298722
 10
166.6328754263
 20
130.4806682556
 10
166.6231662058
 20
130.4803215835
 10
166.6133518001
 20
130.480199852
  0
LINE
  5
3DF
100
AcDbEntity
  8
RACCORDO
100
AcDbLine
 62
253
  6
CONTINUOUS
 10
163.7786396805
 20
85.0226484855
 11
163.7714130586
 21
84.9575501212
  0
LINE
  5
3E0
100
AcDbEntity
  8
CONTATTI
100
AcDbLine
 62
7
  6
CONTINUOUS
 10
155.0033449074
 20
96.8142822612
 11
155.3817878906
 21
97.0202598363
  0
LINE
  5
3E1
100
AcDbEntity
  8
CONTATTI
100
AcDbLine
 62
253
  6
CONTINUOUS
 10
158.9005360655
 20
116.5575506819
 11
158.1783101622
 21
116.5575501212
  0
LINE
  5
3E2
100
AcDbEntity
  8
RACCORDO
100
AcDbLine
 62
253
  6
CONTINUOUS
 10
163.7714130586
 20
129.7575501212
 11
163.7786396805
 21
129.6924517569
  0
LWPOLYLINE
  5
3E3
100
AcDbEntity
  8
0
100
AcDbPolyline
 62
253
  6
CONTINUOUS
 90
10
 70
0
 10
167.7551217963
 20
85.8255224365
 10
167.7553908634
 20
85.8202545813
 10
167.7556630695
 20
85.8154860645
 10
167.7559375462
 20
85.8112320712
 10
167.756214316
 20
85.8074942014
 10
167.7564933564
 20
85.8042708551
 10
167.7567737303
 20
85.8015724179
 10
167.7570551256
 20
85.7994023515
 10
167.7573378545
 20
85.7977571942
 10
167.7576219171
 20
85.7966369459
  0
LINE
  5
3E4
100
AcDbEntity
  8
0
100
AcDbLine
 62
253
  6
CONTINUOUS
 10
167.7545931019
 20
85.8375593213
 11
167.7551217963
 21
85.8255224365
  0
LWPOLYLINE
  5
3E5
100
AcDbEntity
  8
0
100
AcDbPolyline
 62
253
  6
CONTINUOUS
 90
7
 70
0
 10
167.2560134061
 20
85.3265220087
 10
167.2562901218
 20
85.3190416843
 10
167.2565691011
 20
85.3125988671
 10
167.2568494727
 20
85.3072003059
 10
167.257130946
 20
85.3028517437
 10
167.2574138116
 20
85.2995578586
 10
167.2576980695
 20
85.2973221785
  0
LINE
  5
3E6
100
AcDbEntity
  8
0
100
AcDbLine
 62
253
  6
CONTINUOUS
 10
167.7540794815
 20
85.8515353136
 11
167.7545931019
 21
85.8375593213
  0
LINE
  5
3E7
100
AcDbEntity
  8
0
100
AcDbLine
 62
253
  6
CONTINUOUS
 10
167.7535825677
 20
85.8674059895
 11
167.7540794815
 21
85.8515353136
  0
LINE
  5
3E8
100
AcDbEntity
  8
0
100
AcDbLine
 62
253
  6
CONTINUOUS
 10
167.2554667611
 20
85.3445625522
 11
167.2560134061
 21
85.3265220087
  0
LINE
  5
3E9
100
AcDbEntity
  8
0
100
AcDbLine
 62
253
  6
CONTINUOUS
 10
167.7528737838
 20
85.894599363
 11
167.7535825677
 21
85.8674059895
  0
LINE
  5
3EA
100
AcDbEntity
  8
0
100
AcDbLine
 62
253
  6
CONTINUOUS
 10
167.254931823
 20
85.3666435222
 11
167.2554667611
 21
85.3445625522
  0
LWPOLYLINE
  5
3EB
100
AcDbEntity
  8
0
100
AcDbPolyline
 62
253
  6
CONTINUOUS
 90
40
 70
0
 10
167.7576330767
 20
128.9184968026
 10
167.7572097759
 20
128.9385906572
 10
167.7559772237
 20
128.9586519504
 10
167.7539374178
 20
128.9786481809
 10
167.7510936672
 20
128.9985469622
 10
167.7474505765
 20
129.0183160466
 10
167.7430140383
 20
129.0379233776
 10
167.7377912416
 20
129.0573371915
 10
167.7317906478
 20
129.0765260338
 10
167.7250219663
 20
129.0954587815
 10
167.7174961636
 20
129.1141047619
 10
167.7092254326
 20
129.132433766
 10
167.7002231593
 20
129.150416061
 10
167.6905039241
 20
129.1680224992
 10
167.6800834775
 20
129.1852245696
 10
167.6689787008
 20
129.2019944071
 10
167.6572075813
 20
129.2183048309
 10
167.6447891923
 20
129.2341294256
 10
167.6317436613
 20
129.2494425886
 10
167.6180921234
 20
129.2642195147
 10
167.6038566937
 20
129.2784362558
 10
167.5890604404
 20
129.2920697956
 10
167.5737273354
 20
129.3050980511
 10
167.5578822177
 20
129.3174999056
 10
167.5415507601
 20
129.3292552619
 10
167.5247594208
 20
129.3403450717
 10
167.5075354028
 20
129.350751367
 10
167.4899066131
 20
129.360457288
 10
167.4719016116
 20
129.3694471052
 10
167.4535495679
 20
129.3777062542
 10
167.4348802165
 20
129.3852213616
 10
167.4159238032
 20
129.3919802492
 10
167.3967110387
 20
129.3979719645
 10
167.3772730522
 20
129.4031868083
 10
167.3576413345
 20
129.4076163292
 10
167.3378476905
 20
129.4112533481
 10
167.3179241904
 20
129.4140919808
 10
167.2979031127
 20
129.4161276291
 10
167.277816892
 20
129.4173569884
 10
167.2576980695
 20
129.4177780638
  0
LINE
  5
3EC
100
AcDbEntity
  8
0
100
AcDbLine
 62
253
  6
CONTINUOUS
 10
167.752007283
 20
85.9367674391
 11
167.7528737838
 21
85.894599363
  0
LINE
  5
3ED
100
AcDbEntity
  8
0
100
AcDbLine
 62
253
  6
CONTINUOUS
 10
167.2541555095
 20
85.4071308189
 11
167.254931823
 21
85.3666435222
  0
LINE
  5
3EE
100
AcDbEntity
  8
0
100
AcDbLine
 62
253
  6
CONTINUOUS
 10
167.7510704585
 20
85.997963278
 11
167.752007283
 21
85.9367674391
  0
LINE
  5
3EF
100
AcDbEntity
  8
0
100
AcDbLine
 62
253
  6
CONTINUOUS
 10
167.2529499336
 20
85.4932471181
 11
167.2541555095
 21
85.4071308189
  0
LINE
  5
3F0
100
AcDbEntity
  8
0
100
AcDbLine
 62
253
  6
CONTINUOUS
 10
166.608261199
 20
130.9853813375
 11
166.6133518001
 21
130.480199852
  0
LINE
  5
3F1
100
AcDbEntity
  8
0
100
AcDbLine
 62
253
  6
CONTINUOUS
 10
166.8582569683
 20
131.2018876885
 11
166.8640747981
 21
130.6245374193
  0
LINE
  5
3F2
100
AcDbEntity
  8
0
100
AcDbLine
 62
253
  6
CONTINUOUS
 10
167.7501933606
 20
86.081657067
 11
167.7510704585
 21
85.997963278
  0
LINE
  5
3F3
100
AcDbEntity
  8
0
100
AcDbLine
 62
253
  6
CONTINUOUS
 10
167.2513199076
 20
85.6741036565
 11
167.2529499336
 21
85.4932471181
  0
LINE
  5
3F4
100
AcDbEntity
  8
0
100
AcDbLine
 62
253
  6
CONTINUOUS
 10
167.7495518164
 20
86.1893494292
 11
167.7501933606
 21
86.081657067
  0
LINE
  5
3F5
100
AcDbEntity
  8
0
100
AcDbLine
 62
253
  6
CONTINUOUS
 10
167.747477684
 20
86.9929695724
 11
167.7495518164
 21
86.1893494292
  0
LINE
  5
3F6
100
AcDbEntity
  8
0
100
AcDbLine
 62
253
  6
CONTINUOUS
 10
167.2496931246
 20
86.0510246579
 11
167.2513199076
 21
85.6741036565
  0
LINE
  5
3F7
100
AcDbEntity
  8
0
100
AcDbLine
 62
253
  6
CONTINUOUS
 10
167.7407698103
 20
90.0877713377
 11
167.747477684
 21
86.9929695724
  0
LINE
  5
3F8
100
AcDbEntity
  8
0
100
AcDbLine
 62
253
  6
CONTINUOUS
 10
167.2394634132
 20
90.8147916455
 11
167.24570044
 21
87.6993741607
  0
LINE
  5
3F9
100
AcDbEntity
  8
0
100
AcDbLine
 62
253
  6
CONTINUOUS
 10
167.24570044
 20
87.6993741607
 11
167.2496931246
 21
86.0510246579
  0
LINE
  5
3FA
100
AcDbEntity
  8
0
100
AcDbLine
 62
253
  6
CONTINUOUS
 10
167.2351141007
 20
93.9408354928
 11
167.2394634132
 21
90.8147916455
  0
LWPOLYLINE
  5
3FB
100
AcDbEntity
  8
0
100
AcDbPolyline
 62
253
  6
CONTINUOUS
 90
3
 70
0
 10
167.7350379448
 20
93.9720788208
 10
167.7359479331
 20
93.1941437754
 10
167.7407698103
 20
90.0877713377
  0
LINE
  5
3FC
100
AcDbEntity
  8
0
100
AcDbLine
 62
253
  6
CONTINUOUS
 10
167.2326579195
 20
97.0737097834
 11
167.2351141007
 21
93.9408354928
  0
LINE
  5
3FD
100
AcDbEntity
  8
0
100
AcDbLine
 62
253
  6
CONTINUOUS
 10
167.7325817652
 20
97.0874683402
 11
167.7350379448
 21
93.9720788208
  0
LINE
  5
3FE
100
AcDbEntity
  8
0
100
AcDbLine
 62
253
  6
CONTINUOUS
 10
167.2309409755
 20
104.190830908
 11
167.2326579195
 21
97.0737097834
  0
LINE
  5
3FF
100
AcDbEntity
  8
0
100
AcDbLine
 62
253
  6
CONTINUOUS
 10
167.7308648231
 20
104.1939921513
 11
167.7325817652
 21
97.0874683402
  0
LINE
  5
400
100
AcDbEntity
  8
0
100
AcDbLine
 62
253
  6
CONTINUOUS
 10
166.608261199
 20
82.8706486999
 11
166.608261199
 21
83.7297189048
  0
LINE
  5
401
100
AcDbEntity
  8
0
100
AcDbLine
 62
253
  6
CONTINUOUS
 10
166.608261199
 20
130.9853813375
 11
166.608261199
 21
131.8444515425
  0
LINE
  5
402
100
AcDbEntity
  8
RACCORDO
100
AcDbLine
 62
253
  6
CONTINUOUS
 10
166.6140790289
 20
84.2349003904
 11
166.6140790289
 21
85.0460947837
  0
LINE
  5
403
100
AcDbEntity
  8
RACCORDO
100
AcDbLine
 62
253
  6
CONTINUOUS
 10
166.6140790289
 20
129.6690054587
 11
166.6140790289
 21
130.480199852
  0
LINE
  5
404
100
AcDbEntity
  8
0
100
AcDbLine
 62
7
  6
CONTINUOUS
 10
166.8582569683
 20
83.1206444691
 11
166.8582569683
 21
83.5132125539
  0
LINE
  5
405
100
AcDbEntity
  8
0
100
AcDbLine
 62
7
  6
CONTINUOUS
 10
166.8582569683
 20
131.2018876885
 11
166.8582569683
 21
131.5944557733
  0
LINE
  5
406
100
AcDbEntity
  8
RACCORDO
100
AcDbLine
 62
7
  6
CONTINUOUS
 10
166.8640747981
 20
84.0905628231
 11
166.8640747981
 21
84.8229225786
  0
LINE
  5
407
100
AcDbEntity
  8
RACCORDO
100
AcDbLine
 62
7
  6
CONTINUOUS
 10
166.8640747981
 20
129.8921776638
 11
166.8640747981
 21
130.6245374193
  0
LINE
  5
408
100
AcDbEntity
  8
0
100
AcDbLine
 62
7
  6
CONTINUOUS
 10
166.871355547
 20
131.607554352
 11
166.871355547
 21
130.7680352694
  0
LINE
  5
409
100
AcDbEntity
  8
0
100
AcDbLine
 62
7
  6
CONTINUOUS
 10
166.871355547
 20
83.947064973
 11
166.871355547
 21
83.1075458904
  0
LINE
  5
40A
100
AcDbEntity
  8
RACCORDO
100
AcDbLine
 62
7
  6
CONTINUOUS
 10
166.871355547
 20
83.947064973
 11
166.871355547
 21
84.7573366309
  0
LINE
  5
40B
100
AcDbEntity
  8
RACCORDO
100
AcDbLine
 62
7
  6
CONTINUOUS
 10
166.871355547
 20
129.9577636115
 11
166.871355547
 21
130.7680352694
  0
LINE
  5
40C
100
AcDbEntity
  8
0
100
AcDbLine
 62
7
  6
CONTINUOUS
 10
167.8704827937
 20
129.2573212691
 11
167.8704827937
 21
125.8575501212
  0
LINE
  5
40D
100
AcDbEntity
  8
0
100
AcDbLine
 62
7
  6
CONTINUOUS
 10
167.8704827937
 20
85.4577789733
 11
167.8704827937
 21
88.8575501212
  0
LINE
  5
40E
100
AcDbEntity
  8
0
100
AcDbLine
 62
7
  6
CONTINUOUS
 10
167.8717918904
 20
129.2575670442
 11
167.8717918904
 21
125.8575501212
  0
LINE
  5
40F
100
AcDbEntity
  8
0
100
AcDbLine
 62
7
  6
CONTINUOUS
 10
167.8717918904
 20
85.4575331982
 11
167.8717918904
 21
88.8575501212
  0
LINE
  5
410
100
AcDbEntity
  8
0
100
AcDbLine
 62
7
  6
CONTINUOUS
 10
167.9053929236
 20
125.5048961598
 11
167.9053929236
 21
89.2102040826
  0
LINE
  5
411
100
AcDbEntity
  8
0
100
AcDbLine
 62
253
  6
CONTINUOUS
 10
167.2326579195
 20
117.641390459
 11
167.2309409755
 21
104.190830908
  0
LINE
  5
412
100
AcDbEntity
  8
0
100
AcDbLine
 62
253
  6
CONTINUOUS
 10
167.7325817659
 20
117.6276328573
 11
167.7308648231
 21
104.1939921513
  0
LINE
  5
413
100
AcDbEntity
  8
0
100
AcDbLine
 62
253
  6
CONTINUOUS
 10
167.2351141007
 20
120.7742647493
 11
167.2326579195
 21
117.641390459
  0
LINE
  5
414
100
AcDbEntity
  8
0
100
AcDbLine
 62
253
  6
CONTINUOUS
 10
167.7350379471
 20
120.7430236605
 11
167.7325817659
 21
117.6276328573
  0
LINE
  5
415
100
AcDbEntity
  8
0
100
AcDbLine
 62
253
  6
CONTINUOUS
 10
167.2394634132
 20
123.9003085964
 11
167.2351141007
 21
120.7742647493
  0
LINE
  5
416
100
AcDbEntity
  8
0
100
AcDbLine
 62
253
  6
CONTINUOUS
 10
167.7393872648
 20
123.8516844909
 11
167.7350379471
 21
120.7430236605
  0
LINE
  5
417
100
AcDbEntity
  8
0
100
AcDbLine
 62
253
  6
CONTINUOUS
 10
167.2457004399
 20
127.0157260818
 11
167.2394634132
 21
123.9003085964
  0
LINE
  5
418
100
AcDbEntity
  8
0
100
AcDbLine
 62
253
  6
CONTINUOUS
 10
167.7456242963
 20
126.9497175075
 11
167.7393872648
 21
123.8516844909
  0
LINE
  5
419
100
AcDbEntity
  8
0
100
AcDbLine
 62
253
  6
CONTINUOUS
 10
167.2508227929
 20
128.9615837954
 11
167.2457004399
 21
127.0157260818
  0
LINE
  5
41A
100
AcDbEntity
  8
0
100
AcDbLine
 62
253
  6
CONTINUOUS
 10
167.7499673461
 20
128.6036878124
 11
167.7456242963
 21
126.9497175075
  0
LINE
  5
41B
100
AcDbEntity
  8
0
100
AcDbLine
 62
253
  6
CONTINUOUS
 10
167.2525046237
 20
129.18130484
 11
167.2508227929
 21
128.9615837954
  0
LINE
  5
41C
100
AcDbEntity
  8
0
100
AcDbLine
 62
253
  6
CONTINUOUS
 10
166.6133518001
 20
84.2349003904
 11
166.608261199
 21
83.7297189048
  0
LINE
  5
41D
100
AcDbEntity
  8
0
100
AcDbLine
 62
253
  6
CONTINUOUS
 10
166.8640747981
 20
84.0905628231
 11
166.8582569683
 21
83.5132125539
  0
LINE
  5
41E
100
AcDbEntity
  8
0
100
AcDbLine
 62
253
  6
CONTINUOUS
 10
167.7507486419
 20
128.6905365671
 11
167.7499673461
 21
128.6036878124
  0
LINE
  5
41F
100
AcDbEntity
  8
0
100
AcDbLine
 62
253
  6
CONTINUOUS
 10
167.2536586656
 20
129.2762342194
 11
167.2525046237
 21
129.18130484
  0
LINE
  5
420
100
AcDbEntity
  8
0
100
AcDbLine
 62
253
  6
CONTINUOUS
 10
167.7516151628
 20
128.7551274291
 11
167.7507486419
 21
128.6905365671
  0
LINE
  5
421
100
AcDbEntity
  8
0
100
AcDbLine
 62
253
  6
CONTINUOUS
 10
167.2546690987
 20
129.3359297991
 11
167.2536586656
 21
129.2762342194
  0
LINE
  5
422
100
AcDbEntity
  8
0
100
AcDbLine
 62
253
  6
CONTINUOUS
 10
167.7524330504
 20
128.8004450599
 11
167.7516151628
 21
128.7551274291
  0
LWPOLYLINE
  5
423
100
AcDbEntity
  8
0
100
AcDbPolyline
 62
253
  6
CONTINUOUS
 90
40
 70
0
 10
167.7576219171
 20
85.7966369459
 10
167.7571985735
 20
85.7765432436
 10
167.7559659801
 20
85.7564820955
 10
167.7539261338
 20
85.7364860029
 10
167.7510823394
 20
85.716587362
 10
167.7474392042
 20
85.6968184109
 10
167.7430026306
 20
85.6772111776
 10
167.7377798062
 20
85.6577974281
 10
167.7317791927
 20
85.6386086151
 10
167.7250105118
 20
85.6196758266
 10
167.7174847295
 20
85.601029736
 10
167.7092140385
 20
85.5827005523
 10
167.7002118383
 20
85.5647179707
 10
167.6904927135
 20
85.5471111253
 10
167.6800724103
 20
85.5299085412
 10
167.6689678107
 20
85.5131380886
 10
167.6571969056
 20
85.4968269377
 10
167.6447787651
 20
85.4810015144
 10
167.6317335083
 20
85.4656874578
 10
167.6180822698
 20
85.4509095784
 10
167.6038471663
 20
85.4366918183
 10
167.5890512604
 20
85.4230572117
 10
167.5737185232
 20
85.4100278485
 10
167.5578737956
 20
85.3976248376
 10
167.5415427478
 20
85.3858682735
 10
167.5247518381
 20
85.3747772032
 10
167.5075282697
 20
85.3643695955
 10
167.4898999469
 20
85.354662312
 10
167.4718954296
 20
85.3456710796
 10
167.4535438873
 20
85.3374104652
 10
167.4348750517
 20
85.3298938519
 10
167.4159191684
 20
85.3231334175
 10
167.3967069482
 20
85.3171401149
 10
167.3772695172
 20
85.3119236537
 10
167.3576383664
 20
85.3074924853
 10
167.3378453005
 20
85.3038537887
 10
167.3179223865
 20
85.3010134591
 10
167.2979019021
 20
85.298976098
 10
167.2778162827
 20
85.2977450063
 10
167.2576980695
 20
85.2973221785
  0
LINE
  5
424
100
AcDbEntity
  8
0
100
AcDbLine
 62
253
  6
CONTINUOUS
 10
167.2551977386
 20
129.3599968321
 11
167.2546690987
 21
129.3359297991
  0
LWPOLYLINE
  5
425
100
AcDbEntity
  8
0
100
AcDbPolyline
 62
7
  6
CONTINUOUS
 90
34
 70
0
 10
166.8582569683
 20
83.1206444691
 10
166.8579733394
 20
83.1087478102
 10
166.8571238993
 20
83.0968780919
 10
166.8557105705
 20
83.0850622096
 10
166.8537365519
 20
83.0733269299
 10
166.8512063148
 20
83.0616988506
 10
166.8481255962
 20
83.0502043395
 10
166.8445013791
 20
83.038869447
 10
166.8403418748
 20
83.0277198507
 10
166.8356565105
 20
83.0167808171
 10
166.8304559029
 20
83.0060771307
 10
166.8247518376
 20
82.9956330455
 10
166.8185572453
 20
82.9854722333
 10
166.8118861652
 20
82.9756177172
 10
166.8047537142
 20
82.966091823
 10
166.7971760576
 20
82.956916136
 10
166.7891703635
 20
82.9481114404
 10
166.7807547772
 20
82.9396976888
 10
166.7719483857
 20
82.9316939573
 10
166.7627711724
 20
82.9241183964
 10
166.753243911
 20
82.916988143
 10
166.7433881263
 20
82.9103193058
 10
166.7332260507
 20
82.9041269434
 10
166.7227807972
 20
82.8984251549
 10
166.7120762624
 20
82.8932269696
 10
166.7011368612
 20
82.888544196
 10
166.6899872493
 20
82.8843873416
 10
166.6786524842
 20
82.8807657318
 10
166.6671565185
 20
82.8776871532
 10
166.6555270833
 20
82.8751591633
 10
166.6437955886
 20
82.8731882173
 10
166.6319904131
 20
82.8717782214
 10
166.6201366706
 20
82.8709313196
 10
166.608261199
 20
82.8706486999
  0
LWPOLYLINE
  5
426
100
AcDbEntity
  8
0
100
AcDbPolyline
 62
7
  6
CONTINUOUS
 90
4
 70
0
 10
166.871355547
 20
83.1075458904
 10
166.8710723967
 20
83.0956506052
 10
166.8702235812
 20
83.0837822656
 10
166.8688110211
 20
83.071967755
  0
LINE
  5
427
100
AcDbEntity
  8
0
100
AcDbLine
 62
253
  6
CONTINUOUS
 10
167.7531103152
 20
128.8302210887
 11
167.7524330504
 21
128.8004450599
  0
LINE
  5
428
100
AcDbEntity
  8
0
100
AcDbLine
 62
253
  6
CONTINUOUS
 10
167.7538351199
 20
128.8560638242
 11
167.7531103152
 21
128.8302210887
  0
LINE
  5
429
100
AcDbEntity
  8
0
100
AcDbLine
 62
253
  6
CONTINUOUS
 10
167.754341412
 20
128.8709866853
 11
167.7538351199
 21
128.8560638242
  0
LINE
  5
42A
100
AcDbEntity
  8
0
100
AcDbLine
 62
253
  6
CONTINUOUS
 10
146.5844541257
 20
83.1206444691
 11
146.571355547
 21
83.1075458904
  0
LINE
  5
42B
100
AcDbEntity
  8
0
100
AcDbLine
 62
253
  6
CONTINUOUS
 10
146.8344498949
 20
82.8706486999
 11
146.8213513162
 21
82.8575501212
  0
LINE
  5
42C
100
AcDbEntity
  8
CONTATTI
100
AcDbLine
 62
7
  6
CONTINUOUS
 10
158.7398261573
 20
117.3879482348
 11
158.8509271573
 21
117.4091391101
  0
LINE
  5
42D
100
AcDbEntity
  8
0
100
AcDbLine
 62
253
  6
CONTINUOUS
 10
145.7509750515
 20
116.8516478377
 11
145.7696959713
 21
116.8523924014
  0
LINE
  5
42E
100
AcDbEntity
  8
0
100
AcDbLine
 62
253
  6
CONTINUOUS
 10
145.7696959713
 20
116.8523924014
 11
145.7916966392
 21
116.8531046475
  0
LINE
  5
42F
100
AcDbEntity
  8
0
100
AcDbLine
 62
253
  6
CONTINUOUS
 10
145.7916966392
 20
116.8531046475
 11
145.8168133141
 21
116.8537792749
  0
LWPOLYLINE
  5
430
100
AcDbEntity
  8
RACCORDO
100
AcDbPolyline
 62
253
  6
CONTINUOUS
 90
8
 70
0
 10
159.0497742255
 20
116.8557140443
 10
159.0168374402
 20
116.8550571676
 10
158.9883320823
 20
116.8543235249
 10
158.9645704451
 20
116.8535211537
 10
158.9458128516
 20
116.8526588445
 10
158.9322648025
 20
116.8517460443
 10
158.924074725
 20
116.8507927535
 10
158.9213323461
 20
116.8498094159
  0
LINE
  5
431
100
AcDbEntity
  8
0
100
AcDbLine
 62
253
  6
CONTINUOUS
 10
145.8168133141
 20
116.8537792749
 11
145.8599159232
 21
116.8547097838
  0
LINE
  5
432
100
AcDbEntity
  8
0
100
AcDbLine
 62
253
  6
CONTINUOUS
 10
145.8599159232
 20
116.8547097838
 11
145.9263689285
 21
116.8557746925
  0
LINE
  5
433
100
AcDbEntity
  8
RACCORDO
100
AcDbLine
 62
253
  6
CONTINUOUS
 10
159.1274541132
 20
116.8567696336
 11
159.0497742255
 21
116.8557140443
  0
LINE
  5
434
100
AcDbEntity
  8
0
100
AcDbLine
 62
253
  6
CONTINUOUS
 10
145.9263689285
 20
116.8557746925
 11
146.0210464349
 21
116.8567799756
  0
LINE
  5
435
100
AcDbEntity
  8
RACCORDO
100
AcDbLine
 62
253
  6
CONTINUOUS
 10
159.2179769492
 20
116.857444161
 11
159.1274541132
 21
116.8567696336
  0
LINE
  5
436
100
AcDbEntity
  8
0
100
AcDbLine
 62
253
  6
CONTINUOUS
 10
146.0210464349
 20
116.8567799756
 11
146.1245019001
 21
116.8573805027
  0
LINE
  5
437
100
AcDbEntity
  8
0
100
AcDbLine
 62
253
  6
CONTINUOUS
 10
146.1245019001
 20
116.8573805027
 11
146.2103710973
 21
116.8575501212
  0
LINE
  5
438
100
AcDbEntity
  8
RACCORDO
100
AcDbLine
 62
253
  6
CONTINUOUS
 10
146.2103710973
 20
116.8575501212
 11
154.1253242859
 21
116.8577081321
  0
LINE
  5
439
100
AcDbEntity
  8
RACCORDO
100
AcDbLine
 62
253
  6
CONTINUOUS
 10
167.2323399966
 20
116.8575501212
 11
159.2179769492
 21
116.857444161
  0
LINE
  5
43A
100
AcDbEntity
  8
RACCORDO
100
AcDbLine
 62
253
  6
CONTINUOUS
 10
154.1253242859
 20
116.8577081321
 11
154.2247338632
 21
116.8574441418
  0
LINE
  5
43B
100
AcDbEntity
  8
0
100
AcDbLine
 62
253
  6
CONTINUOUS
 10
167.3603443382
 20
116.8571910842
 11
167.2323399966
 21
116.8575501212
  0
LINE
  5
43C
100
AcDbEntity
  8
RACCORDO
100
AcDbLine
 62
253
  6
CONTINUOUS
 10
154.2247338632
 20
116.8574441418
 11
154.3152565692
 21
116.8567696134
  0
LINE
  5
43D
100
AcDbEntity
  8
0
100
AcDbLine
 62
253
  6
CONTINUOUS
 10
167.4608462545
 20
116.856424224
 11
167.3603443382
 21
116.8571910842
  0
LINE
  5
43E
100
AcDbEntity
  8
0
100
AcDbLine
 62
253
  6
CONTINUOUS
 10
167.5338284809
 20
116.8555288581
 11
167.4608462545
 21
116.856424224
  0
LWPOLYLINE
  5
43F
100
AcDbEntity
  8
RACCORDO
100
AcDbPolyline
 62
253
  6
CONTINUOUS
 90
9
 70
0
 10
154.3152565692
 20
116.8567696134
 10
154.3929363573
 20
116.8557140253
 10
154.4258731088
 20
116.8550571499
 10
154.4543784456
 20
116.8543235088
 10
154.4781400754
 20
116.8535211396
 10
154.4968976761
 20
116.8526588325
 10
154.5104457474
 20
116.8517460347
 10
154.5186358625
 20
116.8507927463
 10
154.521378294
 20
116.8498094111
  0
LINE
  5
440
100
AcDbEntity
  8
0
100
AcDbLine
 62
253
  6
CONTINUOUS
 10
167.5827951713
 20
116.8547097838
 11
167.5338284809
 21
116.8555288581
  0
LINE
  5
441
100
AcDbEntity
  8
0
100
AcDbLine
 62
253
  6
CONTINUOUS
 10
167.6258977803
 20
116.853779275
 11
167.5827951713
 21
116.8547097838
  0
LINE
  5
442
100
AcDbEntity
  8
0
100
AcDbLine
 62
253
  6
CONTINUOUS
 10
167.6510144552
 20
116.8531046475
 11
167.6258977803
 21
116.853779275
  0
LINE
  5
443
100
AcDbEntity
  8
0
100
AcDbLine
 62
253
  6
CONTINUOUS
 10
167.6730151231
 20
116.8523924014
 11
167.6510144552
 21
116.8531046475
  0
LWPOLYLINE
  5
444
100
AcDbEntity
  8
CONTATTI
100
AcDbPolyline
 62
7
  6
CONTINUOUS
 90
10
 70
0
 10
158.7398261573
 20
117.3879482348
 10
158.6685884178
 20
117.4302292189
 10
158.5974313209
 20
117.47106452
 10
158.5263552233
 20
117.5104662269
 10
158.4553667406
 20
117.5484471942
 10
158.3844975234
 20
117.5850233383
 10
158.3137854809
 20
117.6202113415
 10
158.2432675686
 20
117.6540315353
 10
158.172976926
 20
117.6865188487
 10
158.1029457387
 20
117.7177118598
  0
LWPOLYLINE
  5
445
100
AcDbEntity
  8
CONTATTI
100
AcDbPolyline
 62
7
  6
CONTINUOUS
 90
6
 70
0
 10
158.7453012749
 20
117.7175710249
 10
158.7425707374
 20
117.7193280136
 10
158.6665823015
 20
117.7668442621
 10
158.5906510509
 20
117.8129520556
 10
158.5148824965
 20
117.8576165747
 10
158.4393661865
 20
117.9008179811
  0
LWPOLYLINE
  5
446
100
AcDbEntity
  8
RACCORDO
100
AcDbPolyline
 62
253
  6
CONTINUOUS
 90
16
 70
0
 10
146.3786396805
 20
129.6924517569
 10
146.3817070181
 20
129.6899359931
 10
146.3893359561
 20
129.6875073068
 10
146.4015264947
 20
129.6851656981
 10
146.41851967
 20
129.6828899835
 10
146.4400744459
 20
129.6807013465
 10
146.4654677134
 20
129.6786633373
 10
146.4947645815
 20
129.6767805232
 10
146.5278999413
 20
129.675048337
 10
146.5639553569
 20
129.673516627
 10
146.6030372785
 20
129.6721883283
 10
146.6450392558
 20
129.671060506
 10
146.6887235019
 20
129.6701742035
 10
146.7336774209
 20
129.669543102
 10
146.7803136087
 20
129.6691535204
 10
146.8286320651
 20
129.6690054587
  0
LINE
  5
447
100
AcDbEntity
  8
0
100
AcDbLine
 62
253
  6
CONTINUOUS
 10
146.5844541257
 20
131.5944557733
 11
146.571355547
 21
131.607554352
  0
LINE
  5
448
100
AcDbEntity
  8
0
100
AcDbLine
 62
253
  6
CONTINUOUS
 10
146.8344498949
 20
131.8444515425
 11
146.8213513162
 21
131.8575501212
  0
LINE
  5
449
100
AcDbEntity
  8
0
100
AcDbLine
 62
7
  6
CONTINUOUS
 10
167.9053929236
 20
125.5048961598
 11
167.871355547
 21
125.8487337721
  0
LWPOLYLINE
  5
44A
100
AcDbEntity
  8
0
100
AcDbPolyline
 62
7
  6
CONTINUOUS
 90
29
 70
0
 10
167.8717918904
 20
129.2575670442
 10
167.8713923193
 20
129.2776520405
 10
167.8701851168
 20
129.297675511
 10
167.8681702831
 20
129.3176374559
 10
167.8653398662
 20
129.3375876415
 10
167.861701818
 20
129.3574763014
 10
167.8572799939
 20
129.3771541362
 10
167.8520711408
 20
129.3966009601
 10
167.8460785118
 20
129.4158369589
 10
167.8393357215
 20
129.4347733905
 10
167.8318496557
 20
129.4533942242
 10
167.8236134287
 20
129.4717154908
 10
167.8146399981
 20
129.4896965397
 10
167.8049097669
 20
129.5073671507
 10
167.7944423321
 20
129.5246975441
 10
167.783309442
 20
129.5415577306
 10
167.771506699
 20
129.5579359279
 10
167.7590385007
 20
129.5738439183
 10
167.7459897881
 20
129.5891870593
 10
167.7323838525
 20
129.6039388832
 10
167.7181974025
 20
129.6181258577
 10
167.703445505
 20
129.6317327435
 10
167.6881012566
 20
129.6447830665
 10
167.6721915607
 20
129.6572533009
 10
167.6558121951
 20
129.6690576296
 10
167.6389518345
 20
129.6801912392
 10
167.6216218043
 20
129.6906589431
 10
167.6039518585
 20
129.7003893649
 10
167.5859722848
 20
129.7093628433
  0
LWPOLYLINE
  5
44B
100
AcDbEntity
  8
0
100
AcDbPolyline
 62
7
  6
CONTINUOUS
 90
29
 70
0
 10
167.8704827937
 20
85.4577789733
 10
167.8700825059
 20
85.4376572624
 10
167.8688741505
 20
85.4175993082
 10
167.8668577277
 20
85.3976051107
 10
167.8640251202
 20
85.3776248616
 10
167.8603844453
 20
85.3577083692
 10
167.8559600544
 20
85.3380050582
 10
167.8507487459
 20
85.3185352556
 10
167.8447537215
 20
85.2992786344
 10
167.8380089375
 20
85.2803236384
 10
167.8305212228
 20
85.2616861637
 10
167.8222837487
 20
85.2433503143
 10
167.8133099849
 20
85.2253568465
 10
167.8035803625
 20
85.2076760767
 10
167.7931144506
 20
85.1903376886
 10
167.7819844265
 20
85.1734714887
 10
167.7701860213
 20
85.1570894074
 10
167.7577235039
 20
85.1411795144
 10
167.7446818587
 20
85.1258358257
 10
167.7310843883
 20
85.1110847651
 10
167.71690779
 20
85.0968999087
 10
167.7021671401
 20
85.0832960008
 10
167.6868355502
 20
85.0702494836
 10
167.6709399087
 20
85.0577839149
 10
167.6545759567
 20
85.0459847127
 10
167.6377325196
 20
85.0348567388
 10
167.6204207721
 20
85.0243951313
 10
167.602769979
 20
85.0146707221
 10
167.5848104792
 20
85.0057031172
  0
LINE
  5
44C
100
AcDbEntity
  8
0
100
AcDbLine
 62
7
  6
CONTINUOUS
 10
167.9053929236
 20
89.2102040826
 11
167.871355547
 21
88.8663664702
  0
LWPOLYLINE
  5
44D
100
AcDbEntity
  8
RACCORDO
100
AcDbPolyline
 62
253
  6
CONTINUOUS
 90
37
 70
0
 10
156.721355547
 20
119.5821869927
 10
156.7906900081
 20
119.5814227509
 10
156.8608832555
 20
119.5786659785
 10
156.9319352893
 20
119.5739166665
 10
157.0036277444
 20
119.5673216419
 10
157.0761789859
 20
119.5587340415
 10
157.1502441091
 20
119.5477133049
 10
157.2259880627
 20
119.534316078
 10
157.3032458982
 20
119.5184856191
 10
157.3821778654
 20
119.4996112496
 10
157.4628015588
 20
119.4777709168
 10
157.545099384
 20
119.4528864772
 10
157.6291788076
 20
119.4241130452
 10
157.7151397842
 20
119.3915211988
 10
157.8028823592
 20
119.355039991
 10
157.8922141355
 20
119.3136121228
 10
157.9832713684
 20
119.2672969637
 10
158.0759178026
 20
119.2160344979
 10
158.169552276
 20
119.1585881446
 10
158.2643558238
 20
119.0949914976
 10
158.3601474108
 20
119.0252099083
 10
158.4557827694
 20
118.947904141
 10
158.5515061814
 20
118.8630388188
 10
158.647073365
 20
118.7706477321
 10
158.7406072079
 20
118.6694950414
 10
158.8325176365
 20
118.5591112596
 10
158.9223947245
 20
118.4399637108
 10
159.0071315795
 20
118.3122216021
 10
159.0867749985
 20
118.175294951
 10
159.1612781846
 20
118.029771594
 10
159.2273938552
 20
117.8775878384
 10
159.2847846442
 20
117.7183118536
 10
159.3337879177
 20
117.5523742681
 10
159.3721684918
 20
117.3830059899
 10
159.3991813053
 20
117.2112842901
 10
159.4155714193
 20
117.0361322588
 10
159.421338834
 20
116.8575501212
  0
LWPOLYLINE
  5
44E
100
AcDbEntity
  8
0
100
AcDbPolyline
 62
7
  6
CONTINUOUS
 90
9
 70
0
 10
166.8688110211
 20
83.071967755
 10
166.8668379147
 20
83.0602338337
 10
166.8643087287
 20
83.0486070824
 10
166.8612291887
 20
83.0371138422
 10
166.8576062683
 20
83.0257801474
 10
166.8534481728
 20
83.0146316719
 10
166.8487643192
 20
83.0036936749
 10
166.8435653158
 20
82.9929909336
 10
166.8378629386
 20
82.9825476929
  0
LINE
  5
44F
100
AcDbEntity
  8
0
100
AcDbLine
 62
7
  6
CONTINUOUS
 10
152.2800822917
 20
83.3662768659
 11
152.271355547
 21
83.3575501212
  0
LWPOLYLINE
  5
450
100
AcDbEntity
  8
0
100
AcDbPolyline
 62
253
  6
CONTINUOUS
 90
10
 70
0
 10
167.7322638442
 20
97.8670501212
 10
167.731422201
 20
97.8666402752
 10
167.7296515139
 20
97.8662311921
 10
167.7269550792
 20
97.8658236334
 10
167.7233379161
 20
97.8654183579
 10
167.7188067582
 20
97.8650161199
 10
167.7133700401
 20
97.8646176682
 10
167.7070378824
 20
97.8642237446
 10
167.6998220723
 20
97.8638350822
 10
167.6917360422
 20
97.8634524047
  0
LWPOLYLINE
  5
451
100
AcDbEntity
  8
0
100
AcDbPolyline
 62
253
  6
CONTINUOUS
 90
11
 70
0
 10
167.7322638442
 20
116.8480501212
 10
167.7314222011
 20
116.8484599672
 10
167.7296515141
 20
116.8488690503
 10
167.7269550794
 20
116.8492766089
 10
167.7233379165
 20
116.8496818845
 10
167.7188067586
 20
116.8500841225
 10
167.7133700406
 20
116.8504825741
 10
167.7070378829
 20
116.8508764978
 10
167.6998220729
 20
116.8512651602
 10
167.6917360428
 20
116.8516478377
 10
167.6730151231
 20
116.8523924014
  0
LINE
  5
452
100
AcDbEntity
  8
0
100
AcDbLine
 62
7
  6
CONTINUOUS
 10
152.271355547
 20
131.3575501212
 11
152.2800822917
 21
131.3488233765
  0
LWPOLYLINE
  5
453
100
AcDbEntity
  8
0
100
AcDbPolyline
 62
253
  6
CONTINUOUS
 90
37
 70
0
 10
167.7494487288
 20
86.2213921717
 10
167.74861106
 20
86.2181751619
 10
167.7468441107
 20
86.2149641422
 10
167.7441511709
 20
86.2117650913
 10
167.7405372547
 20
86.2085839657
 10
167.736009091
 20
86.2054266886
 10
167.7305751113
 20
86.2022991386
 10
167.7242454333
 20
86.1992071393
 10
167.7170318427
 20
86.1961564477
 10
167.7089477709
 20
86.1931527442
 10
167.7000082703
 20
86.1902016215
 10
167.6902299857
 20
86.1873085746
 10
167.679631124
 20
86.1844789901
 10
167.66823142
 20
86.1817181367
 10
167.6560520995
 20
86.179031155
 10
167.6431158399
 20
86.176423048
 10
167.629446728
 20
86.1738986719
 10
167.6150702153
 20
86.1714627271
 10
167.6000130704
 20
86.1691197492
 10
167.584303329
 20
86.1668741007
 10
167.5679702422
 20
86.1647299629
 10
167.5510442215
 20
86.1626913281
 10
167.5335567827
 20
86.1607619923
 10
167.5155404867
 20
86.1589455477
 10
167.4970288792
 20
86.1572453766
 10
167.4780564281
 20
86.1556646445
 10
167.4586584596
 20
86.1542062947
 10
167.4388710918
 20
86.1528730427
 10
167.4187311681
 20
86.1516673709
 10
167.3982761885
 20
86.1505915242
 10
167.3775442392
 20
86.1496475058
 10
167.3565739225
 20
86.1488370735
 10
167.3354042844
 20
86.1481617362
 10
167.3140747419
 20
86.1476227513
 10
167.2926250098
 20
86.1472211226
 10
167.2710950269
 20
86.1469575976
 10
167.2495248812
 20
86.1468326673
  0
LWPOLYLINE
  5
454
100
AcDbEntity
  8
0
100
AcDbPolyline
 62
253
  6
CONTINUOUS
 90
37
 70
0
 10
167.7494487288
 20
128.4937080707
 10
167.7486110663
 20
128.4969250816
 10
167.746844123
 20
128.5001361026
 10
167.7441511887
 20
128.5033351548
 10
167.7405372777
 20
128.5065162818
 10
167.7360091189
 20
128.5096735602
 10
167.7305751435
 20
128.5128011115
 10
167.7242454695
 20
128.5158931123
 10
167.7170318824
 20
128.5189438052
 10
167.7089478138
 20
128.5219475102
 10
167.7000083158
 20
128.5248986342
 10
167.6902300335
 20
128.5277916826
 10
167.6796311738
 20
128.5306212684
 10
167.6682314712
 20
128.5333821232
 10
167.6560521518
 20
128.5360691063
 10
167.6431158928
 20
128.5386772146
 10
167.6294467813
 20
128.541201592
 10
167.6150702685
 20
128.5436375381
 10
167.6000131231
 20
128.5459805173
 10
167.584303381
 20
128.548226167
 10
167.567970293
 20
128.5503703059
 10
167.5510442709
 20
128.5524089418
 10
167.5335568303
 20
128.5543382787
 10
167.5155405322
 20
128.5561547243
 10
167.4970289223
 20
128.5578548964
 10
167.4780564686
 20
128.5594356294
 10
167.4586584972
 20
128.56089398
 10
167.4388711263
 20
128.5622272328
 10
167.4187311994
 20
128.5634329053
 10
167.3982762162
 20
128.5645087526
 10
167.3775442633
 20
128.5654527716
 10
167.3565739428
 20
128.5662632044
 10
167.3354043008
 20
128.5669385422
 10
167.3140747543
 20
128.5674775274
 10
167.2926250181
 20
128.5678791564
 10
167.2710950311
 20
128.5681426815
 10
167.2495248812
 20
128.568267612
  0
LWPOLYLINE
  5
455
100
AcDbEntity
  8
0
100
AcDbPolyline
 62
7
  6
CONTINUOUS
 90
12
 70
0
 10
149.3463579752
 20
82.8910427295
 10
149.3359147346
 20
82.8853403524
 10
149.3252119933
 20
82.880141349
 10
149.3142739963
 20
82.8754574954
 10
149.3031255208
 20
82.8712993998
 10
149.291791826
 20
82.8676764795
 10
149.2802985858
 20
82.8645969395
 10
149.2686718345
 20
82.8620677535
 10
149.2569379131
 20
82.860094647
 10
149.2451234025
 20
82.8586820869
 10
149.233255063
 20
82.8578332714
 10
149.2213597778
 20
82.8575501212
  0
LWPOLYLINE
  5
456
100
AcDbEntity
  8
0
100
AcDbPolyline
 62
7
  6
CONTINUOUS
 90
12
 70
0
 10
149.3463579752
 20
131.8240575128
 10
149.3565180529
 20
131.8178646793
 10
149.3663719521
 20
131.8111954167
 10
149.3758973508
 20
131.8040648319
 10
149.385072666
 20
131.7964890801
 10
149.3938771131
 20
131.7884853217
 10
149.4022907475
 20
131.7800716873
 10
149.4102945058
 20
131.7712672402
 10
149.4178702577
 20
131.762091925
 10
149.4250008425
 20
131.7525665263
 10
149.4316701051
 20
131.7427126271
 10
149.4378629386
 20
131.7325525495
  0
LWPOLYLINE
  5
457
100
AcDbEntity
  8
RACCORDO
100
AcDbPolyline
 62
253
  6
CONTINUOUS
 90
16
 70
0
 10
163.9786362959
 20
129.8921776638
 10
163.9801725992
 20
129.8896599295
 10
163.984440412
 20
129.8872295418
 10
163.9913661472
 20
129.8848865004
 10
164.0008410957
 20
129.8826095365
 10
164.0127412716
 20
129.880419919
 10
164.0269452747
 20
129.8783814552
 10
164.0432820496
 20
129.8764989523
 10
164.0615757411
 20
129.874767603
 10
164.0816999944
 20
129.8732367932
 10
164.1034696762
 20
129.8719093056
 10
164.126643839
 20
129.8707823575
 10
164.1510072275
 20
129.8698969857
 10
164.1763133979
 20
129.8692668693
 10
164.2022826673
 20
129.8688783293
 10
164.2286320651
 20
129.8687313656
  0
LINE
  5
458
100
AcDbEntity
  8
0
100
AcDbLine
 62
7
  6
CONTINUOUS
 10
145.5722283002
 20
125.8575501212
 11
145.5709192036
 21
125.8575501212
  0
LINE
  5
459
100
AcDbEntity
  8
0
100
AcDbLine
 62
7
  6
CONTINUOUS
 10
167.8704827937
 20
125.8575501212
 11
167.8717918904
 21
125.8575501212
  0
LWPOLYLINE
  5
45A
100
AcDbEntity
  8
0
100
AcDbPolyline
 62
7
  6
CONTINUOUS
 90
12
 70
0
 10
166.8378629386
 20
82.9825476929
 10
166.8316701051
 20
82.9723876153
 10
166.8250008425
 20
82.9625337161
 10
166.8178702577
 20
82.9530083173
 10
166.8102945058
 20
82.9438330021
 10
166.8022907475
 20
82.9350285551
 10
166.7938771131
 20
82.9266149207
 10
166.785072666
 20
82.9186111623
 10
166.7758973508
 20
82.9110354105
 10
166.7663719521
 20
82.9039048257
 10
166.7565180529
 20
82.8972355631
 10
166.7463579752
 20
82.8910427295
  0
LWPOLYLINE
  5
45B
100
AcDbEntity
  8
RACCORDO
100
AcDbPolyline
 62
253
  6
CONTINUOUS
 90
13
 70
0
 10
163.7786396805
 20
129.6924517569
 10
163.8047397487
 20
129.694167754
 10
163.8303933416
 20
129.6992705071
 10
163.8551616854
 20
129.7076727157
 10
163.8786211503
 20
129.7192306457
 10
163.9003705032
 20
129.7337465919
 10
163.9200377672
 20
129.7509722633
 10
163.9372865722
 20
129.7706130203
 10
163.9518219194
 20
129.7923329232
 10
163.9633952261
 20
129.8157604884
 10
163.9718085632
 20
129.8404950216
 10
163.9769180448
 20
129.8661134684
 10
163.9786362959
 20
129.8921776638
  0
LINE
  5
45C
100
AcDbEntity
  8
0
100
AcDbLine
 62
253
  6
CONTINUOUS
 10
146.1931862128
 20
128.5682676123
 11
167.2495248812
 21
128.5682676123
  0
LWPOLYLINE
  5
45D
100
AcDbEntity
  8
RACCORDO
100
AcDbPolyline
 62
253
  6
CONTINUOUS
 90
13
 70
0
 10
149.6640714134
 20
129.6924517569
 10
149.6379716467
 20
129.6941677143
 10
149.6123182813
 20
129.6992703654
 10
149.5875500836
 20
129.7076724363
 10
149.5640906803
 20
129.7192302208
 10
149.5423413128
 20
129.7337460385
 10
149.522673975
 20
129.750971616
 10
149.50542505
 20
129.7706123328
 10
149.4908895575
 20
129.7923322611
 10
149.4793161076
 20
129.8157599106
 10
149.4709026486
 20
129.8404945829
 10
149.4657930813
 20
129.8661132248
 10
149.4640747981
 20
129.8921776638
  0
LWPOLYLINE
  5
45E
100
AcDbEntity
  8
RACCORDO
100
AcDbPolyline
 62
253
  6
CONTINUOUS
 90
16
 70
0
 10
163.7786396805
 20
129.6924517569
 10
163.7817070181
 20
129.6899359931
 10
163.7893359561
 20
129.6875073068
 10
163.8015264947
 20
129.6851656981
 10
163.81851967
 20
129.6828899835
 10
163.8400744459
 20
129.6807013465
 10
163.8654677134
 20
129.6786633373
 10
163.8947645815
 20
129.6767805232
 10
163.9278999413
 20
129.675048337
 10
163.9639553569
 20
129.673516627
 10
164.0030372785
 20
129.6721883283
 10
164.0450392558
 20
129.671060506
 10
164.0887235019
 20
129.6701742035
 10
164.1336774209
 20
129.669543102
 10
164.1803136087
 20
129.6691535204
 10
164.2286320651
 20
129.6690054587
  0
LWPOLYLINE
  5
45F
100
AcDbEntity
  8
0
100
AcDbPolyline
 62
7
  6
CONTINUOUS
 90
12
 70
0
 10
166.8378629386
 20
131.7325525495
 10
166.8435653158
 20
131.7221093088
 10
166.8487643192
 20
131.7114065675
 10
166.8534481728
 20
131.7004685705
 10
166.8576062683
 20
131.689320095
 10
166.8612291887
 20
131.6779864002
 10
166.8643087287
 20
131.66649316
 10
166.8668379147
 20
131.6548664087
 10
166.8688110211
 20
131.6431324873
 10
166.8702235812
 20
131.6313179768
 10
166.8710723967
 20
131.6194496372
 10
166.871355547
 20
131.607554352
  0
LINE
  5
460
100
AcDbEntity
  8
0
100
AcDbLine
 62
253
  6
CONTINUOUS
 10
163.9844541257
 20
83.1206444691
 11
163.971355547
 21
83.1075458904
  0
LINE
  5
461
100
AcDbEntity
  8
0
100
AcDbLine
 62
253
  6
CONTINUOUS
 10
164.2344498949
 20
82.8706486999
 11
164.2213513162
 21
82.8575501212
  0
LINE
  5
462
100
AcDbEntity
  8
0
100
AcDbLine
 62
7
  6
CONTINUOUS
 10
146.0316694305
 20
129.7559443395
 11
146.0108361455
 21
129.7539279819
  0
LWPOLYLINE
  5
463
100
AcDbEntity
  8
RACCORDO
100
AcDbPolyline
 62
253
  6
CONTINUOUS
 90
13
 70
0
 10
146.3786396805
 20
129.6924517569
 10
146.4047397487
 20
129.694167754
 10
146.4303933416
 20
129.6992705071
 10
146.4551616854
 20
129.7076727157
 10
146.4786211503
 20
129.7192306457
 10
146.5003705032
 20
129.7337465919
 10
146.5200377672
 20
129.7509722633
 10
146.5372865722
 20
129.7706130203
 10
146.5518219194
 20
129.7923329232
 10
146.5633952261
 20
129.8157604884
 10
146.5718085632
 20
129.8404950216
 10
146.5769180448
 20
129.8661134684
 10
146.5786362959
 20
129.8921776638
  0
LINE
  5
464
100
AcDbEntity
  8
0
100
AcDbLine
 62
7
  6
CONTINUOUS
 10
146.0515200489
 20
129.7571508869
 11
146.0309046785
 21
129.7559432682
  0
LINE
  5
465
100
AcDbEntity
  8
0
100
AcDbLine
 62
7
  6
CONTINUOUS
 10
146.0515200489
 20
129.7571508869
 11
146.0713802784
 21
129.7575501212
  0
LWPOLYLINE
  5
466
100
AcDbEntity
  8
0
100
AcDbPolyline
 62
7
  6
CONTINUOUS
 90
46
 70
0
 10
149.2140790289
 20
130.480199852
 10
149.2236007392
 20
130.4803399922
 10
149.233094319
 20
130.4806852008
 10
149.2425461269
 20
130.4812354777
 10
149.2519552747
 20
130.4819955692
 10
149.261295712
 20
130.4829607291
 10
149.2705170658
 20
130.4841167187
 10
149.2795944417
 20
130.4854639596
 10
149.2885297993
 20
130.4870020302
 10
149.2973145195
 20
130.4887154281
 10
149.3059382615
 20
130.490604423
 10
149.3143913333
 20
130.4926687451
 10
149.3226667148
 20
130.4948920824
 10
149.3307555555
 20
130.49727458
 10
149.3386496261
 20
130.4998160927
 10
149.3463433765
 20
130.5024998725
 10
149.3538293703
 20
130.5053259638
 10
149.3611007475
 20
130.5082943223
 10
149.3681532673
 20
130.5113880672
 10
149.3749808266
 20
130.5146071743
 10
149.3815778159
 20
130.5179516678
 10
149.3879410846
 20
130.5214047397
 10
149.3940657584
 20
130.5249663218
 10
149.3999473803
 20
130.5286364823
 10
149.4055836997
 20
130.5323986181
 10
149.4109709671
 20
130.5362526344
 10
149.4161057912
 20
130.540198626
 10
149.4209866723
 20
130.5442202744
 10
149.4256108928
 20
130.5483174685
 10
149.4299760503
 20
130.5524903194
 10
149.4340812938
 20
130.5567228412
 10
149.4379248565
 20
130.5610149111
 10
149.4415052599
 20
130.565366652
 10
149.4448222422
 20
130.569762446
 10
149.4478749188
 20
130.5742021586
 10
149.4506626789
 20
130.5786859244
 10
149.4531858231
 20
130.5831985296
 10
149.4554442909
 20
130.5877398229
 10
149.45743829
 20
130.5923099556
 10
149.4591686798
 20
130.596894168
 10
149.4606361736
 20
130.6014922871
 10
149.4618417492
 20
130.6061044858
 10
149.4627868281
 20
130.6107165225
 10
149.4634728764
 20
130.6153236501
 10
149.4639015421
 20
130.6199306157
 10
149.4640747981
 20
130.6245374193
  0
LWPOLYLINE
  5
467
100
AcDbEntity
  8
RACCORDO
100
AcDbPolyline
 62
253
  6
CONTINUOUS
 90
15
 70
0
 10
166.6623974843
 20
129.6691535205
 10
166.7090336716
 20
129.6695431022
 10
166.7539875907
 20
129.6701742037
 10
166.7976718377
 20
129.6710605061
 10
166.8396738164
 20
129.6721883283
 10
166.878755739
 20
129.6735166269
 10
166.9148111549
 20
129.6750483368
 10
166.9479465146
 20
129.6767805231
 10
166.9772433816
 20
129.6786633372
 10
167.0026366457
 20
129.6807013465
 10
167.0241914171
 20
129.6828899836
 10
167.0411845902
 20
129.6851656983
 10
167.0533751296
 20
129.687507307
 10
167.0610040707
 20
129.6899359932
 10
167.0640714134
 20
129.6924517569
  0
LWPOLYLINE
  5
468
100
AcDbEntity
  8
RACCORDO
100
AcDbPolyline
 62
253
  6
CONTINUOUS
 90
15
 70
0
 10
149.2623974843
 20
129.6691535205
 10
149.3090336716
 20
129.6695431022
 10
149.3539875907
 20
129.6701742037
 10
149.3976718377
 20
129.6710605061
 10
149.4396738164
 20
129.6721883283
 10
149.478755739
 20
129.6735166269
 10
149.5148111549
 20
129.6750483368
 10
149.5479465146
 20
129.6767805231
 10
149.5772433816
 20
129.6786633372
 10
149.6026366457
 20
129.6807013465
 10
149.6241914171
 20
129.6828899836
 10
149.6411845902
 20
129.6851656983
 10
149.6533751296
 20
129.687507307
 10
149.6610040707
 20
129.6899359932
 10
149.6640714134
 20
129.6924517569
  0
LWPOLYLINE
  5
469
100
AcDbEntity
  8
RACCORDO
100
AcDbPolyline
 62
253
  6
CONTINUOUS
 90
16
 70
0
 10
166.6140790289
 20
129.8687313656
 10
166.6404284266
 20
129.86887833
 10
166.666397696
 20
129.8692668704
 10
166.6917038664
 20
129.8698969868
 10
166.716067255
 20
129.8707823581
 10
166.7392414178
 20
129.8719093054
 10
166.7610110996
 20
129.8732367924
 10
166.7811353529
 20
129.8747676023
 10
166.7994290443
 20
129.876498952
 10
166.8157658192
 20
129.8783814553
 10
166.8299698224
 20
129.8804199192
 10
166.8418699983
 20
129.8826095369
 10
166.8513449467
 20
129.8848865009
 10
166.8582706819
 20
129.8872295421
 10
166.8625384947
 20
129.8896599298
 10
166.8640747981
 20
129.8921776638
  0
LWPOLYLINE
  5
46A
100
AcDbEntity
  8
RACCORDO
100
AcDbPolyline
 62
253
  6
CONTINUOUS
 90
16
 70
0
 10
149.2140790289
 20
129.8687313656
 10
149.2404284266
 20
129.86887833
 10
149.266397696
 20
129.8692668704
 10
149.2917038664
 20
129.8698969868
 10
149.316067255
 20
129.8707823581
 10
149.3392414178
 20
129.8719093054
 10
149.3610110996
 20
129.8732367924
 10
149.3811353529
 20
129.8747676023
 10
149.3994290443
 20
129.876498952
 10
149.4157658192
 20
129.8783814553
 10
149.4299698224
 20
129.8804199192
 10
149.4418699983
 20
129.8826095369
 10
149.4513449467
 20
129.8848865009
 10
149.4582706819
 20
129.8872295421
 10
149.4625384947
 20
129.8896599298
 10
149.4640747981
 20
129.8921776638
  0
LINE
  5
46B
100
AcDbEntity
  8
0
100
AcDbLine
 62
253
  6
CONTINUOUS
 10
146.1850130245
 20
129.4177780638
 11
167.2576980695
 21
129.4177780638
  0
LINE
  5
46C
100
AcDbEntity
  8
RACCORDO
100
AcDbLine
 62
253
  6
CONTINUOUS
 10
146.8286320651
 20
129.6690054587
 11
149.2623974843
 21
129.6691535205
  0
LINE
  5
46D
100
AcDbEntity
  8
RACCORDO
100
AcDbLine
 62
253
  6
CONTINUOUS
 10
164.2286320651
 20
129.6690054587
 11
166.6623974843
 21
129.6691535205
  0
LINE
  5
46E
100
AcDbEntity
  8
0
100
AcDbLine
 62
7
  6
CONTINUOUS
 10
152.2800822917
 20
129.6789384523
 11
153.221355547
 21
129.6789384523
  0
LINE
  5
46F
100
AcDbEntity
  8
0
100
AcDbLine
 62
7
  6
CONTINUOUS
 10
160.221355547
 20
129.6789384523
 11
161.1626288023
 21
129.6789384523
  0
LINE
  5
470
100
AcDbEntity
  8
0
100
AcDbLine
 62
7
  6
CONTINUOUS
 10
160.221355547
 20
129.7313462315
 11
157.921355547
 21
129.7313462315
  0
LINE
  5
471
100
AcDbEntity
  8
0
100
AcDbLine
 62
7
  6
CONTINUOUS
 10
155.521355547
 20
129.7313462315
 11
153.221355547
 21
129.7313462315
  0
LINE
  5
472
100
AcDbEntity
  8
RACCORDO
100
AcDbLine
 62
7
  6
CONTINUOUS
 10
167.3717982365
 20
129.7575501212
 11
167.0712980351
 21
129.7575501212
  0
LINE
  5
473
100
AcDbEntity
  8
RACCORDO
100
AcDbLine
 62
7
  6
CONTINUOUS
 10
163.7714130589
 20
129.7575501212
 11
161.171355547
 21
129.7575501212
  0
LINE
  5
474
100
AcDbEntity
  8
RACCORDO
100
AcDbLine
 62
7
  6
CONTINUOUS
 10
152.271355547
 20
129.7575501212
 11
149.6712980351
 21
129.7575501212
  0
LINE
  5
475
100
AcDbEntity
  8
RACCORDO
100
AcDbLine
 62
7
  6
CONTINUOUS
 10
146.3714130589
 20
129.7575501212
 11
146.0709128575
 21
129.7575501212
  0
LINE
  5
476
100
AcDbEntity
  8
0
100
AcDbLine
 62
7
  6
CONTINUOUS
 10
155.721355547
 20
129.7575501212
 11
157.721355547
 21
129.7575501212
  0
LINE
  5
477
100
AcDbEntity
  8
RACCORDO
100
AcDbLine
 62
253
  6
CONTINUOUS
 10
146.8286320651
 20
129.8687313656
 11
149.2140790289
 21
129.8687313656
  0
LINE
  5
478
100
AcDbEntity
  8
RACCORDO
100
AcDbLine
 62
253
  6
CONTINUOUS
 10
164.2286320651
 20
129.8687313656
 11
166.6140790289
 21
129.8687313656
  0
LINE
  5
479
100
AcDbEntity
  8
0
100
AcDbLine
 62
7
  6
CONTINUOUS
 10
166.6140790289
 20
130.480199852
 11
164.2286320651
 21
130.480199852
  0
LINE
  5
47A
100
AcDbEntity
  8
0
100
AcDbLine
 62
7
  6
CONTINUOUS
 10
146.8286320651
 20
130.480199852
 11
149.2140790289
 21
130.480199852
  0
LINE
  5
47B
100
AcDbEntity
  8
0
100
AcDbLine
 62
253
  6
CONTINUOUS
 10
146.8344498949
 20
130.9853813375
 11
149.208261199
 21
130.9853813375
  0
LINE
  5
47C
100
AcDbEntity
  8
0
100
AcDbLine
 62
253
  6
CONTINUOUS
 10
164.2344498949
 20
130.9853813375
 11
166.608261199
 21
130.9853813375
  0
LWPOLYLINE
  5
47D
100
AcDbEntity
  8
0
100
AcDbPolyline
 62
7
  6
CONTINUOUS
 90
3
 70
0
 10
167.4118064154
 20
129.7559432682
 10
167.3916250378
 20
129.7571506479
 10
167.3713308154
 20
129.7575501212
  0
LWPOLYLINE
  5
47E
100
AcDbEntity
  8
RACCORDO
100
AcDbPolyline
 62
253
  6
CONTINUOUS
 90
13
 70
0
 10
167.0640714134
 20
129.6924517569
 10
167.0379716467
 20
129.6941677143
 10
167.0123182813
 20
129.6992703654
 10
166.9875500836
 20
129.7076724363
 10
166.9640906803
 20
129.7192302208
 10
166.9423413128
 20
129.7337460385
 10
166.922673975
 20
129.750971616
 10
166.90542505
 20
129.7706123328
 10
166.8908895575
 20
129.7923322611
 10
166.8793161076
 20
129.8157599106
 10
166.8709026486
 20
129.8404945829
 10
166.8657930813
 20
129.8661132248
 10
166.8640747981
 20
129.8921776638
  0
LINE
  5
47F
100
AcDbEntity
  8
0
100
AcDbLine
 62
7
  6
CONTINUOUS
 10
167.4110416633
 20
129.7559443395
 11
167.4318749484
 21
129.7539279819
  0
LINE
  5
480
100
AcDbEntity
  8
0
100
AcDbLine
 62
7
  6
CONTINUOUS
 10
167.4308826706
 20
129.753930479
 11
167.4518633821
 21
129.7510968137
  0
LWPOLYLINE
  5
481
100
AcDbEntity
  8
0
100
AcDbPolyline
 62
7
  6
CONTINUOUS
 90
9
 70
0
 10
149.2569379131
 20
131.8550055953
 10
149.2686718345
 20
131.8530324889
 10
149.2802985858
 20
131.8505033029
 10
149.291791826
 20
131.8474237629
 10
149.3031255208
 20
131.8438008425
 10
149.3142739963
 20
131.839642747
 10
149.3252119933
 20
131.8349588934
 10
149.3359147346
 20
131.82975989
 10
149.3463579752
 20
131.8240575128
  0
LINE
  5
482
100
AcDbEntity
  8
0
100
AcDbLine
 62
253
  6
CONTINUOUS
 10
163.9844541257
 20
131.5944557733
 11
163.971355547
 21
131.607554352
  0
LINE
  5
483
100
AcDbEntity
  8
0
100
AcDbLine
 62
253
  6
CONTINUOUS
 10
164.2344498949
 20
131.8444515425
 11
164.2213513162
 21
131.8575501212
  0
LWPOLYLINE
  5
484
100
AcDbEntity
  8
0
100
AcDbPolyline
 62
7
  6
CONTINUOUS
 90
12
 70
0
 10
166.7463579752
 20
82.8910427295
 10
166.7359147346
 20
82.8853403524
 10
166.7252119933
 20
82.880141349
 10
166.7142739963
 20
82.8754574954
 10
166.7031255208
 20
82.8712993998
 10
166.691791826
 20
82.8676764795
 10
166.6802985858
 20
82.8645969395
 10
166.6686718345
 20
82.8620677535
 10
166.6569379131
 20
82.860094647
 10
166.6451234025
 20
82.8586820869
 10
166.633255063
 20
82.8578332714
 10
166.6213597778
 20
82.8575501212
  0
LWPOLYLINE
  5
485
100
AcDbEntity
  8
0
100
AcDbPolyline
 62
7
  6
CONTINUOUS
 90
30
 70
0
 10
167.5665119338
 20
84.9974727107
 10
167.5859722848
 20
85.0057373991
 10
167.6039518585
 20
85.0147108774
 10
167.6216218043
 20
85.0244412992
 10
167.6389518345
 20
85.0349090032
 10
167.6558121951
 20
85.0460426128
 10
167.6721915607
 20
85.0578469415
 10
167.6881012566
 20
85.0703171758
 10
167.703445505
 20
85.0833674989
 10
167.7181974025
 20
85.0969743847
 10
167.7323838525
 20
85.1111613592
 10
167.7459897881
 20
85.125913183
 10
167.7590385007
 20
85.1412563241
 10
167.771506699
 20
85.1571643144
 10
167.783309442
 20
85.1735425117
 10
167.7944423321
 20
85.1904026982
 10
167.8049097669
 20
85.2077330916
 10
167.8146399981
 20
85.2254037026
 10
167.8236134287
 20
85.2433847516
 10
167.8318496557
 20
85.2617060181
 10
167.8393357215
 20
85.2803268519
 10
167.8460785118
 20
85.2992632835
 10
167.8520711408
 20
85.3184992823
 10
167.8572799939
 20
85.3379461062
 10
167.861701818
 20
85.357623941
 10
167.8653398662
 20
85.3775126009
 10
167.8681702831
 20
85.3974627865
 10
167.8701851168
 20
85.4174247313
 10
167.8713923193
 20
85.4374482019
 10
167.8717918904
 20
85.4575331982
  0
LINE
  5
486
100
AcDbEntity
  8
0
100
AcDbLine
 62
7
  6
CONTINUOUS
 10
167.547912591
 20
84.9899915166
 11
167.5676527956
 21
84.9975012029
  0
LINE
  5
487
100
AcDbEntity
  8
0
100
AcDbLine
 62
7
  6
CONTINUOUS
 10
167.5289953339
 20
84.9832521354
 11
167.5490322814
 21
84.9900146815
  0
LINE
  5
488
100
AcDbEntity
  8
0
100
AcDbLine
 62
7
  6
CONTINUOUS
 10
167.5097772793
 20
84.9772619667
 11
167.5300937243
 21
84.9832705305
  0
LINE
  5
489
100
AcDbEntity
  8
0
100
AcDbLine
 62
7
  6
CONTINUOUS
 10
145.9523630682
 20
129.7430450185
 11
145.9318569517
 21
129.7378241881
  0
LINE
  5
48A
100
AcDbEntity
  8
0
100
AcDbLine
 62
7
  6
CONTINUOUS
 10
145.9513076148
 20
129.7430346837
 11
145.9720408502
 21
129.7474648936
  0
LINE
  5
48B
100
AcDbEntity
  8
0
100
AcDbLine
 62
7
  6
CONTINUOUS
 10
145.9709721228
 20
129.747457739
 11
145.9919298311
 21
129.7511013428
  0
LINE
  5
48C
100
AcDbEntity
  8
0
100
AcDbLine
 62
7
  6
CONTINUOUS
 10
146.0118284232
 20
129.753930479
 11
145.9908477118
 21
129.7510968137
  0
LWPOLYLINE
  5
48D
100
AcDbEntity
  8
0
100
AcDbPolyline
 62
7
  6
CONTINUOUS
 90
33
 70
0
 10
157.921355547
 20
131.3557980029
 10
157.911837778
 20
131.3555714086
 10
157.9023415617
 20
131.3548921376
 10
157.8928884164
 20
131.3537617272
 10
157.8834997569
 20
131.3521827355
 10
157.8741968647
 20
131.3501587392
 10
157.8650008389
 20
131.3476943278
 10
157.8559325227
 20
131.3447950883
 10
157.8470124596
 20
131.3414675896
 10
157.8382608643
 20
131.3377193734
 10
157.829697566
 20
131.3335589332
 10
157.8213419704
 20
131.3289956981
 10
157.8132130179
 20
131.3240400139
 10
157.8053291293
 20
131.3187031132
 10
157.7977081662
 20
131.3129970899
 10
157.7903673967
 20
131.3069348761
 10
157.7833234481
 20
131.3005302054
 10
157.7765922859
 20
131.2937975965
 10
157.7701891752
 20
131.2867523236
 10
157.7641286386
 20
131.2794103764
 10
157.758424385
 20
131.2717883744
 10
157.7530893014
 20
131.2639035385
 10
157.748135436
 20
131.2557736581
 10
157.7435740674
 20
131.2474172238
 10
157.7394156169
 20
131.2388533494
 10
157.7356695309
 20
131.2301015664
 10
157.7323442172
 20
131.2211816027
 10
157.729447137
 20
131.2121135074
 10
157.7269844962
 20
131.2029163477
 10
157.7249623735
 20
131.1936124048
 10
157.7233859756
 20
131.1842271057
 10
157.722258394
 20
131.1747832602
 10
157.7215812822
 20
131.1653008644
  0
LWPOLYLINE
  5
48E
100
AcDbEntity
  8
0
100
AcDbPolyline
 62
7
  6
CONTINUOUS
 90
36
 70
0
 10
157.921355547
 20
131.3575501212
 10
157.9126315711
 20
131.3573597579
 10
157.9039242076
 20
131.3567890311
 10
157.8952500319
 20
131.3558390281
 10
157.886625556
 20
131.3545115577
 10
157.8780671972
 20
131.3528091476
 10
157.8695912468
 20
131.3507350395
 10
157.8612138394
 20
131.348293182
 10
157.8529509218
 20
131.345488224
 10
157.8448182232
 20
131.3423255061
 10
157.8368312244
 20
131.338811049
 10
157.829005129
 20
131.3349515433
 10
157.8213548346
 20
131.3307543372
 10
157.8138949036
 20
131.3262274206
 10
157.8066395363
 20
131.3213794112
 10
157.7996025433
 20
131.316219539
 10
157.7927973198
 20
131.3107576263
 10
157.7862368194
 20
131.3050040705
 10
157.7799335301
 20
131.2989698254
 10
157.7738994499
 20
131.2926663776
 10
157.7681460645
 20
131.2861057262
 10
157.7626843253
 20
131.2793003612
 10
157.7575246283
 20
131.2722632371
 10
157.7526767945
 20
131.2650077494
 10
157.7481500515
 20
131.2575477104
 10
157.7439530152
 20
131.2498973208
 10
157.7400936744
 20
131.2420711431
 10
157.7365793744
 20
131.2340840759
 10
157.7334168043
 20
131.2259513226
 10
157.7306119834
 20
131.2176883639
 10
157.7281702499
 20
131.2093109296
 10
157.7260962511
 20
131.2008349658
 10
157.7243939341
 20
131.1922766066
 10
157.7230665387
 20
131.1836521434
 10
157.7221165909
 20
131.174977993
 10
157.7215458984
 20
131.1662706661
  0
LINE
  5
48F
100
AcDbEntity
  8
0
100
AcDbLine
 62
253
  6
CONTINUOUS
 10
160.221355547
 20
131.1558013876
 11
157.721355547
 21
131.1558013876
  0
LINE
  5
490
100
AcDbEntity
  8
0
100
AcDbLine
 62
253
  6
CONTINUOUS
 10
153.221355547
 20
131.1558013876
 11
155.721355547
 21
131.1558013876
  0
LINE
  5
491
100
AcDbEntity
  8
0
100
AcDbLine
 62
253
  6
CONTINUOUS
 10
146.5844541257
 20
131.2018876885
 11
149.4582569683
 21
131.2018876885
  0
LINE
  5
492
100
AcDbEntity
  8
0
100
AcDbLine
 62
253
  6
CONTINUOUS
 10
163.9844541257
 20
131.2018876885
 11
166.8582569683
 21
131.2018876885
  0
LINE
  5
493
100
AcDbEntity
  8
0
100
AcDbLine
 62
7
  6
CONTINUOUS
 10
152.2800822917
 20
131.3488233765
 11
153.221355547
 21
131.3488233765
  0
LINE
  5
494
100
AcDbEntity
  8
0
100
AcDbLine
 62
7
  6
CONTINUOUS
 10
160.221355547
 20
131.3488233765
 11
161.1626288023
 21
131.3488233765
  0
LINE
  5
495
100
AcDbEntity
  8
0
100
AcDbLine
 62
7
  6
CONTINUOUS
 10
160.221355547
 20
131.3557980029
 11
157.921355547
 21
131.3557980029
  0
LINE
  5
496
100
AcDbEntity
  8
0
100
AcDbLine
 62
7
  6
CONTINUOUS
 10
155.521355547
 20
131.3557980029
 11
153.221355547
 21
131.3557980029
  0
LINE
  5
497
100
AcDbEntity
  8
0
100
AcDbLine
 62
7
  6
CONTINUOUS
 10
152.271355547
 20
131.3575501212
 11
153.221355547
 21
131.3575501212
  0
LINE
  5
498
100
AcDbEntity
  8
0
100
AcDbLine
 62
7
  6
CONTINUOUS
 10
160.221355547
 20
131.3575501212
 11
161.171355547
 21
131.3575501212
  0
LINE
  5
499
100
AcDbEntity
  8
0
100
AcDbLine
 62
253
  6
CONTINUOUS
 10
146.5844541257
 20
131.5944557733
 11
149.4582569683
 21
131.5944557733
  0
LINE
  5
49A
100
AcDbEntity
  8
0
100
AcDbLine
 62
253
  6
CONTINUOUS
 10
163.9844541257
 20
131.5944557733
 11
166.8582569683
 21
131.5944557733
  0
LINE
  5
49B
100
AcDbEntity
  8
0
100
AcDbLine
 62
7
  6
CONTINUOUS
 10
166.608261199
 20
131.8444515425
 11
164.2344498949
 21
131.8444515425
  0
LINE
  5
49C
100
AcDbEntity
  8
0
100
AcDbLine
 62
7
  6
CONTINUOUS
 10
149.208261199
 20
131.8444515425
 11
146.8344498949
 21
131.8444515425
  0
LINE
  5
49D
100
AcDbEntity
  8
0
100
AcDbLine
 62
7
  6
CONTINUOUS
 10
166.6213597778
 20
131.8575501212
 11
164.2213513162
 21
131.8575501212
  0
LINE
  5
49E
100
AcDbEntity
  8
0
100
AcDbLine
 62
7
  6
CONTINUOUS
 10
149.2213597778
 20
131.8575501212
 11
146.8213513162
 21
131.8575501212
  0
LWPOLYLINE
  5
49F
100
AcDbEntity
  8
0
100
AcDbPolyline
 62
7
  6
CONTINUOUS
 90
37
 70
0
 10
155.521355547
 20
131.3575501212
 10
155.5300795229
 20
131.3573597579
 10
155.5387868863
 20
131.3567890311
 10
155.547461062
 20
131.3558390281
 10
155.556085538
 20
131.3545115577
 10
155.5646438968
 20
131.3528091476
 10
155.5731198471
 20
131.3507350395
 10
155.5814972546
 20
131.348293182
 10
155.5897601721
 20
131.345488224
 10
155.5978928708
 20
131.3423255061
 10
155.6058798696
 20
131.338811049
 10
155.6137059649
 20
131.3349515433
 10
155.6213562594
 20
131.3307543372
 10
155.6288161903
 20
131.3262274206
 10
155.6360715577
 20
131.3213794112
 10
155.6431085506
 20
131.316219539
 10
155.6499137741
 20
131.3107576263
 10
155.6564742745
 20
131.3050040705
 10
155.6627775639
 20
131.2989698254
 10
155.6688116441
 20
131.2926663776
 10
155.6745650294
 20
131.2861057262
 10
155.6800267687
 20
131.2793003612
 10
155.6851864657
 20
131.2722632371
 10
155.6900342994
 20
131.2650077494
 10
155.6945610425
 20
131.2575477104
 10
155.6987580787
 20
131.2498973208
 10
155.7026174196
 20
131.2420711431
 10
155.7061317195
 20
131.2340840759
 10
155.7092942896
 20
131.2259513226
 10
155.7120991106
 20
131.2176883639
 10
155.7145408441
 20
131.2093109296
 10
155.7166148429
 20
131.2008349658
 10
155.7183171598
 20
131.1922766066
 10
155.7196445552
 20
131.1836521434
 10
155.720594503
 20
131.174977993
 10
155.7211651955
 20
131.1662706661
 10
155.721355547
 20
131.1575467365
  0
LWPOLYLINE
  5
4A0
100
AcDbEntity
  8
0
100
AcDbPolyline
 62
253
  6
CONTINUOUS
 90
33
 70
0
 10
155.521355547
 20
131.3557980029
 10
155.5308719301
 20
131.3555714746
 10
155.5403667556
 20
131.3548924028
 10
155.5498185146
 20
131.3537623258
 10
155.5592057958
 20
131.3521838035
 10
155.5685073341
 20
131.350160412
 10
155.5777020583
 20
131.3476967348
 10
155.5867691396
 20
131.3447983528
 10
155.5956880381
 20
131.341471832
 10
155.6044385496
 20
131.3377247079
 10
155.6130008513
 20
131.3335654689
 10
155.621355547
 20
131.3290035371
 10
155.6294837105
 20
131.3240492468
 10
155.6373669289
 20
131.3187138209
 10
155.6449873442
 20
131.313009346
 10
155.6523276938
 20
131.3069487445
 10
155.6593713493
 20
131.3005457456
 10
155.6661023546
 20
131.2938148542
 10
155.6725054618
 20
131.2867713179
 10
155.6785661659
 20
131.2794310926
 10
155.6842707374
 20
131.2718108062
 10
155.6896062535
 20
131.2639277212
 10
155.6945606277
 20
131.2557996952
 10
155.6991226367
 20
131.247445141
 10
155.703281946
 20
131.2388829841
 10
155.7070291336
 20
131.2301326207
 10
155.7103557107
 20
131.2212138732
 10
155.7132541417
 20
131.2121469454
 10
155.7157178606
 20
131.2029523767
 10
155.7177412864
 20
131.1936509959
 10
155.7193198354
 20
131.1842638735
 10
155.7204499315
 20
131.1748122745
 10
155.7211290148
 20
131.1653176097
  0
LWPOLYLINE
  5
4A1
100
AcDbEntity
  8
0
100
AcDbPolyline
 62
7
  6
CONTINUOUS
 90
34
 70
0
 10
149.208261199
 20
131.8444515425
 10
149.2201562206
 20
131.8441679917
 10
149.2320242972
 20
131.8433187867
 10
149.2438385451
 20
131.8419058513
 10
149.2555722024
 20
131.839932386
 10
149.2671986896
 20
131.8374028613
 10
149.2786916702
 20
131.8343230069
 10
149.29002511
 20
131.8306997995
 10
149.3011733363
 20
131.8265414464
 10
149.3121110957
 20
131.8218573674
 10
149.3228136119
 20
131.8166581727
 10
149.3332566411
 20
131.8109556398
 10
149.3434165277
 20
131.8047626863
 10
149.3532702572
 20
131.7980933405
 10
149.3627955087
 20
131.7909627099
 10
149.3719707054
 20
131.7833869471
 10
149.3807750633
 20
131.7753832129
 10
149.3891886387
 20
131.7669696375
 10
149.3971923729
 20
131.7581652796
 10
149.4047681357
 20
131.7489900829
 10
149.4118987662
 20
131.7394648314
 10
149.4185681121
 20
131.7296111019
 10
149.4247610656
 20
131.7194512153
 10
149.4304635985
 20
131.7090081861
 10
149.4356627931
 20
131.6983056699
 10
149.4403468722
 20
131.6873679105
 10
149.4445052253
 20
131.6762196843
 10
149.4481284327
 20
131.6648862444
 10
149.451208287
 20
131.6533932638
 10
149.4537378118
 20
131.6417667766
 10
149.4557112771
 20
131.6300331194
 10
149.4571242125
 20
131.6182188714
 10
149.4579734174
 20
131.6063507948
 10
149.4582569683
 20
131.5944557733
  0
LWPOLYLINE
  5
4A2
100
AcDbEntity
  8
0
100
AcDbPolyline
 62
7
  6
CONTINUOUS
 90
4
 70
0
 10
149.2213597778
 20
131.8575501212
 10
149.233255063
 20
131.8572669709
 10
149.2451234025
 20
131.8564181554
 10
149.2569379131
 20
131.8550055953
  0
LWPOLYLINE
  5
4A3
100
AcDbEntity
  8
0
100
AcDbPolyline
 62
7
  6
CONTINUOUS
 90
34
 70
0
 10
166.608261199
 20
131.8444515425
 10
166.6201366706
 20
131.8441689228
 10
166.6319904131
 20
131.843322021
 10
166.6437955886
 20
131.841912025
 10
166.6555270833
 20
131.8399410791
 10
166.6671565185
 20
131.8374130892
 10
166.6786524842
 20
131.8343345105
 10
166.6899872493
 20
131.8307129008
 10
166.7011368612
 20
131.8265560464
 10
166.7120762624
 20
131.8218732728
 10
166.7227807972
 20
131.8166750875
 10
166.7332260507
 20
131.810973299
 10
166.7433881263
 20
131.8047809366
 10
166.753243911
 20
131.7981120993
 10
166.7627711724
 20
131.790981846
 10
166.7719483857
 20
131.7834062851
 10
166.7807547772
 20
131.7754025535
 10
166.7891703635
 20
131.7669888019
 10
166.7971760576
 20
131.7581841064
 10
166.8047537142
 20
131.7490084194
 10
166.8118861652
 20
131.7394825251
 10
166.8185572453
 20
131.729628009
 10
166.8247518376
 20
131.7194671969
 10
166.8304559029
 20
131.7090231117
 10
166.8356565105
 20
131.6983194252
 10
166.8403418748
 20
131.6873803917
 10
166.8445013791
 20
131.6762307954
 10
166.8481255962
 20
131.6648959029
 10
166.8512063148
 20
131.6534013918
 10
166.8537365519
 20
131.6417733125
 10
166.8557105705
 20
131.6300380328
 10
166.8571238993
 20
131.6182221504
 10
166.8579733394
 20
131.6063524322
 10
166.8582569683
 20
131.5944557733
  0
LWPOLYLINE
  5
4A4
100
AcDbEntity
  8
0
100
AcDbPolyline
 62
7
  6
CONTINUOUS
 90
4
 70
0
 10
166.6213597778
 20
131.8575501212
 10
166.633255063
 20
131.8572669709
 10
166.6451234025
 20
131.8564181554
 10
166.6569379131
 20
131.8550055953
  0
LWPOLYLINE
  5
4A5
100
AcDbEntity
  8
0
100
AcDbPolyline
 62
7
  6
CONTINUOUS
 90
9
 70
0
 10
166.6569379131
 20
131.8550055953
 10
166.6686718345
 20
131.8530324889
 10
166.6802985858
 20
131.8505033029
 10
166.691791826
 20
131.8474237629
 10
166.7031255208
 20
131.8438008425
 10
166.7142739963
 20
131.839642747
 10
166.7252119933
 20
131.8349588934
 10
166.7359147346
 20
131.82975989
 10
166.7463579752
 20
131.8240575128
  0
LINE
  5
4A6
100
AcDbEntity
  8
0
100
AcDbLine
 62
7
  6
CONTINUOUS
 10
167.4717389711
 20
129.747457739
 11
167.4507812626
 21
129.7511013429
  0
LINE
  5
4A7
100
AcDbEntity
  8
0
100
AcDbLine
 62
7
  6
CONTINUOUS
 10
167.4914034792
 20
129.7430346837
 11
167.4706702436
 21
129.7474648936
  0
LINE
  5
4A8
100
AcDbEntity
  8
0
100
AcDbLine
 62
7
  6
CONTINUOUS
 10
167.4903480256
 20
129.7430450185
 11
167.5108541422
 21
129.7378241881
  0
LINE
  5
4A9
100
AcDbEntity
  8
0
100
AcDbLine
 62
7
  6
CONTINUOUS
 10
167.5097772791
 20
129.7378382757
 11
167.5300937243
 21
129.7318297119
  0
LINE
  5
4AA
100
AcDbEntity
  8
0
100
AcDbLine
 62
7
  6
CONTINUOUS
 10
167.5289953337
 20
129.731848107
 11
167.5490322814
 21
129.7250855609
  0
LINE
  5
4AB
100
AcDbEntity
  8
0
100
AcDbLine
 62
7
  6
CONTINUOUS
 10
167.5676527956
 20
129.7175990395
 11
167.5479125908
 21
129.7251087258
  0
LINE
  5
4AC
100
AcDbEntity
  8
0
100
AcDbLine
 62
7
  6
CONTINUOUS
 10
167.5665119337
 20
129.7176275318
 11
167.5859722848
 21
129.7093628433
  0
LWPOLYLINE
  5
4AD
100
AcDbEntity
  8
0
100
AcDbPolyline
 62
7
  6
CONTINUOUS
 90
29
 70
0
 10
167.5848104791
 20
129.7093971252
 10
167.6027699789
 20
129.7004295203
 10
167.620420772
 20
129.6907051112
 10
167.6377325195
 20
129.6802435037
 10
167.6545759565
 20
129.6691155298
 10
167.6709399086
 20
129.6573163275
 10
167.6868355501
 20
129.6448507588
 10
167.70216714
 20
129.6318042416
 10
167.7169077899
 20
129.6182003337
 10
167.7310843882
 20
129.6040154774
 10
167.7446818586
 20
129.5892644168
 10
167.7577235039
 20
129.573920728
 10
167.7701860212
 20
129.558010835
 10
167.7819844264
 20
129.5416287537
 10
167.7931144505
 20
129.5247625539
 10
167.8035803625
 20
129.5074241657
 10
167.8133099849
 20
129.489743396
 10
167.8222837486
 20
129.4717499281
 10
167.8305212228
 20
129.4534140787
 10
167.8380089375
 20
129.434776604
 10
167.8447537215
 20
129.4158216081
 10
167.8507487459
 20
129.3965649868
 10
167.8559600544
 20
129.3770951842
 10
167.8603844453
 20
129.3573918732
 10
167.8640251202
 20
129.3374753808
 10
167.8668577277
 20
129.3174951317
 10
167.8688741505
 20
129.2975009342
 10
167.8700825059
 20
129.27744298
 10
167.8704827937
 20
129.2573212691
  0
LWPOLYLINE
  5
4AE
100
AcDbEntity
  8
0
100
AcDbPolyline
 62
7
  6
CONTINUOUS
 90
12
 70
0
 10
166.7463579752
 20
131.8240575128
 10
166.7565180529
 20
131.8178646793
 10
166.7663719521
 20
131.8111954167
 10
166.7758973508
 20
131.8040648319
 10
166.785072666
 20
131.7964890801
 10
166.7938771131
 20
131.7884853217
 10
166.8022907475
 20
131.7800716873
 10
166.8102945058
 20
131.7712672402
 10
166.8178702577
 20
131.762091925
 10
166.8250008425
 20
131.7525665263
 10
166.8316701051
 20
131.7427126271
 10
166.8378629386
 20
131.7325525495
  0
LWPOLYLINE
  5
4AF
100
AcDbEntity
  8
0
100
AcDbPolyline
 62
7
  6
CONTINUOUS
 90
5
 70
0
 10
101.5579858912
 20
130.4819919607
 10
101.5567269367
 20
130.4812298722
 10
101.5558255146
 20
130.4806682556
 10
101.5552846848
 20
130.4803215835
 10
101.5551101367
 20
130.480199852
  0
LINE
  5
4B0
100
AcDbEntity
  8
0
100
AcDbLine
 62
7
  6
CONTINUOUS
 10
101.5638101478
 20
130.4854450633
 11
101.5579858912
 21
130.4819919607
  0
LINE
  5
4B1
100
AcDbEntity
  8
0
100
AcDbLine
 62
253
  6
CONTINUOUS
 10
103.0551101367
 20
130.7680352694
 11
103.8065645696
 21
131.2018876885
  0
LINE
  5
4B2
100
AcDbEntity
  8
0
100
AcDbLine
 62
7
  6
CONTINUOUS
 10
103.0551101367
 20
130.480199852
 11
103.9301101367
 21
130.9853813375
  0
LINE
  5
4B3
100
AcDbEntity
  8
0
100
AcDbLine
 62
7
  6
CONTINUOUS
 10
101.8036557039
 20
130.6245374193
 11
101.5638101478
 21
130.4854450633
  0
LINE
  5
4B4
100
AcDbEntity
  8
0
100
AcDbLine
 62
7
  6
CONTINUOUS
 10
103.0551101367
 20
82.8575501212
 11
103.8065645696
 21
82.8619219552
  0
LINE
  5
4B5
100
AcDbEntity
  8
0
100
AcDbLine
 62
253
  6
CONTINUOUS
 10
103.0551101367
 20
83.1075458904
 11
103.8065645696
 21
83.1119177244
  0
LINE
  5
4B6
100
AcDbEntity
  8
0
100
AcDbLine
 62
7
  6
CONTINUOUS
 10
110.5580190024
 20
83.4012007681
 11
104.0551101367
 21
83.363367951
  0
LINE
  5
4B7
100
AcDbEntity
  8
0
100
AcDbLine
 62
253
  6
CONTINUOUS
 10
104.0551101367
 20
83.1119177244
 11
103.8065645696
 21
83.1119177244
  0
LINE
  5
4B8
100
AcDbEntity
  8
0
100
AcDbLine
 62
253
  6
CONTINUOUS
 10
100.5551101367
 20
83.1206444691
 11
100.8036557039
 21
83.1206444691
  0
LINE
  5
4B9
100
AcDbEntity
  8
0
100
AcDbLine
 62
253
  6
CONTINUOUS
 10
104.0551101367
 20
83.5132125539
 11
103.8065645696
 21
83.5132125539
  0
LINE
  5
4BA
100
AcDbEntity
  8
0
100
AcDbLine
 62
253
  6
CONTINUOUS
 10
100.5551101367
 20
83.5132125539
 11
100.8036557039
 21
83.5132125539
  0
LINE
  5
4BB
100
AcDbEntity
  8
0
100
AcDbLine
 62
7
  6
CONTINUOUS
 10
100.8036557039
 20
82.8706486999
 11
103.0551101367
 21
82.8575501212
  0
LINE
  5
4BC
100
AcDbEntity
  8
0
100
AcDbLine
 62
253
  6
CONTINUOUS
 10
100.8036557039
 20
83.1206444691
 11
103.0551101367
 21
83.1075458904
  0
LINE
  5
4BD
100
AcDbEntity
  8
0
100
AcDbLine
 62
253
  6
CONTINUOUS
 10
103.8065645696
 20
83.5132125539
 11
103.0551101367
 21
83.947064973
  0
LINE
  5
4BE
100
AcDbEntity
  8
0
100
AcDbLine
 62
7
  6
CONTINUOUS
 10
103.9301101367
 20
83.7297189048
 11
103.0551101367
 21
84.2349003904
  0
LINE
  5
4BF
100
AcDbEntity
  8
0
100
AcDbLine
 62
7
  6
CONTINUOUS
 10
101.8036557039
 20
84.0905628231
 11
101.5839442743
 21
84.2178585832
  0
LWPOLYLINE
  5
4C0
100
AcDbEntity
  8
0
100
AcDbPolyline
 62
7
  6
CONTINUOUS
 90
7
 70
0
 10
101.5839442743
 20
84.2178585832
 10
101.5595929565
 20
84.2321531231
 10
101.5579858912
 20
84.2331082816
 10
101.5567269367
 20
84.2338703702
 10
101.5558255146
 20
84.2344319868
 10
101.5552846848
 20
84.2347786589
 10
101.5551101367
 20
84.2349003904
  0
LINE
  5
4C1
100
AcDbEntity
  8
DRAFT
100
AcDbLine
 62
7
  6
CONTINUOUS
 10
114.0609278681
 20
85.0215800957
 11
104.0551101367
 21
84.963367951
  0
LINE
  5
4C2
100
AcDbEntity
  8
0
100
AcDbLine
 62
7
  6
CONTINUOUS
 10
103.0551101367
 20
84.9575501212
 11
104.0551101367
 21
84.963367951
  0
LINE
  5
4C3
100
AcDbEntity
  8
0
100
AcDbLine
 62
253
  6
CONTINUOUS
 10
103.0551101367
 20
85.4575331982
 11
104.0551101367
 21
85.463351028
  0
LINE
  5
4C4
100
AcDbEntity
  8
RACCORDO
100
AcDbLine
 62
253
  6
CONTINUOUS
 10
103.0551101367
 20
84.7573366309
 11
101.8036557039
 21
84.8229225786
  0
LINE
  5
4C5
100
AcDbEntity
  8
0
100
AcDbLine
 62
7
  6
CONTINUOUS
 10
96.5718730677
 20
85.2973221785
 11
103.0551101367
 21
84.9575501212
  0
LINE
  5
4C6
100
AcDbEntity
  8
0
100
AcDbLine
 62
253
  6
CONTINUOUS
 10
96.5893148426
 20
85.7966369459
 11
103.0551101367
 21
85.4577789733
  0
LINE
  5
4C7
100
AcDbEntity
  8
RACCORDO
100
AcDbLine
 62
253
  6
CONTINUOUS
 10
101.8036557039
 20
84.8229225786
 11
101.5565025961
 21
84.8462219131
  0
LINE
  5
4C8
100
AcDbEntity
  8
RACCORDO
100
AcDbLine
 62
253
  6
CONTINUOUS
 10
101.5565025961
 20
84.8462219131
 11
101.5551101367
 21
84.8463688768
  0
LWPOLYLINE
  5
4C9
100
AcDbEntity
  8
0
100
AcDbPolyline
 62
253
  6
CONTINUOUS
 90
5
 70
0
 10
100.6821549578
 20
130.9893989874
 10
100.6812229707
 20
130.9876667026
 10
100.6805706283
 20
130.9864179688
 10
100.6801994043
 20
130.9856556068
 10
100.6801101367
 20
130.9853813375
  0
LINE
  5
4CA
100
AcDbEntity
  8
0
100
AcDbLine
 62
253
  6
CONTINUOUS
 10
100.6848488323
 20
130.9942974997
 11
100.6821549578
 21
130.9893989874
  0
LINE
  5
4CB
100
AcDbEntity
  8
0
100
AcDbLine
 62
253
  6
CONTINUOUS
 10
100.6909142482
 20
131.0051393606
 11
100.6848488323
 21
130.9942974997
  0
LINE
  5
4CC
100
AcDbEntity
  8
0
100
AcDbLine
 62
253
  6
CONTINUOUS
 10
100.7098245223
 20
131.0384954504
 11
100.6909142482
 21
131.0051393606
  0
LINE
  5
4CD
100
AcDbEntity
  8
0
100
AcDbLine
 62
253
  6
CONTINUOUS
 10
100.7742926102
 20
131.1509569015
 11
100.7098245223
 21
131.0384954504
  0
LINE
  5
4CE
100
AcDbEntity
  8
0
100
AcDbLine
 62
253
  6
CONTINUOUS
 10
100.8036557039
 20
131.2018876885
 11
100.7742926102
 21
131.1509569015
  0
LINE
  5
4CF
100
AcDbEntity
  8
DRAFT
100
AcDbLine
 62
7
  6
CONTINUOUS
 10
113.0551101367
 20
86.6471906406
 11
105.0551101367
 21
86.5075501212
  0
LINE
  5
4D0
100
AcDbEntity
  8
DRAFT
100
AcDbLine
 62
7
  6
CONTINUOUS
 10
115.0551101367
 20
87.5465709523
 11
114.8642143356
 21
87.5432388537
  0
LINE
  5
4D1
100
AcDbEntity
  8
0
100
AcDbLine
 62
7
  6
CONTINUOUS
 10
115.0551101367
 20
86.4575501212
 11
104.0551101367
 21
86.4575501212
  0
LINE
  5
4D2
100
AcDbEntity
  8
DRAFT
100
AcDbLine
 62
7
  6
CONTINUOUS
 10
114.5638363399
 20
85.903814694
 11
104.0551101367
 21
85.9575501212
  0
LINE
  5
4D3
100
AcDbEntity
  8
RACCORDO
100
AcDbLine
 62
7
  6
CONTINUOUS
 10
114.7577280974
 20
87.5641497892
 11
113.0551101367
 21
87.5790083111
  0
LINE
  5
4D4
100
AcDbEntity
  8
0
100
AcDbLine
 62
253
  6
CONTINUOUS
 10
100.8036557039
 20
83.5132125539
 11
100.7222794995
 21
83.6547781902
  0
LINE
  5
4D5
100
AcDbEntity
  8
0
100
AcDbLine
 62
253
  6
CONTINUOUS
 10
100.7222794995
 20
83.6547781902
 11
100.6962519123
 21
83.7005030642
  0
LINE
  5
4D6
100
AcDbEntity
  8
0
100
AcDbLine
 62
253
  6
CONTINUOUS
 10
100.6962519123
 20
83.7005030642
 11
100.6866036912
 21
83.7176492703
  0
LWPOLYLINE
  5
4D7
100
AcDbEntity
  8
0
100
AcDbPolyline
 62
253
  6
CONTINUOUS
 90
7
 70
0
 10
100.6866036912
 20
83.7176492703
 10
100.6833640085
 20
83.7234901976
 10
100.6821546531
 20
83.7257018163
 10
100.6812228009
 20
83.7274338592
 10
100.6805705551
 20
83.7286824173
 10
100.6801993878
 20
83.7294446726
 10
100.6801101367
 20
83.7297189048
  0
LWPOLYLINE
  5
4D8
100
AcDbEntity
  8
0
100
AcDbPolyline
 62
253
  6
CONTINUOUS
 90
16
 70
0
 10
96.1210731983
 20
128.4937080707
 10
96.0081522437
 20
127.7221316179
 10
95.9019716119
 20
126.9497175075
 10
95.8025313028
 20
126.1764657397
 10
95.7098247586
 20
125.402317266
 10
95.6238585372
 20
124.6273311347
 10
95.5446523121
 20
123.8516844909
 10
95.4722076569
 20
123.0753773978
 10
95.406522998
 20
122.2984097922
 10
95.347613289
 20
121.5209586288
 10
95.2954800723
 20
120.7430236605
 10
95.2501218053
 20
119.9646051344
 10
95.2115488142
 20
119.1858807477
 10
95.1797645409
 20
118.4069097328
 10
95.1547655435
 20
117.6276328573
 10
95.1365518219
 20
116.8480501212
  0
LWPOLYLINE
  5
4D9
100
AcDbEntity
  8
0
100
AcDbPolyline
 62
253
  6
CONTINUOUS
 90
4
 70
0
 10
95.6395024078
 20
86.1476227513
 10
95.6372135851
 20
86.1472211226
 10
95.6358419398
 20
86.1469575976
 10
95.6353900259
 20
86.1468326673
  0
LINE
  5
4DA
100
AcDbEntity
  8
0
100
AcDbLine
 62
253
  6
CONTINUOUS
 10
95.6468128386
 20
86.1488370735
 11
95.6395024078
 21
86.1476227513
  0
LINE
  5
4DB
100
AcDbEntity
  8
0
100
AcDbLine
 62
253
  6
CONTINUOUS
 10
95.6721391356
 20
86.1528730427
 11
95.6468128386
 21
86.1488370735
  0
LINE
  5
4DC
100
AcDbEntity
  8
0
100
AcDbLine
 62
253
  6
CONTINUOUS
 10
95.859409506
 20
86.1817181367
 11
95.6721391356
 21
86.1528730427
  0
LINE
  5
4DD
100
AcDbEntity
  8
0
100
AcDbLine
 62
253
  6
CONTINUOUS
 10
96.1210731983
 20
86.2213921717
 11
95.859409506
 21
86.1817181367
  0
LINE
  5
4DE
100
AcDbEntity
  8
RACCORDO
100
AcDbLine
 62
253
  6
CONTINUOUS
 10
117.5463839335
 20
89.536046357
 11
117.0551101367
 21
89.510320709
  0
LINE
  5
4DF
100
AcDbEntity
  8
DRAFT
100
AcDbLine
 62
7
  6
CONTINUOUS
 10
115.1457124369
 20
87.7481524214
 11
113.0551101367
 21
87.7116608225
  0
LINE
  5
4E0
100
AcDbEntity
  8
RACCORDO
100
AcDbLine
 62
7
  6
CONTINUOUS
 10
115.9051101367
 20
88.5075501212
 11
125.7725625432
 21
88.6797871436
  0
LINE
  5
4E1
100
AcDbEntity
  8
RACCORDO
100
AcDbLine
 62
253
  6
CONTINUOUS
 10
117.5463839335
 20
89.536046357
 11
125.7725625432
 21
89.6796348388
  0
LINE
  5
4E2
100
AcDbEntity
  8
DRAFT
100
AcDbLine
 62
253
  6
CONTINUOUS
 10
115.8019678085
 20
88.4044077929
 11
105.0551101367
 21
88.2717636836
  0
LINE
  5
4E3
100
AcDbEntity
  8
DRAFT
100
AcDbLine
 62
7
  6
CONTINUOUS
 10
104.0551101367
 20
87.8575501212
 11
105.0551101367
 21
87.866276989
  0
LINE
  5
4E4
100
AcDbEntity
  8
DRAFT
100
AcDbLine
 62
7
  6
CONTINUOUS
 10
104.0551101367
 20
88.8492595968
 11
105.0551101367
 21
88.8528743838
  0
LWPOLYLINE
  5
4E5
100
AcDbEntity
  8
0
100
AcDbPolyline
 62
253
  6
CONTINUOUS
 90
43
 70
0
 10
96.1210731983
 20
86.2213921717
 10
96.123768615
 20
86.2053076315
 10
96.1269790883
 20
86.1893494292
 10
96.130704618
 20
86.1735175648
 10
96.134950421
 20
86.1577943497
 10
96.1397112806
 20
86.1421974726
 10
96.144971546
 20
86.1267799991
 10
96.1507326431
 20
86.1115436036
 10
96.1569931461
 20
86.0964866119
 10
96.1637331277
 20
86.081657067
 10
96.1709541003
 20
86.0670557606
 10
96.1786545515
 20
86.0526819011
 10
96.186810017
 20
86.0385811563
 10
96.1954219448
 20
86.0247543802
 10
96.204488887
 20
86.0112007189
 10
96.2139820356
 20
85.997963278
 10
96.2239027629
 20
85.985043048
 10
96.2342496967
 20
85.9724390385
 10
96.2449899128
 20
85.9601913841
 10
96.2561246521
 20
85.9483012341
 10
96.2676526736
 20
85.9367674391
 10
96.2795373311
 20
85.9256266858
 10
96.2917797669
 20
85.9148802189
 10
96.3043788387
 20
85.9045267938
 10
96.3172944727
 20
85.894599363
 10
96.3305277051
 20
85.8850992708
 10
96.3440774997
 20
85.8760251729
 10
96.3579006746
 20
85.8674059895
 10
96.3719980697
 20
85.8592431943
 10
96.3863688449
 20
85.8515353136
 10
96.4009672979
 20
85.8443068475
 10
96.4157941408
 20
85.8375593213
 10
96.4308486615
 20
85.8312912097
 10
96.4460830215
 20
85.8255224365
 10
96.4614978626
 20
85.8202545813
 10
96.4770925429
 20
85.8154860645
 10
96.4928172988
 20
85.8112320712
 10
96.5086734334
 20
85.8074942014
 10
96.5246596437
 20
85.8042708551
 10
96.540722257
 20
85.8015724179
 10
96.5568433825
 20
85.7994023515
 10
96.573040911
 20
85.7977571942
 10
96.5893148426
 20
85.7966369459
  0
LWPOLYLINE
  5
4E6
100
AcDbEntity
  8
0
100
AcDbPolyline
 62
253
  6
CONTINUOUS
 90
16
 70
0
 10
95.1365518219
 20
97.8670501212
 10
95.1547655059
 20
97.0874683402
 10
95.1797644706
 20
96.3081921819
 10
95.2115487159
 20
95.5292216463
 10
95.2501216855
 20
94.7504974222
 10
95.2954799357
 20
93.9720788208
 10
95.3476131355
 20
93.1941437754
 10
95.4065228252
 20
92.4166926121
 10
95.4722074644
 20
91.6397250047
 10
95.5446521006
 20
90.8634179084
 10
95.6238582959
 20
90.0877713377
 10
95.7098244882
 20
89.3127852779
 10
95.8025310385
 20
88.5386366403
 10
95.9019714005
 20
87.7653843953
 10
96.0081521204
 20
86.9929695724
 10
96.1210731983
 20
86.2213921717
  0
LWPOLYLINE
  5
4E7
100
AcDbEntity
  8
0
100
AcDbPolyline
 62
253
  6
CONTINUOUS
 90
13
 70
0
 10
95.1365518219
 20
116.8480501212
 10
95.1090000547
 20
115.266340057
 10
95.0864578018
 20
113.6846140476
 10
95.0689250633
 20
112.102872093
 10
95.0564019641
 20
110.5211088854
 10
95.0488883792
 20
108.9393297325
 10
95.0463839335
 20
107.357550558
 10
95.0488883766
 20
105.7757713655
 10
95.0564019588
 20
104.1939921513
 10
95.0689250569
 20
102.6122288285
 10
95.0864577961
 20
101.0304867014
 10
95.1090000511
 20
99.4487604656
 10
95.1365518219
 20
97.8670501212
  0
LWPOLYLINE
  5
4E8
100
AcDbEntity
  8
0
100
AcDbPolyline
 62
253
  6
CONTINUOUS
 90
8
 70
0
 10
100.8036557039
 20
131.8444515425
 10
100.8035882587
 20
131.8441689228
 10
100.8035242227
 20
131.843322021
 10
100.8034637453
 20
131.841912025
 10
100.8034069601
 20
131.8399410791
 10
100.8033540095
 20
131.8374130892
 10
100.8033050385
 20
131.8343345105
 10
100.803219482
 20
131.8265560464
  0
LINE
  5
4E9
100
AcDbEntity
  8
0
100
AcDbLine
 62
7
  6
CONTINUOUS
 10
105.0551101367
 20
89.2102040826
 11
103.0551101367
 21
88.8575501212
  0
LINE
  5
4EA
100
AcDbEntity
  8
DRAFT
100
AcDbLine
 62
7
  6
CONTINUOUS
 10
127.0289634139
 20
92.7815091784
 11
128.7812568596
 21
92.9348149901
  0
LINE
  5
4EB
100
AcDbEntity
  8
RACCORDO
100
AcDbLine
 62
253
  6
CONTINUOUS
 10
126.7551101367
 20
89.6796348388
 11
125.7725625432
 21
89.6796348413
  0
LINE
  5
4EC
100
AcDbEntity
  8
RACCORDO
100
AcDbLine
 62
253
  6
CONTINUOUS
 10
105.0551101367
 20
89.6859772459
 11
117.0551101367
 21
89.6859772459
  0
LINE
  5
4ED
100
AcDbEntity
  8
0
100
AcDbLine
 62
253
  6
CONTINUOUS
 10
96.5899541775
 20
128.9184968026
 11
96.583040434
 21
129.0573371915
  0
LINE
  5
4EE
100
AcDbEntity
  8
0
100
AcDbLine
 62
253
  6
CONTINUOUS
 10
96.583040434
 20
129.0573371915
 11
96.5780483971
 21
129.1680224992
  0
LINE
  5
4EF
100
AcDbEntity
  8
0
100
AcDbLine
 62
253
  6
CONTINUOUS
 10
96.5780483971
 20
129.1680224992
 11
96.5747401469
 21
129.2494425886
  0
LINE
  5
4F0
100
AcDbEntity
  8
0
100
AcDbLine
 62
253
  6
CONTINUOUS
 10
96.5747401469
 20
129.2494425886
 11
96.5727564021
 21
129.3050980511
  0
LINE
  5
4F1
100
AcDbEntity
  8
0
100
AcDbLine
 62
253
  6
CONTINUOUS
 10
96.5727564021
 20
129.3050980511
 11
96.5716937172
 21
129.3403450717
  0
LINE
  5
4F2
100
AcDbEntity
  8
0
100
AcDbLine
 62
253
  6
CONTINUOUS
 10
96.5716937172
 20
129.3403450717
 11
96.5711962708
 21
129.360457288
  0
LWPOLYLINE
  5
4F3
100
AcDbEntity
  8
0
100
AcDbPolyline
 62
253
  6
CONTINUOUS
 90
12
 70
0
 10
96.5711962708
 20
129.360457288
 10
96.5708712768
 20
129.3777062542
 10
96.5707742548
 20
129.3852213616
 10
96.5707211083
 20
129.3919802492
 10
96.5707118817
 20
129.3979719645
 10
96.5707467437
 20
129.4031868083
 10
96.5708255852
 20
129.4076163292
 10
96.5709482296
 20
129.4112533481
 10
96.5711146366
 20
129.4140919808
 10
96.5713245542
 20
129.4161276291
 10
96.571577519
 20
129.4173569884
 10
96.5718730677
 20
129.4177780638
  0
LWPOLYLINE
  5
4F4
100
AcDbEntity
  8
0
100
AcDbPolyline
 62
253
  6
CONTINUOUS
 90
11
 70
0
 10
96.5705555043
 20
85.3374104652
 10
96.570487441
 20
85.3298938519
 10
96.5704640178
 20
85.3231334175
 10
96.5704852727
 20
85.3171401149
 10
96.5705511712
 20
85.3119236537
 10
96.5706616065
 20
85.3074924853
 10
96.5708163997
 20
85.3038537887
 10
96.5710153001
 20
85.3010134591
 10
96.5712579854
 20
85.298976098
 10
96.5715440624
 20
85.2977450063
 10
96.5718730677
 20
85.2973221785
  0
LINE
  5
4F5
100
AcDbEntity
  8
0
100
AcDbLine
 62
253
  6
CONTINUOUS
 10
96.5708250379
 20
85.354662312
 11
96.5705555043
 21
85.3374104652
  0
LINE
  5
4F6
100
AcDbEntity
  8
0
100
AcDbLine
 62
253
  6
CONTINUOUS
 10
96.5712708726
 20
85.3747772032
 11
96.5708250379
 21
85.354662312
  0
LINE
  5
4F7
100
AcDbEntity
  8
0
100
AcDbLine
 62
253
  6
CONTINUOUS
 10
96.572263564
 20
85.4100278485
 11
96.5712708726
 21
85.3747772032
  0
LINE
  5
4F8
100
AcDbEntity
  8
0
100
AcDbLine
 62
253
  6
CONTINUOUS
 10
96.5736317126
 20
85.4509095784
 11
96.572263564
 21
85.4100278485
  0
LINE
  5
4F9
100
AcDbEntity
  8
0
100
AcDbLine
 62
253
  6
CONTINUOUS
 10
96.5760047602
 20
85.5131380886
 11
96.5736317126
 21
85.4509095784
  0
LINE
  5
4FA
100
AcDbEntity
  8
0
100
AcDbLine
 62
253
  6
CONTINUOUS
 10
96.5797641003
 20
85.601029736
 11
96.5760047602
 21
85.5131380886
  0
LINE
  5
4FB
100
AcDbEntity
  8
0
100
AcDbLine
 62
253
  6
CONTINUOUS
 10
96.5852337704
 20
85.716587362
 11
96.5797641003
 21
85.601029736
  0
LINE
  5
4FC
100
AcDbEntity
  8
0
100
AcDbLine
 62
253
  6
CONTINUOUS
 10
96.5893148426
 20
85.7966369459
 11
96.5852337704
 21
85.716587362
  0
LINE
  5
4FD
100
AcDbEntity
  8
0
100
AcDbLine
 62
7
  6
CONTINUOUS
 10
117.0551101367
 20
92.6075501212
 11
117.2551101367
 21
92.6075501212
  0
LINE
  5
4FE
100
AcDbEntity
  8
0
100
AcDbLine
 62
7
  6
CONTINUOUS
 10
117.0551101367
 20
92.639465011
 11
117.2551101367
 21
92.639465011
  0
LINE
  5
4FF
100
AcDbEntity
  8
0
100
AcDbLine
 62
7
  6
CONTINUOUS
 10
117.0551101367
 20
92.7352096804
 11
117.2551101367
 21
92.7352096804
  0
LINE
  5
500
100
AcDbEntity
  8
0
100
AcDbLine
 62
7
  6
CONTINUOUS
 10
117.0551101367
 20
92.8309543499
 11
117.2551101367
 21
92.8309543499
  0
LINE
  5
501
100
AcDbEntity
  8
0
100
AcDbLine
 62
7
  6
CONTINUOUS
 10
117.0551101367
 20
92.9586139091
 11
117.2551101367
 21
92.9586139091
  0
LINE
  5
502
100
AcDbEntity
  8
0
100
AcDbLine
 62
7
  6
CONTINUOUS
 10
117.0551101367
 20
93.054358668
 11
117.2551101367
 21
93.054358668
  0
LINE
  5
503
100
AcDbEntity
  8
0
100
AcDbLine
 62
7
  6
CONTINUOUS
 10
117.0551101367
 20
93.213933117
 11
117.2551101367
 21
93.213933117
  0
LINE
  5
504
100
AcDbEntity
  8
0
100
AcDbLine
 62
7
  6
CONTINUOUS
 10
117.0551101367
 20
93.2905288705
 11
117.2551101367
 21
93.2905288705
  0
LINE
  5
505
100
AcDbEntity
  8
0
100
AcDbLine
 62
7
  6
CONTINUOUS
 10
117.0551101367
 20
93.3160607823
 11
117.2551101367
 21
93.3160607823
  0
LINE
  5
506
100
AcDbEntity
  8
0
100
AcDbLine
 62
7
  6
CONTINUOUS
 10
117.0551101367
 20
93.367124606
 11
117.2551101367
 21
93.367124606
  0
LINE
  5
507
100
AcDbEntity
  8
0
100
AcDbLine
 62
7
  6
CONTINUOUS
 10
117.0551101367
 20
93.4947841653
 11
117.2551101367
 21
93.4947841653
  0
LINE
  5
508
100
AcDbEntity
  8
0
100
AcDbLine
 62
7
  6
CONTINUOUS
 10
117.0551101367
 20
94.1075501212
 11
117.2551101367
 21
94.1075501212
  0
LWPOLYLINE
  5
509
100
AcDbEntity
  8
RACCORDO
100
AcDbPolyline
 62
253
  6
CONTINUOUS
 90
4
 70
0
 10
101.8129593489
 20
85.0226484855
 10
101.8130212631
 20
85.0209324884
 10
101.8129030875
 20
85.0158297353
 10
101.8126068445
 20
85.0074275267
  0
LWPOLYLINE
  5
50A
100
AcDbEntity
  8
0
100
AcDbPolyline
 62
253
  6
CONTINUOUS
 90
6
 70
0
 10
100.8033540095
 20
82.8776871532
 10
100.8034069601
 20
82.8751591633
 10
100.8034637453
 20
82.8731882173
 10
100.8035242227
 20
82.8717782214
 10
100.8035882587
 20
82.8709313196
 10
100.8036557039
 20
82.8706486999
  0
LINE
  5
50B
100
AcDbEntity
  8
0
100
AcDbLine
 62
253
  6
CONTINUOUS
 10
100.8032601647
 20
82.8843873416
 11
100.8033540095
 21
82.8776871532
  0
LINE
  5
50C
100
AcDbEntity
  8
0
100
AcDbLine
 62
253
  6
CONTINUOUS
 10
100.803151047
 20
82.8984251549
 11
100.8032601647
 21
82.8843873416
  0
LINE
  5
50D
100
AcDbEntity
  8
0
100
AcDbLine
 62
253
  6
CONTINUOUS
 10
100.8030678157
 20
131.7490084194
 11
100.8036557039
 21
131.5944557733
  0
LINE
  5
50E
100
AcDbEntity
  8
0
100
AcDbLine
 62
253
  6
CONTINUOUS
 10
100.8030538809
 20
82.9396976888
 11
100.803151047
 21
82.8984251549
  0
LINE
  5
50F
100
AcDbEntity
  8
0
100
AcDbLine
 62
7
  6
CONTINUOUS
 10
100.5551101367
 20
83.1206444691
 11
100.5551101367
 21
83.5132125539
  0
LINE
  5
510
100
AcDbEntity
  8
0
100
AcDbLine
 62
7
  6
CONTINUOUS
 10
100.5551101367
 20
131.2018876885
 11
100.5551101367
 21
131.5944557733
  0
LINE
  5
511
100
AcDbEntity
  8
0
100
AcDbLine
 62
253
  6
CONTINUOUS
 10
100.8036557039
 20
83.1206444691
 11
100.8036557039
 21
83.5132125539
  0
LINE
  5
512
100
AcDbEntity
  8
0
100
AcDbLine
 62
253
  6
CONTINUOUS
 10
100.8036557039
 20
131.2018876885
 11
100.8036557039
 21
131.5944557733
  0
LINE
  5
513
100
AcDbEntity
  8
0
100
AcDbLine
 62
7
  6
CONTINUOUS
 10
101.5551101367
 20
84.2349003904
 11
101.5551101367
 21
84.8463688768
  0
LINE
  5
514
100
AcDbEntity
  8
RACCORDO
100
AcDbLine
 62
7
  6
CONTINUOUS
 10
101.5551101367
 20
84.2349003904
 11
101.5551101367
 21
84.8463688768
  0
LINE
  5
515
100
AcDbEntity
  8
0
100
AcDbLine
 62
7
  6
CONTINUOUS
 10
101.5551101367
 20
129.8687313656
 11
101.5551101367
 21
130.480199852
  0
LINE
  5
516
100
AcDbEntity
  8
RACCORDO
100
AcDbLine
 62
7
  6
CONTINUOUS
 10
101.5551101367
 20
129.8687313656
 11
101.5551101367
 21
130.480199852
  0
LINE
  5
517
100
AcDbEntity
  8
RACCORDO
100
AcDbLine
 62
253
  6
CONTINUOUS
 10
101.8036557039
 20
84.0905628231
 11
101.8036557039
 21
84.8229225786
  0
LINE
  5
518
100
AcDbEntity
  8
RACCORDO
100
AcDbLine
 62
253
  6
CONTINUOUS
 10
101.8036557039
 20
129.8921776638
 11
101.8036557039
 21
130.6245374193
  0
LINE
  5
519
100
AcDbEntity
  8
0
100
AcDbLine
 62
253
  6
CONTINUOUS
 10
100.8031003553
 20
131.8047809366
 11
100.8030678157
 21
131.7490084194
  0
LINE
  5
51A
100
AcDbEntity
  8
0
100
AcDbLine
 62
253
  6
CONTINUOUS
 10
100.8033537878
 20
83.0616988506
 11
100.8030538809
 21
82.9396976888
  0
LINE
  5
51B
100
AcDbEntity
  8
0
100
AcDbLine
 62
253
  6
CONTINUOUS
 10
100.8036557039
 20
83.1206444691
 11
100.8033537878
 21
83.0616988506
  0
LINE
  5
51C
100
AcDbEntity
  8
0
100
AcDbLine
 62
253
  6
CONTINUOUS
 10
100.803219482
 20
131.8265560464
 11
100.8031003553
 21
131.8047809366
  0
LWPOLYLINE
  5
51D
100
AcDbEntity
  8
RACCORDO
100
AcDbPolyline
 62
253
  6
CONTINUOUS
 90
6
 70
0
 10
101.8129593489
 20
129.6924517569
 10
101.8130212634
 20
129.6941677143
 10
101.8129030917
 20
129.6992703654
 10
101.812606855
 20
129.7076724363
 10
101.81213762
 20
129.7192302208
 10
101.8097861042
 20
129.7706123328
  0
LINE
  5
51E
100
AcDbEntity
  8
RACCORDO
100
AcDbLine
 62
253
  6
CONTINUOUS
 10
101.8097861042
 20
129.7706123328
 11
101.8036557039
 21
129.8921776638
  0
LINE
  5
51F
100
AcDbEntity
  8
0
100
AcDbLine
 62
253
  6
CONTINUOUS
 10
103.8069601087
 20
131.8394396455
 11
103.8070692264
 21
131.8254018322
  0
LINE
  5
520
100
AcDbEntity
  8
0
100
AcDbLine
 62
253
  6
CONTINUOUS
 10
103.8065645696
 20
83.1119177244
 11
103.8071524577
 21
82.9573650783
  0
LINE
  5
521
100
AcDbEntity
  8
0
100
AcDbLine
 62
253
  6
CONTINUOUS
 10
103.8070692264
 20
131.8254018322
 11
103.8071663926
 21
131.7841292982
  0
LINE
  5
522
100
AcDbEntity
  8
0
100
AcDbLine
 62
7
  6
CONTINUOUS
 10
103.0551101367
 20
131.8575501212
 11
103.0551101367
 21
130.7680352694
  0
LINE
  5
523
100
AcDbEntity
  8
0
100
AcDbLine
 62
7
  6
CONTINUOUS
 10
103.0551101367
 20
83.947064973
 11
103.0551101367
 21
82.8575501212
  0
LINE
  5
524
100
AcDbEntity
  8
RACCORDO
100
AcDbLine
 62
7
  6
CONTINUOUS
 10
103.0551101367
 20
83.947064973
 11
103.0551101367
 21
84.9575501212
  0
LINE
  5
525
100
AcDbEntity
  8
0
100
AcDbLine
 62
7
  6
CONTINUOUS
 10
103.0551101367
 20
84.9575501212
 11
103.0551101367
 21
88.8575501212
  0
LINE
  5
526
100
AcDbEntity
  8
0
100
AcDbLine
 62
7
  6
CONTINUOUS
 10
103.0551101367
 20
125.8575501212
 11
103.0551101367
 21
129.7575501212
  0
LINE
  5
527
100
AcDbEntity
  8
RACCORDO
100
AcDbLine
 62
7
  6
CONTINUOUS
 10
103.0551101367
 20
129.7575501212
 11
103.0551101367
 21
130.7680352694
  0
LINE
  5
528
100
AcDbEntity
  8
0
100
AcDbLine
 62
253
  6
CONTINUOUS
 10
103.8065645696
 20
131.603182518
 11
103.8065645696
 21
131.2018876885
  0
LINE
  5
529
100
AcDbEntity
  8
0
100
AcDbLine
 62
253
  6
CONTINUOUS
 10
103.8065645696
 20
83.5132125539
 11
103.8065645696
 21
83.1119177244
  0
LINE
  5
52A
100
AcDbEntity
  8
0
100
AcDbLine
 62
7
  6
CONTINUOUS
 10
104.0551101367
 20
131.603182518
 11
104.0551101367
 21
131.2018876885
  0
LINE
  5
52B
100
AcDbEntity
  8
0
100
AcDbLine
 62
7
  6
CONTINUOUS
 10
104.0551101367
 20
129.7517322914
 11
104.0551101367
 21
129.2517492144
  0
LINE
  5
52C
100
AcDbEntity
  8
DRAFT
100
AcDbLine
 62
7
  6
CONTINUOUS
 10
104.0551101367
 20
129.2517492144
 11
104.0551101367
 21
125.8658406456
  0
LINE
  5
52D
100
AcDbEntity
  8
DRAFT
100
AcDbLine
 62
7
  6
CONTINUOUS
 10
104.0551101367
 20
88.8492595968
 11
104.0551101367
 21
85.463351028
  0
LINE
  5
52E
100
AcDbEntity
  8
0
100
AcDbLine
 62
7
  6
CONTINUOUS
 10
104.0551101367
 20
85.463351028
 11
104.0551101367
 21
84.963367951
  0
LINE
  5
52F
100
AcDbEntity
  8
0
100
AcDbLine
 62
7
  6
CONTINUOUS
 10
104.0551101367
 20
83.5132125539
 11
104.0551101367
 21
83.1119177244
  0
LINE
  5
530
100
AcDbEntity
  8
0
100
AcDbLine
 62
253
  6
CONTINUOUS
 10
103.8071524577
 20
82.9573650783
 11
103.8071199182
 21
82.9015925611
  0
LINE
  5
531
100
AcDbEntity
  8
0
100
AcDbLine
 62
253
  6
CONTINUOUS
 10
103.8071663926
 20
131.7841292982
 11
103.8068664856
 21
131.6621281365
  0
LINE
  5
532
100
AcDbEntity
  8
0
100
AcDbLine
 62
253
  6
CONTINUOUS
 10
103.8068664856
 20
131.6621281365
 11
103.8065645696
 21
131.603182518
  0
LWPOLYLINE
  5
533
100
AcDbEntity
  8
0
100
AcDbPolyline
 62
253
  6
CONTINUOUS
 90
3
 70
0
 10
103.8071199182
 20
82.9015925611
 10
103.8070007914
 20
82.8798174512
 10
103.8069601087
 20
82.8756605968
  0
LINE
  5
534
100
AcDbEntity
  8
RACCORDO
100
AcDbLine
 62
253
  6
CONTINUOUS
 10
101.8126068445
 20
85.0074275267
 11
101.8115033877
 21
84.9813536505
  0
LINE
  5
535
100
AcDbEntity
  8
RACCORDO
100
AcDbLine
 62
253
  6
CONTINUOUS
 10
101.8115033877
 20
84.9813536505
 11
101.8075718886
 21
84.899339754
  0
LINE
  5
536
100
AcDbEntity
  8
RACCORDO
100
AcDbLine
 62
253
  6
CONTINUOUS
 10
101.8075718886
 20
84.899339754
 11
101.8036557039
 21
84.8229225786
  0
LWPOLYLINE
  5
537
100
AcDbEntity
  8
RACCORDO
100
AcDbPolyline
 62
253
  6
CONTINUOUS
 90
37
 70
0
 10
127.8770568681
 20
102.1219827558
 10
127.9494017404
 20
102.1377131814
 10
128.0195951568
 20
102.1586951114
 10
128.0876371175
 20
102.1849285459
 10
128.1539406844
 20
102.2166371461
 10
128.2180927955
 20
102.2535972508
 10
128.2788542646
 20
102.295137876
 10
128.3361386003
 20
102.3413418196
 10
128.3900322941
 20
102.3921262838
 10
128.4395556344
 20
102.4465718906
 10
128.4846222585
 20
102.5047377369
 10
128.5253185292
 20
102.5665647259
 10
128.5609238237
 20
102.6309561896
 10
128.5913502701
 20
102.6979634023
 10
128.6166857404
 20
102.7675350896
 10
128.6364732277
 20
102.8384207599
 10
128.6506112253
 20
102.9106428782
 10
128.6592012399
 20
102.9841789795
 10
128.6620907855
 20
103.0577111771
 10
128.6591771782
 20
103.1312382184
 10
128.650563102
 20
103.204761356
 10
128.6364041221
 20
103.2769664617
 10
128.6165998349
 20
103.34783085
 10
128.5912506441
 20
103.4173772064
 10
128.5608133264
 20
103.4843594589
 10
128.5252000212
 20
103.5487277418
 10
128.484498589
 20
103.6105319209
 10
128.4394293888
 20
103.6686755215
 10
128.3899067793
 20
103.7230987643
 10
128.3360164016
 20
103.7738614287
 10
128.2787355383
 20
103.8200463781
 10
128.2179732039
 20
103.8615728002
 10
128.1538203837
 20
103.8985215073
 10
128.0875273163
 20
103.9302177994
 10
128.0195107476
 20
103.9564367767
 10
127.9493539315
 20
103.9774033391
 10
127.8770568681
 20
103.9931174865
  0
LINE
  5
538
100
AcDbEntity
  8
RACCORDO
100
AcDbLine
 62
7
  6
CONTINUOUS
 10
126.4733927101
 20
101.4695391802
 11
127.9395351766
 21
101.7280596546
  0
LINE
  5
539
100
AcDbEntity
  8
RACCORDO
100
AcDbLine
 62
253
  6
CONTINUOUS
 10
125.768577029
 20
101.7502008719
 11
127.8770568681
 21
102.1219827558
  0
LWPOLYLINE
  5
53A
100
AcDbEntity
  8
RACCORDO
100
AcDbPolyline
 62
7
  6
CONTINUOUS
 90
16
 70
0
 10
126.4733927101
 20
101.4695391802
 10
126.4426633296
 20
101.4654546836
 10
126.4121216481
 20
101.4638351515
 10
126.3818251484
 20
101.4643400485
 10
126.3518215021
 20
101.4666088181
 10
126.3221769001
 20
101.4703411311
 10
126.2929651017
 20
101.4753564608
 10
126.2642556194
 20
101.481433546
 10
126.2360595942
 20
101.4883359827
 10
126.2083453227
 20
101.4959619432
 10
126.1811713515
 20
101.504157765
 10
126.1545367005
 20
101.512757
 10
126.1283082335
 20
101.5217059501
 10
126.1024980881
 20
101.5309229905
 10
126.0771339013
 20
101.5402724177
 10
126.0520994207
 20
101.5496545768
  0
LINE
  5
53B
100
AcDbEntity
  8
0
100
AcDbLine
 62
253
  6
CONTINUOUS
 10
94.6458334419
 20
97.8575661149
 11
94.6453682856
 21
97.8575501212
  0
LINE
  5
53C
100
AcDbEntity
  8
0
100
AcDbLine
 62
253
  6
CONTINUOUS
 10
94.6911858586
 20
97.8584901754
 11
94.6458334419
 21
97.8575661149
  0
LINE
  5
53D
100
AcDbEntity
  8
0
100
AcDbLine
 62
253
  6
CONTINUOUS
 10
95.1365518219
 20
97.8670501212
 11
94.6911858586
 21
97.8584901754
  0
LINE
  5
53E
100
AcDbEntity
  8
0
100
AcDbLine
 62
253
  6
CONTINUOUS
 10
103.806866264
 20
131.8461398339
 11
103.8069601087
 21
131.8394396455
  0
LINE
  5
53F
100
AcDbEntity
  8
DRAFT
100
AcDbLine
 62
7
  6
CONTINUOUS
 10
105.0551101367
 20
128.2075501212
 11
105.0551101367
 21
125.5048961598
  0
LINE
  5
540
100
AcDbEntity
  8
0
100
AcDbLine
 62
7
  6
CONTINUOUS
 10
105.0551101367
 20
125.5048961598
 11
105.0551101367
 21
89.2102040826
  0
LINE
  5
541
100
AcDbEntity
  8
DRAFT
100
AcDbLine
 62
7
  6
CONTINUOUS
 10
105.0551101367
 20
89.2102040826
 11
105.0551101367
 21
86.5075501212
  0
LWPOLYLINE
  5
542
100
AcDbEntity
  8
0
100
AcDbPolyline
 62
253
  6
CONTINUOUS
 90
7
 70
0
 10
103.8069601087
 20
82.8756605968
 10
103.806866264
 20
82.8689604085
 10
103.8068133133
 20
82.8664324186
 10
103.8067565281
 20
82.8644614726
 10
103.8066960507
 20
82.8630514766
 10
103.8066320148
 20
82.8622045748
 10
103.8065645696
 20
82.8619219552
  0
LINE
  5
543
100
AcDbEntity
  8
RACCORDO
100
AcDbLine
 62
253
  6
CONTINUOUS
 10
125.7725625432
 20
100.6904758416
 11
117.5463839335
 21
100.5468873598
  0
LINE
  5
544
100
AcDbEntity
  8
RACCORDO
100
AcDbLine
 62
7
  6
CONTINUOUS
 10
125.7725625432
 20
100.8403996891
 11
117.5463839324
 21
100.6968112074
  0
LINE
  5
545
100
AcDbEntity
  8
RACCORDO
100
AcDbLine
 62
253
  6
CONTINUOUS
 10
125.5551101367
 20
101.8364517384
 11
117.5463839335
 21
101.6966589026
  0
LINE
  5
546
100
AcDbEntity
  8
RACCORDO
100
AcDbLine
 62
253
  6
CONTINUOUS
 10
117.0551101367
 20
100.1968873608
 11
116.0725625432
 21
100.1968873637
  0
LINE
  5
547
100
AcDbEntity
  8
RACCORDO
100
AcDbLine
 62
253
  6
CONTINUOUS
 10
117.1985177929
 20
100.5468873598
 11
117.5463839335
 21
100.5468873598
  0
LINE
  5
548
100
AcDbEntity
  8
RACCORDO
100
AcDbLine
 62
253
  6
CONTINUOUS
 10
125.7725625432
 20
100.6904758425
 11
126.7551101367
 21
100.6904758455
  0
LINE
  5
549
100
AcDbEntity
  8
DRAFT
100
AcDbLine
 62
7
  6
CONTINUOUS
 10
127.0289634139
 20
98.933591064
 11
128.7812568596
 21
98.7802852523
  0
LWPOLYLINE
  5
54A
100
AcDbEntity
  8
0
100
AcDbPolyline
 62
253
  6
CONTINUOUS
 90
6
 70
0
 10
103.8065645696
 20
131.8531782872
 10
103.8066320148
 20
131.8528956675
 10
103.8066960507
 20
131.8520487657
 10
103.8067565281
 20
131.8506387698
 10
103.8068133133
 20
131.8486678238
 10
103.806866264
 20
131.8461398339
  0
LINE
  5
54B
100
AcDbEntity
  8
0
100
AcDbLine
 62
7
  6
CONTINUOUS
 10
110.5551101367
 20
83.9162316539
 11
110.5551101367
 21
84.4988685885
  0
LINE
  5
54C
100
AcDbEntity
  8
0
100
AcDbLine
 62
7
  6
CONTINUOUS
 10
110.5551101367
 20
130.2162316539
 11
110.5551101367
 21
130.7988685885
  0
LINE
  5
54D
100
AcDbEntity
  8
0
100
AcDbLine
 62
253
  6
CONTINUOUS
 10
110.6047031076
 20
83.4036578481
 11
110.6047031076
 21
85.0014723682
  0
LINE
  5
54E
100
AcDbEntity
  8
0
100
AcDbLine
 62
253
  6
CONTINUOUS
 10
110.6047031076
 20
129.7136278741
 11
110.6047031076
 21
131.3114423942
  0
LINE
  5
54F
100
AcDbEntity
  8
0
100
AcDbLine
 62
7
  6
CONTINUOUS
 10
111.0551101367
 20
83.9011923065
 11
111.0551101367
 21
85.004087589
  0
LINE
  5
550
100
AcDbEntity
  8
0
100
AcDbLine
 62
7
  6
CONTINUOUS
 10
111.0551101367
 20
129.7110126533
 11
111.0551101367
 21
130.8139079359
  0
LINE
  5
551
100
AcDbEntity
  8
RACCORDO
100
AcDbLine
 62
253
  6
CONTINUOUS
 10
127.8770568681
 20
103.9931174865
 11
125.7725625432
 21
104.3641966168
  0
LINE
  5
552
100
AcDbEntity
  8
RACCORDO
100
AcDbLine
 62
7
  6
CONTINUOUS
 10
127.9395351766
 20
104.3870405878
 11
126.5645704215
 21
104.6294839716
  0
LWPOLYLINE
  5
553
100
AcDbEntity
  8
RACCORDO
100
AcDbPolyline
 62
7
  6
CONTINUOUS
 90
12
 70
0
 10
126.0520994207
 20
101.5496545768
 10
126.0030156563
 20
101.5683246841
 10
125.9789948829
 20
101.5771696146
 10
125.9554643889
 20
101.5856451703
 10
125.9323028481
 20
101.5935527841
 10
125.9090927254
 20
101.6001809735
 10
125.8854241859
 20
101.605640337
 10
125.8617328261
 20
101.6096960712
 10
125.8388791411
 20
101.611074483
 10
125.8171580607
 20
101.609314202
 10
125.7962907725
 20
101.6048028429
 10
125.7762756264
 20
101.5975478942
  0
LINE
  5
554
100
AcDbEntity
  8
DRAFT
100
AcDbLine
 62
7
  6
CONTINUOUS
 10
113.0551101367
 20
87.7116608225
 11
113.0551101367
 21
86.6471906406
  0
LINE
  5
555
100
AcDbEntity
  8
DRAFT
100
AcDbLine
 62
7
  6
CONTINUOUS
 10
113.0551101367
 20
127.0034394199
 11
113.0551101367
 21
128.0679096018
  0
LWPOLYLINE
  5
556
100
AcDbEntity
  8
RACCORDO
100
AcDbPolyline
 62
7
  6
CONTINUOUS
 90
7
 70
0
 10
125.7725625432
 20
117.8514289595
 10
125.7956183328
 20
117.8709191814
 10
125.8205138634
 20
117.888444006
 10
125.8472491349
 20
117.9040034332
 10
125.8758241474
 20
117.9175974631
 10
125.9062389007
 20
117.9292260957
 10
125.938493395
 20
117.9388893309
  0
LINE
  5
557
100
AcDbEntity
  8
DRAFT
100
AcDbLine
 62
253
  6
CONTINUOUS
 10
114.5638363399
 20
128.8112855483
 11
114.5638363399
 21
128.2575501212
  0
LINE
  5
558
100
AcDbEntity
  8
DRAFT
100
AcDbLine
 62
253
  6
CONTINUOUS
 10
114.5638363399
 20
86.4575501212
 11
114.5638363399
 21
85.903814694
  0
LINE
  5
559
100
AcDbEntity
  8
RACCORDO
100
AcDbLine
 62
253
  6
CONTINUOUS
 10
114.7577280974
 20
128.2575501212
 11
114.7577280974
 21
127.1509504531
  0
LINE
  5
55A
100
AcDbEntity
  8
RACCORDO
100
AcDbLine
 62
253
  6
CONTINUOUS
 10
114.7577280974
 20
87.5641497892
 11
114.7577280974
 21
86.4575501212
  0
LINE
  5
55B
100
AcDbEntity
  8
0
100
AcDbLine
 62
7
  6
CONTINUOUS
 10
115.0551101367
 20
128.6935370698
 11
115.0551101367
 21
128.2575501212
  0
LINE
  5
55C
100
AcDbEntity
  8
RACCORDO
100
AcDbLine
 62
7
  6
CONTINUOUS
 10
115.0551101367
 20
128.2575501212
 11
115.0551101367
 21
127.4509390301
  0
LINE
  5
55D
100
AcDbEntity
  8
DRAFT
100
AcDbLine
 62
7
  6
CONTINUOUS
 10
115.0551101367
 20
127.1685292901
 11
115.0551101367
 21
127.0575501212
  0
LINE
  5
55E
100
AcDbEntity
  8
RACCORDO
100
AcDbLine
 62
7
  6
CONTINUOUS
 10
115.0551101367
 20
87.2641612123
 11
115.0551101367
 21
86.4575501212
  0
LINE
  5
55F
100
AcDbEntity
  8
0
100
AcDbLine
 62
7
  6
CONTINUOUS
 10
115.0551101367
 20
86.4575501212
 11
115.0551101367
 21
86.0215631725
  0
LINE
  5
560
100
AcDbEntity
  8
DRAFT
100
AcDbLine
 62
7
  6
CONTINUOUS
 10
115.0551101367
 20
87.5465709523
 11
115.0551101367
 21
87.6575501212
  0
LINE
  5
561
100
AcDbEntity
  8
DRAFT
100
AcDbLine
 62
7
  6
CONTINUOUS
 10
127.0289634139
 20
109.833591064
 11
128.7812568596
 21
109.6802852523
  0
LINE
  5
562
100
AcDbEntity
  8
RACCORDO
100
AcDbLine
 62
253
  6
CONTINUOUS
 10
117.5463839326
 20
89.536046357
 11
117.5503042016
 21
89.2773210151
  0
LINE
  5
563
100
AcDbEntity
  8
RACCORDO
100
AcDbLine
 62
253
  6
CONTINUOUS
 10
117.5503043047
 20
101.4379250816
 11
117.5463839288
 21
101.6966589025
  0
LINE
  5
564
100
AcDbEntity
  8
RACCORDO
100
AcDbLine
 62
253
  6
CONTINUOUS
 10
117.5463839335
 20
100.5468873598
 11
117.5441754625
 21
100.6966908904
  0
LINE
  5
565
100
AcDbEntity
  8
RACCORDO
100
AcDbLine
 62
253
  6
CONTINUOUS
 10
117.5503042016
 20
89.2773210151
 11
117.5527685918
 21
89.0362183773
  0
LINE
  5
566
100
AcDbEntity
  8
RACCORDO
100
AcDbLine
 62
253
  6
CONTINUOUS
 10
117.55276869
 20
101.1968171909
 11
117.5503043047
 21
101.4379250816
  0
LINE
  5
567
100
AcDbEntity
  8
RACCORDO
100
AcDbLine
 62
253
  6
CONTINUOUS
 10
117.5527685918
 20
89.0362183773
 11
117.5535153061
 21
88.8934680238
  0
LINE
  5
568
100
AcDbEntity
  8
RACCORDO
100
AcDbLine
 62
253
  6
CONTINUOUS
 10
117.5535153443
 20
101.0540664971
 11
117.55276869
 21
101.1968171909
  0
LINE
  5
569
100
AcDbEntity
  8
RACCORDO
100
AcDbLine
 62
253
  6
CONTINUOUS
 10
116.0725625432
 20
88.6750025276
 11
116.0725625432
 21
100.1968873598
  0
LINE
  5
56A
100
AcDbEntity
  8
RACCORDO
100
AcDbLine
 62
7
  6
CONTINUOUS
 10
117.0551101367
 20
89.510320709
 11
117.0551101367
 21
89.6859772459
  0
LINE
  5
56B
100
AcDbEntity
  8
ASSI
100
AcDbLine
 62
7
  6
CONTINUOUS
 10
117.0551101367
 20
89.6859772459
 11
117.0551101367
 21
95.6092186438
  0
LINE
  5
56C
100
AcDbEntity
  8
ASSI
100
AcDbLine
 62
7
  6
CONTINUOUS
 10
117.0551101367
 20
97.1058815985
 11
117.0551101367
 21
100.1968873598
  0
LINE
  5
56D
100
AcDbEntity
  8
ASSI
100
AcDbLine
 62
7
  6
CONTINUOUS
 10
117.0816257367
 20
97.1501644554
 11
117.0816257367
 21
95.564935787
  0
LINE
  5
56E
100
AcDbEntity
  8
0
100
AcDbLine
 62
7
  6
CONTINUOUS
 10
117.2551101367
 20
94.1075501212
 11
117.2551101367
 21
92.6075501212
  0
LINE
  5
56F
100
AcDbEntity
  8
RACCORDO
100
AcDbLine
 62
253
  6
CONTINUOUS
 10
117.5463839335
 20
100.5468873598
 11
117.5463839335
 21
89.536046357
  0
LWPOLYLINE
  5
570
100
AcDbEntity
  8
RACCORDO
100
AcDbPolyline
 62
253
  6
CONTINUOUS
 90
10
 70
0
 10
117.5535153061
 20
88.8934680238
 10
117.5535153474
 20
88.7702334058
 10
117.5532344687
 20
88.7171307384
 10
117.5527686969
 20
88.6702581429
 10
117.5521215745
 20
88.6299722582
 10
117.5512980238
 20
88.596579602
 10
117.5503043117
 20
88.5703343001
 10
117.5491479993
 20
88.5514360327
 10
117.5478378829
 20
88.5400285577
 10
117.5463839297
 20
88.5361986618
  0
LWPOLYLINE
  5
571
100
AcDbEntity
  8
RACCORDO
100
AcDbPolyline
 62
253
  6
CONTINUOUS
 90
3
 70
0
 10
116.0765927569
 20
88.5870070499
 10
116.0771005177
 20
88.6291595585
 10
116.0773672635
 20
88.6749745534
  0
LWPOLYLINE
  5
572
100
AcDbEntity
  8
RACCORDO
100
AcDbPolyline
 62
253
  6
CONTINUOUS
 90
22
 70
0
 10
116.0725625432
 20
100.1968873598
 10
116.0767597844
 20
100.3082905202
 10
116.0889564986
 20
100.4180486557
 10
116.1091526859
 20
100.5261617661
 10
116.1375586844
 20
100.6332691264
 10
116.1739641559
 20
100.7387314618
 10
116.2177380854
 20
100.8406309477
 10
116.2689766816
 20
100.938817831
 10
116.3275837357
 20
101.0334418648
 10
116.392639607
 20
101.1230344843
 10
116.4642702246
 20
101.2075474384
 10
116.5423496594
 20
101.2870289782
 10
116.625580483
 20
101.3601552911
 10
116.7140199591
 20
101.4268033421
 10
116.807610824
 20
101.4870961662
 10
116.9048838579
 20
101.5400790566
 10
117.0059613664
 20
101.5856522767
 10
117.1107210438
 20
101.6239155632
 10
117.2173267529
 20
101.6542134187
 10
117.325166448
 20
101.6763273443
 10
117.4348521749
 20
101.6904758389
 10
117.5463839335
 20
101.6966589026
  0
LWPOLYLINE
  5
573
100
AcDbEntity
  8
0
100
AcDbPolyline
 62
253
  6
CONTINUOUS
 90
6
 70
0
 10
103.9268570811
 20
83.7234916817
 10
103.9280663129
 20
83.7257030917
 10
103.9289979589
 20
83.7274347742
 10
103.9296499655
 20
83.7286829029
 10
103.9300209497
 20
83.7294448168
 10
103.9301101367
 20
83.7297189048
  0
LINE
  5
574
100
AcDbEntity
  8
0
100
AcDbLine
 62
253
  6
CONTINUOUS
 10
103.9236176209
 20
83.7176511316
 11
103.9268570811
 21
83.7234916817
  0
LINE
  5
575
100
AcDbEntity
  8
0
100
AcDbLine
 62
253
  6
CONTINUOUS
 10
103.9139697326
 20
83.7005054884
 11
103.9236176209
 21
83.7176511316
  0
LINE
  5
576
100
AcDbEntity
  8
0
100
AcDbLine
 62
253
  6
CONTINUOUS
 10
103.8834021473
 20
83.6468407314
 11
103.9139697326
 21
83.7005054884
  0
LINE
  5
577
100
AcDbEntity
  8
0
100
AcDbLine
 62
253
  6
CONTINUOUS
 10
103.8065645696
 20
83.5132125539
 11
103.8834021473
 21
83.6468407314
  0
LINE
  5
578
100
AcDbEntity
  8
0
100
AcDbLine
 62
253
  6
CONTINUOUS
 10
103.8065645696
 20
131.2018876885
 11
103.887940774
 21
131.0603220522
  0
LINE
  5
579
100
AcDbEntity
  8
0
100
AcDbLine
 62
253
  6
CONTINUOUS
 10
103.887940774
 20
131.0603220522
 11
103.9139683611
 21
131.0145971781
  0
LINE
  5
57A
100
AcDbEntity
  8
0
100
AcDbLine
 62
253
  6
CONTINUOUS
 10
103.9139683611
 20
131.0145971781
 11
103.9236165822
 21
130.9974509721
  0
LWPOLYLINE
  5
57B
100
AcDbEntity
  8
0
100
AcDbPolyline
 62
253
  6
CONTINUOUS
 90
7
 70
0
 10
103.9236165822
 20
130.9974509721
 10
103.926856265
 20
130.9916100447
 10
103.9280656204
 20
130.9893984261
 10
103.9289974726
 20
130.9876663832
 10
103.9296497183
 20
130.9864178251
 10
103.9300208856
 20
130.9856555697
 10
103.9301101367
 20
130.9853813375
  0
LWPOLYLINE
  5
57C
100
AcDbEntity
  8
RACCORDO
100
AcDbPolyline
 62
253
  6
CONTINUOUS
 90
22
 70
0
 10
117.0551101367
 20
89.510320709
 10
117.0543854685
 20
89.5020442642
 10
117.0522110639
 20
89.493775682
 10
117.048587904
 20
89.4855269854
 10
117.0435182213
 20
89.4773089798
 10
117.0370076589
 20
89.4691349077
 10
117.0290674018
 20
89.4610203503
 10
117.0197074936
 20
89.4529761084
 10
117.0089422607
 20
89.44501495
 10
116.9967978022
 20
89.437154962
 10
116.9833013236
 20
89.4294107778
 10
116.9684704464
 20
89.421789838
 10
116.9523211635
 20
89.4142990965
 10
116.9348780227
 20
89.4069493406
 10
116.916167179
 20
89.3997510366
 10
116.8962057356
 20
89.3927107649
 10
116.8750150742
 20
89.3858368149
 10
116.8526307127
 20
89.3791414135
 10
116.8290929395
 20
89.3726367466
 10
116.8044392564
 20
89.3663329354
 10
116.7787029035
 20
89.3602382475
 10
116.751921461
 20
89.3543614455
  0
LWPOLYLINE
  5
57D
100
AcDbEntity
  8
RACCORDO
100
AcDbPolyline
 62
253
  6
CONTINUOUS
 90
10
 70
0
 10
117.5463839324
 20
100.6968112074
 10
117.5478378383
 20
100.7006408386
 10
117.5491479197
 20
100.7120475542
 10
117.5503042096
 20
100.7309446222
 10
117.5512979103
 20
100.7571883128
 10
117.5521214619
 20
100.7905790277
 10
117.5527685988
 20
100.830862851
 10
117.5532343962
 20
100.8777334112
 10
117.5535153084
 20
100.9308341863
 10
117.5535153443
 20
101.0540664971
  0
LWPOLYLINE
  5
57E
100
AcDbEntity
  8
RACCORDO
100
AcDbPolyline
 62
253
  6
CONTINUOUS
 90
40
 70
0
 10
125.7725625432
 20
117.8514289595
 10
125.8008286305
 20
117.8589661614
 10
125.8294696466
 20
117.8627724982
 10
125.8584598726
 20
117.8628479701
 10
125.8878209486
 20
117.859199384
 10
125.9174731693
 20
117.8518199329
 10
125.9472376472
 20
117.8406891955
 10
125.9771370212
 20
117.8255564423
 10
126.007083622
 20
117.8066724028
 10
126.0367400471
 20
117.7847688443
 10
126.0659503079
 20
117.7598525841
 10
126.0948200773
 20
117.7319168048
 10
126.1234094201
 20
117.701672821
 10
126.1516252189
 20
117.6692616358
 10
126.1795065301
 20
117.6345422461
 10
126.2072976236
 20
117.597802957
 10
126.2349705089
 20
117.5590914978
 10
126.2624701273
 20
117.5183601391
 10
126.2899741012
 20
117.4757539978
 10
126.3174355482
 20
117.4312783814
 10
126.3447793923
 20
117.3849279823
 10
126.3721112433
 20
117.3368319952
 10
126.3993195068
 20
117.2870408706
 10
126.4263461346
 20
117.235504158
 10
126.4533335952
 20
117.1821997002
 10
126.480086225
 20
117.1272397724
 10
126.5065479185
 20
117.0705120994
 10
126.5329790019
 20
117.0116576976
 10
126.5592054338
 20
116.9504942476
 10
126.5849535063
 20
116.8872040688
 10
126.6102047465
 20
116.8219751365
 10
126.6346420681
 20
116.754671159
 10
126.6579175167
 20
116.6854284279
 10
126.6798239587
 20
116.6148437934
 10
126.6998320674
 20
116.5429856233
 10
126.7175530273
 20
116.4697855498
 10
126.732705292
 20
116.3956353193
 10
126.7445979155
 20
116.3206655139
 10
126.7523413547
 20
116.2447455516
 10
126.7551101367
 20
116.1678754323
  0
LWPOLYLINE
  5
57F
100
AcDbEntity
  8
RACCORDO
100
AcDbPolyline
 62
7
  6
CONTINUOUS
 90
79
 70
0
 10
125.938493395
 20
117.9388893309
 10
126.029291814
 20
117.9613271534
 10
126.1176380565
 20
117.983635929
 10
126.2035321223
 20
118.0058156578
 10
126.2869180291
 20
118.0278547695
 10
126.3678517594
 20
118.0497648344
 10
126.4465012604
 20
118.0715805631
 10
126.5228752698
 20
118.0933015112
 10
126.5969650499
 20
118.1149281232
 10
126.6689123352
 20
118.1364964432
 10
126.738723573
 20
118.158004534
 10
126.806392316
 20
118.179454333
 10
126.8720409574
 20
118.2008876966
 10
126.9356769163
 20
118.2223017857
 10
126.9972927737
 20
118.2436994395
 10
127.056988665
 20
118.2651310321
 10
127.1147738604
 20
118.2865923624
 10
127.1706390897
 20
118.3080876314
 10
127.2246566788
 20
118.3296798173
 10
127.2768394588
 20
118.3513626438
 10
127.3271745987
 20
118.373142387
 10
127.37569593
 20
118.3951008537
 10
127.4224234343
 20
118.4172287503
 10
127.4673371302
 20
118.4395353703
 10
127.5104109048
 20
118.4621304
 10
127.5516798369
 20
118.4850012684
 10
127.5911088479
 20
118.5081605464
 10
127.6285665882
 20
118.5317556332
 10
127.6641197968
 20
118.5557769337
 10
127.6977017348
 20
118.580234043
 10
127.7289808367
 20
118.6053031446
 10
127.7580805337
 20
118.6310370524
 10
127.7848773946
 20
118.6573829526
 10
127.8086695601
 20
118.6843585872
 10
127.8294821285
 20
118.7120528646
 10
127.8472900016
 20
118.7403768765
 10
127.8613160255
 20
118.7690816403
 10
127.871410852
 20
118.7982069964
 10
127.8777238293
 20
118.8277131045
 10
127.8799258481
 20
118.8572314615
 10
127.877802716
 20
118.886768386
 10
127.8715686255
 20
118.9163175593
 10
127.861537045
 20
118.9454915221
 10
127.8475512472
 20
118.9742475899
 10
127.8297679593
 20
119.0026284472
 10
127.8089708317
 20
119.0303746872
 10
127.7851866405
 20
119.0573928118
 10
127.7583886096
 20
119.0837763191
 10
127.729280061
 20
119.1095462971
 10
127.6979836132
 20
119.1346512763
 10
127.6643766476
 20
119.1591427262
 10
127.6287946305
 20
119.1831961432
 10
127.5913053616
 20
119.2068205803
 10
127.5518410412
 20
119.2300069846
 10
127.5105337367
 20
119.2529036937
 10
127.4674185783
 20
119.2755234615
 10
127.4224604357
 20
119.2978535342
 10
127.3756859863
 20
119.3200039884
 10
127.3271153147
 20
119.3419841581
 10
127.2767283363
 20
119.3637847094
 10
127.2244914749
 20
119.3854877168
 10
127.1704183724
 20
119.4070992331
 10
127.1144953869
 20
119.4286132056
 10
127.0566480157
 20
119.4500935507
 10
126.9968787553
 20
119.4715466379
 10
126.9351851093
 20
119.4929660978
 10
126.8714850864
 20
119.5143967389
 10
126.8057867273
 20
119.5358406656
 10
126.7380819914
 20
119.5572957734
 10
126.668264766
 20
119.5788005568
 10
126.5963542654
 20
119.6003533148
 10
126.5223312754
 20
119.6219557483
 10
126.44603204
 20
119.6436514544
 10
126.3674603081
 20
119.6654429588
 10
126.2866123308
 20
119.6873277357
 10
126.2033131055
 20
119.7093418055
 10
126.1175042979
 20
119.7314971749
 10
126.0292442424
 20
119.7537818373
 10
125.9385329388
 20
119.7761957925
  0
LINE
  5
580
100
AcDbEntity
  8
DRAFT
100
AcDbLine
 62
7
  6
CONTINUOUS
 10
127.0289634139
 20
115.7815091784
 11
128.7812568596
 21
115.9348149901
  0
LWPOLYLINE
  5
581
100
AcDbEntity
  8
RACCORDO
100
AcDbPolyline
 62
253
  6
CONTINUOUS
 90
13
 70
0
 10
126.5972345001
 20
94.8654456408
 10
126.645713129
 20
94.7595167244
 10
126.695764165
 20
94.6514159995
 10
126.7451941091
 20
94.5408638428
 10
126.7944797047
 20
94.427430538
 10
126.8431442084
 20
94.3124802308
 10
126.8875638905
 20
94.1983163997
 10
126.9275949097
 20
94.0846922094
 10
126.9633811072
 20
93.9726331938
 10
126.9917302771
 20
93.8657891526
 10
127.0115783504
 20
93.7651733665
 10
127.023989396
 20
93.6696166741
 10
127.0289634139
 20
93.5790638572
  0
LWPOLYLINE
  5
582
100
AcDbEntity
  8
RACCORDO
100
AcDbPolyline
 62
253
  6
CONTINUOUS
 90
5
 70
0
 10
116.0725625432
 20
88.5104730138
 10
116.0738522941
 20
88.5153327694
 10
116.0749607518
 20
88.5298170555
 10
116.0758771944
 20
88.5537857656
 10
116.0765927569
 20
88.5870070499
  0
LWPOLYLINE
  5
583
100
AcDbEntity
  8
RACCORDO
100
AcDbPolyline
 62
7
  6
CONTINUOUS
 90
14
 70
0
 10
125.7725625432
 20
104.3641966168
 10
125.9854667855
 20
104.462391123
 10
126.0512520881
 20
104.4917159805
 10
126.1142762646
 20
104.5186970862
 10
126.17411467
 20
104.5432530582
 10
126.2305952366
 20
104.5651184369
 10
126.2838216456
 20
104.5840834582
 10
126.3337811845
 20
104.6001500359
 10
126.3804344817
 20
104.6131755291
 10
126.4237834173
 20
104.6230105515
 10
126.4638703661
 20
104.6296151511
 10
126.5007042395
 20
104.6329212911
 10
126.5342684982
 20
104.6328765817
 10
126.5645704215
 20
104.6294839716
  0
LWPOLYLINE
  5
584
100
AcDbEntity
  8
0
100
AcDbPolyline
 62
253
  6
CONTINUOUS
 90
4
 70
0
 10
95.1365518219
 20
116.8480501212
 10
94.6472283144
 20
116.8575004793
 10
94.6458334397
 20
116.8575341275
 10
94.6453682834
 20
116.8575501212
  0
LWPOLYLINE
  5
585
100
AcDbEntity
  8
RACCORDO
100
AcDbPolyline
 62
253
  6
CONTINUOUS
 90
11
 70
0
 10
126.4983937889
 20
94.5353098304
 10
126.5367534547
 20
94.4141954824
 10
126.5749099684
 20
94.289909514
 10
126.6118366414
 20
94.1634146101
 10
126.6462427295
 20
94.038132006
 10
126.6775158614
 20
93.9137592916
 10
126.7046641893
 20
93.7905988769
 10
126.726363622
 20
93.6729792276
 10
126.7421262539
 20
93.5623431657
 10
126.7518150944
 20
93.4572478691
 10
126.7551101367
 20
93.3576933379
  0
LWPOLYLINE
  5
586
100
AcDbEntity
  8
RACCORDO
100
AcDbPolyline
 62
7
  6
CONTINUOUS
 90
49
 70
0
 10
125.5551101367
 20
101.5039805533
 10
125.5681485149
 20
101.51067211
 10
125.5808462044
 20
101.5172748109
 10
125.5932035763
 20
101.523786735
 10
125.6052135805
 20
101.5302020632
 10
125.6168839811
 20
101.5365229414
 10
125.6282373222
 20
101.5427596412
 10
125.6392739482
 20
101.5489101192
 10
125.6499940991
 20
101.5549734223
 10
125.6604200847
 20
101.5609618395
 10
125.6705527736
 20
101.5668737014
 10
125.680391767
 20
101.5727082678
 10
125.6899573947
 20
101.5784796011
 10
125.6992541566
 20
101.5841883499
 10
125.708277915
 20
101.5898319925
 10
125.7170359748
 20
101.5954201568
 10
125.7255304904
 20
101.600952029
 10
125.7337595983
 20
101.6064269026
 10
125.7417245198
 20
101.6118548274
 10
125.7494130128
 20
101.6172225505
 10
125.7568375588
 20
101.6225420551
 10
125.7640363379
 20
101.6278618009
 10
125.7710295359
 20
101.6331886548
 10
125.7777969934
 20
101.6385154029
 10
125.7843162105
 20
101.6438700772
 10
125.7906241377
 20
101.6492784335
 10
125.7966837157
 20
101.6547148903
 10
125.8023614211
 20
101.6601305012
 10
125.8076387645
 20
101.6654894652
 10
125.812534329
 20
101.6708268727
 10
125.8169701231
 20
101.6762003966
 10
125.8210070787
 20
101.6815915901
 10
125.8245841208
 20
101.6870190297
 10
125.8274398409
 20
101.6925974171
 10
125.8296480426
 20
101.6984889271
 10
125.8311340766
 20
101.7045337024
 10
125.8314141184
 20
101.7103624357
 10
125.8302320581
 20
101.715950504
 10
125.8278444366
 20
101.7213201251
 10
125.8245374431
 20
101.726169011
 10
125.8202521457
 20
101.7303496359
 10
125.81504877
 20
101.7340052597
 10
125.8093925776
 20
101.7372690157
 10
125.8033763972
 20
101.7401347469
 10
125.7969080466
 20
101.7426068423
 10
125.7901750689
 20
101.7448348162
 10
125.7832400408
 20
101.746868337
 10
125.7760406557
 20
101.7486570943
 10
125.768577029
 20
101.7502008719
  0
LINE
  5
587
100
AcDbEntity
  8
RACCORDO
100
AcDbLine
 62
7
  6
CONTINUOUS
 10
125.7762756264
 20
101.5975478942
 11
125.7031915103
 21
101.5660652158
  0
LINE
  5
588
100
AcDbEntity
  8
RACCORDO
100
AcDbLine
 62
7
  6
CONTINUOUS
 10
125.7031915103
 20
101.5660652158
 11
125.6294724112
 21
101.5348600924
  0
LINE
  5
589
100
AcDbEntity
  8
RACCORDO
100
AcDbLine
 62
7
  6
CONTINUOUS
 10
125.6294724112
 20
101.5348600924
 11
125.5551101367
 21
101.5039805533
  0
LWPOLYLINE
  5
58A
100
AcDbEntity
  8
RACCORDO
100
AcDbPolyline
 62
253
  6
CONTINUOUS
 90
13
 70
0
 10
126.7551101367
 20
98.3574069044
 10
126.7573999074
 20
98.3300037763
 10
126.764234207
 20
98.3030191819
 10
126.7755086239
 20
98.2768650221
 10
126.7910509581
 20
98.2519405264
 10
126.8106238909
 20
98.2286261047
 10
126.8339286431
 20
98.207277556
 10
126.8606094395
 20
98.1882207283
 10
126.8902589888
 20
98.1717464698
 10
126.9224247912
 20
98.1581061729
 10
126.9566158999
 20
98.1475080264
 10
126.9923103877
 20
98.1401138106
 10
127.0289634139
 20
98.1360363855
  0
LINE
  5
58B
100
AcDbEntity
  8
RACCORDO
100
AcDbLine
 62
253
  6
CONTINUOUS
 10
125.7725625432
 20
89.6796348388
 11
125.7764828801
 21
89.4209042303
  0
LINE
  5
58C
100
AcDbEntity
  8
RACCORDO
100
AcDbLine
 62
253
  6
CONTINUOUS
 10
125.7762756264
 20
101.5975478942
 11
125.7788604251
 21
101.3519461998
  0
LINE
  5
58D
100
AcDbEntity
  8
RACCORDO
100
AcDbLine
 62
253
  6
CONTINUOUS
 10
125.7764828801
 20
89.4209042303
 11
125.7789472616
 21
89.1797988844
  0
LINE
  5
58E
100
AcDbEntity
  8
RACCORDO
100
AcDbLine
 62
253
  6
CONTINUOUS
 10
125.7788604251
 20
101.3519461998
 11
125.7796687835
 21
101.2061308458
  0
LINE
  5
58F
100
AcDbEntity
  8
RACCORDO
100
AcDbLine
 62
253
  6
CONTINUOUS
 10
125.7789472616
 20
89.1797988844
 11
125.7796939391
 21
89.03704879
  0
LINE
  5
590
100
AcDbEntity
  8
RACCORDO
100
AcDbLine
 62
253
  6
CONTINUOUS
 10
125.7792990202
 20
125.8565967562
 11
125.7796674874
 21
125.7458609459
  0
LINE
  5
591
100
AcDbEntity
  8
RACCORDO
100
AcDbLine
 62
253
  6
CONTINUOUS
 10
125.5551101367
 20
101.5039805533
 11
125.5551101367
 21
101.8364517384
  0
LINE
  5
592
100
AcDbEntity
  8
RACCORDO
100
AcDbLine
 62
253
  6
CONTINUOUS
 10
125.7725631266
 20
125.0453965601
 11
125.7725625432
 21
119.8636712829
  0
LINE
  5
593
100
AcDbEntity
  8
RACCORDO
100
AcDbLine
 62
253
  6
CONTINUOUS
 10
125.7725625432
 20
89.6796348388
 11
125.7725625432
 21
100.6904758416
  0
LINE
  5
594
100
AcDbEntity
  8
RACCORDO
100
AcDbLine
 62
253
  6
CONTINUOUS
 10
125.7725625432
 20
104.3641966168
 11
125.7725625432
 21
117.8514289595
  0
LWPOLYLINE
  5
595
100
AcDbEntity
  8
RACCORDO
100
AcDbPolyline
 62
253
  6
CONTINUOUS
 90
10
 70
0
 10
125.7796687835
 20
101.2061308458
 10
125.7797118786
 20
101.0801040882
 10
125.7794453076
 20
101.0257672503
 10
125.7789889461
 20
100.9777795257
 10
125.7783462632
 20
100.9365128584
 10
125.7775222768
 20
100.9022945424
 10
125.7765234581
 20
100.8753940271
 10
125.7753576329
 20
100.8560211643
 10
125.7740338837
 20
100.8443260916
 10
125.7725625432
 20
100.8403996891
  0
LWPOLYLINE
  5
596
100
AcDbEntity
  8
RACCORDO
100
AcDbPolyline
 62
253
  6
CONTINUOUS
 90
10
 70
0
 10
125.7796939391
 20
89.03704879
 10
125.7796939391
 20
88.9138157957
 10
125.7794130444
 20
88.8607142782
 10
125.7789472616
 20
88.8138428254
 10
125.7783001342
 20
88.7735580191
 10
125.7774765853
 20
88.7401663323
 10
125.7764828801
 20
88.7139217975
 10
125.7753265786
 20
88.6950240739
 10
125.7740164773
 20
88.6836169287
 10
125.7725625432
 20
88.6797871436
  0
LINE
  5
597
100
AcDbEntity
  8
RACCORDO
100
AcDbLine
 62
253
  6
CONTINUOUS
 10
125.7796674874
 20
125.7458609459
 11
125.7792994589
 21
125.6138197716
  0
LINE
  5
598
100
AcDbEntity
  8
RACCORDO
100
AcDbLine
 62
253
  6
CONTINUOUS
 10
125.7792994589
 20
125.6138197716
 11
125.7773967148
 21
125.3846188746
  0
LWPOLYLINE
  5
599
100
AcDbEntity
  8
RACCORDO
100
AcDbPolyline
 62
253
  6
CONTINUOUS
 90
3
 70
0
 10
125.7773967148
 20
125.3846188746
 10
125.7739938713
 20
125.1319311156
 10
125.7725631523
 20
125.0453965889
  0
LINE
  5
59A
100
AcDbEntity
  8
RACCORDO
100
AcDbLine
 62
253
  6
CONTINUOUS
 10
125.7769875798
 20
100.840666339
 11
125.7760046693
 21
100.8017018977
  0
LWPOLYLINE
  5
59B
100
AcDbEntity
  8
RACCORDO
100
AcDbPolyline
 62
253
  6
CONTINUOUS
 90
3
 70
0
 10
125.7760046693
 20
100.8017018977
 10
125.773830756
 20
100.7278077108
 10
125.7725625432
 20
100.690475843
  0
LWPOLYLINE
  5
59C
100
AcDbEntity
  8
RACCORDO
100
AcDbPolyline
 62
253
  6
CONTINUOUS
 90
13
 70
0
 10
126.7551101367
 20
116.1678754323
 10
126.7573998732
 20
116.1973587962
 10
126.7642340924
 20
116.2263919813
 10
126.7755084163
 20
116.2545318105
 10
126.7910506882
 20
116.2813487462
 10
126.8106236138
 20
116.3064334665
 10
126.8339283946
 20
116.3294031078
 10
126.8606092581
 20
116.3499070741
 10
126.8902589147
 20
116.3676324204
 10
126.9224248058
 20
116.3823086323
 10
126.9566159522
 20
116.3937117155
 10
126.9923104366
 20
116.4016676271
 10
127.0289634139
 20
116.4060549505
  0
LWPOLYLINE
  5
59D
100
AcDbEntity
  8
RACCORDO
100
AcDbPolyline
 62
253
  6
CONTINUOUS
 90
37
 70
0
 10
125.9385414581
 20
117.9389015352
 10
125.9754950829
 20
117.9292093999
 10
126.0122203035
 20
117.9167064901
 10
126.0487171198
 20
117.9014131299
 10
126.085038616
 20
117.8831560256
 10
126.1211317081
 20
117.8621589565
 10
126.1568371434
 20
117.8390359829
 10
126.1920603782
 20
117.8139116113
 10
126.2268959562
 20
117.7867132568
 10
126.2614682569
 20
117.7577532456
 10
126.2957651783
 20
117.727138419
 10
126.3297988223
 20
117.6948216316
 10
126.3637298743
 20
117.6608842875
 10
126.3976033131
 20
117.6253872892
 10
126.43137416
 20
117.5883455789
 10
126.465068164
 20
117.5497764106
 10
126.4987155994
 20
117.5097491706
 10
126.5322861919
 20
117.468291033
 10
126.5657148686
 20
117.4253640108
 10
126.5990040393
 20
117.3811065022
 10
126.6321512941
 20
117.3355037864
 10
126.6650843306
 20
117.2883068098
 10
126.6978430061
 20
117.2396880213
 10
126.7303874634
 20
117.1896509106
 10
126.7625258282
 20
117.1377341958
 10
126.7944366318
 20
117.0839750617
 10
126.8259413429
 20
117.0286139015
 10
126.8563124935
 20
116.9715408203
 10
126.8856994927
 20
116.9128978055
 10
126.9139529314
 20
116.8529138304
 10
126.9398971137
 20
116.7916398967
 10
126.9637235862
 20
116.7294284559
 10
126.9852408023
 20
116.666386738
 10
127.0026984267
 20
116.602252555
 10
127.0155130142
 20
116.5371675611
 10
127.0242680099
 20
116.4716469525
 10
127.0289634139
 20
116.4060549498
  0
LWPOLYLINE
  5
59E
100
AcDbEntity
  8
RACCORDO
100
AcDbPolyline
 62
253
  6
CONTINUOUS
 90
13
 70
0
 10
126.7551101367
 20
121.5472248101
 10
126.7573998246
 20
121.5177416266
 10
126.7642339155
 20
121.4887085822
 10
126.7755080586
 20
121.460568845
 10
126.7910501228
 20
121.4337519512
 10
126.8106228427
 20
121.4086672212
 10
126.8339274565
 20
121.3856975189
 10
126.8606082225
 20
121.3651934531
 10
126.8902578697
 20
121.3474679894
 10
126.9224238552
 20
121.3327916642
 10
126.956615208
 20
121.3213884971
 10
126.9923100116
 20
121.3134325582
 10
127.0289634139
 20
121.3090452919
  0
LINE
  5
59F
100
AcDbEntity
  8
RACCORDO
100
AcDbLine
 62
7
  6
CONTINUOUS
 10
126.7551101367
 20
125.0354654036
 11
126.7551101367
 21
121.5472248101
  0
LINE
  5
5A0
100
AcDbEntity
  8
RACCORDO
100
AcDbLine
 62
7
  6
CONTINUOUS
 10
126.7551101367
 20
116.1678754323
 11
126.7551101367
 21
104.5958866789
  0
LINE
  5
5A1
100
AcDbEntity
  8
RACCORDO
100
AcDbLine
 62
7
  6
CONTINUOUS
 10
126.7551101367
 20
101.5192135635
 11
126.7551101367
 21
98.3574069044
  0
LINE
  5
5A2
100
AcDbEntity
  8
RACCORDO
100
AcDbLine
 62
7
  6
CONTINUOUS
 10
126.7551101367
 20
93.3576933379
 11
126.7551101367
 21
89.6796348388
  0
LINE
  5
5A3
100
AcDbEntity
  8
RACCORDO
100
AcDbLine
 62
253
  6
CONTINUOUS
 10
127.0289634139
 20
121.933591064
 11
127.0289634139
 21
121.3090452926
  0
LINE
  5
5A4
100
AcDbEntity
  8
RACCORDO
100
AcDbLine
 62
253
  6
CONTINUOUS
 10
127.0289634139
 20
116.4060549498
 11
127.0289634139
 21
115.7815091784
  0
LINE
  5
5A5
100
AcDbEntity
  8
RACCORDO
100
AcDbLine
 62
253
  6
CONTINUOUS
 10
127.0289634139
 20
109.833591064
 11
127.0289634139
 21
104.5475989574
  0
LINE
  5
5A6
100
AcDbEntity
  8
RACCORDO
100
AcDbLine
 62
253
  6
CONTINUOUS
 10
127.0289634139
 20
98.933591064
 11
127.0289634139
 21
98.1360363852
  0
LINE
  5
5A7
100
AcDbEntity
  8
RACCORDO
100
AcDbLine
 62
253
  6
CONTINUOUS
 10
127.0289634139
 20
93.5790638572
 11
127.0289634139
 21
92.7815091784
  0
LWPOLYLINE
  5
5A8
100
AcDbEntity
  8
RACCORDO
100
AcDbPolyline
 62
253
  6
CONTINUOUS
 90
46
 70
0
 10
126.7551101367
 20
121.5472248101
 10
126.7531497567
 20
121.4831892899
 10
126.7475754069
 20
121.4193071316
 10
126.7388415297
 20
121.3555783351
 10
126.7274233378
 20
121.2918118863
 10
126.7137303731
 20
121.2281987994
 10
126.698033058
 20
121.1653121166
 10
126.6806266229
 20
121.1031194177
 10
126.6618542102
 20
121.0416531229
 10
126.6419553572
 20
120.9815835354
 10
126.6212440009
 20
120.923112867
 10
126.5999314773
 20
120.8660389058
 10
126.5780194724
 20
120.81042532
 10
126.5556740759
 20
120.7563056609
 10
126.533077123
 20
120.7036463771
 10
126.5101645728
 20
120.6524104825
 10
126.4870406659
 20
120.6025994252
 10
126.4638358909
 20
120.5542117571
 10
126.4404661843
 20
120.507206148
 10
126.4170049271
 20
120.4615795602
 10
126.3935407942
 20
120.4173350313
 10
126.3699732082
 20
120.3744403435
 10
126.3463514223
 20
120.3328800461
 10
126.3227388463
 20
120.2926695898
 10
126.299028743
 20
120.2538231091
 10
126.275255766
 20
120.2163159935
 10
126.2514647882
 20
120.1801728535
 10
126.2275450722
 20
120.1454816543
 10
126.2035184766
 20
120.1122044864
 10
126.1794202999
 20
120.0803792593
 10
126.1551464081
 20
120.0502076664
 10
126.130709794
 20
120.0216457741
 10
126.1061406225
 20
119.994737516
 10
126.0813516344
 20
119.9698163864
 10
126.0563410994
 20
119.9468417923
 10
126.0311462791
 20
119.9258543267
 10
126.0057339811
 20
119.9073092626
 10
125.9800771873
 20
119.8912199686
 10
125.9542367748
 20
119.8775730761
 10
125.9283119264
 20
119.8667837532
 10
125.9023355741
 20
119.8589613459
 10
125.8763124788
 20
119.8539965081
 10
125.8503011654
 20
119.8519763699
 10
125.8243336138
 20
119.8529299746
 10
125.7984147773
 20
119.856828279
 10
125.7725625432
 20
119.8636712829
  0
LWPOLYLINE
  5
5A9
100
AcDbEntity
  8
RACCORDO
100
AcDbPolyline
 62
253
  6
CONTINUOUS
 90
10
 70
0
 10
126.7551101367
 20
98.3574069044
 10
126.7518073778
 20
98.2577708826
 10
126.7420822986
 20
98.1524174917
 10
126.726236116
 20
98.041346732
 10
126.7043911329
 20
97.9231596455
 10
126.6770178958
 20
97.7992551901
 10
126.6454156544
 20
97.6738302391
 10
126.610544535
 20
97.5471335075
 10
126.5730187064
 20
97.4189162803
 10
126.534168516
 20
97.2926292863
  0
LWPOLYLINE
  5
5AA
100
AcDbEntity
  8
RACCORDO
100
AcDbPolyline
 62
253
  6
CONTINUOUS
 90
14
 70
0
 10
127.0289634139
 20
98.1360363852
 10
127.0240179781
 20
98.0453888436
 10
127.0115528127
 20
97.9496062551
 10
126.991567918
 20
97.848617391
 10
126.9630226135
 20
97.7412623969
 10
126.9269575795
 20
97.6285177327
 10
126.8864948568
 20
97.5139427507
 10
126.841453462
 20
97.3985036213
 10
126.7920143785
 20
97.2819800981
 10
126.7418425967
 20
97.1667176448
 10
126.6913151569
 20
97.0539308113
 10
126.6400550187
 20
96.9433308824
 10
126.5905960511
 20
96.8351538552
 10
126.49765139
 20
96.6283188945
  0
LWPOLYLINE
  5
5AB
100
AcDbEntity
  8
RACCORDO
100
AcDbPolyline
 62
253
  6
CONTINUOUS
 90
40
 70
0
 10
127.0289634139
 20
121.3090452926
 10
127.0253823242
 20
121.2504052374
 10
127.0181868985
 20
121.1914871398
 10
127.0073771368
 20
121.1325187159
 10
126.9924917664
 20
121.0737294516
 10
126.9739920599
 20
121.0153034526
 10
126.9532618356
 20
120.9573916769
 10
126.930396194
 20
120.9001350627
 10
126.9053000345
 20
120.8437535263
 10
126.8790718737
 20
120.7885256191
 10
126.8518877767
 20
120.7347829468
 10
126.8235716784
 20
120.6825235157
 10
126.7946938997
 20
120.6315089333
 10
126.7653439951
 20
120.5818396519
 10
126.7354324101
 20
120.5336456204
 10
126.7052608023
 20
120.4866935306
 10
126.6748800525
 20
120.4410394318
 10
126.6442392798
 20
120.39679182
 10
126.6134875003
 20
120.353768431
 10
126.5826594872
 20
120.3120070003
 10
126.5517204673
 20
120.2715898812
 10
126.520715136
 20
120.2323834676
 10
126.4896641849
 20
120.1944038991
 10
126.4585469225
 20
120.1577242146
 10
126.4273459692
 20
120.1222847394
 10
126.3960756226
 20
120.0880879168
 10
126.3647215852
 20
120.0551999074
 10
126.3332235843
 20
120.0236506314
 10
126.3015854819
 20
119.9934251189
 10
126.2698034161
 20
119.9645933986
 10
126.2378055287
 20
119.9373113267
 10
126.2055882002
 20
119.9115603403
 10
126.1731550501
 20
119.8874060169
 10
126.1404450795
 20
119.8651321928
 10
126.1074274772
 20
119.8447179429
 10
126.0741330544
 20
119.8262259675
 10
126.0405932456
 20
119.8100692462
 10
126.0068185292
 20
119.7963994476
 10
125.972798427
 20
119.7851030625
 10
125.9385329388
 20
119.7761957925
  0
LWPOLYLINE
  5
5AC
100
AcDbEntity
  8
RACCORDO
100
AcDbPolyline
 62
253
  6
CONTINUOUS
 90
13
 70
0
 10
126.7551101367
 20
93.357693338
 10
126.7573998916
 20
93.385096088
 10
126.7642341587
 20
93.412080404
 10
126.775508548
 20
93.4382343826
 10
126.7910508911
 20
93.4631587995
 10
126.810623882
 20
93.4864732212
 10
126.8339287119
 20
93.5078218073
 10
126.8606095964
 20
93.5268787079
 10
126.8902592408
 20
93.5433530721
 10
126.922425091
 20
93.5569934876
 10
126.9566161698
 20
93.5675917749
 10
126.9923105582
 20
93.5749861786
 10
127.0289634139
 20
93.5790638568
  0
LINE
  5
5AD
100
AcDbEntity
  8
DRAFT
100
AcDbLine
 62
7
  6
CONTINUOUS
 10
115.0551101367
 20
87.6575501212
 11
115.8019678085
 21
88.4044077929
  0
LINE
  5
5AE
100
AcDbEntity
  8
RACCORDO
100
AcDbLine
 62
7
  6
CONTINUOUS
 10
115.8019678085
 20
88.4044077929
 11
116.751921461
 21
89.3543614455
  0
LINE
  5
5AF
100
AcDbEntity
  8
0
100
AcDbLine
 62
7
  6
CONTINUOUS
 10
101.5551101367
 20
84.2349003904
 11
100.6801101367
 21
83.7297189048
  0
LINE
  5
5B0
100
AcDbEntity
  8
0
100
AcDbLine
 62
253
  6
CONTINUOUS
 10
101.8036557039
 20
84.0905628231
 11
100.8036557039
 21
83.5132125539
  0
LINE
  5
5B1
100
AcDbEntity
  8
DRAFT
100
AcDbLine
 62
7
  6
CONTINUOUS
 10
127.0289634139
 20
121.933591064
 11
128.7812568596
 21
121.7802852523
  0
LWPOLYLINE
  5
5B2
100
AcDbEntity
  8
RACCORDO
100
AcDbPolyline
 62
7
  6
CONTINUOUS
 90
7
 70
0
 10
125.9385329388
 20
119.7761957925
 10
125.9063347345
 20
119.785825425
 10
125.8759511189
 20
119.7974349039
 10
125.8473820919
 20
119.8110242291
 10
125.8206276537
 20
119.8265934007
 10
125.7956878041
 20
119.8441424186
 10
125.7725625432
 20
119.8636712829
  0
LINE
  5
5B3
100
AcDbEntity
  8
0
100
AcDbLine
 62
7
  6
CONTINUOUS
 10
100.6801101367
 20
130.9853813375
 11
101.5551101367
 21
130.480199852
  0
LINE
  5
5B4
100
AcDbEntity
  8
0
100
AcDbLine
 62
253
  6
CONTINUOUS
 10
100.8036557039
 20
131.2018876885
 11
101.8036557039
 21
130.6245374193
  0
LINE
  5
5B5
100
AcDbEntity
  8
RACCORDO
100
AcDbLine
 62
7
  6
CONTINUOUS
 10
116.7126197067
 20
125.4000405512
 11
115.8019678085
 21
126.3106924494
  0
LINE
  5
5B6
100
AcDbEntity
  8
DRAFT
100
AcDbLine
 62
7
  6
CONTINUOUS
 10
115.8019678085
 20
126.3106924494
 11
115.0551101367
 21
127.0575501212
  0
LINE
  5
5B7
100
AcDbEntity
  8
RACCORDO
100
AcDbLine
 62
253
  6
CONTINUOUS
 10
127.8770568681
 20
102.1219827558
 11
127.894757659
 21
102.0202218251
  0
LINE
  5
5B8
100
AcDbEntity
  8
RACCORDO
100
AcDbLine
 62
253
  6
CONTINUOUS
 10
127.894757659
 20
102.0202218251
 11
127.9107830842
 21
101.9253680223
  0
LWPOLYLINE
  5
5B9
100
AcDbEntity
  8
RACCORDO
100
AcDbPolyline
 62
253
  6
CONTINUOUS
 90
8
 70
0
 10
127.9107830842
 20
101.9253680223
 10
127.9240451865
 20
101.843860836
 10
127.9293495099
 20
101.8098876951
 10
127.9336435569
 20
101.781233962
 10
127.9368541187
 20
101.7583881387
 10
127.938926462
 20
101.7417396836
 10
127.9398252567
 20
101.7315724041
 10
127.9395351733
 20
101.728059654
  0
LINE
  5
5BA
100
AcDbEntity
  8
RACCORDO
100
AcDbLine
 62
253
  6
CONTINUOUS
 10
128.7812568596
 20
121.7802852523
 11
128.7812568596
 21
115.9348149901
  0
LINE
  5
5BB
100
AcDbEntity
  8
RACCORDO
100
AcDbLine
 62
253
  6
CONTINUOUS
 10
128.7812568596
 20
109.6802852523
 11
128.7812568596
 21
103.8711399981
  0
LINE
  5
5BC
100
AcDbEntity
  8
RACCORDO
100
AcDbLine
 62
253
  6
CONTINUOUS
 10
128.7812568596
 20
98.7802852523
 11
128.7812568596
 21
92.9348149901
  0
LINE
  5
5BD
100
AcDbEntity
  8
RACCORDO
100
AcDbLine
 62
7
  6
CONTINUOUS
 10
129.0551101367
 20
121.4813919565
 11
129.0551101367
 21
116.2337083803
  0
LINE
  5
5BE
100
AcDbEntity
  8
RACCORDO
100
AcDbLine
 62
7
  6
CONTINUOUS
 10
129.0551101367
 20
109.3813919566
 11
129.0551101367
 21
104.1337083802
  0
LINE
  5
5BF
100
AcDbEntity
  8
RACCORDO
100
AcDbLine
 62
7
  6
CONTINUOUS
 10
129.0551101367
 20
98.4813919566
 11
129.0551101367
 21
93.2337083802
  0
LWPOLYLINE
  5
5C0
100
AcDbEntity
  8
RACCORDO
100
AcDbPolyline
 62
253
  6
CONTINUOUS
 90
7
 70
0
 10
127.9240455925
 20
104.2712420622
 10
127.9293498249
 20
104.3052147027
 10
127.9336437681
 20
104.3338678296
 10
127.9368542352
 20
104.3567130672
 10
127.9389265059
 20
104.3733610317
 10
127.9398252592
 20
104.3835279684
 10
127.9395351766
 20
104.3870405878
  0
LINE
  5
5C1
100
AcDbEntity
  8
RACCORDO
100
AcDbLine
 62
253
  6
CONTINUOUS
 10
127.9107835686
 20
104.1897352141
 11
127.9240455925
 21
104.2712420622
  0
LINE
  5
5C2
100
AcDbEntity
  8
RACCORDO
100
AcDbLine
 62
253
  6
CONTINUOUS
 10
127.8947580176
 20
104.0948805518
 11
127.9107835686
 21
104.1897352141
  0
LINE
  5
5C3
100
AcDbEntity
  8
RACCORDO
100
AcDbLine
 62
253
  6
CONTINUOUS
 10
127.8770568681
 20
103.9931174865
 11
127.8947580176
 21
104.0948805518
  0
LWPOLYLINE
  5
5C4
100
AcDbEntity
  8
RACCORDO
100
AcDbPolyline
 62
253
  6
CONTINUOUS
 90
21
 70
0
 10
126.3811704779
 20
96.8138452912
 10
126.3463881146
 20
96.7019391441
 10
126.3139831086
 20
96.5924125179
 10
126.2840730823
 20
96.4850122485
 10
126.2571550098
 20
96.3799915001
 10
126.234237137
 20
96.2774402926
 10
126.215675013
 20
96.1777857428
 10
126.201491931
 20
96.0806007339
 10
126.1921690527
 20
95.9846939364
 10
126.1879464466
 20
95.8904270772
 10
126.1886967853
 20
95.7974384294
 10
126.1942937913
 20
95.7034514825
 10
126.204803637
 20
95.608156657
 10
126.2200286447
 20
95.5118635325
 10
126.2393953393
 20
95.4132243371
 10
126.2628439346
 20
95.311754539
 10
126.2900542008
 20
95.20793867
 10
126.3200408626
 20
95.1018825533
 10
126.3523298433
 20
94.9937887525
 10
126.386798879
 20
94.8834547038
 10
126.4983937889
 20
94.5353098304
  0
LINE
  5
5C5
100
AcDbEntity
  8
RACCORDO
100
AcDbLine
 62
253
  6
CONTINUOUS
 10
126.534168516
 20
97.2926292863
 11
126.3811704779
 21
96.8138452912
  0
LWPOLYLINE
  5
5C6
100
AcDbEntity
  8
RACCORDO
100
AcDbPolyline
 62
253
  6
CONTINUOUS
 90
19
 70
0
 10
126.49765139
 20
96.6283188945
 10
126.4555600406
 20
96.5283962242
 10
126.4168543702
 20
96.4303140132
 10
126.3816290957
 20
96.3345935489
 10
126.3518475928
 20
96.2409515133
 10
126.327850087
 20
96.1499016321
 10
126.3092963528
 20
96.0612566345
 10
126.2971290897
 20
95.9736578416
 10
126.291720666
 20
95.8875362938
 10
126.2926987135
 20
95.8026996454
 10
126.2998888272
 20
95.7168374711
 10
126.3135924108
 20
95.6297999333
 10
126.3335080607
 20
95.5419704408
 10
126.3585571617
 20
95.4518537049
 10
126.3890195275
 20
95.3592032662
 10
126.4246153444
 20
95.2645827985
 10
126.4634265558
 20
95.1677359493
 10
126.5053614718
 20
95.0691212278
 10
126.5972345001
 20
94.8654456408
  0
LINE
  5
5C7
100
AcDbEntity
  8
RACCORDO
100
AcDbLine
 62
253
  6
CONTINUOUS
 10
126.7551101367
 20
125.0291229964
 11
105.0551101367
 21
125.0291229964
  0
LINE
  5
5C8
100
AcDbEntity
  8
RACCORDO
100
AcDbLine
 62
253
  6
CONTINUOUS
 10
126.1876088721
 20
125.0444211752
 11
125.7725631266
 21
125.0453965747
  0
LINE
  5
5C9
100
AcDbEntity
  8
RACCORDO
100
AcDbLine
 62
253
  6
CONTINUOUS
 10
126.4674738837
 20
125.0424363447
 11
126.1876088721
 21
125.0444211752
  0
LINE
  5
5CA
100
AcDbEntity
  8
RACCORDO
100
AcDbLine
 62
253
  6
CONTINUOUS
 10
126.5775749376
 20
125.041115333
 11
126.4674738837
 21
125.0424363447
  0
LWPOLYLINE
  5
5CB
100
AcDbEntity
  8
RACCORDO
100
AcDbPolyline
 62
253
  6
CONTINUOUS
 90
4
 70
0
 10
126.7216786137
 20
125.0380122449
 10
126.6959341772
 20
125.0388315738
 10
126.6631641819
 20
125.0396257775
 10
126.5775749376
 20
125.041115333
  0
LINE
  5
5CC
100
AcDbEntity
  8
0
100
AcDbLine
 62
7
  6
CONTINUOUS
 10
103.0551101367
 20
125.8575501212
 11
105.0551101367
 21
125.5048961598
  0
LINE
  5
5CD
100
AcDbEntity
  8
RACCORDO
100
AcDbLine
 62
7
  6
CONTINUOUS
 10
114.7577280974
 20
127.1509504531
 11
113.0551101367
 21
127.1360919313
  0
LINE
  5
5CE
100
AcDbEntity
  8
DRAFT
100
AcDbLine
 62
7
  6
CONTINUOUS
 10
104.0551101367
 20
125.8658406456
 11
105.0551101367
 21
125.8622258586
  0
LINE
  5
5CF
100
AcDbEntity
  8
DRAFT
100
AcDbLine
 62
7
  6
CONTINUOUS
 10
104.0551101367
 20
126.8575501212
 11
105.0551101367
 21
126.8488232534
  0
LINE
  5
5D0
100
AcDbEntity
  8
DRAFT
100
AcDbLine
 62
253
  6
CONTINUOUS
 10
115.8019678085
 20
126.3106924494
 11
105.0551101367
 21
126.4433365588
  0
LINE
  5
5D1
100
AcDbEntity
  8
RACCORDO
100
AcDbLine
 62
7
  6
CONTINUOUS
 10
125.7725625432
 20
126.0353130988
 11
115.9051101367
 21
126.2075501212
  0
LINE
  5
5D2
100
AcDbEntity
  8
DRAFT
100
AcDbLine
 62
7
  6
CONTINUOUS
 10
115.1457124369
 20
126.966947821
 11
113.0551101367
 21
127.0034394199
  0
LINE
  5
5D3
100
AcDbEntity
  8
DRAFT
100
AcDbLine
 62
7
  6
CONTINUOUS
 10
115.0551101367
 20
127.1685292901
 11
114.8644354111
 21
127.1718575298
  0
LWPOLYLINE
  5
5D4
100
AcDbEntity
  8
RACCORDO
100
AcDbPolyline
 62
253
  6
CONTINUOUS
 90
10
 70
0
 10
125.7725631266
 20
125.0453965601
 10
124.7675748944
 20
125.0890763385
 10
123.7682446164
 20
125.1315449541
 10
122.7745722927
 20
125.1727096245
 10
121.7946592456
 20
125.2120643574
 10
120.8204041526
 20
125.2499384284
 10
119.8275030466
 20
125.2875557479
 10
118.807854605
 20
125.3253364816
 10
117.7695601503
 20
125.3628369783
 10
116.7126196825
 20
125.400040527
  0
LINE
  5
5D5
100
AcDbEntity
  8
0
100
AcDbLine
 62
253
  6
CONTINUOUS
 10
96.1210731983
 20
128.4937080707
 11
95.7485096049
 21
128.5503703059
  0
LINE
  5
5D6
100
AcDbEntity
  8
0
100
AcDbLine
 62
253
  6
CONTINUOUS
 10
95.7485096049
 20
128.5503703059
 11
95.6644955576
 21
128.5634329053
  0
LWPOLYLINE
  5
5D7
100
AcDbEntity
  8
0
100
AcDbPolyline
 62
253
  6
CONTINUOUS
 90
7
 70
0
 10
95.6644955576
 20
128.5634329053
 10
95.6468126018
 20
128.5662632044
 10
95.6427039067
 20
128.5669385422
 10
95.6395021663
 20
128.5674775274
 10
95.6372133421
 20
128.5678791564
 10
95.6358416958
 20
128.5681426815
 10
95.6353897814
 20
128.568267612
  0
LWPOLYLINE
  5
5D8
100
AcDbEntity
  8
RACCORDO
100
AcDbPolyline
 62
253
  6
CONTINUOUS
 90
8
 70
0
 10
125.7725625432
 20
126.0353130987
 10
125.7739929498
 20
126.0315316528
 10
125.7752815151
 20
126.0202679437
 10
125.7764185582
 20
126.0016065808
 10
125.7773955354
 20
125.9756877439
 10
125.7782051076
 20
125.9427061291
 10
125.7788411954
 20
125.902909486
 10
125.7792990202
 20
125.8565967562
  0
LINE
  5
5D9
100
AcDbEntity
  8
DRAFT
100
AcDbLine
 62
7
  6
CONTINUOUS
 10
114.5638363399
 20
128.8112855483
 11
104.0551101367
 21
128.7575501212
  0
LINE
  5
5DA
100
AcDbEntity
  8
0
100
AcDbLine
 62
7
  6
CONTINUOUS
 10
115.0551101367
 20
128.2575501212
 11
104.0551101367
 21
128.2575501212
  0
LINE
  5
5DB
100
AcDbEntity
  8
0
100
AcDbLine
 62
253
  6
CONTINUOUS
 10
104.0551101367
 20
129.2517492144
 11
103.0551101367
 21
129.2575670442
  0
LINE
  5
5DC
100
AcDbEntity
  8
DRAFT
100
AcDbLine
 62
7
  6
CONTINUOUS
 10
113.0551101367
 20
128.0679096018
 11
105.0551101367
 21
128.2075501212
  0
LWPOLYLINE
  5
5DD
100
AcDbEntity
  8
RACCORDO
100
AcDbPolyline
 62
253
  6
CONTINUOUS
 90
4
 70
0
 10
126.7551101367
 20
125.0354653748
 10
126.7513770378
 20
125.036322839
 10
126.7402055085
 20
125.0371739142
 10
126.7216786137
 20
125.0380122449
  0
LINE
  5
5DE
100
AcDbEntity
  8
RACCORDO
100
AcDbLine
 62
253
  6
CONTINUOUS
 10
101.5551101367
 20
129.8687313656
 11
101.5565025961
 21
129.86887833
  0
LINE
  5
5DF
100
AcDbEntity
  8
RACCORDO
100
AcDbLine
 62
253
  6
CONTINUOUS
 10
101.5565025961
 20
129.86887833
 11
101.8036557039
 21
129.8921776638
  0
LWPOLYLINE
  5
5E0
100
AcDbEntity
  8
0
100
AcDbPolyline
 62
253
  6
CONTINUOUS
 90
43
 70
0
 10
96.5899815952
 20
128.9184982395
 10
96.5736682026
 20
128.9173952524
 10
96.5574368194
 20
128.9157667709
 10
96.5412874455
 20
128.913612795
 10
96.5252041083
 20
128.910929986
 10
96.5092027804
 20
128.9077216826
 10
96.4933313802
 20
128.9039979008
 10
96.4775893048
 20
128.8997569242
 10
96.4619771571
 20
128.8950004692
 10
96.4465446637
 20
128.8897437013
 10
96.4312923977
 20
128.8839850265
 10
96.4162197861
 20
128.8777260387
 10
96.4013748366
 20
128.8709866853
 10
96.3867582772
 20
128.8637654375
 10
96.3723693799
 20
128.8560638242
 10
96.3582539686
 20
128.8479063793
 10
96.3444129126
 20
128.8392916497
 10
96.3308453427
 20
128.8302210887
 10
96.3175944753
 20
128.8207235897
 10
96.3046613209
 20
128.8107977938
 10
96.2920448691
 20
128.8004450599
 10
96.2797853049
 20
128.7896983594
 10
96.2678837657
 20
128.7785564379
 10
96.256339114
 20
128.7670205496
 10
96.2451881232
 20
128.7551274291
 10
96.2344320447
 20
128.7428759356
 10
96.2240696271
 20
128.7302672099
 10
96.2141338888
 20
128.7173414083
 10
96.2046261919
 20
128.7040975256
 10
96.1955451744
 20
128.6905365671
 10
96.1869197689
 20
128.6767017046
 10
96.1787514219
 20
128.662592058
 10
96.171038687
 20
128.6482085076
 10
96.1638061573
 20
128.633596865
 10
96.1570553588
 20
128.6187563847
 10
96.1507847657
 20
128.6036878124
 10
96.1450143936
 20
128.5884391968
 10
96.1397458642
 20
128.5730100586
 10
96.134977556
 20
128.5574008772
 10
96.1307246201
 20
128.541661139
 10
96.1269921071
 20
128.5258073396
 10
96.1237749665
 20
128.5098229835
 10
96.1210731983
 20
128.4937080707
  0
LINE
  5
5E1
100
AcDbEntity
  8
0
100
AcDbLine
 62
253
  6
CONTINUOUS
 10
103.0551101367
 20
129.2573212691
 11
96.5899815952
 21
128.9184982395
  0
LINE
  5
5E2
100
AcDbEntity
  8
0
100
AcDbLine
 62
7
  6
CONTINUOUS
 10
103.0551101367
 20
129.7575501212
 11
96.5718730677
 21
129.4177780638
  0
LINE
  5
5E3
100
AcDbEntity
  8
RACCORDO
100
AcDbLine
 62
253
  6
CONTINUOUS
 10
101.8036557039
 20
129.8921776638
 11
103.0551101367
 21
129.9577636115
  0
LINE
  5
5E4
100
AcDbEntity
  8
0
100
AcDbLine
 62
253
  6
CONTINUOUS
 10
104.0551101367
 20
131.2018876885
 11
103.8065645696
 21
131.2018876885
  0
LINE
  5
5E5
100
AcDbEntity
  8
0
100
AcDbLine
 62
253
  6
CONTINUOUS
 10
100.5551101367
 20
131.2018876885
 11
100.8036557039
 21
131.2018876885
  0
LINE
  5
5E6
100
AcDbEntity
  8
0
100
AcDbLine
 62
253
  6
CONTINUOUS
 10
100.5551101367
 20
131.5944557733
 11
100.8036557039
 21
131.5944557733
  0
LINE
  5
5E7
100
AcDbEntity
  8
DRAFT
100
AcDbLine
 62
7
  6
CONTINUOUS
 10
114.0609278681
 20
129.6935201467
 11
104.0551101367
 21
129.7517322914
  0
LINE
  5
5E8
100
AcDbEntity
  8
0
100
AcDbLine
 62
7
  6
CONTINUOUS
 10
104.0551101367
 20
129.7517322914
 11
103.0551101367
 21
129.7575501212
  0
LINE
  5
5E9
100
AcDbEntity
  8
0
100
AcDbLine
 62
7
  6
CONTINUOUS
 10
110.5580190024
 20
131.3138994743
 11
104.0551101367
 21
131.3517322914
  0
LINE
  5
5EA
100
AcDbEntity
  8
0
100
AcDbLine
 62
253
  6
CONTINUOUS
 10
103.0551101367
 20
131.607554352
 11
103.8065645696
 21
131.603182518
  0
LINE
  5
5EB
100
AcDbEntity
  8
0
100
AcDbLine
 62
253
  6
CONTINUOUS
 10
100.8036557039
 20
131.5944557733
 11
103.0551101367
 21
131.607554352
  0
LINE
  5
5EC
100
AcDbEntity
  8
0
100
AcDbLine
 62
7
  6
CONTINUOUS
 10
100.8036557039
 20
131.8444515425
 11
103.0551101367
 21
131.8575501212
  0
LINE
  5
5ED
100
AcDbEntity
  8
0
100
AcDbLine
 62
253
  6
CONTINUOUS
 10
104.0551101367
 20
131.603182518
 11
103.8065645696
 21
131.603182518
  0
LINE
  5
5EE
100
AcDbEntity
  8
0
100
AcDbLine
 62
7
  6
CONTINUOUS
 10
103.0551101367
 20
131.8575501212
 11
103.8065645696
 21
131.8531782872
  0
CIRCLE
  5
5EF
100
AcDbEntity
  8
RACCORDO
100
AcDbCircle
 62
7
  6
CONTINUOUS
 10
156.721355547
 20
116.8575501212
 40
2.2
  0
CIRCLE
  5
5F0
100
AcDbEntity
  8
RACCORDO
100
AcDbCircle
 62
7
  6
CONTINUOUS
 10
156.721355547
 20
97.8575501212
 40
2.2
  0
CIRCLE
  5
5F1
100
AcDbEntity
  8
RACCORDO
100
AcDbCircle
 62
7
  6
CONTINUOUS
 10
156.721355547
 20
107.3575501212
 40
2.2
  0
ARC
  5
5F2
100
AcDbEntity
  8
CONTATTI
100
AcDbCircle
 62
7
  6
CONTINUOUS
 10
160.007690892
 20
108.0075501212
 40
1.75
100
AcDbArc
 50
220.9327245742
 51
227.5002764814
  0
ARC
  5
5F3
100
AcDbEntity
  8
CONTATTI
100
AcDbCircle
 62
7
  6
CONTINUOUS
 10
153.4350202019
 20
108.0075501212
 40
1.75
100
AcDbArc
 50
312.5012606169
 51
319.0672754258
  0
ARC
  5
5F4
100
AcDbEntity
  8
RACCORDO
100
AcDbCircle
 62
7
  6
CONTINUOUS
 10
153.971355547
 20
106.7575501212
 40
1.75
100
AcDbArc
 50
57.9549066334
 51
63.6829752681
  0
ARC
  5
5F5
100
AcDbEntity
  8
RACCORDO
100
AcDbCircle
 62
7
  6
CONTINUOUS
 10
153.971355547
 20
106.7575501212
 40
1.75
100
AcDbArc
 50
19.7087170924
 51
20.4147831112
  0
ARC
  5
5F6
100
AcDbEntity
  8
CONTATTI
100
AcDbCircle
 62
253
  6
CONTINUOUS
 10
155.0822777189
 20
108.3475501212
 40
1.55
100
AcDbArc
 50
257.1427755509
 51
270.0
  0
ARC
  5
5F7
100
AcDbEntity
  8
CONTATTI
100
AcDbCircle
 62
7
  6
CONTINUOUS
 10
154.7485251545
 20
96.6755937609
 40
1.0
100
AcDbArc
 50
319.3163817009
 51
320.5220811765
  0
ARC
  5
5F8
100
AcDbEntity
  8
CONTATTI
100
AcDbCircle
 62
7
  6
CONTINUOUS
 10
158.6941859395
 20
118.0395064815
 40
1.0
100
AcDbArc
 50
139.3164145337
 51
143.8075175163
  0
ARC
  5
5F9
100
AcDbEntity
  8
CONTATTI
100
AcDbCircle
 62
253
  6
CONTINUOUS
 10
154.7485251545
 20
96.6755937609
 40
0.7894399988
100
AcDbArc
 50
318.137030188
 51
336.9554597372
  0
ARC
  5
5FA
100
AcDbEntity
  8
CONTATTI
100
AcDbCircle
 62
253
  6
CONTINUOUS
 10
158.6941859395
 20
118.0395064815
 40
0.7894399988
100
AcDbArc
 50
138.136840054
 51
163.3947590752
  0
ARC
  5
5FB
100
AcDbEntity
  8
CONTATTI
100
AcDbCircle
 62
7
  6
CONTINUOUS
 10
154.7485251545
 20
96.6755937609
 40
0.6874968186
100
AcDbArc
 50
317.9207373543
 51
357.3699097094
  0
ARC
  5
5FC
100
AcDbEntity
  8
CONTATTI
100
AcDbCircle
 62
7
  6
CONTINUOUS
 10
154.7485251545
 20
96.6755937609
 40
0.6874968186
100
AcDbArc
 50
18.496266367
 51
28.5581503313
  0
ARC
  5
5FD
100
AcDbEntity
  8
CONTATTI
100
AcDbCircle
 62
7
  6
CONTINUOUS
 10
158.6941859395
 20
118.0395064815
 40
0.6874968186
100
AcDbArc
 50
137.9205196496
 51
208.5581503313
  0
ARC
  5
5FE
100
AcDbEntity
  8
0
100
AcDbCircle
 62
7
  6
CONTINUOUS
 10
160.721355547
 20
84.2075501212
 40
0.5
100
AcDbArc
 50
334.1580672368
 51
25.8419327632
  0
ARC
  5
5FF
100
AcDbEntity
  8
0
100
AcDbCircle
 62
7
  6
CONTINUOUS
 10
152.721355547
 20
84.2075501212
 40
0.5
100
AcDbArc
 50
154.1580672368
 51
205.8419327632
  0
ARC
  5
600
100
AcDbEntity
  8
0
100
AcDbCircle
 62
7
  6
CONTINUOUS
 10
152.721355547
 20
130.5075501212
 40
0.5
100
AcDbArc
 50
154.1580672368
 51
205.8419327632
  0
ARC
  5
601
100
AcDbEntity
  8
0
100
AcDbCircle
 62
7
  6
CONTINUOUS
 10
160.721355547
 20
130.5075501212
 40
0.5
100
AcDbArc
 50
334.1580672368
 51
25.8419327632
  0
ARC
  5
602
100
AcDbEntity
  8
CONTATTI
100
AcDbCircle
 62
7
  6
CONTINUOUS
 10
154.7485251545
 20
96.6755937609
 40
0.304474597
100
AcDbArc
 50
323.7639691203
 51
28.5581503313
  0
ARC
  5
603
100
AcDbEntity
  8
CONTATTI
100
AcDbCircle
 62
7
  6
CONTINUOUS
 10
158.6941859395
 20
118.0395064815
 40
0.304474597
100
AcDbArc
 50
143.7655530849
 51
208.5581503313
  0
ARC
  5
604
100
AcDbEntity
  8
CONTATTI
100
AcDbCircle
 62
7
  6
CONTINUOUS
 10
155.021355547
 20
108.8475501212
 40
0.2
100
AcDbArc
 50
269.9999999353
 51
360.0
  0
ARC
  5
605
100
AcDbEntity
  8
0
100
AcDbCircle
 62
7
  6
CONTINUOUS
 10
100.8051101367
 20
83.1206444691
 40
0.25
100
AcDbArc
 50
180.0
 51
269.6666666667
  0
ARC
  5
606
100
AcDbEntity
  8
0
100
AcDbCircle
 62
7
  6
CONTINUOUS
 10
100.8051101367
 20
83.5132125539
 40
0.25
100
AcDbArc
 50
120.0
 51
180.0
  0
ARC
  5
607
100
AcDbEntity
  8
0
100
AcDbCircle
 62
7
  6
CONTINUOUS
 10
96.6242090239
 20
86.2959517133
 40
1.0
100
AcDbArc
 50
188.5758796048
 51
267.0
  0
ARC
  5
608
100
AcDbEntity
  8
RACCORDO
100
AcDbCircle
 62
7
  6
CONTINUOUS
 10
101.3551101367
 20
84.8463688768
 40
0.2
100
AcDbArc
 50
0.0
 51
87.0
  0
ARC
  5
609
100
AcDbEntity
  8
0
100
AcDbCircle
 62
7
  6
CONTINUOUS
 10
110.5551101367
 20
83.9011923065
 40
0.5
100
AcDbArc
 50
270.3333333333
 51
360.0
  0
ARC
  5
60A
100
AcDbEntity
  8
0
100
AcDbCircle
 62
7
  6
CONTINUOUS
 10
103.8051101367
 20
83.1119177244
 40
0.25
100
AcDbArc
 50
270.3333333333
 51
360.0
  0
ARC
  5
60B
100
AcDbEntity
  8
0
100
AcDbCircle
 62
7
  6
CONTINUOUS
 10
103.8051101367
 20
83.5132125539
 40
0.25
100
AcDbArc
 50
0.0
 51
60.0
  0
ARC
  5
60C
100
AcDbEntity
  8
DRAFT
100
AcDbCircle
 62
7
  6
CONTINUOUS
 10
114.0551101367
 20
86.0215631725
 40
1.0
100
AcDbArc
 50
270.3333333333
 51
360.0
  0
ARC
  5
60D
100
AcDbEntity
  8
RACCORDO
100
AcDbCircle
 62
7
  6
CONTINUOUS
 10
114.7551101367
 20
87.2641612123
 40
0.3
100
AcDbArc
 50
0.0
 51
89.5
  0
ARC
  5
60E
100
AcDbEntity
  8
RACCORDO
100
AcDbCircle
 62
7
  6
CONTINUOUS
 10
116.0551101367
 20
89.510320709
 40
1.0
100
AcDbArc
 50
271.0
 51
360.0
  0
ARC
  5
60F
100
AcDbEntity
  8
RACCORDO
100
AcDbCircle
 62
7
  6
CONTINUOUS
 10
125.7551101367
 20
89.6796348388
 40
1.0
100
AcDbArc
 50
271.0
 51
360.0
  0
ARC
  5
610
100
AcDbEntity
  8
RACCORDO
100
AcDbCircle
 62
7
  6
CONTINUOUS
 10
127.0551101367
 20
92.482650769
 40
0.3
100
AcDbArc
 50
95.0
 51
180.0
  0
ARC
  5
611
100
AcDbEntity
  8
RACCORDO
100
AcDbCircle
 62
7
  6
CONTINUOUS
 10
128.7551101367
 20
93.2336733995
 40
0.3
100
AcDbArc
 50
275.0
 51
360.0
  0
ARC
  5
612
100
AcDbEntity
  8
ASSI
100
AcDbCircle
 62
7
  6
CONTINUOUS
 10
118.3551101367
 20
96.3575501212
 40
1.5
100
AcDbArc
 50
148.1019422019
 51
211.8980577981
  0
ARC
  5
613
100
AcDbEntity
  8
RACCORDO
100
AcDbCircle
 62
7
  6
CONTINUOUS
 10
127.7051101367
 20
103.0575501212
 40
1.35
100
AcDbArc
 50
280.0
 51
80.0
  0
ARC
  5
614
100
AcDbEntity
  8
RACCORDO
100
AcDbCircle
 62
7
  6
CONTINUOUS
 10
125.7551101367
 20
101.8402473843
 40
1.0
100
AcDbArc
 50
271.0
 51
340.1897435553
  0
ARC
  5
615
100
AcDbEntity
  8
RACCORDO
100
AcDbCircle
 62
7
  6
CONTINUOUS
 10
117.5551101367
 20
100.1968873598
 40
0.5
100
AcDbArc
 50
91.0
 51
180.0
  0
ARC
  5
616
100
AcDbEntity
  8
RACCORDO
100
AcDbCircle
 62
7
  6
CONTINUOUS
 10
127.0551101367
 20
99.2324494734
 40
0.3
100
AcDbArc
 50
180.0
 51
265.0
  0
ARC
  5
617
100
AcDbEntity
  8
RACCORDO
100
AcDbCircle
 62
7
  6
CONTINUOUS
 10
128.7551101367
 20
104.1336733995
 40
0.3
100
AcDbArc
 50
279.7923107798
 51
360.0
  0
ARC
  5
618
100
AcDbEntity
  8
RACCORDO
100
AcDbCircle
 62
7
  6
CONTINUOUS
 10
128.7551101367
 20
98.4814268429
 40
0.3
100
AcDbArc
 50
0.0
 51
85.0
  0
ARC
  5
619
100
AcDbEntity
  8
RACCORDO
100
AcDbCircle
 62
7
  6
CONTINUOUS
 10
184.6291218169
 20
99.5675501212
 40
90.0
100
AcDbArc
 50
181.08868532
 51
182.8243211652
  0
ARC
  5
61A
100
AcDbEntity
  8
0
100
AcDbCircle
 62
7
  6
CONTINUOUS
 10
184.6291218169
 20
99.5675501212
 40
90.0
100
AcDbArc
 50
181.08868532
 51
188.5758796048
  0
ARC
  5
61B
100
AcDbEntity
  8
RACCORDO
100
AcDbCircle
 62
7
  6
CONTINUOUS
 10
127.0551101367
 20
115.482650769
 40
0.3
100
AcDbArc
 50
95.0
 51
180.0
  0
ARC
  5
61C
100
AcDbEntity
  8
RACCORDO
100
AcDbCircle
 62
7
  6
CONTINUOUS
 10
127.0551101367
 20
110.1324494734
 40
0.3
100
AcDbArc
 50
180.0
 51
265.0
  0
ARC
  5
61D
100
AcDbEntity
  8
RACCORDO
100
AcDbCircle
 62
7
  6
CONTINUOUS
 10
128.7551101367
 20
116.2336733995
 40
0.3
100
AcDbArc
 50
275.0
 51
360.0
  0
ARC
  5
61E
100
AcDbEntity
  8
RACCORDO
100
AcDbCircle
 62
7
  6
CONTINUOUS
 10
128.7551101367
 20
109.3814268429
 40
0.3
100
AcDbArc
 50
0.0
 51
85.0
  0
ARC
  5
61F
100
AcDbEntity
  8
0
100
AcDbCircle
 62
7
  6
CONTINUOUS
 10
96.6242090239
 20
128.4191485291
 40
1.0
100
AcDbArc
 50
93.0
 51
171.4241203952
  0
ARC
  5
620
100
AcDbEntity
  8
DRAFT
100
AcDbCircle
 62
7
  6
CONTINUOUS
 10
114.0551101367
 20
128.6935370698
 40
1.0
100
AcDbArc
 50
0.0
 51
89.6666666667
  0
ARC
  5
621
100
AcDbEntity
  8
RACCORDO
100
AcDbCircle
 62
7
  6
CONTINUOUS
 10
125.7551101367
 20
125.0354654036
 40
1.0
100
AcDbArc
 50
0.0
 51
89.0
  0
ARC
  5
622
100
AcDbEntity
  8
0
100
AcDbCircle
 62
7
  6
CONTINUOUS
 10
110.5551101367
 20
130.8139079359
 40
0.5
100
AcDbArc
 50
0.0
 51
89.6666666667
  0
ARC
  5
623
100
AcDbEntity
  8
RACCORDO
100
AcDbCircle
 62
7
  6
CONTINUOUS
 10
114.7551101367
 20
127.4509390301
 40
0.3
100
AcDbArc
 50
270.5
 51
360.0
  0
ARC
  5
624
100
AcDbEntity
  8
RACCORDO
100
AcDbCircle
 62
7
  6
CONTINUOUS
 10
127.0551101367
 20
122.2324494734
 40
0.3
100
AcDbArc
 50
180.0
 51
265.0
  0
ARC
  5
625
100
AcDbEntity
  8
RACCORDO
100
AcDbCircle
 62
7
  6
CONTINUOUS
 10
128.7551101367
 20
121.4814268429
 40
0.3
100
AcDbArc
 50
0.0
 51
85.0
  0
ARC
  5
626
100
AcDbEntity
  8
0
100
AcDbCircle
 62
7
  6
CONTINUOUS
 10
103.8051101367
 20
131.603182518
 40
0.25
100
AcDbArc
 50
0.0
 51
89.6666666667
  0
ARC
  5
627
100
AcDbEntity
  8
0
100
AcDbCircle
 62
7
  6
CONTINUOUS
 10
100.8051101367
 20
131.5944557733
 40
0.25
100
AcDbArc
 50
90.3333333333
 51
180.0
  0
ARC
  5
628
100
AcDbEntity
  8
0
100
AcDbCircle
 62
7
  6
CONTINUOUS
 10
103.8051101367
 20
131.2018876885
 40
0.25
100
AcDbArc
 50
300.0
 51
360.0
  0
ARC
  5
629
100
AcDbEntity
  8
0
100
AcDbCircle
 62
7
  6
CONTINUOUS
 10
100.8051101367
 20
131.2018876885
 40
0.25
100
AcDbArc
 50
180.0
 51
240.0
  0
ARC
  5
62A
100
AcDbEntity
  8
RACCORDO
100
AcDbCircle
 62
7
  6
CONTINUOUS
 10
101.3551101367
 20
129.8687313656
 40
0.2
100
AcDbArc
 50
273.0
 51
0.0000121722
  0
ARC
  5
62B
100
AcDbEntity
  8
RACCORDO
100
AcDbCircle
 62
7
  6
CONTINUOUS
 10
184.6291218169
 20
115.1475501212
 40
90.0
100
AcDbArc
 50
177.1756788348
 51
178.91131468
  0
ARC
  5
62C
100
AcDbEntity
  8
0
100
AcDbCircle
 62
7
  6
CONTINUOUS
 10
184.6291218169
 20
115.1475501212
 40
90.0
100
AcDbArc
 50
171.4241203952
 51
178.91131468
  0
ARC
  5
62D
100
AcDbEntity
  8
0
100
AcDbCircle
 62
7
  6
CONTINUOUS
 10
594.5551101367
 20
107.3575501212
 40
500.0
100
AcDbArc
 50
178.91131468
 51
181.08868532
  0
ELLIPSE
  5
62E
100
AcDbEntity
  8
DRAFT
100
AcDbEllipse
 62
7
  6
CONTINUOUS
 10
161.2571133749
 20
116.0916273481
 30
0.0
 11
2.1810870578
 21
2.3748326203
 31
0.0
 40
0.9513282595
 41
2.1393078491
 42
2.5665031479
  0
ELLIPSE
  5
62F
100
AcDbEntity
  8
DRAFT
100
AcDbEllipse
 62
7
  6
CONTINUOUS
 10
152.185597719
 20
98.6252039481
 30
0.0
 11
2.4728372058
 21
-2.0373528413
 31
0.0
 40
0.9500385019
 41
0.4648347806
 42
0.9738170462
  0
ELLIPSE
  5
630
100
AcDbEntity
  8
RACCORDO
100
AcDbEllipse
 62
7
  6
CONTINUOUS
 10
156.0977120483
 20
109.1839066225
 30
0.0
 11
0.0931984636
 21
0.0390813411
 31
0.0
 40
0.9877345005
 41
-0.3926800436
 42
0.3926800436
  0
ELLIPSE
  5
631
100
AcDbEntity
  8
RACCORDO
100
AcDbEllipse
 62
7
  6
CONTINUOUS
 10
156.0977120483
 20
109.1839066225
 30
0.0
 11
0.0390813411
 21
0.0931984636
 31
0.0
 40
0.9877345005
 41
-0.3926800436
 42
0.3926800436
  0
ELLIPSE
  5
632
100
AcDbEntity
  8
RACCORDO
100
AcDbEllipse
 62
7
  6
CONTINUOUS
 10
155.8994650375
 20
109.3856596117
 30
0.0
 11
0.0931984636
 21
0.0390813411
 31
0.0
 40
0.9877345005
 41
3.0394066068
 42
3.5342726972
  0
ELLIPSE
  5
633
100
AcDbEntity
  8
RACCORDO
100
AcDbEllipse
 62
7
  6
CONTINUOUS
 10
155.8994650375
 20
109.3856596117
 30
0.0
 11
0.0390813411
 21
0.0931984636
 31
0.0
 40
0.9877345005
 41
-3.5342726972
 42
-2.74891261
  0
ELLIPSE
  5
634
100
AcDbEntity
  8
RACCORDO
100
AcDbEllipse
 62
7
  6
CONTINUOUS
 10
156.9716145795
 20
106.7572910886
 30
0.0
 11
0.0707126167
 21
-0.0707126167
 31
0.0
 40
0.9999725851
 41
2.3562081979
 42
3.9269771093
  0
ELLIPSE
  5
635
100
AcDbEntity
  8
RACCORDO
100
AcDbEllipse
 62
7
  6
CONTINUOUS
 10
163.7713521623
 20
84.757275652
 30
0.0
 11
0.0220972656
 21
0.1990550872
 31
0.0
 40
0.9986126811
 41
4.8230994598
 42
6.3935913078
  0
ELLIPSE
  5
636
100
AcDbEntity
  8
RACCORDO
100
AcDbEllipse
 62
7
  6
CONTINUOUS
 10
167.0713589317
 20
84.757275652
 30
0.0
 11
0.0220972656
 21
-0.1990550872
 31
0.0
 40
0.9986126811
 41
9.3143719601
 42
10.8848638081
  0
ELLIPSE
  5
637
100
AcDbEntity
  8
RACCORDO
100
AcDbEllipse
 62
7
  6
CONTINUOUS
 10
146.3713521623
 20
84.757275652
 30
0.0
 11
0.0220972656
 21
0.1990550872
 31
0.0
 40
0.9986126811
 41
4.8230994598
 42
6.3935913078
  0
ELLIPSE
  5
638
100
AcDbEntity
  8
RACCORDO
100
AcDbEllipse
 62
7
  6
CONTINUOUS
 10
149.6713589317
 20
84.757275652
 30
0.0
 11
0.0220972656
 21
-0.1990550872
 31
0.0
 40
0.9986126811
 41
9.3143719601
 42
10.8848638081
  0
ELLIPSE
  5
639
100
AcDbEntity
  8
RACCORDO
100
AcDbEllipse
 62
7
  6
CONTINUOUS
 10
167.0713589317
 20
129.9578245904
 30
0.0
 11
-0.0220972656
 21
-0.1990550872
 31
0.0
 40
0.9986126811
 41
4.8230994598
 42
6.3935913078
  0
ELLIPSE
  5
63A
100
AcDbEntity
  8
RACCORDO
100
AcDbEllipse
 62
7
  6
CONTINUOUS
 10
163.7713521623
 20
129.9578245904
 30
0.0
 11
-0.0220972656
 21
0.1990550872
 31
0.0
 40
0.9986126811
 41
9.3143719601
 42
10.8848638081
  0
ELLIPSE
  5
63B
100
AcDbEntity
  8
RACCORDO
100
AcDbEllipse
 62
7
  6
CONTINUOUS
 10
149.6713589317
 20
129.9578245904
 30
0.0
 11
-0.0220972656
 21
-0.1990550872
 31
0.0
 40
0.9986126811
 41
4.8230994598
 42
6.3935913078
  0
ELLIPSE
  5
63C
100
AcDbEntity
  8
RACCORDO
100
AcDbEllipse
 62
7
  6
CONTINUOUS
 10
146.3713521623
 20
129.9578245904
 30
0.0
 11
-0.0220972656
 21
0.1990550872
 31
0.0
 40
0.9986126811
 41
9.3143719601
 42
10.8848638081
  0
ELLIPSE
  5
63D
100
AcDbEntity
  8
0
100
AcDbEllipse
 62
7
  6
CONTINUOUS
 10
157.921355547
 20
129.7418277874
 30
0.0
 11
0.2
 21
-0.0
 31
0.0
 40
0.0524077793
 41
3.1415926536
 42
4.7123889804
  0
ELLIPSE
  5
63E
100
AcDbEntity
  8
0
100
AcDbEllipse
 62
7
  6
CONTINUOUS
 10
155.521355547
 20
129.7418277874
 30
0.0
 11
0.2
 21
0.0
 31
0.0
 40
0.0524077793
 41
-1.5707963268
 42
-0.0
  0
ELLIPSE
  5
63F
100
AcDbEntity
  8
0
100
AcDbEllipse
 62
7
  6
CONTINUOUS
 10
157.921355547
 20
84.973272455
 30
0.0
 11
0.2
 21
-0.0
 31
0.0
 40
0.0524077793
 41
1.5707963268
 42
3.1415926536
  0
ELLIPSE
  5
640
100
AcDbEntity
  8
0
100
AcDbEllipse
 62
7
  6
CONTINUOUS
 10
155.521355547
 20
84.973272455
 30
0.0
 11
0.2
 21
0.0
 31
0.0
 40
0.0524077793
 41
-0.0
 42
1.5707963268
  0
ELLIPSE
  5
641
100
AcDbEntity
  8
CONTATTI
100
AcDbEllipse
 62
7
  6
CONTINUOUS
 10
155.481355547
 20
107.3575501212
 30
0.0
 11
0.01
 21
-0.0
 31
0.0
 40
1.0
 41
1.5707963268
 42
3.1415926536
  0
ELLIPSE
  5
642
100
AcDbEntity
  8
0
100
AcDbEllipse
 62
7
  6
CONTINUOUS
 10
180.4035398128
 20
84.2075501212
 30
0.0
 11
85.9426996401
 21
-0.0
 31
0.0
 40
0.0058178298
 41
2.5196231925
 42
2.6905658418
  0
ELLIPSE
  5
643
100
AcDbEntity
  8
0
100
AcDbEllipse
 62
7
  6
CONTINUOUS
 10
180.4035398128
 20
84.2075501212
 30
0.0
 11
85.9426996401
 21
-0.0
 31
0.0
 40
0.0058178298
 41
-2.6791261215
 42
-2.5196231925
  0
ELLIPSE
  5
644
100
AcDbEntity
  8
DRAFT
100
AcDbEllipse
 62
7
  6
CONTINUOUS
 10
114.5551101367
 20
129.3113170917
 30
0.0
 11
-0.3546425507
 21
0.3568377408
 31
0.0
 40
0.9877342685
 41
-3.912622899
 42
-2.8852845239
  0
ELLIPSE
  5
645
100
AcDbEntity
  8
DRAFT
100
AcDbEllipse
 62
7
  6
CONTINUOUS
 10
114.5551101367
 20
85.4037831507
 30
0.0
 11
0.3546425507
 21
0.3568377408
 31
0.0
 40
0.9877342685
 41
-0.2563081296
 42
0.7710302454
  0
ELLIPSE
  5
646
100
AcDbEntity
  8
0
100
AcDbEllipse
 62
7
  6
CONTINUOUS
 10
180.4035398128
 20
130.5075501212
 30
0.0
 11
85.9426996401
 21
-0.0
 31
0.0
 40
0.0058178298
 41
2.5196231925
 42
2.6791261215
  0
ELLIPSE
  5
647
100
AcDbEntity
  8
0
100
AcDbEllipse
 62
7
  6
CONTINUOUS
 10
180.4035398128
 20
130.5075501212
 30
0.0
 11
85.9426996401
 21
-0.0
 31
0.0
 40
0.0058178298
 41
-2.6905658418
 42
-2.5196231925
  0
ELLIPSE
  5
648
100
AcDbEntity
  8
RACCORDO
100
AcDbEllipse
 62
7
  6
CONTINUOUS
 10
182.8537986353
 20
101.8367563713
 30
0.0
 11
57.2986884985
 21
0.0003047257
 31
0.0
 40
0.0174550641
 41
3.1415925608
 42
3.2279386841
  0
ENDSEC
  0
SECTION
  2
OBJECTS
  0
DICTIONARY
  5
C
100
AcDbDictionary
280
0
281
1
  3
ACAD_GROUP
350
D
  3
ACAD_MLINESTYLE
350
17
  3
ACAD_LAYOUT
350
1A
  3
ACAD_PLOTSETTINGS
350
19
  3
ACAD_PLOTSTYLENAME
350
E
  0
DICTIONARY
  5
D
102
{ACAD_REACTORS
330
C
102
}
100
AcDbDictionary
280
0
281
1
  0
ACDBDICTIONARYWDFLT
  5
E
102
{ACAD_REACTORS
330
C
102
}
100
AcDbDictionary
281
1
  3
Normal
350
F
100
AcDbDictionaryWithDefault
340
F
  0
DICTIONARY
  5
17
102
{ACAD_REACTORS
330
C
102
}
100
AcDbDictionary
280
0
281
1
  3
Standard
350
18
  0
DICTIONARY
  5
19
102
{ACAD_REACTORS
330
C
102
}
100
AcDbDictionary
281
1
  0
DICTIONARY
  5
1A
102
{ACAD_REACTORS
330
C
102
}
100
AcDbDictionary
281
1
  3
Model
350
649
  3
Layout1
350
64A
  0
ACDBPLACEHOLDER
  5
F
102
{ACAD_REACTORS
330
E
102
}
  0
MLINESTYLE
  5
18
102
{ACAD_REACTORS
330
17
102
}
100
AcDbMlineStyle
  2
STANDARD
 70
0
  3

 62
256
 51
90.0
 52
90.0
 71
2
 49
0.5
 62
256
  6
BYLAYER
 49
-0.5
 62
256
  6
BYLAYER
  0
LAYOUT
  5
649
102
{ACAD_REACTORS
330
1A
102
}
100
AcDbPlotSettings
  1

  2
none_device
  4
ISO_A4_(297.00_x_210.00_MM)
  6

 40
0.0
 41
0.0
 42
0.0
 43
0.0
 44
297.0
 45
210.0
 46
0.0
 47
0.0
 48
0.0
 49
0.0
140
0.0
141
0.0
142
1.0
143
1.0
 70
1024
 72
1
 73
0
 74
0
  7

 75
0
147
1.0
148
0.0
149
0.0
100
AcDbLayout
  1
Model
 70
0
 71
0
 10
0.0
 20
0.0
 11
297.0
 21
210.0
 12
0.0
 22
0.0
 32
0.0
 14
0.0
 24
0.0
 34
0.0
 15
0.0
 25
0.0
 35
0.0
146
0.0
 13
0.0
 23
0.0
 33
0.0
 16
1.0
 26
0.0
 36
0.0
 17
0.0
 27
1.0
 37
0.0
 76
0
330
21C
345
0
346
0
  0
LAYOUT
  5
64A
102
{ACAD_REACTORS
330
1A
102
}
100
AcDbPlotSettings
  1

  2
none_device
  4
ISO_A4_(297.00_x_210.00_MM)
  6

 40
0.0
 41
0.0
 42
0.0
 43
0.0
 44
297.0
 45
210.0
 46
0.0
 47
0.0
 48
0.0
 49
0.0
140
0.0
141
0.0
142
1.0
143
1.0
 70
0
 72
1
 73
0
 74
0
  7

 75
0
147
1.0
148
0.0
149
0.0
100
AcDbLayout
  1
Layout1
 70
0
 71
1
 10
0.0
 20
0.0
 11
297.0
 21
210.0
 12
0.0
 22
0.0
 32
0.0
 14
0.0
 24
0.0
 34
0.0
 15
0.0
 25
0.0
 35
0.0
146
0.0
 13
0.0
 23
0.0
 33
0.0
 16
1.0
 26
0.0
 36
0.0
 17
0.0
 27
1.0
 37
0.0
 76
0
330
21D
345
0
346
0
  0
ENDSEC
  0
EOF
