  0
SECTION
  2
HEADER
  9
$ACADVER
  1
AC1021
  9
$DWGCODEPAGE
  3
ANSI_1252
  9
$EXTMAX
 10
297.0
 20
210.0
 30
0.0
  9
$EXTMIN
 10
0.0
 20
0.0
 30
0.0
  9
$LIMMIN
 10
0.0
 20
0.0
  9
$LIMMAX
 10
297.0
 20
210.0
  9
$VIEWCTR
 10
148.5
 20
105.0
  9
$VIEWSIZE
 40
210.0
  9
$CLAYER
  8
0
  9
$LTSCALE
 40
16.335
  9
$CELTYPE
  6
BYLAYER
  9
$DIMSCALE
 40
1.0
  9
$DIMASZ
 40
3.0
  9
$DIMEXO
 40
0.5
  9
$DIMDLI
 40
11.286
  9
$DIMEXE
 40
1.5
  9
$DIMCEN
 40
2.673
  9
$DIMLFAC
 40
1.0
  9
$DIMBLK
  1
_FILLED
  9
$DIMALT
 70
0
  9
$DIMALTF
 40
25.4
  9
$DIMTXT
 40
3.0
  9
$DIMTOL
 70
1
  9
$DIMLIM
 70
0
  9
$DIMTFAC
 40
1.0
  9
$DIMTP
 40
0.01
  9
$DIMTM
 40
0.01
  9
$DIMGAP
 40
0.625
  9
$DIMDSEP
 70
44
  9
$AUNITS
 70
0
  9
$PDMODE
 70
3
  9
$PDSIZE
 40
3.0
  9
$HANDSEED
  5
635
  9
$TILEMODE
 70
1
  9
$MEASUREMENT
 70
1
  9
$INSUNITS
 70
4
  0
ENDSEC
  0
SECTION
  2
CLASSES
  0
CLASS
  1
ACDBDICTIONARYWDFLT
  2
AcDbDictionaryWithDefault
  3
AutoCAD 2000
 90
0
 91
1
280
0
281
0
  0
CLASS
  1
ACDBPLACEHOLDER
  2
AcDbPlaceHolder
  3
AutoCAD 2000
 90
0
 91
1
280
0
281
0
  0
CLASS
  1
LAYOUT
  2
AcDbLayout
  3
AutoCAD 2000
 90
0
 91
0
280
0
281
0
  0
ENDSEC
  0
SECTION
  2
TABLES
  0
TABLE
  2
VPORT
  5
8
100
AcDbSymbolTable
 70
2
  0
VPORT
  5
1F4
100
AcDbSymbolTableRecord
100
AcDbViewportTableRecord
  2
*ACTIVE
 70
0
 10
0.0
 20
0.0
 11
1.0
 21
1.0
 12
148.5
 22
105.0
 13
0.0
 23
0.0
 14
1.0
 24
1.0
 15
0.0
 25
0.0
 16
0.0
 26
0.0
 36
1.0
 17
0.0
 27
0.0
 37
0.0
 40
210.0
 41
1.4142857143
 42
50.0
 43
0.0
 44
0.0
 50
0.0
 51
0.0
 71
0
 72
100
 73
1
 74
1
 75
0
 76
0
 77
0
 78
0
  0
ENDTAB
  0
TABLE
  2
LTYPE
  5
5
100
AcDbSymbolTable
 70
6
  0
LTYPE
  5
14
100
AcDbSymbolTableRecord
100
AcDbLinetypeTableRecord
  2
BYBLOCK
 70
0
  3

 72
65
 73
0
 40
0.0
  0
LTYPE
  5
15
100
AcDbSymbolTableRecord
100
AcDbLinetypeTableRecord
  2
BYLAYER
 70
0
  3

 72
65
 73
0
 40
0.0
  0
LTYPE
  5
16
100
AcDbSymbolTableRecord
100
AcDbLinetypeTableRecord
  2
CONTINUOUS
 70
64
  3
Solid line
 72
65
 73
0
 40
0.0
  0
LTYPE
  5
1F5
100
AcDbSymbolTableRecord
100
AcDbLinetypeTableRecord
  2
CENTER
 70
64
  3
____ _ ____ _ ____ _ ____ _ ____ _ ____ _ ____
 72
65
 73
4
 40
0.6
 49
0.375
 74
0
 49
-0.075
 74
0
 49
0.075
 74
0
 49
-0.075
 74
0
  0
LTYPE
  5
1F6
100
AcDbSymbolTableRecord
100
AcDbLinetypeTableRecord
  2
HIDDEN
 70
64
  3
- - - - - - - - - - - - - - - - - - - -
 72
65
 73
2
 40
0.2
 49
0.1
 74
0
 49
-0.1
 74
0
  0
LTYPE
  5
1F7
100
AcDbSymbolTableRecord
100
AcDbLinetypeTableRecord
  2
PHANTOM
 70
64
  3
_____ _ _ _____ _ _ _____ _ _ _____
 72
65
 73
6
 40
0.8
 49
0.45
 74
0
 49
-0.05
 74
0
 49
0.1
 74
0
 49
-0.05
 74
0
 49
0.1
 74
0
 49
-0.05
 74
0
  0
LTYPE
  5
1F8
100
AcDbSymbolTableRecord
100
AcDbLinetypeTableRecord
  2
DOT
 70
64
  3
. . . . . . . . . . . . . . . . . . . .
 72
65
 73
2
 40
0.2
 49
0.1
 74
0
 49
-0.1
 74
0
  0
LTYPE
  5
1F9
100
AcDbSymbolTableRecord
100
AcDbLinetypeTableRecord
  2
DASHED
 70
64
  3
- - - - - - - - - - - - - - - - - - - -
 72
65
 73
2
 40
0.2
 49
0.1
 74
0
 49
-0.1
 74
0
  0
ENDTAB
  0
TABLE
  2
LAYER
  5
2
100
AcDbSymbolTable
 70
36
  0
LAYER
  5
10
100
AcDbSymbolTableRecord
100
AcDbLayerTableRecord
  2
0
 70
0
 62
7
  6
CONTINUOUS
370
-3
390
F
  0
LAYER
  5
1FA
100
AcDbSymbolTableRecord
100
AcDbLayerTableRecord
  2
DEFAULT_1
 70
0
 62
7
  6
CENTER
370
-3
390
F
  0
LAYER
  5
1FB
100
AcDbSymbolTableRecord
100
AcDbLayerTableRecord
  2
DEFAULT_2
 70
0
 62
7
  6
HIDDEN
370
-3
390
F
  0
LAYER
  5
1FC
100
AcDbSymbolTableRecord
100
AcDbLayerTableRecord
  2
DEFAULT_3
 70
0
 62
7
  6
PHANTOM
370
-3
390
F
  0
LAYER
  5
1FD
100
AcDbSymbolTableRecord
100
AcDbLayerTableRecord
  2
ASSI
 70
0
 62
7
  6
CONTINUOUS
370
-3
390
F
  0
LAYER
  5
1FE
100
AcDbSymbolTableRecord
100
AcDbLayerTableRecord
  2
COLOR5
 70
0
 62
7
  6
CONTINUOUS
370
-3
390
F
  0
LAYER
  5
1FF
100
AcDbSymbolTableRecord
100
AcDbLayerTableRecord
  2
COORDINATE
 70
0
 62
7
  6
CONTINUOUS
370
-3
390
F
  0
LAYER
  5
200
100
AcDbSymbolTableRecord
100
AcDbLayerTableRecord
  2
COORD_ORIGINE
 70
0
 62
7
  6
CONTINUOUS
370
-3
390
F
  0
LAYER
  5
201
100
AcDbSymbolTableRecord
100
AcDbLayerTableRecord
  2
COPY_PUBLISH
 70
0
 62
7
  6
CONTINUOUS
370
-3
390
F
  0
LAYER
  5
202
100
AcDbSymbolTableRecord
100
AcDbLayerTableRecord
  2
COSMETICI
 70
0
 62
7
  6
CONTINUOUS
370
-3
390
F
  0
LAYER
  5
203
100
AcDbSymbolTableRecord
100
AcDbLayerTableRecord
  2
CURVE
 70
0
 62
7
  6
CONTINUOUS
370
-3
390
F
  0
LAYER
  5
204
100
AcDbSymbolTableRecord
100
AcDbLayerTableRecord
  2
DRAFT
 70
0
 62
7
  6
CONTINUOUS
370
-3
390
F
  0
LAYER
  5
205
100
AcDbSymbolTableRecord
100
AcDbLayerTableRecord
  2
IMPORT_IGES
 70
0
 62
7
  6
CONTINUOUS
370
-3
390
F
  0
LAYER
  5
206
100
AcDbSymbolTableRecord
100
AcDbLayerTableRecord
  2
INTF_1
 70
0
 62
7
  6
CONTINUOUS
370
-3
390
F
  0
LAYER
  5
207
100
AcDbSymbolTableRecord
100
AcDbLayerTableRecord
  2
INTF_11
 70
0
 62
7
  6
CONTINUOUS
370
-3
390
F
  0
LAYER
  5
208
100
AcDbSymbolTableRecord
100
AcDbLayerTableRecord
  2
INTF_7
 70
0
 62
7
  6
CONTINUOUS
370
-3
390
F
  0
LAYER
  5
209
100
AcDbSymbolTableRecord
100
AcDbLayerTableRecord
  2
NOTE
 70
0
 62
7
  6
CONTINUOUS
370
-3
390
F
  0
LAYER
  5
20A
100
AcDbSymbolTableRecord
100
AcDbLayerTableRecord
  2
PIANI
 70
0
 62
7
  6
CONTINUOUS
370
-3
390
F
  0
LAYER
  5
20B
100
AcDbSymbolTableRecord
100
AcDbLayerTableRecord
  2
PIANI_ORIGINE
 70
0
 62
7
  6
CONTINUOUS
370
-3
390
F
  0
LAYER
  5
20C
100
AcDbSymbolTableRecord
100
AcDbLayerTableRecord
  2
PUNTI
 70
0
 62
7
  6
CONTINUOUS
370
-3
390
F
  0
LAYER
  5
20D
100
AcDbSymbolTableRecord
100
AcDbLayerTableRecord
  2
RACCORDO
 70
0
 62
7
  6
CONTINUOUS
370
-3
390
F
  0
LAYER
  5
20E
100
AcDbSymbolTableRecord
100
AcDbLayerTableRecord
  2
RGB__255__255__255__
 70
0
 62
7
  6
CONTINUOUS
370
-3
390
F
  0
LAYER
  5
20F
100
AcDbSymbolTableRecord
100
AcDbLayerTableRecord
  2
RGB____0____0____0__
 70
0
 62
7
  6
CONTINUOUS
370
-3
390
F
  0
LAYER
  5
210
100
AcDbSymbolTableRecord
100
AcDbLayerTableRecord
  2
SIMBOLI
 70
0
 62
7
  6
CONTINUOUS
370
-3
390
F
  0
LAYER
  5
211
100
AcDbSymbolTableRecord
100
AcDbLayerTableRecord
  2
SMUSSO
 70
0
 62
7
  6
CONTINUOUS
370
-3
390
F
  0
LAYER
  5
212
100
AcDbSymbolTableRecord
100
AcDbLayerTableRecord
  2
SNAPLINE
 70
0
 62
7
  6
CONTINUOUS
370
-3
390
F
  0
LAYER
  5
213
100
AcDbSymbolTableRecord
100
AcDbLayerTableRecord
  2
SUPERFICI
 70
0
 62
7
  6
CONTINUOUS
370
-3
390
F
  0
LAYER
  5
214
100
AcDbSymbolTableRecord
100
AcDbLayerTableRecord
  2
TRASH
 70
0
 62
7
  6
CONTINUOUS
370
-3
390
F
  0
ENDTAB
  0
TABLE
  2
STYLE
  5
3
100
AcDbSymbolTable
 70
1
  0
STYLE
  5
11
100
AcDbSymbolTableRecord
100
AcDbTextStyleTableRecord
  2
STANDARD
 70
0
 40
0.0
 41
0.8
 50
0.0
 71
0
 42
0.2
  3
txt
  4

  0
STYLE
  5
215
100
AcDbSymbolTableRecord
100
AcDbTextStyleTableRecord
  2
TEXTSTYLE_1
 70
0
 40
0.0
 41
0.8
 50
0.0
 71
0
 42
0.2
  3
gdt
  4

  0
ENDTAB
  0
TABLE
  2
VIEW
  5
6
100
AcDbSymbolTable
 70
0
  0
ENDTAB
  0
TABLE
  2
UCS
  5
7
100
AcDbSymbolTable
 70
0
  0
ENDTAB
  0
TABLE
  2
APPID
  5
9
100
AcDbSymbolTable
 70
1
  0
APPID
  5
216
100
AcDbSymbolTableRecord
100
AcDbRegAppTableRecord
  2
ACAD
 70
0
  0
ENDTAB
  0
TABLE
  2
BLOCK_RECORD
  5
1
100
AcDbSymbolTable
 70
0
  0
BLOCK_RECORD
  5
217
100
AcDbSymbolTableRecord
100
AcDbBlockTableRecord
  2
*Model_Space
  0
BLOCK_RECORD
  5
218
100
AcDbSymbolTableRecord
100
AcDbBlockTableRecord
  2
*Paper_Space
  0
BLOCK_RECORD
  5
219
100
AcDbSymbolTableRecord
100
AcDbBlockTableRecord
  2
_FILLED
  0
BLOCK_RECORD
  5
21A
100
AcDbSymbolTableRecord
100
AcDbBlockTableRecord
  2
*D0
  0
BLOCK_RECORD
  5
21B
100
AcDbSymbolTableRecord
100
AcDbBlockTableRecord
  2
*D1
  0
BLOCK_RECORD
  5
21C
100
AcDbSymbolTableRecord
100
AcDbBlockTableRecord
  2
*D2
  0
BLOCK_RECORD
  5
21D
100
AcDbSymbolTableRecord
100
AcDbBlockTableRecord
  2
*D3
  0
ENDTAB
  0
TABLE
  2
DIMSTYLE
  5
A
100
AcDbSymbolTable
 70
1
100
AcDbDimStyleTable
 71
0
  0
DIMSTYLE
105
21E
100
AcDbSymbolTableRecord
100
AcDbDimStyleTableRecord
  2
STANDARD
 70
0
  3

  4

 40
1.0
 41
3.0
 42
0.5
 43
0.38
 44
1.5
 45
0.0
 46
0.0
 47
0.01
 48
0.01
140
3.0
141
0.09
142
0.0
143
25.4
144
1.0
145
0.0
146
1.0
147
0.625
 71
1.0
 72
0.0
 73
0
 74
0
 75
0
 76
0
 77
1
 78
8
170
0
171
1
172
0
173
0
174
0
175
0
176
0
177
0
178
0
270
2
271
2
272
2
273
2
274
2
275
0
280
0
281
0
282
0
283
1
284
8
285
0
286
0
287
3
288
0
340
11
278
44
341
219
342
219
343
219
344
219
  0
DIMSTYLE
105
21F
100
AcDbSymbolTableRecord
100
AcDbDimStyleTableRecord
  2
DIMSTYLE_1
 70
0
  3

  4

 40
1.0
 41
3.0
 42
0.5
 43
0.38
 44
1.5
 45
0.0
 46
0.0
 47
0.0
 48
0.0
140
3.0
141
0.09
142
0.0
143
25.4
144
1.0
145
0.0
146
1.0
147
0.75
 71
0.0
 72
0.0
 73
0
 74
0
 75
0
 76
0
 77
1
 78
8
170
0
171
1
172
0
173
0
174
0
175
0
176
0
177
0
178
0
270
2
271
1
272
1
273
2
274
2
275
0
280
0
281
0
282
0
283
1
284
8
285
0
286
0
287
3
288
0
340
11
278
44
341
219
342
219
343
219
344
219
  0
DIMSTYLE
105
220
100
AcDbSymbolTableRecord
100
AcDbDimStyleTableRecord
  2
DIMSTYLE_2
 70
0
  3

  4

 40
1.0
 41
3.0
 42
0.5
 43
0.38
 44
1.5
 45
0.0
 46
0.0
 47
0.0
 48
0.0
140
3.0
141
0.09
142
0.0
143
25.4
144
1.0
145
0.0
146
1.0
147
0.75
 71
0.0
 72
0.0
 73
0
 74
0
 75
0
 76
0
 77
1
 78
8
170
0
171
1
172
0
173
0
174
0
175
0
176
0
177
0
178
0
270
2
271
2
272
2
273
2
274
2
275
0
280
0
281
0
282
0
283
1
284
8
285
0
286
0
287
3
288
0
340
11
278
44
341
219
342
219
343
219
344
219
  0
ENDTAB
  0
ENDSEC
  0
SECTION
  2
BLOCKS
  0
BLOCK
  5
20
100
AcDbEntity
  8
0
100
AcDbBlockBegin
  2
*Model_Space
 70
0
 10
0.0
 20
0.0
 30
0.0
  3
*Model_Space
  1

  0
ENDBLK
  5
21
100
AcDbEntity
  8
0
100
AcDbBlockEnd
  0
BLOCK
  5
1C
100
AcDbEntity
  8
0
100
AcDbBlockBegin
  2
*Paper_Space
 70
0
 10
0.0
 20
0.0
 30
0.0
  3
*Paper_Space
  1

  0
ENDBLK
  5
1D
100
AcDbEntity
  8
0
100
AcDbBlockEnd
  0
BLOCK
  5
221
100
AcDbEntity
  8
0
100
AcDbBlockBegin
  2
_FILLED
 70
64
 10
0.0
 20
0.0
  3
_FILLED
  1

  0
SOLID
  5
222
100
AcDbEntity
  8
0
  6
BYBLOCK
 62
0
100
AcDbTrace
 10
0.0
 20
0.0
 11
-1.0
 21
0.3166666667
 12
-1.0
 22
-0.3166666667
 13
-1.0
 23
-0.3166666667
  0
ENDBLK
  5
223
100
AcDbEntity
  8
0
  6
BYBLOCK
 62
0
100
AcDbBlockEnd
  0
BLOCK
  5
224
100
AcDbEntity
  8
0
100
AcDbBlockBegin
 62
7
  6
CONTINUOUS
  2
*D0
 70
65
 10
0.0
 20
0.0
  3
*D0
  1

  0
MTEXT
  5
225
100
AcDbEntity
  8
0
100
AcDbMText
 62
7
  6
CONTINUOUS
  7
STANDARD
 71
2
 72
1
 10
-0.0
 20
51.25
 30
0.0
 11
1.0
 21
0.0
 31
0.0
 44
0.9
  1
118
 40
3.0
 41
8.6785714286
  0
LINE
  5
226
100
AcDbEntity
  8
0
100
AcDbLine
 62
7
  6
CONTINUOUS
 10
-58.9807115393
 20
30.0
 11
-58.9807115393
 21
49.0
  0
LINE
  5
227
100
AcDbEntity
  8
0
100
AcDbLine
 62
7
  6
CONTINUOUS
 10
58.9807115393
 20
30.0
 11
58.9807115393
 21
49.0
  0
LINE
  5
228
100
AcDbEntity
  8
0
100
AcDbLine
 62
7
  6
CONTINUOUS
 10
-58.9807115393
 20
47.5
 11
-0.0
 21
47.5
  0
LINE
  5
229
100
AcDbEntity
  8
0
100
AcDbLine
 62
7
  6
CONTINUOUS
 10
58.9807115393
 20
47.5
 11
-0.0
 21
47.5
  0
INSERT
  5
22A
100
AcDbEntity
  8
0
100
AcDbBlockReference
 62
7
  6
CONTINUOUS
  2
_FILLED
 10
-58.9807115393
 20
47.5
 41
3.0
 42
3.0
 43
3.0
 50
180.0
  0
INSERT
  5
22B
100
AcDbEntity
  8
0
100
AcDbBlockReference
 62
7
  6
CONTINUOUS
  2
_FILLED
 10
58.9807115393
 20
47.5
 41
3.0
 42
3.0
 43
3.0
 50
0.0
  0
ENDBLK
  5
22C
100
AcDbEntity
  8
0
  6
BYBLOCK
 62
0
100
AcDbBlockEnd
  0
BLOCK
  5
22D
100
AcDbEntity
  8
0
100
AcDbBlockBegin
 62
7
  6
CONTINUOUS
  2
*D1
 70
65
 10
0.0
 20
0.0
  3
*D1
  1

  0
MTEXT
  5
22E
100
AcDbEntity
  8
0
100
AcDbMText
 62
7
  6
CONTINUOUS
  7
STANDARD
 71
2
 72
1
 10
63.25
 20
0.0
 30
0.0
 11
0.0
 21
1.0
 31
0.0
 44
0.9
  1
79
 40
3.0
 41
7.0714285714
  0
LINE
  5
22F
100
AcDbEntity
  8
0
100
AcDbLine
 62
7
  6
CONTINUOUS
 10
49.5
 20
39.4807115393
 11
68.5
 21
39.4807115393
  0
LINE
  5
230
100
AcDbEntity
  8
0
100
AcDbLine
 62
7
  6
CONTINUOUS
 10
49.5
 20
-39.4807115393
 11
68.5
 21
-39.4807115393
  0
LINE
  5
231
100
AcDbEntity
  8
0
100
AcDbLine
 62
7
  6
CONTINUOUS
 10
67.0
 20
39.4807115393
 11
67.0
 21
0.0
  0
LINE
  5
232
100
AcDbEntity
  8
0
100
AcDbLine
 62
7
  6
CONTINUOUS
 10
67.0
 20
-39.4807115393
 11
67.0
 21
0.0
  0
INSERT
  5
233
100
AcDbEntity
  8
0
100
AcDbBlockReference
 62
7
  6
CONTINUOUS
  2
_FILLED
 10
67.0
 20
39.4807115393
 41
3.0
 42
3.0
 43
3.0
 50
90.0
  0
INSERT
  5
234
100
AcDbEntity
  8
0
100
AcDbBlockReference
 62
7
  6
CONTINUOUS
  2
_FILLED
 10
67.0
 20
-39.4807115393
 41
3.0
 42
3.0
 43
3.0
 50
270.0
  0
ENDBLK
  5
235
100
AcDbEntity
  8
0
  6
BYBLOCK
 62
0
100
AcDbBlockEnd
  0
BLOCK
  5
236
100
AcDbEntity
  8
0
100
AcDbBlockBegin
 62
7
  6
CONTINUOUS
  2
*D2
 70
65
 10
0.0
 20
0.0
  3
*D2
  1

  0
MTEXT
  5
237
100
AcDbEntity
  8
0
100
AcDbMText
 62
7
  6
CONTINUOUS
  7
STANDARD
 71
1
 72
1
 10
-90.7300532417
 20
51.25
 30
0.0
 11
1.0
 21
0.0
 31
0.0
 44
0.9
  1
2
 40
3.0
 41
3.5357142857
  0
LINE
  5
238
100
AcDbEntity
  8
0
100
AcDbLine
 62
7
  6
CONTINUOUS
 10
-96.2366469638
 20
40.0
 11
-96.2366469638
 21
49.0
  0
LINE
  5
239
100
AcDbEntity
  8
0
100
AcDbLine
 62
7
  6
CONTINUOUS
 10
-98.2366469638
 20
38.4816252988
 11
-98.2366469638
 21
49.0
  0
LINE
  5
23A
100
AcDbEntity
  8
0
100
AcDbLine
 62
7
  6
CONTINUOUS
 10
-96.2366469638
 20
47.5
 11
-88.3729103845
 21
47.5
  0
LINE
  5
23B
100
AcDbEntity
  8
0
100
AcDbLine
 62
7
  6
CONTINUOUS
 10
-88.3729103845
 20
47.5
 11
-97.2366469638
 21
47.5
  0
LINE
  5
23C
100
AcDbEntity
  8
0
100
AcDbLine
 62
7
  6
CONTINUOUS
 10
-98.2366469638
 20
47.5
 11
-102.2366469638
 21
47.5
  0
LINE
  5
23D
100
AcDbEntity
  8
0
100
AcDbLine
 62
7
  6
CONTINUOUS
 10
-102.2366469638
 20
47.5
 11
-97.2366469638
 21
47.5
  0
INSERT
  5
23E
100
AcDbEntity
  8
0
100
AcDbBlockReference
 62
7
  6
CONTINUOUS
  2
_FILLED
 10
-96.2366469638
 20
47.5
 41
3.0
 42
3.0
 43
3.0
 50
180.0
  0
INSERT
  5
23F
100
AcDbEntity
  8
0
100
AcDbBlockReference
 62
7
  6
CONTINUOUS
  2
_FILLED
 10
-98.2366469638
 20
47.5
 41
3.0
 42
3.0
 43
3.0
  0
ENDBLK
  5
240
100
AcDbEntity
  8
0
  6
BYBLOCK
 62
0
100
AcDbBlockEnd
  0
BLOCK
  5
241
100
AcDbEntity
  8
0
100
AcDbBlockBegin
 62
7
  6
CONTINUOUS
  2
*D3
 70
65
 10
0.0
 20
0.0
  3
*D3
  1

  0
MTEXT
  5
242
100
AcDbEntity
  8
0
100
AcDbMText
 62
7
  6
CONTINUOUS
  7
STANDARD
 71
2
 72
1
 10
-91.4866469638
 20
59.25
 30
0.0
 11
1.0
 21
0.0
 31
0.0
 44
0.9
  1
13,5
 40
3.0
 41
11.5714285714
  0
LINE
  5
243
100
AcDbEntity
  8
0
100
AcDbLine
 62
7
  6
CONTINUOUS
 10
-84.7366469638
 20
8.8
 11
-84.7366469638
 21
57.0
  0
LINE
  5
244
100
AcDbEntity
  8
0
100
AcDbLine
 62
7
  6
CONTINUOUS
 10
-98.2366469638
 20
30.0
 11
-98.2366469638
 21
57.0
  0
LINE
  5
245
100
AcDbEntity
  8
0
100
AcDbLine
 62
7
  6
CONTINUOUS
 10
-84.7366469638
 20
55.5
 11
-91.4866469638
 21
55.5
  0
LINE
  5
246
100
AcDbEntity
  8
0
100
AcDbLine
 62
7
  6
CONTINUOUS
 10
-98.2366469638
 20
55.5
 11
-91.4866469638
 21
55.5
  0
INSERT
  5
247
100
AcDbEntity
  8
0
100
AcDbBlockReference
 62
7
  6
CONTINUOUS
  2
_FILLED
 10
-84.7366469638
 20
55.5
 41
3.0
 42
3.0
 43
3.0
  0
INSERT
  5
248
100
AcDbEntity
  8
0
100
AcDbBlockReference
 62
7
  6
CONTINUOUS
  2
_FILLED
 10
-98.2366469638
 20
55.5
 41
3.0
 42
3.0
 43
3.0
 50
180.0
  0
ENDBLK
  5
249
100
AcDbEntity
  8
0
  6
BYBLOCK
 62
0
100
AcDbBlockEnd
  0
ENDSEC
  0
SECTION
  2
ENTITIES
  0
DIMENSION
  5
24A
100
AcDbEntity
  8
0
100
AcDbDimension
 62
7
  6
CONTINUOUS
  2
*D0
 10
58.9807115393
 20
47.5
 11
-0.4285715189
 21
47.5
 70
160
 71
2
 42
117.9614230787
  3
DIMSTYLE_1
100
AcDbAlignedDimension
 13
-58.9807115393
 23
29.5
 14
58.9807115393
 24
29.5
100
AcDbRotatedDimension
  0
DIMENSION
  5
24B
100
AcDbEntity
  8
0
100
AcDbDimension
 62
7
  6
CONTINUOUS
  2
*D1
 10
67.0
 20
-39.4807115393
 11
67.0
 21
-0.4285713392
 70
160
 71
2
 42
78.9614230787
  3
DIMSTYLE_1
100
AcDbAlignedDimension
 13
49.0
 23
39.4807115393
 14
49.0
 24
-39.4807115393
 50
270.0
100
AcDbRotatedDimension
  0
DIMENSION
  5
24C
100
AcDbEntity
  8
0
100
AcDbDimension
 62
7
  6
CONTINUOUS
  2
*D2
 10
-98.2366469638
 20
47.5
 11
-89.9800555573
 21
47.5
 70
160
 71
1
 42
2.0
  3
DIMSTYLE_2
100
AcDbAlignedDimension
 13
-96.2366469638
 23
39.5
 14
-98.2366469638
 24
37.9816252988
 50
180.0
100
AcDbRotatedDimension
  0
DIMENSION
  5
24D
100
AcDbEntity
  8
0
100
AcDbDimension
 62
7
  6
CONTINUOUS
  2
*D3
 10
-98.2366469638
 20
55.5
 11
-91.9152188416
 21
55.5
 70
160
 71
2
 42
13.5
  3
DIMSTYLE_2
100
AcDbAlignedDimension
 13
-84.7366469638
 23
8.3
 14
-98.2366469638
 24
29.5
 50
180.0
100
AcDbRotatedDimension
  0
LINE
  5
24E
100
AcDbEntity
  8
DRAFT
100
AcDbLine
 62
7
  6
CONTINUOUS
 10
-59.0
 20
29.5
 11
-59.0
 21
-29.5
  0
LINE
  5
24F
100
AcDbEntity
  8
RACCORDO
100
AcDbLine
 62
253
  6
CONTINUOUS
 10
-58.9807115393
 20
29.5
 11
-58.9807115393
 21
-29.5
  0
LINE
  5
250
100
AcDbEntity
  8
RACCORDO
100
AcDbLine
 62
253
  6
CONTINUOUS
 10
-57.4816252988
 20
29.5
 11
-57.4816252988
 21
-29.5
  0
LINE
  5
251
100
AcDbEntity
  8
RACCORDO
100
AcDbLine
 62
253
  6
CONTINUOUS
 10
-49.0
 20
-37.9816252988
 11
-49.0
 21
-39.5
  0
LINE
  5
252
100
AcDbEntity
  8
RACCORDO
100
AcDbLine
 62
253
  6
CONTINUOUS
 10
-49.0
 20
37.9816252988
 11
-49.0
 21
39.5
  0
LINE
  5
253
100
AcDbEntity
  8
DRAFT
100
AcDbLine
 62
7
  6
CONTINUOUS
 10
-49.0
 20
-39.5
 11
49.0
 21
-39.5
  0
LINE
  5
254
100
AcDbEntity
  8
RACCORDO
100
AcDbLine
 62
253
  6
CONTINUOUS
 10
-49.0
 20
-39.4807115393
 11
49.0
 21
-39.4807115393
  0
LINE
  5
255
100
AcDbEntity
  8
RACCORDO
100
AcDbLine
 62
253
  6
CONTINUOUS
 10
-49.0
 20
-37.9816252988
 11
49.0
 21
-37.9816252988
  0
LINE
  5
256
100
AcDbEntity
  8
RACCORDO
100
AcDbLine
 62
253
  6
CONTINUOUS
 10
57.4816252988
 20
-29.5
 11
59.0
 21
-29.5
  0
LINE
  5
257
100
AcDbEntity
  8
RACCORDO
100
AcDbLine
 62
253
  6
CONTINUOUS
 10
-57.4816252988
 20
-29.5
 11
-59.0
 21
-29.5
  0
LINE
  5
258
100
AcDbEntity
  8
RACCORDO
100
AcDbLine
 62
253
  6
CONTINUOUS
 10
57.4816252988
 20
29.5
 11
59.0
 21
29.5
  0
LINE
  5
259
100
AcDbEntity
  8
RACCORDO
100
AcDbLine
 62
253
  6
CONTINUOUS
 10
-57.4816252988
 20
29.5
 11
-59.0
 21
29.5
  0
LINE
  5
25A
100
AcDbEntity
  8
RACCORDO
100
AcDbLine
 62
253
  6
CONTINUOUS
 10
49.0
 20
37.9816252988
 11
-49.0
 21
37.9816252988
  0
LINE
  5
25B
100
AcDbEntity
  8
RACCORDO
100
AcDbLine
 62
253
  6
CONTINUOUS
 10
49.0
 20
39.4807115393
 11
-49.0
 21
39.4807115393
  0
LINE
  5
25C
100
AcDbEntity
  8
DRAFT
100
AcDbLine
 62
7
  6
CONTINUOUS
 10
49.0
 20
39.5
 11
-49.0
 21
39.5
  0
LINE
  5
25D
100
AcDbEntity
  8
RACCORDO
100
AcDbLine
 62
253
  6
CONTINUOUS
 10
49.0
 20
-37.9816252988
 11
49.0
 21
-39.5
  0
LINE
  5
25E
100
AcDbEntity
  8
RACCORDO
100
AcDbLine
 62
253
  6
CONTINUOUS
 10
49.0
 20
37.9816252988
 11
49.0
 21
39.5
  0
LINE
  5
25F
100
AcDbEntity
  8
RACCORDO
100
AcDbLine
 62
253
  6
CONTINUOUS
 10
57.4816252988
 20
-29.5
 11
57.4816252988
 21
29.5
  0
LINE
  5
260
100
AcDbEntity
  8
RACCORDO
100
AcDbLine
 62
253
  6
CONTINUOUS
 10
58.9807115393
 20
-29.5
 11
58.9807115393
 21
29.5
  0
LINE
  5
261
100
AcDbEntity
  8
DRAFT
100
AcDbLine
 62
7
  6
CONTINUOUS
 10
59.0
 20
-29.5
 11
59.0
 21
29.5
  0
LINE
  5
262
100
AcDbEntity
  8
RACCORDO
100
AcDbLine
 62
7
  6
CONTINUOUS
 10
-96.7889962089
 20
-39.4807115393
 11
-96.2366469638
 21
-39.5
  0
LINE
  5
263
100
AcDbEntity
  8
DRAFT
100
AcDbLine
 62
7
  6
CONTINUOUS
 10
-90.2366469638
 20
-27.8777773068
 11
-93.7366469638
 21
-28.0
  0
LINE
  5
264
100
AcDbEntity
  8
RACCORDO
100
AcDbLine
 62
253
  6
CONTINUOUS
 10
-98.2366469638
 20
-29.5
 11
-96.2366469638
 21
-29.5
  0
LINE
  5
265
100
AcDbEntity
  8
RACCORDO
100
AcDbLine
 62
7
  6
CONTINUOUS
 10
-93.7366469638
 20
-28.0
 11
-95.9471168128
 21
-27.9228086919
  0
LINE
  5
266
100
AcDbEntity
  8
DRAFT
100
AcDbLine
 62
253
  6
CONTINUOUS
 10
-90.2366469638
 20
-16.25
 11
-93.7366469638
 21
-16.25
  0
LINE
  5
267
100
AcDbEntity
  8
RACCORDO
100
AcDbLine
 62
253
  6
CONTINUOUS
 10
-93.7366469638
 20
-16.25
 11
-96.2366469638
 21
-16.25
  0
LINE
  5
268
100
AcDbEntity
  8
RACCORDO
100
AcDbLine
 62
7
  6
CONTINUOUS
 10
-98.2366469638
 20
-37.9816252988
 11
-98.2366469638
 21
37.9816252988
  0
LWPOLYLINE
  5
269
100
AcDbEntity
  8
RACCORDO
100
AcDbPolyline
 62
253
  6
CONTINUOUS
 90
11
 70
0
 10
-95.9471168128
 20
9.4228086919
 10
-95.9479815852
 20
9.4208815722
 10
-95.9487645956
 20
9.415198099
 10
-95.9494572012
 20
9.4058313581
 10
-95.9500494129
 20
9.3928953675
 10
-95.9505381544
 20
9.3765081032
 10
-95.9509256705
 20
9.3567573559
 10
-95.9512079108
 20
9.3337810568
 10
-95.9513804096
 20
9.3077533754
 10
-95.9514441944
 20
9.2788050553
 10
-95.9512413349
 20
9.212986238
  0
LINE
  5
26A
100
AcDbEntity
  8
RACCORDO
100
AcDbLine
 62
253
  6
CONTINUOUS
 10
-95.949504587
 20
9.0550380131
 11
-95.9471168128
 21
8.9231132784
  0
LINE
  5
26B
100
AcDbEntity
  8
RACCORDO
100
AcDbLine
 62
253
  6
CONTINUOUS
 10
-95.9505929035
 20
9.1377234128
 11
-95.949504587
 21
9.0550380131
  0
LWPOLYLINE
  5
26C
100
AcDbEntity
  8
RACCORDO
100
AcDbPolyline
 62
253
  6
CONTINUOUS
 90
8
 70
0
 10
-95.9512408521
 20
-9.3300013558
 10
-95.9509720353
 20
-9.3536916326
 10
-95.9505925682
 20
-9.3742481728
 10
-95.9501033377
 20
-9.3914166058
 10
-95.9495046735
 20
-9.4049881123
 10
-95.9488015641
 20
-9.4148130828
 10
-95.948002639
 20
-9.4207827041
 10
-95.9471168128
 20
-9.4228086919
  0
LINE
  5
26D
100
AcDbEntity
  8
RACCORDO
100
AcDbLine
 62
253
  6
CONTINUOUS
 10
-95.9512413349
 20
9.212986238
 11
-95.9505929035
 21
9.1377234128
  0
LINE
  5
26E
100
AcDbEntity
  8
RACCORDO
100
AcDbLine
 62
253
  6
CONTINUOUS
 10
-95.9514442235
 20
-9.2739538872
 11
-95.9512408521
 21
-9.3300013558
  0
LINE
  5
26F
100
AcDbEntity
  8
RACCORDO
100
AcDbLine
 62
253
  6
CONTINUOUS
 10
-96.7889962089
 20
-39.4807115393
 11
-96.7889962089
 21
39.4807115393
  0
LINE
  5
270
100
AcDbEntity
  8
DRAFT
100
AcDbLine
 62
7
  6
CONTINUOUS
 10
-96.2366469638
 20
-39.5
 11
-96.2366469638
 21
39.5
  0
LINE
  5
271
100
AcDbEntity
  8
RACCORDO
100
AcDbLine
 62
253
  6
CONTINUOUS
 10
-95.9471168128
 20
27.9228086919
 11
-95.9471168128
 21
9.4228086919
  0
LINE
  5
272
100
AcDbEntity
  8
RACCORDO
100
AcDbLine
 62
253
  6
CONTINUOUS
 10
-95.9471168128
 20
8.9231132784
 11
-95.9471168128
 21
3.6717039666
  0
LINE
  5
273
100
AcDbEntity
  8
RACCORDO
100
AcDbLine
 62
253
  6
CONTINUOUS
 10
-95.9471168128
 20
-3.6717039666
 11
-95.9471168128
 21
-8.9231132784
  0
LINE
  5
274
100
AcDbEntity
  8
RACCORDO
100
AcDbLine
 62
253
  6
CONTINUOUS
 10
-95.9471168128
 20
-9.4228086919
 11
-95.9471168128
 21
-27.9228086919
  0
LINE
  5
275
100
AcDbEntity
  8
RACCORDO
100
AcDbLine
 62
253
  6
CONTINUOUS
 10
-95.9418826857
 20
3.6717284378
 11
-95.9418826857
 21
-3.6717284378
  0
LINE
  5
276
100
AcDbEntity
  8
RACCORDO
100
AcDbLine
 62
253
  6
CONTINUOUS
 10
-95.9512086488
 20
-9.207642705
 11
-95.9514442235
 21
-9.2739538872
  0
LINE
  5
277
100
AcDbEntity
  8
RACCORDO
100
AcDbLine
 62
253
  6
CONTINUOUS
 10
-95.950539363
 20
-9.1329923223
 11
-95.9512086488
 21
-9.207642705
  0
LINE
  5
278
100
AcDbEntity
  8
RACCORDO
100
AcDbLine
 62
253
  6
CONTINUOUS
 10
-95.9487661529
 20
-9.0097394142
 11
-95.950539363
 21
-9.1329923223
  0
LINE
  5
279
100
AcDbEntity
  8
RACCORDO
100
AcDbLine
 62
253
  6
CONTINUOUS
 10
-95.9471168128
 20
-8.9231132784
 11
-95.9487661529
 21
-9.0097394142
  0
LWPOLYLINE
  5
27A
100
AcDbEntity
  8
RACCORDO
100
AcDbPolyline
 62
7
  6
CONTINUOUS
 90
4
 70
0
 10
-96.2257729929
 20
3.5686626817
 10
-96.2317705705
 20
3.5563151764
 10
-96.2354185425
 20
3.5435577709
 10
-96.2366469638
 20
3.530390465
  0
LINE
  5
27B
100
AcDbEntity
  8
RACCORDO
100
AcDbLine
 62
7
  6
CONTINUOUS
 10
-90.2366469638
 20
-9.3777773068
 11
-93.7366469638
 21
-9.5
  0
LINE
  5
27C
100
AcDbEntity
  8
RACCORDO
100
AcDbLine
 62
253
  6
CONTINUOUS
 10
-90.2366469638
 20
-8.8780818933
 11
-93.7366469638
 21
-9.0003045865
  0
LINE
  5
27D
100
AcDbEntity
  8
RACCORDO
100
AcDbLine
 62
7
  6
CONTINUOUS
 10
-84.7366469638
 20
-9.3254493507
 11
-90.2366469638
 21
-9.4214522078
  0
LINE
  5
27E
100
AcDbEntity
  8
RACCORDO
100
AcDbLine
 62
253
  6
CONTINUOUS
 10
-84.7366469638
 20
-9.1254493496
 11
-90.2366469638
 21
-9.2214522067
  0
LINE
  5
27F
100
AcDbEntity
  8
RACCORDO
100
AcDbLine
 62
253
  6
CONTINUOUS
 10
-95.9471168128
 20
-8.9231132784
 11
-96.2366469638
 21
-8.9231132784
  0
LINE
  5
280
100
AcDbEntity
  8
RACCORDO
100
AcDbLine
 62
253
  6
CONTINUOUS
 10
-90.2366469638
 20
-8.7
 11
-84.7366469638
 21
-8.7
  0
LINE
  5
281
100
AcDbEntity
  8
RACCORDO
100
AcDbLine
 62
7
  6
CONTINUOUS
 10
-84.7366469638
 20
-8.5
 11
-90.2366469638
 21
-8.5
  0
LINE
  5
282
100
AcDbEntity
  8
RACCORDO
100
AcDbLine
 62
253
  6
CONTINUOUS
 10
-84.7366469638
 20
-8.3
 11
-90.2366469638
 21
-8.3
  0
LINE
  5
283
100
AcDbEntity
  8
RACCORDO
100
AcDbLine
 62
253
  6
CONTINUOUS
 10
-94.5471168128
 20
-8.0043443947
 11
-93.7410102316
 21
-8.0043443947
  0
LINE
  5
284
100
AcDbEntity
  8
RACCORDO
100
AcDbLine
 62
253
  6
CONTINUOUS
 10
-93.7540980412
 20
-8.8043139332
 11
-90.2366469638
 21
-8.8348275257
  0
LINE
  5
285
100
AcDbEntity
  8
RACCORDO
100
AcDbLine
 62
7
  6
CONTINUOUS
 10
-90.2366469638
 20
-8.5349074712
 11
-93.7410102316
 21
-8.5043253562
  0
LINE
  5
286
100
AcDbEntity
  8
RACCORDO
100
AcDbLine
 62
253
  6
CONTINUOUS
 10
-93.7410102316
 20
-8.0043443947
 11
-90.2366469638
 21
-8.0349265096
  0
LINE
  5
287
100
AcDbEntity
  8
RACCORDO
100
AcDbLine
 62
7
  6
CONTINUOUS
 10
-93.7366469638
 20
-9.5
 11
-95.9471168128
 21
-9.4228086919
  0
LINE
  5
288
100
AcDbEntity
  8
RACCORDO
100
AcDbLine
 62
253
  6
CONTINUOUS
 10
-93.7366469638
 20
-9.0003045865
 11
-95.9471168128
 21
-8.9231132784
  0
LWPOLYLINE
  5
289
100
AcDbEntity
  8
RACCORDO
100
AcDbPolyline
 62
253
  6
CONTINUOUS
 90
22
 70
0
 10
-93.7540980412
 20
-8.8043139332
 10
-93.8141473232
 20
-8.8014224996
 10
-93.8730666732
 20
-8.7943040089
 10
-93.9308560913
 20
-8.782958461
 10
-93.9877693262
 20
-8.7672817646
 10
-94.0435526291
 20
-8.747378011
 10
-94.097444754
 20
-8.7235594748
 10
-94.149474094
 20
-8.6957497
 10
-94.1996122559
 20
-8.6640251427
 10
-94.2470128147
 20
-8.6289274451
 10
-94.2915994332
 20
-8.5904380983
 10
-94.3334484486
 20
-8.5485756112
 10
-94.3719424472
 20
-8.5039371534
 10
-94.4070403745
 20
-8.4565504267
 10
-94.438783285
 20
-8.4063877291
 10
-94.4666769282
 20
-8.3539631241
 10
-94.4907454009
 20
-8.2990257129
 10
-94.5109646063
 20
-8.2418263943
 10
-94.5267680043
 20
-8.1836319272
 10
-94.537966748
 20
-8.1248645648
 10
-94.5447496841
 20
-8.065102054
 10
-94.5471168128
 20
-8.0043443947
  0
LWPOLYLINE
  5
28A
100
AcDbEntity
  8
RACCORDO
100
AcDbPolyline
 62
7
  6
CONTINUOUS
 90
4
 70
0
 10
-96.2257729929
 20
-3.5686626817
 10
-96.2317705705
 20
-3.5563151764
 10
-96.2354185425
 20
-3.5435577709
 10
-96.2366469638
 20
-3.530390465
  0
LWPOLYLINE
  5
28B
100
AcDbEntity
  8
RACCORDO
100
AcDbPolyline
 62
253
  6
CONTINUOUS
 90
5
 70
0
 10
-93.7410102316
 20
-8.5043253562
 10
-93.7413738661
 20
-8.5024196438
 10
-93.7417015296
 20
-8.4967236453
 10
-93.7419907285
 20
-8.4872807065
 10
-93.742239262
 20
-8.4741626868
  0
LINE
  5
28C
100
AcDbEntity
  8
0
100
AcDbLine
 62
7
  6
CONTINUOUS
 10
-92.808698603
 20
-0.5034719382
 11
-92.8263104557
 21
-0.3409084465
  0
LINE
  5
28D
100
AcDbEntity
  8
0
100
AcDbLine
 62
7
  6
CONTINUOUS
 10
-92.8969218751
 20
0.3434683784
 11
-92.9149300224
 21
0.5094622732
  0
LINE
  5
28E
100
AcDbEntity
  8
0
100
AcDbLine
 62
7
  6
CONTINUOUS
 10
-92.7916249326
 20
0.5035777364
 11
-92.7739909145
 21
0.3408105533
  0
LINE
  5
28F
100
AcDbEntity
  8
0
100
AcDbLine
 62
7
  6
CONTINUOUS
 10
-93.5905675147
 20
0.4940614633
 11
-93.5721333045
 21
0.323231073
  0
LINE
  5
290
100
AcDbEntity
  8
0
100
AcDbLine
 62
7
  6
CONTINUOUS
 10
-93.5076055284
 20
-0.303490857
 11
-93.4891665449
 21
-0.475308634
  0
LWPOLYLINE
  5
291
100
AcDbEntity
  8
0
100
AcDbPolyline
 62
7
  6
CONTINUOUS
 90
4
 70
0
 10
-93.3566469638
 20
1.2988899927
 10
-93.3480975811
 20
1.217274488
 10
-93.3395481984
 20
1.1301727311
 10
-93.3309988157
 20
1.0379772899
  0
LWPOLYLINE
  5
292
100
AcDbEntity
  8
0
100
AcDbPolyline
 62
7
  6
CONTINUOUS
 90
4
 70
0
 10
-93.2566469638
 20
1.2988899927
 10
-93.2480975811
 20
1.217274488
 10
-93.2395481984
 20
1.1301727311
 10
-93.2309988157
 20
1.0379772899
  0
LINE
  5
293
100
AcDbEntity
  8
0
100
AcDbLine
 62
7
  6
CONTINUOUS
 10
-92.721085763
 20
-0.1736505305
 11
-92.6940272851
 21
-0.4308382464
  0
LINE
  5
294
100
AcDbEntity
  8
0
100
AcDbLine
 62
7
  6
CONTINUOUS
 10
-93.5721333045
 20
0.323231073
 11
-93.5076055284
 21
-0.303490857
  0
LINE
  5
295
100
AcDbEntity
  8
0
100
AcDbLine
 62
7
  6
CONTINUOUS
 10
-92.8263104557
 20
-0.3409084465
 11
-92.8969218751
 21
0.3434683784
  0
LINE
  5
296
100
AcDbEntity
  8
0
100
AcDbLine
 62
7
  6
CONTINUOUS
 10
-92.7739909145
 20
0.3408105533
 11
-92.721085763
 21
-0.1736505305
  0
LWPOLYLINE
  5
297
100
AcDbEntity
  8
0
100
AcDbPolyline
 62
7
  6
CONTINUOUS
 90
13
 70
0
 10
-92.3649185687
 20
-1.0859740451
 10
-92.356369186
 20
-1.1756017932
 10
-92.3478198033
 20
-1.2599311276
 10
-92.3392704206
 20
-1.3385819778
 10
-92.3307210379
 20
-1.4111998662
 10
-92.3221716552
 20
-1.4774575056
 10
-92.3136222724
 20
-1.5370562744
 10
-92.3050728897
 20
-1.5897275623
 10
-92.296523507
 20
-1.6352339812
 10
-92.2879741243
 20
-1.6733704346
 10
-92.2794247416
 20
-1.7039650427
 10
-92.2708753589
 20
-1.7268799162
 10
-92.2661148392
 20
-1.7362712239
  0
LWPOLYLINE
  5
298
100
AcDbEntity
  8
0
100
AcDbPolyline
 62
7
  6
CONTINUOUS
 90
13
 70
0
 10
-93.1685605441
 20
-1.0462818676
 10
-93.1600111613
 20
-1.1380455022
 10
-93.1514617786
 20
-1.2246799709
 10
-93.1429123959
 20
-1.3057948131
 10
-93.1343630132
 20
-1.3810244453
 10
-93.1258136305
 20
-1.4500298086
 10
-93.1172642478
 20
-1.5124998966
 10
-93.108714865
 20
-1.5681531578
 10
-93.1001654823
 20
-1.6167387638
 10
-93.0916160996
 20
-1.6580377401
 10
-93.0830667169
 20
-1.6918639533
 10
-93.0745173342
 20
-1.7180649493
 10
-93.0661149199
 20
-1.7362712694
  0
LWPOLYLINE
  5
299
100
AcDbEntity
  8
0
100
AcDbPolyline
 62
7
  6
CONTINUOUS
 90
15
 70
0
 10
-93.0685605441
 20
-1.0462818676
 10
-93.0600111613
 20
-1.1380455022
 10
-93.0514617786
 20
-1.2246799709
 10
-93.0429123959
 20
-1.3057948131
 10
-93.0343630132
 20
-1.3810244453
 10
-93.0258136305
 20
-1.4500298086
 10
-93.0172642478
 20
-1.5124998966
 10
-93.008714865
 20
-1.5681531578
 10
-93.0001654823
 20
-1.6167387638
 10
-92.9916160996
 20
-1.6580377401
 10
-92.9830667169
 20
-1.6918639533
 10
-92.9745173342
 20
-1.7180649493
 10
-92.9659679515
 20
-1.736522641
 10
-92.9574185687
 20
-1.7471538403
 10
-92.9501559335
 20
-1.7499999989
  0
LINE
  5
29A
100
AcDbEntity
  8
0
100
AcDbLine
 62
7
  6
CONTINUOUS
 10
-92.5359062231
 20
1.0914936083
 11
-92.5188074576
 21
0.8985182502
  0
LINE
  5
29B
100
AcDbEntity
  8
0
100
AcDbLine
 62
7
  6
CONTINUOUS
 10
-92.3820173342
 20
-0.8924611678
 11
-92.3649185687
 21
-1.0859740451
  0
LINE
  5
29C
100
AcDbEntity
  8
0
100
AcDbLine
 62
7
  6
CONTINUOUS
 10
-93.1856593095
 20
-0.849042665
 11
-93.1685605441
 21
-1.0462818676
  0
LINE
  5
29D
100
AcDbEntity
  8
0
100
AcDbLine
 62
7
  6
CONTINUOUS
 10
-93.0856593095
 20
-0.849042665
 11
-93.0685605441
 21
-1.0462818676
  0
LINE
  5
29E
100
AcDbEntity
  8
0
100
AcDbLine
 62
7
  6
CONTINUOUS
 10
-93.3309988157
 20
1.0379772899
 11
-93.3139000502
 21
0.8399885394
  0
LINE
  5
29F
100
AcDbEntity
  8
0
100
AcDbLine
 62
7
  6
CONTINUOUS
 10
-93.2309988157
 20
1.0379772899
 11
-93.2139000502
 21
0.8399885394
  0
LINE
  5
2A0
100
AcDbEntity
  8
0
100
AcDbLine
 62
7
  6
CONTINUOUS
 10
-92.5188074576
 20
0.8985182502
 11
-92.5017086922
 21
0.6893627292
  0
LINE
  5
2A1
100
AcDbEntity
  8
0
100
AcDbLine
 62
7
  6
CONTINUOUS
 10
-92.3991160996
 20
-0.6828771982
 11
-92.3820173342
 21
-0.8924611678
  0
LINE
  5
2A2
100
AcDbEntity
  8
0
100
AcDbLine
 62
7
  6
CONTINUOUS
 10
-93.2027580749
 20
-0.6365141773
 11
-93.1856593095
 21
-0.849042665
  0
LINE
  5
2A3
100
AcDbEntity
  8
0
100
AcDbLine
 62
7
  6
CONTINUOUS
 10
-93.1027580749
 20
-0.6365141773
 11
-93.0856593095
 21
-0.849042665
  0
LINE
  5
2A4
100
AcDbEntity
  8
0
100
AcDbLine
 62
7
  6
CONTINUOUS
 10
-93.3139000502
 20
0.8399885394
 11
-93.2968012848
 21
0.6268735573
  0
LINE
  5
2A5
100
AcDbEntity
  8
0
100
AcDbLine
 62
7
  6
CONTINUOUS
 10
-93.2139000502
 20
0.8399885394
 11
-93.1968012848
 21
0.6268735573
  0
LINE
  5
2A6
100
AcDbEntity
  8
0
100
AcDbLine
 62
7
  6
CONTINUOUS
 10
-92.5017086922
 20
0.6893627292
 11
-92.4760605441
 21
0.3535936924
  0
LINE
  5
2A7
100
AcDbEntity
  8
0
100
AcDbLine
 62
7
  6
CONTINUOUS
 10
-92.4333136305
 20
-0.2308138403
 11
-92.3991160996
 21
-0.6828771982
  0
LINE
  5
2A8
100
AcDbEntity
  8
0
100
AcDbLine
 62
7
  6
CONTINUOUS
 10
-93.2968012848
 20
0.6268735573
 11
-93.2626037539
 21
0.1708190084
  0
LINE
  5
2A9
100
AcDbEntity
  8
0
100
AcDbLine
 62
7
  6
CONTINUOUS
 10
-93.1968012848
 20
0.6268735573
 11
-93.1626037539
 21
0.1708190084
  0
LINE
  5
2AA
100
AcDbEntity
  8
0
100
AcDbLine
 62
7
  6
CONTINUOUS
 10
-93.2626037539
 20
0.1708190084
 11
-93.2027580749
 21
-0.6365141773
  0
LINE
  5
2AB
100
AcDbEntity
  8
0
100
AcDbLine
 62
7
  6
CONTINUOUS
 10
-93.1626037539
 20
0.1708190084
 11
-93.1027580749
 21
-0.6365141773
  0
LINE
  5
2AC
100
AcDbEntity
  8
0
100
AcDbLine
 62
7
  6
CONTINUOUS
 10
-92.4760605441
 20
0.3535936924
 11
-92.4333136305
 21
-0.2308138403
  0
LINE
  5
2AD
100
AcDbEntity
  8
0
100
AcDbLine
 62
7
  6
CONTINUOUS
 10
-93.6409845311
 20
0.9333548026
 11
-93.6366469638
 21
0.8685943859
  0
LWPOLYLINE
  5
2AE
100
AcDbEntity
  8
RACCORDO
100
AcDbPolyline
 62
253
  6
CONTINUOUS
 90
5
 70
0
 10
-93.7486890968
 20
8.5813444601
 10
-93.7496578239
 20
8.6035485267
 10
-93.7505604671
 20
8.627953158
 10
-93.7513871325
 20
8.6542908946
 10
-93.7521287581
 20
8.6822730773
  0
LINE
  5
2AF
100
AcDbEntity
  8
RACCORDO
100
AcDbLine
 62
253
  6
CONTINUOUS
 10
-93.7521287581
 20
8.6822730773
 11
-93.7533253931
 21
8.7419294158
  0
LINE
  5
2B0
100
AcDbEntity
  8
RACCORDO
100
AcDbLine
 62
253
  6
CONTINUOUS
 10
-93.7533253931
 20
8.7419294158
 11
-93.754098042
 21
8.8043139329
  0
LINE
  5
2B1
100
AcDbEntity
  8
RACCORDO
100
AcDbLine
 62
7
  6
CONTINUOUS
 10
-93.7366469638
 20
8.8042834884
 11
-93.7340290032
 21
8.5043862805
  0
LINE
  5
2B2
100
AcDbEntity
  8
RACCORDO
100
AcDbLine
 62
253
  6
CONTINUOUS
 10
-93.742239262
 20
-8.4741626868
 11
-93.7426070917
 21
-8.4373279179
  0
LINE
  5
2B3
100
AcDbEntity
  8
RACCORDO
100
AcDbLine
 62
253
  6
CONTINUOUS
 10
-93.7410102316
 20
8.0043443947
 11
-93.7426070917
 21
8.2543238849
  0
LINE
  5
2B4
100
AcDbEntity
  8
RACCORDO
100
AcDbLine
 62
253
  6
CONTINUOUS
 10
-93.7426070917
 20
-8.4373279179
 11
-93.7428173213
 21
-8.3578708624
  0
LINE
  5
2B5
100
AcDbEntity
  8
RACCORDO
100
AcDbLine
 62
253
  6
CONTINUOUS
 10
-94.5471168128
 20
8.0043443947
 11
-94.5471168128
 21
3.6620070586
  0
LINE
  5
2B6
100
AcDbEntity
  8
RACCORDO
100
AcDbLine
 62
253
  6
CONTINUOUS
 10
-94.5471168128
 20
-8.0043443947
 11
-94.5471168128
 21
-3.6620070586
  0
LINE
  5
2B7
100
AcDbEntity
  8
RACCORDO
100
AcDbLine
 62
253
  6
CONTINUOUS
 10
-94.5418826857
 20
-3.6620092134
 11
-94.5418826857
 21
3.6620092134
  0
LINE
  5
2B8
100
AcDbEntity
  8
RACCORDO
100
AcDbLine
 62
7
  6
CONTINUOUS
 10
-94.2366469638
 20
-8.0043443947
 11
-94.2366469638
 21
8.0043443947
  0
LINE
  5
2B9
100
AcDbEntity
  8
0
100
AcDbLine
 62
7
  6
CONTINUOUS
 10
-93.7521170176
 20
-1.45
 11
-93.7521170176
 21
1.45
  0
LINE
  5
2BA
100
AcDbEntity
  8
RACCORDO
100
AcDbLine
 62
253
  6
CONTINUOUS
 10
-93.7410102316
 20
8.0043443947
 11
-93.7410102316
 21
1.4307624822
  0
LINE
  5
2BB
100
AcDbEntity
  8
RACCORDO
100
AcDbLine
 62
253
  6
CONTINUOUS
 10
-93.7410102316
 20
-1.4307624822
 11
-93.7410102316
 21
-8.0043443947
  0
LINE
  5
2BC
100
AcDbEntity
  8
RACCORDO
100
AcDbLine
 62
7
  6
CONTINUOUS
 10
-93.7366469638
 20
9.5
 11
-93.7366469638
 21
8.8042834884
  0
LINE
  5
2BD
100
AcDbEntity
  8
DRAFT
100
AcDbLine
 62
7
  6
CONTINUOUS
 10
-93.7366469638
 20
-28.0
 11
-93.7366469638
 21
-9.5
  0
LINE
  5
2BE
100
AcDbEntity
  8
RACCORDO
100
AcDbLine
 62
7
  6
CONTINUOUS
 10
-93.7366469638
 20
-9.5
 11
-93.7366469638
 21
-8.8042834884
  0
LINE
  5
2BF
100
AcDbEntity
  8
DRAFT
100
AcDbLine
 62
7
  6
CONTINUOUS
 10
-93.7366469638
 20
9.5
 11
-93.7366469638
 21
28.0
  0
LINE
  5
2C0
100
AcDbEntity
  8
0
100
AcDbLine
 62
7
  6
CONTINUOUS
 10
-93.6409845311
 20
1.2575128869
 11
-93.6409845311
 21
0.9333548026
  0
LINE
  5
2C1
100
AcDbEntity
  8
0
100
AcDbLine
 62
7
  6
CONTINUOUS
 10
-93.6366469638
 20
0.8685943859
 11
-93.6366469638
 21
-1.25
  0
LINE
  5
2C2
100
AcDbEntity
  8
RACCORDO
100
AcDbLine
 62
253
  6
CONTINUOUS
 10
-93.7426070917
 20
8.2543238849
 11
-93.7427938435
 21
8.3873384361
  0
LINE
  5
2C3
100
AcDbEntity
  8
RACCORDO
100
AcDbLine
 62
253
  6
CONTINUOUS
 10
-93.7428173213
 20
-8.3578708624
 11
-93.7424452389
 21
-8.2156358947
  0
LINE
  5
2C4
100
AcDbEntity
  8
RACCORDO
100
AcDbLine
 62
253
  6
CONTINUOUS
 10
-93.7427938435
 20
8.3873384361
 11
-93.7426070917
 21
8.4373279179
  0
LINE
  5
2C5
100
AcDbEntity
  8
RACCORDO
100
AcDbLine
 62
253
  6
CONTINUOUS
 10
-93.7424452389
 20
-8.2156358947
 11
-93.7410102316
 21
-8.0043443947
  0
LINE
  5
2C6
100
AcDbEntity
  8
RACCORDO
100
AcDbLine
 62
7
  6
CONTINUOUS
 10
-93.7366469638
 20
-8.8044662264
 11
-93.7340290032
 21
-8.5043862805
  0
LWPOLYLINE
  5
2C7
100
AcDbEntity
  8
RACCORDO
100
AcDbPolyline
 62
253
  6
CONTINUOUS
 90
6
 70
0
 10
-93.7426070917
 20
8.4373279179
 10
-93.742239262
 20
8.4741626868
 10
-93.7419907285
 20
8.4872807065
 10
-93.7417015296
 20
8.4967236453
 10
-93.7413738661
 20
8.5024196438
 10
-93.7410102316
 20
8.5043253562
  0
LINE
  5
2C8
100
AcDbEntity
  8
RACCORDO
100
AcDbLine
 62
253
  6
CONTINUOUS
 10
-93.7540980412
 20
-8.8043139332
 11
-93.7533253835
 21
-8.741928879
  0
LWPOLYLINE
  5
2C9
100
AcDbEntity
  8
RACCORDO
100
AcDbPolyline
 62
253
  6
CONTINUOUS
 90
13
 70
0
 10
-93.7533253835
 20
-8.741928879
 10
-93.7521287372
 20
-8.682272256
 10
-93.7513871065
 20
-8.6542900291
 10
-93.7505604371
 20
-8.6279523037
 10
-93.7496577911
 20
-8.6035477334
 10
-93.7486890629
 20
-8.5813437673
 10
-93.7476648699
 20
-8.5615837122
 10
-93.7465964384
 20
-8.544484115
 10
-93.7454954788
 20
-8.5302323542
 10
-93.7443740564
 20
-8.5189845804
 10
-93.7432444616
 20
-8.5108640431
 10
-93.7421190753
 20
-8.5059597262
 10
-93.7410102315
 20
-8.5043253562
  0
LINE
  5
2CA
100
AcDbEntity
  8
0
100
AcDbLine
 62
7
  6
CONTINUOUS
 10
-93.6409845311
 20
1.2575128869
 11
-93.4501556002
 21
1.5880382909
  0
LINE
  5
2CB
100
AcDbEntity
  8
0
100
AcDbLine
 62
7
  6
CONTINUOUS
 10
-92.6661150198
 20
1.7362712418
 11
-92.9470889828
 21
1.2548356409
  0
LWPOLYLINE
  5
2CC
100
AcDbEntity
  8
0
100
AcDbPolyline
 62
7
  6
CONTINUOUS
 90
4
 70
0
 10
-92.6661150198
 20
1.7362712418
 10
-92.6641469638
 20
1.7394453043
 10
-92.6555975811
 20
1.748402017
 10
-92.6501560054
 20
1.7499999953
  0
LWPOLYLINE
  5
2CD
100
AcDbEntity
  8
0
100
AcDbPolyline
 62
7
  6
CONTINUOUS
 90
4
 70
0
 10
-93.4501556002
 20
1.5880382909
 10
-93.4435278904
 20
1.5973512758
 10
-93.4356296246
 20
1.6027108811
 10
-93.4329068668
 20
1.6030903179
  0
LINE
  5
2CE
100
AcDbEntity
  8
0
100
AcDbLine
 62
7
  6
CONTINUOUS
 10
-93.3566469638
 20
1.2988899927
 11
-93.6409845311
 21
0.9333548026
  0
LWPOLYLINE
  5
2CF
100
AcDbEntity
  8
0
100
AcDbPolyline
 62
7
  6
CONTINUOUS
 90
3
 70
0
 10
-93.0661149199
 20
-1.7362712694
 10
-93.0574185687
 20
-1.7471538403
 10
-93.0501559335
 20
-1.7499999989
  0
LWPOLYLINE
  5
2D0
100
AcDbEntity
  8
0
100
AcDbPolyline
 62
7
  6
CONTINUOUS
 90
4
 70
0
 10
-92.2661148392
 20
-1.7362712239
 10
-92.2623259762
 20
-1.7420117785
 10
-92.2537765934
 20
-1.7492924308
 10
-92.2501558095
 20
-1.7499999906
  0
LINE
  5
2D1
100
AcDbEntity
  8
0
100
AcDbLine
 62
7
  6
CONTINUOUS
 10
-93.3610673738
 20
-1.2309856481
 11
-93.0661149199
 21
-1.7362712694
  0
LINE
  5
2D2
100
AcDbEntity
  8
0
100
AcDbLine
 62
7
  6
CONTINUOUS
 10
-92.5610673067
 20
-1.2309855967
 11
-92.2661148392
 21
-1.7362712239
  0
LWPOLYLINE
  5
2D3
100
AcDbEntity
  8
0
100
AcDbPolyline
 62
7
  6
CONTINUOUS
 90
7
 70
0
 10
-92.9679718292
 20
0.9277785662
 10
-92.9855107556
 20
0.9832294023
 10
-93.0031068275
 20
1.034175435
 10
-93.020760045
 20
1.0803266334
 10
-93.0385112525
 20
1.1215005627
 10
-93.0563196057
 20
1.1573329885
 10
-93.0686102244
 20
1.178772679
  0
LWPOLYLINE
  5
2D4
100
AcDbEntity
  8
0
100
AcDbPolyline
 62
7
  6
CONTINUOUS
 90
4
 70
0
 10
-93.6366469638
 20
0.8685943859
 10
-93.6274321025
 20
0.8013199307
 10
-93.6182167491
 20
0.7298461391
 10
-93.6090009036
 20
0.6545466204
  0
LWPOLYLINE
  5
2D5
100
AcDbEntity
  8
0
100
AcDbPolyline
 62
7
  6
CONTINUOUS
 90
5
 70
0
 10
-92.9328689983
 20
0.6647068033
 10
-92.9417619233
 20
0.7369649425
 10
-92.9505676692
 20
0.8049747971
 10
-92.9593043045
 20
0.8686481104
 10
-92.9679718292
 20
0.9277785662
  0
LWPOLYLINE
  5
2D6
100
AcDbEntity
  8
0
100
AcDbPolyline
 62
7
  6
CONTINUOUS
 90
13
 70
0
 10
-93.4707275445
 20
-0.6371754409
 10
-93.4615081135
 20
-0.7133074789
 10
-93.4522887002
 20
-0.7857010652
 10
-93.4430692388
 20
-0.8539772945
 10
-93.4338497132
 20
-0.9177783802
 10
-93.4246301395
 20
-0.9767697519
 10
-93.4154104994
 20
-1.030642261
 10
-93.4061907241
 20
-1.0791137863
 10
-93.3969708824
 20
-1.1219297382
 10
-93.3877511623
 20
-1.1588648901
 10
-93.3785316337
 20
-1.1897256863
 10
-93.3693122268
 20
-1.2143509334
 10
-93.3610673738
 20
-1.2309856481
  0
LWPOLYLINE
  5
2D7
100
AcDbEntity
  8
0
100
AcDbPolyline
 62
7
  6
CONTINUOUS
 90
14
 70
0
 10
-92.6759215593
 20
-0.5927881493
 10
-92.6668955938
 20
-0.6692481692
 10
-92.657939715
 20
-0.7417926814
 10
-92.6490940954
 20
-0.8098443432
 10
-92.6403185625
 20
-0.8734967707
 10
-92.6315464264
 20
-0.932979225
 10
-92.6227742897
 20
-0.9880348809
 10
-92.6140055498
 20
-1.0383839402
 10
-92.6051837096
 20
-1.084069521
 10
-92.5962695541
 20
-1.1249483951
 10
-92.5873022984
 20
-1.160509253
 10
-92.5783430897
 20
-1.1902920208
 10
-92.5693987217
 20
-1.2141491015
 10
-92.5610673067
 20
-1.2309855967
  0
LINE
  5
2D8
100
AcDbEntity
  8
0
100
AcDbLine
 62
7
  6
CONTINUOUS
 10
-92.9149300224
 20
0.5094622732
 11
-92.9328689983
 21
0.6647068033
  0
LINE
  5
2D9
100
AcDbEntity
  8
0
100
AcDbLine
 62
7
  6
CONTINUOUS
 10
-92.7909405949
 20
-0.6576383487
 11
-92.808698603
 21
-0.5034719382
  0
LINE
  5
2DA
100
AcDbEntity
  8
0
100
AcDbLine
 62
7
  6
CONTINUOUS
 10
-92.8094156566
 20
0.6580095335
 11
-92.7916249326
 21
0.5035777364
  0
LINE
  5
2DB
100
AcDbEntity
  8
0
100
AcDbLine
 62
7
  6
CONTINUOUS
 10
-93.6090009036
 20
0.6545466204
 11
-93.5905675147
 21
0.4940614633
  0
LINE
  5
2DC
100
AcDbEntity
  8
0
100
AcDbLine
 62
7
  6
CONTINUOUS
 10
-93.4891665449
 20
-0.475308634
 11
-93.4707275445
 21
-0.6371754409
  0
LINE
  5
2DD
100
AcDbEntity
  8
0
100
AcDbLine
 62
7
  6
CONTINUOUS
 10
-92.6940272851
 20
-0.4308382464
 11
-92.6759215593
 21
-0.5927881493
  0
LINE
  5
2DE
100
AcDbEntity
  8
0
100
AcDbLine
 62
7
  6
CONTINUOUS
 10
-92.0966406508
 20
0.3408105533
 11
-92.1142746687
 21
0.5035777364
  0
LINE
  5
2DF
100
AcDbEntity
  8
0
100
AcDbLine
 62
7
  6
CONTINUOUS
 10
-91.9036118448
 20
-0.3413657732
 11
-91.8860120387
 21
-0.5037985026
  0
LINE
  5
2E0
100
AcDbEntity
  8
0
100
AcDbLine
 62
7
  6
CONTINUOUS
 10
-91.2086617814
 20
-0.5037985026
 11
-91.2262615874
 21
-0.3413657732
  0
LINE
  5
2E1
100
AcDbEntity
  8
0
100
AcDbLine
 62
7
  6
CONTINUOUS
 10
-91.1034777893
 20
-0.342631548
 11
-91.0855199409
 21
-0.5082162763
  0
LINE
  5
2E2
100
AcDbEntity
  8
0
100
AcDbLine
 62
7
  6
CONTINUOUS
 10
-91.191748117
 20
0.5046906633
 11
-91.1739797544
 21
0.3407115616
  0
LINE
  5
2E3
100
AcDbEntity
  8
0
100
AcDbLine
 62
7
  6
CONTINUOUS
 10
-90.408169677
 20
-0.5082162762
 11
-90.4261275257
 21
-0.342631548
  0
LINE
  5
2E4
100
AcDbEntity
  8
0
100
AcDbLine
 62
7
  6
CONTINUOUS
 10
-90.4966294922
 20
0.3407115616
 11
-90.5143978551
 21
0.5046906633
  0
LINE
  5
2E5
100
AcDbEntity
  8
0
100
AcDbLine
 62
7
  6
CONTINUOUS
 10
-90.3036204825
 20
-0.341290689
 11
-90.2860243596
 21
-0.5036940779
  0
LINE
  5
2E6
100
AcDbEntity
  8
0
100
AcDbLine
 62
7
  6
CONTINUOUS
 10
-92.0166770221
 20
-0.4308382464
 11
-92.0437354998
 21
-0.1736505305
  0
LINE
  5
2E7
100
AcDbEntity
  8
0
100
AcDbLine
 62
7
  6
CONTINUOUS
 10
-91.9836083207
 20
0.4305990794
 11
-91.9565638616
 21
0.1735345626
  0
LINE
  5
2E8
100
AcDbEntity
  8
0
100
AcDbLine
 62
7
  6
CONTINUOUS
 10
-91.2792136042
 20
0.1735345626
 11
-91.3062580632
 21
0.4305990794
  0
LINE
  5
2E9
100
AcDbEntity
  8
0
100
AcDbLine
 62
7
  6
CONTINUOUS
 10
-90.383612131
 20
0.4306284288
 11
-90.3565657458
 21
0.1735465734
  0
LINE
  5
2EA
100
AcDbEntity
  8
0
100
AcDbLine
 62
7
  6
CONTINUOUS
 10
-92.0437354998
 20
-0.1736505305
 11
-92.0966406508
 21
0.3408105533
  0
LINE
  5
2EB
100
AcDbEntity
  8
0
100
AcDbLine
 62
7
  6
CONTINUOUS
 10
-91.9565638616
 20
0.1735345626
 11
-91.9036118448
 21
-0.3413657732
  0
LINE
  5
2EC
100
AcDbEntity
  8
0
100
AcDbLine
 62
7
  6
CONTINUOUS
 10
-91.2262615874
 20
-0.3413657732
 11
-91.2792136042
 21
0.1735345626
  0
LINE
  5
2ED
100
AcDbEntity
  8
0
100
AcDbLine
 62
7
  6
CONTINUOUS
 10
-91.1739797544
 20
0.3407115616
 11
-91.1034777893
 21
-0.342631548
  0
LINE
  5
2EE
100
AcDbEntity
  8
0
100
AcDbLine
 62
7
  6
CONTINUOUS
 10
-90.4261275257
 20
-0.342631548
 11
-90.4966294922
 21
0.3407115616
  0
LINE
  5
2EF
100
AcDbEntity
  8
0
100
AcDbLine
 62
7
  6
CONTINUOUS
 10
-90.3565657458
 20
0.1735465734
 11
-90.3036204825
 21
-0.341290689
  0
LWPOLYLINE
  5
2F0
100
AcDbEntity
  8
0
100
AcDbPolyline
 62
7
  6
CONTINUOUS
 90
13
 70
0
 10
-89.9625420255
 20
-1.111398922
 10
-89.9539926428
 20
-1.1995933377
 10
-89.9454432601
 20
-1.2823812041
 10
-89.9368938774
 20
-1.3593893978
 10
-89.9283444947
 20
-1.4302708443
 10
-89.919795112
 20
-1.4947060826
 10
-89.9112457292
 20
-1.5524047042
 10
-89.9026963465
 20
-1.6031066629
 10
-89.8941469638
 20
-1.6465834461
 10
-89.8855975811
 20
-1.6826391049
 10
-89.8770481984
 20
-1.7111111375
 10
-89.8684988157
 20
-1.7318712212
 10
-89.866115014
 20
-1.7362712401
  0
LWPOLYLINE
  5
2F1
100
AcDbEntity
  8
0
100
AcDbPolyline
 62
7
  6
CONTINUOUS
 90
15
 70
0
 10
-89.8625420255
 20
-1.111398922
 10
-89.8539926428
 20
-1.1995933377
 10
-89.8454432601
 20
-1.2823812041
 10
-89.8368938774
 20
-1.3593893978
 10
-89.8283444947
 20
-1.4302708443
 10
-89.819795112
 20
-1.4947060826
 10
-89.8112457292
 20
-1.5524047042
 10
-89.8026963465
 20
-1.6031066629
 10
-89.7941469638
 20
-1.6465834461
 10
-89.7855975811
 20
-1.6826391049
 10
-89.7770481984
 20
-1.7111111375
 10
-89.7684988157
 20
-1.7318712212
 10
-89.7599494329
 20
-1.744825791
 10
-89.7514000502
 20
-1.7499164613
 10
-89.7501559981
 20
-1.7499999949
  0
LWPOLYLINE
  5
2F2
100
AcDbEntity
  8
0
100
AcDbPolyline
 62
7
  6
CONTINUOUS
 90
15
 70
0
 10
-92.2649185687
 20
-1.0859740451
 10
-92.256369186
 20
-1.1756017932
 10
-92.2478198033
 20
-1.2599311276
 10
-92.2392704206
 20
-1.3385819778
 10
-92.2307210379
 20
-1.4111998662
 10
-92.2221716552
 20
-1.4774575056
 10
-92.2136222724
 20
-1.5370562744
 10
-92.2050728897
 20
-1.5897275623
 10
-92.196523507
 20
-1.6352339812
 10
-92.1879741243
 20
-1.6733704346
 10
-92.1794247416
 20
-1.7039650427
 10
-92.1708753589
 20
-1.7268799162
 10
-92.1623259762
 20
-1.7420117785
 10
-92.1537765934
 20
-1.7492924308
 10
-92.1501558095
 20
-1.7499999906
  0
LWPOLYLINE
  5
2F3
100
AcDbEntity
  8
0
100
AcDbPolyline
 62
7
  6
CONTINUOUS
 90
13
 70
0
 10
-90.7661840008
 20
-1.0722763532
 10
-90.7576346181
 20
-1.162655023
 10
-90.7490852354
 20
-1.2477936156
 10
-90.7405358527
 20
-1.3273084116
 10
-90.73198647
 20
-1.4008410378
 10
-90.7234370873
 20
-1.4680600825
 10
-90.7148877045
 20
-1.5286625893
 10
-90.7063383218
 20
-1.5823754225
 10
-90.6977889391
 20
-1.6289564981
 10
-90.6892395564
 20
-1.6681958747
 10
-90.6806901737
 20
-1.6999167002
 10
-90.672140791
 20
-1.7239760081
 10
-90.6661144707
 20
-1.7362712852
  0
LWPOLYLINE
  5
2F4
100
AcDbEntity
  8
0
100
AcDbPolyline
 62
7
  6
CONTINUOUS
 90
15
 70
0
 10
-90.6661840008
 20
-1.0722763532
 10
-90.6576346181
 20
-1.162655023
 10
-90.6490852354
 20
-1.2477936156
 10
-90.6405358527
 20
-1.3273084116
 10
-90.63198647
 20
-1.4008410378
 10
-90.6234370873
 20
-1.4680600825
 10
-90.6148877045
 20
-1.5286625893
 10
-90.6063383218
 20
-1.5823754225
 10
-90.5977889391
 20
-1.6289564981
 10
-90.5892395564
 20
-1.6681958747
 10
-90.5806901737
 20
-1.6999167002
 10
-90.572140791
 20
-1.7239760081
 10
-90.5635914083
 20
-1.7402653627
 10
-90.5550420255
 20
-1.7487113473
 10
-90.5501555048
 20
-1.7499999979
  0
LWPOLYLINE
  5
2F5
100
AcDbEntity
  8
0
100
AcDbPolyline
 62
7
  6
CONTINUOUS
 90
14
 70
0
 10
-91.5698259762
 20
-1.032282749
 10
-91.5612765934
 20
-1.1247711299
 10
-91.5527272107
 20
-1.212190191
 10
-91.544177828
 20
-1.2941459363
 10
-91.5356284453
 20
-1.3702689927
 10
-91.5270790626
 20
-1.440216275
 10
-91.5185296799
 20
-1.503672532
 10
-91.5099802971
 20
-1.5603517676
 10
-91.5014309144
 20
-1.6099985292
 10
-91.4928815317
 20
-1.6523890598
 10
-91.484332149
 20
-1.6873323058
 10
-91.4757827663
 20
-1.7146707785
 10
-91.4672333836
 20
-1.7342812637
 10
-91.4661142684
 20
-1.7362712245
  0
LWPOLYLINE
  5
2F6
100
AcDbEntity
  8
0
100
AcDbPolyline
 62
7
  6
CONTINUOUS
 90
15
 70
0
 10
-91.4698259762
 20
-1.032282749
 10
-91.4612765934
 20
-1.1247711299
 10
-91.4527272107
 20
-1.212190191
 10
-91.444177828
 20
-1.2941459363
 10
-91.4356284453
 20
-1.3702689927
 10
-91.4270790626
 20
-1.440216275
 10
-91.4185296799
 20
-1.503672532
 10
-91.4099802971
 20
-1.5603517676
 10
-91.4014309144
 20
-1.6099985292
 10
-91.3928815317
 20
-1.6523890598
 10
-91.384332149
 20
-1.6873323058
 10
-91.3757827663
 20
-1.7146707785
 10
-91.3672333836
 20
-1.7342812637
 10
-91.3586840008
 20
-1.7460753771
 10
-91.3501552455
 20
-1.7499999855
  0
LINE
  5
2F7
100
AcDbEntity
  8
0
100
AcDbLine
 62
7
  6
CONTINUOUS
 10
-89.979640791
 20
-0.9204029802
 11
-89.9625420255
 21
-1.111398922
  0
LINE
  5
2F8
100
AcDbEntity
  8
0
100
AcDbLine
 62
7
  6
CONTINUOUS
 10
-89.879640791
 20
-0.9204029802
 11
-89.8625420255
 21
-1.111398922
  0
LINE
  5
2F9
100
AcDbEntity
  8
0
100
AcDbLine
 62
7
  6
CONTINUOUS
 10
-90.9371716552
 20
1.1050423662
 11
-90.9200728897
 21
0.9134071377
  0
LINE
  5
2FA
100
AcDbEntity
  8
0
100
AcDbLine
 62
7
  6
CONTINUOUS
 10
-90.8371716552
 20
1.1050423662
 11
-90.8200728897
 21
0.9134071377
  0
LINE
  5
2FB
100
AcDbEntity
  8
0
100
AcDbLine
 62
7
  6
CONTINUOUS
 10
-92.4359062231
 20
1.0914936083
 11
-92.4188074576
 21
0.8985182502
  0
LINE
  5
2FC
100
AcDbEntity
  8
0
100
AcDbLine
 62
7
  6
CONTINUOUS
 10
-92.2820173342
 20
-0.8924611678
 11
-92.2649185687
 21
-1.0859740451
  0
LINE
  5
2FD
100
AcDbEntity
  8
0
100
AcDbLine
 62
7
  6
CONTINUOUS
 10
-90.7832827663
 20
-0.8774499094
 11
-90.7661840008
 21
-1.0722763532
  0
LINE
  5
2FE
100
AcDbEntity
  8
0
100
AcDbLine
 62
7
  6
CONTINUOUS
 10
-90.6832827663
 20
-0.8774499094
 11
-90.6661840008
 21
-1.0722763532
  0
LINE
  5
2FF
100
AcDbEntity
  8
0
100
AcDbLine
 62
7
  6
CONTINUOUS
 10
-90.1335296799
 20
1.0657723838
 11
-90.1164309144
 21
0.8703327507
  0
LINE
  5
300
100
AcDbEntity
  8
0
100
AcDbLine
 62
7
  6
CONTINUOUS
 10
-90.0335296799
 20
1.0657723838
 11
-90.0164309144
 21
0.8703327507
  0
LINE
  5
301
100
AcDbEntity
  8
0
100
AcDbLine
 62
7
  6
CONTINUOUS
 10
-91.7322642478
 20
1.051931205
 11
-91.7151654823
 21
0.8552080323
  0
LINE
  5
302
100
AcDbEntity
  8
0
100
AcDbLine
 62
7
  6
CONTINUOUS
 10
-91.6322642478
 20
1.051931205
 11
-91.6151654823
 21
0.8552080323
  0
LINE
  5
303
100
AcDbEntity
  8
0
100
AcDbLine
 62
7
  6
CONTINUOUS
 10
-91.5869247416
 20
-0.8337863698
 11
-91.5698259762
 21
-1.032282749
  0
LINE
  5
304
100
AcDbEntity
  8
0
100
AcDbLine
 62
7
  6
CONTINUOUS
 10
-91.4869247416
 20
-0.8337863698
 11
-91.4698259762
 21
-1.032282749
  0
LINE
  5
305
100
AcDbEntity
  8
0
100
AcDbLine
 62
7
  6
CONTINUOUS
 10
-89.9967395564
 20
-0.7128327602
 11
-89.979640791
 21
-0.9204029802
  0
LINE
  5
306
100
AcDbEntity
  8
0
100
AcDbLine
 62
7
  6
CONTINUOUS
 10
-89.8967395564
 20
-0.7128327602
 11
-89.879640791
 21
-0.9204029802
  0
LINE
  5
307
100
AcDbEntity
  8
0
100
AcDbLine
 62
7
  6
CONTINUOUS
 10
-90.9200728897
 20
0.9134071377
 11
-90.9029741243
 21
0.7053235868
  0
LINE
  5
308
100
AcDbEntity
  8
0
100
AcDbLine
 62
7
  6
CONTINUOUS
 10
-90.8200728897
 20
0.9134071377
 11
-90.8029741243
 21
0.7053235868
  0
LINE
  5
309
100
AcDbEntity
  8
0
100
AcDbLine
 62
7
  6
CONTINUOUS
 10
-92.4188074576
 20
0.8985182502
 11
-92.4017086922
 21
0.6893627292
  0
LINE
  5
30A
100
AcDbEntity
  8
0
100
AcDbLine
 62
7
  6
CONTINUOUS
 10
-92.2991160996
 20
-0.6828771982
 11
-92.2820173342
 21
-0.8924611678
  0
LINE
  5
30B
100
AcDbEntity
  8
0
100
AcDbLine
 62
7
  6
CONTINUOUS
 10
-90.8003815317
 20
-0.6668226554
 11
-90.7832827663
 21
-0.8774499094
  0
LINE
  5
30C
100
AcDbEntity
  8
0
100
AcDbLine
 62
7
  6
CONTINUOUS
 10
-90.7003815317
 20
-0.6668226554
 11
-90.6832827663
 21
-0.8774499094
  0
LINE
  5
30D
100
AcDbEntity
  8
0
100
AcDbLine
 62
7
  6
CONTINUOUS
 10
-90.1164309144
 20
0.8703327507
 11
-90.099332149
 21
0.6592204907
  0
LINE
  5
30E
100
AcDbEntity
  8
0
100
AcDbLine
 62
7
  6
CONTINUOUS
 10
-90.0164309144
 20
0.8703327507
 11
-89.999332149
 21
0.6592204907
  0
LINE
  5
30F
100
AcDbEntity
  8
0
100
AcDbLine
 62
7
  6
CONTINUOUS
 10
-91.7151654823
 20
0.8552080323
 11
-91.6980667169
 21
0.6430846123
  0
LINE
  5
310
100
AcDbEntity
  8
0
100
AcDbLine
 62
7
  6
CONTINUOUS
 10
-91.6151654823
 20
0.8552080323
 11
-91.5980667169
 21
0.6430846123
  0
LINE
  5
311
100
AcDbEntity
  8
0
100
AcDbLine
 62
7
  6
CONTINUOUS
 10
-91.604023507
 20
-0.6202754985
 11
-91.5869247416
 21
-0.8337863698
  0
LINE
  5
312
100
AcDbEntity
  8
0
100
AcDbLine
 62
7
  6
CONTINUOUS
 10
-91.504023507
 20
-0.6202754985
 11
-91.4869247416
 21
-0.8337863698
  0
LINE
  5
313
100
AcDbEntity
  8
0
100
AcDbLine
 62
7
  6
CONTINUOUS
 10
-90.9029741243
 20
0.7053235868
 11
-90.8773259762
 21
0.3706188982
  0
LINE
  5
314
100
AcDbEntity
  8
0
100
AcDbLine
 62
7
  6
CONTINUOUS
 10
-90.8029741243
 20
0.7053235868
 11
-90.7773259762
 21
0.3706188982
  0
LINE
  5
315
100
AcDbEntity
  8
0
100
AcDbLine
 62
7
  6
CONTINUOUS
 10
-90.0223877045
 20
-0.3786423324
 11
-89.9967395564
 21
-0.7128327602
  0
LINE
  5
316
100
AcDbEntity
  8
0
100
AcDbLine
 62
7
  6
CONTINUOUS
 10
-89.9223877045
 20
-0.3786423324
 11
-89.8967395564
 21
-0.7128327602
  0
LINE
  5
317
100
AcDbEntity
  8
0
100
AcDbLine
 62
7
  6
CONTINUOUS
 10
-92.4017086922
 20
0.6893627292
 11
-92.3760605441
 21
0.3535936924
  0
LINE
  5
318
100
AcDbEntity
  8
0
100
AcDbLine
 62
7
  6
CONTINUOUS
 10
-92.3333136305
 20
-0.2308138403
 11
-92.2991160996
 21
-0.6828771982
  0
LINE
  5
319
100
AcDbEntity
  8
0
100
AcDbLine
 62
7
  6
CONTINUOUS
 10
-90.8345790626
 20
-0.2135535738
 11
-90.8003815317
 21
-0.6668226554
  0
LINE
  5
31A
100
AcDbEntity
  8
0
100
AcDbLine
 62
7
  6
CONTINUOUS
 10
-90.7345790626
 20
-0.2135535738
 11
-90.7003815317
 21
-0.6668226554
  0
LINE
  5
31B
100
AcDbEntity
  8
0
100
AcDbLine
 62
7
  6
CONTINUOUS
 10
-90.099332149
 20
0.6592204907
 11
-90.0651346181
 21
0.205398393
  0
LINE
  5
31C
100
AcDbEntity
  8
0
100
AcDbLine
 62
7
  6
CONTINUOUS
 10
-89.999332149
 20
0.6592204907
 11
-89.9651346181
 21
0.205398393
  0
LINE
  5
31D
100
AcDbEntity
  8
0
100
AcDbLine
 62
7
  6
CONTINUOUS
 10
-91.6980667169
 20
0.6430846123
 11
-91.663869186
 21
0.1881248996
  0
LINE
  5
31E
100
AcDbEntity
  8
0
100
AcDbLine
 62
7
  6
CONTINUOUS
 10
-91.5980667169
 20
0.6430846123
 11
-91.563869186
 21
0.1881248996
  0
LINE
  5
31F
100
AcDbEntity
  8
0
100
AcDbLine
 62
7
  6
CONTINUOUS
 10
-92.3760605441
 20
0.3535936924
 11
-92.3333136305
 21
-0.2308138403
  0
LINE
  5
320
100
AcDbEntity
  8
0
100
AcDbLine
 62
7
  6
CONTINUOUS
 10
-91.663869186
 20
0.1881248996
 11
-91.604023507
 21
-0.6202754985
  0
LINE
  5
321
100
AcDbEntity
  8
0
100
AcDbLine
 62
7
  6
CONTINUOUS
 10
-91.563869186
 20
0.1881248996
 11
-91.504023507
 21
-0.6202754985
  0
LINE
  5
322
100
AcDbEntity
  8
0
100
AcDbLine
 62
7
  6
CONTINUOUS
 10
-90.8773259762
 20
0.3706188982
 11
-90.8345790626
 21
-0.2135535738
  0
LINE
  5
323
100
AcDbEntity
  8
0
100
AcDbLine
 62
7
  6
CONTINUOUS
 10
-90.7773259762
 20
0.3706188982
 11
-90.7345790626
 21
-0.2135535738
  0
LINE
  5
324
100
AcDbEntity
  8
0
100
AcDbLine
 62
7
  6
CONTINUOUS
 10
-90.0651346181
 20
0.205398393
 11
-90.0223877045
 21
-0.3786423324
  0
LINE
  5
325
100
AcDbEntity
  8
0
100
AcDbLine
 62
7
  6
CONTINUOUS
 10
-89.9651346181
 20
0.205398393
 11
-89.9223877045
 21
-0.3786423324
  0
LINE
  5
326
100
AcDbEntity
  8
DRAFT
100
AcDbLine
 62
7
  6
CONTINUOUS
 10
-90.2366469638
 20
27.8777773068
 11
-90.2366469638
 21
9.3777773068
  0
LINE
  5
327
100
AcDbEntity
  8
RACCORDO
100
AcDbLine
 62
7
  6
CONTINUOUS
 10
-90.2366469638
 20
9.3777773068
 11
-90.2366469638
 21
8.0349265096
  0
LINE
  5
328
100
AcDbEntity
  8
RACCORDO
100
AcDbLine
 62
7
  6
CONTINUOUS
 10
-90.2366469638
 20
-8.0349265096
 11
-90.2366469638
 21
-9.3777773068
  0
LINE
  5
329
100
AcDbEntity
  8
DRAFT
100
AcDbLine
 62
7
  6
CONTINUOUS
 10
-90.2366469638
 20
-9.3777773068
 11
-90.2366469638
 21
-27.8777773068
  0
LINE
  5
32A
100
AcDbEntity
  8
0
100
AcDbLine
 62
7
  6
CONTINUOUS
 10
-93.7521170176
 20
-1.45
 11
-93.6366469638
 21
-1.25
  0
LINE
  5
32B
100
AcDbEntity
  8
0
100
AcDbLine
 62
7
  6
CONTINUOUS
 10
-91.8661145361
 20
1.7362712176
 11
-92.1470884866
 21
1.2548356464
  0
LINE
  5
32C
100
AcDbEntity
  8
0
100
AcDbLine
 62
7
  6
CONTINUOUS
 10
-91.0661141939
 20
1.7362712465
 11
-91.3470881609
 21
1.2548356366
  0
LINE
  5
32D
100
AcDbEntity
  8
0
100
AcDbLine
 62
7
  6
CONTINUOUS
 10
-90.2661149407
 20
1.736271267
 11
-90.5470889176
 21
1.2548356332
  0
LINE
  5
32E
100
AcDbEntity
  8
0
100
AcDbLine
 62
7
  6
CONTINUOUS
 10
-89.4661148188
 20
1.736271223
 11
-89.7470887718
 21
1.2548356458
  0
LINE
  5
32F
100
AcDbEntity
  8
0
100
AcDbLine
 62
7
  6
CONTINUOUS
 10
-92.9341968436
 20
-1.7362710929
 11
-92.6532223577
 21
-1.2548362856
  0
LINE
  5
330
100
AcDbEntity
  8
0
100
AcDbLine
 62
7
  6
CONTINUOUS
 10
-92.1341966778
 20
-1.7362710491
 11
-91.8532222158
 21
-1.2548362983
  0
LINE
  5
331
100
AcDbEntity
  8
0
100
AcDbLine
 62
7
  6
CONTINUOUS
 10
-91.3341961222
 20
-1.7362710514
 11
-91.0532216583
 21
-1.2548362958
  0
LWPOLYLINE
  5
332
100
AcDbEntity
  8
0
100
AcDbPolyline
 62
7
  6
CONTINUOUS
 90
4
 70
0
 10
-90.2661149407
 20
1.736271267
 10
-90.2617704206
 20
1.7427241131
 10
-90.2532210379
 20
1.7494929465
 10
-90.2501559517
 20
1.7499999987
  0
LWPOLYLINE
  5
333
100
AcDbEntity
  8
0
100
AcDbPolyline
 62
7
  6
CONTINUOUS
 90
4
 70
0
 10
-91.8661145361
 20
1.7362712176
 10
-91.8605049885
 20
1.7442218811
 10
-91.8519556058
 20
1.749825093
 10
-91.8501555035
 20
1.7499999868
  0
LWPOLYLINE
  5
334
100
AcDbEntity
  8
0
100
AcDbPolyline
 62
7
  6
CONTINUOUS
 90
3
 70
0
 10
-89.4661148188
 20
1.736271223
 10
-89.4581284453
 20
1.7465703273
 10
-89.4501557884
 20
1.7499999903
  0
LWPOLYLINE
  5
335
100
AcDbEntity
  8
0
100
AcDbPolyline
 62
7
  6
CONTINUOUS
 90
3
 70
0
 10
-91.0661141939
 20
1.7362712465
 10
-91.0568630132
 20
1.7475719792
 10
-91.0501551933
 20
1.7499999886
  0
LWPOLYLINE
  5
336
100
AcDbEntity
  8
0
100
AcDbPolyline
 62
7
  6
CONTINUOUS
 90
4
 70
0
 10
-80.950155722
 20
-1.7499999893
 10
-80.9455358527
 20
-1.7488481314
 10
-80.93698647
 20
-1.7406476088
 10
-80.9341982562
 20
-1.7362739116
  0
LWPOLYLINE
  5
337
100
AcDbEntity
  8
0
100
AcDbPolyline
 62
7
  6
CONTINUOUS
 90
4
 70
0
 10
-79.3596571936
 20
-1.6982704216
 10
-79.3569197322
 20
-1.6978739578
 10
-79.3486318603
 20
-1.691863689
 10
-79.3431282747
 20
-1.6839132161
  0
LWPOLYLINE
  5
338
100
AcDbEntity
  8
RACCORDO
100
AcDbPolyline
 62
7
  6
CONTINUOUS
 90
19
 70
0
 10
-94.5418826857
 20
-3.6620092134
 10
-94.5170428231
 20
-3.6617451775
 10
-94.4921743322
 20
-3.6605199079
 10
-94.4674544836
 20
-3.6583334047
 10
-94.4430818863
 20
-3.6551823737
 10
-94.4192242064
 20
-3.651070109
 10
-94.3960220067
 20
-3.6460064934
 10
-94.3736486304
 20
-3.6399650827
 10
-94.3523230442
 20
-3.6329723209
 10
-94.3322569288
 20
-3.6251174234
 10
-94.3136505677
 20
-3.6163803798
 10
-94.2966720315
 20
-3.6067812004
 10
-94.2814795591
 20
-3.5964691317
 10
-94.2682331936
 20
-3.5854050766
 10
-94.2571130997
 20
-3.5736281321
 10
-94.2482842781
 20
-3.5614048364
 10
-94.241869618
 20
-3.5488240354
 10
-94.2379634812
 20
-3.5357968832
 10
-94.2366469638
 20
-3.5223233797
  0
LINE
  5
339
100
AcDbEntity
  8
RACCORDO
100
AcDbLine
 62
7
  6
CONTINUOUS
 10
-94.5471168128
 20
-3.6620070586
 11
-94.5418826857
 21
-3.6620092134
  0
LINE
  5
33A
100
AcDbEntity
  8
RACCORDO
100
AcDbLine
 62
7
  6
CONTINUOUS
 10
-95.9418826857
 20
-3.6717284378
 11
-95.9471168128
 21
-3.6717039666
  0
LWPOLYLINE
  5
33B
100
AcDbEntity
  8
RACCORDO
100
AcDbPolyline
 62
7
  6
CONTINUOUS
 90
16
 70
0
 10
-95.9471168128
 20
-3.6717039666
 10
-95.9710164157
 20
-3.6708820322
 10
-95.9948721795
 20
-3.6691540773
 10
-96.0185229003
 20
-3.6665201018
 10
-96.0417945634
 20
-3.6629747307
 10
-96.0645271513
 20
-3.6585233391
 10
-96.0865730015
 20
-3.6531820523
 10
-96.1077677778
 20
-3.6469278375
 10
-96.1279234823
 20
-3.6397837276
 10
-96.1468559173
 20
-3.6318349461
 10
-96.1643860904
 20
-3.6230636757
 10
-96.1803607675
 20
-3.6134877337
 10
-96.1946376142
 20
-3.6032457958
 10
-96.2070748041
 20
-3.5922987218
 10
-96.2175049918
 20
-3.5806856519
 10
-96.2257729929
 20
-3.5686626817
  0
LINE
  5
33C
100
AcDbEntity
  8
0
100
AcDbLine
 62
7
  6
CONTINUOUS
 10
-92.9679718292
 20
0.9277785662
 11
-93.2566469638
 21
1.2988899927
  0
LWPOLYLINE
  5
33D
100
AcDbEntity
  8
0
100
AcDbPolyline
 62
7
  6
CONTINUOUS
 90
3
 70
0
 10
-91.4661142684
 20
-1.7362712245
 10
-91.4586840008
 20
-1.7460753771
 10
-91.4501552455
 20
-1.7499999855
  0
LWPOLYLINE
  5
33E
100
AcDbEntity
  8
0
100
AcDbPolyline
 62
7
  6
CONTINUOUS
 90
4
 70
0
 10
-89.866115014
 20
-1.7362712401
 10
-89.8599494329
 20
-1.744825791
 10
-89.8514000502
 20
-1.7499164613
 10
-89.8501559981
 20
-1.7499999949
  0
LWPOLYLINE
  5
33F
100
AcDbEntity
  8
0
100
AcDbPolyline
 62
7
  6
CONTINUOUS
 90
4
 70
0
 10
-90.6661144707
 20
-1.7362712852
 10
-90.6635914083
 20
-1.7402653627
 10
-90.6550420255
 20
-1.7487113473
 10
-90.6501555048
 20
-1.7499999979
  0
LINE
  5
340
100
AcDbEntity
  8
0
100
AcDbLine
 62
7
  6
CONTINUOUS
 10
-93.0686102244
 20
1.178772679
 11
-93.1430312632
 21
1.3009083024
  0
LWPOLYLINE
  5
341
100
AcDbEntity
  8
0
100
AcDbPolyline
 62
7
  6
CONTINUOUS
 90
4
 70
0
 10
-89.0661145128
 20
-1.7362712176
 10
-89.0648568404
 20
-1.7383474732
 10
-89.0563074576
 20
-1.7479576276
 10
-89.0501554805
 20
-1.7499999866
  0
LINE
  5
342
100
AcDbEntity
  8
0
100
AcDbLine
 62
7
  6
CONTINUOUS
 10
-93.1430312632
 20
1.3009083024
 11
-93.2564752574
 21
1.4889461983
  0
LINE
  5
343
100
AcDbEntity
  8
0
100
AcDbLine
 62
7
  6
CONTINUOUS
 10
-93.2564752574
 20
1.4889461983
 11
-93.3168183225
 21
1.5896883584
  0
LINE
  5
344
100
AcDbEntity
  8
0
100
AcDbLine
 62
7
  6
CONTINUOUS
 10
-91.7610667313
 20
-1.2309856043
 11
-91.4661142684
 21
-1.7362712245
  0
LINE
  5
345
100
AcDbEntity
  8
0
100
AcDbLine
 62
7
  6
CONTINUOUS
 10
-90.961066917
 20
-1.2309856705
 11
-90.6661144707
 21
-1.7362712852
  0
LINE
  5
346
100
AcDbEntity
  8
0
100
AcDbLine
 62
7
  6
CONTINUOUS
 10
-92.2392443778
 20
1.2309853606
 11
-92.5341968884
 21
1.7362710661
  0
LINE
  5
347
100
AcDbEntity
  8
0
100
AcDbLine
 62
7
  6
CONTINUOUS
 10
-90.1610674778
 20
-1.2309856131
 11
-89.866115014
 21
-1.7362712401
  0
LINE
  5
348
100
AcDbEntity
  8
0
100
AcDbLine
 62
7
  6
CONTINUOUS
 10
-91.4392438567
 20
1.2309853419
 11
-91.7341963698
 21
1.7362710436
  0
LINE
  5
349
100
AcDbEntity
  8
0
100
AcDbLine
 62
7
  6
CONTINUOUS
 10
-89.3610669797
 20
-1.2309855935
 11
-89.0661145128
 21
-1.7362712176
  0
LINE
  5
34A
100
AcDbEntity
  8
0
100
AcDbLine
 62
7
  6
CONTINUOUS
 10
-93.7521170176
 20
1.45
 11
-93.6409845311
 21
1.2575128869
  0
LINE
  5
34B
100
AcDbEntity
  8
0
100
AcDbLine
 62
7
  6
CONTINUOUS
 10
-90.934196093
 20
1.7362710743
 11
-90.931214865
 21
1.7306730953
  0
LWPOLYLINE
  5
34C
100
AcDbEntity
  8
0
100
AcDbPolyline
 62
7
  6
CONTINUOUS
 90
9
 70
0
 10
-93.3168183225
 20
1.5896883584
 10
-93.3127782405
 20
1.5820711194
 10
-93.3047594867
 20
1.5618500125
 10
-93.2967407328
 20
1.5348258696
 10
-93.288721979
 20
1.5010039411
 10
-93.2807032252
 20
1.4604192549
 10
-93.2726844714
 20
1.4131368697
 10
-93.2646657176
 20
1.3592519978
 10
-93.2566469638
 20
1.2988899927
  0
LINE
  5
34D
100
AcDbEntity
  8
0
100
AcDbLine
 62
7
  6
CONTINUOUS
 10
-92.5341968884
 20
1.7362710661
 11
-92.5299494329
 21
1.7280081739
  0
LWPOLYLINE
  5
34E
100
AcDbEntity
  8
0
100
AcDbPolyline
 62
7
  6
CONTINUOUS
 90
13
 70
0
 10
-91.7341963698
 20
1.7362710436
 10
-91.7263074576
 20
1.7193928495
 10
-91.7177580749
 20
1.6936538951
 10
-91.7092086922
 20
1.6602816796
 10
-91.7006593095
 20
1.619426611
 10
-91.6921099268
 20
1.5712728219
 10
-91.6835605441
 20
1.5160373405
 10
-91.6750111613
 20
1.4539691116
 10
-91.6664617786
 20
1.3853478754
 10
-91.6579123959
 20
1.3104829062
 10
-91.6493630132
 20
1.2297116187
 10
-91.6408136305
 20
1.1433980471
 10
-91.6322642478
 20
1.051931205
  0
LWPOLYLINE
  5
34F
100
AcDbEntity
  8
0
100
AcDbPolyline
 62
7
  6
CONTINUOUS
 90
12
 70
0
 10
-90.931214865
 20
1.7306730953
 10
-90.9226654823
 20
1.7093705592
 10
-90.9141160996
 20
1.6803639103
 10
-90.9055667169
 20
1.6437838808
 10
-90.8970173342
 20
1.5997953361
 10
-90.8884679515
 20
1.5485965315
 10
-90.8799185687
 20
1.490418219
 10
-90.871369186
 20
1.4255226071
 10
-90.8628198033
 20
1.3542021793
 10
-90.8542704206
 20
1.2767783754
 10
-90.8457210379
 20
1.1936001434
 10
-90.8371716552
 20
1.1050423662
  0
LWPOLYLINE
  5
350
100
AcDbEntity
  8
0
100
AcDbPolyline
 62
7
  6
CONTINUOUS
 90
12
 70
0
 10
-92.5299494329
 20
1.7280081739
 10
-92.5214000502
 20
1.7055577097
 10
-92.5128506675
 20
1.6754203271
 10
-92.5043012848
 20
1.6377318553
 10
-92.4957519021
 20
1.5926621556
 10
-92.4872025194
 20
1.5404143568
 10
-92.4786531366
 20
1.481223939
 10
-92.4701037539
 20
1.4153576726
 10
-92.4615543712
 20
1.3431124159
 10
-92.4530049885
 20
1.2648137771
 10
-92.4444556058
 20
1.180814647
 10
-92.4359062231
 20
1.0914936083
  0
LWPOLYLINE
  5
351
100
AcDbEntity
  8
0
100
AcDbPolyline
 62
7
  6
CONTINUOUS
 90
14
 70
0
 10
-91.0676261951
 20
-0.6631747027
 10
-91.0587573508
 20
-0.7353124031
 10
-91.0499957581
 20
-0.8030772602
 10
-91.0413050356
 20
-0.8665394982
 10
-91.0326325928
 20
-0.9258455362
 10
-91.0239805847
 20
-0.9807334774
 10
-91.0153468563
 20
-1.0309930829
 10
-91.0066723528
 20
-1.0767173078
 10
-90.9979257214
 20
-1.1177629135
 10
-90.9891383148
 20
-1.1536898643
 10
-90.980345136
 20
-1.1841418503
 10
-90.9715450219
 20
-1.2089656238
 10
-90.9627391356
 20
-1.228027018
 10
-90.961066917
 20
-1.2309856705
  0
LWPOLYLINE
  5
352
100
AcDbEntity
  8
0
100
AcDbPolyline
 62
7
  6
CONTINUOUS
 90
13
 70
0
 10
-90.5322718296
 20
0.6597377939
 10
-90.5411809125
 20
0.7323531531
 10
-90.5500149065
 20
0.8008184411
 10
-90.5588113505
 20
0.8651641959
 10
-90.5676260191
 20
0.925502407
 10
-90.5764826255
 20
0.9816615532
 10
-90.5853574564
 20
1.0331735198
 10
-90.5942351473
 20
1.0796820145
 10
-90.603123409
 20
1.1209895627
 10
-90.6120145306
 20
1.1568471634
 10
-90.6208700142
 20
1.1869562216
 10
-90.6296631227
 20
1.2111746179
 10
-90.6392435923
 20
1.2309853814
  0
LWPOLYLINE
  5
353
100
AcDbEntity
  8
0
100
AcDbPolyline
 62
7
  6
CONTINUOUS
 90
13
 70
0
 10
-92.1320653925
 20
0.6580095335
 10
-92.1409500165
 20
0.730509162
 10
-92.1497746861
 20
0.7990006713
 10
-92.1585749898
 20
0.8634826049
 10
-92.1674060701
 20
0.9240446486
 10
-92.1762913852
 20
0.9804935308
 10
-92.185207477
 20
1.0323397897
 10
-92.1941391146
 20
1.0792027969
 10
-92.203101565
 20
1.1208912929
 10
-92.2120795612
 20
1.1570859522
 10
-92.2210120713
 20
1.1873903869
 10
-92.2298663258
 20
1.211664507
 10
-92.2392443778
 20
1.2309853606
  0
LWPOLYLINE
  5
354
100
AcDbEntity
  8
0
100
AcDbPolyline
 62
7
  6
CONTINUOUS
 90
13
 70
0
 10
-91.8683667303
 20
-0.6570004987
 10
-91.8595458885
 20
-0.7290375222
 10
-91.8507528057
 20
-0.7973670457
 10
-91.8419653015
 20
-0.8618554694
 10
-91.8331299465
 20
-0.9225572699
 10
-91.8242237644
 20
-0.9792507423
 10
-91.8152697314
 20
-1.0314203
 10
-91.8062833467
 20
-1.0786515319
 10
-91.7972476227
 20
-1.1207264345
 10
-91.7881795469
 20
-1.1572795551
 10
-91.7791455808
 20
-1.1878607987
 10
-91.7701633389
 20
-1.2123409361
 10
-91.7610667313
 20
-1.2309856043
  0
LWPOLYLINE
  5
355
100
AcDbEntity
  8
0
100
AcDbPolyline
 62
7
  6
CONTINUOUS
 90
13
 70
0
 10
-90.2683631967
 20
-0.6570359316
 10
-90.2595345895
 20
-0.729133318
 10
-90.2507374206
 20
-0.7974887912
 10
-90.2419476916
 20
-0.861985819
 10
-90.2331117785
 20
-0.9226824245
 10
-90.2242066259
 20
-0.9793597649
 10
-90.2152552891
 20
-1.0315044653
 10
-90.2062733105
 20
-1.0787049789
 10
-90.1972437631
 20
-1.1207464367
 10
-90.1881835739
 20
-1.1572673731
 10
-90.1791590657
 20
-1.187821854
 10
-90.1701894578
 20
-1.2122802367
 10
-90.1610674778
 20
-1.2309856131
  0
LWPOLYLINE
  5
356
100
AcDbEntity
  8
0
100
AcDbPolyline
 62
7
  6
CONTINUOUS
 90
14
 70
0
 10
-91.3243573542
 20
0.5925081934
 10
-91.3333810494
 20
0.6689607571
 10
-91.3423380816
 20
0.7415278893
 10
-91.3511760799
 20
0.8095367206
 10
-91.3599474152
 20
0.8731783964
 10
-91.36875792
 20
0.9329337507
 10
-91.3776424079
 20
0.988668333
 10
-91.3865660652
 20
1.0398044718
 10
-91.3955302841
 20
1.0860323209
 10
-91.4045577886
 20
1.1271478601
 10
-91.4136258547
 20
1.1627457535
 10
-91.4226677016
 20
1.1923710651
 10
-91.4316741766
 20
1.2159052088
 10
-91.4392438567
 20
1.2309853419
  0
LINE
  5
357
100
AcDbEntity
  8
0
100
AcDbLine
 62
7
  6
CONTINUOUS
 10
-91.0855199409
 20
-0.5082162763
 11
-91.0676261951
 21
-0.6631747027
  0
LINE
  5
358
100
AcDbEntity
  8
0
100
AcDbLine
 62
7
  6
CONTINUOUS
 10
-90.3902759307
 20
-0.6631747027
 11
-90.408169677
 21
-0.5082162762
  0
LINE
  5
359
100
AcDbEntity
  8
0
100
AcDbLine
 62
7
  6
CONTINUOUS
 10
-92.1142746687
 20
0.5035777364
 11
-92.1320653925
 21
0.6580095335
  0
LINE
  5
35A
100
AcDbEntity
  8
0
100
AcDbLine
 62
7
  6
CONTINUOUS
 10
-91.8860120387
 20
-0.5037985026
 11
-91.8683667303
 21
-0.6570004987
  0
LINE
  5
35B
100
AcDbEntity
  8
0
100
AcDbLine
 62
7
  6
CONTINUOUS
 10
-91.191016473
 20
-0.6570004987
 11
-91.2086617814
 21
-0.5037985026
  0
LINE
  5
35C
100
AcDbEntity
  8
0
100
AcDbLine
 62
7
  6
CONTINUOUS
 10
-91.2096220912
 20
0.6597377939
 11
-91.191748117
 21
0.5046906633
  0
LINE
  5
35D
100
AcDbEntity
  8
0
100
AcDbLine
 62
7
  6
CONTINUOUS
 10
-90.5143978551
 20
0.5046906633
 11
-90.5322718296
 21
0.6597377939
  0
LINE
  5
35E
100
AcDbEntity
  8
0
100
AcDbLine
 62
7
  6
CONTINUOUS
 10
-90.2860243596
 20
-0.5036940779
 11
-90.2683631967
 21
-0.6570359316
  0
LINE
  5
35F
100
AcDbEntity
  8
0
100
AcDbLine
 62
7
  6
CONTINUOUS
 10
-91.9985712965
 20
-0.5927881493
 11
-92.0166770221
 21
-0.4308382464
  0
LINE
  5
360
100
AcDbEntity
  8
0
100
AcDbLine
 62
7
  6
CONTINUOUS
 10
-92.0017076118
 20
0.5925081934
 11
-91.9836083207
 21
0.4305990794
  0
LINE
  5
361
100
AcDbEntity
  8
0
100
AcDbLine
 62
7
  6
CONTINUOUS
 10
-91.3062580632
 20
0.4305990794
 11
-91.3243573542
 21
0.5925081934
  0
LINE
  5
362
100
AcDbEntity
  8
0
100
AcDbLine
 62
7
  6
CONTINUOUS
 10
-90.401712939
 20
0.5925489767
 11
-90.383612131
 21
0.4306284288
  0
LINE
  5
363
100
AcDbEntity
  8
0
100
AcDbLine
 62
7
  6
CONTINUOUS
 10
-89.6086740933
 20
-0.5036940779
 11
-89.6262702161
 21
-0.341290689
  0
LINE
  5
364
100
AcDbEntity
  8
0
100
AcDbLine
 62
7
  6
CONTINUOUS
 10
-89.5917258659
 20
0.5044870332
 11
-89.5739789889
 21
0.3407006063
  0
LINE
  5
365
100
AcDbEntity
  8
0
100
AcDbLine
 62
7
  6
CONTINUOUS
 10
-88.8966287291
 20
0.3407006063
 11
-88.914375606
 21
0.5044870332
  0
LINE
  5
366
100
AcDbEntity
  8
0
100
AcDbLine
 62
7
  6
CONTINUOUS
 10
-88.703527581
 20
-0.3421600268
 11
-88.6858617564
 21
-0.5051470942
  0
LINE
  5
367
100
AcDbEntity
  8
0
100
AcDbLine
 62
7
  6
CONTINUOUS
 10
-88.0085114978
 20
-0.5051470942
 11
-88.0261773226
 21
-0.3421600268
  0
LINE
  5
368
100
AcDbEntity
  8
0
100
AcDbLine
 62
7
  6
CONTINUOUS
 10
-87.1035543224
 20
-0.3419141374
 11
-87.0859064387
 21
-0.5047520136
  0
LINE
  5
369
100
AcDbEntity
  8
0
100
AcDbLine
 62
7
  6
CONTINUOUS
 10
-87.986111963
 20
0.4535859133
 11
-87.9623960054
 21
0.2300311033
  0
LINE
  5
36A
100
AcDbEntity
  8
0
100
AcDbLine
 62
7
  6
CONTINUOUS
 10
-87.2850457364
 20
0.2300311033
 11
-87.308761694
 21
0.4535859133
  0
LINE
  5
36B
100
AcDbEntity
  8
0
100
AcDbLine
 62
7
  6
CONTINUOUS
 10
-89.6792154789
 20
0.1735465734
 11
-89.7062618639
 21
0.4306284288
  0
LINE
  5
36C
100
AcDbEntity
  8
0
100
AcDbLine
 62
7
  6
CONTINUOUS
 10
-89.5210751081
 20
-0.1737511935
 11
-89.4940009086
 21
-0.4310784855
  0
LINE
  5
36D
100
AcDbEntity
  8
0
100
AcDbLine
 62
7
  6
CONTINUOUS
 10
-88.8166506495
 20
-0.4310784855
 11
-88.8437248488
 21
-0.1737511935
  0
LINE
  5
36E
100
AcDbEntity
  8
0
100
AcDbLine
 62
7
  6
CONTINUOUS
 10
-88.783560477
 20
0.4301599606
 11
-88.7565717981
 21
0.173613551
  0
LINE
  5
36F
100
AcDbEntity
  8
0
100
AcDbLine
 62
7
  6
CONTINUOUS
 10
-88.07922154
 20
0.173613551
 11
-88.1062102191
 21
0.4301599607
  0
LINE
  5
370
100
AcDbEntity
  8
0
100
AcDbLine
 62
7
  6
CONTINUOUS
 10
-87.9210761018
 20
-0.1737436309
 11
-87.8940031272
 21
-0.4310604631
  0
LINE
  5
371
100
AcDbEntity
  8
0
100
AcDbLine
 62
7
  6
CONTINUOUS
 10
-87.2166528584
 20
-0.4310604632
 11
-87.2437258329
 21
-0.1737436309
  0
LINE
  5
372
100
AcDbEntity
  8
0
100
AcDbLine
 62
7
  6
CONTINUOUS
 10
-87.1835710227
 20
0.4302503515
 11
-87.1565713524
 21
0.1736021321
  0
LINE
  5
373
100
AcDbEntity
  8
0
100
AcDbLine
 62
7
  6
CONTINUOUS
 10
-89.6262702161
 20
-0.341290689
 11
-89.6792154789
 21
0.1735465734
  0
LINE
  5
374
100
AcDbEntity
  8
0
100
AcDbLine
 62
7
  6
CONTINUOUS
 10
-89.5739789889
 20
0.3407006063
 11
-89.5210751081
 21
-0.1737511935
  0
LINE
  5
375
100
AcDbEntity
  8
0
100
AcDbLine
 62
7
  6
CONTINUOUS
 10
-88.8437248488
 20
-0.1737511935
 11
-88.8966287291
 21
0.3407006063
  0
LINE
  5
376
100
AcDbEntity
  8
0
100
AcDbLine
 62
7
  6
CONTINUOUS
 10
-88.7565717981
 20
0.173613551
 11
-88.703527581
 21
-0.3421600268
  0
LINE
  5
377
100
AcDbEntity
  8
0
100
AcDbLine
 62
7
  6
CONTINUOUS
 10
-88.0261773226
 20
-0.3421600268
 11
-88.07922154
 21
0.173613551
  0
LINE
  5
378
100
AcDbEntity
  8
0
100
AcDbLine
 62
7
  6
CONTINUOUS
 10
-87.9623960054
 20
0.2300311033
 11
-87.9210761018
 21
-0.1737436309
  0
LINE
  5
379
100
AcDbEntity
  8
0
100
AcDbLine
 62
7
  6
CONTINUOUS
 10
-87.2437258329
 20
-0.1737436309
 11
-87.2850457364
 21
0.2300311033
  0
LINE
  5
37A
100
AcDbEntity
  8
0
100
AcDbLine
 62
7
  6
CONTINUOUS
 10
-87.1565713524
 20
0.1736021321
 11
-87.1035543224
 21
-0.3419141374
  0
LWPOLYLINE
  5
37B
100
AcDbEntity
  8
0
100
AcDbPolyline
 62
7
  6
CONTINUOUS
 90
13
 70
0
 10
-88.3638074576
 20
-1.0979004293
 10
-88.3552580749
 20
-1.1868624056
 10
-88.3467086922
 20
-1.2704752115
 10
-88.3381593095
 20
-1.3483620051
 10
-88.3296099268
 20
-1.4201717513
 10
-88.3210605441
 20
-1.4855808042
 10
-88.3125111613
 20
-1.5442943659
 10
-88.3039617786
 20
-1.5960478147
 10
-88.2954123959
 20
-1.640607898
 10
-88.2868630132
 20
-1.6777737839
 10
-88.2783136305
 20
-1.7073779657
 10
-88.2697642478
 20
-1.7292870174
 10
-88.2661142006
 20
-1.7362712488
  0
LWPOLYLINE
  5
37C
100
AcDbEntity
  8
0
100
AcDbPolyline
 62
7
  6
CONTINUOUS
 90
15
 70
0
 10
-88.2638074576
 20
-1.0979004293
 10
-88.2552580749
 20
-1.1868624056
 10
-88.2467086922
 20
-1.2704752115
 10
-88.2381593095
 20
-1.3483620051
 10
-88.2296099268
 20
-1.4201717513
 10
-88.2210605441
 20
-1.4855808042
 10
-88.2125111613
 20
-1.5442943659
 10
-88.2039617786
 20
-1.5960478147
 10
-88.1954123959
 20
-1.640607898
 10
-88.1868630132
 20
-1.6777737839
 10
-88.1783136305
 20
-1.7073779657
 10
-88.1697642478
 20
-1.7292870174
 10
-88.161214865
 20
-1.7434021945
 10
-88.1526654823
 20
-1.7496598798
 10
-88.1501552021
 20
-1.7499999891
  0
LWPOLYLINE
  5
37D
100
AcDbEntity
  8
0
100
AcDbPolyline
 62
7
  6
CONTINUOUS
 90
13
 70
0
 10
-89.1674494329
 20
-1.0584805271
 10
-89.1589000502
 20
-1.1496004633
 10
-89.1503506675
 20
-1.2355391758
 10
-89.1418012848
 20
-1.3159093408
 10
-89.1332519021
 20
-1.3903487317
 10
-89.1247025194
 20
-1.4585218518
 10
-89.1161531366
 20
-1.5201214464
 10
-89.1076037539
 20
-1.5748698874
 10
-89.0990543712
 20
-1.6225204247
 10
-89.0905049885
 20
-1.6628582986
 10
-89.0819556058
 20
-1.6957017069
 10
-89.0734062231
 20
-1.7209026251
 10
-89.0661145128
 20
-1.7362712176
  0
LWPOLYLINE
  5
37E
100
AcDbEntity
  8
0
100
AcDbPolyline
 62
7
  6
CONTINUOUS
 90
15
 70
0
 10
-89.0674494329
 20
-1.0584805271
 10
-89.0589000502
 20
-1.1496004633
 10
-89.0503506675
 20
-1.2355391758
 10
-89.0418012848
 20
-1.3159093408
 10
-89.0332519021
 20
-1.3903487317
 10
-89.0247025194
 20
-1.4585218518
 10
-89.0161531366
 20
-1.5201214464
 10
-89.0076037539
 20
-1.5748698874
 10
-88.9990543712
 20
-1.6225204247
 10
-88.9905049885
 20
-1.6628582986
 10
-88.9819556058
 20
-1.6957017069
 10
-88.9734062231
 20
-1.7209026251
 10
-88.9648568404
 20
-1.7383474732
 10
-88.9563074576
 20
-1.7479576276
 10
-88.9501554805
 20
-1.7499999866
  0
LWPOLYLINE
  5
37F
100
AcDbEntity
  8
0
100
AcDbPolyline
 62
7
  6
CONTINUOUS
 90
13
 70
0
 10
-87.568714865
 20
-1.0445814694
 10
-87.5601654823
 20
-1.1364339087
 10
-87.5516160996
 20
-1.2231644474
 10
-87.5430667169
 20
-1.3043821922
 10
-87.5345173342
 20
-1.3797210956
 10
-87.5259679515
 20
-1.4488416064
 10
-87.5174185687
 20
-1.5114321996
 10
-87.508869186
 20
-1.5672107802
 10
-87.5003198033
 20
-1.6159259553
 10
-87.4917704206
 20
-1.6573581665
 10
-87.4832210379
 20
-1.6913206798
 10
-87.4746716552
 20
-1.717660427
 10
-87.466114959
 20
-1.7362712647
  0
LWPOLYLINE
  5
380
100
AcDbEntity
  8
0
100
AcDbPolyline
 62
7
  6
CONTINUOUS
 90
15
 70
0
 10
-87.468714865
 20
-1.0445814694
 10
-87.4601654823
 20
-1.1364339087
 10
-87.4516160996
 20
-1.2231644474
 10
-87.4430667169
 20
-1.3043821922
 10
-87.4345173342
 20
-1.3797210956
 10
-87.4259679515
 20
-1.4488416064
 10
-87.4174185687
 20
-1.5114321996
 10
-87.408869186
 20
-1.5672107802
 10
-87.4003198033
 20
-1.6159259553
 10
-87.3917704206
 20
-1.6573581665
 10
-87.3832210379
 20
-1.6913206798
 10
-87.3746716552
 20
-1.717660427
 10
-87.3661222725
 20
-1.7362586955
 10
-87.3575728897
 20
-1.7470316637
 10
-87.3501559676
 20
-1.7499999985
  0
LINE
  5
381
100
AcDbEntity
  8
0
100
AcDbLine
 62
7
  6
CONTINUOUS
 10
-89.3384370873
 20
1.1184691654
 11
-89.3213383218
 21
0.9281921771
  0
LINE
  5
382
100
AcDbEntity
  8
0
100
AcDbLine
 62
7
  6
CONTINUOUS
 10
-89.2384370873
 20
1.1184691654
 11
-89.2213383218
 21
0.9281921771
  0
LINE
  5
383
100
AcDbEntity
  8
0
100
AcDbLine
 62
7
  6
CONTINUOUS
 10
-88.3809062231
 20
-0.9055550696
 11
-88.3638074576
 21
-1.0979004293
  0
LINE
  5
384
100
AcDbEntity
  8
0
100
AcDbLine
 62
7
  6
CONTINUOUS
 10
-88.2809062231
 20
-0.9055550696
 11
-88.2638074576
 21
-1.0979004293
  0
LINE
  5
385
100
AcDbEntity
  8
0
100
AcDbLine
 62
7
  6
CONTINUOUS
 10
-88.534795112
 20
1.0795234299
 11
-88.5176963465
 21
0.8853883699
  0
LINE
  5
386
100
AcDbEntity
  8
0
100
AcDbLine
 62
7
  6
CONTINUOUS
 10
-88.434795112
 20
1.0795234299
 11
-88.4176963465
 21
0.8853883699
  0
LINE
  5
387
100
AcDbEntity
  8
0
100
AcDbLine
 62
7
  6
CONTINUOUS
 10
-89.1845481984
 20
-0.8623611865
 11
-89.1674494329
 21
-1.0584805271
  0
LINE
  5
388
100
AcDbEntity
  8
0
100
AcDbLine
 62
7
  6
CONTINUOUS
 10
-89.0845481984
 20
-0.8623611865
 11
-89.0674494329
 21
-1.0584805271
  0
LINE
  5
389
100
AcDbEntity
  8
0
100
AcDbLine
 62
7
  6
CONTINUOUS
 10
-87.5858136305
 20
-0.8471880191
 11
-87.568714865
 21
-1.0445814694
  0
LINE
  5
38A
100
AcDbEntity
  8
0
100
AcDbLine
 62
7
  6
CONTINUOUS
 10
-87.4858136305
 20
-0.8471880191
 11
-87.468714865
 21
-1.0445814694
  0
LINE
  5
38B
100
AcDbEntity
  8
0
100
AcDbLine
 62
7
  6
CONTINUOUS
 10
-87.7311531366
 20
1.0396832857
 11
-87.7140543712
 21
0.8418477049
  0
LINE
  5
38C
100
AcDbEntity
  8
0
100
AcDbLine
 62
7
  6
CONTINUOUS
 10
-87.6311531366
 20
1.0396832857
 11
-87.6140543712
 21
0.8418477049
  0
LINE
  5
38D
100
AcDbEntity
  8
0
100
AcDbLine
 62
7
  6
CONTINUOUS
 10
-89.3213383218
 20
0.9281921771
 11
-89.3042395564
 21
0.7212006776
  0
LINE
  5
38E
100
AcDbEntity
  8
0
100
AcDbLine
 62
7
  6
CONTINUOUS
 10
-89.2213383218
 20
0.9281921771
 11
-89.2042395564
 21
0.7212006776
  0
LINE
  5
38F
100
AcDbEntity
  8
0
100
AcDbLine
 62
7
  6
CONTINUOUS
 10
-88.3980049885
 20
-0.6969028179
 11
-88.3809062231
 21
-0.9055550696
  0
LINE
  5
390
100
AcDbEntity
  8
0
100
AcDbLine
 62
7
  6
CONTINUOUS
 10
-88.2980049885
 20
-0.6969028179
 11
-88.2809062231
 21
-0.9055550696
  0
LINE
  5
391
100
AcDbEntity
  8
0
100
AcDbLine
 62
7
  6
CONTINUOUS
 10
-88.5176963465
 20
0.8853883699
 11
-88.5005975811
 21
0.6753095677
  0
LINE
  5
392
100
AcDbEntity
  8
0
100
AcDbLine
 62
7
  6
CONTINUOUS
 10
-88.4176963465
 20
0.8853883699
 11
-88.4005975811
 21
0.6753095677
  0
LINE
  5
393
100
AcDbEntity
  8
0
100
AcDbLine
 62
7
  6
CONTINUOUS
 10
-89.2016469638
 20
-0.6507127924
 11
-89.1845481984
 21
-0.8623611865
  0
LINE
  5
394
100
AcDbEntity
  8
0
100
AcDbLine
 62
7
  6
CONTINUOUS
 10
-89.1016469638
 20
-0.6507127924
 11
-89.0845481984
 21
-0.8623611865
  0
LINE
  5
395
100
AcDbEntity
  8
0
100
AcDbLine
 62
7
  6
CONTINUOUS
 10
-87.6029123959
 20
-0.6345386873
 11
-87.5858136305
 21
-0.8471880191
  0
LINE
  5
396
100
AcDbEntity
  8
0
100
AcDbLine
 62
7
  6
CONTINUOUS
 10
-87.7140543712
 20
0.8418477049
 11
-87.6969556058
 21
0.6288524185
  0
LINE
  5
397
100
AcDbEntity
  8
0
100
AcDbLine
 62
7
  6
CONTINUOUS
 10
-87.5029123959
 20
-0.6345386873
 11
-87.4858136305
 21
-0.8471880191
  0
LINE
  5
398
100
AcDbEntity
  8
0
100
AcDbLine
 62
7
  6
CONTINUOUS
 10
-87.6140543712
 20
0.8418477049
 11
-87.5969556058
 21
0.6288524185
  0
LINE
  5
399
100
AcDbEntity
  8
0
100
AcDbLine
 62
7
  6
CONTINUOUS
 10
-89.3042395564
 20
0.7212006776
 11
-89.2785914083
 21
0.3875933257
  0
LINE
  5
39A
100
AcDbEntity
  8
0
100
AcDbLine
 62
7
  6
CONTINUOUS
 10
-89.2042395564
 20
0.7212006776
 11
-89.1785914083
 21
0.3875933257
  0
LINE
  5
39B
100
AcDbEntity
  8
0
100
AcDbLine
 62
7
  6
CONTINUOUS
 10
-88.5005975811
 20
0.6753095677
 11
-88.4749494329
 21
0.3386340275
  0
LINE
  5
39C
100
AcDbEntity
  8
0
100
AcDbLine
 62
7
  6
CONTINUOUS
 10
-88.4005975811
 20
0.6753095677
 11
-88.3749494329
 21
0.3386340275
  0
LINE
  5
39D
100
AcDbEntity
  8
0
100
AcDbLine
 62
7
  6
CONTINUOUS
 10
-88.4322025194
 20
-0.2459329591
 11
-88.3980049885
 21
-0.6969028179
  0
LINE
  5
39E
100
AcDbEntity
  8
0
100
AcDbLine
 62
7
  6
CONTINUOUS
 10
-88.3322025194
 20
-0.2459329591
 11
-88.2980049885
 21
-0.6969028179
  0
LINE
  5
39F
100
AcDbEntity
  8
0
100
AcDbLine
 62
7
  6
CONTINUOUS
 10
-89.2358444947
 20
-0.1962849684
 11
-89.2016469638
 21
-0.6507127924
  0
LINE
  5
3A0
100
AcDbEntity
  8
0
100
AcDbLine
 62
7
  6
CONTINUOUS
 10
-89.1358444947
 20
-0.1962849684
 11
-89.1016469638
 21
-0.6507127924
  0
LINE
  5
3A1
100
AcDbEntity
  8
0
100
AcDbLine
 62
7
  6
CONTINUOUS
 10
-87.6969556058
 20
0.6288524185
 11
-87.6627580749
 21
0.172928853
  0
LINE
  5
3A2
100
AcDbEntity
  8
0
100
AcDbLine
 62
7
  6
CONTINUOUS
 10
-87.5969556058
 20
0.6288524185
 11
-87.5627580749
 21
0.172928853
  0
LINE
  5
3A3
100
AcDbEntity
  8
0
100
AcDbLine
 62
7
  6
CONTINUOUS
 10
-89.2785914083
 20
0.3875933257
 11
-89.2358444947
 21
-0.1962849684
  0
LINE
  5
3A4
100
AcDbEntity
  8
0
100
AcDbLine
 62
7
  6
CONTINUOUS
 10
-89.1785914083
 20
0.3875933257
 11
-89.1358444947
 21
-0.1962849684
  0
LINE
  5
3A5
100
AcDbEntity
  8
0
100
AcDbLine
 62
7
  6
CONTINUOUS
 10
-88.4749494329
 20
0.3386340275
 11
-88.4322025194
 21
-0.2459329591
  0
LINE
  5
3A6
100
AcDbEntity
  8
0
100
AcDbLine
 62
7
  6
CONTINUOUS
 10
-88.3749494329
 20
0.3386340275
 11
-88.3322025194
 21
-0.2459329591
  0
LINE
  5
3A7
100
AcDbEntity
  8
0
100
AcDbLine
 62
7
  6
CONTINUOUS
 10
-87.6627580749
 20
0.172928853
 11
-87.6029123959
 21
-0.6345386873
  0
LINE
  5
3A8
100
AcDbEntity
  8
0
100
AcDbLine
 62
7
  6
CONTINUOUS
 10
-87.5627580749
 20
0.172928853
 11
-87.5029123959
 21
-0.6345386873
  0
LINE
  5
3A9
100
AcDbEntity
  8
0
100
AcDbLine
 62
7
  6
CONTINUOUS
 10
-88.6661142541
 20
1.7362712256
 11
-88.9470882095
 21
1.254835643
  0
LINE
  5
3AA
100
AcDbEntity
  8
0
100
AcDbLine
 62
7
  6
CONTINUOUS
 10
-87.86611451
 20
1.7362712889
 11
-88.1470884998
 21
1.2548356251
  0
LINE
  5
3AB
100
AcDbEntity
  8
0
100
AcDbLine
 62
7
  6
CONTINUOUS
 10
-87.0661150067
 20
1.7362712384
 11
-87.3470889679
 21
1.2548356419
  0
LINE
  5
3AC
100
AcDbEntity
  8
0
100
AcDbLine
 62
7
  6
CONTINUOUS
 10
-86.2661144898
 20
1.7362712177
 11
-86.5470884405
 21
1.2548356462
  0
LINE
  5
3AD
100
AcDbEntity
  8
0
100
AcDbLine
 62
7
  6
CONTINUOUS
 10
-90.5341964401
 20
-1.7362711139
 11
-90.2532219423
 21
-1.2548362782
  0
LINE
  5
3AE
100
AcDbEntity
  8
0
100
AcDbLine
 62
7
  6
CONTINUOUS
 10
-89.7341968795
 20
-1.7362710645
 11
-89.4532224093
 21
-1.2548362943
  0
LINE
  5
3AF
100
AcDbEntity
  8
0
100
AcDbLine
 62
7
  6
CONTINUOUS
 10
-88.9341963472
 20
-1.7362710437
 11
-88.6532218877
 21
-1.2548362988
  0
LINE
  5
3B0
100
AcDbEntity
  8
0
100
AcDbLine
 62
7
  6
CONTINUOUS
 10
-88.134196104
 20
-1.7362710766
 11
-87.8532216262
 21
-1.2548362882
  0
LWPOLYLINE
  5
3B1
100
AcDbEntity
  8
0
100
AcDbPolyline
 62
7
  6
CONTINUOUS
 90
4
 70
0
 10
-87.0661150067
 20
1.7362712384
 10
-87.0643012848
 20
1.7392114002
 10
-87.0557519021
 20
1.7483101004
 10
-87.0501559893
 20
1.7499999946
  0
LWPOLYLINE
  5
3B2
100
AcDbEntity
  8
0
100
AcDbPolyline
 62
7
  6
CONTINUOUS
 90
4
 70
0
 10
-88.6661142541
 20
1.7362712256
 10
-88.6630358527
 20
1.7410527149
 10
-88.65448647
 20
1.7489875449
 10
-88.6501552325
 20
1.7499999856
  0
LWPOLYLINE
  5
3B3
100
AcDbEntity
  8
0
100
AcDbPolyline
 62
7
  6
CONTINUOUS
 90
4
 70
0
 10
-86.2661144898
 20
1.7362712177
 10
-86.2606593095
 20
1.7440483281
 10
-86.2521099268
 20
1.7497938113
 10
-86.2501554579
 20
1.7499999864
  0
LWPOLYLINE
  5
3B4
100
AcDbEntity
  8
0
100
AcDbPolyline
 62
7
  6
CONTINUOUS
 90
3
 70
0
 10
-87.86611451
 20
1.7362712889
 10
-87.8593938774
 20
1.7453954669
 10
-87.8501555473
 20
1.7499999988
  0
LWPOLYLINE
  5
3B5
100
AcDbEntity
  8
0
100
AcDbPolyline
 62
7
  6
CONTINUOUS
 90
3
 70
0
 10
-85.4661142092
 20
1.7362712512
 10
-85.4570173342
 20
1.7474590181
 10
-85.450155213
 20
1.7499999896
  0
LWPOLYLINE
  5
3B6
100
AcDbEntity
  8
0
100
AcDbPolyline
 62
7
  6
CONTINUOUS
 90
3
 70
0
 10
-91.3501552455
 20
-1.7499999855
 10
-91.3415852354
 20
-1.7460373318
 10
-91.3341961222
 20
-1.7362710514
  0
LWPOLYLINE
  5
3B7
100
AcDbEntity
  8
0
100
AcDbPolyline
 62
7
  6
CONTINUOUS
 90
4
 70
0
 10
-92.1501558095
 20
-1.7499999906
 10
-92.1452272107
 20
-1.7486890594
 10
-92.136677828
 20
-1.7402043839
 10
-92.1341966778
 20
-1.7362710491
  0
LWPOLYLINE
  5
3B8
100
AcDbEntity
  8
0
100
AcDbPolyline
 62
7
  6
CONTINUOUS
 90
4
 70
0
 10
-86.5501557667
 20
-1.7499999899
 10
-86.5453815317
 20
-1.7487698801
 10
-86.536832149
 20
-1.7404272741
 10
-86.534196634
 20
-1.7362710475
  0
LWPOLYLINE
  5
3B9
100
AcDbEntity
  8
0
100
AcDbPolyline
 62
7
  6
CONTINUOUS
 90
4
 70
0
 10
-90.5501555048
 20
-1.7499999979
 10
-90.5464926428
 20
-1.7492758951
 10
-90.5379432601
 20
-1.7419564612
 10
-90.5341964401
 20
-1.7362711139
  0
LINE
  5
3BA
100
AcDbEntity
  8
0
100
AcDbLine
 62
7
  6
CONTINUOUS
 10
-84.9501555927
 20
-1.7499999999
 11
-84.9466469638
 21
-1.7493355892
  0
LWPOLYLINE
  5
3BB
100
AcDbEntity
  8
0
100
AcDbPolyline
 62
7
  6
CONTINUOUS
 90
4
 70
0
 10
-88.9501554805
 20
-1.7499999866
 10
-88.9477580749
 20
-1.7496897755
 10
-88.9392086922
 20
-1.7435361099
 10
-88.9341963472
 20
-1.7362710437
  0
LWPOLYLINE
  5
3BC
100
AcDbEntity
  8
0
100
AcDbPolyline
 62
7
  6
CONTINUOUS
 90
4
 70
0
 10
-83.3501554357
 20
-1.7499999862
 10
-83.3479123959
 20
-1.7497284362
 10
-83.3393630132
 20
-1.7437170159
 10
-83.3341963032
 20
-1.7362710442
  0
LWPOLYLINE
  5
3BD
100
AcDbEntity
  8
0
100
AcDbPolyline
 62
7
  6
CONTINUOUS
 90
4
 70
0
 10
-92.9501559335
 20
-1.7499999989
 10
-92.948869186
 20
-1.7499106331
 10
-92.9403198033
 20
-1.7447805951
 10
-92.9341968436
 20
-1.7362710929
  0
LWPOLYLINE
  5
3BE
100
AcDbEntity
  8
0
100
AcDbPolyline
 62
7
  6
CONTINUOUS
 90
8
 70
0
 10
-79.0437056991
 20
-1.1627217985
 10
-79.0466905278
 20
-1.1629218125
 10
-79.0514268289
 20
-1.1589794955
 10
-79.0561723481
 20
-1.1497903141
 10
-79.060912511
 20
-1.1353998849
 10
-79.0656424597
 20
-1.1158958004
 10
-79.0703670521
 20
-1.0913536523
 10
-79.0750862883
 20
-1.0618835114
  0
LWPOLYLINE
  5
3BF
100
AcDbEntity
  8
0
100
AcDbPolyline
 62
7
  6
CONTINUOUS
 90
4
 70
0
 10
-87.3501559676
 20
-1.7499999985
 10
-87.349023507
 20
-1.7499307785
 10
-87.3404741243
 20
-1.7449429741
 10
-87.3341968728
 20
-1.7362710883
  0
LWPOLYLINE
  5
3C0
100
AcDbEntity
  8
0
100
AcDbPolyline
 62
7
  6
CONTINUOUS
 90
4
 70
0
 10
-81.7501559926
 20
-1.749999998
 10
-81.749177828
 20
-1.7499483552
 10
-81.7406284453
 20
-1.7451027999
 10
-81.734198561
 20
-1.7362739494
  0
LINE
  5
3C1
100
AcDbEntity
  8
0
100
AcDbLine
 62
7
  6
CONTINUOUS
 10
-93.0501559335
 20
-1.7499999989
 11
-92.9501559335
 21
-1.7499999989
  0
LINE
  5
3C2
100
AcDbEntity
  8
0
100
AcDbLine
 62
7
  6
CONTINUOUS
 10
-92.2501558095
 20
-1.7499999906
 11
-92.1501558095
 21
-1.7499999906
  0
LINE
  5
3C3
100
AcDbEntity
  8
0
100
AcDbLine
 62
7
  6
CONTINUOUS
 10
-91.4501552455
 20
-1.7499999855
 11
-91.3501552455
 21
-1.7499999855
  0
LINE
  5
3C4
100
AcDbEntity
  8
0
100
AcDbLine
 62
7
  6
CONTINUOUS
 10
-90.6501555048
 20
-1.7499999979
 11
-90.5501555048
 21
-1.7499999979
  0
LINE
  5
3C5
100
AcDbEntity
  8
0
100
AcDbLine
 62
7
  6
CONTINUOUS
 10
-89.8501559981
 20
-1.7499999949
 11
-89.7501559981
 21
-1.7499999949
  0
LINE
  5
3C6
100
AcDbEntity
  8
0
100
AcDbLine
 62
7
  6
CONTINUOUS
 10
-89.0501554805
 20
-1.7499999866
 11
-88.9501554805
 21
-1.7499999866
  0
LINE
  5
3C7
100
AcDbEntity
  8
0
100
AcDbLine
 62
7
  6
CONTINUOUS
 10
-88.2501552021
 20
-1.7499999891
 11
-88.1501552021
 21
-1.7499999891
  0
LINE
  5
3C8
100
AcDbEntity
  8
0
100
AcDbLine
 62
7
  6
CONTINUOUS
 10
-87.4501559676
 20
-1.7499999985
 11
-87.3501559676
 21
-1.7499999985
  0
LINE
  5
3C9
100
AcDbEntity
  8
0
100
AcDbLine
 62
7
  6
CONTINUOUS
 10
-86.6501557667
 20
-1.7499999899
 11
-86.5501557667
 21
-1.7499999899
  0
LINE
  5
3CA
100
AcDbEntity
  8
0
100
AcDbLine
 62
7
  6
CONTINUOUS
 10
-85.8501552207
 20
-1.7499999857
 11
-85.7501552207
 21
-1.7499999857
  0
LINE
  5
3CB
100
AcDbEntity
  8
0
100
AcDbLine
 62
7
  6
CONTINUOUS
 10
-85.0501555927
 20
-1.7499999999
 11
-84.9501555927
 21
-1.7499999999
  0
LINE
  5
3CC
100
AcDbEntity
  8
0
100
AcDbLine
 62
7
  6
CONTINUOUS
 10
-84.2501559791
 20
-1.7499999942
 11
-84.1501559791
 21
-1.7499999942
  0
LINE
  5
3CD
100
AcDbEntity
  8
0
100
AcDbLine
 62
7
  6
CONTINUOUS
 10
-83.4501554357
 20
-1.7499999862
 11
-83.3501554357
 21
-1.7499999862
  0
LINE
  5
3CE
100
AcDbEntity
  8
0
100
AcDbLine
 62
7
  6
CONTINUOUS
 10
-82.6501552261
 20
-1.7499999901
 11
-82.5501552261
 21
-1.7499999901
  0
LINE
  5
3CF
100
AcDbEntity
  8
0
100
AcDbLine
 62
7
  6
CONTINUOUS
 10
-81.8501559926
 20
-1.749999998
 11
-81.7501559926
 21
-1.749999998
  0
LINE
  5
3D0
100
AcDbEntity
  8
0
100
AcDbLine
 62
7
  6
CONTINUOUS
 10
-81.050155722
 20
-1.7499999893
 11
-80.950155722
 21
-1.7499999893
  0
LINE
  5
3D1
100
AcDbEntity
  8
0
100
AcDbLine
 62
7
  6
CONTINUOUS
 10
-80.250155201
 20
-1.7499999859
 11
-80.150155201
 21
-1.7499999859
  0
LINE
  5
3D2
100
AcDbEntity
  8
0
100
AcDbLine
 62
7
  6
CONTINUOUS
 10
-79.4596571936
 20
-1.6982704216
 11
-79.3596571936
 21
-1.6982704216
  0
LINE
  5
3D3
100
AcDbEntity
  8
0
100
AcDbLine
 62
7
  6
CONTINUOUS
 10
-79.4066469638
 20
-1.5805600342
 11
-79.5066469638
 21
-1.5805600342
  0
LINE
  5
3D4
100
AcDbEntity
  8
0
100
AcDbLine
 62
7
  6
CONTINUOUS
 10
-94.2366469638
 20
-1.45
 11
-93.7521170176
 21
-1.45
  0
LINE
  5
3D5
100
AcDbEntity
  8
0
100
AcDbLine
 62
7
  6
CONTINUOUS
 10
-93.6366469638
 20
-1.25
 11
-93.349922971
 21
-1.25
  0
LINE
  5
3D6
100
AcDbEntity
  8
0
100
AcDbLine
 62
7
  6
CONTINUOUS
 10
-92.6614807993
 20
-1.25
 11
-92.5499228733
 21
-1.25
  0
LINE
  5
3D7
100
AcDbEntity
  8
0
100
AcDbLine
 62
7
  6
CONTINUOUS
 10
-91.8614806786
 20
-1.25
 11
-91.7499223024
 21
-1.25
  0
LINE
  5
3D8
100
AcDbEntity
  8
0
100
AcDbLine
 62
7
  6
CONTINUOUS
 10
-91.0614801169
 20
-1.25
 11
-90.9499225275
 21
-1.25
  0
LINE
  5
3D9
100
AcDbEntity
  8
0
100
AcDbLine
 62
7
  6
CONTINUOUS
 10
-90.2614803714
 20
-1.25
 11
-90.1499230542
 21
-1.25
  0
LINE
  5
3DA
100
AcDbEntity
  8
0
100
AcDbLine
 62
7
  6
CONTINUOUS
 10
-89.4614808655
 20
-1.25
 11
-89.3499225444
 21
-1.25
  0
LINE
  5
3DB
100
AcDbEntity
  8
0
100
AcDbLine
 62
7
  6
CONTINUOUS
 10
-88.6614803514
 20
-1.25
 11
-88.5499222436
 21
-1.25
  0
LINE
  5
3DC
100
AcDbEntity
  8
0
100
AcDbLine
 62
7
  6
CONTINUOUS
 10
-87.8614800721
 20
-1.25
 11
-87.7499230083
 21
-1.25
  0
LINE
  5
3DD
100
AcDbEntity
  8
0
100
AcDbLine
 62
7
  6
CONTINUOUS
 10
-87.0614808335
 20
-1.25
 11
-86.9499228311
 21
-1.25
  0
LINE
  5
3DE
100
AcDbEntity
  8
0
100
AcDbLine
 62
7
  6
CONTINUOUS
 10
-86.2614806362
 20
-1.25
 11
-86.1499222759
 21
-1.25
  0
LINE
  5
3DF
100
AcDbEntity
  8
0
100
AcDbLine
 62
7
  6
CONTINUOUS
 10
-85.461480092
 20
-1.25
 11
-85.3499226119
 21
-1.25
  0
LINE
  5
3E0
100
AcDbEntity
  8
0
100
AcDbLine
 62
7
  6
CONTINUOUS
 10
-84.6614804585
 20
-1.25
 11
-84.5499230369
 21
-1.25
  0
LINE
  5
3E1
100
AcDbEntity
  8
0
100
AcDbLine
 62
7
  6
CONTINUOUS
 10
-83.8614808468
 20
-1.25
 11
-83.7499224988
 21
-1.25
  0
LINE
  5
3E2
100
AcDbEntity
  8
0
100
AcDbLine
 62
7
  6
CONTINUOUS
 10
-83.0614803067
 20
-1.25
 11
-82.9499222649
 21
-1.25
  0
LINE
  5
3E3
100
AcDbEntity
  8
0
100
AcDbLine
 62
7
  6
CONTINUOUS
 10
-82.2614800957
 20
-1.25
 11
-82.1499230364
 21
-1.25
  0
LINE
  5
3E4
100
AcDbEntity
  8
0
100
AcDbLine
 62
7
  6
CONTINUOUS
 10
-81.4614808587
 20
-1.25
 11
-81.3499227868
 21
-1.25
  0
LINE
  5
3E5
100
AcDbEntity
  8
0
100
AcDbLine
 62
7
  6
CONTINUOUS
 10
-80.6614805918
 20
-1.25
 11
-80.5499222544
 21
-1.25
  0
LINE
  5
3E6
100
AcDbEntity
  8
0
100
AcDbLine
 62
7
  6
CONTINUOUS
 10
-79.8614800723
 20
-1.25
 11
-79.7333450447
 21
-1.25
  0
LWPOLYLINE
  5
3E7
100
AcDbEntity
  8
0
100
AcDbPolyline
 62
7
  6
CONTINUOUS
 90
16
 70
0
 10
-79.8614800723
 20
-1.25
 10
-79.8650973681
 20
-1.2494955729
 10
-79.8739382318
 20
-1.244021107
 10
-79.8828961442
 20
-1.2323593331
 10
-79.8919271404
 20
-1.214430321
 10
-79.9009858824
 20
-1.1903109812
 10
-79.910079661
 20
-1.1600408393
 10
-79.9192011854
 20
-1.1237363954
 10
-79.9282832446
 20
-1.0818611721
 10
-79.9373121989
 20
-1.0347763268
 10
-79.946301688
 20
-0.9827295874
 10
-79.9552254195
 20
-0.9262198
 10
-79.9640483694
 20
-0.8658760032
 10
-79.9728055618
 20
-0.8018714215
 10
-79.9815757764
 20
-0.7339715822
 10
-79.9903766922
 20
-0.6623351184
  0
LWPOLYLINE
  5
3E8
100
AcDbEntity
  8
0
100
AcDbPolyline
 62
7
  6
CONTINUOUS
 90
17
 70
0
 10
-91.8614806786
 20
-1.25
 10
-91.8654222324
 20
-1.249401093
 10
-91.8742246323
 20
-1.2437438817
 10
-91.8831121392
 20
-1.2320035844
 10
-91.89204846
 20
-1.2141491015
 10
-91.9009928279
 20
-1.1902920208
 10
-91.9099520365
 20
-1.160509253
 10
-91.9189192921
 20
-1.1249483951
 10
-91.9278334475
 20
-1.084069521
 10
-91.9366552876
 20
-1.0383839402
 10
-91.9454240274
 20
-0.9880348809
 10
-91.9541961641
 20
-0.932979225
 10
-91.9629683001
 20
-0.8734967707
 10
-91.9717438329
 20
-0.8098443432
 10
-91.9805894525
 20
-0.7417926814
 10
-91.9895453311
 20
-0.6692481692
 10
-91.9985712965
 20
-0.5927881493
  0
LWPOLYLINE
  5
3E9
100
AcDbEntity
  8
0
100
AcDbPolyline
 62
7
  6
CONTINUOUS
 90
16
 70
0
 10
-83.0614803067
 20
-1.25
 10
-83.065453832
 20
-1.2493913385
 10
-83.0742847757
 20
-1.2436843764
 10
-83.0832429176
 20
-1.2317852355
 10
-83.0922744338
 20
-1.2136188088
 10
-83.1013328548
 20
-1.1892672721
 10
-83.1104251315
 20
-1.1587741254
 10
-83.1195443129
 20
-1.1222580661
 10
-83.128623077
 20
-1.0801873716
 10
-83.1376459218
 20
-1.0329362548
 10
-83.1466283492
 20
-0.9807460956
 10
-83.1555495427
 20
-0.9240817379
 10
-83.1643829606
 20
-0.8635058592
 10
-83.1731551446
 20
-0.7992377104
 10
-83.1819249029
 20
-0.7311966111
 10
-83.1906998927
 20
-0.659644383
  0
LWPOLYLINE
  5
3EA
100
AcDbEntity
  8
0
100
AcDbPolyline
 62
7
  6
CONTINUOUS
 90
16
 70
0
 10
-81.4614808587
 20
-1.25
 10
-81.4655107999
 20
-1.2493739324
 10
-81.4743417552
 20
-1.2436286231
 10
-81.483299771
 20
-1.2316910582
 10
-81.4923303193
 20
-1.2134885048
 10
-81.5013876285
 20
-1.1891031177
 10
-81.5104788792
 20
-1.1585779669
 10
-81.5195968907
 20
-1.1220327458
 10
-81.5286743496
 20
-1.0799363106
 10
-81.5376954937
 20
-1.0326646562
 10
-81.5466760853
 20
-0.9804582007
 10
-81.5555960974
 20
-0.9237767872
 10
-81.5644298356
 20
-0.8631760843
 10
-81.5732029944
 20
-0.7988795829
 10
-81.5819726312
 20
-0.7308197127
 10
-81.5907460794
 20
-0.6592624217
  0
LWPOLYLINE
  5
3EB
100
AcDbEntity
  8
0
100
AcDbPolyline
 62
7
  6
CONTINUOUS
 90
17
 70
0
 10
-87.0614808335
 20
-1.25
 10
-87.0656978064
 20
-1.2493144768
 10
-87.0744962597
 20
-1.2434747253
 10
-87.0833707478
 20
-1.231571993
 10
-87.0922847061
 20
-1.2135957981
 10
-87.101196487
 20
-1.1896802561
 10
-87.1101069174
 20
-1.1599437656
 10
-87.1190151704
 20
-1.12453806
 10
-87.1278771177
 20
-1.0838563618
 10
-87.136657385
 20
-1.0383728096
 10
-87.1453913466
 20
-0.9882316787
 10
-87.1541409972
 20
-0.9333398256
 10
-87.1629087736
 20
-0.8739148873
 10
-87.171692239
 20
-0.8102302188
 10
-87.1805460778
 20
-0.7421353905
 10
-87.1895065502
 20
-0.669569608
 10
-87.1985373961
 20
-0.5930809302
  0
LWPOLYLINE
  5
3EC
100
AcDbEntity
  8
0
100
AcDbPolyline
 62
7
  6
CONTINUOUS
 90
17
 70
0
 10
-88.6614803514
 20
-1.25
 10
-88.6657453489
 20
-1.2492987771
 10
-88.6745426362
 20
-1.2434277137
 10
-88.6834143802
 20
-1.231497874
 10
-88.6923239618
 20
-1.213502367
 10
-88.7012295613
 20
-1.1895792691
 10
-88.7101305758
 20
-1.1598556526
 10
-88.7190276081
 20
-1.1244829985
 10
-88.7278806479
 20
-1.0838371758
 10
-88.7366560916
 20
-1.0383778027
 10
-88.7453875426
 20
-0.9882523409
 10
-88.7541358014
 20
-0.9333714458
 10
-88.7629032835
 20
-0.8739510347
 10
-88.7716875733
 20
-0.8102626557
 10
-88.7805422245
 20
-0.7421633605
 10
-88.7895031166
 20
-0.669595601
 10
-88.79853437
 20
-0.5931046319
  0
LWPOLYLINE
  5
3ED
100
AcDbEntity
  8
0
100
AcDbPolyline
 62
7
  6
CONTINUOUS
 90
16
 70
0
 10
-87.8614800721
 20
-1.25
 10
-87.8657836915
 20
-1.2492860194
 10
-87.8746233964
 20
-1.2433459692
 10
-87.8835811272
 20
-1.2312156869
 10
-87.892603215
 20
-1.2128410551
 10
-87.9016513145
 20
-1.188300027
 10
-87.9107350354
 20
-1.1576286727
 10
-87.919844768
 20
-1.1209546471
 10
-87.9289133386
 20
-1.0787490362
 10
-87.9379238263
 20
-1.0313956021
 10
-87.9468931519
 20
-0.9791302102
 10
-87.9558049046
 20
-0.9223894673
 10
-87.9646359128
 20
-0.861706219
 10
-87.9734093481
 20
-0.7973146901
 10
-87.9821783138
 20
-0.7291745764
 10
-87.9909526999
 20
-0.6575319134
  0
LWPOLYLINE
  5
3EE
100
AcDbEntity
  8
0
100
AcDbPolyline
 62
7
  6
CONTINUOUS
 90
16
 70
0
 10
-86.2614806362
 20
-1.25
 10
-86.2658439518
 20
-1.249266078
 10
-86.274687364
 20
-1.2432816876
 10
-86.2836451022
 20
-1.2311080537
 10
-86.2926645668
 20
-1.2126965619
 10
-86.3017098686
 20
-1.1881233689
 10
-86.310791419
 20
-1.1574219927
 10
-86.3198988067
 20
-1.1207224813
 10
-86.3289649084
 20
-1.0784962874
 10
-86.337972572
 20
-1.0311286862
 10
-86.3469389495
 20
-0.9788545738
 10
-86.3558483745
 20
-0.9221056998
 10
-86.3646778992
 20
-0.8614122408
 10
-86.3734504714
 20
-0.7970087308
 10
-86.3822192675
 20
-0.7288533128
 10
-86.3909955869
 20
-0.6571794348
  0
LWPOLYLINE
  5
3EF
100
AcDbEntity
  8
0
100
AcDbPolyline
 62
7
  6
CONTINUOUS
 90
17
 70
0
 10
-83.8614808468
 20
-1.25
 10
-83.8660186199
 20
-1.249206222
 10
-83.8748063873
 20
-1.2431603686
 10
-83.8836596821
 20
-1.231083598
 10
-83.8925415201
 20
-1.2129893801
 10
-83.9014089975
 20
-1.1890384695
 10
-83.9102511543
 20
-1.1594154783
 10
-83.9190789505
 20
-1.1242647793
 10
-83.927882362
 20
-1.0838310653
 10
-83.9366441608
 20
-1.0384455206
 10
-83.9453815748
 20
-0.9882909523
 10
-83.9541362635
 20
-0.9333713694
 10
-83.9629045585
 20
-0.8739452109
 10
-83.9716901282
 20
-0.8102468467
 10
-83.9805456366
 20
-0.7421398398
 10
-83.9895065353
 20
-0.6695708165
 10
-83.9985373727
 20
-0.59308234
  0
LWPOLYLINE
  5
3F0
100
AcDbEntity
  8
0
100
AcDbPolyline
 62
7
  6
CONTINUOUS
 90
17
 70
0
 10
-85.461480092
 20
-1.25
 10
-85.4660653767
 20
-1.2491895147
 10
-85.4748509894
 20
-1.243113772
 10
-85.4837005772
 20
-1.2310126672
 10
-85.4925770864
 20
-1.2129032076
 10
-85.5014374159
 20
-1.1889500965
 10
-85.5102684224
 20
-1.1593493526
 10
-85.5190832493
 20
-1.1242431172
 10
-85.5278782251
 20
-1.0838476433
 10
-85.5366400662
 20
-1.0384638226
 10
-85.5453820563
 20
-0.9882835899
 10
-85.5541403753
 20
-0.9333396796
 10
-85.5629092577
 20
-0.8739070434
 10
-85.5716944689
 20
-0.8102088972
 10
-85.5805494848
 20
-0.7421036528
 10
-85.5895099855
 20
-0.669536169
 10
-85.5985402907
 20
-0.5930508523
  0
LWPOLYLINE
  5
3F1
100
AcDbEntity
  8
0
100
AcDbPolyline
 62
7
  6
CONTINUOUS
 90
16
 70
0
 10
-91.0614801169
 20
-1.25
 10
-91.0661562971
 20
-1.249157067
 10
-91.0749645444
 20
-1.2429964466
 10
-91.0838649494
 20
-1.2307314895
 10
-91.0928130816
 20
-1.2123409361
 10
-91.1017953236
 20
-1.1878607987
 10
-91.1108292897
 20
-1.1572795551
 10
-91.1198973655
 20
-1.1207264345
 10
-91.1289330894
 20
-1.0786515319
 10
-91.1379194742
 20
-1.0314203
 10
-91.1468735072
 20
-0.9792507422
 10
-91.1557796893
 20
-0.9225572699
 10
-91.1646150443
 20
-0.8618554694
 10
-91.1734025484
 20
-0.7973670457
 10
-91.1821956312
 20
-0.7290375222
 10
-91.191016473
 20
-0.6570004987
  0
LWPOLYLINE
  5
3F2
100
AcDbEntity
  8
0
100
AcDbPolyline
 62
7
  6
CONTINUOUS
 90
16
 70
0
 10
-89.4614808655
 20
-1.25
 10
-89.4662124732
 20
-1.2491369677
 10
-89.4750156851
 20
-1.2429440499
 10
-89.4839052658
 20
-1.2306634784
 10
-89.4928391925
 20
-1.2122802367
 10
-89.5018088003
 20
-1.187821854
 10
-89.5108333084
 20
-1.1572673731
 10
-89.5198934976
 20
-1.1207464367
 10
-89.5289230449
 20
-1.0787049789
 10
-89.5379050234
 20
-1.0315044653
 10
-89.5468563601
 20
-0.9793597649
 10
-89.5557615127
 20
-0.9226824245
 10
-89.5645974257
 20
-0.861985819
 10
-89.5733871546
 20
-0.7974887912
 10
-89.5821843234
 20
-0.729133318
 10
-89.5910129306
 20
-0.6570359316
  0
LWPOLYLINE
  5
3F3
100
AcDbEntity
  8
0
100
AcDbPolyline
 62
7
  6
CONTINUOUS
 90
17
 70
0
 10
-80.6614805918
 20
-1.25
 10
-80.6663356788
 20
-1.2490913418
 10
-80.675106145
 20
-1.2428492283
 10
-80.6839296713
 20
-1.230621023
 10
-80.6927708046
 20
-1.2124431361
 10
-80.7015912841
 20
-1.1884844722
 10
-80.7103711457
 20
-1.158973828
 10
-80.7191303536
 20
-1.1240431152
 10
-80.7278905397
 20
-1.0837899585
 10
-80.7366558142
 20
-1.0383806189
 10
-80.7454220668
 20
-0.9880461881
 10
-80.754198599
 20
-0.9329627961
 10
-80.7629689426
 20
-0.8734917055
 10
-80.7717495657
 20
-0.8098008875
 10
-80.7805991741
 20
-0.7417152506
 10
-80.7895549491
 20
-0.6691677854
 10
-80.7985797094
 20
-0.5927147832
  0
LWPOLYLINE
  5
3F4
100
AcDbEntity
  8
0
100
AcDbPolyline
 62
7
  6
CONTINUOUS
 90
17
 70
0
 10
-84.6614804585
 20
-1.25
 10
-84.6663561248
 20
-1.2490836192
 10
-84.6748001196
 20
-1.2431663717
 10
-84.6833038136
 20
-1.2316835779
 10
-84.6918844589
 20
-1.2145302715
 10
-84.7005248034
 20
-1.1916861952
 10
-84.7091730911
 20
-1.1633278101
 10
-84.7178302818
 20
-1.1295669144
 10
-84.7264954158
 20
-1.0905478009
 10
-84.7351138579
 20
-1.0467302879
 10
-84.7436689633
 20
-0.9984928784
 10
-84.752177377
 20
-0.946048914
 10
-84.7606343986
 20
-0.8897363223
 10
-84.7690194738
 20
-0.8300281042
 10
-84.7773531571
 20
-0.767119731
 10
-84.7856924116
 20
-0.7008808632
 10
-84.7940470165
 20
-0.6315063939
  0
LWPOLYLINE
  5
3F5
100
AcDbEntity
  8
0
100
AcDbPolyline
 62
7
  6
CONTINUOUS
 90
17
 70
0
 10
-82.2614800957
 20
-1.25
 10
-82.2663821561
 20
-1.249073674
 10
-82.2751494605
 20
-1.2428031963
 10
-82.28396752
 20
-1.2305548912
 10
-82.2928015456
 20
-1.2123684032
 10
-82.301615269
 20
-1.1884098403
 10
-82.3103886497
 20
-1.1589074091
 10
-82.3191417281
 20
-1.123991847
 10
-82.3278983573
 20
-1.0837489243
 10
-82.3366646071
 20
-1.0383293904
 10
-82.3454344075
 20
-0.9879684326
 10
-82.3542134016
 20
-0.9328621723
 10
-82.3629835885
 20
-0.8733845965
 10
-82.3717629691
 20
-0.8096960576
 10
-82.3806111879
 20
-0.7416154028
 10
-82.3895656981
 20
-0.6690734362
 10
-82.3985890466
 20
-0.5926285741
  0
LWPOLYLINE
  5
3F6
100
AcDbEntity
  8
0
100
AcDbPolyline
 62
7
  6
CONTINUOUS
 90
16
 70
0
 10
-92.6614807993
 20
-1.25
 10
-92.6665840798
 20
-1.2489960754
 10
-92.6753677472
 20
-1.2425724872
 10
-92.6841879736
 20
-1.2301739973
 10
-92.6930243837
 20
-1.2118354597
 10
-92.7019056376
 20
-1.1875250823
 10
-92.7108626432
 20
-1.1571580685
 10
-92.7198644927
 20
-1.1208719831
 10
-92.7288471227
 20
-1.0790807486
 10
-92.7377944584
 20
-1.032116418
 10
-92.7467225746
 20
-0.9801745014
 10
-92.755615633
 20
-0.9236469817
 10
-92.7644501129
 20
-0.863031432
 10
-92.7732495351
 20
-0.7985273917
 10
-92.7820686228
 20
-0.7300541769
 10
-92.7909405949
 20
-0.6576383487
  0
LWPOLYLINE
  5
3F7
100
AcDbEntity
  8
0
100
AcDbPolyline
 62
7
  6
CONTINUOUS
 90
16
 70
0
 10
-92.938831138
 20
1.25
 10
-92.9336037349
 20
1.2489466552
 10
-92.9248259177
 20
1.242445573
 10
-92.9160253592
 20
1.2300019356
 10
-92.9072165908
 20
1.211664507
 10
-92.8983623362
 20
1.1873903869
 10
-92.8894298261
 20
1.1570859522
 10
-92.8804518298
 20
1.1208912929
 10
-92.8714893793
 20
1.0792027969
 10
-92.8625577416
 20
1.0323397897
 10
-92.8536416497
 20
0.9804935308
 10
-92.8447563345
 20
0.9240446486
 10
-92.8359252541
 20
0.8634826049
 10
-92.8271249504
 20
0.7990006713
 10
-92.8183002807
 20
0.730509162
 10
-92.8094156566
 20
0.6580095335
  0
LWPOLYLINE
  5
3F8
100
AcDbEntity
  8
0
100
AcDbPolyline
 62
7
  6
CONTINUOUS
 90
4
 70
0
 10
-93.3329068642
 20
1.6030903179
 10
-93.3288157481
 20
1.6022296833
 10
-93.3207969943
 20
1.5955133337
 10
-93.3168183225
 20
1.5896883584
  0
LWPOLYLINE
  5
3F9
100
AcDbEntity
  8
0
100
AcDbPolyline
 62
7
  6
CONTINUOUS
 90
16
 70
0
 10
-90.2614803714
 20
-1.25
 10
-90.2679077793
 20
-1.248407643
 10
-90.2766157027
 20
-1.2411786851
 10
-90.2853888688
 20
-1.228027018
 10
-90.2941947553
 20
-1.2089656238
 10
-90.3029948697
 20
-1.1841418503
 10
-90.3117880486
 20
-1.1536898643
 10
-90.3205754554
 20
-1.1177629135
 10
-90.3293220871
 20
-1.0767173077
 10
-90.3379965908
 20
-1.0309930829
 10
-90.3466303194
 20
-0.9807334774
 10
-90.3552823277
 20
-0.9258455361
 10
-90.3639547707
 20
-0.8665394982
 10
-90.3726454934
 20
-0.8030772602
 10
-90.3814070863
 20
-0.7353124031
 10
-90.3902759307
 20
-0.6631747027
  0
LWPOLYLINE
  5
3FA
100
AcDbEntity
  8
0
100
AcDbPolyline
 62
7
  6
CONTINUOUS
 90
11
 70
0
 10
-93.4329068668
 20
1.6030903179
 10
-93.4277313588
 20
1.6017120269
 10
-93.4198330929
 20
1.5942544607
 10
-93.411934827
 20
1.5802639188
 10
-93.404036561
 20
1.5596928083
 10
-93.396138295
 20
1.5325207798
 10
-93.3882400289
 20
1.4987551887
 10
-93.3803417627
 20
1.4584314407
 10
-93.3724434965
 20
1.411613219
 10
-93.3645452302
 20
1.3583925909
 10
-93.3566469638
 20
1.2988899927
  0
LWPOLYLINE
  5
3FB
100
AcDbEntity
  8
0
100
AcDbPolyline
 62
7
  6
CONTINUOUS
 90
15
 70
0
 10
-91.8501555035
 20
1.7499999868
 10
-91.8434062231
 20
1.747541882
 10
-91.8348568403
 20
1.7373825382
 10
-91.8263074576
 20
1.7193928495
 10
-91.8177580749
 20
1.6936538951
 10
-91.8092086922
 20
1.6602816796
 10
-91.8006593095
 20
1.619426611
 10
-91.7921099268
 20
1.5712728219
 10
-91.7835605441
 20
1.5160373405
 10
-91.7750111613
 20
1.4539691116
 10
-91.7664617786
 20
1.3853478754
 10
-91.7579123959
 20
1.3104829062
 10
-91.7493630132
 20
1.2297116187
 10
-91.7408136305
 20
1.1433980471
 10
-91.7322642478
 20
1.051931205
  0
LWPOLYLINE
  5
3FC
100
AcDbEntity
  8
0
100
AcDbPolyline
 62
7
  6
CONTINUOUS
 90
3
 70
0
 10
-91.7501555035
 20
1.7499999868
 10
-91.7434062231
 20
1.747541882
 10
-91.7341963698
 20
1.7362710436
  0
LWPOLYLINE
  5
3FD
100
AcDbEntity
  8
0
100
AcDbPolyline
 62
7
  6
CONTINUOUS
 90
3
 70
0
 10
-87.466114959
 20
-1.7362712647
 10
-87.4575728897
 20
-1.7470316637
 10
-87.4501559676
 20
-1.7499999985
  0
LWPOLYLINE
  5
3FE
100
AcDbEntity
  8
0
100
AcDbPolyline
 62
7
  6
CONTINUOUS
 90
3
 70
0
 10
-85.866114241
 20
-1.7362712268
 10
-85.8588383218
 20
-1.7459320987
 10
-85.8501552207
 20
-1.7499999857
  0
LWPOLYLINE
  5
3FF
100
AcDbEntity
  8
0
100
AcDbPolyline
 62
7
  6
CONTINUOUS
 90
4
 70
0
 10
-88.2661142006
 20
-1.7362712488
 10
-88.261214865
 20
-1.7434021945
 10
-88.2526654823
 20
-1.7496598798
 10
-88.2501552021
 20
-1.7499999891
  0
LWPOLYLINE
  5
400
100
AcDbEntity
  8
RACCORDO
100
AcDbPolyline
 62
253
  6
CONTINUOUS
 90
8
 70
0
 10
-93.7410102316
 20
8.5043253562
 10
-93.7421190834
 20
8.5059597485
 10
-93.7432444771
 20
8.5108641275
 10
-93.7443740783
 20
8.5189847589
 10
-93.745495506
 20
8.5302326525
 10
-93.7465964695
 20
8.5444845491
 10
-93.7476649033
 20
8.5615842819
 10
-93.7486890968
 20
8.5813444601
  0
LWPOLYLINE
  5
401
100
AcDbEntity
  8
0
100
AcDbPolyline
 62
7
  6
CONTINUOUS
 90
4
 70
0
 10
-86.6661147977
 20
-1.7362712222
 10
-86.6624802971
 20
-1.7418080111
 10
-86.6539309144
 20
-1.7492308183
 10
-86.6501557667
 20
-1.7499999899
  0
LINE
  5
402
100
AcDbEntity
  8
0
100
AcDbLine
 62
7
  6
CONTINUOUS
 10
-90.6392435923
 20
1.2309853814
 11
-90.934196093
 21
1.7362710743
  0
LINE
  5
403
100
AcDbEntity
  8
0
100
AcDbLine
 62
7
  6
CONTINUOUS
 10
-88.5610666556
 20
-1.2309856326
 11
-88.2661142006
 21
-1.7362712488
  0
LINE
  5
404
100
AcDbEntity
  8
0
100
AcDbLine
 62
7
  6
CONTINUOUS
 10
-89.8392443566
 20
1.230985389
 11
-90.1341968594
 21
1.7362710906
  0
LINE
  5
405
100
AcDbEntity
  8
0
100
AcDbLine
 62
7
  6
CONTINUOUS
 10
-87.7610674146
 20
-1.2309856422
 11
-87.466114959
 21
-1.7362712647
  0
LINE
  5
406
100
AcDbEntity
  8
0
100
AcDbLine
 62
7
  6
CONTINUOUS
 10
-89.039244142
 20
1.2309853433
 11
-89.3341966561
 21
1.7362710483
  0
LINE
  5
407
100
AcDbEntity
  8
0
100
AcDbLine
 62
7
  6
CONTINUOUS
 10
-86.9610672654
 20
-1.2309855953
 11
-86.6661147977
 21
-1.7362712222
  0
LINE
  5
408
100
AcDbEntity
  8
0
100
AcDbLine
 62
7
  6
CONTINUOUS
 10
-88.2392436026
 20
1.230985356
 11
-88.5341961105
 21
1.7362710526
  0
LINE
  5
409
100
AcDbEntity
  8
0
100
AcDbLine
 62
7
  6
CONTINUOUS
 10
-86.161066703
 20
-1.2309856073
 11
-85.866114241
 21
-1.7362712268
  0
LINE
  5
40A
100
AcDbEntity
  8
0
100
AcDbLine
 62
7
  6
CONTINUOUS
 10
-89.3341966561
 20
1.7362710483
 11
-89.3324802971
 21
1.7331642354
  0
LINE
  5
40B
100
AcDbEntity
  8
0
100
AcDbLine
 62
7
  6
CONTINUOUS
 10
-88.5341961105
 20
1.7362710526
 11
-88.5288383218
 21
1.725530699
  0
LWPOLYLINE
  5
40C
100
AcDbEntity
  8
0
100
AcDbPolyline
 62
7
  6
CONTINUOUS
 90
13
 70
0
 10
-90.1341968594
 20
1.7362710906
 10
-90.1275728897
 20
1.7225454004
 10
-90.119023507
 20
1.6979465053
 10
-90.1104741243
 20
1.6656949842
 10
-90.1019247416
 20
1.6259361947
 10
-90.0933753589
 20
1.5788493298
 10
-90.0848259762
 20
1.5246466099
 10
-90.0762765934
 20
1.4635723265
 10
-90.0677272107
 20
1.395901741
 10
-90.059177828
 20
1.3219398444
 10
-90.0506284453
 20
1.2420199823
 10
-90.0420790626
 20
1.1565023531
 10
-90.0335296799
 20
1.0657723838
  0
LWPOLYLINE
  5
40D
100
AcDbEntity
  8
0
100
AcDbPolyline
 62
7
  6
CONTINUOUS
 90
3
 70
0
 10
-87.7341964857
 20
1.7362711176
 10
-87.7251963465
 20
1.7164834504
 10
-87.7166469638
 20
1.6897449891
  0
LWPOLYLINE
  5
40E
100
AcDbEntity
  8
0
100
AcDbPolyline
 62
7
  6
CONTINUOUS
 90
3
 70
0
 10
-87.4279718292
 20
1.2069607065
 10
-87.4364529389
 20
1.2259288785
 10
-87.4392439956
 20
1.2309854266
  0
LWPOLYLINE
  5
40F
100
AcDbEntity
  8
0
100
AcDbPolyline
 62
7
  6
CONTINUOUS
 90
12
 70
0
 10
-89.3324802971
 20
1.7331642354
 10
-89.3239309144
 20
1.7130105204
 10
-89.3153815317
 20
1.6851363042
 10
-89.306832149
 20
1.6496672154
 10
-89.2982827663
 20
1.6067631126
 10
-89.2897333836
 20
1.5566173637
 10
-89.2811840008
 20
1.4994559746
 10
-89.2726346181
 20
1.4355365704
 10
-89.2640852354
 20
1.3651472346
 10
-89.2555358527
 20
1.2886052105
 10
-89.24698647
 20
1.2062554712
 10
-89.2384370873
 20
1.1184691654
  0
LWPOLYLINE
  5
410
100
AcDbEntity
  8
0
100
AcDbPolyline
 62
7
  6
CONTINUOUS
 90
12
 70
0
 10
-88.5288383218
 20
1.725530699
 10
-88.5202889391
 20
1.7020754546
 10
-88.5117395564
 20
1.6709489872
 10
-88.5031901737
 20
1.6322915831
 10
-88.494640791
 20
1.58627747
 10
-88.4860914083
 20
1.5331140325
 10
-88.4775420255
 20
1.473040877
 10
-88.4689926428
 20
1.4063287518
 10
-88.4604432601
 20
1.333278327
 10
-88.4518938774
 20
1.2542188393
 10
-88.4433444947
 20
1.1695066081
 10
-88.434795112
 20
1.0795234299
  0
LWPOLYLINE
  5
411
100
AcDbEntity
  8
0
100
AcDbPolyline
 62
7
  6
CONTINUOUS
 90
13
 70
0
 10
-88.1053220984
 20
1.2069607065
 10
-88.0974122777
 20
1.1844436595
 10
-88.0894841274
 20
1.1572889002
 10
-88.0815376475
 20
1.1255702252
 10
-88.0735577203
 20
1.0893076194
 10
-88.0655594635
 20
1.0486696181
 10
-88.0575882307
 20
1.0040528422
 10
-88.0496714512
 20
0.9558465441
 10
-88.0417816957
 20
0.9041292197
 10
-88.0338820287
 20
0.8488699124
 10
-88.0259634739
 20
0.7902003035
 10
-88.0180350077
 20
0.7283962078
 10
-88.0100866242
 20
0.6636029211
  0
LWPOLYLINE
  5
412
100
AcDbEntity
  8
0
100
AcDbPolyline
 62
7
  6
CONTINUOUS
 90
11
 70
0
 10
-87.8166469638
 20
1.6897449891
 10
-87.8080975811
 20
1.6553908486
 10
-87.7995481984
 20
1.6135758645
 10
-87.7909988157
 20
1.5644884977
 10
-87.7824494329
 20
1.5083499854
 10
-87.7739000502
 20
1.4454133444
 10
-87.7653506675
 20
1.3759622304
 10
-87.7568012848
 20
1.3003096602
 10
-87.7482519021
 20
1.2187966
 10
-87.7397025194
 20
1.1317904295
 10
-87.7311531366
 20
1.0396832857
  0
LWPOLYLINE
  5
413
100
AcDbEntity
  8
0
100
AcDbPolyline
 62
7
  6
CONTINUOUS
 90
11
 70
0
 10
-87.7166469638
 20
1.6897449891
 10
-87.7080975811
 20
1.6553908486
 10
-87.6995481984
 20
1.6135758645
 10
-87.6909988157
 20
1.5644884977
 10
-87.6824494329
 20
1.5083499854
 10
-87.6739000502
 20
1.4454133444
 10
-87.6653506675
 20
1.3759622304
 10
-87.6568012848
 20
1.3003096602
 10
-87.6482519021
 20
1.2187966
 10
-87.6397025194
 20
1.1317904295
 10
-87.6311531366
 20
1.0396832857
  0
LWPOLYLINE
  5
414
100
AcDbEntity
  8
0
100
AcDbPolyline
 62
7
  6
CONTINUOUS
 90
13
 70
0
 10
-88.133192891
 20
0.6674013773
 10
-88.1421016
 20
0.7396593395
 10
-88.1509000391
 20
0.8074715897
 10
-88.1596398107
 20
0.8710165194
 10
-88.1684403356
 20
0.9308572535
 10
-88.1773488852
 20
0.9869038519
 10
-88.1863181881
 20
1.0384531872
 10
-88.1953258513
 20
1.0850384071
 10
-88.2043866573
 20
1.1264215627
 10
-88.2134858235
 20
1.1622413436
 10
-88.2225566092
 20
1.1920440269
 10
-88.2315904503
 20
1.2157148677
 10
-88.2392436026
 20
1.230985356
  0
LWPOLYLINE
  5
415
100
AcDbEntity
  8
0
100
AcDbPolyline
 62
7
  6
CONTINUOUS
 90
13
 70
0
 10
-88.9322401039
 20
0.6594695026
 10
-88.9411471101
 20
0.7320805513
 10
-88.9499806339
 20
0.8005565223
 10
-88.9587782874
 20
0.8649264773
 10
-88.9675957808
 20
0.9252995964
 10
-88.9764568044
 20
0.9815015454
 10
-88.985337668
 20
1.0330613211
 10
-88.9942230114
 20
1.0796193818
 10
-89.0031218624
 20
1.1209805284
 10
-89.0120251933
 20
1.1568847932
 10
-89.0208905613
 20
1.187017759
 10
-89.0296894052
 20
1.2112370379
 10
-89.039244142
 20
1.2309853433
  0
LWPOLYLINE
  5
416
100
AcDbEntity
  8
0
100
AcDbPolyline
 62
7
  6
CONTINUOUS
 90
13
 70
0
 10
-87.3327363551
 20
0.6636029211
 10
-87.3406847386
 20
0.7283962078
 10
-87.3486132048
 20
0.7902003035
 10
-87.3565317596
 20
0.8488699124
 10
-87.3644314265
 20
0.9041292197
 10
-87.3723211821
 20
0.9558465441
 10
-87.3802379615
 20
1.0040528422
 10
-87.3882091944
 20
1.0486696181
 10
-87.3962074511
 20
1.0893076194
 10
-87.4041873783
 20
1.1255702252
 10
-87.4121338582
 20
1.1572889002
 10
-87.4200620085
 20
1.1844436595
 10
-87.4279718292
 20
1.2069607065
  0
LWPOLYLINE
  5
417
100
AcDbEntity
  8
0
100
AcDbPolyline
 62
7
  6
CONTINUOUS
 90
13
 70
0
 10
-88.6683029587
 20
-0.6575319134
 10
-88.6595285727
 20
-0.7291745764
 10
-88.650759607
 20
-0.7973146901
 10
-88.6419861718
 20
-0.861706219
 10
-88.6331551637
 20
-0.9223894673
 10
-88.6242434111
 20
-0.9791302102
 10
-88.6152740856
 20
-1.0313956021
 10
-88.606263598
 20
-1.0787490362
 10
-88.5971950275
 20
-1.1209546471
 10
-88.588085295
 20
-1.1576286727
 10
-88.5790015742
 20
-1.188300027
 10
-88.5699534748
 20
-1.2128410551
 10
-88.5610666556
 20
-1.2309856326
  0
LWPOLYLINE
  5
418
100
AcDbEntity
  8
0
100
AcDbPolyline
 62
7
  6
CONTINUOUS
 90
13
 70
0
 10
-87.068345849
 20
-0.6571794348
 10
-87.0595695295
 20
-0.7288533128
 10
-87.0508007333
 20
-0.7970087308
 10
-87.0420281611
 20
-0.8614122408
 10
-87.0331986362
 20
-0.9221056998
 10
-87.0242892112
 20
-0.9788545738
 10
-87.0153228336
 20
-1.0311286862
 10
-87.00631517
 20
-1.0784962874
 10
-86.9972490682
 20
-1.1207224813
 10
-86.9881416804
 20
-1.1574219927
 10
-86.9790601298
 20
-1.1881233689
 10
-86.9700148279
 20
-1.2126965619
 10
-86.9610672654
 20
-1.2309855953
  0
LWPOLYLINE
  5
419
100
AcDbEntity
  8
0
100
AcDbPolyline
 62
7
  6
CONTINUOUS
 90
14
 70
0
 10
-89.7243626718
 20
0.5925489767
 10
-89.7333872278
 20
0.6690070944
 10
-89.742343873
 20
0.7415690588
 10
-89.7511807359
 20
0.8095672605
 10
-89.7599496879
 20
0.8731903977
 10
-89.7687538713
 20
0.9329036691
 10
-89.7776252583
 20
0.9885620244
 10
-89.7865318768
 20
1.0396152295
 10
-89.7954809529
 20
1.0857898949
 10
-89.8044971679
 20
1.126888251
 10
-89.8135558406
 20
1.162491455
 10
-89.8225901531
 20
1.1921408867
 10
-89.8315910207
 20
1.2157144773
 10
-89.8392443566
 20
1.230985389
  0
LWPOLYLINE
  5
41A
100
AcDbEntity
  8
0
100
AcDbPolyline
 62
7
  6
CONTINUOUS
 90
14
 70
0
 10
-89.4758846289
 20
-0.5931046319
 10
-89.4668533755
 20
-0.669595601
 10
-89.4578924834
 20
-0.7421633606
 10
-89.4490378321
 20
-0.8102626557
 10
-89.4402535422
 20
-0.8739510347
 10
-89.4314860601
 20
-0.9333714458
 10
-89.4227378012
 20
-0.9882523409
 10
-89.4140063501
 20
-1.0383778027
 10
-89.4052309064
 20
-1.0838371758
 10
-89.3963778666
 20
-1.1244829985
 10
-89.3874808342
 20
-1.1598556526
 10
-89.3785798197
 20
-1.1895792691
 10
-89.3696742201
 20
-1.213502367
 10
-89.3610669797
 20
-1.2309855935
  0
LWPOLYLINE
  5
41B
100
AcDbEntity
  8
0
100
AcDbPolyline
 62
7
  6
CONTINUOUS
 90
14
 70
0
 10
-87.8758876648
 20
-0.5930809302
 10
-87.8668568189
 20
-0.669569608
 10
-87.8578963464
 20
-0.7421353905
 10
-87.8490425075
 20
-0.8102302188
 10
-87.8402590421
 20
-0.8739148873
 10
-87.8314912657
 20
-0.9333398256
 10
-87.822741615
 20
-0.9882316787
 10
-87.8140076534
 20
-1.0383728096
 10
-87.805227386
 20
-1.0838563618
 10
-87.7963654387
 20
-1.12453806
 10
-87.7874571856
 20
-1.1599437656
 10
-87.7785467552
 20
-1.1896802561
 10
-87.7696349743
 20
-1.2135957981
 10
-87.7610674146
 20
-1.2309856422
  0
LWPOLYLINE
  5
41C
100
AcDbEntity
  8
0
100
AcDbPolyline
 62
7
  6
CONTINUOUS
 90
3
 70
0
 10
-88.0100866242
 20
0.6636029211
 10
-87.9940909927
 20
0.525642587
 10
-87.986111963
 20
0.4535859133
  0
LWPOLYLINE
  5
41D
100
AcDbEntity
  8
0
100
AcDbPolyline
 62
7
  6
CONTINUOUS
 90
3
 70
0
 10
-88.8105431487
 20
0.6674013773
 10
-88.7925851139
 20
0.5121979983
 10
-88.783560477
 20
0.4301599606
  0
LWPOLYLINE
  5
41E
100
AcDbEntity
  8
0
100
AcDbPolyline
 62
7
  6
CONTINUOUS
 90
3
 70
0
 10
-87.2105805279
 20
0.6677054243
 10
-87.1926024872
 20
0.5123469294
 10
-87.1835710227
 20
0.4302503515
  0
LINE
  5
41F
100
AcDbEntity
  8
0
100
AcDbLine
 62
7
  6
CONTINUOUS
 10
-89.5910129306
 20
-0.6570359316
 11
-89.6086740933
 21
-0.5036940779
  0
LINE
  5
420
100
AcDbEntity
  8
0
100
AcDbLine
 62
7
  6
CONTINUOUS
 10
-89.609590364
 20
0.6594695026
 11
-89.5917258659
 21
0.5044870332
  0
LINE
  5
421
100
AcDbEntity
  8
0
100
AcDbLine
 62
7
  6
CONTINUOUS
 10
-88.914375606
 20
0.5044870332
 11
-88.9322401039
 21
0.6594695026
  0
LINE
  5
422
100
AcDbEntity
  8
0
100
AcDbLine
 62
7
  6
CONTINUOUS
 10
-88.6858617564
 20
-0.5051470942
 11
-88.6683029587
 21
-0.6575319134
  0
LINE
  5
423
100
AcDbEntity
  8
0
100
AcDbLine
 62
7
  6
CONTINUOUS
 10
-87.9909526999
 20
-0.6575319134
 11
-88.0085114978
 21
-0.5051470942
  0
LINE
  5
424
100
AcDbEntity
  8
0
100
AcDbLine
 62
7
  6
CONTINUOUS
 10
-87.0859064387
 20
-0.5047520136
 11
-87.068345849
 21
-0.6571794348
  0
LWPOLYLINE
  5
425
100
AcDbEntity
  8
0
100
AcDbPolyline
 62
7
  6
CONTINUOUS
 90
3
 70
0
 10
-87.308761694
 20
0.4535859133
 10
-87.3167407236
 20
0.525642587
 10
-87.3327363551
 20
0.6636029211
  0
LINE
  5
426
100
AcDbEntity
  8
0
100
AcDbLine
 62
7
  6
CONTINUOUS
 10
-89.7062618639
 20
0.4306284288
 11
-89.7243626718
 21
0.5925489767
  0
LINE
  5
427
100
AcDbEntity
  8
0
100
AcDbLine
 62
7
  6
CONTINUOUS
 10
-89.4940009086
 20
-0.4310784855
 11
-89.4758846289
 21
-0.5931046319
  0
LINE
  5
428
100
AcDbEntity
  8
0
100
AcDbLine
 62
7
  6
CONTINUOUS
 10
-88.79853437
 20
-0.5931046319
 11
-88.8166506495
 21
-0.4310784855
  0
LWPOLYLINE
  5
429
100
AcDbEntity
  8
0
100
AcDbPolyline
 62
7
  6
CONTINUOUS
 90
3
 70
0
 10
-88.1062102191
 20
0.4301599607
 10
-88.115234856
 20
0.5121979983
 10
-88.133192891
 20
0.6674013773
  0
LINE
  5
42A
100
AcDbEntity
  8
0
100
AcDbLine
 62
7
  6
CONTINUOUS
 10
-87.8940031272
 20
-0.4310604631
 11
-87.8758876648
 21
-0.5930809302
  0
LINE
  5
42B
100
AcDbEntity
  8
0
100
AcDbLine
 62
7
  6
CONTINUOUS
 10
-87.1985373961
 20
-0.5930809302
 11
-87.2166528584
 21
-0.4310604632
  0
LINE
  5
42C
100
AcDbEntity
  8
0
100
AcDbLine
 62
7
  6
CONTINUOUS
 10
-86.4085561764
 20
-0.5047520136
 11
-86.42620406
 21
-0.3419141374
  0
LINE
  5
42D
100
AcDbEntity
  8
0
100
AcDbLine
 62
7
  6
CONTINUOUS
 10
-86.3919034388
 20
0.5060844935
 11
-86.3740246323
 21
0.3411347734
  0
LINE
  5
42E
100
AcDbEntity
  8
0
100
AcDbLine
 62
7
  6
CONTINUOUS
 10
-85.696674375
 20
0.3411347734
 11
-85.7145531814
 21
0.5060844935
  0
LINE
  5
42F
100
AcDbEntity
  8
0
100
AcDbLine
 62
7
  6
CONTINUOUS
 10
-85.5924454583
 20
0.5109459949
 11
-85.57446392
 21
0.3452819681
  0
LINE
  5
430
100
AcDbEntity
  8
0
100
AcDbLine
 62
7
  6
CONTINUOUS
 10
-84.8971136566
 20
0.3452819682
 11
-84.9150951953
 21
0.5109459949
  0
LINE
  5
431
100
AcDbEntity
  8
0
100
AcDbLine
 62
7
  6
CONTINUOUS
 10
-84.7918737568
 20
0.5058120326
 11
-84.7740127646
 21
0.3410162551
  0
LINE
  5
432
100
AcDbEntity
  8
0
100
AcDbLine
 62
7
  6
CONTINUOUS
 10
-85.5135577587
 20
-0.2464885378
 11
-85.4881508313
 21
-0.4845124117
  0
LINE
  5
433
100
AcDbEntity
  8
0
100
AcDbLine
 62
7
  6
CONTINUOUS
 10
-84.8108005661
 20
-0.4845124117
 11
-84.8362074941
 21
-0.2464885378
  0
LINE
  5
434
100
AcDbEntity
  8
0
100
AcDbLine
 62
7
  6
CONTINUOUS
 10
-86.4792210894
 20
0.1736021321
 11
-86.5062207595
 21
0.4302503515
  0
LINE
  5
435
100
AcDbEntity
  8
0
100
AcDbLine
 62
7
  6
CONTINUOUS
 10
-86.3210765169
 20
-0.1737344446
 11
-86.2940049808
 21
-0.4310381187
  0
LINE
  5
436
100
AcDbEntity
  8
0
100
AcDbLine
 62
7
  6
CONTINUOUS
 10
-85.6166547235
 20
-0.4310381187
 11
-85.6437262596
 21
-0.1737344446
  0
LINE
  5
437
100
AcDbEntity
  8
0
100
AcDbLine
 62
7
  6
CONTINUOUS
 10
-84.7210762072
 20
-0.1737443856
 11
-84.6940031235
 21
-0.4310619266
  0
LINE
  5
438
100
AcDbEntity
  8
0
100
AcDbLine
 62
7
  6
CONTINUOUS
 10
-86.42620406
 20
-0.3419141374
 11
-86.4792210894
 21
0.1736021321
  0
LINE
  5
439
100
AcDbEntity
  8
0
100
AcDbLine
 62
7
  6
CONTINUOUS
 10
-86.3740246323
 20
0.3411347734
 11
-86.3210765169
 21
-0.1737344446
  0
LINE
  5
43A
100
AcDbEntity
  8
0
100
AcDbLine
 62
7
  6
CONTINUOUS
 10
-85.6437262596
 20
-0.1737344446
 11
-85.696674375
 21
0.3411347734
  0
LINE
  5
43B
100
AcDbEntity
  8
0
100
AcDbLine
 62
7
  6
CONTINUOUS
 10
-85.57446392
 20
0.3452819681
 11
-85.5135577587
 21
-0.2464885378
  0
LINE
  5
43C
100
AcDbEntity
  8
0
100
AcDbLine
 62
7
  6
CONTINUOUS
 10
-84.8362074941
 20
-0.2464885378
 11
-84.8971136566
 21
0.3452819682
  0
LINE
  5
43D
100
AcDbEntity
  8
0
100
AcDbLine
 62
7
  6
CONTINUOUS
 10
-84.7740127646
 20
0.3410162551
 11
-84.7210762072
 21
-0.1737443856
  0
LWPOLYLINE
  5
43E
100
AcDbEntity
  8
0
100
AcDbPolyline
 62
7
  6
CONTINUOUS
 90
13
 70
0
 10
-84.3626963465
 20
-1.1097596273
 10
-84.3541469638
 20
-1.1980480481
 10
-84.3455975811
 20
-1.2809368854
 10
-84.3370481984
 20
-1.3580525607
 10
-84.3284988157
 20
-1.4290475155
 10
-84.3199494329
 20
-1.4936017768
 10
-84.3114000502
 20
-1.5514244001
 10
-84.3028506675
 20
-1.6022547802
 10
-84.2943012848
 20
-1.6458638255
 10
-84.2857519021
 20
-1.6820549914
 10
-84.2772025194
 20
-1.7106651651
 10
-84.2686531366
 20
-1.7315654015
 10
-84.266114998
 20
-1.7362712368
  0
LWPOLYLINE
  5
43F
100
AcDbEntity
  8
0
100
AcDbPolyline
 62
7
  6
CONTINUOUS
 90
15
 70
0
 10
-84.2626963465
 20
-1.1097596273
 10
-84.2541469638
 20
-1.1980480481
 10
-84.2455975811
 20
-1.2809368854
 10
-84.2370481984
 20
-1.3580525607
 10
-84.2284988157
 20
-1.4290475155
 10
-84.2199494329
 20
-1.4936017768
 10
-84.2114000502
 20
-1.5514244001
 10
-84.2028506675
 20
-1.6022547802
 10
-84.1943012848
 20
-1.6458638255
 10
-84.1857519021
 20
-1.6820549914
 10
-84.1772025194
 20
-1.7106651651
 10
-84.1686531366
 20
-1.7315654015
 10
-84.1601037539
 20
-1.7446615038
 10
-84.1515543712
 20
-1.7498944484
 10
-84.1501559791
 20
-1.7499999942
  0
LWPOLYLINE
  5
440
100
AcDbEntity
  8
0
100
AcDbPolyline
 62
7
  6
CONTINUOUS
 90
13
 70
0
 10
-86.7650728897
 20
-1.0843095897
 10
-86.756523507
 20
-1.1740293524
 10
-86.7479741243
 20
-1.2584577888
 10
-86.7394247416
 20
-1.3372143821
 10
-86.7308753589
 20
-1.409944178
 10
-86.7223259762
 20
-1.4763193849
 10
-86.7137765934
 20
-1.5360408515
 10
-86.7052272107
 20
-1.5888394144
 10
-86.696677828
 20
-1.6344771118
 10
-86.6881284453
 20
-1.6727482557
 10
-86.6795790626
 20
-1.703480359
 10
-86.6710296799
 20
-1.7265349129
 10
-86.6661147977
 20
-1.7362712222
  0
LWPOLYLINE
  5
441
100
AcDbEntity
  8
0
100
AcDbPolyline
 62
7
  6
CONTINUOUS
 90
15
 70
0
 10
-86.6650728897
 20
-1.0843095897
 10
-86.656523507
 20
-1.1740293524
 10
-86.6479741243
 20
-1.2584577888
 10
-86.6394247416
 20
-1.3372143821
 10
-86.6308753589
 20
-1.409944178
 10
-86.6223259762
 20
-1.4763193849
 10
-86.6137765934
 20
-1.5360408515
 10
-86.6052272107
 20
-1.5888394144
 10
-86.596677828
 20
-1.6344771118
 10
-86.5881284453
 20
-1.6727482557
 10
-86.5795790626
 20
-1.703480359
 10
-86.5710296799
 20
-1.7265349129
 10
-86.5624802971
 20
-1.7418080111
 10
-86.5539309144
 20
-1.7492308183
 10
-86.5501557667
 20
-1.7499999899
  0
LWPOLYLINE
  5
442
100
AcDbEntity
  8
0
100
AcDbPolyline
 62
7
  6
CONTINUOUS
 90
13
 70
0
 10
-85.1663383218
 20
-1.0706000208
 10
-85.1577889391
 20
-1.16106958
 10
-85.1492395564
 20
-1.2463062058
 10
-85.1406901737
 20
-1.3259257368
 10
-85.132140791
 20
-1.3995693276
 10
-85.1235914083
 20
-1.4669050662
 10
-85.1150420255
 20
-1.5276294701
 10
-85.1064926428
 20
-1.5814688542
 10
-85.0979432601
 20
-1.6281805639
 10
-85.0893938774
 20
-1.667554069
 10
-85.0808444947
 20
-1.6994119127
 10
-85.072295112
 20
-1.723610511
 10
-85.0661145523
 20
-1.7362712926
  0
LWPOLYLINE
  5
443
100
AcDbEntity
  8
0
100
AcDbPolyline
 62
7
  6
CONTINUOUS
 90
15
 70
0
 10
-85.0663383218
 20
-1.0706000208
 10
-85.0577889391
 20
-1.16106958
 10
-85.0492395564
 20
-1.2463062058
 10
-85.0406901737
 20
-1.3259257368
 10
-85.032140791
 20
-1.3995693276
 10
-85.0235914083
 20
-1.4669050662
 10
-85.0150420255
 20
-1.5276294701
 10
-85.0064926428
 20
-1.5814688542
 10
-84.9979432601
 20
-1.6281805639
 10
-84.9893938774
 20
-1.667554069
 10
-84.9808444947
 20
-1.6994119127
 10
-84.972295112
 20
-1.723610511
 10
-84.9637457292
 20
-1.7400408002
 10
-84.9551963465
 20
-1.7486287285
 10
-84.9501555927
 20
-1.7499999999
  0
LWPOLYLINE
  5
444
100
AcDbEntity
  8
0
100
AcDbPolyline
 62
7
  6
CONTINUOUS
 90
14
 70
0
 10
-85.9699802971
 20
-1.030568877
 10
-85.9614309144
 20
-1.1231450226
 10
-85.9528815317
 20
-1.2106591767
 10
-85.944332149
 20
-1.2927169146
 10
-85.9357827663
 20
-1.3689484035
 10
-85.9272333836
 20
-1.4390100695
 10
-85.9186840008
 20
-1.5025861457
 10
-85.9101346181
 20
-1.5593900958
 10
-85.9015852354
 20
-1.6091659053
 10
-85.8930358527
 20
-1.6516892354
 10
-85.88448647
 20
-1.6867684339
 10
-85.8759370873
 20
-1.7142453994
 10
-85.8673877046
 20
-1.7339962934
 10
-85.866114241
 20
-1.7362712268
  0
LWPOLYLINE
  5
445
100
AcDbEntity
  8
0
100
AcDbPolyline
 62
7
  6
CONTINUOUS
 90
15
 70
0
 10
-85.8699802971
 20
-1.030568877
 10
-85.8614309144
 20
-1.1231450226
 10
-85.8528815317
 20
-1.2106591767
 10
-85.844332149
 20
-1.2927169146
 10
-85.8357827663
 20
-1.3689484035
 10
-85.8272333836
 20
-1.4390100695
 10
-85.8186840008
 20
-1.5025861457
 10
-85.8101346181
 20
-1.5593900958
 10
-85.8015852354
 20
-1.6091659053
 10
-85.7930358527
 20
-1.6516892354
 10
-85.78448647
 20
-1.6867684339
 10
-85.7759370873
 20
-1.7142453994
 10
-85.7673877046
 20
-1.7339962934
 10
-85.7588383218
 20
-1.7459320987
 10
-85.7501552207
 20
-1.7499999857
  0
LINE
  5
446
100
AcDbEntity
  8
0
100
AcDbLine
 62
7
  6
CONTINUOUS
 10
-84.379795112
 20
-0.9185982342
 11
-84.3626963465
 21
-1.1097596273
  0
LINE
  5
447
100
AcDbEntity
  8
0
100
AcDbLine
 62
7
  6
CONTINUOUS
 10
-84.279795112
 20
-0.9185982342
 11
-84.2626963465
 21
-1.1097596273
  0
LINE
  5
448
100
AcDbEntity
  8
0
100
AcDbLine
 62
7
  6
CONTINUOUS
 10
-85.3373259762
 20
1.1066858669
 11
-85.3202272107
 21
0.9152152255
  0
LINE
  5
449
100
AcDbEntity
  8
0
100
AcDbLine
 62
7
  6
CONTINUOUS
 10
-85.2373259762
 20
1.1066858669
 11
-85.2202272107
 21
0.9152152255
  0
LINE
  5
44A
100
AcDbEntity
  8
0
100
AcDbLine
 62
7
  6
CONTINUOUS
 10
-86.9360605441
 20
1.0931510237
 11
-86.9189617786
 21
0.9003380495
  0
LINE
  5
44B
100
AcDbEntity
  8
0
100
AcDbLine
 62
7
  6
CONTINUOUS
 10
-86.8360605441
 20
1.0931510237
 11
-86.8189617786
 21
0.9003380495
  0
LINE
  5
44C
100
AcDbEntity
  8
0
100
AcDbLine
 62
7
  6
CONTINUOUS
 10
-86.7821716552
 20
-0.8906355712
 11
-86.7650728897
 21
-1.0843095897
  0
LINE
  5
44D
100
AcDbEntity
  8
0
100
AcDbLine
 62
7
  6
CONTINUOUS
 10
-86.6821716552
 20
-0.8906355712
 11
-86.6650728897
 21
-1.0843095897
  0
LINE
  5
44E
100
AcDbEntity
  8
0
100
AcDbLine
 62
7
  6
CONTINUOUS
 10
-85.1834370873
 20
-0.8756148346
 11
-85.1663383218
 21
-1.0706000208
  0
LINE
  5
44F
100
AcDbEntity
  8
0
100
AcDbLine
 62
7
  6
CONTINUOUS
 10
-85.0834370873
 20
-0.8756148346
 11
-85.0663383218
 21
-1.0706000208
  0
LINE
  5
450
100
AcDbEntity
  8
0
100
AcDbLine
 62
7
  6
CONTINUOUS
 10
-84.5336840008
 20
1.0674538007
 11
-84.5165852354
 21
0.8721721303
  0
LINE
  5
451
100
AcDbEntity
  8
0
100
AcDbLine
 62
7
  6
CONTINUOUS
 10
-84.4336840008
 20
1.0674538007
 11
-84.4165852354
 21
0.8721721303
  0
LINE
  5
452
100
AcDbEntity
  8
0
100
AcDbLine
 62
7
  6
CONTINUOUS
 10
-86.1324185687
 20
1.0536259806
 11
-86.1153198033
 21
0.8570584306
  0
LINE
  5
453
100
AcDbEntity
  8
0
100
AcDbLine
 62
7
  6
CONTINUOUS
 10
-86.0324185687
 20
1.0536259806
 11
-86.0153198033
 21
0.8570584306
  0
LINE
  5
454
100
AcDbEntity
  8
0
100
AcDbLine
 62
7
  6
CONTINUOUS
 10
-85.9870790626
 20
-0.8319205009
 11
-85.9699802971
 21
-1.030568877
  0
LINE
  5
455
100
AcDbEntity
  8
0
100
AcDbLine
 62
7
  6
CONTINUOUS
 10
-85.8870790626
 20
-0.8319205009
 11
-85.8699802971
 21
-1.030568877
  0
LINE
  5
456
100
AcDbEntity
  8
0
100
AcDbLine
 62
7
  6
CONTINUOUS
 10
-85.3202272107
 20
0.9152152255
 11
-85.3031284453
 21
0.7072636964
  0
LINE
  5
457
100
AcDbEntity
  8
0
100
AcDbLine
 62
7
  6
CONTINUOUS
 10
-85.2202272107
 20
0.9152152255
 11
-85.2031284453
 21
0.7072636964
  0
LINE
  5
458
100
AcDbEntity
  8
0
100
AcDbLine
 62
7
  6
CONTINUOUS
 10
-84.3968938774
 20
-0.7108950662
 11
-84.379795112
 21
-0.9185982342
  0
LINE
  5
459
100
AcDbEntity
  8
0
100
AcDbLine
 62
7
  6
CONTINUOUS
 10
-84.2968938774
 20
-0.7108950662
 11
-84.279795112
 21
-0.9185982342
  0
LINE
  5
45A
100
AcDbEntity
  8
0
100
AcDbLine
 62
7
  6
CONTINUOUS
 10
-86.9189617786
 20
0.9003380495
 11
-86.9018630132
 21
0.6913121442
  0
LINE
  5
45B
100
AcDbEntity
  8
0
100
AcDbLine
 62
7
  6
CONTINUOUS
 10
-86.8189617786
 20
0.9003380495
 11
-86.8018630132
 21
0.6913121442
  0
LINE
  5
45C
100
AcDbEntity
  8
0
100
AcDbLine
 62
7
  6
CONTINUOUS
 10
-86.7992704206
 20
-0.6809233374
 11
-86.7821716552
 21
-0.8906355712
  0
LINE
  5
45D
100
AcDbEntity
  8
0
100
AcDbLine
 62
7
  6
CONTINUOUS
 10
-86.6992704206
 20
-0.6809233374
 11
-86.6821716552
 21
-0.8906355712
  0
LINE
  5
45E
100
AcDbEntity
  8
0
100
AcDbLine
 62
7
  6
CONTINUOUS
 10
-85.2005358527
 20
-0.6648618785
 11
-85.1834370873
 21
-0.8756148346
  0
LINE
  5
45F
100
AcDbEntity
  8
0
100
AcDbLine
 62
7
  6
CONTINUOUS
 10
-85.1005358527
 20
-0.6648618785
 11
-85.0834370873
 21
-0.8756148346
  0
LINE
  5
460
100
AcDbEntity
  8
0
100
AcDbLine
 62
7
  6
CONTINUOUS
 10
-84.5165852354
 20
0.8721721303
 11
-84.49948647
 21
0.6611847137
  0
LINE
  5
461
100
AcDbEntity
  8
0
100
AcDbLine
 62
7
  6
CONTINUOUS
 10
-84.4165852354
 20
0.8721721303
 11
-84.39948647
 21
0.6611847137
  0
LINE
  5
462
100
AcDbEntity
  8
0
100
AcDbLine
 62
7
  6
CONTINUOUS
 10
-86.1153198033
 20
0.8570584306
 11
-86.0982210379
 21
0.6450573102
  0
LINE
  5
463
100
AcDbEntity
  8
0
100
AcDbLine
 62
7
  6
CONTINUOUS
 10
-86.0153198033
 20
0.8570584306
 11
-85.9982210379
 21
0.6450573102
  0
LINE
  5
464
100
AcDbEntity
  8
0
100
AcDbLine
 62
7
  6
CONTINUOUS
 10
-86.004177828
 20
-0.6182912313
 11
-85.9870790626
 21
-0.8319205009
  0
LINE
  5
465
100
AcDbEntity
  8
0
100
AcDbLine
 62
7
  6
CONTINUOUS
 10
-85.904177828
 20
-0.6182912313
 11
-85.8870790626
 21
-0.8319205009
  0
LINE
  5
466
100
AcDbEntity
  8
0
100
AcDbLine
 62
7
  6
CONTINUOUS
 10
-85.3031284453
 20
0.7072636964
 11
-85.2774802971
 21
0.3726909538
  0
LINE
  5
467
100
AcDbEntity
  8
0
100
AcDbLine
 62
7
  6
CONTINUOUS
 10
-85.2031284453
 20
0.7072636964
 11
-85.1774802971
 21
0.3726909538
  0
LINE
  5
468
100
AcDbEntity
  8
0
100
AcDbLine
 62
7
  6
CONTINUOUS
 10
-84.4225420255
 20
-0.3765712247
 11
-84.3968938774
 21
-0.7108950662
  0
LINE
  5
469
100
AcDbEntity
  8
0
100
AcDbLine
 62
7
  6
CONTINUOUS
 10
-84.3225420255
 20
-0.3765712247
 11
-84.2968938774
 21
-0.7108950662
  0
LINE
  5
46A
100
AcDbEntity
  8
0
100
AcDbLine
 62
7
  6
CONTINUOUS
 10
-86.9018630132
 20
0.6913121442
 11
-86.876214865
 21
0.3556711552
  0
LINE
  5
46B
100
AcDbEntity
  8
0
100
AcDbLine
 62
7
  6
CONTINUOUS
 10
-86.8018630132
 20
0.6913121442
 11
-86.776214865
 21
0.3556711552
  0
LINE
  5
46C
100
AcDbEntity
  8
0
100
AcDbLine
 62
7
  6
CONTINUOUS
 10
-86.8334679515
 20
-0.2287106857
 11
-86.7992704206
 21
-0.6809233374
  0
LINE
  5
46D
100
AcDbEntity
  8
0
100
AcDbLine
 62
7
  6
CONTINUOUS
 10
-86.7334679515
 20
-0.2287106857
 11
-86.6992704206
 21
-0.6809233374
  0
LINE
  5
46E
100
AcDbEntity
  8
0
100
AcDbLine
 62
7
  6
CONTINUOUS
 10
-85.2347333836
 20
-0.211448938
 11
-85.2005358527
 21
-0.6648618785
  0
LINE
  5
46F
100
AcDbEntity
  8
0
100
AcDbLine
 62
7
  6
CONTINUOUS
 10
-85.1347333836
 20
-0.211448938
 11
-85.1005358527
 21
-0.6648618785
  0
LINE
  5
470
100
AcDbEntity
  8
0
100
AcDbLine
 62
7
  6
CONTINUOUS
 10
-84.49948647
 20
0.6611847137
 11
-84.4652889391
 21
0.2075045849
  0
LINE
  5
471
100
AcDbEntity
  8
0
100
AcDbLine
 62
7
  6
CONTINUOUS
 10
-84.39948647
 20
0.6611847137
 11
-84.3652889391
 21
0.2075045849
  0
LINE
  5
472
100
AcDbEntity
  8
0
100
AcDbLine
 62
7
  6
CONTINUOUS
 10
-86.0982210379
 20
0.6450573102
 11
-86.064023507
 21
0.190234059
  0
LINE
  5
473
100
AcDbEntity
  8
0
100
AcDbLine
 62
7
  6
CONTINUOUS
 10
-85.9982210379
 20
0.6450573102
 11
-85.964023507
 21
0.190234059
  0
LINE
  5
474
100
AcDbEntity
  8
0
100
AcDbLine
 62
7
  6
CONTINUOUS
 10
-86.876214865
 20
0.3556711552
 11
-86.8334679515
 21
-0.2287106857
  0
LINE
  5
475
100
AcDbEntity
  8
0
100
AcDbLine
 62
7
  6
CONTINUOUS
 10
-86.776214865
 20
0.3556711552
 11
-86.7334679515
 21
-0.2287106857
  0
LINE
  5
476
100
AcDbEntity
  8
0
100
AcDbLine
 62
7
  6
CONTINUOUS
 10
-86.064023507
 20
0.190234059
 11
-86.004177828
 21
-0.6182912313
  0
LINE
  5
477
100
AcDbEntity
  8
0
100
AcDbLine
 62
7
  6
CONTINUOUS
 10
-85.964023507
 20
0.190234059
 11
-85.904177828
 21
-0.6182912313
  0
LINE
  5
478
100
AcDbEntity
  8
0
100
AcDbLine
 62
7
  6
CONTINUOUS
 10
-85.2774802971
 20
0.3726909538
 11
-85.2347333836
 21
-0.211448938
  0
LINE
  5
479
100
AcDbEntity
  8
0
100
AcDbLine
 62
7
  6
CONTINUOUS
 10
-85.1774802971
 20
0.3726909538
 11
-85.1347333836
 21
-0.211448938
  0
LINE
  5
47A
100
AcDbEntity
  8
0
100
AcDbLine
 62
7
  6
CONTINUOUS
 10
-84.4652889391
 20
0.2075045849
 11
-84.4225420255
 21
-0.3765712247
  0
LINE
  5
47B
100
AcDbEntity
  8
0
100
AcDbLine
 62
7
  6
CONTINUOUS
 10
-84.3652889391
 20
0.2075045849
 11
-84.3225420255
 21
-0.3765712247
  0
LINE
  5
47C
100
AcDbEntity
  8
RACCORDO
100
AcDbLine
 62
7
  6
CONTINUOUS
 10
-84.7366469638
 20
9.3254493507
 11
-84.7366469638
 21
1.6151390122
  0
LINE
  5
47D
100
AcDbEntity
  8
RACCORDO
100
AcDbLine
 62
7
  6
CONTINUOUS
 10
-84.7366469638
 20
-1.3974262271
 11
-84.7366469638
 21
-9.3254493507
  0
LINE
  5
47E
100
AcDbEntity
  8
0
100
AcDbLine
 62
7
  6
CONTINUOUS
 10
-85.4661142092
 20
1.7362712512
 11
-85.7470881787
 21
1.2548356353
  0
LINE
  5
47F
100
AcDbEntity
  8
0
100
AcDbLine
 62
7
  6
CONTINUOUS
 10
-84.666114975
 20
1.7362712624
 11
-84.9470889494
 21
1.2548356347
  0
LINE
  5
480
100
AcDbEntity
  8
0
100
AcDbLine
 62
7
  6
CONTINUOUS
 10
-83.8661147761
 20
1.7362712214
 11
-84.1470887283
 21
1.2548356461
  0
LINE
  5
481
100
AcDbEntity
  8
0
100
AcDbLine
 62
7
  6
CONTINUOUS
 10
-83.0661142291
 20
1.7362712281
 11
-83.3470881859
 21
1.2548356422
  0
LINE
  5
482
100
AcDbEntity
  8
0
100
AcDbLine
 62
7
  6
CONTINUOUS
 10
-87.3341968728
 20
-1.7362710883
 11
-87.0532223895
 21
-1.2548362871
  0
LINE
  5
483
100
AcDbEntity
  8
0
100
AcDbLine
 62
7
  6
CONTINUOUS
 10
-86.534196634
 20
-1.7362710475
 11
-86.2532221728
 21
-1.2548362986
  0
LINE
  5
484
100
AcDbEntity
  8
0
100
AcDbLine
 62
7
  6
CONTINUOUS
 10
-85.7341961001
 20
-1.7362710539
 11
-85.4532216347
 21
-1.254836295
  0
LINE
  5
485
100
AcDbEntity
  8
0
100
AcDbLine
 62
7
  6
CONTINUOUS
 10
-84.9341965328
 20
-1.7362711192
 11
-84.653222032
 21
-1.2548362767
  0
LWPOLYLINE
  5
486
100
AcDbEntity
  8
0
100
AcDbPolyline
 62
7
  6
CONTINUOUS
 90
4
 70
0
 10
-83.0661142291
 20
1.7362712281
 10
-83.0631901737
 20
1.7408371942
 10
-83.054640791
 20
1.7489141104
 10
-83.0501552102
 20
1.7499999858
  0
LINE
  5
487
100
AcDbEntity
  8
0
100
AcDbLine
 62
7
  6
CONTINUOUS
 10
-84.9380975811
 20
-1.742158196
 11
-84.9341965328
 21
-1.7362711192
  0
LWPOLYLINE
  5
488
100
AcDbEntity
  8
0
100
AcDbPolyline
 62
7
  6
CONTINUOUS
 90
4
 70
0
 10
-84.666114975
 20
1.7362712624
 10
-84.6619247416
 20
1.7425296576
 10
-84.6533753589
 20
1.7494406157
 10
-84.6501559812
 20
1.7499999983
  0
LWPOLYLINE
  5
489
100
AcDbEntity
  8
0
100
AcDbPolyline
 62
7
  6
CONTINUOUS
 90
3
 70
0
 10
-82.2661145986
 20
1.7362712936
 10
-82.2595481984
 20
1.7452405141
 10
-82.2501556392
 20
1.75
  0
LWPOLYLINE
  5
48A
100
AcDbEntity
  8
0
100
AcDbPolyline
 62
7
  6
CONTINUOUS
 90
3
 70
0
 10
-83.8661147761
 20
1.7362712214
 10
-83.8582827663
 20
1.746436278
 10
-83.8501557446
 20
1.7499999896
  0
LINE
  5
48B
100
AcDbEntity
  8
0
100
AcDbLine
 62
7
  6
CONTINUOUS
 10
-84.9466469638
 20
-1.7493355892
 11
-84.9380975811
 21
-1.742158196
  0
LWPOLYLINE
  5
48C
100
AcDbEntity
  8
0
100
AcDbPolyline
 62
7
  6
CONTINUOUS
 90
3
 70
0
 10
-85.7501552207
 20
-1.7499999857
 10
-85.7417395564
 20
-1.7461787292
 10
-85.7341961001
 20
-1.7362710539
  0
LWPOLYLINE
  5
48D
100
AcDbEntity
  8
0
100
AcDbPolyline
 62
7
  6
CONTINUOUS
 90
3
 70
0
 10
-89.7501559981
 20
-1.7499999949
 10
-89.7428506675
 20
-1.7471202888
 10
-89.7341968795
 20
-1.7362710645
  0
LWPOLYLINE
  5
48E
100
AcDbEntity
  8
0
100
AcDbPolyline
 62
7
  6
CONTINUOUS
 90
3
 70
0
 10
-84.1501559791
 20
-1.7499999942
 10
-84.1430049885
 20
-1.7472406509
 10
-84.1341968577
 20
-1.7362710614
  0
LWPOLYLINE
  5
48F
100
AcDbEntity
  8
0
100
AcDbPolyline
 62
7
  6
CONTINUOUS
 90
4
 70
0
 10
-88.1501552021
 20
-1.7499999891
 10
-88.1441160996
 20
-1.7480318695
 10
-88.1355667169
 20
-1.7385255005
 10
-88.134196104
 20
-1.7362710766
  0
LINE
  5
490
100
AcDbEntity
  8
0
100
AcDbLine
 62
7
  6
CONTINUOUS
 10
-93.1120846578
 20
1.25
 11
-92.938831138
 21
1.25
  0
LINE
  5
491
100
AcDbEntity
  8
0
100
AcDbLine
 62
7
  6
CONTINUOUS
 10
-92.2503893184
 20
1.25
 11
-92.1388306326
 21
1.25
  0
LINE
  5
492
100
AcDbEntity
  8
0
100
AcDbLine
 62
7
  6
CONTINUOUS
 10
-91.4503888085
 20
1.25
 11
-91.3388303233
 21
1.25
  0
LINE
  5
493
100
AcDbEntity
  8
0
100
AcDbLine
 62
7
  6
CONTINUOUS
 10
-90.6503885205
 20
1.25
 11
-90.5388310857
 21
1.25
  0
LINE
  5
494
100
AcDbEntity
  8
0
100
AcDbLine
 62
7
  6
CONTINUOUS
 10
-89.8503892803
 20
1.25
 11
-89.7388309189
 21
1.25
  0
LINE
  5
495
100
AcDbEntity
  8
0
100
AcDbLine
 62
7
  6
CONTINUOUS
 10
-89.0503890929
 20
1.25
 11
-88.9388303611
 21
1.25
  0
LINE
  5
496
100
AcDbEntity
  8
0
100
AcDbLine
 62
7
  6
CONTINUOUS
 10
-88.250388546
 20
1.25
 11
-88.1388306817
 21
1.25
  0
LINE
  5
497
100
AcDbEntity
  8
0
100
AcDbLine
 62
7
  6
CONTINUOUS
 10
-87.4503888969
 20
1.25
 11
-87.3388311215
 21
1.25
  0
LINE
  5
498
100
AcDbEntity
  8
0
100
AcDbLine
 62
7
  6
CONTINUOUS
 10
-86.6503893005
 20
1.25
 11
-86.5388305868
 21
1.25
  0
LINE
  5
499
100
AcDbEntity
  8
0
100
AcDbLine
 62
7
  6
CONTINUOUS
 10
-85.8503887636
 20
1.25
 11
-85.7388303434
 21
1.25
  0
LINE
  5
49A
100
AcDbEntity
  8
0
100
AcDbLine
 62
7
  6
CONTINUOUS
 10
-85.0503885429
 20
1.25
 11
-84.938831115
 21
1.25
  0
LINE
  5
49B
100
AcDbEntity
  8
0
100
AcDbLine
 62
7
  6
CONTINUOUS
 10
-84.2503893067
 20
1.25
 11
-84.1388308748
 21
1.25
  0
LINE
  5
49C
100
AcDbEntity
  8
0
100
AcDbLine
 62
7
  6
CONTINUOUS
 10
-83.4503890488
 20
1.25
 11
-83.3388303389
 21
1.25
  0
LINE
  5
49D
100
AcDbEntity
  8
0
100
AcDbLine
 62
7
  6
CONTINUOUS
 10
-82.6503885256
 20
1.25
 11
-82.5388307737
 21
1.25
  0
LINE
  5
49E
100
AcDbEntity
  8
0
100
AcDbLine
 62
7
  6
CONTINUOUS
 10
-81.850388663
 20
1.25
 11
-81.7388310995
 21
1.25
  0
LINE
  5
49F
100
AcDbEntity
  8
0
100
AcDbLine
 62
7
  6
CONTINUOUS
 10
-81.050388953
 20
1.25
 11
-80.9388305427
 21
1.25
  0
LINE
  5
4A0
100
AcDbEntity
  8
0
100
AcDbLine
 62
7
  6
CONTINUOUS
 10
-80.2503883962
 20
1.25
 11
-80.1388303723
 21
1.25
  0
LINE
  5
4A1
100
AcDbEntity
  8
0
100
AcDbLine
 62
7
  6
CONTINUOUS
 10
-79.4503882499
 20
1.25
 11
-79.2544139168
 21
1.25
  0
LINE
  5
4A2
100
AcDbEntity
  8
0
100
AcDbLine
 62
7
  6
CONTINUOUS
 10
-93.2566469638
 20
1.2988899927
 11
-93.3566469638
 21
1.2988899927
  0
LINE
  5
4A3
100
AcDbEntity
  8
0
100
AcDbLine
 62
7
  6
CONTINUOUS
 10
-78.9625306178
 20
1.299720441
 11
-79.0625306178
 21
1.299720441
  0
LINE
  5
4A4
100
AcDbEntity
  8
0
100
AcDbLine
 62
7
  6
CONTINUOUS
 10
-94.2366469638
 20
1.45
 11
-93.7521170176
 21
1.45
  0
LINE
  5
4A5
100
AcDbEntity
  8
0
100
AcDbLine
 62
7
  6
CONTINUOUS
 10
-93.3329068642
 20
1.6030903179
 11
-93.4329068668
 21
1.6030903179
  0
LINE
  5
4A6
100
AcDbEntity
  8
0
100
AcDbLine
 62
7
  6
CONTINUOUS
 10
-79.7501552414
 20
1.7499999907
 11
-79.8501552414
 21
1.7499999907
  0
LINE
  5
4A7
100
AcDbEntity
  8
0
100
AcDbLine
 62
7
  6
CONTINUOUS
 10
-80.5501554139
 20
1.749999986
 11
-80.6501554139
 21
1.749999986
  0
LINE
  5
4A8
100
AcDbEntity
  8
0
100
AcDbLine
 62
7
  6
CONTINUOUS
 10
-81.3501559676
 20
1.7499999939
 11
-81.4501559676
 21
1.7499999939
  0
LINE
  5
4A9
100
AcDbEntity
  8
0
100
AcDbLine
 62
7
  6
CONTINUOUS
 10
-82.1501556392
 20
1.75
 11
-82.2501556392
 21
1.75
  0
LINE
  5
4AA
100
AcDbEntity
  8
0
100
AcDbLine
 62
7
  6
CONTINUOUS
 10
-82.9501552102
 20
1.7499999858
 11
-83.0501552102
 21
1.7499999858
  0
LINE
  5
4AB
100
AcDbEntity
  8
0
100
AcDbLine
 62
7
  6
CONTINUOUS
 10
-83.7501557446
 20
1.7499999896
 11
-83.8501557446
 21
1.7499999896
  0
LINE
  5
4AC
100
AcDbEntity
  8
0
100
AcDbLine
 62
7
  6
CONTINUOUS
 10
-84.5501559812
 20
1.7499999983
 11
-84.6501559812
 21
1.7499999983
  0
LINE
  5
4AD
100
AcDbEntity
  8
0
100
AcDbLine
 62
7
  6
CONTINUOUS
 10
-85.350155213
 20
1.7499999896
 11
-85.450155213
 21
1.7499999896
  0
LINE
  5
4AE
100
AcDbEntity
  8
0
100
AcDbLine
 62
7
  6
CONTINUOUS
 10
-86.1501554579
 20
1.7499999864
 11
-86.2501554579
 21
1.7499999864
  0
LINE
  5
4AF
100
AcDbEntity
  8
0
100
AcDbLine
 62
7
  6
CONTINUOUS
 10
-86.9501559893
 20
1.7499999946
 11
-87.0501559893
 21
1.7499999946
  0
LINE
  5
4B0
100
AcDbEntity
  8
0
100
AcDbLine
 62
7
  6
CONTINUOUS
 10
-87.7501555473
 20
1.7499999988
 11
-87.8501555473
 21
1.7499999988
  0
LINE
  5
4B1
100
AcDbEntity
  8
0
100
AcDbLine
 62
7
  6
CONTINUOUS
 10
-88.5501552325
 20
1.7499999856
 11
-88.6501552325
 21
1.7499999856
  0
LINE
  5
4B2
100
AcDbEntity
  8
0
100
AcDbLine
 62
7
  6
CONTINUOUS
 10
-89.3501557884
 20
1.7499999903
 11
-89.4501557884
 21
1.7499999903
  0
LINE
  5
4B3
100
AcDbEntity
  8
0
100
AcDbLine
 62
7
  6
CONTINUOUS
 10
-90.1501559517
 20
1.7499999987
 11
-90.2501559517
 21
1.7499999987
  0
LINE
  5
4B4
100
AcDbEntity
  8
0
100
AcDbLine
 62
7
  6
CONTINUOUS
 10
-90.9501551933
 20
1.7499999886
 11
-91.0501551933
 21
1.7499999886
  0
LINE
  5
4B5
100
AcDbEntity
  8
0
100
AcDbLine
 62
7
  6
CONTINUOUS
 10
-91.7501555035
 20
1.7499999868
 11
-91.8501555035
 21
1.7499999868
  0
LINE
  5
4B6
100
AcDbEntity
  8
0
100
AcDbLine
 62
7
  6
CONTINUOUS
 10
-92.5501560054
 20
1.7499999953
 11
-92.6501560054
 21
1.7499999953
  0
LWPOLYLINE
  5
4B7
100
AcDbEntity
  8
0
100
AcDbPolyline
 62
7
  6
CONTINUOUS
 90
15
 70
0
 10
-79.8501552414
 20
1.7499999907
 10
-79.8486222725
 20
1.7498731526
 10
-79.8400728897
 20
1.7445161474
 10
-79.831523507
 20
1.7312966251
 10
-79.8229741243
 20
1.7102741655
 10
-79.8144247416
 20
1.6815435159
 10
-79.8058753589
 20
1.6452341647
 10
-79.7973259762
 20
1.6015097572
 10
-79.7887765934
 20
1.5505673584
 10
-79.7802272107
 20
1.4926365648
 10
-79.771677828
 20
1.4279784694
 10
-79.7631284453
 20
1.3568844854
 10
-79.7545790626
 20
1.2796750321
 10
-79.7460296799
 20
1.1966980916
 10
-79.7374802971
 20
1.1083276399
  0
LWPOLYLINE
  5
4B8
100
AcDbEntity
  8
0
100
AcDbPolyline
 62
7
  6
CONTINUOUS
 90
4
 70
0
 10
-79.7501552414
 20
1.7499999907
 10
-79.7486222725
 20
1.7498731526
 10
-79.7400728897
 20
1.7445161474
 10
-79.7341978182
 20
1.7362739498
  0
LWPOLYLINE
  5
4B9
100
AcDbEntity
  8
0
100
AcDbPolyline
 62
7
  6
CONTINUOUS
 90
15
 70
0
 10
-85.450155213
 20
1.7499999896
 10
-85.4484679515
 20
1.7498463346
 10
-85.4399185687
 20
1.7443471138
 10
-85.431369186
 20
1.7309861401
 10
-85.4228198033
 20
1.7098236307
 10
-85.4142704206
 20
1.6809549644
 10
-85.4057210379
 20
1.6445102514
 10
-85.3971716552
 20
1.6006537472
 10
-85.3886222725
 20
1.549583112
 10
-85.3800728897
 20
1.4915285203
 10
-85.371523507
 20
1.426751623
 10
-85.3629741243
 20
1.3555443685
 10
-85.3544247416
 20
1.2782276868
 10
-85.3458753589
 20
1.195150043
 10
-85.3373259762
 20
1.1066858669
  0
LWPOLYLINE
  5
4BA
100
AcDbEntity
  8
0
100
AcDbPolyline
 62
7
  6
CONTINUOUS
 90
4
 70
0
 10
-85.350155213
 20
1.7499999896
 10
-85.3484679515
 20
1.7498463346
 10
-85.3399185687
 20
1.7443471138
 10
-85.3341961172
 20
1.7362710791
  0
LWPOLYLINE
  5
4BB
100
AcDbEntity
  8
0
100
AcDbPolyline
 62
7
  6
CONTINUOUS
 90
15
 70
0
 10
-91.0501551933
 20
1.7499999886
 10
-91.0483136305
 20
1.7498169455
 10
-91.0397642478
 20
1.744175509
 10
-91.031214865
 20
1.7306730953
 10
-91.0226654823
 20
1.7093705592
 10
-91.0141160996
 20
1.6803639103
 10
-91.0055667169
 20
1.6437838808
 10
-90.9970173342
 20
1.5997953361
 10
-90.9884679515
 20
1.5485965315
 10
-90.9799185687
 20
1.490418219
 10
-90.971369186
 20
1.4255226071
 10
-90.9628198033
 20
1.3542021793
 10
-90.9542704206
 20
1.2767783754
 10
-90.9457210379
 20
1.1936001434
 10
-90.9371716552
 20
1.1050423662
  0
LWPOLYLINE
  5
4BC
100
AcDbEntity
  8
0
100
AcDbPolyline
 62
7
  6
CONTINUOUS
 90
4
 70
0
 10
-90.9501551933
 20
1.7499999886
 10
-90.9483136305
 20
1.7498169455
 10
-90.9397642478
 20
1.744175509
 10
-90.934196093
 20
1.7362710743
  0
LWPOLYLINE
  5
4BD
100
AcDbEntity
  8
0
100
AcDbPolyline
 62
7
  6
CONTINUOUS
 90
16
 70
0
 10
-87.3388311215
 20
1.25
 10
-87.335743925
 20
1.2496325766
 10
-87.3269147282
 20
1.2445294358
 10
-87.3179818208
 20
1.2332786312
 10
-87.3089797935
 20
1.2158023283
 10
-87.2999493049
 20
1.1921671053
 10
-87.2908816637
 20
1.1624032398
 10
-87.2817855612
 20
1.126625294
 10
-87.2727277295
 20
1.0852862395
 10
-87.2637237324
 20
1.038751068
 10
-87.2547580061
 20
0.9872538466
 10
-87.2458505913
 20
0.9312453249
 10
-87.2370477324
 20
0.8714171668
 10
-87.228303185
 20
0.8078622372
 10
-87.219498256
 20
0.7400205591
 10
-87.2105805279
 20
0.6677054243
  0
LWPOLYLINE
  5
4BE
100
AcDbEntity
  8
0
100
AcDbPolyline
 62
7
  6
CONTINUOUS
 90
17
 70
0
 10
-92.1388306326
 20
1.25
 10
-92.1357328232
 20
1.2496300466
 10
-92.1269194052
 20
1.2445341792
 10
-92.1180046907
 20
1.2333160092
 10
-92.1090244347
 20
1.2159052088
 10
-92.1000179596
 20
1.1923710651
 10
-92.0909761127
 20
1.1627457535
 10
-92.0819080466
 20
1.1271478601
 10
-92.072880542
 20
1.0860323209
 10
-92.0639163231
 20
1.0398044718
 10
-92.0549926657
 20
0.988668333
 10
-92.0461081778
 20
0.9329337507
 10
-92.037297673
 20
0.8731783964
 10
-92.0285263376
 20
0.8095367206
 10
-92.0196883393
 20
0.7415278893
 10
-92.010731307
 20
0.6689607571
 10
-92.0017076118
 20
0.5925081934
  0
LWPOLYLINE
  5
4BF
100
AcDbEntity
  8
0
100
AcDbPolyline
 62
7
  6
CONTINUOUS
 90
16
 70
0
 10
-88.9388303611
 20
1.25
 10
-88.9357142273
 20
1.2496256568
 10
-88.9268821997
 20
1.244500251
 10
-88.9179461681
 20
1.2332227441
 10
-88.9089407076
 20
1.2157148677
 10
-88.8999068666
 20
1.1920440269
 10
-88.890836081
 20
1.1622413436
 10
-88.8817369148
 20
1.1264215627
 10
-88.8726761088
 20
1.0850384071
 10
-88.8636684456
 20
1.0384531872
 10
-88.8546991427
 20
0.9869038519
 10
-88.8457905932
 20
0.9308572534
 10
-88.8369900683
 20
0.8710165194
 10
-88.8282502968
 20
0.8074715896
 10
-88.8194518577
 20
0.7396593395
 10
-88.8105431487
 20
0.6674013773
  0
LWPOLYLINE
  5
4C0
100
AcDbEntity
  8
0
100
AcDbPolyline
 62
7
  6
CONTINUOUS
 90
17
 70
0
 10
-90.5388310857
 20
1.25
 10
-90.5356431894
 20
1.2496082167
 10
-90.5268303791
 20
1.2444517968
 10
-90.517917796
 20
1.2331760359
 10
-90.5089412886
 20
1.2157144773
 10
-90.499940421
 20
1.1921408867
 10
-90.4909061085
 20
1.162491455
 10
-90.4818474357
 20
1.126888251
 10
-90.4728312206
 20
1.0857898949
 10
-90.4638821444
 20
1.0396152295
 10
-90.4549755259
 20
0.9885620244
 10
-90.4461041389
 20
0.9329036691
 10
-90.4372999554
 20
0.8731903977
 10
-90.4285310033
 20
0.8095672605
 10
-90.4196941404
 20
0.7415690588
 10
-90.4107374951
 20
0.6690070944
 10
-90.401712939
 20
0.5925489767
  0
LWPOLYLINE
  5
4C1
100
AcDbEntity
  8
0
100
AcDbPolyline
 62
7
  6
CONTINUOUS
 90
16
 70
0
 10
-84.1388308748
 20
1.25
 10
-84.135526242
 20
1.2495790009
 10
-84.1266835374
 20
1.2443155052
 10
-84.1177331288
 20
1.2328786771
 10
-84.1087115423
 20
1.2151884275
 10
-84.0996620797
 20
1.1913170653
 10
-84.0905768876
 20
1.1613005051
 10
-84.0814638195
 20
1.1252545217
 10
-84.0723897379
 20
1.0836373707
 10
-84.0633670707
 20
1.0368007158
 10
-84.0543833901
 20
0.9849954563
 10
-84.0454682757
 20
0.9287392259
 10
-84.0366688772
 20
0.868748733
 10
-84.0279380451
 20
0.8051255838
 10
-84.0191639096
 20
0.7373749116
 10
-84.0103051607
 20
0.6654208877
  0
LWPOLYLINE
  5
4C2
100
AcDbEntity
  8
0
100
AcDbPolyline
 62
7
  6
CONTINUOUS
 90
16
 70
0
 10
-85.7388303434
 20
1.25
 10
-85.7354881728
 20
1.2495693817
 10
-85.7266445843
 20
1.2442795026
 10
-85.7176922943
 20
1.2328133105
 10
-85.7086685254
 20
1.2150905263
 10
-85.6996169776
 20
1.1911843532
 10
-85.690529919
 20
1.1611315409
 10
-85.6814150816
 20
1.1250480437
 10
-85.6723393613
 20
1.083392954
 10
-85.6633151414
 20
1.0365182415
 10
-85.6543300387
 20
0.9846754524
 10
-85.6454137997
 20
0.9283838879
 10
-85.6366125078
 20
0.8683535543
 10
-85.6278800795
 20
0.8046930858
 10
-85.6191080108
 20
0.736934661
 10
-85.6102577762
 20
0.665030021
  0
LWPOLYLINE
  5
4C3
100
AcDbEntity
  8
0
100
AcDbPolyline
 62
7
  6
CONTINUOUS
 90
16
 70
0
 10
-80.9388305427
 20
1.25
 10
-80.9352436565
 20
1.2495040183
 10
-80.9264006673
 20
1.2440482078
 10
-80.9174413229
 20
1.2324034526
 10
-80.9084088252
 20
1.2144892745
 10
-80.899349158
 20
1.1903842208
 10
-80.8902552777
 20
1.1601298378
 10
-80.8811342278
 20
1.1238430931
 10
-80.8720531223
 20
1.0819879131
 10
-80.863025642
 20
1.0349263983
 10
-80.8540381062
 20
0.9829067721
 10
-80.8451165865
 20
0.9264269312
 10
-80.8362971562
 20
0.8661233948
 10
-80.8275437422
 20
0.8021630236
 10
-80.8187741964
 20
0.7342846085
 10
-80.8099685799
 20
0.6626239659
  0
LWPOLYLINE
  5
4C4
100
AcDbEntity
  8
0
100
AcDbPolyline
 62
7
  6
CONTINUOUS
 90
5
 70
0
 10
-78.9625306178
 20
1.299720441
 10
-78.9591018794
 20
1.299241067
 10
-78.9508140075
 20
1.2941496804
 10
-78.9425261355
 20
1.2835712506
 10
-78.9409342975
 20
1.2809205464
  0
LWPOLYLINE
  5
4C5
100
AcDbEntity
  8
0
100
AcDbPolyline
 62
7
  6
CONTINUOUS
 90
15
 70
0
 10
-81.4501559676
 20
1.7499999939
 10
-81.4473568403
 20
1.7495771157
 10
-81.4388074576
 20
1.7430533088
 10
-81.4302580749
 20
1.7286735938
 10
-81.4217086922
 20
1.7065027799
 10
-81.4131593095
 20
1.6766407909
 10
-81.4046099268
 20
1.6392222145
 10
-81.3960605441
 20
1.5944156957
 10
-81.3875111613
 20
1.5424231768
 10
-81.3789617786
 20
1.4834789873
 10
-81.3704123959
 20
1.4178487877
 10
-81.3618630132
 20
1.3458283723
 10
-81.3533136305
 20
1.2677423358
 10
-81.3447642478
 20
1.1839426106
 10
-81.336214865
 20
1.0948068804
  0
LWPOLYLINE
  5
4C6
100
AcDbEntity
  8
0
100
AcDbPolyline
 62
7
  6
CONTINUOUS
 90
4
 70
0
 10
-81.3501559676
 20
1.7499999939
 10
-81.3473568403
 20
1.7495771157
 10
-81.3388074576
 20
1.7430533088
 10
-81.3341985126
 20
1.7362739254
  0
LWPOLYLINE
  5
4C7
100
AcDbEntity
  8
0
100
AcDbPolyline
 62
7
  6
CONTINUOUS
 90
15
 70
0
 10
-87.0501559893
 20
1.7499999946
 10
-87.0472025194
 20
1.7495291981
 10
-87.0386531366
 20
1.7428631994
 10
-87.0301037539
 20
1.728342148
 10
-87.0215543712
 20
1.7060314903
 10
-87.0130049885
 20
1.6760317803
 10
-87.0044556058
 20
1.6384782265
 10
-86.9959062231
 20
1.5935400823
 10
-86.9873568404
 20
1.5414198834
 10
-86.9788074576
 20
1.4823525346
 10
-86.9702580749
 20
1.4166042518
 10
-86.9617086922
 20
1.3444713613
 10
-86.9531593095
 20
1.266278965
 10
-86.9446099268
 20
1.1823794746
 10
-86.9360605441
 20
1.0931510237
  0
LWPOLYLINE
  5
4C8
100
AcDbEntity
  8
0
100
AcDbPolyline
 62
7
  6
CONTINUOUS
 90
4
 70
0
 10
-86.9501559893
 20
1.7499999946
 10
-86.9472025194
 20
1.7495291981
 10
-86.9386531366
 20
1.7428631994
 10
-86.9341968693
 20
1.7362710629
  0
LWPOLYLINE
  5
4C9
100
AcDbEntity
  8
0
100
AcDbPolyline
 62
7
  6
CONTINUOUS
 90
15
 70
0
 10
-92.6501560054
 20
1.7499999953
 10
-92.6470481984
 20
1.7494787115
 10
-92.6384988157
 20
1.7426705356
 10
-92.6299494329
 20
1.7280081739
 10
-92.6214000502
 20
1.7055577097
 10
-92.6128506675
 20
1.6754203271
 10
-92.6043012848
 20
1.6377318553
 10
-92.5957519021
 20
1.5926621556
 10
-92.5872025194
 20
1.5404143568
 10
-92.5786531366
 20
1.481223939
 10
-92.5701037539
 20
1.4153576726
 10
-92.5615543712
 20
1.3431124159
 10
-92.5530049885
 20
1.2648137771
 10
-92.5444556058
 20
1.180814647
 10
-92.5359062231
 20
1.0914936083
  0
LWPOLYLINE
  5
4CA
100
AcDbEntity
  8
0
100
AcDbPolyline
 62
7
  6
CONTINUOUS
 90
4
 70
0
 10
-92.5501560054
 20
1.7499999953
 10
-92.5470481984
 20
1.7494787115
 10
-92.5384988157
 20
1.7426705356
 10
-92.5341968884
 20
1.7362710661
  0
LWPOLYLINE
  5
4CB
100
AcDbEntity
  8
0
100
AcDbPolyline
 62
7
  6
CONTINUOUS
 90
17
 70
0
 10
-80.1388303723
 20
1.25
 10
-80.1339436411
 20
1.2490794575
 10
-80.1251757123
 20
1.2428186552
 10
-80.1163559351
 20
1.2305772808
 10
-80.1075194505
 20
1.2123935568
 10
-80.0987035524
 20
1.188435239
 10
-80.0899285236
 20
1.1589320382
 10
-80.0811740813
 20
1.124014732
 10
-80.0724166705
 20
1.0837711463
 10
-80.0636507306
 20
1.038355892
 10
-80.0548818222
 20
0.9880029316
 10
-80.0461030723
 20
0.9329012204
 10
-80.0373319541
 20
0.8734199887
 10
-80.0285509943
 20
0.8097218948
 10
-80.0197009006
 20
0.7416278396
 10
-80.0107439706
 20
0.6690663658
 10
-80.0017179066
 20
0.5925976721
  0
LWPOLYLINE
  5
4CC
100
AcDbEntity
  8
0
100
AcDbPolyline
 62
7
  6
CONTINUOUS
 90
16
 70
0
 10
-83.3388303389
 20
1.25
 10
-83.3333508302
 20
1.2488426207
 10
-83.3245962689
 20
1.2421969328
 10
-83.3158078751
 20
1.2296211575
 10
-83.3070135868
 20
1.2111751216
 10
-83.2982290628
 20
1.186983301
 10
-83.2894668152
 20
1.1572262614
 10
-83.2807143318
 20
1.1220330285
 10
-83.2719497346
 20
1.0814801527
 10
-83.263162003
 20
1.0356775209
 10
-83.2543621576
 20
0.9848700857
 10
-83.2455613825
 20
0.9293539697
 10
-83.2367826707
 20
0.8695550404
 10
-83.2280030292
 20
0.805617074
 10
-83.2191646618
 20
0.7373846076
 10
-83.2102302083
 20
0.6648017238
  0
LWPOLYLINE
  5
4CD
100
AcDbEntity
  8
0
100
AcDbPolyline
 62
7
  6
CONTINUOUS
 90
16
 70
0
 10
-89.7388309189
 20
1.25
 10
-89.7333307348
 20
1.2488338724
 10
-89.7245667065
 20
1.2421638911
 10
-89.7158005472
 20
1.2296072106
 10
-89.7070396661
 20
1.2112370379
 10
-89.6982408221
 20
1.187017759
 10
-89.689375454
 20
1.1568847932
 10
-89.680472123
 20
1.1209805284
 10
-89.671573272
 20
1.0796193818
 10
-89.6626879284
 20
1.0330613211
 10
-89.6538070648
 20
0.9815015454
 10
-89.6449460411
 20
0.9252995964
 10
-89.6361285476
 20
0.8649264773
 10
-89.6273308941
 20
0.8005565223
 10
-89.6184973702
 20
0.7320805513
 10
-89.609590364
 20
0.6594695026
  0
LWPOLYLINE
  5
4CE
100
AcDbEntity
  8
0
100
AcDbPolyline
 62
7
  6
CONTINUOUS
 90
16
 70
0
 10
-91.3388303233
 20
1.25
 10
-91.3332964662
 20
1.2488195502
 10
-91.3245343989
 20
1.2421290308
 10
-91.3157708533
 20
1.2295557461
 10
-91.3070133829
 20
1.2111746179
 10
-91.2982202745
 20
1.1869562216
 10
-91.289364791
 20
1.1568471634
 10
-91.2804736696
 20
1.1209895626
 10
-91.271585408
 20
1.0796820145
 10
-91.2627077173
 20
1.0331735198
 10
-91.2538328864
 20
0.9816615532
 10
-91.2449762802
 20
0.9255024069
 10
-91.2361616117
 20
0.8651641959
 10
-91.2273651679
 20
0.8008184411
 10
-91.218531174
 20
0.732353153
 10
-91.2096220912
 20
0.6597377939
  0
LWPOLYLINE
  5
4CF
100
AcDbEntity
  8
0
100
AcDbPolyline
 62
7
  6
CONTINUOUS
 90
16
 70
0
 10
-81.7388310996
 20
1.25
 10
-81.7332612383
 20
1.2488041439
 10
-81.7245091918
 20
1.2421004347
 10
-81.7157264911
 20
1.2294758785
 10
-81.7069395205
 20
1.2109932564
 10
-81.6981592886
 20
1.1867660431
 10
-81.6893957474
 20
1.1569595078
 10
-81.6806389449
 20
1.1217033706
 10
-81.6718700334
 20
1.0810838816
 10
-81.6630785393
 20
1.0352143881
 10
-81.6542749364
 20
0.9843380452
 10
-81.6454717979
 20
0.9287607099
 10
-81.6366924569
 20
0.8689133656
 10
-81.6279135804
 20
0.804939915
 10
-81.6190777426
 20
0.7366896108
 10
-81.6101476614
 20
0.6641092625
  0
LWPOLYLINE
  5
4D0
100
AcDbEntity
  8
0
100
AcDbPolyline
 62
7
  6
CONTINUOUS
 90
16
 70
0
 10
-84.938831115
 20
1.25
 10
-84.9331588597
 20
1.2487597768
 10
-84.9244054722
 20
1.2419856953
 10
-84.9156451842
 20
1.2293315117
 10
-84.9068904568
 20
1.2108736743
 10
-84.8981152401
 20
1.1866300228
 10
-84.889305573
 20
1.1566238602
 10
-84.8804754165
 20
1.1209937094
 10
-84.8716406036
 20
1.0799510727
 10
-84.8628013032
 20
1.0336860454
 10
-84.8539573465
 20
0.9824127474
 10
-84.8451240604
 20
0.9264718071
 10
-84.8363252698
 20
0.8663176242
 10
-84.82753715
 20
0.8021082718
 10
-84.8187035534
 20
0.7337177783
 10
-84.8097872132
 20
0.6611077176
  0
LWPOLYLINE
  5
4D1
100
AcDbEntity
  8
0
100
AcDbPolyline
 62
7
  6
CONTINUOUS
 90
15
 70
0
 10
-83.0501552102
 20
1.7499999858
 10
-83.0460914083
 20
1.7491087026
 10
-83.0375420255
 20
1.7414200933
 10
-83.0289926428
 20
1.7258829347
 10
-83.0204432601
 20
1.7025672521
 10
-83.0118938774
 20
1.6715781287
 10
-83.0033444947
 20
1.6330552314
 10
-82.994795112
 20
1.5871721822
 10
-82.9862457292
 20
1.5341357746
 10
-82.9776963465
 20
1.4741850427
 10
-82.9691469638
 20
1.407590183
 10
-82.9605975811
 20
1.3346513371
 10
-82.9520481984
 20
1.2556972389
 10
-82.9434988157
 20
1.1710837329
 10
-82.9349494329
 20
1.0811921706
  0
LWPOLYLINE
  5
4D2
100
AcDbEntity
  8
0
100
AcDbPolyline
 62
7
  6
CONTINUOUS
 90
4
 70
0
 10
-82.9501552102
 20
1.7499999858
 10
-82.9460914083
 20
1.7491087026
 10
-82.9375420255
 20
1.7414200933
 10
-82.934196091
 20
1.7362710552
  0
LWPOLYLINE
  5
4D3
100
AcDbEntity
  8
0
100
AcDbPolyline
 62
7
  6
CONTINUOUS
 90
16
 70
0
 10
-86.5388305868
 20
1.25
 10
-86.5331332301
 20
1.2487487805
 10
-86.5243815681
 20
1.241959747
 10
-86.5156200459
 20
1.2292877807
 10
-86.5068630675
 20
1.2108082717
 10
-86.4980897091
 20
1.1865529746
 10
-86.489289612
 20
1.1565665943
 10
-86.480473135
 20
1.120986367
 10
-86.4716504307
 20
1.0800026164
 10
-86.4628197812
 20
1.0337913929
 10
-86.4539829045
 20
0.9825716139
 10
-86.4451551074
 20
0.926680511
 10
-86.4363602391
 20
0.8665695522
 10
-86.4275744505
 20
0.8023939141
 10
-86.4187415002
 20
0.7340244994
 10
-86.4098241631
 20
0.6614210074
  0
LWPOLYLINE
  5
4D4
100
AcDbEntity
  8
0
100
AcDbPolyline
 62
7
  6
CONTINUOUS
 90
15
 70
0
 10
-88.6501552325
 20
1.7499999856
 10
-88.6459370873
 20
1.7490397213
 10
-88.6373877046
 20
1.7412090084
 10
-88.6288383218
 20
1.725530699
 10
-88.6202889391
 20
1.7020754546
 10
-88.6117395564
 20
1.6709489872
 10
-88.6031901737
 20
1.6322915831
 10
-88.594640791
 20
1.58627747
 10
-88.5860914083
 20
1.5331140325
 10
-88.5775420255
 20
1.473040877
 10
-88.5689926428
 20
1.4063287518
 10
-88.5604432601
 20
1.333278327
 10
-88.5518938774
 20
1.2542188393
 10
-88.5433444947
 20
1.1695066081
 10
-88.534795112
 20
1.0795234299
  0
LWPOLYLINE
  5
4D5
100
AcDbEntity
  8
0
100
AcDbPolyline
 62
7
  6
CONTINUOUS
 90
4
 70
0
 10
-88.5501552325
 20
1.7499999856
 10
-88.5459370873
 20
1.7490397213
 10
-88.5373877046
 20
1.7412090084
 10
-88.5341961105
 20
1.7362710526
  0
LWPOLYLINE
  5
4D6
100
AcDbEntity
  8
0
100
AcDbPolyline
 62
7
  6
CONTINUOUS
 90
17
 70
0
 10
-82.5388307737
 20
1.25
 10
-82.5322527659
 20
1.2483321644
 10
-82.5239262876
 20
1.2414454123
 10
-82.515538525
 20
1.2291420143
 10
-82.5070590361
 20
1.211284199
 10
-82.4985182629
 20
1.1878688052
 10
-82.4899733263
 20
1.1590951624
 10
-82.4814250563
 20
1.1250886523
 10
-82.4728726228
 20
1.0859924524
 10
-82.4643706568
 20
1.0422717954
 10
-82.4559387554
 20
0.9943225663
 10
-82.4475573215
 20
0.9423398073
 10
-82.4392221951
 20
0.8865956315
 10
-82.4309648955
 20
0.8276260315
 10
-82.4227539034
 20
0.7655361994
 10
-82.4144905007
 20
0.6998374523
 10
-82.4061311726
 20
0.6303789128
  0
LWPOLYLINE
  5
4D7
100
AcDbEntity
  8
0
100
AcDbPolyline
 62
7
  6
CONTINUOUS
 90
15
 70
0
 10
-84.6501559812
 20
1.7499999983
 10
-84.6448259762
 20
1.7484668647
 10
-84.6362765934
 20
1.7396127938
 10
-84.6277272107
 20
1.7229183085
 10
-84.619177828
 20
1.6984586513
 10
-84.6106284453
 20
1.666344062
 10
-84.6020790626
 20
1.6267192811
 10
-84.5935296799
 20
1.5797628975
 10
-84.5849802971
 20
1.5256865433
 10
-84.5764309144
 20
1.4647339405
 10
-84.5678815317
 20
1.3971798021
 10
-84.559332149
 20
1.3233285939
 10
-84.5507827663
 20
1.2435131628
 10
-84.5422333836
 20
1.1580932362
 10
-84.5336840008
 20
1.0674538007
  0
LWPOLYLINE
  5
4D8
100
AcDbEntity
  8
0
100
AcDbPolyline
 62
7
  6
CONTINUOUS
 90
4
 70
0
 10
-84.5501559812
 20
1.7499999983
 10
-84.5448259762
 20
1.7484668647
 10
-84.5362765934
 20
1.7396127938
 10
-84.5341968841
 20
1.7362710861
  0
LWPOLYLINE
  5
4D9
100
AcDbEntity
  8
0
100
AcDbPolyline
 62
7
  6
CONTINUOUS
 90
15
 70
0
 10
-90.2501559517
 20
1.7499999987
 10
-90.2446716552
 20
1.7483768325
 10
-90.2361222725
 20
1.7393808019
 10
-90.2275728897
 20
1.7225454004
 10
-90.219023507
 20
1.6979465053
 10
-90.2104741243
 20
1.6656949842
 10
-90.2019247416
 20
1.6259361947
 10
-90.1933753589
 20
1.5788493298
 10
-90.1848259762
 20
1.5246466099
 10
-90.1762765934
 20
1.4635723265
 10
-90.1677272107
 20
1.395901741
 10
-90.159177828
 20
1.3219398444
 10
-90.1506284453
 20
1.2420199823
 10
-90.1420790626
 20
1.1565023531
 10
-90.1335296799
 20
1.0657723838
  0
LWPOLYLINE
  5
4DA
100
AcDbEntity
  8
0
100
AcDbPolyline
 62
7
  6
CONTINUOUS
 90
4
 70
0
 10
-90.1501559517
 20
1.7499999987
 10
-90.1446716552
 20
1.7483768325
 10
-90.1361222725
 20
1.7393808019
 10
-90.1341968594
 20
1.7362710906
  0
LWPOLYLINE
  5
4DB
100
AcDbEntity
  8
0
100
AcDbPolyline
 62
7
  6
CONTINUOUS
 90
5
 70
0
 10
-88.1388306817
 20
1.25
 10
-88.1308085603
 20
1.2475197477
 10
-88.1222986952
 20
1.239477936
 10
-88.1138032079
 20
1.2259288785
 10
-88.1053220984
 20
1.2069607065
  0
LWPOLYLINE
  5
4DC
100
AcDbEntity
  8
0
100
AcDbPolyline
 62
7
  6
CONTINUOUS
 90
15
 70
0
 10
-86.2501554579
 20
1.7499999864
 10
-86.2435605441
 20
1.7476530122
 10
-86.2350111613
 20
1.737635579
 10
-86.2264617786
 20
1.7197866602
 10
-86.2179123959
 20
1.6941867003
 10
-86.2093630132
 20
1.6609510776
 10
-86.2008136305
 20
1.6202295842
 10
-86.1922642478
 20
1.572205751
 10
-86.183714865
 20
1.5170960201
 10
-86.1751654823
 20
1.4551487699
 10
-86.1666160996
 20
1.3866431951
 10
-86.1580667169
 20
1.3118880489
 10
-86.1495173342
 20
1.2312202508
 10
-86.1409679515
 20
1.1450033689
 10
-86.1324185687
 20
1.0536259806
  0
LWPOLYLINE
  5
4DD
100
AcDbEntity
  8
0
100
AcDbPolyline
 62
7
  6
CONTINUOUS
 90
3
 70
0
 10
-86.1501554579
 20
1.7499999864
 10
-86.1435605441
 20
1.7476530122
 10
-86.1341963249
 20
1.7362710439
  0
LWPOLYLINE
  5
4DE
100
AcDbEntity
  8
0
100
AcDbPolyline
 62
7
  6
CONTINUOUS
 90
5
 70
0
 10
-87.8501555473
 20
1.7499999988
 10
-87.842295112
 20
1.7466661619
 10
-87.8337457292
 20
1.7354857222
 10
-87.8251963465
 20
1.7164834504
 10
-87.8166469638
 20
1.6897449891
  0
LWPOLYLINE
  5
4DF
100
AcDbEntity
  8
0
100
AcDbPolyline
 62
7
  6
CONTINUOUS
 90
3
 70
0
 10
-87.7501555473
 20
1.7499999988
 10
-87.742295112
 20
1.7466661619
 10
-87.7341964857
 20
1.7362711176
  0
LWPOLYLINE
  5
4E0
100
AcDbEntity
  8
0
100
AcDbPolyline
 62
7
  6
CONTINUOUS
 90
14
 70
0
 10
-83.8501557446
 20
1.7499999896
 10
-83.8411840008
 20
1.7456572761
 10
-83.8326346181
 20
1.7334565518
 10
-83.8240852354
 20
1.7134431769
 10
-83.8155358527
 20
1.6857073513
 10
-83.80698647
 20
1.6503740799
 10
-83.7984370873
 20
1.6076026089
 10
-83.7898877045
 20
1.5575857085
 10
-83.7813383218
 20
1.5005488038
 10
-83.7727889391
 20
1.4367489589
 10
-83.7642395564
 20
1.3664737184
 10
-83.7556901737
 20
1.2900398113
 10
-83.747140791
 20
1.2077917235
 10
-83.7385914083
 20
1.1201001453
  0
LWPOLYLINE
  5
4E1
100
AcDbEntity
  8
0
100
AcDbPolyline
 62
7
  6
CONTINUOUS
 90
14
 70
0
 10
-89.4501557884
 20
1.7499999903
 10
-89.4410296799
 20
1.7455066169
 10
-89.4324802971
 20
1.7331642354
 10
-89.4239309144
 20
1.7130105204
 10
-89.4153815317
 20
1.6851363042
 10
-89.406832149
 20
1.6496672154
 10
-89.3982827663
 20
1.6067631126
 10
-89.3897333836
 20
1.5566173637
 10
-89.3811840008
 20
1.4994559746
 10
-89.3726346181
 20
1.4355365704
 10
-89.3640852354
 20
1.3651472346
 10
-89.3555358527
 20
1.2886052105
 10
-89.34698647
 20
1.2062554712
 10
-89.3384370873
 20
1.1184691654
  0
LWPOLYLINE
  5
4E2
100
AcDbEntity
  8
0
100
AcDbPolyline
 62
7
  6
CONTINUOUS
 90
3
 70
0
 10
-89.3501557884
 20
1.7499999903
 10
-89.3410296799
 20
1.7455066169
 10
-89.3341966561
 20
1.7362710483
  0
LWPOLYLINE
  5
4E3
100
AcDbEntity
  8
0
100
AcDbPolyline
 62
7
  6
CONTINUOUS
 90
4
 70
0
 10
-84.266114998
 20
-1.7362712368
 10
-84.2601037539
 20
-1.7446615038
 10
-84.2515543712
 20
-1.7498944484
 10
-84.2501559791
 20
-1.7499999942
  0
LWPOLYLINE
  5
4E4
100
AcDbEntity
  8
0
100
AcDbPolyline
 62
7
  6
CONTINUOUS
 90
4
 70
0
 10
-82.66611422
 20
-1.7362712537
 10
-82.661369186
 20
-1.7432169332
 10
-82.6528198033
 20
-1.749616787
 10
-82.6501552261
 20
-1.7499999901
  0
LWPOLYLINE
  5
4E5
100
AcDbEntity
  8
0
100
AcDbPolyline
 62
7
  6
CONTINUOUS
 90
4
 70
0
 10
-85.0661145523
 20
-1.7362712926
 10
-85.0637457292
 20
-1.7400408002
 10
-85.0551963465
 20
-1.7486287285
 10
-85.0501555927
 20
-1.7499999999
  0
LWPOLYLINE
  5
4E6
100
AcDbEntity
  8
0
100
AcDbPolyline
 62
7
  6
CONTINUOUS
 90
4
 70
0
 10
-83.4661144671
 20
-1.7362712179
 10
-83.4650111613
 20
-1.7381017613
 10
-83.4564617786
 20
-1.7478538684
 10
-83.4501554357
 20
-1.7499999862
  0
LINE
  5
4E7
100
AcDbEntity
  8
0
100
AcDbLine
 62
7
  6
CONTINUOUS
 10
-87.4392439956
 20
1.2309854266
 11
-87.7341964857
 21
1.7362711176
  0
LINE
  5
4E8
100
AcDbEntity
  8
0
100
AcDbLine
 62
7
  6
CONTINUOUS
 10
-85.361066997
 20
-1.2309856778
 11
-85.0661145523
 21
-1.7362712926
  0
LINE
  5
4E9
100
AcDbEntity
  8
0
100
AcDbLine
 62
7
  6
CONTINUOUS
 10
-86.6392443578
 20
1.2309853572
 11
-86.9341968693
 21
1.7362710629
  0
LINE
  5
4EA
100
AcDbEntity
  8
0
100
AcDbLine
 62
7
  6
CONTINUOUS
 10
-84.5610674626
 20
-1.2309856096
 11
-84.266114998
 21
-1.7362712368
  0
LINE
  5
4EB
100
AcDbEntity
  8
0
100
AcDbLine
 62
7
  6
CONTINUOUS
 10
-85.8392438124
 20
1.2309853429
 11
-86.1341963249
 21
1.7362710439
  0
LINE
  5
4EC
100
AcDbEntity
  8
0
100
AcDbLine
 62
7
  6
CONTINUOUS
 10
-83.7610669336
 20
-1.2309855944
 11
-83.4661144671
 21
-1.7362712179
  0
LINE
  5
4ED
100
AcDbEntity
  8
0
100
AcDbLine
 62
7
  6
CONTINUOUS
 10
-85.0392436178
 20
1.2309853867
 11
-85.3341961172
 21
1.7362710791
  0
LINE
  5
4EE
100
AcDbEntity
  8
0
100
AcDbLine
 62
7
  6
CONTINUOUS
 10
-85.3341961172
 20
1.7362710791
 11
-85.331369186
 21
1.7309861401
  0
LINE
  5
4EF
100
AcDbEntity
  8
0
100
AcDbLine
 62
7
  6
CONTINUOUS
 10
-86.9341968693
 20
1.7362710629
 11
-86.9301037539
 21
1.728342148
  0
LWPOLYLINE
  5
4F0
100
AcDbEntity
  8
0
100
AcDbPolyline
 62
7
  6
CONTINUOUS
 90
13
 70
0
 10
-86.1341963249
 20
1.7362710439
 10
-86.1264617786
 20
1.7197866602
 10
-86.1179123959
 20
1.6941867003
 10
-86.1093630132
 20
1.6609510776
 10
-86.1008136305
 20
1.6202295842
 10
-86.0922642478
 20
1.572205751
 10
-86.083714865
 20
1.5170960201
 10
-86.0751654823
 20
1.4551487699
 10
-86.0666160996
 20
1.3866431951
 10
-86.0580667169
 20
1.3118880489
 10
-86.0495173342
 20
1.2312202508
 10
-86.0409679515
 20
1.1450033689
 10
-86.0324185687
 20
1.0536259806
  0
LWPOLYLINE
  5
4F1
100
AcDbEntity
  8
0
100
AcDbPolyline
 62
7
  6
CONTINUOUS
 90
12
 70
0
 10
-85.331369186
 20
1.7309861401
 10
-85.3228198033
 20
1.7098236307
 10
-85.3142704206
 20
1.6809549644
 10
-85.3057210379
 20
1.6445102514
 10
-85.2971716552
 20
1.6006537472
 10
-85.2886222725
 20
1.549583112
 10
-85.2800728897
 20
1.4915285203
 10
-85.271523507
 20
1.426751623
 10
-85.2629741243
 20
1.3555443685
 10
-85.2544247416
 20
1.2782276868
 10
-85.2458753589
 20
1.195150043
 10
-85.2373259762
 20
1.1066858669
  0
LWPOLYLINE
  5
4F2
100
AcDbEntity
  8
0
100
AcDbPolyline
 62
7
  6
CONTINUOUS
 90
12
 70
0
 10
-86.9301037539
 20
1.728342148
 10
-86.9215543712
 20
1.7060314903
 10
-86.9130049885
 20
1.6760317803
 10
-86.9044556058
 20
1.6384782265
 10
-86.8959062231
 20
1.5935400823
 10
-86.8873568404
 20
1.5414198834
 10
-86.8788074576
 20
1.4823525346
 10
-86.8702580749
 20
1.4166042518
 10
-86.8617086922
 20
1.3444713613
 10
-86.8531593095
 20
1.266278965
 10
-86.8446099268
 20
1.1823794746
 10
-86.8360605441
 20
1.0931510237
  0
LWPOLYLINE
  5
4F3
100
AcDbEntity
  8
0
100
AcDbPolyline
 62
7
  6
CONTINUOUS
 90
13
 70
0
 10
-86.5332302644
 20
0.6677054243
 10
-86.5421479924
 20
0.7400205591
 10
-86.5509529213
 20
0.8078622372
 10
-86.5596974687
 20
0.8714171668
 10
-86.5685003275
 20
0.9312453249
 10
-86.5774077422
 20
0.9872538466
 10
-86.5863734684
 20
1.038751068
 10
-86.5953774654
 20
1.0852862395
 10
-86.604435297
 20
1.126625294
 10
-86.6135313994
 20
1.1624032398
 10
-86.6225990405
 20
1.1921671053
 10
-86.631629529
 20
1.2158023283
 10
-86.6392443578
 20
1.2309853572
  0
LWPOLYLINE
  5
4F4
100
AcDbEntity
  8
0
100
AcDbPolyline
 62
7
  6
CONTINUOUS
 90
13
 70
0
 10
-84.9329075135
 20
0.665030021
 10
-84.9417577483
 20
0.736934661
 10
-84.9505298171
 20
0.8046930858
 10
-84.9592622456
 20
0.8683535543
 10
-84.9680635376
 20
0.9283838879
 10
-84.9769797768
 20
0.9846754524
 10
-84.9859648797
 20
1.0365182416
 10
-84.9949890997
 20
1.0833929541
 10
-85.0040648201
 20
1.1250480437
 10
-85.0131796577
 20
1.1611315409
 10
-85.0222667164
 20
1.1911843532
 10
-85.0313182643
 20
1.2150905263
 10
-85.0392436178
 20
1.2309853867
  0
LWPOLYLINE
  5
4F5
100
AcDbEntity
  8
0
100
AcDbPolyline
 62
7
  6
CONTINUOUS
 90
14
 70
0
 10
-85.7324739057
 20
0.6614210074
 10
-85.7413912428
 20
0.7340244994
 10
-85.750224193
 20
0.8023939141
 10
-85.7590099816
 20
0.8665695522
 10
-85.7678048498
 20
0.926680511
 10
-85.7766326469
 20
0.9825716139
 10
-85.7854695236
 20
1.033791393
 10
-85.7943001731
 20
1.0800026164
 10
-85.8031228773
 20
1.120986367
 10
-85.8119393543
 20
1.1565665943
 10
-85.8207394513
 20
1.1865529746
 10
-85.8295128097
 20
1.2108082717
 10
-85.8382697881
 20
1.2292877807
 10
-85.8392438124
 20
1.2309853429
  0
LWPOLYLINE
  5
4F6
100
AcDbEntity
  8
0
100
AcDbPolyline
 62
7
  6
CONTINUOUS
 90
14
 70
0
 10
-85.4713972821
 20
-0.6315063939
 10
-85.4630426774
 20
-0.7008808632
 10
-85.4547034231
 20
-0.767119731
 10
-85.44636974
 20
-0.8300281042
 10
-85.437984665
 20
-0.8897363223
 10
-85.4295276436
 20
-0.946048914
 10
-85.4210192302
 20
-0.9984928784
 10
-85.412464125
 20
-1.0467302879
 10
-85.403845683
 20
-1.0905478009
 10
-85.3951805493
 20
-1.1295669144
 10
-85.3865233589
 20
-1.1633278101
 10
-85.3778750713
 20
-1.1916861952
 10
-85.3692347271
 20
-1.2145302715
 10
-85.361066997
 20
-1.2309856778
  0
LWPOLYLINE
  5
4F7
100
AcDbEntity
  8
0
100
AcDbPolyline
 62
7
  6
CONTINUOUS
 90
14
 70
0
 10
-86.275890548
 20
-0.5930508523
 10
-86.2668602427
 20
-0.669536169
 10
-86.257899742
 20
-0.7421036528
 10
-86.2490447262
 20
-0.8102088972
 10
-86.2402595149
 20
-0.8739070434
 10
-86.2314906325
 20
-0.9333396796
 10
-86.2227323136
 20
-0.9882835899
 10
-86.2139903234
 20
-1.0384638226
 10
-86.2052284823
 20
-1.0838476433
 10
-86.1964335065
 20
-1.1242431173
 10
-86.1876186797
 20
-1.1593493526
 10
-86.1787876732
 20
-1.1889500965
 10
-86.1699273437
 20
-1.2129032076
 10
-86.161066703
 20
-1.2309856073
  0
LWPOLYLINE
  5
4F8
100
AcDbEntity
  8
0
100
AcDbPolyline
 62
7
  6
CONTINUOUS
 90
14
 70
0
 10
-84.6758876384
 20
-0.59308234
 10
-84.6668568009
 20
-0.6695708165
 10
-84.6578959022
 20
-0.7421398398
 10
-84.6490403936
 20
-0.8102468467
 10
-84.6402548239
 20
-0.8739452109
 10
-84.6314865288
 20
-0.9333713694
 10
-84.62273184
 20
-0.9882909523
 10
-84.6139944259
 20
-1.0384455206
 10
-84.605232627
 20
-1.0838310653
 10
-84.5964292155
 20
-1.1242647793
 10
-84.5876014192
 20
-1.1594154783
 10
-84.5787592623
 20
-1.1890384695
 10
-84.5698917848
 20
-1.2129893801
 10
-84.5610674626
 20
-1.2309856096
  0
LINE
  5
4F9
100
AcDbEntity
  8
0
100
AcDbLine
 62
7
  6
CONTINUOUS
 10
-85.6102577762
 20
0.665030021
 11
-85.5924454583
 21
0.5109459949
  0
LINE
  5
4FA
100
AcDbEntity
  8
0
100
AcDbLine
 62
7
  6
CONTINUOUS
 10
-84.9150951953
 20
0.5109459949
 11
-84.9329075135
 21
0.665030021
  0
LINE
  5
4FB
100
AcDbEntity
  8
0
100
AcDbLine
 62
7
  6
CONTINUOUS
 10
-86.4098241631
 20
0.6614210074
 11
-86.3919034388
 21
0.5060844935
  0
LINE
  5
4FC
100
AcDbEntity
  8
0
100
AcDbLine
 62
7
  6
CONTINUOUS
 10
-85.7145531814
 20
0.5060844935
 11
-85.7324739057
 21
0.6614210074
  0
LINE
  5
4FD
100
AcDbEntity
  8
0
100
AcDbLine
 62
7
  6
CONTINUOUS
 10
-84.8097872132
 20
0.6611077176
 11
-84.7918737568
 21
0.5058120326
  0
LINE
  5
4FE
100
AcDbEntity
  8
0
100
AcDbLine
 62
7
  6
CONTINUOUS
 10
-86.3909955869
 20
-0.6571794348
 11
-86.4085561764
 21
-0.5047520136
  0
LINE
  5
4FF
100
AcDbEntity
  8
0
100
AcDbLine
 62
7
  6
CONTINUOUS
 10
-85.4881508313
 20
-0.4845124117
 11
-85.4713972821
 21
-0.6315063939
  0
LINE
  5
500
100
AcDbEntity
  8
0
100
AcDbLine
 62
7
  6
CONTINUOUS
 10
-84.7940470165
 20
-0.6315063939
 11
-84.8108005661
 21
-0.4845124117
  0
LWPOLYLINE
  5
501
100
AcDbEntity
  8
0
100
AcDbPolyline
 62
7
  6
CONTINUOUS
 90
3
 70
0
 10
-86.5062207595
 20
0.4302503515
 10
-86.5152522239
 20
0.5123469294
 10
-86.5332302644
 20
0.6677054243
  0
LINE
  5
502
100
AcDbEntity
  8
0
100
AcDbLine
 62
7
  6
CONTINUOUS
 10
-86.2940049808
 20
-0.4310381187
 11
-86.275890548
 21
-0.5930508523
  0
LINE
  5
503
100
AcDbEntity
  8
0
100
AcDbLine
 62
7
  6
CONTINUOUS
 10
-85.5985402907
 20
-0.5930508523
 11
-85.6166547235
 21
-0.4310381187
  0
LINE
  5
504
100
AcDbEntity
  8
0
100
AcDbLine
 62
7
  6
CONTINUOUS
 10
-84.6940031235
 20
-0.4310619266
 11
-84.6758876384
 21
-0.59308234
  0
LINE
  5
505
100
AcDbEntity
  8
0
100
AcDbLine
 62
7
  6
CONTINUOUS
 10
-84.0966624981
 20
0.3410162551
 11
-84.1145234901
 21
0.5058120326
  0
LINE
  5
506
100
AcDbEntity
  8
0
100
AcDbLine
 62
7
  6
CONTINUOUS
 10
-83.903394923
 20
-0.3434160869
 11
-83.8856286908
 21
-0.5072425189
  0
LINE
  5
507
100
AcDbEntity
  8
0
100
AcDbLine
 62
7
  6
CONTINUOUS
 10
-83.9924698143
 20
0.5111612452
 11
-83.9744736429
 21
0.3453708568
  0
LINE
  5
508
100
AcDbEntity
  8
0
100
AcDbLine
 62
7
  6
CONTINUOUS
 10
-83.2082784321
 20
-0.5072425189
 11
-83.2260446643
 21
-0.3434160869
  0
LINE
  5
509
100
AcDbEntity
  8
0
100
AcDbLine
 62
7
  6
CONTINUOUS
 10
-83.2971233836
 20
0.3453708568
 11
-83.3151195549
 21
0.5111612452
  0
LINE
  5
50A
100
AcDbEntity
  8
0
100
AcDbLine
 62
7
  6
CONTINUOUS
 10
-83.1922394088
 20
0.5091002429
 11
-83.1742254565
 21
0.3430326364
  0
LINE
  5
50B
100
AcDbEntity
  8
0
100
AcDbLine
 62
7
  6
CONTINUOUS
 10
-82.4968751982
 20
0.3430326364
 11
-82.5148891506
 21
0.5091002429
  0
LINE
  5
50C
100
AcDbEntity
  8
0
100
AcDbLine
 62
7
  6
CONTINUOUS
 10
-82.3034166285
 20
-0.3432144481
 11
-82.2856677359
 21
-0.5068954914
  0
LINE
  5
50D
100
AcDbEntity
  8
0
100
AcDbLine
 62
7
  6
CONTINUOUS
 10
-81.6083174675
 20
-0.5068954914
 11
-81.6260663599
 21
-0.3432144481
  0
LINE
  5
50E
100
AcDbEntity
  8
0
100
AcDbLine
 62
7
  6
CONTINUOUS
 10
-81.5921710361
 20
0.5084806847
 11
-81.5741803841
 21
0.3426004249
  0
LINE
  5
50F
100
AcDbEntity
  8
0
100
AcDbLine
 62
7
  6
CONTINUOUS
 10
-82.3892871109
 20
0.4824885762
 11
-82.363898463
 21
0.2445126052
  0
LINE
  5
510
100
AcDbEntity
  8
0
100
AcDbLine
 62
7
  6
CONTINUOUS
 10
-81.6865481942
 20
0.2445126052
 11
-81.711936842
 21
0.4824885762
  0
LINE
  5
511
100
AcDbEntity
  8
0
100
AcDbLine
 62
7
  6
CONTINUOUS
 10
-84.0166528576
 20
-0.4310619266
 11
-84.0437259411
 21
-0.1737443856
  0
LINE
  5
512
100
AcDbEntity
  8
0
100
AcDbLine
 62
7
  6
CONTINUOUS
 10
-83.1210901846
 20
-0.1736002984
 11
-83.0940397112
 21
-0.4307170192
  0
LINE
  5
513
100
AcDbEntity
  8
0
100
AcDbLine
 62
7
  6
CONTINUOUS
 10
-82.4166894521
 20
-0.4307170192
 11
-82.4437399258
 21
-0.1736002983
  0
LINE
  5
514
100
AcDbEntity
  8
0
100
AcDbLine
 62
7
  6
CONTINUOUS
 10
-81.5210880365
 20
-0.1736277338
 11
-81.4940332396
 21
-0.4307826838
  0
LINE
  5
515
100
AcDbEntity
  8
0
100
AcDbLine
 62
7
  6
CONTINUOUS
 10
-84.0437259411
 20
-0.1737443856
 11
-84.0966624981
 21
0.3410162551
  0
LINE
  5
516
100
AcDbEntity
  8
0
100
AcDbLine
 62
7
  6
CONTINUOUS
 10
-83.9744736429
 20
0.3453708568
 11
-83.903394923
 21
-0.3434160869
  0
LINE
  5
517
100
AcDbEntity
  8
0
100
AcDbLine
 62
7
  6
CONTINUOUS
 10
-83.2260446643
 20
-0.3434160869
 11
-83.2971233836
 21
0.3453708568
  0
LINE
  5
518
100
AcDbEntity
  8
0
100
AcDbLine
 62
7
  6
CONTINUOUS
 10
-83.1742254565
 20
0.3430326364
 11
-83.1210901846
 21
-0.1736002984
  0
LINE
  5
519
100
AcDbEntity
  8
0
100
AcDbLine
 62
7
  6
CONTINUOUS
 10
-82.4437399258
 20
-0.1736002983
 11
-82.4968751982
 21
0.3430326364
  0
LINE
  5
51A
100
AcDbEntity
  8
0
100
AcDbLine
 62
7
  6
CONTINUOUS
 10
-82.363898463
 20
0.2445126052
 11
-82.3034166285
 21
-0.3432144481
  0
LINE
  5
51B
100
AcDbEntity
  8
0
100
AcDbLine
 62
7
  6
CONTINUOUS
 10
-81.6260663599
 20
-0.3432144481
 11
-81.6865481942
 21
0.2445126052
  0
LINE
  5
51C
100
AcDbEntity
  8
0
100
AcDbLine
 62
7
  6
CONTINUOUS
 10
-81.5741803841
 20
0.3426004249
 11
-81.5210880365
 21
-0.1736277338
  0
LWPOLYLINE
  5
51D
100
AcDbEntity
  8
0
100
AcDbPolyline
 62
7
  6
CONTINUOUS
 90
13
 70
0
 10
-82.7639617786
 20
-1.0962480022
 10
-82.7554123959
 20
-1.1853029259
 10
-82.7468630132
 20
-1.2690157065
 10
-82.7383136305
 20
-1.3470090513
 10
-82.7297642478
 20
-1.418931445
 10
-82.721214865
 20
-1.4844587339
 10
-82.7126654823
 20
-1.5432955869
 10
-82.7041160996
 20
-1.5951768267
 10
-82.6955667169
 20
-1.6398686247
 10
-82.6870173342
 20
-1.6771695552
 10
-82.6784679515
 20
-1.7069115027
 10
-82.6699185687
 20
-1.7289604203
 10
-82.66611422
 20
-1.7362712537
  0
LWPOLYLINE
  5
51E
100
AcDbEntity
  8
0
100
AcDbPolyline
 62
7
  6
CONTINUOUS
 90
15
 70
0
 10
-82.6639617786
 20
-1.0962480022
 10
-82.6554123959
 20
-1.1853029259
 10
-82.6468630132
 20
-1.2690157065
 10
-82.6383136305
 20
-1.3470090513
 10
-82.6297642478
 20
-1.418931445
 10
-82.621214865
 20
-1.4844587339
 10
-82.6126654823
 20
-1.5432955869
 10
-82.6041160996
 20
-1.5951768267
 10
-82.5955667169
 20
-1.6398686247
 10
-82.5870173342
 20
-1.6771695552
 10
-82.5784679515
 20
-1.7069115027
 10
-82.5699185687
 20
-1.7289604203
 10
-82.561369186
 20
-1.7432169332
 10
-82.5528198033
 20
-1.749616787
 10
-82.5501552261
 20
-1.7499999901
  0
LWPOLYLINE
  5
51F
100
AcDbEntity
  8
0
100
AcDbPolyline
 62
7
  6
CONTINUOUS
 90
13
 70
0
 10
-83.5676037539
 20
-1.0567901462
 10
-83.5590543712
 20
-1.1479999286
 10
-83.5505049885
 20
-1.2340357009
 10
-83.5419556058
 20
-1.3145097018
 10
-83.5334062231
 20
-1.3890592367
 10
-83.5248568404
 20
-1.4573483124
 10
-83.5163074576
 20
-1.5190691516
 10
-83.5077580749
 20
-1.5739435797
 10
-83.4992086922
 20
-1.6217242789
 10
-83.4906593095
 20
-1.6621959024
 10
-83.4821099268
 20
-1.6951760456
 10
-83.4735605441
 20
-1.7205160676
 10
-83.4661144671
 20
-1.7362712179
  0
LWPOLYLINE
  5
520
100
AcDbEntity
  8
0
100
AcDbPolyline
 62
7
  6
CONTINUOUS
 90
15
 70
0
 10
-83.4676037539
 20
-1.0567901462
 10
-83.4590543712
 20
-1.1479999286
 10
-83.4505049885
 20
-1.2340357009
 10
-83.4419556058
 20
-1.3145097018
 10
-83.4334062231
 20
-1.3890592367
 10
-83.4248568404
 20
-1.4573483124
 10
-83.4163074576
 20
-1.5190691516
 10
-83.4077580749
 20
-1.5739435797
 10
-83.3992086922
 20
-1.6217242789
 10
-83.3906593095
 20
-1.6621959024
 10
-83.3821099268
 20
-1.6951760456
 10
-83.3735605441
 20
-1.7205160676
 10
-83.3650111613
 20
-1.7381017613
 10
-83.3564617786
 20
-1.7478538684
 10
-83.3501554357
 20
-1.7499999862
  0
LWPOLYLINE
  5
521
100
AcDbEntity
  8
0
100
AcDbPolyline
 62
7
  6
CONTINUOUS
 90
13
 70
0
 10
-81.968869186
 20
-1.0428794267
 10
-81.9603198033
 20
-1.1348205425
 10
-81.9517704206
 20
-1.2216470309
 10
-81.9432210379
 20
-1.3029675661
 10
-81.9346716552
 20
-1.3784156377
 10
-81.9261222724
 20
-1.4476512025
 10
-81.9175728897
 20
-1.5103622168
 10
-81.909023507
 20
-1.5662660432
 10
-81.9004741243
 20
-1.6151107243
 10
-81.8919247416
 20
-1.656676118
 10
-81.8833753589
 20
-1.6907748901
 10
-81.8748259762
 20
-1.7172533582
 10
-81.8661149887
 20
-1.7362712602
  0
LWPOLYLINE
  5
522
100
AcDbEntity
  8
0
100
AcDbPolyline
 62
7
  6
CONTINUOUS
 90
15
 70
0
 10
-81.868869186
 20
-1.0428794267
 10
-81.8603198033
 20
-1.1348205425
 10
-81.8517704206
 20
-1.2216470309
 10
-81.8432210379
 20
-1.3029675661
 10
-81.8346716552
 20
-1.3784156377
 10
-81.8261222724
 20
-1.4476512025
 10
-81.8175728897
 20
-1.5103622168
 10
-81.809023507
 20
-1.5662660432
 10
-81.8004741243
 20
-1.6151107243
 10
-81.7919247416
 20
-1.656676118
 10
-81.7833753589
 20
-1.6907748901
 10
-81.7748259762
 20
-1.7172533582
 10
-81.7662765934
 20
-1.7359921847
 10
-81.7577272107
 20
-1.7469069144
 10
-81.7501559926
 20
-1.749999998
  0
LINE
  5
523
100
AcDbEntity
  8
0
100
AcDbLine
 62
7
  6
CONTINUOUS
 10
-83.7385914083
 20
1.1201001453
 11
-83.7214926428
 21
0.9299901662
  0
LINE
  5
524
100
AcDbEntity
  8
0
100
AcDbLine
 62
7
  6
CONTINUOUS
 10
-83.6385914083
 20
1.1201001453
 11
-83.6214926428
 21
0.9299901662
  0
LINE
  5
525
100
AcDbEntity
  8
0
100
AcDbLine
 62
7
  6
CONTINUOUS
 10
-82.7810605441
 20
-0.9037394722
 11
-82.7639617786
 21
-1.0962480022
  0
LINE
  5
526
100
AcDbEntity
  8
0
100
AcDbLine
 62
7
  6
CONTINUOUS
 10
-82.6810605441
 20
-0.9037394722
 11
-82.6639617786
 21
-1.0962480022
  0
LINE
  5
527
100
AcDbEntity
  8
0
100
AcDbLine
 62
7
  6
CONTINUOUS
 10
-82.9349494329
 20
1.0811921706
 11
-82.9178506675
 21
0.8872173971
  0
LINE
  5
528
100
AcDbEntity
  8
0
100
AcDbLine
 62
7
  6
CONTINUOUS
 10
-82.8349494329
 20
1.0811921706
 11
-82.8178506675
 21
0.8872173971
  0
LINE
  5
529
100
AcDbEntity
  8
0
100
AcDbLine
 62
7
  6
CONTINUOUS
 10
-83.5847025194
 20
-0.8605143394
 11
-83.5676037539
 21
-1.0567901462
  0
LINE
  5
52A
100
AcDbEntity
  8
0
100
AcDbLine
 62
7
  6
CONTINUOUS
 10
-83.4847025194
 20
-0.8605143394
 11
-83.4676037539
 21
-1.0567901462
  0
LINE
  5
52B
100
AcDbEntity
  8
0
100
AcDbLine
 62
7
  6
CONTINUOUS
 10
-81.9859679515
 20
-0.8453320067
 11
-81.968869186
 21
-1.0428794267
  0
LINE
  5
52C
100
AcDbEntity
  8
0
100
AcDbLine
 62
7
  6
CONTINUOUS
 10
-82.1313074576
 20
1.0413878827
 11
-82.1142086922
 21
0.8437057714
  0
LINE
  5
52D
100
AcDbEntity
  8
0
100
AcDbLine
 62
7
  6
CONTINUOUS
 10
-81.8859679515
 20
-0.8453320067
 11
-81.868869186
 21
-1.0428794267
  0
LINE
  5
52E
100
AcDbEntity
  8
0
100
AcDbLine
 62
7
  6
CONTINUOUS
 10
-82.0313074576
 20
1.0413878827
 11
-82.0142086922
 21
0.8437057714
  0
LINE
  5
52F
100
AcDbEntity
  8
0
100
AcDbLine
 62
7
  6
CONTINUOUS
 10
-83.7214926428
 20
0.9299901662
 11
-83.7043938774
 21
0.7231332983
  0
LINE
  5
530
100
AcDbEntity
  8
0
100
AcDbLine
 62
7
  6
CONTINUOUS
 10
-83.6214926428
 20
0.9299901662
 11
-83.6043938774
 21
0.7231332983
  0
LINE
  5
531
100
AcDbEntity
  8
0
100
AcDbLine
 62
7
  6
CONTINUOUS
 10
-82.7981593095
 20
-0.6949567412
 11
-82.7810605441
 21
-0.9037394722
  0
LINE
  5
532
100
AcDbEntity
  8
0
100
AcDbLine
 62
7
  6
CONTINUOUS
 10
-82.6981593095
 20
-0.6949567412
 11
-82.6810605441
 21
-0.9037394722
  0
LINE
  5
533
100
AcDbEntity
  8
0
100
AcDbLine
 62
7
  6
CONTINUOUS
 10
-82.9178506675
 20
0.8872173971
 11
-82.9007519021
 21
0.6772659411
  0
LINE
  5
534
100
AcDbEntity
  8
0
100
AcDbLine
 62
7
  6
CONTINUOUS
 10
-82.8178506675
 20
0.8872173971
 11
-82.8007519021
 21
0.6772659411
  0
LINE
  5
535
100
AcDbEntity
  8
0
100
AcDbLine
 62
7
  6
CONTINUOUS
 10
-83.6018012848
 20
-0.6487427366
 11
-83.5847025194
 21
-0.8605143394
  0
LINE
  5
536
100
AcDbEntity
  8
0
100
AcDbLine
 62
7
  6
CONTINUOUS
 10
-83.5018012848
 20
-0.6487427366
 11
-83.4847025194
 21
-0.8605143394
  0
LINE
  5
537
100
AcDbEntity
  8
0
100
AcDbLine
 62
7
  6
CONTINUOUS
 10
-82.0030667169
 20
-0.6325621332
 11
-81.9859679515
 21
-0.8453320067
  0
LINE
  5
538
100
AcDbEntity
  8
0
100
AcDbLine
 62
7
  6
CONTINUOUS
 10
-82.1142086922
 20
0.8437057714
 11
-82.0971099268
 21
0.6308305003
  0
LINE
  5
539
100
AcDbEntity
  8
0
100
AcDbLine
 62
7
  6
CONTINUOUS
 10
-81.9030667169
 20
-0.6325621332
 11
-81.8859679515
 21
-0.8453320067
  0
LINE
  5
53A
100
AcDbEntity
  8
0
100
AcDbLine
 62
7
  6
CONTINUOUS
 10
-82.0142086922
 20
0.8437057714
 11
-81.9971099268
 21
0.6308305003
  0
LINE
  5
53B
100
AcDbEntity
  8
0
100
AcDbLine
 62
7
  6
CONTINUOUS
 10
-83.7043938774
 20
0.7231332983
 11
-83.6787457292
 21
0.3896620526
  0
LINE
  5
53C
100
AcDbEntity
  8
0
100
AcDbLine
 62
7
  6
CONTINUOUS
 10
-83.6043938774
 20
0.7231332983
 11
-83.5787457292
 21
0.3896620526
  0
LINE
  5
53D
100
AcDbEntity
  8
0
100
AcDbLine
 62
7
  6
CONTINUOUS
 10
-82.9007519021
 20
0.6772659411
 11
-82.8751037539
 21
0.3407148148
  0
LINE
  5
53E
100
AcDbEntity
  8
0
100
AcDbLine
 62
7
  6
CONTINUOUS
 10
-82.8007519021
 20
0.6772659411
 11
-82.7751037539
 21
0.3407148148
  0
LINE
  5
53F
100
AcDbEntity
  8
0
100
AcDbLine
 62
7
  6
CONTINUOUS
 10
-82.8323568404
 20
-0.2438327686
 11
-82.7981593095
 21
-0.6949567412
  0
LINE
  5
540
100
AcDbEntity
  8
0
100
AcDbLine
 62
7
  6
CONTINUOUS
 10
-82.7323568404
 20
-0.2438327686
 11
-82.6981593095
 21
-0.6949567412
  0
LINE
  5
541
100
AcDbEntity
  8
0
100
AcDbLine
 62
7
  6
CONTINUOUS
 10
-82.0971099268
 20
0.6308305003
 11
-82.0629123959
 21
0.1750385926
  0
LINE
  5
542
100
AcDbEntity
  8
0
100
AcDbLine
 62
7
  6
CONTINUOUS
 10
-81.9971099268
 20
0.6308305003
 11
-81.9629123959
 21
0.1750385926
  0
LWPOLYLINE
  5
543
100
AcDbEntity
  8
0
100
AcDbPolyline
 62
7
  6
CONTINUOUS
 90
3
 70
0
 10
-83.6787457292
 20
0.3896620526
 10
-83.6445481984
 20
-0.0770456343
 10
-83.6018012848
 20
-0.6487427366
  0
LWPOLYLINE
  5
544
100
AcDbEntity
  8
0
100
AcDbPolyline
 62
7
  6
CONTINUOUS
 90
3
 70
0
 10
-83.5787457292
 20
0.3896620526
 10
-83.5445481984
 20
-0.0770456343
 10
-83.5018012848
 20
-0.6487427366
  0
LINE
  5
545
100
AcDbEntity
  8
0
100
AcDbLine
 62
7
  6
CONTINUOUS
 10
-82.8751037539
 20
0.3407148148
 11
-82.8323568404
 21
-0.2438327686
  0
LINE
  5
546
100
AcDbEntity
  8
0
100
AcDbLine
 62
7
  6
CONTINUOUS
 10
-82.7751037539
 20
0.3407148148
 11
-82.7323568404
 21
-0.2438327686
  0
LINE
  5
547
100
AcDbEntity
  8
0
100
AcDbLine
 62
7
  6
CONTINUOUS
 10
-82.0629123959
 20
0.1750385926
 11
-82.0030667169
 21
-0.6325621332
  0
LINE
  5
548
100
AcDbEntity
  8
0
100
AcDbLine
 62
7
  6
CONTINUOUS
 10
-81.9629123959
 20
0.1750385926
 11
-81.9030667169
 21
-0.6325621332
  0
LINE
  5
549
100
AcDbEntity
  8
0
100
AcDbLine
 62
7
  6
CONTINUOUS
 10
-82.2661145986
 20
1.7362712936
 11
-82.5470885906
 21
1.2548356243
  0
LINE
  5
54A
100
AcDbEntity
  8
0
100
AcDbLine
 62
7
  6
CONTINUOUS
 10
-81.4661149879
 20
1.7362712353
 11
-81.7470889474
 21
1.2548356427
  0
LINE
  5
54B
100
AcDbEntity
  8
0
100
AcDbLine
 62
7
  6
CONTINUOUS
 10
-80.6661144449
 20
1.7362712182
 11
-80.9470883959
 21
1.2548356459
  0
LINE
  5
54C
100
AcDbEntity
  8
0
100
AcDbLine
 62
7
  6
CONTINUOUS
 10
-79.8661142329
 20
1.7362712563
 11
-80.1470882052
 21
1.2548356338
  0
LINE
  5
54D
100
AcDbEntity
  8
0
100
AcDbLine
 62
7
  6
CONTINUOUS
 10
-84.1341968577
 20
-1.7362710614
 11
-83.8532223892
 21
-1.2548362952
  0
LINE
  5
54E
100
AcDbEntity
  8
0
100
AcDbLine
 62
7
  6
CONTINUOUS
 10
-83.3341963032
 20
-1.7362710442
 11
-83.0532218435
 21
-1.2548362986
  0
LINE
  5
54F
100
AcDbEntity
  8
0
100
AcDbLine
 62
7
  6
CONTINUOUS
 10
-82.5341961327
 20
-1.7362710817
 11
-82.2532216522
 21
-1.2548362868
  0
LINE
  5
550
100
AcDbEntity
  8
0
100
AcDbLine
 62
7
  6
CONTINUOUS
 10
-81.734198561
 20
-1.7362739494
 11
-81.4532213556
 21
-1.2548367254
  0
LWPOLYLINE
  5
551
100
AcDbEntity
  8
0
100
AcDbPolyline
 62
7
  6
CONTINUOUS
 90
4
 70
0
 10
-81.4661149879
 20
1.7362712353
 10
-81.4644556058
 20
1.7389749321
 10
-81.4559062231
 20
1.7482156115
 10
-81.4501559676
 20
1.7499999939
  0
LWPOLYLINE
  5
552
100
AcDbEntity
  8
0
100
AcDbPolyline
 62
7
  6
CONTINUOUS
 90
4
 70
0
 10
-80.6661144449
 20
1.7362712182
 10
-80.6608136305
 20
1.7438722133
 10
-80.6522642478
 20
1.749759958
 10
-80.6501554139
 20
1.749999986
  0
LWPOLYLINE
  5
553
100
AcDbEntity
  8
0
100
AcDbPolyline
 62
7
  6
CONTINUOUS
 90
3
 70
0
 10
-79.8661142329
 20
1.7362712563
 10
-79.8571716552
 20
1.7473434971
 10
-79.8501552414
 20
1.7499999907
  0
LWPOLYLINE
  5
554
100
AcDbEntity
  8
0
100
AcDbPolyline
 62
7
  6
CONTINUOUS
 90
3
 70
0
 10
-80.150155201
 20
-1.7499999859
 10
-80.1418938774
 20
-1.7463175561
 10
-80.1341977511
 20
-1.7362739221
  0
LINE
  5
555
100
AcDbEntity
  8
0
100
AcDbLine
 62
7
  6
CONTINUOUS
 10
-76.2366469638
 20
0.0
 11
-79.0437056991
 21
-1.1627217985
  0
LWPOLYLINE
  5
556
100
AcDbEntity
  8
0
100
AcDbPolyline
 62
7
  6
CONTINUOUS
 90
4
 70
0
 10
-82.5501552261
 20
-1.7499999901
 10
-82.5442704206
 20
-1.7481311371
 10
-82.5357210379
 20
-1.7387666789
 10
-82.5341961327
 20
-1.7362710817
  0
LWPOLYLINE
  5
557
100
AcDbEntity
  8
RACCORDO
100
AcDbPolyline
 62
7
  6
CONTINUOUS
 90
16
 70
0
 10
-95.9471168128
 20
3.6717039666
 10
-95.9710164157
 20
3.6708820322
 10
-95.9948721795
 20
3.6691540773
 10
-96.0185229003
 20
3.6665201018
 10
-96.0417945634
 20
3.6629747307
 10
-96.0645271513
 20
3.6585233391
 10
-96.0865730015
 20
3.6531820523
 10
-96.1077677778
 20
3.6469278375
 10
-96.1279234823
 20
3.6397837276
 10
-96.1468559173
 20
3.6318349461
 10
-96.1643860904
 20
3.6230636757
 10
-96.1803607675
 20
3.6134877337
 10
-96.1946376142
 20
3.6032457958
 10
-96.2070748041
 20
3.5922987218
 10
-96.2175049918
 20
3.5806856519
 10
-96.2257729929
 20
3.5686626817
  0
LINE
  5
558
100
AcDbEntity
  8
RACCORDO
100
AcDbLine
 62
7
  6
CONTINUOUS
 10
-95.9471168128
 20
3.6717039666
 11
-95.9418826857
 21
3.6717284378
  0
LINE
  5
559
100
AcDbEntity
  8
RACCORDO
100
AcDbLine
 62
7
  6
CONTINUOUS
 10
-94.5418826857
 20
3.6620092134
 11
-94.5471168128
 21
3.6620070586
  0
LWPOLYLINE
  5
55A
100
AcDbEntity
  8
RACCORDO
100
AcDbPolyline
 62
7
  6
CONTINUOUS
 90
19
 70
0
 10
-94.5418826857
 20
3.6620092134
 10
-94.5170428231
 20
3.6617451775
 10
-94.4921743322
 20
3.6605199079
 10
-94.4674544836
 20
3.6583334047
 10
-94.4430818863
 20
3.6551823737
 10
-94.4192242064
 20
3.651070109
 10
-94.3960220067
 20
3.6460064934
 10
-94.3736486304
 20
3.6399650827
 10
-94.3523230442
 20
3.6329723209
 10
-94.3322569288
 20
3.6251174234
 10
-94.3136505677
 20
3.6163803798
 10
-94.2966720315
 20
3.6067812004
 10
-94.2814795591
 20
3.5964691317
 10
-94.2682331936
 20
3.5854050766
 10
-94.2571130997
 20
3.5736281321
 10
-94.2482842781
 20
3.5614048364
 10
-94.241869618
 20
3.5488240354
 10
-94.2379634812
 20
3.5357968832
 10
-94.2366469638
 20
3.5223233797
  0
LWPOLYLINE
  5
55B
100
AcDbEntity
  8
0
100
AcDbPolyline
 62
7
  6
CONTINUOUS
 90
16
 70
0
 10
-79.0625306178
 20
1.299720441
 10
-79.0565151319
 20
1.2982470177
 10
-79.0481793573
 20
1.2913767602
 10
-79.0398435826
 20
1.2789903198
 10
-79.0315078079
 20
1.2612120786
 10
-79.0231720333
 20
1.2381891429
 10
-79.0148362586
 20
1.2100904086
 10
-79.0065004839
 20
1.1771055369
 10
-78.9981647093
 20
1.1394438443
 10
-78.9898289346
 20
1.0973331152
 10
-78.9814931599
 20
1.0510183405
 10
-78.9731573853
 20
1.0007603921
 10
-78.9648216106
 20
0.9468346371
 10
-78.956485836
 20
0.8895295011
 10
-78.9481500613
 20
0.8291449861
 10
-78.9398142866
 20
0.7659911523
  0
LWPOLYLINE
  5
55C
100
AcDbEntity
  8
0
100
AcDbPolyline
 62
7
  6
CONTINUOUS
 90
15
 70
0
 10
-80.6501554139
 20
1.749999986
 10
-80.643714865
 20
1.7477615724
 10
-80.6351654823
 20
1.7378860631
 10
-80.6266160996
 20
1.7201779385
 10
-80.6180667169
 20
1.6947170088
 10
-80.6095173342
 20
1.6616180257
 10
-80.6009679515
 20
1.6210301654
 10
-80.5924185687
 20
1.5731363564
 10
-80.583869186
 20
1.5181524549
 10
-80.5753198033
 20
1.4563262722
 10
-80.5667704206
 20
1.3879364572
 10
-80.5582210379
 20
1.3132912414
 10
-80.5496716552
 20
1.232727049
 10
-80.5411222725
 20
1.146606981
 10
-80.5325728897
 20
1.0553191787
  0
LWPOLYLINE
  5
55D
100
AcDbEntity
  8
0
100
AcDbPolyline
 62
7
  6
CONTINUOUS
 90
4
 70
0
 10
-80.5501554139
 20
1.749999986
 10
-80.543714865
 20
1.7477615724
 10
-80.5351654823
 20
1.7378860631
 10
-80.5341979497
 20
1.73627391
  0
LINE
  5
55E
100
AcDbEntity
  8
0
100
AcDbLine
 62
7
  6
CONTINUOUS
 10
-76.2366469638
 20
0.0
 11
-78.8184354029
 21
1.0694117867
  0
LINE
  5
55F
100
AcDbEntity
  8
0
100
AcDbLine
 62
7
  6
CONTINUOUS
 10
-79.1098477786
 20
1.1901187449
 11
-79.2544139168
 21
1.25
  0
LWPOLYLINE
  5
560
100
AcDbEntity
  8
0
100
AcDbPolyline
 62
7
  6
CONTINUOUS
 90
15
 70
0
 10
-82.2501556392
 20
1.75
 10
-82.2424494329
 20
1.746795666
 10
-82.2339000502
 20
1.7357569005
 10
-82.2253506675
 20
1.716895083
 10
-82.2168012848
 20
1.6902952241
 10
-82.2082519021
 20
1.6560772101
 10
-82.1997025194
 20
1.6143952621
 10
-82.1911531366
 20
1.5654372411
 10
-82.1826037539
 20
1.5094238014
 10
-82.1740543712
 20
1.4466073958
 10
-82.1655049885
 20
1.3772711381
 10
-82.1569556058
 20
1.3017275272
 10
-82.1484062231
 20
1.2203170382
 10
-82.1398568403
 20
1.1334065882
 10
-82.1313074576
 20
1.0413878827
  0
LWPOLYLINE
  5
561
100
AcDbEntity
  8
0
100
AcDbPolyline
 62
7
  6
CONTINUOUS
 90
3
 70
0
 10
-82.1501556392
 20
1.75
 10
-82.1424494329
 20
1.746795666
 10
-82.1341982435
 20
1.7362739819
  0
LWPOLYLINE
  5
562
100
AcDbEntity
  8
0
100
AcDbPolyline
 62
7
  6
CONTINUOUS
 90
3
 70
0
 10
-83.7501557446
 20
1.7499999896
 10
-83.7411840008
 20
1.7456572761
 10
-83.7341966114
 20
1.7362710468
  0
LWPOLYLINE
  5
563
100
AcDbEntity
  8
0
100
AcDbPolyline
 62
7
  6
CONTINUOUS
 90
16
 70
0
 10
-79.1098477786
 20
1.1901187449
 10
-79.1035174882
 20
1.1865909971
 10
-79.0918276718
 20
1.175352202
 10
-79.0801254422
 20
1.1580576126
 10
-79.0684106966
 20
1.1348280542
 10
-79.0566835378
 20
1.1058158602
 10
-79.0449437207
 20
1.0712027755
 10
-79.0331911738
 20
1.0312000555
 10
-79.0214259687
 20
0.986047607
 10
-79.0096480754
 20
0.9360118929
 10
-78.9978575618
 20
0.8813852292
 10
-78.9860543601
 20
0.8224831566
 10
-78.9742382367
 20
0.7596423123
 10
-78.9624092384
 20
0.6932209274
 10
-78.9505673184
 20
0.6235950366
 10
-78.9387121027
 20
0.5511548393
  0
LWPOLYLINE
  5
564
100
AcDbEntity
  8
0
100
AcDbPolyline
 62
7
  6
CONTINUOUS
 90
3
 70
0
 10
-81.8661149887
 20
-1.7362712602
 10
-81.8577272107
 20
-1.7469069144
 10
-81.8501559926
 20
-1.749999998
  0
LWPOLYLINE
  5
565
100
AcDbEntity
  8
0
100
AcDbPolyline
 62
7
  6
CONTINUOUS
 90
3
 70
0
 10
-80.2661142186
 20
-1.7362712294
 10
-80.2589926428
 20
-1.7457862595
 10
-80.250155201
 20
-1.7499999859
  0
LWPOLYLINE
  5
566
100
AcDbEntity
  8
0
100
AcDbPolyline
 62
7
  6
CONTINUOUS
 90
4
 70
0
 10
-81.066114754
 20
-1.7362712207
 10
-81.0626346181
 20
-1.7416016808
 10
-81.0540852354
 20
-1.749166634
 10
-81.050155722
 20
-1.7499999893
  0
LINE
  5
567
100
AcDbEntity
  8
0
100
AcDbLine
 62
7
  6
CONTINUOUS
 10
-79.5066469638
 20
-1.5805600342
 11
-79.7953220984
 21
-1.128971453
  0
LWPOLYLINE
  5
568
100
AcDbEntity
  8
0
100
AcDbPolyline
 62
7
  6
CONTINUOUS
 90
4
 70
0
 10
-79.4755757481
 20
-1.6847842788
 10
-79.4733038651
 20
-1.6883642452
 10
-79.4649680905
 20
-1.6967736724
 10
-79.4596571936
 20
-1.6982704216
  0
LINE
  5
569
100
AcDbEntity
  8
0
100
AcDbLine
 62
7
  6
CONTINUOUS
 10
-82.9610666737
 20
-1.2309856379
 11
-82.66611422
 21
-1.7362712537
  0
LINE
  5
56A
100
AcDbEntity
  8
0
100
AcDbLine
 62
7
  6
CONTINUOUS
 10
-84.2392443798
 20
1.2309853836
 11
-84.5341968841
 21
1.7362710861
  0
LINE
  5
56B
100
AcDbEntity
  8
0
100
AcDbLine
 62
7
  6
CONTINUOUS
 10
-82.161067446
 20
-1.2309856366
 11
-81.8661149887
 21
-1.7362712602
  0
LINE
  5
56C
100
AcDbEntity
  8
0
100
AcDbLine
 62
7
  6
CONTINUOUS
 10
-83.4392440972
 20
1.2309853423
 11
-83.7341966114
 21
1.7362710468
  0
LINE
  5
56D
100
AcDbEntity
  8
0
100
AcDbLine
 62
7
  6
CONTINUOUS
 10
-81.3610672217
 20
-1.2309855941
 11
-81.066114754
 21
-1.7362712207
  0
LINE
  5
56E
100
AcDbEntity
  8
0
100
AcDbLine
 62
7
  6
CONTINUOUS
 10
-82.6392435841
 20
1.2309853593
 11
-82.934196091
 21
1.7362710552
  0
LINE
  5
56F
100
AcDbEntity
  8
0
100
AcDbLine
 62
7
  6
CONTINUOUS
 10
-80.5610666796
 20
-1.2309856105
 11
-80.2661142186
 21
-1.7362712294
  0
LINE
  5
570
100
AcDbEntity
  8
0
100
AcDbLine
 62
7
  6
CONTINUOUS
 10
-81.8392390982
 20
1.2309769173
 11
-82.1341982435
 21
1.7362739819
  0
LINE
  5
571
100
AcDbEntity
  8
0
100
AcDbLine
 62
7
  6
CONTINUOUS
 10
-83.7341966114
 20
1.7362710468
 11
-83.7326346181
 21
1.7334565518
  0
LINE
  5
572
100
AcDbEntity
  8
0
100
AcDbLine
 62
7
  6
CONTINUOUS
 10
-82.934196091
 20
1.7362710552
 11
-82.9289926428
 21
1.7258829347
  0
LWPOLYLINE
  5
573
100
AcDbEntity
  8
0
100
AcDbPolyline
 62
7
  6
CONTINUOUS
 90
13
 70
0
 10
-84.5341968841
 20
1.7362710861
 10
-84.5277272107
 20
1.7229183085
 10
-84.519177828
 20
1.6984586513
 10
-84.5106284453
 20
1.666344062
 10
-84.5020790626
 20
1.6267192811
 10
-84.4935296799
 20
1.5797628975
 10
-84.4849802971
 20
1.5256865433
 10
-84.4764309144
 20
1.4647339405
 10
-84.4678815317
 20
1.3971798021
 10
-84.459332149
 20
1.3233285939
 10
-84.4507827663
 20
1.2435131628
 10
-84.4422333836
 20
1.1580932362
 10
-84.4336840008
 20
1.0674538007
  0
LWPOLYLINE
  5
574
100
AcDbEntity
  8
0
100
AcDbPolyline
 62
7
  6
CONTINUOUS
 90
13
 70
0
 10
-82.1341982435
 20
1.7362739819
 10
-82.1253506675
 20
1.716895083
 10
-82.1168012848
 20
1.6902952241
 10
-82.1082519021
 20
1.6560772101
 10
-82.0997025194
 20
1.6143952621
 10
-82.0911531366
 20
1.5654372411
 10
-82.0826037539
 20
1.5094238014
 10
-82.0740543712
 20
1.4466073958
 10
-82.0655049885
 20
1.3772711381
 10
-82.0569556058
 20
1.3017275272
 10
-82.0484062231
 20
1.2203170382
 10
-82.0398568403
 20
1.1334065882
 10
-82.0313074576
 20
1.0413878827
  0
LWPOLYLINE
  5
575
100
AcDbEntity
  8
0
100
AcDbPolyline
 62
7
  6
CONTINUOUS
 90
12
 70
0
 10
-83.7326346181
 20
1.7334565518
 10
-83.7240852354
 20
1.7134431769
 10
-83.7155358527
 20
1.6857073513
 10
-83.70698647
 20
1.6503740799
 10
-83.6984370873
 20
1.6076026089
 10
-83.6898877045
 20
1.5575857085
 10
-83.6813383218
 20
1.5005488038
 10
-83.6727889391
 20
1.4367489589
 10
-83.6642395564
 20
1.3664737184
 10
-83.6556901737
 20
1.2900398113
 10
-83.647140791
 20
1.2077917235
 10
-83.6385914083
 20
1.1201001453
  0
LWPOLYLINE
  5
576
100
AcDbEntity
  8
0
100
AcDbPolyline
 62
7
  6
CONTINUOUS
 90
12
 70
0
 10
-82.9289926428
 20
1.7258829347
 10
-82.9204432601
 20
1.7025672521
 10
-82.9118938774
 20
1.6715781287
 10
-82.9033444947
 20
1.6330552314
 10
-82.894795112
 20
1.5871721822
 10
-82.8862457292
 20
1.5341357746
 10
-82.8776963465
 20
1.4741850427
 10
-82.8691469638
 20
1.407590183
 10
-82.8605975811
 20
1.3346513371
 10
-82.8520481984
 20
1.2556972389
 10
-82.8434988157
 20
1.1710837329
 10
-82.8349494329
 20
1.0811921706
  0
LWPOLYLINE
  5
577
100
AcDbEntity
  8
0
100
AcDbPolyline
 62
7
  6
CONTINUOUS
 90
13
 70
0
 10
-83.3329549011
 20
0.6654208877
 10
-83.34181365
 20
0.7373749116
 10
-83.3505877854
 20
0.8051255839
 10
-83.3593186175
 20
0.868748733
 10
-83.3681180158
 20
0.9287392259
 10
-83.3770331302
 20
0.9849954564
 10
-83.3860168107
 20
1.0368007158
 10
-83.3950394779
 20
1.0836373708
 10
-83.4041135593
 20
1.1252545217
 10
-83.4132266274
 20
1.1613005051
 10
-83.4223118195
 20
1.1913170653
 10
-83.4313612819
 20
1.2151884275
 10
-83.4392440972
 20
1.2309853423
  0
LWPOLYLINE
  5
578
100
AcDbEntity
  8
0
100
AcDbPolyline
 62
7
  6
CONTINUOUS
 90
13
 70
0
 10
-82.5328799502
 20
0.6648017238
 10
-82.5418144037
 20
0.7373846076
 10
-82.5506527712
 20
0.805617074
 10
-82.5594324128
 20
0.8695550404
 10
-82.5682111246
 20
0.9293539697
 10
-82.5770118998
 20
0.9848700857
 10
-82.5858117452
 20
1.0356775209
 10
-82.5945994768
 20
1.0814801528
 10
-82.6033640741
 20
1.1220330285
 10
-82.6121165575
 20
1.1572262614
 10
-82.6208788052
 20
1.186983301
 10
-82.6296633292
 20
1.2111751216
 10
-82.6392435841
 20
1.2309853593
  0
LWPOLYLINE
  5
579
100
AcDbEntity
  8
0
100
AcDbPolyline
 62
7
  6
CONTINUOUS
 90
14
 70
0
 10
-84.1324369464
 20
0.6611077176
 10
-84.1413532865
 20
0.7337177783
 10
-84.150186883
 20
0.8021082718
 10
-84.1589750028
 20
0.8663176242
 10
-84.1677737933
 20
0.9264718071
 10
-84.1766070793
 20
0.9824127474
 10
-84.185451036
 20
1.0336860454
 10
-84.1942903363
 20
1.0799510726
 10
-84.2031251491
 20
1.1209937093
 10
-84.2119553056
 20
1.1566238602
 10
-84.2207649726
 20
1.1866300228
 10
-84.2295401893
 20
1.2108736743
 10
-84.2382949165
 20
1.2293315117
 10
-84.2392443798
 20
1.2309853836
  0
LWPOLYLINE
  5
57A
100
AcDbEntity
  8
0
100
AcDbPolyline
 62
7
  6
CONTINUOUS
 90
13
 70
0
 10
-83.8680501512
 20
-0.659644383
 10
-83.8592751613
 20
-0.7311966111
 10
-83.850505403
 20
-0.7992377104
 10
-83.8417332189
 20
-0.8635058592
 10
-83.832899801
 20
-0.9240817379
 10
-83.8239786075
 20
-0.9807460956
 10
-83.81499618
 20
-1.0329362549
 10
-83.8059733351
 20
-1.0801873716
 10
-83.796894571
 20
-1.1222580661
 10
-83.7877753895
 20
-1.1587741254
 10
-83.7786831128
 20
-1.1892672721
 10
-83.7696246918
 20
-1.2136188088
 10
-83.7610669336
 20
-1.2309855944
  0
LWPOLYLINE
  5
57B
100
AcDbEntity
  8
0
100
AcDbPolyline
 62
7
  6
CONTINUOUS
 90
13
 70
0
 10
-82.2680963477
 20
-0.6592624217
 10
-82.2593228995
 20
-0.7308197127
 10
-82.2505532626
 20
-0.7988795829
 10
-82.2417801038
 20
-0.8631760843
 10
-82.2329463656
 20
-0.9237767872
 10
-82.2240263534
 20
-0.9804582007
 10
-82.2150457618
 20
-1.0326646562
 10
-82.2060246176
 20
-1.0799363106
 10
-82.1969471586
 20
-1.1220327458
 10
-82.187829147
 20
-1.1585779669
 10
-82.1787378963
 20
-1.1891031177
 10
-82.1696805871
 20
-1.2134885048
 10
-82.161067446
 20
-1.2309856366
  0
LWPOLYLINE
  5
57C
100
AcDbEntity
  8
0
100
AcDbPolyline
 62
7
  6
CONTINUOUS
 90
15
 70
0
 10
-81.7287809036
 20
0.6303789128
 10
-81.7371402317
 20
0.6998374523
 10
-81.7454036344
 20
0.7655361994
 10
-81.7536146265
 20
0.8276260315
 10
-81.7618719261
 20
0.8865956315
 10
-81.7702070525
 20
0.9423398072
 10
-81.7785884863
 20
0.9943225663
 10
-81.7870203877
 20
1.0422717954
 10
-81.7955223537
 20
1.0859924524
 10
-81.8040747871
 20
1.1250886523
 10
-81.8126230572
 20
1.1590951624
 10
-81.8211679938
 20
1.1878688052
 10
-81.8297087669
 20
1.211284199
 10
-81.8381882558
 20
1.2291420143
 10
-81.8392390982
 20
1.2309769173
  0
LWPOLYLINE
  5
57D
100
AcDbEntity
  8
0
100
AcDbPolyline
 62
7
  6
CONTINUOUS
 90
14
 70
0
 10
-83.0759393059
 20
-0.5926285741
 10
-83.0669159575
 20
-0.6690734362
 10
-83.0579614474
 20
-0.7416154028
 10
-83.0491132286
 20
-0.8096960576
 10
-83.0403338482
 20
-0.8733845965
 10
-83.0315636614
 20
-0.9328621723
 10
-83.0227846674
 20
-0.9879684326
 10
-83.0140148671
 20
-1.0383293904
 10
-83.0052486174
 20
-1.0837489244
 10
-82.9964919883
 20
-1.123991847
 10
-82.98773891
 20
-1.1589074092
 10
-82.9789655294
 20
-1.1884098403
 10
-82.9701518062
 20
-1.2123684032
 10
-82.9610666737
 20
-1.2309856379
  0
LWPOLYLINE
  5
57E
100
AcDbEntity
  8
0
100
AcDbPolyline
 62
7
  6
CONTINUOUS
 90
14
 70
0
 10
-81.475929971
 20
-0.5927147832
 10
-81.4669052106
 20
-0.6691677854
 10
-81.4579494356
 20
-0.7417152506
 10
-81.449099827
 20
-0.8098008875
 10
-81.4403192038
 20
-0.8734917055
 10
-81.4315488602
 20
-0.9329627961
 10
-81.4227723279
 20
-0.9880461881
 10
-81.4140060752
 20
-1.0383806189
 10
-81.4052408007
 20
-1.0837899585
 10
-81.3964806145
 20
-1.1240431152
 10
-81.3877214065
 20
-1.158973828
 10
-81.3789415448
 20
-1.1884844722
 10
-81.3701210652
 20
-1.2124431361
 10
-81.3610672217
 20
-1.2309855941
  0
LINE
  5
57F
100
AcDbEntity
  8
0
100
AcDbLine
 62
7
  6
CONTINUOUS
 10
-84.0103051607
 20
0.6654208877
 11
-83.9924698143
 21
0.5111612452
  0
LINE
  5
580
100
AcDbEntity
  8
0
100
AcDbLine
 62
7
  6
CONTINUOUS
 10
-83.3151195549
 20
0.5111612452
 11
-83.3329549011
 21
0.6654208877
  0
LINE
  5
581
100
AcDbEntity
  8
0
100
AcDbLine
 62
7
  6
CONTINUOUS
 10
-83.2102302083
 20
0.6648017238
 11
-83.1922394088
 21
0.5091002429
  0
LINE
  5
582
100
AcDbEntity
  8
0
100
AcDbLine
 62
7
  6
CONTINUOUS
 10
-82.5148891506
 20
0.5091002429
 11
-82.5328799502
 21
0.6648017238
  0
LINE
  5
583
100
AcDbEntity
  8
0
100
AcDbLine
 62
7
  6
CONTINUOUS
 10
-81.6101476614
 20
0.6641092625
 11
-81.5921710361
 21
0.5084806847
  0
LINE
  5
584
100
AcDbEntity
  8
0
100
AcDbLine
 62
7
  6
CONTINUOUS
 10
-84.1145234901
 20
0.5058120326
 11
-84.1324369464
 21
0.6611077176
  0
LINE
  5
585
100
AcDbEntity
  8
0
100
AcDbLine
 62
7
  6
CONTINUOUS
 10
-83.8856286908
 20
-0.5072425189
 11
-83.8680501512
 21
-0.659644383
  0
LINE
  5
586
100
AcDbEntity
  8
0
100
AcDbLine
 62
7
  6
CONTINUOUS
 10
-83.1906998927
 20
-0.659644383
 11
-83.2082784321
 21
-0.5072425189
  0
LINE
  5
587
100
AcDbEntity
  8
0
100
AcDbLine
 62
7
  6
CONTINUOUS
 10
-82.2856677359
 20
-0.5068954914
 11
-82.2680963477
 21
-0.6592624217
  0
LINE
  5
588
100
AcDbEntity
  8
0
100
AcDbLine
 62
7
  6
CONTINUOUS
 10
-81.5907460794
 20
-0.6592624217
 11
-81.6083174675
 21
-0.5068954914
  0
LINE
  5
589
100
AcDbEntity
  8
0
100
AcDbLine
 62
7
  6
CONTINUOUS
 10
-82.4061311726
 20
0.6303789128
 11
-82.3892871109
 21
0.4824885762
  0
LINE
  5
58A
100
AcDbEntity
  8
0
100
AcDbLine
 62
7
  6
CONTINUOUS
 10
-81.711936842
 20
0.4824885762
 11
-81.7287809036
 21
0.6303789128
  0
LINE
  5
58B
100
AcDbEntity
  8
0
100
AcDbLine
 62
7
  6
CONTINUOUS
 10
-83.9985373727
 20
-0.59308234
 11
-84.0166528576
 21
-0.4310619266
  0
LINE
  5
58C
100
AcDbEntity
  8
0
100
AcDbLine
 62
7
  6
CONTINUOUS
 10
-83.0940397112
 20
-0.4307170192
 11
-83.0759393059
 21
-0.5926285741
  0
LINE
  5
58D
100
AcDbEntity
  8
0
100
AcDbLine
 62
7
  6
CONTINUOUS
 10
-82.3985890466
 20
-0.5926285741
 11
-82.4166894521
 21
-0.4307170192
  0
LINE
  5
58E
100
AcDbEntity
  8
0
100
AcDbLine
 62
7
  6
CONTINUOUS
 10
-81.4940332396
 20
-0.4307826838
 11
-81.475929971
 21
-0.5927147832
  0
LINE
  5
58F
100
AcDbEntity
  8
0
100
AcDbLine
 62
7
  6
CONTINUOUS
 10
-80.8968301216
 20
0.3426004249
 11
-80.9148207734
 21
0.5084806847
  0
LINE
  5
590
100
AcDbEntity
  8
0
100
AcDbLine
 62
7
  6
CONTINUOUS
 10
-80.7032728252
 20
-0.3445657085
 11
-80.6853935912
 21
-0.5093485575
  0
LINE
  5
591
100
AcDbEntity
  8
0
100
AcDbLine
 62
7
  6
CONTINUOUS
 10
-80.7922866213
 20
0.5095223091
 11
-80.7743946367
 21
0.3446282942
  0
LINE
  5
592
100
AcDbEntity
  8
0
100
AcDbLine
 62
7
  6
CONTINUOUS
 10
-80.008043334
 20
-0.5093485575
 11
-80.0259225679
 21
-0.3445657085
  0
LINE
  5
593
100
AcDbEntity
  8
0
100
AcDbLine
 62
7
  6
CONTINUOUS
 10
-80.0970443795
 20
0.3446282942
 11
-80.114936364
 21
0.5095223091
  0
LINE
  5
594
100
AcDbEntity
  8
0
100
AcDbLine
 62
7
  6
CONTINUOUS
 10
-79.9150801827
 20
-0.2318189991
 11
-79.8908671751
 21
-0.4598217793
  0
LINE
  5
595
100
AcDbEntity
  8
0
100
AcDbLine
 62
7
  6
CONTINUOUS
 10
-79.2815444753
 20
0.1961658048
 11
-79.3086847021
 21
0.4528851781
  0
LINE
  5
596
100
AcDbEntity
  8
0
100
AcDbLine
 62
7
  6
CONTINUOUS
 10
-80.8166829778
 20
-0.4307826838
 11
-80.8437377744
 21
-0.1736277338
  0
LINE
  5
597
100
AcDbEntity
  8
0
100
AcDbLine
 62
7
  6
CONTINUOUS
 10
-79.9836149301
 20
0.4306602369
 11
-79.9565665269
 21
0.1735602794
  0
LINE
  5
598
100
AcDbEntity
  8
0
100
AcDbLine
 62
7
  6
CONTINUOUS
 10
-80.8437377744
 20
-0.1736277338
 11
-80.8968301216
 21
0.3426004249
  0
LINE
  5
599
100
AcDbEntity
  8
0
100
AcDbLine
 62
7
  6
CONTINUOUS
 10
-80.7743946367
 20
0.3446282942
 11
-80.7032728252
 21
-0.3445657085
  0
LINE
  5
59A
100
AcDbEntity
  8
0
100
AcDbLine
 62
7
  6
CONTINUOUS
 10
-80.0259225679
 20
-0.3445657085
 11
-80.0970443795
 21
0.3446282942
  0
LINE
  5
59B
100
AcDbEntity
  8
0
100
AcDbLine
 62
7
  6
CONTINUOUS
 10
-79.9565665269
 20
0.1735602794
 11
-79.9150801827
 21
-0.2318189991
  0
LINE
  5
59C
100
AcDbEntity
  8
0
100
AcDbLine
 62
7
  6
CONTINUOUS
 10
-79.2544139168
 20
-0.069338263
 11
-79.2815444753
 21
0.1961658048
  0
LWPOLYLINE
  5
59D
100
AcDbEntity
  8
0
100
AcDbPolyline
 62
7
  6
CONTINUOUS
 90
13
 70
0
 10
-80.3615852354
 20
-1.1215173085
 10
-80.3530358527
 20
-1.2091264252
 10
-80.34448647
 20
-1.2912860331
 10
-80.3359370873
 20
-1.3676258401
 10
-80.3273877045
 20
-1.4378017841
 10
-80.3188383218
 20
-1.5014975832
 10
-80.3102889391
 20
-1.5584261613
 10
-80.3017395564
 20
-1.6083309421
 10
-80.2931901737
 20
-1.6509870055
 10
-80.284640791
 20
-1.6862021012
 10
-80.2760914083
 20
-1.7138175149
 10
-80.2675420255
 20
-1.7337087843
 10
-80.2661142186
 20
-1.7362712294
  0
LWPOLYLINE
  5
59E
100
AcDbEntity
  8
0
100
AcDbPolyline
 62
7
  6
CONTINUOUS
 90
14
 70
0
 10
-80.2615852354
 20
-1.1215173085
 10
-80.2530358527
 20
-1.2091264252
 10
-80.24448647
 20
-1.2912860331
 10
-80.2359370873
 20
-1.3676258401
 10
-80.2273877045
 20
-1.4378017841
 10
-80.2188383218
 20
-1.5014975832
 10
-80.2102889391
 20
-1.5584261613
 10
-80.2017395564
 20
-1.6083309421
 10
-80.1931901737
 20
-1.6509870055
 10
-80.184640791
 20
-1.6862021012
 10
-80.1760914083
 20
-1.7138175149
 10
-80.1675420255
 20
-1.7337087843
 10
-80.1589926428
 20
-1.7457862595
 10
-80.150155201
 20
-1.7499999859
  0
LWPOLYLINE
  5
59F
100
AcDbEntity
  8
0
100
AcDbPolyline
 62
7
  6
CONTINUOUS
 90
13
 70
0
 10
-81.1652272107
 20
-1.0826435088
 10
-81.156677828
 20
-1.1724551566
 10
-81.1481284453
 20
-1.2569825736
 10
-81.1395790626
 20
-1.3358447968
 10
-81.1310296799
 20
-1.4086863959
 10
-81.1224802971
 20
-1.4751790754
 10
-81.1139309144
 20
-1.5350231545
 10
-81.1053815317
 20
-1.5879489173
 10
-81.096832149
 20
-1.6337178285
 10
-81.0882827663
 20
-1.6721236089
 10
-81.0797333836
 20
-1.7029931646
 10
-81.0711840008
 20
-1.7261873671
 10
-81.066114754
 20
-1.7362712207
  0
LWPOLYLINE
  5
5A0
100
AcDbEntity
  8
0
100
AcDbPolyline
 62
7
  6
CONTINUOUS
 90
15
 70
0
 10
-81.0652272107
 20
-1.0826435088
 10
-81.056677828
 20
-1.1724551566
 10
-81.0481284453
 20
-1.2569825736
 10
-81.0395790626
 20
-1.3358447968
 10
-81.0310296799
 20
-1.4086863959
 10
-81.0224802971
 20
-1.4751790754
 10
-81.0139309144
 20
-1.5350231545
 10
-81.0053815317
 20
-1.5879489173
 10
-80.996832149
 20
-1.6337178285
 10
-80.9882827663
 20
-1.6721236089
 10
-80.9797333836
 20
-1.7029931646
 10
-80.9711840008
 20
-1.7261873671
 10
-80.9626346181
 20
-1.7416016808
 10
-80.9540852354
 20
-1.749166634
 10
-80.950155722
 20
-1.7499999893
  0
LWPOLYLINE
  5
5A1
100
AcDbEntity
  8
0
100
AcDbPolyline
 62
7
  6
CONTINUOUS
 90
8
 70
0
 10
-79.5664926428
 20
-1.0689222387
 10
-79.5579432601
 20
-1.1594825488
 10
-79.5493938774
 20
-1.2448170764
 10
-79.5408444947
 20
-1.3245412186
 10
-79.532295112
 20
-1.3982956583
 10
-79.5237457292
 20
-1.4657479839
 10
-79.5151963465
 20
-1.5265941873
 10
-79.5066469638
 20
-1.5805600342
  0
LWPOLYLINE
  5
5A2
100
AcDbEntity
  8
0
100
AcDbPolyline
 62
7
  6
CONTINUOUS
 90
8
 70
0
 10
-79.4664926428
 20
-1.0689222387
 10
-79.4579432601
 20
-1.1594825488
 10
-79.4493938774
 20
-1.2448170764
 10
-79.4408444947
 20
-1.3245412186
 10
-79.432295112
 20
-1.3982956583
 10
-79.4237457292
 20
-1.4657479839
 10
-79.4151963465
 20
-1.5265941873
 10
-79.4066469638
 20
-1.5805600342
  0
LINE
  5
5A3
100
AcDbEntity
  8
0
100
AcDbLine
 62
7
  6
CONTINUOUS
 10
-80.3786840008
 20
-0.9315527408
 11
-80.3615852354
 21
-1.1215173085
  0
LINE
  5
5A4
100
AcDbEntity
  8
0
100
AcDbLine
 62
7
  6
CONTINUOUS
 10
-80.2786840008
 20
-0.9315527408
 11
-80.2615852354
 21
-1.1215173085
  0
LINE
  5
5A5
100
AcDbEntity
  8
0
100
AcDbLine
 62
7
  6
CONTINUOUS
 10
-78.6607384898
 20
-0.6486029823
 11
-78.668955276
 21
-0.5572662519
  0
LINE
  5
5A6
100
AcDbEntity
  8
0
100
AcDbLine
 62
7
  6
CONTINUOUS
 10
-79.7374802971
 20
1.1083276399
 11
-79.7203815317
 21
0.9170218545
  0
LINE
  5
5A7
100
AcDbEntity
  8
0
100
AcDbLine
 62
7
  6
CONTINUOUS
 10
-79.6374802971
 20
1.1083276399
 11
-79.6203815317
 21
0.9170218545
  0
LWPOLYLINE
  5
5A8
100
AcDbEntity
  8
0
100
AcDbPolyline
 62
7
  6
CONTINUOUS
 90
12
 70
0
 10
-78.7579474396
 20
0.6502731442
 10
-78.7631987067
 20
0.7105772719
 10
-78.7684522187
 20
0.7672264254
 10
-78.7737294963
 20
0.8200932909
 10
-78.7790494723
 20
0.8689742868
 10
-78.784393214
 20
0.9133145206
 10
-78.7897254436
 20
0.952532064
 10
-78.7950405587
 20
0.9863824023
 10
-78.8003441619
 20
1.0147302502
 10
-78.8056177828
 20
1.0373595391
 10
-78.8108371037
 20
1.0541518039
 10
-78.8153517396
 20
1.0640907128
  0
LINE
  5
5A9
100
AcDbEntity
  8
0
100
AcDbLine
 62
7
  6
CONTINUOUS
 10
-81.336214865
 20
1.0948068804
 11
-81.3191160996
 21
0.9021565765
  0
LINE
  5
5AA
100
AcDbEntity
  8
0
100
AcDbLine
 62
7
  6
CONTINUOUS
 10
-81.236214865
 20
1.0948068804
 11
-81.2191160996
 21
0.9021565765
  0
LINE
  5
5AB
100
AcDbEntity
  8
0
100
AcDbLine
 62
7
  6
CONTINUOUS
 10
-81.1823259762
 20
-0.888808629
 11
-81.1652272107
 21
-1.0826435088
  0
LINE
  5
5AC
100
AcDbEntity
  8
0
100
AcDbLine
 62
7
  6
CONTINUOUS
 10
-81.0823259762
 20
-0.888808629
 11
-81.0652272107
 21
-1.0826435088
  0
LINE
  5
5AD
100
AcDbEntity
  8
0
100
AcDbLine
 62
7
  6
CONTINUOUS
 10
-79.5835914083
 20
-0.8737786059
 11
-79.5664926428
 21
-1.0689222387
  0
LINE
  5
5AE
100
AcDbEntity
  8
0
100
AcDbLine
 62
7
  6
CONTINUOUS
 10
-79.4835914083
 20
-0.8737786059
 11
-79.4664926428
 21
-1.0689222387
  0
LINE
  5
5AF
100
AcDbEntity
  8
0
100
AcDbLine
 62
7
  6
CONTINUOUS
 10
-80.5325728897
 20
1.0553191787
 11
-80.5154741243
 21
0.8589075358
  0
LINE
  5
5B0
100
AcDbEntity
  8
0
100
AcDbLine
 62
7
  6
CONTINUOUS
 10
-80.4325728897
 20
1.0553191787
 11
-80.4154741243
 21
0.8589075358
  0
LINE
  5
5B1
100
AcDbEntity
  8
0
100
AcDbLine
 62
7
  6
CONTINUOUS
 10
-80.3957827663
 20
-0.7248131391
 11
-80.3786840008
 21
-0.9315527408
  0
LINE
  5
5B2
100
AcDbEntity
  8
0
100
AcDbLine
 62
7
  6
CONTINUOUS
 10
-80.2957827663
 20
-0.7248131391
 11
-80.2786840008
 21
-0.9315527408
  0
LINE
  5
5B3
100
AcDbEntity
  8
0
100
AcDbLine
 62
7
  6
CONTINUOUS
 10
-78.668955276
 20
-0.5572662519
 11
-78.6771976291
 21
-0.4574383946
  0
LINE
  5
5B4
100
AcDbEntity
  8
0
100
AcDbLine
 62
7
  6
CONTINUOUS
 10
-79.7203815317
 20
0.9170218545
 11
-79.7032827663
 21
0.7092026423
  0
LINE
  5
5B5
100
AcDbEntity
  8
0
100
AcDbLine
 62
7
  6
CONTINUOUS
 10
-79.6203815317
 20
0.9170218545
 11
-79.6032827663
 21
0.7092026423
  0
LINE
  5
5B6
100
AcDbEntity
  8
0
100
AcDbLine
 62
7
  6
CONTINUOUS
 10
-81.3191160996
 20
0.9021565765
 11
-81.3020173342
 21
0.6932605958
  0
LINE
  5
5B7
100
AcDbEntity
  8
0
100
AcDbLine
 62
7
  6
CONTINUOUS
 10
-81.2191160996
 20
0.9021565765
 11
-81.2020173342
 21
0.6932605958
  0
LINE
  5
5B8
100
AcDbEntity
  8
0
100
AcDbLine
 62
7
  6
CONTINUOUS
 10
-81.1994247416
 20
-0.6789684346
 11
-81.1823259762
 21
-0.888808629
  0
LINE
  5
5B9
100
AcDbEntity
  8
0
100
AcDbLine
 62
7
  6
CONTINUOUS
 10
-81.0994247416
 20
-0.6789684346
 11
-81.0823259762
 21
-0.888808629
  0
LINE
  5
5BA
100
AcDbEntity
  8
0
100
AcDbLine
 62
7
  6
CONTINUOUS
 10
-79.6006901737
 20
-0.6629002641
 11
-79.5835914083
 21
-0.8737786059
  0
LINE
  5
5BB
100
AcDbEntity
  8
0
100
AcDbLine
 62
7
  6
CONTINUOUS
 10
-79.5006901737
 20
-0.6629002641
 11
-79.4835914083
 21
-0.8737786059
  0
LINE
  5
5BC
100
AcDbEntity
  8
0
100
AcDbLine
 62
7
  6
CONTINUOUS
 10
-80.5154741243
 20
0.8589075358
 11
-80.4983753589
 21
0.6470290225
  0
LINE
  5
5BD
100
AcDbEntity
  8
0
100
AcDbLine
 62
7
  6
CONTINUOUS
 10
-80.4154741243
 20
0.8589075358
 11
-80.3983753589
 21
0.6470290225
  0
LINE
  5
5BE
100
AcDbEntity
  8
0
100
AcDbLine
 62
7
  6
CONTINUOUS
 10
-78.7474471735
 20
0.5200676491
 11
-78.7579474396
 21
0.6502731442
  0
LINE
  5
5BF
100
AcDbEntity
  8
0
100
AcDbLine
 62
7
  6
CONTINUOUS
 10
-80.4214309144
 20
-0.3914605562
 11
-80.3957827663
 21
-0.7248131391
  0
LINE
  5
5C0
100
AcDbEntity
  8
0
100
AcDbLine
 62
7
  6
CONTINUOUS
 10
-80.3214309144
 20
-0.3914605562
 11
-80.2957827663
 21
-0.7248131391
  0
LINE
  5
5C1
100
AcDbEntity
  8
0
100
AcDbLine
 62
7
  6
CONTINUOUS
 10
-79.7032827663
 20
0.7092026423
 11
-79.6776346181
 21
0.3747623254
  0
LINE
  5
5C2
100
AcDbEntity
  8
0
100
AcDbLine
 62
7
  6
CONTINUOUS
 10
-79.6032827663
 20
0.7092026423
 11
-79.5776346181
 21
0.3747623254
  0
LINE
  5
5C3
100
AcDbEntity
  8
0
100
AcDbLine
 62
7
  6
CONTINUOUS
 10
-81.3020173342
 20
0.6932605958
 11
-81.276369186
 21
0.3577481482
  0
LINE
  5
5C4
100
AcDbEntity
  8
0
100
AcDbLine
 62
7
  6
CONTINUOUS
 10
-81.2020173342
 20
0.6932605958
 11
-81.176369186
 21
0.3577481482
  0
LINE
  5
5C5
100
AcDbEntity
  8
0
100
AcDbLine
 62
7
  6
CONTINUOUS
 10
-78.6771976291
 20
-0.4574383946
 11
-78.6896416964
 21
-0.2940739581
  0
LINE
  5
5C6
100
AcDbEntity
  8
0
100
AcDbLine
 62
7
  6
CONTINUOUS
 10
-81.2336222724
 20
-0.2266071466
 11
-81.1994247416
 21
-0.6789684346
  0
LINE
  5
5C7
100
AcDbEntity
  8
0
100
AcDbLine
 62
7
  6
CONTINUOUS
 10
-81.1336222724
 20
-0.2266071466
 11
-81.0994247416
 21
-0.6789684346
  0
LINE
  5
5C8
100
AcDbEntity
  8
0
100
AcDbLine
 62
7
  6
CONTINUOUS
 10
-79.6348877045
 20
-0.209344136
 11
-79.6006901737
 21
-0.6629002641
  0
LINE
  5
5C9
100
AcDbEntity
  8
0
100
AcDbLine
 62
7
  6
CONTINUOUS
 10
-79.5348877045
 20
-0.209344136
 11
-79.5006901737
 21
-0.6629002641
  0
LINE
  5
5CA
100
AcDbEntity
  8
0
100
AcDbLine
 62
7
  6
CONTINUOUS
 10
-80.4983753589
 20
0.6470290225
 11
-80.464177828
 21
0.1923428945
  0
LINE
  5
5CB
100
AcDbEntity
  8
0
100
AcDbLine
 62
7
  6
CONTINUOUS
 10
-80.3983753589
 20
0.6470290225
 11
-80.364177828
 21
0.1923428945
  0
LINE
  5
5CC
100
AcDbEntity
  8
0
100
AcDbLine
 62
7
  6
CONTINUOUS
 10
-81.276369186
 20
0.3577481482
 11
-81.2336222724
 21
-0.2266071466
  0
LINE
  5
5CD
100
AcDbEntity
  8
0
100
AcDbLine
 62
7
  6
CONTINUOUS
 10
-81.176369186
 20
0.3577481482
 11
-81.1336222724
 21
-0.2266071466
  0
LINE
  5
5CE
100
AcDbEntity
  8
0
100
AcDbLine
 62
7
  6
CONTINUOUS
 10
-80.464177828
 20
0.1923428945
 11
-80.4214309144
 21
-0.3914605562
  0
LINE
  5
5CF
100
AcDbEntity
  8
0
100
AcDbLine
 62
7
  6
CONTINUOUS
 10
-80.364177828
 20
0.1923428945
 11
-80.3214309144
 21
-0.3914605562
  0
LINE
  5
5D0
100
AcDbEntity
  8
0
100
AcDbLine
 62
7
  6
CONTINUOUS
 10
-79.6776346181
 20
0.3747623254
 11
-79.6348877045
 21
-0.209344136
  0
LINE
  5
5D1
100
AcDbEntity
  8
0
100
AcDbLine
 62
7
  6
CONTINUOUS
 10
-79.5776346181
 20
0.3747623254
 11
-79.5348877045
 21
-0.209344136
  0
LINE
  5
5D2
100
AcDbEntity
  8
0
100
AcDbLine
 62
7
  6
CONTINUOUS
 10
-78.7316083777
 20
0.3051372607
 11
-78.7474471735
 21
0.5200676491
  0
LINE
  5
5D3
100
AcDbEntity
  8
0
100
AcDbLine
 62
7
  6
CONTINUOUS
 10
-78.6896416964
 20
-0.2940739581
 11
-78.7316083777
 21
0.3051372607
  0
LINE
  5
5D4
100
AcDbEntity
  8
0
100
AcDbLine
 62
7
  6
CONTINUOUS
 10
-79.2544139168
 20
-0.069338263
 11
-79.2544139168
 21
1.25
  0
LINE
  5
5D5
100
AcDbEntity
  8
0
100
AcDbLine
 62
7
  6
CONTINUOUS
 10
-79.3431282747
 20
-1.6839132161
 11
-79.0420944512
 21
-1.1636549161
  0
LINE
  5
5D6
100
AcDbEntity
  8
0
100
AcDbLine
 62
7
  6
CONTINUOUS
 10
-80.9341982562
 20
-1.7362739116
 11
-80.6532210712
 21
-1.2548367358
  0
LINE
  5
5D7
100
AcDbEntity
  8
0
100
AcDbLine
 62
7
  6
CONTINUOUS
 10
-80.1341977511
 20
-1.7362739221
 11
-79.8532205597
 21
-1.2548367311
  0
LINE
  5
5D8
100
AcDbEntity
  8
0
100
AcDbLine
 62
7
  6
CONTINUOUS
 10
-79.0828149038
 20
1.2827789308
 11
-79.1326029102
 21
1.199544229
  0
LWPOLYLINE
  5
5D9
100
AcDbEntity
  8
0
100
AcDbPolyline
 62
7
  6
CONTINUOUS
 90
5
 70
0
 10
-79.0828149038
 20
1.2827789308
 10
-79.0815224559
 20
1.2848746279
 10
-79.0731866813
 20
1.2950600046
 10
-79.0648509066
 20
1.2995002724
 10
-79.0625306178
 20
1.299720441
  0
LINE
  5
5DA
100
AcDbEntity
  8
0
100
AcDbLine
 62
7
  6
CONTINUOUS
 10
-79.0750862883
 20
-1.0618835114
 11
-79.4066469638
 21
-1.5805600342
  0
LINE
  5
5DB
100
AcDbEntity
  8
RACCORDO
100
AcDbLine
 62
253
  6
CONTINUOUS
 10
-93.7410102316
 20
8.0043443947
 11
-90.2366469638
 21
8.0349265096
  0
LINE
  5
5DC
100
AcDbEntity
  8
RACCORDO
100
AcDbLine
 62
7
  6
CONTINUOUS
 10
-90.2366469638
 20
8.5349074712
 11
-93.7410102316
 21
8.5043253562
  0
LINE
  5
5DD
100
AcDbEntity
  8
RACCORDO
100
AcDbLine
 62
253
  6
CONTINUOUS
 10
-93.7410102316
 20
8.0043443947
 11
-94.5471168128
 21
8.0043443947
  0
LINE
  5
5DE
100
AcDbEntity
  8
RACCORDO
100
AcDbLine
 62
253
  6
CONTINUOUS
 10
-84.7366469638
 20
8.3
 11
-90.2366469638
 21
8.3
  0
LINE
  5
5DF
100
AcDbEntity
  8
RACCORDO
100
AcDbLine
 62
7
  6
CONTINUOUS
 10
-84.7366469638
 20
8.5
 11
-90.2366469638
 21
8.5
  0
LINE
  5
5E0
100
AcDbEntity
  8
0
100
AcDbLine
 62
7
  6
CONTINUOUS
 10
-79.7607286913
 20
-1.2042343383
 11
-79.6144923105
 21
-1.449668568
  0
LINE
  5
5E1
100
AcDbEntity
  8
0
100
AcDbLine
 62
7
  6
CONTINUOUS
 10
-79.6144923105
 20
-1.449668568
 11
-79.4755757481
 21
-1.6847842788
  0
LINE
  5
5E2
100
AcDbEntity
  8
0
100
AcDbLine
 62
7
  6
CONTINUOUS
 10
-81.0392393474
 20
1.2309768489
 11
-81.3341985126
 21
1.7362739254
  0
LINE
  5
5E3
100
AcDbEntity
  8
0
100
AcDbLine
 62
7
  6
CONTINUOUS
 10
-80.2392387847
 20
1.2309768389
 11
-80.5341979497
 21
1.73627391
  0
LINE
  5
5E4
100
AcDbEntity
  8
0
100
AcDbLine
 62
7
  6
CONTINUOUS
 10
-79.4392386671
 20
1.2309768871
 11
-79.7341978182
 21
1.7362739498
  0
LINE
  5
5E5
100
AcDbEntity
  8
0
100
AcDbLine
 62
7
  6
CONTINUOUS
 10
-78.8153517396
 20
1.0640907128
 11
-78.9409342975
 21
1.2809205464
  0
LWPOLYLINE
  5
5E6
100
AcDbEntity
  8
0
100
AcDbPolyline
 62
7
  6
CONTINUOUS
 90
13
 70
0
 10
-79.7341978182
 20
1.7362739498
 10
-79.731523507
 20
1.7312966251
 10
-79.7229741243
 20
1.7102741655
 10
-79.7144247416
 20
1.6815435159
 10
-79.7058753589
 20
1.6452341647
 10
-79.6973259762
 20
1.6015097572
 10
-79.6887765934
 20
1.5505673584
 10
-79.6802272107
 20
1.4926365648
 10
-79.671677828
 20
1.4279784694
 10
-79.6631284453
 20
1.3568844854
 10
-79.6545790626
 20
1.2796750321
 10
-79.6460296799
 20
1.1966980916
 10
-79.6374802971
 20
1.1083276399
  0
LINE
  5
5E7
100
AcDbEntity
  8
0
100
AcDbLine
 62
7
  6
CONTINUOUS
 10
-81.3341985126
 20
1.7362739254
 11
-81.3302580749
 21
1.7286735938
  0
LWPOLYLINE
  5
5E8
100
AcDbEntity
  8
0
100
AcDbPolyline
 62
7
  6
CONTINUOUS
 90
13
 70
0
 10
-78.9409342975
 20
1.2809205464
 10
-78.9342382636
 20
1.2676207277
 10
-78.9259503917
 20
1.2464355422
 10
-78.9176625197
 20
1.220174727
 10
-78.9093746478
 20
1.18901795
 10
-78.9010867759
 20
1.1531644639
 10
-78.8927989039
 20
1.1128319765
 10
-78.884511032
 20
1.06825545
 10
-78.8762231601
 20
1.0196858345
 10
-78.8679352881
 20
0.9673887412
 10
-78.8596474162
 20
0.9116430641
 10
-78.8513595443
 20
0.8527395559
 10
-78.8430716723
 20
0.7909793644
  0
LWPOLYLINE
  5
5E9
100
AcDbEntity
  8
0
100
AcDbPolyline
 62
7
  6
CONTINUOUS
 90
13
 70
0
 10
-80.5341979497
 20
1.73627391
 10
-80.5266160996
 20
1.7201779385
 10
-80.5180667169
 20
1.6947170088
 10
-80.5095173342
 20
1.6616180257
 10
-80.5009679515
 20
1.6210301654
 10
-80.4924185687
 20
1.5731363564
 10
-80.483869186
 20
1.5181524549
 10
-80.4753198033
 20
1.4563262722
 10
-80.4667704206
 20
1.3879364572
 10
-80.4582210379
 20
1.3132912414
 10
-80.4496716552
 20
1.232727049
 10
-80.4411222725
 20
1.146606981
 10
-80.4325728897
 20
1.0553191787
  0
LWPOLYLINE
  5
5EA
100
AcDbEntity
  8
0
100
AcDbPolyline
 62
7
  6
CONTINUOUS
 90
4
 70
0
 10
-79.7953220984
 20
-1.128971453
 10
-79.7818433966
 20
-1.1624149029
 10
-79.7683559943
 20
-1.1906410348
 10
-79.7607286913
 20
-1.2042343383
  0
LWPOLYLINE
  5
5EB
100
AcDbEntity
  8
0
100
AcDbPolyline
 62
7
  6
CONTINUOUS
 90
12
 70
0
 10
-81.3302580749
 20
1.7286735938
 10
-81.3217086922
 20
1.7065027799
 10
-81.3131593095
 20
1.6766407909
 10
-81.3046099268
 20
1.6392222145
 10
-81.2960605441
 20
1.5944156957
 10
-81.2875111613
 20
1.5424231768
 10
-81.2789617786
 20
1.4834789873
 10
-81.2704123959
 20
1.4178487877
 10
-81.2618630132
 20
1.3458283723
 10
-81.2533136305
 20
1.2677423358
 10
-81.2447642478
 20
1.1839426106
 10
-81.236214865
 20
1.0948068804
  0
LWPOLYLINE
  5
5EC
100
AcDbEntity
  8
0
100
AcDbPolyline
 62
7
  6
CONTINUOUS
 90
13
 70
0
 10
-79.0750862883
 20
-1.0618835114
 10
-79.0850256464
 20
-1.033658968
 10
-79.0949586556
 20
-1.0015750674
 10
-79.1048853159
 20
-0.9657272044
 10
-79.1148023603
 20
-0.9262382478
 10
-79.1247130558
 20
-0.8832196721
 10
-79.1346272034
 20
-0.8367596339
 10
-79.144534016
 20
-0.787052824
 10
-79.1544442807
 20
-0.7342019248
 10
-79.164400159
 20
-0.6781273963
 10
-79.1744320988
 20
-0.618786629
 10
-79.1845096522
 20
-0.5565063913
 10
-79.194583637
 20
-0.4917846734
  0
LWPOLYLINE
  5
5ED
100
AcDbEntity
  8
0
100
AcDbPolyline
 62
7
  6
CONTINUOUS
 90
10
 70
0
 10
-78.831449216
 20
-0.1573419376
 10
-78.8124229055
 20
-0.221175091
 10
-78.7934139232
 20
-0.2831517242
 10
-78.774422269
 20
-0.3430544022
 10
-78.755451563
 20
-0.4006673888
 10
-78.7364981852
 20
-0.4558105417
 10
-78.717551275
 20
-0.5083350754
 10
-78.6986072123
 20
-0.5580813409
 10
-78.6796696172
 20
-0.6048841228
 10
-78.6607384898
 20
-0.6486029823
  0
LWPOLYLINE
  5
5EE
100
AcDbEntity
  8
0
100
AcDbPolyline
 62
7
  6
CONTINUOUS
 90
5
 70
0
 10
-79.5066469638
 20
-1.5805600342
 10
-79.4983111891
 20
-1.6185737514
 10
-79.4899754145
 20
-1.6492496737
 10
-79.4816396398
 20
-1.6725235407
 10
-79.4755757481
 20
-1.6847842788
  0
LWPOLYLINE
  5
5EF
100
AcDbEntity
  8
0
100
AcDbPolyline
 62
7
  6
CONTINUOUS
 90
7
 70
0
 10
-79.4066469638
 20
-1.5805600342
 10
-79.3983590919
 20
-1.6183761853
 10
-79.3900712199
 20
-1.6489390631
 10
-79.381783348
 20
-1.6721852276
 10
-79.3734954761
 20
-1.6880836376
 10
-79.3652076041
 20
-1.6966354966
 10
-79.3596571936
 20
-1.6982704216
  0
LINE
  5
5F0
100
AcDbEntity
  8
0
100
AcDbLine
 62
7
  6
CONTINUOUS
 10
-78.9387121027
 20
0.5511548393
 11
-78.914961684
 21
0.3994684136
  0
LINE
  5
5F1
100
AcDbEntity
  8
0
100
AcDbLine
 62
7
  6
CONTINUOUS
 10
-78.914961684
 20
0.3994684136
 11
-78.831449216
 21
-0.1573419376
  0
LINE
  5
5F2
100
AcDbEntity
  8
0
100
AcDbLine
 62
7
  6
CONTINUOUS
 10
-79.194583637
 20
-0.4917846734
 11
-79.2147207291
 21
-0.3559233649
  0
LINE
  5
5F3
100
AcDbEntity
  8
0
100
AcDbLine
 62
7
  6
CONTINUOUS
 10
-79.2147207291
 20
-0.3559233649
 11
-79.234680464
 21
-0.2142809158
  0
LINE
  5
5F4
100
AcDbEntity
  8
0
100
AcDbLine
 62
7
  6
CONTINUOUS
 10
-79.234680464
 20
-0.2142809158
 11
-79.2544139168
 21
-0.069338263
  0
LWPOLYLINE
  5
5F5
100
AcDbEntity
  8
0
100
AcDbPolyline
 62
7
  6
CONTINUOUS
 90
7
 70
0
 10
-78.7104657214
 20
-0.3232056864
 10
-78.7021778495
 20
-0.384715601
 10
-78.6938899775
 20
-0.4435934703
 10
-78.6856021056
 20
-0.4996178424
 10
-78.6773142337
 20
-0.5525834796
 10
-78.6690263617
 20
-0.602302092
 10
-78.6607384898
 20
-0.6486029823
  0
LINE
  5
5F6
100
AcDbEntity
  8
0
100
AcDbLine
 62
7
  6
CONTINUOUS
 10
-78.7270414653
 20
-0.1932516001
 11
-78.7104657214
 21
-0.3232056864
  0
LINE
  5
5F7
100
AcDbEntity
  8
0
100
AcDbLine
 62
7
  6
CONTINUOUS
 10
-78.8430716723
 20
0.7909793644
 11
-78.8264959285
 21
0.6601365112
  0
LWPOLYLINE
  5
5F8
100
AcDbEntity
  8
0
100
AcDbPolyline
 62
7
  6
CONTINUOUS
 90
10
 70
0
 10
-79.8665933644
 20
-0.6717490499
 10
-79.8586021651
 20
-0.7365450383
 10
-79.8506562302
 20
-0.7980986389
 10
-79.8427269341
 20
-0.8564259375
 10
-79.8348092244
 20
-0.9113549167
 10
-79.8269081535
 20
-0.9626565827
 10
-79.8190102523
 20
-1.0102340978
 10
-79.8111110313
 20
-1.053932721
 10
-79.80321498
 20
-1.0935609695
 10
-79.7953220984
 20
-1.128971453
  0
LWPOLYLINE
  5
5F9
100
AcDbEntity
  8
0
100
AcDbPolyline
 62
7
  6
CONTINUOUS
 90
13
 70
0
 10
-80.9327973986
 20
0.6641092625
 10
-80.9417274796
 20
0.7366896108
 10
-80.9505633173
 20
0.804939915
 10
-80.9593421937
 20
0.8689133656
 10
-80.9681215346
 20
0.9287607099
 10
-80.976924673
 20
0.9843380452
 10
-80.9857282759
 20
1.0352143881
 10
-80.9945197699
 20
1.0810838816
 10
-81.0032886813
 20
1.1217033706
 10
-81.0120454838
 20
1.1569595078
 10
-81.0208090249
 20
1.1867660431
 10
-81.0295892567
 20
1.2109932564
 10
-81.0392393474
 20
1.2309768489
  0
LINE
  5
5FA
100
AcDbEntity
  8
0
100
AcDbLine
 62
7
  6
CONTINUOUS
 10
-78.9398142866
 20
0.7659911523
 11
-78.9231427373
 21
0.6326567455
  0
LWPOLYLINE
  5
5FB
100
AcDbEntity
  8
0
100
AcDbPolyline
 62
7
  6
CONTINUOUS
 90
13
 70
0
 10
-80.6677269494
 20
-0.6623351184
 10
-80.6589260336
 20
-0.7339715822
 10
-80.650155819
 20
-0.8018714215
 10
-80.6413986267
 20
-0.8658760032
 10
-80.6325756768
 20
-0.9262198001
 10
-80.6236519453
 20
-0.9827295874
 10
-80.6146624562
 20
-1.0347763269
 10
-80.6056335019
 20
-1.0818611721
 10
-80.5965514428
 20
-1.1237363954
 10
-80.5874299184
 20
-1.1600408393
 10
-80.5783361398
 20
-1.1903109812
 10
-80.5692773979
 20
-1.2144303211
 10
-80.5610666796
 20
-1.2309856105
  0
LWPOLYLINE
  5
5FC
100
AcDbEntity
  8
0
100
AcDbPolyline
 62
7
  6
CONTINUOUS
 90
13
 70
0
 10
-80.1326183226
 20
0.6626239659
 10
-80.1414239391
 20
0.7342846085
 10
-80.1501934848
 20
0.8021630237
 10
-80.1589468989
 20
0.8661233948
 10
-80.1677663291
 20
0.9264269312
 10
-80.1766878488
 20
0.9829067721
 10
-80.1856753846
 20
1.0349263983
 10
-80.1947028649
 20
1.0819879131
 10
-80.2037839703
 20
1.1238430932
 10
-80.2129050202
 20
1.1601298378
 10
-80.2219989004
 20
1.1903842208
 10
-80.2310585677
 20
1.2144892745
 10
-80.2392387847
 20
1.2309768389
  0
LWPOLYLINE
  5
5FD
100
AcDbEntity
  8
0
100
AcDbPolyline
 62
7
  6
CONTINUOUS
 90
14
 70
0
 10
-79.3267781638
 20
0.6133270809
 10
-79.3358246497
 20
0.6891023979
 10
-79.3448707868
 20
0.7613977041
 10
-79.3539166946
 20
0.8298495153
 10
-79.3629625321
 20
0.8941138581
 10
-79.37200834
 20
0.9538668515
 10
-79.3810540777
 20
1.0088068316
 10
-79.3900997831
 20
1.0586569238
 10
-79.3991454379
 20
1.1031655933
 10
-79.4081910604
 20
1.1421084506
 10
-79.4172367437
 20
1.1752893948
 10
-79.4262825668
 20
1.2025411151
 10
-79.4353284506
 20
1.2237256807
 10
-79.4392386672
 20
1.2309768871
  0
LINE
  5
5FE
100
AcDbEntity
  8
0
100
AcDbLine
 62
7
  6
CONTINUOUS
 10
-78.7436172091
 20
-0.0557939131
 11
-78.7270414653
 21
-0.1932516001
  0
LINE
  5
5FF
100
AcDbEntity
  8
0
100
AcDbLine
 62
7
  6
CONTINUOUS
 10
-78.8264959285
 20
0.6601365112
 11
-78.8099201846
 21
0.5216742682
  0
LINE
  5
600
100
AcDbEntity
  8
0
100
AcDbLine
 62
7
  6
CONTINUOUS
 10
-78.85645654
 20
0.054404655
 11
-78.831449216
 21
-0.1573419376
  0
LINE
  5
601
100
AcDbEntity
  8
0
100
AcDbLine
 62
7
  6
CONTINUOUS
 10
-78.9231427373
 20
0.6326567455
 11
-78.8981354133
 21
0.4200416742
  0
LINE
  5
602
100
AcDbEntity
  8
0
100
AcDbLine
 62
7
  6
CONTINUOUS
 10
-80.9148207734
 20
0.5084806847
 11
-80.9327973986
 21
0.6641092625
  0
LINE
  5
603
100
AcDbEntity
  8
0
100
AcDbLine
 62
7
  6
CONTINUOUS
 10
-80.6853935912
 20
-0.5093485575
 11
-80.6677269494
 21
-0.6623351184
  0
LINE
  5
604
100
AcDbEntity
  8
0
100
AcDbLine
 62
7
  6
CONTINUOUS
 10
-80.8099685799
 20
0.6626239659
 11
-80.7922866213
 21
0.5095223091
  0
LINE
  5
605
100
AcDbEntity
  8
0
100
AcDbLine
 62
7
  6
CONTINUOUS
 10
-79.9903766922
 20
-0.6623351184
 11
-80.008043334
 21
-0.5093485575
  0
LINE
  5
606
100
AcDbEntity
  8
0
100
AcDbLine
 62
7
  6
CONTINUOUS
 10
-80.114936364
 20
0.5095223091
 11
-80.1326183226
 21
0.6626239659
  0
LINE
  5
607
100
AcDbEntity
  8
0
100
AcDbLine
 62
7
  6
CONTINUOUS
 10
-78.8981354133
 20
0.4200416742
 11
-78.85645654
 21
0.054404655
  0
LINE
  5
608
100
AcDbEntity
  8
0
100
AcDbLine
 62
7
  6
CONTINUOUS
 10
-78.8099201846
 20
0.5216742682
 11
-78.7436172091
 21
-0.0557939131
  0
LWPOLYLINE
  5
609
100
AcDbEntity
  8
0
100
AcDbPolyline
 62
7
  6
CONTINUOUS
 90
3
 70
0
 10
-79.8908671751
 20
-0.4598217793
 10
-79.8827653206
 20
-0.5328039893
 10
-79.8665933644
 20
-0.6717490499
  0
LINE
  5
60A
100
AcDbEntity
  8
0
100
AcDbLine
 62
7
  6
CONTINUOUS
 10
-79.3086847021
 20
0.4528851781
 11
-79.3267781638
 21
0.6133270809
  0
LINE
  5
60B
100
AcDbEntity
  8
0
100
AcDbLine
 62
7
  6
CONTINUOUS
 10
-80.7985797094
 20
-0.5927147832
 11
-80.8166829778
 21
-0.4307826838
  0
LINE
  5
60C
100
AcDbEntity
  8
0
100
AcDbLine
 62
7
  6
CONTINUOUS
 10
-80.0017179066
 20
0.5925976721
 11
-79.9836149301
 21
0.4306602369
  0
LWPOLYLINE
  5
60D
100
AcDbEntity
  8
RACCORDO
100
AcDbPolyline
 62
253
  6
CONTINUOUS
 90
22
 70
0
 10
-93.7540980412
 20
8.8043139332
 10
-93.8140399391
 20
8.8014082611
 10
-93.8728000399
 20
8.7943272974
 10
-93.9303783434
 20
8.783071042
 10
-93.9869902974
 20
8.7675464927
 10
-94.0424204541
 20
8.7478466516
 10
-94.0960224709
 20
8.7242505255
 10
-94.1478830863
 20
8.6966583332
 10
-94.1979155618
 20
8.6651698558
 10
-94.2452133389
 20
8.630363443
 10
-94.2896361516
 20
8.5922984754
 10
-94.331324266
 20
8.5509155723
 10
-94.3697919212
 20
8.5066149411
 10
-94.4050826322
 20
8.4593570126
 10
-94.4371528839
 20
8.4091813561
 10
-94.4653863708
 20
8.3566068861
 10
-94.4897949094
 20
8.3013428121
 10
-94.5103666831
 20
8.2436799247
 10
-94.5264499359
 20
8.1850095106
 10
-94.5378274158
 20
8.125795332
 10
-94.5447163748
 20
8.0655736267
 10
-94.5471168128
 20
8.0043443947
  0
LINE
  5
60E
100
AcDbEntity
  8
RACCORDO
100
AcDbLine
 62
253
  6
CONTINUOUS
 10
-95.9471168128
 20
8.9231132784
 11
-93.7366469638
 21
9.0003045865
  0
LINE
  5
60F
100
AcDbEntity
  8
RACCORDO
100
AcDbLine
 62
7
  6
CONTINUOUS
 10
-95.9471168128
 20
9.4228086919
 11
-93.7366469638
 21
9.5
  0
LINE
  5
610
100
AcDbEntity
  8
RACCORDO
100
AcDbLine
 62
253
  6
CONTINUOUS
 10
-90.2366469638
 20
8.8348275257
 11
-93.7540980412
 21
8.8043139332
  0
LINE
  5
611
100
AcDbEntity
  8
RACCORDO
100
AcDbLine
 62
253
  6
CONTINUOUS
 10
-84.7366469638
 20
8.7
 11
-90.2366469638
 21
8.7
  0
LINE
  5
612
100
AcDbEntity
  8
RACCORDO
100
AcDbLine
 62
253
  6
CONTINUOUS
 10
-95.9471168128
 20
8.9231132784
 11
-96.2366469638
 21
8.9231132784
  0
LINE
  5
613
100
AcDbEntity
  8
RACCORDO
100
AcDbLine
 62
253
  6
CONTINUOUS
 10
-84.7366469638
 20
9.1254493496
 11
-90.2366469638
 21
9.2214522067
  0
LINE
  5
614
100
AcDbEntity
  8
RACCORDO
100
AcDbLine
 62
7
  6
CONTINUOUS
 10
-84.7366469638
 20
9.3254493507
 11
-90.2366469638
 21
9.4214522078
  0
LINE
  5
615
100
AcDbEntity
  8
RACCORDO
100
AcDbLine
 62
253
  6
CONTINUOUS
 10
-93.7366469638
 20
9.0003045865
 11
-90.2366469638
 21
8.8780818933
  0
LINE
  5
616
100
AcDbEntity
  8
RACCORDO
100
AcDbLine
 62
7
  6
CONTINUOUS
 10
-93.7366469638
 20
9.5
 11
-90.2366469638
 21
9.3777773068
  0
LINE
  5
617
100
AcDbEntity
  8
DRAFT
100
AcDbLine
 62
253
  6
CONTINUOUS
 10
-90.2366469638
 20
16.25
 11
-93.7366469638
 21
16.25
  0
LINE
  5
618
100
AcDbEntity
  8
RACCORDO
100
AcDbLine
 62
253
  6
CONTINUOUS
 10
-93.7366469638
 20
16.25
 11
-96.2366469638
 21
16.25
  0
LINE
  5
619
100
AcDbEntity
  8
RACCORDO
100
AcDbLine
 62
7
  6
CONTINUOUS
 10
-95.9471168128
 20
27.9228086919
 11
-93.7366469638
 21
28.0
  0
LINE
  5
61A
100
AcDbEntity
  8
RACCORDO
100
AcDbLine
 62
253
  6
CONTINUOUS
 10
-98.2366469638
 20
29.5
 11
-96.2366469638
 21
29.5
  0
LINE
  5
61B
100
AcDbEntity
  8
DRAFT
100
AcDbLine
 62
7
  6
CONTINUOUS
 10
-93.7366469638
 20
28.0
 11
-90.2366469638
 21
27.8777773068
  0
LINE
  5
61C
100
AcDbEntity
  8
RACCORDO
100
AcDbLine
 62
7
  6
CONTINUOUS
 10
-96.7889962089
 20
39.4807115393
 11
-96.2366469638
 21
39.5
  0
ARC
  5
61D
100
AcDbEntity
  8
DRAFT
100
AcDbCircle
 62
7
  6
CONTINUOUS
 10
-49.0
 20
29.5
 40
10.0
100
AcDbArc
 50
90.0
 51
180.0
  0
ARC
  5
61E
100
AcDbEntity
  8
DRAFT
100
AcDbCircle
 62
7
  6
CONTINUOUS
 10
-49.0
 20
-29.5
 40
10.0
100
AcDbArc
 50
180.0
 51
270.0
  0
ARC
  5
61F
100
AcDbEntity
  8
DRAFT
100
AcDbCircle
 62
7
  6
CONTINUOUS
 10
49.0
 20
-29.5
 40
10.0
100
AcDbArc
 50
270.0
 51
360.0
  0
ARC
  5
620
100
AcDbEntity
  8
DRAFT
100
AcDbCircle
 62
7
  6
CONTINUOUS
 10
49.0
 20
29.5
 40
10.0
100
AcDbArc
 50
0.0
 51
90.0
  0
ARC
  5
621
100
AcDbEntity
  8
RACCORDO
100
AcDbCircle
 62
253
  6
CONTINUOUS
 10
-49.0
 20
29.5
 40
9.9807115393
100
AcDbArc
 50
90.0
 51
180.0
  0
ARC
  5
622
100
AcDbEntity
  8
RACCORDO
100
AcDbCircle
 62
253
  6
CONTINUOUS
 10
49.0
 20
29.5
 40
9.9807115393
100
AcDbArc
 50
0.0
 51
90.0
  0
ARC
  5
623
100
AcDbEntity
  8
RACCORDO
100
AcDbCircle
 62
253
  6
CONTINUOUS
 10
-49.0
 20
-29.5
 40
9.9807115393
100
AcDbArc
 50
180.0
 51
270.0
  0
ARC
  5
624
100
AcDbEntity
  8
RACCORDO
100
AcDbCircle
 62
253
  6
CONTINUOUS
 10
49.0
 20
-29.5
 40
9.9807115393
100
AcDbArc
 50
270.0
 51
360.0
  0
ARC
  5
625
100
AcDbEntity
  8
RACCORDO
100
AcDbCircle
 62
253
  6
CONTINUOUS
 10
-49.0
 20
29.5
 40
8.4816252988
100
AcDbArc
 50
90.0
 51
180.0
  0
ARC
  5
626
100
AcDbEntity
  8
RACCORDO
100
AcDbCircle
 62
253
  6
CONTINUOUS
 10
49.0
 20
29.5
 40
8.4816252988
100
AcDbArc
 50
0.0
 51
90.0
  0
ARC
  5
627
100
AcDbEntity
  8
RACCORDO
100
AcDbCircle
 62
253
  6
CONTINUOUS
 10
49.0
 20
-29.5
 40
8.4816252988
100
AcDbArc
 50
270.0
 51
360.0
  0
ARC
  5
628
100
AcDbEntity
  8
RACCORDO
100
AcDbCircle
 62
253
  6
CONTINUOUS
 10
-49.0
 20
-29.5
 40
8.4816252988
100
AcDbArc
 50
180.0
 51
270.0
  0
ARC
  5
629
100
AcDbEntity
  8
RACCORDO
100
AcDbCircle
 62
7
  6
CONTINUOUS
 10
-96.7366469638
 20
-37.9816252988
 40
1.5
100
AcDbArc
 50
180.0
 51
268.0
  0
ARC
  5
62A
100
AcDbEntity
  8
RACCORDO
100
AcDbCircle
 62
7
  6
CONTINUOUS
 10
-96.7366469638
 20
37.9816252988
 40
1.5
100
AcDbArc
 50
92.0
 51
180.0
  0
ARC
  5
62B
100
AcDbEntity
  8
RACCORDO
100
AcDbCircle
 62
7
  6
CONTINUOUS
 10
-93.7366469638
 20
-8.0043443947
 40
0.5
100
AcDbArc
 50
180.0
 51
269.5
  0
ARC
  5
62C
100
AcDbEntity
  8
RACCORDO
100
AcDbCircle
 62
7
  6
CONTINUOUS
 10
-93.7366469638
 20
8.0043443947
 40
0.5
100
AcDbArc
 50
90.5
 51
180.0
  0
ARC
  5
62D
100
AcDbEntity
  8
RACCORDO
100
AcDbCircle
 62
7
  6
CONTINUOUS
 10
-95.9366469638
 20
-27.6229914438
 40
0.3
100
AcDbArc
 50
180.0
 51
268.0
  0
ARC
  5
62E
100
AcDbEntity
  8
RACCORDO
100
AcDbCircle
 62
7
  6
CONTINUOUS
 10
-95.9366469638
 20
-9.1229914438
 40
0.3
100
AcDbArc
 50
180.0
 51
268.0
  0
ARC
  5
62F
100
AcDbEntity
  8
RACCORDO
100
AcDbCircle
 62
7
  6
CONTINUOUS
 10
-95.9366469638
 20
9.1229914438
 40
0.3
100
AcDbArc
 50
92.0
 51
180.0
  0
ARC
  5
630
100
AcDbEntity
  8
RACCORDO
100
AcDbCircle
 62
7
  6
CONTINUOUS
 10
-95.9366469638
 20
27.6229914438
 40
0.3
100
AcDbArc
 50
92.0
 51
180.0
  0
ELLIPSE
  5
631
100
AcDbEntity
  8
RACCORDO
100
AcDbEllipse
 62
7
  6
CONTINUOUS
 10
-123.1831070844
 20
0.0
 30
0.0
 11
124.4170080553
 21
0.0
 31
0.0
 40
0.0302453443
 41
-1.3500571046
 42
-1.338552815
  0
ELLIPSE
  5
632
100
AcDbEntity
  8
RACCORDO
100
AcDbEllipse
 62
7
  6
CONTINUOUS
 10
-123.1831070844
 20
0.0
 30
0.0
 11
124.4170080553
 21
0.0
 31
0.0
 40
0.0302453443
 41
1.338552815
 42
1.3500571046
  0
ENDSEC
  0
SECTION
  2
OBJECTS
  0
DICTIONARY
  5
C
100
AcDbDictionary
280
0
281
1
  3
ACAD_GROUP
350
D
  3
ACAD_MLINESTYLE
350
17
  3
ACAD_LAYOUT
350
1A
  3
ACAD_PLOTSETTINGS
350
19
  3
ACAD_PLOTSTYLENAME
350
E
  0
DICTIONARY
  5
D
102
{ACAD_REACTORS
330
C
102
}
100
AcDbDictionary
280
0
281
1
  0
ACDBDICTIONARYWDFLT
  5
E
102
{ACAD_REACTORS
330
C
102
}
100
AcDbDictionary
281
1
  3
Normal
350
F
100
AcDbDictionaryWithDefault
340
F
  0
DICTIONARY
  5
17
102
{ACAD_REACTORS
330
C
102
}
100
AcDbDictionary
280
0
281
1
  3
Standard
350
18
  0
DICTIONARY
  5
19
102
{ACAD_REACTORS
330
C
102
}
100
AcDbDictionary
281
1
  0
DICTIONARY
  5
1A
102
{ACAD_REACTORS
330
C
102
}
100
AcDbDictionary
281
1
  3
Model
350
633
  3
Layout1
350
634
  0
ACDBPLACEHOLDER
  5
F
102
{ACAD_REACTORS
330
E
102
}
  0
MLINESTYLE
  5
18
102
{ACAD_REACTORS
330
17
102
}
100
AcDbMlineStyle
  2
STANDARD
 70
0
  3

 62
256
 51
90.0
 52
90.0
 71
2
 49
0.5
 62
256
  6
BYLAYER
 49
-0.5
 62
256
  6
BYLAYER
  0
LAYOUT
  5
633
102
{ACAD_REACTORS
330
1A
102
}
100
AcDbPlotSettings
  1

  2
none_device
  4
ISO_A4_(297.00_x_210.00_MM)
  6

 40
0.0
 41
0.0
 42
0.0
 43
0.0
 44
297.0
 45
210.0
 46
0.0
 47
0.0
 48
0.0
 49
0.0
140
0.0
141
0.0
142
1.0
143
1.0
 70
1024
 72
1
 73
0
 74
0
  7

 75
0
147
1.0
148
0.0
149
0.0
100
AcDbLayout
  1
Model
 70
0
 71
0
 10
0.0
 20
0.0
 11
297.0
 21
210.0
 12
0.0
 22
0.0
 32
0.0
 14
0.0
 24
0.0
 34
0.0
 15
0.0
 25
0.0
 35
0.0
146
0.0
 13
0.0
 23
0.0
 33
0.0
 16
1.0
 26
0.0
 36
0.0
 17
0.0
 27
1.0
 37
0.0
 76
0
330
217
345
0
346
0
  0
LAYOUT
  5
634
102
{ACAD_REACTORS
330
1A
102
}
100
AcDbPlotSettings
  1

  2
none_device
  4
ISO_A4_(297.00_x_210.00_MM)
  6

 40
0.0
 41
0.0
 42
0.0
 43
0.0
 44
297.0
 45
210.0
 46
0.0
 47
0.0
 48
0.0
 49
0.0
140
0.0
141
0.0
142
1.0
143
1.0
 70
0
 72
1
 73
0
 74
0
  7

 75
0
147
1.0
148
0.0
149
0.0
100
AcDbLayout
  1
Layout1
 70
0
 71
1
 10
0.0
 20
0.0
 11
297.0
 21
210.0
 12
0.0
 22
0.0
 32
0.0
 14
0.0
 24
0.0
 34
0.0
 15
0.0
 25
0.0
 35
0.0
146
0.0
 13
0.0
 23
0.0
 33
0.0
 16
1.0
 26
0.0
 36
0.0
 17
0.0
 27
1.0
 37
0.0
 76
0
330
218
345
0
346
0
  0
ENDSEC
  0
EOF
