  0
SECTION
  2
HEADER
  9
$ACADVER
  1
AC1015
  9
$DWGCODEPAGE
  3
ANSI_1252
  9
$EXTMAX
 10
297.0
 20
210.0
 30
0.0
  9
$EXTMIN
 10
0.0
 20
0.0
 30
0.0
  9
$LIMMIN
 10
0.0
 20
0.0
  9
$LIMMAX
 10
297.0
 20
210.0
  9
$VIEWCTR
 10
148.5
 20
105.0
  9
$VIEWSIZE
 40
210.0
  9
$CLAYER
  8
0
  9
$LTSCALE
 40
16.335
  9
$CELTYPE
  6
BYLAYER
  9
$DIMSCALE
 40
1.0
  9
$DIMASZ
 40
3.0
  9
$DIMEXO
 40
1.85625
  9
$DIMDLI
 40
11.286
  9
$DIMEXE
 40
5.346
  9
$DIMCEN
 40
2.673
  9
$DIMLFAC
 40
1.0
  9
$DIMBLK
  1
_FILLED
  9
$DIMTXT
 40
3.0
  9
$DIMTOL
 70
1
  9
$DIMLIM
 70
0
  9
$DIMTFAC
 40
1.0
  9
$DIMTP
 40
0.01
  9
$DIMTM
 40
0.01
  9
$PDMODE
 70
3
  9
$PDSIZE
 40
3.0
  9
$HANDSEED
  5
84F
  9
$TILEMODE
 70
1
  9
$MEASUREMENT
 70
1
  9
$INSUNITS
 70
4
  0
ENDSEC
  0
SECTION
  2
CLASSES
  0
CLASS
  1
ACDBDICTIONARYWDFLT
  2
AcDbDictionaryWithDefault
  3
AutoCAD 2000
 90
0
280
0
281
0
  0
CLASS
  1
ACDBPLACEHOLDER
  2
AcDbPlaceHolder
  3
AutoCAD 2000
 90
0
280
0
281
0
  0
CLASS
  1
LAYOUT
  2
AcDbLayout
  3
AutoCAD 2000
 90
0
280
0
281
0
  0
ENDSEC
  0
SECTION
  2
TABLES
  0
TABLE
  2
VPORT
  5
8
100
AcDbSymbolTable
 70
2
  0
VPORT
  5
1F4
100
AcDbSymbolTableRecord
100
AcDbViewportTableRecord
  2
*ACTIVE
 70
0
 10
0.0
 20
0.0
 11
1.0
 21
1.0
 12
148.5
 22
105.0
 13
0.0
 23
0.0
 14
1.0
 24
1.0
 15
0.0
 25
0.0
 16
0.0
 26
0.0
 36
1.0
 17
0.0
 27
0.0
 37
0.0
 40
210.0
 41
1.4142857143
 42
50.0
 43
0.0
 44
0.0
 50
0.0
 51
0.0
 71
0
 72
100
 73
1
 74
1
 75
0
 76
0
 77
0
 78
0
  0
ENDTAB
  0
TABLE
  2
LTYPE
  5
5
100
AcDbSymbolTable
 70
6
  0
LTYPE
  5
14
100
AcDbSymbolTableRecord
100
AcDbLinetypeTableRecord
  2
BYBLOCK
 70
0
  3

 72
65
 73
0
 40
0.0
  0
LTYPE
  5
15
100
AcDbSymbolTableRecord
100
AcDbLinetypeTableRecord
  2
BYLAYER
 70
0
  3

 72
65
 73
0
 40
0.0
  0
LTYPE
  5
16
100
AcDbSymbolTableRecord
100
AcDbLinetypeTableRecord
  2
CONTINUOUS
 70
64
  3
Solid line
 72
65
 73
0
 40
0.0
  0
LTYPE
  5
1F5
100
AcDbSymbolTableRecord
100
AcDbLinetypeTableRecord
  2
CENTER
 70
64
  3
____ _ ____ _ ____ _ ____ _ ____ _ ____ _ ____
 72
65
 73
4
 40
0.6
 49
0.375
 74
0
 49
-0.075
 74
0
 49
0.075
 74
0
 49
-0.075
 74
0
  0
LTYPE
  5
1F6
100
AcDbSymbolTableRecord
100
AcDbLinetypeTableRecord
  2
HIDDEN
 70
64
  3
- - - - - - - - - - - - - - - - - - - -
 72
65
 73
2
 40
0.2
 49
0.1
 74
0
 49
-0.1
 74
0
  0
LTYPE
  5
1F7
100
AcDbSymbolTableRecord
100
AcDbLinetypeTableRecord
  2
PHANTOM
 70
64
  3
_____ _ _ _____ _ _ _____ _ _ _____
 72
65
 73
6
 40
0.8
 49
0.45
 74
0
 49
-0.05
 74
0
 49
0.1
 74
0
 49
-0.05
 74
0
 49
0.1
 74
0
 49
-0.05
 74
0
  0
LTYPE
  5
1F8
100
AcDbSymbolTableRecord
100
AcDbLinetypeTableRecord
  2
DOT
 70
64
  3
. . . . . . . . . . . . . . . . . . . .
 72
65
 73
2
 40
0.2
 49
0.1
 74
0
 49
-0.1
 74
0
  0
LTYPE
  5
1F9
100
AcDbSymbolTableRecord
100
AcDbLinetypeTableRecord
  2
DASHED
 70
64
  3
- - - - - - - - - - - - - - - - - - - -
 72
65
 73
2
 40
0.2
 49
0.1
 74
0
 49
-0.1
 74
0
  0
ENDTAB
  0
TABLE
  2
LAYER
  5
2
100
AcDbSymbolTable
 70
36
  0
LAYER
  5
10
100
AcDbSymbolTableRecord
100
AcDbLayerTableRecord
  2
0
 70
0
 62
7
  6
CONTINUOUS
370
-3
390
F
  0
LAYER
  5
1FA
100
AcDbSymbolTableRecord
100
AcDbLayerTableRecord
  2
DEFAULT_1
 70
0
 62
7
  6
CENTER
370
-3
390
F
  0
LAYER
  5
1FB
100
AcDbSymbolTableRecord
100
AcDbLayerTableRecord
  2
DEFAULT_2
 70
0
 62
7
  6
HIDDEN
370
-3
390
F
  0
LAYER
  5
1FC
100
AcDbSymbolTableRecord
100
AcDbLayerTableRecord
  2
DEFAULT_3
 70
0
 62
7
  6
PHANTOM
370
-3
390
F
  0
LAYER
  5
1FD
100
AcDbSymbolTableRecord
100
AcDbLayerTableRecord
  2
200A_170000
 70
0
 62
7
  6
CONTINUOUS
370
-3
390
F
  0
LAYER
  5
1FE
100
AcDbSymbolTableRecord
100
AcDbLayerTableRecord
  2
200A_170000_1
 70
0
 62
7
  6
CONTINUOUS
370
-3
390
F
  0
LAYER
  5
1FF
100
AcDbSymbolTableRecord
100
AcDbLayerTableRecord
  2
2125-CC-RF-VIMAR_65000
 70
0
 62
7
  6
CONTINUOUS
370
-3
390
F
  0
LAYER
  5
200
100
AcDbSymbolTableRecord
100
AcDbLayerTableRecord
  2
2125-CC-RF-VIMAR_65000_1
 70
0
 62
7
  6
CONTINUOUS
370
-3
390
F
  0
LAYER
  5
201
100
AcDbSymbolTableRecord
100
AcDbLayerTableRecord
  2
2125-CC-RF-VIMAR_65000_2
 70
0
 62
7
  6
CONTINUOUS
370
-3
390
F
  0
LAYER
  5
202
100
AcDbSymbolTableRecord
100
AcDbLayerTableRecord
  2
2125-DL-RF-FINE_VIMAR_110000
 70
0
 62
7
  6
CONTINUOUS
370
-3
390
F
  0
LAYER
  5
203
100
AcDbSymbolTableRecord
100
AcDbLayerTableRecord
  2
2125-DL-RF-FINE_VIMAR_110000_1
 70
0
 62
7
  6
CONTINUOUS
370
-3
390
F
  0
LAYER
  5
204
100
AcDbSymbolTableRecord
100
AcDbLayerTableRecord
  2
2125-DL-RF-FINE_VIMAR_110000_2
 70
0
 62
7
  6
CONTINUOUS
370
-3
390
F
  0
LAYER
  5
205
100
AcDbSymbolTableRecord
100
AcDbLayerTableRecord
  2
2125-R1-RF-VIMAR_60000
 70
0
 62
7
  6
CONTINUOUS
370
-3
390
F
  0
LAYER
  5
206
100
AcDbSymbolTableRecord
100
AcDbLayerTableRecord
  2
2125-R1-RF-VIMAR_60000_1
 70
0
 62
7
  6
CONTINUOUS
370
-3
390
F
  0
LAYER
  5
207
100
AcDbSymbolTableRecord
100
AcDbLayerTableRecord
  2
2125-R1-RF-VIMAR_60000_2
 70
0
 62
7
  6
CONTINUOUS
370
-3
390
F
  0
LAYER
  5
208
100
AcDbSymbolTableRecord
100
AcDbLayerTableRecord
  2
3216-CF-RF-VIMAR_100000
 70
0
 62
7
  6
CONTINUOUS
370
-3
390
F
  0
LAYER
  5
209
100
AcDbSymbolTableRecord
100
AcDbLayerTableRecord
  2
3216-CF-RF-VIMAR_100000_1
 70
0
 62
7
  6
CONTINUOUS
370
-3
390
F
  0
LAYER
  5
20A
100
AcDbSymbolTableRecord
100
AcDbLayerTableRecord
  2
3216-CS2-RF_1_180000
 70
0
 62
7
  6
CONTINUOUS
370
-3
390
F
  0
LAYER
  5
20B
100
AcDbSymbolTableRecord
100
AcDbLayerTableRecord
  2
3216-CS2-RF_1_180000_1
 70
0
 62
7
  6
CONTINUOUS
370
-3
390
F
  0
LAYER
  5
20C
100
AcDbSymbolTableRecord
100
AcDbLayerTableRecord
  2
3216-R1-RF-VIMAR_60000
 70
0
 62
7
  6
CONTINUOUS
370
-3
390
F
  0
LAYER
  5
20D
100
AcDbSymbolTableRecord
100
AcDbLayerTableRecord
  2
3225-L-RF-1-VIMAR_220000
 70
0
 62
7
  6
CONTINUOUS
370
-3
390
F
  0
LAYER
  5
20E
100
AcDbSymbolTableRecord
100
AcDbLayerTableRecord
  2
3225-L-RF-1-VIMAR_220000_1
 70
0
 62
7
  6
CONTINUOUS
370
-3
390
F
  0
LAYER
  5
20F
100
AcDbSymbolTableRecord
100
AcDbLayerTableRecord
  2
3225-L-RF-VIMAR_220000
 70
0
 62
7
  6
CONTINUOUS
370
-3
390
F
  0
LAYER
  5
210
100
AcDbSymbolTableRecord
100
AcDbLayerTableRecord
  2
43000440
 70
0
 62
7
  6
CONTINUOUS
370
-3
390
F
  0
LAYER
  5
211
100
AcDbSymbolTableRecord
100
AcDbLayerTableRecord
  2
43000441A0
 70
0
 62
7
  6
CONTINUOUS
370
-3
390
F
  0
LAYER
  5
212
100
AcDbSymbolTableRecord
100
AcDbLayerTableRecord
  2
4532-R-RF_60000
 70
0
 62
7
  6
CONTINUOUS
370
-3
390
F
  0
LAYER
  5
213
100
AcDbSymbolTableRecord
100
AcDbLayerTableRecord
  2
6032-CS-RF_250000
 70
0
 62
7
  6
CONTINUOUS
370
-3
390
F
  0
LAYER
  5
214
100
AcDbSymbolTableRecord
100
AcDbLayerTableRecord
  2
ASM0001
 70
0
 62
7
  6
CONTINUOUS
370
-3
390
F
  0
LAYER
  5
215
100
AcDbSymbolTableRecord
100
AcDbLayerTableRecord
  2
ASSI
 70
0
 62
7
  6
CONTINUOUS
370
-3
390
F
  0
LAYER
  5
216
100
AcDbSymbolTableRecord
100
AcDbLayerTableRecord
  2
BZ-BST-0841A_330000
 70
0
 62
7
  6
CONTINUOUS
370
-3
390
F
  0
LAYER
  5
217
100
AcDbSymbolTableRecord
100
AcDbLayerTableRecord
  2
CAPC1608N_80000
 70
0
 62
7
  6
CONTINUOUS
370
-3
390
F
  0
LAYER
  5
218
100
AcDbSymbolTableRecord
100
AcDbLayerTableRecord
  2
CAPC1608N_80000_1
 70
0
 62
7
  6
CONTINUOUS
370
-3
390
F
  0
LAYER
  5
219
100
AcDbSymbolTableRecord
100
AcDbLayerTableRecord
  2
CAPC1608N_80000_10
 70
0
 62
7
  6
CONTINUOUS
370
-3
390
F
  0
LAYER
  5
21A
100
AcDbSymbolTableRecord
100
AcDbLayerTableRecord
  2
CAPC1608N_80000_11
 70
0
 62
7
  6
CONTINUOUS
370
-3
390
F
  0
LAYER
  5
21B
100
AcDbSymbolTableRecord
100
AcDbLayerTableRecord
  2
CAPC1608N_80000_12
 70
0
 62
7
  6
CONTINUOUS
370
-3
390
F
  0
LAYER
  5
21C
100
AcDbSymbolTableRecord
100
AcDbLayerTableRecord
  2
CAPC1608N_80000_13
 70
0
 62
7
  6
CONTINUOUS
370
-3
390
F
  0
LAYER
  5
21D
100
AcDbSymbolTableRecord
100
AcDbLayerTableRecord
  2
CAPC1608N_80000_14
 70
0
 62
7
  6
CONTINUOUS
370
-3
390
F
  0
LAYER
  5
21E
100
AcDbSymbolTableRecord
100
AcDbLayerTableRecord
  2
CAPC1608N_80000_15
 70
0
 62
7
  6
CONTINUOUS
370
-3
390
F
  0
LAYER
  5
21F
100
AcDbSymbolTableRecord
100
AcDbLayerTableRecord
  2
CAPC1608N_80000_16
 70
0
 62
7
  6
CONTINUOUS
370
-3
390
F
  0
LAYER
  5
220
100
AcDbSymbolTableRecord
100
AcDbLayerTableRecord
  2
CAPC1608N_80000_17
 70
0
 62
7
  6
CONTINUOUS
370
-3
390
F
  0
LAYER
  5
221
100
AcDbSymbolTableRecord
100
AcDbLayerTableRecord
  2
CAPC1608N_80000_18
 70
0
 62
7
  6
CONTINUOUS
370
-3
390
F
  0
LAYER
  5
222
100
AcDbSymbolTableRecord
100
AcDbLayerTableRecord
  2
CAPC1608N_80000_19
 70
0
 62
7
  6
CONTINUOUS
370
-3
390
F
  0
LAYER
  5
223
100
AcDbSymbolTableRecord
100
AcDbLayerTableRecord
  2
CAPC1608N_80000_2
 70
0
 62
7
  6
CONTINUOUS
370
-3
390
F
  0
LAYER
  5
224
100
AcDbSymbolTableRecord
100
AcDbLayerTableRecord
  2
CAPC1608N_80000_20
 70
0
 62
7
  6
CONTINUOUS
370
-3
390
F
  0
LAYER
  5
225
100
AcDbSymbolTableRecord
100
AcDbLayerTableRecord
  2
CAPC1608N_80000_21
 70
0
 62
7
  6
CONTINUOUS
370
-3
390
F
  0
LAYER
  5
226
100
AcDbSymbolTableRecord
100
AcDbLayerTableRecord
  2
CAPC1608N_80000_22
 70
0
 62
7
  6
CONTINUOUS
370
-3
390
F
  0
LAYER
  5
227
100
AcDbSymbolTableRecord
100
AcDbLayerTableRecord
  2
CAPC1608N_80000_23
 70
0
 62
7
  6
CONTINUOUS
370
-3
390
F
  0
LAYER
  5
228
100
AcDbSymbolTableRecord
100
AcDbLayerTableRecord
  2
CAPC1608N_80000_24
 70
0
 62
7
  6
CONTINUOUS
370
-3
390
F
  0
LAYER
  5
229
100
AcDbSymbolTableRecord
100
AcDbLayerTableRecord
  2
CAPC1608N_80000_25
 70
0
 62
7
  6
CONTINUOUS
370
-3
390
F
  0
LAYER
  5
22A
100
AcDbSymbolTableRecord
100
AcDbLayerTableRecord
  2
CAPC1608N_80000_26
 70
0
 62
7
  6
CONTINUOUS
370
-3
390
F
  0
LAYER
  5
22B
100
AcDbSymbolTableRecord
100
AcDbLayerTableRecord
  2
CAPC1608N_80000_27
 70
0
 62
7
  6
CONTINUOUS
370
-3
390
F
  0
LAYER
  5
22C
100
AcDbSymbolTableRecord
100
AcDbLayerTableRecord
  2
CAPC1608N_80000_28
 70
0
 62
7
  6
CONTINUOUS
370
-3
390
F
  0
LAYER
  5
22D
100
AcDbSymbolTableRecord
100
AcDbLayerTableRecord
  2
CAPC1608N_80000_29
 70
0
 62
7
  6
CONTINUOUS
370
-3
390
F
  0
LAYER
  5
22E
100
AcDbSymbolTableRecord
100
AcDbLayerTableRecord
  2
CAPC1608N_80000_3
 70
0
 62
7
  6
CONTINUOUS
370
-3
390
F
  0
LAYER
  5
22F
100
AcDbSymbolTableRecord
100
AcDbLayerTableRecord
  2
CAPC1608N_80000_30
 70
0
 62
7
  6
CONTINUOUS
370
-3
390
F
  0
LAYER
  5
230
100
AcDbSymbolTableRecord
100
AcDbLayerTableRecord
  2
CAPC1608N_80000_31
 70
0
 62
7
  6
CONTINUOUS
370
-3
390
F
  0
LAYER
  5
231
100
AcDbSymbolTableRecord
100
AcDbLayerTableRecord
  2
CAPC1608N_80000_32
 70
0
 62
7
  6
CONTINUOUS
370
-3
390
F
  0
LAYER
  5
232
100
AcDbSymbolTableRecord
100
AcDbLayerTableRecord
  2
CAPC1608N_80000_33
 70
0
 62
7
  6
CONTINUOUS
370
-3
390
F
  0
LAYER
  5
233
100
AcDbSymbolTableRecord
100
AcDbLayerTableRecord
  2
CAPC1608N_80000_34
 70
0
 62
7
  6
CONTINUOUS
370
-3
390
F
  0
LAYER
  5
234
100
AcDbSymbolTableRecord
100
AcDbLayerTableRecord
  2
CAPC1608N_80000_35
 70
0
 62
7
  6
CONTINUOUS
370
-3
390
F
  0
LAYER
  5
235
100
AcDbSymbolTableRecord
100
AcDbLayerTableRecord
  2
CAPC1608N_80000_36
 70
0
 62
7
  6
CONTINUOUS
370
-3
390
F
  0
LAYER
  5
236
100
AcDbSymbolTableRecord
100
AcDbLayerTableRecord
  2
CAPC1608N_80000_37
 70
0
 62
7
  6
CONTINUOUS
370
-3
390
F
  0
LAYER
  5
237
100
AcDbSymbolTableRecord
100
AcDbLayerTableRecord
  2
CAPC1608N_80000_38
 70
0
 62
7
  6
CONTINUOUS
370
-3
390
F
  0
LAYER
  5
238
100
AcDbSymbolTableRecord
100
AcDbLayerTableRecord
  2
CAPC1608N_80000_39
 70
0
 62
7
  6
CONTINUOUS
370
-3
390
F
  0
LAYER
  5
239
100
AcDbSymbolTableRecord
100
AcDbLayerTableRecord
  2
CAPC1608N_80000_4
 70
0
 62
7
  6
CONTINUOUS
370
-3
390
F
  0
LAYER
  5
23A
100
AcDbSymbolTableRecord
100
AcDbLayerTableRecord
  2
CAPC1608N_80000_40
 70
0
 62
7
  6
CONTINUOUS
370
-3
390
F
  0
LAYER
  5
23B
100
AcDbSymbolTableRecord
100
AcDbLayerTableRecord
  2
CAPC1608N_80000_41
 70
0
 62
7
  6
CONTINUOUS
370
-3
390
F
  0
LAYER
  5
23C
100
AcDbSymbolTableRecord
100
AcDbLayerTableRecord
  2
CAPC1608N_80000_42
 70
0
 62
7
  6
CONTINUOUS
370
-3
390
F
  0
LAYER
  5
23D
100
AcDbSymbolTableRecord
100
AcDbLayerTableRecord
  2
CAPC1608N_80000_43
 70
0
 62
7
  6
CONTINUOUS
370
-3
390
F
  0
LAYER
  5
23E
100
AcDbSymbolTableRecord
100
AcDbLayerTableRecord
  2
CAPC1608N_80000_44
 70
0
 62
7
  6
CONTINUOUS
370
-3
390
F
  0
LAYER
  5
23F
100
AcDbSymbolTableRecord
100
AcDbLayerTableRecord
  2
CAPC1608N_80000_45
 70
0
 62
7
  6
CONTINUOUS
370
-3
390
F
  0
LAYER
  5
240
100
AcDbSymbolTableRecord
100
AcDbLayerTableRecord
  2
CAPC1608N_80000_5
 70
0
 62
7
  6
CONTINUOUS
370
-3
390
F
  0
LAYER
  5
241
100
AcDbSymbolTableRecord
100
AcDbLayerTableRecord
  2
CAPC1608N_80000_6
 70
0
 62
7
  6
CONTINUOUS
370
-3
390
F
  0
LAYER
  5
242
100
AcDbSymbolTableRecord
100
AcDbLayerTableRecord
  2
CAPC1608N_80000_7
 70
0
 62
7
  6
CONTINUOUS
370
-3
390
F
  0
LAYER
  5
243
100
AcDbSymbolTableRecord
100
AcDbLayerTableRecord
  2
CAPC1608N_80000_8
 70
0
 62
7
  6
CONTINUOUS
370
-3
390
F
  0
LAYER
  5
244
100
AcDbSymbolTableRecord
100
AcDbLayerTableRecord
  2
CAPC1608N_80000_9
 70
0
 62
7
  6
CONTINUOUS
370
-3
390
F
  0
LAYER
  5
245
100
AcDbSymbolTableRecord
100
AcDbLayerTableRecord
  2
CN-1S-HEADER-PIH-1_254000
 70
0
 62
7
  6
CONTINUOUS
370
-3
390
F
  0
LAYER
  5
246
100
AcDbSymbolTableRecord
100
AcDbLayerTableRecord
  2
CN-1S-HEADER-PIH-1_254000_1
 70
0
 62
7
  6
CONTINUOUS
370
-3
390
F
  0
LAYER
  5
247
100
AcDbSymbolTableRecord
100
AcDbLayerTableRecord
  2
CN-1S-HEADER-PIH-1_254000_2
 70
0
 62
7
  6
CONTINUOUS
370
-3
390
F
  0
LAYER
  5
248
100
AcDbSymbolTableRecord
100
AcDbLayerTableRecord
  2
CN-1S-HEADER-PIH-1_254000_3
 70
0
 62
7
  6
CONTINUOUS
370
-3
390
F
  0
LAYER
  5
249
100
AcDbSymbolTableRecord
100
AcDbLayerTableRecord
  2
CN-1S-HEADER-PIH-1_254000_4
 70
0
 62
7
  6
CONTINUOUS
370
-3
390
F
  0
LAYER
  5
24A
100
AcDbSymbolTableRecord
100
AcDbLayerTableRecord
  2
CN-1S-HEADER-PIH-1_254000_5
 70
0
 62
7
  6
CONTINUOUS
370
-3
390
F
  0
LAYER
  5
24B
100
AcDbSymbolTableRecord
100
AcDbLayerTableRecord
  2
CN-1S-HEADER-PIH-1_254000_6
 70
0
 62
7
  6
CONTINUOUS
370
-3
390
F
  0
LAYER
  5
24C
100
AcDbSymbolTableRecord
100
AcDbLayerTableRecord
  2
CN-1S-HEADER-PIH-1_254000_7
 70
0
 62
7
  6
CONTINUOUS
370
-3
390
F
  0
LAYER
  5
24D
100
AcDbSymbolTableRecord
100
AcDbLayerTableRecord
  2
CN-243-VIMAR_850000
 70
0
 62
7
  6
CONTINUOUS
370
-3
390
F
  0
LAYER
  5
24E
100
AcDbSymbolTableRecord
100
AcDbLayerTableRecord
  2
CN-243-VIMAR_850000_1
 70
0
 62
7
  6
CONTINUOUS
370
-3
390
F
  0
LAYER
  5
24F
100
AcDbSymbolTableRecord
100
AcDbLayerTableRecord
  2
CN-CSF_CSM_9-VIMAR_1150000
 70
0
 62
7
  6
CONTINUOUS
370
-3
390
F
  0
LAYER
  5
250
100
AcDbSymbolTableRecord
100
AcDbLayerTableRecord
  2
CN1-TP10_SMD-VIMAR_01_10000
 70
0
 62
7
  6
CONTINUOUS
370
-3
390
F
  0
LAYER
  5
251
100
AcDbSymbolTableRecord
100
AcDbLayerTableRecord
  2
CN1-TP10_SMD-VIMAR_01_10000_1
 70
0
 62
7
  6
CONTINUOUS
370
-3
390
F
  0
LAYER
  5
252
100
AcDbSymbolTableRecord
100
AcDbLayerTableRecord
  2
CN1-TP10_SMD-VIMAR_01_10000_2
 70
0
 62
7
  6
CONTINUOUS
370
-3
390
F
  0
LAYER
  5
253
100
AcDbSymbolTableRecord
100
AcDbLayerTableRecord
  2
CN1-TP10_SMD-VIMAR_01_10000_3
 70
0
 62
7
  6
CONTINUOUS
370
-3
390
F
  0
LAYER
  5
254
100
AcDbSymbolTableRecord
100
AcDbLayerTableRecord
  2
CN1-TP10_SMD-VIMAR_01_10000_4
 70
0
 62
7
  6
CONTINUOUS
370
-3
390
F
  0
LAYER
  5
255
100
AcDbSymbolTableRecord
100
AcDbLayerTableRecord
  2
CN1-TP10_SMD-VIMAR_01_10000_5
 70
0
 62
7
  6
CONTINUOUS
370
-3
390
F
  0
LAYER
  5
256
100
AcDbSymbolTableRecord
100
AcDbLayerTableRecord
  2
CN1-TP10_SMD-VIMAR_01_10000_6
 70
0
 62
7
  6
CONTINUOUS
370
-3
390
F
  0
LAYER
  5
257
100
AcDbSymbolTableRecord
100
AcDbLayerTableRecord
  2
CN16-HEADER-SMD2_0-1-VIMAR_6500
 70
0
 62
7
  6
CONTINUOUS
370
-3
390
F
  0
LAYER
  5
258
100
AcDbSymbolTableRecord
100
AcDbLayerTableRecord
  2
CN4-MINI_USB_B-2-VIMAR_950000
 70
0
 62
7
  6
CONTINUOUS
370
-3
390
F
  0
LAYER
  5
259
100
AcDbSymbolTableRecord
100
AcDbLayerTableRecord
  2
CN6-FSN-1_2540000
 70
0
 62
7
  6
CONTINUOUS
370
-3
390
F
  0
LAYER
  5
25A
100
AcDbSymbolTableRecord
100
AcDbLayerTableRecord
  2
COLOR11
 70
0
 62
7
  6
CONTINUOUS
370
-3
390
F
  0
LAYER
  5
25B
100
AcDbSymbolTableRecord
100
AcDbLayerTableRecord
  2
COLOR5
 70
0
 62
7
  6
CONTINUOUS
370
-3
390
F
  0
LAYER
  5
25C
100
AcDbSymbolTableRecord
100
AcDbLayerTableRecord
  2
COORDINATE
 70
0
 62
7
  6
CONTINUOUS
370
-3
390
F
  0
LAYER
  5
25D
100
AcDbSymbolTableRecord
100
AcDbLayerTableRecord
  2
COORD_ORIGINE
 70
0
 62
7
  6
CONTINUOUS
370
-3
390
F
  0
LAYER
  5
25E
100
AcDbSymbolTableRecord
100
AcDbLayerTableRecord
  2
COPY_PUBLISH
 70
0
 62
7
  6
CONTINUOUS
370
-3
390
F
  0
LAYER
  5
25F
100
AcDbSymbolTableRecord
100
AcDbLayerTableRecord
  2
COSMETIC
 70
0
 62
7
  6
CONTINUOUS
370
-3
390
F
  0
LAYER
  5
260
100
AcDbSymbolTableRecord
100
AcDbLayerTableRecord
  2
COSMETICI
 70
0
 62
7
  6
CONTINUOUS
370
-3
390
F
  0
LAYER
  5
261
100
AcDbSymbolTableRecord
100
AcDbLayerTableRecord
  2
CP-CE10-RF-VIMAR_630000
 70
0
 62
7
  6
CONTINUOUS
370
-3
390
F
  0
LAYER
  5
262
100
AcDbSymbolTableRecord
100
AcDbLayerTableRecord
  2
CP-CE10-RF-VIMAR_630000_1
 70
0
 62
7
  6
CONTINUOUS
370
-3
390
F
  0
LAYER
  5
263
100
AcDbSymbolTableRecord
100
AcDbLayerTableRecord
  2
CP-CE4-RF_550000
 70
0
 62
7
  6
CONTINUOUS
370
-3
390
F
  0
LAYER
  5
264
100
AcDbSymbolTableRecord
100
AcDbLayerTableRecord
  2
CP-CE6-RF_820000
 70
0
 62
7
  6
CONTINUOUS
370
-3
390
F
  0
LAYER
  5
265
100
AcDbSymbolTableRecord
100
AcDbLayerTableRecord
  2
CP-CE6-RF_820000_1
 70
0
 62
7
  6
CONTINUOUS
370
-3
390
F
  0
LAYER
  5
266
100
AcDbSymbolTableRecord
100
AcDbLayerTableRecord
  2
CP-CE6-RF_820000_2
 70
0
 62
7
  6
CONTINUOUS
370
-3
390
F
  0
LAYER
  5
267
100
AcDbSymbolTableRecord
100
AcDbLayerTableRecord
  2
CP-CE9-RF-VIMAR_1080000
 70
0
 62
7
  6
CONTINUOUS
370
-3
390
F
  0
LAYER
  5
268
100
AcDbSymbolTableRecord
100
AcDbLayerTableRecord
  2
CP-CE9-RF-VIMAR_1080000_1
 70
0
 62
7
  6
CONTINUOUS
370
-3
390
F
  0
LAYER
  5
269
100
AcDbSymbolTableRecord
100
AcDbLayerTableRecord
  2
CP-CE9-RF-VIMAR_1080000_2
 70
0
 62
7
  6
CONTINUOUS
370
-3
390
F
  0
LAYER
  5
26A
100
AcDbSymbolTableRecord
100
AcDbLayerTableRecord
  2
CP-DO-214AA-VIMAR_240000
 70
0
 62
7
  6
CONTINUOUS
370
-3
390
F
  0
LAYER
  5
26B
100
AcDbSymbolTableRecord
100
AcDbLayerTableRecord
  2
CP-DO-214AA-VIMAR_240000_1
 70
0
 62
7
  6
CONTINUOUS
370
-3
390
F
  0
LAYER
  5
26C
100
AcDbSymbolTableRecord
100
AcDbLayerTableRecord
  2
CP-DO-214AC-D-VIMAR_240000
 70
0
 62
7
  6
CONTINUOUS
370
-3
390
F
  0
LAYER
  5
26D
100
AcDbSymbolTableRecord
100
AcDbLayerTableRecord
  2
CP-DO-214AC-D-VIMAR_240000_1
 70
0
 62
7
  6
CONTINUOUS
370
-3
390
F
  0
LAYER
  5
26E
100
AcDbSymbolTableRecord
100
AcDbLayerTableRecord
  2
CP-DO-214AC-VIMAR_240000
 70
0
 62
7
  6
CONTINUOUS
370
-3
390
F
  0
LAYER
  5
26F
100
AcDbSymbolTableRecord
100
AcDbLayerTableRecord
  2
CP-DO-214AC-VIMAR_240000_1
 70
0
 62
7
  6
CONTINUOUS
370
-3
390
F
  0
LAYER
  5
270
100
AcDbSymbolTableRecord
100
AcDbLayerTableRecord
  2
CP-L3-RF-VIMAR_180000
 70
0
 62
7
  6
CONTINUOUS
370
-3
390
F
  0
LAYER
  5
271
100
AcDbSymbolTableRecord
100
AcDbLayerTableRecord
  2
CP-SUPERCAP-SMD_190000
 70
0
 62
7
  6
CONTINUOUS
370
-3
390
F
  0
LAYER
  5
272
100
AcDbSymbolTableRecord
100
AcDbLayerTableRecord
  2
CURVE
 70
0
 62
7
  6
CONTINUOUS
370
-3
390
F
  0
LAYER
  5
273
100
AcDbSymbolTableRecord
100
AcDbLayerTableRecord
  2
DRAFT
 70
0
 62
7
  6
CONTINUOUS
370
-3
390
F
  0
LAYER
  5
274
100
AcDbSymbolTableRecord
100
AcDbLayerTableRecord
  2
ECAD_2125-CC-RF-VIMAR_65000
 70
0
 62
7
  6
CONTINUOUS
370
-3
390
F
  0
LAYER
  5
275
100
AcDbSymbolTableRecord
100
AcDbLayerTableRecord
  2
ECAD_2125-DL-RF-FINE_VIMAR_1100
 70
0
 62
7
  6
CONTINUOUS
370
-3
390
F
  0
LAYER
  5
276
100
AcDbSymbolTableRecord
100
AcDbLayerTableRecord
  2
ECAD_2125-R1-RF-VIMAR_60000
 70
0
 62
7
  6
CONTINUOUS
370
-3
390
F
  0
LAYER
  5
277
100
AcDbSymbolTableRecord
100
AcDbLayerTableRecord
  2
ECAD_3216-CF-RF-VIMAR_100000
 70
0
 62
7
  6
CONTINUOUS
370
-3
390
F
  0
LAYER
  5
278
100
AcDbSymbolTableRecord
100
AcDbLayerTableRecord
  2
ECAD_3216-CS2-RF_1_180000
 70
0
 62
7
  6
CONTINUOUS
370
-3
390
F
  0
LAYER
  5
279
100
AcDbSymbolTableRecord
100
AcDbLayerTableRecord
  2
ECAD_3225-L-RF-VIMAR_220000
 70
0
 62
7
  6
CONTINUOUS
370
-3
390
F
  0
LAYER
  5
27A
100
AcDbSymbolTableRecord
100
AcDbLayerTableRecord
  2
ECAD_6032-CS-RF_250000
 70
0
 62
7
  6
CONTINUOUS
370
-3
390
F
  0
LAYER
  5
27B
100
AcDbSymbolTableRecord
100
AcDbLayerTableRecord
  2
ECAD_CAPC1608N_80000
 70
0
 62
7
  6
CONTINUOUS
370
-3
390
F
  0
LAYER
  5
27C
100
AcDbSymbolTableRecord
100
AcDbLayerTableRecord
  2
ECAD_CN-243-VIMAR_850000
 70
0
 62
7
  6
CONTINUOUS
370
-3
390
F
  0
LAYER
  5
27D
100
AcDbSymbolTableRecord
100
AcDbLayerTableRecord
  2
ECAD_CN-CSF_CSM_9-VIMAR_1150000
 70
0
 62
7
  6
CONTINUOUS
370
-3
390
F
  0
LAYER
  5
27E
100
AcDbSymbolTableRecord
100
AcDbLayerTableRecord
  2
ECAD_CN16_M_SMD2_54_1_VIMAR_108
 70
0
 62
7
  6
CONTINUOUS
370
-3
390
F
  0
LAYER
  5
27F
100
AcDbSymbolTableRecord
100
AcDbLayerTableRecord
  2
ECAD_CP-CE10-RF-VIMAR_630000
 70
0
 62
7
  6
CONTINUOUS
370
-3
390
F
  0
LAYER
  5
280
100
AcDbSymbolTableRecord
100
AcDbLayerTableRecord
  2
ECAD_CP-CE4-RF_550000
 70
0
 62
7
  6
CONTINUOUS
370
-3
390
F
  0
LAYER
  5
281
100
AcDbSymbolTableRecord
100
AcDbLayerTableRecord
  2
ECAD_CP-DO-214AA-VIMAR_240000
 70
0
 62
7
  6
CONTINUOUS
370
-3
390
F
  0
LAYER
  5
282
100
AcDbSymbolTableRecord
100
AcDbLayerTableRecord
  2
ECAD_CP-DO-214AC-D-VIMAR_240000
 70
0
 62
7
  6
CONTINUOUS
370
-3
390
F
  0
LAYER
  5
283
100
AcDbSymbolTableRecord
100
AcDbLayerTableRecord
  2
ECAD_CP-DO-214AC-VIMAR_240000
 70
0
 62
7
  6
CONTINUOUS
370
-3
390
F
  0
LAYER
  5
284
100
AcDbSymbolTableRecord
100
AcDbLayerTableRecord
  2
ECAD_L_SRR1005-RF-VIMAR_520000
 70
0
 62
7
  6
CONTINUOUS
370
-3
390
F
  0
LAYER
  5
285
100
AcDbSymbolTableRecord
100
AcDbLayerTableRecord
  2
ECAD_MM2-X-1-VIMAR_430000
 70
0
 62
7
  6
CONTINUOUS
370
-3
390
F
  0
LAYER
  5
286
100
AcDbSymbolTableRecord
100
AcDbLayerTableRecord
  2
ECAD_MM2-X-3-VIMAR_120000
 70
0
 62
7
  6
CONTINUOUS
370
-3
390
F
  0
LAYER
  5
287
100
AcDbSymbolTableRecord
100
AcDbLayerTableRecord
  2
ECAD_MM3-MPAK-RF-VIMAR_120000
 70
0
 62
7
  6
CONTINUOUS
370
-3
390
F
  0
LAYER
  5
288
100
AcDbSymbolTableRecord
100
AcDbLayerTableRecord
  2
ECAD_MM4-MB-2-VIMAR_330000
 70
0
 62
7
  6
CONTINUOUS
370
-3
390
F
  0
LAYER
  5
289
100
AcDbSymbolTableRecord
100
AcDbLayerTableRecord
  2
ECAD_MM4-SWITCH-8-VIMAR_500000
 70
0
 62
7
  6
CONTINUOUS
370
-3
390
F
  0
LAYER
  5
28A
100
AcDbSymbolTableRecord
100
AcDbLayerTableRecord
  2
ECAD_MSOP8-T1-RF-VIMAR_86000
 70
0
 62
7
  6
CONTINUOUS
370
-3
390
F
  0
LAYER
  5
28B
100
AcDbSymbolTableRecord
100
AcDbLayerTableRecord
  2
ECAD_QFP32-M_0
 70
0
 62
7
  6
CONTINUOUS
370
-3
390
F
  0
LAYER
  5
28C
100
AcDbSymbolTableRecord
100
AcDbLayerTableRecord
  2
ECAD_RD-CE50-3-VIMAR_2000000
 70
0
 62
7
  6
CONTINUOUS
370
-3
390
F
  0
LAYER
  5
28D
100
AcDbSymbolTableRecord
100
AcDbLayerTableRecord
  2
ECAD_RD-ZNR75-1-VIMAR_0
 70
0
 62
7
  6
CONTINUOUS
370
-3
390
F
  0
LAYER
  5
28E
100
AcDbSymbolTableRecord
100
AcDbLayerTableRecord
  2
ECAD_RESC1608N_45000
 70
0
 62
7
  6
CONTINUOUS
370
-3
390
F
  0
LAYER
  5
28F
100
AcDbSymbolTableRecord
100
AcDbLayerTableRecord
  2
ECAD_RESC6432X70N_70000
 70
0
 62
7
  6
CONTINUOUS
370
-3
390
F
  0
LAYER
  5
290
100
AcDbSymbolTableRecord
100
AcDbLayerTableRecord
  2
ECAD_RESM8063N_350000
 70
0
 62
7
  6
CONTINUOUS
370
-3
390
F
  0
LAYER
  5
291
100
AcDbSymbolTableRecord
100
AcDbLayerTableRecord
  2
ECAD_RY-8PIN-1-VIMAR_565000
 70
0
 62
7
  6
CONTINUOUS
370
-3
390
F
  0
LAYER
  5
292
100
AcDbSymbolTableRecord
100
AcDbLayerTableRecord
  2
ECAD_SOIC8-OPTO-RF-VIMAR_320000
 70
0
 62
7
  6
CONTINUOUS
370
-3
390
F
  0
LAYER
  5
293
100
AcDbSymbolTableRecord
100
AcDbLayerTableRecord
  2
ECAD_SOP20-1-VIMAR_270000
 70
0
 62
7
  6
CONTINUOUS
370
-3
390
F
  0
LAYER
  5
294
100
AcDbSymbolTableRecord
100
AcDbLayerTableRecord
  2
ECAD_SOT95P280X110-6N_110000
 70
0
 62
7
  6
CONTINUOUS
370
-3
390
F
  0
LAYER
  5
295
100
AcDbSymbolTableRecord
100
AcDbLayerTableRecord
  2
IGES_SCRITTE
 70
0
 62
7
  6
CONTINUOUS
370
-3
390
F
  0
LAYER
  5
296
100
AcDbSymbolTableRecord
100
AcDbLayerTableRecord
  2
IMPORT_IGES
 70
0
 62
7
  6
CONTINUOUS
370
-3
390
F
  0
LAYER
  5
297
100
AcDbSymbolTableRecord
100
AcDbLayerTableRecord
  2
INDC3216X130N_130000
 70
0
 62
7
  6
CONTINUOUS
370
-3
390
F
  0
LAYER
  5
298
100
AcDbSymbolTableRecord
100
AcDbLayerTableRecord
  2
INTF_43000440
 70
0
 62
7
  6
CONTINUOUS
370
-3
390
F
  0
LAYER
  5
299
100
AcDbSymbolTableRecord
100
AcDbLayerTableRecord
  2
INTF_BLANK
 70
0
 62
7
  6
CONTINUOUS
370
-3
390
F
  0
LAYER
  5
29A
100
AcDbSymbolTableRecord
100
AcDbLayerTableRecord
  2
INTF_GREEN
 70
0
 62
7
  6
CONTINUOUS
370
-3
390
F
  0
LAYER
  5
29B
100
AcDbSymbolTableRecord
100
AcDbLayerTableRecord
  2
LOGICA
 70
0
 62
7
  6
CONTINUOUS
370
-3
390
F
  0
LAYER
  5
29C
100
AcDbSymbolTableRecord
100
AcDbLayerTableRecord
  2
L_SRR0604-RF-VIMAR_480000
 70
0
 62
7
  6
CONTINUOUS
370
-3
390
F
  0
LAYER
  5
29D
100
AcDbSymbolTableRecord
100
AcDbLayerTableRecord
  2
L_SRR1005-RF-VIMAR_520000
 70
0
 62
7
  6
CONTINUOUS
370
-3
390
F
  0
LAYER
  5
29E
100
AcDbSymbolTableRecord
100
AcDbLayerTableRecord
  2
MM2-X-1-VIMAR_430000
 70
0
 62
7
  6
CONTINUOUS
370
-3
390
F
  0
LAYER
  5
29F
100
AcDbSymbolTableRecord
100
AcDbLayerTableRecord
  2
MM2-X-2-VIMAR_250000
 70
0
 62
7
  6
CONTINUOUS
370
-3
390
F
  0
LAYER
  5
2A0
100
AcDbSymbolTableRecord
100
AcDbLayerTableRecord
  2
MM2-X-3-VIMAR_120000
 70
0
 62
7
  6
CONTINUOUS
370
-3
390
F
  0
LAYER
  5
2A1
100
AcDbSymbolTableRecord
100
AcDbLayerTableRecord
  2
MM2-X-3-VIMAR_120000_1
 70
0
 62
7
  6
CONTINUOUS
370
-3
390
F
  0
LAYER
  5
2A2
100
AcDbSymbolTableRecord
100
AcDbLayerTableRecord
  2
MM3-MPAK-RF-VIMAR_120000
 70
0
 62
7
  6
CONTINUOUS
370
-3
390
F
  0
LAYER
  5
2A3
100
AcDbSymbolTableRecord
100
AcDbLayerTableRecord
  2
MM3-MPAK-RF-VIMAR_120000_1
 70
0
 62
7
  6
CONTINUOUS
370
-3
390
F
  0
LAYER
  5
2A4
100
AcDbSymbolTableRecord
100
AcDbLayerTableRecord
  2
MM3-MPAK-RF-VIMAR_120000_2
 70
0
 62
7
  6
CONTINUOUS
370
-3
390
F
  0
LAYER
  5
2A5
100
AcDbSymbolTableRecord
100
AcDbLayerTableRecord
  2
MM3-MPAK-RF-VIMAR_120000_3
 70
0
 62
7
  6
CONTINUOUS
370
-3
390
F
  0
LAYER
  5
2A6
100
AcDbSymbolTableRecord
100
AcDbLayerTableRecord
  2
MM3-MPAK-RF-VIMAR_120000_4
 70
0
 62
7
  6
CONTINUOUS
370
-3
390
F
  0
LAYER
  5
2A7
100
AcDbSymbolTableRecord
100
AcDbLayerTableRecord
  2
MM3-MPAK-RF-VIMAR_120000_5
 70
0
 62
7
  6
CONTINUOUS
370
-3
390
F
  0
LAYER
  5
2A8
100
AcDbSymbolTableRecord
100
AcDbLayerTableRecord
  2
MM3-MPAK-RF-VIMAR_120000_6
 70
0
 62
7
  6
CONTINUOUS
370
-3
390
F
  0
LAYER
  5
2A9
100
AcDbSymbolTableRecord
100
AcDbLayerTableRecord
  2
MM3-MPAK-RF-VIMAR_120000_7
 70
0
 62
7
  6
CONTINUOUS
370
-3
390
F
  0
LAYER
  5
2AA
100
AcDbSymbolTableRecord
100
AcDbLayerTableRecord
  2
MM3-MPAK-RF-VIMAR_120000_8
 70
0
 62
7
  6
CONTINUOUS
370
-3
390
F
  0
LAYER
  5
2AB
100
AcDbSymbolTableRecord
100
AcDbLayerTableRecord
  2
MM3-MPAK-RF-VIMAR_120000_9
 70
0
 62
7
  6
CONTINUOUS
370
-3
390
F
  0
LAYER
  5
2AC
100
AcDbSymbolTableRecord
100
AcDbLayerTableRecord
  2
MM3-SOT-89-RF-VIMAR_150000
 70
0
 62
7
  6
CONTINUOUS
370
-3
390
F
  0
LAYER
  5
2AD
100
AcDbSymbolTableRecord
100
AcDbLayerTableRecord
  2
MM3-X-4-VIMAR_120000
 70
0
 62
7
  6
CONTINUOUS
370
-3
390
F
  0
LAYER
  5
2AE
100
AcDbSymbolTableRecord
100
AcDbLayerTableRecord
  2
MM4-MB-1-VIMAR_290000
 70
0
 62
7
  6
CONTINUOUS
370
-3
390
F
  0
LAYER
  5
2AF
100
AcDbSymbolTableRecord
100
AcDbLayerTableRecord
  2
MM4-SWITCH-8-VIMAR_500000
 70
0
 62
7
  6
CONTINUOUS
370
-3
390
F
  0
LAYER
  5
2B0
100
AcDbSymbolTableRecord
100
AcDbLayerTableRecord
  2
MM4-X-3-VIMAR_130000
 70
0
 62
7
  6
CONTINUOUS
370
-3
390
F
  0
LAYER
  5
2B1
100
AcDbSymbolTableRecord
100
AcDbLayerTableRecord
  2
MM6-SC70-1-VIMAR_110000
 70
0
 62
7
  6
CONTINUOUS
370
-3
390
F
  0
LAYER
  5
2B2
100
AcDbSymbolTableRecord
100
AcDbLayerTableRecord
  2
MORSETTI
 70
0
 62
7
  6
CONTINUOUS
370
-3
390
F
  0
LAYER
  5
2B3
100
AcDbSymbolTableRecord
100
AcDbLayerTableRecord
  2
MSOP8-T1-RF-VIMAR_86000
 70
0
 62
7
  6
CONTINUOUS
370
-3
390
F
  0
LAYER
  5
2B4
100
AcDbSymbolTableRecord
100
AcDbLayerTableRecord
  2
NO-PB_MARK_10000
 70
0
 62
7
  6
CONTINUOUS
370
-3
390
F
  0
LAYER
  5
2B5
100
AcDbSymbolTableRecord
100
AcDbLayerTableRecord
  2
NOTE
 70
0
 62
7
  6
CONTINUOUS
370
-3
390
F
  0
LAYER
  5
2B6
100
AcDbSymbolTableRecord
100
AcDbLayerTableRecord
  2
PIANI
 70
0
 62
7
  6
CONTINUOUS
370
-3
390
F
  0
LAYER
  5
2B7
100
AcDbSymbolTableRecord
100
AcDbLayerTableRecord
  2
PIANI_DI_RIFERIMENTO
 70
0
 62
7
  6
CONTINUOUS
370
-3
390
F
  0
LAYER
  5
2B8
100
AcDbSymbolTableRecord
100
AcDbLayerTableRecord
  2
PIANI_ORIGINE
 70
0
 62
7
  6
CONTINUOUS
370
-3
390
F
  0
LAYER
  5
2B9
100
AcDbSymbolTableRecord
100
AcDbLayerTableRecord
  2
PIANI_RIFERIMENTO
 70
0
 62
7
  6
CONTINUOUS
370
-3
390
F
  0
LAYER
  5
2BA
100
AcDbSymbolTableRecord
100
AcDbLayerTableRecord
  2
PTC-9_0X12_5X5_0-VIMAR_750000
 70
0
 62
7
  6
CONTINUOUS
370
-3
390
F
  0
LAYER
  5
2BB
100
AcDbSymbolTableRecord
100
AcDbLayerTableRecord
  2
PTC-9_0X12_5X5_0-VIMAR_750000_1
 70
0
 62
7
  6
CONTINUOUS
370
-3
390
F
  0
LAYER
  5
2BC
100
AcDbSymbolTableRecord
100
AcDbLayerTableRecord
  2
PUNTI
 70
0
 62
7
  6
CONTINUOUS
370
-3
390
F
  0
LAYER
  5
2BD
100
AcDbSymbolTableRecord
100
AcDbLayerTableRecord
  2
QFP32-M_0
 70
0
 62
7
  6
CONTINUOUS
370
-3
390
F
  0
LAYER
  5
2BE
100
AcDbSymbolTableRecord
100
AcDbLayerTableRecord
  2
QFP50P1200X1200X120-64N_120000
 70
0
 62
7
  6
CONTINUOUS
370
-3
390
F
  0
LAYER
  5
2BF
100
AcDbSymbolTableRecord
100
AcDbLayerTableRecord
  2
RACCORDO
 70
0
 62
7
  6
CONTINUOUS
370
-3
390
F
  0
LAYER
  5
2C0
100
AcDbSymbolTableRecord
100
AcDbLayerTableRecord
  2
RD-CLED2_54-1-VIMAR_1000000
 70
0
 62
7
  6
CONTINUOUS
370
-3
390
F
  0
LAYER
  5
2C1
100
AcDbSymbolTableRecord
100
AcDbLayerTableRecord
  2
RD-CLED2_54-1-VIMAR_1000000_1
 70
0
 62
7
  6
CONTINUOUS
370
-3
390
F
  0
LAYER
  5
2C2
100
AcDbSymbolTableRecord
100
AcDbLayerTableRecord
  2
RD-CLED2_54-1-VIMAR_1000000_2
 70
0
 62
7
  6
CONTINUOUS
370
-3
390
F
  0
LAYER
  5
2C3
100
AcDbSymbolTableRecord
100
AcDbLayerTableRecord
  2
RD-CLED2_54-1-VIMAR_1000000_3
 70
0
 62
7
  6
CONTINUOUS
370
-3
390
F
  0
LAYER
  5
2C4
100
AcDbSymbolTableRecord
100
AcDbLayerTableRecord
  2
RD-CLED2_54-1-VIMAR_1000000_4
 70
0
 62
7
  6
CONTINUOUS
370
-3
390
F
  0
LAYER
  5
2C5
100
AcDbSymbolTableRecord
100
AcDbLayerTableRecord
  2
RD-CLED2_54-1-VIMAR_1000000_5
 70
0
 62
7
  6
CONTINUOUS
370
-3
390
F
  0
LAYER
  5
2C6
100
AcDbSymbolTableRecord
100
AcDbLayerTableRecord
  2
RD-CLED2_54-3-VIMAR_1000000
 70
0
 62
7
  6
CONTINUOUS
370
-3
390
F
  0
LAYER
  5
2C7
100
AcDbSymbolTableRecord
100
AcDbLayerTableRecord
  2
RD-ZNR75-1-VIMAR_0
 70
0
 62
7
  6
CONTINUOUS
370
-3
390
F
  0
LAYER
  5
2C8
100
AcDbSymbolTableRecord
100
AcDbLayerTableRecord
  2
RESC1608N_45000
 70
0
 62
7
  6
CONTINUOUS
370
-3
390
F
  0
LAYER
  5
2C9
100
AcDbSymbolTableRecord
100
AcDbLayerTableRecord
  2
RESC1608N_45000_1
 70
0
 62
7
  6
CONTINUOUS
370
-3
390
F
  0
LAYER
  5
2CA
100
AcDbSymbolTableRecord
100
AcDbLayerTableRecord
  2
RESC1608N_45000_10
 70
0
 62
7
  6
CONTINUOUS
370
-3
390
F
  0
LAYER
  5
2CB
100
AcDbSymbolTableRecord
100
AcDbLayerTableRecord
  2
RESC1608N_45000_11
 70
0
 62
7
  6
CONTINUOUS
370
-3
390
F
  0
LAYER
  5
2CC
100
AcDbSymbolTableRecord
100
AcDbLayerTableRecord
  2
RESC1608N_45000_12
 70
0
 62
7
  6
CONTINUOUS
370
-3
390
F
  0
LAYER
  5
2CD
100
AcDbSymbolTableRecord
100
AcDbLayerTableRecord
  2
RESC1608N_45000_13
 70
0
 62
7
  6
CONTINUOUS
370
-3
390
F
  0
LAYER
  5
2CE
100
AcDbSymbolTableRecord
100
AcDbLayerTableRecord
  2
RESC1608N_45000_14
 70
0
 62
7
  6
CONTINUOUS
370
-3
390
F
  0
LAYER
  5
2CF
100
AcDbSymbolTableRecord
100
AcDbLayerTableRecord
  2
RESC1608N_45000_15
 70
0
 62
7
  6
CONTINUOUS
370
-3
390
F
  0
LAYER
  5
2D0
100
AcDbSymbolTableRecord
100
AcDbLayerTableRecord
  2
RESC1608N_45000_16
 70
0
 62
7
  6
CONTINUOUS
370
-3
390
F
  0
LAYER
  5
2D1
100
AcDbSymbolTableRecord
100
AcDbLayerTableRecord
  2
RESC1608N_45000_17
 70
0
 62
7
  6
CONTINUOUS
370
-3
390
F
  0
LAYER
  5
2D2
100
AcDbSymbolTableRecord
100
AcDbLayerTableRecord
  2
RESC1608N_45000_18
 70
0
 62
7
  6
CONTINUOUS
370
-3
390
F
  0
LAYER
  5
2D3
100
AcDbSymbolTableRecord
100
AcDbLayerTableRecord
  2
RESC1608N_45000_19
 70
0
 62
7
  6
CONTINUOUS
370
-3
390
F
  0
LAYER
  5
2D4
100
AcDbSymbolTableRecord
100
AcDbLayerTableRecord
  2
RESC1608N_45000_2
 70
0
 62
7
  6
CONTINUOUS
370
-3
390
F
  0
LAYER
  5
2D5
100
AcDbSymbolTableRecord
100
AcDbLayerTableRecord
  2
RESC1608N_45000_20
 70
0
 62
7
  6
CONTINUOUS
370
-3
390
F
  0
LAYER
  5
2D6
100
AcDbSymbolTableRecord
100
AcDbLayerTableRecord
  2
RESC1608N_45000_21
 70
0
 62
7
  6
CONTINUOUS
370
-3
390
F
  0
LAYER
  5
2D7
100
AcDbSymbolTableRecord
100
AcDbLayerTableRecord
  2
RESC1608N_45000_22
 70
0
 62
7
  6
CONTINUOUS
370
-3
390
F
  0
LAYER
  5
2D8
100
AcDbSymbolTableRecord
100
AcDbLayerTableRecord
  2
RESC1608N_45000_23
 70
0
 62
7
  6
CONTINUOUS
370
-3
390
F
  0
LAYER
  5
2D9
100
AcDbSymbolTableRecord
100
AcDbLayerTableRecord
  2
RESC1608N_45000_24
 70
0
 62
7
  6
CONTINUOUS
370
-3
390
F
  0
LAYER
  5
2DA
100
AcDbSymbolTableRecord
100
AcDbLayerTableRecord
  2
RESC1608N_45000_25
 70
0
 62
7
  6
CONTINUOUS
370
-3
390
F
  0
LAYER
  5
2DB
100
AcDbSymbolTableRecord
100
AcDbLayerTableRecord
  2
RESC1608N_45000_26
 70
0
 62
7
  6
CONTINUOUS
370
-3
390
F
  0
LAYER
  5
2DC
100
AcDbSymbolTableRecord
100
AcDbLayerTableRecord
  2
RESC1608N_45000_27
 70
0
 62
7
  6
CONTINUOUS
370
-3
390
F
  0
LAYER
  5
2DD
100
AcDbSymbolTableRecord
100
AcDbLayerTableRecord
  2
RESC1608N_45000_28
 70
0
 62
7
  6
CONTINUOUS
370
-3
390
F
  0
LAYER
  5
2DE
100
AcDbSymbolTableRecord
100
AcDbLayerTableRecord
  2
RESC1608N_45000_29
 70
0
 62
7
  6
CONTINUOUS
370
-3
390
F
  0
LAYER
  5
2DF
100
AcDbSymbolTableRecord
100
AcDbLayerTableRecord
  2
RESC1608N_45000_3
 70
0
 62
7
  6
CONTINUOUS
370
-3
390
F
  0
LAYER
  5
2E0
100
AcDbSymbolTableRecord
100
AcDbLayerTableRecord
  2
RESC1608N_45000_30
 70
0
 62
7
  6
CONTINUOUS
370
-3
390
F
  0
LAYER
  5
2E1
100
AcDbSymbolTableRecord
100
AcDbLayerTableRecord
  2
RESC1608N_45000_31
 70
0
 62
7
  6
CONTINUOUS
370
-3
390
F
  0
LAYER
  5
2E2
100
AcDbSymbolTableRecord
100
AcDbLayerTableRecord
  2
RESC1608N_45000_32
 70
0
 62
7
  6
CONTINUOUS
370
-3
390
F
  0
LAYER
  5
2E3
100
AcDbSymbolTableRecord
100
AcDbLayerTableRecord
  2
RESC1608N_45000_33
 70
0
 62
7
  6
CONTINUOUS
370
-3
390
F
  0
LAYER
  5
2E4
100
AcDbSymbolTableRecord
100
AcDbLayerTableRecord
  2
RESC1608N_45000_4
 70
0
 62
7
  6
CONTINUOUS
370
-3
390
F
  0
LAYER
  5
2E5
100
AcDbSymbolTableRecord
100
AcDbLayerTableRecord
  2
RESC1608N_45000_5
 70
0
 62
7
  6
CONTINUOUS
370
-3
390
F
  0
LAYER
  5
2E6
100
AcDbSymbolTableRecord
100
AcDbLayerTableRecord
  2
RESC1608N_45000_6
 70
0
 62
7
  6
CONTINUOUS
370
-3
390
F
  0
LAYER
  5
2E7
100
AcDbSymbolTableRecord
100
AcDbLayerTableRecord
  2
RESC1608N_45000_7
 70
0
 62
7
  6
CONTINUOUS
370
-3
390
F
  0
LAYER
  5
2E8
100
AcDbSymbolTableRecord
100
AcDbLayerTableRecord
  2
RESC1608N_45000_8
 70
0
 62
7
  6
CONTINUOUS
370
-3
390
F
  0
LAYER
  5
2E9
100
AcDbSymbolTableRecord
100
AcDbLayerTableRecord
  2
RESC1608N_45000_9
 70
0
 62
7
  6
CONTINUOUS
370
-3
390
F
  0
LAYER
  5
2EA
100
AcDbSymbolTableRecord
100
AcDbLayerTableRecord
  2
RESC6432X70N_70000
 70
0
 62
7
  6
CONTINUOUS
370
-3
390
F
  0
LAYER
  5
2EB
100
AcDbSymbolTableRecord
100
AcDbLayerTableRecord
  2
RY-8PIN-1-VIMAR_565000
 70
0
 62
7
  6
CONTINUOUS
370
-3
390
F
  0
LAYER
  5
2EC
100
AcDbSymbolTableRecord
100
AcDbLayerTableRecord
  2
RY-8PIN-1-VIMAR_565000_1
 70
0
 62
7
  6
CONTINUOUS
370
-3
390
F
  0
LAYER
  5
2ED
100
AcDbSymbolTableRecord
100
AcDbLayerTableRecord
  2
RY-S12CO-1-VIMAR_1060000
 70
0
 62
7
  6
CONTINUOUS
370
-3
390
F
  0
LAYER
  5
2EE
100
AcDbSymbolTableRecord
100
AcDbLayerTableRecord
  2
RY-S12CO-1-VIMAR_1060000_1
 70
0
 62
7
  6
CONTINUOUS
370
-3
390
F
  0
LAYER
  5
2EF
100
AcDbSymbolTableRecord
100
AcDbLayerTableRecord
  2
RY-S12CO-3-VIMAR_1250000
 70
0
 62
7
  6
CONTINUOUS
370
-3
390
F
  0
LAYER
  5
2F0
100
AcDbSymbolTableRecord
100
AcDbLayerTableRecord
  2
RY-S12CO-3-VIMAR_1250000_1
 70
0
 62
7
  6
CONTINUOUS
370
-3
390
F
  0
LAYER
  5
2F1
100
AcDbSymbolTableRecord
100
AcDbLayerTableRecord
  2
SHELL
 70
0
 62
7
  6
CONTINUOUS
370
-3
390
F
  0
LAYER
  5
2F2
100
AcDbSymbolTableRecord
100
AcDbLayerTableRecord
  2
SMUSSO
 70
0
 62
7
  6
CONTINUOUS
370
-3
390
F
  0
LAYER
  5
2F3
100
AcDbSymbolTableRecord
100
AcDbLayerTableRecord
  2
SNAPLINE
 70
0
 62
7
  6
CONTINUOUS
370
-3
390
F
  0
LAYER
  5
2F4
100
AcDbSymbolTableRecord
100
AcDbLayerTableRecord
  2
SOIC127P1047X264-32N_265000
 70
0
 62
7
  6
CONTINUOUS
370
-3
390
F
  0
LAYER
  5
2F5
100
AcDbSymbolTableRecord
100
AcDbLayerTableRecord
  2
SOIC8-OPTO-RF-VIMAR_320000
 70
0
 62
7
  6
CONTINUOUS
370
-3
390
F
  0
LAYER
  5
2F6
100
AcDbSymbolTableRecord
100
AcDbLayerTableRecord
  2
SOIC8-OPTO-RF-VIMAR_320000_1
 70
0
 62
7
  6
CONTINUOUS
370
-3
390
F
  0
LAYER
  5
2F7
100
AcDbSymbolTableRecord
100
AcDbLayerTableRecord
  2
SOP20-1-VIMAR_270000
 70
0
 62
7
  6
CONTINUOUS
370
-3
390
F
  0
LAYER
  5
2F8
100
AcDbSymbolTableRecord
100
AcDbLayerTableRecord
  2
SOP8-T1-RF-FINE-VIMAR_150000
 70
0
 62
7
  6
CONTINUOUS
370
-3
390
F
  0
LAYER
  5
2F9
100
AcDbSymbolTableRecord
100
AcDbLayerTableRecord
  2
SOT95P280X110-6N_110000
 70
0
 62
7
  6
CONTINUOUS
370
-3
390
F
  0
LAYER
  5
2FA
100
AcDbSymbolTableRecord
100
AcDbLayerTableRecord
  2
SOT95P280X110-6N_110000_1
 70
0
 62
7
  6
CONTINUOUS
370
-3
390
F
  0
LAYER
  5
2FB
100
AcDbSymbolTableRecord
100
AcDbLayerTableRecord
  2
SOT95P280X110-6N_110000_2
 70
0
 62
7
  6
CONTINUOUS
370
-3
390
F
  0
LAYER
  5
2FC
100
AcDbSymbolTableRecord
100
AcDbLayerTableRecord
  2
SOT95P280X110-6N_110000_3
 70
0
 62
7
  6
CONTINUOUS
370
-3
390
F
  0
LAYER
  5
2FD
100
AcDbSymbolTableRecord
100
AcDbLayerTableRecord
  2
SUPERFICI
 70
0
 62
7
  6
CONTINUOUS
370
-3
390
F
  0
LAYER
  5
2FE
100
AcDbSymbolTableRecord
100
AcDbLayerTableRecord
  2
TRASH
 70
0
 62
7
  6
CONTINUOUS
370
-3
390
F
  0
LAYER
  5
2FF
100
AcDbSymbolTableRecord
100
AcDbLayerTableRecord
  2
TSSOP14-RF-2-VIMAR_110000
 70
0
 62
7
  6
CONTINUOUS
370
-3
390
F
  0
LAYER
  5
300
100
AcDbSymbolTableRecord
100
AcDbLayerTableRecord
  2
TSSOP14-RF-2-VIMAR_110000_1
 70
0
 62
7
  6
CONTINUOUS
370
-3
390
F
  0
LAYER
  5
301
100
AcDbSymbolTableRecord
100
AcDbLayerTableRecord
  2
XSEC_DATUMS
 70
0
 62
7
  6
CONTINUOUS
370
-3
390
F
  0
LAYER
  5
302
100
AcDbSymbolTableRecord
100
AcDbLayerTableRecord
  2
___SHELL
 70
0
 62
7
  6
CONTINUOUS
370
-3
390
F
  0
ENDTAB
  0
TABLE
  2
STYLE
  5
3
100
AcDbSymbolTable
 70
1
  0
STYLE
  5
11
100
AcDbSymbolTableRecord
100
AcDbTextStyleTableRecord
  2
STANDARD
 70
0
 40
0.0
 41
0.8
 50
0.0
 71
0
 42
0.2
  3
txt
  4

  0
STYLE
  5
303
100
AcDbSymbolTableRecord
100
AcDbTextStyleTableRecord
  2
TEXTSTYLE_1
 70
0
 40
0.0
 41
0.8
 50
0.0
 71
0
 42
0.2
  3
gdt
  4

  0
ENDTAB
  0
TABLE
  2
VIEW
  5
6
100
AcDbSymbolTable
 70
0
  0
ENDTAB
  0
TABLE
  2
UCS
  5
7
100
AcDbSymbolTable
 70
0
  0
ENDTAB
  0
TABLE
  2
APPID
  5
9
100
AcDbSymbolTable
 70
1
  0
APPID
  5
304
100
AcDbSymbolTableRecord
100
AcDbRegAppTableRecord
  2
ACAD
 70
0
  0
ENDTAB
  0
TABLE
  2
BLOCK_RECORD
  5
1
100
AcDbSymbolTable
 70
0
  0
BLOCK_RECORD
  5
305
100
AcDbSymbolTableRecord
100
AcDbBlockTableRecord
  2
*Model_Space
  0
BLOCK_RECORD
  5
306
100
AcDbSymbolTableRecord
100
AcDbBlockTableRecord
  2
*Paper_Space
  0
BLOCK_RECORD
  5
307
100
AcDbSymbolTableRecord
100
AcDbBlockTableRecord
  2
_FILLED
  0
BLOCK_RECORD
  5
308
100
AcDbSymbolTableRecord
100
AcDbBlockTableRecord
  2
*D0
  0
BLOCK_RECORD
  5
309
100
AcDbSymbolTableRecord
100
AcDbBlockTableRecord
  2
*D1
  0
BLOCK_RECORD
  5
30A
100
AcDbSymbolTableRecord
100
AcDbBlockTableRecord
  2
*D2
  0
BLOCK_RECORD
  5
30B
100
AcDbSymbolTableRecord
100
AcDbBlockTableRecord
  2
*D3
  0
ENDTAB
  0
TABLE
  2
DIMSTYLE
  5
A
100
AcDbSymbolTable
 70
1
100
AcDbDimStyleTable
 71
0
  0
DIMSTYLE
105
30C
100
AcDbSymbolTableRecord
100
AcDbDimStyleTableRecord
  2
STANDARD
 70
0
  3

  4

 40
1.0
 41
3.0
 42
0.0625
 43
0.38
 44
0.18
 45
0.0
 46
0.0
 47
0.01
 48
0.01
140
3.0
141
0.09
142
0.0
143
25.4
144
1.0
145
0.0
146
1.0
147
0.09
 71
1.0
 72
0.0
 73
0
 74
0
 75
0
 76
0
 77
1
 78
8
170
0
171
2
172
0
173
0
174
0
175
0
176
0
177
0
178
0
270
2
271
2
272
2
273
2
274
2
275
0
280
0
281
0
282
0
283
1
284
8
285
0
286
0
287
3
288
0
340
11
341
307
342
307
343
307
344
307
  0
DIMSTYLE
105
30D
100
AcDbSymbolTableRecord
100
AcDbDimStyleTableRecord
  2
DIMSTYLE_1
 70
0
  3

  4

 40
1.0
 41
3.0
 42
0.0625
 43
0.38
 44
0.18
 45
0.0
 46
0.0
 47
0.0
 48
0.0
140
3.0
141
0.09
142
0.0
143
25.4
144
1.0
145
0.0
146
1.0
147
0.09
 71
0.0
 72
0.0
 73
0
 74
0
 75
0
 76
0
 77
1
 78
8
170
0
171
2
172
0
173
0
174
0
175
0
176
0
177
0
178
0
270
2
271
1
272
1
273
2
274
2
275
0
280
0
281
0
282
0
283
1
284
8
285
0
286
0
287
3
288
0
340
11
341
307
342
307
343
307
344
307
  0
DIMSTYLE
105
30E
100
AcDbSymbolTableRecord
100
AcDbDimStyleTableRecord
  2
DIMSTYLE_2
 70
0
  3

  4

 40
1.0
 41
3.0
 42
0.0625
 43
0.38
 44
0.18
 45
0.0
 46
0.0
 47
0.0
 48
0.0
140
3.0
141
0.09
142
0.0
143
25.4
144
1.0
145
0.0
146
1.0
147
0.09
 71
0.0
 72
0.0
 73
0
 74
0
 75
0
 76
0
 77
1
 78
8
170
0
171
2
172
0
173
0
174
0
175
0
176
0
177
0
178
0
270
2
271
2
272
2
273
2
274
2
275
0
280
0
281
0
282
0
283
1
284
8
285
0
286
0
287
3
288
0
340
11
341
307
342
307
343
307
344
307
  0
ENDTAB
  0
ENDSEC
  0
SECTION
  2
BLOCKS
  0
BLOCK
  5
20
100
AcDbEntity
  8
0
100
AcDbBlockBegin
  2
*Model_Space
 70
0
 10
0.0
 20
0.0
 30
0.0
  3
*Model_Space
  1

  0
ENDBLK
  5
21
100
AcDbEntity
  8
0
100
AcDbBlockEnd
  0
BLOCK
  5
1C
100
AcDbEntity
  8
0
100
AcDbBlockBegin
  2
*Paper_Space
 70
0
 10
0.0
 20
0.0
 30
0.0
  3
*Paper_Space
  1

  0
ENDBLK
  5
1D
100
AcDbEntity
  8
0
100
AcDbBlockEnd
  0
BLOCK
  5
30F
100
AcDbEntity
  8
0
100
AcDbBlockBegin
  2
_FILLED
 70
64
 10
0.0
 20
0.0
  3
_FILLED
  1

  0
SOLID
  5
310
100
AcDbEntity
  8
0
  6
BYBLOCK
 62
0
100
AcDbTrace
 10
0.0
 20
0.0
 11
-1.0
 21
0.3166666667
 12
-1.0
 22
-0.3166666667
 13
-1.0
 23
-0.3166666667
  0
ENDBLK
  5
311
100
AcDbEntity
  8
0
  6
BYBLOCK
 62
0
100
AcDbBlockEnd
  0
BLOCK
  5
312
100
AcDbEntity
  8
0
100
AcDbBlockBegin
 62
7
  6
CONTINUOUS
  2
*D0
 70
65
 10
0.0
 20
0.0
  3
*D0
  1

  0
MTEXT
  5
313
100
AcDbEntity
  8
0
100
AcDbMText
 62
7
  6
CONTINUOUS
  7
STANDARD
 71
2
 72
1
 10
45.7827191432
 20
47.7106004606
 30
0.0
 11
1.0
 21
0.0
 31
0.0
 44
0.9
  1
56,5
 40
3.0
 41
8.3571428571
  0
LINE
  5
314
100
AcDbEntity
  8
0
100
AcDbLine
 62
7
  6
CONTINUOUS
 10
17.5512891177
 20
19.0496731649
 11
17.5512891177
 21
45.4606004606
  0
LINE
  5
315
100
AcDbEntity
  8
0
100
AcDbLine
 62
7
  6
CONTINUOUS
 10
74.0141491686
 20
19.8082913714
 11
74.0141491686
 21
45.4606004606
  0
LINE
  5
316
100
AcDbEntity
  8
0
100
AcDbLine
 62
7
  6
CONTINUOUS
 10
17.5512891177
 20
43.9606004606
 11
45.7827191432
 21
43.9606004606
  0
LINE
  5
317
100
AcDbEntity
  8
0
100
AcDbLine
 62
7
  6
CONTINUOUS
 10
74.0141491686
 20
43.9606004606
 11
45.7827191432
 21
43.9606004606
  0
INSERT
  5
318
100
AcDbEntity
  8
0
100
AcDbBlockReference
 62
7
  6
CONTINUOUS
  2
_FILLED
 10
17.5512891177
 20
43.9606004606
 41
3.0
 42
3.0
 43
3.0
 50
180.0
  0
INSERT
  5
319
100
AcDbEntity
  8
0
100
AcDbBlockReference
 62
7
  6
CONTINUOUS
  2
_FILLED
 10
74.0141491686
 20
43.9606004606
 41
3.0
 42
3.0
 43
3.0
  0
ENDBLK
  5
31A
100
AcDbEntity
  8
0
  6
BYBLOCK
 62
0
100
AcDbBlockEnd
  0
BLOCK
  5
31B
100
AcDbEntity
  8
0
100
AcDbBlockBegin
 62
7
  6
CONTINUOUS
  2
*D1
 70
65
 10
0.0
 20
0.0
  3
*D1
  1

  0
MTEXT
  5
31C
100
AcDbEntity
  8
0
100
AcDbMText
 62
7
  6
CONTINUOUS
  7
STANDARD
 71
2
 72
1
 10
-42.6493831601
 20
37.7106004606
 30
0.0
 11
1.0
 21
0.0
 31
0.0
 44
0.9
  1
67,3
 40
3.0
 41
8.5714285714
  0
LINE
  5
31D
100
AcDbEntity
  8
0
100
AcDbLine
 62
7
  6
CONTINUOUS
 10
-8.9993831601
 20
19.6609050703
 11
-8.9993831601
 21
35.4606004606
  0
LINE
  5
31E
100
AcDbEntity
  8
0
100
AcDbLine
 62
7
  6
CONTINUOUS
 10
-76.2993831601
 20
19.6609050703
 11
-76.2993831601
 21
35.4606004606
  0
LINE
  5
31F
100
AcDbEntity
  8
0
100
AcDbLine
 62
7
  6
CONTINUOUS
 10
-8.9993831601
 20
33.9606004606
 11
-42.6493831601
 21
33.9606004606
  0
LINE
  5
320
100
AcDbEntity
  8
0
100
AcDbLine
 62
7
  6
CONTINUOUS
 10
-76.2993831601
 20
33.9606004606
 11
-42.6493831601
 21
33.9606004606
  0
INSERT
  5
321
100
AcDbEntity
  8
0
100
AcDbBlockReference
 62
7
  6
CONTINUOUS
  2
_FILLED
 10
-8.9993831601
 20
33.9606004606
 41
3.0
 42
3.0
 43
3.0
 50
0.0
  0
INSERT
  5
322
100
AcDbEntity
  8
0
100
AcDbBlockReference
 62
7
  6
CONTINUOUS
  2
_FILLED
 10
-76.2993831601
 20
33.9606004606
 41
3.0
 42
3.0
 43
3.0
 50
180.0
  0
ENDBLK
  5
323
100
AcDbEntity
  8
0
  6
BYBLOCK
 62
0
100
AcDbBlockEnd
  0
BLOCK
  5
324
100
AcDbEntity
  8
0
100
AcDbBlockBegin
 62
7
  6
CONTINUOUS
  2
*D2
 70
65
 10
0.0
 20
0.0
  3
*D2
  1

  0
MTEXT
  5
325
100
AcDbEntity
  8
0
100
AcDbMText
 62
7
  6
CONTINUOUS
  7
STANDARD
 71
2
 72
1
 10
-94.3993831601
 20
1.4606004606
 30
0.0
 11
0.0
 21
1.0
 31
0.0
 44
0.9
  1
49
 40
3.0
 41
4.7142857143
  0
LINE
  5
326
100
AcDbEntity
  8
0
100
AcDbLine
 62
7
  6
CONTINUOUS
 10
-76.0493873909
 20
25.9606004606
 11
-92.1493831601
 21
25.9606004606
  0
LINE
  5
327
100
AcDbEntity
  8
0
100
AcDbLine
 62
7
  6
CONTINUOUS
 10
-76.0493873909
 20
-23.0393995394
 11
-92.1493831601
 21
-23.0393995394
  0
LINE
  5
328
100
AcDbEntity
  8
0
100
AcDbLine
 62
7
  6
CONTINUOUS
 10
-90.6493831601
 20
25.9606004606
 11
-90.6493831601
 21
1.4606004606
  0
LINE
  5
329
100
AcDbEntity
  8
0
100
AcDbLine
 62
7
  6
CONTINUOUS
 10
-90.6493831601
 20
-23.0393995394
 11
-90.6493831601
 21
1.4606004606
  0
INSERT
  5
32A
100
AcDbEntity
  8
0
100
AcDbBlockReference
 62
7
  6
CONTINUOUS
  2
_FILLED
 10
-90.6493831601
 20
25.9606004606
 41
3.0
 42
3.0
 43
3.0
 50
90.0
  0
INSERT
  5
32B
100
AcDbEntity
  8
0
100
AcDbBlockReference
 62
7
  6
CONTINUOUS
  2
_FILLED
 10
-90.6493831601
 20
-23.0393995394
 41
3.0
 42
3.0
 43
3.0
 50
270.0
  0
ENDBLK
  5
32C
100
AcDbEntity
  8
0
  6
BYBLOCK
 62
0
100
AcDbBlockEnd
  0
BLOCK
  5
32D
100
AcDbEntity
  8
0
100
AcDbBlockBegin
 62
7
  6
CONTINUOUS
  2
*D3
 70
65
 10
0.0
 20
0.0
  3
*D3
  1

  0
MTEXT
  5
32E
100
AcDbEntity
  8
0
100
AcDbMText
 62
7
  6
CONTINUOUS
  7
STANDARD
 71
2
 72
1
 10
35.5512891177
 20
37.7106004606
 30
0.0
 11
1.0
 21
0.0
 31
0.0
 44
0.9
  1
36
 40
3.0
 41
4.5
  0
LINE
  5
32F
100
AcDbEntity
  8
0
100
AcDbLine
 62
7
  6
CONTINUOUS
 10
17.5512891177
 20
19.0496731649
 11
17.5512891177
 21
35.4606004606
  0
LINE
  5
330
100
AcDbEntity
  8
0
100
AcDbLine
 62
7
  6
CONTINUOUS
 10
53.5512891177
 20
25.8049380279
 11
53.5512891177
 21
35.4606004606
  0
LINE
  5
331
100
AcDbEntity
  8
0
100
AcDbLine
 62
7
  6
CONTINUOUS
 10
17.5512891177
 20
33.9606004606
 11
35.5512891177
 21
33.9606004606
  0
LINE
  5
332
100
AcDbEntity
  8
0
100
AcDbLine
 62
7
  6
CONTINUOUS
 10
53.5512891177
 20
33.9606004606
 11
35.5512891177
 21
33.9606004606
  0
INSERT
  5
333
100
AcDbEntity
  8
0
100
AcDbBlockReference
 62
7
  6
CONTINUOUS
  2
_FILLED
 10
17.5512891177
 20
33.9606004606
 41
3.0
 42
3.0
 43
3.0
 50
180.0
  0
INSERT
  5
334
100
AcDbEntity
  8
0
100
AcDbBlockReference
 62
7
  6
CONTINUOUS
  2
_FILLED
 10
53.5512891177
 20
33.9606004606
 41
3.0
 42
3.0
 43
3.0
  0
ENDBLK
  5
335
100
AcDbEntity
  8
0
  6
BYBLOCK
 62
0
100
AcDbBlockEnd
  0
ENDSEC
  0
SECTION
  2
ENTITIES
  0
DIMENSION
  5
336
100
AcDbEntity
  8
0
100
AcDbDimension
 62
7
  6
CONTINUOUS
  2
*D0
 10
74.0141491686
 20
43.9606004606
 11
41.6041477146
 21
46.2106004606
 70
160
 71
2
 42
56.4628600509
  3
DIMSTYLE_1
100
AcDbAlignedDimension
 13
17.5512891177
 23
19.0496731649
 14
74.0141491686
 24
19.8082913714
100
AcDbRotatedDimension
  0
DIMENSION
  5
337
100
AcDbEntity
  8
0
100
AcDbDimension
 62
7
  6
CONTINUOUS
  2
*D1
 10
-76.2993831601
 20
33.9606004606
 11
-46.9350974458
 21
36.2106004606
 70
160
 71
2
 42
67.3
  3
DIMSTYLE_2
100
AcDbAlignedDimension
 13
-8.9993831601
 23
19.6609050703
 14
-76.2993831601
 24
19.6609050703
 50
180.0
100
AcDbRotatedDimension
  0
DIMENSION
  5
338
100
AcDbEntity
  8
0
100
AcDbDimension
 62
7
  6
CONTINUOUS
  2
*D2
 10
-90.6493831601
 20
-23.0393995394
 11
-91.8432096363
 21
-0.6466773893
 70
160
 71
2
 42
49.0
  3
DIMSTYLE_2
100
AcDbAlignedDimension
 13
-76.0493873909
 23
25.9606004606
 14
-76.0493873909
 24
-23.0393995394
 50
270.0
100
AcDbRotatedDimension
  0
DIMENSION
  5
339
100
AcDbEntity
  8
0
100
AcDbDimension
 62
7
  6
CONTINUOUS
  2
*D3
 10
53.5512891177
 20
33.9606004606
 11
33.3012891177
 21
36.2106004606
 70
160
 71
2
 42
36.0
  3
DIMSTYLE_2
100
AcDbAlignedDimension
 13
17.5512891177
 23
19.0496731649
 14
53.5512891177
 24
25.8049380279
100
AcDbRotatedDimension
  0
LINE
  5
33A
100
AcDbEntity
  8
RACCORDO
100
AcDbLine
 62
253
  6
CONTINUOUS
 10
-73.6493789293
 20
25.9606004606
 11
-73.662477508
 21
25.9475018819
  0
LINE
  5
33B
100
AcDbEntity
  8
RACCORDO
100
AcDbLine
 62
253
  6
CONTINUOUS
 10
-73.3993831601
 20
25.7106046914
 11
-73.4124817388
 21
25.6975061127
  0
LINE
  5
33C
100
AcDbEntity
  8
RACCORDO
100
AcDbLine
 62
253
  6
CONTINUOUS
 10
-76.2819662577
 20
23.3604861892
 11
-76.2993831601
 21
23.3517784012
  0
LINE
  5
33D
100
AcDbEntity
  8
RACCORDO
100
AcDbLine
 62
253
  6
CONTINUOUS
 10
-54.7493789293
 20
25.9606004606
 11
-54.762477508
 21
25.9475018819
  0
LINE
  5
33E
100
AcDbEntity
  8
RACCORDO
100
AcDbLine
 62
253
  6
CONTINUOUS
 10
-54.4993831601
 20
25.7106046914
 11
-54.5124817388
 21
25.6975061127
  0
LINE
  5
33F
100
AcDbEntity
  8
RACCORDO
100
AcDbLine
 62
253
  6
CONTINUOUS
 10
-75.7862845814
 20
-22.3837371067
 11
-75.7921024112
 21
-21.8063868375
  0
LINE
  5
340
100
AcDbEntity
  8
RACCORDO
100
AcDbLine
 62
253
  6
CONTINUOUS
 10
-75.5362888122
 20
-22.1672307558
 11
-75.5413794132
 21
-21.6620492702
  0
LINE
  5
341
100
AcDbEntity
  8
ASSI
100
AcDbLine
 62
7
  6
CONTINUOUS
 10
-76.2993831601
 20
-16.2397041491
 11
-76.2993831601
 21
19.1609050703
  0
LINE
  5
342
100
AcDbEntity
  8
RACCORDO
100
AcDbLine
 62
7
  6
CONTINUOUS
 10
-76.2993831601
 20
-20.43057748
 11
-76.2993831601
 21
23.3517784012
  0
LINE
  5
343
100
AcDbEntity
  8
RACCORDO
100
AcDbLine
 62
7
  6
CONTINUOUS
 10
-75.7993831601
 20
-21.8063868375
 11
-75.7993831601
 21
-22.7894037702
  0
LINE
  5
344
100
AcDbEntity
  8
RACCORDO
100
AcDbLine
 62
7
  6
CONTINUOUS
 10
-75.7993831601
 20
24.7275877587
 11
-75.7993831601
 21
25.7106046914
  0
LINE
  5
345
100
AcDbEntity
  8
RACCORDO
100
AcDbLine
 62
7
  6
CONTINUOUS
 10
-75.7921024112
 20
-21.8063868375
 11
-75.7921024112
 21
-20.8728105008
  0
LINE
  5
346
100
AcDbEntity
  8
RACCORDO
100
AcDbLine
 62
7
  6
CONTINUOUS
 10
-75.7921024112
 20
23.794011422
 11
-75.7921024112
 21
24.7275877587
  0
LINE
  5
347
100
AcDbEntity
  8
RACCORDO
100
AcDbLine
 62
7
  6
CONTINUOUS
 10
-75.7862845814
 20
25.6975061127
 11
-75.7862845814
 21
25.3049380279
  0
LINE
  5
348
100
AcDbEntity
  8
RACCORDO
100
AcDbLine
 62
7
  6
CONTINUOUS
 10
-75.7862845814
 20
-22.3837371067
 11
-75.7862845814
 21
-22.7763051915
  0
LINE
  5
349
100
AcDbEntity
  8
RACCORDO
100
AcDbLine
 62
253
  6
CONTINUOUS
 10
-75.542106642
 20
-21.6620492702
 11
-75.542106642
 21
-20.8607878705
  0
LINE
  5
34A
100
AcDbEntity
  8
RACCORDO
100
AcDbLine
 62
253
  6
CONTINUOUS
 10
-75.542106642
 20
23.7819887917
 11
-75.542106642
 21
24.5832501914
  0
LINE
  5
34B
100
AcDbEntity
  8
RACCORDO
100
AcDbLine
 62
253
  6
CONTINUOUS
 10
-75.5362888122
 20
-22.1672307558
 11
-75.5362888122
 21
-23.0263009607
  0
LINE
  5
34C
100
AcDbEntity
  8
RACCORDO
100
AcDbLine
 62
253
  6
CONTINUOUS
 10
-75.5362888122
 20
25.0884316769
 11
-75.5362888122
 21
25.9475018819
  0
LINE
  5
34D
100
AcDbEntity
  8
RACCORDO
100
AcDbLine
 62
253
  6
CONTINUOUS
 10
-75.7921024112
 20
24.7275877587
 11
-75.7862845814
 21
25.3049380279
  0
LINE
  5
34E
100
AcDbEntity
  8
RACCORDO
100
AcDbLine
 62
253
  6
CONTINUOUS
 10
-75.5413794132
 20
24.5832501914
 11
-75.5362888122
 21
25.0884316769
  0
LINE
  5
34F
100
AcDbEntity
  8
RACCORDO
100
AcDbLine
 62
253
  6
CONTINUOUS
 10
-76.0917630938
 20
22.5815299765
 11
-75.9630669068
 21
20.605940684
  0
LINE
  5
350
100
AcDbEntity
  8
RACCORDO
100
AcDbLine
 62
253
  6
CONTINUOUS
 10
-75.5918392462
 20
23.0644928897
 11
-75.4631430592
 21
21.0889035971
  0
LINE
  5
351
100
AcDbEntity
  8
RACCORDO
100
AcDbLine
 62
253
  6
CONTINUOUS
 10
-73.662477508
 20
25.0884316769
 11
-73.6573869069
 21
24.5832501914
  0
LINE
  5
352
100
AcDbEntity
  8
RACCORDO
100
AcDbLine
 62
253
  6
CONTINUOUS
 10
-73.4124817388
 20
25.3049380279
 11
-73.406663909
 21
24.7275877587
  0
LINE
  5
353
100
AcDbEntity
  8
RACCORDO
100
AcDbLine
 62
253
  6
CONTINUOUS
 10
-73.662477508
 20
-22.1672307558
 11
-73.662477508
 21
-23.0263009607
  0
LINE
  5
354
100
AcDbEntity
  8
RACCORDO
100
AcDbLine
 62
253
  6
CONTINUOUS
 10
-73.662477508
 20
25.0884316769
 11
-73.662477508
 21
25.9475018819
  0
LINE
  5
355
100
AcDbEntity
  8
RACCORDO
100
AcDbLine
 62
253
  6
CONTINUOUS
 10
-73.6566596782
 20
24.5832501914
 11
-73.6566596782
 21
23.7819887917
  0
LINE
  5
356
100
AcDbEntity
  8
RACCORDO
100
AcDbLine
 62
253
  6
CONTINUOUS
 10
-73.6566596782
 20
-20.8607878705
 11
-73.6566596782
 21
-21.6620492702
  0
LINE
  5
357
100
AcDbEntity
  8
RACCORDO
100
AcDbLine
 62
7
  6
CONTINUOUS
 10
-73.4124817388
 20
-22.7763051915
 11
-73.4124817388
 21
-22.3837371067
  0
LINE
  5
358
100
AcDbEntity
  8
RACCORDO
100
AcDbLine
 62
7
  6
CONTINUOUS
 10
-73.4124817388
 20
25.3049380279
 11
-73.4124817388
 21
25.6975061127
  0
LINE
  5
359
100
AcDbEntity
  8
RACCORDO
100
AcDbLine
 62
7
  6
CONTINUOUS
 10
-73.406663909
 20
24.7275877587
 11
-73.406663909
 21
23.7950145129
  0
LINE
  5
35A
100
AcDbEntity
  8
RACCORDO
100
AcDbLine
 62
7
  6
CONTINUOUS
 10
-73.406663909
 20
-20.8738135917
 11
-73.406663909
 21
-21.8063868375
  0
LINE
  5
35B
100
AcDbEntity
  8
RACCORDO
100
AcDbLine
 62
7
  6
CONTINUOUS
 10
-73.3993831601
 20
-21.8063868375
 11
-73.3993831601
 21
-22.7894037702
  0
LINE
  5
35C
100
AcDbEntity
  8
RACCORDO
100
AcDbLine
 62
7
  6
CONTINUOUS
 10
-73.3993831601
 20
24.7275877587
 11
-73.3993831601
 21
25.7106046914
  0
LINE
  5
35D
100
AcDbEntity
  8
RACCORDO
100
AcDbLine
 62
253
  6
CONTINUOUS
 10
-73.6573869069
 20
-21.6620492702
 11
-73.662477508
 21
-22.1672307558
  0
LINE
  5
35E
100
AcDbEntity
  8
RACCORDO
100
AcDbLine
 62
253
  6
CONTINUOUS
 10
-73.406663909
 20
-21.8063868375
 11
-73.4124817388
 21
-22.3837371067
  0
LINE
  5
35F
100
AcDbEntity
  8
RACCORDO
100
AcDbLine
 62
253
  6
CONTINUOUS
 10
-76.1485829698
 20
-20.038809994
 11
-76.2819662577
 21
-20.439285268
  0
LINE
  5
360
100
AcDbEntity
  8
RACCORDO
100
AcDbLine
 62
253
  6
CONTINUOUS
 10
-75.6486591222
 20
-20.5381247614
 11
-75.7582985
 21
-20.867310378
  0
LINE
  5
361
100
AcDbEntity
  8
RACCORDO
100
AcDbLine
 62
7
  6
CONTINUOUS
 10
-71.2997982365
 20
22.9831790323
 11
-71.2997982365
 21
21.6248506497
  0
LINE
  5
362
100
AcDbEntity
  8
RACCORDO
100
AcDbLine
 62
7
  6
CONTINUOUS
 10
-69.5464573219
 20
25.2576746224
 11
-69.5464573219
 21
23.8342441238
  0
LINE
  5
363
100
AcDbEntity
  8
RACCORDO
100
AcDbLine
 62
7
  6
CONTINUOUS
 10
-69.5464573219
 20
-20.9130432026
 11
-69.5464573219
 21
-22.3364737012
  0
LINE
  5
364
100
AcDbEntity
  8
RACCORDO
100
AcDbLine
 62
253
  6
CONTINUOUS
 10
-69.0464657835
 20
25.0559428121
 11
-69.0464657835
 21
23.8081926813
  0
LINE
  5
365
100
AcDbEntity
  8
RACCORDO
100
AcDbLine
 62
253
  6
CONTINUOUS
 10
-69.0464657835
 20
-20.8869917601
 11
-69.0464657835
 21
-22.1347418909
  0
LINE
  5
366
100
AcDbEntity
  8
RACCORDO
100
AcDbLine
 62
253
  6
CONTINUOUS
 10
-73.6493789293
 20
-23.0393995394
 11
-73.662477508
 21
-23.0263009607
  0
LINE
  5
367
100
AcDbEntity
  8
RACCORDO
100
AcDbLine
 62
253
  6
CONTINUOUS
 10
-73.3993831601
 20
-22.7894037702
 11
-73.4124817388
 21
-22.7763051915
  0
LINE
  5
368
100
AcDbEntity
  8
RACCORDO
100
AcDbLine
 62
253
  6
CONTINUOUS
 10
-61.2523005367
 20
-22.1347418909
 11
-61.2523005367
 21
-20.8869917601
  0
LINE
  5
369
100
AcDbEntity
  8
RACCORDO
100
AcDbLine
 62
253
  6
CONTINUOUS
 10
-61.2523005367
 20
23.8081926813
 11
-61.2523005367
 21
25.0559428121
  0
LINE
  5
36A
100
AcDbEntity
  8
RACCORDO
100
AcDbLine
 62
7
  6
CONTINUOUS
 10
-60.7523089983
 20
-22.3364737012
 11
-60.7523089983
 21
-20.9130432026
  0
LINE
  5
36B
100
AcDbEntity
  8
RACCORDO
100
AcDbLine
 62
7
  6
CONTINUOUS
 10
-60.7523089983
 20
23.8342441238
 11
-60.7523089983
 21
25.2576746224
  0
LINE
  5
36C
100
AcDbEntity
  8
RACCORDO
100
AcDbLine
 62
253
  6
CONTINUOUS
 10
-28.6493789293
 20
25.9606004606
 11
-28.662477508
 21
25.9475018819
  0
LINE
  5
36D
100
AcDbEntity
  8
RACCORDO
100
AcDbLine
 62
253
  6
CONTINUOUS
 10
-28.3993831601
 20
25.7106046914
 11
-28.4124817388
 21
25.6975061127
  0
LINE
  5
36E
100
AcDbEntity
  8
RACCORDO
100
AcDbLine
 62
253
  6
CONTINUOUS
 10
-75.7993831601
 20
-22.7894037702
 11
-75.7862845814
 21
-22.7763051915
  0
LINE
  5
36F
100
AcDbEntity
  8
RACCORDO
100
AcDbLine
 62
253
  6
CONTINUOUS
 10
-75.5493873909
 20
-23.0393995394
 11
-75.5362888122
 21
-23.0263009607
  0
LINE
  5
370
100
AcDbEntity
  8
RACCORDO
100
AcDbLine
 62
253
  6
CONTINUOUS
 10
-76.2993831601
 20
-20.43057748
 11
-76.2819662577
 21
-20.439285268
  0
LINE
  5
371
100
AcDbEntity
  8
RACCORDO
100
AcDbLine
 62
253
  6
CONTINUOUS
 10
-76.2819662577
 20
23.3604861892
 11
-76.1260027631
 21
22.892215207
  0
LINE
  5
372
100
AcDbEntity
  8
RACCORDO
100
AcDbLine
 62
253
  6
CONTINUOUS
 10
-75.7582985
 20
23.7885112992
 11
-75.6260789155
 21
23.3915299743
  0
LINE
  5
373
100
AcDbEntity
  8
RACCORDO
100
AcDbLine
 62
253
  6
CONTINUOUS
 10
-70.1240568904
 20
23.312963855
 11
-69.7609888707
 21
21.2512450788
  0
LINE
  5
374
100
AcDbEntity
  8
RACCORDO
100
AcDbLine
 62
253
  6
CONTINUOUS
 10
-56.8862845814
 20
-22.3837371067
 11
-56.8921024112
 21
-21.8063868375
  0
LINE
  5
375
100
AcDbEntity
  8
RACCORDO
100
AcDbLine
 62
253
  6
CONTINUOUS
 10
-56.6362888122
 20
-22.1672307558
 11
-56.6413794132
 21
-21.6620492702
  0
LINE
  5
376
100
AcDbEntity
  8
RACCORDO
100
AcDbLine
 62
7
  6
CONTINUOUS
 10
-56.8993831601
 20
-21.8063868375
 11
-56.8993831601
 21
-22.7894037702
  0
LINE
  5
377
100
AcDbEntity
  8
RACCORDO
100
AcDbLine
 62
7
  6
CONTINUOUS
 10
-56.8993831601
 20
24.7275877587
 11
-56.8993831601
 21
25.7106046914
  0
LINE
  5
378
100
AcDbEntity
  8
RACCORDO
100
AcDbLine
 62
7
  6
CONTINUOUS
 10
-56.8921024112
 20
-21.8063868375
 11
-56.8921024112
 21
-20.8738135917
  0
LINE
  5
379
100
AcDbEntity
  8
RACCORDO
100
AcDbLine
 62
7
  6
CONTINUOUS
 10
-56.8921024112
 20
23.7950145129
 11
-56.8921024112
 21
24.7275877587
  0
LINE
  5
37A
100
AcDbEntity
  8
RACCORDO
100
AcDbLine
 62
7
  6
CONTINUOUS
 10
-56.8862845814
 20
25.6975061127
 11
-56.8862845814
 21
25.3049380279
  0
LINE
  5
37B
100
AcDbEntity
  8
RACCORDO
100
AcDbLine
 62
7
  6
CONTINUOUS
 10
-56.8862845814
 20
-22.3837371067
 11
-56.8862845814
 21
-22.7763051915
  0
LINE
  5
37C
100
AcDbEntity
  8
RACCORDO
100
AcDbLine
 62
253
  6
CONTINUOUS
 10
-56.642106642
 20
-21.6620492702
 11
-56.642106642
 21
-20.8607878705
  0
LINE
  5
37D
100
AcDbEntity
  8
RACCORDO
100
AcDbLine
 62
253
  6
CONTINUOUS
 10
-56.642106642
 20
23.7819887917
 11
-56.642106642
 21
24.5832501914
  0
LINE
  5
37E
100
AcDbEntity
  8
RACCORDO
100
AcDbLine
 62
253
  6
CONTINUOUS
 10
-56.6362888122
 20
-22.1672307558
 11
-56.6362888122
 21
-23.0263009607
  0
LINE
  5
37F
100
AcDbEntity
  8
RACCORDO
100
AcDbLine
 62
253
  6
CONTINUOUS
 10
-56.6362888122
 20
25.0884316769
 11
-56.6362888122
 21
25.9475018819
  0
LINE
  5
380
100
AcDbEntity
  8
RACCORDO
100
AcDbLine
 62
253
  6
CONTINUOUS
 10
-56.8921024112
 20
24.7275877587
 11
-56.8862845814
 21
25.3049380279
  0
LINE
  5
381
100
AcDbEntity
  8
RACCORDO
100
AcDbLine
 62
253
  6
CONTINUOUS
 10
-56.6413794132
 20
24.5832501914
 11
-56.6362888122
 21
25.0884316769
  0
LINE
  5
382
100
AcDbEntity
  8
RACCORDO
100
AcDbLine
 62
253
  6
CONTINUOUS
 10
-54.762477508
 20
25.0884316769
 11
-54.7573869069
 21
24.5832501914
  0
LINE
  5
383
100
AcDbEntity
  8
RACCORDO
100
AcDbLine
 62
253
  6
CONTINUOUS
 10
-54.5124817388
 20
25.3049380279
 11
-54.506663909
 21
24.7275877587
  0
LINE
  5
384
100
AcDbEntity
  8
RACCORDO
100
AcDbLine
 62
253
  6
CONTINUOUS
 10
-54.762477508
 20
-22.1672307558
 11
-54.762477508
 21
-23.0263009607
  0
LINE
  5
385
100
AcDbEntity
  8
RACCORDO
100
AcDbLine
 62
253
  6
CONTINUOUS
 10
-54.762477508
 20
25.0884316769
 11
-54.762477508
 21
25.9475018819
  0
LINE
  5
386
100
AcDbEntity
  8
RACCORDO
100
AcDbLine
 62
253
  6
CONTINUOUS
 10
-54.7566596782
 20
24.5832501914
 11
-54.7566596782
 21
23.7819887917
  0
LINE
  5
387
100
AcDbEntity
  8
RACCORDO
100
AcDbLine
 62
253
  6
CONTINUOUS
 10
-54.7566596782
 20
-20.8607878705
 11
-54.7566596782
 21
-21.6620492702
  0
LINE
  5
388
100
AcDbEntity
  8
RACCORDO
100
AcDbLine
 62
7
  6
CONTINUOUS
 10
-54.5124817388
 20
-22.7763051915
 11
-54.5124817388
 21
-22.3837371067
  0
LINE
  5
389
100
AcDbEntity
  8
RACCORDO
100
AcDbLine
 62
7
  6
CONTINUOUS
 10
-54.5124817388
 20
25.3049380279
 11
-54.5124817388
 21
25.6975061127
  0
LINE
  5
38A
100
AcDbEntity
  8
RACCORDO
100
AcDbLine
 62
7
  6
CONTINUOUS
 10
-54.506663909
 20
24.7275877587
 11
-54.506663909
 21
23.7950145129
  0
LINE
  5
38B
100
AcDbEntity
  8
RACCORDO
100
AcDbLine
 62
7
  6
CONTINUOUS
 10
-54.506663909
 20
-20.8738135917
 11
-54.506663909
 21
-21.8063868375
  0
LINE
  5
38C
100
AcDbEntity
  8
RACCORDO
100
AcDbLine
 62
7
  6
CONTINUOUS
 10
-54.4993831601
 20
-21.8063868375
 11
-54.4993831601
 21
-22.7894037702
  0
LINE
  5
38D
100
AcDbEntity
  8
RACCORDO
100
AcDbLine
 62
7
  6
CONTINUOUS
 10
-54.4993831601
 20
24.7275877587
 11
-54.4993831601
 21
25.7106046914
  0
LINE
  5
38E
100
AcDbEntity
  8
RACCORDO
100
AcDbLine
 62
253
  6
CONTINUOUS
 10
-54.7573869069
 20
-21.6620492702
 11
-54.762477508
 21
-22.1672307558
  0
LINE
  5
38F
100
AcDbEntity
  8
RACCORDO
100
AcDbLine
 62
253
  6
CONTINUOUS
 10
-54.506663909
 20
-21.8063868375
 11
-54.5124817388
 21
-22.3837371067
  0
LINE
  5
390
100
AcDbEntity
  8
RACCORDO
100
AcDbLine
 62
253
  6
CONTINUOUS
 10
-54.7493789293
 20
-23.0393995394
 11
-54.762477508
 21
-23.0263009607
  0
LINE
  5
391
100
AcDbEntity
  8
RACCORDO
100
AcDbLine
 62
253
  6
CONTINUOUS
 10
-54.4993831601
 20
-22.7894037702
 11
-54.5124817388
 21
-22.7763051915
  0
LINE
  5
392
100
AcDbEntity
  8
RACCORDO
100
AcDbLine
 62
253
  6
CONTINUOUS
 10
-13.9989680837
 20
21.6248506497
 11
-14.2029945886
 21
21.4102384567
  0
LINE
  5
393
100
AcDbEntity
  8
RACCORDO
100
AcDbLine
 62
253
  6
CONTINUOUS
 10
-9.7493789293
 20
25.9606004606
 11
-9.762477508
 21
25.9475018819
  0
LINE
  5
394
100
AcDbEntity
  8
RACCORDO
100
AcDbLine
 62
253
  6
CONTINUOUS
 10
-9.4993831601
 20
25.7106046914
 11
-9.5124817388
 21
25.6975061127
  0
LINE
  5
395
100
AcDbEntity
  8
RACCORDO
100
AcDbLine
 62
253
  6
CONTINUOUS
 10
-56.8993831601
 20
-22.7894037702
 11
-56.8862845814
 21
-22.7763051915
  0
LINE
  5
396
100
AcDbEntity
  8
RACCORDO
100
AcDbLine
 62
7
  6
CONTINUOUS
 10
-9.7493789293
 20
-23.0393995394
 11
-11.6493873909
 21
-23.0393995394
  0
LINE
  5
397
100
AcDbEntity
  8
RACCORDO
100
AcDbLine
 62
7
  6
CONTINUOUS
 10
-28.6493789293
 20
-23.0393995394
 11
-30.5493873909
 21
-23.0393995394
  0
LINE
  5
398
100
AcDbEntity
  8
RACCORDO
100
AcDbLine
 62
7
  6
CONTINUOUS
 10
-54.7493789293
 20
-23.0393995394
 11
-56.6493873909
 21
-23.0393995394
  0
LINE
  5
399
100
AcDbEntity
  8
RACCORDO
100
AcDbLine
 62
7
  6
CONTINUOUS
 10
-73.6493789293
 20
-23.0393995394
 11
-75.5493873909
 21
-23.0393995394
  0
LINE
  5
39A
100
AcDbEntity
  8
RACCORDO
100
AcDbLine
 62
7
  6
CONTINUOUS
 10
-75.5362888122
 20
-23.0263009607
 11
-73.662477508
 21
-23.0263009607
  0
LINE
  5
39B
100
AcDbEntity
  8
RACCORDO
100
AcDbLine
 62
7
  6
CONTINUOUS
 10
-56.6362888122
 20
-23.0263009607
 11
-54.762477508
 21
-23.0263009607
  0
LINE
  5
39C
100
AcDbEntity
  8
RACCORDO
100
AcDbLine
 62
7
  6
CONTINUOUS
 10
-30.5362888122
 20
-23.0263009607
 11
-28.662477508
 21
-23.0263009607
  0
LINE
  5
39D
100
AcDbEntity
  8
RACCORDO
100
AcDbLine
 62
7
  6
CONTINUOUS
 10
-11.6362888122
 20
-23.0263009607
 11
-9.762477508
 21
-23.0263009607
  0
LINE
  5
39E
100
AcDbEntity
  8
RACCORDO
100
AcDbLine
 62
253
  6
CONTINUOUS
 10
-9.5124817388
 20
-22.7763051915
 11
-11.8862845814
 21
-22.7763051915
  0
LINE
  5
39F
100
AcDbEntity
  8
RACCORDO
100
AcDbLine
 62
253
  6
CONTINUOUS
 10
-28.4124817388
 20
-22.7763051915
 11
-30.7862845814
 21
-22.7763051915
  0
LINE
  5
3A0
100
AcDbEntity
  8
RACCORDO
100
AcDbLine
 62
253
  6
CONTINUOUS
 10
-54.5124817388
 20
-22.7763051915
 11
-56.8862845814
 21
-22.7763051915
  0
LINE
  5
3A1
100
AcDbEntity
  8
RACCORDO
100
AcDbLine
 62
253
  6
CONTINUOUS
 10
-73.4124817388
 20
-22.7763051915
 11
-75.7862845814
 21
-22.7763051915
  0
LINE
  5
3A2
100
AcDbEntity
  8
RACCORDO
100
AcDbLine
 62
253
  6
CONTINUOUS
 10
-9.5124817388
 20
-22.3837371067
 11
-11.8862845814
 21
-22.3837371067
  0
LINE
  5
3A3
100
AcDbEntity
  8
RACCORDO
100
AcDbLine
 62
253
  6
CONTINUOUS
 10
-28.4124817388
 20
-22.3837371067
 11
-30.7862845814
 21
-22.3837371067
  0
LINE
  5
3A4
100
AcDbEntity
  8
RACCORDO
100
AcDbLine
 62
253
  6
CONTINUOUS
 10
-54.5124817388
 20
-22.3837371067
 11
-56.8862845814
 21
-22.3837371067
  0
LINE
  5
3A5
100
AcDbEntity
  8
RACCORDO
100
AcDbLine
 62
253
  6
CONTINUOUS
 10
-73.4124817388
 20
-22.3837371067
 11
-75.7862845814
 21
-22.3837371067
  0
LINE
  5
3A6
100
AcDbEntity
  8
RACCORDO
100
AcDbLine
 62
7
  6
CONTINUOUS
 10
-69.4455904738
 20
-22.3347385062
 11
-60.8531758464
 21
-22.3347385062
  0
LINE
  5
3A7
100
AcDbEntity
  8
RACCORDO
100
AcDbLine
 62
7
  6
CONTINUOUS
 10
-24.4455904738
 20
-22.3347385062
 11
-15.8531758464
 21
-22.3347385062
  0
LINE
  5
3A8
100
AcDbEntity
  8
RACCORDO
100
AcDbLine
 62
253
  6
CONTINUOUS
 10
-9.762477508
 20
-22.1672307558
 11
-11.6362888122
 21
-22.1672307558
  0
LINE
  5
3A9
100
AcDbEntity
  8
RACCORDO
100
AcDbLine
 62
253
  6
CONTINUOUS
 10
-28.662477508
 20
-22.1672307558
 11
-30.5362888122
 21
-22.1672307558
  0
LINE
  5
3AA
100
AcDbEntity
  8
RACCORDO
100
AcDbLine
 62
253
  6
CONTINUOUS
 10
-54.762477508
 20
-22.1672307558
 11
-56.6362888122
 21
-22.1672307558
  0
LINE
  5
3AB
100
AcDbEntity
  8
RACCORDO
100
AcDbLine
 62
253
  6
CONTINUOUS
 10
-73.662477508
 20
-22.1672307558
 11
-75.5362888122
 21
-22.1672307558
  0
LINE
  5
3AC
100
AcDbEntity
  8
RACCORDO
100
AcDbLine
 62
253
  6
CONTINUOUS
 10
-69.0464657835
 20
-22.1347418909
 11
-61.2523005367
 21
-22.1347418909
  0
LINE
  5
3AD
100
AcDbEntity
  8
RACCORDO
100
AcDbLine
 62
253
  6
CONTINUOUS
 10
-24.0464657835
 20
-22.1347418909
 11
-16.2523005367
 21
-22.1347418909
  0
LINE
  5
3AE
100
AcDbEntity
  8
RACCORDO
100
AcDbLine
 62
7
  6
CONTINUOUS
 10
-9.7566596782
 20
-21.6620492702
 11
-11.642106642
 21
-21.6620492702
  0
LINE
  5
3AF
100
AcDbEntity
  8
RACCORDO
100
AcDbLine
 62
7
  6
CONTINUOUS
 10
-28.6566596782
 20
-21.6620492702
 11
-30.542106642
 21
-21.6620492702
  0
LINE
  5
3B0
100
AcDbEntity
  8
RACCORDO
100
AcDbLine
 62
7
  6
CONTINUOUS
 10
-54.7566596782
 20
-21.6620492702
 11
-56.642106642
 21
-21.6620492702
  0
LINE
  5
3B1
100
AcDbEntity
  8
RACCORDO
100
AcDbLine
 62
7
  6
CONTINUOUS
 10
-73.6566596782
 20
-21.6620492702
 11
-75.542106642
 21
-21.6620492702
  0
LINE
  5
3B2
100
AcDbEntity
  8
DRAFT
100
AcDbLine
 62
7
  6
CONTINUOUS
 10
-73.3993831601
 20
-20.9393995394
 11
-69.5493831601
 21
-20.9393995394
  0
LINE
  5
3B3
100
AcDbEntity
  8
DRAFT
100
AcDbLine
 62
7
  6
CONTINUOUS
 10
-60.7493831601
 20
-20.9393995394
 11
-56.8993831601
 21
-20.9393995394
  0
LINE
  5
3B4
100
AcDbEntity
  8
DRAFT
100
AcDbLine
 62
7
  6
CONTINUOUS
 10
-54.4993831601
 20
-20.9393995394
 11
-30.7993831601
 21
-20.9393995394
  0
LINE
  5
3B5
100
AcDbEntity
  8
DRAFT
100
AcDbLine
 62
7
  6
CONTINUOUS
 10
-28.3993831601
 20
-20.9393995394
 11
-24.5493831601
 21
-20.9393995394
  0
LINE
  5
3B6
100
AcDbEntity
  8
DRAFT
100
AcDbLine
 62
7
  6
CONTINUOUS
 10
-15.7493831601
 20
-20.9393995394
 11
-11.8993831601
 21
-20.9393995394
  0
LINE
  5
3B7
100
AcDbEntity
  8
RACCORDO
100
AcDbLine
 62
7
  6
CONTINUOUS
 10
-69.0464657835
 20
-20.8869917601
 11
-61.2523005367
 21
-20.8869917601
  0
LINE
  5
3B8
100
AcDbEntity
  8
RACCORDO
100
AcDbLine
 62
7
  6
CONTINUOUS
 10
-24.0464657835
 20
-20.8869917601
 11
-16.2523005367
 21
-20.8869917601
  0
LINE
  5
3B9
100
AcDbEntity
  8
RACCORDO
100
AcDbLine
 62
7
  6
CONTINUOUS
 10
-9.7566596782
 20
-20.8607878705
 11
-11.642106642
 21
-20.8607878705
  0
LINE
  5
3BA
100
AcDbEntity
  8
RACCORDO
100
AcDbLine
 62
7
  6
CONTINUOUS
 10
-28.6566596782
 20
-20.8607878705
 11
-30.542106642
 21
-20.8607878705
  0
LINE
  5
3BB
100
AcDbEntity
  8
RACCORDO
100
AcDbLine
 62
7
  6
CONTINUOUS
 10
-54.7566596782
 20
-20.8607878705
 11
-56.642106642
 21
-20.8607878705
  0
LINE
  5
3BC
100
AcDbEntity
  8
RACCORDO
100
AcDbLine
 62
7
  6
CONTINUOUS
 10
-73.6566596782
 20
-20.8607878705
 11
-75.542106642
 21
-20.8607878705
  0
LINE
  5
3BD
100
AcDbEntity
  8
RACCORDO
100
AcDbLine
 62
253
  6
CONTINUOUS
 10
-9.6501071979
 20
-20.5381247614
 11
-75.6486591222
 21
-20.5381247614
  0
LINE
  5
3BE
100
AcDbEntity
  8
RACCORDO
100
AcDbLine
 62
253
  6
CONTINUOUS
 10
-71.2997982365
 20
22.9831790323
 11
-70.3877543159
 21
21.2604670891
  0
LINE
  5
3BF
100
AcDbEntity
  8
RACCORDO
100
AcDbLine
 62
253
  6
CONTINUOUS
 10
-56.6493873909
 20
-23.0393995394
 11
-56.6362888122
 21
-23.0263009607
  0
LINE
  5
3C0
100
AcDbEntity
  8
RACCORDO
100
AcDbLine
 62
253
  6
CONTINUOUS
 10
-9.6658516303
 20
-19.4882936061
 11
-75.6329146898
 21
-19.4882936061
  0
LINE
  5
3C1
100
AcDbEntity
  8
RACCORDO
100
AcDbLine
 62
253
  6
CONTINUOUS
 10
-28.6493789293
 20
-23.0393995394
 11
-28.662477508
 21
-23.0263009607
  0
LINE
  5
3C2
100
AcDbEntity
  8
RACCORDO
100
AcDbLine
 62
253
  6
CONTINUOUS
 10
-71.0957715494
 20
21.4102382651
 11
-71.2997982365
 21
21.6248506497
  0
LINE
  5
3C3
100
AcDbEntity
  8
RACCORDO
100
AcDbLine
 62
253
  6
CONTINUOUS
 10
-14.9110116325
 20
21.2604677913
 11
-13.9989680837
 21
22.9831790323
  0
LINE
  5
3C4
100
AcDbEntity
  8
RACCORDO
100
AcDbLine
 62
253
  6
CONTINUOUS
 10
-28.3993831601
 20
-22.7894037702
 11
-28.4124817388
 21
-22.7763051915
  0
LINE
  5
3C5
100
AcDbEntity
  8
RACCORDO
100
AcDbLine
 62
253
  6
CONTINUOUS
 10
-75.7993831601
 20
25.7106046914
 11
-75.7862845814
 21
25.6975061127
  0
LINE
  5
3C6
100
AcDbEntity
  8
RACCORDO
100
AcDbLine
 62
253
  6
CONTINUOUS
 10
-75.5493873909
 20
25.9606004606
 11
-75.5362888122
 21
25.9475018819
  0
LINE
  5
3C7
100
AcDbEntity
  8
RACCORDO
100
AcDbLine
 62
253
  6
CONTINUOUS
 10
-30.7862845814
 20
-22.3837371067
 11
-30.7921024112
 21
-21.8063868375
  0
LINE
  5
3C8
100
AcDbEntity
  8
RACCORDO
100
AcDbLine
 62
253
  6
CONTINUOUS
 10
-30.5362888122
 20
-22.1672307558
 11
-30.5413794132
 21
-21.6620492702
  0
LINE
  5
3C9
100
AcDbEntity
  8
RACCORDO
100
AcDbLine
 62
7
  6
CONTINUOUS
 10
-30.7993831601
 20
-21.8063868375
 11
-30.7993831601
 21
-22.7894037702
  0
LINE
  5
3CA
100
AcDbEntity
  8
RACCORDO
100
AcDbLine
 62
7
  6
CONTINUOUS
 10
-30.7993831601
 20
24.7275877587
 11
-30.7993831601
 21
25.7106046914
  0
LINE
  5
3CB
100
AcDbEntity
  8
RACCORDO
100
AcDbLine
 62
7
  6
CONTINUOUS
 10
-30.7921024112
 20
-21.8063868375
 11
-30.7921024112
 21
-20.8738135917
  0
LINE
  5
3CC
100
AcDbEntity
  8
RACCORDO
100
AcDbLine
 62
7
  6
CONTINUOUS
 10
-30.7921024112
 20
23.7950145129
 11
-30.7921024112
 21
24.7275877587
  0
LINE
  5
3CD
100
AcDbEntity
  8
RACCORDO
100
AcDbLine
 62
7
  6
CONTINUOUS
 10
-30.7862845814
 20
25.6975061127
 11
-30.7862845814
 21
25.3049380279
  0
LINE
  5
3CE
100
AcDbEntity
  8
RACCORDO
100
AcDbLine
 62
7
  6
CONTINUOUS
 10
-30.7862845814
 20
-22.3837371067
 11
-30.7862845814
 21
-22.7763051915
  0
LINE
  5
3CF
100
AcDbEntity
  8
RACCORDO
100
AcDbLine
 62
253
  6
CONTINUOUS
 10
-30.542106642
 20
-21.6620492702
 11
-30.542106642
 21
-20.8607878705
  0
LINE
  5
3D0
100
AcDbEntity
  8
RACCORDO
100
AcDbLine
 62
253
  6
CONTINUOUS
 10
-30.542106642
 20
23.7819887917
 11
-30.542106642
 21
24.5832501914
  0
LINE
  5
3D1
100
AcDbEntity
  8
RACCORDO
100
AcDbLine
 62
253
  6
CONTINUOUS
 10
-30.5362888122
 20
-22.1672307558
 11
-30.5362888122
 21
-23.0263009607
  0
LINE
  5
3D2
100
AcDbEntity
  8
RACCORDO
100
AcDbLine
 62
253
  6
CONTINUOUS
 10
-30.5362888122
 20
25.0884316769
 11
-30.5362888122
 21
25.9475018819
  0
LINE
  5
3D3
100
AcDbEntity
  8
RACCORDO
100
AcDbLine
 62
253
  6
CONTINUOUS
 10
-30.7921024112
 20
24.7275877587
 11
-30.7862845814
 21
25.3049380279
  0
LINE
  5
3D4
100
AcDbEntity
  8
RACCORDO
100
AcDbLine
 62
253
  6
CONTINUOUS
 10
-30.5413794132
 20
24.5832501914
 11
-30.5362888122
 21
25.0884316769
  0
LINE
  5
3D5
100
AcDbEntity
  8
RACCORDO
100
AcDbLine
 62
253
  6
CONTINUOUS
 10
-30.7993831601
 20
-22.7894037702
 11
-30.7862845814
 21
-22.7763051915
  0
LINE
  5
3D6
100
AcDbEntity
  8
RACCORDO
100
AcDbLine
 62
253
  6
CONTINUOUS
 10
-30.5493873909
 20
-23.0393995394
 11
-30.5362888122
 21
-23.0263009607
  0
LINE
  5
3D7
100
AcDbEntity
  8
RACCORDO
100
AcDbLine
 62
253
  6
CONTINUOUS
 10
-28.662477508
 20
25.0884316769
 11
-28.6573869069
 21
24.5832501914
  0
LINE
  5
3D8
100
AcDbEntity
  8
RACCORDO
100
AcDbLine
 62
253
  6
CONTINUOUS
 10
-28.4124817388
 20
25.3049380279
 11
-28.406663909
 21
24.7275877587
  0
LINE
  5
3D9
100
AcDbEntity
  8
RACCORDO
100
AcDbLine
 62
253
  6
CONTINUOUS
 10
-28.662477508
 20
-22.1672307558
 11
-28.662477508
 21
-23.0263009607
  0
LINE
  5
3DA
100
AcDbEntity
  8
RACCORDO
100
AcDbLine
 62
253
  6
CONTINUOUS
 10
-28.662477508
 20
25.0884316769
 11
-28.662477508
 21
25.9475018819
  0
LINE
  5
3DB
100
AcDbEntity
  8
RACCORDO
100
AcDbLine
 62
253
  6
CONTINUOUS
 10
-28.6566596782
 20
24.5832501914
 11
-28.6566596782
 21
23.7819887917
  0
LINE
  5
3DC
100
AcDbEntity
  8
RACCORDO
100
AcDbLine
 62
253
  6
CONTINUOUS
 10
-28.6566596782
 20
-20.8607878705
 11
-28.6566596782
 21
-21.6620492702
  0
LINE
  5
3DD
100
AcDbEntity
  8
RACCORDO
100
AcDbLine
 62
7
  6
CONTINUOUS
 10
-28.4124817388
 20
-22.7763051915
 11
-28.4124817388
 21
-22.3837371067
  0
LINE
  5
3DE
100
AcDbEntity
  8
RACCORDO
100
AcDbLine
 62
7
  6
CONTINUOUS
 10
-28.4124817388
 20
25.3049380279
 11
-28.4124817388
 21
25.6975061127
  0
LINE
  5
3DF
100
AcDbEntity
  8
RACCORDO
100
AcDbLine
 62
7
  6
CONTINUOUS
 10
-28.406663909
 20
24.7275877587
 11
-28.406663909
 21
23.7950145129
  0
LINE
  5
3E0
100
AcDbEntity
  8
RACCORDO
100
AcDbLine
 62
7
  6
CONTINUOUS
 10
-28.406663909
 20
-20.8738135917
 11
-28.406663909
 21
-21.8063868375
  0
LINE
  5
3E1
100
AcDbEntity
  8
RACCORDO
100
AcDbLine
 62
7
  6
CONTINUOUS
 10
-28.3993831601
 20
-21.8063868375
 11
-28.3993831601
 21
-22.7894037702
  0
LINE
  5
3E2
100
AcDbEntity
  8
RACCORDO
100
AcDbLine
 62
7
  6
CONTINUOUS
 10
-28.3993831601
 20
24.7275877587
 11
-28.3993831601
 21
25.7106046914
  0
LINE
  5
3E3
100
AcDbEntity
  8
RACCORDO
100
AcDbLine
 62
253
  6
CONTINUOUS
 10
-28.6573869069
 20
-21.6620492702
 11
-28.662477508
 21
-22.1672307558
  0
LINE
  5
3E4
100
AcDbEntity
  8
RACCORDO
100
AcDbLine
 62
253
  6
CONTINUOUS
 10
-28.406663909
 20
-21.8063868375
 11
-28.4124817388
 21
-22.3837371067
  0
LINE
  5
3E5
100
AcDbEntity
  8
RACCORDO
100
AcDbLine
 62
7
  6
CONTINUOUS
 10
-24.5464573219
 20
25.2576746224
 11
-24.5464573219
 21
23.8342441238
  0
LINE
  5
3E6
100
AcDbEntity
  8
RACCORDO
100
AcDbLine
 62
7
  6
CONTINUOUS
 10
-24.5464573219
 20
-20.9130432026
 11
-24.5464573219
 21
-22.3364737012
  0
LINE
  5
3E7
100
AcDbEntity
  8
RACCORDO
100
AcDbLine
 62
253
  6
CONTINUOUS
 10
-24.0464657835
 20
25.0559428121
 11
-24.0464657835
 21
23.8081926813
  0
LINE
  5
3E8
100
AcDbEntity
  8
RACCORDO
100
AcDbLine
 62
253
  6
CONTINUOUS
 10
-24.0464657835
 20
-20.8869917601
 11
-24.0464657835
 21
-22.1347418909
  0
LINE
  5
3E9
100
AcDbEntity
  8
RACCORDO
100
AcDbLine
 62
253
  6
CONTINUOUS
 10
-9.6726874046
 20
23.3915299743
 11
-9.5404678201
 21
23.7885112992
  0
LINE
  5
3EA
100
AcDbEntity
  8
RACCORDO
100
AcDbLine
 62
253
  6
CONTINUOUS
 10
-9.172763557
 20
22.892215207
 11
-9.0168000625
 21
23.3604861892
  0
LINE
  5
3EB
100
AcDbEntity
  8
RACCORDO
100
AcDbLine
 62
253
  6
CONTINUOUS
 10
-9.0168000625
 20
-20.439285268
 11
-8.9993831601
 21
-20.43057748
  0
LINE
  5
3EC
100
AcDbEntity
  8
RACCORDO
100
AcDbLine
 62
253
  6
CONTINUOUS
 10
-9.7493789293
 20
-23.0393995394
 11
-9.762477508
 21
-23.0263009607
  0
LINE
  5
3ED
100
AcDbEntity
  8
RACCORDO
100
AcDbLine
 62
253
  6
CONTINUOUS
 10
-9.4993831601
 20
-22.7894037702
 11
-9.5124817388
 21
-22.7763051915
  0
LINE
  5
3EE
100
AcDbEntity
  8
RACCORDO
100
AcDbLine
 62
253
  6
CONTINUOUS
 10
-56.8993831601
 20
25.7106046914
 11
-56.8862845814
 21
25.6975061127
  0
LINE
  5
3EF
100
AcDbEntity
  8
RACCORDO
100
AcDbLine
 62
253
  6
CONTINUOUS
 10
-56.6493873909
 20
25.9606004606
 11
-56.6362888122
 21
25.9475018819
  0
LINE
  5
3F0
100
AcDbEntity
  8
RACCORDO
100
AcDbLine
 62
253
  6
CONTINUOUS
 10
-15.5377774495
 20
21.2512450788
 11
-15.1747094298
 21
23.312963855
  0
LINE
  5
3F1
100
AcDbEntity
  8
RACCORDO
100
AcDbLine
 62
253
  6
CONTINUOUS
 10
-16.2523005367
 20
-22.1347418909
 11
-16.2523005367
 21
-20.8869917601
  0
LINE
  5
3F2
100
AcDbEntity
  8
RACCORDO
100
AcDbLine
 62
253
  6
CONTINUOUS
 10
-16.2523005367
 20
23.8081926813
 11
-16.2523005367
 21
25.0559428121
  0
LINE
  5
3F3
100
AcDbEntity
  8
RACCORDO
100
AcDbLine
 62
7
  6
CONTINUOUS
 10
-15.7523089983
 20
-22.3364737012
 11
-15.7523089983
 21
-20.9130432026
  0
LINE
  5
3F4
100
AcDbEntity
  8
RACCORDO
100
AcDbLine
 62
7
  6
CONTINUOUS
 10
-15.7523089983
 20
23.8342441238
 11
-15.7523089983
 21
25.2576746224
  0
LINE
  5
3F5
100
AcDbEntity
  8
RACCORDO
100
AcDbLine
 62
253
  6
CONTINUOUS
 10
-11.8993831601
 20
-22.7894037702
 11
-11.8862845814
 21
-22.7763051915
  0
LINE
  5
3F6
100
AcDbEntity
  8
RACCORDO
100
AcDbLine
 62
253
  6
CONTINUOUS
 10
-11.6493873909
 20
-23.0393995394
 11
-11.6362888122
 21
-23.0263009607
  0
LINE
  5
3F7
100
AcDbEntity
  8
RACCORDO
100
AcDbLine
 62
253
  6
CONTINUOUS
 10
-11.8862845814
 20
-22.3837371067
 11
-11.8921024112
 21
-21.8063868375
  0
LINE
  5
3F8
100
AcDbEntity
  8
RACCORDO
100
AcDbLine
 62
253
  6
CONTINUOUS
 10
-11.6362888122
 20
-22.1672307558
 11
-11.6413794132
 21
-21.6620492702
  0
LINE
  5
3F9
100
AcDbEntity
  8
RACCORDO
100
AcDbLine
 62
7
  6
CONTINUOUS
 10
-13.9989680837
 20
22.9831790323
 11
-13.9989680837
 21
21.6248506497
  0
LINE
  5
3FA
100
AcDbEntity
  8
RACCORDO
100
AcDbLine
 62
7
  6
CONTINUOUS
 10
-11.8993831601
 20
-21.8063868375
 11
-11.8993831601
 21
-22.7894037702
  0
LINE
  5
3FB
100
AcDbEntity
  8
RACCORDO
100
AcDbLine
 62
7
  6
CONTINUOUS
 10
-11.8993831601
 20
24.7275877587
 11
-11.8993831601
 21
25.7106046914
  0
LINE
  5
3FC
100
AcDbEntity
  8
RACCORDO
100
AcDbLine
 62
7
  6
CONTINUOUS
 10
-11.8921024112
 20
-21.8063868375
 11
-11.8921024112
 21
-20.8738135917
  0
LINE
  5
3FD
100
AcDbEntity
  8
RACCORDO
100
AcDbLine
 62
7
  6
CONTINUOUS
 10
-11.8921024112
 20
23.7950145129
 11
-11.8921024112
 21
24.7275877587
  0
LINE
  5
3FE
100
AcDbEntity
  8
RACCORDO
100
AcDbLine
 62
7
  6
CONTINUOUS
 10
-11.8862845814
 20
25.6975061127
 11
-11.8862845814
 21
25.3049380279
  0
LINE
  5
3FF
100
AcDbEntity
  8
RACCORDO
100
AcDbLine
 62
7
  6
CONTINUOUS
 10
-11.8862845814
 20
-22.3837371067
 11
-11.8862845814
 21
-22.7763051915
  0
LINE
  5
400
100
AcDbEntity
  8
RACCORDO
100
AcDbLine
 62
253
  6
CONTINUOUS
 10
-11.642106642
 20
-21.6620492702
 11
-11.642106642
 21
-20.8607878705
  0
LINE
  5
401
100
AcDbEntity
  8
RACCORDO
100
AcDbLine
 62
253
  6
CONTINUOUS
 10
-11.642106642
 20
23.7819887917
 11
-11.642106642
 21
24.5832501914
  0
LINE
  5
402
100
AcDbEntity
  8
RACCORDO
100
AcDbLine
 62
253
  6
CONTINUOUS
 10
-11.6362888122
 20
-22.1672307558
 11
-11.6362888122
 21
-23.0263009607
  0
LINE
  5
403
100
AcDbEntity
  8
RACCORDO
100
AcDbLine
 62
253
  6
CONTINUOUS
 10
-11.6362888122
 20
25.0884316769
 11
-11.6362888122
 21
25.9475018819
  0
LINE
  5
404
100
AcDbEntity
  8
RACCORDO
100
AcDbLine
 62
253
  6
CONTINUOUS
 10
-11.8921024112
 20
24.7275877587
 11
-11.8862845814
 21
25.3049380279
  0
LINE
  5
405
100
AcDbEntity
  8
RACCORDO
100
AcDbLine
 62
253
  6
CONTINUOUS
 10
-11.6413794132
 20
24.5832501914
 11
-11.6362888122
 21
25.0884316769
  0
LINE
  5
406
100
AcDbEntity
  8
RACCORDO
100
AcDbLine
 62
253
  6
CONTINUOUS
 10
-9.835623261
 20
21.0889035971
 11
-9.706927074
 21
23.0644928897
  0
LINE
  5
407
100
AcDbEntity
  8
RACCORDO
100
AcDbLine
 62
253
  6
CONTINUOUS
 10
-9.3356994134
 20
20.605940684
 11
-9.2070032264
 21
22.5815299765
  0
LINE
  5
408
100
AcDbEntity
  8
RACCORDO
100
AcDbLine
 62
253
  6
CONTINUOUS
 10
-9.5404678201
 20
-20.867310378
 11
-9.6501071979
 21
-20.5381247614
  0
LINE
  5
409
100
AcDbEntity
  8
RACCORDO
100
AcDbLine
 62
253
  6
CONTINUOUS
 10
-9.0168000625
 20
-20.439285268
 11
-9.1501833503
 21
-20.038809994
  0
LINE
  5
40A
100
AcDbEntity
  8
RACCORDO
100
AcDbLine
 62
253
  6
CONTINUOUS
 10
-9.762477508
 20
25.0884316769
 11
-9.7573869069
 21
24.5832501914
  0
LINE
  5
40B
100
AcDbEntity
  8
RACCORDO
100
AcDbLine
 62
253
  6
CONTINUOUS
 10
-9.5124817388
 20
25.3049380279
 11
-9.506663909
 21
24.7275877587
  0
LINE
  5
40C
100
AcDbEntity
  8
RACCORDO
100
AcDbLine
 62
253
  6
CONTINUOUS
 10
-9.762477508
 20
-22.1672307558
 11
-9.762477508
 21
-23.0263009607
  0
LINE
  5
40D
100
AcDbEntity
  8
RACCORDO
100
AcDbLine
 62
253
  6
CONTINUOUS
 10
-9.762477508
 20
25.0884316769
 11
-9.762477508
 21
25.9475018819
  0
LINE
  5
40E
100
AcDbEntity
  8
RACCORDO
100
AcDbLine
 62
253
  6
CONTINUOUS
 10
-9.7566596782
 20
24.5832501914
 11
-9.7566596782
 21
23.7819887917
  0
LINE
  5
40F
100
AcDbEntity
  8
RACCORDO
100
AcDbLine
 62
253
  6
CONTINUOUS
 10
-9.7566596782
 20
-20.8607878705
 11
-9.7566596782
 21
-21.6620492702
  0
LINE
  5
410
100
AcDbEntity
  8
RACCORDO
100
AcDbLine
 62
7
  6
CONTINUOUS
 10
-9.5124817388
 20
-22.7763051915
 11
-9.5124817388
 21
-22.3837371067
  0
LINE
  5
411
100
AcDbEntity
  8
RACCORDO
100
AcDbLine
 62
7
  6
CONTINUOUS
 10
-9.5124817388
 20
25.3049380279
 11
-9.5124817388
 21
25.6975061127
  0
LINE
  5
412
100
AcDbEntity
  8
RACCORDO
100
AcDbLine
 62
7
  6
CONTINUOUS
 10
-9.506663909
 20
24.7275877587
 11
-9.506663909
 21
23.794011422
  0
LINE
  5
413
100
AcDbEntity
  8
RACCORDO
100
AcDbLine
 62
7
  6
CONTINUOUS
 10
-9.506663909
 20
-20.8728105008
 11
-9.506663909
 21
-21.8063868375
  0
LINE
  5
414
100
AcDbEntity
  8
RACCORDO
100
AcDbLine
 62
7
  6
CONTINUOUS
 10
-9.4993831601
 20
-21.8063868375
 11
-9.4993831601
 21
-22.7894037702
  0
LINE
  5
415
100
AcDbEntity
  8
RACCORDO
100
AcDbLine
 62
7
  6
CONTINUOUS
 10
-9.4993831601
 20
24.7275877587
 11
-9.4993831601
 21
25.7106046914
  0
LINE
  5
416
100
AcDbEntity
  8
ASSI
100
AcDbLine
 62
7
  6
CONTINUOUS
 10
-8.9993831601
 20
19.1609050703
 11
-8.9993831601
 21
-16.2397041491
  0
LINE
  5
417
100
AcDbEntity
  8
RACCORDO
100
AcDbLine
 62
7
  6
CONTINUOUS
 10
-8.9993831601
 20
-20.43057748
 11
-8.9993831601
 21
23.3517784012
  0
LINE
  5
418
100
AcDbEntity
  8
RACCORDO
100
AcDbLine
 62
253
  6
CONTINUOUS
 10
-9.7573869069
 20
-21.6620492702
 11
-9.762477508
 21
-22.1672307558
  0
LINE
  5
419
100
AcDbEntity
  8
RACCORDO
100
AcDbLine
 62
253
  6
CONTINUOUS
 10
-9.506663909
 20
-21.8063868375
 11
-9.5124817388
 21
-22.3837371067
  0
LINE
  5
41A
100
AcDbEntity
  8
RACCORDO
100
AcDbLine
 62
253
  6
CONTINUOUS
 10
-75.4506378844
 20
19.3082913714
 11
-9.8481284358
 21
19.3082913714
  0
LINE
  5
41B
100
AcDbEntity
  8
RACCORDO
100
AcDbLine
 62
253
  6
CONTINUOUS
 10
-75.4631430592
 20
21.0889035971
 11
-9.835623261
 21
21.0889035971
  0
LINE
  5
41C
100
AcDbEntity
  8
RACCORDO
100
AcDbLine
 62
7
  6
CONTINUOUS
 10
-70.1190137324
 20
21.2512450788
 11
-15.1797525877
 21
21.2512450788
  0
LINE
  5
41D
100
AcDbEntity
  8
RACCORDO
100
AcDbLine
 62
253
  6
CONTINUOUS
 10
-9.706927074
 20
23.0644928897
 11
-14.0162845431
 21
23.0644928897
  0
LINE
  5
41E
100
AcDbEntity
  8
RACCORDO
100
AcDbLine
 62
253
  6
CONTINUOUS
 10
-71.282481777
 20
23.0644928897
 11
-75.5918392462
 21
23.0644928897
  0
LINE
  5
41F
100
AcDbEntity
  8
RACCORDO
100
AcDbLine
 62
7
  6
CONTINUOUS
 10
-70.1240568904
 20
23.312963855
 11
-15.1747094298
 21
23.312963855
  0
LINE
  5
420
100
AcDbEntity
  8
RACCORDO
100
AcDbLine
 62
253
  6
CONTINUOUS
 10
-75.6260789155
 20
23.3915299743
 11
-9.6726874046
 21
23.3915299743
  0
LINE
  5
421
100
AcDbEntity
  8
RACCORDO
100
AcDbLine
 62
7
  6
CONTINUOUS
 10
-9.7566596782
 20
23.7819887917
 11
-11.642106642
 21
23.7819887917
  0
LINE
  5
422
100
AcDbEntity
  8
RACCORDO
100
AcDbLine
 62
7
  6
CONTINUOUS
 10
-28.6566596782
 20
23.7819887917
 11
-30.542106642
 21
23.7819887917
  0
LINE
  5
423
100
AcDbEntity
  8
RACCORDO
100
AcDbLine
 62
7
  6
CONTINUOUS
 10
-54.7566596782
 20
23.7819887917
 11
-56.642106642
 21
23.7819887917
  0
LINE
  5
424
100
AcDbEntity
  8
RACCORDO
100
AcDbLine
 62
7
  6
CONTINUOUS
 10
-73.6566596782
 20
23.7819887917
 11
-75.542106642
 21
23.7819887917
  0
LINE
  5
425
100
AcDbEntity
  8
RACCORDO
100
AcDbLine
 62
7
  6
CONTINUOUS
 10
-69.0464657835
 20
23.8081926813
 11
-61.2523005367
 21
23.8081926813
  0
LINE
  5
426
100
AcDbEntity
  8
RACCORDO
100
AcDbLine
 62
7
  6
CONTINUOUS
 10
-24.0464657835
 20
23.8081926813
 11
-16.2523005367
 21
23.8081926813
  0
LINE
  5
427
100
AcDbEntity
  8
DRAFT
100
AcDbLine
 62
7
  6
CONTINUOUS
 10
-73.3993831601
 20
23.8606004606
 11
-69.5493831601
 21
23.8606004606
  0
LINE
  5
428
100
AcDbEntity
  8
DRAFT
100
AcDbLine
 62
7
  6
CONTINUOUS
 10
-60.7493831601
 20
23.8606004606
 11
-56.8993831601
 21
23.8606004606
  0
LINE
  5
429
100
AcDbEntity
  8
DRAFT
100
AcDbLine
 62
7
  6
CONTINUOUS
 10
-54.4993831601
 20
23.8606004606
 11
-30.7993831601
 21
23.8606004606
  0
LINE
  5
42A
100
AcDbEntity
  8
DRAFT
100
AcDbLine
 62
7
  6
CONTINUOUS
 10
-28.3993831601
 20
23.8606004606
 11
-24.5493831601
 21
23.8606004606
  0
LINE
  5
42B
100
AcDbEntity
  8
DRAFT
100
AcDbLine
 62
7
  6
CONTINUOUS
 10
-15.7493831601
 20
23.8606004606
 11
-11.8993831601
 21
23.8606004606
  0
LINE
  5
42C
100
AcDbEntity
  8
RACCORDO
100
AcDbLine
 62
7
  6
CONTINUOUS
 10
-9.7573869069
 20
24.5832501914
 11
-11.6413794132
 21
24.5832501914
  0
LINE
  5
42D
100
AcDbEntity
  8
RACCORDO
100
AcDbLine
 62
7
  6
CONTINUOUS
 10
-28.6573869069
 20
24.5832501914
 11
-30.5413794132
 21
24.5832501914
  0
LINE
  5
42E
100
AcDbEntity
  8
RACCORDO
100
AcDbLine
 62
7
  6
CONTINUOUS
 10
-54.7573869069
 20
24.5832501914
 11
-56.6413794132
 21
24.5832501914
  0
LINE
  5
42F
100
AcDbEntity
  8
RACCORDO
100
AcDbLine
 62
7
  6
CONTINUOUS
 10
-73.6573869069
 20
24.5832501914
 11
-75.5413794132
 21
24.5832501914
  0
LINE
  5
430
100
AcDbEntity
  8
RACCORDO
100
AcDbLine
 62
253
  6
CONTINUOUS
 10
-16.2523005367
 20
25.0559428121
 11
-24.0464657835
 21
25.0559428121
  0
LINE
  5
431
100
AcDbEntity
  8
RACCORDO
100
AcDbLine
 62
253
  6
CONTINUOUS
 10
-61.2523005367
 20
25.0559428121
 11
-69.0464657835
 21
25.0559428121
  0
LINE
  5
432
100
AcDbEntity
  8
RACCORDO
100
AcDbLine
 62
253
  6
CONTINUOUS
 10
-75.5362888122
 20
25.0884316769
 11
-73.662477508
 21
25.0884316769
  0
LINE
  5
433
100
AcDbEntity
  8
RACCORDO
100
AcDbLine
 62
253
  6
CONTINUOUS
 10
-56.6362888122
 20
25.0884316769
 11
-54.762477508
 21
25.0884316769
  0
LINE
  5
434
100
AcDbEntity
  8
RACCORDO
100
AcDbLine
 62
253
  6
CONTINUOUS
 10
-30.5362888122
 20
25.0884316769
 11
-28.662477508
 21
25.0884316769
  0
LINE
  5
435
100
AcDbEntity
  8
RACCORDO
100
AcDbLine
 62
253
  6
CONTINUOUS
 10
-11.6362888122
 20
25.0884316769
 11
-9.762477508
 21
25.0884316769
  0
LINE
  5
436
100
AcDbEntity
  8
RACCORDO
100
AcDbLine
 62
253
  6
CONTINUOUS
 10
-30.7993831601
 20
25.7106046914
 11
-30.7862845814
 21
25.6975061127
  0
LINE
  5
437
100
AcDbEntity
  8
RACCORDO
100
AcDbLine
 62
253
  6
CONTINUOUS
 10
-30.5493873909
 20
25.9606004606
 11
-30.5362888122
 21
25.9475018819
  0
LINE
  5
438
100
AcDbEntity
  8
RACCORDO
100
AcDbLine
 62
7
  6
CONTINUOUS
 10
-15.8531758464
 20
25.2559394274
 11
-24.4455904738
 21
25.2559394274
  0
LINE
  5
439
100
AcDbEntity
  8
RACCORDO
100
AcDbLine
 62
7
  6
CONTINUOUS
 10
-60.8531758464
 20
25.2559394274
 11
-69.4455904738
 21
25.2559394274
  0
LINE
  5
43A
100
AcDbEntity
  8
RACCORDO
100
AcDbLine
 62
253
  6
CONTINUOUS
 10
-9.5124817388
 20
25.3049380279
 11
-11.8862845814
 21
25.3049380279
  0
LINE
  5
43B
100
AcDbEntity
  8
RACCORDO
100
AcDbLine
 62
253
  6
CONTINUOUS
 10
-28.4124817388
 20
25.3049380279
 11
-30.7862845814
 21
25.3049380279
  0
LINE
  5
43C
100
AcDbEntity
  8
RACCORDO
100
AcDbLine
 62
253
  6
CONTINUOUS
 10
-54.5124817388
 20
25.3049380279
 11
-56.8862845814
 21
25.3049380279
  0
LINE
  5
43D
100
AcDbEntity
  8
RACCORDO
100
AcDbLine
 62
253
  6
CONTINUOUS
 10
-73.4124817388
 20
25.3049380279
 11
-75.7862845814
 21
25.3049380279
  0
LINE
  5
43E
100
AcDbEntity
  8
RACCORDO
100
AcDbLine
 62
253
  6
CONTINUOUS
 10
-9.5124817388
 20
25.6975061127
 11
-11.8862845814
 21
25.6975061127
  0
LINE
  5
43F
100
AcDbEntity
  8
RACCORDO
100
AcDbLine
 62
253
  6
CONTINUOUS
 10
-28.4124817388
 20
25.6975061127
 11
-30.7862845814
 21
25.6975061127
  0
LINE
  5
440
100
AcDbEntity
  8
RACCORDO
100
AcDbLine
 62
253
  6
CONTINUOUS
 10
-54.5124817388
 20
25.6975061127
 11
-56.8862845814
 21
25.6975061127
  0
LINE
  5
441
100
AcDbEntity
  8
RACCORDO
100
AcDbLine
 62
253
  6
CONTINUOUS
 10
-73.4124817388
 20
25.6975061127
 11
-75.7862845814
 21
25.6975061127
  0
LINE
  5
442
100
AcDbEntity
  8
RACCORDO
100
AcDbLine
 62
7
  6
CONTINUOUS
 10
-9.762477508
 20
25.9475018819
 11
-11.6362888122
 21
25.9475018819
  0
LINE
  5
443
100
AcDbEntity
  8
RACCORDO
100
AcDbLine
 62
7
  6
CONTINUOUS
 10
-28.662477508
 20
25.9475018819
 11
-30.5362888122
 21
25.9475018819
  0
LINE
  5
444
100
AcDbEntity
  8
RACCORDO
100
AcDbLine
 62
7
  6
CONTINUOUS
 10
-54.762477508
 20
25.9475018819
 11
-56.6362888122
 21
25.9475018819
  0
LINE
  5
445
100
AcDbEntity
  8
RACCORDO
100
AcDbLine
 62
7
  6
CONTINUOUS
 10
-73.662477508
 20
25.9475018819
 11
-75.5362888122
 21
25.9475018819
  0
LINE
  5
446
100
AcDbEntity
  8
RACCORDO
100
AcDbLine
 62
7
  6
CONTINUOUS
 10
-75.5493873909
 20
25.9606004606
 11
-73.6493789293
 21
25.9606004606
  0
LINE
  5
447
100
AcDbEntity
  8
RACCORDO
100
AcDbLine
 62
7
  6
CONTINUOUS
 10
-56.6493873909
 20
25.9606004606
 11
-54.7493789293
 21
25.9606004606
  0
LINE
  5
448
100
AcDbEntity
  8
RACCORDO
100
AcDbLine
 62
7
  6
CONTINUOUS
 10
-30.5493873909
 20
25.9606004606
 11
-28.6493789293
 21
25.9606004606
  0
LINE
  5
449
100
AcDbEntity
  8
RACCORDO
100
AcDbLine
 62
7
  6
CONTINUOUS
 10
-11.6493873909
 20
25.9606004606
 11
-9.7493789293
 21
25.9606004606
  0
LINE
  5
44A
100
AcDbEntity
  8
RACCORDO
100
AcDbLine
 62
253
  6
CONTINUOUS
 10
-8.9993831601
 20
23.3517784012
 11
-9.0168000625
 21
23.3604861892
  0
LINE
  5
44B
100
AcDbEntity
  8
RACCORDO
100
AcDbLine
 62
253
  6
CONTINUOUS
 10
-11.8993831601
 20
25.7106046914
 11
-11.8862845814
 21
25.6975061127
  0
LINE
  5
44C
100
AcDbEntity
  8
RACCORDO
100
AcDbLine
 62
253
  6
CONTINUOUS
 10
-11.6493873909
 20
25.9606004606
 11
-11.6362888122
 21
25.9475018819
  0
LINE
  5
44D
100
AcDbEntity
  8
CURVE
100
AcDbLine
 62
253
  6
CONTINUOUS
 10
34.8541372183
 20
16.067743362
 11
33.5543352146
 21
15.6963148127
  0
LINE
  5
44E
100
AcDbEntity
  8
CURVE
100
AcDbLine
 62
253
  6
CONTINUOUS
 10
34.8541372183
 20
16.9963147352
 11
34.6684512288
 21
16.8106004606
  0
LINE
  5
44F
100
AcDbEntity
  8
RACCORDO
100
AcDbLine
 62
253
  6
CONTINUOUS
 10
55.8027435505
 20
24.7275877587
 11
56.8027435505
 21
25.3049380279
  0
LINE
  5
450
100
AcDbEntity
  8
RACCORDO
100
AcDbLine
 62
7
  6
CONTINUOUS
 10
56.0512891177
 20
24.5832501914
 11
56.9262891177
 21
25.0884316769
  0
LINE
  5
451
100
AcDbEntity
  8
CURVE
100
AcDbLine
 62
253
  6
CONTINUOUS
 10
33.6162305492
 20
13.9939336906
 11
33.6781258839
 21
14.0248862634
  0
LINE
  5
452
100
AcDbEntity
  8
CURVE
100
AcDbLine
 62
253
  6
CONTINUOUS
 10
33.7709688883
 20
13.9320291649
 11
33.7090735488
 21
13.901076592
  0
LINE
  5
453
100
AcDbEntity
  8
CURVE
100
AcDbLine
 62
253
  6
CONTINUOUS
 10
34.8541372183
 20
11.5177430521
 11
33.5543352146
 21
10.8677430521
  0
LINE
  5
454
100
AcDbEntity
  8
CURVE
100
AcDbLine
 62
253
  6
CONTINUOUS
 10
48.1717718075
 20
16.5416134606
 11
51.0705416124
 21
17.4608604606
  0
LWPOLYLINE
  5
455
100
AcDbEntity
  8
ASSI
100
AcDbPolyline
 62
7
  6
CONTINUOUS
 90
17
 70
0
 10
17.5561240886
 20
-15.6757064764
 10
17.5565763339
 20
-15.7341389847
 10
17.5574050276
 20
-15.7918246972
 10
17.55865896
 20
-15.8487350267
 10
17.5604072103
 20
-15.9048730271
 10
17.5627252349
 20
-15.9601624878
 10
17.5656942218
 20
-16.0145840181
 10
17.5693989489
 20
-16.0681572346
 10
17.5739161228
 20
-16.1208467775
 10
17.5793149679
 20
-16.1726040151
 10
17.5856577605
 20
-16.2234151541
 10
17.5930014638
 20
-16.2732822693
 10
17.6013865403
 20
-16.322159619
 10
17.6108410995
 20
-16.3699963782
 10
17.6213902234
 20
-16.4167818943
 10
17.6330440518
 20
-16.4624758121
 10
17.6457633034
 20
-16.5069040645
  0
LWPOLYLINE
  5
456
100
AcDbEntity
  8
RACCORDO
100
AcDbPolyline
 62
7
  6
CONTINUOUS
 90
18
 70
0
 10
17.5561244178
 20
-15.6758475092
 10
17.5565786851
 20
-15.7343543362
 10
17.557408278
 20
-15.7920051438
 10
17.5586628058
 20
-15.8488809392
 10
17.5604112605
 20
-15.9049847594
 10
17.5627289796
 20
-15.9602405732
 10
17.5656969912
 20
-16.0146290151
 10
17.5693999048
 20
-16.0681696287
 10
17.5739142637
 20
-16.1208271495
 10
17.5793091426
 20
-16.1725530348
 10
17.5856466774
 20
-16.2233335123
 10
17.5929837068
 20
-16.2731706711
 10
17.6013605983
 20
-16.3220188699
 10
17.6108053944
 20
-16.3698273768
 10
17.6213431205
 20
-16.4165856083
 10
17.632983886
 20
-16.4622532862
 10
17.6457187483
 20
-16.5067624085
 10
17.6557522759
 20
-16.5386624965
  0
LINE
  5
457
100
AcDbEntity
  8
RACCORDO
100
AcDbLine
 62
7
  6
CONTINUOUS
 10
17.5512891177
 20
-16.6283199389
 11
17.5512891177
 21
19.5495208601
  0
LINE
  5
458
100
AcDbEntity
  8
ASSI
100
AcDbLine
 62
7
  6
CONTINUOUS
 10
17.5512891177
 20
-16.6283199389
 11
17.5512891177
 21
19.5495208601
  0
LINE
  5
459
100
AcDbEntity
  8
RACCORDO
100
AcDbLine
 62
7
  6
CONTINUOUS
 10
17.5560138819
 20
-1.2990862797
 11
17.5560138819
 21
-2.7298340919
  0
LINE
  5
45A
100
AcDbEntity
  8
ASSI
100
AcDbLine
 62
7
  6
CONTINUOUS
 10
17.5560138819
 20
-1.2990862797
 11
17.5560138819
 21
-2.7298340919
  0
LINE
  5
45B
100
AcDbEntity
  8
RACCORDO
100
AcDbLine
 62
7
  6
CONTINUOUS
 10
17.5560138819
 20
-6.748964987
 11
17.5561244178
 21
-15.6758475092
  0
LINE
  5
45C
100
AcDbEntity
  8
ASSI
100
AcDbLine
 62
7
  6
CONTINUOUS
 10
17.5560138819
 20
-6.748964987
 11
17.5561240886
 21
-15.6757064764
  0
LINE
  5
45D
100
AcDbEntity
  8
DRAFT
100
AcDbLine
 62
253
  6
CONTINUOUS
 10
17.5571950729
 20
-1.26366152
 11
17.5571950729
 21
-2.7298340919
  0
LINE
  5
45E
100
AcDbEntity
  8
ASSI
100
AcDbLine
 62
253
  6
CONTINUOUS
 10
17.5571950729
 20
-1.26366152
 11
17.5571950729
 21
-2.7298340919
  0
LINE
  5
45F
100
AcDbEntity
  8
DRAFT
100
AcDbLine
 62
253
  6
CONTINUOUS
 10
17.5571950729
 20
-6.748964987
 11
17.5571950732
 21
-15.6284722101
  0
LINE
  5
460
100
AcDbEntity
  8
ASSI
100
AcDbLine
 62
253
  6
CONTINUOUS
 10
17.5571950729
 20
-6.748964987
 11
17.5571950732
 21
-15.6284722101
  0
LINE
  5
461
100
AcDbEntity
  8
RACCORDO
100
AcDbLine
 62
253
  6
CONTINUOUS
 10
17.7495438106
 20
-6.6170445603
 11
17.7495438106
 21
-2.8617545185
  0
LINE
  5
462
100
AcDbEntity
  8
ASSI
100
AcDbLine
 62
253
  6
CONTINUOUS
 10
17.7495438106
 20
-6.6170445603
 11
17.7495438106
 21
-2.8617545185
  0
LINE
  5
463
100
AcDbEntity
  8
DRAFT
100
AcDbLine
 62
253
  6
CONTINUOUS
 10
18.5338367113
 20
18.5496731649
 11
18.5338367113
 21
-2.2349115533
  0
LINE
  5
464
100
AcDbEntity
  8
ASSI
100
AcDbLine
 62
253
  6
CONTINUOUS
 10
18.5338367113
 20
18.5496731649
 11
18.5338367113
 21
-2.2349115533
  0
LINE
  5
465
100
AcDbEntity
  8
DRAFT
100
AcDbLine
 62
253
  6
CONTINUOUS
 10
18.5338367113
 20
-7.2438875255
 11
18.5338367113
 21
-15.6284722437
  0
LINE
  5
466
100
AcDbEntity
  8
ASSI
100
AcDbLine
 62
253
  6
CONTINUOUS
 10
18.5338367113
 20
-7.2438875255
 11
18.5338367113
 21
-15.6284722437
  0
LINE
  5
467
100
AcDbEntity
  8
ASSI
100
AcDbLine
 62
7
  6
CONTINUOUS
 10
17.7181528555
 20
-16.7873854429
 11
17.7181393863
 21
-16.7885585005
  0
LINE
  5
468
100
AcDbEntity
  8
RACCORDO
100
AcDbLine
 62
7
  6
CONTINUOUS
 10
17.7181528089
 20
-16.787398916
 11
17.7181391867
 21
-16.7885682762
  0
LINE
  5
469
100
AcDbEntity
  8
CURVE
100
AcDbLine
 62
253
  6
CONTINUOUS
 10
37.975061534
 20
16.7207874606
 11
37.1671206968
 21
15.9126004606
  0
LINE
  5
46A
100
AcDbEntity
  8
CURVE
100
AcDbLine
 62
253
  6
CONTINUOUS
 10
37.1671206968
 20
15.1926004606
 11
38.3047860737
 21
16.3306124606
  0
LINE
  5
46B
100
AcDbEntity
  8
CURVE
100
AcDbLine
 62
253
  6
CONTINUOUS
 10
34.8541372183
 20
13.0034575592
 11
34.6684512288
 21
12.817743362
  0
LINE
  5
46C
100
AcDbEntity
  8
CURVE
100
AcDbLine
 62
253
  6
CONTINUOUS
 10
34.8541372183
 20
10.0320288549
 11
34.6684512288
 21
9.8463146577
  0
LINE
  5
46D
100
AcDbEntity
  8
CURVE
100
AcDbLine
 62
253
  6
CONTINUOUS
 10
38.3636401421
 20
14.2506004606
 11
37.1671206968
 21
13.3908004606
  0
LINE
  5
46E
100
AcDbEntity
  8
CURVE
100
AcDbLine
 62
253
  6
CONTINUOUS
 10
38.0699616199
 20
13.3008004606
 11
39.2664810652
 21
14.1606004606
  0
LINE
  5
46F
100
AcDbEntity
  8
CURVE
100
AcDbLine
 62
253
  6
CONTINUOUS
 10
33.6162305492
 20
9.1034578691
 11
33.6781258839
 21
9.134410132
  0
LINE
  5
470
100
AcDbEntity
  8
CURVE
100
AcDbLine
 62
253
  6
CONTINUOUS
 10
33.7709688883
 20
9.0415527235
 11
33.7090735488
 21
9.0106004606
  0
LINE
  5
471
100
AcDbEntity
  8
RACCORDO
100
AcDbLine
 62
7
  6
CONTINUOUS
 10
17.6557522542
 20
-16.5386625469
 11
17.6632248801
 21
-16.561650537
  0
LINE
  5
472
100
AcDbEntity
  8
ASSI
100
AcDbLine
 62
7
  6
CONTINUOUS
 10
17.655752254
 20
-16.5386625463
 11
17.6662554639
 21
-16.5710678559
  0
LINE
  5
473
100
AcDbEntity
  8
RACCORDO
100
AcDbLine
 62
7
  6
CONTINUOUS
 10
17.6632248801
 20
-16.561650537
 11
17.6694514417
 21
-16.5810743135
  0
LINE
  5
474
100
AcDbEntity
  8
ASSI
100
AcDbLine
 62
7
  6
CONTINUOUS
 10
17.6662554639
 20
-16.5710678559
 11
17.6723623987
 21
-16.5902671183
  0
LINE
  5
475
100
AcDbEntity
  8
ASSI
100
AcDbLine
 62
7
  6
CONTINUOUS
 10
17.6457633034
 20
-16.5069040645
 11
17.6557522759
 21
-16.5386624965
  0
LINE
  5
476
100
AcDbEntity
  8
RACCORDO
100
AcDbLine
 62
7
  6
CONTINUOUS
 10
17.6694514417
 20
-16.5810743135
 11
17.6754120079
 21
-16.5999925747
  0
LINE
  5
477
100
AcDbEntity
  8
ASSI
100
AcDbLine
 62
7
  6
CONTINUOUS
 10
17.6723623987
 20
-16.5902671183
 11
17.6781873547
 21
-16.608941643
  0
LINE
  5
478
100
AcDbEntity
  8
RACCORDO
100
AcDbLine
 62
7
  6
CONTINUOUS
 10
17.6754120079
 20
-16.5999925747
 11
17.6810746815
 21
-16.6183660145
  0
LWPOLYLINE
  5
479
100
AcDbEntity
  8
ASSI
100
AcDbPolyline
 62
7
  6
CONTINUOUS
 90
30
 70
0
 10
17.6781873547
 20
-16.608941643
 10
17.683699618
 20
-16.6270498987
 10
17.6863294444
 20
-16.6358778814
 10
17.6888704836
 20
-16.6445485793
 10
17.6913193535
 20
-16.6530555811
 10
17.6936718616
 20
-16.6613887437
 10
17.6959251223
 20
-16.6695421754
 10
17.698076519
 20
-16.6775107032
 10
17.7001223201
 20
-16.6852833764
 10
17.70206062
 20
-16.6928544385
 10
17.7038897823
 20
-16.7002183815
 10
17.7056066453
 20
-16.7073624441
 10
17.7072103839
 20
-16.7142818618
 10
17.7087001556
 20
-16.7209700442
 10
17.7100732567
 20
-16.7274093421
 10
17.7113308351
 20
-16.7335971794
 10
17.7124729545
 20
-16.7395246892
 10
17.7134968622
 20
-16.7451637537
 10
17.7144055635
 20
-16.7505107468
 10
17.7152024308
 20
-16.7555604996
 10
17.7158877236
 20
-16.7602837546
 10
17.7164665641
 20
-16.7646759587
 10
17.7169456567
 20
-16.768737956
 10
17.717330402
 20
-16.7724505998
 10
17.7176285243
 20
-16.7758083786
 10
17.7178491577
 20
-16.778817608
 10
17.7180016069
 20
-16.7814783477
 10
17.7180960374
 20
-16.783791555
 10
17.7181429454
 20
-16.7857596442
 10
17.7181528555
 20
-16.7873854429
  0
LWPOLYLINE
  5
47A
100
AcDbEntity
  8
RACCORDO
100
AcDbPolyline
 62
7
  6
CONTINUOUS
 90
29
 70
0
 10
17.6810746815
 20
-16.6183660145
 10
17.6864101449
 20
-16.6361510168
 10
17.6889463826
 20
-16.6448099088
 10
17.6913904877
 20
-16.6533051252
 10
17.6937382781
 20
-16.6616265374
 10
17.6959868783
 20
-16.6697682702
 10
17.6981336841
 20
-16.6777251617
 10
17.700174985
 20
-16.6854862709
 10
17.7021088877
 20
-16.693045853
 10
17.703933767
 20
-16.7003984146
 10
17.7056464762
 20
-16.7075312182
 10
17.7072462058
 20
-16.7144395212
 10
17.708732127
 20
-16.7211167451
 10
17.7101015525
 20
-16.727545262
 10
17.7113556387
 20
-16.733722509
 10
17.7124944585
 20
-16.7396396477
 10
17.713515281
 20
-16.7452685947
 10
17.7144211209
 20
-16.7506057289
 10
17.7152153583
 20
-16.7556459051
 10
17.7158982641
 20
-16.7603599474
 10
17.7164749687
 20
-16.7647433289
 10
17.7169521778
 20
-16.768796894
 10
17.7173352958
 20
-16.7725015321
 10
17.7176320322
 20
-16.775851736
 10
17.7178515182
 20
-16.7788538534
 10
17.7180030566
 20
-16.781508034
 10
17.7180967982
 20
-16.7838152367
 10
17.718143214
 20
-16.7857778917
 10
17.7181528089
 20
-16.787398916
  0
LINE
  5
47B
100
AcDbEntity
  8
CURVE
100
AcDbLine
 62
253
  6
CONTINUOUS
 10
37.8569105321
 20
11.0688004606
 11
37.1671206968
 21
10.3788004606
  0
LINE
  5
47C
100
AcDbEntity
  8
CURVE
100
AcDbLine
 62
253
  6
CONTINUOUS
 10
39.2664810652
 20
12.3108004606
 11
38.2407935709
 21
11.2848004606
  0
LINE
  5
47D
100
AcDbEntity
  8
CURVE
100
AcDbLine
 62
253
  6
CONTINUOUS
 10
37.1671206968
 20
9.6588004606
 11
38.216800881
 21
10.7088004606
  0
LINE
  5
47E
100
AcDbEntity
  8
CURVE
100
AcDbLine
 62
253
  6
CONTINUOUS
 10
38.6006839198
 20
10.9248004606
 11
39.2664810652
 21
11.5908004606
  0
LINE
  5
47F
100
AcDbEntity
  8
CURVE
100
AcDbLine
 62
253
  6
CONTINUOUS
 10
39.3577302635
 20
9.1393504606
 11
39.3481581799
 21
9.1299754606
  0
LINE
  5
480
100
AcDbEntity
  8
CURVE
100
AcDbLine
 62
253
  6
CONTINUOUS
 10
39.3481581799
 20
9.1018504606
 11
39.3673013473
 21
9.1159124606
  0
LINE
  5
481
100
AcDbEntity
  8
CURVE
100
AcDbLine
 62
253
  6
CONTINUOUS
 10
39.1615130468
 20
9.0924754606
 11
39.27158551
 21
9.1346624606
  0
LINE
  5
482
100
AcDbEntity
  8
CURVE
100
AcDbLine
 62
253
  6
CONTINUOUS
 10
48.1717718075
 20
12.5007054606
 11
50.0646140977
 21
13.2107624606
  0
LINE
  5
483
100
AcDbEntity
  8
CURVE
100
AcDbLine
 62
253
  6
CONTINUOUS
 10
39.2620144261
 20
9.1627874606
 11
39.1615130468
 21
9.1252874606
  0
LINE
  5
484
100
AcDbEntity
  8
CURVE
100
AcDbLine
 62
253
  6
CONTINUOUS
 10
51.0705416124
 20
13.0538344606
 11
49.461135965
 21
12.4549554606
  0
LINE
  5
485
100
AcDbEntity
  8
CURVE
100
AcDbLine
 62
253
  6
CONTINUOUS
 10
39.3481581799
 20
9.1299754606
 11
39.3338005543
 21
9.1252874606
  0
LINE
  5
486
100
AcDbEntity
  8
CURVE
100
AcDbLine
 62
253
  6
CONTINUOUS
 10
39.3338005543
 20
9.0971624606
 11
39.3481581799
 21
9.1018504606
  0
LINE
  5
487
100
AcDbEntity
  8
CURVE
100
AcDbLine
 62
253
  6
CONTINUOUS
 10
51.0705416124
 20
9.3895904606
 11
48.1717718075
 21
8.4999044606
  0
LINE
  5
488
100
AcDbEntity
  8
RACCORDO
100
AcDbLine
 62
7
  6
CONTINUOUS
 10
25.5512891177
 20
-5.9946914779
 11
25.5512891177
 21
-3.4841076009
  0
LINE
  5
489
100
AcDbEntity
  8
ASSI
100
AcDbLine
 62
7
  6
CONTINUOUS
 10
25.5512891177
 20
-5.9946914779
 11
25.5512891177
 21
-3.4841076009
  0
LINE
  5
48A
100
AcDbEntity
  8
RACCORDO
100
AcDbLine
 62
253
  6
CONTINUOUS
 10
25.7495438106
 20
-5.9946914779
 11
25.7495438106
 21
-3.4841076009
  0
LINE
  5
48B
100
AcDbEntity
  8
ASSI
100
AcDbLine
 62
253
  6
CONTINUOUS
 10
25.7495438106
 20
-5.9946914779
 11
25.7495438106
 21
-3.4841076009
  0
LINE
  5
48C
100
AcDbEntity
  8
CURVE
100
AcDbLine
 62
253
  6
CONTINUOUS
 10
39.3673013473
 20
9.1159124606
 11
39.3816589729
 21
9.1346624606
  0
LINE
  5
48D
100
AcDbEntity
  8
CURVE
100
AcDbLine
 62
253
  6
CONTINUOUS
 10
29.8548987425
 20
-13.1036853423
 11
29.8548987425
 21
-13.5679708351
  0
LINE
  5
48E
100
AcDbEntity
  8
SMUSSO
100
AcDbLine
 62
7
  6
CONTINUOUS
 10
33.5512891177
 20
-3.242332367
 11
34.525110508
 21
-2.3960665963
  0
LINE
  5
48F
100
AcDbEntity
  8
ASSI
100
AcDbLine
 62
7
  6
CONTINUOUS
 10
33.5512891177
 20
-3.242332367
 11
34.525110508
 21
-2.3960665963
  0
LINE
  5
490
100
AcDbEntity
  8
CURVE
100
AcDbLine
 62
253
  6
CONTINUOUS
 10
30.2262707602
 20
-12.1132090558
 11
30.2262707602
 21
-12.6084471216
  0
LINE
  5
491
100
AcDbEntity
  8
CURVE
100
AcDbLine
 62
253
  6
CONTINUOUS
 10
31.1547007462
 20
-10.8751138141
 11
31.1547007462
 21
-11.6179709901
  0
LINE
  5
492
100
AcDbEntity
  8
CURVE
100
AcDbLine
 62
253
  6
CONTINUOUS
 10
33.254380906
 20
-13.9441614737
 11
33.254380906
 21
-14.5013043751
  0
LINE
  5
493
100
AcDbEntity
  8
CURVE
100
AcDbLine
 62
253
  6
CONTINUOUS
 10
33.254380906
 20
-13.232256638
 11
33.254380906
 21
-12.7679709901
  0
LINE
  5
494
100
AcDbEntity
  8
SMUSSO
100
AcDbLine
 62
7
  6
CONTINUOUS
 10
33.5512891177
 20
-3.242332367
 11
33.5512891177
 21
-6.2364667118
  0
LINE
  5
495
100
AcDbEntity
  8
ASSI
100
AcDbLine
 62
7
  6
CONTINUOUS
 10
33.5512891177
 20
-3.242332367
 11
33.5512891177
 21
-6.2364667118
  0
LINE
  5
496
100
AcDbEntity
  8
0
100
AcDbLine
 62
7
  6
CONTINUOUS
 10
33.5512891177
 20
-17.8902982408
 11
33.5512891177
 21
-17.8596516931
  0
LINE
  5
497
100
AcDbEntity
  8
ASSI
100
AcDbLine
 62
7
  6
CONTINUOUS
 10
33.5512891177
 20
-17.8902982408
 11
33.5512891177
 21
-17.8596516931
  0
LINE
  5
498
100
AcDbEntity
  8
CURVE
100
AcDbLine
 62
253
  6
CONTINUOUS
 10
33.5543352146
 20
12.4463146577
 11
33.5543352146
 21
11.8891720663
  0
LINE
  5
499
100
AcDbEntity
  8
CURVE
100
AcDbLine
 62
253
  6
CONTINUOUS
 10
33.5543352146
 20
10.0320288549
 11
33.5543352146
 21
10.4963146577
  0
LINE
  5
49A
100
AcDbEntity
  8
CURVE
100
AcDbLine
 62
253
  6
CONTINUOUS
 10
33.6162305492
 20
9.0415527235
 11
33.6162305492
 21
9.1034578691
  0
LINE
  5
49B
100
AcDbEntity
  8
CURVE
100
AcDbLine
 62
253
  6
CONTINUOUS
 10
33.6162305492
 20
13.9320291649
 11
33.6162305492
 21
13.9939336906
  0
LINE
  5
49C
100
AcDbEntity
  8
CURVE
100
AcDbLine
 62
253
  6
CONTINUOUS
 10
33.6257529237
 20
-11.7774947812
 11
33.6257529237
 21
-12.2727329244
  0
LINE
  5
49D
100
AcDbEntity
  8
CURVE
100
AcDbLine
 62
253
  6
CONTINUOUS
 10
39.3625158054
 20
9.1534124606
 11
39.3577302635
 21
9.1393504606
  0
LINE
  5
49E
100
AcDbEntity
  8
CURVE
100
AcDbLine
 62
253
  6
CONTINUOUS
 10
33.7709688883
 20
13.9939336906
 11
33.7709688883
 21
13.9320291649
  0
LINE
  5
49F
100
AcDbEntity
  8
CURVE
100
AcDbLine
 62
253
  6
CONTINUOUS
 10
33.7709688883
 20
9.1034578691
 11
33.7709688883
 21
9.0415527235
  0
LINE
  5
4A0
100
AcDbEntity
  8
CURVE
100
AcDbLine
 62
253
  6
CONTINUOUS
 10
33.9257072322
 20
16.3153623949
 11
33.9257072322
 21
15.8201243291
  0
LINE
  5
4A1
100
AcDbEntity
  8
CURVE
100
AcDbLine
 62
253
  6
CONTINUOUS
 10
33.9971249413
 20
-14.315589868
 11
33.9971249413
 21
-13.9441614737
  0
LINE
  5
4A2
100
AcDbEntity
  8
CURVE
100
AcDbLine
 62
253
  6
CONTINUOUS
 10
34.1113932217
 20
13.0034575592
 11
34.1113932217
 21
13.467743362
  0
LINE
  5
4A3
100
AcDbEntity
  8
CURVE
100
AcDbLine
 62
253
  6
CONTINUOUS
 10
34.1113932217
 20
16.9963147352
 11
34.1113932217
 21
17.4606004606
  0
LINE
  5
4A4
100
AcDbEntity
  8
CURVE
100
AcDbLine
 62
253
  6
CONTINUOUS
 10
34.2970792499
 20
12.0748862634
 11
34.2970792499
 21
12.4463146577
  0
LINE
  5
4A5
100
AcDbEntity
  8
SMUSSO
100
AcDbLine
 62
7
  6
CONTINUOUS
 10
34.525110508
 20
-2.3960665963
 11
34.525110508
 21
-7.0827324825
  0
LINE
  5
4A6
100
AcDbEntity
  8
ASSI
100
AcDbLine
 62
7
  6
CONTINUOUS
 10
34.525110508
 20
-2.3960665963
 11
34.525110508
 21
-7.0827324825
  0
LINE
  5
4A7
100
AcDbEntity
  8
CURVE
100
AcDbLine
 62
253
  6
CONTINUOUS
 10
34.5541829097
 20
-12.7679709901
 11
34.5541829097
 21
-13.232256638
  0
LINE
  5
4A8
100
AcDbEntity
  8
CURVE
100
AcDbLine
 62
253
  6
CONTINUOUS
 10
34.5541829097
 20
-13.9441614737
 11
34.5541829097
 21
-14.5013043751
  0
LINE
  5
4A9
100
AcDbEntity
  8
CURVE
100
AcDbLine
 62
253
  6
CONTINUOUS
 10
34.8541372183
 20
17.4606004606
 11
34.8541372183
 21
16.9963147352
  0
LINE
  5
4AA
100
AcDbEntity
  8
CURVE
100
AcDbLine
 62
253
  6
CONTINUOUS
 10
34.8541372183
 20
15.3248861085
 11
34.8541372183
 21
14.5820291649
  0
LINE
  5
4AB
100
AcDbEntity
  8
CURVE
100
AcDbLine
 62
253
  6
CONTINUOUS
 10
34.8541372183
 20
13.467743362
 11
34.8541372183
 21
13.0034575592
  0
LINE
  5
4AC
100
AcDbEntity
  8
CURVE
100
AcDbLine
 62
253
  6
CONTINUOUS
 10
34.8541372183
 20
12.4463146577
 11
34.8541372183
 21
11.8891720663
  0
LINE
  5
4AD
100
AcDbEntity
  8
CURVE
100
AcDbLine
 62
253
  6
CONTINUOUS
 10
34.8541372183
 20
10.4963146577
 11
34.8541372183
 21
10.0320288549
  0
LINE
  5
4AE
100
AcDbEntity
  8
CURVE
100
AcDbLine
 62
253
  6
CONTINUOUS
 10
39.3816589729
 20
9.1346624606
 11
39.3864445148
 21
9.1581004606
  0
LINE
  5
4AF
100
AcDbEntity
  8
CURVE
100
AcDbLine
 62
253
  6
CONTINUOUS
 10
34.5541829097
 20
-13.232256638
 11
34.3684969203
 21
-13.4179708351
  0
LINE
  5
4B0
100
AcDbEntity
  8
CURVE
100
AcDbLine
 62
7
  6
CONTINUOUS
 10
48.1637702454
 20
-1.2659041395
 11
48.1894848455
 21
-1.2401895394
  0
LINE
  5
4B1
100
AcDbEntity
  8
CURVE
100
AcDbLine
 62
7
  6
CONTINUOUS
 10
48.1637702454
 20
-1.4073254957
 11
48.3309062017
 21
-1.2401895394
  0
LINE
  5
4B2
100
AcDbEntity
  8
CURVE
100
AcDbLine
 62
7
  6
CONTINUOUS
 10
48.1637702454
 20
-1.5487468519
 11
48.4723275579
 21
-1.2401895394
  0
LINE
  5
4B3
100
AcDbEntity
  8
CURVE
100
AcDbLine
 62
253
  6
CONTINUOUS
 10
31.1547007462
 20
-13.9393995394
 11
30.5976427778
 21
-14.3108282437
  0
LINE
  5
4B4
100
AcDbEntity
  8
CURVE
100
AcDbLine
 62
253
  6
CONTINUOUS
 10
34.5541829097
 20
-10.5393995394
 11
33.8114389132
 21
-10.9108281274
  0
LINE
  5
4B5
100
AcDbEntity
  8
CURVE
100
AcDbLine
 62
253
  6
CONTINUOUS
 10
32.854441828
 20
-12.3751138141
 11
31.5546398243
 21
-13.0251138915
  0
LINE
  5
4B6
100
AcDbEntity
  8
CURVE
100
AcDbLine
 62
253
  6
CONTINUOUS
 10
37.1671206968
 20
17.4606004606
 11
37.1671206968
 21
16.8606004606
  0
LINE
  5
4B7
100
AcDbEntity
  8
CURVE
100
AcDbLine
 62
253
  6
CONTINUOUS
 10
37.1671206968
 20
15.9126004606
 11
37.1671206968
 21
15.1926004606
  0
LINE
  5
4B8
100
AcDbEntity
  8
CURVE
100
AcDbLine
 62
253
  6
CONTINUOUS
 10
37.1671206968
 20
14.8506004606
 11
37.1671206968
 21
14.2506004606
  0
LINE
  5
4B9
100
AcDbEntity
  8
CURVE
100
AcDbLine
 62
253
  6
CONTINUOUS
 10
37.1671206968
 20
13.3908004606
 11
37.1671206968
 21
12.7008004606
  0
LINE
  5
4BA
100
AcDbEntity
  8
CURVE
100
AcDbLine
 62
253
  6
CONTINUOUS
 10
37.1671206968
 20
12.3588004606
 11
37.1671206968
 21
11.7588004606
  0
LINE
  5
4BB
100
AcDbEntity
  8
CURVE
100
AcDbLine
 62
253
  6
CONTINUOUS
 10
37.1671206968
 20
10.3788004606
 11
37.1671206968
 21
9.6588004606
  0
LINE
  5
4BC
100
AcDbEntity
  8
CURVE
100
AcDbLine
 62
253
  6
CONTINUOUS
 10
38.8396511114
 20
-14.1393995394
 11
38.8396511114
 21
-12.6788995394
  0
LINE
  5
4BD
100
AcDbEntity
  8
CURVE
100
AcDbLine
 62
253
  6
CONTINUOUS
 10
39.1615130468
 20
9.1252874606
 11
39.1615130468
 21
9.0924754606
  0
LINE
  5
4BE
100
AcDbEntity
  8
CURVE
100
AcDbLine
 62
253
  6
CONTINUOUS
 10
39.1615130468
 20
9.2706004606
 11
39.1615130468
 21
9.2424754606
  0
LINE
  5
4BF
100
AcDbEntity
  8
CURVE
100
AcDbLine
 62
253
  6
CONTINUOUS
 10
39.2620144261
 20
9.2424754606
 11
39.2620144261
 21
9.1627874606
  0
LINE
  5
4C0
100
AcDbEntity
  8
CURVE
100
AcDbLine
 62
253
  6
CONTINUOUS
 10
39.2664810652
 20
9.6588004606
 11
39.2664810652
 21
10.2588004606
  0
LINE
  5
4C1
100
AcDbEntity
  8
CURVE
100
AcDbLine
 62
253
  6
CONTINUOUS
 10
39.2664810652
 20
11.5908004606
 11
39.2664810652
 21
12.3108004606
  0
LINE
  5
4C2
100
AcDbEntity
  8
CURVE
100
AcDbLine
 62
253
  6
CONTINUOUS
 10
39.2664810652
 20
12.7008004606
 11
39.2664810652
 21
13.3008004606
  0
LINE
  5
4C3
100
AcDbEntity
  8
CURVE
100
AcDbLine
 62
253
  6
CONTINUOUS
 10
39.2664810652
 20
14.1606004606
 11
39.2664810652
 21
14.8506004606
  0
LINE
  5
4C4
100
AcDbEntity
  8
CURVE
100
AcDbLine
 62
253
  6
CONTINUOUS
 10
39.2664810652
 20
15.1926004606
 11
39.2664810652
 21
15.7926004606
  0
LINE
  5
4C5
100
AcDbEntity
  8
CURVE
100
AcDbLine
 62
253
  6
CONTINUOUS
 10
39.2664810652
 20
16.8606004606
 11
39.2664810652
 21
17.4606004606
  0
LINE
  5
4C6
100
AcDbEntity
  8
CURVE
100
AcDbLine
 62
253
  6
CONTINUOUS
 10
39.2907286775
 20
9.1534124606
 11
39.2907286775
 21
9.2424754606
  0
LINE
  5
4C7
100
AcDbEntity
  8
CURVE
100
AcDbLine
 62
253
  6
CONTINUOUS
 10
39.3625158054
 20
9.2424754606
 11
39.3625158054
 21
9.1534124606
  0
LINE
  5
4C8
100
AcDbEntity
  8
CURVE
100
AcDbLine
 62
253
  6
CONTINUOUS
 10
39.3864445148
 20
17.4606004606
 11
39.3864445148
 21
16.8606004606
  0
LINE
  5
4C9
100
AcDbEntity
  8
CURVE
100
AcDbLine
 62
253
  6
CONTINUOUS
 10
39.3864445148
 20
10.2606004606
 11
39.3864445148
 21
9.6606004606
  0
LINE
  5
4CA
100
AcDbEntity
  8
CURVE
100
AcDbLine
 62
253
  6
CONTINUOUS
 10
39.3864445148
 20
9.1581004606
 11
39.3864445148
 21
9.2706004606
  0
LINE
  5
4CB
100
AcDbEntity
  8
CURVE
100
AcDbLine
 62
253
  6
CONTINUOUS
 10
39.5894226716
 20
-12.6788995394
 11
39.5894226716
 21
-14.1393995394
  0
LINE
  5
4CC
100
AcDbEntity
  8
CURVE
100
AcDbLine
 62
7
  6
CONTINUOUS
 10
48.1637702454
 20
-1.6901682082
 11
48.6137489142
 21
-1.2401895394
  0
LINE
  5
4CD
100
AcDbEntity
  8
CURVE
100
AcDbLine
 62
7
  6
CONTINUOUS
 10
48.1637702454
 20
-1.8315895644
 11
48.7551702704
 21
-1.2401895394
  0
LINE
  5
4CE
100
AcDbEntity
  8
CURVE
100
AcDbLine
 62
7
  6
CONTINUOUS
 10
48.2739856267
 20
-1.8627955394
 11
48.8965916267
 21
-1.2401895394
  0
LINE
  5
4CF
100
AcDbEntity
  8
CURVE
100
AcDbLine
 62
7
  6
CONTINUOUS
 10
48.4154069829
 20
-1.8627955394
 11
49.0380129829
 21
-1.2401895394
  0
LINE
  5
4D0
100
AcDbEntity
  8
CURVE
100
AcDbLine
 62
7
  6
CONTINUOUS
 10
48.5568283391
 20
-1.8627955394
 11
49.1794343391
 21
-1.2401895394
  0
LINE
  5
4D1
100
AcDbEntity
  8
CURVE
100
AcDbLine
 62
7
  6
CONTINUOUS
 10
48.6982496954
 20
-1.8627955394
 11
49.3208556954
 21
-1.2401895394
  0
LINE
  5
4D2
100
AcDbEntity
  8
CURVE
100
AcDbLine
 62
7
  6
CONTINUOUS
 10
48.8396710516
 20
-1.8627955394
 11
49.4622770516
 21
-1.2401895394
  0
LINE
  5
4D3
100
AcDbEntity
  8
CURVE
100
AcDbLine
 62
7
  6
CONTINUOUS
 10
48.9810924078
 20
-1.8627955394
 11
49.6036984078
 21
-1.2401895394
  0
LINE
  5
4D4
100
AcDbEntity
  8
CURVE
100
AcDbLine
 62
7
  6
CONTINUOUS
 10
49.1225137641
 20
-1.8627955394
 11
49.7451197641
 21
-1.2401895394
  0
LINE
  5
4D5
100
AcDbEntity
  8
CURVE
100
AcDbLine
 62
7
  6
CONTINUOUS
 10
49.2639351203
 20
-1.8627955394
 11
49.8865411203
 21
-1.2401895394
  0
LINE
  5
4D6
100
AcDbEntity
  8
CURVE
100
AcDbLine
 62
7
  6
CONTINUOUS
 10
49.2801919555
 20
-1.9879600604
 11
50.0279624766
 21
-1.2401895394
  0
LINE
  5
4D7
100
AcDbEntity
  8
CURVE
100
AcDbLine
 62
7
  6
CONTINUOUS
 10
49.2802609004
 20
-2.1293124718
 11
50.1693838328
 21
-1.2401895394
  0
LINE
  5
4D8
100
AcDbEntity
  8
CURVE
100
AcDbLine
 62
7
  6
CONTINUOUS
 10
49.2860060316
 20
-2.2649886969
 11
50.310805189
 21
-1.2401895394
  0
LINE
  5
4D9
100
AcDbEntity
  8
CURVE
100
AcDbLine
 62
7
  6
CONTINUOUS
 10
49.2934140518
 20
-2.3990020328
 11
49.7619782369
 21
-1.9304378477
  0
LINE
  5
4DA
100
AcDbEntity
  8
CURVE
100
AcDbLine
 62
7
  6
CONTINUOUS
 10
49.8296205453
 20
-1.8627955394
 11
50.4522265453
 21
-1.2401895394
  0
LINE
  5
4DB
100
AcDbEntity
  8
CURVE
100
AcDbLine
 62
7
  6
CONTINUOUS
 10
49.3047968573
 20
-2.5290405837
 11
49.7619780956
 21
-2.0718593453
  0
LINE
  5
4DC
100
AcDbEntity
  8
CURVE
100
AcDbLine
 62
7
  6
CONTINUOUS
 10
49.9710419015
 20
-1.8627955394
 11
50.5936479015
 21
-1.2401895394
  0
LINE
  5
4DD
100
AcDbEntity
  8
CURVE
100
AcDbLine
 62
7
  6
CONTINUOUS
 10
48.1637702454
 20
-3.8114885517
 11
48.2647262577
 21
-3.7105325394
  0
LINE
  5
4DE
100
AcDbEntity
  8
CURVE
100
AcDbLine
 62
7
  6
CONTINUOUS
 10
49.326077829
 20
-2.6491809682
 11
49.7619779543
 21
-2.2132808428
  0
LINE
  5
4DF
100
AcDbEntity
  8
CURVE
100
AcDbLine
 62
7
  6
CONTINUOUS
 10
50.1124632577
 20
-1.8627955394
 11
50.7350692577
 21
-1.2401895394
  0
LINE
  5
4E0
100
AcDbEntity
  8
CURVE
100
AcDbLine
 62
7
  6
CONTINUOUS
 10
48.1637702454
 20
-3.952909908
 11
48.406147614
 21
-3.7105325394
  0
LINE
  5
4E1
100
AcDbEntity
  8
CURVE
100
AcDbLine
 62
7
  6
CONTINUOUS
 10
49.3596731577
 20
-2.7570069957
 11
49.7766477799
 21
-2.3400323735
  0
LINE
  5
4E2
100
AcDbEntity
  8
CURVE
100
AcDbLine
 62
7
  6
CONTINUOUS
 10
50.253884614
 20
-1.8627955394
 11
50.876490614
 21
-1.2401895394
  0
LINE
  5
4E3
100
AcDbEntity
  8
CURVE
100
AcDbLine
 62
7
  6
CONTINUOUS
 10
48.1637702454
 20
-4.0943312642
 11
48.5475689702
 21
-3.7105325394
  0
LINE
  5
4E4
100
AcDbEntity
  8
CURVE
100
AcDbLine
 62
7
  6
CONTINUOUS
 10
49.3988535571
 20
-2.8592479525
 11
49.8004451861
 21
-2.4576563236
  0
LINE
  5
4E5
100
AcDbEntity
  8
CURVE
100
AcDbLine
 62
7
  6
CONTINUOUS
 10
50.3953059702
 20
-1.8627955394
 11
51.0179119702
 21
-1.2401895394
  0
LINE
  5
4E6
100
AcDbEntity
  8
CURVE
100
AcDbLine
 62
7
  6
CONTINUOUS
 10
48.1637702454
 20
-4.2357526204
 11
48.6889903265
 21
-3.7105325394
  0
LINE
  5
4E7
100
AcDbEntity
  8
CURVE
100
AcDbLine
 62
7
  6
CONTINUOUS
 10
49.4439756644
 20
-2.9555472015
 11
49.8553498269
 21
-2.5441730389
  0
LINE
  5
4E8
100
AcDbEntity
  8
CURVE
100
AcDbLine
 62
7
  6
CONTINUOUS
 10
50.5367273265
 20
-1.8627955394
 11
51.0628879443
 21
-1.3366349216
  0
LINE
  5
4E9
100
AcDbEntity
  8
CURVE
100
AcDbLine
 62
7
  6
CONTINUOUS
 10
48.1637702454
 20
-4.3771739767
 11
48.8304116827
 21
-3.7105325394
  0
LINE
  5
4EA
100
AcDbEntity
  8
CURVE
100
AcDbLine
 62
7
  6
CONTINUOUS
 10
49.5004285556
 20
-3.0405156665
 11
49.9347652573
 21
-2.6061789649
  0
LINE
  5
4EB
100
AcDbEntity
  8
CURVE
100
AcDbLine
 62
7
  6
CONTINUOUS
 10
50.5811017346
 20
-1.9598424875
 11
51.0628879443
 21
-1.4780562778
  0
LINE
  5
4EC
100
AcDbEntity
  8
CURVE
100
AcDbLine
 62
7
  6
CONTINUOUS
 10
48.1637702454
 20
-4.5185953329
 11
48.9718330389
 21
-3.7105325394
  0
LINE
  5
4ED
100
AcDbEntity
  8
CURVE
100
AcDbLine
 62
7
  6
CONTINUOUS
 10
49.567413399
 20
-3.1149521793
 11
50.0374003053
 21
-2.644965273
  0
LINE
  5
4EE
100
AcDbEntity
  8
CURVE
100
AcDbLine
 62
7
  6
CONTINUOUS
 10
50.5811017346
 20
-2.1012638438
 11
51.0628879443
 21
-1.619477634
  0
LINE
  5
4EF
100
AcDbEntity
  8
CURVE
100
AcDbLine
 62
7
  6
CONTINUOUS
 10
48.1637702454
 20
-4.6600166891
 11
49.1132543952
 21
-3.7105325394
  0
LINE
  5
4F0
100
AcDbEntity
  8
CURVE
100
AcDbLine
 62
7
  6
CONTINUOUS
 10
49.6449827905
 20
-3.1788041441
 11
50.1657519627
 21
-2.6580349718
  0
LINE
  5
4F1
100
AcDbEntity
  8
CURVE
100
AcDbLine
 62
7
  6
CONTINUOUS
 10
50.5788783323
 20
-2.2449086022
 11
51.0628879443
 21
-1.7608989903
  0
LINE
  5
4F2
100
AcDbEntity
  8
CURVE
100
AcDbLine
 62
7
  6
CONTINUOUS
 10
48.1637702454
 20
-4.8014380454
 11
49.2546757514
 21
-3.7105325394
  0
LINE
  5
4F3
100
AcDbEntity
  8
CURVE
100
AcDbLine
 62
7
  6
CONTINUOUS
 10
49.7339917815
 20
-3.2312165093
 11
50.3245252746
 21
-2.6406830163
  0
LINE
  5
4F4
100
AcDbEntity
  8
CURVE
100
AcDbLine
 62
7
  6
CONTINUOUS
 10
50.5547219366
 20
-2.4104863543
 11
51.0628879443
 21
-1.9023203465
  0
LINE
  5
4F5
100
AcDbEntity
  8
CURVE
100
AcDbLine
 62
7
  6
CONTINUOUS
 10
48.1637702454
 20
-4.9428594016
 11
48.6455564552
 21
-4.4610731919
  0
LINE
  5
4F6
100
AcDbEntity
  8
CURVE
100
AcDbLine
 62
7
  6
CONTINUOUS
 10
48.7734911076
 20
-4.3331385394
 11
49.3960971076
 21
-3.7105325394
  0
LINE
  5
4F7
100
AcDbEntity
  8
CURVE
100
AcDbLine
 62
7
  6
CONTINUOUS
 10
49.8343142802
 20
-3.2723153668
 11
51.0628879443
 21
-2.0437417028
  0
LINE
  5
4F8
100
AcDbEntity
  8
CURVE
100
AcDbLine
 62
7
  6
CONTINUOUS
 10
48.1637702454
 20
-5.0842807579
 11
48.6455564552
 21
-4.6024945481
  0
LINE
  5
4F9
100
AcDbEntity
  8
CURVE
100
AcDbLine
 62
7
  6
CONTINUOUS
 10
48.9149124639
 20
-4.3331385394
 11
49.5375184639
 21
-3.7105325394
  0
LINE
  5
4FA
100
AcDbEntity
  8
CURVE
100
AcDbLine
 62
7
  6
CONTINUOUS
 10
49.9475311986
 20
-3.3005198047
 11
51.0604390185
 21
-2.1876119848
  0
LINE
  5
4FB
100
AcDbEntity
  8
CURVE
100
AcDbLine
 62
7
  6
CONTINUOUS
 10
48.1637702454
 20
-5.2257021141
 11
48.6455564552
 21
-4.7439159044
  0
LINE
  5
4FC
100
AcDbEntity
  8
CURVE
100
AcDbLine
 62
7
  6
CONTINUOUS
 10
49.0563338201
 20
-4.3331385394
 11
49.6789398201
 21
-3.7105325394
  0
LINE
  5
4FD
100
AcDbEntity
  8
CURVE
100
AcDbLine
 62
7
  6
CONTINUOUS
 10
50.0720899319
 20
-3.3173824276
 11
51.0531292251
 21
-2.3363431345
  0
LINE
  5
4FE
100
AcDbEntity
  8
CURVE
100
AcDbLine
 62
7
  6
CONTINUOUS
 10
48.1637702454
 20
-5.3671234703
 11
48.6455564552
 21
-4.8853372606
  0
LINE
  5
4FF
100
AcDbEntity
  8
CURVE
100
AcDbLine
 62
7
  6
CONTINUOUS
 10
49.1977551764
 20
-4.3331385394
 11
49.8203611764
 21
-3.7105325394
  0
LINE
  5
500
100
AcDbEntity
  8
CURVE
100
AcDbLine
 62
7
  6
CONTINUOUS
 10
50.2113873498
 20
-3.319506366
 11
51.0430139844
 21
-2.4878797313
  0
LINE
  5
501
100
AcDbEntity
  8
CURVE
100
AcDbLine
 62
7
  6
CONTINUOUS
 10
48.2661775326
 20
-5.4061375394
 11
48.6455564552
 21
-5.0267586169
  0
LINE
  5
502
100
AcDbEntity
  8
CURVE
100
AcDbLine
 62
7
  6
CONTINUOUS
 10
49.3391765326
 20
-4.3331385394
 11
49.9617825326
 21
-3.7105325394
  0
LINE
  5
503
100
AcDbEntity
  8
CURVE
100
AcDbLine
 62
7
  6
CONTINUOUS
 10
50.3659334604
 20
-3.3063816116
 11
51.014430524
 21
-2.657884548
  0
LINE
  5
504
100
AcDbEntity
  8
CURVE
100
AcDbLine
 62
7
  6
CONTINUOUS
 10
48.4075988888
 20
-5.4061375394
 11
48.6455564552
 21
-5.1681799731
  0
LINE
  5
505
100
AcDbEntity
  8
CURVE
100
AcDbLine
 62
7
  6
CONTINUOUS
 10
49.4805978888
 20
-4.3331385394
 11
50.1032038888
 21
-3.7105325394
  0
LINE
  5
506
100
AcDbEntity
  8
CURVE
100
AcDbLine
 62
7
  6
CONTINUOUS
 10
50.5605753341
 20
-3.2531610941
 11
50.9366357632
 21
-2.877100665
  0
LINE
  5
507
100
AcDbEntity
  8
CURVE
100
AcDbLine
 62
7
  6
CONTINUOUS
 10
48.1637702454
 20
-5.791387539
 11
48.2169971416
 21
-5.7381606428
  0
LINE
  5
508
100
AcDbEntity
  8
CURVE
100
AcDbLine
 62
7
  6
CONTINUOUS
 10
48.5490202451
 20
-5.4061375394
 11
48.6455564552
 21
-5.3096013293
  0
LINE
  5
509
100
AcDbEntity
  8
CURVE
100
AcDbLine
 62
7
  6
CONTINUOUS
 10
49.6220192451
 20
-4.3331385394
 11
50.2446252451
 21
-3.7105325394
  0
LINE
  5
50A
100
AcDbEntity
  8
CURVE
100
AcDbLine
 62
7
  6
CONTINUOUS
 10
48.1637702454
 20
-5.9328088953
 11
48.3208608705
 21
-5.7757182702
  0
LINE
  5
50B
100
AcDbEntity
  8
CURVE
100
AcDbLine
 62
7
  6
CONTINUOUS
 10
49.7634406013
 20
-4.3331385394
 11
50.3860466013
 21
-3.7105325394
  0
LINE
  5
50C
100
AcDbEntity
  8
CURVE
100
AcDbLine
 62
7
  6
CONTINUOUS
 10
48.1637702454
 20
-6.0742302515
 11
48.4247245994
 21
-5.8132758976
  0
LINE
  5
50D
100
AcDbEntity
  8
CURVE
100
AcDbLine
 62
7
  6
CONTINUOUS
 10
49.9048619575
 20
-4.3331385394
 11
50.5274679575
 21
-3.7105325394
  0
LINE
  5
50E
100
AcDbEntity
  8
CURVE
100
AcDbLine
 62
7
  6
CONTINUOUS
 10
48.1637702454
 20
-6.2156516078
 11
48.5285883283
 21
-5.8508335249
  0
LINE
  5
50F
100
AcDbEntity
  8
CURVE
100
AcDbLine
 62
7
  6
CONTINUOUS
 10
50.0462833138
 20
-4.3331385394
 11
50.6688893138
 21
-3.7105325394
  0
LINE
  5
510
100
AcDbEntity
  8
CURVE
100
AcDbLine
 62
7
  6
CONTINUOUS
 10
48.1960778852
 20
-6.3247653242
 11
48.6324520571
 21
-5.8883911523
  0
LINE
  5
511
100
AcDbEntity
  8
CURVE
100
AcDbLine
 62
7
  6
CONTINUOUS
 10
50.18770467
 20
-4.3331385394
 11
50.81031067
 21
-3.7105325394
  0
LINE
  5
512
100
AcDbEntity
  8
CURVE
100
AcDbLine
 62
7
  6
CONTINUOUS
 10
48.3006088938
 20
-6.3616556719
 11
48.736315786
 21
-5.9259487797
  0
LINE
  5
513
100
AcDbEntity
  8
CURVE
100
AcDbLine
 62
7
  6
CONTINUOUS
 10
50.3291260263
 20
-4.3331385394
 11
50.9517320263
 21
-3.7105325394
  0
LINE
  5
514
100
AcDbEntity
  8
CURVE
100
AcDbLine
 62
253
  6
CONTINUOUS
 10
48.1637702454
 20
-8.5144735394
 11
51.0628879443
 21
-7.5062995394
  0
LINE
  5
515
100
AcDbEntity
  8
CURVE
100
AcDbLine
 62
253
  6
CONTINUOUS
 10
48.7782220347
 20
-7.6789485394
 11
48.1637702454
 21
-7.8878305394
  0
LINE
  5
516
100
AcDbEntity
  8
CURVE
100
AcDbLine
 62
253
  6
CONTINUOUS
 10
50.508896734
 20
-7.1208705394
 11
49.2600082444
 21
-7.5223425394
  0
LINE
  5
517
100
AcDbEntity
  8
CURVE
100
AcDbLine
 62
253
  6
CONTINUOUS
 10
31.1547007462
 20
-12.3608280887
 11
29.8548987425
 21
-12.732256638
  0
LINE
  5
518
100
AcDbEntity
  8
CURVE
100
AcDbLine
 62
253
  6
CONTINUOUS
 10
34.5541829097
 20
-12.0251138915
 11
33.254380906
 21
-12.3965424408
  0
LINE
  5
519
100
AcDbEntity
  8
CURVE
100
AcDbLine
 62
253
  6
CONTINUOUS
 10
30.5976427778
 20
-14.3108282437
 11
31.1547007462
 21
-14.682256638
  0
LINE
  5
51A
100
AcDbEntity
  8
CURVE
100
AcDbLine
 62
253
  6
CONTINUOUS
 10
33.4400669149
 20
-13.4179708351
 11
33.254380906
 21
-13.232256638
  0
LINE
  5
51B
100
AcDbEntity
  8
ASSI
100
AcDbLine
 62
7
  6
CONTINUOUS
 10
43.5512891177
 20
22.4565960063
 11
43.5512891177
 21
22.0435247438
  0
LINE
  5
51C
100
AcDbEntity
  8
DRAFT
100
AcDbLine
 62
7
  6
CONTINUOUS
 10
43.5512891177
 20
21.1860498113
 11
43.5512891177
 21
20.9860498113
  0
LINE
  5
51D
100
AcDbEntity
  8
DRAFT
100
AcDbLine
 62
7
  6
CONTINUOUS
 10
43.5512891177
 20
-18.0648488901
 11
43.5512891177
 21
-18.2648488901
  0
LINE
  5
51E
100
AcDbEntity
  8
ASSI
100
AcDbLine
 62
7
  6
CONTINUOUS
 10
43.5512891177
 20
-20.5683094375
 11
43.5512891177
 21
-19.8520927831
  0
LINE
  5
51F
100
AcDbEntity
  8
RACCORDO
100
AcDbLine
 62
7
  6
CONTINUOUS
 10
43.5512891177
 20
-20.5683094375
 11
43.5512891177
 21
-18.2648488901
  0
LINE
  5
520
100
AcDbEntity
  8
ASSI
100
AcDbLine
 62
7
  6
CONTINUOUS
 10
43.5512891177
 20
-18.4964176562
 11
43.5512891177
 21
-18.0648488901
  0
LINE
  5
521
100
AcDbEntity
  8
RACCORDO
100
AcDbLine
 62
7
  6
CONTINUOUS
 10
43.5512891177
 20
21.1860498113
 11
43.5512891177
 21
21.9463426444
  0
LINE
  5
522
100
AcDbEntity
  8
ASSI
100
AcDbLine
 62
7
  6
CONTINUOUS
 10
43.5512891177
 20
20.9860498113
 11
43.5512891177
 21
21.9463426444
  0
LINE
  5
523
100
AcDbEntity
  8
RACCORDO
100
AcDbLine
 62
7
  6
CONTINUOUS
 10
43.5512891177
 20
22.4565960063
 11
43.5512891177
 21
23.4895103587
  0
LINE
  5
524
100
AcDbEntity
  8
ASSI
100
AcDbLine
 62
7
  6
CONTINUOUS
 10
43.5512891177
 20
22.7732937043
 11
43.5512891177
 21
23.4895103587
  0
LINE
  5
525
100
AcDbEntity
  8
RACCORDO
100
AcDbLine
 62
253
  6
CONTINUOUS
 10
43.7477986364
 20
-20.5683094375
 11
43.7477986364
 21
-20.4470993028
  0
LINE
  5
526
100
AcDbEntity
  8
ASSI
100
AcDbLine
 62
253
  6
CONTINUOUS
 10
43.7477986364
 20
-20.5683094375
 11
43.7477986364
 21
-20.4470993028
  0
LINE
  5
527
100
AcDbEntity
  8
RACCORDO
100
AcDbLine
 62
253
  6
CONTINUOUS
 10
43.7477986364
 20
-18.2964210409
 11
43.7477986364
 21
-18.2682789765
  0
LINE
  5
528
100
AcDbEntity
  8
ASSI
100
AcDbLine
 62
253
  6
CONTINUOUS
 10
43.7477986364
 20
-18.2964210409
 11
43.7477986364
 21
-18.2682789765
  0
LINE
  5
529
100
AcDbEntity
  8
RACCORDO
100
AcDbLine
 62
253
  6
CONTINUOUS
 10
43.7477986364
 20
21.1894798977
 11
43.7477986364
 21
21.6467010406
  0
LINE
  5
52A
100
AcDbEntity
  8
ASSI
100
AcDbLine
 62
253
  6
CONTINUOUS
 10
43.7477986364
 20
21.1894798977
 11
43.7477986364
 21
21.6467010406
  0
LINE
  5
52B
100
AcDbEntity
  8
RACCORDO
100
AcDbLine
 62
253
  6
CONTINUOUS
 10
43.7477986364
 20
23.3683029037
 11
43.7477986364
 21
23.4895103587
  0
LINE
  5
52C
100
AcDbEntity
  8
ASSI
100
AcDbLine
 62
253
  6
CONTINUOUS
 10
43.7477986364
 20
23.3683029037
 11
43.7477986364
 21
23.4895103587
  0
LINE
  5
52D
100
AcDbEntity
  8
CURVE
100
AcDbLine
 62
7
  6
CONTINUOUS
 10
48.4051399023
 20
-6.3985460196
 11
48.8401795149
 21
-5.963506407
  0
LINE
  5
52E
100
AcDbEntity
  8
CURVE
100
AcDbLine
 62
7
  6
CONTINUOUS
 10
50.4705473825
 20
-4.3331385394
 11
51.0628879443
 21
-3.7407979776
  0
LINE
  5
52F
100
AcDbEntity
  8
CURVE
100
AcDbLine
 62
7
  6
CONTINUOUS
 10
48.5096709109
 20
-6.4354363673
 11
48.9440432438
 21
-6.0010640344
  0
LINE
  5
530
100
AcDbEntity
  8
CURVE
100
AcDbLine
 62
7
  6
CONTINUOUS
 10
50.6119687387
 20
-4.3331385394
 11
51.0628879443
 21
-3.8822193338
  0
LINE
  5
531
100
AcDbEntity
  8
CURVE
100
AcDbLine
 62
7
  6
CONTINUOUS
 10
48.6142019194
 20
-6.472326715
 11
49.0479069726
 21
-6.0386216617
  0
LINE
  5
532
100
AcDbEntity
  8
CURVE
100
AcDbLine
 62
7
  6
CONTINUOUS
 10
50.753390095
 20
-4.3331385394
 11
51.0628879443
 21
-4.0236406901
  0
LINE
  5
533
100
AcDbEntity
  8
CURVE
100
AcDbLine
 62
7
  6
CONTINUOUS
 10
48.718732928
 20
-6.5092170626
 11
49.1517707015
 21
-6.0761792891
  0
LINE
  5
534
100
AcDbEntity
  8
CURVE
100
AcDbLine
 62
7
  6
CONTINUOUS
 10
50.8948114512
 20
-4.3331385394
 11
51.0628879443
 21
-4.1650620463
  0
LINE
  5
535
100
AcDbEntity
  8
CURVE
100
AcDbLine
 62
7
  6
CONTINUOUS
 10
48.7782220347
 20
-6.5911493122
 11
49.2556344304
 21
-6.1137369165
  0
LINE
  5
536
100
AcDbEntity
  8
CURVE
100
AcDbLine
 62
7
  6
CONTINUOUS
 10
51.0362328074
 20
-4.3331385394
 11
51.0628879443
 21
-4.3064834025
  0
LINE
  5
537
100
AcDbEntity
  8
CURVE
100
AcDbLine
 62
7
  6
CONTINUOUS
 10
48.7782220347
 20
-6.7325706684
 11
49.3594981593
 21
-6.1512945438
  0
LINE
  5
538
100
AcDbEntity
  8
CURVE
100
AcDbLine
 62
7
  6
CONTINUOUS
 10
48.7782220347
 20
-6.8739920246
 11
49.4633618881
 21
-6.1888521712
  0
LINE
  5
539
100
AcDbEntity
  8
CURVE
100
AcDbLine
 62
7
  6
CONTINUOUS
 10
48.7782220347
 20
-7.0154133809
 11
49.567225617
 21
-6.2264097985
  0
LINE
  5
53A
100
AcDbEntity
  8
CURVE
100
AcDbLine
 62
7
  6
CONTINUOUS
 10
48.7782220347
 20
-7.1568347371
 11
49.6710893459
 21
-6.2639674259
  0
LINE
  5
53B
100
AcDbEntity
  8
CURVE
100
AcDbLine
 62
7
  6
CONTINUOUS
 10
48.1637702454
 20
-7.9127078826
 11
48.201460252
 21
-7.875017876
  0
LINE
  5
53C
100
AcDbEntity
  8
CURVE
100
AcDbLine
 62
7
  6
CONTINUOUS
 10
48.7782220347
 20
-7.2982560933
 11
49.2600082444
 21
-6.8164698836
  0
LINE
  5
53D
100
AcDbEntity
  8
CURVE
100
AcDbLine
 62
7
  6
CONTINUOUS
 10
49.3534491775
 20
-6.7230289505
 11
49.7749530748
 21
-6.3015250533
  0
LINE
  5
53E
100
AcDbEntity
  8
CURVE
100
AcDbLine
 62
7
  6
CONTINUOUS
 10
48.1637702454
 20
-8.0541292388
 11
48.4157183346
 21
-7.8021811497
  0
LINE
  5
53F
100
AcDbEntity
  8
CURVE
100
AcDbLine
 62
7
  6
CONTINUOUS
 10
48.7782220347
 20
-7.4396774496
 11
49.2600082444
 21
-6.9578912399
  0
LINE
  5
540
100
AcDbEntity
  8
CURVE
100
AcDbLine
 62
7
  6
CONTINUOUS
 10
49.4586484966
 20
-6.7592509877
 11
49.8788168036
 21
-6.3390826806
  0
LINE
  5
541
100
AcDbEntity
  8
CURVE
100
AcDbLine
 62
7
  6
CONTINUOUS
 10
48.1637702454
 20
-8.1955505951
 11
48.6299764171
 21
-7.7293444234
  0
LINE
  5
542
100
AcDbEntity
  8
CURVE
100
AcDbLine
 62
7
  6
CONTINUOUS
 10
48.7782220347
 20
-7.5810988058
 11
49.2600082444
 21
-7.0993125961
  0
LINE
  5
543
100
AcDbEntity
  8
CURVE
100
AcDbLine
 62
7
  6
CONTINUOUS
 10
49.5638478157
 20
-6.7954730248
 11
49.9826805325
 21
-6.376640308
  0
LINE
  5
544
100
AcDbEntity
  8
CURVE
100
AcDbLine
 62
7
  6
CONTINUOUS
 10
48.1637702454
 20
-8.3369719513
 11
49.2600082444
 21
-7.2407339523
  0
LINE
  5
545
100
AcDbEntity
  8
CURVE
100
AcDbLine
 62
7
  6
CONTINUOUS
 10
49.6690471349
 20
-6.8316950619
 11
50.0865442614
 21
-6.4141979354
  0
LINE
  5
546
100
AcDbEntity
  8
CURVE
100
AcDbLine
 62
7
  6
CONTINUOUS
 10
48.1637702454
 20
-8.4783933076
 11
49.2600082444
 21
-7.3821553086
  0
LINE
  5
547
100
AcDbEntity
  8
CURVE
100
AcDbLine
 62
7
  6
CONTINUOUS
 10
49.774246454
 20
-6.867917099
 11
50.1904079903
 21
-6.4517555627
  0
LINE
  5
548
100
AcDbEntity
  8
CURVE
100
AcDbLine
 62
7
  6
CONTINUOUS
 10
48.3252749578
 20
-8.4583099515
 11
49.261827049
 21
-7.5217578602
  0
LINE
  5
549
100
AcDbEntity
  8
CURVE
100
AcDbLine
 62
7
  6
CONTINUOUS
 10
49.8794457731
 20
-6.9041391361
 11
50.2942717191
 21
-6.4893131901
  0
LINE
  5
54A
100
AcDbEntity
  8
CURVE
100
AcDbLine
 62
7
  6
CONTINUOUS
 10
48.5420964089
 20
-8.3829098565
 11
49.470248181
 21
-7.4547580845
  0
LINE
  5
54B
100
AcDbEntity
  8
CURVE
100
AcDbLine
 62
7
  6
CONTINUOUS
 10
49.9846450923
 20
-6.9403611732
 11
50.398135448
 21
-6.5268708174
  0
LINE
  5
54C
100
AcDbEntity
  8
CURVE
100
AcDbLine
 62
7
  6
CONTINUOUS
 10
48.1637702454
 20
-8.9026573763
 11
48.2347030823
 21
-8.8317245394
  0
LINE
  5
54D
100
AcDbEntity
  8
CURVE
100
AcDbLine
 62
7
  6
CONTINUOUS
 10
48.7589178601
 20
-8.3075097616
 11
49.6786693129
 21
-7.3877583088
  0
LINE
  5
54E
100
AcDbEntity
  8
CURVE
100
AcDbLine
 62
7
  6
CONTINUOUS
 10
50.0898444114
 20
-6.9765832103
 11
50.5019991769
 21
-6.5644284448
  0
LINE
  5
54F
100
AcDbEntity
  8
CURVE
100
AcDbLine
 62
7
  6
CONTINUOUS
 10
48.1637702454
 20
-9.0440787325
 11
48.3761244385
 21
-8.8317245394
  0
LINE
  5
550
100
AcDbEntity
  8
CURVE
100
AcDbLine
 62
7
  6
CONTINUOUS
 10
48.9757393113
 20
-8.2321096667
 11
49.8870904449
 21
-7.3207585331
  0
LINE
  5
551
100
AcDbEntity
  8
CURVE
100
AcDbLine
 62
7
  6
CONTINUOUS
 10
50.1950437305
 20
-7.0128052474
 11
50.6058629058
 21
-6.6019860722
  0
LINE
  5
552
100
AcDbEntity
  8
CURVE
100
AcDbLine
 62
7
  6
CONTINUOUS
 10
48.1637702454
 20
-9.1855000887
 11
48.5175457948
 21
-8.8317245394
  0
LINE
  5
553
100
AcDbEntity
  8
CURVE
100
AcDbLine
 62
7
  6
CONTINUOUS
 10
49.1925607624
 20
-8.1567095717
 11
50.0955115768
 21
-7.2537587574
  0
LINE
  5
554
100
AcDbEntity
  8
CURVE
100
AcDbLine
 62
7
  6
CONTINUOUS
 10
50.3002430496
 20
-7.0490272845
 11
50.7097266347
 21
-6.6395436995
  0
LINE
  5
555
100
AcDbEntity
  8
CURVE
100
AcDbLine
 62
7
  6
CONTINUOUS
 10
48.1637702454
 20
-9.326921445
 11
48.658967151
 21
-8.8317245394
  0
LINE
  5
556
100
AcDbEntity
  8
CURVE
100
AcDbLine
 62
7
  6
CONTINUOUS
 10
49.4093822136
 20
-8.0813094768
 11
50.3039327087
 21
-7.1867589817
  0
LINE
  5
557
100
AcDbEntity
  8
CURVE
100
AcDbLine
 62
7
  6
CONTINUOUS
 10
50.4054423688
 20
-7.0852493216
 11
50.8135903635
 21
-6.6771013269
  0
LINE
  5
558
100
AcDbEntity
  8
CURVE
100
AcDbLine
 62
7
  6
CONTINUOUS
 10
48.2179435072
 20
-9.4141695394
 11
48.8003885072
 21
-8.8317245394
  0
LINE
  5
559
100
AcDbEntity
  8
CURVE
100
AcDbLine
 62
7
  6
CONTINUOUS
 10
49.6262036648
 20
-8.0059093819
 11
50.9174540924
 21
-6.7146589542
  0
LINE
  5
55A
100
AcDbEntity
  8
CURVE
100
AcDbLine
 62
7
  6
CONTINUOUS
 10
48.3593648635
 20
-9.4141695394
 11
48.9418098635
 21
-8.8317245394
  0
LINE
  5
55B
100
AcDbEntity
  8
CURVE
100
AcDbLine
 62
7
  6
CONTINUOUS
 10
49.8430251159
 20
-7.930509287
 11
51.0213178213
 21
-6.7522165816
  0
LINE
  5
55C
100
AcDbEntity
  8
CURVE
100
AcDbLine
 62
7
  6
CONTINUOUS
 10
48.5007862197
 20
-9.4141695394
 11
49.0832312197
 21
-8.8317245394
  0
LINE
  5
55D
100
AcDbEntity
  8
CURVE
100
AcDbLine
 62
7
  6
CONTINUOUS
 10
50.0598465671
 20
-7.855109192
 11
51.0628879443
 21
-6.8520678148
  0
LINE
  5
55E
100
AcDbEntity
  8
CURVE
100
AcDbLine
 62
7
  6
CONTINUOUS
 10
48.642207576
 20
-9.4141695394
 11
49.224652576
 21
-8.8317245394
  0
LINE
  5
55F
100
AcDbEntity
  8
CURVE
100
AcDbLine
 62
7
  6
CONTINUOUS
 10
50.2766680183
 20
-7.7797090971
 11
51.0628879443
 21
-6.9934891711
  0
LINE
  5
560
100
AcDbEntity
  8
CURVE
100
AcDbLine
 62
253
  6
CONTINUOUS
 10
45.4668063335
 20
-12.6751137604
 11
45.7381936055
 21
-12.4036853184
  0
LINE
  5
561
100
AcDbEntity
  8
CURVE
100
AcDbLine
 62
7
  6
CONTINUOUS
 10
48.7836289322
 20
-9.4141695394
 11
49.3660739322
 21
-8.8317245394
  0
LINE
  5
562
100
AcDbEntity
  8
CURVE
100
AcDbLine
 62
7
  6
CONTINUOUS
 10
50.4934894694
 20
-7.7043090022
 11
51.0628879443
 21
-7.1349105273
  0
LINE
  5
563
100
AcDbEntity
  8
CURVE
100
AcDbLine
 62
7
  6
CONTINUOUS
 10
48.9250502884
 20
-9.4141695394
 11
49.5074952884
 21
-8.8317245394
  0
LINE
  5
564
100
AcDbEntity
  8
CURVE
100
AcDbLine
 62
7
  6
CONTINUOUS
 10
50.7103109206
 20
-7.6289089072
 11
51.0628879443
 21
-7.2763318835
  0
LINE
  5
565
100
AcDbEntity
  8
CURVE
100
AcDbLine
 62
7
  6
CONTINUOUS
 10
49.0664716447
 20
-9.4141695394
 11
49.6489166447
 21
-8.8317245394
  0
LINE
  5
566
100
AcDbEntity
  8
CURVE
100
AcDbLine
 62
7
  6
CONTINUOUS
 10
50.9271323718
 20
-7.5535088123
 11
51.0628879443
 21
-7.4177532398
  0
LINE
  5
567
100
AcDbEntity
  8
CURVE
100
AcDbLine
 62
7
  6
CONTINUOUS
 10
49.2078930009
 20
-9.4141695394
 11
49.7903380009
 21
-8.8317245394
  0
LINE
  5
568
100
AcDbEntity
  8
CURVE
100
AcDbLine
 62
7
  6
CONTINUOUS
 10
48.1637702454
 20
-10.5997136511
 11
48.226198083
 21
-10.5372858136
  0
LINE
  5
569
100
AcDbEntity
  8
CURVE
100
AcDbLine
 62
7
  6
CONTINUOUS
 10
49.3493143571
 20
-9.4141695394
 11
49.9317593571
 21
-8.8317245394
  0
LINE
  5
56A
100
AcDbEntity
  8
CURVE
100
AcDbLine
 62
7
  6
CONTINUOUS
 10
48.1637702454
 20
-10.7411350074
 11
48.4956255534
 21
-10.4092796994
  0
LINE
  5
56B
100
AcDbEntity
  8
CURVE
100
AcDbLine
 62
7
  6
CONTINUOUS
 10
49.4907357134
 20
-9.4141695394
 11
50.0731807134
 21
-8.8317245394
  0
LINE
  5
56C
100
AcDbEntity
  8
CURVE
100
AcDbLine
 62
7
  6
CONTINUOUS
 10
48.1637702454
 20
-10.8825563636
 11
48.7650530239
 21
-10.2812735851
  0
LINE
  5
56D
100
AcDbEntity
  8
CURVE
100
AcDbLine
 62
7
  6
CONTINUOUS
 10
49.6321570696
 20
-9.4141695394
 11
50.2146020696
 21
-8.8317245394
  0
LINE
  5
56E
100
AcDbEntity
  8
CURVE
100
AcDbLine
 62
7
  6
CONTINUOUS
 10
48.1637702454
 20
-11.0239777198
 11
49.0344804944
 21
-10.1532674709
  0
LINE
  5
56F
100
AcDbEntity
  8
CURVE
100
AcDbLine
 62
7
  6
CONTINUOUS
 10
49.7735784258
 20
-9.4141695394
 11
50.3560234258
 21
-8.8317245394
  0
LINE
  5
570
100
AcDbEntity
  8
CURVE
100
AcDbLine
 62
7
  6
CONTINUOUS
 10
48.1637702454
 20
-11.1653990761
 11
49.3039079649
 21
-10.0252613566
  0
LINE
  5
571
100
AcDbEntity
  8
CURVE
100
AcDbLine
 62
7
  6
CONTINUOUS
 10
49.9149997821
 20
-9.4141695394
 11
50.4974447821
 21
-8.8317245394
  0
LINE
  5
572
100
AcDbEntity
  8
CURVE
100
AcDbLine
 62
7
  6
CONTINUOUS
 10
48.1637702454
 20
-11.3068204323
 11
49.5733354354
 21
-9.8972552424
  0
LINE
  5
573
100
AcDbEntity
  8
CURVE
100
AcDbLine
 62
7
  6
CONTINUOUS
 10
50.0564211383
 20
-9.4141695394
 11
50.6388661383
 21
-8.8317245394
  0
LINE
  5
574
100
AcDbEntity
  8
CURVE
100
AcDbLine
 62
253
  6
CONTINUOUS
 10
45.4668063335
 20
-14.0322568764
 11
45.7381936055
 21
-13.7608279814
  0
LINE
  5
575
100
AcDbEntity
  8
CURVE
100
AcDbLine
 62
253
  6
CONTINUOUS
 10
51.0628879443
 20
-9.7555385394
 11
48.7654739188
 21
-10.8681535394
  0
LINE
  5
576
100
AcDbEntity
  8
CURVE
100
AcDbLine
 62
253
  6
CONTINUOUS
 10
48.1637702454
 20
-10.5669455394
 11
50.5901349823
 21
-9.4141695394
  0
LINE
  5
577
100
AcDbEntity
  8
RACCORDO
100
AcDbLine
 62
7
  6
CONTINUOUS
 10
62.2080680066
 20
-20.5381247614
 11
55.9268322597
 21
-20.867310378
  0
LINE
  5
578
100
AcDbEntity
  8
RACCORDO
100
AcDbLine
 62
253
  6
CONTINUOUS
 10
62.1906262317
 20
-20.038809994
 11
54.5491027887
 21
-20.439285268
  0
LINE
  5
579
100
AcDbEntity
  8
DRAFT
100
AcDbLine
 62
7
  6
CONTINUOUS
 10
53.5512891177
 20
-19.4393995394
 11
53.3515023575
 21
-19.4498699198
  0
LINE
  5
57A
100
AcDbEntity
  8
RACCORDO
100
AcDbLine
 62
7
  6
CONTINUOUS
 10
44.0425629145
 20
-20.1053749727
 11
53.5512891177
 21
-19.9393995394
  0
LINE
  5
57B
100
AcDbEntity
  8
RACCORDO
100
AcDbLine
 62
7
  6
CONTINUOUS
 10
54.5512891177
 20
-23.0393995394
 11
56.8027435505
 21
-23.0263009607
  0
LINE
  5
57C
100
AcDbEntity
  8
RACCORDO
100
AcDbLine
 62
253
  6
CONTINUOUS
 10
54.5512891177
 20
-22.7894037702
 11
56.8027435505
 21
-22.7763051915
  0
LINE
  5
57D
100
AcDbEntity
  8
RACCORDO
100
AcDbLine
 62
253
  6
CONTINUOUS
 10
53.5512891177
 20
-22.7850319362
 11
53.7998346849
 21
-22.7850319362
  0
LINE
  5
57E
100
AcDbEntity
  8
RACCORDO
100
AcDbLine
 62
253
  6
CONTINUOUS
 10
57.0512891177
 20
-22.7763051915
 11
56.8027435505
 21
-22.7763051915
  0
LINE
  5
57F
100
AcDbEntity
  8
RACCORDO
100
AcDbLine
 62
253
  6
CONTINUOUS
 10
57.0512891177
 20
-22.3837371067
 11
56.8027435505
 21
-22.3837371067
  0
LINE
  5
580
100
AcDbEntity
  8
RACCORDO
100
AcDbLine
 62
253
  6
CONTINUOUS
 10
53.5512891177
 20
-22.3837371067
 11
53.7998346849
 21
-22.3837371067
  0
LINE
  5
581
100
AcDbEntity
  8
RACCORDO
100
AcDbLine
 62
253
  6
CONTINUOUS
 10
43.5512891177
 20
-20.5683094375
 11
43.7477986364
 21
-20.5683094375
  0
LINE
  5
582
100
AcDbEntity
  8
ASSI
100
AcDbLine
 62
253
  6
CONTINUOUS
 10
43.5512891177
 20
-20.5683094375
 11
43.7477986364
 21
-20.5683094375
  0
LINE
  5
583
100
AcDbEntity
  8
RACCORDO
100
AcDbLine
 62
7
  6
CONTINUOUS
 10
53.7998346849
 20
-23.0350277054
 11
54.5512891177
 21
-23.0393995394
  0
LINE
  5
584
100
AcDbEntity
  8
RACCORDO
100
AcDbLine
 62
253
  6
CONTINUOUS
 10
53.7998346849
 20
-22.7850319362
 11
54.5512891177
 21
-22.7894037702
  0
LINE
  5
585
100
AcDbEntity
  8
RACCORDO
100
AcDbLine
 62
7
  6
CONTINUOUS
 10
53.5515809034
 20
-22.3335834072
 11
46.5512196929
 21
-22.292856497
  0
LINE
  5
586
100
AcDbEntity
  8
RACCORDO
100
AcDbLine
 62
7
  6
CONTINUOUS
 10
44.5425625822
 20
-20.8520547062
 11
54.5512377547
 21
-20.9393990912
  0
LINE
  5
587
100
AcDbEntity
  8
RACCORDO
100
AcDbLine
 62
253
  6
CONTINUOUS
 10
53.5512891177
 20
-20.43057748
 11
54.5491027887
 21
-20.439285268
  0
LINE
  5
588
100
AcDbEntity
  8
RACCORDO
100
AcDbLine
 62
7
  6
CONTINUOUS
 10
44.1685831682
 20
-20.7756237979
 11
43.7477986364
 21
-20.7682789765
  0
LINE
  5
589
100
AcDbEntity
  8
ASSI
100
AcDbLine
 62
7
  6
CONTINUOUS
 10
44.1685831682
 20
-20.7756237979
 11
43.7477986364
 21
-20.7682789765
  0
LINE
  5
58A
100
AcDbEntity
  8
RACCORDO
100
AcDbLine
 62
253
  6
CONTINUOUS
 10
43.8555922254
 20
-20.5701909816
 11
43.7477986364
 21
-20.5683094375
  0
LINE
  5
58B
100
AcDbEntity
  8
ASSI
100
AcDbLine
 62
253
  6
CONTINUOUS
 10
43.8555922254
 20
-20.5701909816
 11
43.7477986364
 21
-20.5683094375
  0
LINE
  5
58C
100
AcDbEntity
  8
RACCORDO
100
AcDbLine
 62
253
  6
CONTINUOUS
 10
44.0425629145
 20
-20.1053749727
 11
44.0425629145
 21
-19.5311078036
  0
LINE
  5
58D
100
AcDbEntity
  8
RACCORDO
100
AcDbLine
 62
253
  6
CONTINUOUS
 10
44.0425629145
 20
22.4523087248
 11
44.0425629145
 21
23.0265758939
  0
LINE
  5
58E
100
AcDbEntity
  8
CURVE
100
AcDbLine
 62
253
  6
CONTINUOUS
 10
44.6526446308
 20
-11.8608279814
 11
44.6526446308
 21
-12.4036853184
  0
LINE
  5
58F
100
AcDbEntity
  8
CURVE
100
AcDbLine
 62
253
  6
CONTINUOUS
 10
44.6526446308
 20
-13.2179710974
 11
44.6526446308
 21
-13.8965422024
  0
LINE
  5
590
100
AcDbEntity
  8
CURVE
100
AcDbLine
 62
253
  6
CONTINUOUS
 10
45.0597254822
 20
-11.3179708709
 11
45.0597254822
 21
-10.3679708709
  0
LINE
  5
591
100
AcDbEntity
  8
CURVE
100
AcDbLine
 62
253
  6
CONTINUOUS
 10
45.0597254822
 20
-9.8251137604
 11
45.0597254822
 21
-8.8751138737
  0
LINE
  5
592
100
AcDbEntity
  8
CURVE
100
AcDbLine
 62
253
  6
CONTINUOUS
 10
45.7381936055
 20
-13.7608279814
 11
45.7381936055
 21
-13.4893995394
  0
LINE
  5
593
100
AcDbEntity
  8
CURVE
100
AcDbLine
 62
253
  6
CONTINUOUS
 10
45.7381936055
 20
-12.4036853184
 11
45.7381936055
 21
-11.8608279814
  0
LINE
  5
594
100
AcDbEntity
  8
RACCORDO
100
AcDbLine
 62
7
  6
CONTINUOUS
 10
46.5512891177
 20
-20.8696398246
 11
46.5512891177
 21
-22.2928937364
  0
LINE
  5
595
100
AcDbEntity
  8
RACCORDO
100
AcDbLine
 62
7
  6
CONTINUOUS
 10
46.5512891177
 20
23.7908407458
 11
46.5512891177
 21
25.2140946576
  0
LINE
  5
596
100
AcDbEntity
  8
CURVE
100
AcDbLine
 62
253
  6
CONTINUOUS
 10
46.5523552516
 20
-11.8608279814
 11
46.5523552516
 21
-12.6751137604
  0
LINE
  5
597
100
AcDbEntity
  8
CURVE
100
AcDbLine
 62
253
  6
CONTINUOUS
 10
46.5523552516
 20
-13.7608279814
 11
46.5523552516
 21
-13.2179710974
  0
LINE
  5
598
100
AcDbEntity
  8
DRAFT
100
AcDbLine
 62
253
  6
CONTINUOUS
 10
46.976769291
 20
-20.8732977063
 11
46.976769291
 21
-22.2953322722
  0
LINE
  5
599
100
AcDbEntity
  8
DRAFT
100
AcDbLine
 62
253
  6
CONTINUOUS
 10
46.976769291
 20
23.7944986275
 11
46.976769291
 21
25.2165331933
  0
LINE
  5
59A
100
AcDbEntity
  8
CURVE
100
AcDbLine
 62
7
  6
CONTINUOUS
 10
48.1637702454
 20
-11.4482417885
 11
49.8427629058
 21
-9.7692491281
  0
LINE
  5
59B
100
AcDbEntity
  8
CURVE
100
AcDbLine
 62
7
  6
CONTINUOUS
 10
50.1978424946
 20
-9.4141695394
 11
50.7802874946
 21
-8.8317245394
  0
LINE
  5
59C
100
AcDbEntity
  8
CURVE
100
AcDbLine
 62
7
  6
CONTINUOUS
 10
48.3028358508
 20
-11.4505975394
 11
48.8852798508
 21
-10.8681535394
  0
LINE
  5
59D
100
AcDbEntity
  8
CURVE
100
AcDbLine
 62
7
  6
CONTINUOUS
 10
48.9977865918
 20
-10.7556467985
 11
50.1121903763
 21
-9.6412430139
  0
LINE
  5
59E
100
AcDbEntity
  8
CURVE
100
AcDbLine
 62
7
  6
CONTINUOUS
 10
50.3392638508
 20
-9.4141695394
 11
50.9217088508
 21
-8.8317245394
  0
LINE
  5
59F
100
AcDbEntity
  8
CURVE
100
AcDbLine
 62
7
  6
CONTINUOUS
 10
48.444257207
 20
-11.4505975394
 11
49.026701207
 21
-10.8681535394
  0
LINE
  5
5A0
100
AcDbEntity
  8
CURVE
100
AcDbLine
 62
7
  6
CONTINUOUS
 10
49.2720131908
 20
-10.6228415556
 11
50.3816178468
 21
-9.5132368996
  0
LINE
  5
5A1
100
AcDbEntity
  8
CURVE
100
AcDbLine
 62
7
  6
CONTINUOUS
 10
50.480685207
 20
-9.4141695394
 11
51.0628879443
 21
-8.8319668021
  0
LINE
  5
5A2
100
AcDbEntity
  8
CURVE
100
AcDbLine
 62
7
  6
CONTINUOUS
 10
48.1637702454
 20
-11.8725058573
 11
48.2582637145
 21
-11.7780123882
  0
LINE
  5
5A3
100
AcDbEntity
  8
CURVE
100
AcDbLine
 62
7
  6
CONTINUOUS
 10
48.5856785633
 20
-11.4505975394
 11
49.1681225633
 21
-10.8681535394
  0
LINE
  5
5A4
100
AcDbEntity
  8
CURVE
100
AcDbLine
 62
7
  6
CONTINUOUS
 10
49.5462397899
 20
-10.4900363128
 11
51.0628879443
 21
-8.9733881584
  0
LINE
  5
5A5
100
AcDbEntity
  8
CURVE
100
AcDbLine
 62
7
  6
CONTINUOUS
 10
48.1637702454
 20
-12.0139272135
 11
48.3621245755
 21
-11.8155728834
  0
LINE
  5
5A6
100
AcDbEntity
  8
CURVE
100
AcDbLine
 62
7
  6
CONTINUOUS
 10
48.7270999195
 20
-11.4505975394
 11
49.3095439195
 21
-10.8681535394
  0
LINE
  5
5A7
100
AcDbEntity
  8
CURVE
100
AcDbLine
 62
7
  6
CONTINUOUS
 10
49.8204663889
 20
-10.35723107
 11
51.0628879443
 21
-9.1148095146
  0
LINE
  5
5A8
100
AcDbEntity
  8
CURVE
100
AcDbLine
 62
7
  6
CONTINUOUS
 10
48.1637702454
 20
-12.1553485697
 11
48.4659854365
 21
-11.8531333787
  0
LINE
  5
5A9
100
AcDbEntity
  8
CURVE
100
AcDbLine
 62
7
  6
CONTINUOUS
 10
48.8685212757
 20
-11.4505975394
 11
49.4509652757
 21
-10.8681535394
  0
LINE
  5
5AA
100
AcDbEntity
  8
CURVE
100
AcDbLine
 62
7
  6
CONTINUOUS
 10
50.094692988
 20
-10.2244258272
 11
51.0628879443
 21
-9.2562308709
  0
LINE
  5
5AB
100
AcDbEntity
  8
CURVE
100
AcDbLine
 62
7
  6
CONTINUOUS
 10
48.1637702454
 20
-12.296769926
 11
48.5698462975
 21
-11.8906938739
  0
LINE
  5
5AC
100
AcDbEntity
  8
CURVE
100
AcDbLine
 62
7
  6
CONTINUOUS
 10
49.009942632
 20
-11.4505975394
 11
49.592386632
 21
-10.8681535394
  0
LINE
  5
5AD
100
AcDbEntity
  8
CURVE
100
AcDbLine
 62
7
  6
CONTINUOUS
 10
50.368919587
 20
-10.0916205844
 11
51.0628879443
 21
-9.3976522271
  0
LINE
  5
5AE
100
AcDbEntity
  8
CURVE
100
AcDbLine
 62
7
  6
CONTINUOUS
 10
48.2376032622
 20
-12.3643582655
 11
48.6737071585
 21
-11.9282543692
  0
LINE
  5
5AF
100
AcDbEntity
  8
CURVE
100
AcDbLine
 62
7
  6
CONTINUOUS
 10
49.1513639882
 20
-11.4505975394
 11
49.7338079882
 21
-10.8681535394
  0
LINE
  5
5B0
100
AcDbEntity
  8
CURVE
100
AcDbLine
 62
7
  6
CONTINUOUS
 10
50.6431461861
 20
-9.9588153416
 11
51.0628879443
 21
-9.5390735833
  0
LINE
  5
5B1
100
AcDbEntity
  8
CURVE
100
AcDbLine
 62
7
  6
CONTINUOUS
 10
48.3421205664
 20
-12.4012623174
 11
48.7775680195
 21
-11.9658148644
  0
LINE
  5
5B2
100
AcDbEntity
  8
CURVE
100
AcDbLine
 62
7
  6
CONTINUOUS
 10
49.2927853445
 20
-11.4505975394
 11
49.8752293445
 21
-10.8681535394
  0
LINE
  5
5B3
100
AcDbEntity
  8
CURVE
100
AcDbLine
 62
7
  6
CONTINUOUS
 10
50.9173727851
 20
-9.8260100988
 11
51.0628879443
 21
-9.6804949396
  0
LINE
  5
5B4
100
AcDbEntity
  8
CURVE
100
AcDbLine
 62
7
  6
CONTINUOUS
 10
48.4466378707
 20
-12.4381663694
 11
48.8814288805
 21
-12.0033753596
  0
LINE
  5
5B5
100
AcDbEntity
  8
CURVE
100
AcDbLine
 62
7
  6
CONTINUOUS
 10
49.4342067007
 20
-11.4505975394
 11
50.0166507007
 21
-10.8681535394
  0
LINE
  5
5B6
100
AcDbEntity
  8
CURVE
100
AcDbLine
 62
7
  6
CONTINUOUS
 10
48.5511551749
 20
-12.4750704214
 11
48.9852897415
 21
-12.0409358549
  0
LINE
  5
5B7
100
AcDbEntity
  8
CURVE
100
AcDbLine
 62
7
  6
CONTINUOUS
 10
49.5756280569
 20
-11.4505975394
 11
50.1580720569
 21
-10.8681535394
  0
LINE
  5
5B8
100
AcDbEntity
  8
CURVE
100
AcDbLine
 62
7
  6
CONTINUOUS
 10
48.6556724792
 20
-12.5119744734
 11
49.0891506024
 21
-12.0784963501
  0
LINE
  5
5B9
100
AcDbEntity
  8
CURVE
100
AcDbLine
 62
7
  6
CONTINUOUS
 10
49.7170494132
 20
-11.4505975394
 11
50.2994934132
 21
-10.8681535394
  0
LINE
  5
5BA
100
AcDbEntity
  8
CURVE
100
AcDbLine
 62
7
  6
CONTINUOUS
 10
48.7601897834
 20
-12.5488785254
 11
49.1930114634
 21
-12.1160568454
  0
LINE
  5
5BB
100
AcDbEntity
  8
CURVE
100
AcDbLine
 62
7
  6
CONTINUOUS
 10
49.8584707694
 20
-11.4505975394
 11
50.4409147694
 21
-10.8681535394
  0
LINE
  5
5BC
100
AcDbEntity
  8
CURVE
100
AcDbLine
 62
7
  6
CONTINUOUS
 10
48.7782220347
 20
-12.6722676304
 11
49.2968723244
 21
-12.1536173406
  0
LINE
  5
5BD
100
AcDbEntity
  8
CURVE
100
AcDbLine
 62
7
  6
CONTINUOUS
 10
49.9998921256
 20
-11.4505975394
 11
50.5823361256
 21
-10.8681535394
  0
LINE
  5
5BE
100
AcDbEntity
  8
CURVE
100
AcDbLine
 62
7
  6
CONTINUOUS
 10
48.7782220347
 20
-12.8136889866
 11
49.4007331854
 21
-12.1911778359
  0
LINE
  5
5BF
100
AcDbEntity
  8
CURVE
100
AcDbLine
 62
7
  6
CONTINUOUS
 10
50.1413134819
 20
-11.4505975394
 11
50.7237574819
 21
-10.8681535394
  0
LINE
  5
5C0
100
AcDbEntity
  8
CURVE
100
AcDbLine
 62
7
  6
CONTINUOUS
 10
48.7782220347
 20
-12.9551103428
 11
49.5045940464
 21
-12.2287383311
  0
LINE
  5
5C1
100
AcDbEntity
  8
CURVE
100
AcDbLine
 62
7
  6
CONTINUOUS
 10
50.2827348381
 20
-11.4505975394
 11
50.8651788381
 21
-10.8681535394
  0
LINE
  5
5C2
100
AcDbEntity
  8
CURVE
100
AcDbLine
 62
7
  6
CONTINUOUS
 10
48.7782220347
 20
-13.0965316991
 11
49.6084549074
 21
-12.2662988264
  0
LINE
  5
5C3
100
AcDbEntity
  8
CURVE
100
AcDbLine
 62
7
  6
CONTINUOUS
 10
50.4241561944
 20
-11.4505975394
 11
51.0066001944
 21
-10.8681535394
  0
LINE
  5
5C4
100
AcDbEntity
  8
CURVE
100
AcDbLine
 62
7
  6
CONTINUOUS
 10
48.7782220347
 20
-13.2379530553
 11
49.2600082444
 21
-12.7561668456
  0
LINE
  5
5C5
100
AcDbEntity
  8
CURVE
100
AcDbLine
 62
7
  6
CONTINUOUS
 10
49.2899686513
 20
-12.7262064387
 11
49.7123157684
 21
-12.3038593216
  0
LINE
  5
5C6
100
AcDbEntity
  8
CURVE
100
AcDbLine
 62
7
  6
CONTINUOUS
 10
50.5655775506
 20
-11.4505975394
 11
51.0628879443
 21
-10.9532871457
  0
LINE
  5
5C7
100
AcDbEntity
  8
CURVE
100
AcDbLine
 62
7
  6
CONTINUOUS
 10
48.1637702454
 20
-13.9938262008
 11
48.2862973584
 21
-13.8712990878
  0
LINE
  5
5C8
100
AcDbEntity
  8
CURVE
100
AcDbLine
 62
7
  6
CONTINUOUS
 10
48.7782220347
 20
-13.3793744115
 11
49.2600082444
 21
-12.8975882018
  0
LINE
  5
5C9
100
AcDbEntity
  8
CURVE
100
AcDbLine
 62
7
  6
CONTINUOUS
 10
49.3951680048
 20
-12.7624284414
 11
49.8161766294
 21
-12.3414198169
  0
LINE
  5
5CA
100
AcDbEntity
  8
CURVE
100
AcDbLine
 62
7
  6
CONTINUOUS
 10
50.7069989068
 20
-11.4505975394
 11
51.0628879443
 21
-11.0947085019
  0
LINE
  5
5CB
100
AcDbEntity
  8
CURVE
100
AcDbLine
 62
7
  6
CONTINUOUS
 10
48.1637702454
 20
-14.135247557
 11
48.5006125114
 21
-13.7984052911
  0
LINE
  5
5CC
100
AcDbEntity
  8
CURVE
100
AcDbLine
 62
7
  6
CONTINUOUS
 10
48.7782220347
 20
-13.5207957678
 11
49.2600082444
 21
-13.0390095581
  0
LINE
  5
5CD
100
AcDbEntity
  8
CURVE
100
AcDbLine
 62
7
  6
CONTINUOUS
 10
49.5003673584
 20
-12.7986504441
 11
49.9200374904
 21
-12.3789803121
  0
LINE
  5
5CE
100
AcDbEntity
  8
CURVE
100
AcDbLine
 62
7
  6
CONTINUOUS
 10
50.8484202631
 20
-11.4505975394
 11
51.0628879443
 21
-11.2361298582
  0
LINE
  5
5CF
100
AcDbEntity
  8
CURVE
100
AcDbLine
 62
7
  6
CONTINUOUS
 10
48.1637702454
 20
-14.2766689133
 11
48.7149276643
 21
-13.7255114944
  0
LINE
  5
5D0
100
AcDbEntity
  8
CURVE
100
AcDbLine
 62
7
  6
CONTINUOUS
 10
48.7782220347
 20
-13.662217124
 11
49.2600082444
 21
-13.1804309143
  0
LINE
  5
5D1
100
AcDbEntity
  8
CURVE
100
AcDbLine
 62
7
  6
CONTINUOUS
 10
49.6055667119
 20
-12.8348724468
 11
50.0238983514
 21
-12.4165408073
  0
LINE
  5
5D2
100
AcDbEntity
  8
CURVE
100
AcDbLine
 62
7
  6
CONTINUOUS
 10
50.9898416193
 20
-11.4505975394
 11
51.0628879443
 21
-11.3775512144
  0
LINE
  5
5D3
100
AcDbEntity
  8
CURVE
100
AcDbLine
 62
7
  6
CONTINUOUS
 10
48.1637702454
 20
-14.4180902695
 11
49.2600082444
 21
-13.3218522705
  0
LINE
  5
5D4
100
AcDbEntity
  8
CURVE
100
AcDbLine
 62
7
  6
CONTINUOUS
 10
49.7107660654
 20
-12.8710944495
 11
50.1277592124
 21
-12.4541013026
  0
LINE
  5
5D5
100
AcDbEntity
  8
CURVE
100
AcDbLine
 62
7
  6
CONTINUOUS
 10
48.194603498
 20
-14.5286783732
 11
49.2600082444
 21
-13.4632736268
  0
LINE
  5
5D6
100
AcDbEntity
  8
CURVE
100
AcDbLine
 62
7
  6
CONTINUOUS
 10
49.8159654189
 20
-12.9073164522
 11
50.2316200734
 21
-12.4916617978
  0
LINE
  5
5D7
100
AcDbEntity
  8
CURVE
100
AcDbLine
 62
7
  6
CONTINUOUS
 10
48.4114124516
 20
-14.4532907758
 11
49.3446411078
 21
-13.5200621196
  0
LINE
  5
5D8
100
AcDbEntity
  8
CURVE
100
AcDbLine
 62
7
  6
CONTINUOUS
 10
49.9211647725
 20
-12.9435384549
 11
50.3354809344
 21
-12.5292222931
  0
LINE
  5
5D9
100
AcDbEntity
  8
CURVE
100
AcDbLine
 62
7
  6
CONTINUOUS
 10
48.6282214052
 20
-14.3779031784
 11
49.5530624129
 21
-13.4530621708
  0
LINE
  5
5DA
100
AcDbEntity
  8
CURVE
100
AcDbLine
 62
7
  6
CONTINUOUS
 10
50.026364126
 20
-12.9797604577
 11
50.4393417953
 21
-12.5667827883
  0
LINE
  5
5DB
100
AcDbEntity
  8
CURVE
100
AcDbLine
 62
7
  6
CONTINUOUS
 10
48.8450303588
 20
-14.3025155811
 11
49.761483718
 21
-13.3860622219
  0
LINE
  5
5DC
100
AcDbEntity
  8
CURVE
100
AcDbLine
 62
7
  6
CONTINUOUS
 10
50.1315634795
 20
-13.0159824604
 11
50.5432026563
 21
-12.6043432836
  0
LINE
  5
5DD
100
AcDbEntity
  8
CURVE
100
AcDbLine
 62
7
  6
CONTINUOUS
 10
49.0618393125
 20
-14.2271279837
 11
49.9699050231
 21
-13.319062273
  0
LINE
  5
5DE
100
AcDbEntity
  8
CURVE
100
AcDbLine
 62
7
  6
CONTINUOUS
 10
50.2367628331
 20
-13.0522044631
 11
50.6470635173
 21
-12.6419037788
  0
LINE
  5
5DF
100
AcDbEntity
  8
CURVE
100
AcDbLine
 62
7
  6
CONTINUOUS
 10
49.2786482661
 20
-14.1517403863
 11
50.1783263282
 21
-13.2520623242
  0
LINE
  5
5E0
100
AcDbEntity
  8
CURVE
100
AcDbLine
 62
7
  6
CONTINUOUS
 10
50.3419621866
 20
-13.0884264658
 11
50.7509243783
 21
-12.6794642741
  0
LINE
  5
5E1
100
AcDbEntity
  8
CURVE
100
AcDbLine
 62
7
  6
CONTINUOUS
 10
49.4954572197
 20
-14.0763527889
 11
50.3867476333
 21
-13.1850623753
  0
LINE
  5
5E2
100
AcDbEntity
  8
CURVE
100
AcDbLine
 62
7
  6
CONTINUOUS
 10
50.4471615401
 20
-13.1246484685
 11
50.8547852393
 21
-12.7170247693
  0
LINE
  5
5E3
100
AcDbEntity
  8
CURVE
100
AcDbLine
 62
7
  6
CONTINUOUS
 10
49.7122661733
 20
-14.0009651916
 11
50.9586461003
 21
-12.7545852645
  0
LINE
  5
5E4
100
AcDbEntity
  8
CURVE
100
AcDbLine
 62
7
  6
CONTINUOUS
 10
49.9290751269
 20
-13.9255775942
 11
51.0625069613
 21
-12.7921457598
  0
LINE
  5
5E5
100
AcDbEntity
  8
CURVE
100
AcDbLine
 62
7
  6
CONTINUOUS
 10
50.1458840805
 20
-13.8501899968
 11
51.0628879443
 21
-12.933186133
  0
LINE
  5
5E6
100
AcDbEntity
  8
CURVE
100
AcDbLine
 62
7
  6
CONTINUOUS
 10
50.3626930341
 20
-13.7748023994
 11
51.0628879443
 21
-13.0746074893
  0
LINE
  5
5E7
100
AcDbEntity
  8
CURVE
100
AcDbLine
 62
7
  6
CONTINUOUS
 10
50.5795019877
 20
-13.6994148021
 11
51.0628879443
 21
-13.2160288455
  0
LINE
  5
5E8
100
AcDbEntity
  8
CURVE
100
AcDbLine
 62
7
  6
CONTINUOUS
 10
50.7963109413
 20
-13.6240272047
 11
51.0628879443
 21
-13.3574502017
  0
LINE
  5
5E9
100
AcDbEntity
  8
CURVE
100
AcDbLine
 62
253
  6
CONTINUOUS
 10
46.2809680362
 20
-13.9870185007
 11
46.5523552516
 21
-13.7608279814
  0
LINE
  5
5EA
100
AcDbEntity
  8
CURVE
100
AcDbLine
 62
253
  6
CONTINUOUS
 10
48.1637702454
 20
-14.5393995394
 11
51.0628879443
 21
-13.5313345394
  0
LINE
  5
5EB
100
AcDbEntity
  8
CURVE
100
AcDbLine
 62
253
  6
CONTINUOUS
 10
48.7782220347
 20
-13.7039835394
 11
48.1637702454
 21
-13.9129735394
  0
LINE
  5
5EC
100
AcDbEntity
  8
CURVE
100
AcDbLine
 62
253
  6
CONTINUOUS
 10
50.5087327839
 20
-13.1458485394
 11
49.2600082444
 21
-13.5472685394
  0
LINE
  5
5ED
100
AcDbEntity
  8
RACCORDO
100
AcDbLine
 62
7
  6
CONTINUOUS
 10
43.5512891177
 20
-19.5353950851
 11
53.3515023575
 21
-19.4498699198
  0
LINE
  5
5EE
100
AcDbEntity
  8
0
100
AcDbLine
 62
7
  6
CONTINUOUS
 10
43.7501255714
 20
-18.2964210409
 11
53.5512891177
 21
-18.2393995394
  0
LINE
  5
5EF
100
AcDbEntity
  8
RACCORDO
100
AcDbLine
 62
253
  6
CONTINUOUS
 10
17.5512891177
 20
-16.6283199389
 11
17.6840779587
 21
-16.6283199389
  0
LINE
  5
5F0
100
AcDbEntity
  8
ASSI
100
AcDbLine
 62
253
  6
CONTINUOUS
 10
17.5512891177
 20
-16.6283199389
 11
17.6840779587
 21
-16.6283199389
  0
LINE
  5
5F1
100
AcDbEntity
  8
DRAFT
100
AcDbLine
 62
7
  6
CONTINUOUS
 10
44.9576009564
 20
-18.2893961546
 11
43.5512891177
 21
-18.2648488901
  0
LINE
  5
5F2
100
AcDbEntity
  8
ASSI
100
AcDbLine
 62
7
  6
CONTINUOUS
 10
44.9576009564
 20
-18.2893961546
 11
43.5512891177
 21
-18.2648488901
  0
LINE
  5
5F3
100
AcDbEntity
  8
0
100
AcDbLine
 62
7
  6
CONTINUOUS
 10
53.5512891177
 20
-18.2393995394
 11
33.5512891177
 21
-17.8902982408
  0
LINE
  5
5F4
100
AcDbEntity
  8
RACCORDO
100
AcDbLine
 62
7
  6
CONTINUOUS
 10
33.5512891177
 20
-17.8902982408
 11
18.5338426262
 21
-17.6281677373
  0
LINE
  5
5F5
100
AcDbEntity
  8
ASSI
100
AcDbLine
 62
7
  6
CONTINUOUS
 10
53.5512891177
 20
-18.2393995394
 11
18.5338426262
 21
-17.6281677373
  0
LINE
  5
5F6
100
AcDbEntity
  8
RACCORDO
100
AcDbLine
 62
253
  6
CONTINUOUS
 10
18.5717254716
 20
-17.4288289836
 11
18.5355818855
 21
-17.428198095
  0
LINE
  5
5F7
100
AcDbEntity
  8
ASSI
100
AcDbLine
 62
253
  6
CONTINUOUS
 10
18.5717254716
 20
-17.4288289836
 11
18.5355818855
 21
-17.428198095
  0
LINE
  5
5F8
100
AcDbEntity
  8
CURVE
100
AcDbLine
 62
253
  6
CONTINUOUS
 10
29.8548987425
 20
-11.9893995394
 11
31.1547007462
 21
-12.3608280887
  0
LINE
  5
5F9
100
AcDbEntity
  8
CURVE
100
AcDbLine
 62
253
  6
CONTINUOUS
 10
33.8114389132
 20
-10.9108281274
 11
34.5541829097
 21
-11.2822567155
  0
LINE
  5
5FA
100
AcDbEntity
  8
RACCORDO
100
AcDbLine
 62
253
  6
CONTINUOUS
 10
56.8027435505
 20
-22.3837371067
 11
55.8027435505
 21
-21.8063868375
  0
LINE
  5
5FB
100
AcDbEntity
  8
RACCORDO
100
AcDbLine
 62
7
  6
CONTINUOUS
 10
56.9262891177
 20
-22.1672307558
 11
56.0512891177
 21
-21.6620492702
  0
LINE
  5
5FC
100
AcDbEntity
  8
SMUSSO
100
AcDbLine
 62
7
  6
CONTINUOUS
 10
34.525110508
 20
-7.0827324825
 11
33.5512891177
 21
-6.2364667118
  0
LINE
  5
5FD
100
AcDbEntity
  8
ASSI
100
AcDbLine
 62
7
  6
CONTINUOUS
 10
34.525110508
 20
-7.0827324825
 11
33.5512891177
 21
-6.2364667118
  0
LINE
  5
5FE
100
AcDbEntity
  8
CURVE
100
AcDbLine
 62
253
  6
CONTINUOUS
 10
44.6526446308
 20
-13.8965422024
 11
44.7883382526
 21
-14.0322568764
  0
LINE
  5
5FF
100
AcDbEntity
  8
CURVE
100
AcDbLine
 62
253
  6
CONTINUOUS
 10
45.7381936055
 20
-13.7608279814
 11
45.8738871566
 21
-13.9870185007
  0
LINE
  5
600
100
AcDbEntity
  8
RACCORDO
100
AcDbLine
 62
7
  6
CONTINUOUS
 10
47.6512891177
 20
21.2576155775
 11
47.6512891177
 21
21.5120894128
  0
LINE
  5
601
100
AcDbEntity
  8
ASSI
100
AcDbLine
 62
7
  6
CONTINUOUS
 10
47.6512891177
 20
21.2576155775
 11
47.6512891177
 21
21.5120894128
  0
LINE
  5
602
100
AcDbEntity
  8
CURVE
100
AcDbLine
 62
253
  6
CONTINUOUS
 10
48.1637702454
 20
-1.2401895394
 11
48.1637702454
 21
-1.8627955394
  0
LINE
  5
603
100
AcDbEntity
  8
CURVE
100
AcDbLine
 62
253
  6
CONTINUOUS
 10
48.1637702454
 20
-5.7189135394
 11
48.1637702454
 21
-6.3133635394
  0
LINE
  5
604
100
AcDbEntity
  8
CURVE
100
AcDbLine
 62
253
  6
CONTINUOUS
 10
48.1637702454
 20
-7.8878305394
 11
48.1637702454
 21
-8.5144735394
  0
LINE
  5
605
100
AcDbEntity
  8
CURVE
100
AcDbLine
 62
253
  6
CONTINUOUS
 10
48.1637702454
 20
-11.7438395394
 11
48.1637702454
 21
-12.3382885394
  0
LINE
  5
606
100
AcDbEntity
  8
CURVE
100
AcDbLine
 62
253
  6
CONTINUOUS
 10
48.1637702454
 20
-13.9129735394
 11
48.1637702454
 21
-14.5393995394
  0
LINE
  5
607
100
AcDbEntity
  8
CURVE
100
AcDbLine
 62
253
  6
CONTINUOUS
 10
48.1637702454
 20
-11.4505975394
 11
48.1637702454
 21
-10.5669455394
  0
LINE
  5
608
100
AcDbEntity
  8
CURVE
100
AcDbLine
 62
253
  6
CONTINUOUS
 10
48.1637702454
 20
-9.4141695394
 11
48.1637702454
 21
-8.8317245394
  0
LINE
  5
609
100
AcDbEntity
  8
CURVE
100
AcDbLine
 62
253
  6
CONTINUOUS
 10
48.1637702454
 20
-5.4061375394
 11
48.1637702454
 21
-3.7105325394
  0
LINE
  5
60A
100
AcDbEntity
  8
CURVE
100
AcDbLine
 62
253
  6
CONTINUOUS
 10
48.1717714554
 20
8.3221678049
 11
48.1717714554
 21
7.7193318438
  0
LINE
  5
60B
100
AcDbEntity
  8
CURVE
100
AcDbLine
 62
253
  6
CONTINUOUS
 10
48.1717714554
 20
6.7924421989
 11
48.1717714554
 21
6.2102414754
  0
LINE
  5
60C
100
AcDbEntity
  8
CURVE
100
AcDbLine
 62
253
  6
CONTINUOUS
 10
48.1717718075
 20
14.8515354606
 11
48.1717718075
 21
14.2462644606
  0
LINE
  5
60D
100
AcDbEntity
  8
CURVE
100
AcDbLine
 62
253
  6
CONTINUOUS
 10
48.1717718075
 20
8.4999044606
 11
48.1717718075
 21
9.1378354606
  0
LINE
  5
60E
100
AcDbEntity
  8
CURVE
100
AcDbLine
 62
253
  6
CONTINUOUS
 10
48.1717718075
 20
10.2859294606
 11
48.1717718075
 21
10.8846334606
  0
LINE
  5
60F
100
AcDbEntity
  8
CURVE
100
AcDbLine
 62
253
  6
CONTINUOUS
 10
48.1717718075
 20
10.9796774606
 11
48.1717718075
 21
11.5717934606
  0
LINE
  5
610
100
AcDbEntity
  8
CURVE
100
AcDbLine
 62
253
  6
CONTINUOUS
 10
48.1717718075
 20
12.4158164606
 11
48.1717718075
 21
12.5007054606
  0
LINE
  5
611
100
AcDbEntity
  8
CURVE
100
AcDbLine
 62
253
  6
CONTINUOUS
 10
48.1717718075
 20
13.3413794606
 11
48.1717718075
 21
13.9204274606
  0
LINE
  5
612
100
AcDbEntity
  8
CURVE
100
AcDbLine
 62
253
  6
CONTINUOUS
 10
48.1717718075
 20
16.0082174606
 11
48.1717718075
 21
16.5416134606
  0
LINE
  5
613
100
AcDbEntity
  8
RACCORDO
100
AcDbLine
 62
253
  6
CONTINUOUS
 10
48.6338367113
 20
21.2747660096
 11
48.6338367113
 21
21.5035144176
  0
LINE
  5
614
100
AcDbEntity
  8
ASSI
100
AcDbLine
 62
253
  6
CONTINUOUS
 10
48.6338367113
 20
21.2747660096
 11
48.6338367113
 21
21.5035144176
  0
LINE
  5
615
100
AcDbEntity
  8
CURVE
100
AcDbLine
 62
253
  6
CONTINUOUS
 10
48.6455564552
 20
-4.3331385394
 11
48.6455564552
 21
-5.4061375394
  0
LINE
  5
616
100
AcDbEntity
  8
CURVE
100
AcDbLine
 62
253
  6
CONTINUOUS
 10
48.7504694903
 20
9.2946334606
 11
48.7504694903
 21
10.1189124606
  0
LINE
  5
617
100
AcDbEntity
  8
CURVE
100
AcDbLine
 62
253
  6
CONTINUOUS
 10
48.7782220347
 20
-6.5302115394
 11
48.7782220347
 21
-7.6789485394
  0
LINE
  5
618
100
AcDbEntity
  8
CURVE
100
AcDbLine
 62
253
  6
CONTINUOUS
 10
48.7782220347
 20
-12.5552455394
 11
48.7782220347
 21
-13.7039835394
  0
LINE
  5
619
100
AcDbEntity
  8
CURVE
100
AcDbLine
 62
253
  6
CONTINUOUS
 10
49.1982630569
 20
9.9951004606
 11
49.1982630569
 21
9.4155964606
  0
LINE
  5
61A
100
AcDbEntity
  8
CURVE
100
AcDbLine
 62
253
  6
CONTINUOUS
 10
49.2600082444
 20
-13.5472685394
 11
49.2600082444
 21
-12.7158905394
  0
LINE
  5
61B
100
AcDbEntity
  8
CURVE
100
AcDbLine
 62
253
  6
CONTINUOUS
 10
49.2600082444
 20
-7.5223425394
 11
49.2600082444
 21
-6.6908555394
  0
LINE
  5
61C
100
AcDbEntity
  8
CURVE
100
AcDbLine
 62
253
  6
CONTINUOUS
 10
49.2801920948
 20
-2.1276195394
 11
49.2801920948
 21
-1.8627955394
  0
LINE
  5
61D
100
AcDbEntity
  8
CURVE
100
AcDbLine
 62
253
  6
CONTINUOUS
 10
49.3061899358
 20
7.7193318438
 11
49.3061899358
 21
7.3947997878
  0
LINE
  5
61E
100
AcDbEntity
  8
CURVE
100
AcDbLine
 62
253
  6
CONTINUOUS
 10
49.7619783045
 20
-1.8627955394
 11
49.7619783045
 21
-2.2260115394
  0
LINE
  5
61F
100
AcDbEntity
  8
CURVE
100
AcDbLine
 62
253
  6
CONTINUOUS
 10
49.7809384289
 20
7.3934951364
 11
49.7809384289
 21
7.7394017324
  0
LINE
  5
620
100
AcDbEntity
  8
CURVE
100
AcDbLine
 62
253
  6
CONTINUOUS
 10
50.5811017346
 20
-1.8627955394
 11
50.5811017346
 21
-2.2260115394
  0
LINE
  5
621
100
AcDbEntity
  8
CURVE
100
AcDbLine
 62
7
  6
CONTINUOUS
 10
51.013119895
 20
-13.5486396073
 11
51.0628879443
 21
-13.498871558
  0
LINE
  5
622
100
AcDbEntity
  8
RACCORDO
100
AcDbLine
 62
253
  6
CONTINUOUS
 10
18.5338367113
 20
-15.6284722437
 11
17.5571950732
 21
-15.6284722438
  0
LINE
  5
623
100
AcDbEntity
  8
ASSI
100
AcDbLine
 62
253
  6
CONTINUOUS
 10
18.5338367113
 20
-15.6284722437
 11
17.5571950732
 21
-15.6284722438
  0
LINE
  5
624
100
AcDbEntity
  8
RACCORDO
100
AcDbLine
 62
253
  6
CONTINUOUS
 10
17.5571950732
 20
-15.6284722101
 11
17.5560138819
 21
-15.62847227
  0
LINE
  5
625
100
AcDbEntity
  8
ASSI
100
AcDbLine
 62
253
  6
CONTINUOUS
 10
17.5571950732
 20
-15.6284722101
 11
17.5560138819
 21
-15.62847227
  0
LINE
  5
626
100
AcDbEntity
  8
CURVE
100
AcDbLine
 62
253
  6
CONTINUOUS
 10
41.761800793
 20
-14.5393995394
 11
41.0112094826
 21
-14.5393995394
  0
LINE
  5
627
100
AcDbEntity
  8
CURVE
100
AcDbLine
 62
253
  6
CONTINUOUS
 10
37.4178643004
 20
-14.5393995394
 11
36.6672729901
 21
-14.5393995394
  0
LINE
  5
628
100
AcDbEntity
  8
CURVE
100
AcDbLine
 62
253
  6
CONTINUOUS
 10
30.5976427778
 20
-14.3108282437
 11
29.8548987425
 21
-14.3108282437
  0
LINE
  5
629
100
AcDbEntity
  8
CURVE
100
AcDbLine
 62
253
  6
CONTINUOUS
 10
39.5894226716
 20
-14.1393995394
 11
38.8396511114
 21
-14.1393995394
  0
LINE
  5
62A
100
AcDbEntity
  8
CURVE
100
AcDbLine
 62
253
  6
CONTINUOUS
 10
44.7883382526
 20
-14.0322568764
 11
45.4668063335
 21
-14.0322568764
  0
LINE
  5
62B
100
AcDbEntity
  8
CURVE
100
AcDbLine
 62
253
  6
CONTINUOUS
 10
45.8738871566
 20
-13.9870185007
 11
46.2809680362
 21
-13.9870185007
  0
LINE
  5
62C
100
AcDbEntity
  8
CURVE
100
AcDbLine
 62
253
  6
CONTINUOUS
 10
33.254380906
 20
-13.9441614737
 11
34.5541829097
 21
-13.9441614737
  0
LINE
  5
62D
100
AcDbEntity
  8
CURVE
100
AcDbLine
 62
253
  6
CONTINUOUS
 10
34.3684969203
 20
-13.4179708351
 11
33.4400669149
 21
-13.4179708351
  0
LINE
  5
62E
100
AcDbEntity
  8
CURVE
100
AcDbLine
 62
253
  6
CONTINUOUS
 10
31.1547007462
 20
-13.1036853423
 11
29.8548987425
 21
-13.1036853423
  0
LINE
  5
62F
100
AcDbEntity
  8
CURVE
100
AcDbLine
 62
253
  6
CONTINUOUS
 10
31.5546398243
 20
-13.0251138915
 11
32.854441828
 21
-13.0251138915
  0
LINE
  5
630
100
AcDbEntity
  8
RACCORDO
100
AcDbLine
 62
253
  6
CONTINUOUS
 10
53.5512891177
 20
-16.2397041491
 11
18.5338367113
 21
-15.6284722437
  0
LINE
  5
631
100
AcDbEntity
  8
ASSI
100
AcDbLine
 62
253
  6
CONTINUOUS
 10
53.5512891177
 20
-16.2397041491
 11
18.5338367113
 21
-15.6284722437
  0
LINE
  5
632
100
AcDbEntity
  8
CURVE
100
AcDbLine
 62
253
  6
CONTINUOUS
 10
33.254380906
 20
-11.6536852648
 11
34.5541829097
 21
-12.0251138915
  0
LINE
  5
633
100
AcDbEntity
  8
CURVE
100
AcDbLine
 62
253
  6
CONTINUOUS
 10
44.6526446308
 20
-12.4036853184
 11
44.9240318745
 21
-12.6751137604
  0
LINE
  5
634
100
AcDbEntity
  8
CURVE
100
AcDbLine
 62
253
  6
CONTINUOUS
 10
39.2955152191
 20
9.1393504606
 11
39.2907286775
 21
9.1534124606
  0
LINE
  5
635
100
AcDbEntity
  8
CURVE
100
AcDbLine
 62
253
  6
CONTINUOUS
 10
51.0628879443
 20
-3.7105325394
 11
51.0628879443
 21
-4.3331385394
  0
LINE
  5
636
100
AcDbEntity
  8
CURVE
100
AcDbLine
 62
253
  6
CONTINUOUS
 10
51.0628879443
 20
-8.8317245394
 11
51.0628879443
 21
-9.7555385394
  0
LINE
  5
637
100
AcDbEntity
  8
CURVE
100
AcDbLine
 62
253
  6
CONTINUOUS
 10
51.0628879443
 20
-10.8681535394
 11
51.0628879443
 21
-11.4505975394
  0
LINE
  5
638
100
AcDbEntity
  8
CURVE
100
AcDbLine
 62
253
  6
CONTINUOUS
 10
51.0628879443
 20
-13.5313345394
 11
51.0628879443
 21
-12.7922835394
  0
LINE
  5
639
100
AcDbEntity
  8
CURVE
100
AcDbLine
 62
253
  6
CONTINUOUS
 10
51.0628879443
 20
-7.5062995394
 11
51.0628879443
 21
-6.7672485394
  0
LINE
  5
63A
100
AcDbEntity
  8
CURVE
100
AcDbLine
 62
253
  6
CONTINUOUS
 10
51.0628879443
 20
-2.1276195394
 11
51.0628879443
 21
-1.2401895394
  0
LINE
  5
63B
100
AcDbEntity
  8
CURVE
100
AcDbLine
 62
253
  6
CONTINUOUS
 10
51.0705416124
 20
17.4608604606
 11
51.0705416124
 21
16.8033484606
  0
LINE
  5
63C
100
AcDbEntity
  8
CURVE
100
AcDbLine
 62
253
  6
CONTINUOUS
 10
51.0705416124
 20
15.6810104606
 11
51.0705416124
 21
15.0761524606
  0
LINE
  5
63D
100
AcDbEntity
  8
CURVE
100
AcDbLine
 62
253
  6
CONTINUOUS
 10
51.0705416124
 20
13.6586054606
 11
51.0705416124
 21
13.0538344606
  0
LINE
  5
63E
100
AcDbEntity
  8
CURVE
100
AcDbLine
 62
253
  6
CONTINUOUS
 10
51.0705416124
 20
11.8496844606
 11
51.0705416124
 21
11.2508274606
  0
LINE
  5
63F
100
AcDbEntity
  8
CURVE
100
AcDbLine
 62
253
  6
CONTINUOUS
 10
51.0705416124
 20
9.9751174606
 11
51.0705416124
 21
9.3895904606
  0
LINE
  5
640
100
AcDbEntity
  8
CURVE
100
AcDbLine
 62
253
  6
CONTINUOUS
 10
51.0707155594
 20
14.2462644606
 11
51.0707155594
 21
14.8515354606
  0
LINE
  5
641
100
AcDbEntity
  8
DRAFT
100
AcDbLine
 62
7
  6
CONTINUOUS
 10
52.8512891177
 20
21.3483819151
 11
52.8512891177
 21
21.1483819151
  0
LINE
  5
642
100
AcDbEntity
  8
RACCORDO
100
AcDbLine
 62
7
  6
CONTINUOUS
 10
52.8512891177
 20
21.466709268
 11
52.8512891177
 21
21.3483819151
  0
LINE
  5
643
100
AcDbEntity
  8
ASSI
100
AcDbLine
 62
7
  6
CONTINUOUS
 10
52.8512891177
 20
21.466709268
 11
52.8512891177
 21
21.1483819151
  0
LINE
  5
644
100
AcDbEntity
  8
DRAFT
100
AcDbLine
 62
7
  6
CONTINUOUS
 10
52.8512891177
 20
-18.227180994
 11
52.8512891177
 21
-18.2434720203
  0
LINE
  5
645
100
AcDbEntity
  8
ASSI
100
AcDbLine
 62
7
  6
CONTINUOUS
 10
52.8512891177
 20
-18.227180994
 11
52.8512891177
 21
-18.2434720203
  0
LINE
  5
646
100
AcDbEntity
  8
RACCORDO
100
AcDbLine
 62
7
  6
CONTINUOUS
 10
53.5512891177
 20
-22.7850319362
 11
53.5512891177
 21
-22.3837371067
  0
LINE
  5
647
100
AcDbEntity
  8
ASSI
100
AcDbLine
 62
7
  6
CONTINUOUS
 10
53.5512891177
 20
-16.2921213689
 11
53.5512891177
 21
19.21332229
  0
LINE
  5
648
100
AcDbEntity
  8
RACCORDO
100
AcDbLine
 62
7
  6
CONTINUOUS
 10
53.5512891177
 20
-20.9306726716
 11
53.5512891177
 21
23.8518735928
  0
LINE
  5
649
100
AcDbEntity
  8
RACCORDO
100
AcDbLine
 62
7
  6
CONTINUOUS
 10
53.5512891177
 20
25.2547826308
 11
53.5512891177
 21
25.7062328574
  0
LINE
  5
64A
100
AcDbEntity
  8
RACCORDO
100
AcDbLine
 62
253
  6
CONTINUOUS
 10
53.7998346849
 20
-22.7850319362
 11
53.7998346849
 21
-22.3837371067
  0
LINE
  5
64B
100
AcDbEntity
  8
RACCORDO
100
AcDbLine
 62
253
  6
CONTINUOUS
 10
53.7998346849
 20
25.3049380279
 11
53.7998346849
 21
25.7062328574
  0
LINE
  5
64C
100
AcDbEntity
  8
CURVE
100
AcDbLine
 62
253
  6
CONTINUOUS
 10
33.254380906
 20
-12.7679709901
 11
34.5541829097
 21
-12.7679709901
  0
LINE
  5
64D
100
AcDbEntity
  8
CURVE
100
AcDbLine
 62
253
  6
CONTINUOUS
 10
44.9240318745
 20
-12.6751137604
 11
45.4668063335
 21
-12.6751137604
  0
LINE
  5
64E
100
AcDbEntity
  8
CURVE
100
AcDbLine
 62
253
  6
CONTINUOUS
 10
31.5546398243
 20
-12.3751138141
 11
32.854441828
 21
-12.3751138141
  0
LINE
  5
64F
100
AcDbEntity
  8
CURVE
100
AcDbLine
 62
253
  6
CONTINUOUS
 10
45.7381936055
 20
-11.8608279814
 11
46.5523552516
 21
-11.8608279814
  0
LINE
  5
650
100
AcDbEntity
  8
CURVE
100
AcDbLine
 62
253
  6
CONTINUOUS
 10
31.5546398243
 20
-11.7870185916
 11
32.854441828
 21
-11.7870185916
  0
LINE
  5
651
100
AcDbEntity
  8
CURVE
100
AcDbLine
 62
253
  6
CONTINUOUS
 10
51.0628879443
 20
-11.4505975394
 11
48.1637702454
 21
-11.4505975394
  0
LINE
  5
652
100
AcDbEntity
  8
CURVE
100
AcDbLine
 62
253
  6
CONTINUOUS
 10
34.5541829097
 20
-11.2822567155
 11
33.254380906
 21
-11.2822567155
  0
LINE
  5
653
100
AcDbEntity
  8
CURVE
100
AcDbLine
 62
253
  6
CONTINUOUS
 10
29.8548987425
 20
-11.2465423633
 11
31.1547007462
 21
-11.2465423633
  0
LINE
  5
654
100
AcDbEntity
  8
CURVE
100
AcDbLine
 62
253
  6
CONTINUOUS
 10
44.6526446308
 20
-11.0013042797
 11
45.6024999412
 21
-11.0013042797
  0
LINE
  5
655
100
AcDbEntity
  8
CURVE
100
AcDbLine
 62
253
  6
CONTINUOUS
 10
48.7654739188
 20
-10.8681535394
 11
51.0628879443
 21
-10.8681535394
  0
LINE
  5
656
100
AcDbEntity
  8
CURVE
100
AcDbLine
 62
253
  6
CONTINUOUS
 10
33.254380906
 20
-10.5393995394
 11
34.5541829097
 21
-10.5393995394
  0
LINE
  5
657
100
AcDbEntity
  8
CURVE
100
AcDbLine
 62
253
  6
CONTINUOUS
 10
29.8548987425
 20
-10.2870185916
 11
31.1547007462
 21
-10.2870185916
  0
LINE
  5
658
100
AcDbEntity
  8
CURVE
100
AcDbLine
 62
253
  6
CONTINUOUS
 10
41.761800793
 20
-10.1542895394
 11
41.0112094826
 21
-10.1542895394
  0
LINE
  5
659
100
AcDbEntity
  8
CURVE
100
AcDbLine
 62
253
  6
CONTINUOUS
 10
37.4178643004
 20
-10.1542895394
 11
36.6672729901
 21
-10.1542895394
  0
LINE
  5
65A
100
AcDbEntity
  8
CURVE
100
AcDbLine
 62
253
  6
CONTINUOUS
 10
44.6526446308
 20
-9.5084471692
 11
45.6024999412
 21
-9.5084471692
  0
LINE
  5
65B
100
AcDbEntity
  8
CURVE
100
AcDbLine
 62
253
  6
CONTINUOUS
 10
50.5901349823
 20
-9.4141695394
 11
48.1637702454
 21
-9.4141695394
  0
LINE
  5
65C
100
AcDbEntity
  8
CURVE
100
AcDbLine
 62
253
  6
CONTINUOUS
 10
45.0597254822
 20
-10.3679708709
 11
46.5523552516
 21
-10.7751137604
  0
LINE
  5
65D
100
AcDbEntity
  8
CURVE
100
AcDbLine
 62
253
  6
CONTINUOUS
 10
45.0597254822
 20
-8.8751138737
 11
46.5523552516
 21
-9.2822566499
  0
LINE
  5
65E
100
AcDbEntity
  8
CURVE
100
AcDbLine
 62
253
  6
CONTINUOUS
 10
49.2600082444
 20
-12.7158905394
 11
50.5087327839
 21
-13.1458485394
  0
LINE
  5
65F
100
AcDbEntity
  8
CURVE
100
AcDbLine
 62
253
  6
CONTINUOUS
 10
48.1637702454
 20
-12.3382885394
 11
48.7782220347
 21
-12.5552455394
  0
LINE
  5
660
100
AcDbEntity
  8
CURVE
100
AcDbLine
 62
253
  6
CONTINUOUS
 10
51.0628879443
 20
-12.7922835394
 11
48.1637702454
 21
-11.7438395394
  0
LINE
  5
661
100
AcDbEntity
  8
CURVE
100
AcDbLine
 62
253
  6
CONTINUOUS
 10
46.0095808209
 20
-7.7893995394
 11
46.5523552516
 21
-8.3322567065
  0
LINE
  5
662
100
AcDbEntity
  8
CURVE
100
AcDbLine
 62
253
  6
CONTINUOUS
 10
39.27158551
 20
9.1346624606
 11
39.2811575936
 21
9.1159124606
  0
LINE
  5
663
100
AcDbEntity
  8
RACCORDO
100
AcDbLine
 62
7
  6
CONTINUOUS
 10
54.5512891177
 20
-20.9390895074
 11
54.5512891177
 21
-22.7894037702
  0
LINE
  5
664
100
AcDbEntity
  8
RACCORDO
100
AcDbLine
 62
7
  6
CONTINUOUS
 10
54.5512891177
 20
23.8602904286
 11
54.5512891177
 21
25.7106046914
  0
LINE
  5
665
100
AcDbEntity
  8
RACCORDO
100
AcDbLine
 62
253
  6
CONTINUOUS
 10
55.8027435505
 20
-21.8063868375
 11
55.8027435505
 21
-20.8728105008
  0
LINE
  5
666
100
AcDbEntity
  8
RACCORDO
100
AcDbLine
 62
253
  6
CONTINUOUS
 10
55.8027435505
 20
23.794011422
 11
55.8027435505
 21
24.7275877587
  0
LINE
  5
667
100
AcDbEntity
  8
RACCORDO
100
AcDbLine
 62
7
  6
CONTINUOUS
 10
56.0512891177
 20
-21.6620492702
 11
56.0512891177
 21
-20.8607878705
  0
LINE
  5
668
100
AcDbEntity
  8
RACCORDO
100
AcDbLine
 62
7
  6
CONTINUOUS
 10
56.0512891177
 20
23.7819887917
 11
56.0512891177
 21
24.5832501914
  0
LINE
  5
669
100
AcDbEntity
  8
RACCORDO
100
AcDbLine
 62
253
  6
CONTINUOUS
 10
56.8027435505
 20
25.6975061127
 11
56.8027435505
 21
25.3049380279
  0
LINE
  5
66A
100
AcDbEntity
  8
RACCORDO
100
AcDbLine
 62
253
  6
CONTINUOUS
 10
56.8027435505
 20
-22.3837371067
 11
56.8027435505
 21
-22.7763051915
  0
LINE
  5
66B
100
AcDbEntity
  8
RACCORDO
100
AcDbLine
 62
7
  6
CONTINUOUS
 10
57.0512891177
 20
25.6975061127
 11
57.0512891177
 21
25.3049380279
  0
LINE
  5
66C
100
AcDbEntity
  8
RACCORDO
100
AcDbLine
 62
7
  6
CONTINUOUS
 10
57.0512891177
 20
-22.3837371067
 11
57.0512891177
 21
-22.7763051915
  0
LINE
  5
66D
100
AcDbEntity
  8
RACCORDO
100
AcDbLine
 62
7
  6
CONTINUOUS
 10
54.5512891177
 20
-21.6620492702
 11
53.6762891177
 21
-22.1672307558
  0
LINE
  5
66E
100
AcDbEntity
  8
RACCORDO
100
AcDbLine
 62
253
  6
CONTINUOUS
 10
54.5512891177
 20
-21.9498846876
 11
53.7998346849
 21
-22.3837371067
  0
LINE
  5
66F
100
AcDbEntity
  8
SMUSSO
100
AcDbLine
 62
7
  6
CONTINUOUS
 10
34.525110508
 20
-7.0827324825
 11
18.5338367113
 21
-7.2438875255
  0
LINE
  5
670
100
AcDbEntity
  8
ASSI
100
AcDbLine
 62
7
  6
CONTINUOUS
 10
34.525110508
 20
-7.0827324825
 11
18.5338367113
 21
-7.2438875255
  0
LINE
  5
671
100
AcDbEntity
  8
CURVE
100
AcDbLine
 62
253
  6
CONTINUOUS
 10
48.1637702454
 20
-8.8317245394
 11
51.0628879443
 21
-8.8317245394
  0
LINE
  5
672
100
AcDbEntity
  8
CURVE
100
AcDbLine
 62
253
  6
CONTINUOUS
 10
46.5523552516
 20
-8.3322567065
 11
44.6526446308
 21
-8.3322567065
  0
LINE
  5
673
100
AcDbEntity
  8
RACCORDO
100
AcDbLine
 62
253
  6
CONTINUOUS
 10
25.5512891177
 20
-5.9946914779
 11
25.7495438106
 21
-5.9946914779
  0
LINE
  5
674
100
AcDbEntity
  8
ASSI
100
AcDbLine
 62
253
  6
CONTINUOUS
 10
25.5512891177
 20
-5.9946914779
 11
25.7495438106
 21
-5.9946914779
  0
LINE
  5
675
100
AcDbEntity
  8
RACCORDO
100
AcDbLine
 62
7
  6
CONTINUOUS
 10
25.7482663992
 20
-6.1946686345
 11
29.7316484657
 21
-6.2548789618
  0
LINE
  5
676
100
AcDbEntity
  8
ASSI
100
AcDbLine
 62
7
  6
CONTINUOUS
 10
25.7482663992
 20
-6.1946686345
 11
29.7316484657
 21
-6.2548789618
  0
LINE
  5
677
100
AcDbEntity
  8
RACCORDO
100
AcDbLine
 62
253
  6
CONTINUOUS
 10
25.7495438106
 20
-5.9946914779
 11
33.5512891177
 21
-6.1126178104
  0
LINE
  5
678
100
AcDbEntity
  8
ASSI
100
AcDbLine
 62
253
  6
CONTINUOUS
 10
25.7495438106
 20
-5.9946914779
 11
33.5512891177
 21
-6.1126178104
  0
LINE
  5
679
100
AcDbEntity
  8
CURVE
100
AcDbLine
 62
253
  6
CONTINUOUS
 10
49.2600082444
 20
-6.6908555394
 11
50.508896734
 21
-7.1208705394
  0
LINE
  5
67A
100
AcDbEntity
  8
CURVE
100
AcDbLine
 62
253
  6
CONTINUOUS
 10
48.1637702454
 20
-6.3133635394
 11
48.7782220347
 21
-6.5302115394
  0
LINE
  5
67B
100
AcDbEntity
  8
CURVE
100
AcDbLine
 62
253
  6
CONTINUOUS
 10
51.0628879443
 20
-6.7672485394
 11
48.1637702454
 21
-5.7189135394
  0
LINE
  5
67C
100
AcDbEntity
  8
CURVE
100
AcDbLine
 62
253
  6
CONTINUOUS
 10
33.7400212234
 20
9.8463146577
 11
33.5543352146
 21
10.0320288549
  0
LINE
  5
67D
100
AcDbEntity
  8
DRAFT
100
AcDbLine
 62
7
  6
CONTINUOUS
 10
33.5512891177
 20
-6.1393995394
 11
17.7525234006
 21
-6.6170445603
  0
LINE
  5
67E
100
AcDbEntity
  8
ASSI
100
AcDbLine
 62
7
  6
CONTINUOUS
 10
33.5512891177
 20
-6.1393995394
 11
17.7525234006
 21
-6.6170445603
  0
LINE
  5
67F
100
AcDbEntity
  8
RACCORDO
100
AcDbLine
 62
253
  6
CONTINUOUS
 10
25.7495438106
 20
-3.4841076009
 11
33.5512891177
 21
-3.3661812684
  0
LINE
  5
680
100
AcDbEntity
  8
ASSI
100
AcDbLine
 62
253
  6
CONTINUOUS
 10
25.7495438106
 20
-3.4841076009
 11
33.5512891177
 21
-3.3661812684
  0
LINE
  5
681
100
AcDbEntity
  8
RACCORDO
100
AcDbLine
 62
7
  6
CONTINUOUS
 10
25.7482663652
 20
-3.2841304448
 11
29.7316484657
 21
-3.2239201171
  0
LINE
  5
682
100
AcDbEntity
  8
ASSI
100
AcDbLine
 62
7
  6
CONTINUOUS
 10
25.7482663652
 20
-3.2841304448
 11
29.7316484657
 21
-3.2239201171
  0
LINE
  5
683
100
AcDbEntity
  8
CURVE
100
AcDbLine
 62
253
  6
CONTINUOUS
 10
48.6455564552
 20
-5.4061375394
 11
48.1637702454
 21
-5.4061375394
  0
LINE
  5
684
100
AcDbEntity
  8
CURVE
100
AcDbLine
 62
253
  6
CONTINUOUS
 10
51.0628879443
 20
-4.3331385394
 11
48.6455564552
 21
-4.3331385394
  0
LINE
  5
685
100
AcDbEntity
  8
CURVE
100
AcDbLine
 62
253
  6
CONTINUOUS
 10
48.1637702454
 20
-3.7105325394
 11
51.0628879443
 21
-3.7105325394
  0
LINE
  5
686
100
AcDbEntity
  8
RACCORDO
100
AcDbLine
 62
253
  6
CONTINUOUS
 10
25.5512891177
 20
-3.4841076009
 11
25.7495438106
 21
-3.4841076009
  0
LINE
  5
687
100
AcDbEntity
  8
ASSI
100
AcDbLine
 62
253
  6
CONTINUOUS
 10
25.5512891177
 20
-3.4841076009
 11
25.7495438106
 21
-3.4841076009
  0
LINE
  5
688
100
AcDbEntity
  8
SMUSSO
100
AcDbLine
 62
7
  6
CONTINUOUS
 10
18.5338367113
 20
-2.2349115533
 11
34.525110508
 21
-2.3960665963
  0
LINE
  5
689
100
AcDbEntity
  8
ASSI
100
AcDbLine
 62
7
  6
CONTINUOUS
 10
18.5338367113
 20
-2.2349115533
 11
34.525110508
 21
-2.3960665963
  0
LINE
  5
68A
100
AcDbEntity
  8
DRAFT
100
AcDbLine
 62
7
  6
CONTINUOUS
 10
33.5512891177
 20
-3.3393995394
 11
17.7525234006
 21
-2.8617545185
  0
LINE
  5
68B
100
AcDbEntity
  8
ASSI
100
AcDbLine
 62
7
  6
CONTINUOUS
 10
33.5512891177
 20
-3.3393995394
 11
17.7525234006
 21
-2.8617545185
  0
LINE
  5
68C
100
AcDbEntity
  8
CURVE
100
AcDbLine
 62
253
  6
CONTINUOUS
 10
39.305086303
 20
9.1299754606
 11
39.2955152191
 21
9.1393504606
  0
LINE
  5
68D
100
AcDbEntity
  8
CURVE
100
AcDbLine
 62
253
  6
CONTINUOUS
 10
34.2970792499
 20
12.817743362
 11
34.1113932217
 21
13.0034575592
  0
LINE
  5
68E
100
AcDbEntity
  8
CURVE
100
AcDbLine
 62
253
  6
CONTINUOUS
 10
37.1671206968
 20
11.7588004606
 11
37.8569105321
 21
11.0688004606
  0
LINE
  5
68F
100
AcDbEntity
  8
CURVE
100
AcDbLine
 62
253
  6
CONTINUOUS
 10
38.216800881
 20
10.7088004606
 11
39.2664810652
 21
9.6588004606
  0
LINE
  5
690
100
AcDbEntity
  8
CURVE
100
AcDbLine
 62
253
  6
CONTINUOUS
 10
39.2664810652
 20
10.2588004606
 11
38.6006839198
 21
10.9248004606
  0
LINE
  5
691
100
AcDbEntity
  8
CURVE
100
AcDbLine
 62
253
  6
CONTINUOUS
 10
38.2407935709
 20
11.2848004606
 11
37.1671206968
 21
12.3588004606
  0
LINE
  5
692
100
AcDbEntity
  8
CURVE
100
AcDbLine
 62
253
  6
CONTINUOUS
 10
39.2664810652
 20
15.7926004606
 11
38.4267369178
 21
16.8606004606
  0
LINE
  5
693
100
AcDbEntity
  8
CURVE
100
AcDbLine
 62
253
  6
CONTINUOUS
 10
48.1637702454
 20
-1.8627955394
 11
49.2801920948
 21
-1.8627955394
  0
LINE
  5
694
100
AcDbEntity
  8
CURVE
100
AcDbLine
 62
253
  6
CONTINUOUS
 10
49.7619783045
 20
-1.8627955394
 11
50.5811017346
 21
-1.8627955394
  0
LINE
  5
695
100
AcDbEntity
  8
CURVE
100
AcDbLine
 62
253
  6
CONTINUOUS
 10
51.0628879443
 20
-1.2401895394
 11
48.1637702454
 21
-1.2401895394
  0
LINE
  5
696
100
AcDbEntity
  8
CURVE
100
AcDbLine
 62
253
  6
CONTINUOUS
 10
33.6781258839
 20
9.0106004606
 11
33.6162305492
 21
9.0415527235
  0
LINE
  5
697
100
AcDbEntity
  8
CURVE
100
AcDbLine
 62
253
  6
CONTINUOUS
 10
33.7090735488
 20
9.134410132
 11
33.7709688883
 21
9.1034578691
  0
LINE
  5
698
100
AcDbEntity
  8
CURVE
100
AcDbLine
 62
253
  6
CONTINUOUS
 10
39.2811575936
 20
9.1159124606
 11
39.300300761
 21
9.1018504606
  0
LINE
  5
699
100
AcDbEntity
  8
CURVE
100
AcDbLine
 62
253
  6
CONTINUOUS
 10
34.2970792499
 20
16.8106004606
 11
34.1113932217
 21
16.9963147352
  0
LINE
  5
69A
100
AcDbEntity
  8
CURVE
100
AcDbLine
 62
253
  6
CONTINUOUS
 10
37.8569105321
 20
16.8606004606
 11
37.975061534
 21
16.7207874606
  0
LINE
  5
69B
100
AcDbEntity
  8
CURVE
100
AcDbLine
 62
253
  6
CONTINUOUS
 10
38.3047860737
 20
16.3306124606
 11
39.2664810652
 21
15.1926004606
  0
LINE
  5
69C
100
AcDbEntity
  8
CURVE
100
AcDbLine
 62
253
  6
CONTINUOUS
 10
49.5248916111
 20
6.7660447506
 11
49.542020815
 21
6.7660447506
  0
LINE
  5
69D
100
AcDbEntity
  8
CURVE
100
AcDbLine
 62
253
  6
CONTINUOUS
 10
48.1717714554
 20
7.7193318438
 11
49.3061899358
 21
7.7193318438
  0
LINE
  5
69E
100
AcDbEntity
  8
CURVE
100
AcDbLine
 62
253
  6
CONTINUOUS
 10
49.7809384289
 20
7.7394017324
 11
50.5767073318
 21
7.7394017324
  0
LINE
  5
69F
100
AcDbEntity
  8
CURVE
100
AcDbLine
 62
253
  6
CONTINUOUS
 10
39.300300761
 20
9.1018504606
 11
39.3146573869
 21
9.0971624606
  0
LINE
  5
6A0
100
AcDbEntity
  8
CURVE
100
AcDbLine
 62
253
  6
CONTINUOUS
 10
39.3194439285
 20
9.1252874606
 11
39.305086303
 21
9.1299754606
  0
LINE
  5
6A1
100
AcDbEntity
  8
CURVE
100
AcDbLine
 62
253
  6
CONTINUOUS
 10
33.6781258839
 20
13.901076592
 11
33.6162305492
 21
13.9320291649
  0
LINE
  5
6A2
100
AcDbEntity
  8
CURVE
100
AcDbLine
 62
253
  6
CONTINUOUS
 10
33.7090735488
 20
14.0248862634
 11
33.7709688883
 21
13.9939336906
  0
LINE
  5
6A3
100
AcDbEntity
  8
CURVE
100
AcDbLine
 62
253
  6
CONTINUOUS
 10
48.1717718075
 20
9.1378354606
 11
48.7504694903
 21
9.2946334606
  0
LINE
  5
6A4
100
AcDbEntity
  8
CURVE
100
AcDbLine
 62
253
  6
CONTINUOUS
 10
49.1982630569
 20
9.4155964606
 11
50.274033292
 21
9.6937264606
  0
LINE
  5
6A5
100
AcDbEntity
  8
CURVE
100
AcDbLine
 62
253
  6
CONTINUOUS
 10
51.0705416124
 20
11.2508274606
 11
48.1717718075
 21
10.9796774606
  0
LINE
  5
6A6
100
AcDbEntity
  8
CURVE
100
AcDbLine
 62
253
  6
CONTINUOUS
 10
51.0366742784
 20
8.3221678049
 11
48.1717714554
 21
8.3221678049
  0
LINE
  5
6A7
100
AcDbEntity
  8
CURVE
100
AcDbLine
 62
253
  6
CONTINUOUS
 10
33.7090735488
 20
9.0106004606
 11
33.6781258839
 21
9.0106004606
  0
LINE
  5
6A8
100
AcDbEntity
  8
CURVE
100
AcDbLine
 62
253
  6
CONTINUOUS
 10
39.3146573869
 20
9.0971624606
 11
39.3338005543
 21
9.0971624606
  0
LINE
  5
6A9
100
AcDbEntity
  8
CURVE
100
AcDbLine
 62
253
  6
CONTINUOUS
 10
39.3338005543
 20
9.1252874606
 11
39.3194439285
 21
9.1252874606
  0
LINE
  5
6AA
100
AcDbEntity
  8
CURVE
100
AcDbLine
 62
253
  6
CONTINUOUS
 10
33.6781258839
 20
9.134410132
 11
33.7090735488
 21
9.134410132
  0
LINE
  5
6AB
100
AcDbEntity
  8
CURVE
100
AcDbLine
 62
253
  6
CONTINUOUS
 10
39.1615130468
 20
9.2424754606
 11
39.2620144261
 21
9.2424754606
  0
LINE
  5
6AC
100
AcDbEntity
  8
CURVE
100
AcDbLine
 62
253
  6
CONTINUOUS
 10
39.2907286775
 20
9.2424754606
 11
39.3625158054
 21
9.2424754606
  0
LINE
  5
6AD
100
AcDbEntity
  8
CURVE
100
AcDbLine
 62
253
  6
CONTINUOUS
 10
39.3864445148
 20
9.2706004606
 11
39.1615130468
 21
9.2706004606
  0
LINE
  5
6AE
100
AcDbEntity
  8
CURVE
100
AcDbLine
 62
253
  6
CONTINUOUS
 10
34.6684512288
 20
9.8463146577
 11
33.7400212234
 21
9.8463146577
  0
LINE
  5
6AF
100
AcDbEntity
  8
CURVE
100
AcDbLine
 62
253
  6
CONTINUOUS
 10
33.5543352146
 20
10.4963146577
 11
34.8541372183
 21
10.4963146577
  0
LINE
  5
6B0
100
AcDbEntity
  8
CURVE
100
AcDbLine
 62
253
  6
CONTINUOUS
 10
33.5543352146
 20
10.8677430521
 11
34.8541372183
 21
10.8677430521
  0
LINE
  5
6B1
100
AcDbEntity
  8
CURVE
100
AcDbLine
 62
253
  6
CONTINUOUS
 10
50.274033292
 20
9.6937264606
 11
49.1982630569
 21
9.9951004606
  0
LINE
  5
6B2
100
AcDbEntity
  8
CURVE
100
AcDbLine
 62
253
  6
CONTINUOUS
 10
48.7504694903
 20
10.1189124606
 11
48.1717718075
 21
10.2859294606
  0
LINE
  5
6B3
100
AcDbEntity
  8
CURVE
100
AcDbLine
 62
253
  6
CONTINUOUS
 10
48.1717718075
 20
10.8846334606
 11
51.0705416124
 21
9.9751174606
  0
LINE
  5
6B4
100
AcDbEntity
  8
CURVE
100
AcDbLine
 62
253
  6
CONTINUOUS
 10
50.0567235018
 20
11.6961484606
 11
48.1717718075
 21
12.4158164606
  0
LINE
  5
6B5
100
AcDbEntity
  8
CURVE
100
AcDbLine
 62
253
  6
CONTINUOUS
 10
51.0705416124
 20
16.8033484606
 11
49.075228543
 21
16.2506214606
  0
LINE
  5
6B6
100
AcDbEntity
  8
CURVE
100
AcDbLine
 62
253
  6
CONTINUOUS
 10
48.1717718075
 20
11.5717934606
 11
50.0567235018
 21
11.6961484606
  0
LINE
  5
6B7
100
AcDbEntity
  8
CURVE
100
AcDbLine
 62
253
  6
CONTINUOUS
 10
33.5543352146
 20
11.5177430521
 11
34.8541372183
 21
11.5177430521
  0
LINE
  5
6B8
100
AcDbEntity
  8
CURVE
100
AcDbLine
 62
253
  6
CONTINUOUS
 10
33.5543352146
 20
12.4463146577
 11
34.8541372183
 21
12.4463146577
  0
LINE
  5
6B9
100
AcDbEntity
  8
CURVE
100
AcDbLine
 62
253
  6
CONTINUOUS
 10
37.1671206968
 20
12.7008004606
 11
39.2664810652
 21
12.7008004606
  0
LINE
  5
6BA
100
AcDbEntity
  8
CURVE
100
AcDbLine
 62
253
  6
CONTINUOUS
 10
34.6684512288
 20
12.817743362
 11
34.2970792499
 21
12.817743362
  0
LINE
  5
6BB
100
AcDbEntity
  8
CURVE
100
AcDbLine
 62
253
  6
CONTINUOUS
 10
39.2664810652
 20
13.3008004606
 11
38.0699616199
 21
13.3008004606
  0
LINE
  5
6BC
100
AcDbEntity
  8
CURVE
100
AcDbLine
 62
253
  6
CONTINUOUS
 10
33.5543352146
 20
13.467743362
 11
34.8541372183
 21
13.467743362
  0
LINE
  5
6BD
100
AcDbEntity
  8
CURVE
100
AcDbLine
 62
253
  6
CONTINUOUS
 10
33.7090735488
 20
13.901076592
 11
33.6781258839
 21
13.901076592
  0
LINE
  5
6BE
100
AcDbEntity
  8
CURVE
100
AcDbLine
 62
253
  6
CONTINUOUS
 10
33.6781258839
 20
14.0248862634
 11
33.7090735488
 21
14.0248862634
  0
LINE
  5
6BF
100
AcDbEntity
  8
CURVE
100
AcDbLine
 62
253
  6
CONTINUOUS
 10
48.1717718075
 20
14.2462644606
 11
51.0707155594
 21
14.2462644606
  0
LINE
  5
6C0
100
AcDbEntity
  8
CURVE
100
AcDbLine
 62
253
  6
CONTINUOUS
 10
37.1671206968
 20
14.2506004606
 11
38.3636401421
 21
14.2506004606
  0
LINE
  5
6C1
100
AcDbEntity
  8
CURVE
100
AcDbLine
 62
253
  6
CONTINUOUS
 10
50.0646140977
 20
13.2107624606
 11
48.1717718075
 21
13.3413794606
  0
LINE
  5
6C2
100
AcDbEntity
  8
CURVE
100
AcDbLine
 62
253
  6
CONTINUOUS
 10
48.1717718075
 20
13.9204274606
 11
51.0705416124
 21
13.6586054606
  0
LINE
  5
6C3
100
AcDbEntity
  8
CURVE
100
AcDbLine
 62
253
  6
CONTINUOUS
 10
33.5543352146
 20
16.4391719113
 11
34.8541372183
 21
16.067743362
  0
LINE
  5
6C4
100
AcDbEntity
  8
CURVE
100
AcDbLine
 62
253
  6
CONTINUOUS
 10
51.0705416124
 20
15.0761524606
 11
48.1717718075
 21
16.0082174606
  0
LINE
  5
6C5
100
AcDbEntity
  8
CURVE
100
AcDbLine
 62
253
  6
CONTINUOUS
 10
49.461135965
 20
12.4549554606
 11
51.0705416124
 21
11.8496844606
  0
LINE
  5
6C6
100
AcDbEntity
  8
DRAFT
100
AcDbLine
 62
7
  6
CONTINUOUS
 10
52.8632980465
 20
21.3485915318
 11
53.059866924
 21
21.1520226543
  0
LINE
  5
6C7
100
AcDbEntity
  8
ASSI
100
AcDbLine
 62
7
  6
CONTINUOUS
 10
52.8632980465
 20
21.3485915318
 11
53.059866924
 21
21.1520226543
  0
LINE
  5
6C8
100
AcDbEntity
  8
CURVE
100
AcDbLine
 62
253
  6
CONTINUOUS
 10
39.2664810652
 20
14.8506004606
 11
37.1671206968
 21
14.8506004606
  0
LINE
  5
6C9
100
AcDbEntity
  8
CURVE
100
AcDbLine
 62
253
  6
CONTINUOUS
 10
51.0707155594
 20
14.8515354606
 11
48.1717718075
 21
14.8515354606
  0
LINE
  5
6CA
100
AcDbEntity
  8
CURVE
100
AcDbLine
 62
253
  6
CONTINUOUS
 10
33.5543352146
 20
14.9534575592
 11
34.8541372183
 21
14.9534575592
  0
LINE
  5
6CB
100
AcDbEntity
  8
CURVE
100
AcDbLine
 62
253
  6
CONTINUOUS
 10
34.6684512288
 20
16.8106004606
 11
34.2970792499
 21
16.8106004606
  0
LINE
  5
6CC
100
AcDbEntity
  8
CURVE
100
AcDbLine
 62
253
  6
CONTINUOUS
 10
37.1671206968
 20
16.8606004606
 11
37.8569105321
 21
16.8606004606
  0
LINE
  5
6CD
100
AcDbEntity
  8
CURVE
100
AcDbLine
 62
253
  6
CONTINUOUS
 10
38.4267369178
 20
16.8606004606
 11
39.2664810652
 21
16.8606004606
  0
LINE
  5
6CE
100
AcDbEntity
  8
CURVE
100
AcDbLine
 62
253
  6
CONTINUOUS
 10
39.2664810652
 20
17.4606004606
 11
37.1671206968
 21
17.4606004606
  0
LINE
  5
6CF
100
AcDbEntity
  8
CURVE
100
AcDbLine
 62
253
  6
CONTINUOUS
 10
33.5543352146
 20
17.4606004606
 11
34.8541372183
 21
17.4606004606
  0
LINE
  5
6D0
100
AcDbEntity
  8
CURVE
100
AcDbLine
 62
253
  6
CONTINUOUS
 10
49.075228543
 20
16.2506214606
 11
51.0705416124
 21
15.6810104606
  0
LINE
  5
6D1
100
AcDbEntity
  8
RACCORDO
100
AcDbLine
 62
253
  6
CONTINUOUS
 10
53.5512891177
 20
19.1609050703
 11
18.5338367113
 21
18.5496731649
  0
LINE
  5
6D2
100
AcDbEntity
  8
ASSI
100
AcDbLine
 62
253
  6
CONTINUOUS
 10
53.5512891177
 20
19.1609050703
 11
18.5338367113
 21
18.5496731649
  0
LINE
  5
6D3
100
AcDbEntity
  8
RACCORDO
100
AcDbLine
 62
7
  6
CONTINUOUS
 10
53.5512891177
 20
21.1606004606
 11
18.5338367113
 21
20.5493685552
  0
LINE
  5
6D4
100
AcDbEntity
  8
ASSI
100
AcDbLine
 62
7
  6
CONTINUOUS
 10
53.5512891177
 20
21.1606004606
 11
18.5338367113
 21
20.5493685552
  0
LINE
  5
6D5
100
AcDbEntity
  8
DRAFT
100
AcDbLine
 62
7
  6
CONTINUOUS
 10
52.8632980465
 20
21.3485915318
 11
43.5512891177
 21
21.1860498113
  0
LINE
  5
6D6
100
AcDbEntity
  8
ASSI
100
AcDbLine
 62
7
  6
CONTINUOUS
 10
52.8632980465
 20
21.3485915318
 11
43.5512891177
 21
21.1860498113
  0
LINE
  5
6D7
100
AcDbEntity
  8
RACCORDO
100
AcDbLine
 62
253
  6
CONTINUOUS
 10
17.5512891177
 20
18.5496731649
 11
18.5338367113
 21
18.5496731649
  0
LINE
  5
6D8
100
AcDbEntity
  8
ASSI
100
AcDbLine
 62
253
  6
CONTINUOUS
 10
17.5512891177
 20
18.5496731649
 11
18.5338367113
 21
18.5496731649
  0
LINE
  5
6D9
100
AcDbEntity
  8
ASSI
100
AcDbLine
 62
7
  6
CONTINUOUS
 10
44.04692585
 20
21.5435437823
 11
53.5512891177
 21
21.4606004606
  0
LINE
  5
6DA
100
AcDbEntity
  8
RACCORDO
100
AcDbLine
 62
253
  6
CONTINUOUS
 10
43.8555989916
 20
23.4913920209
 11
43.7477986364
 21
23.4895103587
  0
LINE
  5
6DB
100
AcDbEntity
  8
ASSI
100
AcDbLine
 62
253
  6
CONTINUOUS
 10
43.8555989916
 20
23.4913920209
 11
43.7477986364
 21
23.4895103587
  0
LINE
  5
6DC
100
AcDbEntity
  8
RACCORDO
100
AcDbLine
 62
7
  6
CONTINUOUS
 10
44.1685879675
 20
23.6968248028
 11
43.7477986364
 21
23.6894798977
  0
LINE
  5
6DD
100
AcDbEntity
  8
ASSI
100
AcDbLine
 62
7
  6
CONTINUOUS
 10
44.1685879675
 20
23.6968248028
 11
43.7477986364
 21
23.6894798977
  0
LINE
  5
6DE
100
AcDbEntity
  8
RACCORDO
100
AcDbLine
 62
253
  6
CONTINUOUS
 10
54.5491027887
 20
23.3604861892
 11
53.5512891177
 21
23.3517784012
  0
LINE
  5
6DF
100
AcDbEntity
  8
RACCORDO
100
AcDbLine
 62
7
  6
CONTINUOUS
 10
44.5425625822
 20
23.7732556274
 11
54.5512377547
 21
23.8606000124
  0
LINE
  5
6E0
100
AcDbEntity
  8
RACCORDO
100
AcDbLine
 62
7
  6
CONTINUOUS
 10
46.5512196929
 20
25.2140574182
 11
53.5515809034
 21
25.2547843283
  0
LINE
  5
6E1
100
AcDbEntity
  8
RACCORDO
100
AcDbLine
 62
253
  6
CONTINUOUS
 10
43.5512891177
 20
21.9395103587
 11
43.5622918615
 21
21.9395103587
  0
LINE
  5
6E2
100
AcDbEntity
  8
ASSI
100
AcDbLine
 62
253
  6
CONTINUOUS
 10
43.5512891177
 20
21.9395103587
 11
43.5622918615
 21
21.9395103587
  0
LINE
  5
6E3
100
AcDbEntity
  8
RACCORDO
100
AcDbLine
 62
253
  6
CONTINUOUS
 10
43.5512891177
 20
23.4895103587
 11
43.7477986364
 21
23.4895103587
  0
LINE
  5
6E4
100
AcDbEntity
  8
ASSI
100
AcDbLine
 62
253
  6
CONTINUOUS
 10
43.5512891177
 20
23.4895103587
 11
43.7477986364
 21
23.4895103587
  0
LINE
  5
6E5
100
AcDbEntity
  8
RACCORDO
100
AcDbLine
 62
7
  6
CONTINUOUS
 10
43.5512891177
 20
22.4565960063
 11
53.3515023575
 21
22.371070841
  0
LINE
  5
6E6
100
AcDbEntity
  8
RACCORDO
100
AcDbLine
 62
7
  6
CONTINUOUS
 10
44.0425629145
 20
23.0265758939
 11
53.5512891177
 21
22.8606004606
  0
LINE
  5
6E7
100
AcDbEntity
  8
DRAFT
100
AcDbLine
 62
7
  6
CONTINUOUS
 10
53.3515023575
 20
22.371070841
 11
53.5512891177
 21
22.3606004606
  0
LINE
  5
6E8
100
AcDbEntity
  8
RACCORDO
100
AcDbLine
 62
253
  6
CONTINUOUS
 10
54.5491027887
 20
23.3604861892
 11
63.4842454072
 21
22.892215207
  0
LINE
  5
6E9
100
AcDbEntity
  8
RACCORDO
100
AcDbLine
 62
7
  6
CONTINUOUS
 10
55.9268322597
 20
23.7885112992
 11
63.5016871821
 21
23.3915299743
  0
LINE
  5
6EA
100
AcDbEntity
  8
RACCORDO
100
AcDbLine
 62
7
  6
CONTINUOUS
 10
53.6762891177
 20
25.0884316769
 11
54.5512891177
 21
24.5832501914
  0
LINE
  5
6EB
100
AcDbEntity
  8
RACCORDO
100
AcDbLine
 62
253
  6
CONTINUOUS
 10
53.7998346849
 20
25.3049380279
 11
54.5512891177
 21
24.8710856088
  0
LINE
  5
6EC
100
AcDbEntity
  8
RACCORDO
100
AcDbLine
 62
253
  6
CONTINUOUS
 10
53.7998346849
 20
25.7062328574
 11
54.5512891177
 21
25.7106046914
  0
LINE
  5
6ED
100
AcDbEntity
  8
RACCORDO
100
AcDbLine
 62
7
  6
CONTINUOUS
 10
53.7998346849
 20
25.9562286266
 11
54.5512891177
 21
25.9606004606
  0
LINE
  5
6EE
100
AcDbEntity
  8
RACCORDO
100
AcDbLine
 62
253
  6
CONTINUOUS
 10
57.0512891177
 20
25.3049380279
 11
56.8027435505
 21
25.3049380279
  0
LINE
  5
6EF
100
AcDbEntity
  8
RACCORDO
100
AcDbLine
 62
253
  6
CONTINUOUS
 10
53.5512891177
 20
25.3049380279
 11
53.7998346849
 21
25.3049380279
  0
LINE
  5
6F0
100
AcDbEntity
  8
RACCORDO
100
AcDbLine
 62
253
  6
CONTINUOUS
 10
57.0512891177
 20
25.6975061127
 11
56.8027435505
 21
25.6975061127
  0
LINE
  5
6F1
100
AcDbEntity
  8
RACCORDO
100
AcDbLine
 62
253
  6
CONTINUOUS
 10
53.5512891177
 20
25.7062328574
 11
53.7998346849
 21
25.7062328574
  0
LINE
  5
6F2
100
AcDbEntity
  8
RACCORDO
100
AcDbLine
 62
253
  6
CONTINUOUS
 10
54.5512891177
 20
25.7106046914
 11
56.8027435505
 21
25.6975061127
  0
LINE
  5
6F3
100
AcDbEntity
  8
RACCORDO
100
AcDbLine
 62
7
  6
CONTINUOUS
 10
54.5512891177
 20
25.9606004606
 11
56.8027435505
 21
25.9475018819
  0
LINE
  5
6F4
100
AcDbEntity
  8
RACCORDO
100
AcDbLine
 62
253
  6
CONTINUOUS
 10
65.4458347513
 20
22.5815299765
 11
72.818834366
 21
20.605940684
  0
LINE
  5
6F5
100
AcDbEntity
  8
RACCORDO
100
AcDbLine
 62
7
  6
CONTINUOUS
 10
65.5665180707
 20
23.0644928897
 11
72.9395176854
 21
21.0889035971
  0
ARC
  5
6F6
100
AcDbEntity
  8
RACCORDO
100
AcDbCircle
 62
7
  6
CONTINUOUS
 10
-75.7815808695
 20
-20.4390913552
 40
0.5003856098
100
AcDbArc
 50
180.0222036566
 51
243.4297017541
  0
ARC
  5
6F7
100
AcDbEntity
  8
RACCORDO
100
AcDbCircle
 62
253
  6
CONTINUOUS
 10
-75.6484439346
 20
-20.0379428526
 40
0.5001617731
100
AcDbArc
 50
180.0993393587
 51
269.9753502803
  0
ARC
  5
6F8
100
AcDbEntity
  8
RACCORDO
100
AcDbCircle
 62
7
  6
CONTINUOUS
 10
-75.7821286115
 20
-20.4398497464
 40
0.4994612273
100
AcDbArc
 50
243.4469856463
 51
260.6799089396
  0
ARC
  5
6F9
100
AcDbEntity
  8
RACCORDO
100
AcDbCircle
 62
7
  6
CONTINUOUS
 10
-75.7817612624
 20
-20.4423744283
 40
0.4970299645
100
AcDbArc
 50
260.5909880371
 51
267.9683854665
  0
ARC
  5
6FA
100
AcDbEntity
  8
RACCORDO
100
AcDbCircle
 62
7
  6
CONTINUOUS
 10
-75.5481373922
 20
-22.7891175567
 40
0.2512459309
100
AcDbArc
 50
180.065270029
 51
194.9890794493
  0
ARC
  5
6FB
100
AcDbEntity
  8
RACCORDO
100
AcDbCircle
 62
7
  6
CONTINUOUS
 10
-73.6496651428
 20
-22.7881537715
 40
0.2512459309
100
AcDbArc
 50
270.065270029
 51
284.9890794493
  0
ARC
  5
6FC
100
AcDbEntity
  8
RACCORDO
100
AcDbCircle
 62
7
  6
CONTINUOUS
 10
-54.7496651428
 20
-22.7881537715
 40
0.2512459309
100
AcDbArc
 50
270.065270029
 51
284.9890794493
  0
ARC
  5
6FD
100
AcDbEntity
  8
RACCORDO
100
AcDbCircle
 62
7
  6
CONTINUOUS
 10
-56.6481373922
 20
-22.7891175567
 40
0.2512459309
100
AcDbArc
 50
180.065270029
 51
194.9890794493
  0
ARC
  5
6FE
100
AcDbEntity
  8
RACCORDO
100
AcDbCircle
 62
7
  6
CONTINUOUS
 10
-75.5362785981
 20
-22.7762949775
 40
0.2500059834
100
AcDbArc
 50
180.0023408215
 51
269.9976591785
  0
ARC
  5
6FF
100
AcDbEntity
  8
RACCORDO
100
AcDbCircle
 62
7
  6
CONTINUOUS
 10
-73.662487722
 20
-22.7762949775
 40
0.2500059834
100
AcDbArc
 50
270.0023408115
 51
359.9976591885
  0
ARC
  5
700
100
AcDbEntity
  8
RACCORDO
100
AcDbCircle
 62
7
  6
CONTINUOUS
 10
-54.762487722
 20
-22.7762949775
 40
0.2500059834
100
AcDbArc
 50
270.0023408215
 51
359.9976591785
  0
ARC
  5
701
100
AcDbEntity
  8
RACCORDO
100
AcDbCircle
 62
7
  6
CONTINUOUS
 10
-56.6362785982
 20
-22.7762949775
 40
0.2500059834
100
AcDbArc
 50
180.0023408115
 51
269.9976591885
  0
ARC
  5
702
100
AcDbEntity
  8
RACCORDO
100
AcDbCircle
 62
7
  6
CONTINUOUS
 10
-75.5493945068
 20
-22.789478828
 40
0.2499207115
100
AcDbArc
 50
232.4909081704
 51
270.0016313761
  0
ARC
  5
703
100
AcDbEntity
  8
RACCORDO
100
AcDbCircle
 62
7
  6
CONTINUOUS
 10
-73.6493038715
 20
-22.7894108862
 40
0.2499207115
100
AcDbArc
 50
322.4909081704
 51
0.0016313761
  0
ARC
  5
704
100
AcDbEntity
  8
RACCORDO
100
AcDbCircle
 62
7
  6
CONTINUOUS
 10
-54.7493038715
 20
-22.7894108862
 40
0.2499207115
100
AcDbArc
 50
322.4909081704
 51
0.0016313761
  0
ARC
  5
705
100
AcDbEntity
  8
RACCORDO
100
AcDbCircle
 62
7
  6
CONTINUOUS
 10
-56.6493945068
 20
-22.789478828
 40
0.2499207115
100
AcDbArc
 50
232.4909081704
 51
270.0016313761
  0
ARC
  5
706
100
AcDbEntity
  8
RACCORDO
100
AcDbCircle
 62
7
  6
CONTINUOUS
 10
-75.5499600985
 20
-22.7899764778
 40
0.2491816084
100
AcDbArc
 50
217.4756024281
 51
232.5243975719
  0
ARC
  5
707
100
AcDbEntity
  8
RACCORDO
100
AcDbCircle
 62
7
  6
CONTINUOUS
 10
-73.6488062217
 20
-22.7899764778
 40
0.2491816084
100
AcDbArc
 50
307.4756024281
 51
322.5243975719
  0
ARC
  5
708
100
AcDbEntity
  8
RACCORDO
100
AcDbCircle
 62
7
  6
CONTINUOUS
 10
-54.7488062217
 20
-22.7899764778
 40
0.2491816084
100
AcDbArc
 50
307.4756024281
 51
322.5243975719
  0
ARC
  5
709
100
AcDbEntity
  8
RACCORDO
100
AcDbCircle
 62
7
  6
CONTINUOUS
 10
-56.6499600985
 20
-22.7899764778
 40
0.2491816084
100
AcDbArc
 50
217.4756024281
 51
232.5243975719
  0
ARC
  5
70A
100
AcDbEntity
  8
RACCORDO
100
AcDbCircle
 62
7
  6
CONTINUOUS
 10
-75.550495739
 20
-22.7900076246
 40
0.2487377493
100
AcDbArc
 50
194.9315314718
 51
217.5449775991
  0
ARC
  5
70B
100
AcDbEntity
  8
RACCORDO
100
AcDbCircle
 62
7
  6
CONTINUOUS
 10
-73.6487750749
 20
-22.7905121183
 40
0.2487377493
100
AcDbArc
 50
284.9315314718
 51
307.5449775991
  0
ARC
  5
70C
100
AcDbEntity
  8
RACCORDO
100
AcDbCircle
 62
7
  6
CONTINUOUS
 10
-54.7487750749
 20
-22.7905121183
 40
0.2487377493
100
AcDbArc
 50
284.9315314718
 51
307.5449775991
  0
ARC
  5
70D
100
AcDbEntity
  8
RACCORDO
100
AcDbCircle
 62
7
  6
CONTINUOUS
 10
-56.650495739
 20
-22.7900076246
 40
0.2487377493
100
AcDbArc
 50
194.9315314718
 51
217.5449775991
  0
ARC
  5
70E
100
AcDbEntity
  8
RACCORDO
100
AcDbCircle
 62
7
  6
CONTINUOUS
 10
-75.781596634
 20
23.3603019777
 40
0.5003685676
100
AcDbArc
 50
92.0229550957
 51
179.9789065095
  0
ARC
  5
70F
100
AcDbEntity
  8
RACCORDO
100
AcDbCircle
 62
253
  6
CONTINUOUS
 10
-75.6258637277
 20
22.8913480653
 40
0.5001617734
100
AcDbArc
 50
90.0246497451
 51
179.9006606083
  0
ARC
  5
710
100
AcDbEntity
  8
RACCORDO
100
AcDbCircle
 62
7
  6
CONTINUOUS
 10
-73.650628928
 20
25.7103184779
 40
0.2512459309
100
AcDbArc
 50
0.065270029
 51
14.9890794493
  0
ARC
  5
711
100
AcDbEntity
  8
RACCORDO
100
AcDbCircle
 62
7
  6
CONTINUOUS
 10
-75.5491011774
 20
25.7093546927
 40
0.2512459309
100
AcDbArc
 50
90.065270029
 51
104.9890794493
  0
ARC
  5
712
100
AcDbEntity
  8
RACCORDO
100
AcDbCircle
 62
7
  6
CONTINUOUS
 10
-54.750628928
 20
25.7103184779
 40
0.2512459309
100
AcDbArc
 50
0.065270029
 51
14.9890794493
  0
ARC
  5
713
100
AcDbEntity
  8
RACCORDO
100
AcDbCircle
 62
7
  6
CONTINUOUS
 10
-56.6491011774
 20
25.7093546927
 40
0.2512459309
100
AcDbArc
 50
90.065270029
 51
104.9890794493
  0
ARC
  5
714
100
AcDbEntity
  8
RACCORDO
100
AcDbCircle
 62
7
  6
CONTINUOUS
 10
-73.662487722
 20
25.6974958987
 40
0.2500059834
100
AcDbArc
 50
0.0023408115
 51
89.9976591885
  0
ARC
  5
715
100
AcDbEntity
  8
RACCORDO
100
AcDbCircle
 62
7
  6
CONTINUOUS
 10
-75.5362785982
 20
25.6974958987
 40
0.2500059834
100
AcDbArc
 50
90.0023408115
 51
179.9976591885
  0
ARC
  5
716
100
AcDbEntity
  8
RACCORDO
100
AcDbCircle
 62
7
  6
CONTINUOUS
 10
-54.762487722
 20
25.6974958987
 40
0.2500059834
100
AcDbArc
 50
0.0023408215
 51
89.9976591785
  0
ARC
  5
717
100
AcDbEntity
  8
RACCORDO
100
AcDbCircle
 62
7
  6
CONTINUOUS
 10
-56.6362785982
 20
25.6974958987
 40
0.2500059834
100
AcDbArc
 50
90.0023408115
 51
179.9976591885
  0
ARC
  5
718
100
AcDbEntity
  8
RACCORDO
100
AcDbCircle
 62
7
  6
CONTINUOUS
 10
-73.6493718133
 20
25.7106797492
 40
0.2499207115
100
AcDbArc
 50
52.4909081704
 51
90.0016313761
  0
ARC
  5
719
100
AcDbEntity
  8
RACCORDO
100
AcDbCircle
 62
7
  6
CONTINUOUS
 10
-75.5494624487
 20
25.7106118073
 40
0.2499207115
100
AcDbArc
 50
142.4909081704
 51
180.0016313761
  0
ARC
  5
71A
100
AcDbEntity
  8
RACCORDO
100
AcDbCircle
 62
7
  6
CONTINUOUS
 10
-54.7493718133
 20
25.7106797492
 40
0.2499207115
100
AcDbArc
 50
52.4909081704
 51
90.0016313761
  0
ARC
  5
71B
100
AcDbEntity
  8
RACCORDO
100
AcDbCircle
 62
7
  6
CONTINUOUS
 10
-56.6494624487
 20
25.7106118073
 40
0.2499207115
100
AcDbArc
 50
142.4909081704
 51
180.0016313761
  0
ARC
  5
71C
100
AcDbEntity
  8
RACCORDO
100
AcDbCircle
 62
7
  6
CONTINUOUS
 10
-73.6488062217
 20
25.711177399
 40
0.2491816084
100
AcDbArc
 50
37.4756024281
 51
52.524397572
  0
ARC
  5
71D
100
AcDbEntity
  8
RACCORDO
100
AcDbCircle
 62
7
  6
CONTINUOUS
 10
-75.5499600985
 20
25.711177399
 40
0.2491816084
100
AcDbArc
 50
127.4756024281
 51
142.5243975719
  0
ARC
  5
71E
100
AcDbEntity
  8
RACCORDO
100
AcDbCircle
 62
7
  6
CONTINUOUS
 10
-54.7488062217
 20
25.711177399
 40
0.2491816084
100
AcDbArc
 50
37.4756024281
 51
52.5243975719
  0
ARC
  5
71F
100
AcDbEntity
  8
RACCORDO
100
AcDbCircle
 62
7
  6
CONTINUOUS
 10
-56.6499600985
 20
25.711177399
 40
0.2491816084
100
AcDbArc
 50
127.4756024281
 51
142.5243975719
  0
ARC
  5
720
100
AcDbEntity
  8
RACCORDO
100
AcDbCircle
 62
7
  6
CONTINUOUS
 10
-73.6482705812
 20
25.7112085458
 40
0.2487377493
100
AcDbArc
 50
14.9315314718
 51
37.5449775991
  0
ARC
  5
721
100
AcDbEntity
  8
RACCORDO
100
AcDbCircle
 62
7
  6
CONTINUOUS
 10
-75.5499912453
 20
25.7117130395
 40
0.2487377493
100
AcDbArc
 50
104.9315314718
 51
127.5449775991
  0
ARC
  5
722
100
AcDbEntity
  8
RACCORDO
100
AcDbCircle
 62
7
  6
CONTINUOUS
 10
-54.7482705812
 20
25.7112085458
 40
0.2487377493
100
AcDbArc
 50
14.9315314718
 51
37.5449775991
  0
ARC
  5
723
100
AcDbEntity
  8
RACCORDO
100
AcDbCircle
 62
7
  6
CONTINUOUS
 10
-56.6499912453
 20
25.7117130395
 40
0.2487377493
100
AcDbArc
 50
104.9315314718
 51
127.5449775991
  0
ARC
  5
724
100
AcDbEntity
  8
RACCORDO
100
AcDbCircle
 62
7
  6
CONTINUOUS
 10
-9.5171696679
 20
-20.4391010941
 40
0.5003685676
100
AcDbArc
 50
272.0229550956
 51
359.9789108122
  0
ARC
  5
725
100
AcDbEntity
  8
RACCORDO
100
AcDbCircle
 62
253
  6
CONTINUOUS
 10
-9.6503223815
 20
-20.0379428506
 40
0.5001617724
100
AcDbArc
 50
270.0246492538
 51
359.900660411
  0
ARC
  5
726
100
AcDbEntity
  8
RACCORDO
100
AcDbCircle
 62
7
  6
CONTINUOUS
 10
-11.6481373922
 20
-22.7891175567
 40
0.2512459309
100
AcDbArc
 50
180.065270029
 51
194.9890794493
  0
ARC
  5
727
100
AcDbEntity
  8
RACCORDO
100
AcDbCircle
 62
7
  6
CONTINUOUS
 10
-9.7496651428
 20
-22.7881537715
 40
0.2512459309
100
AcDbArc
 50
270.065270029
 51
284.9890794493
  0
ARC
  5
728
100
AcDbEntity
  8
RACCORDO
100
AcDbCircle
 62
7
  6
CONTINUOUS
 10
-28.6496651428
 20
-22.7881537715
 40
0.2512459309
100
AcDbArc
 50
270.065270029
 51
284.9890794493
  0
ARC
  5
729
100
AcDbEntity
  8
RACCORDO
100
AcDbCircle
 62
7
  6
CONTINUOUS
 10
-30.5481373922
 20
-22.7891175567
 40
0.2512459309
100
AcDbArc
 50
180.065270029
 51
194.9890794493
  0
ARC
  5
72A
100
AcDbEntity
  8
RACCORDO
100
AcDbCircle
 62
7
  6
CONTINUOUS
 10
-11.6362785982
 20
-22.7762949775
 40
0.2500059834
100
AcDbArc
 50
180.0023408115
 51
269.9976591885
  0
ARC
  5
72B
100
AcDbEntity
  8
RACCORDO
100
AcDbCircle
 62
7
  6
CONTINUOUS
 10
-9.762487722
 20
-22.7762949775
 40
0.2500059834
100
AcDbArc
 50
270.0023408215
 51
359.9976591785
  0
ARC
  5
72C
100
AcDbEntity
  8
RACCORDO
100
AcDbCircle
 62
7
  6
CONTINUOUS
 10
-28.662487722
 20
-22.7762949775
 40
0.2500059834
100
AcDbArc
 50
270.0023408115
 51
359.9976591885
  0
ARC
  5
72D
100
AcDbEntity
  8
RACCORDO
100
AcDbCircle
 62
7
  6
CONTINUOUS
 10
-30.5362785981
 20
-22.7762949775
 40
0.2500059834
100
AcDbArc
 50
180.0023408215
 51
269.9976591785
  0
ARC
  5
72E
100
AcDbEntity
  8
RACCORDO
100
AcDbCircle
 62
7
  6
CONTINUOUS
 10
-11.6493945068
 20
-22.789478828
 40
0.2499207115
100
AcDbArc
 50
232.4909081704
 51
270.0016313761
  0
ARC
  5
72F
100
AcDbEntity
  8
RACCORDO
100
AcDbCircle
 62
7
  6
CONTINUOUS
 10
-9.7493038715
 20
-22.7894108862
 40
0.2499207115
100
AcDbArc
 50
322.4909081704
 51
0.0016313761
  0
ARC
  5
730
100
AcDbEntity
  8
RACCORDO
100
AcDbCircle
 62
7
  6
CONTINUOUS
 10
-28.6493038715
 20
-22.7894108862
 40
0.2499207115
100
AcDbArc
 50
322.4909081704
 51
0.0016313761
  0
ARC
  5
731
100
AcDbEntity
  8
RACCORDO
100
AcDbCircle
 62
7
  6
CONTINUOUS
 10
-30.5493945068
 20
-22.789478828
 40
0.2499207115
100
AcDbArc
 50
232.4909081704
 51
270.0016313761
  0
ARC
  5
732
100
AcDbEntity
  8
RACCORDO
100
AcDbCircle
 62
7
  6
CONTINUOUS
 10
-11.6499600985
 20
-22.7899764778
 40
0.2491816084
100
AcDbArc
 50
217.4756024281
 51
232.5243975719
  0
ARC
  5
733
100
AcDbEntity
  8
RACCORDO
100
AcDbCircle
 62
7
  6
CONTINUOUS
 10
-9.7488062217
 20
-22.7899764778
 40
0.2491816084
100
AcDbArc
 50
307.4756024281
 51
322.5243975719
  0
ARC
  5
734
100
AcDbEntity
  8
RACCORDO
100
AcDbCircle
 62
7
  6
CONTINUOUS
 10
-28.6488062217
 20
-22.7899764778
 40
0.2491816084
100
AcDbArc
 50
307.4756024281
 51
322.5243975719
  0
ARC
  5
735
100
AcDbEntity
  8
RACCORDO
100
AcDbCircle
 62
7
  6
CONTINUOUS
 10
-30.5499600985
 20
-22.7899764778
 40
0.2491816084
100
AcDbArc
 50
217.4756024281
 51
232.5243975719
  0
ARC
  5
736
100
AcDbEntity
  8
RACCORDO
100
AcDbCircle
 62
7
  6
CONTINUOUS
 10
-11.650495739
 20
-22.7900076246
 40
0.2487377493
100
AcDbArc
 50
194.9315314718
 51
217.5449775991
  0
ARC
  5
737
100
AcDbEntity
  8
RACCORDO
100
AcDbCircle
 62
7
  6
CONTINUOUS
 10
-9.7487750749
 20
-22.7905121183
 40
0.2487377493
100
AcDbArc
 50
284.9315314718
 51
307.5449775991
  0
ARC
  5
738
100
AcDbEntity
  8
RACCORDO
100
AcDbCircle
 62
7
  6
CONTINUOUS
 10
-28.6487750749
 20
-22.7905121183
 40
0.2487377493
100
AcDbArc
 50
284.9315314718
 51
307.5449775991
  0
ARC
  5
739
100
AcDbEntity
  8
RACCORDO
100
AcDbCircle
 62
7
  6
CONTINUOUS
 10
-30.550495739
 20
-22.7900076246
 40
0.2487377493
100
AcDbArc
 50
194.9315314718
 51
217.5449775991
  0
ARC
  5
73A
100
AcDbEntity
  8
RACCORDO
100
AcDbCircle
 62
7
  6
CONTINUOUS
 10
-9.5171854227
 20
23.3602922159
 40
0.5003856098
100
AcDbArc
 50
0.0222105843
 51
63.4297077158
  0
ARC
  5
73B
100
AcDbEntity
  8
RACCORDO
100
AcDbCircle
 62
253
  6
CONTINUOUS
 10
-9.6729025896
 20
22.8913480624
 40
0.5001617734
100
AcDbArc
 50
0.0993397222
 51
89.975350582
  0
ARC
  5
73C
100
AcDbEntity
  8
RACCORDO
100
AcDbCircle
 62
7
  6
CONTINUOUS
 10
-9.5166377087
 20
23.3610506676
 40
0.4994612273
100
AcDbArc
 50
63.4469856463
 51
80.6799089396
  0
ARC
  5
73D
100
AcDbEntity
  8
RACCORDO
100
AcDbCircle
 62
7
  6
CONTINUOUS
 10
-9.5170050578
 20
23.3635753495
 40
0.4970299645
100
AcDbArc
 50
80.5909880371
 51
87.9683854665
  0
ARC
  5
73E
100
AcDbEntity
  8
RACCORDO
100
AcDbCircle
 62
7
  6
CONTINUOUS
 10
-28.650628928
 20
25.7103184779
 40
0.2512459309
100
AcDbArc
 50
0.065270029
 51
14.9890794493
  0
ARC
  5
73F
100
AcDbEntity
  8
RACCORDO
100
AcDbCircle
 62
7
  6
CONTINUOUS
 10
-30.5491011774
 20
25.7093546927
 40
0.2512459309
100
AcDbArc
 50
90.065270029
 51
104.9890794493
  0
ARC
  5
740
100
AcDbEntity
  8
RACCORDO
100
AcDbCircle
 62
7
  6
CONTINUOUS
 10
-9.750628928
 20
25.7103184779
 40
0.2512459309
100
AcDbArc
 50
0.065270029
 51
14.9890794493
  0
ARC
  5
741
100
AcDbEntity
  8
RACCORDO
100
AcDbCircle
 62
7
  6
CONTINUOUS
 10
-11.6491011774
 20
25.7093546927
 40
0.2512459309
100
AcDbArc
 50
90.065270029
 51
104.9890794493
  0
ARC
  5
742
100
AcDbEntity
  8
RACCORDO
100
AcDbCircle
 62
7
  6
CONTINUOUS
 10
-28.662487722
 20
25.6974958987
 40
0.2500059834
100
AcDbArc
 50
0.0023408115
 51
89.9976591885
  0
ARC
  5
743
100
AcDbEntity
  8
RACCORDO
100
AcDbCircle
 62
7
  6
CONTINUOUS
 10
-30.5362785982
 20
25.6974958987
 40
0.2500059834
100
AcDbArc
 50
90.0023408115
 51
179.9976591885
  0
ARC
  5
744
100
AcDbEntity
  8
RACCORDO
100
AcDbCircle
 62
7
  6
CONTINUOUS
 10
-9.762487722
 20
25.6974958987
 40
0.2500059834
100
AcDbArc
 50
0.0023408215
 51
89.9976591785
  0
ARC
  5
745
100
AcDbEntity
  8
RACCORDO
100
AcDbCircle
 62
7
  6
CONTINUOUS
 10
-11.6362785982
 20
25.6974958987
 40
0.2500059834
100
AcDbArc
 50
90.0023408115
 51
179.9976591885
  0
ARC
  5
746
100
AcDbEntity
  8
RACCORDO
100
AcDbCircle
 62
7
  6
CONTINUOUS
 10
-28.6493718133
 20
25.7106797492
 40
0.2499207115
100
AcDbArc
 50
52.4909081704
 51
90.0016313761
  0
ARC
  5
747
100
AcDbEntity
  8
RACCORDO
100
AcDbCircle
 62
7
  6
CONTINUOUS
 10
-30.5494624487
 20
25.7106118073
 40
0.2499207115
100
AcDbArc
 50
142.4909081704
 51
180.0016313761
  0
ARC
  5
748
100
AcDbEntity
  8
RACCORDO
100
AcDbCircle
 62
7
  6
CONTINUOUS
 10
-9.7493718133
 20
25.7106797492
 40
0.2499207115
100
AcDbArc
 50
52.4909081704
 51
90.0016313761
  0
ARC
  5
749
100
AcDbEntity
  8
RACCORDO
100
AcDbCircle
 62
7
  6
CONTINUOUS
 10
-11.6494624487
 20
25.7106118073
 40
0.2499207115
100
AcDbArc
 50
142.4909081704
 51
180.0016313761
  0
ARC
  5
74A
100
AcDbEntity
  8
RACCORDO
100
AcDbCircle
 62
7
  6
CONTINUOUS
 10
-28.6488062217
 20
25.711177399
 40
0.2491816084
100
AcDbArc
 50
37.4756024281
 51
52.5243975719
  0
ARC
  5
74B
100
AcDbEntity
  8
RACCORDO
100
AcDbCircle
 62
7
  6
CONTINUOUS
 10
-30.5499600985
 20
25.711177399
 40
0.2491816084
100
AcDbArc
 50
127.4756024281
 51
142.5243975719
  0
ARC
  5
74C
100
AcDbEntity
  8
RACCORDO
100
AcDbCircle
 62
7
  6
CONTINUOUS
 10
-9.7488062217
 20
25.711177399
 40
0.2491816084
100
AcDbArc
 50
37.4756024281
 51
52.5243975719
  0
ARC
  5
74D
100
AcDbEntity
  8
RACCORDO
100
AcDbCircle
 62
7
  6
CONTINUOUS
 10
-11.6499600985
 20
25.711177399
 40
0.2491816084
100
AcDbArc
 50
127.4756024281
 51
142.5243975719
  0
ARC
  5
74E
100
AcDbEntity
  8
RACCORDO
100
AcDbCircle
 62
7
  6
CONTINUOUS
 10
-28.6482705812
 20
25.7112085458
 40
0.2487377493
100
AcDbArc
 50
14.9315314718
 51
37.5449775991
  0
ARC
  5
74F
100
AcDbEntity
  8
RACCORDO
100
AcDbCircle
 62
7
  6
CONTINUOUS
 10
-30.5499912453
 20
25.7117130395
 40
0.2487377493
100
AcDbArc
 50
104.9315314718
 51
127.5449775991
  0
ARC
  5
750
100
AcDbEntity
  8
RACCORDO
100
AcDbCircle
 62
7
  6
CONTINUOUS
 10
-9.7482705812
 20
25.7112085458
 40
0.2487377493
100
AcDbArc
 50
14.9315314718
 51
37.5449775991
  0
ARC
  5
751
100
AcDbEntity
  8
RACCORDO
100
AcDbCircle
 62
7
  6
CONTINUOUS
 10
-11.6499912453
 20
25.7117130395
 40
0.2487377493
100
AcDbArc
 50
104.9315314718
 51
127.5449775991
  0
ARC
  5
752
100
AcDbEntity
  8
RACCORDO
100
AcDbCircle
 62
7
  6
CONTINUOUS
 10
-413.6058714807
 20
129.8827706236
 40
500.0
100
AcDbArc
 50
342.6179318938
 51
347.2234741891
  0
ARC
  5
753
100
AcDbEntity
  8
RACCORDO
100
AcDbCircle
 62
253
  6
CONTINUOUS
 10
-413.5971323678
 20
129.8827671453
 40
499.4999866408
100
AcDbArc
 50
342.6179318266
 51
347.2234742564
  0
ARC
  5
754
100
AcDbEntity
  8
RACCORDO
100
AcDbCircle
 62
7
  6
CONTINUOUS
 10
18.5512891177
 20
-16.6283199389
 40
1.0
100
AcDbArc
 50
179.9996510727
 51
269.0003389515
  0
ARC
  5
755
100
AcDbEntity
  8
ASSI
100
AcDbCircle
 62
7
  6
CONTINUOUS
 10
18.5512891177
 20
-16.6283199389
 40
1.0
100
AcDbArc
 50
179.9996510727
 51
269.0003389515
  0
ARC
  5
756
100
AcDbEntity
  8
RACCORDO
100
AcDbCircle
 62
253
  6
CONTINUOUS
 10
18.5495662967
 20
-16.6280646804
 40
0.8002556523
100
AcDbArc
 50
267.2519516365
 51
268.4521839
  0
ARC
  5
757
100
AcDbEntity
  8
ASSI
100
AcDbCircle
 62
253
  6
CONTINUOUS
 10
18.5495662967
 20
-16.6280646804
 40
0.8002556523
100
AcDbArc
 50
267.2519516365
 51
268.4521839
  0
ARC
  5
758
100
AcDbEntity
  8
RACCORDO
100
AcDbCircle
 62
253
  6
CONTINUOUS
 10
18.5495301559
 20
-16.6284108054
 40
0.799908193
100
AcDbArc
 50
256.7319191773
 51
267.2533487091
  0
ARC
  5
759
100
AcDbEntity
  8
ASSI
100
AcDbCircle
 62
253
  6
CONTINUOUS
 10
18.5495301559
 20
-16.6284108054
 40
0.799908193
100
AcDbArc
 50
256.7319191773
 51
267.2533487091
  0
ARC
  5
75A
100
AcDbEntity
  8
RACCORDO
100
AcDbCircle
 62
253
  6
CONTINUOUS
 10
18.5495470573
 20
-16.6287403234
 40
0.7995797363
100
AcDbArc
 50
268.4522543003
 51
268.9992416569
  0
ARC
  5
75B
100
AcDbEntity
  8
ASSI
100
AcDbCircle
 62
253
  6
CONTINUOUS
 10
18.5495470573
 20
-16.6287403234
 40
0.7995797363
100
AcDbArc
 50
268.4522543003
 51
268.9992416569
  0
ARC
  5
75C
100
AcDbEntity
  8
RACCORDO
100
AcDbCircle
 62
253
  6
CONTINUOUS
 10
18.089883561
 20
-1.2991553332
 40
0.5338696808
100
AcDbArc
 50
176.1879332697
 51
179.992657291
  0
ARC
  5
75D
100
AcDbEntity
  8
ASSI
100
AcDbCircle
 62
253
  6
CONTINUOUS
 10
18.089883561
 20
-1.2991553332
 40
0.5338696808
100
AcDbArc
 50
176.1879332697
 51
179.992657291
  0
ARC
  5
75E
100
AcDbEntity
  8
RACCORDO
100
AcDbCircle
 62
7
  6
CONTINUOUS
 10
25.7512891177
 20
-5.9946914779
 40
0.2
100
AcDbArc
 50
180.0
 51
269.1340185592
  0
ARC
  5
75F
100
AcDbEntity
  8
RACCORDO
100
AcDbCircle
 62
7
  6
CONTINUOUS
 10
25.7512891177
 20
-3.4841076009
 40
0.2
100
AcDbArc
 50
90.8659814409
 51
180.0
  0
ARC
  5
760
100
AcDbEntity
  8
RACCORDO
100
AcDbCircle
 62
7
  6
CONTINUOUS
 10
17.7512891177
 20
-1.2635790479
 40
0.2
100
AcDbArc
 50
180.0
 51
191.9280243098
  0
ARC
  5
761
100
AcDbEntity
  8
ASSI
100
AcDbCircle
 62
7
  6
CONTINUOUS
 10
25.7512891177
 20
-5.9946914779
 40
0.2
100
AcDbArc
 50
180.0
 51
269.1340185592
  0
ARC
  5
762
100
AcDbEntity
  8
ASSI
100
AcDbCircle
 62
7
  6
CONTINUOUS
 10
25.7512891177
 20
-3.4841076009
 40
0.2
100
AcDbArc
 50
90.8659814409
 51
180.0
  0
ARC
  5
763
100
AcDbEntity
  8
ASSI
100
AcDbCircle
 62
7
  6
CONTINUOUS
 10
17.7512891177
 20
-1.2635790479
 40
0.2
100
AcDbArc
 50
180.0
 51
191.9280243098
  0
ARC
  5
764
100
AcDbEntity
  8
RACCORDO
100
AcDbCircle
 62
253
  6
CONTINUOUS
 10
17.6704274164
 20
-1.2888069184
 40
0.1159907543
100
AcDbArc
 50
167.4795556215
 51
167.9978136843
  0
ARC
  5
765
100
AcDbEntity
  8
ASSI
100
AcDbCircle
 62
253
  6
CONTINUOUS
 10
17.6704274164
 20
-1.2888069184
 40
0.1159907543
100
AcDbArc
 50
167.4795556215
 51
167.9978136843
  0
ARC
  5
766
100
AcDbEntity
  8
RACCORDO
100
AcDbCircle
 62
253
  6
CONTINUOUS
 10
17.6667048199
 20
-1.2881101864
 40
0.1122046884
100
AcDbArc
 50
167.9505241295
 51
176.5966572231
  0
ARC
  5
767
100
AcDbEntity
  8
ASSI
100
AcDbCircle
 62
253
  6
CONTINUOUS
 10
17.6667048199
 20
-1.2881101864
 40
0.1122046884
100
AcDbArc
 50
167.9505241295
 51
176.5966572231
  0
ARC
  5
768
100
AcDbEntity
  8
RACCORDO
100
AcDbCircle
 62
253
  6
CONTINUOUS
 10
17.6622276512
 20
-1.2877458347
 40
0.1077138308
100
AcDbArc
 50
176.6487453985
 51
182.9350892054
  0
ARC
  5
769
100
AcDbEntity
  8
ASSI
100
AcDbCircle
 62
253
  6
CONTINUOUS
 10
17.6622276512
 20
-1.2877458347
 40
0.1077138308
100
AcDbArc
 50
176.6487453985
 51
182.9350892054
  0
ARC
  5
76A
100
AcDbEntity
  8
RACCORDO
100
AcDbCircle
 62
253
  6
CONTINUOUS
 10
17.6616902045
 20
-1.2877634553
 40
0.1071761873
100
AcDbArc
 50
182.9403936036
 51
189.552760621
  0
ARC
  5
76B
100
AcDbEntity
  8
ASSI
100
AcDbCircle
 62
253
  6
CONTINUOUS
 10
17.6616902045
 20
-1.2877634553
 40
0.1071761873
100
AcDbArc
 50
182.9403936036
 51
189.552760621
  0
ARC
  5
76C
100
AcDbEntity
  8
CURVE
100
AcDbCircle
 62
253
  6
CONTINUOUS
 10
39.2167986545
 20
-14.439398907
 40
2.5514832055
100
AcDbArc
 50
177.8559930033
 51
182.2461741425
  0
ARC
  5
76D
100
AcDbEntity
  8
RACCORDO
100
AcDbCircle
 62
7
  6
CONTINUOUS
 10
44.5512891177
 20
-19.8520927831
 40
1.0
100
AcDbArc
 50
180.0
 51
269.5
  0
ARC
  5
76E
100
AcDbEntity
  8
RACCORDO
100
AcDbCircle
 62
7
  6
CONTINUOUS
 10
43.7512891177
 20
-18.4964176562
 40
0.2
100
AcDbArc
 50
90.3333333333
 51
180.0
  0
ARC
  5
76F
100
AcDbEntity
  8
RACCORDO
100
AcDbCircle
 62
7
  6
CONTINUOUS
 10
43.7512891177
 20
-20.5683094375
 40
0.2
100
AcDbArc
 50
180.0
 51
269.0
  0
ARC
  5
770
100
AcDbEntity
  8
ASSI
100
AcDbCircle
 62
7
  6
CONTINUOUS
 10
43.7512891177
 20
-20.5683094375
 40
0.2
100
AcDbArc
 50
180.0
 51
269.0
  0
ARC
  5
771
100
AcDbEntity
  8
CURVE
100
AcDbCircle
 62
253
  6
CONTINUOUS
 10
39.2167986539
 20
-10.054288907
 40
2.5514830872
100
AcDbArc
 50
177.8559946058
 51
182.2461741432
  0
ARC
  5
772
100
AcDbEntity
  8
CURVE
100
AcDbCircle
 62
253
  6
CONTINUOUS
 10
35.064685496
 20
13.5606004606
 40
5.8213162841
100
AcDbArc
 50
317.9365794542
 51
42.0634205458
  0
ARC
  5
773
100
AcDbEntity
  8
CURVE
100
AcDbCircle
 62
253
  6
CONTINUOUS
 10
35.0647965935
 20
13.5606004606
 40
5.4375281827
100
AcDbArc
 50
322.6347333556
 51
37.3652666444
  0
ARC
  5
774
100
AcDbEntity
  8
RACCORDO
100
AcDbCircle
 62
7
  6
CONTINUOUS
 10
44.5512891177
 20
22.7732937043
 40
1.0
100
AcDbArc
 50
90.5
 51
180.0
  0
ARC
  5
775
100
AcDbEntity
  8
RACCORDO
100
AcDbCircle
 62
7
  6
CONTINUOUS
 10
18.5512891177
 20
19.5495208601
 40
1.0
100
AcDbArc
 50
91.0
 51
180.0
  0
ARC
  5
776
100
AcDbEntity
  8
ASSI
100
AcDbCircle
 62
7
  6
CONTINUOUS
 10
18.5512891177
 20
19.5495208349
 40
1.0
100
AcDbArc
 50
90.9999999749
 51
179.9999985607
  0
ARC
  5
777
100
AcDbEntity
  8
ASSI
100
AcDbCircle
 62
7
  6
CONTINUOUS
 10
44.0512891177
 20
22.0435247438
 40
0.5
100
AcDbArc
 50
180.0
 51
269.5
  0
CIRCLE
  5
778
100
AcDbEntity
  8
CURVE
100
AcDbCircle
 62
253
  6
CONTINUOUS
 10
39.2665552672
 20
9.1848004606
 40
0.2040052588
  0
ARC
  5
779
100
AcDbEntity
  8
RACCORDO
100
AcDbCircle
 62
7
  6
CONTINUOUS
 10
43.7512891177
 20
23.4895103587
 40
0.2
100
AcDbArc
 50
91.0
 51
180.0
  0
ARC
  5
77A
100
AcDbEntity
  8
RACCORDO
100
AcDbCircle
 62
7
  6
CONTINUOUS
 10
43.7512891177
 20
21.9395103587
 40
0.2
100
AcDbArc
 50
177.4100861259
 51
180.0
  0
ARC
  5
77B
100
AcDbEntity
  8
ASSI
100
AcDbCircle
 62
7
  6
CONTINUOUS
 10
43.7512891177
 20
21.9395103587
 40
0.2
100
AcDbArc
 50
177.4100861259
 51
180.0
  0
ARC
  5
77C
100
AcDbEntity
  8
ASSI
100
AcDbCircle
 62
7
  6
CONTINUOUS
 10
43.7512891177
 20
23.4895103587
 40
0.2
100
AcDbArc
 50
91.0
 51
180.0
  0
CIRCLE
  5
77D
100
AcDbEntity
  8
CURVE
100
AcDbCircle
 62
253
  6
CONTINUOUS
 10
39.2664155929
 20
9.1848004606
 40
0.1800046402
  0
ARC
  5
77E
100
AcDbEntity
  8
RACCORDO
100
AcDbCircle
 62
7
  6
CONTINUOUS
 10
62.1295640722
 20
-19.0401804593
 40
1.5
100
AcDbArc
 50
273.0
 51
342.6179337302
  0
ARC
  5
77F
100
AcDbEntity
  8
RACCORDO
100
AcDbCircle
 62
253
  6
CONTINUOUS
 10
62.1382901656
 20
-19.0401803176
 40
1.0000001472
100
AcDbArc
 50
273.000005863
 51
342.6179260252
  0
ARC
  5
780
100
AcDbEntity
  8
RACCORDO
100
AcDbCircle
 62
7
  6
CONTINUOUS
 10
53.8012891177
 20
-22.7850319362
 40
0.25
100
AcDbArc
 50
180.0
 51
269.6666666667
  0
ARC
  5
781
100
AcDbEntity
  8
RACCORDO
100
AcDbCircle
 62
7
  6
CONTINUOUS
 10
56.8012891177
 20
-22.3837371067
 40
0.25
100
AcDbArc
 50
0.0
 51
60.0
  0
ARC
  5
782
100
AcDbEntity
  8
RACCORDO
100
AcDbCircle
 62
7
  6
CONTINUOUS
 10
56.8012891177
 20
-22.7763051915
 40
0.25
100
AcDbArc
 50
270.3333333333
 51
360.0
  0
ARC
  5
783
100
AcDbEntity
  8
RACCORDO
100
AcDbCircle
 62
7
  6
CONTINUOUS
 10
53.8012891177
 20
-22.3837371067
 40
0.25
100
AcDbArc
 50
120.0
 51
180.0
  0
ARC
  5
784
100
AcDbEntity
  8
RACCORDO
100
AcDbCircle
 62
7
  6
CONTINUOUS
 10
62.9783276196
 20
13.4052346268
 40
10.0
100
AcDbArc
 50
75.0
 51
87.0
  0
ARC
  5
785
100
AcDbEntity
  8
RACCORDO
100
AcDbCircle
 62
253
  6
CONTINUOUS
 10
62.9870538367
 20
13.405234714
 40
9.4999999122
100
AcDbArc
 50
74.9999999443
 51
87.0000000557
  0
ARC
  5
786
100
AcDbEntity
  8
RACCORDO
100
AcDbCircle
 62
7
  6
CONTINUOUS
 10
53.8012891177
 20
25.3049380279
 40
0.25
100
AcDbArc
 50
180.0
 51
240.0
  0
ARC
  5
787
100
AcDbEntity
  8
RACCORDO
100
AcDbCircle
 62
7
  6
CONTINUOUS
 10
56.8012891177
 20
25.3049380279
 40
0.25
100
AcDbArc
 50
300.0
 51
360.0
  0
ARC
  5
788
100
AcDbEntity
  8
RACCORDO
100
AcDbCircle
 62
7
  6
CONTINUOUS
 10
56.8012891177
 20
25.6975061127
 40
0.25
100
AcDbArc
 50
0.0
 51
89.6666666667
  0
ARC
  5
789
100
AcDbEntity
  8
RACCORDO
100
AcDbCircle
 62
7
  6
CONTINUOUS
 10
53.8012891177
 20
25.7062328574
 40
0.25
100
AcDbArc
 50
90.3333333333
 51
180.0
  0
ARC
  5
78A
100
AcDbEntity
  8
RACCORDO
100
AcDbCircle
 62
7
  6
CONTINUOUS
 10
72.5512891177
 20
19.6400148577
 40
1.5
100
AcDbArc
 50
347.2234722861
 51
75.0
  0
ARC
  5
78B
100
AcDbEntity
  8
RACCORDO
100
AcDbCircle
 62
253
  6
CONTINUOUS
 10
72.5600150082
 20
19.640014018
 40
0.9999997351
100
AcDbArc
 50
347.2235250787
 51
74.9999951444
  0
SPLINE
  5
78C
100
AcDbEntity
  8
RACCORDO
100
AcDbSpline
 62
253
  6
CONTINUOUS
 70
0
 71
3
 72
14
 73
10
 74
8
 42
0.0000001
 43
0.0000001
 44
0.0000000001
 12
0.0771277556
 22
-1.1847244024
 32
0.0
 13
-0.0046952165
 23
-1.1872230436
 33
0.0
 40
0.0
 40
0.0
 40
0.0
 40
0.0
 40
0.0666776345
 40
0.1690643668
 40
0.3022584993
 40
0.459954413
 40
0.6345012656
 40
0.8175186291
 40
1.0
 40
1.0
 40
1.0
 40
1.0
 10
-75.9630669068
 20
20.605940684
 30
0.0
 10
-75.9613526747
 20
20.5796091438
 30
0.0
 10
-75.958866874
 20
20.5127347174
 30
0.0
 10
-75.9558847198
 20
20.3931597891
 30
0.0
 10
-75.9534299706
 20
20.2375379587
 30
0.0
 10
-75.9515400929
 20
20.0533541014
 30
0.0
 10
-75.9503789827
 20
19.8494452906
 30
0.0
 10
-75.9499940191
 20
19.6357254066
 30
0.0
 10
-75.9502761352
 20
19.4910812621
 30
0.0
 10
-75.9505617318
 20
19.4188658993
 30
0.0
 11
-75.9630669068
 21
20.605940684
 31
0.0
 11
-75.9595191152
 21
20.5268583813
 31
0.0
 11
-75.9563499564
 21
20.405342862
 31
0.0
 11
-75.9537159405
 21
20.247232421
 31
0.0
 11
-75.9517437665
 21
20.0600211218
 31
0.0
 11
-75.9505293396
 21
19.8527970143
 31
0.0
 11
-75.9501296993
 21
19.6355132512
 31
0.0
 11
-75.9505617318
 21
19.4188658993
 31
0.0
  0
SPLINE
  5
78D
100
AcDbEntity
  8
RACCORDO
100
AcDbSpline
 62
7
  6
CONTINUOUS
 70
0
 71
3
 72
11
 73
7
 74
5
 42
0.0000001
 43
0.0000001
 44
0.0000000001
 12
0.003152605
 22
-0.312866417
 32
0.0
 13
0.3128823002
 23
-0.0
 33
0.0
 40
0.0
 40
0.0
 40
0.0
 40
0.0
 40
0.173115103
 40
0.3911418421
 40
0.6700996653
 40
1.0
 40
1.0
 40
1.0
 40
1.0
 10
-75.7921024112
 20
24.7275877587
 30
0.0
 10
-75.79192049
 20
24.7095337914
 30
0.0
 10
-75.77676888
 20
24.6687043587
 30
0.0
 10
-75.7215588598
 20
24.6227833341
 30
0.0
 10
-75.6403478535
 20
24.5910243533
 30
0.0
 10
-75.5765133005
 20
24.5832501914
 30
0.0
 10
-75.542106642
 20
24.5832501914
 30
0.0
 11
-75.7921024112
 21
24.7275877587
 31
0.0
 11
-75.7751639051
 21
24.6761397607
 31
0.0
 11
-75.7250656314
 21
24.6298398453
 31
0.0
 11
-75.6445037244
 21
24.5962579146
 31
0.0
 11
-75.542106642
 21
24.5832501914
 31
0.0
  0
SPLINE
  5
78E
100
AcDbEntity
  8
RACCORDO
100
AcDbSpline
 62
253
  6
CONTINUOUS
 70
0
 71
3
 72
11
 73
7
 74
5
 42
0.0000001
 43
0.0000001
 44
0.0000000001
 12
0.0012232543
 22
-0.3641925536
 32
0.0
 13
0.3641934522
 23
-0.000917474
 33
0.0
 40
0.0
 40
0.0
 40
0.0
 40
0.0
 40
0.2320250085
 40
0.47587978
 40
0.7334116474
 40
1.0
 40
1.0
 40
1.0
 40
1.0
 10
-75.7862845814
 20
25.3049380279
 30
0.0
 10
-75.7861899728
 20
25.2767707678
 30
0.0
 10
-75.7723579193
 20
25.2183309031
 30
0.0
 10
-75.7155657028
 20
25.1466024456
 30
0.0
 10
-75.6328066988
 20
25.0994637144
 30
0.0
 10
-75.5686520563
 20
25.0885132062
 30
0.0
 10
-75.5362888122
 20
25.0884316769
 30
0.0
 11
-75.7862845814
 21
25.3049380279
 31
0.0
 11
-75.7672298066
 21
25.2226121693
 31
0.0
 11
-75.7130279775
 21
25.1522596062
 31
0.0
 11
-75.6319298608
 21
25.105142924
 31
0.0
 11
-75.5362888122
 21
25.0884316769
 31
0.0
  0
SPLINE
  5
78F
100
AcDbEntity
  8
RACCORDO
100
AcDbSpline
 62
253
  6
CONTINUOUS
 70
0
 71
3
 72
10
 73
6
 74
4
 42
0.0000001
 43
0.0000001
 44
0.0000000001
 12
-0.1534106119
 22
-38.7579167466
 32
0.0
 13
-0.2117750766
 23
-38.7576417841
 33
0.0
 40
0.0
 40
0.0
 40
0.0
 40
0.0
 40
0.3356988703
 40
0.6691122033
 40
1.0
 40
1.0
 40
1.0
 40
1.0
 10
-75.9505617318
 20
19.4188658993
 30
0.0
 10
-75.9677283215
 20
15.0818696109
 30
0.0
 10
-76.0040627917
 20
6.4374128083
 30
0.0
 10
-76.0647983584
 20
-6.4818517017
 30
0.0
 10
-76.1094806081
 20
-15.0641123561
 30
0.0
 10
-76.1328385376
 20
-19.3389225878
 30
0.0
 11
-75.9505617318
 21
19.4188658993
 31
0.0
 11
-76.0052703758
 21
6.4078901312
 31
0.0
 11
-76.0660438914
 21
-6.5144743945
 31
0.0
 11
-76.1328385376
 21
-19.3389225878
 31
0.0
  0
SPLINE
  5
790
100
AcDbEntity
  8
RACCORDO
100
AcDbSpline
 62
253
  6
CONTINUOUS
 70
0
 71
3
 72
11
 73
7
 74
5
 42
0.0000001
 43
0.0000001
 44
0.0000000001
 12
-0.0012232543
 22
-0.3641925536
 32
0.0
 13
-0.3641934522
 23
-0.000917474
 33
0.0
 40
0.0
 40
0.0
 40
0.0
 40
0.0
 40
0.2320250085
 40
0.47587978
 40
0.7334116474
 40
1.0
 40
1.0
 40
1.0
 40
1.0
 10
-73.4124817388
 20
25.3049380279
 30
0.0
 10
-73.4125763473
 20
25.2767707678
 30
0.0
 10
-73.4264084008
 20
25.2183309031
 30
0.0
 10
-73.4832006174
 20
25.1466024456
 30
0.0
 10
-73.5659596214
 20
25.0994637144
 30
0.0
 10
-73.6301142639
 20
25.0885132062
 30
0.0
 10
-73.662477508
 20
25.0884316769
 30
0.0
 11
-73.4124817388
 21
25.3049380279
 31
0.0
 11
-73.4315365136
 21
25.2226121693
 31
0.0
 11
-73.4857383427
 21
25.1522596062
 31
0.0
 11
-73.5668364593
 21
25.105142924
 31
0.0
 11
-73.662477508
 21
25.0884316769
 31
0.0
  0
SPLINE
  5
791
100
AcDbEntity
  8
RACCORDO
100
AcDbSpline
 62
7
  6
CONTINUOUS
 70
0
 71
3
 72
11
 73
7
 74
5
 42
0.0000001
 43
0.0000001
 44
0.0000000001
 12
-0.0031598815
 22
-0.3135885417
 32
0.0
 13
-0.3136044616
 23
0.0
 33
0.0
 40
0.0
 40
0.0
 40
0.0
 40
0.0
 40
0.1724572498
 40
0.3902427658
 40
0.66898486
 40
1.0
 40
1.0
 40
1.0
 40
1.0
 10
-73.406663909
 20
24.7275877587
 30
0.0
 10
-73.4068455571
 20
24.7095608862
 30
0.0
 10
-73.4219732539
 20
24.6687288254
 30
0.0
 10
-73.4772182776
 20
24.6227671579
 30
0.0
 10
-73.5586901219
 20
24.5909044375
 30
0.0
 10
-73.6227842987
 20
24.5832501914
 30
0.0
 10
-73.6573869069
 20
24.5832501914
 30
0.0
 11
-73.406663909
 21
24.7275877587
 31
0.0
 11
-73.4235554174
 21
24.6762098734
 31
0.0
 11
-73.4737004272
 21
24.6298400083
 31
0.0
 11
-73.5543929638
 21
24.5962237092
 31
0.0
 11
-73.6573869069
 21
24.5832501914
 31
0.0
  0
SPLINE
  5
792
100
AcDbEntity
  8
RACCORDO
100
AcDbSpline
 62
7
  6
CONTINUOUS
 70
0
 71
3
 72
13
 73
9
 74
7
 42
0.0000001
 43
0.0000001
 44
0.0000000001
 12
1.2213093339
 22
0.0
 32
0.0
 13
0.4857355378
 23
-1.1205612328
 33
0.0
 40
0.0
 40
0.0
 40
0.0
 40
0.0
 40
0.2170217061
 40
0.4201813582
 40
0.6062810464
 40
0.768941412
 40
0.8991127423
 40
1.0
 40
1.0
 40
1.0
 40
1.0
 10
-15.1747094298
 20
23.312963855
 30
0.0
 10
-15.086359218
 20
23.312963855
 30
0.0
 10
-14.9152805186
 20
23.310140382
 30
0.0
 10
-14.6687778297
 20
23.2963391684
 30
0.0
 10
-14.4452693422
 20
23.2715260779
 30
0.0
 10
-14.2540363383
 20
23.2311578715
 30
0.0
 10
-14.1035538081
 20
23.1726369993
 30
0.0
 10
-14.0326193853
 20
23.1021763396
 30
0.0
 10
-14.0162845431
 20
23.0644928897
 30
0.0
 11
-15.1747094298
 21
23.312963855
 31
0.0
 11
-14.9097007357
 21
23.3082488429
 31
0.0
 11
-14.6620129067
 21
23.2935975445
 31
0.0
 11
-14.4363407269
 21
23.2665666624
 31
0.0
 11
-14.2426072716
 21
23.2226053534
 31
0.0
 11
-14.0978767239
 21
23.156821332
 31
0.0
 11
-14.0162845431
 21
23.0644928897
 31
0.0
  0
SPLINE
  5
793
100
AcDbEntity
  8
RACCORDO
100
AcDbSpline
 62
7
  6
CONTINUOUS
 70
0
 71
3
 72
11
 73
7
 74
5
 42
0.0000001
 43
0.0000001
 44
0.0000000001
 12
0.0031598815
 22
-0.3135885417
 32
0.0
 13
0.3136044616
 23
-0.0
 33
0.0
 40
0.0
 40
0.0
 40
0.0
 40
0.0
 40
0.1724572498
 40
0.3902427658
 40
0.66898486
 40
1.0
 40
1.0
 40
1.0
 40
1.0
 10
-56.8921024112
 20
24.7275877587
 30
0.0
 10
-56.891920763
 20
24.7095608862
 30
0.0
 10
-56.8767930662
 20
24.6687288254
 30
0.0
 10
-56.8215480425
 20
24.6227671579
 30
0.0
 10
-56.7400761983
 20
24.5909044375
 30
0.0
 10
-56.6759820215
 20
24.5832501914
 30
0.0
 10
-56.6413794132
 20
24.5832501914
 30
0.0
 11
-56.8921024112
 21
24.7275877587
 31
0.0
 11
-56.8752109027
 21
24.6762098734
 31
0.0
 11
-56.8250658929
 21
24.6298400083
 31
0.0
 11
-56.7443733563
 21
24.5962237092
 31
0.0
 11
-56.6413794132
 21
24.5832501914
 31
0.0
  0
SPLINE
  5
794
100
AcDbEntity
  8
RACCORDO
100
AcDbSpline
 62
253
  6
CONTINUOUS
 70
0
 71
3
 72
11
 73
7
 74
5
 42
0.0000001
 43
0.0000001
 44
0.0000000001
 12
0.0012232543
 22
-0.3641925536
 32
0.0
 13
0.3641934522
 23
-0.000917474
 33
0.0
 40
0.0
 40
0.0
 40
0.0
 40
0.0
 40
0.2320250085
 40
0.47587978
 40
0.7334116474
 40
1.0
 40
1.0
 40
1.0
 40
1.0
 10
-56.8862845814
 20
25.3049380279
 30
0.0
 10
-56.8861899728
 20
25.2767707678
 30
0.0
 10
-56.8723579193
 20
25.2183309031
 30
0.0
 10
-56.8155657028
 20
25.1466024456
 30
0.0
 10
-56.7328066988
 20
25.0994637144
 30
0.0
 10
-56.6686520563
 20
25.0885132062
 30
0.0
 10
-56.6362888122
 20
25.0884316769
 30
0.0
 11
-56.8862845814
 21
25.3049380279
 31
0.0
 11
-56.8672298066
 21
25.2226121693
 31
0.0
 11
-56.8130279775
 21
25.1522596062
 31
0.0
 11
-56.7319298608
 21
25.105142924
 31
0.0
 11
-56.6362888122
 21
25.0884316769
 31
0.0
  0
SPLINE
  5
795
100
AcDbEntity
  8
RACCORDO
100
AcDbSpline
 62
253
  6
CONTINUOUS
 70
0
 71
3
 72
11
 73
7
 74
5
 42
0.0000001
 43
0.0000001
 44
0.0000000001
 12
-0.0012232543
 22
-0.3641925536
 32
0.0
 13
-0.3641934522
 23
-0.000917474
 33
0.0
 40
0.0
 40
0.0
 40
0.0
 40
0.0
 40
0.2320250085
 40
0.47587978
 40
0.7334116474
 40
1.0
 40
1.0
 40
1.0
 40
1.0
 10
-54.5124817388
 20
25.3049380279
 30
0.0
 10
-54.5125763473
 20
25.2767707678
 30
0.0
 10
-54.5264084008
 20
25.2183309031
 30
0.0
 10
-54.5832006174
 20
25.1466024456
 30
0.0
 10
-54.6659596214
 20
25.0994637144
 30
0.0
 10
-54.7301142639
 20
25.0885132062
 30
0.0
 10
-54.762477508
 20
25.0884316769
 30
0.0
 11
-54.5124817388
 21
25.3049380279
 31
0.0
 11
-54.5315365136
 21
25.2226121693
 31
0.0
 11
-54.5857383427
 21
25.1522596062
 31
0.0
 11
-54.6668364593
 21
25.105142924
 31
0.0
 11
-54.762477508
 21
25.0884316769
 31
0.0
  0
SPLINE
  5
796
100
AcDbEntity
  8
RACCORDO
100
AcDbSpline
 62
7
  6
CONTINUOUS
 70
0
 71
3
 72
13
 73
9
 74
7
 42
0.0000001
 43
0.0000001
 44
0.0000000001
 12
0.4857619097
 22
1.120622071
 32
0.0
 13
1.221375642
 23
-0.0
 33
0.0
 40
0.0
 40
0.0
 40
0.0
 40
0.0
 40
0.0993612395
 40
0.2266285384
 40
0.3856455656
 40
0.5711562829
 40
0.7800686817
 40
1.0
 40
1.0
 40
1.0
 40
1.0
 10
-71.282481777
 20
23.0644928897
 30
0.0
 10
-71.2663931419
 20
23.1016083557
 30
0.0
 10
-71.1972845948
 20
23.1710363798
 30
0.0
 10
-71.0502652793
 20
23.2294417599
 30
0.0
 10
-70.8620698072
 20
23.2701779074
 30
0.0
 10
-70.6380011105
 20
23.2957749037
 30
0.0
 10
-70.3882115638
 20
23.3100426652
 30
0.0
 10
-70.2135964754
 20
23.312963855
 30
0.0
 10
-70.1240568904
 20
23.312963855
 30
0.0
 11
-71.282481777
 21
23.0644928897
 31
0.0
 11
-71.2024710126
 21
23.1557392351
 31
0.0
 11
-71.061369871
 21
23.2209498778
 31
0.0
 11
-70.8721995662
 21
23.2649478228
 31
0.0
 11
-70.64732527
 21
23.2926834314
 31
0.0
 11
-70.3926319047
 21
23.3081164545
 31
0.0
 11
-70.1240568904
 21
23.312963855
 31
0.0
  0
SPLINE
  5
797
100
AcDbEntity
  8
RACCORDO
100
AcDbSpline
 62
7
  6
CONTINUOUS
 70
0
 71
3
 72
11
 73
7
 74
5
 42
0.0000001
 43
0.0000001
 44
0.0000000001
 12
-0.003152605
 22
-0.312866417
 32
0.0
 13
-0.3128823002
 23
-0.0
 33
0.0
 40
0.0
 40
0.0
 40
0.0
 40
0.0
 40
0.173115103
 40
0.3911418421
 40
0.6700996653
 40
1.0
 40
1.0
 40
1.0
 40
1.0
 10
-54.506663909
 20
24.7275877587
 30
0.0
 10
-54.5068458302
 20
24.7095337914
 30
0.0
 10
-54.5219974402
 20
24.6687043587
 30
0.0
 10
-54.5772074604
 20
24.6227833341
 30
0.0
 10
-54.6584184667
 20
24.5910243533
 30
0.0
 10
-54.7222530197
 20
24.5832501914
 30
0.0
 10
-54.7566596782
 20
24.5832501914
 30
0.0
 11
-54.506663909
 21
24.7275877587
 31
0.0
 11
-54.5236024151
 21
24.6761397607
 31
0.0
 11
-54.5737006888
 21
24.6298398453
 31
0.0
 11
-54.6542625958
 21
24.5962579146
 31
0.0
 11
-54.7566596782
 21
24.5832501914
 31
0.0
  0
SPLINE
  5
798
100
AcDbEntity
  8
RACCORDO
100
AcDbSpline
 62
253
  6
CONTINUOUS
 70
0
 71
3
 72
13
 73
9
 74
7
 42
0.0000001
 43
0.0000001
 44
0.0000000001
 12
-0.0038280744
 22
-0.7002330792
 32
0.0
 13
-0.2208201355
 23
-0.6645144748
 33
0.0
 40
0.0
 40
0.0
 40
0.0
 40
0.0
 40
0.2650067129
 40
0.5022444433
 40
0.7016989358
 40
0.8549205585
 40
0.9556429435
 40
1.0
 40
1.0
 40
1.0
 40
1.0
 10
-76.1328385376
 20
-19.3389225878
 30
0.0
 10
-76.1331766928
 20
-19.4007780767
 30
0.0
 10
-76.1340690117
 20
-19.5179949658
 30
0.0
 10
-76.1358512328
 20
-19.6818158952
 30
0.0
 10
-76.1386810021
 20
-19.8193640154
 30
0.0
 10
-76.1404269761
 20
-19.9254750979
 30
0.0
 10
-76.1453278435
 20
-19.9944193361
 30
0.0
 10
-76.1453179927
 20
-20.028984692
 30
0.0
 10
-76.1485829698
 20
-20.038809994
 30
0.0
 11
-76.1328385376
 21
-19.3389225878
 31
0.0
 11
-76.1342250661
 21
-19.5244866474
 31
0.0
 11
-76.1362380906
 21
-19.6905986392
 31
0.0
 11
-76.1387960613
 21
-19.8302419334
 31
0.0
 11
-76.1417920041
 21
-19.9374925491
 31
0.0
 11
-76.1451002839
 21
-20.0079451172
 31
0.0
 11
-76.1485829698
 21
-20.038809994
 31
0.0
  0
SPLINE
  5
799
100
AcDbEntity
  8
RACCORDO
100
AcDbSpline
 62
7
  6
CONTINUOUS
 70
0
 71
3
 72
10
 73
6
 74
4
 42
0.0000001
 43
0.0000001
 44
0.0000000001
 12
-0.0343729863
 22
-0.0031021255
 32
0.0
 13
-0.0037555946
 23
-0.0343077379
 33
0.0
 40
0.0
 40
0.0
 40
0.0
 40
0.0
 40
0.5359036063
 40
0.8695586281
 40
1.0
 40
1.0
 40
1.0
 40
1.0
 10
-75.7582985
 20
-20.867310378
 30
0.0
 10
-75.7644387025
 20
-20.8678645248
 30
0.0
 10
-75.7751048099
 20
-20.8686169281
 30
0.0
 10
-75.7847261957
 20
-20.8702587801
 30
0.0
 10
-75.7919391162
 20
-20.8713187847
 30
0.0
 10
-75.7921024112
 20
-20.8728105008
 30
0.0
 11
-75.7582985
 21
-20.867310378
 31
0.0
 11
-75.7767121286
 21
-20.8690484126
 31
0.0
 11
-75.7881015731
 21
-20.8707464672
 31
0.0
 11
-75.7921024112
 21
-20.8728105008
 31
0.0
  0
SPLINE
  5
79A
100
AcDbEntity
  8
RACCORDO
100
AcDbSpline
 62
253
  6
CONTINUOUS
 70
0
 71
3
 72
11
 73
7
 74
5
 42
0.0000001
 43
0.0000001
 44
0.0000000001
 12
0.0012232491
 22
0.3641909974
 32
0.0
 13
0.3641918961
 23
0.0009174701
 33
0.0
 40
0.0
 40
0.0
 40
0.0
 40
0.0
 40
0.2331625878
 40
0.4766705428
 40
0.7338113025
 40
1.0
 40
1.0
 40
1.0
 40
1.0
 10
-75.7862845814
 20
-22.3837371067
 30
0.0
 10
-75.7861895094
 20
-22.3554318682
 30
0.0
 10
-75.7722599176
 20
-22.2968886248
 30
0.0
 10
-75.7153273873
 20
-22.2252275288
 30
0.0
 10
-75.6326593537
 20
-22.1782292412
 30
0.0
 10
-75.568603401
 20
-22.1673121625
 30
0.0
 10
-75.5362888122
 20
-22.1672307558
 30
0.0
 11
-75.7862845814
 21
-22.3837371067
 31
0.0
 11
-75.7670464963
 21
-22.3010288474
 31
0.0
 11
-75.7128059699
 21
-22.2308661768
 31
0.0
 11
-75.6317904675
 21
-22.1838917081
 31
0.0
 11
-75.5362888122
 21
-22.1672307558
 31
0.0
  0
SPLINE
  5
79B
100
AcDbEntity
  8
RACCORDO
100
AcDbSpline
 62
7
  6
CONTINUOUS
 70
0
 71
3
 72
11
 73
7
 74
5
 42
0.0000001
 43
0.0000001
 44
0.0000000001
 12
0.0031598815
 22
0.3135885417
 32
0.0
 13
0.3136044616
 23
0.0
 33
0.0
 40
0.0
 40
0.0
 40
0.0
 40
0.0
 40
0.1724572498
 40
0.3902427658
 40
0.66898486
 40
1.0
 40
1.0
 40
1.0
 40
1.0
 10
-75.7921024112
 20
-21.8063868375
 30
0.0
 10
-75.791920763
 20
-21.788359965
 30
0.0
 10
-75.7767930662
 20
-21.7475279043
 30
0.0
 10
-75.7215480425
 20
-21.7015662368
 30
0.0
 10
-75.6400761983
 20
-21.6697035163
 30
0.0
 10
-75.5759820215
 20
-21.6620492702
 30
0.0
 10
-75.5413794132
 20
-21.6620492702
 30
0.0
 11
-75.7921024112
 21
-21.8063868375
 31
0.0
 11
-75.7752109027
 21
-21.7550089523
 31
0.0
 11
-75.7250658929
 21
-21.7086390872
 31
0.0
 11
-75.6443733563
 21
-21.6750227881
 31
0.0
 11
-75.5413794132
 21
-21.6620492702
 31
0.0
  0
SPLINE
  5
79C
100
AcDbEntity
  8
RACCORDO
100
AcDbSpline
 62
7
  6
CONTINUOUS
 70
0
 71
3
 72
11
 73
7
 74
5
 42
0.0000001
 43
0.0000001
 44
0.0000000001
 12
-0.0031598815
 22
0.3135885417
 32
0.0
 13
-0.3136044616
 23
0.0
 33
0.0
 40
0.0
 40
0.0
 40
0.0
 40
0.0
 40
0.1724572498
 40
0.3902427658
 40
0.66898486
 40
1.0
 40
1.0
 40
1.0
 40
1.0
 10
-73.406663909
 20
-21.8063868375
 30
0.0
 10
-73.4068455571
 20
-21.788359965
 30
0.0
 10
-73.4219732539
 20
-21.7475279043
 30
0.0
 10
-73.4772182776
 20
-21.7015662368
 30
0.0
 10
-73.5586901219
 20
-21.6697035163
 30
0.0
 10
-73.6227842987
 20
-21.6620492702
 30
0.0
 10
-73.6573869069
 20
-21.6620492702
 30
0.0
 11
-73.406663909
 21
-21.8063868375
 31
0.0
 11
-73.4235554174
 21
-21.7550089523
 31
0.0
 11
-73.4737004272
 21
-21.7086390872
 31
0.0
 11
-73.5543929638
 21
-21.6750227881
 31
0.0
 11
-73.6573869069
 21
-21.6620492702
 31
0.0
  0
SPLINE
  5
79D
100
AcDbEntity
  8
RACCORDO
100
AcDbSpline
 62
253
  6
CONTINUOUS
 70
0
 71
3
 72
13
 73
9
 74
7
 42
0.0000001
 43
0.0000001
 44
0.0000000001
 12
-0.2208201584
 22
0.6645144672
 32
0.0
 13
-0.0038280745
 23
0.7002330792
 33
0.0
 40
0.0
 40
0.0
 40
0.0
 40
0.0
 40
0.0443570587
 40
0.1450794447
 40
0.2983010685
 40
0.4977555618
 40
0.7349932924
 40
1.0
 40
1.0
 40
1.0
 40
1.0
 10
-9.1501833503
 20
-20.038809994
 30
0.0
 10
-9.1534483279
 20
-20.0289846916
 30
0.0
 10
-9.1534384763
 20
-19.9944193347
 30
0.0
 10
-9.1583393444
 20
-19.9254750957
 30
0.0
 10
-9.160085318
 20
-19.8193640125
 30
0.0
 10
-9.1629150874
 20
-19.6818158918
 30
0.0
 10
-9.1646973085
 20
-19.5179949633
 30
0.0
 10
-9.1655896274
 20
-19.4007780754
 30
0.0
 10
-9.1659277825
 20
-19.3389225878
 30
0.0
 11
-9.1501833503
 21
-20.038809994
 31
0.0
 11
-9.1536660363
 21
-20.0079451157
 31
0.0
 11
-9.1569743161
 21
-19.9374925468
 31
0.0
 11
-9.159970259
 21
-19.8302419304
 31
0.0
 11
-9.1625282296
 21
-19.6905986357
 31
0.0
 11
-9.1645412541
 21
-19.5244866436
 31
0.0
 11
-9.1659277825
 21
-19.3389225878
 31
0.0
  0
SPLINE
  5
79E
100
AcDbEntity
  8
RACCORDO
100
AcDbSpline
 62
253
  6
CONTINUOUS
 70
0
 71
3
 72
11
 73
7
 74
5
 42
0.0000001
 43
0.0000001
 44
0.0000000001
 12
-0.0012232491
 22
0.3641909974
 32
0.0
 13
-0.3641918961
 23
0.0009174701
 33
0.0
 40
0.0
 40
0.0
 40
0.0
 40
0.0
 40
0.2331625878
 40
0.4766705428
 40
0.7338113025
 40
1.0
 40
1.0
 40
1.0
 40
1.0
 10
-73.4124817388
 20
-22.3837371067
 30
0.0
 10
-73.4125768108
 20
-22.3554318682
 30
0.0
 10
-73.4265064026
 20
-22.2968886248
 30
0.0
 10
-73.4834389328
 20
-22.2252275288
 30
0.0
 10
-73.5661069664
 20
-22.1782292412
 30
0.0
 10
-73.6301629192
 20
-22.1673121625
 30
0.0
 10
-73.662477508
 20
-22.1672307558
 30
0.0
 11
-73.4124817388
 21
-22.3837371067
 31
0.0
 11
-73.4317198238
 21
-22.3010288474
 31
0.0
 11
-73.4859603503
 21
-22.2308661768
 31
0.0
 11
-73.5669758527
 21
-22.1838917081
 31
0.0
 11
-73.662477508
 21
-22.1672307558
 31
0.0
  0
SPLINE
  5
79F
100
AcDbEntity
  8
RACCORDO
100
AcDbSpline
 62
253
  6
CONTINUOUS
 70
0
 71
3
 72
10
 73
6
 74
4
 42
0.0000001
 43
0.0000001
 44
0.0000000001
 12
-0.2117750766
 22
38.7576417841
 32
0.0
 13
-0.1534106119
 23
38.7579167466
 33
0.0
 40
0.0
 40
0.0
 40
0.0
 40
0.0
 40
0.3308877967
 40
0.6643011297
 40
1.0
 40
1.0
 40
1.0
 40
1.0
 10
-9.1659277825
 20
-19.3389225878
 30
0.0
 10
-9.189285712
 20
-15.0641123561
 30
0.0
 10
-9.2339679618
 20
-6.4818517017
 30
0.0
 10
-9.2947035284
 20
6.4374128083
 30
0.0
 10
-9.3310379987
 20
15.0818696109
 30
0.0
 10
-9.3482045884
 20
19.4188658993
 30
0.0
 11
-9.1659277825
 21
-19.3389225878
 31
0.0
 11
-9.2327224288
 21
-6.5144743945
 31
0.0
 11
-9.2934959444
 21
6.4078901312
 31
0.0
 11
-9.3482045884
 21
19.4188658993
 31
0.0
  0
SPLINE
  5
7A0
100
AcDbEntity
  8
RACCORDO
100
AcDbSpline
 62
253
  6
CONTINUOUS
 70
0
 71
3
 72
14
 73
10
 74
8
 42
0.0000001
 43
0.0000001
 44
0.0000000001
 12
-0.0046952165
 22
1.1872230436
 32
0.0
 13
0.0771277553
 23
1.1847244024
 33
0.0
 40
0.0
 40
0.0
 40
0.0
 40
0.0
 40
0.1824813711
 40
0.3654987348
 40
0.5400455874
 40
0.6977415011
 40
0.8309356336
 40
0.9333223659
 40
1.0
 40
1.0
 40
1.0
 40
1.0
 10
-9.3482045884
 20
19.4188658993
 30
0.0
 10
-9.3484901849
 20
19.4910812622
 30
0.0
 10
-9.3487723011
 20
19.6357254068
 30
0.0
 10
-9.3483873375
 20
19.849445291
 30
0.0
 10
-9.3472262273
 20
20.0533541019
 30
0.0
 10
-9.3453363495
 20
20.2375379592
 30
0.0
 10
-9.3428816003
 20
20.3931597895
 30
0.0
 10
-9.3398994462
 20
20.5127347177
 30
0.0
 10
-9.3374136455
 20
20.5796091439
 30
0.0
 10
-9.3356994134
 20
20.605940684
 30
0.0
 11
-9.3482045884
 21
19.4188658993
 31
0.0
 11
-9.3486366208
 21
19.6355132516
 31
0.0
 11
-9.3482369806
 21
19.8527970147
 31
0.0
 11
-9.3470225537
 21
20.0600211223
 31
0.0
 11
-9.3450503796
 21
20.2472324215
 31
0.0
 11
-9.3424163638
 21
20.4053428625
 31
0.0
 11
-9.339247205
 21
20.5268583818
 31
0.0
 11
-9.3356994134
 21
20.605940684
 31
0.0
  0
SPLINE
  5
7A1
100
AcDbEntity
  8
RACCORDO
100
AcDbSpline
 62
253
  6
CONTINUOUS
 70
0
 71
3
 72
14
 73
10
 74
8
 42
0.0000001
 43
0.0000001
 44
0.0000000001
 12
0.0203428157
 22
0.3122779429
 32
0.0
 13
0.0988873015
 23
0.2969051117
 33
0.0
 40
0.0
 40
0.0
 40
0.0
 40
0.0
 40
0.2227692286
 40
0.4188220135
 40
0.5882197379
 40
0.7309943083
 40
0.8471668293
 40
0.9367803919
 40
1.0
 40
1.0
 40
1.0
 40
1.0
 10
-9.2070032264
 20
22.5815299765
 30
0.0
 10
-9.205492642
 20
22.6047186154
 30
0.0
 10
-9.2024954507
 20
22.6483050753
 30
0.0
 10
-9.1976945544
 20
22.7094769973
 30
0.0
 10
-9.1928845466
 20
22.7622756135
 30
0.0
 10
-9.1880701891
 20
22.8066981914
 30
0.0
 10
-9.1832835006
 20
22.8427525353
 30
0.0
 10
-9.178520224
 20
22.8704017114
 30
0.0
 10
-9.1748474292
 20
22.8859584654
 30
0.0
 10
-9.172763557
 20
22.892215207
 30
0.0
 11
-9.2070032264
 21
22.5815299765
 31
0.0
 11
-9.2021851201
 21
22.651076647
 31
0.0
 11
-9.1973400016
 21
22.7122377618
 31
0.0
 11
-9.1924694035
 21
22.7650248328
 31
0.0
 11
-9.1875749231
 21
22.8094357906
 31
0.0
 11
-9.182658131
 21
22.8454567834
 31
0.0
 11
-9.1777205512
 21
22.8730623415
 31
0.0
 11
-9.172763557
 21
22.892215207
 31
0.0
  0
SPLINE
  5
7A2
100
AcDbEntity
  8
RACCORDO
100
AcDbSpline
 62
253
  6
CONTINUOUS
 70
0
 71
3
 72
14
 73
10
 74
8
 42
0.0000001
 43
0.0000001
 44
0.0000000001
 12
0.0203327991
 22
0.3285519664
 32
0.0
 13
0.0993031909
 23
0.3138450153
 33
0.0
 40
0.0
 40
0.0
 40
0.0
 40
0.0
 40
0.2228769802
 40
0.4190062911
 40
0.5884501769
 40
0.7312382153
 40
0.8473876844
 40
0.9369287386
 40
1.0
 40
1.0
 40
1.0
 40
1.0
 10
-9.706927074
 20
23.0644928897
 30
0.0
 10
-9.705416503
 20
23.0889017797
 30
0.0
 10
-9.7024194115
 20
23.1347808849
 30
0.0
 10
-9.6976185618
 20
23.1991717854
 30
0.0
 10
-9.6928087943
 20
23.2547474428
 30
0.0
 10
-9.6879946281
 20
23.301505767
 30
0.0
 10
-9.6832090411
 20
23.3394534361
 30
0.0
 10
-9.6784463887
 20
23.3685521992
 30
0.0
 10
-9.6747751305
 20
23.384931774
 30
0.0
 10
-9.6726874046
 20
23.3915299743
 30
0.0
 11
-9.706927074
 21
23.0644928897
 31
0.0
 11
-9.7021088721
 21
23.1377012674
 31
0.0
 11
-9.6972637595
 21
23.202081157
 31
0.0
 11
-9.6923932169
 21
23.2576457275
 31
0.0
 11
-9.6874988282
 21
23.30439325
 31
0.0
 11
-9.6825820759
 21
23.3423099382
 31
0.0
 11
-9.6776444907
 21
23.3713686024
 31
0.0
 11
-9.6726874046
 21
23.3915299743
 31
0.0
  0
SPLINE
  5
7A3
100
AcDbEntity
  8
RACCORDO
100
AcDbSpline
 62
253
  6
CONTINUOUS
 70
0
 71
3
 72
14
 73
10
 74
8
 42
0.0000001
 43
0.0000001
 44
0.0000000001
 12
0.099303191
 22
-0.3138450153
 32
0.0
 13
0.0203327991
 23
-0.3285519664
 33
0.0
 40
0.0
 40
0.0
 40
0.0
 40
0.0
 40
0.0630712617
 40
0.1526123161
 40
0.2687617852
 40
0.4115498238
 40
0.5809937097
 40
0.7771230206
 40
1.0
 40
1.0
 40
1.0
 40
1.0
 10
-75.6260789155
 20
23.3915299743
 30
0.0
 10
-75.6239911897
 20
23.384931774
 30
0.0
 10
-75.6203199315
 20
23.3685521991
 30
0.0
 10
-75.615557279
 20
23.3394534359
 30
0.0
 10
-75.6107716921
 20
23.3015057668
 30
0.0
 10
-75.6059575259
 20
23.2547474426
 30
0.0
 10
-75.6011477583
 20
23.1991717851
 30
0.0
 10
-75.5963469087
 20
23.1347808847
 30
0.0
 10
-75.5933498171
 20
23.0889017796
 30
0.0
 10
-75.5918392462
 20
23.0644928897
 30
0.0
 11
-75.6260789155
 21
23.3915299743
 31
0.0
 11
-75.6211218295
 21
23.3713686023
 31
0.0
 11
-75.6161842442
 21
23.342309938
 31
0.0
 11
-75.611267492
 21
23.3043932498
 31
0.0
 11
-75.6063731032
 21
23.2576457273
 31
0.0
 11
-75.6015025606
 21
23.2020811567
 31
0.0
 11
-75.596657448
 21
23.1377012671
 31
0.0
 11
-75.5918392462
 21
23.0644928897
 31
0.0
  0
SPLINE
  5
7A4
100
AcDbEntity
  8
RACCORDO
100
AcDbSpline
 62
253
  6
CONTINUOUS
 70
0
 71
3
 72
14
 73
10
 74
8
 42
0.0000001
 43
0.0000001
 44
0.0000000001
 12
-0.0046946038
 22
1.7807110769
 32
0.0
 13
0.0772764144
 23
1.7790397226
 33
0.0
 40
0.0
 40
0.0
 40
0.0
 40
0.0
 40
0.18268748
 40
0.3656930162
 40
0.5401399193
 40
0.6977020408
 40
0.8308633259
 40
0.9332680534
 40
1.0
 40
1.0
 40
1.0
 40
1.0
 10
-9.8481284359
 20
19.3082913714
 30
0.0
 10
-9.8484143177
 20
19.4167292444
 30
0.0
 10
-9.8486962816
 20
19.6337946505
 30
0.0
 10
-9.8483105134
 20
19.9544068244
 30
0.0
 10
-9.8471495146
 20
20.2601037002
 30
0.0
 10
-9.8452605529
 20
20.5362092547
 30
0.0
 10
-9.8428079714
 20
20.7695492294
 30
0.0
 10
-9.8398243725
 20
20.9489568061
 30
0.0
 10
-9.8373421962
 20
21.0493306692
 30
0.0
 10
-9.835623261
 20
21.0889035971
 30
0.0
 11
-9.8481284359
 21
19.3082913714
 31
0.0
 11
-9.848560487
 21
19.6336058342
 31
0.0
 11
-9.848160103
 21
19.9594867061
 31
0.0
 11
-9.8469458693
 21
20.2701249453
 31
0.0
 11
-9.8449754936
 21
20.5506916168
 31
0.0
 11
-9.8423427664
 21
20.7877996004
 31
0.0
 11
-9.8391743227
 21
20.9701259383
 31
0.0
 11
-9.835623261
 21
21.0889035971
 31
0.0
  0
SPLINE
  5
7A5
100
AcDbEntity
  8
RACCORDO
100
AcDbSpline
 62
253
  6
CONTINUOUS
 70
0
 71
3
 72
14
 73
10
 74
8
 42
0.0000001
 43
0.0000001
 44
0.0000000001
 12
0.0772764146
 22
-1.7790397226
 32
0.0
 13
-0.0046946037
 23
-1.7807110769
 33
0.0
 40
0.0
 40
0.0
 40
0.0
 40
0.0
 40
0.066731947
 40
0.1691366745
 40
0.3022979596
 40
0.4598600811
 40
0.6343069842
 40
0.8173125203
 40
1.0
 40
1.0
 40
1.0
 40
1.0
 10
-75.4631430592
 20
21.0889035971
 30
0.0
 10
-75.461424124
 20
21.049330669
 30
0.0
 10
-75.4589419477
 20
20.9489568057
 30
0.0
 10
-75.4559583487
 20
20.7695492287
 30
0.0
 10
-75.4535057673
 20
20.536209254
 30
0.0
 10
-75.4516168055
 20
20.2601036995
 30
0.0
 10
-75.4504558067
 20
19.9544068238
 30
0.0
 10
-75.4500700386
 20
19.6337946501
 30
0.0
 10
-75.4503520025
 20
19.4167292443
 30
0.0
 10
-75.4506378842
 20
19.3082913714
 30
0.0
 11
-75.4631430592
 21
21.0889035971
 31
0.0
 11
-75.4595919974
 21
20.9701259377
 31
0.0
 11
-75.4564235538
 21
20.7877995997
 31
0.0
 11
-75.4537908266
 21
20.550691616
 31
0.0
 11
-75.4518204509
 21
20.2701249446
 31
0.0
 11
-75.4506062171
 21
19.9594867055
 31
0.0
 11
-75.4502058332
 21
19.6336058337
 31
0.0
 11
-75.4506378842
 21
19.3082913714
 31
0.0
  0
SPLINE
  5
7A6
100
AcDbEntity
  8
RACCORDO
100
AcDbSpline
 62
253
  6
CONTINUOUS
 70
0
 71
3
 72
10
 73
6
 74
4
 42
0.0000001
 43
0.0000001
 44
0.0000000001
 12
-0.2117750799
 22
38.7964384211
 32
0.0
 13
-0.1534106092
 23
38.7967131086
 33
0.0
 40
0.0
 40
0.0
 40
0.0
 40
0.0
 40
0.3308879042
 40
0.6643009861
 40
1.0
 40
1.0
 40
1.0
 40
1.0
 10
-9.6658516304
 20
-19.4882936061
 30
0.0
 10
-9.6892095678
 20
-15.2092028725
 30
0.0
 10
-9.7338918069
 20
-6.6183532053
 30
0.0
 10
-9.7946273738
 20
6.3138434664
 30
0.0
 10
-9.830961839
 20
14.9669519264
 30
0.0
 10
-9.8481284358
 20
19.3082913714
 30
0.0
 11
-9.6658516304
 21
-19.4882936061
 31
0.0
 11
-9.7326462974
 21
-6.6510039246
 31
0.0
 11
-9.7934197673
 21
6.2842861204
 31
0.0
 11
-9.8481284358
 21
19.3082913714
 31
0.0
  0
SPLINE
  5
7A7
100
AcDbEntity
  8
RACCORDO
100
AcDbSpline
 62
253
  6
CONTINUOUS
 70
0
 71
3
 72
10
 73
6
 74
4
 42
0.0000001
 43
0.0000001
 44
0.0000000001
 12
-0.1534106092
 22
-38.7967131086
 32
0.0
 13
-0.2117750799
 23
-38.7964384211
 33
0.0
 40
0.0
 40
0.0
 40
0.0
 40
0.0
 40
0.3356990139
 40
0.6691120958
 40
1.0
 40
1.0
 40
1.0
 40
1.0
 10
-75.4506378844
 20
19.3082913714
 30
0.0
 10
-75.4678044811
 20
14.9669519264
 30
0.0
 10
-75.5041389464
 20
6.3138434664
 30
0.0
 10
-75.5648745133
 20
-6.6183532053
 30
0.0
 10
-75.6095567524
 20
-15.2092028725
 30
0.0
 10
-75.6329146898
 20
-19.4882936061
 30
0.0
 11
-75.4506378844
 21
19.3082913714
 31
0.0
 11
-75.5053465529
 21
6.2842861204
 31
0.0
 11
-75.5661200228
 21
-6.6510039246
 31
0.0
 11
-75.6329146898
 21
-19.4882936061
 31
0.0
  0
SPLINE
  5
7A8
100
AcDbEntity
  8
RACCORDO
100
AcDbSpline
 62
253
  6
CONTINUOUS
 70
0
 71
3
 72
11
 73
7
 74
5
 42
0.0000001
 43
0.0000001
 44
0.0000000001
 12
0.0012232491
 22
0.3641909974
 32
0.0
 13
0.3641918961
 23
0.0009174701
 33
0.0
 40
0.0
 40
0.0
 40
0.0
 40
0.0
 40
0.2331625878
 40
0.4766705428
 40
0.7338113025
 40
1.0
 40
1.0
 40
1.0
 40
1.0
 10
-56.8862845814
 20
-22.3837371067
 30
0.0
 10
-56.8861895094
 20
-22.3554318682
 30
0.0
 10
-56.8722599176
 20
-22.2968886248
 30
0.0
 10
-56.8153273873
 20
-22.2252275288
 30
0.0
 10
-56.7326593537
 20
-22.1782292412
 30
0.0
 10
-56.668603401
 20
-22.1673121625
 30
0.0
 10
-56.6362888122
 20
-22.1672307558
 30
0.0
 11
-56.8862845814
 21
-22.3837371067
 31
0.0
 11
-56.8670464963
 21
-22.3010288474
 31
0.0
 11
-56.8128059699
 21
-22.2308661768
 31
0.0
 11
-56.7317904675
 21
-22.1838917081
 31
0.0
 11
-56.6362888122
 21
-22.1672307558
 31
0.0
  0
SPLINE
  5
7A9
100
AcDbEntity
  8
RACCORDO
100
AcDbSpline
 62
253
  6
CONTINUOUS
 70
0
 71
3
 72
11
 73
7
 74
5
 42
0.0000001
 43
0.0000001
 44
0.0000000001
 12
0.7660179938
 22
-0.0033427235
 32
0.0
 13
0.0035816239
 23
-0.7660169141
 33
0.0
 40
0.0
 40
0.0
 40
0.0
 40
0.0
 40
0.2538056342
 40
0.5056105305
 40
0.7541349824
 40
1.0
 40
1.0
 40
1.0
 40
1.0
 10
-9.706927074
 20
23.0644928897
 30
0.0
 10
-9.6421205131
 20
23.064210089
 30
0.0
 10
-9.511802817
 20
23.0388917931
 30
0.0
 10
-9.3461205367
 20
22.9319556227
 30
0.0
 10
-9.2341362733
 20
22.7718399335
 30
0.0
 10
-9.2072967584
 20
22.6443088972
 30
0.0
 10
-9.2070032264
 20
22.5815299765
 30
0.0
 11
-9.706927074
 21
23.0644928897
 31
0.0
 11
-9.5161342371
 21
23.0271053754
 31
0.0
 11
-9.3542232086
 21
22.9222676268
 31
0.0
 11
-9.2457037265
 21
22.7658497603
 31
0.0
 11
-9.2070032264
 21
22.5815299765
 31
0.0
  0
SPLINE
  5
7AA
100
AcDbEntity
  8
RACCORDO
100
AcDbSpline
 62
7
  6
CONTINUOUS
 70
0
 71
3
 72
11
 73
7
 74
5
 42
0.0000001
 43
0.0000001
 44
0.0000000001
 12
0.0031598815
 22
0.3135885417
 32
0.0
 13
0.3136044616
 23
-0.0
 33
0.0
 40
0.0
 40
0.0
 40
0.0
 40
0.0
 40
0.1724572498
 40
0.3902427658
 40
0.66898486
 40
1.0
 40
1.0
 40
1.0
 40
1.0
 10
-56.8921024112
 20
-21.8063868375
 30
0.0
 10
-56.891920763
 20
-21.788359965
 30
0.0
 10
-56.8767930662
 20
-21.7475279043
 30
0.0
 10
-56.8215480425
 20
-21.7015662368
 30
0.0
 10
-56.7400761983
 20
-21.6697035163
 30
0.0
 10
-56.6759820215
 20
-21.6620492702
 30
0.0
 10
-56.6413794132
 20
-21.6620492702
 30
0.0
 11
-56.8921024112
 21
-21.8063868375
 31
0.0
 11
-56.8752109027
 21
-21.7550089523
 31
0.0
 11
-56.8250658929
 21
-21.7086390872
 31
0.0
 11
-56.7443733563
 21
-21.6750227881
 31
0.0
 11
-56.6413794132
 21
-21.6620492702
 31
0.0
  0
SPLINE
  5
7AB
100
AcDbEntity
  8
RACCORDO
100
AcDbSpline
 62
253
  6
CONTINUOUS
 70
0
 71
3
 72
13
 73
9
 74
7
 42
0.0000001
 43
0.0000001
 44
0.0000000001
 12
-0.0038300391
 22
-1.0500618052
 32
0.0
 13
-0.2274846303
 23
-1.0251317998
 33
0.0
 40
0.0
 40
0.0
 40
0.0
 40
0.0
 40
0.2653220419
 40
0.5025400403
 40
0.7018378231
 40
0.8549891277
 40
0.9557164612
 40
1.0
 40
1.0
 40
1.0
 40
1.0
 10
-75.6329146898
 20
-19.4882936061
 30
0.0
 10
-75.6332534211
 20
-19.5811617868
 30
0.0
 10
-75.6341486213
 20
-19.7570523189
 30
0.0
 10
-75.6359205586
 20
-20.0027363786
 30
0.0
 10
-75.6387792598
 20
-20.2090305009
 30
0.0
 10
-75.6404488808
 20
-20.3678535433
 30
0.0
 10
-75.6454966144
 20
-20.47173471
 30
0.0
 10
-75.6453011808
 20
-20.5229926068
 30
0.0
 10
-75.6486591222
 20
-20.5381247614
 30
0.0
 11
-75.6329146898
 21
-19.4882936061
 31
0.0
 11
-75.6343028142
 21
-19.7668965435
 31
0.0
 11
-75.6363157964
 21
-20.0159836262
 31
0.0
 11
-75.6388718299
 21
-20.225244398
 31
0.0
 11
-75.6418657236
 21
-20.3860359328
 31
0.0
 11
-75.6451733752
 21
-20.4917548311
 31
0.0
 11
-75.6486591222
 21
-20.5381247614
 31
0.0
  0
SPLINE
  5
7AC
100
AcDbEntity
  8
RACCORDO
100
AcDbSpline
 62
253
  6
CONTINUOUS
 70
0
 71
3
 72
13
 73
9
 74
7
 42
0.0000001
 43
0.0000001
 44
0.0000000001
 12
-0.227484646
 22
1.0251317963
 32
0.0
 13
-0.0038300391
 23
1.0500618052
 33
0.0
 40
0.0
 40
0.0
 40
0.0
 40
0.0
 40
0.0442835408
 40
0.1450108757
 40
0.2981621813
 40
0.4974599648
 40
0.7346779635
 40
1.0
 40
1.0
 40
1.0
 40
1.0
 10
-9.6501071979
 20
-20.5381247614
 30
0.0
 10
-9.6534651398
 20
-20.5229926061
 30
0.0
 10
-9.6532697055
 20
-20.4717347081
 30
0.0
 10
-9.6583174396
 20
-20.3678535399
 30
0.0
 10
-9.6599870603
 20
-20.2090304964
 30
0.0
 10
-9.6628457616
 20
-20.0027363734
 30
0.0
 10
-9.6646176989
 20
-19.7570523152
 30
0.0
 10
-9.6655128991
 20
-19.5811617849
 30
0.0
 10
-9.6658516303
 20
-19.4882936061
 30
0.0
 11
-9.6501071979
 21
-20.5381247614
 31
0.0
 11
-9.6535929451
 21
-20.491754829
 31
0.0
 11
-9.6569005966
 21
-20.3860359293
 31
0.0
 11
-9.6598944903
 21
-20.2252443935
 31
0.0
 11
-9.6624505238
 21
-20.0159836209
 31
0.0
 11
-9.664463506
 21
-19.7668965378
 31
0.0
 11
-9.6658516303
 21
-19.4882936061
 31
0.0
  0
SPLINE
  5
7AD
100
AcDbEntity
  8
RACCORDO
100
AcDbSpline
 62
7
  6
CONTINUOUS
 70
0
 71
3
 72
11
 73
7
 74
5
 42
0.0000001
 43
0.0000001
 44
0.0000000001
 12
-0.0031598815
 22
0.3135885417
 32
0.0
 13
-0.3136044616
 23
0.0
 33
0.0
 40
0.0
 40
0.0
 40
0.0
 40
0.0
 40
0.1724572498
 40
0.3902427658
 40
0.66898486
 40
1.0
 40
1.0
 40
1.0
 40
1.0
 10
-54.506663909
 20
-21.8063868375
 30
0.0
 10
-54.5068455571
 20
-21.788359965
 30
0.0
 10
-54.5219732539
 20
-21.7475279043
 30
0.0
 10
-54.5772182776
 20
-21.7015662368
 30
0.0
 10
-54.6586901219
 20
-21.6697035163
 30
0.0
 10
-54.7227842987
 20
-21.6620492702
 30
0.0
 10
-54.7573869069
 20
-21.6620492702
 30
0.0
 11
-54.506663909
 21
-21.8063868375
 31
0.0
 11
-54.5235554174
 21
-21.7550089523
 31
0.0
 11
-54.5737004272
 21
-21.7086390872
 31
0.0
 11
-54.6543929638
 21
-21.6750227881
 31
0.0
 11
-54.7573869069
 21
-21.6620492702
 31
0.0
  0
SPLINE
  5
7AE
100
AcDbEntity
  8
RACCORDO
100
AcDbSpline
 62
253
  6
CONTINUOUS
 70
0
 71
3
 72
11
 73
7
 74
5
 42
0.0000001
 43
0.0000001
 44
0.0000000001
 12
-0.0012232491
 22
0.3641909974
 32
0.0
 13
-0.3641918961
 23
0.0009174701
 33
0.0
 40
0.0
 40
0.0
 40
0.0
 40
0.0
 40
0.2331625878
 40
0.4766705428
 40
0.7338113025
 40
1.0
 40
1.0
 40
1.0
 40
1.0
 10
-54.5124817388
 20
-22.3837371067
 30
0.0
 10
-54.5125768108
 20
-22.3554318682
 30
0.0
 10
-54.5265064026
 20
-22.2968886248
 30
0.0
 10
-54.5834389328
 20
-22.2252275288
 30
0.0
 10
-54.6661069664
 20
-22.1782292412
 30
0.0
 10
-54.7301629192
 20
-22.1673121625
 30
0.0
 10
-54.762477508
 20
-22.1672307558
 30
0.0
 11
-54.5124817388
 21
-22.3837371067
 31
0.0
 11
-54.5317198238
 21
-22.3010288474
 31
0.0
 11
-54.5859603503
 21
-22.2308661768
 31
0.0
 11
-54.6669758527
 21
-22.1838917081
 31
0.0
 11
-54.762477508
 21
-22.1672307558
 31
0.0
  0
SPLINE
  5
7AF
100
AcDbEntity
  8
RACCORDO
100
AcDbSpline
 62
253
  6
CONTINUOUS
 70
0
 71
3
 72
11
 73
7
 74
5
 42
0.0000001
 43
0.0000001
 44
0.0000000001
 12
0.5428538566
 22
0.0027014818
 32
0.0
 13
0.0302139818
 23
0.5420191167
 33
0.0
 40
0.0
 40
0.0
 40
0.0
 40
0.0
 40
0.3496266122
 40
0.6525228867
 40
0.8718924556
 40
1.0
 40
1.0
 40
1.0
 40
1.0
 10
-9.6658516301
 20
-19.4882936502
 30
0.0
 10
-9.6025862452
 20
-19.4879788136
 30
0.0
 10
-9.4846347196
 20
-19.4814802007
 30
0.0
 10
-9.3281932268
 20
-19.4504698077
 30
0.0
 10
-9.2191006497
 20
-19.4131810674
 30
0.0
 10
-9.1672179955
 20
-19.3620681672
 30
0.0
 10
-9.1659277825
 20
-19.3389225878
 30
0.0
 11
-9.6658516301
 21
-19.4882936502
 31
0.0
 11
-9.4764376832
 21
-19.4762176755
 31
0.0
 11
-9.3152596614
 21
-19.4436751319
 31
0.0
 11
-9.2063443623
 21
-19.3955171327
 31
0.0
 11
-9.1659277825
 21
-19.3389225878
 31
0.0
  0
SPLINE
  5
7B0
100
AcDbEntity
  8
RACCORDO
100
AcDbSpline
 62
253
  6
CONTINUOUS
 70
0
 71
3
 72
11
 73
7
 74
5
 42
0.0000001
 43
0.0000001
 44
0.0000000001
 12
0.5253768249
 22
0.0019777296
 32
0.0
 13
0.0403889012
 23
0.523825788
 33
0.0
 40
0.0
 40
0.0
 40
0.0
 40
0.0
 40
0.3608441563
 40
0.6709907607
 40
0.8891401609
 40
1.0
 40
1.0
 40
1.0
 40
1.0
 10
-9.8481284359
 20
19.3082964549
 30
0.0
 10
-9.7849353836
 20
19.308534339
 30
0.0
 10
-9.6681653168
 20
19.3131603875
 30
0.0
 10
-9.5107589711
 20
19.3364121673
 30
0.0
 10
-9.4086045158
 20
19.3619736653
 30
0.0
 10
-9.3496970911
 20
19.3995088184
 30
0.0
 10
-9.3482045887
 20
19.4188658993
 30
0.0
 11
-9.8481284359
 21
19.3082964549
 31
0.0
 11
-9.6587593284
 21
19.317246718
 31
0.0
 11
-9.4976051505
 21
19.3413382437
 31
0.0
 11
-9.3886770024
 21
19.3769815226
 31
0.0
 11
-9.3482045887
 21
19.4188658993
 31
0.0
  0
SPLINE
  5
7B1
100
AcDbEntity
  8
RACCORDO
100
AcDbSpline
 62
7
  6
CONTINUOUS
 70
0
 71
3
 72
11
 73
7
 74
5
 42
0.0000001
 43
0.0000001
 44
0.0000000001
 12
0.4494325051
 22
0.003465227
 32
0.0
 13
0.379851084
 23
0.2402389194
 33
0.0
 40
0.0
 40
0.0
 40
0.0
 40
0.0
 40
0.2018569004
 40
0.4484401929
 40
0.720128246
 40
1.0
 40
1.0
 40
1.0
 40
1.0
 10
-69.4455904738
 20
-22.3347385062
 30
0.0
 10
-69.4153501229
 20
-22.3345053463
 30
0.0
 10
-69.3498200999
 20
-22.3120284149
 30
0.0
 10
-69.2544537281
 20
-22.2629698041
 30
0.0
 10
-69.1516893633
 20
-22.201290541
 30
0.0
 10
-69.0819023132
 20
-22.1571539201
 30
0.0
 10
-69.0464657835
 20
-22.1347418909
 30
0.0
 11
-69.4455904738
 21
-22.3347385062
 31
0.0
 11
-69.3576006408
 21
-22.3126344811
 31
0.0
 11
-69.2582095395
 21
-22.2636061629
 31
0.0
 11
-69.1530411659
 21
-22.2015558722
 31
0.0
 11
-69.0464657835
 21
-22.1347418909
 31
0.0
  0
SPLINE
  5
7B2
100
AcDbEntity
  8
RACCORDO
100
AcDbSpline
 62
253
  6
CONTINUOUS
 70
0
 71
3
 72
11
 73
7
 74
5
 42
0.0000001
 43
0.0000001
 44
0.0000000001
 12
0.7660179941
 22
-0.0033427206
 32
0.0
 13
0.0035816239
 23
-0.7660169143
 33
0.0
 40
0.0
 40
0.0
 40
0.0
 40
0.0
 40
0.2538056234
 40
0.5056105139
 40
0.7541349687
 40
1.0
 40
1.0
 40
1.0
 40
1.0
 10
-9.835623261
 20
21.0889035971
 30
0.0
 10
-9.7708167028
 20
21.0886207967
 30
0.0
 10
-9.640499011
 20
21.063302503
 30
0.0
 10
-9.4748167317
 20
20.9563663378
 30
0.0
 10
-9.3628324628
 20
20.796250649
 30
0.0
 10
-9.3359929454
 20
20.6687196082
 30
0.0
 10
-9.3356994134
 20
20.605940684
 30
0.0
 11
-9.835623261
 21
21.0889035971
 31
0.0
 11
-9.6448304318
 21
21.0515160864
 31
0.0
 11
-9.4829194049
 21
20.9466783434
 31
0.0
 11
-9.3743999178
 21
20.7902604776
 31
0.0
 11
-9.3356994134
 21
20.605940684
 31
0.0
  0
SPLINE
  5
7B3
100
AcDbEntity
  8
RACCORDO
100
AcDbSpline
 62
7
  6
CONTINUOUS
 70
0
 71
3
 72
11
 73
7
 74
5
 42
0.0000001
 43
0.0000001
 44
0.0000000001
 12
-0.4494325051
 22
0.003465227
 32
0.0
 13
-0.379851084
 23
0.2402389194
 33
0.0
 40
0.0
 40
0.0
 40
0.0
 40
0.0
 40
0.2018569004
 40
0.4484401929
 40
0.720128246
 40
1.0
 40
1.0
 40
1.0
 40
1.0
 10
-60.8531758464
 20
-22.3347385062
 30
0.0
 10
-60.8834161972
 20
-22.3345053463
 30
0.0
 10
-60.9489462202
 20
-22.3120284149
 30
0.0
 10
-61.0443125921
 20
-22.2629698041
 30
0.0
 10
-61.1470769569
 20
-22.201290541
 30
0.0
 10
-61.216864007
 20
-22.1571539201
 30
0.0
 10
-61.2523005367
 20
-22.1347418909
 30
0.0
 11
-60.8531758464
 21
-22.3347385062
 31
0.0
 11
-60.9411656793
 21
-22.3126344811
 31
0.0
 11
-61.0405567806
 21
-22.2636061629
 31
0.0
 11
-61.1457251543
 21
-22.2015558722
 31
0.0
 11
-61.2523005367
 21
-22.1347418909
 31
0.0
  0
SPLINE
  5
7B4
100
AcDbEntity
  8
RACCORDO
100
AcDbSpline
 62
7
  6
CONTINUOUS
 70
0
 71
3
 72
11
 73
7
 74
5
 42
0.0000001
 43
0.0000001
 44
0.0000000001
 12
0.003152605
 22
-0.312866417
 32
0.0
 13
0.3128823002
 23
0.0
 33
0.0
 40
0.0
 40
0.0
 40
0.0
 40
0.0
 40
0.173115103
 40
0.3911418421
 40
0.6700996653
 40
1.0
 40
1.0
 40
1.0
 40
1.0
 10
-30.7921024112
 20
24.7275877587
 30
0.0
 10
-30.79192049
 20
24.7095337914
 30
0.0
 10
-30.77676888
 20
24.6687043587
 30
0.0
 10
-30.7215588598
 20
24.6227833341
 30
0.0
 10
-30.6403478535
 20
24.5910243533
 30
0.0
 10
-30.5765133005
 20
24.5832501914
 30
0.0
 10
-30.542106642
 20
24.5832501914
 30
0.0
 11
-30.7921024112
 21
24.7275877587
 31
0.0
 11
-30.7751639051
 21
24.6761397607
 31
0.0
 11
-30.7250656314
 21
24.6298398453
 31
0.0
 11
-30.6445037244
 21
24.5962579146
 31
0.0
 11
-30.542106642
 21
24.5832501914
 31
0.0
  0
SPLINE
  5
7B5
100
AcDbEntity
  8
RACCORDO
100
AcDbSpline
 62
253
  6
CONTINUOUS
 70
0
 71
3
 72
11
 73
7
 74
5
 42
0.0000001
 43
0.0000001
 44
0.0000000001
 12
0.0012232543
 22
-0.3641925536
 32
0.0
 13
0.3641934522
 23
-0.000917474
 33
0.0
 40
0.0
 40
0.0
 40
0.0
 40
0.0
 40
0.2320250085
 40
0.47587978
 40
0.7334116474
 40
1.0
 40
1.0
 40
1.0
 40
1.0
 10
-30.7862845814
 20
25.3049380279
 30
0.0
 10
-30.7861899728
 20
25.2767707678
 30
0.0
 10
-30.7723579193
 20
25.2183309031
 30
0.0
 10
-30.7155657028
 20
25.1466024456
 30
0.0
 10
-30.6328066988
 20
25.0994637144
 30
0.0
 10
-30.5686520563
 20
25.0885132062
 30
0.0
 10
-30.5362888122
 20
25.0884316769
 30
0.0
 11
-30.7862845814
 21
25.3049380279
 31
0.0
 11
-30.7672298066
 21
25.2226121693
 31
0.0
 11
-30.7130279775
 21
25.1522596062
 31
0.0
 11
-30.6319298608
 21
25.105142924
 31
0.0
 11
-30.5362888122
 21
25.0884316769
 31
0.0
  0
SPLINE
  5
7B6
100
AcDbEntity
  8
RACCORDO
100
AcDbSpline
 62
7
  6
CONTINUOUS
 70
0
 71
3
 72
11
 73
7
 74
5
 42
0.0000001
 43
0.0000001
 44
0.0000000001
 12
-0.4494325051
 22
-0.003465227
 32
0.0
 13
-0.379851084
 23
-0.2402389194
 33
0.0
 40
0.0
 40
0.0
 40
0.0
 40
0.0
 40
0.2018569004
 40
0.4484401929
 40
0.720128246
 40
1.0
 40
1.0
 40
1.0
 40
1.0
 10
-60.8531758464
 20
25.2559394274
 30
0.0
 10
-60.8834161972
 20
25.2557062674
 30
0.0
 10
-60.9489462202
 20
25.2332293361
 30
0.0
 10
-61.0443125921
 20
25.1841707252
 30
0.0
 10
-61.1470769569
 20
25.1224914622
 30
0.0
 10
-61.216864007
 20
25.0783548413
 30
0.0
 10
-61.2523005367
 20
25.0559428121
 30
0.0
 11
-60.8531758464
 21
25.2559394274
 31
0.0
 11
-60.9411656793
 21
25.2338354023
 31
0.0
 11
-61.0405567806
 21
25.184807084
 31
0.0
 11
-61.1457251543
 21
25.1227567934
 31
0.0
 11
-61.2523005367
 21
25.0559428121
 31
0.0
  0
SPLINE
  5
7B7
100
AcDbEntity
  8
RACCORDO
100
AcDbSpline
 62
7
  6
CONTINUOUS
 70
0
 71
3
 72
11
 73
7
 74
5
 42
0.0000001
 43
0.0000001
 44
0.0000000001
 12
0.4494325051
 22
-0.003465227
 32
0.0
 13
0.379851084
 23
-0.2402389194
 33
0.0
 40
0.0
 40
0.0
 40
0.0
 40
0.0
 40
0.2018569004
 40
0.4484401929
 40
0.720128246
 40
1.0
 40
1.0
 40
1.0
 40
1.0
 10
-69.4455904738
 20
25.2559394274
 30
0.0
 10
-69.4153501229
 20
25.2557062674
 30
0.0
 10
-69.3498200999
 20
25.2332293361
 30
0.0
 10
-69.2544537281
 20
25.1841707252
 30
0.0
 10
-69.1516893633
 20
25.1224914622
 30
0.0
 10
-69.0819023132
 20
25.0783548413
 30
0.0
 10
-69.0464657835
 20
25.0559428121
 30
0.0
 11
-69.4455904738
 21
25.2559394274
 31
0.0
 11
-69.3576006408
 21
25.2338354023
 31
0.0
 11
-69.2582095395
 21
25.184807084
 31
0.0
 11
-69.1530411659
 21
25.1227567934
 31
0.0
 11
-69.0464657835
 21
25.0559428121
 31
0.0
  0
SPLINE
  5
7B8
100
AcDbEntity
  8
RACCORDO
100
AcDbSpline
 62
253
  6
CONTINUOUS
 70
0
 71
3
 72
11
 73
7
 74
5
 42
0.0000001
 43
0.0000001
 44
0.0000000001
 12
-0.0012232543
 22
-0.3641925536
 32
0.0
 13
-0.3641934522
 23
-0.000917474
 33
0.0
 40
0.0
 40
0.0
 40
0.0
 40
0.0
 40
0.2320250085
 40
0.47587978
 40
0.7334116474
 40
1.0
 40
1.0
 40
1.0
 40
1.0
 10
-28.4124817388
 20
25.3049380279
 30
0.0
 10
-28.4125763473
 20
25.2767707678
 30
0.0
 10
-28.4264084008
 20
25.2183309031
 30
0.0
 10
-28.4832006174
 20
25.1466024456
 30
0.0
 10
-28.5659596214
 20
25.0994637144
 30
0.0
 10
-28.6301142639
 20
25.0885132062
 30
0.0
 10
-28.662477508
 20
25.0884316769
 30
0.0
 11
-28.4124817388
 21
25.3049380279
 31
0.0
 11
-28.4315365136
 21
25.2226121693
 31
0.0
 11
-28.4857383427
 21
25.1522596062
 31
0.0
 11
-28.5668364593
 21
25.105142924
 31
0.0
 11
-28.662477508
 21
25.0884316769
 31
0.0
  0
SPLINE
  5
7B9
100
AcDbEntity
  8
RACCORDO
100
AcDbSpline
 62
7
  6
CONTINUOUS
 70
0
 71
3
 72
11
 73
7
 74
5
 42
0.0000001
 43
0.0000001
 44
0.0000000001
 12
0.4494325051
 22
0.003465227
 32
0.0
 13
0.379851084
 23
0.2402389194
 33
0.0
 40
0.0
 40
0.0
 40
0.0
 40
0.0
 40
0.2018569004
 40
0.4484401929
 40
0.720128246
 40
1.0
 40
1.0
 40
1.0
 40
1.0
 10
-24.4455904738
 20
-22.3347385062
 30
0.0
 10
-24.4153501229
 20
-22.3345053463
 30
0.0
 10
-24.3498200999
 20
-22.3120284149
 30
0.0
 10
-24.2544537281
 20
-22.2629698041
 30
0.0
 10
-24.1516893633
 20
-22.201290541
 30
0.0
 10
-24.0819023132
 20
-22.1571539201
 30
0.0
 10
-24.0464657835
 20
-22.1347418909
 30
0.0
 11
-24.4455904738
 21
-22.3347385062
 31
0.0
 11
-24.3576006408
 21
-22.3126344811
 31
0.0
 11
-24.2582095395
 21
-22.2636061629
 31
0.0
 11
-24.1530411659
 21
-22.2015558722
 31
0.0
 11
-24.0464657835
 21
-22.1347418909
 31
0.0
  0
SPLINE
  5
7BA
100
AcDbEntity
  8
RACCORDO
100
AcDbSpline
 62
7
  6
CONTINUOUS
 70
0
 71
3
 72
11
 73
7
 74
5
 42
0.0000001
 43
0.0000001
 44
0.0000000001
 12
-0.4494325051
 22
0.003465227
 32
0.0
 13
-0.379851084
 23
0.2402389194
 33
0.0
 40
0.0
 40
0.0
 40
0.0
 40
0.0
 40
0.2018569004
 40
0.4484401929
 40
0.720128246
 40
1.0
 40
1.0
 40
1.0
 40
1.0
 10
-15.8531758464
 20
-22.3347385062
 30
0.0
 10
-15.8834161972
 20
-22.3345053463
 30
0.0
 10
-15.9489462202
 20
-22.3120284149
 30
0.0
 10
-16.0443125921
 20
-22.2629698041
 30
0.0
 10
-16.1470769569
 20
-22.201290541
 30
0.0
 10
-16.216864007
 20
-22.1571539201
 30
0.0
 10
-16.2523005367
 20
-22.1347418909
 30
0.0
 11
-15.8531758464
 21
-22.3347385062
 31
0.0
 11
-15.9411656793
 21
-22.3126344811
 31
0.0
 11
-16.0405567806
 21
-22.2636061629
 31
0.0
 11
-16.1457251543
 21
-22.2015558722
 31
0.0
 11
-16.2523005367
 21
-22.1347418909
 31
0.0
  0
SPLINE
  5
7BB
100
AcDbEntity
  8
RACCORDO
100
AcDbSpline
 62
7
  6
CONTINUOUS
 70
0
 71
3
 72
11
 73
7
 74
5
 42
0.0000001
 43
0.0000001
 44
0.0000000001
 12
-0.0031598815
 22
-0.3135885417
 32
0.0
 13
-0.3136044616
 23
-0.0
 33
0.0
 40
0.0
 40
0.0
 40
0.0
 40
0.0
 40
0.1724572498
 40
0.3902427658
 40
0.66898486
 40
1.0
 40
1.0
 40
1.0
 40
1.0
 10
-28.406663909
 20
24.7275877587
 30
0.0
 10
-28.4068455571
 20
24.7095608862
 30
0.0
 10
-28.4219732539
 20
24.6687288254
 30
0.0
 10
-28.4772182776
 20
24.6227671579
 30
0.0
 10
-28.5586901219
 20
24.5909044375
 30
0.0
 10
-28.6227842987
 20
24.5832501914
 30
0.0
 10
-28.6573869069
 20
24.5832501914
 30
0.0
 11
-28.406663909
 21
24.7275877587
 31
0.0
 11
-28.4235554174
 21
24.6762098734
 31
0.0
 11
-28.4737004272
 21
24.6298400083
 31
0.0
 11
-28.5543929638
 21
24.5962237092
 31
0.0
 11
-28.6573869069
 21
24.5832501914
 31
0.0
  0
SPLINE
  5
7BC
100
AcDbEntity
  8
RACCORDO
100
AcDbSpline
 62
253
  6
CONTINUOUS
 70
0
 71
3
 72
11
 73
7
 74
5
 42
0.0000001
 43
0.0000001
 44
0.0000000001
 12
-0.5428494998
 22
0.0027013377
 32
0.0
 13
-0.0302658544
 23
0.5420118584
 33
0.0
 40
0.0
 40
0.0
 40
0.0
 40
0.0
 40
0.3496233926
 40
0.6525184792
 40
0.8718899384
 40
1.0
 40
1.0
 40
1.0
 40
1.0
 10
-75.63291469
 20
-19.4882878145
 30
0.0
 10
-75.6961789846
 20
-19.4879729975
 30
0.0
 10
-75.8141286966
 20
-19.4814745322
 30
0.0
 10
-75.9705688428
 20
-19.4504658632
 30
0.0
 10
-76.0796609834
 20
-19.4131775246
 30
0.0
 10
-76.1315460839
 20
-19.362068312
 30
0.0
 10
-76.1328385374
 20
-19.3389225878
 30
0.0
 11
-75.63291469
 21
-19.4882878145
 31
0.0
 11
-75.8223253956
 21
-19.4762124121
 31
0.0
 11
-75.9835017055
 21
-19.4436713177
 31
0.0
 11
-76.0924179377
 21
-19.3955152549
 31
0.0
 11
-76.1328385374
 21
-19.3389225878
 31
0.0
  0
SPLINE
  5
7BD
100
AcDbEntity
  8
RACCORDO
100
AcDbSpline
 62
253
  6
CONTINUOUS
 70
0
 71
3
 72
11
 73
7
 74
5
 42
0.0000001
 43
0.0000001
 44
0.0000000001
 12
-0.52538018
 22
0.0019778341
 32
0.0
 13
-0.0403098202
 23
0.5238352449
 33
0.0
 40
0.0
 40
0.0
 40
0.0
 40
0.0
 40
0.3608490984
 40
0.6709978392
 40
0.8891448628
 40
1.0
 40
1.0
 40
1.0
 40
1.0
 10
-75.4506378842
 20
19.3082914216
 30
0.0
 10
-75.5138322056
 20
19.3085293215
 30
0.0
 10
-75.6306042027
 20
19.3131552982
 30
0.0
 10
-75.788012481
 20
19.3364092124
 30
0.0
 10
-75.890166195
 20
19.361969502
 30
0.0
 10
-75.9490722149
 20
19.39950929
 30
0.0
 10
-75.9505617318
 20
19.4188658993
 30
0.0
 11
-75.4506378842
 21
19.3082914216
 31
0.0
 11
-75.6400107801
 21
19.3172421758
 31
0.0
 11
-75.8011669584
 21
19.3413349509
 31
0.0
 11
-75.910094016
 21
19.3769799011
 31
0.0
 11
-75.9505617318
 21
19.4188658993
 31
0.0
  0
SPLINE
  5
7BE
100
AcDbEntity
  8
RACCORDO
100
AcDbSpline
 62
253
  6
CONTINUOUS
 70
0
 71
3
 72
11
 73
7
 74
5
 42
0.0000001
 43
0.0000001
 44
0.0000000001
 12
-0.7660179991
 22
-0.0033427189
 32
0.0
 13
-0.0035816241
 23
-0.7660169194
 33
0.0
 40
0.0
 40
0.0
 40
0.0
 40
0.0
 40
0.253809954
 40
0.5056169214
 40
0.7541401039
 40
1.0
 40
1.0
 40
1.0
 40
1.0
 10
-75.4631430592
 20
21.0889035971
 30
0.0
 10
-75.5279507236
 20
21.088620792
 30
0.0
 10
-75.6582701167
 20
21.0633017333
 30
0.0
 10
-75.8239527077
 20
20.9563634156
 30
0.0
 10
-75.9359348005
 20
20.7962476239
 30
0.0
 10
-75.9627733809
 20
20.6687182974
 30
0.0
 10
-75.9630669068
 20
20.605940684
 30
0.0
 11
-75.4631430592
 21
21.0889035971
 31
0.0
 11
-75.6539390225
 21
21.0515148227
 31
0.0
 11
-75.8158505135
 21
20.9466748669
 31
0.0
 11
-75.9243679939
 21
20.7902567936
 31
0.0
 11
-75.9630669068
 21
20.605940684
 31
0.0
  0
SPLINE
  5
7BF
100
AcDbEntity
  8
RACCORDO
100
AcDbSpline
 62
253
  6
CONTINUOUS
 70
0
 71
3
 72
11
 73
7
 74
5
 42
0.0000001
 43
0.0000001
 44
0.0000000001
 12
-0.7660179938
 22
-0.0033427235
 32
0.0
 13
-0.0035816239
 23
-0.7660169141
 33
0.0
 40
0.0
 40
0.0
 40
0.0
 40
0.0
 40
0.2538056232
 40
0.5056105136
 40
0.7541349685
 40
1.0
 40
1.0
 40
1.0
 40
1.0
 10
-75.5918392462
 20
23.0644928897
 30
0.0
 10
-75.6566458043
 20
23.064210089
 30
0.0
 10
-75.7869634958
 20
23.038891795
 30
0.0
 10
-75.9526457753
 20
22.9319556304
 30
0.0
 10
-76.0646300443
 20
22.7718399416
 30
0.0
 10
-76.0914695617
 20
22.6443089008
 30
0.0
 10
-76.0917630938
 20
22.5815299765
 30
0.0
 11
-75.5918392462
 21
23.0644928897
 31
0.0
 11
-75.7826320751
 21
23.0271053787
 31
0.0
 11
-75.9445431021
 21
22.922267636
 31
0.0
 11
-76.0530625893
 21
22.7658497702
 31
0.0
 11
-76.0917630938
 21
22.5815299765
 31
0.0
  0
SPLINE
  5
7C0
100
AcDbEntity
  8
RACCORDO
100
AcDbSpline
 62
7
  6
CONTINUOUS
 70
0
 71
3
 72
11
 73
7
 74
5
 42
0.0000001
 43
0.0000001
 44
0.0000000001
 12
-0.4494325051
 22
-0.003465227
 32
0.0
 13
-0.379851084
 23
-0.2402389194
 33
0.0
 40
0.0
 40
0.0
 40
0.0
 40
0.0
 40
0.2018569004
 40
0.4484401929
 40
0.720128246
 40
1.0
 40
1.0
 40
1.0
 40
1.0
 10
-15.8531758464
 20
25.2559394274
 30
0.0
 10
-15.8834161972
 20
25.2557062674
 30
0.0
 10
-15.9489462202
 20
25.2332293361
 30
0.0
 10
-16.0443125921
 20
25.1841707252
 30
0.0
 10
-16.1470769569
 20
25.1224914622
 30
0.0
 10
-16.216864007
 20
25.0783548413
 30
0.0
 10
-16.2523005367
 20
25.0559428121
 30
0.0
 11
-15.8531758464
 21
25.2559394274
 31
0.0
 11
-15.9411656793
 21
25.2338354023
 31
0.0
 11
-16.0405567806
 21
25.184807084
 31
0.0
 11
-16.1457251543
 21
25.1227567934
 31
0.0
 11
-16.2523005367
 21
25.0559428121
 31
0.0
  0
SPLINE
  5
7C1
100
AcDbEntity
  8
RACCORDO
100
AcDbSpline
 62
7
  6
CONTINUOUS
 70
0
 71
3
 72
11
 73
7
 74
5
 42
0.0000001
 43
0.0000001
 44
0.0000000001
 12
0.4494325051
 22
-0.003465227
 32
0.0
 13
0.379851084
 23
-0.2402389194
 33
0.0
 40
0.0
 40
0.0
 40
0.0
 40
0.0
 40
0.2018569004
 40
0.4484401929
 40
0.720128246
 40
1.0
 40
1.0
 40
1.0
 40
1.0
 10
-24.4455904738
 20
25.2559394274
 30
0.0
 10
-24.4153501229
 20
25.2557062674
 30
0.0
 10
-24.3498200999
 20
25.2332293361
 30
0.0
 10
-24.2544537281
 20
25.1841707252
 30
0.0
 10
-24.1516893633
 20
25.1224914622
 30
0.0
 10
-24.0819023132
 20
25.0783548413
 30
0.0
 10
-24.0464657835
 20
25.0559428121
 30
0.0
 11
-24.4455904738
 21
25.2559394274
 31
0.0
 11
-24.3576006408
 21
25.2338354023
 31
0.0
 11
-24.2582095395
 21
25.184807084
 31
0.0
 11
-24.1530411659
 21
25.1227567934
 31
0.0
 11
-24.0464657835
 21
25.0559428121
 31
0.0
  0
SPLINE
  5
7C2
100
AcDbEntity
  8
RACCORDO
100
AcDbSpline
 62
253
  6
CONTINUOUS
 70
0
 71
3
 72
11
 73
7
 74
5
 42
0.0000001
 43
0.0000001
 44
0.0000000001
 12
-0.0012232491
 22
0.3641909974
 32
0.0
 13
-0.3641918961
 23
0.0009174701
 33
0.0
 40
0.0
 40
0.0
 40
0.0
 40
0.0
 40
0.2331625878
 40
0.4766705428
 40
0.7338113025
 40
1.0
 40
1.0
 40
1.0
 40
1.0
 10
-9.5124817388
 20
-22.3837371067
 30
0.0
 10
-9.5125768108
 20
-22.3554318682
 30
0.0
 10
-9.5265064026
 20
-22.2968886248
 30
0.0
 10
-9.5834389328
 20
-22.2252275288
 30
0.0
 10
-9.6661069664
 20
-22.1782292412
 30
0.0
 10
-9.7301629192
 20
-22.1673121625
 30
0.0
 10
-9.762477508
 20
-22.1672307558
 30
0.0
 11
-9.5124817388
 21
-22.3837371067
 31
0.0
 11
-9.5317198238
 21
-22.3010288474
 31
0.0
 11
-9.5859603503
 21
-22.2308661768
 31
0.0
 11
-9.6669758527
 21
-22.1838917081
 31
0.0
 11
-9.762477508
 21
-22.1672307558
 31
0.0
  0
SPLINE
  5
7C3
100
AcDbEntity
  8
RACCORDO
100
AcDbSpline
 62
7
  6
CONTINUOUS
 70
0
 71
3
 72
11
 73
7
 74
5
 42
0.0000001
 43
0.0000001
 44
0.0000000001
 12
-0.0031598815
 22
0.3135885417
 32
0.0
 13
-0.3136044616
 23
0.0
 33
0.0
 40
0.0
 40
0.0
 40
0.0
 40
0.0
 40
0.1724572498
 40
0.3902427658
 40
0.66898486
 40
1.0
 40
1.0
 40
1.0
 40
1.0
 10
-9.506663909
 20
-21.8063868375
 30
0.0
 10
-9.5068455571
 20
-21.788359965
 30
0.0
 10
-9.5219732539
 20
-21.7475279043
 30
0.0
 10
-9.5772182776
 20
-21.7015662368
 30
0.0
 10
-9.6586901219
 20
-21.6697035163
 30
0.0
 10
-9.7227842987
 20
-21.6620492702
 30
0.0
 10
-9.7573869069
 20
-21.6620492702
 30
0.0
 11
-9.506663909
 21
-21.8063868375
 31
0.0
 11
-9.5235554174
 21
-21.7550089523
 31
0.0
 11
-9.5737004272
 21
-21.7086390872
 31
0.0
 11
-9.6543929638
 21
-21.6750227881
 31
0.0
 11
-9.7573869069
 21
-21.6620492702
 31
0.0
  0
SPLINE
  5
7C4
100
AcDbEntity
  8
RACCORDO
100
AcDbSpline
 62
7
  6
CONTINUOUS
 70
0
 71
3
 72
10
 73
6
 74
4
 42
0.0000001
 43
0.0000001
 44
0.0000000001
 12
-0.0037555946
 22
0.0343077379
 32
0.0
 13
-0.0343729863
 23
0.0031021255
 33
0.0
 40
0.0
 40
0.0
 40
0.0
 40
0.0
 40
0.1304413719
 40
0.4640963937
 40
1.0
 40
1.0
 40
1.0
 40
1.0
 10
-9.506663909
 20
-20.8728105008
 30
0.0
 10
-9.506827204
 20
-20.8713187847
 30
0.0
 10
-9.5140401244
 20
-20.8702587801
 30
0.0
 10
-9.5236615102
 20
-20.8686169281
 30
0.0
 10
-9.5343276177
 20
-20.8678645248
 30
0.0
 10
-9.5404678201
 20
-20.867310378
 30
0.0
 11
-9.506663909
 21
-20.8728105008
 31
0.0
 11
-9.5106647471
 21
-20.8707464672
 31
0.0
 11
-9.5220541915
 21
-20.8690484126
 31
0.0
 11
-9.5404678201
 21
-20.867310378
 31
0.0
  0
SPLINE
  5
7C5
100
AcDbEntity
  8
RACCORDO
100
AcDbSpline
 62
7
  6
CONTINUOUS
 70
0
 71
3
 72
11
 73
7
 74
5
 42
0.0000001
 43
0.0000001
 44
0.0000000001
 12
0.0031598815
 22
0.3135885417
 32
0.0
 13
0.3136044616
 23
0.0
 33
0.0
 40
0.0
 40
0.0
 40
0.0
 40
0.0
 40
0.1724572498
 40
0.3902427658
 40
0.66898486
 40
1.0
 40
1.0
 40
1.0
 40
1.0
 10
-11.8921024112
 20
-21.8063868375
 30
0.0
 10
-11.891920763
 20
-21.788359965
 30
0.0
 10
-11.8767930662
 20
-21.7475279043
 30
0.0
 10
-11.8215480425
 20
-21.7015662368
 30
0.0
 10
-11.7400761983
 20
-21.6697035163
 30
0.0
 10
-11.6759820215
 20
-21.6620492702
 30
0.0
 10
-11.6413794132
 20
-21.6620492702
 30
0.0
 11
-11.8921024112
 21
-21.8063868375
 31
0.0
 11
-11.8752109027
 21
-21.7550089523
 31
0.0
 11
-11.8250658929
 21
-21.7086390872
 31
0.0
 11
-11.7443733563
 21
-21.6750227881
 31
0.0
 11
-11.6413794132
 21
-21.6620492702
 31
0.0
  0
SPLINE
  5
7C6
100
AcDbEntity
  8
RACCORDO
100
AcDbSpline
 62
253
  6
CONTINUOUS
 70
0
 71
3
 72
11
 73
7
 74
5
 42
0.0000001
 43
0.0000001
 44
0.0000000001
 12
0.0012232491
 22
0.3641909974
 32
0.0
 13
0.3641918961
 23
0.0009174701
 33
0.0
 40
0.0
 40
0.0
 40
0.0
 40
0.0
 40
0.2331625878
 40
0.4766705428
 40
0.7338113025
 40
1.0
 40
1.0
 40
1.0
 40
1.0
 10
-11.8862845814
 20
-22.3837371067
 30
0.0
 10
-11.8861895094
 20
-22.3554318682
 30
0.0
 10
-11.8722599176
 20
-22.2968886248
 30
0.0
 10
-11.8153273873
 20
-22.2252275288
 30
0.0
 10
-11.7326593537
 20
-22.1782292412
 30
0.0
 10
-11.668603401
 20
-22.1673121625
 30
0.0
 10
-11.6362888122
 20
-22.1672307558
 30
0.0
 11
-11.8862845814
 21
-22.3837371067
 31
0.0
 11
-11.8670464963
 21
-22.3010288474
 31
0.0
 11
-11.8128059699
 21
-22.2308661768
 31
0.0
 11
-11.7317904675
 21
-22.1838917081
 31
0.0
 11
-11.6362888122
 21
-22.1672307558
 31
0.0
  0
SPLINE
  5
7C7
100
AcDbEntity
  8
RACCORDO
100
AcDbSpline
 62
253
  6
CONTINUOUS
 70
0
 71
3
 72
14
 73
10
 74
8
 42
0.0000001
 43
0.0000001
 44
0.0000000001
 12
0.0988873017
 22
-0.2969051117
 32
0.0
 13
0.0203428157
 23
-0.3122779429
 33
0.0
 40
0.0
 40
0.0
 40
0.0
 40
0.0
 40
0.0632196084
 40
0.1528331712
 40
0.2690056923
 40
0.4117802628
 40
0.5811779873
 40
0.7772307723
 40
1.0
 40
1.0
 40
1.0
 40
1.0
 10
-76.1260027631
 20
22.892215207
 30
0.0
 10
-76.123918891
 20
22.8859584653
 30
0.0
 10
-76.1202460961
 20
22.8704017113
 30
0.0
 10
-76.1154828195
 20
22.8427525352
 30
0.0
 10
-76.110696131
 20
22.8066981912
 30
0.0
 10
-76.1058817735
 20
22.7622756133
 30
0.0
 10
-76.1010717658
 20
22.7094769971
 30
0.0
 10
-76.0962708695
 20
22.6483050751
 30
0.0
 10
-76.0932736782
 20
22.6047186153
 30
0.0
 10
-76.0917630938
 20
22.5815299765
 30
0.0
 11
-76.1260027631
 21
22.892215207
 31
0.0
 11
-76.1210457689
 21
22.8730623414
 31
0.0
 11
-76.1161081891
 21
22.8454567833
 31
0.0
 11
-76.1111913971
 21
22.8094357905
 31
0.0
 11
-76.1062969166
 21
22.7650248326
 31
0.0
 11
-76.1014263185
 21
22.7122377616
 31
0.0
 11
-76.0965812001
 21
22.6510766467
 31
0.0
 11
-76.0917630938
 21
22.5815299765
 31
0.0
  0
SPLINE
  5
7C8
100
AcDbEntity
  8
RACCORDO
100
AcDbSpline
 62
253
  6
CONTINUOUS
 70
0
 71
3
 72
11
 73
7
 74
5
 42
0.0000001
 43
0.0000001
 44
0.0000000001
 12
-0.0012232491
 22
0.3641909974
 32
0.0
 13
-0.3641918961
 23
0.0009174701
 33
0.0
 40
0.0
 40
0.0
 40
0.0
 40
0.0
 40
0.2331625878
 40
0.4766705428
 40
0.7338113025
 40
1.0
 40
1.0
 40
1.0
 40
1.0
 10
-28.4124817388
 20
-22.3837371067
 30
0.0
 10
-28.4125768108
 20
-22.3554318682
 30
0.0
 10
-28.4265064026
 20
-22.2968886248
 30
0.0
 10
-28.4834389328
 20
-22.2252275288
 30
0.0
 10
-28.5661069664
 20
-22.1782292412
 30
0.0
 10
-28.6301629192
 20
-22.1673121625
 30
0.0
 10
-28.662477508
 20
-22.1672307558
 30
0.0
 11
-28.4124817388
 21
-22.3837371067
 31
0.0
 11
-28.4317198238
 21
-22.3010288474
 31
0.0
 11
-28.4859603503
 21
-22.2308661768
 31
0.0
 11
-28.5669758527
 21
-22.1838917081
 31
0.0
 11
-28.662477508
 21
-22.1672307558
 31
0.0
  0
SPLINE
  5
7C9
100
AcDbEntity
  8
RACCORDO
100
AcDbSpline
 62
7
  6
CONTINUOUS
 70
0
 71
3
 72
11
 73
7
 74
5
 42
0.0000001
 43
0.0000001
 44
0.0000000001
 12
-0.0031598815
 22
0.3135885417
 32
0.0
 13
-0.3136044616
 23
0.0
 33
0.0
 40
0.0
 40
0.0
 40
0.0
 40
0.0
 40
0.1724572498
 40
0.3902427658
 40
0.66898486
 40
1.0
 40
1.0
 40
1.0
 40
1.0
 10
-28.406663909
 20
-21.8063868375
 30
0.0
 10
-28.4068455571
 20
-21.788359965
 30
0.0
 10
-28.4219732539
 20
-21.7475279043
 30
0.0
 10
-28.4772182776
 20
-21.7015662368
 30
0.0
 10
-28.5586901219
 20
-21.6697035163
 30
0.0
 10
-28.6227842987
 20
-21.6620492702
 30
0.0
 10
-28.6573869069
 20
-21.6620492702
 30
0.0
 11
-28.406663909
 21
-21.8063868375
 31
0.0
 11
-28.4235554174
 21
-21.7550089523
 31
0.0
 11
-28.4737004272
 21
-21.7086390872
 31
0.0
 11
-28.5543929638
 21
-21.6750227881
 31
0.0
 11
-28.6573869069
 21
-21.6620492702
 31
0.0
  0
SPLINE
  5
7CA
100
AcDbEntity
  8
RACCORDO
100
AcDbSpline
 62
7
  6
CONTINUOUS
 70
0
 71
3
 72
11
 73
7
 74
5
 42
0.0000001
 43
0.0000001
 44
0.0000000001
 12
0.0031598815
 22
-0.3135885417
 32
0.0
 13
0.3136044616
 23
0.0
 33
0.0
 40
0.0
 40
0.0
 40
0.0
 40
0.0
 40
0.1724572498
 40
0.3902427658
 40
0.66898486
 40
1.0
 40
1.0
 40
1.0
 40
1.0
 10
-11.8921024112
 20
24.7275877587
 30
0.0
 10
-11.891920763
 20
24.7095608862
 30
0.0
 10
-11.8767930662
 20
24.6687288254
 30
0.0
 10
-11.8215480425
 20
24.6227671579
 30
0.0
 10
-11.7400761983
 20
24.5909044375
 30
0.0
 10
-11.6759820215
 20
24.5832501914
 30
0.0
 10
-11.6413794132
 20
24.5832501914
 30
0.0
 11
-11.8921024112
 21
24.7275877587
 31
0.0
 11
-11.8752109027
 21
24.6762098734
 31
0.0
 11
-11.8250658929
 21
24.6298400083
 31
0.0
 11
-11.7443733563
 21
24.5962237092
 31
0.0
 11
-11.6413794132
 21
24.5832501914
 31
0.0
  0
SPLINE
  5
7CB
100
AcDbEntity
  8
RACCORDO
100
AcDbSpline
 62
253
  6
CONTINUOUS
 70
0
 71
3
 72
11
 73
7
 74
5
 42
0.0000001
 43
0.0000001
 44
0.0000000001
 12
0.0012232543
 22
-0.3641925536
 32
0.0
 13
0.3641934522
 23
-0.000917474
 33
0.0
 40
0.0
 40
0.0
 40
0.0
 40
0.0
 40
0.2320250085
 40
0.47587978
 40
0.7334116474
 40
1.0
 40
1.0
 40
1.0
 40
1.0
 10
-11.8862845814
 20
25.3049380279
 30
0.0
 10
-11.8861899728
 20
25.2767707678
 30
0.0
 10
-11.8723579193
 20
25.2183309031
 30
0.0
 10
-11.8155657028
 20
25.1466024456
 30
0.0
 10
-11.7328066988
 20
25.0994637144
 30
0.0
 10
-11.6686520563
 20
25.0885132062
 30
0.0
 10
-11.6362888122
 20
25.0884316769
 30
0.0
 11
-11.8862845814
 21
25.3049380279
 31
0.0
 11
-11.8672298066
 21
25.2226121693
 31
0.0
 11
-11.8130279775
 21
25.1522596062
 31
0.0
 11
-11.7319298608
 21
25.105142924
 31
0.0
 11
-11.6362888122
 21
25.0884316769
 31
0.0
  0
SPLINE
  5
7CC
100
AcDbEntity
  8
RACCORDO
100
AcDbSpline
 62
253
  6
CONTINUOUS
 70
0
 71
3
 72
11
 73
7
 74
5
 42
0.0000001
 43
0.0000001
 44
0.0000000001
 12
-0.0012232543
 22
-0.3641925536
 32
0.0
 13
-0.3641934522
 23
-0.000917474
 33
0.0
 40
0.0
 40
0.0
 40
0.0
 40
0.0
 40
0.2320250085
 40
0.47587978
 40
0.7334116474
 40
1.0
 40
1.0
 40
1.0
 40
1.0
 10
-9.5124817388
 20
25.3049380279
 30
0.0
 10
-9.5125763473
 20
25.2767707678
 30
0.0
 10
-9.5264084008
 20
25.2183309031
 30
0.0
 10
-9.5832006174
 20
25.1466024456
 30
0.0
 10
-9.6659596214
 20
25.0994637144
 30
0.0
 10
-9.7301142639
 20
25.0885132062
 30
0.0
 10
-9.762477508
 20
25.0884316769
 30
0.0
 11
-9.5124817388
 21
25.3049380279
 31
0.0
 11
-9.5315365136
 21
25.2226121693
 31
0.0
 11
-9.5857383427
 21
25.1522596062
 31
0.0
 11
-9.6668364593
 21
25.105142924
 31
0.0
 11
-9.762477508
 21
25.0884316769
 31
0.0
  0
SPLINE
  5
7CD
100
AcDbEntity
  8
RACCORDO
100
AcDbSpline
 62
7
  6
CONTINUOUS
 70
0
 71
3
 72
11
 73
7
 74
5
 42
0.0000001
 43
0.0000001
 44
0.0000000001
 12
-0.003152605
 22
-0.312866417
 32
0.0
 13
-0.3128823002
 23
0.0
 33
0.0
 40
0.0
 40
0.0
 40
0.0
 40
0.0
 40
0.173115103
 40
0.3911418421
 40
0.6700996653
 40
1.0
 40
1.0
 40
1.0
 40
1.0
 10
-9.506663909
 20
24.7275877587
 30
0.0
 10
-9.5068458302
 20
24.7095337914
 30
0.0
 10
-9.5219974402
 20
24.6687043587
 30
0.0
 10
-9.5772074604
 20
24.6227833341
 30
0.0
 10
-9.6584184667
 20
24.5910243533
 30
0.0
 10
-9.7222530197
 20
24.5832501914
 30
0.0
 10
-9.7566596782
 20
24.5832501914
 30
0.0
 11
-9.506663909
 21
24.7275877587
 31
0.0
 11
-9.5236024151
 21
24.6761397607
 31
0.0
 11
-9.5737006888
 21
24.6298398453
 31
0.0
 11
-9.6542625958
 21
24.5962579146
 31
0.0
 11
-9.7566596782
 21
24.5832501914
 31
0.0
  0
SPLINE
  5
7CE
100
AcDbEntity
  8
RACCORDO
100
AcDbSpline
 62
7
  6
CONTINUOUS
 70
0
 71
3
 72
10
 73
6
 74
4
 42
0.0000001
 43
0.0000001
 44
0.0000000001
 12
0.0343729863
 22
0.0031021255
 32
0.0
 13
0.0037555946
 23
0.0343077379
 33
0.0
 40
0.0
 40
0.0
 40
0.0
 40
0.0
 40
0.5359036063
 40
0.8695586281
 40
1.0
 40
1.0
 40
1.0
 40
1.0
 10
-9.5404678201
 20
23.7885112992
 30
0.0
 10
-9.5343276177
 20
23.789065446
 30
0.0
 10
-9.5236615102
 20
23.7898178492
 30
0.0
 10
-9.5140401244
 20
23.7914597012
 30
0.0
 10
-9.506827204
 20
23.7925197059
 30
0.0
 10
-9.506663909
 20
23.794011422
 30
0.0
 11
-9.5404678201
 21
23.7885112992
 31
0.0
 11
-9.5220541915
 21
23.7902493337
 31
0.0
 11
-9.5106647471
 21
23.7919473884
 31
0.0
 11
-9.506663909
 21
23.794011422
 31
0.0
  0
SPLINE
  5
7CF
100
AcDbEntity
  8
RACCORDO
100
AcDbSpline
 62
7
  6
CONTINUOUS
 70
0
 71
3
 72
11
 73
7
 74
5
 42
0.0000001
 43
0.0000001
 44
0.0000000001
 12
0.0031598815
 22
0.3135885417
 32
0.0
 13
0.3136044616
 23
0.0
 33
0.0
 40
0.0
 40
0.0
 40
0.0
 40
0.0
 40
0.1724572498
 40
0.3902427658
 40
0.66898486
 40
1.0
 40
1.0
 40
1.0
 40
1.0
 10
-30.7921024112
 20
-21.8063868375
 30
0.0
 10
-30.791920763
 20
-21.788359965
 30
0.0
 10
-30.7767930662
 20
-21.7475279043
 30
0.0
 10
-30.7215480425
 20
-21.7015662368
 30
0.0
 10
-30.6400761983
 20
-21.6697035163
 30
0.0
 10
-30.5759820215
 20
-21.6620492702
 30
0.0
 10
-30.5413794132
 20
-21.6620492702
 30
0.0
 11
-30.7921024112
 21
-21.8063868375
 31
0.0
 11
-30.7752109027
 21
-21.7550089523
 31
0.0
 11
-30.7250658929
 21
-21.7086390872
 31
0.0
 11
-30.6443733563
 21
-21.6750227881
 31
0.0
 11
-30.5413794132
 21
-21.6620492702
 31
0.0
  0
SPLINE
  5
7D0
100
AcDbEntity
  8
RACCORDO
100
AcDbSpline
 62
253
  6
CONTINUOUS
 70
0
 71
3
 72
11
 73
7
 74
5
 42
0.0000001
 43
0.0000001
 44
0.0000000001
 12
0.0012232491
 22
0.3641909974
 32
0.0
 13
0.3641918961
 23
0.0009174701
 33
0.0
 40
0.0
 40
0.0
 40
0.0
 40
0.0
 40
0.2331625878
 40
0.4766705428
 40
0.7338113025
 40
1.0
 40
1.0
 40
1.0
 40
1.0
 10
-30.7862845814
 20
-22.3837371067
 30
0.0
 10
-30.7861895094
 20
-22.3554318682
 30
0.0
 10
-30.7722599176
 20
-22.2968886248
 30
0.0
 10
-30.7153273873
 20
-22.2252275288
 30
0.0
 10
-30.6326593537
 20
-22.1782292412
 30
0.0
 10
-30.568603401
 20
-22.1673121625
 30
0.0
 10
-30.5362888122
 20
-22.1672307558
 30
0.0
 11
-30.7862845814
 21
-22.3837371067
 31
0.0
 11
-30.7670464963
 21
-22.3010288474
 31
0.0
 11
-30.7128059699
 21
-22.2308661768
 31
0.0
 11
-30.6317904675
 21
-22.1838917081
 31
0.0
 11
-30.5362888122
 21
-22.1672307558
 31
0.0
  0
SPLINE
  5
7D1
100
AcDbEntity
  8
RACCORDO
100
AcDbSpline
 62
7
  6
CONTINUOUS
 70
0
 71
3
 72
10
 73
6
 74
4
 42
0.0000001
 43
0.0000001
 44
0.0000000001
 12
0.0037555946
 22
-0.0343077379
 32
0.0
 13
0.0343729863
 23
-0.0031021255
 33
0.0
 40
0.0
 40
0.0
 40
0.0
 40
0.0
 40
0.1304413719
 40
0.4640963937
 40
1.0
 40
1.0
 40
1.0
 40
1.0
 10
-75.7921024112
 20
23.794011422
 30
0.0
 10
-75.7919391162
 20
23.7925197059
 30
0.0
 10
-75.7847261957
 20
23.7914597012
 30
0.0
 10
-75.7751048099
 20
23.7898178492
 30
0.0
 10
-75.7644387025
 20
23.789065446
 30
0.0
 10
-75.7582985
 20
23.7885112992
 30
0.0
 11
-75.7921024112
 21
23.794011422
 31
0.0
 11
-75.7881015731
 21
23.7919473884
 31
0.0
 11
-75.7767121286
 21
23.7902493337
 31
0.0
 11
-75.7582985
 21
23.7885112992
 31
0.0
  0
SPLINE
  5
7D2
100
AcDbEntity
  8
RACCORDO
100
AcDbSpline
 62
253
  6
CONTINUOUS
 70
0
 71
3
 72
11
 73
7
 74
5
 42
0.0000001
 43
0.0000001
 44
0.0000000001
 12
-0.1246373044
 22
0.2158854507
 32
0.0
 13
0.215883624
 23
0.1246404684
 33
0.0
 40
0.0
 40
0.0
 40
0.0
 40
0.0
 40
0.3811215339
 40
0.7063727742
 40
0.9236829804
 40
1.0
 40
1.0
 40
1.0
 40
1.0
 10
53.7998346849
 20
-22.3837371067
 30
0.0
 10
53.784000698
 20
-22.3563109087
 30
0.0
 10
53.7572589138
 20
-22.3062090195
 30
0.0
 10
53.7100313988
 20
-22.236943016
 30
0.0
 10
53.7025098461
 20
-22.1975488372
 30
0.0
 10
53.6707972528
 20
-22.1704014855
 30
0.0
 10
53.6762891177
 20
-22.1672307558
 30
0.0
 11
53.7998346849
 21
-22.3837371067
 31
0.0
 11
53.7524146857
 21
-22.3014112481
 31
0.0
 11
53.7121119515
 21
-22.231058685
 31
0.0
 11
53.6853809374
 21
-22.1839420028
 31
0.0
 11
53.6762891177
 21
-22.1672307558
 31
0.0
  0
LINE
  5
7D3
100
AcDbEntity
  8
RACCORDO
100
AcDbLine
 62
7
  6
CONTINUOUS
 10
55.8027435505
 20
-20.8728105008
 11
54.5512891177
 21
-20.9391076132
  0
SPLINE
  5
7D4
100
AcDbEntity
  8
RACCORDO
100
AcDbSpline
 62
7
  6
CONTINUOUS
 70
0
 71
3
 72
10
 73
6
 74
4
 42
0.0000001
 43
0.0000001
 44
0.0000000001
 12
-0.1240408728
 22
-0.0065007067
 32
0.0
 13
-0.1240360505
 23
-0.0065920777
 33
0.0
 40
0.0
 40
0.0
 40
0.0
 40
0.0
 40
0.3156630383
 40
0.652486418
 40
1.0
 40
1.0
 40
1.0
 40
1.0
 10
55.9268322597
 20
-20.867310378
 30
0.0
 10
55.9137805534
 20
-20.867994389
 30
0.0
 10
55.8867867403
 20
-20.8690963073
 30
0.0
 10
55.845414667
 20
-20.870705485
 30
0.0
 10
55.8171116213
 20
-20.8720468886
 30
0.0
 10
55.8027435505
 20
-20.8728105008
 30
0.0
 11
55.9268322597
 21
-20.867310378
 31
0.0
 11
55.8876619469
 21
-20.8690484126
 31
0.0
 11
55.8458592183
 21
-20.8707464672
 31
0.0
 11
55.8027435505
 21
-20.8728105008
 31
0.0
  0
SPLINE
  5
7D5
100
AcDbEntity
  8
RACCORDO
100
AcDbSpline
 62
7
  6
CONTINUOUS
 70
0
 71
3
 72
10
 73
6
 74
4
 42
0.0000001
 43
0.0000001
 44
0.0000000001
 12
0.1240360505
 22
-0.0065920777
 32
0.0
 13
0.1240408728
 23
-0.0065007067
 33
0.0
 40
0.0
 40
0.0
 40
0.0
 40
0.0
 40
0.347513582
 40
0.6843369617
 40
1.0
 40
1.0
 40
1.0
 40
1.0
 10
55.8027435505
 20
23.794011422
 30
0.0
 10
55.8171116213
 20
23.7932478098
 30
0.0
 10
55.845414667
 20
23.7919064062
 30
0.0
 10
55.8867867403
 20
23.7902972285
 30
0.0
 10
55.9137805534
 20
23.7891953102
 30
0.0
 10
55.9268322597
 20
23.7885112992
 30
0.0
 11
55.8027435505
 21
23.794011422
 31
0.0
 11
55.8458592183
 21
23.7919473884
 31
0.0
 11
55.8876619469
 21
23.7902493337
 31
0.0
 11
55.9268322597
 21
23.7885112992
 31
0.0
  0
SPLINE
  5
7D6
100
AcDbEntity
  8
RACCORDO
100
AcDbSpline
 62
253
  6
CONTINUOUS
 70
0
 71
3
 72
11
 73
7
 74
5
 42
0.0000001
 43
0.0000001
 44
0.0000000001
 12
0.4990533074
 22
0.0261542756
 32
0.0
 13
-0.026146331
 23
0.4990537237
 33
0.0
 40
0.0
 40
0.0
 40
0.0
 40
0.0
 40
0.0763647397
 40
0.2930892372
 40
0.617394487
 40
1.0
 40
1.0
 40
1.0
 40
1.0
 10
62.2080680066
 20
-20.5381247614
 30
0.0
 10
62.2207713652
 20
-20.5374590066
 30
0.0
 10
62.1942370159
 20
-20.4602642639
 30
0.0
 10
62.2147530013
 20
-20.3830846777
 30
0.0
 10
62.1963413466
 20
-20.2163899859
 30
0.0
 10
62.1939608085
 20
-20.102456896
 30
0.0
 10
62.1906262317
 20
-20.038809994
 30
0.0
 11
62.2080680066
 21
-20.5381247614
 31
0.0
 11
62.2094067629
 21
-20.4999858746
 31
0.0
 11
62.2065626783
 21
-20.3917177175
 31
0.0
 11
62.1999682375
 21
-20.2297842193
 31
0.0
 11
62.1906262317
 21
-20.038809994
 31
0.0
  0
SPLINE
  5
7D7
100
AcDbEntity
  8
RACCORDO
100
AcDbSpline
 62
7
  6
CONTINUOUS
 70
0
 71
3
 72
11
 73
7
 74
5
 42
0.0000001
 43
0.0000001
 44
0.0000000001
 12
0.2489095768
 22
-0.1437116592
 32
0.0
 13
0.2466686732
 23
-0.1475365186
 33
0.0
 40
0.0
 40
0.0
 40
0.0
 40
0.0
 40
0.3577067992
 40
0.6790094586
 40
0.9112803377
 40
1.0
 40
1.0
 40
1.0
 40
1.0
 10
55.8027435505
 20
24.7275877587
 30
0.0
 10
55.8324224332
 20
24.7104522128
 30
0.0
 10
55.8887540096
 20
24.677914748
 30
0.0
 10
55.9642688207
 20
24.63409942
 30
0.0
 10
56.0175374108
 20
24.6032901851
 30
0.0
 10
56.0439943306
 20
24.5876133214
 30
0.0
 10
56.0512891177
 20
24.5832501914
 30
0.0
 11
55.8027435505
 21
24.7275877587
 31
0.0
 11
55.8917563057
 21
24.6761397607
 31
0.0
 11
55.971659327
 21
24.6298398453
 31
0.0
 11
56.0293567338
 21
24.5962579146
 31
0.0
 11
56.0512891177
 21
24.5832501914
 31
0.0
  0
SPLINE
  5
7D8
100
AcDbEntity
  8
RACCORDO
100
AcDbSpline
 62
253
  6
CONTINUOUS
 70
0
 71
3
 72
11
 73
7
 74
5
 42
0.0000001
 43
0.0000001
 44
0.0000000001
 12
0.1246373044
 22
-0.2158854507
 32
0.0
 13
-0.215883624
 23
-0.1246404684
 33
0.0
 40
0.0
 40
0.0
 40
0.0
 40
0.0
 40
0.3811215339
 40
0.7063727742
 40
0.9236829804
 40
1.0
 40
1.0
 40
1.0
 40
1.0
 10
56.8027435505
 20
25.3049380279
 30
0.0
 10
56.8185775374
 20
25.2775118298
 30
0.0
 10
56.8453193216
 20
25.2274099406
 30
0.0
 10
56.8925468366
 20
25.1581439372
 30
0.0
 10
56.9000683893
 20
25.1187497584
 30
0.0
 10
56.9317809826
 20
25.0916024066
 30
0.0
 10
56.9262891177
 20
25.0884316769
 30
0.0
 11
56.8027435505
 21
25.3049380279
 31
0.0
 11
56.8501635497
 21
25.2226121693
 31
0.0
 11
56.8904662839
 21
25.1522596062
 31
0.0
 11
56.9171972981
 21
25.105142924
 31
0.0
 11
56.9262891177
 21
25.0884316769
 31
0.0
  0
SPLINE
  5
7D9
100
AcDbEntity
  8
RACCORDO
100
AcDbSpline
 62
253
  6
CONTINUOUS
 70
0
 71
3
 72
11
 73
7
 74
5
 42
0.0000001
 43
0.0000001
 44
0.0000000001
 12
-0.1246373044
 22
-0.2158854507
 32
0.0
 13
0.215883624
 23
-0.1246404684
 33
0.0
 40
0.0
 40
0.0
 40
0.0
 40
0.0
 40
0.3811215339
 40
0.7063727742
 40
0.9236829804
 40
1.0
 40
1.0
 40
1.0
 40
1.0
 10
53.7998346849
 20
25.3049380279
 30
0.0
 10
53.784000698
 20
25.2775118298
 30
0.0
 10
53.7572589138
 20
25.2274099406
 30
0.0
 10
53.7100313988
 20
25.1581439372
 30
0.0
 10
53.7025098461
 20
25.1187497584
 30
0.0
 10
53.6707972528
 20
25.0916024066
 30
0.0
 10
53.6762891177
 20
25.0884316769
 30
0.0
 11
53.7998346849
 21
25.3049380279
 31
0.0
 11
53.7524146857
 21
25.2226121693
 31
0.0
 11
53.7121119515
 21
25.1522596062
 31
0.0
 11
53.6853809374
 21
25.105142924
 31
0.0
 11
53.6762891177
 21
25.0884316769
 31
0.0
  0
SPLINE
  5
7DA
100
AcDbEntity
  8
RACCORDO
100
AcDbSpline
 62
253
  6
CONTINUOUS
 70
0
 71
3
 72
11
 73
7
 74
5
 42
0.0000001
 43
0.0000001
 44
0.0000000001
 12
-0.2499982356
 22
-0.0014544472
 32
0.0
 13
0.001454398
 23
-0.2499982359
 33
0.0
 40
0.0
 40
0.0
 40
0.0
 40
0.0
 40
0.0738935379
 40
0.2902249199
 40
0.6157469602
 40
1.0
 40
1.0
 40
1.0
 40
1.0
 10
53.7998346849
 20
25.9562286266
 30
0.0
 10
53.7936769335
 20
25.9561928018
 30
0.0
 10
53.8074301699
 20
25.9173138068
 30
0.0
 10
53.7944959303
 20
25.8795120006
 30
0.0
 10
53.801234925
 20
25.7954401159
 30
0.0
 10
53.7996483993
 20
25.7382537181
 30
0.0
 10
53.7998346849
 20
25.7062328574
 30
0.0
 11
53.7998346849
 21
25.9562286266
 31
0.0
 11
53.7993935414
 21
25.9377603278
 31
0.0
 11
53.7992322889
 21
25.8836771891
 31
0.0
 11
53.7993874883
 21
25.8022960242
 31
0.0
 11
53.7998346849
 21
25.7062328574
 31
0.0
  0
SPLINE
  5
7DB
100
AcDbEntity
  8
RACCORDO
100
AcDbSpline
 62
253
  6
CONTINUOUS
 70
0
 71
3
 72
11
 73
7
 74
5
 42
0.0000001
 43
0.0000001
 44
0.0000000001
 12
0.4990533076
 22
-0.0261542756
 32
0.0
 13
-0.0261463312
 23
-0.4990537239
 33
0.0
 40
0.0
 40
0.0
 40
0.0
 40
0.0
 40
0.0763647473
 40
0.2930892579
 40
0.6173945095
 40
1.0
 40
1.0
 40
1.0
 40
1.0
 10
63.5016871821
 20
23.3915299743
 30
0.0
 10
63.514390542
 20
23.3908642195
 30
0.0
 10
63.4878561977
 20
23.3136694714
 30
0.0
 10
63.5083721752
 20
23.2364898822
 30
0.0
 10
63.4899605233
 20
23.0697951921
 30
0.0
 10
63.4875799838
 20
22.9558621052
 30
0.0
 10
63.4842454072
 20
22.892215207
 30
0.0
 11
63.5016871821
 21
23.3915299743
 31
0.0
 11
63.5030259414
 21
23.3533910839
 31
0.0
 11
63.5001818551
 21
23.2451229202
 31
0.0
 11
63.4935874129
 21
23.0831894211
 31
0.0
 11
63.4842454072
 21
22.892215207
 31
0.0
  0
SPLINE
  5
7DC
100
AcDbEntity
  8
RACCORDO
100
AcDbSpline
 62
253
  6
CONTINUOUS
 70
0
 71
3
 72
11
 73
7
 74
5
 42
0.0000001
 43
0.0000001
 44
0.0000000001
 12
0.2499981575
 22
-0.0014544467
 32
0.0
 13
-0.0014543975
 23
-0.2499981578
 33
0.0
 40
0.0
 40
0.0
 40
0.0
 40
0.0
 40
0.0768065397
 40
0.2956239016
 40
0.6228218045
 40
1.0
 40
1.0
 40
1.0
 40
1.0
 10
56.8027435505
 20
25.9475018819
 30
0.0
 10
56.8091440483
 20
25.9474646449
 30
0.0
 10
56.7950530688
 20
25.9078023685
 30
0.0
 10
56.808084571
 20
25.8694998014
 30
0.0
 10
56.8013874698
 20
25.785727517
 30
0.0
 10
56.8029264062
 20
25.7289373973
 30
0.0
 10
56.8027435505
 20
25.6975061127
 30
0.0
 11
56.8027435505
 21
25.9475018819
 31
0.0
 11
56.8031907471
 21
25.9283052717
 31
0.0
 11
56.8033459466
 21
25.8736006287
 31
0.0
 11
56.803184694
 21
25.7918005305
 31
0.0
 11
56.8027435505
 21
25.6975061127
 31
0.0
  0
SPLINE
  5
7DD
100
AcDbEntity
  8
RACCORDO
100
AcDbSpline
 62
7
  6
CONTINUOUS
 70
0
 71
3
 72
11
 73
7
 74
5
 42
0.0000001
 43
0.0000001
 44
0.0000000001
 12
0.2499981745
 22
-0.0014544468
 32
0.0
 13
-0.0014542391
 23
-0.2499981757
 33
0.0
 40
0.0
 40
0.0
 40
0.0
 40
0.0
 40
0.0761490403
 40
0.2929191934
 40
0.6173303875
 40
1.0
 40
1.0
 40
1.0
 40
1.0
 10
54.5512891177
 20
25.9606004606
 30
0.0
 10
54.5576348247
 20
25.9605635423
 30
0.0
 10
54.5436769406
 20
25.9212629272
 30
0.0
 10
54.5565852721
 20
25.8832903072
 30
0.0
 10
54.5499085305
 20
25.7994798595
 30
0.0
 10
54.5514746154
 20
25.742493593
 30
0.0
 10
54.5512891177
 20
25.7106046914
 30
0.0
 11
54.5512891177
 21
25.9606004606
 31
0.0
 11
54.5517349159
 21
25.9415682377
 31
0.0
 11
54.5518914472
 21
25.8873754041
 31
0.0
 11
54.5517349159
 21
25.8062719763
 31
0.0
 11
54.5512891177
 21
25.7106046914
 31
0.0
  0
LINE
  5
7DE
100
AcDbEntity
  8
RACCORDO
100
AcDbLine
 62
7
  6
CONTINUOUS
 10
54.5512891177
 20
23.8603085344
 11
55.8027435505
 21
23.794011422
  0
SPLINE
  5
7DF
100
AcDbEntity
  8
RACCORDO
100
AcDbSpline
 62
7
  6
CONTINUOUS
 70
0
 71
3
 72
11
 73
7
 74
5
 42
0.0000001
 43
0.0000001
 44
0.0000000001
 12
0.2140947438
 22
0.4517445814
 32
0.0
 13
-0.010902156
 23
0.4997908253
 33
0.0
 40
0.0
 40
0.0
 40
0.0
 40
0.0
 40
0.0860863322
 40
0.3051245074
 40
0.6252991922
 40
1.0
 40
1.0
 40
1.0
 40
1.0
 10
54.5515850634
 20
-20.9390919687
 30
0.0
 10
54.5577286072
 20
-20.9261289574
 30
0.0
 10
54.5491664369
 20
-20.8723621682
 30
0.0
 10
54.5572476934
 20
-20.770634551
 30
0.0
 10
54.5515039938
 20
-20.6171424667
 30
0.0
 10
54.5504644709
 20
-20.5017092767
 30
0.0
 10
54.5491027887
 20
-20.439285268
 30
0.0
 11
54.5515850634
 21
-20.9390919687
 31
0.0
 11
54.5538926738
 21
-20.8961184877
 31
0.0
 11
54.5542314972
 21
-20.7866196995
 31
0.0
 11
54.5525531375
 21
-20.626570063
 31
0.0
 11
54.5491027887
 21
-20.439285268
 31
0.0
  0
SPLINE
  5
7E0
100
AcDbEntity
  8
RACCORDO
100
AcDbSpline
 62
253
  6
CONTINUOUS
 70
0
 71
3
 72
11
 73
7
 74
5
 42
0.0000001
 43
0.0000001
 44
0.0000000001
 12
0.14695652
 22
0.469194483
 32
0.0
 13
-0.4692048406
 23
0.1469234468
 33
0.0
 40
0.0
 40
0.0
 40
0.0
 40
0.0
 40
0.0758205251
 40
0.2919114545
 40
0.6160774401
 40
1.0
 40
1.0
 40
1.0
 40
1.0
 10
63.5610462424
 20
-19.4882878145
 30
0.0
 10
63.5647603492
 20
-19.4764296238
 30
0.0
 10
63.482990805
 20
-19.4792647196
 30
0.0
 10
63.419734797
 20
-19.432380094
 30
0.0
 10
63.2586207701
 20
-19.3948373563
 30
0.0
 10
63.152670256
 20
-19.3577249964
 30
0.0
 10
63.0926241482
 20
-19.3389225878
 30
0.0
 11
63.5610462424
 21
-19.4882878145
 31
0.0
 11
63.5257774723
 21
-19.4762124121
 31
0.0
 11
63.4246380554
 21
-19.4436713177
 31
0.0
 11
63.2727042991
 21
-19.3955152549
 31
0.0
 11
63.0926241482
 21
-19.3389225878
 31
0.0
  0
SPLINE
  5
7E1
100
AcDbEntity
  8
RACCORDO
100
AcDbSpline
 62
253
  6
CONTINUOUS
 70
0
 71
3
 72
11
 73
7
 74
5
 42
0.0000001
 43
0.0000001
 44
0.0000000001
 12
0.1086946236
 22
0.4793299509
 32
0.0
 13
-0.4793228141
 23
0.1087260912
 33
0.0
 40
0.0
 40
0.0
 40
0.0
 40
0.0
 40
0.0758034967
 40
0.2918813076
 40
0.6160465202
 40
1.0
 40
1.0
 40
1.0
 40
1.0
 10
74.014149173
 20
19.3082914216
 30
0.0
 10
74.0168956505
 20
19.3204030504
 30
0.0
 10
73.9355178748
 20
19.3104517758
 30
0.0
 10
73.8687786925
 20
19.3522824319
 30
0.0
 10
73.7051500808
 20
19.3764520481
 30
0.0
 10
73.5966012497
 20
19.4049506456
 30
0.0
 10
73.5352553622
 20
19.4188658993
 30
0.0
 11
74.014149173
 21
19.3082914216
 31
0.0
 11
73.9779829427
 21
19.3172421758
 31
0.0
 11
73.8745497264
 21
19.3413349509
 31
0.0
 11
73.7192611581
 21
19.3769799011
 31
0.0
 11
73.5352553622
 21
19.4188658993
 31
0.0
  0
SPLINE
  5
7E2
100
AcDbEntity
  8
RACCORDO
100
AcDbSpline
 62
253
  6
CONTINUOUS
 70
0
 71
3
 72
11
 73
7
 74
5
 42
0.0000001
 43
0.0000001
 44
0.0000000001
 12
-0.0014543976
 22
-0.2499981764
 32
0.0
 13
0.2499981761
 23
-0.0014544468
 33
0.0
 40
0.0
 40
0.0
 40
0.0
 40
0.0
 40
0.3826696105
 40
0.7070808014
 40
0.9238509539
 40
1.0
 40
1.0
 40
1.0
 40
1.0
 10
53.7998346849
 20
-22.7850319362
 30
0.0
 10
53.7996491669
 20
-22.8169208378
 30
0.0
 10
53.8012152147
 20
-22.8739071044
 30
0.0
 10
53.7945384643
 20
-22.9577175507
 30
0.0
 10
53.8074467446
 20
-22.9956901737
 30
0.0
 10
53.7934889773
 20
-23.0349907872
 30
0.0
 10
53.7998346849
 20
-23.0350277054
 30
0.0
 11
53.7998346849
 21
-22.7850319362
 31
0.0
 11
53.7993888351
 21
-22.880699221
 31
0.0
 11
53.7992322739
 21
-22.9618026484
 31
0.0
 11
53.7993888351
 21
-23.0159954821
 31
0.0
 11
53.7998346849
 21
-23.0350277054
 31
0.0
  0
SPLINE
  5
7E3
100
AcDbEntity
  8
RACCORDO
100
AcDbSpline
 62
253
  6
CONTINUOUS
 70
0
 71
3
 72
11
 73
7
 74
5
 42
0.0000001
 43
0.0000001
 44
0.0000000001
 12
0.480957655
 22
-0.1288722153
 32
0.0
 13
-0.1288355968
 23
-0.4809674654
 33
0.0
 40
0.0
 40
0.0
 40
0.0
 40
0.0
 40
0.076281157
 40
0.2928631991
 40
0.6171215625
 40
1.0
 40
1.0
 40
1.0
 40
1.0
 10
72.9395176854
 20
21.0889035971
 30
0.0
 10
72.9517470208
 20
21.0856267566
 30
0.0
 10
72.9097051655
 20
21.0159843818
 30
0.0
 10
72.9137895916
 20
20.9365448087
 30
0.0
 10
72.8611900636
 20
20.7779051295
 30
0.0
 10
72.8352771567
 20
20.6673247079
 30
0.0
 10
72.818834366
 20
20.605940684
 30
0.0
 11
72.9395176854
 21
21.0889035971
 31
0.0
 11
72.9328297472
 21
21.0515148227
 31
0.0
 11
72.907564144
 21
20.9466748669
 31
0.0
 11
72.8675462281
 21
20.7902567936
 31
0.0
 11
72.818834366
 21
20.605940684
 31
0.0
  0
SPLINE
  5
7E4
100
AcDbEntity
  8
RACCORDO
100
AcDbSpline
 62
7
  6
CONTINUOUS
 70
0
 71
3
 72
11
 73
7
 74
5
 42
0.0000001
 43
0.0000001
 44
0.0000000001
 12
0.0014542391
 22
-0.2499981757
 32
0.0
 13
-0.2499981745
 23
-0.0014544468
 33
0.0
 40
0.0
 40
0.0
 40
0.0
 40
0.0
 40
0.3826696125
 40
0.7070808066
 40
0.9238509597
 40
1.0
 40
1.0
 40
1.0
 40
1.0
 10
54.5512891177
 20
-22.7894037702
 30
0.0
 10
54.5514746154
 20
-22.8212926719
 30
0.0
 10
54.5499085305
 20
-22.8782789383
 30
0.0
 10
54.5565852721
 20
-22.962089386
 30
0.0
 10
54.5436769406
 20
-23.000062006
 30
0.0
 10
54.5576348247
 20
-23.0393626212
 30
0.0
 10
54.5512891177
 20
-23.0393995394
 30
0.0
 11
54.5512891177
 21
-22.7894037702
 31
0.0
 11
54.5517349159
 21
-22.8850710551
 31
0.0
 11
54.5518914472
 21
-22.9661744829
 31
0.0
 11
54.5517349159
 21
-23.0203673165
 31
0.0
 11
54.5512891177
 21
-23.0393995394
 31
0.0
  0
SPLINE
  5
7E5
100
AcDbEntity
  8
RACCORDO
100
AcDbSpline
 62
253
  6
CONTINUOUS
 70
0
 71
3
 72
11
 73
7
 74
5
 42
0.0000001
 43
0.0000001
 44
0.0000000001
 12
0.4809576563
 22
-0.1288722156
 32
0.0
 13
-0.1288355912
 23
-0.4809674682
 33
0.0
 40
0.0
 40
0.0
 40
0.0
 40
0.0
 40
0.076278558
 40
0.2928560046
 40
0.6171139186
 40
1.0
 40
1.0
 40
1.0
 40
1.0
 10
65.5665180707
 20
23.0644928897
 30
0.0
 10
65.5787469895
 20
23.0612161608
 30
0.0
 10
65.5367063624
 20
22.9915755193
 30
0.0
 10
65.5407906731
 20
22.9121369285
 30
0.0
 10
65.4881909598
 20
22.753496713
 30
0.0
 10
65.4622778695
 20
22.6429152263
 30
0.0
 10
65.4458347513
 20
22.5815299765
 30
0.0
 11
65.5665180707
 21
23.0644928897
 31
0.0
 11
65.5598304185
 21
23.0271053787
 31
0.0
 11
65.5345653975
 21
22.922267636
 31
0.0
 11
65.4945475714
 21
22.7658497702
 31
0.0
 11
65.4458347513
 21
22.5815299765
 31
0.0
  0
SPLINE
  5
7E6
100
AcDbEntity
  8
RACCORDO
100
AcDbSpline
 62
7
  6
CONTINUOUS
 70
0
 71
3
 72
11
 73
7
 74
5
 42
0.0000001
 43
0.0000001
 44
0.0000000001
 12
0.0109023078
 22
0.4997977831
 32
0.0
 13
-0.2140977243
 23
0.4517508703
 33
0.0
 40
0.0
 40
0.0
 40
0.0
 40
0.0
 40
0.3746955916
 40
0.6948658191
 40
0.9139009451
 40
1.0
 40
1.0
 40
1.0
 40
1.0
 10
54.5491027887
 20
23.3604861892
 30
0.0
 10
54.5504644709
 20
23.4229101978
 30
0.0
 10
54.5515419202
 20
23.5383455012
 30
0.0
 10
54.5571504926
 20
23.6918300561
 30
0.0
 10
54.549345493
 20
23.7935753412
 30
0.0
 10
54.5575816278
 20
23.8473265516
 30
0.0
 10
54.5514370906
 20
23.8602916592
 30
0.0
 11
54.5491027887
 21
23.3604861892
 31
0.0
 11
54.5525531375
 21
23.5477709841
 31
0.0
 11
54.5542314972
 21
23.7078206207
 31
0.0
 11
54.5538926738
 21
23.8173194089
 31
0.0
 11
54.5514370906
 21
23.8602916592
 31
0.0
  0
SPLINE
  5
7E7
100
AcDbEntity
  8
RACCORDO
100
AcDbSpline
 62
253
  6
CONTINUOUS
 70
0
 71
3
 72
11
 73
7
 74
5
 42
0.0000001
 43
0.0000001
 44
0.0000000001
 12
0.0014543976
 22
-0.2499981764
 32
0.0
 13
-0.2499981761
 23
-0.0014544468
 33
0.0
 40
0.0
 40
0.0
 40
0.0
 40
0.0
 40
0.3826696105
 40
0.7070808014
 40
0.9238509539
 40
1.0
 40
1.0
 40
1.0
 40
1.0
 10
56.8027435505
 20
-22.7763051915
 30
0.0
 10
56.8029290685
 20
-22.8081940931
 30
0.0
 10
56.8013630207
 20
-22.8651803597
 30
0.0
 10
56.8080397711
 20
-22.948990806
 30
0.0
 10
56.7951314909
 20
-22.986963429
 30
0.0
 10
56.8090892581
 20
-23.0262640424
 30
0.0
 10
56.8027435505
 20
-23.0263009607
 30
0.0
 11
56.8027435505
 21
-22.7763051915
 31
0.0
 11
56.8031894003
 21
-22.8719724763
 31
0.0
 11
56.8033459615
 21
-22.9530759037
 31
0.0
 11
56.8031894003
 21
-23.0072687374
 31
0.0
 11
56.8027435505
 21
-23.0263009607
 31
0.0
  0
SPLINE
  5
7E8
100
AcDbEntity
  8
RACCORDO
100
AcDbSpline
 62
253
  6
CONTINUOUS
 70
0
 71
3
 72
11
 73
7
 74
5
 42
0.0000001
 43
0.0000001
 44
0.0000000001
 12
0.1246373069
 22
0.2158854549
 32
0.0
 13
-0.2158836282
 23
0.1246404709
 33
0.0
 40
0.0
 40
0.0
 40
0.0
 40
0.0
 40
0.3828907181
 40
0.7072619023
 40
0.923914324
 40
1.0
 40
1.0
 40
1.0
 40
1.0
 10
56.8027435505
 20
-22.3837371067
 30
0.0
 10
56.8186510399
 20
-22.3561835944
 30
0.0
 10
56.8454169422
 20
-22.3060214125
 30
0.0
 10
56.8926467341
 20
-22.2367398715
 30
0.0
 10
56.9001494452
 20
-22.197457782
 30
0.0
 10
56.931764335
 20
-22.1703918739
 30
0.0
 10
56.9262891177
 20
-22.1672307558
 30
0.0
 11
56.8027435505
 21
-22.3837371067
 31
0.0
 11
56.8503832624
 21
-22.3010288474
 31
0.0
 11
56.890576137
 21
-22.2308661768
 31
0.0
 11
56.9172255248
 21
-22.1838917081
 31
0.0
 11
56.9262891177
 21
-22.1672307558
 31
0.0
  0
SPLINE
  5
7E9
100
AcDbEntity
  8
RACCORDO
100
AcDbSpline
 62
7
  6
CONTINUOUS
 70
0
 71
3
 72
11
 73
7
 74
5
 42
0.0000001
 43
0.0000001
 44
0.0000000001
 12
0.2489095778
 22
0.1437116598
 32
0.0
 13
0.2466667878
 23
0.147539673
 33
0.0
 40
0.0
 40
0.0
 40
0.0
 40
0.0
 40
0.3572197381
 40
0.6790083259
 40
0.9115160719
 40
1.0
 40
1.0
 40
1.0
 40
1.0
 10
55.8027435505
 20
-21.8063868375
 30
0.0
 10
55.8323820219
 20
-21.7892746237
 30
0.0
 10
55.8887135433
 20
-21.756737279
 30
0.0
 10
55.9642477949
 20
-21.7129104593
 30
0.0
 10
56.0175570342
 20
-21.6820782894
 30
0.0
 10
56.0440137689
 20
-21.6664009002
 30
0.0
 10
56.0512891177
 20
-21.6620492702
 30
0.0
 11
55.8027435505
 21
-21.8063868375
 31
0.0
 11
55.8916351393
 21
-21.7550089523
 31
0.0
 11
55.971659046
 21
-21.7086390872
 31
0.0
 11
56.0294152213
 21
-21.6750227881
 31
0.0
 11
56.0512891177
 21
-21.6620492702
 31
0.0
  0
SPLINE
  5
7EA
100
AcDbEntity
  8
0
100
AcDbSpline
 62
7
  6
CONTINUOUS
 70
0
 71
3
 72
13
 73
9
 74
7
 42
0.0000001
 43
0.0000001
 44
0.0000000001
 12
-0.0259342476
 22
-0.164560409
 32
0.0
 13
0.0862045308
 23
-0.1424485287
 33
0.0
 40
0.0
 40
0.0
 40
0.0
 40
0.0
 40
0.1209117736
 40
0.3180309784
 40
0.501344967
 40
0.6753681521
 40
0.8410500619
 40
1.0
 40
1.0
 40
1.0
 40
1.0
 10
17.7182428184
 20
-16.7891446568
 30
0.0
 10
17.7171975664
 20
-16.7957770871
 30
0.0
 10
17.7149818411
 20
-16.8133052837
 30
0.0
 10
17.7139752784
 20
-16.8411788724
 30
0.0
 10
17.7166574125
 20
-16.8719149665
 30
0.0
 10
17.7228622455
 20
-16.9003562551
 30
0.0
 10
17.7322586323
 20
-16.9264684317
 30
0.0
 10
17.7405623821
 20
-16.9425274146
 30
0.0
 10
17.7451297837
 20
-16.9500748095
 30
0.0
 11
17.7182428184
 21
-16.7891446568
 31
0.0
 11
17.715740754
 21
-16.809127328
 31
0.0
 11
17.7146466972
 21
-16.8419297639
 31
0.0
 11
17.7173630891
 21
-16.8723307318
 31
0.0
 11
17.7235834532
 21
-16.9006303147
 31
0.0
 11
17.7329550332
 21
-16.9265759925
 31
0.0
 11
17.7451297837
 21
-16.9500748095
 31
0.0
  0
SPLINE
  5
7EB
100
AcDbEntity
  8
0
100
AcDbSpline
 62
7
  6
CONTINUOUS
 70
0
 71
3
 72
18
 73
14
 74
12
 42
0.0000001
 43
0.0000001
 44
0.0000000001
 12
0.4948501591
 22
-0.8177142942
 32
0.0
 13
0.9552243929
 23
-0.0328588823
 33
0.0
 40
0.0
 40
0.0
 40
0.0
 40
0.0
 40
0.099554693
 40
0.1961235824
 40
0.2903462802
 40
0.3828513624
 40
0.4736868026
 40
0.5633690954
 40
0.6519033874
 40
0.7397275115
 40
0.8268540429
 40
0.9135905715
 40
1.0
 40
1.0
 40
1.0
 40
1.0
 10
17.7451297837
 20
-16.9500748095
 30
0.0
 10
17.7615513356
 20
-16.9772105747
 30
0.0
 10
17.7962105811
 20
-17.029314494
 30
0.0
 10
17.8540894708
 20
-17.1016204122
 30
0.0
 10
17.9165992063
 20
-17.1668945851
 30
0.0
 10
17.9833137802
 20
-17.2251195722
 30
0.0
 10
18.0538224569
 20
-17.276259685
 30
0.0
 10
18.1275771565
 20
-17.3201708254
 30
0.0
 10
18.2041461218
 20
-17.3567936034
 30
0.0
 10
18.2829669989
 20
-17.3860109327
 30
0.0
 10
18.3635742554
 20
-17.4077619643
 30
0.0
 10
18.4453815333
 20
-17.4219732081
 30
0.0
 10
18.5004587136
 20
-17.4264041804
 30
0.0
 10
18.5279721782
 20
-17.4273506195
 30
0.0
 11
17.7451297837
 21
-16.9500748095
 31
0.0
 11
17.797881488
 21
-17.0292670551
 31
0.0
 11
17.8555986091
 21
-17.1012943777
 31
0.0
 11
17.9179151623
 21
-17.1663091469
 31
0.0
 11
17.9845502648
 21
-17.224421467
 31
0.0
 11
18.0548459202
 21
-17.2753739449
 31
0.0
 11
18.1285092874
 21
-17.3192051912
 31
0.0
 11
18.2048544521
 21
-17.355701538
 31
0.0
 11
18.2835672424
 21
-17.3848640049
 31
0.0
 11
18.3639687929
 21
-17.4065492987
 31
0.0
 11
18.4456487117
 21
-17.420730559
 31
0.0
 11
18.5279721782
 21
-17.4273506195
 31
0.0
  0
SPLINE
  5
7EC
100
AcDbEntity
  8
0
100
AcDbSpline
 62
7
  6
CONTINUOUS
 70
0
 71
3
 72
10
 73
6
 74
4
 42
0.0000001
 43
0.0000001
 44
0.0000000001
 12
-15.0254020379
 22
0.3551647576
 32
0.0
 13
-15.0207147002
 23
0.5166994274
 33
0.0
 40
0.0
 40
0.0
 40
0.0
 40
0.0
 40
0.3476197717
 40
0.6822398286
 40
1.0
 40
1.0
 40
1.0
 40
1.0
 10
33.5512891177
 20
-17.8596516931
 30
0.0
 10
31.8102468424
 20
-17.8184975958
 30
0.0
 10
28.3934018364
 20
-17.7320510259
 30
0.0
 10
23.3855989484
 20
-17.5879499045
 30
0.0
 10
20.1189671373
 20
-17.4820794524
 30
0.0
 10
18.5279721782
 20
-17.4273506195
 30
0.0
 11
33.5512891177
 21
-17.8596516931
 31
0.0
 11
28.3283793902
 21
-17.727323477
 31
0.0
 11
23.3012626189
 21
-17.5823996879
 31
0.0
 11
18.5279721782
 21
-17.4273506195
 31
0.0
  0
SPLINE
  5
7ED
100
AcDbEntity
  8
0
100
AcDbSpline
 62
253
  6
CONTINUOUS
 70
0
 71
3
 72
10
 73
6
 74
4
 42
0.0000001
 43
0.0000001
 44
0.0000000001
 12
-0.013668885
 22
-0.004264732
 32
0.0
 13
-0.0019241616
 23
0.0007697831
 33
0.0
 40
0.0
 40
0.0
 40
0.0
 40
0.0
 40
0.5601011252
 40
0.8954234785
 40
1.0
 40
1.0
 40
1.0
 40
1.0
 10
17.6694916005
 20
-16.5345947655
 30
0.0
 10
17.6669396145
 20
-16.5353909926
 30
0.0
 10
17.6623908928
 20
-16.5367546363
 30
0.0
 10
17.6589647756
 20
-16.5378874427
 30
0.0
 10
17.655822212
 20
-16.5386822476
 30
0.0
 10
17.655755138
 20
-16.5386554139
 30
0.0
 11
17.6694916005
 21
-16.5345947655
 31
0.0
 11
17.6618284534
 21
-16.5369602814
 31
0.0
 11
17.6572239407
 21
-16.5383211078
 31
0.0
 11
17.655755138
 21
-16.5386554139
 31
0.0
  0
SPLINE
  5
7EE
100
AcDbEntity
  8
RACCORDO
100
AcDbSpline
 62
253
  6
CONTINUOUS
 70
0
 71
3
 72
19
 73
15
 74
13
 42
0.0000001
 43
0.0000001
 44
0.0000000001
 12
-0.2000197895
 22
0.0034913584
 32
0.0
 13
0.0034902953
 23
0.2000198081
 33
0.0
 40
0.0
 40
0.0
 40
0.0
 40
0.0
 40
0.008849263
 40
0.0344550409
 40
0.0765383999
 40
0.1344034726
 40
0.20706873
 40
0.2932950174
 40
0.3916095954
 40
0.5003316962
 40
0.6176041132
 40
0.7414161488
 40
0.8696551939
 40
1.0
 40
1.0
 40
1.0
 40
1.0
 10
43.7477986364
 20
-20.7682789765
 30
0.0
 10
43.7472086272
 20
-20.7682686779
 30
0.0
 10
43.7476399216
 20
-20.7647118355
 30
0.0
 10
43.7466752884
 20
-20.7608166198
 30
0.0
 10
43.7467980043
 20
-20.7517762819
 30
0.0
 10
43.7464453688
 20
-20.7405568895
 30
0.0
 10
43.74639144
 20
-20.7259938228
 30
0.0
 10
43.7463346923
 20
-20.7088803366
 30
0.0
 10
43.7463880833
 20
-20.6893121646
 30
0.0
 10
43.7465142226
 20
-20.6676903402
 30
0.0
 10
43.7467233162
 20
-20.6443637789
 30
0.0
 10
43.7470083894
 20
-20.6197379909
 30
0.0
 10
43.7473656856
 20
-20.5942409077
 30
0.0
 10
43.7476469891
 20
-20.5769999519
 30
0.0
 10
43.7477986364
 20
-20.5683094375
 30
0.0
 11
43.7477986364
 21
-20.7682789765
 31
0.0
 11
43.7473730755
 21
-20.7665605905
 31
0.0
 11
43.7470145056
 21
-20.7614507133
 31
0.0
 11
43.7467290618
 21
-20.753036767
 31
0.0
 11
43.7465216271
 21
-20.7414627029
 31
0.0
 11
43.7463957501
 21
-20.7269265444
 31
0.0
 11
43.7463535833
 21
-20.7096770049
 31
0.0
 11
43.7463958474
 21
-20.6900091937
 31
0.0
 11
43.7465218178
 21
-20.6682596741
 31
0.0
 11
43.7467293411
 21
-20.6448002147
 31
0.0
 11
43.7470148543
 21
-20.6200332306
 31
0.0
 11
43.7473734802
 21
-20.5943814833
 31
0.0
 11
43.7477986364
 21
-20.5683094375
 31
0.0
  0
SPLINE
  5
7EF
100
AcDbEntity
  8
RACCORDO
100
AcDbSpline
 62
253
  6
CONTINUOUS
 70
0
 71
3
 72
18
 73
14
 74
12
 42
0.0000001
 43
0.0000001
 44
0.0000000001
 12
-0.0399653798
 22
-0.0463930694
 32
0.0
 13
0.0030184974
 23
0.1997123179
 33
0.0
 40
0.0
 40
0.0
 40
0.0
 40
0.0
 40
0.0139590315
 40
0.047769296
 40
0.1001049001
 40
0.1699518094
 40
0.2559524615
 40
0.356434069
 40
0.4694416708
 40
0.5927763576
 40
0.7240381457
 40
0.8606727248
 40
1.0
 40
1.0
 40
1.0
 40
1.0
 10
25.7481783225
 20
-6.1945927607
 30
0.0
 10
25.7479923632
 20
-6.1948086282
 30
0.0
 10
25.7480472382
 20
-6.1887823242
 30
0.0
 10
25.7477920329
 20
-6.1845050857
 30
0.0
 10
25.7478162596
 20
-6.172885592
 30
0.0
 10
25.747791525
 20
-6.1595347646
 30
0.0
 10
25.7478753327
 20
-6.1422820278
 30
0.0
 10
25.7480077114
 20
-6.1224063041
 30
0.0
 10
25.7482078083
 20
-6.0999616823
 30
0.0
 10
25.7484651447
 20
-6.0754947665
 30
0.0
 10
25.7487770866
 20
-6.0494472598
 30
0.0
 10
25.7491370241
 20
-6.0223378875
 30
0.0
 10
25.7494036243
 20
-6.0039666022
 30
0.0
 10
25.7495438106
 20
-5.9946914779
 30
0.0
 11
25.7481783225
 21
-6.1945927607
 31
0.0
 11
25.7480093491
 21
-6.1916269475
 31
0.0
 11
25.7478751515
 21
-6.1848751835
 31
0.0
 11
25.7478073949
 21
-6.1744221445
 31
0.0
 11
25.7478073983
 21
-6.1604712632
 31
0.0
 11
25.7478751615
 21
-6.1432940456
 31
0.0
 11
25.7480093659
 21
-6.1232247876
 31
0.0
 11
25.7482073992
 21
-6.1006540686
 31
0.0
 11
25.7484654087
 21
-6.0760211503
 31
0.0
 11
25.7487783689
 21
-6.0498054283
 31
0.0
 11
25.7491402046
 21
-6.022517102
 31
0.0
 11
25.7495438106
 21
-5.9946914779
 31
0.0
  0
SPLINE
  5
7F0
100
AcDbEntity
  8
RACCORDO
100
AcDbSpline
 62
253
  6
CONTINUOUS
 70
0
 71
3
 72
19
 73
15
 74
13
 42
0.0000001
 43
0.0000001
 44
0.0000000001
 12
-0.0034902953
 22
0.2000198081
 32
0.0
 13
0.2000197895
 23
0.0034913584
 33
0.0
 40
0.0
 40
0.0
 40
0.0
 40
0.0
 40
0.1303448061
 40
0.2585838512
 40
0.3823958868
 40
0.4996683038
 40
0.6083904046
 40
0.7067049826
 40
0.79293127
 40
0.8655965274
 40
0.9234616001
 40
0.9655449591
 40
0.991150737
 40
1.0
 40
1.0
 40
1.0
 40
1.0
 10
43.7477986364
 20
23.4895103587
 30
0.0
 10
43.7476469891
 20
23.4982008731
 30
0.0
 10
43.7473656856
 20
23.5154418289
 30
0.0
 10
43.7470083894
 20
23.5409389121
 30
0.0
 10
43.7467233162
 20
23.5655647001
 30
0.0
 10
43.7465142226
 20
23.5888912614
 30
0.0
 10
43.7463880833
 20
23.6105130858
 30
0.0
 10
43.7463346923
 20
23.6300812578
 30
0.0
 10
43.74639144
 20
23.6471947439
 30
0.0
 10
43.7464453688
 20
23.6617578107
 30
0.0
 10
43.7467980043
 20
23.6729772031
 30
0.0
 10
43.7466752884
 20
23.6820175409
 30
0.0
 10
43.7476399216
 20
23.6859127567
 30
0.0
 10
43.7472086272
 20
23.6894695991
 30
0.0
 10
43.7477986364
 20
23.6894798977
 30
0.0
 11
43.7477986364
 21
23.4895103587
 31
0.0
 11
43.7473734802
 21
23.5155824045
 31
0.0
 11
43.7470148543
 21
23.5412341518
 31
0.0
 11
43.7467293411
 21
23.5660011359
 31
0.0
 11
43.7465218178
 21
23.5894605953
 31
0.0
 11
43.7463958474
 21
23.6112101148
 31
0.0
 11
43.7463535833
 21
23.6308779261
 31
0.0
 11
43.7463957501
 21
23.6481274656
 31
0.0
 11
43.7465216271
 21
23.6626636241
 31
0.0
 11
43.7467290618
 21
23.6742376881
 31
0.0
 11
43.7470145056
 21
23.6826516345
 31
0.0
 11
43.7473730755
 21
23.6877615117
 31
0.0
 11
43.7477986364
 21
23.6894798977
 31
0.0
  0
LINE
  5
7F1
100
AcDbEntity
  8
RACCORDO
100
AcDbLine
 62
253
  6
CONTINUOUS
 10
17.5512891177
 20
-1.2635790479
 11
17.5571950729
 21
-1.263661519
  0
SPLINE
  5
7F2
100
AcDbEntity
  8
RACCORDO
100
AcDbSpline
 62
253
  6
CONTINUOUS
 70
0
 71
3
 72
18
 73
14
 74
12
 42
0.0000001
 43
0.0000001
 44
0.0000000001
 12
-0.1904524588
 22
0.00332436
 32
0.0
 13
0.0032452953
 23
0.1904541549
 33
0.0
 40
0.0
 40
0.0
 40
0.0
 40
0.0
 40
0.0107643583
 40
0.0426278617
 40
0.0949848535
 40
0.1667761152
 40
0.2565427403
 40
0.3624588149
 40
0.4823692811
 40
0.6138340376
 40
0.7541777046
 40
0.9005441266
 40
1.0
 40
1.0
 40
1.0
 40
1.0
 10
18.5338367113
 20
-17.628167634
 30
0.0
 10
18.5331533451
 20
-17.6281557058
 30
0.0
 10
18.5343054969
 20
-17.6238534268
 30
0.0
 10
18.5329842928
 20
-17.6193478955
 30
0.0
 10
18.533625268
 20
-17.6085886362
 30
0.0
 10
18.5333601512
 20
-17.5953733093
 30
0.0
 10
18.5335741684
 20
-17.5782529769
 30
0.0
 10
18.5337145218
 20
-17.5582629161
 30
0.0
 10
18.5339768308
 20
-17.5355631583
 30
0.0
 10
18.534290139
 20
-17.5106981683
 30
0.0
 10
18.5346692102
 20
-17.4841479265
 30
0.0
 10
18.5350507668
 20
-17.4596321021
 30
0.0
 10
18.5353102064
 20
-17.444026032
 30
0.0
 10
18.5354177943
 20
-17.4377121039
 30
0.0
 11
18.5338367113
 21
-17.628167634
 31
0.0
 11
18.5336239489
 21
-17.6261282918
 31
0.0
 11
18.5334865593
 21
-17.6200604401
 31
0.0
 11
18.5334273388
 21
-17.6100875792
 31
0.0
 11
18.5334474927
 21
-17.5964126889
 31
0.0
 11
18.5335466109
 21
-17.5793140975
 31
0.0
 11
18.533722676
 21
-17.5591398162
 31
0.0
 11
18.5339721043
 21
-17.5363004563
 31
0.0
 11
18.5342898194
 21
-17.5112608718
 31
0.0
 11
18.5346693546
 21
-17.4845306981
 31
0.0
 11
18.5351029852
 21
-17.4566539793
 31
0.0
 11
18.5354177943
 21
-17.4377121039
 31
0.0
  0
LINE
  5
7F3
100
AcDbEntity
  8
RACCORDO
100
AcDbLine
 62
253
  6
CONTINUOUS
 10
18.5354177943
 20
-17.4377121039
 11
18.5355818855
 21
-17.428198095
  0
SPLINE
  5
7F4
100
AcDbEntity
  8
RACCORDO
100
AcDbSpline
 62
253
  6
CONTINUOUS
 70
0
 71
3
 72
18
 73
14
 74
12
 42
0.0000001
 43
0.0000001
 44
0.0000000001
 12
-0.0030185038
 22
0.1997127454
 32
0.0
 13
0.0399364405
 23
-0.0463746429
 33
0.0
 40
0.0
 40
0.0
 40
0.0
 40
0.0
 40
0.1393592561
 40
0.2759926018
 40
0.4072525573
 40
0.5305848485
 40
0.6435895377
 40
0.7440677724
 40
0.8300646567
 40
0.8999074768
 40
0.9522387499
 40
0.9860445265
 40
1.0
 40
1.0
 40
1.0
 40
1.0
 10
25.7495438106
 20
-3.4841076009
 30
0.0
 10
25.7494035918
 20
-3.4748303277
 30
0.0
 10
25.7491369962
 20
-3.4564569557
 30
0.0
 10
25.7487770765
 20
-3.4293455998
 30
0.0
 10
25.748465109
 20
-3.4032984017
 30
0.0
 10
25.7482077903
 20
-3.3788319075
 30
0.0
 10
25.7480076978
 20
-3.3563878199
 30
0.0
 10
25.7478753152
 20
-3.3365127089
 30
0.0
 10
25.747791546
 20
-3.319260727
 30
0.0
 10
25.7478161957
 20
-3.305910551
 30
0.0
 10
25.7477921955
 20
-3.2942922543
 30
0.0
 10
25.748046964
 20
-3.2900149777
 30
0.0
 10
25.7479926314
 20
-3.2839904636
 30
0.0
 10
25.7481784087
 20
-3.2842061903
 30
0.0
 11
25.7495438106
 21
-3.4841076009
 31
0.0
 11
25.7491401457
 21
-3.4562755297
 31
0.0
 11
25.7487783461
 21
-3.4289873909
 31
0.0
 11
25.7484653794
 21
-3.4027719789
 31
0.0
 11
25.7482073787
 21
-3.3781394863
 31
0.0
 11
25.7480093503
 21
-3.3555693007
 31
0.0
 11
25.7478751522
 21
-3.3355006734
 31
0.0
 11
25.7478073952
 21
-3.3183241716
 31
0.0
 11
25.7478073981
 21
-3.3043740771
 31
0.0
 11
25.7478751608
 21
-3.2939218809
 31
0.0
 11
25.7480093648
 21
-3.2871709991
 31
0.0
 11
25.7481784087
 21
-3.2842061903
 31
0.0
  0
SPLINE
  5
7F5
100
AcDbEntity
  8
0
100
AcDbSpline
 62
253
  6
CONTINUOUS
 70
0
 71
3
 72
23
 73
19
 74
17
 42
0.0000001
 43
0.0000001
 44
0.0000000001
 12
-0.0156964987
 22
-1.7988358815
 32
0.0
 13
0.0166332038
 23
-1.798827464
 33
0.0
 40
0.0
 40
0.0
 40
0.0
 40
0.0
 40
0.0776756575
 40
0.1549683931
 40
0.2315031562
 40
0.3069048205
 40
0.3808051193
 40
0.4528434225
 40
0.5226676716
 40
0.5899365757
 40
0.6543215835
 40
0.7155083193
 40
0.7731979553
 40
0.8271086872
 40
0.8769771767
 40
0.9225598943
 40
0.9636343304
 40
1.0
 40
1.0
 40
1.0
 40
1.0
 10
18.5338367113
 20
-15.6284722437
 30
0.0
 10
18.5334302993
 20
-15.675047497
 30
0.0
 10
18.5326482339
 20
-15.7679686523
 30
0.0
 10
18.5315642955
 20
-15.9067817746
 30
0.0
 10
18.5305765807
 20
-16.0442320155
 30
0.0
 10
18.5296895107
 20
-16.1796486769
 30
0.0
 10
18.5289075681
 20
-16.3123697071
 30
0.0
 10
18.5282344887
 20
-16.4417468785
 30
0.0
 10
18.5276735331
 20
-16.5671481321
 30
0.0
 10
18.5272273797
 20
-16.6879606358
 30
0.0
 10
18.5268981275
 20
-16.803594143
 30
0.0
 10
18.5266872692
 20
-16.9134838567
 30
0.0
 10
18.5265956934
 20
-17.0170929952
 30
0.0
 10
18.5266236621
 20
-17.1139153608
 30
0.0
 10
18.5267708004
 20
-17.2034778856
 30
0.0
 10
18.527035928
 20
-17.2853430253
 30
0.0
 10
18.5274174207
 20
-17.3591108515
 30
0.0
 10
18.5277688508
 20
-17.4055453758
 30
0.0
 10
18.5279704767
 20
-17.4273505642
 30
0.0
 11
18.5338367113
 21
-15.6284722437
 31
0.0
 11
18.5326604903
 21
-15.7681983723
 31
0.0
 11
18.5315752452
 21
-15.9072363763
 31
0.0
 11
18.5305863841
 21
-16.0449115444
 31
0.0
 11
18.5296986613
 21
-16.1805490224
 31
0.0
 11
18.5289164538
 21
-16.3134862911
 31
0.0
 11
18.5282435761
 21
-16.4430745621
 31
0.0
 11
18.5276833191
 21
-16.5686804589
 31
0.0
 11
18.5272384205
 21
-16.6896899661
 31
0.0
 11
18.5269110479
 21
-16.8055119751
 31
0.0
 11
18.5267027901
 21
-16.915580864
 31
0.0
 11
18.5266146613
 21
-17.0193589645
 31
0.0
 11
18.5266470997
 21
-17.1163392099
 31
0.0
 11
18.526799952
 21
-17.206047723
 31
0.0
 11
18.527072473
 21
-17.2880462198
 31
0.0
 11
18.5274633311
 21
-17.3619341683
 31
0.0
 11
18.5279704767
 21
-17.4273505642
 31
0.0
  0
SPLINE
  5
7F6
100
AcDbEntity
  8
RACCORDO
100
AcDbSpline
 62
253
  6
CONTINUOUS
 70
0
 71
3
 72
17
 73
13
 74
11
 42
0.0000001
 43
0.0000001
 44
0.0000000001
 12
-0.0000033074
 22
-0.9176351221
 32
0.0
 13
0.3104348843
 23
-0.8635301964
 33
0.0
 40
0.0
 40
0.0
 40
0.0
 40
0.0
 40
0.0908917113
 40
0.1836781131
 40
0.2781771856
 40
0.3741492945
 40
0.4719129549
 40
0.5721420408
 40
0.6749603653
 40
0.780466312
 40
0.88880204
 40
1.0
 40
1.0
 40
1.0
 40
1.0
 10
17.5571950763
 20
-15.6284722438
 30
0.0
 10
17.5571949761
 20
-15.6562740526
 30
0.0
 10
17.5574730579
 20
-15.7124576533
 30
0.0
 10
17.5588227654
 20
-15.7975373155
 30
0.0
 10
17.5614000731
 20
-15.8841449889
 30
0.0
 10
17.565651185
 20
-15.9722137875
 30
0.0
 10
17.5721728812
 20
-16.0619057777
 30
0.0
 10
17.5817100319
 20
-16.1534405356
 30
0.0
 10
17.5951352928
 20
-16.2468893439
 30
0.0
 10
17.6134038759
 20
-16.3420542566
 30
0.0
 10
17.6375368244
 20
-16.4385597872
 30
0.0
 10
17.6579855308
 20
-16.5025875624
 30
0.0
 10
17.6694921061
 20
-16.5345951611
 30
0.0
 11
17.5571950763
 21
-15.6284722438
 31
0.0
 11
17.5576203232
 21
-15.7118765862
 31
0.0
 11
17.5590096785
 21
-15.7970093111
 31
0.0
 11
17.5616515639
 21
-15.8836847258
 31
0.0
 11
17.5659783108
 21
-15.971645753
 31
0.0
 11
17.5725777209
 21
-16.0611140569
 31
0.0
 11
17.5822120261
 21
-16.1525817949
 31
0.0
 11
17.5957379885
 21
-16.2459569271
 31
0.0
 11
17.6141023744
 21
-16.3410152244
 31
0.0
 11
17.6383347356
 21
-16.4374292868
 31
0.0
 11
17.6694921061
 21
-16.5345951611
 31
0.0
  0
SPLINE
  5
7F7
100
AcDbEntity
  8
0
100
AcDbSpline
 62
253
  6
CONTINUOUS
 70
0
 71
3
 72
20
 73
16
 74
14
 42
0.0000001
 43
0.0000001
 44
0.0000000001
 12
0.2329425382
 22
0.3624791687
 32
0.0
 13
-0.1457651207
 23
0.4054699784
 33
0.0
 40
0.0
 40
0.0
 40
0.0
 40
0.0
 40
0.0366913991
 40
0.078580238
 40
0.1265219151
 40
0.1810240433
 40
0.2423761579
 40
0.310947834
 40
0.3872847501
 40
0.4718004568
 40
0.5643533046
 40
0.6643748347
 40
0.7710702193
 40
0.8833590514
 40
1.0
 40
1.0
 40
1.0
 40
1.0
 10
17.7451298058
 20
-16.9500748426
 30
0.0
 10
17.7479788017
 20
-16.9456415534
 30
0.0
 10
17.7528165509
 20
-16.935324708
 30
0.0
 10
17.7573945779
 20
-16.9176730973
 30
0.0
 10
17.7598130871
 20
-16.8970324852
 30
0.0
 10
17.7600743481
 20
-16.8734761965
 30
0.0
 10
17.7581800753
 20
-16.8470318532
 30
0.0
 10
17.7541187039
 20
-16.8176701962
 30
0.0
 10
17.7478686048
 20
-16.7853044957
 30
0.0
 10
17.7394254626
 20
-16.7498926341
 30
0.0
 10
17.7288480753
 20
-16.7115203179
 30
0.0
 10
17.7162835224
 20
-16.6704107307
 30
0.0
 10
17.7019680033
 20
-16.6268847696
 30
0.0
 10
17.6862104985
 20
-16.5813275629
 30
0.0
 10
17.6751595001
 20
-16.5503599621
 30
0.0
 10
17.6694921061
 20
-16.5345951611
 30
0.0
 11
17.7451298058
 21
-16.9500748426
 31
0.0
 11
17.7520617426
 21
-16.9358661927
 31
0.0
 11
17.7567960897
 21
-16.9184493256
 31
0.0
 11
17.7593629982
 21
-16.8979525572
 31
0.0
 11
17.7597591742
 21
-16.8744722879
 31
0.0
 11
17.7579813382
 21
-16.8480970379
 31
0.0
 11
17.7540265518
 21
-16.8188170839
 31
0.0
 11
17.7478712899
 21
-16.786506478
 31
0.0
 11
17.7394974246
 21
-16.7510666313
 31
0.0
 11
17.7289636612
 21
-16.7126042844
 31
0.0
 11
17.7164237856
 21
-16.6713722001
 31
0.0
 11
17.7021111798
 21
-16.6276845622
 31
0.0
 11
17.6863419773
 21
-16.5819440426
 31
0.0
 11
17.6694921061
 21
-16.5345951611
 31
0.0
  0
SPLINE
  5
7F8
100
AcDbEntity
  8
RACCORDO
100
AcDbSpline
 62
253
  6
CONTINUOUS
 70
0
 71
3
 72
28
 73
24
 74
22
 42
0.0000001
 43
0.0000001
 44
0.0000000001
 12
-0.0174500117
 22
1.9998640383
 32
0.0
 13
1.9996248131
 23
0.0355145193
 33
0.0
 40
0.0
 40
0.0
 40
0.0
 40
0.0
 40
0.0747227857
 40
0.1490244448
 40
0.2224923694
 40
0.2947145797
 40
0.3652874984
 40
0.4338173881
 40
0.4999206886
 40
0.5632281086
 40
0.6233857444
 40
0.6800578317
 40
0.7329273829
 40
0.7816992193
 40
0.8261005877
 40
0.8658837376
 40
0.9008263683
 40
0.9307334727
 40
0.9554381138
 40
0.974803305
 40
0.9887226594
 40
0.9971239474
 40
1.0
 40
1.0
 40
1.0
 40
1.0
 10
18.5338367113
 20
18.5496731649
 30
0.0
 10
18.5334020734
 20
18.5994849689
 30
0.0
 10
18.5325679681
 20
18.6988281334
 30
0.0
 10
18.5314193274
 20
18.8471475047
 30
0.0
 10
18.5303814283
 20
18.9938006518
 30
0.0
 10
18.5294597299
 20
19.137968773
 30
0.0
 10
18.5286594839
 20
19.278845644
 30
0.0
 10
18.5279850585
 20
19.4156439742
 30
0.0
 10
18.5274401685
 20
19.5475993266
 30
0.0
 10
18.527027772
 20
19.6739737832
 30
0.0
 10
18.5267500092
 20
19.794061357
 30
0.0
 10
18.5266083956
 20
19.9071906244
 30
0.0
 10
18.5266030284
 20
20.0127302589
 30
0.0
 10
18.5267351193
 20
20.1100876578
 30
0.0
 10
18.5269984624
 20
20.1987270013
 30
0.0
 10
18.5274067177
 20
20.2781266783
 30
0.0
 10
18.5279068714
 20
20.347924341
 30
0.0
 10
18.5286429671
 20
20.4074849858
 30
0.0
 10
18.5291784156
 20
20.4571797846
 30
0.0
 10
18.530657481
 20
20.4948331645
 30
0.0
 10
18.5302261758
 20
20.5248781507
 30
0.0
 10
18.5336303685
 20
20.5376314179
 30
0.0
 10
18.5319197026
 20
20.549334508
 30
0.0
 10
18.5338367113
 20
20.5493685552
 30
0.0
 11
18.5338367113
 21
18.5496731649
 31
0.0
 11
18.5325818903
 21
18.6991089972
 31
0.0
 11
18.5314316376
 21
18.8477034178
 31
0.0
 11
18.5303924438
 21
18.9946311962
 31
0.0
 11
18.5294700564
 21
19.1390683505
 31
0.0
 11
18.5286696578
 21
19.2802076959
 31
0.0
 11
18.5279957029
 21
19.4172617178
 31
0.0
 11
18.5274519665
 21
19.5494632456
 31
0.0
 11
18.5270414839
 21
19.6760736323
 31
0.0
 11
18.5267665489
 21
19.7963849904
 31
0.0
 11
18.5266286956
 21
19.9097256903
 31
0.0
 11
18.5266286951
 21
20.0154616296
 31
0.0
 11
18.5267665476
 21
20.1130022867
 31
0.0
 11
18.5270414818
 21
20.2018019414
 31
0.0
 11
18.5274519636
 21
20.2813648019
 31
0.0
 11
18.5279956995
 21
20.3512458573
 31
0.0
 11
18.528669654
 21
20.4110544795
 31
0.0
 11
18.5294700524
 21
20.4604557999
 31
0.0
 11
18.5303924391
 21
20.4991740382
 31
0.0
 11
18.5314316342
 21
20.5269925108
 31
0.0
 11
18.5325818846
 21
20.5437551655
 31
0.0
 11
18.5338367113
 21
20.5493685552
 31
0.0
  0
SPLINE
  5
7F9
100
AcDbEntity
  8
ASSI
100
AcDbSpline
 62
7
  6
CONTINUOUS
 70
0
 71
3
 72
10
 73
6
 74
4
 42
0.0000001
 43
0.0000001
 44
0.0000000001
 12
-15.0254020379
 22
0.3551647576
 32
0.0
 13
-15.0207147002
 23
0.5166994274
 33
0.0
 40
0.0
 40
0.0
 40
0.0
 40
0.0
 40
0.3476197717
 40
0.6822398286
 40
1.0
 40
1.0
 40
1.0
 40
1.0
 10
33.5512891177
 20
-17.8596516931
 30
0.0
 10
31.8102468424
 20
-17.8184975958
 30
0.0
 10
28.3934018364
 20
-17.7320510259
 30
0.0
 10
23.3855989484
 20
-17.5879499045
 30
0.0
 10
20.1189671373
 20
-17.4820794524
 30
0.0
 10
18.5279721782
 20
-17.4273506195
 30
0.0
 11
33.5512891177
 21
-17.8596516931
 31
0.0
 11
28.3283793902
 21
-17.727323477
 31
0.0
 11
23.3012626189
 21
-17.5823996879
 31
0.0
 11
18.5279721782
 21
-17.4273506195
 31
0.0
  0
SPLINE
  5
7FA
100
AcDbEntity
  8
ASSI
100
AcDbSpline
 62
7
  6
CONTINUOUS
 70
0
 71
3
 72
18
 73
14
 74
12
 42
0.0000001
 43
0.0000001
 44
0.0000000001
 12
0.4948501591
 22
-0.8177142942
 32
0.0
 13
0.9552243929
 23
-0.0328588823
 33
0.0
 40
0.0
 40
0.0
 40
0.0
 40
0.0
 40
0.099554693
 40
0.1961235824
 40
0.2903462802
 40
0.3828513624
 40
0.4736868026
 40
0.5633690954
 40
0.6519033874
 40
0.7397275115
 40
0.8268540429
 40
0.9135905715
 40
1.0
 40
1.0
 40
1.0
 40
1.0
 10
17.7451297837
 20
-16.9500748095
 30
0.0
 10
17.7615513356
 20
-16.9772105747
 30
0.0
 10
17.7962105811
 20
-17.029314494
 30
0.0
 10
17.8540894708
 20
-17.1016204122
 30
0.0
 10
17.9165992063
 20
-17.1668945851
 30
0.0
 10
17.9833137802
 20
-17.2251195722
 30
0.0
 10
18.0538224569
 20
-17.276259685
 30
0.0
 10
18.1275771565
 20
-17.3201708254
 30
0.0
 10
18.2041461218
 20
-17.3567936034
 30
0.0
 10
18.2829669989
 20
-17.3860109327
 30
0.0
 10
18.3635742554
 20
-17.4077619643
 30
0.0
 10
18.4453815333
 20
-17.4219732081
 30
0.0
 10
18.5004587136
 20
-17.4264041804
 30
0.0
 10
18.5279721782
 20
-17.4273506195
 30
0.0
 11
17.7451297837
 21
-16.9500748095
 31
0.0
 11
17.797881488
 21
-17.0292670551
 31
0.0
 11
17.8555986091
 21
-17.1012943777
 31
0.0
 11
17.9179151623
 21
-17.1663091469
 31
0.0
 11
17.9845502648
 21
-17.224421467
 31
0.0
 11
18.0548459202
 21
-17.2753739449
 31
0.0
 11
18.1285092874
 21
-17.3192051912
 31
0.0
 11
18.2048544521
 21
-17.355701538
 31
0.0
 11
18.2835672424
 21
-17.3848640049
 31
0.0
 11
18.3639687929
 21
-17.4065492987
 31
0.0
 11
18.4456487117
 21
-17.420730559
 31
0.0
 11
18.5279721782
 21
-17.4273506195
 31
0.0
  0
SPLINE
  5
7FB
100
AcDbEntity
  8
ASSI
100
AcDbSpline
 62
7
  6
CONTINUOUS
 70
0
 71
3
 72
13
 73
9
 74
7
 42
0.0000001
 43
0.0000001
 44
0.0000000001
 12
-0.02593421
 22
-0.1645603568
 32
0.0
 13
0.0862045011
 23
-0.1424484796
 33
0.0
 40
0.0
 40
0.0
 40
0.0
 40
0.0
 40
0.1209114708
 40
0.3180307435
 40
0.5013447952
 40
0.6753680403
 40
0.8410500071
 40
1.0
 40
1.0
 40
1.0
 40
1.0
 10
17.7182428094
 20
-16.7891447135
 30
0.0
 10
17.7171975616
 20
-16.7957771251
 30
0.0
 10
17.7149818404
 20
-16.8133053028
 30
0.0
 10
17.7139752784
 20
-16.8411788724
 30
0.0
 10
17.7166574125
 20
-16.8719149665
 30
0.0
 10
17.7228622455
 20
-16.9003562551
 30
0.0
 10
17.7322586323
 20
-16.9264684317
 30
0.0
 10
17.7405623821
 20
-16.9425274146
 30
0.0
 10
17.7451297837
 20
-16.9500748095
 30
0.0
 11
17.7182428094
 21
-16.7891447135
 31
0.0
 11
17.715740754
 21
-16.809127328
 31
0.0
 11
17.7146466972
 21
-16.8419297639
 31
0.0
 11
17.7173630891
 21
-16.8723307318
 31
0.0
 11
17.7235834532
 21
-16.9006303147
 31
0.0
 11
17.7329550332
 21
-16.9265759925
 31
0.0
 11
17.7451297837
 21
-16.9500748095
 31
0.0
  0
SPLINE
  5
7FC
100
AcDbEntity
  8
ASSI
100
AcDbSpline
 62
253
  6
CONTINUOUS
 70
0
 71
3
 72
28
 73
24
 74
22
 42
0.0000001
 43
0.0000001
 44
0.0000000001
 12
-0.0174500117
 22
1.9998640383
 32
0.0
 13
1.9996248131
 23
0.0355145193
 33
0.0
 40
0.0
 40
0.0
 40
0.0
 40
0.0
 40
0.0747227857
 40
0.1490244448
 40
0.2224923694
 40
0.2947145797
 40
0.3652874984
 40
0.4338173881
 40
0.4999206886
 40
0.5632281086
 40
0.6233857444
 40
0.6800578317
 40
0.7329273829
 40
0.7816992193
 40
0.8261005877
 40
0.8658837376
 40
0.9008263683
 40
0.9307334727
 40
0.9554381138
 40
0.974803305
 40
0.9887226594
 40
0.9971239474
 40
1.0
 40
1.0
 40
1.0
 40
1.0
 10
18.5338367113
 20
18.5496731649
 30
0.0
 10
18.5334020734
 20
18.5994849689
 30
0.0
 10
18.5325679681
 20
18.6988281334
 30
0.0
 10
18.5314193274
 20
18.8471475047
 30
0.0
 10
18.5303814283
 20
18.9938006518
 30
0.0
 10
18.5294597299
 20
19.137968773
 30
0.0
 10
18.5286594839
 20
19.278845644
 30
0.0
 10
18.5279850585
 20
19.4156439742
 30
0.0
 10
18.5274401685
 20
19.5475993266
 30
0.0
 10
18.527027772
 20
19.6739737832
 30
0.0
 10
18.5267500092
 20
19.794061357
 30
0.0
 10
18.5266083956
 20
19.9071906244
 30
0.0
 10
18.5266030284
 20
20.0127302589
 30
0.0
 10
18.5267351193
 20
20.1100876578
 30
0.0
 10
18.5269984624
 20
20.1987270013
 30
0.0
 10
18.5274067177
 20
20.2781266783
 30
0.0
 10
18.5279068714
 20
20.347924341
 30
0.0
 10
18.5286429671
 20
20.4074849858
 30
0.0
 10
18.5291784156
 20
20.4571797846
 30
0.0
 10
18.530657481
 20
20.4948331645
 30
0.0
 10
18.5302261758
 20
20.5248781507
 30
0.0
 10
18.5336303685
 20
20.5376314179
 30
0.0
 10
18.5319197026
 20
20.549334508
 30
0.0
 10
18.5338367113
 20
20.5493685552
 30
0.0
 11
18.5338367113
 21
18.5496731649
 31
0.0
 11
18.5325818903
 21
18.6991089972
 31
0.0
 11
18.5314316376
 21
18.8477034178
 31
0.0
 11
18.5303924438
 21
18.9946311962
 31
0.0
 11
18.5294700564
 21
19.1390683505
 31
0.0
 11
18.5286696578
 21
19.2802076959
 31
0.0
 11
18.5279957029
 21
19.4172617178
 31
0.0
 11
18.5274519665
 21
19.5494632456
 31
0.0
 11
18.5270414839
 21
19.6760736323
 31
0.0
 11
18.5267665489
 21
19.7963849904
 31
0.0
 11
18.5266286956
 21
19.9097256903
 31
0.0
 11
18.5266286951
 21
20.0154616296
 31
0.0
 11
18.5267665476
 21
20.1130022867
 31
0.0
 11
18.5270414818
 21
20.2018019414
 31
0.0
 11
18.5274519636
 21
20.2813648019
 31
0.0
 11
18.5279956995
 21
20.3512458573
 31
0.0
 11
18.528669654
 21
20.4110544795
 31
0.0
 11
18.5294700524
 21
20.4604557999
 31
0.0
 11
18.5303924391
 21
20.4991740382
 31
0.0
 11
18.5314316342
 21
20.5269925108
 31
0.0
 11
18.5325818846
 21
20.5437551655
 31
0.0
 11
18.5338367113
 21
20.5493685552
 31
0.0
  0
SPLINE
  5
7FD
100
AcDbEntity
  8
ASSI
100
AcDbSpline
 62
253
  6
CONTINUOUS
 70
0
 71
3
 72
18
 73
14
 74
12
 42
0.0000001
 43
0.0000001
 44
0.0000000001
 12
-0.0399653798
 22
-0.0463930694
 32
0.0
 13
0.0030184974
 23
0.1997123179
 33
0.0
 40
0.0
 40
0.0
 40
0.0
 40
0.0
 40
0.0139590315
 40
0.047769296
 40
0.1001049001
 40
0.1699518094
 40
0.2559524615
 40
0.356434069
 40
0.4694416708
 40
0.5927763576
 40
0.7240381457
 40
0.8606727248
 40
1.0
 40
1.0
 40
1.0
 40
1.0
 10
25.7481783225
 20
-6.1945927607
 30
0.0
 10
25.7479923632
 20
-6.1948086282
 30
0.0
 10
25.7480472382
 20
-6.1887823242
 30
0.0
 10
25.7477920329
 20
-6.1845050857
 30
0.0
 10
25.7478162596
 20
-6.172885592
 30
0.0
 10
25.747791525
 20
-6.1595347646
 30
0.0
 10
25.7478753327
 20
-6.1422820278
 30
0.0
 10
25.7480077114
 20
-6.1224063041
 30
0.0
 10
25.7482078083
 20
-6.0999616823
 30
0.0
 10
25.7484651447
 20
-6.0754947665
 30
0.0
 10
25.7487770866
 20
-6.0494472598
 30
0.0
 10
25.7491370241
 20
-6.0223378875
 30
0.0
 10
25.7494036243
 20
-6.0039666022
 30
0.0
 10
25.7495438106
 20
-5.9946914779
 30
0.0
 11
25.7481783225
 21
-6.1945927607
 31
0.0
 11
25.7480093491
 21
-6.1916269475
 31
0.0
 11
25.7478751515
 21
-6.1848751835
 31
0.0
 11
25.7478073949
 21
-6.1744221445
 31
0.0
 11
25.7478073983
 21
-6.1604712632
 31
0.0
 11
25.7478751615
 21
-6.1432940456
 31
0.0
 11
25.7480093659
 21
-6.1232247876
 31
0.0
 11
25.7482073992
 21
-6.1006540686
 31
0.0
 11
25.7484654087
 21
-6.0760211503
 31
0.0
 11
25.7487783689
 21
-6.0498054283
 31
0.0
 11
25.7491402046
 21
-6.022517102
 31
0.0
 11
25.7495438106
 21
-5.9946914779
 31
0.0
  0
LINE
  5
7FE
100
AcDbEntity
  8
ASSI
100
AcDbLine
 62
253
  6
CONTINUOUS
 10
17.5512891177
 20
-1.2635790479
 11
17.5571950729
 21
-1.263661519
  0
SPLINE
  5
7FF
100
AcDbEntity
  8
ASSI
100
AcDbSpline
 62
253
  6
CONTINUOUS
 70
0
 71
3
 72
20
 73
16
 74
14
 42
0.0000001
 43
0.0000001
 44
0.0000000001
 12
0.2329425382
 22
0.3624791687
 32
0.0
 13
-0.1457651207
 23
0.4054699784
 33
0.0
 40
0.0
 40
0.0
 40
0.0
 40
0.0
 40
0.0366913991
 40
0.078580238
 40
0.1265219151
 40
0.1810240433
 40
0.2423761579
 40
0.310947834
 40
0.3872847501
 40
0.4718004568
 40
0.5643533046
 40
0.6643748347
 40
0.7710702193
 40
0.8833590514
 40
1.0
 40
1.0
 40
1.0
 40
1.0
 10
17.7451298058
 20
-16.9500748426
 30
0.0
 10
17.7479788017
 20
-16.9456415534
 30
0.0
 10
17.7528165509
 20
-16.935324708
 30
0.0
 10
17.7573945779
 20
-16.9176730973
 30
0.0
 10
17.7598130871
 20
-16.8970324852
 30
0.0
 10
17.7600743481
 20
-16.8734761965
 30
0.0
 10
17.7581800753
 20
-16.8470318532
 30
0.0
 10
17.7541187039
 20
-16.8176701962
 30
0.0
 10
17.7478686048
 20
-16.7853044957
 30
0.0
 10
17.7394254626
 20
-16.7498926341
 30
0.0
 10
17.7288480753
 20
-16.7115203179
 30
0.0
 10
17.7162835224
 20
-16.6704107307
 30
0.0
 10
17.7019680033
 20
-16.6268847696
 30
0.0
 10
17.6862104985
 20
-16.5813275629
 30
0.0
 10
17.6751595001
 20
-16.5503599621
 30
0.0
 10
17.6694921061
 20
-16.5345951611
 30
0.0
 11
17.7451298058
 21
-16.9500748426
 31
0.0
 11
17.7520617426
 21
-16.9358661927
 31
0.0
 11
17.7567960897
 21
-16.9184493256
 31
0.0
 11
17.7593629982
 21
-16.8979525572
 31
0.0
 11
17.7597591742
 21
-16.8744722879
 31
0.0
 11
17.7579813382
 21
-16.8480970379
 31
0.0
 11
17.7540265518
 21
-16.8188170839
 31
0.0
 11
17.7478712899
 21
-16.786506478
 31
0.0
 11
17.7394974246
 21
-16.7510666313
 31
0.0
 11
17.7289636612
 21
-16.7126042844
 31
0.0
 11
17.7164237856
 21
-16.6713722001
 31
0.0
 11
17.7021111798
 21
-16.6276845622
 31
0.0
 11
17.6863419773
 21
-16.5819440426
 31
0.0
 11
17.6694921061
 21
-16.5345951611
 31
0.0
  0
SPLINE
  5
800
100
AcDbEntity
  8
ASSI
100
AcDbSpline
 62
253
  6
CONTINUOUS
 70
0
 71
3
 72
17
 73
13
 74
11
 42
0.0000001
 43
0.0000001
 44
0.0000000001
 12
-0.0000033074
 22
-0.9176351221
 32
0.0
 13
0.3104348843
 23
-0.8635301964
 33
0.0
 40
0.0
 40
0.0
 40
0.0
 40
0.0
 40
0.0908917113
 40
0.1836781131
 40
0.2781771856
 40
0.3741492945
 40
0.4719129549
 40
0.5721420408
 40
0.6749603653
 40
0.780466312
 40
0.88880204
 40
1.0
 40
1.0
 40
1.0
 40
1.0
 10
17.5571950763
 20
-15.6284722438
 30
0.0
 10
17.5571949761
 20
-15.6562740526
 30
0.0
 10
17.5574730579
 20
-15.7124576533
 30
0.0
 10
17.5588227654
 20
-15.7975373155
 30
0.0
 10
17.5614000731
 20
-15.8841449889
 30
0.0
 10
17.565651185
 20
-15.9722137875
 30
0.0
 10
17.5721728812
 20
-16.0619057777
 30
0.0
 10
17.5817100319
 20
-16.1534405356
 30
0.0
 10
17.5951352928
 20
-16.2468893439
 30
0.0
 10
17.6134038759
 20
-16.3420542566
 30
0.0
 10
17.6375368244
 20
-16.4385597872
 30
0.0
 10
17.6579855308
 20
-16.5025875624
 30
0.0
 10
17.6694921061
 20
-16.5345951611
 30
0.0
 11
17.5571950763
 21
-15.6284722438
 31
0.0
 11
17.5576203232
 21
-15.7118765862
 31
0.0
 11
17.5590096785
 21
-15.7970093111
 31
0.0
 11
17.5616515639
 21
-15.8836847258
 31
0.0
 11
17.5659783108
 21
-15.971645753
 31
0.0
 11
17.5725777209
 21
-16.0611140569
 31
0.0
 11
17.5822120261
 21
-16.1525817949
 31
0.0
 11
17.5957379885
 21
-16.2459569271
 31
0.0
 11
17.6141023744
 21
-16.3410152244
 31
0.0
 11
17.6383347356
 21
-16.4374292868
 31
0.0
 11
17.6694921061
 21
-16.5345951611
 31
0.0
  0
SPLINE
  5
801
100
AcDbEntity
  8
ASSI
100
AcDbSpline
 62
253
  6
CONTINUOUS
 70
0
 71
3
 72
23
 73
19
 74
17
 42
0.0000001
 43
0.0000001
 44
0.0000000001
 12
-0.0156964987
 22
-1.7988358815
 32
0.0
 13
0.0166332038
 23
-1.798827464
 33
0.0
 40
0.0
 40
0.0
 40
0.0
 40
0.0
 40
0.0776756575
 40
0.1549683931
 40
0.2315031562
 40
0.3069048205
 40
0.3808051193
 40
0.4528434225
 40
0.5226676716
 40
0.5899365757
 40
0.6543215835
 40
0.7155083193
 40
0.7731979553
 40
0.8271086872
 40
0.8769771767
 40
0.9225598943
 40
0.9636343304
 40
1.0
 40
1.0
 40
1.0
 40
1.0
 10
18.5338367113
 20
-15.6284722437
 30
0.0
 10
18.5334302993
 20
-15.675047497
 30
0.0
 10
18.5326482339
 20
-15.7679686523
 30
0.0
 10
18.5315642955
 20
-15.9067817746
 30
0.0
 10
18.5305765807
 20
-16.0442320155
 30
0.0
 10
18.5296895107
 20
-16.1796486769
 30
0.0
 10
18.5289075681
 20
-16.3123697071
 30
0.0
 10
18.5282344887
 20
-16.4417468785
 30
0.0
 10
18.5276735331
 20
-16.5671481321
 30
0.0
 10
18.5272273797
 20
-16.6879606358
 30
0.0
 10
18.5268981275
 20
-16.803594143
 30
0.0
 10
18.5266872692
 20
-16.9134838567
 30
0.0
 10
18.5265956934
 20
-17.0170929952
 30
0.0
 10
18.5266236621
 20
-17.1139153608
 30
0.0
 10
18.5267708004
 20
-17.2034778856
 30
0.0
 10
18.527035928
 20
-17.2853430253
 30
0.0
 10
18.5274174207
 20
-17.3591108515
 30
0.0
 10
18.5277688508
 20
-17.4055453758
 30
0.0
 10
18.5279704767
 20
-17.4273505642
 30
0.0
 11
18.5338367113
 21
-15.6284722437
 31
0.0
 11
18.5326604903
 21
-15.7681983723
 31
0.0
 11
18.5315752452
 21
-15.9072363763
 31
0.0
 11
18.5305863841
 21
-16.0449115444
 31
0.0
 11
18.5296986613
 21
-16.1805490224
 31
0.0
 11
18.5289164538
 21
-16.3134862911
 31
0.0
 11
18.5282435761
 21
-16.4430745621
 31
0.0
 11
18.5276833191
 21
-16.5686804589
 31
0.0
 11
18.5272384205
 21
-16.6896899661
 31
0.0
 11
18.5269110479
 21
-16.8055119751
 31
0.0
 11
18.5267027901
 21
-16.915580864
 31
0.0
 11
18.5266146613
 21
-17.0193589645
 31
0.0
 11
18.5266470997
 21
-17.1163392099
 31
0.0
 11
18.526799952
 21
-17.206047723
 31
0.0
 11
18.527072473
 21
-17.2880462198
 31
0.0
 11
18.5274633311
 21
-17.3619341683
 31
0.0
 11
18.5279704767
 21
-17.4273505642
 31
0.0
  0
SPLINE
  5
802
100
AcDbEntity
  8
ASSI
100
AcDbSpline
 62
253
  6
CONTINUOUS
 70
0
 71
3
 72
18
 73
14
 74
12
 42
0.0000001
 43
0.0000001
 44
0.0000000001
 12
-0.1904524588
 22
0.00332436
 32
0.0
 13
0.0032452953
 23
0.1904541549
 33
0.0
 40
0.0
 40
0.0
 40
0.0
 40
0.0
 40
0.0107643583
 40
0.0426278617
 40
0.0949848535
 40
0.1667761152
 40
0.2565427403
 40
0.3624588149
 40
0.4823692811
 40
0.6138340376
 40
0.7541777046
 40
0.9005441266
 40
1.0
 40
1.0
 40
1.0
 40
1.0
 10
18.5338367113
 20
-17.628167634
 30
0.0
 10
18.5331533451
 20
-17.6281557058
 30
0.0
 10
18.5343054969
 20
-17.6238534268
 30
0.0
 10
18.5329842928
 20
-17.6193478955
 30
0.0
 10
18.533625268
 20
-17.6085886362
 30
0.0
 10
18.5333601512
 20
-17.5953733093
 30
0.0
 10
18.5335741684
 20
-17.5782529769
 30
0.0
 10
18.5337145218
 20
-17.5582629161
 30
0.0
 10
18.5339768308
 20
-17.5355631583
 30
0.0
 10
18.534290139
 20
-17.5106981683
 30
0.0
 10
18.5346692102
 20
-17.4841479265
 30
0.0
 10
18.5350507668
 20
-17.4596321021
 30
0.0
 10
18.5353102064
 20
-17.444026032
 30
0.0
 10
18.5354177943
 20
-17.4377121039
 30
0.0
 11
18.5338367113
 21
-17.628167634
 31
0.0
 11
18.5336239489
 21
-17.6261282918
 31
0.0
 11
18.5334865593
 21
-17.6200604401
 31
0.0
 11
18.5334273388
 21
-17.6100875792
 31
0.0
 11
18.5334474927
 21
-17.5964126889
 31
0.0
 11
18.5335466109
 21
-17.5793140975
 31
0.0
 11
18.533722676
 21
-17.5591398162
 31
0.0
 11
18.5339721043
 21
-17.5363004563
 31
0.0
 11
18.5342898194
 21
-17.5112608718
 31
0.0
 11
18.5346693546
 21
-17.4845306981
 31
0.0
 11
18.5351029852
 21
-17.4566539793
 31
0.0
 11
18.5354177943
 21
-17.4377121039
 31
0.0
  0
LINE
  5
803
100
AcDbEntity
  8
ASSI
100
AcDbLine
 62
253
  6
CONTINUOUS
 10
18.5354177943
 20
-17.4377121039
 11
18.5355818855
 21
-17.428198095
  0
SPLINE
  5
804
100
AcDbEntity
  8
ASSI
100
AcDbSpline
 62
253
  6
CONTINUOUS
 70
0
 71
3
 72
18
 73
14
 74
12
 42
0.0000001
 43
0.0000001
 44
0.0000000001
 12
-0.0030185038
 22
0.1997127454
 32
0.0
 13
0.0399364405
 23
-0.0463746429
 33
0.0
 40
0.0
 40
0.0
 40
0.0
 40
0.0
 40
0.1393592561
 40
0.2759926018
 40
0.4072525573
 40
0.5305848485
 40
0.6435895377
 40
0.7440677724
 40
0.8300646567
 40
0.8999074768
 40
0.9522387499
 40
0.9860445265
 40
1.0
 40
1.0
 40
1.0
 40
1.0
 10
25.7495438106
 20
-3.4841076009
 30
0.0
 10
25.7494035918
 20
-3.4748303277
 30
0.0
 10
25.7491369962
 20
-3.4564569557
 30
0.0
 10
25.7487770765
 20
-3.4293455998
 30
0.0
 10
25.748465109
 20
-3.4032984017
 30
0.0
 10
25.7482077903
 20
-3.3788319075
 30
0.0
 10
25.7480076978
 20
-3.3563878199
 30
0.0
 10
25.7478753152
 20
-3.3365127089
 30
0.0
 10
25.747791546
 20
-3.319260727
 30
0.0
 10
25.7478161957
 20
-3.305910551
 30
0.0
 10
25.7477921955
 20
-3.2942922543
 30
0.0
 10
25.748046964
 20
-3.2900149777
 30
0.0
 10
25.7479926314
 20
-3.2839904636
 30
0.0
 10
25.7481784087
 20
-3.2842061903
 30
0.0
 11
25.7495438106
 21
-3.4841076009
 31
0.0
 11
25.7491401457
 21
-3.4562755297
 31
0.0
 11
25.7487783461
 21
-3.4289873909
 31
0.0
 11
25.7484653794
 21
-3.4027719789
 31
0.0
 11
25.7482073787
 21
-3.3781394863
 31
0.0
 11
25.7480093503
 21
-3.3555693007
 31
0.0
 11
25.7478751522
 21
-3.3355006734
 31
0.0
 11
25.7478073952
 21
-3.3183241716
 31
0.0
 11
25.7478073981
 21
-3.3043740771
 31
0.0
 11
25.7478751608
 21
-3.2939218809
 31
0.0
 11
25.7480093648
 21
-3.2871709991
 31
0.0
 11
25.7481784087
 21
-3.2842061903
 31
0.0
  0
SPLINE
  5
805
100
AcDbEntity
  8
ASSI
100
AcDbSpline
 62
253
  6
CONTINUOUS
 70
0
 71
3
 72
19
 73
15
 74
13
 42
0.0000001
 43
0.0000001
 44
0.0000000001
 12
-0.0034902953
 22
0.2000198081
 32
0.0
 13
0.2000197895
 23
0.0034913584
 33
0.0
 40
0.0
 40
0.0
 40
0.0
 40
0.0
 40
0.1303448061
 40
0.2585838512
 40
0.3823958868
 40
0.4996683038
 40
0.6083904046
 40
0.7067049826
 40
0.79293127
 40
0.8655965274
 40
0.9234616001
 40
0.9655449591
 40
0.991150737
 40
1.0
 40
1.0
 40
1.0
 40
1.0
 10
43.7477986364
 20
23.4895103587
 30
0.0
 10
43.7476469891
 20
23.4982008731
 30
0.0
 10
43.7473656856
 20
23.5154418289
 30
0.0
 10
43.7470083894
 20
23.5409389121
 30
0.0
 10
43.7467233162
 20
23.5655647001
 30
0.0
 10
43.7465142226
 20
23.5888912614
 30
0.0
 10
43.7463880833
 20
23.6105130858
 30
0.0
 10
43.7463346923
 20
23.6300812578
 30
0.0
 10
43.74639144
 20
23.6471947439
 30
0.0
 10
43.7464453688
 20
23.6617578107
 30
0.0
 10
43.7467980043
 20
23.6729772031
 30
0.0
 10
43.7466752884
 20
23.6820175409
 30
0.0
 10
43.7476399216
 20
23.6859127567
 30
0.0
 10
43.7472086272
 20
23.6894695991
 30
0.0
 10
43.7477986364
 20
23.6894798977
 30
0.0
 11
43.7477986364
 21
23.4895103587
 31
0.0
 11
43.7473734802
 21
23.5155824045
 31
0.0
 11
43.7470148543
 21
23.5412341518
 31
0.0
 11
43.7467293411
 21
23.5660011359
 31
0.0
 11
43.7465218178
 21
23.5894605953
 31
0.0
 11
43.7463958474
 21
23.6112101148
 31
0.0
 11
43.7463535833
 21
23.6308779261
 31
0.0
 11
43.7463957501
 21
23.6481274656
 31
0.0
 11
43.7465216271
 21
23.6626636241
 31
0.0
 11
43.7467290618
 21
23.6742376881
 31
0.0
 11
43.7470145056
 21
23.6826516345
 31
0.0
 11
43.7473730755
 21
23.6877615117
 31
0.0
 11
43.7477986364
 21
23.6894798977
 31
0.0
  0
SPLINE
  5
806
100
AcDbEntity
  8
ASSI
100
AcDbSpline
 62
253
  6
CONTINUOUS
 70
0
 71
3
 72
19
 73
15
 74
13
 42
0.0000001
 43
0.0000001
 44
0.0000000001
 12
-0.2000197895
 22
0.0034913584
 32
0.0
 13
0.0034902953
 23
0.2000198081
 33
0.0
 40
0.0
 40
0.0
 40
0.0
 40
0.0
 40
0.008849263
 40
0.0344550409
 40
0.0765383999
 40
0.1344034726
 40
0.20706873
 40
0.2932950174
 40
0.3916095954
 40
0.5003316962
 40
0.6176041132
 40
0.7414161488
 40
0.8696551939
 40
1.0
 40
1.0
 40
1.0
 40
1.0
 10
43.7477986364
 20
-20.7682789765
 30
0.0
 10
43.7472086272
 20
-20.7682686779
 30
0.0
 10
43.7476399216
 20
-20.7647118355
 30
0.0
 10
43.7466752884
 20
-20.7608166198
 30
0.0
 10
43.7467980043
 20
-20.7517762819
 30
0.0
 10
43.7464453688
 20
-20.7405568895
 30
0.0
 10
43.74639144
 20
-20.7259938228
 30
0.0
 10
43.7463346923
 20
-20.7088803366
 30
0.0
 10
43.7463880833
 20
-20.6893121646
 30
0.0
 10
43.7465142226
 20
-20.6676903402
 30
0.0
 10
43.7467233162
 20
-20.6443637789
 30
0.0
 10
43.7470083894
 20
-20.6197379909
 30
0.0
 10
43.7473656856
 20
-20.5942409077
 30
0.0
 10
43.7476469891
 20
-20.5769999519
 30
0.0
 10
43.7477986364
 20
-20.5683094375
 30
0.0
 11
43.7477986364
 21
-20.7682789765
 31
0.0
 11
43.7473730755
 21
-20.7665605905
 31
0.0
 11
43.7470145056
 21
-20.7614507133
 31
0.0
 11
43.7467290618
 21
-20.753036767
 31
0.0
 11
43.7465216271
 21
-20.7414627029
 31
0.0
 11
43.7463957501
 21
-20.7269265444
 31
0.0
 11
43.7463535833
 21
-20.7096770049
 31
0.0
 11
43.7463958474
 21
-20.6900091937
 31
0.0
 11
43.7465218178
 21
-20.6682596741
 31
0.0
 11
43.7467293411
 21
-20.6448002147
 31
0.0
 11
43.7470148543
 21
-20.6200332306
 31
0.0
 11
43.7473734802
 21
-20.5943814833
 31
0.0
 11
43.7477986364
 21
-20.5683094375
 31
0.0
  0
SPLINE
  5
807
100
AcDbEntity
  8
ASSI
100
AcDbSpline
 62
253
  6
CONTINUOUS
 70
0
 71
3
 72
10
 73
6
 74
4
 42
0.0000001
 43
0.0000001
 44
0.0000000001
 12
-0.0136688867
 22
-0.0042647325
 32
0.0
 13
-0.0019241158
 23
0.0007697978
 33
0.0
 40
0.0
 40
0.0
 40
0.0
 40
0.0
 40
0.560101056
 40
0.895423368
 40
1.0
 40
1.0
 40
1.0
 40
1.0
 10
17.6694916005
 20
-16.5345947655
 30
0.0
 10
17.6669396145
 20
-16.5353909926
 30
0.0
 10
17.6623908928
 20
-16.5367546363
 30
0.0
 10
17.6589647752
 20
-16.5378874429
 30
0.0
 10
17.6558222102
 20
-16.5386822481
 30
0.0
 10
17.6557551377
 20
-16.5386554138
 30
0.0
 11
17.6694916005
 21
-16.5345947655
 31
0.0
 11
17.6618284534
 21
-16.5369602814
 31
0.0
 11
17.6572239407
 21
-16.5383211078
 31
0.0
 11
17.6557551377
 21
-16.5386554138
 31
0.0
  0
SPLINE
  5
808
100
AcDbEntity
  8
CURVE
100
AcDbSpline
 62
253
  6
CONTINUOUS
 70
0
 71
3
 72
23
 73
19
 74
17
 42
0.0000001
 43
0.0000001
 44
0.0000000001
 12
-0.1415656465
 22
2.5449463593
 32
0.0
 13
2.4921956844
 23
0.5310182311
 33
0.0
 40
0.0
 40
0.0
 40
0.0
 40
0.0
 40
0.0625
 40
0.125
 40
0.1875
 40
0.25
 40
0.3125
 40
0.375
 40
0.4375
 40
0.5
 40
0.5625
 40
0.625
 40
0.6875
 40
0.75
 40
0.8125
 40
0.875
 40
0.9375
 40
1.0
 40
1.0
 40
1.0
 40
1.0
 10
37.4178675018
 20
-14.5394023056
 30
0.0
 10
37.4149182175
 20
-14.4863825898
 30
0.0
 10
37.4137134237
 20
-14.3800217843
 30
0.0
 10
37.4260143775
 20
-14.220993783
 30
0.0
 10
37.4523237316
 20
-14.0636636157
 30
0.0
 10
37.4924363196
 20
-13.9092799626
 30
0.0
 10
37.5460377045
 20
-13.7590476981
 30
0.0
 10
37.6127081034
 20
-13.6141447331
 30
0.0
 10
37.6919252832
 20
-13.4757057476
 30
0.0
 10
37.783068759
 20
-13.3448151886
 30
0.0
 10
37.8854246161
 20
-13.2224982728
 30
0.0
 10
37.9981911451
 20
-13.109713084
 30
0.0
 10
38.1204849871
 20
-13.0073430606
 30
0.0
 10
38.2513485484
 20
-12.9161899801
 30
0.0
 10
38.3897556533
 20
-12.83696807
 30
0.0
 10
38.5346264774
 20
-12.7702969449
 30
0.0
 10
38.6848102708
 20
-12.7167022362
 30
0.0
 10
38.787730368
 20
-12.6899614192
 30
0.0
 10
38.8396511114
 20
-12.6788985394
 30
0.0
 11
37.4178675018
 21
-14.5394023056
 31
0.0
 11
37.4160647811
 21
-14.3801073188
 31
0.0
 11
37.4283491109
 21
-14.2212767554
 31
0.0
 11
37.4546242706
 21
-14.0641547014
 31
0.0
 11
37.4946844524
 21
-13.9099718607
 31
0.0
 11
37.5482158735
 21
-13.7599359147
 31
0.0
 11
37.6147992335
 21
-13.615222063
 31
0.0
 11
37.6939129992
 21
-13.4769638187
 31
0.0
 11
37.7849374893
 21
-13.3462441291
 31
0.0
 11
37.8871597281
 21
-13.224086894
 31
0.0
 11
37.9997790306
 21
-13.1114489449
 31
0.0
 11
38.1219132736
 21
-13.0092125511
 31
0.0
 11
38.2526058057
 21
-12.9181785085
 31
0.0
 11
38.3908329399
 21
-12.8390598675
 31
0.0
 11
38.5355119723
 21
-12.7724763476
 31
0.0
 11
38.6855096629
 21
-12.7189494834
 31
0.0
 11
38.8396511114
 21
-12.6788985394
 31
0.0
  0
SPLINE
  5
809
100
AcDbEntity
  8
CURVE
100
AcDbSpline
 62
253
  6
CONTINUOUS
 70
0
 71
3
 72
48
 73
44
 74
42
 42
0.0000001
 43
0.0000001
 44
0.0000000001
 12
0.3141744824
 22
8.0074808747
 32
0.0
 13
-0.2999384425
 23
-8.0105143095
 33
0.0
 40
0.0
 40
0.0
 40
0.0
 40
0.0
 40
0.0243902439
 40
0.0487804878
 40
0.0731707317
 40
0.0975609756
 40
0.1219512195
 40
0.1463414634
 40
0.1707317073
 40
0.1951219512
 40
0.2195121951
 40
0.243902439
 40
0.2682926829
 40
0.2926829268
 40
0.3170731707
 40
0.3414634146
 40
0.3658536585
 40
0.3902439024
 40
0.4146341463
 40
0.4390243902
 40
0.4634146341
 40
0.487804878
 40
0.512195122
 40
0.5365853659
 40
0.5609756098
 40
0.5853658537
 40
0.6097560976
 40
0.6341463415
 40
0.6585365854
 40
0.6829268293
 40
0.7073170732
 40
0.7317073171
 40
0.756097561
 40
0.7804878049
 40
0.8048780488
 40
0.8292682927
 40
0.8536585366
 40
0.8780487805
 40
0.9024390244
 40
0.9268292683
 40
0.9512195122
 40
0.9756097561
 40
1.0
 40
1.0
 40
1.0
 40
1.0
 10
41.7617977939
 20
-14.5394025394
 30
0.0
 10
41.7643520579
 20
-14.4743010689
 30
0.0
 10
41.7644694217
 20
-14.3438468958
 30
0.0
 10
41.7496627098
 20
-14.148771342
 30
0.0
 10
41.7199624359
 20
-13.95539137
 30
0.0
 10
41.6755425003
 20
-13.7648581599
 30
0.0
 10
41.6166640311
 20
-13.5782870712
 30
0.0
 10
41.5436729009
 20
-13.3967753023
 30
0.0
 10
41.4569979485
 20
-13.221388957
 30
0.0
 10
41.3571483919
 20
-13.053158519
 30
0.0
 10
41.2447108545
 20
-12.8930723321
 30
0.0
 10
41.1203459139
 20
-12.7420709186
 30
0.0
 10
40.9847842222
 20
-12.6010414201
 30
0.0
 10
40.838822213
 20
-12.4708123944
 30
0.0
 10
40.6833174227
 20
-12.3521489454
 30
0.0
 10
40.5191834518
 20
-12.2457482284
 30
0.0
 10
40.3473845981
 20
-12.1522353546
 30
0.0
 10
40.1689301909
 20
-12.0721597181
 30
0.0
 10
39.9848686615
 20
-12.0059917685
 30
0.0
 10
39.7962813831
 20
-11.9541202468
 30
0.0
 10
39.6042763183
 20
-11.9168499014
 30
0.0
 10
39.4099815091
 20
-11.8943996982
 30
0.0
 10
39.2145384502
 20
-11.8869015334
 30
0.0
 10
39.0190953822
 20
-11.8943994594
 30
0.0
 10
38.8248005456
 20
-11.9168494252
 30
0.0
 10
38.6327954353
 20
-11.9541195358
 30
0.0
 10
38.4442080935
 20
-12.0059908271
 30
0.0
 10
38.2601464833
 20
-12.0721585518
 30
0.0
 10
38.0816919783
 20
-12.1522339701
 30
0.0
 10
37.9098930104
 20
-12.245746634
 30
0.0
 10
37.7457589096
 20
-12.3521471504
 30
0.0
 10
37.5902539743
 20
-12.4708104094
 30
0.0
 10
37.4442918061
 20
-12.6010392567
 30
0.0
 10
37.3087299421
 20
-12.7420685896
 30
0.0
 10
37.1843648171
 20
-12.8930698511
 30
0.0
 10
37.0719270841
 20
-13.0531559005
 30
0.0
 10
36.9720773221
 20
-13.2213862166
 30
0.0
 10
36.8854021555
 20
-13.396772456
 30
0.0
 10
36.8124108036
 20
-13.5782841356
 30
0.0
 10
36.7535321066
 20
-13.7648551523
 30
0.0
 10
36.7091119382
 20
-13.9553883082
 30
0.0
 10
36.6794114282
 20
-14.1487682439
 30
0.0
 10
36.6695401281
 20
-14.278818601
 30
0.0
 10
36.6671016042
 20
-14.3439447336
 30
0.0
 11
41.7617977939
 21
-14.5394025394
 31
0.0
 11
41.7619722954
 21
-14.3439478467
 31
0.0
 11
41.7471804495
 21
-14.1490539389
 31
0.0
 11
41.7175091589
 21
-13.9558658303
 31
0.0
 11
41.6731327447
 21
-13.7655185134
 31
0.0
 11
41.6143119209
 21
-13.5791302911
 31
0.0
 11
41.5413922639
 21
-13.3977962062
 31
0.0
 11
41.4548021811
 21
-13.2225816082
 31
0.0
 11
41.3550503951
 21
-13.0545158942
 31
0.0
 11
41.242722954
 21
-12.894586461
 31
0.0
 11
41.1184797887
 21
-12.7437329044
 31
0.0
 11
40.983050836
 21
-12.6028414989
 31
0.0
 11
40.8372317495
 21
-12.4727399905
 31
0.0
 11
40.6818792259
 21
-12.354192734
 31
0.0
 11
40.5179059713
 21
-12.2478962022
 31
0.0
 11
40.3462753392
 21
-12.1544748941
 31
0.0
 11
40.1679956705
 21
-12.0744776659
 31
0.0
 11
39.98411437
 21
-12.0083745065
 31
0.0
 11
39.795711752
 21
-11.9565537762
 31
0.0
 11
39.6038946942
 21
-11.9193199251
 31
0.0
 11
39.4097901342
 21
-11.8968917046
 31
0.0
 11
39.2145384487
 21
-11.8894008819
 31
0.0
 11
39.0192867541
 21
-11.896891466
 31
0.0
 11
38.8251821666
 21
-11.9193194493
 31
0.0
 11
38.6333650634
 21
-11.9565530659
 31
0.0
 11
38.4449623821
 21
-12.008373566
 31
0.0
 11
38.2610810008
 21
-12.0744765007
 31
0.0
 11
38.0828012345
 21
-12.1544735111
 31
0.0
 11
37.9111704883
 21
-12.2478946094
 31
0.0
 11
37.7471971038
 21
-12.3541909408
 31
0.0
 11
37.5918444355
 21
-12.4727380075
 31
0.0
 11
37.4460251901
 21
-12.6028393377
 31
0.0
 11
37.3105960653
 21
-12.7437305777
 31
0.0
 11
37.1863527157
 21
-12.8945839824
 31
0.0
 11
37.0740250793
 21
-13.0545132783
 31
0.0
 11
36.974273088
 21
-13.2225788705
 31
0.0
 11
36.8876827913
 21
-13.3977933627
 31
0.0
 11
36.8147629128
 21
-13.5791273584
 31
0.0
 11
36.7559418614
 21
-13.7655155089
 31
0.0
 11
36.7115652146
 21
-13.9558627715
 31
0.0
 11
36.6818936882
 21
-14.1490508439
 31
0.0
 11
36.6671016042
 21
-14.3439447336
 31
0.0
  0
SPLINE
  5
80A
100
AcDbEntity
  8
CURVE
100
AcDbSpline
 62
253
  6
CONTINUOUS
 70
0
 71
3
 72
23
 73
19
 74
17
 42
0.0000001
 43
0.0000001
 44
0.0000000001
 12
2.4921982709
 22
-0.5310173661
 32
0.0
 13
-0.1415616218
 23
-2.5449489372
 33
0.0
 40
0.0
 40
0.0
 40
0.0
 40
0.0
 40
0.0625
 40
0.125
 40
0.1875
 40
0.25
 40
0.3125
 40
0.375
 40
0.4375
 40
0.5
 40
0.5625
 40
0.625
 40
0.6875
 40
0.75
 40
0.8125
 40
0.875
 40
0.9375
 40
1.0
 40
1.0
 40
1.0
 40
1.0
 10
39.5894223492
 20
-12.6788953587
 30
0.0
 10
39.6413431465
 20
-12.6899582205
 30
0.0
 10
39.7442633538
 20
-12.7166990026
 30
0.0
 10
39.89444732
 20
-12.7702936636
 30
0.0
 10
40.0393183249
 20
-12.8369647467
 30
0.0
 10
40.177725619
 20
-12.9161866215
 30
0.0
 10
40.3085893783
 20
-13.0073396746
 30
0.0
 10
40.4308834268
 20
-13.1097096798
 30
0.0
 10
40.5436501707
 20
-13.2224948612
 30
0.0
 10
40.6460062508
 20
-13.3448117816
 30
0.0
 10
40.7371499573
 20
-13.4757023586
 30
0.0
 10
40.8163673748
 20
-13.6141413772
 30
0.0
 10
40.8830380174
 20
-13.7590443915
 30
0.0
 10
40.9366396508
 20
-13.9092767232
 30
0.0
 10
40.976752491
 20
-14.0636604624
 30
0.0
 10
41.0030620994
 20
-14.2209907359
 30
0.0
 10
41.0153633079
 20
-14.3800188647
 30
0.0
 10
41.014158683
 20
-14.4863797699
 30
0.0
 10
41.0112094826
 20
-14.5393995394
 30
0.0
 11
39.5894223492
 21
-12.6788953587
 31
0.0
 11
39.743563963
 21
-12.7189462506
 31
0.0
 11
39.8935618264
 21
-12.7724730673
 31
0.0
 11
40.0382410398
 21
-12.8390565453
 31
0.0
 11
40.1764683632
 21
-12.9181751512
 31
0.0
 11
40.3071610931
 21
-13.0092091666
 31
0.0
 11
40.4292955427
 21
-13.1114455425
 31
0.0
 11
40.54191506
 21
-13.2240834844
 31
0.0
 11
40.6441375219
 21
-13.3462407243
 31
0.0
 11
40.7351622425
 21
-13.4769604322
 31
0.0
 11
40.8142762457
 21
-13.6152187098
 31
0.0
 11
40.8808598492
 21
-13.7599326111
 31
0.0
 11
40.9343915186
 21
-13.9099686244
 31
0.0
 11
40.9744519524
 21
-14.0641515514
 31
0.0
 11
41.0007273661
 21
-14.2212737118
 31
0.0
 11
41.0130119503
 21
-14.3801044028
 31
0.0
 11
41.0112094826
 21
-14.5393995394
 31
0.0
  0
SPLINE
  5
80B
100
AcDbEntity
  8
CURVE
100
AcDbSpline
 62
253
  6
CONTINUOUS
 70
0
 71
3
 72
44
 73
40
 74
38
 42
0.0000001
 43
0.0000001
 44
0.0000000001
 12
-0.3165227235
 22
5.6903492257
 32
0.0
 13
0.1710073674
 23
-5.6987870096
 33
0.0
 40
0.0
 40
0.0
 40
0.0
 40
0.0
 40
0.027027027
 40
0.0540540541
 40
0.0810810811
 40
0.1081081081
 40
0.1351351351
 40
0.1621621622
 40
0.1891891892
 40
0.2162162162
 40
0.2432432432
 40
0.2702702703
 40
0.2972972973
 40
0.3243243243
 40
0.3513513514
 40
0.3783783784
 40
0.4054054054
 40
0.4324324324
 40
0.4594594595
 40
0.4864864865
 40
0.5135135135
 40
0.5405405405
 40
0.5675675676
 40
0.5945945946
 40
0.6216216216
 40
0.6486486486
 40
0.6756756757
 40
0.7027027027
 40
0.7297297297
 40
0.7567567568
 40
0.7837837838
 40
0.8108108108
 40
0.8378378378
 40
0.8648648649
 40
0.8918918919
 40
0.9189189189
 40
0.9459459459
 40
0.972972973
 40
1.0
 40
1.0
 40
1.0
 40
1.0
 10
37.4178642943
 20
-10.1542894285
 30
0.0
 10
37.4150127382
 20
-10.103025021
 30
0.0
 10
37.4136974763
 20
-10.0001976426
 30
0.0
 10
37.4249140297
 20
-9.8463961698
 30
0.0
 10
37.4492348261
 20
-9.6941053854
 30
0.0
 10
37.4864825934
 20
-9.5444552485
 30
0.0
 10
37.5363843566
 20
-9.398537644
 30
0.0
 10
37.5985747586
 20
-9.2574221454
 30
0.0
 10
37.6725983812
 20
-9.1221418166
 30
0.0
 10
37.757913175
 20
-8.9936873524
 30
0.0
 10
37.8538944034
 20
-8.8729993673
 30
0.0
 10
37.9598392238
 20
-8.7609616301
 30
0.0
 10
38.0749718327
 20
-8.6583945594
 30
0.0
 10
38.1984491474
 20
-8.5660492244
 30
0.0
 10
38.3293669793
 20
-8.4846018434
 30
0.0
 10
38.4667666547
 20
-8.4146488321
 30
0.0
 10
38.6096420355
 20
-8.356702436
 30
0.0
 10
38.7569468867
 20
-8.31118698
 30
0.0
 10
38.9076025373
 20
-8.2784357605
 30
0.0
 10
39.0605057795
 20
-8.2586886054
 30
0.0
 10
39.2145369471
 20
-8.2520901172
 30
0.0
 10
39.3685681143
 20
-8.2586886149
 30
0.0
 10
39.5214713553
 20
-8.2784357795
 30
0.0
 10
39.6721270039
 20
-8.3111870082
 30
0.0
 10
39.8194318523
 20
-8.3567024734
 30
0.0
 10
39.9623072296
 20
-8.4146488782
 30
0.0
 10
40.0997069006
 20
-8.4846018981
 30
0.0
 10
40.2306247274
 20
-8.5660492872
 30
0.0
 10
40.3541020365
 20
-8.6583946297
 30
0.0
 10
40.4692346391
 20
-8.7609617076
 30
0.0
 10
40.5751794525
 20
-8.8729994513
 30
0.0
 10
40.6711606734
 20
-8.9936874423
 30
0.0
 10
40.7564754593
 20
-9.1221419118
 30
0.0
 10
40.8304990736
 20
-9.2574222452
 30
0.0
 10
40.8926894669
 20
-9.3985377476
 30
0.0
 10
40.9425912211
 20
-9.5444553552
 30
0.0
 10
40.9798389792
 20
-9.6941054944
 30
0.0
 10
41.0041597662
 20
-9.8463962803
 30
0.0
 10
41.0116374621
 20
-9.948930596
 30
0.0
 10
41.013178069
 20
-10.0002710195
 30
0.0
 11
37.4178642943
 21
-10.1542894285
 31
0.0
 11
37.4158957173
 21
-10.0002709084
 31
0.0
 11
37.4270980702
 21
-9.8466479512
 31
0.0
 11
37.4513893212
 21
-9.6945454933
 31
0.0
 11
37.4885915927
 21
-9.5450773372
 31
0.0
 11
37.5384324631
 21
-9.399337995
 31
0.0
 11
37.600546962
 21
-9.2583946737
 31
0.0
 11
37.6744802431
 21
-9.1232794607
 31
0.0
 11
37.7596909141
 21
-8.9949817656
 31
0.0
 11
37.8555550021
 21
-8.8744410753
 31
0.0
 11
37.9613705219
 21
-8.7625400745
 31
0.0
 11
38.076362617
 21
-8.660098182
 31
0.0
 11
38.1996892336
 21
-8.5678655501
 31
0.0
 11
38.3304472865
 21
-8.4865175717
 31
0.0
 11
38.4676792722
 21
-8.4166499346
 31
0.0
 11
38.6103802806
 21
-8.3587742594
 31
0.0
 11
38.7575053533
 21
-8.3133143528
 31
0.0
 11
38.9079771359
 21
-8.2806031046
 31
0.0
 11
39.0606937671
 21
-8.2608800499
 31
0.0
 11
39.214536947
 21
-8.2542896149
 31
0.0
 11
39.3683801266
 21
-8.2608800594
 31
0.0
 11
39.5210967566
 21
-8.2806031235
 31
0.0
 11
39.6715685372
 21
-8.313314381
 31
0.0
 11
39.8186936071
 21
-8.3587742967
 31
0.0
 11
39.9613946119
 21
-8.4166499807
 31
0.0
 11
40.0986265933
 21
-8.4865176263
 31
0.0
 11
40.2293846411
 21
-8.5678656127
 31
0.0
 11
40.3527112521
 21
-8.6600982523
 31
0.0
 11
40.4677033409
 21
-8.7625401519
 31
0.0
 11
40.5735188538
 21
-8.8744411592
 31
0.0
 11
40.6693829343
 21
-8.9949818554
 31
0.0
 11
40.7545935974
 21
-9.1232795558
 31
0.0
 11
40.8285268701
 21
-9.2583947734
 31
0.0
 11
40.8906413604
 21
-9.3993380985
 31
0.0
 11
40.9404822218
 21
-9.5450774438
 31
0.0
 11
40.977684484
 21
-9.6945456022
 31
0.0
 11
41.0019757257
 21
-9.8466480615
 31
0.0
 11
41.013178069
 21
-10.0002710195
 31
0.0
  0
SPLINE
  5
80C
100
AcDbEntity
  8
CURVE
100
AcDbSpline
 62
253
  6
CONTINUOUS
 70
0
 71
3
 72
48
 73
44
 74
42
 42
0.0000001
 43
0.0000001
 44
0.0000000001
 12
0.3141649428
 22
8.0074779528
 32
0.0
 13
-0.299938095
 23
-8.0105110234
 33
0.0
 40
0.0
 40
0.0
 40
0.0
 40
0.0
 40
0.0243902439
 40
0.0487804878
 40
0.0731707317
 40
0.0975609756
 40
0.1219512195
 40
0.1463414634
 40
0.1707317073
 40
0.1951219512
 40
0.2195121951
 40
0.243902439
 40
0.2682926829
 40
0.2926829268
 40
0.3170731707
 40
0.3414634146
 40
0.3658536585
 40
0.3902439024
 40
0.4146341463
 40
0.4390243902
 40
0.4634146341
 40
0.487804878
 40
0.512195122
 40
0.5365853659
 40
0.5609756098
 40
0.5853658537
 40
0.6097560976
 40
0.6341463415
 40
0.6585365854
 40
0.6829268293
 40
0.7073170732
 40
0.7317073171
 40
0.756097561
 40
0.7804878049
 40
0.8048780488
 40
0.8292682927
 40
0.8536585366
 40
0.8780487805
 40
0.9024390244
 40
0.9268292683
 40
0.9512195122
 40
0.9756097561
 40
1.0
 40
1.0
 40
1.0
 40
1.0
 10
41.7617977939
 20
-10.1542895394
 30
0.0
 10
41.7643519804
 20
-10.0891880926
 30
0.0
 10
41.7644691926
 20
-9.9587339731
 30
0.0
 10
41.7496622657
 20
-9.7636585164
 30
0.0
 10
41.7199617903
 20
-9.5702786569
 30
0.0
 10
41.6755416677
 20
-9.3797455731
 30
0.0
 10
41.6166630271
 20
-9.1931746231
 30
0.0
 10
41.5436717415
 20
-9.0116630036
 30
0.0
 10
41.4569966506
 20
-8.8362768166
 30
0.0
 10
41.3571469727
 20
-8.6680465443
 30
0.0
 10
41.2447093316
 20
-8.5079605288
 30
0.0
 10
41.1203443049
 20
-8.3569592906
 30
0.0
 10
40.9847825446
 20
-8.2159299698
 30
0.0
 10
40.8388204844
 20
-8.0857011223
 30
0.0
 10
40.6833156601
 20
-7.9670378506
 30
0.0
 10
40.519181672
 20
-7.8606373084
 30
0.0
 10
40.3473828171
 20
-7.7671246053
 30
0.0
 10
40.168928424
 20
-7.6870491343
 30
0.0
 10
39.9848669231
 20
-7.6208813433
 30
0.0
 10
39.7962796869
 20
-7.5690099723
 30
0.0
 10
39.6042746766
 20
-7.5317397687
 30
0.0
 10
39.4099799333
 20
-7.5092896971
 30
0.0
 10
39.2145369504
 20
-7.501791653
 30
0.0
 10
39.0190939671
 20
-7.509289688
 30
0.0
 10
38.8247992228
 20
-7.5317397507
 30
0.0
 10
38.6327942108
 20
-7.5690099455
 30
0.0
 10
38.4442069721
 20
-7.6208813078
 30
0.0
 10
38.2601454682
 20
-7.6870490902
 30
0.0
 10
38.0816910714
 20
-7.7671245531
 30
0.0
 10
37.9098922122
 20
-7.8606372482
 30
0.0
 10
37.7457582192
 20
-7.9670377828
 30
0.0
 10
37.5902533894
 20
-8.0857010474
 30
0.0
 10
37.4442913232
 20
-8.2159298881
 30
0.0
 10
37.3087295565
 20
-8.3569592027
 30
0.0
 10
37.1843645228
 20
-8.5079604351
 30
0.0
 10
37.0719268742
 20
-8.6680464454
 30
0.0
 10
36.9720771886
 20
-8.8362767131
 30
0.0
 10
36.8854020896
 20
-9.0116628961
 30
0.0
 10
36.8124107957
 20
-9.1931745122
 30
0.0
 10
36.7535321464
 20
-9.3797454596
 30
0.0
 10
36.709112015
 20
-9.5702785413
 30
0.0
 10
36.6794115307
 20
-9.7636583994
 30
0.0
 10
36.6695402401
 20
-9.8937087034
 30
0.0
 10
36.667101719
 20
-9.9588348093
 30
0.0
 11
41.7617977939
 21
-10.1542895394
 31
0.0
 11
41.7619720684
 21
-9.9588349269
 31
0.0
 11
41.7471800076
 21
-9.763941116
 31
0.0
 11
41.7175085158
 21
-9.5707531195
 31
0.0
 11
41.6731319147
 21
-9.3804059288
 31
0.0
 11
41.6143109196
 21
-9.1940178448
 31
0.0
 11
41.5413911073
 21
-9.012683909
 31
0.0
 11
41.4548008861
 21
-8.837469469
 31
0.0
 11
41.3550489789
 21
-8.6694039204
 31
0.0
 11
41.242721434
 21
-8.5094746583
 31
0.0
 11
41.1184781826
 21
-8.3586212768
 31
0.0
 11
40.9830491613
 21
-8.2177300487
 31
0.0
 11
40.8372300237
 21
-8.0876287183
 31
0.0
 11
40.6818774662
 21
-7.9690816388
 31
0.0
 11
40.5179041942
 21
-7.8627852816
 31
0.0
 11
40.3462735607
 21
-7.769364144
 31
0.0
 11
40.167993906
 21
-7.6893670809
 31
0.0
 11
39.9841126339
 21
-7.62326408
 31
0.0
 11
39.7957100579
 21
-7.5714435002
 31
0.0
 11
39.6038930544
 21
-7.5342097907
 31
0.0
 11
39.40978856
 21
-7.5117817017
 31
0.0
 11
39.2145369503
 21
-7.5042909995
 31
0.0
 11
39.0192853403
 21
-7.5117816926
 31
0.0
 11
38.8251808448
 21
-7.5342097727
 31
0.0
 11
38.6333638397
 21
-7.5714434734
 31
0.0
 11
38.4449612612
 21
-7.6232640445
 31
0.0
 11
38.2610799861
 21
-7.6893670369
 31
0.0
 11
38.0828003277
 21
-7.7693640918
 31
0.0
 11
37.9111696899
 21
-7.8627852214
 31
0.0
 11
37.747196413
 21
-7.9690815711
 31
0.0
 11
37.59184385
 21
-8.0876286434
 31
0.0
 11
37.4460247064
 21
-8.2177299671
 31
0.0
 11
37.3105956786
 21
-8.358621189
 31
0.0
 11
37.1863524203
 21
-8.5094745647
 31
0.0
 11
37.074024868
 21
-8.6694038216
 31
0.0
 11
36.974272953
 21
-8.8374693657
 31
0.0
 11
36.8876827238
 21
-9.0126838016
 31
0.0
 11
36.8147629031
 21
-9.1940177341
 31
0.0
 11
36.7559418994
 21
-9.3804058153
 31
0.0
 11
36.7115652895
 21
-9.570753004
 31
0.0
 11
36.6818937888
 21
-9.7639409991
 31
0.0
 11
36.667101719
 21
-9.9588348093
 31
0.0
  0
SPLINE
  5
80D
100
AcDbEntity
  8
CURVE
100
AcDbSpline
 62
253
  6
CONTINUOUS
 70
0
 71
3
 72
19
 73
15
 74
13
 42
0.0000001
 43
0.0000001
 44
0.0000000001
 12
-0.6845960882
 22
0.0
 32
0.0
 13
-0.0854858761
 23
0.6793412522
 33
0.0
 40
0.0
 40
0.0
 40
0.0
 40
0.0
 40
0.1141888481
 40
0.2280239452
 40
0.342430002
 40
0.4597305114
 40
0.5160315875
 40
0.5674100039
 40
0.6187968923
 40
0.6818603032
 40
0.7665769348
 40
0.8625214527
 40
0.9477474048
 40
1.0
 40
1.0
 40
1.0
 40
1.0
 10
50.1715398019
 20
-2.6581594253
 30
0.0
 10
50.1454820557
 20
-2.6581594253
 30
0.0
 10
50.0933820427
 20
-2.6561714976
 30
0.0
 10
50.0160684385
 20
-2.6427284105
 30
0.0
 10
49.9418227323
 20
-2.6141754177
 30
0.0
 10
49.8876086589
 20
-2.5758643727
 30
0.0
 10
49.8504893937
 20
-2.5403645489
 30
0.0
 10
49.8265316882
 20
-2.5129367301
 30
0.0
 10
49.8072686761
 20
-2.4800295462
 30
0.0
 10
49.7932033984
 20
-2.4365463047
 30
0.0
 10
49.7825475116
 20
-2.3819198566
 30
0.0
 10
49.7735989569
 20
-2.3218888955
 30
0.0
 10
49.7669148848
 20
-2.2690325925
 30
0.0
 10
49.7634668946
 20
-2.2378441182
 30
0.0
 10
49.7619779416
 20
-2.2260116703
 30
0.0
 11
50.1715398019
 21
-2.6581594253
 31
0.0
 11
50.0934559268
 21
-2.6544220535
 31
0.0
 11
50.0168168629
 21
-2.6402882223
 31
0.0
 11
49.9439489032
 21
-2.6115682326
 31
0.0
 11
49.8779689213
 21
-2.5657869301
 31
0.0
 11
49.8501003617
 21
-2.5391568624
 31
0.0
 11
49.8274179464
 21
-2.5122700495
 31
0.0
 11
49.8096757862
 21
-2.4818878599
 31
0.0
 11
49.7954564693
 21
-2.441117501
 31
0.0
 11
49.7834382684
 21
-2.3843710656
 31
0.0
 11
49.7734933101
 21
-2.3194351712
 31
0.0
 11
49.7661585049
 21
-2.2615438792
 31
0.0
 11
49.7619779416
 21
-2.2260116703
 31
0.0
  0
SPLINE
  5
80E
100
AcDbEntity
  8
CURVE
100
AcDbSpline
 62
253
  6
CONTINUOUS
 70
0
 71
3
 72
19
 73
15
 74
13
 42
0.0000001
 43
0.0000001
 44
0.0000000001
 12
-0.0854858761
 22
-0.6793412522
 32
0.0
 13
-0.6845960882
 23
0.0
 33
0.0
 40
0.0
 40
0.0
 40
0.0
 40
0.0
 40
0.0522525952
 40
0.1374785473
 40
0.2334230652
 40
0.3181396968
 40
0.3812031077
 40
0.4325899961
 40
0.4839684125
 40
0.5402694886
 40
0.657569998
 40
0.7719760548
 40
0.8858111519
 40
1.0
 40
1.0
 40
1.0
 40
1.0
 10
50.5811016622
 20
-2.2260116703
 30
0.0
 10
50.5796127092
 20
-2.2378441182
 30
0.0
 10
50.576164719
 20
-2.2690325925
 30
0.0
 10
50.5694806469
 20
-2.3218888955
 30
0.0
 10
50.5605320922
 20
-2.3819198566
 30
0.0
 10
50.5498762054
 20
-2.4365463047
 30
0.0
 10
50.5358109277
 20
-2.4800295462
 30
0.0
 10
50.5165479157
 20
-2.5129367301
 30
0.0
 10
50.4925902102
 20
-2.5403645489
 30
0.0
 10
50.4554709449
 20
-2.5758643727
 30
0.0
 10
50.4012568715
 20
-2.6141754177
 30
0.0
 10
50.3270111654
 20
-2.6427284105
 30
0.0
 10
50.2496975611
 20
-2.6561714976
 30
0.0
 10
50.1975975481
 20
-2.6581594253
 30
0.0
 10
50.1715398019
 20
-2.6581594253
 30
0.0
 11
50.5811016622
 21
-2.2260116703
 31
0.0
 11
50.5769210989
 21
-2.2615438792
 31
0.0
 11
50.5695862937
 21
-2.3194351712
 31
0.0
 11
50.5596413354
 21
-2.3843710656
 31
0.0
 11
50.5476231345
 21
-2.441117501
 31
0.0
 11
50.5334038176
 21
-2.4818878599
 31
0.0
 11
50.5156616574
 21
-2.5122700495
 31
0.0
 11
50.4929792421
 21
-2.5391568624
 31
0.0
 11
50.4651106825
 21
-2.5657869301
 31
0.0
 11
50.3991307006
 21
-2.6115682326
 31
0.0
 11
50.3262627409
 21
-2.6402882223
 31
0.0
 11
50.2496236771
 21
-2.6544220535
 31
0.0
 11
50.1715398019
 21
-2.6581594253
 31
0.0
  0
SPLINE
  5
80F
100
AcDbEntity
  8
CURVE
100
AcDbSpline
 62
253
  6
CONTINUOUS
 70
0
 71
3
 72
21
 73
17
 74
15
 42
0.0000001
 43
0.0000001
 44
0.0000000001
 12
1.7089872801
 22
0.0
 32
0.0
 13
0.0632868529
 23
1.7080752136
 33
0.0
 40
0.0
 40
0.0
 40
0.0
 40
0.0
 40
0.1172854868
 40
0.1759702438
 40
0.2349526386
 40
0.2940163945
 40
0.3527093235
 40
0.4699003912
 40
0.5306967958
 40
0.5911203291
 40
0.6464505085
 40
0.6953265781
 40
0.7506549215
 40
0.8289712133
 40
0.9279496777
 40
1.0
 40
1.0
 40
1.0
 40
1.0
 10
50.1715398019
 20
-3.3209263398
 30
0.0
 10
50.2383529369
 20
-3.3209263398
 30
0.0
 10
50.3389459379
 20
-3.3142282649
 30
0.0
 10
50.4701262319
 20
-3.2864894195
 30
0.0
 10
50.5655831773
 20
-3.2536060466
 30
0.0
 10
50.6559714452
 20
-3.2085327228
 30
0.0
 10
50.7666240224
 20
-3.1325583552
 30
0.0
 10
50.85867483
 20
-3.0304500268
 30
0.0
 10
50.9241746492
 20
-2.9111180426
 30
0.0
 10
50.9629142458
 20
-2.8181411376
 30
0.0
 10
50.9936481691
 20
-2.7295304964
 30
0.0
 10
51.0206808719
 20
-2.6426363919
 30
0.0
 10
51.0390902218
 20
-2.5400350689
 30
0.0
 10
51.050139785
 20
-2.4078821594
 30
0.0
 10
51.0574368398
 20
-2.2660086963
 30
0.0
 10
51.0613678576
 20
-2.1686420534
 30
0.0
 10
51.0628878037
 20
-2.1276195969
 30
0.0
 11
50.1715398019
 21
-3.3209263398
 31
0.0
 11
50.3714035715
 21
-3.3057441485
 31
0.0
 11
50.4694273544
 21
-3.2845342305
 31
0.0
 11
50.5646933047
 21
-3.2515887898
 31
0.0
 11
50.6549626098
 21
-3.2064136
 31
0.0
 11
50.7374664674
 21
-3.1493584324
 31
0.0
 11
50.8717970755
 21
-3.0007875542
 31
0.0
 11
50.9225906123
 21
-2.9101355366
 31
0.0
 11
50.9629991876
 21
-2.8150926206
 31
0.0
 11
50.9943466336
 21
-2.7258677018
 31
0.0
 11
51.0180152379
 21
-2.6457504368
 31
0.0
 11
51.0355493268
 21
-2.5528208054
 31
0.0
 11
51.0485275033
 21
-2.4195896788
 31
0.0
 11
51.057865143
 21
-2.2506689411
 31
0.0
 11
51.0628878037
 21
-2.1276195969
 31
0.0
  0
SPLINE
  5
810
100
AcDbEntity
  8
CURVE
100
AcDbSpline
 62
253
  6
CONTINUOUS
 70
0
 71
3
 72
21
 73
17
 74
15
 42
0.0000001
 43
0.0000001
 44
0.0000000001
 12
0.0632868529
 22
-1.7080752136
 32
0.0
 13
1.7089872801
 23
0.0
 33
0.0
 40
0.0
 40
0.0
 40
0.0
 40
0.0
 40
0.0720503223
 40
0.1710287867
 40
0.2493450785
 40
0.3046734219
 40
0.3535494915
 40
0.4088796709
 40
0.4693032042
 40
0.5300996088
 40
0.6472906765
 40
0.7059836055
 40
0.7650473614
 40
0.8240297562
 40
0.8827145132
 40
1.0
 40
1.0
 40
1.0
 40
1.0
 10
49.2801918001
 20
-2.1276195969
 30
0.0
 10
49.2817117462
 20
-2.1686420534
 30
0.0
 10
49.285642764
 20
-2.2660086963
 30
0.0
 10
49.2929398188
 20
-2.4078821594
 30
0.0
 10
49.303989382
 20
-2.5400350689
 30
0.0
 10
49.3223987319
 20
-2.6426363919
 30
0.0
 10
49.3494314347
 20
-2.7295304964
 30
0.0
 10
49.380165358
 20
-2.8181411376
 30
0.0
 10
49.4189049546
 20
-2.9111180426
 30
0.0
 10
49.4844047738
 20
-3.0304500268
 30
0.0
 10
49.5764555814
 20
-3.1325583552
 30
0.0
 10
49.6871081586
 20
-3.2085327228
 30
0.0
 10
49.7774964265
 20
-3.2536060466
 30
0.0
 10
49.8729533719
 20
-3.2864894195
 30
0.0
 10
50.0041336659
 20
-3.3142282649
 30
0.0
 10
50.1047266669
 20
-3.3209263398
 30
0.0
 10
50.1715398019
 20
-3.3209263398
 30
0.0
 11
49.2801918001
 21
-2.1276195969
 31
0.0
 11
49.2852144608
 21
-2.2506689411
 31
0.0
 11
49.2945521005
 21
-2.4195896788
 31
0.0
 11
49.307530277
 21
-2.5528208054
 31
0.0
 11
49.3250643659
 21
-2.6457504368
 31
0.0
 11
49.3487329702
 21
-2.7258677018
 31
0.0
 11
49.3800804163
 21
-2.8150926206
 31
0.0
 11
49.4204889915
 21
-2.9101355366
 31
0.0
 11
49.4712825283
 21
-3.0007875542
 31
0.0
 11
49.6056131364
 21
-3.1493584324
 31
0.0
 11
49.688116994
 21
-3.2064136
 31
0.0
 11
49.7783862991
 21
-3.2515887898
 31
0.0
 11
49.8736522494
 21
-3.2845342305
 31
0.0
 11
49.9716760323
 21
-3.3057441485
 31
0.0
 11
50.1715398019
 21
-3.3209263398
 31
0.0
  0
SPLINE
  5
811
100
AcDbEntity
  8
CURVE
100
AcDbSpline
 62
253
  6
CONTINUOUS
 70
0
 71
3
 72
11
 73
7
 74
5
 42
0.0000001
 43
0.0000001
 44
0.0000000001
 12
0.6661689652
 22
0.1815397839
 32
0.0
 13
0.2557035886
 23
0.6414582977
 33
0.0
 40
0.0
 40
0.0
 40
0.0
 40
0.0
 40
0.2503765232
 40
0.5002297131
 40
0.7501073406
 40
1.0
 40
1.0
 40
1.0
 40
1.0
 10
48.9563455105
 20
6.4171592003
 30
0.0
 10
49.0119432003
 20
6.4323103003
 30
0.0
 10
49.1231506799
 20
6.4622447332
 30
0.0
 10
49.2852471092
 20
6.5230534953
 30
0.0
 10
49.4333003593
 20
6.6157278704
 30
0.0
 10
49.5035921279
 20
6.712612844
 30
0.0
 10
49.5248916111
 20
6.7660447506
 30
0.0
 11
48.9563455105
 21
6.4171592003
 31
0.0
 11
49.1224881422
 21
6.4649359978
 31
0.0
 11
49.282919037
 21
6.5283682739
 31
0.0
 11
49.4261941664
 21
6.62450034
 31
0.0
 11
49.5248916111
 21
6.7660447506
 31
0.0
  0
SPLINE
  5
812
100
AcDbEntity
  8
CURVE
100
AcDbSpline
 62
253
  6
CONTINUOUS
 70
0
 71
3
 72
10
 73
6
 74
4
 42
0.0000001
 43
0.0000001
 44
0.0000000001
 12
0.7830198247
 22
0.2127307615
 32
0.0
 13
0.7828517081
 23
0.2133487898
 33
0.0
 40
0.0
 40
0.0
 40
0.0
 40
0.0
 40
0.2500001871
 40
0.5000042374
 40
1.0
 40
1.0
 40
1.0
 40
1.0
 10
48.1717714554
 20
6.2102414754
 30
0.0
 10
48.2370231562
 20
6.2279690521
 30
0.0
 10
48.3678756381
 20
6.2621314765
 30
0.0
 10
48.6296462734
 20
6.3301544788
 30
0.0
 10
48.8258713315
 20
6.38160137
 30
0.0
 10
48.9563455105
 20
6.4171592003
 30
0.0
 11
48.1717714554
 21
6.2102414754
 31
0.0
 11
48.3678831132
 21
6.2620935544
 31
0.0
 11
48.5641943537
 21
6.3131970327
 31
0.0
 11
48.9563455105
 21
6.4171592003
 31
0.0
  0
SPLINE
  5
813
100
AcDbEntity
  8
CURVE
100
AcDbSpline
 62
253
  6
CONTINUOUS
 70
0
 71
3
 72
12
 73
8
 74
6
 42
0.0000001
 43
0.0000001
 44
0.0000000001
 12
-0.8593934828
 22
-0.3229605965
 32
0.0
 13
-0.882305346
 23
-0.2537436167
 33
0.0
 40
0.0
 40
0.0
 40
0.0
 40
0.0
 40
0.1249745465
 40
0.2500352714
 40
0.5000252102
 40
0.7500027487
 40
1.0
 40
1.0
 40
1.0
 40
1.0
 10
49.0507735075
 20
7.0571124961
 30
0.0
 10
49.0149727372
 20
7.0436585447
 30
0.0
 10
48.942252355
 20
7.0196898715
 30
0.0
 10
48.7955016088
 20
6.9763794616
 30
0.0
 10
48.6124702149
 20
6.9208119529
 30
0.0
 10
48.3922437517
 20
6.8562092069
 30
0.0
 10
48.2452960925
 20
6.8135872678
 30
0.0
 10
48.1717714554
 20
6.7924421989
 30
0.0
 11
49.0507735075
 21
7.0571124961
 31
0.0
 11
48.9421121223
 21
7.0202756106
 31
0.0
 11
48.8321937634
 21
6.9871049926
 31
0.0
 11
48.6123650755
 21
6.9211562147
 31
0.0
 11
48.3922169142
 21
6.8563224993
 31
0.0
 11
48.1717714554
 21
6.7924421989
 31
0.0
  0
SPLINE
  5
814
100
AcDbEntity
  8
CURVE
100
AcDbSpline
 62
253
  6
CONTINUOUS
 70
0
 71
3
 72
13
 73
9
 74
7
 42
0.0000001
 43
0.0000001
 44
0.0000000001
 12
0.0
 22
-0.4519528541
 32
0.0
 13
-0.4230641826
 23
-0.1588192282
 33
0.0
 40
0.0
 40
0.0
 40
0.0
 40
0.0
 40
0.2499170893
 40
0.375312446
 40
0.5003189067
 40
0.6252795553
 40
0.7502523413
 40
1.0
 40
1.0
 40
1.0
 40
1.0
 10
49.3061899358
 20
7.3947997878
 30
0.0
 10
49.3061899358
 20
7.3571495406
 30
0.0
 10
49.2971105815
 20
7.3000327803
 30
0.0
 10
49.2671658915
 20
7.2305502353
 30
0.0
 10
49.2357187011
 20
7.1831898318
 30
0.0
 10
49.1969677105
 20
7.1417520285
 30
0.0
 10
49.1372751444
 20
7.0954990021
 30
0.0
 10
49.0859932705
 20
7.0703340729
 30
0.0
 10
49.0507735075
 20
7.0571124961
 30
0.0
 11
49.3061899358
 21
7.3947997878
 31
0.0
 11
49.2881638137
 21
7.283297187
 31
0.0
 11
49.265640119
 21
7.2312939788
 31
0.0
 11
49.2344911791
 21
7.1841626522
 31
0.0
 11
49.1959625316
 21
7.1428750516
 31
0.0
 11
49.1514560097
 21
7.1081078178
 31
0.0
 11
49.0507735075
 21
7.0571124961
 31
0.0
  0
SPLINE
  5
815
100
AcDbEntity
  8
CURVE
100
AcDbSpline
 62
253
  6
CONTINUOUS
 70
0
 71
3
 72
13
 73
9
 74
7
 42
0.0000001
 43
0.0000001
 44
0.0000000001
 12
0.5116916448
 22
1.4167726171
 32
0.0
 13
-0.2191867209
 23
1.4903339577
 33
0.0
 40
0.0
 40
0.0
 40
0.0
 40
0.0
 40
0.2499256132
 40
0.3752273007
 40
0.5001678353
 40
0.6250711787
 40
0.7500355038
 40
1.0
 40
1.0
 40
1.0
 40
1.0
 10
51.0061547324
 20
6.8284505798
 30
0.0
 10
51.0487830151
 20
6.9464798348
 30
0.0
 10
51.0851091601
 20
7.133706811
 30
0.0
 10
51.1026407949
 20
7.384113094
 30
0.0
 10
51.104334629
 20
7.5726303018
 30
0.0
 10
51.0969784423
 20
7.760723583
 30
0.0
 10
51.0781395591
 20
8.0110382744
 30
0.0
 10
51.0549372445
 20
8.197990946
 30
0.0
 10
51.0366742784
 20
8.3221678049
 30
0.0
 11
51.0061547324
 21
6.8284505798
 31
0.0
 11
51.0868932321
 21
7.1961691831
 31
0.0
 11
51.1007375637
 21
7.384411416
 31
0.0
 11
51.1028264356
 21
7.5726065839
 31
0.0
 11
51.0958517949
 21
7.760627967
 31
0.0
 11
51.0818431616
 21
7.948348438
 31
0.0
 11
51.0366742784
 21
8.3221678049
 31
0.0
  0
SPLINE
  5
816
100
AcDbEntity
  8
CURVE
100
AcDbSpline
 62
253
  6
CONTINUOUS
 70
0
 71
3
 72
28
 73
24
 74
22
 42
0.0000001
 43
0.0000001
 44
0.0000000001
 12
0.2314858091
 22
-1.7945616193
 32
0.0
 13
0.6138497273
 23
1.7020949202
 33
0.0
 40
0.0
 40
0.0
 40
0.0
 40
0.0
 40
0.0156006485
 40
0.0235426459
 40
0.0314114782
 40
0.0470005797
 40
0.0625507053
 40
0.0781688138
 40
0.0938362487
 40
0.1251691552
 40
0.1564378952
 40
0.1877046971
 40
0.2502580739
 40
0.3128157802
 40
0.3753144148
 40
0.5000833436
 40
0.6248158899
 40
0.687305488
 40
0.7498426014
 40
0.8123669046
 40
0.8748764173
 40
0.9374431012
 40
1.0
 40
1.0
 40
1.0
 40
1.0
 10
49.542020815
 20
6.7660447506
 30
0.0
 10
49.5432245912
 20
6.7567126423
 30
0.0
 10
49.5493877195
 20
6.7434196335
 30
0.0
 10
49.5588656796
 20
6.7271170894
 30
0.0
 10
49.5685170221
 20
6.7107976539
 30
0.0
 10
49.5811320676
 20
6.6909409387
 30
0.0
 10
49.5974012058
 20
6.6678882438
 30
0.0
 10
49.6148653094
 20
6.6456731996
 30
0.0
 10
49.6395042871
 20
6.6170400776
 30
0.0
 10
49.6723002677
 20
6.583029296
 30
0.0
 10
49.7143416662
 20
6.545046427
 30
0.0
 10
49.7738522957
 20
6.4985932378
 30
0.0
 10
49.8542736147
 20
6.4486732009
 30
0.0
 10
49.9582129772
 20
6.4030459476
 30
0.0
 10
50.1036997281
 20
6.3621756477
 30
0.0
 10
50.2931796472
 20
6.3479662218
 30
0.0
 10
50.481292618
 20
6.375864515
 30
0.0
 10
50.6228992085
 20
6.4286560013
 30
0.0
 10
50.7223790541
 20
6.4833477499
 30
0.0
 10
50.8126901854
 20
6.5521445588
 30
0.0
 10
50.8919709094
 20
6.6334537241
 30
0.0
 10
50.9587190237
 20
6.7252100067
 30
0.0
 10
50.993354554
 20
6.7929579866
 30
0.0
 10
51.0061547324
 20
6.8284505798
 30
0.0
 11
49.542020815
 21
6.7660447506
 31
0.0
 11
49.5518056403
 21
6.7395670637
 31
0.0
 11
49.5589102271
 21
6.7270762093
 31
0.0
 11
49.566186362
 21
6.714838306
 31
0.0
 11
49.5813362873
 21
6.6910460682
 31
0.0
 11
49.5975709767
 21
6.6680669115
 31
0.0
 11
49.61500751
 21
6.645829574
 31
0.0
 11
49.6334736463
 21
6.6243220184
 31
0.0
 11
49.6727797507
 21
6.5834702773
 31
0.0
 11
49.7147782917
 21
6.5455659397
 31
0.0
 11
49.7593692876
 21
6.5107551063
 31
0.0
 11
49.8555143918
 21
6.4510522772
 31
0.0
 11
49.9591324073
 21
6.4055227886
 31
0.0
 11
50.0679568526
 21
6.3748251627
 31
0.0
 11
50.2929294707
 21
6.3563853983
 31
0.0
 11
50.5158323876
 21
6.3915643096
 31
0.0
 11
50.6217304717
 21
6.4311521034
 31
0.0
 11
50.720855483
 21
6.485702108
 31
0.0
 11
50.8108565856
 21
6.5542335087
 31
0.0
 11
50.8898578051
 21
6.6351660135
 31
0.0
 11
50.9562532157
 21
6.7268550686
 31
0.0
 11
51.0061547324
 21
6.8284505798
 31
0.0
  0
SPLINE
  5
817
100
AcDbEntity
  8
CURVE
100
AcDbSpline
 62
253
  6
CONTINUOUS
 70
0
 71
3
 72
11
 73
7
 74
5
 42
0.0000001
 43
0.0000001
 44
0.0000000001
 12
-0.0626045129
 22
-0.5393945691
 32
0.0
 13
-0.5428674734
 23
-0.0084932997
 33
0.0
 40
0.0
 40
0.0
 40
0.0
 40
0.0
 40
0.2515714039
 40
0.5034590125
 40
0.7516412002
 40
1.0
 40
1.0
 40
1.0
 40
1.0
 10
50.5937713229
 20
7.2652261516
 30
0.0
 10
50.5885214879
 20
7.2199940686
 30
0.0
 10
50.5626573856
 20
7.1307712047
 30
0.0
 10
50.4839176389
 20
7.0162773631
 30
0.0
 10
50.3669431267
 20
6.941054484
 30
0.0
 10
50.2763480296
 20
6.9240236153
 30
0.0
 10
50.2314060582
 20
6.9233204867
 30
0.0
 11
50.5937713229
 21
7.2652261516
 31
0.0
 11
50.5559628675
 21
7.1339566591
 31
0.0
 11
50.4769906859
 21
7.0222873682
 31
0.0
 11
50.3637257955
 21
6.9492852273
 31
0.0
 11
50.2314060582
 21
6.9233204867
 31
0.0
  0
SPLINE
  5
818
100
AcDbEntity
  8
CURVE
100
AcDbSpline
 62
253
  6
CONTINUOUS
 70
0
 71
3
 72
9
 73
5
 74
3
 42
0.0000001
 43
0.0000001
 44
0.0000000001
 12
0.0800218597
 22
-0.4691095199
 32
0.0
 13
-0.0548525605
 23
-0.4727149994
 33
0.0
 40
0.0
 40
0.0
 40
0.0
 40
0.0
 40
0.5000366752
 40
1.0
 40
1.0
 40
1.0
 40
1.0
 10
50.5767073318
 20
7.7394017324
 30
0.0
 10
50.5900452866
 20
7.6612110776
 30
0.0
 10
50.6105144271
 20
7.5033219561
 30
0.0
 10
50.6029127458
 20
7.3440062058
 30
0.0
 10
50.5937713229
 20
7.2652261516
 30
0.0
 11
50.5767073318
 21
7.7394017324
 31
0.0
 11
50.6034971936
 21
7.5029536654
 31
0.0
 11
50.5937713229
 21
7.2652261516
 31
0.0
  0
SPLINE
  5
819
100
AcDbEntity
  8
CURVE
100
AcDbSpline
 62
253
  6
CONTINUOUS
 70
0
 71
3
 72
15
 73
11
 74
9
 42
0.0000001
 43
0.0000001
 44
0.0000000001
 12
-0.7408426705
 22
-0.0114349116
 32
0.0
 13
-0.016542586
 23
0.7408590296
 33
0.0
 40
0.0
 40
0.0
 40
0.0
 40
0.0
 40
0.1252030945
 40
0.250381349
 40
0.3756349776
 40
0.5009263585
 40
0.5633662518
 40
0.625840282
 40
0.7511442778
 40
1.0
 40
1.0
 40
1.0
 40
1.0
 10
50.2314060582
 20
6.9233204867
 30
0.0
 10
50.2004874599
 20
6.9228432579
 30
0.0
 10
50.1385008332
 20
6.9255107268
 30
0.0
 10
50.0471025025
 20
6.9448715858
 30
0.0
 10
49.9625390441
 20
6.9853287369
 30
0.0
 10
49.9026083161
 20
7.0356831633
 30
0.0
 10
49.8642487418
 20
7.084353134
 30
0.0
 10
49.8326142551
 20
7.1376289143
 30
0.0
 10
49.7934384255
 20
7.238865326
 30
0.0
 10
49.782310668
 20
7.3320394667
 30
0.0
 10
49.7809384289
 20
7.3934951364
 30
0.0
 11
50.2314060582
 21
6.9233204867
 31
0.0
 11
50.1387608909
 21
6.9280709011
 31
0.0
 11
50.0482626509
 21
6.9483801701
 31
0.0
 11
49.9646506868
 21
6.9886563211
 31
0.0
 11
49.8937650813
 21
7.0486075767
 31
0.0
 11
49.8650930834
 21
7.0849207021
 31
0.0
 11
49.8413206337
 21
7.1246449658
 31
0.0
 11
49.8070408337
 21
7.2109393823
 31
0.0
 11
49.7809384289
 21
7.3934951364
 31
0.0
  0
SPLINE
  5
81A
100
AcDbEntity
  8
CURVE
100
AcDbSpline
 62
253
  6
CONTINUOUS
 70
0
 71
3
 72
8
 73
4
 74
2
 42
0.0000001
 43
0.0000001
 44
0.0000000001
 12
0.0046218207
 22
-0.1540212705
 32
0.0
 13
-0.0085546777
 23
-0.1537932218
 33
0.0
 40
0.0
 40
0.0
 40
0.0
 40
0.0
 40
1.0
 40
1.0
 40
1.0
 40
1.0
 10
41.013178069
 20
-10.0002710195
 30
0.0
 10
41.014718676
 20
-10.051611443
 30
0.0
 10
41.0140610418
 20
-10.1030251321
 30
0.0
 10
41.0112094826
 20
-10.1542895394
 30
0.0
 11
41.013178069
 21
-10.0002710195
 31
0.0
 11
41.0112094826
 21
-10.1542895394
 31
0.0
  0
ELLIPSE
  5
81B
100
AcDbEntity
  8
RACCORDO
100
AcDbEllipse
 62
7
  6
CONTINUOUS
 10
-9.4994593241
 20
23.3518545536
 30
0.0
 11
0.4473055582
 21
-0.2236357461
 31
0.0
 40
0.9998096356
 41
0.4635410001
 42
1.5708594058
  0
ELLIPSE
  5
81C
100
AcDbEntity
  8
RACCORDO
100
AcDbEllipse
 62
7
  6
CONTINUOUS
 10
-75.7993069961
 20
-20.4306536324
 30
0.0
 11
0.4473055582
 21
-0.2236357461
 31
0.0
 40
0.9998096356
 41
-2.6780516535
 42
-1.5707332478
  0
ELLIPSE
  5
81D
100
AcDbEntity
  8
RACCORDO
100
AcDbEllipse
 62
7
  6
CONTINUOUS
 10
-75.7993069961
 20
23.3518545536
 30
0.0
 11
0.4473055583
 21
0.2236357461
 31
0.0
 40
0.9998096356
 41
1.5707332478
 42
2.6780516536
  0
ELLIPSE
  5
81E
100
AcDbEntity
  8
RACCORDO
100
AcDbEllipse
 62
7
  6
CONTINUOUS
 10
-9.4994593241
 20
-20.4306536324
 30
0.0
 11
0.4473055582
 21
0.2236357461
 31
0.0
 40
0.9998096356
 41
-1.5708594058
 42
-0.4635410001
  0
ELLIPSE
  5
81F
100
AcDbEntity
  8
RACCORDO
100
AcDbEllipse
 62
7
  6
CONTINUOUS
 10
-75.542106642
 20
23.7950907365
 30
0.0
 11
0.25
 21
-0.0
 31
0.0
 40
0.0524077793
 41
-2.6154833905
 42
-1.5707963268
  0
ELLIPSE
  5
820
100
AcDbEntity
  8
RACCORDO
100
AcDbEllipse
 62
7
  6
CONTINUOUS
 10
-73.6566596782
 20
23.7950907365
 30
0.0
 11
0.25
 21
-0.0
 31
0.0
 40
0.0524077793
 41
-1.5707963268
 42
-0.0058177642
  0
ELLIPSE
  5
821
100
AcDbEntity
  8
RACCORDO
100
AcDbEllipse
 62
7
  6
CONTINUOUS
 10
-15.321560358
 20
21.6697192712
 30
0.0
 11
1.3224997768
 21
-0.0497860763
 31
0.0
 40
0.3141793358
 41
4.8316419158
 42
6.2950121727
  0
ELLIPSE
  5
822
100
AcDbEntity
  8
RACCORDO
100
AcDbEllipse
 62
7
  6
CONTINUOUS
 10
-56.642106642
 20
23.7950907365
 30
0.0
 11
0.25
 21
0.0
 31
0.0
 40
0.0524077793
 41
-3.1357748894
 42
-1.5707963268
  0
ELLIPSE
  5
823
100
AcDbEntity
  8
RACCORDO
100
AcDbEllipse
 62
7
  6
CONTINUOUS
 10
-15.3278927347
 20
22.9157304716
 30
0.0
 11
1.3285790695
 21
0.0790795292
 31
0.0
 40
0.3832199471
 41
-0.0228060185
 42
0.1388035562
  0
ELLIPSE
  5
824
100
AcDbEntity
  8
RACCORDO
100
AcDbEllipse
 62
7
  6
CONTINUOUS
 10
-69.9772059622
 20
21.6697192712
 30
0.0
 11
1.3224997768
 21
0.0497860763
 31
0.0
 40
0.3141793358
 41
3.129765788
 42
4.593136045
  0
ELLIPSE
  5
825
100
AcDbEntity
  8
RACCORDO
100
AcDbEllipse
 62
7
  6
CONTINUOUS
 10
-69.9708735855
 20
22.9157304716
 30
0.0
 11
1.3285790695
 21
-0.0790795292
 31
0.0
 40
0.3832199471
 41
3.0027890974
 42
3.1643986721
  0
ELLIPSE
  5
826
100
AcDbEntity
  8
RACCORDO
100
AcDbEllipse
 62
7
  6
CONTINUOUS
 10
-54.7566596782
 20
23.7950907365
 30
0.0
 11
0.25
 21
-0.0
 31
0.0
 40
0.0524077793
 41
-1.5707963268
 42
-0.0058177642
  0
ELLIPSE
  5
827
100
AcDbEntity
  8
RACCORDO
100
AcDbEllipse
 62
7
  6
CONTINUOUS
 10
-75.542106642
 20
-20.8738898153
 30
0.0
 11
0.25
 21
0.0
 31
0.0
 40
0.0524077793
 41
1.5707963268
 42
2.6154833905
  0
ELLIPSE
  5
828
100
AcDbEntity
  8
RACCORDO
100
AcDbEllipse
 62
7
  6
CONTINUOUS
 10
-73.6566596782
 20
-20.8738898153
 30
0.0
 11
0.25
 21
0.0
 31
0.0
 40
0.0524077793
 41
0.0058177642
 42
1.5707963268
  0
ELLIPSE
  5
829
100
AcDbEntity
  8
RACCORDO
100
AcDbEllipse
 62
7
  6
CONTINUOUS
 10
-56.642106642
 20
-20.8738898153
 30
0.0
 11
0.25
 21
0.0
 31
0.0
 40
0.0524077793
 41
1.5707963268
 42
3.1357748894
  0
ELLIPSE
  5
82A
100
AcDbEntity
  8
RACCORDO
100
AcDbEllipse
 62
7
  6
CONTINUOUS
 10
-54.7566596782
 20
-20.8738898153
 30
0.0
 11
0.25
 21
0.0
 31
0.0
 40
0.0524077793
 41
0.0058177642
 42
1.5707963268
  0
ELLIPSE
  5
82B
100
AcDbEntity
  8
RACCORDO
100
AcDbEllipse
 62
7
  6
CONTINUOUS
 10
-69.0464657835
 20
-20.9131956498
 30
0.0
 11
0.5
 21
0.0
 31
0.0
 40
0.0524077793
 41
1.5707963268
 42
3.1357748894
  0
ELLIPSE
  5
82C
100
AcDbEntity
  8
RACCORDO
100
AcDbEllipse
 62
7
  6
CONTINUOUS
 10
-69.0464657835
 20
-22.3364906245
 30
0.0
 11
0.5
 21
-0.0
 31
0.0
 40
0.0058178298
 41
2.495179495
 42
3.1357748894
  0
ELLIPSE
  5
82D
100
AcDbEntity
  8
RACCORDO
100
AcDbEllipse
 62
7
  6
CONTINUOUS
 10
-61.2523005367
 20
-22.3364906245
 30
0.0
 11
0.5
 21
0.0
 31
0.0
 40
0.0058178298
 41
0.0058177642
 42
0.6464131586
  0
ELLIPSE
  5
82E
100
AcDbEntity
  8
RACCORDO
100
AcDbEllipse
 62
7
  6
CONTINUOUS
 10
-30.542106642
 20
23.7950907365
 30
0.0
 11
0.25
 21
-0.0
 31
0.0
 40
0.0524077793
 41
-3.1357748894
 42
-1.5707963268
  0
ELLIPSE
  5
82F
100
AcDbEntity
  8
RACCORDO
100
AcDbEllipse
 62
7
  6
CONTINUOUS
 10
-61.2523005367
 20
-20.9131956498
 30
0.0
 11
0.5
 21
0.0
 31
0.0
 40
0.0524077793
 41
0.0058177642
 42
1.5707963268
  0
ELLIPSE
  5
830
100
AcDbEntity
  8
RACCORDO
100
AcDbEllipse
 62
7
  6
CONTINUOUS
 10
-69.0464657835
 20
25.2576915457
 30
0.0
 11
0.5
 21
0.0
 31
0.0
 40
0.0058178298
 41
-3.1357748894
 42
-2.495179495
  0
ELLIPSE
  5
831
100
AcDbEntity
  8
RACCORDO
100
AcDbEllipse
 62
7
  6
CONTINUOUS
 10
-69.0464657835
 20
23.8343965709
 30
0.0
 11
0.5
 21
0.0
 31
0.0
 40
0.0524077793
 41
-3.1357748894
 42
-1.5707963268
  0
ELLIPSE
  5
832
100
AcDbEntity
  8
RACCORDO
100
AcDbEllipse
 62
7
  6
CONTINUOUS
 10
-61.2523005367
 20
23.8343965709
 30
0.0
 11
0.5
 21
0.0
 31
0.0
 40
0.0524077793
 41
-1.5707963268
 42
-0.0058177642
  0
ELLIPSE
  5
833
100
AcDbEntity
  8
RACCORDO
100
AcDbEllipse
 62
7
  6
CONTINUOUS
 10
-61.2523005367
 20
25.2576915457
 30
0.0
 11
0.5
 21
-0.0
 31
0.0
 40
0.0058178298
 41
-0.6464131586
 42
-0.0058177642
  0
ELLIPSE
  5
834
100
AcDbEntity
  8
RACCORDO
100
AcDbEllipse
 62
7
  6
CONTINUOUS
 10
-28.6566596782
 20
23.7950907365
 30
0.0
 11
0.25
 21
-0.0
 31
0.0
 40
0.0524077793
 41
-1.5707963268
 42
-0.0058177642
  0
ELLIPSE
  5
835
100
AcDbEntity
  8
RACCORDO
100
AcDbEllipse
 62
7
  6
CONTINUOUS
 10
-24.0464657835
 20
-20.9131956498
 30
0.0
 11
0.5
 21
0.0
 31
0.0
 40
0.0524077793
 41
1.5707963268
 42
3.1357748894
  0
ELLIPSE
  5
836
100
AcDbEntity
  8
RACCORDO
100
AcDbEllipse
 62
7
  6
CONTINUOUS
 10
-24.0464657835
 20
-22.3364906245
 30
0.0
 11
0.5
 21
-0.0
 31
0.0
 40
0.0058178298
 41
2.495179495
 42
3.1357748894
  0
ELLIPSE
  5
837
100
AcDbEntity
  8
RACCORDO
100
AcDbEllipse
 62
7
  6
CONTINUOUS
 10
-16.2523005367
 20
-22.3364906245
 30
0.0
 11
0.5
 21
0.0
 31
0.0
 40
0.0058178298
 41
0.0058177642
 42
0.6464131586
  0
ELLIPSE
  5
838
100
AcDbEntity
  8
RACCORDO
100
AcDbEllipse
 62
7
  6
CONTINUOUS
 10
-16.2523005367
 20
-20.9131956498
 30
0.0
 11
0.5
 21
0.0
 31
0.0
 40
0.0524077793
 41
0.0058177642
 42
1.5707963268
  0
ELLIPSE
  5
839
100
AcDbEntity
  8
RACCORDO
100
AcDbEllipse
 62
7
  6
CONTINUOUS
 10
-24.0464657835
 20
25.2576915457
 30
0.0
 11
0.5
 21
0.0
 31
0.0
 40
0.0058178298
 41
-3.1357748894
 42
-2.495179495
  0
ELLIPSE
  5
83A
100
AcDbEntity
  8
RACCORDO
100
AcDbEllipse
 62
7
  6
CONTINUOUS
 10
-24.0464657835
 20
23.8343965709
 30
0.0
 11
0.5
 21
-0.0
 31
0.0
 40
0.0524077793
 41
-3.1357748894
 42
-1.5707963268
  0
ELLIPSE
  5
83B
100
AcDbEntity
  8
RACCORDO
100
AcDbEllipse
 62
7
  6
CONTINUOUS
 10
-9.7566596782
 20
-20.8738898153
 30
0.0
 11
0.25
 21
0.0
 31
0.0
 40
0.0524077793
 41
0.5261092631
 42
1.5707963268
  0
ELLIPSE
  5
83C
100
AcDbEntity
  8
RACCORDO
100
AcDbEllipse
 62
7
  6
CONTINUOUS
 10
-16.2523005367
 20
23.8343965709
 30
0.0
 11
0.5
 21
0.0
 31
0.0
 40
0.0524077793
 41
-1.5707963268
 42
-0.0058177642
  0
ELLIPSE
  5
83D
100
AcDbEntity
  8
RACCORDO
100
AcDbEllipse
 62
7
  6
CONTINUOUS
 10
-11.642106642
 20
-20.8738898153
 30
0.0
 11
0.25
 21
0.0
 31
0.0
 40
0.0524077793
 41
1.5707963268
 42
3.1357748894
  0
ELLIPSE
  5
83E
100
AcDbEntity
  8
RACCORDO
100
AcDbEllipse
 62
7
  6
CONTINUOUS
 10
-28.6566596782
 20
-20.8738898153
 30
0.0
 11
0.25
 21
0.0
 31
0.0
 40
0.0524077793
 41
0.0058177642
 42
1.5707963268
  0
ELLIPSE
  5
83F
100
AcDbEntity
  8
RACCORDO
100
AcDbEllipse
 62
7
  6
CONTINUOUS
 10
-16.2523005367
 20
25.2576915457
 30
0.0
 11
0.5
 21
-0.0
 31
0.0
 40
0.0058178298
 41
-0.6464131586
 42
-0.0058177642
  0
ELLIPSE
  5
840
100
AcDbEntity
  8
RACCORDO
100
AcDbEllipse
 62
7
  6
CONTINUOUS
 10
-11.642106642
 20
23.7950907365
 30
0.0
 11
0.25
 21
0.0
 31
0.0
 40
0.0524077793
 41
-3.1357748894
 42
-1.5707963268
  0
ELLIPSE
  5
841
100
AcDbEntity
  8
RACCORDO
100
AcDbEllipse
 62
7
  6
CONTINUOUS
 10
-9.7566596782
 20
23.7950907365
 30
0.0
 11
0.25
 21
0.0
 31
0.0
 40
0.0524077793
 41
-1.5707963268
 42
-0.5261092631
  0
ELLIPSE
  5
842
100
AcDbEntity
  8
RACCORDO
100
AcDbEllipse
 62
7
  6
CONTINUOUS
 10
-30.542106642
 20
-20.8738898153
 30
0.0
 11
0.25
 21
0.0
 31
0.0
 40
0.0524077793
 41
1.5707963268
 42
3.1357748894
  0
ELLIPSE
  5
843
100
AcDbEntity
  8
RACCORDO
100
AcDbEllipse
 62
7
  6
CONTINUOUS
 10
44.0512891177
 20
-20.6052988203
 30
0.0
 11
0.4996497911
 21
-0.0187105923
 31
0.0
 40
1.0
 41
1.6256795432
 42
2.5184545263
  0
ELLIPSE
  5
844
100
AcDbEntity
  8
RACCORDO
100
AcDbEllipse
 62
7
  6
CONTINUOUS
 10
44.0512891177
 20
23.5264997414
 30
0.0
 11
0.5
 21
0.0
 31
0.0
 40
1.0
 41
-2.4810246025
 42
-1.5882496193
  0
ELLIPSE
  5
845
100
AcDbEntity
  8
DRAFT
100
AcDbEllipse
 62
7
  6
CONTINUOUS
 10
18.5512891177
 20
-2.812525649
 30
0.0
 11
0.9998479731
 21
-0.0302192643
 31
0.0
 40
0.576998777
 41
1.6056869815
 42
3.0502938415
  0
ELLIPSE
  5
846
100
AcDbEntity
  8
DRAFT
100
AcDbEllipse
 62
7
  6
CONTINUOUS
 10
18.5512891177
 20
-6.6662734298
 30
0.0
 11
0.9998479731
 21
0.0302192643
 31
0.0
 40
0.576998777
 41
-3.0502938415
 42
-1.6056869815
  0
ELLIPSE
  5
847
100
AcDbEntity
  8
DRAFT
100
AcDbEllipse
 62
7
  6
CONTINUOUS
 10
17.7560138819
 20
-2.7463724033
 30
0.0
 11
0.1999695946
 21
-0.0060438529
 31
0.0
 40
0.576998777
 41
3.0502938415
 42
4.7123730501
  0
ELLIPSE
  5
848
100
AcDbEntity
  8
DRAFT
100
AcDbEllipse
 62
7
  6
CONTINUOUS
 10
17.7560138819
 20
-6.7324266755
 30
0.0
 11
0.1999695946
 21
0.0060438529
 31
0.0
 40
0.576998777
 41
7.8539975643
 42
9.5160767728
  0
ELLIPSE
  5
849
100
AcDbEntity
  8
ASSI
100
AcDbEllipse
 62
7
  6
CONTINUOUS
 10
18.5512891177
 20
-6.6662734298
 30
0.0
 11
0.9998479731
 21
0.0302192643
 31
0.0
 40
0.576998777
 41
-3.0502938415
 42
-1.6056869815
  0
ELLIPSE
  5
84A
100
AcDbEntity
  8
ASSI
100
AcDbEllipse
 62
7
  6
CONTINUOUS
 10
18.5512891177
 20
-2.812525649
 30
0.0
 11
0.9998479731
 21
-0.0302192643
 31
0.0
 40
0.576998777
 41
1.6056869815
 42
3.0502938415
  0
ELLIPSE
  5
84B
100
AcDbEntity
  8
ASSI
100
AcDbEllipse
 62
7
  6
CONTINUOUS
 10
17.7560138819
 20
-6.7324266755
 30
0.0
 11
0.1999695946
 21
0.0060438529
 31
0.0
 40
0.576998777
 41
7.8539975643
 42
9.5160767728
  0
ELLIPSE
  5
84C
100
AcDbEntity
  8
ASSI
100
AcDbEllipse
 62
7
  6
CONTINUOUS
 10
17.7560138819
 20
-2.7463724033
 30
0.0
 11
0.1999695946
 21
-0.0060438529
 31
0.0
 40
0.576998777
 41
3.0502938415
 42
4.7123730501
  0
ENDSEC
  0
SECTION
  2
OBJECTS
  0
DICTIONARY
  5
C
100
AcDbDictionary
280
0
281
1
  3
ACAD_GROUP
350
D
  3
ACAD_MLINESTYLE
350
17
  3
ACAD_LAYOUT
350
1A
  3
ACAD_PLOTSETTINGS
350
19
  3
ACAD_PLOTSTYLENAME
350
E
  0
DICTIONARY
  5
D
102
{ACAD_REACTORS
330
C
102
}
100
AcDbDictionary
280
0
281
1
  0
ACDBDICTIONARYWDFLT
  5
E
102
{ACAD_REACTORS
330
C
102
}
100
AcDbDictionary
281
1
  3
Normal
350
F
100
AcDbDictionaryWithDefault
340
F
  0
DICTIONARY
  5
17
102
{ACAD_REACTORS
330
C
102
}
100
AcDbDictionary
280
0
281
1
  3
Standard
350
18
  0
DICTIONARY
  5
19
102
{ACAD_REACTORS
330
C
102
}
100
AcDbDictionary
281
1
  0
DICTIONARY
  5
1A
102
{ACAD_REACTORS
330
C
102
}
100
AcDbDictionary
281
1
  3
Model
350
84D
  3
Layout1
350
84E
  0
ACDBPLACEHOLDER
  5
F
102
{ACAD_REACTORS
330
E
102
}
  0
MLINESTYLE
  5
18
102
{ACAD_REACTORS
330
17
102
}
100
AcDbMlineStyle
  2
STANDARD
 70
0
  3

 62
256
 51
90.0
 52
90.0
 71
2
 49
0.5
 62
256
  6
BYLAYER
 49
-0.5
 62
256
  6
BYLAYER
  0
LAYOUT
  5
84D
102
{ACAD_REACTORS
330
1A
102
}
100
AcDbPlotSettings
  1

  2
none_device
  4
ISO_A4_(297.00_x_210.00_MM)
  6

 40
0.0
 41
0.0
 42
0.0
 43
0.0
 44
297.0
 45
210.0
 46
0.0
 47
0.0
 48
0.0
 49
0.0
140
0.0
141
0.0
142
1.0
143
1.0
 70
1024
 72
1
 73
0
 74
0
  7

 75
0
147
1.0
148
0.0
149
0.0
100
AcDbLayout
  1
Model
 70
0
 71
0
 10
0.0
 20
0.0
 11
297.0
 21
210.0
 12
0.0
 22
0.0
 32
0.0
 14
0.0
 24
0.0
 34
0.0
 15
0.0
 25
0.0
 35
0.0
146
0.0
 13
0.0
 23
0.0
 33
0.0
 16
1.0
 26
0.0
 36
0.0
 17
0.0
 27
1.0
 37
0.0
 76
0
330
305
345
0
346
0
  0
LAYOUT
  5
84E
102
{ACAD_REACTORS
330
1A
102
}
100
AcDbPlotSettings
  1

  2
none_device
  4
ISO_A4_(297.00_x_210.00_MM)
  6

 40
0.0
 41
0.0
 42
0.0
 43
0.0
 44
297.0
 45
210.0
 46
0.0
 47
0.0
 48
0.0
 49
0.0
140
0.0
141
0.0
142
1.0
143
1.0
 70
0
 72
1
 73
0
 74
0
  7

 75
0
147
1.0
148
0.0
149
0.0
100
AcDbLayout
  1
Layout1
 70
0
 71
1
 10
0.0
 20
0.0
 11
297.0
 21
210.0
 12
0.0
 22
0.0
 32
0.0
 14
0.0
 24
0.0
 34
0.0
 15
0.0
 25
0.0
 35
0.0
146
0.0
 13
0.0
 23
0.0
 33
0.0
 16
1.0
 26
0.0
 36
0.0
 17
0.0
 27
1.0
 37
0.0
 76
0
330
306
345
0
346
0
  0
ENDSEC
  0
EOF
