0
SECTION
2
HEADER
9
$ACADVER
1
AC1014
9
$HANDSEED
5
       478
9
$EXTMAX
10
297.0000000000
20
210.0000000000
9
$EXTMIN
10
0.0000000000
20
0.0000000000
9
$LIMMIN
10
0.0000000000
20
0.0000000000
9
$LIMMAX
10
297.0000000000
20
210.0000000000
9
$VIEWCTR
10
148.5000000000
20
105.0000000000
9
$VIEWSIZE
40
210.0000000000
9
$CLAYER
8
0
9
$LTSCALE
40
16.3350000000
9
$CELTYPE
6
BYLAYER
9
$DIMSCALE
40
1
9
$DIMASZ
40
3.0000000000
9
$DIMEXO
40
1.8562500000
9
$DIMDLI
40
11.2860000000
9
$DIMEXE
40
5.3460000000
9
$DIMCEN
40
2.6730000000
9
$DIMLFAC
40
1.0000000000
9
$DIMTXT
40
3.0000000000
9
$DIMTOL
70
1
9
$DIMLIM
70
0
9
$DIMTFAC
40
1.0000000000
9
$DIMTP
40
0.0100000000
9
$DIMTM
40
0.0100000000
9
$MEASUREMENT
70
1
0
ENDSEC
0
SECTION
2
CLASSES
0
ENDSEC
0
SECTION
2
TABLES
0
TABLE
2
VPORT
5
8
100
AcDbSymbolTable
70
2
0
VPORT
5
1F4
100
AcDbSymbolTableRecord
100
AcDbViewportTableRecord
2
*ACTIVE
70
0
10
0.0
20
0.0
11
1.0
21
1.0
12
148.5000000000
22
105.0000000000
13
0.0
23
0.0
14
1.0
24
1.0
15
0.0
25
0.0
16
0.0
26
0.0
36
1.0
17
0.0
27
0.0
37
0.0
40
210.0000000000
41
1.4142857143
42
50.0
43
0.0
44
0.0
50
0.0
51
0.0
71
0
72
100
73
1
74
1
75
0
76
0
77
0
78
0
0
ENDTAB
0
TABLE
2
LTYPE
5
5
100
AcDbSymbolTable
70
6
0
LTYPE
5
14
100
AcDbSymbolTableRecord
100
AcDbLinetypeTableRecord
2
BYBLOCK
70
0
3

72
65
73
0
40
0.0
0
LTYPE
5
15
100
AcDbSymbolTableRecord
100
AcDbLinetypeTableRecord
2
BYLAYER
70
0
3

72
65
73
0
40
0.0
0
LTYPE
5
16
100
AcDbSymbolTableRecord
100
AcDbLinetypeTableRecord
2
CONTINUOUS
70
64
3
Solid line
72
65
73
0
40
0
0
LTYPE
5
1F5
100
AcDbSymbolTableRecord
100
AcDbLinetypeTableRecord
2
CENTER
70
64
3
____ _ ____ _ ____ _ ____ _ ____ _ ____ _ ____
72
65
73
4
40
0.6
49
0.375
74
0
49
-0.075
74
0
49
0.075
74
0
49
-0.075
74
0
0
LTYPE
5
1F6
100
AcDbSymbolTableRecord
100
AcDbLinetypeTableRecord
2
HIDDEN
70
64
3
- - - - - - - - - - - - - - - - - - - -
72
65
73
2
40
0.2
49
0.1
74
0
49
-0.1
74
0
0
LTYPE
5
1F7
100
AcDbSymbolTableRecord
100
AcDbLinetypeTableRecord
2
PHANTOM
70
64
3
_____ _ _ _____ _ _ _____ _ _ _____
72
65
73
6
40
0.8
49
0.45
74
0
49
-0.05
74
0
49
0.1
74
0
49
-0.05
74
0
49
0.1
74
0
49
-0.05
74
0
0
LTYPE
5
1F8
100
AcDbSymbolTableRecord
100
AcDbLinetypeTableRecord
2
DOT
70
64
3
. . . . . . . . . . . . . . . . . . . .
72
65
73
2
40
0.2
49
0.1
74
0
49
-0.1
74
0
0
LTYPE
5
1F9
100
AcDbSymbolTableRecord
100
AcDbLinetypeTableRecord
2
DASHED
70
64
3
- - - - - - - - - - - - - - - - - - - -
72
65
73
2
40
0.2
49
0.1
74
0
49
-0.1
74
0
0
ENDTAB
0
TABLE
2
LAYER
5
2
100
AcDbSymbolTable
70
36
0
LAYER
5
10
100
AcDbSymbolTableRecord
100
AcDbLayerTableRecord
2
0
70
0
62
7
6
CONTINUOUS
0
LAYER
5
1FA
100
AcDbSymbolTableRecord
100
AcDbLayerTableRecord
2
DEFAULT_1
70
0
62
7
6
CENTER
0
LAYER
5
1FB
100
AcDbSymbolTableRecord
100
AcDbLayerTableRecord
2
DEFAULT_2
70
0
62
8
6
HIDDEN
0
LAYER
5
1FC
100
AcDbSymbolTableRecord
100
AcDbLayerTableRecord
2
DEFAULT_3
70
0
62
7
6
PHANTOM
0
LAYER
5
1FD
100
AcDbSymbolTableRecord
100
AcDbLayerTableRecord
2
ASSI
70
0
62
7
6
CONTINUOUS
0
LAYER
5
1FE
100
AcDbSymbolTableRecord
100
AcDbLayerTableRecord
2
COORDINATE
70
0
62
7
6
CONTINUOUS
0
LAYER
5
1FF
100
AcDbSymbolTableRecord
100
AcDbLayerTableRecord
2
COORD_ORIGINE
70
0
62
7
6
CONTINUOUS
0
LAYER
5
200
100
AcDbSymbolTableRecord
100
AcDbLayerTableRecord
2
COSMETICI
70
0
62
7
6
CONTINUOUS
0
LAYER
5
201
100
AcDbSymbolTableRecord
100
AcDbLayerTableRecord
2
CURVE
70
0
62
7
6
CONTINUOUS
0
LAYER
5
202
100
AcDbSymbolTableRecord
100
AcDbLayerTableRecord
2
DRAFT
70
0
62
7
6
CONTINUOUS
0
LAYER
5
203
100
AcDbSymbolTableRecord
100
AcDbLayerTableRecord
2
IGES
70
0
62
7
6
CONTINUOUS
0
LAYER
5
204
100
AcDbSymbolTableRecord
100
AcDbLayerTableRecord
2
NOTE
70
0
62
7
6
CONTINUOUS
0
LAYER
5
205
100
AcDbSymbolTableRecord
100
AcDbLayerTableRecord
2
PIANI
70
0
62
7
6
CONTINUOUS
0
LAYER
5
206
100
AcDbSymbolTableRecord
100
AcDbLayerTableRecord
2
PIANI_ORIGINE
70
0
62
7
6
CONTINUOUS
0
LAYER
5
207
100
AcDbSymbolTableRecord
100
AcDbLayerTableRecord
2
PUNTI
70
0
62
7
6
CONTINUOUS
0
LAYER
5
208
100
AcDbSymbolTableRecord
100
AcDbLayerTableRecord
2
RACCORDO
70
0
62
7
6
CONTINUOUS
0
LAYER
5
209
100
AcDbSymbolTableRecord
100
AcDbLayerTableRecord
2
SMUSSO
70
0
62
7
6
CONTINUOUS
0
LAYER
5
20A
100
AcDbSymbolTableRecord
100
AcDbLayerTableRecord
2
SNAPLINE
70
0
62
7
6
CONTINUOUS
0
LAYER
5
20B
100
AcDbSymbolTableRecord
100
AcDbLayerTableRecord
2
SUPERFICI
70
0
62
7
6
CONTINUOUS
0
LAYER
5
20C
100
AcDbSymbolTableRecord
100
AcDbLayerTableRecord
2
TRASH
70
0
62
7
6
CONTINUOUS
0
ENDTAB
0
TABLE
2
STYLE
5
3
100
AcDbSymbolTable
70
1
0
STYLE
5
11
100
AcDbSymbolTableRecord
100
AcDbTextStyleTableRecord
2
STANDARD
70
0
40
0.0
41
0.8000000000
50
0.0
71
0
42
0.2
3
txt
4

0
ENDTAB
0
TABLE
2
VIEW
5
6
100
AcDbSymbolTable
70
0
0
ENDTAB
0
TABLE
2
UCS
5
7
100
AcDbSymbolTable
70
0
0
ENDTAB
0
TABLE
2
APPID
5
9
100
AcDbSymbolTable
70
1
0
APPID
5
20D
100
AcDbSymbolTableRecord
100
AcDbRegAppTableRecord
2
ACAD
70
0
0
ENDTAB
0
TABLE
2
DIMSTYLE
5
A
100
AcDbSymbolTable
70
1
0
DIMSTYLE
105
20E
100
AcDbSymbolTableRecord
100
AcDbDimStyleTableRecord
2
STANDARD
70
0
3

4

5

6

7

40
1.0
41
3.0000000000
42
0.0625
43
0.38
44
0.18
45
0.0
46
0.0
47
0.0100000000
48
0.0100000000
140
3.0000000000
141
0.09
142
0.0
143
25.4
144
1.0000000000
145
0.0
146
1.0000000000
147
0.09
71
1
72
0
73
0
74
0
75
0
76
0
77
1
78
8
170
0
171
2
172
0
173
0
174
0
175
0
176
0
177
0
178
0
270
2
271
2
272
2
273
2
274
2
340
11
275
0
280
0
281
0
282
0
283
1
284
8
285
0
286
0
287
3
288
0
0
DIMSTYLE
105
20F
100
AcDbSymbolTableRecord
100
AcDbDimStyleTableRecord
2
DIMSTYLE_1
70
0
3

4

5

6

7

40
1.0
41
3.0000000000
42
0.0625
43
0.38
44
0.18
45
0.0
46
0.0
47
0.0000000000
48
0.0000000000
140
3.0000000000
141
0.09
142
0.0
143
25.4
144
1.0000000000
145
0.0
146
1.0000000000
147
0.09
71
0
72
0
73
0
74
0
75
0
76
0
77
1
78
8
170
0
171
2
172
0
173
0
174
0
175
0
176
0
177
0
178
0
270
2
271
2
272
2
273
2
274
2
340
11
275
0
280
0
281
0
282
0
283
1
284
8
285
0
286
0
287
3
288
0
0
ENDTAB
0
TABLE
2
BLOCK_RECORD
5
1
100
AcDbSymbolTable
70
0
0
BLOCK_RECORD
5
1B
100
AcDbSymbolTableRecord
100
AcDbBlockTableRecord
2
*MODEL_SPACE
0
BLOCK_RECORD
5
1C
100
AcDbSymbolTableRecord
100
AcDbBlockTableRecord
2
*PAPER_SPACE
0
BLOCK_RECORD
5
210
100
AcDbSymbolTableRecord
100
AcDbBlockTableRecord
2
*D0
0
BLOCK_RECORD
5
211
100
AcDbSymbolTableRecord
100
AcDbBlockTableRecord
2
*D1
0
ENDTAB
0
ENDSEC
0
SECTION
2
BLOCKS
0
BLOCK
5
1E
100
AcDbEntity
8
0
100
AcDbBlockBegin
2
*MODEL_SPACE
70
0
10
0.0
20
0.0
30
0.0
3
*MODEL_SPACE
1

0
ENDBLK
5
1F
100
AcDbEntity
8
0
100
AcDbBlockEnd
0
BLOCK
5
20
100
AcDbEntity
8
0
100
AcDbBlockBegin
2
*PAPER_SPACE
70
0
10
0.0
20
0.0
30
0.0
3
*PAPER_SPACE
1

0
ENDBLK
5
21
100
AcDbEntity
8
0
100
AcDbBlockEnd
0
BLOCK
5
212
100
AcDbEntity
8
0
100
AcDbBlockBegin
62
7
6
CONTINUOUS
2
*D0
70
65
10
0.0000000000
20
0.0000000000
3
*D0
1

0
TEXT
5
213
100
AcDbEntity
8
0
100
AcDbText
62
7
6
CONTINUOUS
10
-11.6465239960
20
192.8245739161
7
STANDARD
40
3.0000000000
1
400
41
0.7857142857
72
0
100
AcDbText
0
LINE
5
214
100
AcDbEntity
8
0
100
AcDbLine
62
7
6
CONTINUOUS
10
191.8891902898
20
118.6440644275
11
191.8891902898
21
193.5745739161
0
LINE
5
215
100
AcDbEntity
8
0
100
AcDbLine
62
7
6
CONTINUOUS
10
-208.1108097102
20
118.6440644275
11
-208.1108097102
21
193.5745739161
0
LINE
5
216
100
AcDbEntity
8
0
100
AcDbLine
62
7
6
CONTINUOUS
10
191.8891902898
20
192.0745739161
11
-8.1108097102
21
192.0745739161
0
LINE
5
217
100
AcDbEntity
8
0
100
AcDbLine
62
7
6
CONTINUOUS
10
-208.1108097102
20
192.0745739161
11
-8.1108097102
21
192.0745739161
0
SOLID
5
218
100
AcDbEntity
8
0
100
AcDbTrace
62
7
6
CONTINUOUS
10
188.8891902898
20
191.1245739161
11
191.8891902898
21
192.0745739161
12
188.8891902898
22
193.0245739161
13
188.8891902898
23
193.0245739161
0
SOLID
5
219
100
AcDbEntity
8
0
100
AcDbTrace
62
7
6
CONTINUOUS
10
-205.1108097102
20
193.0245739161
11
-208.1108097102
21
192.0745739161
12
-205.1108097102
22
191.1245739161
13
-205.1108097102
23
191.1245739161
0
ENDBLK
5
21A
100
AcDbEntity
8
0
100
AcDbBlockEnd
0
BLOCK
5
21B
100
AcDbEntity
8
0
100
AcDbBlockBegin
62
7
6
CONTINUOUS
2
*D1
70
65
10
0.0000000000
20
0.0000000000
3
*D1
1

0
TEXT
5
21C
100
AcDbEntity
8
0
100
AcDbText
62
7
6
CONTINUOUS
10
299.1391902898
20
-5.8916498582
7
STANDARD
40
3.0000000000
1
220
50
90.0000000000
41
0.7857142857
72
0
100
AcDbText
0
LINE
5
21D
100
AcDbEntity
8
0
100
AcDbLine
62
7
6
CONTINUOUS
10
202.8891902898
20
107.6440644275
11
301.3891902898
21
107.6440644275
0
LINE
5
21E
100
AcDbEntity
8
0
100
AcDbLine
62
7
6
CONTINUOUS
10
202.8891902897
20
-112.3559355725
11
301.3891902898
21
-112.3559355725
0
LINE
5
21F
100
AcDbEntity
8
0
100
AcDbLine
62
7
6
CONTINUOUS
10
299.8891902898
20
107.6440644275
11
299.8891902898
21
-2.3559355725
0
LINE
5
220
100
AcDbEntity
8
0
100
AcDbLine
62
7
6
CONTINUOUS
10
299.8891902898
20
-112.3559355725
11
299.8891902898
21
-2.3559355725
0
SOLID
5
221
100
AcDbEntity
8
0
100
AcDbTrace
62
7
6
CONTINUOUS
10
300.8391902898
20
104.6440644275
11
299.8891902898
21
107.6440644275
12
298.9391902898
22
104.6440644275
13
298.9391902898
23
104.6440644275
0
SOLID
5
222
100
AcDbEntity
8
0
100
AcDbTrace
62
7
6
CONTINUOUS
10
298.9391902898
20
-109.3559355725
11
299.8891902898
21
-112.3559355725
12
300.8391902898
22
-109.3559355725
13
300.8391902898
23
-109.3559355725
0
ENDBLK
5
223
100
AcDbEntity
8
0
100
AcDbBlockEnd
0
ENDSEC
0
SECTION
2
ENTITIES
0
DIMENSION
5
224
100
AcDbEntity
8
0
100
AcDbDimension
62
7
6
CONTINUOUS
2
*D0
10
-208.1108097102
20
192.0745739161
11
-8.1108097102
21
194.3245739161
70
160
3
DIMSTYLE_1
100
AcDbAlignedDimension
13
191.8891902898
23
118.6440644275
14
-208.1108097102
24
118.6440644275
50
180.000000
100
AcDbRotatedDimension
0
DIMENSION
5
225
100
AcDbEntity
8
0
100
AcDbDimension
62
7
6
CONTINUOUS
2
*D1
10
299.8891902898
20
-112.3559355725
11
297.6391902898
21
-2.3559355725
70
160
3
DIMSTYLE_1
100
AcDbAlignedDimension
13
202.8891902898
23
107.6440644275
14
202.8891902897
24
-112.3559355725
50
270.000000
100
AcDbRotatedDimension
0
LINE
5
226
100
AcDbEntity
8
0
100
AcDbLine
62
7
6
CONTINUOUS
10
-308.1108097103
20
177.6440644275
11
-308.1108097103
21
141.6440644275
0
LINE
5
227
100
AcDbEntity
8
0
100
AcDbLine
62
7
6
CONTINUOUS
10
-308.1108097102
20
137.6440644275
11
-308.1108097103
21
-142.3559355725
0
LINE
5
228
100
AcDbEntity
8
0
100
AcDbLine
62
7
6
CONTINUOUS
10
-308.1108097103
20
-182.3559355725
11
-308.1108097103
21
-144.3559355725
0
LINE
5
229
100
AcDbEntity
8
0
100
AcDbLine
62
7
6
CONTINUOUS
10
-308.1108097103
20
139.6440644275
11
-308.1108097103
21
141.1440644275
0
LINE
5
22A
100
AcDbEntity
8
0
100
AcDbLine
62
7
6
CONTINUOUS
10
-308.1108097103
20
-182.6059355725
11
-308.1108097103
21
-183.3559355725
0
LINE
5
22B
100
AcDbEntity
8
0
100
AcDbLine
62
7
6
CONTINUOUS
10
-308.1108097103
20
177.8940644275
11
-308.1108097103
21
178.6440644275
0
LINE
5
22C
100
AcDbEntity
8
0
100
AcDbLine
62
7
6
CONTINUOUS
10
-307.0872109347
20
-184.0875316083
11
-307.0872109347
21
-184.3559355725
0
LINE
5
22D
100
AcDbEntity
8
0
100
AcDbLine
62
7
6
CONTINUOUS
10
-307.0872109347
20
179.3870183501
11
-307.0872109347
21
179.6440644275
0
LINE
5
22E
100
AcDbEntity
8
0
100
AcDbLine
62
9
6
CONTINUOUS
10
-306.1108097102
20
137.6440644275
11
-306.1108097103
21
-142.3559355725
0
LINE
5
22F
100
AcDbEntity
8
0
100
AcDbLine
62
7
6
CONTINUOUS
10
-306.1108097103
20
-142.8559355725
11
-306.1108097103
21
-144.3559355725
0
LINE
5
230
100
AcDbEntity
8
0
100
AcDbLine
62
7
6
CONTINUOUS
10
-306.1108097102
20
138.1440644275
11
-306.1108097102
21
139.6440644275
0
LINE
5
231
100
AcDbEntity
8
0
100
AcDbLine
62
7
6
CONTINUOUS
10
-293.1108097102
20
14.6440644275
11
-293.1108097103
21
-19.3559355725
0
LINE
5
232
100
AcDbEntity
8
0
100
AcDbLine
62
7
6
CONTINUOUS
10
-292.1108097102
20
14.6440644275
11
-292.1108097103
21
-19.3559355725
0
LINE
5
233
100
AcDbEntity
8
0
100
AcDbLine
62
7
6
CONTINUOUS
10
-291.1108097102
20
14.6440644275
11
-291.1108097102
21
-19.3559355725
0
LINE
5
234
100
AcDbEntity
8
0
100
AcDbLine
62
7
6
CONTINUOUS
10
-290.1108097102
20
14.6440644275
11
-290.1108097102
21
-19.3559355725
0
LINE
5
235
100
AcDbEntity
8
0
100
AcDbLine
62
7
6
CONTINUOUS
10
-288.1108097102
20
-19.3559355725
11
-288.1108097102
21
14.6440644275
0
LINE
5
236
100
AcDbEntity
8
0
100
AcDbLine
62
7
6
CONTINUOUS
10
-287.1108097103
20
-19.3559355725
11
-287.1108097102
21
14.6440644275
0
LINE
5
237
100
AcDbEntity
8
0
100
AcDbLine
62
7
6
CONTINUOUS
10
-218.1108097102
20
77.6440644275
11
-218.1108097103
21
27.6440644275
0
LINE
5
238
100
AcDbEntity
8
0
100
AcDbLine
62
7
6
CONTINUOUS
10
-218.1108097103
20
26.6440644275
11
-218.1108097103
21
-31.3559355725
0
LINE
5
239
100
AcDbEntity
8
0
100
AcDbLine
62
9
6
CONTINUOUS
10
-218.1108097103
20
-32.3559355725
11
-218.1108097103
21
-31.3559355725
0
LINE
5
23A
100
AcDbEntity
8
0
100
AcDbLine
62
7
6
CONTINUOUS
10
-218.1108097103
20
-32.3559355725
11
-218.1108097103
21
-82.3559355725
0
LINE
5
23B
100
AcDbEntity
8
0
100
AcDbLine
62
9
6
CONTINUOUS
10
-218.1108097103
20
26.6440644275
11
-218.1108097103
21
27.6440644275
0
LINE
5
23C
100
AcDbEntity
8
0
100
AcDbLine
62
9
6
CONTINUOUS
10
-216.1108097103
20
27.6440644275
11
-216.1108097103
21
26.6440644275
0
LINE
5
23D
100
AcDbEntity
8
0
100
AcDbLine
62
7
6
CONTINUOUS
10
-216.1108097103
20
-80.3559355725
11
-216.1108097103
21
-32.3559355725
0
LINE
5
23E
100
AcDbEntity
8
0
100
AcDbLine
62
9
6
CONTINUOUS
10
-216.1108097103
20
-31.3559355725
11
-216.1108097103
21
-32.3559355725
0
LINE
5
23F
100
AcDbEntity
8
0
100
AcDbLine
62
7
6
CONTINUOUS
10
-216.1108097103
20
-31.3559355725
11
-216.1108097103
21
26.6440644275
0
LINE
5
240
100
AcDbEntity
8
0
100
AcDbLine
62
7
6
CONTINUOUS
10
-216.1108097103
20
27.6440644275
11
-216.1108097102
21
75.6440644275
0
LINE
5
241
100
AcDbEntity
8
0
100
AcDbLine
62
7
6
CONTINUOUS
10
-211.6108097102
20
121.6440644275
11
-211.6108097102
21
115.9356264034
0
LINE
5
242
100
AcDbEntity
8
0
100
AcDbLine
62
7
6
CONTINUOUS
10
-211.6108097102
20
99.3525024516
11
-211.6108097102
21
93.6440644275
0
LINE
5
243
100
AcDbEntity
8
0
100
AcDbLine
62
7
6
CONTINUOUS
10
-211.6108097103
20
-98.3559355725
11
-211.6108097103
21
-104.0643735966
0
LINE
5
244
100
AcDbEntity
8
0
100
AcDbLine
62
7
6
CONTINUOUS
10
-211.6108097103
20
-120.6474975484
11
-211.6108097103
21
-126.3559355725
0
LINE
5
245
100
AcDbEntity
8
0
100
AcDbLine
62
7
6
CONTINUOUS
10
-208.1108097102
20
108.3865644275
11
-208.1108097102
21
106.9015644275
0
LINE
5
246
100
AcDbEntity
8
DEFAULT_1
100
AcDbLine
62
7
6
CENTER
10
-208.1108097102
20
103.9315644275
11
-208.1108097102
21
97.1440644275
0
LINE
5
247
100
AcDbEntity
8
0
100
AcDbLine
62
7
6
CONTINUOUS
10
-208.1108097103
20
-113.0984355725
11
-208.1108097103
21
-111.6134355725
0
LINE
5
248
100
AcDbEntity
8
DEFAULT_1
100
AcDbLine
62
7
6
CENTER
10
-208.1108097103
20
-108.6434355725
11
-208.1108097103
21
-101.8559355725
0
LINE
5
249
100
AcDbEntity
8
DEFAULT_1
100
AcDbLine
62
7
6
CENTER
10
-208.1108097103
20
-116.0684355725
11
-208.1108097103
21
-122.8559355725
0
LINE
5
24A
100
AcDbEntity
8
DEFAULT_1
100
AcDbLine
62
7
6
CENTER
10
-208.1108097102
20
111.3565644275
11
-208.1108097102
21
118.1440644275
0
LINE
5
24B
100
AcDbEntity
8
0
100
AcDbLine
62
7
6
CONTINUOUS
10
-204.6108097103
20
-126.3559355725
11
-204.6108097103
21
-120.6474975484
0
LINE
5
24C
100
AcDbEntity
8
0
100
AcDbLine
62
7
6
CONTINUOUS
10
-204.6108097103
20
-104.0643735966
11
-204.6108097103
21
-98.3559355725
0
LINE
5
24D
100
AcDbEntity
8
0
100
AcDbLine
62
7
6
CONTINUOUS
10
-204.6108097102
20
93.6440644275
11
-204.6108097102
21
99.3525024516
0
LINE
5
24E
100
AcDbEntity
8
0
100
AcDbLine
62
7
6
CONTINUOUS
10
-204.6108097102
20
115.9356264034
11
-204.6108097102
21
121.6440644275
0
LINE
5
24F
100
AcDbEntity
8
0
100
AcDbLine
62
9
6
CONTINUOUS
10
104.3567070683
20
-186.1651973174
11
94.4216735112
21
-186.1651973174
0
LINE
5
250
100
AcDbEntity
8
0
100
AcDbLine
62
9
6
CONTINUOUS
10
-110.6432929317
20
-186.1651973174
11
-120.5783264888
21
-186.1651973174
0
LINE
5
251
100
AcDbEntity
8
0
100
AcDbLine
62
7
6
CONTINUOUS
10
111.8891902897
20
-185.8559355725
11
-128.1108097103
21
-185.8559355725
0
LINE
5
252
100
AcDbEntity
8
0
100
AcDbLine
62
7
6
CONTINUOUS
10
-307.0872109347
20
-184.3559355725
11
290.8655915141
21
-184.3559355725
0
LINE
5
253
100
AcDbEntity
8
0
100
AcDbLine
62
9
6
CONTINUOUS
10
-308.1108097103
20
-182.3559355725
11
291.8891902897
21
-182.3559355725
0
LINE
5
254
100
AcDbEntity
8
0
100
AcDbLine
62
7
6
CONTINUOUS
10
-159.1108097103
20
-82.3559355725
11
-159.1108097103
21
-80.3559355725
0
LINE
5
255
100
AcDbEntity
8
0
100
AcDbLine
62
7
6
CONTINUOUS
10
-159.1108097102
20
75.6440644275
11
-159.1108097102
21
77.6440644275
0
LINE
5
256
100
AcDbEntity
8
0
100
AcDbLine
62
7
6
CONTINUOUS
10
-158.1108097102
20
77.6440644275
11
-158.1108097102
21
75.6440644275
0
LINE
5
257
100
AcDbEntity
8
0
100
AcDbLine
62
7
6
CONTINUOUS
10
-158.1108097103
20
-80.3559355725
11
-158.1108097103
21
-82.3559355725
0
LINE
5
258
100
AcDbEntity
8
0
100
AcDbLine
62
9
6
CONTINUOUS
10
-113.7799390145
20
183.8212789125
11
-113.7797742617
21
183.8217835528
0
LINE
5
259
100
AcDbEntity
8
0
100
AcDbLine
62
9
6
CONTINUOUS
10
-308.1108097103
20
-146.3559355725
11
291.8891902897
21
-146.3559355725
0
LINE
5
25A
100
AcDbEntity
8
0
100
AcDbLine
62
7
6
CONTINUOUS
10
-308.1108097103
20
-144.3559355725
11
291.8891902897
21
-144.3559355725
0
LINE
5
25B
100
AcDbEntity
8
0
100
AcDbLine
62
7
6
CONTINUOUS
10
-306.1108097103
20
-142.8559355725
11
-305.8108097103
21
-142.8559355725
0
LINE
5
25C
100
AcDbEntity
8
0
100
AcDbLine
62
7
6
CONTINUOUS
10
289.3423170445
20
-142.8559355725
11
289.8891902897
21
-142.8559355725
0
LINE
5
25D
100
AcDbEntity
8
0
100
AcDbLine
62
7
6
CONTINUOUS
10
-308.1108097103
20
-142.3559355725
11
-305.8108097103
21
-142.3559355725
0
LINE
5
25E
100
AcDbEntity
8
0
100
AcDbLine
62
9
6
CONTINUOUS
10
-305.8108097103
20
-142.3559355725
11
289.5891902897
21
-142.3559355725
0
LINE
5
25F
100
AcDbEntity
8
0
100
AcDbLine
62
7
6
CONTINUOUS
10
289.5891902897
20
-142.3559355725
11
291.8891902897
21
-142.3559355725
0
LINE
5
260
100
AcDbEntity
8
0
100
AcDbLine
62
9
6
CONTINUOUS
10
-113.7799403158
20
-188.5331460722
11
-113.7797752708
21
-188.5336516117
0
LINE
5
261
100
AcDbEntity
8
0
100
AcDbLine
62
9
6
CONTINUOUS
10
-115.3056650006
20
-188.4495002036
11
-115.3052948553
21
-188.4562039055
0
LINE
5
262
100
AcDbEntity
8
0
100
AcDbLine
62
7
6
CONTINUOUS
10
-128.1108097103
20
181.1440644275
11
-128.1108097103
21
179.6440644275
0
LINE
5
263
100
AcDbEntity
8
0
100
AcDbLine
62
7
6
CONTINUOUS
10
-128.1108097103
20
-185.8559355725
11
-128.1108097103
21
-184.3559355725
0
LINE
5
264
100
AcDbEntity
8
0
100
AcDbLine
62
9
6
CONTINUOUS
10
-125.1108097103
20
181.1440644275
11
-125.1108097103
21
179.6440644275
0
LINE
5
265
100
AcDbEntity
8
0
100
AcDbLine
62
9
6
CONTINUOUS
10
-125.1108097103
20
-185.8559355725
11
-125.1108097103
21
-184.3559355725
0
LINE
5
266
100
AcDbEntity
8
0
100
AcDbLine
62
9
6
CONTINUOUS
10
-115.3056645930
20
183.7376364426
11
-115.3052944719
21
183.7443371043
0
LINE
5
267
100
AcDbEntity
8
0
100
AcDbLine
62
9
6
CONTINUOUS
10
-114.8988044335
20
184.0694558805
11
-114.8987403653
21
184.0699828391
0
LINE
5
268
100
AcDbEntity
8
0
100
AcDbLine
62
9
6
CONTINUOUS
10
-114.8988044355
20
-188.7813270088
11
-114.8987403651
21
-188.7818539806
0
LINE
5
269
100
AcDbEntity
8
0
100
AcDbLine
62
9
6
CONTINUOUS
10
-115.9159544199
20
183.7376290586
11
-115.9163245652
21
183.7443327606
0
LINE
5
26A
100
AcDbEntity
8
0
100
AcDbLine
62
7
6
CONTINUOUS
10
-116.1108097103
20
-188.6825850187
11
-116.1108097103
21
-188.4746791714
0
LINE
5
26B
100
AcDbEntity
8
0
100
AcDbLine
62
7
6
CONTINUOUS
10
-116.1108097103
20
183.7627985877
11
-116.1108097103
21
183.9707138738
0
LINE
5
26C
100
AcDbEntity
8
0
100
AcDbLine
62
7
6
CONTINUOUS
10
-115.1108097103
20
183.9707138738
11
-115.1108097103
21
183.7628080264
0
LINE
5
26D
100
AcDbEntity
8
0
100
AcDbLine
62
7
6
CONTINUOUS
10
-115.1108097103
20
-188.4746697327
11
-115.1108097103
21
-188.6825850187
0
LINE
5
26E
100
AcDbEntity
8
0
100
AcDbLine
62
9
6
CONTINUOUS
10
-115.9159548275
20
-188.4495075876
11
-115.9163249486
21
-188.4562082493
0
LINE
5
26F
100
AcDbEntity
8
0
100
AcDbLine
62
7
6
CONTINUOUS
10
-208.8533097103
20
-112.3559355725
11
-207.3683097103
21
-112.3559355725
0
LINE
5
270
100
AcDbEntity
8
DEFAULT_1
100
AcDbLine
62
7
6
CENTER
10
-204.3983097103
20
-112.3559355725
11
-197.6108097103
21
-112.3559355725
0
LINE
5
271
100
AcDbEntity
8
0
100
AcDbLine
62
7
6
CONTINUOUS
10
192.6316902897
20
-112.3559355725
11
191.1466902897
21
-112.3559355725
0
LINE
5
272
100
AcDbEntity
8
DEFAULT_1
100
AcDbLine
62
7
6
CENTER
10
188.1766902897
20
-112.3559355725
11
181.3891902897
21
-112.3559355725
0
LINE
5
273
100
AcDbEntity
8
DEFAULT_1
100
AcDbLine
62
7
6
CENTER
10
195.6016902897
20
-112.3559355725
11
202.3891902897
21
-112.3559355725
0
LINE
5
274
100
AcDbEntity
8
DEFAULT_1
100
AcDbLine
62
7
6
CENTER
10
-211.8233097103
20
-112.3559355725
11
-218.6108097103
21
-112.3559355725
0
LINE
5
275
100
AcDbEntity
8
0
100
AcDbLine
62
9
6
CONTINUOUS
10
-116.3228149870
20
-188.7813270255
11
-116.3228790552
21
-188.7818539841
0
LINE
5
276
100
AcDbEntity
8
0
100
AcDbLine
62
7
6
CONTINUOUS
10
-218.1108097103
20
-82.3559355725
11
-159.1108097103
21
-82.3559355725
0
LINE
5
277
100
AcDbEntity
8
0
100
AcDbLine
62
7
6
CONTINUOUS
10
-158.1108097103
20
-82.3559355725
11
-8.6108097103
21
-82.3559355725
0
LINE
5
278
100
AcDbEntity
8
0
100
AcDbLine
62
9
6
CONTINUOUS
10
142.8891902897
20
-82.3559355725
11
141.8891902897
21
-82.3559355725
0
LINE
5
279
100
AcDbEntity
8
0
100
AcDbLine
62
7
6
CONTINUOUS
10
-7.6108097103
20
-82.3559355725
11
141.8891902897
21
-82.3559355725
0
LINE
5
27A
100
AcDbEntity
8
0
100
AcDbLine
62
9
6
CONTINUOUS
10
-7.6108097103
20
-82.3559355725
11
-8.6108097103
21
-82.3559355725
0
LINE
5
27B
100
AcDbEntity
8
0
100
AcDbLine
62
7
6
CONTINUOUS
10
142.8891902897
20
-82.3559355725
11
201.8891902897
21
-82.3559355725
0
LINE
5
27C
100
AcDbEntity
8
0
100
AcDbLine
62
9
6
CONTINUOUS
10
-158.1108097103
20
-82.3559355725
11
-159.1108097103
21
-82.3559355725
0
LINE
5
27D
100
AcDbEntity
8
0
100
AcDbLine
62
9
6
CONTINUOUS
10
-159.1108097103
20
-80.3559355725
11
-158.1108097103
21
-80.3559355725
0
LINE
5
27E
100
AcDbEntity
8
0
100
AcDbLine
62
7
6
CONTINUOUS
10
199.8891902897
20
-80.3559355725
11
142.8891902897
21
-80.3559355725
0
LINE
5
27F
100
AcDbEntity
8
0
100
AcDbLine
62
9
6
CONTINUOUS
10
-8.6108097103
20
-80.3559355725
11
-7.6108097103
21
-80.3559355725
0
LINE
5
280
100
AcDbEntity
8
0
100
AcDbLine
62
7
6
CONTINUOUS
10
141.8891902897
20
-80.3559355725
11
-7.6108097103
21
-80.3559355725
0
LINE
5
281
100
AcDbEntity
8
0
100
AcDbLine
62
9
6
CONTINUOUS
10
141.8891902897
20
-80.3559355725
11
142.8891902897
21
-80.3559355725
0
LINE
5
282
100
AcDbEntity
8
0
100
AcDbLine
62
7
6
CONTINUOUS
10
-8.6108097103
20
-80.3559355725
11
-158.1108097103
21
-80.3559355725
0
LINE
5
283
100
AcDbEntity
8
0
100
AcDbLine
62
7
6
CONTINUOUS
10
-159.1108097103
20
-80.3559355725
11
-216.1108097103
21
-80.3559355725
0
LINE
5
284
100
AcDbEntity
8
0
100
AcDbLine
62
9
6
CONTINUOUS
10
-116.3228149850
20
184.0694558638
11
-116.3228790554
21
184.0699828357
0
LINE
5
285
100
AcDbEntity
8
0
100
AcDbLine
62
9
6
CONTINUOUS
10
-117.4416804060
20
-188.5331500574
11
-117.4418451588
21
-188.5336546977
0
LINE
5
286
100
AcDbEntity
8
0
100
AcDbLine
62
9
6
CONTINUOUS
10
-117.4416791047
20
183.8212749272
11
-117.4418441497
21
183.8217804668
0
LINE
5
287
100
AcDbEntity
8
0
100
AcDbLine
62
7
6
CONTINUOUS
10
201.8891902897
20
-32.3559355725
11
199.8891902897
21
-32.3559355725
0
LINE
5
288
100
AcDbEntity
8
0
100
AcDbLine
62
7
6
CONTINUOUS
10
-216.1108097103
20
-32.3559355725
11
-218.1108097103
21
-32.3559355725
0
LINE
5
289
100
AcDbEntity
8
0
100
AcDbLine
62
7
6
CONTINUOUS
10
-218.1108097103
20
-31.3559355725
11
-216.1108097103
21
-31.3559355725
0
LINE
5
28A
100
AcDbEntity
8
0
100
AcDbLine
62
7
6
CONTINUOUS
10
199.8891902897
20
-31.3559355725
11
201.8891902897
21
-31.3559355725
0
LINE
5
28B
100
AcDbEntity
8
0
100
AcDbLine
62
7
6
CONTINUOUS
10
-8.6108097103
20
-82.3559355725
11
-8.6108097103
21
-80.3559355725
0
LINE
5
28C
100
AcDbEntity
8
0
100
AcDbLine
62
7
6
CONTINUOUS
10
-8.6108097102
20
75.6440644275
11
-8.6108097102
21
77.6440644275
0
LINE
5
28D
100
AcDbEntity
8
0
100
AcDbLine
62
7
6
CONTINUOUS
10
-7.6108097102
20
77.6440644275
11
-7.6108097102
21
75.6440644275
0
LINE
5
28E
100
AcDbEntity
8
0
100
AcDbLine
62
7
6
CONTINUOUS
10
-7.6108097103
20
-80.3559355725
11
-7.6108097103
21
-82.3559355725
0
LINE
5
28F
100
AcDbEntity
8
0
100
AcDbLine
62
7
6
CONTINUOUS
10
-293.1108097103
20
-19.3559355725
11
-287.1108097103
21
-19.3559355725
0
LINE
5
290
100
AcDbEntity
8
0
100
AcDbLine
62
7
6
CONTINUOUS
10
-287.1108097102
20
14.6440644275
11
-293.1108097102
21
14.6440644275
0
LINE
5
291
100
AcDbEntity
8
0
100
AcDbLine
62
9
6
CONTINUOUS
10
101.2200609855
20
183.8212789125
11
101.2202257383
21
183.8217835528
0
LINE
5
292
100
AcDbEntity
8
0
100
AcDbLine
62
7
6
CONTINUOUS
10
201.8891902897
20
26.6440644275
11
199.8891902897
21
26.6440644275
0
LINE
5
293
100
AcDbEntity
8
0
100
AcDbLine
62
7
6
CONTINUOUS
10
-216.1108097103
20
26.6440644275
11
-218.1108097103
21
26.6440644275
0
LINE
5
294
100
AcDbEntity
8
0
100
AcDbLine
62
7
6
CONTINUOUS
10
-218.1108097103
20
27.6440644275
11
-216.1108097103
21
27.6440644275
0
LINE
5
295
100
AcDbEntity
8
0
100
AcDbLine
62
7
6
CONTINUOUS
10
199.8891902897
20
27.6440644275
11
201.8891902897
21
27.6440644275
0
LINE
5
296
100
AcDbEntity
8
0
100
AcDbLine
62
9
6
CONTINUOUS
10
101.2200596842
20
-188.5331460722
11
101.2202247292
21
-188.5336516117
0
LINE
5
297
100
AcDbEntity
8
0
100
AcDbLine
62
9
6
CONTINUOUS
10
100.1011955665
20
184.0694558805
11
100.1012596347
21
184.0699828391
0
LINE
5
298
100
AcDbEntity
8
0
100
AcDbLine
62
7
6
CONTINUOUS
10
-216.1108097102
20
75.6440644275
11
-159.1108097102
21
75.6440644275
0
LINE
5
299
100
AcDbEntity
8
0
100
AcDbLine
62
7
6
CONTINUOUS
10
-158.1108097102
20
75.6440644275
11
-8.6108097102
21
75.6440644275
0
LINE
5
29A
100
AcDbEntity
8
0
100
AcDbLine
62
9
6
CONTINUOUS
10
142.8891902898
20
75.6440644275
11
141.8891902898
21
75.6440644275
0
LINE
5
29B
100
AcDbEntity
8
0
100
AcDbLine
62
7
6
CONTINUOUS
10
-7.6108097102
20
75.6440644275
11
141.8891902898
21
75.6440644275
0
LINE
5
29C
100
AcDbEntity
8
0
100
AcDbLine
62
9
6
CONTINUOUS
10
-7.6108097102
20
75.6440644275
11
-8.6108097102
21
75.6440644275
0
LINE
5
29D
100
AcDbEntity
8
0
100
AcDbLine
62
7
6
CONTINUOUS
10
142.8891902898
20
75.6440644275
11
199.8891902898
21
75.6440644275
0
LINE
5
29E
100
AcDbEntity
8
0
100
AcDbLine
62
9
6
CONTINUOUS
10
-158.1108097102
20
75.6440644275
11
-159.1108097102
21
75.6440644275
0
LINE
5
29F
100
AcDbEntity
8
0
100
AcDbLine
62
9
6
CONTINUOUS
10
-159.1108097102
20
77.6440644275
11
-158.1108097102
21
77.6440644275
0
LINE
5
2A0
100
AcDbEntity
8
0
100
AcDbLine
62
7
6
CONTINUOUS
10
201.8891902898
20
77.6440644275
11
142.8891902898
21
77.6440644275
0
LINE
5
2A1
100
AcDbEntity
8
0
100
AcDbLine
62
9
6
CONTINUOUS
10
-8.6108097102
20
77.6440644275
11
-7.6108097102
21
77.6440644275
0
LINE
5
2A2
100
AcDbEntity
8
0
100
AcDbLine
62
7
6
CONTINUOUS
10
141.8891902898
20
77.6440644275
11
-7.6108097102
21
77.6440644275
0
LINE
5
2A3
100
AcDbEntity
8
0
100
AcDbLine
62
9
6
CONTINUOUS
10
141.8891902898
20
77.6440644275
11
142.8891902898
21
77.6440644275
0
LINE
5
2A4
100
AcDbEntity
8
0
100
AcDbLine
62
7
6
CONTINUOUS
10
-8.6108097102
20
77.6440644275
11
-158.1108097102
21
77.6440644275
0
LINE
5
2A5
100
AcDbEntity
8
0
100
AcDbLine
62
7
6
CONTINUOUS
10
-159.1108097102
20
77.6440644275
11
-218.1108097102
21
77.6440644275
0
LINE
5
2A6
100
AcDbEntity
8
0
100
AcDbLine
62
9
6
CONTINUOUS
10
100.1011955645
20
-188.7813270088
11
100.1012596349
21
-188.7818539806
0
LINE
5
2A7
100
AcDbEntity
8
0
100
AcDbLine
62
9
6
CONTINUOUS
10
99.6943349994
20
-188.4495002036
11
99.6947051447
21
-188.4562039055
0
LINE
5
2A8
100
AcDbEntity
8
0
100
AcDbLine
62
9
6
CONTINUOUS
10
99.0840455801
20
183.7376290586
11
99.0836754348
21
183.7443327606
0
LINE
5
2A9
100
AcDbEntity
8
0
100
AcDbLine
62
7
6
CONTINUOUS
10
98.8891902897
20
-188.6825850187
11
98.8891902897
21
-188.4746791714
0
LINE
5
2AA
100
AcDbEntity
8
0
100
AcDbLine
62
7
6
CONTINUOUS
10
98.8891902897
20
183.7627985877
11
98.8891902897
21
183.9707138738
0
LINE
5
2AB
100
AcDbEntity
8
0
100
AcDbLine
62
7
6
CONTINUOUS
10
99.8891902897
20
183.9707138738
11
99.8891902897
21
183.7628080264
0
LINE
5
2AC
100
AcDbEntity
8
0
100
AcDbLine
62
7
6
CONTINUOUS
10
99.8891902897
20
-188.4746697327
11
99.8891902897
21
-188.6825850187
0
LINE
5
2AD
100
AcDbEntity
8
0
100
AcDbLine
62
9
6
CONTINUOUS
10
108.8891902897
20
181.1440644275
11
108.8891902897
21
179.6440644275
0
LINE
5
2AE
100
AcDbEntity
8
0
100
AcDbLine
62
9
6
CONTINUOUS
10
108.8891902897
20
-185.8559355725
11
108.8891902897
21
-184.3559355725
0
LINE
5
2AF
100
AcDbEntity
8
0
100
AcDbLine
62
7
6
CONTINUOUS
10
111.8891902897
20
181.1440644275
11
111.8891902897
21
179.6440644275
0
LINE
5
2B0
100
AcDbEntity
8
0
100
AcDbLine
62
7
6
CONTINUOUS
10
111.8891902897
20
-185.8559355725
11
111.8891902897
21
-184.3559355725
0
LINE
5
2B1
100
AcDbEntity
8
0
100
AcDbLine
62
9
6
CONTINUOUS
10
99.6943354070
20
183.7376364426
11
99.6947055281
21
183.7443371043
0
LINE
5
2B2
100
AcDbEntity
8
0
100
AcDbLine
62
9
6
CONTINUOUS
10
99.0840451725
20
-188.4495075876
11
99.0836750514
21
-188.4562082493
0
LINE
5
2B3
100
AcDbEntity
8
0
100
AcDbLine
62
7
6
CONTINUOUS
10
-208.8533097102
20
107.6440644275
11
-207.3683097102
21
107.6440644275
0
LINE
5
2B4
100
AcDbEntity
8
DEFAULT_1
100
AcDbLine
62
7
6
CENTER
10
-204.3983097102
20
107.6440644275
11
-197.6108097102
21
107.6440644275
0
LINE
5
2B5
100
AcDbEntity
8
0
100
AcDbLine
62
7
6
CONTINUOUS
10
192.6316902898
20
107.6440644275
11
191.1466902898
21
107.6440644275
0
LINE
5
2B6
100
AcDbEntity
8
DEFAULT_1
100
AcDbLine
62
7
6
CENTER
10
188.1766902898
20
107.6440644275
11
181.3891902898
21
107.6440644275
0
LINE
5
2B7
100
AcDbEntity
8
DEFAULT_1
100
AcDbLine
62
7
6
CENTER
10
195.6016902898
20
107.6440644275
11
202.3891902898
21
107.6440644275
0
LINE
5
2B8
100
AcDbEntity
8
DEFAULT_1
100
AcDbLine
62
7
6
CENTER
10
-211.8233097102
20
107.6440644275
11
-218.6108097102
21
107.6440644275
0
LINE
5
2B9
100
AcDbEntity
8
0
100
AcDbLine
62
9
6
CONTINUOUS
10
98.6771850130
20
-188.7813270255
11
98.6771209448
21
-188.7818539841
0
LINE
5
2BA
100
AcDbEntity
8
0
100
AcDbLine
62
7
6
CONTINUOUS
10
-308.1108097102
20
137.6440644275
11
-305.8108097102
21
137.6440644275
0
LINE
5
2BB
100
AcDbEntity
8
0
100
AcDbLine
62
9
6
CONTINUOUS
10
-305.8108097102
20
137.6440644275
11
289.5891902898
21
137.6440644275
0
LINE
5
2BC
100
AcDbEntity
8
0
100
AcDbLine
62
7
6
CONTINUOUS
10
289.5891902898
20
137.6440644275
11
291.8891902898
21
137.6440644275
0
LINE
5
2BD
100
AcDbEntity
8
0
100
AcDbLine
62
7
6
CONTINUOUS
10
289.8891902898
20
138.1440644275
11
289.5891902898
21
138.1440644275
0
LINE
5
2BE
100
AcDbEntity
8
0
100
AcDbLine
62
7
6
CONTINUOUS
10
-305.5639364650
20
138.1440644275
11
-306.1108097102
21
138.1440644275
0
LINE
5
2BF
100
AcDbEntity
8
0
100
AcDbLine
62
7
6
CONTINUOUS
10
291.8891902897
20
139.6440644275
11
-308.1108097103
21
139.6440644275
0
LINE
5
2C0
100
AcDbEntity
8
0
100
AcDbLine
62
9
6
CONTINUOUS
10
291.8891902897
20
141.6440644275
11
-308.1108097103
21
141.6440644275
0
LINE
5
2C1
100
AcDbEntity
8
0
100
AcDbLine
62
9
6
CONTINUOUS
10
98.6771850150
20
184.0694558638
11
98.6771209446
21
184.0699828357
0
LINE
5
2C2
100
AcDbEntity
8
0
100
AcDbLine
62
7
6
CONTINUOUS
10
141.8891902897
20
-82.3559355725
11
141.8891902897
21
-80.3559355725
0
LINE
5
2C3
100
AcDbEntity
8
0
100
AcDbLine
62
7
6
CONTINUOUS
10
141.8891902898
20
75.6440644275
11
141.8891902898
21
77.6440644275
0
LINE
5
2C4
100
AcDbEntity
8
0
100
AcDbLine
62
7
6
CONTINUOUS
10
142.8891902898
20
77.6440644275
11
142.8891902898
21
75.6440644275
0
LINE
5
2C5
100
AcDbEntity
8
0
100
AcDbLine
62
7
6
CONTINUOUS
10
142.8891902897
20
-80.3559355725
11
142.8891902897
21
-82.3559355725
0
LINE
5
2C6
100
AcDbEntity
8
0
100
AcDbLine
62
9
6
CONTINUOUS
10
97.5583195940
20
-188.5331500574
11
97.5581548412
21
-188.5336546977
0
LINE
5
2C7
100
AcDbEntity
8
0
100
AcDbLine
62
9
6
CONTINUOUS
10
97.5583208953
20
183.8212749272
11
97.5581558503
21
183.8217804668
0
LINE
5
2C8
100
AcDbEntity
8
0
100
AcDbLine
62
9
6
CONTINUOUS
10
291.8891902897
20
177.6440644275
11
-308.1108097103
21
177.6440644275
0
LINE
5
2C9
100
AcDbEntity
8
0
100
AcDbLine
62
7
6
CONTINUOUS
10
290.8655915141
20
179.6440644275
11
-307.0872109347
21
179.6440644275
0
LINE
5
2CA
100
AcDbEntity
8
0
100
AcDbLine
62
7
6
CONTINUOUS
10
-128.1108097103
20
181.1440644275
11
111.8891902897
21
181.1440644275
0
LINE
5
2CB
100
AcDbEntity
8
0
100
AcDbLine
62
9
6
CONTINUOUS
10
-120.5783264888
20
181.4533261725
11
-110.6432929317
21
181.4533261725
0
LINE
5
2CC
100
AcDbEntity
8
0
100
AcDbLine
62
9
6
CONTINUOUS
10
94.4216735112
20
181.4533261725
11
104.3567070683
21
181.4533261725
0
LINE
5
2CD
100
AcDbEntity
8
0
100
AcDbLine
62
7
6
CONTINUOUS
10
188.3891902898
20
121.6440644275
11
188.3891902898
21
115.9356264034
0
LINE
5
2CE
100
AcDbEntity
8
0
100
AcDbLine
62
7
6
CONTINUOUS
10
188.3891902898
20
99.3525024516
11
188.3891902898
21
93.6440644275
0
LINE
5
2CF
100
AcDbEntity
8
0
100
AcDbLine
62
7
6
CONTINUOUS
10
188.3891902897
20
-98.3559355725
11
188.3891902897
21
-104.0643735966
0
LINE
5
2D0
100
AcDbEntity
8
0
100
AcDbLine
62
7
6
CONTINUOUS
10
188.3891902897
20
-120.6474975484
11
188.3891902897
21
-126.3559355725
0
LINE
5
2D1
100
AcDbEntity
8
0
100
AcDbLine
62
7
6
CONTINUOUS
10
191.8891902898
20
108.3865644275
11
191.8891902898
21
106.9015644275
0
LINE
5
2D2
100
AcDbEntity
8
DEFAULT_1
100
AcDbLine
62
7
6
CENTER
10
191.8891902898
20
103.9315644275
11
191.8891902898
21
97.1440644275
0
LINE
5
2D3
100
AcDbEntity
8
0
100
AcDbLine
62
7
6
CONTINUOUS
10
191.8891902897
20
-113.0984355725
11
191.8891902897
21
-111.6134355725
0
LINE
5
2D4
100
AcDbEntity
8
DEFAULT_1
100
AcDbLine
62
7
6
CENTER
10
191.8891902897
20
-108.6434355725
11
191.8891902897
21
-101.8559355725
0
LINE
5
2D5
100
AcDbEntity
8
DEFAULT_1
100
AcDbLine
62
7
6
CENTER
10
191.8891902897
20
-116.0684355725
11
191.8891902897
21
-122.8559355725
0
LINE
5
2D6
100
AcDbEntity
8
DEFAULT_1
100
AcDbLine
62
7
6
CENTER
10
191.8891902898
20
111.3565644275
11
191.8891902898
21
118.1440644275
0
LINE
5
2D7
100
AcDbEntity
8
0
100
AcDbLine
62
7
6
CONTINUOUS
10
195.3891902897
20
-126.3559355725
11
195.3891902897
21
-120.6474975484
0
LINE
5
2D8
100
AcDbEntity
8
0
100
AcDbLine
62
7
6
CONTINUOUS
10
195.3891902897
20
-104.0643735966
11
195.3891902897
21
-98.3559355725
0
LINE
5
2D9
100
AcDbEntity
8
0
100
AcDbLine
62
7
6
CONTINUOUS
10
195.3891902898
20
93.6440644275
11
195.3891902898
21
99.3525024516
0
LINE
5
2DA
100
AcDbEntity
8
0
100
AcDbLine
62
7
6
CONTINUOUS
10
195.3891902898
20
115.9356264034
11
195.3891902898
21
121.6440644275
0
LINE
5
2DB
100
AcDbEntity
8
0
100
AcDbLine
62
7
6
CONTINUOUS
10
199.8891902898
20
75.6440644275
11
199.8891902897
21
27.6440644275
0
LINE
5
2DC
100
AcDbEntity
8
0
100
AcDbLine
62
7
6
CONTINUOUS
10
199.8891902897
20
26.6440644275
11
199.8891902897
21
-31.3559355725
0
LINE
5
2DD
100
AcDbEntity
8
0
100
AcDbLine
62
9
6
CONTINUOUS
10
199.8891902897
20
-32.3559355725
11
199.8891902897
21
-31.3559355725
0
LINE
5
2DE
100
AcDbEntity
8
0
100
AcDbLine
62
7
6
CONTINUOUS
10
199.8891902897
20
-32.3559355725
11
199.8891902897
21
-80.3559355725
0
LINE
5
2DF
100
AcDbEntity
8
0
100
AcDbLine
62
9
6
CONTINUOUS
10
199.8891902897
20
26.6440644275
11
199.8891902897
21
27.6440644275
0
LINE
5
2E0
100
AcDbEntity
8
0
100
AcDbLine
62
9
6
CONTINUOUS
10
201.8891902897
20
27.6440644275
11
201.8891902897
21
26.6440644275
0
LINE
5
2E1
100
AcDbEntity
8
0
100
AcDbLine
62
7
6
CONTINUOUS
10
201.8891902897
20
-82.3559355725
11
201.8891902897
21
-32.3559355725
0
LINE
5
2E2
100
AcDbEntity
8
0
100
AcDbLine
62
9
6
CONTINUOUS
10
201.8891902897
20
-31.3559355725
11
201.8891902897
21
-32.3559355725
0
LINE
5
2E3
100
AcDbEntity
8
0
100
AcDbLine
62
7
6
CONTINUOUS
10
201.8891902897
20
-31.3559355725
11
201.8891902897
21
26.6440644275
0
LINE
5
2E4
100
AcDbEntity
8
0
100
AcDbLine
62
7
6
CONTINUOUS
10
201.8891902897
20
27.6440644275
11
201.8891902898
21
77.6440644275
0
LINE
5
2E5
100
AcDbEntity
8
0
100
AcDbLine
62
7
6
CONTINUOUS
10
271.8891902897
20
100.1440644275
11
271.8891902897
21
95.1440644275
0
LINE
5
2E6
100
AcDbEntity
8
0
100
AcDbLine
62
7
6
CONTINUOUS
10
271.8891902897
20
20.1440644275
11
271.8891902897
21
15.1440644275
0
LINE
5
2E7
100
AcDbEntity
8
0
100
AcDbLine
62
7
6
CONTINUOUS
10
271.8891902897
20
-19.8559355725
11
271.8891902897
21
-24.8559355725
0
LINE
5
2E8
100
AcDbEntity
8
0
100
AcDbLine
62
7
6
CONTINUOUS
10
271.8891902897
20
-99.8559355725
11
271.8891902897
21
-104.8559355725
0
LINE
5
2E9
100
AcDbEntity
8
0
100
AcDbLine
62
9
6
CONTINUOUS
10
273.1891902897
20
-104.4861378629
11
273.1891902897
21
-100.2257332820
0
LINE
5
2EA
100
AcDbEntity
8
0
100
AcDbLine
62
9
6
CONTINUOUS
10
273.1891902898
20
95.5138621371
11
273.1891902898
21
99.7742667180
0
LINE
5
2EB
100
AcDbEntity
8
0
100
AcDbLine
62
7
6
CONTINUOUS
10
273.8891902897
20
-103.8507970707
11
273.8891902897
21
-100.8610740743
0
LINE
5
2EC
100
AcDbEntity
8
0
100
AcDbLine
62
7
6
CONTINUOUS
10
273.8891902898
20
-23.8507970707
11
273.8891902898
21
-20.8610740743
0
LINE
5
2ED
100
AcDbEntity
8
0
100
AcDbLine
62
7
6
CONTINUOUS
10
273.8891902898
20
16.1492029293
11
273.8891902898
21
19.1389259257
0
LINE
5
2EE
100
AcDbEntity
8
0
100
AcDbLine
62
7
6
CONTINUOUS
10
273.8891902898
20
96.1492029293
11
273.8891902898
21
99.1389259257
0
LINE
5
2EF
100
AcDbEntity
8
0
100
AcDbLine
62
9
6
CONTINUOUS
10
289.8891902898
20
137.6440644275
11
289.8891902897
21
-142.3559355725
0
LINE
5
2F0
100
AcDbEntity
8
0
100
AcDbLine
62
7
6
CONTINUOUS
10
289.8891902897
20
-142.8559355725
11
289.8891902897
21
-144.3559355725
0
LINE
5
2F1
100
AcDbEntity
8
0
100
AcDbLine
62
7
6
CONTINUOUS
10
289.8891902898
20
138.1440644275
11
289.8891902898
21
139.6440644275
0
LINE
5
2F2
100
AcDbEntity
8
0
100
AcDbLine
62
7
6
CONTINUOUS
10
290.8655915141
20
-184.0988894951
11
290.8655915141
21
-184.3559355725
0
LINE
5
2F3
100
AcDbEntity
8
0
100
AcDbLine
62
7
6
CONTINUOUS
10
290.8655915141
20
179.3756604633
11
290.8655915141
21
179.6440644275
0
LINE
5
2F4
100
AcDbEntity
8
0
100
AcDbLine
62
7
6
CONTINUOUS
10
291.8891902897
20
177.6440644275
11
291.8891902897
21
139.6440644275
0
LINE
5
2F5
100
AcDbEntity
8
0
100
AcDbLine
62
7
6
CONTINUOUS
10
291.8891902898
20
137.6440644275
11
291.8891902897
21
-142.3559355725
0
LINE
5
2F6
100
AcDbEntity
8
0
100
AcDbLine
62
7
6
CONTINUOUS
10
291.8891902897
20
-182.3559355725
11
291.8891902897
21
-146.3559355725
0
LINE
5
2F7
100
AcDbEntity
8
0
100
AcDbLine
62
7
6
CONTINUOUS
10
291.8891902897
20
-144.3559355725
11
291.8891902897
21
-145.8559355725
0
LINE
5
2F8
100
AcDbEntity
8
0
100
AcDbLine
62
7
6
CONTINUOUS
10
291.8891902897
20
-182.6059355725
11
291.8891902897
21
-183.3559355725
0
LINE
5
2F9
100
AcDbEntity
8
0
100
AcDbLine
62
7
6
CONTINUOUS
10
291.8891902897
20
177.8940644275
11
291.8891902897
21
178.6440644275
0
ARC
5
2FA
100
AcDbEntity
8
0
100
AcDbCircle
62
7
6
CONTINUOUS
10
97.2891902897
20
183.6527684986
40
0.1000000000
100
AcDbArc
50
74.7156395953
51
111.1099183904
0
ARC
5
2FB
100
AcDbEntity
8
0
100
AcDbCircle
62
7
6
CONTINUOUS
10
101.4891902897
20
183.6527684986
40
0.1000000000
100
AcDbArc
50
68.8900816096
51
105.2844940467
0
ARC
5
2FC
100
AcDbEntity
8
0
100
AcDbCircle
62
7
6
CONTINUOUS
10
99.3891902897
20
178.2132951967
40
5.9307692308
100
AcDbArc
50
33.1141427513
51
68.8900812184
0
ARC
5
2FD
100
AcDbEntity
8
0
100
AcDbCircle
62
7
6
CONTINUOUS
10
99.3891902897
20
178.2132951967
40
5.9307692308
100
AcDbArc
50
111.1099187816
51
146.8858572487
0
ARC
5
2FE
100
AcDbEntity
8
0
100
AcDbCircle
62
7
6
CONTINUOUS
10
104.1891902897
20
181.3440644275
40
0.2000000000
100
AcDbArc
50
270.0000000000
51
33.1141427513
0
ARC
5
2FF
100
AcDbEntity
8
0
100
AcDbCircle
62
7
6
CONTINUOUS
10
94.5891902897
20
181.3440644275
40
0.2000000000
100
AcDbArc
50
146.8858572487
51
270.0000000000
0
ARC
5
300
100
AcDbEntity
8
0
100
AcDbCircle
62
7
6
CONTINUOUS
10
-117.7108097103
20
183.6527684986
40
0.1000000000
100
AcDbArc
50
74.7156395953
51
111.1099183904
0
ARC
5
301
100
AcDbEntity
8
0
100
AcDbCircle
62
7
6
CONTINUOUS
10
-113.5108097103
20
183.6527684986
40
0.1000000000
100
AcDbArc
50
68.8900816096
51
105.2844940467
0
ARC
5
302
100
AcDbEntity
8
0
100
AcDbCircle
62
7
6
CONTINUOUS
10
-115.6108097103
20
178.2132951967
40
5.9307692308
100
AcDbArc
50
33.1141427513
51
68.8900812184
0
ARC
5
303
100
AcDbEntity
8
0
100
AcDbCircle
62
7
6
CONTINUOUS
10
-115.6108097103
20
178.2132951967
40
5.9307692308
100
AcDbArc
50
111.1099187816
51
146.8858572487
0
ARC
5
304
100
AcDbEntity
8
0
100
AcDbCircle
62
7
6
CONTINUOUS
10
-110.8108097103
20
181.3440644275
40
0.2000000000
100
AcDbArc
50
270.0000000000
51
33.1141427513
0
ARC
5
305
100
AcDbEntity
8
0
100
AcDbCircle
62
7
6
CONTINUOUS
10
-120.4108097103
20
181.3440644275
40
0.2000000000
100
AcDbArc
50
146.8858572487
51
270.0000000000
0
ARC
5
306
100
AcDbEntity
8
0
100
AcDbCircle
62
7
6
CONTINUOUS
10
101.4891902897
20
-188.3646396436
40
0.1000000000
100
AcDbArc
50
254.7156395953
51
291.1099183904
0
ARC
5
307
100
AcDbEntity
8
0
100
AcDbCircle
62
7
6
CONTINUOUS
10
97.2891902897
20
-188.3646396436
40
0.1000000000
100
AcDbArc
50
248.8900816096
51
285.2844940467
0
ARC
5
308
100
AcDbEntity
8
0
100
AcDbCircle
62
7
6
CONTINUOUS
10
99.3891902897
20
-182.9251663417
40
5.9307692308
100
AcDbArc
50
213.1141427513
51
248.8900812184
0
ARC
5
309
100
AcDbEntity
8
0
100
AcDbCircle
62
7
6
CONTINUOUS
10
99.3891902897
20
-182.9251663417
40
5.9307692308
100
AcDbArc
50
291.1099187816
51
326.8858572487
0
ARC
5
30A
100
AcDbEntity
8
0
100
AcDbCircle
62
7
6
CONTINUOUS
10
94.5891902897
20
-186.0559355725
40
0.2000000000
100
AcDbArc
50
90.0000000000
51
213.1141427513
0
ARC
5
30B
100
AcDbEntity
8
0
100
AcDbCircle
62
7
6
CONTINUOUS
10
104.1891902897
20
-186.0559355725
40
0.2000000000
100
AcDbArc
50
326.8858572487
51
90.0000000000
0
ARC
5
30C
100
AcDbEntity
8
0
100
AcDbCircle
62
7
6
CONTINUOUS
10
-113.5108097103
20
-188.3646396436
40
0.1000000000
100
AcDbArc
50
254.7156395953
51
291.1099183904
0
ARC
5
30D
100
AcDbEntity
8
0
100
AcDbCircle
62
7
6
CONTINUOUS
10
-117.7108097103
20
-188.3646396436
40
0.1000000000
100
AcDbArc
50
248.8900816096
51
285.2844940467
0
ARC
5
30E
100
AcDbEntity
8
0
100
AcDbCircle
62
7
6
CONTINUOUS
10
-115.6108097103
20
-182.9251663417
40
5.9307692308
100
AcDbArc
50
213.1141427513
51
248.8900812184
0
ARC
5
30F
100
AcDbEntity
8
0
100
AcDbCircle
62
7
6
CONTINUOUS
10
-115.6108097103
20
-182.9251663417
40
5.9307692308
100
AcDbArc
50
291.1099187816
51
326.8858572487
0
ARC
5
310
100
AcDbEntity
8
0
100
AcDbCircle
62
7
6
CONTINUOUS
10
-120.4108097103
20
-186.0559355725
40
0.2000000000
100
AcDbArc
50
90.0000000000
51
213.1141427513
0
ARC
5
311
100
AcDbEntity
8
0
100
AcDbCircle
62
7
6
CONTINUOUS
10
-110.8108097103
20
-186.0559355725
40
0.2000000000
100
AcDbArc
50
326.8858572487
51
90.0000000000
0
ARC
5
312
100
AcDbEntity
8
0
100
AcDbCircle
62
7
6
CONTINUOUS
10
-306.1108097102
20
137.6440644275
40
0.5000000000
100
AcDbArc
50
90.0000000016
51
175.0694470342
0
ARC
5
313
100
AcDbEntity
8
0
100
AcDbCircle
62
7
6
CONTINUOUS
10
-306.1108097103
20
-142.3559355725
40
0.5000000000
100
AcDbArc
50
184.9305529623
51
270.0000000001
0
ARC
5
314
100
AcDbEntity
8
0
100
AcDbCircle
62
7
6
CONTINUOUS
10
289.8891902898
20
137.6440644275
40
0.5000000000
100
AcDbArc
50
7.8962924247
51
90.0000000003
0
ARC
5
315
100
AcDbEntity
8
0
100
AcDbCircle
62
7
6
CONTINUOUS
10
289.8891902897
20
-142.3559355725
40
0.5000000000
100
AcDbArc
50
270.0000000014
51
352.1037075720
0
ARC
5
316
100
AcDbEntity
8
0
100
AcDbCircle
62
7
6
CONTINUOUS
10
-306.1108097103
20
-182.3559355725
40
2.0000000000
100
AcDbArc
50
187.7259407538
51
232.4439594308
0
ARC
5
317
100
AcDbEntity
8
0
100
AcDbCircle
62
7
6
CONTINUOUS
10
289.8891902897
20
-182.3559355725
40
2.0000000000
100
AcDbArc
50
298.2503837458
51
352.2740592462
0
ARC
5
318
100
AcDbEntity
8
0
100
AcDbCircle
62
7
6
CONTINUOUS
10
289.8891902897
20
-146.3559355725
40
2.0000000000
100
AcDbArc
50
10.0093107988
51
49.9937928008
0
ARC
5
319
100
AcDbEntity
8
0
100
AcDbCircle
62
7
6
CONTINUOUS
10
289.8891902897
20
177.6440644275
40
2.0000000000
100
AcDbArc
50
7.7259407538
51
52.4439594308
0
ARC
5
31A
100
AcDbEntity
8
0
100
AcDbCircle
62
7
6
CONTINUOUS
10
-306.1108097103
20
177.6440644275
40
2.0000000000
100
AcDbArc
50
118.2503837458
51
172.2740592462
0
ARC
5
31B
100
AcDbEntity
8
0
100
AcDbCircle
62
7
6
CONTINUOUS
10
-306.1108097103
20
141.6440644275
40
2.0000000000
100
AcDbArc
50
190.0093107987
51
229.9937928008
0
CIRCLE
5
31C
100
AcDbEntity
8
0
100
AcDbCircle
62
7
6
CONTINUOUS
10
271.8891902897
20
17.6440644275
40
2.5000000000
0
CIRCLE
5
31D
100
AcDbEntity
8
0
100
AcDbCircle
62
7
6
CONTINUOUS
10
271.8891902898
20
97.6440644275
40
2.5000000000
0
CIRCLE
5
31E
100
AcDbEntity
8
0
100
AcDbCircle
62
7
6
CONTINUOUS
10
271.8891902897
20
-22.3559355725
40
2.5000000000
0
CIRCLE
5
31F
100
AcDbEntity
8
0
100
AcDbCircle
62
7
6
CONTINUOUS
10
271.8891902897
20
-102.3559355725
40
2.5000000000
0
ARC
5
320
100
AcDbEntity
8
0
100
AcDbCircle
62
7
6
CONTINUOUS
10
191.8891902898
20
107.6440644275
40
9.0000000000
100
AcDbArc
50
292.8853804762
51
67.1146195238
0
ARC
5
321
100
AcDbEntity
8
0
100
AcDbCircle
62
7
6
CONTINUOUS
10
191.8891902898
20
93.6440644275
40
3.5000000000
100
AcDbArc
50
180.0000000000
51
360.0000000000
0
ARC
5
322
100
AcDbEntity
8
0
100
AcDbCircle
62
7
6
CONTINUOUS
10
191.8891902898
20
107.6440644275
40
9.0000000000
100
AcDbArc
50
112.8853804762
51
247.1146195238
0
ARC
5
323
100
AcDbEntity
8
0
100
AcDbCircle
62
7
6
CONTINUOUS
10
191.8891902898
20
121.6440644275
40
3.5000000000
100
AcDbArc
50
0.0000000000
51
180.0000000000
0
ARC
5
324
100
AcDbEntity
8
0
100
AcDbCircle
62
7
6
CONTINUOUS
10
-208.1108097102
20
121.6440644275
40
3.5000000000
100
AcDbArc
50
0.0000000000
51
180.0000000000
0
ARC
5
325
100
AcDbEntity
8
0
100
AcDbCircle
62
7
6
CONTINUOUS
10
-208.1108097102
20
107.6440644275
40
9.0000000000
100
AcDbArc
50
292.8853804762
51
67.1146195238
0
ARC
5
326
100
AcDbEntity
8
0
100
AcDbCircle
62
7
6
CONTINUOUS
10
-208.1108097102
20
93.6440644275
40
3.5000000000
100
AcDbArc
50
180.0000000000
51
360.0000000000
0
ARC
5
327
100
AcDbEntity
8
0
100
AcDbCircle
62
7
6
CONTINUOUS
10
-208.1108097102
20
107.6440644275
40
9.0000000000
100
AcDbArc
50
112.8853804762
51
247.1146195238
0
ARC
5
328
100
AcDbEntity
8
0
100
AcDbCircle
62
7
6
CONTINUOUS
10
191.8891902897
20
-126.3559355725
40
3.5000000000
100
AcDbArc
50
180.0000000000
51
360.0000000000
0
ARC
5
329
100
AcDbEntity
8
0
100
AcDbCircle
62
7
6
CONTINUOUS
10
191.8891902897
20
-112.3559355725
40
9.0000000000
100
AcDbArc
50
112.8853804762
51
247.1146195238
0
ARC
5
32A
100
AcDbEntity
8
0
100
AcDbCircle
62
7
6
CONTINUOUS
10
191.8891902897
20
-98.3559355725
40
3.5000000000
100
AcDbArc
50
0.0000000000
51
180.0000000000
0
ARC
5
32B
100
AcDbEntity
8
0
100
AcDbCircle
62
7
6
CONTINUOUS
10
191.8891902897
20
-112.3559355725
40
9.0000000000
100
AcDbArc
50
292.8853804762
51
67.1146195238
0
ARC
5
32C
100
AcDbEntity
8
0
100
AcDbCircle
62
7
6
CONTINUOUS
10
-208.1108097103
20
-112.3559355725
40
9.0000000000
100
AcDbArc
50
112.8853804762
51
247.1146195238
0
ARC
5
32D
100
AcDbEntity
8
0
100
AcDbCircle
62
7
6
CONTINUOUS
10
-306.1108097102
20
137.6440644275
40
2.0000000000
100
AcDbArc
50
90.0000000004
51
177.1795795438
0
ARC
5
32E
100
AcDbEntity
8
0
100
AcDbCircle
62
7
6
CONTINUOUS
10
-208.1108097103
20
-98.3559355725
40
3.5000000000
100
AcDbArc
50
0.0000000000
51
180.0000000000
0
ARC
5
32F
100
AcDbEntity
8
0
100
AcDbCircle
62
7
6
CONTINUOUS
10
-306.1108097103
20
-142.3559355725
40
2.0000000000
100
AcDbArc
50
179.9999999995
51
270.0000000000
0
ARC
5
330
100
AcDbEntity
8
0
100
AcDbCircle
62
7
6
CONTINUOUS
10
289.8891902898
20
137.6440644275
40
2.0000000000
100
AcDbArc
50
0.0000000000
51
90.0000000001
0
ARC
5
331
100
AcDbEntity
8
0
100
AcDbCircle
62
7
6
CONTINUOUS
10
289.8891902897
20
-142.3559355725
40
2.0000000000
100
AcDbArc
50
270.0000000003
51
357.1795795438
0
ARC
5
332
100
AcDbEntity
8
0
100
AcDbCircle
62
7
6
CONTINUOUS
10
-208.1108097103
20
-112.3559355725
40
9.0000000000
100
AcDbArc
50
292.8853804762
51
67.1146195238
0
ARC
5
333
100
AcDbEntity
8
0
100
AcDbCircle
62
7
6
CONTINUOUS
10
-208.1108097103
20
-126.3559355725
40
3.5000000000
100
AcDbArc
50
180.0000000000
51
360.0000000000
0
SPLINE
5
334
100
AcDbEntity
8
0
100
AcDbSpline
62
7
6
CONTINUOUS
70
0
71
3
72
16
73
12
74
10
42
0.0000001000
43
0.0000001000
44
0.0000000001
12
-0.0289744044
22
0.2588793067
32
0.0000000000
13
-0.2571086795
23
-0.0312684163
33
0.0000000000
40
0.0000000000
40
0.0000000000
40
0.0000000000
40
0.0000000000
40
0.0950980898
40
0.2223386279
40
0.3380988178
40
0.4476222810
40
0.5468622451
40
0.6466093114
40
0.7654231273
40
0.9093720201
40
1.0000000000
40
1.0000000000
40
1.0000000000
40
1.0000000000
10
98.8885517209
20
183.9819209668
30
0.0000000000
10
98.8876332507
20
183.9901272760
30
0.0000000000
10
98.8831554870
20
184.0091242126
30
0.0000000000
10
98.8684356792
20
184.0348885841
30
0.0000000000
10
98.8457137729
20
184.0557882275
30
0.0000000000
10
98.8203450221
20
184.0684497174
30
0.0000000000
10
98.7942000987
20
184.0743718497
30
0.0000000000
10
98.7667615641
20
184.0760808394
30
0.0000000000
10
98.7354559335
20
184.0754043981
30
0.0000000000
10
98.7050235261
20
184.0731192409
30
0.0000000000
10
98.6848878278
20
184.0709290577
30
0.0000000000
10
98.6771207477
20
184.0699844599
30
0.0000000000
11
98.8885517209
21
183.9819209668
31
0.0000000000
11
98.8828511160
21
184.0060021671
31
0.0000000000
11
98.8665421852
21
184.0346362528
31
0.0000000000
11
98.8444958414
21
184.0549522624
31
0.0000000000
11
98.8191634364
21
184.0677121075
31
0.0000000000
11
98.7941642244
21
184.0736781971
31
0.0000000000
11
98.7684068871
21
184.0756485614
31
0.0000000000
11
98.7376395804
21
184.0752041481
31
0.0000000000
11
98.7004562476
21
184.0725208951
31
0.0000000000
11
98.6771207477
21
184.0699844599
31
0.0000000000
0
SPLINE
5
335
100
AcDbEntity
8
0
100
AcDbSpline
62
7
6
CONTINUOUS
70
0
71
3
72
17
73
13
74
11
42
0.0000001000
43
0.0000001000
44
0.0000000001
12
-0.2409615793
22
-0.0786737289
32
0.0000000000
13
-0.2508541122
23
-0.0616341786
33
0.0000000000
40
0.0000000000
40
0.0000000000
40
0.0000000000
40
0.0000000000
40
0.1257174119
40
0.2559316030
40
0.3801033766
40
0.4973284206
40
0.6067933816
40
0.7076507114
40
0.7992778858
40
0.8810031933
40
0.9522887015
40
1.0000000000
40
1.0000000000
40
1.0000000000
40
1.0000000000
10
97.5581558469
20
183.8217804773
30
0.0000000000
10
97.5480581582
20
183.8184835915
30
0.0000000000
10
97.5274858717
20
183.8118200685
30
0.0000000000
10
97.4968860681
20
183.8020679586
30
0.0000000000
10
97.4669234267
20
183.7926801923
30
0.0000000000
10
97.4385887061
20
183.7839640892
30
0.0000000000
10
97.4120896830
20
183.7759736399
30
0.0000000000
10
97.3876216939
20
183.7687685796
30
0.0000000000
10
97.3653295714
20
183.7623825622
30
0.0000000000
10
97.3454768076
20
183.7568529364
30
0.0000000000
10
97.3289114911
20
183.7524607722
30
0.0000000000
10
97.3194864891
20
183.7500135875
30
0.0000000000
10
97.3154969640
20
183.7490333719
30
0.0000000000
11
97.5581558469
21
183.8217804773
31
0.0000000000
11
97.5278398021
21
183.8119606071
31
0.0000000000
11
97.4963912884
21
183.8019392010
31
0.0000000000
11
97.4663551138
21
183.7925315512
31
0.0000000000
11
97.4379533009
21
183.7837984217
31
0.0000000000
11
97.4113857916
21
183.7757940240
31
0.0000000000
11
97.3868598725
21
183.7685786131
31
0.0000000000
11
97.3645315773
21
183.7621851587
31
0.0000000000
11
97.3445694938
21
183.7566484558
31
0.0000000000
11
97.3271079255
21
183.7520011533
31
0.0000000000
11
97.3154969640
21
183.7490333719
31
0.0000000000
0
SPLINE
5
336
100
AcDbEntity
8
0
100
AcDbSpline
62
7
6
CONTINUOUS
70
0
71
3
72
11
73
7
74
5
42
0.0000001000
43
0.0000001000
44
0.0000000001
12
-0.0254898087
22
-0.0062627772
32
0.0000000000
13
-0.0387715112
23
-0.0062176843
33
0.0000000000
40
0.0000000000
40
0.0000000000
40
0.0000000000
40
0.0000000000
40
0.1248469644
40
0.5993276583
40
0.9394943737
40
1.0000000000
40
1.0000000000
40
1.0000000000
40
1.0000000000
10
97.3154969640
20
183.7490333719
30
0.0000000000
10
97.3144361889
20
183.7487727424
30
0.0000000000
10
97.3092724629
20
183.7475219209
30
0.0000000000
10
97.3004538263
20
183.7455472006
30
0.0000000000
10
97.2959606882
20
183.7443063441
30
0.0000000000
10
97.2901150931
20
183.7433795013
30
0.0000000000
10
97.2893331282
20
183.7432540997
30
0.0000000000
11
97.3154969640
21
183.7490333719
31
0.0000000000
11
97.3122648158
21
183.7482512345
31
0.0000000000
11
97.3003682667
21
183.7454539197
31
0.0000000000
11
97.2917941893
21
183.7436512461
31
0.0000000000
11
97.2893331282
21
183.7432540997
31
0.0000000000
0
SPLINE
5
337
100
AcDbEntity
8
0
100
AcDbSpline
62
7
6
CONTINUOUS
70
0
71
3
72
10
73
6
74
4
42
0.0000001000
43
0.0000001000
44
0.0000000001
12
-1.1394054503
22
-0.1385357645
32
0.0000000000
13
-1.0911165306
23
-0.3562186596
33
0.0000000000
40
0.0000000000
40
0.0000000000
40
0.0000000000
40
0.0000000000
40
0.3242326341
40
0.6737101514
40
1.0000000000
40
1.0000000000
40
1.0000000000
40
1.0000000000
10
98.6771209501
20
184.0699827902
30
0.0000000000
10
98.5539768066
20
184.0550101849
30
0.0000000000
10
98.2990078408
20
184.0158158019
30
0.0000000000
10
97.9252291887
20
183.9329860351
30
0.0000000000
10
97.6768282612
20
183.8605270565
30
0.0000000000
10
97.5581548453
20
183.8217835457
30
0.0000000000
11
98.6771209501
21
184.0699827902
31
0.0000000000
11
98.3092915952
21
184.0134376025
31
0.0000000000
11
97.9176818130
21
183.9266563909
31
0.0000000000
11
97.5581548453
21
183.8217835457
31
0.0000000000
0
SPLINE
5
338
100
AcDbEntity
8
0
100
AcDbSpline
62
7
6
CONTINUOUS
70
0
71
3
72
8
73
4
74
2
42
0.0000001000
43
0.0000001000
44
0.0000000001
12
-0.0000045224
22
0.0112105483
32
0.0000000000
13
-0.0012537431
23
0.0111931650
33
0.0000000000
40
0.0000000000
40
0.0000000000
40
0.0000000000
40
0.0000000000
40
1.0000000000
40
1.0000000000
40
1.0000000000
40
1.0000000000
10
98.8891802996
20
183.9707049592
30
0.0000000000
10
98.8891787921
20
183.9744418086
30
0.0000000000
10
98.8889669488
20
183.9781896104
30
0.0000000000
10
98.8885490344
20
183.9819206654
30
0.0000000000
11
98.8891802996
21
183.9707049592
31
0.0000000000
11
98.8885490344
21
183.9819206654
31
0.0000000000
0
SPLINE
5
339
100
AcDbEntity
8
0
100
AcDbSpline
62
7
6
CONTINUOUS
70
0
71
3
72
13
73
9
74
7
42
0.0000001000
43
0.0000001000
44
0.0000000001
12
-0.0186732971
22
0.1667114088
32
0.0000000000
13
-0.1668252168
23
0.0043654261
33
0.0000000000
40
0.0000000000
40
0.0000000000
40
0.0000000000
40
0.0000000000
40
0.1475633507
40
0.3441968187
40
0.5230475999
40
0.6926499719
40
0.8460445029
40
1.0000000000
40
1.0000000000
40
1.0000000000
40
1.0000000000
10
98.8885490343
20
183.9819206659
30
0.0000000000
10
98.8876305362
20
183.9901208306
30
0.0000000000
10
98.8831662939
20
184.0090593235
30
0.0000000000
10
98.8685268817
20
184.0347385445
30
0.0000000000
10
98.8459570045
20
184.0556065257
30
0.0000000000
10
98.8207356637
20
184.0683037268
30
0.0000000000
10
98.7947255354
20
184.0742971116
30
0.0000000000
10
98.7776372978
20
184.0754072902
30
0.0000000000
10
98.7690760780
20
184.0756313174
30
0.0000000000
11
98.8885490343
21
183.9819206659
31
0.0000000000
11
98.8828526088
21
184.0059844202
31
0.0000000000
11
98.8666475429
21
184.0344982908
31
0.0000000000
11
98.8447615596
21
184.0547687760
31
0.0000000000
11
98.8195402079
21
184.0675796742
31
0.0000000000
11
98.7946746236
21
184.0736045760
31
0.0000000000
11
98.7690760780
21
184.0756313174
31
0.0000000000
0
SPLINE
5
33A
100
AcDbEntity
8
0
100
AcDbSpline
62
7
6
CONTINUOUS
70
0
71
3
72
8
73
4
74
2
42
0.0000001000
43
0.0000001000
44
0.0000000001
12
-0.0304850193
22
0.0007977217
32
0.0000000000
13
-0.0304535634
23
-0.0013443544
33
0.0000000000
40
0.0000000000
40
0.0000000000
40
0.0000000000
40
0.0000000000
40
1.0000000000
40
1.0000000000
40
1.0000000000
40
1.0000000000
10
98.7690760780
20
184.0756313174
30
0.0000000000
10
98.7589144050
20
184.0758972246
30
0.0000000000
10
98.7487506095
20
184.0756952935
30
0.0000000000
10
98.7385994217
20
184.0752471754
30
0.0000000000
11
98.7690760780
21
184.0756313174
31
0.0000000000
11
98.7385994217
21
184.0752471754
31
0.0000000000
0
SPLINE
5
33B
100
AcDbEntity
8
0
100
AcDbSpline
62
7
6
CONTINUOUS
70
0
71
3
72
9
73
5
74
3
42
0.0000001000
43
0.0000001000
44
0.0000000001
12
-0.0616600254
22
-0.0027219451
32
0.0000000000
13
-0.0612650701
23
-0.0074519145
33
0.0000000000
40
0.0000000000
40
0.0000000000
40
0.0000000000
40
0.0000000000
40
0.5991729697
40
1.0000000000
40
1.0000000000
40
1.0000000000
40
1.0000000000
10
98.7385994217
20
184.0752471754
30
0.0000000000
10
98.7262844149
20
184.0747035367
30
0.0000000000
10
98.7057620413
20
184.0731915096
30
0.0000000000
10
98.6853063436
20
184.0709798492
30
0.0000000000
10
98.6771207782
20
184.0699842063
30
0.0000000000
11
98.7385994217
21
184.0752471754
31
0.0000000000
11
98.7017154490
21
184.0726404310
31
0.0000000000
11
98.6771207782
21
184.0699842063
31
0.0000000000
0
SPLINE
5
33C
100
AcDbEntity
8
0
100
AcDbSpline
62
7
6
CONTINUOUS
70
0
71
3
72
8
73
4
74
2
42
0.0000001000
43
0.0000001000
44
0.0000000001
12
-0.0121258853
22
-0.0006742997
32
0.0000000000
13
-0.0121403917
23
-0.0004857074
33
0.0000000000
40
0.0000000000
40
0.0000000000
40
0.0000000000
40
0.0000000000
40
1.0000000000
40
1.0000000000
40
1.0000000000
40
1.0000000000
10
99.0836759791
20
183.7443204026
30
0.0000000000
10
99.0796340174
20
183.7440956360
30
0.0000000000
10
99.0755896709
20
183.7439019631
30
0.0000000000
10
99.0715428736
20
183.7437400606
30
0.0000000000
11
99.0836759791
21
183.7443204026
31
0.0000000000
11
99.0715428736
21
183.7437400606
31
0.0000000000
0
SPLINE
5
33D
100
AcDbEntity
8
0
100
AcDbSpline
62
7
6
CONTINUOUS
70
0
71
3
72
8
73
4
74
2
42
0.0000001000
43
0.0000001000
44
0.0000000001
12
-0.0226721203
22
-0.0009070561
32
0.0000000000
13
-0.0227246917
23
-0.0002290275
33
0.0000000000
40
0.0000000000
40
0.0000000000
40
0.0000000000
40
0.0000000000
40
1.0000000000
40
1.0000000000
40
1.0000000000
40
1.0000000000
10
99.0715428736
20
183.7437400606
30
0.0000000000
10
99.0639855002
20
183.7434377086
30
0.0000000000
10
99.0564195798
20
183.7432461573
30
0.0000000000
10
99.0488446825
20
183.7431698148
30
0.0000000000
11
99.0715428736
21
183.7437400606
31
0.0000000000
11
99.0488446825
21
183.7431698148
31
0.0000000000
0
SPLINE
5
33E
100
AcDbEntity
8
0
100
AcDbSpline
62
7
6
CONTINUOUS
70
0
71
3
72
11
73
7
74
5
42
0.0000001000
43
0.0000001000
44
0.0000000001
12
-0.1625355335
22
-0.0016380908
32
0.0000000000
13
-0.1430045884
23
0.0452983136
33
0.0000000000
40
0.0000000000
40
0.0000000000
40
0.0000000000
40
0.0000000000
40
0.3921400466
40
0.7167710143
40
0.9507098624
40
1.0000000000
40
1.0000000000
40
1.0000000000
40
1.0000000000
10
99.0488446825
20
183.7431698148
30
0.0000000000
10
99.0275991187
20
183.7429556945
30
0.0000000000
10
98.9886364562
20
183.7442208790
30
0.0000000000
10
98.9382692344
20
183.7495572840
30
0.0000000000
10
98.9045956581
20
183.7582383087
30
0.0000000000
10
98.8914269993
20
183.7616980332
30
0.0000000000
10
98.8890774274
20
183.7624422866
30
0.0000000000
11
99.0488446825
21
183.7431698148
31
0.0000000000
11
98.9852628293
21
183.7451655692
31
0.0000000000
11
98.9330082209
21
183.7517017764
31
0.0000000000
11
98.8960868262
21
183.7604761245
31
0.0000000000
11
98.8890774274
21
183.7624422866
31
0.0000000000
0
SPLINE
5
33F
100
AcDbEntity
8
0
100
AcDbSpline
62
7
6
CONTINUOUS
70
0
71
3
72
9
73
5
74
3
42
0.0000001000
43
0.0000001000
44
0.0000000001
12
-0.0148819146
22
0.0047140140
32
0.0000000000
13
-0.0133048910
23
0.0072041476
33
0.0000000000
40
0.0000000000
40
0.0000000000
40
0.0000000000
40
0.0000000000
40
0.8019985287
40
1.0000000000
40
1.0000000000
40
1.0000000000
40
1.0000000000
10
98.8890774274
20
183.7624422866
30
0.0000000000
10
98.8850990028
20
183.7637024974
30
0.0000000000
10
98.8799315901
20
183.7657820516
30
0.0000000000
10
98.8734934241
20
183.7697020492
30
0.0000000000
10
98.8726152948
20
183.7701775265
30
0.0000000000
11
98.8890774274
21
183.7624422866
31
0.0000000000
11
98.8759931375
21
183.7682218724
31
0.0000000000
11
98.8726152948
21
183.7701775265
31
0.0000000000
0
SPLINE
5
340
100
AcDbEntity
8
0
100
AcDbSpline
62
7
6
CONTINUOUS
70
0
71
3
72
10
73
6
74
4
42
0.0000001000
43
0.0000001000
44
0.0000000001
12
-0.6103837428
22
0.0337146206
32
0.0000000000
13
-0.6103824095
23
-0.0337146639
33
0.0000000000
40
0.0000000000
40
0.0000000000
40
0.0000000000
40
0.0000000000
40
0.3162379388
40
0.6798529955
40
1.0000000000
40
1.0000000000
40
1.0000000000
40
1.0000000000
10
99.6947055280
20
183.7443371011
30
0.0000000000
10
99.6303633624
20
183.7478910485
30
0.0000000000
10
99.4918942913
20
183.7531182198
30
0.0000000000
10
99.2880795308
20
183.7531621495
30
0.0000000000
10
99.1488125606
20
183.7479350060
30
0.0000000000
10
99.0836751939
20
183.7443371231
30
0.0000000000
11
99.6947055280
21
183.7443371011
31
0.0000000000
11
99.5015232705
21
183.7516294091
31
0.0000000000
11
99.2792466351
21
183.7516773477
31
0.0000000000
11
99.0836751939
21
183.7443371231
31
0.0000000000
0
SPLINE
5
341
100
AcDbEntity
8
0
100
AcDbSpline
62
7
6
CONTINUOUS
70
0
71
3
72
9
73
5
74
3
42
0.0000001000
43
0.0000001000
44
0.0000000001
12
-0.0152042181
22
-0.0087117897
32
0.0000000000
13
-0.0143642103
23
-0.0045149261
33
0.0000000000
40
0.0000000000
40
0.0000000000
40
0.0000000000
40
0.0000000000
40
0.1424866664
40
1.0000000000
40
1.0000000000
40
1.0000000000
40
1.0000000000
10
99.9051184602
20
183.7697892257
30
0.0000000000
10
99.9043963275
20
183.7693754544
30
0.0000000000
10
99.8983282791
20
183.7657388285
30
0.0000000000
10
99.8933940289
20
183.7637870781
30
0.0000000000
10
99.8892881949
20
183.7624965417
30
0.0000000000
11
99.9051184602
21
183.7697892257
31
0.0000000000
11
99.9026901144
21
183.7683733201
31
0.0000000000
11
99.8892881949
21
183.7624965417
31
0.0000000000
0
SPLINE
5
342
100
AcDbEntity
8
0
100
AcDbSpline
62
7
6
CONTINUOUS
70
0
71
3
72
11
73
7
74
5
42
0.0000001000
43
0.0000001000
44
0.0000000001
12
-0.1401325979
22
-0.0440425303
32
0.0000000000
13
-0.1595286702
23
0.0010276725
33
0.0000000000
40
0.0000000000
40
0.0000000000
40
0.0000000000
40
0.0000000000
40
0.0438216188
40
0.2774879323
40
0.6034667719
40
1.0000000000
40
1.0000000000
40
1.0000000000
40
1.0000000000
10
99.8892862885
20
183.7624959425
30
0.0000000000
10
99.8872393428
20
183.7618526042
30
0.0000000000
10
99.8744747576
20
183.7583816197
30
0.0000000000
10
99.8417751961
20
183.7498862129
30
0.0000000000
10
99.7920350672
20
183.7443825515
30
0.0000000000
10
99.7534987020
20
183.7430039561
30
0.0000000000
10
99.7324125625
20
183.7431397916
30
0.0000000000
11
99.8892862885
21
183.7624959425
31
0.0000000000
11
99.8831510612
21
183.7607454516
31
0.0000000000
11
99.8469886239
21
183.7519976452
31
0.0000000000
11
99.7955116025
21
183.7453545688
31
0.0000000000
11
99.7324125625
21
183.7431397916
31
0.0000000000
0
SPLINE
5
343
100
AcDbEntity
8
0
100
AcDbSpline
62
7
6
CONTINUOUS
70
0
71
3
72
8
73
4
74
2
42
0.0000001000
43
0.0000001000
44
0.0000000001
12
-0.0377751027
22
0.0002433446
32
0.0000000000
13
-0.0376420626
23
0.0020944388
33
0.0000000000
40
0.0000000000
40
0.0000000000
40
0.0000000000
40
0.0000000000
40
1.0000000000
40
1.0000000000
40
1.0000000000
40
1.0000000000
10
99.7324125625
20
183.7431397916
30
0.0000000000
10
99.7198208616
20
183.7432209064
30
0.0000000000
10
99.7072518436
20
183.7436202619
30
0.0000000000
10
99.6947044895
20
183.7443184082
30
0.0000000000
11
99.7324125625
21
183.7431397916
31
0.0000000000
11
99.6947044895
21
183.7443184082
31
0.0000000000
0
SPLINE
5
344
100
AcDbEntity
8
0
100
AcDbSpline
62
7
6
CONTINUOUS
70
0
71
3
72
9
73
5
74
3
42
0.0000001000
43
0.0000001000
44
0.0000000001
12
-0.0603938318
22
0.0073448720
32
0.0000000000
13
-0.0607785955
23
0.0027725077
33
0.0000000000
40
0.0000000000
40
0.0000000000
40
0.0000000000
40
0.0000000000
40
0.3869911088
40
1.0000000000
40
1.0000000000
40
1.0000000000
40
1.0000000000
10
100.1012598331
20
184.0699844703
30
0.0000000000
10
100.0934692078
20
184.0709319370
30
0.0000000000
10
100.0733060060
20
184.0731243326
30
0.0000000000
10
100.0530776605
20
184.0746413830
30
0.0000000000
10
100.0406583873
20
184.0752079070
30
0.0000000000
11
100.1012598331
21
184.0699844703
31
0.0000000000
11
100.0778534921
21
184.0725276711
31
0.0000000000
11
100.0406583873
21
184.0752079070
31
0.0000000000
0
SPLINE
5
345
100
AcDbEntity
8
0
100
AcDbSpline
62
7
6
CONTINUOUS
70
0
71
3
72
9
73
5
74
3
42
0.0000001000
43
0.0000001000
44
0.0000000001
12
-0.0564442669
22
0.0025747907
32
0.0000000000
13
-0.0559810452
23
-0.0080425123
33
0.0000000000
40
0.0000000000
40
0.0000000000
40
0.0000000000
40
0.0000000000
40
0.5438656546
40
1.0000000000
40
1.0000000000
40
1.0000000000
40
1.0000000000
10
100.0406583873
20
184.0752079070
30
0.0000000000
10
100.0304256879
20
184.0756746870
30
0.0000000000
10
100.0115870691
20
184.0760792902
30
0.0000000000
10
99.9927528928
20
184.0749045695
30
0.0000000000
10
99.9842412670
20
184.0736817475
30
0.0000000000
11
100.0406583873
21
184.0752079070
31
0.0000000000
11
100.0099356465
21
184.0756476386
31
0.0000000000
11
99.9842412670
21
184.0736817475
31
0.0000000000
0
SPLINE
5
346
100
AcDbEntity
8
0
100
AcDbSpline
62
7
6
CONTINUOUS
70
0
71
3
72
8
73
4
74
2
42
0.0000001000
43
0.0000001000
44
0.0000000001
12
-0.0253563285
22
-0.0036428149
32
0.0000000000
13
-0.0242042291
23
-0.0084543714
33
0.0000000000
40
0.0000000000
40
0.0000000000
40
0.0000000000
40
0.0000000000
40
1.0000000000
40
1.0000000000
40
1.0000000000
40
1.0000000000
10
99.9842412670
20
184.0736817475
30
0.0000000000
10
99.9757891575
20
184.0724674759
30
0.0000000000
10
99.9674152320
20
184.0705757865
30
0.0000000000
10
99.9593471556
20
184.0677576627
30
0.0000000000
11
99.9842412670
21
184.0736817475
31
0.0000000000
11
99.9593471556
21
184.0677576627
31
0.0000000000
0
SPLINE
5
347
100
AcDbEntity
8
0
100
AcDbSpline
62
7
6
CONTINUOUS
70
0
71
3
72
11
73
7
74
5
42
0.0000001000
43
0.0000001000
44
0.0000000001
12
-0.1097795045
22
-0.0383452287
32
0.0000000000
13
-0.0129853403
23
-0.1160160106
33
0.0000000000
40
0.0000000000
40
0.0000000000
40
0.0000000000
40
0.0000000000
40
0.2448027718
40
0.5034455926
40
0.7877064745
40
1.0000000000
40
1.0000000000
40
1.0000000000
40
1.0000000000
10
99.9593471556
20
184.0677576627
30
0.0000000000
10
99.9503890466
20
184.0646286566
30
0.0000000000
10
99.9327417960
20
184.0558449579
30
0.0000000000
10
99.9099736469
20
184.0349313425
30
0.0000000000
10
99.8952305169
20
184.0091444102
30
0.0000000000
10
99.8907478105
20
183.9901312253
30
0.0000000000
10
99.8898289093
20
183.9819214093
30
0.0000000000
11
99.9593471556
21
184.0677576627
31
0.0000000000
11
99.9339588368
21
184.0550028568
31
0.0000000000
11
99.9118701784
21
184.0346755365
31
0.0000000000
11
99.8955333393
21
184.0060126181
31
0.0000000000
11
99.8898289093
21
183.9819214093
31
0.0000000000
0
SPLINE
5
348
100
AcDbEntity
8
0
100
AcDbSpline
62
7
6
CONTINUOUS
70
0
71
3
72
8
73
4
74
2
42
0.0000001000
43
0.0000001000
44
0.0000000001
12
-0.0012512757
22
-0.0111793772
32
0.0000000000
13
-0.0000054201
23
-0.0111967750
33
0.0000000000
40
0.0000000000
40
0.0000000000
40
0.0000000000
40
0.0000000000
40
1.0000000000
40
1.0000000000
40
1.0000000000
40
1.0000000000
10
99.8898289093
20
183.9819214093
30
0.0000000000
10
99.8894118174
20
183.9781949503
30
0.0000000000
10
99.8892002599
20
183.9744517933
30
0.0000000000
10
99.8891984531
20
183.9707195349
30
0.0000000000
11
99.8898289093
21
183.9819214093
31
0.0000000000
11
99.8891984531
21
183.9707195349
31
0.0000000000
0
SPLINE
5
349
100
AcDbEntity
8
0
100
AcDbSpline
62
7
6
CONTINUOUS
70
0
71
3
72
10
73
6
74
4
42
0.0000001000
43
0.0000001000
44
0.0000000001
12
-1.0911208316
22
0.3562194201
32
0.0000000000
13
-1.1394011973
23
0.1385349433
33
0.0000000000
40
0.0000000000
40
0.0000000000
40
0.0000000000
40
0.0000000000
40
0.3242092501
40
0.6736871094
40
1.0000000000
40
1.0000000000
40
1.0000000000
40
1.0000000000
10
101.2202257267
20
183.8217835174
30
0.0000000000
10
101.1023085712
20
183.8602800611
30
0.0000000000
10
100.8546887230
20
183.9325657061
30
0.0000000000
10
100.4809436110
20
184.0155466987
30
0.0000000000
10
100.2251933964
20
184.0549142239
30
0.0000000000
10
100.1012596303
20
184.0699828032
30
0.0000000000
11
101.2202257267
21
183.8217835174
31
0.0000000000
11
100.8630112669
21
183.9260602896
31
0.0000000000
11
100.4714362563
21
184.0130000769
31
0.0000000000
11
100.1012596303
21
184.0699828032
31
0.0000000000
0
SPLINE
5
34A
100
AcDbEntity
8
0
100
AcDbSpline
62
7
6
CONTINUOUS
70
0
71
3
72
8
73
4
74
2
42
0.0000001000
43
0.0000001000
44
0.0000000001
12
0.0000338558
22
0.0001072465
32
0.0000000000
13
-0.0041573908
23
0.0006697597
33
0.0000000000
40
0.0000000000
40
0.0000000000
40
0.0000000000
40
0.0000000000
40
1.0000000000
40
1.0000000000
40
1.0000000000
40
1.0000000000
10
101.4912665447
20
183.7428474975
30
0.0000000000
10
101.4912778299
20
183.7428832463
30
0.0000000000
10
101.4900723414
20
183.7430769749
30
0.0000000000
10
101.4886865445
20
183.7433002281
30
0.0000000000
11
101.4912665447
21
183.7428474975
31
0.0000000000
11
101.4886865445
21
183.7433002281
31
0.0000000000
0
SPLINE
5
34B
100
AcDbEntity
8
0
100
AcDbSpline
62
7
6
CONTINUOUS
70
0
71
3
72
11
73
7
74
5
42
0.0000001000
43
0.0000001000
44
0.0000000001
12
-0.0393958245
22
0.0063467055
32
0.0000000000
13
-0.0252524804
23
0.0062307611
33
0.0000000000
40
0.0000000000
40
0.0000000000
40
0.0000000000
40
0.0000000000
40
0.0437461441
40
0.3811931805
40
0.8487327780
40
1.0000000000
40
1.0000000000
40
1.0000000000
40
1.0000000000
10
101.4886865445
20
183.7433002281
30
0.0000000000
10
101.4881120727
20
183.7433927760
30
0.0000000000
10
101.4828362687
20
183.7442434271
30
0.0000000000
10
101.4783337179
20
183.7454481460
30
0.0000000000
10
101.4694367312
20
183.7474348478
30
0.0000000000
10
101.4641492546
20
183.7487178740
30
0.0000000000
10
101.4628759637
20
183.7490320440
30
0.0000000000
11
101.4886865445
21
183.7433002281
31
0.0000000000
11
101.4869440085
21
183.7435839422
31
0.0000000000
11
101.4784581822
21
183.7453565887
31
0.0000000000
11
101.4667623795
21
183.7480904476
31
0.0000000000
11
101.4628759637
21
183.7490320440
31
0.0000000000
0
SPLINE
5
34C
100
AcDbEntity
8
0
100
AcDbSpline
62
7
6
CONTINUOUS
70
0
71
3
72
18
73
14
74
12
42
0.0000001000
43
0.0000001000
44
0.0000000001
12
-0.2491589938
22
0.0614771357
32
0.0000000000
13
-0.2409641088
23
0.0786527442
33
0.0000000000
40
0.0000000000
40
0.0000000000
40
0.0000000000
40
0.0000000000
40
0.0441584266
40
0.1147243445
40
0.1955767258
40
0.2863024203
40
0.3862697342
40
0.4948207329
40
0.6111644276
40
0.7344498212
40
0.8637745550
40
0.9980510664
40
1.0000000000
40
1.0000000000
40
1.0000000000
40
1.0000000000
10
101.4628759637
20
183.7490320440
30
0.0000000000
10
101.4592084740
20
183.7499369552
30
0.0000000000
10
101.4500947946
20
183.7522994489
30
0.0000000000
10
101.4339614254
20
183.7565675934
30
0.0000000000
10
101.4143035652
20
183.7620256947
30
0.0000000000
10
101.3922282507
20
183.7683450732
30
0.0000000000
10
101.3679757666
20
183.7754725598
30
0.0000000000
10
101.3416902188
20
183.7833831360
30
0.0000000000
10
101.3135701194
20
183.7920247838
30
0.0000000000
10
101.2838189440
20
183.8013348090
30
0.0000000000
10
101.2526704215
20
183.8112509172
30
0.0000000000
10
101.2313232119
20
183.8181582533
30
0.0000000000
10
101.2203812683
20
183.8217293589
30
0.0000000000
10
101.2202247273
20
183.8217804553
30
0.0000000000
11
101.4628759637
21
183.7490320440
31
0.0000000000
11
101.4521407351
21
183.7517765614
31
0.0000000000
11
101.4348530076
21
183.7563666988
31
0.0000000000
11
101.4151008158
21
183.7618310009
31
0.0000000000
11
101.3929903088
21
183.7681535884
31
0.0000000000
11
101.3686778072
21
183.7752936202
31
0.0000000000
11
101.3423286016
21
183.7832179475
31
0.0000000000
11
101.3141378984
21
183.7918758857
31
0.0000000000
11
101.2843135087
21
183.8012062988
31
0.0000000000
11
101.2530768404
21
183.8111481671
31
0.0000000000
11
101.2206943559
21
183.8216271833
31
0.0000000000
11
101.2202247273
21
183.8217804553
31
0.0000000000
0
SPLINE
5
34D
100
AcDbEntity
8
0
100
AcDbSpline
62
7
6
CONTINUOUS
70
0
71
3
72
8
73
4
74
2
42
0.0000001000
43
0.0000001000
44
0.0000000001
12
0.0000338947
22
0.0001160309
32
0.0000000000
13
-0.0042056179
23
0.0006729367
33
0.0000000000
40
0.0000000000
40
0.0000000000
40
0.0000000000
40
0.0000000000
40
1.0000000000
40
1.0000000000
40
1.0000000000
40
1.0000000000
10
101.4912610424
20
183.7428583001
30
0.0000000000
10
101.4912723407
20
183.7428969771
30
0.0000000000
10
101.4900902465
20
183.7430876205
30
0.0000000000
10
101.4886883739
20
183.7433119328
30
0.0000000000
11
101.4912610424
21
183.7428583001
31
0.0000000000
11
101.4886883739
21
183.7433119328
31
0.0000000000
0
SPLINE
5
34E
100
AcDbEntity
8
0
100
AcDbSpline
62
7
6
CONTINUOUS
70
0
71
3
72
17
73
13
74
11
42
0.0000001000
43
0.0000001000
44
0.0000000001
12
-0.2509708435
22
0.0616478837
32
0.0000000000
13
-0.2409606472
23
0.0786734263
33
0.0000000000
40
0.0000000000
40
0.0000000000
40
0.0000000000
40
0.0000000000
40
0.0479700867
40
0.1192779108
40
0.2010034140
40
0.2926090716
40
0.3934274926
40
0.5028415426
40
0.6200107320
40
0.7441297324
40
0.8743023083
40
1.0000000000
40
1.0000000000
40
1.0000000000
40
1.0000000000
10
101.4628837486
20
183.7490334911
30
0.0000000000
10
101.4588707176
20
183.7500192425
30
0.0000000000
10
101.4494241881
20
183.7524724251
30
0.0000000000
10
101.4328360440
20
183.7568714393
30
0.0000000000
10
101.4129833964
20
183.7624016980
30
0.0000000000
10
101.3906964135
20
183.7687867632
30
0.0000000000
10
101.3662376552
20
183.7759895494
30
0.0000000000
10
101.3397506067
20
183.7839766939
30
0.0000000000
10
101.3114289347
20
183.7926889811
30
0.0000000000
10
101.2814785570
20
183.8020730230
30
0.0000000000
10
101.2508880724
20
183.8118222130
30
0.0000000000
10
101.2303207983
20
183.8184841213
30
0.0000000000
10
101.2202247326
20
183.8217804773
30
0.0000000000
11
101.4628837486
21
183.7490334911
31
0.0000000000
11
101.4512082576
21
183.7520178724
31
0.0000000000
11
101.4337414967
21
183.7566673862
31
0.0000000000
11
101.4137796230
21
183.7622047311
31
0.0000000000
11
101.3914568026
21
183.7685971664
31
0.0000000000
11
101.3669405604
21
183.7758101756
31
0.0000000000
11
101.3403855982
21
183.7838111123
31
0.0000000000
11
101.3119974858
21
183.7925402355
31
0.0000000000
11
101.2819742271
21
183.8019439606
31
0.0000000000
11
101.2505359011
21
183.8119621740
31
0.0000000000
11
101.2202247326
21
183.8217804773
31
0.0000000000
0
SPLINE
5
34F
100
AcDbEntity
8
0
100
AcDbSpline
62
7
6
CONTINUOUS
70
0
71
3
72
16
73
12
74
10
42
0.0000001000
43
0.0000001000
44
0.0000000001
12
-0.2571082013
22
0.0312732353
32
0.0000000000
13
-0.0289956003
23
-0.2588563033
33
0.0000000000
40
0.0000000000
40
0.0000000000
40
0.0000000000
40
0.0000000000
40
0.0957177787
40
0.2385228785
40
0.3560819468
40
0.4550440047
40
0.5535147798
40
0.6628920152
40
0.7781856162
40
0.9049357695
40
1.0000000000
40
1.0000000000
40
1.0000000000
40
1.0000000000
10
100.1012598021
20
184.0699842132
30
0.0000000000
10
100.0930565268
20
184.0709820147
30
0.0000000000
10
100.0725803464
20
184.0731952978
30
0.0000000000
10
100.0419125207
20
184.0754526478
30
0.0000000000
10
100.0108801908
20
184.0760661140
30
0.0000000000
10
99.9836874339
20
184.0742978000
30
0.0000000000
10
99.9577068591
20
184.0683235867
30
0.0000000000
10
99.9324793815
20
184.0556491261
30
0.0000000000
10
99.9098747989
20
184.0347700119
30
0.0000000000
10
99.8952182965
20
184.0090742698
30
0.0000000000
10
99.8907504099
20
183.9901237664
30
0.0000000000
10
99.8898315950
20
183.9819211079
30
0.0000000000
11
100.1012598021
21
184.0699842132
31
0.0000000000
11
100.0766118394
21
184.0726454516
31
0.0000000000
11
100.0397196397
21
184.0752498753
31
0.0000000000
11
100.0092762834
21
184.0756305716
31
0.0000000000
11
99.9837268078
21
184.0736076185
31
0.0000000000
11
99.9589387949
21
184.0676145558
31
0.0000000000
11
99.9336732248
21
184.0548060534
31
0.0000000000
11
99.9117565592
21
184.0345274722
31
0.0000000000
11
99.8955307721
21
184.0059919774
31
0.0000000000
11
99.8898315950
21
183.9819211079
31
0.0000000000
0
SPLINE
5
350
100
AcDbEntity
8
0
100
AcDbSpline
62
7
6
CONTINUOUS
70
0
71
3
72
12
73
8
74
6
42
0.0000001000
43
0.0000001000
44
0.0000000001
12
-0.1619099871
22
-0.0512868116
32
0.0000000000
13
-0.1836198709
23
0.0070518447
33
0.0000000000
40
0.0000000000
40
0.0000000000
40
0.0000000000
40
0.0000000000
40
0.0435347811
40
0.2501577898
40
0.5368832645
40
0.8832351291
40
1.0000000000
40
1.0000000000
40
1.0000000000
40
1.0000000000
10
99.8893031521
20
183.7624422866
30
0.0000000000
10
99.8869535802
20
183.7616980332
30
0.0000000000
10
99.8737849214
20
183.7582383087
30
0.0000000000
10
99.8401113451
20
183.7495572840
30
0.0000000000
10
99.7897441233
20
183.7442208790
30
0.0000000000
10
99.7435951821
20
183.7427223437
30
0.0000000000
10
99.7152189789
20
183.7434171916
30
0.0000000000
10
99.7080721954
20
183.7436916609
30
0.0000000000
11
99.8893031521
21
183.7624422866
31
0.0000000000
11
99.8822937533
21
183.7604761245
31
0.0000000000
11
99.8453723586
21
183.7517017764
31
0.0000000000
11
99.7931177502
21
183.7451655692
31
0.0000000000
11
99.7295358970
21
183.7431698148
31
0.0000000000
11
99.7080721954
21
183.7436916609
31
0.0000000000
0
SPLINE
5
351
100
AcDbEntity
8
0
100
AcDbSpline
62
7
6
CONTINUOUS
70
0
71
3
72
10
73
6
74
4
42
0.0000001000
43
0.0000001000
44
0.0000000001
12
-0.6103822664
22
0.0337146560
32
0.0000000000
13
-0.6103836007
23
-0.0337145969
33
0.0000000000
40
0.0000000000
40
0.0000000000
40
0.0000000000
40
0.0000000000
40
0.3201470795
40
0.6837622215
40
1.0000000000
40
1.0000000000
40
1.0000000000
40
1.0000000000
10
99.6947053856
20
183.7443371231
30
0.0000000000
10
99.6295680189
20
183.7479350060
30
0.0000000000
10
99.4903010487
20
183.7531621495
30
0.0000000000
10
99.2864863359
20
183.7531182199
30
0.0000000000
10
99.1480173126
20
183.7478910521
30
0.0000000000
10
99.0836751947
20
183.7443371090
30
0.0000000000
11
99.6947053856
21
183.7443371231
31
0.0000000000
11
99.4991339444
21
183.7516773477
31
0.0000000000
11
99.2768573090
21
183.7516294091
31
0.0000000000
11
99.0836751947
21
183.7443371090
31
0.0000000000
0
SPLINE
5
352
100
AcDbEntity
8
0
100
AcDbSpline
62
7
6
CONTINUOUS
70
0
71
3
72
8
73
4
74
2
42
0.0000001000
43
0.0000001000
44
0.0000000001
12
-0.0133593634
22
-0.0007433272
32
0.0000000000
13
-0.0133758724
23
-0.0005149088
33
0.0000000000
40
0.0000000000
40
0.0000000000
40
0.0000000000
40
0.0000000000
40
1.0000000000
40
1.0000000000
40
1.0000000000
40
1.0000000000
10
99.0836760900
20
183.7443184082
30
0.0000000000
10
99.0792229689
20
183.7440706324
30
0.0000000000
10
99.0747671190
20
183.7438604917
30
0.0000000000
10
99.0703084949
20
183.7436888554
30
0.0000000000
11
99.0836760900
21
183.7443184082
31
0.0000000000
11
99.0703084949
21
183.7436888554
31
0.0000000000
0
SPLINE
5
353
100
AcDbEntity
8
0
100
AcDbSpline
62
9
6
CONTINUOUS
70
0
71
3
72
10
73
6
74
4
42
0.0000001000
43
0.0000001000
44
0.0000000001
12
-0.0000000037
22
0.0084211513
32
0.0000000000
13
0.0000000024
23
0.0084211513
33
0.0000000000
40
0.0000000000
40
0.0000000000
40
0.0000000000
40
0.0000000000
40
0.5552522622
40
0.8890061159
40
1.0000000000
40
1.0000000000
40
1.0000000000
40
1.0000000000
10
97.2531744586
20
183.7376364692
30
0.0000000000
10
97.2531744579
20
183.7391950903
30
0.0000000000
10
97.2531744600
20
183.7416905753
30
0.0000000000
10
97.2531744585
20
183.7444976257
30
0.0000000000
10
97.2531744585
20
183.7457460551
30
0.0000000000
10
97.2531744586
20
183.7460576205
30
0.0000000000
11
97.2531744586
21
183.7376364692
31
0.0000000000
11
97.2531744592
21
183.7423123325
31
0.0000000000
11
97.2531744585
21
183.7451229242
31
0.0000000000
11
97.2531744586
21
183.7460576205
31
0.0000000000
0
SPLINE
5
354
100
AcDbEntity
8
0
100
AcDbSpline
62
9
6
CONTINUOUS
70
0
71
3
72
11
73
7
74
5
42
0.0000001000
43
0.0000001000
44
0.0000000001
12
-0.2347482178
22
-0.0766424207
32
0.0000000000
13
-0.2489078788
23
-0.0675589159
33
0.0000000000
40
0.0000000000
40
0.0000000000
40
0.0000000000
40
0.0000000000
40
0.3504046771
40
0.6666687971
40
0.9304468631
40
1.0000000000
40
1.0000000000
40
1.0000000000
40
1.0000000000
10
97.5583195773
20
183.8212789636
30
0.0000000000
10
97.5309006195
20
183.8123270094
30
0.0000000000
10
97.4787992223
20
183.7956742598
30
0.0000000000
10
97.4049165837
20
183.7729612779
30
0.0000000000
10
97.3550321371
20
183.7588312755
30
0.0000000000
10
97.3269709572
20
183.7509639652
30
0.0000000000
10
97.3212001826
20
183.7493976537
30
0.0000000000
11
97.5583195773
21
183.8212789636
31
0.0000000000
11
97.4759001756
21
183.7949261117
31
0.0000000000
11
97.4011993900
21
183.7721385397
31
0.0000000000
11
97.3385742254
21
183.7542203127
31
0.0000000000
11
97.3212001826
21
183.7493976537
31
0.0000000000
0
SPLINE
5
355
100
AcDbEntity
8
0
100
AcDbSpline
62
9
6
CONTINUOUS
70
0
71
3
72
10
73
6
74
4
42
0.0000001000
43
0.0000001000
44
0.0000000001
12
-0.0708811429
22
-0.0192386565
32
0.0000000000
13
0.0003549073
23
0.0703206776
33
0.0000000000
40
0.0000000000
40
0.0000000000
40
0.0000000000
40
0.0000000000
40
0.4410278012
40
0.8596420268
40
1.0000000000
40
1.0000000000
40
1.0000000000
40
1.0000000000
10
97.3212001826
20
183.7493976537
30
0.0000000000
10
97.3107799978
20
183.7465693929
30
0.0000000000
10
97.2910061650
20
183.7415350785
30
0.0000000000
10
97.2742108548
20
183.7394213192
30
0.0000000000
10
97.2531578539
20
183.7343464466
30
0.0000000000
10
97.2531744586
20
183.7376364692
30
0.0000000000
11
97.3212001826
21
183.7493976537
31
0.0000000000
11
97.2918950369
21
183.7422506161
31
0.0000000000
11
97.2629951891
21
183.7366495686
31
0.0000000000
11
97.2531744586
21
183.7376364692
31
0.0000000000
0
SPLINE
5
356
100
AcDbEntity
8
0
100
AcDbSpline
62
9
6
CONTINUOUS
70
0
71
3
72
12
73
8
74
6
42
0.0000001000
43
0.0000001000
44
0.0000000001
12
-1.1394044272
22
-0.1385317330
32
0.0000000000
13
-1.0911181987
23
-0.3562226359
33
0.0000000000
40
0.0000000000
40
0.0000000000
40
0.0000000000
40
0.0000000000
40
0.1736997740
40
0.3668447149
40
0.5660151312
40
0.7736035241
40
1.0000000000
40
1.0000000000
40
1.0000000000
40
1.0000000000
10
98.6771850127
20
184.0694558827
30
0.0000000000
10
98.6112135822
20
184.0614349058
30
0.0000000000
10
98.4721608985
20
184.0421390162
30
0.0000000000
10
98.2588099265
20
184.0047297843
30
0.0000000000
10
98.0343564068
20
183.9564796694
30
0.0000000000
10
97.7996627185
20
183.8962234071
30
0.0000000000
10
97.6406613490
20
183.8481614801
30
0.0000000000
10
97.5583195773
20
183.8212789636
30
0.0000000000
11
98.6771850127
21
184.0694558827
31
0.0000000000
11
98.4797055853
21
184.0420521026
31
0.0000000000
11
98.2613460473
21
184.0037646819
31
0.0000000000
11
98.0378449835
21
183.9557193676
31
0.0000000000
11
97.8070611260
21
183.8964665654
31
0.0000000000
11
97.5583195773
21
183.8212789636
31
0.0000000000
0
SPLINE
5
357
100
AcDbEntity
8
0
100
AcDbSpline
62
9
6
CONTINUOUS
70
0
71
3
72
14
73
10
74
8
42
0.0000001000
43
0.0000001000
44
0.0000000001
12
-0.0001275271
22
0.1030417226
32
0.0000000000
13
-0.1022885817
23
-0.0124361939
33
0.0000000000
40
0.0000000000
40
0.0000000000
40
0.0000000000
40
0.0000000000
40
0.0475695937
40
0.1569696759
40
0.3115077117
40
0.4870765621
40
0.6663493256
40
0.8385288923
40
1.0000000000
40
1.0000000000
40
1.0000000000
40
1.0000000000
10
98.7789000523
20
184.0694558827
30
0.0000000000
10
98.7788980301
20
184.0710897670
30
0.0000000000
10
98.7720994917
20
184.0735387104
30
0.0000000000
10
98.7627209409
20
184.0742535232
30
0.0000000000
10
98.7470332746
20
184.0747725546
30
0.0000000000
10
98.7297374241
20
184.0741489515
30
0.0000000000
10
98.7116160904
20
184.0729929024
30
0.0000000000
10
98.6940834908
20
184.0713970728
30
0.0000000000
10
98.6826905629
20
184.0701252447
30
0.0000000000
10
98.6771850127
20
184.0694558827
30
0.0000000000
11
98.7789000523
21
184.0694558827
31
0.0000000000
11
98.7749677927
21
184.0723822410
31
0.0000000000
11
98.7638265709
21
184.0740994424
31
0.0000000000
11
98.7479097576
21
184.0745737126
31
0.0000000000
11
98.7298258608
21
184.0740692836
31
0.0000000000
11
98.7113907345
21
184.0728934245
31
0.0000000000
11
98.6937206057
21
184.0713015049
31
0.0000000000
11
98.6771850127
21
184.0694558827
31
0.0000000000
0
SPLINE
5
358
100
AcDbEntity
8
0
100
AcDbSpline
62
9
6
CONTINUOUS
70
0
71
3
72
12
73
8
74
6
42
0.0000001000
43
0.0000001000
44
0.0000000001
12
-0.0000000955
22
0.2481769191
32
0.0000000000
13
0.0000000361
23
0.2481769191
33
0.0000000000
40
0.0000000000
40
0.0000000000
40
0.0000000000
40
0.0000000000
40
0.3245288541
40
0.5733868835
40
0.7612770168
40
0.8998605882
40
1.0000000000
40
1.0000000000
40
1.0000000000
40
1.0000000000
10
98.7789000523
20
183.8212789636
30
0.0000000000
10
98.7789000419
20
183.8481258206
30
0.0000000000
10
98.7789000613
20
183.8955596174
30
0.0000000000
10
98.7789000506
20
183.9585367456
30
0.0000000000
10
98.7789000513
20
184.0061314314
30
0.0000000000
10
98.7789000536
20
184.0414232743
30
0.0000000000
10
98.7789000511
20
184.0611717858
30
0.0000000000
10
98.7789000523
20
184.0694558827
30
0.0000000000
11
98.7789000523
21
183.8212789636
31
0.0000000000
11
98.7789000551
21
183.9018195348
31
0.0000000000
11
98.7789000519
21
183.9635803538
31
0.0000000000
11
98.7789000518
21
184.0102103482
31
0.0000000000
11
98.7789000525
21
184.0446035920
31
0.0000000000
11
98.7789000523
21
184.0694558827
31
0.0000000000
0
SPLINE
5
359
100
AcDbEntity
8
0
100
AcDbSpline
62
9
6
CONTINUOUS
70
0
71
3
72
8
73
4
74
2
42
0.0000001000
43
0.0000001000
44
0.0000000001
12
-0.0259648526
22
-0.0014341561
32
0.0000000000
13
-0.0260031346
23
-0.0007031723
33
0.0000000000
40
0.0000000000
40
0.0000000000
40
0.0000000000
40
0.0000000000
40
1.0000000000
40
1.0000000000
40
1.0000000000
40
1.0000000000
10
99.0840451710
20
183.7376364692
30
0.0000000000
10
99.0753902202
20
183.7371584171
30
0.0000000000
10
99.0667266642
20
183.7367997868
30
0.0000000000
10
99.0580589526
20
183.7365653960
30
0.0000000000
11
99.0840451710
21
183.7376364692
31
0.0000000000
11
99.0580589526
21
183.7365653960
31
0.0000000000
0
SPLINE
5
35A
100
AcDbEntity
8
0
100
AcDbSpline
62
9
6
CONTINUOUS
70
0
71
3
72
10
73
6
74
4
42
0.0000001000
43
0.0000001000
44
0.0000000001
12
-0.1456857917
22
-0.0039396099
32
0.0000000000
13
-0.1438195669
23
0.0241745223
33
0.0000000000
40
0.0000000000
40
0.0000000000
40
0.0000000000
40
0.0000000000
40
0.3486430920
40
0.8460685313
40
1.0000000000
40
1.0000000000
40
1.0000000000
40
1.0000000000
10
99.0580589526
20
183.7365653960
30
0.0000000000
10
99.0411281710
20
183.7361075567
30
0.0000000000
10
99.0000029730
20
183.7361468460
30
0.0000000000
10
98.9515160276
20
183.7397427210
30
0.0000000000
10
98.9201727175
20
183.7443316124
30
0.0000000000
10
98.9127932651
20
183.7455720190
30
0.0000000000
11
99.0580589526
21
183.7365653960
31
0.0000000000
11
99.0072522036
21
183.7366498735
31
0.0000000000
11
98.9350004372
21
183.7422881553
31
0.0000000000
11
98.9127932651
21
183.7455720190
31
0.0000000000
0
SPLINE
5
35B
100
AcDbEntity
8
0
100
AcDbSpline
62
9
6
CONTINUOUS
70
0
71
3
72
8
73
4
74
2
42
0.0000001000
43
0.0000001000
44
0.0000000001
12
-0.0237336029
22
0.0039893634
32
0.0000000000
13
-0.0234891810
23
0.0051773087
33
0.0000000000
40
0.0000000000
40
0.0000000000
40
0.0000000000
40
0.0000000000
40
1.0000000000
40
1.0000000000
40
1.0000000000
40
1.0000000000
10
98.9127932651
20
183.7455720190
30
0.0000000000
10
98.9048820642
20
183.7469018068
30
0.0000000000
10
98.8970027376
20
183.7484108178
30
0.0000000000
10
98.8891730106
20
183.7501365873
30
0.0000000000
11
98.9127932651
21
183.7455720190
31
0.0000000000
11
98.8891730106
21
183.7501365873
31
0.0000000000
0
SPLINE
5
35C
100
AcDbEntity
8
0
100
AcDbSpline
62
9
6
CONTINUOUS
70
0
71
3
72
8
73
4
74
2
42
0.0000001000
43
0.0000001000
44
0.0000000001
12
-0.0172327122
22
0.0037983049
32
0.0000000000
13
-0.0170515376
23
0.0045427719
33
0.0000000000
40
0.0000000000
40
0.0000000000
40
0.0000000000
40
0.0000000000
40
1.0000000000
40
1.0000000000
40
1.0000000000
40
1.0000000000
10
98.8891730106
20
183.7501365873
30
0.0000000000
10
98.8834287733
20
183.7514026889
30
0.0000000000
10
98.8777112320
20
183.7527854575
30
0.0000000000
10
98.8720273862
20
183.7542997149
30
0.0000000000
11
98.8891730106
21
183.7501365873
31
0.0000000000
11
98.8720273862
21
183.7542997149
31
0.0000000000
0
SPLINE
5
35D
100
AcDbEntity
8
0
100
AcDbSpline
62
9
6
CONTINUOUS
70
0
71
3
72
10
73
6
74
4
42
0.0000001000
43
0.0000001000
44
0.0000000001
12
-0.1168063314
22
0.0311188667
32
0.0000000000
13
0.0000729979
23
0.1208295183
33
0.0000000000
40
0.0000000000
40
0.0000000000
40
0.0000000000
40
0.0000000000
40
0.4363905819
40
0.7617294484
40
1.0000000000
40
1.0000000000
40
1.0000000000
40
1.0000000000
10
98.8720273862
20
183.7542997149
30
0.0000000000
10
98.8550363252
20
183.7588263750
30
0.0000000000
10
98.8259036467
20
183.7687787825
30
0.0000000000
10
98.7906979743
20
183.7895756056
30
0.0000000000
10
98.7788942545
20
183.8116822583
30
0.0000000000
10
98.7789000523
20
183.8212789636
30
0.0000000000
11
98.8720273862
21
183.7542997149
31
0.0000000000
11
98.8224163844
21
183.7721625982
31
0.0000000000
11
98.7903111778
21
183.7948468374
31
0.0000000000
11
98.7789000523
21
183.8212789636
31
0.0000000000
0
SPLINE
5
35E
100
AcDbEntity
8
0
100
AcDbSpline
62
9
6
CONTINUOUS
70
0
71
3
72
10
73
6
74
4
42
0.0000001000
43
0.0000001000
44
0.0000000001
12
-0.6096363370
22
0.0336737673
32
0.0000000000
13
-0.6096363343
23
-0.0336738160
33
0.0000000000
40
0.0000000000
40
0.0000000000
40
0.0000000000
40
0.0000000000
40
0.3328661760
40
0.6669943864
40
1.0000000000
40
1.0000000000
40
1.0000000000
40
1.0000000000
10
99.6943354085
20
183.7376364692
30
0.0000000000
10
99.6266929697
20
183.7413727552
30
0.0000000000
10
99.4910004221
20
183.7463703435
30
0.0000000000
10
99.2874369311
20
183.7463719046
30
0.0000000000
10
99.1517159449
20
183.7413743258
30
0.0000000000
10
99.0840451710
20
183.7376364692
30
0.0000000000
11
99.6943354085
21
183.7376364692
31
0.0000000000
11
99.4912364579
21
183.7451164733
31
0.0000000000
11
99.2872292573
21
183.7451180421
31
0.0000000000
11
99.0840451710
21
183.7376364692
31
0.0000000000
0
SPLINE
5
35F
100
AcDbEntity
8
0
100
AcDbSpline
62
9
6
CONTINUOUS
70
0
71
3
72
11
73
7
74
5
42
0.0000001000
43
0.0000001000
44
0.0000000001
12
-0.0000256699
22
-0.1384612527
32
0.0000000000
13
-0.1352723955
23
-0.0298191917
33
0.0000000000
40
0.0000000000
40
0.0000000000
40
0.0000000000
40
0.0000000000
40
0.2091032557
40
0.4931166190
40
0.8736295673
40
1.0000000000
40
1.0000000000
40
1.0000000000
40
1.0000000000
10
99.9994805272
20
183.8212789636
30
0.0000000000
10
99.9994787380
20
183.8116280640
30
0.0000000000
10
99.9875895732
20
183.7894792425
30
0.0000000000
10
99.9523246645
20
183.7687190548
30
0.0000000000
10
99.9176567876
20
183.7568914967
30
0.0000000000
10
99.8949062964
20
183.7513924634
30
0.0000000000
10
99.8892081527
20
183.7501363754
30
0.0000000000
11
99.9994805272
21
183.8212789636
31
0.0000000000
11
99.9879542953
21
183.7947195063
31
0.0000000000
11
99.9557990423
21
183.7720814128
31
0.0000000000
11
99.9062170235
21
183.7542637345
31
0.0000000000
11
99.8892081527
21
183.7501363754
31
0.0000000000
0
SPLINE
5
360
100
AcDbEntity
8
0
100
AcDbSpline
62
9
6
CONTINUOUS
70
0
71
3
72
8
73
4
74
2
42
0.0000001000
43
0.0000001000
44
0.0000000001
12
-0.0042859530
22
-0.0009447874
32
0.0000000000
13
-0.0042955310
23
-0.0009021475
33
0.0000000000
40
0.0000000000
40
0.0000000000
40
0.0000000000
40
0.0000000000
40
1.0000000000
40
1.0000000000
40
1.0000000000
40
1.0000000000
10
99.8892081527
20
183.7501363754
30
0.0000000000
10
99.8877795017
20
183.7498214463
30
0.0000000000
10
99.8863492007
20
183.7495137380
30
0.0000000000
10
99.8849173570
20
183.7492130221
30
0.0000000000
11
99.8892081527
21
183.7501363754
31
0.0000000000
11
99.8849173570
21
183.7492130221
31
0.0000000000
0
SPLINE
5
361
100
AcDbEntity
8
0
100
AcDbSpline
62
9
6
CONTINUOUS
70
0
71
3
72
8
73
4
74
2
42
0.0000001000
43
0.0000001000
44
0.0000000001
12
-0.0193422573
22
-0.0040622611
32
0.0000000000
13
-0.0195005064
23
-0.0032741333
33
0.0000000000
40
0.0000000000
40
0.0000000000
40
0.0000000000
40
0.0000000000
40
1.0000000000
40
1.0000000000
40
1.0000000000
40
1.0000000000
10
99.8849173570
20
183.7492130221
30
0.0000000000
10
99.8784699379
20
183.7478589351
30
0.0000000000
10
99.8719912409
20
183.7466466271
30
0.0000000000
10
99.8654910721
20
183.7455552493
30
0.0000000000
11
99.8849173570
21
183.7492130221
31
0.0000000000
11
99.8654910721
21
183.7455552493
31
0.0000000000
0
SPLINE
5
362
100
AcDbEntity
8
0
100
AcDbSpline
62
9
6
CONTINUOUS
70
0
71
3
72
10
73
6
74
4
42
0.0000001000
43
0.0000001000
44
0.0000000001
12
-0.1436554342
22
-0.0241197344
32
0.0000000000
13
-0.1455167566
23
0.0039235326
33
0.0000000000
40
0.0000000000
40
0.0000000000
40
0.0000000000
40
0.0000000000
40
0.1538736103
40
0.6506453984
40
1.0000000000
40
1.0000000000
40
1.0000000000
40
1.0000000000
10
99.8654910721
20
183.7455552493
30
0.0000000000
10
99.8581228120
20
183.7443181191
30
0.0000000000
10
99.8268499013
20
183.7397440339
30
0.0000000000
10
99.7784197920
20
183.7361495178
30
0.0000000000
10
99.7373396145
20
183.7361069773
30
0.0000000000
10
99.7203939650
20
183.7365638787
30
0.0000000000
11
99.8654910721
21
183.7455552493
31
0.0000000000
11
99.8433178057
21
183.7422796539
31
0.0000000000
11
99.7712451386
21
183.7366533413
31
0.0000000000
11
99.7203939650
21
183.7365638787
31
0.0000000000
0
SPLINE
5
363
100
AcDbEntity
8
0
100
AcDbSpline
62
9
6
CONTINUOUS
70
0
71
3
72
8
73
4
74
2
42
0.0000001000
43
0.0000001000
44
0.0000000001
12
-0.0260755307
22
0.0007030681
32
0.0000000000
13
-0.0260370964
23
0.0014371509
33
0.0000000000
40
0.0000000000
40
0.0000000000
40
0.0000000000
40
0.0000000000
40
1.0000000000
40
1.0000000000
40
1.0000000000
40
1.0000000000
10
99.7203939650
20
183.7365638787
30
0.0000000000
10
99.7117021214
20
183.7367982348
30
0.0000000000
10
99.7030144406
20
183.7371574189
30
0.0000000000
10
99.6943354085
20
183.7376364692
30
0.0000000000
11
99.7203939650
21
183.7365638787
31
0.0000000000
11
99.6943354085
21
183.7376364692
31
0.0000000000
0
SPLINE
5
364
100
AcDbEntity
8
0
100
AcDbSpline
62
9
6
CONTINUOUS
70
0
71
3
72
12
73
8
74
6
42
0.0000001000
43
0.0000001000
44
0.0000000001
12
0.0000000402
22
-0.2481769191
32
0.0000000000
13
-0.0000000830
23
-0.2481769191
33
0.0000000000
40
0.0000000000
40
0.0000000000
40
0.0000000000
40
0.0000000000
40
0.1005484461
40
0.2392339420
40
0.4272491127
40
0.6764381929
40
1.0000000000
40
1.0000000000
40
1.0000000000
40
1.0000000000
10
99.9994805272
20
184.0694558827
30
0.0000000000
10
99.9994805286
20
184.0611379482
30
0.0000000000
10
99.9994805255
20
184.0413471673
30
0.0000000000
10
99.9994805303
20
184.0060027112
30
0.0000000000
10
99.9994805263
20
183.9583618634
30
0.0000000000
10
99.9994805220
20
183.8954270046
30
0.0000000000
10
99.9994805362
20
183.8480458211
30
0.0000000000
10
99.9994805272
20
183.8212789636
30
0.0000000000
11
99.9994805272
21
184.0694558827
31
0.0000000000
11
99.9994805270
21
184.0445020792
31
0.0000000000
11
99.9994805287
21
184.0100835401
31
0.0000000000
11
99.9994805268
21
183.9634225142
31
0.0000000000
11
99.9994805257
21
183.9015795360
31
0.0000000000
11
99.9994805272
21
183.8212789636
31
0.0000000000
0
SPLINE
5
365
100
AcDbEntity
8
0
100
AcDbSpline
62
9
6
CONTINUOUS
70
0
71
3
72
14
73
10
74
8
42
0.0000001000
43
0.0000001000
44
0.0000000001
12
-0.1022860762
22
0.0124369244
32
0.0000000000
13
0.0002474778
23
-0.1030391053
33
0.0000000000
40
0.0000000000
40
0.0000000000
40
0.0000000000
40
0.0000000000
40
0.1614060718
40
0.3347621391
40
0.5142394507
40
0.6893348921
40
0.8429827303
40
0.9520038950
40
1.0000000000
40
1.0000000000
40
1.0000000000
40
1.0000000000
10
100.1011955668
20
184.0694558827
30
0.0000000000
10
100.0956923689
20
184.0701250144
30
0.0000000000
10
100.0842617057
20
184.0714010655
30
0.0000000000
10
100.0666847156
20
184.0729996944
30
0.0000000000
10
100.0485314170
20
184.0741547834
30
0.0000000000
10
100.0312781222
20
184.0747703796
30
0.0000000000
10
100.0156451246
20
184.0742564775
30
0.0000000000
10
100.0063120808
20
184.0735312282
30
0.0000000000
10
99.9994765679
20
184.0711043746
30
0.0000000000
10
99.9994805272
20
184.0694558827
30
0.0000000000
11
100.1011955668
21
184.0694558827
31
0.0000000000
11
100.0846670276
21
184.0713007984
31
0.0000000000
11
100.0668764545
21
184.0729022400
31
0.0000000000
11
100.0484204834
21
184.0740756411
31
0.0000000000
11
100.0303856357
21
184.0745739161
31
0.0000000000
11
100.0145609557
21
184.0740997807
31
0.0000000000
11
100.0034575116
21
184.0723955199
31
0.0000000000
11
99.9994805272
21
184.0694558827
31
0.0000000000
0
SPLINE
5
366
100
AcDbEntity
8
0
100
AcDbSpline
62
9
6
CONTINUOUS
70
0
71
3
72
10
73
6
74
4
42
0.0000001000
43
0.0000001000
44
0.0000000001
12
-0.0000000011
22
-0.0084211513
32
0.0000000000
13
-0.0000000040
23
-0.0084211513
33
0.0000000000
40
0.0000000000
40
0.0000000000
40
0.0000000000
40
0.0000000000
40
0.1109954972
40
0.4447521893
40
1.0000000000
40
1.0000000000
40
1.0000000000
40
1.0000000000
10
101.5252061209
20
183.7460576205
30
0.0000000000
10
101.5252061208
20
183.7457460505
30
0.0000000000
10
101.5252061206
20
183.7444976087
30
0.0000000000
10
101.5252061201
20
183.7416905583
30
0.0000000000
10
101.5252061216
20
183.7391950778
30
0.0000000000
10
101.5252061209
20
183.7376364692
30
0.0000000000
11
101.5252061209
21
183.7460576205
31
0.0000000000
11
101.5252061207
21
183.7451229106
31
0.0000000000
11
101.5252061205
21
183.7423122950
31
0.0000000000
11
101.5252061209
21
183.7376364692
31
0.0000000000
0
SPLINE
5
367
100
AcDbEntity
8
0
100
AcDbSpline
62
9
6
CONTINUOUS
70
0
71
3
72
12
73
8
74
6
42
0.0000001000
43
0.0000001000
44
0.0000000001
12
-1.0911187217
22
0.3562227291
32
0.0000000000
13
-1.1394049461
23
0.1385318241
33
0.0000000000
40
0.0000000000
40
0.0000000000
40
0.0000000000
40
0.0000000000
40
0.2220767843
40
0.4263822369
40
0.6251590283
40
0.8222368415
40
1.0000000000
40
1.0000000000
40
1.0000000000
40
1.0000000000
10
101.2200610021
20
183.8212789636
30
0.0000000000
10
101.1392902898
20
183.8476485630
30
0.0000000000
10
100.9830964442
20
183.8949335080
30
0.0000000000
10
100.7514376958
20
183.9546971297
30
0.0000000000
10
100.5269620246
20
184.0033085906
30
0.0000000000
10
100.3107877022
20
184.0414744025
30
0.0000000000
10
100.1687103075
20
184.0612472645
30
0.0000000000
10
100.1011955668
20
184.0694558827
30
0.0000000000
11
101.2200610021
21
183.8212789636
31
0.0000000000
11
100.9760964034
21
183.8951345542
31
0.0000000000
11
100.7490300136
21
183.9537137720
31
0.0000000000
11
100.5260435932
21
184.0020026571
31
0.0000000000
11
100.3032836486
21
184.0413311289
31
0.0000000000
11
100.1011955668
21
184.0694558827
31
0.0000000000
0
SPLINE
5
368
100
AcDbEntity
8
0
100
AcDbSpline
62
9
6
CONTINUOUS
70
0
71
3
72
10
73
6
74
4
42
0.0000001000
43
0.0000001000
44
0.0000000001
12
0.0000305523
22
-0.0705416368
32
0.0000000000
13
-0.0710873922
23
0.0193144344
33
0.0000000000
40
0.0000000000
40
0.0000000000
40
0.0000000000
40
0.0000000000
40
0.1406318942
40
0.5591741542
40
1.0000000000
40
1.0000000000
40
1.0000000000
40
1.0000000000
10
101.5252061209
20
183.7376364692
30
0.0000000000
10
101.5252075531
20
183.7343296678
30
0.0000000000
10
101.5041126582
20
183.7394493009
30
0.0000000000
10
101.4872382523
20
183.7415612533
30
0.0000000000
10
101.4674100084
20
183.7466135457
30
0.0000000000
10
101.4569642885
20
183.7494516463
30
0.0000000000
11
101.5252061209
21
183.7376364692
31
0.0000000000
11
101.5153343156
21
183.7366557067
31
0.0000000000
11
101.4863507138
21
183.7422821000
31
0.0000000000
11
101.4569642885
21
183.7494516463
31
0.0000000000
0
SPLINE
5
369
100
AcDbEntity
8
0
100
AcDbSpline
62
9
6
CONTINUOUS
70
0
71
3
72
11
73
7
74
5
42
0.0000001000
43
0.0000001000
44
0.0000000001
12
-0.2486304027
22
0.0675528451
32
0.0000000000
13
-0.2345404016
23
0.0765660645
33
0.0000000000
40
0.0000000000
40
0.0000000000
40
0.0000000000
40
0.0000000000
40
0.0697732047
40
0.3340318270
40
0.6507837916
40
1.0000000000
40
1.0000000000
40
1.0000000000
40
1.0000000000
10
101.4569642885
20
183.7494516463
30
0.0000000000
10
101.4511817085
20
183.7510227725
30
0.0000000000
10
101.4230954613
20
183.7589059457
30
0.0000000000
10
101.3731578917
20
183.7730508489
30
0.0000000000
10
101.2993632573
20
183.7957434647
30
0.0000000000
10
101.2473627721
20
183.8123662600
30
0.0000000000
10
101.2200610021
20
183.8212789636
30
0.0000000000
11
101.4569642885
21
183.7494516463
31
0.0000000000
11
101.4395553839
21
183.7542888975
31
0.0000000000
11
101.3768740180
21
183.7722295503
31
0.0000000000
11
101.3021265322
21
183.7950367243
31
0.0000000000
11
101.2200610021
21
183.8212789636
31
0.0000000000
0
SPLINE
5
36A
100
AcDbEntity
8
0
100
AcDbSpline
62
9
6
CONTINUOUS
70
0
71
3
72
9
73
5
74
3
42
0.0000001000
43
0.0000001000
44
0.0000000001
12
-0.0385583277
22
0.0148674323
32
0.0000000000
13
-0.0415816152
23
-0.0019562143
33
0.0000000000
40
0.0000000000
40
0.0000000000
40
0.0000000000
40
0.0000000000
40
0.9326375344
40
1.0000000000
40
1.0000000000
40
1.0000000000
40
1.0000000000
10
101.5252030498
20
183.7376285285
30
0.0000000000
10
101.5132160685
20
183.7422505037
30
0.0000000000
10
101.4992484185
20
183.7447217187
30
0.0000000000
10
101.4853763488
20
183.7442656215
30
0.0000000000
10
101.4844426687
20
183.7442216964
30
0.0000000000
11
101.5252030498
21
183.7376285285
31
0.0000000000
11
101.4872456961
21
183.7443137859
31
0.0000000000
11
101.4844426687
21
183.7442216964
31
0.0000000000
0
SPLINE
5
36B
100
AcDbEntity
8
0
100
AcDbSpline
62
9
6
CONTINUOUS
70
0
71
3
72
11
73
7
74
5
42
0.0000001000
43
0.0000001000
44
0.0000000001
12
-0.1364282044
22
0.0140105337
32
0.0000000000
13
-0.0395342535
23
-0.1327328489
33
0.0000000000
40
0.0000000000
40
0.0000000000
40
0.0000000000
40
0.0000000000
40
0.3028818956
40
0.6052345461
40
0.9066924769
40
1.0000000000
40
1.0000000000
40
1.0000000000
40
1.0000000000
10
99.9994805258
20
184.0694558690
30
0.0000000000
10
99.9857066481
20
184.0708703813
30
0.0000000000
10
99.9572467285
20
184.0678977821
30
0.0000000000
10
99.9202950852
20
184.0466439249
30
0.0000000000
10
99.9008995302
20
184.0202088945
30
0.0000000000
10
99.8945648837
20
184.0030740393
30
0.0000000000
10
99.8933352693
20
183.9989457148
30
0.0000000000
11
99.9994805258
21
184.0694558690
31
0.0000000000
11
99.9581719993
21
184.0650865881
31
0.0000000000
11
99.9222165076
21
184.0444307716
31
0.0000000000
11
99.8978191313
21
184.0110531324
31
0.0000000000
11
99.8933352693
21
183.9989457148
31
0.0000000000
0
SPLINE
5
36C
100
AcDbEntity
8
0
100
AcDbSpline
62
9
6
CONTINUOUS
70
0
71
3
72
8
73
4
74
2
42
0.0000001000
43
0.0000001000
44
0.0000000001
12
-0.0033860998
22
-0.0113685382
32
0.0000000000
13
-0.0020145149
23
-0.0116653788
33
0.0000000000
40
0.0000000000
40
0.0000000000
40
0.0000000000
40
0.0000000000
40
1.0000000000
40
1.0000000000
40
1.0000000000
40
1.0000000000
10
99.8933352693
20
183.9989457148
30
0.0000000000
10
99.8922065693
20
183.9951562021
30
0.0000000000
10
99.8913033941
20
183.9913007166
30
0.0000000000
10
99.8906318892
20
183.9874122570
30
0.0000000000
11
99.8933352693
21
183.9989457148
31
0.0000000000
11
99.8906318892
21
183.9874122570
31
0.0000000000
0
SPLINE
5
36D
100
AcDbEntity
8
0
100
AcDbSpline
62
9
6
CONTINUOUS
70
0
71
3
72
8
73
4
74
2
42
0.0000001000
43
0.0000001000
44
0.0000000001
12
-0.0006855855
22
-0.0039699952
32
0.0000000000
13
-0.0005238670
23
-0.0039890075
33
0.0000000000
40
0.0000000000
40
0.0000000000
40
0.0000000000
40
0.0000000000
40
1.0000000000
40
1.0000000000
40
1.0000000000
40
1.0000000000
10
99.8906318892
20
183.9874122570
30
0.0000000000
10
99.8904033607
20
183.9860889253
30
0.0000000000
10
99.8902016641
20
183.9847617745
30
0.0000000000
10
99.8900270418
20
183.9834321054
30
0.0000000000
11
99.8906318892
21
183.9874122570
31
0.0000000000
11
99.8900270418
21
183.9834321054
31
0.0000000000
0
SPLINE
5
36E
100
AcDbEntity
8
0
100
AcDbSpline
62
9
6
CONTINUOUS
70
0
71
3
72
8
73
4
74
2
42
0.0000001000
43
0.0000001000
44
0.0000000001
12
-0.0016657154
22
-0.0126836605
32
0.0000000000
13
-0.0000000018
23
-0.0127109900
33
0.0000000000
40
0.0000000000
40
0.0000000000
40
0.0000000000
40
0.0000000000
40
1.0000000000
40
1.0000000000
40
1.0000000000
40
1.0000000000
10
99.8900270418
20
183.9834321054
30
0.0000000000
10
99.8894718034
20
183.9792042185
30
0.0000000000
10
99.8891902903
20
183.9749508704
30
0.0000000000
10
99.8891902897
20
183.9707138738
30
0.0000000000
11
99.8900270418
21
183.9834321054
31
0.0000000000
11
99.8891902897
21
183.9707138738
31
0.0000000000
0
SPLINE
5
36F
100
AcDbEntity
8
0
100
AcDbSpline
62
9
6
CONTINUOUS
70
0
71
3
72
10
73
6
74
4
42
0.0000001000
43
0.0000001000
44
0.0000000001
12
-0.1210365973
22
0.0119148569
32
0.0000000000
13
-0.0533106822
23
-0.1105467502
33
0.0000000000
40
0.0000000000
40
0.0000000000
40
0.0000000000
40
0.0000000000
40
0.3413955304
40
0.6788235121
40
1.0000000000
40
1.0000000000
40
1.0000000000
40
1.0000000000
10
99.9994800486
20
183.8212745702
30
0.0000000000
10
99.9857062642
20
183.8226304632
30
0.0000000000
10
99.9574651396
20
183.8198292112
30
0.0000000000
10
99.9209286473
20
183.7998663460
30
0.0000000000
10
99.9040175282
20
183.7782351118
30
0.0000000000
10
99.8983101490
20
183.7664001062
30
0.0000000000
11
99.9994800486
21
183.8212745702
31
0.0000000000
11
99.9581699814
21
183.8170938287
31
0.0000000000
11
99.9222121978
21
183.7973150586
31
0.0000000000
11
99.8983101490
21
183.7664001062
31
0.0000000000
0
SPLINE
5
370
100
AcDbEntity
8
0
100
AcDbSpline
62
9
6
CONTINUOUS
70
0
71
3
72
10
73
6
74
4
42
0.0000001000
43
0.0000001000
44
0.0000000001
12
0.1210105791
22
0.0119005592
32
0.0000000000
13
0.0533247757
23
-0.1105085263
33
0.0000000000
40
0.0000000000
40
0.0000000000
40
0.0000000000
40
0.0000000000
40
0.3414622253
40
0.6789559621
40
1.0000000000
40
1.0000000000
40
1.0000000000
40
1.0000000000
10
98.7789000595
20
183.8212788971
30
0.0000000000
10
98.7926735734
20
183.8226334276
30
0.0000000000
10
98.8209135374
20
183.8198298873
30
0.0000000000
10
98.8574404694
20
183.7998692573
30
0.0000000000
10
98.8743472801
20
183.7782469853
30
0.0000000000
10
98.8800538139
20
183.7664209508
30
0.0000000000
11
98.7789000595
21
183.8212788971
31
0.0000000000
11
98.8202085711
21
183.8170947833
31
0.0000000000
11
98.8561640532
21
183.7973143482
31
0.0000000000
11
98.8800538139
21
183.7664209508
31
0.0000000000
0
SPLINE
5
371
100
AcDbEntity
8
0
100
AcDbSpline
62
9
6
CONTINUOUS
70
0
71
3
72
11
73
7
74
5
42
0.0000001000
43
0.0000001000
44
0.0000000001
12
0.1647257712
22
0.0169074676
32
0.0000000000
13
0.0000024998
23
-0.1655911898
33
0.0000000000
40
0.0000000000
40
0.0000000000
40
0.0000000000
40
0.0000000000
40
0.2508328946
40
0.5012304873
40
0.7508912799
40
1.0000000000
40
1.0000000000
40
1.0000000000
40
1.0000000000
10
98.7789000624
20
184.0694557853
30
0.0000000000
10
98.7926729431
20
184.0708694349
30
0.0000000000
10
98.8211306473
20
184.0678954516
30
0.0000000000
10
98.8580787261
20
184.0466410248
30
0.0000000000
10
98.8832443038
20
184.0123392233
30
0.0000000000
10
98.8891805423
20
183.9844639432
30
0.0000000000
10
98.8891807499
20
183.9707138734
30
0.0000000000
11
98.7789000624
21
184.0694557853
31
0.0000000000
11
98.8202051280
21
184.0650845860
31
0.0000000000
11
98.8561572185
21
184.0444283463
31
0.0000000000
11
98.8805523253
21
184.0110515737
31
0.0000000000
11
98.8891807499
21
183.9707138734
31
0.0000000000
0
SPLINE
5
372
100
AcDbEntity
8
0
100
AcDbSpline
62
9
6
CONTINUOUS
70
0
71
3
72
9
73
5
74
3
42
0.0000001000
43
0.0000001000
44
0.0000000001
12
0.0385822683
22
0.0148726601
32
0.0000000000
13
0.0416051680
23
-0.0019714101
33
0.0000000000
40
0.0000000000
40
0.0000000000
40
0.0000000000
40
0.0000000000
40
0.9320597385
40
1.0000000000
40
1.0000000000
40
1.0000000000
40
1.0000000000
10
97.2531744605
20
183.7376364642
30
0.0000000000
10
97.2651614535
20
183.7422572001
30
0.0000000000
10
97.2791374697
20
183.7447287063
30
0.0000000000
10
97.2930175655
20
183.7442694461
30
0.0000000000
10
97.2939597875
20
183.7442248001
30
0.0000000000
11
97.2531744605
21
183.7376364642
31
0.0000000000
11
97.2911310880
21
183.7443183226
31
0.0000000000
11
97.2939597875
21
183.7442248001
31
0.0000000000
0
SPLINE
5
373
100
AcDbEntity
8
0
100
AcDbSpline
62
7
6
CONTINUOUS
70
0
71
3
72
16
73
12
74
10
42
0.0000001000
43
0.0000001000
44
0.0000000001
12
-0.0289744044
22
0.2588793067
32
0.0000000000
13
-0.2571086795
23
-0.0312684163
33
0.0000000000
40
0.0000000000
40
0.0000000000
40
0.0000000000
40
0.0000000000
40
0.0950980898
40
0.2223386279
40
0.3380988178
40
0.4476222810
40
0.5468622451
40
0.6466093114
40
0.7654231273
40
0.9093720201
40
1.0000000000
40
1.0000000000
40
1.0000000000
40
1.0000000000
10
-116.1114482791
20
183.9819209668
30
0.0000000000
10
-116.1123667493
20
183.9901272760
30
0.0000000000
10
-116.1168445130
20
184.0091242126
30
0.0000000000
10
-116.1315643208
20
184.0348885841
30
0.0000000000
10
-116.1542862271
20
184.0557882275
30
0.0000000000
10
-116.1796549779
20
184.0684497174
30
0.0000000000
10
-116.2057999013
20
184.0743718497
30
0.0000000000
10
-116.2332384359
20
184.0760808394
30
0.0000000000
10
-116.2645440665
20
184.0754043981
30
0.0000000000
10
-116.2949764739
20
184.0731192409
30
0.0000000000
10
-116.3151121722
20
184.0709290577
30
0.0000000000
10
-116.3228792523
20
184.0699844599
30
0.0000000000
11
-116.1114482791
21
183.9819209668
31
0.0000000000
11
-116.1171488840
21
184.0060021671
31
0.0000000000
11
-116.1334578148
21
184.0346362528
31
0.0000000000
11
-116.1555041586
21
184.0549522624
31
0.0000000000
11
-116.1808365636
21
184.0677121075
31
0.0000000000
11
-116.2058357756
21
184.0736781971
31
0.0000000000
11
-116.2315931129
21
184.0756485614
31
0.0000000000
11
-116.2623604196
21
184.0752041481
31
0.0000000000
11
-116.2995437524
21
184.0725208951
31
0.0000000000
11
-116.3228792523
21
184.0699844599
31
0.0000000000
0
SPLINE
5
374
100
AcDbEntity
8
0
100
AcDbSpline
62
7
6
CONTINUOUS
70
0
71
3
72
17
73
13
74
11
42
0.0000001000
43
0.0000001000
44
0.0000000001
12
-0.2409615793
22
-0.0786737289
32
0.0000000000
13
-0.2508541122
23
-0.0616341786
33
0.0000000000
40
0.0000000000
40
0.0000000000
40
0.0000000000
40
0.0000000000
40
0.1257174119
40
0.2559316030
40
0.3801033766
40
0.4973284206
40
0.6067933816
40
0.7076507114
40
0.7992778858
40
0.8810031933
40
0.9522887015
40
1.0000000000
40
1.0000000000
40
1.0000000000
40
1.0000000000
10
-117.4418441531
20
183.8217804773
30
0.0000000000
10
-117.4519418418
20
183.8184835915
30
0.0000000000
10
-117.4725141283
20
183.8118200685
30
0.0000000000
10
-117.5031139319
20
183.8020679586
30
0.0000000000
10
-117.5330765733
20
183.7926801923
30
0.0000000000
10
-117.5614112939
20
183.7839640892
30
0.0000000000
10
-117.5879103170
20
183.7759736399
30
0.0000000000
10
-117.6123783061
20
183.7687685796
30
0.0000000000
10
-117.6346704286
20
183.7623825622
30
0.0000000000
10
-117.6545231924
20
183.7568529364
30
0.0000000000
10
-117.6710885089
20
183.7524607722
30
0.0000000000
10
-117.6805135109
20
183.7500135875
30
0.0000000000
10
-117.6845030360
20
183.7490333719
30
0.0000000000
11
-117.4418441531
21
183.8217804773
31
0.0000000000
11
-117.4721601979
21
183.8119606071
31
0.0000000000
11
-117.5036087116
21
183.8019392010
31
0.0000000000
11
-117.5336448862
21
183.7925315512
31
0.0000000000
11
-117.5620466991
21
183.7837984217
31
0.0000000000
11
-117.5886142084
21
183.7757940240
31
0.0000000000
11
-117.6131401275
21
183.7685786131
31
0.0000000000
11
-117.6354684227
21
183.7621851587
31
0.0000000000
11
-117.6554305062
21
183.7566484558
31
0.0000000000
11
-117.6728920745
21
183.7520011533
31
0.0000000000
11
-117.6845030360
21
183.7490333719
31
0.0000000000
0
SPLINE
5
375
100
AcDbEntity
8
0
100
AcDbSpline
62
7
6
CONTINUOUS
70
0
71
3
72
11
73
7
74
5
42
0.0000001000
43
0.0000001000
44
0.0000000001
12
-0.0254898087
22
-0.0062627772
32
0.0000000000
13
-0.0387715112
23
-0.0062176843
33
0.0000000000
40
0.0000000000
40
0.0000000000
40
0.0000000000
40
0.0000000000
40
0.1248469644
40
0.5993276583
40
0.9394943737
40
1.0000000000
40
1.0000000000
40
1.0000000000
40
1.0000000000
10
-117.6845030360
20
183.7490333719
30
0.0000000000
10
-117.6855638111
20
183.7487727424
30
0.0000000000
10
-117.6907275371
20
183.7475219209
30
0.0000000000
10
-117.6995461737
20
183.7455472006
30
0.0000000000
10
-117.7040393118
20
183.7443063441
30
0.0000000000
10
-117.7098849069
20
183.7433795013
30
0.0000000000
10
-117.7106668718
20
183.7432540997
30
0.0000000000
11
-117.6845030360
21
183.7490333719
31
0.0000000000
11
-117.6877351842
21
183.7482512345
31
0.0000000000
11
-117.6996317333
21
183.7454539197
31
0.0000000000
11
-117.7082058107
21
183.7436512461
31
0.0000000000
11
-117.7106668718
21
183.7432540997
31
0.0000000000
0
SPLINE
5
376
100
AcDbEntity
8
0
100
AcDbSpline
62
7
6
CONTINUOUS
70
0
71
3
72
10
73
6
74
4
42
0.0000001000
43
0.0000001000
44
0.0000000001
12
-1.1394054503
22
-0.1385357645
32
0.0000000000
13
-1.0911165306
23
-0.3562186596
33
0.0000000000
40
0.0000000000
40
0.0000000000
40
0.0000000000
40
0.0000000000
40
0.3242326341
40
0.6737101514
40
1.0000000000
40
1.0000000000
40
1.0000000000
40
1.0000000000
10
-116.3228790499
20
184.0699827902
30
0.0000000000
10
-116.4460231934
20
184.0550101849
30
0.0000000000
10
-116.7009921592
20
184.0158158019
30
0.0000000000
10
-117.0747708113
20
183.9329860351
30
0.0000000000
10
-117.3231717388
20
183.8605270565
30
0.0000000000
10
-117.4418451547
20
183.8217835457
30
0.0000000000
11
-116.3228790499
21
184.0699827902
31
0.0000000000
11
-116.6907084048
21
184.0134376025
31
0.0000000000
11
-117.0823181870
21
183.9266563909
31
0.0000000000
11
-117.4418451547
21
183.8217835457
31
0.0000000000
0
SPLINE
5
377
100
AcDbEntity
8
0
100
AcDbSpline
62
7
6
CONTINUOUS
70
0
71
3
72
8
73
4
74
2
42
0.0000001000
43
0.0000001000
44
0.0000000001
12
-0.0000045224
22
0.0112105483
32
0.0000000000
13
-0.0012537431
23
0.0111931650
33
0.0000000000
40
0.0000000000
40
0.0000000000
40
0.0000000000
40
0.0000000000
40
1.0000000000
40
1.0000000000
40
1.0000000000
40
1.0000000000
10
-116.1108197004
20
183.9707049592
30
0.0000000000
10
-116.1108212079
20
183.9744418086
30
0.0000000000
10
-116.1110330512
20
183.9781896104
30
0.0000000000
10
-116.1114509656
20
183.9819206654
30
0.0000000000
11
-116.1108197004
21
183.9707049592
31
0.0000000000
11
-116.1114509656
21
183.9819206654
31
0.0000000000
0
SPLINE
5
378
100
AcDbEntity
8
0
100
AcDbSpline
62
7
6
CONTINUOUS
70
0
71
3
72
13
73
9
74
7
42
0.0000001000
43
0.0000001000
44
0.0000000001
12
-0.0186732971
22
0.1667114088
32
0.0000000000
13
-0.1668252168
23
0.0043654261
33
0.0000000000
40
0.0000000000
40
0.0000000000
40
0.0000000000
40
0.0000000000
40
0.1475633507
40
0.3441968187
40
0.5230475999
40
0.6926499719
40
0.8460445029
40
1.0000000000
40
1.0000000000
40
1.0000000000
40
1.0000000000
10
-116.1114509657
20
183.9819206659
30
0.0000000000
10
-116.1123694638
20
183.9901208306
30
0.0000000000
10
-116.1168337061
20
184.0090593235
30
0.0000000000
10
-116.1314731183
20
184.0347385445
30
0.0000000000
10
-116.1540429955
20
184.0556065257
30
0.0000000000
10
-116.1792643363
20
184.0683037268
30
0.0000000000
10
-116.2052744646
20
184.0742971116
30
0.0000000000
10
-116.2223627022
20
184.0754072902
30
0.0000000000
10
-116.2309239220
20
184.0756313174
30
0.0000000000
11
-116.1114509657
21
183.9819206659
31
0.0000000000
11
-116.1171473912
21
184.0059844202
31
0.0000000000
11
-116.1333524571
21
184.0344982908
31
0.0000000000
11
-116.1552384404
21
184.0547687760
31
0.0000000000
11
-116.1804597921
21
184.0675796742
31
0.0000000000
11
-116.2053253764
21
184.0736045760
31
0.0000000000
11
-116.2309239220
21
184.0756313174
31
0.0000000000
0
SPLINE
5
379
100
AcDbEntity
8
0
100
AcDbSpline
62
7
6
CONTINUOUS
70
0
71
3
72
8
73
4
74
2
42
0.0000001000
43
0.0000001000
44
0.0000000001
12
-0.0304850193
22
0.0007977217
32
0.0000000000
13
-0.0304535634
23
-0.0013443544
33
0.0000000000
40
0.0000000000
40
0.0000000000
40
0.0000000000
40
0.0000000000
40
1.0000000000
40
1.0000000000
40
1.0000000000
40
1.0000000000
10
-116.2309239220
20
184.0756313174
30
0.0000000000
10
-116.2410855950
20
184.0758972246
30
0.0000000000
10
-116.2512493905
20
184.0756952935
30
0.0000000000
10
-116.2614005783
20
184.0752471754
30
0.0000000000
11
-116.2309239220
21
184.0756313174
31
0.0000000000
11
-116.2614005783
21
184.0752471754
31
0.0000000000
0
SPLINE
5
37A
100
AcDbEntity
8
0
100
AcDbSpline
62
7
6
CONTINUOUS
70
0
71
3
72
9
73
5
74
3
42
0.0000001000
43
0.0000001000
44
0.0000000001
12
-0.0616600254
22
-0.0027219451
32
0.0000000000
13
-0.0612650701
23
-0.0074519145
33
0.0000000000
40
0.0000000000
40
0.0000000000
40
0.0000000000
40
0.0000000000
40
0.5991729697
40
1.0000000000
40
1.0000000000
40
1.0000000000
40
1.0000000000
10
-116.2614005783
20
184.0752471754
30
0.0000000000
10
-116.2737155851
20
184.0747035367
30
0.0000000000
10
-116.2942379587
20
184.0731915096
30
0.0000000000
10
-116.3146936564
20
184.0709798492
30
0.0000000000
10
-116.3228792218
20
184.0699842063
30
0.0000000000
11
-116.2614005783
21
184.0752471754
31
0.0000000000
11
-116.2982845510
21
184.0726404310
31
0.0000000000
11
-116.3228792218
21
184.0699842063
31
0.0000000000
0
SPLINE
5
37B
100
AcDbEntity
8
0
100
AcDbSpline
62
7
6
CONTINUOUS
70
0
71
3
72
8
73
4
74
2
42
0.0000001000
43
0.0000001000
44
0.0000000001
12
-0.0121258853
22
-0.0006742997
32
0.0000000000
13
-0.0121403917
23
-0.0004857074
33
0.0000000000
40
0.0000000000
40
0.0000000000
40
0.0000000000
40
0.0000000000
40
1.0000000000
40
1.0000000000
40
1.0000000000
40
1.0000000000
10
-115.9163240209
20
183.7443204026
30
0.0000000000
10
-115.9203659826
20
183.7440956360
30
0.0000000000
10
-115.9244103291
20
183.7439019631
30
0.0000000000
10
-115.9284571264
20
183.7437400606
30
0.0000000000
11
-115.9163240209
21
183.7443204026
31
0.0000000000
11
-115.9284571264
21
183.7437400606
31
0.0000000000
0
SPLINE
5
37C
100
AcDbEntity
8
0
100
AcDbSpline
62
7
6
CONTINUOUS
70
0
71
3
72
8
73
4
74
2
42
0.0000001000
43
0.0000001000
44
0.0000000001
12
-0.0226721203
22
-0.0009070561
32
0.0000000000
13
-0.0227246917
23
-0.0002290275
33
0.0000000000
40
0.0000000000
40
0.0000000000
40
0.0000000000
40
0.0000000000
40
1.0000000000
40
1.0000000000
40
1.0000000000
40
1.0000000000
10
-115.9284571264
20
183.7437400606
30
0.0000000000
10
-115.9360144998
20
183.7434377086
30
0.0000000000
10
-115.9435804202
20
183.7432461573
30
0.0000000000
10
-115.9511553175
20
183.7431698148
30
0.0000000000
11
-115.9284571264
21
183.7437400606
31
0.0000000000
11
-115.9511553175
21
183.7431698148
31
0.0000000000
0
SPLINE
5
37D
100
AcDbEntity
8
0
100
AcDbSpline
62
7
6
CONTINUOUS
70
0
71
3
72
11
73
7
74
5
42
0.0000001000
43
0.0000001000
44
0.0000000001
12
-0.1625355335
22
-0.0016380908
32
0.0000000000
13
-0.1430045884
23
0.0452983136
33
0.0000000000
40
0.0000000000
40
0.0000000000
40
0.0000000000
40
0.0000000000
40
0.3921400466
40
0.7167710143
40
0.9507098624
40
1.0000000000
40
1.0000000000
40
1.0000000000
40
1.0000000000
10
-115.9511553175
20
183.7431698148
30
0.0000000000
10
-115.9724008813
20
183.7429556945
30
0.0000000000
10
-116.0113635438
20
183.7442208790
30
0.0000000000
10
-116.0617307656
20
183.7495572840
30
0.0000000000
10
-116.0954043419
20
183.7582383087
30
0.0000000000
10
-116.1085730007
20
183.7616980332
30
0.0000000000
10
-116.1109225726
20
183.7624422866
30
0.0000000000
11
-115.9511553175
21
183.7431698148
31
0.0000000000
11
-116.0147371707
21
183.7451655692
31
0.0000000000
11
-116.0669917791
21
183.7517017764
31
0.0000000000
11
-116.1039131738
21
183.7604761245
31
0.0000000000
11
-116.1109225726
21
183.7624422866
31
0.0000000000
0
SPLINE
5
37E
100
AcDbEntity
8
0
100
AcDbSpline
62
7
6
CONTINUOUS
70
0
71
3
72
9
73
5
74
3
42
0.0000001000
43
0.0000001000
44
0.0000000001
12
-0.0148819146
22
0.0047140140
32
0.0000000000
13
-0.0133048910
23
0.0072041476
33
0.0000000000
40
0.0000000000
40
0.0000000000
40
0.0000000000
40
0.0000000000
40
0.8019985287
40
1.0000000000
40
1.0000000000
40
1.0000000000
40
1.0000000000
10
-116.1109225726
20
183.7624422866
30
0.0000000000
10
-116.1149009972
20
183.7637024974
30
0.0000000000
10
-116.1200684099
20
183.7657820516
30
0.0000000000
10
-116.1265065759
20
183.7697020492
30
0.0000000000
10
-116.1273847052
20
183.7701775265
30
0.0000000000
11
-116.1109225726
21
183.7624422866
31
0.0000000000
11
-116.1240068625
21
183.7682218724
31
0.0000000000
11
-116.1273847052
21
183.7701775265
31
0.0000000000
0
SPLINE
5
37F
100
AcDbEntity
8
0
100
AcDbSpline
62
7
6
CONTINUOUS
70
0
71
3
72
10
73
6
74
4
42
0.0000001000
43
0.0000001000
44
0.0000000001
12
-0.6103836007
22
0.0337145969
32
0.0000000000
13
-0.6103822664
23
-0.0337146560
33
0.0000000000
40
0.0000000000
40
0.0000000000
40
0.0000000000
40
0.0000000000
40
0.3162377785
40
0.6798529205
40
1.0000000000
40
1.0000000000
40
1.0000000000
40
1.0000000000
10
-115.3052946152
20
183.7443371090
30
0.0000000000
10
-115.3696367332
20
183.7478910521
30
0.0000000000
10
-115.5081057565
20
183.7531182199
30
0.0000000000
10
-115.7119204692
20
183.7531621495
30
0.0000000000
10
-115.8511874394
20
183.7479350060
30
0.0000000000
10
-115.9163248061
20
183.7443371231
30
0.0000000000
11
-115.3052946152
21
183.7443371090
31
0.0000000000
11
-115.4984767295
21
183.7516294091
31
0.0000000000
11
-115.7207533649
21
183.7516773477
31
0.0000000000
11
-115.9163248061
21
183.7443371231
31
0.0000000000
0
SPLINE
5
380
100
AcDbEntity
8
0
100
AcDbSpline
62
7
6
CONTINUOUS
70
0
71
3
72
9
73
5
74
3
42
0.0000001000
43
0.0000001000
44
0.0000000001
12
-0.0152042181
22
-0.0087117897
32
0.0000000000
13
-0.0143642103
23
-0.0045149261
33
0.0000000000
40
0.0000000000
40
0.0000000000
40
0.0000000000
40
0.0000000000
40
0.1424866664
40
1.0000000000
40
1.0000000000
40
1.0000000000
40
1.0000000000
10
-115.0948815398
20
183.7697892257
30
0.0000000000
10
-115.0956036725
20
183.7693754544
30
0.0000000000
10
-115.1016717209
20
183.7657388285
30
0.0000000000
10
-115.1066059711
20
183.7637870781
30
0.0000000000
10
-115.1107118051
20
183.7624965417
30
0.0000000000
11
-115.0948815398
21
183.7697892257
31
0.0000000000
11
-115.0973098856
21
183.7683733201
31
0.0000000000
11
-115.1107118051
21
183.7624965417
31
0.0000000000
0
SPLINE
5
381
100
AcDbEntity
8
0
100
AcDbSpline
62
7
6
CONTINUOUS
70
0
71
3
72
11
73
7
74
5
42
0.0000001000
43
0.0000001000
44
0.0000000001
12
-0.1401325979
22
-0.0440425303
32
0.0000000000
13
-0.1595286702
23
0.0010276725
33
0.0000000000
40
0.0000000000
40
0.0000000000
40
0.0000000000
40
0.0000000000
40
0.0438216188
40
0.2774879323
40
0.6034667719
40
1.0000000000
40
1.0000000000
40
1.0000000000
40
1.0000000000
10
-115.1107137115
20
183.7624959425
30
0.0000000000
10
-115.1127606572
20
183.7618526042
30
0.0000000000
10
-115.1255252424
20
183.7583816197
30
0.0000000000
10
-115.1582248039
20
183.7498862129
30
0.0000000000
10
-115.2079649328
20
183.7443825515
30
0.0000000000
10
-115.2465012980
20
183.7430039561
30
0.0000000000
10
-115.2675874375
20
183.7431397916
30
0.0000000000
11
-115.1107137115
21
183.7624959425
31
0.0000000000
11
-115.1168489388
21
183.7607454516
31
0.0000000000
11
-115.1530113761
21
183.7519976452
31
0.0000000000
11
-115.2044883975
21
183.7453545688
31
0.0000000000
11
-115.2675874375
21
183.7431397916
31
0.0000000000
0
SPLINE
5
382
100
AcDbEntity
8
0
100
AcDbSpline
62
7
6
CONTINUOUS
70
0
71
3
72
8
73
4
74
2
42
0.0000001000
43
0.0000001000
44
0.0000000001
12
-0.0377751027
22
0.0002433446
32
0.0000000000
13
-0.0376420626
23
0.0020944388
33
0.0000000000
40
0.0000000000
40
0.0000000000
40
0.0000000000
40
0.0000000000
40
1.0000000000
40
1.0000000000
40
1.0000000000
40
1.0000000000
10
-115.2675874375
20
183.7431397916
30
0.0000000000
10
-115.2801791384
20
183.7432209064
30
0.0000000000
10
-115.2927481564
20
183.7436202619
30
0.0000000000
10
-115.3052955105
20
183.7443184082
30
0.0000000000
11
-115.2675874375
21
183.7431397916
31
0.0000000000
11
-115.3052955105
21
183.7443184082
31
0.0000000000
0
SPLINE
5
383
100
AcDbEntity
8
0
100
AcDbSpline
62
7
6
CONTINUOUS
70
0
71
3
72
9
73
5
74
3
42
0.0000001000
43
0.0000001000
44
0.0000000001
12
-0.0603938318
22
0.0073448720
32
0.0000000000
13
-0.0607785955
23
0.0027725077
33
0.0000000000
40
0.0000000000
40
0.0000000000
40
0.0000000000
40
0.0000000000
40
0.3869911088
40
1.0000000000
40
1.0000000000
40
1.0000000000
40
1.0000000000
10
-114.8987401669
20
184.0699844703
30
0.0000000000
10
-114.9065307922
20
184.0709319370
30
0.0000000000
10
-114.9266939940
20
184.0731243326
30
0.0000000000
10
-114.9469223395
20
184.0746413830
30
0.0000000000
10
-114.9593416127
20
184.0752079070
30
0.0000000000
11
-114.8987401669
21
184.0699844703
31
0.0000000000
11
-114.9221465079
21
184.0725276711
31
0.0000000000
11
-114.9593416127
21
184.0752079070
31
0.0000000000
0
SPLINE
5
384
100
AcDbEntity
8
0
100
AcDbSpline
62
7
6
CONTINUOUS
70
0
71
3
72
9
73
5
74
3
42
0.0000001000
43
0.0000001000
44
0.0000000001
12
-0.0564442669
22
0.0025747907
32
0.0000000000
13
-0.0559810452
23
-0.0080425123
33
0.0000000000
40
0.0000000000
40
0.0000000000
40
0.0000000000
40
0.0000000000
40
0.5438656546
40
1.0000000000
40
1.0000000000
40
1.0000000000
40
1.0000000000
10
-114.9593416127
20
184.0752079070
30
0.0000000000
10
-114.9695743121
20
184.0756746870
30
0.0000000000
10
-114.9884129309
20
184.0760792902
30
0.0000000000
10
-115.0072471072
20
184.0749045695
30
0.0000000000
10
-115.0157587330
20
184.0736817475
30
0.0000000000
11
-114.9593416127
21
184.0752079070
31
0.0000000000
11
-114.9900643535
21
184.0756476386
31
0.0000000000
11
-115.0157587330
21
184.0736817475
31
0.0000000000
0
SPLINE
5
385
100
AcDbEntity
8
0
100
AcDbSpline
62
7
6
CONTINUOUS
70
0
71
3
72
8
73
4
74
2
42
0.0000001000
43
0.0000001000
44
0.0000000001
12
-0.0253563285
22
-0.0036428149
32
0.0000000000
13
-0.0242042291
23
-0.0084543714
33
0.0000000000
40
0.0000000000
40
0.0000000000
40
0.0000000000
40
0.0000000000
40
1.0000000000
40
1.0000000000
40
1.0000000000
40
1.0000000000
10
-115.0157587330
20
184.0736817475
30
0.0000000000
10
-115.0242108425
20
184.0724674759
30
0.0000000000
10
-115.0325847680
20
184.0705757865
30
0.0000000000
10
-115.0406528444
20
184.0677576627
30
0.0000000000
11
-115.0157587330
21
184.0736817475
31
0.0000000000
11
-115.0406528444
21
184.0677576627
31
0.0000000000
0
SPLINE
5
386
100
AcDbEntity
8
0
100
AcDbSpline
62
7
6
CONTINUOUS
70
0
71
3
72
11
73
7
74
5
42
0.0000001000
43
0.0000001000
44
0.0000000001
12
-0.1097795045
22
-0.0383452287
32
0.0000000000
13
-0.0129853403
23
-0.1160160106
33
0.0000000000
40
0.0000000000
40
0.0000000000
40
0.0000000000
40
0.0000000000
40
0.2448027718
40
0.5034455926
40
0.7877064745
40
1.0000000000
40
1.0000000000
40
1.0000000000
40
1.0000000000
10
-115.0406528444
20
184.0677576627
30
0.0000000000
10
-115.0496109534
20
184.0646286566
30
0.0000000000
10
-115.0672582040
20
184.0558449579
30
0.0000000000
10
-115.0900263531
20
184.0349313425
30
0.0000000000
10
-115.1047694831
20
184.0091444102
30
0.0000000000
10
-115.1092521895
20
183.9901312253
30
0.0000000000
10
-115.1101710907
20
183.9819214093
30
0.0000000000
11
-115.0406528444
21
184.0677576627
31
0.0000000000
11
-115.0660411632
21
184.0550028568
31
0.0000000000
11
-115.0881298216
21
184.0346755365
31
0.0000000000
11
-115.1044666607
21
184.0060126181
31
0.0000000000
11
-115.1101710907
21
183.9819214093
31
0.0000000000
0
SPLINE
5
387
100
AcDbEntity
8
0
100
AcDbSpline
62
7
6
CONTINUOUS
70
0
71
3
72
8
73
4
74
2
42
0.0000001000
43
0.0000001000
44
0.0000000001
12
-0.0012512757
22
-0.0111793772
32
0.0000000000
13
-0.0000054201
23
-0.0111967750
33
0.0000000000
40
0.0000000000
40
0.0000000000
40
0.0000000000
40
0.0000000000
40
1.0000000000
40
1.0000000000
40
1.0000000000
40
1.0000000000
10
-115.1101710907
20
183.9819214093
30
0.0000000000
10
-115.1105881826
20
183.9781949503
30
0.0000000000
10
-115.1107997401
20
183.9744517933
30
0.0000000000
10
-115.1108015469
20
183.9707195349
30
0.0000000000
11
-115.1101710907
21
183.9819214093
31
0.0000000000
11
-115.1108015469
21
183.9707195349
31
0.0000000000
0
SPLINE
5
388
100
AcDbEntity
8
0
100
AcDbSpline
62
7
6
CONTINUOUS
70
0
71
3
72
10
73
6
74
4
42
0.0000001000
43
0.0000001000
44
0.0000000001
12
-1.0911208316
22
0.3562194201
32
0.0000000000
13
-1.1394011973
23
0.1385349433
33
0.0000000000
40
0.0000000000
40
0.0000000000
40
0.0000000000
40
0.0000000000
40
0.3242092501
40
0.6736871094
40
1.0000000000
40
1.0000000000
40
1.0000000000
40
1.0000000000
10
-113.7797742733
20
183.8217835174
30
0.0000000000
10
-113.8976914288
20
183.8602800611
30
0.0000000000
10
-114.1453112770
20
183.9325657061
30
0.0000000000
10
-114.5190563890
20
184.0155466987
30
0.0000000000
10
-114.7748066036
20
184.0549142239
30
0.0000000000
10
-114.8987403697
20
184.0699828032
30
0.0000000000
11
-113.7797742733
21
183.8217835174
31
0.0000000000
11
-114.1369887331
21
183.9260602896
31
0.0000000000
11
-114.5285637437
21
184.0130000769
31
0.0000000000
11
-114.8987403697
21
184.0699828032
31
0.0000000000
0
SPLINE
5
389
100
AcDbEntity
8
0
100
AcDbSpline
62
7
6
CONTINUOUS
70
0
71
3
72
8
73
4
74
2
42
0.0000001000
43
0.0000001000
44
0.0000000001
12
0.0000338558
22
0.0001072465
32
0.0000000000
13
-0.0041573908
23
0.0006697597
33
0.0000000000
40
0.0000000000
40
0.0000000000
40
0.0000000000
40
0.0000000000
40
1.0000000000
40
1.0000000000
40
1.0000000000
40
1.0000000000
10
-113.5087334553
20
183.7428474975
30
0.0000000000
10
-113.5087221701
20
183.7428832463
30
0.0000000000
10
-113.5099276586
20
183.7430769749
30
0.0000000000
10
-113.5113134555
20
183.7433002281
30
0.0000000000
11
-113.5087334553
21
183.7428474975
31
0.0000000000
11
-113.5113134555
21
183.7433002281
31
0.0000000000
0
SPLINE
5
38A
100
AcDbEntity
8
0
100
AcDbSpline
62
7
6
CONTINUOUS
70
0
71
3
72
11
73
7
74
5
42
0.0000001000
43
0.0000001000
44
0.0000000001
12
-0.0393958245
22
0.0063467055
32
0.0000000000
13
-0.0252524804
23
0.0062307611
33
0.0000000000
40
0.0000000000
40
0.0000000000
40
0.0000000000
40
0.0000000000
40
0.0437461441
40
0.3811931805
40
0.8487327780
40
1.0000000000
40
1.0000000000
40
1.0000000000
40
1.0000000000
10
-113.5113134555
20
183.7433002281
30
0.0000000000
10
-113.5118879273
20
183.7433927760
30
0.0000000000
10
-113.5171637313
20
183.7442434271
30
0.0000000000
10
-113.5216662821
20
183.7454481460
30
0.0000000000
10
-113.5305632688
20
183.7474348478
30
0.0000000000
10
-113.5358507454
20
183.7487178740
30
0.0000000000
10
-113.5371240363
20
183.7490320440
30
0.0000000000
11
-113.5113134555
21
183.7433002281
31
0.0000000000
11
-113.5130559915
21
183.7435839422
31
0.0000000000
11
-113.5215418178
21
183.7453565887
31
0.0000000000
11
-113.5332376205
21
183.7480904476
31
0.0000000000
11
-113.5371240363
21
183.7490320440
31
0.0000000000
0
SPLINE
5
38B
100
AcDbEntity
8
0
100
AcDbSpline
62
7
6
CONTINUOUS
70
0
71
3
72
18
73
14
74
12
42
0.0000001000
43
0.0000001000
44
0.0000000001
12
-0.2491589938
22
0.0614771357
32
0.0000000000
13
-0.2409641088
23
0.0786527442
33
0.0000000000
40
0.0000000000
40
0.0000000000
40
0.0000000000
40
0.0000000000
40
0.0441584266
40
0.1147243445
40
0.1955767258
40
0.2863024203
40
0.3862697342
40
0.4948207329
40
0.6111644276
40
0.7344498212
40
0.8637745550
40
0.9980510664
40
1.0000000000
40
1.0000000000
40
1.0000000000
40
1.0000000000
10
-113.5371240363
20
183.7490320440
30
0.0000000000
10
-113.5407915260
20
183.7499369552
30
0.0000000000
10
-113.5499052054
20
183.7522994489
30
0.0000000000
10
-113.5660385746
20
183.7565675934
30
0.0000000000
10
-113.5856964348
20
183.7620256947
30
0.0000000000
10
-113.6077717493
20
183.7683450732
30
0.0000000000
10
-113.6320242334
20
183.7754725598
30
0.0000000000
10
-113.6583097812
20
183.7833831360
30
0.0000000000
10
-113.6864298806
20
183.7920247838
30
0.0000000000
10
-113.7161810560
20
183.8013348090
30
0.0000000000
10
-113.7473295785
20
183.8112509172
30
0.0000000000
10
-113.7686767881
20
183.8181582533
30
0.0000000000
10
-113.7796187317
20
183.8217293589
30
0.0000000000
10
-113.7797752727
20
183.8217804553
30
0.0000000000
11
-113.5371240363
21
183.7490320440
31
0.0000000000
11
-113.5478592649
21
183.7517765614
31
0.0000000000
11
-113.5651469924
21
183.7563666988
31
0.0000000000
11
-113.5848991842
21
183.7618310009
31
0.0000000000
11
-113.6070096912
21
183.7681535884
31
0.0000000000
11
-113.6313221928
21
183.7752936202
31
0.0000000000
11
-113.6576713984
21
183.7832179475
31
0.0000000000
11
-113.6858621016
21
183.7918758857
31
0.0000000000
11
-113.7156864913
21
183.8012062988
31
0.0000000000
11
-113.7469231596
21
183.8111481671
31
0.0000000000
11
-113.7793056441
21
183.8216271833
31
0.0000000000
11
-113.7797752727
21
183.8217804553
31
0.0000000000
0
SPLINE
5
38C
100
AcDbEntity
8
0
100
AcDbSpline
62
7
6
CONTINUOUS
70
0
71
3
72
8
73
4
74
2
42
0.0000001000
43
0.0000001000
44
0.0000000001
12
0.0000338947
22
0.0001160309
32
0.0000000000
13
-0.0042056179
23
0.0006729367
33
0.0000000000
40
0.0000000000
40
0.0000000000
40
0.0000000000
40
0.0000000000
40
1.0000000000
40
1.0000000000
40
1.0000000000
40
1.0000000000
10
-113.5087389576
20
183.7428583001
30
0.0000000000
10
-113.5087276593
20
183.7428969771
30
0.0000000000
10
-113.5099097535
20
183.7430876205
30
0.0000000000
10
-113.5113116261
20
183.7433119328
30
0.0000000000
11
-113.5087389576
21
183.7428583001
31
0.0000000000
11
-113.5113116261
21
183.7433119328
31
0.0000000000
0
SPLINE
5
38D
100
AcDbEntity
8
0
100
AcDbSpline
62
7
6
CONTINUOUS
70
0
71
3
72
17
73
13
74
11
42
0.0000001000
43
0.0000001000
44
0.0000000001
12
-0.2509708435
22
0.0616478837
32
0.0000000000
13
-0.2409606472
23
0.0786734263
33
0.0000000000
40
0.0000000000
40
0.0000000000
40
0.0000000000
40
0.0000000000
40
0.0479700867
40
0.1192779108
40
0.2010034140
40
0.2926090716
40
0.3934274926
40
0.5028415426
40
0.6200107320
40
0.7441297324
40
0.8743023083
40
1.0000000000
40
1.0000000000
40
1.0000000000
40
1.0000000000
10
-113.5371162514
20
183.7490334911
30
0.0000000000
10
-113.5411292824
20
183.7500192425
30
0.0000000000
10
-113.5505758119
20
183.7524724251
30
0.0000000000
10
-113.5671639560
20
183.7568714393
30
0.0000000000
10
-113.5870166036
20
183.7624016980
30
0.0000000000
10
-113.6093035865
20
183.7687867632
30
0.0000000000
10
-113.6337623448
20
183.7759895494
30
0.0000000000
10
-113.6602493933
20
183.7839766939
30
0.0000000000
10
-113.6885710653
20
183.7926889811
30
0.0000000000
10
-113.7185214430
20
183.8020730230
30
0.0000000000
10
-113.7491119276
20
183.8118222130
30
0.0000000000
10
-113.7696792017
20
183.8184841213
30
0.0000000000
10
-113.7797752674
20
183.8217804773
30
0.0000000000
11
-113.5371162514
21
183.7490334911
31
0.0000000000
11
-113.5487917424
21
183.7520178724
31
0.0000000000
11
-113.5662585033
21
183.7566673862
31
0.0000000000
11
-113.5862203770
21
183.7622047311
31
0.0000000000
11
-113.6085431974
21
183.7685971664
31
0.0000000000
11
-113.6330594396
21
183.7758101756
31
0.0000000000
11
-113.6596144018
21
183.7838111123
31
0.0000000000
11
-113.6880025142
21
183.7925402355
31
0.0000000000
11
-113.7180257729
21
183.8019439606
31
0.0000000000
11
-113.7494640989
21
183.8119621740
31
0.0000000000
11
-113.7797752674
21
183.8217804773
31
0.0000000000
0
SPLINE
5
38E
100
AcDbEntity
8
0
100
AcDbSpline
62
7
6
CONTINUOUS
70
0
71
3
72
16
73
12
74
10
42
0.0000001000
43
0.0000001000
44
0.0000000001
12
-0.2571082013
22
0.0312732353
32
0.0000000000
13
-0.0289956003
23
-0.2588563033
33
0.0000000000
40
0.0000000000
40
0.0000000000
40
0.0000000000
40
0.0000000000
40
0.0957177787
40
0.2385228785
40
0.3560819468
40
0.4550440047
40
0.5535147798
40
0.6628920152
40
0.7781856162
40
0.9049357695
40
1.0000000000
40
1.0000000000
40
1.0000000000
40
1.0000000000
10
-114.8987401979
20
184.0699842132
30
0.0000000000
10
-114.9069434732
20
184.0709820147
30
0.0000000000
10
-114.9274196536
20
184.0731952978
30
0.0000000000
10
-114.9580874793
20
184.0754526478
30
0.0000000000
10
-114.9891198092
20
184.0760661140
30
0.0000000000
10
-115.0163125661
20
184.0742978000
30
0.0000000000
10
-115.0422931409
20
184.0683235867
30
0.0000000000
10
-115.0675206185
20
184.0556491261
30
0.0000000000
10
-115.0901252011
20
184.0347700119
30
0.0000000000
10
-115.1047817035
20
184.0090742698
30
0.0000000000
10
-115.1092495901
20
183.9901237664
30
0.0000000000
10
-115.1101684050
20
183.9819211079
30
0.0000000000
11
-114.8987401979
21
184.0699842132
31
0.0000000000
11
-114.9233881606
21
184.0726454516
31
0.0000000000
11
-114.9602803603
21
184.0752498753
31
0.0000000000
11
-114.9907237166
21
184.0756305716
31
0.0000000000
11
-115.0162731922
21
184.0736076185
31
0.0000000000
11
-115.0410612051
21
184.0676145558
31
0.0000000000
11
-115.0663267752
21
184.0548060534
31
0.0000000000
11
-115.0882434408
21
184.0345274722
31
0.0000000000
11
-115.1044692279
21
184.0059919774
31
0.0000000000
11
-115.1101684050
21
183.9819211079
31
0.0000000000
0
SPLINE
5
38F
100
AcDbEntity
8
0
100
AcDbSpline
62
7
6
CONTINUOUS
70
0
71
3
72
12
73
8
74
6
42
0.0000001000
43
0.0000001000
44
0.0000000001
12
-0.1619099871
22
-0.0512868116
32
0.0000000000
13
-0.1836198709
23
0.0070518447
33
0.0000000000
40
0.0000000000
40
0.0000000000
40
0.0000000000
40
0.0000000000
40
0.0435347811
40
0.2501577898
40
0.5368832645
40
0.8832351291
40
1.0000000000
40
1.0000000000
40
1.0000000000
40
1.0000000000
10
-115.1106968479
20
183.7624422866
30
0.0000000000
10
-115.1130464198
20
183.7616980332
30
0.0000000000
10
-115.1262150786
20
183.7582383087
30
0.0000000000
10
-115.1598886549
20
183.7495572840
30
0.0000000000
10
-115.2102558767
20
183.7442208790
30
0.0000000000
10
-115.2564048179
20
183.7427223437
30
0.0000000000
10
-115.2847810211
20
183.7434171916
30
0.0000000000
10
-115.2919278046
20
183.7436916609
30
0.0000000000
11
-115.1106968479
21
183.7624422866
31
0.0000000000
11
-115.1177062467
21
183.7604761245
31
0.0000000000
11
-115.1546276414
21
183.7517017764
31
0.0000000000
11
-115.2068822498
21
183.7451655692
31
0.0000000000
11
-115.2704641030
21
183.7431698148
31
0.0000000000
11
-115.2919278046
21
183.7436916609
31
0.0000000000
0
SPLINE
5
390
100
AcDbEntity
8
0
100
AcDbSpline
62
7
6
CONTINUOUS
70
0
71
3
72
10
73
6
74
4
42
0.0000001000
43
0.0000001000
44
0.0000000001
12
-0.6103824095
22
0.0337146639
32
0.0000000000
13
-0.6103837428
23
-0.0337146206
33
0.0000000000
40
0.0000000000
40
0.0000000000
40
0.0000000000
40
0.0000000000
40
0.3201470045
40
0.6837620612
40
1.0000000000
40
1.0000000000
40
1.0000000000
40
1.0000000000
10
-115.3052946144
20
183.7443371231
30
0.0000000000
10
-115.3704319811
20
183.7479350060
30
0.0000000000
10
-115.5096989513
20
183.7531621495
30
0.0000000000
10
-115.7135137119
20
183.7531182198
30
0.0000000000
10
-115.8519827829
20
183.7478910485
30
0.0000000000
10
-115.9163249485
20
183.7443371011
30
0.0000000000
11
-115.3052946144
21
183.7443371231
31
0.0000000000
11
-115.5008660556
21
183.7516773477
31
0.0000000000
11
-115.7231426910
21
183.7516294091
31
0.0000000000
11
-115.9163249485
21
183.7443371011
31
0.0000000000
0
SPLINE
5
391
100
AcDbEntity
8
0
100
AcDbSpline
62
7
6
CONTINUOUS
70
0
71
3
72
8
73
4
74
2
42
0.0000001000
43
0.0000001000
44
0.0000000001
12
-0.0133593634
22
-0.0007433272
32
0.0000000000
13
-0.0133758724
23
-0.0005149088
33
0.0000000000
40
0.0000000000
40
0.0000000000
40
0.0000000000
40
0.0000000000
40
1.0000000000
40
1.0000000000
40
1.0000000000
40
1.0000000000
10
-115.9163239100
20
183.7443184082
30
0.0000000000
10
-115.9207770311
20
183.7440706324
30
0.0000000000
10
-115.9252328810
20
183.7438604917
30
0.0000000000
10
-115.9296915051
20
183.7436888554
30
0.0000000000
11
-115.9163239100
21
183.7443184082
31
0.0000000000
11
-115.9296915051
21
183.7436888554
31
0.0000000000
0
SPLINE
5
392
100
AcDbEntity
8
0
100
AcDbSpline
62
9
6
CONTINUOUS
70
0
71
3
72
10
73
6
74
4
42
0.0000001000
43
0.0000001000
44
0.0000000001
12
-0.0000000037
22
0.0084211513
32
0.0000000000
13
0.0000000024
23
0.0084211513
33
0.0000000000
40
0.0000000000
40
0.0000000000
40
0.0000000000
40
0.0000000000
40
0.5552522622
40
0.8890061159
40
1.0000000000
40
1.0000000000
40
1.0000000000
40
1.0000000000
10
-117.7468255414
20
183.7376364692
30
0.0000000000
10
-117.7468255421
20
183.7391950903
30
0.0000000000
10
-117.7468255400
20
183.7416905753
30
0.0000000000
10
-117.7468255415
20
183.7444976257
30
0.0000000000
10
-117.7468255415
20
183.7457460551
30
0.0000000000
10
-117.7468255414
20
183.7460576205
30
0.0000000000
11
-117.7468255414
21
183.7376364692
31
0.0000000000
11
-117.7468255408
21
183.7423123325
31
0.0000000000
11
-117.7468255415
21
183.7451229242
31
0.0000000000
11
-117.7468255414
21
183.7460576205
31
0.0000000000
0
SPLINE
5
393
100
AcDbEntity
8
0
100
AcDbSpline
62
9
6
CONTINUOUS
70
0
71
3
72
11
73
7
74
5
42
0.0000001000
43
0.0000001000
44
0.0000000001
12
-0.2347482178
22
-0.0766424207
32
0.0000000000
13
-0.2489078788
23
-0.0675589159
33
0.0000000000
40
0.0000000000
40
0.0000000000
40
0.0000000000
40
0.0000000000
40
0.3504046771
40
0.6666687971
40
0.9304468631
40
1.0000000000
40
1.0000000000
40
1.0000000000
40
1.0000000000
10
-117.4416804227
20
183.8212789636
30
0.0000000000
10
-117.4690993805
20
183.8123270094
30
0.0000000000
10
-117.5212007777
20
183.7956742598
30
0.0000000000
10
-117.5950834163
20
183.7729612779
30
0.0000000000
10
-117.6449678629
20
183.7588312755
30
0.0000000000
10
-117.6730290428
20
183.7509639652
30
0.0000000000
10
-117.6787998174
20
183.7493976537
30
0.0000000000
11
-117.4416804227
21
183.8212789636
31
0.0000000000
11
-117.5240998244
21
183.7949261117
31
0.0000000000
11
-117.5988006100
21
183.7721385397
31
0.0000000000
11
-117.6614257746
21
183.7542203127
31
0.0000000000
11
-117.6787998174
21
183.7493976537
31
0.0000000000
0
SPLINE
5
394
100
AcDbEntity
8
0
100
AcDbSpline
62
9
6
CONTINUOUS
70
0
71
3
72
10
73
6
74
4
42
0.0000001000
43
0.0000001000
44
0.0000000001
12
-0.0708811429
22
-0.0192386565
32
0.0000000000
13
0.0003549073
23
0.0703206776
33
0.0000000000
40
0.0000000000
40
0.0000000000
40
0.0000000000
40
0.0000000000
40
0.4410278012
40
0.8596420268
40
1.0000000000
40
1.0000000000
40
1.0000000000
40
1.0000000000
10
-117.6787998174
20
183.7493976537
30
0.0000000000
10
-117.6892200022
20
183.7465693929
30
0.0000000000
10
-117.7089938350
20
183.7415350785
30
0.0000000000
10
-117.7257891452
20
183.7394213192
30
0.0000000000
10
-117.7468421461
20
183.7343464466
30
0.0000000000
10
-117.7468255414
20
183.7376364692
30
0.0000000000
11
-117.6787998174
21
183.7493976537
31
0.0000000000
11
-117.7081049631
21
183.7422506161
31
0.0000000000
11
-117.7370048109
21
183.7366495686
31
0.0000000000
11
-117.7468255414
21
183.7376364692
31
0.0000000000
0
SPLINE
5
395
100
AcDbEntity
8
0
100
AcDbSpline
62
9
6
CONTINUOUS
70
0
71
3
72
12
73
8
74
6
42
0.0000001000
43
0.0000001000
44
0.0000000001
12
-1.1394044272
22
-0.1385317330
32
0.0000000000
13
-1.0911181987
23
-0.3562226359
33
0.0000000000
40
0.0000000000
40
0.0000000000
40
0.0000000000
40
0.0000000000
40
0.1736997740
40
0.3668447149
40
0.5660151312
40
0.7736035241
40
1.0000000000
40
1.0000000000
40
1.0000000000
40
1.0000000000
10
-116.3228149873
20
184.0694558827
30
0.0000000000
10
-116.3887864178
20
184.0614349058
30
0.0000000000
10
-116.5278391015
20
184.0421390162
30
0.0000000000
10
-116.7411900735
20
184.0047297843
30
0.0000000000
10
-116.9656435932
20
183.9564796694
30
0.0000000000
10
-117.2003372815
20
183.8962234071
30
0.0000000000
10
-117.3593386510
20
183.8481614801
30
0.0000000000
10
-117.4416804227
20
183.8212789636
30
0.0000000000
11
-116.3228149873
21
184.0694558827
31
0.0000000000
11
-116.5202944147
21
184.0420521026
31
0.0000000000
11
-116.7386539527
21
184.0037646819
31
0.0000000000
11
-116.9621550165
21
183.9557193676
31
0.0000000000
11
-117.1929388740
21
183.8964665654
31
0.0000000000
11
-117.4416804227
21
183.8212789636
31
0.0000000000
0
SPLINE
5
396
100
AcDbEntity
8
0
100
AcDbSpline
62
9
6
CONTINUOUS
70
0
71
3
72
14
73
10
74
8
42
0.0000001000
43
0.0000001000
44
0.0000000001
12
-0.0001275271
22
0.1030417226
32
0.0000000000
13
-0.1022885817
23
-0.0124361939
33
0.0000000000
40
0.0000000000
40
0.0000000000
40
0.0000000000
40
0.0000000000
40
0.0475695937
40
0.1569696759
40
0.3115077117
40
0.4870765621
40
0.6663493256
40
0.8385288923
40
1.0000000000
40
1.0000000000
40
1.0000000000
40
1.0000000000
10
-116.2210999477
20
184.0694558827
30
0.0000000000
10
-116.2211019699
20
184.0710897670
30
0.0000000000
10
-116.2279005083
20
184.0735387104
30
0.0000000000
10
-116.2372790591
20
184.0742535232
30
0.0000000000
10
-116.2529667254
20
184.0747725546
30
0.0000000000
10
-116.2702625759
20
184.0741489515
30
0.0000000000
10
-116.2883839096
20
184.0729929024
30
0.0000000000
10
-116.3059165092
20
184.0713970728
30
0.0000000000
10
-116.3173094371
20
184.0701252447
30
0.0000000000
10
-116.3228149873
20
184.0694558827
30
0.0000000000
11
-116.2210999477
21
184.0694558827
31
0.0000000000
11
-116.2250322073
21
184.0723822410
31
0.0000000000
11
-116.2361734291
21
184.0740994424
31
0.0000000000
11
-116.2520902424
21
184.0745737126
31
0.0000000000
11
-116.2701741392
21
184.0740692836
31
0.0000000000
11
-116.2886092655
21
184.0728934245
31
0.0000000000
11
-116.3062793943
21
184.0713015049
31
0.0000000000
11
-116.3228149873
21
184.0694558827
31
0.0000000000
0
SPLINE
5
397
100
AcDbEntity
8
0
100
AcDbSpline
62
9
6
CONTINUOUS
70
0
71
3
72
12
73
8
74
6
42
0.0000001000
43
0.0000001000
44
0.0000000001
12
-0.0000000955
22
0.2481769191
32
0.0000000000
13
0.0000000361
23
0.2481769191
33
0.0000000000
40
0.0000000000
40
0.0000000000
40
0.0000000000
40
0.0000000000
40
0.3245288541
40
0.5733868835
40
0.7612770168
40
0.8998605882
40
1.0000000000
40
1.0000000000
40
1.0000000000
40
1.0000000000
10
-116.2210999477
20
183.8212789636
30
0.0000000000
10
-116.2210999581
20
183.8481258206
30
0.0000000000
10
-116.2210999387
20
183.8955596174
30
0.0000000000
10
-116.2210999494
20
183.9585367456
30
0.0000000000
10
-116.2210999487
20
184.0061314314
30
0.0000000000
10
-116.2210999464
20
184.0414232743
30
0.0000000000
10
-116.2210999489
20
184.0611717858
30
0.0000000000
10
-116.2210999477
20
184.0694558827
30
0.0000000000
11
-116.2210999477
21
183.8212789636
31
0.0000000000
11
-116.2210999449
21
183.9018195348
31
0.0000000000
11
-116.2210999481
21
183.9635803538
31
0.0000000000
11
-116.2210999482
21
184.0102103482
31
0.0000000000
11
-116.2210999475
21
184.0446035920
31
0.0000000000
11
-116.2210999477
21
184.0694558827
31
0.0000000000
0
SPLINE
5
398
100
AcDbEntity
8
0
100
AcDbSpline
62
9
6
CONTINUOUS
70
0
71
3
72
8
73
4
74
2
42
0.0000001000
43
0.0000001000
44
0.0000000001
12
-0.0259648526
22
-0.0014341561
32
0.0000000000
13
-0.0260031346
23
-0.0007031723
33
0.0000000000
40
0.0000000000
40
0.0000000000
40
0.0000000000
40
0.0000000000
40
1.0000000000
40
1.0000000000
40
1.0000000000
40
1.0000000000
10
-115.9159548290
20
183.7376364692
30
0.0000000000
10
-115.9246097798
20
183.7371584171
30
0.0000000000
10
-115.9332733358
20
183.7367997868
30
0.0000000000
10
-115.9419410474
20
183.7365653960
30
0.0000000000
11
-115.9159548290
21
183.7376364692
31
0.0000000000
11
-115.9419410474
21
183.7365653960
31
0.0000000000
0
SPLINE
5
399
100
AcDbEntity
8
0
100
AcDbSpline
62
9
6
CONTINUOUS
70
0
71
3
72
10
73
6
74
4
42
0.0000001000
43
0.0000001000
44
0.0000000001
12
-0.1456857917
22
-0.0039396099
32
0.0000000000
13
-0.1438195669
23
0.0241745223
33
0.0000000000
40
0.0000000000
40
0.0000000000
40
0.0000000000
40
0.0000000000
40
0.3486430920
40
0.8460685313
40
1.0000000000
40
1.0000000000
40
1.0000000000
40
1.0000000000
10
-115.9419410474
20
183.7365653960
30
0.0000000000
10
-115.9588718290
20
183.7361075567
30
0.0000000000
10
-115.9999970270
20
183.7361468460
30
0.0000000000
10
-116.0484839724
20
183.7397427210
30
0.0000000000
10
-116.0798272825
20
183.7443316124
30
0.0000000000
10
-116.0872067349
20
183.7455720190
30
0.0000000000
11
-115.9419410474
21
183.7365653960
31
0.0000000000
11
-115.9927477964
21
183.7366498735
31
0.0000000000
11
-116.0649995628
21
183.7422881553
31
0.0000000000
11
-116.0872067349
21
183.7455720190
31
0.0000000000
0
SPLINE
5
39A
100
AcDbEntity
8
0
100
AcDbSpline
62
9
6
CONTINUOUS
70
0
71
3
72
8
73
4
74
2
42
0.0000001000
43
0.0000001000
44
0.0000000001
12
-0.0237336029
22
0.0039893634
32
0.0000000000
13
-0.0234891810
23
0.0051773087
33
0.0000000000
40
0.0000000000
40
0.0000000000
40
0.0000000000
40
0.0000000000
40
1.0000000000
40
1.0000000000
40
1.0000000000
40
1.0000000000
10
-116.0872067349
20
183.7455720190
30
0.0000000000
10
-116.0951179358
20
183.7469018068
30
0.0000000000
10
-116.1029972624
20
183.7484108178
30
0.0000000000
10
-116.1108269894
20
183.7501365873
30
0.0000000000
11
-116.0872067349
21
183.7455720190
31
0.0000000000
11
-116.1108269894
21
183.7501365873
31
0.0000000000
0
SPLINE
5
39B
100
AcDbEntity
8
0
100
AcDbSpline
62
9
6
CONTINUOUS
70
0
71
3
72
8
73
4
74
2
42
0.0000001000
43
0.0000001000
44
0.0000000001
12
-0.0172327122
22
0.0037983049
32
0.0000000000
13
-0.0170515376
23
0.0045427719
33
0.0000000000
40
0.0000000000
40
0.0000000000
40
0.0000000000
40
0.0000000000
40
1.0000000000
40
1.0000000000
40
1.0000000000
40
1.0000000000
10
-116.1108269894
20
183.7501365873
30
0.0000000000
10
-116.1165712267
20
183.7514026889
30
0.0000000000
10
-116.1222887680
20
183.7527854575
30
0.0000000000
10
-116.1279726138
20
183.7542997149
30
0.0000000000
11
-116.1108269894
21
183.7501365873
31
0.0000000000
11
-116.1279726138
21
183.7542997149
31
0.0000000000
0
SPLINE
5
39C
100
AcDbEntity
8
0
100
AcDbSpline
62
9
6
CONTINUOUS
70
0
71
3
72
10
73
6
74
4
42
0.0000001000
43
0.0000001000
44
0.0000000001
12
-0.1168063314
22
0.0311188667
32
0.0000000000
13
0.0000729979
23
0.1208295183
33
0.0000000000
40
0.0000000000
40
0.0000000000
40
0.0000000000
40
0.0000000000
40
0.4363905819
40
0.7617294484
40
1.0000000000
40
1.0000000000
40
1.0000000000
40
1.0000000000
10
-116.1279726138
20
183.7542997149
30
0.0000000000
10
-116.1449636748
20
183.7588263750
30
0.0000000000
10
-116.1740963533
20
183.7687787825
30
0.0000000000
10
-116.2093020257
20
183.7895756056
30
0.0000000000
10
-116.2211057455
20
183.8116822583
30
0.0000000000
10
-116.2210999477
20
183.8212789636
30
0.0000000000
11
-116.1279726138
21
183.7542997149
31
0.0000000000
11
-116.1775836156
21
183.7721625982
31
0.0000000000
11
-116.2096888222
21
183.7948468374
31
0.0000000000
11
-116.2210999477
21
183.8212789636
31
0.0000000000
0
SPLINE
5
39D
100
AcDbEntity
8
0
100
AcDbSpline
62
9
6
CONTINUOUS
70
0
71
3
72
10
73
6
74
4
42
0.0000001000
43
0.0000001000
44
0.0000000001
12
-0.6096363370
22
0.0336737673
32
0.0000000000
13
-0.6096363343
23
-0.0336738160
33
0.0000000000
40
0.0000000000
40
0.0000000000
40
0.0000000000
40
0.0000000000
40
0.3328661760
40
0.6669943864
40
1.0000000000
40
1.0000000000
40
1.0000000000
40
1.0000000000
10
-115.3056645915
20
183.7376364692
30
0.0000000000
10
-115.3733070303
20
183.7413727552
30
0.0000000000
10
-115.5089995779
20
183.7463703435
30
0.0000000000
10
-115.7125630689
20
183.7463719046
30
0.0000000000
10
-115.8482840551
20
183.7413743258
30
0.0000000000
10
-115.9159548290
20
183.7376364692
30
0.0000000000
11
-115.3056645915
21
183.7376364692
31
0.0000000000
11
-115.5087635421
21
183.7451164733
31
0.0000000000
11
-115.7127707427
21
183.7451180421
31
0.0000000000
11
-115.9159548290
21
183.7376364692
31
0.0000000000
0
SPLINE
5
39E
100
AcDbEntity
8
0
100
AcDbSpline
62
9
6
CONTINUOUS
70
0
71
3
72
11
73
7
74
5
42
0.0000001000
43
0.0000001000
44
0.0000000001
12
-0.0000256699
22
-0.1384612527
32
0.0000000000
13
-0.1352723955
23
-0.0298191917
33
0.0000000000
40
0.0000000000
40
0.0000000000
40
0.0000000000
40
0.0000000000
40
0.2091032557
40
0.4931166190
40
0.8736295673
40
1.0000000000
40
1.0000000000
40
1.0000000000
40
1.0000000000
10
-115.0005194728
20
183.8212789636
30
0.0000000000
10
-115.0005212620
20
183.8116280640
30
0.0000000000
10
-115.0124104268
20
183.7894792425
30
0.0000000000
10
-115.0476753355
20
183.7687190548
30
0.0000000000
10
-115.0823432124
20
183.7568914967
30
0.0000000000
10
-115.1050937036
20
183.7513924634
30
0.0000000000
10
-115.1107918473
20
183.7501363754
30
0.0000000000
11
-115.0005194728
21
183.8212789636
31
0.0000000000
11
-115.0120457047
21
183.7947195063
31
0.0000000000
11
-115.0442009577
21
183.7720814128
31
0.0000000000
11
-115.0937829765
21
183.7542637345
31
0.0000000000
11
-115.1107918473
21
183.7501363754
31
0.0000000000
0
SPLINE
5
39F
100
AcDbEntity
8
0
100
AcDbSpline
62
9
6
CONTINUOUS
70
0
71
3
72
8
73
4
74
2
42
0.0000001000
43
0.0000001000
44
0.0000000001
12
-0.0042859530
22
-0.0009447874
32
0.0000000000
13
-0.0042955310
23
-0.0009021475
33
0.0000000000
40
0.0000000000
40
0.0000000000
40
0.0000000000
40
0.0000000000
40
1.0000000000
40
1.0000000000
40
1.0000000000
40
1.0000000000
10
-115.1107918473
20
183.7501363754
30
0.0000000000
10
-115.1122204983
20
183.7498214463
30
0.0000000000
10
-115.1136507993
20
183.7495137380
30
0.0000000000
10
-115.1150826430
20
183.7492130221
30
0.0000000000
11
-115.1107918473
21
183.7501363754
31
0.0000000000
11
-115.1150826430
21
183.7492130221
31
0.0000000000
0
SPLINE
5
3A0
100
AcDbEntity
8
0
100
AcDbSpline
62
9
6
CONTINUOUS
70
0
71
3
72
8
73
4
74
2
42
0.0000001000
43
0.0000001000
44
0.0000000001
12
-0.0193422573
22
-0.0040622611
32
0.0000000000
13
-0.0195005064
23
-0.0032741333
33
0.0000000000
40
0.0000000000
40
0.0000000000
40
0.0000000000
40
0.0000000000
40
1.0000000000
40
1.0000000000
40
1.0000000000
40
1.0000000000
10
-115.1150826430
20
183.7492130221
30
0.0000000000
10
-115.1215300621
20
183.7478589351
30
0.0000000000
10
-115.1280087591
20
183.7466466271
30
0.0000000000
10
-115.1345089279
20
183.7455552493
30
0.0000000000
11
-115.1150826430
21
183.7492130221
31
0.0000000000
11
-115.1345089279
21
183.7455552493
31
0.0000000000
0
SPLINE
5
3A1
100
AcDbEntity
8
0
100
AcDbSpline
62
9
6
CONTINUOUS
70
0
71
3
72
10
73
6
74
4
42
0.0000001000
43
0.0000001000
44
0.0000000001
12
-0.1436554342
22
-0.0241197344
32
0.0000000000
13
-0.1455167566
23
0.0039235326
33
0.0000000000
40
0.0000000000
40
0.0000000000
40
0.0000000000
40
0.0000000000
40
0.1538736103
40
0.6506453984
40
1.0000000000
40
1.0000000000
40
1.0000000000
40
1.0000000000
10
-115.1345089279
20
183.7455552493
30
0.0000000000
10
-115.1418771880
20
183.7443181191
30
0.0000000000
10
-115.1731500987
20
183.7397440339
30
0.0000000000
10
-115.2215802080
20
183.7361495178
30
0.0000000000
10
-115.2626603855
20
183.7361069773
30
0.0000000000
10
-115.2796060350
20
183.7365638787
30
0.0000000000
11
-115.1345089279
21
183.7455552493
31
0.0000000000
11
-115.1566821943
21
183.7422796539
31
0.0000000000
11
-115.2287548614
21
183.7366533413
31
0.0000000000
11
-115.2796060350
21
183.7365638787
31
0.0000000000
0
SPLINE
5
3A2
100
AcDbEntity
8
0
100
AcDbSpline
62
9
6
CONTINUOUS
70
0
71
3
72
8
73
4
74
2
42
0.0000001000
43
0.0000001000
44
0.0000000001
12
-0.0260755307
22
0.0007030681
32
0.0000000000
13
-0.0260370964
23
0.0014371509
33
0.0000000000
40
0.0000000000
40
0.0000000000
40
0.0000000000
40
0.0000000000
40
1.0000000000
40
1.0000000000
40
1.0000000000
40
1.0000000000
10
-115.2796060350
20
183.7365638787
30
0.0000000000
10
-115.2882978786
20
183.7367982348
30
0.0000000000
10
-115.2969855594
20
183.7371574189
30
0.0000000000
10
-115.3056645915
20
183.7376364692
30
0.0000000000
11
-115.2796060350
21
183.7365638787
31
0.0000000000
11
-115.3056645915
21
183.7376364692
31
0.0000000000
0
SPLINE
5
3A3
100
AcDbEntity
8
0
100
AcDbSpline
62
9
6
CONTINUOUS
70
0
71
3
72
12
73
8
74
6
42
0.0000001000
43
0.0000001000
44
0.0000000001
12
0.0000000402
22
-0.2481769191
32
0.0000000000
13
-0.0000000830
23
-0.2481769191
33
0.0000000000
40
0.0000000000
40
0.0000000000
40
0.0000000000
40
0.0000000000
40
0.1005484461
40
0.2392339420
40
0.4272491127
40
0.6764381929
40
1.0000000000
40
1.0000000000
40
1.0000000000
40
1.0000000000
10
-115.0005194728
20
184.0694558827
30
0.0000000000
10
-115.0005194714
20
184.0611379482
30
0.0000000000
10
-115.0005194745
20
184.0413471673
30
0.0000000000
10
-115.0005194697
20
184.0060027112
30
0.0000000000
10
-115.0005194737
20
183.9583618634
30
0.0000000000
10
-115.0005194780
20
183.8954270046
30
0.0000000000
10
-115.0005194638
20
183.8480458211
30
0.0000000000
10
-115.0005194728
20
183.8212789636
30
0.0000000000
11
-115.0005194728
21
184.0694558827
31
0.0000000000
11
-115.0005194730
21
184.0445020792
31
0.0000000000
11
-115.0005194713
21
184.0100835401
31
0.0000000000
11
-115.0005194732
21
183.9634225142
31
0.0000000000
11
-115.0005194743
21
183.9015795360
31
0.0000000000
11
-115.0005194728
21
183.8212789636
31
0.0000000000
0
SPLINE
5
3A4
100
AcDbEntity
8
0
100
AcDbSpline
62
9
6
CONTINUOUS
70
0
71
3
72
14
73
10
74
8
42
0.0000001000
43
0.0000001000
44
0.0000000001
12
-0.1022860762
22
0.0124369244
32
0.0000000000
13
0.0002474778
23
-0.1030391053
33
0.0000000000
40
0.0000000000
40
0.0000000000
40
0.0000000000
40
0.0000000000
40
0.1614060718
40
0.3347621391
40
0.5142394507
40
0.6893348921
40
0.8429827303
40
0.9520038950
40
1.0000000000
40
1.0000000000
40
1.0000000000
40
1.0000000000
10
-114.8988044332
20
184.0694558827
30
0.0000000000
10
-114.9043076311
20
184.0701250144
30
0.0000000000
10
-114.9157382943
20
184.0714010655
30
0.0000000000
10
-114.9333152844
20
184.0729996944
30
0.0000000000
10
-114.9514685830
20
184.0741547834
30
0.0000000000
10
-114.9687218778
20
184.0747703796
30
0.0000000000
10
-114.9843548754
20
184.0742564775
30
0.0000000000
10
-114.9936879192
20
184.0735312282
30
0.0000000000
10
-115.0005234321
20
184.0711043746
30
0.0000000000
10
-115.0005194728
20
184.0694558827
30
0.0000000000
11
-114.8988044332
21
184.0694558827
31
0.0000000000
11
-114.9153329724
21
184.0713007984
31
0.0000000000
11
-114.9331235455
21
184.0729022400
31
0.0000000000
11
-114.9515795166
21
184.0740756411
31
0.0000000000
11
-114.9696143643
21
184.0745739161
31
0.0000000000
11
-114.9854390443
21
184.0740997807
31
0.0000000000
11
-114.9965424884
21
184.0723955199
31
0.0000000000
11
-115.0005194728
21
184.0694558827
31
0.0000000000
0
SPLINE
5
3A5
100
AcDbEntity
8
0
100
AcDbSpline
62
9
6
CONTINUOUS
70
0
71
3
72
10
73
6
74
4
42
0.0000001000
43
0.0000001000
44
0.0000000001
12
-0.0000000011
22
-0.0084211513
32
0.0000000000
13
-0.0000000040
23
-0.0084211513
33
0.0000000000
40
0.0000000000
40
0.0000000000
40
0.0000000000
40
0.0000000000
40
0.1109954972
40
0.4447521893
40
1.0000000000
40
1.0000000000
40
1.0000000000
40
1.0000000000
10
-113.4747938791
20
183.7460576205
30
0.0000000000
10
-113.4747938792
20
183.7457460505
30
0.0000000000
10
-113.4747938794
20
183.7444976087
30
0.0000000000
10
-113.4747938799
20
183.7416905583
30
0.0000000000
10
-113.4747938784
20
183.7391950778
30
0.0000000000
10
-113.4747938791
20
183.7376364692
30
0.0000000000
11
-113.4747938791
21
183.7460576205
31
0.0000000000
11
-113.4747938793
21
183.7451229106
31
0.0000000000
11
-113.4747938795
21
183.7423122950
31
0.0000000000
11
-113.4747938791
21
183.7376364692
31
0.0000000000
0
SPLINE
5
3A6
100
AcDbEntity
8
0
100
AcDbSpline
62
9
6
CONTINUOUS
70
0
71
3
72
12
73
8
74
6
42
0.0000001000
43
0.0000001000
44
0.0000000001
12
-1.0911187217
22
0.3562227291
32
0.0000000000
13
-1.1394049461
23
0.1385318241
33
0.0000000000
40
0.0000000000
40
0.0000000000
40
0.0000000000
40
0.0000000000
40
0.2220767843
40
0.4263822369
40
0.6251590283
40
0.8222368415
40
1.0000000000
40
1.0000000000
40
1.0000000000
40
1.0000000000
10
-113.7799389979
20
183.8212789636
30
0.0000000000
10
-113.8607097102
20
183.8476485630
30
0.0000000000
10
-114.0169035558
20
183.8949335080
30
0.0000000000
10
-114.2485623042
20
183.9546971297
30
0.0000000000
10
-114.4730379754
20
184.0033085906
30
0.0000000000
10
-114.6892122978
20
184.0414744025
30
0.0000000000
10
-114.8312896925
20
184.0612472645
30
0.0000000000
10
-114.8988044332
20
184.0694558827
30
0.0000000000
11
-113.7799389979
21
183.8212789636
31
0.0000000000
11
-114.0239035966
21
183.8951345542
31
0.0000000000
11
-114.2509699864
21
183.9537137720
31
0.0000000000
11
-114.4739564068
21
184.0020026571
31
0.0000000000
11
-114.6967163514
21
184.0413311289
31
0.0000000000
11
-114.8988044332
21
184.0694558827
31
0.0000000000
0
SPLINE
5
3A7
100
AcDbEntity
8
0
100
AcDbSpline
62
9
6
CONTINUOUS
70
0
71
3
72
10
73
6
74
4
42
0.0000001000
43
0.0000001000
44
0.0000000001
12
0.0000305523
22
-0.0705416368
32
0.0000000000
13
-0.0710873922
23
0.0193144344
33
0.0000000000
40
0.0000000000
40
0.0000000000
40
0.0000000000
40
0.0000000000
40
0.1406318942
40
0.5591741542
40
1.0000000000
40
1.0000000000
40
1.0000000000
40
1.0000000000
10
-113.4747938791
20
183.7376364692
30
0.0000000000
10
-113.4747924469
20
183.7343296678
30
0.0000000000
10
-113.4958873418
20
183.7394493009
30
0.0000000000
10
-113.5127617477
20
183.7415612533
30
0.0000000000
10
-113.5325899916
20
183.7466135457
30
0.0000000000
10
-113.5430357115
20
183.7494516463
30
0.0000000000
11
-113.4747938791
21
183.7376364692
31
0.0000000000
11
-113.4846656844
21
183.7366557067
31
0.0000000000
11
-113.5136492862
21
183.7422821000
31
0.0000000000
11
-113.5430357115
21
183.7494516463
31
0.0000000000
0
SPLINE
5
3A8
100
AcDbEntity
8
0
100
AcDbSpline
62
9
6
CONTINUOUS
70
0
71
3
72
11
73
7
74
5
42
0.0000001000
43
0.0000001000
44
0.0000000001
12
-0.2486304027
22
0.0675528451
32
0.0000000000
13
-0.2345404016
23
0.0765660645
33
0.0000000000
40
0.0000000000
40
0.0000000000
40
0.0000000000
40
0.0000000000
40
0.0697732047
40
0.3340318270
40
0.6507837916
40
1.0000000000
40
1.0000000000
40
1.0000000000
40
1.0000000000
10
-113.5430357115
20
183.7494516463
30
0.0000000000
10
-113.5488182915
20
183.7510227725
30
0.0000000000
10
-113.5769045387
20
183.7589059457
30
0.0000000000
10
-113.6268421083
20
183.7730508489
30
0.0000000000
10
-113.7006367427
20
183.7957434647
30
0.0000000000
10
-113.7526372279
20
183.8123662600
30
0.0000000000
10
-113.7799389979
20
183.8212789636
30
0.0000000000
11
-113.5430357115
21
183.7494516463
31
0.0000000000
11
-113.5604446161
21
183.7542888975
31
0.0000000000
11
-113.6231259820
21
183.7722295503
31
0.0000000000
11
-113.6978734678
21
183.7950367243
31
0.0000000000
11
-113.7799389979
21
183.8212789636
31
0.0000000000
0
SPLINE
5
3A9
100
AcDbEntity
8
0
100
AcDbSpline
62
9
6
CONTINUOUS
70
0
71
3
72
9
73
5
74
3
42
0.0000001000
43
0.0000001000
44
0.0000000001
12
-0.0385583277
22
0.0148674323
32
0.0000000000
13
-0.0415816152
23
-0.0019562143
33
0.0000000000
40
0.0000000000
40
0.0000000000
40
0.0000000000
40
0.0000000000
40
0.9326375344
40
1.0000000000
40
1.0000000000
40
1.0000000000
40
1.0000000000
10
-113.4747969502
20
183.7376285285
30
0.0000000000
10
-113.4867839315
20
183.7422505037
30
0.0000000000
10
-113.5007515815
20
183.7447217187
30
0.0000000000
10
-113.5146236512
20
183.7442656215
30
0.0000000000
10
-113.5155573313
20
183.7442216964
30
0.0000000000
11
-113.4747969502
21
183.7376285285
31
0.0000000000
11
-113.5127543039
21
183.7443137859
31
0.0000000000
11
-113.5155573313
21
183.7442216964
31
0.0000000000
0
SPLINE
5
3AA
100
AcDbEntity
8
0
100
AcDbSpline
62
9
6
CONTINUOUS
70
0
71
3
72
11
73
7
74
5
42
0.0000001000
43
0.0000001000
44
0.0000000001
12
-0.1364282044
22
0.0140105337
32
0.0000000000
13
-0.0395342535
23
-0.1327328489
33
0.0000000000
40
0.0000000000
40
0.0000000000
40
0.0000000000
40
0.0000000000
40
0.3028818956
40
0.6052345461
40
0.9066924769
40
1.0000000000
40
1.0000000000
40
1.0000000000
40
1.0000000000
10
-115.0005194742
20
184.0694558690
30
0.0000000000
10
-115.0142933519
20
184.0708703813
30
0.0000000000
10
-115.0427532715
20
184.0678977821
30
0.0000000000
10
-115.0797049148
20
184.0466439249
30
0.0000000000
10
-115.0991004698
20
184.0202088945
30
0.0000000000
10
-115.1054351163
20
184.0030740393
30
0.0000000000
10
-115.1066647307
20
183.9989457148
30
0.0000000000
11
-115.0005194742
21
184.0694558690
31
0.0000000000
11
-115.0418280007
21
184.0650865881
31
0.0000000000
11
-115.0777834924
21
184.0444307716
31
0.0000000000
11
-115.1021808687
21
184.0110531324
31
0.0000000000
11
-115.1066647307
21
183.9989457148
31
0.0000000000
0
SPLINE
5
3AB
100
AcDbEntity
8
0
100
AcDbSpline
62
9
6
CONTINUOUS
70
0
71
3
72
8
73
4
74
2
42
0.0000001000
43
0.0000001000
44
0.0000000001
12
-0.0033860998
22
-0.0113685382
32
0.0000000000
13
-0.0020145149
23
-0.0116653788
33
0.0000000000
40
0.0000000000
40
0.0000000000
40
0.0000000000
40
0.0000000000
40
1.0000000000
40
1.0000000000
40
1.0000000000
40
1.0000000000
10
-115.1066647307
20
183.9989457148
30
0.0000000000
10
-115.1077934307
20
183.9951562021
30
0.0000000000
10
-115.1086966059
20
183.9913007166
30
0.0000000000
10
-115.1093681108
20
183.9874122570
30
0.0000000000
11
-115.1066647307
21
183.9989457148
31
0.0000000000
11
-115.1093681108
21
183.9874122570
31
0.0000000000
0
SPLINE
5
3AC
100
AcDbEntity
8
0
100
AcDbSpline
62
9
6
CONTINUOUS
70
0
71
3
72
8
73
4
74
2
42
0.0000001000
43
0.0000001000
44
0.0000000001
12
-0.0006855855
22
-0.0039699952
32
0.0000000000
13
-0.0005238670
23
-0.0039890075
33
0.0000000000
40
0.0000000000
40
0.0000000000
40
0.0000000000
40
0.0000000000
40
1.0000000000
40
1.0000000000
40
1.0000000000
40
1.0000000000
10
-115.1093681108
20
183.9874122570
30
0.0000000000
10
-115.1095966393
20
183.9860889253
30
0.0000000000
10
-115.1097983359
20
183.9847617745
30
0.0000000000
10
-115.1099729582
20
183.9834321054
30
0.0000000000
11
-115.1093681108
21
183.9874122570
31
0.0000000000
11
-115.1099729582
21
183.9834321054
31
0.0000000000
0
SPLINE
5
3AD
100
AcDbEntity
8
0
100
AcDbSpline
62
9
6
CONTINUOUS
70
0
71
3
72
8
73
4
74
2
42
0.0000001000
43
0.0000001000
44
0.0000000001
12
-0.0016657154
22
-0.0126836605
32
0.0000000000
13
-0.0000000018
23
-0.0127109900
33
0.0000000000
40
0.0000000000
40
0.0000000000
40
0.0000000000
40
0.0000000000
40
1.0000000000
40
1.0000000000
40
1.0000000000
40
1.0000000000
10
-115.1099729582
20
183.9834321054
30
0.0000000000
10
-115.1105281966
20
183.9792042185
30
0.0000000000
10
-115.1108097097
20
183.9749508704
30
0.0000000000
10
-115.1108097103
20
183.9707138738
30
0.0000000000
11
-115.1099729582
21
183.9834321054
31
0.0000000000
11
-115.1108097103
21
183.9707138738
31
0.0000000000
0
SPLINE
5
3AE
100
AcDbEntity
8
0
100
AcDbSpline
62
9
6
CONTINUOUS
70
0
71
3
72
10
73
6
74
4
42
0.0000001000
43
0.0000001000
44
0.0000000001
12
-0.1210365973
22
0.0119148569
32
0.0000000000
13
-0.0533106822
23
-0.1105467502
33
0.0000000000
40
0.0000000000
40
0.0000000000
40
0.0000000000
40
0.0000000000
40
0.3413955304
40
0.6788235121
40
1.0000000000
40
1.0000000000
40
1.0000000000
40
1.0000000000
10
-115.0005199514
20
183.8212745702
30
0.0000000000
10
-115.0142937358
20
183.8226304632
30
0.0000000000
10
-115.0425348604
20
183.8198292112
30
0.0000000000
10
-115.0790713527
20
183.7998663460
30
0.0000000000
10
-115.0959824718
20
183.7782351118
30
0.0000000000
10
-115.1016898510
20
183.7664001062
30
0.0000000000
11
-115.0005199514
21
183.8212745702
31
0.0000000000
11
-115.0418300186
21
183.8170938287
31
0.0000000000
11
-115.0777878022
21
183.7973150586
31
0.0000000000
11
-115.1016898510
21
183.7664001062
31
0.0000000000
0
SPLINE
5
3AF
100
AcDbEntity
8
0
100
AcDbSpline
62
9
6
CONTINUOUS
70
0
71
3
72
10
73
6
74
4
42
0.0000001000
43
0.0000001000
44
0.0000000001
12
0.1210105791
22
0.0119005592
32
0.0000000000
13
0.0533247757
23
-0.1105085263
33
0.0000000000
40
0.0000000000
40
0.0000000000
40
0.0000000000
40
0.0000000000
40
0.3414622253
40
0.6789559621
40
1.0000000000
40
1.0000000000
40
1.0000000000
40
1.0000000000
10
-116.2210999405
20
183.8212788971
30
0.0000000000
10
-116.2073264266
20
183.8226334276
30
0.0000000000
10
-116.1790864626
20
183.8198298873
30
0.0000000000
10
-116.1425595306
20
183.7998692573
30
0.0000000000
10
-116.1256527199
20
183.7782469853
30
0.0000000000
10
-116.1199461861
20
183.7664209508
30
0.0000000000
11
-116.2210999405
21
183.8212788971
31
0.0000000000
11
-116.1797914289
21
183.8170947833
31
0.0000000000
11
-116.1438359468
21
183.7973143482
31
0.0000000000
11
-116.1199461861
21
183.7664209508
31
0.0000000000
0
SPLINE
5
3B0
100
AcDbEntity
8
0
100
AcDbSpline
62
9
6
CONTINUOUS
70
0
71
3
72
11
73
7
74
5
42
0.0000001000
43
0.0000001000
44
0.0000000001
12
0.1647257712
22
0.0169074676
32
0.0000000000
13
0.0000024998
23
-0.1655911898
33
0.0000000000
40
0.0000000000
40
0.0000000000
40
0.0000000000
40
0.0000000000
40
0.2508328946
40
0.5012304873
40
0.7508912799
40
1.0000000000
40
1.0000000000
40
1.0000000000
40
1.0000000000
10
-116.2210999376
20
184.0694557853
30
0.0000000000
10
-116.2073270569
20
184.0708694349
30
0.0000000000
10
-116.1788693527
20
184.0678954516
30
0.0000000000
10
-116.1419212739
20
184.0466410248
30
0.0000000000
10
-116.1167556962
20
184.0123392233
30
0.0000000000
10
-116.1108194577
20
183.9844639432
30
0.0000000000
10
-116.1108192501
20
183.9707138734
30
0.0000000000
11
-116.2210999376
21
184.0694557853
31
0.0000000000
11
-116.1797948720
21
184.0650845860
31
0.0000000000
11
-116.1438427815
21
184.0444283463
31
0.0000000000
11
-116.1194476747
21
184.0110515737
31
0.0000000000
11
-116.1108192501
21
183.9707138734
31
0.0000000000
0
SPLINE
5
3B1
100
AcDbEntity
8
0
100
AcDbSpline
62
9
6
CONTINUOUS
70
0
71
3
72
9
73
5
74
3
42
0.0000001000
43
0.0000001000
44
0.0000000001
12
0.0385822683
22
0.0148726601
32
0.0000000000
13
0.0416051680
23
-0.0019714101
33
0.0000000000
40
0.0000000000
40
0.0000000000
40
0.0000000000
40
0.0000000000
40
0.9320597385
40
1.0000000000
40
1.0000000000
40
1.0000000000
40
1.0000000000
10
-117.7468255395
20
183.7376364642
30
0.0000000000
10
-117.7348385465
20
183.7422572001
30
0.0000000000
10
-117.7208625303
20
183.7447287063
30
0.0000000000
10
-117.7069824345
20
183.7442694461
30
0.0000000000
10
-117.7060402125
20
183.7442248001
30
0.0000000000
11
-117.7468255395
21
183.7376364642
31
0.0000000000
11
-117.7088689120
21
183.7443183226
31
0.0000000000
11
-117.7060402125
21
183.7442248001
31
0.0000000000
0
SPLINE
5
3B2
100
AcDbEntity
8
0
100
AcDbSpline
62
7
6
CONTINUOUS
70
0
71
3
72
16
73
12
74
10
42
0.0000001000
43
0.0000001000
44
0.0000000001
12
0.0289744044
22
-0.2588793067
32
0.0000000000
13
0.2571086795
23
0.0312684163
33
0.0000000000
40
0.0000000000
40
0.0000000000
40
0.0000000000
40
0.0000000000
40
0.0950980898
40
0.2223386279
40
0.3380988178
40
0.4476222810
40
0.5468622451
40
0.6466093114
40
0.7654231273
40
0.9093720201
40
1.0000000000
40
1.0000000000
40
1.0000000000
40
1.0000000000
10
99.8898288586
20
-188.6937921118
30
0.0000000000
10
99.8907473288
20
-188.7019984210
30
0.0000000000
10
99.8952250925
20
-188.7209953576
30
0.0000000000
10
99.9099449003
20
-188.7467597291
30
0.0000000000
10
99.9326668066
20
-188.7676593725
30
0.0000000000
10
99.9580355574
20
-188.7803208623
30
0.0000000000
10
99.9841804808
20
-188.7862429947
30
0.0000000000
10
100.0116190154
20
-188.7879519843
30
0.0000000000
10
100.0429246460
20
-188.7872755431
30
0.0000000000
10
100.0733570534
20
-188.7849903859
30
0.0000000000
10
100.0934927517
20
-188.7828002027
30
0.0000000000
10
100.1012598318
20
-188.7818556049
30
0.0000000000
11
99.8898288586
21
-188.6937921118
31
0.0000000000
11
99.8955294635
21
-188.7178733120
31
0.0000000000
11
99.9118383943
21
-188.7465073978
31
0.0000000000
11
99.9338847381
21
-188.7668234073
31
0.0000000000
11
99.9592171431
21
-188.7795832525
31
0.0000000000
11
99.9842163551
21
-188.7855493421
31
0.0000000000
11
100.0099736924
21
-188.7875197064
31
0.0000000000
11
100.0407409991
21
-188.7870752930
31
0.0000000000
11
100.0779243319
21
-188.7843920400
31
0.0000000000
11
100.1012598318
21
-188.7818556049
31
0.0000000000
0
SPLINE
5
3B3
100
AcDbEntity
8
0
100
AcDbSpline
62
7
6
CONTINUOUS
70
0
71
3
72
17
73
13
74
11
42
0.0000001000
43
0.0000001000
44
0.0000000001
12
0.2409615793
22
0.0786737289
32
0.0000000000
13
0.2508541122
23
0.0616341786
33
0.0000000000
40
0.0000000000
40
0.0000000000
40
0.0000000000
40
0.0000000000
40
0.1257174119
40
0.2559316030
40
0.3801033766
40
0.4973284206
40
0.6067933816
40
0.7076507114
40
0.7992778858
40
0.8810031933
40
0.9522887015
40
1.0000000000
40
1.0000000000
40
1.0000000000
40
1.0000000000
10
101.2202247326
20
-188.5336516223
30
0.0000000000
10
101.2303224213
20
-188.5303547364
30
0.0000000000
10
101.2508947078
20
-188.5236912134
30
0.0000000000
10
101.2814945114
20
-188.5139391036
30
0.0000000000
10
101.3114571527
20
-188.5045513373
30
0.0000000000
10
101.3397918734
20
-188.4958352341
30
0.0000000000
10
101.3662908965
20
-188.4878447849
30
0.0000000000
10
101.3907588856
20
-188.4806397246
30
0.0000000000
10
101.4130510081
20
-188.4742537071
30
0.0000000000
10
101.4329037719
20
-188.4687240814
30
0.0000000000
10
101.4494690884
20
-188.4643319172
30
0.0000000000
10
101.4588940904
20
-188.4618847325
30
0.0000000000
10
101.4628836155
20
-188.4609045169
30
0.0000000000
11
101.2202247326
21
-188.5336516223
31
0.0000000000
11
101.2505407774
21
-188.5238317521
31
0.0000000000
11
101.2819892911
21
-188.5138103460
31
0.0000000000
11
101.3120254657
21
-188.5044026962
31
0.0000000000
11
101.3404272786
21
-188.4956695666
31
0.0000000000
11
101.3669947879
21
-188.4876651689
31
0.0000000000
11
101.3915207070
21
-188.4804497581
31
0.0000000000
11
101.4138490022
21
-188.4740563036
31
0.0000000000
11
101.4338110857
21
-188.4685196008
31
0.0000000000
11
101.4512726540
21
-188.4638722983
31
0.0000000000
11
101.4628836155
21
-188.4609045169
31
0.0000000000
0
SPLINE
5
3B4
100
AcDbEntity
8
0
100
AcDbSpline
62
7
6
CONTINUOUS
70
0
71
3
72
11
73
7
74
5
42
0.0000001000
43
0.0000001000
44
0.0000000001
12
0.0254898087
22
0.0062627772
32
0.0000000000
13
0.0387715112
23
0.0062176843
33
0.0000000000
40
0.0000000000
40
0.0000000000
40
0.0000000000
40
0.0000000000
40
0.1248469644
40
0.5993276583
40
0.9394943737
40
1.0000000000
40
1.0000000000
40
1.0000000000
40
1.0000000000
10
101.4628836155
20
-188.4609045169
30
0.0000000000
10
101.4639443906
20
-188.4606438873
30
0.0000000000
10
101.4691081166
20
-188.4593930658
30
0.0000000000
10
101.4779267532
20
-188.4574183456
30
0.0000000000
10
101.4824198913
20
-188.4561774891
30
0.0000000000
10
101.4882654864
20
-188.4552506463
30
0.0000000000
10
101.4890474513
20
-188.4551252447
30
0.0000000000
11
101.4628836155
21
-188.4609045169
31
0.0000000000
11
101.4661157637
21
-188.4601223795
31
0.0000000000
11
101.4780123128
21
-188.4573250647
31
0.0000000000
11
101.4865863902
21
-188.4555223910
31
0.0000000000
11
101.4890474513
21
-188.4551252447
31
0.0000000000
0
SPLINE
5
3B5
100
AcDbEntity
8
0
100
AcDbSpline
62
7
6
CONTINUOUS
70
0
71
3
72
10
73
6
74
4
42
0.0000001000
43
0.0000001000
44
0.0000000001
12
1.1394054503
22
0.1385357645
32
0.0000000000
13
1.0911165306
23
0.3562186596
33
0.0000000000
40
0.0000000000
40
0.0000000000
40
0.0000000000
40
0.0000000000
40
0.3242326341
40
0.6737101514
40
1.0000000000
40
1.0000000000
40
1.0000000000
40
1.0000000000
10
100.1012596294
20
-188.7818539351
30
0.0000000000
10
100.2244037729
20
-188.7668813299
30
0.0000000000
10
100.4793727387
20
-188.7276869469
30
0.0000000000
10
100.8531513908
20
-188.6448571800
30
0.0000000000
10
101.1015523183
20
-188.5723982015
30
0.0000000000
10
101.2202257342
20
-188.5336546907
30
0.0000000000
11
100.1012596294
21
-188.7818539351
31
0.0000000000
11
100.4690889843
21
-188.7253087474
31
0.0000000000
11
100.8606987665
21
-188.6385275359
31
0.0000000000
11
101.2202257342
21
-188.5336546907
31
0.0000000000
0
SPLINE
5
3B6
100
AcDbEntity
8
0
100
AcDbSpline
62
7
6
CONTINUOUS
70
0
71
3
72
8
73
4
74
2
42
0.0000001000
43
0.0000001000
44
0.0000000001
12
0.0000045224
22
-0.0112105483
32
0.0000000000
13
0.0012537431
23
-0.0111931650
33
0.0000000000
40
0.0000000000
40
0.0000000000
40
0.0000000000
40
0.0000000000
40
1.0000000000
40
1.0000000000
40
1.0000000000
40
1.0000000000
10
99.8892002799
20
-188.6825761042
30
0.0000000000
10
99.8892017874
20
-188.6863129536
30
0.0000000000
10
99.8894136307
20
-188.6900607553
30
0.0000000000
10
99.8898315451
20
-188.6937918103
30
0.0000000000
11
99.8892002799
21
-188.6825761042
31
0.0000000000
11
99.8898315451
21
-188.6937918103
31
0.0000000000
0
SPLINE
5
3B7
100
AcDbEntity
8
0
100
AcDbSpline
62
7
6
CONTINUOUS
70
0
71
3
72
13
73
9
74
7
42
0.0000001000
43
0.0000001000
44
0.0000000001
12
0.0186732971
22
-0.1667114088
32
0.0000000000
13
0.1668252168
23
-0.0043654261
33
0.0000000000
40
0.0000000000
40
0.0000000000
40
0.0000000000
40
0.0000000000
40
0.1475633507
40
0.3441968187
40
0.5230475999
40
0.6926499719
40
0.8460445029
40
1.0000000000
40
1.0000000000
40
1.0000000000
40
1.0000000000
10
99.8898315452
20
-188.6937918109
30
0.0000000000
10
99.8907500433
20
-188.7019919756
30
0.0000000000
10
99.8952142856
20
-188.7209304684
30
0.0000000000
10
99.9098536978
20
-188.7466096895
30
0.0000000000
10
99.9324235750
20
-188.7674776707
30
0.0000000000
10
99.9576449158
20
-188.7801748717
30
0.0000000000
10
99.9836550441
20
-188.7861682566
30
0.0000000000
10
100.0007432817
20
-188.7872784352
30
0.0000000000
10
100.0093045015
20
-188.7875024623
30
0.0000000000
11
99.8898315452
21
-188.6937918109
31
0.0000000000
11
99.8955279707
21
-188.7178555652
31
0.0000000000
11
99.9117330366
21
-188.7463694358
31
0.0000000000
11
99.9336190199
21
-188.7666399210
31
0.0000000000
11
99.9588403716
21
-188.7794508192
31
0.0000000000
11
99.9837059558
21
-188.7854757210
31
0.0000000000
11
100.0093045015
21
-188.7875024623
31
0.0000000000
0
SPLINE
5
3B8
100
AcDbEntity
8
0
100
AcDbSpline
62
7
6
CONTINUOUS
70
0
71
3
72
8
73
4
74
2
42
0.0000001000
43
0.0000001000
44
0.0000000001
12
0.0304850193
22
-0.0007977217
32
0.0000000000
13
0.0304535634
23
0.0013443544
33
0.0000000000
40
0.0000000000
40
0.0000000000
40
0.0000000000
40
0.0000000000
40
1.0000000000
40
1.0000000000
40
1.0000000000
40
1.0000000000
10
100.0093045015
20
-188.7875024623
30
0.0000000000
10
100.0194661745
20
-188.7877683696
30
0.0000000000
10
100.0296299700
20
-188.7875664385
30
0.0000000000
10
100.0397811578
20
-188.7871183203
30
0.0000000000
11
100.0093045015
21
-188.7875024623
31
0.0000000000
11
100.0397811578
21
-188.7871183203
31
0.0000000000
0
SPLINE
5
3B9
100
AcDbEntity
8
0
100
AcDbSpline
62
7
6
CONTINUOUS
70
0
71
3
72
9
73
5
74
3
42
0.0000001000
43
0.0000001000
44
0.0000000001
12
0.0616600254
22
0.0027219451
32
0.0000000000
13
0.0612650701
23
0.0074519145
33
0.0000000000
40
0.0000000000
40
0.0000000000
40
0.0000000000
40
0.0000000000
40
0.5991729697
40
1.0000000000
40
1.0000000000
40
1.0000000000
40
1.0000000000
10
100.0397811578
20
-188.7871183203
30
0.0000000000
10
100.0520961646
20
-188.7865746817
30
0.0000000000
10
100.0726185382
20
-188.7850626546
30
0.0000000000
10
100.0930742359
20
-188.7828509941
30
0.0000000000
10
100.1012598013
20
-188.7818553512
30
0.0000000000
11
100.0397811578
21
-188.7871183203
31
0.0000000000
11
100.0766651305
21
-188.7845115760
31
0.0000000000
11
100.1012598013
21
-188.7818553512
31
0.0000000000
0
SPLINE
5
3BA
100
AcDbEntity
8
0
100
AcDbSpline
62
7
6
CONTINUOUS
70
0
71
3
72
8
73
4
74
2
42
0.0000001000
43
0.0000001000
44
0.0000000001
12
0.0121258853
22
0.0006742997
32
0.0000000000
13
0.0121403917
23
0.0004857074
33
0.0000000000
40
0.0000000000
40
0.0000000000
40
0.0000000000
40
0.0000000000
40
1.0000000000
40
1.0000000000
40
1.0000000000
40
1.0000000000
10
99.6947046004
20
-188.4561915476
30
0.0000000000
10
99.6987465621
20
-188.4559667810
30
0.0000000000
10
99.7027909086
20
-188.4557731081
30
0.0000000000
10
99.7068377059
20
-188.4556112056
30
0.0000000000
11
99.6947046004
21
-188.4561915476
31
0.0000000000
11
99.7068377059
21
-188.4556112056
31
0.0000000000
0
SPLINE
5
3BB
100
AcDbEntity
8
0
100
AcDbSpline
62
7
6
CONTINUOUS
70
0
71
3
72
8
73
4
74
2
42
0.0000001000
43
0.0000001000
44
0.0000000001
12
0.0226721203
22
0.0009070561
32
0.0000000000
13
0.0227246917
23
0.0002290275
33
0.0000000000
40
0.0000000000
40
0.0000000000
40
0.0000000000
40
0.0000000000
40
1.0000000000
40
1.0000000000
40
1.0000000000
40
1.0000000000
10
99.7068377059
20
-188.4556112056
30
0.0000000000
10
99.7143950793
20
-188.4553088536
30
0.0000000000
10
99.7219609997
20
-188.4551173023
30
0.0000000000
10
99.7295358970
20
-188.4550409598
30
0.0000000000
11
99.7068377059
21
-188.4556112056
31
0.0000000000
11
99.7295358970
21
-188.4550409598
31
0.0000000000
0
SPLINE
5
3BC
100
AcDbEntity
8
0
100
AcDbSpline
62
7
6
CONTINUOUS
70
0
71
3
72
11
73
7
74
5
42
0.0000001000
43
0.0000001000
44
0.0000000001
12
0.1625355335
22
0.0016380908
32
0.0000000000
13
0.1430045884
23
-0.0452983136
33
0.0000000000
40
0.0000000000
40
0.0000000000
40
0.0000000000
40
0.0000000000
40
0.3921400466
40
0.7167710143
40
0.9507098624
40
1.0000000000
40
1.0000000000
40
1.0000000000
40
1.0000000000
10
99.7295358970
20
-188.4550409598
30
0.0000000000
10
99.7507814608
20
-188.4548268394
30
0.0000000000
10
99.7897441233
20
-188.4560920240
30
0.0000000000
10
99.8401113451
20
-188.4614284289
30
0.0000000000
10
99.8737849214
20
-188.4701094537
30
0.0000000000
10
99.8869535802
20
-188.4735691782
30
0.0000000000
10
99.8893031521
20
-188.4743134316
30
0.0000000000
11
99.7295358970
21
-188.4550409598
31
0.0000000000
11
99.7931177502
21
-188.4570367141
31
0.0000000000
11
99.8453723586
21
-188.4635729214
31
0.0000000000
11
99.8822937533
21
-188.4723472694
31
0.0000000000
11
99.8893031521
21
-188.4743134316
31
0.0000000000
0
SPLINE
5
3BD
100
AcDbEntity
8
0
100
AcDbSpline
62
7
6
CONTINUOUS
70
0
71
3
72
9
73
5
74
3
42
0.0000001000
43
0.0000001000
44
0.0000000001
12
0.0148819146
22
-0.0047140140
32
0.0000000000
13
0.0133048910
23
-0.0072041476
33
0.0000000000
40
0.0000000000
40
0.0000000000
40
0.0000000000
40
0.0000000000
40
0.8019985287
40
1.0000000000
40
1.0000000000
40
1.0000000000
40
1.0000000000
10
99.8893031521
20
-188.4743134316
30
0.0000000000
10
99.8932815767
20
-188.4755736424
30
0.0000000000
10
99.8984489894
20
-188.4776531966
30
0.0000000000
10
99.9048871553
20
-188.4815731941
30
0.0000000000
10
99.9057652847
20
-188.4820486714
30
0.0000000000
11
99.8893031521
21
-188.4743134316
31
0.0000000000
11
99.9023874420
21
-188.4800930174
31
0.0000000000
11
99.9057652847
21
-188.4820486714
31
0.0000000000
0
SPLINE
5
3BE
100
AcDbEntity
8
0
100
AcDbSpline
62
7
6
CONTINUOUS
70
0
71
3
72
10
73
6
74
4
42
0.0000001000
43
0.0000001000
44
0.0000000001
12
0.6103837428
22
-0.0337146206
32
0.0000000000
13
0.6103824095
23
0.0337146639
33
0.0000000000
40
0.0000000000
40
0.0000000000
40
0.0000000000
40
0.0000000000
40
0.3162379388
40
0.6798529955
40
1.0000000000
40
1.0000000000
40
1.0000000000
40
1.0000000000
10
99.0836750515
20
-188.4562082461
30
0.0000000000
10
99.1480172171
20
-188.4597621934
30
0.0000000000
10
99.2864862881
20
-188.4649893648
30
0.0000000000
10
99.4903010487
20
-188.4650332944
30
0.0000000000
10
99.6295680189
20
-188.4598061510
30
0.0000000000
10
99.6947053856
20
-188.4562082681
30
0.0000000000
11
99.0836750515
21
-188.4562082461
31
0.0000000000
11
99.2768573090
21
-188.4635005541
31
0.0000000000
11
99.4991339444
21
-188.4635484927
31
0.0000000000
11
99.6947053856
21
-188.4562082681
31
0.0000000000
0
SPLINE
5
3BF
100
AcDbEntity
8
0
100
AcDbSpline
62
7
6
CONTINUOUS
70
0
71
3
72
9
73
5
74
3
42
0.0000001000
43
0.0000001000
44
0.0000000001
12
0.0152042181
22
0.0087117897
32
0.0000000000
13
0.0143642103
23
0.0045149261
33
0.0000000000
40
0.0000000000
40
0.0000000000
40
0.0000000000
40
0.0000000000
40
0.1424866664
40
1.0000000000
40
1.0000000000
40
1.0000000000
40
1.0000000000
10
98.8732621193
20
-188.4816603707
30
0.0000000000
10
98.8739842520
20
-188.4812465994
30
0.0000000000
10
98.8800523004
20
-188.4776099734
30
0.0000000000
10
98.8849865506
20
-188.4756582231
30
0.0000000000
10
98.8890923846
20
-188.4743676867
30
0.0000000000
11
98.8732621193
21
-188.4816603707
31
0.0000000000
11
98.8756904651
21
-188.4802444651
31
0.0000000000
11
98.8890923846
21
-188.4743676867
31
0.0000000000
0
SPLINE
5
3C0
100
AcDbEntity
8
0
100
AcDbSpline
62
7
6
CONTINUOUS
70
0
71
3
72
11
73
7
74
5
42
0.0000001000
43
0.0000001000
44
0.0000000001
12
0.1401325979
22
0.0440425303
32
0.0000000000
13
0.1595286702
23
-0.0010276725
33
0.0000000000
40
0.0000000000
40
0.0000000000
40
0.0000000000
40
0.0000000000
40
0.0438216188
40
0.2774879323
40
0.6034667719
40
1.0000000000
40
1.0000000000
40
1.0000000000
40
1.0000000000
10
98.8890942910
20
-188.4743670875
30
0.0000000000
10
98.8911412367
20
-188.4737237491
30
0.0000000000
10
98.9039058219
20
-188.4702527646
30
0.0000000000
10
98.9366053834
20
-188.4617573579
30
0.0000000000
10
98.9863455123
20
-188.4562536965
30
0.0000000000
10
99.0248818775
20
-188.4548751011
30
0.0000000000
10
99.0459680170
20
-188.4550109365
30
0.0000000000
11
98.8890942910
21
-188.4743670875
31
0.0000000000
11
98.8952295183
21
-188.4726165966
31
0.0000000000
11
98.9313919556
21
-188.4638687902
31
0.0000000000
11
98.9828689770
21
-188.4572257138
31
0.0000000000
11
99.0459680170
21
-188.4550109365
31
0.0000000000
0
SPLINE
5
3C1
100
AcDbEntity
8
0
100
AcDbSpline
62
7
6
CONTINUOUS
70
0
71
3
72
8
73
4
74
2
42
0.0000001000
43
0.0000001000
44
0.0000000001
12
0.0377751027
22
-0.0002433446
32
0.0000000000
13
0.0376420626
23
-0.0020944388
33
0.0000000000
40
0.0000000000
40
0.0000000000
40
0.0000000000
40
0.0000000000
40
1.0000000000
40
1.0000000000
40
1.0000000000
40
1.0000000000
10
99.0459680170
20
-188.4550109365
30
0.0000000000
10
99.0585597179
20
-188.4550920514
30
0.0000000000
10
99.0711287359
20
-188.4554914069
30
0.0000000000
10
99.0836760900
20
-188.4561895531
30
0.0000000000
11
99.0459680170
21
-188.4550109365
31
0.0000000000
11
99.0836760900
21
-188.4561895531
31
0.0000000000
0
SPLINE
5
3C2
100
AcDbEntity
8
0
100
AcDbSpline
62
7
6
CONTINUOUS
70
0
71
3
72
9
73
5
74
3
42
0.0000001000
43
0.0000001000
44
0.0000000001
12
0.0603938318
22
-0.0073448720
32
0.0000000000
13
0.0607785955
23
-0.0027725077
33
0.0000000000
40
0.0000000000
40
0.0000000000
40
0.0000000000
40
0.0000000000
40
0.3869911088
40
1.0000000000
40
1.0000000000
40
1.0000000000
40
1.0000000000
10
98.6771207464
20
-188.7818556153
30
0.0000000000
10
98.6849113717
20
-188.7828030820
30
0.0000000000
10
98.7050745735
20
-188.7849954776
30
0.0000000000
10
98.7253029190
20
-188.7865125280
30
0.0000000000
10
98.7377221922
20
-188.7870790519
30
0.0000000000
11
98.6771207464
21
-188.7818556153
31
0.0000000000
11
98.7005270874
21
-188.7843988161
31
0.0000000000
11
98.7377221922
21
-188.7870790519
31
0.0000000000
0
SPLINE
5
3C3
100
AcDbEntity
8
0
100
AcDbSpline
62
7
6
CONTINUOUS
70
0
71
3
72
9
73
5
74
3
42
0.0000001000
43
0.0000001000
44
0.0000000001
12
0.0564442669
22
-0.0025747907
32
0.0000000000
13
0.0559810452
23
0.0080425123
33
0.0000000000
40
0.0000000000
40
0.0000000000
40
0.0000000000
40
0.0000000000
40
0.5438656546
40
1.0000000000
40
1.0000000000
40
1.0000000000
40
1.0000000000
10
98.7377221922
20
-188.7870790519
30
0.0000000000
10
98.7479548916
20
-188.7875458320
30
0.0000000000
10
98.7667935104
20
-188.7879504352
30
0.0000000000
10
98.7856276867
20
-188.7867757145
30
0.0000000000
10
98.7941393125
20
-188.7855528925
30
0.0000000000
11
98.7377221922
21
-188.7870790519
31
0.0000000000
11
98.7684449330
21
-188.7875187836
31
0.0000000000
11
98.7941393125
21
-188.7855528925
31
0.0000000000
0
SPLINE
5
3C4
100
AcDbEntity
8
0
100
AcDbSpline
62
7
6
CONTINUOUS
70
0
71
3
72
8
73
4
74
2
42
0.0000001000
43
0.0000001000
44
0.0000000001
12
0.0253563285
22
0.0036428149
32
0.0000000000
13
0.0242042291
23
0.0084543714
33
0.0000000000
40
0.0000000000
40
0.0000000000
40
0.0000000000
40
0.0000000000
40
1.0000000000
40
1.0000000000
40
1.0000000000
40
1.0000000000
10
98.7941393125
20
-188.7855528925
30
0.0000000000
10
98.8025914220
20
-188.7843386208
30
0.0000000000
10
98.8109653475
20
-188.7824469314
30
0.0000000000
10
98.8190334239
20
-188.7796288076
30
0.0000000000
11
98.7941393125
21
-188.7855528925
31
0.0000000000
11
98.8190334239
21
-188.7796288076
31
0.0000000000
0
SPLINE
5
3C5
100
AcDbEntity
8
0
100
AcDbSpline
62
7
6
CONTINUOUS
70
0
71
3
72
11
73
7
74
5
42
0.0000001000
43
0.0000001000
44
0.0000000001
12
0.1097795045
22
0.0383452287
32
0.0000000000
13
0.0129853403
23
0.1160160106
33
0.0000000000
40
0.0000000000
40
0.0000000000
40
0.0000000000
40
0.0000000000
40
0.2448027718
40
0.5034455926
40
0.7877064745
40
1.0000000000
40
1.0000000000
40
1.0000000000
40
1.0000000000
10
98.8190334239
20
-188.7796288076
30
0.0000000000
10
98.8279915329
20
-188.7764998016
30
0.0000000000
10
98.8456387835
20
-188.7677161028
30
0.0000000000
10
98.8684069326
20
-188.7468024874
30
0.0000000000
10
98.8831500626
20
-188.7210155552
30
0.0000000000
10
98.8876327690
20
-188.7020023703
30
0.0000000000
10
98.8885516702
20
-188.6937925543
30
0.0000000000
11
98.8190334239
21
-188.7796288076
31
0.0000000000
11
98.8444217427
21
-188.7668740017
31
0.0000000000
11
98.8665104011
21
-188.7465466815
31
0.0000000000
11
98.8828472402
21
-188.7178837630
31
0.0000000000
11
98.8885516702
21
-188.6937925543
31
0.0000000000
0
SPLINE
5
3C6
100
AcDbEntity
8
0
100
AcDbSpline
62
7
6
CONTINUOUS
70
0
71
3
72
8
73
4
74
2
42
0.0000001000
43
0.0000001000
44
0.0000000001
12
0.0012512757
22
0.0111793772
32
0.0000000000
13
0.0000054201
23
0.0111967750
33
0.0000000000
40
0.0000000000
40
0.0000000000
40
0.0000000000
40
0.0000000000
40
1.0000000000
40
1.0000000000
40
1.0000000000
40
1.0000000000
10
98.8885516702
20
-188.6937925543
30
0.0000000000
10
98.8889687621
20
-188.6900660952
30
0.0000000000
10
98.8891803196
20
-188.6863229382
30
0.0000000000
10
98.8891821264
20
-188.6825906799
30
0.0000000000
11
98.8885516702
21
-188.6937925543
31
0.0000000000
11
98.8891821264
21
-188.6825906799
31
0.0000000000
0
SPLINE
5
3C7
100
AcDbEntity
8
0
100
AcDbSpline
62
7
6
CONTINUOUS
70
0
71
3
72
10
73
6
74
4
42
0.0000001000
43
0.0000001000
44
0.0000000001
12
1.0911208316
22
-0.3562194201
32
0.0000000000
13
1.1394011973
23
-0.1385349433
33
0.0000000000
40
0.0000000000
40
0.0000000000
40
0.0000000000
40
0.0000000000
40
0.3242092501
40
0.6736871094
40
1.0000000000
40
1.0000000000
40
1.0000000000
40
1.0000000000
10
97.5581548528
20
-188.5336546624
30
0.0000000000
10
97.6760720083
20
-188.5721512061
30
0.0000000000
10
97.9236918565
20
-188.6444368511
30
0.0000000000
10
98.2974369685
20
-188.7274178437
30
0.0000000000
10
98.5531871831
20
-188.7667853689
30
0.0000000000
10
98.6771209492
20
-188.7818539482
30
0.0000000000
11
97.5581548528
21
-188.5336546624
31
0.0000000000
11
97.9153693126
21
-188.6379314346
31
0.0000000000
11
98.3069443232
21
-188.7248712218
31
0.0000000000
11
98.6771209492
21
-188.7818539482
31
0.0000000000
0
SPLINE
5
3C8
100
AcDbEntity
8
0
100
AcDbSpline
62
7
6
CONTINUOUS
70
0
71
3
72
8
73
4
74
2
42
0.0000001000
43
0.0000001000
44
0.0000000001
12
-0.0000338558
22
-0.0001072465
32
0.0000000000
13
0.0041573908
23
-0.0006697597
33
0.0000000000
40
0.0000000000
40
0.0000000000
40
0.0000000000
40
0.0000000000
40
1.0000000000
40
1.0000000000
40
1.0000000000
40
1.0000000000
10
97.2871140348
20
-188.4547186424
30
0.0000000000
10
97.2871027496
20
-188.4547543913
30
0.0000000000
10
97.2883082381
20
-188.4549481198
30
0.0000000000
10
97.2896940350
20
-188.4551713731
30
0.0000000000
11
97.2871140348
21
-188.4547186424
31
0.0000000000
11
97.2896940350
21
-188.4551713731
31
0.0000000000
0
SPLINE
5
3C9
100
AcDbEntity
8
0
100
AcDbSpline
62
7
6
CONTINUOUS
70
0
71
3
72
11
73
7
74
5
42
0.0000001000
43
0.0000001000
44
0.0000000001
12
0.0393958245
22
-0.0063467055
32
0.0000000000
13
0.0252524804
23
-0.0062307611
33
0.0000000000
40
0.0000000000
40
0.0000000000
40
0.0000000000
40
0.0000000000
40
0.0437461441
40
0.3811931805
40
0.8487327780
40
1.0000000000
40
1.0000000000
40
1.0000000000
40
1.0000000000
10
97.2896940350
20
-188.4551713731
30
0.0000000000
10
97.2902685068
20
-188.4552639210
30
0.0000000000
10
97.2955443108
20
-188.4561145721
30
0.0000000000
10
97.3000468616
20
-188.4573192910
30
0.0000000000
10
97.3089438483
20
-188.4593059927
30
0.0000000000
10
97.3142313249
20
-188.4605890190
30
0.0000000000
10
97.3155046158
20
-188.4609031889
30
0.0000000000
11
97.2896940350
21
-188.4551713731
31
0.0000000000
11
97.2914365710
21
-188.4554550872
31
0.0000000000
11
97.2999223973
21
-188.4572277337
31
0.0000000000
11
97.3116182000
21
-188.4599615925
31
0.0000000000
11
97.3155046158
21
-188.4609031889
31
0.0000000000
0
SPLINE
5
3CA
100
AcDbEntity
8
0
100
AcDbSpline
62
7
6
CONTINUOUS
70
0
71
3
72
18
73
14
74
12
42
0.0000001000
43
0.0000001000
44
0.0000000001
12
0.2491589938
22
-0.0614771357
32
0.0000000000
13
0.2409641088
23
-0.0786527442
33
0.0000000000
40
0.0000000000
40
0.0000000000
40
0.0000000000
40
0.0000000000
40
0.0441584266
40
0.1147243445
40
0.1955767258
40
0.2863024203
40
0.3862697342
40
0.4948207329
40
0.6111644276
40
0.7344498212
40
0.8637745550
40
0.9980510664
40
1.0000000000
40
1.0000000000
40
1.0000000000
40
1.0000000000
10
97.3155046158
20
-188.4609031889
30
0.0000000000
10
97.3191721055
20
-188.4618081001
30
0.0000000000
10
97.3282857849
20
-188.4641705938
30
0.0000000000
10
97.3444191541
20
-188.4684387383
30
0.0000000000
10
97.3640770143
20
-188.4738968397
30
0.0000000000
10
97.3861523288
20
-188.4802162182
30
0.0000000000
10
97.4104048129
20
-188.4873437048
30
0.0000000000
10
97.4366903607
20
-188.4952542809
30
0.0000000000
10
97.4648104601
20
-188.5038959288
30
0.0000000000
10
97.4945616355
20
-188.5132059540
30
0.0000000000
10
97.5257101580
20
-188.5231220622
30
0.0000000000
10
97.5470573676
20
-188.5300293983
30
0.0000000000
10
97.5579993112
20
-188.5336005039
30
0.0000000000
10
97.5581558522
20
-188.5336516002
30
0.0000000000
11
97.3155046158
21
-188.4609031889
31
0.0000000000
11
97.3262398444
21
-188.4636477064
31
0.0000000000
11
97.3435275718
21
-188.4682378438
31
0.0000000000
11
97.3632797637
21
-188.4737021459
31
0.0000000000
11
97.3853902707
21
-188.4800247334
31
0.0000000000
11
97.4097027723
21
-188.4871647652
31
0.0000000000
11
97.4360519779
21
-188.4950890925
31
0.0000000000
11
97.4642426811
21
-188.5037470306
31
0.0000000000
11
97.4940670708
21
-188.5130774438
31
0.0000000000
11
97.5253037391
21
-188.5230193121
31
0.0000000000
11
97.5576862236
21
-188.5334983282
31
0.0000000000
11
97.5581558522
21
-188.5336516002
31
0.0000000000
0
SPLINE
5
3CB
100
AcDbEntity
8
0
100
AcDbSpline
62
7
6
CONTINUOUS
70
0
71
3
72
8
73
4
74
2
42
0.0000001000
43
0.0000001000
44
0.0000000001
12
-0.0000338947
22
-0.0001160309
32
0.0000000000
13
0.0042056179
23
-0.0006729367
33
0.0000000000
40
0.0000000000
40
0.0000000000
40
0.0000000000
40
0.0000000000
40
1.0000000000
40
1.0000000000
40
1.0000000000
40
1.0000000000
10
97.2871195371
20
-188.4547294451
30
0.0000000000
10
97.2871082388
20
-188.4547681221
30
0.0000000000
10
97.2882903330
20
-188.4549587655
30
0.0000000000
10
97.2896922056
20
-188.4551830778
30
0.0000000000
11
97.2871195371
21
-188.4547294451
31
0.0000000000
11
97.2896922056
21
-188.4551830778
31
0.0000000000
0
SPLINE
5
3CC
100
AcDbEntity
8
0
100
AcDbSpline
62
7
6
CONTINUOUS
70
0
71
3
72
17
73
13
74
11
42
0.0000001000
43
0.0000001000
44
0.0000000001
12
0.2509708435
22
-0.0616478837
32
0.0000000000
13
0.2409606472
23
-0.0786734263
33
0.0000000000
40
0.0000000000
40
0.0000000000
40
0.0000000000
40
0.0000000000
40
0.0479700867
40
0.1192779108
40
0.2010034140
40
0.2926090716
40
0.3934274926
40
0.5028415426
40
0.6200107320
40
0.7441297324
40
0.8743023083
40
1.0000000000
40
1.0000000000
40
1.0000000000
40
1.0000000000
10
97.3154968308
20
-188.4609046361
30
0.0000000000
10
97.3195098619
20
-188.4618903875
30
0.0000000000
10
97.3289563914
20
-188.4643435701
30
0.0000000000
10
97.3455445355
20
-188.4687425843
30
0.0000000000
10
97.3653971831
20
-188.4742728429
30
0.0000000000
10
97.3876841660
20
-188.4806579082
30
0.0000000000
10
97.4121429243
20
-188.4878606944
30
0.0000000000
10
97.4386299728
20
-188.4958478389
30
0.0000000000
10
97.4669516448
20
-188.5045601261
30
0.0000000000
10
97.4969020225
20
-188.5139441680
30
0.0000000000
10
97.5274925071
20
-188.5236933580
30
0.0000000000
10
97.5480597812
20
-188.5303552663
30
0.0000000000
10
97.5581558469
20
-188.5336516223
30
0.0000000000
11
97.3154968308
21
-188.4609046361
31
0.0000000000
11
97.3271723218
21
-188.4638890173
31
0.0000000000
11
97.3446390828
21
-188.4685385312
31
0.0000000000
11
97.3646009565
21
-188.4740758761
31
0.0000000000
11
97.3869237769
21
-188.4804683113
31
0.0000000000
11
97.4114400190
21
-188.4876813205
31
0.0000000000
11
97.4379949813
21
-188.4956822573
31
0.0000000000
11
97.4663830937
21
-188.5044113805
31
0.0000000000
11
97.4964063524
21
-188.5138151056
31
0.0000000000
11
97.5278446784
21
-188.5238333190
31
0.0000000000
11
97.5581558469
21
-188.5336516223
31
0.0000000000
0
SPLINE
5
3CD
100
AcDbEntity
8
0
100
AcDbSpline
62
7
6
CONTINUOUS
70
0
71
3
72
16
73
12
74
10
42
0.0000001000
43
0.0000001000
44
0.0000000001
12
0.2571082013
22
-0.0312732353
32
0.0000000000
13
0.0289956003
23
0.2588563033
33
0.0000000000
40
0.0000000000
40
0.0000000000
40
0.0000000000
40
0.0000000000
40
0.0957177787
40
0.2385228785
40
0.3560819468
40
0.4550440047
40
0.5535147798
40
0.6628920152
40
0.7781856162
40
0.9049357695
40
1.0000000000
40
1.0000000000
40
1.0000000000
40
1.0000000000
10
98.6771207774
20
-188.7818553581
30
0.0000000000
10
98.6853240527
20
-188.7828531597
30
0.0000000000
10
98.7058002331
20
-188.7850664428
30
0.0000000000
10
98.7364680588
20
-188.7873237928
30
0.0000000000
10
98.7675003887
20
-188.7879372589
30
0.0000000000
10
98.7946931456
20
-188.7861689450
30
0.0000000000
10
98.8206737204
20
-188.7801947316
30
0.0000000000
10
98.8459011980
20
-188.7675202710
30
0.0000000000
10
98.8685057806
20
-188.7466411569
30
0.0000000000
10
98.8831622830
20
-188.7209454148
30
0.0000000000
10
98.8876301696
20
-188.7019949113
30
0.0000000000
10
98.8885489844
20
-188.6937922529
30
0.0000000000
11
98.6771207774
21
-188.7818553581
31
0.0000000000
11
98.7017687401
21
-188.7845165966
31
0.0000000000
11
98.7386609398
21
-188.7871210203
31
0.0000000000
11
98.7691042961
21
-188.7875017166
31
0.0000000000
11
98.7946537717
21
-188.7854787634
31
0.0000000000
11
98.8194417846
21
-188.7794857008
31
0.0000000000
11
98.8447073547
21
-188.7666771984
31
0.0000000000
11
98.8666240203
21
-188.7463986171
31
0.0000000000
11
98.8828498074
21
-188.7178631223
31
0.0000000000
11
98.8885489844
21
-188.6937922529
31
0.0000000000
0
SPLINE
5
3CE
100
AcDbEntity
8
0
100
AcDbSpline
62
7
6
CONTINUOUS
70
0
71
3
72
12
73
8
74
6
42
0.0000001000
43
0.0000001000
44
0.0000000001
12
0.1619099871
22
0.0512868116
32
0.0000000000
13
0.1836198709
23
-0.0070518447
33
0.0000000000
40
0.0000000000
40
0.0000000000
40
0.0000000000
40
0.0000000000
40
0.0435347811
40
0.2501577898
40
0.5368832645
40
0.8832351291
40
1.0000000000
40
1.0000000000
40
1.0000000000
40
1.0000000000
10
98.8890774274
20
-188.4743134316
30
0.0000000000
10
98.8914269993
20
-188.4735691782
30
0.0000000000
10
98.9045956581
20
-188.4701094537
30
0.0000000000
10
98.9382692344
20
-188.4614284289
30
0.0000000000
10
98.9886364562
20
-188.4560920240
30
0.0000000000
10
99.0347853974
20
-188.4545934886
30
0.0000000000
10
99.0631616005
20
-188.4552883366
30
0.0000000000
10
99.0703083841
20
-188.4555628058
30
0.0000000000
11
98.8890774274
21
-188.4743134316
31
0.0000000000
11
98.8960868262
21
-188.4723472694
31
0.0000000000
11
98.9330082209
21
-188.4635729214
31
0.0000000000
11
98.9852628293
21
-188.4570367141
31
0.0000000000
11
99.0488446825
21
-188.4550409598
31
0.0000000000
11
99.0703083841
21
-188.4555628058
31
0.0000000000
0
SPLINE
5
3CF
100
AcDbEntity
8
0
100
AcDbSpline
62
7
6
CONTINUOUS
70
0
71
3
72
10
73
6
74
4
42
0.0000001000
43
0.0000001000
44
0.0000000001
12
0.6103822664
22
-0.0337146560
32
0.0000000000
13
0.6103836007
23
0.0337145969
33
0.0000000000
40
0.0000000000
40
0.0000000000
40
0.0000000000
40
0.0000000000
40
0.3201470795
40
0.6837622215
40
1.0000000000
40
1.0000000000
40
1.0000000000
40
1.0000000000
10
99.0836751939
20
-188.4562082681
30
0.0000000000
10
99.1488125606
20
-188.4598061510
30
0.0000000000
10
99.2880795308
20
-188.4650332944
30
0.0000000000
10
99.4918942435
20
-188.4649893648
30
0.0000000000
10
99.6303632668
20
-188.4597621971
30
0.0000000000
10
99.6947053848
20
-188.4562082540
30
0.0000000000
11
99.0836751939
21
-188.4562082681
31
0.0000000000
11
99.2792466351
21
-188.4635484927
31
0.0000000000
11
99.5015232705
21
-188.4635005541
31
0.0000000000
11
99.6947053848
21
-188.4562082540
31
0.0000000000
0
SPLINE
5
3D0
100
AcDbEntity
8
0
100
AcDbSpline
62
7
6
CONTINUOUS
70
0
71
3
72
8
73
4
74
2
42
0.0000001000
43
0.0000001000
44
0.0000000001
12
0.0133593634
22
0.0007433272
32
0.0000000000
13
0.0133758724
23
0.0005149088
33
0.0000000000
40
0.0000000000
40
0.0000000000
40
0.0000000000
40
0.0000000000
40
1.0000000000
40
1.0000000000
40
1.0000000000
40
1.0000000000
10
99.6947044895
20
-188.4561895531
30
0.0000000000
10
99.6991576106
20
-188.4559417774
30
0.0000000000
10
99.7036134604
20
-188.4557316367
30
0.0000000000
10
99.7080720846
20
-188.4555600004
30
0.0000000000
11
99.6947044895
21
-188.4561895531
31
0.0000000000
11
99.7080720846
21
-188.4555600004
31
0.0000000000
0
SPLINE
5
3D1
100
AcDbEntity
8
0
100
AcDbSpline
62
9
6
CONTINUOUS
70
0
71
3
72
10
73
6
74
4
42
0.0000001000
43
0.0000001000
44
0.0000000001
12
0.0000000037
22
-0.0084211513
32
0.0000000000
13
-0.0000000024
23
-0.0084211513
33
0.0000000000
40
0.0000000000
40
0.0000000000
40
0.0000000000
40
0.0000000000
40
0.5552522622
40
0.8890061159
40
1.0000000000
40
1.0000000000
40
1.0000000000
40
1.0000000000
10
101.5252061209
20
-188.4495076141
30
0.0000000000
10
101.5252061216
20
-188.4510662353
30
0.0000000000
10
101.5252061195
20
-188.4535617203
30
0.0000000000
10
101.5252061210
20
-188.4563687707
30
0.0000000000
10
101.5252061210
20
-188.4576172000
30
0.0000000000
10
101.5252061209
20
-188.4579287655
30
0.0000000000
11
101.5252061209
21
-188.4495076141
31
0.0000000000
11
101.5252061203
21
-188.4541834775
31
0.0000000000
11
101.5252061210
21
-188.4569940692
31
0.0000000000
11
101.5252061209
21
-188.4579287655
31
0.0000000000
0
SPLINE
5
3D2
100
AcDbEntity
8
0
100
AcDbSpline
62
9
6
CONTINUOUS
70
0
71
3
72
11
73
7
74
5
42
0.0000001000
43
0.0000001000
44
0.0000000001
12
0.2347482178
22
0.0766424207
32
0.0000000000
13
0.2489078788
23
0.0675589159
33
0.0000000000
40
0.0000000000
40
0.0000000000
40
0.0000000000
40
0.0000000000
40
0.3504046771
40
0.6666687971
40
0.9304468631
40
1.0000000000
40
1.0000000000
40
1.0000000000
40
1.0000000000
10
101.2200610021
20
-188.5331501086
30
0.0000000000
10
101.2474799600
20
-188.5241981543
30
0.0000000000
10
101.2995813572
20
-188.5075454048
30
0.0000000000
10
101.3734639958
20
-188.4848324229
30
0.0000000000
10
101.4233484424
20
-188.4707024204
30
0.0000000000
10
101.4514096223
20
-188.4628351101
30
0.0000000000
10
101.4571803968
20
-188.4612687986
30
0.0000000000
11
101.2200610021
21
-188.5331501086
31
0.0000000000
11
101.3024804039
21
-188.5067972566
31
0.0000000000
11
101.3771811895
21
-188.4840096847
31
0.0000000000
11
101.4398063541
21
-188.4660914576
31
0.0000000000
11
101.4571803968
21
-188.4612687986
31
0.0000000000
0
SPLINE
5
3D3
100
AcDbEntity
8
0
100
AcDbSpline
62
9
6
CONTINUOUS
70
0
71
3
72
10
73
6
74
4
42
0.0000001000
43
0.0000001000
44
0.0000000001
12
0.0708811429
22
0.0192386565
32
0.0000000000
13
-0.0003549073
23
-0.0703206776
33
0.0000000000
40
0.0000000000
40
0.0000000000
40
0.0000000000
40
0.0000000000
40
0.4410278012
40
0.8596420268
40
1.0000000000
40
1.0000000000
40
1.0000000000
40
1.0000000000
10
101.4571803968
20
-188.4612687986
30
0.0000000000
10
101.4676005817
20
-188.4584405378
30
0.0000000000
10
101.4873744145
20
-188.4534062235
30
0.0000000000
10
101.5041697247
20
-188.4512924641
30
0.0000000000
10
101.5252227256
20
-188.4462175916
30
0.0000000000
10
101.5252061209
20
-188.4495076141
30
0.0000000000
11
101.4571803968
21
-188.4612687986
31
0.0000000000
11
101.4864855426
21
-188.4541217611
31
0.0000000000
11
101.5153853904
21
-188.4485207136
31
0.0000000000
11
101.5252061209
21
-188.4495076141
31
0.0000000000
0
SPLINE
5
3D4
100
AcDbEntity
8
0
100
AcDbSpline
62
9
6
CONTINUOUS
70
0
71
3
72
12
73
8
74
6
42
0.0000001000
43
0.0000001000
44
0.0000000001
12
1.1394044272
22
0.1385317330
32
0.0000000000
13
1.0911181987
23
0.3562226359
33
0.0000000000
40
0.0000000000
40
0.0000000000
40
0.0000000000
40
0.0000000000
40
0.1736997740
40
0.3668447149
40
0.5660151312
40
0.7736035241
40
1.0000000000
40
1.0000000000
40
1.0000000000
40
1.0000000000
10
100.1011955668
20
-188.7813270277
30
0.0000000000
10
100.1671669973
20
-188.7733060508
30
0.0000000000
10
100.3062196810
20
-188.7540101612
30
0.0000000000
10
100.5195706530
20
-188.7166009293
30
0.0000000000
10
100.7440241727
20
-188.6683508143
30
0.0000000000
10
100.9787178610
20
-188.6080945520
30
0.0000000000
10
101.1377192305
20
-188.5600326250
30
0.0000000000
10
101.2200610021
20
-188.5331501086
30
0.0000000000
11
100.1011955668
21
-188.7813270277
31
0.0000000000
11
100.2986749942
21
-188.7539232475
31
0.0000000000
11
100.5170345322
21
-188.7156358269
31
0.0000000000
11
100.7405355960
21
-188.6675905126
31
0.0000000000
11
100.9713194535
21
-188.6083377104
31
0.0000000000
11
101.2200610021
21
-188.5331501086
31
0.0000000000
0
SPLINE
5
3D5
100
AcDbEntity
8
0
100
AcDbSpline
62
9
6
CONTINUOUS
70
0
71
3
72
14
73
10
74
8
42
0.0000001000
43
0.0000001000
44
0.0000000001
12
0.0001275271
22
-0.1030417226
32
0.0000000000
13
0.1022885817
23
0.0124361939
33
0.0000000000
40
0.0000000000
40
0.0000000000
40
0.0000000000
40
0.0000000000
40
0.0475695937
40
0.1569696759
40
0.3115077117
40
0.4870765621
40
0.6663493256
40
0.8385288923
40
1.0000000000
40
1.0000000000
40
1.0000000000
40
1.0000000000
10
99.9994805272
20
-188.7813270277
30
0.0000000000
10
99.9994825494
20
-188.7829609120
30
0.0000000000
10
100.0062810877
20
-188.7854098554
30
0.0000000000
10
100.0156596386
20
-188.7861246682
30
0.0000000000
10
100.0313473049
20
-188.7866436996
30
0.0000000000
10
100.0486431554
20
-188.7860200964
30
0.0000000000
10
100.0667644891
20
-188.7848640474
30
0.0000000000
10
100.0842970887
20
-188.7832682178
30
0.0000000000
10
100.0956900166
20
-188.7819963897
30
0.0000000000
10
100.1011955668
20
-188.7813270277
30
0.0000000000
11
99.9994805272
21
-188.7813270277
31
0.0000000000
11
100.0034127867
21
-188.7842533860
31
0.0000000000
11
100.0145540086
21
-188.7859705874
31
0.0000000000
11
100.0304708219
21
-188.7864448576
31
0.0000000000
11
100.0485547187
21
-188.7859404285
31
0.0000000000
11
100.0669898450
21
-188.7847645695
31
0.0000000000
11
100.0846599738
21
-188.7831726498
31
0.0000000000
11
100.1011955668
21
-188.7813270277
31
0.0000000000
0
SPLINE
5
3D6
100
AcDbEntity
8
0
100
AcDbSpline
62
9
6
CONTINUOUS
70
0
71
3
72
12
73
8
74
6
42
0.0000001000
43
0.0000001000
44
0.0000000001
12
0.0000000955
22
-0.2481769191
32
0.0000000000
13
-0.0000000361
23
-0.2481769191
33
0.0000000000
40
0.0000000000
40
0.0000000000
40
0.0000000000
40
0.0000000000
40
0.3245288541
40
0.5733868835
40
0.7612770168
40
0.8998605882
40
1.0000000000
40
1.0000000000
40
1.0000000000
40
1.0000000000
10
99.9994805272
20
-188.5331501086
30
0.0000000000
10
99.9994805375
20
-188.5599969656
30
0.0000000000
10
99.9994805182
20
-188.6074307624
30
0.0000000000
10
99.9994805289
20
-188.6704078906
30
0.0000000000
10
99.9994805282
20
-188.7180025763
30
0.0000000000
10
99.9994805259
20
-188.7532944193
30
0.0000000000
10
99.9994805284
20
-188.7730429308
30
0.0000000000
10
99.9994805272
20
-188.7813270277
30
0.0000000000
11
99.9994805272
21
-188.5331501086
31
0.0000000000
11
99.9994805244
21
-188.6136906797
31
0.0000000000
11
99.9994805276
21
-188.6754514988
31
0.0000000000
11
99.9994805277
21
-188.7220814932
31
0.0000000000
11
99.9994805270
21
-188.7564747370
31
0.0000000000
11
99.9994805272
21
-188.7813270277
31
0.0000000000
0
SPLINE
5
3D7
100
AcDbEntity
8
0
100
AcDbSpline
62
9
6
CONTINUOUS
70
0
71
3
72
8
73
4
74
2
42
0.0000001000
43
0.0000001000
44
0.0000000001
12
0.0259648526
22
0.0014341561
32
0.0000000000
13
0.0260031346
23
0.0007031723
33
0.0000000000
40
0.0000000000
40
0.0000000000
40
0.0000000000
40
0.0000000000
40
1.0000000000
40
1.0000000000
40
1.0000000000
40
1.0000000000
10
99.6943354085
20
-188.4495076141
30
0.0000000000
10
99.7029903593
20
-188.4490295621
30
0.0000000000
10
99.7116539153
20
-188.4486709317
30
0.0000000000
10
99.7203216269
20
-188.4484365410
30
0.0000000000
11
99.6943354085
21
-188.4495076141
31
0.0000000000
11
99.7203216269
21
-188.4484365410
31
0.0000000000
0
SPLINE
5
3D8
100
AcDbEntity
8
0
100
AcDbSpline
62
9
6
CONTINUOUS
70
0
71
3
72
10
73
6
74
4
42
0.0000001000
43
0.0000001000
44
0.0000000001
12
0.1456857917
22
0.0039396099
32
0.0000000000
13
0.1438195669
23
-0.0241745223
33
0.0000000000
40
0.0000000000
40
0.0000000000
40
0.0000000000
40
0.0000000000
40
0.3486430920
40
0.8460685313
40
1.0000000000
40
1.0000000000
40
1.0000000000
40
1.0000000000
10
99.7203216269
20
-188.4484365410
30
0.0000000000
10
99.7372524085
20
-188.4479787017
30
0.0000000000
10
99.7783776065
20
-188.4480179910
30
0.0000000000
10
99.8268645519
20
-188.4516138660
30
0.0000000000
10
99.8582078620
20
-188.4562027574
30
0.0000000000
10
99.8655873143
20
-188.4574431640
30
0.0000000000
11
99.7203216269
21
-188.4484365410
31
0.0000000000
11
99.7711283759
21
-188.4485210184
31
0.0000000000
11
99.8433801423
21
-188.4541593002
31
0.0000000000
11
99.8655873143
21
-188.4574431640
31
0.0000000000
0
SPLINE
5
3D9
100
AcDbEntity
8
0
100
AcDbSpline
62
9
6
CONTINUOUS
70
0
71
3
72
8
73
4
74
2
42
0.0000001000
43
0.0000001000
44
0.0000000001
12
0.0237336029
22
-0.0039893634
32
0.0000000000
13
0.0234891810
23
-0.0051773087
33
0.0000000000
40
0.0000000000
40
0.0000000000
40
0.0000000000
40
0.0000000000
40
1.0000000000
40
1.0000000000
40
1.0000000000
40
1.0000000000
10
99.8655873143
20
-188.4574431640
30
0.0000000000
10
99.8734985153
20
-188.4587729518
30
0.0000000000
10
99.8813778419
20
-188.4602819627
30
0.0000000000
10
99.8892075688
20
-188.4620077323
30
0.0000000000
11
99.8655873143
21
-188.4574431640
31
0.0000000000
11
99.8892075688
21
-188.4620077323
31
0.0000000000
0
SPLINE
5
3DA
100
AcDbEntity
8
0
100
AcDbSpline
62
9
6
CONTINUOUS
70
0
71
3
72
8
73
4
74
2
42
0.0000001000
43
0.0000001000
44
0.0000000001
12
0.0172327122
22
-0.0037983049
32
0.0000000000
13
0.0170515376
23
-0.0045427719
33
0.0000000000
40
0.0000000000
40
0.0000000000
40
0.0000000000
40
0.0000000000
40
1.0000000000
40
1.0000000000
40
1.0000000000
40
1.0000000000
10
99.8892075688
20
-188.4620077323
30
0.0000000000
10
99.8949518062
20
-188.4632738339
30
0.0000000000
10
99.9006693474
20
-188.4646566025
30
0.0000000000
10
99.9063531933
20
-188.4661708598
30
0.0000000000
11
99.8892075688
21
-188.4620077323
31
0.0000000000
11
99.9063531933
21
-188.4661708598
31
0.0000000000
0
SPLINE
5
3DB
100
AcDbEntity
8
0
100
AcDbSpline
62
9
6
CONTINUOUS
70
0
71
3
72
10
73
6
74
4
42
0.0000001000
43
0.0000001000
44
0.0000000001
12
0.1168063314
22
-0.0311188667
32
0.0000000000
13
-0.0000729979
23
-0.1208295183
33
0.0000000000
40
0.0000000000
40
0.0000000000
40
0.0000000000
40
0.0000000000
40
0.4363905819
40
0.7617294484
40
1.0000000000
40
1.0000000000
40
1.0000000000
40
1.0000000000
10
99.9063531933
20
-188.4661708598
30
0.0000000000
10
99.9233442543
20
-188.4706975200
30
0.0000000000
10
99.9524769328
20
-188.4806499275
30
0.0000000000
10
99.9876826052
20
-188.5014467506
30
0.0000000000
10
99.9994863250
20
-188.5235534032
30
0.0000000000
10
99.9994805272
20
-188.5331501086
30
0.0000000000
11
99.9063531933
21
-188.4661708598
31
0.0000000000
11
99.9559641950
21
-188.4840337432
31
0.0000000000
11
99.9880694017
21
-188.5067179824
31
0.0000000000
11
99.9994805272
21
-188.5331501086
31
0.0000000000
0
SPLINE
5
3DC
100
AcDbEntity
8
0
100
AcDbSpline
62
9
6
CONTINUOUS
70
0
71
3
72
10
73
6
74
4
42
0.0000001000
43
0.0000001000
44
0.0000000001
12
0.6096363370
22
-0.0336737673
32
0.0000000000
13
0.6096363343
23
0.0336738160
33
0.0000000000
40
0.0000000000
40
0.0000000000
40
0.0000000000
40
0.0000000000
40
0.3328661760
40
0.6669943864
40
1.0000000000
40
1.0000000000
40
1.0000000000
40
1.0000000000
10
99.0840451710
20
-188.4495076141
30
0.0000000000
10
99.1516876098
20
-188.4532439002
30
0.0000000000
10
99.2873801574
20
-188.4582414885
30
0.0000000000
10
99.4909436484
20
-188.4582430495
30
0.0000000000
10
99.6266646346
20
-188.4532454707
30
0.0000000000
10
99.6943354085
20
-188.4495076141
30
0.0000000000
11
99.0840451710
21
-188.4495076141
31
0.0000000000
11
99.2871441216
21
-188.4569876182
31
0.0000000000
11
99.4911513222
21
-188.4569891871
31
0.0000000000
11
99.6943354085
21
-188.4495076141
31
0.0000000000
0
SPLINE
5
3DD
100
AcDbEntity
8
0
100
AcDbSpline
62
9
6
CONTINUOUS
70
0
71
3
72
11
73
7
74
5
42
0.0000001000
43
0.0000001000
44
0.0000000001
12
0.0000256699
22
0.1384612527
32
0.0000000000
13
0.1352723955
23
0.0298191917
33
0.0000000000
40
0.0000000000
40
0.0000000000
40
0.0000000000
40
0.0000000000
40
0.2091032557
40
0.4931166190
40
0.8736295673
40
1.0000000000
40
1.0000000000
40
1.0000000000
40
1.0000000000
10
98.7789000523
20
-188.5331501086
30
0.0000000000
10
98.7789018415
20
-188.5234992090
30
0.0000000000
10
98.7907910063
20
-188.5013503875
30
0.0000000000
10
98.8260559150
20
-188.4805901998
30
0.0000000000
10
98.8607237919
20
-188.4687626417
30
0.0000000000
10
98.8834742830
20
-188.4632636084
30
0.0000000000
10
98.8891724268
20
-188.4620075204
30
0.0000000000
11
98.7789000523
21
-188.5331501086
31
0.0000000000
11
98.7904262842
21
-188.5065906513
31
0.0000000000
11
98.8225815372
21
-188.4839525578
31
0.0000000000
11
98.8721635560
21
-188.4661348795
31
0.0000000000
11
98.8891724268
21
-188.4620075204
31
0.0000000000
0
SPLINE
5
3DE
100
AcDbEntity
8
0
100
AcDbSpline
62
9
6
CONTINUOUS
70
0
71
3
72
8
73
4
74
2
42
0.0000001000
43
0.0000001000
44
0.0000000001
12
0.0042859530
22
0.0009447874
32
0.0000000000
13
0.0042955310
23
0.0009021475
33
0.0000000000
40
0.0000000000
40
0.0000000000
40
0.0000000000
40
0.0000000000
40
1.0000000000
40
1.0000000000
40
1.0000000000
40
1.0000000000
10
98.8891724268
20
-188.4620075204
30
0.0000000000
10
98.8906010778
20
-188.4616925912
30
0.0000000000
10
98.8920313788
20
-188.4613848829
30
0.0000000000
10
98.8934632225
20
-188.4610841671
30
0.0000000000
11
98.8891724268
21
-188.4620075204
31
0.0000000000
11
98.8934632225
21
-188.4610841671
31
0.0000000000
0
SPLINE
5
3DF
100
AcDbEntity
8
0
100
AcDbSpline
62
9
6
CONTINUOUS
70
0
71
3
72
8
73
4
74
2
42
0.0000001000
43
0.0000001000
44
0.0000000001
12
0.0193422573
22
0.0040622611
32
0.0000000000
13
0.0195005064
23
0.0032741333
33
0.0000000000
40
0.0000000000
40
0.0000000000
40
0.0000000000
40
0.0000000000
40
1.0000000000
40
1.0000000000
40
1.0000000000
40
1.0000000000
10
98.8934632225
20
-188.4610841671
30
0.0000000000
10
98.8999106416
20
-188.4597300801
30
0.0000000000
10
98.9063893386
20
-188.4585177720
30
0.0000000000
10
98.9128895074
20
-188.4574263943
30
0.0000000000
11
98.8934632225
21
-188.4610841671
31
0.0000000000
11
98.9128895074
21
-188.4574263943
31
0.0000000000
0
SPLINE
5
3E0
100
AcDbEntity
8
0
100
AcDbSpline
62
9
6
CONTINUOUS
70
0
71
3
72
10
73
6
74
4
42
0.0000001000
43
0.0000001000
44
0.0000000001
12
0.1436554342
22
0.0241197344
32
0.0000000000
13
0.1455167566
23
-0.0039235326
33
0.0000000000
40
0.0000000000
40
0.0000000000
40
0.0000000000
40
0.0000000000
40
0.1538736103
40
0.6506453984
40
1.0000000000
40
1.0000000000
40
1.0000000000
40
1.0000000000
10
98.9128895074
20
-188.4574263943
30
0.0000000000
10
98.9202577675
20
-188.4561892641
30
0.0000000000
10
98.9515306781
20
-188.4516151789
30
0.0000000000
10
98.9999607875
20
-188.4480206628
30
0.0000000000
10
99.0410409650
20
-188.4479781223
30
0.0000000000
10
99.0579866145
20
-188.4484350237
30
0.0000000000
11
98.9128895074
21
-188.4574263943
31
0.0000000000
11
98.9350627737
21
-188.4541507989
31
0.0000000000
11
99.0071354409
21
-188.4485244863
31
0.0000000000
11
99.0579866145
21
-188.4484350237
31
0.0000000000
0
SPLINE
5
3E1
100
AcDbEntity
8
0
100
AcDbSpline
62
9
6
CONTINUOUS
70
0
71
3
72
8
73
4
74
2
42
0.0000001000
43
0.0000001000
44
0.0000000001
12
0.0260755307
22
-0.0007030681
32
0.0000000000
13
0.0260370964
23
-0.0014371509
33
0.0000000000
40
0.0000000000
40
0.0000000000
40
0.0000000000
40
0.0000000000
40
1.0000000000
40
1.0000000000
40
1.0000000000
40
1.0000000000
10
99.0579866145
20
-188.4484350237
30
0.0000000000
10
99.0666784581
20
-188.4486693797
30
0.0000000000
10
99.0753661389
20
-188.4490285638
30
0.0000000000
10
99.0840451710
20
-188.4495076141
30
0.0000000000
11
99.0579866145
21
-188.4484350237
31
0.0000000000
11
99.0840451710
21
-188.4495076141
31
0.0000000000
0
SPLINE
5
3E2
100
AcDbEntity
8
0
100
AcDbSpline
62
9
6
CONTINUOUS
70
0
71
3
72
12
73
8
74
6
42
0.0000001000
43
0.0000001000
44
0.0000000001
12
-0.0000000402
22
0.2481769191
32
0.0000000000
13
0.0000000830
23
0.2481769191
33
0.0000000000
40
0.0000000000
40
0.0000000000
40
0.0000000000
40
0.0000000000
40
0.1005484461
40
0.2392339420
40
0.4272491127
40
0.6764381929
40
1.0000000000
40
1.0000000000
40
1.0000000000
40
1.0000000000
10
98.7789000523
20
-188.7813270277
30
0.0000000000
10
98.7789000509
20
-188.7730090932
30
0.0000000000
10
98.7789000540
20
-188.7532183123
30
0.0000000000
10
98.7789000491
20
-188.7178738561
30
0.0000000000
10
98.7789000532
20
-188.6702330084
30
0.0000000000
10
98.7789000575
20
-188.6072981496
30
0.0000000000
10
98.7789000433
20
-188.5599169660
30
0.0000000000
10
98.7789000523
20
-188.5331501086
30
0.0000000000
11
98.7789000523
21
-188.7813270277
31
0.0000000000
11
98.7789000525
21
-188.7563732241
31
0.0000000000
11
98.7789000508
21
-188.7219546850
31
0.0000000000
11
98.7789000527
21
-188.6752936592
31
0.0000000000
11
98.7789000538
21
-188.6134506810
31
0.0000000000
11
98.7789000523
21
-188.5331501086
31
0.0000000000
0
SPLINE
5
3E3
100
AcDbEntity
8
0
100
AcDbSpline
62
9
6
CONTINUOUS
70
0
71
3
72
14
73
10
74
8
42
0.0000001000
43
0.0000001000
44
0.0000000001
12
0.1022860762
22
-0.0124369244
32
0.0000000000
13
-0.0002474778
23
0.1030391053
33
0.0000000000
40
0.0000000000
40
0.0000000000
40
0.0000000000
40
0.0000000000
40
0.1614060718
40
0.3347621391
40
0.5142394507
40
0.6893348921
40
0.8429827303
40
0.9520038950
40
1.0000000000
40
1.0000000000
40
1.0000000000
40
1.0000000000
10
98.6771850127
20
-188.7813270277
30
0.0000000000
10
98.6826882106
20
-188.7819961594
30
0.0000000000
10
98.6941188737
20
-188.7832722104
30
0.0000000000
10
98.7116958639
20
-188.7848708394
30
0.0000000000
10
98.7298491625
20
-188.7860259284
30
0.0000000000
10
98.7471024573
20
-188.7866415246
30
0.0000000000
10
98.7627354549
20
-188.7861276224
30
0.0000000000
10
98.7720684987
20
-188.7854023732
30
0.0000000000
10
98.7789040116
20
-188.7829755196
30
0.0000000000
10
98.7789000523
20
-188.7813270277
30
0.0000000000
11
98.6771850127
21
-188.7813270277
31
0.0000000000
11
98.6937135519
21
-188.7831719433
31
0.0000000000
11
98.7115041250
21
-188.7847733849
31
0.0000000000
11
98.7299600961
21
-188.7859467861
31
0.0000000000
11
98.7479949438
21
-188.7864450611
31
0.0000000000
11
98.7638196238
21
-188.7859709257
31
0.0000000000
11
98.7749230679
21
-188.7842666648
31
0.0000000000
11
98.7789000523
21
-188.7813270277
31
0.0000000000
0
SPLINE
5
3E4
100
AcDbEntity
8
0
100
AcDbSpline
62
9
6
CONTINUOUS
70
0
71
3
72
10
73
6
74
4
42
0.0000001000
43
0.0000001000
44
0.0000000001
12
0.0000000011
22
0.0084211513
32
0.0000000000
13
0.0000000040
23
0.0084211513
33
0.0000000000
40
0.0000000000
40
0.0000000000
40
0.0000000000
40
0.0000000000
40
0.1109954972
40
0.4447521893
40
1.0000000000
40
1.0000000000
40
1.0000000000
40
1.0000000000
10
97.2531744586
20
-188.4579287655
30
0.0000000000
10
97.2531744587
20
-188.4576171955
30
0.0000000000
10
97.2531744589
20
-188.4563687537
30
0.0000000000
10
97.2531744594
20
-188.4535617032
30
0.0000000000
10
97.2531744579
20
-188.4510662228
30
0.0000000000
10
97.2531744586
20
-188.4495076141
30
0.0000000000
11
97.2531744586
21
-188.4579287655
31
0.0000000000
11
97.2531744588
21
-188.4569940556
31
0.0000000000
11
97.2531744590
21
-188.4541834400
31
0.0000000000
11
97.2531744586
21
-188.4495076141
31
0.0000000000
0
SPLINE
5
3E5
100
AcDbEntity
8
0
100
AcDbSpline
62
9
6
CONTINUOUS
70
0
71
3
72
12
73
8
74
6
42
0.0000001000
43
0.0000001000
44
0.0000000001
12
1.0911187217
22
-0.3562227291
32
0.0000000000
13
1.1394049461
23
-0.1385318241
33
0.0000000000
40
0.0000000000
40
0.0000000000
40
0.0000000000
40
0.0000000000
40
0.2220767843
40
0.4263822369
40
0.6251590283
40
0.8222368415
40
1.0000000000
40
1.0000000000
40
1.0000000000
40
1.0000000000
10
97.5583195773
20
-188.5331501086
30
0.0000000000
10
97.6390902897
20
-188.5595197080
30
0.0000000000
10
97.7952841353
20
-188.6068046529
30
0.0000000000
10
98.0269428837
20
-188.6665682747
30
0.0000000000
10
98.2514185549
20
-188.7151797356
30
0.0000000000
10
98.4675928773
20
-188.7533455475
30
0.0000000000
10
98.6096702720
20
-188.7731184095
30
0.0000000000
10
98.6771850127
20
-188.7813270277
30
0.0000000000
11
97.5583195773
21
-188.5331501086
31
0.0000000000
11
97.8022841761
21
-188.6070056992
31
0.0000000000
11
98.0293505659
21
-188.6655849170
31
0.0000000000
11
98.2523369863
21
-188.7138738020
31
0.0000000000
11
98.4750969309
21
-188.7532022738
31
0.0000000000
11
98.6771850127
21
-188.7813270277
31
0.0000000000
0
SPLINE
5
3E6
100
AcDbEntity
8
0
100
AcDbSpline
62
9
6
CONTINUOUS
70
0
71
3
72
10
73
6
74
4
42
0.0000001000
43
0.0000001000
44
0.0000000001
12
-0.0000305523
22
0.0705416368
32
0.0000000000
13
0.0710873922
23
-0.0193144344
33
0.0000000000
40
0.0000000000
40
0.0000000000
40
0.0000000000
40
0.0000000000
40
0.1406318942
40
0.5591741542
40
1.0000000000
40
1.0000000000
40
1.0000000000
40
1.0000000000
10
97.2531744586
20
-188.4495076141
30
0.0000000000
10
97.2531730264
20
-188.4462008128
30
0.0000000000
10
97.2742679212
20
-188.4513204459
30
0.0000000000
10
97.2911423272
20
-188.4534323983
30
0.0000000000
10
97.3109705711
20
-188.4584846906
30
0.0000000000
10
97.3214162910
20
-188.4613227913
30
0.0000000000
11
97.2531744586
21
-188.4495076141
31
0.0000000000
11
97.2630462639
21
-188.4485268516
31
0.0000000000
11
97.2920298657
21
-188.4541532450
31
0.0000000000
11
97.3214162910
21
-188.4613227913
31
0.0000000000
0
SPLINE
5
3E7
100
AcDbEntity
8
0
100
AcDbSpline
62
9
6
CONTINUOUS
70
0
71
3
72
11
73
7
74
5
42
0.0000001000
43
0.0000001000
44
0.0000000001
12
0.2486304027
22
-0.0675528451
32
0.0000000000
13
0.2345404016
23
-0.0765660645
33
0.0000000000
40
0.0000000000
40
0.0000000000
40
0.0000000000
40
0.0000000000
40
0.0697732047
40
0.3340318270
40
0.6507837916
40
1.0000000000
40
1.0000000000
40
1.0000000000
40
1.0000000000
10
97.3214162910
20
-188.4613227913
30
0.0000000000
10
97.3271988710
20
-188.4628939174
30
0.0000000000
10
97.3552851182
20
-188.4707770907
30
0.0000000000
10
97.4052226878
20
-188.4849219939
30
0.0000000000
10
97.4790173222
20
-188.5076146096
30
0.0000000000
10
97.5310178074
20
-188.5242374050
30
0.0000000000
10
97.5583195773
20
-188.5331501086
30
0.0000000000
11
97.3214162910
21
-188.4613227913
31
0.0000000000
11
97.3388251956
21
-188.4661600424
31
0.0000000000
11
97.4015065614
21
-188.4841006952
31
0.0000000000
11
97.4762540473
21
-188.5069078693
31
0.0000000000
11
97.5583195773
21
-188.5331501086
31
0.0000000000
0
SPLINE
5
3E8
100
AcDbEntity
8
0
100
AcDbSpline
62
9
6
CONTINUOUS
70
0
71
3
72
9
73
5
74
3
42
0.0000001000
43
0.0000001000
44
0.0000000001
12
0.0385583277
22
-0.0148674323
32
0.0000000000
13
0.0415816152
23
0.0019562143
33
0.0000000000
40
0.0000000000
40
0.0000000000
40
0.0000000000
40
0.0000000000
40
0.9326375344
40
1.0000000000
40
1.0000000000
40
1.0000000000
40
1.0000000000
10
97.2531775297
20
-188.4494996735
30
0.0000000000
10
97.2651645110
20
-188.4541216486
30
0.0000000000
10
97.2791321610
20
-188.4565928637
30
0.0000000000
10
97.2930042307
20
-188.4561367665
30
0.0000000000
10
97.2939379108
20
-188.4560928414
30
0.0000000000
11
97.2531775297
21
-188.4494996735
31
0.0000000000
11
97.2911348834
21
-188.4561849309
31
0.0000000000
11
97.2939379108
21
-188.4560928414
31
0.0000000000
0
SPLINE
5
3E9
100
AcDbEntity
8
0
100
AcDbSpline
62
9
6
CONTINUOUS
70
0
71
3
72
11
73
7
74
5
42
0.0000001000
43
0.0000001000
44
0.0000000001
12
0.1364282044
22
-0.0140105337
32
0.0000000000
13
0.0395342535
23
0.1327328489
33
0.0000000000
40
0.0000000000
40
0.0000000000
40
0.0000000000
40
0.0000000000
40
0.3028818956
40
0.6052345461
40
0.9066924769
40
1.0000000000
40
1.0000000000
40
1.0000000000
40
1.0000000000
10
98.7789000537
20
-188.7813270139
30
0.0000000000
10
98.7926739314
20
-188.7827415263
30
0.0000000000
10
98.8211338510
20
-188.7797689270
30
0.0000000000
10
98.8580854943
20
-188.7585150698
30
0.0000000000
10
98.8774810493
20
-188.7320800395
30
0.0000000000
10
98.8838156958
20
-188.7149451842
30
0.0000000000
10
98.8850453102
20
-188.7108168598
30
0.0000000000
11
98.7789000537
21
-188.7813270139
31
0.0000000000
11
98.8202085802
21
-188.7769577331
31
0.0000000000
11
98.8561640719
21
-188.7563019166
31
0.0000000000
11
98.8805614482
21
-188.7229242774
31
0.0000000000
11
98.8850453102
21
-188.7108168598
31
0.0000000000
0
SPLINE
5
3EA
100
AcDbEntity
8
0
100
AcDbSpline
62
9
6
CONTINUOUS
70
0
71
3
72
8
73
4
74
2
42
0.0000001000
43
0.0000001000
44
0.0000000001
12
0.0033860998
22
0.0113685382
32
0.0000000000
13
0.0020145149
23
0.0116653788
33
0.0000000000
40
0.0000000000
40
0.0000000000
40
0.0000000000
40
0.0000000000
40
1.0000000000
40
1.0000000000
40
1.0000000000
40
1.0000000000
10
98.8850453102
20
-188.7108168598
30
0.0000000000
10
98.8861740102
20
-188.7070273471
30
0.0000000000
10
98.8870771854
20
-188.7031718616
30
0.0000000000
10
98.8877486903
20
-188.6992834020
30
0.0000000000
11
98.8850453102
21
-188.7108168598
31
0.0000000000
11
98.8877486903
21
-188.6992834020
31
0.0000000000
0
SPLINE
5
3EB
100
AcDbEntity
8
0
100
AcDbSpline
62
9
6
CONTINUOUS
70
0
71
3
72
8
73
4
74
2
42
0.0000001000
43
0.0000001000
44
0.0000000001
12
0.0006855855
22
0.0039699952
32
0.0000000000
13
0.0005238670
23
0.0039890075
33
0.0000000000
40
0.0000000000
40
0.0000000000
40
0.0000000000
40
0.0000000000
40
1.0000000000
40
1.0000000000
40
1.0000000000
40
1.0000000000
10
98.8877486903
20
-188.6992834020
30
0.0000000000
10
98.8879772188
20
-188.6979600703
30
0.0000000000
10
98.8881789153
20
-188.6966329195
30
0.0000000000
10
98.8883535377
20
-188.6953032503
30
0.0000000000
11
98.8877486903
21
-188.6992834020
31
0.0000000000
11
98.8883535377
21
-188.6953032503
31
0.0000000000
0
SPLINE
5
3EC
100
AcDbEntity
8
0
100
AcDbSpline
62
9
6
CONTINUOUS
70
0
71
3
72
8
73
4
74
2
42
0.0000001000
43
0.0000001000
44
0.0000000001
12
0.0016657154
22
0.0126836605
32
0.0000000000
13
0.0000000018
23
0.0127109900
33
0.0000000000
40
0.0000000000
40
0.0000000000
40
0.0000000000
40
0.0000000000
40
1.0000000000
40
1.0000000000
40
1.0000000000
40
1.0000000000
10
98.8883535377
20
-188.6953032503
30
0.0000000000
10
98.8889087761
20
-188.6910753635
30
0.0000000000
10
98.8891902892
20
-188.6868220154
30
0.0000000000
10
98.8891902897
20
-188.6825850187
30
0.0000000000
11
98.8883535377
21
-188.6953032503
31
0.0000000000
11
98.8891902897
21
-188.6825850187
31
0.0000000000
0
SPLINE
5
3ED
100
AcDbEntity
8
0
100
AcDbSpline
62
9
6
CONTINUOUS
70
0
71
3
72
10
73
6
74
4
42
0.0000001000
43
0.0000001000
44
0.0000000001
12
0.1210365973
22
-0.0119148569
32
0.0000000000
13
0.0533106822
23
0.1105467502
33
0.0000000000
40
0.0000000000
40
0.0000000000
40
0.0000000000
40
0.0000000000
40
0.3413955304
40
0.6788235121
40
1.0000000000
40
1.0000000000
40
1.0000000000
40
1.0000000000
10
98.7789005309
20
-188.5331457152
30
0.0000000000
10
98.7926743153
20
-188.5345016081
30
0.0000000000
10
98.8209154399
20
-188.5317003561
30
0.0000000000
10
98.8574519322
20
-188.5117374910
30
0.0000000000
10
98.8743630513
20
-188.4901062568
30
0.0000000000
10
98.8800704305
20
-188.4782712512
30
0.0000000000
11
98.7789005309
21
-188.5331457152
31
0.0000000000
11
98.8202105981
21
-188.5289649736
31
0.0000000000
11
98.8561683817
21
-188.5091862035
31
0.0000000000
11
98.8800704305
21
-188.4782712512
31
0.0000000000
0
SPLINE
5
3EE
100
AcDbEntity
8
0
100
AcDbSpline
62
9
6
CONTINUOUS
70
0
71
3
72
10
73
6
74
4
42
0.0000001000
43
0.0000001000
44
0.0000000001
12
-0.1210105791
22
-0.0119005592
32
0.0000000000
13
-0.0533247757
23
0.1105085263
33
0.0000000000
40
0.0000000000
40
0.0000000000
40
0.0000000000
40
0.0000000000
40
0.3414622253
40
0.6789559621
40
1.0000000000
40
1.0000000000
40
1.0000000000
40
1.0000000000
10
99.9994805200
20
-188.5331500421
30
0.0000000000
10
99.9857070061
20
-188.5345045726
30
0.0000000000
10
99.9574670421
20
-188.5317010323
30
0.0000000000
10
99.9209401101
20
-188.5117404023
30
0.0000000000
10
99.9040332994
20
-188.4901181303
30
0.0000000000
10
99.8983267656
20
-188.4782920958
30
0.0000000000
11
99.9994805200
21
-188.5331500421
31
0.0000000000
11
99.9581720084
21
-188.5289659283
31
0.0000000000
11
99.9222165263
21
-188.5091854932
31
0.0000000000
11
99.8983267656
21
-188.4782920958
31
0.0000000000
0
SPLINE
5
3EF
100
AcDbEntity
8
0
100
AcDbSpline
62
9
6
CONTINUOUS
70
0
71
3
72
11
73
7
74
5
42
0.0000001000
43
0.0000001000
44
0.0000000001
12
-0.1647257712
22
-0.0169074676
32
0.0000000000
13
-0.0000024998
23
0.1655911898
33
0.0000000000
40
0.0000000000
40
0.0000000000
40
0.0000000000
40
0.0000000000
40
0.2508328946
40
0.5012304873
40
0.7508912799
40
1.0000000000
40
1.0000000000
40
1.0000000000
40
1.0000000000
10
99.9994805171
20
-188.7813269302
30
0.0000000000
10
99.9857076364
20
-188.7827405799
30
0.0000000000
10
99.9572499322
20
-188.7797665965
30
0.0000000000
10
99.9203018534
20
-188.7585121697
30
0.0000000000
10
99.8951362757
20
-188.7242103683
30
0.0000000000
10
99.8892000372
20
-188.6963350882
30
0.0000000000
10
99.8891998296
20
-188.6825850184
30
0.0000000000
11
99.9994805171
21
-188.7813269302
31
0.0000000000
11
99.9581754515
21
-188.7769557309
31
0.0000000000
11
99.9222233610
21
-188.7562994912
31
0.0000000000
11
99.8978282542
21
-188.7229227187
31
0.0000000000
11
99.8891998296
21
-188.6825850184
31
0.0000000000
0
SPLINE
5
3F0
100
AcDbEntity
8
0
100
AcDbSpline
62
9
6
CONTINUOUS
70
0
71
3
72
9
73
5
74
3
42
0.0000001000
43
0.0000001000
44
0.0000000001
12
-0.0385822683
22
-0.0148726601
32
0.0000000000
13
-0.0416051680
23
0.0019714101
33
0.0000000000
40
0.0000000000
40
0.0000000000
40
0.0000000000
40
0.0000000000
40
0.9320597385
40
1.0000000000
40
1.0000000000
40
1.0000000000
40
1.0000000000
10
101.5252061190
20
-188.4495076092
30
0.0000000000
10
101.5132191260
20
-188.4541283451
30
0.0000000000
10
101.4992431098
20
-188.4565998513
30
0.0000000000
10
101.4853630140
20
-188.4561405911
30
0.0000000000
10
101.4844207920
20
-188.4560959450
30
0.0000000000
11
101.5252061190
21
-188.4495076092
31
0.0000000000
11
101.4872494915
21
-188.4561894675
31
0.0000000000
11
101.4844207920
21
-188.4560959450
31
0.0000000000
0
SPLINE
5
3F1
100
AcDbEntity
8
0
100
AcDbSpline
62
7
6
CONTINUOUS
70
0
71
3
72
16
73
12
74
10
42
0.0000001000
43
0.0000001000
44
0.0000000001
12
0.0289744044
22
-0.2588793067
32
0.0000000000
13
0.2571086795
23
0.0312684163
33
0.0000000000
40
0.0000000000
40
0.0000000000
40
0.0000000000
40
0.0000000000
40
0.0950980898
40
0.2223386279
40
0.3380988178
40
0.4476222810
40
0.5468622451
40
0.6466093114
40
0.7654231273
40
0.9093720201
40
1.0000000000
40
1.0000000000
40
1.0000000000
40
1.0000000000
10
-115.1101711414
20
-188.6937921118
30
0.0000000000
10
-115.1092526712
20
-188.7019984210
30
0.0000000000
10
-115.1047749075
20
-188.7209953576
30
0.0000000000
10
-115.0900550997
20
-188.7467597291
30
0.0000000000
10
-115.0673331934
20
-188.7676593725
30
0.0000000000
10
-115.0419644426
20
-188.7803208623
30
0.0000000000
10
-115.0158195192
20
-188.7862429947
30
0.0000000000
10
-114.9883809846
20
-188.7879519843
30
0.0000000000
10
-114.9570753540
20
-188.7872755431
30
0.0000000000
10
-114.9266429466
20
-188.7849903859
30
0.0000000000
10
-114.9065072483
20
-188.7828002027
30
0.0000000000
10
-114.8987401682
20
-188.7818556049
30
0.0000000000
11
-115.1101711414
21
-188.6937921118
31
0.0000000000
11
-115.1044705365
21
-188.7178733120
31
0.0000000000
11
-115.0881616057
21
-188.7465073978
31
0.0000000000
11
-115.0661152619
21
-188.7668234073
31
0.0000000000
11
-115.0407828569
21
-188.7795832525
31
0.0000000000
11
-115.0157836449
21
-188.7855493421
31
0.0000000000
11
-114.9900263076
21
-188.7875197064
31
0.0000000000
11
-114.9592590009
21
-188.7870752930
31
0.0000000000
11
-114.9220756681
21
-188.7843920400
31
0.0000000000
11
-114.8987401682
21
-188.7818556049
31
0.0000000000
0
SPLINE
5
3F2
100
AcDbEntity
8
0
100
AcDbSpline
62
7
6
CONTINUOUS
70
0
71
3
72
17
73
13
74
11
42
0.0000001000
43
0.0000001000
44
0.0000000001
12
0.2409615793
22
0.0786737289
32
0.0000000000
13
0.2508541122
23
0.0616341786
33
0.0000000000
40
0.0000000000
40
0.0000000000
40
0.0000000000
40
0.0000000000
40
0.1257174119
40
0.2559316030
40
0.3801033766
40
0.4973284206
40
0.6067933816
40
0.7076507114
40
0.7992778858
40
0.8810031933
40
0.9522887015
40
1.0000000000
40
1.0000000000
40
1.0000000000
40
1.0000000000
10
-113.7797752674
20
-188.5336516223
30
0.0000000000
10
-113.7696775787
20
-188.5303547364
30
0.0000000000
10
-113.7491052922
20
-188.5236912134
30
0.0000000000
10
-113.7185054886
20
-188.5139391036
30
0.0000000000
10
-113.6885428473
20
-188.5045513373
30
0.0000000000
10
-113.6602081266
20
-188.4958352341
30
0.0000000000
10
-113.6337091035
20
-188.4878447849
30
0.0000000000
10
-113.6092411144
20
-188.4806397246
30
0.0000000000
10
-113.5869489919
20
-188.4742537071
30
0.0000000000
10
-113.5670962281
20
-188.4687240814
30
0.0000000000
10
-113.5505309116
20
-188.4643319172
30
0.0000000000
10
-113.5411059096
20
-188.4618847325
30
0.0000000000
10
-113.5371163845
20
-188.4609045169
30
0.0000000000
11
-113.7797752674
21
-188.5336516223
31
0.0000000000
11
-113.7494592226
21
-188.5238317521
31
0.0000000000
11
-113.7180107089
21
-188.5138103460
31
0.0000000000
11
-113.6879745343
21
-188.5044026962
31
0.0000000000
11
-113.6595727214
21
-188.4956695666
31
0.0000000000
11
-113.6330052121
21
-188.4876651689
31
0.0000000000
11
-113.6084792930
21
-188.4804497581
31
0.0000000000
11
-113.5861509978
21
-188.4740563036
31
0.0000000000
11
-113.5661889143
21
-188.4685196008
31
0.0000000000
11
-113.5487273460
21
-188.4638722983
31
0.0000000000
11
-113.5371163845
21
-188.4609045169
31
0.0000000000
0
SPLINE
5
3F3
100
AcDbEntity
8
0
100
AcDbSpline
62
7
6
CONTINUOUS
70
0
71
3
72
11
73
7
74
5
42
0.0000001000
43
0.0000001000
44
0.0000000001
12
0.0254898087
22
0.0062627772
32
0.0000000000
13
0.0387715112
23
0.0062176843
33
0.0000000000
40
0.0000000000
40
0.0000000000
40
0.0000000000
40
0.0000000000
40
0.1248469644
40
0.5993276583
40
0.9394943737
40
1.0000000000
40
1.0000000000
40
1.0000000000
40
1.0000000000
10
-113.5371163845
20
-188.4609045169
30
0.0000000000
10
-113.5360556094
20
-188.4606438873
30
0.0000000000
10
-113.5308918834
20
-188.4593930658
30
0.0000000000
10
-113.5220732468
20
-188.4574183456
30
0.0000000000
10
-113.5175801087
20
-188.4561774891
30
0.0000000000
10
-113.5117345136
20
-188.4552506463
30
0.0000000000
10
-113.5109525487
20
-188.4551252447
30
0.0000000000
11
-113.5371163845
21
-188.4609045169
31
0.0000000000
11
-113.5338842363
21
-188.4601223795
31
0.0000000000
11
-113.5219876872
21
-188.4573250647
31
0.0000000000
11
-113.5134136098
21
-188.4555223910
31
0.0000000000
11
-113.5109525487
21
-188.4551252447
31
0.0000000000
0
SPLINE
5
3F4
100
AcDbEntity
8
0
100
AcDbSpline
62
7
6
CONTINUOUS
70
0
71
3
72
10
73
6
74
4
42
0.0000001000
43
0.0000001000
44
0.0000000001
12
1.1394054503
22
0.1385357645
32
0.0000000000
13
1.0911165306
23
0.3562186596
33
0.0000000000
40
0.0000000000
40
0.0000000000
40
0.0000000000
40
0.0000000000
40
0.3242326341
40
0.6737101514
40
1.0000000000
40
1.0000000000
40
1.0000000000
40
1.0000000000
10
-114.8987403706
20
-188.7818539351
30
0.0000000000
10
-114.7755962271
20
-188.7668813299
30
0.0000000000
10
-114.5206272613
20
-188.7276869469
30
0.0000000000
10
-114.1468486092
20
-188.6448571800
30
0.0000000000
10
-113.8984476817
20
-188.5723982015
30
0.0000000000
10
-113.7797742658
20
-188.5336546907
30
0.0000000000
11
-114.8987403706
21
-188.7818539351
31
0.0000000000
11
-114.5309110157
21
-188.7253087474
31
0.0000000000
11
-114.1393012335
21
-188.6385275359
31
0.0000000000
11
-113.7797742658
21
-188.5336546907
31
0.0000000000
0
SPLINE
5
3F5
100
AcDbEntity
8
0
100
AcDbSpline
62
7
6
CONTINUOUS
70
0
71
3
72
8
73
4
74
2
42
0.0000001000
43
0.0000001000
44
0.0000000001
12
0.0000045224
22
-0.0112105483
32
0.0000000000
13
0.0012537431
23
-0.0111931650
33
0.0000000000
40
0.0000000000
40
0.0000000000
40
0.0000000000
40
0.0000000000
40
1.0000000000
40
1.0000000000
40
1.0000000000
40
1.0000000000
10
-115.1107997201
20
-188.6825761042
30
0.0000000000
10
-115.1107982126
20
-188.6863129536
30
0.0000000000
10
-115.1105863693
20
-188.6900607553
30
0.0000000000
10
-115.1101684549
20
-188.6937918103
30
0.0000000000
11
-115.1107997201
21
-188.6825761042
31
0.0000000000
11
-115.1101684549
21
-188.6937918103
31
0.0000000000
0
SPLINE
5
3F6
100
AcDbEntity
8
0
100
AcDbSpline
62
7
6
CONTINUOUS
70
0
71
3
72
13
73
9
74
7
42
0.0000001000
43
0.0000001000
44
0.0000000001
12
0.0186732971
22
-0.1667114088
32
0.0000000000
13
0.1668252168
23
-0.0043654261
33
0.0000000000
40
0.0000000000
40
0.0000000000
40
0.0000000000
40
0.0000000000
40
0.1475633507
40
0.3441968187
40
0.5230475999
40
0.6926499719
40
0.8460445029
40
1.0000000000
40
1.0000000000
40
1.0000000000
40
1.0000000000
10
-115.1101684548
20
-188.6937918109
30
0.0000000000
10
-115.1092499567
20
-188.7019919756
30
0.0000000000
10
-115.1047857144
20
-188.7209304684
30
0.0000000000
10
-115.0901463022
20
-188.7466096895
30
0.0000000000
10
-115.0675764250
20
-188.7674776707
30
0.0000000000
10
-115.0423550842
20
-188.7801748717
30
0.0000000000
10
-115.0163449559
20
-188.7861682566
30
0.0000000000
10
-114.9992567183
20
-188.7872784352
30
0.0000000000
10
-114.9906954985
20
-188.7875024623
30
0.0000000000
11
-115.1101684548
21
-188.6937918109
31
0.0000000000
11
-115.1044720293
21
-188.7178555652
31
0.0000000000
11
-115.0882669634
21
-188.7463694358
31
0.0000000000
11
-115.0663809801
21
-188.7666399210
31
0.0000000000
11
-115.0411596284
21
-188.7794508192
31
0.0000000000
11
-115.0162940442
21
-188.7854757210
31
0.0000000000
11
-114.9906954985
21
-188.7875024623
31
0.0000000000
0
SPLINE
5
3F7
100
AcDbEntity
8
0
100
AcDbSpline
62
7
6
CONTINUOUS
70
0
71
3
72
8
73
4
74
2
42
0.0000001000
43
0.0000001000
44
0.0000000001
12
0.0304850193
22
-0.0007977217
32
0.0000000000
13
0.0304535634
23
0.0013443544
33
0.0000000000
40
0.0000000000
40
0.0000000000
40
0.0000000000
40
0.0000000000
40
1.0000000000
40
1.0000000000
40
1.0000000000
40
1.0000000000
10
-114.9906954985
20
-188.7875024623
30
0.0000000000
10
-114.9805338255
20
-188.7877683696
30
0.0000000000
10
-114.9703700300
20
-188.7875664385
30
0.0000000000
10
-114.9602188422
20
-188.7871183203
30
0.0000000000
11
-114.9906954985
21
-188.7875024623
31
0.0000000000
11
-114.9602188422
21
-188.7871183203
31
0.0000000000
0
SPLINE
5
3F8
100
AcDbEntity
8
0
100
AcDbSpline
62
7
6
CONTINUOUS
70
0
71
3
72
9
73
5
74
3
42
0.0000001000
43
0.0000001000
44
0.0000000001
12
0.0616600254
22
0.0027219451
32
0.0000000000
13
0.0612650701
23
0.0074519145
33
0.0000000000
40
0.0000000000
40
0.0000000000
40
0.0000000000
40
0.0000000000
40
0.5991729697
40
1.0000000000
40
1.0000000000
40
1.0000000000
40
1.0000000000
10
-114.9602188422
20
-188.7871183203
30
0.0000000000
10
-114.9479038354
20
-188.7865746817
30
0.0000000000
10
-114.9273814618
20
-188.7850626546
30
0.0000000000
10
-114.9069257641
20
-188.7828509941
30
0.0000000000
10
-114.8987401987
20
-188.7818553512
30
0.0000000000
11
-114.9602188422
21
-188.7871183203
31
0.0000000000
11
-114.9233348695
21
-188.7845115760
31
0.0000000000
11
-114.8987401987
21
-188.7818553512
31
0.0000000000
0
SPLINE
5
3F9
100
AcDbEntity
8
0
100
AcDbSpline
62
7
6
CONTINUOUS
70
0
71
3
72
8
73
4
74
2
42
0.0000001000
43
0.0000001000
44
0.0000000001
12
0.0121258853
22
0.0006742997
32
0.0000000000
13
0.0121403917
23
0.0004857074
33
0.0000000000
40
0.0000000000
40
0.0000000000
40
0.0000000000
40
0.0000000000
40
1.0000000000
40
1.0000000000
40
1.0000000000
40
1.0000000000
10
-115.3052953996
20
-188.4561915476
30
0.0000000000
10
-115.3012534379
20
-188.4559667810
30
0.0000000000
10
-115.2972090914
20
-188.4557731081
30
0.0000000000
10
-115.2931622941
20
-188.4556112056
30
0.0000000000
11
-115.3052953996
21
-188.4561915476
31
0.0000000000
11
-115.2931622941
21
-188.4556112056
31
0.0000000000
0
SPLINE
5
3FA
100
AcDbEntity
8
0
100
AcDbSpline
62
7
6
CONTINUOUS
70
0
71
3
72
8
73
4
74
2
42
0.0000001000
43
0.0000001000
44
0.0000000001
12
0.0226721203
22
0.0009070561
32
0.0000000000
13
0.0227246917
23
0.0002290275
33
0.0000000000
40
0.0000000000
40
0.0000000000
40
0.0000000000
40
0.0000000000
40
1.0000000000
40
1.0000000000
40
1.0000000000
40
1.0000000000
10
-115.2931622941
20
-188.4556112056
30
0.0000000000
10
-115.2856049207
20
-188.4553088536
30
0.0000000000
10
-115.2780390003
20
-188.4551173023
30
0.0000000000
10
-115.2704641030
20
-188.4550409598
30
0.0000000000
11
-115.2931622941
21
-188.4556112056
31
0.0000000000
11
-115.2704641030
21
-188.4550409598
31
0.0000000000
0
SPLINE
5
3FB
100
AcDbEntity
8
0
100
AcDbSpline
62
7
6
CONTINUOUS
70
0
71
3
72
11
73
7
74
5
42
0.0000001000
43
0.0000001000
44
0.0000000001
12
0.1625355335
22
0.0016380908
32
0.0000000000
13
0.1430045884
23
-0.0452983136
33
0.0000000000
40
0.0000000000
40
0.0000000000
40
0.0000000000
40
0.0000000000
40
0.3921400466
40
0.7167710143
40
0.9507098624
40
1.0000000000
40
1.0000000000
40
1.0000000000
40
1.0000000000
10
-115.2704641030
20
-188.4550409598
30
0.0000000000
10
-115.2492185392
20
-188.4548268394
30
0.0000000000
10
-115.2102558767
20
-188.4560920240
30
0.0000000000
10
-115.1598886549
20
-188.4614284289
30
0.0000000000
10
-115.1262150786
20
-188.4701094537
30
0.0000000000
10
-115.1130464198
20
-188.4735691782
30
0.0000000000
10
-115.1106968479
20
-188.4743134316
30
0.0000000000
11
-115.2704641030
21
-188.4550409598
31
0.0000000000
11
-115.2068822498
21
-188.4570367141
31
0.0000000000
11
-115.1546276414
21
-188.4635729214
31
0.0000000000
11
-115.1177062467
21
-188.4723472694
31
0.0000000000
11
-115.1106968479
21
-188.4743134316
31
0.0000000000
0
SPLINE
5
3FC
100
AcDbEntity
8
0
100
AcDbSpline
62
7
6
CONTINUOUS
70
0
71
3
72
9
73
5
74
3
42
0.0000001000
43
0.0000001000
44
0.0000000001
12
0.0148819146
22
-0.0047140140
32
0.0000000000
13
0.0133048910
23
-0.0072041476
33
0.0000000000
40
0.0000000000
40
0.0000000000
40
0.0000000000
40
0.0000000000
40
0.8019985287
40
1.0000000000
40
1.0000000000
40
1.0000000000
40
1.0000000000
10
-115.1106968479
20
-188.4743134316
30
0.0000000000
10
-115.1067184233
20
-188.4755736424
30
0.0000000000
10
-115.1015510106
20
-188.4776531966
30
0.0000000000
10
-115.0951128447
20
-188.4815731941
30
0.0000000000
10
-115.0942347153
20
-188.4820486714
30
0.0000000000
11
-115.1106968479
21
-188.4743134316
31
0.0000000000
11
-115.0976125580
21
-188.4800930174
31
0.0000000000
11
-115.0942347153
21
-188.4820486714
31
0.0000000000
0
SPLINE
5
3FD
100
AcDbEntity
8
0
100
AcDbSpline
62
7
6
CONTINUOUS
70
0
71
3
72
10
73
6
74
4
42
0.0000001000
43
0.0000001000
44
0.0000000001
12
0.6103837428
22
-0.0337146206
32
0.0000000000
13
0.6103824095
23
0.0337146639
33
0.0000000000
40
0.0000000000
40
0.0000000000
40
0.0000000000
40
0.0000000000
40
0.3162379388
40
0.6798529955
40
1.0000000000
40
1.0000000000
40
1.0000000000
40
1.0000000000
10
-115.9163249485
20
-188.4562082461
30
0.0000000000
10
-115.8519827829
20
-188.4597621934
30
0.0000000000
10
-115.7135137119
20
-188.4649893648
30
0.0000000000
10
-115.5096989513
20
-188.4650332944
30
0.0000000000
10
-115.3704319811
20
-188.4598061510
30
0.0000000000
10
-115.3052946144
20
-188.4562082681
30
0.0000000000
11
-115.9163249485
21
-188.4562082461
31
0.0000000000
11
-115.7231426910
21
-188.4635005541
31
0.0000000000
11
-115.5008660556
21
-188.4635484927
31
0.0000000000
11
-115.3052946144
21
-188.4562082681
31
0.0000000000
0
SPLINE
5
3FE
100
AcDbEntity
8
0
100
AcDbSpline
62
7
6
CONTINUOUS
70
0
71
3
72
9
73
5
74
3
42
0.0000001000
43
0.0000001000
44
0.0000000001
12
0.0152042181
22
0.0087117897
32
0.0000000000
13
0.0143642103
23
0.0045149261
33
0.0000000000
40
0.0000000000
40
0.0000000000
40
0.0000000000
40
0.0000000000
40
0.1424866664
40
1.0000000000
40
1.0000000000
40
1.0000000000
40
1.0000000000
10
-116.1267378807
20
-188.4816603707
30
0.0000000000
10
-116.1260157480
20
-188.4812465994
30
0.0000000000
10
-116.1199476996
20
-188.4776099734
30
0.0000000000
10
-116.1150134494
20
-188.4756582231
30
0.0000000000
10
-116.1109076154
20
-188.4743676867
30
0.0000000000
11
-116.1267378807
21
-188.4816603707
31
0.0000000000
11
-116.1243095349
21
-188.4802444651
31
0.0000000000
11
-116.1109076154
21
-188.4743676867
31
0.0000000000
0
SPLINE
5
3FF
100
AcDbEntity
8
0
100
AcDbSpline
62
7
6
CONTINUOUS
70
0
71
3
72
11
73
7
74
5
42
0.0000001000
43
0.0000001000
44
0.0000000001
12
0.1401325979
22
0.0440425303
32
0.0000000000
13
0.1595286702
23
-0.0010276725
33
0.0000000000
40
0.0000000000
40
0.0000000000
40
0.0000000000
40
0.0000000000
40
0.0438216188
40
0.2774879323
40
0.6034667719
40
1.0000000000
40
1.0000000000
40
1.0000000000
40
1.0000000000
10
-116.1109057090
20
-188.4743670875
30
0.0000000000
10
-116.1088587633
20
-188.4737237491
30
0.0000000000
10
-116.0960941781
20
-188.4702527646
30
0.0000000000
10
-116.0633946166
20
-188.4617573579
30
0.0000000000
10
-116.0136544877
20
-188.4562536965
30
0.0000000000
10
-115.9751181225
20
-188.4548751011
30
0.0000000000
10
-115.9540319830
20
-188.4550109365
30
0.0000000000
11
-116.1109057090
21
-188.4743670875
31
0.0000000000
11
-116.1047704817
21
-188.4726165966
31
0.0000000000
11
-116.0686080444
21
-188.4638687902
31
0.0000000000
11
-116.0171310230
21
-188.4572257138
31
0.0000000000
11
-115.9540319830
21
-188.4550109365
31
0.0000000000
0
SPLINE
5
400
100
AcDbEntity
8
0
100
AcDbSpline
62
7
6
CONTINUOUS
70
0
71
3
72
8
73
4
74
2
42
0.0000001000
43
0.0000001000
44
0.0000000001
12
0.0377751027
22
-0.0002433446
32
0.0000000000
13
0.0376420626
23
-0.0020944388
33
0.0000000000
40
0.0000000000
40
0.0000000000
40
0.0000000000
40
0.0000000000
40
1.0000000000
40
1.0000000000
40
1.0000000000
40
1.0000000000
10
-115.9540319830
20
-188.4550109365
30
0.0000000000
10
-115.9414402821
20
-188.4550920514
30
0.0000000000
10
-115.9288712641
20
-188.4554914069
30
0.0000000000
10
-115.9163239100
20
-188.4561895531
30
0.0000000000
11
-115.9540319830
21
-188.4550109365
31
0.0000000000
11
-115.9163239100
21
-188.4561895531
31
0.0000000000
0
SPLINE
5
401
100
AcDbEntity
8
0
100
AcDbSpline
62
7
6
CONTINUOUS
70
0
71
3
72
9
73
5
74
3
42
0.0000001000
43
0.0000001000
44
0.0000000001
12
0.0603938318
22
-0.0073448720
32
0.0000000000
13
0.0607785955
23
-0.0027725077
33
0.0000000000
40
0.0000000000
40
0.0000000000
40
0.0000000000
40
0.0000000000
40
0.3869911088
40
1.0000000000
40
1.0000000000
40
1.0000000000
40
1.0000000000
10
-116.3228792536
20
-188.7818556153
30
0.0000000000
10
-116.3150886283
20
-188.7828030820
30
0.0000000000
10
-116.2949254265
20
-188.7849954776
30
0.0000000000
10
-116.2746970810
20
-188.7865125280
30
0.0000000000
10
-116.2622778078
20
-188.7870790519
30
0.0000000000
11
-116.3228792536
21
-188.7818556153
31
0.0000000000
11
-116.2994729126
21
-188.7843988161
31
0.0000000000
11
-116.2622778078
21
-188.7870790519
31
0.0000000000
0
SPLINE
5
402
100
AcDbEntity
8
0
100
AcDbSpline
62
7
6
CONTINUOUS
70
0
71
3
72
9
73
5
74
3
42
0.0000001000
43
0.0000001000
44
0.0000000001
12
0.0564442669
22
-0.0025747907
32
0.0000000000
13
0.0559810452
23
0.0080425123
33
0.0000000000
40
0.0000000000
40
0.0000000000
40
0.0000000000
40
0.0000000000
40
0.5438656546
40
1.0000000000
40
1.0000000000
40
1.0000000000
40
1.0000000000
10
-116.2622778078
20
-188.7870790519
30
0.0000000000
10
-116.2520451084
20
-188.7875458320
30
0.0000000000
10
-116.2332064896
20
-188.7879504352
30
0.0000000000
10
-116.2143723133
20
-188.7867757145
30
0.0000000000
10
-116.2058606875
20
-188.7855528925
30
0.0000000000
11
-116.2622778078
21
-188.7870790519
31
0.0000000000
11
-116.2315550670
21
-188.7875187836
31
0.0000000000
11
-116.2058606875
21
-188.7855528925
31
0.0000000000
0
SPLINE
5
403
100
AcDbEntity
8
0
100
AcDbSpline
62
7
6
CONTINUOUS
70
0
71
3
72
8
73
4
74
2
42
0.0000001000
43
0.0000001000
44
0.0000000001
12
0.0253563285
22
0.0036428149
32
0.0000000000
13
0.0242042291
23
0.0084543714
33
0.0000000000
40
0.0000000000
40
0.0000000000
40
0.0000000000
40
0.0000000000
40
1.0000000000
40
1.0000000000
40
1.0000000000
40
1.0000000000
10
-116.2058606875
20
-188.7855528925
30
0.0000000000
10
-116.1974085780
20
-188.7843386208
30
0.0000000000
10
-116.1890346525
20
-188.7824469314
30
0.0000000000
10
-116.1809665761
20
-188.7796288076
30
0.0000000000
11
-116.2058606875
21
-188.7855528925
31
0.0000000000
11
-116.1809665761
21
-188.7796288076
31
0.0000000000
0
SPLINE
5
404
100
AcDbEntity
8
0
100
AcDbSpline
62
7
6
CONTINUOUS
70
0
71
3
72
11
73
7
74
5
42
0.0000001000
43
0.0000001000
44
0.0000000001
12
0.1097795045
22
0.0383452287
32
0.0000000000
13
0.0129853403
23
0.1160160106
33
0.0000000000
40
0.0000000000
40
0.0000000000
40
0.0000000000
40
0.0000000000
40
0.2448027718
40
0.5034455926
40
0.7877064745
40
1.0000000000
40
1.0000000000
40
1.0000000000
40
1.0000000000
10
-116.1809665761
20
-188.7796288076
30
0.0000000000
10
-116.1720084671
20
-188.7764998016
30
0.0000000000
10
-116.1543612165
20
-188.7677161028
30
0.0000000000
10
-116.1315930674
20
-188.7468024874
30
0.0000000000
10
-116.1168499374
20
-188.7210155552
30
0.0000000000
10
-116.1123672310
20
-188.7020023703
30
0.0000000000
10
-116.1114483298
20
-188.6937925543
30
0.0000000000
11
-116.1809665761
21
-188.7796288076
31
0.0000000000
11
-116.1555782573
21
-188.7668740017
31
0.0000000000
11
-116.1334895989
21
-188.7465466815
31
0.0000000000
11
-116.1171527598
21
-188.7178837630
31
0.0000000000
11
-116.1114483298
21
-188.6937925543
31
0.0000000000
0
SPLINE
5
405
100
AcDbEntity
8
0
100
AcDbSpline
62
7
6
CONTINUOUS
70
0
71
3
72
8
73
4
74
2
42
0.0000001000
43
0.0000001000
44
0.0000000001
12
0.0012512757
22
0.0111793772
32
0.0000000000
13
0.0000054201
23
0.0111967750
33
0.0000000000
40
0.0000000000
40
0.0000000000
40
0.0000000000
40
0.0000000000
40
1.0000000000
40
1.0000000000
40
1.0000000000
40
1.0000000000
10
-116.1114483298
20
-188.6937925543
30
0.0000000000
10
-116.1110312379
20
-188.6900660952
30
0.0000000000
10
-116.1108196804
20
-188.6863229382
30
0.0000000000
10
-116.1108178736
20
-188.6825906799
30
0.0000000000
11
-116.1114483298
21
-188.6937925543
31
0.0000000000
11
-116.1108178736
21
-188.6825906799
31
0.0000000000
0
SPLINE
5
406
100
AcDbEntity
8
0
100
AcDbSpline
62
7
6
CONTINUOUS
70
0
71
3
72
10
73
6
74
4
42
0.0000001000
43
0.0000001000
44
0.0000000001
12
1.0911208316
22
-0.3562194201
32
0.0000000000
13
1.1394011973
23
-0.1385349433
33
0.0000000000
40
0.0000000000
40
0.0000000000
40
0.0000000000
40
0.0000000000
40
0.3242092501
40
0.6736871094
40
1.0000000000
40
1.0000000000
40
1.0000000000
40
1.0000000000
10
-117.4418451472
20
-188.5336546624
30
0.0000000000
10
-117.3239279917
20
-188.5721512061
30
0.0000000000
10
-117.0763081435
20
-188.6444368511
30
0.0000000000
10
-116.7025630315
20
-188.7274178437
30
0.0000000000
10
-116.4468128169
20
-188.7667853689
30
0.0000000000
10
-116.3228790508
20
-188.7818539482
30
0.0000000000
11
-117.4418451472
21
-188.5336546624
31
0.0000000000
11
-117.0846306874
21
-188.6379314346
31
0.0000000000
11
-116.6930556768
21
-188.7248712218
31
0.0000000000
11
-116.3228790508
21
-188.7818539482
31
0.0000000000
0
SPLINE
5
407
100
AcDbEntity
8
0
100
AcDbSpline
62
7
6
CONTINUOUS
70
0
71
3
72
8
73
4
74
2
42
0.0000001000
43
0.0000001000
44
0.0000000001
12
-0.0000338558
22
-0.0001072465
32
0.0000000000
13
0.0041573908
23
-0.0006697597
33
0.0000000000
40
0.0000000000
40
0.0000000000
40
0.0000000000
40
0.0000000000
40
1.0000000000
40
1.0000000000
40
1.0000000000
40
1.0000000000
10
-117.7128859652
20
-188.4547186424
30
0.0000000000
10
-117.7128972504
20
-188.4547543913
30
0.0000000000
10
-117.7116917619
20
-188.4549481198
30
0.0000000000
10
-117.7103059650
20
-188.4551713731
30
0.0000000000
11
-117.7128859652
21
-188.4547186424
31
0.0000000000
11
-117.7103059650
21
-188.4551713731
31
0.0000000000
0
SPLINE
5
408
100
AcDbEntity
8
0
100
AcDbSpline
62
7
6
CONTINUOUS
70
0
71
3
72
11
73
7
74
5
42
0.0000001000
43
0.0000001000
44
0.0000000001
12
0.0393958245
22
-0.0063467055
32
0.0000000000
13
0.0252524804
23
-0.0062307611
33
0.0000000000
40
0.0000000000
40
0.0000000000
40
0.0000000000
40
0.0000000000
40
0.0437461441
40
0.3811931805
40
0.8487327780
40
1.0000000000
40
1.0000000000
40
1.0000000000
40
1.0000000000
10
-117.7103059650
20
-188.4551713731
30
0.0000000000
10
-117.7097314932
20
-188.4552639210
30
0.0000000000
10
-117.7044556892
20
-188.4561145721
30
0.0000000000
10
-117.6999531384
20
-188.4573192910
30
0.0000000000
10
-117.6910561517
20
-188.4593059927
30
0.0000000000
10
-117.6857686751
20
-188.4605890190
30
0.0000000000
10
-117.6844953842
20
-188.4609031889
30
0.0000000000
11
-117.7103059650
21
-188.4551713731
31
0.0000000000
11
-117.7085634290
21
-188.4554550872
31
0.0000000000
11
-117.7000776027
21
-188.4572277337
31
0.0000000000
11
-117.6883818000
21
-188.4599615925
31
0.0000000000
11
-117.6844953842
21
-188.4609031889
31
0.0000000000
0
SPLINE
5
409
100
AcDbEntity
8
0
100
AcDbSpline
62
7
6
CONTINUOUS
70
0
71
3
72
18
73
14
74
12
42
0.0000001000
43
0.0000001000
44
0.0000000001
12
0.2491589938
22
-0.0614771357
32
0.0000000000
13
0.2409641088
23
-0.0786527442
33
0.0000000000
40
0.0000000000
40
0.0000000000
40
0.0000000000
40
0.0000000000
40
0.0441584266
40
0.1147243445
40
0.1955767258
40
0.2863024203
40
0.3862697342
40
0.4948207329
40
0.6111644276
40
0.7344498212
40
0.8637745550
40
0.9980510664
40
1.0000000000
40
1.0000000000
40
1.0000000000
40
1.0000000000
10
-117.6844953842
20
-188.4609031889
30
0.0000000000
10
-117.6808278945
20
-188.4618081001
30
0.0000000000
10
-117.6717142151
20
-188.4641705938
30
0.0000000000
10
-117.6555808459
20
-188.4684387383
30
0.0000000000
10
-117.6359229857
20
-188.4738968397
30
0.0000000000
10
-117.6138476712
20
-188.4802162182
30
0.0000000000
10
-117.5895951871
20
-188.4873437048
30
0.0000000000
10
-117.5633096393
20
-188.4952542809
30
0.0000000000
10
-117.5351895399
20
-188.5038959288
30
0.0000000000
10
-117.5054383645
20
-188.5132059540
30
0.0000000000
10
-117.4742898420
20
-188.5231220622
30
0.0000000000
10
-117.4529426324
20
-188.5300293983
30
0.0000000000
10
-117.4420006888
20
-188.5336005039
30
0.0000000000
10
-117.4418441478
20
-188.5336516002
30
0.0000000000
11
-117.6844953842
21
-188.4609031889
31
0.0000000000
11
-117.6737601556
21
-188.4636477064
31
0.0000000000
11
-117.6564724282
21
-188.4682378438
31
0.0000000000
11
-117.6367202363
21
-188.4737021459
31
0.0000000000
11
-117.6146097293
21
-188.4800247334
31
0.0000000000
11
-117.5902972277
21
-188.4871647652
31
0.0000000000
11
-117.5639480221
21
-188.4950890925
31
0.0000000000
11
-117.5357573189
21
-188.5037470306
31
0.0000000000
11
-117.5059329292
21
-188.5130774438
31
0.0000000000
11
-117.4746962609
21
-188.5230193121
31
0.0000000000
11
-117.4423137764
21
-188.5334983282
31
0.0000000000
11
-117.4418441478
21
-188.5336516002
31
0.0000000000
0
SPLINE
5
40A
100
AcDbEntity
8
0
100
AcDbSpline
62
7
6
CONTINUOUS
70
0
71
3
72
8
73
4
74
2
42
0.0000001000
43
0.0000001000
44
0.0000000001
12
-0.0000338947
22
-0.0001160309
32
0.0000000000
13
0.0042056179
23
-0.0006729367
33
0.0000000000
40
0.0000000000
40
0.0000000000
40
0.0000000000
40
0.0000000000
40
1.0000000000
40
1.0000000000
40
1.0000000000
40
1.0000000000
10
-117.7128804629
20
-188.4547294451
30
0.0000000000
10
-117.7128917612
20
-188.4547681221
30
0.0000000000
10
-117.7117096670
20
-188.4549587655
30
0.0000000000
10
-117.7103077944
20
-188.4551830778
30
0.0000000000
11
-117.7128804629
21
-188.4547294451
31
0.0000000000
11
-117.7103077944
21
-188.4551830778
31
0.0000000000
0
SPLINE
5
40B
100
AcDbEntity
8
0
100
AcDbSpline
62
7
6
CONTINUOUS
70
0
71
3
72
17
73
13
74
11
42
0.0000001000
43
0.0000001000
44
0.0000000001
12
0.2509708435
22
-0.0616478837
32
0.0000000000
13
0.2409606472
23
-0.0786734263
33
0.0000000000
40
0.0000000000
40
0.0000000000
40
0.0000000000
40
0.0000000000
40
0.0479700867
40
0.1192779108
40
0.2010034140
40
0.2926090716
40
0.3934274926
40
0.5028415426
40
0.6200107320
40
0.7441297324
40
0.8743023083
40
1.0000000000
40
1.0000000000
40
1.0000000000
40
1.0000000000
10
-117.6845031692
20
-188.4609046361
30
0.0000000000
10
-117.6804901381
20
-188.4618903875
30
0.0000000000
10
-117.6710436086
20
-188.4643435701
30
0.0000000000
10
-117.6544554645
20
-188.4687425843
30
0.0000000000
10
-117.6346028169
20
-188.4742728429
30
0.0000000000
10
-117.6123158340
20
-188.4806579082
30
0.0000000000
10
-117.5878570757
20
-188.4878606944
30
0.0000000000
10
-117.5613700272
20
-188.4958478389
30
0.0000000000
10
-117.5330483552
20
-188.5045601261
30
0.0000000000
10
-117.5030979775
20
-188.5139441680
30
0.0000000000
10
-117.4725074929
20
-188.5236933580
30
0.0000000000
10
-117.4519402188
20
-188.5303552663
30
0.0000000000
10
-117.4418441531
20
-188.5336516223
30
0.0000000000
11
-117.6845031692
21
-188.4609046361
31
0.0000000000
11
-117.6728276782
21
-188.4638890173
31
0.0000000000
11
-117.6553609172
21
-188.4685385312
31
0.0000000000
11
-117.6353990435
21
-188.4740758761
31
0.0000000000
11
-117.6130762231
21
-188.4804683113
31
0.0000000000
11
-117.5885599810
21
-188.4876813205
31
0.0000000000
11
-117.5620050187
21
-188.4956822573
31
0.0000000000
11
-117.5336169063
21
-188.5044113805
31
0.0000000000
11
-117.5035936476
21
-188.5138151056
31
0.0000000000
11
-117.4721553216
21
-188.5238333190
31
0.0000000000
11
-117.4418441531
21
-188.5336516223
31
0.0000000000
0
SPLINE
5
40C
100
AcDbEntity
8
0
100
AcDbSpline
62
7
6
CONTINUOUS
70
0
71
3
72
16
73
12
74
10
42
0.0000001000
43
0.0000001000
44
0.0000000001
12
0.2571082013
22
-0.0312732353
32
0.0000000000
13
0.0289956003
23
0.2588563033
33
0.0000000000
40
0.0000000000
40
0.0000000000
40
0.0000000000
40
0.0000000000
40
0.0957177787
40
0.2385228785
40
0.3560819468
40
0.4550440047
40
0.5535147798
40
0.6628920152
40
0.7781856162
40
0.9049357695
40
1.0000000000
40
1.0000000000
40
1.0000000000
40
1.0000000000
10
-116.3228792226
20
-188.7818553581
30
0.0000000000
10
-116.3146759473
20
-188.7828531597
30
0.0000000000
10
-116.2941997669
20
-188.7850664428
30
0.0000000000
10
-116.2635319412
20
-188.7873237928
30
0.0000000000
10
-116.2324996113
20
-188.7879372589
30
0.0000000000
10
-116.2053068544
20
-188.7861689450
30
0.0000000000
10
-116.1793262796
20
-188.7801947316
30
0.0000000000
10
-116.1540988020
20
-188.7675202710
30
0.0000000000
10
-116.1314942194
20
-188.7466411569
30
0.0000000000
10
-116.1168377170
20
-188.7209454148
30
0.0000000000
10
-116.1123698304
20
-188.7019949113
30
0.0000000000
10
-116.1114510156
20
-188.6937922529
30
0.0000000000
11
-116.3228792226
21
-188.7818553581
31
0.0000000000
11
-116.2982312599
21
-188.7845165966
31
0.0000000000
11
-116.2613390602
21
-188.7871210203
31
0.0000000000
11
-116.2308957039
21
-188.7875017166
31
0.0000000000
11
-116.2053462283
21
-188.7854787634
31
0.0000000000
11
-116.1805582154
21
-188.7794857008
31
0.0000000000
11
-116.1552926453
21
-188.7666771984
31
0.0000000000
11
-116.1333759797
21
-188.7463986171
31
0.0000000000
11
-116.1171501926
21
-188.7178631223
31
0.0000000000
11
-116.1114510156
21
-188.6937922529
31
0.0000000000
0
SPLINE
5
40D
100
AcDbEntity
8
0
100
AcDbSpline
62
7
6
CONTINUOUS
70
0
71
3
72
12
73
8
74
6
42
0.0000001000
43
0.0000001000
44
0.0000000001
12
0.1619099871
22
0.0512868116
32
0.0000000000
13
0.1836198709
23
-0.0070518447
33
0.0000000000
40
0.0000000000
40
0.0000000000
40
0.0000000000
40
0.0000000000
40
0.0435347811
40
0.2501577898
40
0.5368832645
40
0.8832351291
40
1.0000000000
40
1.0000000000
40
1.0000000000
40
1.0000000000
10
-116.1109225726
20
-188.4743134316
30
0.0000000000
10
-116.1085730007
20
-188.4735691782
30
0.0000000000
10
-116.0954043419
20
-188.4701094537
30
0.0000000000
10
-116.0617307656
20
-188.4614284289
30
0.0000000000
10
-116.0113635438
20
-188.4560920240
30
0.0000000000
10
-115.9652146026
20
-188.4545934886
30
0.0000000000
10
-115.9368383995
20
-188.4552883366
30
0.0000000000
10
-115.9296916159
20
-188.4555628058
30
0.0000000000
11
-116.1109225726
21
-188.4743134316
31
0.0000000000
11
-116.1039131738
21
-188.4723472694
31
0.0000000000
11
-116.0669917791
21
-188.4635729214
31
0.0000000000
11
-116.0147371707
21
-188.4570367141
31
0.0000000000
11
-115.9511553175
21
-188.4550409598
31
0.0000000000
11
-115.9296916159
21
-188.4555628058
31
0.0000000000
0
SPLINE
5
40E
100
AcDbEntity
8
0
100
AcDbSpline
62
7
6
CONTINUOUS
70
0
71
3
72
10
73
6
74
4
42
0.0000001000
43
0.0000001000
44
0.0000000001
12
0.6103822664
22
-0.0337146560
32
0.0000000000
13
0.6103836007
23
0.0337145969
33
0.0000000000
40
0.0000000000
40
0.0000000000
40
0.0000000000
40
0.0000000000
40
0.3201470795
40
0.6837622215
40
1.0000000000
40
1.0000000000
40
1.0000000000
40
1.0000000000
10
-115.9163248061
20
-188.4562082681
30
0.0000000000
10
-115.8511874394
20
-188.4598061510
30
0.0000000000
10
-115.7119204692
20
-188.4650332944
30
0.0000000000
10
-115.5081057565
20
-188.4649893648
30
0.0000000000
10
-115.3696367332
20
-188.4597621971
30
0.0000000000
10
-115.3052946152
20
-188.4562082540
30
0.0000000000
11
-115.9163248061
21
-188.4562082681
31
0.0000000000
11
-115.7207533649
21
-188.4635484927
31
0.0000000000
11
-115.4984767295
21
-188.4635005541
31
0.0000000000
11
-115.3052946152
21
-188.4562082540
31
0.0000000000
0
SPLINE
5
40F
100
AcDbEntity
8
0
100
AcDbSpline
62
7
6
CONTINUOUS
70
0
71
3
72
8
73
4
74
2
42
0.0000001000
43
0.0000001000
44
0.0000000001
12
0.0133593634
22
0.0007433272
32
0.0000000000
13
0.0133758724
23
0.0005149088
33
0.0000000000
40
0.0000000000
40
0.0000000000
40
0.0000000000
40
0.0000000000
40
1.0000000000
40
1.0000000000
40
1.0000000000
40
1.0000000000
10
-115.3052955105
20
-188.4561895531
30
0.0000000000
10
-115.3008423894
20
-188.4559417774
30
0.0000000000
10
-115.2963865396
20
-188.4557316367
30
0.0000000000
10
-115.2919279154
20
-188.4555600004
30
0.0000000000
11
-115.3052955105
21
-188.4561895531
31
0.0000000000
11
-115.2919279154
21
-188.4555600004
31
0.0000000000
0
SPLINE
5
410
100
AcDbEntity
8
0
100
AcDbSpline
62
9
6
CONTINUOUS
70
0
71
3
72
10
73
6
74
4
42
0.0000001000
43
0.0000001000
44
0.0000000001
12
0.0000000037
22
-0.0084211513
32
0.0000000000
13
-0.0000000024
23
-0.0084211513
33
0.0000000000
40
0.0000000000
40
0.0000000000
40
0.0000000000
40
0.0000000000
40
0.5552522622
40
0.8890061159
40
1.0000000000
40
1.0000000000
40
1.0000000000
40
1.0000000000
10
-113.4747938791
20
-188.4495076141
30
0.0000000000
10
-113.4747938784
20
-188.4510662353
30
0.0000000000
10
-113.4747938805
20
-188.4535617203
30
0.0000000000
10
-113.4747938790
20
-188.4563687707
30
0.0000000000
10
-113.4747938790
20
-188.4576172000
30
0.0000000000
10
-113.4747938791
20
-188.4579287655
30
0.0000000000
11
-113.4747938791
21
-188.4495076141
31
0.0000000000
11
-113.4747938797
21
-188.4541834775
31
0.0000000000
11
-113.4747938790
21
-188.4569940692
31
0.0000000000
11
-113.4747938791
21
-188.4579287655
31
0.0000000000
0
SPLINE
5
411
100
AcDbEntity
8
0
100
AcDbSpline
62
9
6
CONTINUOUS
70
0
71
3
72
11
73
7
74
5
42
0.0000001000
43
0.0000001000
44
0.0000000001
12
0.2347482178
22
0.0766424207
32
0.0000000000
13
0.2489078788
23
0.0675589159
33
0.0000000000
40
0.0000000000
40
0.0000000000
40
0.0000000000
40
0.0000000000
40
0.3504046771
40
0.6666687971
40
0.9304468631
40
1.0000000000
40
1.0000000000
40
1.0000000000
40
1.0000000000
10
-113.7799389979
20
-188.5331501086
30
0.0000000000
10
-113.7525200400
20
-188.5241981543
30
0.0000000000
10
-113.7004186428
20
-188.5075454048
30
0.0000000000
10
-113.6265360042
20
-188.4848324229
30
0.0000000000
10
-113.5766515576
20
-188.4707024204
30
0.0000000000
10
-113.5485903777
20
-188.4628351101
30
0.0000000000
10
-113.5428196032
20
-188.4612687986
30
0.0000000000
11
-113.7799389979
21
-188.5331501086
31
0.0000000000
11
-113.6975195961
21
-188.5067972566
31
0.0000000000
11
-113.6228188105
21
-188.4840096847
31
0.0000000000
11
-113.5601936459
21
-188.4660914576
31
0.0000000000
11
-113.5428196032
21
-188.4612687986
31
0.0000000000
0
SPLINE
5
412
100
AcDbEntity
8
0
100
AcDbSpline
62
9
6
CONTINUOUS
70
0
71
3
72
10
73
6
74
4
42
0.0000001000
43
0.0000001000
44
0.0000000001
12
0.0708811429
22
0.0192386565
32
0.0000000000
13
-0.0003549073
23
-0.0703206776
33
0.0000000000
40
0.0000000000
40
0.0000000000
40
0.0000000000
40
0.0000000000
40
0.4410278012
40
0.8596420268
40
1.0000000000
40
1.0000000000
40
1.0000000000
40
1.0000000000
10
-113.5428196032
20
-188.4612687986
30
0.0000000000
10
-113.5323994183
20
-188.4584405378
30
0.0000000000
10
-113.5126255855
20
-188.4534062235
30
0.0000000000
10
-113.4958302753
20
-188.4512924641
30
0.0000000000
10
-113.4747772744
20
-188.4462175916
30
0.0000000000
10
-113.4747938791
20
-188.4495076141
30
0.0000000000
11
-113.5428196032
21
-188.4612687986
31
0.0000000000
11
-113.5135144574
21
-188.4541217611
31
0.0000000000
11
-113.4846146096
21
-188.4485207136
31
0.0000000000
11
-113.4747938791
21
-188.4495076141
31
0.0000000000
0
SPLINE
5
413
100
AcDbEntity
8
0
100
AcDbSpline
62
9
6
CONTINUOUS
70
0
71
3
72
12
73
8
74
6
42
0.0000001000
43
0.0000001000
44
0.0000000001
12
1.1394044272
22
0.1385317330
32
0.0000000000
13
1.0911181987
23
0.3562226359
33
0.0000000000
40
0.0000000000
40
0.0000000000
40
0.0000000000
40
0.0000000000
40
0.1736997740
40
0.3668447149
40
0.5660151312
40
0.7736035241
40
1.0000000000
40
1.0000000000
40
1.0000000000
40
1.0000000000
10
-114.8988044332
20
-188.7813270277
30
0.0000000000
10
-114.8328330027
20
-188.7733060508
30
0.0000000000
10
-114.6937803190
20
-188.7540101612
30
0.0000000000
10
-114.4804293470
20
-188.7166009293
30
0.0000000000
10
-114.2559758273
20
-188.6683508143
30
0.0000000000
10
-114.0212821390
20
-188.6080945520
30
0.0000000000
10
-113.8622807695
20
-188.5600326250
30
0.0000000000
10
-113.7799389979
20
-188.5331501086
30
0.0000000000
11
-114.8988044332
21
-188.7813270277
31
0.0000000000
11
-114.7013250058
21
-188.7539232475
31
0.0000000000
11
-114.4829654678
21
-188.7156358269
31
0.0000000000
11
-114.2594644040
21
-188.6675905126
31
0.0000000000
11
-114.0286805465
21
-188.6083377104
31
0.0000000000
11
-113.7799389979
21
-188.5331501086
31
0.0000000000
0
SPLINE
5
414
100
AcDbEntity
8
0
100
AcDbSpline
62
9
6
CONTINUOUS
70
0
71
3
72
14
73
10
74
8
42
0.0000001000
43
0.0000001000
44
0.0000000001
12
0.0001275271
22
-0.1030417226
32
0.0000000000
13
0.1022885817
23
0.0124361939
33
0.0000000000
40
0.0000000000
40
0.0000000000
40
0.0000000000
40
0.0000000000
40
0.0475695937
40
0.1569696759
40
0.3115077117
40
0.4870765621
40
0.6663493256
40
0.8385288923
40
1.0000000000
40
1.0000000000
40
1.0000000000
40
1.0000000000
10
-115.0005194728
20
-188.7813270277
30
0.0000000000
10
-115.0005174506
20
-188.7829609120
30
0.0000000000
10
-114.9937189123
20
-188.7854098554
30
0.0000000000
10
-114.9843403614
20
-188.7861246682
30
0.0000000000
10
-114.9686526951
20
-188.7866436996
30
0.0000000000
10
-114.9513568446
20
-188.7860200964
30
0.0000000000
10
-114.9332355109
20
-188.7848640474
30
0.0000000000
10
-114.9157029113
20
-188.7832682178
30
0.0000000000
10
-114.9043099834
20
-188.7819963897
30
0.0000000000
10
-114.8988044332
20
-188.7813270277
30
0.0000000000
11
-115.0005194728
21
-188.7813270277
31
0.0000000000
11
-114.9965872133
21
-188.7842533860
31
0.0000000000
11
-114.9854459914
21
-188.7859705874
31
0.0000000000
11
-114.9695291781
21
-188.7864448576
31
0.0000000000
11
-114.9514452813
21
-188.7859404285
31
0.0000000000
11
-114.9330101550
21
-188.7847645695
31
0.0000000000
11
-114.9153400262
21
-188.7831726498
31
0.0000000000
11
-114.8988044332
21
-188.7813270277
31
0.0000000000
0
SPLINE
5
415
100
AcDbEntity
8
0
100
AcDbSpline
62
9
6
CONTINUOUS
70
0
71
3
72
12
73
8
74
6
42
0.0000001000
43
0.0000001000
44
0.0000000001
12
0.0000000955
22
-0.2481769191
32
0.0000000000
13
-0.0000000361
23
-0.2481769191
33
0.0000000000
40
0.0000000000
40
0.0000000000
40
0.0000000000
40
0.0000000000
40
0.3245288541
40
0.5733868835
40
0.7612770168
40
0.8998605882
40
1.0000000000
40
1.0000000000
40
1.0000000000
40
1.0000000000
10
-115.0005194728
20
-188.5331501086
30
0.0000000000
10
-115.0005194625
20
-188.5599969656
30
0.0000000000
10
-115.0005194818
20
-188.6074307624
30
0.0000000000
10
-115.0005194711
20
-188.6704078906
30
0.0000000000
10
-115.0005194718
20
-188.7180025763
30
0.0000000000
10
-115.0005194741
20
-188.7532944193
30
0.0000000000
10
-115.0005194716
20
-188.7730429308
30
0.0000000000
10
-115.0005194728
20
-188.7813270277
30
0.0000000000
11
-115.0005194728
21
-188.5331501086
31
0.0000000000
11
-115.0005194756
21
-188.6136906797
31
0.0000000000
11
-115.0005194724
21
-188.6754514988
31
0.0000000000
11
-115.0005194723
21
-188.7220814932
31
0.0000000000
11
-115.0005194730
21
-188.7564747370
31
0.0000000000
11
-115.0005194728
21
-188.7813270277
31
0.0000000000
0
SPLINE
5
416
100
AcDbEntity
8
0
100
AcDbSpline
62
9
6
CONTINUOUS
70
0
71
3
72
8
73
4
74
2
42
0.0000001000
43
0.0000001000
44
0.0000000001
12
0.0259648526
22
0.0014341561
32
0.0000000000
13
0.0260031346
23
0.0007031723
33
0.0000000000
40
0.0000000000
40
0.0000000000
40
0.0000000000
40
0.0000000000
40
1.0000000000
40
1.0000000000
40
1.0000000000
40
1.0000000000
10
-115.3056645915
20
-188.4495076141
30
0.0000000000
10
-115.2970096407
20
-188.4490295621
30
0.0000000000
10
-115.2883460847
20
-188.4486709317
30
0.0000000000
10
-115.2796783731
20
-188.4484365410
30
0.0000000000
11
-115.3056645915
21
-188.4495076141
31
0.0000000000
11
-115.2796783731
21
-188.4484365410
31
0.0000000000
0
SPLINE
5
417
100
AcDbEntity
8
0
100
AcDbSpline
62
9
6
CONTINUOUS
70
0
71
3
72
10
73
6
74
4
42
0.0000001000
43
0.0000001000
44
0.0000000001
12
0.1456857917
22
0.0039396099
32
0.0000000000
13
0.1438195669
23
-0.0241745223
33
0.0000000000
40
0.0000000000
40
0.0000000000
40
0.0000000000
40
0.0000000000
40
0.3486430920
40
0.8460685313
40
1.0000000000
40
1.0000000000
40
1.0000000000
40
1.0000000000
10
-115.2796783731
20
-188.4484365410
30
0.0000000000
10
-115.2627475915
20
-188.4479787017
30
0.0000000000
10
-115.2216223935
20
-188.4480179910
30
0.0000000000
10
-115.1731354481
20
-188.4516138660
30
0.0000000000
10
-115.1417921380
20
-188.4562027574
30
0.0000000000
10
-115.1344126857
20
-188.4574431640
30
0.0000000000
11
-115.2796783731
21
-188.4484365410
31
0.0000000000
11
-115.2288716241
21
-188.4485210184
31
0.0000000000
11
-115.1566198577
21
-188.4541593002
31
0.0000000000
11
-115.1344126857
21
-188.4574431640
31
0.0000000000
0
SPLINE
5
418
100
AcDbEntity
8
0
100
AcDbSpline
62
9
6
CONTINUOUS
70
0
71
3
72
8
73
4
74
2
42
0.0000001000
43
0.0000001000
44
0.0000000001
12
0.0237336029
22
-0.0039893634
32
0.0000000000
13
0.0234891810
23
-0.0051773087
33
0.0000000000
40
0.0000000000
40
0.0000000000
40
0.0000000000
40
0.0000000000
40
1.0000000000
40
1.0000000000
40
1.0000000000
40
1.0000000000
10
-115.1344126857
20
-188.4574431640
30
0.0000000000
10
-115.1265014847
20
-188.4587729518
30
0.0000000000
10
-115.1186221581
20
-188.4602819627
30
0.0000000000
10
-115.1107924312
20
-188.4620077323
30
0.0000000000
11
-115.1344126857
21
-188.4574431640
31
0.0000000000
11
-115.1107924312
21
-188.4620077323
31
0.0000000000
0
SPLINE
5
419
100
AcDbEntity
8
0
100
AcDbSpline
62
9
6
CONTINUOUS
70
0
71
3
72
8
73
4
74
2
42
0.0000001000
43
0.0000001000
44
0.0000000001
12
0.0172327122
22
-0.0037983049
32
0.0000000000
13
0.0170515376
23
-0.0045427719
33
0.0000000000
40
0.0000000000
40
0.0000000000
40
0.0000000000
40
0.0000000000
40
1.0000000000
40
1.0000000000
40
1.0000000000
40
1.0000000000
10
-115.1107924312
20
-188.4620077323
30
0.0000000000
10
-115.1050481938
20
-188.4632738339
30
0.0000000000
10
-115.0993306526
20
-188.4646566025
30
0.0000000000
10
-115.0936468067
20
-188.4661708598
30
0.0000000000
11
-115.1107924312
21
-188.4620077323
31
0.0000000000
11
-115.0936468067
21
-188.4661708598
31
0.0000000000
0
SPLINE
5
41A
100
AcDbEntity
8
0
100
AcDbSpline
62
9
6
CONTINUOUS
70
0
71
3
72
10
73
6
74
4
42
0.0000001000
43
0.0000001000
44
0.0000000001
12
0.1168063314
22
-0.0311188667
32
0.0000000000
13
-0.0000729979
23
-0.1208295183
33
0.0000000000
40
0.0000000000
40
0.0000000000
40
0.0000000000
40
0.0000000000
40
0.4363905819
40
0.7617294484
40
1.0000000000
40
1.0000000000
40
1.0000000000
40
1.0000000000
10
-115.0936468067
20
-188.4661708598
30
0.0000000000
10
-115.0766557457
20
-188.4706975200
30
0.0000000000
10
-115.0475230672
20
-188.4806499275
30
0.0000000000
10
-115.0123173948
20
-188.5014467506
30
0.0000000000
10
-115.0005136750
20
-188.5235534032
30
0.0000000000
10
-115.0005194728
20
-188.5331501086
30
0.0000000000
11
-115.0936468067
21
-188.4661708598
31
0.0000000000
11
-115.0440358050
21
-188.4840337432
31
0.0000000000
11
-115.0119305983
21
-188.5067179824
31
0.0000000000
11
-115.0005194728
21
-188.5331501086
31
0.0000000000
0
SPLINE
5
41B
100
AcDbEntity
8
0
100
AcDbSpline
62
9
6
CONTINUOUS
70
0
71
3
72
10
73
6
74
4
42
0.0000001000
43
0.0000001000
44
0.0000000001
12
0.6096363370
22
-0.0336737673
32
0.0000000000
13
0.6096363343
23
0.0336738160
33
0.0000000000
40
0.0000000000
40
0.0000000000
40
0.0000000000
40
0.0000000000
40
0.3328661760
40
0.6669943864
40
1.0000000000
40
1.0000000000
40
1.0000000000
40
1.0000000000
10
-115.9159548290
20
-188.4495076141
30
0.0000000000
10
-115.8483123902
20
-188.4532439002
30
0.0000000000
10
-115.7126198426
20
-188.4582414885
30
0.0000000000
10
-115.5090563516
20
-188.4582430495
30
0.0000000000
10
-115.3733353654
20
-188.4532454707
30
0.0000000000
10
-115.3056645915
20
-188.4495076141
30
0.0000000000
11
-115.9159548290
21
-188.4495076141
31
0.0000000000
11
-115.7128558784
21
-188.4569876182
31
0.0000000000
11
-115.5088486778
21
-188.4569891871
31
0.0000000000
11
-115.3056645915
21
-188.4495076141
31
0.0000000000
0
SPLINE
5
41C
100
AcDbEntity
8
0
100
AcDbSpline
62
9
6
CONTINUOUS
70
0
71
3
72
11
73
7
74
5
42
0.0000001000
43
0.0000001000
44
0.0000000001
12
0.0000256699
22
0.1384612527
32
0.0000000000
13
0.1352723955
23
0.0298191917
33
0.0000000000
40
0.0000000000
40
0.0000000000
40
0.0000000000
40
0.0000000000
40
0.2091032557
40
0.4931166190
40
0.8736295673
40
1.0000000000
40
1.0000000000
40
1.0000000000
40
1.0000000000
10
-116.2210999477
20
-188.5331501086
30
0.0000000000
10
-116.2210981585
20
-188.5234992090
30
0.0000000000
10
-116.2092089937
20
-188.5013503875
30
0.0000000000
10
-116.1739440850
20
-188.4805901998
30
0.0000000000
10
-116.1392762081
20
-188.4687626417
30
0.0000000000
10
-116.1165257170
20
-188.4632636084
30
0.0000000000
10
-116.1108275732
20
-188.4620075204
30
0.0000000000
11
-116.2210999477
21
-188.5331501086
31
0.0000000000
11
-116.2095737158
21
-188.5065906513
31
0.0000000000
11
-116.1774184628
21
-188.4839525578
31
0.0000000000
11
-116.1278364440
21
-188.4661348795
31
0.0000000000
11
-116.1108275732
21
-188.4620075204
31
0.0000000000
0
SPLINE
5
41D
100
AcDbEntity
8
0
100
AcDbSpline
62
9
6
CONTINUOUS
70
0
71
3
72
8
73
4
74
2
42
0.0000001000
43
0.0000001000
44
0.0000000001
12
0.0042859530
22
0.0009447874
32
0.0000000000
13
0.0042955310
23
0.0009021475
33
0.0000000000
40
0.0000000000
40
0.0000000000
40
0.0000000000
40
0.0000000000
40
1.0000000000
40
1.0000000000
40
1.0000000000
40
1.0000000000
10
-116.1108275732
20
-188.4620075204
30
0.0000000000
10
-116.1093989222
20
-188.4616925912
30
0.0000000000
10
-116.1079686212
20
-188.4613848829
30
0.0000000000
10
-116.1065367775
20
-188.4610841671
30
0.0000000000
11
-116.1108275732
21
-188.4620075204
31
0.0000000000
11
-116.1065367775
21
-188.4610841671
31
0.0000000000
0
SPLINE
5
41E
100
AcDbEntity
8
0
100
AcDbSpline
62
9
6
CONTINUOUS
70
0
71
3
72
8
73
4
74
2
42
0.0000001000
43
0.0000001000
44
0.0000000001
12
0.0193422573
22
0.0040622611
32
0.0000000000
13
0.0195005064
23
0.0032741333
33
0.0000000000
40
0.0000000000
40
0.0000000000
40
0.0000000000
40
0.0000000000
40
1.0000000000
40
1.0000000000
40
1.0000000000
40
1.0000000000
10
-116.1065367775
20
-188.4610841671
30
0.0000000000
10
-116.1000893584
20
-188.4597300801
30
0.0000000000
10
-116.0936106614
20
-188.4585177720
30
0.0000000000
10
-116.0871104926
20
-188.4574263943
30
0.0000000000
11
-116.1065367775
21
-188.4610841671
31
0.0000000000
11
-116.0871104926
21
-188.4574263943
31
0.0000000000
0
SPLINE
5
41F
100
AcDbEntity
8
0
100
AcDbSpline
62
9
6
CONTINUOUS
70
0
71
3
72
10
73
6
74
4
42
0.0000001000
43
0.0000001000
44
0.0000000001
12
0.1436554342
22
0.0241197344
32
0.0000000000
13
0.1455167566
23
-0.0039235326
33
0.0000000000
40
0.0000000000
40
0.0000000000
40
0.0000000000
40
0.0000000000
40
0.1538736103
40
0.6506453984
40
1.0000000000
40
1.0000000000
40
1.0000000000
40
1.0000000000
10
-116.0871104926
20
-188.4574263943
30
0.0000000000
10
-116.0797422325
20
-188.4561892641
30
0.0000000000
10
-116.0484693219
20
-188.4516151789
30
0.0000000000
10
-116.0000392125
20
-188.4480206628
30
0.0000000000
10
-115.9589590350
20
-188.4479781223
30
0.0000000000
10
-115.9420133855
20
-188.4484350237
30
0.0000000000
11
-116.0871104926
21
-188.4574263943
31
0.0000000000
11
-116.0649372263
21
-188.4541507989
31
0.0000000000
11
-115.9928645591
21
-188.4485244863
31
0.0000000000
11
-115.9420133855
21
-188.4484350237
31
0.0000000000
0
SPLINE
5
420
100
AcDbEntity
8
0
100
AcDbSpline
62
9
6
CONTINUOUS
70
0
71
3
72
8
73
4
74
2
42
0.0000001000
43
0.0000001000
44
0.0000000001
12
0.0260755307
22
-0.0007030681
32
0.0000000000
13
0.0260370964
23
-0.0014371509
33
0.0000000000
40
0.0000000000
40
0.0000000000
40
0.0000000000
40
0.0000000000
40
1.0000000000
40
1.0000000000
40
1.0000000000
40
1.0000000000
10
-115.9420133855
20
-188.4484350237
30
0.0000000000
10
-115.9333215419
20
-188.4486693797
30
0.0000000000
10
-115.9246338611
20
-188.4490285638
30
0.0000000000
10
-115.9159548290
20
-188.4495076141
30
0.0000000000
11
-115.9420133855
21
-188.4484350237
31
0.0000000000
11
-115.9159548290
21
-188.4495076141
31
0.0000000000
0
SPLINE
5
421
100
AcDbEntity
8
0
100
AcDbSpline
62
9
6
CONTINUOUS
70
0
71
3
72
12
73
8
74
6
42
0.0000001000
43
0.0000001000
44
0.0000000001
12
-0.0000000402
22
0.2481769191
32
0.0000000000
13
0.0000000830
23
0.2481769191
33
0.0000000000
40
0.0000000000
40
0.0000000000
40
0.0000000000
40
0.0000000000
40
0.1005484461
40
0.2392339420
40
0.4272491127
40
0.6764381929
40
1.0000000000
40
1.0000000000
40
1.0000000000
40
1.0000000000
10
-116.2210999477
20
-188.7813270277
30
0.0000000000
10
-116.2210999491
20
-188.7730090932
30
0.0000000000
10
-116.2210999460
20
-188.7532183123
30
0.0000000000
10
-116.2210999509
20
-188.7178738561
30
0.0000000000
10
-116.2210999468
20
-188.6702330084
30
0.0000000000
10
-116.2210999425
20
-188.6072981496
30
0.0000000000
10
-116.2210999567
20
-188.5599169660
30
0.0000000000
10
-116.2210999477
20
-188.5331501086
30
0.0000000000
11
-116.2210999477
21
-188.7813270277
31
0.0000000000
11
-116.2210999475
21
-188.7563732241
31
0.0000000000
11
-116.2210999492
21
-188.7219546850
31
0.0000000000
11
-116.2210999473
21
-188.6752936592
31
0.0000000000
11
-116.2210999462
21
-188.6134506810
31
0.0000000000
11
-116.2210999477
21
-188.5331501086
31
0.0000000000
0
SPLINE
5
422
100
AcDbEntity
8
0
100
AcDbSpline
62
9
6
CONTINUOUS
70
0
71
3
72
14
73
10
74
8
42
0.0000001000
43
0.0000001000
44
0.0000000001
12
0.1022860762
22
-0.0124369244
32
0.0000000000
13
-0.0002474778
23
0.1030391053
33
0.0000000000
40
0.0000000000
40
0.0000000000
40
0.0000000000
40
0.0000000000
40
0.1614060718
40
0.3347621391
40
0.5142394507
40
0.6893348921
40
0.8429827303
40
0.9520038950
40
1.0000000000
40
1.0000000000
40
1.0000000000
40
1.0000000000
10
-116.3228149873
20
-188.7813270277
30
0.0000000000
10
-116.3173117894
20
-188.7819961594
30
0.0000000000
10
-116.3058811263
20
-188.7832722104
30
0.0000000000
10
-116.2883041361
20
-188.7848708394
30
0.0000000000
10
-116.2701508375
20
-188.7860259284
30
0.0000000000
10
-116.2528975427
20
-188.7866415246
30
0.0000000000
10
-116.2372645451
20
-188.7861276224
30
0.0000000000
10
-116.2279315013
20
-188.7854023732
30
0.0000000000
10
-116.2210959884
20
-188.7829755196
30
0.0000000000
10
-116.2210999477
20
-188.7813270277
30
0.0000000000
11
-116.3228149873
21
-188.7813270277
31
0.0000000000
11
-116.3062864481
21
-188.7831719433
31
0.0000000000
11
-116.2884958750
21
-188.7847733849
31
0.0000000000
11
-116.2700399039
21
-188.7859467861
31
0.0000000000
11
-116.2520050562
21
-188.7864450611
31
0.0000000000
11
-116.2361803762
21
-188.7859709257
31
0.0000000000
11
-116.2250769321
21
-188.7842666648
31
0.0000000000
11
-116.2210999477
21
-188.7813270277
31
0.0000000000
0
SPLINE
5
423
100
AcDbEntity
8
0
100
AcDbSpline
62
9
6
CONTINUOUS
70
0
71
3
72
10
73
6
74
4
42
0.0000001000
43
0.0000001000
44
0.0000000001
12
0.0000000011
22
0.0084211513
32
0.0000000000
13
0.0000000040
23
0.0084211513
33
0.0000000000
40
0.0000000000
40
0.0000000000
40
0.0000000000
40
0.0000000000
40
0.1109954972
40
0.4447521893
40
1.0000000000
40
1.0000000000
40
1.0000000000
40
1.0000000000
10
-117.7468255414
20
-188.4579287655
30
0.0000000000
10
-117.7468255413
20
-188.4576171955
30
0.0000000000
10
-117.7468255411
20
-188.4563687537
30
0.0000000000
10
-117.7468255406
20
-188.4535617032
30
0.0000000000
10
-117.7468255421
20
-188.4510662228
30
0.0000000000
10
-117.7468255414
20
-188.4495076141
30
0.0000000000
11
-117.7468255414
21
-188.4579287655
31
0.0000000000
11
-117.7468255412
21
-188.4569940556
31
0.0000000000
11
-117.7468255410
21
-188.4541834400
31
0.0000000000
11
-117.7468255414
21
-188.4495076141
31
0.0000000000
0
SPLINE
5
424
100
AcDbEntity
8
0
100
AcDbSpline
62
9
6
CONTINUOUS
70
0
71
3
72
12
73
8
74
6
42
0.0000001000
43
0.0000001000
44
0.0000000001
12
1.0911187217
22
-0.3562227291
32
0.0000000000
13
1.1394049461
23
-0.1385318241
33
0.0000000000
40
0.0000000000
40
0.0000000000
40
0.0000000000
40
0.0000000000
40
0.2220767843
40
0.4263822369
40
0.6251590283
40
0.8222368415
40
1.0000000000
40
1.0000000000
40
1.0000000000
40
1.0000000000
10
-117.4416804227
20
-188.5331501086
30
0.0000000000
10
-117.3609097103
20
-188.5595197080
30
0.0000000000
10
-117.2047158647
20
-188.6068046529
30
0.0000000000
10
-116.9730571163
20
-188.6665682747
30
0.0000000000
10
-116.7485814451
20
-188.7151797356
30
0.0000000000
10
-116.5324071227
20
-188.7533455475
30
0.0000000000
10
-116.3903297280
20
-188.7731184095
30
0.0000000000
10
-116.3228149873
20
-188.7813270277
30
0.0000000000
11
-117.4416804227
21
-188.5331501086
31
0.0000000000
11
-117.1977158239
21
-188.6070056992
31
0.0000000000
11
-116.9706494341
21
-188.6655849170
31
0.0000000000
11
-116.7476630137
21
-188.7138738020
31
0.0000000000
11
-116.5249030691
21
-188.7532022738
31
0.0000000000
11
-116.3228149873
21
-188.7813270277
31
0.0000000000
0
SPLINE
5
425
100
AcDbEntity
8
0
100
AcDbSpline
62
9
6
CONTINUOUS
70
0
71
3
72
10
73
6
74
4
42
0.0000001000
43
0.0000001000
44
0.0000000001
12
-0.0000305523
22
0.0705416368
32
0.0000000000
13
0.0710873922
23
-0.0193144344
33
0.0000000000
40
0.0000000000
40
0.0000000000
40
0.0000000000
40
0.0000000000
40
0.1406318942
40
0.5591741542
40
1.0000000000
40
1.0000000000
40
1.0000000000
40
1.0000000000
10
-117.7468255414
20
-188.4495076141
30
0.0000000000
10
-117.7468269736
20
-188.4462008128
30
0.0000000000
10
-117.7257320788
20
-188.4513204459
30
0.0000000000
10
-117.7088576728
20
-188.4534323983
30
0.0000000000
10
-117.6890294289
20
-188.4584846906
30
0.0000000000
10
-117.6785837090
20
-188.4613227913
30
0.0000000000
11
-117.7468255414
21
-188.4495076141
31
0.0000000000
11
-117.7369537361
21
-188.4485268516
31
0.0000000000
11
-117.7079701343
21
-188.4541532450
31
0.0000000000
11
-117.6785837090
21
-188.4613227913
31
0.0000000000
0
SPLINE
5
426
100
AcDbEntity
8
0
100
AcDbSpline
62
9
6
CONTINUOUS
70
0
71
3
72
11
73
7
74
5
42
0.0000001000
43
0.0000001000
44
0.0000000001
12
0.2486304027
22
-0.0675528451
32
0.0000000000
13
0.2345404016
23
-0.0765660645
33
0.0000000000
40
0.0000000000
40
0.0000000000
40
0.0000000000
40
0.0000000000
40
0.0697732047
40
0.3340318270
40
0.6507837916
40
1.0000000000
40
1.0000000000
40
1.0000000000
40
1.0000000000
10
-117.6785837090
20
-188.4613227913
30
0.0000000000
10
-117.6728011290
20
-188.4628939174
30
0.0000000000
10
-117.6447148818
20
-188.4707770907
30
0.0000000000
10
-117.5947773122
20
-188.4849219939
30
0.0000000000
10
-117.5209826778
20
-188.5076146096
30
0.0000000000
10
-117.4689821926
20
-188.5242374050
30
0.0000000000
10
-117.4416804227
20
-188.5331501086
30
0.0000000000
11
-117.6785837090
21
-188.4613227913
31
0.0000000000
11
-117.6611748044
21
-188.4661600424
31
0.0000000000
11
-117.5984934386
21
-188.4841006952
31
0.0000000000
11
-117.5237459527
21
-188.5069078693
31
0.0000000000
11
-117.4416804227
21
-188.5331501086
31
0.0000000000
0
SPLINE
5
427
100
AcDbEntity
8
0
100
AcDbSpline
62
9
6
CONTINUOUS
70
0
71
3
72
9
73
5
74
3
42
0.0000001000
43
0.0000001000
44
0.0000000001
12
0.0385583277
22
-0.0148674323
32
0.0000000000
13
0.0415816152
23
0.0019562143
33
0.0000000000
40
0.0000000000
40
0.0000000000
40
0.0000000000
40
0.0000000000
40
0.9326375344
40
1.0000000000
40
1.0000000000
40
1.0000000000
40
1.0000000000
10
-117.7468224703
20
-188.4494996735
30
0.0000000000
10
-117.7348354890
20
-188.4541216486
30
0.0000000000
10
-117.7208678390
20
-188.4565928637
30
0.0000000000
10
-117.7069957693
20
-188.4561367665
30
0.0000000000
10
-117.7060620892
20
-188.4560928414
30
0.0000000000
11
-117.7468224703
21
-188.4494996735
31
0.0000000000
11
-117.7088651166
21
-188.4561849309
31
0.0000000000
11
-117.7060620892
21
-188.4560928414
31
0.0000000000
0
SPLINE
5
428
100
AcDbEntity
8
0
100
AcDbSpline
62
9
6
CONTINUOUS
70
0
71
3
72
11
73
7
74
5
42
0.0000001000
43
0.0000001000
44
0.0000000001
12
0.1364282044
22
-0.0140105337
32
0.0000000000
13
0.0395342535
23
0.1327328489
33
0.0000000000
40
0.0000000000
40
0.0000000000
40
0.0000000000
40
0.0000000000
40
0.3028818956
40
0.6052345461
40
0.9066924769
40
1.0000000000
40
1.0000000000
40
1.0000000000
40
1.0000000000
10
-116.2210999463
20
-188.7813270139
30
0.0000000000
10
-116.2073260686
20
-188.7827415263
30
0.0000000000
10
-116.1788661490
20
-188.7797689270
30
0.0000000000
10
-116.1419145057
20
-188.7585150698
30
0.0000000000
10
-116.1225189507
20
-188.7320800395
30
0.0000000000
10
-116.1161843042
20
-188.7149451842
30
0.0000000000
10
-116.1149546898
20
-188.7108168598
30
0.0000000000
11
-116.2210999463
21
-188.7813270139
31
0.0000000000
11
-116.1797914198
21
-188.7769577331
31
0.0000000000
11
-116.1438359281
21
-188.7563019166
31
0.0000000000
11
-116.1194385518
21
-188.7229242774
31
0.0000000000
11
-116.1149546898
21
-188.7108168598
31
0.0000000000
0
SPLINE
5
429
100
AcDbEntity
8
0
100
AcDbSpline
62
9
6
CONTINUOUS
70
0
71
3
72
8
73
4
74
2
42
0.0000001000
43
0.0000001000
44
0.0000000001
12
0.0033860998
22
0.0113685382
32
0.0000000000
13
0.0020145149
23
0.0116653788
33
0.0000000000
40
0.0000000000
40
0.0000000000
40
0.0000000000
40
0.0000000000
40
1.0000000000
40
1.0000000000
40
1.0000000000
40
1.0000000000
10
-116.1149546898
20
-188.7108168598
30
0.0000000000
10
-116.1138259898
20
-188.7070273471
30
0.0000000000
10
-116.1129228146
20
-188.7031718616
30
0.0000000000
10
-116.1122513097
20
-188.6992834020
30
0.0000000000
11
-116.1149546898
21
-188.7108168598
31
0.0000000000
11
-116.1122513097
21
-188.6992834020
31
0.0000000000
0
SPLINE
5
42A
100
AcDbEntity
8
0
100
AcDbSpline
62
9
6
CONTINUOUS
70
0
71
3
72
8
73
4
74
2
42
0.0000001000
43
0.0000001000
44
0.0000000001
12
0.0006855855
22
0.0039699952
32
0.0000000000
13
0.0005238670
23
0.0039890075
33
0.0000000000
40
0.0000000000
40
0.0000000000
40
0.0000000000
40
0.0000000000
40
1.0000000000
40
1.0000000000
40
1.0000000000
40
1.0000000000
10
-116.1122513097
20
-188.6992834020
30
0.0000000000
10
-116.1120227812
20
-188.6979600703
30
0.0000000000
10
-116.1118210847
20
-188.6966329195
30
0.0000000000
10
-116.1116464623
20
-188.6953032503
30
0.0000000000
11
-116.1122513097
21
-188.6992834020
31
0.0000000000
11
-116.1116464623
21
-188.6953032503
31
0.0000000000
0
SPLINE
5
42B
100
AcDbEntity
8
0
100
AcDbSpline
62
9
6
CONTINUOUS
70
0
71
3
72
8
73
4
74
2
42
0.0000001000
43
0.0000001000
44
0.0000000001
12
0.0016657154
22
0.0126836605
32
0.0000000000
13
0.0000000018
23
0.0127109900
33
0.0000000000
40
0.0000000000
40
0.0000000000
40
0.0000000000
40
0.0000000000
40
1.0000000000
40
1.0000000000
40
1.0000000000
40
1.0000000000
10
-116.1116464623
20
-188.6953032503
30
0.0000000000
10
-116.1110912239
20
-188.6910753635
30
0.0000000000
10
-116.1108097108
20
-188.6868220154
30
0.0000000000
10
-116.1108097103
20
-188.6825850187
30
0.0000000000
11
-116.1116464623
21
-188.6953032503
31
0.0000000000
11
-116.1108097103
21
-188.6825850187
31
0.0000000000
0
SPLINE
5
42C
100
AcDbEntity
8
0
100
AcDbSpline
62
9
6
CONTINUOUS
70
0
71
3
72
10
73
6
74
4
42
0.0000001000
43
0.0000001000
44
0.0000000001
12
0.1210365973
22
-0.0119148569
32
0.0000000000
13
0.0533106822
23
0.1105467502
33
0.0000000000
40
0.0000000000
40
0.0000000000
40
0.0000000000
40
0.0000000000
40
0.3413955304
40
0.6788235121
40
1.0000000000
40
1.0000000000
40
1.0000000000
40
1.0000000000
10
-116.2210994691
20
-188.5331457152
30
0.0000000000
10
-116.2073256847
20
-188.5345016081
30
0.0000000000
10
-116.1790845601
20
-188.5317003561
30
0.0000000000
10
-116.1425480678
20
-188.5117374910
30
0.0000000000
10
-116.1256369487
20
-188.4901062568
30
0.0000000000
10
-116.1199295695
20
-188.4782712512
30
0.0000000000
11
-116.2210994691
21
-188.5331457152
31
0.0000000000
11
-116.1797894019
21
-188.5289649736
31
0.0000000000
11
-116.1438316183
21
-188.5091862035
31
0.0000000000
11
-116.1199295695
21
-188.4782712512
31
0.0000000000
0
SPLINE
5
42D
100
AcDbEntity
8
0
100
AcDbSpline
62
9
6
CONTINUOUS
70
0
71
3
72
10
73
6
74
4
42
0.0000001000
43
0.0000001000
44
0.0000000001
12
-0.1210105791
22
-0.0119005592
32
0.0000000000
13
-0.0533247757
23
0.1105085263
33
0.0000000000
40
0.0000000000
40
0.0000000000
40
0.0000000000
40
0.0000000000
40
0.3414622253
40
0.6789559621
40
1.0000000000
40
1.0000000000
40
1.0000000000
40
1.0000000000
10
-115.0005194800
20
-188.5331500421
30
0.0000000000
10
-115.0142929939
20
-188.5345045726
30
0.0000000000
10
-115.0425329579
20
-188.5317010323
30
0.0000000000
10
-115.0790598899
20
-188.5117404023
30
0.0000000000
10
-115.0959667006
20
-188.4901181303
30
0.0000000000
10
-115.1016732344
20
-188.4782920958
30
0.0000000000
11
-115.0005194800
21
-188.5331500421
31
0.0000000000
11
-115.0418279916
21
-188.5289659283
31
0.0000000000
11
-115.0777834737
21
-188.5091854932
31
0.0000000000
11
-115.1016732344
21
-188.4782920958
31
0.0000000000
0
SPLINE
5
42E
100
AcDbEntity
8
0
100
AcDbSpline
62
9
6
CONTINUOUS
70
0
71
3
72
11
73
7
74
5
42
0.0000001000
43
0.0000001000
44
0.0000000001
12
-0.1647257712
22
-0.0169074676
32
0.0000000000
13
-0.0000024998
23
0.1655911898
33
0.0000000000
40
0.0000000000
40
0.0000000000
40
0.0000000000
40
0.0000000000
40
0.2508328946
40
0.5012304873
40
0.7508912799
40
1.0000000000
40
1.0000000000
40
1.0000000000
40
1.0000000000
10
-115.0005194829
20
-188.7813269302
30
0.0000000000
10
-115.0142923636
20
-188.7827405799
30
0.0000000000
10
-115.0427500678
20
-188.7797665965
30
0.0000000000
10
-115.0796981466
20
-188.7585121697
30
0.0000000000
10
-115.1048637243
20
-188.7242103683
30
0.0000000000
10
-115.1107999628
20
-188.6963350882
30
0.0000000000
10
-115.1108001704
20
-188.6825850184
30
0.0000000000
11
-115.0005194829
21
-188.7813269302
31
0.0000000000
11
-115.0418245485
21
-188.7769557309
31
0.0000000000
11
-115.0777766390
21
-188.7562994912
31
0.0000000000
11
-115.1021717458
21
-188.7229227187
31
0.0000000000
11
-115.1108001704
21
-188.6825850184
31
0.0000000000
0
SPLINE
5
42F
100
AcDbEntity
8
0
100
AcDbSpline
62
9
6
CONTINUOUS
70
0
71
3
72
9
73
5
74
3
42
0.0000001000
43
0.0000001000
44
0.0000000001
12
-0.0385822683
22
-0.0148726601
32
0.0000000000
13
-0.0416051680
23
0.0019714101
33
0.0000000000
40
0.0000000000
40
0.0000000000
40
0.0000000000
40
0.0000000000
40
0.9320597385
40
1.0000000000
40
1.0000000000
40
1.0000000000
40
1.0000000000
10
-113.4747938810
20
-188.4495076092
30
0.0000000000
10
-113.4867808740
20
-188.4541283451
30
0.0000000000
10
-113.5007568902
20
-188.4565998513
30
0.0000000000
10
-113.5146369860
20
-188.4561405911
30
0.0000000000
10
-113.5155792080
20
-188.4560959450
30
0.0000000000
11
-113.4747938810
21
-188.4495076092
31
0.0000000000
11
-113.5127505085
21
-188.4561894675
31
0.0000000000
11
-113.5155792080
21
-188.4560959450
31
0.0000000000
0
SPLINE
5
430
100
AcDbEntity
8
0
100
AcDbSpline
62
7
6
CONTINUOUS
70
0
71
3
72
8
73
4
74
2
42
0.0000001000
43
0.0000001000
44
0.0000000001
12
0.5419593887
22
0.0000000000
32
0.0000000000
13
0.4158158328
23
-0.3916126434
33
0.0000000000
40
0.0000000000
40
0.0000000000
40
0.0000000000
40
0.0000000000
40
1.0000000000
40
1.0000000000
40
1.0000000000
40
1.0000000000
10
290.3537921264
20
-144.3559355725
30
0.0000000000
10
290.5344452559
20
-144.3559355725
30
0.0000000000
10
290.6997721068
20
-144.4675807755
30
0.0000000000
10
290.8383773844
20
-144.5981183233
30
0.0000000000
11
290.3537921264
21
-144.3559355725
31
0.0000000000
11
290.8383773844
21
-144.5981183233
31
0.0000000000
0
SPLINE
5
431
100
AcDbEntity
8
0
100
AcDbSpline
62
7
6
CONTINUOUS
70
0
71
3
72
9
73
5
74
3
42
0.0000001000
43
0.0000001000
44
0.0000000001
12
0.4552134109
22
-0.4287170259
32
0.0000000000
13
0.3110419012
23
-0.5000366008
33
0.0000000000
40
0.0000000000
40
0.0000000000
40
0.0000000000
40
0.0000000000
40
0.0601583716
40
1.0000000000
40
1.0000000000
40
1.0000000000
40
1.0000000000
10
290.8383773844
20
-144.5981183233
30
0.0000000000
10
290.8475056836
20
-144.6067152960
30
0.0000000000
10
290.9973169112
20
-144.7509830744
30
0.0000000000
10
291.1142036471
20
-144.9105718910
30
0.0000000000
10
291.2116470228
20
-145.0672236287
30
0.0000000000
11
290.8383773844
21
-144.5981183233
31
0.0000000000
11
290.8654113278
21
-144.6241285725
31
0.0000000000
11
291.2116470228
21
-145.0672236287
31
0.0000000000
0
SPLINE
5
432
100
AcDbEntity
8
0
100
AcDbSpline
62
7
6
CONTINUOUS
70
0
71
3
72
8
73
4
74
2
42
0.0000001000
43
0.0000001000
44
0.0000000001
12
0.1250158609
22
-0.2009777651
32
0.0000000000
13
0.1153078245
23
-0.2066779450
33
0.0000000000
40
0.0000000000
40
0.0000000000
40
0.0000000000
40
0.0000000000
40
1.0000000000
40
1.0000000000
40
1.0000000000
40
1.0000000000
10
291.2116470228
20
-145.0672236287
30
0.0000000000
10
291.2533189764
20
-145.1342162171
30
0.0000000000
10
291.2927210003
20
-145.2024274781
30
0.0000000000
10
291.3311569418
20
-145.2713201264
30
0.0000000000
11
291.2116470228
21
-145.0672236287
31
0.0000000000
11
291.3311569418
21
-145.2713201264
31
0.0000000000
0
SPLINE
5
433
100
AcDbEntity
8
0
100
AcDbSpline
62
7
6
CONTINUOUS
70
0
71
3
72
8
73
4
74
2
42
0.0000001000
43
0.0000001000
44
0.0000000001
12
0.0468044683
22
-0.0838924103
32
0.0000000000
13
0.0461110237
23
-0.0844582124
33
0.0000000000
40
0.0000000000
40
0.0000000000
40
0.0000000000
40
0.0000000000
40
1.0000000000
40
1.0000000000
40
1.0000000000
40
1.0000000000
10
291.3311569418
20
-145.2713201264
30
0.0000000000
10
291.3467584313
20
-145.2992842632
30
0.0000000000
10
291.3622007470
20
-145.3273606667
30
0.0000000000
10
291.3775710883
20
-145.3555134042
30
0.0000000000
11
291.3311569418
21
-145.2713201264
31
0.0000000000
11
291.3775710883
21
-145.3555134042
31
0.0000000000
0
SPLINE
5
434
100
AcDbEntity
8
0
100
AcDbSpline
62
7
6
CONTINUOUS
70
0
71
3
72
8
73
4
74
2
42
0.0000001000
43
0.0000001000
44
0.0000000001
12
0.1714921840
22
-0.3141097752
32
0.0000000000
13
0.1660551828
23
-0.3193721333
33
0.0000000000
40
0.0000000000
40
0.0000000000
40
0.0000000000
40
0.0000000000
40
1.0000000000
40
1.0000000000
40
1.0000000000
40
1.0000000000
10
291.3775710883
20
-145.3555134042
30
0.0000000000
10
291.4347351496
20
-145.4602166626
30
0.0000000000
10
291.4909036730
20
-145.5659757583
30
0.0000000000
10
291.5462554006
20
-145.6724331360
30
0.0000000000
11
291.3775710883
21
-145.3555134042
31
0.0000000000
11
291.5462554006
21
-145.6724331360
31
0.0000000000
0
SPLINE
5
435
100
AcDbEntity
8
0
100
AcDbSpline
62
7
6
CONTINUOUS
70
0
71
3
72
8
73
4
74
2
42
0.0000001000
43
0.0000001000
44
0.0000000001
12
0.1739241176
22
-0.3345063704
32
0.0000000000
13
0.1691639944
23
-0.3378700504
33
0.0000000000
40
0.0000000000
40
0.0000000000
40
0.0000000000
40
0.0000000000
40
1.0000000000
40
1.0000000000
40
1.0000000000
40
1.0000000000
10
291.5462554006
20
-145.6724331360
30
0.0000000000
10
291.6042301064
20
-145.7839352595
30
0.0000000000
10
291.6613087705
20
-145.8962034128
30
0.0000000000
10
291.7176967687
20
-146.0088267629
30
0.0000000000
11
291.5462554006
21
-145.6724331360
31
0.0000000000
11
291.7176967687
21
-146.0088267629
31
0.0000000000
0
SPLINE
5
436
100
AcDbEntity
8
0
100
AcDbSpline
62
7
6
CONTINUOUS
70
0
71
3
72
8
73
4
74
2
42
0.0000001000
43
0.0000001000
44
0.0000000001
12
0.1734504680
22
-0.3464313939
32
0.0000000000
13
0.1697579609
23
-0.3473433639
33
0.0000000000
40
0.0000000000
40
0.0000000000
40
0.0000000000
40
0.0000000000
40
1.0000000000
40
1.0000000000
40
1.0000000000
40
1.0000000000
10
291.7176967687
20
-146.0088267629
30
0.0000000000
10
291.7755135913
20
-146.1243038942
30
0.0000000000
10
291.8326043028
20
-146.2401544512
30
0.0000000000
10
291.8891902897
20
-146.3559355725
30
0.0000000000
11
291.7176967687
21
-146.0088267629
31
0.0000000000
11
291.8891902897
21
-146.3559355725
31
0.0000000000
0
SPLINE
5
437
100
AcDbEntity
8
0
100
AcDbSpline
62
7
6
CONTINUOUS
70
0
71
3
72
8
73
4
74
2
42
0.0000001000
43
0.0000001000
44
0.0000000001
12
-0.5391957997
22
0.0000000000
32
0.0000000000
13
-0.4145079892
23
0.3890334385
33
0.0000000000
40
0.0000000000
40
0.0000000000
40
0.0000000000
40
0.0000000000
40
1.0000000000
40
1.0000000000
40
1.0000000000
40
1.0000000000
10
-306.5754115469
20
-184.3559355725
30
0.0000000000
10
-306.7551434801
20
-184.3559355725
30
0.0000000000
10
-306.9197050413
20
-184.2454260811
30
0.0000000000
10
-307.0578743711
20
-184.1157482683
30
0.0000000000
11
-306.5754115469
21
-184.3559355725
31
0.0000000000
11
-307.0578743711
21
-184.1157482683
31
0.0000000000
0
SPLINE
5
438
100
AcDbEntity
8
0
100
AcDbSpline
62
7
6
CONTINUOUS
70
0
71
3
72
9
73
5
74
3
42
0.0000001000
43
0.0000001000
44
0.0000000001
12
-0.4582319756
22
0.4300702658
32
0.0000000000
13
-0.3124907117
23
0.5023657348
33
0.0000000000
40
0.0000000000
40
0.0000000000
40
0.0000000000
40
0.0000000000
40
0.0645157888
40
1.0000000000
40
1.0000000000
40
1.0000000000
40
1.0000000000
10
-307.0578743711
20
-184.1157482683
30
0.0000000000
10
-307.0677287702
20
-184.1064994942
30
0.0000000000
10
-307.2183918818
20
-183.9616314236
30
0.0000000000
10
-307.3358230676
20
-183.8012992540
30
0.0000000000
10
-307.4332664433
20
-183.6446475163
30
0.0000000000
11
-307.0578743711
21
-184.1157482683
31
0.0000000000
11
-307.0870307483
21
-184.0877425725
31
0.0000000000
11
-307.4332664433
21
-183.6446475163
31
0.0000000000
0
SPLINE
5
439
100
AcDbEntity
8
0
100
AcDbSpline
62
7
6
CONTINUOUS
70
0
71
3
72
8
73
4
74
2
42
0.0000001000
43
0.0000001000
44
0.0000000001
12
-0.1250158609
22
0.2009777651
32
0.0000000000
13
-0.1153078245
23
0.2066779450
33
0.0000000000
40
0.0000000000
40
0.0000000000
40
0.0000000000
40
0.0000000000
40
1.0000000000
40
1.0000000000
40
1.0000000000
40
1.0000000000
10
-307.4332664433
20
-183.6446475163
30
0.0000000000
10
-307.4749383969
20
-183.5776549279
30
0.0000000000
10
-307.5143404208
20
-183.5094436669
30
0.0000000000
10
-307.5527763623
20
-183.4405510185
30
0.0000000000
11
-307.4332664433
21
-183.6446475163
31
0.0000000000
11
-307.5527763623
21
-183.4405510185
31
0.0000000000
0
SPLINE
5
43A
100
AcDbEntity
8
0
100
AcDbSpline
62
7
6
CONTINUOUS
70
0
71
3
72
8
73
4
74
2
42
0.0000001000
43
0.0000001000
44
0.0000000001
12
-0.0468044683
22
0.0838924103
32
0.0000000000
13
-0.0461110237
23
0.0844582124
33
0.0000000000
40
0.0000000000
40
0.0000000000
40
0.0000000000
40
0.0000000000
40
1.0000000000
40
1.0000000000
40
1.0000000000
40
1.0000000000
10
-307.5527763623
20
-183.4405510185
30
0.0000000000
10
-307.5683778518
20
-183.4125868818
30
0.0000000000
10
-307.5838201675
20
-183.3845104783
30
0.0000000000
10
-307.5991905088
20
-183.3563577408
30
0.0000000000
11
-307.5527763623
21
-183.4405510185
31
0.0000000000
11
-307.5991905088
21
-183.3563577408
31
0.0000000000
0
SPLINE
5
43B
100
AcDbEntity
8
0
100
AcDbSpline
62
7
6
CONTINUOUS
70
0
71
3
72
8
73
4
74
2
42
0.0000001000
43
0.0000001000
44
0.0000000001
12
-0.1714921840
22
0.3141097752
32
0.0000000000
13
-0.1660551828
23
0.3193721333
33
0.0000000000
40
0.0000000000
40
0.0000000000
40
0.0000000000
40
0.0000000000
40
1.0000000000
40
1.0000000000
40
1.0000000000
40
1.0000000000
10
-307.5991905088
20
-183.3563577408
30
0.0000000000
10
-307.6563545701
20
-183.2516544824
30
0.0000000000
10
-307.7125230935
20
-183.1458953867
30
0.0000000000
10
-307.7678748211
20
-183.0394380089
30
0.0000000000
11
-307.5991905088
21
-183.3563577408
31
0.0000000000
11
-307.7678748211
21
-183.0394380089
31
0.0000000000
0
SPLINE
5
43C
100
AcDbEntity
8
0
100
AcDbSpline
62
7
6
CONTINUOUS
70
0
71
3
72
8
73
4
74
2
42
0.0000001000
43
0.0000001000
44
0.0000000001
12
-0.1739241176
22
0.3345063704
32
0.0000000000
13
-0.1691639944
23
0.3378700504
33
0.0000000000
40
0.0000000000
40
0.0000000000
40
0.0000000000
40
0.0000000000
40
1.0000000000
40
1.0000000000
40
1.0000000000
40
1.0000000000
10
-307.7678748211
20
-183.0394380089
30
0.0000000000
10
-307.8258495269
20
-182.9279358855
30
0.0000000000
10
-307.8829281911
20
-182.8156677322
30
0.0000000000
10
-307.9393161892
20
-182.7030443821
30
0.0000000000
11
-307.7678748211
21
-183.0394380089
31
0.0000000000
11
-307.9393161892
21
-182.7030443821
31
0.0000000000
0
SPLINE
5
43D
100
AcDbEntity
8
0
100
AcDbSpline
62
7
6
CONTINUOUS
70
0
71
3
72
8
73
4
74
2
42
0.0000001000
43
0.0000001000
44
0.0000000001
12
-0.1734504680
22
0.3464313939
32
0.0000000000
13
-0.1697579609
23
0.3473433639
33
0.0000000000
40
0.0000000000
40
0.0000000000
40
0.0000000000
40
0.0000000000
40
1.0000000000
40
1.0000000000
40
1.0000000000
40
1.0000000000
10
-307.9393161892
20
-182.7030443821
30
0.0000000000
10
-307.9971330119
20
-182.5875672508
30
0.0000000000
10
-308.0542237233
20
-182.4717166938
30
0.0000000000
10
-308.1108097103
20
-182.3559355725
30
0.0000000000
11
-307.9393161892
21
-182.7030443821
31
0.0000000000
11
-308.1108097103
21
-182.3559355725
31
0.0000000000
0
SPLINE
5
43E
100
AcDbEntity
8
0
100
AcDbSpline
62
7
6
CONTINUOUS
70
0
71
3
72
8
73
4
74
2
42
0.0000001000
43
0.0000001000
44
0.0000000001
12
-0.3353207010
22
-0.6861028468
32
0.0000000000
13
-0.3522553263
23
-0.6774888515
33
0.0000000000
40
0.0000000000
40
0.0000000000
40
0.0000000000
40
0.0000000000
40
1.0000000000
40
1.0000000000
40
1.0000000000
40
1.0000000000
10
291.8891902897
20
-182.3559355725
30
0.0000000000
10
291.7774167227
20
-182.5846365214
30
0.0000000000
10
291.6636738427
20
-182.8136083918
30
0.0000000000
10
291.5462554006
20
-183.0394380089
30
0.0000000000
11
291.8891902897
21
-182.3559355725
31
0.0000000000
11
291.5462554006
21
-183.0394380089
31
0.0000000000
0
SPLINE
5
43F
100
AcDbEntity
8
0
100
AcDbSpline
62
7
6
CONTINUOUS
70
0
71
3
72
9
73
5
74
3
42
0.0000001000
43
0.0000001000
44
0.0000000001
12
-0.3207021831
22
-0.6168030331
32
0.0000000000
13
-0.3644875526
23
-0.5859567991
33
0.0000000000
40
0.0000000000
40
0.0000000000
40
0.0000000000
40
0.0000000000
40
0.5177862563
40
1.0000000000
40
1.0000000000
40
1.0000000000
40
1.0000000000
10
291.5462554006
20
-183.0394380089
30
0.0000000000
10
291.4909036730
20
-183.1458953867
30
0.0000000000
10
291.3824254685
20
-183.3501478063
30
0.0000000000
10
291.2702339919
20
-183.5504620423
30
0.0000000000
10
291.2116470228
20
-183.6446475163
30
0.0000000000
11
291.5462554006
21
-183.0394380089
31
0.0000000000
11
291.3775710883
21
-183.3563577408
31
0.0000000000
11
291.2116470228
21
-183.6446475163
31
0.0000000000
0
SPLINE
5
440
100
AcDbEntity
8
0
100
AcDbSpline
62
7
6
CONTINUOUS
70
0
71
3
72
8
73
4
74
2
42
0.0000001000
43
0.0000001000
44
0.0000000001
12
-0.0556449287
22
-0.0894557964
32
0.0000000000
13
-0.0586881225
23
-0.0878650232
33
0.0000000000
40
0.0000000000
40
0.0000000000
40
0.0000000000
40
0.0000000000
40
1.0000000000
40
1.0000000000
40
1.0000000000
40
1.0000000000
10
291.2116470228
20
-183.6446475163
30
0.0000000000
10
291.1930987132
20
-183.6744661151
30
0.0000000000
10
291.1741006928
20
-183.7040432746
30
0.0000000000
10
291.1545379853
20
-183.7333316156
30
0.0000000000
11
291.2116470228
21
-183.6446475163
31
0.0000000000
11
291.1545379853
21
-183.7333316156
31
0.0000000000
0
SPLINE
5
441
100
AcDbEntity
8
0
100
AcDbSpline
62
7
6
CONTINUOUS
70
0
71
3
72
9
73
5
74
3
42
0.0000001000
43
0.0000001000
44
0.0000000001
12
-0.2708925528
22
-0.4055672497
32
0.0000000000
13
-0.3766350364
23
-0.3534880559
33
0.0000000000
40
0.0000000000
40
0.0000000000
40
0.0000000000
40
0.0000000000
40
0.9215070440
40
1.0000000000
40
1.0000000000
40
1.0000000000
40
1.0000000000
10
291.1545379853
20
-183.7333316156
30
0.0000000000
10
291.0713281867
20
-183.8579093081
30
0.0000000000
10
290.9699440219
20
-183.9874279454
30
0.0000000000
10
290.8461093497
20
-184.1064994942
30
0.0000000000
10
290.8362549506
20
-184.1157482683
30
0.0000000000
11
291.1545379853
21
-183.7333316156
31
0.0000000000
11
290.8654113278
21
-184.0877425725
31
0.0000000000
11
290.8362549506
21
-184.1157482683
31
0.0000000000
0
SPLINE
5
442
100
AcDbEntity
8
0
100
AcDbSpline
62
7
6
CONTINUOUS
70
0
71
3
72
8
73
4
74
2
42
0.0000001000
43
0.0000001000
44
0.0000000001
12
-0.4145079892
22
-0.3890334385
32
0.0000000000
13
-0.5391957997
23
0.0000000000
33
0.0000000000
40
0.0000000000
40
0.0000000000
40
0.0000000000
40
0.0000000000
40
1.0000000000
40
1.0000000000
40
1.0000000000
40
1.0000000000
10
290.8362549506
20
-184.1157482683
30
0.0000000000
10
290.6980856208
20
-184.2454260811
30
0.0000000000
10
290.5335240596
20
-184.3559355725
30
0.0000000000
10
290.3537921263
20
-184.3559355725
30
0.0000000000
11
290.8362549506
21
-184.1157482683
31
0.0000000000
11
290.3537921263
21
-184.3559355725
31
0.0000000000
0
SPLINE
5
443
100
AcDbEntity
8
0
100
AcDbSpline
62
7
6
CONTINUOUS
70
0
71
3
72
8
73
4
74
2
42
0.0000001000
43
0.0000001000
44
0.0000000001
12
0.2143823984
22
-0.3798819100
32
0.0000000000
13
0.2439277827
23
-0.3620413904
33
0.0000000000
40
0.0000000000
40
0.0000000000
40
0.0000000000
40
0.0000000000
40
1.0000000000
40
1.0000000000
40
1.0000000000
40
1.0000000000
10
-308.1108097103
20
-183.3559355725
30
0.0000000000
10
-308.0393489108
20
-183.4825628758
30
0.0000000000
10
-307.9641659946
20
-183.6071461423
30
0.0000000000
10
-307.8828567337
20
-183.7278266058
30
0.0000000000
11
-308.1108097103
21
-183.3559355725
31
0.0000000000
11
-307.8828567337
21
-183.7278266058
31
0.0000000000
0
SPLINE
5
444
100
AcDbEntity
8
0
100
AcDbSpline
62
7
6
CONTINUOUS
70
0
71
3
72
10
73
6
74
4
42
0.0000001000
43
0.0000001000
44
0.0000000001
12
0.5841912215
22
-0.8670656526
32
0.0000000000
13
1.0446697207
23
0.0000000000
33
0.0000000000
40
0.0000000000
40
0.0000000000
40
0.0000000000
40
0.0000000000
40
0.1873283247
40
0.6535385382
40
1.0000000000
40
1.0000000000
40
1.0000000000
40
1.0000000000
10
-307.8828567337
20
-183.7278266058
30
0.0000000000
10
-307.8463782127
20
-183.7819685912
30
0.0000000000
10
-307.7148124545
20
-183.9681149741
30
0.0000000000
10
-307.4864915982
20
-184.2351878074
30
0.0000000000
10
-307.2078568675
20
-184.3559355725
30
0.0000000000
10
-307.0872109347
20
-184.3559355725
30
0.0000000000
11
-307.8828567337
21
-183.7278266058
31
0.0000000000
11
-307.7695047880
21
-183.8877280789
31
0.0000000000
11
-307.4285158569
21
-184.2354784429
31
0.0000000000
11
-307.0872109347
21
-184.3559355725
31
0.0000000000
0
SPLINE
5
445
100
AcDbEntity
8
0
100
AcDbSpline
62
7
6
CONTINUOUS
70
0
71
3
72
8
73
4
74
2
42
0.0000001000
43
0.0000001000
44
0.0000000001
12
0.3619377985
22
0.0000000000
32
0.0000000000
13
0.3056109262
23
0.2069383682
33
0.0000000000
40
0.0000000000
40
0.0000000000
40
0.0000000000
40
0.0000000000
40
1.0000000000
40
1.0000000000
40
1.0000000000
40
1.0000000000
10
290.8655915141
20
-184.3559355725
30
0.0000000000
10
290.9862374470
20
-184.3559355725
30
0.0000000000
10
291.1050261276
20
-184.3044578990
30
0.0000000000
10
291.2068964364
20
-184.2354784429
30
0.0000000000
11
290.8655915141
21
-184.3559355725
31
0.0000000000
11
291.2068964364
21
-184.2354784429
31
0.0000000000
0
SPLINE
5
446
100
AcDbEntity
8
0
100
AcDbSpline
62
7
6
CONTINUOUS
70
0
71
3
72
9
73
5
74
3
42
0.0000001000
43
0.0000001000
44
0.0000000001
12
0.7548429046
22
0.5111268792
32
0.0000000000
13
0.4669019400
23
0.7625445779
33
0.0000000000
40
0.0000000000
40
0.0000000000
40
0.0000000000
40
0.0000000000
40
0.5448025733
40
1.0000000000
40
1.0000000000
40
1.0000000000
40
1.0000000000
10
291.2068964364
20
-184.2354784429
30
0.0000000000
10
291.3439765553
20
-184.1426573632
30
0.0000000000
10
291.5393602051
20
-183.9141120355
30
0.0000000000
10
291.7044813203
20
-183.6656714142
30
0.0000000000
10
291.7753255075
20
-183.5499686376
30
0.0000000000
11
291.2068964364
21
-184.2354784429
31
0.0000000000
11
291.5478853675
21
-183.8877280789
31
0.0000000000
11
291.7753255075
21
-183.5499686376
31
0.0000000000
0
SPLINE
5
447
100
AcDbEntity
8
0
100
AcDbSpline
62
7
6
CONTINUOUS
70
0
71
3
72
8
73
4
74
2
42
0.0000001000
43
0.0000001000
44
0.0000000001
12
0.0723345126
22
0.1181367770
32
0.0000000000
13
0.0695639649
23
0.1197745195
33
0.0000000000
40
0.0000000000
40
0.0000000000
40
0.0000000000
40
0.0000000000
40
1.0000000000
40
1.0000000000
40
1.0000000000
40
1.0000000000
10
291.7753255075
20
-183.5499686376
30
0.0000000000
10
291.7994370117
20
-183.5105897120
30
0.0000000000
10
291.8230482798
20
-183.4709080808
30
0.0000000000
10
291.8462362681
20
-183.4309832410
30
0.0000000000
11
291.7753255075
21
-183.5499686376
31
0.0000000000
11
291.8462362681
21
-183.4309832410
31
0.0000000000
0
SPLINE
5
448
100
AcDbEntity
8
0
100
AcDbSpline
62
7
6
CONTINUOUS
70
0
71
3
72
8
73
4
74
2
42
0.0000001000
43
0.0000001000
44
0.0000000001
12
0.0434302486
22
0.0747777555
32
0.0000000000
13
0.0424965218
23
0.0753031032
33
0.0000000000
40
0.0000000000
40
0.0000000000
40
0.0000000000
40
0.0000000000
40
1.0000000000
40
1.0000000000
40
1.0000000000
40
1.0000000000
10
291.8462362681
20
-183.4309832410
30
0.0000000000
10
291.8607130176
20
-183.4060573225
30
0.0000000000
10
291.8750247825
20
-183.3810366069
30
0.0000000000
10
291.8891902897
20
-183.3559355725
30
0.0000000000
11
291.8462362681
21
-183.4309832410
31
0.0000000000
11
291.8891902897
21
-183.3559355725
31
0.0000000000
0
SPLINE
5
449
100
AcDbEntity
8
0
100
AcDbSpline
62
7
6
CONTINUOUS
70
0
71
3
72
8
73
4
74
2
42
0.0000001000
43
0.0000001000
44
0.0000000001
12
-0.5419593887
22
0.0000000000
32
0.0000000000
13
-0.4158158328
23
0.3916126434
33
0.0000000000
40
0.0000000000
40
0.0000000000
40
0.0000000000
40
0.0000000000
40
1.0000000000
40
1.0000000000
40
1.0000000000
40
1.0000000000
10
-306.5754115469
20
139.6440644275
30
0.0000000000
10
-306.7560646764
20
139.6440644275
30
0.0000000000
10
-306.9213915273
20
139.7557096305
30
0.0000000000
10
-307.0599968049
20
139.8862471783
30
0.0000000000
11
-306.5754115469
21
139.6440644275
31
0.0000000000
11
-307.0599968049
21
139.8862471783
31
0.0000000000
0
SPLINE
5
44A
100
AcDbEntity
8
0
100
AcDbSpline
62
7
6
CONTINUOUS
70
0
71
3
72
9
73
5
74
3
42
0.0000001000
43
0.0000001000
44
0.0000000001
12
-0.4552134109
22
0.4287170259
32
0.0000000000
13
-0.3110419012
23
0.5000366008
33
0.0000000000
40
0.0000000000
40
0.0000000000
40
0.0000000000
40
0.0000000000
40
0.0601583716
40
1.0000000000
40
1.0000000000
40
1.0000000000
40
1.0000000000
10
-307.0599968049
20
139.8862471783
30
0.0000000000
10
-307.0691251041
20
139.8948441510
30
0.0000000000
10
-307.2189363317
20
140.0391119294
30
0.0000000000
10
-307.3358230676
20
140.1987007460
30
0.0000000000
10
-307.4332664433
20
140.3553524837
30
0.0000000000
11
-307.0599968049
21
139.8862471783
31
0.0000000000
11
-307.0870307483
21
139.9122574275
31
0.0000000000
11
-307.4332664433
21
140.3553524837
31
0.0000000000
0
SPLINE
5
44B
100
AcDbEntity
8
0
100
AcDbSpline
62
7
6
CONTINUOUS
70
0
71
3
72
8
73
4
74
2
42
0.0000001000
43
0.0000001000
44
0.0000000001
12
-0.1250158609
22
0.2009777651
32
0.0000000000
13
-0.1153078245
23
0.2066779450
33
0.0000000000
40
0.0000000000
40
0.0000000000
40
0.0000000000
40
0.0000000000
40
1.0000000000
40
1.0000000000
40
1.0000000000
40
1.0000000000
10
-307.4332664433
20
140.3553524837
30
0.0000000000
10
-307.4749383969
20
140.4223450721
30
0.0000000000
10
-307.5143404208
20
140.4905563331
30
0.0000000000
10
-307.5527763623
20
140.5594489815
30
0.0000000000
11
-307.4332664433
21
140.3553524837
31
0.0000000000
11
-307.5527763623
21
140.5594489815
31
0.0000000000
0
SPLINE
5
44C
100
AcDbEntity
8
0
100
AcDbSpline
62
7
6
CONTINUOUS
70
0
71
3
72
8
73
4
74
2
42
0.0000001000
43
0.0000001000
44
0.0000000001
12
-0.0468044683
22
0.0838924103
32
0.0000000000
13
-0.0461110237
23
0.0844582124
33
0.0000000000
40
0.0000000000
40
0.0000000000
40
0.0000000000
40
0.0000000000
40
1.0000000000
40
1.0000000000
40
1.0000000000
40
1.0000000000
10
-307.5527763623
20
140.5594489815
30
0.0000000000
10
-307.5683778518
20
140.5874131182
30
0.0000000000
10
-307.5838201675
20
140.6154895217
30
0.0000000000
10
-307.5991905088
20
140.6436422592
30
0.0000000000
11
-307.5527763623
21
140.5594489815
31
0.0000000000
11
-307.5991905088
21
140.6436422592
31
0.0000000000
0
SPLINE
5
44D
100
AcDbEntity
8
0
100
AcDbSpline
62
7
6
CONTINUOUS
70
0
71
3
72
8
73
4
74
2
42
0.0000001000
43
0.0000001000
44
0.0000000001
12
-0.1714921840
22
0.3141097752
32
0.0000000000
13
-0.1660551828
23
0.3193721333
33
0.0000000000
40
0.0000000000
40
0.0000000000
40
0.0000000000
40
0.0000000000
40
1.0000000000
40
1.0000000000
40
1.0000000000
40
1.0000000000
10
-307.5991905088
20
140.6436422592
30
0.0000000000
10
-307.6563545701
20
140.7483455176
30
0.0000000000
10
-307.7125230935
20
140.8541046133
30
0.0000000000
10
-307.7678748211
20
140.9605619911
30
0.0000000000
11
-307.5991905088
21
140.6436422592
31
0.0000000000
11
-307.7678748211
21
140.9605619911
31
0.0000000000
0
SPLINE
5
44E
100
AcDbEntity
8
0
100
AcDbSpline
62
7
6
CONTINUOUS
70
0
71
3
72
8
73
4
74
2
42
0.0000001000
43
0.0000001000
44
0.0000000001
12
-0.1739241176
22
0.3345063704
32
0.0000000000
13
-0.1691639944
23
0.3378700504
33
0.0000000000
40
0.0000000000
40
0.0000000000
40
0.0000000000
40
0.0000000000
40
1.0000000000
40
1.0000000000
40
1.0000000000
40
1.0000000000
10
-307.7678748211
20
140.9605619911
30
0.0000000000
10
-307.8258495269
20
141.0720641145
30
0.0000000000
10
-307.8829281911
20
141.1843322678
30
0.0000000000
10
-307.9393161892
20
141.2969556179
30
0.0000000000
11
-307.7678748211
21
140.9605619911
31
0.0000000000
11
-307.9393161892
21
141.2969556179
31
0.0000000000
0
SPLINE
5
44F
100
AcDbEntity
8
0
100
AcDbSpline
62
7
6
CONTINUOUS
70
0
71
3
72
8
73
4
74
2
42
0.0000001000
43
0.0000001000
44
0.0000000001
12
-0.1734504680
22
0.3464313939
32
0.0000000000
13
-0.1697579609
23
0.3473433639
33
0.0000000000
40
0.0000000000
40
0.0000000000
40
0.0000000000
40
0.0000000000
40
1.0000000000
40
1.0000000000
40
1.0000000000
40
1.0000000000
10
-307.9393161892
20
141.2969556179
30
0.0000000000
10
-307.9971330119
20
141.4124327492
30
0.0000000000
10
-308.0542237233
20
141.5282833062
30
0.0000000000
10
-308.1108097103
20
141.6440644275
30
0.0000000000
11
-307.9393161892
21
141.2969556179
31
0.0000000000
11
-308.1108097103
21
141.6440644275
31
0.0000000000
0
SPLINE
5
450
100
AcDbEntity
8
0
100
AcDbSpline
62
7
6
CONTINUOUS
70
0
71
3
72
8
73
4
74
2
42
0.0000001000
43
0.0000001000
44
0.0000000001
12
0.5391957997
22
0.0000000000
32
0.0000000000
13
0.4145079892
23
-0.3890334385
33
0.0000000000
40
0.0000000000
40
0.0000000000
40
0.0000000000
40
0.0000000000
40
1.0000000000
40
1.0000000000
40
1.0000000000
40
1.0000000000
10
290.3537921264
20
179.6440644275
30
0.0000000000
10
290.5335240596
20
179.6440644275
30
0.0000000000
10
290.6980856208
20
179.5335549361
30
0.0000000000
10
290.8362549506
20
179.4038771233
30
0.0000000000
11
290.3537921264
21
179.6440644275
31
0.0000000000
11
290.8362549506
21
179.4038771233
31
0.0000000000
0
SPLINE
5
451
100
AcDbEntity
8
0
100
AcDbSpline
62
7
6
CONTINUOUS
70
0
71
3
72
9
73
5
74
3
42
0.0000001000
43
0.0000001000
44
0.0000000001
12
0.4582319756
22
-0.4300702658
32
0.0000000000
13
0.3124907117
23
-0.5023657348
33
0.0000000000
40
0.0000000000
40
0.0000000000
40
0.0000000000
40
0.0000000000
40
0.0645157888
40
1.0000000000
40
1.0000000000
40
1.0000000000
40
1.0000000000
10
290.8362549506
20
179.4038771233
30
0.0000000000
10
290.8461093497
20
179.3946283492
30
0.0000000000
10
290.9967724613
20
179.2497602787
30
0.0000000000
10
291.1142036471
20
179.0894281090
30
0.0000000000
10
291.2116470228
20
178.9327763713
30
0.0000000000
11
290.8362549506
21
179.4038771233
31
0.0000000000
11
290.8654113278
21
179.3758714275
31
0.0000000000
11
291.2116470228
21
178.9327763713
31
0.0000000000
0
SPLINE
5
452
100
AcDbEntity
8
0
100
AcDbSpline
62
7
6
CONTINUOUS
70
0
71
3
72
8
73
4
74
2
42
0.0000001000
43
0.0000001000
44
0.0000000001
12
0.1250158609
22
-0.2009777651
32
0.0000000000
13
0.1153078245
23
-0.2066779450
33
0.0000000000
40
0.0000000000
40
0.0000000000
40
0.0000000000
40
0.0000000000
40
1.0000000000
40
1.0000000000
40
1.0000000000
40
1.0000000000
10
291.2116470228
20
178.9327763713
30
0.0000000000
10
291.2533189764
20
178.8657837829
30
0.0000000000
10
291.2927210003
20
178.7975725219
30
0.0000000000
10
291.3311569418
20
178.7286798736
30
0.0000000000
11
291.2116470228
21
178.9327763713
31
0.0000000000
11
291.3311569418
21
178.7286798736
31
0.0000000000
0
SPLINE
5
453
100
AcDbEntity
8
0
100
AcDbSpline
62
7
6
CONTINUOUS
70
0
71
3
72
8
73
4
74
2
42
0.0000001000
43
0.0000001000
44
0.0000000001
12
0.0468044683
22
-0.0838924103
32
0.0000000000
13
0.0461110237
23
-0.0844582124
33
0.0000000000
40
0.0000000000
40
0.0000000000
40
0.0000000000
40
0.0000000000
40
1.0000000000
40
1.0000000000
40
1.0000000000
40
1.0000000000
10
291.3311569418
20
178.7286798736
30
0.0000000000
10
291.3467584313
20
178.7007157368
30
0.0000000000
10
291.3622007470
20
178.6726393333
30
0.0000000000
10
291.3775710883
20
178.6444865958
30
0.0000000000
11
291.3311569418
21
178.7286798736
31
0.0000000000
11
291.3775710883
21
178.6444865958
31
0.0000000000
0
SPLINE
5
454
100
AcDbEntity
8
0
100
AcDbSpline
62
7
6
CONTINUOUS
70
0
71
3
72
8
73
4
74
2
42
0.0000001000
43
0.0000001000
44
0.0000000001
12
0.1714921840
22
-0.3141097752
32
0.0000000000
13
0.1660551828
23
-0.3193721333
33
0.0000000000
40
0.0000000000
40
0.0000000000
40
0.0000000000
40
0.0000000000
40
1.0000000000
40
1.0000000000
40
1.0000000000
40
1.0000000000
10
291.3775710883
20
178.6444865958
30
0.0000000000
10
291.4347351496
20
178.5397833374
30
0.0000000000
10
291.4909036730
20
178.4340242417
30
0.0000000000
10
291.5462554006
20
178.3275668640
30
0.0000000000
11
291.3775710883
21
178.6444865958
31
0.0000000000
11
291.5462554006
21
178.3275668640
31
0.0000000000
0
SPLINE
5
455
100
AcDbEntity
8
0
100
AcDbSpline
62
7
6
CONTINUOUS
70
0
71
3
72
8
73
4
74
2
42
0.0000001000
43
0.0000001000
44
0.0000000001
12
0.1739241176
22
-0.3345063704
32
0.0000000000
13
0.1691639944
23
-0.3378700504
33
0.0000000000
40
0.0000000000
40
0.0000000000
40
0.0000000000
40
0.0000000000
40
1.0000000000
40
1.0000000000
40
1.0000000000
40
1.0000000000
10
291.5462554006
20
178.3275668640
30
0.0000000000
10
291.6042301064
20
178.2160647405
30
0.0000000000
10
291.6613087705
20
178.1037965872
30
0.0000000000
10
291.7176967687
20
177.9911732371
30
0.0000000000
11
291.5462554006
21
178.3275668640
31
0.0000000000
11
291.7176967687
21
177.9911732371
31
0.0000000000
0
SPLINE
5
456
100
AcDbEntity
8
0
100
AcDbSpline
62
7
6
CONTINUOUS
70
0
71
3
72
8
73
4
74
2
42
0.0000001000
43
0.0000001000
44
0.0000000001
12
0.1734504680
22
-0.3464313939
32
0.0000000000
13
0.1697579609
23
-0.3473433639
33
0.0000000000
40
0.0000000000
40
0.0000000000
40
0.0000000000
40
0.0000000000
40
1.0000000000
40
1.0000000000
40
1.0000000000
40
1.0000000000
10
291.7176967687
20
177.9911732371
30
0.0000000000
10
291.7755135913
20
177.8756961058
30
0.0000000000
10
291.8326043028
20
177.7598455488
30
0.0000000000
10
291.8891902897
20
177.6440644275
30
0.0000000000
11
291.7176967687
21
177.9911732371
31
0.0000000000
11
291.8891902897
21
177.6440644275
31
0.0000000000
0
SPLINE
5
457
100
AcDbEntity
8
0
100
AcDbSpline
62
7
6
CONTINUOUS
70
0
71
3
72
8
73
4
74
2
42
0.0000001000
43
0.0000001000
44
0.0000000001
12
0.3353207010
22
0.6861028468
32
0.0000000000
13
0.3522553263
23
0.6774888515
33
0.0000000000
40
0.0000000000
40
0.0000000000
40
0.0000000000
40
0.0000000000
40
1.0000000000
40
1.0000000000
40
1.0000000000
40
1.0000000000
10
-308.1108097103
20
177.6440644275
30
0.0000000000
10
-307.9990361432
20
177.8727653765
30
0.0000000000
10
-307.8852932632
20
178.1017372468
30
0.0000000000
10
-307.7678748211
20
178.3275668640
30
0.0000000000
11
-308.1108097103
21
177.6440644275
31
0.0000000000
11
-307.7678748211
21
178.3275668640
31
0.0000000000
0
SPLINE
5
458
100
AcDbEntity
8
0
100
AcDbSpline
62
7
6
CONTINUOUS
70
0
71
3
72
9
73
5
74
3
42
0.0000001000
43
0.0000001000
44
0.0000000001
12
0.3207021831
22
0.6168030331
32
0.0000000000
13
0.3644875526
23
0.5859567991
33
0.0000000000
40
0.0000000000
40
0.0000000000
40
0.0000000000
40
0.0000000000
40
0.5177862563
40
1.0000000000
40
1.0000000000
40
1.0000000000
40
1.0000000000
10
-307.7678748211
20
178.3275668640
30
0.0000000000
10
-307.7125230935
20
178.4340242417
30
0.0000000000
10
-307.6040448890
20
178.6382766614
30
0.0000000000
10
-307.4918534124
20
178.8385908974
30
0.0000000000
10
-307.4332664433
20
178.9327763713
30
0.0000000000
11
-307.7678748211
21
178.3275668640
31
0.0000000000
11
-307.5991905088
21
178.6444865958
31
0.0000000000
11
-307.4332664433
21
178.9327763713
31
0.0000000000
0
SPLINE
5
459
100
AcDbEntity
8
0
100
AcDbSpline
62
7
6
CONTINUOUS
70
0
71
3
72
8
73
4
74
2
42
0.0000001000
43
0.0000001000
44
0.0000000001
12
0.0556449287
22
0.0894557964
32
0.0000000000
13
0.0586881225
23
0.0878650232
33
0.0000000000
40
0.0000000000
40
0.0000000000
40
0.0000000000
40
0.0000000000
40
1.0000000000
40
1.0000000000
40
1.0000000000
40
1.0000000000
10
-307.4332664433
20
178.9327763713
30
0.0000000000
10
-307.4147181337
20
178.9625949701
30
0.0000000000
10
-307.3957201133
20
178.9921721296
30
0.0000000000
10
-307.3761574058
20
179.0214604707
30
0.0000000000
11
-307.4332664433
21
178.9327763713
31
0.0000000000
11
-307.3761574058
21
179.0214604707
31
0.0000000000
0
SPLINE
5
45A
100
AcDbEntity
8
0
100
AcDbSpline
62
7
6
CONTINUOUS
70
0
71
3
72
9
73
5
74
3
42
0.0000001000
43
0.0000001000
44
0.0000000001
12
0.2708925528
22
0.4055672497
32
0.0000000000
13
0.3766350364
23
0.3534880559
33
0.0000000000
40
0.0000000000
40
0.0000000000
40
0.0000000000
40
0.0000000000
40
0.9215070440
40
1.0000000000
40
1.0000000000
40
1.0000000000
40
1.0000000000
10
-307.3761574058
20
179.0214604707
30
0.0000000000
10
-307.2929476072
20
179.1460381631
30
0.0000000000
10
-307.1915634425
20
179.2755568005
30
0.0000000000
10
-307.0677287702
20
179.3946283492
30
0.0000000000
10
-307.0578743711
20
179.4038771233
30
0.0000000000
11
-307.3761574058
21
179.0214604707
31
0.0000000000
11
-307.0870307483
21
179.3758714275
31
0.0000000000
11
-307.0578743711
21
179.4038771233
31
0.0000000000
0
SPLINE
5
45B
100
AcDbEntity
8
0
100
AcDbSpline
62
7
6
CONTINUOUS
70
0
71
3
72
8
73
4
74
2
42
0.0000001000
43
0.0000001000
44
0.0000000001
12
0.4145079892
22
0.3890334385
32
0.0000000000
13
0.5391957997
23
0.0000000000
33
0.0000000000
40
0.0000000000
40
0.0000000000
40
0.0000000000
40
0.0000000000
40
1.0000000000
40
1.0000000000
40
1.0000000000
40
1.0000000000
10
-307.0578743711
20
179.4038771233
30
0.0000000000
10
-306.9197050413
20
179.5335549361
30
0.0000000000
10
-306.7551434801
20
179.6440644275
30
0.0000000000
10
-306.5754115469
20
179.6440644275
30
0.0000000000
11
-307.0578743711
21
179.4038771233
31
0.0000000000
11
-306.5754115469
21
179.6440644275
31
0.0000000000
0
SPLINE
5
45C
100
AcDbEntity
8
0
100
AcDbSpline
62
7
6
CONTINUOUS
70
0
71
3
72
8
73
4
74
2
42
0.0000001000
43
0.0000001000
44
0.0000000001
12
-0.2143823984
22
0.3798819100
32
0.0000000000
13
-0.2439277827
23
0.3620413904
33
0.0000000000
40
0.0000000000
40
0.0000000000
40
0.0000000000
40
0.0000000000
40
1.0000000000
40
1.0000000000
40
1.0000000000
40
1.0000000000
10
291.8891902897
20
178.6440644275
30
0.0000000000
10
291.8177294903
20
178.7706917309
30
0.0000000000
10
291.7425465741
20
178.8952749974
30
0.0000000000
10
291.6612373132
20
179.0159554608
30
0.0000000000
11
291.8891902897
21
178.6440644275
31
0.0000000000
11
291.6612373132
21
179.0159554608
31
0.0000000000
0
SPLINE
5
45D
100
AcDbEntity
8
0
100
AcDbSpline
62
7
6
CONTINUOUS
70
0
71
3
72
10
73
6
74
4
42
0.0000001000
43
0.0000001000
44
0.0000000001
12
-0.5841912215
22
0.8670656526
32
0.0000000000
13
-1.0446697207
23
-0.0000000000
33
0.0000000000
40
0.0000000000
40
0.0000000000
40
0.0000000000
40
0.0000000000
40
0.1873283247
40
0.6535385382
40
1.0000000000
40
1.0000000000
40
1.0000000000
40
1.0000000000
10
291.6612373132
20
179.0159554608
30
0.0000000000
10
291.6247587922
20
179.0700974462
30
0.0000000000
10
291.4931930340
20
179.2562438291
30
0.0000000000
10
291.2648721777
20
179.5233166625
30
0.0000000000
10
290.9862374470
20
179.6440644275
30
0.0000000000
10
290.8655915141
20
179.6440644275
30
0.0000000000
11
291.6612373132
21
179.0159554608
31
0.0000000000
11
291.5478853675
21
179.1758569339
31
0.0000000000
11
291.2068964364
21
179.5236072979
31
0.0000000000
11
290.8655915141
21
179.6440644275
31
0.0000000000
0
SPLINE
5
45E
100
AcDbEntity
8
0
100
AcDbSpline
62
7
6
CONTINUOUS
70
0
71
3
72
8
73
4
74
2
42
0.0000001000
43
0.0000001000
44
0.0000000001
12
-0.3619377985
22
0.0000000000
32
0.0000000000
13
-0.3056109262
23
-0.2069383682
33
0.0000000000
40
0.0000000000
40
0.0000000000
40
0.0000000000
40
0.0000000000
40
1.0000000000
40
1.0000000000
40
1.0000000000
40
1.0000000000
10
-307.0872109347
20
179.6440644275
30
0.0000000000
10
-307.2078568675
20
179.6440644275
30
0.0000000000
10
-307.3266455481
20
179.5925867540
30
0.0000000000
10
-307.4285158569
20
179.5236072979
30
0.0000000000
11
-307.0872109347
21
179.6440644275
31
0.0000000000
11
-307.4285158569
21
179.5236072979
31
0.0000000000
0
SPLINE
5
45F
100
AcDbEntity
8
0
100
AcDbSpline
62
7
6
CONTINUOUS
70
0
71
3
72
9
73
5
74
3
42
0.0000001000
43
0.0000001000
44
0.0000000001
12
-0.7548429046
22
-0.5111268792
32
0.0000000000
13
-0.4669019400
23
-0.7625445779
33
0.0000000000
40
0.0000000000
40
0.0000000000
40
0.0000000000
40
0.0000000000
40
0.5448025733
40
1.0000000000
40
1.0000000000
40
1.0000000000
40
1.0000000000
10
-307.4285158569
20
179.5236072979
30
0.0000000000
10
-307.5655959758
20
179.4307862182
30
0.0000000000
10
-307.7609796256
20
179.2022408905
30
0.0000000000
10
-307.9261007408
20
178.9538002692
30
0.0000000000
10
-307.9969449280
20
178.8380974927
30
0.0000000000
11
-307.4285158569
21
179.5236072979
31
0.0000000000
11
-307.7695047880
21
179.1758569339
31
0.0000000000
11
-307.9969449280
21
178.8380974927
31
0.0000000000
0
SPLINE
5
460
100
AcDbEntity
8
0
100
AcDbSpline
62
7
6
CONTINUOUS
70
0
71
3
72
8
73
4
74
2
42
0.0000001000
43
0.0000001000
44
0.0000000001
12
-0.0723345126
22
-0.1181367770
32
0.0000000000
13
-0.0695639649
23
-0.1197745195
33
0.0000000000
40
0.0000000000
40
0.0000000000
40
0.0000000000
40
0.0000000000
40
1.0000000000
40
1.0000000000
40
1.0000000000
40
1.0000000000
10
-307.9969449280
20
178.8380974927
30
0.0000000000
10
-308.0210564322
20
178.7987185670
30
0.0000000000
10
-308.0446677003
20
178.7590369358
30
0.0000000000
10
-308.0678556886
20
178.7191120960
30
0.0000000000
11
-307.9969449280
21
178.8380974927
31
0.0000000000
11
-308.0678556886
21
178.7191120960
31
0.0000000000
0
SPLINE
5
461
100
AcDbEntity
8
0
100
AcDbSpline
62
7
6
CONTINUOUS
70
0
71
3
72
8
73
4
74
2
42
0.0000001000
43
0.0000001000
44
0.0000000001
12
-0.0434302486
22
-0.0747777555
32
0.0000000000
13
-0.0424965218
23
-0.0753031032
33
0.0000000000
40
0.0000000000
40
0.0000000000
40
0.0000000000
40
0.0000000000
40
1.0000000000
40
1.0000000000
40
1.0000000000
40
1.0000000000
10
-308.0678556886
20
178.7191120960
30
0.0000000000
10
-308.0823324381
20
178.6941861775
30
0.0000000000
10
-308.0966442030
20
178.6691654619
30
0.0000000000
10
-308.1108097103
20
178.6440644275
30
0.0000000000
11
-308.0678556886
21
178.7191120960
31
0.0000000000
11
-308.1108097103
21
178.6440644275
31
0.0000000000
0
SPLINE
5
462
100
AcDbEntity
8
0
100
AcDbSpline
62
7
6
CONTINUOUS
70
0
71
3
72
9
73
5
74
3
42
0.0000001000
43
0.0000001000
44
0.0000000001
12
-0.7774676344
22
0.0000000000
32
0.0000000000
13
-0.4811324341
23
-0.6109592705
33
0.0000000000
40
0.0000000000
40
0.0000000000
40
0.0000000000
40
0.0000000000
40
0.5317071702
40
1.0000000000
40
1.0000000000
40
1.0000000000
40
1.0000000000
10
-304.2754115468
20
139.6440644275
30
0.0000000000
10
-304.4132065855
20
139.6440644275
30
0.0000000000
10
-304.6643044733
20
139.5171491130
30
0.0000000000
10
-304.8423073923
20
139.3275230402
30
0.0000000000
10
-304.9174110154
20
139.2321537584
30
0.0000000000
11
-304.2754115468
21
139.6440644275
31
0.0000000000
11
-304.6595628178
21
139.4913717458
31
0.0000000000
11
-304.9174110154
21
139.2321537584
31
0.0000000000
0
SPLINE
5
463
100
AcDbEntity
8
0
100
AcDbSpline
62
7
6
CONTINUOUS
70
0
71
3
72
9
73
5
74
3
42
0.0000001000
43
0.0000001000
44
0.0000000001
12
-0.2775820636
22
-0.3524836885
32
0.0000000000
13
-0.2356020567
23
-0.3818888303
33
0.0000000000
40
0.0000000000
40
0.0000000000
40
0.0000000000
40
0.0000000000
40
0.4780580613
40
1.0000000000
40
1.0000000000
40
1.0000000000
40
1.0000000000
10
-304.9174110154
20
139.2321537584
30
0.0000000000
10
-304.9616444631
20
139.1759845354
30
0.0000000000
10
-305.0481827852
20
139.0537236657
30
0.0000000000
10
-305.1291443055
20
138.9279143644
30
0.0000000000
10
-305.1701345036
20
138.8614730989
30
0.0000000000
11
-304.9174110154
21
139.2321537584
31
0.0000000000
11
-305.0431106285
21
139.0582779899
31
0.0000000000
11
-305.1701345036
21
138.8614730989
31
0.0000000000
0
SPLINE
5
464
100
AcDbEntity
8
0
100
AcDbSpline
62
7
6
CONTINUOUS
70
0
71
3
72
9
73
5
74
3
42
0.0000001000
43
0.0000001000
44
0.0000000001
12
-0.4189174838
22
-0.6790259395
32
0.0000000000
13
-0.3600222482
23
-0.7116900321
33
0.0000000000
40
0.0000000000
40
0.0000000000
40
0.0000000000
40
0.0000000000
40
0.6503375476
40
1.0000000000
40
1.0000000000
40
1.0000000000
40
1.0000000000
10
-305.1701345036
20
138.8614730989
30
0.0000000000
10
-305.2609470933
20
138.7142744108
30
0.0000000000
10
-305.3910236777
20
138.4820748372
30
0.0000000000
10
-305.5128815157
20
138.2457677861
30
0.0000000000
10
-305.5548436031
20
138.1628173588
30
0.0000000000
11
-305.1701345036
21
138.8614730989
31
0.0000000000
11
-305.4266584393
21
138.4105209962
31
0.0000000000
11
-305.5548436031
21
138.1628173588
31
0.0000000000
0
SPLINE
5
465
100
AcDbEntity
8
0
100
AcDbSpline
62
7
6
CONTINUOUS
70
0
71
3
72
8
73
4
74
2
42
0.0000001000
43
0.0000001000
44
0.0000000001
12
-0.1295944808
22
-0.2561816684
32
0.0000000000
13
-0.1266514469
23
-0.2576463618
33
0.0000000000
40
0.0000000000
40
0.0000000000
40
0.0000000000
40
0.0000000000
40
1.0000000000
40
1.0000000000
40
1.0000000000
40
1.0000000000
10
-305.5548436031
20
138.1628173588
30
0.0000000000
10
-305.5980417634
20
138.0774234693
30
0.0000000000
10
-305.6405542205
20
137.9916875626
30
0.0000000000
10
-305.6827713695
20
137.9058054420
30
0.0000000000
11
-305.5548436031
21
138.1628173588
31
0.0000000000
11
-305.6827713695
21
137.9058054420
31
0.0000000000
0
SPLINE
5
466
100
AcDbEntity
8
0
100
AcDbSpline
62
7
6
CONTINUOUS
70
0
71
3
72
8
73
4
74
2
42
0.0000001000
43
0.0000001000
44
0.0000000001
12
-0.1285427755
22
-0.2614938813
32
0.0000000000
13
-0.1279420530
23
-0.2617834405
33
0.0000000000
40
0.0000000000
40
0.0000000000
40
0.0000000000
40
0.0000000000
40
1.0000000000
40
1.0000000000
40
1.0000000000
40
1.0000000000
10
-305.6827713695
20
137.9058054420
30
0.0000000000
10
-305.7256189613
20
137.8186408149
30
0.0000000000
10
-305.7681623592
20
137.7313255744
30
0.0000000000
10
-305.8108097102
20
137.6440644275
30
0.0000000000
11
-305.6827713695
21
137.9058054420
31
0.0000000000
11
-305.8108097102
21
137.6440644275
31
0.0000000000
0
SPLINE
5
467
100
AcDbEntity
8
0
100
AcDbSpline
62
7
6
CONTINUOUS
70
0
71
3
72
10
73
6
74
4
42
0.0000001000
43
0.0000001000
44
0.0000000001
12
1.2260157991
22
0.0000000000
32
0.0000000000
13
0.6439706291
23
-1.0438159740
33
0.0000000000
40
0.0000000000
40
0.0000000000
40
0.0000000000
40
0.0000000000
40
0.3371776417
40
0.8090431633
40
1.0000000000
40
1.0000000000
40
1.0000000000
40
1.0000000000
10
288.0537921264
20
139.6440644275
30
0.0000000000
10
288.1915871650
20
139.6440644275
30
0.0000000000
10
288.5119399471
20
139.4821448094
30
0.0000000000
10
288.7608476255
20
139.1558419461
30
0.0000000000
10
288.9075248850
20
138.9279143644
30
0.0000000000
10
288.9485150831
20
138.8614730989
30
0.0000000000
11
288.0537921264
21
139.6440644275
31
0.0000000000
11
288.4379433973
21
139.4913717458
31
0.0000000000
11
288.8214912081
21
139.0582779899
31
0.0000000000
11
288.9485150831
21
138.8614730989
31
0.0000000000
0
SPLINE
5
468
100
AcDbEntity
8
0
100
AcDbSpline
62
7
6
CONTINUOUS
70
0
71
3
72
9
73
5
74
3
42
0.0000001000
43
0.0000001000
44
0.0000000001
12
0.4189174838
22
-0.6790259395
32
0.0000000000
13
0.3600222482
23
-0.7116900321
33
0.0000000000
40
0.0000000000
40
0.0000000000
40
0.0000000000
40
0.0000000000
40
0.6503375476
40
1.0000000000
40
1.0000000000
40
1.0000000000
40
1.0000000000
10
288.9485150831
20
138.8614730989
30
0.0000000000
10
289.0393276728
20
138.7142744108
30
0.0000000000
10
289.1694042572
20
138.4820748372
30
0.0000000000
10
289.2912620952
20
138.2457677861
30
0.0000000000
10
289.3332241826
20
138.1628173588
30
0.0000000000
11
288.9485150831
21
138.8614730989
31
0.0000000000
11
289.2050390188
21
138.4105209962
31
0.0000000000
11
289.3332241826
21
138.1628173588
31
0.0000000000
0
SPLINE
5
469
100
AcDbEntity
8
0
100
AcDbSpline
62
7
6
CONTINUOUS
70
0
71
3
72
8
73
4
74
2
42
0.0000001000
43
0.0000001000
44
0.0000000001
12
0.1295944808
22
-0.2561816684
32
0.0000000000
13
0.1266514469
23
-0.2576463618
33
0.0000000000
40
0.0000000000
40
0.0000000000
40
0.0000000000
40
0.0000000000
40
1.0000000000
40
1.0000000000
40
1.0000000000
40
1.0000000000
10
289.3332241826
20
138.1628173588
30
0.0000000000
10
289.3764223429
20
138.0774234693
30
0.0000000000
10
289.4189348001
20
137.9916875626
30
0.0000000000
10
289.4611519490
20
137.9058054420
30
0.0000000000
11
289.3332241826
21
138.1628173588
31
0.0000000000
11
289.4611519490
21
137.9058054420
31
0.0000000000
0
SPLINE
5
46A
100
AcDbEntity
8
0
100
AcDbSpline
62
7
6
CONTINUOUS
70
0
71
3
72
8
73
4
74
2
42
0.0000001000
43
0.0000001000
44
0.0000000001
12
0.1285427755
22
-0.2614938813
32
0.0000000000
13
0.1279420530
23
-0.2617834405
33
0.0000000000
40
0.0000000000
40
0.0000000000
40
0.0000000000
40
0.0000000000
40
1.0000000000
40
1.0000000000
40
1.0000000000
40
1.0000000000
10
289.4611519490
20
137.9058054420
30
0.0000000000
10
289.5039995409
20
137.8186408149
30
0.0000000000
10
289.5465429388
20
137.7313255744
30
0.0000000000
10
289.5891902898
20
137.6440644275
30
0.0000000000
11
289.4611519490
21
137.9058054420
31
0.0000000000
11
289.5891902898
21
137.6440644275
31
0.0000000000
0
SPLINE
5
46B
100
AcDbEntity
8
0
100
AcDbSpline
62
7
6
CONTINUOUS
70
0
71
3
72
9
73
5
74
3
42
0.0000001000
43
0.0000001000
44
0.0000000001
12
0.7774676344
22
0.0000000000
32
0.0000000000
13
0.4811324341
23
0.6109592705
33
0.0000000000
40
0.0000000000
40
0.0000000000
40
0.0000000000
40
0.0000000000
40
0.5317071702
40
1.0000000000
40
1.0000000000
40
1.0000000000
40
1.0000000000
10
288.0537921263
20
-144.3559355725
30
0.0000000000
10
288.1915871650
20
-144.3559355725
30
0.0000000000
10
288.4426850528
20
-144.2290202579
30
0.0000000000
10
288.6206879718
20
-144.0393941852
30
0.0000000000
10
288.6957915949
20
-143.9440249033
30
0.0000000000
11
288.0537921263
21
-144.3559355725
31
0.0000000000
11
288.4379433973
21
-144.2032428908
31
0.0000000000
11
288.6957915949
21
-143.9440249033
31
0.0000000000
0
SPLINE
5
46C
100
AcDbEntity
8
0
100
AcDbSpline
62
7
6
CONTINUOUS
70
0
71
3
72
9
73
5
74
3
42
0.0000001000
43
0.0000001000
44
0.0000000001
12
0.2775820636
22
0.3524836885
32
0.0000000000
13
0.2356020567
23
0.3818888303
33
0.0000000000
40
0.0000000000
40
0.0000000000
40
0.0000000000
40
0.0000000000
40
0.4780580613
40
1.0000000000
40
1.0000000000
40
1.0000000000
40
1.0000000000
10
288.6957915949
20
-143.9440249033
30
0.0000000000
10
288.7400250426
20
-143.8878556804
30
0.0000000000
10
288.8265633647
20
-143.7655948106
30
0.0000000000
10
288.9075248850
20
-143.6397855093
30
0.0000000000
10
288.9485150831
20
-143.5733442439
30
0.0000000000
11
288.6957915949
21
-143.9440249033
31
0.0000000000
11
288.8214912080
21
-143.7701491349
31
0.0000000000
11
288.9485150831
21
-143.5733442439
31
0.0000000000
0
SPLINE
5
46D
100
AcDbEntity
8
0
100
AcDbSpline
62
7
6
CONTINUOUS
70
0
71
3
72
9
73
5
74
3
42
0.0000001000
43
0.0000001000
44
0.0000000001
12
0.4189174838
22
0.6790259395
32
0.0000000000
13
0.3600222482
23
0.7116900321
33
0.0000000000
40
0.0000000000
40
0.0000000000
40
0.0000000000
40
0.0000000000
40
0.6503375476
40
1.0000000000
40
1.0000000000
40
1.0000000000
40
1.0000000000
10
288.9485150831
20
-143.5733442439
30
0.0000000000
10
289.0393276728
20
-143.4261455558
30
0.0000000000
10
289.1694042572
20
-143.1939459822
30
0.0000000000
10
289.2912620952
20
-142.9576389311
30
0.0000000000
10
289.3332241826
20
-142.8746885038
30
0.0000000000
11
288.9485150831
21
-143.5733442439
31
0.0000000000
11
289.2050390188
21
-143.1223921411
31
0.0000000000
11
289.3332241826
21
-142.8746885038
31
0.0000000000
0
SPLINE
5
46E
100
AcDbEntity
8
0
100
AcDbSpline
62
7
6
CONTINUOUS
70
0
71
3
72
8
73
4
74
2
42
0.0000001000
43
0.0000001000
44
0.0000000001
12
0.1295944808
22
0.2561816684
32
0.0000000000
13
0.1266514469
23
0.2576463618
33
0.0000000000
40
0.0000000000
40
0.0000000000
40
0.0000000000
40
0.0000000000
40
1.0000000000
40
1.0000000000
40
1.0000000000
40
1.0000000000
10
289.3332241826
20
-142.8746885038
30
0.0000000000
10
289.3764223428
20
-142.7892946143
30
0.0000000000
10
289.4189348000
20
-142.7035587075
30
0.0000000000
10
289.4611519490
20
-142.6176765869
30
0.0000000000
11
289.3332241826
21
-142.8746885038
31
0.0000000000
11
289.4611519490
21
-142.6176765869
31
0.0000000000
0
SPLINE
5
46F
100
AcDbEntity
8
0
100
AcDbSpline
62
7
6
CONTINUOUS
70
0
71
3
72
8
73
4
74
2
42
0.0000001000
43
0.0000001000
44
0.0000000001
12
0.1285427755
22
0.2614938813
32
0.0000000000
13
0.1279420530
23
0.2617834405
33
0.0000000000
40
0.0000000000
40
0.0000000000
40
0.0000000000
40
0.0000000000
40
1.0000000000
40
1.0000000000
40
1.0000000000
40
1.0000000000
10
289.4611519490
20
-142.6176765869
30
0.0000000000
10
289.5039995408
20
-142.5305119598
30
0.0000000000
10
289.5465429387
20
-142.4431967193
30
0.0000000000
10
289.5891902897
20
-142.3559355725
30
0.0000000000
11
289.4611519490
21
-142.6176765869
31
0.0000000000
11
289.5891902897
21
-142.3559355725
31
0.0000000000
0
SPLINE
5
470
100
AcDbEntity
8
0
100
AcDbSpline
62
7
6
CONTINUOUS
70
0
71
3
72
10
73
6
74
4
42
0.0000001000
43
0.0000001000
44
0.0000000001
12
-1.2260157991
22
0.0000000000
32
0.0000000000
13
-0.6439706291
23
1.0438159740
33
0.0000000000
40
0.0000000000
40
0.0000000000
40
0.0000000000
40
0.0000000000
40
0.3371776417
40
0.8090431634
40
1.0000000000
40
1.0000000000
40
1.0000000000
40
1.0000000000
10
-304.2754115469
20
-144.3559355725
30
0.0000000000
10
-304.4132065855
20
-144.3559355725
30
0.0000000000
10
-304.7335593676
20
-144.1940159543
30
0.0000000000
10
-304.9824670460
20
-143.8677130911
30
0.0000000000
10
-305.1291443055
20
-143.6397855093
30
0.0000000000
10
-305.1701345036
20
-143.5733442439
30
0.0000000000
11
-304.2754115469
21
-144.3559355725
31
0.0000000000
11
-304.6595628178
21
-144.2032428908
31
0.0000000000
11
-305.0431106286
21
-143.7701491349
31
0.0000000000
11
-305.1701345036
21
-143.5733442439
31
0.0000000000
0
SPLINE
5
471
100
AcDbEntity
8
0
100
AcDbSpline
62
7
6
CONTINUOUS
70
0
71
3
72
9
73
5
74
3
42
0.0000001000
43
0.0000001000
44
0.0000000001
12
-0.4189174838
22
0.6790259395
32
0.0000000000
13
-0.3600222482
23
0.7116900321
33
0.0000000000
40
0.0000000000
40
0.0000000000
40
0.0000000000
40
0.0000000000
40
0.6503375476
40
1.0000000000
40
1.0000000000
40
1.0000000000
40
1.0000000000
10
-305.1701345036
20
-143.5733442439
30
0.0000000000
10
-305.2609470933
20
-143.4261455558
30
0.0000000000
10
-305.3910236777
20
-143.1939459822
30
0.0000000000
10
-305.5128815157
20
-142.9576389311
30
0.0000000000
10
-305.5548436031
20
-142.8746885038
30
0.0000000000
11
-305.1701345036
21
-143.5733442439
31
0.0000000000
11
-305.4266584393
21
-143.1223921411
31
0.0000000000
11
-305.5548436031
21
-142.8746885038
31
0.0000000000
0
SPLINE
5
472
100
AcDbEntity
8
0
100
AcDbSpline
62
7
6
CONTINUOUS
70
0
71
3
72
8
73
4
74
2
42
0.0000001000
43
0.0000001000
44
0.0000000001
12
-0.1295944808
22
0.2561816684
32
0.0000000000
13
-0.1266514469
23
0.2576463618
33
0.0000000000
40
0.0000000000
40
0.0000000000
40
0.0000000000
40
0.0000000000
40
1.0000000000
40
1.0000000000
40
1.0000000000
40
1.0000000000
10
-305.5548436031
20
-142.8746885038
30
0.0000000000
10
-305.5980417634
20
-142.7892946143
30
0.0000000000
10
-305.6405542206
20
-142.7035587075
30
0.0000000000
10
-305.6827713695
20
-142.6176765869
30
0.0000000000
11
-305.5548436031
21
-142.8746885038
31
0.0000000000
11
-305.6827713695
21
-142.6176765869
31
0.0000000000
0
SPLINE
5
473
100
AcDbEntity
8
0
100
AcDbSpline
62
7
6
CONTINUOUS
70
0
71
3
72
8
73
4
74
2
42
0.0000001000
43
0.0000001000
44
0.0000000001
12
-0.1285427755
22
0.2614938813
32
0.0000000000
13
-0.1279420530
23
0.2617834405
33
0.0000000000
40
0.0000000000
40
0.0000000000
40
0.0000000000
40
0.0000000000
40
1.0000000000
40
1.0000000000
40
1.0000000000
40
1.0000000000
10
-305.6827713695
20
-142.6176765869
30
0.0000000000
10
-305.7256189614
20
-142.5305119598
30
0.0000000000
10
-305.7681623593
20
-142.4431967193
30
0.0000000000
10
-305.8108097103
20
-142.3559355725
30
0.0000000000
11
-305.6827713695
21
-142.6176765869
31
0.0000000000
11
-305.8108097103
21
-142.3559355725
31
0.0000000000
0
ENDSEC
0
SECTION
2
OBJECTS
0
DICTIONARY
5
474
100
AcDbDictionary
3
ACAD_GROUP
350
475
3
ACAD_MLINESTYLE
350
476
0
DICTIONARY
5
475
102
{ACAD_REACTORS
330
474
102
}
100
AcDbDictionary
0
DICTIONARY
5
476
102
{ACAD_REACTORS
330
474
102
}
100
AcDbDictionary
3
STANDARD
350
477
0
MLINESTYLE
5
477
102
{ACAD_REACTORS
330
476
102
}
100
AcDbMlineStyle
2
STANDARD
70
0
3

62
256
51
90.0
52
90.0
71
2
49
0.5
62
256
6
BYLAYER
49
-0.5
62
256
6
BYLAYER
0
ENDSEC
0
EOF
