0
SECTION
2
HEADER
9
$ACADVER
1
AC1014
9
$HANDSEED
5
       48E
9
$EXTMAX
10
297.0000000000
20
210.0000000000
9
$EXTMIN
10
0.0000000000
20
0.0000000000
9
$LIMMIN
10
0.0000000000
20
0.0000000000
9
$LIMMAX
10
297.0000000000
20
210.0000000000
9
$VIEWCTR
10
148.5000000000
20
105.0000000000
9
$VIEWSIZE
40
210.0000000000
9
$CLAYER
8
0
9
$LTSCALE
40
16.3350000000
9
$CELTYPE
6
BYLAYER
9
$DIMSCALE
40
1
9
$DIMASZ
40
3.0000000000
9
$DIMEXO
40
1.8562500000
9
$DIMDLI
40
11.2860000000
9
$DIMEXE
40
5.3460000000
9
$DIMCEN
40
2.6730000000
9
$DIMLFAC
40
1.0000000000
9
$DIMTXT
40
3.0000000000
9
$DIMTOL
70
1
9
$DIMLIM
70
0
9
$DIMTFAC
40
1.0000000000
9
$DIMTP
40
0.0100000000
9
$DIMTM
40
0.0100000000
9
$MEASUREMENT
70
1
0
ENDSEC
0
SECTION
2
CLASSES
0
ENDSEC
0
SECTION
2
TABLES
0
TABLE
2
VPORT
5
8
100
AcDbSymbolTable
70
2
0
VPORT
5
1F4
100
AcDbSymbolTableRecord
100
AcDbViewportTableRecord
2
*ACTIVE
70
0
10
0.0
20
0.0
11
1.0
21
1.0
12
148.5000000000
22
105.0000000000
13
0.0
23
0.0
14
1.0
24
1.0
15
0.0
25
0.0
16
0.0
26
0.0
36
1.0
17
0.0
27
0.0
37
0.0
40
210.0000000000
41
1.4142857143
42
50.0
43
0.0
44
0.0
50
0.0
51
0.0
71
0
72
100
73
1
74
1
75
0
76
0
77
0
78
0
0
ENDTAB
0
TABLE
2
LTYPE
5
5
100
AcDbSymbolTable
70
6
0
LTYPE
5
14
100
AcDbSymbolTableRecord
100
AcDbLinetypeTableRecord
2
BYBLOCK
70
0
3

72
65
73
0
40
0.0
0
LTYPE
5
15
100
AcDbSymbolTableRecord
100
AcDbLinetypeTableRecord
2
BYLAYER
70
0
3

72
65
73
0
40
0.0
0
LTYPE
5
16
100
AcDbSymbolTableRecord
100
AcDbLinetypeTableRecord
2
CONTINUOUS
70
64
3
Solid line
72
65
73
0
40
0
0
LTYPE
5
1F5
100
AcDbSymbolTableRecord
100
AcDbLinetypeTableRecord
2
CENTER
70
64
3
____ _ ____ _ ____ _ ____ _ ____ _ ____ _ ____
72
65
73
4
40
0.6
49
0.375
74
0
49
-0.075
74
0
49
0.075
74
0
49
-0.075
74
0
0
LTYPE
5
1F6
100
AcDbSymbolTableRecord
100
AcDbLinetypeTableRecord
2
HIDDEN
70
64
3
- - - - - - - - - - - - - - - - - - - -
72
65
73
2
40
0.2
49
0.1
74
0
49
-0.1
74
0
0
LTYPE
5
1F7
100
AcDbSymbolTableRecord
100
AcDbLinetypeTableRecord
2
PHANTOM
70
64
3
_____ _ _ _____ _ _ _____ _ _ _____
72
65
73
6
40
0.8
49
0.45
74
0
49
-0.05
74
0
49
0.1
74
0
49
-0.05
74
0
49
0.1
74
0
49
-0.05
74
0
0
LTYPE
5
1F8
100
AcDbSymbolTableRecord
100
AcDbLinetypeTableRecord
2
DOT
70
64
3
. . . . . . . . . . . . . . . . . . . .
72
65
73
2
40
0.2
49
0.1
74
0
49
-0.1
74
0
0
LTYPE
5
1F9
100
AcDbSymbolTableRecord
100
AcDbLinetypeTableRecord
2
DASHED
70
64
3
- - - - - - - - - - - - - - - - - - - -
72
65
73
2
40
0.2
49
0.1
74
0
49
-0.1
74
0
0
ENDTAB
0
TABLE
2
LAYER
5
2
100
AcDbSymbolTable
70
36
0
LAYER
5
10
100
AcDbSymbolTableRecord
100
AcDbLayerTableRecord
2
0
70
0
62
7
6
CONTINUOUS
0
LAYER
5
1FA
100
AcDbSymbolTableRecord
100
AcDbLayerTableRecord
2
DEFAULT_1
70
0
62
7
6
CENTER
0
LAYER
5
1FB
100
AcDbSymbolTableRecord
100
AcDbLayerTableRecord
2
DEFAULT_2
70
0
62
8
6
HIDDEN
0
LAYER
5
1FC
100
AcDbSymbolTableRecord
100
AcDbLayerTableRecord
2
DEFAULT_3
70
0
62
7
6
PHANTOM
0
LAYER
5
1FD
100
AcDbSymbolTableRecord
100
AcDbLayerTableRecord
2
ASSI
70
0
62
7
6
CONTINUOUS
0
LAYER
5
1FE
100
AcDbSymbolTableRecord
100
AcDbLayerTableRecord
2
COORDINATE
70
0
62
7
6
CONTINUOUS
0
LAYER
5
1FF
100
AcDbSymbolTableRecord
100
AcDbLayerTableRecord
2
COORD_ORIGINE
70
0
62
7
6
CONTINUOUS
0
LAYER
5
200
100
AcDbSymbolTableRecord
100
AcDbLayerTableRecord
2
COSMETICI
70
0
62
7
6
CONTINUOUS
0
LAYER
5
201
100
AcDbSymbolTableRecord
100
AcDbLayerTableRecord
2
CURVE
70
0
62
7
6
CONTINUOUS
0
LAYER
5
202
100
AcDbSymbolTableRecord
100
AcDbLayerTableRecord
2
DRAFT
70
0
62
7
6
CONTINUOUS
0
LAYER
5
203
100
AcDbSymbolTableRecord
100
AcDbLayerTableRecord
2
IGES
70
0
62
7
6
CONTINUOUS
0
LAYER
5
204
100
AcDbSymbolTableRecord
100
AcDbLayerTableRecord
2
NOTE
70
0
62
7
6
CONTINUOUS
0
LAYER
5
205
100
AcDbSymbolTableRecord
100
AcDbLayerTableRecord
2
PIANI
70
0
62
7
6
CONTINUOUS
0
LAYER
5
206
100
AcDbSymbolTableRecord
100
AcDbLayerTableRecord
2
PIANI_ORIGINE
70
0
62
7
6
CONTINUOUS
0
LAYER
5
207
100
AcDbSymbolTableRecord
100
AcDbLayerTableRecord
2
PUNTI
70
0
62
7
6
CONTINUOUS
0
LAYER
5
208
100
AcDbSymbolTableRecord
100
AcDbLayerTableRecord
2
RACCORDO
70
0
62
7
6
CONTINUOUS
0
LAYER
5
209
100
AcDbSymbolTableRecord
100
AcDbLayerTableRecord
2
SMUSSO
70
0
62
7
6
CONTINUOUS
0
LAYER
5
20A
100
AcDbSymbolTableRecord
100
AcDbLayerTableRecord
2
SNAPLINE
70
0
62
7
6
CONTINUOUS
0
LAYER
5
20B
100
AcDbSymbolTableRecord
100
AcDbLayerTableRecord
2
SUPERFICI
70
0
62
7
6
CONTINUOUS
0
LAYER
5
20C
100
AcDbSymbolTableRecord
100
AcDbLayerTableRecord
2
TRASH
70
0
62
7
6
CONTINUOUS
0
ENDTAB
0
TABLE
2
STYLE
5
3
100
AcDbSymbolTable
70
1
0
STYLE
5
11
100
AcDbSymbolTableRecord
100
AcDbTextStyleTableRecord
2
STANDARD
70
0
40
0.0
41
0.8000000000
50
0.0
71
0
42
0.2
3
txt
4

0
ENDTAB
0
TABLE
2
VIEW
5
6
100
AcDbSymbolTable
70
0
0
ENDTAB
0
TABLE
2
UCS
5
7
100
AcDbSymbolTable
70
0
0
ENDTAB
0
TABLE
2
APPID
5
9
100
AcDbSymbolTable
70
1
0
APPID
5
20D
100
AcDbSymbolTableRecord
100
AcDbRegAppTableRecord
2
ACAD
70
0
0
ENDTAB
0
TABLE
2
DIMSTYLE
5
A
100
AcDbSymbolTable
70
1
0
DIMSTYLE
105
20E
100
AcDbSymbolTableRecord
100
AcDbDimStyleTableRecord
2
STANDARD
70
0
3

4

5

6

7

40
1.0
41
3.0000000000
42
0.0625
43
0.38
44
0.18
45
0.0
46
0.0
47
0.0100000000
48
0.0100000000
140
3.0000000000
141
0.09
142
0.0
143
25.4
144
1.0000000000
145
0.0
146
1.0000000000
147
0.09
71
1
72
0
73
0
74
0
75
0
76
0
77
1
78
8
170
0
171
2
172
0
173
0
174
0
175
0
176
0
177
0
178
0
270
2
271
2
272
2
273
2
274
2
340
11
275
0
280
0
281
0
282
0
283
1
284
8
285
0
286
0
287
3
288
0
0
DIMSTYLE
105
20F
100
AcDbSymbolTableRecord
100
AcDbDimStyleTableRecord
2
DIMSTYLE_1
70
0
3

4

5

6

7

40
1.0
41
3.0000000000
42
0.0625
43
0.38
44
0.18
45
0.0
46
0.0
47
0.0000000000
48
0.0000000000
140
3.0000000000
141
0.09
142
0.0
143
25.4
144
1.0000000000
145
0.0
146
1.0000000000
147
0.09
71
0
72
0
73
0
74
0
75
0
76
0
77
1
78
8
170
0
171
2
172
0
173
0
174
0
175
0
176
0
177
0
178
0
270
2
271
2
272
2
273
2
274
2
340
11
275
0
280
0
281
0
282
0
283
1
284
8
285
0
286
0
287
3
288
0
0
ENDTAB
0
TABLE
2
BLOCK_RECORD
5
1
100
AcDbSymbolTable
70
0
0
BLOCK_RECORD
5
1B
100
AcDbSymbolTableRecord
100
AcDbBlockTableRecord
2
*MODEL_SPACE
0
BLOCK_RECORD
5
1C
100
AcDbSymbolTableRecord
100
AcDbBlockTableRecord
2
*PAPER_SPACE
0
BLOCK_RECORD
5
210
100
AcDbSymbolTableRecord
100
AcDbBlockTableRecord
2
*D0
0
BLOCK_RECORD
5
211
100
AcDbSymbolTableRecord
100
AcDbBlockTableRecord
2
*D1
0
ENDTAB
0
ENDSEC
0
SECTION
2
BLOCKS
0
BLOCK
5
1E
100
AcDbEntity
8
0
100
AcDbBlockBegin
2
*MODEL_SPACE
70
0
10
0.0
20
0.0
30
0.0
3
*MODEL_SPACE
1

0
ENDBLK
5
1F
100
AcDbEntity
8
0
100
AcDbBlockEnd
0
BLOCK
5
20
100
AcDbEntity
8
0
100
AcDbBlockBegin
2
*PAPER_SPACE
70
0
10
0.0
20
0.0
30
0.0
3
*PAPER_SPACE
1

0
ENDBLK
5
21
100
AcDbEntity
8
0
100
AcDbBlockEnd
0
BLOCK
5
212
100
AcDbEntity
8
0
100
AcDbBlockBegin
62
7
6
CONTINUOUS
2
*D0
70
65
10
0.0000000000
20
0.0000000000
3
*D0
1

0
TEXT
5
213
100
AcDbEntity
8
0
100
AcDbText
62
7
6
CONTINUOUS
10
-188.5585954499
20
188.4412113699
7
STANDARD
40
3.0000000000
1
400
41
0.7857142857
72
0
100
AcDbText
0
LINE
5
214
100
AcDbEntity
8
0
100
AcDbLine
62
7
6
CONTINUOUS
10
14.9771188358
20
115.2607018813
11
14.9771188358
21
189.1912113699
0
LINE
5
215
100
AcDbEntity
8
0
100
AcDbLine
62
7
6
CONTINUOUS
10
-385.0228811642
20
115.2607018813
11
-385.0228811642
21
189.1912113699
0
LINE
5
216
100
AcDbEntity
8
0
100
AcDbLine
62
7
6
CONTINUOUS
10
14.9771188358
20
187.6912113699
11
-185.0228811642
21
187.6912113699
0
LINE
5
217
100
AcDbEntity
8
0
100
AcDbLine
62
7
6
CONTINUOUS
10
-385.0228811642
20
187.6912113699
11
-185.0228811642
21
187.6912113699
0
SOLID
5
218
100
AcDbEntity
8
0
100
AcDbTrace
62
7
6
CONTINUOUS
10
11.9771188358
20
186.7412113699
11
14.9771188358
21
187.6912113699
12
11.9771188358
22
188.6412113699
13
11.9771188358
23
188.6412113699
0
SOLID
5
219
100
AcDbEntity
8
0
100
AcDbTrace
62
7
6
CONTINUOUS
10
-382.0228811642
20
188.6412113699
11
-385.0228811642
21
187.6912113699
12
-382.0228811642
22
186.7412113699
13
-382.0228811642
23
186.7412113699
0
ENDBLK
5
21A
100
AcDbEntity
8
0
100
AcDbBlockEnd
0
BLOCK
5
21B
100
AcDbEntity
8
0
100
AcDbBlockBegin
62
7
6
CONTINUOUS
2
*D1
70
65
10
0.0000000000
20
0.0000000000
3
*D1
1

0
TEXT
5
21C
100
AcDbEntity
8
0
100
AcDbText
62
7
6
CONTINUOUS
10
122.2271188358
20
-74.0607266901
7
STANDARD
40
3.0000000000
1
350
50
90.0000000000
41
0.7380952381
72
0
100
AcDbText
0
LINE
5
21D
100
AcDbEntity
8
0
100
AcDbLine
62
7
6
CONTINUOUS
10
25.9771188358
20
104.2607018813
11
124.4771188358
21
104.2607018813
0
LINE
5
21E
100
AcDbEntity
8
0
100
AcDbLine
62
7
6
CONTINUOUS
10
25.9771188358
20
-245.7392981187
11
124.4771188358
21
-245.7392981187
0
LINE
5
21F
100
AcDbEntity
8
0
100
AcDbLine
62
7
6
CONTINUOUS
10
122.9771188358
20
104.2607018813
11
122.9771188358
21
-70.7392981187
0
LINE
5
220
100
AcDbEntity
8
0
100
AcDbLine
62
7
6
CONTINUOUS
10
122.9771188358
20
-245.7392981187
11
122.9771188358
21
-70.7392981187
0
SOLID
5
221
100
AcDbEntity
8
0
100
AcDbTrace
62
7
6
CONTINUOUS
10
123.9271188358
20
101.2607018813
11
122.9771188358
21
104.2607018813
12
122.0271188358
22
101.2607018813
13
122.0271188358
23
101.2607018813
0
SOLID
5
222
100
AcDbEntity
8
0
100
AcDbTrace
62
7
6
CONTINUOUS
10
122.0271188358
20
-242.7392981187
11
122.9771188358
21
-245.7392981187
12
123.9271188358
22
-242.7392981187
13
123.9271188358
23
-242.7392981187
0
ENDBLK
5
223
100
AcDbEntity
8
0
100
AcDbBlockEnd
0
ENDSEC
0
SECTION
2
ENTITIES
0
DIMENSION
5
224
100
AcDbEntity
8
0
100
AcDbDimension
62
7
6
CONTINUOUS
2
*D0
10
-385.0228811642
20
187.6912113699
11
-185.0228811642
21
189.9412113699
70
160
3
DIMSTYLE_1
100
AcDbAlignedDimension
13
14.9771188358
23
115.2607018813
14
-385.0228811642
24
115.2607018813
50
180.000000
100
AcDbRotatedDimension
0
DIMENSION
5
225
100
AcDbEntity
8
0
100
AcDbDimension
62
7
6
CONTINUOUS
2
*D1
10
122.9771188358
20
-245.7392981187
11
120.7271188358
21
-70.7392981187
70
160
3
DIMSTYLE_1
100
AcDbAlignedDimension
13
25.9771188358
23
104.2607018813
14
25.9771188358
24
-245.7392981187
50
270.000000
100
AcDbRotatedDimension
0
LINE
5
226
100
AcDbEntity
8
0
100
AcDbLine
62
7
6
CONTINUOUS
10
-485.0228811642
20
-314.7392981187
11
-485.0228811642
21
-276.7392981187
0
LINE
5
227
100
AcDbEntity
8
0
100
AcDbLine
62
7
6
CONTINUOUS
10
-485.0228811642
20
173.2607018813
11
-485.0228811642
21
137.2607018813
0
LINE
5
228
100
AcDbEntity
8
0
100
AcDbLine
62
7
6
CONTINUOUS
10
-485.0228811642
20
135.2607018813
11
-485.0228811642
21
136.7607018813
0
LINE
5
229
100
AcDbEntity
8
0
100
AcDbLine
62
7
6
CONTINUOUS
10
-485.0228811642
20
173.5107018813
11
-485.0228811642
21
174.2607018813
0
LINE
5
22A
100
AcDbEntity
8
0
100
AcDbLine
62
7
6
CONTINUOUS
10
-485.0228811642
20
134.7607018813
11
-485.0228811642
21
-276.2392981187
0
LINE
5
22B
100
AcDbEntity
8
0
100
AcDbLine
62
7
6
CONTINUOUS
10
-485.0228811642
20
-314.9892981187
11
-485.0228811642
21
-315.7392981187
0
LINE
5
22C
100
AcDbEntity
8
0
100
AcDbLine
62
7
6
CONTINUOUS
10
-483.9992823886
20
175.0036558039
11
-483.9992823886
21
175.2607018813
0
LINE
5
22D
100
AcDbEntity
8
0
100
AcDbLine
62
7
6
CONTINUOUS
10
-483.9992823886
20
-316.4708941545
11
-483.9992823886
21
-316.7392981187
0
LINE
5
22E
100
AcDbEntity
8
0
100
AcDbLine
62
9
6
CONTINUOUS
10
-483.0228811642
20
133.2607018813
11
-483.0228811642
21
-274.7392981187
0
LINE
5
22F
100
AcDbEntity
8
0
100
AcDbLine
62
7
6
CONTINUOUS
10
-483.0228811642
20
133.7607018813
11
-483.0228811642
21
135.2607018813
0
LINE
5
230
100
AcDbEntity
8
0
100
AcDbLine
62
7
6
CONTINUOUS
10
-483.0228811642
20
-275.2392981187
11
-483.0228811642
21
-276.7392981187
0
LINE
5
231
100
AcDbEntity
8
0
100
AcDbLine
62
7
6
CONTINUOUS
10
-470.0228811642
20
-53.7392981187
11
-470.0228811642
21
-87.7392981187
0
LINE
5
232
100
AcDbEntity
8
0
100
AcDbLine
62
7
6
CONTINUOUS
10
-469.0228811642
20
-53.7392981187
11
-469.0228811642
21
-87.7392981187
0
LINE
5
233
100
AcDbEntity
8
0
100
AcDbLine
62
7
6
CONTINUOUS
10
-468.0228811642
20
-53.7392981187
11
-468.0228811642
21
-87.7392981187
0
LINE
5
234
100
AcDbEntity
8
0
100
AcDbLine
62
7
6
CONTINUOUS
10
-467.0228811642
20
-53.7392981187
11
-467.0228811642
21
-87.7392981187
0
LINE
5
235
100
AcDbEntity
8
0
100
AcDbLine
62
7
6
CONTINUOUS
10
-465.0228811642
20
-87.7392981187
11
-465.0228811642
21
-53.7392981187
0
LINE
5
236
100
AcDbEntity
8
0
100
AcDbLine
62
7
6
CONTINUOUS
10
-464.0228811642
20
-87.7392981187
11
-464.0228811642
21
-53.7392981187
0
LINE
5
237
100
AcDbEntity
8
0
100
AcDbLine
62
9
6
CONTINUOUS
10
-72.5553643856
20
-318.5485598636
11
-82.4903979427
21
-318.5485598636
0
LINE
5
238
100
AcDbEntity
8
0
100
AcDbLine
62
9
6
CONTINUOUS
10
-287.5553643856
20
-318.5485598636
11
-297.4903979427
21
-318.5485598636
0
LINE
5
239
100
AcDbEntity
8
0
100
AcDbLine
62
7
6
CONTINUOUS
10
-65.0228811642
20
-318.2392981187
11
-305.0228811642
21
-318.2392981187
0
LINE
5
23A
100
AcDbEntity
8
0
100
AcDbLine
62
7
6
CONTINUOUS
10
-483.9992823886
20
-316.7392981187
11
113.9535200602
21
-316.7392981187
0
LINE
5
23B
100
AcDbEntity
8
0
100
AcDbLine
62
9
6
CONTINUOUS
10
-485.0228811642
20
-314.7392981187
11
114.9771188358
21
-314.7392981187
0
LINE
5
23C
100
AcDbEntity
8
0
100
AcDbLine
62
9
6
CONTINUOUS
10
-395.0228811642
20
-165.7392981187
11
-395.0228811642
21
-164.7392981187
0
LINE
5
23D
100
AcDbEntity
8
0
100
AcDbLine
62
7
6
CONTINUOUS
10
-395.0228811642
20
74.2607018813
11
-395.0228811642
21
24.2607018813
0
LINE
5
23E
100
AcDbEntity
8
0
100
AcDbLine
62
7
6
CONTINUOUS
10
-395.0228811642
20
23.2607018813
11
-395.0228811642
21
-164.7392981187
0
LINE
5
23F
100
AcDbEntity
8
0
100
AcDbLine
62
9
6
CONTINUOUS
10
-395.0228811642
20
23.2607018813
11
-395.0228811642
21
24.2607018813
0
LINE
5
240
100
AcDbEntity
8
0
100
AcDbLine
62
7
6
CONTINUOUS
10
-395.0228811642
20
-165.7392981187
11
-395.0228811642
21
-215.7392981187
0
LINE
5
241
100
AcDbEntity
8
0
100
AcDbLine
62
7
6
CONTINUOUS
10
-393.0228811642
20
-213.7392981187
11
-393.0228811642
21
-165.7392981187
0
LINE
5
242
100
AcDbEntity
8
0
100
AcDbLine
62
9
6
CONTINUOUS
10
-393.0228811642
20
24.2607018813
11
-393.0228811642
21
23.2607018813
0
LINE
5
243
100
AcDbEntity
8
0
100
AcDbLine
62
7
6
CONTINUOUS
10
-393.0228811642
20
-164.7392981187
11
-393.0228811642
21
23.2607018813
0
LINE
5
244
100
AcDbEntity
8
0
100
AcDbLine
62
7
6
CONTINUOUS
10
-393.0228811642
20
24.2607018813
11
-393.0228811642
21
72.2607018813
0
LINE
5
245
100
AcDbEntity
8
0
100
AcDbLine
62
9
6
CONTINUOUS
10
-393.0228811642
20
-164.7392981187
11
-393.0228811642
21
-165.7392981187
0
LINE
5
246
100
AcDbEntity
8
0
100
AcDbLine
62
9
6
CONTINUOUS
10
-485.0228811642
20
-278.7392981187
11
114.9771188358
21
-278.7392981187
0
LINE
5
247
100
AcDbEntity
8
0
100
AcDbLine
62
7
6
CONTINUOUS
10
-485.0228811642
20
-276.7392981187
11
113.4417206724
21
-276.7392981187
0
LINE
5
248
100
AcDbEntity
8
0
100
AcDbLine
62
7
6
CONTINUOUS
10
-485.0228811642
20
-276.2392981187
11
-484.5039706317
21
-276.2392981187
0
LINE
5
249
100
AcDbEntity
8
0
100
AcDbLine
62
7
6
CONTINUOUS
10
114.9771188358
20
-276.2392981187
11
114.4582083033
21
-276.2392981187
0
LINE
5
24A
100
AcDbEntity
8
0
100
AcDbLine
62
7
6
CONTINUOUS
10
-388.5228811642
20
118.2607018813
11
-388.5228811642
21
112.5522638572
0
LINE
5
24B
100
AcDbEntity
8
0
100
AcDbLine
62
7
6
CONTINUOUS
10
-388.5228811642
20
95.9691399054
11
-388.5228811642
21
90.2607018813
0
LINE
5
24C
100
AcDbEntity
8
0
100
AcDbLine
62
7
6
CONTINUOUS
10
-388.5228811642
20
-231.7392981187
11
-388.5228811642
21
-237.4477361428
0
LINE
5
24D
100
AcDbEntity
8
0
100
AcDbLine
62
7
6
CONTINUOUS
10
-388.5228811642
20
-254.0308600946
11
-388.5228811642
21
-259.7392981187
0
LINE
5
24E
100
AcDbEntity
8
0
100
AcDbLine
62
7
6
CONTINUOUS
10
-385.0228811642
20
-246.4817981187
11
-385.0228811642
21
-244.9967981187
0
LINE
5
24F
100
AcDbEntity
8
DEFAULT_1
100
AcDbLine
62
7
6
CENTER
10
-385.0228811642
20
-242.0267981187
11
-385.0228811642
21
-235.2392981187
0
LINE
5
250
100
AcDbEntity
8
0
100
AcDbLine
62
7
6
CONTINUOUS
10
-385.0228811642
20
105.0032018813
11
-385.0228811642
21
103.5182018813
0
LINE
5
251
100
AcDbEntity
8
DEFAULT_1
100
AcDbLine
62
7
6
CENTER
10
-385.0228811642
20
100.5482018813
11
-385.0228811642
21
93.7607018813
0
LINE
5
252
100
AcDbEntity
8
DEFAULT_1
100
AcDbLine
62
7
6
CENTER
10
-385.0228811642
20
107.9732018813
11
-385.0228811642
21
114.7607018813
0
LINE
5
253
100
AcDbEntity
8
DEFAULT_1
100
AcDbLine
62
7
6
CENTER
10
-385.0228811642
20
-249.4517981187
11
-385.0228811642
21
-256.2392981187
0
LINE
5
254
100
AcDbEntity
8
0
100
AcDbLine
62
7
6
CONTINUOUS
10
-381.5228811642
20
-259.7392981187
11
-381.5228811642
21
-254.0308600946
0
LINE
5
255
100
AcDbEntity
8
0
100
AcDbLine
62
7
6
CONTINUOUS
10
-381.5228811642
20
-237.4477361428
11
-381.5228811642
21
-231.7392981187
0
LINE
5
256
100
AcDbEntity
8
0
100
AcDbLine
62
7
6
CONTINUOUS
10
-381.5228811642
20
90.2607018813
11
-381.5228811642
21
95.9691399054
0
LINE
5
257
100
AcDbEntity
8
0
100
AcDbLine
62
7
6
CONTINUOUS
10
-381.5228811642
20
112.5522638572
11
-381.5228811642
21
118.2607018813
0
LINE
5
258
100
AcDbEntity
8
0
100
AcDbLine
62
7
6
CONTINUOUS
10
-483.0228811642
20
-275.2392981187
11
-482.7228811642
21
-275.2392981187
0
LINE
5
259
100
AcDbEntity
8
0
100
AcDbLine
62
7
6
CONTINUOUS
10
112.4294980337
20
-275.2392981187
11
112.9771188358
21
-275.2392981187
0
LINE
5
25A
100
AcDbEntity
8
0
100
AcDbLine
62
7
6
CONTINUOUS
10
-485.0228811642
20
-274.7392981187
11
-482.7228811642
21
-274.7392981187
0
LINE
5
25B
100
AcDbEntity
8
0
100
AcDbLine
62
9
6
CONTINUOUS
10
-482.7228811642
20
-274.7392981187
11
112.6771188358
21
-274.7392981187
0
LINE
5
25C
100
AcDbEntity
8
0
100
AcDbLine
62
7
6
CONTINUOUS
10
112.6771188358
20
-274.7392981187
11
114.9771188358
21
-274.7392981187
0
LINE
5
25D
100
AcDbEntity
8
0
100
AcDbLine
62
9
6
CONTINUOUS
10
-290.6920104685
20
179.4379163663
11
-290.6918457157
21
179.4384210066
0
LINE
5
25E
100
AcDbEntity
8
0
100
AcDbLine
62
7
6
CONTINUOUS
10
-385.7653811642
20
-245.7392981187
11
-384.2803811642
21
-245.7392981187
0
LINE
5
25F
100
AcDbEntity
8
DEFAULT_1
100
AcDbLine
62
7
6
CENTER
10
-381.3103811642
20
-245.7392981187
11
-374.5228811642
21
-245.7392981187
0
LINE
5
260
100
AcDbEntity
8
0
100
AcDbLine
62
7
6
CONTINUOUS
10
15.7196188358
20
-245.7392981187
11
14.2346188358
21
-245.7392981187
0
LINE
5
261
100
AcDbEntity
8
DEFAULT_1
100
AcDbLine
62
7
6
CENTER
10
11.2646188358
20
-245.7392981187
11
4.4771188358
21
-245.7392981187
0
LINE
5
262
100
AcDbEntity
8
DEFAULT_1
100
AcDbLine
62
7
6
CENTER
10
18.6896188358
20
-245.7392981187
11
25.4771188358
21
-245.7392981187
0
LINE
5
263
100
AcDbEntity
8
DEFAULT_1
100
AcDbLine
62
7
6
CENTER
10
-388.7353811642
20
-245.7392981187
11
-395.5228811642
21
-245.7392981187
0
LINE
5
264
100
AcDbEntity
8
0
100
AcDbLine
62
9
6
CONTINUOUS
10
-290.6920117697
20
-320.9165086184
11
-290.6918467248
21
-320.9170141579
0
LINE
5
265
100
AcDbEntity
8
0
100
AcDbLine
62
7
6
CONTINUOUS
10
-336.0228811642
20
-215.7392981187
11
-336.0228811642
21
-213.7392981187
0
LINE
5
266
100
AcDbEntity
8
0
100
AcDbLine
62
7
6
CONTINUOUS
10
-336.0228811642
20
72.2607018813
11
-336.0228811642
21
74.2607018813
0
LINE
5
267
100
AcDbEntity
8
0
100
AcDbLine
62
7
6
CONTINUOUS
10
-335.0228811642
20
74.2607018813
11
-335.0228811642
21
72.2607018813
0
LINE
5
268
100
AcDbEntity
8
0
100
AcDbLine
62
7
6
CONTINUOUS
10
-335.0228811642
20
-213.7392981187
11
-335.0228811642
21
-215.7392981187
0
LINE
5
269
100
AcDbEntity
8
0
100
AcDbLine
62
9
6
CONTINUOUS
10
-291.8108758874
20
179.6860933343
11
-291.8108118192
21
179.6866202929
0
LINE
5
26A
100
AcDbEntity
8
0
100
AcDbLine
62
7
6
CONTINUOUS
10
-395.0228811642
20
-215.7392981187
11
-336.0228811642
21
-215.7392981187
0
LINE
5
26B
100
AcDbEntity
8
0
100
AcDbLine
62
7
6
CONTINUOUS
10
-335.0228811642
20
-215.7392981187
11
-185.5228811642
21
-215.7392981187
0
LINE
5
26C
100
AcDbEntity
8
0
100
AcDbLine
62
7
6
CONTINUOUS
10
-184.5228811642
20
-215.7392981187
11
-35.0228811642
21
-215.7392981187
0
LINE
5
26D
100
AcDbEntity
8
0
100
AcDbLine
62
7
6
CONTINUOUS
10
-34.0228811642
20
-215.7392981187
11
24.9771188358
21
-215.7392981187
0
LINE
5
26E
100
AcDbEntity
8
0
100
AcDbLine
62
9
6
CONTINUOUS
10
-34.0228811642
20
-215.7392981187
11
-35.0228811642
21
-215.7392981187
0
LINE
5
26F
100
AcDbEntity
8
0
100
AcDbLine
62
9
6
CONTINUOUS
10
-184.5228811642
20
-215.7392981187
11
-185.5228811642
21
-215.7392981187
0
LINE
5
270
100
AcDbEntity
8
0
100
AcDbLine
62
9
6
CONTINUOUS
10
-335.0228811642
20
-215.7392981187
11
-336.0228811642
21
-215.7392981187
0
LINE
5
271
100
AcDbEntity
8
0
100
AcDbLine
62
9
6
CONTINUOUS
10
-336.0228811642
20
-213.7392981187
11
-335.0228811642
21
-213.7392981187
0
LINE
5
272
100
AcDbEntity
8
0
100
AcDbLine
62
9
6
CONTINUOUS
10
-185.5228811642
20
-213.7392981187
11
-184.5228811642
21
-213.7392981187
0
LINE
5
273
100
AcDbEntity
8
0
100
AcDbLine
62
9
6
CONTINUOUS
10
-35.0228811642
20
-213.7392981187
11
-34.0228811642
21
-213.7392981187
0
LINE
5
274
100
AcDbEntity
8
0
100
AcDbLine
62
7
6
CONTINUOUS
10
22.9771188358
20
-213.7392981187
11
-34.0228811642
21
-213.7392981187
0
LINE
5
275
100
AcDbEntity
8
0
100
AcDbLine
62
7
6
CONTINUOUS
10
-35.0228811642
20
-213.7392981187
11
-184.5228811642
21
-213.7392981187
0
LINE
5
276
100
AcDbEntity
8
0
100
AcDbLine
62
7
6
CONTINUOUS
10
-185.5228811642
20
-213.7392981187
11
-335.0228811642
21
-213.7392981187
0
LINE
5
277
100
AcDbEntity
8
0
100
AcDbLine
62
7
6
CONTINUOUS
10
-336.0228811642
20
-213.7392981187
11
-393.0228811642
21
-213.7392981187
0
LINE
5
278
100
AcDbEntity
8
0
100
AcDbLine
62
9
6
CONTINUOUS
10
-291.8108758894
20
-321.1646895550
11
-291.8108118190
21
-321.1652165268
0
LINE
5
279
100
AcDbEntity
8
0
100
AcDbLine
62
9
6
CONTINUOUS
10
-292.2177364545
20
-320.8328627498
11
-292.2173663092
21
-320.8395664517
0
LINE
5
27A
100
AcDbEntity
8
0
100
AcDbLine
62
7
6
CONTINUOUS
10
-305.0228811642
20
-318.2392981187
11
-305.0228811642
21
-316.7392981187
0
LINE
5
27B
100
AcDbEntity
8
0
100
AcDbLine
62
7
6
CONTINUOUS
10
-305.0228811642
20
176.7607018813
11
-305.0228811642
21
175.2607018813
0
LINE
5
27C
100
AcDbEntity
8
0
100
AcDbLine
62
9
6
CONTINUOUS
10
-302.0228811642
20
-318.2392981187
11
-302.0228811642
21
-316.7392981187
0
LINE
5
27D
100
AcDbEntity
8
0
100
AcDbLine
62
9
6
CONTINUOUS
10
-302.0228811642
20
176.7607018813
11
-302.0228811642
21
175.2607018813
0
LINE
5
27E
100
AcDbEntity
8
0
100
AcDbLine
62
7
6
CONTINUOUS
10
-293.0228811642
20
-321.0659475649
11
-293.0228811642
21
-320.8580417176
0
LINE
5
27F
100
AcDbEntity
8
0
100
AcDbLine
62
7
6
CONTINUOUS
10
-293.0228811642
20
179.3794360415
11
-293.0228811642
21
179.5873513276
0
LINE
5
280
100
AcDbEntity
8
0
100
AcDbLine
62
7
6
CONTINUOUS
10
-292.0228811642
20
179.5873513276
11
-292.0228811642
21
179.3794454802
0
LINE
5
281
100
AcDbEntity
8
0
100
AcDbLine
62
7
6
CONTINUOUS
10
-292.0228811642
20
-320.8580322789
11
-292.0228811642
21
-321.0659475649
0
LINE
5
282
100
AcDbEntity
8
0
100
AcDbLine
62
9
6
CONTINUOUS
10
-292.2177360469
20
179.3542738964
11
-292.2173659258
21
179.3609745581
0
LINE
5
283
100
AcDbEntity
8
0
100
AcDbLine
62
9
6
CONTINUOUS
10
-292.8280258738
20
179.3542665124
11
-292.8283960191
21
179.3609702144
0
LINE
5
284
100
AcDbEntity
8
0
100
AcDbLine
62
9
6
CONTINUOUS
10
-292.8280262814
20
-320.8328701338
11
-292.8283964026
21
-320.8395707955
0
LINE
5
285
100
AcDbEntity
8
0
100
AcDbLine
62
9
6
CONTINUOUS
10
-293.2348864409
20
-321.1646895717
11
-293.2349505091
21
-321.1652165303
0
LINE
5
286
100
AcDbEntity
8
0
100
AcDbLine
62
7
6
CONTINUOUS
10
24.9771188358
20
-165.7392981187
11
22.9771188358
21
-165.7392981187
0
LINE
5
287
100
AcDbEntity
8
0
100
AcDbLine
62
7
6
CONTINUOUS
10
-393.0228811642
20
-165.7392981187
11
-395.0228811642
21
-165.7392981187
0
LINE
5
288
100
AcDbEntity
8
0
100
AcDbLine
62
7
6
CONTINUOUS
10
-395.0228811642
20
-164.7392981187
11
-393.0228811642
21
-164.7392981187
0
LINE
5
289
100
AcDbEntity
8
0
100
AcDbLine
62
7
6
CONTINUOUS
10
22.9771188358
20
-164.7392981187
11
24.9771188358
21
-164.7392981187
0
LINE
5
28A
100
AcDbEntity
8
0
100
AcDbLine
62
9
6
CONTINUOUS
10
-293.2348864389
20
179.6860933176
11
-293.2349505093
21
179.6866202895
0
LINE
5
28B
100
AcDbEntity
8
0
100
AcDbLine
62
9
6
CONTINUOUS
10
-294.3537518599
20
-320.9165126036
11
-294.3539166127
21
-320.9170172439
0
LINE
5
28C
100
AcDbEntity
8
0
100
AcDbLine
62
9
6
CONTINUOUS
10
-294.3537505587
20
179.4379123810
11
-294.3539156036
21
179.4384179206
0
LINE
5
28D
100
AcDbEntity
8
0
100
AcDbLine
62
7
6
CONTINUOUS
10
-185.5228811642
20
-215.7392981187
11
-185.5228811642
21
-213.7392981187
0
LINE
5
28E
100
AcDbEntity
8
0
100
AcDbLine
62
7
6
CONTINUOUS
10
-185.5228811642
20
72.2607018813
11
-185.5228811642
21
74.2607018813
0
LINE
5
28F
100
AcDbEntity
8
0
100
AcDbLine
62
7
6
CONTINUOUS
10
-184.5228811642
20
74.2607018813
11
-184.5228811642
21
72.2607018813
0
LINE
5
290
100
AcDbEntity
8
0
100
AcDbLine
62
7
6
CONTINUOUS
10
-184.5228811642
20
-213.7392981187
11
-184.5228811642
21
-215.7392981187
0
LINE
5
291
100
AcDbEntity
8
0
100
AcDbLine
62
7
6
CONTINUOUS
10
-470.0228811642
20
-87.7392981187
11
-464.0228811642
21
-87.7392981187
0
LINE
5
292
100
AcDbEntity
8
0
100
AcDbLine
62
9
6
CONTINUOUS
10
-75.6920104685
20
179.4379163663
11
-75.6918457157
21
179.4384210066
0
LINE
5
293
100
AcDbEntity
8
0
100
AcDbLine
62
7
6
CONTINUOUS
10
-464.0228811642
20
-53.7392981187
11
-470.0228811642
21
-53.7392981187
0
LINE
5
294
100
AcDbEntity
8
0
100
AcDbLine
62
9
6
CONTINUOUS
10
-75.6920117697
20
-320.9165086184
11
-75.6918467248
21
-320.9170141579
0
LINE
5
295
100
AcDbEntity
8
0
100
AcDbLine
62
9
6
CONTINUOUS
10
-76.8108758874
20
179.6860933343
11
-76.8108118192
21
179.6866202929
0
LINE
5
296
100
AcDbEntity
8
0
100
AcDbLine
62
9
6
CONTINUOUS
10
-76.8108758894
20
-321.1646895550
11
-76.8108118190
21
-321.1652165268
0
LINE
5
297
100
AcDbEntity
8
0
100
AcDbLine
62
9
6
CONTINUOUS
10
-77.2177364545
20
-320.8328627498
11
-77.2173663092
21
-320.8395664517
0
LINE
5
298
100
AcDbEntity
8
0
100
AcDbLine
62
7
6
CONTINUOUS
10
-78.0228811642
20
-321.0659475649
11
-78.0228811642
21
-320.8580417176
0
LINE
5
299
100
AcDbEntity
8
0
100
AcDbLine
62
7
6
CONTINUOUS
10
-78.0228811642
20
179.3794360415
11
-78.0228811642
21
179.5873513276
0
LINE
5
29A
100
AcDbEntity
8
0
100
AcDbLine
62
9
6
CONTINUOUS
10
-77.2177360469
20
179.3542738964
11
-77.2173659258
21
179.3609745581
0
LINE
5
29B
100
AcDbEntity
8
0
100
AcDbLine
62
7
6
CONTINUOUS
10
24.9771188358
20
23.2607018813
11
22.9771188358
21
23.2607018813
0
LINE
5
29C
100
AcDbEntity
8
0
100
AcDbLine
62
7
6
CONTINUOUS
10
-393.0228811642
20
23.2607018813
11
-395.0228811642
21
23.2607018813
0
LINE
5
29D
100
AcDbEntity
8
0
100
AcDbLine
62
7
6
CONTINUOUS
10
-395.0228811642
20
24.2607018813
11
-393.0228811642
21
24.2607018813
0
LINE
5
29E
100
AcDbEntity
8
0
100
AcDbLine
62
7
6
CONTINUOUS
10
22.9771188358
20
24.2607018813
11
24.9771188358
21
24.2607018813
0
LINE
5
29F
100
AcDbEntity
8
0
100
AcDbLine
62
9
6
CONTINUOUS
10
-77.8280258738
20
179.3542665124
11
-77.8283960191
21
179.3609702144
0
LINE
5
2A0
100
AcDbEntity
8
0
100
AcDbLine
62
7
6
CONTINUOUS
10
-77.0228811642
20
179.5873513276
11
-77.0228811642
21
179.3794454802
0
LINE
5
2A1
100
AcDbEntity
8
0
100
AcDbLine
62
7
6
CONTINUOUS
10
-77.0228811642
20
-320.8580322789
11
-77.0228811642
21
-321.0659475649
0
LINE
5
2A2
100
AcDbEntity
8
0
100
AcDbLine
62
9
6
CONTINUOUS
10
-68.0228811642
20
-318.2392981187
11
-68.0228811642
21
-316.7392981187
0
LINE
5
2A3
100
AcDbEntity
8
0
100
AcDbLine
62
9
6
CONTINUOUS
10
-68.0228811642
20
176.7607018813
11
-68.0228811642
21
175.2607018813
0
LINE
5
2A4
100
AcDbEntity
8
0
100
AcDbLine
62
7
6
CONTINUOUS
10
-65.0228811642
20
-318.2392981187
11
-65.0228811642
21
-316.7392981187
0
LINE
5
2A5
100
AcDbEntity
8
0
100
AcDbLine
62
7
6
CONTINUOUS
10
-65.0228811642
20
176.7607018813
11
-65.0228811642
21
175.2607018813
0
LINE
5
2A6
100
AcDbEntity
8
0
100
AcDbLine
62
9
6
CONTINUOUS
10
-77.8280262814
20
-320.8328701338
11
-77.8283964026
21
-320.8395707955
0
LINE
5
2A7
100
AcDbEntity
8
0
100
AcDbLine
62
7
6
CONTINUOUS
10
-35.0228811642
20
-215.7392981187
11
-35.0228811642
21
-213.7392981187
0
LINE
5
2A8
100
AcDbEntity
8
0
100
AcDbLine
62
7
6
CONTINUOUS
10
-35.0228811642
20
72.2607018813
11
-35.0228811642
21
74.2607018813
0
LINE
5
2A9
100
AcDbEntity
8
0
100
AcDbLine
62
7
6
CONTINUOUS
10
-34.0228811642
20
74.2607018813
11
-34.0228811642
21
72.2607018813
0
LINE
5
2AA
100
AcDbEntity
8
0
100
AcDbLine
62
7
6
CONTINUOUS
10
-34.0228811642
20
-213.7392981187
11
-34.0228811642
21
-215.7392981187
0
LINE
5
2AB
100
AcDbEntity
8
0
100
AcDbLine
62
9
6
CONTINUOUS
10
-78.2348864409
20
-321.1646895717
11
-78.2349505091
21
-321.1652165303
0
LINE
5
2AC
100
AcDbEntity
8
0
100
AcDbLine
62
7
6
CONTINUOUS
10
-393.0228811642
20
72.2607018813
11
-336.0228811642
21
72.2607018813
0
LINE
5
2AD
100
AcDbEntity
8
0
100
AcDbLine
62
7
6
CONTINUOUS
10
-335.0228811642
20
72.2607018813
11
-185.5228811642
21
72.2607018813
0
LINE
5
2AE
100
AcDbEntity
8
0
100
AcDbLine
62
7
6
CONTINUOUS
10
-184.5228811642
20
72.2607018813
11
-35.0228811642
21
72.2607018813
0
LINE
5
2AF
100
AcDbEntity
8
0
100
AcDbLine
62
7
6
CONTINUOUS
10
-34.0228811642
20
72.2607018813
11
22.9771188358
21
72.2607018813
0
LINE
5
2B0
100
AcDbEntity
8
0
100
AcDbLine
62
9
6
CONTINUOUS
10
-34.0228811642
20
72.2607018813
11
-35.0228811642
21
72.2607018813
0
LINE
5
2B1
100
AcDbEntity
8
0
100
AcDbLine
62
9
6
CONTINUOUS
10
-184.5228811642
20
72.2607018813
11
-185.5228811642
21
72.2607018813
0
LINE
5
2B2
100
AcDbEntity
8
0
100
AcDbLine
62
9
6
CONTINUOUS
10
-335.0228811642
20
72.2607018813
11
-336.0228811642
21
72.2607018813
0
LINE
5
2B3
100
AcDbEntity
8
0
100
AcDbLine
62
9
6
CONTINUOUS
10
-336.0228811642
20
74.2607018813
11
-335.0228811642
21
74.2607018813
0
LINE
5
2B4
100
AcDbEntity
8
0
100
AcDbLine
62
9
6
CONTINUOUS
10
-185.5228811642
20
74.2607018813
11
-184.5228811642
21
74.2607018813
0
LINE
5
2B5
100
AcDbEntity
8
0
100
AcDbLine
62
9
6
CONTINUOUS
10
-35.0228811642
20
74.2607018813
11
-34.0228811642
21
74.2607018813
0
LINE
5
2B6
100
AcDbEntity
8
0
100
AcDbLine
62
7
6
CONTINUOUS
10
24.9771188358
20
74.2607018813
11
-34.0228811642
21
74.2607018813
0
LINE
5
2B7
100
AcDbEntity
8
0
100
AcDbLine
62
7
6
CONTINUOUS
10
-35.0228811642
20
74.2607018813
11
-184.5228811642
21
74.2607018813
0
LINE
5
2B8
100
AcDbEntity
8
0
100
AcDbLine
62
7
6
CONTINUOUS
10
-185.5228811642
20
74.2607018813
11
-335.0228811642
21
74.2607018813
0
LINE
5
2B9
100
AcDbEntity
8
0
100
AcDbLine
62
7
6
CONTINUOUS
10
-336.0228811642
20
74.2607018813
11
-395.0228811642
21
74.2607018813
0
LINE
5
2BA
100
AcDbEntity
8
0
100
AcDbLine
62
9
6
CONTINUOUS
10
-78.2348864389
20
179.6860933176
11
-78.2349505093
21
179.6866202895
0
LINE
5
2BB
100
AcDbEntity
8
0
100
AcDbLine
62
9
6
CONTINUOUS
10
-79.3537518599
20
-320.9165126036
11
-79.3539166127
21
-320.9170172439
0
LINE
5
2BC
100
AcDbEntity
8
0
100
AcDbLine
62
7
6
CONTINUOUS
10
-385.7653811642
20
104.2607018813
11
-384.2803811642
21
104.2607018813
0
LINE
5
2BD
100
AcDbEntity
8
DEFAULT_1
100
AcDbLine
62
7
6
CENTER
10
-381.3103811642
20
104.2607018813
11
-374.5228811642
21
104.2607018813
0
LINE
5
2BE
100
AcDbEntity
8
0
100
AcDbLine
62
7
6
CONTINUOUS
10
15.7196188358
20
104.2607018813
11
14.2346188358
21
104.2607018813
0
LINE
5
2BF
100
AcDbEntity
8
DEFAULT_1
100
AcDbLine
62
7
6
CENTER
10
11.2646188358
20
104.2607018813
11
4.4771188358
21
104.2607018813
0
LINE
5
2C0
100
AcDbEntity
8
DEFAULT_1
100
AcDbLine
62
7
6
CENTER
10
18.6896188358
20
104.2607018813
11
25.4771188358
21
104.2607018813
0
LINE
5
2C1
100
AcDbEntity
8
DEFAULT_1
100
AcDbLine
62
7
6
CENTER
10
-388.7353811642
20
104.2607018813
11
-395.5228811642
21
104.2607018813
0
LINE
5
2C2
100
AcDbEntity
8
0
100
AcDbLine
62
9
6
CONTINUOUS
10
-79.3537505587
20
179.4379123810
11
-79.3539156036
21
179.4384179206
0
LINE
5
2C3
100
AcDbEntity
8
0
100
AcDbLine
62
7
6
CONTINUOUS
10
11.4771188358
20
118.2607018813
11
11.4771188358
21
112.5522638572
0
LINE
5
2C4
100
AcDbEntity
8
0
100
AcDbLine
62
7
6
CONTINUOUS
10
11.4771188358
20
95.9691399054
11
11.4771188358
21
90.2607018813
0
LINE
5
2C5
100
AcDbEntity
8
0
100
AcDbLine
62
7
6
CONTINUOUS
10
11.4771188358
20
-231.7392981187
11
11.4771188358
21
-237.4477361428
0
LINE
5
2C6
100
AcDbEntity
8
0
100
AcDbLine
62
7
6
CONTINUOUS
10
11.4771188358
20
-254.0308600946
11
11.4771188358
21
-259.7392981187
0
LINE
5
2C7
100
AcDbEntity
8
0
100
AcDbLine
62
7
6
CONTINUOUS
10
14.9771188358
20
-246.4817981187
11
14.9771188358
21
-244.9967981187
0
LINE
5
2C8
100
AcDbEntity
8
DEFAULT_1
100
AcDbLine
62
7
6
CENTER
10
14.9771188358
20
-242.0267981187
11
14.9771188358
21
-235.2392981187
0
LINE
5
2C9
100
AcDbEntity
8
0
100
AcDbLine
62
7
6
CONTINUOUS
10
14.9771188358
20
105.0032018813
11
14.9771188358
21
103.5182018813
0
LINE
5
2CA
100
AcDbEntity
8
DEFAULT_1
100
AcDbLine
62
7
6
CENTER
10
14.9771188358
20
100.5482018813
11
14.9771188358
21
93.7607018813
0
LINE
5
2CB
100
AcDbEntity
8
DEFAULT_1
100
AcDbLine
62
7
6
CENTER
10
14.9771188358
20
107.9732018813
11
14.9771188358
21
114.7607018813
0
LINE
5
2CC
100
AcDbEntity
8
DEFAULT_1
100
AcDbLine
62
7
6
CENTER
10
14.9771188358
20
-249.4517981187
11
14.9771188358
21
-256.2392981187
0
LINE
5
2CD
100
AcDbEntity
8
0
100
AcDbLine
62
7
6
CONTINUOUS
10
18.4771188358
20
-259.7392981187
11
18.4771188358
21
-254.0308600946
0
LINE
5
2CE
100
AcDbEntity
8
0
100
AcDbLine
62
7
6
CONTINUOUS
10
18.4771188358
20
-237.4477361428
11
18.4771188358
21
-231.7392981187
0
LINE
5
2CF
100
AcDbEntity
8
0
100
AcDbLine
62
7
6
CONTINUOUS
10
18.4771188358
20
90.2607018813
11
18.4771188358
21
95.9691399054
0
LINE
5
2D0
100
AcDbEntity
8
0
100
AcDbLine
62
7
6
CONTINUOUS
10
18.4771188358
20
112.5522638572
11
18.4771188358
21
118.2607018813
0
LINE
5
2D1
100
AcDbEntity
8
0
100
AcDbLine
62
9
6
CONTINUOUS
10
22.9771188358
20
-165.7392981187
11
22.9771188358
21
-164.7392981187
0
LINE
5
2D2
100
AcDbEntity
8
0
100
AcDbLine
62
7
6
CONTINUOUS
10
22.9771188358
20
72.2607018813
11
22.9771188358
21
24.2607018813
0
LINE
5
2D3
100
AcDbEntity
8
0
100
AcDbLine
62
7
6
CONTINUOUS
10
22.9771188358
20
23.2607018813
11
22.9771188358
21
-164.7392981187
0
LINE
5
2D4
100
AcDbEntity
8
0
100
AcDbLine
62
9
6
CONTINUOUS
10
22.9771188358
20
23.2607018813
11
22.9771188358
21
24.2607018813
0
LINE
5
2D5
100
AcDbEntity
8
0
100
AcDbLine
62
7
6
CONTINUOUS
10
22.9771188358
20
-165.7392981187
11
22.9771188358
21
-213.7392981187
0
LINE
5
2D6
100
AcDbEntity
8
0
100
AcDbLine
62
7
6
CONTINUOUS
10
24.9771188358
20
-215.7392981187
11
24.9771188358
21
-165.7392981187
0
LINE
5
2D7
100
AcDbEntity
8
0
100
AcDbLine
62
9
6
CONTINUOUS
10
24.9771188358
20
24.2607018813
11
24.9771188358
21
23.2607018813
0
LINE
5
2D8
100
AcDbEntity
8
0
100
AcDbLine
62
7
6
CONTINUOUS
10
24.9771188358
20
-164.7392981187
11
24.9771188358
21
23.2607018813
0
LINE
5
2D9
100
AcDbEntity
8
0
100
AcDbLine
62
7
6
CONTINUOUS
10
24.9771188358
20
24.2607018813
11
24.9771188358
21
74.2607018813
0
LINE
5
2DA
100
AcDbEntity
8
0
100
AcDbLine
62
9
6
CONTINUOUS
10
24.9771188358
20
-164.7392981187
11
24.9771188358
21
-165.7392981187
0
LINE
5
2DB
100
AcDbEntity
8
0
100
AcDbLine
62
7
6
CONTINUOUS
10
-485.0228811642
20
133.2607018813
11
-482.7228811642
21
133.2607018813
0
LINE
5
2DC
100
AcDbEntity
8
0
100
AcDbLine
62
9
6
CONTINUOUS
10
-482.7228811642
20
133.2607018813
11
112.6771188358
21
133.2607018813
0
LINE
5
2DD
100
AcDbEntity
8
0
100
AcDbLine
62
7
6
CONTINUOUS
10
112.6771188358
20
133.2607018813
11
114.9771188358
21
133.2607018813
0
LINE
5
2DE
100
AcDbEntity
8
0
100
AcDbLine
62
7
6
CONTINUOUS
10
112.9771188358
20
133.7607018813
11
112.6771188358
21
133.7607018813
0
LINE
5
2DF
100
AcDbEntity
8
0
100
AcDbLine
62
7
6
CONTINUOUS
10
-482.4752603620
20
133.7607018813
11
-483.0228811642
21
133.7607018813
0
LINE
5
2E0
100
AcDbEntity
8
0
100
AcDbLine
62
7
6
CONTINUOUS
10
-485.0228811642
20
134.7607018813
11
-484.5039706316
21
134.7607018813
0
LINE
5
2E1
100
AcDbEntity
8
0
100
AcDbLine
62
7
6
CONTINUOUS
10
114.9771188358
20
134.7607018813
11
114.4582083033
21
134.7607018813
0
LINE
5
2E2
100
AcDbEntity
8
0
100
AcDbLine
62
7
6
CONTINUOUS
10
114.9771188358
20
135.2607018813
11
-483.4874830008
21
135.2607018813
0
LINE
5
2E3
100
AcDbEntity
8
0
100
AcDbLine
62
9
6
CONTINUOUS
10
114.9771188358
20
137.2607018813
11
-485.0228811642
21
137.2607018813
0
LINE
5
2E4
100
AcDbEntity
8
0
100
AcDbLine
62
9
6
CONTINUOUS
10
114.9771188358
20
173.2607018813
11
-485.0228811642
21
173.2607018813
0
LINE
5
2E5
100
AcDbEntity
8
0
100
AcDbLine
62
7
6
CONTINUOUS
10
113.9535200602
20
175.2607018813
11
-483.9992823886
21
175.2607018813
0
LINE
5
2E6
100
AcDbEntity
8
0
100
AcDbLine
62
7
6
CONTINUOUS
10
-305.0228811642
20
176.7607018813
11
-65.0228811642
21
176.7607018813
0
LINE
5
2E7
100
AcDbEntity
8
0
100
AcDbLine
62
9
6
CONTINUOUS
10
-297.4903979427
20
177.0699636263
11
-287.5553643856
21
177.0699636263
0
LINE
5
2E8
100
AcDbEntity
8
0
100
AcDbLine
62
9
6
CONTINUOUS
10
-82.4903979427
20
177.0699636263
11
-72.5553643856
21
177.0699636263
0
LINE
5
2E9
100
AcDbEntity
8
0
100
AcDbLine
62
7
6
CONTINUOUS
10
94.9771188358
20
111.7607018813
11
94.9771188358
21
106.7607018813
0
LINE
5
2EA
100
AcDbEntity
8
0
100
AcDbLine
62
7
6
CONTINUOUS
10
94.9771188358
20
31.7607018813
11
94.9771188358
21
26.7607018813
0
LINE
5
2EB
100
AcDbEntity
8
0
100
AcDbLine
62
7
6
CONTINUOUS
10
94.9771188358
20
-48.2392981187
11
94.9771188358
21
-53.2392981187
0
LINE
5
2EC
100
AcDbEntity
8
0
100
AcDbLine
62
7
6
CONTINUOUS
10
94.9771188358
20
-88.2392981187
11
94.9771188358
21
-93.2392981187
0
LINE
5
2ED
100
AcDbEntity
8
0
100
AcDbLine
62
7
6
CONTINUOUS
10
94.9771188358
20
-168.2392981187
11
94.9771188358
21
-173.2392981187
0
LINE
5
2EE
100
AcDbEntity
8
0
100
AcDbLine
62
7
6
CONTINUOUS
10
94.9771188358
20
-248.2392981187
11
94.9771188358
21
-253.2392981187
0
LINE
5
2EF
100
AcDbEntity
8
0
100
AcDbLine
62
9
6
CONTINUOUS
10
96.2771188358
20
-252.8695004091
11
96.2771188358
21
-248.6090958282
0
LINE
5
2F0
100
AcDbEntity
8
0
100
AcDbLine
62
9
6
CONTINUOUS
10
96.2771188358
20
-172.8695004091
11
96.2771188358
21
-168.6090958282
0
LINE
5
2F1
100
AcDbEntity
8
0
100
AcDbLine
62
9
6
CONTINUOUS
10
96.2771188358
20
27.1304995909
11
96.2771188358
21
31.3909041718
0
LINE
5
2F2
100
AcDbEntity
8
0
100
AcDbLine
62
9
6
CONTINUOUS
10
96.2771188358
20
107.1304995909
11
96.2771188358
21
111.3909041718
0
LINE
5
2F3
100
AcDbEntity
8
0
100
AcDbLine
62
7
6
CONTINUOUS
10
96.9771188358
20
-252.2213617226
11
96.9771188358
21
-249.5580244015
0
LINE
5
2F4
100
AcDbEntity
8
0
100
AcDbLine
62
7
6
CONTINUOUS
10
96.9771188358
20
-172.2341596168
11
96.9771188358
21
-169.2444366205
0
LINE
5
2F5
100
AcDbEntity
8
0
100
AcDbLine
62
7
6
CONTINUOUS
10
96.9771188358
20
-92.2341596168
11
96.9771188358
21
-89.2444366205
0
LINE
5
2F6
100
AcDbEntity
8
0
100
AcDbLine
62
7
6
CONTINUOUS
10
96.9771188358
20
-52.2341596168
11
96.9771188358
21
-49.2444366205
0
LINE
5
2F7
100
AcDbEntity
8
0
100
AcDbLine
62
7
6
CONTINUOUS
10
96.9771188358
20
27.7658403832
11
96.9771188358
21
30.7555633795
0
LINE
5
2F8
100
AcDbEntity
8
0
100
AcDbLine
62
7
6
CONTINUOUS
10
96.9771188359
20
107.7607018813
11
96.9771188358
21
110.7429850301
0
LINE
5
2F9
100
AcDbEntity
8
0
100
AcDbLine
62
9
6
CONTINUOUS
10
112.9771188358
20
133.2607018813
11
112.9771188358
21
-274.7392981187
0
LINE
5
2FA
100
AcDbEntity
8
0
100
AcDbLine
62
7
6
CONTINUOUS
10
112.9771188358
20
133.7607018813
11
112.9771188358
21
135.2607018813
0
LINE
5
2FB
100
AcDbEntity
8
0
100
AcDbLine
62
7
6
CONTINUOUS
10
112.9771188358
20
-275.2392981187
11
112.9771188358
21
-276.7392981187
0
LINE
5
2FC
100
AcDbEntity
8
0
100
AcDbLine
62
7
6
CONTINUOUS
10
113.9535200602
20
174.9922979171
11
113.9535200602
21
175.2607018813
0
LINE
5
2FD
100
AcDbEntity
8
0
100
AcDbLine
62
7
6
CONTINUOUS
10
113.9535200602
20
-316.4822520413
11
113.9535200602
21
-316.7392981187
0
LINE
5
2FE
100
AcDbEntity
8
0
100
AcDbLine
62
7
6
CONTINUOUS
10
114.9771188358
20
-314.7392981187
11
114.9771188358
21
-278.7392981187
0
LINE
5
2FF
100
AcDbEntity
8
0
100
AcDbLine
62
7
6
CONTINUOUS
10
114.9771188358
20
173.2607018813
11
114.9771188358
21
135.2607018813
0
LINE
5
300
100
AcDbEntity
8
0
100
AcDbLine
62
7
6
CONTINUOUS
10
114.9771188358
20
173.5107018813
11
114.9771188358
21
174.2607018813
0
LINE
5
301
100
AcDbEntity
8
0
100
AcDbLine
62
7
6
CONTINUOUS
10
114.9771188359
20
134.7607018813
11
114.9771188358
21
-276.2392981187
0
LINE
5
302
100
AcDbEntity
8
0
100
AcDbLine
62
7
6
CONTINUOUS
10
114.9771188358
20
-276.7392981187
11
114.9771188358
21
-278.2392981187
0
LINE
5
303
100
AcDbEntity
8
0
100
AcDbLine
62
7
6
CONTINUOUS
10
114.9771188358
20
-314.9892981187
11
114.9771188358
21
-315.7392981187
0
ARC
5
304
100
AcDbEntity
8
0
100
AcDbCircle
62
7
6
CONTINUOUS
10
-290.4228811642
20
-320.7480021898
40
0.1000000000
100
AcDbArc
50
254.7156395953
51
291.1099183904
0
ARC
5
305
100
AcDbEntity
8
0
100
AcDbCircle
62
7
6
CONTINUOUS
10
-294.6228811642
20
-320.7480021898
40
0.1000000000
100
AcDbArc
50
248.8900816096
51
285.2844940467
0
ARC
5
306
100
AcDbEntity
8
0
100
AcDbCircle
62
7
6
CONTINUOUS
10
-292.5228811642
20
-315.3085288879
40
5.9307692308
100
AcDbArc
50
213.1141427513
51
248.8900812184
0
ARC
5
307
100
AcDbEntity
8
0
100
AcDbCircle
62
7
6
CONTINUOUS
10
-292.5228811642
20
-315.3085288879
40
5.9307692308
100
AcDbArc
50
291.1099187816
51
326.8858572487
0
ARC
5
308
100
AcDbEntity
8
0
100
AcDbCircle
62
7
6
CONTINUOUS
10
-297.3228811642
20
-318.4392981187
40
0.2000000000
100
AcDbArc
50
90.0000000000
51
213.1141427513
0
ARC
5
309
100
AcDbEntity
8
0
100
AcDbCircle
62
7
6
CONTINUOUS
10
-287.7228811642
20
-318.4392981187
40
0.2000000000
100
AcDbArc
50
326.8858572487
51
90.0000000000
0
ARC
5
30A
100
AcDbEntity
8
0
100
AcDbCircle
62
7
6
CONTINUOUS
10
-294.6228811642
20
179.2694059524
40
0.1000000000
100
AcDbArc
50
74.7156395953
51
111.1099183904
0
ARC
5
30B
100
AcDbEntity
8
0
100
AcDbCircle
62
7
6
CONTINUOUS
10
-290.4228811642
20
179.2694059524
40
0.1000000000
100
AcDbArc
50
68.8900816096
51
105.2844940467
0
ARC
5
30C
100
AcDbEntity
8
0
100
AcDbCircle
62
7
6
CONTINUOUS
10
-292.5228811642
20
173.8299326505
40
5.9307692308
100
AcDbArc
50
33.1141427513
51
68.8900812184
0
ARC
5
30D
100
AcDbEntity
8
0
100
AcDbCircle
62
7
6
CONTINUOUS
10
-292.5228811642
20
173.8299326505
40
5.9307692308
100
AcDbArc
50
111.1099187816
51
146.8858572487
0
ARC
5
30E
100
AcDbEntity
8
0
100
AcDbCircle
62
7
6
CONTINUOUS
10
-287.7228811642
20
176.9607018813
40
0.2000000000
100
AcDbArc
50
270.0000000000
51
33.1141427513
0
ARC
5
30F
100
AcDbEntity
8
0
100
AcDbCircle
62
7
6
CONTINUOUS
10
-297.3228811642
20
176.9607018813
40
0.2000000000
100
AcDbArc
50
146.8858572487
51
270.0000000000
0
ARC
5
310
100
AcDbEntity
8
0
100
AcDbCircle
62
7
6
CONTINUOUS
10
-75.4228811642
20
-320.7480021898
40
0.1000000000
100
AcDbArc
50
254.7156395953
51
291.1099183904
0
ARC
5
311
100
AcDbEntity
8
0
100
AcDbCircle
62
7
6
CONTINUOUS
10
-79.6228811642
20
-320.7480021898
40
0.1000000000
100
AcDbArc
50
248.8900816096
51
285.2844940467
0
ARC
5
312
100
AcDbEntity
8
0
100
AcDbCircle
62
7
6
CONTINUOUS
10
-77.5228811642
20
-315.3085288879
40
5.9307692308
100
AcDbArc
50
213.1141427513
51
248.8900812184
0
ARC
5
313
100
AcDbEntity
8
0
100
AcDbCircle
62
7
6
CONTINUOUS
10
-77.5228811642
20
-315.3085288879
40
5.9307692308
100
AcDbArc
50
291.1099187816
51
326.8858572487
0
ARC
5
314
100
AcDbEntity
8
0
100
AcDbCircle
62
7
6
CONTINUOUS
10
-82.3228811642
20
-318.4392981187
40
0.2000000000
100
AcDbArc
50
90.0000000000
51
213.1141427513
0
ARC
5
315
100
AcDbEntity
8
0
100
AcDbCircle
62
7
6
CONTINUOUS
10
-72.7228811642
20
-318.4392981187
40
0.2000000000
100
AcDbArc
50
326.8858572487
51
90.0000000000
0
ARC
5
316
100
AcDbEntity
8
0
100
AcDbCircle
62
7
6
CONTINUOUS
10
-79.6228811642
20
179.2694059524
40
0.1000000000
100
AcDbArc
50
74.7156395953
51
111.1099183904
0
ARC
5
317
100
AcDbEntity
8
0
100
AcDbCircle
62
7
6
CONTINUOUS
10
-75.4228811642
20
179.2694059524
40
0.1000000000
100
AcDbArc
50
68.8900816096
51
105.2844940467
0
ARC
5
318
100
AcDbEntity
8
0
100
AcDbCircle
62
7
6
CONTINUOUS
10
-77.5228811642
20
173.8299326505
40
5.9307692308
100
AcDbArc
50
33.1141427513
51
68.8900812184
0
ARC
5
319
100
AcDbEntity
8
0
100
AcDbCircle
62
7
6
CONTINUOUS
10
-77.5228811642
20
173.8299326505
40
5.9307692308
100
AcDbArc
50
111.1099187816
51
146.8858572487
0
ARC
5
31A
100
AcDbEntity
8
0
100
AcDbCircle
62
7
6
CONTINUOUS
10
-72.7228811642
20
176.9607018813
40
0.2000000000
100
AcDbArc
50
270.0000000000
51
33.1141427513
0
ARC
5
31B
100
AcDbEntity
8
0
100
AcDbCircle
62
7
6
CONTINUOUS
10
-82.3228811642
20
176.9607018813
40
0.2000000000
100
AcDbArc
50
146.8858572487
51
270.0000000000
0
ARC
5
31C
100
AcDbEntity
8
0
100
AcDbCircle
62
7
6
CONTINUOUS
10
-483.0228811641
20
133.2607018813
40
0.5000000000
100
AcDbArc
50
90.0000000016
51
175.0694470330
0
ARC
5
31D
100
AcDbEntity
8
0
100
AcDbCircle
62
7
6
CONTINUOUS
10
-483.0228811642
20
-274.7392981187
40
0.5000000000
100
AcDbArc
50
184.9305529612
51
270.0000000009
0
ARC
5
31E
100
AcDbEntity
8
0
100
AcDbCircle
62
7
6
CONTINUOUS
10
112.9771188358
20
133.2607018813
40
0.5000000000
100
AcDbArc
50
4.9305529634
51
90.0000000003
0
ARC
5
31F
100
AcDbEntity
8
0
100
AcDbCircle
62
7
6
CONTINUOUS
10
112.9771188358
20
-274.7392981187
40
0.5000000000
100
AcDbArc
50
270.0000000022
51
355.0694470354
0
ARC
5
320
100
AcDbEntity
8
0
100
AcDbCircle
62
7
6
CONTINUOUS
10
113.4771188358
20
-276.2392981187
40
1.5000000000
100
AcDbArc
50
310.0868079254
51
360.0000000000
0
ARC
5
321
100
AcDbEntity
8
0
100
AcDbCircle
62
7
6
CONTINUOUS
10
113.4771188358
20
134.7607018813
40
1.5000000000
100
AcDbArc
50
0.0000000000
51
19.5214181549
0
ARC
5
322
100
AcDbEntity
8
0
100
AcDbCircle
62
7
6
CONTINUOUS
10
-483.5228811642
20
134.7607018813
40
1.5000000000
100
AcDbArc
50
130.0868079259
51
180.0000000000
0
ARC
5
323
100
AcDbEntity
8
0
100
AcDbCircle
62
7
6
CONTINUOUS
10
-483.5228811642
20
-276.2392981187
40
1.5000000000
100
AcDbArc
50
180.0000000000
51
199.5214181549
0
ARC
5
324
100
AcDbEntity
8
0
100
AcDbCircle
62
7
6
CONTINUOUS
10
112.9771188358
20
173.2607018813
40
2.0000000000
100
AcDbArc
50
7.7259407538
51
52.4439594308
0
ARC
5
325
100
AcDbEntity
8
0
100
AcDbCircle
62
7
6
CONTINUOUS
10
-483.0228811642
20
173.2607018813
40
2.0000000000
100
AcDbArc
50
118.2503837458
51
172.2740592462
0
ARC
5
326
100
AcDbEntity
8
0
100
AcDbCircle
62
7
6
CONTINUOUS
10
-483.0228811642
20
137.2607018813
40
2.0000000000
100
AcDbArc
50
190.0093107987
51
229.9937928008
0
ARC
5
327
100
AcDbEntity
8
0
100
AcDbCircle
62
7
6
CONTINUOUS
10
-483.0228811642
20
-314.7392981187
40
2.0000000000
100
AcDbArc
50
187.7259407538
51
232.4439594308
0
ARC
5
328
100
AcDbEntity
8
0
100
AcDbCircle
62
7
6
CONTINUOUS
10
112.9771188358
20
-314.7392981187
40
2.0000000000
100
AcDbArc
50
298.2503837458
51
352.2740592462
0
ARC
5
329
100
AcDbEntity
8
0
100
AcDbCircle
62
7
6
CONTINUOUS
10
112.9771188358
20
-278.7392981187
40
2.0000000000
100
AcDbArc
50
10.0093107987
51
49.9937928008
0
CIRCLE
5
32A
100
AcDbEntity
8
0
100
AcDbCircle
62
7
6
CONTINUOUS
10
94.9771188358
20
-50.7392981187
40
2.5000000000
0
CIRCLE
5
32B
100
AcDbEntity
8
0
100
AcDbCircle
62
7
6
CONTINUOUS
10
94.9771188358
20
29.2607018813
40
2.5000000000
0
CIRCLE
5
32C
100
AcDbEntity
8
0
100
AcDbCircle
62
7
6
CONTINUOUS
10
94.9771188358
20
-90.7392981187
40
2.5000000000
0
CIRCLE
5
32D
100
AcDbEntity
8
0
100
AcDbCircle
62
7
6
CONTINUOUS
10
94.9771188358
20
-170.7392981187
40
2.5000000000
0
CIRCLE
5
32E
100
AcDbEntity
8
0
100
AcDbCircle
62
7
6
CONTINUOUS
10
94.9771188358
20
109.2607018813
40
2.5000000000
0
CIRCLE
5
32F
100
AcDbEntity
8
0
100
AcDbCircle
62
7
6
CONTINUOUS
10
94.9771188358
20
-250.7392981187
40
2.5000000000
0
ARC
5
330
100
AcDbEntity
8
0
100
AcDbCircle
62
7
6
CONTINUOUS
10
14.9771188358
20
104.2607018813
40
9.0000000000
100
AcDbArc
50
292.8853804762
51
67.1146195238
0
ARC
5
331
100
AcDbEntity
8
0
100
AcDbCircle
62
7
6
CONTINUOUS
10
14.9771188358
20
90.2607018813
40
3.5000000000
100
AcDbArc
50
180.0000000000
51
360.0000000000
0
ARC
5
332
100
AcDbEntity
8
0
100
AcDbCircle
62
7
6
CONTINUOUS
10
14.9771188358
20
104.2607018813
40
9.0000000000
100
AcDbArc
50
112.8853804762
51
247.1146195238
0
ARC
5
333
100
AcDbEntity
8
0
100
AcDbCircle
62
7
6
CONTINUOUS
10
14.9771188358
20
118.2607018813
40
3.5000000000
100
AcDbArc
50
0.0000000000
51
180.0000000000
0
ARC
5
334
100
AcDbEntity
8
0
100
AcDbCircle
62
7
6
CONTINUOUS
10
-385.0228811642
20
118.2607018813
40
3.5000000000
100
AcDbArc
50
0.0000000000
51
180.0000000000
0
ARC
5
335
100
AcDbEntity
8
0
100
AcDbCircle
62
7
6
CONTINUOUS
10
-385.0228811642
20
104.2607018813
40
9.0000000000
100
AcDbArc
50
292.8853804762
51
67.1146195238
0
ARC
5
336
100
AcDbEntity
8
0
100
AcDbCircle
62
7
6
CONTINUOUS
10
-385.0228811642
20
90.2607018813
40
3.5000000000
100
AcDbArc
50
180.0000000000
51
360.0000000000
0
ARC
5
337
100
AcDbEntity
8
0
100
AcDbCircle
62
7
6
CONTINUOUS
10
-385.0228811642
20
104.2607018813
40
9.0000000000
100
AcDbArc
50
112.8853804762
51
247.1146195238
0
ARC
5
338
100
AcDbEntity
8
0
100
AcDbCircle
62
7
6
CONTINUOUS
10
14.9771188358
20
-259.7392981187
40
3.5000000000
100
AcDbArc
50
180.0000000000
51
360.0000000000
0
ARC
5
339
100
AcDbEntity
8
0
100
AcDbCircle
62
7
6
CONTINUOUS
10
14.9771188358
20
-245.7392981187
40
9.0000000000
100
AcDbArc
50
112.8853804762
51
247.1146195238
0
ARC
5
33A
100
AcDbEntity
8
0
100
AcDbCircle
62
7
6
CONTINUOUS
10
14.9771188358
20
-231.7392981187
40
3.5000000000
100
AcDbArc
50
0.0000000000
51
180.0000000000
0
ARC
5
33B
100
AcDbEntity
8
0
100
AcDbCircle
62
7
6
CONTINUOUS
10
14.9771188358
20
-245.7392981187
40
9.0000000000
100
AcDbArc
50
292.8853804762
51
67.1146195238
0
ARC
5
33C
100
AcDbEntity
8
0
100
AcDbCircle
62
7
6
CONTINUOUS
10
-385.0228811642
20
-245.7392981187
40
9.0000000000
100
AcDbArc
50
112.8853804762
51
247.1146195238
0
ARC
5
33D
100
AcDbEntity
8
0
100
AcDbCircle
62
7
6
CONTINUOUS
10
-385.0228811642
20
-231.7392981187
40
3.5000000000
100
AcDbArc
50
0.0000000000
51
180.0000000000
0
ARC
5
33E
100
AcDbEntity
8
0
100
AcDbCircle
62
7
6
CONTINUOUS
10
-385.0228811642
20
-245.7392981187
40
9.0000000000
100
AcDbArc
50
292.8853804762
51
67.1146195238
0
ARC
5
33F
100
AcDbEntity
8
0
100
AcDbCircle
62
7
6
CONTINUOUS
10
-385.0228811642
20
-259.7392981187
40
3.5000000000
100
AcDbArc
50
180.0000000000
51
360.0000000000
0
ARC
5
340
100
AcDbEntity
8
0
100
AcDbCircle
62
7
6
CONTINUOUS
10
112.9771188358
20
-274.7392981187
40
2.0000000000
100
AcDbArc
50
270.0000000005
51
356.2459628957
0
ARC
5
341
100
AcDbEntity
8
0
100
AcDbCircle
62
7
6
CONTINUOUS
10
112.9771188358
20
133.2607018813
40
2.0000000000
100
AcDbArc
50
0.0000000000
51
90.0000000001
0
ARC
5
342
100
AcDbEntity
8
0
100
AcDbCircle
62
7
6
CONTINUOUS
10
-483.0228811642
20
-274.7392981187
40
2.0000000000
100
AcDbArc
50
179.9999999993
51
270.0000000002
0
ARC
5
343
100
AcDbEntity
8
0
100
AcDbCircle
62
7
6
CONTINUOUS
10
-483.0228811641
20
133.2607018813
40
2.0000000000
100
AcDbArc
50
90.0000000004
51
176.2459628951
0
SPLINE
5
344
100
AcDbEntity
8
0
100
AcDbSpline
62
7
6
CONTINUOUS
70
0
71
3
72
16
73
12
74
10
42
0.0000001000
43
0.0000001000
44
0.0000000001
12
0.0289744044
22
-0.2588793067
32
0.0000000000
13
0.2571086795
23
0.0312684163
33
0.0000000000
40
0.0000000000
40
0.0000000000
40
0.0000000000
40
0.0000000000
40
0.0950980898
40
0.2223386279
40
0.3380988178
40
0.4476222810
40
0.5468622451
40
0.6466093114
40
0.7654231273
40
0.9093720201
40
1.0000000000
40
1.0000000000
40
1.0000000000
40
1.0000000000
10
-292.0222425953
20
-321.0771546580
30
0.0000000000
10
-292.0213241252
20
-321.0853609672
30
0.0000000000
10
-292.0168463615
20
-321.1043579038
30
0.0000000000
10
-292.0021265536
20
-321.1301222753
30
0.0000000000
10
-291.9794046474
20
-321.1510219187
30
0.0000000000
10
-291.9540358966
20
-321.1636834085
30
0.0000000000
10
-291.9278909731
20
-321.1696055409
30
0.0000000000
10
-291.9004524386
20
-321.1713145305
30
0.0000000000
10
-291.8691468079
20
-321.1706380893
30
0.0000000000
10
-291.8387144005
20
-321.1683529321
30
0.0000000000
10
-291.8185787022
20
-321.1661627489
30
0.0000000000
10
-291.8108116221
20
-321.1652181511
30
0.0000000000
11
-292.0222425953
21
-321.0771546580
31
0.0000000000
11
-292.0165419904
21
-321.1012358582
31
0.0000000000
11
-292.0002330597
21
-321.1298699440
31
0.0000000000
11
-291.9781867158
21
-321.1501859535
31
0.0000000000
11
-291.9528543109
21
-321.1629457987
31
0.0000000000
11
-291.9278550988
21
-321.1689118883
31
0.0000000000
11
-291.9020977615
21
-321.1708822526
31
0.0000000000
11
-291.8713304548
21
-321.1704378392
31
0.0000000000
11
-291.8341471221
21
-321.1677545862
31
0.0000000000
11
-291.8108116221
21
-321.1652181511
31
0.0000000000
0
SPLINE
5
345
100
AcDbEntity
8
0
100
AcDbSpline
62
7
6
CONTINUOUS
70
0
71
3
72
17
73
13
74
11
42
0.0000001000
43
0.0000001000
44
0.0000000001
12
0.2409615793
22
0.0786737289
32
0.0000000000
13
0.2508541122
23
0.0616341786
33
0.0000000000
40
0.0000000000
40
0.0000000000
40
0.0000000000
40
0.0000000000
40
0.1257174119
40
0.2559316030
40
0.3801033766
40
0.4973284206
40
0.6067933816
40
0.7076507114
40
0.7992778858
40
0.8810031933
40
0.9522887015
40
1.0000000000
40
1.0000000000
40
1.0000000000
40
1.0000000000
10
-290.6918467213
20
-320.9170141685
30
0.0000000000
10
-290.6817490326
20
-320.9137172826
30
0.0000000000
10
-290.6611767461
20
-320.9070537596
30
0.0000000000
10
-290.6305769425
20
-320.8973016498
30
0.0000000000
10
-290.6006143012
20
-320.8879138835
30
0.0000000000
10
-290.5722795805
20
-320.8791977803
30
0.0000000000
10
-290.5457805575
20
-320.8712073311
30
0.0000000000
10
-290.5213125684
20
-320.8640022708
30
0.0000000000
10
-290.4990204458
20
-320.8576162533
30
0.0000000000
10
-290.4791676821
20
-320.8520866276
30
0.0000000000
10
-290.4626023655
20
-320.8476944634
30
0.0000000000
10
-290.4531773635
20
-320.8452472787
30
0.0000000000
10
-290.4491878384
20
-320.8442670631
30
0.0000000000
11
-290.6918467213
21
-320.9170141685
31
0.0000000000
11
-290.6615306765
21
-320.9071942983
31
0.0000000000
11
-290.6300821628
21
-320.8971728922
31
0.0000000000
11
-290.6000459882
21
-320.8877652423
31
0.0000000000
11
-290.5716441754
21
-320.8790321128
31
0.0000000000
11
-290.5450766660
21
-320.8710277151
31
0.0000000000
11
-290.5205507469
21
-320.8638123043
31
0.0000000000
11
-290.4982224517
21
-320.8574188498
31
0.0000000000
11
-290.4782603683
21
-320.8518821469
31
0.0000000000
11
-290.4607988000
21
-320.8472348445
31
0.0000000000
11
-290.4491878384
21
-320.8442670631
31
0.0000000000
0
SPLINE
5
346
100
AcDbEntity
8
0
100
AcDbSpline
62
7
6
CONTINUOUS
70
0
71
3
72
11
73
7
74
5
42
0.0000001000
43
0.0000001000
44
0.0000000001
12
0.0254898087
22
0.0062627772
32
0.0000000000
13
0.0387715112
23
0.0062176843
33
0.0000000000
40
0.0000000000
40
0.0000000000
40
0.0000000000
40
0.0000000000
40
0.1248469644
40
0.5993276583
40
0.9394943737
40
1.0000000000
40
1.0000000000
40
1.0000000000
40
1.0000000000
10
-290.4491878384
20
-320.8442670631
30
0.0000000000
10
-290.4481270633
20
-320.8440064335
30
0.0000000000
10
-290.4429633374
20
-320.8427556120
30
0.0000000000
10
-290.4341447007
20
-320.8407808918
30
0.0000000000
10
-290.4296515626
20
-320.8395400353
30
0.0000000000
10
-290.4238059675
20
-320.8386131925
30
0.0000000000
10
-290.4230240026
20
-320.8384877909
30
0.0000000000
11
-290.4491878384
21
-320.8442670631
31
0.0000000000
11
-290.4459556902
21
-320.8434849257
31
0.0000000000
11
-290.4340591411
21
-320.8406876109
31
0.0000000000
11
-290.4254850637
21
-320.8388849372
31
0.0000000000
11
-290.4230240026
21
-320.8384877909
31
0.0000000000
0
SPLINE
5
347
100
AcDbEntity
8
0
100
AcDbSpline
62
7
6
CONTINUOUS
70
0
71
3
72
10
73
6
74
4
42
0.0000001000
43
0.0000001000
44
0.0000000001
12
1.1394054503
22
0.1385357645
32
0.0000000000
13
1.0911165306
23
0.3562186596
33
0.0000000000
40
0.0000000000
40
0.0000000000
40
0.0000000000
40
0.0000000000
40
0.3242326341
40
0.6737101514
40
1.0000000000
40
1.0000000000
40
1.0000000000
40
1.0000000000
10
-291.8108118245
20
-321.1652164813
30
0.0000000000
10
-291.6876676810
20
-321.1502438761
30
0.0000000000
10
-291.4326987152
20
-321.1110494931
30
0.0000000000
10
-291.0589200631
20
-321.0282197262
30
0.0000000000
10
-290.8105191356
20
-320.9557607477
30
0.0000000000
10
-290.6918457197
20
-320.9170172369
30
0.0000000000
11
-291.8108118245
21
-321.1652164813
31
0.0000000000
11
-291.4429824696
21
-321.1086712936
31
0.0000000000
11
-291.0513726874
21
-321.0218900821
31
0.0000000000
11
-290.6918457197
21
-320.9170172369
31
0.0000000000
0
SPLINE
5
348
100
AcDbEntity
8
0
100
AcDbSpline
62
7
6
CONTINUOUS
70
0
71
3
72
8
73
4
74
2
42
0.0000001000
43
0.0000001000
44
0.0000000001
12
0.0000045224
22
-0.0112105483
32
0.0000000000
13
0.0012537431
23
-0.0111931650
33
0.0000000000
40
0.0000000000
40
0.0000000000
40
0.0000000000
40
0.0000000000
40
1.0000000000
40
1.0000000000
40
1.0000000000
40
1.0000000000
10
-292.0228711740
20
-321.0659386504
30
0.0000000000
10
-292.0228696665
20
-321.0696754998
30
0.0000000000
10
-292.0226578232
20
-321.0734233015
30
0.0000000000
10
-292.0222399088
20
-321.0771543565
30
0.0000000000
11
-292.0228711740
21
-321.0659386504
31
0.0000000000
11
-292.0222399088
21
-321.0771543565
31
0.0000000000
0
SPLINE
5
349
100
AcDbEntity
8
0
100
AcDbSpline
62
7
6
CONTINUOUS
70
0
71
3
72
13
73
9
74
7
42
0.0000001000
43
0.0000001000
44
0.0000000001
12
0.0186732971
22
-0.1667114088
32
0.0000000000
13
0.1668252168
23
-0.0043654261
33
0.0000000000
40
0.0000000000
40
0.0000000000
40
0.0000000000
40
0.0000000000
40
0.1475633507
40
0.3441968187
40
0.5230475999
40
0.6926499719
40
0.8460445029
40
1.0000000000
40
1.0000000000
40
1.0000000000
40
1.0000000000
10
-292.0222399087
20
-321.0771543571
30
0.0000000000
10
-292.0213214106
20
-321.0853545218
30
0.0000000000
10
-292.0168571683
20
-321.1042930146
30
0.0000000000
10
-292.0022177561
20
-321.1299722357
30
0.0000000000
10
-291.9796478789
20
-321.1508402169
30
0.0000000000
10
-291.9544265382
20
-321.1635374179
30
0.0000000000
10
-291.9284164098
20
-321.1695308028
30
0.0000000000
10
-291.9113281722
20
-321.1706409814
30
0.0000000000
10
-291.9027669525
20
-321.1708650085
30
0.0000000000
11
-292.0222399087
21
-321.0771543571
31
0.0000000000
11
-292.0165434833
21
-321.1012181114
31
0.0000000000
11
-292.0003384173
21
-321.1297319820
31
0.0000000000
11
-291.9784524340
21
-321.1500024672
31
0.0000000000
11
-291.9532310824
21
-321.1628133654
31
0.0000000000
11
-291.9283654981
21
-321.1688382672
31
0.0000000000
11
-291.9027669525
21
-321.1708650085
31
0.0000000000
0
SPLINE
5
34A
100
AcDbEntity
8
0
100
AcDbSpline
62
7
6
CONTINUOUS
70
0
71
3
72
8
73
4
74
2
42
0.0000001000
43
0.0000001000
44
0.0000000001
12
0.0304850193
22
-0.0007977217
32
0.0000000000
13
0.0304535634
23
0.0013443544
33
0.0000000000
40
0.0000000000
40
0.0000000000
40
0.0000000000
40
0.0000000000
40
1.0000000000
40
1.0000000000
40
1.0000000000
40
1.0000000000
10
-291.9027669525
20
-321.1708650085
30
0.0000000000
10
-291.8926052794
20
-321.1711309158
30
0.0000000000
10
-291.8824414840
20
-321.1709289847
30
0.0000000000
10
-291.8722902962
20
-321.1704808665
30
0.0000000000
11
-291.9027669525
21
-321.1708650085
31
0.0000000000
11
-291.8722902962
21
-321.1704808665
31
0.0000000000
0
SPLINE
5
34B
100
AcDbEntity
8
0
100
AcDbSpline
62
7
6
CONTINUOUS
70
0
71
3
72
9
73
5
74
3
42
0.0000001000
43
0.0000001000
44
0.0000000001
12
0.0616600254
22
0.0027219451
32
0.0000000000
13
0.0612650701
23
0.0074519145
33
0.0000000000
40
0.0000000000
40
0.0000000000
40
0.0000000000
40
0.0000000000
40
0.5991729697
40
1.0000000000
40
1.0000000000
40
1.0000000000
40
1.0000000000
10
-291.8722902962
20
-321.1704808665
30
0.0000000000
10
-291.8599752893
20
-321.1699372279
30
0.0000000000
10
-291.8394529157
20
-321.1684252008
30
0.0000000000
10
-291.8189972180
20
-321.1662135403
30
0.0000000000
10
-291.8108116526
20
-321.1652178974
30
0.0000000000
11
-291.8722902962
21
-321.1704808665
31
0.0000000000
11
-291.8354063234
21
-321.1678741222
31
0.0000000000
11
-291.8108116526
21
-321.1652178974
31
0.0000000000
0
SPLINE
5
34C
100
AcDbEntity
8
0
100
AcDbSpline
62
7
6
CONTINUOUS
70
0
71
3
72
8
73
4
74
2
42
0.0000001000
43
0.0000001000
44
0.0000000001
12
0.0121258853
22
0.0006742997
32
0.0000000000
13
0.0121403917
23
0.0004857074
33
0.0000000000
40
0.0000000000
40
0.0000000000
40
0.0000000000
40
0.0000000000
40
1.0000000000
40
1.0000000000
40
1.0000000000
40
1.0000000000
10
-292.2173668536
20
-320.8395540938
30
0.0000000000
10
-292.2133248918
20
-320.8393293272
30
0.0000000000
10
-292.2092805453
20
-320.8391356543
30
0.0000000000
10
-292.2052337481
20
-320.8389737518
30
0.0000000000
11
-292.2173668536
21
-320.8395540938
31
0.0000000000
11
-292.2052337481
21
-320.8389737518
31
0.0000000000
0
SPLINE
5
34D
100
AcDbEntity
8
0
100
AcDbSpline
62
7
6
CONTINUOUS
70
0
71
3
72
8
73
4
74
2
42
0.0000001000
43
0.0000001000
44
0.0000000001
12
0.0226721203
22
0.0009070561
32
0.0000000000
13
0.0227246917
23
0.0002290275
33
0.0000000000
40
0.0000000000
40
0.0000000000
40
0.0000000000
40
0.0000000000
40
1.0000000000
40
1.0000000000
40
1.0000000000
40
1.0000000000
10
-292.2052337481
20
-320.8389737518
30
0.0000000000
10
-292.1976763746
20
-320.8386713998
30
0.0000000000
10
-292.1901104542
20
-320.8384798485
30
0.0000000000
10
-292.1825355570
20
-320.8384035060
30
0.0000000000
11
-292.2052337481
21
-320.8389737518
31
0.0000000000
11
-292.1825355570
21
-320.8384035060
31
0.0000000000
0
SPLINE
5
34E
100
AcDbEntity
8
0
100
AcDbSpline
62
7
6
CONTINUOUS
70
0
71
3
72
11
73
7
74
5
42
0.0000001000
43
0.0000001000
44
0.0000000001
12
0.1625355335
22
0.0016380908
32
0.0000000000
13
0.1430045884
23
-0.0452983136
33
0.0000000000
40
0.0000000000
40
0.0000000000
40
0.0000000000
40
0.0000000000
40
0.3921400466
40
0.7167710143
40
0.9507098624
40
1.0000000000
40
1.0000000000
40
1.0000000000
40
1.0000000000
10
-292.1825355570
20
-320.8384035060
30
0.0000000000
10
-292.1612899931
20
-320.8381893856
30
0.0000000000
10
-292.1223273306
20
-320.8394545702
30
0.0000000000
10
-292.0719601088
20
-320.8447909751
30
0.0000000000
10
-292.0382865325
20
-320.8534719999
30
0.0000000000
10
-292.0251178737
20
-320.8569317244
30
0.0000000000
10
-292.0227683018
20
-320.8576759778
30
0.0000000000
11
-292.1825355570
21
-320.8384035060
31
0.0000000000
11
-292.1189537038
21
-320.8403992603
31
0.0000000000
11
-292.0666990953
21
-320.8469354676
31
0.0000000000
11
-292.0297777006
21
-320.8557098156
31
0.0000000000
11
-292.0227683018
21
-320.8576759778
31
0.0000000000
0
SPLINE
5
34F
100
AcDbEntity
8
0
100
AcDbSpline
62
7
6
CONTINUOUS
70
0
71
3
72
9
73
5
74
3
42
0.0000001000
43
0.0000001000
44
0.0000000001
12
0.0148819146
22
-0.0047140140
32
0.0000000000
13
0.0133048910
23
-0.0072041476
33
0.0000000000
40
0.0000000000
40
0.0000000000
40
0.0000000000
40
0.0000000000
40
0.8019985287
40
1.0000000000
40
1.0000000000
40
1.0000000000
40
1.0000000000
10
-292.0227683018
20
-320.8576759778
30
0.0000000000
10
-292.0187898773
20
-320.8589361886
30
0.0000000000
10
-292.0136224645
20
-320.8610157428
30
0.0000000000
10
-292.0071842986
20
-320.8649357403
30
0.0000000000
10
-292.0063061692
20
-320.8654112176
30
0.0000000000
11
-292.0227683018
21
-320.8576759778
31
0.0000000000
11
-292.0096840119
21
-320.8634555636
31
0.0000000000
11
-292.0063061692
21
-320.8654112176
31
0.0000000000
0
SPLINE
5
350
100
AcDbEntity
8
0
100
AcDbSpline
62
7
6
CONTINUOUS
70
0
71
3
72
10
73
6
74
4
42
0.0000001000
43
0.0000001000
44
0.0000000001
12
0.6103837428
22
-0.0337146206
32
0.0000000000
13
0.6103824095
23
0.0337146639
33
0.0000000000
40
0.0000000000
40
0.0000000000
40
0.0000000000
40
0.0000000000
40
0.3162379388
40
0.6798529955
40
1.0000000000
40
1.0000000000
40
1.0000000000
40
1.0000000000
10
-292.8283964024
20
-320.8395707923
30
0.0000000000
10
-292.7640542368
20
-320.8431247396
30
0.0000000000
10
-292.6255851658
20
-320.8483519110
30
0.0000000000
10
-292.4217704052
20
-320.8483958406
30
0.0000000000
10
-292.2825034350
20
-320.8431686972
30
0.0000000000
10
-292.2173660683
20
-320.8395708143
30
0.0000000000
11
-292.8283964024
21
-320.8395707923
31
0.0000000000
11
-292.6352141450
21
-320.8468631003
31
0.0000000000
11
-292.4129375095
21
-320.8469110389
31
0.0000000000
11
-292.2173660683
21
-320.8395708143
31
0.0000000000
0
SPLINE
5
351
100
AcDbEntity
8
0
100
AcDbSpline
62
7
6
CONTINUOUS
70
0
71
3
72
9
73
5
74
3
42
0.0000001000
43
0.0000001000
44
0.0000000001
12
0.0152042181
22
0.0087117897
32
0.0000000000
13
0.0143642103
23
0.0045149261
33
0.0000000000
40
0.0000000000
40
0.0000000000
40
0.0000000000
40
0.0000000000
40
0.1424866664
40
1.0000000000
40
1.0000000000
40
1.0000000000
40
1.0000000000
10
-293.0388093347
20
-320.8650229169
30
0.0000000000
10
-293.0380872019
20
-320.8646091456
30
0.0000000000
10
-293.0320191535
20
-320.8609725196
30
0.0000000000
10
-293.0270849033
20
-320.8590207693
30
0.0000000000
10
-293.0229790694
20
-320.8577302329
30
0.0000000000
11
-293.0388093347
21
-320.8650229169
31
0.0000000000
11
-293.0363809888
21
-320.8636070113
31
0.0000000000
11
-293.0229790694
21
-320.8577302329
31
0.0000000000
0
SPLINE
5
352
100
AcDbEntity
8
0
100
AcDbSpline
62
7
6
CONTINUOUS
70
0
71
3
72
11
73
7
74
5
42
0.0000001000
43
0.0000001000
44
0.0000000001
12
0.1401325979
22
0.0440425303
32
0.0000000000
13
0.1595286702
23
-0.0010276725
33
0.0000000000
40
0.0000000000
40
0.0000000000
40
0.0000000000
40
0.0000000000
40
0.0438216188
40
0.2774879323
40
0.6034667719
40
1.0000000000
40
1.0000000000
40
1.0000000000
40
1.0000000000
10
-293.0229771630
20
-320.8577296337
30
0.0000000000
10
-293.0209302172
20
-320.8570862953
30
0.0000000000
10
-293.0081656321
20
-320.8536153108
30
0.0000000000
10
-292.9754660705
20
-320.8451199041
30
0.0000000000
10
-292.9257259416
20
-320.8396162427
30
0.0000000000
10
-292.8871895764
20
-320.8382376473
30
0.0000000000
10
-292.8661034369
20
-320.8383734827
30
0.0000000000
11
-293.0229771630
21
-320.8577296337
31
0.0000000000
11
-293.0168419356
21
-320.8559791428
31
0.0000000000
11
-292.9806794983
21
-320.8472313364
31
0.0000000000
11
-292.9292024770
21
-320.8405882600
31
0.0000000000
11
-292.8661034369
21
-320.8383734827
31
0.0000000000
0
SPLINE
5
353
100
AcDbEntity
8
0
100
AcDbSpline
62
7
6
CONTINUOUS
70
0
71
3
72
8
73
4
74
2
42
0.0000001000
43
0.0000001000
44
0.0000000001
12
0.0377751027
22
-0.0002433446
32
0.0000000000
13
0.0376420626
23
-0.0020944388
33
0.0000000000
40
0.0000000000
40
0.0000000000
40
0.0000000000
40
0.0000000000
40
1.0000000000
40
1.0000000000
40
1.0000000000
40
1.0000000000
10
-292.8661034369
20
-320.8383734827
30
0.0000000000
10
-292.8535117360
20
-320.8384545976
30
0.0000000000
10
-292.8409427181
20
-320.8388539531
30
0.0000000000
10
-292.8283953639
20
-320.8395520993
30
0.0000000000
11
-292.8661034369
21
-320.8383734827
31
0.0000000000
11
-292.8283953639
21
-320.8395520993
31
0.0000000000
0
SPLINE
5
354
100
AcDbEntity
8
0
100
AcDbSpline
62
7
6
CONTINUOUS
70
0
71
3
72
9
73
5
74
3
42
0.0000001000
43
0.0000001000
44
0.0000000001
12
0.0603938318
22
-0.0073448720
32
0.0000000000
13
0.0607785955
23
-0.0027725077
33
0.0000000000
40
0.0000000000
40
0.0000000000
40
0.0000000000
40
0.0000000000
40
0.3869911088
40
1.0000000000
40
1.0000000000
40
1.0000000000
40
1.0000000000
10
-293.2349507075
20
-321.1652181615
30
0.0000000000
10
-293.2271600822
20
-321.1661656282
30
0.0000000000
10
-293.2069968804
20
-321.1683580238
30
0.0000000000
10
-293.1867685349
20
-321.1698750742
30
0.0000000000
10
-293.1743492617
20
-321.1704415981
30
0.0000000000
11
-293.2349507075
21
-321.1652181615
31
0.0000000000
11
-293.2115443665
21
-321.1677613623
31
0.0000000000
11
-293.1743492617
21
-321.1704415981
31
0.0000000000
0
SPLINE
5
355
100
AcDbEntity
8
0
100
AcDbSpline
62
7
6
CONTINUOUS
70
0
71
3
72
9
73
5
74
3
42
0.0000001000
43
0.0000001000
44
0.0000000001
12
0.0564442669
22
-0.0025747907
32
0.0000000000
13
0.0559810452
23
0.0080425123
33
0.0000000000
40
0.0000000000
40
0.0000000000
40
0.0000000000
40
0.0000000000
40
0.5438656546
40
1.0000000000
40
1.0000000000
40
1.0000000000
40
1.0000000000
10
-293.1743492617
20
-321.1704415981
30
0.0000000000
10
-293.1641165623
20
-321.1709083782
30
0.0000000000
10
-293.1452779435
20
-321.1713129814
30
0.0000000000
10
-293.1264437672
20
-321.1701382607
30
0.0000000000
10
-293.1179321414
20
-321.1689154387
30
0.0000000000
11
-293.1743492617
21
-321.1704415981
31
0.0000000000
11
-293.1436265209
21
-321.1708813298
31
0.0000000000
11
-293.1179321414
21
-321.1689154387
31
0.0000000000
0
SPLINE
5
356
100
AcDbEntity
8
0
100
AcDbSpline
62
7
6
CONTINUOUS
70
0
71
3
72
8
73
4
74
2
42
0.0000001000
43
0.0000001000
44
0.0000000001
12
0.0253563285
22
0.0036428149
32
0.0000000000
13
0.0242042291
23
0.0084543714
33
0.0000000000
40
0.0000000000
40
0.0000000000
40
0.0000000000
40
0.0000000000
40
1.0000000000
40
1.0000000000
40
1.0000000000
40
1.0000000000
10
-293.1179321414
20
-321.1689154387
30
0.0000000000
10
-293.1094800319
20
-321.1677011670
30
0.0000000000
10
-293.1011061064
20
-321.1658094776
30
0.0000000000
10
-293.0930380300
20
-321.1629913538
30
0.0000000000
11
-293.1179321414
21
-321.1689154387
31
0.0000000000
11
-293.0930380300
21
-321.1629913538
31
0.0000000000
0
SPLINE
5
357
100
AcDbEntity
8
0
100
AcDbSpline
62
7
6
CONTINUOUS
70
0
71
3
72
11
73
7
74
5
42
0.0000001000
43
0.0000001000
44
0.0000000001
12
0.1097795045
22
0.0383452287
32
0.0000000000
13
0.0129853403
23
0.1160160106
33
0.0000000000
40
0.0000000000
40
0.0000000000
40
0.0000000000
40
0.0000000000
40
0.2448027718
40
0.5034455926
40
0.7877064745
40
1.0000000000
40
1.0000000000
40
1.0000000000
40
1.0000000000
10
-293.0930380300
20
-321.1629913538
30
0.0000000000
10
-293.0840799210
20
-321.1598623477
30
0.0000000000
10
-293.0664326704
20
-321.1510786490
30
0.0000000000
10
-293.0436645213
20
-321.1301650336
30
0.0000000000
10
-293.0289213913
20
-321.1043781014
30
0.0000000000
10
-293.0244386850
20
-321.0853649165
30
0.0000000000
10
-293.0235197837
20
-321.0771551005
30
0.0000000000
11
-293.0930380300
21
-321.1629913538
31
0.0000000000
11
-293.0676497112
21
-321.1502365479
31
0.0000000000
11
-293.0455610528
21
-321.1299092277
31
0.0000000000
11
-293.0292242138
21
-321.1012463092
31
0.0000000000
11
-293.0235197837
21
-321.0771551005
31
0.0000000000
0
SPLINE
5
358
100
AcDbEntity
8
0
100
AcDbSpline
62
7
6
CONTINUOUS
70
0
71
3
72
8
73
4
74
2
42
0.0000001000
43
0.0000001000
44
0.0000000001
12
0.0012512757
22
0.0111793772
32
0.0000000000
13
0.0000054201
23
0.0111967750
33
0.0000000000
40
0.0000000000
40
0.0000000000
40
0.0000000000
40
0.0000000000
40
1.0000000000
40
1.0000000000
40
1.0000000000
40
1.0000000000
10
-293.0235197837
20
-321.0771551005
30
0.0000000000
10
-293.0231026918
20
-321.0734286414
30
0.0000000000
10
-293.0228911343
20
-321.0696854844
30
0.0000000000
10
-293.0228893276
20
-321.0659532261
30
0.0000000000
11
-293.0235197837
21
-321.0771551005
31
0.0000000000
11
-293.0228893276
21
-321.0659532261
31
0.0000000000
0
SPLINE
5
359
100
AcDbEntity
8
0
100
AcDbSpline
62
7
6
CONTINUOUS
70
0
71
3
72
10
73
6
74
4
42
0.0000001000
43
0.0000001000
44
0.0000000001
12
1.0911208316
22
-0.3562194201
32
0.0000000000
13
1.1394011973
23
-0.1385349433
33
0.0000000000
40
0.0000000000
40
0.0000000000
40
0.0000000000
40
0.0000000000
40
0.3242092501
40
0.6736871094
40
1.0000000000
40
1.0000000000
40
1.0000000000
40
1.0000000000
10
-294.3539166012
20
-320.9170172086
30
0.0000000000
10
-294.2359994456
20
-320.9555137523
30
0.0000000000
10
-293.9883795974
20
-321.0277993973
30
0.0000000000
10
-293.6146344854
20
-321.1107803899
30
0.0000000000
10
-293.3588842708
20
-321.1501479151
30
0.0000000000
10
-293.2349505047
20
-321.1652164944
30
0.0000000000
11
-294.3539166012
21
-320.9170172086
31
0.0000000000
11
-293.9967021413
21
-321.0212939808
31
0.0000000000
11
-293.6051271307
21
-321.1082337680
31
0.0000000000
11
-293.2349505047
21
-321.1652164944
31
0.0000000000
0
SPLINE
5
35A
100
AcDbEntity
8
0
100
AcDbSpline
62
7
6
CONTINUOUS
70
0
71
3
72
8
73
4
74
2
42
0.0000001000
43
0.0000001000
44
0.0000000001
12
-0.0000338558
22
-0.0001072465
32
0.0000000000
13
0.0041573908
23
-0.0006697597
33
0.0000000000
40
0.0000000000
40
0.0000000000
40
0.0000000000
40
0.0000000000
40
1.0000000000
40
1.0000000000
40
1.0000000000
40
1.0000000000
10
-294.6249574191
20
-320.8380811886
30
0.0000000000
10
-294.6249687044
20
-320.8381169375
30
0.0000000000
10
-294.6237632159
20
-320.8383106660
30
0.0000000000
10
-294.6223774189
20
-320.8385339193
30
0.0000000000
11
-294.6249574191
21
-320.8380811886
31
0.0000000000
11
-294.6223774189
21
-320.8385339193
31
0.0000000000
0
SPLINE
5
35B
100
AcDbEntity
8
0
100
AcDbSpline
62
7
6
CONTINUOUS
70
0
71
3
72
11
73
7
74
5
42
0.0000001000
43
0.0000001000
44
0.0000000001
12
0.0393958245
22
-0.0063467055
32
0.0000000000
13
0.0252524804
23
-0.0062307611
33
0.0000000000
40
0.0000000000
40
0.0000000000
40
0.0000000000
40
0.0000000000
40
0.0437461441
40
0.3811931805
40
0.8487327780
40
1.0000000000
40
1.0000000000
40
1.0000000000
40
1.0000000000
10
-294.6223774189
20
-320.8385339193
30
0.0000000000
10
-294.6218029471
20
-320.8386264672
30
0.0000000000
10
-294.6165271432
20
-320.8394771183
30
0.0000000000
10
-294.6120245923
20
-320.8406818372
30
0.0000000000
10
-294.6031276056
20
-320.8426685389
30
0.0000000000
10
-294.5978401290
20
-320.8439515652
30
0.0000000000
10
-294.5965668381
20
-320.8442657351
30
0.0000000000
11
-294.6223774189
21
-320.8385339193
31
0.0000000000
11
-294.6206348829
21
-320.8388176334
31
0.0000000000
11
-294.6121490566
21
-320.8405902799
31
0.0000000000
11
-294.6004532539
21
-320.8433241387
31
0.0000000000
11
-294.5965668381
21
-320.8442657351
31
0.0000000000
0
SPLINE
5
35C
100
AcDbEntity
8
0
100
AcDbSpline
62
7
6
CONTINUOUS
70
0
71
3
72
18
73
14
74
12
42
0.0000001000
43
0.0000001000
44
0.0000000001
12
0.2491589938
22
-0.0614771357
32
0.0000000000
13
0.2409641089
23
-0.0786527442
33
0.0000000000
40
0.0000000000
40
0.0000000000
40
0.0000000000
40
0.0000000000
40
0.0441584266
40
0.1147243445
40
0.1955767258
40
0.2863024203
40
0.3862697342
40
0.4948207329
40
0.6111644276
40
0.7344498212
40
0.8637745550
40
0.9980510664
40
1.0000000000
40
1.0000000000
40
1.0000000000
40
1.0000000000
10
-294.5965668381
20
-320.8442657351
30
0.0000000000
10
-294.5928993484
20
-320.8451706463
30
0.0000000000
10
-294.5837856690
20
-320.8475331400
30
0.0000000000
10
-294.5676522999
20
-320.8518012845
30
0.0000000000
10
-294.5479944396
20
-320.8572593859
30
0.0000000000
10
-294.5259191251
20
-320.8635787644
30
0.0000000000
10
-294.5016666410
20
-320.8707062510
30
0.0000000000
10
-294.4753810932
20
-320.8786168271
30
0.0000000000
10
-294.4472609939
20
-320.8872584750
30
0.0000000000
10
-294.4175098184
20
-320.8965685002
30
0.0000000000
10
-294.3863612959
20
-320.9064846084
30
0.0000000000
10
-294.3650140863
20
-320.9133919445
30
0.0000000000
10
-294.3540721427
20
-320.9169630501
30
0.0000000000
10
-294.3539156017
20
-320.9170141464
30
0.0000000000
11
-294.5965668381
21
-320.8442657351
31
0.0000000000
11
-294.5858316095
21
-320.8470102526
31
0.0000000000
11
-294.5685438821
21
-320.8516003899
31
0.0000000000
11
-294.5487916902
21
-320.8570646921
31
0.0000000000
11
-294.5266811832
21
-320.8633872796
31
0.0000000000
11
-294.5023686816
21
-320.8705273114
31
0.0000000000
11
-294.4760194760
21
-320.8784516387
31
0.0000000000
11
-294.4478287728
21
-320.8871095768
31
0.0000000000
11
-294.4180043831
21
-320.8964399900
31
0.0000000000
11
-294.3867677148
21
-320.9063818583
31
0.0000000000
11
-294.3543852303
21
-320.9168608744
31
0.0000000000
11
-294.3539156017
21
-320.9170141464
31
0.0000000000
0
SPLINE
5
35D
100
AcDbEntity
8
0
100
AcDbSpline
62
7
6
CONTINUOUS
70
0
71
3
72
8
73
4
74
2
42
0.0000001000
43
0.0000001000
44
0.0000000001
12
-0.0000338947
22
-0.0001160309
32
0.0000000000
13
0.0042056179
23
-0.0006729367
33
0.0000000000
40
0.0000000000
40
0.0000000000
40
0.0000000000
40
0.0000000000
40
1.0000000000
40
1.0000000000
40
1.0000000000
40
1.0000000000
10
-294.6249519169
20
-320.8380919913
30
0.0000000000
10
-294.6249632151
20
-320.8381306683
30
0.0000000000
10
-294.6237811209
20
-320.8383213117
30
0.0000000000
10
-294.6223792483
20
-320.8385456240
30
0.0000000000
11
-294.6249519169
21
-320.8380919913
31
0.0000000000
11
-294.6223792483
21
-320.8385456240
31
0.0000000000
0
SPLINE
5
35E
100
AcDbEntity
8
0
100
AcDbSpline
62
7
6
CONTINUOUS
70
0
71
3
72
17
73
13
74
11
42
0.0000001000
43
0.0000001000
44
0.0000000001
12
0.2509708435
22
-0.0616478837
32
0.0000000000
13
0.2409606472
23
-0.0786734263
33
0.0000000000
40
0.0000000000
40
0.0000000000
40
0.0000000000
40
0.0000000000
40
0.0479700867
40
0.1192779108
40
0.2010034140
40
0.2926090716
40
0.3934274926
40
0.5028415426
40
0.6200107320
40
0.7441297324
40
0.8743023083
40
1.0000000000
40
1.0000000000
40
1.0000000000
40
1.0000000000
10
-294.5965746231
20
-320.8442671823
30
0.0000000000
10
-294.5925615920
20
-320.8452529337
30
0.0000000000
10
-294.5831150625
20
-320.8477061163
30
0.0000000000
10
-294.5665269184
20
-320.8521051305
30
0.0000000000
10
-294.5466742708
20
-320.8576353891
30
0.0000000000
10
-294.5243872879
20
-320.8640204544
30
0.0000000000
10
-294.4999285296
20
-320.8712232406
30
0.0000000000
10
-294.4734414812
20
-320.8792103851
30
0.0000000000
10
-294.4451198091
20
-320.8879226723
30
0.0000000000
10
-294.4151694315
20
-320.8973067142
30
0.0000000000
10
-294.3845789469
20
-320.9070559042
30
0.0000000000
10
-294.3640116727
20
-320.9137178125
30
0.0000000000
10
-294.3539156070
20
-320.9170141685
30
0.0000000000
11
-294.5965746231
21
-320.8442671823
31
0.0000000000
11
-294.5848991321
21
-320.8472515635
31
0.0000000000
11
-294.5674323711
21
-320.8519010774
31
0.0000000000
11
-294.5474704974
21
-320.8574384223
31
0.0000000000
11
-294.5251476770
21
-320.8638308575
31
0.0000000000
11
-294.5006314349
21
-320.8710438667
31
0.0000000000
11
-294.4740764726
21
-320.8790448035
31
0.0000000000
11
-294.4456883602
21
-320.8877739267
31
0.0000000000
11
-294.4156651015
21
-320.8971776518
31
0.0000000000
11
-294.3842267755
21
-320.9071958651
31
0.0000000000
11
-294.3539156070
21
-320.9170141685
31
0.0000000000
0
SPLINE
5
35F
100
AcDbEntity
8
0
100
AcDbSpline
62
7
6
CONTINUOUS
70
0
71
3
72
16
73
12
74
10
42
0.0000001000
43
0.0000001000
44
0.0000000001
12
0.2571082013
22
-0.0312732353
32
0.0000000000
13
0.0289956003
23
0.2588563033
33
0.0000000000
40
0.0000000000
40
0.0000000000
40
0.0000000000
40
0.0000000000
40
0.0957177787
40
0.2385228785
40
0.3560819468
40
0.4550440047
40
0.5535147798
40
0.6628920152
40
0.7781856162
40
0.9049357695
40
1.0000000000
40
1.0000000000
40
1.0000000000
40
1.0000000000
10
-293.2349506766
20
-321.1652179043
30
0.0000000000
10
-293.2267474012
20
-321.1662157059
30
0.0000000000
10
-293.2062712209
20
-321.1684289890
30
0.0000000000
10
-293.1756033951
20
-321.1706863390
30
0.0000000000
10
-293.1445710653
20
-321.1712998051
30
0.0000000000
10
-293.1173783083
20
-321.1695314912
30
0.0000000000
10
-293.0913977335
20
-321.1635572778
30
0.0000000000
10
-293.0661702560
20
-321.1508828172
30
0.0000000000
10
-293.0435656733
20
-321.1300037030
30
0.0000000000
10
-293.0289091710
20
-321.1043079610
30
0.0000000000
10
-293.0244412843
20
-321.0853574575
30
0.0000000000
10
-293.0235224695
20
-321.0771547991
30
0.0000000000
11
-293.2349506766
21
-321.1652179043
31
0.0000000000
11
-293.2103027139
21
-321.1678791428
31
0.0000000000
11
-293.1734105141
21
-321.1704835664
31
0.0000000000
11
-293.1429671578
21
-321.1708642628
31
0.0000000000
11
-293.1174176822
21
-321.1688413096
31
0.0000000000
11
-293.0926296694
21
-321.1628482470
31
0.0000000000
11
-293.0673640992
21
-321.1500397446
31
0.0000000000
11
-293.0454474336
21
-321.1297611633
31
0.0000000000
11
-293.0292216465
21
-321.1012256685
31
0.0000000000
11
-293.0235224695
21
-321.0771547991
31
0.0000000000
0
SPLINE
5
360
100
AcDbEntity
8
0
100
AcDbSpline
62
7
6
CONTINUOUS
70
0
71
3
72
12
73
8
74
6
42
0.0000001000
43
0.0000001000
44
0.0000000001
12
0.1619099871
22
0.0512868116
32
0.0000000000
13
0.1836198709
23
-0.0070518447
33
0.0000000000
40
0.0000000000
40
0.0000000000
40
0.0000000000
40
0.0000000000
40
0.0435347811
40
0.2501577898
40
0.5368832645
40
0.8832351291
40
1.0000000000
40
1.0000000000
40
1.0000000000
40
1.0000000000
10
-293.0229940266
20
-320.8576759778
30
0.0000000000
10
-293.0206444546
20
-320.8569317244
30
0.0000000000
10
-293.0074757958
20
-320.8534719999
30
0.0000000000
10
-292.9738022196
20
-320.8447909751
30
0.0000000000
10
-292.9234349977
20
-320.8394545702
30
0.0000000000
10
-292.8772860565
20
-320.8379560348
30
0.0000000000
10
-292.8489098534
20
-320.8386508828
30
0.0000000000
10
-292.8417630699
20
-320.8389253520
30
0.0000000000
11
-293.0229940266
21
-320.8576759778
31
0.0000000000
11
-293.0159846278
21
-320.8557098156
31
0.0000000000
11
-292.9790632330
21
-320.8469354676
31
0.0000000000
11
-292.9268086246
21
-320.8403992603
31
0.0000000000
11
-292.8632267714
21
-320.8384035060
31
0.0000000000
11
-292.8417630699
21
-320.8389253520
31
0.0000000000
0
SPLINE
5
361
100
AcDbEntity
8
0
100
AcDbSpline
62
7
6
CONTINUOUS
70
0
71
3
72
10
73
6
74
4
42
0.0000001000
43
0.0000001000
44
0.0000000001
12
0.6103822664
22
-0.0337146560
32
0.0000000000
13
0.6103836007
23
0.0337145969
33
0.0000000000
40
0.0000000000
40
0.0000000000
40
0.0000000000
40
0.0000000000
40
0.3201470795
40
0.6837622215
40
1.0000000000
40
1.0000000000
40
1.0000000000
40
1.0000000000
10
-292.8283962600
20
-320.8395708143
30
0.0000000000
10
-292.7632588933
20
-320.8431686972
30
0.0000000000
10
-292.6239919231
20
-320.8483958406
30
0.0000000000
10
-292.4201772104
20
-320.8483519110
30
0.0000000000
10
-292.2817081871
20
-320.8431247432
30
0.0000000000
10
-292.2173660691
20
-320.8395708002
30
0.0000000000
11
-292.8283962600
21
-320.8395708143
31
0.0000000000
11
-292.6328248188
21
-320.8469110389
31
0.0000000000
11
-292.4105481834
21
-320.8468631003
31
0.0000000000
11
-292.2173660691
21
-320.8395708002
31
0.0000000000
0
SPLINE
5
362
100
AcDbEntity
8
0
100
AcDbSpline
62
7
6
CONTINUOUS
70
0
71
3
72
8
73
4
74
2
42
0.0000001000
43
0.0000001000
44
0.0000000001
12
0.0133593634
22
0.0007433272
32
0.0000000000
13
0.0133758724
23
0.0005149088
33
0.0000000000
40
0.0000000000
40
0.0000000000
40
0.0000000000
40
0.0000000000
40
1.0000000000
40
1.0000000000
40
1.0000000000
40
1.0000000000
10
-292.2173669645
20
-320.8395520993
30
0.0000000000
10
-292.2129138433
20
-320.8393043236
30
0.0000000000
10
-292.2084579935
20
-320.8390941829
30
0.0000000000
10
-292.2039993693
20
-320.8389225466
30
0.0000000000
11
-292.2173669645
21
-320.8395520993
31
0.0000000000
11
-292.2039993693
21
-320.8389225466
31
0.0000000000
0
SPLINE
5
363
100
AcDbEntity
8
0
100
AcDbSpline
62
9
6
CONTINUOUS
70
0
71
3
72
10
73
6
74
4
42
0.0000001000
43
0.0000001000
44
0.0000000001
12
0.0000000037
22
-0.0084211513
32
0.0000000000
13
-0.0000000024
23
-0.0084211513
33
0.0000000000
40
0.0000000000
40
0.0000000000
40
0.0000000000
40
0.0000000000
40
0.5552522622
40
0.8890061159
40
1.0000000000
40
1.0000000000
40
1.0000000000
40
1.0000000000
10
-290.3868653330
20
-320.8328701603
30
0.0000000000
10
-290.3868653324
20
-320.8344287815
30
0.0000000000
10
-290.3868653344
20
-320.8369242665
30
0.0000000000
10
-290.3868653329
20
-320.8397313169
30
0.0000000000
10
-290.3868653329
20
-320.8409797462
30
0.0000000000
10
-290.3868653330
20
-320.8412913117
30
0.0000000000
11
-290.3868653330
21
-320.8328701603
31
0.0000000000
11
-290.3868653336
21
-320.8375460237
31
0.0000000000
11
-290.3868653330
21
-320.8403566154
31
0.0000000000
11
-290.3868653330
21
-320.8412913117
31
0.0000000000
0
SPLINE
5
364
100
AcDbEntity
8
0
100
AcDbSpline
62
9
6
CONTINUOUS
70
0
71
3
72
11
73
7
74
5
42
0.0000001000
43
0.0000001000
44
0.0000000001
12
0.2347482178
22
0.0766424207
32
0.0000000000
13
0.2489078788
23
0.0675589159
33
0.0000000000
40
0.0000000000
40
0.0000000000
40
0.0000000000
40
0.0000000000
40
0.3504046771
40
0.6666687971
40
0.9304468631
40
1.0000000000
40
1.0000000000
40
1.0000000000
40
1.0000000000
10
-290.6920104518
20
-320.9165126548
30
0.0000000000
10
-290.6645914940
20
-320.9075607005
30
0.0000000000
10
-290.6124900967
20
-320.8909079510
30
0.0000000000
10
-290.5386074581
20
-320.8681949691
30
0.0000000000
10
-290.4887230115
20
-320.8540649666
30
0.0000000000
10
-290.4606618317
20
-320.8461976563
30
0.0000000000
10
-290.4548910571
20
-320.8446313448
30
0.0000000000
11
-290.6920104518
21
-320.9165126548
31
0.0000000000
11
-290.6095910500
21
-320.8901598028
31
0.0000000000
11
-290.5348902644
21
-320.8673722309
31
0.0000000000
11
-290.4722650999
21
-320.8494540038
31
0.0000000000
11
-290.4548910571
21
-320.8446313448
31
0.0000000000
0
SPLINE
5
365
100
AcDbEntity
8
0
100
AcDbSpline
62
9
6
CONTINUOUS
70
0
71
3
72
10
73
6
74
4
42
0.0000001000
43
0.0000001000
44
0.0000000001
12
0.0708811429
22
0.0192386565
32
0.0000000000
13
-0.0003549073
23
-0.0703206776
33
0.0000000000
40
0.0000000000
40
0.0000000000
40
0.0000000000
40
0.0000000000
40
0.4410278012
40
0.8596420268
40
1.0000000000
40
1.0000000000
40
1.0000000000
40
1.0000000000
10
-290.4548910571
20
-320.8446313448
30
0.0000000000
10
-290.4444708722
20
-320.8418030840
30
0.0000000000
10
-290.4246970394
20
-320.8367687697
30
0.0000000000
10
-290.4079017292
20
-320.8346550103
30
0.0000000000
10
-290.3868487284
20
-320.8295801377
30
0.0000000000
10
-290.3868653330
20
-320.8328701603
30
0.0000000000
11
-290.4548910571
21
-320.8446313448
31
0.0000000000
11
-290.4255859113
21
-320.8374843073
31
0.0000000000
11
-290.3966860635
21
-320.8318832598
31
0.0000000000
11
-290.3868653330
21
-320.8328701603
31
0.0000000000
0
SPLINE
5
366
100
AcDbEntity
8
0
100
AcDbSpline
62
9
6
CONTINUOUS
70
0
71
3
72
12
73
8
74
6
42
0.0000001000
43
0.0000001000
44
0.0000000001
12
1.1394044272
22
0.1385317330
32
0.0000000000
13
1.0911181987
23
0.3562226359
33
0.0000000000
40
0.0000000000
40
0.0000000000
40
0.0000000000
40
0.0000000000
40
0.1736997740
40
0.3668447149
40
0.5660151312
40
0.7736035241
40
1.0000000000
40
1.0000000000
40
1.0000000000
40
1.0000000000
10
-291.8108758871
20
-321.1646895739
30
0.0000000000
10
-291.7449044566
20
-321.1566685970
30
0.0000000000
10
-291.6058517730
20
-321.1373727074
30
0.0000000000
10
-291.3925008009
20
-321.0999634755
30
0.0000000000
10
-291.1680472812
20
-321.0517133605
30
0.0000000000
10
-290.9333535929
20
-320.9914570982
30
0.0000000000
10
-290.7743522234
20
-320.9433951712
30
0.0000000000
10
-290.6920104518
20
-320.9165126548
30
0.0000000000
11
-291.8108758871
21
-321.1646895739
31
0.0000000000
11
-291.6133964598
21
-321.1372857937
31
0.0000000000
11
-291.3950369217
21
-321.0989983731
31
0.0000000000
11
-291.1715358579
21
-321.0509530588
31
0.0000000000
11
-290.9407520004
21
-320.9917002566
31
0.0000000000
11
-290.6920104518
21
-320.9165126548
31
0.0000000000
0
SPLINE
5
367
100
AcDbEntity
8
0
100
AcDbSpline
62
9
6
CONTINUOUS
70
0
71
3
72
14
73
10
74
8
42
0.0000001000
43
0.0000001000
44
0.0000000001
12
0.0001275271
22
-0.1030417226
32
0.0000000000
13
0.1022885817
23
0.0124361939
33
0.0000000000
40
0.0000000000
40
0.0000000000
40
0.0000000000
40
0.0000000000
40
0.0475695937
40
0.1569696759
40
0.3115077117
40
0.4870765621
40
0.6663493256
40
0.8385288923
40
1.0000000000
40
1.0000000000
40
1.0000000000
40
1.0000000000
10
-291.9125909267
20
-321.1646895739
30
0.0000000000
10
-291.9125889046
20
-321.1663234582
30
0.0000000000
10
-291.9057903662
20
-321.1687724016
30
0.0000000000
10
-291.8964118153
20
-321.1694872144
30
0.0000000000
10
-291.8807241490
20
-321.1700062458
30
0.0000000000
10
-291.8634282986
20
-321.1693826426
30
0.0000000000
10
-291.8453069648
20
-321.1682265936
30
0.0000000000
10
-291.8277743652
20
-321.1666307640
30
0.0000000000
10
-291.8163814373
20
-321.1653589359
30
0.0000000000
10
-291.8108758871
20
-321.1646895739
30
0.0000000000
11
-291.9125909267
21
-321.1646895739
31
0.0000000000
11
-291.9086586672
21
-321.1676159322
31
0.0000000000
11
-291.8975174454
21
-321.1693331336
31
0.0000000000
11
-291.8816006320
21
-321.1698074038
31
0.0000000000
11
-291.8635167353
21
-321.1693029747
31
0.0000000000
11
-291.8450816090
21
-321.1681271157
31
0.0000000000
11
-291.8274114801
21
-321.1665351960
31
0.0000000000
11
-291.8108758871
21
-321.1646895739
31
0.0000000000
0
SPLINE
5
368
100
AcDbEntity
8
0
100
AcDbSpline
62
9
6
CONTINUOUS
70
0
71
3
72
12
73
8
74
6
42
0.0000001000
43
0.0000001000
44
0.0000000001
12
0.0000000955
22
-0.2481769191
32
0.0000000000
13
-0.0000000361
23
-0.2481769191
33
0.0000000000
40
0.0000000000
40
0.0000000000
40
0.0000000000
40
0.0000000000
40
0.3245288541
40
0.5733868835
40
0.7612770168
40
0.8998605882
40
1.0000000000
40
1.0000000000
40
1.0000000000
40
1.0000000000
10
-291.9125909267
20
-320.9165126548
30
0.0000000000
10
-291.9125909164
20
-320.9433595118
30
0.0000000000
10
-291.9125909358
20
-320.9907933086
30
0.0000000000
10
-291.9125909250
20
-321.0537704368
30
0.0000000000
10
-291.9125909257
20
-321.1013651225
30
0.0000000000
10
-291.9125909280
20
-321.1366569655
30
0.0000000000
10
-291.9125909255
20
-321.1564054770
30
0.0000000000
10
-291.9125909267
20
-321.1646895739
30
0.0000000000
11
-291.9125909267
21
-320.9165126548
31
0.0000000000
11
-291.9125909295
21
-320.9970532259
31
0.0000000000
11
-291.9125909263
21
-321.0588140450
31
0.0000000000
11
-291.9125909262
21
-321.1054440394
31
0.0000000000
11
-291.9125909269
21
-321.1398372832
31
0.0000000000
11
-291.9125909267
21
-321.1646895739
31
0.0000000000
0
SPLINE
5
369
100
AcDbEntity
8
0
100
AcDbSpline
62
9
6
CONTINUOUS
70
0
71
3
72
8
73
4
74
2
42
0.0000001000
43
0.0000001000
44
0.0000000001
12
0.0259648526
22
0.0014341561
32
0.0000000000
13
0.0260031346
23
0.0007031723
33
0.0000000000
40
0.0000000000
40
0.0000000000
40
0.0000000000
40
0.0000000000
40
1.0000000000
40
1.0000000000
40
1.0000000000
40
1.0000000000
10
-292.2177360454
20
-320.8328701603
30
0.0000000000
10
-292.2090810946
20
-320.8323921083
30
0.0000000000
10
-292.2004175386
20
-320.8320334779
30
0.0000000000
10
-292.1917498270
20
-320.8317990872
30
0.0000000000
11
-292.2177360454
21
-320.8328701603
31
0.0000000000
11
-292.1917498270
21
-320.8317990872
31
0.0000000000
0
SPLINE
5
36A
100
AcDbEntity
8
0
100
AcDbSpline
62
9
6
CONTINUOUS
70
0
71
3
72
10
73
6
74
4
42
0.0000001000
43
0.0000001000
44
0.0000000001
12
0.1456857917
22
0.0039396099
32
0.0000000000
13
0.1438195669
23
-0.0241745223
33
0.0000000000
40
0.0000000000
40
0.0000000000
40
0.0000000000
40
0.0000000000
40
0.3486430920
40
0.8460685313
40
1.0000000000
40
1.0000000000
40
1.0000000000
40
1.0000000000
10
-292.1917498270
20
-320.8317990872
30
0.0000000000
10
-292.1748190454
20
-320.8313412479
30
0.0000000000
10
-292.1336938474
20
-320.8313805372
30
0.0000000000
10
-292.0852069020
20
-320.8349764122
30
0.0000000000
10
-292.0538635920
20
-320.8395653036
30
0.0000000000
10
-292.0464841396
20
-320.8408057102
30
0.0000000000
11
-292.1917498270
21
-320.8317990872
31
0.0000000000
11
-292.1409430780
21
-320.8318835646
31
0.0000000000
11
-292.0686913117
21
-320.8375218464
31
0.0000000000
11
-292.0464841396
21
-320.8408057102
31
0.0000000000
0
SPLINE
5
36B
100
AcDbEntity
8
0
100
AcDbSpline
62
9
6
CONTINUOUS
70
0
71
3
72
8
73
4
74
2
42
0.0000001000
43
0.0000001000
44
0.0000000001
12
0.0237336029
22
-0.0039893634
32
0.0000000000
13
0.0234891810
23
-0.0051773087
33
0.0000000000
40
0.0000000000
40
0.0000000000
40
0.0000000000
40
0.0000000000
40
1.0000000000
40
1.0000000000
40
1.0000000000
40
1.0000000000
10
-292.0464841396
20
-320.8408057102
30
0.0000000000
10
-292.0385729386
20
-320.8421354980
30
0.0000000000
10
-292.0306936121
20
-320.8436445089
30
0.0000000000
10
-292.0228638851
20
-320.8453702785
30
0.0000000000
11
-292.0464841396
21
-320.8408057102
31
0.0000000000
11
-292.0228638851
21
-320.8453702785
31
0.0000000000
0
SPLINE
5
36C
100
AcDbEntity
8
0
100
AcDbSpline
62
9
6
CONTINUOUS
70
0
71
3
72
8
73
4
74
2
42
0.0000001000
43
0.0000001000
44
0.0000000001
12
0.0172327122
22
-0.0037983049
32
0.0000000000
13
0.0170515376
23
-0.0045427719
33
0.0000000000
40
0.0000000000
40
0.0000000000
40
0.0000000000
40
0.0000000000
40
1.0000000000
40
1.0000000000
40
1.0000000000
40
1.0000000000
10
-292.0228638851
20
-320.8453702785
30
0.0000000000
10
-292.0171196477
20
-320.8466363801
30
0.0000000000
10
-292.0114021065
20
-320.8480191487
30
0.0000000000
10
-292.0057182606
20
-320.8495334060
30
0.0000000000
11
-292.0228638851
21
-320.8453702785
31
0.0000000000
11
-292.0057182606
21
-320.8495334060
31
0.0000000000
0
SPLINE
5
36D
100
AcDbEntity
8
0
100
AcDbSpline
62
9
6
CONTINUOUS
70
0
71
3
72
10
73
6
74
4
42
0.0000001000
43
0.0000001000
44
0.0000000001
12
0.1168063314
22
-0.0311188667
32
0.0000000000
13
-0.0000729979
23
-0.1208295183
33
0.0000000000
40
0.0000000000
40
0.0000000000
40
0.0000000000
40
0.0000000000
40
0.4363905819
40
0.7617294484
40
1.0000000000
40
1.0000000000
40
1.0000000000
40
1.0000000000
10
-292.0057182606
20
-320.8495334060
30
0.0000000000
10
-291.9887271996
20
-320.8540600661
30
0.0000000000
10
-291.9595945211
20
-320.8640124737
30
0.0000000000
10
-291.9243888487
20
-320.8848092968
30
0.0000000000
10
-291.9125851290
20
-320.9069159494
30
0.0000000000
10
-291.9125909267
20
-320.9165126548
30
0.0000000000
11
-292.0057182606
21
-320.8495334060
31
0.0000000000
11
-291.9561072589
21
-320.8673962893
31
0.0000000000
11
-291.9240020522
21
-320.8900805286
31
0.0000000000
11
-291.9125909267
21
-320.9165126548
31
0.0000000000
0
SPLINE
5
36E
100
AcDbEntity
8
0
100
AcDbSpline
62
9
6
CONTINUOUS
70
0
71
3
72
10
73
6
74
4
42
0.0000001000
43
0.0000001000
44
0.0000000001
12
0.6096363370
22
-0.0336737673
32
0.0000000000
13
0.6096363343
23
0.0336738160
33
0.0000000000
40
0.0000000000
40
0.0000000000
40
0.0000000000
40
0.0000000000
40
0.3328661760
40
0.6669943864
40
1.0000000000
40
1.0000000000
40
1.0000000000
40
1.0000000000
10
-292.8280262829
20
-320.8328701603
30
0.0000000000
10
-292.7603838442
20
-320.8366064464
30
0.0000000000
10
-292.6246912965
20
-320.8416040347
30
0.0000000000
10
-292.4211278055
20
-320.8416055957
30
0.0000000000
10
-292.2854068193
20
-320.8366080169
30
0.0000000000
10
-292.2177360454
20
-320.8328701603
30
0.0000000000
11
-292.8280262829
21
-320.8328701603
31
0.0000000000
11
-292.6249273323
21
-320.8403501644
31
0.0000000000
11
-292.4209201318
21
-320.8403517333
31
0.0000000000
11
-292.2177360454
21
-320.8328701603
31
0.0000000000
0
SPLINE
5
36F
100
AcDbEntity
8
0
100
AcDbSpline
62
9
6
CONTINUOUS
70
0
71
3
72
11
73
7
74
5
42
0.0000001000
43
0.0000001000
44
0.0000000001
12
0.0000256699
22
0.1384612527
32
0.0000000000
13
0.1352723955
23
0.0298191917
33
0.0000000000
40
0.0000000000
40
0.0000000000
40
0.0000000000
40
0.0000000000
40
0.2091032557
40
0.4931166190
40
0.8736295673
40
1.0000000000
40
1.0000000000
40
1.0000000000
40
1.0000000000
10
-293.1331714016
20
-320.9165126548
30
0.0000000000
10
-293.1331696124
20
-320.9068617552
30
0.0000000000
10
-293.1212804476
20
-320.8847129337
30
0.0000000000
10
-293.0860155389
20
-320.8639527460
30
0.0000000000
10
-293.0513476620
20
-320.8521251879
30
0.0000000000
10
-293.0285971709
20
-320.8466261546
30
0.0000000000
10
-293.0228990272
20
-320.8453700666
30
0.0000000000
11
-293.1331714016
21
-320.9165126548
31
0.0000000000
11
-293.1216451697
21
-320.8899531975
31
0.0000000000
11
-293.0894899167
21
-320.8673151040
31
0.0000000000
11
-293.0399078979
21
-320.8494974257
31
0.0000000000
11
-293.0228990272
21
-320.8453700666
31
0.0000000000
0
SPLINE
5
370
100
AcDbEntity
8
0
100
AcDbSpline
62
9
6
CONTINUOUS
70
0
71
3
72
8
73
4
74
2
42
0.0000001000
43
0.0000001000
44
0.0000000001
12
0.0042859530
22
0.0009447874
32
0.0000000000
13
0.0042955310
23
0.0009021475
33
0.0000000000
40
0.0000000000
40
0.0000000000
40
0.0000000000
40
0.0000000000
40
1.0000000000
40
1.0000000000
40
1.0000000000
40
1.0000000000
10
-293.0228990272
20
-320.8453700666
30
0.0000000000
10
-293.0214703761
20
-320.8450551374
30
0.0000000000
10
-293.0200400751
20
-320.8447474291
30
0.0000000000
10
-293.0186082314
20
-320.8444467133
30
0.0000000000
11
-293.0228990272
21
-320.8453700666
31
0.0000000000
11
-293.0186082314
21
-320.8444467133
31
0.0000000000
0
SPLINE
5
371
100
AcDbEntity
8
0
100
AcDbSpline
62
9
6
CONTINUOUS
70
0
71
3
72
8
73
4
74
2
42
0.0000001000
43
0.0000001000
44
0.0000000001
12
0.0193422573
22
0.0040622611
32
0.0000000000
13
0.0195005064
23
0.0032741333
33
0.0000000000
40
0.0000000000
40
0.0000000000
40
0.0000000000
40
0.0000000000
40
1.0000000000
40
1.0000000000
40
1.0000000000
40
1.0000000000
10
-293.0186082314
20
-320.8444467133
30
0.0000000000
10
-293.0121608124
20
-320.8430926263
30
0.0000000000
10
-293.0056821153
20
-320.8418803182
30
0.0000000000
10
-292.9991819465
20
-320.8407889405
30
0.0000000000
11
-293.0186082314
21
-320.8444467133
31
0.0000000000
11
-292.9991819465
21
-320.8407889405
31
0.0000000000
0
SPLINE
5
372
100
AcDbEntity
8
0
100
AcDbSpline
62
9
6
CONTINUOUS
70
0
71
3
72
10
73
6
74
4
42
0.0000001000
43
0.0000001000
44
0.0000000001
12
0.1436554342
22
0.0241197344
32
0.0000000000
13
0.1455167566
23
-0.0039235326
33
0.0000000000
40
0.0000000000
40
0.0000000000
40
0.0000000000
40
0.0000000000
40
0.1538736103
40
0.6506453984
40
1.0000000000
40
1.0000000000
40
1.0000000000
40
1.0000000000
10
-292.9991819465
20
-320.8407889405
30
0.0000000000
10
-292.9918136864
20
-320.8395518103
30
0.0000000000
10
-292.9605407758
20
-320.8349777251
30
0.0000000000
10
-292.9121106664
20
-320.8313832090
30
0.0000000000
10
-292.8710304889
20
-320.8313406685
30
0.0000000000
10
-292.8540848394
20
-320.8317975699
30
0.0000000000
11
-292.9991819465
21
-320.8407889405
31
0.0000000000
11
-292.9770086802
21
-320.8375133451
31
0.0000000000
11
-292.9049360130
21
-320.8318870325
31
0.0000000000
11
-292.8540848394
21
-320.8317975699
31
0.0000000000
0
SPLINE
5
373
100
AcDbEntity
8
0
100
AcDbSpline
62
9
6
CONTINUOUS
70
0
71
3
72
8
73
4
74
2
42
0.0000001000
43
0.0000001000
44
0.0000000001
12
0.0260755307
22
-0.0007030681
32
0.0000000000
13
0.0260370964
23
-0.0014371509
33
0.0000000000
40
0.0000000000
40
0.0000000000
40
0.0000000000
40
0.0000000000
40
1.0000000000
40
1.0000000000
40
1.0000000000
40
1.0000000000
10
-292.8540848394
20
-320.8317975699
30
0.0000000000
10
-292.8453929958
20
-320.8320319259
30
0.0000000000
10
-292.8367053150
20
-320.8323911100
30
0.0000000000
10
-292.8280262829
20
-320.8328701603
30
0.0000000000
11
-292.8540848394
21
-320.8317975699
31
0.0000000000
11
-292.8280262829
21
-320.8328701603
31
0.0000000000
0
SPLINE
5
374
100
AcDbEntity
8
0
100
AcDbSpline
62
9
6
CONTINUOUS
70
0
71
3
72
12
73
8
74
6
42
0.0000001000
43
0.0000001000
44
0.0000000001
12
-0.0000000402
22
0.2481769191
32
0.0000000000
13
0.0000000830
23
0.2481769191
33
0.0000000000
40
0.0000000000
40
0.0000000000
40
0.0000000000
40
0.0000000000
40
0.1005484461
40
0.2392339420
40
0.4272491127
40
0.6764381929
40
1.0000000000
40
1.0000000000
40
1.0000000000
40
1.0000000000
10
-293.1331714016
20
-321.1646895739
30
0.0000000000
10
-293.1331714030
20
-321.1563716394
30
0.0000000000
10
-293.1331713999
20
-321.1365808585
30
0.0000000000
10
-293.1331714048
20
-321.1012364023
30
0.0000000000
10
-293.1331714007
20
-321.0535955546
30
0.0000000000
10
-293.1331713965
20
-320.9906606958
30
0.0000000000
10
-293.1331714106
20
-320.9432795122
30
0.0000000000
10
-293.1331714016
20
-320.9165126548
30
0.0000000000
11
-293.1331714016
21
-321.1646895739
31
0.0000000000
11
-293.1331714014
21
-321.1397357703
31
0.0000000000
11
-293.1331714031
21
-321.1053172312
31
0.0000000000
11
-293.1331714013
21
-321.0586562054
31
0.0000000000
11
-293.1331714002
21
-320.9968132272
31
0.0000000000
11
-293.1331714016
21
-320.9165126548
31
0.0000000000
0
SPLINE
5
375
100
AcDbEntity
8
0
100
AcDbSpline
62
9
6
CONTINUOUS
70
0
71
3
72
14
73
10
74
8
42
0.0000001000
43
0.0000001000
44
0.0000000001
12
0.1022860762
22
-0.0124369244
32
0.0000000000
13
-0.0002474778
23
0.1030391053
33
0.0000000000
40
0.0000000000
40
0.0000000000
40
0.0000000000
40
0.0000000000
40
0.1614060718
40
0.3347621391
40
0.5142394507
40
0.6893348921
40
0.8429827303
40
0.9520038950
40
1.0000000000
40
1.0000000000
40
1.0000000000
40
1.0000000000
10
-293.2348864412
20
-321.1646895739
30
0.0000000000
10
-293.2293832433
20
-321.1653587056
30
0.0000000000
10
-293.2179525802
20
-321.1666347566
30
0.0000000000
10
-293.2003755900
20
-321.1682333856
30
0.0000000000
10
-293.1822222914
20
-321.1693884746
30
0.0000000000
10
-293.1649689966
20
-321.1700040708
30
0.0000000000
10
-293.1493359990
20
-321.1694901686
30
0.0000000000
10
-293.1400029552
20
-321.1687649194
30
0.0000000000
10
-293.1331674423
20
-321.1663380658
30
0.0000000000
10
-293.1331714016
20
-321.1646895739
30
0.0000000000
11
-293.2348864412
21
-321.1646895739
31
0.0000000000
11
-293.2183579020
21
-321.1665344895
31
0.0000000000
11
-293.2005673289
21
-321.1681359311
31
0.0000000000
11
-293.1821113579
21
-321.1693093323
31
0.0000000000
11
-293.1640765102
21
-321.1698076072
31
0.0000000000
11
-293.1482518301
21
-321.1693334719
31
0.0000000000
11
-293.1371483860
21
-321.1676292110
31
0.0000000000
11
-293.1331714016
21
-321.1646895739
31
0.0000000000
0
SPLINE
5
376
100
AcDbEntity
8
0
100
AcDbSpline
62
9
6
CONTINUOUS
70
0
71
3
72
10
73
6
74
4
42
0.0000001000
43
0.0000001000
44
0.0000000001
12
0.0000000011
22
0.0084211513
32
0.0000000000
13
0.0000000040
23
0.0084211513
33
0.0000000000
40
0.0000000000
40
0.0000000000
40
0.0000000000
40
0.0000000000
40
0.1109954972
40
0.4447521893
40
1.0000000000
40
1.0000000000
40
1.0000000000
40
1.0000000000
10
-294.6588969953
20
-320.8412913117
30
0.0000000000
10
-294.6588969953
20
-320.8409797417
30
0.0000000000
10
-294.6588969951
20
-320.8397312999
30
0.0000000000
10
-294.6588969945
20
-320.8369242494
30
0.0000000000
10
-294.6588969960
20
-320.8344287690
30
0.0000000000
10
-294.6588969953
20
-320.8328701603
30
0.0000000000
11
-294.6588969953
21
-320.8412913117
31
0.0000000000
11
-294.6588969952
21
-320.8403566018
31
0.0000000000
11
-294.6588969949
21
-320.8375459862
31
0.0000000000
11
-294.6588969953
21
-320.8328701603
31
0.0000000000
0
SPLINE
5
377
100
AcDbEntity
8
0
100
AcDbSpline
62
9
6
CONTINUOUS
70
0
71
3
72
12
73
8
74
6
42
0.0000001000
43
0.0000001000
44
0.0000000001
12
1.0911187217
22
-0.3562227291
32
0.0000000000
13
1.1394049461
23
-0.1385318241
33
0.0000000000
40
0.0000000000
40
0.0000000000
40
0.0000000000
40
0.0000000000
40
0.2220767843
40
0.4263822369
40
0.6251590283
40
0.8222368415
40
1.0000000000
40
1.0000000000
40
1.0000000000
40
1.0000000000
10
-294.3537518766
20
-320.9165126548
30
0.0000000000
10
-294.2729811642
20
-320.9428822542
30
0.0000000000
10
-294.1167873187
20
-320.9901671991
30
0.0000000000
10
-293.8851285703
20
-321.0499308209
30
0.0000000000
10
-293.6606528990
20
-321.0985422818
30
0.0000000000
10
-293.4444785766
20
-321.1367080937
30
0.0000000000
10
-293.3024011819
20
-321.1564809557
30
0.0000000000
10
-293.2348864412
20
-321.1646895739
30
0.0000000000
11
-294.3537518766
21
-320.9165126548
31
0.0000000000
11
-294.1097872778
21
-320.9903682454
31
0.0000000000
11
-293.8827208880
21
-321.0489474632
31
0.0000000000
11
-293.6597344676
21
-321.0972363482
31
0.0000000000
11
-293.4369745231
21
-321.1365648200
31
0.0000000000
11
-293.2348864412
21
-321.1646895739
31
0.0000000000
0
SPLINE
5
378
100
AcDbEntity
8
0
100
AcDbSpline
62
9
6
CONTINUOUS
70
0
71
3
72
10
73
6
74
4
42
0.0000001000
43
0.0000001000
44
0.0000000001
12
-0.0000305523
22
0.0705416368
32
0.0000000000
13
0.0710873922
23
-0.0193144344
33
0.0000000000
40
0.0000000000
40
0.0000000000
40
0.0000000000
40
0.0000000000
40
0.1406318942
40
0.5591741542
40
1.0000000000
40
1.0000000000
40
1.0000000000
40
1.0000000000
10
-294.6588969953
20
-320.8328701603
30
0.0000000000
10
-294.6588984275
20
-320.8295633590
30
0.0000000000
10
-294.6378035327
20
-320.8346829921
30
0.0000000000
10
-294.6209291267
20
-320.8367949445
30
0.0000000000
10
-294.6011008828
20
-320.8418472368
30
0.0000000000
10
-294.5906551629
20
-320.8446853375
30
0.0000000000
11
-294.6588969953
21
-320.8328701603
31
0.0000000000
11
-294.6490251901
21
-320.8318893978
31
0.0000000000
11
-294.6200415882
21
-320.8375157912
31
0.0000000000
11
-294.5906551629
21
-320.8446853375
31
0.0000000000
0
SPLINE
5
379
100
AcDbEntity
8
0
100
AcDbSpline
62
9
6
CONTINUOUS
70
0
71
3
72
11
73
7
74
5
42
0.0000001000
43
0.0000001000
44
0.0000000001
12
0.2486304027
22
-0.0675528451
32
0.0000000000
13
0.2345404016
23
-0.0765660645
33
0.0000000000
40
0.0000000000
40
0.0000000000
40
0.0000000000
40
0.0000000000
40
0.0697732047
40
0.3340318270
40
0.6507837916
40
1.0000000000
40
1.0000000000
40
1.0000000000
40
1.0000000000
10
-294.5906551629
20
-320.8446853375
30
0.0000000000
10
-294.5848725829
20
-320.8462564636
30
0.0000000000
10
-294.5567863357
20
-320.8541396369
30
0.0000000000
10
-294.5068487661
20
-320.8682845401
30
0.0000000000
10
-294.4330541317
20
-320.8909771558
30
0.0000000000
10
-294.3810536465
20
-320.9075999512
30
0.0000000000
10
-294.3537518766
20
-320.9165126548
30
0.0000000000
11
-294.5906551629
21
-320.8446853375
31
0.0000000000
11
-294.5732462583
21
-320.8495225886
31
0.0000000000
11
-294.5105648925
21
-320.8674632414
31
0.0000000000
11
-294.4358174066
21
-320.8902704155
31
0.0000000000
11
-294.3537518766
21
-320.9165126548
31
0.0000000000
0
SPLINE
5
37A
100
AcDbEntity
8
0
100
AcDbSpline
62
9
6
CONTINUOUS
70
0
71
3
72
9
73
5
74
3
42
0.0000001000
43
0.0000001000
44
0.0000000001
12
0.0385583277
22
-0.0148674323
32
0.0000000000
13
0.0415816152
23
0.0019562143
33
0.0000000000
40
0.0000000000
40
0.0000000000
40
0.0000000000
40
0.0000000000
40
0.9326375344
40
1.0000000000
40
1.0000000000
40
1.0000000000
40
1.0000000000
10
-294.6588939242
20
-320.8328622197
30
0.0000000000
10
-294.6469069429
20
-320.8374841948
30
0.0000000000
10
-294.6329392929
20
-320.8399554099
30
0.0000000000
10
-294.6190672232
20
-320.8394993127
30
0.0000000000
10
-294.6181335432
20
-320.8394553876
30
0.0000000000
11
-294.6588939242
21
-320.8328622197
31
0.0000000000
11
-294.6209365706
21
-320.8395474771
31
0.0000000000
11
-294.6181335432
21
-320.8394553876
31
0.0000000000
0
SPLINE
5
37B
100
AcDbEntity
8
0
100
AcDbSpline
62
9
6
CONTINUOUS
70
0
71
3
72
11
73
7
74
5
42
0.0000001000
43
0.0000001000
44
0.0000000001
12
0.1364282044
22
-0.0140105337
32
0.0000000000
13
0.0395342535
23
0.1327328489
33
0.0000000000
40
0.0000000000
40
0.0000000000
40
0.0000000000
40
0.0000000000
40
0.3028818956
40
0.6052345461
40
0.9066924769
40
1.0000000000
40
1.0000000000
40
1.0000000000
40
1.0000000000
10
-293.1331714002
20
-321.1646895601
30
0.0000000000
10
-293.1193975225
20
-321.1661040724
30
0.0000000000
10
-293.0909376029
20
-321.1631314732
30
0.0000000000
10
-293.0539859596
20
-321.1418776160
30
0.0000000000
10
-293.0345904046
20
-321.1154425857
30
0.0000000000
10
-293.0282557581
20
-321.0983077304
30
0.0000000000
10
-293.0270261437
20
-321.0941794060
30
0.0000000000
11
-293.1331714002
21
-321.1646895601
31
0.0000000000
11
-293.0918628738
21
-321.1603202793
31
0.0000000000
11
-293.0559073820
21
-321.1396644628
31
0.0000000000
11
-293.0315100058
21
-321.1062868236
31
0.0000000000
11
-293.0270261437
21
-321.0941794060
31
0.0000000000
0
SPLINE
5
37C
100
AcDbEntity
8
0
100
AcDbSpline
62
9
6
CONTINUOUS
70
0
71
3
72
8
73
4
74
2
42
0.0000001000
43
0.0000001000
44
0.0000000001
12
0.0033860998
22
0.0113685382
32
0.0000000000
13
0.0020145149
23
0.0116653788
33
0.0000000000
40
0.0000000000
40
0.0000000000
40
0.0000000000
40
0.0000000000
40
1.0000000000
40
1.0000000000
40
1.0000000000
40
1.0000000000
10
-293.0270261437
20
-321.0941794060
30
0.0000000000
10
-293.0258974438
20
-321.0903898933
30
0.0000000000
10
-293.0249942686
20
-321.0865344078
30
0.0000000000
10
-293.0243227636
20
-321.0826459482
30
0.0000000000
11
-293.0270261437
21
-321.0941794060
31
0.0000000000
11
-293.0243227636
21
-321.0826459482
31
0.0000000000
0
SPLINE
5
37D
100
AcDbEntity
8
0
100
AcDbSpline
62
9
6
CONTINUOUS
70
0
71
3
72
8
73
4
74
2
42
0.0000001000
43
0.0000001000
44
0.0000000001
12
0.0006855855
22
0.0039699952
32
0.0000000000
13
0.0005238670
23
0.0039890075
33
0.0000000000
40
0.0000000000
40
0.0000000000
40
0.0000000000
40
0.0000000000
40
1.0000000000
40
1.0000000000
40
1.0000000000
40
1.0000000000
10
-293.0243227636
20
-321.0826459482
30
0.0000000000
10
-293.0240942351
20
-321.0813226165
30
0.0000000000
10
-293.0238925386
20
-321.0799954657
30
0.0000000000
10
-293.0237179162
20
-321.0786657965
30
0.0000000000
11
-293.0243227636
21
-321.0826459482
31
0.0000000000
11
-293.0237179162
21
-321.0786657965
31
0.0000000000
0
SPLINE
5
37E
100
AcDbEntity
8
0
100
AcDbSpline
62
9
6
CONTINUOUS
70
0
71
3
72
8
73
4
74
2
42
0.0000001000
43
0.0000001000
44
0.0000000001
12
0.0016657154
22
0.0126836605
32
0.0000000000
13
0.0000000018
23
0.0127109900
33
0.0000000000
40
0.0000000000
40
0.0000000000
40
0.0000000000
40
0.0000000000
40
1.0000000000
40
1.0000000000
40
1.0000000000
40
1.0000000000
10
-293.0237179162
20
-321.0786657965
30
0.0000000000
10
-293.0231626778
20
-321.0744379097
30
0.0000000000
10
-293.0228811648
20
-321.0701845616
30
0.0000000000
10
-293.0228811642
20
-321.0659475649
30
0.0000000000
11
-293.0237179162
21
-321.0786657965
31
0.0000000000
11
-293.0228811642
21
-321.0659475649
31
0.0000000000
0
SPLINE
5
37F
100
AcDbEntity
8
0
100
AcDbSpline
62
9
6
CONTINUOUS
70
0
71
3
72
10
73
6
74
4
42
0.0000001000
43
0.0000001000
44
0.0000000001
12
0.1210365973
22
-0.0119148569
32
0.0000000000
13
0.0533106822
23
0.1105467502
33
0.0000000000
40
0.0000000000
40
0.0000000000
40
0.0000000000
40
0.0000000000
40
0.3413955304
40
0.6788235121
40
1.0000000000
40
1.0000000000
40
1.0000000000
40
1.0000000000
10
-293.1331709231
20
-320.9165082614
30
0.0000000000
10
-293.1193971386
20
-320.9178641543
30
0.0000000000
10
-293.0911560140
20
-320.9150629023
30
0.0000000000
10
-293.0546195217
20
-320.8951000372
30
0.0000000000
10
-293.0377084026
20
-320.8734688030
30
0.0000000000
10
-293.0320010234
20
-320.8616337974
30
0.0000000000
11
-293.1331709231
21
-320.9165082614
31
0.0000000000
11
-293.0918608558
21
-320.9123275198
31
0.0000000000
11
-293.0559030722
21
-320.8925487497
31
0.0000000000
11
-293.0320010234
21
-320.8616337974
31
0.0000000000
0
SPLINE
5
380
100
AcDbEntity
8
0
100
AcDbSpline
62
9
6
CONTINUOUS
70
0
71
3
72
10
73
6
74
4
42
0.0000001000
43
0.0000001000
44
0.0000000001
12
-0.1210105791
22
-0.0119005592
32
0.0000000000
13
-0.0533247757
23
0.1105085263
33
0.0000000000
40
0.0000000000
40
0.0000000000
40
0.0000000000
40
0.0000000000
40
0.3414622253
40
0.6789559621
40
1.0000000000
40
1.0000000000
40
1.0000000000
40
1.0000000000
10
-291.9125909339
20
-320.9165125883
30
0.0000000000
10
-291.9263644478
20
-320.9178671188
30
0.0000000000
10
-291.9546044119
20
-320.9150635785
30
0.0000000000
10
-291.9911313438
20
-320.8951029485
30
0.0000000000
10
-292.0080381545
20
-320.8734806765
30
0.0000000000
10
-292.0137446883
20
-320.8616546420
30
0.0000000000
11
-291.9125909339
21
-320.9165125883
31
0.0000000000
11
-291.9538994455
21
-320.9123284745
31
0.0000000000
11
-291.9898549276
21
-320.8925480394
31
0.0000000000
11
-292.0137446883
21
-320.8616546420
31
0.0000000000
0
SPLINE
5
381
100
AcDbEntity
8
0
100
AcDbSpline
62
9
6
CONTINUOUS
70
0
71
3
72
11
73
7
74
5
42
0.0000001000
43
0.0000001000
44
0.0000000001
12
-0.1647257712
22
-0.0169074676
32
0.0000000000
13
-0.0000024998
23
0.1655911898
33
0.0000000000
40
0.0000000000
40
0.0000000000
40
0.0000000000
40
0.0000000000
40
0.2508328946
40
0.5012304873
40
0.7508912799
40
1.0000000000
40
1.0000000000
40
1.0000000000
40
1.0000000000
10
-291.9125909369
20
-321.1646894764
30
0.0000000000
10
-291.9263638175
20
-321.1661031261
30
0.0000000000
10
-291.9548215218
20
-321.1631291427
30
0.0000000000
10
-291.9917696005
20
-321.1418747159
30
0.0000000000
10
-292.0169351782
20
-321.1075729145
30
0.0000000000
10
-292.0228714167
20
-321.0796976344
30
0.0000000000
10
-292.0228716243
20
-321.0659475646
30
0.0000000000
11
-291.9125909369
21
-321.1646894764
31
0.0000000000
11
-291.9538960024
21
-321.1603182771
31
0.0000000000
11
-291.9898480930
21
-321.1396620374
31
0.0000000000
11
-292.0142431998
21
-321.1062852649
31
0.0000000000
11
-292.0228716243
21
-321.0659475646
31
0.0000000000
0
SPLINE
5
382
100
AcDbEntity
8
0
100
AcDbSpline
62
9
6
CONTINUOUS
70
0
71
3
72
9
73
5
74
3
42
0.0000001000
43
0.0000001000
44
0.0000000001
12
-0.0385822683
22
-0.0148726601
32
0.0000000000
13
-0.0416051680
23
0.0019714101
33
0.0000000000
40
0.0000000000
40
0.0000000000
40
0.0000000000
40
0.0000000000
40
0.9320597385
40
1.0000000000
40
1.0000000000
40
1.0000000000
40
1.0000000000
10
-290.3868653350
20
-320.8328701554
30
0.0000000000
10
-290.3988523279
20
-320.8374908912
30
0.0000000000
10
-290.4128283441
20
-320.8399623975
30
0.0000000000
10
-290.4267084399
20
-320.8395031373
30
0.0000000000
10
-290.4276506619
20
-320.8394584912
30
0.0000000000
11
-290.3868653350
21
-320.8328701554
31
0.0000000000
11
-290.4248219625
21
-320.8395520137
31
0.0000000000
11
-290.4276506619
21
-320.8394584912
31
0.0000000000
0
SPLINE
5
383
100
AcDbEntity
8
0
100
AcDbSpline
62
7
6
CONTINUOUS
70
0
71
3
72
16
73
12
74
10
42
0.0000001000
43
0.0000001000
44
0.0000000001
12
-0.0289744044
22
0.2588793067
32
0.0000000000
13
-0.2571086795
23
-0.0312684163
33
0.0000000000
40
0.0000000000
40
0.0000000000
40
0.0000000000
40
0.0000000000
40
0.0950980898
40
0.2223386279
40
0.3380988178
40
0.4476222810
40
0.5468622451
40
0.6466093114
40
0.7654231273
40
0.9093720201
40
1.0000000000
40
1.0000000000
40
1.0000000000
40
1.0000000000
10
-293.0235197330
20
179.5985584206
30
0.0000000000
10
-293.0244382032
20
179.6067647298
30
0.0000000000
10
-293.0289159669
20
179.6257616664
30
0.0000000000
10
-293.0436357747
20
179.6515260379
30
0.0000000000
10
-293.0663576810
20
179.6724256813
30
0.0000000000
10
-293.0917264318
20
179.6850871712
30
0.0000000000
10
-293.1178713553
20
179.6910093035
30
0.0000000000
10
-293.1453098898
20
179.6927182932
30
0.0000000000
10
-293.1766155204
20
179.6920418519
30
0.0000000000
10
-293.2070479279
20
179.6897566947
30
0.0000000000
10
-293.2271836261
20
179.6875665115
30
0.0000000000
10
-293.2349507062
20
179.6866219137
30
0.0000000000
11
-293.0235197330
21
179.5985584206
31
0.0000000000
11
-293.0292203380
21
179.6226396209
31
0.0000000000
11
-293.0455292687
21
179.6512737066
31
0.0000000000
11
-293.0675756126
21
179.6715897162
31
0.0000000000
11
-293.0929080175
21
179.6843495613
31
0.0000000000
11
-293.1179072296
21
179.6903156509
31
0.0000000000
11
-293.1436645669
21
179.6922860153
31
0.0000000000
11
-293.1744318736
21
179.6918416019
31
0.0000000000
11
-293.2116152063
21
179.6891583489
31
0.0000000000
11
-293.2349507062
21
179.6866219137
31
0.0000000000
0
SPLINE
5
384
100
AcDbEntity
8
0
100
AcDbSpline
62
7
6
CONTINUOUS
70
0
71
3
72
17
73
13
74
11
42
0.0000001000
43
0.0000001000
44
0.0000000001
12
-0.2409615793
22
-0.0786737289
32
0.0000000000
13
-0.2508541122
23
-0.0616341786
33
0.0000000000
40
0.0000000000
40
0.0000000000
40
0.0000000000
40
0.0000000000
40
0.1257174119
40
0.2559316030
40
0.3801033766
40
0.4973284206
40
0.6067933816
40
0.7076507114
40
0.7992778858
40
0.8810031933
40
0.9522887015
40
1.0000000000
40
1.0000000000
40
1.0000000000
40
1.0000000000
10
-294.3539156070
20
179.4384179311
30
0.0000000000
10
-294.3640132957
20
179.4351210453
30
0.0000000000
10
-294.3845855822
20
179.4284575223
30
0.0000000000
10
-294.4151853858
20
179.4187054124
30
0.0000000000
10
-294.4451480272
20
179.4093176461
30
0.0000000000
10
-294.4734827479
20
179.4006015430
30
0.0000000000
10
-294.4999817709
20
179.3926110937
30
0.0000000000
10
-294.5244497600
20
179.3854060334
30
0.0000000000
10
-294.5467418826
20
179.3790200160
30
0.0000000000
10
-294.5665946463
20
179.3734903902
30
0.0000000000
10
-294.5831599628
20
179.3690982260
30
0.0000000000
10
-294.5925849648
20
179.3666510413
30
0.0000000000
10
-294.5965744900
20
179.3656708257
30
0.0000000000
11
-294.3539156070
21
179.4384179311
31
0.0000000000
11
-294.3842316518
21
179.4285980609
31
0.0000000000
11
-294.4156801655
21
179.4185766548
31
0.0000000000
11
-294.4457163401
21
179.4091690050
31
0.0000000000
11
-294.4741181530
21
179.4004358755
31
0.0000000000
11
-294.5006856624
21
179.3924314778
31
0.0000000000
11
-294.5252115815
21
179.3852160669
31
0.0000000000
11
-294.5475398766
21
179.3788226125
31
0.0000000000
11
-294.5675019601
21
179.3732859096
31
0.0000000000
11
-294.5849635284
21
179.3686386071
31
0.0000000000
11
-294.5965744900
21
179.3656708257
31
0.0000000000
0
SPLINE
5
385
100
AcDbEntity
8
0
100
AcDbSpline
62
7
6
CONTINUOUS
70
0
71
3
72
11
73
7
74
5
42
0.0000001000
43
0.0000001000
44
0.0000000001
12
-0.0254898087
22
-0.0062627772
32
0.0000000000
13
-0.0387715112
23
-0.0062176843
33
0.0000000000
40
0.0000000000
40
0.0000000000
40
0.0000000000
40
0.0000000000
40
0.1248469644
40
0.5993276583
40
0.9394943737
40
1.0000000000
40
1.0000000000
40
1.0000000000
40
1.0000000000
10
-294.5965744900
20
179.3656708257
30
0.0000000000
10
-294.5976352651
20
179.3654101962
30
0.0000000000
10
-294.6027989910
20
179.3641593747
30
0.0000000000
10
-294.6116176276
20
179.3621846544
30
0.0000000000
10
-294.6161107658
20
179.3609437979
30
0.0000000000
10
-294.6219563609
20
179.3600169551
30
0.0000000000
10
-294.6227383257
20
179.3598915535
30
0.0000000000
11
-294.5965744900
21
179.3656708257
31
0.0000000000
11
-294.5998066381
21
179.3648886883
31
0.0000000000
11
-294.6117031873
21
179.3620913735
31
0.0000000000
11
-294.6202772647
21
179.3602886999
31
0.0000000000
11
-294.6227383257
21
179.3598915535
31
0.0000000000
0
SPLINE
5
386
100
AcDbEntity
8
0
100
AcDbSpline
62
7
6
CONTINUOUS
70
0
71
3
72
10
73
6
74
4
42
0.0000001000
43
0.0000001000
44
0.0000000001
12
-1.1394054503
22
-0.1385357645
32
0.0000000000
13
-1.0911165306
23
-0.3562186596
33
0.0000000000
40
0.0000000000
40
0.0000000000
40
0.0000000000
40
0.0000000000
40
0.3242326341
40
0.6737101514
40
1.0000000000
40
1.0000000000
40
1.0000000000
40
1.0000000000
10
-293.2349505038
20
179.6866202440
30
0.0000000000
10
-293.3580946473
20
179.6716476387
30
0.0000000000
10
-293.6130636132
20
179.6324532557
30
0.0000000000
10
-293.9868422652
20
179.5496234889
30
0.0000000000
10
-294.2352431927
20
179.4771645103
30
0.0000000000
10
-294.3539166086
20
179.4384209995
30
0.0000000000
11
-293.2349505038
21
179.6866202440
31
0.0000000000
11
-293.6027798587
21
179.6300750563
31
0.0000000000
11
-293.9943896409
21
179.5432938447
31
0.0000000000
11
-294.3539166086
21
179.4384209995
31
0.0000000000
0
SPLINE
5
387
100
AcDbEntity
8
0
100
AcDbSpline
62
7
6
CONTINUOUS
70
0
71
3
72
8
73
4
74
2
42
0.0000001000
43
0.0000001000
44
0.0000000001
12
-0.0000045224
22
0.0112105483
32
0.0000000000
13
-0.0012537431
23
0.0111931650
33
0.0000000000
40
0.0000000000
40
0.0000000000
40
0.0000000000
40
0.0000000000
40
1.0000000000
40
1.0000000000
40
1.0000000000
40
1.0000000000
10
-293.0228911543
20
179.5873424130
30
0.0000000000
10
-293.0228926618
20
179.5910792624
30
0.0000000000
10
-293.0231045052
20
179.5948270642
30
0.0000000000
10
-293.0235224196
20
179.5985581192
30
0.0000000000
11
-293.0228911543
21
179.5873424130
31
0.0000000000
11
-293.0235224196
21
179.5985581192
31
0.0000000000
0
SPLINE
5
388
100
AcDbEntity
8
0
100
AcDbSpline
62
7
6
CONTINUOUS
70
0
71
3
72
13
73
9
74
7
42
0.0000001000
43
0.0000001000
44
0.0000000001
12
-0.0186732971
22
0.1667114088
32
0.0000000000
13
-0.1668252168
23
0.0043654261
33
0.0000000000
40
0.0000000000
40
0.0000000000
40
0.0000000000
40
0.0000000000
40
0.1475633507
40
0.3441968187
40
0.5230475999
40
0.6926499719
40
0.8460445029
40
1.0000000000
40
1.0000000000
40
1.0000000000
40
1.0000000000
10
-293.0235224196
20
179.5985581197
30
0.0000000000
10
-293.0244409177
20
179.6067582844
30
0.0000000000
10
-293.0289051600
20
179.6256967773
30
0.0000000000
10
-293.0435445722
20
179.6513759983
30
0.0000000000
10
-293.0661144495
20
179.6722439795
30
0.0000000000
10
-293.0913357902
20
179.6849411806
30
0.0000000000
10
-293.1173459185
20
179.6909345654
30
0.0000000000
10
-293.1344341562
20
179.6920447440
30
0.0000000000
10
-293.1429953759
20
179.6922687712
30
0.0000000000
11
-293.0235224196
21
179.5985581197
31
0.0000000000
11
-293.0292188451
21
179.6226218740
31
0.0000000000
11
-293.0454239110
21
179.6511357446
31
0.0000000000
11
-293.0673098943
21
179.6714062298
31
0.0000000000
11
-293.0925312460
21
179.6842171280
31
0.0000000000
11
-293.1173968303
21
179.6902420298
31
0.0000000000
11
-293.1429953759
21
179.6922687712
31
0.0000000000
0
SPLINE
5
389
100
AcDbEntity
8
0
100
AcDbSpline
62
7
6
CONTINUOUS
70
0
71
3
72
8
73
4
74
2
42
0.0000001000
43
0.0000001000
44
0.0000000001
12
-0.0304850193
22
0.0007977217
32
0.0000000000
13
-0.0304535634
23
-0.0013443544
33
0.0000000000
40
0.0000000000
40
0.0000000000
40
0.0000000000
40
0.0000000000
40
1.0000000000
40
1.0000000000
40
1.0000000000
40
1.0000000000
10
-293.1429953759
20
179.6922687712
30
0.0000000000
10
-293.1531570490
20
179.6925346784
30
0.0000000000
10
-293.1633208444
20
179.6923327473
30
0.0000000000
10
-293.1734720322
20
179.6918846292
30
0.0000000000
11
-293.1429953759
21
179.6922687712
31
0.0000000000
11
-293.1734720322
21
179.6918846292
31
0.0000000000
0
SPLINE
5
38A
100
AcDbEntity
8
0
100
AcDbSpline
62
7
6
CONTINUOUS
70
0
71
3
72
9
73
5
74
3
42
0.0000001000
43
0.0000001000
44
0.0000000001
12
-0.0616600254
22
-0.0027219451
32
0.0000000000
13
-0.0612650701
23
-0.0074519145
33
0.0000000000
40
0.0000000000
40
0.0000000000
40
0.0000000000
40
0.0000000000
40
0.5991729697
40
1.0000000000
40
1.0000000000
40
1.0000000000
40
1.0000000000
10
-293.1734720322
20
179.6918846292
30
0.0000000000
10
-293.1857870390
20
179.6913409905
30
0.0000000000
10
-293.2063094126
20
179.6898289634
30
0.0000000000
10
-293.2267651103
20
179.6876173030
30
0.0000000000
10
-293.2349506757
20
179.6866216601
30
0.0000000000
11
-293.1734720322
21
179.6918846292
31
0.0000000000
11
-293.2103560049
21
179.6892778848
31
0.0000000000
11
-293.2349506757
21
179.6866216601
31
0.0000000000
0
SPLINE
5
38B
100
AcDbEntity
8
0
100
AcDbSpline
62
7
6
CONTINUOUS
70
0
71
3
72
8
73
4
74
2
42
0.0000001000
43
0.0000001000
44
0.0000000001
12
-0.0121258853
22
-0.0006742997
32
0.0000000000
13
-0.0121403917
23
-0.0004857074
33
0.0000000000
40
0.0000000000
40
0.0000000000
40
0.0000000000
40
0.0000000000
40
1.0000000000
40
1.0000000000
40
1.0000000000
40
1.0000000000
10
-292.8283954748
20
179.3609578564
30
0.0000000000
10
-292.8324374366
20
179.3607330898
30
0.0000000000
10
-292.8364817831
20
179.3605394169
30
0.0000000000
10
-292.8405285803
20
179.3603775144
30
0.0000000000
11
-292.8283954748
21
179.3609578564
31
0.0000000000
11
-292.8405285803
21
179.3603775144
31
0.0000000000
0
SPLINE
5
38C
100
AcDbEntity
8
0
100
AcDbSpline
62
7
6
CONTINUOUS
70
0
71
3
72
8
73
4
74
2
42
0.0000001000
43
0.0000001000
44
0.0000000001
12
-0.0226721203
22
-0.0009070561
32
0.0000000000
13
-0.0227246917
23
-0.0002290275
33
0.0000000000
40
0.0000000000
40
0.0000000000
40
0.0000000000
40
0.0000000000
40
1.0000000000
40
1.0000000000
40
1.0000000000
40
1.0000000000
10
-292.8405285803
20
179.3603775144
30
0.0000000000
10
-292.8480859537
20
179.3600751624
30
0.0000000000
10
-292.8556518741
20
179.3598836111
30
0.0000000000
10
-292.8632267714
20
179.3598072686
30
0.0000000000
11
-292.8405285803
21
179.3603775144
31
0.0000000000
11
-292.8632267714
21
179.3598072686
31
0.0000000000
0
SPLINE
5
38D
100
AcDbEntity
8
0
100
AcDbSpline
62
7
6
CONTINUOUS
70
0
71
3
72
11
73
7
74
5
42
0.0000001000
43
0.0000001000
44
0.0000000001
12
-0.1625355335
22
-0.0016380908
32
0.0000000000
13
-0.1430045884
23
0.0452983136
33
0.0000000000
40
0.0000000000
40
0.0000000000
40
0.0000000000
40
0.0000000000
40
0.3921400466
40
0.7167710143
40
0.9507098624
40
1.0000000000
40
1.0000000000
40
1.0000000000
40
1.0000000000
10
-292.8632267714
20
179.3598072686
30
0.0000000000
10
-292.8844723353
20
179.3595931483
30
0.0000000000
10
-292.9234349977
20
179.3608583328
30
0.0000000000
10
-292.9738022196
20
179.3661947378
30
0.0000000000
10
-293.0074757958
20
179.3748757625
30
0.0000000000
10
-293.0206444546
20
179.3783354871
30
0.0000000000
10
-293.0229940266
20
179.3790797404
30
0.0000000000
11
-292.8632267714
21
179.3598072686
31
0.0000000000
11
-292.9268086246
21
179.3618030230
31
0.0000000000
11
-292.9790632330
21
179.3683392302
31
0.0000000000
11
-293.0159846278
21
179.3771135783
31
0.0000000000
11
-293.0229940266
21
179.3790797404
31
0.0000000000
0
SPLINE
5
38E
100
AcDbEntity
8
0
100
AcDbSpline
62
7
6
CONTINUOUS
70
0
71
3
72
9
73
5
74
3
42
0.0000001000
43
0.0000001000
44
0.0000000001
12
-0.0148819146
22
0.0047140140
32
0.0000000000
13
-0.0133048910
23
0.0072041476
33
0.0000000000
40
0.0000000000
40
0.0000000000
40
0.0000000000
40
0.0000000000
40
0.8019985287
40
1.0000000000
40
1.0000000000
40
1.0000000000
40
1.0000000000
10
-293.0229940266
20
179.3790797404
30
0.0000000000
10
-293.0269724511
20
179.3803399512
30
0.0000000000
10
-293.0321398638
20
179.3824195054
30
0.0000000000
10
-293.0385780298
20
179.3863395030
30
0.0000000000
10
-293.0394561591
20
179.3868149803
30
0.0000000000
11
-293.0229940266
21
179.3790797404
31
0.0000000000
11
-293.0360783165
21
179.3848593262
31
0.0000000000
11
-293.0394561591
21
179.3868149803
31
0.0000000000
0
SPLINE
5
38F
100
AcDbEntity
8
0
100
AcDbSpline
62
7
6
CONTINUOUS
70
0
71
3
72
10
73
6
74
4
42
0.0000001000
43
0.0000001000
44
0.0000000001
12
-0.6103837428
22
0.0337146206
32
0.0000000000
13
-0.6103824095
23
-0.0337146639
33
0.0000000000
40
0.0000000000
40
0.0000000000
40
0.0000000000
40
0.0000000000
40
0.3162379388
40
0.6798529955
40
1.0000000000
40
1.0000000000
40
1.0000000000
40
1.0000000000
10
-292.2173659260
20
179.3609745549
30
0.0000000000
10
-292.2817080915
20
179.3645285023
30
0.0000000000
10
-292.4201771626
20
179.3697556736
30
0.0000000000
10
-292.6239919231
20
179.3697996033
30
0.0000000000
10
-292.7632588933
20
179.3645724598
30
0.0000000000
10
-292.8283962600
20
179.3609745769
30
0.0000000000
11
-292.2173659260
21
179.3609745549
31
0.0000000000
11
-292.4105481834
21
179.3682668629
31
0.0000000000
11
-292.6328248188
21
179.3683148015
31
0.0000000000
11
-292.8283962600
21
179.3609745769
31
0.0000000000
0
SPLINE
5
390
100
AcDbEntity
8
0
100
AcDbSpline
62
7
6
CONTINUOUS
70
0
71
3
72
9
73
5
74
3
42
0.0000001000
43
0.0000001000
44
0.0000000001
12
-0.0152042181
22
-0.0087117897
32
0.0000000000
13
-0.0143642103
23
-0.0045149261
33
0.0000000000
40
0.0000000000
40
0.0000000000
40
0.0000000000
40
0.0000000000
40
0.1424866664
40
1.0000000000
40
1.0000000000
40
1.0000000000
40
1.0000000000
10
-292.0069529937
20
179.3864266795
30
0.0000000000
10
-292.0076751265
20
179.3860129082
30
0.0000000000
10
-292.0137431749
20
179.3823762823
30
0.0000000000
10
-292.0186774250
20
179.3804245319
30
0.0000000000
10
-292.0227832590
20
179.3791339955
30
0.0000000000
11
-292.0069529937
21
179.3864266795
31
0.0000000000
11
-292.0093813396
21
179.3850107739
31
0.0000000000
11
-292.0227832590
21
179.3791339955
31
0.0000000000
0
SPLINE
5
391
100
AcDbEntity
8
0
100
AcDbSpline
62
7
6
CONTINUOUS
70
0
71
3
72
11
73
7
74
5
42
0.0000001000
43
0.0000001000
44
0.0000000001
12
-0.1401325979
22
-0.0440425303
32
0.0000000000
13
-0.1595286702
23
0.0010276725
33
0.0000000000
40
0.0000000000
40
0.0000000000
40
0.0000000000
40
0.0000000000
40
0.0438216188
40
0.2774879323
40
0.6034667719
40
1.0000000000
40
1.0000000000
40
1.0000000000
40
1.0000000000
10
-292.0227851654
20
179.3791333963
30
0.0000000000
10
-292.0248321112
20
179.3784900580
30
0.0000000000
10
-292.0375966963
20
179.3750190735
30
0.0000000000
10
-292.0702962578
20
179.3665236667
30
0.0000000000
10
-292.1200363868
20
179.3610200053
30
0.0000000000
10
-292.1585727519
20
179.3596414099
30
0.0000000000
10
-292.1796588915
20
179.3597772454
30
0.0000000000
11
-292.0227851654
21
179.3791333963
31
0.0000000000
11
-292.0289203928
21
179.3773829054
31
0.0000000000
11
-292.0650828301
21
179.3686350990
31
0.0000000000
11
-292.1165598514
21
179.3619920226
31
0.0000000000
11
-292.1796588915
21
179.3597772454
31
0.0000000000
0
SPLINE
5
392
100
AcDbEntity
8
0
100
AcDbSpline
62
7
6
CONTINUOUS
70
0
71
3
72
8
73
4
74
2
42
0.0000001000
43
0.0000001000
44
0.0000000001
12
-0.0377751027
22
0.0002433446
32
0.0000000000
13
-0.0376420626
23
0.0020944388
33
0.0000000000
40
0.0000000000
40
0.0000000000
40
0.0000000000
40
0.0000000000
40
1.0000000000
40
1.0000000000
40
1.0000000000
40
1.0000000000
10
-292.1796588915
20
179.3597772454
30
0.0000000000
10
-292.1922505924
20
179.3598583602
30
0.0000000000
10
-292.2048196103
20
179.3602577157
30
0.0000000000
10
-292.2173669645
20
179.3609558620
30
0.0000000000
11
-292.1796588915
21
179.3597772454
31
0.0000000000
11
-292.2173669645
21
179.3609558620
31
0.0000000000
0
SPLINE
5
393
100
AcDbEntity
8
0
100
AcDbSpline
62
7
6
CONTINUOUS
70
0
71
3
72
9
73
5
74
3
42
0.0000001000
43
0.0000001000
44
0.0000000001
12
-0.0603938318
22
0.0073448720
32
0.0000000000
13
-0.0607785955
23
0.0027725077
33
0.0000000000
40
0.0000000000
40
0.0000000000
40
0.0000000000
40
0.0000000000
40
0.3869911088
40
1.0000000000
40
1.0000000000
40
1.0000000000
40
1.0000000000
10
-291.8108116209
20
179.6866219241
30
0.0000000000
10
-291.8186022462
20
179.6875693908
30
0.0000000000
10
-291.8387654480
20
179.6897617864
30
0.0000000000
10
-291.8589937935
20
179.6912788368
30
0.0000000000
10
-291.8714130666
20
179.6918453608
30
0.0000000000
11
-291.8108116209
21
179.6866219241
31
0.0000000000
11
-291.8342179619
21
179.6891651249
31
0.0000000000
11
-291.8714130666
21
179.6918453608
31
0.0000000000
0
SPLINE
5
394
100
AcDbEntity
8
0
100
AcDbSpline
62
7
6
CONTINUOUS
70
0
71
3
72
9
73
5
74
3
42
0.0000001000
43
0.0000001000
44
0.0000000001
12
-0.0564442669
22
0.0025747907
32
0.0000000000
13
-0.0559810452
23
-0.0080425123
33
0.0000000000
40
0.0000000000
40
0.0000000000
40
0.0000000000
40
0.0000000000
40
0.5438656546
40
1.0000000000
40
1.0000000000
40
1.0000000000
40
1.0000000000
10
-291.8714130666
20
179.6918453608
30
0.0000000000
10
-291.8816457660
20
179.6923121408
30
0.0000000000
10
-291.9004843848
20
179.6927167440
30
0.0000000000
10
-291.9193185611
20
179.6915420233
30
0.0000000000
10
-291.9278301869
20
179.6903192013
30
0.0000000000
11
-291.8714130666
21
179.6918453608
31
0.0000000000
11
-291.9021358075
21
179.6922850924
31
0.0000000000
11
-291.9278301869
21
179.6903192013
31
0.0000000000
0
SPLINE
5
395
100
AcDbEntity
8
0
100
AcDbSpline
62
7
6
CONTINUOUS
70
0
71
3
72
8
73
4
74
2
42
0.0000001000
43
0.0000001000
44
0.0000000001
12
-0.0253563285
22
-0.0036428149
32
0.0000000000
13
-0.0242042291
23
-0.0084543714
33
0.0000000000
40
0.0000000000
40
0.0000000000
40
0.0000000000
40
0.0000000000
40
1.0000000000
40
1.0000000000
40
1.0000000000
40
1.0000000000
10
-291.9278301869
20
179.6903192013
30
0.0000000000
10
-291.9362822964
20
179.6891049297
30
0.0000000000
10
-291.9446562220
20
179.6872132403
30
0.0000000000
10
-291.9527242983
20
179.6843951165
30
0.0000000000
11
-291.9278301869
21
179.6903192013
31
0.0000000000
11
-291.9527242983
21
179.6843951165
31
0.0000000000
0
SPLINE
5
396
100
AcDbEntity
8
0
100
AcDbSpline
62
7
6
CONTINUOUS
70
0
71
3
72
11
73
7
74
5
42
0.0000001000
43
0.0000001000
44
0.0000000001
12
-0.1097795045
22
-0.0383452287
32
0.0000000000
13
-0.0129853403
23
-0.1160160106
33
0.0000000000
40
0.0000000000
40
0.0000000000
40
0.0000000000
40
0.0000000000
40
0.2448027718
40
0.5034455926
40
0.7877064745
40
1.0000000000
40
1.0000000000
40
1.0000000000
40
1.0000000000
10
-291.9527242983
20
179.6843951165
30
0.0000000000
10
-291.9616824073
20
179.6812661104
30
0.0000000000
10
-291.9793296579
20
179.6724824117
30
0.0000000000
10
-292.0020978070
20
179.6515687963
30
0.0000000000
10
-292.0168409371
20
179.6257818641
30
0.0000000000
10
-292.0213236434
20
179.6067686791
30
0.0000000000
10
-292.0222425446
20
179.5985588631
30
0.0000000000
11
-291.9527242983
21
179.6843951165
31
0.0000000000
11
-291.9781126171
21
179.6716403106
31
0.0000000000
11
-292.0002012755
21
179.6513129903
31
0.0000000000
11
-292.0165381146
21
179.6226500719
31
0.0000000000
11
-292.0222425446
21
179.5985588631
31
0.0000000000
0
SPLINE
5
397
100
AcDbEntity
8
0
100
AcDbSpline
62
7
6
CONTINUOUS
70
0
71
3
72
8
73
4
74
2
42
0.0000001000
43
0.0000001000
44
0.0000000001
12
-0.0012512757
22
-0.0111793772
32
0.0000000000
13
-0.0000054201
23
-0.0111967750
33
0.0000000000
40
0.0000000000
40
0.0000000000
40
0.0000000000
40
0.0000000000
40
1.0000000000
40
1.0000000000
40
1.0000000000
40
1.0000000000
10
-292.0222425446
20
179.5985588631
30
0.0000000000
10
-292.0226596365
20
179.5948324041
30
0.0000000000
10
-292.0228711941
20
179.5910892471
30
0.0000000000
10
-292.0228730008
20
179.5873569887
30
0.0000000000
11
-292.0222425446
21
179.5985588631
31
0.0000000000
11
-292.0228730008
21
179.5873569887
31
0.0000000000
0
SPLINE
5
398
100
AcDbEntity
8
0
100
AcDbSpline
62
7
6
CONTINUOUS
70
0
71
3
72
10
73
6
74
4
42
0.0000001000
43
0.0000001000
44
0.0000000001
12
-1.0911208316
22
0.3562194201
32
0.0000000000
13
-1.1394011973
23
0.1385349433
33
0.0000000000
40
0.0000000000
40
0.0000000000
40
0.0000000000
40
0.0000000000
40
0.3242092501
40
0.6736871094
40
1.0000000000
40
1.0000000000
40
1.0000000000
40
1.0000000000
10
-290.6918457272
20
179.4384209712
30
0.0000000000
10
-290.8097628827
20
179.4769175149
30
0.0000000000
10
-291.0573827309
20
179.5492031599
30
0.0000000000
10
-291.4311278429
20
179.6321841525
30
0.0000000000
10
-291.6868780576
20
179.6715516777
30
0.0000000000
10
-291.8108118236
20
179.6866202570
30
0.0000000000
11
-290.6918457272
21
179.4384209712
31
0.0000000000
11
-291.0490601870
21
179.5426977434
31
0.0000000000
11
-291.4406351976
21
179.6296375307
31
0.0000000000
11
-291.8108118236
21
179.6866202570
31
0.0000000000
0
SPLINE
5
399
100
AcDbEntity
8
0
100
AcDbSpline
62
7
6
CONTINUOUS
70
0
71
3
72
8
73
4
74
2
42
0.0000001000
43
0.0000001000
44
0.0000000001
12
0.0000338558
22
0.0001072465
32
0.0000000000
13
-0.0041573908
23
0.0006697597
33
0.0000000000
40
0.0000000000
40
0.0000000000
40
0.0000000000
40
0.0000000000
40
1.0000000000
40
1.0000000000
40
1.0000000000
40
1.0000000000
10
-290.4208049093
20
179.3594849513
30
0.0000000000
10
-290.4207936240
20
179.3595207001
30
0.0000000000
10
-290.4219991125
20
179.3597144287
30
0.0000000000
10
-290.4233849094
20
179.3599376819
30
0.0000000000
11
-290.4208049093
21
179.3594849513
31
0.0000000000
11
-290.4233849094
21
179.3599376819
31
0.0000000000
0
SPLINE
5
39A
100
AcDbEntity
8
0
100
AcDbSpline
62
7
6
CONTINUOUS
70
0
71
3
72
11
73
7
74
5
42
0.0000001000
43
0.0000001000
44
0.0000000001
12
-0.0393958245
22
0.0063467055
32
0.0000000000
13
-0.0252524804
23
0.0062307611
33
0.0000000000
40
0.0000000000
40
0.0000000000
40
0.0000000000
40
0.0000000000
40
0.0437461441
40
0.3811931805
40
0.8487327780
40
1.0000000000
40
1.0000000000
40
1.0000000000
40
1.0000000000
10
-290.4233849094
20
179.3599376819
30
0.0000000000
10
-290.4239593812
20
179.3600302299
30
0.0000000000
10
-290.4292351852
20
179.3608808809
30
0.0000000000
10
-290.4337377360
20
179.3620855998
30
0.0000000000
10
-290.4426347228
20
179.3640723016
30
0.0000000000
10
-290.4479221993
20
179.3653553278
30
0.0000000000
10
-290.4491954902
20
179.3656694978
30
0.0000000000
11
-290.4233849094
21
179.3599376819
31
0.0000000000
11
-290.4251274454
21
179.3602213960
31
0.0000000000
11
-290.4336132717
21
179.3619940425
31
0.0000000000
11
-290.4453090745
21
179.3647279014
31
0.0000000000
11
-290.4491954902
21
179.3656694978
31
0.0000000000
0
SPLINE
5
39B
100
AcDbEntity
8
0
100
AcDbSpline
62
7
6
CONTINUOUS
70
0
71
3
72
18
73
14
74
12
42
0.0000001000
43
0.0000001000
44
0.0000000001
12
-0.2491589938
22
0.0614771357
32
0.0000000000
13
-0.2409641088
23
0.0786527443
33
0.0000000000
40
0.0000000000
40
0.0000000000
40
0.0000000000
40
0.0000000000
40
0.0441584266
40
0.1147243445
40
0.1955767258
40
0.2863024203
40
0.3862697342
40
0.4948207329
40
0.6111644276
40
0.7344498212
40
0.8637745550
40
0.9980510664
40
1.0000000000
40
1.0000000000
40
1.0000000000
40
1.0000000000
10
-290.4491954902
20
179.3656694978
30
0.0000000000
10
-290.4528629799
20
179.3665744090
30
0.0000000000
10
-290.4619766594
20
179.3689369027
30
0.0000000000
10
-290.4781100285
20
179.3732050472
30
0.0000000000
10
-290.4977678887
20
179.3786631485
30
0.0000000000
10
-290.5198432033
20
179.3849825270
30
0.0000000000
10
-290.5440956873
20
179.3921100136
30
0.0000000000
10
-290.5703812351
20
179.4000205898
30
0.0000000000
10
-290.5985013345
20
179.4086622376
30
0.0000000000
10
-290.6282525100
20
179.4179722628
30
0.0000000000
10
-290.6594010325
20
179.4278883710
30
0.0000000000
10
-290.6807482421
20
179.4347957071
30
0.0000000000
10
-290.6916901856
20
179.4383668127
30
0.0000000000
10
-290.6918467266
20
179.4384179091
30
0.0000000000
11
-290.4491954902
21
179.3656694978
31
0.0000000000
11
-290.4599307188
21
179.3684140152
31
0.0000000000
11
-290.4772184463
21
179.3730041526
31
0.0000000000
11
-290.4969706381
21
179.3784684547
31
0.0000000000
11
-290.5190811451
21
179.3847910422
31
0.0000000000
11
-290.5433936467
21
179.3919310740
31
0.0000000000
11
-290.5697428524
21
179.3998554013
31
0.0000000000
11
-290.5979335555
21
179.4085133395
31
0.0000000000
11
-290.6277579453
21
179.4178437526
31
0.0000000000
11
-290.6589946135
21
179.4277856209
31
0.0000000000
11
-290.6913770980
21
179.4382646371
31
0.0000000000
11
-290.6918467266
21
179.4384179091
31
0.0000000000
0
SPLINE
5
39C
100
AcDbEntity
8
0
100
AcDbSpline
62
7
6
CONTINUOUS
70
0
71
3
72
8
73
4
74
2
42
0.0000001000
43
0.0000001000
44
0.0000000001
12
0.0000338947
22
0.0001160309
32
0.0000000000
13
-0.0042056179
23
0.0006729367
33
0.0000000000
40
0.0000000000
40
0.0000000000
40
0.0000000000
40
0.0000000000
40
1.0000000000
40
1.0000000000
40
1.0000000000
40
1.0000000000
10
-290.4208104115
20
179.3594957539
30
0.0000000000
10
-290.4207991132
20
179.3595344309
30
0.0000000000
10
-290.4219812074
20
179.3597250744
30
0.0000000000
10
-290.4233830801
20
179.3599493866
30
0.0000000000
11
-290.4208104115
21
179.3594957539
31
0.0000000000
11
-290.4233830801
21
179.3599493866
31
0.0000000000
0
SPLINE
5
39D
100
AcDbEntity
8
0
100
AcDbSpline
62
7
6
CONTINUOUS
70
0
71
3
72
17
73
13
74
11
42
0.0000001000
43
0.0000001000
44
0.0000000001
12
-0.2509708435
22
0.0616478837
32
0.0000000000
13
-0.2409606472
23
0.0786734263
33
0.0000000000
40
0.0000000000
40
0.0000000000
40
0.0000000000
40
0.0000000000
40
0.0479700867
40
0.1192779108
40
0.2010034140
40
0.2926090716
40
0.3934274926
40
0.5028415426
40
0.6200107320
40
0.7441297324
40
0.8743023083
40
1.0000000000
40
1.0000000000
40
1.0000000000
40
1.0000000000
10
-290.4491877053
20
179.3656709449
30
0.0000000000
10
-290.4532007363
20
179.3666566963
30
0.0000000000
10
-290.4626472658
20
179.3691098789
30
0.0000000000
10
-290.4792354099
20
179.3735088931
30
0.0000000000
10
-290.4990880576
20
179.3790391518
30
0.0000000000
10
-290.5213750404
20
179.3854242170
30
0.0000000000
10
-290.5458337987
20
179.3926270032
30
0.0000000000
10
-290.5723208472
20
179.4006141477
30
0.0000000000
10
-290.6006425192
20
179.4093264349
30
0.0000000000
10
-290.6305928969
20
179.4187104768
30
0.0000000000
10
-290.6611833815
20
179.4284596668
30
0.0000000000
10
-290.6817506556
20
179.4351215751
30
0.0000000000
10
-290.6918467213
20
179.4384179311
30
0.0000000000
11
-290.4491877053
21
179.3656709449
31
0.0000000000
11
-290.4608631963
21
179.3686553262
31
0.0000000000
11
-290.4783299572
21
179.3733048400
31
0.0000000000
11
-290.4982918310
21
179.3788421849
31
0.0000000000
11
-290.5206146514
21
179.3852346202
31
0.0000000000
11
-290.5451308935
21
179.3924476294
31
0.0000000000
11
-290.5716858557
21
179.4004485661
31
0.0000000000
11
-290.6000739682
21
179.4091776893
31
0.0000000000
11
-290.6300972268
21
179.4185814144
31
0.0000000000
11
-290.6615355528
21
179.4285996278
31
0.0000000000
11
-290.6918467213
21
179.4384179311
31
0.0000000000
0
SPLINE
5
39E
100
AcDbEntity
8
0
100
AcDbSpline
62
7
6
CONTINUOUS
70
0
71
3
72
16
73
12
74
10
42
0.0000001000
43
0.0000001000
44
0.0000000001
12
-0.2571082013
22
0.0312732353
32
0.0000000000
13
-0.0289956003
23
-0.2588563033
33
0.0000000000
40
0.0000000000
40
0.0000000000
40
0.0000000000
40
0.0000000000
40
0.0957177787
40
0.2385228785
40
0.3560819468
40
0.4550440047
40
0.5535147798
40
0.6628920152
40
0.7781856162
40
0.9049357695
40
1.0000000000
40
1.0000000000
40
1.0000000000
40
1.0000000000
10
-291.8108116518
20
179.6866216670
30
0.0000000000
10
-291.8190149271
20
179.6876194685
30
0.0000000000
10
-291.8394911075
20
179.6898327516
30
0.0000000000
10
-291.8701589333
20
179.6920901016
30
0.0000000000
10
-291.9011912631
20
179.6927035678
30
0.0000000000
10
-291.9283840200
20
179.6909352538
30
0.0000000000
10
-291.9543645948
20
179.6849610405
30
0.0000000000
10
-291.9795920724
20
179.6722865799
30
0.0000000000
10
-292.0021966550
20
179.6514074657
30
0.0000000000
10
-292.0168531574
20
179.6257117236
30
0.0000000000
10
-292.0213210441
20
179.6067612202
30
0.0000000000
10
-292.0222398589
20
179.5985585617
30
0.0000000000
11
-291.8108116518
21
179.6866216670
31
0.0000000000
11
-291.8354596145
21
179.6892829054
31
0.0000000000
11
-291.8723518143
21
179.6918873291
31
0.0000000000
11
-291.9027951706
21
179.6922680254
31
0.0000000000
11
-291.9283446462
21
179.6902450723
31
0.0000000000
11
-291.9531326590
21
179.6842520096
31
0.0000000000
11
-291.9783982291
21
179.6714435072
31
0.0000000000
11
-292.0003148947
21
179.6511649260
31
0.0000000000
11
-292.0165406818
21
179.6226294312
31
0.0000000000
11
-292.0222398589
21
179.5985585617
31
0.0000000000
0
SPLINE
5
39F
100
AcDbEntity
8
0
100
AcDbSpline
62
7
6
CONTINUOUS
70
0
71
3
72
12
73
8
74
6
42
0.0000001000
43
0.0000001000
44
0.0000000001
12
-0.1619099871
22
-0.0512868116
32
0.0000000000
13
-0.1836198709
23
0.0070518447
33
0.0000000000
40
0.0000000000
40
0.0000000000
40
0.0000000000
40
0.0000000000
40
0.0435347811
40
0.2501577898
40
0.5368832645
40
0.8832351291
40
1.0000000000
40
1.0000000000
40
1.0000000000
40
1.0000000000
10
-292.0227683018
20
179.3790797404
30
0.0000000000
10
-292.0251178737
20
179.3783354871
30
0.0000000000
10
-292.0382865325
20
179.3748757625
30
0.0000000000
10
-292.0719601088
20
179.3661947378
30
0.0000000000
10
-292.1223273306
20
179.3608583328
30
0.0000000000
10
-292.1684762719
20
179.3593597975
30
0.0000000000
10
-292.1968524750
20
179.3600546454
30
0.0000000000
10
-292.2039992585
20
179.3603291147
30
0.0000000000
11
-292.0227683018
21
179.3790797404
31
0.0000000000
11
-292.0297777006
21
179.3771135783
31
0.0000000000
11
-292.0666990953
21
179.3683392302
31
0.0000000000
11
-292.1189537038
21
179.3618030230
31
0.0000000000
11
-292.1825355570
21
179.3598072686
31
0.0000000000
11
-292.2039992585
21
179.3603291147
31
0.0000000000
0
SPLINE
5
3A0
100
AcDbEntity
8
0
100
AcDbSpline
62
7
6
CONTINUOUS
70
0
71
3
72
10
73
6
74
4
42
0.0000001000
43
0.0000001000
44
0.0000000001
12
-0.6103822664
22
0.0337146560
32
0.0000000000
13
-0.6103836007
23
-0.0337145969
33
0.0000000000
40
0.0000000000
40
0.0000000000
40
0.0000000000
40
0.0000000000
40
0.3201470795
40
0.6837622215
40
1.0000000000
40
1.0000000000
40
1.0000000000
40
1.0000000000
10
-292.2173660683
20
179.3609745769
30
0.0000000000
10
-292.2825034350
20
179.3645724598
30
0.0000000000
10
-292.4217704052
20
179.3697996033
30
0.0000000000
10
-292.6255851180
20
179.3697556737
30
0.0000000000
10
-292.7640541413
20
179.3645285059
30
0.0000000000
10
-292.8283962592
20
179.3609745628
30
0.0000000000
11
-292.2173660683
21
179.3609745769
31
0.0000000000
11
-292.4129375095
21
179.3683148015
31
0.0000000000
11
-292.6352141450
21
179.3682668629
31
0.0000000000
11
-292.8283962592
21
179.3609745628
31
0.0000000000
0
SPLINE
5
3A1
100
AcDbEntity
8
0
100
AcDbSpline
62
7
6
CONTINUOUS
70
0
71
3
72
8
73
4
74
2
42
0.0000001000
43
0.0000001000
44
0.0000000001
12
-0.0133593634
22
-0.0007433272
32
0.0000000000
13
-0.0133758724
23
-0.0005149088
33
0.0000000000
40
0.0000000000
40
0.0000000000
40
0.0000000000
40
0.0000000000
40
1.0000000000
40
1.0000000000
40
1.0000000000
40
1.0000000000
10
-292.8283953639
20
179.3609558620
30
0.0000000000
10
-292.8328484850
20
179.3607080862
30
0.0000000000
10
-292.8373043349
20
179.3604979455
30
0.0000000000
10
-292.8417629590
20
179.3603263092
30
0.0000000000
11
-292.8283953639
21
179.3609558620
31
0.0000000000
11
-292.8417629590
21
179.3603263092
31
0.0000000000
0
SPLINE
5
3A2
100
AcDbEntity
8
0
100
AcDbSpline
62
9
6
CONTINUOUS
70
0
71
3
72
10
73
6
74
4
42
0.0000001000
43
0.0000001000
44
0.0000000001
12
-0.0000000037
22
0.0084211513
32
0.0000000000
13
0.0000000024
23
0.0084211513
33
0.0000000000
40
0.0000000000
40
0.0000000000
40
0.0000000000
40
0.0000000000
40
0.5552522622
40
0.8890061159
40
1.0000000000
40
1.0000000000
40
1.0000000000
40
1.0000000000
10
-294.6588969953
20
179.3542739230
30
0.0000000000
10
-294.6588969960
20
179.3558325441
30
0.0000000000
10
-294.6588969939
20
179.3583280291
30
0.0000000000
10
-294.6588969954
20
179.3611350795
30
0.0000000000
10
-294.6588969954
20
179.3623835089
30
0.0000000000
10
-294.6588969953
20
179.3626950743
30
0.0000000000
11
-294.6588969953
21
179.3542739230
31
0.0000000000
11
-294.6588969947
21
179.3589497863
31
0.0000000000
11
-294.6588969954
21
179.3617603780
31
0.0000000000
11
-294.6588969953
21
179.3626950743
31
0.0000000000
0
SPLINE
5
3A3
100
AcDbEntity
8
0
100
AcDbSpline
62
9
6
CONTINUOUS
70
0
71
3
72
11
73
7
74
5
42
0.0000001000
43
0.0000001000
44
0.0000000001
12
-0.2347482178
22
-0.0766424207
32
0.0000000000
13
-0.2489078788
23
-0.0675589159
33
0.0000000000
40
0.0000000000
40
0.0000000000
40
0.0000000000
40
0.0000000000
40
0.3504046771
40
0.6666687971
40
0.9304468631
40
1.0000000000
40
1.0000000000
40
1.0000000000
40
1.0000000000
10
-294.3537518766
20
179.4379164174
30
0.0000000000
10
-294.3811708344
20
179.4289644632
30
0.0000000000
10
-294.4332722316
20
179.4123117136
30
0.0000000000
10
-294.5071548702
20
179.3895987317
30
0.0000000000
10
-294.5570393168
20
179.3754687293
30
0.0000000000
10
-294.5851004967
20
179.3676014190
30
0.0000000000
10
-294.5908712713
20
179.3660351075
30
0.0000000000
11
-294.3537518766
21
179.4379164174
31
0.0000000000
11
-294.4361712783
21
179.4115635655
31
0.0000000000
11
-294.5108720639
21
179.3887759935
31
0.0000000000
11
-294.5734972285
21
179.3708577665
31
0.0000000000
11
-294.5908712713
21
179.3660351075
31
0.0000000000
0
SPLINE
5
3A4
100
AcDbEntity
8
0
100
AcDbSpline
62
9
6
CONTINUOUS
70
0
71
3
72
10
73
6
74
4
42
0.0000001000
43
0.0000001000
44
0.0000000001
12
-0.0708811429
22
-0.0192386565
32
0.0000000000
13
0.0003549073
23
0.0703206776
33
0.0000000000
40
0.0000000000
40
0.0000000000
40
0.0000000000
40
0.0000000000
40
0.4410278012
40
0.8596420268
40
1.0000000000
40
1.0000000000
40
1.0000000000
40
1.0000000000
10
-294.5908712713
20
179.3660351075
30
0.0000000000
10
-294.6012914561
20
179.3632068467
30
0.0000000000
10
-294.6210652889
20
179.3581725323
30
0.0000000000
10
-294.6378605991
20
179.3560587730
30
0.0000000000
10
-294.6589136000
20
179.3509839004
30
0.0000000000
10
-294.6588969953
20
179.3542739230
30
0.0000000000
11
-294.5908712713
21
179.3660351075
31
0.0000000000
11
-294.6201764170
21
179.3588880699
31
0.0000000000
11
-294.6490762648
21
179.3532870224
31
0.0000000000
11
-294.6588969953
21
179.3542739230
31
0.0000000000
0
SPLINE
5
3A5
100
AcDbEntity
8
0
100
AcDbSpline
62
9
6
CONTINUOUS
70
0
71
3
72
12
73
8
74
6
42
0.0000001000
43
0.0000001000
44
0.0000000001
12
-1.1394044272
22
-0.1385317330
32
0.0000000000
13
-1.0911181987
23
-0.3562226359
33
0.0000000000
40
0.0000000000
40
0.0000000000
40
0.0000000000
40
0.0000000000
40
0.1736997740
40
0.3668447149
40
0.5660151312
40
0.7736035241
40
1.0000000000
40
1.0000000000
40
1.0000000000
40
1.0000000000
10
-293.2348864412
20
179.6860933365
30
0.0000000000
10
-293.3008578717
20
179.6780723596
30
0.0000000000
10
-293.4399105554
20
179.6587764700
30
0.0000000000
10
-293.6532615275
20
179.6213672381
30
0.0000000000
10
-293.8777150471
20
179.5731171232
30
0.0000000000
10
-294.1124087355
20
179.5128608609
30
0.0000000000
10
-294.2714101049
20
179.4647989339
30
0.0000000000
10
-294.3537518766
20
179.4379164174
30
0.0000000000
11
-293.2348864412
21
179.6860933365
31
0.0000000000
11
-293.4323658686
21
179.6586895564
31
0.0000000000
11
-293.6507254066
21
179.6204021357
31
0.0000000000
11
-293.8742264704
21
179.5723568214
31
0.0000000000
11
-294.1050103279
21
179.5131040192
31
0.0000000000
11
-294.3537518766
21
179.4379164174
31
0.0000000000
0
SPLINE
5
3A6
100
AcDbEntity
8
0
100
AcDbSpline
62
9
6
CONTINUOUS
70
0
71
3
72
14
73
10
74
8
42
0.0000001000
43
0.0000001000
44
0.0000000001
12
-0.0001275271
22
0.1030417226
32
0.0000000000
13
-0.1022885817
23
-0.0124361939
33
0.0000000000
40
0.0000000000
40
0.0000000000
40
0.0000000000
40
0.0000000000
40
0.0475695937
40
0.1569696759
40
0.3115077117
40
0.4870765621
40
0.6663493256
40
0.8385288923
40
1.0000000000
40
1.0000000000
40
1.0000000000
40
1.0000000000
10
-293.1331714016
20
179.6860933365
30
0.0000000000
10
-293.1331734238
20
179.6877272208
30
0.0000000000
10
-293.1399719622
20
179.6901761642
30
0.0000000000
10
-293.1493505130
20
179.6908909770
30
0.0000000000
10
-293.1650381794
20
179.6914100084
30
0.0000000000
10
-293.1823340298
20
179.6907864053
30
0.0000000000
10
-293.2004553635
20
179.6896303562
30
0.0000000000
10
-293.2179879632
20
179.6880345266
30
0.0000000000
10
-293.2293808910
20
179.6867626985
30
0.0000000000
10
-293.2348864412
20
179.6860933365
30
0.0000000000
11
-293.1331714016
21
179.6860933365
31
0.0000000000
11
-293.1371036612
21
179.6890196948
31
0.0000000000
11
-293.1482448830
21
179.6907368962
31
0.0000000000
11
-293.1641616963
21
179.6912111664
31
0.0000000000
11
-293.1822455931
21
179.6907067374
31
0.0000000000
11
-293.2006807194
21
179.6895308783
31
0.0000000000
11
-293.2183508482
21
179.6879389587
31
0.0000000000
11
-293.2348864412
21
179.6860933365
31
0.0000000000
0
SPLINE
5
3A7
100
AcDbEntity
8
0
100
AcDbSpline
62
9
6
CONTINUOUS
70
0
71
3
72
12
73
8
74
6
42
0.0000001000
43
0.0000001000
44
0.0000000001
12
-0.0000000955
22
0.2481769191
32
0.0000000000
13
0.0000000361
23
0.2481769191
33
0.0000000000
40
0.0000000000
40
0.0000000000
40
0.0000000000
40
0.0000000000
40
0.3245288541
40
0.5733868835
40
0.7612770168
40
0.8998605882
40
1.0000000000
40
1.0000000000
40
1.0000000000
40
1.0000000000
10
-293.1331714016
20
179.4379164174
30
0.0000000000
10
-293.1331714120
20
179.4647632745
30
0.0000000000
10
-293.1331713926
20
179.5121970712
30
0.0000000000
10
-293.1331714033
20
179.5751741994
30
0.0000000000
10
-293.1331714026
20
179.6227688852
30
0.0000000000
10
-293.1331714004
20
179.6580607281
30
0.0000000000
10
-293.1331714028
20
179.6778092396
30
0.0000000000
10
-293.1331714016
20
179.6860933365
30
0.0000000000
11
-293.1331714016
21
179.4379164174
31
0.0000000000
11
-293.1331713988
21
179.5184569886
31
0.0000000000
11
-293.1331714020
21
179.5802178076
31
0.0000000000
11
-293.1331714021
21
179.6268478021
31
0.0000000000
11
-293.1331714014
21
179.6612410458
31
0.0000000000
11
-293.1331714016
21
179.6860933365
31
0.0000000000
0
SPLINE
5
3A8
100
AcDbEntity
8
0
100
AcDbSpline
62
9
6
CONTINUOUS
70
0
71
3
72
8
73
4
74
2
42
0.0000001000
43
0.0000001000
44
0.0000000001
12
-0.0259648526
22
-0.0014341561
32
0.0000000000
13
-0.0260031346
23
-0.0007031723
33
0.0000000000
40
0.0000000000
40
0.0000000000
40
0.0000000000
40
0.0000000000
40
1.0000000000
40
1.0000000000
40
1.0000000000
40
1.0000000000
10
-292.8280262829
20
179.3542739230
30
0.0000000000
10
-292.8366812338
20
179.3537958709
30
0.0000000000
10
-292.8453447898
20
179.3534372406
30
0.0000000000
10
-292.8540125013
20
179.3532028498
30
0.0000000000
11
-292.8280262829
21
179.3542739230
31
0.0000000000
11
-292.8540125013
21
179.3532028498
31
0.0000000000
0
SPLINE
5
3A9
100
AcDbEntity
8
0
100
AcDbSpline
62
9
6
CONTINUOUS
70
0
71
3
72
10
73
6
74
4
42
0.0000001000
43
0.0000001000
44
0.0000000001
12
-0.1456857917
22
-0.0039396099
32
0.0000000000
13
-0.1438195669
23
0.0241745223
33
0.0000000000
40
0.0000000000
40
0.0000000000
40
0.0000000000
40
0.0000000000
40
0.3486430920
40
0.8460685313
40
1.0000000000
40
1.0000000000
40
1.0000000000
40
1.0000000000
10
-292.8540125013
20
179.3532028498
30
0.0000000000
10
-292.8709432829
20
179.3527450105
30
0.0000000000
10
-292.9120684809
20
179.3527842998
30
0.0000000000
10
-292.9605554264
20
179.3563801748
30
0.0000000000
10
-292.9918987364
20
179.3609690662
30
0.0000000000
10
-292.9992781888
20
179.3622094728
30
0.0000000000
11
-292.8540125013
21
179.3532028498
31
0.0000000000
11
-292.9048192503
21
179.3532873273
31
0.0000000000
11
-292.9770710167
21
179.3589256091
31
0.0000000000
11
-292.9992781888
21
179.3622094728
31
0.0000000000
0
SPLINE
5
3AA
100
AcDbEntity
8
0
100
AcDbSpline
62
9
6
CONTINUOUS
70
0
71
3
72
8
73
4
74
2
42
0.0000001000
43
0.0000001000
44
0.0000000001
12
-0.0237336029
22
0.0039893634
32
0.0000000000
13
-0.0234891810
23
0.0051773087
33
0.0000000000
40
0.0000000000
40
0.0000000000
40
0.0000000000
40
0.0000000000
40
1.0000000000
40
1.0000000000
40
1.0000000000
40
1.0000000000
10
-292.9992781888
20
179.3622094728
30
0.0000000000
10
-293.0071893897
20
179.3635392606
30
0.0000000000
10
-293.0150687163
20
179.3650482716
30
0.0000000000
10
-293.0228984433
20
179.3667740411
30
0.0000000000
11
-292.9992781888
21
179.3622094728
31
0.0000000000
11
-293.0228984433
21
179.3667740411
31
0.0000000000
0
SPLINE
5
3AB
100
AcDbEntity
8
0
100
AcDbSpline
62
9
6
CONTINUOUS
70
0
71
3
72
8
73
4
74
2
42
0.0000001000
43
0.0000001000
44
0.0000000001
12
-0.0172327122
22
0.0037983049
32
0.0000000000
13
-0.0170515376
23
0.0045427719
33
0.0000000000
40
0.0000000000
40
0.0000000000
40
0.0000000000
40
0.0000000000
40
1.0000000000
40
1.0000000000
40
1.0000000000
40
1.0000000000
10
-293.0228984433
20
179.3667740411
30
0.0000000000
10
-293.0286426807
20
179.3680401428
30
0.0000000000
10
-293.0343602219
20
179.3694229113
30
0.0000000000
10
-293.0400440677
20
179.3709371687
30
0.0000000000
11
-293.0228984433
21
179.3667740411
31
0.0000000000
11
-293.0400440677
21
179.3709371687
31
0.0000000000
0
SPLINE
5
3AC
100
AcDbEntity
8
0
100
AcDbSpline
62
9
6
CONTINUOUS
70
0
71
3
72
10
73
6
74
4
42
0.0000001000
43
0.0000001000
44
0.0000000001
12
-0.1168063314
22
0.0311188667
32
0.0000000000
13
0.0000729979
23
0.1208295183
33
0.0000000000
40
0.0000000000
40
0.0000000000
40
0.0000000000
40
0.0000000000
40
0.4363905819
40
0.7617294484
40
1.0000000000
40
1.0000000000
40
1.0000000000
40
1.0000000000
10
-293.0400440677
20
179.3709371687
30
0.0000000000
10
-293.0570351287
20
179.3754638288
30
0.0000000000
10
-293.0861678072
20
179.3854162363
30
0.0000000000
10
-293.1213734796
20
179.4062130594
30
0.0000000000
10
-293.1331771994
20
179.4283197121
30
0.0000000000
10
-293.1331714016
20
179.4379164174
30
0.0000000000
11
-293.0400440677
21
179.3709371687
31
0.0000000000
11
-293.0896550695
21
179.3888000520
31
0.0000000000
11
-293.1217602761
21
179.4114842912
31
0.0000000000
11
-293.1331714016
21
179.4379164174
31
0.0000000000
0
SPLINE
5
3AD
100
AcDbEntity
8
0
100
AcDbSpline
62
9
6
CONTINUOUS
70
0
71
3
72
10
73
6
74
4
42
0.0000001000
43
0.0000001000
44
0.0000000001
12
-0.6096363370
22
0.0336737673
32
0.0000000000
13
-0.6096363343
23
-0.0336738160
33
0.0000000000
40
0.0000000000
40
0.0000000000
40
0.0000000000
40
0.0000000000
40
0.3328661760
40
0.6669943864
40
1.0000000000
40
1.0000000000
40
1.0000000000
40
1.0000000000
10
-292.2177360454
20
179.3542739230
30
0.0000000000
10
-292.2853784842
20
179.3580102090
30
0.0000000000
10
-292.4210710319
20
179.3630077973
30
0.0000000000
10
-292.6246345228
20
179.3630093584
30
0.0000000000
10
-292.7603555090
20
179.3580117796
30
0.0000000000
10
-292.8280262829
20
179.3542739230
30
0.0000000000
11
-292.2177360454
21
179.3542739230
31
0.0000000000
11
-292.4208349960
21
179.3617539271
31
0.0000000000
11
-292.6248421966
21
179.3617554959
31
0.0000000000
11
-292.8280262829
21
179.3542739230
31
0.0000000000
0
SPLINE
5
3AE
100
AcDbEntity
8
0
100
AcDbSpline
62
9
6
CONTINUOUS
70
0
71
3
72
11
73
7
74
5
42
0.0000001000
43
0.0000001000
44
0.0000000001
12
-0.0000256699
22
-0.1384612527
32
0.0000000000
13
-0.1352723955
23
-0.0298191917
33
0.0000000000
40
0.0000000000
40
0.0000000000
40
0.0000000000
40
0.0000000000
40
0.2091032557
40
0.4931166190
40
0.8736295673
40
1.0000000000
40
1.0000000000
40
1.0000000000
40
1.0000000000
10
-291.9125909267
20
179.4379164174
30
0.0000000000
10
-291.9125927159
20
179.4282655178
30
0.0000000000
10
-291.9244818808
20
179.4061166963
30
0.0000000000
10
-291.9597467894
20
179.3853565086
30
0.0000000000
10
-291.9944146663
20
179.3735289505
30
0.0000000000
10
-292.0171651575
20
179.3680299172
30
0.0000000000
10
-292.0228633012
20
179.3667738292
30
0.0000000000
11
-291.9125909267
21
179.4379164174
31
0.0000000000
11
-291.9241171587
21
179.4113569602
31
0.0000000000
11
-291.9562724116
21
179.3887188666
31
0.0000000000
11
-292.0058544304
21
179.3709011883
31
0.0000000000
11
-292.0228633012
21
179.3667738292
31
0.0000000000
0
SPLINE
5
3AF
100
AcDbEntity
8
0
100
AcDbSpline
62
9
6
CONTINUOUS
70
0
71
3
72
8
73
4
74
2
42
0.0000001000
43
0.0000001000
44
0.0000000001
12
-0.0042859530
22
-0.0009447874
32
0.0000000000
13
-0.0042955310
23
-0.0009021475
33
0.0000000000
40
0.0000000000
40
0.0000000000
40
0.0000000000
40
0.0000000000
40
1.0000000000
40
1.0000000000
40
1.0000000000
40
1.0000000000
10
-292.0228633012
20
179.3667738292
30
0.0000000000
10
-292.0242919522
20
179.3664589001
30
0.0000000000
10
-292.0257222532
20
179.3661511918
30
0.0000000000
10
-292.0271540969
20
179.3658504759
30
0.0000000000
11
-292.0228633012
21
179.3667738292
31
0.0000000000
11
-292.0271540969
21
179.3658504759
31
0.0000000000
0
SPLINE
5
3B0
100
AcDbEntity
8
0
100
AcDbSpline
62
9
6
CONTINUOUS
70
0
71
3
72
8
73
4
74
2
42
0.0000001000
43
0.0000001000
44
0.0000000001
12
-0.0193422573
22
-0.0040622611
32
0.0000000000
13
-0.0195005064
23
-0.0032741333
33
0.0000000000
40
0.0000000000
40
0.0000000000
40
0.0000000000
40
0.0000000000
40
1.0000000000
40
1.0000000000
40
1.0000000000
40
1.0000000000
10
-292.0271540969
20
179.3658504759
30
0.0000000000
10
-292.0336015160
20
179.3644963889
30
0.0000000000
10
-292.0400802131
20
179.3632840809
30
0.0000000000
10
-292.0465803819
20
179.3621927031
30
0.0000000000
11
-292.0271540969
21
179.3658504759
31
0.0000000000
11
-292.0465803819
21
179.3621927031
31
0.0000000000
0
SPLINE
5
3B1
100
AcDbEntity
8
0
100
AcDbSpline
62
9
6
CONTINUOUS
70
0
71
3
72
10
73
6
74
4
42
0.0000001000
43
0.0000001000
44
0.0000000001
12
-0.1436554342
22
-0.0241197344
32
0.0000000000
13
-0.1455167566
23
0.0039235326
33
0.0000000000
40
0.0000000000
40
0.0000000000
40
0.0000000000
40
0.0000000000
40
0.1538736103
40
0.6506453984
40
1.0000000000
40
1.0000000000
40
1.0000000000
40
1.0000000000
10
-292.0465803819
20
179.3621927031
30
0.0000000000
10
-292.0539486420
20
179.3609555729
30
0.0000000000
10
-292.0852215526
20
179.3563814877
30
0.0000000000
10
-292.1336516619
20
179.3527869716
30
0.0000000000
10
-292.1747318394
20
179.3527444311
30
0.0000000000
10
-292.1916774889
20
179.3532013325
30
0.0000000000
11
-292.0465803819
21
179.3621927031
31
0.0000000000
11
-292.0687536482
21
179.3589171077
31
0.0000000000
11
-292.1408263154
21
179.3532907951
31
0.0000000000
11
-292.1916774889
21
179.3532013325
31
0.0000000000
0
SPLINE
5
3B2
100
AcDbEntity
8
0
100
AcDbSpline
62
9
6
CONTINUOUS
70
0
71
3
72
8
73
4
74
2
42
0.0000001000
43
0.0000001000
44
0.0000000001
12
-0.0260755307
22
0.0007030681
32
0.0000000000
13
-0.0260370964
23
0.0014371509
33
0.0000000000
40
0.0000000000
40
0.0000000000
40
0.0000000000
40
0.0000000000
40
1.0000000000
40
1.0000000000
40
1.0000000000
40
1.0000000000
10
-292.1916774889
20
179.3532013325
30
0.0000000000
10
-292.2003693325
20
179.3534356886
30
0.0000000000
10
-292.2090570133
20
179.3537948727
30
0.0000000000
10
-292.2177360454
20
179.3542739230
30
0.0000000000
11
-292.1916774889
21
179.3532013325
31
0.0000000000
11
-292.2177360454
21
179.3542739230
31
0.0000000000
0
SPLINE
5
3B3
100
AcDbEntity
8
0
100
AcDbSpline
62
9
6
CONTINUOUS
70
0
71
3
72
12
73
8
74
6
42
0.0000001000
43
0.0000001000
44
0.0000000001
12
0.0000000402
22
-0.2481769191
32
0.0000000000
13
-0.0000000830
23
-0.2481769191
33
0.0000000000
40
0.0000000000
40
0.0000000000
40
0.0000000000
40
0.0000000000
40
0.1005484461
40
0.2392339420
40
0.4272491127
40
0.6764381929
40
1.0000000000
40
1.0000000000
40
1.0000000000
40
1.0000000000
10
-291.9125909267
20
179.6860933365
30
0.0000000000
10
-291.9125909254
20
179.6777754020
30
0.0000000000
10
-291.9125909284
20
179.6579846211
30
0.0000000000
10
-291.9125909236
20
179.6226401650
30
0.0000000000
10
-291.9125909276
20
179.5749993172
30
0.0000000000
10
-291.9125909319
20
179.5120644584
30
0.0000000000
10
-291.9125909178
20
179.4646832749
30
0.0000000000
10
-291.9125909267
20
179.4379164174
30
0.0000000000
11
-291.9125909267
21
179.6860933365
31
0.0000000000
11
-291.9125909269
21
179.6611395330
31
0.0000000000
11
-291.9125909252
21
179.6267209939
31
0.0000000000
11
-291.9125909271
21
179.5800599680
31
0.0000000000
11
-291.9125909282
21
179.5182169898
31
0.0000000000
11
-291.9125909267
21
179.4379164174
31
0.0000000000
0
SPLINE
5
3B4
100
AcDbEntity
8
0
100
AcDbSpline
62
9
6
CONTINUOUS
70
0
71
3
72
14
73
10
74
8
42
0.0000001000
43
0.0000001000
44
0.0000000001
12
-0.1022860762
22
0.0124369244
32
0.0000000000
13
0.0002474778
23
-0.1030391053
33
0.0000000000
40
0.0000000000
40
0.0000000000
40
0.0000000000
40
0.0000000000
40
0.1614060718
40
0.3347621391
40
0.5142394507
40
0.6893348921
40
0.8429827303
40
0.9520038950
40
1.0000000000
40
1.0000000000
40
1.0000000000
40
1.0000000000
10
-291.8108758871
20
179.6860933365
30
0.0000000000
10
-291.8163790850
20
179.6867624682
30
0.0000000000
10
-291.8278097482
20
179.6880385193
30
0.0000000000
10
-291.8453867383
20
179.6896371482
30
0.0000000000
10
-291.8635400369
20
179.6907922372
30
0.0000000000
10
-291.8807933318
20
179.6914078334
30
0.0000000000
10
-291.8964263293
20
179.6908939313
30
0.0000000000
10
-291.9057593732
20
179.6901686820
30
0.0000000000
10
-291.9125948860
20
179.6877418284
30
0.0000000000
10
-291.9125909267
20
179.6860933365
30
0.0000000000
11
-291.8108758871
21
179.6860933365
31
0.0000000000
11
-291.8274044263
21
179.6879382522
31
0.0000000000
11
-291.8451949994
21
179.6895396938
31
0.0000000000
11
-291.8636509705
21
179.6907130949
31
0.0000000000
11
-291.8816858182
21
179.6912113699
31
0.0000000000
11
-291.8975104982
21
179.6907372345
31
0.0000000000
11
-291.9086139423
21
179.6890329737
31
0.0000000000
11
-291.9125909267
21
179.6860933365
31
0.0000000000
0
SPLINE
5
3B5
100
AcDbEntity
8
0
100
AcDbSpline
62
9
6
CONTINUOUS
70
0
71
3
72
10
73
6
74
4
42
0.0000001000
43
0.0000001000
44
0.0000000001
12
-0.0000000011
22
-0.0084211513
32
0.0000000000
13
-0.0000000040
23
-0.0084211513
33
0.0000000000
40
0.0000000000
40
0.0000000000
40
0.0000000000
40
0.0000000000
40
0.1109954972
40
0.4447521893
40
1.0000000000
40
1.0000000000
40
1.0000000000
40
1.0000000000
10
-290.3868653330
20
179.3626950743
30
0.0000000000
10
-290.3868653331
20
179.3623835043
30
0.0000000000
10
-290.3868653333
20
179.3611350625
30
0.0000000000
10
-290.3868653338
20
179.3583280121
30
0.0000000000
10
-290.3868653323
20
179.3558325316
30
0.0000000000
10
-290.3868653330
20
179.3542739230
30
0.0000000000
11
-290.3868653330
21
179.3626950743
31
0.0000000000
11
-290.3868653332
21
179.3617603644
31
0.0000000000
11
-290.3868653334
21
179.3589497488
31
0.0000000000
11
-290.3868653330
21
179.3542739230
31
0.0000000000
0
SPLINE
5
3B6
100
AcDbEntity
8
0
100
AcDbSpline
62
9
6
CONTINUOUS
70
0
71
3
72
12
73
8
74
6
42
0.0000001000
43
0.0000001000
44
0.0000000001
12
-1.0911187217
22
0.3562227291
32
0.0000000000
13
-1.1394049461
23
0.1385318241
33
0.0000000000
40
0.0000000000
40
0.0000000000
40
0.0000000000
40
0.0000000000
40
0.2220767843
40
0.4263822369
40
0.6251590283
40
0.8222368415
40
1.0000000000
40
1.0000000000
40
1.0000000000
40
1.0000000000
10
-290.6920104518
20
179.4379164174
30
0.0000000000
10
-290.7727811641
20
179.4642860168
30
0.0000000000
10
-290.9289750097
20
179.5115709618
30
0.0000000000
10
-291.1606337581
20
179.5713345835
30
0.0000000000
10
-291.3851094293
20
179.6199460444
30
0.0000000000
10
-291.6012837517
20
179.6581118563
30
0.0000000000
10
-291.7433611464
20
179.6778847183
30
0.0000000000
10
-291.8108758871
20
179.6860933365
30
0.0000000000
11
-290.6920104518
21
179.4379164174
31
0.0000000000
11
-290.9359750505
21
179.5117720080
31
0.0000000000
11
-291.1630414403
21
179.5703512258
31
0.0000000000
11
-291.3860278607
21
179.6186401109
31
0.0000000000
11
-291.6087878053
21
179.6579685827
31
0.0000000000
11
-291.8108758871
21
179.6860933365
31
0.0000000000
0
SPLINE
5
3B7
100
AcDbEntity
8
0
100
AcDbSpline
62
9
6
CONTINUOUS
70
0
71
3
72
10
73
6
74
4
42
0.0000001000
43
0.0000001000
44
0.0000000001
12
0.0000305523
22
-0.0705416368
32
0.0000000000
13
-0.0710873922
23
0.0193144344
33
0.0000000000
40
0.0000000000
40
0.0000000000
40
0.0000000000
40
0.0000000000
40
0.1406318942
40
0.5591741542
40
1.0000000000
40
1.0000000000
40
1.0000000000
40
1.0000000000
10
-290.3868653330
20
179.3542739230
30
0.0000000000
10
-290.3868639008
20
179.3509671216
30
0.0000000000
10
-290.4079587957
20
179.3560867547
30
0.0000000000
10
-290.4248332016
20
179.3581987071
30
0.0000000000
10
-290.4446614455
20
179.3632509995
30
0.0000000000
10
-290.4551071655
20
179.3660891001
30
0.0000000000
11
-290.3868653330
21
179.3542739230
31
0.0000000000
11
-290.3967371383
21
179.3532931605
31
0.0000000000
11
-290.4257207402
21
179.3589195538
31
0.0000000000
11
-290.4551071655
21
179.3660891001
31
0.0000000000
0
SPLINE
5
3B8
100
AcDbEntity
8
0
100
AcDbSpline
62
9
6
CONTINUOUS
70
0
71
3
72
11
73
7
74
5
42
0.0000001000
43
0.0000001000
44
0.0000000001
12
-0.2486304027
22
0.0675528451
32
0.0000000000
13
-0.2345404016
23
0.0765660645
33
0.0000000000
40
0.0000000000
40
0.0000000000
40
0.0000000000
40
0.0000000000
40
0.0697732047
40
0.3340318270
40
0.6507837916
40
1.0000000000
40
1.0000000000
40
1.0000000000
40
1.0000000000
10
-290.4551071655
20
179.3660891001
30
0.0000000000
10
-290.4608897455
20
179.3676602263
30
0.0000000000
10
-290.4889759927
20
179.3755433995
30
0.0000000000
10
-290.5389135623
20
179.3896883027
30
0.0000000000
10
-290.6127081967
20
179.4123809185
30
0.0000000000
10
-290.6647086818
20
179.4290037138
30
0.0000000000
10
-290.6920104518
20
179.4379164174
30
0.0000000000
11
-290.4551071655
21
179.3660891001
31
0.0000000000
11
-290.4725160701
21
179.3709263513
31
0.0000000000
11
-290.5351974359
21
179.3888670041
31
0.0000000000
11
-290.6099449218
21
179.4116741782
31
0.0000000000
11
-290.6920104518
21
179.4379164174
31
0.0000000000
0
SPLINE
5
3B9
100
AcDbEntity
8
0
100
AcDbSpline
62
9
6
CONTINUOUS
70
0
71
3
72
9
73
5
74
3
42
0.0000001000
43
0.0000001000
44
0.0000000001
12
-0.0385583277
22
0.0148674323
32
0.0000000000
13
-0.0415816152
23
-0.0019562143
33
0.0000000000
40
0.0000000000
40
0.0000000000
40
0.0000000000
40
0.0000000000
40
0.9326375344
40
1.0000000000
40
1.0000000000
40
1.0000000000
40
1.0000000000
10
-290.3868684042
20
179.3542659823
30
0.0000000000
10
-290.3988553854
20
179.3588879575
30
0.0000000000
10
-290.4128230354
20
179.3613591725
30
0.0000000000
10
-290.4266951051
20
179.3609030753
30
0.0000000000
10
-290.4276287852
20
179.3608591502
30
0.0000000000
11
-290.3868684042
21
179.3542659823
31
0.0000000000
11
-290.4248257578
21
179.3609512397
31
0.0000000000
11
-290.4276287852
21
179.3608591502
31
0.0000000000
0
SPLINE
5
3BA
100
AcDbEntity
8
0
100
AcDbSpline
62
9
6
CONTINUOUS
70
0
71
3
72
11
73
7
74
5
42
0.0000001000
43
0.0000001000
44
0.0000000001
12
-0.1364282044
22
0.0140105337
32
0.0000000000
13
-0.0395342535
23
-0.1327328489
33
0.0000000000
40
0.0000000000
40
0.0000000000
40
0.0000000000
40
0.0000000000
40
0.3028818956
40
0.6052345461
40
0.9066924769
40
1.0000000000
40
1.0000000000
40
1.0000000000
40
1.0000000000
10
-291.9125909281
20
179.6860933228
30
0.0000000000
10
-291.9263648059
20
179.6875078351
30
0.0000000000
10
-291.9548247254
20
179.6845352359
30
0.0000000000
10
-291.9917763688
20
179.6632813787
30
0.0000000000
10
-292.0111719238
20
179.6368463483
30
0.0000000000
10
-292.0175065702
20
179.6197114931
30
0.0000000000
10
-292.0187361847
20
179.6155831686
30
0.0000000000
11
-291.9125909281
21
179.6860933228
31
0.0000000000
11
-291.9538994546
21
179.6817240419
31
0.0000000000
11
-291.9898549463
21
179.6610682254
31
0.0000000000
11
-292.0142523226
21
179.6276905862
31
0.0000000000
11
-292.0187361847
21
179.6155831686
31
0.0000000000
0
SPLINE
5
3BB
100
AcDbEntity
8
0
100
AcDbSpline
62
9
6
CONTINUOUS
70
0
71
3
72
8
73
4
74
2
42
0.0000001000
43
0.0000001000
44
0.0000000001
12
-0.0033860998
22
-0.0113685382
32
0.0000000000
13
-0.0020145149
23
-0.0116653788
33
0.0000000000
40
0.0000000000
40
0.0000000000
40
0.0000000000
40
0.0000000000
40
1.0000000000
40
1.0000000000
40
1.0000000000
40
1.0000000000
10
-292.0187361847
20
179.6155831686
30
0.0000000000
10
-292.0198648846
20
179.6117936559
30
0.0000000000
10
-292.0207680598
20
179.6079381704
30
0.0000000000
10
-292.0214395648
20
179.6040497108
30
0.0000000000
11
-292.0187361847
21
179.6155831686
31
0.0000000000
11
-292.0214395648
21
179.6040497108
31
0.0000000000
0
SPLINE
5
3BC
100
AcDbEntity
8
0
100
AcDbSpline
62
9
6
CONTINUOUS
70
0
71
3
72
8
73
4
74
2
42
0.0000001000
43
0.0000001000
44
0.0000000001
12
-0.0006855855
22
-0.0039699952
32
0.0000000000
13
-0.0005238670
23
-0.0039890075
33
0.0000000000
40
0.0000000000
40
0.0000000000
40
0.0000000000
40
0.0000000000
40
1.0000000000
40
1.0000000000
40
1.0000000000
40
1.0000000000
10
-292.0214395648
20
179.6040497108
30
0.0000000000
10
-292.0216680932
20
179.6027263791
30
0.0000000000
10
-292.0218697898
20
179.6013992283
30
0.0000000000
10
-292.0220444121
20
179.6000695592
30
0.0000000000
11
-292.0214395648
21
179.6040497108
31
0.0000000000
11
-292.0220444121
21
179.6000695592
31
0.0000000000
0
SPLINE
5
3BD
100
AcDbEntity
8
0
100
AcDbSpline
62
9
6
CONTINUOUS
70
0
71
3
72
8
73
4
74
2
42
0.0000001000
43
0.0000001000
44
0.0000000001
12
-0.0016657154
22
-0.0126836605
32
0.0000000000
13
-0.0000000018
23
-0.0127109900
33
0.0000000000
40
0.0000000000
40
0.0000000000
40
0.0000000000
40
0.0000000000
40
1.0000000000
40
1.0000000000
40
1.0000000000
40
1.0000000000
10
-292.0220444121
20
179.6000695592
30
0.0000000000
10
-292.0225996506
20
179.5958416723
30
0.0000000000
10
-292.0228811636
20
179.5915883242
30
0.0000000000
10
-292.0228811642
20
179.5873513276
30
0.0000000000
11
-292.0220444121
21
179.6000695592
31
0.0000000000
11
-292.0228811642
21
179.5873513276
31
0.0000000000
0
SPLINE
5
3BE
100
AcDbEntity
8
0
100
AcDbSpline
62
9
6
CONTINUOUS
70
0
71
3
72
10
73
6
74
4
42
0.0000001000
43
0.0000001000
44
0.0000000001
12
-0.1210365973
22
0.0119148569
32
0.0000000000
13
-0.0533106822
23
-0.1105467502
33
0.0000000000
40
0.0000000000
40
0.0000000000
40
0.0000000000
40
0.0000000000
40
0.3413955304
40
0.6788235121
40
1.0000000000
40
1.0000000000
40
1.0000000000
40
1.0000000000
10
-291.9125914053
20
179.4379120240
30
0.0000000000
10
-291.9263651897
20
179.4392679170
30
0.0000000000
10
-291.9546063143
20
179.4364666650
30
0.0000000000
10
-291.9911428066
20
179.4165037998
30
0.0000000000
10
-292.0080539257
20
179.3948725656
30
0.0000000000
10
-292.0137613049
20
179.3830375600
30
0.0000000000
11
-291.9125914053
21
179.4379120240
31
0.0000000000
11
-291.9539014725
21
179.4337312825
31
0.0000000000
11
-291.9898592562
21
179.4139525124
31
0.0000000000
11
-292.0137613049
21
179.3830375600
31
0.0000000000
0
SPLINE
5
3BF
100
AcDbEntity
8
0
100
AcDbSpline
62
9
6
CONTINUOUS
70
0
71
3
72
10
73
6
74
4
42
0.0000001000
43
0.0000001000
44
0.0000000001
12
0.1210105791
22
0.0119005592
32
0.0000000000
13
0.0533247757
23
-0.1105085263
33
0.0000000000
40
0.0000000000
40
0.0000000000
40
0.0000000000
40
0.0000000000
40
0.3414622253
40
0.6789559621
40
1.0000000000
40
1.0000000000
40
1.0000000000
40
1.0000000000
10
-293.1331713944
20
179.4379163509
30
0.0000000000
10
-293.1193978805
20
179.4392708814
30
0.0000000000
10
-293.0911579165
20
179.4364673411
30
0.0000000000
10
-293.0546309845
20
179.4165067111
30
0.0000000000
10
-293.0377241738
20
179.3948844391
30
0.0000000000
10
-293.0320176401
20
179.3830584046
30
0.0000000000
11
-293.1331713944
21
179.4379163509
31
0.0000000000
11
-293.0918628829
21
179.4337322371
31
0.0000000000
11
-293.0559074007
21
179.4139518020
31
0.0000000000
11
-293.0320176401
21
179.3830584046
31
0.0000000000
0
SPLINE
5
3C0
100
AcDbEntity
8
0
100
AcDbSpline
62
9
6
CONTINUOUS
70
0
71
3
72
11
73
7
74
5
42
0.0000001000
43
0.0000001000
44
0.0000000001
12
0.1647257712
22
0.0169074676
32
0.0000000000
13
0.0000024998
23
-0.1655911898
33
0.0000000000
40
0.0000000000
40
0.0000000000
40
0.0000000000
40
0.0000000000
40
0.2508328946
40
0.5012304873
40
0.7508912799
40
1.0000000000
40
1.0000000000
40
1.0000000000
40
1.0000000000
10
-293.1331713915
20
179.6860932391
30
0.0000000000
10
-293.1193985108
20
179.6875068887
30
0.0000000000
10
-293.0909408066
20
179.6845329054
30
0.0000000000
10
-293.0539927278
20
179.6632784786
30
0.0000000000
10
-293.0288271502
20
179.6289766771
30
0.0000000000
10
-293.0228909116
20
179.6011013970
30
0.0000000000
10
-293.0228907041
20
179.5873513272
30
0.0000000000
11
-293.1331713915
21
179.6860932391
31
0.0000000000
11
-293.0918663259
21
179.6817220398
31
0.0000000000
11
-293.0559142354
21
179.6610658001
31
0.0000000000
11
-293.0315191286
21
179.6276890275
31
0.0000000000
11
-293.0228907041
21
179.5873513272
31
0.0000000000
0
SPLINE
5
3C1
100
AcDbEntity
8
0
100
AcDbSpline
62
9
6
CONTINUOUS
70
0
71
3
72
9
73
5
74
3
42
0.0000001000
43
0.0000001000
44
0.0000000001
12
0.0385822683
22
0.0148726601
32
0.0000000000
13
0.0416051680
23
-0.0019714101
33
0.0000000000
40
0.0000000000
40
0.0000000000
40
0.0000000000
40
0.0000000000
40
0.9320597385
40
1.0000000000
40
1.0000000000
40
1.0000000000
40
1.0000000000
10
-294.6588969934
20
179.3542739180
30
0.0000000000
10
-294.6469100004
20
179.3588946539
30
0.0000000000
10
-294.6329339842
20
179.3613661601
30
0.0000000000
10
-294.6190538884
20
179.3609068999
30
0.0000000000
10
-294.6181116665
20
179.3608622539
30
0.0000000000
11
-294.6588969934
21
179.3542739180
31
0.0000000000
11
-294.6209403659
21
179.3609557764
31
0.0000000000
11
-294.6181116665
21
179.3608622539
31
0.0000000000
0
SPLINE
5
3C2
100
AcDbEntity
8
0
100
AcDbSpline
62
7
6
CONTINUOUS
70
0
71
3
72
16
73
12
74
10
42
0.0000001000
43
0.0000001000
44
0.0000000001
12
0.0289744044
22
-0.2588793067
32
0.0000000000
13
0.2571086795
23
0.0312684163
33
0.0000000000
40
0.0000000000
40
0.0000000000
40
0.0000000000
40
0.0000000000
40
0.0950980898
40
0.2223386279
40
0.3380988178
40
0.4476222810
40
0.5468622451
40
0.6466093114
40
0.7654231273
40
0.9093720201
40
1.0000000000
40
1.0000000000
40
1.0000000000
40
1.0000000000
10
-77.0222425953
20
-321.0771546580
30
0.0000000000
10
-77.0213241252
20
-321.0853609672
30
0.0000000000
10
-77.0168463615
20
-321.1043579038
30
0.0000000000
10
-77.0021265536
20
-321.1301222753
30
0.0000000000
10
-76.9794046474
20
-321.1510219187
30
0.0000000000
10
-76.9540358966
20
-321.1636834085
30
0.0000000000
10
-76.9278909731
20
-321.1696055409
30
0.0000000000
10
-76.9004524386
20
-321.1713145305
30
0.0000000000
10
-76.8691468079
20
-321.1706380893
30
0.0000000000
10
-76.8387144005
20
-321.1683529321
30
0.0000000000
10
-76.8185787022
20
-321.1661627489
30
0.0000000000
10
-76.8108116221
20
-321.1652181511
30
0.0000000000
11
-77.0222425953
21
-321.0771546580
31
0.0000000000
11
-77.0165419904
21
-321.1012358582
31
0.0000000000
11
-77.0002330597
21
-321.1298699440
31
0.0000000000
11
-76.9781867158
21
-321.1501859535
31
0.0000000000
11
-76.9528543109
21
-321.1629457987
31
0.0000000000
11
-76.9278550988
21
-321.1689118883
31
0.0000000000
11
-76.9020977615
21
-321.1708822526
31
0.0000000000
11
-76.8713304548
21
-321.1704378392
31
0.0000000000
11
-76.8341471221
21
-321.1677545862
31
0.0000000000
11
-76.8108116221
21
-321.1652181511
31
0.0000000000
0
SPLINE
5
3C3
100
AcDbEntity
8
0
100
AcDbSpline
62
7
6
CONTINUOUS
70
0
71
3
72
17
73
13
74
11
42
0.0000001000
43
0.0000001000
44
0.0000000001
12
0.2409615793
22
0.0786737289
32
0.0000000000
13
0.2508541122
23
0.0616341786
33
0.0000000000
40
0.0000000000
40
0.0000000000
40
0.0000000000
40
0.0000000000
40
0.1257174119
40
0.2559316030
40
0.3801033766
40
0.4973284206
40
0.6067933816
40
0.7076507114
40
0.7992778858
40
0.8810031933
40
0.9522887015
40
1.0000000000
40
1.0000000000
40
1.0000000000
40
1.0000000000
10
-75.6918467213
20
-320.9170141685
30
0.0000000000
10
-75.6817490326
20
-320.9137172826
30
0.0000000000
10
-75.6611767461
20
-320.9070537596
30
0.0000000000
10
-75.6305769425
20
-320.8973016498
30
0.0000000000
10
-75.6006143012
20
-320.8879138835
30
0.0000000000
10
-75.5722795805
20
-320.8791977803
30
0.0000000000
10
-75.5457805575
20
-320.8712073311
30
0.0000000000
10
-75.5213125684
20
-320.8640022708
30
0.0000000000
10
-75.4990204458
20
-320.8576162533
30
0.0000000000
10
-75.4791676821
20
-320.8520866276
30
0.0000000000
10
-75.4626023655
20
-320.8476944634
30
0.0000000000
10
-75.4531773635
20
-320.8452472787
30
0.0000000000
10
-75.4491878384
20
-320.8442670631
30
0.0000000000
11
-75.6918467213
21
-320.9170141685
31
0.0000000000
11
-75.6615306765
21
-320.9071942983
31
0.0000000000
11
-75.6300821628
21
-320.8971728922
31
0.0000000000
11
-75.6000459882
21
-320.8877652423
31
0.0000000000
11
-75.5716441754
21
-320.8790321128
31
0.0000000000
11
-75.5450766660
21
-320.8710277151
31
0.0000000000
11
-75.5205507469
21
-320.8638123043
31
0.0000000000
11
-75.4982224517
21
-320.8574188498
31
0.0000000000
11
-75.4782603683
21
-320.8518821469
31
0.0000000000
11
-75.4607988000
21
-320.8472348445
31
0.0000000000
11
-75.4491878384
21
-320.8442670631
31
0.0000000000
0
SPLINE
5
3C4
100
AcDbEntity
8
0
100
AcDbSpline
62
7
6
CONTINUOUS
70
0
71
3
72
11
73
7
74
5
42
0.0000001000
43
0.0000001000
44
0.0000000001
12
0.0254898087
22
0.0062627772
32
0.0000000000
13
0.0387715112
23
0.0062176843
33
0.0000000000
40
0.0000000000
40
0.0000000000
40
0.0000000000
40
0.0000000000
40
0.1248469644
40
0.5993276583
40
0.9394943737
40
1.0000000000
40
1.0000000000
40
1.0000000000
40
1.0000000000
10
-75.4491878384
20
-320.8442670631
30
0.0000000000
10
-75.4481270633
20
-320.8440064335
30
0.0000000000
10
-75.4429633374
20
-320.8427556120
30
0.0000000000
10
-75.4341447007
20
-320.8407808918
30
0.0000000000
10
-75.4296515626
20
-320.8395400353
30
0.0000000000
10
-75.4238059675
20
-320.8386131925
30
0.0000000000
10
-75.4230240026
20
-320.8384877909
30
0.0000000000
11
-75.4491878384
21
-320.8442670631
31
0.0000000000
11
-75.4459556902
21
-320.8434849257
31
0.0000000000
11
-75.4340591411
21
-320.8406876109
31
0.0000000000
11
-75.4254850637
21
-320.8388849372
31
0.0000000000
11
-75.4230240026
21
-320.8384877909
31
0.0000000000
0
SPLINE
5
3C5
100
AcDbEntity
8
0
100
AcDbSpline
62
7
6
CONTINUOUS
70
0
71
3
72
10
73
6
74
4
42
0.0000001000
43
0.0000001000
44
0.0000000001
12
1.1394054503
22
0.1385357645
32
0.0000000000
13
1.0911165306
23
0.3562186596
33
0.0000000000
40
0.0000000000
40
0.0000000000
40
0.0000000000
40
0.0000000000
40
0.3242326341
40
0.6737101514
40
1.0000000000
40
1.0000000000
40
1.0000000000
40
1.0000000000
10
-76.8108118245
20
-321.1652164813
30
0.0000000000
10
-76.6876676810
20
-321.1502438761
30
0.0000000000
10
-76.4326987152
20
-321.1110494931
30
0.0000000000
10
-76.0589200631
20
-321.0282197262
30
0.0000000000
10
-75.8105191356
20
-320.9557607477
30
0.0000000000
10
-75.6918457197
20
-320.9170172369
30
0.0000000000
11
-76.8108118245
21
-321.1652164813
31
0.0000000000
11
-76.4429824696
21
-321.1086712936
31
0.0000000000
11
-76.0513726874
21
-321.0218900821
31
0.0000000000
11
-75.6918457197
21
-320.9170172369
31
0.0000000000
0
SPLINE
5
3C6
100
AcDbEntity
8
0
100
AcDbSpline
62
7
6
CONTINUOUS
70
0
71
3
72
8
73
4
74
2
42
0.0000001000
43
0.0000001000
44
0.0000000001
12
0.0000045224
22
-0.0112105483
32
0.0000000000
13
0.0012537431
23
-0.0111931650
33
0.0000000000
40
0.0000000000
40
0.0000000000
40
0.0000000000
40
0.0000000000
40
1.0000000000
40
1.0000000000
40
1.0000000000
40
1.0000000000
10
-77.0228711740
20
-321.0659386504
30
0.0000000000
10
-77.0228696665
20
-321.0696754998
30
0.0000000000
10
-77.0226578232
20
-321.0734233015
30
0.0000000000
10
-77.0222399088
20
-321.0771543565
30
0.0000000000
11
-77.0228711740
21
-321.0659386504
31
0.0000000000
11
-77.0222399088
21
-321.0771543565
31
0.0000000000
0
SPLINE
5
3C7
100
AcDbEntity
8
0
100
AcDbSpline
62
7
6
CONTINUOUS
70
0
71
3
72
13
73
9
74
7
42
0.0000001000
43
0.0000001000
44
0.0000000001
12
0.0186732971
22
-0.1667114088
32
0.0000000000
13
0.1668252168
23
-0.0043654261
33
0.0000000000
40
0.0000000000
40
0.0000000000
40
0.0000000000
40
0.0000000000
40
0.1475633507
40
0.3441968187
40
0.5230475999
40
0.6926499719
40
0.8460445029
40
1.0000000000
40
1.0000000000
40
1.0000000000
40
1.0000000000
10
-77.0222399087
20
-321.0771543571
30
0.0000000000
10
-77.0213214106
20
-321.0853545218
30
0.0000000000
10
-77.0168571683
20
-321.1042930146
30
0.0000000000
10
-77.0022177561
20
-321.1299722357
30
0.0000000000
10
-76.9796478789
20
-321.1508402169
30
0.0000000000
10
-76.9544265382
20
-321.1635374179
30
0.0000000000
10
-76.9284164098
20
-321.1695308028
30
0.0000000000
10
-76.9113281722
20
-321.1706409814
30
0.0000000000
10
-76.9027669525
20
-321.1708650085
30
0.0000000000
11
-77.0222399087
21
-321.0771543571
31
0.0000000000
11
-77.0165434833
21
-321.1012181114
31
0.0000000000
11
-77.0003384173
21
-321.1297319820
31
0.0000000000
11
-76.9784524340
21
-321.1500024672
31
0.0000000000
11
-76.9532310824
21
-321.1628133654
31
0.0000000000
11
-76.9283654981
21
-321.1688382672
31
0.0000000000
11
-76.9027669525
21
-321.1708650085
31
0.0000000000
0
SPLINE
5
3C8
100
AcDbEntity
8
0
100
AcDbSpline
62
7
6
CONTINUOUS
70
0
71
3
72
8
73
4
74
2
42
0.0000001000
43
0.0000001000
44
0.0000000001
12
0.0304850193
22
-0.0007977217
32
0.0000000000
13
0.0304535634
23
0.0013443544
33
0.0000000000
40
0.0000000000
40
0.0000000000
40
0.0000000000
40
0.0000000000
40
1.0000000000
40
1.0000000000
40
1.0000000000
40
1.0000000000
10
-76.9027669525
20
-321.1708650085
30
0.0000000000
10
-76.8926052794
20
-321.1711309158
30
0.0000000000
10
-76.8824414840
20
-321.1709289847
30
0.0000000000
10
-76.8722902962
20
-321.1704808665
30
0.0000000000
11
-76.9027669525
21
-321.1708650085
31
0.0000000000
11
-76.8722902962
21
-321.1704808665
31
0.0000000000
0
SPLINE
5
3C9
100
AcDbEntity
8
0
100
AcDbSpline
62
7
6
CONTINUOUS
70
0
71
3
72
9
73
5
74
3
42
0.0000001000
43
0.0000001000
44
0.0000000001
12
0.0616600254
22
0.0027219451
32
0.0000000000
13
0.0612650701
23
0.0074519145
33
0.0000000000
40
0.0000000000
40
0.0000000000
40
0.0000000000
40
0.0000000000
40
0.5991729697
40
1.0000000000
40
1.0000000000
40
1.0000000000
40
1.0000000000
10
-76.8722902962
20
-321.1704808665
30
0.0000000000
10
-76.8599752893
20
-321.1699372279
30
0.0000000000
10
-76.8394529157
20
-321.1684252008
30
0.0000000000
10
-76.8189972180
20
-321.1662135403
30
0.0000000000
10
-76.8108116526
20
-321.1652178974
30
0.0000000000
11
-76.8722902962
21
-321.1704808665
31
0.0000000000
11
-76.8354063234
21
-321.1678741222
31
0.0000000000
11
-76.8108116526
21
-321.1652178974
31
0.0000000000
0
SPLINE
5
3CA
100
AcDbEntity
8
0
100
AcDbSpline
62
7
6
CONTINUOUS
70
0
71
3
72
8
73
4
74
2
42
0.0000001000
43
0.0000001000
44
0.0000000001
12
0.0121258853
22
0.0006742997
32
0.0000000000
13
0.0121403917
23
0.0004857074
33
0.0000000000
40
0.0000000000
40
0.0000000000
40
0.0000000000
40
0.0000000000
40
1.0000000000
40
1.0000000000
40
1.0000000000
40
1.0000000000
10
-77.2173668536
20
-320.8395540938
30
0.0000000000
10
-77.2133248918
20
-320.8393293272
30
0.0000000000
10
-77.2092805453
20
-320.8391356543
30
0.0000000000
10
-77.2052337481
20
-320.8389737518
30
0.0000000000
11
-77.2173668536
21
-320.8395540938
31
0.0000000000
11
-77.2052337481
21
-320.8389737518
31
0.0000000000
0
SPLINE
5
3CB
100
AcDbEntity
8
0
100
AcDbSpline
62
7
6
CONTINUOUS
70
0
71
3
72
8
73
4
74
2
42
0.0000001000
43
0.0000001000
44
0.0000000001
12
0.0226721203
22
0.0009070561
32
0.0000000000
13
0.0227246917
23
0.0002290275
33
0.0000000000
40
0.0000000000
40
0.0000000000
40
0.0000000000
40
0.0000000000
40
1.0000000000
40
1.0000000000
40
1.0000000000
40
1.0000000000
10
-77.2052337481
20
-320.8389737518
30
0.0000000000
10
-77.1976763746
20
-320.8386713998
30
0.0000000000
10
-77.1901104542
20
-320.8384798485
30
0.0000000000
10
-77.1825355570
20
-320.8384035060
30
0.0000000000
11
-77.2052337481
21
-320.8389737518
31
0.0000000000
11
-77.1825355570
21
-320.8384035060
31
0.0000000000
0
SPLINE
5
3CC
100
AcDbEntity
8
0
100
AcDbSpline
62
7
6
CONTINUOUS
70
0
71
3
72
11
73
7
74
5
42
0.0000001000
43
0.0000001000
44
0.0000000001
12
0.1625355335
22
0.0016380908
32
0.0000000000
13
0.1430045884
23
-0.0452983136
33
0.0000000000
40
0.0000000000
40
0.0000000000
40
0.0000000000
40
0.0000000000
40
0.3921400466
40
0.7167710143
40
0.9507098624
40
1.0000000000
40
1.0000000000
40
1.0000000000
40
1.0000000000
10
-77.1825355570
20
-320.8384035060
30
0.0000000000
10
-77.1612899931
20
-320.8381893856
30
0.0000000000
10
-77.1223273306
20
-320.8394545702
30
0.0000000000
10
-77.0719601088
20
-320.8447909751
30
0.0000000000
10
-77.0382865325
20
-320.8534719999
30
0.0000000000
10
-77.0251178737
20
-320.8569317244
30
0.0000000000
10
-77.0227683018
20
-320.8576759778
30
0.0000000000
11
-77.1825355570
21
-320.8384035060
31
0.0000000000
11
-77.1189537038
21
-320.8403992603
31
0.0000000000
11
-77.0666990953
21
-320.8469354676
31
0.0000000000
11
-77.0297777006
21
-320.8557098156
31
0.0000000000
11
-77.0227683018
21
-320.8576759778
31
0.0000000000
0
SPLINE
5
3CD
100
AcDbEntity
8
0
100
AcDbSpline
62
7
6
CONTINUOUS
70
0
71
3
72
9
73
5
74
3
42
0.0000001000
43
0.0000001000
44
0.0000000001
12
0.0148819146
22
-0.0047140140
32
0.0000000000
13
0.0133048910
23
-0.0072041476
33
0.0000000000
40
0.0000000000
40
0.0000000000
40
0.0000000000
40
0.0000000000
40
0.8019985287
40
1.0000000000
40
1.0000000000
40
1.0000000000
40
1.0000000000
10
-77.0227683018
20
-320.8576759778
30
0.0000000000
10
-77.0187898773
20
-320.8589361886
30
0.0000000000
10
-77.0136224645
20
-320.8610157428
30
0.0000000000
10
-77.0071842986
20
-320.8649357403
30
0.0000000000
10
-77.0063061692
20
-320.8654112176
30
0.0000000000
11
-77.0227683018
21
-320.8576759778
31
0.0000000000
11
-77.0096840119
21
-320.8634555636
31
0.0000000000
11
-77.0063061692
21
-320.8654112176
31
0.0000000000
0
SPLINE
5
3CE
100
AcDbEntity
8
0
100
AcDbSpline
62
7
6
CONTINUOUS
70
0
71
3
72
10
73
6
74
4
42
0.0000001000
43
0.0000001000
44
0.0000000001
12
0.6103836007
22
-0.0337145969
32
0.0000000000
13
0.6103822664
23
0.0337146560
33
0.0000000000
40
0.0000000000
40
0.0000000000
40
0.0000000000
40
0.0000000000
40
0.3162377785
40
0.6798529205
40
1.0000000000
40
1.0000000000
40
1.0000000000
40
1.0000000000
10
-77.8283962592
20
-320.8395708002
30
0.0000000000
10
-77.7640541413
20
-320.8431247432
30
0.0000000000
10
-77.6255851180
20
-320.8483519110
30
0.0000000000
10
-77.4217704052
20
-320.8483958406
30
0.0000000000
10
-77.2825034350
20
-320.8431686972
30
0.0000000000
10
-77.2173660683
20
-320.8395708143
30
0.0000000000
11
-77.8283962592
21
-320.8395708002
31
0.0000000000
11
-77.6352141450
21
-320.8468631003
31
0.0000000000
11
-77.4129375095
21
-320.8469110389
31
0.0000000000
11
-77.2173660683
21
-320.8395708143
31
0.0000000000
0
SPLINE
5
3CF
100
AcDbEntity
8
0
100
AcDbSpline
62
7
6
CONTINUOUS
70
0
71
3
72
9
73
5
74
3
42
0.0000001000
43
0.0000001000
44
0.0000000001
12
0.0152042181
22
0.0087117897
32
0.0000000000
13
0.0143642103
23
0.0045149261
33
0.0000000000
40
0.0000000000
40
0.0000000000
40
0.0000000000
40
0.0000000000
40
0.1424866664
40
1.0000000000
40
1.0000000000
40
1.0000000000
40
1.0000000000
10
-78.0388093347
20
-320.8650229169
30
0.0000000000
10
-78.0380872019
20
-320.8646091456
30
0.0000000000
10
-78.0320191535
20
-320.8609725196
30
0.0000000000
10
-78.0270849033
20
-320.8590207693
30
0.0000000000
10
-78.0229790694
20
-320.8577302329
30
0.0000000000
11
-78.0388093347
21
-320.8650229169
31
0.0000000000
11
-78.0363809888
21
-320.8636070113
31
0.0000000000
11
-78.0229790694
21
-320.8577302329
31
0.0000000000
0
SPLINE
5
3D0
100
AcDbEntity
8
0
100
AcDbSpline
62
7
6
CONTINUOUS
70
0
71
3
72
11
73
7
74
5
42
0.0000001000
43
0.0000001000
44
0.0000000001
12
0.1401325979
22
0.0440425303
32
0.0000000000
13
0.1595286702
23
-0.0010276725
33
0.0000000000
40
0.0000000000
40
0.0000000000
40
0.0000000000
40
0.0000000000
40
0.0438216188
40
0.2774879323
40
0.6034667719
40
1.0000000000
40
1.0000000000
40
1.0000000000
40
1.0000000000
10
-78.0229771630
20
-320.8577296337
30
0.0000000000
10
-78.0209302172
20
-320.8570862953
30
0.0000000000
10
-78.0081656321
20
-320.8536153108
30
0.0000000000
10
-77.9754660705
20
-320.8451199041
30
0.0000000000
10
-77.9257259416
20
-320.8396162427
30
0.0000000000
10
-77.8871895764
20
-320.8382376473
30
0.0000000000
10
-77.8661034369
20
-320.8383734827
30
0.0000000000
11
-78.0229771630
21
-320.8577296337
31
0.0000000000
11
-78.0168419356
21
-320.8559791428
31
0.0000000000
11
-77.9806794983
21
-320.8472313364
31
0.0000000000
11
-77.9292024770
21
-320.8405882600
31
0.0000000000
11
-77.8661034369
21
-320.8383734827
31
0.0000000000
0
SPLINE
5
3D1
100
AcDbEntity
8
0
100
AcDbSpline
62
7
6
CONTINUOUS
70
0
71
3
72
8
73
4
74
2
42
0.0000001000
43
0.0000001000
44
0.0000000001
12
0.0377751027
22
-0.0002433446
32
0.0000000000
13
0.0376420626
23
-0.0020944388
33
0.0000000000
40
0.0000000000
40
0.0000000000
40
0.0000000000
40
0.0000000000
40
1.0000000000
40
1.0000000000
40
1.0000000000
40
1.0000000000
10
-77.8661034369
20
-320.8383734827
30
0.0000000000
10
-77.8535117360
20
-320.8384545976
30
0.0000000000
10
-77.8409427181
20
-320.8388539531
30
0.0000000000
10
-77.8283953639
20
-320.8395520993
30
0.0000000000
11
-77.8661034369
21
-320.8383734827
31
0.0000000000
11
-77.8283953639
21
-320.8395520993
31
0.0000000000
0
SPLINE
5
3D2
100
AcDbEntity
8
0
100
AcDbSpline
62
7
6
CONTINUOUS
70
0
71
3
72
9
73
5
74
3
42
0.0000001000
43
0.0000001000
44
0.0000000001
12
0.0603938318
22
-0.0073448720
32
0.0000000000
13
0.0607785955
23
-0.0027725077
33
0.0000000000
40
0.0000000000
40
0.0000000000
40
0.0000000000
40
0.0000000000
40
0.3869911088
40
1.0000000000
40
1.0000000000
40
1.0000000000
40
1.0000000000
10
-78.2349507075
20
-321.1652181615
30
0.0000000000
10
-78.2271600822
20
-321.1661656282
30
0.0000000000
10
-78.2069968804
20
-321.1683580238
30
0.0000000000
10
-78.1867685349
20
-321.1698750742
30
0.0000000000
10
-78.1743492617
20
-321.1704415981
30
0.0000000000
11
-78.2349507075
21
-321.1652181615
31
0.0000000000
11
-78.2115443665
21
-321.1677613623
31
0.0000000000
11
-78.1743492617
21
-321.1704415981
31
0.0000000000
0
SPLINE
5
3D3
100
AcDbEntity
8
0
100
AcDbSpline
62
7
6
CONTINUOUS
70
0
71
3
72
9
73
5
74
3
42
0.0000001000
43
0.0000001000
44
0.0000000001
12
0.0564442669
22
-0.0025747907
32
0.0000000000
13
0.0559810452
23
0.0080425123
33
0.0000000000
40
0.0000000000
40
0.0000000000
40
0.0000000000
40
0.0000000000
40
0.5438656546
40
1.0000000000
40
1.0000000000
40
1.0000000000
40
1.0000000000
10
-78.1743492617
20
-321.1704415981
30
0.0000000000
10
-78.1641165623
20
-321.1709083782
30
0.0000000000
10
-78.1452779435
20
-321.1713129814
30
0.0000000000
10
-78.1264437672
20
-321.1701382607
30
0.0000000000
10
-78.1179321414
20
-321.1689154387
30
0.0000000000
11
-78.1743492617
21
-321.1704415981
31
0.0000000000
11
-78.1436265209
21
-321.1708813298
31
0.0000000000
11
-78.1179321414
21
-321.1689154387
31
0.0000000000
0
SPLINE
5
3D4
100
AcDbEntity
8
0
100
AcDbSpline
62
7
6
CONTINUOUS
70
0
71
3
72
8
73
4
74
2
42
0.0000001000
43
0.0000001000
44
0.0000000001
12
0.0253563285
22
0.0036428149
32
0.0000000000
13
0.0242042291
23
0.0084543714
33
0.0000000000
40
0.0000000000
40
0.0000000000
40
0.0000000000
40
0.0000000000
40
1.0000000000
40
1.0000000000
40
1.0000000000
40
1.0000000000
10
-78.1179321414
20
-321.1689154387
30
0.0000000000
10
-78.1094800319
20
-321.1677011670
30
0.0000000000
10
-78.1011061064
20
-321.1658094776
30
0.0000000000
10
-78.0930380300
20
-321.1629913538
30
0.0000000000
11
-78.1179321414
21
-321.1689154387
31
0.0000000000
11
-78.0930380300
21
-321.1629913538
31
0.0000000000
0
SPLINE
5
3D5
100
AcDbEntity
8
0
100
AcDbSpline
62
7
6
CONTINUOUS
70
0
71
3
72
11
73
7
74
5
42
0.0000001000
43
0.0000001000
44
0.0000000001
12
0.1097795045
22
0.0383452287
32
0.0000000000
13
0.0129853403
23
0.1160160106
33
0.0000000000
40
0.0000000000
40
0.0000000000
40
0.0000000000
40
0.0000000000
40
0.2448027718
40
0.5034455926
40
0.7877064745
40
1.0000000000
40
1.0000000000
40
1.0000000000
40
1.0000000000
10
-78.0930380300
20
-321.1629913538
30
0.0000000000
10
-78.0840799210
20
-321.1598623477
30
0.0000000000
10
-78.0664326704
20
-321.1510786490
30
0.0000000000
10
-78.0436645213
20
-321.1301650336
30
0.0000000000
10
-78.0289213913
20
-321.1043781014
30
0.0000000000
10
-78.0244386850
20
-321.0853649165
30
0.0000000000
10
-78.0235197837
20
-321.0771551005
30
0.0000000000
11
-78.0930380300
21
-321.1629913538
31
0.0000000000
11
-78.0676497112
21
-321.1502365479
31
0.0000000000
11
-78.0455610528
21
-321.1299092277
31
0.0000000000
11
-78.0292242138
21
-321.1012463092
31
0.0000000000
11
-78.0235197837
21
-321.0771551005
31
0.0000000000
0
SPLINE
5
3D6
100
AcDbEntity
8
0
100
AcDbSpline
62
7
6
CONTINUOUS
70
0
71
3
72
8
73
4
74
2
42
0.0000001000
43
0.0000001000
44
0.0000000001
12
0.0012512757
22
0.0111793772
32
0.0000000000
13
0.0000054201
23
0.0111967750
33
0.0000000000
40
0.0000000000
40
0.0000000000
40
0.0000000000
40
0.0000000000
40
1.0000000000
40
1.0000000000
40
1.0000000000
40
1.0000000000
10
-78.0235197837
20
-321.0771551005
30
0.0000000000
10
-78.0231026918
20
-321.0734286414
30
0.0000000000
10
-78.0228911343
20
-321.0696854844
30
0.0000000000
10
-78.0228893276
20
-321.0659532261
30
0.0000000000
11
-78.0235197837
21
-321.0771551005
31
0.0000000000
11
-78.0228893276
21
-321.0659532261
31
0.0000000000
0
SPLINE
5
3D7
100
AcDbEntity
8
0
100
AcDbSpline
62
7
6
CONTINUOUS
70
0
71
3
72
10
73
6
74
4
42
0.0000001000
43
0.0000001000
44
0.0000000001
12
1.0911208316
22
-0.3562194201
32
0.0000000000
13
1.1394011973
23
-0.1385349433
33
0.0000000000
40
0.0000000000
40
0.0000000000
40
0.0000000000
40
0.0000000000
40
0.3242092501
40
0.6736871094
40
1.0000000000
40
1.0000000000
40
1.0000000000
40
1.0000000000
10
-79.3539166012
20
-320.9170172086
30
0.0000000000
10
-79.2359994456
20
-320.9555137523
30
0.0000000000
10
-78.9883795974
20
-321.0277993973
30
0.0000000000
10
-78.6146344854
20
-321.1107803899
30
0.0000000000
10
-78.3588842708
20
-321.1501479151
30
0.0000000000
10
-78.2349505047
20
-321.1652164944
30
0.0000000000
11
-79.3539166012
21
-320.9170172086
31
0.0000000000
11
-78.9967021413
21
-321.0212939808
31
0.0000000000
11
-78.6051271307
21
-321.1082337680
31
0.0000000000
11
-78.2349505047
21
-321.1652164944
31
0.0000000000
0
SPLINE
5
3D8
100
AcDbEntity
8
0
100
AcDbSpline
62
7
6
CONTINUOUS
70
0
71
3
72
8
73
4
74
2
42
0.0000001000
43
0.0000001000
44
0.0000000001
12
-0.0000338558
22
-0.0001072465
32
0.0000000000
13
0.0041573908
23
-0.0006697597
33
0.0000000000
40
0.0000000000
40
0.0000000000
40
0.0000000000
40
0.0000000000
40
1.0000000000
40
1.0000000000
40
1.0000000000
40
1.0000000000
10
-79.6249574191
20
-320.8380811886
30
0.0000000000
10
-79.6249687044
20
-320.8381169375
30
0.0000000000
10
-79.6237632159
20
-320.8383106660
30
0.0000000000
10
-79.6223774189
20
-320.8385339193
30
0.0000000000
11
-79.6249574191
21
-320.8380811886
31
0.0000000000
11
-79.6223774189
21
-320.8385339193
31
0.0000000000
0
SPLINE
5
3D9
100
AcDbEntity
8
0
100
AcDbSpline
62
7
6
CONTINUOUS
70
0
71
3
72
11
73
7
74
5
42
0.0000001000
43
0.0000001000
44
0.0000000001
12
0.0393958245
22
-0.0063467055
32
0.0000000000
13
0.0252524804
23
-0.0062307611
33
0.0000000000
40
0.0000000000
40
0.0000000000
40
0.0000000000
40
0.0000000000
40
0.0437461441
40
0.3811931805
40
0.8487327780
40
1.0000000000
40
1.0000000000
40
1.0000000000
40
1.0000000000
10
-79.6223774189
20
-320.8385339193
30
0.0000000000
10
-79.6218029471
20
-320.8386264672
30
0.0000000000
10
-79.6165271432
20
-320.8394771183
30
0.0000000000
10
-79.6120245923
20
-320.8406818372
30
0.0000000000
10
-79.6031276056
20
-320.8426685389
30
0.0000000000
10
-79.5978401290
20
-320.8439515652
30
0.0000000000
10
-79.5965668381
20
-320.8442657351
30
0.0000000000
11
-79.6223774189
21
-320.8385339193
31
0.0000000000
11
-79.6206348829
21
-320.8388176334
31
0.0000000000
11
-79.6121490566
21
-320.8405902799
31
0.0000000000
11
-79.6004532539
21
-320.8433241387
31
0.0000000000
11
-79.5965668381
21
-320.8442657351
31
0.0000000000
0
SPLINE
5
3DA
100
AcDbEntity
8
0
100
AcDbSpline
62
7
6
CONTINUOUS
70
0
71
3
72
18
73
14
74
12
42
0.0000001000
43
0.0000001000
44
0.0000000001
12
0.2491589938
22
-0.0614771357
32
0.0000000000
13
0.2409641088
23
-0.0786527442
33
0.0000000000
40
0.0000000000
40
0.0000000000
40
0.0000000000
40
0.0000000000
40
0.0441584266
40
0.1147243445
40
0.1955767258
40
0.2863024203
40
0.3862697342
40
0.4948207329
40
0.6111644276
40
0.7344498212
40
0.8637745550
40
0.9980510664
40
1.0000000000
40
1.0000000000
40
1.0000000000
40
1.0000000000
10
-79.5965668381
20
-320.8442657351
30
0.0000000000
10
-79.5928993484
20
-320.8451706463
30
0.0000000000
10
-79.5837856690
20
-320.8475331400
30
0.0000000000
10
-79.5676522999
20
-320.8518012845
30
0.0000000000
10
-79.5479944396
20
-320.8572593859
30
0.0000000000
10
-79.5259191251
20
-320.8635787644
30
0.0000000000
10
-79.5016666410
20
-320.8707062510
30
0.0000000000
10
-79.4753810932
20
-320.8786168271
30
0.0000000000
10
-79.4472609939
20
-320.8872584750
30
0.0000000000
10
-79.4175098184
20
-320.8965685002
30
0.0000000000
10
-79.3863612959
20
-320.9064846084
30
0.0000000000
10
-79.3650140863
20
-320.9133919445
30
0.0000000000
10
-79.3540721427
20
-320.9169630501
30
0.0000000000
10
-79.3539156017
20
-320.9170141464
30
0.0000000000
11
-79.5965668381
21
-320.8442657351
31
0.0000000000
11
-79.5858316095
21
-320.8470102526
31
0.0000000000
11
-79.5685438821
21
-320.8516003899
31
0.0000000000
11
-79.5487916902
21
-320.8570646921
31
0.0000000000
11
-79.5266811832
21
-320.8633872796
31
0.0000000000
11
-79.5023686816
21
-320.8705273114
31
0.0000000000
11
-79.4760194760
21
-320.8784516387
31
0.0000000000
11
-79.4478287728
21
-320.8871095768
31
0.0000000000
11
-79.4180043831
21
-320.8964399900
31
0.0000000000
11
-79.3867677148
21
-320.9063818583
31
0.0000000000
11
-79.3543852303
21
-320.9168608744
31
0.0000000000
11
-79.3539156017
21
-320.9170141464
31
0.0000000000
0
SPLINE
5
3DB
100
AcDbEntity
8
0
100
AcDbSpline
62
7
6
CONTINUOUS
70
0
71
3
72
8
73
4
74
2
42
0.0000001000
43
0.0000001000
44
0.0000000001
12
-0.0000338947
22
-0.0001160309
32
0.0000000000
13
0.0042056179
23
-0.0006729367
33
0.0000000000
40
0.0000000000
40
0.0000000000
40
0.0000000000
40
0.0000000000
40
1.0000000000
40
1.0000000000
40
1.0000000000
40
1.0000000000
10
-79.6249519169
20
-320.8380919913
30
0.0000000000
10
-79.6249632151
20
-320.8381306683
30
0.0000000000
10
-79.6237811209
20
-320.8383213117
30
0.0000000000
10
-79.6223792483
20
-320.8385456240
30
0.0000000000
11
-79.6249519169
21
-320.8380919913
31
0.0000000000
11
-79.6223792483
21
-320.8385456240
31
0.0000000000
0
SPLINE
5
3DC
100
AcDbEntity
8
0
100
AcDbSpline
62
7
6
CONTINUOUS
70
0
71
3
72
17
73
13
74
11
42
0.0000001000
43
0.0000001000
44
0.0000000001
12
0.2509708435
22
-0.0616478837
32
0.0000000000
13
0.2409606472
23
-0.0786734263
33
0.0000000000
40
0.0000000000
40
0.0000000000
40
0.0000000000
40
0.0000000000
40
0.0479700867
40
0.1192779108
40
0.2010034140
40
0.2926090716
40
0.3934274926
40
0.5028415426
40
0.6200107320
40
0.7441297324
40
0.8743023083
40
1.0000000000
40
1.0000000000
40
1.0000000000
40
1.0000000000
10
-79.5965746231
20
-320.8442671823
30
0.0000000000
10
-79.5925615920
20
-320.8452529337
30
0.0000000000
10
-79.5831150625
20
-320.8477061163
30
0.0000000000
10
-79.5665269184
20
-320.8521051305
30
0.0000000000
10
-79.5466742708
20
-320.8576353891
30
0.0000000000
10
-79.5243872879
20
-320.8640204544
30
0.0000000000
10
-79.4999285296
20
-320.8712232406
30
0.0000000000
10
-79.4734414812
20
-320.8792103851
30
0.0000000000
10
-79.4451198091
20
-320.8879226723
30
0.0000000000
10
-79.4151694315
20
-320.8973067142
30
0.0000000000
10
-79.3845789469
20
-320.9070559042
30
0.0000000000
10
-79.3640116727
20
-320.9137178125
30
0.0000000000
10
-79.3539156070
20
-320.9170141685
30
0.0000000000
11
-79.5965746231
21
-320.8442671823
31
0.0000000000
11
-79.5848991321
21
-320.8472515635
31
0.0000000000
11
-79.5674323711
21
-320.8519010774
31
0.0000000000
11
-79.5474704974
21
-320.8574384223
31
0.0000000000
11
-79.5251476770
21
-320.8638308575
31
0.0000000000
11
-79.5006314349
21
-320.8710438667
31
0.0000000000
11
-79.4740764726
21
-320.8790448035
31
0.0000000000
11
-79.4456883602
21
-320.8877739267
31
0.0000000000
11
-79.4156651015
21
-320.8971776518
31
0.0000000000
11
-79.3842267755
21
-320.9071958651
31
0.0000000000
11
-79.3539156070
21
-320.9170141685
31
0.0000000000
0
SPLINE
5
3DD
100
AcDbEntity
8
0
100
AcDbSpline
62
7
6
CONTINUOUS
70
0
71
3
72
16
73
12
74
10
42
0.0000001000
43
0.0000001000
44
0.0000000001
12
0.2571082013
22
-0.0312732353
32
0.0000000000
13
0.0289956003
23
0.2588563033
33
0.0000000000
40
0.0000000000
40
0.0000000000
40
0.0000000000
40
0.0000000000
40
0.0957177787
40
0.2385228785
40
0.3560819468
40
0.4550440047
40
0.5535147798
40
0.6628920152
40
0.7781856162
40
0.9049357695
40
1.0000000000
40
1.0000000000
40
1.0000000000
40
1.0000000000
10
-78.2349506766
20
-321.1652179043
30
0.0000000000
10
-78.2267474012
20
-321.1662157059
30
0.0000000000
10
-78.2062712209
20
-321.1684289890
30
0.0000000000
10
-78.1756033951
20
-321.1706863390
30
0.0000000000
10
-78.1445710653
20
-321.1712998051
30
0.0000000000
10
-78.1173783083
20
-321.1695314912
30
0.0000000000
10
-78.0913977335
20
-321.1635572778
30
0.0000000000
10
-78.0661702560
20
-321.1508828172
30
0.0000000000
10
-78.0435656733
20
-321.1300037030
30
0.0000000000
10
-78.0289091710
20
-321.1043079610
30
0.0000000000
10
-78.0244412843
20
-321.0853574575
30
0.0000000000
10
-78.0235224695
20
-321.0771547991
30
0.0000000000
11
-78.2349506766
21
-321.1652179043
31
0.0000000000
11
-78.2103027139
21
-321.1678791428
31
0.0000000000
11
-78.1734105141
21
-321.1704835664
31
0.0000000000
11
-78.1429671578
21
-321.1708642628
31
0.0000000000
11
-78.1174176822
21
-321.1688413096
31
0.0000000000
11
-78.0926296694
21
-321.1628482470
31
0.0000000000
11
-78.0673640992
21
-321.1500397446
31
0.0000000000
11
-78.0454474336
21
-321.1297611633
31
0.0000000000
11
-78.0292216465
21
-321.1012256685
31
0.0000000000
11
-78.0235224695
21
-321.0771547991
31
0.0000000000
0
SPLINE
5
3DE
100
AcDbEntity
8
0
100
AcDbSpline
62
7
6
CONTINUOUS
70
0
71
3
72
12
73
8
74
6
42
0.0000001000
43
0.0000001000
44
0.0000000001
12
0.1619099871
22
0.0512868116
32
0.0000000000
13
0.1836198709
23
-0.0070518447
33
0.0000000000
40
0.0000000000
40
0.0000000000
40
0.0000000000
40
0.0000000000
40
0.0435347811
40
0.2501577898
40
0.5368832645
40
0.8832351291
40
1.0000000000
40
1.0000000000
40
1.0000000000
40
1.0000000000
10
-78.0229940266
20
-320.8576759778
30
0.0000000000
10
-78.0206444546
20
-320.8569317244
30
0.0000000000
10
-78.0074757958
20
-320.8534719999
30
0.0000000000
10
-77.9738022196
20
-320.8447909751
30
0.0000000000
10
-77.9234349977
20
-320.8394545702
30
0.0000000000
10
-77.8772860565
20
-320.8379560348
30
0.0000000000
10
-77.8489098534
20
-320.8386508828
30
0.0000000000
10
-77.8417630699
20
-320.8389253520
30
0.0000000000
11
-78.0229940266
21
-320.8576759778
31
0.0000000000
11
-78.0159846278
21
-320.8557098156
31
0.0000000000
11
-77.9790632330
21
-320.8469354676
31
0.0000000000
11
-77.9268086246
21
-320.8403992603
31
0.0000000000
11
-77.8632267714
21
-320.8384035060
31
0.0000000000
11
-77.8417630699
21
-320.8389253520
31
0.0000000000
0
SPLINE
5
3DF
100
AcDbEntity
8
0
100
AcDbSpline
62
7
6
CONTINUOUS
70
0
71
3
72
10
73
6
74
4
42
0.0000001000
43
0.0000001000
44
0.0000000001
12
0.6103824095
22
-0.0337146639
32
0.0000000000
13
0.6103837428
23
0.0337146206
33
0.0000000000
40
0.0000000000
40
0.0000000000
40
0.0000000000
40
0.0000000000
40
0.3201470045
40
0.6837620612
40
1.0000000000
40
1.0000000000
40
1.0000000000
40
1.0000000000
10
-77.8283962600
20
-320.8395708143
30
0.0000000000
10
-77.7632588933
20
-320.8431686972
30
0.0000000000
10
-77.6239919231
20
-320.8483958406
30
0.0000000000
10
-77.4201771626
20
-320.8483519110
30
0.0000000000
10
-77.2817080915
20
-320.8431247396
30
0.0000000000
10
-77.2173659260
20
-320.8395707923
30
0.0000000000
11
-77.8283962600
21
-320.8395708143
31
0.0000000000
11
-77.6328248188
21
-320.8469110389
31
0.0000000000
11
-77.4105481834
21
-320.8468631003
31
0.0000000000
11
-77.2173659260
21
-320.8395707923
31
0.0000000000
0
SPLINE
5
3E0
100
AcDbEntity
8
0
100
AcDbSpline
62
7
6
CONTINUOUS
70
0
71
3
72
8
73
4
74
2
42
0.0000001000
43
0.0000001000
44
0.0000000001
12
0.0133593634
22
0.0007433272
32
0.0000000000
13
0.0133758724
23
0.0005149088
33
0.0000000000
40
0.0000000000
40
0.0000000000
40
0.0000000000
40
0.0000000000
40
1.0000000000
40
1.0000000000
40
1.0000000000
40
1.0000000000
10
-77.2173669645
20
-320.8395520993
30
0.0000000000
10
-77.2129138433
20
-320.8393043236
30
0.0000000000
10
-77.2084579935
20
-320.8390941829
30
0.0000000000
10
-77.2039993693
20
-320.8389225466
30
0.0000000000
11
-77.2173669645
21
-320.8395520993
31
0.0000000000
11
-77.2039993693
21
-320.8389225466
31
0.0000000000
0
SPLINE
5
3E1
100
AcDbEntity
8
0
100
AcDbSpline
62
9
6
CONTINUOUS
70
0
71
3
72
10
73
6
74
4
42
0.0000001000
43
0.0000001000
44
0.0000000001
12
0.0000000037
22
-0.0084211513
32
0.0000000000
13
-0.0000000024
23
-0.0084211513
33
0.0000000000
40
0.0000000000
40
0.0000000000
40
0.0000000000
40
0.0000000000
40
0.5552522622
40
0.8890061159
40
1.0000000000
40
1.0000000000
40
1.0000000000
40
1.0000000000
10
-75.3868653330
20
-320.8328701603
30
0.0000000000
10
-75.3868653324
20
-320.8344287815
30
0.0000000000
10
-75.3868653344
20
-320.8369242665
30
0.0000000000
10
-75.3868653329
20
-320.8397313169
30
0.0000000000
10
-75.3868653329
20
-320.8409797462
30
0.0000000000
10
-75.3868653330
20
-320.8412913117
30
0.0000000000
11
-75.3868653330
21
-320.8328701603
31
0.0000000000
11
-75.3868653336
21
-320.8375460237
31
0.0000000000
11
-75.3868653330
21
-320.8403566154
31
0.0000000000
11
-75.3868653330
21
-320.8412913117
31
0.0000000000
0
SPLINE
5
3E2
100
AcDbEntity
8
0
100
AcDbSpline
62
9
6
CONTINUOUS
70
0
71
3
72
11
73
7
74
5
42
0.0000001000
43
0.0000001000
44
0.0000000001
12
0.2347482178
22
0.0766424207
32
0.0000000000
13
0.2489078788
23
0.0675589159
33
0.0000000000
40
0.0000000000
40
0.0000000000
40
0.0000000000
40
0.0000000000
40
0.3504046771
40
0.6666687971
40
0.9304468631
40
1.0000000000
40
1.0000000000
40
1.0000000000
40
1.0000000000
10
-75.6920104518
20
-320.9165126548
30
0.0000000000
10
-75.6645914940
20
-320.9075607005
30
0.0000000000
10
-75.6124900967
20
-320.8909079510
30
0.0000000000
10
-75.5386074581
20
-320.8681949691
30
0.0000000000
10
-75.4887230115
20
-320.8540649666
30
0.0000000000
10
-75.4606618317
20
-320.8461976563
30
0.0000000000
10
-75.4548910571
20
-320.8446313448
30
0.0000000000
11
-75.6920104518
21
-320.9165126548
31
0.0000000000
11
-75.6095910500
21
-320.8901598028
31
0.0000000000
11
-75.5348902644
21
-320.8673722309
31
0.0000000000
11
-75.4722650999
21
-320.8494540038
31
0.0000000000
11
-75.4548910571
21
-320.8446313448
31
0.0000000000
0
SPLINE
5
3E3
100
AcDbEntity
8
0
100
AcDbSpline
62
9
6
CONTINUOUS
70
0
71
3
72
10
73
6
74
4
42
0.0000001000
43
0.0000001000
44
0.0000000001
12
0.0708811429
22
0.0192386565
32
0.0000000000
13
-0.0003549073
23
-0.0703206776
33
0.0000000000
40
0.0000000000
40
0.0000000000
40
0.0000000000
40
0.0000000000
40
0.4410278012
40
0.8596420268
40
1.0000000000
40
1.0000000000
40
1.0000000000
40
1.0000000000
10
-75.4548910571
20
-320.8446313448
30
0.0000000000
10
-75.4444708722
20
-320.8418030840
30
0.0000000000
10
-75.4246970394
20
-320.8367687697
30
0.0000000000
10
-75.4079017292
20
-320.8346550103
30
0.0000000000
10
-75.3868487284
20
-320.8295801377
30
0.0000000000
10
-75.3868653330
20
-320.8328701603
30
0.0000000000
11
-75.4548910571
21
-320.8446313448
31
0.0000000000
11
-75.4255859113
21
-320.8374843073
31
0.0000000000
11
-75.3966860635
21
-320.8318832598
31
0.0000000000
11
-75.3868653330
21
-320.8328701603
31
0.0000000000
0
SPLINE
5
3E4
100
AcDbEntity
8
0
100
AcDbSpline
62
9
6
CONTINUOUS
70
0
71
3
72
12
73
8
74
6
42
0.0000001000
43
0.0000001000
44
0.0000000001
12
1.1394044272
22
0.1385317330
32
0.0000000000
13
1.0911181987
23
0.3562226359
33
0.0000000000
40
0.0000000000
40
0.0000000000
40
0.0000000000
40
0.0000000000
40
0.1736997740
40
0.3668447149
40
0.5660151312
40
0.7736035241
40
1.0000000000
40
1.0000000000
40
1.0000000000
40
1.0000000000
10
-76.8108758871
20
-321.1646895739
30
0.0000000000
10
-76.7449044566
20
-321.1566685970
30
0.0000000000
10
-76.6058517730
20
-321.1373727074
30
0.0000000000
10
-76.3925008009
20
-321.0999634755
30
0.0000000000
10
-76.1680472812
20
-321.0517133605
30
0.0000000000
10
-75.9333535929
20
-320.9914570982
30
0.0000000000
10
-75.7743522234
20
-320.9433951712
30
0.0000000000
10
-75.6920104518
20
-320.9165126548
30
0.0000000000
11
-76.8108758871
21
-321.1646895739
31
0.0000000000
11
-76.6133964598
21
-321.1372857937
31
0.0000000000
11
-76.3950369217
21
-321.0989983731
31
0.0000000000
11
-76.1715358579
21
-321.0509530588
31
0.0000000000
11
-75.9407520004
21
-320.9917002566
31
0.0000000000
11
-75.6920104518
21
-320.9165126548
31
0.0000000000
0
SPLINE
5
3E5
100
AcDbEntity
8
0
100
AcDbSpline
62
9
6
CONTINUOUS
70
0
71
3
72
14
73
10
74
8
42
0.0000001000
43
0.0000001000
44
0.0000000001
12
0.0001275271
22
-0.1030417226
32
0.0000000000
13
0.1022885817
23
0.0124361939
33
0.0000000000
40
0.0000000000
40
0.0000000000
40
0.0000000000
40
0.0000000000
40
0.0475695937
40
0.1569696759
40
0.3115077117
40
0.4870765621
40
0.6663493256
40
0.8385288923
40
1.0000000000
40
1.0000000000
40
1.0000000000
40
1.0000000000
10
-76.9125909267
20
-321.1646895739
30
0.0000000000
10
-76.9125889046
20
-321.1663234582
30
0.0000000000
10
-76.9057903662
20
-321.1687724016
30
0.0000000000
10
-76.8964118153
20
-321.1694872144
30
0.0000000000
10
-76.8807241490
20
-321.1700062458
30
0.0000000000
10
-76.8634282986
20
-321.1693826426
30
0.0000000000
10
-76.8453069648
20
-321.1682265936
30
0.0000000000
10
-76.8277743652
20
-321.1666307640
30
0.0000000000
10
-76.8163814373
20
-321.1653589359
30
0.0000000000
10
-76.8108758871
20
-321.1646895739
30
0.0000000000
11
-76.9125909267
21
-321.1646895739
31
0.0000000000
11
-76.9086586672
21
-321.1676159322
31
0.0000000000
11
-76.8975174454
21
-321.1693331336
31
0.0000000000
11
-76.8816006320
21
-321.1698074038
31
0.0000000000
11
-76.8635167353
21
-321.1693029747
31
0.0000000000
11
-76.8450816090
21
-321.1681271157
31
0.0000000000
11
-76.8274114801
21
-321.1665351960
31
0.0000000000
11
-76.8108758871
21
-321.1646895739
31
0.0000000000
0
SPLINE
5
3E6
100
AcDbEntity
8
0
100
AcDbSpline
62
9
6
CONTINUOUS
70
0
71
3
72
12
73
8
74
6
42
0.0000001000
43
0.0000001000
44
0.0000000001
12
0.0000000955
22
-0.2481769191
32
0.0000000000
13
-0.0000000361
23
-0.2481769191
33
0.0000000000
40
0.0000000000
40
0.0000000000
40
0.0000000000
40
0.0000000000
40
0.3245288541
40
0.5733868835
40
0.7612770168
40
0.8998605882
40
1.0000000000
40
1.0000000000
40
1.0000000000
40
1.0000000000
10
-76.9125909267
20
-320.9165126548
30
0.0000000000
10
-76.9125909164
20
-320.9433595118
30
0.0000000000
10
-76.9125909358
20
-320.9907933086
30
0.0000000000
10
-76.9125909250
20
-321.0537704368
30
0.0000000000
10
-76.9125909257
20
-321.1013651225
30
0.0000000000
10
-76.9125909280
20
-321.1366569655
30
0.0000000000
10
-76.9125909255
20
-321.1564054770
30
0.0000000000
10
-76.9125909267
20
-321.1646895739
30
0.0000000000
11
-76.9125909267
21
-320.9165126548
31
0.0000000000
11
-76.9125909295
21
-320.9970532259
31
0.0000000000
11
-76.9125909263
21
-321.0588140450
31
0.0000000000
11
-76.9125909262
21
-321.1054440394
31
0.0000000000
11
-76.9125909269
21
-321.1398372832
31
0.0000000000
11
-76.9125909267
21
-321.1646895739
31
0.0000000000
0
SPLINE
5
3E7
100
AcDbEntity
8
0
100
AcDbSpline
62
9
6
CONTINUOUS
70
0
71
3
72
8
73
4
74
2
42
0.0000001000
43
0.0000001000
44
0.0000000001
12
0.0259648526
22
0.0014341561
32
0.0000000000
13
0.0260031346
23
0.0007031723
33
0.0000000000
40
0.0000000000
40
0.0000000000
40
0.0000000000
40
0.0000000000
40
1.0000000000
40
1.0000000000
40
1.0000000000
40
1.0000000000
10
-77.2177360454
20
-320.8328701603
30
0.0000000000
10
-77.2090810946
20
-320.8323921083
30
0.0000000000
10
-77.2004175386
20
-320.8320334779
30
0.0000000000
10
-77.1917498270
20
-320.8317990872
30
0.0000000000
11
-77.2177360454
21
-320.8328701603
31
0.0000000000
11
-77.1917498270
21
-320.8317990872
31
0.0000000000
0
SPLINE
5
3E8
100
AcDbEntity
8
0
100
AcDbSpline
62
9
6
CONTINUOUS
70
0
71
3
72
10
73
6
74
4
42
0.0000001000
43
0.0000001000
44
0.0000000001
12
0.1456857917
22
0.0039396099
32
0.0000000000
13
0.1438195669
23
-0.0241745223
33
0.0000000000
40
0.0000000000
40
0.0000000000
40
0.0000000000
40
0.0000000000
40
0.3486430920
40
0.8460685313
40
1.0000000000
40
1.0000000000
40
1.0000000000
40
1.0000000000
10
-77.1917498270
20
-320.8317990872
30
0.0000000000
10
-77.1748190454
20
-320.8313412479
30
0.0000000000
10
-77.1336938474
20
-320.8313805372
30
0.0000000000
10
-77.0852069020
20
-320.8349764122
30
0.0000000000
10
-77.0538635920
20
-320.8395653036
30
0.0000000000
10
-77.0464841396
20
-320.8408057102
30
0.0000000000
11
-77.1917498270
21
-320.8317990872
31
0.0000000000
11
-77.1409430780
21
-320.8318835646
31
0.0000000000
11
-77.0686913117
21
-320.8375218464
31
0.0000000000
11
-77.0464841396
21
-320.8408057102
31
0.0000000000
0
SPLINE
5
3E9
100
AcDbEntity
8
0
100
AcDbSpline
62
9
6
CONTINUOUS
70
0
71
3
72
8
73
4
74
2
42
0.0000001000
43
0.0000001000
44
0.0000000001
12
0.0237336029
22
-0.0039893634
32
0.0000000000
13
0.0234891810
23
-0.0051773087
33
0.0000000000
40
0.0000000000
40
0.0000000000
40
0.0000000000
40
0.0000000000
40
1.0000000000
40
1.0000000000
40
1.0000000000
40
1.0000000000
10
-77.0464841396
20
-320.8408057102
30
0.0000000000
10
-77.0385729386
20
-320.8421354980
30
0.0000000000
10
-77.0306936121
20
-320.8436445089
30
0.0000000000
10
-77.0228638851
20
-320.8453702785
30
0.0000000000
11
-77.0464841396
21
-320.8408057102
31
0.0000000000
11
-77.0228638851
21
-320.8453702785
31
0.0000000000
0
SPLINE
5
3EA
100
AcDbEntity
8
0
100
AcDbSpline
62
9
6
CONTINUOUS
70
0
71
3
72
8
73
4
74
2
42
0.0000001000
43
0.0000001000
44
0.0000000001
12
0.0172327122
22
-0.0037983049
32
0.0000000000
13
0.0170515376
23
-0.0045427719
33
0.0000000000
40
0.0000000000
40
0.0000000000
40
0.0000000000
40
0.0000000000
40
1.0000000000
40
1.0000000000
40
1.0000000000
40
1.0000000000
10
-77.0228638851
20
-320.8453702785
30
0.0000000000
10
-77.0171196477
20
-320.8466363801
30
0.0000000000
10
-77.0114021065
20
-320.8480191487
30
0.0000000000
10
-77.0057182606
20
-320.8495334060
30
0.0000000000
11
-77.0228638851
21
-320.8453702785
31
0.0000000000
11
-77.0057182606
21
-320.8495334060
31
0.0000000000
0
SPLINE
5
3EB
100
AcDbEntity
8
0
100
AcDbSpline
62
9
6
CONTINUOUS
70
0
71
3
72
10
73
6
74
4
42
0.0000001000
43
0.0000001000
44
0.0000000001
12
0.1168063314
22
-0.0311188667
32
0.0000000000
13
-0.0000729979
23
-0.1208295183
33
0.0000000000
40
0.0000000000
40
0.0000000000
40
0.0000000000
40
0.0000000000
40
0.4363905819
40
0.7617294484
40
1.0000000000
40
1.0000000000
40
1.0000000000
40
1.0000000000
10
-77.0057182606
20
-320.8495334060
30
0.0000000000
10
-76.9887271996
20
-320.8540600661
30
0.0000000000
10
-76.9595945211
20
-320.8640124737
30
0.0000000000
10
-76.9243888487
20
-320.8848092968
30
0.0000000000
10
-76.9125851290
20
-320.9069159494
30
0.0000000000
10
-76.9125909267
20
-320.9165126548
30
0.0000000000
11
-77.0057182606
21
-320.8495334060
31
0.0000000000
11
-76.9561072589
21
-320.8673962893
31
0.0000000000
11
-76.9240020522
21
-320.8900805286
31
0.0000000000
11
-76.9125909267
21
-320.9165126548
31
0.0000000000
0
SPLINE
5
3EC
100
AcDbEntity
8
0
100
AcDbSpline
62
9
6
CONTINUOUS
70
0
71
3
72
10
73
6
74
4
42
0.0000001000
43
0.0000001000
44
0.0000000001
12
0.6096363370
22
-0.0336737673
32
0.0000000000
13
0.6096363343
23
0.0336738160
33
0.0000000000
40
0.0000000000
40
0.0000000000
40
0.0000000000
40
0.0000000000
40
0.3328661760
40
0.6669943864
40
1.0000000000
40
1.0000000000
40
1.0000000000
40
1.0000000000
10
-77.8280262829
20
-320.8328701603
30
0.0000000000
10
-77.7603838442
20
-320.8366064464
30
0.0000000000
10
-77.6246912965
20
-320.8416040347
30
0.0000000000
10
-77.4211278055
20
-320.8416055957
30
0.0000000000
10
-77.2854068193
20
-320.8366080169
30
0.0000000000
10
-77.2177360454
20
-320.8328701603
30
0.0000000000
11
-77.8280262829
21
-320.8328701603
31
0.0000000000
11
-77.6249273323
21
-320.8403501644
31
0.0000000000
11
-77.4209201318
21
-320.8403517333
31
0.0000000000
11
-77.2177360454
21
-320.8328701603
31
0.0000000000
0
SPLINE
5
3ED
100
AcDbEntity
8
0
100
AcDbSpline
62
9
6
CONTINUOUS
70
0
71
3
72
11
73
7
74
5
42
0.0000001000
43
0.0000001000
44
0.0000000001
12
0.0000256699
22
0.1384612527
32
0.0000000000
13
0.1352723955
23
0.0298191917
33
0.0000000000
40
0.0000000000
40
0.0000000000
40
0.0000000000
40
0.0000000000
40
0.2091032557
40
0.4931166190
40
0.8736295673
40
1.0000000000
40
1.0000000000
40
1.0000000000
40
1.0000000000
10
-78.1331714016
20
-320.9165126548
30
0.0000000000
10
-78.1331696124
20
-320.9068617552
30
0.0000000000
10
-78.1212804476
20
-320.8847129337
30
0.0000000000
10
-78.0860155389
20
-320.8639527460
30
0.0000000000
10
-78.0513476620
20
-320.8521251879
30
0.0000000000
10
-78.0285971709
20
-320.8466261546
30
0.0000000000
10
-78.0228990272
20
-320.8453700666
30
0.0000000000
11
-78.1331714016
21
-320.9165126548
31
0.0000000000
11
-78.1216451697
21
-320.8899531975
31
0.0000000000
11
-78.0894899167
21
-320.8673151040
31
0.0000000000
11
-78.0399078979
21
-320.8494974257
31
0.0000000000
11
-78.0228990272
21
-320.8453700666
31
0.0000000000
0
SPLINE
5
3EE
100
AcDbEntity
8
0
100
AcDbSpline
62
9
6
CONTINUOUS
70
0
71
3
72
8
73
4
74
2
42
0.0000001000
43
0.0000001000
44
0.0000000001
12
0.0042859530
22
0.0009447874
32
0.0000000000
13
0.0042955310
23
0.0009021475
33
0.0000000000
40
0.0000000000
40
0.0000000000
40
0.0000000000
40
0.0000000000
40
1.0000000000
40
1.0000000000
40
1.0000000000
40
1.0000000000
10
-78.0228990272
20
-320.8453700666
30
0.0000000000
10
-78.0214703761
20
-320.8450551374
30
0.0000000000
10
-78.0200400751
20
-320.8447474291
30
0.0000000000
10
-78.0186082314
20
-320.8444467133
30
0.0000000000
11
-78.0228990272
21
-320.8453700666
31
0.0000000000
11
-78.0186082314
21
-320.8444467133
31
0.0000000000
0
SPLINE
5
3EF
100
AcDbEntity
8
0
100
AcDbSpline
62
9
6
CONTINUOUS
70
0
71
3
72
8
73
4
74
2
42
0.0000001000
43
0.0000001000
44
0.0000000001
12
0.0193422573
22
0.0040622611
32
0.0000000000
13
0.0195005064
23
0.0032741333
33
0.0000000000
40
0.0000000000
40
0.0000000000
40
0.0000000000
40
0.0000000000
40
1.0000000000
40
1.0000000000
40
1.0000000000
40
1.0000000000
10
-78.0186082314
20
-320.8444467133
30
0.0000000000
10
-78.0121608124
20
-320.8430926263
30
0.0000000000
10
-78.0056821153
20
-320.8418803182
30
0.0000000000
10
-77.9991819465
20
-320.8407889405
30
0.0000000000
11
-78.0186082314
21
-320.8444467133
31
0.0000000000
11
-77.9991819465
21
-320.8407889405
31
0.0000000000
0
SPLINE
5
3F0
100
AcDbEntity
8
0
100
AcDbSpline
62
9
6
CONTINUOUS
70
0
71
3
72
10
73
6
74
4
42
0.0000001000
43
0.0000001000
44
0.0000000001
12
0.1436554342
22
0.0241197344
32
0.0000000000
13
0.1455167566
23
-0.0039235326
33
0.0000000000
40
0.0000000000
40
0.0000000000
40
0.0000000000
40
0.0000000000
40
0.1538736103
40
0.6506453984
40
1.0000000000
40
1.0000000000
40
1.0000000000
40
1.0000000000
10
-77.9991819465
20
-320.8407889405
30
0.0000000000
10
-77.9918136864
20
-320.8395518103
30
0.0000000000
10
-77.9605407758
20
-320.8349777251
30
0.0000000000
10
-77.9121106664
20
-320.8313832090
30
0.0000000000
10
-77.8710304889
20
-320.8313406685
30
0.0000000000
10
-77.8540848394
20
-320.8317975699
30
0.0000000000
11
-77.9991819465
21
-320.8407889405
31
0.0000000000
11
-77.9770086802
21
-320.8375133451
31
0.0000000000
11
-77.9049360130
21
-320.8318870325
31
0.0000000000
11
-77.8540848394
21
-320.8317975699
31
0.0000000000
0
SPLINE
5
3F1
100
AcDbEntity
8
0
100
AcDbSpline
62
9
6
CONTINUOUS
70
0
71
3
72
8
73
4
74
2
42
0.0000001000
43
0.0000001000
44
0.0000000001
12
0.0260755307
22
-0.0007030681
32
0.0000000000
13
0.0260370964
23
-0.0014371509
33
0.0000000000
40
0.0000000000
40
0.0000000000
40
0.0000000000
40
0.0000000000
40
1.0000000000
40
1.0000000000
40
1.0000000000
40
1.0000000000
10
-77.8540848394
20
-320.8317975699
30
0.0000000000
10
-77.8453929958
20
-320.8320319259
30
0.0000000000
10
-77.8367053150
20
-320.8323911100
30
0.0000000000
10
-77.8280262829
20
-320.8328701603
30
0.0000000000
11
-77.8540848394
21
-320.8317975699
31
0.0000000000
11
-77.8280262829
21
-320.8328701603
31
0.0000000000
0
SPLINE
5
3F2
100
AcDbEntity
8
0
100
AcDbSpline
62
9
6
CONTINUOUS
70
0
71
3
72
12
73
8
74
6
42
0.0000001000
43
0.0000001000
44
0.0000000001
12
-0.0000000402
22
0.2481769191
32
0.0000000000
13
0.0000000830
23
0.2481769191
33
0.0000000000
40
0.0000000000
40
0.0000000000
40
0.0000000000
40
0.0000000000
40
0.1005484461
40
0.2392339420
40
0.4272491127
40
0.6764381929
40
1.0000000000
40
1.0000000000
40
1.0000000000
40
1.0000000000
10
-78.1331714016
20
-321.1646895739
30
0.0000000000
10
-78.1331714030
20
-321.1563716394
30
0.0000000000
10
-78.1331713999
20
-321.1365808585
30
0.0000000000
10
-78.1331714048
20
-321.1012364023
30
0.0000000000
10
-78.1331714007
20
-321.0535955546
30
0.0000000000
10
-78.1331713965
20
-320.9906606958
30
0.0000000000
10
-78.1331714106
20
-320.9432795122
30
0.0000000000
10
-78.1331714016
20
-320.9165126548
30
0.0000000000
11
-78.1331714016
21
-321.1646895739
31
0.0000000000
11
-78.1331714014
21
-321.1397357703
31
0.0000000000
11
-78.1331714031
21
-321.1053172312
31
0.0000000000
11
-78.1331714013
21
-321.0586562054
31
0.0000000000
11
-78.1331714002
21
-320.9968132272
31
0.0000000000
11
-78.1331714016
21
-320.9165126548
31
0.0000000000
0
SPLINE
5
3F3
100
AcDbEntity
8
0
100
AcDbSpline
62
9
6
CONTINUOUS
70
0
71
3
72
14
73
10
74
8
42
0.0000001000
43
0.0000001000
44
0.0000000001
12
0.1022860762
22
-0.0124369244
32
0.0000000000
13
-0.0002474778
23
0.1030391053
33
0.0000000000
40
0.0000000000
40
0.0000000000
40
0.0000000000
40
0.0000000000
40
0.1614060718
40
0.3347621391
40
0.5142394507
40
0.6893348921
40
0.8429827303
40
0.9520038950
40
1.0000000000
40
1.0000000000
40
1.0000000000
40
1.0000000000
10
-78.2348864412
20
-321.1646895739
30
0.0000000000
10
-78.2293832433
20
-321.1653587056
30
0.0000000000
10
-78.2179525802
20
-321.1666347566
30
0.0000000000
10
-78.2003755900
20
-321.1682333856
30
0.0000000000
10
-78.1822222914
20
-321.1693884746
30
0.0000000000
10
-78.1649689966
20
-321.1700040708
30
0.0000000000
10
-78.1493359990
20
-321.1694901686
30
0.0000000000
10
-78.1400029552
20
-321.1687649194
30
0.0000000000
10
-78.1331674423
20
-321.1663380658
30
0.0000000000
10
-78.1331714016
20
-321.1646895739
30
0.0000000000
11
-78.2348864412
21
-321.1646895739
31
0.0000000000
11
-78.2183579020
21
-321.1665344895
31
0.0000000000
11
-78.2005673289
21
-321.1681359311
31
0.0000000000
11
-78.1821113579
21
-321.1693093323
31
0.0000000000
11
-78.1640765102
21
-321.1698076072
31
0.0000000000
11
-78.1482518301
21
-321.1693334719
31
0.0000000000
11
-78.1371483860
21
-321.1676292110
31
0.0000000000
11
-78.1331714016
21
-321.1646895739
31
0.0000000000
0
SPLINE
5
3F4
100
AcDbEntity
8
0
100
AcDbSpline
62
9
6
CONTINUOUS
70
0
71
3
72
10
73
6
74
4
42
0.0000001000
43
0.0000001000
44
0.0000000001
12
0.0000000011
22
0.0084211513
32
0.0000000000
13
0.0000000040
23
0.0084211513
33
0.0000000000
40
0.0000000000
40
0.0000000000
40
0.0000000000
40
0.0000000000
40
0.1109954972
40
0.4447521893
40
1.0000000000
40
1.0000000000
40
1.0000000000
40
1.0000000000
10
-79.6588969953
20
-320.8412913117
30
0.0000000000
10
-79.6588969953
20
-320.8409797417
30
0.0000000000
10
-79.6588969951
20
-320.8397312999
30
0.0000000000
10
-79.6588969945
20
-320.8369242494
30
0.0000000000
10
-79.6588969960
20
-320.8344287690
30
0.0000000000
10
-79.6588969953
20
-320.8328701603
30
0.0000000000
11
-79.6588969953
21
-320.8412913117
31
0.0000000000
11
-79.6588969952
21
-320.8403566018
31
0.0000000000
11
-79.6588969949
21
-320.8375459862
31
0.0000000000
11
-79.6588969953
21
-320.8328701603
31
0.0000000000
0
SPLINE
5
3F5
100
AcDbEntity
8
0
100
AcDbSpline
62
9
6
CONTINUOUS
70
0
71
3
72
12
73
8
74
6
42
0.0000001000
43
0.0000001000
44
0.0000000001
12
1.0911187217
22
-0.3562227291
32
0.0000000000
13
1.1394049461
23
-0.1385318241
33
0.0000000000
40
0.0000000000
40
0.0000000000
40
0.0000000000
40
0.0000000000
40
0.2220767843
40
0.4263822369
40
0.6251590283
40
0.8222368415
40
1.0000000000
40
1.0000000000
40
1.0000000000
40
1.0000000000
10
-79.3537518766
20
-320.9165126548
30
0.0000000000
10
-79.2729811642
20
-320.9428822542
30
0.0000000000
10
-79.1167873187
20
-320.9901671991
30
0.0000000000
10
-78.8851285703
20
-321.0499308209
30
0.0000000000
10
-78.6606528990
20
-321.0985422818
30
0.0000000000
10
-78.4444785766
20
-321.1367080937
30
0.0000000000
10
-78.3024011819
20
-321.1564809557
30
0.0000000000
10
-78.2348864412
20
-321.1646895739
30
0.0000000000
11
-79.3537518766
21
-320.9165126548
31
0.0000000000
11
-79.1097872778
21
-320.9903682454
31
0.0000000000
11
-78.8827208880
21
-321.0489474632
31
0.0000000000
11
-78.6597344676
21
-321.0972363482
31
0.0000000000
11
-78.4369745231
21
-321.1365648200
31
0.0000000000
11
-78.2348864412
21
-321.1646895739
31
0.0000000000
0
SPLINE
5
3F6
100
AcDbEntity
8
0
100
AcDbSpline
62
9
6
CONTINUOUS
70
0
71
3
72
10
73
6
74
4
42
0.0000001000
43
0.0000001000
44
0.0000000001
12
-0.0000305523
22
0.0705416368
32
0.0000000000
13
0.0710873922
23
-0.0193144344
33
0.0000000000
40
0.0000000000
40
0.0000000000
40
0.0000000000
40
0.0000000000
40
0.1406318942
40
0.5591741542
40
1.0000000000
40
1.0000000000
40
1.0000000000
40
1.0000000000
10
-79.6588969953
20
-320.8328701603
30
0.0000000000
10
-79.6588984275
20
-320.8295633590
30
0.0000000000
10
-79.6378035327
20
-320.8346829921
30
0.0000000000
10
-79.6209291267
20
-320.8367949445
30
0.0000000000
10
-79.6011008828
20
-320.8418472368
30
0.0000000000
10
-79.5906551629
20
-320.8446853375
30
0.0000000000
11
-79.6588969953
21
-320.8328701603
31
0.0000000000
11
-79.6490251901
21
-320.8318893978
31
0.0000000000
11
-79.6200415882
21
-320.8375157912
31
0.0000000000
11
-79.5906551629
21
-320.8446853375
31
0.0000000000
0
SPLINE
5
3F7
100
AcDbEntity
8
0
100
AcDbSpline
62
9
6
CONTINUOUS
70
0
71
3
72
11
73
7
74
5
42
0.0000001000
43
0.0000001000
44
0.0000000001
12
0.2486304027
22
-0.0675528451
32
0.0000000000
13
0.2345404016
23
-0.0765660645
33
0.0000000000
40
0.0000000000
40
0.0000000000
40
0.0000000000
40
0.0000000000
40
0.0697732047
40
0.3340318270
40
0.6507837916
40
1.0000000000
40
1.0000000000
40
1.0000000000
40
1.0000000000
10
-79.5906551629
20
-320.8446853375
30
0.0000000000
10
-79.5848725829
20
-320.8462564636
30
0.0000000000
10
-79.5567863357
20
-320.8541396369
30
0.0000000000
10
-79.5068487661
20
-320.8682845401
30
0.0000000000
10
-79.4330541317
20
-320.8909771558
30
0.0000000000
10
-79.3810536465
20
-320.9075999512
30
0.0000000000
10
-79.3537518766
20
-320.9165126548
30
0.0000000000
11
-79.5906551629
21
-320.8446853375
31
0.0000000000
11
-79.5732462583
21
-320.8495225886
31
0.0000000000
11
-79.5105648925
21
-320.8674632414
31
0.0000000000
11
-79.4358174066
21
-320.8902704155
31
0.0000000000
11
-79.3537518766
21
-320.9165126548
31
0.0000000000
0
SPLINE
5
3F8
100
AcDbEntity
8
0
100
AcDbSpline
62
9
6
CONTINUOUS
70
0
71
3
72
9
73
5
74
3
42
0.0000001000
43
0.0000001000
44
0.0000000001
12
0.0385583277
22
-0.0148674323
32
0.0000000000
13
0.0415816152
23
0.0019562143
33
0.0000000000
40
0.0000000000
40
0.0000000000
40
0.0000000000
40
0.0000000000
40
0.9326375344
40
1.0000000000
40
1.0000000000
40
1.0000000000
40
1.0000000000
10
-79.6588939242
20
-320.8328622197
30
0.0000000000
10
-79.6469069429
20
-320.8374841948
30
0.0000000000
10
-79.6329392929
20
-320.8399554099
30
0.0000000000
10
-79.6190672232
20
-320.8394993127
30
0.0000000000
10
-79.6181335432
20
-320.8394553876
30
0.0000000000
11
-79.6588939242
21
-320.8328622197
31
0.0000000000
11
-79.6209365706
21
-320.8395474771
31
0.0000000000
11
-79.6181335432
21
-320.8394553876
31
0.0000000000
0
SPLINE
5
3F9
100
AcDbEntity
8
0
100
AcDbSpline
62
9
6
CONTINUOUS
70
0
71
3
72
11
73
7
74
5
42
0.0000001000
43
0.0000001000
44
0.0000000001
12
0.1364282044
22
-0.0140105337
32
0.0000000000
13
0.0395342535
23
0.1327328489
33
0.0000000000
40
0.0000000000
40
0.0000000000
40
0.0000000000
40
0.0000000000
40
0.3028818956
40
0.6052345461
40
0.9066924769
40
1.0000000000
40
1.0000000000
40
1.0000000000
40
1.0000000000
10
-78.1331714002
20
-321.1646895601
30
0.0000000000
10
-78.1193975225
20
-321.1661040724
30
0.0000000000
10
-78.0909376029
20
-321.1631314732
30
0.0000000000
10
-78.0539859596
20
-321.1418776160
30
0.0000000000
10
-78.0345904046
20
-321.1154425857
30
0.0000000000
10
-78.0282557581
20
-321.0983077304
30
0.0000000000
10
-78.0270261437
20
-321.0941794060
30
0.0000000000
11
-78.1331714002
21
-321.1646895601
31
0.0000000000
11
-78.0918628738
21
-321.1603202793
31
0.0000000000
11
-78.0559073820
21
-321.1396644628
31
0.0000000000
11
-78.0315100058
21
-321.1062868236
31
0.0000000000
11
-78.0270261437
21
-321.0941794060
31
0.0000000000
0
SPLINE
5
3FA
100
AcDbEntity
8
0
100
AcDbSpline
62
9
6
CONTINUOUS
70
0
71
3
72
8
73
4
74
2
42
0.0000001000
43
0.0000001000
44
0.0000000001
12
0.0033860998
22
0.0113685382
32
0.0000000000
13
0.0020145149
23
0.0116653788
33
0.0000000000
40
0.0000000000
40
0.0000000000
40
0.0000000000
40
0.0000000000
40
1.0000000000
40
1.0000000000
40
1.0000000000
40
1.0000000000
10
-78.0270261437
20
-321.0941794060
30
0.0000000000
10
-78.0258974438
20
-321.0903898933
30
0.0000000000
10
-78.0249942686
20
-321.0865344078
30
0.0000000000
10
-78.0243227636
20
-321.0826459482
30
0.0000000000
11
-78.0270261437
21
-321.0941794060
31
0.0000000000
11
-78.0243227636
21
-321.0826459482
31
0.0000000000
0
SPLINE
5
3FB
100
AcDbEntity
8
0
100
AcDbSpline
62
9
6
CONTINUOUS
70
0
71
3
72
8
73
4
74
2
42
0.0000001000
43
0.0000001000
44
0.0000000001
12
0.0006855855
22
0.0039699952
32
0.0000000000
13
0.0005238670
23
0.0039890075
33
0.0000000000
40
0.0000000000
40
0.0000000000
40
0.0000000000
40
0.0000000000
40
1.0000000000
40
1.0000000000
40
1.0000000000
40
1.0000000000
10
-78.0243227636
20
-321.0826459482
30
0.0000000000
10
-78.0240942351
20
-321.0813226165
30
0.0000000000
10
-78.0238925386
20
-321.0799954657
30
0.0000000000
10
-78.0237179162
20
-321.0786657965
30
0.0000000000
11
-78.0243227636
21
-321.0826459482
31
0.0000000000
11
-78.0237179162
21
-321.0786657965
31
0.0000000000
0
SPLINE
5
3FC
100
AcDbEntity
8
0
100
AcDbSpline
62
9
6
CONTINUOUS
70
0
71
3
72
8
73
4
74
2
42
0.0000001000
43
0.0000001000
44
0.0000000001
12
0.0016657154
22
0.0126836605
32
0.0000000000
13
0.0000000018
23
0.0127109900
33
0.0000000000
40
0.0000000000
40
0.0000000000
40
0.0000000000
40
0.0000000000
40
1.0000000000
40
1.0000000000
40
1.0000000000
40
1.0000000000
10
-78.0237179162
20
-321.0786657965
30
0.0000000000
10
-78.0231626778
20
-321.0744379097
30
0.0000000000
10
-78.0228811648
20
-321.0701845616
30
0.0000000000
10
-78.0228811642
20
-321.0659475649
30
0.0000000000
11
-78.0237179162
21
-321.0786657965
31
0.0000000000
11
-78.0228811642
21
-321.0659475649
31
0.0000000000
0
SPLINE
5
3FD
100
AcDbEntity
8
0
100
AcDbSpline
62
9
6
CONTINUOUS
70
0
71
3
72
10
73
6
74
4
42
0.0000001000
43
0.0000001000
44
0.0000000001
12
0.1210365973
22
-0.0119148569
32
0.0000000000
13
0.0533106822
23
0.1105467502
33
0.0000000000
40
0.0000000000
40
0.0000000000
40
0.0000000000
40
0.0000000000
40
0.3413955304
40
0.6788235121
40
1.0000000000
40
1.0000000000
40
1.0000000000
40
1.0000000000
10
-78.1331709231
20
-320.9165082614
30
0.0000000000
10
-78.1193971386
20
-320.9178641543
30
0.0000000000
10
-78.0911560140
20
-320.9150629023
30
0.0000000000
10
-78.0546195217
20
-320.8951000372
30
0.0000000000
10
-78.0377084026
20
-320.8734688030
30
0.0000000000
10
-78.0320010234
20
-320.8616337974
30
0.0000000000
11
-78.1331709231
21
-320.9165082614
31
0.0000000000
11
-78.0918608558
21
-320.9123275198
31
0.0000000000
11
-78.0559030722
21
-320.8925487497
31
0.0000000000
11
-78.0320010234
21
-320.8616337974
31
0.0000000000
0
SPLINE
5
3FE
100
AcDbEntity
8
0
100
AcDbSpline
62
9
6
CONTINUOUS
70
0
71
3
72
10
73
6
74
4
42
0.0000001000
43
0.0000001000
44
0.0000000001
12
-0.1210105791
22
-0.0119005592
32
0.0000000000
13
-0.0533247757
23
0.1105085263
33
0.0000000000
40
0.0000000000
40
0.0000000000
40
0.0000000000
40
0.0000000000
40
0.3414622253
40
0.6789559621
40
1.0000000000
40
1.0000000000
40
1.0000000000
40
1.0000000000
10
-76.9125909339
20
-320.9165125883
30
0.0000000000
10
-76.9263644478
20
-320.9178671188
30
0.0000000000
10
-76.9546044119
20
-320.9150635785
30
0.0000000000
10
-76.9911313438
20
-320.8951029485
30
0.0000000000
10
-77.0080381545
20
-320.8734806765
30
0.0000000000
10
-77.0137446883
20
-320.8616546420
30
0.0000000000
11
-76.9125909339
21
-320.9165125883
31
0.0000000000
11
-76.9538994455
21
-320.9123284745
31
0.0000000000
11
-76.9898549276
21
-320.8925480394
31
0.0000000000
11
-77.0137446883
21
-320.8616546420
31
0.0000000000
0
SPLINE
5
3FF
100
AcDbEntity
8
0
100
AcDbSpline
62
9
6
CONTINUOUS
70
0
71
3
72
11
73
7
74
5
42
0.0000001000
43
0.0000001000
44
0.0000000001
12
-0.1647257712
22
-0.0169074676
32
0.0000000000
13
-0.0000024998
23
0.1655911898
33
0.0000000000
40
0.0000000000
40
0.0000000000
40
0.0000000000
40
0.0000000000
40
0.2508328946
40
0.5012304873
40
0.7508912799
40
1.0000000000
40
1.0000000000
40
1.0000000000
40
1.0000000000
10
-76.9125909369
20
-321.1646894764
30
0.0000000000
10
-76.9263638175
20
-321.1661031261
30
0.0000000000
10
-76.9548215218
20
-321.1631291427
30
0.0000000000
10
-76.9917696005
20
-321.1418747159
30
0.0000000000
10
-77.0169351782
20
-321.1075729145
30
0.0000000000
10
-77.0228714167
20
-321.0796976344
30
0.0000000000
10
-77.0228716243
20
-321.0659475646
30
0.0000000000
11
-76.9125909369
21
-321.1646894764
31
0.0000000000
11
-76.9538960024
21
-321.1603182771
31
0.0000000000
11
-76.9898480930
21
-321.1396620374
31
0.0000000000
11
-77.0142431998
21
-321.1062852649
31
0.0000000000
11
-77.0228716243
21
-321.0659475646
31
0.0000000000
0
SPLINE
5
400
100
AcDbEntity
8
0
100
AcDbSpline
62
9
6
CONTINUOUS
70
0
71
3
72
9
73
5
74
3
42
0.0000001000
43
0.0000001000
44
0.0000000001
12
-0.0385822683
22
-0.0148726601
32
0.0000000000
13
-0.0416051680
23
0.0019714101
33
0.0000000000
40
0.0000000000
40
0.0000000000
40
0.0000000000
40
0.0000000000
40
0.9320597385
40
1.0000000000
40
1.0000000000
40
1.0000000000
40
1.0000000000
10
-75.3868653350
20
-320.8328701554
30
0.0000000000
10
-75.3988523279
20
-320.8374908912
30
0.0000000000
10
-75.4128283441
20
-320.8399623975
30
0.0000000000
10
-75.4267084399
20
-320.8395031373
30
0.0000000000
10
-75.4276506619
20
-320.8394584912
30
0.0000000000
11
-75.3868653350
21
-320.8328701554
31
0.0000000000
11
-75.4248219625
21
-320.8395520137
31
0.0000000000
11
-75.4276506619
21
-320.8394584912
31
0.0000000000
0
SPLINE
5
401
100
AcDbEntity
8
0
100
AcDbSpline
62
7
6
CONTINUOUS
70
0
71
3
72
16
73
12
74
10
42
0.0000001000
43
0.0000001000
44
0.0000000001
12
-0.0289744044
22
0.2588793067
32
0.0000000000
13
-0.2571086795
23
-0.0312684163
33
0.0000000000
40
0.0000000000
40
0.0000000000
40
0.0000000000
40
0.0000000000
40
0.0950980898
40
0.2223386279
40
0.3380988178
40
0.4476222810
40
0.5468622451
40
0.6466093114
40
0.7654231273
40
0.9093720201
40
1.0000000000
40
1.0000000000
40
1.0000000000
40
1.0000000000
10
-78.0235197330
20
179.5985584206
30
0.0000000000
10
-78.0244382032
20
179.6067647298
30
0.0000000000
10
-78.0289159669
20
179.6257616664
30
0.0000000000
10
-78.0436357747
20
179.6515260379
30
0.0000000000
10
-78.0663576810
20
179.6724256813
30
0.0000000000
10
-78.0917264318
20
179.6850871712
30
0.0000000000
10
-78.1178713553
20
179.6910093035
30
0.0000000000
10
-78.1453098898
20
179.6927182932
30
0.0000000000
10
-78.1766155204
20
179.6920418519
30
0.0000000000
10
-78.2070479279
20
179.6897566947
30
0.0000000000
10
-78.2271836261
20
179.6875665115
30
0.0000000000
10
-78.2349507062
20
179.6866219137
30
0.0000000000
11
-78.0235197330
21
179.5985584206
31
0.0000000000
11
-78.0292203380
21
179.6226396209
31
0.0000000000
11
-78.0455292687
21
179.6512737066
31
0.0000000000
11
-78.0675756126
21
179.6715897162
31
0.0000000000
11
-78.0929080175
21
179.6843495613
31
0.0000000000
11
-78.1179072296
21
179.6903156509
31
0.0000000000
11
-78.1436645669
21
179.6922860153
31
0.0000000000
11
-78.1744318736
21
179.6918416019
31
0.0000000000
11
-78.2116152063
21
179.6891583489
31
0.0000000000
11
-78.2349507062
21
179.6866219137
31
0.0000000000
0
SPLINE
5
402
100
AcDbEntity
8
0
100
AcDbSpline
62
7
6
CONTINUOUS
70
0
71
3
72
17
73
13
74
11
42
0.0000001000
43
0.0000001000
44
0.0000000001
12
-0.2409615793
22
-0.0786737289
32
0.0000000000
13
-0.2508541122
23
-0.0616341786
33
0.0000000000
40
0.0000000000
40
0.0000000000
40
0.0000000000
40
0.0000000000
40
0.1257174119
40
0.2559316030
40
0.3801033766
40
0.4973284206
40
0.6067933816
40
0.7076507114
40
0.7992778858
40
0.8810031933
40
0.9522887015
40
1.0000000000
40
1.0000000000
40
1.0000000000
40
1.0000000000
10
-79.3539156070
20
179.4384179311
30
0.0000000000
10
-79.3640132957
20
179.4351210453
30
0.0000000000
10
-79.3845855822
20
179.4284575223
30
0.0000000000
10
-79.4151853858
20
179.4187054124
30
0.0000000000
10
-79.4451480272
20
179.4093176461
30
0.0000000000
10
-79.4734827479
20
179.4006015430
30
0.0000000000
10
-79.4999817709
20
179.3926110937
30
0.0000000000
10
-79.5244497600
20
179.3854060334
30
0.0000000000
10
-79.5467418826
20
179.3790200160
30
0.0000000000
10
-79.5665946463
20
179.3734903902
30
0.0000000000
10
-79.5831599628
20
179.3690982260
30
0.0000000000
10
-79.5925849648
20
179.3666510413
30
0.0000000000
10
-79.5965744900
20
179.3656708257
30
0.0000000000
11
-79.3539156070
21
179.4384179311
31
0.0000000000
11
-79.3842316518
21
179.4285980609
31
0.0000000000
11
-79.4156801655
21
179.4185766548
31
0.0000000000
11
-79.4457163401
21
179.4091690050
31
0.0000000000
11
-79.4741181530
21
179.4004358755
31
0.0000000000
11
-79.5006856624
21
179.3924314778
31
0.0000000000
11
-79.5252115815
21
179.3852160669
31
0.0000000000
11
-79.5475398766
21
179.3788226125
31
0.0000000000
11
-79.5675019601
21
179.3732859096
31
0.0000000000
11
-79.5849635284
21
179.3686386071
31
0.0000000000
11
-79.5965744900
21
179.3656708257
31
0.0000000000
0
SPLINE
5
403
100
AcDbEntity
8
0
100
AcDbSpline
62
7
6
CONTINUOUS
70
0
71
3
72
11
73
7
74
5
42
0.0000001000
43
0.0000001000
44
0.0000000001
12
-0.0254898087
22
-0.0062627772
32
0.0000000000
13
-0.0387715112
23
-0.0062176843
33
0.0000000000
40
0.0000000000
40
0.0000000000
40
0.0000000000
40
0.0000000000
40
0.1248469644
40
0.5993276583
40
0.9394943737
40
1.0000000000
40
1.0000000000
40
1.0000000000
40
1.0000000000
10
-79.5965744900
20
179.3656708257
30
0.0000000000
10
-79.5976352651
20
179.3654101962
30
0.0000000000
10
-79.6027989910
20
179.3641593747
30
0.0000000000
10
-79.6116176276
20
179.3621846544
30
0.0000000000
10
-79.6161107658
20
179.3609437979
30
0.0000000000
10
-79.6219563609
20
179.3600169551
30
0.0000000000
10
-79.6227383257
20
179.3598915535
30
0.0000000000
11
-79.5965744900
21
179.3656708257
31
0.0000000000
11
-79.5998066381
21
179.3648886883
31
0.0000000000
11
-79.6117031873
21
179.3620913735
31
0.0000000000
11
-79.6202772647
21
179.3602886999
31
0.0000000000
11
-79.6227383257
21
179.3598915535
31
0.0000000000
0
SPLINE
5
404
100
AcDbEntity
8
0
100
AcDbSpline
62
7
6
CONTINUOUS
70
0
71
3
72
10
73
6
74
4
42
0.0000001000
43
0.0000001000
44
0.0000000001
12
-1.1394054503
22
-0.1385357645
32
0.0000000000
13
-1.0911165306
23
-0.3562186596
33
0.0000000000
40
0.0000000000
40
0.0000000000
40
0.0000000000
40
0.0000000000
40
0.3242326341
40
0.6737101514
40
1.0000000000
40
1.0000000000
40
1.0000000000
40
1.0000000000
10
-78.2349505038
20
179.6866202440
30
0.0000000000
10
-78.3580946473
20
179.6716476387
30
0.0000000000
10
-78.6130636132
20
179.6324532557
30
0.0000000000
10
-78.9868422652
20
179.5496234889
30
0.0000000000
10
-79.2352431927
20
179.4771645103
30
0.0000000000
10
-79.3539166086
20
179.4384209995
30
0.0000000000
11
-78.2349505038
21
179.6866202440
31
0.0000000000
11
-78.6027798587
21
179.6300750563
31
0.0000000000
11
-78.9943896409
21
179.5432938447
31
0.0000000000
11
-79.3539166086
21
179.4384209995
31
0.0000000000
0
SPLINE
5
405
100
AcDbEntity
8
0
100
AcDbSpline
62
7
6
CONTINUOUS
70
0
71
3
72
8
73
4
74
2
42
0.0000001000
43
0.0000001000
44
0.0000000001
12
-0.0000045224
22
0.0112105483
32
0.0000000000
13
-0.0012537431
23
0.0111931650
33
0.0000000000
40
0.0000000000
40
0.0000000000
40
0.0000000000
40
0.0000000000
40
1.0000000000
40
1.0000000000
40
1.0000000000
40
1.0000000000
10
-78.0228911543
20
179.5873424130
30
0.0000000000
10
-78.0228926618
20
179.5910792624
30
0.0000000000
10
-78.0231045052
20
179.5948270642
30
0.0000000000
10
-78.0235224196
20
179.5985581192
30
0.0000000000
11
-78.0228911543
21
179.5873424130
31
0.0000000000
11
-78.0235224196
21
179.5985581192
31
0.0000000000
0
SPLINE
5
406
100
AcDbEntity
8
0
100
AcDbSpline
62
7
6
CONTINUOUS
70
0
71
3
72
13
73
9
74
7
42
0.0000001000
43
0.0000001000
44
0.0000000001
12
-0.0186732971
22
0.1667114088
32
0.0000000000
13
-0.1668252168
23
0.0043654261
33
0.0000000000
40
0.0000000000
40
0.0000000000
40
0.0000000000
40
0.0000000000
40
0.1475633507
40
0.3441968187
40
0.5230475999
40
0.6926499719
40
0.8460445029
40
1.0000000000
40
1.0000000000
40
1.0000000000
40
1.0000000000
10
-78.0235224196
20
179.5985581197
30
0.0000000000
10
-78.0244409177
20
179.6067582844
30
0.0000000000
10
-78.0289051600
20
179.6256967773
30
0.0000000000
10
-78.0435445722
20
179.6513759983
30
0.0000000000
10
-78.0661144495
20
179.6722439795
30
0.0000000000
10
-78.0913357902
20
179.6849411806
30
0.0000000000
10
-78.1173459185
20
179.6909345654
30
0.0000000000
10
-78.1344341562
20
179.6920447440
30
0.0000000000
10
-78.1429953759
20
179.6922687712
30
0.0000000000
11
-78.0235224196
21
179.5985581197
31
0.0000000000
11
-78.0292188451
21
179.6226218740
31
0.0000000000
11
-78.0454239110
21
179.6511357446
31
0.0000000000
11
-78.0673098943
21
179.6714062298
31
0.0000000000
11
-78.0925312460
21
179.6842171280
31
0.0000000000
11
-78.1173968303
21
179.6902420298
31
0.0000000000
11
-78.1429953759
21
179.6922687712
31
0.0000000000
0
SPLINE
5
407
100
AcDbEntity
8
0
100
AcDbSpline
62
7
6
CONTINUOUS
70
0
71
3
72
8
73
4
74
2
42
0.0000001000
43
0.0000001000
44
0.0000000001
12
-0.0304850193
22
0.0007977217
32
0.0000000000
13
-0.0304535634
23
-0.0013443544
33
0.0000000000
40
0.0000000000
40
0.0000000000
40
0.0000000000
40
0.0000000000
40
1.0000000000
40
1.0000000000
40
1.0000000000
40
1.0000000000
10
-78.1429953759
20
179.6922687712
30
0.0000000000
10
-78.1531570490
20
179.6925346784
30
0.0000000000
10
-78.1633208444
20
179.6923327473
30
0.0000000000
10
-78.1734720322
20
179.6918846292
30
0.0000000000
11
-78.1429953759
21
179.6922687712
31
0.0000000000
11
-78.1734720322
21
179.6918846292
31
0.0000000000
0
SPLINE
5
408
100
AcDbEntity
8
0
100
AcDbSpline
62
7
6
CONTINUOUS
70
0
71
3
72
9
73
5
74
3
42
0.0000001000
43
0.0000001000
44
0.0000000001
12
-0.0616600254
22
-0.0027219451
32
0.0000000000
13
-0.0612650701
23
-0.0074519145
33
0.0000000000
40
0.0000000000
40
0.0000000000
40
0.0000000000
40
0.0000000000
40
0.5991729697
40
1.0000000000
40
1.0000000000
40
1.0000000000
40
1.0000000000
10
-78.1734720322
20
179.6918846292
30
0.0000000000
10
-78.1857870390
20
179.6913409905
30
0.0000000000
10
-78.2063094126
20
179.6898289634
30
0.0000000000
10
-78.2267651103
20
179.6876173030
30
0.0000000000
10
-78.2349506757
20
179.6866216601
30
0.0000000000
11
-78.1734720322
21
179.6918846292
31
0.0000000000
11
-78.2103560049
21
179.6892778848
31
0.0000000000
11
-78.2349506757
21
179.6866216601
31
0.0000000000
0
SPLINE
5
409
100
AcDbEntity
8
0
100
AcDbSpline
62
7
6
CONTINUOUS
70
0
71
3
72
8
73
4
74
2
42
0.0000001000
43
0.0000001000
44
0.0000000001
12
-0.0121258853
22
-0.0006742997
32
0.0000000000
13
-0.0121403917
23
-0.0004857074
33
0.0000000000
40
0.0000000000
40
0.0000000000
40
0.0000000000
40
0.0000000000
40
1.0000000000
40
1.0000000000
40
1.0000000000
40
1.0000000000
10
-77.8283954748
20
179.3609578564
30
0.0000000000
10
-77.8324374366
20
179.3607330898
30
0.0000000000
10
-77.8364817831
20
179.3605394169
30
0.0000000000
10
-77.8405285803
20
179.3603775144
30
0.0000000000
11
-77.8283954748
21
179.3609578564
31
0.0000000000
11
-77.8405285803
21
179.3603775144
31
0.0000000000
0
SPLINE
5
40A
100
AcDbEntity
8
0
100
AcDbSpline
62
7
6
CONTINUOUS
70
0
71
3
72
8
73
4
74
2
42
0.0000001000
43
0.0000001000
44
0.0000000001
12
-0.0226721203
22
-0.0009070561
32
0.0000000000
13
-0.0227246917
23
-0.0002290275
33
0.0000000000
40
0.0000000000
40
0.0000000000
40
0.0000000000
40
0.0000000000
40
1.0000000000
40
1.0000000000
40
1.0000000000
40
1.0000000000
10
-77.8405285803
20
179.3603775144
30
0.0000000000
10
-77.8480859537
20
179.3600751624
30
0.0000000000
10
-77.8556518741
20
179.3598836111
30
0.0000000000
10
-77.8632267714
20
179.3598072686
30
0.0000000000
11
-77.8405285803
21
179.3603775144
31
0.0000000000
11
-77.8632267714
21
179.3598072686
31
0.0000000000
0
SPLINE
5
40B
100
AcDbEntity
8
0
100
AcDbSpline
62
7
6
CONTINUOUS
70
0
71
3
72
11
73
7
74
5
42
0.0000001000
43
0.0000001000
44
0.0000000001
12
-0.1625355335
22
-0.0016380908
32
0.0000000000
13
-0.1430045884
23
0.0452983136
33
0.0000000000
40
0.0000000000
40
0.0000000000
40
0.0000000000
40
0.0000000000
40
0.3921400466
40
0.7167710143
40
0.9507098624
40
1.0000000000
40
1.0000000000
40
1.0000000000
40
1.0000000000
10
-77.8632267714
20
179.3598072686
30
0.0000000000
10
-77.8844723353
20
179.3595931483
30
0.0000000000
10
-77.9234349977
20
179.3608583328
30
0.0000000000
10
-77.9738022196
20
179.3661947378
30
0.0000000000
10
-78.0074757958
20
179.3748757625
30
0.0000000000
10
-78.0206444546
20
179.3783354871
30
0.0000000000
10
-78.0229940266
20
179.3790797404
30
0.0000000000
11
-77.8632267714
21
179.3598072686
31
0.0000000000
11
-77.9268086246
21
179.3618030230
31
0.0000000000
11
-77.9790632330
21
179.3683392302
31
0.0000000000
11
-78.0159846278
21
179.3771135783
31
0.0000000000
11
-78.0229940266
21
179.3790797404
31
0.0000000000
0
SPLINE
5
40C
100
AcDbEntity
8
0
100
AcDbSpline
62
7
6
CONTINUOUS
70
0
71
3
72
9
73
5
74
3
42
0.0000001000
43
0.0000001000
44
0.0000000001
12
-0.0148819146
22
0.0047140140
32
0.0000000000
13
-0.0133048910
23
0.0072041476
33
0.0000000000
40
0.0000000000
40
0.0000000000
40
0.0000000000
40
0.0000000000
40
0.8019985287
40
1.0000000000
40
1.0000000000
40
1.0000000000
40
1.0000000000
10
-78.0229940266
20
179.3790797404
30
0.0000000000
10
-78.0269724511
20
179.3803399512
30
0.0000000000
10
-78.0321398638
20
179.3824195054
30
0.0000000000
10
-78.0385780298
20
179.3863395030
30
0.0000000000
10
-78.0394561591
20
179.3868149803
30
0.0000000000
11
-78.0229940266
21
179.3790797404
31
0.0000000000
11
-78.0360783165
21
179.3848593262
31
0.0000000000
11
-78.0394561591
21
179.3868149803
31
0.0000000000
0
SPLINE
5
40D
100
AcDbEntity
8
0
100
AcDbSpline
62
7
6
CONTINUOUS
70
0
71
3
72
10
73
6
74
4
42
0.0000001000
43
0.0000001000
44
0.0000000001
12
-0.6103836007
22
0.0337145969
32
0.0000000000
13
-0.6103822664
23
-0.0337146560
33
0.0000000000
40
0.0000000000
40
0.0000000000
40
0.0000000000
40
0.0000000000
40
0.3162377785
40
0.6798529205
40
1.0000000000
40
1.0000000000
40
1.0000000000
40
1.0000000000
10
-77.2173660691
20
179.3609745628
30
0.0000000000
10
-77.2817081871
20
179.3645285059
30
0.0000000000
10
-77.4201772104
20
179.3697556737
30
0.0000000000
10
-77.6239919231
20
179.3697996033
30
0.0000000000
10
-77.7632588933
20
179.3645724598
30
0.0000000000
10
-77.8283962600
20
179.3609745769
30
0.0000000000
11
-77.2173660691
21
179.3609745628
31
0.0000000000
11
-77.4105481834
21
179.3682668629
31
0.0000000000
11
-77.6328248188
21
179.3683148015
31
0.0000000000
11
-77.8283962600
21
179.3609745769
31
0.0000000000
0
SPLINE
5
40E
100
AcDbEntity
8
0
100
AcDbSpline
62
7
6
CONTINUOUS
70
0
71
3
72
9
73
5
74
3
42
0.0000001000
43
0.0000001000
44
0.0000000001
12
-0.0152042181
22
-0.0087117897
32
0.0000000000
13
-0.0143642103
23
-0.0045149261
33
0.0000000000
40
0.0000000000
40
0.0000000000
40
0.0000000000
40
0.0000000000
40
0.1424866664
40
1.0000000000
40
1.0000000000
40
1.0000000000
40
1.0000000000
10
-77.0069529937
20
179.3864266795
30
0.0000000000
10
-77.0076751265
20
179.3860129082
30
0.0000000000
10
-77.0137431749
20
179.3823762823
30
0.0000000000
10
-77.0186774250
20
179.3804245319
30
0.0000000000
10
-77.0227832590
20
179.3791339955
30
0.0000000000
11
-77.0069529937
21
179.3864266795
31
0.0000000000
11
-77.0093813396
21
179.3850107739
31
0.0000000000
11
-77.0227832590
21
179.3791339955
31
0.0000000000
0
SPLINE
5
40F
100
AcDbEntity
8
0
100
AcDbSpline
62
7
6
CONTINUOUS
70
0
71
3
72
11
73
7
74
5
42
0.0000001000
43
0.0000001000
44
0.0000000001
12
-0.1401325979
22
-0.0440425303
32
0.0000000000
13
-0.1595286702
23
0.0010276725
33
0.0000000000
40
0.0000000000
40
0.0000000000
40
0.0000000000
40
0.0000000000
40
0.0438216188
40
0.2774879323
40
0.6034667719
40
1.0000000000
40
1.0000000000
40
1.0000000000
40
1.0000000000
10
-77.0227851654
20
179.3791333963
30
0.0000000000
10
-77.0248321112
20
179.3784900580
30
0.0000000000
10
-77.0375966963
20
179.3750190735
30
0.0000000000
10
-77.0702962578
20
179.3665236667
30
0.0000000000
10
-77.1200363868
20
179.3610200053
30
0.0000000000
10
-77.1585727519
20
179.3596414099
30
0.0000000000
10
-77.1796588915
20
179.3597772454
30
0.0000000000
11
-77.0227851654
21
179.3791333963
31
0.0000000000
11
-77.0289203928
21
179.3773829054
31
0.0000000000
11
-77.0650828301
21
179.3686350990
31
0.0000000000
11
-77.1165598514
21
179.3619920226
31
0.0000000000
11
-77.1796588915
21
179.3597772454
31
0.0000000000
0
SPLINE
5
410
100
AcDbEntity
8
0
100
AcDbSpline
62
7
6
CONTINUOUS
70
0
71
3
72
8
73
4
74
2
42
0.0000001000
43
0.0000001000
44
0.0000000001
12
-0.0377751027
22
0.0002433446
32
0.0000000000
13
-0.0376420626
23
0.0020944388
33
0.0000000000
40
0.0000000000
40
0.0000000000
40
0.0000000000
40
0.0000000000
40
1.0000000000
40
1.0000000000
40
1.0000000000
40
1.0000000000
10
-77.1796588915
20
179.3597772454
30
0.0000000000
10
-77.1922505924
20
179.3598583602
30
0.0000000000
10
-77.2048196103
20
179.3602577157
30
0.0000000000
10
-77.2173669645
20
179.3609558620
30
0.0000000000
11
-77.1796588915
21
179.3597772454
31
0.0000000000
11
-77.2173669645
21
179.3609558620
31
0.0000000000
0
SPLINE
5
411
100
AcDbEntity
8
0
100
AcDbSpline
62
7
6
CONTINUOUS
70
0
71
3
72
9
73
5
74
3
42
0.0000001000
43
0.0000001000
44
0.0000000001
12
-0.0603938318
22
0.0073448720
32
0.0000000000
13
-0.0607785955
23
0.0027725077
33
0.0000000000
40
0.0000000000
40
0.0000000000
40
0.0000000000
40
0.0000000000
40
0.3869911088
40
1.0000000000
40
1.0000000000
40
1.0000000000
40
1.0000000000
10
-76.8108116209
20
179.6866219241
30
0.0000000000
10
-76.8186022462
20
179.6875693908
30
0.0000000000
10
-76.8387654480
20
179.6897617864
30
0.0000000000
10
-76.8589937935
20
179.6912788368
30
0.0000000000
10
-76.8714130666
20
179.6918453608
30
0.0000000000
11
-76.8108116209
21
179.6866219241
31
0.0000000000
11
-76.8342179619
21
179.6891651249
31
0.0000000000
11
-76.8714130666
21
179.6918453608
31
0.0000000000
0
SPLINE
5
412
100
AcDbEntity
8
0
100
AcDbSpline
62
7
6
CONTINUOUS
70
0
71
3
72
9
73
5
74
3
42
0.0000001000
43
0.0000001000
44
0.0000000001
12
-0.0564442669
22
0.0025747907
32
0.0000000000
13
-0.0559810452
23
-0.0080425123
33
0.0000000000
40
0.0000000000
40
0.0000000000
40
0.0000000000
40
0.0000000000
40
0.5438656546
40
1.0000000000
40
1.0000000000
40
1.0000000000
40
1.0000000000
10
-76.8714130666
20
179.6918453608
30
0.0000000000
10
-76.8816457660
20
179.6923121408
30
0.0000000000
10
-76.9004843848
20
179.6927167440
30
0.0000000000
10
-76.9193185611
20
179.6915420233
30
0.0000000000
10
-76.9278301869
20
179.6903192013
30
0.0000000000
11
-76.8714130666
21
179.6918453608
31
0.0000000000
11
-76.9021358075
21
179.6922850924
31
0.0000000000
11
-76.9278301869
21
179.6903192013
31
0.0000000000
0
SPLINE
5
413
100
AcDbEntity
8
0
100
AcDbSpline
62
7
6
CONTINUOUS
70
0
71
3
72
8
73
4
74
2
42
0.0000001000
43
0.0000001000
44
0.0000000001
12
-0.0253563285
22
-0.0036428149
32
0.0000000000
13
-0.0242042291
23
-0.0084543714
33
0.0000000000
40
0.0000000000
40
0.0000000000
40
0.0000000000
40
0.0000000000
40
1.0000000000
40
1.0000000000
40
1.0000000000
40
1.0000000000
10
-76.9278301869
20
179.6903192013
30
0.0000000000
10
-76.9362822964
20
179.6891049297
30
0.0000000000
10
-76.9446562220
20
179.6872132403
30
0.0000000000
10
-76.9527242983
20
179.6843951165
30
0.0000000000
11
-76.9278301869
21
179.6903192013
31
0.0000000000
11
-76.9527242983
21
179.6843951165
31
0.0000000000
0
SPLINE
5
414
100
AcDbEntity
8
0
100
AcDbSpline
62
7
6
CONTINUOUS
70
0
71
3
72
11
73
7
74
5
42
0.0000001000
43
0.0000001000
44
0.0000000001
12
-0.1097795045
22
-0.0383452287
32
0.0000000000
13
-0.0129853403
23
-0.1160160106
33
0.0000000000
40
0.0000000000
40
0.0000000000
40
0.0000000000
40
0.0000000000
40
0.2448027718
40
0.5034455926
40
0.7877064745
40
1.0000000000
40
1.0000000000
40
1.0000000000
40
1.0000000000
10
-76.9527242983
20
179.6843951165
30
0.0000000000
10
-76.9616824073
20
179.6812661104
30
0.0000000000
10
-76.9793296579
20
179.6724824117
30
0.0000000000
10
-77.0020978070
20
179.6515687963
30
0.0000000000
10
-77.0168409371
20
179.6257818641
30
0.0000000000
10
-77.0213236434
20
179.6067686791
30
0.0000000000
10
-77.0222425446
20
179.5985588631
30
0.0000000000
11
-76.9527242983
21
179.6843951165
31
0.0000000000
11
-76.9781126171
21
179.6716403106
31
0.0000000000
11
-77.0002012755
21
179.6513129903
31
0.0000000000
11
-77.0165381146
21
179.6226500719
31
0.0000000000
11
-77.0222425446
21
179.5985588631
31
0.0000000000
0
SPLINE
5
415
100
AcDbEntity
8
0
100
AcDbSpline
62
7
6
CONTINUOUS
70
0
71
3
72
8
73
4
74
2
42
0.0000001000
43
0.0000001000
44
0.0000000001
12
-0.0012512757
22
-0.0111793772
32
0.0000000000
13
-0.0000054201
23
-0.0111967750
33
0.0000000000
40
0.0000000000
40
0.0000000000
40
0.0000000000
40
0.0000000000
40
1.0000000000
40
1.0000000000
40
1.0000000000
40
1.0000000000
10
-77.0222425446
20
179.5985588631
30
0.0000000000
10
-77.0226596365
20
179.5948324041
30
0.0000000000
10
-77.0228711941
20
179.5910892471
30
0.0000000000
10
-77.0228730008
20
179.5873569887
30
0.0000000000
11
-77.0222425446
21
179.5985588631
31
0.0000000000
11
-77.0228730008
21
179.5873569887
31
0.0000000000
0
SPLINE
5
416
100
AcDbEntity
8
0
100
AcDbSpline
62
7
6
CONTINUOUS
70
0
71
3
72
10
73
6
74
4
42
0.0000001000
43
0.0000001000
44
0.0000000001
12
-1.0911208316
22
0.3562194201
32
0.0000000000
13
-1.1394011973
23
0.1385349433
33
0.0000000000
40
0.0000000000
40
0.0000000000
40
0.0000000000
40
0.0000000000
40
0.3242092501
40
0.6736871094
40
1.0000000000
40
1.0000000000
40
1.0000000000
40
1.0000000000
10
-75.6918457272
20
179.4384209712
30
0.0000000000
10
-75.8097628827
20
179.4769175149
30
0.0000000000
10
-76.0573827309
20
179.5492031599
30
0.0000000000
10
-76.4311278429
20
179.6321841525
30
0.0000000000
10
-76.6868780576
20
179.6715516777
30
0.0000000000
10
-76.8108118236
20
179.6866202570
30
0.0000000000
11
-75.6918457272
21
179.4384209712
31
0.0000000000
11
-76.0490601870
21
179.5426977434
31
0.0000000000
11
-76.4406351976
21
179.6296375307
31
0.0000000000
11
-76.8108118236
21
179.6866202570
31
0.0000000000
0
SPLINE
5
417
100
AcDbEntity
8
0
100
AcDbSpline
62
7
6
CONTINUOUS
70
0
71
3
72
8
73
4
74
2
42
0.0000001000
43
0.0000001000
44
0.0000000001
12
0.0000338558
22
0.0001072465
32
0.0000000000
13
-0.0041573908
23
0.0006697597
33
0.0000000000
40
0.0000000000
40
0.0000000000
40
0.0000000000
40
0.0000000000
40
1.0000000000
40
1.0000000000
40
1.0000000000
40
1.0000000000
10
-75.4208049093
20
179.3594849513
30
0.0000000000
10
-75.4207936240
20
179.3595207001
30
0.0000000000
10
-75.4219991125
20
179.3597144287
30
0.0000000000
10
-75.4233849094
20
179.3599376819
30
0.0000000000
11
-75.4208049093
21
179.3594849513
31
0.0000000000
11
-75.4233849094
21
179.3599376819
31
0.0000000000
0
SPLINE
5
418
100
AcDbEntity
8
0
100
AcDbSpline
62
7
6
CONTINUOUS
70
0
71
3
72
11
73
7
74
5
42
0.0000001000
43
0.0000001000
44
0.0000000001
12
-0.0393958245
22
0.0063467055
32
0.0000000000
13
-0.0252524804
23
0.0062307611
33
0.0000000000
40
0.0000000000
40
0.0000000000
40
0.0000000000
40
0.0000000000
40
0.0437461441
40
0.3811931805
40
0.8487327780
40
1.0000000000
40
1.0000000000
40
1.0000000000
40
1.0000000000
10
-75.4233849094
20
179.3599376819
30
0.0000000000
10
-75.4239593812
20
179.3600302299
30
0.0000000000
10
-75.4292351852
20
179.3608808809
30
0.0000000000
10
-75.4337377360
20
179.3620855998
30
0.0000000000
10
-75.4426347228
20
179.3640723016
30
0.0000000000
10
-75.4479221993
20
179.3653553278
30
0.0000000000
10
-75.4491954902
20
179.3656694978
30
0.0000000000
11
-75.4233849094
21
179.3599376819
31
0.0000000000
11
-75.4251274454
21
179.3602213960
31
0.0000000000
11
-75.4336132717
21
179.3619940425
31
0.0000000000
11
-75.4453090745
21
179.3647279014
31
0.0000000000
11
-75.4491954902
21
179.3656694978
31
0.0000000000
0
SPLINE
5
419
100
AcDbEntity
8
0
100
AcDbSpline
62
7
6
CONTINUOUS
70
0
71
3
72
18
73
14
74
12
42
0.0000001000
43
0.0000001000
44
0.0000000001
12
-0.2491589938
22
0.0614771357
32
0.0000000000
13
-0.2409641088
23
0.0786527443
33
0.0000000000
40
0.0000000000
40
0.0000000000
40
0.0000000000
40
0.0000000000
40
0.0441584266
40
0.1147243445
40
0.1955767258
40
0.2863024203
40
0.3862697342
40
0.4948207329
40
0.6111644276
40
0.7344498212
40
0.8637745550
40
0.9980510664
40
1.0000000000
40
1.0000000000
40
1.0000000000
40
1.0000000000
10
-75.4491954902
20
179.3656694978
30
0.0000000000
10
-75.4528629799
20
179.3665744090
30
0.0000000000
10
-75.4619766594
20
179.3689369027
30
0.0000000000
10
-75.4781100285
20
179.3732050472
30
0.0000000000
10
-75.4977678887
20
179.3786631485
30
0.0000000000
10
-75.5198432033
20
179.3849825270
30
0.0000000000
10
-75.5440956873
20
179.3921100136
30
0.0000000000
10
-75.5703812351
20
179.4000205898
30
0.0000000000
10
-75.5985013345
20
179.4086622376
30
0.0000000000
10
-75.6282525100
20
179.4179722628
30
0.0000000000
10
-75.6594010325
20
179.4278883710
30
0.0000000000
10
-75.6807482421
20
179.4347957071
30
0.0000000000
10
-75.6916901856
20
179.4383668127
30
0.0000000000
10
-75.6918467266
20
179.4384179091
30
0.0000000000
11
-75.4491954902
21
179.3656694978
31
0.0000000000
11
-75.4599307188
21
179.3684140152
31
0.0000000000
11
-75.4772184463
21
179.3730041526
31
0.0000000000
11
-75.4969706381
21
179.3784684547
31
0.0000000000
11
-75.5190811451
21
179.3847910422
31
0.0000000000
11
-75.5433936467
21
179.3919310740
31
0.0000000000
11
-75.5697428524
21
179.3998554013
31
0.0000000000
11
-75.5979335555
21
179.4085133395
31
0.0000000000
11
-75.6277579453
21
179.4178437526
31
0.0000000000
11
-75.6589946135
21
179.4277856209
31
0.0000000000
11
-75.6913770980
21
179.4382646371
31
0.0000000000
11
-75.6918467266
21
179.4384179091
31
0.0000000000
0
SPLINE
5
41A
100
AcDbEntity
8
0
100
AcDbSpline
62
7
6
CONTINUOUS
70
0
71
3
72
8
73
4
74
2
42
0.0000001000
43
0.0000001000
44
0.0000000001
12
0.0000338947
22
0.0001160309
32
0.0000000000
13
-0.0042056179
23
0.0006729367
33
0.0000000000
40
0.0000000000
40
0.0000000000
40
0.0000000000
40
0.0000000000
40
1.0000000000
40
1.0000000000
40
1.0000000000
40
1.0000000000
10
-75.4208104115
20
179.3594957539
30
0.0000000000
10
-75.4207991132
20
179.3595344309
30
0.0000000000
10
-75.4219812074
20
179.3597250744
30
0.0000000000
10
-75.4233830801
20
179.3599493866
30
0.0000000000
11
-75.4208104115
21
179.3594957539
31
0.0000000000
11
-75.4233830801
21
179.3599493866
31
0.0000000000
0
SPLINE
5
41B
100
AcDbEntity
8
0
100
AcDbSpline
62
7
6
CONTINUOUS
70
0
71
3
72
17
73
13
74
11
42
0.0000001000
43
0.0000001000
44
0.0000000001
12
-0.2509708435
22
0.0616478837
32
0.0000000000
13
-0.2409606472
23
0.0786734263
33
0.0000000000
40
0.0000000000
40
0.0000000000
40
0.0000000000
40
0.0000000000
40
0.0479700867
40
0.1192779108
40
0.2010034140
40
0.2926090716
40
0.3934274926
40
0.5028415426
40
0.6200107320
40
0.7441297324
40
0.8743023083
40
1.0000000000
40
1.0000000000
40
1.0000000000
40
1.0000000000
10
-75.4491877053
20
179.3656709449
30
0.0000000000
10
-75.4532007363
20
179.3666566963
30
0.0000000000
10
-75.4626472658
20
179.3691098789
30
0.0000000000
10
-75.4792354099
20
179.3735088931
30
0.0000000000
10
-75.4990880576
20
179.3790391518
30
0.0000000000
10
-75.5213750404
20
179.3854242170
30
0.0000000000
10
-75.5458337987
20
179.3926270032
30
0.0000000000
10
-75.5723208472
20
179.4006141477
30
0.0000000000
10
-75.6006425192
20
179.4093264349
30
0.0000000000
10
-75.6305928969
20
179.4187104768
30
0.0000000000
10
-75.6611833815
20
179.4284596668
30
0.0000000000
10
-75.6817506556
20
179.4351215751
30
0.0000000000
10
-75.6918467213
20
179.4384179311
30
0.0000000000
11
-75.4491877053
21
179.3656709449
31
0.0000000000
11
-75.4608631963
21
179.3686553262
31
0.0000000000
11
-75.4783299572
21
179.3733048400
31
0.0000000000
11
-75.4982918310
21
179.3788421849
31
0.0000000000
11
-75.5206146514
21
179.3852346202
31
0.0000000000
11
-75.5451308935
21
179.3924476294
31
0.0000000000
11
-75.5716858557
21
179.4004485661
31
0.0000000000
11
-75.6000739682
21
179.4091776893
31
0.0000000000
11
-75.6300972268
21
179.4185814144
31
0.0000000000
11
-75.6615355528
21
179.4285996278
31
0.0000000000
11
-75.6918467213
21
179.4384179311
31
0.0000000000
0
SPLINE
5
41C
100
AcDbEntity
8
0
100
AcDbSpline
62
7
6
CONTINUOUS
70
0
71
3
72
16
73
12
74
10
42
0.0000001000
43
0.0000001000
44
0.0000000001
12
-0.2571082013
22
0.0312732353
32
0.0000000000
13
-0.0289956003
23
-0.2588563033
33
0.0000000000
40
0.0000000000
40
0.0000000000
40
0.0000000000
40
0.0000000000
40
0.0957177787
40
0.2385228785
40
0.3560819468
40
0.4550440047
40
0.5535147798
40
0.6628920152
40
0.7781856162
40
0.9049357695
40
1.0000000000
40
1.0000000000
40
1.0000000000
40
1.0000000000
10
-76.8108116518
20
179.6866216670
30
0.0000000000
10
-76.8190149271
20
179.6876194685
30
0.0000000000
10
-76.8394911075
20
179.6898327516
30
0.0000000000
10
-76.8701589333
20
179.6920901016
30
0.0000000000
10
-76.9011912631
20
179.6927035678
30
0.0000000000
10
-76.9283840200
20
179.6909352538
30
0.0000000000
10
-76.9543645948
20
179.6849610405
30
0.0000000000
10
-76.9795920724
20
179.6722865799
30
0.0000000000
10
-77.0021966550
20
179.6514074657
30
0.0000000000
10
-77.0168531574
20
179.6257117236
30
0.0000000000
10
-77.0213210441
20
179.6067612202
30
0.0000000000
10
-77.0222398589
20
179.5985585617
30
0.0000000000
11
-76.8108116518
21
179.6866216670
31
0.0000000000
11
-76.8354596145
21
179.6892829054
31
0.0000000000
11
-76.8723518143
21
179.6918873291
31
0.0000000000
11
-76.9027951706
21
179.6922680254
31
0.0000000000
11
-76.9283446462
21
179.6902450723
31
0.0000000000
11
-76.9531326590
21
179.6842520096
31
0.0000000000
11
-76.9783982291
21
179.6714435072
31
0.0000000000
11
-77.0003148947
21
179.6511649260
31
0.0000000000
11
-77.0165406818
21
179.6226294312
31
0.0000000000
11
-77.0222398589
21
179.5985585617
31
0.0000000000
0
SPLINE
5
41D
100
AcDbEntity
8
0
100
AcDbSpline
62
7
6
CONTINUOUS
70
0
71
3
72
12
73
8
74
6
42
0.0000001000
43
0.0000001000
44
0.0000000001
12
-0.1619099871
22
-0.0512868116
32
0.0000000000
13
-0.1836198709
23
0.0070518447
33
0.0000000000
40
0.0000000000
40
0.0000000000
40
0.0000000000
40
0.0000000000
40
0.0435347811
40
0.2501577898
40
0.5368832645
40
0.8832351291
40
1.0000000000
40
1.0000000000
40
1.0000000000
40
1.0000000000
10
-77.0227683018
20
179.3790797404
30
0.0000000000
10
-77.0251178737
20
179.3783354871
30
0.0000000000
10
-77.0382865325
20
179.3748757625
30
0.0000000000
10
-77.0719601088
20
179.3661947378
30
0.0000000000
10
-77.1223273306
20
179.3608583328
30
0.0000000000
10
-77.1684762719
20
179.3593597975
30
0.0000000000
10
-77.1968524750
20
179.3600546454
30
0.0000000000
10
-77.2039992585
20
179.3603291147
30
0.0000000000
11
-77.0227683018
21
179.3790797404
31
0.0000000000
11
-77.0297777006
21
179.3771135783
31
0.0000000000
11
-77.0666990953
21
179.3683392302
31
0.0000000000
11
-77.1189537038
21
179.3618030230
31
0.0000000000
11
-77.1825355570
21
179.3598072686
31
0.0000000000
11
-77.2039992585
21
179.3603291147
31
0.0000000000
0
SPLINE
5
41E
100
AcDbEntity
8
0
100
AcDbSpline
62
7
6
CONTINUOUS
70
0
71
3
72
10
73
6
74
4
42
0.0000001000
43
0.0000001000
44
0.0000000001
12
-0.6103824095
22
0.0337146639
32
0.0000000000
13
-0.6103837428
23
-0.0337146206
33
0.0000000000
40
0.0000000000
40
0.0000000000
40
0.0000000000
40
0.0000000000
40
0.3201470045
40
0.6837620612
40
1.0000000000
40
1.0000000000
40
1.0000000000
40
1.0000000000
10
-77.2173660683
20
179.3609745769
30
0.0000000000
10
-77.2825034350
20
179.3645724598
30
0.0000000000
10
-77.4217704052
20
179.3697996033
30
0.0000000000
10
-77.6255851658
20
179.3697556736
30
0.0000000000
10
-77.7640542368
20
179.3645285023
30
0.0000000000
10
-77.8283964024
20
179.3609745549
30
0.0000000000
11
-77.2173660683
21
179.3609745769
31
0.0000000000
11
-77.4129375095
21
179.3683148015
31
0.0000000000
11
-77.6352141450
21
179.3682668629
31
0.0000000000
11
-77.8283964024
21
179.3609745549
31
0.0000000000
0
SPLINE
5
41F
100
AcDbEntity
8
0
100
AcDbSpline
62
7
6
CONTINUOUS
70
0
71
3
72
8
73
4
74
2
42
0.0000001000
43
0.0000001000
44
0.0000000001
12
-0.0133593634
22
-0.0007433272
32
0.0000000000
13
-0.0133758724
23
-0.0005149088
33
0.0000000000
40
0.0000000000
40
0.0000000000
40
0.0000000000
40
0.0000000000
40
1.0000000000
40
1.0000000000
40
1.0000000000
40
1.0000000000
10
-77.8283953639
20
179.3609558620
30
0.0000000000
10
-77.8328484850
20
179.3607080862
30
0.0000000000
10
-77.8373043349
20
179.3604979455
30
0.0000000000
10
-77.8417629590
20
179.3603263092
30
0.0000000000
11
-77.8283953639
21
179.3609558620
31
0.0000000000
11
-77.8417629590
21
179.3603263092
31
0.0000000000
0
SPLINE
5
420
100
AcDbEntity
8
0
100
AcDbSpline
62
9
6
CONTINUOUS
70
0
71
3
72
10
73
6
74
4
42
0.0000001000
43
0.0000001000
44
0.0000000001
12
-0.0000000037
22
0.0084211513
32
0.0000000000
13
0.0000000024
23
0.0084211513
33
0.0000000000
40
0.0000000000
40
0.0000000000
40
0.0000000000
40
0.0000000000
40
0.5552522622
40
0.8890061159
40
1.0000000000
40
1.0000000000
40
1.0000000000
40
1.0000000000
10
-79.6588969953
20
179.3542739230
30
0.0000000000
10
-79.6588969960
20
179.3558325441
30
0.0000000000
10
-79.6588969939
20
179.3583280291
30
0.0000000000
10
-79.6588969954
20
179.3611350795
30
0.0000000000
10
-79.6588969954
20
179.3623835089
30
0.0000000000
10
-79.6588969953
20
179.3626950743
30
0.0000000000
11
-79.6588969953
21
179.3542739230
31
0.0000000000
11
-79.6588969947
21
179.3589497863
31
0.0000000000
11
-79.6588969954
21
179.3617603780
31
0.0000000000
11
-79.6588969953
21
179.3626950743
31
0.0000000000
0
SPLINE
5
421
100
AcDbEntity
8
0
100
AcDbSpline
62
9
6
CONTINUOUS
70
0
71
3
72
11
73
7
74
5
42
0.0000001000
43
0.0000001000
44
0.0000000001
12
-0.2347482178
22
-0.0766424207
32
0.0000000000
13
-0.2489078788
23
-0.0675589159
33
0.0000000000
40
0.0000000000
40
0.0000000000
40
0.0000000000
40
0.0000000000
40
0.3504046771
40
0.6666687971
40
0.9304468631
40
1.0000000000
40
1.0000000000
40
1.0000000000
40
1.0000000000
10
-79.3537518766
20
179.4379164174
30
0.0000000000
10
-79.3811708344
20
179.4289644632
30
0.0000000000
10
-79.4332722316
20
179.4123117136
30
0.0000000000
10
-79.5071548702
20
179.3895987317
30
0.0000000000
10
-79.5570393168
20
179.3754687293
30
0.0000000000
10
-79.5851004967
20
179.3676014190
30
0.0000000000
10
-79.5908712713
20
179.3660351075
30
0.0000000000
11
-79.3537518766
21
179.4379164174
31
0.0000000000
11
-79.4361712783
21
179.4115635655
31
0.0000000000
11
-79.5108720639
21
179.3887759935
31
0.0000000000
11
-79.5734972285
21
179.3708577665
31
0.0000000000
11
-79.5908712713
21
179.3660351075
31
0.0000000000
0
SPLINE
5
422
100
AcDbEntity
8
0
100
AcDbSpline
62
9
6
CONTINUOUS
70
0
71
3
72
10
73
6
74
4
42
0.0000001000
43
0.0000001000
44
0.0000000001
12
-0.0708811429
22
-0.0192386565
32
0.0000000000
13
0.0003549073
23
0.0703206776
33
0.0000000000
40
0.0000000000
40
0.0000000000
40
0.0000000000
40
0.0000000000
40
0.4410278012
40
0.8596420268
40
1.0000000000
40
1.0000000000
40
1.0000000000
40
1.0000000000
10
-79.5908712713
20
179.3660351075
30
0.0000000000
10
-79.6012914561
20
179.3632068467
30
0.0000000000
10
-79.6210652889
20
179.3581725323
30
0.0000000000
10
-79.6378605991
20
179.3560587730
30
0.0000000000
10
-79.6589136000
20
179.3509839004
30
0.0000000000
10
-79.6588969953
20
179.3542739230
30
0.0000000000
11
-79.5908712713
21
179.3660351075
31
0.0000000000
11
-79.6201764170
21
179.3588880699
31
0.0000000000
11
-79.6490762648
21
179.3532870224
31
0.0000000000
11
-79.6588969953
21
179.3542739230
31
0.0000000000
0
SPLINE
5
423
100
AcDbEntity
8
0
100
AcDbSpline
62
9
6
CONTINUOUS
70
0
71
3
72
12
73
8
74
6
42
0.0000001000
43
0.0000001000
44
0.0000000001
12
-1.1394044272
22
-0.1385317330
32
0.0000000000
13
-1.0911181987
23
-0.3562226359
33
0.0000000000
40
0.0000000000
40
0.0000000000
40
0.0000000000
40
0.0000000000
40
0.1736997740
40
0.3668447149
40
0.5660151312
40
0.7736035241
40
1.0000000000
40
1.0000000000
40
1.0000000000
40
1.0000000000
10
-78.2348864412
20
179.6860933365
30
0.0000000000
10
-78.3008578717
20
179.6780723596
30
0.0000000000
10
-78.4399105554
20
179.6587764700
30
0.0000000000
10
-78.6532615275
20
179.6213672381
30
0.0000000000
10
-78.8777150471
20
179.5731171232
30
0.0000000000
10
-79.1124087355
20
179.5128608609
30
0.0000000000
10
-79.2714101049
20
179.4647989339
30
0.0000000000
10
-79.3537518766
20
179.4379164174
30
0.0000000000
11
-78.2348864412
21
179.6860933365
31
0.0000000000
11
-78.4323658686
21
179.6586895564
31
0.0000000000
11
-78.6507254066
21
179.6204021357
31
0.0000000000
11
-78.8742264704
21
179.5723568214
31
0.0000000000
11
-79.1050103279
21
179.5131040192
31
0.0000000000
11
-79.3537518766
21
179.4379164174
31
0.0000000000
0
SPLINE
5
424
100
AcDbEntity
8
0
100
AcDbSpline
62
9
6
CONTINUOUS
70
0
71
3
72
14
73
10
74
8
42
0.0000001000
43
0.0000001000
44
0.0000000001
12
-0.0001275271
22
0.1030417226
32
0.0000000000
13
-0.1022885817
23
-0.0124361939
33
0.0000000000
40
0.0000000000
40
0.0000000000
40
0.0000000000
40
0.0000000000
40
0.0475695937
40
0.1569696759
40
0.3115077117
40
0.4870765621
40
0.6663493256
40
0.8385288923
40
1.0000000000
40
1.0000000000
40
1.0000000000
40
1.0000000000
10
-78.1331714016
20
179.6860933365
30
0.0000000000
10
-78.1331734238
20
179.6877272208
30
0.0000000000
10
-78.1399719622
20
179.6901761642
30
0.0000000000
10
-78.1493505130
20
179.6908909770
30
0.0000000000
10
-78.1650381794
20
179.6914100084
30
0.0000000000
10
-78.1823340298
20
179.6907864053
30
0.0000000000
10
-78.2004553635
20
179.6896303562
30
0.0000000000
10
-78.2179879632
20
179.6880345266
30
0.0000000000
10
-78.2293808910
20
179.6867626985
30
0.0000000000
10
-78.2348864412
20
179.6860933365
30
0.0000000000
11
-78.1331714016
21
179.6860933365
31
0.0000000000
11
-78.1371036612
21
179.6890196948
31
0.0000000000
11
-78.1482448830
21
179.6907368962
31
0.0000000000
11
-78.1641616963
21
179.6912111664
31
0.0000000000
11
-78.1822455931
21
179.6907067374
31
0.0000000000
11
-78.2006807194
21
179.6895308783
31
0.0000000000
11
-78.2183508482
21
179.6879389587
31
0.0000000000
11
-78.2348864412
21
179.6860933365
31
0.0000000000
0
SPLINE
5
425
100
AcDbEntity
8
0
100
AcDbSpline
62
9
6
CONTINUOUS
70
0
71
3
72
12
73
8
74
6
42
0.0000001000
43
0.0000001000
44
0.0000000001
12
-0.0000000955
22
0.2481769191
32
0.0000000000
13
0.0000000361
23
0.2481769191
33
0.0000000000
40
0.0000000000
40
0.0000000000
40
0.0000000000
40
0.0000000000
40
0.3245288541
40
0.5733868835
40
0.7612770168
40
0.8998605882
40
1.0000000000
40
1.0000000000
40
1.0000000000
40
1.0000000000
10
-78.1331714016
20
179.4379164174
30
0.0000000000
10
-78.1331714120
20
179.4647632745
30
0.0000000000
10
-78.1331713926
20
179.5121970712
30
0.0000000000
10
-78.1331714033
20
179.5751741994
30
0.0000000000
10
-78.1331714026
20
179.6227688852
30
0.0000000000
10
-78.1331714004
20
179.6580607281
30
0.0000000000
10
-78.1331714028
20
179.6778092396
30
0.0000000000
10
-78.1331714016
20
179.6860933365
30
0.0000000000
11
-78.1331714016
21
179.4379164174
31
0.0000000000
11
-78.1331713988
21
179.5184569886
31
0.0000000000
11
-78.1331714020
21
179.5802178076
31
0.0000000000
11
-78.1331714021
21
179.6268478021
31
0.0000000000
11
-78.1331714014
21
179.6612410458
31
0.0000000000
11
-78.1331714016
21
179.6860933365
31
0.0000000000
0
SPLINE
5
426
100
AcDbEntity
8
0
100
AcDbSpline
62
9
6
CONTINUOUS
70
0
71
3
72
8
73
4
74
2
42
0.0000001000
43
0.0000001000
44
0.0000000001
12
-0.0259648526
22
-0.0014341561
32
0.0000000000
13
-0.0260031346
23
-0.0007031723
33
0.0000000000
40
0.0000000000
40
0.0000000000
40
0.0000000000
40
0.0000000000
40
1.0000000000
40
1.0000000000
40
1.0000000000
40
1.0000000000
10
-77.8280262829
20
179.3542739230
30
0.0000000000
10
-77.8366812338
20
179.3537958709
30
0.0000000000
10
-77.8453447898
20
179.3534372406
30
0.0000000000
10
-77.8540125013
20
179.3532028498
30
0.0000000000
11
-77.8280262829
21
179.3542739230
31
0.0000000000
11
-77.8540125013
21
179.3532028498
31
0.0000000000
0
SPLINE
5
427
100
AcDbEntity
8
0
100
AcDbSpline
62
9
6
CONTINUOUS
70
0
71
3
72
10
73
6
74
4
42
0.0000001000
43
0.0000001000
44
0.0000000001
12
-0.1456857917
22
-0.0039396099
32
0.0000000000
13
-0.1438195669
23
0.0241745223
33
0.0000000000
40
0.0000000000
40
0.0000000000
40
0.0000000000
40
0.0000000000
40
0.3486430920
40
0.8460685313
40
1.0000000000
40
1.0000000000
40
1.0000000000
40
1.0000000000
10
-77.8540125013
20
179.3532028498
30
0.0000000000
10
-77.8709432829
20
179.3527450105
30
0.0000000000
10
-77.9120684809
20
179.3527842998
30
0.0000000000
10
-77.9605554264
20
179.3563801748
30
0.0000000000
10
-77.9918987364
20
179.3609690662
30
0.0000000000
10
-77.9992781888
20
179.3622094728
30
0.0000000000
11
-77.8540125013
21
179.3532028498
31
0.0000000000
11
-77.9048192503
21
179.3532873273
31
0.0000000000
11
-77.9770710167
21
179.3589256091
31
0.0000000000
11
-77.9992781888
21
179.3622094728
31
0.0000000000
0
SPLINE
5
428
100
AcDbEntity
8
0
100
AcDbSpline
62
9
6
CONTINUOUS
70
0
71
3
72
8
73
4
74
2
42
0.0000001000
43
0.0000001000
44
0.0000000001
12
-0.0237336029
22
0.0039893634
32
0.0000000000
13
-0.0234891810
23
0.0051773087
33
0.0000000000
40
0.0000000000
40
0.0000000000
40
0.0000000000
40
0.0000000000
40
1.0000000000
40
1.0000000000
40
1.0000000000
40
1.0000000000
10
-77.9992781888
20
179.3622094728
30
0.0000000000
10
-78.0071893897
20
179.3635392606
30
0.0000000000
10
-78.0150687163
20
179.3650482716
30
0.0000000000
10
-78.0228984433
20
179.3667740411
30
0.0000000000
11
-77.9992781888
21
179.3622094728
31
0.0000000000
11
-78.0228984433
21
179.3667740411
31
0.0000000000
0
SPLINE
5
429
100
AcDbEntity
8
0
100
AcDbSpline
62
9
6
CONTINUOUS
70
0
71
3
72
8
73
4
74
2
42
0.0000001000
43
0.0000001000
44
0.0000000001
12
-0.0172327122
22
0.0037983049
32
0.0000000000
13
-0.0170515376
23
0.0045427719
33
0.0000000000
40
0.0000000000
40
0.0000000000
40
0.0000000000
40
0.0000000000
40
1.0000000000
40
1.0000000000
40
1.0000000000
40
1.0000000000
10
-78.0228984433
20
179.3667740411
30
0.0000000000
10
-78.0286426807
20
179.3680401428
30
0.0000000000
10
-78.0343602219
20
179.3694229113
30
0.0000000000
10
-78.0400440677
20
179.3709371687
30
0.0000000000
11
-78.0228984433
21
179.3667740411
31
0.0000000000
11
-78.0400440677
21
179.3709371687
31
0.0000000000
0
SPLINE
5
42A
100
AcDbEntity
8
0
100
AcDbSpline
62
9
6
CONTINUOUS
70
0
71
3
72
10
73
6
74
4
42
0.0000001000
43
0.0000001000
44
0.0000000001
12
-0.1168063314
22
0.0311188667
32
0.0000000000
13
0.0000729979
23
0.1208295183
33
0.0000000000
40
0.0000000000
40
0.0000000000
40
0.0000000000
40
0.0000000000
40
0.4363905819
40
0.7617294484
40
1.0000000000
40
1.0000000000
40
1.0000000000
40
1.0000000000
10
-78.0400440677
20
179.3709371687
30
0.0000000000
10
-78.0570351287
20
179.3754638288
30
0.0000000000
10
-78.0861678072
20
179.3854162363
30
0.0000000000
10
-78.1213734796
20
179.4062130594
30
0.0000000000
10
-78.1331771994
20
179.4283197121
30
0.0000000000
10
-78.1331714016
20
179.4379164174
30
0.0000000000
11
-78.0400440677
21
179.3709371687
31
0.0000000000
11
-78.0896550695
21
179.3888000520
31
0.0000000000
11
-78.1217602761
21
179.4114842912
31
0.0000000000
11
-78.1331714016
21
179.4379164174
31
0.0000000000
0
SPLINE
5
42B
100
AcDbEntity
8
0
100
AcDbSpline
62
9
6
CONTINUOUS
70
0
71
3
72
10
73
6
74
4
42
0.0000001000
43
0.0000001000
44
0.0000000001
12
-0.6096363370
22
0.0336737673
32
0.0000000000
13
-0.6096363343
23
-0.0336738160
33
0.0000000000
40
0.0000000000
40
0.0000000000
40
0.0000000000
40
0.0000000000
40
0.3328661760
40
0.6669943864
40
1.0000000000
40
1.0000000000
40
1.0000000000
40
1.0000000000
10
-77.2177360454
20
179.3542739230
30
0.0000000000
10
-77.2853784842
20
179.3580102090
30
0.0000000000
10
-77.4210710319
20
179.3630077973
30
0.0000000000
10
-77.6246345228
20
179.3630093584
30
0.0000000000
10
-77.7603555090
20
179.3580117796
30
0.0000000000
10
-77.8280262829
20
179.3542739230
30
0.0000000000
11
-77.2177360454
21
179.3542739230
31
0.0000000000
11
-77.4208349960
21
179.3617539271
31
0.0000000000
11
-77.6248421966
21
179.3617554959
31
0.0000000000
11
-77.8280262829
21
179.3542739230
31
0.0000000000
0
SPLINE
5
42C
100
AcDbEntity
8
0
100
AcDbSpline
62
9
6
CONTINUOUS
70
0
71
3
72
11
73
7
74
5
42
0.0000001000
43
0.0000001000
44
0.0000000001
12
-0.0000256699
22
-0.1384612527
32
0.0000000000
13
-0.1352723955
23
-0.0298191917
33
0.0000000000
40
0.0000000000
40
0.0000000000
40
0.0000000000
40
0.0000000000
40
0.2091032557
40
0.4931166190
40
0.8736295673
40
1.0000000000
40
1.0000000000
40
1.0000000000
40
1.0000000000
10
-76.9125909267
20
179.4379164174
30
0.0000000000
10
-76.9125927159
20
179.4282655178
30
0.0000000000
10
-76.9244818808
20
179.4061166963
30
0.0000000000
10
-76.9597467894
20
179.3853565086
30
0.0000000000
10
-76.9944146663
20
179.3735289505
30
0.0000000000
10
-77.0171651575
20
179.3680299172
30
0.0000000000
10
-77.0228633012
20
179.3667738292
30
0.0000000000
11
-76.9125909267
21
179.4379164174
31
0.0000000000
11
-76.9241171587
21
179.4113569602
31
0.0000000000
11
-76.9562724116
21
179.3887188666
31
0.0000000000
11
-77.0058544304
21
179.3709011883
31
0.0000000000
11
-77.0228633012
21
179.3667738292
31
0.0000000000
0
SPLINE
5
42D
100
AcDbEntity
8
0
100
AcDbSpline
62
9
6
CONTINUOUS
70
0
71
3
72
8
73
4
74
2
42
0.0000001000
43
0.0000001000
44
0.0000000001
12
-0.0042859530
22
-0.0009447874
32
0.0000000000
13
-0.0042955310
23
-0.0009021475
33
0.0000000000
40
0.0000000000
40
0.0000000000
40
0.0000000000
40
0.0000000000
40
1.0000000000
40
1.0000000000
40
1.0000000000
40
1.0000000000
10
-77.0228633012
20
179.3667738292
30
0.0000000000
10
-77.0242919522
20
179.3664589001
30
0.0000000000
10
-77.0257222532
20
179.3661511918
30
0.0000000000
10
-77.0271540969
20
179.3658504759
30
0.0000000000
11
-77.0228633012
21
179.3667738292
31
0.0000000000
11
-77.0271540969
21
179.3658504759
31
0.0000000000
0
SPLINE
5
42E
100
AcDbEntity
8
0
100
AcDbSpline
62
9
6
CONTINUOUS
70
0
71
3
72
8
73
4
74
2
42
0.0000001000
43
0.0000001000
44
0.0000000001
12
-0.0193422573
22
-0.0040622611
32
0.0000000000
13
-0.0195005064
23
-0.0032741333
33
0.0000000000
40
0.0000000000
40
0.0000000000
40
0.0000000000
40
0.0000000000
40
1.0000000000
40
1.0000000000
40
1.0000000000
40
1.0000000000
10
-77.0271540969
20
179.3658504759
30
0.0000000000
10
-77.0336015160
20
179.3644963889
30
0.0000000000
10
-77.0400802131
20
179.3632840809
30
0.0000000000
10
-77.0465803819
20
179.3621927031
30
0.0000000000
11
-77.0271540969
21
179.3658504759
31
0.0000000000
11
-77.0465803819
21
179.3621927031
31
0.0000000000
0
SPLINE
5
42F
100
AcDbEntity
8
0
100
AcDbSpline
62
9
6
CONTINUOUS
70
0
71
3
72
10
73
6
74
4
42
0.0000001000
43
0.0000001000
44
0.0000000001
12
-0.1436554342
22
-0.0241197344
32
0.0000000000
13
-0.1455167566
23
0.0039235326
33
0.0000000000
40
0.0000000000
40
0.0000000000
40
0.0000000000
40
0.0000000000
40
0.1538736103
40
0.6506453984
40
1.0000000000
40
1.0000000000
40
1.0000000000
40
1.0000000000
10
-77.0465803819
20
179.3621927031
30
0.0000000000
10
-77.0539486420
20
179.3609555729
30
0.0000000000
10
-77.0852215526
20
179.3563814877
30
0.0000000000
10
-77.1336516619
20
179.3527869716
30
0.0000000000
10
-77.1747318394
20
179.3527444311
30
0.0000000000
10
-77.1916774889
20
179.3532013325
30
0.0000000000
11
-77.0465803819
21
179.3621927031
31
0.0000000000
11
-77.0687536482
21
179.3589171077
31
0.0000000000
11
-77.1408263154
21
179.3532907951
31
0.0000000000
11
-77.1916774889
21
179.3532013325
31
0.0000000000
0
SPLINE
5
430
100
AcDbEntity
8
0
100
AcDbSpline
62
9
6
CONTINUOUS
70
0
71
3
72
8
73
4
74
2
42
0.0000001000
43
0.0000001000
44
0.0000000001
12
-0.0260755307
22
0.0007030681
32
0.0000000000
13
-0.0260370964
23
0.0014371509
33
0.0000000000
40
0.0000000000
40
0.0000000000
40
0.0000000000
40
0.0000000000
40
1.0000000000
40
1.0000000000
40
1.0000000000
40
1.0000000000
10
-77.1916774889
20
179.3532013325
30
0.0000000000
10
-77.2003693325
20
179.3534356886
30
0.0000000000
10
-77.2090570133
20
179.3537948727
30
0.0000000000
10
-77.2177360454
20
179.3542739230
30
0.0000000000
11
-77.1916774889
21
179.3532013325
31
0.0000000000
11
-77.2177360454
21
179.3542739230
31
0.0000000000
0
SPLINE
5
431
100
AcDbEntity
8
0
100
AcDbSpline
62
9
6
CONTINUOUS
70
0
71
3
72
12
73
8
74
6
42
0.0000001000
43
0.0000001000
44
0.0000000001
12
0.0000000402
22
-0.2481769191
32
0.0000000000
13
-0.0000000830
23
-0.2481769191
33
0.0000000000
40
0.0000000000
40
0.0000000000
40
0.0000000000
40
0.0000000000
40
0.1005484461
40
0.2392339420
40
0.4272491127
40
0.6764381929
40
1.0000000000
40
1.0000000000
40
1.0000000000
40
1.0000000000
10
-76.9125909267
20
179.6860933365
30
0.0000000000
10
-76.9125909254
20
179.6777754020
30
0.0000000000
10
-76.9125909284
20
179.6579846211
30
0.0000000000
10
-76.9125909236
20
179.6226401650
30
0.0000000000
10
-76.9125909276
20
179.5749993172
30
0.0000000000
10
-76.9125909319
20
179.5120644584
30
0.0000000000
10
-76.9125909178
20
179.4646832749
30
0.0000000000
10
-76.9125909267
20
179.4379164174
30
0.0000000000
11
-76.9125909267
21
179.6860933365
31
0.0000000000
11
-76.9125909269
21
179.6611395330
31
0.0000000000
11
-76.9125909252
21
179.6267209939
31
0.0000000000
11
-76.9125909271
21
179.5800599680
31
0.0000000000
11
-76.9125909282
21
179.5182169898
31
0.0000000000
11
-76.9125909267
21
179.4379164174
31
0.0000000000
0
SPLINE
5
432
100
AcDbEntity
8
0
100
AcDbSpline
62
9
6
CONTINUOUS
70
0
71
3
72
14
73
10
74
8
42
0.0000001000
43
0.0000001000
44
0.0000000001
12
-0.1022860762
22
0.0124369244
32
0.0000000000
13
0.0002474778
23
-0.1030391053
33
0.0000000000
40
0.0000000000
40
0.0000000000
40
0.0000000000
40
0.0000000000
40
0.1614060718
40
0.3347621391
40
0.5142394507
40
0.6893348921
40
0.8429827303
40
0.9520038950
40
1.0000000000
40
1.0000000000
40
1.0000000000
40
1.0000000000
10
-76.8108758871
20
179.6860933365
30
0.0000000000
10
-76.8163790850
20
179.6867624682
30
0.0000000000
10
-76.8278097482
20
179.6880385193
30
0.0000000000
10
-76.8453867383
20
179.6896371482
30
0.0000000000
10
-76.8635400369
20
179.6907922372
30
0.0000000000
10
-76.8807933318
20
179.6914078334
30
0.0000000000
10
-76.8964263293
20
179.6908939313
30
0.0000000000
10
-76.9057593732
20
179.6901686820
30
0.0000000000
10
-76.9125948860
20
179.6877418284
30
0.0000000000
10
-76.9125909267
20
179.6860933365
30
0.0000000000
11
-76.8108758871
21
179.6860933365
31
0.0000000000
11
-76.8274044263
21
179.6879382522
31
0.0000000000
11
-76.8451949994
21
179.6895396938
31
0.0000000000
11
-76.8636509705
21
179.6907130949
31
0.0000000000
11
-76.8816858182
21
179.6912113699
31
0.0000000000
11
-76.8975104982
21
179.6907372345
31
0.0000000000
11
-76.9086139423
21
179.6890329737
31
0.0000000000
11
-76.9125909267
21
179.6860933365
31
0.0000000000
0
SPLINE
5
433
100
AcDbEntity
8
0
100
AcDbSpline
62
9
6
CONTINUOUS
70
0
71
3
72
10
73
6
74
4
42
0.0000001000
43
0.0000001000
44
0.0000000001
12
-0.0000000011
22
-0.0084211513
32
0.0000000000
13
-0.0000000040
23
-0.0084211513
33
0.0000000000
40
0.0000000000
40
0.0000000000
40
0.0000000000
40
0.0000000000
40
0.1109954972
40
0.4447521893
40
1.0000000000
40
1.0000000000
40
1.0000000000
40
1.0000000000
10
-75.3868653330
20
179.3626950743
30
0.0000000000
10
-75.3868653331
20
179.3623835043
30
0.0000000000
10
-75.3868653333
20
179.3611350625
30
0.0000000000
10
-75.3868653338
20
179.3583280121
30
0.0000000000
10
-75.3868653323
20
179.3558325316
30
0.0000000000
10
-75.3868653330
20
179.3542739230
30
0.0000000000
11
-75.3868653330
21
179.3626950743
31
0.0000000000
11
-75.3868653332
21
179.3617603644
31
0.0000000000
11
-75.3868653334
21
179.3589497488
31
0.0000000000
11
-75.3868653330
21
179.3542739230
31
0.0000000000
0
SPLINE
5
434
100
AcDbEntity
8
0
100
AcDbSpline
62
9
6
CONTINUOUS
70
0
71
3
72
12
73
8
74
6
42
0.0000001000
43
0.0000001000
44
0.0000000001
12
-1.0911187217
22
0.3562227291
32
0.0000000000
13
-1.1394049461
23
0.1385318241
33
0.0000000000
40
0.0000000000
40
0.0000000000
40
0.0000000000
40
0.0000000000
40
0.2220767843
40
0.4263822369
40
0.6251590283
40
0.8222368415
40
1.0000000000
40
1.0000000000
40
1.0000000000
40
1.0000000000
10
-75.6920104518
20
179.4379164174
30
0.0000000000
10
-75.7727811641
20
179.4642860168
30
0.0000000000
10
-75.9289750097
20
179.5115709618
30
0.0000000000
10
-76.1606337581
20
179.5713345835
30
0.0000000000
10
-76.3851094293
20
179.6199460444
30
0.0000000000
10
-76.6012837517
20
179.6581118563
30
0.0000000000
10
-76.7433611464
20
179.6778847183
30
0.0000000000
10
-76.8108758871
20
179.6860933365
30
0.0000000000
11
-75.6920104518
21
179.4379164174
31
0.0000000000
11
-75.9359750505
21
179.5117720080
31
0.0000000000
11
-76.1630414403
21
179.5703512258
31
0.0000000000
11
-76.3860278607
21
179.6186401109
31
0.0000000000
11
-76.6087878053
21
179.6579685827
31
0.0000000000
11
-76.8108758871
21
179.6860933365
31
0.0000000000
0
SPLINE
5
435
100
AcDbEntity
8
0
100
AcDbSpline
62
9
6
CONTINUOUS
70
0
71
3
72
10
73
6
74
4
42
0.0000001000
43
0.0000001000
44
0.0000000001
12
0.0000305523
22
-0.0705416368
32
0.0000000000
13
-0.0710873922
23
0.0193144344
33
0.0000000000
40
0.0000000000
40
0.0000000000
40
0.0000000000
40
0.0000000000
40
0.1406318942
40
0.5591741542
40
1.0000000000
40
1.0000000000
40
1.0000000000
40
1.0000000000
10
-75.3868653330
20
179.3542739230
30
0.0000000000
10
-75.3868639008
20
179.3509671216
30
0.0000000000
10
-75.4079587957
20
179.3560867547
30
0.0000000000
10
-75.4248332016
20
179.3581987071
30
0.0000000000
10
-75.4446614455
20
179.3632509995
30
0.0000000000
10
-75.4551071655
20
179.3660891001
30
0.0000000000
11
-75.3868653330
21
179.3542739230
31
0.0000000000
11
-75.3967371383
21
179.3532931605
31
0.0000000000
11
-75.4257207402
21
179.3589195538
31
0.0000000000
11
-75.4551071655
21
179.3660891001
31
0.0000000000
0
SPLINE
5
436
100
AcDbEntity
8
0
100
AcDbSpline
62
9
6
CONTINUOUS
70
0
71
3
72
11
73
7
74
5
42
0.0000001000
43
0.0000001000
44
0.0000000001
12
-0.2486304027
22
0.0675528451
32
0.0000000000
13
-0.2345404016
23
0.0765660645
33
0.0000000000
40
0.0000000000
40
0.0000000000
40
0.0000000000
40
0.0000000000
40
0.0697732047
40
0.3340318270
40
0.6507837916
40
1.0000000000
40
1.0000000000
40
1.0000000000
40
1.0000000000
10
-75.4551071655
20
179.3660891001
30
0.0000000000
10
-75.4608897455
20
179.3676602263
30
0.0000000000
10
-75.4889759927
20
179.3755433995
30
0.0000000000
10
-75.5389135623
20
179.3896883027
30
0.0000000000
10
-75.6127081967
20
179.4123809185
30
0.0000000000
10
-75.6647086818
20
179.4290037138
30
0.0000000000
10
-75.6920104518
20
179.4379164174
30
0.0000000000
11
-75.4551071655
21
179.3660891001
31
0.0000000000
11
-75.4725160701
21
179.3709263513
31
0.0000000000
11
-75.5351974359
21
179.3888670041
31
0.0000000000
11
-75.6099449218
21
179.4116741782
31
0.0000000000
11
-75.6920104518
21
179.4379164174
31
0.0000000000
0
SPLINE
5
437
100
AcDbEntity
8
0
100
AcDbSpline
62
9
6
CONTINUOUS
70
0
71
3
72
9
73
5
74
3
42
0.0000001000
43
0.0000001000
44
0.0000000001
12
-0.0385583277
22
0.0148674323
32
0.0000000000
13
-0.0415816152
23
-0.0019562143
33
0.0000000000
40
0.0000000000
40
0.0000000000
40
0.0000000000
40
0.0000000000
40
0.9326375344
40
1.0000000000
40
1.0000000000
40
1.0000000000
40
1.0000000000
10
-75.3868684042
20
179.3542659823
30
0.0000000000
10
-75.3988553854
20
179.3588879575
30
0.0000000000
10
-75.4128230354
20
179.3613591725
30
0.0000000000
10
-75.4266951051
20
179.3609030753
30
0.0000000000
10
-75.4276287852
20
179.3608591502
30
0.0000000000
11
-75.3868684042
21
179.3542659823
31
0.0000000000
11
-75.4248257578
21
179.3609512397
31
0.0000000000
11
-75.4276287852
21
179.3608591502
31
0.0000000000
0
SPLINE
5
438
100
AcDbEntity
8
0
100
AcDbSpline
62
9
6
CONTINUOUS
70
0
71
3
72
11
73
7
74
5
42
0.0000001000
43
0.0000001000
44
0.0000000001
12
-0.1364282044
22
0.0140105337
32
0.0000000000
13
-0.0395342535
23
-0.1327328489
33
0.0000000000
40
0.0000000000
40
0.0000000000
40
0.0000000000
40
0.0000000000
40
0.3028818956
40
0.6052345461
40
0.9066924769
40
1.0000000000
40
1.0000000000
40
1.0000000000
40
1.0000000000
10
-76.9125909281
20
179.6860933228
30
0.0000000000
10
-76.9263648059
20
179.6875078351
30
0.0000000000
10
-76.9548247254
20
179.6845352359
30
0.0000000000
10
-76.9917763688
20
179.6632813787
30
0.0000000000
10
-77.0111719238
20
179.6368463483
30
0.0000000000
10
-77.0175065702
20
179.6197114931
30
0.0000000000
10
-77.0187361847
20
179.6155831686
30
0.0000000000
11
-76.9125909281
21
179.6860933228
31
0.0000000000
11
-76.9538994546
21
179.6817240419
31
0.0000000000
11
-76.9898549463
21
179.6610682254
31
0.0000000000
11
-77.0142523226
21
179.6276905862
31
0.0000000000
11
-77.0187361847
21
179.6155831686
31
0.0000000000
0
SPLINE
5
439
100
AcDbEntity
8
0
100
AcDbSpline
62
9
6
CONTINUOUS
70
0
71
3
72
8
73
4
74
2
42
0.0000001000
43
0.0000001000
44
0.0000000001
12
-0.0033860998
22
-0.0113685382
32
0.0000000000
13
-0.0020145149
23
-0.0116653788
33
0.0000000000
40
0.0000000000
40
0.0000000000
40
0.0000000000
40
0.0000000000
40
1.0000000000
40
1.0000000000
40
1.0000000000
40
1.0000000000
10
-77.0187361847
20
179.6155831686
30
0.0000000000
10
-77.0198648846
20
179.6117936559
30
0.0000000000
10
-77.0207680598
20
179.6079381704
30
0.0000000000
10
-77.0214395648
20
179.6040497108
30
0.0000000000
11
-77.0187361847
21
179.6155831686
31
0.0000000000
11
-77.0214395648
21
179.6040497108
31
0.0000000000
0
SPLINE
5
43A
100
AcDbEntity
8
0
100
AcDbSpline
62
9
6
CONTINUOUS
70
0
71
3
72
8
73
4
74
2
42
0.0000001000
43
0.0000001000
44
0.0000000001
12
-0.0006855855
22
-0.0039699952
32
0.0000000000
13
-0.0005238670
23
-0.0039890075
33
0.0000000000
40
0.0000000000
40
0.0000000000
40
0.0000000000
40
0.0000000000
40
1.0000000000
40
1.0000000000
40
1.0000000000
40
1.0000000000
10
-77.0214395648
20
179.6040497108
30
0.0000000000
10
-77.0216680932
20
179.6027263791
30
0.0000000000
10
-77.0218697898
20
179.6013992283
30
0.0000000000
10
-77.0220444121
20
179.6000695592
30
0.0000000000
11
-77.0214395648
21
179.6040497108
31
0.0000000000
11
-77.0220444121
21
179.6000695592
31
0.0000000000
0
SPLINE
5
43B
100
AcDbEntity
8
0
100
AcDbSpline
62
9
6
CONTINUOUS
70
0
71
3
72
8
73
4
74
2
42
0.0000001000
43
0.0000001000
44
0.0000000001
12
-0.0016657154
22
-0.0126836605
32
0.0000000000
13
-0.0000000018
23
-0.0127109900
33
0.0000000000
40
0.0000000000
40
0.0000000000
40
0.0000000000
40
0.0000000000
40
1.0000000000
40
1.0000000000
40
1.0000000000
40
1.0000000000
10
-77.0220444121
20
179.6000695592
30
0.0000000000
10
-77.0225996506
20
179.5958416723
30
0.0000000000
10
-77.0228811636
20
179.5915883242
30
0.0000000000
10
-77.0228811642
20
179.5873513276
30
0.0000000000
11
-77.0220444121
21
179.6000695592
31
0.0000000000
11
-77.0228811642
21
179.5873513276
31
0.0000000000
0
SPLINE
5
43C
100
AcDbEntity
8
0
100
AcDbSpline
62
9
6
CONTINUOUS
70
0
71
3
72
10
73
6
74
4
42
0.0000001000
43
0.0000001000
44
0.0000000001
12
-0.1210365973
22
0.0119148569
32
0.0000000000
13
-0.0533106822
23
-0.1105467502
33
0.0000000000
40
0.0000000000
40
0.0000000000
40
0.0000000000
40
0.0000000000
40
0.3413955304
40
0.6788235121
40
1.0000000000
40
1.0000000000
40
1.0000000000
40
1.0000000000
10
-76.9125914053
20
179.4379120240
30
0.0000000000
10
-76.9263651897
20
179.4392679170
30
0.0000000000
10
-76.9546063143
20
179.4364666650
30
0.0000000000
10
-76.9911428066
20
179.4165037998
30
0.0000000000
10
-77.0080539257
20
179.3948725656
30
0.0000000000
10
-77.0137613049
20
179.3830375600
30
0.0000000000
11
-76.9125914053
21
179.4379120240
31
0.0000000000
11
-76.9539014725
21
179.4337312825
31
0.0000000000
11
-76.9898592562
21
179.4139525124
31
0.0000000000
11
-77.0137613049
21
179.3830375600
31
0.0000000000
0
SPLINE
5
43D
100
AcDbEntity
8
0
100
AcDbSpline
62
9
6
CONTINUOUS
70
0
71
3
72
10
73
6
74
4
42
0.0000001000
43
0.0000001000
44
0.0000000001
12
0.1210105791
22
0.0119005592
32
0.0000000000
13
0.0533247757
23
-0.1105085263
33
0.0000000000
40
0.0000000000
40
0.0000000000
40
0.0000000000
40
0.0000000000
40
0.3414622253
40
0.6789559621
40
1.0000000000
40
1.0000000000
40
1.0000000000
40
1.0000000000
10
-78.1331713944
20
179.4379163509
30
0.0000000000
10
-78.1193978805
20
179.4392708814
30
0.0000000000
10
-78.0911579165
20
179.4364673411
30
0.0000000000
10
-78.0546309845
20
179.4165067111
30
0.0000000000
10
-78.0377241738
20
179.3948844391
30
0.0000000000
10
-78.0320176401
20
179.3830584046
30
0.0000000000
11
-78.1331713944
21
179.4379163509
31
0.0000000000
11
-78.0918628829
21
179.4337322371
31
0.0000000000
11
-78.0559074007
21
179.4139518020
31
0.0000000000
11
-78.0320176401
21
179.3830584046
31
0.0000000000
0
SPLINE
5
43E
100
AcDbEntity
8
0
100
AcDbSpline
62
9
6
CONTINUOUS
70
0
71
3
72
11
73
7
74
5
42
0.0000001000
43
0.0000001000
44
0.0000000001
12
0.1647257712
22
0.0169074676
32
0.0000000000
13
0.0000024998
23
-0.1655911898
33
0.0000000000
40
0.0000000000
40
0.0000000000
40
0.0000000000
40
0.0000000000
40
0.2508328946
40
0.5012304873
40
0.7508912799
40
1.0000000000
40
1.0000000000
40
1.0000000000
40
1.0000000000
10
-78.1331713915
20
179.6860932391
30
0.0000000000
10
-78.1193985108
20
179.6875068887
30
0.0000000000
10
-78.0909408066
20
179.6845329054
30
0.0000000000
10
-78.0539927278
20
179.6632784786
30
0.0000000000
10
-78.0288271502
20
179.6289766771
30
0.0000000000
10
-78.0228909116
20
179.6011013970
30
0.0000000000
10
-78.0228907041
20
179.5873513272
30
0.0000000000
11
-78.1331713915
21
179.6860932391
31
0.0000000000
11
-78.0918663259
21
179.6817220398
31
0.0000000000
11
-78.0559142354
21
179.6610658001
31
0.0000000000
11
-78.0315191286
21
179.6276890275
31
0.0000000000
11
-78.0228907041
21
179.5873513272
31
0.0000000000
0
SPLINE
5
43F
100
AcDbEntity
8
0
100
AcDbSpline
62
9
6
CONTINUOUS
70
0
71
3
72
9
73
5
74
3
42
0.0000001000
43
0.0000001000
44
0.0000000001
12
0.0385822683
22
0.0148726601
32
0.0000000000
13
0.0416051680
23
-0.0019714101
33
0.0000000000
40
0.0000000000
40
0.0000000000
40
0.0000000000
40
0.0000000000
40
0.9320597385
40
1.0000000000
40
1.0000000000
40
1.0000000000
40
1.0000000000
10
-79.6588969934
20
179.3542739180
30
0.0000000000
10
-79.6469100004
20
179.3588946539
30
0.0000000000
10
-79.6329339842
20
179.3613661601
30
0.0000000000
10
-79.6190538884
20
179.3609068999
30
0.0000000000
10
-79.6181116665
20
179.3608622539
30
0.0000000000
11
-79.6588969934
21
179.3542739180
31
0.0000000000
11
-79.6209403659
21
179.3609557764
31
0.0000000000
11
-79.6181116665
21
179.3608622539
31
0.0000000000
0
SPLINE
5
440
100
AcDbEntity
8
0
100
AcDbSpline
62
7
6
CONTINUOUS
70
0
71
3
72
8
73
4
74
2
42
0.0000001000
43
0.0000001000
44
0.0000000001
12
-0.3637448158
22
0.0000000000
32
0.0000000000
13
-0.3119855590
23
0.2176252506
33
0.0000000000
40
0.0000000000
40
0.0000000000
40
0.0000000000
40
0.0000000000
40
1.0000000000
40
1.0000000000
40
1.0000000000
40
1.0000000000
10
-483.4874830008
20
135.2607018813
30
0.0000000000
10
-483.6087312727
20
135.2607018813
30
0.0000000000
10
-483.7230756071
20
135.3109940315
30
0.0000000000
10
-483.8270707934
20
135.3835357817
30
0.0000000000
11
-483.4874830008
21
135.2607018813
31
0.0000000000
11
-483.8270707934
21
135.3835357817
31
0.0000000000
0
SPLINE
5
441
100
AcDbEntity
8
0
100
AcDbSpline
62
7
6
CONTINUOUS
70
0
71
3
72
8
73
4
74
2
42
0.0000001000
43
0.0000001000
44
0.0000000001
12
-0.1528554380
22
0.1066241756
32
0.0000000000
13
-0.1367343063
23
0.1287754792
33
0.0000000000
40
0.0000000000
40
0.0000000000
40
0.0000000000
40
0.0000000000
40
1.0000000000
40
1.0000000000
40
1.0000000000
40
1.0000000000
10
-483.8270707934
20
135.3835357817
30
0.0000000000
10
-483.8780226061
20
135.4190771736
30
0.0000000000
10
-483.9264901567
20
135.4599594724
30
0.0000000000
10
-483.9720682588
20
135.5028846321
30
0.0000000000
11
-483.8270707934
21
135.3835357817
31
0.0000000000
11
-483.9720682588
21
135.5028846321
31
0.0000000000
0
SPLINE
5
442
100
AcDbEntity
8
0
100
AcDbSpline
62
7
6
CONTINUOUS
70
0
71
3
72
9
73
5
74
3
42
0.0000001000
43
0.0000001000
44
0.0000000001
12
-0.4552134109
22
0.4287170259
32
0.0000000000
13
-0.3110419012
23
0.5000366008
33
0.0000000000
40
0.0000000000
40
0.0000000000
40
0.0000000000
40
0.0000000000
40
0.0601583716
40
1.0000000000
40
1.0000000000
40
1.0000000000
40
1.0000000000
10
-483.9720682588
20
135.5028846321
30
0.0000000000
10
-483.9811965580
20
135.5114816048
30
0.0000000000
10
-484.1310077856
20
135.6557493832
30
0.0000000000
10
-484.2478945216
20
135.8153381998
30
0.0000000000
10
-484.3453378972
20
135.9719899375
30
0.0000000000
11
-483.9720682588
21
135.5028846321
31
0.0000000000
11
-483.9991022023
21
135.5288948813
31
0.0000000000
11
-484.3453378972
21
135.9719899375
31
0.0000000000
0
SPLINE
5
443
100
AcDbEntity
8
0
100
AcDbSpline
62
7
6
CONTINUOUS
70
0
71
3
72
8
73
4
74
2
42
0.0000001000
43
0.0000001000
44
0.0000000001
12
-0.1250158609
22
0.2009777651
32
0.0000000000
13
-0.1153078245
23
0.2066779450
33
0.0000000000
40
0.0000000000
40
0.0000000000
40
0.0000000000
40
0.0000000000
40
1.0000000000
40
1.0000000000
40
1.0000000000
40
1.0000000000
10
-484.3453378972
20
135.9719899375
30
0.0000000000
10
-484.3870098508
20
136.0389825259
30
0.0000000000
10
-484.4264118747
20
136.1071937869
30
0.0000000000
10
-484.4648478163
20
136.1760864353
30
0.0000000000
11
-484.3453378972
21
135.9719899375
31
0.0000000000
11
-484.4648478163
21
136.1760864353
31
0.0000000000
0
SPLINE
5
444
100
AcDbEntity
8
0
100
AcDbSpline
62
7
6
CONTINUOUS
70
0
71
3
72
8
73
4
74
2
42
0.0000001000
43
0.0000001000
44
0.0000000001
12
-0.0468044683
22
0.0838924103
32
0.0000000000
13
-0.0461110237
23
0.0844582124
33
0.0000000000
40
0.0000000000
40
0.0000000000
40
0.0000000000
40
0.0000000000
40
1.0000000000
40
1.0000000000
40
1.0000000000
40
1.0000000000
10
-484.4648478163
20
136.1760864353
30
0.0000000000
10
-484.4804493057
20
136.2040505720
30
0.0000000000
10
-484.4958916214
20
136.2321269755
30
0.0000000000
10
-484.5112619627
20
136.2602797130
30
0.0000000000
11
-484.4648478163
21
136.1760864353
31
0.0000000000
11
-484.5112619627
21
136.2602797130
31
0.0000000000
0
SPLINE
5
445
100
AcDbEntity
8
0
100
AcDbSpline
62
7
6
CONTINUOUS
70
0
71
3
72
8
73
4
74
2
42
0.0000001000
43
0.0000001000
44
0.0000000001
12
-0.1714921840
22
0.3141097752
32
0.0000000000
13
-0.1660551828
23
0.3193721333
33
0.0000000000
40
0.0000000000
40
0.0000000000
40
0.0000000000
40
0.0000000000
40
1.0000000000
40
1.0000000000
40
1.0000000000
40
1.0000000000
10
-484.5112619627
20
136.2602797130
30
0.0000000000
10
-484.5684260240
20
136.3649829714
30
0.0000000000
10
-484.6245945474
20
136.4707420671
30
0.0000000000
10
-484.6799462750
20
136.5771994449
30
0.0000000000
11
-484.5112619627
21
136.2602797130
31
0.0000000000
11
-484.6799462750
21
136.5771994449
31
0.0000000000
0
SPLINE
5
446
100
AcDbEntity
8
0
100
AcDbSpline
62
7
6
CONTINUOUS
70
0
71
3
72
8
73
4
74
2
42
0.0000001000
43
0.0000001000
44
0.0000000001
12
-0.1739241176
22
0.3345063704
32
0.0000000000
13
-0.1691639944
23
0.3378700504
33
0.0000000000
40
0.0000000000
40
0.0000000000
40
0.0000000000
40
0.0000000000
40
1.0000000000
40
1.0000000000
40
1.0000000000
40
1.0000000000
10
-484.6799462750
20
136.5771994449
30
0.0000000000
10
-484.7379209808
20
136.6887015683
30
0.0000000000
10
-484.7949996450
20
136.8009697216
30
0.0000000000
10
-484.8513876431
20
136.9135930717
30
0.0000000000
11
-484.6799462750
21
136.5771994449
31
0.0000000000
11
-484.8513876431
21
136.9135930717
31
0.0000000000
0
SPLINE
5
447
100
AcDbEntity
8
0
100
AcDbSpline
62
7
6
CONTINUOUS
70
0
71
3
72
8
73
4
74
2
42
0.0000001000
43
0.0000001000
44
0.0000000001
12
-0.1734504680
22
0.3464313939
32
0.0000000000
13
-0.1697579609
23
0.3473433639
33
0.0000000000
40
0.0000000000
40
0.0000000000
40
0.0000000000
40
0.0000000000
40
1.0000000000
40
1.0000000000
40
1.0000000000
40
1.0000000000
10
-484.8513876431
20
136.9135930717
30
0.0000000000
10
-484.9092044658
20
137.0290702030
30
0.0000000000
10
-484.9662951772
20
137.1449207600
30
0.0000000000
10
-485.0228811642
20
137.2607018813
30
0.0000000000
11
-484.8513876431
21
136.9135930717
31
0.0000000000
11
-485.0228811642
21
137.2607018813
31
0.0000000000
0
SPLINE
5
448
100
AcDbEntity
8
0
100
AcDbSpline
62
7
6
CONTINUOUS
70
0
71
3
72
8
73
4
74
2
42
0.0000001000
43
0.0000001000
44
0.0000000001
12
0.5391957997
22
0.0000000000
32
0.0000000000
13
0.4145079892
23
-0.3890334385
33
0.0000000000
40
0.0000000000
40
0.0000000000
40
0.0000000000
40
0.0000000000
40
1.0000000000
40
1.0000000000
40
1.0000000000
40
1.0000000000
10
113.4417206724
20
175.2607018813
30
0.0000000000
10
113.6214526057
20
175.2607018813
30
0.0000000000
10
113.7860141669
20
175.1501923899
30
0.0000000000
10
113.9241834966
20
175.0205145771
30
0.0000000000
11
113.4417206724
21
175.2607018813
31
0.0000000000
11
113.9241834966
21
175.0205145771
31
0.0000000000
0
SPLINE
5
449
100
AcDbEntity
8
0
100
AcDbSpline
62
7
6
CONTINUOUS
70
0
71
3
72
9
73
5
74
3
42
0.0000001000
43
0.0000001000
44
0.0000000001
12
0.4582319756
22
-0.4300702658
32
0.0000000000
13
0.3124907117
23
-0.5023657348
33
0.0000000000
40
0.0000000000
40
0.0000000000
40
0.0000000000
40
0.0000000000
40
0.0645157888
40
1.0000000000
40
1.0000000000
40
1.0000000000
40
1.0000000000
10
113.9241834966
20
175.0205145771
30
0.0000000000
10
113.9340378958
20
175.0112658030
30
0.0000000000
10
114.0847010074
20
174.8663977325
30
0.0000000000
10
114.2021321932
20
174.7060655628
30
0.0000000000
10
114.2995755688
20
174.5494138251
30
0.0000000000
11
113.9241834966
21
175.0205145771
31
0.0000000000
11
113.9533398739
21
174.9925088813
31
0.0000000000
11
114.2995755688
21
174.5494138251
31
0.0000000000
0
SPLINE
5
44A
100
AcDbEntity
8
0
100
AcDbSpline
62
7
6
CONTINUOUS
70
0
71
3
72
8
73
4
74
2
42
0.0000001000
43
0.0000001000
44
0.0000000001
12
0.1250158609
22
-0.2009777651
32
0.0000000000
13
0.1153078245
23
-0.2066779450
33
0.0000000000
40
0.0000000000
40
0.0000000000
40
0.0000000000
40
0.0000000000
40
1.0000000000
40
1.0000000000
40
1.0000000000
40
1.0000000000
10
114.2995755688
20
174.5494138251
30
0.0000000000
10
114.3412475225
20
174.4824212367
30
0.0000000000
10
114.3806495464
20
174.4142099757
30
0.0000000000
10
114.4190854879
20
174.3453173274
30
0.0000000000
11
114.2995755688
21
174.5494138251
31
0.0000000000
11
114.4190854879
21
174.3453173274
31
0.0000000000
0
SPLINE
5
44B
100
AcDbEntity
8
0
100
AcDbSpline
62
7
6
CONTINUOUS
70
0
71
3
72
8
73
4
74
2
42
0.0000001000
43
0.0000001000
44
0.0000000001
12
0.0468044683
22
-0.0838924103
32
0.0000000000
13
0.0461110237
23
-0.0844582124
33
0.0000000000
40
0.0000000000
40
0.0000000000
40
0.0000000000
40
0.0000000000
40
1.0000000000
40
1.0000000000
40
1.0000000000
40
1.0000000000
10
114.4190854879
20
174.3453173274
30
0.0000000000
10
114.4346869773
20
174.3173531906
30
0.0000000000
10
114.4501292931
20
174.2892767871
30
0.0000000000
10
114.4654996343
20
174.2611240496
30
0.0000000000
11
114.4190854879
21
174.3453173274
31
0.0000000000
11
114.4654996343
21
174.2611240496
31
0.0000000000
0
SPLINE
5
44C
100
AcDbEntity
8
0
100
AcDbSpline
62
7
6
CONTINUOUS
70
0
71
3
72
8
73
4
74
2
42
0.0000001000
43
0.0000001000
44
0.0000000001
12
0.1714921840
22
-0.3141097752
32
0.0000000000
13
0.1660551828
23
-0.3193721333
33
0.0000000000
40
0.0000000000
40
0.0000000000
40
0.0000000000
40
0.0000000000
40
1.0000000000
40
1.0000000000
40
1.0000000000
40
1.0000000000
10
114.4654996343
20
174.2611240496
30
0.0000000000
10
114.5226636957
20
174.1564207912
30
0.0000000000
10
114.5788322190
20
174.0506616955
30
0.0000000000
10
114.6341839466
20
173.9442043178
30
0.0000000000
11
114.4654996343
21
174.2611240496
31
0.0000000000
11
114.6341839466
21
173.9442043178
31
0.0000000000
0
SPLINE
5
44D
100
AcDbEntity
8
0
100
AcDbSpline
62
7
6
CONTINUOUS
70
0
71
3
72
8
73
4
74
2
42
0.0000001000
43
0.0000001000
44
0.0000000001
12
0.1739241176
22
-0.3345063704
32
0.0000000000
13
0.1691639944
23
-0.3378700504
33
0.0000000000
40
0.0000000000
40
0.0000000000
40
0.0000000000
40
0.0000000000
40
1.0000000000
40
1.0000000000
40
1.0000000000
40
1.0000000000
10
114.6341839466
20
173.9442043178
30
0.0000000000
10
114.6921586525
20
173.8327021943
30
0.0000000000
10
114.7492373166
20
173.7204340410
30
0.0000000000
10
114.8056253148
20
173.6078106909
30
0.0000000000
11
114.6341839466
21
173.9442043178
31
0.0000000000
11
114.8056253148
21
173.6078106909
31
0.0000000000
0
SPLINE
5
44E
100
AcDbEntity
8
0
100
AcDbSpline
62
7
6
CONTINUOUS
70
0
71
3
72
8
73
4
74
2
42
0.0000001000
43
0.0000001000
44
0.0000000001
12
0.1734504680
22
-0.3464313939
32
0.0000000000
13
0.1697579609
23
-0.3473433639
33
0.0000000000
40
0.0000000000
40
0.0000000000
40
0.0000000000
40
0.0000000000
40
1.0000000000
40
1.0000000000
40
1.0000000000
40
1.0000000000
10
114.8056253148
20
173.6078106909
30
0.0000000000
10
114.8634421374
20
173.4923335596
30
0.0000000000
10
114.9205328488
20
173.3764830026
30
0.0000000000
10
114.9771188358
20
173.2607018813
30
0.0000000000
11
114.8056253148
21
173.6078106909
31
0.0000000000
11
114.9771188358
21
173.2607018813
31
0.0000000000
0
SPLINE
5
44F
100
AcDbEntity
8
0
100
AcDbSpline
62
7
6
CONTINUOUS
70
0
71
3
72
8
73
4
74
2
42
0.0000001000
43
0.0000001000
44
0.0000000001
12
0.3353207010
22
0.6861028468
32
0.0000000000
13
0.3522553263
23
0.6774888515
33
0.0000000000
40
0.0000000000
40
0.0000000000
40
0.0000000000
40
0.0000000000
40
1.0000000000
40
1.0000000000
40
1.0000000000
40
1.0000000000
10
-485.0228811642
20
173.2607018813
30
0.0000000000
10
-484.9111075972
20
173.4894028303
30
0.0000000000
10
-484.7973647171
20
173.7183747006
30
0.0000000000
10
-484.6799462750
20
173.9442043178
30
0.0000000000
11
-485.0228811642
21
173.2607018813
31
0.0000000000
11
-484.6799462750
21
173.9442043178
31
0.0000000000
0
SPLINE
5
450
100
AcDbEntity
8
0
100
AcDbSpline
62
7
6
CONTINUOUS
70
0
71
3
72
9
73
5
74
3
42
0.0000001000
43
0.0000001000
44
0.0000000001
12
0.3207021831
22
0.6168030331
32
0.0000000000
13
0.3644875526
23
0.5859567991
33
0.0000000000
40
0.0000000000
40
0.0000000000
40
0.0000000000
40
0.0000000000
40
0.5177862563
40
1.0000000000
40
1.0000000000
40
1.0000000000
40
1.0000000000
10
-484.6799462750
20
173.9442043178
30
0.0000000000
10
-484.6245945474
20
174.0506616955
30
0.0000000000
10
-484.5161163429
20
174.2549141152
30
0.0000000000
10
-484.4039248663
20
174.4552283512
30
0.0000000000
10
-484.3453378972
20
174.5494138251
30
0.0000000000
11
-484.6799462750
21
173.9442043178
31
0.0000000000
11
-484.5112619627
21
174.2611240496
31
0.0000000000
11
-484.3453378972
21
174.5494138251
31
0.0000000000
0
SPLINE
5
451
100
AcDbEntity
8
0
100
AcDbSpline
62
7
6
CONTINUOUS
70
0
71
3
72
8
73
4
74
2
42
0.0000001000
43
0.0000001000
44
0.0000000001
12
0.0556449287
22
0.0894557964
32
0.0000000000
13
0.0586881225
23
0.0878650232
33
0.0000000000
40
0.0000000000
40
0.0000000000
40
0.0000000000
40
0.0000000000
40
1.0000000000
40
1.0000000000
40
1.0000000000
40
1.0000000000
10
-484.3453378972
20
174.5494138251
30
0.0000000000
10
-484.3267895876
20
174.5792324239
30
0.0000000000
10
-484.3077915672
20
174.6088095834
30
0.0000000000
10
-484.2882288597
20
174.6380979245
30
0.0000000000
11
-484.3453378972
21
174.5494138251
31
0.0000000000
11
-484.2882288597
21
174.6380979245
31
0.0000000000
0
SPLINE
5
452
100
AcDbEntity
8
0
100
AcDbSpline
62
7
6
CONTINUOUS
70
0
71
3
72
9
73
5
74
3
42
0.0000001000
43
0.0000001000
44
0.0000000001
12
0.2708925528
22
0.4055672497
32
0.0000000000
13
0.3766350364
23
0.3534880559
33
0.0000000000
40
0.0000000000
40
0.0000000000
40
0.0000000000
40
0.0000000000
40
0.9215070440
40
1.0000000000
40
1.0000000000
40
1.0000000000
40
1.0000000000
10
-484.2882288597
20
174.6380979245
30
0.0000000000
10
-484.2050190612
20
174.7626756169
30
0.0000000000
10
-484.1036348964
20
174.8921942543
30
0.0000000000
10
-483.9798002241
20
175.0112658030
30
0.0000000000
10
-483.9699458250
20
175.0205145771
30
0.0000000000
11
-484.2882288597
21
174.6380979245
31
0.0000000000
11
-483.9991022023
21
174.9925088813
31
0.0000000000
11
-483.9699458250
21
175.0205145771
31
0.0000000000
0
SPLINE
5
453
100
AcDbEntity
8
0
100
AcDbSpline
62
7
6
CONTINUOUS
70
0
71
3
72
8
73
4
74
2
42
0.0000001000
43
0.0000001000
44
0.0000000001
12
0.4145079892
22
0.3890334385
32
0.0000000000
13
0.5391957997
23
0.0000000000
33
0.0000000000
40
0.0000000000
40
0.0000000000
40
0.0000000000
40
0.0000000000
40
1.0000000000
40
1.0000000000
40
1.0000000000
40
1.0000000000
10
-483.9699458250
20
175.0205145771
30
0.0000000000
10
-483.8317764952
20
175.1501923899
30
0.0000000000
10
-483.6672149340
20
175.2607018813
30
0.0000000000
10
-483.4874830008
20
175.2607018813
30
0.0000000000
11
-483.9699458250
21
175.0205145771
31
0.0000000000
11
-483.4874830008
21
175.2607018813
31
0.0000000000
0
SPLINE
5
454
100
AcDbEntity
8
0
100
AcDbSpline
62
7
6
CONTINUOUS
70
0
71
3
72
8
73
4
74
2
42
0.0000001000
43
0.0000001000
44
0.0000000001
12
-0.2143823984
22
0.3798819100
32
0.0000000000
13
-0.2439277827
23
0.3620413904
33
0.0000000000
40
0.0000000000
40
0.0000000000
40
0.0000000000
40
0.0000000000
40
1.0000000000
40
1.0000000000
40
1.0000000000
40
1.0000000000
10
114.9771188358
20
174.2607018813
30
0.0000000000
10
114.9056580363
20
174.3873291847
30
0.0000000000
10
114.8304751202
20
174.5119124512
30
0.0000000000
10
114.7491658593
20
174.6325929146
30
0.0000000000
11
114.9771188358
21
174.2607018813
31
0.0000000000
11
114.7491658593
21
174.6325929146
31
0.0000000000
0
SPLINE
5
455
100
AcDbEntity
8
0
100
AcDbSpline
62
7
6
CONTINUOUS
70
0
71
3
72
10
73
6
74
4
42
0.0000001000
43
0.0000001000
44
0.0000000001
12
-0.5841912215
22
0.8670656526
32
0.0000000000
13
-1.0446697207
23
0.0000000000
33
0.0000000000
40
0.0000000000
40
0.0000000000
40
0.0000000000
40
0.0000000000
40
0.1873283247
40
0.6535385382
40
1.0000000000
40
1.0000000000
40
1.0000000000
40
1.0000000000
10
114.7491658593
20
174.6325929146
30
0.0000000000
10
114.7126873383
20
174.6867349000
30
0.0000000000
10
114.5811215801
20
174.8728812829
30
0.0000000000
10
114.3528007238
20
175.1399541163
30
0.0000000000
10
114.0741659931
20
175.2607018813
30
0.0000000000
10
113.9535200602
20
175.2607018813
30
0.0000000000
11
114.7491658593
21
174.6325929146
31
0.0000000000
11
114.6358139136
21
174.7924943877
31
0.0000000000
11
114.2948249824
21
175.1402447517
31
0.0000000000
11
113.9535200602
21
175.2607018813
31
0.0000000000
0
SPLINE
5
456
100
AcDbEntity
8
0
100
AcDbSpline
62
7
6
CONTINUOUS
70
0
71
3
72
8
73
4
74
2
42
0.0000001000
43
0.0000001000
44
0.0000000001
12
-0.3619377985
22
0.0000000000
32
0.0000000000
13
-0.3056109262
23
-0.2069383682
33
0.0000000000
40
0.0000000000
40
0.0000000000
40
0.0000000000
40
0.0000000000
40
1.0000000000
40
1.0000000000
40
1.0000000000
40
1.0000000000
10
-483.9992823886
20
175.2607018813
30
0.0000000000
10
-484.1199283214
20
175.2607018813
30
0.0000000000
10
-484.2387170020
20
175.2092242078
30
0.0000000000
10
-484.3405873108
20
175.1402447517
30
0.0000000000
11
-483.9992823886
21
175.2607018813
31
0.0000000000
11
-484.3405873108
21
175.1402447517
31
0.0000000000
0
SPLINE
5
457
100
AcDbEntity
8
0
100
AcDbSpline
62
7
6
CONTINUOUS
70
0
71
3
72
9
73
5
74
3
42
0.0000001000
43
0.0000001000
44
0.0000000001
12
-0.7548429046
22
-0.5111268792
32
0.0000000000
13
-0.4669019400
23
-0.7625445779
33
0.0000000000
40
0.0000000000
40
0.0000000000
40
0.0000000000
40
0.0000000000
40
0.5448025733
40
1.0000000000
40
1.0000000000
40
1.0000000000
40
1.0000000000
10
-484.3405873108
20
175.1402447517
30
0.0000000000
10
-484.4776674297
20
175.0474236720
30
0.0000000000
10
-484.6730510796
20
174.8188783443
30
0.0000000000
10
-484.8381721947
20
174.5704377230
30
0.0000000000
10
-484.9090163819
20
174.4547349465
30
0.0000000000
11
-484.3405873108
21
175.1402447517
31
0.0000000000
11
-484.6815762420
21
174.7924943877
31
0.0000000000
11
-484.9090163819
21
174.4547349465
31
0.0000000000
0
SPLINE
5
458
100
AcDbEntity
8
0
100
AcDbSpline
62
7
6
CONTINUOUS
70
0
71
3
72
8
73
4
74
2
42
0.0000001000
43
0.0000001000
44
0.0000000001
12
-0.0723345126
22
-0.1181367770
32
0.0000000000
13
-0.0695639649
23
-0.1197745195
33
0.0000000000
40
0.0000000000
40
0.0000000000
40
0.0000000000
40
0.0000000000
40
1.0000000000
40
1.0000000000
40
1.0000000000
40
1.0000000000
10
-484.9090163819
20
174.4547349465
30
0.0000000000
10
-484.9331278861
20
174.4153560208
30
0.0000000000
10
-484.9567391542
20
174.3756743897
30
0.0000000000
10
-484.9799271425
20
174.3357495498
30
0.0000000000
11
-484.9090163819
21
174.4547349465
31
0.0000000000
11
-484.9799271425
21
174.3357495498
31
0.0000000000
0
SPLINE
5
459
100
AcDbEntity
8
0
100
AcDbSpline
62
7
6
CONTINUOUS
70
0
71
3
72
8
73
4
74
2
42
0.0000001000
43
0.0000001000
44
0.0000000001
12
-0.0434302486
22
-0.0747777555
32
0.0000000000
13
-0.0424965218
23
-0.0753031032
33
0.0000000000
40
0.0000000000
40
0.0000000000
40
0.0000000000
40
0.0000000000
40
1.0000000000
40
1.0000000000
40
1.0000000000
40
1.0000000000
10
-484.9799271425
20
174.3357495498
30
0.0000000000
10
-484.9944038920
20
174.3108236313
30
0.0000000000
10
-485.0087156569
20
174.2858029157
30
0.0000000000
10
-485.0228811642
20
174.2607018813
30
0.0000000000
11
-484.9799271425
21
174.3357495498
31
0.0000000000
11
-485.0228811642
21
174.2607018813
31
0.0000000000
0
SPLINE
5
45A
100
AcDbEntity
8
0
100
AcDbSpline
62
7
6
CONTINUOUS
70
0
71
3
72
8
73
4
74
2
42
0.0000001000
43
0.0000001000
44
0.0000000001
12
0.3637448158
22
0.0000000000
32
0.0000000000
13
0.3119855590
23
-0.2176252506
33
0.0000000000
40
0.0000000000
40
0.0000000000
40
0.0000000000
40
0.0000000000
40
1.0000000000
40
1.0000000000
40
1.0000000000
40
1.0000000000
10
113.4417206724
20
-276.7392981187
30
0.0000000000
10
113.5629689444
20
-276.7392981187
30
0.0000000000
10
113.6773132787
20
-276.7895902689
30
0.0000000000
10
113.7813084651
20
-276.8621320191
30
0.0000000000
11
113.4417206724
21
-276.7392981187
31
0.0000000000
11
113.7813084651
21
-276.8621320191
31
0.0000000000
0
SPLINE
5
45B
100
AcDbEntity
8
0
100
AcDbSpline
62
7
6
CONTINUOUS
70
0
71
3
72
8
73
4
74
2
42
0.0000001000
43
0.0000001000
44
0.0000000001
12
0.1528554380
22
-0.1066241756
32
0.0000000000
13
0.1367343063
23
-0.1287754792
33
0.0000000000
40
0.0000000000
40
0.0000000000
40
0.0000000000
40
0.0000000000
40
1.0000000000
40
1.0000000000
40
1.0000000000
40
1.0000000000
10
113.7813084651
20
-276.8621320191
30
0.0000000000
10
113.8322602777
20
-276.8976734109
30
0.0000000000
10
113.8807278284
20
-276.9385557097
30
0.0000000000
10
113.9263059305
20
-276.9814808695
30
0.0000000000
11
113.7813084651
21
-276.8621320191
31
0.0000000000
11
113.9263059305
21
-276.9814808695
31
0.0000000000
0
SPLINE
5
45C
100
AcDbEntity
8
0
100
AcDbSpline
62
7
6
CONTINUOUS
70
0
71
3
72
9
73
5
74
3
42
0.0000001000
43
0.0000001000
44
0.0000000001
12
0.4552134109
22
-0.4287170259
32
0.0000000000
13
0.3110419012
23
-0.5000366008
33
0.0000000000
40
0.0000000000
40
0.0000000000
40
0.0000000000
40
0.0000000000
40
0.0601583716
40
1.0000000000
40
1.0000000000
40
1.0000000000
40
1.0000000000
10
113.9263059305
20
-276.9814808695
30
0.0000000000
10
113.9354342296
20
-276.9900778422
30
0.0000000000
10
114.0852454573
20
-277.1343456206
30
0.0000000000
10
114.2021321932
20
-277.2939344372
30
0.0000000000
10
114.2995755688
20
-277.4505861749
30
0.0000000000
11
113.9263059305
21
-276.9814808695
31
0.0000000000
11
113.9533398739
21
-277.0074911187
31
0.0000000000
11
114.2995755688
21
-277.4505861749
31
0.0000000000
0
SPLINE
5
45D
100
AcDbEntity
8
0
100
AcDbSpline
62
7
6
CONTINUOUS
70
0
71
3
72
8
73
4
74
2
42
0.0000001000
43
0.0000001000
44
0.0000000001
12
0.1250158609
22
-0.2009777651
32
0.0000000000
13
0.1153078245
23
-0.2066779450
33
0.0000000000
40
0.0000000000
40
0.0000000000
40
0.0000000000
40
0.0000000000
40
1.0000000000
40
1.0000000000
40
1.0000000000
40
1.0000000000
10
114.2995755688
20
-277.4505861749
30
0.0000000000
10
114.3412475225
20
-277.5175787633
30
0.0000000000
10
114.3806495464
20
-277.5857900243
30
0.0000000000
10
114.4190854879
20
-277.6546826726
30
0.0000000000
11
114.2995755688
21
-277.4505861749
31
0.0000000000
11
114.4190854879
21
-277.6546826726
31
0.0000000000
0
SPLINE
5
45E
100
AcDbEntity
8
0
100
AcDbSpline
62
7
6
CONTINUOUS
70
0
71
3
72
8
73
4
74
2
42
0.0000001000
43
0.0000001000
44
0.0000000001
12
0.0468044683
22
-0.0838924103
32
0.0000000000
13
0.0461110237
23
-0.0844582124
33
0.0000000000
40
0.0000000000
40
0.0000000000
40
0.0000000000
40
0.0000000000
40
1.0000000000
40
1.0000000000
40
1.0000000000
40
1.0000000000
10
114.4190854879
20
-277.6546826726
30
0.0000000000
10
114.4346869773
20
-277.6826468094
30
0.0000000000
10
114.4501292931
20
-277.7107232129
30
0.0000000000
10
114.4654996343
20
-277.7388759504
30
0.0000000000
11
114.4190854879
21
-277.6546826726
31
0.0000000000
11
114.4654996343
21
-277.7388759504
31
0.0000000000
0
SPLINE
5
45F
100
AcDbEntity
8
0
100
AcDbSpline
62
7
6
CONTINUOUS
70
0
71
3
72
8
73
4
74
2
42
0.0000001000
43
0.0000001000
44
0.0000000001
12
0.1714921840
22
-0.3141097752
32
0.0000000000
13
0.1660551828
23
-0.3193721333
33
0.0000000000
40
0.0000000000
40
0.0000000000
40
0.0000000000
40
0.0000000000
40
1.0000000000
40
1.0000000000
40
1.0000000000
40
1.0000000000
10
114.4654996343
20
-277.7388759504
30
0.0000000000
10
114.5226636957
20
-277.8435792088
30
0.0000000000
10
114.5788322190
20
-277.9493383045
30
0.0000000000
10
114.6341839466
20
-278.0557956822
30
0.0000000000
11
114.4654996343
21
-277.7388759504
31
0.0000000000
11
114.6341839466
21
-278.0557956822
31
0.0000000000
0
SPLINE
5
460
100
AcDbEntity
8
0
100
AcDbSpline
62
7
6
CONTINUOUS
70
0
71
3
72
8
73
4
74
2
42
0.0000001000
43
0.0000001000
44
0.0000000001
12
0.1739241176
22
-0.3345063704
32
0.0000000000
13
0.1691639944
23
-0.3378700504
33
0.0000000000
40
0.0000000000
40
0.0000000000
40
0.0000000000
40
0.0000000000
40
1.0000000000
40
1.0000000000
40
1.0000000000
40
1.0000000000
10
114.6341839466
20
-278.0557956822
30
0.0000000000
10
114.6921586525
20
-278.1672978057
30
0.0000000000
10
114.7492373166
20
-278.2795659590
30
0.0000000000
10
114.8056253148
20
-278.3921893091
30
0.0000000000
11
114.6341839466
21
-278.0557956822
31
0.0000000000
11
114.8056253148
21
-278.3921893091
31
0.0000000000
0
SPLINE
5
461
100
AcDbEntity
8
0
100
AcDbSpline
62
7
6
CONTINUOUS
70
0
71
3
72
8
73
4
74
2
42
0.0000001000
43
0.0000001000
44
0.0000000001
12
0.1734504680
22
-0.3464313939
32
0.0000000000
13
0.1697579609
23
-0.3473433639
33
0.0000000000
40
0.0000000000
40
0.0000000000
40
0.0000000000
40
0.0000000000
40
1.0000000000
40
1.0000000000
40
1.0000000000
40
1.0000000000
10
114.8056253148
20
-278.3921893091
30
0.0000000000
10
114.8634421374
20
-278.5076664404
30
0.0000000000
10
114.9205328488
20
-278.6235169974
30
0.0000000000
10
114.9771188358
20
-278.7392981187
30
0.0000000000
11
114.8056253148
21
-278.3921893091
31
0.0000000000
11
114.9771188358
21
-278.7392981187
31
0.0000000000
0
SPLINE
5
462
100
AcDbEntity
8
0
100
AcDbSpline
62
7
6
CONTINUOUS
70
0
71
3
72
8
73
4
74
2
42
0.0000001000
43
0.0000001000
44
0.0000000001
12
-0.5391957997
22
0.0000000000
32
0.0000000000
13
-0.4145079892
23
0.3890334385
33
0.0000000000
40
0.0000000000
40
0.0000000000
40
0.0000000000
40
0.0000000000
40
1.0000000000
40
1.0000000000
40
1.0000000000
40
1.0000000000
10
-483.4874830008
20
-316.7392981187
30
0.0000000000
10
-483.6672149340
20
-316.7392981187
30
0.0000000000
10
-483.8317764952
20
-316.6287886273
30
0.0000000000
10
-483.9699458250
20
-316.4991108145
30
0.0000000000
11
-483.4874830008
21
-316.7392981187
31
0.0000000000
11
-483.9699458250
21
-316.4991108145
31
0.0000000000
0
SPLINE
5
463
100
AcDbEntity
8
0
100
AcDbSpline
62
7
6
CONTINUOUS
70
0
71
3
72
9
73
5
74
3
42
0.0000001000
43
0.0000001000
44
0.0000000001
12
-0.4582319757
22
0.4300702658
32
0.0000000000
13
-0.3124907117
23
0.5023657348
33
0.0000000000
40
0.0000000000
40
0.0000000000
40
0.0000000000
40
0.0000000000
40
0.0645157888
40
1.0000000000
40
1.0000000000
40
1.0000000000
40
1.0000000000
10
-483.9699458250
20
-316.4991108145
30
0.0000000000
10
-483.9798002241
20
-316.4898620403
30
0.0000000000
10
-484.1304633357
20
-316.3449939698
30
0.0000000000
10
-484.2478945216
20
-316.1846618002
30
0.0000000000
10
-484.3453378972
20
-316.0280100625
30
0.0000000000
11
-483.9699458250
21
-316.4991108145
31
0.0000000000
11
-483.9991022023
21
-316.4711051187
31
0.0000000000
11
-484.3453378972
21
-316.0280100625
31
0.0000000000
0
SPLINE
5
464
100
AcDbEntity
8
0
100
AcDbSpline
62
7
6
CONTINUOUS
70
0
71
3
72
8
73
4
74
2
42
0.0000001000
43
0.0000001000
44
0.0000000001
12
-0.1250158609
22
0.2009777651
32
0.0000000000
13
-0.1153078245
23
0.2066779450
33
0.0000000000
40
0.0000000000
40
0.0000000000
40
0.0000000000
40
0.0000000000
40
1.0000000000
40
1.0000000000
40
1.0000000000
40
1.0000000000
10
-484.3453378972
20
-316.0280100625
30
0.0000000000
10
-484.3870098508
20
-315.9610174741
30
0.0000000000
10
-484.4264118747
20
-315.8928062131
30
0.0000000000
10
-484.4648478163
20
-315.8239135647
30
0.0000000000
11
-484.3453378972
21
-316.0280100625
31
0.0000000000
11
-484.4648478163
21
-315.8239135647
31
0.0000000000
0
SPLINE
5
465
100
AcDbEntity
8
0
100
AcDbSpline
62
7
6
CONTINUOUS
70
0
71
3
72
8
73
4
74
2
42
0.0000001000
43
0.0000001000
44
0.0000000001
12
-0.0468044683
22
0.0838924103
32
0.0000000000
13
-0.0461110237
23
0.0844582124
33
0.0000000000
40
0.0000000000
40
0.0000000000
40
0.0000000000
40
0.0000000000
40
1.0000000000
40
1.0000000000
40
1.0000000000
40
1.0000000000
10
-484.4648478163
20
-315.8239135647
30
0.0000000000
10
-484.4804493057
20
-315.7959494280
30
0.0000000000
10
-484.4958916214
20
-315.7678730245
30
0.0000000000
10
-484.5112619627
20
-315.7397202870
30
0.0000000000
11
-484.4648478163
21
-315.8239135647
31
0.0000000000
11
-484.5112619627
21
-315.7397202870
31
0.0000000000
0
SPLINE
5
466
100
AcDbEntity
8
0
100
AcDbSpline
62
7
6
CONTINUOUS
70
0
71
3
72
8
73
4
74
2
42
0.0000001000
43
0.0000001000
44
0.0000000001
12
-0.1714921840
22
0.3141097752
32
0.0000000000
13
-0.1660551828
23
0.3193721333
33
0.0000000000
40
0.0000000000
40
0.0000000000
40
0.0000000000
40
0.0000000000
40
1.0000000000
40
1.0000000000
40
1.0000000000
40
1.0000000000
10
-484.5112619627
20
-315.7397202870
30
0.0000000000
10
-484.5684260240
20
-315.6350170286
30
0.0000000000
10
-484.6245945474
20
-315.5292579329
30
0.0000000000
10
-484.6799462750
20
-315.4228005551
30
0.0000000000
11
-484.5112619627
21
-315.7397202870
31
0.0000000000
11
-484.6799462750
21
-315.4228005551
31
0.0000000000
0
SPLINE
5
467
100
AcDbEntity
8
0
100
AcDbSpline
62
7
6
CONTINUOUS
70
0
71
3
72
8
73
4
74
2
42
0.0000001000
43
0.0000001000
44
0.0000000001
12
-0.1739241176
22
0.3345063704
32
0.0000000000
13
-0.1691639944
23
0.3378700504
33
0.0000000000
40
0.0000000000
40
0.0000000000
40
0.0000000000
40
0.0000000000
40
1.0000000000
40
1.0000000000
40
1.0000000000
40
1.0000000000
10
-484.6799462750
20
-315.4228005551
30
0.0000000000
10
-484.7379209808
20
-315.3112984317
30
0.0000000000
10
-484.7949996450
20
-315.1990302784
30
0.0000000000
10
-484.8513876431
20
-315.0864069283
30
0.0000000000
11
-484.6799462750
21
-315.4228005551
31
0.0000000000
11
-484.8513876431
21
-315.0864069283
31
0.0000000000
0
SPLINE
5
468
100
AcDbEntity
8
0
100
AcDbSpline
62
7
6
CONTINUOUS
70
0
71
3
72
8
73
4
74
2
42
0.0000001000
43
0.0000001000
44
0.0000000001
12
-0.1734504680
22
0.3464313939
32
0.0000000000
13
-0.1697579609
23
0.3473433639
33
0.0000000000
40
0.0000000000
40
0.0000000000
40
0.0000000000
40
0.0000000000
40
1.0000000000
40
1.0000000000
40
1.0000000000
40
1.0000000000
10
-484.8513876431
20
-315.0864069283
30
0.0000000000
10
-484.9092044658
20
-314.9709297970
30
0.0000000000
10
-484.9662951772
20
-314.8550792400
30
0.0000000000
10
-485.0228811642
20
-314.7392981187
30
0.0000000000
11
-484.8513876431
21
-315.0864069283
31
0.0000000000
11
-485.0228811642
21
-314.7392981187
31
0.0000000000
0
SPLINE
5
469
100
AcDbEntity
8
0
100
AcDbSpline
62
7
6
CONTINUOUS
70
0
71
3
72
8
73
4
74
2
42
0.0000001000
43
0.0000001000
44
0.0000000001
12
-0.3353207010
22
-0.6861028468
32
0.0000000000
13
-0.3522553263
23
-0.6774888515
33
0.0000000000
40
0.0000000000
40
0.0000000000
40
0.0000000000
40
0.0000000000
40
1.0000000000
40
1.0000000000
40
1.0000000000
40
1.0000000000
10
114.9771188358
20
-314.7392981187
30
0.0000000000
10
114.8653452688
20
-314.9679990676
30
0.0000000000
10
114.7516023887
20
-315.1969709380
30
0.0000000000
10
114.6341839466
20
-315.4228005551
30
0.0000000000
11
114.9771188358
21
-314.7392981187
31
0.0000000000
11
114.6341839466
21
-315.4228005551
31
0.0000000000
0
SPLINE
5
46A
100
AcDbEntity
8
0
100
AcDbSpline
62
7
6
CONTINUOUS
70
0
71
3
72
9
73
5
74
3
42
0.0000001000
43
0.0000001000
44
0.0000000001
12
-0.3207021831
22
-0.6168030331
32
0.0000000000
13
-0.3644875526
23
-0.5859567991
33
0.0000000000
40
0.0000000000
40
0.0000000000
40
0.0000000000
40
0.0000000000
40
0.5177862563
40
1.0000000000
40
1.0000000000
40
1.0000000000
40
1.0000000000
10
114.6341839466
20
-315.4228005551
30
0.0000000000
10
114.5788322190
20
-315.5292579329
30
0.0000000000
10
114.4703540146
20
-315.7335103525
30
0.0000000000
10
114.3581625379
20
-315.9338245885
30
0.0000000000
10
114.2995755688
20
-316.0280100625
30
0.0000000000
11
114.6341839466
21
-315.4228005551
31
0.0000000000
11
114.4654996343
21
-315.7397202870
31
0.0000000000
11
114.2995755688
21
-316.0280100625
31
0.0000000000
0
SPLINE
5
46B
100
AcDbEntity
8
0
100
AcDbSpline
62
7
6
CONTINUOUS
70
0
71
3
72
8
73
4
74
2
42
0.0000001000
43
0.0000001000
44
0.0000000001
12
-0.0556449287
22
-0.0894557964
32
0.0000000000
13
-0.0586881225
23
-0.0878650232
33
0.0000000000
40
0.0000000000
40
0.0000000000
40
0.0000000000
40
0.0000000000
40
1.0000000000
40
1.0000000000
40
1.0000000000
40
1.0000000000
10
114.2995755688
20
-316.0280100625
30
0.0000000000
10
114.2810272593
20
-316.0578286613
30
0.0000000000
10
114.2620292389
20
-316.0874058208
30
0.0000000000
10
114.2424665314
20
-316.1166941618
30
0.0000000000
11
114.2995755688
21
-316.0280100625
31
0.0000000000
11
114.2424665314
21
-316.1166941618
31
0.0000000000
0
SPLINE
5
46C
100
AcDbEntity
8
0
100
AcDbSpline
62
7
6
CONTINUOUS
70
0
71
3
72
9
73
5
74
3
42
0.0000001000
43
0.0000001000
44
0.0000000001
12
-0.2708925528
22
-0.4055672497
32
0.0000000000
13
-0.3766350364
23
-0.3534880559
33
0.0000000000
40
0.0000000000
40
0.0000000000
40
0.0000000000
40
0.0000000000
40
0.9215070440
40
1.0000000000
40
1.0000000000
40
1.0000000000
40
1.0000000000
10
114.2424665314
20
-316.1166941618
30
0.0000000000
10
114.1592567328
20
-316.2412718543
30
0.0000000000
10
114.0578725680
20
-316.3707904916
30
0.0000000000
10
113.9340378958
20
-316.4898620403
30
0.0000000000
10
113.9241834966
20
-316.4991108145
30
0.0000000000
11
114.2424665314
21
-316.1166941618
31
0.0000000000
11
113.9533398739
21
-316.4711051187
31
0.0000000000
11
113.9241834966
21
-316.4991108145
31
0.0000000000
0
SPLINE
5
46D
100
AcDbEntity
8
0
100
AcDbSpline
62
7
6
CONTINUOUS
70
0
71
3
72
8
73
4
74
2
42
0.0000001000
43
0.0000001000
44
0.0000000001
12
-0.4145079892
22
-0.3890334385
32
0.0000000000
13
-0.5391957997
23
0.0000000000
33
0.0000000000
40
0.0000000000
40
0.0000000000
40
0.0000000000
40
0.0000000000
40
1.0000000000
40
1.0000000000
40
1.0000000000
40
1.0000000000
10
113.9241834966
20
-316.4991108145
30
0.0000000000
10
113.7860141669
20
-316.6287886273
30
0.0000000000
10
113.6214526057
20
-316.7392981187
30
0.0000000000
10
113.4417206724
20
-316.7392981187
30
0.0000000000
11
113.9241834966
21
-316.4991108145
31
0.0000000000
11
113.4417206724
21
-316.7392981187
31
0.0000000000
0
SPLINE
5
46E
100
AcDbEntity
8
0
100
AcDbSpline
62
7
6
CONTINUOUS
70
0
71
3
72
8
73
4
74
2
42
0.0000001000
43
0.0000001000
44
0.0000000001
12
0.2143823984
22
-0.3798819100
32
0.0000000000
13
0.2439277827
23
-0.3620413904
33
0.0000000000
40
0.0000000000
40
0.0000000000
40
0.0000000000
40
0.0000000000
40
1.0000000000
40
1.0000000000
40
1.0000000000
40
1.0000000000
10
-485.0228811642
20
-315.7392981187
30
0.0000000000
10
-484.9514203647
20
-315.8659254220
30
0.0000000000
10
-484.8762374485
20
-315.9905086885
30
0.0000000000
10
-484.7949281876
20
-316.1111891520
30
0.0000000000
11
-485.0228811642
21
-315.7392981187
31
0.0000000000
11
-484.7949281876
21
-316.1111891520
31
0.0000000000
0
SPLINE
5
46F
100
AcDbEntity
8
0
100
AcDbSpline
62
7
6
CONTINUOUS
70
0
71
3
72
10
73
6
74
4
42
0.0000001000
43
0.0000001000
44
0.0000000001
12
0.5841912215
22
-0.8670656526
32
0.0000000000
13
1.0446697207
23
0.0000000000
33
0.0000000000
40
0.0000000000
40
0.0000000000
40
0.0000000000
40
0.0000000000
40
0.1873283247
40
0.6535385382
40
1.0000000000
40
1.0000000000
40
1.0000000000
40
1.0000000000
10
-484.7949281876
20
-316.1111891520
30
0.0000000000
10
-484.7584496667
20
-316.1653311374
30
0.0000000000
10
-484.6268839084
20
-316.3514775203
30
0.0000000000
10
-484.3985630521
20
-316.6185503536
30
0.0000000000
10
-484.1199283214
20
-316.7392981187
30
0.0000000000
10
-483.9992823886
20
-316.7392981187
30
0.0000000000
11
-484.7949281876
21
-316.1111891520
31
0.0000000000
11
-484.6815762420
21
-316.2710906251
31
0.0000000000
11
-484.3405873108
21
-316.6188409891
31
0.0000000000
11
-483.9992823886
21
-316.7392981187
31
0.0000000000
0
SPLINE
5
470
100
AcDbEntity
8
0
100
AcDbSpline
62
7
6
CONTINUOUS
70
0
71
3
72
8
73
4
74
2
42
0.0000001000
43
0.0000001000
44
0.0000000001
12
0.3619377985
22
0.0000000000
32
0.0000000000
13
0.3056109262
23
0.2069383682
33
0.0000000000
40
0.0000000000
40
0.0000000000
40
0.0000000000
40
0.0000000000
40
1.0000000000
40
1.0000000000
40
1.0000000000
40
1.0000000000
10
113.9535200602
20
-316.7392981187
30
0.0000000000
10
114.0741659931
20
-316.7392981187
30
0.0000000000
10
114.1929546737
20
-316.6878204452
30
0.0000000000
10
114.2948249824
20
-316.6188409891
30
0.0000000000
11
113.9535200602
21
-316.7392981187
31
0.0000000000
11
114.2948249824
21
-316.6188409891
31
0.0000000000
0
SPLINE
5
471
100
AcDbEntity
8
0
100
AcDbSpline
62
7
6
CONTINUOUS
70
0
71
3
72
9
73
5
74
3
42
0.0000001000
43
0.0000001000
44
0.0000000001
12
0.7548429046
22
0.5111268792
32
0.0000000000
13
0.4669019400
23
0.7625445779
33
0.0000000000
40
0.0000000000
40
0.0000000000
40
0.0000000000
40
0.0000000000
40
0.5448025733
40
1.0000000000
40
1.0000000000
40
1.0000000000
40
1.0000000000
10
114.2948249824
20
-316.6188409891
30
0.0000000000
10
114.4319051014
20
-316.5260199094
30
0.0000000000
10
114.6272887512
20
-316.2974745817
30
0.0000000000
10
114.7924098664
20
-316.0490339604
30
0.0000000000
10
114.8632540536
20
-315.9333311838
30
0.0000000000
11
114.2948249824
21
-316.6188409891
31
0.0000000000
11
114.6358139136
21
-316.2710906251
31
0.0000000000
11
114.8632540536
21
-315.9333311838
31
0.0000000000
0
SPLINE
5
472
100
AcDbEntity
8
0
100
AcDbSpline
62
7
6
CONTINUOUS
70
0
71
3
72
8
73
4
74
2
42
0.0000001000
43
0.0000001000
44
0.0000000001
12
0.0723345126
22
0.1181367770
32
0.0000000000
13
0.0695639649
23
0.1197745195
33
0.0000000000
40
0.0000000000
40
0.0000000000
40
0.0000000000
40
0.0000000000
40
1.0000000000
40
1.0000000000
40
1.0000000000
40
1.0000000000
10
114.8632540536
20
-315.9333311838
30
0.0000000000
10
114.8873655578
20
-315.8939522582
30
0.0000000000
10
114.9109768258
20
-315.8542706270
30
0.0000000000
10
114.9341648141
20
-315.8143457872
30
0.0000000000
11
114.8632540536
21
-315.9333311838
31
0.0000000000
11
114.9341648141
21
-315.8143457872
31
0.0000000000
0
SPLINE
5
473
100
AcDbEntity
8
0
100
AcDbSpline
62
7
6
CONTINUOUS
70
0
71
3
72
8
73
4
74
2
42
0.0000001000
43
0.0000001000
44
0.0000000001
12
0.0434302486
22
0.0747777555
32
0.0000000000
13
0.0424965218
23
0.0753031032
33
0.0000000000
40
0.0000000000
40
0.0000000000
40
0.0000000000
40
0.0000000000
40
1.0000000000
40
1.0000000000
40
1.0000000000
40
1.0000000000
10
114.9341648141
20
-315.8143457872
30
0.0000000000
10
114.9486415637
20
-315.7894198687
30
0.0000000000
10
114.9629533286
20
-315.7643991531
30
0.0000000000
10
114.9771188358
20
-315.7392981187
30
0.0000000000
11
114.9341648141
21
-315.8143457872
31
0.0000000000
11
114.9771188358
21
-315.7392981187
31
0.0000000000
0
SPLINE
5
474
100
AcDbEntity
8
0
100
AcDbSpline
62
7
6
CONTINUOUS
70
0
71
3
72
8
73
4
74
2
42
0.0000001000
43
0.0000001000
44
0.0000000001
12
0.1751470468
22
0.0000000000
32
0.0000000000
13
0.1643890055
23
0.0605702298
33
0.0000000000
40
0.0000000000
40
0.0000000000
40
0.0000000000
40
0.0000000000
40
1.0000000000
40
1.0000000000
40
1.0000000000
40
1.0000000000
10
111.1417206724
20
-276.7392981187
30
0.0000000000
10
111.2001030213
20
-276.7392981187
30
0.0000000000
10
111.2568846742
20
-276.7276377518
30
0.0000000000
10
111.3116810094
20
-276.7074476752
30
0.0000000000
11
111.1417206724
21
-276.7392981187
31
0.0000000000
11
111.3116810094
21
-276.7074476752
31
0.0000000000
0
SPLINE
5
475
100
AcDbEntity
8
0
100
AcDbSpline
62
7
6
CONTINUOUS
70
0
71
3
72
9
73
5
74
3
42
0.0000001000
43
0.0000001000
44
0.0000000001
12
0.6187763345
22
0.2279922835
32
0.0000000000
13
0.4103377611
23
0.5230327054
33
0.0000000000
40
0.0000000000
40
0.0000000000
40
0.0000000000
40
0.0000000000
40
0.6105304818
40
1.0000000000
40
1.0000000000
40
1.0000000000
40
1.0000000000
10
111.3116810094
20
-276.7074476752
30
0.0000000000
10
111.4376082806
20
-276.6610489289
30
0.0000000000
10
111.6266935424
20
-276.5112672871
30
0.0000000000
10
111.7751265129
20
-276.3425685634
30
0.0000000000
10
111.8283978630
20
-276.2746667981
30
0.0000000000
11
111.3116810094
21
-276.7074476752
31
0.0000000000
11
111.6533398739
21
-276.4711051187
31
0.0000000000
11
111.8283978630
21
-276.2746667981
31
0.0000000000
0
SPLINE
5
476
100
AcDbEntity
8
0
100
AcDbSpline
62
7
6
CONTINUOUS
70
0
71
3
72
8
73
4
74
2
42
0.0000001000
43
0.0000001000
44
0.0000000001
12
0.1872528416
22
0.2386798624
32
0.0000000000
13
0.1577207399
23
0.2535547216
33
0.0000000000
40
0.0000000000
40
0.0000000000
40
0.0000000000
40
0.0000000000
40
1.0000000000
40
1.0000000000
40
1.0000000000
40
1.0000000000
10
111.8283978630
20
-276.2746667981
30
0.0000000000
10
111.8908154769
20
-276.1951068440
30
0.0000000000
10
111.9470019889
20
-276.1125283030
30
0.0000000000
10
111.9995755688
20
-276.0280100625
30
0.0000000000
11
111.8283978630
21
-276.2746667981
31
0.0000000000
11
111.9995755688
21
-276.0280100625
31
0.0000000000
0
SPLINE
5
477
100
AcDbEntity
8
0
100
AcDbSpline
62
7
6
CONTINUOUS
70
0
71
3
72
8
73
4
74
2
42
0.0000001000
43
0.0000001000
44
0.0000000001
12
0.1250158609
22
0.2009777651
32
0.0000000000
13
0.1153078245
23
0.2066779450
33
0.0000000000
40
0.0000000000
40
0.0000000000
40
0.0000000000
40
0.0000000000
40
1.0000000000
40
1.0000000000
40
1.0000000000
40
1.0000000000
10
111.9995755688
20
-276.0280100625
30
0.0000000000
10
112.0412475225
20
-275.9610174741
30
0.0000000000
10
112.0806495464
20
-275.8928062131
30
0.0000000000
10
112.1190854879
20
-275.8239135647
30
0.0000000000
11
111.9995755688
21
-276.0280100625
31
0.0000000000
11
112.1190854879
21
-275.8239135647
31
0.0000000000
0
SPLINE
5
478
100
AcDbEntity
8
0
100
AcDbSpline
62
7
6
CONTINUOUS
70
0
71
3
72
9
73
5
74
3
42
0.0000001000
43
0.0000001000
44
0.0000000001
12
0.4371377371
22
0.7835264396
32
0.0000000000
13
0.4037958941
23
0.8109397372
33
0.0000000000
40
0.0000000000
40
0.0000000000
40
0.0000000000
40
0.0000000000
40
0.1070702992
40
1.0000000000
40
1.0000000000
40
1.0000000000
40
1.0000000000
10
112.1190854879
20
-275.8239135647
30
0.0000000000
10
112.1346869773
20
-275.7959494280
30
0.0000000000
10
112.2789129286
20
-275.5337254151
30
0.0000000000
10
112.4168606003
20
-275.2648428497
30
0.0000000000
10
112.5370477160
20
-275.0234721241
30
0.0000000000
11
112.1190854879
21
-275.8239135647
31
0.0000000000
11
112.1654996343
21
-275.7397202870
31
0.0000000000
11
112.5370477160
21
-275.0234721241
31
0.0000000000
0
SPLINE
5
479
100
AcDbEntity
8
0
100
AcDbSpline
62
7
6
CONTINUOUS
70
0
71
3
72
8
73
4
74
2
42
0.0000001000
43
0.0000001000
44
0.0000000001
12
0.1413280966
22
0.2838279715
32
0.0000000000
13
0.1389355102
23
0.2842772569
33
0.0000000000
40
0.0000000000
40
0.0000000000
40
0.0000000000
40
0.0000000000
40
1.0000000000
40
1.0000000000
40
1.0000000000
40
1.0000000000
10
112.5370477160
20
-275.0234721241
30
0.0000000000
10
112.5841570815
20
-274.9288628003
30
0.0000000000
10
112.6308069991
20
-274.8340572043
30
0.0000000000
10
112.6771188358
20
-274.7392981187
30
0.0000000000
11
112.5370477160
21
-275.0234721241
31
0.0000000000
11
112.6771188358
21
-274.7392981187
31
0.0000000000
0
SPLINE
5
47A
100
AcDbEntity
8
0
100
AcDbSpline
62
7
6
CONTINUOUS
70
0
71
3
72
8
73
4
74
2
42
0.0000001000
43
0.0000001000
44
0.0000000001
12
-0.1751470468
22
0.0000000000
32
0.0000000000
13
-0.1643890055
23
0.0605702298
33
0.0000000000
40
0.0000000000
40
0.0000000000
40
0.0000000000
40
0.0000000000
40
1.0000000000
40
1.0000000000
40
1.0000000000
40
1.0000000000
10
-481.1874830008
20
-276.7392981187
30
0.0000000000
10
-481.2458653497
20
-276.7392981187
30
0.0000000000
10
-481.3026470026
20
-276.7276377518
30
0.0000000000
10
-481.3574433378
20
-276.7074476752
30
0.0000000000
11
-481.1874830008
21
-276.7392981187
31
0.0000000000
11
-481.3574433378
21
-276.7074476752
31
0.0000000000
0
SPLINE
5
47B
100
AcDbEntity
8
0
100
AcDbSpline
62
7
6
CONTINUOUS
70
0
71
3
72
9
73
5
74
3
42
0.0000001000
43
0.0000001000
44
0.0000000001
12
-0.9011476830
22
0.3320338976
32
0.0000000000
13
-0.5033431332
23
0.8091835486
33
0.0000000000
40
0.0000000000
40
0.0000000000
40
0.0000000000
40
0.0000000000
40
0.4192229761
40
1.0000000000
40
1.0000000000
40
1.0000000000
40
1.0000000000
10
-481.3574433378
20
-276.7074476752
30
0.0000000000
10
-481.4833706090
20
-276.6610489289
30
0.0000000000
10
-481.7587427202
20
-276.4429161854
30
0.0000000000
10
-481.9478945216
20
-276.1846618002
30
0.0000000000
10
-482.0453378972
20
-276.0280100625
30
0.0000000000
11
-481.3574433378
21
-276.7074476752
31
0.0000000000
11
-481.6991022023
21
-276.4711051187
31
0.0000000000
11
-482.0453378972
21
-276.0280100625
31
0.0000000000
0
SPLINE
5
47C
100
AcDbEntity
8
0
100
AcDbSpline
62
7
6
CONTINUOUS
70
0
71
3
72
8
73
4
74
2
42
0.0000001000
43
0.0000001000
44
0.0000000001
12
-0.1250158609
22
0.2009777651
32
0.0000000000
13
-0.1153078245
23
0.2066779450
33
0.0000000000
40
0.0000000000
40
0.0000000000
40
0.0000000000
40
0.0000000000
40
1.0000000000
40
1.0000000000
40
1.0000000000
40
1.0000000000
10
-482.0453378972
20
-276.0280100625
30
0.0000000000
10
-482.0870098508
20
-275.9610174741
30
0.0000000000
10
-482.1264118748
20
-275.8928062131
30
0.0000000000
10
-482.1648478163
20
-275.8239135647
30
0.0000000000
11
-482.0453378972
21
-276.0280100625
31
0.0000000000
11
-482.1648478163
21
-275.8239135647
31
0.0000000000
0
SPLINE
5
47D
100
AcDbEntity
8
0
100
AcDbSpline
62
7
6
CONTINUOUS
70
0
71
3
72
9
73
5
74
3
42
0.0000001000
43
0.0000001000
44
0.0000000001
12
-0.4371377371
22
0.7835264396
32
0.0000000000
13
-0.4037958941
23
0.8109397372
33
0.0000000000
40
0.0000000000
40
0.0000000000
40
0.0000000000
40
0.0000000000
40
0.1070702992
40
1.0000000000
40
1.0000000000
40
1.0000000000
40
1.0000000000
10
-482.1648478163
20
-275.8239135647
30
0.0000000000
10
-482.1804493057
20
-275.7959494280
30
0.0000000000
10
-482.3246752570
20
-275.5337254151
30
0.0000000000
10
-482.4626229287
20
-275.2648428497
30
0.0000000000
10
-482.5828100443
20
-275.0234721241
30
0.0000000000
11
-482.1648478163
21
-275.8239135647
31
0.0000000000
11
-482.2112619627
21
-275.7397202870
31
0.0000000000
11
-482.5828100443
21
-275.0234721241
31
0.0000000000
0
SPLINE
5
47E
100
AcDbEntity
8
0
100
AcDbSpline
62
7
6
CONTINUOUS
70
0
71
3
72
8
73
4
74
2
42
0.0000001000
43
0.0000001000
44
0.0000000001
12
-0.1413280966
22
0.2838279715
32
0.0000000000
13
-0.1389355102
23
0.2842772569
33
0.0000000000
40
0.0000000000
40
0.0000000000
40
0.0000000000
40
0.0000000000
40
1.0000000000
40
1.0000000000
40
1.0000000000
40
1.0000000000
10
-482.5828100443
20
-275.0234721241
30
0.0000000000
10
-482.6299194099
20
-274.9288628003
30
0.0000000000
10
-482.6765693275
20
-274.8340572043
30
0.0000000000
10
-482.7228811642
20
-274.7392981187
30
0.0000000000
11
-482.5828100443
21
-275.0234721241
31
0.0000000000
11
-482.7228811642
21
-274.7392981187
31
0.0000000000
0
SPLINE
5
47F
100
AcDbEntity
8
0
100
AcDbSpline
62
7
6
CONTINUOUS
70
0
71
3
72
8
73
4
74
2
42
0.0000001000
43
0.0000001000
44
0.0000000001
12
-0.1751470468
22
0.0000000000
32
0.0000000000
13
-0.1643890055
23
-0.0605702298
33
0.0000000000
40
0.0000000000
40
0.0000000000
40
0.0000000000
40
0.0000000000
40
1.0000000000
40
1.0000000000
40
1.0000000000
40
1.0000000000
10
-481.1874830008
20
135.2607018813
30
0.0000000000
10
-481.2458653497
20
135.2607018813
30
0.0000000000
10
-481.3026470026
20
135.2490415144
30
0.0000000000
10
-481.3574433378
20
135.2288514378
30
0.0000000000
11
-481.1874830008
21
135.2607018813
31
0.0000000000
11
-481.3574433378
21
135.2288514378
31
0.0000000000
0
SPLINE
5
480
100
AcDbEntity
8
0
100
AcDbSpline
62
7
6
CONTINUOUS
70
0
71
3
72
9
73
5
74
3
42
0.0000001000
43
0.0000001000
44
0.0000000001
12
-0.6187763345
22
-0.2279922835
32
0.0000000000
13
-0.4103377611
23
-0.5230327054
33
0.0000000000
40
0.0000000000
40
0.0000000000
40
0.0000000000
40
0.0000000000
40
0.6105304818
40
1.0000000000
40
1.0000000000
40
1.0000000000
40
1.0000000000
10
-481.3574433378
20
135.2288514378
30
0.0000000000
10
-481.4833706090
20
135.1824526916
30
0.0000000000
10
-481.6724558708
20
135.0326710498
30
0.0000000000
10
-481.8208888413
20
134.8639723260
30
0.0000000000
10
-481.8741601913
20
134.7960705607
30
0.0000000000
11
-481.3574433378
21
135.2288514378
31
0.0000000000
11
-481.6991022023
21
134.9925088813
31
0.0000000000
11
-481.8741601913
21
134.7960705607
31
0.0000000000
0
SPLINE
5
481
100
AcDbEntity
8
0
100
AcDbSpline
62
7
6
CONTINUOUS
70
0
71
3
72
8
73
4
74
2
42
0.0000001000
43
0.0000001000
44
0.0000000001
12
-0.1872528416
22
-0.2386798624
32
0.0000000000
13
-0.1577207399
23
-0.2535547216
33
0.0000000000
40
0.0000000000
40
0.0000000000
40
0.0000000000
40
0.0000000000
40
1.0000000000
40
1.0000000000
40
1.0000000000
40
1.0000000000
10
-481.8741601913
20
134.7960705607
30
0.0000000000
10
-481.9365778052
20
134.7165106066
30
0.0000000000
10
-481.9927643172
20
134.6339320656
30
0.0000000000
10
-482.0453378972
20
134.5494138251
30
0.0000000000
11
-481.8741601913
21
134.7960705607
31
0.0000000000
11
-482.0453378972
21
134.5494138251
31
0.0000000000
0
SPLINE
5
482
100
AcDbEntity
8
0
100
AcDbSpline
62
7
6
CONTINUOUS
70
0
71
3
72
8
73
4
74
2
42
0.0000001000
43
0.0000001000
44
0.0000000001
12
-0.1250158609
22
-0.2009777651
32
0.0000000000
13
-0.1153078245
23
-0.2066779450
33
0.0000000000
40
0.0000000000
40
0.0000000000
40
0.0000000000
40
0.0000000000
40
1.0000000000
40
1.0000000000
40
1.0000000000
40
1.0000000000
10
-482.0453378972
20
134.5494138251
30
0.0000000000
10
-482.0870098508
20
134.4824212367
30
0.0000000000
10
-482.1264118747
20
134.4142099757
30
0.0000000000
10
-482.1648478162
20
134.3453173274
30
0.0000000000
11
-482.0453378972
21
134.5494138251
31
0.0000000000
11
-482.1648478162
21
134.3453173274
31
0.0000000000
0
SPLINE
5
483
100
AcDbEntity
8
0
100
AcDbSpline
62
7
6
CONTINUOUS
70
0
71
3
72
9
73
5
74
3
42
0.0000001000
43
0.0000001000
44
0.0000000001
12
-0.4371377371
22
-0.7835264396
32
0.0000000000
13
-0.4037958941
23
-0.8109397372
33
0.0000000000
40
0.0000000000
40
0.0000000000
40
0.0000000000
40
0.0000000000
40
0.1070702992
40
1.0000000000
40
1.0000000000
40
1.0000000000
40
1.0000000000
10
-482.1648478162
20
134.3453173274
30
0.0000000000
10
-482.1804493057
20
134.3173531906
30
0.0000000000
10
-482.3246752570
20
134.0551291778
30
0.0000000000
10
-482.4626229287
20
133.7862466124
30
0.0000000000
10
-482.5828100443
20
133.5448758867
30
0.0000000000
11
-482.1648478162
21
134.3453173274
31
0.0000000000
11
-482.2112619627
21
134.2611240496
31
0.0000000000
11
-482.5828100443
21
133.5448758867
31
0.0000000000
0
SPLINE
5
484
100
AcDbEntity
8
0
100
AcDbSpline
62
7
6
CONTINUOUS
70
0
71
3
72
8
73
4
74
2
42
0.0000001000
43
0.0000001000
44
0.0000000001
12
-0.1413280966
22
-0.2838279715
32
0.0000000000
13
-0.1389355102
23
-0.2842772569
33
0.0000000000
40
0.0000000000
40
0.0000000000
40
0.0000000000
40
0.0000000000
40
1.0000000000
40
1.0000000000
40
1.0000000000
40
1.0000000000
10
-482.5828100443
20
133.5448758867
30
0.0000000000
10
-482.6299194099
20
133.4502665629
30
0.0000000000
10
-482.6765693274
20
133.3554609670
30
0.0000000000
10
-482.7228811642
20
133.2607018813
30
0.0000000000
11
-482.5828100443
21
133.5448758867
31
0.0000000000
11
-482.7228811642
21
133.2607018813
31
0.0000000000
0
SPLINE
5
485
100
AcDbEntity
8
0
100
AcDbSpline
62
7
6
CONTINUOUS
70
0
71
3
72
8
73
4
74
2
42
0.0000001000
43
0.0000001000
44
0.0000000001
12
0.1751470468
22
0.0000000000
32
0.0000000000
13
0.1643890055
23
-0.0605702298
33
0.0000000000
40
0.0000000000
40
0.0000000000
40
0.0000000000
40
0.0000000000
40
1.0000000000
40
1.0000000000
40
1.0000000000
40
1.0000000000
10
111.1417206724
20
135.2607018813
30
0.0000000000
10
111.2001030214
20
135.2607018813
30
0.0000000000
10
111.2568846743
20
135.2490415144
30
0.0000000000
10
111.3116810094
20
135.2288514378
30
0.0000000000
11
111.1417206724
21
135.2607018813
31
0.0000000000
11
111.3116810094
21
135.2288514378
31
0.0000000000
0
SPLINE
5
486
100
AcDbEntity
8
0
100
AcDbSpline
62
7
6
CONTINUOUS
70
0
71
3
72
9
73
5
74
3
42
0.0000001000
43
0.0000001000
44
0.0000000001
12
0.9011476830
22
-0.3320338976
32
0.0000000000
13
0.5033431332
23
-0.8091835486
33
0.0000000000
40
0.0000000000
40
0.0000000000
40
0.0000000000
40
0.0000000000
40
0.4192229761
40
1.0000000000
40
1.0000000000
40
1.0000000000
40
1.0000000000
10
111.3116810094
20
135.2288514378
30
0.0000000000
10
111.4376082806
20
135.1824526916
30
0.0000000000
10
111.7129803919
20
134.9643199480
30
0.0000000000
10
111.9021321932
20
134.7060655628
30
0.0000000000
10
111.9995755689
20
134.5494138251
30
0.0000000000
11
111.3116810094
21
135.2288514378
31
0.0000000000
11
111.6533398739
21
134.9925088813
31
0.0000000000
11
111.9995755689
21
134.5494138251
31
0.0000000000
0
SPLINE
5
487
100
AcDbEntity
8
0
100
AcDbSpline
62
7
6
CONTINUOUS
70
0
71
3
72
8
73
4
74
2
42
0.0000001000
43
0.0000001000
44
0.0000000001
12
0.1250158609
22
-0.2009777651
32
0.0000000000
13
0.1153078245
23
-0.2066779450
33
0.0000000000
40
0.0000000000
40
0.0000000000
40
0.0000000000
40
0.0000000000
40
1.0000000000
40
1.0000000000
40
1.0000000000
40
1.0000000000
10
111.9995755689
20
134.5494138251
30
0.0000000000
10
112.0412475225
20
134.4824212367
30
0.0000000000
10
112.0806495464
20
134.4142099757
30
0.0000000000
10
112.1190854879
20
134.3453173274
30
0.0000000000
11
111.9995755689
21
134.5494138251
31
0.0000000000
11
112.1190854879
21
134.3453173274
31
0.0000000000
0
SPLINE
5
488
100
AcDbEntity
8
0
100
AcDbSpline
62
7
6
CONTINUOUS
70
0
71
3
72
9
73
5
74
3
42
0.0000001000
43
0.0000001000
44
0.0000000001
12
0.4371377371
22
-0.7835264396
32
0.0000000000
13
0.4037958941
23
-0.8109397372
33
0.0000000000
40
0.0000000000
40
0.0000000000
40
0.0000000000
40
0.0000000000
40
0.1070702992
40
1.0000000000
40
1.0000000000
40
1.0000000000
40
1.0000000000
10
112.1190854879
20
134.3453173274
30
0.0000000000
10
112.1346869773
20
134.3173531906
30
0.0000000000
10
112.2789129287
20
134.0551291778
30
0.0000000000
10
112.4168606004
20
133.7862466124
30
0.0000000000
10
112.5370477160
20
133.5448758867
30
0.0000000000
11
112.1190854879
21
134.3453173274
31
0.0000000000
11
112.1654996343
21
134.2611240496
31
0.0000000000
11
112.5370477160
21
133.5448758867
31
0.0000000000
0
SPLINE
5
489
100
AcDbEntity
8
0
100
AcDbSpline
62
7
6
CONTINUOUS
70
0
71
3
72
8
73
4
74
2
42
0.0000001000
43
0.0000001000
44
0.0000000001
12
0.1413280966
22
-0.2838279715
32
0.0000000000
13
0.1389355102
23
-0.2842772569
33
0.0000000000
40
0.0000000000
40
0.0000000000
40
0.0000000000
40
0.0000000000
40
1.0000000000
40
1.0000000000
40
1.0000000000
40
1.0000000000
10
112.5370477160
20
133.5448758867
30
0.0000000000
10
112.5841570815
20
133.4502665629
30
0.0000000000
10
112.6308069991
20
133.3554609670
30
0.0000000000
10
112.6771188358
20
133.2607018813
30
0.0000000000
11
112.5370477160
21
133.5448758867
31
0.0000000000
11
112.6771188358
21
133.2607018813
31
0.0000000000
0
ENDSEC
0
SECTION
2
OBJECTS
0
DICTIONARY
5
48A
100
AcDbDictionary
3
ACAD_GROUP
350
48B
3
ACAD_MLINESTYLE
350
48C
0
DICTIONARY
5
48B
102
{ACAD_REACTORS
330
48A
102
}
100
AcDbDictionary
0
DICTIONARY
5
48C
102
{ACAD_REACTORS
330
48A
102
}
100
AcDbDictionary
3
STANDARD
350
48D
0
MLINESTYLE
5
48D
102
{ACAD_REACTORS
330
48C
102
}
100
AcDbMlineStyle
2
STANDARD
70
0
3

62
256
51
90.0
52
90.0
71
2
49
0.5
62
256
6
BYLAYER
49
-0.5
62
256
6
BYLAYER
0
ENDSEC
0
EOF
