0
SECTION
2
HEADER
9
$ACADVER
1
AC1014
9
$HANDSEED
5
       402
9
$EXTMAX
10
297.0000000000
20
210.0000000000
9
$EXTMIN
10
0.0000000000
20
0.0000000000
9
$LIMMIN
10
0.0000000000
20
0.0000000000
9
$LIMMAX
10
297.0000000000
20
210.0000000000
9
$VIEWCTR
10
148.5000000000
20
105.0000000000
9
$VIEWSIZE
40
210.0000000000
9
$CLAYER
8
0
9
$LTSCALE
40
16.3350000000
9
$CELTYPE
6
BYLAYER
9
$DIMSCALE
40
1
9
$DIMASZ
40
3.0000000000
9
$DIMEXO
40
1.8562500000
9
$DIMDLI
40
11.2860000000
9
$DIMEXE
40
5.3460000000
9
$DIMCEN
40
2.6730000000
9
$DIMLFAC
40
1.0000000000
9
$DIMTXT
40
3.0000000000
9
$DIMTOL
70
1
9
$DIMLIM
70
0
9
$DIMTFAC
40
1.0000000000
9
$DIMTP
40
0.0100000000
9
$DIMTM
40
0.0100000000
9
$MEASUREMENT
70
1
0
ENDSEC
0
SECTION
2
CLASSES
0
ENDSEC
0
SECTION
2
TABLES
0
TABLE
2
VPORT
5
8
100
AcDbSymbolTable
70
2
0
VPORT
5
1F4
100
AcDbSymbolTableRecord
100
AcDbViewportTableRecord
2
*ACTIVE
70
0
10
0.0
20
0.0
11
1.0
21
1.0
12
148.5000000000
22
105.0000000000
13
0.0
23
0.0
14
1.0
24
1.0
15
0.0
25
0.0
16
0.0
26
0.0
36
1.0
17
0.0
27
0.0
37
0.0
40
210.0000000000
41
1.4142857143
42
50.0
43
0.0
44
0.0
50
0.0
51
0.0
71
0
72
100
73
1
74
1
75
0
76
0
77
0
78
0
0
ENDTAB
0
TABLE
2
LTYPE
5
5
100
AcDbSymbolTable
70
6
0
LTYPE
5
14
100
AcDbSymbolTableRecord
100
AcDbLinetypeTableRecord
2
BYBLOCK
70
0
3

72
65
73
0
40
0.0
0
LTYPE
5
15
100
AcDbSymbolTableRecord
100
AcDbLinetypeTableRecord
2
BYLAYER
70
0
3

72
65
73
0
40
0.0
0
LTYPE
5
16
100
AcDbSymbolTableRecord
100
AcDbLinetypeTableRecord
2
CONTINUOUS
70
64
3
Solid line
72
65
73
0
40
0
0
LTYPE
5
1F5
100
AcDbSymbolTableRecord
100
AcDbLinetypeTableRecord
2
CENTER
70
64
3
____ _ ____ _ ____ _ ____ _ ____ _ ____ _ ____
72
65
73
4
40
0.6
49
0.375
74
0
49
-0.075
74
0
49
0.075
74
0
49
-0.075
74
0
0
LTYPE
5
1F6
100
AcDbSymbolTableRecord
100
AcDbLinetypeTableRecord
2
HIDDEN
70
64
3
- - - - - - - - - - - - - - - - - - - -
72
65
73
2
40
0.2
49
0.1
74
0
49
-0.1
74
0
0
LTYPE
5
1F7
100
AcDbSymbolTableRecord
100
AcDbLinetypeTableRecord
2
PHANTOM
70
64
3
_____ _ _ _____ _ _ _____ _ _ _____
72
65
73
6
40
0.8
49
0.45
74
0
49
-0.05
74
0
49
0.1
74
0
49
-0.05
74
0
49
0.1
74
0
49
-0.05
74
0
0
LTYPE
5
1F8
100
AcDbSymbolTableRecord
100
AcDbLinetypeTableRecord
2
DOT
70
64
3
. . . . . . . . . . . . . . . . . . . .
72
65
73
2
40
0.2
49
0.1
74
0
49
-0.1
74
0
0
LTYPE
5
1F9
100
AcDbSymbolTableRecord
100
AcDbLinetypeTableRecord
2
DASHED
70
64
3
- - - - - - - - - - - - - - - - - - - -
72
65
73
2
40
0.2
49
0.1
74
0
49
-0.1
74
0
0
ENDTAB
0
TABLE
2
LAYER
5
2
100
AcDbSymbolTable
70
36
0
LAYER
5
10
100
AcDbSymbolTableRecord
100
AcDbLayerTableRecord
2
0
70
0
62
7
6
CONTINUOUS
0
LAYER
5
1FA
100
AcDbSymbolTableRecord
100
AcDbLayerTableRecord
2
DEFAULT_1
70
0
62
7
6
CENTER
0
LAYER
5
1FB
100
AcDbSymbolTableRecord
100
AcDbLayerTableRecord
2
DEFAULT_2
70
0
62
8
6
HIDDEN
0
LAYER
5
1FC
100
AcDbSymbolTableRecord
100
AcDbLayerTableRecord
2
DEFAULT_3
70
0
62
7
6
PHANTOM
0
LAYER
5
1FD
100
AcDbSymbolTableRecord
100
AcDbLayerTableRecord
2
ASSI
70
0
62
7
6
CONTINUOUS
0
LAYER
5
1FE
100
AcDbSymbolTableRecord
100
AcDbLayerTableRecord
2
COORDINATE
70
0
62
7
6
CONTINUOUS
0
LAYER
5
1FF
100
AcDbSymbolTableRecord
100
AcDbLayerTableRecord
2
COORD_ORIGINE
70
0
62
7
6
CONTINUOUS
0
LAYER
5
200
100
AcDbSymbolTableRecord
100
AcDbLayerTableRecord
2
DRAFT
70
0
62
7
6
CONTINUOUS
0
LAYER
5
201
100
AcDbSymbolTableRecord
100
AcDbLayerTableRecord
2
PIANI
70
0
62
7
6
CONTINUOUS
0
LAYER
5
202
100
AcDbSymbolTableRecord
100
AcDbLayerTableRecord
2
PIANI_ORIGINE
70
0
62
7
6
CONTINUOUS
0
LAYER
5
203
100
AcDbSymbolTableRecord
100
AcDbLayerTableRecord
2
PUNTI
70
0
62
7
6
CONTINUOUS
0
LAYER
5
204
100
AcDbSymbolTableRecord
100
AcDbLayerTableRecord
2
RACCORDO
70
0
62
7
6
CONTINUOUS
0
LAYER
5
205
100
AcDbSymbolTableRecord
100
AcDbLayerTableRecord
2
SMUSSO
70
0
62
7
6
CONTINUOUS
0
LAYER
5
206
100
AcDbSymbolTableRecord
100
AcDbLayerTableRecord
2
SNAPLINE
70
0
62
7
6
CONTINUOUS
0
LAYER
5
207
100
AcDbSymbolTableRecord
100
AcDbLayerTableRecord
2
TRASH
70
0
62
7
6
CONTINUOUS
0
ENDTAB
0
TABLE
2
STYLE
5
3
100
AcDbSymbolTable
70
1
0
STYLE
5
11
100
AcDbSymbolTableRecord
100
AcDbTextStyleTableRecord
2
STANDARD
70
0
40
0.0
41
0.8000000000
50
0.0
71
0
42
0.2
3
txt
4

0
ENDTAB
0
TABLE
2
VIEW
5
6
100
AcDbSymbolTable
70
0
0
ENDTAB
0
TABLE
2
UCS
5
7
100
AcDbSymbolTable
70
0
0
ENDTAB
0
TABLE
2
APPID
5
9
100
AcDbSymbolTable
70
1
0
APPID
5
208
100
AcDbSymbolTableRecord
100
AcDbRegAppTableRecord
2
ACAD
70
0
0
ENDTAB
0
TABLE
2
DIMSTYLE
5
A
100
AcDbSymbolTable
70
1
0
DIMSTYLE
105
209
100
AcDbSymbolTableRecord
100
AcDbDimStyleTableRecord
2
STANDARD
70
0
3

4

5

6

7

40
1.0
41
3.0000000000
42
0.0625
43
0.38
44
0.18
45
0.0
46
0.0
47
0.0100000000
48
0.0100000000
140
3.0000000000
141
0.09
142
0.0
143
25.4
144
1.0000000000
145
0.0
146
1.0000000000
147
0.09
71
1
72
0
73
0
74
0
75
0
76
0
77
1
78
8
170
0
171
2
172
0
173
0
174
0
175
0
176
0
177
0
178
0
270
2
271
2
272
2
273
2
274
2
340
11
275
0
280
0
281
0
282
0
283
1
284
8
285
0
286
0
287
3
288
0
0
DIMSTYLE
105
20A
100
AcDbSymbolTableRecord
100
AcDbDimStyleTableRecord
2
DIMSTYLE_1
70
0
3

4

5

6

7

40
1.0
41
3.0000000000
42
0.0625
43
0.38
44
0.18
45
0.0
46
0.0
47
0.0000000000
48
0.0000000000
140
3.0000000000
141
0.09
142
0.0
143
25.4
144
1.0000000000
145
0.0
146
1.0000000000
147
0.09
71
0
72
0
73
0
74
0
75
0
76
0
77
1
78
8
170
0
171
2
172
0
173
0
174
0
175
0
176
0
177
0
178
0
270
2
271
2
272
2
273
2
274
2
340
11
275
0
280
0
281
0
282
0
283
1
284
8
285
0
286
0
287
3
288
0
0
ENDTAB
0
TABLE
2
BLOCK_RECORD
5
1
100
AcDbSymbolTable
70
0
0
BLOCK_RECORD
5
1B
100
AcDbSymbolTableRecord
100
AcDbBlockTableRecord
2
*MODEL_SPACE
0
BLOCK_RECORD
5
1C
100
AcDbSymbolTableRecord
100
AcDbBlockTableRecord
2
*PAPER_SPACE
0
BLOCK_RECORD
5
20B
100
AcDbSymbolTableRecord
100
AcDbBlockTableRecord
2
*D0
0
BLOCK_RECORD
5
20C
100
AcDbSymbolTableRecord
100
AcDbBlockTableRecord
2
*D1
0
ENDTAB
0
ENDSEC
0
SECTION
2
BLOCKS
0
BLOCK
5
1E
100
AcDbEntity
8
0
100
AcDbBlockBegin
2
*MODEL_SPACE
70
0
10
0.0
20
0.0
30
0.0
3
*MODEL_SPACE
1

0
ENDBLK
5
1F
100
AcDbEntity
8
0
100
AcDbBlockEnd
0
BLOCK
5
20
100
AcDbEntity
8
0
100
AcDbBlockBegin
2
*PAPER_SPACE
70
0
10
0.0
20
0.0
30
0.0
3
*PAPER_SPACE
1

0
ENDBLK
5
21
100
AcDbEntity
8
0
100
AcDbBlockEnd
0
BLOCK
5
20D
100
AcDbEntity
8
0
100
AcDbBlockBegin
62
7
6
CONTINUOUS
2
*D0
70
65
10
0.0000000000
20
0.0000000000
3
*D0
1

0
TEXT
5
20E
100
AcDbEntity
8
0
100
AcDbText
62
7
6
CONTINUOUS
10
-170.8353854541
20
158.7299799024
7
STANDARD
40
3.0000000000
1
400
41
0.7857142857
72
0
100
AcDbText
0
LINE
5
20F
100
AcDbEntity
8
0
100
AcDbLine
62
7
6
CONTINUOUS
10
-367.2996711684
20
85.5494704138
11
-367.2996711684
21
159.4799799024
0
LINE
5
210
100
AcDbEntity
8
0
100
AcDbLine
62
7
6
CONTINUOUS
10
32.7003288316
20
85.5494704138
11
32.7003288316
21
159.4799799024
0
LINE
5
211
100
AcDbEntity
8
0
100
AcDbLine
62
7
6
CONTINUOUS
10
-367.2996711684
20
157.9799799024
11
-167.2996711684
21
157.9799799024
0
LINE
5
212
100
AcDbEntity
8
0
100
AcDbLine
62
7
6
CONTINUOUS
10
32.7003288316
20
157.9799799024
11
-167.2996711684
21
157.9799799024
0
SOLID
5
213
100
AcDbEntity
8
0
100
AcDbTrace
62
7
6
CONTINUOUS
10
-364.2996711684
20
158.9299799024
11
-367.2996711684
21
157.9799799024
12
-364.2996711684
22
157.0299799024
13
-364.2996711684
23
157.0299799024
0
SOLID
5
214
100
AcDbEntity
8
0
100
AcDbTrace
62
7
6
CONTINUOUS
10
29.7003288316
20
157.0299799024
11
32.7003288316
21
157.9799799024
12
29.7003288316
22
158.9299799024
13
29.7003288316
23
158.9299799024
0
ENDBLK
5
215
100
AcDbEntity
8
0
100
AcDbBlockEnd
0
BLOCK
5
216
100
AcDbEntity
8
0
100
AcDbBlockBegin
62
7
6
CONTINUOUS
2
*D1
70
65
10
0.0000000000
20
0.0000000000
3
*D1
1

0
TEXT
5
217
100
AcDbEntity
8
0
100
AcDbText
62
7
6
CONTINUOUS
10
143.4476078021
20
-103.7719581576
7
STANDARD
40
3.0000000000
1
350
50
90.0000000000
41
0.7380952381
72
0
100
AcDbText
0
LINE
5
218
100
AcDbEntity
8
0
100
AcDbLine
62
7
6
CONTINUOUS
10
43.7003288316
20
74.5494704138
11
145.6976078021
21
74.5494704138
0
LINE
5
219
100
AcDbEntity
8
0
100
AcDbLine
62
7
6
CONTINUOUS
10
43.7003288316
20
-275.4505295862
11
145.6976078021
21
-275.4505295862
0
LINE
5
21A
100
AcDbEntity
8
0
100
AcDbLine
62
7
6
CONTINUOUS
10
144.1976078021
20
74.5494704138
11
144.1976078021
21
-100.4505295862
0
LINE
5
21B
100
AcDbEntity
8
0
100
AcDbLine
62
7
6
CONTINUOUS
10
144.1976078021
20
-275.4505295862
11
144.1976078021
21
-100.4505295862
0
SOLID
5
21C
100
AcDbEntity
8
0
100
AcDbTrace
62
7
6
CONTINUOUS
10
145.1476078021
20
71.5494704138
11
144.1976078021
21
74.5494704138
12
143.2476078021
22
71.5494704138
13
143.2476078021
23
71.5494704138
0
SOLID
5
21D
100
AcDbEntity
8
0
100
AcDbTrace
62
7
6
CONTINUOUS
10
143.2476078021
20
-272.4505295862
11
144.1976078021
21
-275.4505295862
12
145.1476078021
22
-272.4505295862
13
145.1476078021
23
-272.4505295862
0
ENDBLK
5
21E
100
AcDbEntity
8
0
100
AcDbBlockEnd
0
ENDSEC
0
SECTION
2
ENTITIES
0
DIMENSION
5
21F
100
AcDbEntity
8
0
100
AcDbDimension
62
7
6
CONTINUOUS
2
*D0
10
32.7003288316
20
157.9799799024
11
-167.2996711684
21
160.2299799024
70
160
3
DIMSTYLE_1
100
AcDbAlignedDimension
13
-367.2996711684
23
85.5494704138
14
32.7003288316
24
85.5494704138
100
AcDbRotatedDimension
0
DIMENSION
5
220
100
AcDbEntity
8
0
100
AcDbDimension
62
7
6
CONTINUOUS
2
*D1
10
144.1976078021
20
-275.4505295862
11
141.9476078021
21
-100.4505295862
70
160
3
DIMSTYLE_1
100
AcDbAlignedDimension
13
43.7003288316
23
74.5494704138
14
43.7003288316
24
-275.4505295862
50
270.000000
100
AcDbRotatedDimension
0
LINE
5
221
100
AcDbEntity
8
0
100
AcDbLine
62
7
6
CONTINUOUS
10
-496.0996711684
20
-101.4505295862
11
-496.0996711684
21
-99.4505295862
0
LINE
5
222
100
AcDbEntity
8
0
100
AcDbLine
62
7
6
CONTINUOUS
10
-494.3996711684
20
-101.4505295862
11
-494.3996711684
21
-99.4505295862
0
LINE
5
223
100
AcDbEntity
8
0
100
AcDbLine
62
7
6
CONTINUOUS
10
-489.8496711684
20
-101.4505295862
11
-489.8496711684
21
-99.4505295862
0
LINE
5
224
100
AcDbEntity
8
0
100
AcDbLine
62
7
6
CONTINUOUS
10
-482.3496711684
20
-101.4505295862
11
-482.3496711684
21
-99.4505295862
0
LINE
5
225
100
AcDbEntity
8
0
100
AcDbLine
62
7
6
CONTINUOUS
10
-477.2996711684
20
-101.4505295862
11
-477.2996711684
21
-99.4505295862
0
LINE
5
226
100
AcDbEntity
8
0
100
AcDbLine
62
7
6
CONTINUOUS
10
-475.7296711684
20
-101.4505295862
11
-475.7296711684
21
-99.4505295862
0
LINE
5
227
100
AcDbEntity
8
0
100
AcDbLine
62
7
6
CONTINUOUS
10
-474.2996711684
20
-101.4505295862
11
-474.2996711684
21
-99.4505295862
0
LINE
5
228
100
AcDbEntity
8
0
100
AcDbLine
62
7
6
CONTINUOUS
10
-471.3996711684
20
-90.9505295862
11
-471.3996711684
21
-109.9505295862
0
LINE
5
229
100
AcDbEntity
8
0
100
AcDbLine
62
7
6
CONTINUOUS
10
-469.7996711684
20
-89.4505295862
11
-469.7996711684
21
-111.4505295862
0
LINE
5
22A
100
AcDbEntity
8
0
100
AcDbLine
62
7
6
CONTINUOUS
10
-467.2996711684
20
143.5494704138
11
-467.2996711684
21
107.5494704138
0
LINE
5
22B
100
AcDbEntity
8
0
100
AcDbLine
62
7
6
CONTINUOUS
10
-467.2996711684
20
104.0140722504
11
-467.2996711684
21
-304.9151314228
0
LINE
5
22C
100
AcDbEntity
8
0
100
AcDbLine
62
7
6
CONTINUOUS
10
-467.2081037960
20
-308.3982632664
11
-467.2081037960
21
-344.5420969585
0
LINE
5
22D
100
AcDbEntity
8
0
100
AcDbLine
62
7
6
CONTINUOUS
10
-465.7996711684
20
143.5494704138
11
-465.7996711684
21
107.5494704138
0
LINE
5
22E
100
AcDbEntity
8
0
100
AcDbLine
62
7
6
CONTINUOUS
10
-465.7081037960
20
-308.3982632664
11
-465.7081037960
21
-344.5420969585
0
LINE
5
22F
100
AcDbEntity
8
0
100
AcDbLine
62
7
6
CONTINUOUS
10
-465.2996711684
20
-346.4505295862
11
-465.2996711684
21
-306.4505295862
0
LINE
5
230
100
AcDbEntity
8
0
100
AcDbLine
62
7
6
CONTINUOUS
10
-465.2996711684
20
105.5494704138
11
-465.2996711684
21
145.5494704138
0
LINE
5
231
100
AcDbEntity
8
0
100
AcDbLine
62
9
6
CONTINUOUS
10
-465.2996711684
20
105.5494704138
11
-465.2996711684
21
-306.4505295862
0
LINE
5
232
100
AcDbEntity
8
0
100
AcDbLine
62
9
6
CONTINUOUS
10
-54.8321543898
20
-348.2597913312
11
-64.7671879469
21
-348.2597913312
0
LINE
5
233
100
AcDbEntity
8
0
100
AcDbLine
62
9
6
CONTINUOUS
10
-269.8321543898
20
-348.2597913312
11
-279.7671879469
21
-348.2597913312
0
LINE
5
234
100
AcDbEntity
8
0
100
AcDbLine
62
7
6
CONTINUOUS
10
-47.2996711684
20
-347.9505295862
11
-287.2996711684
21
-347.9505295862
0
LINE
5
235
100
AcDbEntity
8
0
100
AcDbLine
62
7
6
CONTINUOUS
10
-465.2996711684
20
-346.4505295862
11
130.7003288316
21
-346.4505295862
0
LINE
5
236
100
AcDbEntity
8
0
100
AcDbLine
62
9
6
CONTINUOUS
10
-465.7081037960
20
-344.5420969585
11
-467.2081037960
21
-344.5420969585
0
LINE
5
237
100
AcDbEntity
8
0
100
AcDbLine
62
9
6
CONTINUOUS
10
-465.2996711684
20
-344.4505295862
11
130.7003288316
21
-344.4505295862
0
LINE
5
238
100
AcDbEntity
8
0
100
AcDbLine
62
9
6
CONTINUOUS
10
131.2003288316
20
-344.4505295862
11
132.7003288316
21
-344.4505295862
0
LINE
5
239
100
AcDbEntity
8
0
100
AcDbLine
62
7
6
CONTINUOUS
10
-370.7996711684
20
88.5494704138
11
-370.7996711684
21
82.8410323897
0
LINE
5
23A
100
AcDbEntity
8
0
100
AcDbLine
62
7
6
CONTINUOUS
10
-370.7996711684
20
66.2579084379
11
-370.7996711684
21
60.5494704138
0
LINE
5
23B
100
AcDbEntity
8
0
100
AcDbLine
62
7
6
CONTINUOUS
10
-370.7996711684
20
-261.4505295862
11
-370.7996711684
21
-267.1589676103
0
LINE
5
23C
100
AcDbEntity
8
0
100
AcDbLine
62
7
6
CONTINUOUS
10
-370.7996711684
20
-283.7420915621
11
-370.7996711684
21
-289.4505295862
0
LINE
5
23D
100
AcDbEntity
8
0
100
AcDbLine
62
7
6
CONTINUOUS
10
-367.2996711684
20
-276.1930295862
11
-367.2996711684
21
-274.7080295862
0
LINE
5
23E
100
AcDbEntity
8
DEFAULT_1
100
AcDbLine
62
7
6
CENTER
10
-367.2996711684
20
-271.7380295862
11
-367.2996711684
21
-264.9505295862
0
LINE
5
23F
100
AcDbEntity
8
0
100
AcDbLine
62
7
6
CONTINUOUS
10
-367.2996711684
20
75.2919704138
11
-367.2996711684
21
73.8069704138
0
LINE
5
240
100
AcDbEntity
8
DEFAULT_1
100
AcDbLine
62
7
6
CENTER
10
-367.2996711684
20
70.8369704138
11
-367.2996711684
21
64.0494704138
0
LINE
5
241
100
AcDbEntity
8
DEFAULT_1
100
AcDbLine
62
7
6
CENTER
10
-367.2996711684
20
78.2619704138
11
-367.2996711684
21
85.0494704138
0
LINE
5
242
100
AcDbEntity
8
DEFAULT_1
100
AcDbLine
62
7
6
CENTER
10
-367.2996711684
20
-279.1630295862
11
-367.2996711684
21
-285.9505295862
0
LINE
5
243
100
AcDbEntity
8
0
100
AcDbLine
62
7
6
CONTINUOUS
10
-471.3996711684
20
-90.9505295862
11
-469.7996711684
21
-89.4505295862
0
LINE
5
244
100
AcDbEntity
8
0
100
AcDbLine
62
7
6
CONTINUOUS
10
131.2003288316
20
-308.4505295862
11
132.7003288316
21
-308.4505295862
0
LINE
5
245
100
AcDbEntity
8
0
100
AcDbLine
62
7
6
CONTINUOUS
10
-465.7081037960
20
-308.3982632664
11
-467.2081037960
21
-308.3982632664
0
LINE
5
246
100
AcDbEntity
8
0
100
AcDbLine
62
9
6
CONTINUOUS
10
-465.2996711684
20
-306.4505295862
11
130.7003288316
21
-306.4505295862
0
LINE
5
247
100
AcDbEntity
8
0
100
AcDbLine
62
7
6
CONTINUOUS
10
136.1996472888
20
-290.4505295862
11
132.7003288316
21
-290.4505295862
0
LINE
5
248
100
AcDbEntity
8
0
100
AcDbLine
62
7
6
CONTINUOUS
10
-471.3996711684
20
-109.9505295862
11
-469.7996711684
21
-111.4505295862
0
LINE
5
249
100
AcDbEntity
8
0
100
AcDbLine
62
7
6
CONTINUOUS
10
-363.7996711684
20
-289.4505295862
11
-363.7996711684
21
-283.7420915621
0
LINE
5
24A
100
AcDbEntity
8
0
100
AcDbLine
62
7
6
CONTINUOUS
10
-363.7996711684
20
-267.1589676103
11
-363.7996711684
21
-261.4505295862
0
LINE
5
24B
100
AcDbEntity
8
0
100
AcDbLine
62
7
6
CONTINUOUS
10
-363.7996711684
20
60.5494704138
11
-363.7996711684
21
66.2579084379
0
LINE
5
24C
100
AcDbEntity
8
0
100
AcDbLine
62
7
6
CONTINUOUS
10
-363.7996711684
20
82.8410323897
11
-363.7996711684
21
88.5494704138
0
LINE
5
24D
100
AcDbEntity
8
0
100
AcDbLine
62
9
6
CONTINUOUS
10
-272.9688004726
20
149.7266848987
11
-272.9686357198
21
149.7271895390
0
LINE
5
24E
100
AcDbEntity
8
0
100
AcDbLine
62
7
6
CONTINUOUS
10
-368.0421711684
20
-275.4505295862
11
-366.5571711684
21
-275.4505295862
0
LINE
5
24F
100
AcDbEntity
8
DEFAULT_1
100
AcDbLine
62
7
6
CENTER
10
-363.5871711684
20
-275.4505295862
11
-356.7996711684
21
-275.4505295862
0
LINE
5
250
100
AcDbEntity
8
0
100
AcDbLine
62
7
6
CONTINUOUS
10
33.4428288316
20
-275.4505295862
11
31.9578288316
21
-275.4505295862
0
LINE
5
251
100
AcDbEntity
8
DEFAULT_1
100
AcDbLine
62
7
6
CENTER
10
28.9878288316
20
-275.4505295862
11
22.2003288316
21
-275.4505295862
0
LINE
5
252
100
AcDbEntity
8
DEFAULT_1
100
AcDbLine
62
7
6
CENTER
10
36.4128288316
20
-275.4505295862
11
43.2003288316
21
-275.4505295862
0
LINE
5
253
100
AcDbEntity
8
DEFAULT_1
100
AcDbLine
62
7
6
CENTER
10
-371.0121711684
20
-275.4505295862
11
-377.7996711684
21
-275.4505295862
0
LINE
5
254
100
AcDbEntity
8
0
100
AcDbLine
62
7
6
CONTINUOUS
10
136.1996472888
20
-260.4505295862
11
132.7003288316
21
-260.4505295862
0
LINE
5
255
100
AcDbEntity
8
0
100
AcDbLine
62
9
6
CONTINUOUS
10
-272.9688017739
20
-350.6277400859
11
-272.9686367289
21
-350.6282456254
0
LINE
5
256
100
AcDbEntity
8
0
100
AcDbLine
62
9
6
CONTINUOUS
10
-274.4945264587
20
-350.5440942173
11
-274.4941563134
21
-350.5507979193
0
LINE
5
257
100
AcDbEntity
8
0
100
AcDbLine
62
7
6
CONTINUOUS
10
-287.2996711684
20
-347.9505295862
11
-287.2996711684
21
-346.4505295862
0
LINE
5
258
100
AcDbEntity
8
0
100
AcDbLine
62
7
6
CONTINUOUS
10
-287.2996711684
20
147.0494704138
11
-287.2996711684
21
145.5494704138
0
LINE
5
259
100
AcDbEntity
8
0
100
AcDbLine
62
9
6
CONTINUOUS
10
-284.2996711684
20
-347.9505295862
11
-284.2996711684
21
-346.4505295862
0
LINE
5
25A
100
AcDbEntity
8
0
100
AcDbLine
62
9
6
CONTINUOUS
10
-284.2996711684
20
147.0494704138
11
-284.2996711684
21
145.5494704138
0
LINE
5
25B
100
AcDbEntity
8
0
100
AcDbLine
62
9
6
CONTINUOUS
10
-274.4945260511
20
149.6430424289
11
-274.4941559300
21
149.6497430906
0
LINE
5
25C
100
AcDbEntity
8
0
100
AcDbLine
62
9
6
CONTINUOUS
10
-274.0876658916
20
149.9748618668
11
-274.0876018234
21
149.9753888254
0
LINE
5
25D
100
AcDbEntity
8
0
100
AcDbLine
62
7
6
CONTINUOUS
10
136.1996472888
20
-230.4505295862
11
132.7003288316
21
-230.4505295862
0
LINE
5
25E
100
AcDbEntity
8
0
100
AcDbLine
62
9
6
CONTINUOUS
10
-274.0876658936
20
-350.8759210225
11
-274.0876018232
21
-350.8764479943
0
LINE
5
25F
100
AcDbEntity
8
0
100
AcDbLine
62
9
6
CONTINUOUS
10
-275.1048158780
20
149.6430350449
11
-275.1051860233
21
149.6497387469
0
LINE
5
260
100
AcDbEntity
8
0
100
AcDbLine
62
7
6
CONTINUOUS
10
-275.2996711684
20
-350.7771790324
11
-275.2996711684
21
-350.5692731851
0
LINE
5
261
100
AcDbEntity
8
0
100
AcDbLine
62
7
6
CONTINUOUS
10
-275.2996711684
20
149.6682045740
11
-275.2996711684
21
149.8761198601
0
LINE
5
262
100
AcDbEntity
8
0
100
AcDbLine
62
7
6
CONTINUOUS
10
-274.2996711684
20
149.8761198601
11
-274.2996711684
21
149.6682140127
0
LINE
5
263
100
AcDbEntity
8
0
100
AcDbLine
62
7
6
CONTINUOUS
10
-274.2996711684
20
-350.5692637464
11
-274.2996711684
21
-350.7771790324
0
LINE
5
264
100
AcDbEntity
8
0
100
AcDbLine
62
9
6
CONTINUOUS
10
-275.1048162856
20
-350.5441016013
11
-275.1051864067
21
-350.5508022630
0
LINE
5
265
100
AcDbEntity
8
0
100
AcDbLine
62
7
6
CONTINUOUS
10
136.1996472888
20
-200.4505295862
11
132.7003288316
21
-200.4505295862
0
LINE
5
266
100
AcDbEntity
8
0
100
AcDbLine
62
9
6
CONTINUOUS
10
-275.5116764451
20
-350.8759210392
11
-275.5117405133
21
-350.8764479978
0
LINE
5
267
100
AcDbEntity
8
0
100
AcDbLine
62
7
6
CONTINUOUS
10
136.1996472888
20
-170.4505295862
11
132.7003288316
21
-170.4505295862
0
LINE
5
268
100
AcDbEntity
8
0
100
AcDbLine
62
9
6
CONTINUOUS
10
-275.5116764431
20
149.9748618501
11
-275.5117405135
21
149.9753888220
0
LINE
5
269
100
AcDbEntity
8
0
100
AcDbLine
62
7
6
CONTINUOUS
10
136.1996472888
20
-140.4505295862
11
132.7003288316
21
-140.4505295862
0
LINE
5
26A
100
AcDbEntity
8
0
100
AcDbLine
62
9
6
CONTINUOUS
10
-276.6305418641
20
-350.6277440711
11
-276.6307066169
21
-350.6282487114
0
LINE
5
26B
100
AcDbEntity
8
0
100
AcDbLine
62
7
6
CONTINUOUS
10
-469.7996711684
20
-111.4505295862
11
-467.2996711684
21
-111.4505295862
0
LINE
5
26C
100
AcDbEntity
8
0
100
AcDbLine
62
7
6
CONTINUOUS
10
132.7003288316
20
-110.4505295862
11
136.1996472888
21
-110.4505295862
0
LINE
5
26D
100
AcDbEntity
8
0
100
AcDbLine
62
7
6
CONTINUOUS
10
-496.0996711684
20
-101.4505295862
11
-471.3996711684
21
-101.4505295862
0
LINE
5
26E
100
AcDbEntity
8
0
100
AcDbLine
62
7
6
CONTINUOUS
10
-496.0996711684
20
-99.4505295862
11
-471.3996711684
21
-99.4505295862
0
LINE
5
26F
100
AcDbEntity
8
0
100
AcDbLine
62
9
6
CONTINUOUS
10
-276.6305405628
20
149.7266809135
11
-276.6307056078
21
149.7271864530
0
LINE
5
270
100
AcDbEntity
8
0
100
AcDbLine
62
7
6
CONTINUOUS
10
136.1996472888
20
-90.4505295862
11
132.7003288316
21
-90.4505295862
0
LINE
5
271
100
AcDbEntity
8
0
100
AcDbLine
62
7
6
CONTINUOUS
10
-469.7996711684
20
-89.4505295862
11
-467.2996711684
21
-89.4505295862
0
LINE
5
272
100
AcDbEntity
8
0
100
AcDbLine
62
9
6
CONTINUOUS
10
-57.9688004726
20
149.7266848987
11
-57.9686357198
21
149.7271895390
0
LINE
5
273
100
AcDbEntity
8
0
100
AcDbLine
62
7
6
CONTINUOUS
10
136.1996472888
20
-60.4505295862
11
132.7003288316
21
-60.4505295862
0
LINE
5
274
100
AcDbEntity
8
0
100
AcDbLine
62
9
6
CONTINUOUS
10
-57.9688017739
20
-350.6277400859
11
-57.9686367289
21
-350.6282456254
0
LINE
5
275
100
AcDbEntity
8
0
100
AcDbLine
62
7
6
CONTINUOUS
10
136.1996472888
20
-30.4505295862
11
132.7003288316
21
-30.4505295862
0
LINE
5
276
100
AcDbEntity
8
0
100
AcDbLine
62
9
6
CONTINUOUS
10
-59.4945264587
20
-350.5440942173
11
-59.4941563134
21
-350.5507979193
0
LINE
5
277
100
AcDbEntity
8
0
100
AcDbLine
62
9
6
CONTINUOUS
10
-59.4945260511
20
149.6430424289
11
-59.4941559300
21
149.6497430906
0
LINE
5
278
100
AcDbEntity
8
0
100
AcDbLine
62
9
6
CONTINUOUS
10
-59.0876658916
20
149.9748618668
11
-59.0876018234
21
149.9753888254
0
LINE
5
279
100
AcDbEntity
8
0
100
AcDbLine
62
7
6
CONTINUOUS
10
136.1996472888
20
-0.4505295862
11
132.7003288316
21
-0.4505295862
0
LINE
5
27A
100
AcDbEntity
8
0
100
AcDbLine
62
9
6
CONTINUOUS
10
-59.0876658936
20
-350.8759210225
11
-59.0876018232
21
-350.8764479943
0
LINE
5
27B
100
AcDbEntity
8
0
100
AcDbLine
62
9
6
CONTINUOUS
10
-60.1048158780
20
149.6430350449
11
-60.1051860233
21
149.6497387469
0
LINE
5
27C
100
AcDbEntity
8
0
100
AcDbLine
62
7
6
CONTINUOUS
10
-60.2996711684
20
-350.7771790324
11
-60.2996711684
21
-350.5692731851
0
LINE
5
27D
100
AcDbEntity
8
0
100
AcDbLine
62
7
6
CONTINUOUS
10
-60.2996711684
20
149.6682045740
11
-60.2996711684
21
149.8761198601
0
LINE
5
27E
100
AcDbEntity
8
0
100
AcDbLine
62
7
6
CONTINUOUS
10
-59.2996711684
20
149.8761198601
11
-59.2996711684
21
149.6682140127
0
LINE
5
27F
100
AcDbEntity
8
0
100
AcDbLine
62
7
6
CONTINUOUS
10
-59.2996711684
20
-350.5692637464
11
-59.2996711684
21
-350.7771790324
0
LINE
5
280
100
AcDbEntity
8
0
100
AcDbLine
62
9
6
CONTINUOUS
10
-50.2996711684
20
-347.9505295862
11
-50.2996711684
21
-346.4505295862
0
LINE
5
281
100
AcDbEntity
8
0
100
AcDbLine
62
9
6
CONTINUOUS
10
-50.2996711684
20
147.0494704138
11
-50.2996711684
21
145.5494704138
0
LINE
5
282
100
AcDbEntity
8
0
100
AcDbLine
62
7
6
CONTINUOUS
10
-47.2996711684
20
-347.9505295862
11
-47.2996711684
21
-346.4505295862
0
LINE
5
283
100
AcDbEntity
8
0
100
AcDbLine
62
7
6
CONTINUOUS
10
-47.2996711684
20
147.0494704138
11
-47.2996711684
21
145.5494704138
0
LINE
5
284
100
AcDbEntity
8
0
100
AcDbLine
62
9
6
CONTINUOUS
10
-60.1048162856
20
-350.5441016013
11
-60.1051864067
21
-350.5508022630
0
LINE
5
285
100
AcDbEntity
8
0
100
AcDbLine
62
7
6
CONTINUOUS
10
136.1996472888
20
29.5494704138
11
132.7003288316
21
29.5494704138
0
LINE
5
286
100
AcDbEntity
8
0
100
AcDbLine
62
9
6
CONTINUOUS
10
-60.5116764451
20
-350.8759210392
11
-60.5117405133
21
-350.8764479978
0
LINE
5
287
100
AcDbEntity
8
0
100
AcDbLine
62
7
6
CONTINUOUS
10
136.1996472888
20
59.5494704138
11
132.7003288316
21
59.5494704138
0
LINE
5
288
100
AcDbEntity
8
0
100
AcDbLine
62
9
6
CONTINUOUS
10
-60.5116764431
20
149.9748618501
11
-60.5117405135
21
149.9753888220
0
LINE
5
289
100
AcDbEntity
8
0
100
AcDbLine
62
9
6
CONTINUOUS
10
-61.6305418641
20
-350.6277440711
11
-61.6307066169
21
-350.6282487114
0
LINE
5
28A
100
AcDbEntity
8
0
100
AcDbLine
62
7
6
CONTINUOUS
10
-368.0421711684
20
74.5494704138
11
-366.5571711684
21
74.5494704138
0
LINE
5
28B
100
AcDbEntity
8
DEFAULT_1
100
AcDbLine
62
7
6
CENTER
10
-363.5871711684
20
74.5494704138
11
-356.7996711684
21
74.5494704138
0
LINE
5
28C
100
AcDbEntity
8
0
100
AcDbLine
62
7
6
CONTINUOUS
10
33.4428288316
20
74.5494704138
11
31.9578288316
21
74.5494704138
0
LINE
5
28D
100
AcDbEntity
8
DEFAULT_1
100
AcDbLine
62
7
6
CENTER
10
28.9878288316
20
74.5494704138
11
22.2003288316
21
74.5494704138
0
LINE
5
28E
100
AcDbEntity
8
DEFAULT_1
100
AcDbLine
62
7
6
CENTER
10
36.4128288316
20
74.5494704138
11
43.2003288316
21
74.5494704138
0
LINE
5
28F
100
AcDbEntity
8
DEFAULT_1
100
AcDbLine
62
7
6
CENTER
10
-371.0121711684
20
74.5494704138
11
-377.7996711684
21
74.5494704138
0
LINE
5
290
100
AcDbEntity
8
0
100
AcDbLine
62
7
6
CONTINUOUS
10
132.7003288316
20
89.5494704138
11
136.1996472888
21
89.5494704138
0
LINE
5
291
100
AcDbEntity
8
0
100
AcDbLine
62
9
6
CONTINUOUS
10
-61.6305405628
20
149.7266809135
11
-61.6307056078
21
149.7271864530
0
LINE
5
292
100
AcDbEntity
8
0
100
AcDbLine
62
7
6
CONTINUOUS
10
29.2003288316
20
88.5494704138
11
29.2003288316
21
82.8410323897
0
LINE
5
293
100
AcDbEntity
8
0
100
AcDbLine
62
7
6
CONTINUOUS
10
29.2003288316
20
66.2579084379
11
29.2003288316
21
60.5494704138
0
LINE
5
294
100
AcDbEntity
8
0
100
AcDbLine
62
7
6
CONTINUOUS
10
29.2003288316
20
-261.4505295862
11
29.2003288316
21
-267.1589676103
0
LINE
5
295
100
AcDbEntity
8
0
100
AcDbLine
62
7
6
CONTINUOUS
10
29.2003288316
20
-283.7420915621
11
29.2003288316
21
-289.4505295862
0
LINE
5
296
100
AcDbEntity
8
0
100
AcDbLine
62
7
6
CONTINUOUS
10
32.7003288316
20
-276.1930295862
11
32.7003288316
21
-274.7080295862
0
LINE
5
297
100
AcDbEntity
8
DEFAULT_1
100
AcDbLine
62
7
6
CENTER
10
32.7003288316
20
-271.7380295862
11
32.7003288316
21
-264.9505295862
0
LINE
5
298
100
AcDbEntity
8
0
100
AcDbLine
62
7
6
CONTINUOUS
10
32.7003288316
20
75.2919704138
11
32.7003288316
21
73.8069704138
0
LINE
5
299
100
AcDbEntity
8
DEFAULT_1
100
AcDbLine
62
7
6
CENTER
10
32.7003288316
20
70.8369704138
11
32.7003288316
21
64.0494704138
0
LINE
5
29A
100
AcDbEntity
8
DEFAULT_1
100
AcDbLine
62
7
6
CENTER
10
32.7003288316
20
78.2619704138
11
32.7003288316
21
85.0494704138
0
LINE
5
29B
100
AcDbEntity
8
DEFAULT_1
100
AcDbLine
62
7
6
CENTER
10
32.7003288316
20
-279.1630295862
11
32.7003288316
21
-285.9505295862
0
LINE
5
29C
100
AcDbEntity
8
0
100
AcDbLine
62
7
6
CONTINUOUS
10
36.2003288316
20
-289.4505295862
11
36.2003288316
21
-283.7420915621
0
LINE
5
29D
100
AcDbEntity
8
0
100
AcDbLine
62
7
6
CONTINUOUS
10
36.2003288316
20
-267.1589676103
11
36.2003288316
21
-261.4505295862
0
LINE
5
29E
100
AcDbEntity
8
0
100
AcDbLine
62
7
6
CONTINUOUS
10
36.2003288316
20
60.5494704138
11
36.2003288316
21
66.2579084379
0
LINE
5
29F
100
AcDbEntity
8
0
100
AcDbLine
62
7
6
CONTINUOUS
10
36.2003288316
20
82.8410323897
11
36.2003288316
21
88.5494704138
0
LINE
5
2A0
100
AcDbEntity
8
0
100
AcDbLine
62
9
6
CONTINUOUS
10
-465.2996711684
20
105.5494704138
11
130.7003288316
21
105.5494704138
0
LINE
5
2A1
100
AcDbEntity
8
0
100
AcDbLine
62
7
6
CONTINUOUS
10
131.2003288316
20
107.5494704138
11
132.7003288316
21
107.5494704138
0
LINE
5
2A2
100
AcDbEntity
8
0
100
AcDbLine
62
7
6
CONTINUOUS
10
-465.7996711684
20
107.5494704138
11
-467.2996711684
21
107.5494704138
0
LINE
5
2A3
100
AcDbEntity
8
0
100
AcDbLine
62
9
6
CONTINUOUS
10
-465.2996711684
20
143.5494704138
11
130.7003288316
21
143.5494704138
0
LINE
5
2A4
100
AcDbEntity
8
0
100
AcDbLine
62
9
6
CONTINUOUS
10
131.2003288316
20
143.5494704138
11
132.7003288316
21
143.5494704138
0
LINE
5
2A5
100
AcDbEntity
8
0
100
AcDbLine
62
9
6
CONTINUOUS
10
-465.7996711684
20
143.5494704138
11
-467.2996711684
21
143.5494704138
0
LINE
5
2A6
100
AcDbEntity
8
0
100
AcDbLine
62
7
6
CONTINUOUS
10
-465.2996711684
20
145.5494704138
11
130.7003288316
21
145.5494704138
0
LINE
5
2A7
100
AcDbEntity
8
0
100
AcDbLine
62
7
6
CONTINUOUS
10
-287.2996711684
20
147.0494704138
11
-47.2996711684
21
147.0494704138
0
LINE
5
2A8
100
AcDbEntity
8
0
100
AcDbLine
62
9
6
CONTINUOUS
10
-279.7671879469
20
147.3587321588
11
-269.8321543898
21
147.3587321588
0
LINE
5
2A9
100
AcDbEntity
8
0
100
AcDbLine
62
9
6
CONTINUOUS
10
-64.7671879469
20
147.3587321588
11
-54.8321543898
21
147.3587321588
0
LINE
5
2AA
100
AcDbEntity
8
0
100
AcDbLine
62
7
6
CONTINUOUS
10
130.7003288316
20
-346.4505295862
11
130.7003288316
21
-306.4505295862
0
LINE
5
2AB
100
AcDbEntity
8
0
100
AcDbLine
62
7
6
CONTINUOUS
10
130.7003288316
20
105.5494704138
11
130.7003288316
21
145.5494704138
0
LINE
5
2AC
100
AcDbEntity
8
0
100
AcDbLine
62
9
6
CONTINUOUS
10
130.7003288316
20
105.5494704138
11
130.7003288316
21
-306.4505295862
0
LINE
5
2AD
100
AcDbEntity
8
0
100
AcDbLine
62
7
6
CONTINUOUS
10
131.2003288316
20
-344.4505295862
11
131.2003288316
21
-308.4505295862
0
LINE
5
2AE
100
AcDbEntity
8
0
100
AcDbLine
62
7
6
CONTINUOUS
10
131.2003288316
20
107.5494704138
11
131.2003288316
21
143.5494704138
0
LINE
5
2AF
100
AcDbEntity
8
0
100
AcDbLine
62
7
6
CONTINUOUS
10
132.7003288316
20
-344.4505295862
11
132.7003288316
21
-308.4505295862
0
LINE
5
2B0
100
AcDbEntity
8
0
100
AcDbLine
62
7
6
CONTINUOUS
10
132.7003288316
20
104.0140722504
11
132.7003288316
21
-304.9151314228
0
LINE
5
2B1
100
AcDbEntity
8
0
100
AcDbLine
62
7
6
CONTINUOUS
10
132.7003288316
20
107.5494704138
11
132.7003288316
21
143.5494704138
0
LINE
5
2B2
100
AcDbEntity
8
0
100
AcDbLine
62
7
6
CONTINUOUS
10
136.2003288316
20
-90.4505295862
11
136.2003288316
21
89.5494704138
0
LINE
5
2B3
100
AcDbEntity
8
0
100
AcDbLine
62
7
6
CONTINUOUS
10
136.2003288316
20
-110.4505295862
11
136.2003288316
21
-290.4505295862
0
ARC
5
2B4
100
AcDbEntity
8
0
100
AcDbCircle
62
7
6
CONTINUOUS
10
-276.8996711684
20
149.5581744849
40
0.1000000000
100
AcDbArc
50
74.7156395953
51
111.1099183904
0
ARC
5
2B5
100
AcDbEntity
8
0
100
AcDbCircle
62
7
6
CONTINUOUS
10
-272.6996711684
20
149.5581744849
40
0.1000000000
100
AcDbArc
50
68.8900816096
51
105.2844940467
0
ARC
5
2B6
100
AcDbEntity
8
0
100
AcDbCircle
62
7
6
CONTINUOUS
10
-274.7996711684
20
144.1187011830
40
5.9307692308
100
AcDbArc
50
33.1141427513
51
68.8900812184
0
ARC
5
2B7
100
AcDbEntity
8
0
100
AcDbCircle
62
7
6
CONTINUOUS
10
-274.7996711684
20
144.1187011830
40
5.9307692308
100
AcDbArc
50
111.1099187816
51
146.8858572487
0
ARC
5
2B8
100
AcDbEntity
8
0
100
AcDbCircle
62
7
6
CONTINUOUS
10
-269.9996711684
20
147.2494704138
40
0.2000000000
100
AcDbArc
50
270.0000000000
51
33.1141427513
0
ARC
5
2B9
100
AcDbEntity
8
0
100
AcDbCircle
62
7
6
CONTINUOUS
10
-279.5996711684
20
147.2494704138
40
0.2000000000
100
AcDbArc
50
146.8858572487
51
270.0000000000
0
ARC
5
2BA
100
AcDbEntity
8
0
100
AcDbCircle
62
7
6
CONTINUOUS
10
-61.8996711684
20
149.5581744849
40
0.1000000000
100
AcDbArc
50
74.7156395953
51
111.1099183904
0
ARC
5
2BB
100
AcDbEntity
8
0
100
AcDbCircle
62
7
6
CONTINUOUS
10
-57.6996711684
20
149.5581744849
40
0.1000000000
100
AcDbArc
50
68.8900816096
51
105.2844940467
0
ARC
5
2BC
100
AcDbEntity
8
0
100
AcDbCircle
62
7
6
CONTINUOUS
10
-59.7996711684
20
144.1187011830
40
5.9307692308
100
AcDbArc
50
33.1141427513
51
68.8900812184
0
ARC
5
2BD
100
AcDbEntity
8
0
100
AcDbCircle
62
7
6
CONTINUOUS
10
-59.7996711684
20
144.1187011830
40
5.9307692308
100
AcDbArc
50
111.1099187816
51
146.8858572487
0
ARC
5
2BE
100
AcDbEntity
8
0
100
AcDbCircle
62
7
6
CONTINUOUS
10
-54.9996711684
20
147.2494704138
40
0.2000000000
100
AcDbArc
50
270.0000000000
51
33.1141427513
0
ARC
5
2BF
100
AcDbEntity
8
0
100
AcDbCircle
62
7
6
CONTINUOUS
10
-64.5996711684
20
147.2494704138
40
0.2000000000
100
AcDbArc
50
146.8858572487
51
270.0000000000
0
ARC
5
2C0
100
AcDbEntity
8
0
100
AcDbCircle
62
7
6
CONTINUOUS
10
-272.6996711684
20
-350.4592336573
40
0.1000000000
100
AcDbArc
50
254.7156395953
51
291.1099183904
0
ARC
5
2C1
100
AcDbEntity
8
0
100
AcDbCircle
62
7
6
CONTINUOUS
10
-276.8996711684
20
-350.4592336573
40
0.1000000000
100
AcDbArc
50
248.8900816096
51
285.2844940467
0
ARC
5
2C2
100
AcDbEntity
8
0
100
AcDbCircle
62
7
6
CONTINUOUS
10
-274.7996711684
20
-345.0197603554
40
5.9307692308
100
AcDbArc
50
213.1141427513
51
248.8900812184
0
ARC
5
2C3
100
AcDbEntity
8
0
100
AcDbCircle
62
7
6
CONTINUOUS
10
-274.7996711684
20
-345.0197603554
40
5.9307692308
100
AcDbArc
50
291.1099187816
51
326.8858572487
0
ARC
5
2C4
100
AcDbEntity
8
0
100
AcDbCircle
62
7
6
CONTINUOUS
10
-279.5996711684
20
-348.1505295862
40
0.2000000000
100
AcDbArc
50
90.0000000000
51
213.1141427513
0
ARC
5
2C5
100
AcDbEntity
8
0
100
AcDbCircle
62
7
6
CONTINUOUS
10
-269.9996711684
20
-348.1505295862
40
0.2000000000
100
AcDbArc
50
326.8858572487
51
90.0000000000
0
ARC
5
2C6
100
AcDbEntity
8
0
100
AcDbCircle
62
7
6
CONTINUOUS
10
-57.6996711684
20
-350.4592336573
40
0.1000000000
100
AcDbArc
50
254.7156395953
51
291.1099183904
0
ARC
5
2C7
100
AcDbEntity
8
0
100
AcDbCircle
62
7
6
CONTINUOUS
10
-61.8996711684
20
-350.4592336573
40
0.1000000000
100
AcDbArc
50
248.8900816096
51
285.2844940467
0
ARC
5
2C8
100
AcDbEntity
8
0
100
AcDbCircle
62
7
6
CONTINUOUS
10
-59.7996711684
20
-345.0197603554
40
5.9307692308
100
AcDbArc
50
213.1141427513
51
248.8900812184
0
ARC
5
2C9
100
AcDbEntity
8
0
100
AcDbCircle
62
7
6
CONTINUOUS
10
-59.7996711684
20
-345.0197603554
40
5.9307692308
100
AcDbArc
50
291.1099187816
51
326.8858572487
0
ARC
5
2CA
100
AcDbEntity
8
0
100
AcDbCircle
62
7
6
CONTINUOUS
10
-64.5996711684
20
-348.1505295862
40
0.2000000000
100
AcDbArc
50
90.0000000000
51
213.1141427513
0
ARC
5
2CB
100
AcDbEntity
8
0
100
AcDbCircle
62
7
6
CONTINUOUS
10
-54.9996711684
20
-348.1505295862
40
0.2000000000
100
AcDbArc
50
326.8858572487
51
90.0000000000
0
ARC
5
2CC
100
AcDbEntity
8
0
100
AcDbCircle
62
7
6
CONTINUOUS
10
-465.2996711684
20
107.5494704138
40
0.5000000000
100
AcDbArc
50
180.0000000000
51
270.0000000000
0
ARC
5
2CD
100
AcDbEntity
8
0
100
AcDbCircle
62
7
6
CONTINUOUS
10
130.7003288316
20
107.5494704138
40
0.5000000000
100
AcDbArc
50
270.0000000000
51
360.0000000000
0
ARC
5
2CE
100
AcDbEntity
8
0
100
AcDbCircle
62
7
6
CONTINUOUS
10
-465.2996711684
20
-308.3589622139
40
0.4084326277
100
AcDbArc
50
90.0000000000
51
180.0000000000
0
ARC
5
2CF
100
AcDbEntity
8
0
100
AcDbCircle
62
7
6
CONTINUOUS
10
130.7003288316
20
-308.4505295862
40
0.5000000000
100
AcDbArc
50
0.0000000000
51
90.0000000000
0
ARC
5
2D0
100
AcDbEntity
8
0
100
AcDbCircle
62
7
6
CONTINUOUS
10
-465.2996711684
20
143.5494704138
40
0.5000000000
100
AcDbArc
50
90.0000000000
51
180.0000000000
0
ARC
5
2D1
100
AcDbEntity
8
0
100
AcDbCircle
62
7
6
CONTINUOUS
10
130.7003288316
20
143.5494704138
40
0.5000000000
100
AcDbArc
50
0.0000000000
51
90.0000000000
0
ARC
5
2D2
100
AcDbEntity
8
0
100
AcDbCircle
62
7
6
CONTINUOUS
10
-465.2996711684
20
-344.5420969585
40
0.4084326277
100
AcDbArc
50
180.0000000000
51
270.0000000000
0
ARC
5
2D3
100
AcDbEntity
8
0
100
AcDbCircle
62
7
6
CONTINUOUS
10
130.7003288316
20
-344.4505295862
40
0.5000000000
100
AcDbArc
50
270.0000000000
51
360.0000000000
0
ARC
5
2D4
100
AcDbEntity
8
0
100
AcDbCircle
62
7
6
CONTINUOUS
10
32.7003288316
20
88.5494704138
40
3.5000000000
100
AcDbArc
50
0.0000000000
51
180.0000000000
0
ARC
5
2D5
100
AcDbEntity
8
0
100
AcDbCircle
62
7
6
CONTINUOUS
10
32.7003288316
20
74.5494704138
40
9.0000000000
100
AcDbArc
50
292.8853804762
51
67.1146195238
0
ARC
5
2D6
100
AcDbEntity
8
0
100
AcDbCircle
62
7
6
CONTINUOUS
10
32.7003288316
20
60.5494704138
40
3.5000000000
100
AcDbArc
50
180.0000000000
51
360.0000000000
0
ARC
5
2D7
100
AcDbEntity
8
0
100
AcDbCircle
62
7
6
CONTINUOUS
10
32.7003288316
20
74.5494704138
40
9.0000000000
100
AcDbArc
50
112.8853804762
51
247.1146195238
0
ARC
5
2D8
100
AcDbEntity
8
0
100
AcDbCircle
62
7
6
CONTINUOUS
10
-367.2996711684
20
74.5494704138
40
9.0000000000
100
AcDbArc
50
292.8853804762
51
67.1146195238
0
ARC
5
2D9
100
AcDbEntity
8
0
100
AcDbCircle
62
7
6
CONTINUOUS
10
-367.2996711684
20
60.5494704138
40
3.5000000000
100
AcDbArc
50
180.0000000000
51
360.0000000000
0
ARC
5
2DA
100
AcDbEntity
8
0
100
AcDbCircle
62
7
6
CONTINUOUS
10
-367.2996711684
20
74.5494704138
40
9.0000000000
100
AcDbArc
50
112.8853804762
51
247.1146195238
0
ARC
5
2DB
100
AcDbEntity
8
0
100
AcDbCircle
62
7
6
CONTINUOUS
10
-367.2996711684
20
88.5494704138
40
3.5000000000
100
AcDbArc
50
0.0000000000
51
180.0000000000
0
ARC
5
2DC
100
AcDbEntity
8
0
100
AcDbCircle
62
7
6
CONTINUOUS
10
32.7003288316
20
-275.4505295862
40
9.0000000000
100
AcDbArc
50
112.8853804762
51
247.1146195238
0
ARC
5
2DD
100
AcDbEntity
8
0
100
AcDbCircle
62
7
6
CONTINUOUS
10
32.7003288316
20
-261.4505295862
40
3.5000000000
100
AcDbArc
50
0.0000000000
51
180.0000000000
0
ARC
5
2DE
100
AcDbEntity
8
0
100
AcDbCircle
62
7
6
CONTINUOUS
10
32.7003288316
20
-275.4505295862
40
9.0000000000
100
AcDbArc
50
292.8853804762
51
67.1146195238
0
ARC
5
2DF
100
AcDbEntity
8
0
100
AcDbCircle
62
7
6
CONTINUOUS
10
32.7003288316
20
-289.4505295862
40
3.5000000000
100
AcDbArc
50
180.0000000000
51
360.0000000000
0
ARC
5
2E0
100
AcDbEntity
8
0
100
AcDbCircle
62
7
6
CONTINUOUS
10
-367.2996711684
20
-289.4505295862
40
3.5000000000
100
AcDbArc
50
180.0000000000
51
360.0000000000
0
ARC
5
2E1
100
AcDbEntity
8
0
100
AcDbCircle
62
7
6
CONTINUOUS
10
-367.2996711684
20
-275.4505295862
40
9.0000000000
100
AcDbArc
50
112.8853804762
51
247.1146195238
0
ARC
5
2E2
100
AcDbEntity
8
0
100
AcDbCircle
62
7
6
CONTINUOUS
10
-367.2996711684
20
-261.4505295862
40
3.5000000000
100
AcDbArc
50
0.0000000000
51
180.0000000000
0
ARC
5
2E3
100
AcDbEntity
8
0
100
AcDbCircle
62
7
6
CONTINUOUS
10
-367.2996711684
20
-275.4505295862
40
9.0000000000
100
AcDbArc
50
292.8853804762
51
67.1146195238
0
ARC
5
2E4
100
AcDbEntity
8
0
100
AcDbCircle
62
7
6
CONTINUOUS
10
-465.2996711684
20
143.5494704138
40
2.0000000000
100
AcDbArc
50
90.0000000000
51
180.0000000000
0
ARC
5
2E5
100
AcDbEntity
8
0
100
AcDbCircle
62
7
6
CONTINUOUS
10
130.7003288316
20
143.5494704138
40
2.0000000000
100
AcDbArc
50
0.0000000000
51
90.0000000000
0
ARC
5
2E6
100
AcDbEntity
8
0
100
AcDbCircle
62
7
6
CONTINUOUS
10
-465.2996711684
20
-344.5420969585
40
1.9084326277
100
AcDbArc
50
180.0000000000
51
270.0000000000
0
ARC
5
2E7
100
AcDbEntity
8
0
100
AcDbCircle
62
7
6
CONTINUOUS
10
130.7003288316
20
-344.4505295862
40
2.0000000000
100
AcDbArc
50
270.0000000000
51
360.0000000000
0
ARC
5
2E8
100
AcDbEntity
8
0
100
AcDbCircle
62
7
6
CONTINUOUS
10
-465.2996711684
20
107.5494704138
40
2.0000000000
100
AcDbArc
50
180.0000000000
51
270.0000000000
0
ARC
5
2E9
100
AcDbEntity
8
0
100
AcDbCircle
62
7
6
CONTINUOUS
10
130.7003288316
20
107.5494704138
40
2.0000000000
100
AcDbArc
50
270.0000000000
51
360.0000000000
0
ARC
5
2EA
100
AcDbEntity
8
0
100
AcDbCircle
62
7
6
CONTINUOUS
10
-465.2996711684
20
-308.3589622139
40
1.9084326277
100
AcDbArc
50
90.0000000000
51
180.0000000000
0
ARC
5
2EB
100
AcDbEntity
8
0
100
AcDbCircle
62
7
6
CONTINUOUS
10
130.7003288316
20
-308.4505295862
40
2.0000000000
100
AcDbArc
50
0.0000000000
51
90.0000000000
0
ARC
5
2EC
100
AcDbEntity
8
0
100
AcDbCircle
62
7
6
CONTINUOUS
10
-465.2996711684
20
103.5494704138
40
2.0000000000
100
AcDbArc
50
100.0093107987
51
142.3022425448
0
ARC
5
2ED
100
AcDbEntity
8
0
100
AcDbCircle
62
7
6
CONTINUOUS
10
-465.2996711684
20
-304.4505295862
40
2.0000000000
100
AcDbArc
50
217.6977574552
51
259.9906892013
0
ARC
5
2EE
100
AcDbEntity
8
0
100
AcDbCircle
62
7
6
CONTINUOUS
10
130.7003288316
20
103.5494704138
40
2.0000000000
100
AcDbArc
50
37.6977574552
51
79.9906892013
0
ARC
5
2EF
100
AcDbEntity
8
0
100
AcDbCircle
62
7
6
CONTINUOUS
10
130.7003288316
20
-304.4505295862
40
2.0000000000
100
AcDbArc
50
280.0093107987
51
322.3022425448
0
SPLINE
5
2F0
100
AcDbEntity
8
0
100
AcDbSpline
62
7
6
CONTINUOUS
70
0
71
3
72
16
73
12
74
10
42
0.0000001000
43
0.0000001000
44
0.0000000001
12
-0.0289744044
22
0.2588793067
32
0.0000000000
13
-0.2571086795
23
-0.0312684163
33
0.0000000000
40
0.0000000000
40
0.0000000000
40
0.0000000000
40
0.0000000000
40
0.0950980898
40
0.2223386279
40
0.3380988178
40
0.4476222810
40
0.5468622451
40
0.6466093114
40
0.7654231273
40
0.9093720201
40
1.0000000000
40
1.0000000000
40
1.0000000000
40
1.0000000000
10
-275.3003097372
20
149.8873269531
30
0.0000000000
10
-275.3012282074
20
149.8955332623
30
0.0000000000
10
-275.3057059711
20
149.9145301989
30
0.0000000000
10
-275.3204257789
20
149.9402945704
30
0.0000000000
10
-275.3431476852
20
149.9611942138
30
0.0000000000
10
-275.3685164360
20
149.9738557036
30
0.0000000000
10
-275.3946613594
20
149.9797778360
30
0.0000000000
10
-275.4220998940
20
149.9814868256
30
0.0000000000
10
-275.4534055246
20
149.9808103844
30
0.0000000000
10
-275.4838379320
20
149.9785252272
30
0.0000000000
10
-275.5039736303
20
149.9763350440
30
0.0000000000
10
-275.5117407104
20
149.9753904462
30
0.0000000000
11
-275.3003097372
21
149.8873269531
31
0.0000000000
11
-275.3060103421
21
149.9114081534
31
0.0000000000
11
-275.3223192729
21
149.9400422391
31
0.0000000000
11
-275.3443656167
21
149.9603582486
31
0.0000000000
11
-275.3696980217
21
149.9731180938
31
0.0000000000
11
-275.3946972337
21
149.9790841834
31
0.0000000000
11
-275.4204545710
21
149.9810545477
31
0.0000000000
11
-275.4512218777
21
149.9806101344
31
0.0000000000
11
-275.4884052105
21
149.9779268813
31
0.0000000000
11
-275.5117407104
21
149.9753904462
31
0.0000000000
0
SPLINE
5
2F1
100
AcDbEntity
8
0
100
AcDbSpline
62
7
6
CONTINUOUS
70
0
71
3
72
17
73
13
74
11
42
0.0000001000
43
0.0000001000
44
0.0000000001
12
-0.2409615793
22
-0.0786737289
32
0.0000000000
13
-0.2508541122
23
-0.0616341786
33
0.0000000000
40
0.0000000000
40
0.0000000000
40
0.0000000000
40
0.0000000000
40
0.1257174119
40
0.2559316030
40
0.3801033766
40
0.4973284206
40
0.6067933816
40
0.7076507114
40
0.7992778858
40
0.8810031933
40
0.9522887015
40
1.0000000000
40
1.0000000000
40
1.0000000000
40
1.0000000000
10
-276.6307056112
20
149.7271864636
30
0.0000000000
10
-276.6408032999
20
149.7238895778
30
0.0000000000
10
-276.6613755864
20
149.7172260547
30
0.0000000000
10
-276.6919753900
20
149.7074739449
30
0.0000000000
10
-276.7219380314
20
149.6980861786
30
0.0000000000
10
-276.7502727521
20
149.6893700755
30
0.0000000000
10
-276.7767717751
20
149.6813796262
30
0.0000000000
10
-276.8012397642
20
149.6741745659
30
0.0000000000
10
-276.8235318867
20
149.6677885485
30
0.0000000000
10
-276.8433846505
20
149.6622589227
30
0.0000000000
10
-276.8599499670
20
149.6578667585
30
0.0000000000
10
-276.8693749690
20
149.6554195738
30
0.0000000000
10
-276.8733644942
20
149.6544393582
30
0.0000000000
11
-276.6307056112
21
149.7271864636
31
0.0000000000
11
-276.6610216560
21
149.7173665934
31
0.0000000000
11
-276.6924701697
21
149.7073451873
31
0.0000000000
11
-276.7225063443
21
149.6979375375
31
0.0000000000
11
-276.7509081572
21
149.6892044080
31
0.0000000000
11
-276.7774756665
21
149.6812000102
31
0.0000000000
11
-276.8020015856
21
149.6739845994
31
0.0000000000
11
-276.8243298808
21
149.6675911450
31
0.0000000000
11
-276.8442919643
21
149.6620544421
31
0.0000000000
11
-276.8617535326
21
149.6574071396
31
0.0000000000
11
-276.8733644942
21
149.6544393582
31
0.0000000000
0
SPLINE
5
2F2
100
AcDbEntity
8
0
100
AcDbSpline
62
7
6
CONTINUOUS
70
0
71
3
72
11
73
7
74
5
42
0.0000001000
43
0.0000001000
44
0.0000000001
12
-0.0254898087
22
-0.0062627772
32
0.0000000000
13
-0.0387715112
23
-0.0062176843
33
0.0000000000
40
0.0000000000
40
0.0000000000
40
0.0000000000
40
0.0000000000
40
0.1248469644
40
0.5993276583
40
0.9394943737
40
1.0000000000
40
1.0000000000
40
1.0000000000
40
1.0000000000
10
-276.8733644942
20
149.6544393582
30
0.0000000000
10
-276.8744252692
20
149.6541787287
30
0.0000000000
10
-276.8795889952
20
149.6529279072
30
0.0000000000
10
-276.8884076318
20
149.6509531869
30
0.0000000000
10
-276.8929007699
20
149.6497123304
30
0.0000000000
10
-276.8987463650
20
149.6487854876
30
0.0000000000
10
-276.8995283299
20
149.6486600860
30
0.0000000000
11
-276.8733644942
21
149.6544393582
31
0.0000000000
11
-276.8765966423
21
149.6536572208
31
0.0000000000
11
-276.8884931914
21
149.6508599060
31
0.0000000000
11
-276.8970672688
21
149.6490572324
31
0.0000000000
11
-276.8995283299
21
149.6486600860
31
0.0000000000
0
SPLINE
5
2F3
100
AcDbEntity
8
0
100
AcDbSpline
62
7
6
CONTINUOUS
70
0
71
3
72
10
73
6
74
4
42
0.0000001000
43
0.0000001000
44
0.0000000001
12
-1.1394054503
22
-0.1385357645
32
0.0000000000
13
-1.0911165306
23
-0.3562186596
33
0.0000000000
40
0.0000000000
40
0.0000000000
40
0.0000000000
40
0.0000000000
40
0.3242326341
40
0.6737101514
40
1.0000000000
40
1.0000000000
40
1.0000000000
40
1.0000000000
10
-275.5117405080
20
149.9753887765
30
0.0000000000
10
-275.6348846515
20
149.9604161712
30
0.0000000000
10
-275.8898536173
20
149.9212217882
30
0.0000000000
10
-276.2636322694
20
149.8383920213
30
0.0000000000
10
-276.5120331969
20
149.7659330428
30
0.0000000000
10
-276.6307066128
20
149.7271895320
30
0.0000000000
11
-275.5117405080
21
149.9753887765
31
0.0000000000
11
-275.8795698629
21
149.9188435888
31
0.0000000000
11
-276.2711796451
21
149.8320623772
31
0.0000000000
11
-276.6307066128
21
149.7271895320
31
0.0000000000
0
SPLINE
5
2F4
100
AcDbEntity
8
0
100
AcDbSpline
62
7
6
CONTINUOUS
70
0
71
3
72
8
73
4
74
2
42
0.0000001000
43
0.0000001000
44
0.0000000001
12
-0.0000045224
22
0.0112105483
32
0.0000000000
13
-0.0012537431
23
0.0111931650
33
0.0000000000
40
0.0000000000
40
0.0000000000
40
0.0000000000
40
0.0000000000
40
1.0000000000
40
1.0000000000
40
1.0000000000
40
1.0000000000
10
-275.2996811585
20
149.8761109455
30
0.0000000000
10
-275.2996826660
20
149.8798477949
30
0.0000000000
10
-275.2998945093
20
149.8835955966
30
0.0000000000
10
-275.3003124237
20
149.8873266517
30
0.0000000000
11
-275.2996811585
21
149.8761109455
31
0.0000000000
11
-275.3003124237
21
149.8873266517
31
0.0000000000
0
SPLINE
5
2F5
100
AcDbEntity
8
0
100
AcDbSpline
62
7
6
CONTINUOUS
70
0
71
3
72
13
73
9
74
7
42
0.0000001000
43
0.0000001000
44
0.0000000001
12
-0.0186732971
22
0.1667114088
32
0.0000000000
13
-0.1668252168
23
0.0043654261
33
0.0000000000
40
0.0000000000
40
0.0000000000
40
0.0000000000
40
0.0000000000
40
0.1475633507
40
0.3441968187
40
0.5230475999
40
0.6926499719
40
0.8460445029
40
1.0000000000
40
1.0000000000
40
1.0000000000
40
1.0000000000
10
-275.3003124238
20
149.8873266522
30
0.0000000000
10
-275.3012309219
20
149.8955268169
30
0.0000000000
10
-275.3056951642
20
149.9144653097
30
0.0000000000
10
-275.3203345764
20
149.9401445308
30
0.0000000000
10
-275.3429044536
20
149.9610125120
30
0.0000000000
10
-275.3681257944
20
149.9737097130
30
0.0000000000
10
-275.3941359227
20
149.9797030979
30
0.0000000000
10
-275.4112241603
20
149.9808132765
30
0.0000000000
10
-275.4197853801
20
149.9810373036
30
0.0000000000
11
-275.3003124238
21
149.8873266522
31
0.0000000000
11
-275.3060088493
21
149.9113904065
31
0.0000000000
11
-275.3222139152
21
149.9399042771
31
0.0000000000
11
-275.3440998985
21
149.9601747623
31
0.0000000000
11
-275.3693212502
21
149.9729856605
31
0.0000000000
11
-275.3941868345
21
149.9790105623
31
0.0000000000
11
-275.4197853801
21
149.9810373036
31
0.0000000000
0
SPLINE
5
2F6
100
AcDbEntity
8
0
100
AcDbSpline
62
7
6
CONTINUOUS
70
0
71
3
72
8
73
4
74
2
42
0.0000001000
43
0.0000001000
44
0.0000000001
12
-0.0304850193
22
0.0007977217
32
0.0000000000
13
-0.0304535634
23
-0.0013443544
33
0.0000000000
40
0.0000000000
40
0.0000000000
40
0.0000000000
40
0.0000000000
40
1.0000000000
40
1.0000000000
40
1.0000000000
40
1.0000000000
10
-275.4197853801
20
149.9810373036
30
0.0000000000
10
-275.4299470531
20
149.9813032109
30
0.0000000000
10
-275.4401108486
20
149.9811012798
30
0.0000000000
10
-275.4502620364
20
149.9806531617
30
0.0000000000
11
-275.4197853801
21
149.9810373036
31
0.0000000000
11
-275.4502620364
21
149.9806531617
31
0.0000000000
0
SPLINE
5
2F7
100
AcDbEntity
8
0
100
AcDbSpline
62
7
6
CONTINUOUS
70
0
71
3
72
9
73
5
74
3
42
0.0000001000
43
0.0000001000
44
0.0000000001
12
-0.0616600254
22
-0.0027219451
32
0.0000000000
13
-0.0612650701
23
-0.0074519145
33
0.0000000000
40
0.0000000000
40
0.0000000000
40
0.0000000000
40
0.0000000000
40
0.5991729697
40
1.0000000000
40
1.0000000000
40
1.0000000000
40
1.0000000000
10
-275.4502620364
20
149.9806531617
30
0.0000000000
10
-275.4625770432
20
149.9801095230
30
0.0000000000
10
-275.4830994168
20
149.9785974959
30
0.0000000000
10
-275.5035551145
20
149.9763858355
30
0.0000000000
10
-275.5117406799
20
149.9753901925
30
0.0000000000
11
-275.4502620364
21
149.9806531617
31
0.0000000000
11
-275.4871460091
21
149.9780464173
31
0.0000000000
11
-275.5117406799
21
149.9753901925
31
0.0000000000
0
SPLINE
5
2F8
100
AcDbEntity
8
0
100
AcDbSpline
62
7
6
CONTINUOUS
70
0
71
3
72
8
73
4
74
2
42
0.0000001000
43
0.0000001000
44
0.0000000001
12
-0.0121258853
22
-0.0006742997
32
0.0000000000
13
-0.0121403917
23
-0.0004857074
33
0.0000000000
40
0.0000000000
40
0.0000000000
40
0.0000000000
40
0.0000000000
40
1.0000000000
40
1.0000000000
40
1.0000000000
40
1.0000000000
10
-275.1051854790
20
149.6497263889
30
0.0000000000
10
-275.1092274407
20
149.6495016223
30
0.0000000000
10
-275.1132717872
20
149.6493079494
30
0.0000000000
10
-275.1173185845
20
149.6491460469
30
0.0000000000
11
-275.1051854790
21
149.6497263889
31
0.0000000000
11
-275.1173185845
21
149.6491460469
31
0.0000000000
0
SPLINE
5
2F9
100
AcDbEntity
8
0
100
AcDbSpline
62
7
6
CONTINUOUS
70
0
71
3
72
8
73
4
74
2
42
0.0000001000
43
0.0000001000
44
0.0000000001
12
-0.0226721203
22
-0.0009070561
32
0.0000000000
13
-0.0227246917
23
-0.0002290275
33
0.0000000000
40
0.0000000000
40
0.0000000000
40
0.0000000000
40
0.0000000000
40
1.0000000000
40
1.0000000000
40
1.0000000000
40
1.0000000000
10
-275.1173185845
20
149.6491460469
30
0.0000000000
10
-275.1248759579
20
149.6488436949
30
0.0000000000
10
-275.1324418783
20
149.6486521436
30
0.0000000000
10
-275.1400167756
20
149.6485758011
30
0.0000000000
11
-275.1173185845
21
149.6491460469
31
0.0000000000
11
-275.1400167756
21
149.6485758011
31
0.0000000000
0
SPLINE
5
2FA
100
AcDbEntity
8
0
100
AcDbSpline
62
7
6
CONTINUOUS
70
0
71
3
72
11
73
7
74
5
42
0.0000001000
43
0.0000001000
44
0.0000000001
12
-0.1625355335
22
-0.0016380908
32
0.0000000000
13
-0.1430045884
23
0.0452983136
33
0.0000000000
40
0.0000000000
40
0.0000000000
40
0.0000000000
40
0.0000000000
40
0.3921400466
40
0.7167710143
40
0.9507098624
40
1.0000000000
40
1.0000000000
40
1.0000000000
40
1.0000000000
10
-275.1400167756
20
149.6485758011
30
0.0000000000
10
-275.1612623394
20
149.6483616807
30
0.0000000000
10
-275.2002250019
20
149.6496268653
30
0.0000000000
10
-275.2505922237
20
149.6549632703
30
0.0000000000
10
-275.2842658000
20
149.6636442950
30
0.0000000000
10
-275.2974344588
20
149.6671040195
30
0.0000000000
10
-275.2997840307
20
149.6678482729
30
0.0000000000
11
-275.1400167756
21
149.6485758011
31
0.0000000000
11
-275.2035986288
21
149.6505715555
31
0.0000000000
11
-275.2558532372
21
149.6571077627
31
0.0000000000
11
-275.2927746319
21
149.6658821108
31
0.0000000000
11
-275.2997840307
21
149.6678482729
31
0.0000000000
0
SPLINE
5
2FB
100
AcDbEntity
8
0
100
AcDbSpline
62
7
6
CONTINUOUS
70
0
71
3
72
9
73
5
74
3
42
0.0000001000
43
0.0000001000
44
0.0000000001
12
-0.0148819146
22
0.0047140140
32
0.0000000000
13
-0.0133048910
23
0.0072041476
33
0.0000000000
40
0.0000000000
40
0.0000000000
40
0.0000000000
40
0.0000000000
40
0.8019985287
40
1.0000000000
40
1.0000000000
40
1.0000000000
40
1.0000000000
10
-275.2997840307
20
149.6678482729
30
0.0000000000
10
-275.3037624553
20
149.6691084837
30
0.0000000000
10
-275.3089298680
20
149.6711880379
30
0.0000000000
10
-275.3153680340
20
149.6751080355
30
0.0000000000
10
-275.3162461633
20
149.6755835127
30
0.0000000000
11
-275.2997840307
21
149.6678482729
31
0.0000000000
11
-275.3128683206
21
149.6736278587
31
0.0000000000
11
-275.3162461633
21
149.6755835127
31
0.0000000000
0
SPLINE
5
2FC
100
AcDbEntity
8
0
100
AcDbSpline
62
7
6
CONTINUOUS
70
0
71
3
72
10
73
6
74
4
42
0.0000001000
43
0.0000001000
44
0.0000000001
12
-0.6103837428
22
0.0337146206
32
0.0000000000
13
-0.6103824095
23
-0.0337146639
33
0.0000000000
40
0.0000000000
40
0.0000000000
40
0.0000000000
40
0.0000000000
40
0.3162379388
40
0.6798529955
40
1.0000000000
40
1.0000000000
40
1.0000000000
40
1.0000000000
10
-274.4941559301
20
149.6497430874
30
0.0000000000
10
-274.5584980957
20
149.6532970348
30
0.0000000000
10
-274.6969671668
20
149.6585242061
30
0.0000000000
10
-274.9007819273
20
149.6585681358
30
0.0000000000
10
-275.0400488975
20
149.6533409923
30
0.0000000000
10
-275.1051862642
20
149.6497431094
30
0.0000000000
11
-274.4941559301
21
149.6497430874
31
0.0000000000
11
-274.6873381876
21
149.6570353954
31
0.0000000000
11
-274.9096148230
21
149.6570833340
31
0.0000000000
11
-275.1051862642
21
149.6497431094
31
0.0000000000
0
SPLINE
5
2FD
100
AcDbEntity
8
0
100
AcDbSpline
62
7
6
CONTINUOUS
70
0
71
3
72
9
73
5
74
3
42
0.0000001000
43
0.0000001000
44
0.0000000001
12
-0.0152042181
22
-0.0087117897
32
0.0000000000
13
-0.0143642103
23
-0.0045149261
33
0.0000000000
40
0.0000000000
40
0.0000000000
40
0.0000000000
40
0.0000000000
40
0.1424866664
40
1.0000000000
40
1.0000000000
40
1.0000000000
40
1.0000000000
10
-274.2837429979
20
149.6751952120
30
0.0000000000
10
-274.2844651307
20
149.6747814407
30
0.0000000000
10
-274.2905331790
20
149.6711448148
30
0.0000000000
10
-274.2954674292
20
149.6691930644
30
0.0000000000
10
-274.2995732632
20
149.6679025280
30
0.0000000000
11
-274.2837429979
21
149.6751952120
31
0.0000000000
11
-274.2861713437
21
149.6737793064
31
0.0000000000
11
-274.2995732632
21
149.6679025280
31
0.0000000000
0
SPLINE
5
2FE
100
AcDbEntity
8
0
100
AcDbSpline
62
7
6
CONTINUOUS
70
0
71
3
72
11
73
7
74
5
42
0.0000001000
43
0.0000001000
44
0.0000000001
12
-0.1401325979
22
-0.0440425303
32
0.0000000000
13
-0.1595286702
23
0.0010276725
33
0.0000000000
40
0.0000000000
40
0.0000000000
40
0.0000000000
40
0.0000000000
40
0.0438216188
40
0.2774879323
40
0.6034667719
40
1.0000000000
40
1.0000000000
40
1.0000000000
40
1.0000000000
10
-274.2995751696
20
149.6679019288
30
0.0000000000
10
-274.3016221153
20
149.6672585905
30
0.0000000000
10
-274.3143867005
20
149.6637876060
30
0.0000000000
10
-274.3470862620
20
149.6552921992
30
0.0000000000
10
-274.3968263910
20
149.6497885378
30
0.0000000000
10
-274.4353627561
20
149.6484099424
30
0.0000000000
10
-274.4564488956
20
149.6485457778
30
0.0000000000
11
-274.2995751696
21
149.6679019288
31
0.0000000000
11
-274.3057103969
21
149.6661514379
31
0.0000000000
11
-274.3418728342
21
149.6574036315
31
0.0000000000
11
-274.3933498556
21
149.6507605551
31
0.0000000000
11
-274.4564488956
21
149.6485457778
31
0.0000000000
0
SPLINE
5
2FF
100
AcDbEntity
8
0
100
AcDbSpline
62
7
6
CONTINUOUS
70
0
71
3
72
8
73
4
74
2
42
0.0000001000
43
0.0000001000
44
0.0000000001
12
-0.0377751027
22
0.0002433446
32
0.0000000000
13
-0.0376420626
23
0.0020944388
33
0.0000000000
40
0.0000000000
40
0.0000000000
40
0.0000000000
40
0.0000000000
40
1.0000000000
40
1.0000000000
40
1.0000000000
40
1.0000000000
10
-274.4564488956
20
149.6485457778
30
0.0000000000
10
-274.4690405965
20
149.6486268927
30
0.0000000000
10
-274.4816096145
20
149.6490262482
30
0.0000000000
10
-274.4941569686
20
149.6497243945
30
0.0000000000
11
-274.4564488956
21
149.6485457778
31
0.0000000000
11
-274.4941569686
21
149.6497243945
31
0.0000000000
0
SPLINE
5
300
100
AcDbEntity
8
0
100
AcDbSpline
62
7
6
CONTINUOUS
70
0
71
3
72
9
73
5
74
3
42
0.0000001000
43
0.0000001000
44
0.0000000001
12
-0.0603938318
22
0.0073448720
32
0.0000000000
13
-0.0607785955
23
0.0027725077
33
0.0000000000
40
0.0000000000
40
0.0000000000
40
0.0000000000
40
0.0000000000
40
0.3869911088
40
1.0000000000
40
1.0000000000
40
1.0000000000
40
1.0000000000
10
-274.0876016250
20
149.9753904566
30
0.0000000000
10
-274.0953922503
20
149.9763379233
30
0.0000000000
10
-274.1155554521
20
149.9785303189
30
0.0000000000
10
-274.1357837976
20
149.9800473693
30
0.0000000000
10
-274.1482030708
20
149.9806138933
30
0.0000000000
11
-274.0876016250
21
149.9753904566
31
0.0000000000
11
-274.1110079660
21
149.9779336574
31
0.0000000000
11
-274.1482030708
21
149.9806138933
31
0.0000000000
0
SPLINE
5
301
100
AcDbEntity
8
0
100
AcDbSpline
62
7
6
CONTINUOUS
70
0
71
3
72
9
73
5
74
3
42
0.0000001000
43
0.0000001000
44
0.0000000001
12
-0.0564442669
22
0.0025747907
32
0.0000000000
13
-0.0559810452
23
-0.0080425123
33
0.0000000000
40
0.0000000000
40
0.0000000000
40
0.0000000000
40
0.0000000000
40
0.5438656546
40
1.0000000000
40
1.0000000000
40
1.0000000000
40
1.0000000000
10
-274.1482030708
20
149.9806138933
30
0.0000000000
10
-274.1584357702
20
149.9810806733
30
0.0000000000
10
-274.1772743890
20
149.9814852765
30
0.0000000000
10
-274.1961085653
20
149.9803105558
30
0.0000000000
10
-274.2046201911
20
149.9790877338
30
0.0000000000
11
-274.1482030708
21
149.9806138933
31
0.0000000000
11
-274.1789258116
21
149.9810536249
31
0.0000000000
11
-274.2046201911
21
149.9790877338
31
0.0000000000
0
SPLINE
5
302
100
AcDbEntity
8
0
100
AcDbSpline
62
7
6
CONTINUOUS
70
0
71
3
72
8
73
4
74
2
42
0.0000001000
43
0.0000001000
44
0.0000000001
12
-0.0253563285
22
-0.0036428149
32
0.0000000000
13
-0.0242042291
23
-0.0084543714
33
0.0000000000
40
0.0000000000
40
0.0000000000
40
0.0000000000
40
0.0000000000
40
1.0000000000
40
1.0000000000
40
1.0000000000
40
1.0000000000
10
-274.2046201911
20
149.9790877338
30
0.0000000000
10
-274.2130723006
20
149.9778734622
30
0.0000000000
10
-274.2214462261
20
149.9759817728
30
0.0000000000
10
-274.2295143025
20
149.9731636490
30
0.0000000000
11
-274.2046201911
21
149.9790877338
31
0.0000000000
11
-274.2295143025
21
149.9731636490
31
0.0000000000
0
SPLINE
5
303
100
AcDbEntity
8
0
100
AcDbSpline
62
7
6
CONTINUOUS
70
0
71
3
72
11
73
7
74
5
42
0.0000001000
43
0.0000001000
44
0.0000000001
12
-0.1097795045
22
-0.0383452287
32
0.0000000000
13
-0.0129853403
23
-0.1160160106
33
0.0000000000
40
0.0000000000
40
0.0000000000
40
0.0000000000
40
0.0000000000
40
0.2448027718
40
0.5034455926
40
0.7877064745
40
1.0000000000
40
1.0000000000
40
1.0000000000
40
1.0000000000
10
-274.2295143025
20
149.9731636490
30
0.0000000000
10
-274.2384724115
20
149.9700346429
30
0.0000000000
10
-274.2561196621
20
149.9612509441
30
0.0000000000
10
-274.2788878112
20
149.9403373288
30
0.0000000000
10
-274.2936309412
20
149.9145503965
30
0.0000000000
10
-274.2981136476
20
149.8955372116
30
0.0000000000
10
-274.2990325488
20
149.8873273956
30
0.0000000000
11
-274.2295143025
21
149.9731636490
31
0.0000000000
11
-274.2549026213
21
149.9604088430
31
0.0000000000
11
-274.2769912797
21
149.9400815228
31
0.0000000000
11
-274.2933281188
21
149.9114186044
31
0.0000000000
11
-274.2990325488
21
149.8873273956
31
0.0000000000
0
SPLINE
5
304
100
AcDbEntity
8
0
100
AcDbSpline
62
7
6
CONTINUOUS
70
0
71
3
72
8
73
4
74
2
42
0.0000001000
43
0.0000001000
44
0.0000000001
12
-0.0012512757
22
-0.0111793772
32
0.0000000000
13
-0.0000054201
23
-0.0111967750
33
0.0000000000
40
0.0000000000
40
0.0000000000
40
0.0000000000
40
0.0000000000
40
1.0000000000
40
1.0000000000
40
1.0000000000
40
1.0000000000
10
-274.2990325488
20
149.8873273956
30
0.0000000000
10
-274.2994496407
20
149.8836009365
30
0.0000000000
10
-274.2996611982
20
149.8798577795
30
0.0000000000
10
-274.2996630050
20
149.8761255212
30
0.0000000000
11
-274.2990325488
21
149.8873273956
31
0.0000000000
11
-274.2996630050
21
149.8761255212
31
0.0000000000
0
SPLINE
5
305
100
AcDbEntity
8
0
100
AcDbSpline
62
7
6
CONTINUOUS
70
0
71
3
72
10
73
6
74
4
42
0.0000001000
43
0.0000001000
44
0.0000000001
12
-1.0911208316
22
0.3562194201
32
0.0000000000
13
-1.1394011973
23
0.1385349433
33
0.0000000000
40
0.0000000000
40
0.0000000000
40
0.0000000000
40
0.0000000000
40
0.3242092501
40
0.6736871094
40
1.0000000000
40
1.0000000000
40
1.0000000000
40
1.0000000000
10
-272.9686357314
20
149.7271895037
30
0.0000000000
10
-273.0865528869
20
149.7656860474
30
0.0000000000
10
-273.3341727351
20
149.8379716924
30
0.0000000000
10
-273.7079178471
20
149.9209526850
30
0.0000000000
10
-273.9636680617
20
149.9603202102
30
0.0000000000
10
-274.0876018278
20
149.9753887895
30
0.0000000000
11
-272.9686357314
21
149.7271895037
31
0.0000000000
11
-273.3258501912
21
149.8314662759
31
0.0000000000
11
-273.7174252018
21
149.9184060632
31
0.0000000000
11
-274.0876018278
21
149.9753887895
31
0.0000000000
0
SPLINE
5
306
100
AcDbEntity
8
0
100
AcDbSpline
62
7
6
CONTINUOUS
70
0
71
3
72
8
73
4
74
2
42
0.0000001000
43
0.0000001000
44
0.0000000001
12
0.0000338558
22
0.0001072465
32
0.0000000000
13
-0.0041573908
23
0.0006697597
33
0.0000000000
40
0.0000000000
40
0.0000000000
40
0.0000000000
40
0.0000000000
40
1.0000000000
40
1.0000000000
40
1.0000000000
40
1.0000000000
10
-272.6975949134
20
149.6482534838
30
0.0000000000
10
-272.6975836282
20
149.6482892326
30
0.0000000000
10
-272.6987891167
20
149.6484829611
30
0.0000000000
10
-272.7001749136
20
149.6487062144
30
0.0000000000
11
-272.6975949134
21
149.6482534838
31
0.0000000000
11
-272.7001749136
21
149.6487062144
31
0.0000000000
0
SPLINE
5
307
100
AcDbEntity
8
0
100
AcDbSpline
62
7
6
CONTINUOUS
70
0
71
3
72
11
73
7
74
5
42
0.0000001000
43
0.0000001000
44
0.0000000001
12
-0.0393958245
22
0.0063467055
32
0.0000000000
13
-0.0252524804
23
0.0062307611
33
0.0000000000
40
0.0000000000
40
0.0000000000
40
0.0000000000
40
0.0000000000
40
0.0437461441
40
0.3811931805
40
0.8487327780
40
1.0000000000
40
1.0000000000
40
1.0000000000
40
1.0000000000
10
-272.7001749136
20
149.6487062144
30
0.0000000000
10
-272.7007493854
20
149.6487987623
30
0.0000000000
10
-272.7060251894
20
149.6496494134
30
0.0000000000
10
-272.7105277402
20
149.6508541323
30
0.0000000000
10
-272.7194247269
20
149.6528408341
30
0.0000000000
10
-272.7247122035
20
149.6541238603
30
0.0000000000
10
-272.7259854944
20
149.6544380303
30
0.0000000000
11
-272.7001749136
21
149.6487062144
31
0.0000000000
11
-272.7019174496
21
149.6489899285
31
0.0000000000
11
-272.7104032759
21
149.6507625750
31
0.0000000000
11
-272.7220990787
21
149.6534964339
31
0.0000000000
11
-272.7259854944
21
149.6544380303
31
0.0000000000
0
SPLINE
5
308
100
AcDbEntity
8
0
100
AcDbSpline
62
7
6
CONTINUOUS
70
0
71
3
72
18
73
14
74
12
42
0.0000001000
43
0.0000001000
44
0.0000000001
12
-0.2491589938
22
0.0614771357
32
0.0000000000
13
-0.2409641088
23
0.0786527442
33
0.0000000000
40
0.0000000000
40
0.0000000000
40
0.0000000000
40
0.0000000000
40
0.0441584266
40
0.1147243445
40
0.1955767258
40
0.2863024203
40
0.3862697342
40
0.4948207329
40
0.6111644276
40
0.7344498212
40
0.8637745550
40
0.9980510664
40
1.0000000000
40
1.0000000000
40
1.0000000000
40
1.0000000000
10
-272.7259854944
20
149.6544380303
30
0.0000000000
10
-272.7296529841
20
149.6553429415
30
0.0000000000
10
-272.7387666635
20
149.6577054351
30
0.0000000000
10
-272.7549000327
20
149.6619735797
30
0.0000000000
10
-272.7745578929
20
149.6674316810
30
0.0000000000
10
-272.7966332075
20
149.6737510595
30
0.0000000000
10
-272.8208856915
20
149.6808785461
30
0.0000000000
10
-272.8471712393
20
149.6887891223
30
0.0000000000
10
-272.8752913387
20
149.6974307701
30
0.0000000000
10
-272.9050425141
20
149.7067407953
30
0.0000000000
10
-272.9361910366
20
149.7166569035
30
0.0000000000
10
-272.9575382462
20
149.7235642396
30
0.0000000000
10
-272.9684801898
20
149.7271353452
30
0.0000000000
10
-272.9686367308
20
149.7271864415
30
0.0000000000
11
-272.7259854944
21
149.6544380303
31
0.0000000000
11
-272.7367207230
21
149.6571825477
31
0.0000000000
11
-272.7540084505
21
149.6617726851
31
0.0000000000
11
-272.7737606423
21
149.6672369872
31
0.0000000000
11
-272.7958711493
21
149.6735595747
31
0.0000000000
11
-272.8201836509
21
149.6806996065
31
0.0000000000
11
-272.8465328565
21
149.6886239338
31
0.0000000000
11
-272.8747235597
21
149.6972818719
31
0.0000000000
11
-272.9045479494
21
149.7066122851
31
0.0000000000
11
-272.9357846177
21
149.7165541534
31
0.0000000000
11
-272.9681671022
21
149.7270331696
31
0.0000000000
11
-272.9686367308
21
149.7271864415
31
0.0000000000
0
SPLINE
5
309
100
AcDbEntity
8
0
100
AcDbSpline
62
7
6
CONTINUOUS
70
0
71
3
72
8
73
4
74
2
42
0.0000001000
43
0.0000001000
44
0.0000000001
12
0.0000338947
22
0.0001160309
32
0.0000000000
13
-0.0042056179
23
0.0006729367
33
0.0000000000
40
0.0000000000
40
0.0000000000
40
0.0000000000
40
0.0000000000
40
1.0000000000
40
1.0000000000
40
1.0000000000
40
1.0000000000
10
-272.6976004157
20
149.6482642864
30
0.0000000000
10
-272.6975891174
20
149.6483029634
30
0.0000000000
10
-272.6987712116
20
149.6484936068
30
0.0000000000
10
-272.7001730842
20
149.6487179191
30
0.0000000000
11
-272.6976004157
21
149.6482642864
31
0.0000000000
11
-272.7001730842
21
149.6487179191
31
0.0000000000
0
SPLINE
5
30A
100
AcDbEntity
8
0
100
AcDbSpline
62
7
6
CONTINUOUS
70
0
71
3
72
17
73
13
74
11
42
0.0000001000
43
0.0000001000
44
0.0000000001
12
-0.2509708435
22
0.0616478837
32
0.0000000000
13
-0.2409606472
23
0.0786734263
33
0.0000000000
40
0.0000000000
40
0.0000000000
40
0.0000000000
40
0.0000000000
40
0.0479700867
40
0.1192779108
40
0.2010034140
40
0.2926090716
40
0.3934274926
40
0.5028415426
40
0.6200107320
40
0.7441297324
40
0.8743023083
40
1.0000000000
40
1.0000000000
40
1.0000000000
40
1.0000000000
10
-272.7259777095
20
149.6544394774
30
0.0000000000
10
-272.7299907405
20
149.6554252288
30
0.0000000000
10
-272.7394372700
20
149.6578784114
30
0.0000000000
10
-272.7560254141
20
149.6622774256
30
0.0000000000
10
-272.7758780617
20
149.6678076843
30
0.0000000000
10
-272.7981650446
20
149.6741927495
30
0.0000000000
10
-272.8226238029
20
149.6813955357
30
0.0000000000
10
-272.8491108514
20
149.6893826802
30
0.0000000000
10
-272.8774325234
20
149.6980949674
30
0.0000000000
10
-272.9073829011
20
149.7074790093
30
0.0000000000
10
-272.9379733857
20
149.7172281993
30
0.0000000000
10
-272.9585406598
20
149.7238901076
30
0.0000000000
10
-272.9686367255
20
149.7271864636
30
0.0000000000
11
-272.7259777095
21
149.6544394774
31
0.0000000000
11
-272.7376532005
21
149.6574238587
31
0.0000000000
11
-272.7551199614
21
149.6620733725
31
0.0000000000
11
-272.7750818351
21
149.6676107174
31
0.0000000000
11
-272.7974046555
21
149.6740031527
31
0.0000000000
11
-272.8219208977
21
149.6812161618
31
0.0000000000
11
-272.8484758599
21
149.6892170986
31
0.0000000000
11
-272.8768639723
21
149.6979462218
31
0.0000000000
11
-272.9068872310
21
149.7073499469
31
0.0000000000
11
-272.9383255570
21
149.7173681603
31
0.0000000000
11
-272.9686367255
21
149.7271864636
31
0.0000000000
0
SPLINE
5
30B
100
AcDbEntity
8
0
100
AcDbSpline
62
7
6
CONTINUOUS
70
0
71
3
72
16
73
12
74
10
42
0.0000001000
43
0.0000001000
44
0.0000000001
12
-0.2571082013
22
0.0312732353
32
0.0000000000
13
-0.0289956003
23
-0.2588563033
33
0.0000000000
40
0.0000000000
40
0.0000000000
40
0.0000000000
40
0.0000000000
40
0.0957177787
40
0.2385228785
40
0.3560819468
40
0.4550440047
40
0.5535147798
40
0.6628920152
40
0.7781856162
40
0.9049357695
40
1.0000000000
40
1.0000000000
40
1.0000000000
40
1.0000000000
10
-274.0876016560
20
149.9753901994
30
0.0000000000
10
-274.0958049313
20
149.9763880010
30
0.0000000000
10
-274.1162811117
20
149.9786012841
30
0.0000000000
10
-274.1469489374
20
149.9808586341
30
0.0000000000
10
-274.1779812673
20
149.9814721002
30
0.0000000000
10
-274.2051740242
20
149.9797037863
30
0.0000000000
10
-274.2311545990
20
149.9737295730
30
0.0000000000
10
-274.2563820766
20
149.9610551123
30
0.0000000000
10
-274.2789866592
20
149.9401759982
30
0.0000000000
10
-274.2936431616
20
149.9144802561
30
0.0000000000
10
-274.2981110482
20
149.8955297527
30
0.0000000000
10
-274.2990298631
20
149.8873270942
30
0.0000000000
11
-274.0876016560
21
149.9753901994
31
0.0000000000
11
-274.1122496187
21
149.9780514379
31
0.0000000000
11
-274.1491418184
21
149.9806558616
31
0.0000000000
11
-274.1795851747
21
149.9810365579
31
0.0000000000
11
-274.2051346503
21
149.9790136047
31
0.0000000000
11
-274.2299226632
21
149.9730205421
31
0.0000000000
11
-274.2551882333
21
149.9602120397
31
0.0000000000
11
-274.2771048989
21
149.9399334585
31
0.0000000000
11
-274.2933306860
21
149.9113979637
31
0.0000000000
11
-274.2990298631
21
149.8873270942
31
0.0000000000
0
SPLINE
5
30C
100
AcDbEntity
8
0
100
AcDbSpline
62
7
6
CONTINUOUS
70
0
71
3
72
12
73
8
74
6
42
0.0000001000
43
0.0000001000
44
0.0000000001
12
-0.1619099871
22
-0.0512868116
32
0.0000000000
13
-0.1836198709
23
0.0070518447
33
0.0000000000
40
0.0000000000
40
0.0000000000
40
0.0000000000
40
0.0000000000
40
0.0435347811
40
0.2501577898
40
0.5368832645
40
0.8832351291
40
1.0000000000
40
1.0000000000
40
1.0000000000
40
1.0000000000
10
-274.2995583060
20
149.6678482729
30
0.0000000000
10
-274.3019078779
20
149.6671040195
30
0.0000000000
10
-274.3150765367
20
149.6636442950
30
0.0000000000
10
-274.3487501130
20
149.6549632703
30
0.0000000000
10
-274.3991173348
20
149.6496268653
30
0.0000000000
10
-274.4452662760
20
149.6481283299
30
0.0000000000
10
-274.4736424792
20
149.6488231779
30
0.0000000000
10
-274.4807892627
20
149.6490976472
30
0.0000000000
11
-274.2995583060
21
149.6678482729
31
0.0000000000
11
-274.3065677048
21
149.6658821108
31
0.0000000000
11
-274.3434890995
21
149.6571077627
31
0.0000000000
11
-274.3957437079
21
149.6505715555
31
0.0000000000
11
-274.4593255611
21
149.6485758011
31
0.0000000000
11
-274.4807892627
21
149.6490976472
31
0.0000000000
0
SPLINE
5
30D
100
AcDbEntity
8
0
100
AcDbSpline
62
7
6
CONTINUOUS
70
0
71
3
72
10
73
6
74
4
42
0.0000001000
43
0.0000001000
44
0.0000000001
12
-0.6103822664
22
0.0337146560
32
0.0000000000
13
-0.6103836007
23
-0.0337145969
33
0.0000000000
40
0.0000000000
40
0.0000000000
40
0.0000000000
40
0.0000000000
40
0.3201470795
40
0.6837622215
40
1.0000000000
40
1.0000000000
40
1.0000000000
40
1.0000000000
10
-274.4941560725
20
149.6497431094
30
0.0000000000
10
-274.5592934392
20
149.6533409923
30
0.0000000000
10
-274.6985604094
20
149.6585681358
30
0.0000000000
10
-274.9023751222
20
149.6585242061
30
0.0000000000
10
-275.0408441455
20
149.6532970384
30
0.0000000000
10
-275.1051862634
20
149.6497430953
30
0.0000000000
11
-274.4941560725
21
149.6497431094
31
0.0000000000
11
-274.6897275137
21
149.6570833340
31
0.0000000000
11
-274.9120041491
21
149.6570353954
31
0.0000000000
11
-275.1051862634
21
149.6497430953
31
0.0000000000
0
SPLINE
5
30E
100
AcDbEntity
8
0
100
AcDbSpline
62
7
6
CONTINUOUS
70
0
71
3
72
8
73
4
74
2
42
0.0000001000
43
0.0000001000
44
0.0000000001
12
-0.0133593634
22
-0.0007433272
32
0.0000000000
13
-0.0133758724
23
-0.0005149088
33
0.0000000000
40
0.0000000000
40
0.0000000000
40
0.0000000000
40
0.0000000000
40
1.0000000000
40
1.0000000000
40
1.0000000000
40
1.0000000000
10
-275.1051853681
20
149.6497243945
30
0.0000000000
10
-275.1096384892
20
149.6494766187
30
0.0000000000
10
-275.1140943391
20
149.6492664780
30
0.0000000000
10
-275.1185529632
20
149.6490948417
30
0.0000000000
11
-275.1051853681
21
149.6497243945
31
0.0000000000
11
-275.1185529632
21
149.6490948417
31
0.0000000000
0
SPLINE
5
30F
100
AcDbEntity
8
0
100
AcDbSpline
62
9
6
CONTINUOUS
70
0
71
3
72
10
73
6
74
4
42
0.0000001000
43
0.0000001000
44
0.0000000001
12
-0.0000000037
22
0.0084211513
32
0.0000000000
13
0.0000000024
23
0.0084211513
33
0.0000000000
40
0.0000000000
40
0.0000000000
40
0.0000000000
40
0.0000000000
40
0.5552522622
40
0.8890061159
40
1.0000000000
40
1.0000000000
40
1.0000000000
40
1.0000000000
10
-276.9356869995
20
149.6430424555
30
0.0000000000
10
-276.9356870002
20
149.6446010766
30
0.0000000000
10
-276.9356869981
20
149.6470965616
30
0.0000000000
10
-276.9356869996
20
149.6499036120
30
0.0000000000
10
-276.9356869996
20
149.6511520414
30
0.0000000000
10
-276.9356869995
20
149.6514636068
30
0.0000000000
11
-276.9356869995
21
149.6430424555
31
0.0000000000
11
-276.9356869989
21
149.6477183188
31
0.0000000000
11
-276.9356869996
21
149.6505289105
31
0.0000000000
11
-276.9356869995
21
149.6514636068
31
0.0000000000
0
SPLINE
5
310
100
AcDbEntity
8
0
100
AcDbSpline
62
9
6
CONTINUOUS
70
0
71
3
72
11
73
7
74
5
42
0.0000001000
43
0.0000001000
44
0.0000000001
12
-0.2347482178
22
-0.0766424207
32
0.0000000000
13
-0.2489078788
23
-0.0675589159
33
0.0000000000
40
0.0000000000
40
0.0000000000
40
0.0000000000
40
0.0000000000
40
0.3504046771
40
0.6666687971
40
0.9304468631
40
1.0000000000
40
1.0000000000
40
1.0000000000
40
1.0000000000
10
-276.6305418808
20
149.7266849499
30
0.0000000000
10
-276.6579608386
20
149.7177329957
30
0.0000000000
10
-276.7100622358
20
149.7010802461
30
0.0000000000
10
-276.7839448744
20
149.6783672642
30
0.0000000000
10
-276.8338293210
20
149.6642372618
30
0.0000000000
10
-276.8618905009
20
149.6563699515
30
0.0000000000
10
-276.8676612755
20
149.6548036400
30
0.0000000000
11
-276.6305418808
21
149.7266849499
31
0.0000000000
11
-276.7129612825
21
149.7003320979
31
0.0000000000
11
-276.7876620681
21
149.6775445260
31
0.0000000000
11
-276.8502872327
21
149.6596262990
31
0.0000000000
11
-276.8676612755
21
149.6548036400
31
0.0000000000
0
SPLINE
5
311
100
AcDbEntity
8
0
100
AcDbSpline
62
9
6
CONTINUOUS
70
0
71
3
72
10
73
6
74
4
42
0.0000001000
43
0.0000001000
44
0.0000000001
12
-0.0708811429
22
-0.0192386565
32
0.0000000000
13
0.0003549073
23
0.0703206776
33
0.0000000000
40
0.0000000000
40
0.0000000000
40
0.0000000000
40
0.0000000000
40
0.4410278012
40
0.8596420268
40
1.0000000000
40
1.0000000000
40
1.0000000000
40
1.0000000000
10
-276.8676612755
20
149.6548036400
30
0.0000000000
10
-276.8780814603
20
149.6519753792
30
0.0000000000
10
-276.8978552931
20
149.6469410648
30
0.0000000000
10
-276.9146506033
20
149.6448273055
30
0.0000000000
10
-276.9357036042
20
149.6397524329
30
0.0000000000
10
-276.9356869995
20
149.6430424555
30
0.0000000000
11
-276.8676612755
21
149.6548036400
31
0.0000000000
11
-276.8969664212
21
149.6476566024
31
0.0000000000
11
-276.9258662690
21
149.6420555549
31
0.0000000000
11
-276.9356869995
21
149.6430424555
31
0.0000000000
0
SPLINE
5
312
100
AcDbEntity
8
0
100
AcDbSpline
62
9
6
CONTINUOUS
70
0
71
3
72
12
73
8
74
6
42
0.0000001000
43
0.0000001000
44
0.0000000001
12
-1.1394044272
22
-0.1385317330
32
0.0000000000
13
-1.0911181987
23
-0.3562226359
33
0.0000000000
40
0.0000000000
40
0.0000000000
40
0.0000000000
40
0.0000000000
40
0.1736997740
40
0.3668447149
40
0.5660151312
40
0.7736035241
40
1.0000000000
40
1.0000000000
40
1.0000000000
40
1.0000000000
10
-275.5116764454
20
149.9748618690
30
0.0000000000
10
-275.5776478759
20
149.9668408921
30
0.0000000000
10
-275.7167005596
20
149.9475450025
30
0.0000000000
10
-275.9300515316
20
149.9101357706
30
0.0000000000
10
-276.1545050513
20
149.8618856556
30
0.0000000000
10
-276.3891987396
20
149.8016293933
30
0.0000000000
10
-276.5482001091
20
149.7535674664
30
0.0000000000
10
-276.6305418808
20
149.7266849499
30
0.0000000000
11
-275.5116764454
21
149.9748618690
31
0.0000000000
11
-275.7091558728
21
149.9474580888
31
0.0000000000
11
-275.9275154108
21
149.9091706682
31
0.0000000000
11
-276.1510164746
21
149.8611253539
31
0.0000000000
11
-276.3818003321
21
149.8018725517
31
0.0000000000
11
-276.6305418808
21
149.7266849499
31
0.0000000000
0
SPLINE
5
313
100
AcDbEntity
8
0
100
AcDbSpline
62
9
6
CONTINUOUS
70
0
71
3
72
14
73
10
74
8
42
0.0000001000
43
0.0000001000
44
0.0000000001
12
-0.0001275271
22
0.1030417226
32
0.0000000000
13
-0.1022885817
23
-0.0124361939
33
0.0000000000
40
0.0000000000
40
0.0000000000
40
0.0000000000
40
0.0000000000
40
0.0475695937
40
0.1569696759
40
0.3115077117
40
0.4870765621
40
0.6663493256
40
0.8385288923
40
1.0000000000
40
1.0000000000
40
1.0000000000
40
1.0000000000
10
-275.4099614058
20
149.9748618690
30
0.0000000000
10
-275.4099634280
20
149.9764957533
30
0.0000000000
10
-275.4167619664
20
149.9789446967
30
0.0000000000
10
-275.4261405172
20
149.9796595095
30
0.0000000000
10
-275.4418281835
20
149.9801785409
30
0.0000000000
10
-275.4591240340
20
149.9795549377
30
0.0000000000
10
-275.4772453677
20
149.9783988887
30
0.0000000000
10
-275.4947779673
20
149.9768030591
30
0.0000000000
10
-275.5061708952
20
149.9755312310
30
0.0000000000
10
-275.5116764454
20
149.9748618690
30
0.0000000000
11
-275.4099614058
21
149.9748618690
31
0.0000000000
11
-275.4138936654
21
149.9777882273
31
0.0000000000
11
-275.4250348872
21
149.9795054287
31
0.0000000000
11
-275.4409517005
21
149.9799796989
31
0.0000000000
11
-275.4590355973
21
149.9794752698
31
0.0000000000
11
-275.4774707236
21
149.9782994108
31
0.0000000000
11
-275.4951408524
21
149.9767074911
31
0.0000000000
11
-275.5116764454
21
149.9748618690
31
0.0000000000
0
SPLINE
5
314
100
AcDbEntity
8
0
100
AcDbSpline
62
9
6
CONTINUOUS
70
0
71
3
72
12
73
8
74
6
42
0.0000001000
43
0.0000001000
44
0.0000000001
12
-0.0000000955
22
0.2481769191
32
0.0000000000
13
0.0000000361
23
0.2481769191
33
0.0000000000
40
0.0000000000
40
0.0000000000
40
0.0000000000
40
0.0000000000
40
0.3245288541
40
0.5733868835
40
0.7612770168
40
0.8998605882
40
1.0000000000
40
1.0000000000
40
1.0000000000
40
1.0000000000
10
-275.4099614058
20
149.7266849499
30
0.0000000000
10
-275.4099614162
20
149.7535318069
30
0.0000000000
10
-275.4099613968
20
149.8009656037
30
0.0000000000
10
-275.4099614075
20
149.8639427319
30
0.0000000000
10
-275.4099614068
20
149.9115374177
30
0.0000000000
10
-275.4099614045
20
149.9468292606
30
0.0000000000
10
-275.4099614070
20
149.9665777721
30
0.0000000000
10
-275.4099614058
20
149.9748618690
30
0.0000000000
11
-275.4099614058
21
149.7266849499
31
0.0000000000
11
-275.4099614030
21
149.8072255211
31
0.0000000000
11
-275.4099614062
21
149.8689863401
31
0.0000000000
11
-275.4099614063
21
149.9156163345
31
0.0000000000
11
-275.4099614056
21
149.9500095783
31
0.0000000000
11
-275.4099614058
21
149.9748618690
31
0.0000000000
0
SPLINE
5
315
100
AcDbEntity
8
0
100
AcDbSpline
62
9
6
CONTINUOUS
70
0
71
3
72
8
73
4
74
2
42
0.0000001000
43
0.0000001000
44
0.0000000001
12
-0.0259648526
22
-0.0014341561
32
0.0000000000
13
-0.0260031346
23
-0.0007031723
33
0.0000000000
40
0.0000000000
40
0.0000000000
40
0.0000000000
40
0.0000000000
40
1.0000000000
40
1.0000000000
40
1.0000000000
40
1.0000000000
10
-275.1048162871
20
149.6430424555
30
0.0000000000
10
-275.1134712379
20
149.6425644034
30
0.0000000000
10
-275.1221347939
20
149.6422057730
30
0.0000000000
10
-275.1308025055
20
149.6419713823
30
0.0000000000
11
-275.1048162871
21
149.6430424555
31
0.0000000000
11
-275.1308025055
21
149.6419713823
31
0.0000000000
0
SPLINE
5
316
100
AcDbEntity
8
0
100
AcDbSpline
62
9
6
CONTINUOUS
70
0
71
3
72
10
73
6
74
4
42
0.0000001000
43
0.0000001000
44
0.0000000001
12
-0.1456857917
22
-0.0039396099
32
0.0000000000
13
-0.1438195669
23
0.0241745223
33
0.0000000000
40
0.0000000000
40
0.0000000000
40
0.0000000000
40
0.0000000000
40
0.3486430920
40
0.8460685313
40
1.0000000000
40
1.0000000000
40
1.0000000000
40
1.0000000000
10
-275.1308025055
20
149.6419713823
30
0.0000000000
10
-275.1477332871
20
149.6415135430
30
0.0000000000
10
-275.1888584851
20
149.6415528323
30
0.0000000000
10
-275.2373454306
20
149.6451487073
30
0.0000000000
10
-275.2686887406
20
149.6497375987
30
0.0000000000
10
-275.2760681930
20
149.6509780053
30
0.0000000000
11
-275.1308025055
21
149.6419713823
31
0.0000000000
11
-275.1816092545
21
149.6420558598
31
0.0000000000
11
-275.2538610209
21
149.6476941416
31
0.0000000000
11
-275.2760681930
21
149.6509780053
31
0.0000000000
0
SPLINE
5
317
100
AcDbEntity
8
0
100
AcDbSpline
62
9
6
CONTINUOUS
70
0
71
3
72
8
73
4
74
2
42
0.0000001000
43
0.0000001000
44
0.0000000001
12
-0.0237336029
22
0.0039893634
32
0.0000000000
13
-0.0234891810
23
0.0051773087
33
0.0000000000
40
0.0000000000
40
0.0000000000
40
0.0000000000
40
0.0000000000
40
1.0000000000
40
1.0000000000
40
1.0000000000
40
1.0000000000
10
-275.2760681930
20
149.6509780053
30
0.0000000000
10
-275.2839793939
20
149.6523077931
30
0.0000000000
10
-275.2918587205
20
149.6538168040
30
0.0000000000
10
-275.2996884475
20
149.6555425736
30
0.0000000000
11
-275.2760681930
21
149.6509780053
31
0.0000000000
11
-275.2996884475
21
149.6555425736
31
0.0000000000
0
SPLINE
5
318
100
AcDbEntity
8
0
100
AcDbSpline
62
9
6
CONTINUOUS
70
0
71
3
72
8
73
4
74
2
42
0.0000001000
43
0.0000001000
44
0.0000000001
12
-0.0172327122
22
0.0037983049
32
0.0000000000
13
-0.0170515376
23
0.0045427719
33
0.0000000000
40
0.0000000000
40
0.0000000000
40
0.0000000000
40
0.0000000000
40
1.0000000000
40
1.0000000000
40
1.0000000000
40
1.0000000000
10
-275.2996884475
20
149.6555425736
30
0.0000000000
10
-275.3054326848
20
149.6568086752
30
0.0000000000
10
-275.3111502261
20
149.6581914438
30
0.0000000000
10
-275.3168340719
20
149.6597057012
30
0.0000000000
11
-275.2996884475
21
149.6555425736
31
0.0000000000
11
-275.3168340719
21
149.6597057012
31
0.0000000000
0
SPLINE
5
319
100
AcDbEntity
8
0
100
AcDbSpline
62
9
6
CONTINUOUS
70
0
71
3
72
10
73
6
74
4
42
0.0000001000
43
0.0000001000
44
0.0000000001
12
-0.1168063314
22
0.0311188667
32
0.0000000000
13
0.0000729979
23
0.1208295183
33
0.0000000000
40
0.0000000000
40
0.0000000000
40
0.0000000000
40
0.0000000000
40
0.4363905819
40
0.7617294484
40
1.0000000000
40
1.0000000000
40
1.0000000000
40
1.0000000000
10
-275.3168340719
20
149.6597057012
30
0.0000000000
10
-275.3338251329
20
149.6642323613
30
0.0000000000
10
-275.3629578114
20
149.6741847688
30
0.0000000000
10
-275.3981634838
20
149.6949815919
30
0.0000000000
10
-275.4099672036
20
149.7170882446
30
0.0000000000
10
-275.4099614058
20
149.7266849499
30
0.0000000000
11
-275.3168340719
21
149.6597057012
31
0.0000000000
11
-275.3664450737
21
149.6775685845
31
0.0000000000
11
-275.3985502803
21
149.7002528237
31
0.0000000000
11
-275.4099614058
21
149.7266849499
31
0.0000000000
0
SPLINE
5
31A
100
AcDbEntity
8
0
100
AcDbSpline
62
9
6
CONTINUOUS
70
0
71
3
72
10
73
6
74
4
42
0.0000001000
43
0.0000001000
44
0.0000000001
12
-0.6096363370
22
0.0336737673
32
0.0000000000
13
-0.6096363343
23
-0.0336738160
33
0.0000000000
40
0.0000000000
40
0.0000000000
40
0.0000000000
40
0.0000000000
40
0.3328661760
40
0.6669943864
40
1.0000000000
40
1.0000000000
40
1.0000000000
40
1.0000000000
10
-274.4945260496
20
149.6430424555
30
0.0000000000
10
-274.5621684884
20
149.6467787415
30
0.0000000000
10
-274.6978610360
20
149.6517763298
30
0.0000000000
10
-274.9014245270
20
149.6517778909
30
0.0000000000
10
-275.0371455132
20
149.6467803121
30
0.0000000000
10
-275.1048162871
20
149.6430424555
30
0.0000000000
11
-274.4945260496
21
149.6430424555
31
0.0000000000
11
-274.6976250002
21
149.6505224596
31
0.0000000000
11
-274.9016322008
21
149.6505240284
31
0.0000000000
11
-275.1048162871
21
149.6430424555
31
0.0000000000
0
SPLINE
5
31B
100
AcDbEntity
8
0
100
AcDbSpline
62
9
6
CONTINUOUS
70
0
71
3
72
11
73
7
74
5
42
0.0000001000
43
0.0000001000
44
0.0000000001
12
-0.0000256699
22
-0.1384612527
32
0.0000000000
13
-0.1352723955
23
-0.0298191917
33
0.0000000000
40
0.0000000000
40
0.0000000000
40
0.0000000000
40
0.0000000000
40
0.2091032557
40
0.4931166190
40
0.8736295673
40
1.0000000000
40
1.0000000000
40
1.0000000000
40
1.0000000000
10
-274.1893809309
20
149.7266849499
30
0.0000000000
10
-274.1893827201
20
149.7170340503
30
0.0000000000
10
-274.2012718850
20
149.6948852288
30
0.0000000000
10
-274.2365367936
20
149.6741250411
30
0.0000000000
10
-274.2712046705
20
149.6622974830
30
0.0000000000
10
-274.2939551617
20
149.6567984497
30
0.0000000000
10
-274.2996533054
20
149.6555423617
30
0.0000000000
11
-274.1893809309
21
149.7266849499
31
0.0000000000
11
-274.2009071628
21
149.7001254926
31
0.0000000000
11
-274.2330624158
21
149.6774873991
31
0.0000000000
11
-274.2826444346
21
149.6596697208
31
0.0000000000
11
-274.2996533054
21
149.6555423617
31
0.0000000000
0
SPLINE
5
31C
100
AcDbEntity
8
0
100
AcDbSpline
62
9
6
CONTINUOUS
70
0
71
3
72
8
73
4
74
2
42
0.0000001000
43
0.0000001000
44
0.0000000001
12
-0.0042859530
22
-0.0009447874
32
0.0000000000
13
-0.0042955310
23
-0.0009021475
33
0.0000000000
40
0.0000000000
40
0.0000000000
40
0.0000000000
40
0.0000000000
40
1.0000000000
40
1.0000000000
40
1.0000000000
40
1.0000000000
10
-274.2996533054
20
149.6555423617
30
0.0000000000
10
-274.3010819564
20
149.6552274325
30
0.0000000000
10
-274.3025122574
20
149.6549197242
30
0.0000000000
10
-274.3039441011
20
149.6546190084
30
0.0000000000
11
-274.2996533054
21
149.6555423617
31
0.0000000000
11
-274.3039441011
21
149.6546190084
31
0.0000000000
0
SPLINE
5
31D
100
AcDbEntity
8
0
100
AcDbSpline
62
9
6
CONTINUOUS
70
0
71
3
72
8
73
4
74
2
42
0.0000001000
43
0.0000001000
44
0.0000000001
12
-0.0193422573
22
-0.0040622611
32
0.0000000000
13
-0.0195005064
23
-0.0032741333
33
0.0000000000
40
0.0000000000
40
0.0000000000
40
0.0000000000
40
0.0000000000
40
1.0000000000
40
1.0000000000
40
1.0000000000
40
1.0000000000
10
-274.3039441011
20
149.6546190084
30
0.0000000000
10
-274.3103915202
20
149.6532649214
30
0.0000000000
10
-274.3168702172
20
149.6520526134
30
0.0000000000
10
-274.3233703860
20
149.6509612356
30
0.0000000000
11
-274.3039441011
21
149.6546190084
31
0.0000000000
11
-274.3233703860
21
149.6509612356
31
0.0000000000
0
SPLINE
5
31E
100
AcDbEntity
8
0
100
AcDbSpline
62
9
6
CONTINUOUS
70
0
71
3
72
10
73
6
74
4
42
0.0000001000
43
0.0000001000
44
0.0000000001
12
-0.1436554342
22
-0.0241197344
32
0.0000000000
13
-0.1455167566
23
0.0039235326
33
0.0000000000
40
0.0000000000
40
0.0000000000
40
0.0000000000
40
0.0000000000
40
0.1538736103
40
0.6506453984
40
1.0000000000
40
1.0000000000
40
1.0000000000
40
1.0000000000
10
-274.3233703860
20
149.6509612356
30
0.0000000000
10
-274.3307386461
20
149.6497241054
30
0.0000000000
10
-274.3620115568
20
149.6451500202
30
0.0000000000
10
-274.4104416661
20
149.6415555041
30
0.0000000000
10
-274.4515218436
20
149.6415129636
30
0.0000000000
10
-274.4684674931
20
149.6419698650
30
0.0000000000
11
-274.3233703860
21
149.6509612356
31
0.0000000000
11
-274.3455436524
21
149.6476856402
31
0.0000000000
11
-274.4176163195
21
149.6420593276
31
0.0000000000
11
-274.4684674931
21
149.6419698650
31
0.0000000000
0
SPLINE
5
31F
100
AcDbEntity
8
0
100
AcDbSpline
62
9
6
CONTINUOUS
70
0
71
3
72
8
73
4
74
2
42
0.0000001000
43
0.0000001000
44
0.0000000001
12
-0.0260755307
22
0.0007030681
32
0.0000000000
13
-0.0260370964
23
0.0014371509
33
0.0000000000
40
0.0000000000
40
0.0000000000
40
0.0000000000
40
0.0000000000
40
1.0000000000
40
1.0000000000
40
1.0000000000
40
1.0000000000
10
-274.4684674931
20
149.6419698650
30
0.0000000000
10
-274.4771593367
20
149.6422042210
30
0.0000000000
10
-274.4858470175
20
149.6425634052
30
0.0000000000
10
-274.4945260496
20
149.6430424555
30
0.0000000000
11
-274.4684674931
21
149.6419698650
31
0.0000000000
11
-274.4945260496
21
149.6430424555
31
0.0000000000
0
SPLINE
5
320
100
AcDbEntity
8
0
100
AcDbSpline
62
9
6
CONTINUOUS
70
0
71
3
72
12
73
8
74
6
42
0.0000001000
43
0.0000001000
44
0.0000000001
12
0.0000000402
22
-0.2481769191
32
0.0000000000
13
-0.0000000830
23
-0.2481769191
33
0.0000000000
40
0.0000000000
40
0.0000000000
40
0.0000000000
40
0.0000000000
40
0.1005484461
40
0.2392339420
40
0.4272491127
40
0.6764381929
40
1.0000000000
40
1.0000000000
40
1.0000000000
40
1.0000000000
10
-274.1893809309
20
149.9748618690
30
0.0000000000
10
-274.1893809295
20
149.9665439345
30
0.0000000000
10
-274.1893809326
20
149.9467531536
30
0.0000000000
10
-274.1893809278
20
149.9114086974
30
0.0000000000
10
-274.1893809318
20
149.8637678497
30
0.0000000000
10
-274.1893809361
20
149.8008329909
30
0.0000000000
10
-274.1893809219
20
149.7534518074
30
0.0000000000
10
-274.1893809309
20
149.7266849499
30
0.0000000000
11
-274.1893809309
21
149.9748618690
31
0.0000000000
11
-274.1893809311
21
149.9499080655
31
0.0000000000
11
-274.1893809294
21
149.9154895263
31
0.0000000000
11
-274.1893809313
21
149.8688285005
31
0.0000000000
11
-274.1893809324
21
149.8069855223
31
0.0000000000
11
-274.1893809309
21
149.7266849499
31
0.0000000000
0
SPLINE
5
321
100
AcDbEntity
8
0
100
AcDbSpline
62
9
6
CONTINUOUS
70
0
71
3
72
14
73
10
74
8
42
0.0000001000
43
0.0000001000
44
0.0000000001
12
-0.1022860762
22
0.0124369244
32
0.0000000000
13
0.0002474778
23
-0.1030391053
33
0.0000000000
40
0.0000000000
40
0.0000000000
40
0.0000000000
40
0.0000000000
40
0.1614060718
40
0.3347621391
40
0.5142394507
40
0.6893348921
40
0.8429827303
40
0.9520038950
40
1.0000000000
40
1.0000000000
40
1.0000000000
40
1.0000000000
10
-274.0876658913
20
149.9748618690
30
0.0000000000
10
-274.0931690892
20
149.9755310007
30
0.0000000000
10
-274.1045997524
20
149.9768070518
30
0.0000000000
10
-274.1221767425
20
149.9784056807
30
0.0000000000
10
-274.1403300411
20
149.9795607697
30
0.0000000000
10
-274.1575833359
20
149.9801763659
30
0.0000000000
10
-274.1732163335
20
149.9796624638
30
0.0000000000
10
-274.1825493773
20
149.9789372145
30
0.0000000000
10
-274.1893848902
20
149.9765103609
30
0.0000000000
10
-274.1893809309
20
149.9748618690
30
0.0000000000
11
-274.0876658913
21
149.9748618690
31
0.0000000000
11
-274.1041944305
21
149.9767067847
31
0.0000000000
11
-274.1219850036
21
149.9783082263
31
0.0000000000
11
-274.1404409747
21
149.9794816274
31
0.0000000000
11
-274.1584758224
21
149.9799799024
31
0.0000000000
11
-274.1743005024
21
149.9795057670
31
0.0000000000
11
-274.1854039465
21
149.9778015062
31
0.0000000000
11
-274.1893809309
21
149.9748618690
31
0.0000000000
0
SPLINE
5
322
100
AcDbEntity
8
0
100
AcDbSpline
62
9
6
CONTINUOUS
70
0
71
3
72
10
73
6
74
4
42
0.0000001000
43
0.0000001000
44
0.0000000001
12
-0.0000000011
22
-0.0084211513
32
0.0000000000
13
-0.0000000040
23
-0.0084211513
33
0.0000000000
40
0.0000000000
40
0.0000000000
40
0.0000000000
40
0.0000000000
40
0.1109954972
40
0.4447521893
40
1.0000000000
40
1.0000000000
40
1.0000000000
40
1.0000000000
10
-272.6636553372
20
149.6514636068
30
0.0000000000
10
-272.6636553373
20
149.6511520368
30
0.0000000000
10
-272.6636553375
20
149.6499035950
30
0.0000000000
10
-272.6636553380
20
149.6470965446
30
0.0000000000
10
-272.6636553365
20
149.6446010641
30
0.0000000000
10
-272.6636553372
20
149.6430424555
30
0.0000000000
11
-272.6636553372
21
149.6514636068
31
0.0000000000
11
-272.6636553374
21
149.6505288969
31
0.0000000000
11
-272.6636553376
21
149.6477182813
31
0.0000000000
11
-272.6636553372
21
149.6430424555
31
0.0000000000
0
SPLINE
5
323
100
AcDbEntity
8
0
100
AcDbSpline
62
9
6
CONTINUOUS
70
0
71
3
72
12
73
8
74
6
42
0.0000001000
43
0.0000001000
44
0.0000000001
12
-1.0911187217
22
0.3562227291
32
0.0000000000
13
-1.1394049461
23
0.1385318241
33
0.0000000000
40
0.0000000000
40
0.0000000000
40
0.0000000000
40
0.0000000000
40
0.2220767843
40
0.4263822369
40
0.6251590283
40
0.8222368415
40
1.0000000000
40
1.0000000000
40
1.0000000000
40
1.0000000000
10
-272.9688004560
20
149.7266849499
30
0.0000000000
10
-273.0495711683
20
149.7530545493
30
0.0000000000
10
-273.2057650139
20
149.8003394943
30
0.0000000000
10
-273.4374237623
20
149.8601031160
30
0.0000000000
10
-273.6618994335
20
149.9087145769
30
0.0000000000
10
-273.8780737559
20
149.9468803888
30
0.0000000000
10
-274.0201511506
20
149.9666532508
30
0.0000000000
10
-274.0876658913
20
149.9748618690
30
0.0000000000
11
-272.9688004560
21
149.7266849499
31
0.0000000000
11
-273.2127650547
21
149.8005405405
31
0.0000000000
11
-273.4398314445
21
149.8591197583
31
0.0000000000
11
-273.6628178649
21
149.9074086433
31
0.0000000000
11
-273.8855778095
21
149.9467371152
31
0.0000000000
11
-274.0876658913
21
149.9748618690
31
0.0000000000
0
SPLINE
5
324
100
AcDbEntity
8
0
100
AcDbSpline
62
9
6
CONTINUOUS
70
0
71
3
72
10
73
6
74
4
42
0.0000001000
43
0.0000001000
44
0.0000000001
12
0.0000305523
22
-0.0705416368
32
0.0000000000
13
-0.0710873922
23
0.0193144344
33
0.0000000000
40
0.0000000000
40
0.0000000000
40
0.0000000000
40
0.0000000000
40
0.1406318942
40
0.5591741542
40
1.0000000000
40
1.0000000000
40
1.0000000000
40
1.0000000000
10
-272.6636553372
20
149.6430424555
30
0.0000000000
10
-272.6636539050
20
149.6397356541
30
0.0000000000
10
-272.6847487999
20
149.6448552872
30
0.0000000000
10
-272.7016232058
20
149.6469672396
30
0.0000000000
10
-272.7214514497
20
149.6520195320
30
0.0000000000
10
-272.7318971696
20
149.6548576326
30
0.0000000000
11
-272.6636553372
21
149.6430424555
31
0.0000000000
11
-272.6735271425
21
149.6420616929
31
0.0000000000
11
-272.7025107443
21
149.6476880863
31
0.0000000000
11
-272.7318971696
21
149.6548576326
31
0.0000000000
0
SPLINE
5
325
100
AcDbEntity
8
0
100
AcDbSpline
62
9
6
CONTINUOUS
70
0
71
3
72
11
73
7
74
5
42
0.0000001000
43
0.0000001000
44
0.0000000001
12
-0.2486304027
22
0.0675528451
32
0.0000000000
13
-0.2345404016
23
0.0765660645
33
0.0000000000
40
0.0000000000
40
0.0000000000
40
0.0000000000
40
0.0000000000
40
0.0697732047
40
0.3340318270
40
0.6507837916
40
1.0000000000
40
1.0000000000
40
1.0000000000
40
1.0000000000
10
-272.7318971696
20
149.6548576326
30
0.0000000000
10
-272.7376797496
20
149.6564287587
30
0.0000000000
10
-272.7657659968
20
149.6643119320
30
0.0000000000
10
-272.8157035664
20
149.6784568352
30
0.0000000000
10
-272.8894982008
20
149.7011494510
30
0.0000000000
10
-272.9414986860
20
149.7177722463
30
0.0000000000
10
-272.9688004560
20
149.7266849499
30
0.0000000000
11
-272.7318971696
21
149.6548576326
31
0.0000000000
11
-272.7493060742
21
149.6596948838
31
0.0000000000
11
-272.8119874401
21
149.6776355366
31
0.0000000000
11
-272.8867349259
21
149.7004427106
31
0.0000000000
11
-272.9688004560
21
149.7266849499
31
0.0000000000
0
SPLINE
5
326
100
AcDbEntity
8
0
100
AcDbSpline
62
9
6
CONTINUOUS
70
0
71
3
72
9
73
5
74
3
42
0.0000001000
43
0.0000001000
44
0.0000000001
12
-0.0385583277
22
0.0148674323
32
0.0000000000
13
-0.0415816152
23
-0.0019562143
33
0.0000000000
40
0.0000000000
40
0.0000000000
40
0.0000000000
40
0.0000000000
40
0.9326375344
40
1.0000000000
40
1.0000000000
40
1.0000000000
40
1.0000000000
10
-272.6636584083
20
149.6430345148
30
0.0000000000
10
-272.6756453896
20
149.6476564900
30
0.0000000000
10
-272.6896130396
20
149.6501277050
30
0.0000000000
10
-272.7034851093
20
149.6496716078
30
0.0000000000
10
-272.7044187894
20
149.6496276827
30
0.0000000000
11
-272.6636584083
21
149.6430345148
31
0.0000000000
11
-272.7016157620
21
149.6497197722
31
0.0000000000
11
-272.7044187894
21
149.6496276827
31
0.0000000000
0
SPLINE
5
327
100
AcDbEntity
8
0
100
AcDbSpline
62
9
6
CONTINUOUS
70
0
71
3
72
11
73
7
74
5
42
0.0000001000
43
0.0000001000
44
0.0000000001
12
-0.1364282044
22
0.0140105337
32
0.0000000000
13
-0.0395342535
23
-0.1327328489
33
0.0000000000
40
0.0000000000
40
0.0000000000
40
0.0000000000
40
0.0000000000
40
0.3028818956
40
0.6052345461
40
0.9066924769
40
1.0000000000
40
1.0000000000
40
1.0000000000
40
1.0000000000
10
-274.1893809323
20
149.9748618552
30
0.0000000000
10
-274.2031548100
20
149.9762763676
30
0.0000000000
10
-274.2316147296
20
149.9733037684
30
0.0000000000
10
-274.2685663729
20
149.9520499112
30
0.0000000000
10
-274.2879619279
20
149.9256148808
30
0.0000000000
10
-274.2942965744
20
149.9084800256
30
0.0000000000
10
-274.2955261888
20
149.9043517011
30
0.0000000000
11
-274.1893809323
21
149.9748618552
31
0.0000000000
11
-274.2306894588
21
149.9704925744
31
0.0000000000
11
-274.2666449505
21
149.9498367579
31
0.0000000000
11
-274.2910423268
21
149.9164591187
31
0.0000000000
11
-274.2955261888
21
149.9043517011
31
0.0000000000
0
SPLINE
5
328
100
AcDbEntity
8
0
100
AcDbSpline
62
9
6
CONTINUOUS
70
0
71
3
72
8
73
4
74
2
42
0.0000001000
43
0.0000001000
44
0.0000000001
12
-0.0033860998
22
-0.0113685382
32
0.0000000000
13
-0.0020145149
23
-0.0116653788
33
0.0000000000
40
0.0000000000
40
0.0000000000
40
0.0000000000
40
0.0000000000
40
1.0000000000
40
1.0000000000
40
1.0000000000
40
1.0000000000
10
-274.2955261888
20
149.9043517011
30
0.0000000000
10
-274.2966548888
20
149.9005621884
30
0.0000000000
10
-274.2975580640
20
149.8967067029
30
0.0000000000
10
-274.2982295689
20
149.8928182433
30
0.0000000000
11
-274.2955261888
21
149.9043517011
31
0.0000000000
11
-274.2982295689
21
149.8928182433
31
0.0000000000
0
SPLINE
5
329
100
AcDbEntity
8
0
100
AcDbSpline
62
9
6
CONTINUOUS
70
0
71
3
72
8
73
4
74
2
42
0.0000001000
43
0.0000001000
44
0.0000000001
12
-0.0006855855
22
-0.0039699952
32
0.0000000000
13
-0.0005238670
23
-0.0039890075
33
0.0000000000
40
0.0000000000
40
0.0000000000
40
0.0000000000
40
0.0000000000
40
1.0000000000
40
1.0000000000
40
1.0000000000
40
1.0000000000
10
-274.2982295689
20
149.8928182433
30
0.0000000000
10
-274.2984580974
20
149.8914949116
30
0.0000000000
10
-274.2986597940
20
149.8901677608
30
0.0000000000
10
-274.2988344163
20
149.8888380917
30
0.0000000000
11
-274.2982295689
21
149.8928182433
31
0.0000000000
11
-274.2988344163
21
149.8888380917
31
0.0000000000
0
SPLINE
5
32A
100
AcDbEntity
8
0
100
AcDbSpline
62
9
6
CONTINUOUS
70
0
71
3
72
8
73
4
74
2
42
0.0000001000
43
0.0000001000
44
0.0000000001
12
-0.0016657154
22
-0.0126836605
32
0.0000000000
13
-0.0000000018
23
-0.0127109900
33
0.0000000000
40
0.0000000000
40
0.0000000000
40
0.0000000000
40
0.0000000000
40
1.0000000000
40
1.0000000000
40
1.0000000000
40
1.0000000000
10
-274.2988344163
20
149.8888380917
30
0.0000000000
10
-274.2993896547
20
149.8846102048
30
0.0000000000
10
-274.2996711678
20
149.8803568567
30
0.0000000000
10
-274.2996711684
20
149.8761198601
30
0.0000000000
11
-274.2988344163
21
149.8888380917
31
0.0000000000
11
-274.2996711684
21
149.8761198601
31
0.0000000000
0
SPLINE
5
32B
100
AcDbEntity
8
0
100
AcDbSpline
62
9
6
CONTINUOUS
70
0
71
3
72
10
73
6
74
4
42
0.0000001000
43
0.0000001000
44
0.0000000001
12
-0.1210365973
22
0.0119148569
32
0.0000000000
13
-0.0533106822
23
-0.1105467502
33
0.0000000000
40
0.0000000000
40
0.0000000000
40
0.0000000000
40
0.0000000000
40
0.3413955304
40
0.6788235121
40
1.0000000000
40
1.0000000000
40
1.0000000000
40
1.0000000000
10
-274.1893814095
20
149.7266805565
30
0.0000000000
10
-274.2031551939
20
149.7280364494
30
0.0000000000
10
-274.2313963185
20
149.7252351974
30
0.0000000000
10
-274.2679328108
20
149.7052723323
30
0.0000000000
10
-274.2848439299
20
149.6836410981
30
0.0000000000
10
-274.2905513091
20
149.6718060925
30
0.0000000000
11
-274.1893814095
21
149.7266805565
31
0.0000000000
11
-274.2306914767
21
149.7224998150
31
0.0000000000
11
-274.2666492603
21
149.7027210448
31
0.0000000000
11
-274.2905513091
21
149.6718060925
31
0.0000000000
0
SPLINE
5
32C
100
AcDbEntity
8
0
100
AcDbSpline
62
9
6
CONTINUOUS
70
0
71
3
72
10
73
6
74
4
42
0.0000001000
43
0.0000001000
44
0.0000000001
12
0.1210105791
22
0.0119005592
32
0.0000000000
13
0.0533247757
23
-0.1105085263
33
0.0000000000
40
0.0000000000
40
0.0000000000
40
0.0000000000
40
0.0000000000
40
0.3414622253
40
0.6789559621
40
1.0000000000
40
1.0000000000
40
1.0000000000
40
1.0000000000
10
-275.4099613986
20
149.7266848834
30
0.0000000000
10
-275.3961878847
20
149.7280394139
30
0.0000000000
10
-275.3679479207
20
149.7252358736
30
0.0000000000
10
-275.3314209887
20
149.7052752436
30
0.0000000000
10
-275.3145141780
20
149.6836529716
30
0.0000000000
10
-275.3088076442
20
149.6718269371
30
0.0000000000
11
-275.4099613986
21
149.7266848834
31
0.0000000000
11
-275.3686528870
21
149.7225007696
31
0.0000000000
11
-275.3326974049
21
149.7027203345
31
0.0000000000
11
-275.3088076442
21
149.6718269371
31
0.0000000000
0
SPLINE
5
32D
100
AcDbEntity
8
0
100
AcDbSpline
62
9
6
CONTINUOUS
70
0
71
3
72
11
73
7
74
5
42
0.0000001000
43
0.0000001000
44
0.0000000001
12
0.1647257712
22
0.0169074676
32
0.0000000000
13
0.0000024998
23
-0.1655911898
33
0.0000000000
40
0.0000000000
40
0.0000000000
40
0.0000000000
40
0.0000000000
40
0.2508328946
40
0.5012304873
40
0.7508912799
40
1.0000000000
40
1.0000000000
40
1.0000000000
40
1.0000000000
10
-275.4099613957
20
149.9748617715
30
0.0000000000
10
-275.3961885150
20
149.9762754212
30
0.0000000000
10
-275.3677308108
20
149.9733014379
30
0.0000000000
10
-275.3307827320
20
149.9520470110
30
0.0000000000
10
-275.3056171543
20
149.9177452096
30
0.0000000000
10
-275.2996809158
20
149.8898699295
30
0.0000000000
10
-275.2996807082
20
149.8761198597
30
0.0000000000
11
-275.4099613957
21
149.9748617715
31
0.0000000000
11
-275.3686563301
21
149.9704905723
31
0.0000000000
11
-275.3327042396
21
149.9498343325
31
0.0000000000
11
-275.3083091328
21
149.9164575600
31
0.0000000000
11
-275.2996807082
21
149.8761198597
31
0.0000000000
0
SPLINE
5
32E
100
AcDbEntity
8
0
100
AcDbSpline
62
9
6
CONTINUOUS
70
0
71
3
72
9
73
5
74
3
42
0.0000001000
43
0.0000001000
44
0.0000000001
12
0.0385822683
22
0.0148726601
32
0.0000000000
13
0.0416051680
23
-0.0019714101
33
0.0000000000
40
0.0000000000
40
0.0000000000
40
0.0000000000
40
0.0000000000
40
0.9320597385
40
1.0000000000
40
1.0000000000
40
1.0000000000
40
1.0000000000
10
-276.9356869976
20
149.6430424505
30
0.0000000000
10
-276.9237000046
20
149.6476631864
30
0.0000000000
10
-276.9097239884
20
149.6501346926
30
0.0000000000
10
-276.8958438926
20
149.6496754324
30
0.0000000000
10
-276.8949016706
20
149.6496307863
30
0.0000000000
11
-276.9356869976
21
149.6430424505
31
0.0000000000
11
-276.8977303701
21
149.6497243088
31
0.0000000000
11
-276.8949016706
21
149.6496307863
31
0.0000000000
0
SPLINE
5
32F
100
AcDbEntity
8
0
100
AcDbSpline
62
7
6
CONTINUOUS
70
0
71
3
72
16
73
12
74
10
42
0.0000001000
43
0.0000001000
44
0.0000000001
12
-0.0289744044
22
0.2588793067
32
0.0000000000
13
-0.2571086795
23
-0.0312684163
33
0.0000000000
40
0.0000000000
40
0.0000000000
40
0.0000000000
40
0.0000000000
40
0.0950980898
40
0.2223386279
40
0.3380988178
40
0.4476222810
40
0.5468622451
40
0.6466093114
40
0.7654231273
40
0.9093720201
40
1.0000000000
40
1.0000000000
40
1.0000000000
40
1.0000000000
10
-60.3003097372
20
149.8873269531
30
0.0000000000
10
-60.3012282074
20
149.8955332623
30
0.0000000000
10
-60.3057059711
20
149.9145301989
30
0.0000000000
10
-60.3204257789
20
149.9402945704
30
0.0000000000
10
-60.3431476852
20
149.9611942138
30
0.0000000000
10
-60.3685164360
20
149.9738557036
30
0.0000000000
10
-60.3946613594
20
149.9797778360
30
0.0000000000
10
-60.4220998940
20
149.9814868256
30
0.0000000000
10
-60.4534055246
20
149.9808103844
30
0.0000000000
10
-60.4838379320
20
149.9785252272
30
0.0000000000
10
-60.5039736303
20
149.9763350440
30
0.0000000000
10
-60.5117407104
20
149.9753904462
30
0.0000000000
11
-60.3003097372
21
149.8873269531
31
0.0000000000
11
-60.3060103421
21
149.9114081534
31
0.0000000000
11
-60.3223192729
21
149.9400422391
31
0.0000000000
11
-60.3443656167
21
149.9603582486
31
0.0000000000
11
-60.3696980217
21
149.9731180938
31
0.0000000000
11
-60.3946972337
21
149.9790841834
31
0.0000000000
11
-60.4204545710
21
149.9810545477
31
0.0000000000
11
-60.4512218777
21
149.9806101344
31
0.0000000000
11
-60.4884052105
21
149.9779268813
31
0.0000000000
11
-60.5117407104
21
149.9753904462
31
0.0000000000
0
SPLINE
5
330
100
AcDbEntity
8
0
100
AcDbSpline
62
7
6
CONTINUOUS
70
0
71
3
72
17
73
13
74
11
42
0.0000001000
43
0.0000001000
44
0.0000000001
12
-0.2409615793
22
-0.0786737289
32
0.0000000000
13
-0.2508541122
23
-0.0616341786
33
0.0000000000
40
0.0000000000
40
0.0000000000
40
0.0000000000
40
0.0000000000
40
0.1257174119
40
0.2559316030
40
0.3801033766
40
0.4973284206
40
0.6067933816
40
0.7076507114
40
0.7992778858
40
0.8810031933
40
0.9522887015
40
1.0000000000
40
1.0000000000
40
1.0000000000
40
1.0000000000
10
-61.6307056112
20
149.7271864636
30
0.0000000000
10
-61.6408032999
20
149.7238895778
30
0.0000000000
10
-61.6613755864
20
149.7172260547
30
0.0000000000
10
-61.6919753900
20
149.7074739449
30
0.0000000000
10
-61.7219380314
20
149.6980861786
30
0.0000000000
10
-61.7502727520
20
149.6893700755
30
0.0000000000
10
-61.7767717751
20
149.6813796262
30
0.0000000000
10
-61.8012397642
20
149.6741745659
30
0.0000000000
10
-61.8235318867
20
149.6677885485
30
0.0000000000
10
-61.8433846505
20
149.6622589227
30
0.0000000000
10
-61.8599499670
20
149.6578667585
30
0.0000000000
10
-61.8693749690
20
149.6554195738
30
0.0000000000
10
-61.8733644942
20
149.6544393582
30
0.0000000000
11
-61.6307056112
21
149.7271864636
31
0.0000000000
11
-61.6610216560
21
149.7173665934
31
0.0000000000
11
-61.6924701697
21
149.7073451873
31
0.0000000000
11
-61.7225063443
21
149.6979375375
31
0.0000000000
11
-61.7509081572
21
149.6892044080
31
0.0000000000
11
-61.7774756665
21
149.6812000102
31
0.0000000000
11
-61.8020015856
21
149.6739845994
31
0.0000000000
11
-61.8243298808
21
149.6675911450
31
0.0000000000
11
-61.8442919643
21
149.6620544421
31
0.0000000000
11
-61.8617535326
21
149.6574071396
31
0.0000000000
11
-61.8733644942
21
149.6544393582
31
0.0000000000
0
SPLINE
5
331
100
AcDbEntity
8
0
100
AcDbSpline
62
7
6
CONTINUOUS
70
0
71
3
72
11
73
7
74
5
42
0.0000001000
43
0.0000001000
44
0.0000000001
12
-0.0254898087
22
-0.0062627772
32
0.0000000000
13
-0.0387715112
23
-0.0062176843
33
0.0000000000
40
0.0000000000
40
0.0000000000
40
0.0000000000
40
0.0000000000
40
0.1248469644
40
0.5993276583
40
0.9394943737
40
1.0000000000
40
1.0000000000
40
1.0000000000
40
1.0000000000
10
-61.8733644942
20
149.6544393582
30
0.0000000000
10
-61.8744252692
20
149.6541787287
30
0.0000000000
10
-61.8795889952
20
149.6529279072
30
0.0000000000
10
-61.8884076318
20
149.6509531869
30
0.0000000000
10
-61.8929007699
20
149.6497123304
30
0.0000000000
10
-61.8987463650
20
149.6487854876
30
0.0000000000
10
-61.8995283299
20
149.6486600860
30
0.0000000000
11
-61.8733644942
21
149.6544393582
31
0.0000000000
11
-61.8765966423
21
149.6536572208
31
0.0000000000
11
-61.8884931914
21
149.6508599060
31
0.0000000000
11
-61.8970672688
21
149.6490572324
31
0.0000000000
11
-61.8995283299
21
149.6486600860
31
0.0000000000
0
SPLINE
5
332
100
AcDbEntity
8
0
100
AcDbSpline
62
7
6
CONTINUOUS
70
0
71
3
72
10
73
6
74
4
42
0.0000001000
43
0.0000001000
44
0.0000000001
12
-1.1394054503
22
-0.1385357645
32
0.0000000000
13
-1.0911165306
23
-0.3562186596
33
0.0000000000
40
0.0000000000
40
0.0000000000
40
0.0000000000
40
0.0000000000
40
0.3242326341
40
0.6737101514
40
1.0000000000
40
1.0000000000
40
1.0000000000
40
1.0000000000
10
-60.5117405080
20
149.9753887765
30
0.0000000000
10
-60.6348846515
20
149.9604161712
30
0.0000000000
10
-60.8898536173
20
149.9212217882
30
0.0000000000
10
-61.2636322694
20
149.8383920213
30
0.0000000000
10
-61.5120331969
20
149.7659330428
30
0.0000000000
10
-61.6307066128
20
149.7271895320
30
0.0000000000
11
-60.5117405080
21
149.9753887765
31
0.0000000000
11
-60.8795698629
21
149.9188435888
31
0.0000000000
11
-61.2711796451
21
149.8320623772
31
0.0000000000
11
-61.6307066128
21
149.7271895320
31
0.0000000000
0
SPLINE
5
333
100
AcDbEntity
8
0
100
AcDbSpline
62
7
6
CONTINUOUS
70
0
71
3
72
8
73
4
74
2
42
0.0000001000
43
0.0000001000
44
0.0000000001
12
-0.0000045224
22
0.0112105483
32
0.0000000000
13
-0.0012537431
23
0.0111931650
33
0.0000000000
40
0.0000000000
40
0.0000000000
40
0.0000000000
40
0.0000000000
40
1.0000000000
40
1.0000000000
40
1.0000000000
40
1.0000000000
10
-60.2996811585
20
149.8761109455
30
0.0000000000
10
-60.2996826660
20
149.8798477949
30
0.0000000000
10
-60.2998945093
20
149.8835955966
30
0.0000000000
10
-60.3003124237
20
149.8873266517
30
0.0000000000
11
-60.2996811585
21
149.8761109455
31
0.0000000000
11
-60.3003124237
21
149.8873266517
31
0.0000000000
0
SPLINE
5
334
100
AcDbEntity
8
0
100
AcDbSpline
62
7
6
CONTINUOUS
70
0
71
3
72
13
73
9
74
7
42
0.0000001000
43
0.0000001000
44
0.0000000001
12
-0.0186732971
22
0.1667114088
32
0.0000000000
13
-0.1668252168
23
0.0043654261
33
0.0000000000
40
0.0000000000
40
0.0000000000
40
0.0000000000
40
0.0000000000
40
0.1475633507
40
0.3441968187
40
0.5230475999
40
0.6926499719
40
0.8460445029
40
1.0000000000
40
1.0000000000
40
1.0000000000
40
1.0000000000
10
-60.3003124238
20
149.8873266522
30
0.0000000000
10
-60.3012309219
20
149.8955268169
30
0.0000000000
10
-60.3056951642
20
149.9144653097
30
0.0000000000
10
-60.3203345764
20
149.9401445308
30
0.0000000000
10
-60.3429044536
20
149.9610125120
30
0.0000000000
10
-60.3681257944
20
149.9737097130
30
0.0000000000
10
-60.3941359227
20
149.9797030979
30
0.0000000000
10
-60.4112241603
20
149.9808132765
30
0.0000000000
10
-60.4197853801
20
149.9810373036
30
0.0000000000
11
-60.3003124238
21
149.8873266522
31
0.0000000000
11
-60.3060088493
21
149.9113904065
31
0.0000000000
11
-60.3222139152
21
149.9399042771
31
0.0000000000
11
-60.3440998985
21
149.9601747623
31
0.0000000000
11
-60.3693212502
21
149.9729856605
31
0.0000000000
11
-60.3941868345
21
149.9790105623
31
0.0000000000
11
-60.4197853801
21
149.9810373036
31
0.0000000000
0
SPLINE
5
335
100
AcDbEntity
8
0
100
AcDbSpline
62
7
6
CONTINUOUS
70
0
71
3
72
8
73
4
74
2
42
0.0000001000
43
0.0000001000
44
0.0000000001
12
-0.0304850193
22
0.0007977217
32
0.0000000000
13
-0.0304535634
23
-0.0013443544
33
0.0000000000
40
0.0000000000
40
0.0000000000
40
0.0000000000
40
0.0000000000
40
1.0000000000
40
1.0000000000
40
1.0000000000
40
1.0000000000
10
-60.4197853801
20
149.9810373036
30
0.0000000000
10
-60.4299470531
20
149.9813032109
30
0.0000000000
10
-60.4401108486
20
149.9811012798
30
0.0000000000
10
-60.4502620364
20
149.9806531617
30
0.0000000000
11
-60.4197853801
21
149.9810373036
31
0.0000000000
11
-60.4502620364
21
149.9806531617
31
0.0000000000
0
SPLINE
5
336
100
AcDbEntity
8
0
100
AcDbSpline
62
7
6
CONTINUOUS
70
0
71
3
72
9
73
5
74
3
42
0.0000001000
43
0.0000001000
44
0.0000000001
12
-0.0616600254
22
-0.0027219451
32
0.0000000000
13
-0.0612650701
23
-0.0074519145
33
0.0000000000
40
0.0000000000
40
0.0000000000
40
0.0000000000
40
0.0000000000
40
0.5991729697
40
1.0000000000
40
1.0000000000
40
1.0000000000
40
1.0000000000
10
-60.4502620364
20
149.9806531617
30
0.0000000000
10
-60.4625770432
20
149.9801095230
30
0.0000000000
10
-60.4830994168
20
149.9785974959
30
0.0000000000
10
-60.5035551145
20
149.9763858355
30
0.0000000000
10
-60.5117406799
20
149.9753901925
30
0.0000000000
11
-60.4502620364
21
149.9806531617
31
0.0000000000
11
-60.4871460091
21
149.9780464173
31
0.0000000000
11
-60.5117406799
21
149.9753901925
31
0.0000000000
0
SPLINE
5
337
100
AcDbEntity
8
0
100
AcDbSpline
62
7
6
CONTINUOUS
70
0
71
3
72
8
73
4
74
2
42
0.0000001000
43
0.0000001000
44
0.0000000001
12
-0.0121258853
22
-0.0006742997
32
0.0000000000
13
-0.0121403917
23
-0.0004857074
33
0.0000000000
40
0.0000000000
40
0.0000000000
40
0.0000000000
40
0.0000000000
40
1.0000000000
40
1.0000000000
40
1.0000000000
40
1.0000000000
10
-60.1051854790
20
149.6497263889
30
0.0000000000
10
-60.1092274407
20
149.6495016223
30
0.0000000000
10
-60.1132717872
20
149.6493079494
30
0.0000000000
10
-60.1173185845
20
149.6491460469
30
0.0000000000
11
-60.1051854790
21
149.6497263889
31
0.0000000000
11
-60.1173185845
21
149.6491460469
31
0.0000000000
0
SPLINE
5
338
100
AcDbEntity
8
0
100
AcDbSpline
62
7
6
CONTINUOUS
70
0
71
3
72
8
73
4
74
2
42
0.0000001000
43
0.0000001000
44
0.0000000001
12
-0.0226721203
22
-0.0009070561
32
0.0000000000
13
-0.0227246917
23
-0.0002290275
33
0.0000000000
40
0.0000000000
40
0.0000000000
40
0.0000000000
40
0.0000000000
40
1.0000000000
40
1.0000000000
40
1.0000000000
40
1.0000000000
10
-60.1173185845
20
149.6491460469
30
0.0000000000
10
-60.1248759579
20
149.6488436949
30
0.0000000000
10
-60.1324418783
20
149.6486521436
30
0.0000000000
10
-60.1400167756
20
149.6485758011
30
0.0000000000
11
-60.1173185845
21
149.6491460469
31
0.0000000000
11
-60.1400167756
21
149.6485758011
31
0.0000000000
0
SPLINE
5
339
100
AcDbEntity
8
0
100
AcDbSpline
62
7
6
CONTINUOUS
70
0
71
3
72
11
73
7
74
5
42
0.0000001000
43
0.0000001000
44
0.0000000001
12
-0.1625355335
22
-0.0016380908
32
0.0000000000
13
-0.1430045884
23
0.0452983136
33
0.0000000000
40
0.0000000000
40
0.0000000000
40
0.0000000000
40
0.0000000000
40
0.3921400466
40
0.7167710143
40
0.9507098624
40
1.0000000000
40
1.0000000000
40
1.0000000000
40
1.0000000000
10
-60.1400167756
20
149.6485758011
30
0.0000000000
10
-60.1612623394
20
149.6483616807
30
0.0000000000
10
-60.2002250019
20
149.6496268653
30
0.0000000000
10
-60.2505922237
20
149.6549632703
30
0.0000000000
10
-60.2842658000
20
149.6636442950
30
0.0000000000
10
-60.2974344588
20
149.6671040195
30
0.0000000000
10
-60.2997840307
20
149.6678482729
30
0.0000000000
11
-60.1400167756
21
149.6485758011
31
0.0000000000
11
-60.2035986288
21
149.6505715555
31
0.0000000000
11
-60.2558532372
21
149.6571077627
31
0.0000000000
11
-60.2927746319
21
149.6658821108
31
0.0000000000
11
-60.2997840307
21
149.6678482729
31
0.0000000000
0
SPLINE
5
33A
100
AcDbEntity
8
0
100
AcDbSpline
62
7
6
CONTINUOUS
70
0
71
3
72
9
73
5
74
3
42
0.0000001000
43
0.0000001000
44
0.0000000001
12
-0.0148819146
22
0.0047140140
32
0.0000000000
13
-0.0133048910
23
0.0072041476
33
0.0000000000
40
0.0000000000
40
0.0000000000
40
0.0000000000
40
0.0000000000
40
0.8019985287
40
1.0000000000
40
1.0000000000
40
1.0000000000
40
1.0000000000
10
-60.2997840307
20
149.6678482729
30
0.0000000000
10
-60.3037624553
20
149.6691084837
30
0.0000000000
10
-60.3089298680
20
149.6711880379
30
0.0000000000
10
-60.3153680340
20
149.6751080355
30
0.0000000000
10
-60.3162461633
20
149.6755835127
30
0.0000000000
11
-60.2997840307
21
149.6678482729
31
0.0000000000
11
-60.3128683206
21
149.6736278587
31
0.0000000000
11
-60.3162461633
21
149.6755835127
31
0.0000000000
0
SPLINE
5
33B
100
AcDbEntity
8
0
100
AcDbSpline
62
7
6
CONTINUOUS
70
0
71
3
72
10
73
6
74
4
42
0.0000001000
43
0.0000001000
44
0.0000000001
12
-0.6103837428
22
0.0337146206
32
0.0000000000
13
-0.6103824095
23
-0.0337146639
33
0.0000000000
40
0.0000000000
40
0.0000000000
40
0.0000000000
40
0.0000000000
40
0.3162379388
40
0.6798529955
40
1.0000000000
40
1.0000000000
40
1.0000000000
40
1.0000000000
10
-59.4941559301
20
149.6497430874
30
0.0000000000
10
-59.5584980957
20
149.6532970348
30
0.0000000000
10
-59.6969671668
20
149.6585242061
30
0.0000000000
10
-59.9007819273
20
149.6585681358
30
0.0000000000
10
-60.0400488975
20
149.6533409923
30
0.0000000000
10
-60.1051862642
20
149.6497431094
30
0.0000000000
11
-59.4941559301
21
149.6497430874
31
0.0000000000
11
-59.6873381876
21
149.6570353954
31
0.0000000000
11
-59.9096148230
21
149.6570833340
31
0.0000000000
11
-60.1051862642
21
149.6497431094
31
0.0000000000
0
SPLINE
5
33C
100
AcDbEntity
8
0
100
AcDbSpline
62
7
6
CONTINUOUS
70
0
71
3
72
9
73
5
74
3
42
0.0000001000
43
0.0000001000
44
0.0000000001
12
-0.0152042181
22
-0.0087117897
32
0.0000000000
13
-0.0143642103
23
-0.0045149261
33
0.0000000000
40
0.0000000000
40
0.0000000000
40
0.0000000000
40
0.0000000000
40
0.1424866664
40
1.0000000000
40
1.0000000000
40
1.0000000000
40
1.0000000000
10
-59.2837429979
20
149.6751952120
30
0.0000000000
10
-59.2844651307
20
149.6747814407
30
0.0000000000
10
-59.2905331790
20
149.6711448148
30
0.0000000000
10
-59.2954674292
20
149.6691930644
30
0.0000000000
10
-59.2995732632
20
149.6679025280
30
0.0000000000
11
-59.2837429979
21
149.6751952120
31
0.0000000000
11
-59.2861713437
21
149.6737793064
31
0.0000000000
11
-59.2995732632
21
149.6679025280
31
0.0000000000
0
SPLINE
5
33D
100
AcDbEntity
8
0
100
AcDbSpline
62
7
6
CONTINUOUS
70
0
71
3
72
11
73
7
74
5
42
0.0000001000
43
0.0000001000
44
0.0000000001
12
-0.1401325979
22
-0.0440425303
32
0.0000000000
13
-0.1595286702
23
0.0010276725
33
0.0000000000
40
0.0000000000
40
0.0000000000
40
0.0000000000
40
0.0000000000
40
0.0438216188
40
0.2774879323
40
0.6034667719
40
1.0000000000
40
1.0000000000
40
1.0000000000
40
1.0000000000
10
-59.2995751696
20
149.6679019288
30
0.0000000000
10
-59.3016221153
20
149.6672585905
30
0.0000000000
10
-59.3143867005
20
149.6637876060
30
0.0000000000
10
-59.3470862620
20
149.6552921992
30
0.0000000000
10
-59.3968263910
20
149.6497885378
30
0.0000000000
10
-59.4353627561
20
149.6484099424
30
0.0000000000
10
-59.4564488956
20
149.6485457778
30
0.0000000000
11
-59.2995751696
21
149.6679019288
31
0.0000000000
11
-59.3057103969
21
149.6661514379
31
0.0000000000
11
-59.3418728342
21
149.6574036315
31
0.0000000000
11
-59.3933498556
21
149.6507605551
31
0.0000000000
11
-59.4564488956
21
149.6485457778
31
0.0000000000
0
SPLINE
5
33E
100
AcDbEntity
8
0
100
AcDbSpline
62
7
6
CONTINUOUS
70
0
71
3
72
8
73
4
74
2
42
0.0000001000
43
0.0000001000
44
0.0000000001
12
-0.0377751027
22
0.0002433446
32
0.0000000000
13
-0.0376420626
23
0.0020944388
33
0.0000000000
40
0.0000000000
40
0.0000000000
40
0.0000000000
40
0.0000000000
40
1.0000000000
40
1.0000000000
40
1.0000000000
40
1.0000000000
10
-59.4564488956
20
149.6485457778
30
0.0000000000
10
-59.4690405965
20
149.6486268927
30
0.0000000000
10
-59.4816096145
20
149.6490262482
30
0.0000000000
10
-59.4941569686
20
149.6497243945
30
0.0000000000
11
-59.4564488956
21
149.6485457778
31
0.0000000000
11
-59.4941569686
21
149.6497243945
31
0.0000000000
0
SPLINE
5
33F
100
AcDbEntity
8
0
100
AcDbSpline
62
7
6
CONTINUOUS
70
0
71
3
72
9
73
5
74
3
42
0.0000001000
43
0.0000001000
44
0.0000000001
12
-0.0603938318
22
0.0073448720
32
0.0000000000
13
-0.0607785955
23
0.0027725077
33
0.0000000000
40
0.0000000000
40
0.0000000000
40
0.0000000000
40
0.0000000000
40
0.3869911088
40
1.0000000000
40
1.0000000000
40
1.0000000000
40
1.0000000000
10
-59.0876016250
20
149.9753904566
30
0.0000000000
10
-59.0953922503
20
149.9763379233
30
0.0000000000
10
-59.1155554521
20
149.9785303189
30
0.0000000000
10
-59.1357837976
20
149.9800473693
30
0.0000000000
10
-59.1482030708
20
149.9806138933
30
0.0000000000
11
-59.0876016250
21
149.9753904566
31
0.0000000000
11
-59.1110079660
21
149.9779336574
31
0.0000000000
11
-59.1482030708
21
149.9806138933
31
0.0000000000
0
SPLINE
5
340
100
AcDbEntity
8
0
100
AcDbSpline
62
7
6
CONTINUOUS
70
0
71
3
72
9
73
5
74
3
42
0.0000001000
43
0.0000001000
44
0.0000000001
12
-0.0564442669
22
0.0025747907
32
0.0000000000
13
-0.0559810452
23
-0.0080425123
33
0.0000000000
40
0.0000000000
40
0.0000000000
40
0.0000000000
40
0.0000000000
40
0.5438656546
40
1.0000000000
40
1.0000000000
40
1.0000000000
40
1.0000000000
10
-59.1482030708
20
149.9806138933
30
0.0000000000
10
-59.1584357702
20
149.9810806733
30
0.0000000000
10
-59.1772743890
20
149.9814852765
30
0.0000000000
10
-59.1961085653
20
149.9803105558
30
0.0000000000
10
-59.2046201911
20
149.9790877338
30
0.0000000000
11
-59.1482030708
21
149.9806138933
31
0.0000000000
11
-59.1789258116
21
149.9810536249
31
0.0000000000
11
-59.2046201911
21
149.9790877338
31
0.0000000000
0
SPLINE
5
341
100
AcDbEntity
8
0
100
AcDbSpline
62
7
6
CONTINUOUS
70
0
71
3
72
8
73
4
74
2
42
0.0000001000
43
0.0000001000
44
0.0000000001
12
-0.0253563285
22
-0.0036428149
32
0.0000000000
13
-0.0242042291
23
-0.0084543714
33
0.0000000000
40
0.0000000000
40
0.0000000000
40
0.0000000000
40
0.0000000000
40
1.0000000000
40
1.0000000000
40
1.0000000000
40
1.0000000000
10
-59.2046201911
20
149.9790877338
30
0.0000000000
10
-59.2130723006
20
149.9778734622
30
0.0000000000
10
-59.2214462261
20
149.9759817728
30
0.0000000000
10
-59.2295143025
20
149.9731636490
30
0.0000000000
11
-59.2046201911
21
149.9790877338
31
0.0000000000
11
-59.2295143025
21
149.9731636490
31
0.0000000000
0
SPLINE
5
342
100
AcDbEntity
8
0
100
AcDbSpline
62
7
6
CONTINUOUS
70
0
71
3
72
11
73
7
74
5
42
0.0000001000
43
0.0000001000
44
0.0000000001
12
-0.1097795045
22
-0.0383452287
32
0.0000000000
13
-0.0129853403
23
-0.1160160106
33
0.0000000000
40
0.0000000000
40
0.0000000000
40
0.0000000000
40
0.0000000000
40
0.2448027718
40
0.5034455926
40
0.7877064745
40
1.0000000000
40
1.0000000000
40
1.0000000000
40
1.0000000000
10
-59.2295143025
20
149.9731636490
30
0.0000000000
10
-59.2384724115
20
149.9700346429
30
0.0000000000
10
-59.2561196621
20
149.9612509441
30
0.0000000000
10
-59.2788878112
20
149.9403373288
30
0.0000000000
10
-59.2936309412
20
149.9145503965
30
0.0000000000
10
-59.2981136476
20
149.8955372116
30
0.0000000000
10
-59.2990325488
20
149.8873273956
30
0.0000000000
11
-59.2295143025
21
149.9731636490
31
0.0000000000
11
-59.2549026213
21
149.9604088430
31
0.0000000000
11
-59.2769912797
21
149.9400815228
31
0.0000000000
11
-59.2933281188
21
149.9114186044
31
0.0000000000
11
-59.2990325488
21
149.8873273956
31
0.0000000000
0
SPLINE
5
343
100
AcDbEntity
8
0
100
AcDbSpline
62
7
6
CONTINUOUS
70
0
71
3
72
8
73
4
74
2
42
0.0000001000
43
0.0000001000
44
0.0000000001
12
-0.0012512757
22
-0.0111793772
32
0.0000000000
13
-0.0000054201
23
-0.0111967750
33
0.0000000000
40
0.0000000000
40
0.0000000000
40
0.0000000000
40
0.0000000000
40
1.0000000000
40
1.0000000000
40
1.0000000000
40
1.0000000000
10
-59.2990325488
20
149.8873273956
30
0.0000000000
10
-59.2994496407
20
149.8836009365
30
0.0000000000
10
-59.2996611982
20
149.8798577795
30
0.0000000000
10
-59.2996630050
20
149.8761255212
30
0.0000000000
11
-59.2990325488
21
149.8873273956
31
0.0000000000
11
-59.2996630050
21
149.8761255212
31
0.0000000000
0
SPLINE
5
344
100
AcDbEntity
8
0
100
AcDbSpline
62
7
6
CONTINUOUS
70
0
71
3
72
10
73
6
74
4
42
0.0000001000
43
0.0000001000
44
0.0000000001
12
-1.0911208316
22
0.3562194201
32
0.0000000000
13
-1.1394011973
23
0.1385349433
33
0.0000000000
40
0.0000000000
40
0.0000000000
40
0.0000000000
40
0.0000000000
40
0.3242092501
40
0.6736871094
40
1.0000000000
40
1.0000000000
40
1.0000000000
40
1.0000000000
10
-57.9686357314
20
149.7271895037
30
0.0000000000
10
-58.0865528869
20
149.7656860474
30
0.0000000000
10
-58.3341727351
20
149.8379716924
30
0.0000000000
10
-58.7079178471
20
149.9209526850
30
0.0000000000
10
-58.9636680617
20
149.9603202102
30
0.0000000000
10
-59.0876018278
20
149.9753887895
30
0.0000000000
11
-57.9686357314
21
149.7271895037
31
0.0000000000
11
-58.3258501912
21
149.8314662759
31
0.0000000000
11
-58.7174252018
21
149.9184060632
31
0.0000000000
11
-59.0876018278
21
149.9753887895
31
0.0000000000
0
SPLINE
5
345
100
AcDbEntity
8
0
100
AcDbSpline
62
7
6
CONTINUOUS
70
0
71
3
72
8
73
4
74
2
42
0.0000001000
43
0.0000001000
44
0.0000000001
12
0.0000338558
22
0.0001072465
32
0.0000000000
13
-0.0041573908
23
0.0006697597
33
0.0000000000
40
0.0000000000
40
0.0000000000
40
0.0000000000
40
0.0000000000
40
1.0000000000
40
1.0000000000
40
1.0000000000
40
1.0000000000
10
-57.6975949134
20
149.6482534838
30
0.0000000000
10
-57.6975836282
20
149.6482892326
30
0.0000000000
10
-57.6987891167
20
149.6484829611
30
0.0000000000
10
-57.7001749136
20
149.6487062144
30
0.0000000000
11
-57.6975949134
21
149.6482534838
31
0.0000000000
11
-57.7001749136
21
149.6487062144
31
0.0000000000
0
SPLINE
5
346
100
AcDbEntity
8
0
100
AcDbSpline
62
7
6
CONTINUOUS
70
0
71
3
72
11
73
7
74
5
42
0.0000001000
43
0.0000001000
44
0.0000000001
12
-0.0393958245
22
0.0063467055
32
0.0000000000
13
-0.0252524804
23
0.0062307611
33
0.0000000000
40
0.0000000000
40
0.0000000000
40
0.0000000000
40
0.0000000000
40
0.0437461441
40
0.3811931805
40
0.8487327780
40
1.0000000000
40
1.0000000000
40
1.0000000000
40
1.0000000000
10
-57.7001749136
20
149.6487062144
30
0.0000000000
10
-57.7007493854
20
149.6487987623
30
0.0000000000
10
-57.7060251894
20
149.6496494134
30
0.0000000000
10
-57.7105277402
20
149.6508541323
30
0.0000000000
10
-57.7194247269
20
149.6528408341
30
0.0000000000
10
-57.7247122035
20
149.6541238603
30
0.0000000000
10
-57.7259854944
20
149.6544380303
30
0.0000000000
11
-57.7001749136
21
149.6487062144
31
0.0000000000
11
-57.7019174496
21
149.6489899285
31
0.0000000000
11
-57.7104032759
21
149.6507625750
31
0.0000000000
11
-57.7220990787
21
149.6534964339
31
0.0000000000
11
-57.7259854944
21
149.6544380303
31
0.0000000000
0
SPLINE
5
347
100
AcDbEntity
8
0
100
AcDbSpline
62
7
6
CONTINUOUS
70
0
71
3
72
18
73
14
74
12
42
0.0000001000
43
0.0000001000
44
0.0000000001
12
-0.2491589938
22
0.0614771357
32
0.0000000000
13
-0.2409641088
23
0.0786527442
33
0.0000000000
40
0.0000000000
40
0.0000000000
40
0.0000000000
40
0.0000000000
40
0.0441584266
40
0.1147243445
40
0.1955767258
40
0.2863024203
40
0.3862697342
40
0.4948207329
40
0.6111644276
40
0.7344498212
40
0.8637745550
40
0.9980510664
40
1.0000000000
40
1.0000000000
40
1.0000000000
40
1.0000000000
10
-57.7259854944
20
149.6544380303
30
0.0000000000
10
-57.7296529841
20
149.6553429415
30
0.0000000000
10
-57.7387666635
20
149.6577054351
30
0.0000000000
10
-57.7549000327
20
149.6619735797
30
0.0000000000
10
-57.7745578929
20
149.6674316810
30
0.0000000000
10
-57.7966332075
20
149.6737510595
30
0.0000000000
10
-57.8208856915
20
149.6808785461
30
0.0000000000
10
-57.8471712393
20
149.6887891223
30
0.0000000000
10
-57.8752913387
20
149.6974307701
30
0.0000000000
10
-57.9050425141
20
149.7067407953
30
0.0000000000
10
-57.9361910366
20
149.7166569035
30
0.0000000000
10
-57.9575382462
20
149.7235642396
30
0.0000000000
10
-57.9684801898
20
149.7271353452
30
0.0000000000
10
-57.9686367308
20
149.7271864415
30
0.0000000000
11
-57.7259854944
21
149.6544380303
31
0.0000000000
11
-57.7367207230
21
149.6571825477
31
0.0000000000
11
-57.7540084505
21
149.6617726851
31
0.0000000000
11
-57.7737606423
21
149.6672369872
31
0.0000000000
11
-57.7958711493
21
149.6735595747
31
0.0000000000
11
-57.8201836509
21
149.6806996065
31
0.0000000000
11
-57.8465328565
21
149.6886239338
31
0.0000000000
11
-57.8747235597
21
149.6972818719
31
0.0000000000
11
-57.9045479494
21
149.7066122851
31
0.0000000000
11
-57.9357846177
21
149.7165541534
31
0.0000000000
11
-57.9681671022
21
149.7270331696
31
0.0000000000
11
-57.9686367308
21
149.7271864415
31
0.0000000000
0
SPLINE
5
348
100
AcDbEntity
8
0
100
AcDbSpline
62
7
6
CONTINUOUS
70
0
71
3
72
8
73
4
74
2
42
0.0000001000
43
0.0000001000
44
0.0000000001
12
0.0000338947
22
0.0001160309
32
0.0000000000
13
-0.0042056179
23
0.0006729367
33
0.0000000000
40
0.0000000000
40
0.0000000000
40
0.0000000000
40
0.0000000000
40
1.0000000000
40
1.0000000000
40
1.0000000000
40
1.0000000000
10
-57.6976004157
20
149.6482642864
30
0.0000000000
10
-57.6975891174
20
149.6483029634
30
0.0000000000
10
-57.6987712116
20
149.6484936068
30
0.0000000000
10
-57.7001730842
20
149.6487179191
30
0.0000000000
11
-57.6976004157
21
149.6482642864
31
0.0000000000
11
-57.7001730842
21
149.6487179191
31
0.0000000000
0
SPLINE
5
349
100
AcDbEntity
8
0
100
AcDbSpline
62
7
6
CONTINUOUS
70
0
71
3
72
17
73
13
74
11
42
0.0000001000
43
0.0000001000
44
0.0000000001
12
-0.2509708435
22
0.0616478837
32
0.0000000000
13
-0.2409606472
23
0.0786734263
33
0.0000000000
40
0.0000000000
40
0.0000000000
40
0.0000000000
40
0.0000000000
40
0.0479700867
40
0.1192779108
40
0.2010034140
40
0.2926090716
40
0.3934274926
40
0.5028415426
40
0.6200107320
40
0.7441297324
40
0.8743023083
40
1.0000000000
40
1.0000000000
40
1.0000000000
40
1.0000000000
10
-57.7259777095
20
149.6544394774
30
0.0000000000
10
-57.7299907405
20
149.6554252288
30
0.0000000000
10
-57.7394372700
20
149.6578784114
30
0.0000000000
10
-57.7560254141
20
149.6622774256
30
0.0000000000
10
-57.7758780617
20
149.6678076843
30
0.0000000000
10
-57.7981650446
20
149.6741927495
30
0.0000000000
10
-57.8226238029
20
149.6813955357
30
0.0000000000
10
-57.8491108514
20
149.6893826802
30
0.0000000000
10
-57.8774325234
20
149.6980949674
30
0.0000000000
10
-57.9073829011
20
149.7074790093
30
0.0000000000
10
-57.9379733857
20
149.7172281993
30
0.0000000000
10
-57.9585406598
20
149.7238901076
30
0.0000000000
10
-57.9686367255
20
149.7271864636
30
0.0000000000
11
-57.7259777095
21
149.6544394774
31
0.0000000000
11
-57.7376532005
21
149.6574238587
31
0.0000000000
11
-57.7551199614
21
149.6620733725
31
0.0000000000
11
-57.7750818351
21
149.6676107174
31
0.0000000000
11
-57.7974046555
21
149.6740031527
31
0.0000000000
11
-57.8219208977
21
149.6812161618
31
0.0000000000
11
-57.8484758599
21
149.6892170986
31
0.0000000000
11
-57.8768639723
21
149.6979462218
31
0.0000000000
11
-57.9068872310
21
149.7073499469
31
0.0000000000
11
-57.9383255570
21
149.7173681603
31
0.0000000000
11
-57.9686367255
21
149.7271864636
31
0.0000000000
0
SPLINE
5
34A
100
AcDbEntity
8
0
100
AcDbSpline
62
7
6
CONTINUOUS
70
0
71
3
72
16
73
12
74
10
42
0.0000001000
43
0.0000001000
44
0.0000000001
12
-0.2571082013
22
0.0312732353
32
0.0000000000
13
-0.0289956003
23
-0.2588563033
33
0.0000000000
40
0.0000000000
40
0.0000000000
40
0.0000000000
40
0.0000000000
40
0.0957177787
40
0.2385228785
40
0.3560819468
40
0.4550440047
40
0.5535147798
40
0.6628920152
40
0.7781856162
40
0.9049357695
40
1.0000000000
40
1.0000000000
40
1.0000000000
40
1.0000000000
10
-59.0876016560
20
149.9753901994
30
0.0000000000
10
-59.0958049313
20
149.9763880010
30
0.0000000000
10
-59.1162811117
20
149.9786012841
30
0.0000000000
10
-59.1469489374
20
149.9808586341
30
0.0000000000
10
-59.1779812673
20
149.9814721002
30
0.0000000000
10
-59.2051740242
20
149.9797037863
30
0.0000000000
10
-59.2311545990
20
149.9737295730
30
0.0000000000
10
-59.2563820766
20
149.9610551123
30
0.0000000000
10
-59.2789866592
20
149.9401759982
30
0.0000000000
10
-59.2936431616
20
149.9144802561
30
0.0000000000
10
-59.2981110482
20
149.8955297527
30
0.0000000000
10
-59.2990298631
20
149.8873270942
30
0.0000000000
11
-59.0876016560
21
149.9753901994
31
0.0000000000
11
-59.1122496187
21
149.9780514379
31
0.0000000000
11
-59.1491418184
21
149.9806558616
31
0.0000000000
11
-59.1795851747
21
149.9810365579
31
0.0000000000
11
-59.2051346503
21
149.9790136047
31
0.0000000000
11
-59.2299226632
21
149.9730205421
31
0.0000000000
11
-59.2551882333
21
149.9602120397
31
0.0000000000
11
-59.2771048989
21
149.9399334585
31
0.0000000000
11
-59.2933306860
21
149.9113979637
31
0.0000000000
11
-59.2990298631
21
149.8873270942
31
0.0000000000
0
SPLINE
5
34B
100
AcDbEntity
8
0
100
AcDbSpline
62
7
6
CONTINUOUS
70
0
71
3
72
12
73
8
74
6
42
0.0000001000
43
0.0000001000
44
0.0000000001
12
-0.1619099871
22
-0.0512868116
32
0.0000000000
13
-0.1836198709
23
0.0070518447
33
0.0000000000
40
0.0000000000
40
0.0000000000
40
0.0000000000
40
0.0000000000
40
0.0435347811
40
0.2501577898
40
0.5368832645
40
0.8832351291
40
1.0000000000
40
1.0000000000
40
1.0000000000
40
1.0000000000
10
-59.2995583060
20
149.6678482729
30
0.0000000000
10
-59.3019078779
20
149.6671040195
30
0.0000000000
10
-59.3150765367
20
149.6636442950
30
0.0000000000
10
-59.3487501130
20
149.6549632703
30
0.0000000000
10
-59.3991173348
20
149.6496268653
30
0.0000000000
10
-59.4452662760
20
149.6481283299
30
0.0000000000
10
-59.4736424792
20
149.6488231779
30
0.0000000000
10
-59.4807892627
20
149.6490976472
30
0.0000000000
11
-59.2995583060
21
149.6678482729
31
0.0000000000
11
-59.3065677048
21
149.6658821108
31
0.0000000000
11
-59.3434890995
21
149.6571077627
31
0.0000000000
11
-59.3957437079
21
149.6505715555
31
0.0000000000
11
-59.4593255611
21
149.6485758011
31
0.0000000000
11
-59.4807892627
21
149.6490976472
31
0.0000000000
0
SPLINE
5
34C
100
AcDbEntity
8
0
100
AcDbSpline
62
7
6
CONTINUOUS
70
0
71
3
72
10
73
6
74
4
42
0.0000001000
43
0.0000001000
44
0.0000000001
12
-0.6103822664
22
0.0337146560
32
0.0000000000
13
-0.6103836007
23
-0.0337145969
33
0.0000000000
40
0.0000000000
40
0.0000000000
40
0.0000000000
40
0.0000000000
40
0.3201470795
40
0.6837622215
40
1.0000000000
40
1.0000000000
40
1.0000000000
40
1.0000000000
10
-59.4941560725
20
149.6497431094
30
0.0000000000
10
-59.5592934392
20
149.6533409923
30
0.0000000000
10
-59.6985604094
20
149.6585681358
30
0.0000000000
10
-59.9023751222
20
149.6585242061
30
0.0000000000
10
-60.0408441455
20
149.6532970384
30
0.0000000000
10
-60.1051862634
20
149.6497430953
30
0.0000000000
11
-59.4941560725
21
149.6497431094
31
0.0000000000
11
-59.6897275137
21
149.6570833340
31
0.0000000000
11
-59.9120041491
21
149.6570353954
31
0.0000000000
11
-60.1051862634
21
149.6497430953
31
0.0000000000
0
SPLINE
5
34D
100
AcDbEntity
8
0
100
AcDbSpline
62
7
6
CONTINUOUS
70
0
71
3
72
8
73
4
74
2
42
0.0000001000
43
0.0000001000
44
0.0000000001
12
-0.0133593634
22
-0.0007433272
32
0.0000000000
13
-0.0133758724
23
-0.0005149088
33
0.0000000000
40
0.0000000000
40
0.0000000000
40
0.0000000000
40
0.0000000000
40
1.0000000000
40
1.0000000000
40
1.0000000000
40
1.0000000000
10
-60.1051853681
20
149.6497243945
30
0.0000000000
10
-60.1096384892
20
149.6494766187
30
0.0000000000
10
-60.1140943391
20
149.6492664780
30
0.0000000000
10
-60.1185529632
20
149.6490948417
30
0.0000000000
11
-60.1051853681
21
149.6497243945
31
0.0000000000
11
-60.1185529632
21
149.6490948417
31
0.0000000000
0
SPLINE
5
34E
100
AcDbEntity
8
0
100
AcDbSpline
62
9
6
CONTINUOUS
70
0
71
3
72
10
73
6
74
4
42
0.0000001000
43
0.0000001000
44
0.0000000001
12
-0.0000000037
22
0.0084211513
32
0.0000000000
13
0.0000000024
23
0.0084211513
33
0.0000000000
40
0.0000000000
40
0.0000000000
40
0.0000000000
40
0.0000000000
40
0.5552522622
40
0.8890061159
40
1.0000000000
40
1.0000000000
40
1.0000000000
40
1.0000000000
10
-61.9356869995
20
149.6430424555
30
0.0000000000
10
-61.9356870002
20
149.6446010766
30
0.0000000000
10
-61.9356869981
20
149.6470965616
30
0.0000000000
10
-61.9356869996
20
149.6499036120
30
0.0000000000
10
-61.9356869996
20
149.6511520414
30
0.0000000000
10
-61.9356869995
20
149.6514636068
30
0.0000000000
11
-61.9356869995
21
149.6430424555
31
0.0000000000
11
-61.9356869989
21
149.6477183188
31
0.0000000000
11
-61.9356869996
21
149.6505289105
31
0.0000000000
11
-61.9356869995
21
149.6514636068
31
0.0000000000
0
SPLINE
5
34F
100
AcDbEntity
8
0
100
AcDbSpline
62
9
6
CONTINUOUS
70
0
71
3
72
11
73
7
74
5
42
0.0000001000
43
0.0000001000
44
0.0000000001
12
-0.2347482178
22
-0.0766424207
32
0.0000000000
13
-0.2489078788
23
-0.0675589159
33
0.0000000000
40
0.0000000000
40
0.0000000000
40
0.0000000000
40
0.0000000000
40
0.3504046771
40
0.6666687971
40
0.9304468631
40
1.0000000000
40
1.0000000000
40
1.0000000000
40
1.0000000000
10
-61.6305418808
20
149.7266849499
30
0.0000000000
10
-61.6579608386
20
149.7177329957
30
0.0000000000
10
-61.7100622358
20
149.7010802461
30
0.0000000000
10
-61.7839448744
20
149.6783672642
30
0.0000000000
10
-61.8338293210
20
149.6642372618
30
0.0000000000
10
-61.8618905009
20
149.6563699515
30
0.0000000000
10
-61.8676612755
20
149.6548036400
30
0.0000000000
11
-61.6305418808
21
149.7266849499
31
0.0000000000
11
-61.7129612825
21
149.7003320979
31
0.0000000000
11
-61.7876620681
21
149.6775445260
31
0.0000000000
11
-61.8502872327
21
149.6596262990
31
0.0000000000
11
-61.8676612755
21
149.6548036400
31
0.0000000000
0
SPLINE
5
350
100
AcDbEntity
8
0
100
AcDbSpline
62
9
6
CONTINUOUS
70
0
71
3
72
10
73
6
74
4
42
0.0000001000
43
0.0000001000
44
0.0000000001
12
-0.0708811429
22
-0.0192386565
32
0.0000000000
13
0.0003549073
23
0.0703206776
33
0.0000000000
40
0.0000000000
40
0.0000000000
40
0.0000000000
40
0.0000000000
40
0.4410278012
40
0.8596420268
40
1.0000000000
40
1.0000000000
40
1.0000000000
40
1.0000000000
10
-61.8676612755
20
149.6548036400
30
0.0000000000
10
-61.8780814603
20
149.6519753792
30
0.0000000000
10
-61.8978552931
20
149.6469410648
30
0.0000000000
10
-61.9146506033
20
149.6448273055
30
0.0000000000
10
-61.9357036042
20
149.6397524329
30
0.0000000000
10
-61.9356869995
20
149.6430424555
30
0.0000000000
11
-61.8676612755
21
149.6548036400
31
0.0000000000
11
-61.8969664212
21
149.6476566024
31
0.0000000000
11
-61.9258662690
21
149.6420555549
31
0.0000000000
11
-61.9356869995
21
149.6430424555
31
0.0000000000
0
SPLINE
5
351
100
AcDbEntity
8
0
100
AcDbSpline
62
9
6
CONTINUOUS
70
0
71
3
72
12
73
8
74
6
42
0.0000001000
43
0.0000001000
44
0.0000000001
12
-1.1394044272
22
-0.1385317330
32
0.0000000000
13
-1.0911181987
23
-0.3562226359
33
0.0000000000
40
0.0000000000
40
0.0000000000
40
0.0000000000
40
0.0000000000
40
0.1736997740
40
0.3668447149
40
0.5660151312
40
0.7736035241
40
1.0000000000
40
1.0000000000
40
1.0000000000
40
1.0000000000
10
-60.5116764454
20
149.9748618690
30
0.0000000000
10
-60.5776478759
20
149.9668408921
30
0.0000000000
10
-60.7167005596
20
149.9475450025
30
0.0000000000
10
-60.9300515316
20
149.9101357706
30
0.0000000000
10
-61.1545050513
20
149.8618856556
30
0.0000000000
10
-61.3891987396
20
149.8016293933
30
0.0000000000
10
-61.5482001091
20
149.7535674664
30
0.0000000000
10
-61.6305418808
20
149.7266849499
30
0.0000000000
11
-60.5116764454
21
149.9748618690
31
0.0000000000
11
-60.7091558728
21
149.9474580888
31
0.0000000000
11
-60.9275154108
21
149.9091706682
31
0.0000000000
11
-61.1510164746
21
149.8611253539
31
0.0000000000
11
-61.3818003321
21
149.8018725517
31
0.0000000000
11
-61.6305418808
21
149.7266849499
31
0.0000000000
0
SPLINE
5
352
100
AcDbEntity
8
0
100
AcDbSpline
62
9
6
CONTINUOUS
70
0
71
3
72
14
73
10
74
8
42
0.0000001000
43
0.0000001000
44
0.0000000001
12
-0.0001275271
22
0.1030417226
32
0.0000000000
13
-0.1022885817
23
-0.0124361939
33
0.0000000000
40
0.0000000000
40
0.0000000000
40
0.0000000000
40
0.0000000000
40
0.0475695937
40
0.1569696759
40
0.3115077117
40
0.4870765621
40
0.6663493256
40
0.8385288923
40
1.0000000000
40
1.0000000000
40
1.0000000000
40
1.0000000000
10
-60.4099614058
20
149.9748618690
30
0.0000000000
10
-60.4099634280
20
149.9764957533
30
0.0000000000
10
-60.4167619664
20
149.9789446967
30
0.0000000000
10
-60.4261405172
20
149.9796595095
30
0.0000000000
10
-60.4418281835
20
149.9801785409
30
0.0000000000
10
-60.4591240340
20
149.9795549377
30
0.0000000000
10
-60.4772453677
20
149.9783988887
30
0.0000000000
10
-60.4947779673
20
149.9768030591
30
0.0000000000
10
-60.5061708952
20
149.9755312310
30
0.0000000000
10
-60.5116764454
20
149.9748618690
30
0.0000000000
11
-60.4099614058
21
149.9748618690
31
0.0000000000
11
-60.4138936654
21
149.9777882273
31
0.0000000000
11
-60.4250348872
21
149.9795054287
31
0.0000000000
11
-60.4409517005
21
149.9799796989
31
0.0000000000
11
-60.4590355973
21
149.9794752698
31
0.0000000000
11
-60.4774707236
21
149.9782994108
31
0.0000000000
11
-60.4951408524
21
149.9767074911
31
0.0000000000
11
-60.5116764454
21
149.9748618690
31
0.0000000000
0
SPLINE
5
353
100
AcDbEntity
8
0
100
AcDbSpline
62
9
6
CONTINUOUS
70
0
71
3
72
12
73
8
74
6
42
0.0000001000
43
0.0000001000
44
0.0000000001
12
-0.0000000955
22
0.2481769191
32
0.0000000000
13
0.0000000361
23
0.2481769191
33
0.0000000000
40
0.0000000000
40
0.0000000000
40
0.0000000000
40
0.0000000000
40
0.3245288541
40
0.5733868835
40
0.7612770168
40
0.8998605882
40
1.0000000000
40
1.0000000000
40
1.0000000000
40
1.0000000000
10
-60.4099614058
20
149.7266849499
30
0.0000000000
10
-60.4099614162
20
149.7535318069
30
0.0000000000
10
-60.4099613968
20
149.8009656037
30
0.0000000000
10
-60.4099614075
20
149.8639427319
30
0.0000000000
10
-60.4099614068
20
149.9115374177
30
0.0000000000
10
-60.4099614045
20
149.9468292606
30
0.0000000000
10
-60.4099614070
20
149.9665777721
30
0.0000000000
10
-60.4099614058
20
149.9748618690
30
0.0000000000
11
-60.4099614058
21
149.7266849499
31
0.0000000000
11
-60.4099614030
21
149.8072255211
31
0.0000000000
11
-60.4099614062
21
149.8689863401
31
0.0000000000
11
-60.4099614063
21
149.9156163345
31
0.0000000000
11
-60.4099614056
21
149.9500095783
31
0.0000000000
11
-60.4099614058
21
149.9748618690
31
0.0000000000
0
SPLINE
5
354
100
AcDbEntity
8
0
100
AcDbSpline
62
9
6
CONTINUOUS
70
0
71
3
72
8
73
4
74
2
42
0.0000001000
43
0.0000001000
44
0.0000000001
12
-0.0259648526
22
-0.0014341561
32
0.0000000000
13
-0.0260031346
23
-0.0007031723
33
0.0000000000
40
0.0000000000
40
0.0000000000
40
0.0000000000
40
0.0000000000
40
1.0000000000
40
1.0000000000
40
1.0000000000
40
1.0000000000
10
-60.1048162871
20
149.6430424555
30
0.0000000000
10
-60.1134712379
20
149.6425644034
30
0.0000000000
10
-60.1221347939
20
149.6422057730
30
0.0000000000
10
-60.1308025055
20
149.6419713823
30
0.0000000000
11
-60.1048162871
21
149.6430424555
31
0.0000000000
11
-60.1308025055
21
149.6419713823
31
0.0000000000
0
SPLINE
5
355
100
AcDbEntity
8
0
100
AcDbSpline
62
9
6
CONTINUOUS
70
0
71
3
72
10
73
6
74
4
42
0.0000001000
43
0.0000001000
44
0.0000000001
12
-0.1456857917
22
-0.0039396099
32
0.0000000000
13
-0.1438195669
23
0.0241745223
33
0.0000000000
40
0.0000000000
40
0.0000000000
40
0.0000000000
40
0.0000000000
40
0.3486430920
40
0.8460685313
40
1.0000000000
40
1.0000000000
40
1.0000000000
40
1.0000000000
10
-60.1308025055
20
149.6419713823
30
0.0000000000
10
-60.1477332871
20
149.6415135430
30
0.0000000000
10
-60.1888584851
20
149.6415528323
30
0.0000000000
10
-60.2373454306
20
149.6451487073
30
0.0000000000
10
-60.2686887406
20
149.6497375987
30
0.0000000000
10
-60.2760681930
20
149.6509780053
30
0.0000000000
11
-60.1308025055
21
149.6419713823
31
0.0000000000
11
-60.1816092545
21
149.6420558598
31
0.0000000000
11
-60.2538610209
21
149.6476941416
31
0.0000000000
11
-60.2760681930
21
149.6509780053
31
0.0000000000
0
SPLINE
5
356
100
AcDbEntity
8
0
100
AcDbSpline
62
9
6
CONTINUOUS
70
0
71
3
72
8
73
4
74
2
42
0.0000001000
43
0.0000001000
44
0.0000000001
12
-0.0237336029
22
0.0039893634
32
0.0000000000
13
-0.0234891810
23
0.0051773087
33
0.0000000000
40
0.0000000000
40
0.0000000000
40
0.0000000000
40
0.0000000000
40
1.0000000000
40
1.0000000000
40
1.0000000000
40
1.0000000000
10
-60.2760681930
20
149.6509780053
30
0.0000000000
10
-60.2839793939
20
149.6523077931
30
0.0000000000
10
-60.2918587205
20
149.6538168040
30
0.0000000000
10
-60.2996884475
20
149.6555425736
30
0.0000000000
11
-60.2760681930
21
149.6509780053
31
0.0000000000
11
-60.2996884475
21
149.6555425736
31
0.0000000000
0
SPLINE
5
357
100
AcDbEntity
8
0
100
AcDbSpline
62
9
6
CONTINUOUS
70
0
71
3
72
8
73
4
74
2
42
0.0000001000
43
0.0000001000
44
0.0000000001
12
-0.0172327122
22
0.0037983049
32
0.0000000000
13
-0.0170515376
23
0.0045427719
33
0.0000000000
40
0.0000000000
40
0.0000000000
40
0.0000000000
40
0.0000000000
40
1.0000000000
40
1.0000000000
40
1.0000000000
40
1.0000000000
10
-60.2996884475
20
149.6555425736
30
0.0000000000
10
-60.3054326848
20
149.6568086752
30
0.0000000000
10
-60.3111502261
20
149.6581914438
30
0.0000000000
10
-60.3168340719
20
149.6597057012
30
0.0000000000
11
-60.2996884475
21
149.6555425736
31
0.0000000000
11
-60.3168340719
21
149.6597057012
31
0.0000000000
0
SPLINE
5
358
100
AcDbEntity
8
0
100
AcDbSpline
62
9
6
CONTINUOUS
70
0
71
3
72
10
73
6
74
4
42
0.0000001000
43
0.0000001000
44
0.0000000001
12
-0.1168063314
22
0.0311188667
32
0.0000000000
13
0.0000729979
23
0.1208295183
33
0.0000000000
40
0.0000000000
40
0.0000000000
40
0.0000000000
40
0.0000000000
40
0.4363905819
40
0.7617294484
40
1.0000000000
40
1.0000000000
40
1.0000000000
40
1.0000000000
10
-60.3168340719
20
149.6597057012
30
0.0000000000
10
-60.3338251329
20
149.6642323613
30
0.0000000000
10
-60.3629578114
20
149.6741847688
30
0.0000000000
10
-60.3981634838
20
149.6949815919
30
0.0000000000
10
-60.4099672036
20
149.7170882446
30
0.0000000000
10
-60.4099614058
20
149.7266849499
30
0.0000000000
11
-60.3168340719
21
149.6597057012
31
0.0000000000
11
-60.3664450737
21
149.6775685845
31
0.0000000000
11
-60.3985502803
21
149.7002528237
31
0.0000000000
11
-60.4099614058
21
149.7266849499
31
0.0000000000
0
SPLINE
5
359
100
AcDbEntity
8
0
100
AcDbSpline
62
9
6
CONTINUOUS
70
0
71
3
72
10
73
6
74
4
42
0.0000001000
43
0.0000001000
44
0.0000000001
12
-0.6096363370
22
0.0336737673
32
0.0000000000
13
-0.6096363343
23
-0.0336738160
33
0.0000000000
40
0.0000000000
40
0.0000000000
40
0.0000000000
40
0.0000000000
40
0.3328661760
40
0.6669943864
40
1.0000000000
40
1.0000000000
40
1.0000000000
40
1.0000000000
10
-59.4945260496
20
149.6430424555
30
0.0000000000
10
-59.5621684884
20
149.6467787415
30
0.0000000000
10
-59.6978610360
20
149.6517763298
30
0.0000000000
10
-59.9014245270
20
149.6517778909
30
0.0000000000
10
-60.0371455132
20
149.6467803121
30
0.0000000000
10
-60.1048162871
20
149.6430424555
30
0.0000000000
11
-59.4945260496
21
149.6430424555
31
0.0000000000
11
-59.6976250002
21
149.6505224596
31
0.0000000000
11
-59.9016322008
21
149.6505240284
31
0.0000000000
11
-60.1048162871
21
149.6430424555
31
0.0000000000
0
SPLINE
5
35A
100
AcDbEntity
8
0
100
AcDbSpline
62
9
6
CONTINUOUS
70
0
71
3
72
11
73
7
74
5
42
0.0000001000
43
0.0000001000
44
0.0000000001
12
-0.0000256699
22
-0.1384612527
32
0.0000000000
13
-0.1352723955
23
-0.0298191917
33
0.0000000000
40
0.0000000000
40
0.0000000000
40
0.0000000000
40
0.0000000000
40
0.2091032557
40
0.4931166190
40
0.8736295673
40
1.0000000000
40
1.0000000000
40
1.0000000000
40
1.0000000000
10
-59.1893809309
20
149.7266849499
30
0.0000000000
10
-59.1893827201
20
149.7170340503
30
0.0000000000
10
-59.2012718850
20
149.6948852288
30
0.0000000000
10
-59.2365367936
20
149.6741250411
30
0.0000000000
10
-59.2712046705
20
149.6622974830
30
0.0000000000
10
-59.2939551617
20
149.6567984497
30
0.0000000000
10
-59.2996533054
20
149.6555423617
30
0.0000000000
11
-59.1893809309
21
149.7266849499
31
0.0000000000
11
-59.2009071628
21
149.7001254926
31
0.0000000000
11
-59.2330624158
21
149.6774873991
31
0.0000000000
11
-59.2826444346
21
149.6596697208
31
0.0000000000
11
-59.2996533054
21
149.6555423617
31
0.0000000000
0
SPLINE
5
35B
100
AcDbEntity
8
0
100
AcDbSpline
62
9
6
CONTINUOUS
70
0
71
3
72
8
73
4
74
2
42
0.0000001000
43
0.0000001000
44
0.0000000001
12
-0.0042859530
22
-0.0009447874
32
0.0000000000
13
-0.0042955310
23
-0.0009021475
33
0.0000000000
40
0.0000000000
40
0.0000000000
40
0.0000000000
40
0.0000000000
40
1.0000000000
40
1.0000000000
40
1.0000000000
40
1.0000000000
10
-59.2996533054
20
149.6555423617
30
0.0000000000
10
-59.3010819564
20
149.6552274325
30
0.0000000000
10
-59.3025122574
20
149.6549197242
30
0.0000000000
10
-59.3039441011
20
149.6546190084
30
0.0000000000
11
-59.2996533054
21
149.6555423617
31
0.0000000000
11
-59.3039441011
21
149.6546190084
31
0.0000000000
0
SPLINE
5
35C
100
AcDbEntity
8
0
100
AcDbSpline
62
9
6
CONTINUOUS
70
0
71
3
72
8
73
4
74
2
42
0.0000001000
43
0.0000001000
44
0.0000000001
12
-0.0193422573
22
-0.0040622611
32
0.0000000000
13
-0.0195005064
23
-0.0032741333
33
0.0000000000
40
0.0000000000
40
0.0000000000
40
0.0000000000
40
0.0000000000
40
1.0000000000
40
1.0000000000
40
1.0000000000
40
1.0000000000
10
-59.3039441011
20
149.6546190084
30
0.0000000000
10
-59.3103915202
20
149.6532649214
30
0.0000000000
10
-59.3168702172
20
149.6520526134
30
0.0000000000
10
-59.3233703860
20
149.6509612356
30
0.0000000000
11
-59.3039441011
21
149.6546190084
31
0.0000000000
11
-59.3233703860
21
149.6509612356
31
0.0000000000
0
SPLINE
5
35D
100
AcDbEntity
8
0
100
AcDbSpline
62
9
6
CONTINUOUS
70
0
71
3
72
10
73
6
74
4
42
0.0000001000
43
0.0000001000
44
0.0000000001
12
-0.1436554342
22
-0.0241197344
32
0.0000000000
13
-0.1455167566
23
0.0039235326
33
0.0000000000
40
0.0000000000
40
0.0000000000
40
0.0000000000
40
0.0000000000
40
0.1538736103
40
0.6506453984
40
1.0000000000
40
1.0000000000
40
1.0000000000
40
1.0000000000
10
-59.3233703860
20
149.6509612356
30
0.0000000000
10
-59.3307386461
20
149.6497241054
30
0.0000000000
10
-59.3620115568
20
149.6451500202
30
0.0000000000
10
-59.4104416661
20
149.6415555041
30
0.0000000000
10
-59.4515218436
20
149.6415129636
30
0.0000000000
10
-59.4684674931
20
149.6419698650
30
0.0000000000
11
-59.3233703860
21
149.6509612356
31
0.0000000000
11
-59.3455436524
21
149.6476856402
31
0.0000000000
11
-59.4176163195
21
149.6420593276
31
0.0000000000
11
-59.4684674931
21
149.6419698650
31
0.0000000000
0
SPLINE
5
35E
100
AcDbEntity
8
0
100
AcDbSpline
62
9
6
CONTINUOUS
70
0
71
3
72
8
73
4
74
2
42
0.0000001000
43
0.0000001000
44
0.0000000001
12
-0.0260755307
22
0.0007030681
32
0.0000000000
13
-0.0260370964
23
0.0014371509
33
0.0000000000
40
0.0000000000
40
0.0000000000
40
0.0000000000
40
0.0000000000
40
1.0000000000
40
1.0000000000
40
1.0000000000
40
1.0000000000
10
-59.4684674931
20
149.6419698650
30
0.0000000000
10
-59.4771593367
20
149.6422042210
30
0.0000000000
10
-59.4858470175
20
149.6425634052
30
0.0000000000
10
-59.4945260496
20
149.6430424555
30
0.0000000000
11
-59.4684674931
21
149.6419698650
31
0.0000000000
11
-59.4945260496
21
149.6430424555
31
0.0000000000
0
SPLINE
5
35F
100
AcDbEntity
8
0
100
AcDbSpline
62
9
6
CONTINUOUS
70
0
71
3
72
12
73
8
74
6
42
0.0000001000
43
0.0000001000
44
0.0000000001
12
0.0000000402
22
-0.2481769191
32
0.0000000000
13
-0.0000000830
23
-0.2481769191
33
0.0000000000
40
0.0000000000
40
0.0000000000
40
0.0000000000
40
0.0000000000
40
0.1005484461
40
0.2392339420
40
0.4272491127
40
0.6764381929
40
1.0000000000
40
1.0000000000
40
1.0000000000
40
1.0000000000
10
-59.1893809309
20
149.9748618690
30
0.0000000000
10
-59.1893809295
20
149.9665439345
30
0.0000000000
10
-59.1893809326
20
149.9467531536
30
0.0000000000
10
-59.1893809278
20
149.9114086974
30
0.0000000000
10
-59.1893809318
20
149.8637678497
30
0.0000000000
10
-59.1893809361
20
149.8008329909
30
0.0000000000
10
-59.1893809219
20
149.7534518074
30
0.0000000000
10
-59.1893809309
20
149.7266849499
30
0.0000000000
11
-59.1893809309
21
149.9748618690
31
0.0000000000
11
-59.1893809311
21
149.9499080655
31
0.0000000000
11
-59.1893809294
21
149.9154895263
31
0.0000000000
11
-59.1893809313
21
149.8688285005
31
0.0000000000
11
-59.1893809324
21
149.8069855223
31
0.0000000000
11
-59.1893809309
21
149.7266849499
31
0.0000000000
0
SPLINE
5
360
100
AcDbEntity
8
0
100
AcDbSpline
62
9
6
CONTINUOUS
70
0
71
3
72
14
73
10
74
8
42
0.0000001000
43
0.0000001000
44
0.0000000001
12
-0.1022860762
22
0.0124369244
32
0.0000000000
13
0.0002474778
23
-0.1030391053
33
0.0000000000
40
0.0000000000
40
0.0000000000
40
0.0000000000
40
0.0000000000
40
0.1614060718
40
0.3347621391
40
0.5142394507
40
0.6893348921
40
0.8429827303
40
0.9520038950
40
1.0000000000
40
1.0000000000
40
1.0000000000
40
1.0000000000
10
-59.0876658913
20
149.9748618690
30
0.0000000000
10
-59.0931690892
20
149.9755310007
30
0.0000000000
10
-59.1045997524
20
149.9768070518
30
0.0000000000
10
-59.1221767425
20
149.9784056807
30
0.0000000000
10
-59.1403300411
20
149.9795607697
30
0.0000000000
10
-59.1575833359
20
149.9801763659
30
0.0000000000
10
-59.1732163335
20
149.9796624638
30
0.0000000000
10
-59.1825493773
20
149.9789372145
30
0.0000000000
10
-59.1893848902
20
149.9765103609
30
0.0000000000
10
-59.1893809309
20
149.9748618690
30
0.0000000000
11
-59.0876658913
21
149.9748618690
31
0.0000000000
11
-59.1041944305
21
149.9767067847
31
0.0000000000
11
-59.1219850036
21
149.9783082263
31
0.0000000000
11
-59.1404409747
21
149.9794816274
31
0.0000000000
11
-59.1584758224
21
149.9799799024
31
0.0000000000
11
-59.1743005024
21
149.9795057670
31
0.0000000000
11
-59.1854039465
21
149.9778015062
31
0.0000000000
11
-59.1893809309
21
149.9748618690
31
0.0000000000
0
SPLINE
5
361
100
AcDbEntity
8
0
100
AcDbSpline
62
9
6
CONTINUOUS
70
0
71
3
72
10
73
6
74
4
42
0.0000001000
43
0.0000001000
44
0.0000000001
12
-0.0000000011
22
-0.0084211513
32
0.0000000000
13
-0.0000000040
23
-0.0084211513
33
0.0000000000
40
0.0000000000
40
0.0000000000
40
0.0000000000
40
0.0000000000
40
0.1109954972
40
0.4447521893
40
1.0000000000
40
1.0000000000
40
1.0000000000
40
1.0000000000
10
-57.6636553372
20
149.6514636068
30
0.0000000000
10
-57.6636553373
20
149.6511520368
30
0.0000000000
10
-57.6636553375
20
149.6499035950
30
0.0000000000
10
-57.6636553380
20
149.6470965446
30
0.0000000000
10
-57.6636553365
20
149.6446010641
30
0.0000000000
10
-57.6636553372
20
149.6430424555
30
0.0000000000
11
-57.6636553372
21
149.6514636068
31
0.0000000000
11
-57.6636553374
21
149.6505288969
31
0.0000000000
11
-57.6636553376
21
149.6477182813
31
0.0000000000
11
-57.6636553372
21
149.6430424555
31
0.0000000000
0
SPLINE
5
362
100
AcDbEntity
8
0
100
AcDbSpline
62
9
6
CONTINUOUS
70
0
71
3
72
12
73
8
74
6
42
0.0000001000
43
0.0000001000
44
0.0000000001
12
-1.0911187217
22
0.3562227291
32
0.0000000000
13
-1.1394049461
23
0.1385318241
33
0.0000000000
40
0.0000000000
40
0.0000000000
40
0.0000000000
40
0.0000000000
40
0.2220767843
40
0.4263822369
40
0.6251590283
40
0.8222368415
40
1.0000000000
40
1.0000000000
40
1.0000000000
40
1.0000000000
10
-57.9688004560
20
149.7266849499
30
0.0000000000
10
-58.0495711683
20
149.7530545493
30
0.0000000000
10
-58.2057650139
20
149.8003394943
30
0.0000000000
10
-58.4374237623
20
149.8601031160
30
0.0000000000
10
-58.6618994335
20
149.9087145769
30
0.0000000000
10
-58.8780737559
20
149.9468803888
30
0.0000000000
10
-59.0201511506
20
149.9666532508
30
0.0000000000
10
-59.0876658913
20
149.9748618690
30
0.0000000000
11
-57.9688004560
21
149.7266849499
31
0.0000000000
11
-58.2127650547
21
149.8005405405
31
0.0000000000
11
-58.4398314445
21
149.8591197583
31
0.0000000000
11
-58.6628178649
21
149.9074086433
31
0.0000000000
11
-58.8855778095
21
149.9467371152
31
0.0000000000
11
-59.0876658913
21
149.9748618690
31
0.0000000000
0
SPLINE
5
363
100
AcDbEntity
8
0
100
AcDbSpline
62
9
6
CONTINUOUS
70
0
71
3
72
10
73
6
74
4
42
0.0000001000
43
0.0000001000
44
0.0000000001
12
0.0000305523
22
-0.0705416368
32
0.0000000000
13
-0.0710873922
23
0.0193144344
33
0.0000000000
40
0.0000000000
40
0.0000000000
40
0.0000000000
40
0.0000000000
40
0.1406318942
40
0.5591741542
40
1.0000000000
40
1.0000000000
40
1.0000000000
40
1.0000000000
10
-57.6636553372
20
149.6430424555
30
0.0000000000
10
-57.6636539050
20
149.6397356541
30
0.0000000000
10
-57.6847487999
20
149.6448552872
30
0.0000000000
10
-57.7016232058
20
149.6469672396
30
0.0000000000
10
-57.7214514497
20
149.6520195320
30
0.0000000000
10
-57.7318971696
20
149.6548576326
30
0.0000000000
11
-57.6636553372
21
149.6430424555
31
0.0000000000
11
-57.6735271425
21
149.6420616929
31
0.0000000000
11
-57.7025107443
21
149.6476880863
31
0.0000000000
11
-57.7318971696
21
149.6548576326
31
0.0000000000
0
SPLINE
5
364
100
AcDbEntity
8
0
100
AcDbSpline
62
9
6
CONTINUOUS
70
0
71
3
72
11
73
7
74
5
42
0.0000001000
43
0.0000001000
44
0.0000000001
12
-0.2486304027
22
0.0675528451
32
0.0000000000
13
-0.2345404016
23
0.0765660645
33
0.0000000000
40
0.0000000000
40
0.0000000000
40
0.0000000000
40
0.0000000000
40
0.0697732047
40
0.3340318270
40
0.6507837916
40
1.0000000000
40
1.0000000000
40
1.0000000000
40
1.0000000000
10
-57.7318971696
20
149.6548576326
30
0.0000000000
10
-57.7376797496
20
149.6564287587
30
0.0000000000
10
-57.7657659968
20
149.6643119320
30
0.0000000000
10
-57.8157035664
20
149.6784568352
30
0.0000000000
10
-57.8894982008
20
149.7011494510
30
0.0000000000
10
-57.9414986860
20
149.7177722463
30
0.0000000000
10
-57.9688004560
20
149.7266849499
30
0.0000000000
11
-57.7318971696
21
149.6548576326
31
0.0000000000
11
-57.7493060742
21
149.6596948838
31
0.0000000000
11
-57.8119874401
21
149.6776355366
31
0.0000000000
11
-57.8867349259
21
149.7004427106
31
0.0000000000
11
-57.9688004560
21
149.7266849499
31
0.0000000000
0
SPLINE
5
365
100
AcDbEntity
8
0
100
AcDbSpline
62
9
6
CONTINUOUS
70
0
71
3
72
9
73
5
74
3
42
0.0000001000
43
0.0000001000
44
0.0000000001
12
-0.0385583277
22
0.0148674323
32
0.0000000000
13
-0.0415816152
23
-0.0019562143
33
0.0000000000
40
0.0000000000
40
0.0000000000
40
0.0000000000
40
0.0000000000
40
0.9326375344
40
1.0000000000
40
1.0000000000
40
1.0000000000
40
1.0000000000
10
-57.6636584083
20
149.6430345148
30
0.0000000000
10
-57.6756453896
20
149.6476564900
30
0.0000000000
10
-57.6896130396
20
149.6501277050
30
0.0000000000
10
-57.7034851093
20
149.6496716078
30
0.0000000000
10
-57.7044187894
20
149.6496276827
30
0.0000000000
11
-57.6636584083
21
149.6430345148
31
0.0000000000
11
-57.7016157620
21
149.6497197722
31
0.0000000000
11
-57.7044187894
21
149.6496276827
31
0.0000000000
0
SPLINE
5
366
100
AcDbEntity
8
0
100
AcDbSpline
62
9
6
CONTINUOUS
70
0
71
3
72
11
73
7
74
5
42
0.0000001000
43
0.0000001000
44
0.0000000001
12
-0.1364282044
22
0.0140105337
32
0.0000000000
13
-0.0395342535
23
-0.1327328489
33
0.0000000000
40
0.0000000000
40
0.0000000000
40
0.0000000000
40
0.0000000000
40
0.3028818956
40
0.6052345461
40
0.9066924769
40
1.0000000000
40
1.0000000000
40
1.0000000000
40
1.0000000000
10
-59.1893809323
20
149.9748618552
30
0.0000000000
10
-59.2031548100
20
149.9762763676
30
0.0000000000
10
-59.2316147296
20
149.9733037684
30
0.0000000000
10
-59.2685663729
20
149.9520499112
30
0.0000000000
10
-59.2879619279
20
149.9256148808
30
0.0000000000
10
-59.2942965744
20
149.9084800256
30
0.0000000000
10
-59.2955261888
20
149.9043517011
30
0.0000000000
11
-59.1893809323
21
149.9748618552
31
0.0000000000
11
-59.2306894588
21
149.9704925744
31
0.0000000000
11
-59.2666449505
21
149.9498367579
31
0.0000000000
11
-59.2910423268
21
149.9164591187
31
0.0000000000
11
-59.2955261888
21
149.9043517011
31
0.0000000000
0
SPLINE
5
367
100
AcDbEntity
8
0
100
AcDbSpline
62
9
6
CONTINUOUS
70
0
71
3
72
8
73
4
74
2
42
0.0000001000
43
0.0000001000
44
0.0000000001
12
-0.0033860998
22
-0.0113685382
32
0.0000000000
13
-0.0020145149
23
-0.0116653788
33
0.0000000000
40
0.0000000000
40
0.0000000000
40
0.0000000000
40
0.0000000000
40
1.0000000000
40
1.0000000000
40
1.0000000000
40
1.0000000000
10
-59.2955261888
20
149.9043517011
30
0.0000000000
10
-59.2966548888
20
149.9005621884
30
0.0000000000
10
-59.2975580640
20
149.8967067029
30
0.0000000000
10
-59.2982295689
20
149.8928182433
30
0.0000000000
11
-59.2955261888
21
149.9043517011
31
0.0000000000
11
-59.2982295689
21
149.8928182433
31
0.0000000000
0
SPLINE
5
368
100
AcDbEntity
8
0
100
AcDbSpline
62
9
6
CONTINUOUS
70
0
71
3
72
8
73
4
74
2
42
0.0000001000
43
0.0000001000
44
0.0000000001
12
-0.0006855855
22
-0.0039699952
32
0.0000000000
13
-0.0005238670
23
-0.0039890075
33
0.0000000000
40
0.0000000000
40
0.0000000000
40
0.0000000000
40
0.0000000000
40
1.0000000000
40
1.0000000000
40
1.0000000000
40
1.0000000000
10
-59.2982295689
20
149.8928182433
30
0.0000000000
10
-59.2984580974
20
149.8914949116
30
0.0000000000
10
-59.2986597940
20
149.8901677608
30
0.0000000000
10
-59.2988344163
20
149.8888380917
30
0.0000000000
11
-59.2982295689
21
149.8928182433
31
0.0000000000
11
-59.2988344163
21
149.8888380917
31
0.0000000000
0
SPLINE
5
369
100
AcDbEntity
8
0
100
AcDbSpline
62
9
6
CONTINUOUS
70
0
71
3
72
8
73
4
74
2
42
0.0000001000
43
0.0000001000
44
0.0000000001
12
-0.0016657154
22
-0.0126836605
32
0.0000000000
13
-0.0000000018
23
-0.0127109900
33
0.0000000000
40
0.0000000000
40
0.0000000000
40
0.0000000000
40
0.0000000000
40
1.0000000000
40
1.0000000000
40
1.0000000000
40
1.0000000000
10
-59.2988344163
20
149.8888380917
30
0.0000000000
10
-59.2993896547
20
149.8846102048
30
0.0000000000
10
-59.2996711678
20
149.8803568567
30
0.0000000000
10
-59.2996711684
20
149.8761198601
30
0.0000000000
11
-59.2988344163
21
149.8888380917
31
0.0000000000
11
-59.2996711684
21
149.8761198601
31
0.0000000000
0
SPLINE
5
36A
100
AcDbEntity
8
0
100
AcDbSpline
62
9
6
CONTINUOUS
70
0
71
3
72
10
73
6
74
4
42
0.0000001000
43
0.0000001000
44
0.0000000001
12
-0.1210365973
22
0.0119148569
32
0.0000000000
13
-0.0533106822
23
-0.1105467502
33
0.0000000000
40
0.0000000000
40
0.0000000000
40
0.0000000000
40
0.0000000000
40
0.3413955304
40
0.6788235121
40
1.0000000000
40
1.0000000000
40
1.0000000000
40
1.0000000000
10
-59.1893814095
20
149.7266805565
30
0.0000000000
10
-59.2031551939
20
149.7280364494
30
0.0000000000
10
-59.2313963185
20
149.7252351974
30
0.0000000000
10
-59.2679328108
20
149.7052723323
30
0.0000000000
10
-59.2848439299
20
149.6836410981
30
0.0000000000
10
-59.2905513091
20
149.6718060925
30
0.0000000000
11
-59.1893814095
21
149.7266805565
31
0.0000000000
11
-59.2306914767
21
149.7224998150
31
0.0000000000
11
-59.2666492603
21
149.7027210448
31
0.0000000000
11
-59.2905513091
21
149.6718060925
31
0.0000000000
0
SPLINE
5
36B
100
AcDbEntity
8
0
100
AcDbSpline
62
9
6
CONTINUOUS
70
0
71
3
72
10
73
6
74
4
42
0.0000001000
43
0.0000001000
44
0.0000000001
12
0.1210105791
22
0.0119005592
32
0.0000000000
13
0.0533247757
23
-0.1105085263
33
0.0000000000
40
0.0000000000
40
0.0000000000
40
0.0000000000
40
0.0000000000
40
0.3414622253
40
0.6789559621
40
1.0000000000
40
1.0000000000
40
1.0000000000
40
1.0000000000
10
-60.4099613986
20
149.7266848834
30
0.0000000000
10
-60.3961878847
20
149.7280394139
30
0.0000000000
10
-60.3679479207
20
149.7252358736
30
0.0000000000
10
-60.3314209887
20
149.7052752436
30
0.0000000000
10
-60.3145141780
20
149.6836529716
30
0.0000000000
10
-60.3088076442
20
149.6718269371
30
0.0000000000
11
-60.4099613986
21
149.7266848834
31
0.0000000000
11
-60.3686528870
21
149.7225007696
31
0.0000000000
11
-60.3326974049
21
149.7027203345
31
0.0000000000
11
-60.3088076442
21
149.6718269371
31
0.0000000000
0
SPLINE
5
36C
100
AcDbEntity
8
0
100
AcDbSpline
62
9
6
CONTINUOUS
70
0
71
3
72
11
73
7
74
5
42
0.0000001000
43
0.0000001000
44
0.0000000001
12
0.1647257712
22
0.0169074676
32
0.0000000000
13
0.0000024998
23
-0.1655911898
33
0.0000000000
40
0.0000000000
40
0.0000000000
40
0.0000000000
40
0.0000000000
40
0.2508328946
40
0.5012304873
40
0.7508912799
40
1.0000000000
40
1.0000000000
40
1.0000000000
40
1.0000000000
10
-60.4099613957
20
149.9748617715
30
0.0000000000
10
-60.3961885150
20
149.9762754212
30
0.0000000000
10
-60.3677308108
20
149.9733014379
30
0.0000000000
10
-60.3307827320
20
149.9520470110
30
0.0000000000
10
-60.3056171543
20
149.9177452096
30
0.0000000000
10
-60.2996809158
20
149.8898699295
30
0.0000000000
10
-60.2996807082
20
149.8761198597
30
0.0000000000
11
-60.4099613957
21
149.9748617715
31
0.0000000000
11
-60.3686563301
21
149.9704905723
31
0.0000000000
11
-60.3327042396
21
149.9498343325
31
0.0000000000
11
-60.3083091328
21
149.9164575600
31
0.0000000000
11
-60.2996807082
21
149.8761198597
31
0.0000000000
0
SPLINE
5
36D
100
AcDbEntity
8
0
100
AcDbSpline
62
9
6
CONTINUOUS
70
0
71
3
72
9
73
5
74
3
42
0.0000001000
43
0.0000001000
44
0.0000000001
12
0.0385822683
22
0.0148726601
32
0.0000000000
13
0.0416051680
23
-0.0019714101
33
0.0000000000
40
0.0000000000
40
0.0000000000
40
0.0000000000
40
0.0000000000
40
0.9320597385
40
1.0000000000
40
1.0000000000
40
1.0000000000
40
1.0000000000
10
-61.9356869976
20
149.6430424505
30
0.0000000000
10
-61.9237000046
20
149.6476631864
30
0.0000000000
10
-61.9097239884
20
149.6501346926
30
0.0000000000
10
-61.8958438926
20
149.6496754324
30
0.0000000000
10
-61.8949016706
20
149.6496307863
30
0.0000000000
11
-61.9356869976
21
149.6430424505
31
0.0000000000
11
-61.8977303701
21
149.6497243088
31
0.0000000000
11
-61.8949016706
21
149.6496307863
31
0.0000000000
0
SPLINE
5
36E
100
AcDbEntity
8
0
100
AcDbSpline
62
7
6
CONTINUOUS
70
0
71
3
72
16
73
12
74
10
42
0.0000001000
43
0.0000001000
44
0.0000000001
12
0.0289744044
22
-0.2588793067
32
0.0000000000
13
0.2571086795
23
0.0312684163
33
0.0000000000
40
0.0000000000
40
0.0000000000
40
0.0000000000
40
0.0000000000
40
0.0950980898
40
0.2223386279
40
0.3380988178
40
0.4476222810
40
0.5468622451
40
0.6466093114
40
0.7654231273
40
0.9093720201
40
1.0000000000
40
1.0000000000
40
1.0000000000
40
1.0000000000
10
-274.2990325995
20
-350.7883861255
30
0.0000000000
10
-274.2981141293
20
-350.7965924347
30
0.0000000000
10
-274.2936363656
20
-350.8155893713
30
0.0000000000
10
-274.2789165578
20
-350.8413537428
30
0.0000000000
10
-274.2561946515
20
-350.8622533862
30
0.0000000000
10
-274.2308259007
20
-350.8749148760
30
0.0000000000
10
-274.2046809773
20
-350.8808370084
30
0.0000000000
10
-274.1772424427
20
-350.8825459980
30
0.0000000000
10
-274.1459368121
20
-350.8818695568
30
0.0000000000
10
-274.1155044047
20
-350.8795843996
30
0.0000000000
10
-274.0953687064
20
-350.8773942164
30
0.0000000000
10
-274.0876016263
20
-350.8764496186
30
0.0000000000
11
-274.2990325995
21
-350.7883861255
31
0.0000000000
11
-274.2933319946
21
-350.8124673257
31
0.0000000000
11
-274.2770230638
21
-350.8411014115
31
0.0000000000
11
-274.2549767200
21
-350.8614174210
31
0.0000000000
11
-274.2296443150
21
-350.8741772662
31
0.0000000000
11
-274.2046451030
21
-350.8801433558
31
0.0000000000
11
-274.1788877657
21
-350.8821137201
31
0.0000000000
11
-274.1481204590
21
-350.8816693067
31
0.0000000000
11
-274.1109371263
21
-350.8789860537
31
0.0000000000
11
-274.0876016263
21
-350.8764496186
31
0.0000000000
0
SPLINE
5
36F
100
AcDbEntity
8
0
100
AcDbSpline
62
7
6
CONTINUOUS
70
0
71
3
72
17
73
13
74
11
42
0.0000001000
43
0.0000001000
44
0.0000000001
12
0.2409615793
22
0.0786737289
32
0.0000000000
13
0.2508541122
23
0.0616341786
33
0.0000000000
40
0.0000000000
40
0.0000000000
40
0.0000000000
40
0.0000000000
40
0.1257174119
40
0.2559316030
40
0.3801033766
40
0.4973284206
40
0.6067933816
40
0.7076507114
40
0.7992778858
40
0.8810031933
40
0.9522887015
40
1.0000000000
40
1.0000000000
40
1.0000000000
40
1.0000000000
10
-272.9686367255
20
-350.6282456360
30
0.0000000000
10
-272.9585390368
20
-350.6249487501
30
0.0000000000
10
-272.9379667503
20
-350.6182852271
30
0.0000000000
10
-272.9073669467
20
-350.6085331173
30
0.0000000000
10
-272.8774043054
20
-350.5991453510
30
0.0000000000
10
-272.8490695847
20
-350.5904292478
30
0.0000000000
10
-272.8225705616
20
-350.5824387986
30
0.0000000000
10
-272.7981025725
20
-350.5752337383
30
0.0000000000
10
-272.7758104500
20
-350.5688477209
30
0.0000000000
10
-272.7559576862
20
-350.5633180951
30
0.0000000000
10
-272.7393923697
20
-350.5589259309
30
0.0000000000
10
-272.7299673677
20
-350.5564787462
30
0.0000000000
10
-272.7259778426
20
-350.5554985306
30
0.0000000000
11
-272.9686367255
21
-350.6282456360
31
0.0000000000
11
-272.9383206807
21
-350.6184257658
31
0.0000000000
11
-272.9068721670
21
-350.6084043597
31
0.0000000000
11
-272.8768359924
21
-350.5989967099
31
0.0000000000
11
-272.8484341795
21
-350.5902635803
31
0.0000000000
11
-272.8218666702
21
-350.5822591826
31
0.0000000000
11
-272.7973407511
21
-350.5750437718
31
0.0000000000
11
-272.7750124559
21
-350.5686503174
31
0.0000000000
11
-272.7550503724
21
-350.5631136145
31
0.0000000000
11
-272.7375888041
21
-350.5584663120
31
0.0000000000
11
-272.7259778426
21
-350.5554985306
31
0.0000000000
0
SPLINE
5
370
100
AcDbEntity
8
0
100
AcDbSpline
62
7
6
CONTINUOUS
70
0
71
3
72
11
73
7
74
5
42
0.0000001000
43
0.0000001000
44
0.0000000001
12
0.0254898087
22
0.0062627772
32
0.0000000000
13
0.0387715112
23
0.0062176843
33
0.0000000000
40
0.0000000000
40
0.0000000000
40
0.0000000000
40
0.0000000000
40
0.1248469644
40
0.5993276583
40
0.9394943737
40
1.0000000000
40
1.0000000000
40
1.0000000000
40
1.0000000000
10
-272.7259778426
20
-350.5554985306
30
0.0000000000
10
-272.7249170675
20
-350.5552379010
30
0.0000000000
10
-272.7197533415
20
-350.5539870796
30
0.0000000000
10
-272.7109347049
20
-350.5520123593
30
0.0000000000
10
-272.7064415668
20
-350.5507715028
30
0.0000000000
10
-272.7005959717
20
-350.5498446600
30
0.0000000000
10
-272.6998140068
20
-350.5497192584
30
0.0000000000
11
-272.7259778426
21
-350.5554985306
31
0.0000000000
11
-272.7227456944
21
-350.5547163932
31
0.0000000000
11
-272.7108491453
21
-350.5519190784
31
0.0000000000
11
-272.7022750679
21
-350.5501164048
31
0.0000000000
11
-272.6998140068
21
-350.5497192584
31
0.0000000000
0
SPLINE
5
371
100
AcDbEntity
8
0
100
AcDbSpline
62
7
6
CONTINUOUS
70
0
71
3
72
10
73
6
74
4
42
0.0000001000
43
0.0000001000
44
0.0000000001
12
1.1394054503
22
0.1385357645
32
0.0000000000
13
1.0911165306
23
0.3562186596
33
0.0000000000
40
0.0000000000
40
0.0000000000
40
0.0000000000
40
0.0000000000
40
0.3242326341
40
0.6737101514
40
1.0000000000
40
1.0000000000
40
1.0000000000
40
1.0000000000
10
-274.0876018287
20
-350.8764479489
30
0.0000000000
10
-273.9644576852
20
-350.8614753436
30
0.0000000000
10
-273.7094887194
20
-350.8222809606
30
0.0000000000
10
-273.3357100673
20
-350.7394511937
30
0.0000000000
10
-273.0873091398
20
-350.6669922152
30
0.0000000000
10
-272.9686357239
20
-350.6282487044
30
0.0000000000
11
-274.0876018287
21
-350.8764479489
31
0.0000000000
11
-273.7197724738
21
-350.8199027612
31
0.0000000000
11
-273.3281626916
21
-350.7331215496
31
0.0000000000
11
-272.9686357239
21
-350.6282487044
31
0.0000000000
0
SPLINE
5
372
100
AcDbEntity
8
0
100
AcDbSpline
62
7
6
CONTINUOUS
70
0
71
3
72
8
73
4
74
2
42
0.0000001000
43
0.0000001000
44
0.0000000001
12
0.0000045224
22
-0.0112105483
32
0.0000000000
13
0.0012537431
23
-0.0111931650
33
0.0000000000
40
0.0000000000
40
0.0000000000
40
0.0000000000
40
0.0000000000
40
1.0000000000
40
1.0000000000
40
1.0000000000
40
1.0000000000
10
-274.2996611782
20
-350.7771701179
30
0.0000000000
10
-274.2996596707
20
-350.7809069673
30
0.0000000000
10
-274.2994478274
20
-350.7846547690
30
0.0000000000
10
-274.2990299130
20
-350.7883858240
30
0.0000000000
11
-274.2996611782
21
-350.7771701179
31
0.0000000000
11
-274.2990299130
21
-350.7883858240
31
0.0000000000
0
SPLINE
5
373
100
AcDbEntity
8
0
100
AcDbSpline
62
7
6
CONTINUOUS
70
0
71
3
72
13
73
9
74
7
42
0.0000001000
43
0.0000001000
44
0.0000000001
12
0.0186732971
22
-0.1667114088
32
0.0000000000
13
0.1668252168
23
-0.0043654261
33
0.0000000000
40
0.0000000000
40
0.0000000000
40
0.0000000000
40
0.0000000000
40
0.1475633507
40
0.3441968187
40
0.5230475999
40
0.6926499719
40
0.8460445029
40
1.0000000000
40
1.0000000000
40
1.0000000000
40
1.0000000000
10
-274.2990299129
20
-350.7883858246
30
0.0000000000
10
-274.2981114148
20
-350.7965859893
30
0.0000000000
10
-274.2936471725
20
-350.8155244821
30
0.0000000000
10
-274.2790077603
20
-350.8412037032
30
0.0000000000
10
-274.2564378831
20
-350.8620716844
30
0.0000000000
10
-274.2312165423
20
-350.8747688854
30
0.0000000000
10
-274.2052064140
20
-350.8807622703
30
0.0000000000
10
-274.1881181764
20
-350.8818724489
30
0.0000000000
10
-274.1795569566
20
-350.8820964760
30
0.0000000000
11
-274.2990299129
21
-350.7883858246
31
0.0000000000
11
-274.2933334874
21
-350.8124495789
31
0.0000000000
11
-274.2771284215
21
-350.8409634495
31
0.0000000000
11
-274.2552424382
21
-350.8612339347
31
0.0000000000
11
-274.2300210865
21
-350.8740448329
31
0.0000000000
11
-274.2051555023
21
-350.8800697347
31
0.0000000000
11
-274.1795569566
21
-350.8820964760
31
0.0000000000
0
SPLINE
5
374
100
AcDbEntity
8
0
100
AcDbSpline
62
7
6
CONTINUOUS
70
0
71
3
72
8
73
4
74
2
42
0.0000001000
43
0.0000001000
44
0.0000000001
12
0.0304850193
22
-0.0007977217
32
0.0000000000
13
0.0304535634
23
0.0013443544
33
0.0000000000
40
0.0000000000
40
0.0000000000
40
0.0000000000
40
0.0000000000
40
1.0000000000
40
1.0000000000
40
1.0000000000
40
1.0000000000
10
-274.1795569566
20
-350.8820964760
30
0.0000000000
10
-274.1693952836
20
-350.8823623833
30
0.0000000000
10
-274.1592314882
20
-350.8821604522
30
0.0000000000
10
-274.1490803003
20
-350.8817123341
30
0.0000000000
11
-274.1795569566
21
-350.8820964760
31
0.0000000000
11
-274.1490803003
21
-350.8817123341
31
0.0000000000
0
SPLINE
5
375
100
AcDbEntity
8
0
100
AcDbSpline
62
7
6
CONTINUOUS
70
0
71
3
72
9
73
5
74
3
42
0.0000001000
43
0.0000001000
44
0.0000000001
12
0.0616600254
22
0.0027219451
32
0.0000000000
13
0.0612650701
23
0.0074519145
33
0.0000000000
40
0.0000000000
40
0.0000000000
40
0.0000000000
40
0.0000000000
40
0.5991729697
40
1.0000000000
40
1.0000000000
40
1.0000000000
40
1.0000000000
10
-274.1490803003
20
-350.8817123341
30
0.0000000000
10
-274.1367652935
20
-350.8811686954
30
0.0000000000
10
-274.1162429199
20
-350.8796566683
30
0.0000000000
10
-274.0957872222
20
-350.8774450079
30
0.0000000000
10
-274.0876016568
20
-350.8764493649
30
0.0000000000
11
-274.1490803003
21
-350.8817123341
31
0.0000000000
11
-274.1121963276
21
-350.8791055897
31
0.0000000000
11
-274.0876016568
21
-350.8764493649
31
0.0000000000
0
SPLINE
5
376
100
AcDbEntity
8
0
100
AcDbSpline
62
7
6
CONTINUOUS
70
0
71
3
72
8
73
4
74
2
42
0.0000001000
43
0.0000001000
44
0.0000000001
12
0.0121258853
22
0.0006742997
32
0.0000000000
13
0.0121403917
23
0.0004857074
33
0.0000000000
40
0.0000000000
40
0.0000000000
40
0.0000000000
40
0.0000000000
40
1.0000000000
40
1.0000000000
40
1.0000000000
40
1.0000000000
10
-274.4941568577
20
-350.5507855613
30
0.0000000000
10
-274.4901148960
20
-350.5505607947
30
0.0000000000
10
-274.4860705495
20
-350.5503671218
30
0.0000000000
10
-274.4820237522
20
-350.5502052193
30
0.0000000000
11
-274.4941568577
21
-350.5507855613
31
0.0000000000
11
-274.4820237522
21
-350.5502052193
31
0.0000000000
0
SPLINE
5
377
100
AcDbEntity
8
0
100
AcDbSpline
62
7
6
CONTINUOUS
70
0
71
3
72
8
73
4
74
2
42
0.0000001000
43
0.0000001000
44
0.0000000001
12
0.0226721203
22
0.0009070561
32
0.0000000000
13
0.0227246917
23
0.0002290275
33
0.0000000000
40
0.0000000000
40
0.0000000000
40
0.0000000000
40
0.0000000000
40
1.0000000000
40
1.0000000000
40
1.0000000000
40
1.0000000000
10
-274.4820237522
20
-350.5502052193
30
0.0000000000
10
-274.4744663788
20
-350.5499028673
30
0.0000000000
10
-274.4669004584
20
-350.5497113160
30
0.0000000000
10
-274.4593255611
20
-350.5496349735
30
0.0000000000
11
-274.4820237522
21
-350.5502052193
31
0.0000000000
11
-274.4593255611
21
-350.5496349735
31
0.0000000000
0
SPLINE
5
378
100
AcDbEntity
8
0
100
AcDbSpline
62
7
6
CONTINUOUS
70
0
71
3
72
11
73
7
74
5
42
0.0000001000
43
0.0000001000
44
0.0000000001
12
0.1625355335
22
0.0016380908
32
0.0000000000
13
0.1430045884
23
-0.0452983136
33
0.0000000000
40
0.0000000000
40
0.0000000000
40
0.0000000000
40
0.0000000000
40
0.3921400466
40
0.7167710143
40
0.9507098624
40
1.0000000000
40
1.0000000000
40
1.0000000000
40
1.0000000000
10
-274.4593255611
20
-350.5496349735
30
0.0000000000
10
-274.4380799973
20
-350.5494208531
30
0.0000000000
10
-274.3991173348
20
-350.5506860377
30
0.0000000000
10
-274.3487501130
20
-350.5560224427
30
0.0000000000
10
-274.3150765367
20
-350.5647034674
30
0.0000000000
10
-274.3019078779
20
-350.5681631919
30
0.0000000000
10
-274.2995583060
20
-350.5689074453
30
0.0000000000
11
-274.4593255611
21
-350.5496349735
31
0.0000000000
11
-274.3957437079
21
-350.5516307279
31
0.0000000000
11
-274.3434890995
21
-350.5581669351
31
0.0000000000
11
-274.3065677048
21
-350.5669412832
31
0.0000000000
11
-274.2995583060
21
-350.5689074453
31
0.0000000000
0
SPLINE
5
379
100
AcDbEntity
8
0
100
AcDbSpline
62
7
6
CONTINUOUS
70
0
71
3
72
9
73
5
74
3
42
0.0000001000
43
0.0000001000
44
0.0000000001
12
0.0148819146
22
-0.0047140140
32
0.0000000000
13
0.0133048910
23
-0.0072041476
33
0.0000000000
40
0.0000000000
40
0.0000000000
40
0.0000000000
40
0.0000000000
40
0.8019985287
40
1.0000000000
40
1.0000000000
40
1.0000000000
40
1.0000000000
10
-274.2995583060
20
-350.5689074453
30
0.0000000000
10
-274.2955798814
20
-350.5701676561
30
0.0000000000
10
-274.2904124687
20
-350.5722472103
30
0.0000000000
10
-274.2839743028
20
-350.5761672079
30
0.0000000000
10
-274.2830961734
20
-350.5766426851
30
0.0000000000
11
-274.2995583060
21
-350.5689074453
31
0.0000000000
11
-274.2864740161
21
-350.5746870311
31
0.0000000000
11
-274.2830961734
21
-350.5766426851
31
0.0000000000
0
SPLINE
5
37A
100
AcDbEntity
8
0
100
AcDbSpline
62
7
6
CONTINUOUS
70
0
71
3
72
10
73
6
74
4
42
0.0000001000
43
0.0000001000
44
0.0000000001
12
0.6103836007
22
-0.0337145969
32
0.0000000000
13
0.6103822664
23
0.0337146560
33
0.0000000000
40
0.0000000000
40
0.0000000000
40
0.0000000000
40
0.0000000000
40
0.3162377785
40
0.6798529205
40
1.0000000000
40
1.0000000000
40
1.0000000000
40
1.0000000000
10
-275.1051862634
20
-350.5508022677
30
0.0000000000
10
-275.0408441455
20
-350.5543562108
30
0.0000000000
10
-274.9023751222
20
-350.5595833785
30
0.0000000000
10
-274.6985604094
20
-350.5596273081
30
0.0000000000
10
-274.5592934392
20
-350.5544001647
30
0.0000000000
10
-274.4941560725
20
-350.5508022818
30
0.0000000000
11
-275.1051862634
21
-350.5508022677
31
0.0000000000
11
-274.9120041491
21
-350.5580945678
31
0.0000000000
11
-274.6897275137
21
-350.5581425064
31
0.0000000000
11
-274.4941560725
21
-350.5508022818
31
0.0000000000
0
SPLINE
5
37B
100
AcDbEntity
8
0
100
AcDbSpline
62
7
6
CONTINUOUS
70
0
71
3
72
9
73
5
74
3
42
0.0000001000
43
0.0000001000
44
0.0000000001
12
0.0152042181
22
0.0087117897
32
0.0000000000
13
0.0143642103
23
0.0045149261
33
0.0000000000
40
0.0000000000
40
0.0000000000
40
0.0000000000
40
0.0000000000
40
0.1424866664
40
1.0000000000
40
1.0000000000
40
1.0000000000
40
1.0000000000
10
-275.3155993388
20
-350.5762543844
30
0.0000000000
10
-275.3148772061
20
-350.5758406131
30
0.0000000000
10
-275.3088091577
20
-350.5722039872
30
0.0000000000
10
-275.3038749075
20
-350.5702522368
30
0.0000000000
10
-275.2997690735
20
-350.5689617004
30
0.0000000000
11
-275.3155993388
21
-350.5762543844
31
0.0000000000
11
-275.3131709930
21
-350.5748384788
31
0.0000000000
11
-275.2997690735
21
-350.5689617004
31
0.0000000000
0
SPLINE
5
37C
100
AcDbEntity
8
0
100
AcDbSpline
62
7
6
CONTINUOUS
70
0
71
3
72
11
73
7
74
5
42
0.0000001000
43
0.0000001000
44
0.0000000001
12
0.1401325979
22
0.0440425303
32
0.0000000000
13
0.1595286702
23
-0.0010276725
33
0.0000000000
40
0.0000000000
40
0.0000000000
40
0.0000000000
40
0.0000000000
40
0.0438216188
40
0.2774879323
40
0.6034667719
40
1.0000000000
40
1.0000000000
40
1.0000000000
40
1.0000000000
10
-275.2997671671
20
-350.5689611012
30
0.0000000000
10
-275.2977202214
20
-350.5683177628
30
0.0000000000
10
-275.2849556362
20
-350.5648467784
30
0.0000000000
10
-275.2522560747
20
-350.5563513716
30
0.0000000000
10
-275.2025159458
20
-350.5508477102
30
0.0000000000
10
-275.1639795806
20
-350.5494691148
30
0.0000000000
10
-275.1428934411
20
-350.5496049502
30
0.0000000000
11
-275.2997671671
21
-350.5689611012
31
0.0000000000
11
-275.2936319398
21
-350.5672106103
31
0.0000000000
11
-275.2574695025
21
-350.5584628039
31
0.0000000000
11
-275.2059924811
21
-350.5518197275
31
0.0000000000
11
-275.1428934411
21
-350.5496049502
31
0.0000000000
0
SPLINE
5
37D
100
AcDbEntity
8
0
100
AcDbSpline
62
7
6
CONTINUOUS
70
0
71
3
72
8
73
4
74
2
42
0.0000001000
43
0.0000001000
44
0.0000000001
12
0.0377751027
22
-0.0002433446
32
0.0000000000
13
0.0376420626
23
-0.0020944388
33
0.0000000000
40
0.0000000000
40
0.0000000000
40
0.0000000000
40
0.0000000000
40
1.0000000000
40
1.0000000000
40
1.0000000000
40
1.0000000000
10
-275.1428934411
20
-350.5496049502
30
0.0000000000
10
-275.1303017402
20
-350.5496860651
30
0.0000000000
10
-275.1177327222
20
-350.5500854206
30
0.0000000000
10
-275.1051853681
20
-350.5507835669
30
0.0000000000
11
-275.1428934411
21
-350.5496049502
31
0.0000000000
11
-275.1051853681
21
-350.5507835669
31
0.0000000000
0
SPLINE
5
37E
100
AcDbEntity
8
0
100
AcDbSpline
62
7
6
CONTINUOUS
70
0
71
3
72
9
73
5
74
3
42
0.0000001000
43
0.0000001000
44
0.0000000001
12
0.0603938318
22
-0.0073448720
32
0.0000000000
13
0.0607785955
23
-0.0027725077
33
0.0000000000
40
0.0000000000
40
0.0000000000
40
0.0000000000
40
0.0000000000
40
0.3869911088
40
1.0000000000
40
1.0000000000
40
1.0000000000
40
1.0000000000
10
-275.5117407117
20
-350.8764496290
30
0.0000000000
10
-275.5039500864
20
-350.8773970957
30
0.0000000000
10
-275.4837868846
20
-350.8795894913
30
0.0000000000
10
-275.4635585391
20
-350.8811065417
30
0.0000000000
10
-275.4511392659
20
-350.8816730656
30
0.0000000000
11
-275.5117407117
21
-350.8764496290
31
0.0000000000
11
-275.4883343707
21
-350.8789928298
31
0.0000000000
11
-275.4511392659
21
-350.8816730656
31
0.0000000000
0
SPLINE
5
37F
100
AcDbEntity
8
0
100
AcDbSpline
62
7
6
CONTINUOUS
70
0
71
3
72
9
73
5
74
3
42
0.0000001000
43
0.0000001000
44
0.0000000001
12
0.0564442669
22
-0.0025747907
32
0.0000000000
13
0.0559810452
23
0.0080425123
33
0.0000000000
40
0.0000000000
40
0.0000000000
40
0.0000000000
40
0.0000000000
40
0.5438656546
40
1.0000000000
40
1.0000000000
40
1.0000000000
40
1.0000000000
10
-275.4511392659
20
-350.8816730656
30
0.0000000000
10
-275.4409065665
20
-350.8821398457
30
0.0000000000
10
-275.4220679477
20
-350.8825444489
30
0.0000000000
10
-275.4032337714
20
-350.8813697282
30
0.0000000000
10
-275.3947221456
20
-350.8801469062
30
0.0000000000
11
-275.4511392659
21
-350.8816730656
31
0.0000000000
11
-275.4204165251
21
-350.8821127973
31
0.0000000000
11
-275.3947221456
21
-350.8801469062
31
0.0000000000
0
SPLINE
5
380
100
AcDbEntity
8
0
100
AcDbSpline
62
7
6
CONTINUOUS
70
0
71
3
72
8
73
4
74
2
42
0.0000001000
43
0.0000001000
44
0.0000000001
12
0.0253563285
22
0.0036428149
32
0.0000000000
13
0.0242042291
23
0.0084543714
33
0.0000000000
40
0.0000000000
40
0.0000000000
40
0.0000000000
40
0.0000000000
40
1.0000000000
40
1.0000000000
40
1.0000000000
40
1.0000000000
10
-275.3947221456
20
-350.8801469062
30
0.0000000000
10
-275.3862700361
20
-350.8789326346
30
0.0000000000
10
-275.3778961106
20
-350.8770409451
30
0.0000000000
10
-275.3698280342
20
-350.8742228214
30
0.0000000000
11
-275.3947221456
21
-350.8801469062
31
0.0000000000
11
-275.3698280342
21
-350.8742228214
31
0.0000000000
0
SPLINE
5
381
100
AcDbEntity
8
0
100
AcDbSpline
62
7
6
CONTINUOUS
70
0
71
3
72
11
73
7
74
5
42
0.0000001000
43
0.0000001000
44
0.0000000001
12
0.1097795045
22
0.0383452287
32
0.0000000000
13
0.0129853403
23
0.1160160106
33
0.0000000000
40
0.0000000000
40
0.0000000000
40
0.0000000000
40
0.0000000000
40
0.2448027718
40
0.5034455926
40
0.7877064745
40
1.0000000000
40
1.0000000000
40
1.0000000000
40
1.0000000000
10
-275.3698280342
20
-350.8742228214
30
0.0000000000
10
-275.3608699252
20
-350.8710938153
30
0.0000000000
10
-275.3432226746
20
-350.8623101165
30
0.0000000000
10
-275.3204545255
20
-350.8413965012
30
0.0000000000
10
-275.3057113955
20
-350.8156095689
30
0.0000000000
10
-275.3012286891
20
-350.7965963840
30
0.0000000000
10
-275.3003097879
20
-350.7883865680
30
0.0000000000
11
-275.3698280342
21
-350.8742228214
31
0.0000000000
11
-275.3444397154
21
-350.8614680154
31
0.0000000000
11
-275.3223510570
21
-350.8411406952
31
0.0000000000
11
-275.3060142179
21
-350.8124777767
31
0.0000000000
11
-275.3003097879
21
-350.7883865680
31
0.0000000000
0
SPLINE
5
382
100
AcDbEntity
8
0
100
AcDbSpline
62
7
6
CONTINUOUS
70
0
71
3
72
8
73
4
74
2
42
0.0000001000
43
0.0000001000
44
0.0000000001
12
0.0012512757
22
0.0111793772
32
0.0000000000
13
0.0000054201
23
0.0111967750
33
0.0000000000
40
0.0000000000
40
0.0000000000
40
0.0000000000
40
0.0000000000
40
1.0000000000
40
1.0000000000
40
1.0000000000
40
1.0000000000
10
-275.3003097879
20
-350.7883865680
30
0.0000000000
10
-275.2998926960
20
-350.7846601089
30
0.0000000000
10
-275.2996811385
20
-350.7809169519
30
0.0000000000
10
-275.2996793317
20
-350.7771846936
30
0.0000000000
11
-275.3003097879
21
-350.7883865680
31
0.0000000000
11
-275.2996793317
21
-350.7771846936
31
0.0000000000
0
SPLINE
5
383
100
AcDbEntity
8
0
100
AcDbSpline
62
7
6
CONTINUOUS
70
0
71
3
72
10
73
6
74
4
42
0.0000001000
43
0.0000001000
44
0.0000000001
12
1.0911208316
22
-0.3562194201
32
0.0000000000
13
1.1394011973
23
-0.1385349433
33
0.0000000000
40
0.0000000000
40
0.0000000000
40
0.0000000000
40
0.0000000000
40
0.3242092501
40
0.6736871094
40
1.0000000000
40
1.0000000000
40
1.0000000000
40
1.0000000000
10
-276.6307066053
20
-350.6282486761
30
0.0000000000
10
-276.5127894498
20
-350.6667452198
30
0.0000000000
10
-276.2651696016
20
-350.7390308648
30
0.0000000000
10
-275.8914244896
20
-350.8220118574
30
0.0000000000
10
-275.6356742750
20
-350.8613793826
30
0.0000000000
10
-275.5117405089
20
-350.8764479619
30
0.0000000000
11
-276.6307066053
21
-350.6282486761
31
0.0000000000
11
-276.2734921455
21
-350.7325254483
31
0.0000000000
11
-275.8819171349
21
-350.8194652355
31
0.0000000000
11
-275.5117405089
21
-350.8764479619
31
0.0000000000
0
SPLINE
5
384
100
AcDbEntity
8
0
100
AcDbSpline
62
7
6
CONTINUOUS
70
0
71
3
72
8
73
4
74
2
42
0.0000001000
43
0.0000001000
44
0.0000000001
12
-0.0000338558
22
-0.0001072465
32
0.0000000000
13
0.0041573908
23
-0.0006697597
33
0.0000000000
40
0.0000000000
40
0.0000000000
40
0.0000000000
40
0.0000000000
40
1.0000000000
40
1.0000000000
40
1.0000000000
40
1.0000000000
10
-276.9017474233
20
-350.5493126561
30
0.0000000000
10
-276.9017587085
20
-350.5493484050
30
0.0000000000
10
-276.9005532200
20
-350.5495421335
30
0.0000000000
10
-276.8991674231
20
-350.5497653868
30
0.0000000000
11
-276.9017474233
21
-350.5493126561
31
0.0000000000
11
-276.8991674231
21
-350.5497653868
31
0.0000000000
0
SPLINE
5
385
100
AcDbEntity
8
0
100
AcDbSpline
62
7
6
CONTINUOUS
70
0
71
3
72
11
73
7
74
5
42
0.0000001000
43
0.0000001000
44
0.0000000001
12
0.0393958245
22
-0.0063467055
32
0.0000000000
13
0.0252524804
23
-0.0062307611
33
0.0000000000
40
0.0000000000
40
0.0000000000
40
0.0000000000
40
0.0000000000
40
0.0437461440
40
0.3811931804
40
0.8487327780
40
1.0000000000
40
1.0000000000
40
1.0000000000
40
1.0000000000
10
-276.8991674231
20
-350.5497653868
30
0.0000000000
10
-276.8985929513
20
-350.5498579347
30
0.0000000000
10
-276.8933171473
20
-350.5507085858
30
0.0000000000
10
-276.8888145965
20
-350.5519133047
30
0.0000000000
10
-276.8799176098
20
-350.5539000064
30
0.0000000000
10
-276.8746301332
20
-350.5551830327
30
0.0000000000
10
-276.8733568423
20
-350.5554972027
30
0.0000000000
11
-276.8991674231
21
-350.5497653868
31
0.0000000000
11
-276.8974248871
21
-350.5500491009
31
0.0000000000
11
-276.8889390608
21
-350.5518217474
31
0.0000000000
11
-276.8772432581
21
-350.5545556063
31
0.0000000000
11
-276.8733568423
21
-350.5554972027
31
0.0000000000
0
SPLINE
5
386
100
AcDbEntity
8
0
100
AcDbSpline
62
7
6
CONTINUOUS
70
0
71
3
72
18
73
14
74
12
42
0.0000001000
43
0.0000001000
44
0.0000000001
12
0.2491589938
22
-0.0614771357
32
0.0000000000
13
0.2409641087
23
-0.0786527442
33
0.0000000000
40
0.0000000000
40
0.0000000000
40
0.0000000000
40
0.0000000000
40
0.0441584266
40
0.1147243445
40
0.1955767258
40
0.2863024203
40
0.3862697342
40
0.4948207329
40
0.6111644276
40
0.7344498212
40
0.8637745550
40
0.9980510664
40
1.0000000000
40
1.0000000000
40
1.0000000000
40
1.0000000000
10
-276.8733568423
20
-350.5554972027
30
0.0000000000
10
-276.8696893526
20
-350.5564021138
30
0.0000000000
10
-276.8605756732
20
-350.5587646075
30
0.0000000000
10
-276.8444423041
20
-350.5630327520
30
0.0000000000
10
-276.8247844438
20
-350.5684908534
30
0.0000000000
10
-276.8027091293
20
-350.5748102319
30
0.0000000000
10
-276.7784566452
20
-350.5819377185
30
0.0000000000
10
-276.7521710974
20
-350.5898482947
30
0.0000000000
10
-276.7240509980
20
-350.5984899425
30
0.0000000000
10
-276.6942998226
20
-350.6077999677
30
0.0000000000
10
-276.6631513001
20
-350.6177160759
30
0.0000000000
10
-276.6418040905
20
-350.6246234120
30
0.0000000000
10
-276.6308621469
20
-350.6281945176
30
0.0000000000
10
-276.6307056059
20
-350.6282456139
30
0.0000000000
11
-276.8733568423
21
-350.5554972027
31
0.0000000000
11
-276.8626216137
21
-350.5582417201
31
0.0000000000
11
-276.8453338863
21
-350.5628318575
31
0.0000000000
11
-276.8255816944
21
-350.5682961596
31
0.0000000000
11
-276.8034711874
21
-350.5746187471
31
0.0000000000
11
-276.7791586858
21
-350.5817587789
31
0.0000000000
11
-276.7528094802
21
-350.5896831062
31
0.0000000000
11
-276.7246187770
21
-350.5983410443
31
0.0000000000
11
-276.6947943873
21
-350.6076714575
31
0.0000000000
11
-276.6635577190
21
-350.6176133258
31
0.0000000000
11
-276.6311752345
21
-350.6280923420
31
0.0000000000
11
-276.6307056059
21
-350.6282456139
31
0.0000000000
0
SPLINE
5
387
100
AcDbEntity
8
0
100
AcDbSpline
62
7
6
CONTINUOUS
70
0
71
3
72
8
73
4
74
2
42
0.0000001000
43
0.0000001000
44
0.0000000001
12
-0.0000338947
22
-0.0001160309
32
0.0000000000
13
0.0042056179
23
-0.0006729367
33
0.0000000000
40
0.0000000000
40
0.0000000000
40
0.0000000000
40
0.0000000000
40
1.0000000000
40
1.0000000000
40
1.0000000000
40
1.0000000000
10
-276.9017419210
20
-350.5493234588
30
0.0000000000
10
-276.9017532193
20
-350.5493621358
30
0.0000000000
10
-276.9005711251
20
-350.5495527792
30
0.0000000000
10
-276.8991692525
20
-350.5497770915
30
0.0000000000
11
-276.9017419210
21
-350.5493234588
31
0.0000000000
11
-276.8991692525
21
-350.5497770915
31
0.0000000000
0
SPLINE
5
388
100
AcDbEntity
8
0
100
AcDbSpline
62
7
6
CONTINUOUS
70
0
71
3
72
17
73
13
74
11
42
0.0000001000
43
0.0000001000
44
0.0000000001
12
0.2509708434
22
-0.0616478837
32
0.0000000000
13
0.2409606472
23
-0.0786734263
33
0.0000000000
40
0.0000000000
40
0.0000000000
40
0.0000000000
40
0.0000000000
40
0.0479700867
40
0.1192779108
40
0.2010034140
40
0.2926090716
40
0.3934274926
40
0.5028415426
40
0.6200107320
40
0.7441297324
40
0.8743023083
40
1.0000000000
40
1.0000000000
40
1.0000000000
40
1.0000000000
10
-276.8733646273
20
-350.5554986498
30
0.0000000000
10
-276.8693515962
20
-350.5564844012
30
0.0000000000
10
-276.8599050667
20
-350.5589375838
30
0.0000000000
10
-276.8433169226
20
-350.5633365980
30
0.0000000000
10
-276.8234642750
20
-350.5688668567
30
0.0000000000
10
-276.8011772921
20
-350.5752519219
30
0.0000000000
10
-276.7767185338
20
-350.5824547081
30
0.0000000000
10
-276.7502314853
20
-350.5904418526
30
0.0000000000
10
-276.7219098133
20
-350.5991541398
30
0.0000000000
10
-276.6919594356
20
-350.6085381817
30
0.0000000000
10
-276.6613689510
20
-350.6182873717
30
0.0000000000
10
-276.6408016769
20
-350.6249492800
30
0.0000000000
10
-276.6307056112
20
-350.6282456360
30
0.0000000000
11
-276.8733646273
21
-350.5554986498
31
0.0000000000
11
-276.8616891363
21
-350.5584830311
31
0.0000000000
11
-276.8442223753
21
-350.5631325449
31
0.0000000000
11
-276.8242605016
21
-350.5686698898
31
0.0000000000
11
-276.8019376812
21
-350.5750623250
31
0.0000000000
11
-276.7774214391
21
-350.5822753342
31
0.0000000000
11
-276.7508664768
21
-350.5902762710
31
0.0000000000
11
-276.7224783644
21
-350.5990053942
31
0.0000000000
11
-276.6924551057
21
-350.6084091193
31
0.0000000000
11
-276.6610167797
21
-350.6184273327
31
0.0000000000
11
-276.6307056112
21
-350.6282456360
31
0.0000000000
0
SPLINE
5
389
100
AcDbEntity
8
0
100
AcDbSpline
62
7
6
CONTINUOUS
70
0
71
3
72
16
73
12
74
10
42
0.0000001000
43
0.0000001000
44
0.0000000001
12
0.2571082013
22
-0.0312732353
32
0.0000000000
13
0.0289956003
23
0.2588563033
33
0.0000000000
40
0.0000000000
40
0.0000000000
40
0.0000000000
40
0.0000000000
40
0.0957177787
40
0.2385228785
40
0.3560819468
40
0.4550440047
40
0.5535147798
40
0.6628920152
40
0.7781856162
40
0.9049357695
40
1.0000000000
40
1.0000000000
40
1.0000000000
40
1.0000000000
10
-275.5117406807
20
-350.8764493718
30
0.0000000000
10
-275.5035374054
20
-350.8774471734
30
0.0000000000
10
-275.4830612250
20
-350.8796604565
30
0.0000000000
10
-275.4523933993
20
-350.8819178065
30
0.0000000000
10
-275.4213610694
20
-350.8825312726
30
0.0000000000
10
-275.3941683125
20
-350.8807629587
30
0.0000000000
10
-275.3681877377
20
-350.8747887454
30
0.0000000000
10
-275.3429602601
20
-350.8621142847
30
0.0000000000
10
-275.3203556775
20
-350.8412351706
30
0.0000000000
10
-275.3056991751
20
-350.8155394285
30
0.0000000000
10
-275.3012312885
20
-350.7965889251
30
0.0000000000
10
-275.3003124737
20
-350.7883862666
30
0.0000000000
11
-275.5117406807
21
-350.8764493718
31
0.0000000000
11
-275.4870927180
21
-350.8791106103
31
0.0000000000
11
-275.4502005183
21
-350.8817150340
31
0.0000000000
11
-275.4197571620
21
-350.8820957303
31
0.0000000000
11
-275.3942076864
21
-350.8800727771
31
0.0000000000
11
-275.3694196735
21
-350.8740797145
31
0.0000000000
11
-275.3441541034
21
-350.8612712121
31
0.0000000000
11
-275.3222374378
21
-350.8409926308
31
0.0000000000
11
-275.3060116507
21
-350.8124571361
31
0.0000000000
11
-275.3003124737
21
-350.7883862666
31
0.0000000000
0
SPLINE
5
38A
100
AcDbEntity
8
0
100
AcDbSpline
62
7
6
CONTINUOUS
70
0
71
3
72
12
73
8
74
6
42
0.0000001000
43
0.0000001000
44
0.0000000001
12
0.1619099871
22
0.0512868116
32
0.0000000000
13
0.1836198709
23
-0.0070518447
33
0.0000000000
40
0.0000000000
40
0.0000000000
40
0.0000000000
40
0.0000000000
40
0.0435347811
40
0.2501577898
40
0.5368832645
40
0.8832351291
40
1.0000000000
40
1.0000000000
40
1.0000000000
40
1.0000000000
10
-275.2997840307
20
-350.5689074453
30
0.0000000000
10
-275.2974344588
20
-350.5681631919
30
0.0000000000
10
-275.2842658000
20
-350.5647034674
30
0.0000000000
10
-275.2505922237
20
-350.5560224427
30
0.0000000000
10
-275.2002250019
20
-350.5506860377
30
0.0000000000
10
-275.1540760607
20
-350.5491875023
30
0.0000000000
10
-275.1256998576
20
-350.5498823503
30
0.0000000000
10
-275.1185530740
20
-350.5501568195
30
0.0000000000
11
-275.2997840307
21
-350.5689074453
31
0.0000000000
11
-275.2927746319
21
-350.5669412832
31
0.0000000000
11
-275.2558532372
21
-350.5581669351
31
0.0000000000
11
-275.2035986288
21
-350.5516307279
31
0.0000000000
11
-275.1400167756
21
-350.5496349735
31
0.0000000000
11
-275.1185530740
21
-350.5501568195
31
0.0000000000
0
SPLINE
5
38B
100
AcDbEntity
8
0
100
AcDbSpline
62
7
6
CONTINUOUS
70
0
71
3
72
10
73
6
74
4
42
0.0000001000
43
0.0000001000
44
0.0000000001
12
0.6103824095
22
-0.0337146639
32
0.0000000000
13
0.6103837428
23
0.0337146206
33
0.0000000000
40
0.0000000000
40
0.0000000000
40
0.0000000000
40
0.0000000000
40
0.3201470045
40
0.6837620612
40
1.0000000000
40
1.0000000000
40
1.0000000000
40
1.0000000000
10
-275.1051862642
20
-350.5508022818
30
0.0000000000
10
-275.0400488975
20
-350.5544001647
30
0.0000000000
10
-274.9007819273
20
-350.5596273081
30
0.0000000000
10
-274.6969671668
20
-350.5595833785
30
0.0000000000
10
-274.5584980957
20
-350.5543562072
30
0.0000000000
10
-274.4941559301
20
-350.5508022598
30
0.0000000000
11
-275.1051862642
21
-350.5508022818
31
0.0000000000
11
-274.9096148230
21
-350.5581425064
31
0.0000000000
11
-274.6873381876
21
-350.5580945678
31
0.0000000000
11
-274.4941559301
21
-350.5508022598
31
0.0000000000
0
SPLINE
5
38C
100
AcDbEntity
8
0
100
AcDbSpline
62
7
6
CONTINUOUS
70
0
71
3
72
8
73
4
74
2
42
0.0000001000
43
0.0000001000
44
0.0000000001
12
0.0133593634
22
0.0007433272
32
0.0000000000
13
0.0133758724
23
0.0005149088
33
0.0000000000
40
0.0000000000
40
0.0000000000
40
0.0000000000
40
0.0000000000
40
1.0000000000
40
1.0000000000
40
1.0000000000
40
1.0000000000
10
-274.4941569686
20
-350.5507835669
30
0.0000000000
10
-274.4897038475
20
-350.5505357911
30
0.0000000000
10
-274.4852479977
20
-350.5503256504
30
0.0000000000
10
-274.4807893735
20
-350.5501540141
30
0.0000000000
11
-274.4941569686
21
-350.5507835669
31
0.0000000000
11
-274.4807893735
21
-350.5501540141
31
0.0000000000
0
SPLINE
5
38D
100
AcDbEntity
8
0
100
AcDbSpline
62
9
6
CONTINUOUS
70
0
71
3
72
10
73
6
74
4
42
0.0000001000
43
0.0000001000
44
0.0000000001
12
0.0000000037
22
-0.0084211513
32
0.0000000000
13
-0.0000000024
23
-0.0084211513
33
0.0000000000
40
0.0000000000
40
0.0000000000
40
0.0000000000
40
0.0000000000
40
0.5552522622
40
0.8890061159
40
1.0000000000
40
1.0000000000
40
1.0000000000
40
1.0000000000
10
-272.6636553372
20
-350.5441016279
30
0.0000000000
10
-272.6636553365
20
-350.5456602490
30
0.0000000000
10
-272.6636553386
20
-350.5481557340
30
0.0000000000
10
-272.6636553371
20
-350.5509627844
30
0.0000000000
10
-272.6636553371
20
-350.5522112138
30
0.0000000000
10
-272.6636553372
20
-350.5525227792
30
0.0000000000
11
-272.6636553372
21
-350.5441016279
31
0.0000000000
11
-272.6636553378
21
-350.5487774912
31
0.0000000000
11
-272.6636553372
21
-350.5515880829
31
0.0000000000
11
-272.6636553372
21
-350.5525227792
31
0.0000000000
0
SPLINE
5
38E
100
AcDbEntity
8
0
100
AcDbSpline
62
9
6
CONTINUOUS
70
0
71
3
72
11
73
7
74
5
42
0.0000001000
43
0.0000001000
44
0.0000000001
12
0.2347482178
22
0.0766424207
32
0.0000000000
13
0.2489078788
23
0.0675589159
33
0.0000000000
40
0.0000000000
40
0.0000000000
40
0.0000000000
40
0.0000000000
40
0.3504046771
40
0.6666687971
40
0.9304468631
40
1.0000000000
40
1.0000000000
40
1.0000000000
40
1.0000000000
10
-272.9688004560
20
-350.6277441223
30
0.0000000000
10
-272.9413814981
20
-350.6187921680
30
0.0000000000
10
-272.8892801009
20
-350.6021394185
30
0.0000000000
10
-272.8153974623
20
-350.5794264366
30
0.0000000000
10
-272.7655130157
20
-350.5652964342
30
0.0000000000
10
-272.7374518358
20
-350.5574291239
30
0.0000000000
10
-272.7316810613
20
-350.5558628123
30
0.0000000000
11
-272.9688004560
21
-350.6277441223
31
0.0000000000
11
-272.8863810542
21
-350.6013912703
31
0.0000000000
11
-272.8116802686
21
-350.5786036984
31
0.0000000000
11
-272.7490551040
21
-350.5606854714
31
0.0000000000
11
-272.7316810613
21
-350.5558628123
31
0.0000000000
0
SPLINE
5
38F
100
AcDbEntity
8
0
100
AcDbSpline
62
9
6
CONTINUOUS
70
0
71
3
72
10
73
6
74
4
42
0.0000001000
43
0.0000001000
44
0.0000000001
12
0.0708811429
22
0.0192386565
32
0.0000000000
13
-0.0003549073
23
-0.0703206776
33
0.0000000000
40
0.0000000000
40
0.0000000000
40
0.0000000000
40
0.0000000000
40
0.4410278012
40
0.8596420268
40
1.0000000000
40
1.0000000000
40
1.0000000000
40
1.0000000000
10
-272.7316810613
20
-350.5558628123
30
0.0000000000
10
-272.7212608764
20
-350.5530345516
30
0.0000000000
10
-272.7014870436
20
-350.5480002372
30
0.0000000000
10
-272.6846917334
20
-350.5458864778
30
0.0000000000
10
-272.6636387325
20
-350.5408116053
30
0.0000000000
10
-272.6636553372
20
-350.5441016279
30
0.0000000000
11
-272.7316810613
21
-350.5558628123
31
0.0000000000
11
-272.7023759155
21
-350.5487157748
31
0.0000000000
11
-272.6734760677
21
-350.5431147273
31
0.0000000000
11
-272.6636553372
21
-350.5441016279
31
0.0000000000
0
SPLINE
5
390
100
AcDbEntity
8
0
100
AcDbSpline
62
9
6
CONTINUOUS
70
0
71
3
72
12
73
8
74
6
42
0.0000001000
43
0.0000001000
44
0.0000000001
12
1.1394044272
22
0.1385317330
32
0.0000000000
13
1.0911181987
23
0.3562226359
33
0.0000000000
40
0.0000000000
40
0.0000000000
40
0.0000000000
40
0.0000000000
40
0.1736997740
40
0.3668447149
40
0.5660151312
40
0.7736035241
40
1.0000000000
40
1.0000000000
40
1.0000000000
40
1.0000000000
10
-274.0876658913
20
-350.8759210414
30
0.0000000000
10
-274.0216944608
20
-350.8679000645
30
0.0000000000
10
-273.8826417771
20
-350.8486041749
30
0.0000000000
10
-273.6692908051
20
-350.8111949430
30
0.0000000000
10
-273.4448372854
20
-350.7629448280
30
0.0000000000
10
-273.2101435971
20
-350.7026885657
30
0.0000000000
10
-273.0511422276
20
-350.6546266387
30
0.0000000000
10
-272.9688004560
20
-350.6277441223
30
0.0000000000
11
-274.0876658913
21
-350.8759210414
31
0.0000000000
11
-273.8901864639
21
-350.8485172612
31
0.0000000000
11
-273.6718269259
21
-350.8102298406
31
0.0000000000
11
-273.4483258621
21
-350.7621845263
31
0.0000000000
11
-273.2175420046
21
-350.7029317241
31
0.0000000000
11
-272.9688004560
21
-350.6277441223
31
0.0000000000
0
SPLINE
5
391
100
AcDbEntity
8
0
100
AcDbSpline
62
9
6
CONTINUOUS
70
0
71
3
72
14
73
10
74
8
42
0.0000001000
43
0.0000001000
44
0.0000000001
12
0.0001275271
22
-0.1030417226
32
0.0000000000
13
0.1022885817
23
0.0124361939
33
0.0000000000
40
0.0000000000
40
0.0000000000
40
0.0000000000
40
0.0000000000
40
0.0475695937
40
0.1569696759
40
0.3115077117
40
0.4870765621
40
0.6663493256
40
0.8385288923
40
1.0000000000
40
1.0000000000
40
1.0000000000
40
1.0000000000
10
-274.1893809309
20
-350.8759210414
30
0.0000000000
10
-274.1893789087
20
-350.8775549257
30
0.0000000000
10
-274.1825803704
20
-350.8800038691
30
0.0000000000
10
-274.1732018195
20
-350.8807186819
30
0.0000000000
10
-274.1575141532
20
-350.8812377133
30
0.0000000000
10
-274.1402183027
20
-350.8806141101
30
0.0000000000
10
-274.1220969690
20
-350.8794580611
30
0.0000000000
10
-274.1045643694
20
-350.8778622315
30
0.0000000000
10
-274.0931714415
20
-350.8765904034
30
0.0000000000
10
-274.0876658913
20
-350.8759210414
30
0.0000000000
11
-274.1893809309
21
-350.8759210414
31
0.0000000000
11
-274.1854486714
21
-350.8788473997
31
0.0000000000
11
-274.1743074496
21
-350.8805646011
31
0.0000000000
11
-274.1583906362
21
-350.8810388713
31
0.0000000000
11
-274.1403067394
21
-350.8805344422
31
0.0000000000
11
-274.1218716131
21
-350.8793585832
31
0.0000000000
11
-274.1042014843
21
-350.8777666635
31
0.0000000000
11
-274.0876658913
21
-350.8759210414
31
0.0000000000
0
SPLINE
5
392
100
AcDbEntity
8
0
100
AcDbSpline
62
9
6
CONTINUOUS
70
0
71
3
72
12
73
8
74
6
42
0.0000001000
43
0.0000001000
44
0.0000000001
12
0.0000000955
22
-0.2481769191
32
0.0000000000
13
-0.0000000361
23
-0.2481769191
33
0.0000000000
40
0.0000000000
40
0.0000000000
40
0.0000000000
40
0.0000000000
40
0.3245288541
40
0.5733868835
40
0.7612770168
40
0.8998605882
40
1.0000000000
40
1.0000000000
40
1.0000000000
40
1.0000000000
10
-274.1893809309
20
-350.6277441223
30
0.0000000000
10
-274.1893809206
20
-350.6545909793
30
0.0000000000
10
-274.1893809399
20
-350.7020247761
30
0.0000000000
10
-274.1893809292
20
-350.7650019043
30
0.0000000000
10
-274.1893809299
20
-350.8125965900
30
0.0000000000
10
-274.1893809322
20
-350.8478884330
30
0.0000000000
10
-274.1893809297
20
-350.8676369445
30
0.0000000000
10
-274.1893809309
20
-350.8759210414
30
0.0000000000
11
-274.1893809309
21
-350.6277441223
31
0.0000000000
11
-274.1893809337
21
-350.7082846935
31
0.0000000000
11
-274.1893809305
21
-350.7700455125
31
0.0000000000
11
-274.1893809304
21
-350.8166755069
31
0.0000000000
11
-274.1893809311
21
-350.8510687507
31
0.0000000000
11
-274.1893809309
21
-350.8759210414
31
0.0000000000
0
SPLINE
5
393
100
AcDbEntity
8
0
100
AcDbSpline
62
9
6
CONTINUOUS
70
0
71
3
72
8
73
4
74
2
42
0.0000001000
43
0.0000001000
44
0.0000000001
12
0.0259648526
22
0.0014341561
32
0.0000000000
13
0.0260031346
23
0.0007031723
33
0.0000000000
40
0.0000000000
40
0.0000000000
40
0.0000000000
40
0.0000000000
40
1.0000000000
40
1.0000000000
40
1.0000000000
40
1.0000000000
10
-274.4945260496
20
-350.5441016279
30
0.0000000000
10
-274.4858710988
20
-350.5436235758
30
0.0000000000
10
-274.4772075428
20
-350.5432649454
30
0.0000000000
10
-274.4685398312
20
-350.5430305547
30
0.0000000000
11
-274.4945260496
21
-350.5441016279
31
0.0000000000
11
-274.4685398312
21
-350.5430305547
31
0.0000000000
0
SPLINE
5
394
100
AcDbEntity
8
0
100
AcDbSpline
62
9
6
CONTINUOUS
70
0
71
3
72
10
73
6
74
4
42
0.0000001000
43
0.0000001000
44
0.0000000001
12
0.1456857917
22
0.0039396100
32
0.0000000000
13
0.1438195669
23
-0.0241745223
33
0.0000000000
40
0.0000000000
40
0.0000000000
40
0.0000000000
40
0.0000000000
40
0.3486430920
40
0.8460685313
40
1.0000000000
40
1.0000000000
40
1.0000000000
40
1.0000000000
10
-274.4685398312
20
-350.5430305547
30
0.0000000000
10
-274.4516090496
20
-350.5425727154
30
0.0000000000
10
-274.4104838516
20
-350.5426120047
30
0.0000000000
10
-274.3619969062
20
-350.5462078797
30
0.0000000000
10
-274.3306535961
20
-350.5507967711
30
0.0000000000
10
-274.3232741438
20
-350.5520371777
30
0.0000000000
11
-274.4685398312
21
-350.5430305547
31
0.0000000000
11
-274.4177330822
21
-350.5431150322
31
0.0000000000
11
-274.3454813158
21
-350.5487533140
31
0.0000000000
11
-274.3232741438
21
-350.5520371777
31
0.0000000000
0
SPLINE
5
395
100
AcDbEntity
8
0
100
AcDbSpline
62
9
6
CONTINUOUS
70
0
71
3
72
8
73
4
74
2
42
0.0000001000
43
0.0000001000
44
0.0000000001
12
0.0237336029
22
-0.0039893634
32
0.0000000000
13
0.0234891810
23
-0.0051773087
33
0.0000000000
40
0.0000000000
40
0.0000000000
40
0.0000000000
40
0.0000000000
40
1.0000000000
40
1.0000000000
40
1.0000000000
40
1.0000000000
10
-274.3232741438
20
-350.5520371777
30
0.0000000000
10
-274.3153629428
20
-350.5533669655
30
0.0000000000
10
-274.3074836162
20
-350.5548759764
30
0.0000000000
10
-274.2996538893
20
-350.5566017460
30
0.0000000000
11
-274.3232741438
21
-350.5520371777
31
0.0000000000
11
-274.2996538893
21
-350.5566017460
31
0.0000000000
0
SPLINE
5
396
100
AcDbEntity
8
0
100
AcDbSpline
62
9
6
CONTINUOUS
70
0
71
3
72
8
73
4
74
2
42
0.0000001000
43
0.0000001000
44
0.0000000001
12
0.0172327122
22
-0.0037983049
32
0.0000000000
13
0.0170515376
23
-0.0045427719
33
0.0000000000
40
0.0000000000
40
0.0000000000
40
0.0000000000
40
0.0000000000
40
1.0000000000
40
1.0000000000
40
1.0000000000
40
1.0000000000
10
-274.2996538893
20
-350.5566017460
30
0.0000000000
10
-274.2939096519
20
-350.5578678476
30
0.0000000000
10
-274.2881921107
20
-350.5592506162
30
0.0000000000
10
-274.2825082648
20
-350.5607648735
30
0.0000000000
11
-274.2996538893
21
-350.5566017460
31
0.0000000000
11
-274.2825082648
21
-350.5607648735
31
0.0000000000
0
SPLINE
5
397
100
AcDbEntity
8
0
100
AcDbSpline
62
9
6
CONTINUOUS
70
0
71
3
72
10
73
6
74
4
42
0.0000001000
43
0.0000001000
44
0.0000000001
12
0.1168063314
22
-0.0311188667
32
0.0000000000
13
-0.0000729979
23
-0.1208295183
33
0.0000000000
40
0.0000000000
40
0.0000000000
40
0.0000000000
40
0.0000000000
40
0.4363905819
40
0.7617294484
40
1.0000000000
40
1.0000000000
40
1.0000000000
40
1.0000000000
10
-274.2825082648
20
-350.5607648735
30
0.0000000000
10
-274.2655172038
20
-350.5652915337
30
0.0000000000
10
-274.2363845253
20
-350.5752439412
30
0.0000000000
10
-274.2011788529
20
-350.5960407643
30
0.0000000000
10
-274.1893751331
20
-350.6181474169
30
0.0000000000
10
-274.1893809309
20
-350.6277441223
30
0.0000000000
11
-274.2825082648
21
-350.5607648735
31
0.0000000000
11
-274.2328972631
21
-350.5786277569
31
0.0000000000
11
-274.2007920564
21
-350.6013119961
31
0.0000000000
11
-274.1893809309
21
-350.6277441223
31
0.0000000000
0
SPLINE
5
398
100
AcDbEntity
8
0
100
AcDbSpline
62
9
6
CONTINUOUS
70
0
71
3
72
10
73
6
74
4
42
0.0000001000
43
0.0000001000
44
0.0000000001
12
0.6096363370
22
-0.0336737673
32
0.0000000000
13
0.6096363343
23
0.0336738160
33
0.0000000000
40
0.0000000000
40
0.0000000000
40
0.0000000000
40
0.0000000000
40
0.3328661760
40
0.6669943864
40
1.0000000000
40
1.0000000000
40
1.0000000000
40
1.0000000000
10
-275.1048162871
20
-350.5441016279
30
0.0000000000
10
-275.0371738483
20
-350.5478379139
30
0.0000000000
10
-274.9014813007
20
-350.5528355022
30
0.0000000000
10
-274.6979178097
20
-350.5528370633
30
0.0000000000
10
-274.5621968235
20
-350.5478394844
30
0.0000000000
10
-274.4945260496
20
-350.5441016279
30
0.0000000000
11
-275.1048162871
21
-350.5441016279
31
0.0000000000
11
-274.9017173365
21
-350.5515816319
31
0.0000000000
11
-274.6977101359
21
-350.5515832008
31
0.0000000000
11
-274.4945260496
21
-350.5441016279
31
0.0000000000
0
SPLINE
5
399
100
AcDbEntity
8
0
100
AcDbSpline
62
9
6
CONTINUOUS
70
0
71
3
72
11
73
7
74
5
42
0.0000001000
43
0.0000001000
44
0.0000000001
12
0.0000256699
22
0.1384612527
32
0.0000000000
13
0.1352723955
23
0.0298191917
33
0.0000000000
40
0.0000000000
40
0.0000000000
40
0.0000000000
40
0.0000000000
40
0.2091032557
40
0.4931166190
40
0.8736295673
40
1.0000000000
40
1.0000000000
40
1.0000000000
40
1.0000000000
10
-275.4099614058
20
-350.6277441223
30
0.0000000000
10
-275.4099596166
20
-350.6180932227
30
0.0000000000
10
-275.3980704518
20
-350.5959444012
30
0.0000000000
10
-275.3628055431
20
-350.5751842135
30
0.0000000000
10
-275.3281376662
20
-350.5633566554
30
0.0000000000
10
-275.3053871751
20
-350.5578576221
30
0.0000000000
10
-275.2996890313
20
-350.5566015341
30
0.0000000000
11
-275.4099614058
21
-350.6277441223
31
0.0000000000
11
-275.3984351739
21
-350.6011846650
31
0.0000000000
11
-275.3662799209
21
-350.5785465715
31
0.0000000000
11
-275.3166979021
21
-350.5607288932
31
0.0000000000
11
-275.2996890313
21
-350.5566015341
31
0.0000000000
0
SPLINE
5
39A
100
AcDbEntity
8
0
100
AcDbSpline
62
9
6
CONTINUOUS
70
0
71
3
72
8
73
4
74
2
42
0.0000001000
43
0.0000001000
44
0.0000000001
12
0.0042859530
22
0.0009447874
32
0.0000000000
13
0.0042955310
23
0.0009021475
33
0.0000000000
40
0.0000000000
40
0.0000000000
40
0.0000000000
40
0.0000000000
40
1.0000000000
40
1.0000000000
40
1.0000000000
40
1.0000000000
10
-275.2996890313
20
-350.5566015341
30
0.0000000000
10
-275.2982603803
20
-350.5562866049
30
0.0000000000
10
-275.2968300793
20
-350.5559788966
30
0.0000000000
10
-275.2953982356
20
-350.5556781808
30
0.0000000000
11
-275.2996890313
21
-350.5566015341
31
0.0000000000
11
-275.2953982356
21
-350.5556781808
31
0.0000000000
0
SPLINE
5
39B
100
AcDbEntity
8
0
100
AcDbSpline
62
9
6
CONTINUOUS
70
0
71
3
72
8
73
4
74
2
42
0.0000001000
43
0.0000001000
44
0.0000000001
12
0.0193422573
22
0.0040622611
32
0.0000000000
13
0.0195005064
23
0.0032741333
33
0.0000000000
40
0.0000000000
40
0.0000000000
40
0.0000000000
40
0.0000000000
40
1.0000000000
40
1.0000000000
40
1.0000000000
40
1.0000000000
10
-275.2953982356
20
-350.5556781808
30
0.0000000000
10
-275.2889508165
20
-350.5543240938
30
0.0000000000
10
-275.2824721195
20
-350.5531117858
30
0.0000000000
10
-275.2759719507
20
-350.5520204080
30
0.0000000000
11
-275.2953982356
21
-350.5556781808
31
0.0000000000
11
-275.2759719507
21
-350.5520204080
31
0.0000000000
0
SPLINE
5
39C
100
AcDbEntity
8
0
100
AcDbSpline
62
9
6
CONTINUOUS
70
0
71
3
72
10
73
6
74
4
42
0.0000001000
43
0.0000001000
44
0.0000000001
12
0.1436554342
22
0.0241197344
32
0.0000000000
13
0.1455167566
23
-0.0039235326
33
0.0000000000
40
0.0000000000
40
0.0000000000
40
0.0000000000
40
0.0000000000
40
0.1538736103
40
0.6506453984
40
1.0000000000
40
1.0000000000
40
1.0000000000
40
1.0000000000
10
-275.2759719507
20
-350.5520204080
30
0.0000000000
10
-275.2686036906
20
-350.5507832778
30
0.0000000000
10
-275.2373307800
20
-350.5462091926
30
0.0000000000
10
-275.1889006706
20
-350.5426146765
30
0.0000000000
10
-275.1478204931
20
-350.5425721360
30
0.0000000000
10
-275.1308748436
20
-350.5430290374
30
0.0000000000
11
-275.2759719507
21
-350.5520204080
31
0.0000000000
11
-275.2537986844
21
-350.5487448126
31
0.0000000000
11
-275.1817260172
21
-350.5431185000
31
0.0000000000
11
-275.1308748436
21
-350.5430290374
31
0.0000000000
0
SPLINE
5
39D
100
AcDbEntity
8
0
100
AcDbSpline
62
9
6
CONTINUOUS
70
0
71
3
72
8
73
4
74
2
42
0.0000001000
43
0.0000001000
44
0.0000000001
12
0.0260755307
22
-0.0007030681
32
0.0000000000
13
0.0260370964
23
-0.0014371509
33
0.0000000000
40
0.0000000000
40
0.0000000000
40
0.0000000000
40
0.0000000000
40
1.0000000000
40
1.0000000000
40
1.0000000000
40
1.0000000000
10
-275.1308748436
20
-350.5430290374
30
0.0000000000
10
-275.1221830000
20
-350.5432633934
30
0.0000000000
10
-275.1134953192
20
-350.5436225776
30
0.0000000000
10
-275.1048162871
20
-350.5441016279
30
0.0000000000
11
-275.1308748436
21
-350.5430290374
31
0.0000000000
11
-275.1048162871
21
-350.5441016279
31
0.0000000000
0
SPLINE
5
39E
100
AcDbEntity
8
0
100
AcDbSpline
62
9
6
CONTINUOUS
70
0
71
3
72
12
73
8
74
6
42
0.0000001000
43
0.0000001000
44
0.0000000001
12
-0.0000000402
22
0.2481769191
32
0.0000000000
13
0.0000000830
23
0.2481769191
33
0.0000000000
40
0.0000000000
40
0.0000000000
40
0.0000000000
40
0.0000000000
40
0.1005484461
40
0.2392339420
40
0.4272491127
40
0.6764381929
40
1.0000000000
40
1.0000000000
40
1.0000000000
40
1.0000000000
10
-275.4099614058
20
-350.8759210414
30
0.0000000000
10
-275.4099614072
20
-350.8676031069
30
0.0000000000
10
-275.4099614041
20
-350.8478123260
30
0.0000000000
10
-275.4099614090
20
-350.8124678698
30
0.0000000000
10
-275.4099614049
20
-350.7648270221
30
0.0000000000
10
-275.4099614006
20
-350.7018921633
30
0.0000000000
10
-275.4099614148
20
-350.6545109797
30
0.0000000000
10
-275.4099614058
20
-350.6277441223
30
0.0000000000
11
-275.4099614058
21
-350.8759210414
31
0.0000000000
11
-275.4099614056
21
-350.8509672378
31
0.0000000000
11
-275.4099614073
21
-350.8165486987
31
0.0000000000
11
-275.4099614054
21
-350.7698876729
31
0.0000000000
11
-275.4099614043
21
-350.7080446947
31
0.0000000000
11
-275.4099614058
21
-350.6277441223
31
0.0000000000
0
SPLINE
5
39F
100
AcDbEntity
8
0
100
AcDbSpline
62
9
6
CONTINUOUS
70
0
71
3
72
14
73
10
74
8
42
0.0000001000
43
0.0000001000
44
0.0000000001
12
0.1022860762
22
-0.0124369244
32
0.0000000000
13
-0.0002474778
23
0.1030391053
33
0.0000000000
40
0.0000000000
40
0.0000000000
40
0.0000000000
40
0.0000000000
40
0.1614060718
40
0.3347621391
40
0.5142394507
40
0.6893348921
40
0.8429827303
40
0.9520038950
40
1.0000000000
40
1.0000000000
40
1.0000000000
40
1.0000000000
10
-275.5116764454
20
-350.8759210414
30
0.0000000000
10
-275.5061732475
20
-350.8765901731
30
0.0000000000
10
-275.4947425844
20
-350.8778662242
30
0.0000000000
10
-275.4771655942
20
-350.8794648531
30
0.0000000000
10
-275.4590122956
20
-350.8806199421
30
0.0000000000
10
-275.4417590008
20
-350.8812355383
30
0.0000000000
10
-275.4261260032
20
-350.8807216361
30
0.0000000000
10
-275.4167929594
20
-350.8799963869
30
0.0000000000
10
-275.4099574465
20
-350.8775695333
30
0.0000000000
10
-275.4099614058
20
-350.8759210414
30
0.0000000000
11
-275.5116764454
21
-350.8759210414
31
0.0000000000
11
-275.4951479062
21
-350.8777659571
31
0.0000000000
11
-275.4773573331
21
-350.8793673986
31
0.0000000000
11
-275.4589013620
21
-350.8805407998
31
0.0000000000
11
-275.4408665143
21
-350.8810390748
31
0.0000000000
11
-275.4250418343
21
-350.8805649394
31
0.0000000000
11
-275.4139383902
21
-350.8788606786
31
0.0000000000
11
-275.4099614058
21
-350.8759210414
31
0.0000000000
0
SPLINE
5
3A0
100
AcDbEntity
8
0
100
AcDbSpline
62
9
6
CONTINUOUS
70
0
71
3
72
10
73
6
74
4
42
0.0000001000
43
0.0000001000
44
0.0000000001
12
0.0000000011
22
0.0084211513
32
0.0000000000
13
0.0000000040
23
0.0084211513
33
0.0000000000
40
0.0000000000
40
0.0000000000
40
0.0000000000
40
0.0000000000
40
0.1109954972
40
0.4447521893
40
1.0000000000
40
1.0000000000
40
1.0000000000
40
1.0000000000
10
-276.9356869995
20
-350.5525227792
30
0.0000000000
10
-276.9356869994
20
-350.5522112092
30
0.0000000000
10
-276.9356869992
20
-350.5509627674
30
0.0000000000
10
-276.9356869987
20
-350.5481557170
30
0.0000000000
10
-276.9356870002
20
-350.5456602365
30
0.0000000000
10
-276.9356869995
20
-350.5441016279
30
0.0000000000
11
-276.9356869995
21
-350.5525227792
31
0.0000000000
11
-276.9356869993
21
-350.5515880693
31
0.0000000000
11
-276.9356869991
21
-350.5487774537
31
0.0000000000
11
-276.9356869995
21
-350.5441016279
31
0.0000000000
0
SPLINE
5
3A1
100
AcDbEntity
8
0
100
AcDbSpline
62
9
6
CONTINUOUS
70
0
71
3
72
12
73
8
74
6
42
0.0000001000
43
0.0000001000
44
0.0000000001
12
1.0911187217
22
-0.3562227291
32
0.0000000000
13
1.1394049461
23
-0.1385318241
33
0.0000000000
40
0.0000000000
40
0.0000000000
40
0.0000000000
40
0.0000000000
40
0.2220767843
40
0.4263822369
40
0.6251590283
40
0.8222368415
40
1.0000000000
40
1.0000000000
40
1.0000000000
40
1.0000000000
10
-276.6305418808
20
-350.6277441223
30
0.0000000000
10
-276.5497711684
20
-350.6541137217
30
0.0000000000
10
-276.3935773228
20
-350.7013986667
30
0.0000000000
10
-276.1619185745
20
-350.7611622884
30
0.0000000000
10
-275.9374429032
20
-350.8097737493
30
0.0000000000
10
-275.7212685808
20
-350.8479395612
30
0.0000000000
10
-275.5791911861
20
-350.8677124232
30
0.0000000000
10
-275.5116764454
20
-350.8759210414
30
0.0000000000
11
-276.6305418808
21
-350.6277441223
31
0.0000000000
11
-276.3865772820
21
-350.7015997129
31
0.0000000000
11
-276.1595108922
21
-350.7601789307
31
0.0000000000
11
-275.9365244718
21
-350.8084678157
31
0.0000000000
11
-275.7137645272
21
-350.8477962875
31
0.0000000000
11
-275.5116764454
21
-350.8759210414
31
0.0000000000
0
SPLINE
5
3A2
100
AcDbEntity
8
0
100
AcDbSpline
62
9
6
CONTINUOUS
70
0
71
3
72
10
73
6
74
4
42
0.0000001000
43
0.0000001000
44
0.0000000001
12
-0.0000305523
22
0.0705416368
32
0.0000000000
13
0.0710873922
23
-0.0193144344
33
0.0000000000
40
0.0000000000
40
0.0000000000
40
0.0000000000
40
0.0000000000
40
0.1406318942
40
0.5591741542
40
1.0000000000
40
1.0000000000
40
1.0000000000
40
1.0000000000
10
-276.9356869995
20
-350.5441016279
30
0.0000000000
10
-276.9356884317
20
-350.5407948265
30
0.0000000000
10
-276.9145935369
20
-350.5459144596
30
0.0000000000
10
-276.8977191309
20
-350.5480264120
30
0.0000000000
10
-276.8778908870
20
-350.5530787044
30
0.0000000000
10
-276.8674451671
20
-350.5559168050
30
0.0000000000
11
-276.9356869995
21
-350.5441016279
31
0.0000000000
11
-276.9258151942
21
-350.5431208653
31
0.0000000000
11
-276.8968315924
21
-350.5487472587
31
0.0000000000
11
-276.8674451671
21
-350.5559168050
31
0.0000000000
0
SPLINE
5
3A3
100
AcDbEntity
8
0
100
AcDbSpline
62
9
6
CONTINUOUS
70
0
71
3
72
11
73
7
74
5
42
0.0000001000
43
0.0000001000
44
0.0000000001
12
0.2486304027
22
-0.0675528451
32
0.0000000000
13
0.2345404016
23
-0.0765660645
33
0.0000000000
40
0.0000000000
40
0.0000000000
40
0.0000000000
40
0.0000000000
40
0.0697732047
40
0.3340318270
40
0.6507837916
40
1.0000000000
40
1.0000000000
40
1.0000000000
40
1.0000000000
10
-276.8674451671
20
-350.5559168050
30
0.0000000000
10
-276.8616625871
20
-350.5574879311
30
0.0000000000
10
-276.8335763399
20
-350.5653711044
30
0.0000000000
10
-276.7836387703
20
-350.5795160076
30
0.0000000000
10
-276.7098441359
20
-350.6022086233
30
0.0000000000
10
-276.6578436507
20
-350.6188314187
30
0.0000000000
10
-276.6305418808
20
-350.6277441223
30
0.0000000000
11
-276.8674451671
21
-350.5559168050
31
0.0000000000
11
-276.8500362625
21
-350.5607540561
31
0.0000000000
11
-276.7873548967
21
-350.5786947089
31
0.0000000000
11
-276.7126074108
21
-350.6015018830
31
0.0000000000
11
-276.6305418808
21
-350.6277441223
31
0.0000000000
0
SPLINE
5
3A4
100
AcDbEntity
8
0
100
AcDbSpline
62
9
6
CONTINUOUS
70
0
71
3
72
9
73
5
74
3
42
0.0000001000
43
0.0000001000
44
0.0000000001
12
0.0385583277
22
-0.0148674323
32
0.0000000000
13
0.0415816152
23
0.0019562143
33
0.0000000000
40
0.0000000000
40
0.0000000000
40
0.0000000000
40
0.0000000000
40
0.9326375344
40
1.0000000000
40
1.0000000000
40
1.0000000000
40
1.0000000000
10
-276.9356839284
20
-350.5440936872
30
0.0000000000
10
-276.9236969471
20
-350.5487156623
30
0.0000000000
10
-276.9097292971
20
-350.5511868774
30
0.0000000000
10
-276.8958572274
20
-350.5507307802
30
0.0000000000
10
-276.8949235473
20
-350.5506868551
30
0.0000000000
11
-276.9356839284
21
-350.5440936872
31
0.0000000000
11
-276.8977265747
21
-350.5507789446
31
0.0000000000
11
-276.8949235473
21
-350.5506868551
31
0.0000000000
0
SPLINE
5
3A5
100
AcDbEntity
8
0
100
AcDbSpline
62
9
6
CONTINUOUS
70
0
71
3
72
11
73
7
74
5
42
0.0000001000
43
0.0000001000
44
0.0000000001
12
0.1364282044
22
-0.0140105337
32
0.0000000000
13
0.0395342535
23
0.1327328489
33
0.0000000000
40
0.0000000000
40
0.0000000000
40
0.0000000000
40
0.0000000000
40
0.3028818956
40
0.6052345461
40
0.9066924769
40
1.0000000000
40
1.0000000000
40
1.0000000000
40
1.0000000000
10
-275.4099614044
20
-350.8759210276
30
0.0000000000
10
-275.3961875267
20
-350.8773355400
30
0.0000000000
10
-275.3677276071
20
-350.8743629408
30
0.0000000000
10
-275.3307759638
20
-350.8531090836
30
0.0000000000
10
-275.3113804088
20
-350.8266740532
30
0.0000000000
10
-275.3050457623
20
-350.8095391980
30
0.0000000000
10
-275.3038161479
20
-350.8054108735
30
0.0000000000
11
-275.4099614044
21
-350.8759210276
31
0.0000000000
11
-275.3686528779
21
-350.8715517468
31
0.0000000000
11
-275.3326973862
21
-350.8508959303
31
0.0000000000
11
-275.3083000100
21
-350.8175182911
31
0.0000000000
11
-275.3038161479
21
-350.8054108735
31
0.0000000000
0
SPLINE
5
3A6
100
AcDbEntity
8
0
100
AcDbSpline
62
9
6
CONTINUOUS
70
0
71
3
72
8
73
4
74
2
42
0.0000001000
43
0.0000001000
44
0.0000000001
12
0.0033860998
22
0.0113685382
32
0.0000000000
13
0.0020145149
23
0.0116653788
33
0.0000000000
40
0.0000000000
40
0.0000000000
40
0.0000000000
40
0.0000000000
40
1.0000000000
40
1.0000000000
40
1.0000000000
40
1.0000000000
10
-275.3038161479
20
-350.8054108735
30
0.0000000000
10
-275.3026874479
20
-350.8016213608
30
0.0000000000
10
-275.3017842727
20
-350.7977658753
30
0.0000000000
10
-275.3011127678
20
-350.7938774157
30
0.0000000000
11
-275.3038161479
21
-350.8054108735
31
0.0000000000
11
-275.3011127678
21
-350.7938774157
31
0.0000000000
0
SPLINE
5
3A7
100
AcDbEntity
8
0
100
AcDbSpline
62
9
6
CONTINUOUS
70
0
71
3
72
8
73
4
74
2
42
0.0000001000
43
0.0000001000
44
0.0000000001
12
0.0006855855
22
0.0039699952
32
0.0000000000
13
0.0005238670
23
0.0039890075
33
0.0000000000
40
0.0000000000
40
0.0000000000
40
0.0000000000
40
0.0000000000
40
1.0000000000
40
1.0000000000
40
1.0000000000
40
1.0000000000
10
-275.3011127678
20
-350.7938774157
30
0.0000000000
10
-275.3008842393
20
-350.7925540840
30
0.0000000000
10
-275.3006825428
20
-350.7912269332
30
0.0000000000
10
-275.3005079204
20
-350.7898972641
30
0.0000000000
11
-275.3011127678
21
-350.7938774157
31
0.0000000000
11
-275.3005079204
21
-350.7898972641
31
0.0000000000
0
SPLINE
5
3A8
100
AcDbEntity
8
0
100
AcDbSpline
62
9
6
CONTINUOUS
70
0
71
3
72
8
73
4
74
2
42
0.0000001000
43
0.0000001000
44
0.0000000001
12
0.0016657154
22
0.0126836605
32
0.0000000000
13
0.0000000018
23
0.0127109900
33
0.0000000000
40
0.0000000000
40
0.0000000000
40
0.0000000000
40
0.0000000000
40
1.0000000000
40
1.0000000000
40
1.0000000000
40
1.0000000000
10
-275.3005079204
20
-350.7898972641
30
0.0000000000
10
-275.2999526820
20
-350.7856693772
30
0.0000000000
10
-275.2996711689
20
-350.7814160291
30
0.0000000000
10
-275.2996711684
20
-350.7771790324
30
0.0000000000
11
-275.3005079204
21
-350.7898972641
31
0.0000000000
11
-275.2996711684
21
-350.7771790324
31
0.0000000000
0
SPLINE
5
3A9
100
AcDbEntity
8
0
100
AcDbSpline
62
9
6
CONTINUOUS
70
0
71
3
72
10
73
6
74
4
42
0.0000001000
43
0.0000001000
44
0.0000000001
12
0.1210365973
22
-0.0119148569
32
0.0000000000
13
0.0533106822
23
0.1105467502
33
0.0000000000
40
0.0000000000
40
0.0000000000
40
0.0000000000
40
0.0000000000
40
0.3413955304
40
0.6788235121
40
1.0000000000
40
1.0000000000
40
1.0000000000
40
1.0000000000
10
-275.4099609272
20
-350.6277397289
30
0.0000000000
10
-275.3961871428
20
-350.6290956218
30
0.0000000000
10
-275.3679460182
20
-350.6262943698
30
0.0000000000
10
-275.3314095259
20
-350.6063315047
30
0.0000000000
10
-275.3144984068
20
-350.5847002705
30
0.0000000000
10
-275.3087910276
20
-350.5728652649
30
0.0000000000
11
-275.4099609272
21
-350.6277397289
31
0.0000000000
11
-275.3686508600
21
-350.6235589874
31
0.0000000000
11
-275.3326930764
21
-350.6037802172
31
0.0000000000
11
-275.3087910276
21
-350.5728652649
31
0.0000000000
0
SPLINE
5
3AA
100
AcDbEntity
8
0
100
AcDbSpline
62
9
6
CONTINUOUS
70
0
71
3
72
10
73
6
74
4
42
0.0000001000
43
0.0000001000
44
0.0000000001
12
-0.1210105791
22
-0.0119005592
32
0.0000000000
13
-0.0533247757
23
0.1105085263
33
0.0000000000
40
0.0000000000
40
0.0000000000
40
0.0000000000
40
0.0000000000
40
0.3414622253
40
0.6789559621
40
1.0000000000
40
1.0000000000
40
1.0000000000
40
1.0000000000
10
-274.1893809381
20
-350.6277440558
30
0.0000000000
10
-274.2031544520
20
-350.6290985863
30
0.0000000000
10
-274.2313944160
20
-350.6262950460
30
0.0000000000
10
-274.2679213480
20
-350.6063344160
30
0.0000000000
10
-274.2848281587
20
-350.5847121440
30
0.0000000000
10
-274.2905346925
20
-350.5728861095
30
0.0000000000
11
-274.1893809381
21
-350.6277440558
31
0.0000000000
11
-274.2306894497
21
-350.6235599420
31
0.0000000000
11
-274.2666449318
21
-350.6037795069
31
0.0000000000
11
-274.2905346925
21
-350.5728861095
31
0.0000000000
0
SPLINE
5
3AB
100
AcDbEntity
8
0
100
AcDbSpline
62
9
6
CONTINUOUS
70
0
71
3
72
11
73
7
74
5
42
0.0000001000
43
0.0000001000
44
0.0000000001
12
-0.1647257712
22
-0.0169074676
32
0.0000000000
13
-0.0000024998
23
0.1655911898
33
0.0000000000
40
0.0000000000
40
0.0000000000
40
0.0000000000
40
0.0000000000
40
0.2508328946
40
0.5012304872
40
0.7508912799
40
1.0000000000
40
1.0000000000
40
1.0000000000
40
1.0000000000
10
-274.1893809410
20
-350.8759209439
30
0.0000000000
10
-274.2031538217
20
-350.8773345936
30
0.0000000000
10
-274.2316115259
20
-350.8743606102
30
0.0000000000
10
-274.2685596047
20
-350.8531061834
30
0.0000000000
10
-274.2937251824
20
-350.8188043820
30
0.0000000000
10
-274.2996614209
20
-350.7909291019
30
0.0000000000
10
-274.2996616285
20
-350.7771790321
30
0.0000000000
11
-274.1893809410
21
-350.8759209439
31
0.0000000000
11
-274.2306860066
21
-350.8715497446
31
0.0000000000
11
-274.2666380971
21
-350.8508935049
31
0.0000000000
11
-274.2910332039
21
-350.8175167324
31
0.0000000000
11
-274.2996616285
21
-350.7771790321
31
0.0000000000
0
SPLINE
5
3AC
100
AcDbEntity
8
0
100
AcDbSpline
62
9
6
CONTINUOUS
70
0
71
3
72
9
73
5
74
3
42
0.0000001000
43
0.0000001000
44
0.0000000001
12
-0.0385822683
22
-0.0148726601
32
0.0000000000
13
-0.0416051680
23
0.0019714101
33
0.0000000000
40
0.0000000000
40
0.0000000000
40
0.0000000000
40
0.0000000000
40
0.9320597385
40
1.0000000000
40
1.0000000000
40
1.0000000000
40
1.0000000000
10
-272.6636553391
20
-350.5441016229
30
0.0000000000
10
-272.6756423321
20
-350.5487223588
30
0.0000000000
10
-272.6896183483
20
-350.5511938650
30
0.0000000000
10
-272.7034984441
20
-350.5507346048
30
0.0000000000
10
-272.7044406661
20
-350.5506899587
30
0.0000000000
11
-272.6636553391
21
-350.5441016229
31
0.0000000000
11
-272.7016119666
21
-350.5507834812
31
0.0000000000
11
-272.7044406661
21
-350.5506899587
31
0.0000000000
0
SPLINE
5
3AD
100
AcDbEntity
8
0
100
AcDbSpline
62
7
6
CONTINUOUS
70
0
71
3
72
16
73
12
74
10
42
0.0000001000
43
0.0000001000
44
0.0000000001
12
0.0289744044
22
-0.2588793067
32
0.0000000000
13
0.2571086795
23
0.0312684163
33
0.0000000000
40
0.0000000000
40
0.0000000000
40
0.0000000000
40
0.0000000000
40
0.0950980898
40
0.2223386279
40
0.3380988178
40
0.4476222810
40
0.5468622451
40
0.6466093114
40
0.7654231273
40
0.9093720201
40
1.0000000000
40
1.0000000000
40
1.0000000000
40
1.0000000000
10
-59.2990325995
20
-350.7883861255
30
0.0000000000
10
-59.2981141293
20
-350.7965924347
30
0.0000000000
10
-59.2936363656
20
-350.8155893713
30
0.0000000000
10
-59.2789165578
20
-350.8413537428
30
0.0000000000
10
-59.2561946515
20
-350.8622533862
30
0.0000000000
10
-59.2308259007
20
-350.8749148760
30
0.0000000000
10
-59.2046809773
20
-350.8808370084
30
0.0000000000
10
-59.1772424427
20
-350.8825459980
30
0.0000000000
10
-59.1459368121
20
-350.8818695568
30
0.0000000000
10
-59.1155044047
20
-350.8795843996
30
0.0000000000
10
-59.0953687064
20
-350.8773942164
30
0.0000000000
10
-59.0876016263
20
-350.8764496186
30
0.0000000000
11
-59.2990325995
21
-350.7883861255
31
0.0000000000
11
-59.2933319946
21
-350.8124673257
31
0.0000000000
11
-59.2770230638
21
-350.8411014115
31
0.0000000000
11
-59.2549767200
21
-350.8614174210
31
0.0000000000
11
-59.2296443150
21
-350.8741772662
31
0.0000000000
11
-59.2046451030
21
-350.8801433558
31
0.0000000000
11
-59.1788877657
21
-350.8821137201
31
0.0000000000
11
-59.1481204590
21
-350.8816693067
31
0.0000000000
11
-59.1109371263
21
-350.8789860537
31
0.0000000000
11
-59.0876016263
21
-350.8764496186
31
0.0000000000
0
SPLINE
5
3AE
100
AcDbEntity
8
0
100
AcDbSpline
62
7
6
CONTINUOUS
70
0
71
3
72
17
73
13
74
11
42
0.0000001000
43
0.0000001000
44
0.0000000001
12
0.2409615793
22
0.0786737289
32
0.0000000000
13
0.2508541122
23
0.0616341786
33
0.0000000000
40
0.0000000000
40
0.0000000000
40
0.0000000000
40
0.0000000000
40
0.1257174119
40
0.2559316030
40
0.3801033766
40
0.4973284206
40
0.6067933816
40
0.7076507114
40
0.7992778858
40
0.8810031933
40
0.9522887015
40
1.0000000000
40
1.0000000000
40
1.0000000000
40
1.0000000000
10
-57.9686367255
20
-350.6282456360
30
0.0000000000
10
-57.9585390368
20
-350.6249487501
30
0.0000000000
10
-57.9379667503
20
-350.6182852271
30
0.0000000000
10
-57.9073669467
20
-350.6085331173
30
0.0000000000
10
-57.8774043054
20
-350.5991453510
30
0.0000000000
10
-57.8490695847
20
-350.5904292478
30
0.0000000000
10
-57.8225705616
20
-350.5824387986
30
0.0000000000
10
-57.7981025725
20
-350.5752337383
30
0.0000000000
10
-57.7758104500
20
-350.5688477209
30
0.0000000000
10
-57.7559576862
20
-350.5633180951
30
0.0000000000
10
-57.7393923697
20
-350.5589259309
30
0.0000000000
10
-57.7299673677
20
-350.5564787462
30
0.0000000000
10
-57.7259778426
20
-350.5554985306
30
0.0000000000
11
-57.9686367255
21
-350.6282456360
31
0.0000000000
11
-57.9383206807
21
-350.6184257658
31
0.0000000000
11
-57.9068721670
21
-350.6084043597
31
0.0000000000
11
-57.8768359924
21
-350.5989967099
31
0.0000000000
11
-57.8484341795
21
-350.5902635803
31
0.0000000000
11
-57.8218666702
21
-350.5822591826
31
0.0000000000
11
-57.7973407511
21
-350.5750437718
31
0.0000000000
11
-57.7750124559
21
-350.5686503174
31
0.0000000000
11
-57.7550503724
21
-350.5631136145
31
0.0000000000
11
-57.7375888041
21
-350.5584663120
31
0.0000000000
11
-57.7259778426
21
-350.5554985306
31
0.0000000000
0
SPLINE
5
3AF
100
AcDbEntity
8
0
100
AcDbSpline
62
7
6
CONTINUOUS
70
0
71
3
72
11
73
7
74
5
42
0.0000001000
43
0.0000001000
44
0.0000000001
12
0.0254898087
22
0.0062627772
32
0.0000000000
13
0.0387715112
23
0.0062176843
33
0.0000000000
40
0.0000000000
40
0.0000000000
40
0.0000000000
40
0.0000000000
40
0.1248469644
40
0.5993276583
40
0.9394943737
40
1.0000000000
40
1.0000000000
40
1.0000000000
40
1.0000000000
10
-57.7259778426
20
-350.5554985306
30
0.0000000000
10
-57.7249170675
20
-350.5552379010
30
0.0000000000
10
-57.7197533415
20
-350.5539870796
30
0.0000000000
10
-57.7109347049
20
-350.5520123593
30
0.0000000000
10
-57.7064415668
20
-350.5507715028
30
0.0000000000
10
-57.7005959717
20
-350.5498446600
30
0.0000000000
10
-57.6998140068
20
-350.5497192584
30
0.0000000000
11
-57.7259778426
21
-350.5554985306
31
0.0000000000
11
-57.7227456944
21
-350.5547163932
31
0.0000000000
11
-57.7108491453
21
-350.5519190784
31
0.0000000000
11
-57.7022750679
21
-350.5501164048
31
0.0000000000
11
-57.6998140068
21
-350.5497192584
31
0.0000000000
0
SPLINE
5
3B0
100
AcDbEntity
8
0
100
AcDbSpline
62
7
6
CONTINUOUS
70
0
71
3
72
10
73
6
74
4
42
0.0000001000
43
0.0000001000
44
0.0000000001
12
1.1394054503
22
0.1385357645
32
0.0000000000
13
1.0911165306
23
0.3562186596
33
0.0000000000
40
0.0000000000
40
0.0000000000
40
0.0000000000
40
0.0000000000
40
0.3242326341
40
0.6737101514
40
1.0000000000
40
1.0000000000
40
1.0000000000
40
1.0000000000
10
-59.0876018287
20
-350.8764479489
30
0.0000000000
10
-58.9644576852
20
-350.8614753436
30
0.0000000000
10
-58.7094887194
20
-350.8222809606
30
0.0000000000
10
-58.3357100673
20
-350.7394511937
30
0.0000000000
10
-58.0873091398
20
-350.6669922152
30
0.0000000000
10
-57.9686357239
20
-350.6282487044
30
0.0000000000
11
-59.0876018287
21
-350.8764479489
31
0.0000000000
11
-58.7197724738
21
-350.8199027612
31
0.0000000000
11
-58.3281626916
21
-350.7331215496
31
0.0000000000
11
-57.9686357239
21
-350.6282487044
31
0.0000000000
0
SPLINE
5
3B1
100
AcDbEntity
8
0
100
AcDbSpline
62
7
6
CONTINUOUS
70
0
71
3
72
8
73
4
74
2
42
0.0000001000
43
0.0000001000
44
0.0000000001
12
0.0000045224
22
-0.0112105483
32
0.0000000000
13
0.0012537431
23
-0.0111931650
33
0.0000000000
40
0.0000000000
40
0.0000000000
40
0.0000000000
40
0.0000000000
40
1.0000000000
40
1.0000000000
40
1.0000000000
40
1.0000000000
10
-59.2996611782
20
-350.7771701179
30
0.0000000000
10
-59.2996596707
20
-350.7809069673
30
0.0000000000
10
-59.2994478274
20
-350.7846547690
30
0.0000000000
10
-59.2990299130
20
-350.7883858240
30
0.0000000000
11
-59.2996611782
21
-350.7771701179
31
0.0000000000
11
-59.2990299130
21
-350.7883858240
31
0.0000000000
0
SPLINE
5
3B2
100
AcDbEntity
8
0
100
AcDbSpline
62
7
6
CONTINUOUS
70
0
71
3
72
13
73
9
74
7
42
0.0000001000
43
0.0000001000
44
0.0000000001
12
0.0186732971
22
-0.1667114088
32
0.0000000000
13
0.1668252168
23
-0.0043654261
33
0.0000000000
40
0.0000000000
40
0.0000000000
40
0.0000000000
40
0.0000000000
40
0.1475633507
40
0.3441968187
40
0.5230475999
40
0.6926499719
40
0.8460445029
40
1.0000000000
40
1.0000000000
40
1.0000000000
40
1.0000000000
10
-59.2990299129
20
-350.7883858246
30
0.0000000000
10
-59.2981114148
20
-350.7965859893
30
0.0000000000
10
-59.2936471725
20
-350.8155244821
30
0.0000000000
10
-59.2790077603
20
-350.8412037032
30
0.0000000000
10
-59.2564378831
20
-350.8620716844
30
0.0000000000
10
-59.2312165423
20
-350.8747688854
30
0.0000000000
10
-59.2052064140
20
-350.8807622703
30
0.0000000000
10
-59.1881181764
20
-350.8818724489
30
0.0000000000
10
-59.1795569566
20
-350.8820964760
30
0.0000000000
11
-59.2990299129
21
-350.7883858246
31
0.0000000000
11
-59.2933334874
21
-350.8124495789
31
0.0000000000
11
-59.2771284215
21
-350.8409634495
31
0.0000000000
11
-59.2552424382
21
-350.8612339347
31
0.0000000000
11
-59.2300210865
21
-350.8740448329
31
0.0000000000
11
-59.2051555023
21
-350.8800697347
31
0.0000000000
11
-59.1795569566
21
-350.8820964760
31
0.0000000000
0
SPLINE
5
3B3
100
AcDbEntity
8
0
100
AcDbSpline
62
7
6
CONTINUOUS
70
0
71
3
72
8
73
4
74
2
42
0.0000001000
43
0.0000001000
44
0.0000000001
12
0.0304850193
22
-0.0007977217
32
0.0000000000
13
0.0304535634
23
0.0013443544
33
0.0000000000
40
0.0000000000
40
0.0000000000
40
0.0000000000
40
0.0000000000
40
1.0000000000
40
1.0000000000
40
1.0000000000
40
1.0000000000
10
-59.1795569566
20
-350.8820964760
30
0.0000000000
10
-59.1693952836
20
-350.8823623833
30
0.0000000000
10
-59.1592314882
20
-350.8821604522
30
0.0000000000
10
-59.1490803003
20
-350.8817123341
30
0.0000000000
11
-59.1795569566
21
-350.8820964760
31
0.0000000000
11
-59.1490803003
21
-350.8817123341
31
0.0000000000
0
SPLINE
5
3B4
100
AcDbEntity
8
0
100
AcDbSpline
62
7
6
CONTINUOUS
70
0
71
3
72
9
73
5
74
3
42
0.0000001000
43
0.0000001000
44
0.0000000001
12
0.0616600254
22
0.0027219451
32
0.0000000000
13
0.0612650701
23
0.0074519145
33
0.0000000000
40
0.0000000000
40
0.0000000000
40
0.0000000000
40
0.0000000000
40
0.5991729697
40
1.0000000000
40
1.0000000000
40
1.0000000000
40
1.0000000000
10
-59.1490803003
20
-350.8817123341
30
0.0000000000
10
-59.1367652935
20
-350.8811686954
30
0.0000000000
10
-59.1162429199
20
-350.8796566683
30
0.0000000000
10
-59.0957872222
20
-350.8774450079
30
0.0000000000
10
-59.0876016568
20
-350.8764493649
30
0.0000000000
11
-59.1490803003
21
-350.8817123341
31
0.0000000000
11
-59.1121963276
21
-350.8791055897
31
0.0000000000
11
-59.0876016568
21
-350.8764493649
31
0.0000000000
0
SPLINE
5
3B5
100
AcDbEntity
8
0
100
AcDbSpline
62
7
6
CONTINUOUS
70
0
71
3
72
8
73
4
74
2
42
0.0000001000
43
0.0000001000
44
0.0000000001
12
0.0121258853
22
0.0006742997
32
0.0000000000
13
0.0121403917
23
0.0004857074
33
0.0000000000
40
0.0000000000
40
0.0000000000
40
0.0000000000
40
0.0000000000
40
1.0000000000
40
1.0000000000
40
1.0000000000
40
1.0000000000
10
-59.4941568577
20
-350.5507855613
30
0.0000000000
10
-59.4901148960
20
-350.5505607947
30
0.0000000000
10
-59.4860705495
20
-350.5503671218
30
0.0000000000
10
-59.4820237522
20
-350.5502052193
30
0.0000000000
11
-59.4941568577
21
-350.5507855613
31
0.0000000000
11
-59.4820237522
21
-350.5502052193
31
0.0000000000
0
SPLINE
5
3B6
100
AcDbEntity
8
0
100
AcDbSpline
62
7
6
CONTINUOUS
70
0
71
3
72
8
73
4
74
2
42
0.0000001000
43
0.0000001000
44
0.0000000001
12
0.0226721203
22
0.0009070561
32
0.0000000000
13
0.0227246917
23
0.0002290275
33
0.0000000000
40
0.0000000000
40
0.0000000000
40
0.0000000000
40
0.0000000000
40
1.0000000000
40
1.0000000000
40
1.0000000000
40
1.0000000000
10
-59.4820237522
20
-350.5502052193
30
0.0000000000
10
-59.4744663788
20
-350.5499028673
30
0.0000000000
10
-59.4669004584
20
-350.5497113160
30
0.0000000000
10
-59.4593255611
20
-350.5496349735
30
0.0000000000
11
-59.4820237522
21
-350.5502052193
31
0.0000000000
11
-59.4593255611
21
-350.5496349735
31
0.0000000000
0
SPLINE
5
3B7
100
AcDbEntity
8
0
100
AcDbSpline
62
7
6
CONTINUOUS
70
0
71
3
72
11
73
7
74
5
42
0.0000001000
43
0.0000001000
44
0.0000000001
12
0.1625355335
22
0.0016380908
32
0.0000000000
13
0.1430045884
23
-0.0452983136
33
0.0000000000
40
0.0000000000
40
0.0000000000
40
0.0000000000
40
0.0000000000
40
0.3921400466
40
0.7167710143
40
0.9507098624
40
1.0000000000
40
1.0000000000
40
1.0000000000
40
1.0000000000
10
-59.4593255611
20
-350.5496349735
30
0.0000000000
10
-59.4380799973
20
-350.5494208531
30
0.0000000000
10
-59.3991173348
20
-350.5506860377
30
0.0000000000
10
-59.3487501130
20
-350.5560224427
30
0.0000000000
10
-59.3150765367
20
-350.5647034674
30
0.0000000000
10
-59.3019078779
20
-350.5681631919
30
0.0000000000
10
-59.2995583060
20
-350.5689074453
30
0.0000000000
11
-59.4593255611
21
-350.5496349735
31
0.0000000000
11
-59.3957437079
21
-350.5516307279
31
0.0000000000
11
-59.3434890995
21
-350.5581669351
31
0.0000000000
11
-59.3065677048
21
-350.5669412832
31
0.0000000000
11
-59.2995583060
21
-350.5689074453
31
0.0000000000
0
SPLINE
5
3B8
100
AcDbEntity
8
0
100
AcDbSpline
62
7
6
CONTINUOUS
70
0
71
3
72
9
73
5
74
3
42
0.0000001000
43
0.0000001000
44
0.0000000001
12
0.0148819146
22
-0.0047140140
32
0.0000000000
13
0.0133048910
23
-0.0072041476
33
0.0000000000
40
0.0000000000
40
0.0000000000
40
0.0000000000
40
0.0000000000
40
0.8019985287
40
1.0000000000
40
1.0000000000
40
1.0000000000
40
1.0000000000
10
-59.2995583060
20
-350.5689074453
30
0.0000000000
10
-59.2955798814
20
-350.5701676561
30
0.0000000000
10
-59.2904124687
20
-350.5722472103
30
0.0000000000
10
-59.2839743028
20
-350.5761672079
30
0.0000000000
10
-59.2830961734
20
-350.5766426851
30
0.0000000000
11
-59.2995583060
21
-350.5689074453
31
0.0000000000
11
-59.2864740161
21
-350.5746870311
31
0.0000000000
11
-59.2830961734
21
-350.5766426851
31
0.0000000000
0
SPLINE
5
3B9
100
AcDbEntity
8
0
100
AcDbSpline
62
7
6
CONTINUOUS
70
0
71
3
72
10
73
6
74
4
42
0.0000001000
43
0.0000001000
44
0.0000000001
12
0.6103836007
22
-0.0337145969
32
0.0000000000
13
0.6103822664
23
0.0337146560
33
0.0000000000
40
0.0000000000
40
0.0000000000
40
0.0000000000
40
0.0000000000
40
0.3162377785
40
0.6798529205
40
1.0000000000
40
1.0000000000
40
1.0000000000
40
1.0000000000
10
-60.1051862634
20
-350.5508022677
30
0.0000000000
10
-60.0408441455
20
-350.5543562108
30
0.0000000000
10
-59.9023751222
20
-350.5595833785
30
0.0000000000
10
-59.6985604094
20
-350.5596273081
30
0.0000000000
10
-59.5592934392
20
-350.5544001647
30
0.0000000000
10
-59.4941560725
20
-350.5508022818
30
0.0000000000
11
-60.1051862634
21
-350.5508022677
31
0.0000000000
11
-59.9120041491
21
-350.5580945678
31
0.0000000000
11
-59.6897275137
21
-350.5581425064
31
0.0000000000
11
-59.4941560725
21
-350.5508022818
31
0.0000000000
0
SPLINE
5
3BA
100
AcDbEntity
8
0
100
AcDbSpline
62
7
6
CONTINUOUS
70
0
71
3
72
9
73
5
74
3
42
0.0000001000
43
0.0000001000
44
0.0000000001
12
0.0152042181
22
0.0087117897
32
0.0000000000
13
0.0143642103
23
0.0045149261
33
0.0000000000
40
0.0000000000
40
0.0000000000
40
0.0000000000
40
0.0000000000
40
0.1424866664
40
1.0000000000
40
1.0000000000
40
1.0000000000
40
1.0000000000
10
-60.3155993388
20
-350.5762543844
30
0.0000000000
10
-60.3148772061
20
-350.5758406131
30
0.0000000000
10
-60.3088091577
20
-350.5722039872
30
0.0000000000
10
-60.3038749075
20
-350.5702522368
30
0.0000000000
10
-60.2997690735
20
-350.5689617004
30
0.0000000000
11
-60.3155993388
21
-350.5762543844
31
0.0000000000
11
-60.3131709930
21
-350.5748384788
31
0.0000000000
11
-60.2997690735
21
-350.5689617004
31
0.0000000000
0
SPLINE
5
3BB
100
AcDbEntity
8
0
100
AcDbSpline
62
7
6
CONTINUOUS
70
0
71
3
72
11
73
7
74
5
42
0.0000001000
43
0.0000001000
44
0.0000000001
12
0.1401325979
22
0.0440425303
32
0.0000000000
13
0.1595286702
23
-0.0010276725
33
0.0000000000
40
0.0000000000
40
0.0000000000
40
0.0000000000
40
0.0000000000
40
0.0438216188
40
0.2774879323
40
0.6034667719
40
1.0000000000
40
1.0000000000
40
1.0000000000
40
1.0000000000
10
-60.2997671671
20
-350.5689611012
30
0.0000000000
10
-60.2977202214
20
-350.5683177628
30
0.0000000000
10
-60.2849556362
20
-350.5648467784
30
0.0000000000
10
-60.2522560747
20
-350.5563513716
30
0.0000000000
10
-60.2025159458
20
-350.5508477102
30
0.0000000000
10
-60.1639795806
20
-350.5494691148
30
0.0000000000
10
-60.1428934411
20
-350.5496049502
30
0.0000000000
11
-60.2997671671
21
-350.5689611012
31
0.0000000000
11
-60.2936319398
21
-350.5672106103
31
0.0000000000
11
-60.2574695025
21
-350.5584628039
31
0.0000000000
11
-60.2059924811
21
-350.5518197275
31
0.0000000000
11
-60.1428934411
21
-350.5496049502
31
0.0000000000
0
SPLINE
5
3BC
100
AcDbEntity
8
0
100
AcDbSpline
62
7
6
CONTINUOUS
70
0
71
3
72
8
73
4
74
2
42
0.0000001000
43
0.0000001000
44
0.0000000001
12
0.0377751027
22
-0.0002433446
32
0.0000000000
13
0.0376420626
23
-0.0020944388
33
0.0000000000
40
0.0000000000
40
0.0000000000
40
0.0000000000
40
0.0000000000
40
1.0000000000
40
1.0000000000
40
1.0000000000
40
1.0000000000
10
-60.1428934411
20
-350.5496049502
30
0.0000000000
10
-60.1303017402
20
-350.5496860651
30
0.0000000000
10
-60.1177327222
20
-350.5500854206
30
0.0000000000
10
-60.1051853681
20
-350.5507835669
30
0.0000000000
11
-60.1428934411
21
-350.5496049502
31
0.0000000000
11
-60.1051853681
21
-350.5507835669
31
0.0000000000
0
SPLINE
5
3BD
100
AcDbEntity
8
0
100
AcDbSpline
62
7
6
CONTINUOUS
70
0
71
3
72
9
73
5
74
3
42
0.0000001000
43
0.0000001000
44
0.0000000001
12
0.0603938318
22
-0.0073448720
32
0.0000000000
13
0.0607785955
23
-0.0027725077
33
0.0000000000
40
0.0000000000
40
0.0000000000
40
0.0000000000
40
0.0000000000
40
0.3869911088
40
1.0000000000
40
1.0000000000
40
1.0000000000
40
1.0000000000
10
-60.5117407117
20
-350.8764496290
30
0.0000000000
10
-60.5039500864
20
-350.8773970957
30
0.0000000000
10
-60.4837868846
20
-350.8795894913
30
0.0000000000
10
-60.4635585391
20
-350.8811065417
30
0.0000000000
10
-60.4511392659
20
-350.8816730656
30
0.0000000000
11
-60.5117407117
21
-350.8764496290
31
0.0000000000
11
-60.4883343707
21
-350.8789928298
31
0.0000000000
11
-60.4511392659
21
-350.8816730656
31
0.0000000000
0
SPLINE
5
3BE
100
AcDbEntity
8
0
100
AcDbSpline
62
7
6
CONTINUOUS
70
0
71
3
72
9
73
5
74
3
42
0.0000001000
43
0.0000001000
44
0.0000000001
12
0.0564442669
22
-0.0025747907
32
0.0000000000
13
0.0559810452
23
0.0080425123
33
0.0000000000
40
0.0000000000
40
0.0000000000
40
0.0000000000
40
0.0000000000
40
0.5438656546
40
1.0000000000
40
1.0000000000
40
1.0000000000
40
1.0000000000
10
-60.4511392659
20
-350.8816730656
30
0.0000000000
10
-60.4409065665
20
-350.8821398457
30
0.0000000000
10
-60.4220679477
20
-350.8825444489
30
0.0000000000
10
-60.4032337714
20
-350.8813697282
30
0.0000000000
10
-60.3947221456
20
-350.8801469062
30
0.0000000000
11
-60.4511392659
21
-350.8816730656
31
0.0000000000
11
-60.4204165251
21
-350.8821127973
31
0.0000000000
11
-60.3947221456
21
-350.8801469062
31
0.0000000000
0
SPLINE
5
3BF
100
AcDbEntity
8
0
100
AcDbSpline
62
7
6
CONTINUOUS
70
0
71
3
72
8
73
4
74
2
42
0.0000001000
43
0.0000001000
44
0.0000000001
12
0.0253563285
22
0.0036428149
32
0.0000000000
13
0.0242042291
23
0.0084543714
33
0.0000000000
40
0.0000000000
40
0.0000000000
40
0.0000000000
40
0.0000000000
40
1.0000000000
40
1.0000000000
40
1.0000000000
40
1.0000000000
10
-60.3947221456
20
-350.8801469062
30
0.0000000000
10
-60.3862700361
20
-350.8789326346
30
0.0000000000
10
-60.3778961106
20
-350.8770409451
30
0.0000000000
10
-60.3698280342
20
-350.8742228214
30
0.0000000000
11
-60.3947221456
21
-350.8801469062
31
0.0000000000
11
-60.3698280342
21
-350.8742228214
31
0.0000000000
0
SPLINE
5
3C0
100
AcDbEntity
8
0
100
AcDbSpline
62
7
6
CONTINUOUS
70
0
71
3
72
11
73
7
74
5
42
0.0000001000
43
0.0000001000
44
0.0000000001
12
0.1097795045
22
0.0383452287
32
0.0000000000
13
0.0129853403
23
0.1160160106
33
0.0000000000
40
0.0000000000
40
0.0000000000
40
0.0000000000
40
0.0000000000
40
0.2448027718
40
0.5034455926
40
0.7877064745
40
1.0000000000
40
1.0000000000
40
1.0000000000
40
1.0000000000
10
-60.3698280342
20
-350.8742228214
30
0.0000000000
10
-60.3608699252
20
-350.8710938153
30
0.0000000000
10
-60.3432226746
20
-350.8623101165
30
0.0000000000
10
-60.3204545255
20
-350.8413965012
30
0.0000000000
10
-60.3057113955
20
-350.8156095689
30
0.0000000000
10
-60.3012286891
20
-350.7965963840
30
0.0000000000
10
-60.3003097879
20
-350.7883865680
30
0.0000000000
11
-60.3698280342
21
-350.8742228214
31
0.0000000000
11
-60.3444397154
21
-350.8614680154
31
0.0000000000
11
-60.3223510570
21
-350.8411406952
31
0.0000000000
11
-60.3060142179
21
-350.8124777767
31
0.0000000000
11
-60.3003097879
21
-350.7883865680
31
0.0000000000
0
SPLINE
5
3C1
100
AcDbEntity
8
0
100
AcDbSpline
62
7
6
CONTINUOUS
70
0
71
3
72
8
73
4
74
2
42
0.0000001000
43
0.0000001000
44
0.0000000001
12
0.0012512757
22
0.0111793772
32
0.0000000000
13
0.0000054201
23
0.0111967750
33
0.0000000000
40
0.0000000000
40
0.0000000000
40
0.0000000000
40
0.0000000000
40
1.0000000000
40
1.0000000000
40
1.0000000000
40
1.0000000000
10
-60.3003097879
20
-350.7883865680
30
0.0000000000
10
-60.2998926960
20
-350.7846601089
30
0.0000000000
10
-60.2996811385
20
-350.7809169519
30
0.0000000000
10
-60.2996793317
20
-350.7771846936
30
0.0000000000
11
-60.3003097879
21
-350.7883865680
31
0.0000000000
11
-60.2996793317
21
-350.7771846936
31
0.0000000000
0
SPLINE
5
3C2
100
AcDbEntity
8
0
100
AcDbSpline
62
7
6
CONTINUOUS
70
0
71
3
72
10
73
6
74
4
42
0.0000001000
43
0.0000001000
44
0.0000000001
12
1.0911208316
22
-0.3562194201
32
0.0000000000
13
1.1394011973
23
-0.1385349433
33
0.0000000000
40
0.0000000000
40
0.0000000000
40
0.0000000000
40
0.0000000000
40
0.3242092501
40
0.6736871094
40
1.0000000000
40
1.0000000000
40
1.0000000000
40
1.0000000000
10
-61.6307066053
20
-350.6282486761
30
0.0000000000
10
-61.5127894498
20
-350.6667452198
30
0.0000000000
10
-61.2651696016
20
-350.7390308648
30
0.0000000000
10
-60.8914244896
20
-350.8220118574
30
0.0000000000
10
-60.6356742750
20
-350.8613793826
30
0.0000000000
10
-60.5117405089
20
-350.8764479619
30
0.0000000000
11
-61.6307066053
21
-350.6282486761
31
0.0000000000
11
-61.2734921455
21
-350.7325254483
31
0.0000000000
11
-60.8819171349
21
-350.8194652355
31
0.0000000000
11
-60.5117405089
21
-350.8764479619
31
0.0000000000
0
SPLINE
5
3C3
100
AcDbEntity
8
0
100
AcDbSpline
62
7
6
CONTINUOUS
70
0
71
3
72
8
73
4
74
2
42
0.0000001000
43
0.0000001000
44
0.0000000001
12
-0.0000338558
22
-0.0001072465
32
0.0000000000
13
0.0041573908
23
-0.0006697597
33
0.0000000000
40
0.0000000000
40
0.0000000000
40
0.0000000000
40
0.0000000000
40
1.0000000000
40
1.0000000000
40
1.0000000000
40
1.0000000000
10
-61.9017474233
20
-350.5493126561
30
0.0000000000
10
-61.9017587085
20
-350.5493484050
30
0.0000000000
10
-61.9005532200
20
-350.5495421335
30
0.0000000000
10
-61.8991674231
20
-350.5497653868
30
0.0000000000
11
-61.9017474233
21
-350.5493126561
31
0.0000000000
11
-61.8991674231
21
-350.5497653868
31
0.0000000000
0
SPLINE
5
3C4
100
AcDbEntity
8
0
100
AcDbSpline
62
7
6
CONTINUOUS
70
0
71
3
72
11
73
7
74
5
42
0.0000001000
43
0.0000001000
44
0.0000000001
12
0.0393958245
22
-0.0063467055
32
0.0000000000
13
0.0252524804
23
-0.0062307611
33
0.0000000000
40
0.0000000000
40
0.0000000000
40
0.0000000000
40
0.0000000000
40
0.0437461440
40
0.3811931804
40
0.8487327780
40
1.0000000000
40
1.0000000000
40
1.0000000000
40
1.0000000000
10
-61.8991674231
20
-350.5497653868
30
0.0000000000
10
-61.8985929513
20
-350.5498579347
30
0.0000000000
10
-61.8933171473
20
-350.5507085858
30
0.0000000000
10
-61.8888145965
20
-350.5519133047
30
0.0000000000
10
-61.8799176098
20
-350.5539000064
30
0.0000000000
10
-61.8746301332
20
-350.5551830327
30
0.0000000000
10
-61.8733568423
20
-350.5554972027
30
0.0000000000
11
-61.8991674231
21
-350.5497653868
31
0.0000000000
11
-61.8974248871
21
-350.5500491009
31
0.0000000000
11
-61.8889390608
21
-350.5518217474
31
0.0000000000
11
-61.8772432581
21
-350.5545556063
31
0.0000000000
11
-61.8733568423
21
-350.5554972027
31
0.0000000000
0
SPLINE
5
3C5
100
AcDbEntity
8
0
100
AcDbSpline
62
7
6
CONTINUOUS
70
0
71
3
72
18
73
14
74
12
42
0.0000001000
43
0.0000001000
44
0.0000000001
12
0.2491589938
22
-0.0614771357
32
0.0000000000
13
0.2409641088
23
-0.0786527442
33
0.0000000000
40
0.0000000000
40
0.0000000000
40
0.0000000000
40
0.0000000000
40
0.0441584266
40
0.1147243445
40
0.1955767258
40
0.2863024203
40
0.3862697342
40
0.4948207329
40
0.6111644276
40
0.7344498212
40
0.8637745550
40
0.9980510664
40
1.0000000000
40
1.0000000000
40
1.0000000000
40
1.0000000000
10
-61.8733568423
20
-350.5554972027
30
0.0000000000
10
-61.8696893526
20
-350.5564021138
30
0.0000000000
10
-61.8605756732
20
-350.5587646075
30
0.0000000000
10
-61.8444423041
20
-350.5630327520
30
0.0000000000
10
-61.8247844438
20
-350.5684908534
30
0.0000000000
10
-61.8027091293
20
-350.5748102319
30
0.0000000000
10
-61.7784566452
20
-350.5819377185
30
0.0000000000
10
-61.7521710974
20
-350.5898482947
30
0.0000000000
10
-61.7240509980
20
-350.5984899425
30
0.0000000000
10
-61.6942998226
20
-350.6077999677
30
0.0000000000
10
-61.6631513001
20
-350.6177160759
30
0.0000000000
10
-61.6418040905
20
-350.6246234120
30
0.0000000000
10
-61.6308621469
20
-350.6281945176
30
0.0000000000
10
-61.6307056059
20
-350.6282456139
30
0.0000000000
11
-61.8733568423
21
-350.5554972027
31
0.0000000000
11
-61.8626216137
21
-350.5582417201
31
0.0000000000
11
-61.8453338863
21
-350.5628318575
31
0.0000000000
11
-61.8255816944
21
-350.5682961596
31
0.0000000000
11
-61.8034711874
21
-350.5746187471
31
0.0000000000
11
-61.7791586858
21
-350.5817587789
31
0.0000000000
11
-61.7528094802
21
-350.5896831062
31
0.0000000000
11
-61.7246187770
21
-350.5983410443
31
0.0000000000
11
-61.6947943873
21
-350.6076714575
31
0.0000000000
11
-61.6635577190
21
-350.6176133258
31
0.0000000000
11
-61.6311752345
21
-350.6280923420
31
0.0000000000
11
-61.6307056059
21
-350.6282456139
31
0.0000000000
0
SPLINE
5
3C6
100
AcDbEntity
8
0
100
AcDbSpline
62
7
6
CONTINUOUS
70
0
71
3
72
8
73
4
74
2
42
0.0000001000
43
0.0000001000
44
0.0000000001
12
-0.0000338947
22
-0.0001160309
32
0.0000000000
13
0.0042056179
23
-0.0006729367
33
0.0000000000
40
0.0000000000
40
0.0000000000
40
0.0000000000
40
0.0000000000
40
1.0000000000
40
1.0000000000
40
1.0000000000
40
1.0000000000
10
-61.9017419210
20
-350.5493234588
30
0.0000000000
10
-61.9017532193
20
-350.5493621358
30
0.0000000000
10
-61.9005711251
20
-350.5495527792
30
0.0000000000
10
-61.8991692525
20
-350.5497770915
30
0.0000000000
11
-61.9017419210
21
-350.5493234588
31
0.0000000000
11
-61.8991692525
21
-350.5497770915
31
0.0000000000
0
SPLINE
5
3C7
100
AcDbEntity
8
0
100
AcDbSpline
62
7
6
CONTINUOUS
70
0
71
3
72
17
73
13
74
11
42
0.0000001000
43
0.0000001000
44
0.0000000001
12
0.2509708435
22
-0.0616478837
32
0.0000000000
13
0.2409606472
23
-0.0786734263
33
0.0000000000
40
0.0000000000
40
0.0000000000
40
0.0000000000
40
0.0000000000
40
0.0479700867
40
0.1192779108
40
0.2010034140
40
0.2926090716
40
0.3934274926
40
0.5028415426
40
0.6200107320
40
0.7441297324
40
0.8743023083
40
1.0000000000
40
1.0000000000
40
1.0000000000
40
1.0000000000
10
-61.8733646273
20
-350.5554986498
30
0.0000000000
10
-61.8693515962
20
-350.5564844012
30
0.0000000000
10
-61.8599050667
20
-350.5589375838
30
0.0000000000
10
-61.8433169226
20
-350.5633365980
30
0.0000000000
10
-61.8234642750
20
-350.5688668567
30
0.0000000000
10
-61.8011772921
20
-350.5752519219
30
0.0000000000
10
-61.7767185338
20
-350.5824547081
30
0.0000000000
10
-61.7502314853
20
-350.5904418526
30
0.0000000000
10
-61.7219098133
20
-350.5991541398
30
0.0000000000
10
-61.6919594356
20
-350.6085381817
30
0.0000000000
10
-61.6613689510
20
-350.6182873717
30
0.0000000000
10
-61.6408016769
20
-350.6249492800
30
0.0000000000
10
-61.6307056112
20
-350.6282456360
30
0.0000000000
11
-61.8733646273
21
-350.5554986498
31
0.0000000000
11
-61.8616891363
21
-350.5584830311
31
0.0000000000
11
-61.8442223753
21
-350.5631325449
31
0.0000000000
11
-61.8242605016
21
-350.5686698898
31
0.0000000000
11
-61.8019376812
21
-350.5750623250
31
0.0000000000
11
-61.7774214391
21
-350.5822753342
31
0.0000000000
11
-61.7508664768
21
-350.5902762710
31
0.0000000000
11
-61.7224783644
21
-350.5990053942
31
0.0000000000
11
-61.6924551057
21
-350.6084091193
31
0.0000000000
11
-61.6610167797
21
-350.6184273327
31
0.0000000000
11
-61.6307056112
21
-350.6282456360
31
0.0000000000
0
SPLINE
5
3C8
100
AcDbEntity
8
0
100
AcDbSpline
62
7
6
CONTINUOUS
70
0
71
3
72
16
73
12
74
10
42
0.0000001000
43
0.0000001000
44
0.0000000001
12
0.2571082013
22
-0.0312732353
32
0.0000000000
13
0.0289956003
23
0.2588563033
33
0.0000000000
40
0.0000000000
40
0.0000000000
40
0.0000000000
40
0.0000000000
40
0.0957177787
40
0.2385228785
40
0.3560819468
40
0.4550440047
40
0.5535147798
40
0.6628920152
40
0.7781856162
40
0.9049357695
40
1.0000000000
40
1.0000000000
40
1.0000000000
40
1.0000000000
10
-60.5117406807
20
-350.8764493718
30
0.0000000000
10
-60.5035374054
20
-350.8774471734
30
0.0000000000
10
-60.4830612250
20
-350.8796604565
30
0.0000000000
10
-60.4523933993
20
-350.8819178065
30
0.0000000000
10
-60.4213610694
20
-350.8825312726
30
0.0000000000
10
-60.3941683125
20
-350.8807629587
30
0.0000000000
10
-60.3681877377
20
-350.8747887454
30
0.0000000000
10
-60.3429602601
20
-350.8621142847
30
0.0000000000
10
-60.3203556775
20
-350.8412351706
30
0.0000000000
10
-60.3056991751
20
-350.8155394285
30
0.0000000000
10
-60.3012312885
20
-350.7965889251
30
0.0000000000
10
-60.3003124737
20
-350.7883862666
30
0.0000000000
11
-60.5117406807
21
-350.8764493718
31
0.0000000000
11
-60.4870927180
21
-350.8791106103
31
0.0000000000
11
-60.4502005183
21
-350.8817150340
31
0.0000000000
11
-60.4197571620
21
-350.8820957303
31
0.0000000000
11
-60.3942076864
21
-350.8800727771
31
0.0000000000
11
-60.3694196735
21
-350.8740797145
31
0.0000000000
11
-60.3441541034
21
-350.8612712121
31
0.0000000000
11
-60.3222374378
21
-350.8409926308
31
0.0000000000
11
-60.3060116507
21
-350.8124571361
31
0.0000000000
11
-60.3003124737
21
-350.7883862666
31
0.0000000000
0
SPLINE
5
3C9
100
AcDbEntity
8
0
100
AcDbSpline
62
7
6
CONTINUOUS
70
0
71
3
72
12
73
8
74
6
42
0.0000001000
43
0.0000001000
44
0.0000000001
12
0.1619099871
22
0.0512868116
32
0.0000000000
13
0.1836198709
23
-0.0070518447
33
0.0000000000
40
0.0000000000
40
0.0000000000
40
0.0000000000
40
0.0000000000
40
0.0435347811
40
0.2501577898
40
0.5368832645
40
0.8832351291
40
1.0000000000
40
1.0000000000
40
1.0000000000
40
1.0000000000
10
-60.2997840307
20
-350.5689074453
30
0.0000000000
10
-60.2974344588
20
-350.5681631919
30
0.0000000000
10
-60.2842658000
20
-350.5647034674
30
0.0000000000
10
-60.2505922237
20
-350.5560224427
30
0.0000000000
10
-60.2002250019
20
-350.5506860377
30
0.0000000000
10
-60.1540760607
20
-350.5491875023
30
0.0000000000
10
-60.1256998576
20
-350.5498823503
30
0.0000000000
10
-60.1185530740
20
-350.5501568195
30
0.0000000000
11
-60.2997840307
21
-350.5689074453
31
0.0000000000
11
-60.2927746319
21
-350.5669412832
31
0.0000000000
11
-60.2558532372
21
-350.5581669351
31
0.0000000000
11
-60.2035986288
21
-350.5516307279
31
0.0000000000
11
-60.1400167756
21
-350.5496349735
31
0.0000000000
11
-60.1185530740
21
-350.5501568195
31
0.0000000000
0
SPLINE
5
3CA
100
AcDbEntity
8
0
100
AcDbSpline
62
7
6
CONTINUOUS
70
0
71
3
72
10
73
6
74
4
42
0.0000001000
43
0.0000001000
44
0.0000000001
12
0.6103824095
22
-0.0337146639
32
0.0000000000
13
0.6103837428
23
0.0337146206
33
0.0000000000
40
0.0000000000
40
0.0000000000
40
0.0000000000
40
0.0000000000
40
0.3201470045
40
0.6837620612
40
1.0000000000
40
1.0000000000
40
1.0000000000
40
1.0000000000
10
-60.1051862642
20
-350.5508022818
30
0.0000000000
10
-60.0400488975
20
-350.5544001647
30
0.0000000000
10
-59.9007819273
20
-350.5596273081
30
0.0000000000
10
-59.6969671668
20
-350.5595833785
30
0.0000000000
10
-59.5584980957
20
-350.5543562072
30
0.0000000000
10
-59.4941559301
20
-350.5508022598
30
0.0000000000
11
-60.1051862642
21
-350.5508022818
31
0.0000000000
11
-59.9096148230
21
-350.5581425064
31
0.0000000000
11
-59.6873381876
21
-350.5580945678
31
0.0000000000
11
-59.4941559301
21
-350.5508022598
31
0.0000000000
0
SPLINE
5
3CB
100
AcDbEntity
8
0
100
AcDbSpline
62
7
6
CONTINUOUS
70
0
71
3
72
8
73
4
74
2
42
0.0000001000
43
0.0000001000
44
0.0000000001
12
0.0133593634
22
0.0007433272
32
0.0000000000
13
0.0133758724
23
0.0005149088
33
0.0000000000
40
0.0000000000
40
0.0000000000
40
0.0000000000
40
0.0000000000
40
1.0000000000
40
1.0000000000
40
1.0000000000
40
1.0000000000
10
-59.4941569686
20
-350.5507835669
30
0.0000000000
10
-59.4897038475
20
-350.5505357911
30
0.0000000000
10
-59.4852479977
20
-350.5503256504
30
0.0000000000
10
-59.4807893735
20
-350.5501540141
30
0.0000000000
11
-59.4941569686
21
-350.5507835669
31
0.0000000000
11
-59.4807893735
21
-350.5501540141
31
0.0000000000
0
SPLINE
5
3CC
100
AcDbEntity
8
0
100
AcDbSpline
62
9
6
CONTINUOUS
70
0
71
3
72
10
73
6
74
4
42
0.0000001000
43
0.0000001000
44
0.0000000001
12
0.0000000037
22
-0.0084211513
32
0.0000000000
13
-0.0000000024
23
-0.0084211513
33
0.0000000000
40
0.0000000000
40
0.0000000000
40
0.0000000000
40
0.0000000000
40
0.5552522622
40
0.8890061159
40
1.0000000000
40
1.0000000000
40
1.0000000000
40
1.0000000000
10
-57.6636553372
20
-350.5441016279
30
0.0000000000
10
-57.6636553365
20
-350.5456602490
30
0.0000000000
10
-57.6636553386
20
-350.5481557340
30
0.0000000000
10
-57.6636553371
20
-350.5509627844
30
0.0000000000
10
-57.6636553371
20
-350.5522112138
30
0.0000000000
10
-57.6636553372
20
-350.5525227792
30
0.0000000000
11
-57.6636553372
21
-350.5441016279
31
0.0000000000
11
-57.6636553378
21
-350.5487774912
31
0.0000000000
11
-57.6636553372
21
-350.5515880829
31
0.0000000000
11
-57.6636553372
21
-350.5525227792
31
0.0000000000
0
SPLINE
5
3CD
100
AcDbEntity
8
0
100
AcDbSpline
62
9
6
CONTINUOUS
70
0
71
3
72
11
73
7
74
5
42
0.0000001000
43
0.0000001000
44
0.0000000001
12
0.2347482178
22
0.0766424207
32
0.0000000000
13
0.2489078788
23
0.0675589159
33
0.0000000000
40
0.0000000000
40
0.0000000000
40
0.0000000000
40
0.0000000000
40
0.3504046771
40
0.6666687971
40
0.9304468631
40
1.0000000000
40
1.0000000000
40
1.0000000000
40
1.0000000000
10
-57.9688004560
20
-350.6277441223
30
0.0000000000
10
-57.9413814981
20
-350.6187921680
30
0.0000000000
10
-57.8892801009
20
-350.6021394185
30
0.0000000000
10
-57.8153974623
20
-350.5794264366
30
0.0000000000
10
-57.7655130157
20
-350.5652964342
30
0.0000000000
10
-57.7374518358
20
-350.5574291239
30
0.0000000000
10
-57.7316810613
20
-350.5558628123
30
0.0000000000
11
-57.9688004560
21
-350.6277441223
31
0.0000000000
11
-57.8863810542
21
-350.6013912703
31
0.0000000000
11
-57.8116802686
21
-350.5786036984
31
0.0000000000
11
-57.7490551040
21
-350.5606854714
31
0.0000000000
11
-57.7316810613
21
-350.5558628123
31
0.0000000000
0
SPLINE
5
3CE
100
AcDbEntity
8
0
100
AcDbSpline
62
9
6
CONTINUOUS
70
0
71
3
72
10
73
6
74
4
42
0.0000001000
43
0.0000001000
44
0.0000000001
12
0.0708811429
22
0.0192386565
32
0.0000000000
13
-0.0003549073
23
-0.0703206776
33
0.0000000000
40
0.0000000000
40
0.0000000000
40
0.0000000000
40
0.0000000000
40
0.4410278012
40
0.8596420268
40
1.0000000000
40
1.0000000000
40
1.0000000000
40
1.0000000000
10
-57.7316810613
20
-350.5558628123
30
0.0000000000
10
-57.7212608764
20
-350.5530345516
30
0.0000000000
10
-57.7014870436
20
-350.5480002372
30
0.0000000000
10
-57.6846917334
20
-350.5458864778
30
0.0000000000
10
-57.6636387325
20
-350.5408116053
30
0.0000000000
10
-57.6636553372
20
-350.5441016279
30
0.0000000000
11
-57.7316810613
21
-350.5558628123
31
0.0000000000
11
-57.7023759155
21
-350.5487157748
31
0.0000000000
11
-57.6734760677
21
-350.5431147273
31
0.0000000000
11
-57.6636553372
21
-350.5441016279
31
0.0000000000
0
SPLINE
5
3CF
100
AcDbEntity
8
0
100
AcDbSpline
62
9
6
CONTINUOUS
70
0
71
3
72
12
73
8
74
6
42
0.0000001000
43
0.0000001000
44
0.0000000001
12
1.1394044272
22
0.1385317330
32
0.0000000000
13
1.0911181987
23
0.3562226359
33
0.0000000000
40
0.0000000000
40
0.0000000000
40
0.0000000000
40
0.0000000000
40
0.1736997740
40
0.3668447149
40
0.5660151312
40
0.7736035241
40
1.0000000000
40
1.0000000000
40
1.0000000000
40
1.0000000000
10
-59.0876658913
20
-350.8759210414
30
0.0000000000
10
-59.0216944608
20
-350.8679000645
30
0.0000000000
10
-58.8826417771
20
-350.8486041749
30
0.0000000000
10
-58.6692908051
20
-350.8111949430
30
0.0000000000
10
-58.4448372854
20
-350.7629448280
30
0.0000000000
10
-58.2101435971
20
-350.7026885657
30
0.0000000000
10
-58.0511422276
20
-350.6546266387
30
0.0000000000
10
-57.9688004560
20
-350.6277441223
30
0.0000000000
11
-59.0876658913
21
-350.8759210414
31
0.0000000000
11
-58.8901864639
21
-350.8485172612
31
0.0000000000
11
-58.6718269259
21
-350.8102298406
31
0.0000000000
11
-58.4483258621
21
-350.7621845263
31
0.0000000000
11
-58.2175420046
21
-350.7029317241
31
0.0000000000
11
-57.9688004560
21
-350.6277441223
31
0.0000000000
0
SPLINE
5
3D0
100
AcDbEntity
8
0
100
AcDbSpline
62
9
6
CONTINUOUS
70
0
71
3
72
14
73
10
74
8
42
0.0000001000
43
0.0000001000
44
0.0000000001
12
0.0001275271
22
-0.1030417226
32
0.0000000000
13
0.1022885817
23
0.0124361939
33
0.0000000000
40
0.0000000000
40
0.0000000000
40
0.0000000000
40
0.0000000000
40
0.0475695937
40
0.1569696759
40
0.3115077117
40
0.4870765621
40
0.6663493256
40
0.8385288923
40
1.0000000000
40
1.0000000000
40
1.0000000000
40
1.0000000000
10
-59.1893809309
20
-350.8759210414
30
0.0000000000
10
-59.1893789087
20
-350.8775549257
30
0.0000000000
10
-59.1825803704
20
-350.8800038691
30
0.0000000000
10
-59.1732018195
20
-350.8807186819
30
0.0000000000
10
-59.1575141532
20
-350.8812377133
30
0.0000000000
10
-59.1402183027
20
-350.8806141101
30
0.0000000000
10
-59.1220969690
20
-350.8794580611
30
0.0000000000
10
-59.1045643694
20
-350.8778622315
30
0.0000000000
10
-59.0931714415
20
-350.8765904034
30
0.0000000000
10
-59.0876658913
20
-350.8759210414
30
0.0000000000
11
-59.1893809309
21
-350.8759210414
31
0.0000000000
11
-59.1854486714
21
-350.8788473997
31
0.0000000000
11
-59.1743074496
21
-350.8805646011
31
0.0000000000
11
-59.1583906362
21
-350.8810388713
31
0.0000000000
11
-59.1403067394
21
-350.8805344422
31
0.0000000000
11
-59.1218716131
21
-350.8793585832
31
0.0000000000
11
-59.1042014843
21
-350.8777666635
31
0.0000000000
11
-59.0876658913
21
-350.8759210414
31
0.0000000000
0
SPLINE
5
3D1
100
AcDbEntity
8
0
100
AcDbSpline
62
9
6
CONTINUOUS
70
0
71
3
72
12
73
8
74
6
42
0.0000001000
43
0.0000001000
44
0.0000000001
12
0.0000000955
22
-0.2481769191
32
0.0000000000
13
-0.0000000361
23
-0.2481769191
33
0.0000000000
40
0.0000000000
40
0.0000000000
40
0.0000000000
40
0.0000000000
40
0.3245288541
40
0.5733868835
40
0.7612770168
40
0.8998605882
40
1.0000000000
40
1.0000000000
40
1.0000000000
40
1.0000000000
10
-59.1893809309
20
-350.6277441223
30
0.0000000000
10
-59.1893809206
20
-350.6545909793
30
0.0000000000
10
-59.1893809399
20
-350.7020247761
30
0.0000000000
10
-59.1893809292
20
-350.7650019043
30
0.0000000000
10
-59.1893809299
20
-350.8125965900
30
0.0000000000
10
-59.1893809322
20
-350.8478884330
30
0.0000000000
10
-59.1893809297
20
-350.8676369445
30
0.0000000000
10
-59.1893809309
20
-350.8759210414
30
0.0000000000
11
-59.1893809309
21
-350.6277441223
31
0.0000000000
11
-59.1893809337
21
-350.7082846935
31
0.0000000000
11
-59.1893809305
21
-350.7700455125
31
0.0000000000
11
-59.1893809304
21
-350.8166755069
31
0.0000000000
11
-59.1893809311
21
-350.8510687507
31
0.0000000000
11
-59.1893809309
21
-350.8759210414
31
0.0000000000
0
SPLINE
5
3D2
100
AcDbEntity
8
0
100
AcDbSpline
62
9
6
CONTINUOUS
70
0
71
3
72
8
73
4
74
2
42
0.0000001000
43
0.0000001000
44
0.0000000001
12
0.0259648526
22
0.0014341561
32
0.0000000000
13
0.0260031346
23
0.0007031723
33
0.0000000000
40
0.0000000000
40
0.0000000000
40
0.0000000000
40
0.0000000000
40
1.0000000000
40
1.0000000000
40
1.0000000000
40
1.0000000000
10
-59.4945260496
20
-350.5441016279
30
0.0000000000
10
-59.4858710988
20
-350.5436235758
30
0.0000000000
10
-59.4772075428
20
-350.5432649454
30
0.0000000000
10
-59.4685398312
20
-350.5430305547
30
0.0000000000
11
-59.4945260496
21
-350.5441016279
31
0.0000000000
11
-59.4685398312
21
-350.5430305547
31
0.0000000000
0
SPLINE
5
3D3
100
AcDbEntity
8
0
100
AcDbSpline
62
9
6
CONTINUOUS
70
0
71
3
72
10
73
6
74
4
42
0.0000001000
43
0.0000001000
44
0.0000000001
12
0.1456857917
22
0.0039396100
32
0.0000000000
13
0.1438195669
23
-0.0241745223
33
0.0000000000
40
0.0000000000
40
0.0000000000
40
0.0000000000
40
0.0000000000
40
0.3486430920
40
0.8460685313
40
1.0000000000
40
1.0000000000
40
1.0000000000
40
1.0000000000
10
-59.4685398312
20
-350.5430305547
30
0.0000000000
10
-59.4516090496
20
-350.5425727154
30
0.0000000000
10
-59.4104838516
20
-350.5426120047
30
0.0000000000
10
-59.3619969062
20
-350.5462078797
30
0.0000000000
10
-59.3306535961
20
-350.5507967711
30
0.0000000000
10
-59.3232741438
20
-350.5520371777
30
0.0000000000
11
-59.4685398312
21
-350.5430305547
31
0.0000000000
11
-59.4177330822
21
-350.5431150322
31
0.0000000000
11
-59.3454813158
21
-350.5487533140
31
0.0000000000
11
-59.3232741438
21
-350.5520371777
31
0.0000000000
0
SPLINE
5
3D4
100
AcDbEntity
8
0
100
AcDbSpline
62
9
6
CONTINUOUS
70
0
71
3
72
8
73
4
74
2
42
0.0000001000
43
0.0000001000
44
0.0000000001
12
0.0237336029
22
-0.0039893634
32
0.0000000000
13
0.0234891810
23
-0.0051773087
33
0.0000000000
40
0.0000000000
40
0.0000000000
40
0.0000000000
40
0.0000000000
40
1.0000000000
40
1.0000000000
40
1.0000000000
40
1.0000000000
10
-59.3232741438
20
-350.5520371777
30
0.0000000000
10
-59.3153629428
20
-350.5533669655
30
0.0000000000
10
-59.3074836162
20
-350.5548759764
30
0.0000000000
10
-59.2996538893
20
-350.5566017460
30
0.0000000000
11
-59.3232741438
21
-350.5520371777
31
0.0000000000
11
-59.2996538893
21
-350.5566017460
31
0.0000000000
0
SPLINE
5
3D5
100
AcDbEntity
8
0
100
AcDbSpline
62
9
6
CONTINUOUS
70
0
71
3
72
8
73
4
74
2
42
0.0000001000
43
0.0000001000
44
0.0000000001
12
0.0172327122
22
-0.0037983049
32
0.0000000000
13
0.0170515376
23
-0.0045427719
33
0.0000000000
40
0.0000000000
40
0.0000000000
40
0.0000000000
40
0.0000000000
40
1.0000000000
40
1.0000000000
40
1.0000000000
40
1.0000000000
10
-59.2996538893
20
-350.5566017460
30
0.0000000000
10
-59.2939096519
20
-350.5578678476
30
0.0000000000
10
-59.2881921107
20
-350.5592506162
30
0.0000000000
10
-59.2825082648
20
-350.5607648735
30
0.0000000000
11
-59.2996538893
21
-350.5566017460
31
0.0000000000
11
-59.2825082648
21
-350.5607648735
31
0.0000000000
0
SPLINE
5
3D6
100
AcDbEntity
8
0
100
AcDbSpline
62
9
6
CONTINUOUS
70
0
71
3
72
10
73
6
74
4
42
0.0000001000
43
0.0000001000
44
0.0000000001
12
0.1168063314
22
-0.0311188667
32
0.0000000000
13
-0.0000729979
23
-0.1208295183
33
0.0000000000
40
0.0000000000
40
0.0000000000
40
0.0000000000
40
0.0000000000
40
0.4363905819
40
0.7617294484
40
1.0000000000
40
1.0000000000
40
1.0000000000
40
1.0000000000
10
-59.2825082648
20
-350.5607648735
30
0.0000000000
10
-59.2655172038
20
-350.5652915337
30
0.0000000000
10
-59.2363845253
20
-350.5752439412
30
0.0000000000
10
-59.2011788529
20
-350.5960407643
30
0.0000000000
10
-59.1893751331
20
-350.6181474169
30
0.0000000000
10
-59.1893809309
20
-350.6277441223
30
0.0000000000
11
-59.2825082648
21
-350.5607648735
31
0.0000000000
11
-59.2328972631
21
-350.5786277569
31
0.0000000000
11
-59.2007920564
21
-350.6013119961
31
0.0000000000
11
-59.1893809309
21
-350.6277441223
31
0.0000000000
0
SPLINE
5
3D7
100
AcDbEntity
8
0
100
AcDbSpline
62
9
6
CONTINUOUS
70
0
71
3
72
10
73
6
74
4
42
0.0000001000
43
0.0000001000
44
0.0000000001
12
0.6096363370
22
-0.0336737673
32
0.0000000000
13
0.6096363343
23
0.0336738160
33
0.0000000000
40
0.0000000000
40
0.0000000000
40
0.0000000000
40
0.0000000000
40
0.3328661760
40
0.6669943864
40
1.0000000000
40
1.0000000000
40
1.0000000000
40
1.0000000000
10
-60.1048162871
20
-350.5441016279
30
0.0000000000
10
-60.0371738483
20
-350.5478379139
30
0.0000000000
10
-59.9014813007
20
-350.5528355022
30
0.0000000000
10
-59.6979178097
20
-350.5528370633
30
0.0000000000
10
-59.5621968235
20
-350.5478394844
30
0.0000000000
10
-59.4945260496
20
-350.5441016279
30
0.0000000000
11
-60.1048162871
21
-350.5441016279
31
0.0000000000
11
-59.9017173365
21
-350.5515816319
31
0.0000000000
11
-59.6977101359
21
-350.5515832008
31
0.0000000000
11
-59.4945260496
21
-350.5441016279
31
0.0000000000
0
SPLINE
5
3D8
100
AcDbEntity
8
0
100
AcDbSpline
62
9
6
CONTINUOUS
70
0
71
3
72
11
73
7
74
5
42
0.0000001000
43
0.0000001000
44
0.0000000001
12
0.0000256699
22
0.1384612527
32
0.0000000000
13
0.1352723955
23
0.0298191917
33
0.0000000000
40
0.0000000000
40
0.0000000000
40
0.0000000000
40
0.0000000000
40
0.2091032557
40
0.4931166190
40
0.8736295673
40
1.0000000000
40
1.0000000000
40
1.0000000000
40
1.0000000000
10
-60.4099614058
20
-350.6277441223
30
0.0000000000
10
-60.4099596166
20
-350.6180932227
30
0.0000000000
10
-60.3980704518
20
-350.5959444012
30
0.0000000000
10
-60.3628055431
20
-350.5751842135
30
0.0000000000
10
-60.3281376662
20
-350.5633566554
30
0.0000000000
10
-60.3053871751
20
-350.5578576221
30
0.0000000000
10
-60.2996890313
20
-350.5566015341
30
0.0000000000
11
-60.4099614058
21
-350.6277441223
31
0.0000000000
11
-60.3984351739
21
-350.6011846650
31
0.0000000000
11
-60.3662799209
21
-350.5785465715
31
0.0000000000
11
-60.3166979021
21
-350.5607288932
31
0.0000000000
11
-60.2996890313
21
-350.5566015341
31
0.0000000000
0
SPLINE
5
3D9
100
AcDbEntity
8
0
100
AcDbSpline
62
9
6
CONTINUOUS
70
0
71
3
72
8
73
4
74
2
42
0.0000001000
43
0.0000001000
44
0.0000000001
12
0.0042859530
22
0.0009447874
32
0.0000000000
13
0.0042955310
23
0.0009021475
33
0.0000000000
40
0.0000000000
40
0.0000000000
40
0.0000000000
40
0.0000000000
40
1.0000000000
40
1.0000000000
40
1.0000000000
40
1.0000000000
10
-60.2996890313
20
-350.5566015341
30
0.0000000000
10
-60.2982603803
20
-350.5562866049
30
0.0000000000
10
-60.2968300793
20
-350.5559788966
30
0.0000000000
10
-60.2953982356
20
-350.5556781808
30
0.0000000000
11
-60.2996890313
21
-350.5566015341
31
0.0000000000
11
-60.2953982356
21
-350.5556781808
31
0.0000000000
0
SPLINE
5
3DA
100
AcDbEntity
8
0
100
AcDbSpline
62
9
6
CONTINUOUS
70
0
71
3
72
8
73
4
74
2
42
0.0000001000
43
0.0000001000
44
0.0000000001
12
0.0193422573
22
0.0040622611
32
0.0000000000
13
0.0195005064
23
0.0032741333
33
0.0000000000
40
0.0000000000
40
0.0000000000
40
0.0000000000
40
0.0000000000
40
1.0000000000
40
1.0000000000
40
1.0000000000
40
1.0000000000
10
-60.2953982356
20
-350.5556781808
30
0.0000000000
10
-60.2889508165
20
-350.5543240938
30
0.0000000000
10
-60.2824721195
20
-350.5531117858
30
0.0000000000
10
-60.2759719507
20
-350.5520204080
30
0.0000000000
11
-60.2953982356
21
-350.5556781808
31
0.0000000000
11
-60.2759719507
21
-350.5520204080
31
0.0000000000
0
SPLINE
5
3DB
100
AcDbEntity
8
0
100
AcDbSpline
62
9
6
CONTINUOUS
70
0
71
3
72
10
73
6
74
4
42
0.0000001000
43
0.0000001000
44
0.0000000001
12
0.1436554342
22
0.0241197344
32
0.0000000000
13
0.1455167566
23
-0.0039235326
33
0.0000000000
40
0.0000000000
40
0.0000000000
40
0.0000000000
40
0.0000000000
40
0.1538736103
40
0.6506453984
40
1.0000000000
40
1.0000000000
40
1.0000000000
40
1.0000000000
10
-60.2759719507
20
-350.5520204080
30
0.0000000000
10
-60.2686036906
20
-350.5507832778
30
0.0000000000
10
-60.2373307800
20
-350.5462091926
30
0.0000000000
10
-60.1889006706
20
-350.5426146765
30
0.0000000000
10
-60.1478204931
20
-350.5425721360
30
0.0000000000
10
-60.1308748436
20
-350.5430290374
30
0.0000000000
11
-60.2759719507
21
-350.5520204080
31
0.0000000000
11
-60.2537986844
21
-350.5487448126
31
0.0000000000
11
-60.1817260172
21
-350.5431185000
31
0.0000000000
11
-60.1308748436
21
-350.5430290374
31
0.0000000000
0
SPLINE
5
3DC
100
AcDbEntity
8
0
100
AcDbSpline
62
9
6
CONTINUOUS
70
0
71
3
72
8
73
4
74
2
42
0.0000001000
43
0.0000001000
44
0.0000000001
12
0.0260755307
22
-0.0007030681
32
0.0000000000
13
0.0260370964
23
-0.0014371509
33
0.0000000000
40
0.0000000000
40
0.0000000000
40
0.0000000000
40
0.0000000000
40
1.0000000000
40
1.0000000000
40
1.0000000000
40
1.0000000000
10
-60.1308748436
20
-350.5430290374
30
0.0000000000
10
-60.1221830000
20
-350.5432633934
30
0.0000000000
10
-60.1134953192
20
-350.5436225776
30
0.0000000000
10
-60.1048162871
20
-350.5441016279
30
0.0000000000
11
-60.1308748436
21
-350.5430290374
31
0.0000000000
11
-60.1048162871
21
-350.5441016279
31
0.0000000000
0
SPLINE
5
3DD
100
AcDbEntity
8
0
100
AcDbSpline
62
9
6
CONTINUOUS
70
0
71
3
72
12
73
8
74
6
42
0.0000001000
43
0.0000001000
44
0.0000000001
12
-0.0000000402
22
0.2481769191
32
0.0000000000
13
0.0000000830
23
0.2481769191
33
0.0000000000
40
0.0000000000
40
0.0000000000
40
0.0000000000
40
0.0000000000
40
0.1005484461
40
0.2392339420
40
0.4272491127
40
0.6764381929
40
1.0000000000
40
1.0000000000
40
1.0000000000
40
1.0000000000
10
-60.4099614058
20
-350.8759210414
30
0.0000000000
10
-60.4099614072
20
-350.8676031069
30
0.0000000000
10
-60.4099614041
20
-350.8478123260
30
0.0000000000
10
-60.4099614090
20
-350.8124678698
30
0.0000000000
10
-60.4099614049
20
-350.7648270221
30
0.0000000000
10
-60.4099614006
20
-350.7018921633
30
0.0000000000
10
-60.4099614148
20
-350.6545109797
30
0.0000000000
10
-60.4099614058
20
-350.6277441223
30
0.0000000000
11
-60.4099614058
21
-350.8759210414
31
0.0000000000
11
-60.4099614056
21
-350.8509672378
31
0.0000000000
11
-60.4099614073
21
-350.8165486987
31
0.0000000000
11
-60.4099614054
21
-350.7698876729
31
0.0000000000
11
-60.4099614043
21
-350.7080446947
31
0.0000000000
11
-60.4099614058
21
-350.6277441223
31
0.0000000000
0
SPLINE
5
3DE
100
AcDbEntity
8
0
100
AcDbSpline
62
9
6
CONTINUOUS
70
0
71
3
72
14
73
10
74
8
42
0.0000001000
43
0.0000001000
44
0.0000000001
12
0.1022860762
22
-0.0124369244
32
0.0000000000
13
-0.0002474778
23
0.1030391053
33
0.0000000000
40
0.0000000000
40
0.0000000000
40
0.0000000000
40
0.0000000000
40
0.1614060718
40
0.3347621391
40
0.5142394507
40
0.6893348921
40
0.8429827303
40
0.9520038950
40
1.0000000000
40
1.0000000000
40
1.0000000000
40
1.0000000000
10
-60.5116764454
20
-350.8759210414
30
0.0000000000
10
-60.5061732475
20
-350.8765901731
30
0.0000000000
10
-60.4947425844
20
-350.8778662242
30
0.0000000000
10
-60.4771655942
20
-350.8794648531
30
0.0000000000
10
-60.4590122956
20
-350.8806199421
30
0.0000000000
10
-60.4417590008
20
-350.8812355383
30
0.0000000000
10
-60.4261260032
20
-350.8807216361
30
0.0000000000
10
-60.4167929594
20
-350.8799963869
30
0.0000000000
10
-60.4099574465
20
-350.8775695333
30
0.0000000000
10
-60.4099614058
20
-350.8759210414
30
0.0000000000
11
-60.5116764454
21
-350.8759210414
31
0.0000000000
11
-60.4951479062
21
-350.8777659571
31
0.0000000000
11
-60.4773573331
21
-350.8793673986
31
0.0000000000
11
-60.4589013620
21
-350.8805407998
31
0.0000000000
11
-60.4408665143
21
-350.8810390748
31
0.0000000000
11
-60.4250418343
21
-350.8805649394
31
0.0000000000
11
-60.4139383902
21
-350.8788606786
31
0.0000000000
11
-60.4099614058
21
-350.8759210414
31
0.0000000000
0
SPLINE
5
3DF
100
AcDbEntity
8
0
100
AcDbSpline
62
9
6
CONTINUOUS
70
0
71
3
72
10
73
6
74
4
42
0.0000001000
43
0.0000001000
44
0.0000000001
12
0.0000000011
22
0.0084211513
32
0.0000000000
13
0.0000000040
23
0.0084211513
33
0.0000000000
40
0.0000000000
40
0.0000000000
40
0.0000000000
40
0.0000000000
40
0.1109954972
40
0.4447521893
40
1.0000000000
40
1.0000000000
40
1.0000000000
40
1.0000000000
10
-61.9356869995
20
-350.5525227792
30
0.0000000000
10
-61.9356869994
20
-350.5522112092
30
0.0000000000
10
-61.9356869992
20
-350.5509627674
30
0.0000000000
10
-61.9356869987
20
-350.5481557170
30
0.0000000000
10
-61.9356870002
20
-350.5456602365
30
0.0000000000
10
-61.9356869995
20
-350.5441016279
30
0.0000000000
11
-61.9356869995
21
-350.5525227792
31
0.0000000000
11
-61.9356869993
21
-350.5515880693
31
0.0000000000
11
-61.9356869991
21
-350.5487774537
31
0.0000000000
11
-61.9356869995
21
-350.5441016279
31
0.0000000000
0
SPLINE
5
3E0
100
AcDbEntity
8
0
100
AcDbSpline
62
9
6
CONTINUOUS
70
0
71
3
72
12
73
8
74
6
42
0.0000001000
43
0.0000001000
44
0.0000000001
12
1.0911187217
22
-0.3562227291
32
0.0000000000
13
1.1394049461
23
-0.1385318241
33
0.0000000000
40
0.0000000000
40
0.0000000000
40
0.0000000000
40
0.0000000000
40
0.2220767843
40
0.4263822369
40
0.6251590283
40
0.8222368415
40
1.0000000000
40
1.0000000000
40
1.0000000000
40
1.0000000000
10
-61.6305418808
20
-350.6277441223
30
0.0000000000
10
-61.5497711684
20
-350.6541137217
30
0.0000000000
10
-61.3935773228
20
-350.7013986667
30
0.0000000000
10
-61.1619185745
20
-350.7611622884
30
0.0000000000
10
-60.9374429032
20
-350.8097737493
30
0.0000000000
10
-60.7212685808
20
-350.8479395612
30
0.0000000000
10
-60.5791911861
20
-350.8677124232
30
0.0000000000
10
-60.5116764454
20
-350.8759210414
30
0.0000000000
11
-61.6305418808
21
-350.6277441223
31
0.0000000000
11
-61.3865772820
21
-350.7015997129
31
0.0000000000
11
-61.1595108922
21
-350.7601789307
31
0.0000000000
11
-60.9365244718
21
-350.8084678157
31
0.0000000000
11
-60.7137645272
21
-350.8477962875
31
0.0000000000
11
-60.5116764454
21
-350.8759210414
31
0.0000000000
0
SPLINE
5
3E1
100
AcDbEntity
8
0
100
AcDbSpline
62
9
6
CONTINUOUS
70
0
71
3
72
10
73
6
74
4
42
0.0000001000
43
0.0000001000
44
0.0000000001
12
-0.0000305523
22
0.0705416368
32
0.0000000000
13
0.0710873922
23
-0.0193144344
33
0.0000000000
40
0.0000000000
40
0.0000000000
40
0.0000000000
40
0.0000000000
40
0.1406318942
40
0.5591741542
40
1.0000000000
40
1.0000000000
40
1.0000000000
40
1.0000000000
10
-61.9356869995
20
-350.5441016279
30
0.0000000000
10
-61.9356884317
20
-350.5407948265
30
0.0000000000
10
-61.9145935369
20
-350.5459144596
30
0.0000000000
10
-61.8977191309
20
-350.5480264120
30
0.0000000000
10
-61.8778908870
20
-350.5530787044
30
0.0000000000
10
-61.8674451671
20
-350.5559168050
30
0.0000000000
11
-61.9356869995
21
-350.5441016279
31
0.0000000000
11
-61.9258151942
21
-350.5431208653
31
0.0000000000
11
-61.8968315924
21
-350.5487472587
31
0.0000000000
11
-61.8674451671
21
-350.5559168050
31
0.0000000000
0
SPLINE
5
3E2
100
AcDbEntity
8
0
100
AcDbSpline
62
9
6
CONTINUOUS
70
0
71
3
72
11
73
7
74
5
42
0.0000001000
43
0.0000001000
44
0.0000000001
12
0.2486304027
22
-0.0675528451
32
0.0000000000
13
0.2345404016
23
-0.0765660645
33
0.0000000000
40
0.0000000000
40
0.0000000000
40
0.0000000000
40
0.0000000000
40
0.0697732047
40
0.3340318270
40
0.6507837916
40
1.0000000000
40
1.0000000000
40
1.0000000000
40
1.0000000000
10
-61.8674451671
20
-350.5559168050
30
0.0000000000
10
-61.8616625871
20
-350.5574879311
30
0.0000000000
10
-61.8335763399
20
-350.5653711044
30
0.0000000000
10
-61.7836387703
20
-350.5795160076
30
0.0000000000
10
-61.7098441359
20
-350.6022086233
30
0.0000000000
10
-61.6578436507
20
-350.6188314187
30
0.0000000000
10
-61.6305418808
20
-350.6277441223
30
0.0000000000
11
-61.8674451671
21
-350.5559168050
31
0.0000000000
11
-61.8500362625
21
-350.5607540561
31
0.0000000000
11
-61.7873548967
21
-350.5786947089
31
0.0000000000
11
-61.7126074108
21
-350.6015018830
31
0.0000000000
11
-61.6305418808
21
-350.6277441223
31
0.0000000000
0
SPLINE
5
3E3
100
AcDbEntity
8
0
100
AcDbSpline
62
9
6
CONTINUOUS
70
0
71
3
72
9
73
5
74
3
42
0.0000001000
43
0.0000001000
44
0.0000000001
12
0.0385583277
22
-0.0148674323
32
0.0000000000
13
0.0415816152
23
0.0019562143
33
0.0000000000
40
0.0000000000
40
0.0000000000
40
0.0000000000
40
0.0000000000
40
0.9326375344
40
1.0000000000
40
1.0000000000
40
1.0000000000
40
1.0000000000
10
-61.9356839284
20
-350.5440936872
30
0.0000000000
10
-61.9236969471
20
-350.5487156623
30
0.0000000000
10
-61.9097292971
20
-350.5511868774
30
0.0000000000
10
-61.8958572274
20
-350.5507307802
30
0.0000000000
10
-61.8949235473
20
-350.5506868551
30
0.0000000000
11
-61.9356839284
21
-350.5440936872
31
0.0000000000
11
-61.8977265747
21
-350.5507789446
31
0.0000000000
11
-61.8949235473
21
-350.5506868551
31
0.0000000000
0
SPLINE
5
3E4
100
AcDbEntity
8
0
100
AcDbSpline
62
9
6
CONTINUOUS
70
0
71
3
72
11
73
7
74
5
42
0.0000001000
43
0.0000001000
44
0.0000000001
12
0.1364282044
22
-0.0140105337
32
0.0000000000
13
0.0395342535
23
0.1327328489
33
0.0000000000
40
0.0000000000
40
0.0000000000
40
0.0000000000
40
0.0000000000
40
0.3028818956
40
0.6052345461
40
0.9066924769
40
1.0000000000
40
1.0000000000
40
1.0000000000
40
1.0000000000
10
-60.4099614044
20
-350.8759210276
30
0.0000000000
10
-60.3961875267
20
-350.8773355400
30
0.0000000000
10
-60.3677276071
20
-350.8743629408
30
0.0000000000
10
-60.3307759638
20
-350.8531090836
30
0.0000000000
10
-60.3113804088
20
-350.8266740532
30
0.0000000000
10
-60.3050457623
20
-350.8095391980
30
0.0000000000
10
-60.3038161479
20
-350.8054108735
30
0.0000000000
11
-60.4099614044
21
-350.8759210276
31
0.0000000000
11
-60.3686528779
21
-350.8715517468
31
0.0000000000
11
-60.3326973862
21
-350.8508959303
31
0.0000000000
11
-60.3083000099
21
-350.8175182911
31
0.0000000000
11
-60.3038161479
21
-350.8054108735
31
0.0000000000
0
SPLINE
5
3E5
100
AcDbEntity
8
0
100
AcDbSpline
62
9
6
CONTINUOUS
70
0
71
3
72
8
73
4
74
2
42
0.0000001000
43
0.0000001000
44
0.0000000001
12
0.0033860998
22
0.0113685382
32
0.0000000000
13
0.0020145149
23
0.0116653788
33
0.0000000000
40
0.0000000000
40
0.0000000000
40
0.0000000000
40
0.0000000000
40
1.0000000000
40
1.0000000000
40
1.0000000000
40
1.0000000000
10
-60.3038161479
20
-350.8054108735
30
0.0000000000
10
-60.3026874479
20
-350.8016213608
30
0.0000000000
10
-60.3017842727
20
-350.7977658753
30
0.0000000000
10
-60.3011127678
20
-350.7938774157
30
0.0000000000
11
-60.3038161479
21
-350.8054108735
31
0.0000000000
11
-60.3011127678
21
-350.7938774157
31
0.0000000000
0
SPLINE
5
3E6
100
AcDbEntity
8
0
100
AcDbSpline
62
9
6
CONTINUOUS
70
0
71
3
72
8
73
4
74
2
42
0.0000001000
43
0.0000001000
44
0.0000000001
12
0.0006855855
22
0.0039699952
32
0.0000000000
13
0.0005238670
23
0.0039890075
33
0.0000000000
40
0.0000000000
40
0.0000000000
40
0.0000000000
40
0.0000000000
40
1.0000000000
40
1.0000000000
40
1.0000000000
40
1.0000000000
10
-60.3011127678
20
-350.7938774157
30
0.0000000000
10
-60.3008842393
20
-350.7925540840
30
0.0000000000
10
-60.3006825428
20
-350.7912269332
30
0.0000000000
10
-60.3005079204
20
-350.7898972641
30
0.0000000000
11
-60.3011127678
21
-350.7938774157
31
0.0000000000
11
-60.3005079204
21
-350.7898972641
31
0.0000000000
0
SPLINE
5
3E7
100
AcDbEntity
8
0
100
AcDbSpline
62
9
6
CONTINUOUS
70
0
71
3
72
8
73
4
74
2
42
0.0000001000
43
0.0000001000
44
0.0000000001
12
0.0016657154
22
0.0126836605
32
0.0000000000
13
0.0000000018
23
0.0127109900
33
0.0000000000
40
0.0000000000
40
0.0000000000
40
0.0000000000
40
0.0000000000
40
1.0000000000
40
1.0000000000
40
1.0000000000
40
1.0000000000
10
-60.3005079204
20
-350.7898972641
30
0.0000000000
10
-60.2999526820
20
-350.7856693772
30
0.0000000000
10
-60.2996711689
20
-350.7814160291
30
0.0000000000
10
-60.2996711684
20
-350.7771790324
30
0.0000000000
11
-60.3005079204
21
-350.7898972641
31
0.0000000000
11
-60.2996711684
21
-350.7771790324
31
0.0000000000
0
SPLINE
5
3E8
100
AcDbEntity
8
0
100
AcDbSpline
62
9
6
CONTINUOUS
70
0
71
3
72
10
73
6
74
4
42
0.0000001000
43
0.0000001000
44
0.0000000001
12
0.1210365973
22
-0.0119148569
32
0.0000000000
13
0.0533106822
23
0.1105467502
33
0.0000000000
40
0.0000000000
40
0.0000000000
40
0.0000000000
40
0.0000000000
40
0.3413955304
40
0.6788235121
40
1.0000000000
40
1.0000000000
40
1.0000000000
40
1.0000000000
10
-60.4099609272
20
-350.6277397289
30
0.0000000000
10
-60.3961871428
20
-350.6290956218
30
0.0000000000
10
-60.3679460182
20
-350.6262943698
30
0.0000000000
10
-60.3314095259
20
-350.6063315047
30
0.0000000000
10
-60.3144984068
20
-350.5847002705
30
0.0000000000
10
-60.3087910276
20
-350.5728652649
30
0.0000000000
11
-60.4099609272
21
-350.6277397289
31
0.0000000000
11
-60.3686508600
21
-350.6235589874
31
0.0000000000
11
-60.3326930764
21
-350.6037802172
31
0.0000000000
11
-60.3087910276
21
-350.5728652649
31
0.0000000000
0
SPLINE
5
3E9
100
AcDbEntity
8
0
100
AcDbSpline
62
9
6
CONTINUOUS
70
0
71
3
72
10
73
6
74
4
42
0.0000001000
43
0.0000001000
44
0.0000000001
12
-0.1210105791
22
-0.0119005592
32
0.0000000000
13
-0.0533247757
23
0.1105085263
33
0.0000000000
40
0.0000000000
40
0.0000000000
40
0.0000000000
40
0.0000000000
40
0.3414622253
40
0.6789559621
40
1.0000000000
40
1.0000000000
40
1.0000000000
40
1.0000000000
10
-59.1893809381
20
-350.6277440558
30
0.0000000000
10
-59.2031544520
20
-350.6290985863
30
0.0000000000
10
-59.2313944160
20
-350.6262950460
30
0.0000000000
10
-59.2679213480
20
-350.6063344160
30
0.0000000000
10
-59.2848281587
20
-350.5847121440
30
0.0000000000
10
-59.2905346925
20
-350.5728861095
30
0.0000000000
11
-59.1893809381
21
-350.6277440558
31
0.0000000000
11
-59.2306894497
21
-350.6235599420
31
0.0000000000
11
-59.2666449318
21
-350.6037795069
31
0.0000000000
11
-59.2905346925
21
-350.5728861095
31
0.0000000000
0
SPLINE
5
3EA
100
AcDbEntity
8
0
100
AcDbSpline
62
9
6
CONTINUOUS
70
0
71
3
72
11
73
7
74
5
42
0.0000001000
43
0.0000001000
44
0.0000000001
12
-0.1647257712
22
-0.0169074676
32
0.0000000000
13
-0.0000024998
23
0.1655911898
33
0.0000000000
40
0.0000000000
40
0.0000000000
40
0.0000000000
40
0.0000000000
40
0.2508328946
40
0.5012304872
40
0.7508912799
40
1.0000000000
40
1.0000000000
40
1.0000000000
40
1.0000000000
10
-59.1893809410
20
-350.8759209439
30
0.0000000000
10
-59.2031538217
20
-350.8773345936
30
0.0000000000
10
-59.2316115259
20
-350.8743606102
30
0.0000000000
10
-59.2685596047
20
-350.8531061834
30
0.0000000000
10
-59.2937251824
20
-350.8188043820
30
0.0000000000
10
-59.2996614209
20
-350.7909291019
30
0.0000000000
10
-59.2996616285
20
-350.7771790321
30
0.0000000000
11
-59.1893809410
21
-350.8759209439
31
0.0000000000
11
-59.2306860066
21
-350.8715497446
31
0.0000000000
11
-59.2666380971
21
-350.8508935049
31
0.0000000000
11
-59.2910332039
21
-350.8175167324
31
0.0000000000
11
-59.2996616285
21
-350.7771790321
31
0.0000000000
0
SPLINE
5
3EB
100
AcDbEntity
8
0
100
AcDbSpline
62
9
6
CONTINUOUS
70
0
71
3
72
9
73
5
74
3
42
0.0000001000
43
0.0000001000
44
0.0000000001
12
-0.0385822683
22
-0.0148726601
32
0.0000000000
13
-0.0416051680
23
0.0019714101
33
0.0000000000
40
0.0000000000
40
0.0000000000
40
0.0000000000
40
0.0000000000
40
0.9320597385
40
1.0000000000
40
1.0000000000
40
1.0000000000
40
1.0000000000
10
-57.6636553391
20
-350.5441016229
30
0.0000000000
10
-57.6756423321
20
-350.5487223588
30
0.0000000000
10
-57.6896183483
20
-350.5511938650
30
0.0000000000
10
-57.7034984441
20
-350.5507346048
30
0.0000000000
10
-57.7044406661
20
-350.5506899587
30
0.0000000000
11
-57.6636553391
21
-350.5441016229
31
0.0000000000
11
-57.7016119666
21
-350.5507834812
31
0.0000000000
11
-57.7044406661
21
-350.5506899587
31
0.0000000000
0
SPLINE
5
3EC
100
AcDbEntity
8
0
100
AcDbSpline
62
7
6
CONTINUOUS
70
0
71
3
72
8
73
4
74
2
42
0.0000001000
43
0.0000001000
44
0.0000000001
12
0.0000000000
22
0.5419593887
32
0.0000000000
13
0.3916126434
23
0.4158158328
33
0.0000000000
40
0.0000000000
40
0.0000000000
40
0.0000000000
40
0.0000000000
40
1.0000000000
40
1.0000000000
40
1.0000000000
40
1.0000000000
10
-467.2996711684
20
104.0140722504
30
0.0000000000
10
-467.2996711684
20
104.1947253800
30
0.0000000000
10
-467.1880259654
20
104.3600522309
30
0.0000000000
10
-467.0574884176
20
104.4986575085
30
0.0000000000
11
-467.2996711684
21
104.0140722504
31
0.0000000000
11
-467.0574884176
21
104.4986575085
31
0.0000000000
0
SPLINE
5
3ED
100
AcDbEntity
8
0
100
AcDbSpline
62
7
6
CONTINUOUS
70
0
71
3
72
10
73
6
74
4
42
0.0000001000
43
0.0000001000
44
0.0000000001
12
0.9310995631
22
0.9886451492
32
0.0000000000
13
1.1431628133
23
0.5943790646
33
0.0000000000
40
0.0000000000
40
0.0000000000
40
0.0000000000
40
0.0000000000
40
0.0276994203
40
0.7206241057
40
1.0000000000
40
1.0000000000
40
1.0000000000
40
1.0000000000
10
-467.0574884176
20
104.4986575085
30
0.0000000000
10
-467.0488914448
20
104.5077858076
30
0.0000000000
10
-466.8231020595
20
104.7422510873
30
0.0000000000
10
-466.4577000685
20
104.9557027661
30
0.0000000000
10
-466.0896309826
20
105.1511837970
30
0.0000000000
10
-465.9831736048
20
105.2065355246
30
0.0000000000
11
-467.0574884176
21
104.4986575085
31
0.0000000000
11
-467.0314781683
21
104.5256914519
31
0.0000000000
11
-466.3000933367
21
105.0378512123
31
0.0000000000
11
-465.9831736048
21
105.2065355246
31
0.0000000000
0
SPLINE
5
3EE
100
AcDbEntity
8
0
100
AcDbSpline
62
7
6
CONTINUOUS
70
0
71
3
72
8
73
4
74
2
42
0.0000001000
43
0.0000001000
44
0.0000000001
12
0.3345063704
22
0.1739241176
32
0.0000000000
13
0.3378700504
23
0.1691639944
33
0.0000000000
40
0.0000000000
40
0.0000000000
40
0.0000000000
40
0.0000000000
40
1.0000000000
40
1.0000000000
40
1.0000000000
40
1.0000000000
10
-465.9831736048
20
105.2065355246
30
0.0000000000
10
-465.8716714813
20
105.2645102305
30
0.0000000000
10
-465.7594033281
20
105.3215888946
30
0.0000000000
10
-465.6467799779
20
105.3779768927
30
0.0000000000
11
-465.9831736048
21
105.2065355246
31
0.0000000000
11
-465.6467799779
21
105.3779768927
31
0.0000000000
0
SPLINE
5
3EF
100
AcDbEntity
8
0
100
AcDbSpline
62
7
6
CONTINUOUS
70
0
71
3
72
8
73
4
74
2
42
0.0000001000
43
0.0000001000
44
0.0000000001
12
0.3464313939
22
0.1734504680
32
0.0000000000
13
0.3473433639
23
0.1697579609
33
0.0000000000
40
0.0000000000
40
0.0000000000
40
0.0000000000
40
0.0000000000
40
1.0000000000
40
1.0000000000
40
1.0000000000
40
1.0000000000
10
-465.6467799779
20
105.3779768927
30
0.0000000000
10
-465.5313028467
20
105.4357937154
30
0.0000000000
10
-465.4154522896
20
105.4928844268
30
0.0000000000
10
-465.2996711684
20
105.5494704138
30
0.0000000000
11
-465.6467799779
21
105.3779768927
31
0.0000000000
11
-465.2996711684
21
105.5494704138
31
0.0000000000
0
SPLINE
5
3F0
100
AcDbEntity
8
0
100
AcDbSpline
62
7
6
CONTINUOUS
70
0
71
3
72
8
73
4
74
2
42
0.0000001000
43
0.0000001000
44
0.0000000001
12
0.0000000000
22
-0.5419593887
32
0.0000000000
13
-0.3916126434
23
-0.4158158328
33
0.0000000000
40
0.0000000000
40
0.0000000000
40
0.0000000000
40
0.0000000000
40
1.0000000000
40
1.0000000000
40
1.0000000000
40
1.0000000000
10
132.7003288316
20
-304.9151314228
30
0.0000000000
10
132.7003288316
20
-305.0957845524
30
0.0000000000
10
132.5886836287
20
-305.2611114033
30
0.0000000000
10
132.4581460809
20
-305.3997166808
30
0.0000000000
11
132.7003288316
21
-304.9151314228
31
0.0000000000
11
132.4581460809
21
-305.3997166808
31
0.0000000000
0
SPLINE
5
3F1
100
AcDbEntity
8
0
100
AcDbSpline
62
7
6
CONTINUOUS
70
0
71
3
72
10
73
6
74
4
42
0.0000001000
43
0.0000001000
44
0.0000000001
12
-0.9310995631
22
-0.9886451492
32
0.0000000000
13
-1.1431628133
23
-0.5943790646
33
0.0000000000
40
0.0000000000
40
0.0000000000
40
0.0000000000
40
0.0000000000
40
0.0276994203
40
0.7206241057
40
1.0000000000
40
1.0000000000
40
1.0000000000
40
1.0000000000
10
132.4581460809
20
-305.3997166808
30
0.0000000000
10
132.4495491081
20
-305.4088449800
30
0.0000000000
10
132.2237597227
20
-305.6433102597
30
0.0000000000
10
131.8583577318
20
-305.8567619385
30
0.0000000000
10
131.4902886459
20
-306.0522429694
30
0.0000000000
10
131.3838312681
20
-306.1075946970
30
0.0000000000
11
132.4581460809
21
-305.3997166808
31
0.0000000000
11
132.4321358316
21
-305.4267506243
31
0.0000000000
11
131.7007510000
21
-305.9389103847
31
0.0000000000
11
131.3838312681
21
-306.1075946970
31
0.0000000000
0
SPLINE
5
3F2
100
AcDbEntity
8
0
100
AcDbSpline
62
7
6
CONTINUOUS
70
0
71
3
72
8
73
4
74
2
42
0.0000001000
43
0.0000001000
44
0.0000000001
12
-0.3345063704
22
-0.1739241176
32
0.0000000000
13
-0.3378700504
23
-0.1691639944
33
0.0000000000
40
0.0000000000
40
0.0000000000
40
0.0000000000
40
0.0000000000
40
1.0000000000
40
1.0000000000
40
1.0000000000
40
1.0000000000
10
131.3838312681
20
-306.1075946970
30
0.0000000000
10
131.2723291446
20
-306.1655694029
30
0.0000000000
10
131.1600609914
20
-306.2226480670
30
0.0000000000
10
131.0474376412
20
-306.2790360651
30
0.0000000000
11
131.3838312681
21
-306.1075946970
31
0.0000000000
11
131.0474376412
21
-306.2790360651
31
0.0000000000
0
SPLINE
5
3F3
100
AcDbEntity
8
0
100
AcDbSpline
62
7
6
CONTINUOUS
70
0
71
3
72
8
73
4
74
2
42
0.0000001000
43
0.0000001000
44
0.0000000001
12
-0.3464313939
22
-0.1734504680
32
0.0000000000
13
-0.3473433639
23
-0.1697579609
33
0.0000000000
40
0.0000000000
40
0.0000000000
40
0.0000000000
40
0.0000000000
40
1.0000000000
40
1.0000000000
40
1.0000000000
40
1.0000000000
10
131.0474376412
20
-306.2790360651
30
0.0000000000
10
130.9319605099
20
-306.3368528878
30
0.0000000000
10
130.8161099529
20
-306.3939435992
30
0.0000000000
10
130.7003288316
20
-306.4505295862
30
0.0000000000
11
131.0474376412
21
-306.2790360651
31
0.0000000000
11
130.7003288316
21
-306.4505295862
31
0.0000000000
0
SPLINE
5
3F4
100
AcDbEntity
8
0
100
AcDbSpline
62
7
6
CONTINUOUS
70
0
71
3
72
8
73
4
74
2
42
0.0000001000
43
0.0000001000
44
0.0000000001
12
-0.3473433639
22
0.1697579609
32
0.0000000000
13
-0.3464313939
23
0.1734504680
33
0.0000000000
40
0.0000000000
40
0.0000000000
40
0.0000000000
40
0.0000000000
40
1.0000000000
40
1.0000000000
40
1.0000000000
40
1.0000000000
10
-465.2996711684
20
-306.4505295862
30
0.0000000000
10
-465.4154522896
20
-306.3939435992
30
0.0000000000
10
-465.5313028467
20
-306.3368528878
30
0.0000000000
10
-465.6467799779
20
-306.2790360651
30
0.0000000000
11
-465.2996711684
21
-306.4505295862
31
0.0000000000
11
-465.6467799779
21
-306.2790360651
31
0.0000000000
0
SPLINE
5
3F5
100
AcDbEntity
8
0
100
AcDbSpline
62
7
6
CONTINUOUS
70
0
71
3
72
8
73
4
74
2
42
0.0000001000
43
0.0000001000
44
0.0000000001
12
-0.6604536790
22
0.3306744186
32
0.0000000000
13
-0.6431044176
23
0.3511109485
33
0.0000000000
40
0.0000000000
40
0.0000000000
40
0.0000000000
40
0.0000000000
40
1.0000000000
40
1.0000000000
40
1.0000000000
40
1.0000000000
10
-465.6467799779
20
-306.2790360651
30
0.0000000000
10
-465.8669312043
20
-306.1688112589
30
0.0000000000
10
-466.0857251975
20
-306.0559473675
30
0.0000000000
10
-466.3000933367
20
-305.9389103847
30
0.0000000000
11
-465.6467799779
21
-306.2790360651
31
0.0000000000
11
-466.3000933367
21
-305.9389103847
31
0.0000000000
0
SPLINE
5
3F6
100
AcDbEntity
8
0
100
AcDbSpline
62
7
6
CONTINUOUS
70
0
71
3
72
8
73
4
74
2
42
0.0000001000
43
0.0000001000
44
0.0000000001
12
-0.5550347438
22
0.3030282020
32
0.0000000000
13
-0.5046600321
23
0.3959237454
33
0.0000000000
40
0.0000000000
40
0.0000000000
40
0.0000000000
40
0.0000000000
40
1.0000000000
40
1.0000000000
40
1.0000000000
40
1.0000000000
10
-466.3000933367
20
-305.9389103847
30
0.0000000000
10
-466.4851049179
20
-305.8379009841
30
0.0000000000
10
-466.6668198371
20
-305.7337831952
30
0.0000000000
10
-466.8350398478
20
-305.6018086134
30
0.0000000000
11
-466.3000933367
21
-305.9389103847
31
0.0000000000
11
-466.8350398478
21
-305.6018086134
31
0.0000000000
0
SPLINE
5
3F7
100
AcDbEntity
8
0
100
AcDbSpline
62
7
6
CONTINUOUS
70
0
71
3
72
9
73
5
74
3
42
0.0000001000
43
0.0000001000
44
0.0000000001
12
-0.2320219503
22
0.1820294728
32
0.0000000000
13
-0.2113264870
23
0.2243872884
33
0.0000000000
40
0.0000000000
40
0.0000000000
40
0.0000000000
40
0.0000000000
40
0.8779570015
40
1.0000000000
40
1.0000000000
40
1.0000000000
40
1.0000000000
10
-466.8350398478
20
-305.6018086134
30
0.0000000000
10
-466.9029416131
20
-305.5485372633
30
0.0000000000
10
-466.9777778642
20
-305.4826910802
30
0.0000000000
10
-467.0488914448
20
-305.4088449800
30
0.0000000000
10
-467.0574884176
20
-305.3997166808
30
0.0000000000
11
-466.8350398478
21
-305.6018086134
31
0.0000000000
11
-467.0314781683
21
-305.4267506243
31
0.0000000000
11
-467.0574884176
21
-305.3997166808
31
0.0000000000
0
SPLINE
5
3F8
100
AcDbEntity
8
0
100
AcDbSpline
62
7
6
CONTINUOUS
70
0
71
3
72
8
73
4
74
2
42
0.0000001000
43
0.0000001000
44
0.0000000001
12
-0.3916126434
22
0.4158158328
32
0.0000000000
13
0.0000000000
23
0.5419593887
33
0.0000000000
40
0.0000000000
40
0.0000000000
40
0.0000000000
40
0.0000000000
40
1.0000000000
40
1.0000000000
40
1.0000000000
40
1.0000000000
10
-467.0574884176
20
-305.3997166808
30
0.0000000000
10
-467.1880259654
20
-305.2611114033
30
0.0000000000
10
-467.2996711684
20
-305.0957845524
30
0.0000000000
10
-467.2996711684
20
-304.9151314228
30
0.0000000000
11
-467.0574884176
21
-305.3997166808
31
0.0000000000
11
-467.2996711684
21
-304.9151314228
31
0.0000000000
0
SPLINE
5
3F9
100
AcDbEntity
8
0
100
AcDbSpline
62
7
6
CONTINUOUS
70
0
71
3
72
8
73
4
74
2
42
0.0000001000
43
0.0000001000
44
0.0000000001
12
0.3473433639
22
-0.1697579609
32
0.0000000000
13
0.3464313939
23
-0.1734504680
33
0.0000000000
40
0.0000000000
40
0.0000000000
40
0.0000000000
40
0.0000000000
40
1.0000000000
40
1.0000000000
40
1.0000000000
40
1.0000000000
10
130.7003288316
20
105.5494704138
30
0.0000000000
10
130.8161099529
20
105.4928844268
30
0.0000000000
10
130.9319605099
20
105.4357937154
30
0.0000000000
10
131.0474376412
20
105.3779768927
30
0.0000000000
11
130.7003288316
21
105.5494704138
31
0.0000000000
11
131.0474376412
21
105.3779768927
31
0.0000000000
0
SPLINE
5
3FA
100
AcDbEntity
8
0
100
AcDbSpline
62
7
6
CONTINUOUS
70
0
71
3
72
8
73
4
74
2
42
0.0000001000
43
0.0000001000
44
0.0000000001
12
0.6604536790
22
-0.3306744186
32
0.0000000000
13
0.6431044176
23
-0.3511109485
33
0.0000000000
40
0.0000000000
40
0.0000000000
40
0.0000000000
40
0.0000000000
40
1.0000000000
40
1.0000000000
40
1.0000000000
40
1.0000000000
10
131.0474376412
20
105.3779768927
30
0.0000000000
10
131.2675888676
20
105.2677520866
30
0.0000000000
10
131.4863828608
20
105.1548881952
30
0.0000000000
10
131.7007510000
20
105.0378512123
30
0.0000000000
11
131.0474376412
21
105.3779768927
31
0.0000000000
11
131.7007510000
21
105.0378512123
31
0.0000000000
0
SPLINE
5
3FB
100
AcDbEntity
8
0
100
AcDbSpline
62
7
6
CONTINUOUS
70
0
71
3
72
8
73
4
74
2
42
0.0000001000
43
0.0000001000
44
0.0000000001
12
0.5550347438
22
-0.3030282020
32
0.0000000000
13
0.5046600321
23
-0.3959237454
33
0.0000000000
40
0.0000000000
40
0.0000000000
40
0.0000000000
40
0.0000000000
40
1.0000000000
40
1.0000000000
40
1.0000000000
40
1.0000000000
10
131.7007510000
20
105.0378512123
30
0.0000000000
10
131.8857625812
20
104.9368418117
30
0.0000000000
10
132.0674775004
20
104.8327240228
30
0.0000000000
10
132.2356975111
20
104.7007494410
30
0.0000000000
11
131.7007510000
21
105.0378512123
31
0.0000000000
11
132.2356975111
21
104.7007494410
31
0.0000000000
0
SPLINE
5
3FC
100
AcDbEntity
8
0
100
AcDbSpline
62
7
6
CONTINUOUS
70
0
71
3
72
9
73
5
74
3
42
0.0000001000
43
0.0000001000
44
0.0000000001
12
0.2320219503
22
-0.1820294728
32
0.0000000000
13
0.2113264870
23
-0.2243872884
33
0.0000000000
40
0.0000000000
40
0.0000000000
40
0.0000000000
40
0.0000000000
40
0.8779570015
40
1.0000000000
40
1.0000000000
40
1.0000000000
40
1.0000000000
10
132.2356975111
20
104.7007494410
30
0.0000000000
10
132.3035992763
20
104.6474780909
30
0.0000000000
10
132.3784355275
20
104.5816319078
30
0.0000000000
10
132.4495491081
20
104.5077858076
30
0.0000000000
10
132.4581460809
20
104.4986575085
30
0.0000000000
11
132.2356975111
21
104.7007494410
31
0.0000000000
11
132.4321358316
21
104.5256914519
31
0.0000000000
11
132.4581460809
21
104.4986575085
31
0.0000000000
0
SPLINE
5
3FD
100
AcDbEntity
8
0
100
AcDbSpline
62
7
6
CONTINUOUS
70
0
71
3
72
8
73
4
74
2
42
0.0000001000
43
0.0000001000
44
0.0000000001
12
0.3916126434
22
-0.4158158328
32
0.0000000000
13
0.0000000000
23
-0.5419593887
33
0.0000000000
40
0.0000000000
40
0.0000000000
40
0.0000000000
40
0.0000000000
40
1.0000000000
40
1.0000000000
40
1.0000000000
40
1.0000000000
10
132.4581460809
20
104.4986575085
30
0.0000000000
10
132.5886836287
20
104.3600522309
30
0.0000000000
10
132.7003288316
20
104.1947253800
30
0.0000000000
10
132.7003288316
20
104.0140722504
30
0.0000000000
11
132.4581460809
21
104.4986575085
31
0.0000000000
11
132.7003288316
21
104.0140722504
31
0.0000000000
0
ENDSEC
0
SECTION
2
OBJECTS
0
DICTIONARY
5
3FE
100
AcDbDictionary
3
ACAD_GROUP
350
3FF
3
ACAD_MLINESTYLE
350
400
0
DICTIONARY
5
3FF
102
{ACAD_REACTORS
330
3FE
102
}
100
AcDbDictionary
0
DICTIONARY
5
400
102
{ACAD_REACTORS
330
3FE
102
}
100
AcDbDictionary
3
STANDARD
350
401
0
MLINESTYLE
5
401
102
{ACAD_REACTORS
330
400
102
}
100
AcDbMlineStyle
2
STANDARD
70
0
3

62
256
51
90.0
52
90.0
71
2
49
0.5
62
256
6
BYLAYER
49
-0.5
62
256
6
BYLAYER
0
ENDSEC
0
EOF
