0
SECTION
2
HEADER
9
$ACADVER
1
AC1014
9
$HANDSEED
5
       48E
9
$EXTMAX
10
297.0000000000
20
210.0000000000
9
$EXTMIN
10
0.0000000000
20
0.0000000000
9
$LIMMIN
10
0.0000000000
20
0.0000000000
9
$LIMMAX
10
297.0000000000
20
210.0000000000
9
$VIEWCTR
10
148.5000000000
20
105.0000000000
9
$VIEWSIZE
40
210.0000000000
9
$CLAYER
8
0
9
$LTSCALE
40
16.3350000000
9
$CELTYPE
6
BYLAYER
9
$DIMSCALE
40
1
9
$DIMASZ
40
3.0000000000
9
$DIMEXO
40
1.8562500000
9
$DIMDLI
40
11.2860000000
9
$DIMEXE
40
5.3460000000
9
$DIMCEN
40
2.6730000000
9
$DIMLFAC
40
1.0000000000
9
$DIMTXT
40
3.0000000000
9
$DIMTOL
70
1
9
$DIMLIM
70
0
9
$DIMTFAC
40
1.0000000000
9
$DIMTP
40
0.0100000000
9
$DIMTM
40
0.0100000000
9
$MEASUREMENT
70
1
0
ENDSEC
0
SECTION
2
CLASSES
0
ENDSEC
0
SECTION
2
TABLES
0
TABLE
2
VPORT
5
8
100
AcDbSymbolTable
70
2
0
VPORT
5
1F4
100
AcDbSymbolTableRecord
100
AcDbViewportTableRecord
2
*ACTIVE
70
0
10
0.0
20
0.0
11
1.0
21
1.0
12
148.5000000000
22
105.0000000000
13
0.0
23
0.0
14
1.0
24
1.0
15
0.0
25
0.0
16
0.0
26
0.0
36
1.0
17
0.0
27
0.0
37
0.0
40
210.0000000000
41
1.4142857143
42
50.0
43
0.0
44
0.0
50
0.0
51
0.0
71
0
72
100
73
1
74
1
75
0
76
0
77
0
78
0
0
ENDTAB
0
TABLE
2
LTYPE
5
5
100
AcDbSymbolTable
70
6
0
LTYPE
5
14
100
AcDbSymbolTableRecord
100
AcDbLinetypeTableRecord
2
BYBLOCK
70
0
3

72
65
73
0
40
0.0
0
LTYPE
5
15
100
AcDbSymbolTableRecord
100
AcDbLinetypeTableRecord
2
BYLAYER
70
0
3

72
65
73
0
40
0.0
0
LTYPE
5
16
100
AcDbSymbolTableRecord
100
AcDbLinetypeTableRecord
2
CONTINUOUS
70
64
3
Solid line
72
65
73
0
40
0
0
LTYPE
5
1F5
100
AcDbSymbolTableRecord
100
AcDbLinetypeTableRecord
2
CENTER
70
64
3
____ _ ____ _ ____ _ ____ _ ____ _ ____ _ ____
72
65
73
4
40
0.6
49
0.375
74
0
49
-0.075
74
0
49
0.075
74
0
49
-0.075
74
0
0
LTYPE
5
1F6
100
AcDbSymbolTableRecord
100
AcDbLinetypeTableRecord
2
HIDDEN
70
64
3
- - - - - - - - - - - - - - - - - - - -
72
65
73
2
40
0.2
49
0.1
74
0
49
-0.1
74
0
0
LTYPE
5
1F7
100
AcDbSymbolTableRecord
100
AcDbLinetypeTableRecord
2
PHANTOM
70
64
3
_____ _ _ _____ _ _ _____ _ _ _____
72
65
73
6
40
0.8
49
0.45
74
0
49
-0.05
74
0
49
0.1
74
0
49
-0.05
74
0
49
0.1
74
0
49
-0.05
74
0
0
LTYPE
5
1F8
100
AcDbSymbolTableRecord
100
AcDbLinetypeTableRecord
2
DOT
70
64
3
. . . . . . . . . . . . . . . . . . . .
72
65
73
2
40
0.2
49
0.1
74
0
49
-0.1
74
0
0
LTYPE
5
1F9
100
AcDbSymbolTableRecord
100
AcDbLinetypeTableRecord
2
DASHED
70
64
3
- - - - - - - - - - - - - - - - - - - -
72
65
73
2
40
0.2
49
0.1
74
0
49
-0.1
74
0
0
ENDTAB
0
TABLE
2
LAYER
5
2
100
AcDbSymbolTable
70
36
0
LAYER
5
10
100
AcDbSymbolTableRecord
100
AcDbLayerTableRecord
2
0
70
0
62
7
6
CONTINUOUS
0
LAYER
5
1FA
100
AcDbSymbolTableRecord
100
AcDbLayerTableRecord
2
DEFAULT_1
70
0
62
7
6
CENTER
0
LAYER
5
1FB
100
AcDbSymbolTableRecord
100
AcDbLayerTableRecord
2
DEFAULT_2
70
0
62
8
6
HIDDEN
0
LAYER
5
1FC
100
AcDbSymbolTableRecord
100
AcDbLayerTableRecord
2
DEFAULT_3
70
0
62
7
6
PHANTOM
0
LAYER
5
1FD
100
AcDbSymbolTableRecord
100
AcDbLayerTableRecord
2
ASSI
70
0
62
7
6
CONTINUOUS
0
LAYER
5
1FE
100
AcDbSymbolTableRecord
100
AcDbLayerTableRecord
2
COORDINATE
70
0
62
7
6
CONTINUOUS
0
LAYER
5
1FF
100
AcDbSymbolTableRecord
100
AcDbLayerTableRecord
2
COORD_ORIGINE
70
0
62
7
6
CONTINUOUS
0
LAYER
5
200
100
AcDbSymbolTableRecord
100
AcDbLayerTableRecord
2
COSMETICI
70
0
62
7
6
CONTINUOUS
0
LAYER
5
201
100
AcDbSymbolTableRecord
100
AcDbLayerTableRecord
2
CURVE
70
0
62
7
6
CONTINUOUS
0
LAYER
5
202
100
AcDbSymbolTableRecord
100
AcDbLayerTableRecord
2
DRAFT
70
0
62
7
6
CONTINUOUS
0
LAYER
5
203
100
AcDbSymbolTableRecord
100
AcDbLayerTableRecord
2
IGES
70
0
62
7
6
CONTINUOUS
0
LAYER
5
204
100
AcDbSymbolTableRecord
100
AcDbLayerTableRecord
2
NOTE
70
0
62
7
6
CONTINUOUS
0
LAYER
5
205
100
AcDbSymbolTableRecord
100
AcDbLayerTableRecord
2
PIANI
70
0
62
7
6
CONTINUOUS
0
LAYER
5
206
100
AcDbSymbolTableRecord
100
AcDbLayerTableRecord
2
PIANI_ORIGINE
70
0
62
7
6
CONTINUOUS
0
LAYER
5
207
100
AcDbSymbolTableRecord
100
AcDbLayerTableRecord
2
PUNTI
70
0
62
7
6
CONTINUOUS
0
LAYER
5
208
100
AcDbSymbolTableRecord
100
AcDbLayerTableRecord
2
RACCORDO
70
0
62
7
6
CONTINUOUS
0
LAYER
5
209
100
AcDbSymbolTableRecord
100
AcDbLayerTableRecord
2
SMUSSO
70
0
62
7
6
CONTINUOUS
0
LAYER
5
20A
100
AcDbSymbolTableRecord
100
AcDbLayerTableRecord
2
SNAPLINE
70
0
62
7
6
CONTINUOUS
0
LAYER
5
20B
100
AcDbSymbolTableRecord
100
AcDbLayerTableRecord
2
SUPERFICI
70
0
62
7
6
CONTINUOUS
0
LAYER
5
20C
100
AcDbSymbolTableRecord
100
AcDbLayerTableRecord
2
TRASH
70
0
62
7
6
CONTINUOUS
0
ENDTAB
0
TABLE
2
STYLE
5
3
100
AcDbSymbolTable
70
1
0
STYLE
5
11
100
AcDbSymbolTableRecord
100
AcDbTextStyleTableRecord
2
STANDARD
70
0
40
0.0
41
0.8000000000
50
0.0
71
0
42
0.2
3
txt
4

0
ENDTAB
0
TABLE
2
VIEW
5
6
100
AcDbSymbolTable
70
0
0
ENDTAB
0
TABLE
2
UCS
5
7
100
AcDbSymbolTable
70
0
0
ENDTAB
0
TABLE
2
APPID
5
9
100
AcDbSymbolTable
70
1
0
APPID
5
20D
100
AcDbSymbolTableRecord
100
AcDbRegAppTableRecord
2
ACAD
70
0
0
ENDTAB
0
TABLE
2
DIMSTYLE
5
A
100
AcDbSymbolTable
70
1
0
DIMSTYLE
105
20E
100
AcDbSymbolTableRecord
100
AcDbDimStyleTableRecord
2
STANDARD
70
0
3

4

5

6

7

40
1.0
41
3.0000000000
42
0.0625
43
0.38
44
0.18
45
0.0
46
0.0
47
0.0100000000
48
0.0100000000
140
3.0000000000
141
0.09
142
0.0
143
25.4
144
1.0000000000
145
0.0
146
1.0000000000
147
0.09
71
1
72
0
73
0
74
0
75
0
76
0
77
1
78
8
170
0
171
2
172
0
173
0
174
0
175
0
176
0
177
0
178
0
270
2
271
2
272
2
273
2
274
2
340
11
275
0
280
0
281
0
282
0
283
1
284
8
285
0
286
0
287
3
288
0
0
DIMSTYLE
105
20F
100
AcDbSymbolTableRecord
100
AcDbDimStyleTableRecord
2
DIMSTYLE_1
70
0
3

4

5

6

7

40
1.0
41
3.0000000000
42
0.0625
43
0.38
44
0.18
45
0.0
46
0.0
47
0.0000000000
48
0.0000000000
140
3.0000000000
141
0.09
142
0.0
143
25.4
144
1.0000000000
145
0.0
146
1.0000000000
147
0.09
71
0
72
0
73
0
74
0
75
0
76
0
77
1
78
8
170
0
171
2
172
0
173
0
174
0
175
0
176
0
177
0
178
0
270
2
271
2
272
2
273
2
274
2
340
11
275
0
280
0
281
0
282
0
283
1
284
8
285
0
286
0
287
3
288
0
0
ENDTAB
0
TABLE
2
BLOCK_RECORD
5
1
100
AcDbSymbolTable
70
0
0
BLOCK_RECORD
5
1B
100
AcDbSymbolTableRecord
100
AcDbBlockTableRecord
2
*MODEL_SPACE
0
BLOCK_RECORD
5
1C
100
AcDbSymbolTableRecord
100
AcDbBlockTableRecord
2
*PAPER_SPACE
0
BLOCK_RECORD
5
210
100
AcDbSymbolTableRecord
100
AcDbBlockTableRecord
2
*D0
0
BLOCK_RECORD
5
211
100
AcDbSymbolTableRecord
100
AcDbBlockTableRecord
2
*D1
0
ENDTAB
0
ENDSEC
0
SECTION
2
BLOCKS
0
BLOCK
5
1E
100
AcDbEntity
8
0
100
AcDbBlockBegin
2
*MODEL_SPACE
70
0
10
0.0
20
0.0
30
0.0
3
*MODEL_SPACE
1

0
ENDBLK
5
1F
100
AcDbEntity
8
0
100
AcDbBlockEnd
0
BLOCK
5
20
100
AcDbEntity
8
0
100
AcDbBlockBegin
2
*PAPER_SPACE
70
0
10
0.0
20
0.0
30
0.0
3
*PAPER_SPACE
1

0
ENDBLK
5
21
100
AcDbEntity
8
0
100
AcDbBlockEnd
0
BLOCK
5
212
100
AcDbEntity
8
0
100
AcDbBlockBegin
62
7
6
CONTINUOUS
2
*D0
70
65
10
0.0000000000
20
0.0000000000
3
*D0
1

0
TEXT
5
213
100
AcDbEntity
8
0
100
AcDbText
62
7
6
CONTINUOUS
10
-144.2355123401
20
260.4252217636
7
STANDARD
40
3.0000000000
1
400
41
0.7857142857
72
0
100
AcDbText
0
LINE
5
214
100
AcDbEntity
8
0
100
AcDbLine
62
7
6
CONTINUOUS
10
59.3002019456
20
190.2447122751
11
59.3002019456
21
261.1752217636
0
LINE
5
215
100
AcDbEntity
8
0
100
AcDbLine
62
7
6
CONTINUOUS
10
-340.6997980544
20
190.2447122751
11
-340.6997980544
21
261.1752217636
0
LINE
5
216
100
AcDbEntity
8
0
100
AcDbLine
62
7
6
CONTINUOUS
10
59.3002019456
20
259.6752217636
11
-140.6997980544
21
259.6752217636
0
LINE
5
217
100
AcDbEntity
8
0
100
AcDbLine
62
7
6
CONTINUOUS
10
-340.6997980544
20
259.6752217636
11
-140.6997980544
21
259.6752217636
0
SOLID
5
218
100
AcDbEntity
8
0
100
AcDbTrace
62
7
6
CONTINUOUS
10
56.3002019456
20
258.7252217636
11
59.3002019456
21
259.6752217636
12
56.3002019456
22
260.6252217636
13
56.3002019456
23
260.6252217636
0
SOLID
5
219
100
AcDbEntity
8
0
100
AcDbTrace
62
7
6
CONTINUOUS
10
-337.6997980544
20
260.6252217636
11
-340.6997980544
21
259.6752217636
12
-337.6997980544
22
258.7252217636
13
-337.6997980544
23
258.7252217636
0
ENDBLK
5
21A
100
AcDbEntity
8
0
100
AcDbBlockEnd
0
BLOCK
5
21B
100
AcDbEntity
8
0
100
AcDbBlockBegin
62
7
6
CONTINUOUS
2
*D1
70
65
10
0.0000000000
20
0.0000000000
3
*D1
1

0
TEXT
5
21C
100
AcDbEntity
8
0
100
AcDbText
62
7
6
CONTINUOUS
10
166.5502019456
20
-69.2910020107
7
STANDARD
40
3.0000000000
1
490
50
90.0000000000
41
0.7857142857
72
0
100
AcDbText
0
LINE
5
21D
100
AcDbEntity
8
0
100
AcDbLine
62
7
6
CONTINUOUS
10
70.3002019456
20
179.2447122751
11
168.8002019456
21
179.2447122751
0
LINE
5
21E
100
AcDbEntity
8
0
100
AcDbLine
62
7
6
CONTINUOUS
10
70.3002019455
20
-310.7552877249
11
168.8002019456
21
-310.7552877249
0
LINE
5
21F
100
AcDbEntity
8
0
100
AcDbLine
62
7
6
CONTINUOUS
10
167.3002019456
20
179.2447122751
11
167.3002019456
21
-65.7552877249
0
LINE
5
220
100
AcDbEntity
8
0
100
AcDbLine
62
7
6
CONTINUOUS
10
167.3002019456
20
-310.7552877249
11
167.3002019456
21
-65.7552877249
0
SOLID
5
221
100
AcDbEntity
8
0
100
AcDbTrace
62
7
6
CONTINUOUS
10
168.2502019456
20
176.2447122751
11
167.3002019456
21
179.2447122751
12
166.3502019456
22
176.2447122751
13
166.3502019456
23
176.2447122751
0
SOLID
5
222
100
AcDbEntity
8
0
100
AcDbTrace
62
7
6
CONTINUOUS
10
166.3502019456
20
-307.7552877249
11
167.3002019456
21
-310.7552877249
12
168.2502019456
22
-307.7552877249
13
168.2502019456
23
-307.7552877249
0
ENDBLK
5
223
100
AcDbEntity
8
0
100
AcDbBlockEnd
0
ENDSEC
0
SECTION
2
ENTITIES
0
DIMENSION
5
224
100
AcDbEntity
8
0
100
AcDbDimension
62
7
6
CONTINUOUS
2
*D0
10
-340.6997980544
20
259.6752217636
11
-140.6997980544
21
261.9252217636
70
160
3
DIMSTYLE_1
100
AcDbAlignedDimension
13
59.3002019456
23
190.2447122751
14
-340.6997980544
24
190.2447122751
50
180.000000
100
AcDbRotatedDimension
0
DIMENSION
5
225
100
AcDbEntity
8
0
100
AcDbDimension
62
7
6
CONTINUOUS
2
*D1
10
167.3002019456
20
-310.7552877249
11
165.0502019456
21
-65.7552877249
70
160
3
DIMSTYLE_1
100
AcDbAlignedDimension
13
70.3002019456
23
179.2447122751
14
70.3002019455
24
-310.7552877249
50
270.000000
100
AcDbRotatedDimension
0
LINE
5
226
100
AcDbEntity
8
0
100
AcDbLine
62
7
6
CONTINUOUS
10
-440.6997980544
20
-376.7552877249
11
-440.6997980544
21
-338.7552877249
0
LINE
5
227
100
AcDbEntity
8
0
100
AcDbLine
62
7
6
CONTINUOUS
10
-440.6997980544
20
245.2447122751
11
-440.6997980544
21
209.2447122751
0
LINE
5
228
100
AcDbEntity
8
0
100
AcDbLine
62
7
6
CONTINUOUS
10
-440.6997980544
20
207.2447122751
11
-440.6997980544
21
208.7447122751
0
LINE
5
229
100
AcDbEntity
8
0
100
AcDbLine
62
7
6
CONTINUOUS
10
-440.6997980544
20
245.4947122751
11
-440.6997980544
21
246.2447122751
0
LINE
5
22A
100
AcDbEntity
8
0
100
AcDbLine
62
7
6
CONTINUOUS
10
-440.6997980544
20
206.7447122751
11
-440.6997980544
21
-338.2552877249
0
LINE
5
22B
100
AcDbEntity
8
0
100
AcDbLine
62
7
6
CONTINUOUS
10
-440.6997980544
20
-377.0052877249
11
-440.6997980544
21
-377.7552877249
0
LINE
5
22C
100
AcDbEntity
8
0
100
AcDbLine
62
7
6
CONTINUOUS
10
-439.6761992788
20
246.9876661976
11
-439.6761992788
21
247.2447122751
0
LINE
5
22D
100
AcDbEntity
8
0
100
AcDbLine
62
7
6
CONTINUOUS
10
-439.6761992788
20
-378.4868837607
11
-439.6761992788
21
-378.7552877249
0
LINE
5
22E
100
AcDbEntity
8
0
100
AcDbLine
62
9
6
CONTINUOUS
10
-438.6997980544
20
205.2447122751
11
-438.6997980545
21
-336.7552877249
0
LINE
5
22F
100
AcDbEntity
8
0
100
AcDbLine
62
7
6
CONTINUOUS
10
-438.6997980544
20
205.7447122751
11
-438.6997980544
21
207.2447122751
0
LINE
5
230
100
AcDbEntity
8
0
100
AcDbLine
62
7
6
CONTINUOUS
10
-438.6997980545
20
-337.2552877249
11
-438.6997980545
21
-338.7552877249
0
LINE
5
231
100
AcDbEntity
8
0
100
AcDbLine
62
9
6
CONTINUOUS
10
-28.2322812759
20
-380.5645494699
11
-38.1673148330
21
-380.5645494699
0
LINE
5
232
100
AcDbEntity
8
0
100
AcDbLine
62
9
6
CONTINUOUS
10
-243.2322812759
20
-380.5645494699
11
-253.1673148330
21
-380.5645494699
0
LINE
5
233
100
AcDbEntity
8
0
100
AcDbLine
62
7
6
CONTINUOUS
10
-20.6997980544
20
-380.2552877249
11
-260.6997980544
21
-380.2552877249
0
LINE
5
234
100
AcDbEntity
8
0
100
AcDbLine
62
7
6
CONTINUOUS
10
-439.6761992788
20
-378.7552877249
11
158.2766031700
21
-378.7552877249
0
LINE
5
235
100
AcDbEntity
8
0
100
AcDbLine
62
9
6
CONTINUOUS
10
-440.6997980544
20
-376.7552877249
11
159.3002019456
21
-376.7552877249
0
LINE
5
236
100
AcDbEntity
8
0
100
AcDbLine
62
7
6
CONTINUOUS
10
-425.6997980544
20
-48.7552877249
11
-425.6997980544
21
-82.7552877249
0
LINE
5
237
100
AcDbEntity
8
0
100
AcDbLine
62
7
6
CONTINUOUS
10
-424.6997980544
20
-48.7552877250
11
-424.6997980544
21
-82.7552877250
0
LINE
5
238
100
AcDbEntity
8
0
100
AcDbLine
62
7
6
CONTINUOUS
10
-423.6997980544
20
-48.7552877249
11
-423.6997980544
21
-82.7552877249
0
LINE
5
239
100
AcDbEntity
8
0
100
AcDbLine
62
7
6
CONTINUOUS
10
-422.6997980544
20
-48.7552877249
11
-422.6997980544
21
-82.7552877249
0
LINE
5
23A
100
AcDbEntity
8
0
100
AcDbLine
62
7
6
CONTINUOUS
10
-420.6997980544
20
-82.7552877249
11
-420.6997980544
21
-48.7552877249
0
LINE
5
23B
100
AcDbEntity
8
0
100
AcDbLine
62
7
6
CONTINUOUS
10
-419.6997980544
20
-82.7552877249
11
-419.6997980544
21
-48.7552877249
0
LINE
5
23C
100
AcDbEntity
8
0
100
AcDbLine
62
9
6
CONTINUOUS
10
-440.6997980544
20
-340.7552877249
11
159.3002019456
21
-340.7552877249
0
LINE
5
23D
100
AcDbEntity
8
0
100
AcDbLine
62
7
6
CONTINUOUS
10
-440.6997980544
20
-338.7552877249
11
157.7648037822
21
-338.7552877249
0
LINE
5
23E
100
AcDbEntity
8
0
100
AcDbLine
62
7
6
CONTINUOUS
10
-440.6997980544
20
-338.2552877249
11
-440.0174888499
21
-338.2552877249
0
LINE
5
23F
100
AcDbEntity
8
0
100
AcDbLine
62
7
6
CONTINUOUS
10
159.3002019456
20
-338.2552877250
11
158.6178927409
21
-338.2552877250
0
LINE
5
240
100
AcDbEntity
8
0
100
AcDbLine
62
7
6
CONTINUOUS
10
-438.6997980545
20
-337.2552877250
11
-438.3997980545
21
-337.2552877250
0
LINE
5
241
100
AcDbEntity
8
0
100
AcDbLine
62
7
6
CONTINUOUS
10
156.7525811434
20
-337.2552877249
11
157.3002019455
21
-337.2552877249
0
LINE
5
242
100
AcDbEntity
8
0
100
AcDbLine
62
7
6
CONTINUOUS
10
-440.6997980545
20
-336.7552877249
11
-438.3997980545
21
-336.7552877249
0
LINE
5
243
100
AcDbEntity
8
0
100
AcDbLine
62
9
6
CONTINUOUS
10
-438.3997980545
20
-336.7552877250
11
157.0002019455
21
-336.7552877249
0
LINE
5
244
100
AcDbEntity
8
0
100
AcDbLine
62
7
6
CONTINUOUS
10
157.0002019455
20
-336.7552877249
11
159.3002019455
21
-336.7552877249
0
LINE
5
245
100
AcDbEntity
8
0
100
AcDbLine
62
7
6
CONTINUOUS
10
-341.4422980545
20
-310.7552877249
11
-339.9572980545
21
-310.7552877249
0
LINE
5
246
100
AcDbEntity
8
DEFAULT_1
100
AcDbLine
62
7
6
CENTER
10
-336.9872980545
20
-310.7552877249
11
-330.1997980545
21
-310.7552877249
0
LINE
5
247
100
AcDbEntity
8
0
100
AcDbLine
62
7
6
CONTINUOUS
10
60.0427019455
20
-310.7552877249
11
58.5577019455
21
-310.7552877249
0
LINE
5
248
100
AcDbEntity
8
DEFAULT_1
100
AcDbLine
62
7
6
CENTER
10
55.5877019455
20
-310.7552877249
11
48.8002019455
21
-310.7552877249
0
LINE
5
249
100
AcDbEntity
8
DEFAULT_1
100
AcDbLine
62
7
6
CENTER
10
63.0127019455
20
-310.7552877249
11
69.8002019455
21
-310.7552877249
0
LINE
5
24A
100
AcDbEntity
8
DEFAULT_1
100
AcDbLine
62
7
6
CENTER
10
-344.4122980545
20
-310.7552877249
11
-351.1997980545
21
-310.7552877249
0
LINE
5
24B
100
AcDbEntity
8
0
100
AcDbLine
62
9
6
CONTINUOUS
10
-350.6997980544
20
-230.7552877249
11
-350.6997980544
21
-229.7552877249
0
LINE
5
24C
100
AcDbEntity
8
0
100
AcDbLine
62
7
6
CONTINUOUS
10
-350.6997980544
20
149.2447122751
11
-350.6997980544
21
99.2447122751
0
LINE
5
24D
100
AcDbEntity
8
0
100
AcDbLine
62
7
6
CONTINUOUS
10
-350.6997980544
20
98.2447122751
11
-350.6997980544
21
-229.7552877249
0
LINE
5
24E
100
AcDbEntity
8
0
100
AcDbLine
62
9
6
CONTINUOUS
10
-350.6997980544
20
98.2447122751
11
-350.6997980544
21
99.2447122751
0
LINE
5
24F
100
AcDbEntity
8
0
100
AcDbLine
62
7
6
CONTINUOUS
10
-350.6997980544
20
-230.7552877249
11
-350.6997980544
21
-280.7552877249
0
LINE
5
250
100
AcDbEntity
8
0
100
AcDbLine
62
7
6
CONTINUOUS
10
-348.6997980544
20
-278.7552877249
11
-348.6997980544
21
-230.7552877249
0
LINE
5
251
100
AcDbEntity
8
0
100
AcDbLine
62
9
6
CONTINUOUS
10
-348.6997980544
20
99.2447122751
11
-348.6997980544
21
98.2447122751
0
LINE
5
252
100
AcDbEntity
8
0
100
AcDbLine
62
7
6
CONTINUOUS
10
-348.6997980544
20
-229.7552877249
11
-348.6997980544
21
98.2447122751
0
LINE
5
253
100
AcDbEntity
8
0
100
AcDbLine
62
7
6
CONTINUOUS
10
-348.6997980544
20
99.2447122751
11
-348.6997980544
21
147.2447122751
0
LINE
5
254
100
AcDbEntity
8
0
100
AcDbLine
62
9
6
CONTINUOUS
10
-348.6997980544
20
-229.7552877249
11
-348.6997980544
21
-230.7552877249
0
LINE
5
255
100
AcDbEntity
8
0
100
AcDbLine
62
7
6
CONTINUOUS
10
-344.1997980544
20
193.2447122751
11
-344.1997980544
21
187.5362742509
0
LINE
5
256
100
AcDbEntity
8
0
100
AcDbLine
62
7
6
CONTINUOUS
10
-344.1997980544
20
170.9531502992
11
-344.1997980544
21
165.2447122751
0
LINE
5
257
100
AcDbEntity
8
0
100
AcDbLine
62
7
6
CONTINUOUS
10
-344.1997980544
20
-296.7552877249
11
-344.1997980545
21
-302.4637257491
0
LINE
5
258
100
AcDbEntity
8
0
100
AcDbLine
62
7
6
CONTINUOUS
10
-344.1997980545
20
-319.0468497008
11
-344.1997980545
21
-324.7552877249
0
LINE
5
259
100
AcDbEntity
8
0
100
AcDbLine
62
7
6
CONTINUOUS
10
-340.6997980545
20
-311.4977877249
11
-340.6997980545
21
-310.0127877249
0
LINE
5
25A
100
AcDbEntity
8
DEFAULT_1
100
AcDbLine
62
7
6
CENTER
10
-340.6997980545
20
-307.0427877249
11
-340.6997980545
21
-300.2552877249
0
LINE
5
25B
100
AcDbEntity
8
0
100
AcDbLine
62
7
6
CONTINUOUS
10
-340.6997980544
20
179.9872122751
11
-340.6997980544
21
178.5022122751
0
LINE
5
25C
100
AcDbEntity
8
DEFAULT_1
100
AcDbLine
62
7
6
CENTER
10
-340.6997980544
20
175.5322122751
11
-340.6997980544
21
168.7447122751
0
LINE
5
25D
100
AcDbEntity
8
DEFAULT_1
100
AcDbLine
62
7
6
CENTER
10
-340.6997980544
20
182.9572122751
11
-340.6997980544
21
189.7447122751
0
LINE
5
25E
100
AcDbEntity
8
DEFAULT_1
100
AcDbLine
62
7
6
CENTER
10
-340.6997980545
20
-314.4677877249
11
-340.6997980545
21
-321.2552877249
0
LINE
5
25F
100
AcDbEntity
8
0
100
AcDbLine
62
7
6
CONTINUOUS
10
-350.6997980544
20
-280.7552877249
11
-291.6997980544
21
-280.7552877249
0
LINE
5
260
100
AcDbEntity
8
0
100
AcDbLine
62
7
6
CONTINUOUS
10
-290.6997980544
20
-280.7552877249
11
-141.1997980544
21
-280.7552877249
0
LINE
5
261
100
AcDbEntity
8
0
100
AcDbLine
62
7
6
CONTINUOUS
10
-140.1997980544
20
-280.7552877249
11
9.3002019456
21
-280.7552877249
0
LINE
5
262
100
AcDbEntity
8
0
100
AcDbLine
62
9
6
CONTINUOUS
10
10.3002019456
20
-280.7552877249
11
9.3002019456
21
-280.7552877249
0
LINE
5
263
100
AcDbEntity
8
0
100
AcDbLine
62
7
6
CONTINUOUS
10
10.3002019456
20
-280.7552877249
11
69.3002019456
21
-280.7552877249
0
LINE
5
264
100
AcDbEntity
8
0
100
AcDbLine
62
9
6
CONTINUOUS
10
-140.1997980544
20
-280.7552877249
11
-141.1997980544
21
-280.7552877249
0
LINE
5
265
100
AcDbEntity
8
0
100
AcDbLine
62
9
6
CONTINUOUS
10
-290.6997980544
20
-280.7552877249
11
-291.6997980544
21
-280.7552877249
0
LINE
5
266
100
AcDbEntity
8
0
100
AcDbLine
62
9
6
CONTINUOUS
10
-291.6997980544
20
-278.7552877249
11
-290.6997980544
21
-278.7552877249
0
LINE
5
267
100
AcDbEntity
8
0
100
AcDbLine
62
9
6
CONTINUOUS
10
-141.1997980544
20
-278.7552877249
11
-140.1997980544
21
-278.7552877249
0
LINE
5
268
100
AcDbEntity
8
0
100
AcDbLine
62
7
6
CONTINUOUS
10
67.3002019456
20
-278.7552877249
11
10.3002019456
21
-278.7552877249
0
LINE
5
269
100
AcDbEntity
8
0
100
AcDbLine
62
9
6
CONTINUOUS
10
9.3002019456
20
-278.7552877249
11
10.3002019456
21
-278.7552877249
0
LINE
5
26A
100
AcDbEntity
8
0
100
AcDbLine
62
7
6
CONTINUOUS
10
9.3002019456
20
-278.7552877249
11
-140.1997980544
21
-278.7552877249
0
LINE
5
26B
100
AcDbEntity
8
0
100
AcDbLine
62
7
6
CONTINUOUS
10
-141.1997980544
20
-278.7552877249
11
-290.6997980544
21
-278.7552877249
0
LINE
5
26C
100
AcDbEntity
8
0
100
AcDbLine
62
7
6
CONTINUOUS
10
-291.6997980544
20
-278.7552877249
11
-348.6997980544
21
-278.7552877249
0
LINE
5
26D
100
AcDbEntity
8
0
100
AcDbLine
62
7
6
CONTINUOUS
10
-337.1997980545
20
-324.7552877249
11
-337.1997980545
21
-319.0468497008
0
LINE
5
26E
100
AcDbEntity
8
0
100
AcDbLine
62
7
6
CONTINUOUS
10
-337.1997980545
20
-302.4637257491
11
-337.1997980544
21
-296.7552877249
0
LINE
5
26F
100
AcDbEntity
8
0
100
AcDbLine
62
7
6
CONTINUOUS
10
-337.1997980544
20
165.2447122751
11
-337.1997980544
21
170.9531502992
0
LINE
5
270
100
AcDbEntity
8
0
100
AcDbLine
62
7
6
CONTINUOUS
10
-337.1997980544
20
187.5362742509
11
-337.1997980544
21
193.2447122751
0
LINE
5
271
100
AcDbEntity
8
0
100
AcDbLine
62
9
6
CONTINUOUS
10
-246.3689273587
20
251.4219267600
11
-246.3687626059
21
251.4224314003
0
LINE
5
272
100
AcDbEntity
8
0
100
AcDbLine
62
9
6
CONTINUOUS
10
-246.3689286600
20
-382.9324982246
11
-246.3687636150
21
-382.9330037642
0
LINE
5
273
100
AcDbEntity
8
0
100
AcDbLine
62
7
6
CONTINUOUS
10
-291.6997980544
20
-280.7552877249
11
-291.6997980544
21
-278.7552877249
0
LINE
5
274
100
AcDbEntity
8
0
100
AcDbLine
62
7
6
CONTINUOUS
10
-291.6997980544
20
147.2447122751
11
-291.6997980544
21
149.2447122751
0
LINE
5
275
100
AcDbEntity
8
0
100
AcDbLine
62
7
6
CONTINUOUS
10
-290.6997980544
20
149.2447122751
11
-290.6997980544
21
147.2447122751
0
LINE
5
276
100
AcDbEntity
8
0
100
AcDbLine
62
7
6
CONTINUOUS
10
-290.6997980544
20
-278.7552877249
11
-290.6997980544
21
-280.7552877249
0
LINE
5
277
100
AcDbEntity
8
0
100
AcDbLine
62
9
6
CONTINUOUS
10
-247.4877927777
20
251.6701037280
11
-247.4877287095
21
251.6706306867
0
LINE
5
278
100
AcDbEntity
8
0
100
AcDbLine
62
7
6
CONTINUOUS
10
69.3002019456
20
-230.7552877249
11
67.3002019456
21
-230.7552877249
0
LINE
5
279
100
AcDbEntity
8
0
100
AcDbLine
62
7
6
CONTINUOUS
10
-348.6997980544
20
-230.7552877249
11
-350.6997980544
21
-230.7552877249
0
LINE
5
27A
100
AcDbEntity
8
0
100
AcDbLine
62
7
6
CONTINUOUS
10
-350.6997980544
20
-229.7552877249
11
-348.6997980544
21
-229.7552877249
0
LINE
5
27B
100
AcDbEntity
8
0
100
AcDbLine
62
7
6
CONTINUOUS
10
67.3002019456
20
-229.7552877249
11
69.3002019456
21
-229.7552877249
0
LINE
5
27C
100
AcDbEntity
8
0
100
AcDbLine
62
9
6
CONTINUOUS
10
-247.4877927797
20
-383.1806791612
11
-247.4877287093
21
-383.1812061331
0
LINE
5
27D
100
AcDbEntity
8
0
100
AcDbLine
62
9
6
CONTINUOUS
10
-247.8946533448
20
-382.8488523560
11
-247.8942831995
21
-382.8555560580
0
LINE
5
27E
100
AcDbEntity
8
0
100
AcDbLine
62
7
6
CONTINUOUS
10
-260.6997980544
20
-380.2552877249
11
-260.6997980544
21
-378.7552877249
0
LINE
5
27F
100
AcDbEntity
8
0
100
AcDbLine
62
7
6
CONTINUOUS
10
-260.6997980544
20
248.7447122751
11
-260.6997980544
21
247.2447122751
0
LINE
5
280
100
AcDbEntity
8
0
100
AcDbLine
62
9
6
CONTINUOUS
10
-257.6997980544
20
-380.2552877249
11
-257.6997980544
21
-378.7552877249
0
LINE
5
281
100
AcDbEntity
8
0
100
AcDbLine
62
9
6
CONTINUOUS
10
-257.6997980544
20
248.7447122751
11
-257.6997980544
21
247.2447122751
0
LINE
5
282
100
AcDbEntity
8
0
100
AcDbLine
62
9
6
CONTINUOUS
10
-247.8946529372
20
251.3382842902
11
-247.8942828160
21
251.3449849519
0
LINE
5
283
100
AcDbEntity
8
0
100
AcDbLine
62
9
6
CONTINUOUS
10
-248.5049427641
20
251.3382769061
11
-248.5053129094
21
251.3449806081
0
LINE
5
284
100
AcDbEntity
8
0
100
AcDbLine
62
7
6
CONTINUOUS
10
-248.6997980544
20
-383.0819371712
11
-248.6997980544
21
-382.8740313239
0
LINE
5
285
100
AcDbEntity
8
0
100
AcDbLine
62
7
6
CONTINUOUS
10
-248.6997980544
20
251.3634464353
11
-248.6997980544
21
251.5713617213
0
LINE
5
286
100
AcDbEntity
8
0
100
AcDbLine
62
7
6
CONTINUOUS
10
-247.6997980544
20
251.5713617213
11
-247.6997980544
21
251.3634558740
0
LINE
5
287
100
AcDbEntity
8
0
100
AcDbLine
62
7
6
CONTINUOUS
10
-247.6997980544
20
-382.8740218851
11
-247.6997980544
21
-383.0819371712
0
LINE
5
288
100
AcDbEntity
8
0
100
AcDbLine
62
9
6
CONTINUOUS
10
-248.5049431717
20
-382.8488597401
11
-248.5053132928
21
-382.8555604018
0
LINE
5
289
100
AcDbEntity
8
0
100
AcDbLine
62
9
6
CONTINUOUS
10
-248.9118033312
20
-383.1806791779
11
-248.9118673994
21
-383.1812061365
0
LINE
5
28A
100
AcDbEntity
8
0
100
AcDbLine
62
9
6
CONTINUOUS
10
-248.9118033292
20
251.6701037114
11
-248.9118673996
21
251.6706306832
0
LINE
5
28B
100
AcDbEntity
8
0
100
AcDbLine
62
7
6
CONTINUOUS
10
-141.1997980544
20
-280.7552877249
11
-141.1997980544
21
-278.7552877249
0
LINE
5
28C
100
AcDbEntity
8
0
100
AcDbLine
62
7
6
CONTINUOUS
10
-141.1997980544
20
147.2447122751
11
-141.1997980544
21
149.2447122751
0
LINE
5
28D
100
AcDbEntity
8
0
100
AcDbLine
62
7
6
CONTINUOUS
10
-140.1997980544
20
149.2447122751
11
-140.1997980544
21
147.2447122751
0
LINE
5
28E
100
AcDbEntity
8
0
100
AcDbLine
62
7
6
CONTINUOUS
10
-140.1997980544
20
-278.7552877249
11
-140.1997980544
21
-280.7552877249
0
LINE
5
28F
100
AcDbEntity
8
0
100
AcDbLine
62
9
6
CONTINUOUS
10
-250.0306687501
20
-382.9325022099
11
-250.0308335029
21
-382.9330068502
0
LINE
5
290
100
AcDbEntity
8
0
100
AcDbLine
62
7
6
CONTINUOUS
10
-425.6997980544
20
-82.7552877249
11
-419.6997980544
21
-82.7552877249
0
LINE
5
291
100
AcDbEntity
8
0
100
AcDbLine
62
9
6
CONTINUOUS
10
-250.0306674489
20
251.4219227747
11
-250.0308324938
21
251.4224283143
0
LINE
5
292
100
AcDbEntity
8
0
100
AcDbLine
62
9
6
CONTINUOUS
10
-31.3689273587
20
251.4219267600
11
-31.3687626059
21
251.4224314003
0
LINE
5
293
100
AcDbEntity
8
0
100
AcDbLine
62
7
6
CONTINUOUS
10
-419.6997980544
20
-48.7552877249
11
-425.6997980544
21
-48.7552877249
0
LINE
5
294
100
AcDbEntity
8
0
100
AcDbLine
62
9
6
CONTINUOUS
10
-31.3689286600
20
-382.9324982246
11
-31.3687636150
21
-382.9330037642
0
LINE
5
295
100
AcDbEntity
8
0
100
AcDbLine
62
9
6
CONTINUOUS
10
-32.8946533448
20
-382.8488523560
11
-32.8942831995
21
-382.8555560580
0
LINE
5
296
100
AcDbEntity
8
0
100
AcDbLine
62
9
6
CONTINUOUS
10
-32.8946529372
20
251.3382842902
11
-32.8942828160
21
251.3449849519
0
LINE
5
297
100
AcDbEntity
8
0
100
AcDbLine
62
9
6
CONTINUOUS
10
-32.4877927777
20
251.6701037280
11
-32.4877287095
21
251.6706306867
0
LINE
5
298
100
AcDbEntity
8
0
100
AcDbLine
62
9
6
CONTINUOUS
10
-32.4877927797
20
-383.1806791612
11
-32.4877287093
21
-383.1812061331
0
LINE
5
299
100
AcDbEntity
8
0
100
AcDbLine
62
7
6
CONTINUOUS
10
-33.6997980544
20
-383.0819371712
11
-33.6997980544
21
-382.8740313239
0
LINE
5
29A
100
AcDbEntity
8
0
100
AcDbLine
62
7
6
CONTINUOUS
10
-33.6997980544
20
251.3634464353
11
-33.6997980544
21
251.5713617213
0
LINE
5
29B
100
AcDbEntity
8
0
100
AcDbLine
62
7
6
CONTINUOUS
10
-32.6997980544
20
251.5713617213
11
-32.6997980544
21
251.3634558740
0
LINE
5
29C
100
AcDbEntity
8
0
100
AcDbLine
62
7
6
CONTINUOUS
10
-32.6997980544
20
-382.8740218851
11
-32.6997980544
21
-383.0819371712
0
LINE
5
29D
100
AcDbEntity
8
0
100
AcDbLine
62
9
6
CONTINUOUS
10
-23.6997980544
20
-380.2552877249
11
-23.6997980544
21
-378.7552877249
0
LINE
5
29E
100
AcDbEntity
8
0
100
AcDbLine
62
9
6
CONTINUOUS
10
-23.6997980544
20
248.7447122751
11
-23.6997980544
21
247.2447122751
0
LINE
5
29F
100
AcDbEntity
8
0
100
AcDbLine
62
7
6
CONTINUOUS
10
-20.6997980544
20
-380.2552877249
11
-20.6997980544
21
-378.7552877249
0
LINE
5
2A0
100
AcDbEntity
8
0
100
AcDbLine
62
7
6
CONTINUOUS
10
-20.6997980544
20
248.7447122751
11
-20.6997980544
21
247.2447122751
0
LINE
5
2A1
100
AcDbEntity
8
0
100
AcDbLine
62
9
6
CONTINUOUS
10
-33.5049427641
20
251.3382769061
11
-33.5053129094
21
251.3449806081
0
LINE
5
2A2
100
AcDbEntity
8
0
100
AcDbLine
62
9
6
CONTINUOUS
10
-33.5049431717
20
-382.8488597401
11
-33.5053132928
21
-382.8555604018
0
LINE
5
2A3
100
AcDbEntity
8
0
100
AcDbLine
62
9
6
CONTINUOUS
10
-33.9118033312
20
-383.1806791779
11
-33.9118673994
21
-383.1812061365
0
LINE
5
2A4
100
AcDbEntity
8
0
100
AcDbLine
62
9
6
CONTINUOUS
10
-33.9118033292
20
251.6701037114
11
-33.9118673996
21
251.6706306832
0
LINE
5
2A5
100
AcDbEntity
8
0
100
AcDbLine
62
7
6
CONTINUOUS
10
9.3002019456
20
-280.7552877249
11
9.3002019456
21
-278.7552877249
0
LINE
5
2A6
100
AcDbEntity
8
0
100
AcDbLine
62
7
6
CONTINUOUS
10
9.3002019456
20
147.2447122751
11
9.3002019456
21
149.2447122751
0
LINE
5
2A7
100
AcDbEntity
8
0
100
AcDbLine
62
7
6
CONTINUOUS
10
10.3002019456
20
149.2447122751
11
10.3002019456
21
147.2447122751
0
LINE
5
2A8
100
AcDbEntity
8
0
100
AcDbLine
62
7
6
CONTINUOUS
10
10.3002019456
20
-278.7552877249
11
10.3002019456
21
-280.7552877249
0
LINE
5
2A9
100
AcDbEntity
8
0
100
AcDbLine
62
7
6
CONTINUOUS
10
69.3002019456
20
98.2447122751
11
67.3002019456
21
98.2447122751
0
LINE
5
2AA
100
AcDbEntity
8
0
100
AcDbLine
62
7
6
CONTINUOUS
10
-348.6997980544
20
98.2447122751
11
-350.6997980544
21
98.2447122751
0
LINE
5
2AB
100
AcDbEntity
8
0
100
AcDbLine
62
7
6
CONTINUOUS
10
-350.6997980544
20
99.2447122751
11
-348.6997980544
21
99.2447122751
0
LINE
5
2AC
100
AcDbEntity
8
0
100
AcDbLine
62
7
6
CONTINUOUS
10
67.3002019456
20
99.2447122751
11
69.3002019456
21
99.2447122751
0
LINE
5
2AD
100
AcDbEntity
8
0
100
AcDbLine
62
7
6
CONTINUOUS
10
55.8002019456
20
193.2447122751
11
55.8002019456
21
187.5362742509
0
LINE
5
2AE
100
AcDbEntity
8
0
100
AcDbLine
62
7
6
CONTINUOUS
10
55.8002019456
20
170.9531502992
11
55.8002019456
21
165.2447122751
0
LINE
5
2AF
100
AcDbEntity
8
0
100
AcDbLine
62
7
6
CONTINUOUS
10
55.8002019456
20
-296.7552877249
11
55.8002019455
21
-302.4637257491
0
LINE
5
2B0
100
AcDbEntity
8
0
100
AcDbLine
62
7
6
CONTINUOUS
10
55.8002019455
20
-319.0468497008
11
55.8002019455
21
-324.7552877249
0
LINE
5
2B1
100
AcDbEntity
8
0
100
AcDbLine
62
7
6
CONTINUOUS
10
59.3002019455
20
-311.4977877249
11
59.3002019455
21
-310.0127877249
0
LINE
5
2B2
100
AcDbEntity
8
DEFAULT_1
100
AcDbLine
62
7
6
CENTER
10
59.3002019455
20
-307.0427877249
11
59.3002019455
21
-300.2552877249
0
LINE
5
2B3
100
AcDbEntity
8
0
100
AcDbLine
62
7
6
CONTINUOUS
10
59.3002019456
20
179.9872122751
11
59.3002019456
21
178.5022122751
0
LINE
5
2B4
100
AcDbEntity
8
DEFAULT_1
100
AcDbLine
62
7
6
CENTER
10
59.3002019456
20
175.5322122751
11
59.3002019456
21
168.7447122751
0
LINE
5
2B5
100
AcDbEntity
8
DEFAULT_1
100
AcDbLine
62
7
6
CENTER
10
59.3002019456
20
182.9572122751
11
59.3002019456
21
189.7447122751
0
LINE
5
2B6
100
AcDbEntity
8
DEFAULT_1
100
AcDbLine
62
7
6
CENTER
10
59.3002019455
20
-314.4677877249
11
59.3002019455
21
-321.2552877249
0
LINE
5
2B7
100
AcDbEntity
8
0
100
AcDbLine
62
7
6
CONTINUOUS
10
62.8002019455
20
-324.7552877249
11
62.8002019455
21
-319.0468497008
0
LINE
5
2B8
100
AcDbEntity
8
0
100
AcDbLine
62
7
6
CONTINUOUS
10
62.8002019455
20
-302.4637257491
11
62.8002019456
21
-296.7552877249
0
LINE
5
2B9
100
AcDbEntity
8
0
100
AcDbLine
62
7
6
CONTINUOUS
10
62.8002019456
20
165.2447122751
11
62.8002019456
21
170.9531502992
0
LINE
5
2BA
100
AcDbEntity
8
0
100
AcDbLine
62
7
6
CONTINUOUS
10
62.8002019456
20
187.5362742509
11
62.8002019456
21
193.2447122751
0
LINE
5
2BB
100
AcDbEntity
8
0
100
AcDbLine
62
9
6
CONTINUOUS
10
-35.0306687501
20
-382.9325022099
11
-35.0308335029
21
-382.9330068502
0
LINE
5
2BC
100
AcDbEntity
8
0
100
AcDbLine
62
9
6
CONTINUOUS
10
-35.0306674489
20
251.4219227747
11
-35.0308324938
21
251.4224283143
0
LINE
5
2BD
100
AcDbEntity
8
0
100
AcDbLine
62
9
6
CONTINUOUS
10
67.3002019456
20
-230.7552877249
11
67.3002019456
21
-229.7552877249
0
LINE
5
2BE
100
AcDbEntity
8
0
100
AcDbLine
62
7
6
CONTINUOUS
10
67.3002019456
20
147.2447122751
11
67.3002019456
21
99.2447122751
0
LINE
5
2BF
100
AcDbEntity
8
0
100
AcDbLine
62
7
6
CONTINUOUS
10
67.3002019456
20
98.2447122751
11
67.3002019456
21
-229.7552877249
0
LINE
5
2C0
100
AcDbEntity
8
0
100
AcDbLine
62
9
6
CONTINUOUS
10
67.3002019456
20
98.2447122751
11
67.3002019456
21
99.2447122751
0
LINE
5
2C1
100
AcDbEntity
8
0
100
AcDbLine
62
7
6
CONTINUOUS
10
67.3002019456
20
-230.7552877249
11
67.3002019456
21
-278.7552877249
0
LINE
5
2C2
100
AcDbEntity
8
0
100
AcDbLine
62
7
6
CONTINUOUS
10
69.3002019456
20
-280.7552877249
11
69.3002019456
21
-230.7552877249
0
LINE
5
2C3
100
AcDbEntity
8
0
100
AcDbLine
62
9
6
CONTINUOUS
10
69.3002019456
20
99.2447122751
11
69.3002019456
21
98.2447122751
0
LINE
5
2C4
100
AcDbEntity
8
0
100
AcDbLine
62
7
6
CONTINUOUS
10
69.3002019456
20
-229.7552877249
11
69.3002019456
21
98.2447122751
0
LINE
5
2C5
100
AcDbEntity
8
0
100
AcDbLine
62
7
6
CONTINUOUS
10
69.3002019456
20
99.2447122751
11
69.3002019456
21
149.2447122751
0
LINE
5
2C6
100
AcDbEntity
8
0
100
AcDbLine
62
9
6
CONTINUOUS
10
69.3002019456
20
-229.7552877249
11
69.3002019456
21
-230.7552877249
0
LINE
5
2C7
100
AcDbEntity
8
0
100
AcDbLine
62
7
6
CONTINUOUS
10
-348.6997980544
20
147.2447122751
11
-291.6997980544
21
147.2447122751
0
LINE
5
2C8
100
AcDbEntity
8
0
100
AcDbLine
62
7
6
CONTINUOUS
10
-290.6997980544
20
147.2447122751
11
-141.1997980544
21
147.2447122751
0
LINE
5
2C9
100
AcDbEntity
8
0
100
AcDbLine
62
7
6
CONTINUOUS
10
-140.1997980544
20
147.2447122751
11
9.3002019456
21
147.2447122751
0
LINE
5
2CA
100
AcDbEntity
8
0
100
AcDbLine
62
9
6
CONTINUOUS
10
10.3002019456
20
147.2447122751
11
9.3002019456
21
147.2447122751
0
LINE
5
2CB
100
AcDbEntity
8
0
100
AcDbLine
62
7
6
CONTINUOUS
10
10.3002019456
20
147.2447122751
11
67.3002019456
21
147.2447122751
0
LINE
5
2CC
100
AcDbEntity
8
0
100
AcDbLine
62
9
6
CONTINUOUS
10
-140.1997980544
20
147.2447122751
11
-141.1997980544
21
147.2447122751
0
LINE
5
2CD
100
AcDbEntity
8
0
100
AcDbLine
62
9
6
CONTINUOUS
10
-290.6997980544
20
147.2447122751
11
-291.6997980544
21
147.2447122751
0
LINE
5
2CE
100
AcDbEntity
8
0
100
AcDbLine
62
9
6
CONTINUOUS
10
-291.6997980544
20
149.2447122751
11
-290.6997980544
21
149.2447122751
0
LINE
5
2CF
100
AcDbEntity
8
0
100
AcDbLine
62
9
6
CONTINUOUS
10
-141.1997980544
20
149.2447122751
11
-140.1997980544
21
149.2447122751
0
LINE
5
2D0
100
AcDbEntity
8
0
100
AcDbLine
62
7
6
CONTINUOUS
10
69.3002019456
20
149.2447122751
11
10.3002019456
21
149.2447122751
0
LINE
5
2D1
100
AcDbEntity
8
0
100
AcDbLine
62
9
6
CONTINUOUS
10
9.3002019456
20
149.2447122751
11
10.3002019456
21
149.2447122751
0
LINE
5
2D2
100
AcDbEntity
8
0
100
AcDbLine
62
7
6
CONTINUOUS
10
9.3002019456
20
149.2447122751
11
-140.1997980544
21
149.2447122751
0
LINE
5
2D3
100
AcDbEntity
8
0
100
AcDbLine
62
7
6
CONTINUOUS
10
-141.1997980544
20
149.2447122751
11
-290.6997980544
21
149.2447122751
0
LINE
5
2D4
100
AcDbEntity
8
0
100
AcDbLine
62
7
6
CONTINUOUS
10
-291.6997980544
20
149.2447122751
11
-350.6997980544
21
149.2447122751
0
LINE
5
2D5
100
AcDbEntity
8
0
100
AcDbLine
62
7
6
CONTINUOUS
10
-341.4422980544
20
179.2447122751
11
-339.9572980544
21
179.2447122751
0
LINE
5
2D6
100
AcDbEntity
8
DEFAULT_1
100
AcDbLine
62
7
6
CENTER
10
-336.9872980544
20
179.2447122751
11
-330.1997980544
21
179.2447122751
0
LINE
5
2D7
100
AcDbEntity
8
0
100
AcDbLine
62
7
6
CONTINUOUS
10
60.0427019456
20
179.2447122751
11
58.5577019456
21
179.2447122751
0
LINE
5
2D8
100
AcDbEntity
8
DEFAULT_1
100
AcDbLine
62
7
6
CENTER
10
55.5877019456
20
179.2447122751
11
48.8002019456
21
179.2447122751
0
LINE
5
2D9
100
AcDbEntity
8
DEFAULT_1
100
AcDbLine
62
7
6
CENTER
10
63.0127019456
20
179.2447122751
11
69.8002019456
21
179.2447122751
0
LINE
5
2DA
100
AcDbEntity
8
DEFAULT_1
100
AcDbLine
62
7
6
CENTER
10
-344.4122980544
20
179.2447122751
11
-351.1997980544
21
179.2447122751
0
LINE
5
2DB
100
AcDbEntity
8
0
100
AcDbLine
62
7
6
CONTINUOUS
10
139.3002019455
20
176.7356699527
11
139.3002019455
21
171.7537545975
0
LINE
5
2DC
100
AcDbEntity
8
0
100
AcDbLine
62
7
6
CONTINUOUS
10
139.3002019455
20
96.7356699527
11
139.3002019455
21
91.7537545975
0
LINE
5
2DD
100
AcDbEntity
8
0
100
AcDbLine
62
7
6
CONTINUOUS
10
139.3002019455
20
16.7356699527
11
139.3002019455
21
11.7537545975
0
LINE
5
2DE
100
AcDbEntity
8
0
100
AcDbLine
62
7
6
CONTINUOUS
10
139.3002019455
20
-143.2643300473
11
139.3002019455
21
-148.2462454025
0
LINE
5
2DF
100
AcDbEntity
8
0
100
AcDbLine
62
7
6
CONTINUOUS
10
139.3002019455
20
-223.2643300473
11
139.3002019455
21
-228.2462454025
0
LINE
5
2E0
100
AcDbEntity
8
0
100
AcDbLine
62
7
6
CONTINUOUS
10
139.3002019455
20
-303.2643300473
11
139.3002019455
21
-308.2462454025
0
LINE
5
2E1
100
AcDbEntity
8
0
100
AcDbLine
62
9
6
CONTINUOUS
10
140.6002019455
20
-307.8846022933
11
140.6002019455
21
-303.6259731565
0
LINE
5
2E2
100
AcDbEntity
8
0
100
AcDbLine
62
9
6
CONTINUOUS
10
140.6002019456
20
-227.8846022933
11
140.6002019456
21
-223.6259731565
0
LINE
5
2E3
100
AcDbEntity
8
0
100
AcDbLine
62
9
6
CONTINUOUS
10
140.6002019456
20
-147.8846022933
11
140.6002019456
21
-143.6259731565
0
LINE
5
2E4
100
AcDbEntity
8
0
100
AcDbLine
62
9
6
CONTINUOUS
10
140.6002019456
20
12.1153977067
11
140.6002019456
21
16.3740268435
0
LINE
5
2E5
100
AcDbEntity
8
0
100
AcDbLine
62
9
6
CONTINUOUS
10
140.6002019456
20
92.1153977067
11
140.6002019456
21
96.3740268435
0
LINE
5
2E6
100
AcDbEntity
8
0
100
AcDbLine
62
9
6
CONTINUOUS
10
140.6002019456
20
172.1153977067
11
140.6002019456
21
176.3740268435
0
LINE
5
2E7
100
AcDbEntity
8
0
100
AcDbLine
62
7
6
CONTINUOUS
10
141.3002019455
20
-307.2425529695
11
141.3002019456
21
-304.2680224804
0
LINE
5
2E8
100
AcDbEntity
8
0
100
AcDbLine
62
7
6
CONTINUOUS
10
141.3002019456
20
-227.2425529695
11
141.3002019456
21
-224.2680224804
0
LINE
5
2E9
100
AcDbEntity
8
0
100
AcDbLine
62
7
6
CONTINUOUS
10
141.3002019456
20
-147.2425529695
11
141.3002019456
21
-144.2680224804
0
LINE
5
2EA
100
AcDbEntity
8
0
100
AcDbLine
62
7
6
CONTINUOUS
10
141.3002019456
20
12.7574470305
11
141.3002019456
21
15.7319775196
0
LINE
5
2EB
100
AcDbEntity
8
0
100
AcDbLine
62
7
6
CONTINUOUS
10
141.3002019456
20
92.7574470305
11
141.3002019456
21
95.7319775196
0
LINE
5
2EC
100
AcDbEntity
8
0
100
AcDbLine
62
7
6
CONTINUOUS
10
141.3002019456
20
172.7574470305
11
141.3002019456
21
175.7319775196
0
LINE
5
2ED
100
AcDbEntity
8
0
100
AcDbLine
62
7
6
CONTINUOUS
10
-440.6997980544
20
205.2447122751
11
-438.3997980544
21
205.2447122751
0
LINE
5
2EE
100
AcDbEntity
8
0
100
AcDbLine
62
9
6
CONTINUOUS
10
-438.3997980544
20
205.2447122750
11
157.0002019456
21
205.2447122751
0
LINE
5
2EF
100
AcDbEntity
8
0
100
AcDbLine
62
7
6
CONTINUOUS
10
157.0002019456
20
205.2447122751
11
159.3002019456
21
205.2447122751
0
LINE
5
2F0
100
AcDbEntity
8
0
100
AcDbLine
62
7
6
CONTINUOUS
10
157.3002019456
20
205.7447122751
11
157.0002019456
21
205.7447122751
0
LINE
5
2F1
100
AcDbEntity
8
0
100
AcDbLine
62
7
6
CONTINUOUS
10
-438.1521772523
20
205.7447122750
11
-438.6997980544
21
205.7447122750
0
LINE
5
2F2
100
AcDbEntity
8
0
100
AcDbLine
62
7
6
CONTINUOUS
10
-440.6997980544
20
206.7447122751
11
-440.0174888498
21
206.7447122751
0
LINE
5
2F3
100
AcDbEntity
8
0
100
AcDbLine
62
7
6
CONTINUOUS
10
159.3002019456
20
206.7447122750
11
158.6178927410
21
206.7447122750
0
LINE
5
2F4
100
AcDbEntity
8
0
100
AcDbLine
62
7
6
CONTINUOUS
10
159.3002019456
20
207.2447122751
11
-439.1643998910
21
207.2447122751
0
LINE
5
2F5
100
AcDbEntity
8
0
100
AcDbLine
62
9
6
CONTINUOUS
10
159.3002019456
20
209.2447122751
11
-440.6997980544
21
209.2447122751
0
LINE
5
2F6
100
AcDbEntity
8
0
100
AcDbLine
62
9
6
CONTINUOUS
10
157.3002019456
20
205.2447122751
11
157.3002019455
21
-336.7552877249
0
LINE
5
2F7
100
AcDbEntity
8
0
100
AcDbLine
62
7
6
CONTINUOUS
10
157.3002019456
20
205.7447122751
11
157.3002019456
21
207.2447122751
0
LINE
5
2F8
100
AcDbEntity
8
0
100
AcDbLine
62
7
6
CONTINUOUS
10
157.3002019455
20
-337.2552877249
11
157.3002019455
21
-338.7552877249
0
LINE
5
2F9
100
AcDbEntity
8
0
100
AcDbLine
62
7
6
CONTINUOUS
10
158.2766031700
20
246.9763083108
11
158.2766031700
21
247.2447122751
0
LINE
5
2FA
100
AcDbEntity
8
0
100
AcDbLine
62
7
6
CONTINUOUS
10
158.2766031700
20
-378.4982416475
11
158.2766031700
21
-378.7552877249
0
LINE
5
2FB
100
AcDbEntity
8
0
100
AcDbLine
62
7
6
CONTINUOUS
10
159.3002019456
20
-376.7552877249
11
159.3002019456
21
-340.7552877249
0
LINE
5
2FC
100
AcDbEntity
8
0
100
AcDbLine
62
7
6
CONTINUOUS
10
159.3002019456
20
245.2447122751
11
159.3002019456
21
207.2447122751
0
LINE
5
2FD
100
AcDbEntity
8
0
100
AcDbLine
62
7
6
CONTINUOUS
10
159.3002019456
20
245.4947122751
11
159.3002019456
21
246.2447122751
0
LINE
5
2FE
100
AcDbEntity
8
0
100
AcDbLine
62
7
6
CONTINUOUS
10
159.3002019456
20
206.7447122750
11
159.3002019455
21
-338.2552877250
0
LINE
5
2FF
100
AcDbEntity
8
0
100
AcDbLine
62
7
6
CONTINUOUS
10
159.3002019456
20
-338.7552877249
11
159.3002019456
21
-340.2552877249
0
LINE
5
300
100
AcDbEntity
8
0
100
AcDbLine
62
7
6
CONTINUOUS
10
159.3002019456
20
-377.0052877249
11
159.3002019456
21
-377.7552877249
0
LINE
5
301
100
AcDbEntity
8
0
100
AcDbLine
62
9
6
CONTINUOUS
10
159.3002019456
20
245.2447122751
11
-440.6997980544
21
245.2447122751
0
LINE
5
302
100
AcDbEntity
8
0
100
AcDbLine
62
7
6
CONTINUOUS
10
158.2766031700
20
247.2447122751
11
-439.6761992788
21
247.2447122751
0
LINE
5
303
100
AcDbEntity
8
0
100
AcDbLine
62
7
6
CONTINUOUS
10
-260.6997980544
20
248.7447122751
11
-20.6997980544
21
248.7447122751
0
LINE
5
304
100
AcDbEntity
8
0
100
AcDbLine
62
9
6
CONTINUOUS
10
-253.1673148330
20
249.0539740200
11
-243.2322812759
21
249.0539740200
0
LINE
5
305
100
AcDbEntity
8
0
100
AcDbLine
62
9
6
CONTINUOUS
10
-38.1673148330
20
249.0539740200
11
-28.2322812759
21
249.0539740200
0
ARC
5
306
100
AcDbEntity
8
0
100
AcDbCircle
62
7
6
CONTINUOUS
10
-250.2997980544
20
251.2534163462
40
0.1000000000
100
AcDbArc
50
74.7156395953
51
111.1099183904
0
ARC
5
307
100
AcDbEntity
8
0
100
AcDbCircle
62
7
6
CONTINUOUS
10
-246.0997980544
20
251.2534163462
40
0.1000000000
100
AcDbArc
50
68.8900816096
51
105.2844940467
0
ARC
5
308
100
AcDbEntity
8
0
100
AcDbCircle
62
7
6
CONTINUOUS
10
-248.1997980544
20
245.8139430443
40
5.9307692308
100
AcDbArc
50
33.1141427513
51
68.8900812184
0
ARC
5
309
100
AcDbEntity
8
0
100
AcDbCircle
62
7
6
CONTINUOUS
10
-248.1997980544
20
245.8139430443
40
5.9307692308
100
AcDbArc
50
111.1099187816
51
146.8858572487
0
ARC
5
30A
100
AcDbEntity
8
0
100
AcDbCircle
62
7
6
CONTINUOUS
10
-243.3997980544
20
248.9447122751
40
0.2000000000
100
AcDbArc
50
270.0000000000
51
33.1141427513
0
ARC
5
30B
100
AcDbEntity
8
0
100
AcDbCircle
62
7
6
CONTINUOUS
10
-252.9997980544
20
248.9447122751
40
0.2000000000
100
AcDbArc
50
146.8858572487
51
270.0000000000
0
ARC
5
30C
100
AcDbEntity
8
0
100
AcDbCircle
62
7
6
CONTINUOUS
10
-35.2997980544
20
251.2534163462
40
0.1000000000
100
AcDbArc
50
74.7156395953
51
111.1099183904
0
ARC
5
30D
100
AcDbEntity
8
0
100
AcDbCircle
62
7
6
CONTINUOUS
10
-31.0997980544
20
251.2534163462
40
0.1000000000
100
AcDbArc
50
68.8900816096
51
105.2844940467
0
ARC
5
30E
100
AcDbEntity
8
0
100
AcDbCircle
62
7
6
CONTINUOUS
10
-33.1997980544
20
245.8139430443
40
5.9307692308
100
AcDbArc
50
33.1141427513
51
68.8900812184
0
ARC
5
30F
100
AcDbEntity
8
0
100
AcDbCircle
62
7
6
CONTINUOUS
10
-33.1997980544
20
245.8139430443
40
5.9307692308
100
AcDbArc
50
111.1099187816
51
146.8858572487
0
ARC
5
310
100
AcDbEntity
8
0
100
AcDbCircle
62
7
6
CONTINUOUS
10
-28.3997980544
20
248.9447122751
40
0.2000000000
100
AcDbArc
50
270.0000000000
51
33.1141427513
0
ARC
5
311
100
AcDbEntity
8
0
100
AcDbCircle
62
7
6
CONTINUOUS
10
-37.9997980544
20
248.9447122751
40
0.2000000000
100
AcDbArc
50
146.8858572487
51
270.0000000000
0
ARC
5
312
100
AcDbEntity
8
0
100
AcDbCircle
62
7
6
CONTINUOUS
10
-246.0997980544
20
-382.7639917961
40
0.1000000000
100
AcDbArc
50
254.7156395953
51
291.1099183904
0
ARC
5
313
100
AcDbEntity
8
0
100
AcDbCircle
62
7
6
CONTINUOUS
10
-250.2997980544
20
-382.7639917961
40
0.1000000000
100
AcDbArc
50
248.8900816096
51
285.2844940467
0
ARC
5
314
100
AcDbEntity
8
0
100
AcDbCircle
62
7
6
CONTINUOUS
10
-248.1997980544
20
-377.3245184942
40
5.9307692308
100
AcDbArc
50
213.1141427513
51
248.8900812184
0
ARC
5
315
100
AcDbEntity
8
0
100
AcDbCircle
62
7
6
CONTINUOUS
10
-248.1997980544
20
-377.3245184942
40
5.9307692308
100
AcDbArc
50
291.1099187816
51
326.8858572487
0
ARC
5
316
100
AcDbEntity
8
0
100
AcDbCircle
62
7
6
CONTINUOUS
10
-252.9997980544
20
-380.4552877249
40
0.2000000000
100
AcDbArc
50
90.0000000000
51
213.1141427513
0
ARC
5
317
100
AcDbEntity
8
0
100
AcDbCircle
62
7
6
CONTINUOUS
10
-243.3997980544
20
-380.4552877249
40
0.2000000000
100
AcDbArc
50
326.8858572487
51
90.0000000000
0
ARC
5
318
100
AcDbEntity
8
0
100
AcDbCircle
62
7
6
CONTINUOUS
10
-31.0997980544
20
-382.7639917961
40
0.1000000000
100
AcDbArc
50
254.7156395953
51
291.1099183904
0
ARC
5
319
100
AcDbEntity
8
0
100
AcDbCircle
62
7
6
CONTINUOUS
10
-35.2997980544
20
-382.7639917961
40
0.1000000000
100
AcDbArc
50
248.8900816096
51
285.2844940467
0
ARC
5
31A
100
AcDbEntity
8
0
100
AcDbCircle
62
7
6
CONTINUOUS
10
-33.1997980544
20
-377.3245184942
40
5.9307692308
100
AcDbArc
50
213.1141427513
51
248.8900812184
0
ARC
5
31B
100
AcDbEntity
8
0
100
AcDbCircle
62
7
6
CONTINUOUS
10
-33.1997980544
20
-377.3245184942
40
5.9307692308
100
AcDbArc
50
291.1099187816
51
326.8858572487
0
ARC
5
31C
100
AcDbEntity
8
0
100
AcDbCircle
62
7
6
CONTINUOUS
10
-37.9997980544
20
-380.4552877249
40
0.2000000000
100
AcDbArc
50
90.0000000000
51
213.1141427513
0
ARC
5
31D
100
AcDbEntity
8
0
100
AcDbCircle
62
7
6
CONTINUOUS
10
-28.3997980544
20
-380.4552877249
40
0.2000000000
100
AcDbArc
50
326.8858572487
51
90.0000000000
0
ARC
5
31E
100
AcDbEntity
8
0
100
AcDbCircle
62
7
6
CONTINUOUS
10
-438.6997980544
20
205.2447122750
40
0.5000000000
100
AcDbArc
50
90.0000000028
51
172.1037075698
0
ARC
5
31F
100
AcDbEntity
8
0
100
AcDbCircle
62
7
6
CONTINUOUS
10
-438.6997980545
20
-336.7552877250
40
0.5000000000
100
AcDbArc
50
187.8962924227
51
270.0000000023
0
ARC
5
320
100
AcDbEntity
8
0
100
AcDbCircle
62
7
6
CONTINUOUS
10
157.3002019456
20
205.2447122751
40
0.5000000000
100
AcDbArc
50
7.8962924252
51
90.0000000014
0
ARC
5
321
100
AcDbEntity
8
0
100
AcDbCircle
62
7
6
CONTINUOUS
10
157.3002019455
20
-336.7552877249
40
0.5000000000
100
AcDbArc
50
270.0000000036
51
352.1037075726
0
ARC
5
322
100
AcDbEntity
8
0
100
AcDbCircle
62
7
6
CONTINUOUS
10
157.8002019456
20
-338.2552877250
40
1.5000000000
100
AcDbArc
50
315.0000000000
51
360.0000000000
0
ARC
5
323
100
AcDbEntity
8
0
100
AcDbCircle
62
7
6
CONTINUOUS
10
157.8002019456
20
206.7447122750
40
1.5000000000
100
AcDbArc
50
0.0000000000
51
19.5214181553
0
ARC
5
324
100
AcDbEntity
8
0
100
AcDbCircle
62
7
6
CONTINUOUS
10
-439.1997980544
20
206.7447122751
40
1.5000000000
100
AcDbArc
50
135.0000000000
51
180.0000000000
0
ARC
5
325
100
AcDbEntity
8
0
100
AcDbCircle
62
7
6
CONTINUOUS
10
-439.1997980544
20
-338.2552877249
40
1.5000000000
100
AcDbArc
50
180.0000000000
51
199.5214181553
0
ARC
5
326
100
AcDbEntity
8
0
100
AcDbCircle
62
7
6
CONTINUOUS
10
157.3002019456
20
245.2447122751
40
2.0000000000
100
AcDbArc
50
7.7259407538
51
52.4439594308
0
ARC
5
327
100
AcDbEntity
8
0
100
AcDbCircle
62
7
6
CONTINUOUS
10
-438.6997980544
20
245.2447122751
40
2.0000000000
100
AcDbArc
50
118.2503837458
51
172.2740592462
0
ARC
5
328
100
AcDbEntity
8
0
100
AcDbCircle
62
7
6
CONTINUOUS
10
-438.6997980544
20
209.2447122751
40
2.0000000000
100
AcDbArc
50
190.0093107987
51
229.9937928008
0
ARC
5
329
100
AcDbEntity
8
0
100
AcDbCircle
62
7
6
CONTINUOUS
10
-438.6997980544
20
-376.7552877249
40
2.0000000000
100
AcDbArc
50
187.7259407538
51
232.4439594308
0
ARC
5
32A
100
AcDbEntity
8
0
100
AcDbCircle
62
7
6
CONTINUOUS
10
157.3002019456
20
-376.7552877249
40
2.0000000000
100
AcDbArc
50
298.2503837458
51
352.2740592462
0
ARC
5
32B
100
AcDbEntity
8
0
100
AcDbCircle
62
7
6
CONTINUOUS
10
157.3002019456
20
-340.7552877249
40
2.0000000000
100
AcDbArc
50
10.0093107988
51
49.9937928008
0
CIRCLE
5
32C
100
AcDbEntity
8
0
100
AcDbCircle
62
7
6
CONTINUOUS
10
139.3002019456
20
14.2447122751
40
2.5000000000
0
CIRCLE
5
32D
100
AcDbEntity
8
0
100
AcDbCircle
62
7
6
CONTINUOUS
10
139.3002019456
20
94.2447122751
40
2.5000000000
0
CIRCLE
5
32E
100
AcDbEntity
8
0
100
AcDbCircle
62
7
6
CONTINUOUS
10
139.3002019456
20
-145.7552877249
40
2.5000000000
0
CIRCLE
5
32F
100
AcDbEntity
8
0
100
AcDbCircle
62
7
6
CONTINUOUS
10
139.3002019456
20
-225.7552877249
40
2.5000000000
0
CIRCLE
5
330
100
AcDbEntity
8
0
100
AcDbCircle
62
7
6
CONTINUOUS
10
139.3002019456
20
174.2447122751
40
2.5000000000
0
CIRCLE
5
331
100
AcDbEntity
8
0
100
AcDbCircle
62
7
6
CONTINUOUS
10
139.3002019455
20
-305.7552877249
40
2.5000000000
0
ARC
5
332
100
AcDbEntity
8
0
100
AcDbCircle
62
7
6
CONTINUOUS
10
59.3002019456
20
179.2447122751
40
9.0000000000
100
AcDbArc
50
292.8853804762
51
67.1146195238
0
ARC
5
333
100
AcDbEntity
8
0
100
AcDbCircle
62
7
6
CONTINUOUS
10
59.3002019456
20
165.2447122751
40
3.5000000000
100
AcDbArc
50
180.0000000000
51
360.0000000000
0
ARC
5
334
100
AcDbEntity
8
0
100
AcDbCircle
62
7
6
CONTINUOUS
10
59.3002019456
20
179.2447122751
40
9.0000000000
100
AcDbArc
50
112.8853804762
51
247.1146195238
0
ARC
5
335
100
AcDbEntity
8
0
100
AcDbCircle
62
7
6
CONTINUOUS
10
59.3002019456
20
193.2447122751
40
3.5000000000
100
AcDbArc
50
0.0000000000
51
180.0000000000
0
ARC
5
336
100
AcDbEntity
8
0
100
AcDbCircle
62
7
6
CONTINUOUS
10
-340.6997980544
20
193.2447122751
40
3.5000000000
100
AcDbArc
50
0.0000000000
51
180.0000000000
0
ARC
5
337
100
AcDbEntity
8
0
100
AcDbCircle
62
7
6
CONTINUOUS
10
-340.6997980544
20
179.2447122751
40
9.0000000000
100
AcDbArc
50
292.8853804762
51
67.1146195238
0
ARC
5
338
100
AcDbEntity
8
0
100
AcDbCircle
62
7
6
CONTINUOUS
10
-340.6997980544
20
165.2447122751
40
3.5000000000
100
AcDbArc
50
180.0000000000
51
360.0000000000
0
ARC
5
339
100
AcDbEntity
8
0
100
AcDbCircle
62
7
6
CONTINUOUS
10
-340.6997980544
20
179.2447122751
40
9.0000000000
100
AcDbArc
50
112.8853804762
51
247.1146195238
0
ARC
5
33A
100
AcDbEntity
8
0
100
AcDbCircle
62
7
6
CONTINUOUS
10
59.3002019455
20
-324.7552877249
40
3.5000000000
100
AcDbArc
50
180.0000000000
51
360.0000000000
0
ARC
5
33B
100
AcDbEntity
8
0
100
AcDbCircle
62
7
6
CONTINUOUS
10
59.3002019455
20
-310.7552877249
40
9.0000000000
100
AcDbArc
50
112.8853804762
51
247.1146195238
0
ARC
5
33C
100
AcDbEntity
8
0
100
AcDbCircle
62
7
6
CONTINUOUS
10
59.3002019456
20
-296.7552877249
40
3.5000000000
100
AcDbArc
50
0.0000000000
51
180.0000000000
0
ARC
5
33D
100
AcDbEntity
8
0
100
AcDbCircle
62
7
6
CONTINUOUS
10
59.3002019455
20
-310.7552877249
40
9.0000000000
100
AcDbArc
50
292.8853804762
51
67.1146195238
0
ARC
5
33E
100
AcDbEntity
8
0
100
AcDbCircle
62
7
6
CONTINUOUS
10
-340.6997980545
20
-310.7552877249
40
9.0000000000
100
AcDbArc
50
112.8853804762
51
247.1146195238
0
ARC
5
33F
100
AcDbEntity
8
0
100
AcDbCircle
62
7
6
CONTINUOUS
10
-340.6997980544
20
-296.7552877249
40
3.5000000000
100
AcDbArc
50
0.0000000000
51
180.0000000000
0
ARC
5
340
100
AcDbEntity
8
0
100
AcDbCircle
62
7
6
CONTINUOUS
10
-340.6997980545
20
-310.7552877249
40
9.0000000000
100
AcDbArc
50
292.8853804762
51
67.1146195238
0
ARC
5
341
100
AcDbEntity
8
0
100
AcDbCircle
62
7
6
CONTINUOUS
10
-340.6997980545
20
-324.7552877249
40
3.5000000000
100
AcDbArc
50
180.0000000000
51
360.0000000000
0
ARC
5
342
100
AcDbEntity
8
0
100
AcDbCircle
62
7
6
CONTINUOUS
10
157.3002019455
20
-336.7552877249
40
2.0000000000
100
AcDbArc
50
270.0000000009
51
356.2459628955
0
ARC
5
343
100
AcDbEntity
8
0
100
AcDbCircle
62
7
6
CONTINUOUS
10
157.3002019456
20
205.2447122751
40
2.0000000000
100
AcDbArc
50
0.0000000000
51
90.0000000004
0
ARC
5
344
100
AcDbEntity
8
0
100
AcDbCircle
62
7
6
CONTINUOUS
10
-438.6997980545
20
-336.7552877250
40
2.0000000000
100
AcDbArc
50
179.9999999990
51
270.0000000006
0
ARC
5
345
100
AcDbEntity
8
0
100
AcDbCircle
62
7
6
CONTINUOUS
10
-438.6997980544
20
205.2447122750
40
2.0000000000
100
AcDbArc
50
90.0000000007
51
176.2459628949
0
SPLINE
5
346
100
AcDbEntity
8
0
100
AcDbSpline
62
7
6
CONTINUOUS
70
0
71
3
72
16
73
12
74
10
42
0.0000001000
43
0.0000001000
44
0.0000000001
12
-0.0289744044
22
0.2588793067
32
0.0000000000
13
-0.2571086795
23
-0.0312684163
33
0.0000000000
40
0.0000000000
40
0.0000000000
40
0.0000000000
40
0.0000000000
40
0.0950980898
40
0.2223386279
40
0.3380988178
40
0.4476222810
40
0.5468622451
40
0.6466093114
40
0.7654231273
40
0.9093720201
40
1.0000000000
40
1.0000000000
40
1.0000000000
40
1.0000000000
10
-248.7004366233
20
251.5825688144
30
0.0000000000
10
-248.7013550935
20
251.5907751235
30
0.0000000000
10
-248.7058328571
20
251.6097720602
30
0.0000000000
10
-248.7205526650
20
251.6355364316
30
0.0000000000
10
-248.7432745712
20
251.6564360751
30
0.0000000000
10
-248.7686433220
20
251.6690975649
30
0.0000000000
10
-248.7947882455
20
251.6750196972
30
0.0000000000
10
-248.8222267800
20
251.6767286869
30
0.0000000000
10
-248.8535324107
20
251.6760522456
30
0.0000000000
10
-248.8839648181
20
251.6737670885
30
0.0000000000
10
-248.9041005164
20
251.6715769052
30
0.0000000000
10
-248.9118675965
20
251.6706323074
30
0.0000000000
11
-248.7004366233
21
251.5825688144
31
0.0000000000
11
-248.7061372282
21
251.6066500146
31
0.0000000000
11
-248.7224461589
21
251.6352841003
31
0.0000000000
11
-248.7444925028
21
251.6556001099
31
0.0000000000
11
-248.7698249077
21
251.6683599551
31
0.0000000000
11
-248.7948241198
21
251.6743260447
31
0.0000000000
11
-248.8205814571
21
251.6762964090
31
0.0000000000
11
-248.8513487638
21
251.6758519956
31
0.0000000000
11
-248.8885320965
21
251.6731687426
31
0.0000000000
11
-248.9118675965
21
251.6706323074
31
0.0000000000
0
SPLINE
5
347
100
AcDbEntity
8
0
100
AcDbSpline
62
7
6
CONTINUOUS
70
0
71
3
72
17
73
13
74
11
42
0.0000001000
43
0.0000001000
44
0.0000000001
12
-0.2409615793
22
-0.0786737289
32
0.0000000000
13
-0.2508541122
23
-0.0616341786
33
0.0000000000
40
0.0000000000
40
0.0000000000
40
0.0000000000
40
0.0000000000
40
0.1257174119
40
0.2559316030
40
0.3801033766
40
0.4973284206
40
0.6067933816
40
0.7076507114
40
0.7992778858
40
0.8810031933
40
0.9522887015
40
1.0000000000
40
1.0000000000
40
1.0000000000
40
1.0000000000
10
-250.0308324973
20
251.4224283249
30
0.0000000000
10
-250.0409301860
20
251.4191314390
30
0.0000000000
10
-250.0615024725
20
251.4124679160
30
0.0000000000
10
-250.0921022761
20
251.4027158061
30
0.0000000000
10
-250.1220649174
20
251.3933280398
30
0.0000000000
10
-250.1503996381
20
251.3846119367
30
0.0000000000
10
-250.1768986611
20
251.3766214875
30
0.0000000000
10
-250.2013666502
20
251.3694164272
30
0.0000000000
10
-250.2236587728
20
251.3630304097
30
0.0000000000
10
-250.2435115365
20
251.3575007839
30
0.0000000000
10
-250.2600768531
20
251.3531086198
30
0.0000000000
10
-250.2695018551
20
251.3506614350
30
0.0000000000
10
-250.2734913802
20
251.3496812195
30
0.0000000000
11
-250.0308324973
21
251.4224283249
31
0.0000000000
11
-250.0611485421
21
251.4126084546
31
0.0000000000
11
-250.0925970558
21
251.4025870486
31
0.0000000000
11
-250.1226332304
21
251.3931793987
31
0.0000000000
11
-250.1510350432
21
251.3844462692
31
0.0000000000
11
-250.1776025526
21
251.3764418715
31
0.0000000000
11
-250.2021284717
21
251.3692264607
31
0.0000000000
11
-250.2244567669
21
251.3628330062
31
0.0000000000
11
-250.2444188503
21
251.3572963033
31
0.0000000000
11
-250.2618804186
21
251.3526490008
31
0.0000000000
11
-250.2734913802
21
251.3496812195
31
0.0000000000
0
SPLINE
5
348
100
AcDbEntity
8
0
100
AcDbSpline
62
7
6
CONTINUOUS
70
0
71
3
72
11
73
7
74
5
42
0.0000001000
43
0.0000001000
44
0.0000000001
12
-0.0254898087
22
-0.0062627772
32
0.0000000000
13
-0.0387715112
23
-0.0062176843
33
0.0000000000
40
0.0000000000
40
0.0000000000
40
0.0000000000
40
0.0000000000
40
0.1248469644
40
0.5993276583
40
0.9394943737
40
1.0000000000
40
1.0000000000
40
1.0000000000
40
1.0000000000
10
-250.2734913802
20
251.3496812195
30
0.0000000000
10
-250.2745521553
20
251.3494205899
30
0.0000000000
10
-250.2797158812
20
251.3481697684
30
0.0000000000
10
-250.2885345179
20
251.3461950482
30
0.0000000000
10
-250.2930276560
20
251.3449541916
30
0.0000000000
10
-250.2988732511
20
251.3440273489
30
0.0000000000
10
-250.2996552160
20
251.3439019472
30
0.0000000000
11
-250.2734913802
21
251.3496812195
31
0.0000000000
11
-250.2767235284
21
251.3488990820
31
0.0000000000
11
-250.2886200775
21
251.3461017673
31
0.0000000000
11
-250.2971941549
21
251.3442990936
31
0.0000000000
11
-250.2996552160
21
251.3439019472
31
0.0000000000
0
SPLINE
5
349
100
AcDbEntity
8
0
100
AcDbSpline
62
7
6
CONTINUOUS
70
0
71
3
72
10
73
6
74
4
42
0.0000001000
43
0.0000001000
44
0.0000000001
12
-1.1394054503
22
-0.1385357645
32
0.0000000000
13
-1.0911165306
23
-0.3562186596
33
0.0000000000
40
0.0000000000
40
0.0000000000
40
0.0000000000
40
0.0000000000
40
0.3242326341
40
0.6737101514
40
1.0000000000
40
1.0000000000
40
1.0000000000
40
1.0000000000
10
-248.9118673941
20
251.6706306377
30
0.0000000000
10
-249.0350115376
20
251.6556580324
30
0.0000000000
10
-249.2899805034
20
251.6164636494
30
0.0000000000
10
-249.6637591555
20
251.5336338826
30
0.0000000000
10
-249.9121600830
20
251.4611749041
30
0.0000000000
10
-250.0308334989
20
251.4224313932
30
0.0000000000
11
-248.9118673941
21
251.6706306377
31
0.0000000000
11
-249.2796967490
21
251.6140854500
31
0.0000000000
11
-249.6713065312
21
251.5273042385
31
0.0000000000
11
-250.0308334989
21
251.4224313932
31
0.0000000000
0
SPLINE
5
34A
100
AcDbEntity
8
0
100
AcDbSpline
62
7
6
CONTINUOUS
70
0
71
3
72
8
73
4
74
2
42
0.0000001000
43
0.0000001000
44
0.0000000001
12
-0.0000045224
22
0.0112105483
32
0.0000000000
13
-0.0012537431
23
0.0111931650
33
0.0000000000
40
0.0000000000
40
0.0000000000
40
0.0000000000
40
0.0000000000
40
1.0000000000
40
1.0000000000
40
1.0000000000
40
1.0000000000
10
-248.6998080446
20
251.5713528067
30
0.0000000000
10
-248.6998095521
20
251.5750896562
30
0.0000000000
10
-248.7000213954
20
251.5788374579
30
0.0000000000
10
-248.7004393098
20
251.5825685129
30
0.0000000000
11
-248.6998080446
21
251.5713528067
31
0.0000000000
11
-248.7004393098
21
251.5825685129
31
0.0000000000
0
SPLINE
5
34B
100
AcDbEntity
8
0
100
AcDbSpline
62
7
6
CONTINUOUS
70
0
71
3
72
13
73
9
74
7
42
0.0000001000
43
0.0000001000
44
0.0000000001
12
-0.0186732971
22
0.1667114088
32
0.0000000000
13
-0.1668252168
23
0.0043654261
33
0.0000000000
40
0.0000000000
40
0.0000000000
40
0.0000000000
40
0.0000000000
40
0.1475633507
40
0.3441968187
40
0.5230475999
40
0.6926499719
40
0.8460445029
40
1.0000000000
40
1.0000000000
40
1.0000000000
40
1.0000000000
10
-248.7004393099
20
251.5825685134
30
0.0000000000
10
-248.7013578080
20
251.5907686781
30
0.0000000000
10
-248.7058220503
20
251.6097071710
30
0.0000000000
10
-248.7204614625
20
251.6353863921
30
0.0000000000
10
-248.7430313397
20
251.6562543732
30
0.0000000000
10
-248.7682526805
20
251.6689515743
30
0.0000000000
10
-248.7942628088
20
251.6749449591
30
0.0000000000
10
-248.8113510464
20
251.6760551378
30
0.0000000000
10
-248.8199122661
20
251.6762791649
30
0.0000000000
11
-248.7004393099
21
251.5825685134
31
0.0000000000
11
-248.7061357354
21
251.6066322678
31
0.0000000000
11
-248.7223408013
21
251.6351461384
31
0.0000000000
11
-248.7442267846
21
251.6554166235
31
0.0000000000
11
-248.7694481363
21
251.6682275217
31
0.0000000000
11
-248.7943137205
21
251.6742524235
31
0.0000000000
11
-248.8199122661
21
251.6762791649
31
0.0000000000
0
SPLINE
5
34C
100
AcDbEntity
8
0
100
AcDbSpline
62
7
6
CONTINUOUS
70
0
71
3
72
8
73
4
74
2
42
0.0000001000
43
0.0000001000
44
0.0000000001
12
-0.0304850193
22
0.0007977217
32
0.0000000000
13
-0.0304535634
23
-0.0013443544
33
0.0000000000
40
0.0000000000
40
0.0000000000
40
0.0000000000
40
0.0000000000
40
1.0000000000
40
1.0000000000
40
1.0000000000
40
1.0000000000
10
-248.8199122661
20
251.6762791649
30
0.0000000000
10
-248.8300739392
20
251.6765450721
30
0.0000000000
10
-248.8402377346
20
251.6763431411
30
0.0000000000
10
-248.8503889224
20
251.6758950229
30
0.0000000000
11
-248.8199122661
21
251.6762791649
31
0.0000000000
11
-248.8503889224
21
251.6758950229
31
0.0000000000
0
SPLINE
5
34D
100
AcDbEntity
8
0
100
AcDbSpline
62
7
6
CONTINUOUS
70
0
71
3
72
9
73
5
74
3
42
0.0000001000
43
0.0000001000
44
0.0000000001
12
-0.0616600254
22
-0.0027219451
32
0.0000000000
13
-0.0612650701
23
-0.0074519145
33
0.0000000000
40
0.0000000000
40
0.0000000000
40
0.0000000000
40
0.0000000000
40
0.5991729697
40
1.0000000000
40
1.0000000000
40
1.0000000000
40
1.0000000000
10
-248.8503889224
20
251.6758950229
30
0.0000000000
10
-248.8627039293
20
251.6753513843
30
0.0000000000
10
-248.8832263029
20
251.6738393572
30
0.0000000000
10
-248.9036820006
20
251.6716276967
30
0.0000000000
10
-248.9118675660
20
251.6706320538
30
0.0000000000
11
-248.8503889224
21
251.6758950229
31
0.0000000000
11
-248.8872728952
21
251.6732882786
31
0.0000000000
11
-248.9118675660
21
251.6706320538
31
0.0000000000
0
SPLINE
5
34E
100
AcDbEntity
8
0
100
AcDbSpline
62
7
6
CONTINUOUS
70
0
71
3
72
8
73
4
74
2
42
0.0000001000
43
0.0000001000
44
0.0000000001
12
-0.0121258853
22
-0.0006742997
32
0.0000000000
13
-0.0121403917
23
-0.0004857074
33
0.0000000000
40
0.0000000000
40
0.0000000000
40
0.0000000000
40
0.0000000000
40
1.0000000000
40
1.0000000000
40
1.0000000000
40
1.0000000000
10
-248.5053123650
20
251.3449682501
30
0.0000000000
10
-248.5093543268
20
251.3447434836
30
0.0000000000
10
-248.5133986733
20
251.3445498106
30
0.0000000000
10
-248.5174454705
20
251.3443879082
30
0.0000000000
11
-248.5053123650
21
251.3449682501
31
0.0000000000
11
-248.5174454705
21
251.3443879082
31
0.0000000000
0
SPLINE
5
34F
100
AcDbEntity
8
0
100
AcDbSpline
62
7
6
CONTINUOUS
70
0
71
3
72
8
73
4
74
2
42
0.0000001000
43
0.0000001000
44
0.0000000001
12
-0.0226721203
22
-0.0009070561
32
0.0000000000
13
-0.0227246917
23
-0.0002290275
33
0.0000000000
40
0.0000000000
40
0.0000000000
40
0.0000000000
40
0.0000000000
40
1.0000000000
40
1.0000000000
40
1.0000000000
40
1.0000000000
10
-248.5174454705
20
251.3443879082
30
0.0000000000
10
-248.5250028440
20
251.3440855562
30
0.0000000000
10
-248.5325687644
20
251.3438940048
30
0.0000000000
10
-248.5401436616
20
251.3438176623
30
0.0000000000
11
-248.5174454705
21
251.3443879082
31
0.0000000000
11
-248.5401436616
21
251.3438176623
31
0.0000000000
0
SPLINE
5
350
100
AcDbEntity
8
0
100
AcDbSpline
62
7
6
CONTINUOUS
70
0
71
3
72
11
73
7
74
5
42
0.0000001000
43
0.0000001000
44
0.0000000001
12
-0.1625355335
22
-0.0016380908
32
0.0000000000
13
-0.1430045884
23
0.0452983136
33
0.0000000000
40
0.0000000000
40
0.0000000000
40
0.0000000000
40
0.0000000000
40
0.3921400466
40
0.7167710143
40
0.9507098624
40
1.0000000000
40
1.0000000000
40
1.0000000000
40
1.0000000000
10
-248.5401436616
20
251.3438176623
30
0.0000000000
10
-248.5613892255
20
251.3436035420
30
0.0000000000
10
-248.6003518880
20
251.3448687265
30
0.0000000000
10
-248.6507191098
20
251.3502051315
30
0.0000000000
10
-248.6843926861
20
251.3588861562
30
0.0000000000
10
-248.6975613449
20
251.3623458808
30
0.0000000000
10
-248.6999109168
20
251.3630901342
30
0.0000000000
11
-248.5401436616
21
251.3438176623
31
0.0000000000
11
-248.6037255148
21
251.3458134167
31
0.0000000000
11
-248.6559801233
21
251.3523496239
31
0.0000000000
11
-248.6929015180
21
251.3611239720
31
0.0000000000
11
-248.6999109168
21
251.3630901342
31
0.0000000000
0
SPLINE
5
351
100
AcDbEntity
8
0
100
AcDbSpline
62
7
6
CONTINUOUS
70
0
71
3
72
9
73
5
74
3
42
0.0000001000
43
0.0000001000
44
0.0000000001
12
-0.0148819146
22
0.0047140140
32
0.0000000000
13
-0.0133048910
23
0.0072041476
33
0.0000000000
40
0.0000000000
40
0.0000000000
40
0.0000000000
40
0.0000000000
40
0.8019985287
40
1.0000000000
40
1.0000000000
40
1.0000000000
40
1.0000000000
10
-248.6999109168
20
251.3630901342
30
0.0000000000
10
-248.7038893413
20
251.3643503449
30
0.0000000000
10
-248.7090567541
20
251.3664298992
30
0.0000000000
10
-248.7154949200
20
251.3703498967
30
0.0000000000
10
-248.7163730494
20
251.3708253740
30
0.0000000000
11
-248.6999109168
21
251.3630901342
31
0.0000000000
11
-248.7129952067
21
251.3688697200
31
0.0000000000
11
-248.7163730494
21
251.3708253740
31
0.0000000000
0
SPLINE
5
352
100
AcDbEntity
8
0
100
AcDbSpline
62
7
6
CONTINUOUS
70
0
71
3
72
10
73
6
74
4
42
0.0000001000
43
0.0000001000
44
0.0000000001
12
-0.6103837428
22
0.0337146206
32
0.0000000000
13
-0.6103824095
23
-0.0337146639
33
0.0000000000
40
0.0000000000
40
0.0000000000
40
0.0000000000
40
0.0000000000
40
0.3162379388
40
0.6798529955
40
1.0000000000
40
1.0000000000
40
1.0000000000
40
1.0000000000
10
-247.8942828162
20
251.3449849486
30
0.0000000000
10
-247.9586249818
20
251.3485388960
30
0.0000000000
10
-248.0970940528
20
251.3537660674
30
0.0000000000
10
-248.3009088134
20
251.3538099970
30
0.0000000000
10
-248.4401757836
20
251.3485828535
30
0.0000000000
10
-248.5053131503
20
251.3449849706
30
0.0000000000
11
-247.8942828162
21
251.3449849486
31
0.0000000000
11
-248.0874650737
21
251.3522772567
31
0.0000000000
11
-248.3097417091
21
251.3523251953
31
0.0000000000
11
-248.5053131503
21
251.3449849706
31
0.0000000000
0
SPLINE
5
353
100
AcDbEntity
8
0
100
AcDbSpline
62
7
6
CONTINUOUS
70
0
71
3
72
9
73
5
74
3
42
0.0000001000
43
0.0000001000
44
0.0000000001
12
-0.0152042181
22
-0.0087117897
32
0.0000000000
13
-0.0143642103
23
-0.0045149261
33
0.0000000000
40
0.0000000000
40
0.0000000000
40
0.0000000000
40
0.0000000000
40
0.1424866664
40
1.0000000000
40
1.0000000000
40
1.0000000000
40
1.0000000000
10
-247.6838698839
20
251.3704370732
30
0.0000000000
10
-247.6845920167
20
251.3700233019
30
0.0000000000
10
-247.6906600651
20
251.3663866760
30
0.0000000000
10
-247.6955943153
20
251.3644349257
30
0.0000000000
10
-247.6997001492
20
251.3631443892
30
0.0000000000
11
-247.6838698839
21
251.3704370732
31
0.0000000000
11
-247.6862982298
21
251.3690211676
31
0.0000000000
11
-247.6997001492
21
251.3631443892
31
0.0000000000
0
SPLINE
5
354
100
AcDbEntity
8
0
100
AcDbSpline
62
7
6
CONTINUOUS
70
0
71
3
72
11
73
7
74
5
42
0.0000001000
43
0.0000001000
44
0.0000000001
12
-0.1401325979
22
-0.0440425303
32
0.0000000000
13
-0.1595286702
23
0.0010276725
33
0.0000000000
40
0.0000000000
40
0.0000000000
40
0.0000000000
40
0.0000000000
40
0.0438216188
40
0.2774879323
40
0.6034667719
40
1.0000000000
40
1.0000000000
40
1.0000000000
40
1.0000000000
10
-247.6997020556
20
251.3631437900
30
0.0000000000
10
-247.7017490014
20
251.3625004517
30
0.0000000000
10
-247.7145135865
20
251.3590294672
30
0.0000000000
10
-247.7472131481
20
251.3505340605
30
0.0000000000
10
-247.7969532770
20
251.3450303991
30
0.0000000000
10
-247.8354896422
20
251.3436518037
30
0.0000000000
10
-247.8565757817
20
251.3437876391
30
0.0000000000
11
-247.6997020556
21
251.3631437900
31
0.0000000000
11
-247.7058372830
21
251.3613932992
31
0.0000000000
11
-247.7419997203
21
251.3526454928
31
0.0000000000
11
-247.7934767416
21
251.3460024163
31
0.0000000000
11
-247.8565757817
21
251.3437876391
31
0.0000000000
0
SPLINE
5
355
100
AcDbEntity
8
0
100
AcDbSpline
62
7
6
CONTINUOUS
70
0
71
3
72
8
73
4
74
2
42
0.0000001000
43
0.0000001000
44
0.0000000001
12
-0.0377751027
22
0.0002433446
32
0.0000000000
13
-0.0376420626
23
0.0020944388
33
0.0000000000
40
0.0000000000
40
0.0000000000
40
0.0000000000
40
0.0000000000
40
1.0000000000
40
1.0000000000
40
1.0000000000
40
1.0000000000
10
-247.8565757817
20
251.3437876391
30
0.0000000000
10
-247.8691674826
20
251.3438687539
30
0.0000000000
10
-247.8817365005
20
251.3442681095
30
0.0000000000
10
-247.8942838547
20
251.3449662557
30
0.0000000000
11
-247.8565757817
21
251.3437876391
31
0.0000000000
11
-247.8942838547
21
251.3449662557
31
0.0000000000
0
SPLINE
5
356
100
AcDbEntity
8
0
100
AcDbSpline
62
7
6
CONTINUOUS
70
0
71
3
72
9
73
5
74
3
42
0.0000001000
43
0.0000001000
44
0.0000000001
12
-0.0603938318
22
0.0073448720
32
0.0000000000
13
-0.0607785955
23
0.0027725077
33
0.0000000000
40
0.0000000000
40
0.0000000000
40
0.0000000000
40
0.0000000000
40
0.3869911088
40
1.0000000000
40
1.0000000000
40
1.0000000000
40
1.0000000000
10
-247.4877285111
20
251.6706323179
30
0.0000000000
10
-247.4955191364
20
251.6715797846
30
0.0000000000
10
-247.5156823382
20
251.6737721802
30
0.0000000000
10
-247.5359106837
20
251.6752892306
30
0.0000000000
10
-247.5483299569
20
251.6758557545
30
0.0000000000
11
-247.4877285111
21
251.6706323179
31
0.0000000000
11
-247.5111348521
21
251.6731755186
31
0.0000000000
11
-247.5483299569
21
251.6758557545
31
0.0000000000
0
SPLINE
5
357
100
AcDbEntity
8
0
100
AcDbSpline
62
7
6
CONTINUOUS
70
0
71
3
72
9
73
5
74
3
42
0.0000001000
43
0.0000001000
44
0.0000000001
12
-0.0564442669
22
0.0025747907
32
0.0000000000
13
-0.0559810452
23
-0.0080425123
33
0.0000000000
40
0.0000000000
40
0.0000000000
40
0.0000000000
40
0.0000000000
40
0.5438656546
40
1.0000000000
40
1.0000000000
40
1.0000000000
40
1.0000000000
10
-247.5483299569
20
251.6758557545
30
0.0000000000
10
-247.5585626563
20
251.6763225346
30
0.0000000000
10
-247.5774012751
20
251.6767271377
30
0.0000000000
10
-247.5962354514
20
251.6755524171
30
0.0000000000
10
-247.6047470772
20
251.6743295950
30
0.0000000000
11
-247.5483299569
21
251.6758557545
31
0.0000000000
11
-247.5790526977
21
251.6762954861
31
0.0000000000
11
-247.6047470772
21
251.6743295950
31
0.0000000000
0
SPLINE
5
358
100
AcDbEntity
8
0
100
AcDbSpline
62
7
6
CONTINUOUS
70
0
71
3
72
8
73
4
74
2
42
0.0000001000
43
0.0000001000
44
0.0000000001
12
-0.0253563285
22
-0.0036428149
32
0.0000000000
13
-0.0242042291
23
-0.0084543714
33
0.0000000000
40
0.0000000000
40
0.0000000000
40
0.0000000000
40
0.0000000000
40
1.0000000000
40
1.0000000000
40
1.0000000000
40
1.0000000000
10
-247.6047470772
20
251.6743295950
30
0.0000000000
10
-247.6131991867
20
251.6731153234
30
0.0000000000
10
-247.6215731122
20
251.6712236340
30
0.0000000000
10
-247.6296411886
20
251.6684055102
30
0.0000000000
11
-247.6047470772
21
251.6743295950
31
0.0000000000
11
-247.6296411886
21
251.6684055102
31
0.0000000000
0
SPLINE
5
359
100
AcDbEntity
8
0
100
AcDbSpline
62
7
6
CONTINUOUS
70
0
71
3
72
11
73
7
74
5
42
0.0000001000
43
0.0000001000
44
0.0000000001
12
-0.1097795045
22
-0.0383452287
32
0.0000000000
13
-0.0129853403
23
-0.1160160106
33
0.0000000000
40
0.0000000000
40
0.0000000000
40
0.0000000000
40
0.0000000000
40
0.2448027718
40
0.5034455926
40
0.7877064745
40
1.0000000000
40
1.0000000000
40
1.0000000000
40
1.0000000000
10
-247.6296411886
20
251.6684055102
30
0.0000000000
10
-247.6385992976
20
251.6652765041
30
0.0000000000
10
-247.6562465482
20
251.6564928054
30
0.0000000000
10
-247.6790146973
20
251.6355791900
30
0.0000000000
10
-247.6937578273
20
251.6097922578
30
0.0000000000
10
-247.6982405336
20
251.5907790728
30
0.0000000000
10
-247.6991594349
20
251.5825692569
30
0.0000000000
11
-247.6296411886
21
251.6684055102
31
0.0000000000
11
-247.6550295074
21
251.6556507043
31
0.0000000000
11
-247.6771181658
21
251.6353233841
31
0.0000000000
11
-247.6934550048
21
251.6066604656
31
0.0000000000
11
-247.6991594349
21
251.5825692569
31
0.0000000000
0
SPLINE
5
35A
100
AcDbEntity
8
0
100
AcDbSpline
62
7
6
CONTINUOUS
70
0
71
3
72
8
73
4
74
2
42
0.0000001000
43
0.0000001000
44
0.0000000001
12
-0.0012512757
22
-0.0111793772
32
0.0000000000
13
-0.0000054201
23
-0.0111967750
33
0.0000000000
40
0.0000000000
40
0.0000000000
40
0.0000000000
40
0.0000000000
40
1.0000000000
40
1.0000000000
40
1.0000000000
40
1.0000000000
10
-247.6991594349
20
251.5825692569
30
0.0000000000
10
-247.6995765268
20
251.5788427978
30
0.0000000000
10
-247.6997880843
20
251.5750996408
30
0.0000000000
10
-247.6997898910
20
251.5713673825
30
0.0000000000
11
-247.6991594349
21
251.5825692569
31
0.0000000000
11
-247.6997898910
21
251.5713673825
31
0.0000000000
0
SPLINE
5
35B
100
AcDbEntity
8
0
100
AcDbSpline
62
7
6
CONTINUOUS
70
0
71
3
72
10
73
6
74
4
42
0.0000001000
43
0.0000001000
44
0.0000000001
12
-1.0911208316
22
0.3562194201
32
0.0000000000
13
-1.1394011973
23
0.1385349433
33
0.0000000000
40
0.0000000000
40
0.0000000000
40
0.0000000000
40
0.0000000000
40
0.3242092501
40
0.6736871094
40
1.0000000000
40
1.0000000000
40
1.0000000000
40
1.0000000000
10
-246.3687626174
20
251.4224313650
30
0.0000000000
10
-246.4866797730
20
251.4609279087
30
0.0000000000
10
-246.7342996212
20
251.5332135536
30
0.0000000000
10
-247.1080447332
20
251.6161945463
30
0.0000000000
10
-247.3637949478
20
251.6555620715
30
0.0000000000
10
-247.4877287139
20
251.6706306507
30
0.0000000000
11
-246.3687626174
21
251.4224313650
31
0.0000000000
11
-246.7259770773
21
251.5267081372
31
0.0000000000
11
-247.1175520879
21
251.6136479244
31
0.0000000000
11
-247.4877287139
21
251.6706306507
31
0.0000000000
0
SPLINE
5
35C
100
AcDbEntity
8
0
100
AcDbSpline
62
7
6
CONTINUOUS
70
0
71
3
72
8
73
4
74
2
42
0.0000001000
43
0.0000001000
44
0.0000000001
12
0.0000338558
22
0.0001072465
32
0.0000000000
13
-0.0041573908
23
0.0006697597
33
0.0000000000
40
0.0000000000
40
0.0000000000
40
0.0000000000
40
0.0000000000
40
1.0000000000
40
1.0000000000
40
1.0000000000
40
1.0000000000
10
-246.0977217995
20
251.3434953450
30
0.0000000000
10
-246.0977105142
20
251.3435310938
30
0.0000000000
10
-246.0989160027
20
251.3437248224
30
0.0000000000
10
-246.1003017997
20
251.3439480756
30
0.0000000000
11
-246.0977217995
21
251.3434953450
31
0.0000000000
11
-246.1003017997
21
251.3439480756
31
0.0000000000
0
SPLINE
5
35D
100
AcDbEntity
8
0
100
AcDbSpline
62
7
6
CONTINUOUS
70
0
71
3
72
11
73
7
74
5
42
0.0000001000
43
0.0000001000
44
0.0000000001
12
-0.0393958245
22
0.0063467055
32
0.0000000000
13
-0.0252524804
23
0.0062307611
33
0.0000000000
40
0.0000000000
40
0.0000000000
40
0.0000000000
40
0.0000000000
40
0.0437461441
40
0.3811931805
40
0.8487327780
40
1.0000000000
40
1.0000000000
40
1.0000000000
40
1.0000000000
10
-246.1003017997
20
251.3439480756
30
0.0000000000
10
-246.1008762715
20
251.3440406236
30
0.0000000000
10
-246.1061520754
20
251.3448912747
30
0.0000000000
10
-246.1106546263
20
251.3460959936
30
0.0000000000
10
-246.1195516130
20
251.3480826953
30
0.0000000000
10
-246.1248390896
20
251.3493657215
30
0.0000000000
10
-246.1261123805
20
251.3496798915
30
0.0000000000
11
-246.1003017997
21
251.3439480756
31
0.0000000000
11
-246.1020443357
21
251.3442317898
31
0.0000000000
11
-246.1105301620
21
251.3460044363
31
0.0000000000
11
-246.1222259647
21
251.3487382951
31
0.0000000000
11
-246.1261123805
21
251.3496798915
31
0.0000000000
0
SPLINE
5
35E
100
AcDbEntity
8
0
100
AcDbSpline
62
7
6
CONTINUOUS
70
0
71
3
72
18
73
14
74
12
42
0.0000001000
43
0.0000001000
44
0.0000000001
12
-0.2491589938
22
0.0614771357
32
0.0000000000
13
-0.2409641088
23
0.0786527442
33
0.0000000000
40
0.0000000000
40
0.0000000000
40
0.0000000000
40
0.0000000000
40
0.0441584266
40
0.1147243445
40
0.1955767258
40
0.2863024203
40
0.3862697342
40
0.4948207329
40
0.6111644276
40
0.7344498212
40
0.8637745550
40
0.9980510664
40
1.0000000000
40
1.0000000000
40
1.0000000000
40
1.0000000000
10
-246.1261123805
20
251.3496798915
30
0.0000000000
10
-246.1297798702
20
251.3505848027
30
0.0000000000
10
-246.1388935496
20
251.3529472964
30
0.0000000000
10
-246.1550269187
20
251.3572154409
30
0.0000000000
10
-246.1746847790
20
251.3626735423
30
0.0000000000
10
-246.1967600935
20
251.3689929208
30
0.0000000000
10
-246.2210125776
20
251.3761204073
30
0.0000000000
10
-246.2472981254
20
251.3840309835
30
0.0000000000
10
-246.2754182247
20
251.3926726314
30
0.0000000000
10
-246.3051694002
20
251.4019826565
30
0.0000000000
10
-246.3363179227
20
251.4118987647
30
0.0000000000
10
-246.3576651323
20
251.4188061009
30
0.0000000000
10
-246.3686070759
20
251.4223772065
30
0.0000000000
10
-246.3687636169
20
251.4224283028
30
0.0000000000
11
-246.1261123805
21
251.3496798915
31
0.0000000000
11
-246.1368476091
21
251.3524244090
31
0.0000000000
11
-246.1541353365
21
251.3570145463
31
0.0000000000
11
-246.1738875284
21
251.3624788485
31
0.0000000000
11
-246.1959980354
21
251.3688014359
31
0.0000000000
11
-246.2203105370
21
251.3759414678
31
0.0000000000
11
-246.2466597426
21
251.3838657950
31
0.0000000000
11
-246.2748504458
21
251.3925237332
31
0.0000000000
11
-246.3046748355
21
251.4018541463
31
0.0000000000
11
-246.3359115038
21
251.4117960146
31
0.0000000000
11
-246.3682939883
21
251.4222750308
31
0.0000000000
11
-246.3687636169
21
251.4224283028
31
0.0000000000
0
SPLINE
5
35F
100
AcDbEntity
8
0
100
AcDbSpline
62
7
6
CONTINUOUS
70
0
71
3
72
8
73
4
74
2
42
0.0000001000
43
0.0000001000
44
0.0000000001
12
0.0000338947
22
0.0001160309
32
0.0000000000
13
-0.0042056179
23
0.0006729367
33
0.0000000000
40
0.0000000000
40
0.0000000000
40
0.0000000000
40
0.0000000000
40
1.0000000000
40
1.0000000000
40
1.0000000000
40
1.0000000000
10
-246.0977273017
20
251.3435061477
30
0.0000000000
10
-246.0977160035
20
251.3435448247
30
0.0000000000
10
-246.0988980977
20
251.3437354681
30
0.0000000000
10
-246.1002999703
20
251.3439597803
30
0.0000000000
11
-246.0977273017
21
251.3435061477
31
0.0000000000
11
-246.1002999703
21
251.3439597803
31
0.0000000000
0
SPLINE
5
360
100
AcDbEntity
8
0
100
AcDbSpline
62
7
6
CONTINUOUS
70
0
71
3
72
17
73
13
74
11
42
0.0000001000
43
0.0000001000
44
0.0000000001
12
-0.2509708435
22
0.0616478837
32
0.0000000000
13
-0.2409606472
23
0.0786734263
33
0.0000000000
40
0.0000000000
40
0.0000000000
40
0.0000000000
40
0.0000000000
40
0.0479700867
40
0.1192779108
40
0.2010034140
40
0.2926090716
40
0.3934274926
40
0.5028415426
40
0.6200107320
40
0.7441297324
40
0.8743023083
40
1.0000000000
40
1.0000000000
40
1.0000000000
40
1.0000000000
10
-246.1261045955
20
251.3496813386
30
0.0000000000
10
-246.1301176266
20
251.3506670901
30
0.0000000000
10
-246.1395641561
20
251.3531202726
30
0.0000000000
10
-246.1561523002
20
251.3575192868
30
0.0000000000
10
-246.1760049478
20
251.3630495455
30
0.0000000000
10
-246.1982919307
20
251.3694346108
30
0.0000000000
10
-246.2227506890
20
251.3766373970
30
0.0000000000
10
-246.2492377374
20
251.3846245415
30
0.0000000000
10
-246.2775594095
20
251.3933368287
30
0.0000000000
10
-246.3075097872
20
251.4027208705
30
0.0000000000
10
-246.3381002718
20
251.4124700606
30
0.0000000000
10
-246.3586675459
20
251.4191319688
30
0.0000000000
10
-246.3687636116
20
251.4224283249
30
0.0000000000
11
-246.1261045955
21
251.3496813386
31
0.0000000000
11
-246.1377800865
21
251.3526657199
31
0.0000000000
11
-246.1552468475
21
251.3573152338
31
0.0000000000
11
-246.1752087212
21
251.3628525787
31
0.0000000000
11
-246.1975315416
21
251.3692450139
31
0.0000000000
11
-246.2220477837
21
251.3764580231
31
0.0000000000
11
-246.2486027460
21
251.3844589598
31
0.0000000000
11
-246.2769908584
21
251.3931880830
31
0.0000000000
11
-246.3070141171
21
251.4025918082
31
0.0000000000
11
-246.3384524431
21
251.4126100215
31
0.0000000000
11
-246.3687636116
21
251.4224283249
31
0.0000000000
0
SPLINE
5
361
100
AcDbEntity
8
0
100
AcDbSpline
62
7
6
CONTINUOUS
70
0
71
3
72
16
73
12
74
10
42
0.0000001000
43
0.0000001000
44
0.0000000001
12
-0.2571082013
22
0.0312732353
32
0.0000000000
13
-0.0289956003
23
-0.2588563033
33
0.0000000000
40
0.0000000000
40
0.0000000000
40
0.0000000000
40
0.0000000000
40
0.0957177787
40
0.2385228785
40
0.3560819468
40
0.4550440047
40
0.5535147798
40
0.6628920152
40
0.7781856162
40
0.9049357695
40
1.0000000000
40
1.0000000000
40
1.0000000000
40
1.0000000000
10
-247.4877285421
20
251.6706320607
30
0.0000000000
10
-247.4959318174
20
251.6716298622
30
0.0000000000
10
-247.5164079977
20
251.6738431453
30
0.0000000000
10
-247.5470758235
20
251.6761004953
30
0.0000000000
10
-247.5781081533
20
251.6767139615
30
0.0000000000
10
-247.6053009103
20
251.6749456476
30
0.0000000000
10
-247.6312814851
20
251.6689714342
30
0.0000000000
10
-247.6565089626
20
251.6562969736
30
0.0000000000
10
-247.6791135453
20
251.6354178594
30
0.0000000000
10
-247.6937700477
20
251.6097221174
30
0.0000000000
10
-247.6982379343
20
251.5907716139
30
0.0000000000
10
-247.6991567491
20
251.5825689555
30
0.0000000000
11
-247.4877285421
21
251.6706320607
31
0.0000000000
11
-247.5123765047
21
251.6732932992
31
0.0000000000
11
-247.5492687045
21
251.6758977228
31
0.0000000000
11
-247.5797120608
21
251.6762784191
31
0.0000000000
11
-247.6052615364
21
251.6742554660
31
0.0000000000
11
-247.6300495493
21
251.6682624034
31
0.0000000000
11
-247.6553151194
21
251.6554539009
31
0.0000000000
11
-247.6772317850
21
251.6351753197
31
0.0000000000
11
-247.6934575721
21
251.6066398249
31
0.0000000000
11
-247.6991567491
21
251.5825689555
31
0.0000000000
0
SPLINE
5
362
100
AcDbEntity
8
0
100
AcDbSpline
62
7
6
CONTINUOUS
70
0
71
3
72
12
73
8
74
6
42
0.0000001000
43
0.0000001000
44
0.0000000001
12
-0.1619099871
22
-0.0512868116
32
0.0000000000
13
-0.1836198709
23
0.0070518447
33
0.0000000000
40
0.0000000000
40
0.0000000000
40
0.0000000000
40
0.0000000000
40
0.0435347811
40
0.2501577898
40
0.5368832645
40
0.8832351291
40
1.0000000000
40
1.0000000000
40
1.0000000000
40
1.0000000000
10
-247.6996851920
20
251.3630901342
30
0.0000000000
10
-247.7020347640
20
251.3623458808
30
0.0000000000
10
-247.7152034228
20
251.3588861562
30
0.0000000000
10
-247.7488769990
20
251.3502051315
30
0.0000000000
10
-247.7992442209
20
251.3448687265
30
0.0000000000
10
-247.8453931621
20
251.3433701912
30
0.0000000000
10
-247.8737693652
20
251.3440650392
30
0.0000000000
10
-247.8809161487
20
251.3443395084
30
0.0000000000
11
-247.6996851920
21
251.3630901342
31
0.0000000000
11
-247.7066945908
21
251.3611239720
31
0.0000000000
11
-247.7436159856
21
251.3523496239
31
0.0000000000
11
-247.7958705940
21
251.3458134167
31
0.0000000000
11
-247.8594524472
21
251.3438176623
31
0.0000000000
11
-247.8809161487
21
251.3443395084
31
0.0000000000
0
SPLINE
5
363
100
AcDbEntity
8
0
100
AcDbSpline
62
7
6
CONTINUOUS
70
0
71
3
72
10
73
6
74
4
42
0.0000001000
43
0.0000001000
44
0.0000000001
12
-0.6103822664
22
0.0337146560
32
0.0000000000
13
-0.6103836007
23
-0.0337145969
33
0.0000000000
40
0.0000000000
40
0.0000000000
40
0.0000000000
40
0.0000000000
40
0.3201470795
40
0.6837622215
40
1.0000000000
40
1.0000000000
40
1.0000000000
40
1.0000000000
10
-247.8942829586
20
251.3449849706
30
0.0000000000
10
-247.9594203253
20
251.3485828535
30
0.0000000000
10
-248.0986872955
20
251.3538099970
30
0.0000000000
10
-248.3025020082
20
251.3537660674
30
0.0000000000
10
-248.4409710315
20
251.3485388996
30
0.0000000000
10
-248.5053131495
20
251.3449849565
30
0.0000000000
11
-247.8942829586
21
251.3449849706
31
0.0000000000
11
-248.0898543998
21
251.3523251953
31
0.0000000000
11
-248.3121310352
21
251.3522772567
31
0.0000000000
11
-248.5053131495
21
251.3449849565
31
0.0000000000
0
SPLINE
5
364
100
AcDbEntity
8
0
100
AcDbSpline
62
7
6
CONTINUOUS
70
0
71
3
72
8
73
4
74
2
42
0.0000001000
43
0.0000001000
44
0.0000000001
12
-0.0133593634
22
-0.0007433272
32
0.0000000000
13
-0.0133758724
23
-0.0005149088
33
0.0000000000
40
0.0000000000
40
0.0000000000
40
0.0000000000
40
0.0000000000
40
1.0000000000
40
1.0000000000
40
1.0000000000
40
1.0000000000
10
-248.5053122541
20
251.3449662557
30
0.0000000000
10
-248.5097653753
20
251.3447184800
30
0.0000000000
10
-248.5142212251
20
251.3445083393
30
0.0000000000
10
-248.5186798493
20
251.3443367030
30
0.0000000000
11
-248.5053122541
21
251.3449662557
31
0.0000000000
11
-248.5186798493
21
251.3443367030
31
0.0000000000
0
SPLINE
5
365
100
AcDbEntity
8
0
100
AcDbSpline
62
9
6
CONTINUOUS
70
0
71
3
72
10
73
6
74
4
42
0.0000001000
43
0.0000001000
44
0.0000000001
12
-0.0000000037
22
0.0084211513
32
0.0000000000
13
0.0000000024
23
0.0084211513
33
0.0000000000
40
0.0000000000
40
0.0000000000
40
0.0000000000
40
0.0000000000
40
0.5552522622
40
0.8890061159
40
1.0000000000
40
1.0000000000
40
1.0000000000
40
1.0000000000
10
-250.3358138856
20
251.3382843167
30
0.0000000000
10
-250.3358138862
20
251.3398429378
30
0.0000000000
10
-250.3358138842
20
251.3423384228
30
0.0000000000
10
-250.3358138857
20
251.3451454733
30
0.0000000000
10
-250.3358138857
20
251.3463939026
30
0.0000000000
10
-250.3358138856
20
251.3467054680
30
0.0000000000
11
-250.3358138856
21
251.3382843167
31
0.0000000000
11
-250.3358138850
21
251.3429601800
31
0.0000000000
11
-250.3358138856
21
251.3457707718
31
0.0000000000
11
-250.3358138856
21
251.3467054680
31
0.0000000000
0
SPLINE
5
366
100
AcDbEntity
8
0
100
AcDbSpline
62
9
6
CONTINUOUS
70
0
71
3
72
11
73
7
74
5
42
0.0000001000
43
0.0000001000
44
0.0000000001
12
-0.2347482178
22
-0.0766424207
32
0.0000000000
13
-0.2489078788
23
-0.0675589159
33
0.0000000000
40
0.0000000000
40
0.0000000000
40
0.0000000000
40
0.0000000000
40
0.3504046771
40
0.6666687971
40
0.9304468631
40
1.0000000000
40
1.0000000000
40
1.0000000000
40
1.0000000000
10
-250.0306687668
20
251.4219268111
30
0.0000000000
10
-250.0580877247
20
251.4129748569
30
0.0000000000
10
-250.1101891219
20
251.3963221074
30
0.0000000000
10
-250.1840717605
20
251.3736091254
30
0.0000000000
10
-250.2339562071
20
251.3594791230
30
0.0000000000
10
-250.2620173869
20
251.3516118127
30
0.0000000000
10
-250.2677881615
20
251.3500455012
30
0.0000000000
11
-250.0306687668
21
251.4219268111
31
0.0000000000
11
-250.1130881686
21
251.3955739592
31
0.0000000000
11
-250.1877889542
21
251.3727863872
31
0.0000000000
11
-250.2504141187
21
251.3548681602
31
0.0000000000
11
-250.2677881615
21
251.3500455012
31
0.0000000000
0
SPLINE
5
367
100
AcDbEntity
8
0
100
AcDbSpline
62
9
6
CONTINUOUS
70
0
71
3
72
10
73
6
74
4
42
0.0000001000
43
0.0000001000
44
0.0000000001
12
-0.0708811429
22
-0.0192386565
32
0.0000000000
13
0.0003549073
23
0.0703206776
33
0.0000000000
40
0.0000000000
40
0.0000000000
40
0.0000000000
40
0.0000000000
40
0.4410278012
40
0.8596420268
40
1.0000000000
40
1.0000000000
40
1.0000000000
40
1.0000000000
10
-250.2677881615
20
251.3500455012
30
0.0000000000
10
-250.2782083464
20
251.3472172404
30
0.0000000000
10
-250.2979821792
20
251.3421829261
30
0.0000000000
10
-250.3147774894
20
251.3400691667
30
0.0000000000
10
-250.3358304903
20
251.3349942941
30
0.0000000000
10
-250.3358138856
20
251.3382843167
30
0.0000000000
11
-250.2677881615
21
251.3500455012
31
0.0000000000
11
-250.2970933073
21
251.3428984637
31
0.0000000000
11
-250.3259931551
21
251.3372974161
31
0.0000000000
11
-250.3358138856
21
251.3382843167
31
0.0000000000
0
SPLINE
5
368
100
AcDbEntity
8
0
100
AcDbSpline
62
9
6
CONTINUOUS
70
0
71
3
72
12
73
8
74
6
42
0.0000001000
43
0.0000001000
44
0.0000000001
12
-1.1394044272
22
-0.1385317330
32
0.0000000000
13
-1.0911181987
23
-0.3562226359
33
0.0000000000
40
0.0000000000
40
0.0000000000
40
0.0000000000
40
0.0000000000
40
0.1736997740
40
0.3668447149
40
0.5660151312
40
0.7736035241
40
1.0000000000
40
1.0000000000
40
1.0000000000
40
1.0000000000
10
-248.9118033315
20
251.6701037303
30
0.0000000000
10
-248.9777747620
20
251.6620827534
30
0.0000000000
10
-249.1168274456
20
251.6427868638
30
0.0000000000
10
-249.3301784177
20
251.6053776319
30
0.0000000000
10
-249.5546319374
20
251.5571275169
30
0.0000000000
10
-249.7893256257
20
251.4968712546
30
0.0000000000
10
-249.9483269952
20
251.4488093276
30
0.0000000000
10
-250.0306687668
20
251.4219268111
30
0.0000000000
11
-248.9118033315
21
251.6701037303
31
0.0000000000
11
-249.1092827588
21
251.6426999501
31
0.0000000000
11
-249.3276422969
21
251.6044125294
31
0.0000000000
11
-249.5511433607
21
251.5563672151
31
0.0000000000
11
-249.7819272182
21
251.4971144129
31
0.0000000000
11
-250.0306687668
21
251.4219268111
31
0.0000000000
0
SPLINE
5
369
100
AcDbEntity
8
0
100
AcDbSpline
62
9
6
CONTINUOUS
70
0
71
3
72
14
73
10
74
8
42
0.0000001000
43
0.0000001000
44
0.0000000001
12
-0.0001275271
22
0.1030417226
32
0.0000000000
13
-0.1022885817
23
-0.0124361939
33
0.0000000000
40
0.0000000000
40
0.0000000000
40
0.0000000000
40
0.0000000000
40
0.0475695937
40
0.1569696759
40
0.3115077117
40
0.4870765621
40
0.6663493256
40
0.8385288923
40
1.0000000000
40
1.0000000000
40
1.0000000000
40
1.0000000000
10
-248.8100882919
20
251.6701037303
30
0.0000000000
10
-248.8100903140
20
251.6717376146
30
0.0000000000
10
-248.8168888524
20
251.6741865580
30
0.0000000000
10
-248.8262674033
20
251.6749013708
30
0.0000000000
10
-248.8419550696
20
251.6754204022
30
0.0000000000
10
-248.8592509200
20
251.6747967990
30
0.0000000000
10
-248.8773722538
20
251.6736407500
30
0.0000000000
10
-248.8949048534
20
251.6720449204
30
0.0000000000
10
-248.9062977813
20
251.6707730923
30
0.0000000000
10
-248.9118033315
20
251.6701037303
30
0.0000000000
11
-248.8100882919
21
251.6701037303
31
0.0000000000
11
-248.8140205514
21
251.6730300885
31
0.0000000000
11
-248.8251617732
21
251.6747472900
31
0.0000000000
11
-248.8410785866
21
251.6752215602
31
0.0000000000
11
-248.8591624833
21
251.6747171311
31
0.0000000000
11
-248.8775976096
21
251.6735412721
31
0.0000000000
11
-248.8952677385
21
251.6719493524
31
0.0000000000
11
-248.9118033315
21
251.6701037303
31
0.0000000000
0
SPLINE
5
36A
100
AcDbEntity
8
0
100
AcDbSpline
62
9
6
CONTINUOUS
70
0
71
3
72
12
73
8
74
6
42
0.0000001000
43
0.0000001000
44
0.0000000001
12
-0.0000000955
22
0.2481769191
32
0.0000000000
13
0.0000000361
23
0.2481769192
33
0.0000000000
40
0.0000000000
40
0.0000000000
40
0.0000000000
40
0.0000000000
40
0.3245288541
40
0.5733868835
40
0.7612770168
40
0.8998605882
40
1.0000000000
40
1.0000000000
40
1.0000000000
40
1.0000000000
10
-248.8100882919
20
251.4219268111
30
0.0000000000
10
-248.8100883022
20
251.4487736682
30
0.0000000000
10
-248.8100882829
20
251.4962074649
30
0.0000000000
10
-248.8100882936
20
251.5591845931
30
0.0000000000
10
-248.8100882929
20
251.6067792789
30
0.0000000000
10
-248.8100882906
20
251.6420711219
30
0.0000000000
10
-248.8100882931
20
251.6618196334
30
0.0000000000
10
-248.8100882919
20
251.6701037303
30
0.0000000000
11
-248.8100882919
21
251.4219268111
31
0.0000000000
11
-248.8100882891
21
251.5024673823
31
0.0000000000
11
-248.8100882923
21
251.5642282013
31
0.0000000000
11
-248.8100882924
21
251.6108581958
31
0.0000000000
11
-248.8100882917
21
251.6452514396
31
0.0000000000
11
-248.8100882919
21
251.6701037303
31
0.0000000000
0
SPLINE
5
36B
100
AcDbEntity
8
0
100
AcDbSpline
62
9
6
CONTINUOUS
70
0
71
3
72
8
73
4
74
2
42
0.0000001000
43
0.0000001000
44
0.0000000001
12
-0.0259648526
22
-0.0014341561
32
0.0000000000
13
-0.0260031346
23
-0.0007031723
33
0.0000000000
40
0.0000000000
40
0.0000000000
40
0.0000000000
40
0.0000000000
40
1.0000000000
40
1.0000000000
40
1.0000000000
40
1.0000000000
10
-248.5049431732
20
251.3382843167
30
0.0000000000
10
-248.5135981240
20
251.3378062647
30
0.0000000000
10
-248.5222616800
20
251.3374476343
30
0.0000000000
10
-248.5309293916
20
251.3372132435
30
0.0000000000
11
-248.5049431732
21
251.3382843167
31
0.0000000000
11
-248.5309293916
21
251.3372132435
31
0.0000000000
0
SPLINE
5
36C
100
AcDbEntity
8
0
100
AcDbSpline
62
9
6
CONTINUOUS
70
0
71
3
72
10
73
6
74
4
42
0.0000001000
43
0.0000001000
44
0.0000000001
12
-0.1456857917
22
-0.0039396099
32
0.0000000000
13
-0.1438195669
23
0.0241745223
33
0.0000000000
40
0.0000000000
40
0.0000000000
40
0.0000000000
40
0.0000000000
40
0.3486430920
40
0.8460685313
40
1.0000000000
40
1.0000000000
40
1.0000000000
40
1.0000000000
10
-248.5309293916
20
251.3372132435
30
0.0000000000
10
-248.5478601732
20
251.3367554043
30
0.0000000000
10
-248.5889853712
20
251.3367946936
30
0.0000000000
10
-248.6374723166
20
251.3403905686
30
0.0000000000
10
-248.6688156266
20
251.3449794600
30
0.0000000000
10
-248.6761950790
20
251.3462198666
30
0.0000000000
11
-248.5309293916
21
251.3372132435
31
0.0000000000
11
-248.5817361406
21
251.3372977210
31
0.0000000000
11
-248.6539879070
21
251.3429360028
31
0.0000000000
11
-248.6761950790
21
251.3462198666
31
0.0000000000
0
SPLINE
5
36D
100
AcDbEntity
8
0
100
AcDbSpline
62
9
6
CONTINUOUS
70
0
71
3
72
8
73
4
74
2
42
0.0000001000
43
0.0000001000
44
0.0000000001
12
-0.0237336029
22
0.0039893634
32
0.0000000000
13
-0.0234891810
23
0.0051773087
33
0.0000000000
40
0.0000000000
40
0.0000000000
40
0.0000000000
40
0.0000000000
40
1.0000000000
40
1.0000000000
40
1.0000000000
40
1.0000000000
10
-248.6761950790
20
251.3462198666
30
0.0000000000
10
-248.6841062800
20
251.3475496544
30
0.0000000000
10
-248.6919856065
20
251.3490586653
30
0.0000000000
10
-248.6998153335
20
251.3507844349
30
0.0000000000
11
-248.6761950790
21
251.3462198666
31
0.0000000000
11
-248.6998153335
21
251.3507844349
31
0.0000000000
0
SPLINE
5
36E
100
AcDbEntity
8
0
100
AcDbSpline
62
9
6
CONTINUOUS
70
0
71
3
72
8
73
4
74
2
42
0.0000001000
43
0.0000001000
44
0.0000000001
12
-0.0172327122
22
0.0037983049
32
0.0000000000
13
-0.0170515376
23
0.0045427719
33
0.0000000000
40
0.0000000000
40
0.0000000000
40
0.0000000000
40
0.0000000000
40
1.0000000000
40
1.0000000000
40
1.0000000000
40
1.0000000000
10
-248.6998153335
20
251.3507844349
30
0.0000000000
10
-248.7055595709
20
251.3520505365
30
0.0000000000
10
-248.7112771121
20
251.3534333051
30
0.0000000000
10
-248.7169609580
20
251.3549475624
30
0.0000000000
11
-248.6998153335
21
251.3507844349
31
0.0000000000
11
-248.7169609580
21
251.3549475624
31
0.0000000000
0
SPLINE
5
36F
100
AcDbEntity
8
0
100
AcDbSpline
62
9
6
CONTINUOUS
70
0
71
3
72
10
73
6
74
4
42
0.0000001000
43
0.0000001000
44
0.0000000001
12
-0.1168063314
22
0.0311188667
32
0.0000000000
13
0.0000729979
23
0.1208295183
33
0.0000000000
40
0.0000000000
40
0.0000000000
40
0.0000000000
40
0.0000000000
40
0.4363905819
40
0.7617294484
40
1.0000000000
40
1.0000000000
40
1.0000000000
40
1.0000000000
10
-248.7169609580
20
251.3549475624
30
0.0000000000
10
-248.7339520190
20
251.3594742225
30
0.0000000000
10
-248.7630846975
20
251.3694266301
30
0.0000000000
10
-248.7982903699
20
251.3902234532
30
0.0000000000
10
-248.8100940896
20
251.4123301058
30
0.0000000000
10
-248.8100882919
20
251.4219268111
30
0.0000000000
11
-248.7169609580
21
251.3549475624
31
0.0000000000
11
-248.7665719597
21
251.3728104457
31
0.0000000000
11
-248.7986771664
21
251.3954946849
31
0.0000000000
11
-248.8100882919
21
251.4219268111
31
0.0000000000
0
SPLINE
5
370
100
AcDbEntity
8
0
100
AcDbSpline
62
9
6
CONTINUOUS
70
0
71
3
72
10
73
6
74
4
42
0.0000001000
43
0.0000001000
44
0.0000000001
12
-0.6096363370
22
0.0336737673
32
0.0000000000
13
-0.6096363343
23
-0.0336738160
33
0.0000000000
40
0.0000000000
40
0.0000000000
40
0.0000000000
40
0.0000000000
40
0.3328661760
40
0.6669943864
40
1.0000000000
40
1.0000000000
40
1.0000000000
40
1.0000000000
10
-247.8946529357
20
251.3382843167
30
0.0000000000
10
-247.9622953744
20
251.3420206028
30
0.0000000000
10
-248.0979879221
20
251.3470181910
30
0.0000000000
10
-248.3015514131
20
251.3470197521
30
0.0000000000
10
-248.4372723993
20
251.3420221733
30
0.0000000000
10
-248.5049431732
20
251.3382843167
30
0.0000000000
11
-247.8946529357
21
251.3382843167
31
0.0000000000
11
-248.0977518863
21
251.3457643208
31
0.0000000000
11
-248.3017590868
21
251.3457658896
31
0.0000000000
11
-248.5049431732
21
251.3382843167
31
0.0000000000
0
SPLINE
5
371
100
AcDbEntity
8
0
100
AcDbSpline
62
9
6
CONTINUOUS
70
0
71
3
72
11
73
7
74
5
42
0.0000001000
43
0.0000001000
44
0.0000000001
12
-0.0000256699
22
-0.1384612527
32
0.0000000000
13
-0.1352723955
23
-0.0298191917
33
0.0000000000
40
0.0000000000
40
0.0000000000
40
0.0000000000
40
0.0000000000
40
0.2091032557
40
0.4931166190
40
0.8736295673
40
1.0000000000
40
1.0000000000
40
1.0000000000
40
1.0000000000
10
-247.5895078170
20
251.4219268111
30
0.0000000000
10
-247.5895096062
20
251.4122759116
30
0.0000000000
10
-247.6013987710
20
251.3901270901
30
0.0000000000
10
-247.6366636797
20
251.3693669023
30
0.0000000000
10
-247.6713315566
20
251.3575393443
30
0.0000000000
10
-247.6940820477
20
251.3520403110
30
0.0000000000
10
-247.6997801914
20
251.3507842229
30
0.0000000000
11
-247.5895078170
21
251.4219268111
31
0.0000000000
11
-247.6010340489
21
251.3953673539
31
0.0000000000
11
-247.6331893019
21
251.3727292604
31
0.0000000000
11
-247.6827713207
21
251.3549115820
31
0.0000000000
11
-247.6997801914
21
251.3507842229
31
0.0000000000
0
SPLINE
5
372
100
AcDbEntity
8
0
100
AcDbSpline
62
9
6
CONTINUOUS
70
0
71
3
72
8
73
4
74
2
42
0.0000001000
43
0.0000001000
44
0.0000000001
12
-0.0042859530
22
-0.0009447874
32
0.0000000000
13
-0.0042955310
23
-0.0009021475
33
0.0000000000
40
0.0000000000
40
0.0000000000
40
0.0000000000
40
0.0000000000
40
1.0000000000
40
1.0000000000
40
1.0000000000
40
1.0000000000
10
-247.6997801914
20
251.3507842229
30
0.0000000000
10
-247.7012088425
20
251.3504692938
30
0.0000000000
10
-247.7026391435
20
251.3501615855
30
0.0000000000
10
-247.7040709872
20
251.3498608697
30
0.0000000000
11
-247.6997801914
21
251.3507842229
31
0.0000000000
11
-247.7040709872
21
251.3498608697
31
0.0000000000
0
SPLINE
5
373
100
AcDbEntity
8
0
100
AcDbSpline
62
9
6
CONTINUOUS
70
0
71
3
72
8
73
4
74
2
42
0.0000001000
43
0.0000001000
44
0.0000000001
12
-0.0193422573
22
-0.0040622611
32
0.0000000000
13
-0.0195005064
23
-0.0032741333
33
0.0000000000
40
0.0000000000
40
0.0000000000
40
0.0000000000
40
0.0000000000
40
1.0000000000
40
1.0000000000
40
1.0000000000
40
1.0000000000
10
-247.7040709872
20
251.3498608697
30
0.0000000000
10
-247.7105184062
20
251.3485067826
30
0.0000000000
10
-247.7169971033
20
251.3472944746
30
0.0000000000
10
-247.7234972721
20
251.3462030969
30
0.0000000000
11
-247.7040709872
21
251.3498608697
31
0.0000000000
11
-247.7234972721
21
251.3462030969
31
0.0000000000
0
SPLINE
5
374
100
AcDbEntity
8
0
100
AcDbSpline
62
9
6
CONTINUOUS
70
0
71
3
72
10
73
6
74
4
42
0.0000001000
43
0.0000001000
44
0.0000000001
12
-0.1436554342
22
-0.0241197344
32
0.0000000000
13
-0.1455167566
23
0.0039235326
33
0.0000000000
40
0.0000000000
40
0.0000000000
40
0.0000000000
40
0.0000000000
40
0.1538736103
40
0.6506453984
40
1.0000000000
40
1.0000000000
40
1.0000000000
40
1.0000000000
10
-247.7234972721
20
251.3462030969
30
0.0000000000
10
-247.7308655322
20
251.3449659667
30
0.0000000000
10
-247.7621384428
20
251.3403918815
30
0.0000000000
10
-247.8105685522
20
251.3367973653
30
0.0000000000
10
-247.8516487297
20
251.3367548249
30
0.0000000000
10
-247.8685943792
20
251.3372117263
30
0.0000000000
11
-247.7234972721
21
251.3462030969
31
0.0000000000
11
-247.7456705384
21
251.3429275015
31
0.0000000000
11
-247.8177432056
21
251.3373011889
31
0.0000000000
11
-247.8685943792
21
251.3372117263
31
0.0000000000
0
SPLINE
5
375
100
AcDbEntity
8
0
100
AcDbSpline
62
9
6
CONTINUOUS
70
0
71
3
72
8
73
4
74
2
42
0.0000001000
43
0.0000001000
44
0.0000000001
12
-0.0260755307
22
0.0007030681
32
0.0000000000
13
-0.0260370964
23
0.0014371509
33
0.0000000000
40
0.0000000000
40
0.0000000000
40
0.0000000000
40
0.0000000000
40
1.0000000000
40
1.0000000000
40
1.0000000000
40
1.0000000000
10
-247.8685943792
20
251.3372117263
30
0.0000000000
10
-247.8772862228
20
251.3374460823
30
0.0000000000
10
-247.8859739036
20
251.3378052664
30
0.0000000000
10
-247.8946529357
20
251.3382843167
30
0.0000000000
11
-247.8685943792
21
251.3372117263
31
0.0000000000
11
-247.8946529357
21
251.3382843167
31
0.0000000000
0
SPLINE
5
376
100
AcDbEntity
8
0
100
AcDbSpline
62
9
6
CONTINUOUS
70
0
71
3
72
12
73
8
74
6
42
0.0000001000
43
0.0000001000
44
0.0000000001
12
0.0000000402
22
-0.2481769192
32
0.0000000000
13
-0.0000000830
23
-0.2481769191
33
0.0000000000
40
0.0000000000
40
0.0000000000
40
0.0000000000
40
0.0000000000
40
0.1005484461
40
0.2392339420
40
0.4272491127
40
0.6764381929
40
1.0000000000
40
1.0000000000
40
1.0000000000
40
1.0000000000
10
-247.5895078170
20
251.6701037303
30
0.0000000000
10
-247.5895078156
20
251.6617857958
30
0.0000000000
10
-247.5895078187
20
251.6419950149
30
0.0000000000
10
-247.5895078138
20
251.6066505587
30
0.0000000000
10
-247.5895078179
20
251.5590097110
30
0.0000000000
10
-247.5895078221
20
251.4960748522
30
0.0000000000
10
-247.5895078080
20
251.4486936686
30
0.0000000000
10
-247.5895078170
20
251.4219268111
30
0.0000000000
11
-247.5895078170
21
251.6701037303
31
0.0000000000
11
-247.5895078172
21
251.6451499267
31
0.0000000000
11
-247.5895078155
21
251.6107313876
31
0.0000000000
11
-247.5895078173
21
251.5640703618
31
0.0000000000
11
-247.5895078184
21
251.5022273836
31
0.0000000000
11
-247.5895078170
21
251.4219268111
31
0.0000000000
0
SPLINE
5
377
100
AcDbEntity
8
0
100
AcDbSpline
62
9
6
CONTINUOUS
70
0
71
3
72
14
73
10
74
8
42
0.0000001000
43
0.0000001000
44
0.0000000001
12
-0.1022860762
22
0.0124369244
32
0.0000000000
13
0.0002474778
23
-0.1030391053
33
0.0000000000
40
0.0000000000
40
0.0000000000
40
0.0000000000
40
0.0000000000
40
0.1614060718
40
0.3347621391
40
0.5142394507
40
0.6893348921
40
0.8429827303
40
0.9520038950
40
1.0000000000
40
1.0000000000
40
1.0000000000
40
1.0000000000
10
-247.4877927774
20
251.6701037303
30
0.0000000000
10
-247.4932959753
20
251.6707728620
30
0.0000000000
10
-247.5047266384
20
251.6720489130
30
0.0000000000
10
-247.5223036286
20
251.6736475419
30
0.0000000000
10
-247.5404569272
20
251.6748026309
30
0.0000000000
10
-247.5577102220
20
251.6754182272
30
0.0000000000
10
-247.5733432196
20
251.6749043250
30
0.0000000000
10
-247.5826762634
20
251.6741790758
30
0.0000000000
10
-247.5895117763
20
251.6717522222
30
0.0000000000
10
-247.5895078170
20
251.6701037303
30
0.0000000000
11
-247.4877927774
21
251.6701037303
31
0.0000000000
11
-247.5043213166
21
251.6719486459
31
0.0000000000
11
-247.5221118897
21
251.6735500875
31
0.0000000000
11
-247.5405678607
21
251.6747234887
31
0.0000000000
11
-247.5586027084
21
251.6752217636
31
0.0000000000
11
-247.5744273885
21
251.6747476282
31
0.0000000000
11
-247.5855308326
21
251.6730433674
31
0.0000000000
11
-247.5895078170
21
251.6701037303
31
0.0000000000
0
SPLINE
5
378
100
AcDbEntity
8
0
100
AcDbSpline
62
9
6
CONTINUOUS
70
0
71
3
72
10
73
6
74
4
42
0.0000001000
43
0.0000001000
44
0.0000000001
12
-0.0000000011
22
-0.0084211513
32
0.0000000000
13
-0.0000000040
23
-0.0084211513
33
0.0000000000
40
0.0000000000
40
0.0000000000
40
0.0000000000
40
0.0000000000
40
0.1109954972
40
0.4447521893
40
1.0000000000
40
1.0000000000
40
1.0000000000
40
1.0000000000
10
-246.0637822233
20
251.3467054680
30
0.0000000000
10
-246.0637822233
20
251.3463938981
30
0.0000000000
10
-246.0637822235
20
251.3451454563
30
0.0000000000
10
-246.0637822241
20
251.3423384058
30
0.0000000000
10
-246.0637822226
20
251.3398429253
30
0.0000000000
10
-246.0637822233
20
251.3382843167
30
0.0000000000
11
-246.0637822233
21
251.3467054680
31
0.0000000000
11
-246.0637822234
21
251.3457707582
31
0.0000000000
11
-246.0637822237
21
251.3429601426
31
0.0000000000
11
-246.0637822233
21
251.3382843167
31
0.0000000000
0
SPLINE
5
379
100
AcDbEntity
8
0
100
AcDbSpline
62
9
6
CONTINUOUS
70
0
71
3
72
12
73
8
74
6
42
0.0000001000
43
0.0000001000
44
0.0000000001
12
-1.0911187217
22
0.3562227291
32
0.0000000000
13
-1.1394049461
23
0.1385318241
33
0.0000000000
40
0.0000000000
40
0.0000000000
40
0.0000000000
40
0.0000000000
40
0.2220767843
40
0.4263822369
40
0.6251590283
40
0.8222368415
40
1.0000000000
40
1.0000000000
40
1.0000000000
40
1.0000000000
10
-246.3689273420
20
251.4219268111
30
0.0000000000
10
-246.4496980544
20
251.4482964105
30
0.0000000000
10
-246.6058918999
20
251.4955813555
30
0.0000000000
10
-246.8375506483
20
251.5553449772
30
0.0000000000
10
-247.0620263196
20
251.6039564382
30
0.0000000000
10
-247.2782006420
20
251.6421222501
30
0.0000000000
10
-247.4202780367
20
251.6618951121
30
0.0000000000
10
-247.4877927774
20
251.6701037303
30
0.0000000000
11
-246.3689273420
21
251.4219268111
31
0.0000000000
11
-246.6128919408
21
251.4957824017
31
0.0000000000
11
-246.8399583306
21
251.5543616195
31
0.0000000000
11
-247.0629447510
21
251.6026505046
31
0.0000000000
11
-247.2857046955
21
251.6419789764
31
0.0000000000
11
-247.4877927774
21
251.6701037303
31
0.0000000000
0
SPLINE
5
37A
100
AcDbEntity
8
0
100
AcDbSpline
62
9
6
CONTINUOUS
70
0
71
3
72
10
73
6
74
4
42
0.0000001000
43
0.0000001000
44
0.0000000001
12
0.0000305523
22
-0.0705416368
32
0.0000000000
13
-0.0710873922
23
0.0193144344
33
0.0000000000
40
0.0000000000
40
0.0000000000
40
0.0000000000
40
0.0000000000
40
0.1406318942
40
0.5591741542
40
1.0000000000
40
1.0000000000
40
1.0000000000
40
1.0000000000
10
-246.0637822233
20
251.3382843167
30
0.0000000000
10
-246.0637807911
20
251.3349775154
30
0.0000000000
10
-246.0848756859
20
251.3400971484
30
0.0000000000
10
-246.1017500919
20
251.3422091008
30
0.0000000000
10
-246.1215783358
20
251.3472613932
30
0.0000000000
10
-246.1320240557
20
251.3500994938
30
0.0000000000
11
-246.0637822233
21
251.3382843167
31
0.0000000000
11
-246.0736540285
21
251.3373035542
31
0.0000000000
11
-246.1026376304
21
251.3429299476
31
0.0000000000
11
-246.1320240557
21
251.3500994938
31
0.0000000000
0
SPLINE
5
37B
100
AcDbEntity
8
0
100
AcDbSpline
62
9
6
CONTINUOUS
70
0
71
3
72
11
73
7
74
5
42
0.0000001000
43
0.0000001000
44
0.0000000001
12
-0.2486304027
22
0.0675528451
32
0.0000000000
13
-0.2345404016
23
0.0765660645
33
0.0000000000
40
0.0000000000
40
0.0000000000
40
0.0000000000
40
0.0000000000
40
0.0697732047
40
0.3340318270
40
0.6507837916
40
1.0000000000
40
1.0000000000
40
1.0000000000
40
1.0000000000
10
-246.1320240557
20
251.3500994938
30
0.0000000000
10
-246.1378066357
20
251.3516706200
30
0.0000000000
10
-246.1658928829
20
251.3595537933
30
0.0000000000
10
-246.2158304525
20
251.3736986965
30
0.0000000000
10
-246.2896250869
20
251.3963913122
30
0.0000000000
10
-246.3416255721
20
251.4130141075
30
0.0000000000
10
-246.3689273420
20
251.4219268111
30
0.0000000000
11
-246.1320240557
21
251.3500994938
31
0.0000000000
11
-246.1494329603
21
251.3549367450
31
0.0000000000
11
-246.2121143261
21
251.3728773978
31
0.0000000000
11
-246.2868618120
21
251.3956845719
31
0.0000000000
11
-246.3689273420
21
251.4219268111
31
0.0000000000
0
SPLINE
5
37C
100
AcDbEntity
8
0
100
AcDbSpline
62
9
6
CONTINUOUS
70
0
71
3
72
9
73
5
74
3
42
0.0000001000
43
0.0000001000
44
0.0000000001
12
-0.0385583277
22
0.0148674323
32
0.0000000000
13
-0.0415816152
23
-0.0019562143
33
0.0000000000
40
0.0000000000
40
0.0000000000
40
0.0000000000
40
0.0000000000
40
0.9326375344
40
1.0000000000
40
1.0000000000
40
1.0000000000
40
1.0000000000
10
-246.0637852944
20
251.3382763761
30
0.0000000000
10
-246.0757722757
20
251.3428983512
30
0.0000000000
10
-246.0897399257
20
251.3453695662
30
0.0000000000
10
-246.1036119954
20
251.3449134691
30
0.0000000000
10
-246.1045456754
20
251.3448695439
30
0.0000000000
11
-246.0637852944
21
251.3382763761
31
0.0000000000
11
-246.1017426480
21
251.3449616335
31
0.0000000000
11
-246.1045456754
21
251.3448695439
31
0.0000000000
0
SPLINE
5
37D
100
AcDbEntity
8
0
100
AcDbSpline
62
9
6
CONTINUOUS
70
0
71
3
72
11
73
7
74
5
42
0.0000001000
43
0.0000001000
44
0.0000000001
12
-0.1364282044
22
0.0140105337
32
0.0000000000
13
-0.0395342535
23
-0.1327328489
33
0.0000000000
40
0.0000000000
40
0.0000000000
40
0.0000000000
40
0.0000000000
40
0.3028818956
40
0.6052345461
40
0.9066924769
40
1.0000000000
40
1.0000000000
40
1.0000000000
40
1.0000000000
10
-247.5895078184
20
251.6701037165
30
0.0000000000
10
-247.6032816961
20
251.6715182288
30
0.0000000000
10
-247.6317416157
20
251.6685456296
30
0.0000000000
10
-247.6686932590
20
251.6472917724
30
0.0000000000
10
-247.6880888140
20
251.6208567420
30
0.0000000000
10
-247.6944234605
20
251.6037218868
30
0.0000000000
10
-247.6956530749
20
251.5995935624
30
0.0000000000
11
-247.5895078184
21
251.6701037165
31
0.0000000000
11
-247.6308163449
21
251.6657344356
31
0.0000000000
11
-247.6667718366
21
251.6450786192
31
0.0000000000
11
-247.6911692128
21
251.6117009800
31
0.0000000000
11
-247.6956530749
21
251.5995935624
31
0.0000000000
0
SPLINE
5
37E
100
AcDbEntity
8
0
100
AcDbSpline
62
9
6
CONTINUOUS
70
0
71
3
72
8
73
4
74
2
42
0.0000001000
43
0.0000001000
44
0.0000000001
12
-0.0033860998
22
-0.0113685382
32
0.0000000000
13
-0.0020145149
23
-0.0116653788
33
0.0000000000
40
0.0000000000
40
0.0000000000
40
0.0000000000
40
0.0000000000
40
1.0000000000
40
1.0000000000
40
1.0000000000
40
1.0000000000
10
-247.6956530749
20
251.5995935624
30
0.0000000000
10
-247.6967817748
20
251.5958040496
30
0.0000000000
10
-247.6976849500
20
251.5919485642
30
0.0000000000
10
-247.6983564550
20
251.5880601046
30
0.0000000000
11
-247.6956530749
21
251.5995935624
31
0.0000000000
11
-247.6983564550
21
251.5880601046
31
0.0000000000
0
SPLINE
5
37F
100
AcDbEntity
8
0
100
AcDbSpline
62
9
6
CONTINUOUS
70
0
71
3
72
8
73
4
74
2
42
0.0000001000
43
0.0000001000
44
0.0000000001
12
-0.0006855855
22
-0.0039699952
32
0.0000000000
13
-0.0005238670
23
-0.0039890075
33
0.0000000000
40
0.0000000000
40
0.0000000000
40
0.0000000000
40
0.0000000000
40
1.0000000000
40
1.0000000000
40
1.0000000000
40
1.0000000000
10
-247.6983564550
20
251.5880601046
30
0.0000000000
10
-247.6985849835
20
251.5867367728
30
0.0000000000
10
-247.6987866800
20
251.5854096221
30
0.0000000000
10
-247.6989613024
20
251.5840799529
30
0.0000000000
11
-247.6983564550
21
251.5880601046
31
0.0000000000
11
-247.6989613024
21
251.5840799529
31
0.0000000000
0
SPLINE
5
380
100
AcDbEntity
8
0
100
AcDbSpline
62
9
6
CONTINUOUS
70
0
71
3
72
8
73
4
74
2
42
0.0000001000
43
0.0000001000
44
0.0000000001
12
-0.0016657154
22
-0.0126836605
32
0.0000000000
13
-0.0000000018
23
-0.0127109900
33
0.0000000000
40
0.0000000000
40
0.0000000000
40
0.0000000000
40
0.0000000000
40
1.0000000000
40
1.0000000000
40
1.0000000000
40
1.0000000000
10
-247.6989613024
20
251.5840799529
30
0.0000000000
10
-247.6995165408
20
251.5798520661
30
0.0000000000
10
-247.6997980538
20
251.5755987180
30
0.0000000000
10
-247.6997980544
20
251.5713617213
30
0.0000000000
11
-247.6989613024
21
251.5840799529
31
0.0000000000
11
-247.6997980544
21
251.5713617213
31
0.0000000000
0
SPLINE
5
381
100
AcDbEntity
8
0
100
AcDbSpline
62
9
6
CONTINUOUS
70
0
71
3
72
10
73
6
74
4
42
0.0000001000
43
0.0000001000
44
0.0000000001
12
-0.1210365973
22
0.0119148569
32
0.0000000000
13
-0.0533106822
23
-0.1105467502
33
0.0000000000
40
0.0000000000
40
0.0000000000
40
0.0000000000
40
0.0000000000
40
0.3413955304
40
0.6788235121
40
1.0000000000
40
1.0000000000
40
1.0000000000
40
1.0000000000
10
-247.5895082956
20
251.4219224177
30
0.0000000000
10
-247.6032820800
20
251.4232783107
30
0.0000000000
10
-247.6315232046
20
251.4204770587
30
0.0000000000
10
-247.6680596969
20
251.4005141936
30
0.0000000000
10
-247.6849708160
20
251.3788829594
30
0.0000000000
10
-247.6906781952
20
251.3670479537
30
0.0000000000
11
-247.5895082956
21
251.4219224177
31
0.0000000000
11
-247.6308183628
21
251.4177416762
31
0.0000000000
11
-247.6667761464
21
251.3979629061
31
0.0000000000
11
-247.6906781952
21
251.3670479537
31
0.0000000000
0
SPLINE
5
382
100
AcDbEntity
8
0
100
AcDbSpline
62
9
6
CONTINUOUS
70
0
71
3
72
10
73
6
74
4
42
0.0000001000
43
0.0000001000
44
0.0000000001
12
0.1210105791
22
0.0119005592
32
0.0000000000
13
0.0533247757
23
-0.1105085263
33
0.0000000000
40
0.0000000000
40
0.0000000000
40
0.0000000000
40
0.0000000000
40
0.3414622253
40
0.6789559621
40
1.0000000000
40
1.0000000000
40
1.0000000000
40
1.0000000000
10
-248.8100882847
20
251.4219267447
30
0.0000000000
10
-248.7963147708
20
251.4232812752
30
0.0000000000
10
-248.7680748067
20
251.4204777349
30
0.0000000000
10
-248.7315478748
20
251.4005171049
30
0.0000000000
10
-248.7146410641
20
251.3788948329
30
0.0000000000
10
-248.7089345303
20
251.3670687984
30
0.0000000000
11
-248.8100882847
21
251.4219267447
31
0.0000000000
11
-248.7687797731
21
251.4177426308
31
0.0000000000
11
-248.7328242910
21
251.3979621958
31
0.0000000000
11
-248.7089345303
21
251.3670687984
31
0.0000000000
0
SPLINE
5
383
100
AcDbEntity
8
0
100
AcDbSpline
62
9
6
CONTINUOUS
70
0
71
3
72
11
73
7
74
5
42
0.0000001000
43
0.0000001000
44
0.0000000001
12
0.1647257712
22
0.0169074676
32
0.0000000000
13
0.0000024998
23
-0.1655911898
33
0.0000000000
40
0.0000000000
40
0.0000000000
40
0.0000000000
40
0.0000000000
40
0.2508328946
40
0.5012304873
40
0.7508912799
40
1.0000000000
40
1.0000000000
40
1.0000000000
40
1.0000000000
10
-248.8100882817
20
251.6701036328
30
0.0000000000
10
-248.7963154011
20
251.6715172825
30
0.0000000000
10
-248.7678576969
20
251.6685432991
30
0.0000000000
10
-248.7309096181
20
251.6472888723
30
0.0000000000
10
-248.7057440404
20
251.6129870709
30
0.0000000000
10
-248.6998078019
20
251.5851117908
30
0.0000000000
10
-248.6998075943
20
251.5713617210
30
0.0000000000
11
-248.8100882817
21
251.6701036328
31
0.0000000000
11
-248.7687832162
21
251.6657324335
31
0.0000000000
11
-248.7328311256
21
251.6450761938
31
0.0000000000
11
-248.7084360188
21
251.6116994212
31
0.0000000000
11
-248.6998075943
21
251.5713617210
31
0.0000000000
0
SPLINE
5
384
100
AcDbEntity
8
0
100
AcDbSpline
62
9
6
CONTINUOUS
70
0
71
3
72
9
73
5
74
3
42
0.0000001000
43
0.0000001000
44
0.0000000001
12
0.0385822683
22
0.0148726601
32
0.0000000000
13
0.0416051680
23
-0.0019714101
33
0.0000000000
40
0.0000000000
40
0.0000000000
40
0.0000000000
40
0.0000000000
40
0.9320597385
40
1.0000000000
40
1.0000000000
40
1.0000000000
40
1.0000000000
10
-250.3358138836
20
251.3382843117
30
0.0000000000
10
-250.3238268907
20
251.3429050476
30
0.0000000000
10
-250.3098508745
20
251.3453765539
30
0.0000000000
10
-250.2959707787
20
251.3449172936
30
0.0000000000
10
-250.2950285567
20
251.3448726476
30
0.0000000000
11
-250.3358138836
21
251.3382843117
31
0.0000000000
11
-250.2978572561
21
251.3449661701
31
0.0000000000
11
-250.2950285567
21
251.3448726476
31
0.0000000000
0
SPLINE
5
385
100
AcDbEntity
8
0
100
AcDbSpline
62
7
6
CONTINUOUS
70
0
71
3
72
16
73
12
74
10
42
0.0000001000
43
0.0000001000
44
0.0000000001
12
-0.0289744044
22
0.2588793067
32
0.0000000000
13
-0.2571086795
23
-0.0312684163
33
0.0000000000
40
0.0000000000
40
0.0000000000
40
0.0000000000
40
0.0000000000
40
0.0950980898
40
0.2223386279
40
0.3380988178
40
0.4476222810
40
0.5468622451
40
0.6466093114
40
0.7654231273
40
0.9093720201
40
1.0000000000
40
1.0000000000
40
1.0000000000
40
1.0000000000
10
-33.7004366233
20
251.5825688144
30
0.0000000000
10
-33.7013550935
20
251.5907751235
30
0.0000000000
10
-33.7058328571
20
251.6097720602
30
0.0000000000
10
-33.7205526650
20
251.6355364316
30
0.0000000000
10
-33.7432745712
20
251.6564360751
30
0.0000000000
10
-33.7686433220
20
251.6690975649
30
0.0000000000
10
-33.7947882455
20
251.6750196972
30
0.0000000000
10
-33.8222267800
20
251.6767286869
30
0.0000000000
10
-33.8535324107
20
251.6760522456
30
0.0000000000
10
-33.8839648181
20
251.6737670885
30
0.0000000000
10
-33.9041005164
20
251.6715769052
30
0.0000000000
10
-33.9118675965
20
251.6706323074
30
0.0000000000
11
-33.7004366233
21
251.5825688144
31
0.0000000000
11
-33.7061372282
21
251.6066500146
31
0.0000000000
11
-33.7224461589
21
251.6352841003
31
0.0000000000
11
-33.7444925028
21
251.6556001099
31
0.0000000000
11
-33.7698249077
21
251.6683599551
31
0.0000000000
11
-33.7948241198
21
251.6743260447
31
0.0000000000
11
-33.8205814571
21
251.6762964090
31
0.0000000000
11
-33.8513487638
21
251.6758519956
31
0.0000000000
11
-33.8885320965
21
251.6731687426
31
0.0000000000
11
-33.9118675965
21
251.6706323074
31
0.0000000000
0
SPLINE
5
386
100
AcDbEntity
8
0
100
AcDbSpline
62
7
6
CONTINUOUS
70
0
71
3
72
17
73
13
74
11
42
0.0000001000
43
0.0000001000
44
0.0000000001
12
-0.2409615793
22
-0.0786737289
32
0.0000000000
13
-0.2508541122
23
-0.0616341786
33
0.0000000000
40
0.0000000000
40
0.0000000000
40
0.0000000000
40
0.0000000000
40
0.1257174119
40
0.2559316030
40
0.3801033766
40
0.4973284206
40
0.6067933816
40
0.7076507114
40
0.7992778858
40
0.8810031933
40
0.9522887015
40
1.0000000000
40
1.0000000000
40
1.0000000000
40
1.0000000000
10
-35.0308324973
20
251.4224283249
30
0.0000000000
10
-35.0409301860
20
251.4191314390
30
0.0000000000
10
-35.0615024725
20
251.4124679160
30
0.0000000000
10
-35.0921022761
20
251.4027158061
30
0.0000000000
10
-35.1220649174
20
251.3933280398
30
0.0000000000
10
-35.1503996381
20
251.3846119367
30
0.0000000000
10
-35.1768986611
20
251.3766214875
30
0.0000000000
10
-35.2013666502
20
251.3694164272
30
0.0000000000
10
-35.2236587728
20
251.3630304097
30
0.0000000000
10
-35.2435115365
20
251.3575007839
30
0.0000000000
10
-35.2600768531
20
251.3531086198
30
0.0000000000
10
-35.2695018551
20
251.3506614350
30
0.0000000000
10
-35.2734913802
20
251.3496812195
30
0.0000000000
11
-35.0308324973
21
251.4224283249
31
0.0000000000
11
-35.0611485421
21
251.4126084546
31
0.0000000000
11
-35.0925970558
21
251.4025870486
31
0.0000000000
11
-35.1226332304
21
251.3931793987
31
0.0000000000
11
-35.1510350432
21
251.3844462692
31
0.0000000000
11
-35.1776025526
21
251.3764418715
31
0.0000000000
11
-35.2021284717
21
251.3692264607
31
0.0000000000
11
-35.2244567669
21
251.3628330062
31
0.0000000000
11
-35.2444188503
21
251.3572963033
31
0.0000000000
11
-35.2618804186
21
251.3526490008
31
0.0000000000
11
-35.2734913802
21
251.3496812195
31
0.0000000000
0
SPLINE
5
387
100
AcDbEntity
8
0
100
AcDbSpline
62
7
6
CONTINUOUS
70
0
71
3
72
11
73
7
74
5
42
0.0000001000
43
0.0000001000
44
0.0000000001
12
-0.0254898087
22
-0.0062627772
32
0.0000000000
13
-0.0387715112
23
-0.0062176843
33
0.0000000000
40
0.0000000000
40
0.0000000000
40
0.0000000000
40
0.0000000000
40
0.1248469644
40
0.5993276583
40
0.9394943737
40
1.0000000000
40
1.0000000000
40
1.0000000000
40
1.0000000000
10
-35.2734913802
20
251.3496812195
30
0.0000000000
10
-35.2745521553
20
251.3494205899
30
0.0000000000
10
-35.2797158812
20
251.3481697684
30
0.0000000000
10
-35.2885345179
20
251.3461950482
30
0.0000000000
10
-35.2930276560
20
251.3449541916
30
0.0000000000
10
-35.2988732511
20
251.3440273489
30
0.0000000000
10
-35.2996552160
20
251.3439019472
30
0.0000000000
11
-35.2734913802
21
251.3496812195
31
0.0000000000
11
-35.2767235284
21
251.3488990820
31
0.0000000000
11
-35.2886200775
21
251.3461017673
31
0.0000000000
11
-35.2971941549
21
251.3442990936
31
0.0000000000
11
-35.2996552160
21
251.3439019472
31
0.0000000000
0
SPLINE
5
388
100
AcDbEntity
8
0
100
AcDbSpline
62
7
6
CONTINUOUS
70
0
71
3
72
10
73
6
74
4
42
0.0000001000
43
0.0000001000
44
0.0000000001
12
-1.1394054503
22
-0.1385357645
32
0.0000000000
13
-1.0911165306
23
-0.3562186596
33
0.0000000000
40
0.0000000000
40
0.0000000000
40
0.0000000000
40
0.0000000000
40
0.3242326341
40
0.6737101514
40
1.0000000000
40
1.0000000000
40
1.0000000000
40
1.0000000000
10
-33.9118673941
20
251.6706306377
30
0.0000000000
10
-34.0350115376
20
251.6556580324
30
0.0000000000
10
-34.2899805034
20
251.6164636494
30
0.0000000000
10
-34.6637591555
20
251.5336338826
30
0.0000000000
10
-34.9121600830
20
251.4611749041
30
0.0000000000
10
-35.0308334989
20
251.4224313932
30
0.0000000000
11
-33.9118673941
21
251.6706306377
31
0.0000000000
11
-34.2796967490
21
251.6140854500
31
0.0000000000
11
-34.6713065312
21
251.5273042385
31
0.0000000000
11
-35.0308334989
21
251.4224313932
31
0.0000000000
0
SPLINE
5
389
100
AcDbEntity
8
0
100
AcDbSpline
62
7
6
CONTINUOUS
70
0
71
3
72
8
73
4
74
2
42
0.0000001000
43
0.0000001000
44
0.0000000001
12
-0.0000045224
22
0.0112105483
32
0.0000000000
13
-0.0012537431
23
0.0111931650
33
0.0000000000
40
0.0000000000
40
0.0000000000
40
0.0000000000
40
0.0000000000
40
1.0000000000
40
1.0000000000
40
1.0000000000
40
1.0000000000
10
-33.6998080446
20
251.5713528067
30
0.0000000000
10
-33.6998095521
20
251.5750896562
30
0.0000000000
10
-33.7000213954
20
251.5788374579
30
0.0000000000
10
-33.7004393098
20
251.5825685129
30
0.0000000000
11
-33.6998080446
21
251.5713528067
31
0.0000000000
11
-33.7004393098
21
251.5825685129
31
0.0000000000
0
SPLINE
5
38A
100
AcDbEntity
8
0
100
AcDbSpline
62
7
6
CONTINUOUS
70
0
71
3
72
13
73
9
74
7
42
0.0000001000
43
0.0000001000
44
0.0000000001
12
-0.0186732971
22
0.1667114088
32
0.0000000000
13
-0.1668252168
23
0.0043654261
33
0.0000000000
40
0.0000000000
40
0.0000000000
40
0.0000000000
40
0.0000000000
40
0.1475633507
40
0.3441968187
40
0.5230475999
40
0.6926499719
40
0.8460445029
40
1.0000000000
40
1.0000000000
40
1.0000000000
40
1.0000000000
10
-33.7004393099
20
251.5825685134
30
0.0000000000
10
-33.7013578080
20
251.5907686781
30
0.0000000000
10
-33.7058220503
20
251.6097071710
30
0.0000000000
10
-33.7204614625
20
251.6353863921
30
0.0000000000
10
-33.7430313397
20
251.6562543732
30
0.0000000000
10
-33.7682526805
20
251.6689515743
30
0.0000000000
10
-33.7942628088
20
251.6749449591
30
0.0000000000
10
-33.8113510464
20
251.6760551378
30
0.0000000000
10
-33.8199122661
20
251.6762791649
30
0.0000000000
11
-33.7004393099
21
251.5825685134
31
0.0000000000
11
-33.7061357354
21
251.6066322678
31
0.0000000000
11
-33.7223408013
21
251.6351461384
31
0.0000000000
11
-33.7442267846
21
251.6554166235
31
0.0000000000
11
-33.7694481363
21
251.6682275217
31
0.0000000000
11
-33.7943137205
21
251.6742524235
31
0.0000000000
11
-33.8199122661
21
251.6762791649
31
0.0000000000
0
SPLINE
5
38B
100
AcDbEntity
8
0
100
AcDbSpline
62
7
6
CONTINUOUS
70
0
71
3
72
8
73
4
74
2
42
0.0000001000
43
0.0000001000
44
0.0000000001
12
-0.0304850193
22
0.0007977217
32
0.0000000000
13
-0.0304535634
23
-0.0013443544
33
0.0000000000
40
0.0000000000
40
0.0000000000
40
0.0000000000
40
0.0000000000
40
1.0000000000
40
1.0000000000
40
1.0000000000
40
1.0000000000
10
-33.8199122661
20
251.6762791649
30
0.0000000000
10
-33.8300739392
20
251.6765450721
30
0.0000000000
10
-33.8402377346
20
251.6763431411
30
0.0000000000
10
-33.8503889224
20
251.6758950229
30
0.0000000000
11
-33.8199122661
21
251.6762791649
31
0.0000000000
11
-33.8503889224
21
251.6758950229
31
0.0000000000
0
SPLINE
5
38C
100
AcDbEntity
8
0
100
AcDbSpline
62
7
6
CONTINUOUS
70
0
71
3
72
9
73
5
74
3
42
0.0000001000
43
0.0000001000
44
0.0000000001
12
-0.0616600254
22
-0.0027219451
32
0.0000000000
13
-0.0612650701
23
-0.0074519145
33
0.0000000000
40
0.0000000000
40
0.0000000000
40
0.0000000000
40
0.0000000000
40
0.5991729697
40
1.0000000000
40
1.0000000000
40
1.0000000000
40
1.0000000000
10
-33.8503889224
20
251.6758950229
30
0.0000000000
10
-33.8627039293
20
251.6753513843
30
0.0000000000
10
-33.8832263029
20
251.6738393572
30
0.0000000000
10
-33.9036820006
20
251.6716276967
30
0.0000000000
10
-33.9118675660
20
251.6706320538
30
0.0000000000
11
-33.8503889224
21
251.6758950229
31
0.0000000000
11
-33.8872728952
21
251.6732882786
31
0.0000000000
11
-33.9118675660
21
251.6706320538
31
0.0000000000
0
SPLINE
5
38D
100
AcDbEntity
8
0
100
AcDbSpline
62
7
6
CONTINUOUS
70
0
71
3
72
8
73
4
74
2
42
0.0000001000
43
0.0000001000
44
0.0000000001
12
-0.0121258853
22
-0.0006742997
32
0.0000000000
13
-0.0121403917
23
-0.0004857074
33
0.0000000000
40
0.0000000000
40
0.0000000000
40
0.0000000000
40
0.0000000000
40
1.0000000000
40
1.0000000000
40
1.0000000000
40
1.0000000000
10
-33.5053123650
20
251.3449682501
30
0.0000000000
10
-33.5093543268
20
251.3447434836
30
0.0000000000
10
-33.5133986733
20
251.3445498106
30
0.0000000000
10
-33.5174454705
20
251.3443879082
30
0.0000000000
11
-33.5053123650
21
251.3449682501
31
0.0000000000
11
-33.5174454705
21
251.3443879082
31
0.0000000000
0
SPLINE
5
38E
100
AcDbEntity
8
0
100
AcDbSpline
62
7
6
CONTINUOUS
70
0
71
3
72
8
73
4
74
2
42
0.0000001000
43
0.0000001000
44
0.0000000001
12
-0.0226721203
22
-0.0009070561
32
0.0000000000
13
-0.0227246917
23
-0.0002290275
33
0.0000000000
40
0.0000000000
40
0.0000000000
40
0.0000000000
40
0.0000000000
40
1.0000000000
40
1.0000000000
40
1.0000000000
40
1.0000000000
10
-33.5174454705
20
251.3443879082
30
0.0000000000
10
-33.5250028440
20
251.3440855562
30
0.0000000000
10
-33.5325687644
20
251.3438940048
30
0.0000000000
10
-33.5401436616
20
251.3438176623
30
0.0000000000
11
-33.5174454705
21
251.3443879082
31
0.0000000000
11
-33.5401436616
21
251.3438176623
31
0.0000000000
0
SPLINE
5
38F
100
AcDbEntity
8
0
100
AcDbSpline
62
7
6
CONTINUOUS
70
0
71
3
72
11
73
7
74
5
42
0.0000001000
43
0.0000001000
44
0.0000000001
12
-0.1625355335
22
-0.0016380908
32
0.0000000000
13
-0.1430045884
23
0.0452983136
33
0.0000000000
40
0.0000000000
40
0.0000000000
40
0.0000000000
40
0.0000000000
40
0.3921400466
40
0.7167710143
40
0.9507098624
40
1.0000000000
40
1.0000000000
40
1.0000000000
40
1.0000000000
10
-33.5401436616
20
251.3438176623
30
0.0000000000
10
-33.5613892255
20
251.3436035420
30
0.0000000000
10
-33.6003518880
20
251.3448687265
30
0.0000000000
10
-33.6507191098
20
251.3502051315
30
0.0000000000
10
-33.6843926861
20
251.3588861562
30
0.0000000000
10
-33.6975613449
20
251.3623458808
30
0.0000000000
10
-33.6999109168
20
251.3630901342
30
0.0000000000
11
-33.5401436616
21
251.3438176623
31
0.0000000000
11
-33.6037255148
21
251.3458134167
31
0.0000000000
11
-33.6559801233
21
251.3523496239
31
0.0000000000
11
-33.6929015180
21
251.3611239720
31
0.0000000000
11
-33.6999109168
21
251.3630901342
31
0.0000000000
0
SPLINE
5
390
100
AcDbEntity
8
0
100
AcDbSpline
62
7
6
CONTINUOUS
70
0
71
3
72
9
73
5
74
3
42
0.0000001000
43
0.0000001000
44
0.0000000001
12
-0.0148819146
22
0.0047140140
32
0.0000000000
13
-0.0133048910
23
0.0072041476
33
0.0000000000
40
0.0000000000
40
0.0000000000
40
0.0000000000
40
0.0000000000
40
0.8019985287
40
1.0000000000
40
1.0000000000
40
1.0000000000
40
1.0000000000
10
-33.6999109168
20
251.3630901342
30
0.0000000000
10
-33.7038893413
20
251.3643503449
30
0.0000000000
10
-33.7090567541
20
251.3664298992
30
0.0000000000
10
-33.7154949200
20
251.3703498967
30
0.0000000000
10
-33.7163730494
20
251.3708253740
30
0.0000000000
11
-33.6999109168
21
251.3630901342
31
0.0000000000
11
-33.7129952067
21
251.3688697200
31
0.0000000000
11
-33.7163730494
21
251.3708253740
31
0.0000000000
0
SPLINE
5
391
100
AcDbEntity
8
0
100
AcDbSpline
62
7
6
CONTINUOUS
70
0
71
3
72
10
73
6
74
4
42
0.0000001000
43
0.0000001000
44
0.0000000001
12
-0.6103837428
22
0.0337146206
32
0.0000000000
13
-0.6103824095
23
-0.0337146639
33
0.0000000000
40
0.0000000000
40
0.0000000000
40
0.0000000000
40
0.0000000000
40
0.3162379388
40
0.6798529955
40
1.0000000000
40
1.0000000000
40
1.0000000000
40
1.0000000000
10
-32.8942828162
20
251.3449849486
30
0.0000000000
10
-32.9586249818
20
251.3485388960
30
0.0000000000
10
-33.0970940528
20
251.3537660674
30
0.0000000000
10
-33.3009088134
20
251.3538099970
30
0.0000000000
10
-33.4401757836
20
251.3485828535
30
0.0000000000
10
-33.5053131503
20
251.3449849706
30
0.0000000000
11
-32.8942828162
21
251.3449849486
31
0.0000000000
11
-33.0874650737
21
251.3522772567
31
0.0000000000
11
-33.3097417091
21
251.3523251953
31
0.0000000000
11
-33.5053131503
21
251.3449849706
31
0.0000000000
0
SPLINE
5
392
100
AcDbEntity
8
0
100
AcDbSpline
62
7
6
CONTINUOUS
70
0
71
3
72
9
73
5
74
3
42
0.0000001000
43
0.0000001000
44
0.0000000001
12
-0.0152042181
22
-0.0087117897
32
0.0000000000
13
-0.0143642103
23
-0.0045149261
33
0.0000000000
40
0.0000000000
40
0.0000000000
40
0.0000000000
40
0.0000000000
40
0.1424866664
40
1.0000000000
40
1.0000000000
40
1.0000000000
40
1.0000000000
10
-32.6838698839
20
251.3704370732
30
0.0000000000
10
-32.6845920167
20
251.3700233019
30
0.0000000000
10
-32.6906600651
20
251.3663866760
30
0.0000000000
10
-32.6955943153
20
251.3644349257
30
0.0000000000
10
-32.6997001492
20
251.3631443892
30
0.0000000000
11
-32.6838698839
21
251.3704370732
31
0.0000000000
11
-32.6862982298
21
251.3690211676
31
0.0000000000
11
-32.6997001492
21
251.3631443892
31
0.0000000000
0
SPLINE
5
393
100
AcDbEntity
8
0
100
AcDbSpline
62
7
6
CONTINUOUS
70
0
71
3
72
11
73
7
74
5
42
0.0000001000
43
0.0000001000
44
0.0000000001
12
-0.1401325979
22
-0.0440425303
32
0.0000000000
13
-0.1595286702
23
0.0010276725
33
0.0000000000
40
0.0000000000
40
0.0000000000
40
0.0000000000
40
0.0000000000
40
0.0438216188
40
0.2774879323
40
0.6034667719
40
1.0000000000
40
1.0000000000
40
1.0000000000
40
1.0000000000
10
-32.6997020556
20
251.3631437900
30
0.0000000000
10
-32.7017490014
20
251.3625004517
30
0.0000000000
10
-32.7145135865
20
251.3590294672
30
0.0000000000
10
-32.7472131481
20
251.3505340605
30
0.0000000000
10
-32.7969532770
20
251.3450303991
30
0.0000000000
10
-32.8354896422
20
251.3436518037
30
0.0000000000
10
-32.8565757817
20
251.3437876391
30
0.0000000000
11
-32.6997020556
21
251.3631437900
31
0.0000000000
11
-32.7058372830
21
251.3613932992
31
0.0000000000
11
-32.7419997203
21
251.3526454928
31
0.0000000000
11
-32.7934767416
21
251.3460024163
31
0.0000000000
11
-32.8565757817
21
251.3437876391
31
0.0000000000
0
SPLINE
5
394
100
AcDbEntity
8
0
100
AcDbSpline
62
7
6
CONTINUOUS
70
0
71
3
72
8
73
4
74
2
42
0.0000001000
43
0.0000001000
44
0.0000000001
12
-0.0377751027
22
0.0002433446
32
0.0000000000
13
-0.0376420626
23
0.0020944388
33
0.0000000000
40
0.0000000000
40
0.0000000000
40
0.0000000000
40
0.0000000000
40
1.0000000000
40
1.0000000000
40
1.0000000000
40
1.0000000000
10
-32.8565757817
20
251.3437876391
30
0.0000000000
10
-32.8691674826
20
251.3438687539
30
0.0000000000
10
-32.8817365005
20
251.3442681095
30
0.0000000000
10
-32.8942838547
20
251.3449662557
30
0.0000000000
11
-32.8565757817
21
251.3437876391
31
0.0000000000
11
-32.8942838547
21
251.3449662557
31
0.0000000000
0
SPLINE
5
395
100
AcDbEntity
8
0
100
AcDbSpline
62
7
6
CONTINUOUS
70
0
71
3
72
9
73
5
74
3
42
0.0000001000
43
0.0000001000
44
0.0000000001
12
-0.0603938318
22
0.0073448720
32
0.0000000000
13
-0.0607785955
23
0.0027725077
33
0.0000000000
40
0.0000000000
40
0.0000000000
40
0.0000000000
40
0.0000000000
40
0.3869911088
40
1.0000000000
40
1.0000000000
40
1.0000000000
40
1.0000000000
10
-32.4877285111
20
251.6706323179
30
0.0000000000
10
-32.4955191364
20
251.6715797846
30
0.0000000000
10
-32.5156823382
20
251.6737721802
30
0.0000000000
10
-32.5359106837
20
251.6752892306
30
0.0000000000
10
-32.5483299569
20
251.6758557545
30
0.0000000000
11
-32.4877285111
21
251.6706323179
31
0.0000000000
11
-32.5111348521
21
251.6731755186
31
0.0000000000
11
-32.5483299569
21
251.6758557545
31
0.0000000000
0
SPLINE
5
396
100
AcDbEntity
8
0
100
AcDbSpline
62
7
6
CONTINUOUS
70
0
71
3
72
9
73
5
74
3
42
0.0000001000
43
0.0000001000
44
0.0000000001
12
-0.0564442669
22
0.0025747907
32
0.0000000000
13
-0.0559810452
23
-0.0080425123
33
0.0000000000
40
0.0000000000
40
0.0000000000
40
0.0000000000
40
0.0000000000
40
0.5438656546
40
1.0000000000
40
1.0000000000
40
1.0000000000
40
1.0000000000
10
-32.5483299569
20
251.6758557545
30
0.0000000000
10
-32.5585626563
20
251.6763225346
30
0.0000000000
10
-32.5774012751
20
251.6767271377
30
0.0000000000
10
-32.5962354514
20
251.6755524171
30
0.0000000000
10
-32.6047470772
20
251.6743295950
30
0.0000000000
11
-32.5483299569
21
251.6758557545
31
0.0000000000
11
-32.5790526977
21
251.6762954861
31
0.0000000000
11
-32.6047470772
21
251.6743295950
31
0.0000000000
0
SPLINE
5
397
100
AcDbEntity
8
0
100
AcDbSpline
62
7
6
CONTINUOUS
70
0
71
3
72
8
73
4
74
2
42
0.0000001000
43
0.0000001000
44
0.0000000001
12
-0.0253563285
22
-0.0036428149
32
0.0000000000
13
-0.0242042291
23
-0.0084543714
33
0.0000000000
40
0.0000000000
40
0.0000000000
40
0.0000000000
40
0.0000000000
40
1.0000000000
40
1.0000000000
40
1.0000000000
40
1.0000000000
10
-32.6047470772
20
251.6743295950
30
0.0000000000
10
-32.6131991867
20
251.6731153234
30
0.0000000000
10
-32.6215731122
20
251.6712236340
30
0.0000000000
10
-32.6296411886
20
251.6684055102
30
0.0000000000
11
-32.6047470772
21
251.6743295950
31
0.0000000000
11
-32.6296411886
21
251.6684055102
31
0.0000000000
0
SPLINE
5
398
100
AcDbEntity
8
0
100
AcDbSpline
62
7
6
CONTINUOUS
70
0
71
3
72
11
73
7
74
5
42
0.0000001000
43
0.0000001000
44
0.0000000001
12
-0.1097795045
22
-0.0383452287
32
0.0000000000
13
-0.0129853403
23
-0.1160160106
33
0.0000000000
40
0.0000000000
40
0.0000000000
40
0.0000000000
40
0.0000000000
40
0.2448027718
40
0.5034455926
40
0.7877064745
40
1.0000000000
40
1.0000000000
40
1.0000000000
40
1.0000000000
10
-32.6296411886
20
251.6684055102
30
0.0000000000
10
-32.6385992976
20
251.6652765041
30
0.0000000000
10
-32.6562465482
20
251.6564928054
30
0.0000000000
10
-32.6790146973
20
251.6355791900
30
0.0000000000
10
-32.6937578273
20
251.6097922578
30
0.0000000000
10
-32.6982405336
20
251.5907790728
30
0.0000000000
10
-32.6991594349
20
251.5825692569
30
0.0000000000
11
-32.6296411886
21
251.6684055102
31
0.0000000000
11
-32.6550295074
21
251.6556507043
31
0.0000000000
11
-32.6771181658
21
251.6353233841
31
0.0000000000
11
-32.6934550048
21
251.6066604656
31
0.0000000000
11
-32.6991594349
21
251.5825692569
31
0.0000000000
0
SPLINE
5
399
100
AcDbEntity
8
0
100
AcDbSpline
62
7
6
CONTINUOUS
70
0
71
3
72
8
73
4
74
2
42
0.0000001000
43
0.0000001000
44
0.0000000001
12
-0.0012512757
22
-0.0111793772
32
0.0000000000
13
-0.0000054201
23
-0.0111967750
33
0.0000000000
40
0.0000000000
40
0.0000000000
40
0.0000000000
40
0.0000000000
40
1.0000000000
40
1.0000000000
40
1.0000000000
40
1.0000000000
10
-32.6991594349
20
251.5825692569
30
0.0000000000
10
-32.6995765268
20
251.5788427978
30
0.0000000000
10
-32.6997880843
20
251.5750996408
30
0.0000000000
10
-32.6997898910
20
251.5713673825
30
0.0000000000
11
-32.6991594349
21
251.5825692569
31
0.0000000000
11
-32.6997898910
21
251.5713673825
31
0.0000000000
0
SPLINE
5
39A
100
AcDbEntity
8
0
100
AcDbSpline
62
7
6
CONTINUOUS
70
0
71
3
72
10
73
6
74
4
42
0.0000001000
43
0.0000001000
44
0.0000000001
12
-1.0911208316
22
0.3562194201
32
0.0000000000
13
-1.1394011973
23
0.1385349433
33
0.0000000000
40
0.0000000000
40
0.0000000000
40
0.0000000000
40
0.0000000000
40
0.3242092501
40
0.6736871094
40
1.0000000000
40
1.0000000000
40
1.0000000000
40
1.0000000000
10
-31.3687626174
20
251.4224313650
30
0.0000000000
10
-31.4866797730
20
251.4609279087
30
0.0000000000
10
-31.7342996212
20
251.5332135536
30
0.0000000000
10
-32.1080447332
20
251.6161945463
30
0.0000000000
10
-32.3637949478
20
251.6555620715
30
0.0000000000
10
-32.4877287139
20
251.6706306507
30
0.0000000000
11
-31.3687626174
21
251.4224313650
31
0.0000000000
11
-31.7259770773
21
251.5267081372
31
0.0000000000
11
-32.1175520879
21
251.6136479244
31
0.0000000000
11
-32.4877287139
21
251.6706306507
31
0.0000000000
0
SPLINE
5
39B
100
AcDbEntity
8
0
100
AcDbSpline
62
7
6
CONTINUOUS
70
0
71
3
72
8
73
4
74
2
42
0.0000001000
43
0.0000001000
44
0.0000000001
12
0.0000338558
22
0.0001072465
32
0.0000000000
13
-0.0041573908
23
0.0006697597
33
0.0000000000
40
0.0000000000
40
0.0000000000
40
0.0000000000
40
0.0000000000
40
1.0000000000
40
1.0000000000
40
1.0000000000
40
1.0000000000
10
-31.0977217995
20
251.3434953450
30
0.0000000000
10
-31.0977105142
20
251.3435310938
30
0.0000000000
10
-31.0989160027
20
251.3437248224
30
0.0000000000
10
-31.1003017997
20
251.3439480756
30
0.0000000000
11
-31.0977217995
21
251.3434953450
31
0.0000000000
11
-31.1003017997
21
251.3439480756
31
0.0000000000
0
SPLINE
5
39C
100
AcDbEntity
8
0
100
AcDbSpline
62
7
6
CONTINUOUS
70
0
71
3
72
11
73
7
74
5
42
0.0000001000
43
0.0000001000
44
0.0000000001
12
-0.0393958245
22
0.0063467055
32
0.0000000000
13
-0.0252524804
23
0.0062307611
33
0.0000000000
40
0.0000000000
40
0.0000000000
40
0.0000000000
40
0.0000000000
40
0.0437461441
40
0.3811931805
40
0.8487327780
40
1.0000000000
40
1.0000000000
40
1.0000000000
40
1.0000000000
10
-31.1003017997
20
251.3439480756
30
0.0000000000
10
-31.1008762715
20
251.3440406236
30
0.0000000000
10
-31.1061520754
20
251.3448912747
30
0.0000000000
10
-31.1106546263
20
251.3460959936
30
0.0000000000
10
-31.1195516130
20
251.3480826953
30
0.0000000000
10
-31.1248390896
20
251.3493657215
30
0.0000000000
10
-31.1261123805
20
251.3496798915
30
0.0000000000
11
-31.1003017997
21
251.3439480756
31
0.0000000000
11
-31.1020443357
21
251.3442317898
31
0.0000000000
11
-31.1105301620
21
251.3460044363
31
0.0000000000
11
-31.1222259647
21
251.3487382951
31
0.0000000000
11
-31.1261123805
21
251.3496798915
31
0.0000000000
0
SPLINE
5
39D
100
AcDbEntity
8
0
100
AcDbSpline
62
7
6
CONTINUOUS
70
0
71
3
72
18
73
14
74
12
42
0.0000001000
43
0.0000001000
44
0.0000000001
12
-0.2491589938
22
0.0614771357
32
0.0000000000
13
-0.2409641088
23
0.0786527442
33
0.0000000000
40
0.0000000000
40
0.0000000000
40
0.0000000000
40
0.0000000000
40
0.0441584266
40
0.1147243445
40
0.1955767258
40
0.2863024203
40
0.3862697342
40
0.4948207329
40
0.6111644276
40
0.7344498212
40
0.8637745550
40
0.9980510664
40
1.0000000000
40
1.0000000000
40
1.0000000000
40
1.0000000000
10
-31.1261123805
20
251.3496798915
30
0.0000000000
10
-31.1297798702
20
251.3505848027
30
0.0000000000
10
-31.1388935496
20
251.3529472964
30
0.0000000000
10
-31.1550269187
20
251.3572154409
30
0.0000000000
10
-31.1746847790
20
251.3626735423
30
0.0000000000
10
-31.1967600935
20
251.3689929208
30
0.0000000000
10
-31.2210125776
20
251.3761204073
30
0.0000000000
10
-31.2472981254
20
251.3840309835
30
0.0000000000
10
-31.2754182247
20
251.3926726314
30
0.0000000000
10
-31.3051694002
20
251.4019826565
30
0.0000000000
10
-31.3363179227
20
251.4118987647
30
0.0000000000
10
-31.3576651323
20
251.4188061009
30
0.0000000000
10
-31.3686070759
20
251.4223772065
30
0.0000000000
10
-31.3687636169
20
251.4224283028
30
0.0000000000
11
-31.1261123805
21
251.3496798915
31
0.0000000000
11
-31.1368476091
21
251.3524244090
31
0.0000000000
11
-31.1541353365
21
251.3570145463
31
0.0000000000
11
-31.1738875284
21
251.3624788485
31
0.0000000000
11
-31.1959980354
21
251.3688014359
31
0.0000000000
11
-31.2203105370
21
251.3759414678
31
0.0000000000
11
-31.2466597426
21
251.3838657950
31
0.0000000000
11
-31.2748504458
21
251.3925237332
31
0.0000000000
11
-31.3046748355
21
251.4018541463
31
0.0000000000
11
-31.3359115038
21
251.4117960146
31
0.0000000000
11
-31.3682939883
21
251.4222750308
31
0.0000000000
11
-31.3687636169
21
251.4224283028
31
0.0000000000
0
SPLINE
5
39E
100
AcDbEntity
8
0
100
AcDbSpline
62
7
6
CONTINUOUS
70
0
71
3
72
8
73
4
74
2
42
0.0000001000
43
0.0000001000
44
0.0000000001
12
0.0000338947
22
0.0001160309
32
0.0000000000
13
-0.0042056179
23
0.0006729367
33
0.0000000000
40
0.0000000000
40
0.0000000000
40
0.0000000000
40
0.0000000000
40
1.0000000000
40
1.0000000000
40
1.0000000000
40
1.0000000000
10
-31.0977273017
20
251.3435061477
30
0.0000000000
10
-31.0977160035
20
251.3435448247
30
0.0000000000
10
-31.0988980977
20
251.3437354681
30
0.0000000000
10
-31.1002999703
20
251.3439597803
30
0.0000000000
11
-31.0977273017
21
251.3435061477
31
0.0000000000
11
-31.1002999703
21
251.3439597803
31
0.0000000000
0
SPLINE
5
39F
100
AcDbEntity
8
0
100
AcDbSpline
62
7
6
CONTINUOUS
70
0
71
3
72
17
73
13
74
11
42
0.0000001000
43
0.0000001000
44
0.0000000001
12
-0.2509708435
22
0.0616478837
32
0.0000000000
13
-0.2409606472
23
0.0786734263
33
0.0000000000
40
0.0000000000
40
0.0000000000
40
0.0000000000
40
0.0000000000
40
0.0479700867
40
0.1192779108
40
0.2010034140
40
0.2926090716
40
0.3934274926
40
0.5028415426
40
0.6200107320
40
0.7441297324
40
0.8743023083
40
1.0000000000
40
1.0000000000
40
1.0000000000
40
1.0000000000
10
-31.1261045955
20
251.3496813386
30
0.0000000000
10
-31.1301176266
20
251.3506670901
30
0.0000000000
10
-31.1395641561
20
251.3531202726
30
0.0000000000
10
-31.1561523002
20
251.3575192868
30
0.0000000000
10
-31.1760049478
20
251.3630495455
30
0.0000000000
10
-31.1982919307
20
251.3694346108
30
0.0000000000
10
-31.2227506890
20
251.3766373970
30
0.0000000000
10
-31.2492377374
20
251.3846245415
30
0.0000000000
10
-31.2775594095
20
251.3933368287
30
0.0000000000
10
-31.3075097872
20
251.4027208705
30
0.0000000000
10
-31.3381002718
20
251.4124700606
30
0.0000000000
10
-31.3586675459
20
251.4191319688
30
0.0000000000
10
-31.3687636116
20
251.4224283249
30
0.0000000000
11
-31.1261045955
21
251.3496813386
31
0.0000000000
11
-31.1377800865
21
251.3526657199
31
0.0000000000
11
-31.1552468475
21
251.3573152338
31
0.0000000000
11
-31.1752087212
21
251.3628525787
31
0.0000000000
11
-31.1975315416
21
251.3692450139
31
0.0000000000
11
-31.2220477837
21
251.3764580231
31
0.0000000000
11
-31.2486027460
21
251.3844589598
31
0.0000000000
11
-31.2769908584
21
251.3931880830
31
0.0000000000
11
-31.3070141171
21
251.4025918082
31
0.0000000000
11
-31.3384524431
21
251.4126100215
31
0.0000000000
11
-31.3687636116
21
251.4224283249
31
0.0000000000
0
SPLINE
5
3A0
100
AcDbEntity
8
0
100
AcDbSpline
62
7
6
CONTINUOUS
70
0
71
3
72
16
73
12
74
10
42
0.0000001000
43
0.0000001000
44
0.0000000001
12
-0.2571082013
22
0.0312732353
32
0.0000000000
13
-0.0289956003
23
-0.2588563033
33
0.0000000000
40
0.0000000000
40
0.0000000000
40
0.0000000000
40
0.0000000000
40
0.0957177787
40
0.2385228785
40
0.3560819468
40
0.4550440047
40
0.5535147798
40
0.6628920152
40
0.7781856162
40
0.9049357695
40
1.0000000000
40
1.0000000000
40
1.0000000000
40
1.0000000000
10
-32.4877285421
20
251.6706320607
30
0.0000000000
10
-32.4959318174
20
251.6716298622
30
0.0000000000
10
-32.5164079977
20
251.6738431453
30
0.0000000000
10
-32.5470758235
20
251.6761004953
30
0.0000000000
10
-32.5781081533
20
251.6767139615
30
0.0000000000
10
-32.6053009103
20
251.6749456476
30
0.0000000000
10
-32.6312814851
20
251.6689714342
30
0.0000000000
10
-32.6565089626
20
251.6562969736
30
0.0000000000
10
-32.6791135453
20
251.6354178594
30
0.0000000000
10
-32.6937700477
20
251.6097221174
30
0.0000000000
10
-32.6982379343
20
251.5907716139
30
0.0000000000
10
-32.6991567491
20
251.5825689555
30
0.0000000000
11
-32.4877285421
21
251.6706320607
31
0.0000000000
11
-32.5123765047
21
251.6732932992
31
0.0000000000
11
-32.5492687045
21
251.6758977228
31
0.0000000000
11
-32.5797120608
21
251.6762784191
31
0.0000000000
11
-32.6052615364
21
251.6742554660
31
0.0000000000
11
-32.6300495493
21
251.6682624034
31
0.0000000000
11
-32.6553151194
21
251.6554539009
31
0.0000000000
11
-32.6772317850
21
251.6351753197
31
0.0000000000
11
-32.6934575721
21
251.6066398249
31
0.0000000000
11
-32.6991567491
21
251.5825689555
31
0.0000000000
0
SPLINE
5
3A1
100
AcDbEntity
8
0
100
AcDbSpline
62
7
6
CONTINUOUS
70
0
71
3
72
12
73
8
74
6
42
0.0000001000
43
0.0000001000
44
0.0000000001
12
-0.1619099871
22
-0.0512868116
32
0.0000000000
13
-0.1836198709
23
0.0070518447
33
0.0000000000
40
0.0000000000
40
0.0000000000
40
0.0000000000
40
0.0000000000
40
0.0435347811
40
0.2501577898
40
0.5368832645
40
0.8832351291
40
1.0000000000
40
1.0000000000
40
1.0000000000
40
1.0000000000
10
-32.6996851920
20
251.3630901342
30
0.0000000000
10
-32.7020347640
20
251.3623458808
30
0.0000000000
10
-32.7152034228
20
251.3588861562
30
0.0000000000
10
-32.7488769990
20
251.3502051315
30
0.0000000000
10
-32.7992442209
20
251.3448687265
30
0.0000000000
10
-32.8453931621
20
251.3433701912
30
0.0000000000
10
-32.8737693652
20
251.3440650392
30
0.0000000000
10
-32.8809161487
20
251.3443395084
30
0.0000000000
11
-32.6996851920
21
251.3630901342
31
0.0000000000
11
-32.7066945908
21
251.3611239720
31
0.0000000000
11
-32.7436159856
21
251.3523496239
31
0.0000000000
11
-32.7958705940
21
251.3458134167
31
0.0000000000
11
-32.8594524472
21
251.3438176623
31
0.0000000000
11
-32.8809161487
21
251.3443395084
31
0.0000000000
0
SPLINE
5
3A2
100
AcDbEntity
8
0
100
AcDbSpline
62
7
6
CONTINUOUS
70
0
71
3
72
10
73
6
74
4
42
0.0000001000
43
0.0000001000
44
0.0000000001
12
-0.6103822664
22
0.0337146560
32
0.0000000000
13
-0.6103836007
23
-0.0337145969
33
0.0000000000
40
0.0000000000
40
0.0000000000
40
0.0000000000
40
0.0000000000
40
0.3201470795
40
0.6837622215
40
1.0000000000
40
1.0000000000
40
1.0000000000
40
1.0000000000
10
-32.8942829586
20
251.3449849706
30
0.0000000000
10
-32.9594203253
20
251.3485828535
30
0.0000000000
10
-33.0986872955
20
251.3538099970
30
0.0000000000
10
-33.3025020082
20
251.3537660674
30
0.0000000000
10
-33.4409710315
20
251.3485388996
30
0.0000000000
10
-33.5053131495
20
251.3449849565
30
0.0000000000
11
-32.8942829586
21
251.3449849706
31
0.0000000000
11
-33.0898543998
21
251.3523251953
31
0.0000000000
11
-33.3121310352
21
251.3522772567
31
0.0000000000
11
-33.5053131495
21
251.3449849565
31
0.0000000000
0
SPLINE
5
3A3
100
AcDbEntity
8
0
100
AcDbSpline
62
7
6
CONTINUOUS
70
0
71
3
72
8
73
4
74
2
42
0.0000001000
43
0.0000001000
44
0.0000000001
12
-0.0133593634
22
-0.0007433272
32
0.0000000000
13
-0.0133758724
23
-0.0005149088
33
0.0000000000
40
0.0000000000
40
0.0000000000
40
0.0000000000
40
0.0000000000
40
1.0000000000
40
1.0000000000
40
1.0000000000
40
1.0000000000
10
-33.5053122541
20
251.3449662557
30
0.0000000000
10
-33.5097653753
20
251.3447184800
30
0.0000000000
10
-33.5142212251
20
251.3445083393
30
0.0000000000
10
-33.5186798493
20
251.3443367030
30
0.0000000000
11
-33.5053122541
21
251.3449662557
31
0.0000000000
11
-33.5186798493
21
251.3443367030
31
0.0000000000
0
SPLINE
5
3A4
100
AcDbEntity
8
0
100
AcDbSpline
62
9
6
CONTINUOUS
70
0
71
3
72
10
73
6
74
4
42
0.0000001000
43
0.0000001000
44
0.0000000001
12
-0.0000000037
22
0.0084211513
32
0.0000000000
13
0.0000000024
23
0.0084211513
33
0.0000000000
40
0.0000000000
40
0.0000000000
40
0.0000000000
40
0.0000000000
40
0.5552522622
40
0.8890061159
40
1.0000000000
40
1.0000000000
40
1.0000000000
40
1.0000000000
10
-35.3358138856
20
251.3382843167
30
0.0000000000
10
-35.3358138862
20
251.3398429378
30
0.0000000000
10
-35.3358138842
20
251.3423384228
30
0.0000000000
10
-35.3358138857
20
251.3451454733
30
0.0000000000
10
-35.3358138857
20
251.3463939026
30
0.0000000000
10
-35.3358138856
20
251.3467054680
30
0.0000000000
11
-35.3358138856
21
251.3382843167
31
0.0000000000
11
-35.3358138850
21
251.3429601800
31
0.0000000000
11
-35.3358138856
21
251.3457707718
31
0.0000000000
11
-35.3358138856
21
251.3467054680
31
0.0000000000
0
SPLINE
5
3A5
100
AcDbEntity
8
0
100
AcDbSpline
62
9
6
CONTINUOUS
70
0
71
3
72
11
73
7
74
5
42
0.0000001000
43
0.0000001000
44
0.0000000001
12
-0.2347482178
22
-0.0766424207
32
0.0000000000
13
-0.2489078788
23
-0.0675589159
33
0.0000000000
40
0.0000000000
40
0.0000000000
40
0.0000000000
40
0.0000000000
40
0.3504046771
40
0.6666687971
40
0.9304468631
40
1.0000000000
40
1.0000000000
40
1.0000000000
40
1.0000000000
10
-35.0306687668
20
251.4219268111
30
0.0000000000
10
-35.0580877247
20
251.4129748569
30
0.0000000000
10
-35.1101891219
20
251.3963221074
30
0.0000000000
10
-35.1840717605
20
251.3736091254
30
0.0000000000
10
-35.2339562071
20
251.3594791230
30
0.0000000000
10
-35.2620173869
20
251.3516118127
30
0.0000000000
10
-35.2677881615
20
251.3500455012
30
0.0000000000
11
-35.0306687668
21
251.4219268111
31
0.0000000000
11
-35.1130881686
21
251.3955739592
31
0.0000000000
11
-35.1877889542
21
251.3727863872
31
0.0000000000
11
-35.2504141187
21
251.3548681602
31
0.0000000000
11
-35.2677881615
21
251.3500455012
31
0.0000000000
0
SPLINE
5
3A6
100
AcDbEntity
8
0
100
AcDbSpline
62
9
6
CONTINUOUS
70
0
71
3
72
10
73
6
74
4
42
0.0000001000
43
0.0000001000
44
0.0000000001
12
-0.0708811429
22
-0.0192386565
32
0.0000000000
13
0.0003549073
23
0.0703206776
33
0.0000000000
40
0.0000000000
40
0.0000000000
40
0.0000000000
40
0.0000000000
40
0.4410278012
40
0.8596420268
40
1.0000000000
40
1.0000000000
40
1.0000000000
40
1.0000000000
10
-35.2677881615
20
251.3500455012
30
0.0000000000
10
-35.2782083464
20
251.3472172404
30
0.0000000000
10
-35.2979821792
20
251.3421829261
30
0.0000000000
10
-35.3147774894
20
251.3400691667
30
0.0000000000
10
-35.3358304903
20
251.3349942941
30
0.0000000000
10
-35.3358138856
20
251.3382843167
30
0.0000000000
11
-35.2677881615
21
251.3500455012
31
0.0000000000
11
-35.2970933073
21
251.3428984637
31
0.0000000000
11
-35.3259931551
21
251.3372974161
31
0.0000000000
11
-35.3358138856
21
251.3382843167
31
0.0000000000
0
SPLINE
5
3A7
100
AcDbEntity
8
0
100
AcDbSpline
62
9
6
CONTINUOUS
70
0
71
3
72
12
73
8
74
6
42
0.0000001000
43
0.0000001000
44
0.0000000001
12
-1.1394044272
22
-0.1385317330
32
0.0000000000
13
-1.0911181987
23
-0.3562226359
33
0.0000000000
40
0.0000000000
40
0.0000000000
40
0.0000000000
40
0.0000000000
40
0.1736997740
40
0.3668447149
40
0.5660151312
40
0.7736035241
40
1.0000000000
40
1.0000000000
40
1.0000000000
40
1.0000000000
10
-33.9118033315
20
251.6701037303
30
0.0000000000
10
-33.9777747620
20
251.6620827534
30
0.0000000000
10
-34.1168274456
20
251.6427868638
30
0.0000000000
10
-34.3301784177
20
251.6053776319
30
0.0000000000
10
-34.5546319374
20
251.5571275169
30
0.0000000000
10
-34.7893256257
20
251.4968712546
30
0.0000000000
10
-34.9483269952
20
251.4488093276
30
0.0000000000
10
-35.0306687668
20
251.4219268111
30
0.0000000000
11
-33.9118033315
21
251.6701037303
31
0.0000000000
11
-34.1092827588
21
251.6426999501
31
0.0000000000
11
-34.3276422969
21
251.6044125294
31
0.0000000000
11
-34.5511433607
21
251.5563672151
31
0.0000000000
11
-34.7819272182
21
251.4971144129
31
0.0000000000
11
-35.0306687668
21
251.4219268111
31
0.0000000000
0
SPLINE
5
3A8
100
AcDbEntity
8
0
100
AcDbSpline
62
9
6
CONTINUOUS
70
0
71
3
72
14
73
10
74
8
42
0.0000001000
43
0.0000001000
44
0.0000000001
12
-0.0001275271
22
0.1030417226
32
0.0000000000
13
-0.1022885817
23
-0.0124361939
33
0.0000000000
40
0.0000000000
40
0.0000000000
40
0.0000000000
40
0.0000000000
40
0.0475695937
40
0.1569696759
40
0.3115077117
40
0.4870765621
40
0.6663493256
40
0.8385288923
40
1.0000000000
40
1.0000000000
40
1.0000000000
40
1.0000000000
10
-33.8100882919
20
251.6701037303
30
0.0000000000
10
-33.8100903140
20
251.6717376146
30
0.0000000000
10
-33.8168888524
20
251.6741865580
30
0.0000000000
10
-33.8262674033
20
251.6749013708
30
0.0000000000
10
-33.8419550696
20
251.6754204022
30
0.0000000000
10
-33.8592509200
20
251.6747967990
30
0.0000000000
10
-33.8773722538
20
251.6736407500
30
0.0000000000
10
-33.8949048534
20
251.6720449204
30
0.0000000000
10
-33.9062977813
20
251.6707730923
30
0.0000000000
10
-33.9118033315
20
251.6701037303
30
0.0000000000
11
-33.8100882919
21
251.6701037303
31
0.0000000000
11
-33.8140205514
21
251.6730300885
31
0.0000000000
11
-33.8251617732
21
251.6747472900
31
0.0000000000
11
-33.8410785866
21
251.6752215602
31
0.0000000000
11
-33.8591624833
21
251.6747171311
31
0.0000000000
11
-33.8775976096
21
251.6735412721
31
0.0000000000
11
-33.8952677385
21
251.6719493524
31
0.0000000000
11
-33.9118033315
21
251.6701037303
31
0.0000000000
0
SPLINE
5
3A9
100
AcDbEntity
8
0
100
AcDbSpline
62
9
6
CONTINUOUS
70
0
71
3
72
12
73
8
74
6
42
0.0000001000
43
0.0000001000
44
0.0000000001
12
-0.0000000955
22
0.2481769191
32
0.0000000000
13
0.0000000361
23
0.2481769192
33
0.0000000000
40
0.0000000000
40
0.0000000000
40
0.0000000000
40
0.0000000000
40
0.3245288541
40
0.5733868835
40
0.7612770168
40
0.8998605882
40
1.0000000000
40
1.0000000000
40
1.0000000000
40
1.0000000000
10
-33.8100882919
20
251.4219268111
30
0.0000000000
10
-33.8100883022
20
251.4487736682
30
0.0000000000
10
-33.8100882829
20
251.4962074649
30
0.0000000000
10
-33.8100882936
20
251.5591845931
30
0.0000000000
10
-33.8100882929
20
251.6067792789
30
0.0000000000
10
-33.8100882906
20
251.6420711219
30
0.0000000000
10
-33.8100882931
20
251.6618196334
30
0.0000000000
10
-33.8100882919
20
251.6701037303
30
0.0000000000
11
-33.8100882919
21
251.4219268111
31
0.0000000000
11
-33.8100882891
21
251.5024673823
31
0.0000000000
11
-33.8100882923
21
251.5642282013
31
0.0000000000
11
-33.8100882924
21
251.6108581958
31
0.0000000000
11
-33.8100882917
21
251.6452514396
31
0.0000000000
11
-33.8100882919
21
251.6701037303
31
0.0000000000
0
SPLINE
5
3AA
100
AcDbEntity
8
0
100
AcDbSpline
62
9
6
CONTINUOUS
70
0
71
3
72
8
73
4
74
2
42
0.0000001000
43
0.0000001000
44
0.0000000001
12
-0.0259648526
22
-0.0014341561
32
0.0000000000
13
-0.0260031346
23
-0.0007031723
33
0.0000000000
40
0.0000000000
40
0.0000000000
40
0.0000000000
40
0.0000000000
40
1.0000000000
40
1.0000000000
40
1.0000000000
40
1.0000000000
10
-33.5049431732
20
251.3382843167
30
0.0000000000
10
-33.5135981240
20
251.3378062647
30
0.0000000000
10
-33.5222616800
20
251.3374476343
30
0.0000000000
10
-33.5309293916
20
251.3372132435
30
0.0000000000
11
-33.5049431732
21
251.3382843167
31
0.0000000000
11
-33.5309293916
21
251.3372132435
31
0.0000000000
0
SPLINE
5
3AB
100
AcDbEntity
8
0
100
AcDbSpline
62
9
6
CONTINUOUS
70
0
71
3
72
10
73
6
74
4
42
0.0000001000
43
0.0000001000
44
0.0000000001
12
-0.1456857917
22
-0.0039396099
32
0.0000000000
13
-0.1438195669
23
0.0241745223
33
0.0000000000
40
0.0000000000
40
0.0000000000
40
0.0000000000
40
0.0000000000
40
0.3486430920
40
0.8460685313
40
1.0000000000
40
1.0000000000
40
1.0000000000
40
1.0000000000
10
-33.5309293916
20
251.3372132435
30
0.0000000000
10
-33.5478601732
20
251.3367554043
30
0.0000000000
10
-33.5889853712
20
251.3367946936
30
0.0000000000
10
-33.6374723166
20
251.3403905686
30
0.0000000000
10
-33.6688156266
20
251.3449794600
30
0.0000000000
10
-33.6761950790
20
251.3462198666
30
0.0000000000
11
-33.5309293916
21
251.3372132435
31
0.0000000000
11
-33.5817361406
21
251.3372977210
31
0.0000000000
11
-33.6539879070
21
251.3429360028
31
0.0000000000
11
-33.6761950790
21
251.3462198666
31
0.0000000000
0
SPLINE
5
3AC
100
AcDbEntity
8
0
100
AcDbSpline
62
9
6
CONTINUOUS
70
0
71
3
72
8
73
4
74
2
42
0.0000001000
43
0.0000001000
44
0.0000000001
12
-0.0237336029
22
0.0039893634
32
0.0000000000
13
-0.0234891810
23
0.0051773087
33
0.0000000000
40
0.0000000000
40
0.0000000000
40
0.0000000000
40
0.0000000000
40
1.0000000000
40
1.0000000000
40
1.0000000000
40
1.0000000000
10
-33.6761950790
20
251.3462198666
30
0.0000000000
10
-33.6841062800
20
251.3475496544
30
0.0000000000
10
-33.6919856065
20
251.3490586653
30
0.0000000000
10
-33.6998153335
20
251.3507844349
30
0.0000000000
11
-33.6761950790
21
251.3462198666
31
0.0000000000
11
-33.6998153335
21
251.3507844349
31
0.0000000000
0
SPLINE
5
3AD
100
AcDbEntity
8
0
100
AcDbSpline
62
9
6
CONTINUOUS
70
0
71
3
72
8
73
4
74
2
42
0.0000001000
43
0.0000001000
44
0.0000000001
12
-0.0172327122
22
0.0037983049
32
0.0000000000
13
-0.0170515376
23
0.0045427719
33
0.0000000000
40
0.0000000000
40
0.0000000000
40
0.0000000000
40
0.0000000000
40
1.0000000000
40
1.0000000000
40
1.0000000000
40
1.0000000000
10
-33.6998153335
20
251.3507844349
30
0.0000000000
10
-33.7055595709
20
251.3520505365
30
0.0000000000
10
-33.7112771121
20
251.3534333051
30
0.0000000000
10
-33.7169609580
20
251.3549475624
30
0.0000000000
11
-33.6998153335
21
251.3507844349
31
0.0000000000
11
-33.7169609580
21
251.3549475624
31
0.0000000000
0
SPLINE
5
3AE
100
AcDbEntity
8
0
100
AcDbSpline
62
9
6
CONTINUOUS
70
0
71
3
72
10
73
6
74
4
42
0.0000001000
43
0.0000001000
44
0.0000000001
12
-0.1168063314
22
0.0311188667
32
0.0000000000
13
0.0000729979
23
0.1208295183
33
0.0000000000
40
0.0000000000
40
0.0000000000
40
0.0000000000
40
0.0000000000
40
0.4363905819
40
0.7617294484
40
1.0000000000
40
1.0000000000
40
1.0000000000
40
1.0000000000
10
-33.7169609580
20
251.3549475624
30
0.0000000000
10
-33.7339520190
20
251.3594742225
30
0.0000000000
10
-33.7630846975
20
251.3694266301
30
0.0000000000
10
-33.7982903699
20
251.3902234532
30
0.0000000000
10
-33.8100940896
20
251.4123301058
30
0.0000000000
10
-33.8100882919
20
251.4219268111
30
0.0000000000
11
-33.7169609580
21
251.3549475624
31
0.0000000000
11
-33.7665719597
21
251.3728104457
31
0.0000000000
11
-33.7986771664
21
251.3954946849
31
0.0000000000
11
-33.8100882919
21
251.4219268111
31
0.0000000000
0
SPLINE
5
3AF
100
AcDbEntity
8
0
100
AcDbSpline
62
9
6
CONTINUOUS
70
0
71
3
72
10
73
6
74
4
42
0.0000001000
43
0.0000001000
44
0.0000000001
12
-0.6096363370
22
0.0336737673
32
0.0000000000
13
-0.6096363343
23
-0.0336738160
33
0.0000000000
40
0.0000000000
40
0.0000000000
40
0.0000000000
40
0.0000000000
40
0.3328661760
40
0.6669943864
40
1.0000000000
40
1.0000000000
40
1.0000000000
40
1.0000000000
10
-32.8946529357
20
251.3382843167
30
0.0000000000
10
-32.9622953744
20
251.3420206028
30
0.0000000000
10
-33.0979879221
20
251.3470181910
30
0.0000000000
10
-33.3015514131
20
251.3470197521
30
0.0000000000
10
-33.4372723993
20
251.3420221733
30
0.0000000000
10
-33.5049431732
20
251.3382843167
30
0.0000000000
11
-32.8946529357
21
251.3382843167
31
0.0000000000
11
-33.0977518863
21
251.3457643208
31
0.0000000000
11
-33.3017590868
21
251.3457658896
31
0.0000000000
11
-33.5049431732
21
251.3382843167
31
0.0000000000
0
SPLINE
5
3B0
100
AcDbEntity
8
0
100
AcDbSpline
62
9
6
CONTINUOUS
70
0
71
3
72
11
73
7
74
5
42
0.0000001000
43
0.0000001000
44
0.0000000001
12
-0.0000256699
22
-0.1384612527
32
0.0000000000
13
-0.1352723955
23
-0.0298191917
33
0.0000000000
40
0.0000000000
40
0.0000000000
40
0.0000000000
40
0.0000000000
40
0.2091032557
40
0.4931166190
40
0.8736295673
40
1.0000000000
40
1.0000000000
40
1.0000000000
40
1.0000000000
10
-32.5895078170
20
251.4219268111
30
0.0000000000
10
-32.5895096062
20
251.4122759116
30
0.0000000000
10
-32.6013987710
20
251.3901270901
30
0.0000000000
10
-32.6366636797
20
251.3693669023
30
0.0000000000
10
-32.6713315566
20
251.3575393443
30
0.0000000000
10
-32.6940820477
20
251.3520403110
30
0.0000000000
10
-32.6997801914
20
251.3507842229
30
0.0000000000
11
-32.5895078170
21
251.4219268111
31
0.0000000000
11
-32.6010340489
21
251.3953673539
31
0.0000000000
11
-32.6331893019
21
251.3727292604
31
0.0000000000
11
-32.6827713207
21
251.3549115820
31
0.0000000000
11
-32.6997801914
21
251.3507842229
31
0.0000000000
0
SPLINE
5
3B1
100
AcDbEntity
8
0
100
AcDbSpline
62
9
6
CONTINUOUS
70
0
71
3
72
8
73
4
74
2
42
0.0000001000
43
0.0000001000
44
0.0000000001
12
-0.0042859530
22
-0.0009447874
32
0.0000000000
13
-0.0042955310
23
-0.0009021475
33
0.0000000000
40
0.0000000000
40
0.0000000000
40
0.0000000000
40
0.0000000000
40
1.0000000000
40
1.0000000000
40
1.0000000000
40
1.0000000000
10
-32.6997801914
20
251.3507842229
30
0.0000000000
10
-32.7012088425
20
251.3504692938
30
0.0000000000
10
-32.7026391435
20
251.3501615855
30
0.0000000000
10
-32.7040709872
20
251.3498608697
30
0.0000000000
11
-32.6997801914
21
251.3507842229
31
0.0000000000
11
-32.7040709872
21
251.3498608697
31
0.0000000000
0
SPLINE
5
3B2
100
AcDbEntity
8
0
100
AcDbSpline
62
9
6
CONTINUOUS
70
0
71
3
72
8
73
4
74
2
42
0.0000001000
43
0.0000001000
44
0.0000000001
12
-0.0193422573
22
-0.0040622611
32
0.0000000000
13
-0.0195005064
23
-0.0032741333
33
0.0000000000
40
0.0000000000
40
0.0000000000
40
0.0000000000
40
0.0000000000
40
1.0000000000
40
1.0000000000
40
1.0000000000
40
1.0000000000
10
-32.7040709872
20
251.3498608697
30
0.0000000000
10
-32.7105184062
20
251.3485067826
30
0.0000000000
10
-32.7169971033
20
251.3472944746
30
0.0000000000
10
-32.7234972721
20
251.3462030969
30
0.0000000000
11
-32.7040709872
21
251.3498608697
31
0.0000000000
11
-32.7234972721
21
251.3462030969
31
0.0000000000
0
SPLINE
5
3B3
100
AcDbEntity
8
0
100
AcDbSpline
62
9
6
CONTINUOUS
70
0
71
3
72
10
73
6
74
4
42
0.0000001000
43
0.0000001000
44
0.0000000001
12
-0.1436554342
22
-0.0241197344
32
0.0000000000
13
-0.1455167566
23
0.0039235326
33
0.0000000000
40
0.0000000000
40
0.0000000000
40
0.0000000000
40
0.0000000000
40
0.1538736103
40
0.6506453984
40
1.0000000000
40
1.0000000000
40
1.0000000000
40
1.0000000000
10
-32.7234972721
20
251.3462030969
30
0.0000000000
10
-32.7308655322
20
251.3449659667
30
0.0000000000
10
-32.7621384428
20
251.3403918815
30
0.0000000000
10
-32.8105685522
20
251.3367973653
30
0.0000000000
10
-32.8516487297
20
251.3367548249
30
0.0000000000
10
-32.8685943792
20
251.3372117263
30
0.0000000000
11
-32.7234972721
21
251.3462030969
31
0.0000000000
11
-32.7456705384
21
251.3429275015
31
0.0000000000
11
-32.8177432056
21
251.3373011889
31
0.0000000000
11
-32.8685943792
21
251.3372117263
31
0.0000000000
0
SPLINE
5
3B4
100
AcDbEntity
8
0
100
AcDbSpline
62
9
6
CONTINUOUS
70
0
71
3
72
8
73
4
74
2
42
0.0000001000
43
0.0000001000
44
0.0000000001
12
-0.0260755307
22
0.0007030681
32
0.0000000000
13
-0.0260370964
23
0.0014371509
33
0.0000000000
40
0.0000000000
40
0.0000000000
40
0.0000000000
40
0.0000000000
40
1.0000000000
40
1.0000000000
40
1.0000000000
40
1.0000000000
10
-32.8685943792
20
251.3372117263
30
0.0000000000
10
-32.8772862228
20
251.3374460823
30
0.0000000000
10
-32.8859739036
20
251.3378052664
30
0.0000000000
10
-32.8946529357
20
251.3382843167
30
0.0000000000
11
-32.8685943792
21
251.3372117263
31
0.0000000000
11
-32.8946529357
21
251.3382843167
31
0.0000000000
0
SPLINE
5
3B5
100
AcDbEntity
8
0
100
AcDbSpline
62
9
6
CONTINUOUS
70
0
71
3
72
12
73
8
74
6
42
0.0000001000
43
0.0000001000
44
0.0000000001
12
0.0000000402
22
-0.2481769192
32
0.0000000000
13
-0.0000000830
23
-0.2481769191
33
0.0000000000
40
0.0000000000
40
0.0000000000
40
0.0000000000
40
0.0000000000
40
0.1005484461
40
0.2392339420
40
0.4272491127
40
0.6764381929
40
1.0000000000
40
1.0000000000
40
1.0000000000
40
1.0000000000
10
-32.5895078170
20
251.6701037303
30
0.0000000000
10
-32.5895078156
20
251.6617857958
30
0.0000000000
10
-32.5895078187
20
251.6419950149
30
0.0000000000
10
-32.5895078138
20
251.6066505587
30
0.0000000000
10
-32.5895078179
20
251.5590097110
30
0.0000000000
10
-32.5895078221
20
251.4960748522
30
0.0000000000
10
-32.5895078080
20
251.4486936686
30
0.0000000000
10
-32.5895078170
20
251.4219268111
30
0.0000000000
11
-32.5895078170
21
251.6701037303
31
0.0000000000
11
-32.5895078172
21
251.6451499267
31
0.0000000000
11
-32.5895078155
21
251.6107313876
31
0.0000000000
11
-32.5895078173
21
251.5640703618
31
0.0000000000
11
-32.5895078184
21
251.5022273836
31
0.0000000000
11
-32.5895078170
21
251.4219268111
31
0.0000000000
0
SPLINE
5
3B6
100
AcDbEntity
8
0
100
AcDbSpline
62
9
6
CONTINUOUS
70
0
71
3
72
14
73
10
74
8
42
0.0000001000
43
0.0000001000
44
0.0000000001
12
-0.1022860762
22
0.0124369244
32
0.0000000000
13
0.0002474778
23
-0.1030391053
33
0.0000000000
40
0.0000000000
40
0.0000000000
40
0.0000000000
40
0.0000000000
40
0.1614060718
40
0.3347621391
40
0.5142394507
40
0.6893348921
40
0.8429827303
40
0.9520038950
40
1.0000000000
40
1.0000000000
40
1.0000000000
40
1.0000000000
10
-32.4877927774
20
251.6701037303
30
0.0000000000
10
-32.4932959753
20
251.6707728620
30
0.0000000000
10
-32.5047266384
20
251.6720489130
30
0.0000000000
10
-32.5223036286
20
251.6736475419
30
0.0000000000
10
-32.5404569272
20
251.6748026309
30
0.0000000000
10
-32.5577102220
20
251.6754182272
30
0.0000000000
10
-32.5733432196
20
251.6749043250
30
0.0000000000
10
-32.5826762634
20
251.6741790758
30
0.0000000000
10
-32.5895117763
20
251.6717522222
30
0.0000000000
10
-32.5895078170
20
251.6701037303
30
0.0000000000
11
-32.4877927774
21
251.6701037303
31
0.0000000000
11
-32.5043213166
21
251.6719486459
31
0.0000000000
11
-32.5221118897
21
251.6735500875
31
0.0000000000
11
-32.5405678607
21
251.6747234887
31
0.0000000000
11
-32.5586027084
21
251.6752217636
31
0.0000000000
11
-32.5744273885
21
251.6747476282
31
0.0000000000
11
-32.5855308326
21
251.6730433674
31
0.0000000000
11
-32.5895078170
21
251.6701037303
31
0.0000000000
0
SPLINE
5
3B7
100
AcDbEntity
8
0
100
AcDbSpline
62
9
6
CONTINUOUS
70
0
71
3
72
10
73
6
74
4
42
0.0000001000
43
0.0000001000
44
0.0000000001
12
-0.0000000011
22
-0.0084211513
32
0.0000000000
13
-0.0000000040
23
-0.0084211513
33
0.0000000000
40
0.0000000000
40
0.0000000000
40
0.0000000000
40
0.0000000000
40
0.1109954972
40
0.4447521893
40
1.0000000000
40
1.0000000000
40
1.0000000000
40
1.0000000000
10
-31.0637822233
20
251.3467054680
30
0.0000000000
10
-31.0637822233
20
251.3463938981
30
0.0000000000
10
-31.0637822235
20
251.3451454563
30
0.0000000000
10
-31.0637822241
20
251.3423384058
30
0.0000000000
10
-31.0637822226
20
251.3398429253
30
0.0000000000
10
-31.0637822233
20
251.3382843167
30
0.0000000000
11
-31.0637822233
21
251.3467054680
31
0.0000000000
11
-31.0637822234
21
251.3457707582
31
0.0000000000
11
-31.0637822237
21
251.3429601426
31
0.0000000000
11
-31.0637822233
21
251.3382843167
31
0.0000000000
0
SPLINE
5
3B8
100
AcDbEntity
8
0
100
AcDbSpline
62
9
6
CONTINUOUS
70
0
71
3
72
12
73
8
74
6
42
0.0000001000
43
0.0000001000
44
0.0000000001
12
-1.0911187217
22
0.3562227291
32
0.0000000000
13
-1.1394049461
23
0.1385318241
33
0.0000000000
40
0.0000000000
40
0.0000000000
40
0.0000000000
40
0.0000000000
40
0.2220767843
40
0.4263822369
40
0.6251590283
40
0.8222368415
40
1.0000000000
40
1.0000000000
40
1.0000000000
40
1.0000000000
10
-31.3689273420
20
251.4219268111
30
0.0000000000
10
-31.4496980544
20
251.4482964105
30
0.0000000000
10
-31.6058918999
20
251.4955813555
30
0.0000000000
10
-31.8375506483
20
251.5553449772
30
0.0000000000
10
-32.0620263196
20
251.6039564382
30
0.0000000000
10
-32.2782006420
20
251.6421222501
30
0.0000000000
10
-32.4202780367
20
251.6618951121
30
0.0000000000
10
-32.4877927774
20
251.6701037303
30
0.0000000000
11
-31.3689273420
21
251.4219268111
31
0.0000000000
11
-31.6128919408
21
251.4957824017
31
0.0000000000
11
-31.8399583306
21
251.5543616195
31
0.0000000000
11
-32.0629447510
21
251.6026505046
31
0.0000000000
11
-32.2857046955
21
251.6419789764
31
0.0000000000
11
-32.4877927774
21
251.6701037303
31
0.0000000000
0
SPLINE
5
3B9
100
AcDbEntity
8
0
100
AcDbSpline
62
9
6
CONTINUOUS
70
0
71
3
72
10
73
6
74
4
42
0.0000001000
43
0.0000001000
44
0.0000000001
12
0.0000305523
22
-0.0705416368
32
0.0000000000
13
-0.0710873922
23
0.0193144344
33
0.0000000000
40
0.0000000000
40
0.0000000000
40
0.0000000000
40
0.0000000000
40
0.1406318942
40
0.5591741542
40
1.0000000000
40
1.0000000000
40
1.0000000000
40
1.0000000000
10
-31.0637822233
20
251.3382843167
30
0.0000000000
10
-31.0637807911
20
251.3349775154
30
0.0000000000
10
-31.0848756859
20
251.3400971484
30
0.0000000000
10
-31.1017500919
20
251.3422091008
30
0.0000000000
10
-31.1215783358
20
251.3472613932
30
0.0000000000
10
-31.1320240557
20
251.3500994938
30
0.0000000000
11
-31.0637822233
21
251.3382843167
31
0.0000000000
11
-31.0736540285
21
251.3373035542
31
0.0000000000
11
-31.1026376304
21
251.3429299476
31
0.0000000000
11
-31.1320240557
21
251.3500994938
31
0.0000000000
0
SPLINE
5
3BA
100
AcDbEntity
8
0
100
AcDbSpline
62
9
6
CONTINUOUS
70
0
71
3
72
11
73
7
74
5
42
0.0000001000
43
0.0000001000
44
0.0000000001
12
-0.2486304027
22
0.0675528451
32
0.0000000000
13
-0.2345404016
23
0.0765660645
33
0.0000000000
40
0.0000000000
40
0.0000000000
40
0.0000000000
40
0.0000000000
40
0.0697732047
40
0.3340318270
40
0.6507837916
40
1.0000000000
40
1.0000000000
40
1.0000000000
40
1.0000000000
10
-31.1320240557
20
251.3500994938
30
0.0000000000
10
-31.1378066357
20
251.3516706200
30
0.0000000000
10
-31.1658928829
20
251.3595537933
30
0.0000000000
10
-31.2158304525
20
251.3736986965
30
0.0000000000
10
-31.2896250869
20
251.3963913122
30
0.0000000000
10
-31.3416255721
20
251.4130141075
30
0.0000000000
10
-31.3689273420
20
251.4219268111
30
0.0000000000
11
-31.1320240557
21
251.3500994938
31
0.0000000000
11
-31.1494329603
21
251.3549367450
31
0.0000000000
11
-31.2121143261
21
251.3728773978
31
0.0000000000
11
-31.2868618120
21
251.3956845719
31
0.0000000000
11
-31.3689273420
21
251.4219268111
31
0.0000000000
0
SPLINE
5
3BB
100
AcDbEntity
8
0
100
AcDbSpline
62
9
6
CONTINUOUS
70
0
71
3
72
9
73
5
74
3
42
0.0000001000
43
0.0000001000
44
0.0000000001
12
-0.0385583277
22
0.0148674323
32
0.0000000000
13
-0.0415816152
23
-0.0019562143
33
0.0000000000
40
0.0000000000
40
0.0000000000
40
0.0000000000
40
0.0000000000
40
0.9326375344
40
1.0000000000
40
1.0000000000
40
1.0000000000
40
1.0000000000
10
-31.0637852944
20
251.3382763761
30
0.0000000000
10
-31.0757722757
20
251.3428983512
30
0.0000000000
10
-31.0897399257
20
251.3453695662
30
0.0000000000
10
-31.1036119954
20
251.3449134691
30
0.0000000000
10
-31.1045456754
20
251.3448695439
30
0.0000000000
11
-31.0637852944
21
251.3382763761
31
0.0000000000
11
-31.1017426480
21
251.3449616335
31
0.0000000000
11
-31.1045456754
21
251.3448695439
31
0.0000000000
0
SPLINE
5
3BC
100
AcDbEntity
8
0
100
AcDbSpline
62
9
6
CONTINUOUS
70
0
71
3
72
11
73
7
74
5
42
0.0000001000
43
0.0000001000
44
0.0000000001
12
-0.1364282044
22
0.0140105337
32
0.0000000000
13
-0.0395342535
23
-0.1327328489
33
0.0000000000
40
0.0000000000
40
0.0000000000
40
0.0000000000
40
0.0000000000
40
0.3028818956
40
0.6052345461
40
0.9066924769
40
1.0000000000
40
1.0000000000
40
1.0000000000
40
1.0000000000
10
-32.5895078184
20
251.6701037165
30
0.0000000000
10
-32.6032816961
20
251.6715182288
30
0.0000000000
10
-32.6317416157
20
251.6685456296
30
0.0000000000
10
-32.6686932590
20
251.6472917724
30
0.0000000000
10
-32.6880888140
20
251.6208567420
30
0.0000000000
10
-32.6944234605
20
251.6037218868
30
0.0000000000
10
-32.6956530749
20
251.5995935624
30
0.0000000000
11
-32.5895078184
21
251.6701037165
31
0.0000000000
11
-32.6308163449
21
251.6657344356
31
0.0000000000
11
-32.6667718366
21
251.6450786192
31
0.0000000000
11
-32.6911692128
21
251.6117009800
31
0.0000000000
11
-32.6956530749
21
251.5995935624
31
0.0000000000
0
SPLINE
5
3BD
100
AcDbEntity
8
0
100
AcDbSpline
62
9
6
CONTINUOUS
70
0
71
3
72
8
73
4
74
2
42
0.0000001000
43
0.0000001000
44
0.0000000001
12
-0.0033860998
22
-0.0113685382
32
0.0000000000
13
-0.0020145149
23
-0.0116653788
33
0.0000000000
40
0.0000000000
40
0.0000000000
40
0.0000000000
40
0.0000000000
40
1.0000000000
40
1.0000000000
40
1.0000000000
40
1.0000000000
10
-32.6956530749
20
251.5995935624
30
0.0000000000
10
-32.6967817748
20
251.5958040496
30
0.0000000000
10
-32.6976849500
20
251.5919485642
30
0.0000000000
10
-32.6983564550
20
251.5880601046
30
0.0000000000
11
-32.6956530749
21
251.5995935624
31
0.0000000000
11
-32.6983564550
21
251.5880601046
31
0.0000000000
0
SPLINE
5
3BE
100
AcDbEntity
8
0
100
AcDbSpline
62
9
6
CONTINUOUS
70
0
71
3
72
8
73
4
74
2
42
0.0000001000
43
0.0000001000
44
0.0000000001
12
-0.0006855855
22
-0.0039699952
32
0.0000000000
13
-0.0005238670
23
-0.0039890075
33
0.0000000000
40
0.0000000000
40
0.0000000000
40
0.0000000000
40
0.0000000000
40
1.0000000000
40
1.0000000000
40
1.0000000000
40
1.0000000000
10
-32.6983564550
20
251.5880601046
30
0.0000000000
10
-32.6985849835
20
251.5867367728
30
0.0000000000
10
-32.6987866800
20
251.5854096221
30
0.0000000000
10
-32.6989613024
20
251.5840799529
30
0.0000000000
11
-32.6983564550
21
251.5880601046
31
0.0000000000
11
-32.6989613024
21
251.5840799529
31
0.0000000000
0
SPLINE
5
3BF
100
AcDbEntity
8
0
100
AcDbSpline
62
9
6
CONTINUOUS
70
0
71
3
72
8
73
4
74
2
42
0.0000001000
43
0.0000001000
44
0.0000000001
12
-0.0016657154
22
-0.0126836605
32
0.0000000000
13
-0.0000000018
23
-0.0127109900
33
0.0000000000
40
0.0000000000
40
0.0000000000
40
0.0000000000
40
0.0000000000
40
1.0000000000
40
1.0000000000
40
1.0000000000
40
1.0000000000
10
-32.6989613024
20
251.5840799529
30
0.0000000000
10
-32.6995165408
20
251.5798520661
30
0.0000000000
10
-32.6997980538
20
251.5755987180
30
0.0000000000
10
-32.6997980544
20
251.5713617213
30
0.0000000000
11
-32.6989613024
21
251.5840799529
31
0.0000000000
11
-32.6997980544
21
251.5713617213
31
0.0000000000
0
SPLINE
5
3C0
100
AcDbEntity
8
0
100
AcDbSpline
62
9
6
CONTINUOUS
70
0
71
3
72
10
73
6
74
4
42
0.0000001000
43
0.0000001000
44
0.0000000001
12
-0.1210365973
22
0.0119148569
32
0.0000000000
13
-0.0533106822
23
-0.1105467502
33
0.0000000000
40
0.0000000000
40
0.0000000000
40
0.0000000000
40
0.0000000000
40
0.3413955304
40
0.6788235121
40
1.0000000000
40
1.0000000000
40
1.0000000000
40
1.0000000000
10
-32.5895082956
20
251.4219224177
30
0.0000000000
10
-32.6032820800
20
251.4232783107
30
0.0000000000
10
-32.6315232046
20
251.4204770587
30
0.0000000000
10
-32.6680596969
20
251.4005141936
30
0.0000000000
10
-32.6849708160
20
251.3788829594
30
0.0000000000
10
-32.6906781952
20
251.3670479537
30
0.0000000000
11
-32.5895082956
21
251.4219224177
31
0.0000000000
11
-32.6308183628
21
251.4177416762
31
0.0000000000
11
-32.6667761464
21
251.3979629061
31
0.0000000000
11
-32.6906781952
21
251.3670479537
31
0.0000000000
0
SPLINE
5
3C1
100
AcDbEntity
8
0
100
AcDbSpline
62
9
6
CONTINUOUS
70
0
71
3
72
10
73
6
74
4
42
0.0000001000
43
0.0000001000
44
0.0000000001
12
0.1210105791
22
0.0119005592
32
0.0000000000
13
0.0533247757
23
-0.1105085263
33
0.0000000000
40
0.0000000000
40
0.0000000000
40
0.0000000000
40
0.0000000000
40
0.3414622253
40
0.6789559621
40
1.0000000000
40
1.0000000000
40
1.0000000000
40
1.0000000000
10
-33.8100882847
20
251.4219267447
30
0.0000000000
10
-33.7963147708
20
251.4232812752
30
0.0000000000
10
-33.7680748067
20
251.4204777349
30
0.0000000000
10
-33.7315478748
20
251.4005171049
30
0.0000000000
10
-33.7146410641
20
251.3788948329
30
0.0000000000
10
-33.7089345303
20
251.3670687984
30
0.0000000000
11
-33.8100882847
21
251.4219267447
31
0.0000000000
11
-33.7687797731
21
251.4177426308
31
0.0000000000
11
-33.7328242910
21
251.3979621958
31
0.0000000000
11
-33.7089345303
21
251.3670687984
31
0.0000000000
0
SPLINE
5
3C2
100
AcDbEntity
8
0
100
AcDbSpline
62
9
6
CONTINUOUS
70
0
71
3
72
11
73
7
74
5
42
0.0000001000
43
0.0000001000
44
0.0000000001
12
0.1647257712
22
0.0169074676
32
0.0000000000
13
0.0000024998
23
-0.1655911898
33
0.0000000000
40
0.0000000000
40
0.0000000000
40
0.0000000000
40
0.0000000000
40
0.2508328946
40
0.5012304873
40
0.7508912799
40
1.0000000000
40
1.0000000000
40
1.0000000000
40
1.0000000000
10
-33.8100882817
20
251.6701036328
30
0.0000000000
10
-33.7963154011
20
251.6715172825
30
0.0000000000
10
-33.7678576969
20
251.6685432991
30
0.0000000000
10
-33.7309096181
20
251.6472888723
30
0.0000000000
10
-33.7057440404
20
251.6129870709
30
0.0000000000
10
-33.6998078019
20
251.5851117908
30
0.0000000000
10
-33.6998075943
20
251.5713617210
30
0.0000000000
11
-33.8100882817
21
251.6701036328
31
0.0000000000
11
-33.7687832162
21
251.6657324335
31
0.0000000000
11
-33.7328311256
21
251.6450761938
31
0.0000000000
11
-33.7084360188
21
251.6116994212
31
0.0000000000
11
-33.6998075943
21
251.5713617210
31
0.0000000000
0
SPLINE
5
3C3
100
AcDbEntity
8
0
100
AcDbSpline
62
9
6
CONTINUOUS
70
0
71
3
72
9
73
5
74
3
42
0.0000001000
43
0.0000001000
44
0.0000000001
12
0.0385822683
22
0.0148726601
32
0.0000000000
13
0.0416051680
23
-0.0019714101
33
0.0000000000
40
0.0000000000
40
0.0000000000
40
0.0000000000
40
0.0000000000
40
0.9320597385
40
1.0000000000
40
1.0000000000
40
1.0000000000
40
1.0000000000
10
-35.3358138836
20
251.3382843117
30
0.0000000000
10
-35.3238268907
20
251.3429050476
30
0.0000000000
10
-35.3098508745
20
251.3453765539
30
0.0000000000
10
-35.2959707787
20
251.3449172936
30
0.0000000000
10
-35.2950285567
20
251.3448726476
30
0.0000000000
11
-35.3358138836
21
251.3382843117
31
0.0000000000
11
-35.2978572561
21
251.3449661701
31
0.0000000000
11
-35.2950285567
21
251.3448726476
31
0.0000000000
0
SPLINE
5
3C4
100
AcDbEntity
8
0
100
AcDbSpline
62
7
6
CONTINUOUS
70
0
71
3
72
16
73
12
74
10
42
0.0000001000
43
0.0000001000
44
0.0000000001
12
0.0289744044
22
-0.2588793067
32
0.0000000000
13
0.2571086795
23
0.0312684163
33
0.0000000000
40
0.0000000000
40
0.0000000000
40
0.0000000000
40
0.0000000000
40
0.0950980898
40
0.2223386279
40
0.3380988178
40
0.4476222810
40
0.5468622451
40
0.6466093114
40
0.7654231273
40
0.9093720201
40
1.0000000000
40
1.0000000000
40
1.0000000000
40
1.0000000000
10
-247.6991594856
20
-383.0931442642
30
0.0000000000
10
-247.6982410154
20
-383.1013505734
30
0.0000000000
10
-247.6937632517
20
-383.1203475101
30
0.0000000000
10
-247.6790434439
20
-383.1461118815
30
0.0000000000
10
-247.6563215376
20
-383.1670115250
30
0.0000000000
10
-247.6309527868
20
-383.1796730148
30
0.0000000000
10
-247.6048078633
20
-383.1855951471
30
0.0000000000
10
-247.5773693288
20
-383.1873041368
30
0.0000000000
10
-247.5460636982
20
-383.1866276955
30
0.0000000000
10
-247.5156312907
20
-383.1843425383
30
0.0000000000
10
-247.4954955925
20
-383.1821523551
30
0.0000000000
10
-247.4877285124
20
-383.1812077573
30
0.0000000000
11
-247.6991594856
21
-383.0931442642
31
0.0000000000
11
-247.6934588807
21
-383.1172254645
31
0.0000000000
11
-247.6771499499
21
-383.1458595502
31
0.0000000000
11
-247.6551036060
21
-383.1661755598
31
0.0000000000
11
-247.6297712011
21
-383.1789354050
31
0.0000000000
11
-247.6047719891
21
-383.1849014946
31
0.0000000000
11
-247.5790146518
21
-383.1868718589
31
0.0000000000
11
-247.5482473450
21
-383.1864274455
31
0.0000000000
11
-247.5110640123
21
-383.1837441925
31
0.0000000000
11
-247.4877285124
21
-383.1812077573
31
0.0000000000
0
SPLINE
5
3C5
100
AcDbEntity
8
0
100
AcDbSpline
62
7
6
CONTINUOUS
70
0
71
3
72
17
73
13
74
11
42
0.0000001000
43
0.0000001000
44
0.0000000001
12
0.2409615793
22
0.0786737289
32
0.0000000000
13
0.2508541122
23
0.0616341786
33
0.0000000000
40
0.0000000000
40
0.0000000000
40
0.0000000000
40
0.0000000000
40
0.1257174119
40
0.2559316030
40
0.3801033766
40
0.4973284206
40
0.6067933816
40
0.7076507114
40
0.7992778858
40
0.8810031933
40
0.9522887015
40
1.0000000000
40
1.0000000000
40
1.0000000000
40
1.0000000000
10
-246.3687636116
20
-382.9330037748
30
0.0000000000
10
-246.3586659229
20
-382.9297068889
30
0.0000000000
10
-246.3380936364
20
-382.9230433659
30
0.0000000000
10
-246.3074938328
20
-382.9132912560
30
0.0000000000
10
-246.2775311914
20
-382.9039034897
30
0.0000000000
10
-246.2491964707
20
-382.8951873866
30
0.0000000000
10
-246.2226974477
20
-382.8871969374
30
0.0000000000
10
-246.1982294586
20
-382.8799918770
30
0.0000000000
10
-246.1759373360
20
-382.8736058596
30
0.0000000000
10
-246.1560845723
20
-382.8680762338
30
0.0000000000
10
-246.1395192558
20
-382.8636840697
30
0.0000000000
10
-246.1300942538
20
-382.8612368849
30
0.0000000000
10
-246.1261047286
20
-382.8602566694
30
0.0000000000
11
-246.3687636116
21
-382.9330037748
31
0.0000000000
11
-246.3384475668
21
-382.9231839045
31
0.0000000000
11
-246.3069990531
21
-382.9131624985
31
0.0000000000
11
-246.2769628785
21
-382.9037548486
31
0.0000000000
11
-246.2485610656
21
-382.8950217191
31
0.0000000000
11
-246.2219935562
21
-382.8870173214
31
0.0000000000
11
-246.1974676371
21
-382.8798019105
31
0.0000000000
11
-246.1751393420
21
-382.8734084561
31
0.0000000000
11
-246.1551772585
21
-382.8678717532
31
0.0000000000
11
-246.1377156902
21
-382.8632244507
31
0.0000000000
11
-246.1261047286
21
-382.8602566694
31
0.0000000000
0
SPLINE
5
3C6
100
AcDbEntity
8
0
100
AcDbSpline
62
7
6
CONTINUOUS
70
0
71
3
72
11
73
7
74
5
42
0.0000001000
43
0.0000001000
44
0.0000000001
12
0.0254898087
22
0.0062627772
32
0.0000000000
13
0.0387715112
23
0.0062176843
33
0.0000000000
40
0.0000000000
40
0.0000000000
40
0.0000000000
40
0.0000000000
40
0.1248469644
40
0.5993276583
40
0.9394943737
40
1.0000000000
40
1.0000000000
40
1.0000000000
40
1.0000000000
10
-246.1261047286
20
-382.8602566694
30
0.0000000000
10
-246.1250439536
20
-382.8599960398
30
0.0000000000
10
-246.1198802276
20
-382.8587452183
30
0.0000000000
10
-246.1110615910
20
-382.8567704981
30
0.0000000000
10
-246.1065684528
20
-382.8555296415
30
0.0000000000
10
-246.1007228577
20
-382.8546027987
30
0.0000000000
10
-246.0999408929
20
-382.8544773971
30
0.0000000000
11
-246.1261047286
21
-382.8602566694
31
0.0000000000
11
-246.1228725805
21
-382.8594745319
31
0.0000000000
11
-246.1109760313
21
-382.8566772172
31
0.0000000000
11
-246.1024019540
21
-382.8548745435
31
0.0000000000
11
-246.0999408929
21
-382.8544773971
31
0.0000000000
0
SPLINE
5
3C7
100
AcDbEntity
8
0
100
AcDbSpline
62
7
6
CONTINUOUS
70
0
71
3
72
10
73
6
74
4
42
0.0000001000
43
0.0000001000
44
0.0000000001
12
1.1394054503
22
0.1385357645
32
0.0000000000
13
1.0911165306
23
0.3562186596
33
0.0000000000
40
0.0000000000
40
0.0000000000
40
0.0000000000
40
0.0000000000
40
0.3242326341
40
0.6737101514
40
1.0000000000
40
1.0000000000
40
1.0000000000
40
1.0000000000
10
-247.4877287148
20
-383.1812060876
30
0.0000000000
10
-247.3645845713
20
-383.1662334823
30
0.0000000000
10
-247.1096156055
20
-383.1270390993
30
0.0000000000
10
-246.7358369534
20
-383.0442093325
30
0.0000000000
10
-246.4874360259
20
-382.9717503540
30
0.0000000000
10
-246.3687626100
20
-382.9330068431
30
0.0000000000
11
-247.4877287148
21
-383.1812060876
31
0.0000000000
11
-247.1198993599
21
-383.1246608999
31
0.0000000000
11
-246.7282895777
21
-383.0378796883
31
0.0000000000
11
-246.3687626100
21
-382.9330068431
31
0.0000000000
0
SPLINE
5
3C8
100
AcDbEntity
8
0
100
AcDbSpline
62
7
6
CONTINUOUS
70
0
71
3
72
8
73
4
74
2
42
0.0000001000
43
0.0000001000
44
0.0000000001
12
0.0000045224
22
-0.0112105483
32
0.0000000000
13
0.0012537431
23
-0.0111931650
33
0.0000000000
40
0.0000000000
40
0.0000000000
40
0.0000000000
40
0.0000000000
40
1.0000000000
40
1.0000000000
40
1.0000000000
40
1.0000000000
10
-247.6997880643
20
-383.0819282566
30
0.0000000000
10
-247.6997865568
20
-383.0856651061
30
0.0000000000
10
-247.6995747134
20
-383.0894129078
30
0.0000000000
10
-247.6991567991
20
-383.0931439628
30
0.0000000000
11
-247.6997880643
21
-383.0819282566
31
0.0000000000
11
-247.6991567991
21
-383.0931439628
31
0.0000000000
0
SPLINE
5
3C9
100
AcDbEntity
8
0
100
AcDbSpline
62
7
6
CONTINUOUS
70
0
71
3
72
13
73
9
74
7
42
0.0000001000
43
0.0000001000
44
0.0000000001
12
0.0186732971
22
-0.1667114088
32
0.0000000000
13
0.1668252168
23
-0.0043654261
33
0.0000000000
40
0.0000000000
40
0.0000000000
40
0.0000000000
40
0.0000000000
40
0.1475633507
40
0.3441968187
40
0.5230475999
40
0.6926499719
40
0.8460445029
40
1.0000000000
40
1.0000000000
40
1.0000000000
40
1.0000000000
10
-247.6991567990
20
-383.0931439633
30
0.0000000000
10
-247.6982383009
20
-383.1013441280
30
0.0000000000
10
-247.6937740586
20
-383.1202826209
30
0.0000000000
10
-247.6791346464
20
-383.1459618420
30
0.0000000000
10
-247.6565647692
20
-383.1668298231
30
0.0000000000
10
-247.6313434284
20
-383.1795270242
30
0.0000000000
10
-247.6053333001
20
-383.1855204090
30
0.0000000000
10
-247.5882450624
20
-383.1866305877
30
0.0000000000
10
-247.5796838427
20
-383.1868546148
30
0.0000000000
11
-247.6991567990
21
-383.0931439633
31
0.0000000000
11
-247.6934603735
21
-383.1172077177
31
0.0000000000
11
-247.6772553076
21
-383.1457215882
31
0.0000000000
11
-247.6553693243
21
-383.1659920734
31
0.0000000000
11
-247.6301479726
21
-383.1788029716
31
0.0000000000
11
-247.6052823883
21
-383.1848278734
31
0.0000000000
11
-247.5796838427
21
-383.1868546148
31
0.0000000000
0
SPLINE
5
3CA
100
AcDbEntity
8
0
100
AcDbSpline
62
7
6
CONTINUOUS
70
0
71
3
72
8
73
4
74
2
42
0.0000001000
43
0.0000001000
44
0.0000000001
12
0.0304850193
22
-0.0007977217
32
0.0000000000
13
0.0304535634
23
0.0013443544
33
0.0000000000
40
0.0000000000
40
0.0000000000
40
0.0000000000
40
0.0000000000
40
1.0000000000
40
1.0000000000
40
1.0000000000
40
1.0000000000
10
-247.5796838427
20
-383.1868546148
30
0.0000000000
10
-247.5695221696
20
-383.1871205220
30
0.0000000000
10
-247.5593583742
20
-383.1869185910
30
0.0000000000
10
-247.5492071864
20
-383.1864704728
30
0.0000000000
11
-247.5796838427
21
-383.1868546148
31
0.0000000000
11
-247.5492071864
21
-383.1864704728
31
0.0000000000
0
SPLINE
5
3CB
100
AcDbEntity
8
0
100
AcDbSpline
62
7
6
CONTINUOUS
70
0
71
3
72
9
73
5
74
3
42
0.0000001000
43
0.0000001000
44
0.0000000001
12
0.0616600254
22
0.0027219451
32
0.0000000000
13
0.0612650701
23
0.0074519145
33
0.0000000000
40
0.0000000000
40
0.0000000000
40
0.0000000000
40
0.0000000000
40
0.5991729697
40
1.0000000000
40
1.0000000000
40
1.0000000000
40
1.0000000000
10
-247.5492071864
20
-383.1864704728
30
0.0000000000
10
-247.5368921796
20
-383.1859268342
30
0.0000000000
10
-247.5163698060
20
-383.1844148070
30
0.0000000000
10
-247.4959141083
20
-383.1822031466
30
0.0000000000
10
-247.4877285429
20
-383.1812075037
30
0.0000000000
11
-247.5492071864
21
-383.1864704728
31
0.0000000000
11
-247.5123232137
21
-383.1838637285
31
0.0000000000
11
-247.4877285429
21
-383.1812075037
31
0.0000000000
0
SPLINE
5
3CC
100
AcDbEntity
8
0
100
AcDbSpline
62
7
6
CONTINUOUS
70
0
71
3
72
8
73
4
74
2
42
0.0000001000
43
0.0000001000
44
0.0000000001
12
0.0121258853
22
0.0006742997
32
0.0000000000
13
0.0121403917
23
0.0004857074
33
0.0000000000
40
0.0000000000
40
0.0000000000
40
0.0000000000
40
0.0000000000
40
1.0000000000
40
1.0000000000
40
1.0000000000
40
1.0000000000
10
-247.8942837438
20
-382.8555437000
30
0.0000000000
10
-247.8902417820
20
-382.8553189335
30
0.0000000000
10
-247.8861974355
20
-382.8551252605
30
0.0000000000
10
-247.8821506383
20
-382.8549633581
30
0.0000000000
11
-247.8942837438
21
-382.8555437000
31
0.0000000000
11
-247.8821506383
21
-382.8549633581
31
0.0000000000
0
SPLINE
5
3CD
100
AcDbEntity
8
0
100
AcDbSpline
62
7
6
CONTINUOUS
70
0
71
3
72
8
73
4
74
2
42
0.0000001000
43
0.0000001000
44
0.0000000001
12
0.0226721203
22
0.0009070561
32
0.0000000000
13
0.0227246917
23
0.0002290275
33
0.0000000000
40
0.0000000000
40
0.0000000000
40
0.0000000000
40
0.0000000000
40
1.0000000000
40
1.0000000000
40
1.0000000000
40
1.0000000000
10
-247.8821506383
20
-382.8549633581
30
0.0000000000
10
-247.8745932649
20
-382.8546610061
30
0.0000000000
10
-247.8670273445
20
-382.8544694547
30
0.0000000000
10
-247.8594524472
20
-382.8543931122
30
0.0000000000
11
-247.8821506383
21
-382.8549633581
31
0.0000000000
11
-247.8594524472
21
-382.8543931122
31
0.0000000000
0
SPLINE
5
3CE
100
AcDbEntity
8
0
100
AcDbSpline
62
7
6
CONTINUOUS
70
0
71
3
72
11
73
7
74
5
42
0.0000001000
43
0.0000001000
44
0.0000000001
12
0.1625355335
22
0.0016380908
32
0.0000000000
13
0.1430045884
23
-0.0452983136
33
0.0000000000
40
0.0000000000
40
0.0000000000
40
0.0000000000
40
0.0000000000
40
0.3921400466
40
0.7167710143
40
0.9507098624
40
1.0000000000
40
1.0000000000
40
1.0000000000
40
1.0000000000
10
-247.8594524472
20
-382.8543931122
30
0.0000000000
10
-247.8382068833
20
-382.8541789919
30
0.0000000000
10
-247.7992442209
20
-382.8554441764
30
0.0000000000
10
-247.7488769990
20
-382.8607805814
30
0.0000000000
10
-247.7152034228
20
-382.8694616061
30
0.0000000000
10
-247.7020347640
20
-382.8729213307
30
0.0000000000
10
-247.6996851920
20
-382.8736655840
30
0.0000000000
11
-247.8594524472
21
-382.8543931122
31
0.0000000000
11
-247.7958705940
21
-382.8563888666
31
0.0000000000
11
-247.7436159856
21
-382.8629250738
31
0.0000000000
11
-247.7066945908
21
-382.8716994219
31
0.0000000000
11
-247.6996851920
21
-382.8736655840
31
0.0000000000
0
SPLINE
5
3CF
100
AcDbEntity
8
0
100
AcDbSpline
62
7
6
CONTINUOUS
70
0
71
3
72
9
73
5
74
3
42
0.0000001000
43
0.0000001000
44
0.0000000001
12
0.0148819146
22
-0.0047140140
32
0.0000000000
13
0.0133048910
23
-0.0072041476
33
0.0000000000
40
0.0000000000
40
0.0000000000
40
0.0000000000
40
0.0000000000
40
0.8019985287
40
1.0000000000
40
1.0000000000
40
1.0000000000
40
1.0000000000
10
-247.6996851920
20
-382.8736655840
30
0.0000000000
10
-247.6957067675
20
-382.8749257948
30
0.0000000000
10
-247.6905393548
20
-382.8770053491
30
0.0000000000
10
-247.6841011888
20
-382.8809253466
30
0.0000000000
10
-247.6832230595
20
-382.8814008239
30
0.0000000000
11
-247.6996851920
21
-382.8736655840
31
0.0000000000
11
-247.6866009021
21
-382.8794451699
31
0.0000000000
11
-247.6832230595
21
-382.8814008239
31
0.0000000000
0
SPLINE
5
3D0
100
AcDbEntity
8
0
100
AcDbSpline
62
7
6
CONTINUOUS
70
0
71
3
72
10
73
6
74
4
42
0.0000001000
43
0.0000001000
44
0.0000000001
12
0.6103836007
22
-0.0337145969
32
0.0000000000
13
0.6103822664
23
0.0337146560
33
0.0000000000
40
0.0000000000
40
0.0000000000
40
0.0000000000
40
0.0000000000
40
0.3162377785
40
0.6798529205
40
1.0000000000
40
1.0000000000
40
1.0000000000
40
1.0000000000
10
-248.5053131495
20
-382.8555604064
30
0.0000000000
10
-248.4409710315
20
-382.8591143495
30
0.0000000000
10
-248.3025020082
20
-382.8643415173
30
0.0000000000
10
-248.0986872955
20
-382.8643854469
30
0.0000000000
10
-247.9594203253
20
-382.8591583034
30
0.0000000000
10
-247.8942829586
20
-382.8555604205
30
0.0000000000
11
-248.5053131495
21
-382.8555604064
31
0.0000000000
11
-248.3121310352
21
-382.8628527066
31
0.0000000000
11
-248.0898543998
21
-382.8629006451
31
0.0000000000
11
-247.8942829586
21
-382.8555604205
31
0.0000000000
0
SPLINE
5
3D1
100
AcDbEntity
8
0
100
AcDbSpline
62
7
6
CONTINUOUS
70
0
71
3
72
9
73
5
74
3
42
0.0000001000
43
0.0000001000
44
0.0000000001
12
0.0152042181
22
0.0087117897
32
0.0000000000
13
0.0143642103
23
0.0045149261
33
0.0000000000
40
0.0000000000
40
0.0000000000
40
0.0000000000
40
0.0000000000
40
0.1424866664
40
1.0000000000
40
1.0000000000
40
1.0000000000
40
1.0000000000
10
-248.7157262249
20
-382.8810125231
30
0.0000000000
10
-248.7150040921
20
-382.8805987518
30
0.0000000000
10
-248.7089360437
20
-382.8769621259
30
0.0000000000
10
-248.7040017936
20
-382.8750103755
30
0.0000000000
10
-248.6998959596
20
-382.8737198391
30
0.0000000000
11
-248.7157262249
21
-382.8810125231
31
0.0000000000
11
-248.7132978790
21
-382.8795966175
31
0.0000000000
11
-248.6998959596
21
-382.8737198391
31
0.0000000000
0
SPLINE
5
3D2
100
AcDbEntity
8
0
100
AcDbSpline
62
7
6
CONTINUOUS
70
0
71
3
72
11
73
7
74
5
42
0.0000001000
43
0.0000001000
44
0.0000000001
12
0.1401325979
22
0.0440425303
32
0.0000000000
13
0.1595286702
23
-0.0010276725
33
0.0000000000
40
0.0000000000
40
0.0000000000
40
0.0000000000
40
0.0000000000
40
0.0438216188
40
0.2774879323
40
0.6034667719
40
1.0000000000
40
1.0000000000
40
1.0000000000
40
1.0000000000
10
-248.6998940532
20
-382.8737192399
30
0.0000000000
10
-248.6978471074
20
-382.8730759016
30
0.0000000000
10
-248.6850825223
20
-382.8696049171
30
0.0000000000
10
-248.6523829608
20
-382.8611095104
30
0.0000000000
10
-248.6026428318
20
-382.8556058490
30
0.0000000000
10
-248.5641064667
20
-382.8542272536
30
0.0000000000
10
-248.5430203271
20
-382.8543630890
30
0.0000000000
11
-248.6998940532
21
-382.8737192399
31
0.0000000000
11
-248.6937588259
21
-382.8719687491
31
0.0000000000
11
-248.6575963885
21
-382.8632209427
31
0.0000000000
11
-248.6061193672
21
-382.8565778662
31
0.0000000000
11
-248.5430203271
21
-382.8543630890
31
0.0000000000
0
SPLINE
5
3D3
100
AcDbEntity
8
0
100
AcDbSpline
62
7
6
CONTINUOUS
70
0
71
3
72
8
73
4
74
2
42
0.0000001000
43
0.0000001000
44
0.0000000001
12
0.0377751027
22
-0.0002433446
32
0.0000000000
13
0.0376420626
23
-0.0020944388
33
0.0000000000
40
0.0000000000
40
0.0000000000
40
0.0000000000
40
0.0000000000
40
1.0000000000
40
1.0000000000
40
1.0000000000
40
1.0000000000
10
-248.5430203271
20
-382.8543630890
30
0.0000000000
10
-248.5304286262
20
-382.8544442038
30
0.0000000000
10
-248.5178596083
20
-382.8548435594
30
0.0000000000
10
-248.5053122541
20
-382.8555417056
30
0.0000000000
11
-248.5430203271
21
-382.8543630890
31
0.0000000000
11
-248.5053122541
21
-382.8555417056
31
0.0000000000
0
SPLINE
5
3D4
100
AcDbEntity
8
0
100
AcDbSpline
62
7
6
CONTINUOUS
70
0
71
3
72
9
73
5
74
3
42
0.0000001000
43
0.0000001000
44
0.0000000001
12
0.0603938318
22
-0.0073448720
32
0.0000000000
13
0.0607785955
23
-0.0027725077
33
0.0000000000
40
0.0000000000
40
0.0000000000
40
0.0000000000
40
0.0000000000
40
0.3869911088
40
1.0000000000
40
1.0000000000
40
1.0000000000
40
1.0000000000
10
-248.9118675978
20
-383.1812077677
30
0.0000000000
10
-248.9040769724
20
-383.1821552345
30
0.0000000000
10
-248.8839137706
20
-383.1843476300
30
0.0000000000
10
-248.8636854251
20
-383.1858646804
30
0.0000000000
10
-248.8512661520
20
-383.1864312044
30
0.0000000000
11
-248.9118675978
21
-383.1812077677
31
0.0000000000
11
-248.8884612567
21
-383.1837509685
31
0.0000000000
11
-248.8512661520
21
-383.1864312044
31
0.0000000000
0
SPLINE
5
3D5
100
AcDbEntity
8
0
100
AcDbSpline
62
7
6
CONTINUOUS
70
0
71
3
72
9
73
5
74
3
42
0.0000001000
43
0.0000001000
44
0.0000000001
12
0.0564442669
22
-0.0025747907
32
0.0000000000
13
0.0559810452
23
0.0080425123
33
0.0000000000
40
0.0000000000
40
0.0000000000
40
0.0000000000
40
0.0000000000
40
0.5438656546
40
1.0000000000
40
1.0000000000
40
1.0000000000
40
1.0000000000
10
-248.8512661520
20
-383.1864312044
30
0.0000000000
10
-248.8410334526
20
-383.1868979845
30
0.0000000000
10
-248.8221948338
20
-383.1873025876
30
0.0000000000
10
-248.8033606575
20
-383.1861278670
30
0.0000000000
10
-248.7948490317
20
-383.1849050449
30
0.0000000000
11
-248.8512661520
21
-383.1864312044
31
0.0000000000
11
-248.8205434111
21
-383.1868709360
31
0.0000000000
11
-248.7948490317
21
-383.1849050449
31
0.0000000000
0
SPLINE
5
3D6
100
AcDbEntity
8
0
100
AcDbSpline
62
7
6
CONTINUOUS
70
0
71
3
72
8
73
4
74
2
42
0.0000001000
43
0.0000001000
44
0.0000000001
12
0.0253563285
22
0.0036428149
32
0.0000000000
13
0.0242042291
23
0.0084543714
33
0.0000000000
40
0.0000000000
40
0.0000000000
40
0.0000000000
40
0.0000000000
40
1.0000000000
40
1.0000000000
40
1.0000000000
40
1.0000000000
10
-248.7948490317
20
-383.1849050449
30
0.0000000000
10
-248.7863969222
20
-383.1836907733
30
0.0000000000
10
-248.7780229966
20
-383.1817990839
30
0.0000000000
10
-248.7699549203
20
-383.1789809601
30
0.0000000000
11
-248.7948490317
21
-383.1849050449
31
0.0000000000
11
-248.7699549203
21
-383.1789809601
31
0.0000000000
0
SPLINE
5
3D7
100
AcDbEntity
8
0
100
AcDbSpline
62
7
6
CONTINUOUS
70
0
71
3
72
11
73
7
74
5
42
0.0000001000
43
0.0000001000
44
0.0000000001
12
0.1097795045
22
0.0383452287
32
0.0000000000
13
0.0129853403
23
0.1160160106
33
0.0000000000
40
0.0000000000
40
0.0000000000
40
0.0000000000
40
0.0000000000
40
0.2448027718
40
0.5034455926
40
0.7877064745
40
1.0000000000
40
1.0000000000
40
1.0000000000
40
1.0000000000
10
-248.7699549203
20
-383.1789809601
30
0.0000000000
10
-248.7609968113
20
-383.1758519540
30
0.0000000000
10
-248.7433495607
20
-383.1670682553
30
0.0000000000
10
-248.7205814116
20
-383.1461546399
30
0.0000000000
10
-248.7058382815
20
-383.1203677077
30
0.0000000000
10
-248.7013555752
20
-383.1013545227
30
0.0000000000
10
-248.7004366740
20
-383.0931447067
30
0.0000000000
11
-248.7699549203
21
-383.1789809601
31
0.0000000000
11
-248.7445666015
21
-383.1662261542
31
0.0000000000
11
-248.7224779431
21
-383.1458988340
31
0.0000000000
11
-248.7061411040
21
-383.1172359155
31
0.0000000000
11
-248.7004366740
21
-383.0931447067
31
0.0000000000
0
SPLINE
5
3D8
100
AcDbEntity
8
0
100
AcDbSpline
62
7
6
CONTINUOUS
70
0
71
3
72
8
73
4
74
2
42
0.0000001000
43
0.0000001000
44
0.0000000001
12
0.0012512757
22
0.0111793772
32
0.0000000000
13
0.0000054201
23
0.0111967750
33
0.0000000000
40
0.0000000000
40
0.0000000000
40
0.0000000000
40
0.0000000000
40
1.0000000000
40
1.0000000000
40
1.0000000000
40
1.0000000000
10
-248.7004366740
20
-383.0931447067
30
0.0000000000
10
-248.7000195821
20
-383.0894182477
30
0.0000000000
10
-248.6998080245
20
-383.0856750907
30
0.0000000000
10
-248.6998062178
20
-383.0819428323
30
0.0000000000
11
-248.7004366740
21
-383.0931447067
31
0.0000000000
11
-248.6998062178
21
-383.0819428323
31
0.0000000000
0
SPLINE
5
3D9
100
AcDbEntity
8
0
100
AcDbSpline
62
7
6
CONTINUOUS
70
0
71
3
72
10
73
6
74
4
42
0.0000001000
43
0.0000001000
44
0.0000000001
12
1.0911208316
22
-0.3562194201
32
0.0000000000
13
1.1394011973
23
-0.1385349433
33
0.0000000000
40
0.0000000000
40
0.0000000000
40
0.0000000000
40
0.0000000000
40
0.3242092501
40
0.6736871094
40
1.0000000000
40
1.0000000000
40
1.0000000000
40
1.0000000000
10
-250.0308334914
20
-382.9330068149
30
0.0000000000
10
-249.9129163359
20
-382.9715033585
30
0.0000000000
10
-249.6652964877
20
-383.0437890035
30
0.0000000000
10
-249.2915513757
20
-383.1267699962
30
0.0000000000
10
-249.0358011611
20
-383.1661375214
30
0.0000000000
10
-248.9118673950
20
-383.1812061006
30
0.0000000000
11
-250.0308334914
21
-382.9330068149
31
0.0000000000
11
-249.6736190316
21
-383.0372835871
31
0.0000000000
11
-249.2820440210
21
-383.1242233743
31
0.0000000000
11
-248.9118673950
21
-383.1812061006
31
0.0000000000
0
SPLINE
5
3DA
100
AcDbEntity
8
0
100
AcDbSpline
62
7
6
CONTINUOUS
70
0
71
3
72
8
73
4
74
2
42
0.0000001000
43
0.0000001000
44
0.0000000001
12
-0.0000338558
22
-0.0001072465
32
0.0000000000
13
0.0041573908
23
-0.0006697597
33
0.0000000000
40
0.0000000000
40
0.0000000000
40
0.0000000000
40
0.0000000000
40
1.0000000000
40
1.0000000000
40
1.0000000000
40
1.0000000000
10
-250.3018743094
20
-382.8540707949
30
0.0000000000
10
-250.3018855946
20
-382.8541065437
30
0.0000000000
10
-250.3006801061
20
-382.8543002723
30
0.0000000000
10
-250.2992943092
20
-382.8545235255
30
0.0000000000
11
-250.3018743094
21
-382.8540707949
31
0.0000000000
11
-250.2992943092
21
-382.8545235255
31
0.0000000000
0
SPLINE
5
3DB
100
AcDbEntity
8
0
100
AcDbSpline
62
7
6
CONTINUOUS
70
0
71
3
72
11
73
7
74
5
42
0.0000001000
43
0.0000001000
44
0.0000000001
12
0.0393958245
22
-0.0063467055
32
0.0000000000
13
0.0252524804
23
-0.0062307611
33
0.0000000000
40
0.0000000000
40
0.0000000000
40
0.0000000000
40
0.0000000000
40
0.0437461441
40
0.3811931805
40
0.8487327780
40
1.0000000000
40
1.0000000000
40
1.0000000000
40
1.0000000000
10
-250.2992943092
20
-382.8545235255
30
0.0000000000
10
-250.2987198374
20
-382.8546160735
30
0.0000000000
10
-250.2934440334
20
-382.8554667246
30
0.0000000000
10
-250.2889414826
20
-382.8566714434
30
0.0000000000
10
-250.2800444958
20
-382.8586581452
30
0.0000000000
10
-250.2747570193
20
-382.8599411714
30
0.0000000000
10
-250.2734837284
20
-382.8602553414
30
0.0000000000
11
-250.2992943092
21
-382.8545235255
31
0.0000000000
11
-250.2975517732
21
-382.8548072397
31
0.0000000000
11
-250.2890659469
21
-382.8565798862
31
0.0000000000
11
-250.2773701441
21
-382.8593137450
31
0.0000000000
11
-250.2734837284
21
-382.8602553414
31
0.0000000000
0
SPLINE
5
3DC
100
AcDbEntity
8
0
100
AcDbSpline
62
7
6
CONTINUOUS
70
0
71
3
72
18
73
14
74
12
42
0.0000001000
43
0.0000001000
44
0.0000000001
12
0.2491589938
22
-0.0614771357
32
0.0000000000
13
0.2409641088
23
-0.0786527443
33
0.0000000000
40
0.0000000000
40
0.0000000000
40
0.0000000000
40
0.0000000000
40
0.0441584266
40
0.1147243445
40
0.1955767258
40
0.2863024203
40
0.3862697342
40
0.4948207329
40
0.6111644276
40
0.7344498212
40
0.8637745550
40
0.9980510664
40
1.0000000000
40
1.0000000000
40
1.0000000000
40
1.0000000000
10
-250.2734837284
20
-382.8602553414
30
0.0000000000
10
-250.2698162387
20
-382.8611602526
30
0.0000000000
10
-250.2607025592
20
-382.8635227463
30
0.0000000000
10
-250.2445691901
20
-382.8677908908
30
0.0000000000
10
-250.2249113299
20
-382.8732489922
30
0.0000000000
10
-250.2028360153
20
-382.8795683706
30
0.0000000000
10
-250.1785835313
20
-382.8866958572
30
0.0000000000
10
-250.1522979835
20
-382.8946064334
30
0.0000000000
10
-250.1241778841
20
-382.9032480812
30
0.0000000000
10
-250.0944267087
20
-382.9125581064
30
0.0000000000
10
-250.0632781861
20
-382.9224742146
30
0.0000000000
10
-250.0419309765
20
-382.9293815508
30
0.0000000000
10
-250.0309890330
20
-382.9329526564
30
0.0000000000
10
-250.0308324920
20
-382.9330037527
30
0.0000000000
11
-250.2734837284
21
-382.8602553414
31
0.0000000000
11
-250.2627484998
21
-382.8629998588
31
0.0000000000
11
-250.2454607723
21
-382.8675899962
31
0.0000000000
11
-250.2257085805
21
-382.8730542984
31
0.0000000000
11
-250.2035980735
21
-382.8793768858
31
0.0000000000
11
-250.1792855719
21
-382.8865169176
31
0.0000000000
11
-250.1529363663
21
-382.8944412449
31
0.0000000000
11
-250.1247456631
21
-382.9030991831
31
0.0000000000
11
-250.0949212733
21
-382.9124295962
31
0.0000000000
11
-250.0636846051
21
-382.9223714645
31
0.0000000000
11
-250.0313021206
21
-382.9328504807
31
0.0000000000
11
-250.0308324920
21
-382.9330037527
31
0.0000000000
0
SPLINE
5
3DD
100
AcDbEntity
8
0
100
AcDbSpline
62
7
6
CONTINUOUS
70
0
71
3
72
8
73
4
74
2
42
0.0000001000
43
0.0000001000
44
0.0000000001
12
-0.0000338947
22
-0.0001160309
32
0.0000000000
13
0.0042056179
23
-0.0006729367
33
0.0000000000
40
0.0000000000
40
0.0000000000
40
0.0000000000
40
0.0000000000
40
1.0000000000
40
1.0000000000
40
1.0000000000
40
1.0000000000
10
-250.3018688071
20
-382.8540815976
30
0.0000000000
10
-250.3018801054
20
-382.8541202745
30
0.0000000000
10
-250.3006980112
20
-382.8543109180
30
0.0000000000
10
-250.2992961385
20
-382.8545352302
30
0.0000000000
11
-250.3018688071
21
-382.8540815976
31
0.0000000000
11
-250.2992961385
21
-382.8545352302
31
0.0000000000
0
SPLINE
5
3DE
100
AcDbEntity
8
0
100
AcDbSpline
62
7
6
CONTINUOUS
70
0
71
3
72
17
73
13
74
11
42
0.0000001000
43
0.0000001000
44
0.0000000001
12
0.2509708435
22
-0.0616478837
32
0.0000000000
13
0.2409606472
23
-0.0786734263
33
0.0000000000
40
0.0000000000
40
0.0000000000
40
0.0000000000
40
0.0000000000
40
0.0479700867
40
0.1192779108
40
0.2010034140
40
0.2926090716
40
0.3934274926
40
0.5028415426
40
0.6200107320
40
0.7441297324
40
0.8743023083
40
1.0000000000
40
1.0000000000
40
1.0000000000
40
1.0000000000
10
-250.2734915133
20
-382.8602567885
30
0.0000000000
10
-250.2694784823
20
-382.8612425400
30
0.0000000000
10
-250.2600319528
20
-382.8636957225
30
0.0000000000
10
-250.2434438087
20
-382.8680947367
30
0.0000000000
10
-250.2235911610
20
-382.8736249954
30
0.0000000000
10
-250.2013041782
20
-382.8800100607
30
0.0000000000
10
-250.1768454199
20
-382.8872128469
30
0.0000000000
10
-250.1503583714
20
-382.8951999913
30
0.0000000000
10
-250.1220366994
20
-382.9039122785
30
0.0000000000
10
-250.0920863217
20
-382.9132963204
30
0.0000000000
10
-250.0614958371
20
-382.9230455105
30
0.0000000000
10
-250.0409285630
20
-382.9297074187
30
0.0000000000
10
-250.0308324973
20
-382.9330037747
30
0.0000000000
11
-250.2734915133
21
-382.8602567885
31
0.0000000000
11
-250.2618160223
21
-382.8632411698
31
0.0000000000
11
-250.2443492614
21
-382.8678906837
31
0.0000000000
11
-250.2243873876
21
-382.8734280286
31
0.0000000000
11
-250.2020645672
21
-382.8798204638
31
0.0000000000
11
-250.1775483251
21
-382.8870334730
31
0.0000000000
11
-250.1509933629
21
-382.8950344097
31
0.0000000000
11
-250.1226052504
21
-382.9037635329
31
0.0000000000
11
-250.0925819918
21
-382.9131672580
31
0.0000000000
11
-250.0611436658
21
-382.9231854714
31
0.0000000000
11
-250.0308324973
21
-382.9330037747
31
0.0000000000
0
SPLINE
5
3DF
100
AcDbEntity
8
0
100
AcDbSpline
62
7
6
CONTINUOUS
70
0
71
3
72
16
73
12
74
10
42
0.0000001000
43
0.0000001000
44
0.0000000001
12
0.2571082013
22
-0.0312732353
32
0.0000000000
13
0.0289956003
23
0.2588563033
33
0.0000000000
40
0.0000000000
40
0.0000000000
40
0.0000000000
40
0.0000000000
40
0.0957177787
40
0.2385228785
40
0.3560819468
40
0.4550440047
40
0.5535147798
40
0.6628920152
40
0.7781856162
40
0.9049357695
40
1.0000000000
40
1.0000000000
40
1.0000000000
40
1.0000000000
10
-248.9118675668
20
-383.1812075106
30
0.0000000000
10
-248.9036642915
20
-383.1822053121
30
0.0000000000
10
-248.8831881111
20
-383.1844185952
30
0.0000000000
10
-248.8525202853
20
-383.1866759452
30
0.0000000000
10
-248.8214879555
20
-383.1872894114
30
0.0000000000
10
-248.7942951986
20
-383.1855210975
30
0.0000000000
10
-248.7683146238
20
-383.1795468841
30
0.0000000000
10
-248.7430871462
20
-383.1668724235
30
0.0000000000
10
-248.7204825636
20
-383.1459933093
30
0.0000000000
10
-248.7058260612
20
-383.1202975673
30
0.0000000000
10
-248.7013581745
20
-383.1013470638
30
0.0000000000
10
-248.7004393597
20
-383.0931444054
30
0.0000000000
11
-248.9118675668
21
-383.1812075106
31
0.0000000000
11
-248.8872196041
21
-383.1838687490
31
0.0000000000
11
-248.8503274043
21
-383.1864731727
31
0.0000000000
11
-248.8198840480
21
-383.1868538690
31
0.0000000000
11
-248.7943345724
21
-383.1848309159
31
0.0000000000
11
-248.7695465596
21
-383.1788378532
31
0.0000000000
11
-248.7442809895
21
-383.1660293508
31
0.0000000000
11
-248.7223643239
21
-383.1457507696
31
0.0000000000
11
-248.7061385368
21
-383.1172152748
31
0.0000000000
11
-248.7004393597
21
-383.0931444054
31
0.0000000000
0
SPLINE
5
3E0
100
AcDbEntity
8
0
100
AcDbSpline
62
7
6
CONTINUOUS
70
0
71
3
72
12
73
8
74
6
42
0.0000001000
43
0.0000001000
44
0.0000000001
12
0.1619099871
22
0.0512868116
32
0.0000000000
13
0.1836198709
23
-0.0070518447
33
0.0000000000
40
0.0000000000
40
0.0000000000
40
0.0000000000
40
0.0000000000
40
0.0435347811
40
0.2501577898
40
0.5368832645
40
0.8832351291
40
1.0000000000
40
1.0000000000
40
1.0000000000
40
1.0000000000
10
-248.6999109168
20
-382.8736655840
30
0.0000000000
10
-248.6975613449
20
-382.8729213307
30
0.0000000000
10
-248.6843926861
20
-382.8694616061
30
0.0000000000
10
-248.6507191098
20
-382.8607805814
30
0.0000000000
10
-248.6003518880
20
-382.8554441764
30
0.0000000000
10
-248.5542029467
20
-382.8539456411
30
0.0000000000
10
-248.5258267436
20
-382.8546404891
30
0.0000000000
10
-248.5186799601
20
-382.8549149583
30
0.0000000000
11
-248.6999109168
21
-382.8736655840
31
0.0000000000
11
-248.6929015180
21
-382.8716994219
31
0.0000000000
11
-248.6559801233
21
-382.8629250738
31
0.0000000000
11
-248.6037255148
21
-382.8563888666
31
0.0000000000
11
-248.5401436616
21
-382.8543931122
31
0.0000000000
11
-248.5186799601
21
-382.8549149583
31
0.0000000000
0
SPLINE
5
3E1
100
AcDbEntity
8
0
100
AcDbSpline
62
7
6
CONTINUOUS
70
0
71
3
72
10
73
6
74
4
42
0.0000001000
43
0.0000001000
44
0.0000000001
12
0.6103824095
22
-0.0337146639
32
0.0000000000
13
0.6103837428
23
0.0337146206
33
0.0000000000
40
0.0000000000
40
0.0000000000
40
0.0000000000
40
0.0000000000
40
0.3201470045
40
0.6837620612
40
1.0000000000
40
1.0000000000
40
1.0000000000
40
1.0000000000
10
-248.5053131503
20
-382.8555604205
30
0.0000000000
10
-248.4401757836
20
-382.8591583034
30
0.0000000000
10
-248.3009088134
20
-382.8643854469
30
0.0000000000
10
-248.0970940528
20
-382.8643415173
30
0.0000000000
10
-247.9586249818
20
-382.8591143459
30
0.0000000000
10
-247.8942828162
20
-382.8555603985
30
0.0000000000
11
-248.5053131503
21
-382.8555604205
31
0.0000000000
11
-248.3097417091
21
-382.8629006451
31
0.0000000000
11
-248.0874650737
21
-382.8628527066
31
0.0000000000
11
-247.8942828162
21
-382.8555603985
31
0.0000000000
0
SPLINE
5
3E2
100
AcDbEntity
8
0
100
AcDbSpline
62
7
6
CONTINUOUS
70
0
71
3
72
8
73
4
74
2
42
0.0000001000
43
0.0000001000
44
0.0000000001
12
0.0133593634
22
0.0007433272
32
0.0000000000
13
0.0133758724
23
0.0005149088
33
0.0000000000
40
0.0000000000
40
0.0000000000
40
0.0000000000
40
0.0000000000
40
1.0000000000
40
1.0000000000
40
1.0000000000
40
1.0000000000
10
-247.8942838547
20
-382.8555417056
30
0.0000000000
10
-247.8898307336
20
-382.8552939299
30
0.0000000000
10
-247.8853748837
20
-382.8550837891
30
0.0000000000
10
-247.8809162596
20
-382.8549121529
30
0.0000000000
11
-247.8942838547
21
-382.8555417056
31
0.0000000000
11
-247.8809162596
21
-382.8549121529
31
0.0000000000
0
SPLINE
5
3E3
100
AcDbEntity
8
0
100
AcDbSpline
62
9
6
CONTINUOUS
70
0
71
3
72
10
73
6
74
4
42
0.0000001000
43
0.0000001000
44
0.0000000001
12
0.0000000037
22
-0.0084211513
32
0.0000000000
13
-0.0000000024
23
-0.0084211513
33
0.0000000000
40
0.0000000000
40
0.0000000000
40
0.0000000000
40
0.0000000000
40
0.5552522622
40
0.8890061159
40
1.0000000000
40
1.0000000000
40
1.0000000000
40
1.0000000000
10
-246.0637822233
20
-382.8488597666
30
0.0000000000
10
-246.0637822226
20
-382.8504183877
30
0.0000000000
10
-246.0637822247
20
-382.8529138727
30
0.0000000000
10
-246.0637822232
20
-382.8557209232
30
0.0000000000
10
-246.0637822232
20
-382.8569693525
30
0.0000000000
10
-246.0637822233
20
-382.8572809179
30
0.0000000000
11
-246.0637822233
21
-382.8488597666
31
0.0000000000
11
-246.0637822239
21
-382.8535356299
31
0.0000000000
11
-246.0637822232
21
-382.8563462216
31
0.0000000000
11
-246.0637822233
21
-382.8572809179
31
0.0000000000
0
SPLINE
5
3E4
100
AcDbEntity
8
0
100
AcDbSpline
62
9
6
CONTINUOUS
70
0
71
3
72
11
73
7
74
5
42
0.0000001000
43
0.0000001000
44
0.0000000001
12
0.2347482178
22
0.0766424207
32
0.0000000000
13
0.2489078788
23
0.0675589159
33
0.0000000000
40
0.0000000000
40
0.0000000000
40
0.0000000000
40
0.0000000000
40
0.3504046771
40
0.6666687971
40
0.9304468631
40
1.0000000000
40
1.0000000000
40
1.0000000000
40
1.0000000000
10
-246.3689273420
20
-382.9325022610
30
0.0000000000
10
-246.3415083842
20
-382.9235503068
30
0.0000000000
10
-246.2894069870
20
-382.9068975573
30
0.0000000000
10
-246.2155243484
20
-382.8841845753
30
0.0000000000
10
-246.1656399018
20
-382.8700545729
30
0.0000000000
10
-246.1375787219
20
-382.8621872626
30
0.0000000000
10
-246.1318079473
20
-382.8606209511
30
0.0000000000
11
-246.3689273420
21
-382.9325022610
31
0.0000000000
11
-246.2865079403
21
-382.9061494091
31
0.0000000000
11
-246.2118071547
21
-382.8833618371
31
0.0000000000
11
-246.1491819901
21
-382.8654436101
31
0.0000000000
11
-246.1318079473
21
-382.8606209511
31
0.0000000000
0
SPLINE
5
3E5
100
AcDbEntity
8
0
100
AcDbSpline
62
9
6
CONTINUOUS
70
0
71
3
72
10
73
6
74
4
42
0.0000001000
43
0.0000001000
44
0.0000000001
12
0.0708811429
22
0.0192386565
32
0.0000000000
13
-0.0003549073
23
-0.0703206776
33
0.0000000000
40
0.0000000000
40
0.0000000000
40
0.0000000000
40
0.0000000000
40
0.4410278012
40
0.8596420268
40
1.0000000000
40
1.0000000000
40
1.0000000000
40
1.0000000000
10
-246.1318079473
20
-382.8606209511
30
0.0000000000
10
-246.1213877625
20
-382.8577926903
30
0.0000000000
10
-246.1016139297
20
-382.8527583760
30
0.0000000000
10
-246.0848186195
20
-382.8506446166
30
0.0000000000
10
-246.0637656186
20
-382.8455697440
30
0.0000000000
10
-246.0637822233
20
-382.8488597666
30
0.0000000000
11
-246.1318079473
21
-382.8606209511
31
0.0000000000
11
-246.1025028016
21
-382.8534739136
31
0.0000000000
11
-246.0736029538
21
-382.8478728660
31
0.0000000000
11
-246.0637822233
21
-382.8488597666
31
0.0000000000
0
SPLINE
5
3E6
100
AcDbEntity
8
0
100
AcDbSpline
62
9
6
CONTINUOUS
70
0
71
3
72
12
73
8
74
6
42
0.0000001000
43
0.0000001000
44
0.0000000001
12
1.1394044272
22
0.1385317330
32
0.0000000000
13
1.0911181987
23
0.3562226359
33
0.0000000000
40
0.0000000000
40
0.0000000000
40
0.0000000000
40
0.0000000000
40
0.1736997740
40
0.3668447149
40
0.5660151312
40
0.7736035241
40
1.0000000000
40
1.0000000000
40
1.0000000000
40
1.0000000000
10
-247.4877927774
20
-383.1806791802
30
0.0000000000
10
-247.4218213469
20
-383.1726582033
30
0.0000000000
10
-247.2827686632
20
-383.1533623136
30
0.0000000000
10
-247.0694176911
20
-383.1159530818
30
0.0000000000
10
-246.8449641715
20
-383.0677029668
30
0.0000000000
10
-246.6102704832
20
-383.0074467045
30
0.0000000000
10
-246.4512691137
20
-382.9593847775
30
0.0000000000
10
-246.3689273420
20
-382.9325022610
30
0.0000000000
11
-247.4877927774
21
-383.1806791802
31
0.0000000000
11
-247.2903133500
21
-383.1532754000
31
0.0000000000
11
-247.0719538120
21
-383.1149879793
31
0.0000000000
11
-246.8484527482
21
-383.0669426650
31
0.0000000000
11
-246.6176688907
21
-383.0076898628
31
0.0000000000
11
-246.3689273420
21
-382.9325022610
31
0.0000000000
0
SPLINE
5
3E7
100
AcDbEntity
8
0
100
AcDbSpline
62
9
6
CONTINUOUS
70
0
71
3
72
14
73
10
74
8
42
0.0000001000
43
0.0000001000
44
0.0000000001
12
0.0001275271
22
-0.1030417226
32
0.0000000000
13
0.1022885817
23
0.0124361939
33
0.0000000000
40
0.0000000000
40
0.0000000000
40
0.0000000000
40
0.0000000000
40
0.0475695937
40
0.1569696759
40
0.3115077117
40
0.4870765621
40
0.6663493256
40
0.8385288923
40
1.0000000000
40
1.0000000000
40
1.0000000000
40
1.0000000000
10
-247.5895078170
20
-383.1806791802
30
0.0000000000
10
-247.5895057948
20
-383.1823130645
30
0.0000000000
10
-247.5827072564
20
-383.1847620079
30
0.0000000000
10
-247.5733287056
20
-383.1854768207
30
0.0000000000
10
-247.5576410393
20
-383.1859958521
30
0.0000000000
10
-247.5403451888
20
-383.1853722489
30
0.0000000000
10
-247.5222238551
20
-383.1842161998
30
0.0000000000
10
-247.5046912554
20
-383.1826203703
30
0.0000000000
10
-247.4932983276
20
-383.1813485422
30
0.0000000000
10
-247.4877927774
20
-383.1806791802
30
0.0000000000
11
-247.5895078170
21
-383.1806791802
31
0.0000000000
11
-247.5855755574
21
-383.1836055384
31
0.0000000000
11
-247.5744343356
21
-383.1853227399
31
0.0000000000
11
-247.5585175223
21
-383.1857970101
31
0.0000000000
11
-247.5404336255
21
-383.1852925810
31
0.0000000000
11
-247.5219984992
21
-383.1841167219
31
0.0000000000
11
-247.5043283704
21
-383.1825248023
31
0.0000000000
11
-247.4877927774
21
-383.1806791802
31
0.0000000000
0
SPLINE
5
3E8
100
AcDbEntity
8
0
100
AcDbSpline
62
9
6
CONTINUOUS
70
0
71
3
72
12
73
8
74
6
42
0.0000001000
43
0.0000001000
44
0.0000000001
12
0.0000000955
22
-0.2481769191
32
0.0000000000
13
-0.0000000361
23
-0.2481769191
33
0.0000000000
40
0.0000000000
40
0.0000000000
40
0.0000000000
40
0.0000000000
40
0.3245288541
40
0.5733868835
40
0.7612770168
40
0.8998605882
40
1.0000000000
40
1.0000000000
40
1.0000000000
40
1.0000000000
10
-247.5895078170
20
-382.9325022610
30
0.0000000000
10
-247.5895078066
20
-382.9593491181
30
0.0000000000
10
-247.5895078260
20
-383.0067829148
30
0.0000000000
10
-247.5895078153
20
-383.0697600430
30
0.0000000000
10
-247.5895078160
20
-383.1173547288
30
0.0000000000
10
-247.5895078182
20
-383.1526465718
30
0.0000000000
10
-247.5895078158
20
-383.1723950833
30
0.0000000000
10
-247.5895078170
20
-383.1806791802
30
0.0000000000
11
-247.5895078170
21
-382.9325022610
31
0.0000000000
11
-247.5895078198
21
-383.0130428322
31
0.0000000000
11
-247.5895078166
21
-383.0748036512
31
0.0000000000
11
-247.5895078165
21
-383.1214336457
31
0.0000000000
11
-247.5895078172
21
-383.1558268895
31
0.0000000000
11
-247.5895078170
21
-383.1806791802
31
0.0000000000
0
SPLINE
5
3E9
100
AcDbEntity
8
0
100
AcDbSpline
62
9
6
CONTINUOUS
70
0
71
3
72
8
73
4
74
2
42
0.0000001000
43
0.0000001000
44
0.0000000001
12
0.0259648526
22
0.0014341561
32
0.0000000000
13
0.0260031346
23
0.0007031723
33
0.0000000000
40
0.0000000000
40
0.0000000000
40
0.0000000000
40
0.0000000000
40
1.0000000000
40
1.0000000000
40
1.0000000000
40
1.0000000000
10
-247.8946529357
20
-382.8488597666
30
0.0000000000
10
-247.8859979848
20
-382.8483817146
30
0.0000000000
10
-247.8773344288
20
-382.8480230842
30
0.0000000000
10
-247.8686667173
20
-382.8477886934
30
0.0000000000
11
-247.8946529357
21
-382.8488597666
31
0.0000000000
11
-247.8686667173
21
-382.8477886934
31
0.0000000000
0
SPLINE
5
3EA
100
AcDbEntity
8
0
100
AcDbSpline
62
9
6
CONTINUOUS
70
0
71
3
72
10
73
6
74
4
42
0.0000001000
43
0.0000001000
44
0.0000000001
12
0.1456857917
22
0.0039396099
32
0.0000000000
13
0.1438195669
23
-0.0241745223
33
0.0000000000
40
0.0000000000
40
0.0000000000
40
0.0000000000
40
0.0000000000
40
0.3486430920
40
0.8460685313
40
1.0000000000
40
1.0000000000
40
1.0000000000
40
1.0000000000
10
-247.8686667173
20
-382.8477886934
30
0.0000000000
10
-247.8517359357
20
-382.8473308542
30
0.0000000000
10
-247.8106107377
20
-382.8473701435
30
0.0000000000
10
-247.7621237922
20
-382.8509660185
30
0.0000000000
10
-247.7307804822
20
-382.8555549099
30
0.0000000000
10
-247.7234010298
20
-382.8567953164
30
0.0000000000
11
-247.8686667173
21
-382.8477886934
31
0.0000000000
11
-247.8178599683
21
-382.8478731709
31
0.0000000000
11
-247.7456082019
21
-382.8535114527
31
0.0000000000
11
-247.7234010298
21
-382.8567953164
31
0.0000000000
0
SPLINE
5
3EB
100
AcDbEntity
8
0
100
AcDbSpline
62
9
6
CONTINUOUS
70
0
71
3
72
8
73
4
74
2
42
0.0000001000
43
0.0000001000
44
0.0000000001
12
0.0237336029
22
-0.0039893634
32
0.0000000000
13
0.0234891810
23
-0.0051773087
33
0.0000000000
40
0.0000000000
40
0.0000000000
40
0.0000000000
40
0.0000000000
40
1.0000000000
40
1.0000000000
40
1.0000000000
40
1.0000000000
10
-247.7234010298
20
-382.8567953164
30
0.0000000000
10
-247.7154898289
20
-382.8581251042
30
0.0000000000
10
-247.7076105023
20
-382.8596341152
30
0.0000000000
10
-247.6997807753
20
-382.8613598847
30
0.0000000000
11
-247.7234010298
21
-382.8567953164
31
0.0000000000
11
-247.6997807753
21
-382.8613598847
31
0.0000000000
0
SPLINE
5
3EC
100
AcDbEntity
8
0
100
AcDbSpline
62
9
6
CONTINUOUS
70
0
71
3
72
8
73
4
74
2
42
0.0000001000
43
0.0000001000
44
0.0000000001
12
0.0172327122
22
-0.0037983049
32
0.0000000000
13
0.0170515376
23
-0.0045427719
33
0.0000000000
40
0.0000000000
40
0.0000000000
40
0.0000000000
40
0.0000000000
40
1.0000000000
40
1.0000000000
40
1.0000000000
40
1.0000000000
10
-247.6997807753
20
-382.8613598847
30
0.0000000000
10
-247.6940365379
20
-382.8626259864
30
0.0000000000
10
-247.6883189967
20
-382.8640087550
30
0.0000000000
10
-247.6826351509
20
-382.8655230123
30
0.0000000000
11
-247.6997807753
21
-382.8613598847
31
0.0000000000
11
-247.6826351509
21
-382.8655230123
31
0.0000000000
0
SPLINE
5
3ED
100
AcDbEntity
8
0
100
AcDbSpline
62
9
6
CONTINUOUS
70
0
71
3
72
10
73
6
74
4
42
0.0000001000
43
0.0000001000
44
0.0000000001
12
0.1168063314
22
-0.0311188667
32
0.0000000000
13
-0.0000729979
23
-0.1208295183
33
0.0000000000
40
0.0000000000
40
0.0000000000
40
0.0000000000
40
0.0000000000
40
0.4363905819
40
0.7617294484
40
1.0000000000
40
1.0000000000
40
1.0000000000
40
1.0000000000
10
-247.6826351509
20
-382.8655230123
30
0.0000000000
10
-247.6656440899
20
-382.8700496724
30
0.0000000000
10
-247.6365114114
20
-382.8800020799
30
0.0000000000
10
-247.6013057390
20
-382.9007989031
30
0.0000000000
10
-247.5895020192
20
-382.9229055557
30
0.0000000000
10
-247.5895078170
20
-382.9325022610
30
0.0000000000
11
-247.6826351509
21
-382.8655230123
31
0.0000000000
11
-247.6330241491
21
-382.8833858956
31
0.0000000000
11
-247.6009189425
21
-382.9060701348
31
0.0000000000
11
-247.5895078170
21
-382.9325022610
31
0.0000000000
0
SPLINE
5
3EE
100
AcDbEntity
8
0
100
AcDbSpline
62
9
6
CONTINUOUS
70
0
71
3
72
10
73
6
74
4
42
0.0000001000
43
0.0000001000
44
0.0000000001
12
0.6096363370
22
-0.0336737673
32
0.0000000000
13
0.6096363343
23
0.0336738160
33
0.0000000000
40
0.0000000000
40
0.0000000000
40
0.0000000000
40
0.0000000000
40
0.3328661760
40
0.6669943864
40
1.0000000000
40
1.0000000000
40
1.0000000000
40
1.0000000000
10
-248.5049431732
20
-382.8488597666
30
0.0000000000
10
-248.4373007344
20
-382.8525960527
30
0.0000000000
10
-248.3016081867
20
-382.8575936409
30
0.0000000000
10
-248.0980446958
20
-382.8575952020
30
0.0000000000
10
-247.9623237096
20
-382.8525976232
30
0.0000000000
10
-247.8946529357
20
-382.8488597666
30
0.0000000000
11
-248.5049431732
21
-382.8488597666
31
0.0000000000
11
-248.3018442226
21
-382.8563397707
31
0.0000000000
11
-248.0978370220
21
-382.8563413395
31
0.0000000000
11
-247.8946529357
21
-382.8488597666
31
0.0000000000
0
SPLINE
5
3EF
100
AcDbEntity
8
0
100
AcDbSpline
62
9
6
CONTINUOUS
70
0
71
3
72
11
73
7
74
5
42
0.0000001000
43
0.0000001000
44
0.0000000001
12
0.0000256699
22
0.1384612527
32
0.0000000000
13
0.1352723955
23
0.0298191917
33
0.0000000000
40
0.0000000000
40
0.0000000000
40
0.0000000000
40
0.0000000000
40
0.2091032557
40
0.4931166190
40
0.8736295673
40
1.0000000000
40
1.0000000000
40
1.0000000000
40
1.0000000000
10
-248.8100882919
20
-382.9325022610
30
0.0000000000
10
-248.8100865027
20
-382.9228513614
30
0.0000000000
10
-248.7981973378
20
-382.9007025400
30
0.0000000000
10
-248.7629324292
20
-382.8799423522
30
0.0000000000
10
-248.7282645523
20
-382.8681147942
30
0.0000000000
10
-248.7055140611
20
-382.8626157609
30
0.0000000000
10
-248.6998159174
20
-382.8613596728
30
0.0000000000
11
-248.8100882919
21
-382.9325022610
31
0.0000000000
11
-248.7985620599
21
-382.9059428038
31
0.0000000000
11
-248.7664068070
21
-382.8833047103
31
0.0000000000
11
-248.7168247882
21
-382.8654870319
31
0.0000000000
11
-248.6998159174
21
-382.8613596728
31
0.0000000000
0
SPLINE
5
3F0
100
AcDbEntity
8
0
100
AcDbSpline
62
9
6
CONTINUOUS
70
0
71
3
72
8
73
4
74
2
42
0.0000001000
43
0.0000001000
44
0.0000000001
12
0.0042859530
22
0.0009447874
32
0.0000000000
13
0.0042955310
23
0.0009021475
33
0.0000000000
40
0.0000000000
40
0.0000000000
40
0.0000000000
40
0.0000000000
40
1.0000000000
40
1.0000000000
40
1.0000000000
40
1.0000000000
10
-248.6998159174
20
-382.8613596728
30
0.0000000000
10
-248.6983872664
20
-382.8610447437
30
0.0000000000
10
-248.6969569654
20
-382.8607370354
30
0.0000000000
10
-248.6955251217
20
-382.8604363196
30
0.0000000000
11
-248.6998159174
21
-382.8613596728
31
0.0000000000
11
-248.6955251217
21
-382.8604363196
31
0.0000000000
0
SPLINE
5
3F1
100
AcDbEntity
8
0
100
AcDbSpline
62
9
6
CONTINUOUS
70
0
71
3
72
8
73
4
74
2
42
0.0000001000
43
0.0000001000
44
0.0000000001
12
0.0193422573
22
0.0040622611
32
0.0000000000
13
0.0195005064
23
0.0032741333
33
0.0000000000
40
0.0000000000
40
0.0000000000
40
0.0000000000
40
0.0000000000
40
1.0000000000
40
1.0000000000
40
1.0000000000
40
1.0000000000
10
-248.6955251217
20
-382.8604363196
30
0.0000000000
10
-248.6890777026
20
-382.8590822325
30
0.0000000000
10
-248.6825990055
20
-382.8578699245
30
0.0000000000
10
-248.6760988367
20
-382.8567785468
30
0.0000000000
11
-248.6955251217
21
-382.8604363196
31
0.0000000000
11
-248.6760988367
21
-382.8567785468
31
0.0000000000
0
SPLINE
5
3F2
100
AcDbEntity
8
0
100
AcDbSpline
62
9
6
CONTINUOUS
70
0
71
3
72
10
73
6
74
4
42
0.0000001000
43
0.0000001000
44
0.0000000001
12
0.1436554342
22
0.0241197344
32
0.0000000000
13
0.1455167566
23
-0.0039235326
33
0.0000000000
40
0.0000000000
40
0.0000000000
40
0.0000000000
40
0.0000000000
40
0.1538736103
40
0.6506453984
40
1.0000000000
40
1.0000000000
40
1.0000000000
40
1.0000000000
10
-248.6760988367
20
-382.8567785468
30
0.0000000000
10
-248.6687305766
20
-382.8555414166
30
0.0000000000
10
-248.6374576660
20
-382.8509673314
30
0.0000000000
10
-248.5890275567
20
-382.8473728152
30
0.0000000000
10
-248.5479473792
20
-382.8473302748
30
0.0000000000
10
-248.5310017297
20
-382.8477871761
30
0.0000000000
11
-248.6760988367
21
-382.8567785468
31
0.0000000000
11
-248.6539255704
21
-382.8535029514
31
0.0000000000
11
-248.5818529032
21
-382.8478766388
31
0.0000000000
11
-248.5310017297
21
-382.8477871761
31
0.0000000000
0
SPLINE
5
3F3
100
AcDbEntity
8
0
100
AcDbSpline
62
9
6
CONTINUOUS
70
0
71
3
72
8
73
4
74
2
42
0.0000001000
43
0.0000001000
44
0.0000000001
12
0.0260755307
22
-0.0007030681
32
0.0000000000
13
0.0260370964
23
-0.0014371509
33
0.0000000000
40
0.0000000000
40
0.0000000000
40
0.0000000000
40
0.0000000000
40
1.0000000000
40
1.0000000000
40
1.0000000000
40
1.0000000000
10
-248.5310017297
20
-382.8477871761
30
0.0000000000
10
-248.5223098861
20
-382.8480215322
30
0.0000000000
10
-248.5136222053
20
-382.8483807163
30
0.0000000000
10
-248.5049431732
20
-382.8488597666
30
0.0000000000
11
-248.5310017297
21
-382.8477871761
31
0.0000000000
11
-248.5049431732
21
-382.8488597666
31
0.0000000000
0
SPLINE
5
3F4
100
AcDbEntity
8
0
100
AcDbSpline
62
9
6
CONTINUOUS
70
0
71
3
72
12
73
8
74
6
42
0.0000001000
43
0.0000001000
44
0.0000000001
12
-0.0000000402
22
0.2481769191
32
0.0000000000
13
0.0000000830
23
0.2481769191
33
0.0000000000
40
0.0000000000
40
0.0000000000
40
0.0000000000
40
0.0000000000
40
0.1005484461
40
0.2392339420
40
0.4272491127
40
0.6764381929
40
1.0000000000
40
1.0000000000
40
1.0000000000
40
1.0000000000
10
-248.8100882919
20
-383.1806791802
30
0.0000000000
10
-248.8100882932
20
-383.1723612456
30
0.0000000000
10
-248.8100882902
20
-383.1525704647
30
0.0000000000
10
-248.8100882950
20
-383.1172260086
30
0.0000000000
10
-248.8100882910
20
-383.0695851609
30
0.0000000000
10
-248.8100882867
20
-383.0066503020
30
0.0000000000
10
-248.8100883008
20
-382.9592691185
30
0.0000000000
10
-248.8100882919
20
-382.9325022610
30
0.0000000000
11
-248.8100882919
21
-383.1806791802
31
0.0000000000
11
-248.8100882917
21
-383.1557253766
31
0.0000000000
11
-248.8100882934
21
-383.1213068375
31
0.0000000000
11
-248.8100882915
21
-383.0746458117
31
0.0000000000
11
-248.8100882904
21
-383.0128028334
31
0.0000000000
11
-248.8100882919
21
-382.9325022610
31
0.0000000000
0
SPLINE
5
3F5
100
AcDbEntity
8
0
100
AcDbSpline
62
9
6
CONTINUOUS
70
0
71
3
72
14
73
10
74
8
42
0.0000001000
43
0.0000001000
44
0.0000000001
12
0.1022860762
22
-0.0124369244
32
0.0000000000
13
-0.0002474778
23
0.1030391053
33
0.0000000000
40
0.0000000000
40
0.0000000000
40
0.0000000000
40
0.0000000000
40
0.1614060718
40
0.3347621391
40
0.5142394507
40
0.6893348921
40
0.8429827303
40
0.9520038950
40
1.0000000000
40
1.0000000000
40
1.0000000000
40
1.0000000000
10
-248.9118033315
20
-383.1806791802
30
0.0000000000
10
-248.9063001336
20
-383.1813483119
30
0.0000000000
10
-248.8948694704
20
-383.1826243629
30
0.0000000000
10
-248.8772924803
20
-383.1842229918
30
0.0000000000
10
-248.8591391817
20
-383.1853780808
30
0.0000000000
10
-248.8418858868
20
-383.1859936771
30
0.0000000000
10
-248.8262528893
20
-383.1854797749
30
0.0000000000
10
-248.8169198455
20
-383.1847545257
30
0.0000000000
10
-248.8100843326
20
-383.1823276721
30
0.0000000000
10
-248.8100882919
20
-383.1806791802
30
0.0000000000
11
-248.9118033315
21
-383.1806791802
31
0.0000000000
11
-248.8952747923
21
-383.1825240958
31
0.0000000000
11
-248.8774842192
21
-383.1841255374
31
0.0000000000
11
-248.8590282481
21
-383.1852989386
31
0.0000000000
11
-248.8409934004
21
-383.1857972135
31
0.0000000000
11
-248.8251687204
21
-383.1853230781
31
0.0000000000
11
-248.8140652763
21
-383.1836188173
31
0.0000000000
11
-248.8100882919
21
-383.1806791802
31
0.0000000000
0
SPLINE
5
3F6
100
AcDbEntity
8
0
100
AcDbSpline
62
9
6
CONTINUOUS
70
0
71
3
72
10
73
6
74
4
42
0.0000001000
43
0.0000001000
44
0.0000000001
12
0.0000000011
22
0.0084211513
32
0.0000000000
13
0.0000000040
23
0.0084211513
33
0.0000000000
40
0.0000000000
40
0.0000000000
40
0.0000000000
40
0.0000000000
40
0.1109954972
40
0.4447521893
40
1.0000000000
40
1.0000000000
40
1.0000000000
40
1.0000000000
10
-250.3358138856
20
-382.8572809179
30
0.0000000000
10
-250.3358138855
20
-382.8569693480
30
0.0000000000
10
-250.3358138853
20
-382.8557209061
30
0.0000000000
10
-250.3358138848
20
-382.8529138557
30
0.0000000000
10
-250.3358138863
20
-382.8504183752
30
0.0000000000
10
-250.3358138856
20
-382.8488597666
30
0.0000000000
11
-250.3358138856
21
-382.8572809179
31
0.0000000000
11
-250.3358138854
21
-382.8563462081
31
0.0000000000
11
-250.3358138852
21
-382.8535355924
31
0.0000000000
11
-250.3358138856
21
-382.8488597666
31
0.0000000000
0
SPLINE
5
3F7
100
AcDbEntity
8
0
100
AcDbSpline
62
9
6
CONTINUOUS
70
0
71
3
72
12
73
8
74
6
42
0.0000001000
43
0.0000001000
44
0.0000000001
12
1.0911187217
22
-0.3562227291
32
0.0000000000
13
1.1394049461
23
-0.1385318241
33
0.0000000000
40
0.0000000000
40
0.0000000000
40
0.0000000000
40
0.0000000000
40
0.2220767843
40
0.4263822369
40
0.6251590283
40
0.8222368415
40
1.0000000000
40
1.0000000000
40
1.0000000000
40
1.0000000000
10
-250.0306687668
20
-382.9325022610
30
0.0000000000
10
-249.9498980545
20
-382.9588718604
30
0.0000000000
10
-249.7937042089
20
-383.0061568054
30
0.0000000000
10
-249.5620454605
20
-383.0659204271
30
0.0000000000
10
-249.3375697893
20
-383.1145318881
30
0.0000000000
10
-249.1213954669
20
-383.1526977000
30
0.0000000000
10
-248.9793180722
20
-383.1724705620
30
0.0000000000
10
-248.9118033315
20
-383.1806791802
30
0.0000000000
11
-250.0306687668
21
-382.9325022610
31
0.0000000000
11
-249.7867041681
21
-383.0063578516
31
0.0000000000
11
-249.5596377783
21
-383.0649370694
31
0.0000000000
11
-249.3366513579
21
-383.1132259545
31
0.0000000000
11
-249.1138914133
21
-383.1525544263
31
0.0000000000
11
-248.9118033315
21
-383.1806791802
31
0.0000000000
0
SPLINE
5
3F8
100
AcDbEntity
8
0
100
AcDbSpline
62
9
6
CONTINUOUS
70
0
71
3
72
10
73
6
74
4
42
0.0000001000
43
0.0000001000
44
0.0000000001
12
-0.0000305523
22
0.0705416368
32
0.0000000000
13
0.0710873922
23
-0.0193144344
33
0.0000000000
40
0.0000000000
40
0.0000000000
40
0.0000000000
40
0.0000000000
40
0.1406318942
40
0.5591741542
40
1.0000000000
40
1.0000000000
40
1.0000000000
40
1.0000000000
10
-250.3358138856
20
-382.8488597666
30
0.0000000000
10
-250.3358153178
20
-382.8455529653
30
0.0000000000
10
-250.3147204229
20
-382.8506725983
30
0.0000000000
10
-250.2978460170
20
-382.8527845507
30
0.0000000000
10
-250.2780177731
20
-382.8578368431
30
0.0000000000
10
-250.2675720531
20
-382.8606749437
30
0.0000000000
11
-250.3358138856
21
-382.8488597666
31
0.0000000000
11
-250.3259420803
21
-382.8478790041
31
0.0000000000
11
-250.2969584784
21
-382.8535053975
31
0.0000000000
11
-250.2675720531
21
-382.8606749437
31
0.0000000000
0
SPLINE
5
3F9
100
AcDbEntity
8
0
100
AcDbSpline
62
9
6
CONTINUOUS
70
0
71
3
72
11
73
7
74
5
42
0.0000001000
43
0.0000001000
44
0.0000000001
12
0.2486304027
22
-0.0675528451
32
0.0000000000
13
0.2345404016
23
-0.0765660645
33
0.0000000000
40
0.0000000000
40
0.0000000000
40
0.0000000000
40
0.0000000000
40
0.0697732047
40
0.3340318270
40
0.6507837916
40
1.0000000000
40
1.0000000000
40
1.0000000000
40
1.0000000000
10
-250.2675720531
20
-382.8606749437
30
0.0000000000
10
-250.2617894731
20
-382.8622460699
30
0.0000000000
10
-250.2337032259
20
-382.8701292432
30
0.0000000000
10
-250.1837656563
20
-382.8842741464
30
0.0000000000
10
-250.1099710219
20
-382.9069667621
30
0.0000000000
10
-250.0579705368
20
-382.9235895574
30
0.0000000000
10
-250.0306687668
20
-382.9325022610
30
0.0000000000
11
-250.2675720531
21
-382.8606749437
31
0.0000000000
11
-250.2501631485
21
-382.8655121949
31
0.0000000000
11
-250.1874817827
21
-382.8834528477
31
0.0000000000
11
-250.1127342968
21
-382.9062600218
31
0.0000000000
11
-250.0306687668
21
-382.9325022610
31
0.0000000000
0
SPLINE
5
3FA
100
AcDbEntity
8
0
100
AcDbSpline
62
9
6
CONTINUOUS
70
0
71
3
72
9
73
5
74
3
42
0.0000001000
43
0.0000001000
44
0.0000000001
12
0.0385583277
22
-0.0148674323
32
0.0000000000
13
0.0415816152
23
0.0019562143
33
0.0000000000
40
0.0000000000
40
0.0000000000
40
0.0000000000
40
0.0000000000
40
0.9326375344
40
1.0000000000
40
1.0000000000
40
1.0000000000
40
1.0000000000
10
-250.3358108144
20
-382.8488518259
30
0.0000000000
10
-250.3238238332
20
-382.8534738011
30
0.0000000000
10
-250.3098561832
20
-382.8559450161
30
0.0000000000
10
-250.2959841135
20
-382.8554889190
30
0.0000000000
10
-250.2950504334
20
-382.8554449938
30
0.0000000000
11
-250.3358108144
21
-382.8488518259
31
0.0000000000
11
-250.2978534608
21
-382.8555370834
31
0.0000000000
11
-250.2950504334
21
-382.8554449938
31
0.0000000000
0
SPLINE
5
3FB
100
AcDbEntity
8
0
100
AcDbSpline
62
9
6
CONTINUOUS
70
0
71
3
72
11
73
7
74
5
42
0.0000001000
43
0.0000001000
44
0.0000000001
12
0.1364282044
22
-0.0140105337
32
0.0000000000
13
0.0395342535
23
0.1327328489
33
0.0000000000
40
0.0000000000
40
0.0000000000
40
0.0000000000
40
0.0000000000
40
0.3028818956
40
0.6052345461
40
0.9066924769
40
1.0000000000
40
1.0000000000
40
1.0000000000
40
1.0000000000
10
-248.8100882905
20
-383.1806791664
30
0.0000000000
10
-248.7963144127
20
-383.1820936787
30
0.0000000000
10
-248.7678544932
20
-383.1791210795
30
0.0000000000
10
-248.7309028498
20
-383.1578672223
30
0.0000000000
10
-248.7115072949
20
-383.1314321919
30
0.0000000000
10
-248.7051726484
20
-383.1142973367
30
0.0000000000
10
-248.7039430339
20
-383.1101690122
30
0.0000000000
11
-248.8100882905
21
-383.1806791664
31
0.0000000000
11
-248.7687797640
21
-383.1763098855
31
0.0000000000
11
-248.7328242723
21
-383.1556540691
31
0.0000000000
11
-248.7084268960
21
-383.1222764299
31
0.0000000000
11
-248.7039430339
21
-383.1101690122
31
0.0000000000
0
SPLINE
5
3FC
100
AcDbEntity
8
0
100
AcDbSpline
62
9
6
CONTINUOUS
70
0
71
3
72
8
73
4
74
2
42
0.0000001000
43
0.0000001000
44
0.0000000001
12
0.0033860998
22
0.0113685382
32
0.0000000000
13
0.0020145149
23
0.0116653788
33
0.0000000000
40
0.0000000000
40
0.0000000000
40
0.0000000000
40
0.0000000000
40
1.0000000000
40
1.0000000000
40
1.0000000000
40
1.0000000000
10
-248.7039430339
20
-383.1101690122
30
0.0000000000
10
-248.7028143340
20
-383.1063794995
30
0.0000000000
10
-248.7019111588
20
-383.1025240141
30
0.0000000000
10
-248.7012396539
20
-383.0986355545
30
0.0000000000
11
-248.7039430339
21
-383.1101690122
31
0.0000000000
11
-248.7012396539
21
-383.0986355545
31
0.0000000000
0
SPLINE
5
3FD
100
AcDbEntity
8
0
100
AcDbSpline
62
9
6
CONTINUOUS
70
0
71
3
72
8
73
4
74
2
42
0.0000001000
43
0.0000001000
44
0.0000000001
12
0.0006855855
22
0.0039699952
32
0.0000000000
13
0.0005238670
23
0.0039890075
33
0.0000000000
40
0.0000000000
40
0.0000000000
40
0.0000000000
40
0.0000000000
40
1.0000000000
40
1.0000000000
40
1.0000000000
40
1.0000000000
10
-248.7012396539
20
-383.0986355545
30
0.0000000000
10
-248.7010111254
20
-383.0973122227
30
0.0000000000
10
-248.7008094288
20
-383.0959850720
30
0.0000000000
10
-248.7006348065
20
-383.0946554028
30
0.0000000000
11
-248.7012396539
21
-383.0986355545
31
0.0000000000
11
-248.7006348065
21
-383.0946554028
31
0.0000000000
0
SPLINE
5
3FE
100
AcDbEntity
8
0
100
AcDbSpline
62
9
6
CONTINUOUS
70
0
71
3
72
8
73
4
74
2
42
0.0000001000
43
0.0000001000
44
0.0000000001
12
0.0016657154
22
0.0126836605
32
0.0000000000
13
0.0000000018
23
0.0127109900
33
0.0000000000
40
0.0000000000
40
0.0000000000
40
0.0000000000
40
0.0000000000
40
1.0000000000
40
1.0000000000
40
1.0000000000
40
1.0000000000
10
-248.7006348065
20
-383.0946554028
30
0.0000000000
10
-248.7000795681
20
-383.0904275160
30
0.0000000000
10
-248.6997980550
20
-383.0861741679
30
0.0000000000
10
-248.6997980544
20
-383.0819371712
30
0.0000000000
11
-248.7006348065
21
-383.0946554028
31
0.0000000000
11
-248.6997980544
21
-383.0819371712
31
0.0000000000
0
SPLINE
5
3FF
100
AcDbEntity
8
0
100
AcDbSpline
62
9
6
CONTINUOUS
70
0
71
3
72
10
73
6
74
4
42
0.0000001000
43
0.0000001000
44
0.0000000001
12
0.1210365973
22
-0.0119148569
32
0.0000000000
13
0.0533106822
23
0.1105467502
33
0.0000000000
40
0.0000000000
40
0.0000000000
40
0.0000000000
40
0.0000000000
40
0.3413955304
40
0.6788235121
40
1.0000000000
40
1.0000000000
40
1.0000000000
40
1.0000000000
10
-248.8100878133
20
-382.9324978676
30
0.0000000000
10
-248.7963140289
20
-382.9338537606
30
0.0000000000
10
-248.7680729043
20
-382.9310525086
30
0.0000000000
10
-248.7315364120
20
-382.9110896435
30
0.0000000000
10
-248.7146252929
20
-382.8894584093
30
0.0000000000
10
-248.7089179137
20
-382.8776234036
30
0.0000000000
11
-248.8100878133
21
-382.9324978676
31
0.0000000000
11
-248.7687777461
21
-382.9283171261
31
0.0000000000
11
-248.7328199625
21
-382.9085383560
31
0.0000000000
11
-248.7089179137
21
-382.8776234036
31
0.0000000000
0
SPLINE
5
400
100
AcDbEntity
8
0
100
AcDbSpline
62
9
6
CONTINUOUS
70
0
71
3
72
10
73
6
74
4
42
0.0000001000
43
0.0000001000
44
0.0000000001
12
-0.1210105791
22
-0.0119005592
32
0.0000000000
13
-0.0533247757
23
0.1105085263
33
0.0000000000
40
0.0000000000
40
0.0000000000
40
0.0000000000
40
0.0000000000
40
0.3414622253
40
0.6789559621
40
1.0000000000
40
1.0000000000
40
1.0000000000
40
1.0000000000
10
-247.5895078242
20
-382.9325021946
30
0.0000000000
10
-247.6032813381
20
-382.9338567250
30
0.0000000000
10
-247.6315213021
20
-382.9310531847
30
0.0000000000
10
-247.6680482341
20
-382.9110925548
30
0.0000000000
10
-247.6849550448
20
-382.8894702827
30
0.0000000000
10
-247.6906615786
20
-382.8776442482
30
0.0000000000
11
-247.5895078242
21
-382.9325021946
31
0.0000000000
11
-247.6308163357
21
-382.9283180807
31
0.0000000000
11
-247.6667718179
21
-382.9085376457
31
0.0000000000
11
-247.6906615786
21
-382.8776442482
31
0.0000000000
0
SPLINE
5
401
100
AcDbEntity
8
0
100
AcDbSpline
62
9
6
CONTINUOUS
70
0
71
3
72
11
73
7
74
5
42
0.0000001000
43
0.0000001000
44
0.0000000001
12
-0.1647257712
22
-0.0169074676
32
0.0000000000
13
-0.0000024998
23
0.1655911898
33
0.0000000000
40
0.0000000000
40
0.0000000000
40
0.0000000000
40
0.0000000000
40
0.2508328946
40
0.5012304872
40
0.7508912799
40
1.0000000000
40
1.0000000000
40
1.0000000000
40
1.0000000000
10
-247.5895078271
20
-383.1806790827
30
0.0000000000
10
-247.6032807078
20
-383.1820927324
30
0.0000000000
10
-247.6317384120
20
-383.1791187490
30
0.0000000000
10
-247.6686864908
20
-383.1578643222
30
0.0000000000
10
-247.6938520685
20
-383.1235625207
30
0.0000000000
10
-247.6997883070
20
-383.0956872407
30
0.0000000000
10
-247.6997885145
20
-383.0819371709
30
0.0000000000
11
-247.5895078271
21
-383.1806790827
31
0.0000000000
11
-247.6308128927
21
-383.1763078834
31
0.0000000000
11
-247.6667649832
21
-383.1556516437
31
0.0000000000
11
-247.6911600900
21
-383.1222748711
31
0.0000000000
11
-247.6997885145
21
-383.0819371709
31
0.0000000000
0
SPLINE
5
402
100
AcDbEntity
8
0
100
AcDbSpline
62
9
6
CONTINUOUS
70
0
71
3
72
9
73
5
74
3
42
0.0000001000
43
0.0000001000
44
0.0000000001
12
-0.0385822683
22
-0.0148726601
32
0.0000000000
13
-0.0416051680
23
0.0019714101
33
0.0000000000
40
0.0000000000
40
0.0000000000
40
0.0000000000
40
0.0000000000
40
0.9320597385
40
1.0000000000
40
1.0000000000
40
1.0000000000
40
1.0000000000
10
-246.0637822252
20
-382.8488597616
30
0.0000000000
10
-246.0757692182
20
-382.8534804975
30
0.0000000000
10
-246.0897452344
20
-382.8559520038
30
0.0000000000
10
-246.1036253302
20
-382.8554927435
30
0.0000000000
10
-246.1045675522
20
-382.8554480975
30
0.0000000000
11
-246.0637822252
21
-382.8488597616
31
0.0000000000
11
-246.1017388527
21
-382.8555416200
31
0.0000000000
11
-246.1045675522
21
-382.8554480975
31
0.0000000000
0
SPLINE
5
403
100
AcDbEntity
8
0
100
AcDbSpline
62
7
6
CONTINUOUS
70
0
71
3
72
16
73
12
74
10
42
0.0000001000
43
0.0000001000
44
0.0000000001
12
0.0289744044
22
-0.2588793067
32
0.0000000000
13
0.2571086795
23
0.0312684163
33
0.0000000000
40
0.0000000000
40
0.0000000000
40
0.0000000000
40
0.0000000000
40
0.0950980898
40
0.2223386279
40
0.3380988178
40
0.4476222810
40
0.5468622451
40
0.6466093114
40
0.7654231273
40
0.9093720201
40
1.0000000000
40
1.0000000000
40
1.0000000000
40
1.0000000000
10
-32.6991594856
20
-383.0931442642
30
0.0000000000
10
-32.6982410154
20
-383.1013505734
30
0.0000000000
10
-32.6937632517
20
-383.1203475101
30
0.0000000000
10
-32.6790434439
20
-383.1461118815
30
0.0000000000
10
-32.6563215376
20
-383.1670115250
30
0.0000000000
10
-32.6309527868
20
-383.1796730148
30
0.0000000000
10
-32.6048078633
20
-383.1855951471
30
0.0000000000
10
-32.5773693288
20
-383.1873041368
30
0.0000000000
10
-32.5460636982
20
-383.1866276955
30
0.0000000000
10
-32.5156312907
20
-383.1843425383
30
0.0000000000
10
-32.4954955925
20
-383.1821523551
30
0.0000000000
10
-32.4877285124
20
-383.1812077573
30
0.0000000000
11
-32.6991594856
21
-383.0931442642
31
0.0000000000
11
-32.6934588807
21
-383.1172254645
31
0.0000000000
11
-32.6771499499
21
-383.1458595502
31
0.0000000000
11
-32.6551036060
21
-383.1661755598
31
0.0000000000
11
-32.6297712011
21
-383.1789354050
31
0.0000000000
11
-32.6047719891
21
-383.1849014946
31
0.0000000000
11
-32.5790146518
21
-383.1868718589
31
0.0000000000
11
-32.5482473450
21
-383.1864274455
31
0.0000000000
11
-32.5110640123
21
-383.1837441925
31
0.0000000000
11
-32.4877285124
21
-383.1812077573
31
0.0000000000
0
SPLINE
5
404
100
AcDbEntity
8
0
100
AcDbSpline
62
7
6
CONTINUOUS
70
0
71
3
72
17
73
13
74
11
42
0.0000001000
43
0.0000001000
44
0.0000000001
12
0.2409615793
22
0.0786737289
32
0.0000000000
13
0.2508541122
23
0.0616341786
33
0.0000000000
40
0.0000000000
40
0.0000000000
40
0.0000000000
40
0.0000000000
40
0.1257174119
40
0.2559316030
40
0.3801033766
40
0.4973284206
40
0.6067933816
40
0.7076507114
40
0.7992778858
40
0.8810031933
40
0.9522887015
40
1.0000000000
40
1.0000000000
40
1.0000000000
40
1.0000000000
10
-31.3687636116
20
-382.9330037748
30
0.0000000000
10
-31.3586659229
20
-382.9297068889
30
0.0000000000
10
-31.3380936364
20
-382.9230433659
30
0.0000000000
10
-31.3074938328
20
-382.9132912560
30
0.0000000000
10
-31.2775311914
20
-382.9039034897
30
0.0000000000
10
-31.2491964707
20
-382.8951873866
30
0.0000000000
10
-31.2226974477
20
-382.8871969374
30
0.0000000000
10
-31.1982294586
20
-382.8799918770
30
0.0000000000
10
-31.1759373360
20
-382.8736058596
30
0.0000000000
10
-31.1560845723
20
-382.8680762338
30
0.0000000000
10
-31.1395192558
20
-382.8636840697
30
0.0000000000
10
-31.1300942538
20
-382.8612368849
30
0.0000000000
10
-31.1261047286
20
-382.8602566694
30
0.0000000000
11
-31.3687636116
21
-382.9330037748
31
0.0000000000
11
-31.3384475668
21
-382.9231839045
31
0.0000000000
11
-31.3069990531
21
-382.9131624985
31
0.0000000000
11
-31.2769628785
21
-382.9037548486
31
0.0000000000
11
-31.2485610656
21
-382.8950217191
31
0.0000000000
11
-31.2219935562
21
-382.8870173214
31
0.0000000000
11
-31.1974676371
21
-382.8798019105
31
0.0000000000
11
-31.1751393420
21
-382.8734084561
31
0.0000000000
11
-31.1551772585
21
-382.8678717532
31
0.0000000000
11
-31.1377156902
21
-382.8632244507
31
0.0000000000
11
-31.1261047286
21
-382.8602566694
31
0.0000000000
0
SPLINE
5
405
100
AcDbEntity
8
0
100
AcDbSpline
62
7
6
CONTINUOUS
70
0
71
3
72
11
73
7
74
5
42
0.0000001000
43
0.0000001000
44
0.0000000001
12
0.0254898087
22
0.0062627772
32
0.0000000000
13
0.0387715112
23
0.0062176843
33
0.0000000000
40
0.0000000000
40
0.0000000000
40
0.0000000000
40
0.0000000000
40
0.1248469644
40
0.5993276583
40
0.9394943737
40
1.0000000000
40
1.0000000000
40
1.0000000000
40
1.0000000000
10
-31.1261047286
20
-382.8602566694
30
0.0000000000
10
-31.1250439536
20
-382.8599960398
30
0.0000000000
10
-31.1198802276
20
-382.8587452183
30
0.0000000000
10
-31.1110615910
20
-382.8567704981
30
0.0000000000
10
-31.1065684528
20
-382.8555296415
30
0.0000000000
10
-31.1007228577
20
-382.8546027987
30
0.0000000000
10
-31.0999408929
20
-382.8544773971
30
0.0000000000
11
-31.1261047286
21
-382.8602566694
31
0.0000000000
11
-31.1228725805
21
-382.8594745319
31
0.0000000000
11
-31.1109760313
21
-382.8566772172
31
0.0000000000
11
-31.1024019540
21
-382.8548745435
31
0.0000000000
11
-31.0999408929
21
-382.8544773971
31
0.0000000000
0
SPLINE
5
406
100
AcDbEntity
8
0
100
AcDbSpline
62
7
6
CONTINUOUS
70
0
71
3
72
10
73
6
74
4
42
0.0000001000
43
0.0000001000
44
0.0000000001
12
1.1394054503
22
0.1385357645
32
0.0000000000
13
1.0911165306
23
0.3562186596
33
0.0000000000
40
0.0000000000
40
0.0000000000
40
0.0000000000
40
0.0000000000
40
0.3242326341
40
0.6737101514
40
1.0000000000
40
1.0000000000
40
1.0000000000
40
1.0000000000
10
-32.4877287148
20
-383.1812060876
30
0.0000000000
10
-32.3645845713
20
-383.1662334823
30
0.0000000000
10
-32.1096156055
20
-383.1270390993
30
0.0000000000
10
-31.7358369534
20
-383.0442093325
30
0.0000000000
10
-31.4874360259
20
-382.9717503540
30
0.0000000000
10
-31.3687626100
20
-382.9330068431
30
0.0000000000
11
-32.4877287148
21
-383.1812060876
31
0.0000000000
11
-32.1198993599
21
-383.1246608999
31
0.0000000000
11
-31.7282895777
21
-383.0378796883
31
0.0000000000
11
-31.3687626100
21
-382.9330068431
31
0.0000000000
0
SPLINE
5
407
100
AcDbEntity
8
0
100
AcDbSpline
62
7
6
CONTINUOUS
70
0
71
3
72
8
73
4
74
2
42
0.0000001000
43
0.0000001000
44
0.0000000001
12
0.0000045224
22
-0.0112105483
32
0.0000000000
13
0.0012537431
23
-0.0111931650
33
0.0000000000
40
0.0000000000
40
0.0000000000
40
0.0000000000
40
0.0000000000
40
1.0000000000
40
1.0000000000
40
1.0000000000
40
1.0000000000
10
-32.6997880643
20
-383.0819282566
30
0.0000000000
10
-32.6997865568
20
-383.0856651061
30
0.0000000000
10
-32.6995747134
20
-383.0894129078
30
0.0000000000
10
-32.6991567991
20
-383.0931439628
30
0.0000000000
11
-32.6997880643
21
-383.0819282566
31
0.0000000000
11
-32.6991567991
21
-383.0931439628
31
0.0000000000
0
SPLINE
5
408
100
AcDbEntity
8
0
100
AcDbSpline
62
7
6
CONTINUOUS
70
0
71
3
72
13
73
9
74
7
42
0.0000001000
43
0.0000001000
44
0.0000000001
12
0.0186732971
22
-0.1667114088
32
0.0000000000
13
0.1668252168
23
-0.0043654261
33
0.0000000000
40
0.0000000000
40
0.0000000000
40
0.0000000000
40
0.0000000000
40
0.1475633507
40
0.3441968187
40
0.5230475999
40
0.6926499719
40
0.8460445029
40
1.0000000000
40
1.0000000000
40
1.0000000000
40
1.0000000000
10
-32.6991567990
20
-383.0931439633
30
0.0000000000
10
-32.6982383009
20
-383.1013441280
30
0.0000000000
10
-32.6937740586
20
-383.1202826209
30
0.0000000000
10
-32.6791346464
20
-383.1459618420
30
0.0000000000
10
-32.6565647692
20
-383.1668298231
30
0.0000000000
10
-32.6313434284
20
-383.1795270242
30
0.0000000000
10
-32.6053333001
20
-383.1855204090
30
0.0000000000
10
-32.5882450624
20
-383.1866305877
30
0.0000000000
10
-32.5796838427
20
-383.1868546148
30
0.0000000000
11
-32.6991567990
21
-383.0931439633
31
0.0000000000
11
-32.6934603735
21
-383.1172077177
31
0.0000000000
11
-32.6772553076
21
-383.1457215882
31
0.0000000000
11
-32.6553693243
21
-383.1659920734
31
0.0000000000
11
-32.6301479726
21
-383.1788029716
31
0.0000000000
11
-32.6052823883
21
-383.1848278734
31
0.0000000000
11
-32.5796838427
21
-383.1868546148
31
0.0000000000
0
SPLINE
5
409
100
AcDbEntity
8
0
100
AcDbSpline
62
7
6
CONTINUOUS
70
0
71
3
72
8
73
4
74
2
42
0.0000001000
43
0.0000001000
44
0.0000000001
12
0.0304850193
22
-0.0007977217
32
0.0000000000
13
0.0304535634
23
0.0013443544
33
0.0000000000
40
0.0000000000
40
0.0000000000
40
0.0000000000
40
0.0000000000
40
1.0000000000
40
1.0000000000
40
1.0000000000
40
1.0000000000
10
-32.5796838427
20
-383.1868546148
30
0.0000000000
10
-32.5695221696
20
-383.1871205220
30
0.0000000000
10
-32.5593583742
20
-383.1869185910
30
0.0000000000
10
-32.5492071864
20
-383.1864704728
30
0.0000000000
11
-32.5796838427
21
-383.1868546148
31
0.0000000000
11
-32.5492071864
21
-383.1864704728
31
0.0000000000
0
SPLINE
5
40A
100
AcDbEntity
8
0
100
AcDbSpline
62
7
6
CONTINUOUS
70
0
71
3
72
9
73
5
74
3
42
0.0000001000
43
0.0000001000
44
0.0000000001
12
0.0616600254
22
0.0027219451
32
0.0000000000
13
0.0612650701
23
0.0074519145
33
0.0000000000
40
0.0000000000
40
0.0000000000
40
0.0000000000
40
0.0000000000
40
0.5991729697
40
1.0000000000
40
1.0000000000
40
1.0000000000
40
1.0000000000
10
-32.5492071864
20
-383.1864704728
30
0.0000000000
10
-32.5368921796
20
-383.1859268342
30
0.0000000000
10
-32.5163698060
20
-383.1844148070
30
0.0000000000
10
-32.4959141083
20
-383.1822031466
30
0.0000000000
10
-32.4877285429
20
-383.1812075037
30
0.0000000000
11
-32.5492071864
21
-383.1864704728
31
0.0000000000
11
-32.5123232137
21
-383.1838637285
31
0.0000000000
11
-32.4877285429
21
-383.1812075037
31
0.0000000000
0
SPLINE
5
40B
100
AcDbEntity
8
0
100
AcDbSpline
62
7
6
CONTINUOUS
70
0
71
3
72
8
73
4
74
2
42
0.0000001000
43
0.0000001000
44
0.0000000001
12
0.0121258853
22
0.0006742997
32
0.0000000000
13
0.0121403917
23
0.0004857074
33
0.0000000000
40
0.0000000000
40
0.0000000000
40
0.0000000000
40
0.0000000000
40
1.0000000000
40
1.0000000000
40
1.0000000000
40
1.0000000000
10
-32.8942837438
20
-382.8555437000
30
0.0000000000
10
-32.8902417820
20
-382.8553189335
30
0.0000000000
10
-32.8861974355
20
-382.8551252605
30
0.0000000000
10
-32.8821506383
20
-382.8549633581
30
0.0000000000
11
-32.8942837438
21
-382.8555437000
31
0.0000000000
11
-32.8821506383
21
-382.8549633581
31
0.0000000000
0
SPLINE
5
40C
100
AcDbEntity
8
0
100
AcDbSpline
62
7
6
CONTINUOUS
70
0
71
3
72
8
73
4
74
2
42
0.0000001000
43
0.0000001000
44
0.0000000001
12
0.0226721203
22
0.0009070561
32
0.0000000000
13
0.0227246917
23
0.0002290275
33
0.0000000000
40
0.0000000000
40
0.0000000000
40
0.0000000000
40
0.0000000000
40
1.0000000000
40
1.0000000000
40
1.0000000000
40
1.0000000000
10
-32.8821506383
20
-382.8549633581
30
0.0000000000
10
-32.8745932649
20
-382.8546610061
30
0.0000000000
10
-32.8670273445
20
-382.8544694547
30
0.0000000000
10
-32.8594524472
20
-382.8543931122
30
0.0000000000
11
-32.8821506383
21
-382.8549633581
31
0.0000000000
11
-32.8594524472
21
-382.8543931122
31
0.0000000000
0
SPLINE
5
40D
100
AcDbEntity
8
0
100
AcDbSpline
62
7
6
CONTINUOUS
70
0
71
3
72
11
73
7
74
5
42
0.0000001000
43
0.0000001000
44
0.0000000001
12
0.1625355335
22
0.0016380908
32
0.0000000000
13
0.1430045884
23
-0.0452983136
33
0.0000000000
40
0.0000000000
40
0.0000000000
40
0.0000000000
40
0.0000000000
40
0.3921400466
40
0.7167710143
40
0.9507098624
40
1.0000000000
40
1.0000000000
40
1.0000000000
40
1.0000000000
10
-32.8594524472
20
-382.8543931122
30
0.0000000000
10
-32.8382068833
20
-382.8541789919
30
0.0000000000
10
-32.7992442209
20
-382.8554441764
30
0.0000000000
10
-32.7488769990
20
-382.8607805814
30
0.0000000000
10
-32.7152034228
20
-382.8694616061
30
0.0000000000
10
-32.7020347640
20
-382.8729213307
30
0.0000000000
10
-32.6996851920
20
-382.8736655840
30
0.0000000000
11
-32.8594524472
21
-382.8543931122
31
0.0000000000
11
-32.7958705940
21
-382.8563888666
31
0.0000000000
11
-32.7436159856
21
-382.8629250738
31
0.0000000000
11
-32.7066945908
21
-382.8716994219
31
0.0000000000
11
-32.6996851920
21
-382.8736655840
31
0.0000000000
0
SPLINE
5
40E
100
AcDbEntity
8
0
100
AcDbSpline
62
7
6
CONTINUOUS
70
0
71
3
72
9
73
5
74
3
42
0.0000001000
43
0.0000001000
44
0.0000000001
12
0.0148819146
22
-0.0047140140
32
0.0000000000
13
0.0133048910
23
-0.0072041476
33
0.0000000000
40
0.0000000000
40
0.0000000000
40
0.0000000000
40
0.0000000000
40
0.8019985287
40
1.0000000000
40
1.0000000000
40
1.0000000000
40
1.0000000000
10
-32.6996851920
20
-382.8736655840
30
0.0000000000
10
-32.6957067675
20
-382.8749257948
30
0.0000000000
10
-32.6905393548
20
-382.8770053491
30
0.0000000000
10
-32.6841011888
20
-382.8809253466
30
0.0000000000
10
-32.6832230595
20
-382.8814008239
30
0.0000000000
11
-32.6996851920
21
-382.8736655840
31
0.0000000000
11
-32.6866009021
21
-382.8794451699
31
0.0000000000
11
-32.6832230595
21
-382.8814008239
31
0.0000000000
0
SPLINE
5
40F
100
AcDbEntity
8
0
100
AcDbSpline
62
7
6
CONTINUOUS
70
0
71
3
72
10
73
6
74
4
42
0.0000001000
43
0.0000001000
44
0.0000000001
12
0.6103837428
22
-0.0337146206
32
0.0000000000
13
0.6103824095
23
0.0337146639
33
0.0000000000
40
0.0000000000
40
0.0000000000
40
0.0000000000
40
0.0000000000
40
0.3162379388
40
0.6798529955
40
1.0000000000
40
1.0000000000
40
1.0000000000
40
1.0000000000
10
-33.5053132926
20
-382.8555603985
30
0.0000000000
10
-33.4409711271
20
-382.8591143459
30
0.0000000000
10
-33.3025020560
20
-382.8643415173
30
0.0000000000
10
-33.0986872955
20
-382.8643854469
30
0.0000000000
10
-32.9594203253
20
-382.8591583034
30
0.0000000000
10
-32.8942829586
20
-382.8555604205
30
0.0000000000
11
-33.5053132926
21
-382.8555603985
31
0.0000000000
11
-33.3121310352
21
-382.8628527066
31
0.0000000000
11
-33.0898543998
21
-382.8629006451
31
0.0000000000
11
-32.8942829586
21
-382.8555604205
31
0.0000000000
0
SPLINE
5
410
100
AcDbEntity
8
0
100
AcDbSpline
62
7
6
CONTINUOUS
70
0
71
3
72
9
73
5
74
3
42
0.0000001000
43
0.0000001000
44
0.0000000001
12
0.0152042181
22
0.0087117897
32
0.0000000000
13
0.0143642103
23
0.0045149261
33
0.0000000000
40
0.0000000000
40
0.0000000000
40
0.0000000000
40
0.0000000000
40
0.1424866664
40
1.0000000000
40
1.0000000000
40
1.0000000000
40
1.0000000000
10
-33.7157262249
20
-382.8810125231
30
0.0000000000
10
-33.7150040921
20
-382.8805987518
30
0.0000000000
10
-33.7089360437
20
-382.8769621259
30
0.0000000000
10
-33.7040017936
20
-382.8750103755
30
0.0000000000
10
-33.6998959596
20
-382.8737198391
30
0.0000000000
11
-33.7157262249
21
-382.8810125231
31
0.0000000000
11
-33.7132978790
21
-382.8795966175
31
0.0000000000
11
-33.6998959596
21
-382.8737198391
31
0.0000000000
0
SPLINE
5
411
100
AcDbEntity
8
0
100
AcDbSpline
62
7
6
CONTINUOUS
70
0
71
3
72
11
73
7
74
5
42
0.0000001000
43
0.0000001000
44
0.0000000001
12
0.1401325979
22
0.0440425303
32
0.0000000000
13
0.1595286702
23
-0.0010276725
33
0.0000000000
40
0.0000000000
40
0.0000000000
40
0.0000000000
40
0.0000000000
40
0.0438216188
40
0.2774879323
40
0.6034667719
40
1.0000000000
40
1.0000000000
40
1.0000000000
40
1.0000000000
10
-33.6998940532
20
-382.8737192399
30
0.0000000000
10
-33.6978471074
20
-382.8730759016
30
0.0000000000
10
-33.6850825223
20
-382.8696049171
30
0.0000000000
10
-33.6523829608
20
-382.8611095104
30
0.0000000000
10
-33.6026428318
20
-382.8556058490
30
0.0000000000
10
-33.5641064667
20
-382.8542272536
30
0.0000000000
10
-33.5430203271
20
-382.8543630890
30
0.0000000000
11
-33.6998940532
21
-382.8737192399
31
0.0000000000
11
-33.6937588259
21
-382.8719687491
31
0.0000000000
11
-33.6575963885
21
-382.8632209427
31
0.0000000000
11
-33.6061193672
21
-382.8565778662
31
0.0000000000
11
-33.5430203271
21
-382.8543630890
31
0.0000000000
0
SPLINE
5
412
100
AcDbEntity
8
0
100
AcDbSpline
62
7
6
CONTINUOUS
70
0
71
3
72
8
73
4
74
2
42
0.0000001000
43
0.0000001000
44
0.0000000001
12
0.0377751027
22
-0.0002433446
32
0.0000000000
13
0.0376420626
23
-0.0020944388
33
0.0000000000
40
0.0000000000
40
0.0000000000
40
0.0000000000
40
0.0000000000
40
1.0000000000
40
1.0000000000
40
1.0000000000
40
1.0000000000
10
-33.5430203271
20
-382.8543630890
30
0.0000000000
10
-33.5304286262
20
-382.8544442038
30
0.0000000000
10
-33.5178596083
20
-382.8548435594
30
0.0000000000
10
-33.5053122541
20
-382.8555417056
30
0.0000000000
11
-33.5430203271
21
-382.8543630890
31
0.0000000000
11
-33.5053122541
21
-382.8555417056
31
0.0000000000
0
SPLINE
5
413
100
AcDbEntity
8
0
100
AcDbSpline
62
7
6
CONTINUOUS
70
0
71
3
72
9
73
5
74
3
42
0.0000001000
43
0.0000001000
44
0.0000000001
12
0.0603938318
22
-0.0073448720
32
0.0000000000
13
0.0607785955
23
-0.0027725077
33
0.0000000000
40
0.0000000000
40
0.0000000000
40
0.0000000000
40
0.0000000000
40
0.3869911088
40
1.0000000000
40
1.0000000000
40
1.0000000000
40
1.0000000000
10
-33.9118675978
20
-383.1812077677
30
0.0000000000
10
-33.9040769724
20
-383.1821552345
30
0.0000000000
10
-33.8839137706
20
-383.1843476300
30
0.0000000000
10
-33.8636854251
20
-383.1858646804
30
0.0000000000
10
-33.8512661520
20
-383.1864312044
30
0.0000000000
11
-33.9118675978
21
-383.1812077677
31
0.0000000000
11
-33.8884612567
21
-383.1837509685
31
0.0000000000
11
-33.8512661520
21
-383.1864312044
31
0.0000000000
0
SPLINE
5
414
100
AcDbEntity
8
0
100
AcDbSpline
62
7
6
CONTINUOUS
70
0
71
3
72
9
73
5
74
3
42
0.0000001000
43
0.0000001000
44
0.0000000001
12
0.0564442669
22
-0.0025747907
32
0.0000000000
13
0.0559810452
23
0.0080425123
33
0.0000000000
40
0.0000000000
40
0.0000000000
40
0.0000000000
40
0.0000000000
40
0.5438656546
40
1.0000000000
40
1.0000000000
40
1.0000000000
40
1.0000000000
10
-33.8512661520
20
-383.1864312044
30
0.0000000000
10
-33.8410334526
20
-383.1868979845
30
0.0000000000
10
-33.8221948338
20
-383.1873025876
30
0.0000000000
10
-33.8033606575
20
-383.1861278670
30
0.0000000000
10
-33.7948490317
20
-383.1849050449
30
0.0000000000
11
-33.8512661520
21
-383.1864312044
31
0.0000000000
11
-33.8205434111
21
-383.1868709360
31
0.0000000000
11
-33.7948490317
21
-383.1849050449
31
0.0000000000
0
SPLINE
5
415
100
AcDbEntity
8
0
100
AcDbSpline
62
7
6
CONTINUOUS
70
0
71
3
72
8
73
4
74
2
42
0.0000001000
43
0.0000001000
44
0.0000000001
12
0.0253563285
22
0.0036428149
32
0.0000000000
13
0.0242042291
23
0.0084543714
33
0.0000000000
40
0.0000000000
40
0.0000000000
40
0.0000000000
40
0.0000000000
40
1.0000000000
40
1.0000000000
40
1.0000000000
40
1.0000000000
10
-33.7948490317
20
-383.1849050449
30
0.0000000000
10
-33.7863969222
20
-383.1836907733
30
0.0000000000
10
-33.7780229966
20
-383.1817990839
30
0.0000000000
10
-33.7699549203
20
-383.1789809601
30
0.0000000000
11
-33.7948490317
21
-383.1849050449
31
0.0000000000
11
-33.7699549203
21
-383.1789809601
31
0.0000000000
0
SPLINE
5
416
100
AcDbEntity
8
0
100
AcDbSpline
62
7
6
CONTINUOUS
70
0
71
3
72
11
73
7
74
5
42
0.0000001000
43
0.0000001000
44
0.0000000001
12
0.1097795045
22
0.0383452287
32
0.0000000000
13
0.0129853403
23
0.1160160106
33
0.0000000000
40
0.0000000000
40
0.0000000000
40
0.0000000000
40
0.0000000000
40
0.2448027718
40
0.5034455926
40
0.7877064745
40
1.0000000000
40
1.0000000000
40
1.0000000000
40
1.0000000000
10
-33.7699549203
20
-383.1789809601
30
0.0000000000
10
-33.7609968113
20
-383.1758519540
30
0.0000000000
10
-33.7433495607
20
-383.1670682553
30
0.0000000000
10
-33.7205814116
20
-383.1461546399
30
0.0000000000
10
-33.7058382815
20
-383.1203677077
30
0.0000000000
10
-33.7013555752
20
-383.1013545227
30
0.0000000000
10
-33.7004366740
20
-383.0931447067
30
0.0000000000
11
-33.7699549203
21
-383.1789809601
31
0.0000000000
11
-33.7445666015
21
-383.1662261542
31
0.0000000000
11
-33.7224779431
21
-383.1458988340
31
0.0000000000
11
-33.7061411040
21
-383.1172359155
31
0.0000000000
11
-33.7004366740
21
-383.0931447067
31
0.0000000000
0
SPLINE
5
417
100
AcDbEntity
8
0
100
AcDbSpline
62
7
6
CONTINUOUS
70
0
71
3
72
8
73
4
74
2
42
0.0000001000
43
0.0000001000
44
0.0000000001
12
0.0012512757
22
0.0111793772
32
0.0000000000
13
0.0000054201
23
0.0111967750
33
0.0000000000
40
0.0000000000
40
0.0000000000
40
0.0000000000
40
0.0000000000
40
1.0000000000
40
1.0000000000
40
1.0000000000
40
1.0000000000
10
-33.7004366740
20
-383.0931447067
30
0.0000000000
10
-33.7000195821
20
-383.0894182477
30
0.0000000000
10
-33.6998080245
20
-383.0856750907
30
0.0000000000
10
-33.6998062178
20
-383.0819428323
30
0.0000000000
11
-33.7004366740
21
-383.0931447067
31
0.0000000000
11
-33.6998062178
21
-383.0819428323
31
0.0000000000
0
SPLINE
5
418
100
AcDbEntity
8
0
100
AcDbSpline
62
7
6
CONTINUOUS
70
0
71
3
72
10
73
6
74
4
42
0.0000001000
43
0.0000001000
44
0.0000000001
12
1.0911208316
22
-0.3562194201
32
0.0000000000
13
1.1394011973
23
-0.1385349433
33
0.0000000000
40
0.0000000000
40
0.0000000000
40
0.0000000000
40
0.0000000000
40
0.3242092501
40
0.6736871094
40
1.0000000000
40
1.0000000000
40
1.0000000000
40
1.0000000000
10
-35.0308334914
20
-382.9330068149
30
0.0000000000
10
-34.9129163359
20
-382.9715033585
30
0.0000000000
10
-34.6652964877
20
-383.0437890035
30
0.0000000000
10
-34.2915513757
20
-383.1267699962
30
0.0000000000
10
-34.0358011611
20
-383.1661375214
30
0.0000000000
10
-33.9118673950
20
-383.1812061006
30
0.0000000000
11
-35.0308334914
21
-382.9330068149
31
0.0000000000
11
-34.6736190316
21
-383.0372835871
31
0.0000000000
11
-34.2820440210
21
-383.1242233743
31
0.0000000000
11
-33.9118673950
21
-383.1812061006
31
0.0000000000
0
SPLINE
5
419
100
AcDbEntity
8
0
100
AcDbSpline
62
7
6
CONTINUOUS
70
0
71
3
72
8
73
4
74
2
42
0.0000001000
43
0.0000001000
44
0.0000000001
12
-0.0000338558
22
-0.0001072465
32
0.0000000000
13
0.0041573908
23
-0.0006697597
33
0.0000000000
40
0.0000000000
40
0.0000000000
40
0.0000000000
40
0.0000000000
40
1.0000000000
40
1.0000000000
40
1.0000000000
40
1.0000000000
10
-35.3018743094
20
-382.8540707949
30
0.0000000000
10
-35.3018855946
20
-382.8541065437
30
0.0000000000
10
-35.3006801061
20
-382.8543002723
30
0.0000000000
10
-35.2992943092
20
-382.8545235255
30
0.0000000000
11
-35.3018743094
21
-382.8540707949
31
0.0000000000
11
-35.2992943092
21
-382.8545235255
31
0.0000000000
0
SPLINE
5
41A
100
AcDbEntity
8
0
100
AcDbSpline
62
7
6
CONTINUOUS
70
0
71
3
72
11
73
7
74
5
42
0.0000001000
43
0.0000001000
44
0.0000000001
12
0.0393958245
22
-0.0063467055
32
0.0000000000
13
0.0252524804
23
-0.0062307611
33
0.0000000000
40
0.0000000000
40
0.0000000000
40
0.0000000000
40
0.0000000000
40
0.0437461441
40
0.3811931805
40
0.8487327780
40
1.0000000000
40
1.0000000000
40
1.0000000000
40
1.0000000000
10
-35.2992943092
20
-382.8545235255
30
0.0000000000
10
-35.2987198374
20
-382.8546160735
30
0.0000000000
10
-35.2934440334
20
-382.8554667246
30
0.0000000000
10
-35.2889414826
20
-382.8566714434
30
0.0000000000
10
-35.2800444958
20
-382.8586581452
30
0.0000000000
10
-35.2747570193
20
-382.8599411714
30
0.0000000000
10
-35.2734837284
20
-382.8602553414
30
0.0000000000
11
-35.2992943092
21
-382.8545235255
31
0.0000000000
11
-35.2975517732
21
-382.8548072397
31
0.0000000000
11
-35.2890659469
21
-382.8565798862
31
0.0000000000
11
-35.2773701441
21
-382.8593137450
31
0.0000000000
11
-35.2734837284
21
-382.8602553414
31
0.0000000000
0
SPLINE
5
41B
100
AcDbEntity
8
0
100
AcDbSpline
62
7
6
CONTINUOUS
70
0
71
3
72
18
73
14
74
12
42
0.0000001000
43
0.0000001000
44
0.0000000001
12
0.2491589938
22
-0.0614771357
32
0.0000000000
13
0.2409641088
23
-0.0786527443
33
0.0000000000
40
0.0000000000
40
0.0000000000
40
0.0000000000
40
0.0000000000
40
0.0441584266
40
0.1147243445
40
0.1955767258
40
0.2863024203
40
0.3862697342
40
0.4948207329
40
0.6111644276
40
0.7344498212
40
0.8637745550
40
0.9980510664
40
1.0000000000
40
1.0000000000
40
1.0000000000
40
1.0000000000
10
-35.2734837284
20
-382.8602553414
30
0.0000000000
10
-35.2698162387
20
-382.8611602526
30
0.0000000000
10
-35.2607025592
20
-382.8635227463
30
0.0000000000
10
-35.2445691901
20
-382.8677908908
30
0.0000000000
10
-35.2249113299
20
-382.8732489922
30
0.0000000000
10
-35.2028360153
20
-382.8795683706
30
0.0000000000
10
-35.1785835313
20
-382.8866958572
30
0.0000000000
10
-35.1522979835
20
-382.8946064334
30
0.0000000000
10
-35.1241778841
20
-382.9032480812
30
0.0000000000
10
-35.0944267087
20
-382.9125581064
30
0.0000000000
10
-35.0632781861
20
-382.9224742146
30
0.0000000000
10
-35.0419309765
20
-382.9293815508
30
0.0000000000
10
-35.0309890330
20
-382.9329526564
30
0.0000000000
10
-35.0308324920
20
-382.9330037527
30
0.0000000000
11
-35.2734837284
21
-382.8602553414
31
0.0000000000
11
-35.2627484998
21
-382.8629998588
31
0.0000000000
11
-35.2454607723
21
-382.8675899962
31
0.0000000000
11
-35.2257085805
21
-382.8730542984
31
0.0000000000
11
-35.2035980735
21
-382.8793768858
31
0.0000000000
11
-35.1792855719
21
-382.8865169176
31
0.0000000000
11
-35.1529363663
21
-382.8944412449
31
0.0000000000
11
-35.1247456631
21
-382.9030991831
31
0.0000000000
11
-35.0949212733
21
-382.9124295962
31
0.0000000000
11
-35.0636846051
21
-382.9223714645
31
0.0000000000
11
-35.0313021206
21
-382.9328504807
31
0.0000000000
11
-35.0308324920
21
-382.9330037527
31
0.0000000000
0
SPLINE
5
41C
100
AcDbEntity
8
0
100
AcDbSpline
62
7
6
CONTINUOUS
70
0
71
3
72
8
73
4
74
2
42
0.0000001000
43
0.0000001000
44
0.0000000001
12
-0.0000338947
22
-0.0001160309
32
0.0000000000
13
0.0042056179
23
-0.0006729367
33
0.0000000000
40
0.0000000000
40
0.0000000000
40
0.0000000000
40
0.0000000000
40
1.0000000000
40
1.0000000000
40
1.0000000000
40
1.0000000000
10
-35.3018688071
20
-382.8540815976
30
0.0000000000
10
-35.3018801054
20
-382.8541202745
30
0.0000000000
10
-35.3006980112
20
-382.8543109180
30
0.0000000000
10
-35.2992961385
20
-382.8545352302
30
0.0000000000
11
-35.3018688071
21
-382.8540815976
31
0.0000000000
11
-35.2992961385
21
-382.8545352302
31
0.0000000000
0
SPLINE
5
41D
100
AcDbEntity
8
0
100
AcDbSpline
62
7
6
CONTINUOUS
70
0
71
3
72
17
73
13
74
11
42
0.0000001000
43
0.0000001000
44
0.0000000001
12
0.2509708435
22
-0.0616478837
32
0.0000000000
13
0.2409606472
23
-0.0786734263
33
0.0000000000
40
0.0000000000
40
0.0000000000
40
0.0000000000
40
0.0000000000
40
0.0479700867
40
0.1192779108
40
0.2010034140
40
0.2926090716
40
0.3934274926
40
0.5028415426
40
0.6200107320
40
0.7441297324
40
0.8743023083
40
1.0000000000
40
1.0000000000
40
1.0000000000
40
1.0000000000
10
-35.2734915133
20
-382.8602567885
30
0.0000000000
10
-35.2694784823
20
-382.8612425400
30
0.0000000000
10
-35.2600319528
20
-382.8636957225
30
0.0000000000
10
-35.2434438087
20
-382.8680947367
30
0.0000000000
10
-35.2235911610
20
-382.8736249954
30
0.0000000000
10
-35.2013041782
20
-382.8800100607
30
0.0000000000
10
-35.1768454199
20
-382.8872128469
30
0.0000000000
10
-35.1503583714
20
-382.8951999913
30
0.0000000000
10
-35.1220366994
20
-382.9039122785
30
0.0000000000
10
-35.0920863217
20
-382.9132963204
30
0.0000000000
10
-35.0614958371
20
-382.9230455105
30
0.0000000000
10
-35.0409285630
20
-382.9297074187
30
0.0000000000
10
-35.0308324973
20
-382.9330037747
30
0.0000000000
11
-35.2734915133
21
-382.8602567885
31
0.0000000000
11
-35.2618160223
21
-382.8632411698
31
0.0000000000
11
-35.2443492614
21
-382.8678906837
31
0.0000000000
11
-35.2243873876
21
-382.8734280286
31
0.0000000000
11
-35.2020645672
21
-382.8798204638
31
0.0000000000
11
-35.1775483251
21
-382.8870334730
31
0.0000000000
11
-35.1509933629
21
-382.8950344097
31
0.0000000000
11
-35.1226052504
21
-382.9037635329
31
0.0000000000
11
-35.0925819918
21
-382.9131672580
31
0.0000000000
11
-35.0611436658
21
-382.9231854714
31
0.0000000000
11
-35.0308324973
21
-382.9330037747
31
0.0000000000
0
SPLINE
5
41E
100
AcDbEntity
8
0
100
AcDbSpline
62
7
6
CONTINUOUS
70
0
71
3
72
16
73
12
74
10
42
0.0000001000
43
0.0000001000
44
0.0000000001
12
0.2571082013
22
-0.0312732353
32
0.0000000000
13
0.0289956003
23
0.2588563033
33
0.0000000000
40
0.0000000000
40
0.0000000000
40
0.0000000000
40
0.0000000000
40
0.0957177787
40
0.2385228785
40
0.3560819468
40
0.4550440047
40
0.5535147798
40
0.6628920152
40
0.7781856162
40
0.9049357695
40
1.0000000000
40
1.0000000000
40
1.0000000000
40
1.0000000000
10
-33.9118675668
20
-383.1812075106
30
0.0000000000
10
-33.9036642915
20
-383.1822053121
30
0.0000000000
10
-33.8831881111
20
-383.1844185952
30
0.0000000000
10
-33.8525202853
20
-383.1866759452
30
0.0000000000
10
-33.8214879555
20
-383.1872894114
30
0.0000000000
10
-33.7942951986
20
-383.1855210975
30
0.0000000000
10
-33.7683146238
20
-383.1795468841
30
0.0000000000
10
-33.7430871462
20
-383.1668724235
30
0.0000000000
10
-33.7204825636
20
-383.1459933093
30
0.0000000000
10
-33.7058260612
20
-383.1202975673
30
0.0000000000
10
-33.7013581745
20
-383.1013470638
30
0.0000000000
10
-33.7004393597
20
-383.0931444054
30
0.0000000000
11
-33.9118675668
21
-383.1812075106
31
0.0000000000
11
-33.8872196041
21
-383.1838687490
31
0.0000000000
11
-33.8503274043
21
-383.1864731727
31
0.0000000000
11
-33.8198840480
21
-383.1868538690
31
0.0000000000
11
-33.7943345724
21
-383.1848309159
31
0.0000000000
11
-33.7695465596
21
-383.1788378532
31
0.0000000000
11
-33.7442809895
21
-383.1660293508
31
0.0000000000
11
-33.7223643239
21
-383.1457507696
31
0.0000000000
11
-33.7061385368
21
-383.1172152748
31
0.0000000000
11
-33.7004393597
21
-383.0931444054
31
0.0000000000
0
SPLINE
5
41F
100
AcDbEntity
8
0
100
AcDbSpline
62
7
6
CONTINUOUS
70
0
71
3
72
12
73
8
74
6
42
0.0000001000
43
0.0000001000
44
0.0000000001
12
0.1619099871
22
0.0512868116
32
0.0000000000
13
0.1836198709
23
-0.0070518447
33
0.0000000000
40
0.0000000000
40
0.0000000000
40
0.0000000000
40
0.0000000000
40
0.0435347811
40
0.2501577898
40
0.5368832645
40
0.8832351291
40
1.0000000000
40
1.0000000000
40
1.0000000000
40
1.0000000000
10
-33.6999109168
20
-382.8736655840
30
0.0000000000
10
-33.6975613449
20
-382.8729213307
30
0.0000000000
10
-33.6843926861
20
-382.8694616061
30
0.0000000000
10
-33.6507191098
20
-382.8607805814
30
0.0000000000
10
-33.6003518880
20
-382.8554441764
30
0.0000000000
10
-33.5542029467
20
-382.8539456411
30
0.0000000000
10
-33.5258267436
20
-382.8546404891
30
0.0000000000
10
-33.5186799601
20
-382.8549149583
30
0.0000000000
11
-33.6999109168
21
-382.8736655840
31
0.0000000000
11
-33.6929015180
21
-382.8716994219
31
0.0000000000
11
-33.6559801233
21
-382.8629250738
31
0.0000000000
11
-33.6037255148
21
-382.8563888666
31
0.0000000000
11
-33.5401436616
21
-382.8543931122
31
0.0000000000
11
-33.5186799601
21
-382.8549149583
31
0.0000000000
0
SPLINE
5
420
100
AcDbEntity
8
0
100
AcDbSpline
62
7
6
CONTINUOUS
70
0
71
3
72
10
73
6
74
4
42
0.0000001000
43
0.0000001000
44
0.0000000001
12
0.6103822664
22
-0.0337146560
32
0.0000000000
13
0.6103836007
23
0.0337145969
33
0.0000000000
40
0.0000000000
40
0.0000000000
40
0.0000000000
40
0.0000000000
40
0.3201470795
40
0.6837622215
40
1.0000000000
40
1.0000000000
40
1.0000000000
40
1.0000000000
10
-33.5053131503
20
-382.8555604205
30
0.0000000000
10
-33.4401757836
20
-382.8591583034
30
0.0000000000
10
-33.3009088134
20
-382.8643854469
30
0.0000000000
10
-33.0970941006
20
-382.8643415173
30
0.0000000000
10
-32.9586250773
20
-382.8591143495
30
0.0000000000
10
-32.8942829594
20
-382.8555604064
30
0.0000000000
11
-33.5053131503
21
-382.8555604205
31
0.0000000000
11
-33.3097417091
21
-382.8629006451
31
0.0000000000
11
-33.0874650737
21
-382.8628527066
31
0.0000000000
11
-32.8942829594
21
-382.8555604064
31
0.0000000000
0
SPLINE
5
421
100
AcDbEntity
8
0
100
AcDbSpline
62
7
6
CONTINUOUS
70
0
71
3
72
8
73
4
74
2
42
0.0000001000
43
0.0000001000
44
0.0000000001
12
0.0133593634
22
0.0007433272
32
0.0000000000
13
0.0133758724
23
0.0005149088
33
0.0000000000
40
0.0000000000
40
0.0000000000
40
0.0000000000
40
0.0000000000
40
1.0000000000
40
1.0000000000
40
1.0000000000
40
1.0000000000
10
-32.8942838547
20
-382.8555417056
30
0.0000000000
10
-32.8898307336
20
-382.8552939299
30
0.0000000000
10
-32.8853748837
20
-382.8550837891
30
0.0000000000
10
-32.8809162596
20
-382.8549121529
30
0.0000000000
11
-32.8942838547
21
-382.8555417056
31
0.0000000000
11
-32.8809162596
21
-382.8549121529
31
0.0000000000
0
SPLINE
5
422
100
AcDbEntity
8
0
100
AcDbSpline
62
9
6
CONTINUOUS
70
0
71
3
72
10
73
6
74
4
42
0.0000001000
43
0.0000001000
44
0.0000000001
12
0.0000000037
22
-0.0084211513
32
0.0000000000
13
-0.0000000024
23
-0.0084211513
33
0.0000000000
40
0.0000000000
40
0.0000000000
40
0.0000000000
40
0.0000000000
40
0.5552522622
40
0.8890061159
40
1.0000000000
40
1.0000000000
40
1.0000000000
40
1.0000000000
10
-31.0637822233
20
-382.8488597666
30
0.0000000000
10
-31.0637822226
20
-382.8504183877
30
0.0000000000
10
-31.0637822247
20
-382.8529138727
30
0.0000000000
10
-31.0637822232
20
-382.8557209232
30
0.0000000000
10
-31.0637822232
20
-382.8569693525
30
0.0000000000
10
-31.0637822233
20
-382.8572809179
30
0.0000000000
11
-31.0637822233
21
-382.8488597666
31
0.0000000000
11
-31.0637822239
21
-382.8535356299
31
0.0000000000
11
-31.0637822232
21
-382.8563462216
31
0.0000000000
11
-31.0637822233
21
-382.8572809179
31
0.0000000000
0
SPLINE
5
423
100
AcDbEntity
8
0
100
AcDbSpline
62
9
6
CONTINUOUS
70
0
71
3
72
11
73
7
74
5
42
0.0000001000
43
0.0000001000
44
0.0000000001
12
0.2347482178
22
0.0766424207
32
0.0000000000
13
0.2489078788
23
0.0675589159
33
0.0000000000
40
0.0000000000
40
0.0000000000
40
0.0000000000
40
0.0000000000
40
0.3504046771
40
0.6666687971
40
0.9304468631
40
1.0000000000
40
1.0000000000
40
1.0000000000
40
1.0000000000
10
-31.3689273420
20
-382.9325022610
30
0.0000000000
10
-31.3415083842
20
-382.9235503068
30
0.0000000000
10
-31.2894069870
20
-382.9068975573
30
0.0000000000
10
-31.2155243484
20
-382.8841845753
30
0.0000000000
10
-31.1656399018
20
-382.8700545729
30
0.0000000000
10
-31.1375787219
20
-382.8621872626
30
0.0000000000
10
-31.1318079473
20
-382.8606209511
30
0.0000000000
11
-31.3689273420
21
-382.9325022610
31
0.0000000000
11
-31.2865079403
21
-382.9061494091
31
0.0000000000
11
-31.2118071547
21
-382.8833618371
31
0.0000000000
11
-31.1491819901
21
-382.8654436101
31
0.0000000000
11
-31.1318079473
21
-382.8606209511
31
0.0000000000
0
SPLINE
5
424
100
AcDbEntity
8
0
100
AcDbSpline
62
9
6
CONTINUOUS
70
0
71
3
72
10
73
6
74
4
42
0.0000001000
43
0.0000001000
44
0.0000000001
12
0.0708811429
22
0.0192386565
32
0.0000000000
13
-0.0003549073
23
-0.0703206776
33
0.0000000000
40
0.0000000000
40
0.0000000000
40
0.0000000000
40
0.0000000000
40
0.4410278012
40
0.8596420268
40
1.0000000000
40
1.0000000000
40
1.0000000000
40
1.0000000000
10
-31.1318079473
20
-382.8606209511
30
0.0000000000
10
-31.1213877625
20
-382.8577926903
30
0.0000000000
10
-31.1016139297
20
-382.8527583760
30
0.0000000000
10
-31.0848186195
20
-382.8506446166
30
0.0000000000
10
-31.0637656186
20
-382.8455697440
30
0.0000000000
10
-31.0637822233
20
-382.8488597666
30
0.0000000000
11
-31.1318079473
21
-382.8606209511
31
0.0000000000
11
-31.1025028016
21
-382.8534739136
31
0.0000000000
11
-31.0736029538
21
-382.8478728660
31
0.0000000000
11
-31.0637822233
21
-382.8488597666
31
0.0000000000
0
SPLINE
5
425
100
AcDbEntity
8
0
100
AcDbSpline
62
9
6
CONTINUOUS
70
0
71
3
72
12
73
8
74
6
42
0.0000001000
43
0.0000001000
44
0.0000000001
12
1.1394044272
22
0.1385317330
32
0.0000000000
13
1.0911181987
23
0.3562226359
33
0.0000000000
40
0.0000000000
40
0.0000000000
40
0.0000000000
40
0.0000000000
40
0.1736997740
40
0.3668447149
40
0.5660151312
40
0.7736035241
40
1.0000000000
40
1.0000000000
40
1.0000000000
40
1.0000000000
10
-32.4877927774
20
-383.1806791802
30
0.0000000000
10
-32.4218213469
20
-383.1726582033
30
0.0000000000
10
-32.2827686632
20
-383.1533623136
30
0.0000000000
10
-32.0694176911
20
-383.1159530818
30
0.0000000000
10
-31.8449641715
20
-383.0677029668
30
0.0000000000
10
-31.6102704832
20
-383.0074467045
30
0.0000000000
10
-31.4512691137
20
-382.9593847775
30
0.0000000000
10
-31.3689273420
20
-382.9325022610
30
0.0000000000
11
-32.4877927774
21
-383.1806791802
31
0.0000000000
11
-32.2903133500
21
-383.1532754000
31
0.0000000000
11
-32.0719538120
21
-383.1149879793
31
0.0000000000
11
-31.8484527482
21
-383.0669426650
31
0.0000000000
11
-31.6176688907
21
-383.0076898628
31
0.0000000000
11
-31.3689273420
21
-382.9325022610
31
0.0000000000
0
SPLINE
5
426
100
AcDbEntity
8
0
100
AcDbSpline
62
9
6
CONTINUOUS
70
0
71
3
72
14
73
10
74
8
42
0.0000001000
43
0.0000001000
44
0.0000000001
12
0.0001275271
22
-0.1030417226
32
0.0000000000
13
0.1022885817
23
0.0124361939
33
0.0000000000
40
0.0000000000
40
0.0000000000
40
0.0000000000
40
0.0000000000
40
0.0475695937
40
0.1569696759
40
0.3115077117
40
0.4870765621
40
0.6663493256
40
0.8385288923
40
1.0000000000
40
1.0000000000
40
1.0000000000
40
1.0000000000
10
-32.5895078170
20
-383.1806791802
30
0.0000000000
10
-32.5895057948
20
-383.1823130645
30
0.0000000000
10
-32.5827072564
20
-383.1847620079
30
0.0000000000
10
-32.5733287056
20
-383.1854768207
30
0.0000000000
10
-32.5576410393
20
-383.1859958521
30
0.0000000000
10
-32.5403451888
20
-383.1853722489
30
0.0000000000
10
-32.5222238551
20
-383.1842161998
30
0.0000000000
10
-32.5046912554
20
-383.1826203703
30
0.0000000000
10
-32.4932983276
20
-383.1813485422
30
0.0000000000
10
-32.4877927774
20
-383.1806791802
30
0.0000000000
11
-32.5895078170
21
-383.1806791802
31
0.0000000000
11
-32.5855755574
21
-383.1836055384
31
0.0000000000
11
-32.5744343356
21
-383.1853227399
31
0.0000000000
11
-32.5585175223
21
-383.1857970101
31
0.0000000000
11
-32.5404336255
21
-383.1852925810
31
0.0000000000
11
-32.5219984992
21
-383.1841167219
31
0.0000000000
11
-32.5043283704
21
-383.1825248023
31
0.0000000000
11
-32.4877927774
21
-383.1806791802
31
0.0000000000
0
SPLINE
5
427
100
AcDbEntity
8
0
100
AcDbSpline
62
9
6
CONTINUOUS
70
0
71
3
72
12
73
8
74
6
42
0.0000001000
43
0.0000001000
44
0.0000000001
12
0.0000000955
22
-0.2481769191
32
0.0000000000
13
-0.0000000361
23
-0.2481769191
33
0.0000000000
40
0.0000000000
40
0.0000000000
40
0.0000000000
40
0.0000000000
40
0.3245288541
40
0.5733868835
40
0.7612770168
40
0.8998605882
40
1.0000000000
40
1.0000000000
40
1.0000000000
40
1.0000000000
10
-32.5895078170
20
-382.9325022610
30
0.0000000000
10
-32.5895078066
20
-382.9593491181
30
0.0000000000
10
-32.5895078260
20
-383.0067829148
30
0.0000000000
10
-32.5895078153
20
-383.0697600430
30
0.0000000000
10
-32.5895078160
20
-383.1173547288
30
0.0000000000
10
-32.5895078182
20
-383.1526465718
30
0.0000000000
10
-32.5895078158
20
-383.1723950833
30
0.0000000000
10
-32.5895078170
20
-383.1806791802
30
0.0000000000
11
-32.5895078170
21
-382.9325022610
31
0.0000000000
11
-32.5895078198
21
-383.0130428322
31
0.0000000000
11
-32.5895078166
21
-383.0748036512
31
0.0000000000
11
-32.5895078165
21
-383.1214336457
31
0.0000000000
11
-32.5895078172
21
-383.1558268895
31
0.0000000000
11
-32.5895078170
21
-383.1806791802
31
0.0000000000
0
SPLINE
5
428
100
AcDbEntity
8
0
100
AcDbSpline
62
9
6
CONTINUOUS
70
0
71
3
72
8
73
4
74
2
42
0.0000001000
43
0.0000001000
44
0.0000000001
12
0.0259648526
22
0.0014341561
32
0.0000000000
13
0.0260031346
23
0.0007031723
33
0.0000000000
40
0.0000000000
40
0.0000000000
40
0.0000000000
40
0.0000000000
40
1.0000000000
40
1.0000000000
40
1.0000000000
40
1.0000000000
10
-32.8946529357
20
-382.8488597666
30
0.0000000000
10
-32.8859979848
20
-382.8483817146
30
0.0000000000
10
-32.8773344288
20
-382.8480230842
30
0.0000000000
10
-32.8686667173
20
-382.8477886934
30
0.0000000000
11
-32.8946529357
21
-382.8488597666
31
0.0000000000
11
-32.8686667173
21
-382.8477886934
31
0.0000000000
0
SPLINE
5
429
100
AcDbEntity
8
0
100
AcDbSpline
62
9
6
CONTINUOUS
70
0
71
3
72
10
73
6
74
4
42
0.0000001000
43
0.0000001000
44
0.0000000001
12
0.1456857917
22
0.0039396099
32
0.0000000000
13
0.1438195669
23
-0.0241745223
33
0.0000000000
40
0.0000000000
40
0.0000000000
40
0.0000000000
40
0.0000000000
40
0.3486430920
40
0.8460685313
40
1.0000000000
40
1.0000000000
40
1.0000000000
40
1.0000000000
10
-32.8686667173
20
-382.8477886934
30
0.0000000000
10
-32.8517359357
20
-382.8473308542
30
0.0000000000
10
-32.8106107377
20
-382.8473701435
30
0.0000000000
10
-32.7621237922
20
-382.8509660185
30
0.0000000000
10
-32.7307804822
20
-382.8555549099
30
0.0000000000
10
-32.7234010298
20
-382.8567953164
30
0.0000000000
11
-32.8686667173
21
-382.8477886934
31
0.0000000000
11
-32.8178599683
21
-382.8478731709
31
0.0000000000
11
-32.7456082019
21
-382.8535114527
31
0.0000000000
11
-32.7234010298
21
-382.8567953164
31
0.0000000000
0
SPLINE
5
42A
100
AcDbEntity
8
0
100
AcDbSpline
62
9
6
CONTINUOUS
70
0
71
3
72
8
73
4
74
2
42
0.0000001000
43
0.0000001000
44
0.0000000001
12
0.0237336029
22
-0.0039893634
32
0.0000000000
13
0.0234891810
23
-0.0051773087
33
0.0000000000
40
0.0000000000
40
0.0000000000
40
0.0000000000
40
0.0000000000
40
1.0000000000
40
1.0000000000
40
1.0000000000
40
1.0000000000
10
-32.7234010298
20
-382.8567953164
30
0.0000000000
10
-32.7154898289
20
-382.8581251042
30
0.0000000000
10
-32.7076105023
20
-382.8596341152
30
0.0000000000
10
-32.6997807753
20
-382.8613598847
30
0.0000000000
11
-32.7234010298
21
-382.8567953164
31
0.0000000000
11
-32.6997807753
21
-382.8613598847
31
0.0000000000
0
SPLINE
5
42B
100
AcDbEntity
8
0
100
AcDbSpline
62
9
6
CONTINUOUS
70
0
71
3
72
8
73
4
74
2
42
0.0000001000
43
0.0000001000
44
0.0000000001
12
0.0172327122
22
-0.0037983049
32
0.0000000000
13
0.0170515376
23
-0.0045427719
33
0.0000000000
40
0.0000000000
40
0.0000000000
40
0.0000000000
40
0.0000000000
40
1.0000000000
40
1.0000000000
40
1.0000000000
40
1.0000000000
10
-32.6997807753
20
-382.8613598847
30
0.0000000000
10
-32.6940365379
20
-382.8626259864
30
0.0000000000
10
-32.6883189967
20
-382.8640087550
30
0.0000000000
10
-32.6826351509
20
-382.8655230123
30
0.0000000000
11
-32.6997807753
21
-382.8613598847
31
0.0000000000
11
-32.6826351509
21
-382.8655230123
31
0.0000000000
0
SPLINE
5
42C
100
AcDbEntity
8
0
100
AcDbSpline
62
9
6
CONTINUOUS
70
0
71
3
72
10
73
6
74
4
42
0.0000001000
43
0.0000001000
44
0.0000000001
12
0.1168063314
22
-0.0311188667
32
0.0000000000
13
-0.0000729979
23
-0.1208295183
33
0.0000000000
40
0.0000000000
40
0.0000000000
40
0.0000000000
40
0.0000000000
40
0.4363905819
40
0.7617294484
40
1.0000000000
40
1.0000000000
40
1.0000000000
40
1.0000000000
10
-32.6826351509
20
-382.8655230123
30
0.0000000000
10
-32.6656440899
20
-382.8700496724
30
0.0000000000
10
-32.6365114114
20
-382.8800020799
30
0.0000000000
10
-32.6013057390
20
-382.9007989031
30
0.0000000000
10
-32.5895020192
20
-382.9229055557
30
0.0000000000
10
-32.5895078170
20
-382.9325022610
30
0.0000000000
11
-32.6826351509
21
-382.8655230123
31
0.0000000000
11
-32.6330241491
21
-382.8833858956
31
0.0000000000
11
-32.6009189425
21
-382.9060701348
31
0.0000000000
11
-32.5895078170
21
-382.9325022610
31
0.0000000000
0
SPLINE
5
42D
100
AcDbEntity
8
0
100
AcDbSpline
62
9
6
CONTINUOUS
70
0
71
3
72
10
73
6
74
4
42
0.0000001000
43
0.0000001000
44
0.0000000001
12
0.6096363370
22
-0.0336737673
32
0.0000000000
13
0.6096363343
23
0.0336738160
33
0.0000000000
40
0.0000000000
40
0.0000000000
40
0.0000000000
40
0.0000000000
40
0.3328661760
40
0.6669943864
40
1.0000000000
40
1.0000000000
40
1.0000000000
40
1.0000000000
10
-33.5049431732
20
-382.8488597666
30
0.0000000000
10
-33.4373007344
20
-382.8525960527
30
0.0000000000
10
-33.3016081867
20
-382.8575936409
30
0.0000000000
10
-33.0980446958
20
-382.8575952020
30
0.0000000000
10
-32.9623237096
20
-382.8525976232
30
0.0000000000
10
-32.8946529357
20
-382.8488597666
30
0.0000000000
11
-33.5049431732
21
-382.8488597666
31
0.0000000000
11
-33.3018442226
21
-382.8563397707
31
0.0000000000
11
-33.0978370220
21
-382.8563413395
31
0.0000000000
11
-32.8946529357
21
-382.8488597666
31
0.0000000000
0
SPLINE
5
42E
100
AcDbEntity
8
0
100
AcDbSpline
62
9
6
CONTINUOUS
70
0
71
3
72
11
73
7
74
5
42
0.0000001000
43
0.0000001000
44
0.0000000001
12
0.0000256699
22
0.1384612527
32
0.0000000000
13
0.1352723955
23
0.0298191917
33
0.0000000000
40
0.0000000000
40
0.0000000000
40
0.0000000000
40
0.0000000000
40
0.2091032557
40
0.4931166190
40
0.8736295673
40
1.0000000000
40
1.0000000000
40
1.0000000000
40
1.0000000000
10
-33.8100882919
20
-382.9325022610
30
0.0000000000
10
-33.8100865027
20
-382.9228513614
30
0.0000000000
10
-33.7981973378
20
-382.9007025400
30
0.0000000000
10
-33.7629324292
20
-382.8799423522
30
0.0000000000
10
-33.7282645523
20
-382.8681147942
30
0.0000000000
10
-33.7055140611
20
-382.8626157609
30
0.0000000000
10
-33.6998159174
20
-382.8613596728
30
0.0000000000
11
-33.8100882919
21
-382.9325022610
31
0.0000000000
11
-33.7985620599
21
-382.9059428038
31
0.0000000000
11
-33.7664068070
21
-382.8833047103
31
0.0000000000
11
-33.7168247882
21
-382.8654870319
31
0.0000000000
11
-33.6998159174
21
-382.8613596728
31
0.0000000000
0
SPLINE
5
42F
100
AcDbEntity
8
0
100
AcDbSpline
62
9
6
CONTINUOUS
70
0
71
3
72
8
73
4
74
2
42
0.0000001000
43
0.0000001000
44
0.0000000001
12
0.0042859530
22
0.0009447874
32
0.0000000000
13
0.0042955310
23
0.0009021475
33
0.0000000000
40
0.0000000000
40
0.0000000000
40
0.0000000000
40
0.0000000000
40
1.0000000000
40
1.0000000000
40
1.0000000000
40
1.0000000000
10
-33.6998159174
20
-382.8613596728
30
0.0000000000
10
-33.6983872664
20
-382.8610447437
30
0.0000000000
10
-33.6969569654
20
-382.8607370354
30
0.0000000000
10
-33.6955251217
20
-382.8604363196
30
0.0000000000
11
-33.6998159174
21
-382.8613596728
31
0.0000000000
11
-33.6955251217
21
-382.8604363196
31
0.0000000000
0
SPLINE
5
430
100
AcDbEntity
8
0
100
AcDbSpline
62
9
6
CONTINUOUS
70
0
71
3
72
8
73
4
74
2
42
0.0000001000
43
0.0000001000
44
0.0000000001
12
0.0193422573
22
0.0040622611
32
0.0000000000
13
0.0195005064
23
0.0032741333
33
0.0000000000
40
0.0000000000
40
0.0000000000
40
0.0000000000
40
0.0000000000
40
1.0000000000
40
1.0000000000
40
1.0000000000
40
1.0000000000
10
-33.6955251217
20
-382.8604363196
30
0.0000000000
10
-33.6890777026
20
-382.8590822325
30
0.0000000000
10
-33.6825990055
20
-382.8578699245
30
0.0000000000
10
-33.6760988367
20
-382.8567785468
30
0.0000000000
11
-33.6955251217
21
-382.8604363196
31
0.0000000000
11
-33.6760988367
21
-382.8567785468
31
0.0000000000
0
SPLINE
5
431
100
AcDbEntity
8
0
100
AcDbSpline
62
9
6
CONTINUOUS
70
0
71
3
72
10
73
6
74
4
42
0.0000001000
43
0.0000001000
44
0.0000000001
12
0.1436554342
22
0.0241197344
32
0.0000000000
13
0.1455167566
23
-0.0039235326
33
0.0000000000
40
0.0000000000
40
0.0000000000
40
0.0000000000
40
0.0000000000
40
0.1538736103
40
0.6506453984
40
1.0000000000
40
1.0000000000
40
1.0000000000
40
1.0000000000
10
-33.6760988367
20
-382.8567785468
30
0.0000000000
10
-33.6687305766
20
-382.8555414166
30
0.0000000000
10
-33.6374576660
20
-382.8509673314
30
0.0000000000
10
-33.5890275567
20
-382.8473728152
30
0.0000000000
10
-33.5479473792
20
-382.8473302748
30
0.0000000000
10
-33.5310017297
20
-382.8477871761
30
0.0000000000
11
-33.6760988367
21
-382.8567785468
31
0.0000000000
11
-33.6539255704
21
-382.8535029514
31
0.0000000000
11
-33.5818529032
21
-382.8478766388
31
0.0000000000
11
-33.5310017297
21
-382.8477871761
31
0.0000000000
0
SPLINE
5
432
100
AcDbEntity
8
0
100
AcDbSpline
62
9
6
CONTINUOUS
70
0
71
3
72
8
73
4
74
2
42
0.0000001000
43
0.0000001000
44
0.0000000001
12
0.0260755307
22
-0.0007030681
32
0.0000000000
13
0.0260370964
23
-0.0014371509
33
0.0000000000
40
0.0000000000
40
0.0000000000
40
0.0000000000
40
0.0000000000
40
1.0000000000
40
1.0000000000
40
1.0000000000
40
1.0000000000
10
-33.5310017297
20
-382.8477871761
30
0.0000000000
10
-33.5223098861
20
-382.8480215322
30
0.0000000000
10
-33.5136222053
20
-382.8483807163
30
0.0000000000
10
-33.5049431732
20
-382.8488597666
30
0.0000000000
11
-33.5310017297
21
-382.8477871761
31
0.0000000000
11
-33.5049431732
21
-382.8488597666
31
0.0000000000
0
SPLINE
5
433
100
AcDbEntity
8
0
100
AcDbSpline
62
9
6
CONTINUOUS
70
0
71
3
72
12
73
8
74
6
42
0.0000001000
43
0.0000001000
44
0.0000000001
12
-0.0000000402
22
0.2481769191
32
0.0000000000
13
0.0000000830
23
0.2481769191
33
0.0000000000
40
0.0000000000
40
0.0000000000
40
0.0000000000
40
0.0000000000
40
0.1005484461
40
0.2392339420
40
0.4272491127
40
0.6764381929
40
1.0000000000
40
1.0000000000
40
1.0000000000
40
1.0000000000
10
-33.8100882919
20
-383.1806791802
30
0.0000000000
10
-33.8100882932
20
-383.1723612456
30
0.0000000000
10
-33.8100882902
20
-383.1525704647
30
0.0000000000
10
-33.8100882950
20
-383.1172260086
30
0.0000000000
10
-33.8100882910
20
-383.0695851609
30
0.0000000000
10
-33.8100882867
20
-383.0066503020
30
0.0000000000
10
-33.8100883008
20
-382.9592691185
30
0.0000000000
10
-33.8100882919
20
-382.9325022610
30
0.0000000000
11
-33.8100882919
21
-383.1806791802
31
0.0000000000
11
-33.8100882917
21
-383.1557253766
31
0.0000000000
11
-33.8100882934
21
-383.1213068375
31
0.0000000000
11
-33.8100882915
21
-383.0746458117
31
0.0000000000
11
-33.8100882904
21
-383.0128028334
31
0.0000000000
11
-33.8100882919
21
-382.9325022610
31
0.0000000000
0
SPLINE
5
434
100
AcDbEntity
8
0
100
AcDbSpline
62
9
6
CONTINUOUS
70
0
71
3
72
14
73
10
74
8
42
0.0000001000
43
0.0000001000
44
0.0000000001
12
0.1022860762
22
-0.0124369244
32
0.0000000000
13
-0.0002474778
23
0.1030391053
33
0.0000000000
40
0.0000000000
40
0.0000000000
40
0.0000000000
40
0.0000000000
40
0.1614060718
40
0.3347621391
40
0.5142394507
40
0.6893348921
40
0.8429827303
40
0.9520038950
40
1.0000000000
40
1.0000000000
40
1.0000000000
40
1.0000000000
10
-33.9118033315
20
-383.1806791802
30
0.0000000000
10
-33.9063001336
20
-383.1813483119
30
0.0000000000
10
-33.8948694704
20
-383.1826243629
30
0.0000000000
10
-33.8772924803
20
-383.1842229918
30
0.0000000000
10
-33.8591391817
20
-383.1853780808
30
0.0000000000
10
-33.8418858868
20
-383.1859936771
30
0.0000000000
10
-33.8262528893
20
-383.1854797749
30
0.0000000000
10
-33.8169198455
20
-383.1847545257
30
0.0000000000
10
-33.8100843326
20
-383.1823276721
30
0.0000000000
10
-33.8100882919
20
-383.1806791802
30
0.0000000000
11
-33.9118033315
21
-383.1806791802
31
0.0000000000
11
-33.8952747923
21
-383.1825240958
31
0.0000000000
11
-33.8774842192
21
-383.1841255374
31
0.0000000000
11
-33.8590282481
21
-383.1852989386
31
0.0000000000
11
-33.8409934004
21
-383.1857972135
31
0.0000000000
11
-33.8251687204
21
-383.1853230781
31
0.0000000000
11
-33.8140652763
21
-383.1836188173
31
0.0000000000
11
-33.8100882919
21
-383.1806791802
31
0.0000000000
0
SPLINE
5
435
100
AcDbEntity
8
0
100
AcDbSpline
62
9
6
CONTINUOUS
70
0
71
3
72
10
73
6
74
4
42
0.0000001000
43
0.0000001000
44
0.0000000001
12
0.0000000011
22
0.0084211513
32
0.0000000000
13
0.0000000040
23
0.0084211513
33
0.0000000000
40
0.0000000000
40
0.0000000000
40
0.0000000000
40
0.0000000000
40
0.1109954972
40
0.4447521893
40
1.0000000000
40
1.0000000000
40
1.0000000000
40
1.0000000000
10
-35.3358138856
20
-382.8572809179
30
0.0000000000
10
-35.3358138855
20
-382.8569693480
30
0.0000000000
10
-35.3358138853
20
-382.8557209061
30
0.0000000000
10
-35.3358138848
20
-382.8529138557
30
0.0000000000
10
-35.3358138863
20
-382.8504183752
30
0.0000000000
10
-35.3358138856
20
-382.8488597666
30
0.0000000000
11
-35.3358138856
21
-382.8572809179
31
0.0000000000
11
-35.3358138854
21
-382.8563462081
31
0.0000000000
11
-35.3358138852
21
-382.8535355924
31
0.0000000000
11
-35.3358138856
21
-382.8488597666
31
0.0000000000
0
SPLINE
5
436
100
AcDbEntity
8
0
100
AcDbSpline
62
9
6
CONTINUOUS
70
0
71
3
72
12
73
8
74
6
42
0.0000001000
43
0.0000001000
44
0.0000000001
12
1.0911187217
22
-0.3562227291
32
0.0000000000
13
1.1394049461
23
-0.1385318241
33
0.0000000000
40
0.0000000000
40
0.0000000000
40
0.0000000000
40
0.0000000000
40
0.2220767843
40
0.4263822369
40
0.6251590283
40
0.8222368415
40
1.0000000000
40
1.0000000000
40
1.0000000000
40
1.0000000000
10
-35.0306687668
20
-382.9325022610
30
0.0000000000
10
-34.9498980545
20
-382.9588718604
30
0.0000000000
10
-34.7937042089
20
-383.0061568054
30
0.0000000000
10
-34.5620454605
20
-383.0659204271
30
0.0000000000
10
-34.3375697893
20
-383.1145318881
30
0.0000000000
10
-34.1213954669
20
-383.1526977000
30
0.0000000000
10
-33.9793180722
20
-383.1724705620
30
0.0000000000
10
-33.9118033315
20
-383.1806791802
30
0.0000000000
11
-35.0306687668
21
-382.9325022610
31
0.0000000000
11
-34.7867041681
21
-383.0063578516
31
0.0000000000
11
-34.5596377783
21
-383.0649370694
31
0.0000000000
11
-34.3366513579
21
-383.1132259545
31
0.0000000000
11
-34.1138914133
21
-383.1525544263
31
0.0000000000
11
-33.9118033315
21
-383.1806791802
31
0.0000000000
0
SPLINE
5
437
100
AcDbEntity
8
0
100
AcDbSpline
62
9
6
CONTINUOUS
70
0
71
3
72
10
73
6
74
4
42
0.0000001000
43
0.0000001000
44
0.0000000001
12
-0.0000305523
22
0.0705416368
32
0.0000000000
13
0.0710873922
23
-0.0193144344
33
0.0000000000
40
0.0000000000
40
0.0000000000
40
0.0000000000
40
0.0000000000
40
0.1406318942
40
0.5591741542
40
1.0000000000
40
1.0000000000
40
1.0000000000
40
1.0000000000
10
-35.3358138856
20
-382.8488597666
30
0.0000000000
10
-35.3358153178
20
-382.8455529653
30
0.0000000000
10
-35.3147204229
20
-382.8506725983
30
0.0000000000
10
-35.2978460170
20
-382.8527845507
30
0.0000000000
10
-35.2780177731
20
-382.8578368431
30
0.0000000000
10
-35.2675720531
20
-382.8606749437
30
0.0000000000
11
-35.3358138856
21
-382.8488597666
31
0.0000000000
11
-35.3259420803
21
-382.8478790041
31
0.0000000000
11
-35.2969584784
21
-382.8535053975
31
0.0000000000
11
-35.2675720531
21
-382.8606749437
31
0.0000000000
0
SPLINE
5
438
100
AcDbEntity
8
0
100
AcDbSpline
62
9
6
CONTINUOUS
70
0
71
3
72
11
73
7
74
5
42
0.0000001000
43
0.0000001000
44
0.0000000001
12
0.2486304027
22
-0.0675528451
32
0.0000000000
13
0.2345404016
23
-0.0765660645
33
0.0000000000
40
0.0000000000
40
0.0000000000
40
0.0000000000
40
0.0000000000
40
0.0697732047
40
0.3340318270
40
0.6507837916
40
1.0000000000
40
1.0000000000
40
1.0000000000
40
1.0000000000
10
-35.2675720531
20
-382.8606749437
30
0.0000000000
10
-35.2617894731
20
-382.8622460699
30
0.0000000000
10
-35.2337032259
20
-382.8701292432
30
0.0000000000
10
-35.1837656563
20
-382.8842741464
30
0.0000000000
10
-35.1099710219
20
-382.9069667621
30
0.0000000000
10
-35.0579705368
20
-382.9235895574
30
0.0000000000
10
-35.0306687668
20
-382.9325022610
30
0.0000000000
11
-35.2675720531
21
-382.8606749437
31
0.0000000000
11
-35.2501631485
21
-382.8655121949
31
0.0000000000
11
-35.1874817827
21
-382.8834528477
31
0.0000000000
11
-35.1127342968
21
-382.9062600218
31
0.0000000000
11
-35.0306687668
21
-382.9325022610
31
0.0000000000
0
SPLINE
5
439
100
AcDbEntity
8
0
100
AcDbSpline
62
9
6
CONTINUOUS
70
0
71
3
72
9
73
5
74
3
42
0.0000001000
43
0.0000001000
44
0.0000000001
12
0.0385583277
22
-0.0148674323
32
0.0000000000
13
0.0415816152
23
0.0019562143
33
0.0000000000
40
0.0000000000
40
0.0000000000
40
0.0000000000
40
0.0000000000
40
0.9326375344
40
1.0000000000
40
1.0000000000
40
1.0000000000
40
1.0000000000
10
-35.3358108144
20
-382.8488518259
30
0.0000000000
10
-35.3238238332
20
-382.8534738011
30
0.0000000000
10
-35.3098561832
20
-382.8559450161
30
0.0000000000
10
-35.2959841135
20
-382.8554889190
30
0.0000000000
10
-35.2950504334
20
-382.8554449938
30
0.0000000000
11
-35.3358108144
21
-382.8488518259
31
0.0000000000
11
-35.2978534608
21
-382.8555370833
31
0.0000000000
11
-35.2950504334
21
-382.8554449938
31
0.0000000000
0
SPLINE
5
43A
100
AcDbEntity
8
0
100
AcDbSpline
62
9
6
CONTINUOUS
70
0
71
3
72
11
73
7
74
5
42
0.0000001000
43
0.0000001000
44
0.0000000001
12
0.1364282044
22
-0.0140105337
32
0.0000000000
13
0.0395342535
23
0.1327328489
33
0.0000000000
40
0.0000000000
40
0.0000000000
40
0.0000000000
40
0.0000000000
40
0.3028818956
40
0.6052345461
40
0.9066924769
40
1.0000000000
40
1.0000000000
40
1.0000000000
40
1.0000000000
10
-33.8100882905
20
-383.1806791664
30
0.0000000000
10
-33.7963144127
20
-383.1820936787
30
0.0000000000
10
-33.7678544932
20
-383.1791210795
30
0.0000000000
10
-33.7309028498
20
-383.1578672223
30
0.0000000000
10
-33.7115072949
20
-383.1314321919
30
0.0000000000
10
-33.7051726484
20
-383.1142973367
30
0.0000000000
10
-33.7039430339
20
-383.1101690122
30
0.0000000000
11
-33.8100882905
21
-383.1806791664
31
0.0000000000
11
-33.7687797640
21
-383.1763098855
31
0.0000000000
11
-33.7328242723
21
-383.1556540691
31
0.0000000000
11
-33.7084268960
21
-383.1222764299
31
0.0000000000
11
-33.7039430339
21
-383.1101690122
31
0.0000000000
0
SPLINE
5
43B
100
AcDbEntity
8
0
100
AcDbSpline
62
9
6
CONTINUOUS
70
0
71
3
72
8
73
4
74
2
42
0.0000001000
43
0.0000001000
44
0.0000000001
12
0.0033860998
22
0.0113685382
32
0.0000000000
13
0.0020145149
23
0.0116653788
33
0.0000000000
40
0.0000000000
40
0.0000000000
40
0.0000000000
40
0.0000000000
40
1.0000000000
40
1.0000000000
40
1.0000000000
40
1.0000000000
10
-33.7039430339
20
-383.1101690122
30
0.0000000000
10
-33.7028143340
20
-383.1063794995
30
0.0000000000
10
-33.7019111588
20
-383.1025240141
30
0.0000000000
10
-33.7012396539
20
-383.0986355545
30
0.0000000000
11
-33.7039430339
21
-383.1101690122
31
0.0000000000
11
-33.7012396539
21
-383.0986355545
31
0.0000000000
0
SPLINE
5
43C
100
AcDbEntity
8
0
100
AcDbSpline
62
9
6
CONTINUOUS
70
0
71
3
72
8
73
4
74
2
42
0.0000001000
43
0.0000001000
44
0.0000000001
12
0.0006855855
22
0.0039699952
32
0.0000000000
13
0.0005238670
23
0.0039890075
33
0.0000000000
40
0.0000000000
40
0.0000000000
40
0.0000000000
40
0.0000000000
40
1.0000000000
40
1.0000000000
40
1.0000000000
40
1.0000000000
10
-33.7012396539
20
-383.0986355545
30
0.0000000000
10
-33.7010111254
20
-383.0973122227
30
0.0000000000
10
-33.7008094288
20
-383.0959850720
30
0.0000000000
10
-33.7006348065
20
-383.0946554028
30
0.0000000000
11
-33.7012396539
21
-383.0986355545
31
0.0000000000
11
-33.7006348065
21
-383.0946554028
31
0.0000000000
0
SPLINE
5
43D
100
AcDbEntity
8
0
100
AcDbSpline
62
9
6
CONTINUOUS
70
0
71
3
72
8
73
4
74
2
42
0.0000001000
43
0.0000001000
44
0.0000000001
12
0.0016657154
22
0.0126836605
32
0.0000000000
13
0.0000000018
23
0.0127109900
33
0.0000000000
40
0.0000000000
40
0.0000000000
40
0.0000000000
40
0.0000000000
40
1.0000000000
40
1.0000000000
40
1.0000000000
40
1.0000000000
10
-33.7006348065
20
-383.0946554028
30
0.0000000000
10
-33.7000795681
20
-383.0904275160
30
0.0000000000
10
-33.6997980550
20
-383.0861741679
30
0.0000000000
10
-33.6997980544
20
-383.0819371712
30
0.0000000000
11
-33.7006348065
21
-383.0946554028
31
0.0000000000
11
-33.6997980544
21
-383.0819371712
31
0.0000000000
0
SPLINE
5
43E
100
AcDbEntity
8
0
100
AcDbSpline
62
9
6
CONTINUOUS
70
0
71
3
72
10
73
6
74
4
42
0.0000001000
43
0.0000001000
44
0.0000000001
12
0.1210365973
22
-0.0119148569
32
0.0000000000
13
0.0533106822
23
0.1105467502
33
0.0000000000
40
0.0000000000
40
0.0000000000
40
0.0000000000
40
0.0000000000
40
0.3413955304
40
0.6788235121
40
1.0000000000
40
1.0000000000
40
1.0000000000
40
1.0000000000
10
-33.8100878133
20
-382.9324978676
30
0.0000000000
10
-33.7963140289
20
-382.9338537606
30
0.0000000000
10
-33.7680729043
20
-382.9310525086
30
0.0000000000
10
-33.7315364120
20
-382.9110896435
30
0.0000000000
10
-33.7146252929
20
-382.8894584093
30
0.0000000000
10
-33.7089179137
20
-382.8776234036
30
0.0000000000
11
-33.8100878133
21
-382.9324978676
31
0.0000000000
11
-33.7687777461
21
-382.9283171261
31
0.0000000000
11
-33.7328199625
21
-382.9085383560
31
0.0000000000
11
-33.7089179137
21
-382.8776234036
31
0.0000000000
0
SPLINE
5
43F
100
AcDbEntity
8
0
100
AcDbSpline
62
9
6
CONTINUOUS
70
0
71
3
72
10
73
6
74
4
42
0.0000001000
43
0.0000001000
44
0.0000000001
12
-0.1210105791
22
-0.0119005592
32
0.0000000000
13
-0.0533247757
23
0.1105085263
33
0.0000000000
40
0.0000000000
40
0.0000000000
40
0.0000000000
40
0.0000000000
40
0.3414622253
40
0.6789559621
40
1.0000000000
40
1.0000000000
40
1.0000000000
40
1.0000000000
10
-32.5895078242
20
-382.9325021946
30
0.0000000000
10
-32.6032813381
20
-382.9338567250
30
0.0000000000
10
-32.6315213021
20
-382.9310531847
30
0.0000000000
10
-32.6680482341
20
-382.9110925548
30
0.0000000000
10
-32.6849550448
20
-382.8894702827
30
0.0000000000
10
-32.6906615786
20
-382.8776442482
30
0.0000000000
11
-32.5895078242
21
-382.9325021946
31
0.0000000000
11
-32.6308163357
21
-382.9283180807
31
0.0000000000
11
-32.6667718179
21
-382.9085376457
31
0.0000000000
11
-32.6906615786
21
-382.8776442482
31
0.0000000000
0
SPLINE
5
440
100
AcDbEntity
8
0
100
AcDbSpline
62
9
6
CONTINUOUS
70
0
71
3
72
11
73
7
74
5
42
0.0000001000
43
0.0000001000
44
0.0000000001
12
-0.1647257712
22
-0.0169074676
32
0.0000000000
13
-0.0000024998
23
0.1655911898
33
0.0000000000
40
0.0000000000
40
0.0000000000
40
0.0000000000
40
0.0000000000
40
0.2508328946
40
0.5012304873
40
0.7508912799
40
1.0000000000
40
1.0000000000
40
1.0000000000
40
1.0000000000
10
-32.5895078271
20
-383.1806790827
30
0.0000000000
10
-32.6032807078
20
-383.1820927324
30
0.0000000000
10
-32.6317384120
20
-383.1791187490
30
0.0000000000
10
-32.6686864908
20
-383.1578643222
30
0.0000000000
10
-32.6938520685
20
-383.1235625207
30
0.0000000000
10
-32.6997883070
20
-383.0956872407
30
0.0000000000
10
-32.6997885145
20
-383.0819371709
30
0.0000000000
11
-32.5895078271
21
-383.1806790827
31
0.0000000000
11
-32.6308128927
21
-383.1763078834
31
0.0000000000
11
-32.6667649832
21
-383.1556516437
31
0.0000000000
11
-32.6911600900
21
-383.1222748711
31
0.0000000000
11
-32.6997885145
21
-383.0819371709
31
0.0000000000
0
SPLINE
5
441
100
AcDbEntity
8
0
100
AcDbSpline
62
9
6
CONTINUOUS
70
0
71
3
72
9
73
5
74
3
42
0.0000001000
43
0.0000001000
44
0.0000000001
12
-0.0385822683
22
-0.0148726601
32
0.0000000000
13
-0.0416051680
23
0.0019714101
33
0.0000000000
40
0.0000000000
40
0.0000000000
40
0.0000000000
40
0.0000000000
40
0.9320597385
40
1.0000000000
40
1.0000000000
40
1.0000000000
40
1.0000000000
10
-31.0637822252
20
-382.8488597616
30
0.0000000000
10
-31.0757692182
20
-382.8534804975
30
0.0000000000
10
-31.0897452344
20
-382.8559520038
30
0.0000000000
10
-31.1036253302
20
-382.8554927435
30
0.0000000000
10
-31.1045675522
20
-382.8554480975
30
0.0000000000
11
-31.0637822252
21
-382.8488597616
31
0.0000000000
11
-31.1017388527
21
-382.8555416200
31
0.0000000000
11
-31.1045675522
21
-382.8554480975
31
0.0000000000
0
SPLINE
5
442
100
AcDbEntity
8
0
100
AcDbSpline
62
7
6
CONTINUOUS
70
0
71
3
72
8
73
4
74
2
42
0.0000001000
43
0.0000001000
44
0.0000000001
12
-0.5776518784
22
0.0000000000
32
0.0000000000
13
-0.4317882783
23
0.4240741352
33
0.0000000000
40
0.0000000000
40
0.0000000000
40
0.0000000000
40
0.0000000000
40
1.0000000000
40
1.0000000000
40
1.0000000000
40
1.0000000000
10
-439.1643998910
20
207.2447122751
30
0.0000000000
10
-439.3569505172
20
207.2447122751
30
0.0000000000
10
-439.5320896664
20
207.3715472300
30
0.0000000000
10
-439.6760190925
20
207.5129052751
30
0.0000000000
11
-439.1643998910
21
207.2447122751
31
0.0000000000
11
-439.6760190925
21
207.5129052751
31
0.0000000000
0
SPLINE
5
443
100
AcDbEntity
8
0
100
AcDbSpline
62
7
6
CONTINUOUS
70
0
71
3
72
8
73
4
74
2
42
0.0000001000
43
0.0000001000
44
0.0000000001
12
-0.4168118971
22
0.4093653156
32
0.0000000000
13
-0.2923301269
23
0.4699552132
33
0.0000000000
40
0.0000000000
40
0.0000000000
40
0.0000000000
40
0.0000000000
40
1.0000000000
40
1.0000000000
40
1.0000000000
40
1.0000000000
10
-439.6760190925
20
207.5129052751
30
0.0000000000
10
-439.8149563916
20
207.6493603803
30
0.0000000000
10
-439.9248114118
20
207.7993485935
30
0.0000000000
10
-440.0222547875
20
207.9560003313
30
0.0000000000
11
-439.6760190925
21
207.5129052751
31
0.0000000000
11
-440.0222547875
21
207.9560003313
31
0.0000000000
0
SPLINE
5
444
100
AcDbEntity
8
0
100
AcDbSpline
62
7
6
CONTINUOUS
70
0
71
3
72
8
73
4
74
2
42
0.0000001000
43
0.0000001000
44
0.0000000001
12
-0.1250158609
22
0.2009777651
32
0.0000000000
13
-0.1153078245
23
0.2066779450
33
0.0000000000
40
0.0000000000
40
0.0000000000
40
0.0000000000
40
0.0000000000
40
1.0000000000
40
1.0000000000
40
1.0000000000
40
1.0000000000
10
-440.0222547875
20
207.9560003313
30
0.0000000000
10
-440.0639267411
20
208.0229929196
30
0.0000000000
10
-440.1033287650
20
208.0912041807
30
0.0000000000
10
-440.1417647065
20
208.1600968290
30
0.0000000000
11
-440.0222547875
21
207.9560003313
31
0.0000000000
11
-440.1417647065
21
208.1600968290
31
0.0000000000
0
SPLINE
5
445
100
AcDbEntity
8
0
100
AcDbSpline
62
7
6
CONTINUOUS
70
0
71
3
72
8
73
4
74
2
42
0.0000001000
43
0.0000001000
44
0.0000000001
12
-0.0468044683
22
0.0838924103
32
0.0000000000
13
-0.0461110237
23
0.0844582124
33
0.0000000000
40
0.0000000000
40
0.0000000000
40
0.0000000000
40
0.0000000000
40
1.0000000000
40
1.0000000000
40
1.0000000000
40
1.0000000000
10
-440.1417647065
20
208.1600968290
30
0.0000000000
10
-440.1573661959
20
208.1880609658
30
0.0000000000
10
-440.1728085117
20
208.2161373693
30
0.0000000000
10
-440.1881788529
20
208.2442901067
30
0.0000000000
11
-440.1417647065
21
208.1600968290
31
0.0000000000
11
-440.1881788529
21
208.2442901067
31
0.0000000000
0
SPLINE
5
446
100
AcDbEntity
8
0
100
AcDbSpline
62
7
6
CONTINUOUS
70
0
71
3
72
8
73
4
74
2
42
0.0000001000
43
0.0000001000
44
0.0000000001
12
-0.1714921840
22
0.3141097752
32
0.0000000000
13
-0.1660551828
23
0.3193721333
33
0.0000000000
40
0.0000000000
40
0.0000000000
40
0.0000000000
40
0.0000000000
40
1.0000000000
40
1.0000000000
40
1.0000000000
40
1.0000000000
10
-440.1881788529
20
208.2442901067
30
0.0000000000
10
-440.2453429143
20
208.3489933651
30
0.0000000000
10
-440.3015114376
20
208.4547524608
30
0.0000000000
10
-440.3568631652
20
208.5612098386
30
0.0000000000
11
-440.1881788529
21
208.2442901067
31
0.0000000000
11
-440.3568631652
21
208.5612098386
31
0.0000000000
0
SPLINE
5
447
100
AcDbEntity
8
0
100
AcDbSpline
62
7
6
CONTINUOUS
70
0
71
3
72
8
73
4
74
2
42
0.0000001000
43
0.0000001000
44
0.0000000001
12
-0.1739241176
22
0.3345063704
32
0.0000000000
13
-0.1691639944
23
0.3378700504
33
0.0000000000
40
0.0000000000
40
0.0000000000
40
0.0000000000
40
0.0000000000
40
1.0000000000
40
1.0000000000
40
1.0000000000
40
1.0000000000
10
-440.3568631652
20
208.5612098386
30
0.0000000000
10
-440.4148378711
20
208.6727119621
30
0.0000000000
10
-440.4719165352
20
208.7849801153
30
0.0000000000
10
-440.5283045334
20
208.8976034655
30
0.0000000000
11
-440.3568631652
21
208.5612098386
31
0.0000000000
11
-440.5283045334
21
208.8976034655
31
0.0000000000
0
SPLINE
5
448
100
AcDbEntity
8
0
100
AcDbSpline
62
7
6
CONTINUOUS
70
0
71
3
72
8
73
4
74
2
42
0.0000001000
43
0.0000001000
44
0.0000000001
12
-0.1734504680
22
0.3464313939
32
0.0000000000
13
-0.1697579609
23
0.3473433639
33
0.0000000000
40
0.0000000000
40
0.0000000000
40
0.0000000000
40
0.0000000000
40
1.0000000000
40
1.0000000000
40
1.0000000000
40
1.0000000000
10
-440.5283045334
20
208.8976034655
30
0.0000000000
10
-440.5861213560
20
209.0130805968
30
0.0000000000
10
-440.6432120675
20
209.1289311538
30
0.0000000000
10
-440.6997980544
20
209.2447122751
30
0.0000000000
11
-440.5283045334
21
208.8976034655
31
0.0000000000
11
-440.6997980544
21
209.2447122751
31
0.0000000000
0
SPLINE
5
449
100
AcDbEntity
8
0
100
AcDbSpline
62
7
6
CONTINUOUS
70
0
71
3
72
8
73
4
74
2
42
0.0000001000
43
0.0000001000
44
0.0000000001
12
0.5391957997
22
0.0000000000
32
0.0000000000
13
0.4145079892
23
-0.3890334385
33
0.0000000000
40
0.0000000000
40
0.0000000000
40
0.0000000000
40
0.0000000000
40
1.0000000000
40
1.0000000000
40
1.0000000000
40
1.0000000000
10
157.7648037822
20
247.2447122751
30
0.0000000000
10
157.9445357154
20
247.2447122751
30
0.0000000000
10
158.1090972766
20
247.1342027837
30
0.0000000000
10
158.2472666064
20
247.0045249709
30
0.0000000000
11
157.7648037822
21
247.2447122751
31
0.0000000000
11
158.2472666064
21
247.0045249709
31
0.0000000000
0
SPLINE
5
44A
100
AcDbEntity
8
0
100
AcDbSpline
62
7
6
CONTINUOUS
70
0
71
3
72
9
73
5
74
3
42
0.0000001000
43
0.0000001000
44
0.0000000001
12
0.4582319756
22
-0.4300702658
32
0.0000000000
13
0.3124907117
23
-0.5023657348
33
0.0000000000
40
0.0000000000
40
0.0000000000
40
0.0000000000
40
0.0000000000
40
0.0645157888
40
1.0000000000
40
1.0000000000
40
1.0000000000
40
1.0000000000
10
158.2472666064
20
247.0045249709
30
0.0000000000
10
158.2571210055
20
246.9952761967
30
0.0000000000
10
158.4077841171
20
246.8504081262
30
0.0000000000
10
158.5252153030
20
246.6900759566
30
0.0000000000
10
158.6226586786
20
246.5334242188
30
0.0000000000
11
158.2472666064
21
247.0045249709
31
0.0000000000
11
158.2764229837
21
246.9765192750
31
0.0000000000
11
158.6226586786
21
246.5334242188
31
0.0000000000
0
SPLINE
5
44B
100
AcDbEntity
8
0
100
AcDbSpline
62
7
6
CONTINUOUS
70
0
71
3
72
8
73
4
74
2
42
0.0000001000
43
0.0000001000
44
0.0000000001
12
0.1250158609
22
-0.2009777651
32
0.0000000000
13
0.1153078245
23
-0.2066779450
33
0.0000000000
40
0.0000000000
40
0.0000000000
40
0.0000000000
40
0.0000000000
40
1.0000000000
40
1.0000000000
40
1.0000000000
40
1.0000000000
10
158.6226586786
20
246.5334242188
30
0.0000000000
10
158.6643306322
20
246.4664316305
30
0.0000000000
10
158.7037326561
20
246.3982203694
30
0.0000000000
10
158.7421685976
20
246.3293277211
30
0.0000000000
11
158.6226586786
21
246.5334242188
31
0.0000000000
11
158.7421685976
21
246.3293277211
31
0.0000000000
0
SPLINE
5
44C
100
AcDbEntity
8
0
100
AcDbSpline
62
7
6
CONTINUOUS
70
0
71
3
72
8
73
4
74
2
42
0.0000001000
43
0.0000001000
44
0.0000000001
12
0.0468044683
22
-0.0838924103
32
0.0000000000
13
0.0461110237
23
-0.0844582124
33
0.0000000000
40
0.0000000000
40
0.0000000000
40
0.0000000000
40
0.0000000000
40
1.0000000000
40
1.0000000000
40
1.0000000000
40
1.0000000000
10
158.7421685976
20
246.3293277211
30
0.0000000000
10
158.7577700871
20
246.3013635843
30
0.0000000000
10
158.7732124028
20
246.2732871808
30
0.0000000000
10
158.7885827441
20
246.2451344434
30
0.0000000000
11
158.7421685976
21
246.3293277211
31
0.0000000000
11
158.7885827441
21
246.2451344434
31
0.0000000000
0
SPLINE
5
44D
100
AcDbEntity
8
0
100
AcDbSpline
62
7
6
CONTINUOUS
70
0
71
3
72
8
73
4
74
2
42
0.0000001000
43
0.0000001000
44
0.0000000001
12
0.1714921840
22
-0.3141097752
32
0.0000000000
13
0.1660551828
23
-0.3193721333
33
0.0000000000
40
0.0000000000
40
0.0000000000
40
0.0000000000
40
0.0000000000
40
1.0000000000
40
1.0000000000
40
1.0000000000
40
1.0000000000
10
158.7885827441
20
246.2451344434
30
0.0000000000
10
158.8457468054
20
246.1404311850
30
0.0000000000
10
158.9019153288
20
246.0346720893
30
0.0000000000
10
158.9572670564
20
245.9282147115
30
0.0000000000
11
158.7885827441
21
246.2451344434
31
0.0000000000
11
158.9572670564
21
245.9282147115
31
0.0000000000
0
SPLINE
5
44E
100
AcDbEntity
8
0
100
AcDbSpline
62
7
6
CONTINUOUS
70
0
71
3
72
8
73
4
74
2
42
0.0000001000
43
0.0000001000
44
0.0000000001
12
0.1739241176
22
-0.3345063704
32
0.0000000000
13
0.1691639944
23
-0.3378700504
33
0.0000000000
40
0.0000000000
40
0.0000000000
40
0.0000000000
40
0.0000000000
40
1.0000000000
40
1.0000000000
40
1.0000000000
40
1.0000000000
10
158.9572670564
20
245.9282147115
30
0.0000000000
10
159.0152417622
20
245.8167125880
30
0.0000000000
10
159.0723204264
20
245.7044444348
30
0.0000000000
10
159.1287084245
20
245.5918210846
30
0.0000000000
11
158.9572670564
21
245.9282147115
31
0.0000000000
11
159.1287084245
21
245.5918210846
31
0.0000000000
0
SPLINE
5
44F
100
AcDbEntity
8
0
100
AcDbSpline
62
7
6
CONTINUOUS
70
0
71
3
72
8
73
4
74
2
42
0.0000001000
43
0.0000001000
44
0.0000000001
12
0.1734504680
22
-0.3464313939
32
0.0000000000
13
0.1697579609
23
-0.3473433639
33
0.0000000000
40
0.0000000000
40
0.0000000000
40
0.0000000000
40
0.0000000000
40
1.0000000000
40
1.0000000000
40
1.0000000000
40
1.0000000000
10
159.1287084245
20
245.5918210846
30
0.0000000000
10
159.1865252472
20
245.4763439534
30
0.0000000000
10
159.2436159586
20
245.3604933964
30
0.0000000000
10
159.3002019456
20
245.2447122751
30
0.0000000000
11
159.1287084245
21
245.5918210846
31
0.0000000000
11
159.3002019456
21
245.2447122751
31
0.0000000000
0
SPLINE
5
450
100
AcDbEntity
8
0
100
AcDbSpline
62
7
6
CONTINUOUS
70
0
71
3
72
8
73
4
74
2
42
0.0000001000
43
0.0000001000
44
0.0000000001
12
0.3353207010
22
0.6861028468
32
0.0000000000
13
0.3522553263
23
0.6774888515
33
0.0000000000
40
0.0000000000
40
0.0000000000
40
0.0000000000
40
0.0000000000
40
1.0000000000
40
1.0000000000
40
1.0000000000
40
1.0000000000
10
-440.6997980544
20
245.2447122751
30
0.0000000000
10
-440.5880244874
20
245.4734132240
30
0.0000000000
10
-440.4742816074
20
245.7023850943
30
0.0000000000
10
-440.3568631652
20
245.9282147115
30
0.0000000000
11
-440.6997980544
21
245.2447122751
31
0.0000000000
11
-440.3568631652
21
245.9282147115
31
0.0000000000
0
SPLINE
5
451
100
AcDbEntity
8
0
100
AcDbSpline
62
7
6
CONTINUOUS
70
0
71
3
72
9
73
5
74
3
42
0.0000001000
43
0.0000001000
44
0.0000000001
12
0.3207021831
22
0.6168030331
32
0.0000000000
13
0.3644875526
23
0.5859567991
33
0.0000000000
40
0.0000000000
40
0.0000000000
40
0.0000000000
40
0.0000000000
40
0.5177862563
40
1.0000000000
40
1.0000000000
40
1.0000000000
40
1.0000000000
10
-440.3568631652
20
245.9282147115
30
0.0000000000
10
-440.3015114376
20
246.0346720893
30
0.0000000000
10
-440.1930332332
20
246.2389245089
30
0.0000000000
10
-440.0808417565
20
246.4392387449
30
0.0000000000
10
-440.0222547875
20
246.5334242188
30
0.0000000000
11
-440.3568631652
21
245.9282147115
31
0.0000000000
11
-440.1881788529
21
246.2451344434
31
0.0000000000
11
-440.0222547875
21
246.5334242188
31
0.0000000000
0
SPLINE
5
452
100
AcDbEntity
8
0
100
AcDbSpline
62
7
6
CONTINUOUS
70
0
71
3
72
8
73
4
74
2
42
0.0000001000
43
0.0000001000
44
0.0000000001
12
0.0556449287
22
0.0894557964
32
0.0000000000
13
0.0586881225
23
0.0878650232
33
0.0000000000
40
0.0000000000
40
0.0000000000
40
0.0000000000
40
0.0000000000
40
1.0000000000
40
1.0000000000
40
1.0000000000
40
1.0000000000
10
-440.0222547875
20
246.5334242188
30
0.0000000000
10
-440.0037064779
20
246.5632428177
30
0.0000000000
10
-439.9847084575
20
246.5928199771
30
0.0000000000
10
-439.9651457500
20
246.6221083182
30
0.0000000000
11
-440.0222547875
21
246.5334242188
31
0.0000000000
11
-439.9651457500
21
246.6221083182
31
0.0000000000
0
SPLINE
5
453
100
AcDbEntity
8
0
100
AcDbSpline
62
7
6
CONTINUOUS
70
0
71
3
72
9
73
5
74
3
42
0.0000001000
43
0.0000001000
44
0.0000000001
12
0.2708925528
22
0.4055672497
32
0.0000000000
13
0.3766350364
23
0.3534880559
33
0.0000000000
40
0.0000000000
40
0.0000000000
40
0.0000000000
40
0.0000000000
40
0.9215070440
40
1.0000000000
40
1.0000000000
40
1.0000000000
40
1.0000000000
10
-439.9651457500
20
246.6221083182
30
0.0000000000
10
-439.8819359514
20
246.7466860107
30
0.0000000000
10
-439.7805517866
20
246.8762046480
30
0.0000000000
10
-439.6567171144
20
246.9952761967
30
0.0000000000
10
-439.6468627152
20
247.0045249709
30
0.0000000000
11
-439.9651457500
21
246.6221083182
31
0.0000000000
11
-439.6760190925
21
246.9765192750
31
0.0000000000
11
-439.6468627152
21
247.0045249709
31
0.0000000000
0
SPLINE
5
454
100
AcDbEntity
8
0
100
AcDbSpline
62
7
6
CONTINUOUS
70
0
71
3
72
8
73
4
74
2
42
0.0000001000
43
0.0000001000
44
0.0000000001
12
0.4145079892
22
0.3890334385
32
0.0000000000
13
0.5391957997
23
0.0000000000
33
0.0000000000
40
0.0000000000
40
0.0000000000
40
0.0000000000
40
0.0000000000
40
1.0000000000
40
1.0000000000
40
1.0000000000
40
1.0000000000
10
-439.6468627152
20
247.0045249709
30
0.0000000000
10
-439.5086933855
20
247.1342027837
30
0.0000000000
10
-439.3441318243
20
247.2447122751
30
0.0000000000
10
-439.1643998910
20
247.2447122751
30
0.0000000000
11
-439.6468627152
21
247.0045249709
31
0.0000000000
11
-439.1643998910
21
247.2447122751
31
0.0000000000
0
SPLINE
5
455
100
AcDbEntity
8
0
100
AcDbSpline
62
7
6
CONTINUOUS
70
0
71
3
72
8
73
4
74
2
42
0.0000001000
43
0.0000001000
44
0.0000000001
12
-0.2143823984
22
0.3798819100
32
0.0000000000
13
-0.2439277827
23
0.3620413904
33
0.0000000000
40
0.0000000000
40
0.0000000000
40
0.0000000000
40
0.0000000000
40
1.0000000000
40
1.0000000000
40
1.0000000000
40
1.0000000000
10
159.3002019456
20
246.2447122751
30
0.0000000000
10
159.2287411461
20
246.3713395784
30
0.0000000000
10
159.1535582299
20
246.4959228449
30
0.0000000000
10
159.0722489690
20
246.6166033084
30
0.0000000000
11
159.3002019456
21
246.2447122751
31
0.0000000000
11
159.0722489690
21
246.6166033084
31
0.0000000000
0
SPLINE
5
456
100
AcDbEntity
8
0
100
AcDbSpline
62
7
6
CONTINUOUS
70
0
71
3
72
10
73
6
74
4
42
0.0000001000
43
0.0000001000
44
0.0000000001
12
-0.5841912215
22
0.8670656526
32
0.0000000000
13
-1.0446697207
23
-0.0000000000
33
0.0000000000
40
0.0000000000
40
0.0000000000
40
0.0000000000
40
0.0000000000
40
0.1873283247
40
0.6535385382
40
1.0000000000
40
1.0000000000
40
1.0000000000
40
1.0000000000
10
159.0722489690
20
246.6166033084
30
0.0000000000
10
159.0357704481
20
246.6707452937
30
0.0000000000
10
158.9042046898
20
246.8568916767
30
0.0000000000
10
158.6758838335
20
247.1239645100
30
0.0000000000
10
158.3972491028
20
247.2447122751
30
0.0000000000
10
158.2766031700
20
247.2447122751
30
0.0000000000
11
159.0722489690
21
246.6166033084
31
0.0000000000
11
158.9588970234
21
246.7765047815
31
0.0000000000
11
158.6179080922
21
247.1242551455
31
0.0000000000
11
158.2766031700
21
247.2447122751
31
0.0000000000
0
SPLINE
5
457
100
AcDbEntity
8
0
100
AcDbSpline
62
7
6
CONTINUOUS
70
0
71
3
72
8
73
4
74
2
42
0.0000001000
43
0.0000001000
44
0.0000000001
12
-0.3619377985
22
0.0000000000
32
0.0000000000
13
-0.3056109262
23
-0.2069383682
33
0.0000000000
40
0.0000000000
40
0.0000000000
40
0.0000000000
40
0.0000000000
40
1.0000000000
40
1.0000000000
40
1.0000000000
40
1.0000000000
10
-439.6761992788
20
247.2447122751
30
0.0000000000
10
-439.7968452117
20
247.2447122751
30
0.0000000000
10
-439.9156338923
20
247.1932346015
30
0.0000000000
10
-440.0175042010
20
247.1242551455
30
0.0000000000
11
-439.6761992788
21
247.2447122751
31
0.0000000000
11
-440.0175042010
21
247.1242551455
31
0.0000000000
0
SPLINE
5
458
100
AcDbEntity
8
0
100
AcDbSpline
62
7
6
CONTINUOUS
70
0
71
3
72
9
73
5
74
3
42
0.0000001000
43
0.0000001000
44
0.0000000001
12
-0.7548429046
22
-0.5111268792
32
0.0000000000
13
-0.4669019400
23
-0.7625445779
33
0.0000000000
40
0.0000000000
40
0.0000000000
40
0.0000000000
40
0.0000000000
40
0.5448025733
40
1.0000000000
40
1.0000000000
40
1.0000000000
40
1.0000000000
10
-440.0175042010
20
247.1242551455
30
0.0000000000
10
-440.1545843200
20
247.0314340658
30
0.0000000000
10
-440.3499679698
20
246.8028887380
30
0.0000000000
10
-440.5150890850
20
246.5544481167
30
0.0000000000
10
-440.5859332722
20
246.4387453402
30
0.0000000000
11
-440.0175042010
21
247.1242551455
31
0.0000000000
11
-440.3584931322
21
246.7765047815
31
0.0000000000
11
-440.5859332722
21
246.4387453402
31
0.0000000000
0
SPLINE
5
459
100
AcDbEntity
8
0
100
AcDbSpline
62
7
6
CONTINUOUS
70
0
71
3
72
8
73
4
74
2
42
0.0000001000
43
0.0000001000
44
0.0000000001
12
-0.0723345126
22
-0.1181367770
32
0.0000000000
13
-0.0695639649
23
-0.1197745195
33
0.0000000000
40
0.0000000000
40
0.0000000000
40
0.0000000000
40
0.0000000000
40
1.0000000000
40
1.0000000000
40
1.0000000000
40
1.0000000000
10
-440.5859332722
20
246.4387453402
30
0.0000000000
10
-440.6100447764
20
246.3993664145
30
0.0000000000
10
-440.6336560445
20
246.3596847834
30
0.0000000000
10
-440.6568440327
20
246.3197599435
30
0.0000000000
11
-440.5859332722
21
246.4387453402
31
0.0000000000
11
-440.6568440327
21
246.3197599435
31
0.0000000000
0
SPLINE
5
45A
100
AcDbEntity
8
0
100
AcDbSpline
62
7
6
CONTINUOUS
70
0
71
3
72
8
73
4
74
2
42
0.0000001000
43
0.0000001000
44
0.0000000001
12
-0.0434302486
22
-0.0747777555
32
0.0000000000
13
-0.0424965218
23
-0.0753031032
33
0.0000000000
40
0.0000000000
40
0.0000000000
40
0.0000000000
40
0.0000000000
40
1.0000000000
40
1.0000000000
40
1.0000000000
40
1.0000000000
10
-440.6568440327
20
246.3197599435
30
0.0000000000
10
-440.6713207823
20
246.2948340251
30
0.0000000000
10
-440.6856325472
20
246.2698133095
30
0.0000000000
10
-440.6997980544
20
246.2447122751
30
0.0000000000
11
-440.6568440327
21
246.3197599435
31
0.0000000000
11
-440.6997980544
21
246.2447122751
31
0.0000000000
0
SPLINE
5
45B
100
AcDbEntity
8
0
100
AcDbSpline
62
7
6
CONTINUOUS
70
0
71
3
72
8
73
4
74
2
42
0.0000001000
43
0.0000001000
44
0.0000000001
12
0.5776518784
22
0.0000000000
32
0.0000000000
13
0.4317882783
23
-0.4240741352
33
0.0000000000
40
0.0000000000
40
0.0000000000
40
0.0000000000
40
0.0000000000
40
1.0000000000
40
1.0000000000
40
1.0000000000
40
1.0000000000
10
157.7648037822
20
-338.7552877249
30
0.0000000000
10
157.9573544083
20
-338.7552877249
30
0.0000000000
10
158.1324935576
20
-338.8821226799
30
0.0000000000
10
158.2764229837
20
-339.0234807250
30
0.0000000000
11
157.7648037822
21
-338.7552877249
31
0.0000000000
11
158.2764229837
21
-339.0234807250
31
0.0000000000
0
SPLINE
5
45C
100
AcDbEntity
8
0
100
AcDbSpline
62
7
6
CONTINUOUS
70
0
71
3
72
8
73
4
74
2
42
0.0000001000
43
0.0000001000
44
0.0000000001
12
0.4168118971
22
-0.4093653156
32
0.0000000000
13
0.2923301269
23
-0.4699552132
33
0.0000000000
40
0.0000000000
40
0.0000000000
40
0.0000000000
40
0.0000000000
40
1.0000000000
40
1.0000000000
40
1.0000000000
40
1.0000000000
10
158.2764229837
20
-339.0234807250
30
0.0000000000
10
158.4153602827
20
-339.1599358302
30
0.0000000000
10
158.5252153030
20
-339.3099240434
30
0.0000000000
10
158.6226586786
20
-339.4665757812
30
0.0000000000
11
158.2764229837
21
-339.0234807250
31
0.0000000000
11
158.6226586786
21
-339.4665757812
31
0.0000000000
0
SPLINE
5
45D
100
AcDbEntity
8
0
100
AcDbSpline
62
7
6
CONTINUOUS
70
0
71
3
72
8
73
4
74
2
42
0.0000001000
43
0.0000001000
44
0.0000000001
12
0.1250158609
22
-0.2009777651
32
0.0000000000
13
0.1153078245
23
-0.2066779450
33
0.0000000000
40
0.0000000000
40
0.0000000000
40
0.0000000000
40
0.0000000000
40
1.0000000000
40
1.0000000000
40
1.0000000000
40
1.0000000000
10
158.6226586786
20
-339.4665757812
30
0.0000000000
10
158.6643306322
20
-339.5335683695
30
0.0000000000
10
158.7037326561
20
-339.6017796306
30
0.0000000000
10
158.7421685976
20
-339.6706722789
30
0.0000000000
11
158.6226586786
21
-339.4665757812
31
0.0000000000
11
158.7421685976
21
-339.6706722789
31
0.0000000000
0
SPLINE
5
45E
100
AcDbEntity
8
0
100
AcDbSpline
62
7
6
CONTINUOUS
70
0
71
3
72
8
73
4
74
2
42
0.0000001000
43
0.0000001000
44
0.0000000001
12
0.0468044683
22
-0.0838924103
32
0.0000000000
13
0.0461110237
23
-0.0844582124
33
0.0000000000
40
0.0000000000
40
0.0000000000
40
0.0000000000
40
0.0000000000
40
1.0000000000
40
1.0000000000
40
1.0000000000
40
1.0000000000
10
158.7421685976
20
-339.6706722789
30
0.0000000000
10
158.7577700871
20
-339.6986364157
30
0.0000000000
10
158.7732124028
20
-339.7267128192
30
0.0000000000
10
158.7885827441
20
-339.7548655566
30
0.0000000000
11
158.7421685976
21
-339.6706722789
31
0.0000000000
11
158.7885827441
21
-339.7548655566
31
0.0000000000
0
SPLINE
5
45F
100
AcDbEntity
8
0
100
AcDbSpline
62
7
6
CONTINUOUS
70
0
71
3
72
8
73
4
74
2
42
0.0000001000
43
0.0000001000
44
0.0000000001
12
0.1714921840
22
-0.3141097752
32
0.0000000000
13
0.1660551828
23
-0.3193721333
33
0.0000000000
40
0.0000000000
40
0.0000000000
40
0.0000000000
40
0.0000000000
40
1.0000000000
40
1.0000000000
40
1.0000000000
40
1.0000000000
10
158.7885827441
20
-339.7548655566
30
0.0000000000
10
158.8457468054
20
-339.8595688150
30
0.0000000000
10
158.9019153288
20
-339.9653279107
30
0.0000000000
10
158.9572670564
20
-340.0717852885
30
0.0000000000
11
158.7885827441
21
-339.7548655566
31
0.0000000000
11
158.9572670564
21
-340.0717852885
31
0.0000000000
0
SPLINE
5
460
100
AcDbEntity
8
0
100
AcDbSpline
62
7
6
CONTINUOUS
70
0
71
3
72
8
73
4
74
2
42
0.0000001000
43
0.0000001000
44
0.0000000001
12
0.1739241176
22
-0.3345063704
32
0.0000000000
13
0.1691639944
23
-0.3378700504
33
0.0000000000
40
0.0000000000
40
0.0000000000
40
0.0000000000
40
0.0000000000
40
1.0000000000
40
1.0000000000
40
1.0000000000
40
1.0000000000
10
158.9572670564
20
-340.0717852885
30
0.0000000000
10
159.0152417622
20
-340.1832874120
30
0.0000000000
10
159.0723204264
20
-340.2955555652
30
0.0000000000
10
159.1287084245
20
-340.4081789154
30
0.0000000000
11
158.9572670564
21
-340.0717852885
31
0.0000000000
11
159.1287084245
21
-340.4081789154
31
0.0000000000
0
SPLINE
5
461
100
AcDbEntity
8
0
100
AcDbSpline
62
7
6
CONTINUOUS
70
0
71
3
72
8
73
4
74
2
42
0.0000001000
43
0.0000001000
44
0.0000000001
12
0.1734504680
22
-0.3464313939
32
0.0000000000
13
0.1697579609
23
-0.3473433639
33
0.0000000000
40
0.0000000000
40
0.0000000000
40
0.0000000000
40
0.0000000000
40
1.0000000000
40
1.0000000000
40
1.0000000000
40
1.0000000000
10
159.1287084245
20
-340.4081789154
30
0.0000000000
10
159.1865252472
20
-340.5236560466
30
0.0000000000
10
159.2436159586
20
-340.6395066036
30
0.0000000000
10
159.3002019456
20
-340.7552877249
30
0.0000000000
11
159.1287084245
21
-340.4081789154
31
0.0000000000
11
159.3002019456
21
-340.7552877249
31
0.0000000000
0
SPLINE
5
462
100
AcDbEntity
8
0
100
AcDbSpline
62
7
6
CONTINUOUS
70
0
71
3
72
8
73
4
74
2
42
0.0000001000
43
0.0000001000
44
0.0000000001
12
-0.5391957997
22
0.0000000000
32
0.0000000000
13
-0.4145079892
23
0.3890334385
33
0.0000000000
40
0.0000000000
40
0.0000000000
40
0.0000000000
40
0.0000000000
40
1.0000000000
40
1.0000000000
40
1.0000000000
40
1.0000000000
10
-439.1643998910
20
-378.7552877249
30
0.0000000000
10
-439.3441318243
20
-378.7552877249
30
0.0000000000
10
-439.5086933855
20
-378.6447782336
30
0.0000000000
10
-439.6468627152
20
-378.5151004208
30
0.0000000000
11
-439.1643998910
21
-378.7552877249
31
0.0000000000
11
-439.6468627152
21
-378.5151004208
31
0.0000000000
0
SPLINE
5
463
100
AcDbEntity
8
0
100
AcDbSpline
62
7
6
CONTINUOUS
70
0
71
3
72
9
73
5
74
3
42
0.0000001000
43
0.0000001000
44
0.0000000001
12
-0.4582319756
22
0.4300702658
32
0.0000000000
13
-0.3124907117
23
0.5023657348
33
0.0000000000
40
0.0000000000
40
0.0000000000
40
0.0000000000
40
0.0000000000
40
0.0645157888
40
1.0000000000
40
1.0000000000
40
1.0000000000
40
1.0000000000
10
-439.6468627152
20
-378.5151004208
30
0.0000000000
10
-439.6567171144
20
-378.5058516466
30
0.0000000000
10
-439.8073802260
20
-378.3609835761
30
0.0000000000
10
-439.9248114118
20
-378.2006514064
30
0.0000000000
10
-440.0222547875
20
-378.0439996687
30
0.0000000000
11
-439.6468627152
21
-378.5151004208
31
0.0000000000
11
-439.6760190925
21
-378.4870947249
31
0.0000000000
11
-440.0222547875
21
-378.0439996687
31
0.0000000000
0
SPLINE
5
464
100
AcDbEntity
8
0
100
AcDbSpline
62
7
6
CONTINUOUS
70
0
71
3
72
8
73
4
74
2
42
0.0000001000
43
0.0000001000
44
0.0000000001
12
-0.1250158609
22
0.2009777651
32
0.0000000000
13
-0.1153078245
23
0.2066779450
33
0.0000000000
40
0.0000000000
40
0.0000000000
40
0.0000000000
40
0.0000000000
40
1.0000000000
40
1.0000000000
40
1.0000000000
40
1.0000000000
10
-440.0222547875
20
-378.0439996687
30
0.0000000000
10
-440.0639267411
20
-377.9770070804
30
0.0000000000
10
-440.1033287650
20
-377.9087958193
30
0.0000000000
10
-440.1417647065
20
-377.8399031710
30
0.0000000000
11
-440.0222547875
21
-378.0439996687
31
0.0000000000
11
-440.1417647065
21
-377.8399031710
31
0.0000000000
0
SPLINE
5
465
100
AcDbEntity
8
0
100
AcDbSpline
62
7
6
CONTINUOUS
70
0
71
3
72
8
73
4
74
2
42
0.0000001000
43
0.0000001000
44
0.0000000001
12
-0.0468044683
22
0.0838924103
32
0.0000000000
13
-0.0461110237
23
0.0844582124
33
0.0000000000
40
0.0000000000
40
0.0000000000
40
0.0000000000
40
0.0000000000
40
1.0000000000
40
1.0000000000
40
1.0000000000
40
1.0000000000
10
-440.1417647065
20
-377.8399031710
30
0.0000000000
10
-440.1573661959
20
-377.8119390342
30
0.0000000000
10
-440.1728085117
20
-377.7838626307
30
0.0000000000
10
-440.1881788529
20
-377.7557098933
30
0.0000000000
11
-440.1417647065
21
-377.8399031710
31
0.0000000000
11
-440.1881788529
21
-377.7557098933
31
0.0000000000
0
SPLINE
5
466
100
AcDbEntity
8
0
100
AcDbSpline
62
7
6
CONTINUOUS
70
0
71
3
72
8
73
4
74
2
42
0.0000001000
43
0.0000001000
44
0.0000000001
12
-0.1714921840
22
0.3141097752
32
0.0000000000
13
-0.1660551828
23
0.3193721333
33
0.0000000000
40
0.0000000000
40
0.0000000000
40
0.0000000000
40
0.0000000000
40
1.0000000000
40
1.0000000000
40
1.0000000000
40
1.0000000000
10
-440.1881788529
20
-377.7557098933
30
0.0000000000
10
-440.2453429143
20
-377.6510066349
30
0.0000000000
10
-440.3015114376
20
-377.5452475392
30
0.0000000000
10
-440.3568631652
20
-377.4387901614
30
0.0000000000
11
-440.1881788529
21
-377.7557098933
31
0.0000000000
11
-440.3568631652
21
-377.4387901614
31
0.0000000000
0
SPLINE
5
467
100
AcDbEntity
8
0
100
AcDbSpline
62
7
6
CONTINUOUS
70
0
71
3
72
8
73
4
74
2
42
0.0000001000
43
0.0000001000
44
0.0000000001
12
-0.1739241176
22
0.3345063704
32
0.0000000000
13
-0.1691639944
23
0.3378700504
33
0.0000000000
40
0.0000000000
40
0.0000000000
40
0.0000000000
40
0.0000000000
40
1.0000000000
40
1.0000000000
40
1.0000000000
40
1.0000000000
10
-440.3568631652
20
-377.4387901614
30
0.0000000000
10
-440.4148378711
20
-377.3272880379
30
0.0000000000
10
-440.4719165352
20
-377.2150198847
30
0.0000000000
10
-440.5283045334
20
-377.1023965345
30
0.0000000000
11
-440.3568631652
21
-377.4387901614
31
0.0000000000
11
-440.5283045334
21
-377.1023965345
31
0.0000000000
0
SPLINE
5
468
100
AcDbEntity
8
0
100
AcDbSpline
62
7
6
CONTINUOUS
70
0
71
3
72
8
73
4
74
2
42
0.0000001000
43
0.0000001000
44
0.0000000001
12
-0.1734504680
22
0.3464313939
32
0.0000000000
13
-0.1697579609
23
0.3473433639
33
0.0000000000
40
0.0000000000
40
0.0000000000
40
0.0000000000
40
0.0000000000
40
1.0000000000
40
1.0000000000
40
1.0000000000
40
1.0000000000
10
-440.5283045334
20
-377.1023965345
30
0.0000000000
10
-440.5861213560
20
-376.9869194032
30
0.0000000000
10
-440.6432120675
20
-376.8710688462
30
0.0000000000
10
-440.6997980544
20
-376.7552877249
30
0.0000000000
11
-440.5283045334
21
-377.1023965345
31
0.0000000000
11
-440.6997980544
21
-376.7552877249
31
0.0000000000
0
SPLINE
5
469
100
AcDbEntity
8
0
100
AcDbSpline
62
7
6
CONTINUOUS
70
0
71
3
72
8
73
4
74
2
42
0.0000001000
43
0.0000001000
44
0.0000000001
12
-0.3353207010
22
-0.6861028468
32
0.0000000000
13
-0.3522553263
23
-0.6774888515
33
0.0000000000
40
0.0000000000
40
0.0000000000
40
0.0000000000
40
0.0000000000
40
1.0000000000
40
1.0000000000
40
1.0000000000
40
1.0000000000
10
159.3002019456
20
-376.7552877249
30
0.0000000000
10
159.1884283786
20
-376.9839886739
30
0.0000000000
10
159.0746854985
20
-377.2129605442
30
0.0000000000
10
158.9572670564
20
-377.4387901614
30
0.0000000000
11
159.3002019456
21
-376.7552877249
31
0.0000000000
11
158.9572670564
21
-377.4387901614
31
0.0000000000
0
SPLINE
5
46A
100
AcDbEntity
8
0
100
AcDbSpline
62
7
6
CONTINUOUS
70
0
71
3
72
9
73
5
74
3
42
0.0000001000
43
0.0000001000
44
0.0000000001
12
-0.3207021831
22
-0.6168030331
32
0.0000000000
13
-0.3644875526
23
-0.5859567991
33
0.0000000000
40
0.0000000000
40
0.0000000000
40
0.0000000000
40
0.0000000000
40
0.5177862563
40
1.0000000000
40
1.0000000000
40
1.0000000000
40
1.0000000000
10
158.9572670564
20
-377.4387901614
30
0.0000000000
10
158.9019153288
20
-377.5452475392
30
0.0000000000
10
158.7934371243
20
-377.7494999588
30
0.0000000000
10
158.6812456477
20
-377.9498141948
30
0.0000000000
10
158.6226586786
20
-378.0439996687
30
0.0000000000
11
158.9572670564
21
-377.4387901614
31
0.0000000000
11
158.7885827441
21
-377.7557098933
31
0.0000000000
11
158.6226586786
21
-378.0439996687
31
0.0000000000
0
SPLINE
5
46B
100
AcDbEntity
8
0
100
AcDbSpline
62
7
6
CONTINUOUS
70
0
71
3
72
8
73
4
74
2
42
0.0000001000
43
0.0000001000
44
0.0000000001
12
-0.0556449287
22
-0.0894557964
32
0.0000000000
13
-0.0586881225
23
-0.0878650232
33
0.0000000000
40
0.0000000000
40
0.0000000000
40
0.0000000000
40
0.0000000000
40
1.0000000000
40
1.0000000000
40
1.0000000000
40
1.0000000000
10
158.6226586786
20
-378.0439996687
30
0.0000000000
10
158.6041103690
20
-378.0738182675
30
0.0000000000
10
158.5851123486
20
-378.1033954270
30
0.0000000000
10
158.5655496411
20
-378.1326837681
30
0.0000000000
11
158.6226586786
21
-378.0439996687
31
0.0000000000
11
158.5655496411
21
-378.1326837681
31
0.0000000000
0
SPLINE
5
46C
100
AcDbEntity
8
0
100
AcDbSpline
62
7
6
CONTINUOUS
70
0
71
3
72
9
73
5
74
3
42
0.0000001000
43
0.0000001000
44
0.0000000001
12
-0.2708925528
22
-0.4055672497
32
0.0000000000
13
-0.3766350364
23
-0.3534880559
33
0.0000000000
40
0.0000000000
40
0.0000000000
40
0.0000000000
40
0.0000000000
40
0.9215070440
40
1.0000000000
40
1.0000000000
40
1.0000000000
40
1.0000000000
10
158.5655496411
20
-378.1326837681
30
0.0000000000
10
158.4823398426
20
-378.2572614606
30
0.0000000000
10
158.3809556778
20
-378.3867800979
30
0.0000000000
10
158.2571210055
20
-378.5058516466
30
0.0000000000
10
158.2472666064
20
-378.5151004208
30
0.0000000000
11
158.5655496411
21
-378.1326837681
31
0.0000000000
11
158.2764229837
21
-378.4870947249
31
0.0000000000
11
158.2472666064
21
-378.5151004208
31
0.0000000000
0
SPLINE
5
46D
100
AcDbEntity
8
0
100
AcDbSpline
62
7
6
CONTINUOUS
70
0
71
3
72
8
73
4
74
2
42
0.0000001000
43
0.0000001000
44
0.0000000001
12
-0.4145079892
22
-0.3890334385
32
0.0000000000
13
-0.5391957997
23
0.0000000000
33
0.0000000000
40
0.0000000000
40
0.0000000000
40
0.0000000000
40
0.0000000000
40
1.0000000000
40
1.0000000000
40
1.0000000000
40
1.0000000000
10
158.2472666064
20
-378.5151004208
30
0.0000000000
10
158.1090972766
20
-378.6447782336
30
0.0000000000
10
157.9445357154
20
-378.7552877249
30
0.0000000000
10
157.7648037822
20
-378.7552877249
30
0.0000000000
11
158.2472666064
21
-378.5151004208
31
0.0000000000
11
157.7648037822
21
-378.7552877249
31
0.0000000000
0
SPLINE
5
46E
100
AcDbEntity
8
0
100
AcDbSpline
62
7
6
CONTINUOUS
70
0
71
3
72
8
73
4
74
2
42
0.0000001000
43
0.0000001000
44
0.0000000001
12
0.2143823984
22
-0.3798819100
32
0.0000000000
13
0.2439277827
23
-0.3620413904
33
0.0000000000
40
0.0000000000
40
0.0000000000
40
0.0000000000
40
0.0000000000
40
1.0000000000
40
1.0000000000
40
1.0000000000
40
1.0000000000
10
-440.6997980544
20
-377.7552877249
30
0.0000000000
10
-440.6283372550
20
-377.8819150283
30
0.0000000000
10
-440.5531543388
20
-378.0064982948
30
0.0000000000
10
-440.4718450779
20
-378.1271787583
30
0.0000000000
11
-440.6997980544
21
-377.7552877249
31
0.0000000000
11
-440.4718450779
21
-378.1271787583
31
0.0000000000
0
SPLINE
5
46F
100
AcDbEntity
8
0
100
AcDbSpline
62
7
6
CONTINUOUS
70
0
71
3
72
10
73
6
74
4
42
0.0000001000
43
0.0000001000
44
0.0000000001
12
0.5841912215
22
-0.8670656526
32
0.0000000000
13
1.0446697207
23
0.0000000000
33
0.0000000000
40
0.0000000000
40
0.0000000000
40
0.0000000000
40
0.0000000000
40
0.1873283247
40
0.6535385382
40
1.0000000000
40
1.0000000000
40
1.0000000000
40
1.0000000000
10
-440.4718450779
20
-378.1271787583
30
0.0000000000
10
-440.4353665569
20
-378.1813207436
30
0.0000000000
10
-440.3038007987
20
-378.3674671266
30
0.0000000000
10
-440.0754799424
20
-378.6345399599
30
0.0000000000
10
-439.7968452117
20
-378.7552877249
30
0.0000000000
10
-439.6761992788
20
-378.7552877249
30
0.0000000000
11
-440.4718450779
21
-378.1271787583
31
0.0000000000
11
-440.3584931322
21
-378.2870802313
31
0.0000000000
11
-440.0175042010
21
-378.6348305953
31
0.0000000000
11
-439.6761992788
21
-378.7552877249
31
0.0000000000
0
SPLINE
5
470
100
AcDbEntity
8
0
100
AcDbSpline
62
7
6
CONTINUOUS
70
0
71
3
72
8
73
4
74
2
42
0.0000001000
43
0.0000001000
44
0.0000000001
12
0.3619377985
22
0.0000000000
32
0.0000000000
13
0.3056109262
23
0.2069383682
33
0.0000000000
40
0.0000000000
40
0.0000000000
40
0.0000000000
40
0.0000000000
40
1.0000000000
40
1.0000000000
40
1.0000000000
40
1.0000000000
10
158.2766031700
20
-378.7552877249
30
0.0000000000
10
158.3972491028
20
-378.7552877249
30
0.0000000000
10
158.5160377834
20
-378.7038100514
30
0.0000000000
10
158.6179080922
20
-378.6348305953
30
0.0000000000
11
158.2766031700
21
-378.7552877249
31
0.0000000000
11
158.6179080922
21
-378.6348305953
31
0.0000000000
0
SPLINE
5
471
100
AcDbEntity
8
0
100
AcDbSpline
62
7
6
CONTINUOUS
70
0
71
3
72
9
73
5
74
3
42
0.0000001000
43
0.0000001000
44
0.0000000001
12
0.7548429046
22
0.5111268792
32
0.0000000000
13
0.4669019400
23
0.7625445779
33
0.0000000000
40
0.0000000000
40
0.0000000000
40
0.0000000000
40
0.0000000000
40
0.5448025733
40
1.0000000000
40
1.0000000000
40
1.0000000000
40
1.0000000000
10
158.6179080922
20
-378.6348305953
30
0.0000000000
10
158.7549882111
20
-378.5420095157
30
0.0000000000
10
158.9503718610
20
-378.3134641879
30
0.0000000000
10
159.1154929761
20
-378.0650235666
30
0.0000000000
10
159.1863371633
20
-377.9493207901
30
0.0000000000
11
158.6179080922
21
-378.6348305953
31
0.0000000000
11
158.9588970234
21
-378.2870802313
31
0.0000000000
11
159.1863371633
21
-377.9493207901
31
0.0000000000
0
SPLINE
5
472
100
AcDbEntity
8
0
100
AcDbSpline
62
7
6
CONTINUOUS
70
0
71
3
72
8
73
4
74
2
42
0.0000001000
43
0.0000001000
44
0.0000000001
12
0.0723345126
22
0.1181367770
32
0.0000000000
13
0.0695639649
23
0.1197745195
33
0.0000000000
40
0.0000000000
40
0.0000000000
40
0.0000000000
40
0.0000000000
40
1.0000000000
40
1.0000000000
40
1.0000000000
40
1.0000000000
10
159.1863371633
20
-377.9493207901
30
0.0000000000
10
159.2104486675
20
-377.9099418644
30
0.0000000000
10
159.2340599356
20
-377.8702602333
30
0.0000000000
10
159.2572479239
20
-377.8303353934
30
0.0000000000
11
159.1863371633
21
-377.9493207901
31
0.0000000000
11
159.2572479239
21
-377.8303353934
31
0.0000000000
0
SPLINE
5
473
100
AcDbEntity
8
0
100
AcDbSpline
62
7
6
CONTINUOUS
70
0
71
3
72
8
73
4
74
2
42
0.0000001000
43
0.0000001000
44
0.0000000001
12
0.0434302486
22
0.0747777555
32
0.0000000000
13
0.0424965218
23
0.0753031032
33
0.0000000000
40
0.0000000000
40
0.0000000000
40
0.0000000000
40
0.0000000000
40
1.0000000000
40
1.0000000000
40
1.0000000000
40
1.0000000000
10
159.2572479239
20
-377.8303353934
30
0.0000000000
10
159.2717246734
20
-377.8054094749
30
0.0000000000
10
159.2860364383
20
-377.7803887593
30
0.0000000000
10
159.3002019456
20
-377.7552877249
30
0.0000000000
11
159.2572479239
21
-377.8303353934
31
0.0000000000
11
159.3002019456
21
-377.7552877249
31
0.0000000000
0
SPLINE
5
474
100
AcDbEntity
8
0
100
AcDbSpline
62
7
6
CONTINUOUS
70
0
71
3
72
9
73
5
74
3
42
0.0000001000
43
0.0000001000
44
0.0000000001
12
-1.1352681626
22
0.0000000000
32
0.0000000000
13
-0.5951639065
23
0.9567962889
33
0.0000000000
40
0.0000000000
40
0.0000000000
40
0.0000000000
40
0.0000000000
40
0.5088241681
40
1.0000000000
40
1.0000000000
40
1.0000000000
40
1.0000000000
10
-436.8643998911
20
-338.7552877249
30
0.0000000000
10
-437.0569505172
20
-338.7552877249
30
0.0000000000
10
-437.4011541935
20
-338.5060170281
30
0.0000000000
10
-437.6248114118
20
-338.2006514064
30
0.0000000000
10
-437.7222547875
20
-338.0439996687
30
0.0000000000
11
-436.8643998911
21
-338.7552877249
31
0.0000000000
11
-437.3760190925
21
-338.4870947249
31
0.0000000000
11
-437.7222547875
21
-338.0439996687
31
0.0000000000
0
SPLINE
5
475
100
AcDbEntity
8
0
100
AcDbSpline
62
7
6
CONTINUOUS
70
0
71
3
72
8
73
4
74
2
42
0.0000001000
43
0.0000001000
44
0.0000000001
12
-0.1250158609
22
0.2009777651
32
0.0000000000
13
-0.1153078245
23
0.2066779450
33
0.0000000000
40
0.0000000000
40
0.0000000000
40
0.0000000000
40
0.0000000000
40
1.0000000000
40
1.0000000000
40
1.0000000000
40
1.0000000000
10
-437.7222547875
20
-338.0439996687
30
0.0000000000
10
-437.7639267411
20
-337.9770070804
30
0.0000000000
10
-437.8033287650
20
-337.9087958193
30
0.0000000000
10
-437.8417647065
20
-337.8399031710
30
0.0000000000
11
-437.7222547875
21
-338.0439996687
31
0.0000000000
11
-437.8417647065
21
-337.8399031710
31
0.0000000000
0
SPLINE
5
476
100
AcDbEntity
8
0
100
AcDbSpline
62
7
6
CONTINUOUS
70
0
71
3
72
8
73
4
74
2
42
0.0000001000
43
0.0000001000
44
0.0000000001
12
-0.0468044683
22
0.0838924103
32
0.0000000000
13
-0.0461110237
23
0.0844582124
33
0.0000000000
40
0.0000000000
40
0.0000000000
40
0.0000000000
40
0.0000000000
40
1.0000000000
40
1.0000000000
40
1.0000000000
40
1.0000000000
10
-437.8417647065
20
-337.8399031710
30
0.0000000000
10
-437.8573661960
20
-337.8119390342
30
0.0000000000
10
-437.8728085117
20
-337.7838626307
30
0.0000000000
10
-437.8881788530
20
-337.7557098933
30
0.0000000000
11
-437.8417647065
21
-337.8399031710
31
0.0000000000
11
-437.8881788530
21
-337.7557098933
31
0.0000000000
0
SPLINE
5
477
100
AcDbEntity
8
0
100
AcDbSpline
62
7
6
CONTINUOUS
70
0
71
3
72
8
73
4
74
2
42
0.0000001000
43
0.0000001000
44
0.0000000001
12
-0.3845501784
22
0.7043526257
32
0.0000000000
13
-0.3605613469
23
0.7241121769
33
0.0000000000
40
0.0000000000
40
0.0000000000
40
0.0000000000
40
0.0000000000
40
1.0000000000
40
1.0000000000
40
1.0000000000
40
1.0000000000
10
-437.8881788530
20
-337.7557098933
30
0.0000000000
10
-438.0163622458
20
-337.5209256847
30
0.0000000000
10
-438.1395398190
20
-337.2808324560
30
0.0000000000
10
-438.2597269346
20
-337.0394617304
30
0.0000000000
11
-437.8881788530
21
-337.7557098933
31
0.0000000000
11
-438.2597269346
21
-337.0394617304
31
0.0000000000
0
SPLINE
5
478
100
AcDbEntity
8
0
100
AcDbSpline
62
7
6
CONTINUOUS
70
0
71
3
72
8
73
4
74
2
42
0.0000001000
43
0.0000001000
44
0.0000000001
12
-0.1413280966
22
0.2838279715
32
0.0000000000
13
-0.1389355102
23
0.2842772569
33
0.0000000000
40
0.0000000000
40
0.0000000000
40
0.0000000000
40
0.0000000000
40
1.0000000000
40
1.0000000000
40
1.0000000000
40
1.0000000000
10
-438.2597269346
20
-337.0394617304
30
0.0000000000
10
-438.3068363001
20
-336.9448524065
30
0.0000000000
10
-438.3534862177
20
-336.8500468106
30
0.0000000000
10
-438.3997980545
20
-336.7552877249
30
0.0000000000
11
-438.2597269346
21
-337.0394617304
31
0.0000000000
11
-438.3997980545
21
-336.7552877249
31
0.0000000000
0
SPLINE
5
479
100
AcDbEntity
8
0
100
AcDbSpline
62
7
6
CONTINUOUS
70
0
71
3
72
8
73
4
74
2
42
0.0000001000
43
0.0000001000
44
0.0000000001
12
0.5776518784
22
0.0000000000
32
0.0000000000
13
0.4317882783
23
0.4240741352
33
0.0000000000
40
0.0000000000
40
0.0000000000
40
0.0000000000
40
0.0000000000
40
1.0000000000
40
1.0000000000
40
1.0000000000
40
1.0000000000
10
155.4648037821
20
-338.7552877249
30
0.0000000000
10
155.6573544083
20
-338.7552877249
30
0.0000000000
10
155.8324935575
20
-338.6284527700
30
0.0000000000
10
155.9764229836
20
-338.4870947249
30
0.0000000000
11
155.4648037821
21
-338.7552877249
31
0.0000000000
11
155.9764229836
21
-338.4870947249
31
0.0000000000
0
SPLINE
5
47A
100
AcDbEntity
8
0
100
AcDbSpline
62
7
6
CONTINUOUS
70
0
71
3
72
8
73
4
74
2
42
0.0000001000
43
0.0000001000
44
0.0000000001
12
0.4168118971
22
0.4093653156
32
0.0000000000
13
0.2923301269
23
0.4699552132
33
0.0000000000
40
0.0000000000
40
0.0000000000
40
0.0000000000
40
0.0000000000
40
1.0000000000
40
1.0000000000
40
1.0000000000
40
1.0000000000
10
155.9764229836
20
-338.4870947249
30
0.0000000000
10
156.1153602827
20
-338.3506396197
30
0.0000000000
10
156.2252153029
20
-338.2006514064
30
0.0000000000
10
156.3226586786
20
-338.0439996687
30
0.0000000000
11
155.9764229836
21
-338.4870947249
31
0.0000000000
11
156.3226586786
21
-338.0439996687
31
0.0000000000
0
SPLINE
5
47B
100
AcDbEntity
8
0
100
AcDbSpline
62
7
6
CONTINUOUS
70
0
71
3
72
8
73
4
74
2
42
0.0000001000
43
0.0000001000
44
0.0000000001
12
0.1250158609
22
0.2009777651
32
0.0000000000
13
0.1153078245
23
0.2066779450
33
0.0000000000
40
0.0000000000
40
0.0000000000
40
0.0000000000
40
0.0000000000
40
1.0000000000
40
1.0000000000
40
1.0000000000
40
1.0000000000
10
156.3226586786
20
-338.0439996687
30
0.0000000000
10
156.3643306322
20
-337.9770070804
30
0.0000000000
10
156.4037326561
20
-337.9087958193
30
0.0000000000
10
156.4421685976
20
-337.8399031710
30
0.0000000000
11
156.3226586786
21
-338.0439996687
31
0.0000000000
11
156.4421685976
21
-337.8399031710
31
0.0000000000
0
SPLINE
5
47C
100
AcDbEntity
8
0
100
AcDbSpline
62
7
6
CONTINUOUS
70
0
71
3
72
8
73
4
74
2
42
0.0000001000
43
0.0000001000
44
0.0000000001
12
0.0468044683
22
0.0838924103
32
0.0000000000
13
0.0461110237
23
0.0844582124
33
0.0000000000
40
0.0000000000
40
0.0000000000
40
0.0000000000
40
0.0000000000
40
1.0000000000
40
1.0000000000
40
1.0000000000
40
1.0000000000
10
156.4421685976
20
-337.8399031710
30
0.0000000000
10
156.4577700871
20
-337.8119390342
30
0.0000000000
10
156.4732124028
20
-337.7838626307
30
0.0000000000
10
156.4885827441
20
-337.7557098933
30
0.0000000000
11
156.4421685976
21
-337.8399031710
31
0.0000000000
11
156.4885827441
21
-337.7557098933
31
0.0000000000
0
SPLINE
5
47D
100
AcDbEntity
8
0
100
AcDbSpline
62
7
6
CONTINUOUS
70
0
71
3
72
8
73
4
74
2
42
0.0000001000
43
0.0000001000
44
0.0000000001
12
0.3845501784
22
0.7043526257
32
0.0000000000
13
0.3605613469
23
0.7241121769
33
0.0000000000
40
0.0000000000
40
0.0000000000
40
0.0000000000
40
0.0000000000
40
1.0000000000
40
1.0000000000
40
1.0000000000
40
1.0000000000
10
156.4885827441
20
-337.7557098933
30
0.0000000000
10
156.6167661369
20
-337.5209256847
30
0.0000000000
10
156.7399437101
20
-337.2808324560
30
0.0000000000
10
156.8601308257
20
-337.0394617304
30
0.0000000000
11
156.4885827441
21
-337.7557098933
31
0.0000000000
11
156.8601308257
21
-337.0394617304
31
0.0000000000
0
SPLINE
5
47E
100
AcDbEntity
8
0
100
AcDbSpline
62
7
6
CONTINUOUS
70
0
71
3
72
8
73
4
74
2
42
0.0000001000
43
0.0000001000
44
0.0000000001
12
0.1413280966
22
0.2838279715
32
0.0000000000
13
0.1389355102
23
0.2842772569
33
0.0000000000
40
0.0000000000
40
0.0000000000
40
0.0000000000
40
0.0000000000
40
1.0000000000
40
1.0000000000
40
1.0000000000
40
1.0000000000
10
156.8601308257
20
-337.0394617304
30
0.0000000000
10
156.9072401912
20
-336.9448524065
30
0.0000000000
10
156.9538901088
20
-336.8500468106
30
0.0000000000
10
157.0002019455
20
-336.7552877249
30
0.0000000000
11
156.8601308257
21
-337.0394617304
31
0.0000000000
11
157.0002019455
21
-336.7552877249
31
0.0000000000
0
SPLINE
5
47F
100
AcDbEntity
8
0
100
AcDbSpline
62
7
6
CONTINUOUS
70
0
71
3
72
8
73
4
74
2
42
0.0000001000
43
0.0000001000
44
0.0000000001
12
-0.5776518784
22
0.0000000000
32
0.0000000000
13
-0.4317882783
23
-0.4240741352
33
0.0000000000
40
0.0000000000
40
0.0000000000
40
0.0000000000
40
0.0000000000
40
1.0000000000
40
1.0000000000
40
1.0000000000
40
1.0000000000
10
-436.8643998910
20
207.2447122751
30
0.0000000000
10
-437.0569505171
20
207.2447122751
30
0.0000000000
10
-437.2320896664
20
207.1178773201
30
0.0000000000
10
-437.3760190925
20
206.9765192750
30
0.0000000000
11
-436.8643998910
21
207.2447122751
31
0.0000000000
11
-437.3760190925
21
206.9765192750
31
0.0000000000
0
SPLINE
5
480
100
AcDbEntity
8
0
100
AcDbSpline
62
7
6
CONTINUOUS
70
0
71
3
72
8
73
4
74
2
42
0.0000001000
43
0.0000001000
44
0.0000000001
12
-0.4168118971
22
-0.4093653156
32
0.0000000000
13
-0.2923301269
23
-0.4699552132
33
0.0000000000
40
0.0000000000
40
0.0000000000
40
0.0000000000
40
0.0000000000
40
1.0000000000
40
1.0000000000
40
1.0000000000
40
1.0000000000
10
-437.3760190925
20
206.9765192750
30
0.0000000000
10
-437.5149563915
20
206.8400641698
30
0.0000000000
10
-437.6248114118
20
206.6900759566
30
0.0000000000
10
-437.7222547874
20
206.5334242188
30
0.0000000000
11
-437.3760190925
21
206.9765192750
31
0.0000000000
11
-437.7222547874
21
206.5334242188
31
0.0000000000
0
SPLINE
5
481
100
AcDbEntity
8
0
100
AcDbSpline
62
7
6
CONTINUOUS
70
0
71
3
72
8
73
4
74
2
42
0.0000001000
43
0.0000001000
44
0.0000000001
12
-0.1250158609
22
-0.2009777651
32
0.0000000000
13
-0.1153078245
23
-0.2066779450
33
0.0000000000
40
0.0000000000
40
0.0000000000
40
0.0000000000
40
0.0000000000
40
1.0000000000
40
1.0000000000
40
1.0000000000
40
1.0000000000
10
-437.7222547874
20
206.5334242188
30
0.0000000000
10
-437.7639267411
20
206.4664316305
30
0.0000000000
10
-437.8033287650
20
206.3982203694
30
0.0000000000
10
-437.8417647065
20
206.3293277211
30
0.0000000000
11
-437.7222547874
21
206.5334242188
31
0.0000000000
11
-437.8417647065
21
206.3293277211
31
0.0000000000
0
SPLINE
5
482
100
AcDbEntity
8
0
100
AcDbSpline
62
7
6
CONTINUOUS
70
0
71
3
72
8
73
4
74
2
42
0.0000001000
43
0.0000001000
44
0.0000000001
12
-0.0468044683
22
-0.0838924103
32
0.0000000000
13
-0.0461110237
23
-0.0844582124
33
0.0000000000
40
0.0000000000
40
0.0000000000
40
0.0000000000
40
0.0000000000
40
1.0000000000
40
1.0000000000
40
1.0000000000
40
1.0000000000
10
-437.8417647065
20
206.3293277211
30
0.0000000000
10
-437.8573661959
20
206.3013635843
30
0.0000000000
10
-437.8728085117
20
206.2732871808
30
0.0000000000
10
-437.8881788529
20
206.2451344434
30
0.0000000000
11
-437.8417647065
21
206.3293277211
31
0.0000000000
11
-437.8881788529
21
206.2451344434
31
0.0000000000
0
SPLINE
5
483
100
AcDbEntity
8
0
100
AcDbSpline
62
7
6
CONTINUOUS
70
0
71
3
72
8
73
4
74
2
42
0.0000001000
43
0.0000001000
44
0.0000000001
12
-0.3845501784
22
-0.7043526257
32
0.0000000000
13
-0.3605613469
23
-0.7241121769
33
0.0000000000
40
0.0000000000
40
0.0000000000
40
0.0000000000
40
0.0000000000
40
1.0000000000
40
1.0000000000
40
1.0000000000
40
1.0000000000
10
-437.8881788529
20
206.2451344434
30
0.0000000000
10
-438.0163622457
20
206.0103502348
30
0.0000000000
10
-438.1395398189
20
205.7702570061
30
0.0000000000
10
-438.2597269346
20
205.5288862805
30
0.0000000000
11
-437.8881788529
21
206.2451344434
31
0.0000000000
11
-438.2597269346
21
205.5288862805
31
0.0000000000
0
SPLINE
5
484
100
AcDbEntity
8
0
100
AcDbSpline
62
7
6
CONTINUOUS
70
0
71
3
72
8
73
4
74
2
42
0.0000001000
43
0.0000001000
44
0.0000000001
12
-0.1413280966
22
-0.2838279715
32
0.0000000000
13
-0.1389355102
23
-0.2842772569
33
0.0000000000
40
0.0000000000
40
0.0000000000
40
0.0000000000
40
0.0000000000
40
1.0000000000
40
1.0000000000
40
1.0000000000
40
1.0000000000
10
-438.2597269346
20
205.5288862805
30
0.0000000000
10
-438.3068363001
20
205.4342769566
30
0.0000000000
10
-438.3534862177
20
205.3394713607
30
0.0000000000
10
-438.3997980544
20
205.2447122751
30
0.0000000000
11
-438.2597269346
21
205.5288862805
31
0.0000000000
11
-438.3997980544
21
205.2447122751
31
0.0000000000
0
SPLINE
5
485
100
AcDbEntity
8
0
100
AcDbSpline
62
7
6
CONTINUOUS
70
0
71
3
72
9
73
5
74
3
42
0.0000001000
43
0.0000001000
44
0.0000000001
12
1.1352681626
22
0.0000000000
32
0.0000000000
13
0.5951639065
23
-0.9567962889
33
0.0000000000
40
0.0000000000
40
0.0000000000
40
0.0000000000
40
0.0000000000
40
0.5088241681
40
1.0000000000
40
1.0000000000
40
1.0000000000
40
1.0000000000
10
155.4648037822
20
207.2447122751
30
0.0000000000
10
155.6573544083
20
207.2447122751
30
0.0000000000
10
156.0015580847
20
206.9954415782
30
0.0000000000
10
156.2252153030
20
206.6900759566
30
0.0000000000
10
156.3226586786
20
206.5334242188
30
0.0000000000
11
155.4648037822
21
207.2447122751
31
0.0000000000
11
155.9764229837
21
206.9765192750
31
0.0000000000
11
156.3226586786
21
206.5334242188
31
0.0000000000
0
SPLINE
5
486
100
AcDbEntity
8
0
100
AcDbSpline
62
7
6
CONTINUOUS
70
0
71
3
72
8
73
4
74
2
42
0.0000001000
43
0.0000001000
44
0.0000000001
12
0.1250158609
22
-0.2009777651
32
0.0000000000
13
0.1153078245
23
-0.2066779450
33
0.0000000000
40
0.0000000000
40
0.0000000000
40
0.0000000000
40
0.0000000000
40
1.0000000000
40
1.0000000000
40
1.0000000000
40
1.0000000000
10
156.3226586786
20
206.5334242188
30
0.0000000000
10
156.3643306323
20
206.4664316305
30
0.0000000000
10
156.4037326562
20
206.3982203694
30
0.0000000000
10
156.4421685977
20
206.3293277211
30
0.0000000000
11
156.3226586786
21
206.5334242188
31
0.0000000000
11
156.4421685977
21
206.3293277211
31
0.0000000000
0
SPLINE
5
487
100
AcDbEntity
8
0
100
AcDbSpline
62
7
6
CONTINUOUS
70
0
71
3
72
8
73
4
74
2
42
0.0000001000
43
0.0000001000
44
0.0000000001
12
0.0468044683
22
-0.0838924103
32
0.0000000000
13
0.0461110237
23
-0.0844582124
33
0.0000000000
40
0.0000000000
40
0.0000000000
40
0.0000000000
40
0.0000000000
40
1.0000000000
40
1.0000000000
40
1.0000000000
40
1.0000000000
10
156.4421685977
20
206.3293277211
30
0.0000000000
10
156.4577700871
20
206.3013635843
30
0.0000000000
10
156.4732124029
20
206.2732871808
30
0.0000000000
10
156.4885827441
20
206.2451344434
30
0.0000000000
11
156.4421685977
21
206.3293277211
31
0.0000000000
11
156.4885827441
21
206.2451344434
31
0.0000000000
0
SPLINE
5
488
100
AcDbEntity
8
0
100
AcDbSpline
62
7
6
CONTINUOUS
70
0
71
3
72
8
73
4
74
2
42
0.0000001000
43
0.0000001000
44
0.0000000001
12
0.3845501784
22
-0.7043526257
32
0.0000000000
13
0.3605613469
23
-0.7241121769
33
0.0000000000
40
0.0000000000
40
0.0000000000
40
0.0000000000
40
0.0000000000
40
1.0000000000
40
1.0000000000
40
1.0000000000
40
1.0000000000
10
156.4885827441
20
206.2451344434
30
0.0000000000
10
156.6167661369
20
206.0103502348
30
0.0000000000
10
156.7399437101
20
205.7702570061
30
0.0000000000
10
156.8601308258
20
205.5288862805
30
0.0000000000
11
156.4885827441
21
206.2451344434
31
0.0000000000
11
156.8601308258
21
205.5288862805
31
0.0000000000
0
SPLINE
5
489
100
AcDbEntity
8
0
100
AcDbSpline
62
7
6
CONTINUOUS
70
0
71
3
72
8
73
4
74
2
42
0.0000001000
43
0.0000001000
44
0.0000000001
12
0.1413280966
22
-0.2838279715
32
0.0000000000
13
0.1389355102
23
-0.2842772569
33
0.0000000000
40
0.0000000000
40
0.0000000000
40
0.0000000000
40
0.0000000000
40
1.0000000000
40
1.0000000000
40
1.0000000000
40
1.0000000000
10
156.8601308258
20
205.5288862805
30
0.0000000000
10
156.9072401913
20
205.4342769566
30
0.0000000000
10
156.9538901089
20
205.3394713607
30
0.0000000000
10
157.0002019456
20
205.2447122751
30
0.0000000000
11
156.8601308258
21
205.5288862805
31
0.0000000000
11
157.0002019456
21
205.2447122751
31
0.0000000000
0
ENDSEC
0
SECTION
2
OBJECTS
0
DICTIONARY
5
48A
100
AcDbDictionary
3
ACAD_GROUP
350
48B
3
ACAD_MLINESTYLE
350
48C
0
DICTIONARY
5
48B
102
{ACAD_REACTORS
330
48A
102
}
100
AcDbDictionary
0
DICTIONARY
5
48C
102
{ACAD_REACTORS
330
48A
102
}
100
AcDbDictionary
3
STANDARD
350
48D
0
MLINESTYLE
5
48D
102
{ACAD_REACTORS
330
48C
102
}
100
AcDbMlineStyle
2
STANDARD
70
0
3

62
256
51
90.0
52
90.0
71
2
49
0.5
62
256
6
BYLAYER
49
-0.5
62
256
6
BYLAYER
0
ENDSEC
0
EOF
