0
SECTION
2
HEADER
9
$ACADVER
1
AC1014
9
$HANDSEED
5
       408
9
$EXTMAX
10
297.0000000000
20
210.0000000000
9
$EXTMIN
10
0.0000000000
20
0.0000000000
9
$LIMMIN
10
0.0000000000
20
0.0000000000
9
$LIMMAX
10
297.0000000000
20
210.0000000000
9
$VIEWCTR
10
148.5000000000
20
105.0000000000
9
$VIEWSIZE
40
210.0000000000
9
$CLAYER
8
0
9
$LTSCALE
40
16.3350000000
9
$CELTYPE
6
BYLAYER
9
$DIMSCALE
40
1
9
$DIMASZ
40
3.0000000000
9
$DIMEXO
40
1.8562500000
9
$DIMDLI
40
11.2860000000
9
$DIMEXE
40
5.3460000000
9
$DIMCEN
40
2.6730000000
9
$DIMLFAC
40
1.0000000000
9
$DIMTXT
40
3.0000000000
9
$DIMTOL
70
1
9
$DIMLIM
70
0
9
$DIMTFAC
40
1.0000000000
9
$DIMTP
40
0.0100000000
9
$DIMTM
40
0.0100000000
9
$MEASUREMENT
70
1
0
ENDSEC
0
SECTION
2
CLASSES
0
ENDSEC
0
SECTION
2
TABLES
0
TABLE
2
VPORT
5
8
100
AcDbSymbolTable
70
2
0
VPORT
5
1F4
100
AcDbSymbolTableRecord
100
AcDbViewportTableRecord
2
*ACTIVE
70
0
10
0.0
20
0.0
11
1.0
21
1.0
12
148.5000000000
22
105.0000000000
13
0.0
23
0.0
14
1.0
24
1.0
15
0.0
25
0.0
16
0.0
26
0.0
36
1.0
17
0.0
27
0.0
37
0.0
40
210.0000000000
41
1.4142857143
42
50.0
43
0.0
44
0.0
50
0.0
51
0.0
71
0
72
100
73
1
74
1
75
0
76
0
77
0
78
0
0
ENDTAB
0
TABLE
2
LTYPE
5
5
100
AcDbSymbolTable
70
6
0
LTYPE
5
14
100
AcDbSymbolTableRecord
100
AcDbLinetypeTableRecord
2
BYBLOCK
70
0
3

72
65
73
0
40
0.0
0
LTYPE
5
15
100
AcDbSymbolTableRecord
100
AcDbLinetypeTableRecord
2
BYLAYER
70
0
3

72
65
73
0
40
0.0
0
LTYPE
5
16
100
AcDbSymbolTableRecord
100
AcDbLinetypeTableRecord
2
CONTINUOUS
70
64
3
Solid line
72
65
73
0
40
0
0
LTYPE
5
1F5
100
AcDbSymbolTableRecord
100
AcDbLinetypeTableRecord
2
CENTER
70
64
3
____ _ ____ _ ____ _ ____ _ ____ _ ____ _ ____
72
65
73
4
40
0.6
49
0.375
74
0
49
-0.075
74
0
49
0.075
74
0
49
-0.075
74
0
0
LTYPE
5
1F6
100
AcDbSymbolTableRecord
100
AcDbLinetypeTableRecord
2
HIDDEN
70
64
3
- - - - - - - - - - - - - - - - - - - -
72
65
73
2
40
0.2
49
0.1
74
0
49
-0.1
74
0
0
LTYPE
5
1F7
100
AcDbSymbolTableRecord
100
AcDbLinetypeTableRecord
2
PHANTOM
70
64
3
_____ _ _ _____ _ _ _____ _ _ _____
72
65
73
6
40
0.8
49
0.45
74
0
49
-0.05
74
0
49
0.1
74
0
49
-0.05
74
0
49
0.1
74
0
49
-0.05
74
0
0
LTYPE
5
1F8
100
AcDbSymbolTableRecord
100
AcDbLinetypeTableRecord
2
DOT
70
64
3
. . . . . . . . . . . . . . . . . . . .
72
65
73
2
40
0.2
49
0.1
74
0
49
-0.1
74
0
0
LTYPE
5
1F9
100
AcDbSymbolTableRecord
100
AcDbLinetypeTableRecord
2
DASHED
70
64
3
- - - - - - - - - - - - - - - - - - - -
72
65
73
2
40
0.2
49
0.1
74
0
49
-0.1
74
0
0
ENDTAB
0
TABLE
2
LAYER
5
2
100
AcDbSymbolTable
70
36
0
LAYER
5
10
100
AcDbSymbolTableRecord
100
AcDbLayerTableRecord
2
0
70
0
62
7
6
CONTINUOUS
0
LAYER
5
1FA
100
AcDbSymbolTableRecord
100
AcDbLayerTableRecord
2
DEFAULT_1
70
0
62
7
6
CENTER
0
LAYER
5
1FB
100
AcDbSymbolTableRecord
100
AcDbLayerTableRecord
2
DEFAULT_2
70
0
62
8
6
HIDDEN
0
LAYER
5
1FC
100
AcDbSymbolTableRecord
100
AcDbLayerTableRecord
2
DEFAULT_3
70
0
62
7
6
PHANTOM
0
LAYER
5
1FD
100
AcDbSymbolTableRecord
100
AcDbLayerTableRecord
2
ASSI
70
0
62
7
6
CONTINUOUS
0
LAYER
5
1FE
100
AcDbSymbolTableRecord
100
AcDbLayerTableRecord
2
COORDINATE
70
0
62
7
6
CONTINUOUS
0
LAYER
5
1FF
100
AcDbSymbolTableRecord
100
AcDbLayerTableRecord
2
COORD_ORIGINE
70
0
62
7
6
CONTINUOUS
0
LAYER
5
200
100
AcDbSymbolTableRecord
100
AcDbLayerTableRecord
2
DRAFT
70
0
62
7
6
CONTINUOUS
0
LAYER
5
201
100
AcDbSymbolTableRecord
100
AcDbLayerTableRecord
2
PIANI
70
0
62
7
6
CONTINUOUS
0
LAYER
5
202
100
AcDbSymbolTableRecord
100
AcDbLayerTableRecord
2
PIANI_ORIGINE
70
0
62
7
6
CONTINUOUS
0
LAYER
5
203
100
AcDbSymbolTableRecord
100
AcDbLayerTableRecord
2
PUNTI
70
0
62
7
6
CONTINUOUS
0
LAYER
5
204
100
AcDbSymbolTableRecord
100
AcDbLayerTableRecord
2
RACCORDO
70
0
62
7
6
CONTINUOUS
0
LAYER
5
205
100
AcDbSymbolTableRecord
100
AcDbLayerTableRecord
2
SMUSSO
70
0
62
7
6
CONTINUOUS
0
LAYER
5
206
100
AcDbSymbolTableRecord
100
AcDbLayerTableRecord
2
SNAPLINE
70
0
62
7
6
CONTINUOUS
0
LAYER
5
207
100
AcDbSymbolTableRecord
100
AcDbLayerTableRecord
2
TRASH
70
0
62
7
6
CONTINUOUS
0
ENDTAB
0
TABLE
2
STYLE
5
3
100
AcDbSymbolTable
70
1
0
STYLE
5
11
100
AcDbSymbolTableRecord
100
AcDbTextStyleTableRecord
2
STANDARD
70
0
40
0.0
41
0.8000000000
50
0.0
71
0
42
0.2
3
txt
4

0
ENDTAB
0
TABLE
2
VIEW
5
6
100
AcDbSymbolTable
70
0
0
ENDTAB
0
TABLE
2
UCS
5
7
100
AcDbSymbolTable
70
0
0
ENDTAB
0
TABLE
2
APPID
5
9
100
AcDbSymbolTable
70
1
0
APPID
5
208
100
AcDbSymbolTableRecord
100
AcDbRegAppTableRecord
2
ACAD
70
0
0
ENDTAB
0
TABLE
2
DIMSTYLE
5
A
100
AcDbSymbolTable
70
1
0
DIMSTYLE
105
209
100
AcDbSymbolTableRecord
100
AcDbDimStyleTableRecord
2
STANDARD
70
0
3

4

5

6

7

40
1.0
41
3.0000000000
42
0.0625
43
0.38
44
0.18
45
0.0
46
0.0
47
0.0100000000
48
0.0100000000
140
3.0000000000
141
0.09
142
0.0
143
25.4
144
1.0000000000
145
0.0
146
1.0000000000
147
0.09
71
1
72
0
73
0
74
0
75
0
76
0
77
1
78
8
170
0
171
2
172
0
173
0
174
0
175
0
176
0
177
0
178
0
270
2
271
2
272
2
273
2
274
2
340
11
275
0
280
0
281
0
282
0
283
1
284
8
285
0
286
0
287
3
288
0
0
DIMSTYLE
105
20A
100
AcDbSymbolTableRecord
100
AcDbDimStyleTableRecord
2
DIMSTYLE_1
70
0
3

4

5

6

7

40
1.0
41
3.0000000000
42
0.0625
43
0.38
44
0.18
45
0.0
46
0.0
47
0.0000000000
48
0.0000000000
140
3.0000000000
141
0.09
142
0.0
143
25.4
144
1.0000000000
145
0.0
146
1.0000000000
147
0.09
71
0
72
0
73
0
74
0
75
0
76
0
77
1
78
8
170
0
171
2
172
0
173
0
174
0
175
0
176
0
177
0
178
0
270
2
271
2
272
2
273
2
274
2
340
11
275
0
280
0
281
0
282
0
283
1
284
8
285
0
286
0
287
3
288
0
0
ENDTAB
0
TABLE
2
BLOCK_RECORD
5
1
100
AcDbSymbolTable
70
0
0
BLOCK_RECORD
5
1B
100
AcDbSymbolTableRecord
100
AcDbBlockTableRecord
2
*MODEL_SPACE
0
BLOCK_RECORD
5
1C
100
AcDbSymbolTableRecord
100
AcDbBlockTableRecord
2
*PAPER_SPACE
0
BLOCK_RECORD
5
20B
100
AcDbSymbolTableRecord
100
AcDbBlockTableRecord
2
*D0
0
BLOCK_RECORD
5
20C
100
AcDbSymbolTableRecord
100
AcDbBlockTableRecord
2
*D1
0
ENDTAB
0
ENDSEC
0
SECTION
2
BLOCKS
0
BLOCK
5
1E
100
AcDbEntity
8
0
100
AcDbBlockBegin
2
*MODEL_SPACE
70
0
10
0.0
20
0.0
30
0.0
3
*MODEL_SPACE
1

0
ENDBLK
5
1F
100
AcDbEntity
8
0
100
AcDbBlockEnd
0
BLOCK
5
20
100
AcDbEntity
8
0
100
AcDbBlockBegin
2
*PAPER_SPACE
70
0
10
0.0
20
0.0
30
0.0
3
*PAPER_SPACE
1

0
ENDBLK
5
21
100
AcDbEntity
8
0
100
AcDbBlockEnd
0
BLOCK
5
20D
100
AcDbEntity
8
0
100
AcDbBlockBegin
62
7
6
CONTINUOUS
2
*D0
70
65
10
0.0000000000
20
0.0000000000
3
*D0
1

0
TEXT
5
20E
100
AcDbEntity
8
0
100
AcDbText
62
7
6
CONTINUOUS
10
-109.0510990820
20
303.6942709322
7
STANDARD
40
3.0000000000
1
400
41
0.7857142857
72
0
100
AcDbText
0
LINE
5
20F
100
AcDbEntity
8
0
100
AcDbLine
62
7
6
CONTINUOUS
10
-305.5153847963
20
232.0137614437
11
-305.5153847963
21
304.4442709322
0
LINE
5
210
100
AcDbEntity
8
0
100
AcDbLine
62
7
6
CONTINUOUS
10
94.4846152037
20
232.0137614437
11
94.4846152037
21
304.4442709322
0
LINE
5
211
100
AcDbEntity
8
0
100
AcDbLine
62
7
6
CONTINUOUS
10
-305.5153847963
20
302.9442709322
11
-105.5153847963
21
302.9442709322
0
LINE
5
212
100
AcDbEntity
8
0
100
AcDbLine
62
7
6
CONTINUOUS
10
94.4846152037
20
302.9442709322
11
-105.5153847963
21
302.9442709322
0
SOLID
5
213
100
AcDbEntity
8
0
100
AcDbTrace
62
7
6
CONTINUOUS
10
-302.5153847963
20
303.8942709322
11
-305.5153847963
21
302.9442709322
12
-302.5153847963
22
301.9942709322
13
-302.5153847963
23
301.9942709322
0
SOLID
5
214
100
AcDbEntity
8
0
100
AcDbTrace
62
7
6
CONTINUOUS
10
91.4846152037
20
301.9942709322
11
94.4846152037
21
302.9442709322
12
91.4846152037
22
303.8942709322
13
91.4846152037
23
303.8942709322
0
ENDBLK
5
215
100
AcDbEntity
8
0
100
AcDbBlockEnd
0
BLOCK
5
216
100
AcDbEntity
8
0
100
AcDbBlockBegin
62
7
6
CONTINUOUS
2
*D1
70
65
10
0.0000000000
20
0.0000000000
3
*D1
1

0
TEXT
5
217
100
AcDbEntity
8
0
100
AcDbText
62
7
6
CONTINUOUS
10
205.2318941742
20
-92.5219528421
7
STANDARD
40
3.0000000000
1
620
50
90.0000000000
41
0.7857142857
72
0
100
AcDbText
0
LINE
5
218
100
AcDbEntity
8
0
100
AcDbLine
62
7
6
CONTINUOUS
10
105.4846152037
20
221.0137614437
11
207.4818941742
21
221.0137614437
0
LINE
5
219
100
AcDbEntity
8
0
100
AcDbLine
62
7
6
CONTINUOUS
10
105.4846152037
20
-398.9862385563
11
207.4818941742
21
-398.9862385563
0
LINE
5
21A
100
AcDbEntity
8
0
100
AcDbLine
62
7
6
CONTINUOUS
10
205.9818941742
20
221.0137614437
11
205.9818941742
21
-88.9862385563
0
LINE
5
21B
100
AcDbEntity
8
0
100
AcDbLine
62
7
6
CONTINUOUS
10
205.9818941742
20
-398.9862385563
11
205.9818941742
21
-88.9862385563
0
SOLID
5
21C
100
AcDbEntity
8
0
100
AcDbTrace
62
7
6
CONTINUOUS
10
206.9318941742
20
218.0137614437
11
205.9818941742
21
221.0137614437
12
205.0318941742
22
218.0137614437
13
205.0318941742
23
218.0137614437
0
SOLID
5
21D
100
AcDbEntity
8
0
100
AcDbTrace
62
7
6
CONTINUOUS
10
205.0318941742
20
-395.9862385563
11
205.9818941742
21
-398.9862385563
12
206.9318941742
22
-395.9862385563
13
206.9318941742
23
-395.9862385563
0
ENDBLK
5
21E
100
AcDbEntity
8
0
100
AcDbBlockEnd
0
ENDSEC
0
SECTION
2
ENTITIES
0
DIMENSION
5
21F
100
AcDbEntity
8
0
100
AcDbDimension
62
7
6
CONTINUOUS
2
*D0
10
94.4846152037
20
302.9442709322
11
-105.5153847963
21
305.1942709322
70
160
3
DIMSTYLE_1
100
AcDbAlignedDimension
13
-305.5153847963
23
232.0137614437
14
94.4846152037
24
232.0137614437
100
AcDbRotatedDimension
0
DIMENSION
5
220
100
AcDbEntity
8
0
100
AcDbDimension
62
7
6
CONTINUOUS
2
*D1
10
205.9818941742
20
-398.9862385563
11
203.7318941742
21
-88.9862385563
70
160
3
DIMSTYLE_1
100
AcDbAlignedDimension
13
105.4846152037
23
221.0137614437
14
105.4846152037
24
-398.9862385563
50
270.000000
100
AcDbRotatedDimension
0
LINE
5
221
100
AcDbEntity
8
0
100
AcDbLine
62
9
6
CONTINUOUS
10
6.9521319822
20
-470.2955003013
11
-2.9829015748
21
-470.2955003013
0
LINE
5
222
100
AcDbEntity
8
0
100
AcDbLine
62
9
6
CONTINUOUS
10
-208.0478680178
20
-470.2955003013
11
-217.9829015748
21
-470.2955003013
0
LINE
5
223
100
AcDbEntity
8
0
100
AcDbLine
62
7
6
CONTINUOUS
10
14.4846152037
20
-469.9862385563
11
-225.5153847963
21
-469.9862385563
0
LINE
5
224
100
AcDbEntity
8
0
100
AcDbLine
62
7
6
CONTINUOUS
10
-403.5153847963
20
-468.4862385563
11
192.4846152037
21
-468.4862385563
0
LINE
5
225
100
AcDbEntity
8
0
100
AcDbLine
62
9
6
CONTINUOUS
10
-403.9238174240
20
-466.5778059287
11
-405.4238174240
21
-466.5778059287
0
LINE
5
226
100
AcDbEntity
8
0
100
AcDbLine
62
9
6
CONTINUOUS
10
-403.5153847963
20
-466.4862385563
11
192.4846152037
21
-466.4862385563
0
LINE
5
227
100
AcDbEntity
8
0
100
AcDbLine
62
9
6
CONTINUOUS
10
192.9846152037
20
-466.4862385563
11
194.4846152037
21
-466.4862385563
0
LINE
5
228
100
AcDbEntity
8
0
100
AcDbLine
62
7
6
CONTINUOUS
10
192.9846152037
20
-430.4862385563
11
194.4846152037
21
-430.4862385563
0
LINE
5
229
100
AcDbEntity
8
0
100
AcDbLine
62
7
6
CONTINUOUS
10
-403.9238174240
20
-430.4339722366
11
-405.4238174240
21
-430.4339722366
0
LINE
5
22A
100
AcDbEntity
8
0
100
AcDbLine
62
9
6
CONTINUOUS
10
-403.5153847963
20
-428.4862385563
11
192.4846152037
21
-428.4862385563
0
LINE
5
22B
100
AcDbEntity
8
0
100
AcDbLine
62
7
6
CONTINUOUS
10
-434.3153847963
20
-89.9862385563
11
-434.3153847963
21
-87.9862385563
0
LINE
5
22C
100
AcDbEntity
8
0
100
AcDbLine
62
7
6
CONTINUOUS
10
-432.6153847963
20
-89.9862385563
11
-432.6153847963
21
-87.9862385563
0
LINE
5
22D
100
AcDbEntity
8
0
100
AcDbLine
62
7
6
CONTINUOUS
10
-428.0653847963
20
-89.9862385563
11
-428.0653847963
21
-87.9862385563
0
LINE
5
22E
100
AcDbEntity
8
0
100
AcDbLine
62
7
6
CONTINUOUS
10
-420.5653847963
20
-89.9862385563
11
-420.5653847963
21
-87.9862385563
0
LINE
5
22F
100
AcDbEntity
8
0
100
AcDbLine
62
7
6
CONTINUOUS
10
-415.5153847963
20
-89.9862385563
11
-415.5153847963
21
-87.9862385563
0
LINE
5
230
100
AcDbEntity
8
0
100
AcDbLine
62
7
6
CONTINUOUS
10
-413.9453847963
20
-89.9862385563
11
-413.9453847963
21
-87.9862385563
0
LINE
5
231
100
AcDbEntity
8
0
100
AcDbLine
62
7
6
CONTINUOUS
10
-412.5153847963
20
-89.9862385563
11
-412.5153847963
21
-87.9862385563
0
LINE
5
232
100
AcDbEntity
8
0
100
AcDbLine
62
7
6
CONTINUOUS
10
-306.2578847963
20
-398.9862385563
11
-304.7728847963
21
-398.9862385563
0
LINE
5
233
100
AcDbEntity
8
DEFAULT_1
100
AcDbLine
62
7
6
CENTER
10
-301.8028847963
20
-398.9862385563
11
-295.0153847963
21
-398.9862385563
0
LINE
5
234
100
AcDbEntity
8
0
100
AcDbLine
62
7
6
CONTINUOUS
10
197.9839336609
20
-398.9862385563
11
194.4846152037
21
-398.9862385563
0
LINE
5
235
100
AcDbEntity
8
0
100
AcDbLine
62
7
6
CONTINUOUS
10
95.2271152037
20
-398.9862385563
11
93.7421152037
21
-398.9862385563
0
LINE
5
236
100
AcDbEntity
8
DEFAULT_1
100
AcDbLine
62
7
6
CENTER
10
90.7721152037
20
-398.9862385563
11
83.9846152037
21
-398.9862385563
0
LINE
5
237
100
AcDbEntity
8
DEFAULT_1
100
AcDbLine
62
7
6
CENTER
10
98.1971152037
20
-398.9862385563
11
104.9846152037
21
-398.9862385563
0
LINE
5
238
100
AcDbEntity
8
DEFAULT_1
100
AcDbLine
62
7
6
CENTER
10
-309.2278847963
20
-398.9862385563
11
-316.0153847963
21
-398.9862385563
0
LINE
5
239
100
AcDbEntity
8
0
100
AcDbLine
62
7
6
CONTINUOUS
10
-409.6153847963
20
-79.4862385563
11
-409.6153847963
21
-98.4862385563
0
LINE
5
23A
100
AcDbEntity
8
0
100
AcDbLine
62
7
6
CONTINUOUS
10
-408.0153847963
20
-77.9862385563
11
-408.0153847963
21
-99.9862385563
0
LINE
5
23B
100
AcDbEntity
8
0
100
AcDbLine
62
7
6
CONTINUOUS
10
-405.5153847963
20
288.5137614437
11
-405.5153847963
21
252.5137614437
0
LINE
5
23C
100
AcDbEntity
8
0
100
AcDbLine
62
7
6
CONTINUOUS
10
-405.5153847963
20
248.9783632803
11
-405.5153847963
21
-426.9508403929
0
LINE
5
23D
100
AcDbEntity
8
0
100
AcDbLine
62
7
6
CONTINUOUS
10
-405.4238174240
20
-430.4339722366
11
-405.4238174240
21
-466.5778059287
0
LINE
5
23E
100
AcDbEntity
8
0
100
AcDbLine
62
7
6
CONTINUOUS
10
-404.0153847963
20
288.5137614437
11
-404.0153847963
21
252.5137614437
0
LINE
5
23F
100
AcDbEntity
8
0
100
AcDbLine
62
7
6
CONTINUOUS
10
-403.9238174240
20
-430.4339722366
11
-403.9238174240
21
-466.5778059287
0
LINE
5
240
100
AcDbEntity
8
0
100
AcDbLine
62
7
6
CONTINUOUS
10
-403.5153847963
20
-468.4862385563
11
-403.5153847963
21
-428.4862385563
0
LINE
5
241
100
AcDbEntity
8
0
100
AcDbLine
62
7
6
CONTINUOUS
10
-403.5153847963
20
250.5137614437
11
-403.5153847963
21
290.5137614437
0
LINE
5
242
100
AcDbEntity
8
0
100
AcDbLine
62
9
6
CONTINUOUS
10
-403.5153847963
20
250.5137614437
11
-403.5153847963
21
-428.4862385563
0
LINE
5
243
100
AcDbEntity
8
0
100
AcDbLine
62
7
6
CONTINUOUS
10
197.9839336609
20
-368.9862385563
11
194.4846152037
21
-368.9862385563
0
LINE
5
244
100
AcDbEntity
8
0
100
AcDbLine
62
7
6
CONTINUOUS
10
197.9839336609
20
-338.9862385563
11
194.4846152037
21
-338.9862385563
0
LINE
5
245
100
AcDbEntity
8
0
100
AcDbLine
62
9
6
CONTINUOUS
10
-211.1845141006
20
294.6909759286
11
-211.1843493478
21
294.6914805689
0
LINE
5
246
100
AcDbEntity
8
0
100
AcDbLine
62
7
6
CONTINUOUS
10
-409.6153847963
20
-79.4862385563
11
-408.0153847963
21
-77.9862385563
0
LINE
5
247
100
AcDbEntity
8
0
100
AcDbLine
62
7
6
CONTINUOUS
10
197.9839336609
20
-308.9862385563
11
194.4846152037
21
-308.9862385563
0
LINE
5
248
100
AcDbEntity
8
0
100
AcDbLine
62
7
6
CONTINUOUS
10
-409.6153847963
20
-98.4862385563
11
-408.0153847963
21
-99.9862385563
0
LINE
5
249
100
AcDbEntity
8
0
100
AcDbLine
62
9
6
CONTINUOUS
10
-211.1845154018
20
-472.6634490560
11
-211.1843503569
21
-472.6639545956
0
LINE
5
24A
100
AcDbEntity
8
0
100
AcDbLine
62
7
6
CONTINUOUS
10
-309.0153847963
20
235.0137614437
11
-309.0153847963
21
229.3053234196
0
LINE
5
24B
100
AcDbEntity
8
0
100
AcDbLine
62
7
6
CONTINUOUS
10
-309.0153847963
20
212.7221994678
11
-309.0153847963
21
207.0137614437
0
LINE
5
24C
100
AcDbEntity
8
0
100
AcDbLine
62
7
6
CONTINUOUS
10
-309.0153847963
20
-384.9862385563
11
-309.0153847963
21
-390.6946765804
0
LINE
5
24D
100
AcDbEntity
8
0
100
AcDbLine
62
7
6
CONTINUOUS
10
-309.0153847963
20
-407.2778005322
11
-309.0153847963
21
-412.9862385563
0
LINE
5
24E
100
AcDbEntity
8
0
100
AcDbLine
62
7
6
CONTINUOUS
10
-305.5153847963
20
-399.7287385563
11
-305.5153847963
21
-398.2437385563
0
LINE
5
24F
100
AcDbEntity
8
DEFAULT_1
100
AcDbLine
62
7
6
CENTER
10
-305.5153847963
20
-395.2737385563
11
-305.5153847963
21
-388.4862385563
0
LINE
5
250
100
AcDbEntity
8
0
100
AcDbLine
62
7
6
CONTINUOUS
10
-305.5153847963
20
221.7562614437
11
-305.5153847963
21
220.2712614437
0
LINE
5
251
100
AcDbEntity
8
DEFAULT_1
100
AcDbLine
62
7
6
CENTER
10
-305.5153847963
20
217.3012614437
11
-305.5153847963
21
210.5137614437
0
LINE
5
252
100
AcDbEntity
8
DEFAULT_1
100
AcDbLine
62
7
6
CENTER
10
-305.5153847963
20
224.7262614437
11
-305.5153847963
21
231.5137614437
0
LINE
5
253
100
AcDbEntity
8
DEFAULT_1
100
AcDbLine
62
7
6
CENTER
10
-305.5153847963
20
-402.6987385563
11
-305.5153847963
21
-409.4862385563
0
LINE
5
254
100
AcDbEntity
8
0
100
AcDbLine
62
7
6
CONTINUOUS
10
-302.0153847963
20
-412.9862385563
11
-302.0153847963
21
-407.2778005322
0
LINE
5
255
100
AcDbEntity
8
0
100
AcDbLine
62
7
6
CONTINUOUS
10
-302.0153847963
20
-390.6946765804
11
-302.0153847963
21
-384.9862385563
0
LINE
5
256
100
AcDbEntity
8
0
100
AcDbLine
62
7
6
CONTINUOUS
10
-302.0153847963
20
207.0137614437
11
-302.0153847963
21
212.7221994678
0
LINE
5
257
100
AcDbEntity
8
0
100
AcDbLine
62
7
6
CONTINUOUS
10
-302.0153847963
20
229.3053234196
11
-302.0153847963
21
235.0137614437
0
LINE
5
258
100
AcDbEntity
8
0
100
AcDbLine
62
7
6
CONTINUOUS
10
197.9839336609
20
-278.9862385563
11
194.4846152037
21
-278.9862385563
0
LINE
5
259
100
AcDbEntity
8
0
100
AcDbLine
62
9
6
CONTINUOUS
10
-212.3033795195
20
294.9391528966
11
-212.3033154513
21
294.9396798553
0
LINE
5
25A
100
AcDbEntity
8
0
100
AcDbLine
62
7
6
CONTINUOUS
10
197.9839336609
20
-248.9862385563
11
194.4846152037
21
-248.9862385563
0
LINE
5
25B
100
AcDbEntity
8
0
100
AcDbLine
62
7
6
CONTINUOUS
10
194.4846152037
20
-218.9862385563
11
197.9839336609
21
-218.9862385563
0
LINE
5
25C
100
AcDbEntity
8
0
100
AcDbLine
62
9
6
CONTINUOUS
10
-212.3033795215
20
-472.9116299926
11
-212.3033154511
21
-472.9121569645
0
LINE
5
25D
100
AcDbEntity
8
0
100
AcDbLine
62
9
6
CONTINUOUS
10
-212.7102400867
20
-472.5798031874
11
-212.7098699413
21
-472.5865068894
0
LINE
5
25E
100
AcDbEntity
8
0
100
AcDbLine
62
7
6
CONTINUOUS
10
-225.5153847963
20
-469.9862385563
11
-225.5153847963
21
-468.4862385563
0
LINE
5
25F
100
AcDbEntity
8
0
100
AcDbLine
62
7
6
CONTINUOUS
10
-225.5153847963
20
292.0137614437
11
-225.5153847963
21
290.5137614437
0
LINE
5
260
100
AcDbEntity
8
0
100
AcDbLine
62
9
6
CONTINUOUS
10
-222.5153847963
20
-469.9862385563
11
-222.5153847963
21
-468.4862385563
0
LINE
5
261
100
AcDbEntity
8
0
100
AcDbLine
62
9
6
CONTINUOUS
10
-222.5153847963
20
292.0137614437
11
-222.5153847963
21
290.5137614437
0
LINE
5
262
100
AcDbEntity
8
0
100
AcDbLine
62
7
6
CONTINUOUS
10
-213.5153847963
20
-472.8128880026
11
-213.5153847963
21
-472.6049821553
0
LINE
5
263
100
AcDbEntity
8
0
100
AcDbLine
62
7
6
CONTINUOUS
10
-213.5153847963
20
294.6324956039
11
-213.5153847963
21
294.8404108899
0
LINE
5
264
100
AcDbEntity
8
0
100
AcDbLine
62
9
6
CONTINUOUS
10
-212.7102396790
20
294.6073334588
11
-212.7098695579
21
294.6140341205
0
LINE
5
265
100
AcDbEntity
8
0
100
AcDbLine
62
9
6
CONTINUOUS
10
-213.3205295059
20
294.6073260748
11
-213.3208996512
21
294.6140297767
0
LINE
5
266
100
AcDbEntity
8
0
100
AcDbLine
62
7
6
CONTINUOUS
10
-212.5153847963
20
294.8404108899
11
-212.5153847963
21
294.6325050426
0
LINE
5
267
100
AcDbEntity
8
0
100
AcDbLine
62
7
6
CONTINUOUS
10
-212.5153847963
20
-472.6049727165
11
-212.5153847963
21
-472.8128880026
0
LINE
5
268
100
AcDbEntity
8
0
100
AcDbLine
62
9
6
CONTINUOUS
10
-213.3205299136
20
-472.5798105714
11
-213.3209000347
21
-472.5865112332
0
LINE
5
269
100
AcDbEntity
8
0
100
AcDbLine
62
9
6
CONTINUOUS
10
-213.7273900731
20
-472.9116300093
11
-213.7274541412
21
-472.9121569679
0
LINE
5
26A
100
AcDbEntity
8
0
100
AcDbLine
62
9
6
CONTINUOUS
10
-213.7273900710
20
294.9391528800
11
-213.7274541415
21
294.9396798518
0
LINE
5
26B
100
AcDbEntity
8
0
100
AcDbLine
62
9
6
CONTINUOUS
10
3.8154858994
20
294.6909759286
11
3.8156506522
21
294.6914805689
0
LINE
5
26C
100
AcDbEntity
8
0
100
AcDbLine
62
7
6
CONTINUOUS
10
-408.0153847963
20
-99.9862385563
11
-405.5153847963
21
-99.9862385563
0
LINE
5
26D
100
AcDbEntity
8
0
100
AcDbLine
62
7
6
CONTINUOUS
10
-434.3153847963
20
-89.9862385563
11
-409.6153847963
21
-89.9862385563
0
LINE
5
26E
100
AcDbEntity
8
0
100
AcDbLine
62
7
6
CONTINUOUS
10
-434.3153847963
20
-87.9862385563
11
-409.6153847963
21
-87.9862385563
0
LINE
5
26F
100
AcDbEntity
8
0
100
AcDbLine
62
9
6
CONTINUOUS
10
3.8154845982
20
-472.6634490560
11
3.8156496431
21
-472.6639545956
0
LINE
5
270
100
AcDbEntity
8
0
100
AcDbLine
62
9
6
CONTINUOUS
10
-214.8462554920
20
-472.6634530413
11
-214.8464202448
21
-472.6639576816
0
LINE
5
271
100
AcDbEntity
8
0
100
AcDbLine
62
7
6
CONTINUOUS
10
-408.0153847963
20
-77.9862385563
11
-405.5153847963
21
-77.9862385563
0
LINE
5
272
100
AcDbEntity
8
0
100
AcDbLine
62
9
6
CONTINUOUS
10
-214.8462541908
20
294.6909719433
11
-214.8464192357
21
294.6914774829
0
LINE
5
273
100
AcDbEntity
8
0
100
AcDbLine
62
9
6
CONTINUOUS
10
2.2897599133
20
-472.5798031874
11
2.2901300587
21
-472.5865068894
0
LINE
5
274
100
AcDbEntity
8
0
100
AcDbLine
62
9
6
CONTINUOUS
10
2.2897603210
20
294.6073334588
11
2.2901304421
21
294.6140341205
0
LINE
5
275
100
AcDbEntity
8
0
100
AcDbLine
62
9
6
CONTINUOUS
10
2.6966204805
20
294.9391528966
11
2.6966845487
21
294.9396798553
0
LINE
5
276
100
AcDbEntity
8
0
100
AcDbLine
62
9
6
CONTINUOUS
10
2.6966204785
20
-472.9116299926
11
2.6966845489
21
-472.9121569645
0
LINE
5
277
100
AcDbEntity
8
0
100
AcDbLine
62
7
6
CONTINUOUS
10
1.4846152037
20
-472.8128880026
11
1.4846152037
21
-472.6049821553
0
LINE
5
278
100
AcDbEntity
8
0
100
AcDbLine
62
7
6
CONTINUOUS
10
1.4846152037
20
294.6324956039
11
1.4846152037
21
294.8404108899
0
LINE
5
279
100
AcDbEntity
8
0
100
AcDbLine
62
7
6
CONTINUOUS
10
2.4846152037
20
294.8404108899
11
2.4846152037
21
294.6325050426
0
LINE
5
27A
100
AcDbEntity
8
0
100
AcDbLine
62
7
6
CONTINUOUS
10
2.4846152037
20
-472.6049727165
11
2.4846152037
21
-472.8128880026
0
LINE
5
27B
100
AcDbEntity
8
0
100
AcDbLine
62
9
6
CONTINUOUS
10
11.4846152037
20
-469.9862385563
11
11.4846152037
21
-468.4862385563
0
LINE
5
27C
100
AcDbEntity
8
0
100
AcDbLine
62
9
6
CONTINUOUS
10
11.4846152037
20
292.0137614437
11
11.4846152037
21
290.5137614437
0
LINE
5
27D
100
AcDbEntity
8
0
100
AcDbLine
62
7
6
CONTINUOUS
10
14.4846152037
20
-469.9862385563
11
14.4846152037
21
-468.4862385563
0
LINE
5
27E
100
AcDbEntity
8
0
100
AcDbLine
62
7
6
CONTINUOUS
10
14.4846152037
20
292.0137614437
11
14.4846152037
21
290.5137614437
0
LINE
5
27F
100
AcDbEntity
8
0
100
AcDbLine
62
7
6
CONTINUOUS
10
197.9839336609
20
41.0137614437
11
194.4846152037
21
41.0137614437
0
LINE
5
280
100
AcDbEntity
8
0
100
AcDbLine
62
9
6
CONTINUOUS
10
1.6794704941
20
294.6073260748
11
1.6791003488
21
294.6140297767
0
LINE
5
281
100
AcDbEntity
8
0
100
AcDbLine
62
9
6
CONTINUOUS
10
1.6794700864
20
-472.5798105714
11
1.6790999653
21
-472.5865112332
0
LINE
5
282
100
AcDbEntity
8
0
100
AcDbLine
62
9
6
CONTINUOUS
10
1.2726099269
20
-472.9116300093
11
1.2725458588
21
-472.9121569679
0
LINE
5
283
100
AcDbEntity
8
0
100
AcDbLine
62
7
6
CONTINUOUS
10
197.9839336609
20
71.0137614437
11
194.4846152037
21
71.0137614437
0
LINE
5
284
100
AcDbEntity
8
0
100
AcDbLine
62
9
6
CONTINUOUS
10
1.2726099290
20
294.9391528800
11
1.2725458585
21
294.9396798518
0
LINE
5
285
100
AcDbEntity
8
0
100
AcDbLine
62
7
6
CONTINUOUS
10
197.9839336609
20
101.0137614437
11
194.4846152037
21
101.0137614437
0
LINE
5
286
100
AcDbEntity
8
0
100
AcDbLine
62
7
6
CONTINUOUS
10
90.9846152037
20
235.0137614437
11
90.9846152037
21
229.3053234196
0
LINE
5
287
100
AcDbEntity
8
0
100
AcDbLine
62
7
6
CONTINUOUS
10
90.9846152037
20
212.7221994678
11
90.9846152037
21
207.0137614437
0
LINE
5
288
100
AcDbEntity
8
0
100
AcDbLine
62
7
6
CONTINUOUS
10
90.9846152037
20
-384.9862385563
11
90.9846152037
21
-390.6946765804
0
LINE
5
289
100
AcDbEntity
8
0
100
AcDbLine
62
7
6
CONTINUOUS
10
90.9846152037
20
-407.2778005322
11
90.9846152037
21
-412.9862385563
0
LINE
5
28A
100
AcDbEntity
8
0
100
AcDbLine
62
7
6
CONTINUOUS
10
94.4846152037
20
-399.7287385563
11
94.4846152037
21
-398.2437385563
0
LINE
5
28B
100
AcDbEntity
8
DEFAULT_1
100
AcDbLine
62
7
6
CENTER
10
94.4846152037
20
-395.2737385563
11
94.4846152037
21
-388.4862385563
0
LINE
5
28C
100
AcDbEntity
8
0
100
AcDbLine
62
7
6
CONTINUOUS
10
94.4846152037
20
221.7562614437
11
94.4846152037
21
220.2712614437
0
LINE
5
28D
100
AcDbEntity
8
DEFAULT_1
100
AcDbLine
62
7
6
CENTER
10
94.4846152037
20
217.3012614437
11
94.4846152037
21
210.5137614437
0
LINE
5
28E
100
AcDbEntity
8
DEFAULT_1
100
AcDbLine
62
7
6
CENTER
10
94.4846152037
20
224.7262614437
11
94.4846152037
21
231.5137614437
0
LINE
5
28F
100
AcDbEntity
8
DEFAULT_1
100
AcDbLine
62
7
6
CENTER
10
94.4846152037
20
-402.6987385563
11
94.4846152037
21
-409.4862385563
0
LINE
5
290
100
AcDbEntity
8
0
100
AcDbLine
62
7
6
CONTINUOUS
10
97.9846152037
20
-412.9862385563
11
97.9846152037
21
-407.2778005322
0
LINE
5
291
100
AcDbEntity
8
0
100
AcDbLine
62
7
6
CONTINUOUS
10
97.9846152037
20
-390.6946765804
11
97.9846152037
21
-384.9862385563
0
LINE
5
292
100
AcDbEntity
8
0
100
AcDbLine
62
7
6
CONTINUOUS
10
97.9846152037
20
207.0137614437
11
97.9846152037
21
212.7221994678
0
LINE
5
293
100
AcDbEntity
8
0
100
AcDbLine
62
7
6
CONTINUOUS
10
97.9846152037
20
229.3053234196
11
97.9846152037
21
235.0137614437
0
LINE
5
294
100
AcDbEntity
8
0
100
AcDbLine
62
9
6
CONTINUOUS
10
0.1537445080
20
-472.6634530413
11
0.1535797552
21
-472.6639576816
0
LINE
5
295
100
AcDbEntity
8
0
100
AcDbLine
62
7
6
CONTINUOUS
10
197.9839336609
20
131.0137614437
11
194.4846152037
21
131.0137614437
0
LINE
5
296
100
AcDbEntity
8
0
100
AcDbLine
62
9
6
CONTINUOUS
10
0.1537458092
20
294.6909719433
11
0.1535807643
21
294.6914774829
0
LINE
5
297
100
AcDbEntity
8
0
100
AcDbLine
62
7
6
CONTINUOUS
10
197.9839336609
20
161.0137614437
11
194.4846152037
21
161.0137614437
0
LINE
5
298
100
AcDbEntity
8
0
100
AcDbLine
62
7
6
CONTINUOUS
10
197.9839336609
20
191.0137614437
11
194.4846152037
21
191.0137614437
0
LINE
5
299
100
AcDbEntity
8
0
100
AcDbLine
62
7
6
CONTINUOUS
10
192.4846152037
20
-468.4862385563
11
192.4846152037
21
-428.4862385563
0
LINE
5
29A
100
AcDbEntity
8
0
100
AcDbLine
62
7
6
CONTINUOUS
10
192.4846152037
20
250.5137614437
11
192.4846152037
21
290.5137614437
0
LINE
5
29B
100
AcDbEntity
8
0
100
AcDbLine
62
9
6
CONTINUOUS
10
192.4846152037
20
250.5137614437
11
192.4846152037
21
-428.4862385563
0
LINE
5
29C
100
AcDbEntity
8
0
100
AcDbLine
62
7
6
CONTINUOUS
10
192.9846152037
20
-466.4862385563
11
192.9846152037
21
-430.4862385563
0
LINE
5
29D
100
AcDbEntity
8
0
100
AcDbLine
62
7
6
CONTINUOUS
10
192.9846152037
20
252.5137614437
11
192.9846152037
21
288.5137614437
0
LINE
5
29E
100
AcDbEntity
8
0
100
AcDbLine
62
7
6
CONTINUOUS
10
194.4846152037
20
-466.4862385563
11
194.4846152037
21
-430.4862385563
0
LINE
5
29F
100
AcDbEntity
8
0
100
AcDbLine
62
7
6
CONTINUOUS
10
194.4846152037
20
248.9783632803
11
194.4846152037
21
-426.9508403929
0
LINE
5
2A0
100
AcDbEntity
8
0
100
AcDbLine
62
7
6
CONTINUOUS
10
194.4846152037
20
252.5137614437
11
194.4846152037
21
288.5137614437
0
LINE
5
2A1
100
AcDbEntity
8
0
100
AcDbLine
62
7
6
CONTINUOUS
10
197.9846152037
20
41.0137614437
11
197.9846152037
21
221.0137614437
0
LINE
5
2A2
100
AcDbEntity
8
0
100
AcDbLine
62
7
6
CONTINUOUS
10
197.9846152037
20
-218.9862385563
11
197.9846152037
21
-398.9862385563
0
LINE
5
2A3
100
AcDbEntity
8
0
100
AcDbLine
62
7
6
CONTINUOUS
10
-306.2578847963
20
221.0137614437
11
-304.7728847963
21
221.0137614437
0
LINE
5
2A4
100
AcDbEntity
8
DEFAULT_1
100
AcDbLine
62
7
6
CENTER
10
-301.8028847963
20
221.0137614437
11
-295.0153847963
21
221.0137614437
0
LINE
5
2A5
100
AcDbEntity
8
0
100
AcDbLine
62
7
6
CONTINUOUS
10
95.2271152037
20
221.0137614437
11
93.7421152037
21
221.0137614437
0
LINE
5
2A6
100
AcDbEntity
8
DEFAULT_1
100
AcDbLine
62
7
6
CENTER
10
90.7721152037
20
221.0137614437
11
83.9846152037
21
221.0137614437
0
LINE
5
2A7
100
AcDbEntity
8
DEFAULT_1
100
AcDbLine
62
7
6
CENTER
10
98.1971152037
20
221.0137614437
11
104.9846152037
21
221.0137614437
0
LINE
5
2A8
100
AcDbEntity
8
0
100
AcDbLine
62
7
6
CONTINUOUS
10
194.4846152037
20
221.0137614437
11
197.9839336609
21
221.0137614437
0
LINE
5
2A9
100
AcDbEntity
8
DEFAULT_1
100
AcDbLine
62
7
6
CENTER
10
-309.2278847963
20
221.0137614437
11
-316.0153847963
21
221.0137614437
0
LINE
5
2AA
100
AcDbEntity
8
0
100
AcDbLine
62
9
6
CONTINUOUS
10
-403.5153847963
20
250.5137614437
11
192.4846152037
21
250.5137614437
0
LINE
5
2AB
100
AcDbEntity
8
0
100
AcDbLine
62
7
6
CONTINUOUS
10
192.9846152037
20
252.5137614437
11
194.4846152037
21
252.5137614437
0
LINE
5
2AC
100
AcDbEntity
8
0
100
AcDbLine
62
7
6
CONTINUOUS
10
-404.0153847963
20
252.5137614437
11
-405.5153847963
21
252.5137614437
0
LINE
5
2AD
100
AcDbEntity
8
0
100
AcDbLine
62
9
6
CONTINUOUS
10
-403.5153847963
20
288.5137614437
11
192.4846152037
21
288.5137614437
0
LINE
5
2AE
100
AcDbEntity
8
0
100
AcDbLine
62
9
6
CONTINUOUS
10
192.9846152037
20
288.5137614437
11
194.4846152037
21
288.5137614437
0
LINE
5
2AF
100
AcDbEntity
8
0
100
AcDbLine
62
9
6
CONTINUOUS
10
-404.0153847963
20
288.5137614437
11
-405.5153847963
21
288.5137614437
0
LINE
5
2B0
100
AcDbEntity
8
0
100
AcDbLine
62
7
6
CONTINUOUS
10
-403.5153847963
20
290.5137614437
11
192.4846152037
21
290.5137614437
0
LINE
5
2B1
100
AcDbEntity
8
0
100
AcDbLine
62
7
6
CONTINUOUS
10
-225.5153847963
20
292.0137614437
11
14.4846152037
21
292.0137614437
0
LINE
5
2B2
100
AcDbEntity
8
0
100
AcDbLine
62
9
6
CONTINUOUS
10
-217.9829015748
20
292.3230231886
11
-208.0478680178
21
292.3230231886
0
LINE
5
2B3
100
AcDbEntity
8
0
100
AcDbLine
62
9
6
CONTINUOUS
10
-2.9829015748
20
292.3230231886
11
6.9521319822
21
292.3230231886
0
ARC
5
2B4
100
AcDbEntity
8
0
100
AcDbCircle
62
7
6
CONTINUOUS
10
-215.1153847963
20
294.5224655148
40
0.1000000000
100
AcDbArc
50
74.7156395953
51
111.1099183904
0
ARC
5
2B5
100
AcDbEntity
8
0
100
AcDbCircle
62
7
6
CONTINUOUS
10
-210.9153847963
20
294.5224655148
40
0.1000000000
100
AcDbArc
50
68.8900816096
51
105.2844940467
0
ARC
5
2B6
100
AcDbEntity
8
0
100
AcDbCircle
62
7
6
CONTINUOUS
10
-213.0153847963
20
289.0829922129
40
5.9307692308
100
AcDbArc
50
33.1141427513
51
68.8900812184
0
ARC
5
2B7
100
AcDbEntity
8
0
100
AcDbCircle
62
7
6
CONTINUOUS
10
-213.0153847963
20
289.0829922129
40
5.9307692308
100
AcDbArc
50
111.1099187816
51
146.8858572487
0
ARC
5
2B8
100
AcDbEntity
8
0
100
AcDbCircle
62
7
6
CONTINUOUS
10
-208.2153847963
20
292.2137614437
40
0.2000000000
100
AcDbArc
50
270.0000000000
51
33.1141427513
0
ARC
5
2B9
100
AcDbEntity
8
0
100
AcDbCircle
62
7
6
CONTINUOUS
10
-217.8153847963
20
292.2137614437
40
0.2000000000
100
AcDbArc
50
146.8858572487
51
270.0000000000
0
ARC
5
2BA
100
AcDbEntity
8
0
100
AcDbCircle
62
7
6
CONTINUOUS
10
-210.9153847963
20
-472.4949426274
40
0.1000000000
100
AcDbArc
50
254.7156395953
51
291.1099183904
0
ARC
5
2BB
100
AcDbEntity
8
0
100
AcDbCircle
62
7
6
CONTINUOUS
10
-215.1153847963
20
-472.4949426274
40
0.1000000000
100
AcDbArc
50
248.8900816096
51
285.2844940467
0
ARC
5
2BC
100
AcDbEntity
8
0
100
AcDbCircle
62
7
6
CONTINUOUS
10
-213.0153847963
20
-467.0554693256
40
5.9307692308
100
AcDbArc
50
213.1141427513
51
248.8900812184
0
ARC
5
2BD
100
AcDbEntity
8
0
100
AcDbCircle
62
7
6
CONTINUOUS
10
-213.0153847963
20
-467.0554693256
40
5.9307692308
100
AcDbArc
50
291.1099187816
51
326.8858572487
0
ARC
5
2BE
100
AcDbEntity
8
0
100
AcDbCircle
62
7
6
CONTINUOUS
10
-217.8153847963
20
-470.1862385563
40
0.2000000000
100
AcDbArc
50
90.0000000000
51
213.1141427513
0
ARC
5
2BF
100
AcDbEntity
8
0
100
AcDbCircle
62
7
6
CONTINUOUS
10
-208.2153847963
20
-470.1862385563
40
0.2000000000
100
AcDbArc
50
326.8858572487
51
90.0000000000
0
ARC
5
2C0
100
AcDbEntity
8
0
100
AcDbCircle
62
7
6
CONTINUOUS
10
-0.1153847963
20
294.5224655148
40
0.1000000000
100
AcDbArc
50
74.7156395953
51
111.1099183904
0
ARC
5
2C1
100
AcDbEntity
8
0
100
AcDbCircle
62
7
6
CONTINUOUS
10
4.0846152037
20
294.5224655148
40
0.1000000000
100
AcDbArc
50
68.8900816096
51
105.2844940467
0
ARC
5
2C2
100
AcDbEntity
8
0
100
AcDbCircle
62
7
6
CONTINUOUS
10
1.9846152037
20
289.0829922129
40
5.9307692308
100
AcDbArc
50
33.1141427513
51
68.8900812184
0
ARC
5
2C3
100
AcDbEntity
8
0
100
AcDbCircle
62
7
6
CONTINUOUS
10
1.9846152037
20
289.0829922129
40
5.9307692308
100
AcDbArc
50
111.1099187816
51
146.8858572487
0
ARC
5
2C4
100
AcDbEntity
8
0
100
AcDbCircle
62
7
6
CONTINUOUS
10
6.7846152037
20
292.2137614437
40
0.2000000000
100
AcDbArc
50
270.0000000000
51
33.1141427513
0
ARC
5
2C5
100
AcDbEntity
8
0
100
AcDbCircle
62
7
6
CONTINUOUS
10
-2.8153847963
20
292.2137614437
40
0.2000000000
100
AcDbArc
50
146.8858572487
51
270.0000000000
0
ARC
5
2C6
100
AcDbEntity
8
0
100
AcDbCircle
62
7
6
CONTINUOUS
10
4.0846152037
20
-472.4949426274
40
0.1000000000
100
AcDbArc
50
254.7156395953
51
291.1099183904
0
ARC
5
2C7
100
AcDbEntity
8
0
100
AcDbCircle
62
7
6
CONTINUOUS
10
-0.1153847963
20
-472.4949426274
40
0.1000000000
100
AcDbArc
50
248.8900816096
51
285.2844940467
0
ARC
5
2C8
100
AcDbEntity
8
0
100
AcDbCircle
62
7
6
CONTINUOUS
10
1.9846152037
20
-467.0554693256
40
5.9307692308
100
AcDbArc
50
213.1141427513
51
248.8900812184
0
ARC
5
2C9
100
AcDbEntity
8
0
100
AcDbCircle
62
7
6
CONTINUOUS
10
1.9846152037
20
-467.0554693256
40
5.9307692308
100
AcDbArc
50
291.1099187816
51
326.8858572487
0
ARC
5
2CA
100
AcDbEntity
8
0
100
AcDbCircle
62
7
6
CONTINUOUS
10
-2.8153847963
20
-470.1862385563
40
0.2000000000
100
AcDbArc
50
90.0000000000
51
213.1141427513
0
ARC
5
2CB
100
AcDbEntity
8
0
100
AcDbCircle
62
7
6
CONTINUOUS
10
6.7846152037
20
-470.1862385563
40
0.2000000000
100
AcDbArc
50
326.8858572487
51
90.0000000000
0
ARC
5
2CC
100
AcDbEntity
8
0
100
AcDbCircle
62
7
6
CONTINUOUS
10
-403.5153847963
20
252.5137614437
40
0.5000000000
100
AcDbArc
50
179.9999999998
51
270.0000000000
0
ARC
5
2CD
100
AcDbEntity
8
0
100
AcDbCircle
62
7
6
CONTINUOUS
10
192.4846152037
20
252.5137614437
40
0.5000000000
100
AcDbArc
50
270.0000000000
51
360.0000000000
0
ARC
5
2CE
100
AcDbEntity
8
0
100
AcDbCircle
62
7
6
CONTINUOUS
10
-403.5153847963
20
-430.3946711840
40
0.4084326277
100
AcDbArc
50
90.0000000000
51
180.0000000002
0
ARC
5
2CF
100
AcDbEntity
8
0
100
AcDbCircle
62
7
6
CONTINUOUS
10
192.4846152037
20
-430.4862385563
40
0.5000000000
100
AcDbArc
50
0.0000000000
51
90.0000000000
0
ARC
5
2D0
100
AcDbEntity
8
0
100
AcDbCircle
62
7
6
CONTINUOUS
10
-403.5153847963
20
288.5137614437
40
0.5000000000
100
AcDbArc
50
90.0000000000
51
180.0000000000
0
ARC
5
2D1
100
AcDbEntity
8
0
100
AcDbCircle
62
7
6
CONTINUOUS
10
192.4846152037
20
288.5137614437
40
0.5000000000
100
AcDbArc
50
0.0000000000
51
90.0000000000
0
ARC
5
2D2
100
AcDbEntity
8
0
100
AcDbCircle
62
7
6
CONTINUOUS
10
-403.5153847963
20
-466.5778059287
40
0.4084326277
100
AcDbArc
50
180.0000000000
51
270.0000000000
0
ARC
5
2D3
100
AcDbEntity
8
0
100
AcDbCircle
62
7
6
CONTINUOUS
10
192.4846152037
20
-466.4862385563
40
0.5000000000
100
AcDbArc
50
270.0000000000
51
360.0000000000
0
ARC
5
2D4
100
AcDbEntity
8
0
100
AcDbCircle
62
7
6
CONTINUOUS
10
94.4846152037
20
235.0137614437
40
3.5000000000
100
AcDbArc
50
0.0000000000
51
180.0000000000
0
ARC
5
2D5
100
AcDbEntity
8
0
100
AcDbCircle
62
7
6
CONTINUOUS
10
94.4846152037
20
221.0137614437
40
9.0000000000
100
AcDbArc
50
292.8853804762
51
67.1146195238
0
ARC
5
2D6
100
AcDbEntity
8
0
100
AcDbCircle
62
7
6
CONTINUOUS
10
94.4846152037
20
207.0137614437
40
3.5000000000
100
AcDbArc
50
180.0000000000
51
360.0000000000
0
ARC
5
2D7
100
AcDbEntity
8
0
100
AcDbCircle
62
7
6
CONTINUOUS
10
94.4846152037
20
221.0137614437
40
9.0000000000
100
AcDbArc
50
112.8853804762
51
247.1146195238
0
ARC
5
2D8
100
AcDbEntity
8
0
100
AcDbCircle
62
7
6
CONTINUOUS
10
-305.5153847963
20
221.0137614437
40
9.0000000000
100
AcDbArc
50
292.8853804762
51
67.1146195238
0
ARC
5
2D9
100
AcDbEntity
8
0
100
AcDbCircle
62
7
6
CONTINUOUS
10
-305.5153847963
20
207.0137614437
40
3.5000000000
100
AcDbArc
50
180.0000000000
51
360.0000000000
0
ARC
5
2DA
100
AcDbEntity
8
0
100
AcDbCircle
62
7
6
CONTINUOUS
10
-305.5153847963
20
221.0137614437
40
9.0000000000
100
AcDbArc
50
112.8853804762
51
247.1146195238
0
ARC
5
2DB
100
AcDbEntity
8
0
100
AcDbCircle
62
7
6
CONTINUOUS
10
-305.5153847963
20
235.0137614437
40
3.5000000000
100
AcDbArc
50
0.0000000000
51
180.0000000000
0
ARC
5
2DC
100
AcDbEntity
8
0
100
AcDbCircle
62
7
6
CONTINUOUS
10
94.4846152037
20
-398.9862385563
40
9.0000000000
100
AcDbArc
50
112.8853804762
51
247.1146195238
0
ARC
5
2DD
100
AcDbEntity
8
0
100
AcDbCircle
62
7
6
CONTINUOUS
10
94.4846152037
20
-384.9862385563
40
3.5000000000
100
AcDbArc
50
0.0000000000
51
180.0000000000
0
ARC
5
2DE
100
AcDbEntity
8
0
100
AcDbCircle
62
7
6
CONTINUOUS
10
94.4846152037
20
-398.9862385563
40
9.0000000000
100
AcDbArc
50
292.8853804762
51
67.1146195238
0
ARC
5
2DF
100
AcDbEntity
8
0
100
AcDbCircle
62
7
6
CONTINUOUS
10
94.4846152037
20
-412.9862385563
40
3.5000000000
100
AcDbArc
50
180.0000000000
51
360.0000000000
0
ARC
5
2E0
100
AcDbEntity
8
0
100
AcDbCircle
62
7
6
CONTINUOUS
10
-305.5153847963
20
-412.9862385563
40
3.5000000000
100
AcDbArc
50
180.0000000000
51
360.0000000000
0
ARC
5
2E1
100
AcDbEntity
8
0
100
AcDbCircle
62
7
6
CONTINUOUS
10
-305.5153847963
20
-398.9862385563
40
9.0000000000
100
AcDbArc
50
112.8853804762
51
247.1146195238
0
ARC
5
2E2
100
AcDbEntity
8
0
100
AcDbCircle
62
7
6
CONTINUOUS
10
-403.5153847963
20
288.5137614437
40
2.0000000000
100
AcDbArc
50
90.0000000000
51
180.0000000000
0
ARC
5
2E3
100
AcDbEntity
8
0
100
AcDbCircle
62
7
6
CONTINUOUS
10
-305.5153847963
20
-384.9862385563
40
3.5000000000
100
AcDbArc
50
0.0000000000
51
180.0000000000
0
ARC
5
2E4
100
AcDbEntity
8
0
100
AcDbCircle
62
7
6
CONTINUOUS
10
-305.5153847963
20
-398.9862385563
40
9.0000000000
100
AcDbArc
50
292.8853804762
51
67.1146195238
0
ARC
5
2E5
100
AcDbEntity
8
0
100
AcDbCircle
62
7
6
CONTINUOUS
10
192.4846152037
20
288.5137614437
40
2.0000000000
100
AcDbArc
50
0.0000000000
51
90.0000000000
0
ARC
5
2E6
100
AcDbEntity
8
0
100
AcDbCircle
62
7
6
CONTINUOUS
10
-403.5153847963
20
-466.5778059287
40
1.9084326277
100
AcDbArc
50
180.0000000000
51
270.0000000000
0
ARC
5
2E7
100
AcDbEntity
8
0
100
AcDbCircle
62
7
6
CONTINUOUS
10
192.4846152037
20
-466.4862385563
40
2.0000000000
100
AcDbArc
50
270.0000000000
51
360.0000000000
0
ARC
5
2E8
100
AcDbEntity
8
0
100
AcDbCircle
62
7
6
CONTINUOUS
10
-403.5153847963
20
252.5137614437
40
2.0000000000
100
AcDbArc
50
180.0000000000
51
270.0000000000
0
ARC
5
2E9
100
AcDbEntity
8
0
100
AcDbCircle
62
7
6
CONTINUOUS
10
192.4846152037
20
252.5137614437
40
2.0000000000
100
AcDbArc
50
270.0000000000
51
360.0000000000
0
ARC
5
2EA
100
AcDbEntity
8
0
100
AcDbCircle
62
7
6
CONTINUOUS
10
-403.5153847963
20
-430.3946711840
40
1.9084326277
100
AcDbArc
50
90.0000000000
51
180.0000000000
0
ARC
5
2EB
100
AcDbEntity
8
0
100
AcDbCircle
62
7
6
CONTINUOUS
10
192.4846152037
20
-430.4862385563
40
2.0000000000
100
AcDbArc
50
0.0000000000
51
90.0000000000
0
ARC
5
2EC
100
AcDbEntity
8
0
100
AcDbCircle
62
7
6
CONTINUOUS
10
-403.5153847963
20
248.5137614437
40
2.0000000000
100
AcDbArc
50
90.0000000000
51
130.0062071991
0
ARC
5
2ED
100
AcDbEntity
8
0
100
AcDbCircle
62
7
6
CONTINUOUS
10
-403.5153847963
20
-426.4862385563
40
2.0000000000
100
AcDbArc
50
229.9937928009
51
270.0000000000
0
ARC
5
2EE
100
AcDbEntity
8
0
100
AcDbCircle
62
7
6
CONTINUOUS
10
192.4846152037
20
248.5137614437
40
2.0000000000
100
AcDbArc
50
49.9937928009
51
90.0000000000
0
ARC
5
2EF
100
AcDbEntity
8
0
100
AcDbCircle
62
7
6
CONTINUOUS
10
192.4846152037
20
-426.4862385563
40
2.0000000000
100
AcDbArc
50
270.0000000000
51
310.0062071991
0
SPLINE
5
2F0
100
AcDbEntity
8
0
100
AcDbSpline
62
7
6
CONTINUOUS
70
0
71
3
72
16
73
12
74
10
42
0.0000001000
43
0.0000001000
44
0.0000000001
12
-0.0289744044
22
0.2588793067
32
0.0000000000
13
-0.2571086795
23
-0.0312684163
33
0.0000000000
40
0.0000000000
40
0.0000000000
40
0.0000000000
40
0.0000000000
40
0.0950980898
40
0.2223386279
40
0.3380988178
40
0.4476222810
40
0.5468622451
40
0.6466093114
40
0.7654231273
40
0.9093720201
40
1.0000000000
40
1.0000000000
40
1.0000000000
40
1.0000000000
10
-213.5160233651
20
294.8516179830
30
0.0000000000
10
-213.5169418353
20
294.8598242922
30
0.0000000000
10
-213.5214195990
20
294.8788212288
30
0.0000000000
10
-213.5361394068
20
294.9045856002
30
0.0000000000
10
-213.5588613131
20
294.9254852437
30
0.0000000000
10
-213.5842300639
20
294.9381467335
30
0.0000000000
10
-213.6103749874
20
294.9440688658
30
0.0000000000
10
-213.6378135219
20
294.9457778555
30
0.0000000000
10
-213.6691191525
20
294.9451014142
30
0.0000000000
10
-213.6995515600
20
294.9428162571
30
0.0000000000
10
-213.7196872583
20
294.9406260738
30
0.0000000000
10
-213.7274543383
20
294.9396814760
30
0.0000000000
11
-213.5160233651
21
294.8516179830
31
0.0000000000
11
-213.5217239701
21
294.8756991832
31
0.0000000000
11
-213.5380329008
21
294.9043332689
31
0.0000000000
11
-213.5600792447
21
294.9246492785
31
0.0000000000
11
-213.5854116496
21
294.9374091237
31
0.0000000000
11
-213.6104108617
21
294.9433752133
31
0.0000000000
11
-213.6361681990
21
294.9453455776
31
0.0000000000
11
-213.6669355057
21
294.9449011642
31
0.0000000000
11
-213.7041188384
21
294.9422179112
31
0.0000000000
11
-213.7274543383
21
294.9396814760
31
0.0000000000
0
SPLINE
5
2F1
100
AcDbEntity
8
0
100
AcDbSpline
62
7
6
CONTINUOUS
70
0
71
3
72
17
73
13
74
11
42
0.0000001000
43
0.0000001000
44
0.0000000001
12
-0.2409615793
22
-0.0786737289
32
0.0000000000
13
-0.2508541122
23
-0.0616341786
33
0.0000000000
40
0.0000000000
40
0.0000000000
40
0.0000000000
40
0.0000000000
40
0.1257174119
40
0.2559316030
40
0.3801033766
40
0.4973284206
40
0.6067933816
40
0.7076507114
40
0.7992778858
40
0.8810031933
40
0.9522887015
40
1.0000000000
40
1.0000000000
40
1.0000000000
40
1.0000000000
10
-214.8464192391
20
294.6914774935
30
0.0000000000
10
-214.8565169279
20
294.6881806076
30
0.0000000000
10
-214.8770892143
20
294.6815170846
30
0.0000000000
10
-214.9076890179
20
294.6717649748
30
0.0000000000
10
-214.9376516593
20
294.6623772084
30
0.0000000000
10
-214.9659863800
20
294.6536611053
30
0.0000000000
10
-214.9924854030
20
294.6456706561
30
0.0000000000
10
-215.0169533921
20
294.6384655958
30
0.0000000000
10
-215.0392455147
20
294.6320795783
30
0.0000000000
10
-215.0590982784
20
294.6265499525
30
0.0000000000
10
-215.0756635949
20
294.6221577884
30
0.0000000000
10
-215.0850885969
20
294.6197106037
30
0.0000000000
10
-215.0890781221
20
294.6187303881
30
0.0000000000
11
-214.8464192391
21
294.6914774935
31
0.0000000000
11
-214.8767352840
21
294.6816576232
31
0.0000000000
11
-214.9081837977
21
294.6716362172
31
0.0000000000
11
-214.9382199722
21
294.6622285673
31
0.0000000000
11
-214.9666217851
21
294.6534954378
31
0.0000000000
11
-214.9931892945
21
294.6454910401
31
0.0000000000
11
-215.0177152136
21
294.6382756293
31
0.0000000000
11
-215.0400435087
21
294.6318821748
31
0.0000000000
11
-215.0600055922
21
294.6263454719
31
0.0000000000
11
-215.0774671605
21
294.6216981695
31
0.0000000000
11
-215.0890781221
21
294.6187303881
31
0.0000000000
0
SPLINE
5
2F2
100
AcDbEntity
8
0
100
AcDbSpline
62
7
6
CONTINUOUS
70
0
71
3
72
11
73
7
74
5
42
0.0000001000
43
0.0000001000
44
0.0000000001
12
-0.0254898087
22
-0.0062627772
32
0.0000000000
13
-0.0387715112
23
-0.0062176843
33
0.0000000000
40
0.0000000000
40
0.0000000000
40
0.0000000000
40
0.0000000000
40
0.1248469644
40
0.5993276583
40
0.9394943737
40
1.0000000000
40
1.0000000000
40
1.0000000000
40
1.0000000000
10
-215.0890781221
20
294.6187303881
30
0.0000000000
10
-215.0901388972
20
294.6184697585
30
0.0000000000
10
-215.0953026231
20
294.6172189370
30
0.0000000000
10
-215.1041212597
20
294.6152442168
30
0.0000000000
10
-215.1086143979
20
294.6140033602
30
0.0000000000
10
-215.1144599930
20
294.6130765175
30
0.0000000000
10
-215.1152419578
20
294.6129511158
30
0.0000000000
11
-215.0890781221
21
294.6187303881
31
0.0000000000
11
-215.0923102702
21
294.6179482507
31
0.0000000000
11
-215.1042068194
21
294.6151509359
31
0.0000000000
11
-215.1127808968
21
294.6133482622
31
0.0000000000
11
-215.1152419578
21
294.6129511158
31
0.0000000000
0
SPLINE
5
2F3
100
AcDbEntity
8
0
100
AcDbSpline
62
7
6
CONTINUOUS
70
0
71
3
72
10
73
6
74
4
42
0.0000001000
43
0.0000001000
44
0.0000000001
12
-1.1394054503
22
-0.1385357645
32
0.0000000000
13
-1.0911165306
23
-0.3562186596
33
0.0000000000
40
0.0000000000
40
0.0000000000
40
0.0000000000
40
0.0000000000
40
0.3242326341
40
0.6737101514
40
1.0000000000
40
1.0000000000
40
1.0000000000
40
1.0000000000
10
-213.7274541359
20
294.9396798063
30
0.0000000000
10
-213.8505982794
20
294.9247072010
30
0.0000000000
10
-214.1055672453
20
294.8855128180
30
0.0000000000
10
-214.4793458974
20
294.8026830512
30
0.0000000000
10
-214.7277468249
20
294.7302240727
30
0.0000000000
10
-214.8464202407
20
294.6914805618
30
0.0000000000
11
-213.7274541359
21
294.9396798063
31
0.0000000000
11
-214.0952834908
21
294.8831346186
31
0.0000000000
11
-214.4868932730
21
294.7963534071
31
0.0000000000
11
-214.8464202407
21
294.6914805618
31
0.0000000000
0
SPLINE
5
2F4
100
AcDbEntity
8
0
100
AcDbSpline
62
7
6
CONTINUOUS
70
0
71
3
72
8
73
4
74
2
42
0.0000001000
43
0.0000001000
44
0.0000000001
12
-0.0000045224
22
0.0112105483
32
0.0000000000
13
-0.0012537431
23
0.0111931650
33
0.0000000000
40
0.0000000000
40
0.0000000000
40
0.0000000000
40
0.0000000000
40
1.0000000000
40
1.0000000000
40
1.0000000000
40
1.0000000000
10
-213.5153947865
20
294.8404019754
30
0.0000000000
10
-213.5153962939
20
294.8441388248
30
0.0000000000
10
-213.5156081373
20
294.8478866265
30
0.0000000000
10
-213.5160260517
20
294.8516176815
30
0.0000000000
11
-213.5153947865
21
294.8404019754
31
0.0000000000
11
-213.5160260517
21
294.8516176815
31
0.0000000000
0
SPLINE
5
2F5
100
AcDbEntity
8
0
100
AcDbSpline
62
7
6
CONTINUOUS
70
0
71
3
72
13
73
9
74
7
42
0.0000001000
43
0.0000001000
44
0.0000000001
12
-0.0186732971
22
0.1667114088
32
0.0000000000
13
-0.1668252168
23
0.0043654261
33
0.0000000000
40
0.0000000000
40
0.0000000000
40
0.0000000000
40
0.0000000000
40
0.1475633507
40
0.3441968187
40
0.5230475999
40
0.6926499719
40
0.8460445029
40
1.0000000000
40
1.0000000000
40
1.0000000000
40
1.0000000000
10
-213.5160260517
20
294.8516176820
30
0.0000000000
10
-213.5169445498
20
294.8598178467
30
0.0000000000
10
-213.5214087921
20
294.8787563396
30
0.0000000000
10
-213.5360482043
20
294.9044355607
30
0.0000000000
10
-213.5586180816
20
294.9253035418
30
0.0000000000
10
-213.5838394223
20
294.9380007429
30
0.0000000000
10
-213.6098495506
20
294.9439941277
30
0.0000000000
10
-213.6269377883
20
294.9451043064
30
0.0000000000
10
-213.6354990080
20
294.9453283335
30
0.0000000000
11
-213.5160260517
21
294.8516176820
31
0.0000000000
11
-213.5217224772
21
294.8756814364
31
0.0000000000
11
-213.5379275431
21
294.9041953070
31
0.0000000000
11
-213.5598135264
21
294.9244657921
31
0.0000000000
11
-213.5850348781
21
294.9372766904
31
0.0000000000
11
-213.6099004624
21
294.9433015922
31
0.0000000000
11
-213.6354990080
21
294.9453283335
31
0.0000000000
0
SPLINE
5
2F6
100
AcDbEntity
8
0
100
AcDbSpline
62
7
6
CONTINUOUS
70
0
71
3
72
8
73
4
74
2
42
0.0000001000
43
0.0000001000
44
0.0000000001
12
-0.0304850193
22
0.0007977217
32
0.0000000000
13
-0.0304535634
23
-0.0013443544
33
0.0000000000
40
0.0000000000
40
0.0000000000
40
0.0000000000
40
0.0000000000
40
1.0000000000
40
1.0000000000
40
1.0000000000
40
1.0000000000
10
-213.6354990080
20
294.9453283335
30
0.0000000000
10
-213.6456606811
20
294.9455942407
30
0.0000000000
10
-213.6558244765
20
294.9453923097
30
0.0000000000
10
-213.6659756643
20
294.9449441915
30
0.0000000000
11
-213.6354990080
21
294.9453283335
31
0.0000000000
11
-213.6659756643
21
294.9449441915
31
0.0000000000
0
SPLINE
5
2F7
100
AcDbEntity
8
0
100
AcDbSpline
62
7
6
CONTINUOUS
70
0
71
3
72
9
73
5
74
3
42
0.0000001000
43
0.0000001000
44
0.0000000001
12
-0.0616600254
22
-0.0027219451
32
0.0000000000
13
-0.0612650701
23
-0.0074519145
33
0.0000000000
40
0.0000000000
40
0.0000000000
40
0.0000000000
40
0.0000000000
40
0.5991729697
40
1.0000000000
40
1.0000000000
40
1.0000000000
40
1.0000000000
10
-213.6659756643
20
294.9449441915
30
0.0000000000
10
-213.6782906711
20
294.9444005529
30
0.0000000000
10
-213.6988130447
20
294.9428885258
30
0.0000000000
10
-213.7192687425
20
294.9406768653
30
0.0000000000
10
-213.7274543078
20
294.9396812224
30
0.0000000000
11
-213.6659756643
21
294.9449441915
31
0.0000000000
11
-213.7028596370
21
294.9423374472
31
0.0000000000
11
-213.7274543078
21
294.9396812224
31
0.0000000000
0
SPLINE
5
2F8
100
AcDbEntity
8
0
100
AcDbSpline
62
7
6
CONTINUOUS
70
0
71
3
72
8
73
4
74
2
42
0.0000001000
43
0.0000001000
44
0.0000000001
12
-0.0133589662
22
-0.0007428716
32
0.0000000000
13
-0.0133765972
23
-0.0005137226
33
0.0000000000
40
0.0000000000
40
0.0000000000
40
0.0000000000
40
0.0000000000
40
1.0000000000
40
1.0000000000
40
1.0000000000
40
1.0000000000
10
-213.3208989644
20
294.6140174267
30
0.0000000000
10
-213.3253519531
20
294.6137698028
30
0.0000000000
10
-213.3298078362
20
294.6135599179
30
0.0000000000
10
-213.3342667020
20
294.6133886770
30
0.0000000000
11
-213.3208989644
21
294.6140174267
31
0.0000000000
11
-213.3342667020
21
294.6133886770
31
0.0000000000
0
SPLINE
5
2F9
100
AcDbEntity
8
0
100
AcDbSpline
62
7
6
CONTINUOUS
70
0
71
3
72
8
73
4
74
2
42
0.0000001000
43
0.0000001000
44
0.0000000001
12
-0.0214403505
22
-0.0008234077
32
0.0000000000
13
-0.0214874159
23
-0.0002165578
33
0.0000000000
40
0.0000000000
40
0.0000000000
40
0.0000000000
40
0.0000000000
40
1.0000000000
40
1.0000000000
40
1.0000000000
40
1.0000000000
10
-213.3342667020
20
294.6133886770
30
0.0000000000
10
-213.3414134855
20
294.6131142078
30
0.0000000000
10
-213.3485679315
20
294.6129390169
30
0.0000000000
10
-213.3557304035
20
294.6128668309
30
0.0000000000
11
-213.3342667020
21
294.6133886770
31
0.0000000000
11
-213.3557304035
21
294.6128668309
31
0.0000000000
0
SPLINE
5
2FA
100
AcDbEntity
8
0
100
AcDbSpline
62
7
6
CONTINUOUS
70
0
71
3
72
11
73
7
74
5
42
0.0000001000
43
0.0000001000
44
0.0000000001
12
-0.1625355335
22
-0.0016380908
32
0.0000000000
13
-0.1430045884
23
0.0452983136
33
0.0000000000
40
0.0000000000
40
0.0000000000
40
0.0000000000
40
0.0000000000
40
0.3921400466
40
0.7167710143
40
0.9507098624
40
1.0000000000
40
1.0000000000
40
1.0000000000
40
1.0000000000
10
-213.3557304035
20
294.6128668309
30
0.0000000000
10
-213.3769759674
20
294.6126527106
30
0.0000000000
10
-213.4159386298
20
294.6139178951
30
0.0000000000
10
-213.4663058517
20
294.6192543001
30
0.0000000000
10
-213.4999794280
20
294.6279353248
30
0.0000000000
10
-213.5131480867
20
294.6313950494
30
0.0000000000
10
-213.5154976587
20
294.6321393028
30
0.0000000000
11
-213.3557304035
21
294.6128668309
31
0.0000000000
11
-213.4193122567
21
294.6148625853
31
0.0000000000
11
-213.4715668651
21
294.6213987925
31
0.0000000000
11
-213.5084882599
21
294.6301731406
31
0.0000000000
11
-213.5154976587
21
294.6321393028
31
0.0000000000
0
SPLINE
5
2FB
100
AcDbEntity
8
0
100
AcDbSpline
62
7
6
CONTINUOUS
70
0
71
3
72
9
73
5
74
3
42
0.0000001000
43
0.0000001000
44
0.0000000001
12
-0.0148819146
22
0.0047140140
32
0.0000000000
13
-0.0133048910
23
0.0072041476
33
0.0000000000
40
0.0000000000
40
0.0000000000
40
0.0000000000
40
0.0000000000
40
0.8019985287
40
1.0000000000
40
1.0000000000
40
1.0000000000
40
1.0000000000
10
-213.5154976587
20
294.6321393028
30
0.0000000000
10
-213.5194760832
20
294.6333995135
30
0.0000000000
10
-213.5246434959
20
294.6354790678
30
0.0000000000
10
-213.5310816619
20
294.6393990653
30
0.0000000000
10
-213.5319597912
20
294.6398745426
30
0.0000000000
11
-213.5154976587
21
294.6321393028
31
0.0000000000
11
-213.5285819486
21
294.6379188886
31
0.0000000000
11
-213.5319597912
21
294.6398745426
31
0.0000000000
0
SPLINE
5
2FC
100
AcDbEntity
8
0
100
AcDbSpline
62
7
6
CONTINUOUS
70
0
71
3
72
10
73
6
74
4
42
0.0000001000
43
0.0000001000
44
0.0000000001
12
-0.6103837428
22
0.0337146206
32
0.0000000000
13
-0.6103824095
23
-0.0337146639
33
0.0000000000
40
0.0000000000
40
0.0000000000
40
0.0000000000
40
0.0000000000
40
0.3162379388
40
0.6798529955
40
1.0000000000
40
1.0000000000
40
1.0000000000
40
1.0000000000
10
-212.7098695581
20
294.6140341172
30
0.0000000000
10
-212.7742117237
20
294.6175880646
30
0.0000000000
10
-212.9126807947
20
294.6228152360
30
0.0000000000
10
-213.1164955552
20
294.6228591656
30
0.0000000000
10
-213.2557625255
20
294.6176320221
30
0.0000000000
10
-213.3208998921
20
294.6140341393
30
0.0000000000
11
-212.7098695581
21
294.6140341172
31
0.0000000000
11
-212.9030518155
21
294.6213264253
31
0.0000000000
11
-213.1253284510
21
294.6213743639
31
0.0000000000
11
-213.3208998921
21
294.6140341393
31
0.0000000000
0
SPLINE
5
2FD
100
AcDbEntity
8
0
100
AcDbSpline
62
7
6
CONTINUOUS
70
0
71
3
72
8
73
4
74
2
42
0.0000001000
43
0.0000001000
44
0.0000000001
12
-0.0008077267
22
-0.0004121821
32
0.0000000000
13
-0.0010839278
23
-0.0006210744
33
0.0000000000
40
0.0000000000
40
0.0000000000
40
0.0000000000
40
0.0000000000
40
1.0000000000
40
1.0000000000
40
1.0000000000
40
1.0000000000
10
-212.4985004338
20
294.6400115505
30
0.0000000000
10
-212.4987696760
20
294.6398741565
30
0.0000000000
10
-212.4990953165
20
294.6396932666
30
0.0000000000
10
-212.4994566258
20
294.6394862418
30
0.0000000000
11
-212.4985004338
21
294.6400115505
31
0.0000000000
11
-212.4994566258
21
294.6394862418
31
0.0000000000
0
SPLINE
5
2FE
100
AcDbEntity
8
0
100
AcDbSpline
62
7
6
CONTINUOUS
70
0
71
3
72
9
73
5
74
3
42
0.0000001000
43
0.0000001000
44
0.0000000001
12
-0.0121376826
22
-0.0061938472
32
0.0000000000
13
-0.0153882528
23
-0.0048368008
33
0.0000000000
40
0.0000000000
40
0.0000000000
40
0.0000000000
40
0.0000000000
40
0.1995516334
40
1.0000000000
40
1.0000000000
40
1.0000000000
40
1.0000000000
10
-212.4985004338
20
294.6400115505
30
0.0000000000
10
-212.4993077986
20
294.6395995531
30
0.0000000000
10
-212.5058950381
20
294.6355749873
30
0.0000000000
10
-212.5111810572
20
294.6334840943
30
0.0000000000
10
-212.5152868911
20
294.6321935578
30
0.0000000000
11
-212.4985004338
21
294.6400115505
31
0.0000000000
11
-212.5018849717
21
294.6380703362
31
0.0000000000
11
-212.5152868911
21
294.6321935578
31
0.0000000000
0
SPLINE
5
2FF
100
AcDbEntity
8
0
100
AcDbSpline
62
7
6
CONTINUOUS
70
0
71
3
72
11
73
7
74
5
42
0.0000001000
43
0.0000001000
44
0.0000000001
12
-0.1401325979
22
-0.0440425303
32
0.0000000000
13
-0.1595286702
23
0.0010276725
33
0.0000000000
40
0.0000000000
40
0.0000000000
40
0.0000000000
40
0.0000000000
40
0.0438216188
40
0.2774879323
40
0.6034667719
40
1.0000000000
40
1.0000000000
40
1.0000000000
40
1.0000000000
10
-212.5152887975
20
294.6321929586
30
0.0000000000
10
-212.5173357433
20
294.6315496203
30
0.0000000000
10
-212.5301003284
20
294.6280786358
30
0.0000000000
10
-212.5627998899
20
294.6195832291
30
0.0000000000
10
-212.6125400189
20
294.6140795677
30
0.0000000000
10
-212.6510763841
20
294.6127009723
30
0.0000000000
10
-212.6721625236
20
294.6128368077
30
0.0000000000
11
-212.5152887975
21
294.6321929586
31
0.0000000000
11
-212.5214240249
21
294.6304424678
31
0.0000000000
11
-212.5575864622
21
294.6216946614
31
0.0000000000
11
-212.6090634835
21
294.6150515849
31
0.0000000000
11
-212.6721625236
21
294.6128368077
31
0.0000000000
0
SPLINE
5
300
100
AcDbEntity
8
0
100
AcDbSpline
62
7
6
CONTINUOUS
70
0
71
3
72
8
73
4
74
2
42
0.0000001000
43
0.0000001000
44
0.0000000001
12
-0.0243685226
22
0.0001569803
32
0.0000000000
13
-0.0243127067
23
0.0009359260
33
0.0000000000
40
0.0000000000
40
0.0000000000
40
0.0000000000
40
0.0000000000
40
1.0000000000
40
1.0000000000
40
1.0000000000
40
1.0000000000
10
-212.6721625236
20
294.6128368077
30
0.0000000000
10
-212.6802853645
20
294.6128891345
30
0.0000000000
10
-212.6883987659
20
294.6130738962
30
0.0000000000
10
-212.6965030014
20
294.6133858716
30
0.0000000000
11
-212.6721625236
21
294.6128368077
31
0.0000000000
11
-212.6965030014
21
294.6133858716
31
0.0000000000
0
SPLINE
5
301
100
AcDbEntity
8
0
100
AcDbSpline
62
7
6
CONTINUOUS
70
0
71
3
72
8
73
4
74
2
42
0.0000001000
43
0.0000001000
44
0.0000000001
12
-0.0133758724
22
0.0005149088
32
0.0000000000
13
-0.0133593634
23
0.0007433272
33
0.0000000000
40
0.0000000000
40
0.0000000000
40
0.0000000000
40
0.0000000000
40
1.0000000000
40
1.0000000000
40
1.0000000000
40
1.0000000000
10
-212.6965030014
20
294.6133858716
30
0.0000000000
10
-212.7009616256
20
294.6135575079
30
0.0000000000
10
-212.7054174754
20
294.6137676486
30
0.0000000000
10
-212.7098705966
20
294.6140154243
30
0.0000000000
11
-212.6965030014
21
294.6133858716
31
0.0000000000
11
-212.7098705966
21
294.6140154243
31
0.0000000000
0
SPLINE
5
302
100
AcDbEntity
8
0
100
AcDbSpline
62
7
6
CONTINUOUS
70
0
71
3
72
9
73
5
74
3
42
0.0000001000
43
0.0000001000
44
0.0000000001
12
-0.0603938318
22
0.0073448720
32
0.0000000000
13
-0.0607785955
23
0.0027725077
33
0.0000000000
40
0.0000000000
40
0.0000000000
40
0.0000000000
40
0.0000000000
40
0.3869911088
40
1.0000000000
40
1.0000000000
40
1.0000000000
40
1.0000000000
10
-212.3033152530
20
294.9396814865
30
0.0000000000
10
-212.3111058783
20
294.9406289532
30
0.0000000000
10
-212.3312690801
20
294.9428213488
30
0.0000000000
10
-212.3514974256
20
294.9443383992
30
0.0000000000
10
-212.3639166987
20
294.9449049231
30
0.0000000000
11
-212.3033152530
21
294.9396814865
31
0.0000000000
11
-212.3267215940
21
294.9422246873
31
0.0000000000
11
-212.3639166987
21
294.9449049231
31
0.0000000000
0
SPLINE
5
303
100
AcDbEntity
8
0
100
AcDbSpline
62
7
6
CONTINUOUS
70
0
71
3
72
9
73
5
74
3
42
0.0000001000
43
0.0000001000
44
0.0000000001
12
-0.0564442669
22
0.0025747907
32
0.0000000000
13
-0.0559810452
23
-0.0080425123
33
0.0000000000
40
0.0000000000
40
0.0000000000
40
0.0000000000
40
0.0000000000
40
0.5438656546
40
1.0000000000
40
1.0000000000
40
1.0000000000
40
1.0000000000
10
-212.3639166987
20
294.9449049231
30
0.0000000000
10
-212.3741493981
20
294.9453717032
30
0.0000000000
10
-212.3929880169
20
294.9457763063
30
0.0000000000
10
-212.4118221932
20
294.9446015857
30
0.0000000000
10
-212.4203338190
20
294.9433787636
30
0.0000000000
11
-212.3639166987
21
294.9449049231
31
0.0000000000
11
-212.3946394396
21
294.9453446547
31
0.0000000000
11
-212.4203338190
21
294.9433787636
31
0.0000000000
0
SPLINE
5
304
100
AcDbEntity
8
0
100
AcDbSpline
62
7
6
CONTINUOUS
70
0
71
3
72
8
73
4
74
2
42
0.0000001000
43
0.0000001000
44
0.0000000001
12
-0.0253563285
22
-0.0036428149
32
0.0000000000
13
-0.0242042291
23
-0.0084543714
33
0.0000000000
40
0.0000000000
40
0.0000000000
40
0.0000000000
40
0.0000000000
40
1.0000000000
40
1.0000000000
40
1.0000000000
40
1.0000000000
10
-212.4203338190
20
294.9433787636
30
0.0000000000
10
-212.4287859285
20
294.9421644920
30
0.0000000000
10
-212.4371598541
20
294.9402728026
30
0.0000000000
10
-212.4452279304
20
294.9374546788
30
0.0000000000
11
-212.4203338190
21
294.9433787636
31
0.0000000000
11
-212.4452279304
21
294.9374546788
31
0.0000000000
0
SPLINE
5
305
100
AcDbEntity
8
0
100
AcDbSpline
62
7
6
CONTINUOUS
70
0
71
3
72
11
73
7
74
5
42
0.0000001000
43
0.0000001000
44
0.0000000001
12
-0.1097795045
22
-0.0383452287
32
0.0000000000
13
-0.0129853403
23
-0.1160160106
33
0.0000000000
40
0.0000000000
40
0.0000000000
40
0.0000000000
40
0.0000000000
40
0.2448027718
40
0.5034455926
40
0.7877064745
40
1.0000000000
40
1.0000000000
40
1.0000000000
40
1.0000000000
10
-212.4452279304
20
294.9374546788
30
0.0000000000
10
-212.4541860394
20
294.9343256727
30
0.0000000000
10
-212.4718332900
20
294.9255419740
30
0.0000000000
10
-212.4946014391
20
294.9046283586
30
0.0000000000
10
-212.5093445692
20
294.8788414264
30
0.0000000000
10
-212.5138272755
20
294.8598282414
30
0.0000000000
10
-212.5147461767
20
294.8516184255
30
0.0000000000
11
-212.4452279304
21
294.9374546788
31
0.0000000000
11
-212.4706162492
21
294.9246998729
31
0.0000000000
11
-212.4927049076
21
294.9043725527
31
0.0000000000
11
-212.5090417467
21
294.8757096342
31
0.0000000000
11
-212.5147461767
21
294.8516184255
31
0.0000000000
0
SPLINE
5
306
100
AcDbEntity
8
0
100
AcDbSpline
62
7
6
CONTINUOUS
70
0
71
3
72
8
73
4
74
2
42
0.0000001000
43
0.0000001000
44
0.0000000001
12
-0.0012512757
22
-0.0111793772
32
0.0000000000
13
-0.0000054201
23
-0.0111967750
33
0.0000000000
40
0.0000000000
40
0.0000000000
40
0.0000000000
40
0.0000000000
40
1.0000000000
40
1.0000000000
40
1.0000000000
40
1.0000000000
10
-212.5147461767
20
294.8516184255
30
0.0000000000
10
-212.5151632686
20
294.8478919664
30
0.0000000000
10
-212.5153748262
20
294.8441488094
30
0.0000000000
10
-212.5153766329
20
294.8404165511
30
0.0000000000
11
-212.5147461767
21
294.8516184255
31
0.0000000000
11
-212.5153766329
21
294.8404165511
31
0.0000000000
0
SPLINE
5
307
100
AcDbEntity
8
0
100
AcDbSpline
62
7
6
CONTINUOUS
70
0
71
3
72
10
73
6
74
4
42
0.0000001000
43
0.0000001000
44
0.0000000001
12
-1.0911208316
22
0.3562194201
32
0.0000000000
13
-1.1394011973
23
0.1385349433
33
0.0000000000
40
0.0000000000
40
0.0000000000
40
0.0000000000
40
0.0000000000
40
0.3242092501
40
0.6736871094
40
1.0000000000
40
1.0000000000
40
1.0000000000
40
1.0000000000
10
-211.1843493593
20
294.6914805336
30
0.0000000000
10
-211.3022665148
20
294.7299770773
30
0.0000000000
10
-211.5498863631
20
294.8022627223
30
0.0000000000
10
-211.9236314750
20
294.8852437149
30
0.0000000000
10
-212.1793816897
20
294.9246112401
30
0.0000000000
10
-212.3033154557
20
294.9396798193
30
0.0000000000
11
-211.1843493593
21
294.6914805336
31
0.0000000000
11
-211.5415638191
21
294.7957573058
31
0.0000000000
11
-211.9331388297
21
294.8826970930
31
0.0000000000
11
-212.3033154557
21
294.9396798193
31
0.0000000000
0
SPLINE
5
308
100
AcDbEntity
8
0
100
AcDbSpline
62
7
6
CONTINUOUS
70
0
71
3
72
8
73
4
74
2
42
0.0000001000
43
0.0000001000
44
0.0000000001
12
0.0000338558
22
0.0001072465
32
0.0000000000
13
-0.0041573908
23
0.0006697597
33
0.0000000000
40
0.0000000000
40
0.0000000000
40
0.0000000000
40
0.0000000000
40
1.0000000000
40
1.0000000000
40
1.0000000000
40
1.0000000000
10
-210.9133085414
20
294.6125445136
30
0.0000000000
10
-210.9132972561
20
294.6125802624
30
0.0000000000
10
-210.9145027446
20
294.6127739910
30
0.0000000000
10
-210.9158885415
20
294.6129972442
30
0.0000000000
11
-210.9133085414
21
294.6125445136
31
0.0000000000
11
-210.9158885415
21
294.6129972442
31
0.0000000000
0
SPLINE
5
309
100
AcDbEntity
8
0
100
AcDbSpline
62
7
6
CONTINUOUS
70
0
71
3
72
11
73
7
74
5
42
0.0000001000
43
0.0000001000
44
0.0000000001
12
-0.0393958244
22
0.0063467055
32
0.0000000000
13
-0.0252524804
23
0.0062307611
33
0.0000000000
40
0.0000000000
40
0.0000000000
40
0.0000000000
40
0.0000000000
40
0.0437461442
40
0.3811931806
40
0.8487327780
40
1.0000000000
40
1.0000000000
40
1.0000000000
40
1.0000000000
10
-210.9158885415
20
294.6129972442
30
0.0000000000
10
-210.9164630133
20
294.6130897922
30
0.0000000000
10
-210.9217388173
20
294.6139404433
30
0.0000000000
10
-210.9262413681
20
294.6151451622
30
0.0000000000
10
-210.9351383549
20
294.6171318639
30
0.0000000000
10
-210.9404258315
20
294.6184148901
30
0.0000000000
10
-210.9416991223
20
294.6187290601
30
0.0000000000
11
-210.9158885415
21
294.6129972442
31
0.0000000000
11
-210.9176310776
21
294.6132809584
31
0.0000000000
11
-210.9261169038
21
294.6150536049
31
0.0000000000
11
-210.9378127066
21
294.6177874637
31
0.0000000000
11
-210.9416991223
21
294.6187290601
31
0.0000000000
0
SPLINE
5
30A
100
AcDbEntity
8
0
100
AcDbSpline
62
7
6
CONTINUOUS
70
0
71
3
72
18
73
14
74
12
42
0.0000001000
43
0.0000001000
44
0.0000000001
12
-0.2491589938
22
0.0614771357
32
0.0000000000
13
-0.2409641088
23
0.0786527443
33
0.0000000000
40
0.0000000000
40
0.0000000000
40
0.0000000000
40
0.0000000000
40
0.0441584266
40
0.1147243445
40
0.1955767258
40
0.2863024203
40
0.3862697342
40
0.4948207329
40
0.6111644276
40
0.7344498212
40
0.8637745550
40
0.9980510664
40
1.0000000000
40
1.0000000000
40
1.0000000000
40
1.0000000000
10
-210.9416991223
20
294.6187290601
30
0.0000000000
10
-210.9453666120
20
294.6196339713
30
0.0000000000
10
-210.9544802915
20
294.6219964650
30
0.0000000000
10
-210.9706136606
20
294.6262646095
30
0.0000000000
10
-210.9902715208
20
294.6317227109
30
0.0000000000
10
-211.0123468354
20
294.6380420894
30
0.0000000000
10
-211.0365993194
20
294.6451695759
30
0.0000000000
10
-211.0628848672
20
294.6530801521
30
0.0000000000
10
-211.0910049666
20
294.6617218000
30
0.0000000000
10
-211.1207561421
20
294.6710318251
30
0.0000000000
10
-211.1519046646
20
294.6809479333
30
0.0000000000
10
-211.1732518742
20
294.6878552695
30
0.0000000000
10
-211.1841938177
20
294.6914263751
30
0.0000000000
10
-211.1843503587
20
294.6914774714
30
0.0000000000
11
-210.9416991223
21
294.6187290601
31
0.0000000000
11
-210.9524343509
21
294.6214735776
31
0.0000000000
11
-210.9697220784
21
294.6260637149
31
0.0000000000
11
-210.9894742702
21
294.6315280171
31
0.0000000000
11
-211.0115847772
21
294.6378506045
31
0.0000000000
11
-211.0358972788
21
294.6449906364
31
0.0000000000
11
-211.0622464845
21
294.6529149637
31
0.0000000000
11
-211.0904371876
21
294.6615729018
31
0.0000000000
11
-211.1202615774
21
294.6709033149
31
0.0000000000
11
-211.1514982456
21
294.6808451832
31
0.0000000000
11
-211.1838807301
21
294.6913241994
31
0.0000000000
11
-211.1843503587
21
294.6914774714
31
0.0000000000
0
SPLINE
5
30B
100
AcDbEntity
8
0
100
AcDbSpline
62
7
6
CONTINUOUS
70
0
71
3
72
8
73
4
74
2
42
0.0000001000
43
0.0000001000
44
0.0000000001
12
0.0000338947
22
0.0001160309
32
0.0000000000
13
-0.0042056179
23
0.0006729367
33
0.0000000000
40
0.0000000000
40
0.0000000000
40
0.0000000000
40
0.0000000000
40
1.0000000000
40
1.0000000000
40
1.0000000000
40
1.0000000000
10
-210.9133140436
20
294.6125553163
30
0.0000000000
10
-210.9133027454
20
294.6125939933
30
0.0000000000
10
-210.9144848395
20
294.6127846367
30
0.0000000000
10
-210.9158867122
20
294.6130089489
30
0.0000000000
11
-210.9133140436
21
294.6125553163
31
0.0000000000
11
-210.9158867122
21
294.6130089489
31
0.0000000000
0
SPLINE
5
30C
100
AcDbEntity
8
0
100
AcDbSpline
62
7
6
CONTINUOUS
70
0
71
3
72
17
73
13
74
11
42
0.0000001000
43
0.0000001000
44
0.0000000001
12
-0.2509708435
22
0.0616478837
32
0.0000000000
13
-0.2409606472
23
0.0786734263
33
0.0000000000
40
0.0000000000
40
0.0000000000
40
0.0000000000
40
0.0000000000
40
0.0479700867
40
0.1192779108
40
0.2010034140
40
0.2926090716
40
0.3934274926
40
0.5028415426
40
0.6200107320
40
0.7441297324
40
0.8743023083
40
1.0000000000
40
1.0000000000
40
1.0000000000
40
1.0000000000
10
-210.9416913374
20
294.6187305072
30
0.0000000000
10
-210.9457043684
20
294.6197162587
30
0.0000000000
10
-210.9551508979
20
294.6221694412
30
0.0000000000
10
-210.9717390420
20
294.6265684554
30
0.0000000000
10
-210.9915916897
20
294.6320987141
30
0.0000000000
10
-211.0138786726
20
294.6384837794
30
0.0000000000
10
-211.0383374308
20
294.6456865656
30
0.0000000000
10
-211.0648244793
20
294.6536737101
30
0.0000000000
10
-211.0931461513
20
294.6623859973
30
0.0000000000
10
-211.1230965290
20
294.6717700392
30
0.0000000000
10
-211.1536870136
20
294.6815192292
30
0.0000000000
10
-211.1742542877
20
294.6881811374
30
0.0000000000
10
-211.1843503534
20
294.6914774935
30
0.0000000000
11
-210.9416913374
21
294.6187305072
31
0.0000000000
11
-210.9533668284
21
294.6217148885
31
0.0000000000
11
-210.9708335893
21
294.6263644024
31
0.0000000000
11
-210.9907954631
21
294.6319017473
31
0.0000000000
11
-211.0131182835
21
294.6382941825
31
0.0000000000
11
-211.0376345256
21
294.6455071917
31
0.0000000000
11
-211.0641894879
21
294.6535081284
31
0.0000000000
11
-211.0925776003
21
294.6622372516
31
0.0000000000
11
-211.1226008589
21
294.6716409768
31
0.0000000000
11
-211.1540391849
21
294.6816591901
31
0.0000000000
11
-211.1843503534
21
294.6914774935
31
0.0000000000
0
SPLINE
5
30D
100
AcDbEntity
8
0
100
AcDbSpline
62
7
6
CONTINUOUS
70
0
71
3
72
16
73
12
74
10
42
0.0000001000
43
0.0000001000
44
0.0000000001
12
-0.2571082013
22
0.0312732353
32
0.0000000000
13
-0.0289956003
23
-0.2588563033
33
0.0000000000
40
0.0000000000
40
0.0000000000
40
0.0000000000
40
0.0000000000
40
0.0957177787
40
0.2385228785
40
0.3560819468
40
0.4550440047
40
0.5535147798
40
0.6628920152
40
0.7781856162
40
0.9049357695
40
1.0000000000
40
1.0000000000
40
1.0000000000
40
1.0000000000
10
-212.3033152839
20
294.9396812293
30
0.0000000000
10
-212.3115185592
20
294.9406790308
30
0.0000000000
10
-212.3319947396
20
294.9428923139
30
0.0000000000
10
-212.3626625654
20
294.9451496640
30
0.0000000000
10
-212.3936948952
20
294.9457631301
30
0.0000000000
10
-212.4208876522
20
294.9439948162
30
0.0000000000
10
-212.4468682269
20
294.9380206028
30
0.0000000000
10
-212.4720957045
20
294.9253461422
30
0.0000000000
10
-212.4947002872
20
294.9044670280
30
0.0000000000
10
-212.5093567895
20
294.8787712860
30
0.0000000000
10
-212.5138246762
20
294.8598207825
30
0.0000000000
10
-212.5147434910
20
294.8516181241
30
0.0000000000
11
-212.3033152839
21
294.9396812293
31
0.0000000000
11
-212.3279632466
21
294.9423424678
31
0.0000000000
11
-212.3648554464
21
294.9449468914
31
0.0000000000
11
-212.3952988027
21
294.9453275877
31
0.0000000000
11
-212.4208482783
21
294.9433046346
31
0.0000000000
11
-212.4456362911
21
294.9373115720
31
0.0000000000
11
-212.4709018612
21
294.9245030695
31
0.0000000000
11
-212.4928185268
21
294.9042244883
31
0.0000000000
11
-212.5090443139
21
294.8756889935
31
0.0000000000
11
-212.5147434910
21
294.8516181241
31
0.0000000000
0
SPLINE
5
30E
100
AcDbEntity
8
0
100
AcDbSpline
62
7
6
CONTINUOUS
70
0
71
3
72
12
73
8
74
6
42
0.0000001000
43
0.0000001000
44
0.0000000001
12
-0.1619099871
22
-0.0512868116
32
0.0000000000
13
-0.1836198709
23
0.0070518447
33
0.0000000000
40
0.0000000000
40
0.0000000000
40
0.0000000000
40
0.0000000000
40
0.0435347811
40
0.2501577898
40
0.5368832645
40
0.8832351292
40
1.0000000000
40
1.0000000000
40
1.0000000000
40
1.0000000000
10
-212.5152719339
20
294.6321393028
30
0.0000000000
10
-212.5176215058
20
294.6313950494
30
0.0000000000
10
-212.5307901646
20
294.6279353248
30
0.0000000000
10
-212.5644637409
20
294.6192543001
30
0.0000000000
10
-212.6148309628
20
294.6139178951
30
0.0000000000
10
-212.6609799040
20
294.6124193598
30
0.0000000000
10
-212.6893561071
20
294.6131142078
30
0.0000000000
10
-212.6965028906
20
294.6133886770
30
0.0000000000
11
-212.5152719339
21
294.6321393028
31
0.0000000000
11
-212.5222813327
21
294.6301731406
31
0.0000000000
11
-212.5592027274
21
294.6213987925
31
0.0000000000
11
-212.6114573359
21
294.6148625853
31
0.0000000000
11
-212.6750391891
21
294.6128668309
31
0.0000000000
11
-212.6965028906
21
294.6133886770
31
0.0000000000
0
SPLINE
5
30F
100
AcDbEntity
8
0
100
AcDbSpline
62
7
6
CONTINUOUS
70
0
71
3
72
10
73
6
74
4
42
0.0000001000
43
0.0000001000
44
0.0000000001
12
-0.6103822664
22
0.0337146560
32
0.0000000000
13
-0.6103836007
23
-0.0337145969
33
0.0000000000
40
0.0000000000
40
0.0000000000
40
0.0000000000
40
0.0000000000
40
0.3201470795
40
0.6837622215
40
1.0000000000
40
1.0000000000
40
1.0000000000
40
1.0000000000
10
-212.7098697004
20
294.6140341393
30
0.0000000000
10
-212.7750070671
20
294.6176320221
30
0.0000000000
10
-212.9142740374
20
294.6228591656
30
0.0000000000
10
-213.1180887501
20
294.6228152360
30
0.0000000000
10
-213.2565577734
20
294.6175880682
30
0.0000000000
10
-213.3208998913
20
294.6140341252
30
0.0000000000
11
-212.7098697004
21
294.6140341393
31
0.0000000000
11
-212.9054411416
21
294.6213743639
31
0.0000000000
11
-213.1277177771
21
294.6213264253
31
0.0000000000
11
-213.3208998913
21
294.6140341252
31
0.0000000000
0
SPLINE
5
310
100
AcDbEntity
8
0
100
AcDbSpline
62
7
6
CONTINUOUS
70
0
71
3
72
8
73
4
74
2
42
0.0000001000
43
0.0000001000
44
0.0000000001
12
-0.0133593634
22
-0.0007433272
32
0.0000000000
13
-0.0133758724
23
-0.0005149088
33
0.0000000000
40
0.0000000000
40
0.0000000000
40
0.0000000000
40
0.0000000000
40
1.0000000000
40
1.0000000000
40
1.0000000000
40
1.0000000000
10
-213.3208989960
20
294.6140154243
30
0.0000000000
10
-213.3253521171
20
294.6137676486
30
0.0000000000
10
-213.3298079670
20
294.6135575079
30
0.0000000000
10
-213.3342665911
20
294.6133858716
30
0.0000000000
11
-213.3208989960
21
294.6140154243
31
0.0000000000
11
-213.3342665911
21
294.6133858716
31
0.0000000000
0
SPLINE
5
311
100
AcDbEntity
8
0
100
AcDbSpline
62
9
6
CONTINUOUS
70
0
71
3
72
10
73
6
74
4
42
0.0000001000
43
0.0000001000
44
0.0000000001
12
-0.0000000037
22
0.0084211513
32
0.0000000000
13
0.0000000024
23
0.0084211513
33
0.0000000000
40
0.0000000000
40
0.0000000000
40
0.0000000000
40
0.0000000000
40
0.5552522622
40
0.8890061159
40
1.0000000000
40
1.0000000000
40
1.0000000000
40
1.0000000000
10
-215.1514006274
20
294.6073334853
30
0.0000000000
10
-215.1514006281
20
294.6088921064
30
0.0000000000
10
-215.1514006260
20
294.6113875914
30
0.0000000000
10
-215.1514006276
20
294.6141946419
30
0.0000000000
10
-215.1514006275
20
294.6154430712
30
0.0000000000
10
-215.1514006274
20
294.6157546367
30
0.0000000000
11
-215.1514006274
21
294.6073334853
31
0.0000000000
11
-215.1514006268
21
294.6120093487
31
0.0000000000
11
-215.1514006275
21
294.6148199404
31
0.0000000000
11
-215.1514006274
21
294.6157546367
31
0.0000000000
0
SPLINE
5
312
100
AcDbEntity
8
0
100
AcDbSpline
62
9
6
CONTINUOUS
70
0
71
3
72
11
73
7
74
5
42
0.0000001000
43
0.0000001000
44
0.0000000001
12
-0.2347482178
22
-0.0766424207
32
0.0000000000
13
-0.2489078788
23
-0.0675589159
33
0.0000000000
40
0.0000000000
40
0.0000000000
40
0.0000000000
40
0.0000000000
40
0.3504046771
40
0.6666687971
40
0.9304468631
40
1.0000000000
40
1.0000000000
40
1.0000000000
40
1.0000000000
10
-214.8462555087
20
294.6909759797
30
0.0000000000
10
-214.8736744665
20
294.6820240255
30
0.0000000000
10
-214.9257758638
20
294.6653712760
30
0.0000000000
10
-214.9996585023
20
294.6426582941
30
0.0000000000
10
-215.0495429490
20
294.6285282916
30
0.0000000000
10
-215.0776041288
20
294.6206609813
30
0.0000000000
10
-215.0833749034
20
294.6190946698
30
0.0000000000
11
-214.8462555087
21
294.6909759797
31
0.0000000000
11
-214.9286749104
21
294.6646231278
31
0.0000000000
11
-215.0033756961
21
294.6418355558
31
0.0000000000
11
-215.0660008606
21
294.6239173288
31
0.0000000000
11
-215.0833749034
21
294.6190946698
31
0.0000000000
0
SPLINE
5
313
100
AcDbEntity
8
0
100
AcDbSpline
62
9
6
CONTINUOUS
70
0
71
3
72
10
73
6
74
4
42
0.0000001000
43
0.0000001000
44
0.0000000001
12
-0.0708811429
22
-0.0192386565
32
0.0000000000
13
0.0003549073
23
0.0703206776
33
0.0000000000
40
0.0000000000
40
0.0000000000
40
0.0000000000
40
0.0000000000
40
0.4410278012
40
0.8596420268
40
1.0000000000
40
1.0000000000
40
1.0000000000
40
1.0000000000
10
-215.0833749034
20
294.6190946698
30
0.0000000000
10
-215.0937950883
20
294.6162664090
30
0.0000000000
10
-215.1135689210
20
294.6112320947
30
0.0000000000
10
-215.1303642312
20
294.6091183353
30
0.0000000000
10
-215.1514172321
20
294.6040434627
30
0.0000000000
10
-215.1514006274
20
294.6073334853
30
0.0000000000
11
-215.0833749034
21
294.6190946698
31
0.0000000000
11
-215.1126800492
21
294.6119476323
31
0.0000000000
11
-215.1415798970
21
294.6063465847
31
0.0000000000
11
-215.1514006274
21
294.6073334853
31
0.0000000000
0
SPLINE
5
314
100
AcDbEntity
8
0
100
AcDbSpline
62
9
6
CONTINUOUS
70
0
71
3
72
12
73
8
74
6
42
0.0000001000
43
0.0000001000
44
0.0000000001
12
-1.1394044272
22
-0.1385317330
32
0.0000000000
13
-1.0911181987
23
-0.3562226359
33
0.0000000000
40
0.0000000000
40
0.0000000000
40
0.0000000000
40
0.0000000000
40
0.1736997740
40
0.3668447149
40
0.5660151312
40
0.7736035241
40
1.0000000000
40
1.0000000000
40
1.0000000000
40
1.0000000000
10
-213.7273900733
20
294.9391528989
30
0.0000000000
10
-213.7933615038
20
294.9311319220
30
0.0000000000
10
-213.9324141875
20
294.9118360324
30
0.0000000000
10
-214.1457651596
20
294.8744268005
30
0.0000000000
10
-214.3702186792
20
294.8261766855
30
0.0000000000
10
-214.6049123676
20
294.7659204232
30
0.0000000000
10
-214.7639137370
20
294.7178584962
30
0.0000000000
10
-214.8462555087
20
294.6909759797
30
0.0000000000
11
-213.7273900733
21
294.9391528989
31
0.0000000000
11
-213.9248695007
21
294.9117491187
31
0.0000000000
11
-214.1432290387
21
294.8734616980
31
0.0000000000
11
-214.3667301026
21
294.8254163838
31
0.0000000000
11
-214.5975139601
21
294.7661635815
31
0.0000000000
11
-214.8462555087
21
294.6909759797
31
0.0000000000
0
SPLINE
5
315
100
AcDbEntity
8
0
100
AcDbSpline
62
9
6
CONTINUOUS
70
0
71
3
72
14
73
10
74
8
42
0.0000001000
43
0.0000001000
44
0.0000000001
12
-0.0001275271
22
0.1030417226
32
0.0000000000
13
-0.1022885817
23
-0.0124361939
33
0.0000000000
40
0.0000000000
40
0.0000000000
40
0.0000000000
40
0.0000000000
40
0.0475695937
40
0.1569696759
40
0.3115077117
40
0.4870765621
40
0.6663493256
40
0.8385288923
40
1.0000000000
40
1.0000000000
40
1.0000000000
40
1.0000000000
10
-213.6256750338
20
294.9391528989
30
0.0000000000
10
-213.6256770559
20
294.9407867832
30
0.0000000000
10
-213.6324755943
20
294.9432357266
30
0.0000000000
10
-213.6418541452
20
294.9439505394
30
0.0000000000
10
-213.6575418115
20
294.9444695708
30
0.0000000000
10
-213.6748376619
20
294.9438459676
30
0.0000000000
10
-213.6929589956
20
294.9426899186
30
0.0000000000
10
-213.7104915953
20
294.9410940890
30
0.0000000000
10
-213.7218845231
20
294.9398222609
30
0.0000000000
10
-213.7273900733
20
294.9391528989
30
0.0000000000
11
-213.6256750338
21
294.9391528989
31
0.0000000000
11
-213.6296072933
21
294.9420792572
31
0.0000000000
11
-213.6407485151
21
294.9437964586
31
0.0000000000
11
-213.6566653284
21
294.9442707288
31
0.0000000000
11
-213.6747492252
21
294.9437662997
31
0.0000000000
11
-213.6931843515
21
294.9425904407
31
0.0000000000
11
-213.7108544803
21
294.9409985210
31
0.0000000000
11
-213.7273900733
21
294.9391528989
31
0.0000000000
0
SPLINE
5
316
100
AcDbEntity
8
0
100
AcDbSpline
62
9
6
CONTINUOUS
70
0
71
3
72
12
73
8
74
6
42
0.0000001000
43
0.0000001000
44
0.0000000001
12
-0.0000000955
22
0.2481769191
32
0.0000000000
13
0.0000000361
23
0.2481769191
33
0.0000000000
40
0.0000000000
40
0.0000000000
40
0.0000000000
40
0.0000000000
40
0.3245288541
40
0.5733868835
40
0.7612770168
40
0.8998605882
40
1.0000000000
40
1.0000000000
40
1.0000000000
40
1.0000000000
10
-213.6256750338
20
294.6909759797
30
0.0000000000
10
-213.6256750441
20
294.7178228368
30
0.0000000000
10
-213.6256750247
20
294.7652566335
30
0.0000000000
10
-213.6256750354
20
294.8282337618
30
0.0000000000
10
-213.6256750348
20
294.8758284475
30
0.0000000000
10
-213.6256750325
20
294.9111202905
30
0.0000000000
10
-213.6256750350
20
294.9308688020
30
0.0000000000
10
-213.6256750338
20
294.9391528989
30
0.0000000000
11
-213.6256750338
21
294.6909759797
31
0.0000000000
11
-213.6256750309
21
294.7715165509
31
0.0000000000
11
-213.6256750341
21
294.8332773700
31
0.0000000000
11
-213.6256750342
21
294.8799073644
31
0.0000000000
11
-213.6256750335
21
294.9143006082
31
0.0000000000
11
-213.6256750338
21
294.9391528989
31
0.0000000000
0
SPLINE
5
317
100
AcDbEntity
8
0
100
AcDbSpline
62
9
6
CONTINUOUS
70
0
71
3
72
8
73
4
74
2
42
0.0000001000
43
0.0000001000
44
0.0000000001
12
-0.0259648526
22
-0.0014341561
32
0.0000000000
13
-0.0260031346
23
-0.0007031723
33
0.0000000000
40
0.0000000000
40
0.0000000000
40
0.0000000000
40
0.0000000000
40
1.0000000000
40
1.0000000000
40
1.0000000000
40
1.0000000000
10
-213.3205299150
20
294.6073334853
30
0.0000000000
10
-213.3291848659
20
294.6068554333
30
0.0000000000
10
-213.3378484219
20
294.6064968029
30
0.0000000000
10
-213.3465161334
20
294.6062624121
30
0.0000000000
11
-213.3205299150
21
294.6073334853
31
0.0000000000
11
-213.3465161334
21
294.6062624121
31
0.0000000000
0
SPLINE
5
318
100
AcDbEntity
8
0
100
AcDbSpline
62
9
6
CONTINUOUS
70
0
71
3
72
10
73
6
74
4
42
0.0000001000
43
0.0000001000
44
0.0000000001
12
-0.1456857917
22
-0.0039396099
32
0.0000000000
13
-0.1438195669
23
0.0241745223
33
0.0000000000
40
0.0000000000
40
0.0000000000
40
0.0000000000
40
0.0000000000
40
0.3486430920
40
0.8460685313
40
1.0000000000
40
1.0000000000
40
1.0000000000
40
1.0000000000
10
-213.3465161334
20
294.6062624121
30
0.0000000000
10
-213.3634469150
20
294.6058045729
30
0.0000000000
10
-213.4045721131
20
294.6058438622
30
0.0000000000
10
-213.4530590585
20
294.6094397372
30
0.0000000000
10
-213.4844023685
20
294.6140286286
30
0.0000000000
10
-213.4917818209
20
294.6152690352
30
0.0000000000
11
-213.3465161334
21
294.6062624121
31
0.0000000000
11
-213.3973228824
21
294.6063468896
31
0.0000000000
11
-213.4695746488
21
294.6119851714
31
0.0000000000
11
-213.4917818209
21
294.6152690352
31
0.0000000000
0
SPLINE
5
319
100
AcDbEntity
8
0
100
AcDbSpline
62
9
6
CONTINUOUS
70
0
71
3
72
8
73
4
74
2
42
0.0000001000
43
0.0000001000
44
0.0000000001
12
-0.0237336029
22
0.0039893634
32
0.0000000000
13
-0.0234891810
23
0.0051773087
33
0.0000000000
40
0.0000000000
40
0.0000000000
40
0.0000000000
40
0.0000000000
40
1.0000000000
40
1.0000000000
40
1.0000000000
40
1.0000000000
10
-213.4917818209
20
294.6152690352
30
0.0000000000
10
-213.4996930219
20
294.6165988230
30
0.0000000000
10
-213.5075723484
20
294.6181078339
30
0.0000000000
10
-213.5154020754
20
294.6198336035
30
0.0000000000
11
-213.4917818209
21
294.6152690352
31
0.0000000000
11
-213.5154020754
21
294.6198336035
31
0.0000000000
0
SPLINE
5
31A
100
AcDbEntity
8
0
100
AcDbSpline
62
9
6
CONTINUOUS
70
0
71
3
72
8
73
4
74
2
42
0.0000001000
43
0.0000001000
44
0.0000000001
12
-0.0172327122
22
0.0037983049
32
0.0000000000
13
-0.0170515376
23
0.0045427719
33
0.0000000000
40
0.0000000000
40
0.0000000000
40
0.0000000000
40
0.0000000000
40
1.0000000000
40
1.0000000000
40
1.0000000000
40
1.0000000000
10
-213.5154020754
20
294.6198336035
30
0.0000000000
10
-213.5211463128
20
294.6210997051
30
0.0000000000
10
-213.5268638540
20
294.6224824737
30
0.0000000000
10
-213.5325476998
20
294.6239967310
30
0.0000000000
11
-213.5154020754
21
294.6198336035
31
0.0000000000
11
-213.5325476998
21
294.6239967310
31
0.0000000000
0
SPLINE
5
31B
100
AcDbEntity
8
0
100
AcDbSpline
62
9
6
CONTINUOUS
70
0
71
3
72
10
73
6
74
4
42
0.0000001000
43
0.0000001000
44
0.0000000001
12
-0.1168063314
22
0.0311188667
32
0.0000000000
13
0.0000729979
23
0.1208295183
33
0.0000000000
40
0.0000000000
40
0.0000000000
40
0.0000000000
40
0.0000000000
40
0.4363905819
40
0.7617294484
40
1.0000000000
40
1.0000000000
40
1.0000000000
40
1.0000000000
10
-213.5325476998
20
294.6239967310
30
0.0000000000
10
-213.5495387608
20
294.6285233911
30
0.0000000000
10
-213.5786714393
20
294.6384757987
30
0.0000000000
10
-213.6138771117
20
294.6592726218
30
0.0000000000
10
-213.6256808315
20
294.6813792744
30
0.0000000000
10
-213.6256750338
20
294.6909759797
30
0.0000000000
11
-213.5325476998
21
294.6239967310
31
0.0000000000
11
-213.5821587016
21
294.6418596143
31
0.0000000000
11
-213.6142639083
21
294.6645438535
31
0.0000000000
11
-213.6256750338
21
294.6909759797
31
0.0000000000
0
SPLINE
5
31C
100
AcDbEntity
8
0
100
AcDbSpline
62
9
6
CONTINUOUS
70
0
71
3
72
10
73
6
74
4
42
0.0000001000
43
0.0000001000
44
0.0000000001
12
-0.6096363370
22
0.0336737673
32
0.0000000000
13
-0.6096363343
23
-0.0336738160
33
0.0000000000
40
0.0000000000
40
0.0000000000
40
0.0000000000
40
0.0000000000
40
0.3328661760
40
0.6669943864
40
1.0000000000
40
1.0000000000
40
1.0000000000
40
1.0000000000
10
-212.7102396776
20
294.6073334853
30
0.0000000000
10
-212.7778821163
20
294.6110697714
30
0.0000000000
10
-212.9135746640
20
294.6160673597
30
0.0000000000
10
-213.1171381549
20
294.6160689207
30
0.0000000000
10
-213.2528591412
20
294.6110713419
30
0.0000000000
10
-213.3205299150
20
294.6073334853
30
0.0000000000
11
-212.7102396776
21
294.6073334853
31
0.0000000000
11
-212.9133386281
21
294.6148134894
31
0.0000000000
11
-213.1173458287
21
294.6148150582
31
0.0000000000
11
-213.3205299150
21
294.6073334853
31
0.0000000000
0
SPLINE
5
31D
100
AcDbEntity
8
0
100
AcDbSpline
62
9
6
CONTINUOUS
70
0
71
3
72
11
73
7
74
5
42
0.0000001000
43
0.0000001000
44
0.0000000001
12
-0.0000256699
22
-0.1384612527
32
0.0000000000
13
-0.1352723955
23
-0.0298191917
33
0.0000000000
40
0.0000000000
40
0.0000000000
40
0.0000000000
40
0.0000000000
40
0.2091032557
40
0.4931166190
40
0.8736295673
40
1.0000000000
40
1.0000000000
40
1.0000000000
40
1.0000000000
10
-212.4050945588
20
294.6909759797
30
0.0000000000
10
-212.4050963480
20
294.6813250802
30
0.0000000000
10
-212.4169855129
20
294.6591762587
30
0.0000000000
10
-212.4522504216
20
294.6384160709
30
0.0000000000
10
-212.4869182984
20
294.6265885129
30
0.0000000000
10
-212.5096687896
20
294.6210894796
30
0.0000000000
10
-212.5153669333
20
294.6198333915
30
0.0000000000
11
-212.4050945588
21
294.6909759797
31
0.0000000000
11
-212.4166207908
21
294.6644165225
31
0.0000000000
11
-212.4487760438
21
294.6417784290
31
0.0000000000
11
-212.4983580626
21
294.6239607506
31
0.0000000000
11
-212.5153669333
21
294.6198333915
31
0.0000000000
0
SPLINE
5
31E
100
AcDbEntity
8
0
100
AcDbSpline
62
9
6
CONTINUOUS
70
0
71
3
72
8
73
4
74
2
42
0.0000001000
43
0.0000001000
44
0.0000000001
12
-0.0042859530
22
-0.0009447874
32
0.0000000000
13
-0.0042955310
23
-0.0009021475
33
0.0000000000
40
0.0000000000
40
0.0000000000
40
0.0000000000
40
0.0000000000
40
1.0000000000
40
1.0000000000
40
1.0000000000
40
1.0000000000
10
-212.5153669333
20
294.6198333915
30
0.0000000000
10
-212.5167955843
20
294.6195184624
30
0.0000000000
10
-212.5182258854
20
294.6192107541
30
0.0000000000
10
-212.5196577290
20
294.6189100383
30
0.0000000000
11
-212.5153669333
21
294.6198333915
31
0.0000000000
11
-212.5196577290
21
294.6189100383
31
0.0000000000
0
SPLINE
5
31F
100
AcDbEntity
8
0
100
AcDbSpline
62
9
6
CONTINUOUS
70
0
71
3
72
8
73
4
74
2
42
0.0000001000
43
0.0000001000
44
0.0000000001
12
-0.0193422573
22
-0.0040622611
32
0.0000000000
13
-0.0195005064
23
-0.0032741333
33
0.0000000000
40
0.0000000000
40
0.0000000000
40
0.0000000000
40
0.0000000000
40
1.0000000000
40
1.0000000000
40
1.0000000000
40
1.0000000000
10
-212.5196577290
20
294.6189100383
30
0.0000000000
10
-212.5261051481
20
294.6175559513
30
0.0000000000
10
-212.5325838452
20
294.6163436432
30
0.0000000000
10
-212.5390840140
20
294.6152522655
30
0.0000000000
11
-212.5196577290
21
294.6189100383
31
0.0000000000
11
-212.5390840140
21
294.6152522655
31
0.0000000000
0
SPLINE
5
320
100
AcDbEntity
8
0
100
AcDbSpline
62
9
6
CONTINUOUS
70
0
71
3
72
10
73
6
74
4
42
0.0000001000
43
0.0000001000
44
0.0000000001
12
-0.1436554342
22
-0.0241197344
32
0.0000000000
13
-0.1455167566
23
0.0039235326
33
0.0000000000
40
0.0000000000
40
0.0000000000
40
0.0000000000
40
0.0000000000
40
0.1538736103
40
0.6506453984
40
1.0000000000
40
1.0000000000
40
1.0000000000
40
1.0000000000
10
-212.5390840140
20
294.6152522655
30
0.0000000000
10
-212.5464522741
20
294.6140151353
30
0.0000000000
10
-212.5777251847
20
294.6094410501
30
0.0000000000
10
-212.6261552940
20
294.6058465339
30
0.0000000000
10
-212.6672354715
20
294.6058039935
30
0.0000000000
10
-212.6841811210
20
294.6062608949
30
0.0000000000
11
-212.5390840140
21
294.6152522655
31
0.0000000000
11
-212.5612572803
21
294.6119766701
31
0.0000000000
11
-212.6333299475
21
294.6063503575
31
0.0000000000
11
-212.6841811210
21
294.6062608949
31
0.0000000000
0
SPLINE
5
321
100
AcDbEntity
8
0
100
AcDbSpline
62
9
6
CONTINUOUS
70
0
71
3
72
8
73
4
74
2
42
0.0000001000
43
0.0000001000
44
0.0000000001
12
-0.0260755307
22
0.0007030681
32
0.0000000000
13
-0.0260370964
23
0.0014371509
33
0.0000000000
40
0.0000000000
40
0.0000000000
40
0.0000000000
40
0.0000000000
40
1.0000000000
40
1.0000000000
40
1.0000000000
40
1.0000000000
10
-212.6841811210
20
294.6062608949
30
0.0000000000
10
-212.6928729646
20
294.6064952509
30
0.0000000000
10
-212.7015606454
20
294.6068544350
30
0.0000000000
10
-212.7102396776
20
294.6073334853
30
0.0000000000
11
-212.6841811210
21
294.6062608949
31
0.0000000000
11
-212.7102396776
21
294.6073334853
31
0.0000000000
0
SPLINE
5
322
100
AcDbEntity
8
0
100
AcDbSpline
62
9
6
CONTINUOUS
70
0
71
3
72
12
73
8
74
6
42
0.0000001000
43
0.0000001000
44
0.0000000001
12
0.0000000402
22
-0.2481769191
32
0.0000000000
13
-0.0000000830
23
-0.2481769191
33
0.0000000000
40
0.0000000000
40
0.0000000000
40
0.0000000000
40
0.0000000000
40
0.1005484461
40
0.2392339420
40
0.4272491127
40
0.6764381929
40
1.0000000000
40
1.0000000000
40
1.0000000000
40
1.0000000000
10
-212.4050945588
20
294.9391528989
30
0.0000000000
10
-212.4050945575
20
294.9308349644
30
0.0000000000
10
-212.4050945605
20
294.9110441835
30
0.0000000000
10
-212.4050945557
20
294.8756997273
30
0.0000000000
10
-212.4050945598
20
294.8280588796
30
0.0000000000
10
-212.4050945640
20
294.7651240208
30
0.0000000000
10
-212.4050945499
20
294.7177428372
30
0.0000000000
10
-212.4050945588
20
294.6909759797
30
0.0000000000
11
-212.4050945588
21
294.9391528989
31
0.0000000000
11
-212.4050945590
21
294.9141990953
31
0.0000000000
11
-212.4050945573
21
294.8797805562
31
0.0000000000
11
-212.4050945592
21
294.8331195304
31
0.0000000000
11
-212.4050945603
21
294.7712765522
31
0.0000000000
11
-212.4050945588
21
294.6909759797
31
0.0000000000
0
SPLINE
5
323
100
AcDbEntity
8
0
100
AcDbSpline
62
9
6
CONTINUOUS
70
0
71
3
72
14
73
10
74
8
42
0.0000001000
43
0.0000001000
44
0.0000000001
12
-0.1022860762
22
0.0124369244
32
0.0000000000
13
0.0002474778
23
-0.1030391053
33
0.0000000000
40
0.0000000000
40
0.0000000000
40
0.0000000000
40
0.0000000000
40
0.1614060718
40
0.3347621391
40
0.5142394507
40
0.6893348921
40
0.8429827303
40
0.9520038950
40
1.0000000000
40
1.0000000000
40
1.0000000000
40
1.0000000000
10
-212.3033795192
20
294.9391528989
30
0.0000000000
10
-212.3088827172
20
294.9398220306
30
0.0000000000
10
-212.3203133803
20
294.9410980816
30
0.0000000000
10
-212.3378903704
20
294.9426967105
30
0.0000000000
10
-212.3560436690
20
294.9438517995
30
0.0000000000
10
-212.3732969639
20
294.9444673958
30
0.0000000000
10
-212.3889299615
20
294.9439534936
30
0.0000000000
10
-212.3982630053
20
294.9432282444
30
0.0000000000
10
-212.4050985181
20
294.9408013908
30
0.0000000000
10
-212.4050945588
20
294.9391528989
30
0.0000000000
11
-212.3033795192
21
294.9391528989
31
0.0000000000
11
-212.3199080584
21
294.9409978145
31
0.0000000000
11
-212.3376986315
21
294.9425992561
31
0.0000000000
11
-212.3561546026
21
294.9437726573
31
0.0000000000
11
-212.3741894503
21
294.9442709322
31
0.0000000000
11
-212.3900141304
21
294.9437967968
31
0.0000000000
11
-212.4011175745
21
294.9420925360
31
0.0000000000
11
-212.4050945588
21
294.9391528989
31
0.0000000000
0
SPLINE
5
324
100
AcDbEntity
8
0
100
AcDbSpline
62
9
6
CONTINUOUS
70
0
71
3
72
10
73
6
74
4
42
0.0000001000
43
0.0000001000
44
0.0000000001
12
-0.0000000011
22
-0.0084211513
32
0.0000000000
13
-0.0000000040
23
-0.0084211513
33
0.0000000000
40
0.0000000000
40
0.0000000000
40
0.0000000000
40
0.0000000000
40
0.1109954972
40
0.4447521893
40
1.0000000000
40
1.0000000000
40
1.0000000000
40
1.0000000000
10
-210.8793689652
20
294.6157546367
30
0.0000000000
10
-210.8793689652
20
294.6154430667
30
0.0000000000
10
-210.8793689654
20
294.6141946249
30
0.0000000000
10
-210.8793689659
20
294.6113875744
30
0.0000000000
10
-210.8793689644
20
294.6088920939
30
0.0000000000
10
-210.8793689652
20
294.6073334853
30
0.0000000000
11
-210.8793689652
21
294.6157546367
31
0.0000000000
11
-210.8793689653
21
294.6148199268
31
0.0000000000
11
-210.8793689655
21
294.6120093112
31
0.0000000000
11
-210.8793689652
21
294.6073334853
31
0.0000000000
0
SPLINE
5
325
100
AcDbEntity
8
0
100
AcDbSpline
62
9
6
CONTINUOUS
70
0
71
3
72
12
73
8
74
6
42
0.0000001000
43
0.0000001000
44
0.0000000001
12
-1.0911187217
22
0.3562227291
32
0.0000000000
13
-1.1394049461
23
0.1385318241
33
0.0000000000
40
0.0000000000
40
0.0000000000
40
0.0000000000
40
0.0000000000
40
0.2220767843
40
0.4263822369
40
0.6251590283
40
0.8222368415
40
1.0000000000
40
1.0000000000
40
1.0000000000
40
1.0000000000
10
-211.1845140839
20
294.6909759797
30
0.0000000000
10
-211.2652847962
20
294.7173455791
30
0.0000000000
10
-211.4214786418
20
294.7646305241
30
0.0000000000
10
-211.6531373902
20
294.8243941458
30
0.0000000000
10
-211.8776130614
20
294.8730056068
30
0.0000000000
10
-212.0937873838
20
294.9111714187
30
0.0000000000
10
-212.2358647786
20
294.9309442807
30
0.0000000000
10
-212.3033795192
20
294.9391528989
30
0.0000000000
11
-211.1845140839
21
294.6909759797
31
0.0000000000
11
-211.4284786826
21
294.7648315703
31
0.0000000000
11
-211.6555450724
21
294.8234107882
31
0.0000000000
11
-211.8785314928
21
294.8716996732
31
0.0000000000
11
-212.1012914374
21
294.9110281450
31
0.0000000000
11
-212.3033795192
21
294.9391528989
31
0.0000000000
0
SPLINE
5
326
100
AcDbEntity
8
0
100
AcDbSpline
62
9
6
CONTINUOUS
70
0
71
3
72
10
73
6
74
4
42
0.0000001000
43
0.0000001000
44
0.0000000001
12
0.0000305523
22
-0.0705416368
32
0.0000000000
13
-0.0710873922
23
0.0193144344
33
0.0000000000
40
0.0000000000
40
0.0000000000
40
0.0000000000
40
0.0000000000
40
0.1406318942
40
0.5591741542
40
1.0000000000
40
1.0000000000
40
1.0000000000
40
1.0000000000
10
-210.8793689652
20
294.6073334853
30
0.0000000000
10
-210.8793675329
20
294.6040266840
30
0.0000000000
10
-210.9004624278
20
294.6091463170
30
0.0000000000
10
-210.9173368337
20
294.6112582694
30
0.0000000000
10
-210.9371650777
20
294.6163105618
30
0.0000000000
10
-210.9476107976
20
294.6191486624
30
0.0000000000
11
-210.8793689652
21
294.6073334853
31
0.0000000000
11
-210.8892407704
21
294.6063527228
31
0.0000000000
11
-210.9182243723
21
294.6119791162
31
0.0000000000
11
-210.9476107976
21
294.6191486624
31
0.0000000000
0
SPLINE
5
327
100
AcDbEntity
8
0
100
AcDbSpline
62
9
6
CONTINUOUS
70
0
71
3
72
11
73
7
74
5
42
0.0000001000
43
0.0000001000
44
0.0000000001
12
-0.2486304027
22
0.0675528451
32
0.0000000000
13
-0.2345404016
23
0.0765660645
33
0.0000000000
40
0.0000000000
40
0.0000000000
40
0.0000000000
40
0.0000000000
40
0.0697732047
40
0.3340318270
40
0.6507837916
40
1.0000000000
40
1.0000000000
40
1.0000000000
40
1.0000000000
10
-210.9476107976
20
294.6191486624
30
0.0000000000
10
-210.9533933776
20
294.6207197886
30
0.0000000000
10
-210.9814796248
20
294.6286029619
30
0.0000000000
10
-211.0314171944
20
294.6427478651
30
0.0000000000
10
-211.1052118288
20
294.6654404808
30
0.0000000000
10
-211.1572123140
20
294.6820632761
30
0.0000000000
10
-211.1845140839
20
294.6909759797
30
0.0000000000
11
-210.9476107976
21
294.6191486624
31
0.0000000000
11
-210.9650197022
21
294.6239859136
31
0.0000000000
11
-211.0277010680
21
294.6419265664
31
0.0000000000
11
-211.1024485539
21
294.6647337405
31
0.0000000000
11
-211.1845140839
21
294.6909759797
31
0.0000000000
0
SPLINE
5
328
100
AcDbEntity
8
0
100
AcDbSpline
62
9
6
CONTINUOUS
70
0
71
3
72
9
73
5
74
3
42
0.0000001000
43
0.0000001000
44
0.0000000001
12
-0.0385583277
22
0.0148674323
32
0.0000000000
13
-0.0415816152
23
-0.0019562143
33
0.0000000000
40
0.0000000000
40
0.0000000000
40
0.0000000000
40
0.0000000000
40
0.9326375344
40
1.0000000000
40
1.0000000000
40
1.0000000000
40
1.0000000000
10
-210.8793720363
20
294.6073255447
30
0.0000000000
10
-210.8913590175
20
294.6119475198
30
0.0000000000
10
-210.9053266675
20
294.6144187349
30
0.0000000000
10
-210.9191987373
20
294.6139626377
30
0.0000000000
10
-210.9201324173
20
294.6139187125
30
0.0000000000
11
-210.8793720363
21
294.6073255447
31
0.0000000000
11
-210.9173293899
21
294.6140108021
31
0.0000000000
11
-210.9201324173
21
294.6139187125
31
0.0000000000
0
SPLINE
5
329
100
AcDbEntity
8
0
100
AcDbSpline
62
9
6
CONTINUOUS
70
0
71
3
72
11
73
7
74
5
42
0.0000001000
43
0.0000001000
44
0.0000000001
12
-0.1364282044
22
0.0140105337
32
0.0000000000
13
-0.0395342535
23
-0.1327328489
33
0.0000000000
40
0.0000000000
40
0.0000000000
40
0.0000000000
40
0.0000000000
40
0.3028818956
40
0.6052345461
40
0.9066924769
40
1.0000000000
40
1.0000000000
40
1.0000000000
40
1.0000000000
10
-212.4050945603
20
294.9391528851
30
0.0000000000
10
-212.4188684380
20
294.9405673974
30
0.0000000000
10
-212.4473283576
20
294.9375947982
30
0.0000000000
10
-212.4842800009
20
294.9163409410
30
0.0000000000
10
-212.5036755559
20
294.8899059106
30
0.0000000000
10
-212.5100102024
20
294.8727710554
30
0.0000000000
10
-212.5112398168
20
294.8686427310
30
0.0000000000
11
-212.4050945603
21
294.9391528851
31
0.0000000000
11
-212.4464030867
21
294.9347836042
31
0.0000000000
11
-212.4823585784
21
294.9141277878
31
0.0000000000
11
-212.5067559547
21
294.8807501486
31
0.0000000000
11
-212.5112398168
21
294.8686427310
31
0.0000000000
0
SPLINE
5
32A
100
AcDbEntity
8
0
100
AcDbSpline
62
9
6
CONTINUOUS
70
0
71
3
72
8
73
4
74
2
42
0.0000001000
43
0.0000001000
44
0.0000000001
12
-0.0033860998
22
-0.0113685382
32
0.0000000000
13
-0.0020145149
23
-0.0116653788
33
0.0000000000
40
0.0000000000
40
0.0000000000
40
0.0000000000
40
0.0000000000
40
1.0000000000
40
1.0000000000
40
1.0000000000
40
1.0000000000
10
-212.5112398168
20
294.8686427310
30
0.0000000000
10
-212.5123685167
20
294.8648532182
30
0.0000000000
10
-212.5132716919
20
294.8609977328
30
0.0000000000
10
-212.5139431969
20
294.8571092732
30
0.0000000000
11
-212.5112398168
21
294.8686427310
31
0.0000000000
11
-212.5139431969
21
294.8571092732
31
0.0000000000
0
SPLINE
5
32B
100
AcDbEntity
8
0
100
AcDbSpline
62
9
6
CONTINUOUS
70
0
71
3
72
8
73
4
74
2
42
0.0000001000
43
0.0000001000
44
0.0000000001
12
-0.0006855855
22
-0.0039699952
32
0.0000000000
13
-0.0005238670
23
-0.0039890075
33
0.0000000000
40
0.0000000000
40
0.0000000000
40
0.0000000000
40
0.0000000000
40
1.0000000000
40
1.0000000000
40
1.0000000000
40
1.0000000000
10
-212.5139431969
20
294.8571092732
30
0.0000000000
10
-212.5141717254
20
294.8557859414
30
0.0000000000
10
-212.5143734219
20
294.8544587907
30
0.0000000000
10
-212.5145480442
20
294.8531291215
30
0.0000000000
11
-212.5139431969
21
294.8571092732
31
0.0000000000
11
-212.5145480442
21
294.8531291215
31
0.0000000000
0
SPLINE
5
32C
100
AcDbEntity
8
0
100
AcDbSpline
62
9
6
CONTINUOUS
70
0
71
3
72
8
73
4
74
2
42
0.0000001000
43
0.0000001000
44
0.0000000001
12
-0.0016657154
22
-0.0126836605
32
0.0000000000
13
-0.0000000018
23
-0.0127109900
33
0.0000000000
40
0.0000000000
40
0.0000000000
40
0.0000000000
40
0.0000000000
40
1.0000000000
40
1.0000000000
40
1.0000000000
40
1.0000000000
10
-212.5145480442
20
294.8531291215
30
0.0000000000
10
-212.5151032827
20
294.8489012347
30
0.0000000000
10
-212.5153847957
20
294.8446478866
30
0.0000000000
10
-212.5153847963
20
294.8404108899
30
0.0000000000
11
-212.5145480442
21
294.8531291215
31
0.0000000000
11
-212.5153847963
21
294.8404108899
31
0.0000000000
0
SPLINE
5
32D
100
AcDbEntity
8
0
100
AcDbSpline
62
9
6
CONTINUOUS
70
0
71
3
72
10
73
6
74
4
42
0.0000001000
43
0.0000001000
44
0.0000000001
12
-0.1210365973
22
0.0119148569
32
0.0000000000
13
-0.0533106822
23
-0.1105467502
33
0.0000000000
40
0.0000000000
40
0.0000000000
40
0.0000000000
40
0.0000000000
40
0.3413955304
40
0.6788235121
40
1.0000000000
40
1.0000000000
40
1.0000000000
40
1.0000000000
10
-212.4050950374
20
294.6909715863
30
0.0000000000
10
-212.4188688219
20
294.6923274793
30
0.0000000000
10
-212.4471099464
20
294.6895262273
30
0.0000000000
10
-212.4836464387
20
294.6695633622
30
0.0000000000
10
-212.5005575578
20
294.6479321280
30
0.0000000000
10
-212.5062649371
20
294.6360971223
30
0.0000000000
11
-212.4050950374
21
294.6909715863
31
0.0000000000
11
-212.4464051046
21
294.6867908448
31
0.0000000000
11
-212.4823628883
21
294.6670120747
31
0.0000000000
11
-212.5062649371
21
294.6360971223
31
0.0000000000
0
SPLINE
5
32E
100
AcDbEntity
8
0
100
AcDbSpline
62
9
6
CONTINUOUS
70
0
71
3
72
10
73
6
74
4
42
0.0000001000
43
0.0000001000
44
0.0000000001
12
0.1210105791
22
0.0119005592
32
0.0000000000
13
0.0533247757
23
-0.1105085263
33
0.0000000000
40
0.0000000000
40
0.0000000000
40
0.0000000000
40
0.0000000000
40
0.3414622253
40
0.6789559621
40
1.0000000000
40
1.0000000000
40
1.0000000000
40
1.0000000000
10
-213.6256750265
20
294.6909759133
30
0.0000000000
10
-213.6119015126
20
294.6923304438
30
0.0000000000
10
-213.5836615486
20
294.6895269035
30
0.0000000000
10
-213.5471346166
20
294.6695662735
30
0.0000000000
10
-213.5302278059
20
294.6479440015
30
0.0000000000
10
-213.5245212722
20
294.6361179670
30
0.0000000000
11
-213.6256750265
21
294.6909759133
31
0.0000000000
11
-213.5843665150
21
294.6867917995
31
0.0000000000
11
-213.5484110328
21
294.6670113644
31
0.0000000000
11
-213.5245212722
21
294.6361179670
31
0.0000000000
0
SPLINE
5
32F
100
AcDbEntity
8
0
100
AcDbSpline
62
9
6
CONTINUOUS
70
0
71
3
72
11
73
7
74
5
42
0.0000001000
43
0.0000001000
44
0.0000000001
12
0.1647257712
22
0.0169074676
32
0.0000000000
13
0.0000024998
23
-0.1655911898
33
0.0000000000
40
0.0000000000
40
0.0000000000
40
0.0000000000
40
0.0000000000
40
0.2508328946
40
0.5012304873
40
0.7508912799
40
1.0000000000
40
1.0000000000
40
1.0000000000
40
1.0000000000
10
-213.6256750236
20
294.9391528014
30
0.0000000000
10
-213.6119021429
20
294.9405664511
30
0.0000000000
10
-213.5834444387
20
294.9375924677
30
0.0000000000
10
-213.5464963599
20
294.9163380409
30
0.0000000000
10
-213.5213307823
20
294.8820362395
30
0.0000000000
10
-213.5153945437
20
294.8541609594
30
0.0000000000
10
-213.5153943362
20
294.8404108896
30
0.0000000000
11
-213.6256750236
21
294.9391528014
31
0.0000000000
11
-213.5843699580
21
294.9347816021
31
0.0000000000
11
-213.5484178675
21
294.9141253624
31
0.0000000000
11
-213.5240227607
21
294.8807485899
31
0.0000000000
11
-213.5153943362
21
294.8404108896
31
0.0000000000
0
SPLINE
5
330
100
AcDbEntity
8
0
100
AcDbSpline
62
9
6
CONTINUOUS
70
0
71
3
72
9
73
5
74
3
42
0.0000001000
43
0.0000001000
44
0.0000000001
12
0.0385822683
22
0.0148726601
32
0.0000000000
13
0.0416051680
23
-0.0019714101
33
0.0000000000
40
0.0000000000
40
0.0000000000
40
0.0000000000
40
0.0000000000
40
0.9320597385
40
1.0000000000
40
1.0000000000
40
1.0000000000
40
1.0000000000
10
-215.1514006255
20
294.6073334803
30
0.0000000000
10
-215.1394136325
20
294.6119542162
30
0.0000000000
10
-215.1254376163
20
294.6144257225
30
0.0000000000
10
-215.1115575206
20
294.6139664622
30
0.0000000000
10
-215.1106152986
20
294.6139218162
30
0.0000000000
11
-215.1514006255
21
294.6073334803
31
0.0000000000
11
-215.1134439980
21
294.6140153387
31
0.0000000000
11
-215.1106152986
21
294.6139218162
31
0.0000000000
0
SPLINE
5
331
100
AcDbEntity
8
0
100
AcDbSpline
62
7
6
CONTINUOUS
70
0
71
3
72
16
73
12
74
10
42
0.0000001000
43
0.0000001000
44
0.0000000001
12
0.0289744044
22
-0.2588793067
32
0.0000000000
13
0.2571086795
23
0.0312684163
33
0.0000000000
40
0.0000000000
40
0.0000000000
40
0.0000000000
40
0.0000000000
40
0.0950980898
40
0.2223386279
40
0.3380988178
40
0.4476222810
40
0.5468622451
40
0.6466093114
40
0.7654231273
40
0.9093720201
40
1.0000000000
40
1.0000000000
40
1.0000000000
40
1.0000000000
10
-212.5147462274
20
-472.8240950956
30
0.0000000000
10
-212.5138277573
20
-472.8323014048
30
0.0000000000
10
-212.5093499936
20
-472.8512983414
30
0.0000000000
10
-212.4946301858
20
-472.8770627129
30
0.0000000000
10
-212.4719082795
20
-472.8979623564
30
0.0000000000
10
-212.4465395287
20
-472.9106238462
30
0.0000000000
10
-212.4203946052
20
-472.9165459785
30
0.0000000000
10
-212.3929560707
20
-472.9182549682
30
0.0000000000
10
-212.3616504400
20
-472.9175785269
30
0.0000000000
10
-212.3312180326
20
-472.9152933697
30
0.0000000000
10
-212.3110823343
20
-472.9131031865
30
0.0000000000
10
-212.3033152542
20
-472.9121585887
30
0.0000000000
11
-212.5147462274
21
-472.8240950956
31
0.0000000000
11
-212.5090456225
21
-472.8481762959
31
0.0000000000
11
-212.4927366918
21
-472.8768103816
31
0.0000000000
11
-212.4706903479
21
-472.8971263912
31
0.0000000000
11
-212.4453579430
21
-472.9098862364
31
0.0000000000
11
-212.4203587309
21
-472.9158523260
31
0.0000000000
11
-212.3946013936
21
-472.9178226903
31
0.0000000000
11
-212.3638340869
21
-472.9173782769
31
0.0000000000
11
-212.3266507542
21
-472.9146950239
31
0.0000000000
11
-212.3033152542
21
-472.9121585887
31
0.0000000000
0
SPLINE
5
332
100
AcDbEntity
8
0
100
AcDbSpline
62
7
6
CONTINUOUS
70
0
71
3
72
17
73
13
74
11
42
0.0000001000
43
0.0000001000
44
0.0000000001
12
0.2409615793
22
0.0786737289
32
0.0000000000
13
0.2508541122
23
0.0616341786
33
0.0000000000
40
0.0000000000
40
0.0000000000
40
0.0000000000
40
0.0000000000
40
0.1257174119
40
0.2559316030
40
0.3801033766
40
0.4973284206
40
0.6067933816
40
0.7076507114
40
0.7992778858
40
0.8810031933
40
0.9522887015
40
1.0000000000
40
1.0000000000
40
1.0000000000
40
1.0000000000
10
-211.1843503534
20
-472.6639546061
30
0.0000000000
10
-211.1742526647
20
-472.6606577203
30
0.0000000000
10
-211.1536803782
20
-472.6539941973
30
0.0000000000
10
-211.1230805747
20
-472.6442420874
30
0.0000000000
10
-211.0931179333
20
-472.6348543211
30
0.0000000000
10
-211.0647832126
20
-472.6261382180
30
0.0000000000
10
-211.0382841896
20
-472.6181477688
30
0.0000000000
10
-211.0138162005
20
-472.6109427084
30
0.0000000000
10
-210.9915240779
20
-472.6045566910
30
0.0000000000
10
-210.9716713142
20
-472.5990270652
30
0.0000000000
10
-210.9551059976
20
-472.5946349011
30
0.0000000000
10
-210.9456809956
20
-472.5921877163
30
0.0000000000
10
-210.9416914705
20
-472.5912075008
30
0.0000000000
11
-211.1843503534
21
-472.6639546061
31
0.0000000000
11
-211.1540343086
21
-472.6541347359
31
0.0000000000
11
-211.1225857949
21
-472.6441133299
31
0.0000000000
11
-211.0925496203
21
-472.6347056800
31
0.0000000000
11
-211.0641478075
21
-472.6259725505
31
0.0000000000
11
-211.0375802981
21
-472.6179681528
31
0.0000000000
11
-211.0130543790
21
-472.6107527419
31
0.0000000000
11
-210.9907260838
21
-472.6043592875
31
0.0000000000
11
-210.9707640004
21
-472.5988225846
31
0.0000000000
11
-210.9533024321
21
-472.5941752821
31
0.0000000000
11
-210.9416914705
21
-472.5912075008
31
0.0000000000
0
SPLINE
5
333
100
AcDbEntity
8
0
100
AcDbSpline
62
7
6
CONTINUOUS
70
0
71
3
72
11
73
7
74
5
42
0.0000001000
43
0.0000001000
44
0.0000000001
12
0.0254898087
22
0.0062627772
32
0.0000000000
13
0.0387715112
23
0.0062176843
33
0.0000000000
40
0.0000000000
40
0.0000000000
40
0.0000000000
40
0.0000000000
40
0.1248469644
40
0.5993276583
40
0.9394943737
40
1.0000000000
40
1.0000000000
40
1.0000000000
40
1.0000000000
10
-210.9416914705
20
-472.5912075008
30
0.0000000000
10
-210.9406306954
20
-472.5909468712
30
0.0000000000
10
-210.9354669695
20
-472.5896960497
30
0.0000000000
10
-210.9266483329
20
-472.5877213294
30
0.0000000000
10
-210.9221551947
20
-472.5864804729
30
0.0000000000
10
-210.9163095996
20
-472.5855536301
30
0.0000000000
10
-210.9155276347
20
-472.5854282285
30
0.0000000000
11
-210.9416914705
21
-472.5912075008
31
0.0000000000
11
-210.9384593223
21
-472.5904253633
31
0.0000000000
11
-210.9265627732
21
-472.5876280486
31
0.0000000000
11
-210.9179886958
21
-472.5858253749
31
0.0000000000
11
-210.9155276347
21
-472.5854282285
31
0.0000000000
0
SPLINE
5
334
100
AcDbEntity
8
0
100
AcDbSpline
62
7
6
CONTINUOUS
70
0
71
3
72
10
73
6
74
4
42
0.0000001000
43
0.0000001000
44
0.0000000001
12
1.1394054503
22
0.1385357645
32
0.0000000000
13
1.0911165306
23
0.3562186596
33
0.0000000000
40
0.0000000000
40
0.0000000000
40
0.0000000000
40
0.0000000000
40
0.3242326341
40
0.6737101514
40
1.0000000000
40
1.0000000000
40
1.0000000000
40
1.0000000000
10
-212.3033154566
20
-472.9121569190
30
0.0000000000
10
-212.1801713131
20
-472.8971843137
30
0.0000000000
10
-211.9252023473
20
-472.8579899307
30
0.0000000000
10
-211.5514236952
20
-472.7751601639
30
0.0000000000
10
-211.3030227677
20
-472.7027011854
30
0.0000000000
10
-211.1843493518
20
-472.6639576745
30
0.0000000000
11
-212.3033154566
21
-472.9121569190
31
0.0000000000
11
-211.9354861017
21
-472.8556117313
31
0.0000000000
11
-211.5438763196
21
-472.7688305197
31
0.0000000000
11
-211.1843493518
21
-472.6639576745
31
0.0000000000
0
SPLINE
5
335
100
AcDbEntity
8
0
100
AcDbSpline
62
7
6
CONTINUOUS
70
0
71
3
72
8
73
4
74
2
42
0.0000001000
43
0.0000001000
44
0.0000000001
12
0.0000045224
22
-0.0112105483
32
0.0000000000
13
0.0012537431
23
-0.0111931650
33
0.0000000000
40
0.0000000000
40
0.0000000000
40
0.0000000000
40
0.0000000000
40
1.0000000000
40
1.0000000000
40
1.0000000000
40
1.0000000000
10
-212.5153748061
20
-472.8128790880
30
0.0000000000
10
-212.5153732986
20
-472.8166159375
30
0.0000000000
10
-212.5151614553
20
-472.8203637392
30
0.0000000000
10
-212.5147435409
20
-472.8240947942
30
0.0000000000
11
-212.5153748061
21
-472.8128790880
31
0.0000000000
11
-212.5147435409
21
-472.8240947942
31
0.0000000000
0
SPLINE
5
336
100
AcDbEntity
8
0
100
AcDbSpline
62
7
6
CONTINUOUS
70
0
71
3
72
13
73
9
74
7
42
0.0000001000
43
0.0000001000
44
0.0000000001
12
0.0186732971
22
-0.1667114088
32
0.0000000000
13
0.1668252168
23
-0.0043654261
33
0.0000000000
40
0.0000000000
40
0.0000000000
40
0.0000000000
40
0.0000000000
40
0.1475633507
40
0.3441968187
40
0.5230475999
40
0.6926499719
40
0.8460445029
40
1.0000000000
40
1.0000000000
40
1.0000000000
40
1.0000000000
10
-212.5147435409
20
-472.8240947947
30
0.0000000000
10
-212.5138250428
20
-472.8322949594
30
0.0000000000
10
-212.5093608004
20
-472.8512334523
30
0.0000000000
10
-212.4947213882
20
-472.8769126733
30
0.0000000000
10
-212.4721515110
20
-472.8977806545
30
0.0000000000
10
-212.4469301703
20
-472.9104778556
30
0.0000000000
10
-212.4209200419
20
-472.9164712404
30
0.0000000000
10
-212.4038318043
20
-472.9175814191
30
0.0000000000
10
-212.3952705846
20
-472.9178054462
30
0.0000000000
11
-212.5147435409
21
-472.8240947947
31
0.0000000000
11
-212.5090471154
21
-472.8481585491
31
0.0000000000
11
-212.4928420495
21
-472.8766724196
31
0.0000000000
11
-212.4709560661
21
-472.8969429048
31
0.0000000000
11
-212.4457347145
21
-472.9097538030
31
0.0000000000
11
-212.4208691302
21
-472.9157787048
31
0.0000000000
11
-212.3952705846
21
-472.9178054462
31
0.0000000000
0
SPLINE
5
337
100
AcDbEntity
8
0
100
AcDbSpline
62
7
6
CONTINUOUS
70
0
71
3
72
8
73
4
74
2
42
0.0000001000
43
0.0000001000
44
0.0000000001
12
0.0304850193
22
-0.0007977217
32
0.0000000000
13
0.0304535634
23
0.0013443544
33
0.0000000000
40
0.0000000000
40
0.0000000000
40
0.0000000000
40
0.0000000000
40
1.0000000000
40
1.0000000000
40
1.0000000000
40
1.0000000000
10
-212.3952705846
20
-472.9178054462
30
0.0000000000
10
-212.3851089115
20
-472.9180713534
30
0.0000000000
10
-212.3749451161
20
-472.9178694224
30
0.0000000000
10
-212.3647939283
20
-472.9174213042
30
0.0000000000
11
-212.3952705846
21
-472.9178054462
31
0.0000000000
11
-212.3647939283
21
-472.9174213042
31
0.0000000000
0
SPLINE
5
338
100
AcDbEntity
8
0
100
AcDbSpline
62
7
6
CONTINUOUS
70
0
71
3
72
9
73
5
74
3
42
0.0000001000
43
0.0000001000
44
0.0000000001
12
0.0616600254
22
0.0027219451
32
0.0000000000
13
0.0612650701
23
0.0074519145
33
0.0000000000
40
0.0000000000
40
0.0000000000
40
0.0000000000
40
0.0000000000
40
0.5991729697
40
1.0000000000
40
1.0000000000
40
1.0000000000
40
1.0000000000
10
-212.3647939283
20
-472.9174213042
30
0.0000000000
10
-212.3524789214
20
-472.9168776656
30
0.0000000000
10
-212.3319565478
20
-472.9153656384
30
0.0000000000
10
-212.3115008501
20
-472.9131539780
30
0.0000000000
10
-212.3033152847
20
-472.9121583351
30
0.0000000000
11
-212.3647939283
21
-472.9174213042
31
0.0000000000
11
-212.3279099556
21
-472.9148145599
31
0.0000000000
11
-212.3033152847
21
-472.9121583351
31
0.0000000000
0
SPLINE
5
339
100
AcDbEntity
8
0
100
AcDbSpline
62
7
6
CONTINUOUS
70
0
71
3
72
8
73
4
74
2
42
0.0000001000
43
0.0000001000
44
0.0000000001
12
0.0133589662
22
0.0007428716
32
0.0000000000
13
0.0133765972
23
0.0005137226
33
0.0000000000
40
0.0000000000
40
0.0000000000
40
0.0000000000
40
0.0000000000
40
1.0000000000
40
1.0000000000
40
1.0000000000
40
1.0000000000
10
-212.7098706281
20
-472.5864945393
30
0.0000000000
10
-212.7054176394
20
-472.5862469155
30
0.0000000000
10
-212.7009617563
20
-472.5860370306
30
0.0000000000
10
-212.6965028906
20
-472.5858657897
30
0.0000000000
11
-212.7098706281
21
-472.5864945393
31
0.0000000000
11
-212.6965028906
21
-472.5858657897
31
0.0000000000
0
SPLINE
5
33A
100
AcDbEntity
8
0
100
AcDbSpline
62
7
6
CONTINUOUS
70
0
71
3
72
8
73
4
74
2
42
0.0000001000
43
0.0000001000
44
0.0000000001
12
0.0214403505
22
0.0008234077
32
0.0000000000
13
0.0214874159
23
0.0002165578
33
0.0000000000
40
0.0000000000
40
0.0000000000
40
0.0000000000
40
0.0000000000
40
1.0000000000
40
1.0000000000
40
1.0000000000
40
1.0000000000
10
-212.6965028906
20
-472.5858657897
30
0.0000000000
10
-212.6893561071
20
-472.5855913204
30
0.0000000000
10
-212.6822016611
20
-472.5854161296
30
0.0000000000
10
-212.6750391891
20
-472.5853439436
30
0.0000000000
11
-212.6965028906
21
-472.5858657897
31
0.0000000000
11
-212.6750391891
21
-472.5853439436
31
0.0000000000
0
SPLINE
5
33B
100
AcDbEntity
8
0
100
AcDbSpline
62
7
6
CONTINUOUS
70
0
71
3
72
11
73
7
74
5
42
0.0000001000
43
0.0000001000
44
0.0000000001
12
0.1625355335
22
0.0016380908
32
0.0000000000
13
0.1430045884
23
-0.0452983136
33
0.0000000000
40
0.0000000000
40
0.0000000000
40
0.0000000000
40
0.0000000000
40
0.3921400466
40
0.7167710143
40
0.9507098624
40
1.0000000000
40
1.0000000000
40
1.0000000000
40
1.0000000000
10
-212.6750391891
20
-472.5853439436
30
0.0000000000
10
-212.6537936252
20
-472.5851298233
30
0.0000000000
10
-212.6148309628
20
-472.5863950078
30
0.0000000000
10
-212.5644637409
20
-472.5917314128
30
0.0000000000
10
-212.5307901646
20
-472.6004124375
30
0.0000000000
10
-212.5176215058
20
-472.6038721621
30
0.0000000000
10
-212.5152719339
20
-472.6046164154
30
0.0000000000
11
-212.6750391891
21
-472.5853439436
31
0.0000000000
11
-212.6114573359
21
-472.5873396980
31
0.0000000000
11
-212.5592027274
21
-472.5938759052
31
0.0000000000
11
-212.5222813327
21
-472.6026502533
31
0.0000000000
11
-212.5152719339
21
-472.6046164154
31
0.0000000000
0
SPLINE
5
33C
100
AcDbEntity
8
0
100
AcDbSpline
62
7
6
CONTINUOUS
70
0
71
3
72
9
73
5
74
3
42
0.0000001000
43
0.0000001000
44
0.0000000001
12
0.0148819146
22
-0.0047140140
32
0.0000000000
13
0.0133048910
23
-0.0072041476
33
0.0000000000
40
0.0000000000
40
0.0000000000
40
0.0000000000
40
0.0000000000
40
0.8019985287
40
1.0000000000
40
1.0000000000
40
1.0000000000
40
1.0000000000
10
-212.5152719339
20
-472.6046164154
30
0.0000000000
10
-212.5112935094
20
-472.6058766262
30
0.0000000000
10
-212.5061260966
20
-472.6079561805
30
0.0000000000
10
-212.4996879307
20
-472.6118761780
30
0.0000000000
10
-212.4988098014
20
-472.6123516553
30
0.0000000000
11
-212.5152719339
21
-472.6046164154
31
0.0000000000
11
-212.5021876440
21
-472.6103960012
31
0.0000000000
11
-212.4988098014
21
-472.6123516553
31
0.0000000000
0
SPLINE
5
33D
100
AcDbEntity
8
0
100
AcDbSpline
62
7
6
CONTINUOUS
70
0
71
3
72
10
73
6
74
4
42
0.0000001000
43
0.0000001000
44
0.0000000001
12
0.6103837428
22
-0.0337146206
32
0.0000000000
13
0.6103824095
23
0.0337146639
33
0.0000000000
40
0.0000000000
40
0.0000000000
40
0.0000000000
40
0.0000000000
40
0.3162379388
40
0.6798529955
40
1.0000000000
40
1.0000000000
40
1.0000000000
40
1.0000000000
10
-213.3209000345
20
-472.5865112299
30
0.0000000000
10
-213.2565578689
20
-472.5900651773
30
0.0000000000
10
-213.1180887979
20
-472.5952923487
30
0.0000000000
10
-212.9142740374
20
-472.5953362783
30
0.0000000000
10
-212.7750070671
20
-472.5901091348
30
0.0000000000
10
-212.7098697004
20
-472.5865112519
30
0.0000000000
11
-213.3209000345
21
-472.5865112299
31
0.0000000000
11
-213.1277177771
21
-472.5938035379
31
0.0000000000
11
-212.9054411416
21
-472.5938514765
31
0.0000000000
11
-212.7098697004
21
-472.5865112519
31
0.0000000000
0
SPLINE
5
33E
100
AcDbEntity
8
0
100
AcDbSpline
62
7
6
CONTINUOUS
70
0
71
3
72
8
73
4
74
2
42
0.0000001000
43
0.0000001000
44
0.0000000001
12
0.0008077267
22
0.0004121821
32
0.0000000000
13
0.0010839278
23
0.0006210744
33
0.0000000000
40
0.0000000000
40
0.0000000000
40
0.0000000000
40
0.0000000000
40
1.0000000000
40
1.0000000000
40
1.0000000000
40
1.0000000000
10
-213.5322691588
20
-472.6124886632
30
0.0000000000
10
-213.5319999165
20
-472.6123512691
30
0.0000000000
10
-213.5316742760
20
-472.6121703793
30
0.0000000000
10
-213.5313129668
20
-472.6119633545
30
0.0000000000
11
-213.5322691588
21
-472.6124886632
31
0.0000000000
11
-213.5313129668
21
-472.6119633545
31
0.0000000000
0
SPLINE
5
33F
100
AcDbEntity
8
0
100
AcDbSpline
62
7
6
CONTINUOUS
70
0
71
3
72
9
73
5
74
3
42
0.0000001000
43
0.0000001000
44
0.0000000001
12
0.0121376826
22
0.0061938472
32
0.0000000000
13
0.0153882528
23
0.0048368008
33
0.0000000000
40
0.0000000000
40
0.0000000000
40
0.0000000000
40
0.0000000000
40
0.1995516334
40
1.0000000000
40
1.0000000000
40
1.0000000000
40
1.0000000000
10
-213.5322691588
20
-472.6124886632
30
0.0000000000
10
-213.5314617940
20
-472.6120766657
30
0.0000000000
10
-213.5248745545
20
-472.6080521000
30
0.0000000000
10
-213.5195885354
20
-472.6059612069
30
0.0000000000
10
-213.5154827015
20
-472.6046706705
30
0.0000000000
11
-213.5322691588
21
-472.6124886632
31
0.0000000000
11
-213.5288846209
21
-472.6105474489
31
0.0000000000
11
-213.5154827015
21
-472.6046706705
31
0.0000000000
0
SPLINE
5
340
100
AcDbEntity
8
0
100
AcDbSpline
62
7
6
CONTINUOUS
70
0
71
3
72
11
73
7
74
5
42
0.0000001000
43
0.0000001000
44
0.0000000001
12
0.1401325979
22
0.0440425303
32
0.0000000000
13
0.1595286702
23
-0.0010276725
33
0.0000000000
40
0.0000000000
40
0.0000000000
40
0.0000000000
40
0.0000000000
40
0.0438216188
40
0.2774879323
40
0.6034667719
40
1.0000000000
40
1.0000000000
40
1.0000000000
40
1.0000000000
10
-213.5154807951
20
-472.6046700713
30
0.0000000000
10
-213.5134338493
20
-472.6040267330
30
0.0000000000
10
-213.5006692642
20
-472.6005557485
30
0.0000000000
10
-213.4679697026
20
-472.5920603418
30
0.0000000000
10
-213.4182295737
20
-472.5865566804
30
0.0000000000
10
-213.3796932085
20
-472.5851780849
30
0.0000000000
10
-213.3586070690
20
-472.5853139204
30
0.0000000000
11
-213.5154807951
21
-472.6046700713
31
0.0000000000
11
-213.5093455677
21
-472.6029195805
31
0.0000000000
11
-213.4731831304
21
-472.5941717741
31
0.0000000000
11
-213.4217061091
21
-472.5875286976
31
0.0000000000
11
-213.3586070690
21
-472.5853139204
31
0.0000000000
0
SPLINE
5
341
100
AcDbEntity
8
0
100
AcDbSpline
62
7
6
CONTINUOUS
70
0
71
3
72
8
73
4
74
2
42
0.0000001000
43
0.0000001000
44
0.0000000001
12
0.0243685226
22
-0.0001569803
32
0.0000000000
13
0.0243127067
23
-0.0009359260
33
0.0000000000
40
0.0000000000
40
0.0000000000
40
0.0000000000
40
0.0000000000
40
1.0000000000
40
1.0000000000
40
1.0000000000
40
1.0000000000
10
-213.3586070690
20
-472.5853139204
30
0.0000000000
10
-213.3504842281
20
-472.5853662471
30
0.0000000000
10
-213.3423708267
20
-472.5855510089
30
0.0000000000
10
-213.3342665911
20
-472.5858629843
30
0.0000000000
11
-213.3586070690
21
-472.5853139204
31
0.0000000000
11
-213.3342665911
21
-472.5858629843
31
0.0000000000
0
SPLINE
5
342
100
AcDbEntity
8
0
100
AcDbSpline
62
7
6
CONTINUOUS
70
0
71
3
72
8
73
4
74
2
42
0.0000001000
43
0.0000001000
44
0.0000000001
12
0.0133758724
22
-0.0005149088
32
0.0000000000
13
0.0133593634
23
-0.0007433272
33
0.0000000000
40
0.0000000000
40
0.0000000000
40
0.0000000000
40
0.0000000000
40
1.0000000000
40
1.0000000000
40
1.0000000000
40
1.0000000000
10
-213.3342665911
20
-472.5858629843
30
0.0000000000
10
-213.3298079670
20
-472.5860346205
30
0.0000000000
10
-213.3253521171
20
-472.5862447613
30
0.0000000000
10
-213.3208989960
20
-472.5864925370
30
0.0000000000
11
-213.3342665911
21
-472.5858629843
31
0.0000000000
11
-213.3208989960
21
-472.5864925370
31
0.0000000000
0
SPLINE
5
343
100
AcDbEntity
8
0
100
AcDbSpline
62
7
6
CONTINUOUS
70
0
71
3
72
9
73
5
74
3
42
0.0000001000
43
0.0000001000
44
0.0000000001
12
0.0603938318
22
-0.0073448720
32
0.0000000000
13
0.0607785955
23
-0.0027725077
33
0.0000000000
40
0.0000000000
40
0.0000000000
40
0.0000000000
40
0.0000000000
40
0.3869911088
40
1.0000000000
40
1.0000000000
40
1.0000000000
40
1.0000000000
10
-213.7274543396
20
-472.9121585991
30
0.0000000000
10
-213.7196637143
20
-472.9131060659
30
0.0000000000
10
-213.6995005125
20
-472.9152984614
30
0.0000000000
10
-213.6792721670
20
-472.9168155118
30
0.0000000000
10
-213.6668528938
20
-472.9173820358
30
0.0000000000
11
-213.7274543396
21
-472.9121585991
31
0.0000000000
11
-213.7040479986
21
-472.9147017999
31
0.0000000000
11
-213.6668528938
21
-472.9173820358
31
0.0000000000
0
SPLINE
5
344
100
AcDbEntity
8
0
100
AcDbSpline
62
7
6
CONTINUOUS
70
0
71
3
72
9
73
5
74
3
42
0.0000001000
43
0.0000001000
44
0.0000000001
12
0.0564442669
22
-0.0025747907
32
0.0000000000
13
0.0559810452
23
0.0080425123
33
0.0000000000
40
0.0000000000
40
0.0000000000
40
0.0000000000
40
0.0000000000
40
0.5438656546
40
1.0000000000
40
1.0000000000
40
1.0000000000
40
1.0000000000
10
-213.6668528938
20
-472.9173820358
30
0.0000000000
10
-213.6566201944
20
-472.9178488159
30
0.0000000000
10
-213.6377815757
20
-472.9182534190
30
0.0000000000
10
-213.6189473993
20
-472.9170786983
30
0.0000000000
10
-213.6104357735
20
-472.9158558763
30
0.0000000000
11
-213.6668528938
21
-472.9173820358
31
0.0000000000
11
-213.6361301530
21
-472.9178217674
31
0.0000000000
11
-213.6104357735
21
-472.9158558763
31
0.0000000000
0
SPLINE
5
345
100
AcDbEntity
8
0
100
AcDbSpline
62
7
6
CONTINUOUS
70
0
71
3
72
8
73
4
74
2
42
0.0000001000
43
0.0000001000
44
0.0000000001
12
0.0253563285
22
0.0036428149
32
0.0000000000
13
0.0242042291
23
0.0084543714
33
0.0000000000
40
0.0000000000
40
0.0000000000
40
0.0000000000
40
0.0000000000
40
1.0000000000
40
1.0000000000
40
1.0000000000
40
1.0000000000
10
-213.6104357735
20
-472.9158558763
30
0.0000000000
10
-213.6019836640
20
-472.9146416047
30
0.0000000000
10
-213.5936097385
20
-472.9127499153
30
0.0000000000
10
-213.5855416621
20
-472.9099317915
30
0.0000000000
11
-213.6104357735
21
-472.9158558763
31
0.0000000000
11
-213.5855416621
21
-472.9099317915
31
0.0000000000
0
SPLINE
5
346
100
AcDbEntity
8
0
100
AcDbSpline
62
7
6
CONTINUOUS
70
0
71
3
72
11
73
7
74
5
42
0.0000001000
43
0.0000001000
44
0.0000000001
12
0.1097795045
22
0.0383452287
32
0.0000000000
13
0.0129853403
23
0.1160160106
33
0.0000000000
40
0.0000000000
40
0.0000000000
40
0.0000000000
40
0.0000000000
40
0.2448027718
40
0.5034455926
40
0.7877064745
40
1.0000000000
40
1.0000000000
40
1.0000000000
40
1.0000000000
10
-213.5855416621
20
-472.9099317915
30
0.0000000000
10
-213.5765835531
20
-472.9068027854
30
0.0000000000
10
-213.5589363025
20
-472.8980190867
30
0.0000000000
10
-213.5361681534
20
-472.8771054713
30
0.0000000000
10
-213.5214250234
20
-472.8513185391
30
0.0000000000
10
-213.5169423171
20
-472.8323053541
30
0.0000000000
10
-213.5160234159
20
-472.8240955381
30
0.0000000000
11
-213.5855416621
21
-472.9099317915
31
0.0000000000
11
-213.5601533433
21
-472.8971769856
31
0.0000000000
11
-213.5380646850
21
-472.8768496654
31
0.0000000000
11
-213.5217278459
21
-472.8481867469
31
0.0000000000
11
-213.5160234159
21
-472.8240955381
31
0.0000000000
0
SPLINE
5
347
100
AcDbEntity
8
0
100
AcDbSpline
62
7
6
CONTINUOUS
70
0
71
3
72
8
73
4
74
2
42
0.0000001000
43
0.0000001000
44
0.0000000001
12
0.0012512757
22
0.0111793772
32
0.0000000000
13
0.0000054201
23
0.0111967750
33
0.0000000000
40
0.0000000000
40
0.0000000000
40
0.0000000000
40
0.0000000000
40
1.0000000000
40
1.0000000000
40
1.0000000000
40
1.0000000000
10
-213.5160234159
20
-472.8240955381
30
0.0000000000
10
-213.5156063239
20
-472.8203690791
30
0.0000000000
10
-213.5153947664
20
-472.8166259221
30
0.0000000000
10
-213.5153929597
20
-472.8128936637
30
0.0000000000
11
-213.5160234159
21
-472.8240955381
31
0.0000000000
11
-213.5153929597
21
-472.8128936637
31
0.0000000000
0
SPLINE
5
348
100
AcDbEntity
8
0
100
AcDbSpline
62
7
6
CONTINUOUS
70
0
71
3
72
10
73
6
74
4
42
0.0000001000
43
0.0000001000
44
0.0000000001
12
1.0911208316
22
-0.3562194201
32
0.0000000000
13
1.1394011973
23
-0.1385349433
33
0.0000000000
40
0.0000000000
40
0.0000000000
40
0.0000000000
40
0.0000000000
40
0.3242092501
40
0.6736871094
40
1.0000000000
40
1.0000000000
40
1.0000000000
40
1.0000000000
10
-214.8464202333
20
-472.6639576463
30
0.0000000000
10
-214.7285030778
20
-472.7024541899
30
0.0000000000
10
-214.4808832295
20
-472.7747398349
30
0.0000000000
10
-214.1071381175
20
-472.8577208276
30
0.0000000000
10
-213.8513879029
20
-472.8970883528
30
0.0000000000
10
-213.7274541368
20
-472.9121569320
30
0.0000000000
11
-214.8464202333
21
-472.6639576463
31
0.0000000000
11
-214.4892057734
21
-472.7682344185
31
0.0000000000
11
-214.0976307628
21
-472.8551742057
31
0.0000000000
11
-213.7274541368
21
-472.9121569320
31
0.0000000000
0
SPLINE
5
349
100
AcDbEntity
8
0
100
AcDbSpline
62
7
6
CONTINUOUS
70
0
71
3
72
8
73
4
74
2
42
0.0000001000
43
0.0000001000
44
0.0000000001
12
-0.0000338558
22
-0.0001072465
32
0.0000000000
13
0.0041573908
23
-0.0006697597
33
0.0000000000
40
0.0000000000
40
0.0000000000
40
0.0000000000
40
0.0000000000
40
1.0000000000
40
1.0000000000
40
1.0000000000
40
1.0000000000
10
-215.1174610512
20
-472.5850216263
30
0.0000000000
10
-215.1174723365
20
-472.5850573751
30
0.0000000000
10
-215.1162668480
20
-472.5852511037
30
0.0000000000
10
-215.1148810510
20
-472.5854743569
30
0.0000000000
11
-215.1174610512
21
-472.5850216263
31
0.0000000000
11
-215.1148810510
21
-472.5854743569
31
0.0000000000
0
SPLINE
5
34A
100
AcDbEntity
8
0
100
AcDbSpline
62
7
6
CONTINUOUS
70
0
71
3
72
11
73
7
74
5
42
0.0000001000
43
0.0000001000
44
0.0000000001
12
0.0393958244
22
-0.0063467055
32
0.0000000000
13
0.0252524804
23
-0.0062307611
33
0.0000000000
40
0.0000000000
40
0.0000000000
40
0.0000000000
40
0.0000000000
40
0.0437461442
40
0.3811931806
40
0.8487327780
40
1.0000000000
40
1.0000000000
40
1.0000000000
40
1.0000000000
10
-215.1148810510
20
-472.5854743569
30
0.0000000000
10
-215.1143065792
20
-472.5855669049
30
0.0000000000
10
-215.1090307753
20
-472.5864175560
30
0.0000000000
10
-215.1045282244
20
-472.5876222748
30
0.0000000000
10
-215.0956312377
20
-472.5896089766
30
0.0000000000
10
-215.0903437611
20
-472.5908920028
30
0.0000000000
10
-215.0890704703
20
-472.5912061728
30
0.0000000000
11
-215.1148810510
21
-472.5854743569
31
0.0000000000
11
-215.1131385150
21
-472.5857580710
31
0.0000000000
11
-215.1046526888
21
-472.5875307176
31
0.0000000000
11
-215.0929568860
21
-472.5902645764
31
0.0000000000
11
-215.0890704703
21
-472.5912061728
31
0.0000000000
0
SPLINE
5
34B
100
AcDbEntity
8
0
100
AcDbSpline
62
7
6
CONTINUOUS
70
0
71
3
72
18
73
14
74
12
42
0.0000001000
43
0.0000001000
44
0.0000000001
12
0.2491589938
22
-0.0614771357
32
0.0000000000
13
0.2409641088
23
-0.0786527443
33
0.0000000000
40
0.0000000000
40
0.0000000000
40
0.0000000000
40
0.0000000000
40
0.0441584266
40
0.1147243445
40
0.1955767258
40
0.2863024203
40
0.3862697342
40
0.4948207329
40
0.6111644276
40
0.7344498212
40
0.8637745550
40
0.9980510664
40
1.0000000000
40
1.0000000000
40
1.0000000000
40
1.0000000000
10
-215.0890704703
20
-472.5912061728
30
0.0000000000
10
-215.0854029805
20
-472.5921110840
30
0.0000000000
10
-215.0762893011
20
-472.5944735777
30
0.0000000000
10
-215.0601559320
20
-472.5987417222
30
0.0000000000
10
-215.0404980717
20
-472.6041998235
30
0.0000000000
10
-215.0184227572
20
-472.6105192020
30
0.0000000000
10
-214.9941702731
20
-472.6176466886
30
0.0000000000
10
-214.9678847253
20
-472.6255572648
30
0.0000000000
10
-214.9397646260
20
-472.6341989126
30
0.0000000000
10
-214.9100134505
20
-472.6435089378
30
0.0000000000
10
-214.8788649280
20
-472.6534250460
30
0.0000000000
10
-214.8575177184
20
-472.6603323821
30
0.0000000000
10
-214.8465757749
20
-472.6639034878
30
0.0000000000
10
-214.8464192338
20
-472.6639545841
30
0.0000000000
11
-215.0890704703
21
-472.5912061728
31
0.0000000000
11
-215.0783352416
21
-472.5939506902
31
0.0000000000
11
-215.0610475142
21
-472.5985408276
31
0.0000000000
11
-215.0412953223
21
-472.6040051298
31
0.0000000000
11
-215.0191848154
21
-472.6103277172
31
0.0000000000
11
-214.9948723137
21
-472.6174677490
31
0.0000000000
11
-214.9685231081
21
-472.6253920763
31
0.0000000000
11
-214.9403324049
21
-472.6340500145
31
0.0000000000
11
-214.9105080152
21
-472.6433804276
31
0.0000000000
11
-214.8792713469
21
-472.6533222959
31
0.0000000000
11
-214.8468888624
21
-472.6638013121
31
0.0000000000
11
-214.8464192338
21
-472.6639545841
31
0.0000000000
0
SPLINE
5
34C
100
AcDbEntity
8
0
100
AcDbSpline
62
7
6
CONTINUOUS
70
0
71
3
72
8
73
4
74
2
42
0.0000001000
43
0.0000001000
44
0.0000000001
12
-0.0000338947
22
-0.0001160309
32
0.0000000000
13
0.0042056179
23
-0.0006729367
33
0.0000000000
40
0.0000000000
40
0.0000000000
40
0.0000000000
40
0.0000000000
40
1.0000000000
40
1.0000000000
40
1.0000000000
40
1.0000000000
10
-215.1174555490
20
-472.5850324290
30
0.0000000000
10
-215.1174668472
20
-472.5850711059
30
0.0000000000
10
-215.1162847530
20
-472.5852617494
30
0.0000000000
10
-215.1148828804
20
-472.5854860616
30
0.0000000000
11
-215.1174555490
21
-472.5850324290
31
0.0000000000
11
-215.1148828804
21
-472.5854860616
31
0.0000000000
0
SPLINE
5
34D
100
AcDbEntity
8
0
100
AcDbSpline
62
7
6
CONTINUOUS
70
0
71
3
72
17
73
13
74
11
42
0.0000001000
43
0.0000001000
44
0.0000000001
12
0.2509708435
22
-0.0616478837
32
0.0000000000
13
0.2409606472
23
-0.0786734263
33
0.0000000000
40
0.0000000000
40
0.0000000000
40
0.0000000000
40
0.0000000000
40
0.0479700867
40
0.1192779108
40
0.2010034140
40
0.2926090716
40
0.3934274926
40
0.5028415426
40
0.6200107320
40
0.7441297324
40
0.8743023083
40
1.0000000000
40
1.0000000000
40
1.0000000000
40
1.0000000000
10
-215.0890782552
20
-472.5912076199
30
0.0000000000
10
-215.0850652241
20
-472.5921933713
30
0.0000000000
10
-215.0756186947
20
-472.5946465539
30
0.0000000000
10
-215.0590305505
20
-472.5990455681
30
0.0000000000
10
-215.0391779029
20
-472.6045758268
30
0.0000000000
10
-215.0168909200
20
-472.6109608921
30
0.0000000000
10
-214.9924321617
20
-472.6181636783
30
0.0000000000
10
-214.9659451133
20
-472.6261508227
30
0.0000000000
10
-214.9376234412
20
-472.6348631099
30
0.0000000000
10
-214.9076730636
20
-472.6442471518
30
0.0000000000
10
-214.8770825790
20
-472.6539963419
30
0.0000000000
10
-214.8565153049
20
-472.6606582501
30
0.0000000000
10
-214.8464192391
20
-472.6639546061
30
0.0000000000
11
-215.0890782552
21
-472.5912076199
31
0.0000000000
11
-215.0774027642
21
-472.5941920012
31
0.0000000000
11
-215.0599360032
21
-472.5988415151
31
0.0000000000
11
-215.0399741295
21
-472.6043788600
31
0.0000000000
11
-215.0176513091
21
-472.6107712952
31
0.0000000000
11
-214.9931350670
21
-472.6179843044
31
0.0000000000
11
-214.9665801047
21
-472.6259852411
31
0.0000000000
11
-214.9381919923
21
-472.6347143643
31
0.0000000000
11
-214.9081687337
21
-472.6441180894
31
0.0000000000
11
-214.8767304077
21
-472.6541363028
31
0.0000000000
11
-214.8464192391
21
-472.6639546061
31
0.0000000000
0
SPLINE
5
34E
100
AcDbEntity
8
0
100
AcDbSpline
62
7
6
CONTINUOUS
70
0
71
3
72
16
73
12
74
10
42
0.0000001000
43
0.0000001000
44
0.0000000001
12
0.2571082013
22
-0.0312732353
32
0.0000000000
13
0.0289956003
23
0.2588563033
33
0.0000000000
40
0.0000000000
40
0.0000000000
40
0.0000000000
40
0.0000000000
40
0.0957177787
40
0.2385228785
40
0.3560819468
40
0.4550440047
40
0.5535147798
40
0.6628920152
40
0.7781856162
40
0.9049357695
40
1.0000000000
40
1.0000000000
40
1.0000000000
40
1.0000000000
10
-213.7274543087
20
-472.9121583420
30
0.0000000000
10
-213.7192510334
20
-472.9131561435
30
0.0000000000
10
-213.6987748530
20
-472.9153694266
30
0.0000000000
10
-213.6681070272
20
-472.9176267766
30
0.0000000000
10
-213.6370746974
20
-472.9182402428
30
0.0000000000
10
-213.6098819404
20
-472.9164719289
30
0.0000000000
10
-213.5839013657
20
-472.9104977155
30
0.0000000000
10
-213.5586738881
20
-472.8978232549
30
0.0000000000
10
-213.5360693054
20
-472.8769441407
30
0.0000000000
10
-213.5214128031
20
-472.8512483987
30
0.0000000000
10
-213.5169449164
20
-472.8322978952
30
0.0000000000
10
-213.5160261016
20
-472.8240952368
30
0.0000000000
11
-213.7274543087
21
-472.9121583420
31
0.0000000000
11
-213.7028063460
21
-472.9148195804
31
0.0000000000
11
-213.6659141462
21
-472.9174240041
31
0.0000000000
11
-213.6354707899
21
-472.9178047004
31
0.0000000000
11
-213.6099213143
21
-472.9157817473
31
0.0000000000
11
-213.5851333015
21
-472.9097886846
31
0.0000000000
11
-213.5598677313
21
-472.8969801822
31
0.0000000000
11
-213.5379510657
21
-472.8767016010
31
0.0000000000
11
-213.5217252786
21
-472.8481661062
31
0.0000000000
11
-213.5160261016
21
-472.8240952368
31
0.0000000000
0
SPLINE
5
34F
100
AcDbEntity
8
0
100
AcDbSpline
62
7
6
CONTINUOUS
70
0
71
3
72
12
73
8
74
6
42
0.0000001000
43
0.0000001000
44
0.0000000001
12
0.1619099871
22
0.0512868116
32
0.0000000000
13
0.1836198709
23
-0.0070518447
33
0.0000000000
40
0.0000000000
40
0.0000000000
40
0.0000000000
40
0.0000000000
40
0.0435347811
40
0.2501577898
40
0.5368832645
40
0.8832351292
40
1.0000000000
40
1.0000000000
40
1.0000000000
40
1.0000000000
10
-213.5154976587
20
-472.6046164154
30
0.0000000000
10
-213.5131480867
20
-472.6038721621
30
0.0000000000
10
-213.4999794279
20
-472.6004124375
30
0.0000000000
10
-213.4663058517
20
-472.5917314128
30
0.0000000000
10
-213.4159386298
20
-472.5863950078
30
0.0000000000
10
-213.3697896886
20
-472.5848964725
30
0.0000000000
10
-213.3414134855
20
-472.5855913204
30
0.0000000000
10
-213.3342667020
20
-472.5858657897
30
0.0000000000
11
-213.5154976587
21
-472.6046164154
31
0.0000000000
11
-213.5084882599
21
-472.6026502533
31
0.0000000000
11
-213.4715668651
21
-472.5938759052
31
0.0000000000
11
-213.4193122567
21
-472.5873396980
31
0.0000000000
11
-213.3557304035
21
-472.5853439436
31
0.0000000000
11
-213.3342667020
21
-472.5858657897
31
0.0000000000
0
SPLINE
5
350
100
AcDbEntity
8
0
100
AcDbSpline
62
7
6
CONTINUOUS
70
0
71
3
72
10
73
6
74
4
42
0.0000001000
43
0.0000001000
44
0.0000000001
12
0.6103822664
22
-0.0337146560
32
0.0000000000
13
0.6103836007
23
0.0337145969
33
0.0000000000
40
0.0000000000
40
0.0000000000
40
0.0000000000
40
0.0000000000
40
0.3201470795
40
0.6837622215
40
1.0000000000
40
1.0000000000
40
1.0000000000
40
1.0000000000
10
-213.3208998921
20
-472.5865112519
30
0.0000000000
10
-213.2557625255
20
-472.5901091348
30
0.0000000000
10
-213.1164955552
20
-472.5953362783
30
0.0000000000
10
-212.9126808425
20
-472.5952923487
30
0.0000000000
10
-212.7742118192
20
-472.5900651809
30
0.0000000000
10
-212.7098697012
20
-472.5865112378
30
0.0000000000
11
-213.3208998921
21
-472.5865112519
31
0.0000000000
11
-213.1253284510
21
-472.5938514765
31
0.0000000000
11
-212.9030518155
21
-472.5938035379
31
0.0000000000
11
-212.7098697012
21
-472.5865112378
31
0.0000000000
0
SPLINE
5
351
100
AcDbEntity
8
0
100
AcDbSpline
62
7
6
CONTINUOUS
70
0
71
3
72
8
73
4
74
2
42
0.0000001000
43
0.0000001000
44
0.0000000001
12
0.0133593634
22
0.0007433272
32
0.0000000000
13
0.0133758724
23
0.0005149088
33
0.0000000000
40
0.0000000000
40
0.0000000000
40
0.0000000000
40
0.0000000000
40
1.0000000000
40
1.0000000000
40
1.0000000000
40
1.0000000000
10
-212.7098705966
20
-472.5864925370
30
0.0000000000
10
-212.7054174754
20
-472.5862447613
30
0.0000000000
10
-212.7009616256
20
-472.5860346205
30
0.0000000000
10
-212.6965030015
20
-472.5858629843
30
0.0000000000
11
-212.7098705966
21
-472.5864925370
31
0.0000000000
11
-212.6965030015
21
-472.5858629843
31
0.0000000000
0
SPLINE
5
352
100
AcDbEntity
8
0
100
AcDbSpline
62
9
6
CONTINUOUS
70
0
71
3
72
10
73
6
74
4
42
0.0000001000
43
0.0000001000
44
0.0000000001
12
0.0000000037
22
-0.0084211513
32
0.0000000000
13
-0.0000000024
23
-0.0084211513
33
0.0000000000
40
0.0000000000
40
0.0000000000
40
0.0000000000
40
0.0000000000
40
0.5552522622
40
0.8890061159
40
1.0000000000
40
1.0000000000
40
1.0000000000
40
1.0000000000
10
-210.8793689652
20
-472.5798105980
30
0.0000000000
10
-210.8793689645
20
-472.5813692191
30
0.0000000000
10
-210.8793689665
20
-472.5838647041
30
0.0000000000
10
-210.8793689650
20
-472.5866717546
30
0.0000000000
10
-210.8793689651
20
-472.5879201839
30
0.0000000000
10
-210.8793689652
20
-472.5882317493
30
0.0000000000
11
-210.8793689652
21
-472.5798105980
31
0.0000000000
11
-210.8793689657
21
-472.5844864613
31
0.0000000000
11
-210.8793689651
21
-472.5872970530
31
0.0000000000
11
-210.8793689652
21
-472.5882317493
31
0.0000000000
0
SPLINE
5
353
100
AcDbEntity
8
0
100
AcDbSpline
62
9
6
CONTINUOUS
70
0
71
3
72
11
73
7
74
5
42
0.0000001000
43
0.0000001000
44
0.0000000001
12
0.2347482178
22
0.0766424207
32
0.0000000000
13
0.2489078788
23
0.0675589159
33
0.0000000000
40
0.0000000000
40
0.0000000000
40
0.0000000000
40
0.0000000000
40
0.3504046771
40
0.6666687971
40
0.9304468631
40
1.0000000000
40
1.0000000000
40
1.0000000000
40
1.0000000000
10
-211.1845140839
20
-472.6634530924
30
0.0000000000
10
-211.1570951261
20
-472.6545011382
30
0.0000000000
10
-211.1049937288
20
-472.6378483887
30
0.0000000000
10
-211.0311110902
20
-472.6151354067
30
0.0000000000
10
-210.9812266436
20
-472.6010054043
30
0.0000000000
10
-210.9531654638
20
-472.5931380940
30
0.0000000000
10
-210.9473946892
20
-472.5915717825
30
0.0000000000
11
-211.1845140839
21
-472.6634530924
31
0.0000000000
11
-211.1020946821
21
-472.6371002405
31
0.0000000000
11
-211.0273938965
21
-472.6143126685
31
0.0000000000
11
-210.9647687320
21
-472.5963944415
31
0.0000000000
11
-210.9473946892
21
-472.5915717825
31
0.0000000000
0
SPLINE
5
354
100
AcDbEntity
8
0
100
AcDbSpline
62
9
6
CONTINUOUS
70
0
71
3
72
10
73
6
74
4
42
0.0000001000
43
0.0000001000
44
0.0000000001
12
0.0708811429
22
0.0192386565
32
0.0000000000
13
-0.0003549073
23
-0.0703206776
33
0.0000000000
40
0.0000000000
40
0.0000000000
40
0.0000000000
40
0.0000000000
40
0.4410278012
40
0.8596420268
40
1.0000000000
40
1.0000000000
40
1.0000000000
40
1.0000000000
10
-210.9473946892
20
-472.5915717825
30
0.0000000000
10
-210.9369745043
20
-472.5887435217
30
0.0000000000
10
-210.9172006716
20
-472.5837092074
30
0.0000000000
10
-210.9004053613
20
-472.5815954480
30
0.0000000000
10
-210.8793523605
20
-472.5765205754
30
0.0000000000
10
-210.8793689652
20
-472.5798105980
30
0.0000000000
11
-210.9473946892
21
-472.5915717825
31
0.0000000000
11
-210.9180895434
21
-472.5844247450
31
0.0000000000
11
-210.8891896956
21
-472.5788236974
31
0.0000000000
11
-210.8793689652
21
-472.5798105980
31
0.0000000000
0
SPLINE
5
355
100
AcDbEntity
8
0
100
AcDbSpline
62
9
6
CONTINUOUS
70
0
71
3
72
12
73
8
74
6
42
0.0000001000
43
0.0000001000
44
0.0000000001
12
1.1394044272
22
0.1385317330
32
0.0000000000
13
1.0911181987
23
0.3562226359
33
0.0000000000
40
0.0000000000
40
0.0000000000
40
0.0000000000
40
0.0000000000
40
0.1736997740
40
0.3668447149
40
0.5660151312
40
0.7736035241
40
1.0000000000
40
1.0000000000
40
1.0000000000
40
1.0000000000
10
-212.3033795192
20
-472.9116300116
30
0.0000000000
10
-212.2374080888
20
-472.9036090347
30
0.0000000000
10
-212.0983554051
20
-472.8843131450
30
0.0000000000
10
-211.8850044330
20
-472.8469039131
30
0.0000000000
10
-211.6605509133
20
-472.7986537982
30
0.0000000000
10
-211.4258572250
20
-472.7383975359
30
0.0000000000
10
-211.2668558556
20
-472.6903356089
30
0.0000000000
10
-211.1845140839
20
-472.6634530924
30
0.0000000000
11
-212.3033795192
21
-472.9116300116
31
0.0000000000
11
-212.1059000919
21
-472.8842262314
31
0.0000000000
11
-211.8875405538
21
-472.8459388107
31
0.0000000000
11
-211.6640394900
21
-472.7978934964
31
0.0000000000
11
-211.4332556325
21
-472.7386406942
31
0.0000000000
11
-211.1845140839
21
-472.6634530924
31
0.0000000000
0
SPLINE
5
356
100
AcDbEntity
8
0
100
AcDbSpline
62
9
6
CONTINUOUS
70
0
71
3
72
14
73
10
74
8
42
0.0000001000
43
0.0000001000
44
0.0000000001
12
0.0001275271
22
-0.1030417226
32
0.0000000000
13
0.1022885817
23
0.0124361939
33
0.0000000000
40
0.0000000000
40
0.0000000000
40
0.0000000000
40
0.0000000000
40
0.0475695937
40
0.1569696759
40
0.3115077117
40
0.4870765621
40
0.6663493256
40
0.8385288923
40
1.0000000000
40
1.0000000000
40
1.0000000000
40
1.0000000000
10
-212.4050945588
20
-472.9116300116
30
0.0000000000
10
-212.4050925367
20
-472.9132638959
30
0.0000000000
10
-212.3982939983
20
-472.9157128392
30
0.0000000000
10
-212.3889154474
20
-472.9164276521
30
0.0000000000
10
-212.3732277811
20
-472.9169466834
30
0.0000000000
10
-212.3559319307
20
-472.9163230803
30
0.0000000000
10
-212.3378105969
20
-472.9151670312
30
0.0000000000
10
-212.3202779973
20
-472.9135712016
30
0.0000000000
10
-212.3088850694
20
-472.9122993736
30
0.0000000000
10
-212.3033795192
20
-472.9116300116
30
0.0000000000
11
-212.4050945588
21
-472.9116300116
31
0.0000000000
11
-212.4011622993
21
-472.9145563698
31
0.0000000000
11
-212.3900210775
21
-472.9162735713
31
0.0000000000
11
-212.3741042642
21
-472.9167478415
31
0.0000000000
11
-212.3560203674
21
-472.9162434124
31
0.0000000000
11
-212.3375852411
21
-472.9150675533
31
0.0000000000
11
-212.3199151122
21
-472.9134756337
31
0.0000000000
11
-212.3033795192
21
-472.9116300116
31
0.0000000000
0
SPLINE
5
357
100
AcDbEntity
8
0
100
AcDbSpline
62
9
6
CONTINUOUS
70
0
71
3
72
12
73
8
74
6
42
0.0000001000
43
0.0000001000
44
0.0000000001
12
0.0000000955
22
-0.2481769191
32
0.0000000000
13
-0.0000000361
23
-0.2481769191
33
0.0000000000
40
0.0000000000
40
0.0000000000
40
0.0000000000
40
0.0000000000
40
0.3245288541
40
0.5733868835
40
0.7612770168
40
0.8998605882
40
1.0000000000
40
1.0000000000
40
1.0000000000
40
1.0000000000
10
-212.4050945588
20
-472.6634530924
30
0.0000000000
10
-212.4050945485
20
-472.6902999495
30
0.0000000000
10
-212.4050945679
20
-472.7377337462
30
0.0000000000
10
-212.4050945571
20
-472.8007108744
30
0.0000000000
10
-212.4050945578
20
-472.8483055602
30
0.0000000000
10
-212.4050945601
20
-472.8835974032
30
0.0000000000
10
-212.4050945576
20
-472.9033459147
30
0.0000000000
10
-212.4050945588
20
-472.9116300116
30
0.0000000000
11
-212.4050945588
21
-472.6634530924
31
0.0000000000
11
-212.4050945616
21
-472.7439936636
31
0.0000000000
11
-212.4050945584
21
-472.8057544826
31
0.0000000000
11
-212.4050945583
21
-472.8523844771
31
0.0000000000
11
-212.4050945590
21
-472.8867777209
31
0.0000000000
11
-212.4050945588
21
-472.9116300116
31
0.0000000000
0
SPLINE
5
358
100
AcDbEntity
8
0
100
AcDbSpline
62
9
6
CONTINUOUS
70
0
71
3
72
8
73
4
74
2
42
0.0000001000
43
0.0000001000
44
0.0000000001
12
0.0259648526
22
0.0014341561
32
0.0000000000
13
0.0260031346
23
0.0007031723
33
0.0000000000
40
0.0000000000
40
0.0000000000
40
0.0000000000
40
0.0000000000
40
1.0000000000
40
1.0000000000
40
1.0000000000
40
1.0000000000
10
-212.7102396776
20
-472.5798105980
30
0.0000000000
10
-212.7015847267
20
-472.5793325460
30
0.0000000000
10
-212.6929211707
20
-472.5789739156
30
0.0000000000
10
-212.6842534592
20
-472.5787395248
30
0.0000000000
11
-212.7102396776
21
-472.5798105980
31
0.0000000000
11
-212.6842534592
21
-472.5787395248
31
0.0000000000
0
SPLINE
5
359
100
AcDbEntity
8
0
100
AcDbSpline
62
9
6
CONTINUOUS
70
0
71
3
72
10
73
6
74
4
42
0.0000001000
43
0.0000001000
44
0.0000000001
12
0.1456857917
22
0.0039396100
32
0.0000000000
13
0.1438195669
23
-0.0241745223
33
0.0000000000
40
0.0000000000
40
0.0000000000
40
0.0000000000
40
0.0000000000
40
0.3486430920
40
0.8460685313
40
1.0000000000
40
1.0000000000
40
1.0000000000
40
1.0000000000
10
-212.6842534592
20
-472.5787395248
30
0.0000000000
10
-212.6673226775
20
-472.5782816856
30
0.0000000000
10
-212.6261974795
20
-472.5783209748
30
0.0000000000
10
-212.5777105341
20
-472.5819168498
30
0.0000000000
10
-212.5463672241
20
-472.5865057413
30
0.0000000000
10
-212.5389877717
20
-472.5877461478
30
0.0000000000
11
-212.6842534592
21
-472.5787395248
31
0.0000000000
11
-212.6334467102
21
-472.5788240023
31
0.0000000000
11
-212.5611949438
21
-472.5844622841
31
0.0000000000
11
-212.5389877717
21
-472.5877461478
31
0.0000000000
0
SPLINE
5
35A
100
AcDbEntity
8
0
100
AcDbSpline
62
9
6
CONTINUOUS
70
0
71
3
72
8
73
4
74
2
42
0.0000001000
43
0.0000001000
44
0.0000000001
12
0.0237336029
22
-0.0039893634
32
0.0000000000
13
0.0234891810
23
-0.0051773087
33
0.0000000000
40
0.0000000000
40
0.0000000000
40
0.0000000000
40
0.0000000000
40
1.0000000000
40
1.0000000000
40
1.0000000000
40
1.0000000000
10
-212.5389877717
20
-472.5877461478
30
0.0000000000
10
-212.5310765707
20
-472.5890759356
30
0.0000000000
10
-212.5231972442
20
-472.5905849466
30
0.0000000000
10
-212.5153675172
20
-472.5923107161
30
0.0000000000
11
-212.5389877717
21
-472.5877461478
31
0.0000000000
11
-212.5153675172
21
-472.5923107161
31
0.0000000000
0
SPLINE
5
35B
100
AcDbEntity
8
0
100
AcDbSpline
62
9
6
CONTINUOUS
70
0
71
3
72
8
73
4
74
2
42
0.0000001000
43
0.0000001000
44
0.0000000001
12
0.0172327122
22
-0.0037983049
32
0.0000000000
13
0.0170515376
23
-0.0045427719
33
0.0000000000
40
0.0000000000
40
0.0000000000
40
0.0000000000
40
0.0000000000
40
1.0000000000
40
1.0000000000
40
1.0000000000
40
1.0000000000
10
-212.5153675172
20
-472.5923107161
30
0.0000000000
10
-212.5096232798
20
-472.5935768178
30
0.0000000000
10
-212.5039057386
20
-472.5949595864
30
0.0000000000
10
-212.4982218927
20
-472.5964738437
30
0.0000000000
11
-212.5153675172
21
-472.5923107161
31
0.0000000000
11
-212.4982218927
21
-472.5964738437
31
0.0000000000
0
SPLINE
5
35C
100
AcDbEntity
8
0
100
AcDbSpline
62
9
6
CONTINUOUS
70
0
71
3
72
10
73
6
74
4
42
0.0000001000
43
0.0000001000
44
0.0000000001
12
0.1168063314
22
-0.0311188667
32
0.0000000000
13
-0.0000729979
23
-0.1208295183
33
0.0000000000
40
0.0000000000
40
0.0000000000
40
0.0000000000
40
0.0000000000
40
0.4363905819
40
0.7617294484
40
1.0000000000
40
1.0000000000
40
1.0000000000
40
1.0000000000
10
-212.4982218927
20
-472.5964738437
30
0.0000000000
10
-212.4812308317
20
-472.6010005038
30
0.0000000000
10
-212.4520981532
20
-472.6109529113
30
0.0000000000
10
-212.4168924808
20
-472.6317497345
30
0.0000000000
10
-212.4050887611
20
-472.6538563871
30
0.0000000000
10
-212.4050945588
20
-472.6634530924
30
0.0000000000
11
-212.4982218927
21
-472.5964738437
31
0.0000000000
11
-212.4486108910
21
-472.6143367270
31
0.0000000000
11
-212.4165056843
21
-472.6370209662
31
0.0000000000
11
-212.4050945588
21
-472.6634530924
31
0.0000000000
0
SPLINE
5
35D
100
AcDbEntity
8
0
100
AcDbSpline
62
9
6
CONTINUOUS
70
0
71
3
72
10
73
6
74
4
42
0.0000001000
43
0.0000001000
44
0.0000000001
12
0.6096363370
22
-0.0336737673
32
0.0000000000
13
0.6096363343
23
0.0336738160
33
0.0000000000
40
0.0000000000
40
0.0000000000
40
0.0000000000
40
0.0000000000
40
0.3328661760
40
0.6669943864
40
1.0000000000
40
1.0000000000
40
1.0000000000
40
1.0000000000
10
-213.3205299150
20
-472.5798105980
30
0.0000000000
10
-213.2528874763
20
-472.5835468840
30
0.0000000000
10
-213.1171949286
20
-472.5885444723
30
0.0000000000
10
-212.9136314376
20
-472.5885460334
30
0.0000000000
10
-212.7779104514
20
-472.5835484546
30
0.0000000000
10
-212.7102396776
20
-472.5798105980
30
0.0000000000
11
-213.3205299150
21
-472.5798105980
31
0.0000000000
11
-213.1174309645
21
-472.5872906021
31
0.0000000000
11
-212.9134237639
21
-472.5872921709
31
0.0000000000
11
-212.7102396776
21
-472.5798105980
31
0.0000000000
0
SPLINE
5
35E
100
AcDbEntity
8
0
100
AcDbSpline
62
9
6
CONTINUOUS
70
0
71
3
72
11
73
7
74
5
42
0.0000001000
43
0.0000001000
44
0.0000000001
12
0.0000256699
22
0.1384612527
32
0.0000000000
13
0.1352723955
23
0.0298191917
33
0.0000000000
40
0.0000000000
40
0.0000000000
40
0.0000000000
40
0.0000000000
40
0.2091032557
40
0.4931166190
40
0.8736295673
40
1.0000000000
40
1.0000000000
40
1.0000000000
40
1.0000000000
10
-213.6256750338
20
-472.6634530924
30
0.0000000000
10
-213.6256732445
20
-472.6538021928
30
0.0000000000
10
-213.6137840797
20
-472.6316533714
30
0.0000000000
10
-213.5785191710
20
-472.6108931836
30
0.0000000000
10
-213.5438512941
20
-472.5990656256
30
0.0000000000
10
-213.5211008030
20
-472.5935665923
30
0.0000000000
10
-213.5154026593
20
-472.5923105042
30
0.0000000000
11
-213.6256750338
21
-472.6634530924
31
0.0000000000
11
-213.6141488018
21
-472.6368936352
31
0.0000000000
11
-213.5819935488
21
-472.6142555417
31
0.0000000000
11
-213.5324115300
21
-472.5964378633
31
0.0000000000
11
-213.5154026593
21
-472.5923105042
31
0.0000000000
0
SPLINE
5
35F
100
AcDbEntity
8
0
100
AcDbSpline
62
9
6
CONTINUOUS
70
0
71
3
72
8
73
4
74
2
42
0.0000001000
43
0.0000001000
44
0.0000000001
12
0.0042859530
22
0.0009447874
32
0.0000000000
13
0.0042955310
23
0.0009021475
33
0.0000000000
40
0.0000000000
40
0.0000000000
40
0.0000000000
40
0.0000000000
40
1.0000000000
40
1.0000000000
40
1.0000000000
40
1.0000000000
10
-213.5154026593
20
-472.5923105042
30
0.0000000000
10
-213.5139740083
20
-472.5919955751
30
0.0000000000
10
-213.5125437072
20
-472.5916878668
30
0.0000000000
10
-213.5111118636
20
-472.5913871510
30
0.0000000000
11
-213.5154026593
21
-472.5923105042
31
0.0000000000
11
-213.5111118636
21
-472.5913871510
31
0.0000000000
0
SPLINE
5
360
100
AcDbEntity
8
0
100
AcDbSpline
62
9
6
CONTINUOUS
70
0
71
3
72
8
73
4
74
2
42
0.0000001000
43
0.0000001000
44
0.0000000001
12
0.0193422573
22
0.0040622611
32
0.0000000000
13
0.0195005064
23
0.0032741333
33
0.0000000000
40
0.0000000000
40
0.0000000000
40
0.0000000000
40
0.0000000000
40
1.0000000000
40
1.0000000000
40
1.0000000000
40
1.0000000000
10
-213.5111118636
20
-472.5913871510
30
0.0000000000
10
-213.5046644445
20
-472.5900330639
30
0.0000000000
10
-213.4981857474
20
-472.5888207559
30
0.0000000000
10
-213.4916855786
20
-472.5877293781
30
0.0000000000
11
-213.5111118636
21
-472.5913871510
31
0.0000000000
11
-213.4916855786
21
-472.5877293781
31
0.0000000000
0
SPLINE
5
361
100
AcDbEntity
8
0
100
AcDbSpline
62
9
6
CONTINUOUS
70
0
71
3
72
10
73
6
74
4
42
0.0000001000
43
0.0000001000
44
0.0000000001
12
0.1436554342
22
0.0241197344
32
0.0000000000
13
0.1455167566
23
-0.0039235326
33
0.0000000000
40
0.0000000000
40
0.0000000000
40
0.0000000000
40
0.0000000000
40
0.1538736103
40
0.6506453984
40
1.0000000000
40
1.0000000000
40
1.0000000000
40
1.0000000000
10
-213.4916855786
20
-472.5877293781
30
0.0000000000
10
-213.4843173185
20
-472.5864922479
30
0.0000000000
10
-213.4530444079
20
-472.5819181628
30
0.0000000000
10
-213.4046142985
20
-472.5783236466
30
0.0000000000
10
-213.3635341210
20
-472.5782811061
30
0.0000000000
10
-213.3465884715
20
-472.5787380075
30
0.0000000000
11
-213.4916855786
21
-472.5877293781
31
0.0000000000
11
-213.4695123123
21
-472.5844537827
31
0.0000000000
11
-213.3974396451
21
-472.5788274702
31
0.0000000000
11
-213.3465884715
21
-472.5787380075
31
0.0000000000
0
SPLINE
5
362
100
AcDbEntity
8
0
100
AcDbSpline
62
9
6
CONTINUOUS
70
0
71
3
72
8
73
4
74
2
42
0.0000001000
43
0.0000001000
44
0.0000000001
12
0.0260755307
22
-0.0007030681
32
0.0000000000
13
0.0260370964
23
-0.0014371509
33
0.0000000000
40
0.0000000000
40
0.0000000000
40
0.0000000000
40
0.0000000000
40
1.0000000000
40
1.0000000000
40
1.0000000000
40
1.0000000000
10
-213.3465884715
20
-472.5787380075
30
0.0000000000
10
-213.3378966280
20
-472.5789723636
30
0.0000000000
10
-213.3292089471
20
-472.5793315477
30
0.0000000000
10
-213.3205299150
20
-472.5798105980
30
0.0000000000
11
-213.3465884715
21
-472.5787380075
31
0.0000000000
11
-213.3205299150
21
-472.5798105980
31
0.0000000000
0
SPLINE
5
363
100
AcDbEntity
8
0
100
AcDbSpline
62
9
6
CONTINUOUS
70
0
71
3
72
12
73
8
74
6
42
0.0000001000
43
0.0000001000
44
0.0000000001
12
-0.0000000402
22
0.2481769191
32
0.0000000000
13
0.0000000830
23
0.2481769191
33
0.0000000000
40
0.0000000000
40
0.0000000000
40
0.0000000000
40
0.0000000000
40
0.1005484461
40
0.2392339420
40
0.4272491127
40
0.6764381929
40
1.0000000000
40
1.0000000000
40
1.0000000000
40
1.0000000000
10
-213.6256750338
20
-472.9116300116
30
0.0000000000
10
-213.6256750351
20
-472.9033120770
30
0.0000000000
10
-213.6256750320
20
-472.8835212961
30
0.0000000000
10
-213.6256750369
20
-472.8481768400
30
0.0000000000
10
-213.6256750328
20
-472.8005359923
30
0.0000000000
10
-213.6256750286
20
-472.7376011334
30
0.0000000000
10
-213.6256750427
20
-472.6902199499
30
0.0000000000
10
-213.6256750338
20
-472.6634530924
30
0.0000000000
11
-213.6256750338
21
-472.9116300116
31
0.0000000000
11
-213.6256750336
21
-472.8866762080
31
0.0000000000
11
-213.6256750352
21
-472.8522576689
31
0.0000000000
11
-213.6256750334
21
-472.8055966431
31
0.0000000000
11
-213.6256750323
21
-472.7437536648
31
0.0000000000
11
-213.6256750338
21
-472.6634530924
31
0.0000000000
0
SPLINE
5
364
100
AcDbEntity
8
0
100
AcDbSpline
62
9
6
CONTINUOUS
70
0
71
3
72
14
73
10
74
8
42
0.0000001000
43
0.0000001000
44
0.0000000001
12
0.1022860762
22
-0.0124369244
32
0.0000000000
13
-0.0002474778
23
0.1030391053
33
0.0000000000
40
0.0000000000
40
0.0000000000
40
0.0000000000
40
0.0000000000
40
0.1614060718
40
0.3347621391
40
0.5142394507
40
0.6893348921
40
0.8429827303
40
0.9520038950
40
1.0000000000
40
1.0000000000
40
1.0000000000
40
1.0000000000
10
-213.7273900733
20
-472.9116300116
30
0.0000000000
10
-213.7218868754
20
-472.9122991433
30
0.0000000000
10
-213.7104562123
20
-472.9135751943
30
0.0000000000
10
-213.6928792221
20
-472.9151738232
30
0.0000000000
10
-213.6747259235
20
-472.9163289122
30
0.0000000000
10
-213.6574726287
20
-472.9169445085
30
0.0000000000
10
-213.6418396311
20
-472.9164306063
30
0.0000000000
10
-213.6325065873
20
-472.9157053571
30
0.0000000000
10
-213.6256710744
20
-472.9132785035
30
0.0000000000
10
-213.6256750338
20
-472.9116300116
30
0.0000000000
11
-213.7273900733
21
-472.9116300116
31
0.0000000000
11
-213.7108615341
21
-472.9134749272
31
0.0000000000
11
-213.6930709611
21
-472.9150763688
31
0.0000000000
11
-213.6746149900
21
-472.9162497700
31
0.0000000000
11
-213.6565801423
21
-472.9167480449
31
0.0000000000
11
-213.6407554622
21
-472.9162739095
31
0.0000000000
11
-213.6296520181
21
-472.9145696487
31
0.0000000000
11
-213.6256750338
21
-472.9116300116
31
0.0000000000
0
SPLINE
5
365
100
AcDbEntity
8
0
100
AcDbSpline
62
9
6
CONTINUOUS
70
0
71
3
72
10
73
6
74
4
42
0.0000001000
43
0.0000001000
44
0.0000000001
12
0.0000000011
22
0.0084211513
32
0.0000000000
13
0.0000000040
23
0.0084211513
33
0.0000000000
40
0.0000000000
40
0.0000000000
40
0.0000000000
40
0.0000000000
40
0.1109954972
40
0.4447521893
40
1.0000000000
40
1.0000000000
40
1.0000000000
40
1.0000000000
10
-215.1514006274
20
-472.5882317493
30
0.0000000000
10
-215.1514006274
20
-472.5879201794
30
0.0000000000
10
-215.1514006272
20
-472.5866717375
30
0.0000000000
10
-215.1514006266
20
-472.5838646871
30
0.0000000000
10
-215.1514006282
20
-472.5813692066
30
0.0000000000
10
-215.1514006274
20
-472.5798105980
30
0.0000000000
11
-215.1514006274
21
-472.5882317493
31
0.0000000000
11
-215.1514006273
21
-472.5872970394
31
0.0000000000
11
-215.1514006270
21
-472.5844864238
31
0.0000000000
11
-215.1514006274
21
-472.5798105980
31
0.0000000000
0
SPLINE
5
366
100
AcDbEntity
8
0
100
AcDbSpline
62
9
6
CONTINUOUS
70
0
71
3
72
12
73
8
74
6
42
0.0000001000
43
0.0000001000
44
0.0000000001
12
1.0911187217
22
-0.3562227291
32
0.0000000000
13
1.1394049461
23
-0.1385318241
33
0.0000000000
40
0.0000000000
40
0.0000000000
40
0.0000000000
40
0.0000000000
40
0.2220767843
40
0.4263822369
40
0.6251590283
40
0.8222368415
40
1.0000000000
40
1.0000000000
40
1.0000000000
40
1.0000000000
10
-214.8462555087
20
-472.6634530924
30
0.0000000000
10
-214.7654847963
20
-472.6898226918
30
0.0000000000
10
-214.6092909508
20
-472.7371076368
30
0.0000000000
10
-214.3776322024
20
-472.7968712585
30
0.0000000000
10
-214.1531565311
20
-472.8454827195
30
0.0000000000
10
-213.9369822087
20
-472.8836485314
30
0.0000000000
10
-213.7949048140
20
-472.9034213934
30
0.0000000000
10
-213.7273900733
20
-472.9116300116
30
0.0000000000
11
-214.8462555087
21
-472.6634530924
31
0.0000000000
11
-214.6022909099
21
-472.7373086830
31
0.0000000000
11
-214.3752245202
21
-472.7958879008
31
0.0000000000
11
-214.1522380998
21
-472.8441767859
31
0.0000000000
11
-213.9294781552
21
-472.8835052577
31
0.0000000000
11
-213.7273900733
21
-472.9116300116
31
0.0000000000
0
SPLINE
5
367
100
AcDbEntity
8
0
100
AcDbSpline
62
9
6
CONTINUOUS
70
0
71
3
72
10
73
6
74
4
42
0.0000001000
43
0.0000001000
44
0.0000000001
12
-0.0000305523
22
0.0705416368
32
0.0000000000
13
0.0710873922
23
-0.0193144344
33
0.0000000000
40
0.0000000000
40
0.0000000000
40
0.0000000000
40
0.0000000000
40
0.1406318942
40
0.5591741542
40
1.0000000000
40
1.0000000000
40
1.0000000000
40
1.0000000000
10
-215.1514006274
20
-472.5798105980
30
0.0000000000
10
-215.1514020596
20
-472.5765037967
30
0.0000000000
10
-215.1303071648
20
-472.5816234297
30
0.0000000000
10
-215.1134327589
20
-472.5837353821
30
0.0000000000
10
-215.0936045149
20
-472.5887876745
30
0.0000000000
10
-215.0831587950
20
-472.5916257751
30
0.0000000000
11
-215.1514006274
21
-472.5798105980
31
0.0000000000
11
-215.1415288222
21
-472.5788298355
31
0.0000000000
11
-215.1125452203
21
-472.5844562288
31
0.0000000000
11
-215.0831587950
21
-472.5916257751
31
0.0000000000
0
SPLINE
5
368
100
AcDbEntity
8
0
100
AcDbSpline
62
9
6
CONTINUOUS
70
0
71
3
72
11
73
7
74
5
42
0.0000001000
43
0.0000001000
44
0.0000000001
12
0.2486304027
22
-0.0675528451
32
0.0000000000
13
0.2345404016
23
-0.0765660645
33
0.0000000000
40
0.0000000000
40
0.0000000000
40
0.0000000000
40
0.0000000000
40
0.0697732047
40
0.3340318270
40
0.6507837916
40
1.0000000000
40
1.0000000000
40
1.0000000000
40
1.0000000000
10
-215.0831587950
20
-472.5916257751
30
0.0000000000
10
-215.0773762150
20
-472.5931969013
30
0.0000000000
10
-215.0492899678
20
-472.6010800746
30
0.0000000000
10
-214.9993523982
20
-472.6152249778
30
0.0000000000
10
-214.9255577638
20
-472.6379175935
30
0.0000000000
10
-214.8735572786
20
-472.6545403888
30
0.0000000000
10
-214.8462555087
20
-472.6634530924
30
0.0000000000
11
-215.0831587950
21
-472.5916257751
31
0.0000000000
11
-215.0657498904
21
-472.5964630263
31
0.0000000000
11
-215.0030685246
21
-472.6144036791
31
0.0000000000
11
-214.9283210387
21
-472.6372108532
31
0.0000000000
11
-214.8462555087
21
-472.6634530924
31
0.0000000000
0
SPLINE
5
369
100
AcDbEntity
8
0
100
AcDbSpline
62
9
6
CONTINUOUS
70
0
71
3
72
9
73
5
74
3
42
0.0000001000
43
0.0000001000
44
0.0000000001
12
0.0385583277
22
-0.0148674323
32
0.0000000000
13
0.0415816152
23
0.0019562143
33
0.0000000000
40
0.0000000000
40
0.0000000000
40
0.0000000000
40
0.0000000000
40
0.9326375344
40
1.0000000000
40
1.0000000000
40
1.0000000000
40
1.0000000000
10
-215.1513975563
20
-472.5798026573
30
0.0000000000
10
-215.1394105751
20
-472.5844246325
30
0.0000000000
10
-215.1254429251
20
-472.5868958475
30
0.0000000000
10
-215.1115708553
20
-472.5864397504
30
0.0000000000
10
-215.1106371753
20
-472.5863958252
30
0.0000000000
11
-215.1513975563
21
-472.5798026573
31
0.0000000000
11
-215.1134402027
21
-472.5864879147
31
0.0000000000
11
-215.1106371753
21
-472.5863958252
31
0.0000000000
0
SPLINE
5
36A
100
AcDbEntity
8
0
100
AcDbSpline
62
9
6
CONTINUOUS
70
0
71
3
72
11
73
7
74
5
42
0.0000001000
43
0.0000001000
44
0.0000000001
12
0.1364282044
22
-0.0140105337
32
0.0000000000
13
0.0395342535
23
0.1327328489
33
0.0000000000
40
0.0000000000
40
0.0000000000
40
0.0000000000
40
0.0000000000
40
0.3028818956
40
0.6052345461
40
0.9066924769
40
1.0000000000
40
1.0000000000
40
1.0000000000
40
1.0000000000
10
-213.6256750323
20
-472.9116299978
30
0.0000000000
10
-213.6119011546
20
-472.9130445101
30
0.0000000000
10
-213.5834412350
20
-472.9100719109
30
0.0000000000
10
-213.5464895917
20
-472.8888180537
30
0.0000000000
10
-213.5270940367
20
-472.8623830233
30
0.0000000000
10
-213.5207593902
20
-472.8452481681
30
0.0000000000
10
-213.5195297758
20
-472.8411198436
30
0.0000000000
11
-213.6256750323
21
-472.9116299978
31
0.0000000000
11
-213.5843665059
21
-472.9072607169
31
0.0000000000
11
-213.5484110142
21
-472.8866049005
31
0.0000000000
11
-213.5240136379
21
-472.8532272613
31
0.0000000000
11
-213.5195297758
21
-472.8411198436
31
0.0000000000
0
SPLINE
5
36B
100
AcDbEntity
8
0
100
AcDbSpline
62
9
6
CONTINUOUS
70
0
71
3
72
8
73
4
74
2
42
0.0000001000
43
0.0000001000
44
0.0000000001
12
0.0033860998
22
0.0113685382
32
0.0000000000
13
0.0020145149
23
0.0116653788
33
0.0000000000
40
0.0000000000
40
0.0000000000
40
0.0000000000
40
0.0000000000
40
1.0000000000
40
1.0000000000
40
1.0000000000
40
1.0000000000
10
-213.5195297758
20
-472.8411198436
30
0.0000000000
10
-213.5184010759
20
-472.8373303309
30
0.0000000000
10
-213.5174979007
20
-472.8334748454
30
0.0000000000
10
-213.5168263957
20
-472.8295863858
30
0.0000000000
11
-213.5195297758
21
-472.8411198436
31
0.0000000000
11
-213.5168263957
21
-472.8295863858
31
0.0000000000
0
SPLINE
5
36C
100
AcDbEntity
8
0
100
AcDbSpline
62
9
6
CONTINUOUS
70
0
71
3
72
8
73
4
74
2
42
0.0000001000
43
0.0000001000
44
0.0000000001
12
0.0006855855
22
0.0039699952
32
0.0000000000
13
0.0005238670
23
0.0039890075
33
0.0000000000
40
0.0000000000
40
0.0000000000
40
0.0000000000
40
0.0000000000
40
1.0000000000
40
1.0000000000
40
1.0000000000
40
1.0000000000
10
-213.5168263957
20
-472.8295863858
30
0.0000000000
10
-213.5165978672
20
-472.8282630541
30
0.0000000000
10
-213.5163961707
20
-472.8269359033
30
0.0000000000
10
-213.5162215484
20
-472.8256062342
30
0.0000000000
11
-213.5168263957
21
-472.8295863858
31
0.0000000000
11
-213.5162215484
21
-472.8256062342
31
0.0000000000
0
SPLINE
5
36D
100
AcDbEntity
8
0
100
AcDbSpline
62
9
6
CONTINUOUS
70
0
71
3
72
8
73
4
74
2
42
0.0000001000
43
0.0000001000
44
0.0000000001
12
0.0016657154
22
0.0126836605
32
0.0000000000
13
0.0000000018
23
0.0127109900
33
0.0000000000
40
0.0000000000
40
0.0000000000
40
0.0000000000
40
0.0000000000
40
1.0000000000
40
1.0000000000
40
1.0000000000
40
1.0000000000
10
-213.5162215484
20
-472.8256062342
30
0.0000000000
10
-213.5156663099
20
-472.8213783474
30
0.0000000000
10
-213.5153847969
20
-472.8171249993
30
0.0000000000
10
-213.5153847963
20
-472.8128880026
30
0.0000000000
11
-213.5162215484
21
-472.8256062342
31
0.0000000000
11
-213.5153847963
21
-472.8128880026
31
0.0000000000
0
SPLINE
5
36E
100
AcDbEntity
8
0
100
AcDbSpline
62
9
6
CONTINUOUS
70
0
71
3
72
10
73
6
74
4
42
0.0000001000
43
0.0000001000
44
0.0000000001
12
0.1210365973
22
-0.0119148569
32
0.0000000000
13
0.0533106822
23
0.1105467502
33
0.0000000000
40
0.0000000000
40
0.0000000000
40
0.0000000000
40
0.0000000000
40
0.3413955304
40
0.6788235121
40
1.0000000000
40
1.0000000000
40
1.0000000000
40
1.0000000000
10
-213.6256745552
20
-472.6634486990
30
0.0000000000
10
-213.6119007707
20
-472.6648045920
30
0.0000000000
10
-213.5836596462
20
-472.6620033400
30
0.0000000000
10
-213.5471231538
20
-472.6420404748
30
0.0000000000
10
-213.5302120347
20
-472.6204092407
30
0.0000000000
10
-213.5245046555
20
-472.6085742350
30
0.0000000000
11
-213.6256745552
21
-472.6634486990
31
0.0000000000
11
-213.5843644880
21
-472.6592679575
31
0.0000000000
11
-213.5484067043
21
-472.6394891874
31
0.0000000000
11
-213.5245046555
21
-472.6085742350
31
0.0000000000
0
SPLINE
5
36F
100
AcDbEntity
8
0
100
AcDbSpline
62
9
6
CONTINUOUS
70
0
71
3
72
10
73
6
74
4
42
0.0000001000
43
0.0000001000
44
0.0000000001
12
-0.1210105791
22
-0.0119005592
32
0.0000000000
13
-0.0533247757
23
0.1105085263
33
0.0000000000
40
0.0000000000
40
0.0000000000
40
0.0000000000
40
0.0000000000
40
0.3414622253
40
0.6789559621
40
1.0000000000
40
1.0000000000
40
1.0000000000
40
1.0000000000
10
-212.4050945661
20
-472.6634530260
30
0.0000000000
10
-212.4188680799
20
-472.6648075564
30
0.0000000000
10
-212.4471080440
20
-472.6620040161
30
0.0000000000
10
-212.4836349759
20
-472.6420433862
30
0.0000000000
10
-212.5005417866
20
-472.6204211141
30
0.0000000000
10
-212.5062483204
20
-472.6085950796
30
0.0000000000
11
-212.4050945661
21
-472.6634530260
31
0.0000000000
11
-212.4464030776
21
-472.6592689121
31
0.0000000000
11
-212.4823585597
21
-472.6394884771
31
0.0000000000
11
-212.5062483204
21
-472.6085950796
31
0.0000000000
0
SPLINE
5
370
100
AcDbEntity
8
0
100
AcDbSpline
62
9
6
CONTINUOUS
70
0
71
3
72
11
73
7
74
5
42
0.0000001000
43
0.0000001000
44
0.0000000001
12
-0.1647257712
22
-0.0169074676
32
0.0000000000
13
-0.0000024998
23
0.1655911898
33
0.0000000000
40
0.0000000000
40
0.0000000000
40
0.0000000000
40
0.0000000000
40
0.2508328946
40
0.5012304873
40
0.7508912799
40
1.0000000000
40
1.0000000000
40
1.0000000000
40
1.0000000000
10
-212.4050945690
20
-472.9116299141
30
0.0000000000
10
-212.4188674496
20
-472.9130435638
30
0.0000000000
10
-212.4473251539
20
-472.9100695804
30
0.0000000000
10
-212.4842732326
20
-472.8888151536
30
0.0000000000
10
-212.5094388103
20
-472.8545133521
30
0.0000000000
10
-212.5153750488
20
-472.8266380721
30
0.0000000000
10
-212.5153752564
20
-472.8128880023
30
0.0000000000
11
-212.4050945690
21
-472.9116299141
31
0.0000000000
11
-212.4463996346
21
-472.9072587148
31
0.0000000000
11
-212.4823517251
21
-472.8866024751
31
0.0000000000
11
-212.5067468319
21
-472.8532257025
31
0.0000000000
11
-212.5153752564
21
-472.8128880023
31
0.0000000000
0
SPLINE
5
371
100
AcDbEntity
8
0
100
AcDbSpline
62
9
6
CONTINUOUS
70
0
71
3
72
9
73
5
74
3
42
0.0000001000
43
0.0000001000
44
0.0000000001
12
-0.0385822683
22
-0.0148726601
32
0.0000000000
13
-0.0416051680
23
0.0019714101
33
0.0000000000
40
0.0000000000
40
0.0000000000
40
0.0000000000
40
0.0000000000
40
0.9320597385
40
1.0000000000
40
1.0000000000
40
1.0000000000
40
1.0000000000
10
-210.8793689671
20
-472.5798105930
30
0.0000000000
10
-210.8913559600
20
-472.5844313289
30
0.0000000000
10
-210.9053319762
20
-472.5869028351
30
0.0000000000
10
-210.9192120720
20
-472.5864435749
30
0.0000000000
10
-210.9201542940
20
-472.5863989289
30
0.0000000000
11
-210.8793689671
21
-472.5798105930
31
0.0000000000
11
-210.9173255946
21
-472.5864924514
31
0.0000000000
11
-210.9201542940
21
-472.5863989289
31
0.0000000000
0
SPLINE
5
372
100
AcDbEntity
8
0
100
AcDbSpline
62
7
6
CONTINUOUS
70
0
71
3
72
16
73
12
74
10
42
0.0000001000
43
0.0000001000
44
0.0000000001
12
-0.0289744044
22
0.2588793067
32
0.0000000000
13
-0.2571086795
23
-0.0312684163
33
0.0000000000
40
0.0000000000
40
0.0000000000
40
0.0000000000
40
0.0000000000
40
0.0950980898
40
0.2223386279
40
0.3380988178
40
0.4476222810
40
0.5468622451
40
0.6466093114
40
0.7654231273
40
0.9093720201
40
1.0000000000
40
1.0000000000
40
1.0000000000
40
1.0000000000
10
1.4839766349
20
294.8516179830
30
0.0000000000
10
1.4830581647
20
294.8598242922
30
0.0000000000
10
1.4785804010
20
294.8788212288
30
0.0000000000
10
1.4638605932
20
294.9045856002
30
0.0000000000
10
1.4411386869
20
294.9254852437
30
0.0000000000
10
1.4157699361
20
294.9381467335
30
0.0000000000
10
1.3896250126
20
294.9440688658
30
0.0000000000
10
1.3621864781
20
294.9457778555
30
0.0000000000
10
1.3308808475
20
294.9451014142
30
0.0000000000
10
1.3004484400
20
294.9428162571
30
0.0000000000
10
1.2803127417
20
294.9406260738
30
0.0000000000
10
1.2725456617
20
294.9396814760
30
0.0000000000
11
1.4839766349
21
294.8516179830
31
0.0000000000
11
1.4782760299
21
294.8756991832
31
0.0000000000
11
1.4619670992
21
294.9043332689
31
0.0000000000
11
1.4399207553
21
294.9246492785
31
0.0000000000
11
1.4145883504
21
294.9374091237
31
0.0000000000
11
1.3895891383
21
294.9433752133
31
0.0000000000
11
1.3638318010
21
294.9453455776
31
0.0000000000
11
1.3330644943
21
294.9449011642
31
0.0000000000
11
1.2958811616
21
294.9422179112
31
0.0000000000
11
1.2725456617
21
294.9396814760
31
0.0000000000
0
SPLINE
5
373
100
AcDbEntity
8
0
100
AcDbSpline
62
7
6
CONTINUOUS
70
0
71
3
72
17
73
13
74
11
42
0.0000001000
43
0.0000001000
44
0.0000000001
12
-0.2409615793
22
-0.0786737289
32
0.0000000000
13
-0.2508541122
23
-0.0616341786
33
0.0000000000
40
0.0000000000
40
0.0000000000
40
0.0000000000
40
0.0000000000
40
0.1257174119
40
0.2559316030
40
0.3801033766
40
0.4973284206
40
0.6067933816
40
0.7076507114
40
0.7992778858
40
0.8810031933
40
0.9522887015
40
1.0000000000
40
1.0000000000
40
1.0000000000
40
1.0000000000
10
0.1535807609
20
294.6914774935
30
0.0000000000
10
0.1434830721
20
294.6881806076
30
0.0000000000
10
0.1229107857
20
294.6815170846
30
0.0000000000
10
0.0923109821
20
294.6717649748
30
0.0000000000
10
0.0623483407
20
294.6623772084
30
0.0000000000
10
0.0340136200
20
294.6536611053
30
0.0000000000
10
0.0075145970
20
294.6456706561
30
0.0000000000
10
-0.0169533921
20
294.6384655958
30
0.0000000000
10
-0.0392455147
20
294.6320795783
30
0.0000000000
10
-0.0590982784
20
294.6265499525
30
0.0000000000
10
-0.0756635949
20
294.6221577884
30
0.0000000000
10
-0.0850885969
20
294.6197106037
30
0.0000000000
10
-0.0890781221
20
294.6187303881
30
0.0000000000
11
0.1535807609
21
294.6914774935
31
0.0000000000
11
0.1232647160
21
294.6816576232
31
0.0000000000
11
0.0918162023
21
294.6716362172
31
0.0000000000
11
0.0617800278
21
294.6622285673
31
0.0000000000
11
0.0333782149
21
294.6534954378
31
0.0000000000
11
0.0068107055
21
294.6454910401
31
0.0000000000
11
-0.0177152136
21
294.6382756293
31
0.0000000000
11
-0.0400435087
21
294.6318821748
31
0.0000000000
11
-0.0600055922
21
294.6263454719
31
0.0000000000
11
-0.0774671605
21
294.6216981695
31
0.0000000000
11
-0.0890781221
21
294.6187303881
31
0.0000000000
0
SPLINE
5
374
100
AcDbEntity
8
0
100
AcDbSpline
62
7
6
CONTINUOUS
70
0
71
3
72
11
73
7
74
5
42
0.0000001000
43
0.0000001000
44
0.0000000001
12
-0.0254898087
22
-0.0062627772
32
0.0000000000
13
-0.0387715112
23
-0.0062176843
33
0.0000000000
40
0.0000000000
40
0.0000000000
40
0.0000000000
40
0.0000000000
40
0.1248469644
40
0.5993276583
40
0.9394943737
40
1.0000000000
40
1.0000000000
40
1.0000000000
40
1.0000000000
10
-0.0890781221
20
294.6187303881
30
0.0000000000
10
-0.0901388972
20
294.6184697585
30
0.0000000000
10
-0.0953026231
20
294.6172189370
30
0.0000000000
10
-0.1041212597
20
294.6152442168
30
0.0000000000
10
-0.1086143979
20
294.6140033602
30
0.0000000000
10
-0.1144599930
20
294.6130765175
30
0.0000000000
10
-0.1152419578
20
294.6129511158
30
0.0000000000
11
-0.0890781221
21
294.6187303881
31
0.0000000000
11
-0.0923102702
21
294.6179482507
31
0.0000000000
11
-0.1042068194
21
294.6151509359
31
0.0000000000
11
-0.1127808968
21
294.6133482622
31
0.0000000000
11
-0.1152419578
21
294.6129511158
31
0.0000000000
0
SPLINE
5
375
100
AcDbEntity
8
0
100
AcDbSpline
62
7
6
CONTINUOUS
70
0
71
3
72
10
73
6
74
4
42
0.0000001000
43
0.0000001000
44
0.0000000001
12
-1.1394054503
22
-0.1385357645
32
0.0000000000
13
-1.0911165306
23
-0.3562186596
33
0.0000000000
40
0.0000000000
40
0.0000000000
40
0.0000000000
40
0.0000000000
40
0.3242326341
40
0.6737101514
40
1.0000000000
40
1.0000000000
40
1.0000000000
40
1.0000000000
10
1.2725458641
20
294.9396798063
30
0.0000000000
10
1.1494017206
20
294.9247072010
30
0.0000000000
10
0.8944327547
20
294.8855128180
30
0.0000000000
10
0.5206541026
20
294.8026830512
30
0.0000000000
10
0.2722531751
20
294.7302240727
30
0.0000000000
10
0.1535797593
20
294.6914805618
30
0.0000000000
11
1.2725458641
21
294.9396798063
31
0.0000000000
11
0.9047165092
21
294.8831346186
31
0.0000000000
11
0.5131067270
21
294.7963534071
31
0.0000000000
11
0.1535797593
21
294.6914805618
31
0.0000000000
0
SPLINE
5
376
100
AcDbEntity
8
0
100
AcDbSpline
62
7
6
CONTINUOUS
70
0
71
3
72
8
73
4
74
2
42
0.0000001000
43
0.0000001000
44
0.0000000001
12
-0.0000045224
22
0.0112105483
32
0.0000000000
13
-0.0012537431
23
0.0111931650
33
0.0000000000
40
0.0000000000
40
0.0000000000
40
0.0000000000
40
0.0000000000
40
1.0000000000
40
1.0000000000
40
1.0000000000
40
1.0000000000
10
1.4846052135
20
294.8404019754
30
0.0000000000
10
1.4846037061
20
294.8441388248
30
0.0000000000
10
1.4843918627
20
294.8478866265
30
0.0000000000
10
1.4839739483
20
294.8516176815
30
0.0000000000
11
1.4846052135
21
294.8404019754
31
0.0000000000
11
1.4839739483
21
294.8516176815
31
0.0000000000
0
SPLINE
5
377
100
AcDbEntity
8
0
100
AcDbSpline
62
7
6
CONTINUOUS
70
0
71
3
72
13
73
9
74
7
42
0.0000001000
43
0.0000001000
44
0.0000000001
12
-0.0186732971
22
0.1667114088
32
0.0000000000
13
-0.1668252168
23
0.0043654261
33
0.0000000000
40
0.0000000000
40
0.0000000000
40
0.0000000000
40
0.0000000000
40
0.1475633507
40
0.3441968187
40
0.5230475999
40
0.6926499719
40
0.8460445029
40
1.0000000000
40
1.0000000000
40
1.0000000000
40
1.0000000000
10
1.4839739483
20
294.8516176820
30
0.0000000000
10
1.4830554502
20
294.8598178467
30
0.0000000000
10
1.4785912079
20
294.8787563396
30
0.0000000000
10
1.4639517957
20
294.9044355607
30
0.0000000000
10
1.4413819184
20
294.9253035418
30
0.0000000000
10
1.4161605777
20
294.9380007429
30
0.0000000000
10
1.3901504494
20
294.9439941277
30
0.0000000000
10
1.3730622117
20
294.9451043064
30
0.0000000000
10
1.3645009920
20
294.9453283335
30
0.0000000000
11
1.4839739483
21
294.8516176820
31
0.0000000000
11
1.4782775228
21
294.8756814364
31
0.0000000000
11
1.4620724569
21
294.9041953070
31
0.0000000000
11
1.4401864736
21
294.9244657921
31
0.0000000000
11
1.4149651219
21
294.9372766904
31
0.0000000000
11
1.3900995376
21
294.9433015922
31
0.0000000000
11
1.3645009920
21
294.9453283335
31
0.0000000000
0
SPLINE
5
378
100
AcDbEntity
8
0
100
AcDbSpline
62
7
6
CONTINUOUS
70
0
71
3
72
8
73
4
74
2
42
0.0000001000
43
0.0000001000
44
0.0000000001
12
-0.0304850193
22
0.0007977217
32
0.0000000000
13
-0.0304535634
23
-0.0013443544
33
0.0000000000
40
0.0000000000
40
0.0000000000
40
0.0000000000
40
0.0000000000
40
1.0000000000
40
1.0000000000
40
1.0000000000
40
1.0000000000
10
1.3645009920
20
294.9453283335
30
0.0000000000
10
1.3543393189
20
294.9455942407
30
0.0000000000
10
1.3441755235
20
294.9453923097
30
0.0000000000
10
1.3340243357
20
294.9449441915
30
0.0000000000
11
1.3645009920
21
294.9453283335
31
0.0000000000
11
1.3340243357
21
294.9449441915
31
0.0000000000
0
SPLINE
5
379
100
AcDbEntity
8
0
100
AcDbSpline
62
7
6
CONTINUOUS
70
0
71
3
72
9
73
5
74
3
42
0.0000001000
43
0.0000001000
44
0.0000000001
12
-0.0616600254
22
-0.0027219451
32
0.0000000000
13
-0.0612650701
23
-0.0074519145
33
0.0000000000
40
0.0000000000
40
0.0000000000
40
0.0000000000
40
0.0000000000
40
0.5991729697
40
1.0000000000
40
1.0000000000
40
1.0000000000
40
1.0000000000
10
1.3340243357
20
294.9449441915
30
0.0000000000
10
1.3217093289
20
294.9444005529
30
0.0000000000
10
1.3011869553
20
294.9428885258
30
0.0000000000
10
1.2807312575
20
294.9406768653
30
0.0000000000
10
1.2725456922
20
294.9396812224
30
0.0000000000
11
1.3340243357
21
294.9449441915
31
0.0000000000
11
1.2971403630
21
294.9423374472
31
0.0000000000
11
1.2725456922
21
294.9396812224
31
0.0000000000
0
SPLINE
5
37A
100
AcDbEntity
8
0
100
AcDbSpline
62
7
6
CONTINUOUS
70
0
71
3
72
8
73
4
74
2
42
0.0000001000
43
0.0000001000
44
0.0000000001
12
-0.0133589662
22
-0.0007428716
32
0.0000000000
13
-0.0133765972
23
-0.0005137226
33
0.0000000000
40
0.0000000000
40
0.0000000000
40
0.0000000000
40
0.0000000000
40
1.0000000000
40
1.0000000000
40
1.0000000000
40
1.0000000000
10
1.6791010356
20
294.6140174267
30
0.0000000000
10
1.6746480469
20
294.6137698028
30
0.0000000000
10
1.6701921638
20
294.6135599179
30
0.0000000000
10
1.6657332980
20
294.6133886770
30
0.0000000000
11
1.6791010356
21
294.6140174267
31
0.0000000000
11
1.6657332980
21
294.6133886770
31
0.0000000000
0
SPLINE
5
37B
100
AcDbEntity
8
0
100
AcDbSpline
62
7
6
CONTINUOUS
70
0
71
3
72
8
73
4
74
2
42
0.0000001000
43
0.0000001000
44
0.0000000001
12
-0.0214403505
22
-0.0008234077
32
0.0000000000
13
-0.0214874159
23
-0.0002165578
33
0.0000000000
40
0.0000000000
40
0.0000000000
40
0.0000000000
40
0.0000000000
40
1.0000000000
40
1.0000000000
40
1.0000000000
40
1.0000000000
10
1.6657332980
20
294.6133886770
30
0.0000000000
10
1.6585865145
20
294.6131142078
30
0.0000000000
10
1.6514320685
20
294.6129390169
30
0.0000000000
10
1.6442695965
20
294.6128668309
30
0.0000000000
11
1.6657332980
21
294.6133886770
31
0.0000000000
11
1.6442695965
21
294.6128668309
31
0.0000000000
0
SPLINE
5
37C
100
AcDbEntity
8
0
100
AcDbSpline
62
7
6
CONTINUOUS
70
0
71
3
72
11
73
7
74
5
42
0.0000001000
43
0.0000001000
44
0.0000000001
12
-0.1625355335
22
-0.0016380908
32
0.0000000000
13
-0.1430045884
23
0.0452983136
33
0.0000000000
40
0.0000000000
40
0.0000000000
40
0.0000000000
40
0.0000000000
40
0.3921400466
40
0.7167710143
40
0.9507098624
40
1.0000000000
40
1.0000000000
40
1.0000000000
40
1.0000000000
10
1.6442695965
20
294.6128668309
30
0.0000000000
10
1.6230240326
20
294.6126527106
30
0.0000000000
10
1.5840613702
20
294.6139178951
30
0.0000000000
10
1.5336941483
20
294.6192543001
30
0.0000000000
10
1.5000205721
20
294.6279353248
30
0.0000000000
10
1.4868519133
20
294.6313950494
30
0.0000000000
10
1.4845023413
20
294.6321393028
30
0.0000000000
11
1.6442695965
21
294.6128668309
31
0.0000000000
11
1.5806877433
21
294.6148625853
31
0.0000000000
11
1.5284331349
21
294.6213987925
31
0.0000000000
11
1.4915117401
21
294.6301731406
31
0.0000000000
11
1.4845023413
21
294.6321393028
31
0.0000000000
0
SPLINE
5
37D
100
AcDbEntity
8
0
100
AcDbSpline
62
7
6
CONTINUOUS
70
0
71
3
72
9
73
5
74
3
42
0.0000001000
43
0.0000001000
44
0.0000000001
12
-0.0148819146
22
0.0047140140
32
0.0000000000
13
-0.0133048910
23
0.0072041476
33
0.0000000000
40
0.0000000000
40
0.0000000000
40
0.0000000000
40
0.0000000000
40
0.8019985287
40
1.0000000000
40
1.0000000000
40
1.0000000000
40
1.0000000000
10
1.4845023413
20
294.6321393028
30
0.0000000000
10
1.4805239168
20
294.6333995135
30
0.0000000000
10
1.4753565041
20
294.6354790678
30
0.0000000000
10
1.4689183381
20
294.6393990653
30
0.0000000000
10
1.4680402088
20
294.6398745426
30
0.0000000000
11
1.4845023413
21
294.6321393028
31
0.0000000000
11
1.4714180514
21
294.6379188886
31
0.0000000000
11
1.4680402088
21
294.6398745426
31
0.0000000000
0
SPLINE
5
37E
100
AcDbEntity
8
0
100
AcDbSpline
62
7
6
CONTINUOUS
70
0
71
3
72
10
73
6
74
4
42
0.0000001000
43
0.0000001000
44
0.0000000001
12
-0.6103836007
22
0.0337145969
32
0.0000000000
13
-0.6103822664
23
-0.0337146560
33
0.0000000000
40
0.0000000000
40
0.0000000000
40
0.0000000000
40
0.0000000000
40
0.3162377785
40
0.6798529205
40
1.0000000000
40
1.0000000000
40
1.0000000000
40
1.0000000000
10
2.2901302988
20
294.6140341252
30
0.0000000000
10
2.2257881808
20
294.6175880682
30
0.0000000000
10
2.0873191575
20
294.6228152360
30
0.0000000000
10
1.8835044448
20
294.6228591656
30
0.0000000000
10
1.7442374745
20
294.6176320221
30
0.0000000000
10
1.6791001079
20
294.6140341393
30
0.0000000000
11
2.2901302988
21
294.6140341252
31
0.0000000000
11
2.0969481845
21
294.6213264253
31
0.0000000000
11
1.8746715490
21
294.6213743639
31
0.0000000000
11
1.6791001079
21
294.6140341393
31
0.0000000000
0
SPLINE
5
37F
100
AcDbEntity
8
0
100
AcDbSpline
62
7
6
CONTINUOUS
70
0
71
3
72
8
73
4
74
2
42
0.0000001000
43
0.0000001000
44
0.0000000001
12
-0.0008077267
22
-0.0004121821
32
0.0000000000
13
-0.0010839278
23
-0.0006210744
33
0.0000000000
40
0.0000000000
40
0.0000000000
40
0.0000000000
40
0.0000000000
40
1.0000000000
40
1.0000000000
40
1.0000000000
40
1.0000000000
10
2.5014995662
20
294.6400115505
30
0.0000000000
10
2.5012303240
20
294.6398741565
30
0.0000000000
10
2.5009046835
20
294.6396932666
30
0.0000000000
10
2.5005433742
20
294.6394862418
30
0.0000000000
11
2.5014995662
21
294.6400115505
31
0.0000000000
11
2.5005433742
21
294.6394862418
31
0.0000000000
0
SPLINE
5
380
100
AcDbEntity
8
0
100
AcDbSpline
62
7
6
CONTINUOUS
70
0
71
3
72
9
73
5
74
3
42
0.0000001000
43
0.0000001000
44
0.0000000001
12
-0.0121376826
22
-0.0061938472
32
0.0000000000
13
-0.0153882528
23
-0.0048368008
33
0.0000000000
40
0.0000000000
40
0.0000000000
40
0.0000000000
40
0.0000000000
40
0.1995516334
40
1.0000000000
40
1.0000000000
40
1.0000000000
40
1.0000000000
10
2.5014995662
20
294.6400115505
30
0.0000000000
10
2.5006922014
20
294.6395995531
30
0.0000000000
10
2.4941049619
20
294.6355749873
30
0.0000000000
10
2.4888189428
20
294.6334840943
30
0.0000000000
10
2.4847131089
20
294.6321935578
30
0.0000000000
11
2.5014995662
21
294.6400115505
31
0.0000000000
11
2.4981150283
21
294.6380703362
31
0.0000000000
11
2.4847131089
21
294.6321935578
31
0.0000000000
0
SPLINE
5
381
100
AcDbEntity
8
0
100
AcDbSpline
62
7
6
CONTINUOUS
70
0
71
3
72
11
73
7
74
5
42
0.0000001000
43
0.0000001000
44
0.0000000001
12
-0.1401325979
22
-0.0440425303
32
0.0000000000
13
-0.1595286702
23
0.0010276725
33
0.0000000000
40
0.0000000000
40
0.0000000000
40
0.0000000000
40
0.0000000000
40
0.0438216188
40
0.2774879323
40
0.6034667719
40
1.0000000000
40
1.0000000000
40
1.0000000000
40
1.0000000000
10
2.4847112025
20
294.6321929586
30
0.0000000000
10
2.4826642567
20
294.6315496203
30
0.0000000000
10
2.4698996716
20
294.6280786358
30
0.0000000000
10
2.4372001101
20
294.6195832291
30
0.0000000000
10
2.3874599811
20
294.6140795677
30
0.0000000000
10
2.3489236159
20
294.6127009723
30
0.0000000000
10
2.3278374764
20
294.6128368077
30
0.0000000000
11
2.4847112025
21
294.6321929586
31
0.0000000000
11
2.4785759751
21
294.6304424678
31
0.0000000000
11
2.4424135378
21
294.6216946614
31
0.0000000000
11
2.3909365165
21
294.6150515849
31
0.0000000000
11
2.3278374764
21
294.6128368077
31
0.0000000000
0
SPLINE
5
382
100
AcDbEntity
8
0
100
AcDbSpline
62
7
6
CONTINUOUS
70
0
71
3
72
8
73
4
74
2
42
0.0000001000
43
0.0000001000
44
0.0000000001
12
-0.0243685226
22
0.0001569803
32
0.0000000000
13
-0.0243127067
23
0.0009359260
33
0.0000000000
40
0.0000000000
40
0.0000000000
40
0.0000000000
40
0.0000000000
40
1.0000000000
40
1.0000000000
40
1.0000000000
40
1.0000000000
10
2.3278374764
20
294.6128368077
30
0.0000000000
10
2.3197146355
20
294.6128891345
30
0.0000000000
10
2.3116012341
20
294.6130738962
30
0.0000000000
10
2.3034969986
20
294.6133858716
30
0.0000000000
11
2.3278374764
21
294.6128368077
31
0.0000000000
11
2.3034969986
21
294.6133858716
31
0.0000000000
0
SPLINE
5
383
100
AcDbEntity
8
0
100
AcDbSpline
62
7
6
CONTINUOUS
70
0
71
3
72
8
73
4
74
2
42
0.0000001000
43
0.0000001000
44
0.0000000001
12
-0.0133758724
22
0.0005149088
32
0.0000000000
13
-0.0133593634
23
0.0007433272
33
0.0000000000
40
0.0000000000
40
0.0000000000
40
0.0000000000
40
0.0000000000
40
1.0000000000
40
1.0000000000
40
1.0000000000
40
1.0000000000
10
2.3034969986
20
294.6133858716
30
0.0000000000
10
2.2990383744
20
294.6135575079
30
0.0000000000
10
2.2945825246
20
294.6137676486
30
0.0000000000
10
2.2901294034
20
294.6140154243
30
0.0000000000
11
2.3034969986
21
294.6133858716
31
0.0000000000
11
2.2901294034
21
294.6140154243
31
0.0000000000
0
SPLINE
5
384
100
AcDbEntity
8
0
100
AcDbSpline
62
7
6
CONTINUOUS
70
0
71
3
72
9
73
5
74
3
42
0.0000001000
43
0.0000001000
44
0.0000000001
12
-0.0603938318
22
0.0073448720
32
0.0000000000
13
-0.0607785955
23
0.0027725077
33
0.0000000000
40
0.0000000000
40
0.0000000000
40
0.0000000000
40
0.0000000000
40
0.3869911088
40
1.0000000000
40
1.0000000000
40
1.0000000000
40
1.0000000000
10
2.6966847470
20
294.9396814865
30
0.0000000000
10
2.6888941217
20
294.9406289532
30
0.0000000000
10
2.6687309199
20
294.9428213488
30
0.0000000000
10
2.6485025744
20
294.9443383992
30
0.0000000000
10
2.6360833013
20
294.9449049231
30
0.0000000000
11
2.6966847470
21
294.9396814865
31
0.0000000000
11
2.6732784060
21
294.9422246873
31
0.0000000000
11
2.6360833013
21
294.9449049231
31
0.0000000000
0
SPLINE
5
385
100
AcDbEntity
8
0
100
AcDbSpline
62
7
6
CONTINUOUS
70
0
71
3
72
9
73
5
74
3
42
0.0000001000
43
0.0000001000
44
0.0000000001
12
-0.0564442669
22
0.0025747907
32
0.0000000000
13
-0.0559810452
23
-0.0080425123
33
0.0000000000
40
0.0000000000
40
0.0000000000
40
0.0000000000
40
0.0000000000
40
0.5438656546
40
1.0000000000
40
1.0000000000
40
1.0000000000
40
1.0000000000
10
2.6360833013
20
294.9449049231
30
0.0000000000
10
2.6258506019
20
294.9453717032
30
0.0000000000
10
2.6070119831
20
294.9457763063
30
0.0000000000
10
2.5881778068
20
294.9446015857
30
0.0000000000
10
2.5796661810
20
294.9433787636
30
0.0000000000
11
2.6360833013
21
294.9449049231
31
0.0000000000
11
2.6053605604
21
294.9453446547
31
0.0000000000
11
2.5796661810
21
294.9433787636
31
0.0000000000
0
SPLINE
5
386
100
AcDbEntity
8
0
100
AcDbSpline
62
7
6
CONTINUOUS
70
0
71
3
72
8
73
4
74
2
42
0.0000001000
43
0.0000001000
44
0.0000000001
12
-0.0253563285
22
-0.0036428149
32
0.0000000000
13
-0.0242042291
23
-0.0084543714
33
0.0000000000
40
0.0000000000
40
0.0000000000
40
0.0000000000
40
0.0000000000
40
1.0000000000
40
1.0000000000
40
1.0000000000
40
1.0000000000
10
2.5796661810
20
294.9433787636
30
0.0000000000
10
2.5712140715
20
294.9421644920
30
0.0000000000
10
2.5628401459
20
294.9402728026
30
0.0000000000
10
2.5547720696
20
294.9374546788
30
0.0000000000
11
2.5796661810
21
294.9433787636
31
0.0000000000
11
2.5547720696
21
294.9374546788
31
0.0000000000
0
SPLINE
5
387
100
AcDbEntity
8
0
100
AcDbSpline
62
7
6
CONTINUOUS
70
0
71
3
72
11
73
7
74
5
42
0.0000001000
43
0.0000001000
44
0.0000000001
12
-0.1097795045
22
-0.0383452287
32
0.0000000000
13
-0.0129853403
23
-0.1160160106
33
0.0000000000
40
0.0000000000
40
0.0000000000
40
0.0000000000
40
0.0000000000
40
0.2448027718
40
0.5034455926
40
0.7877064745
40
1.0000000000
40
1.0000000000
40
1.0000000000
40
1.0000000000
10
2.5547720696
20
294.9374546788
30
0.0000000000
10
2.5458139606
20
294.9343256727
30
0.0000000000
10
2.5281667100
20
294.9255419740
30
0.0000000000
10
2.5053985609
20
294.9046283586
30
0.0000000000
10
2.4906554308
20
294.8788414264
30
0.0000000000
10
2.4861727245
20
294.8598282414
30
0.0000000000
10
2.4852538233
20
294.8516184255
30
0.0000000000
11
2.5547720696
21
294.9374546788
31
0.0000000000
11
2.5293837508
21
294.9246998729
31
0.0000000000
11
2.5072950924
21
294.9043725527
31
0.0000000000
11
2.4909582533
21
294.8757096342
31
0.0000000000
11
2.4852538233
21
294.8516184255
31
0.0000000000
0
SPLINE
5
388
100
AcDbEntity
8
0
100
AcDbSpline
62
7
6
CONTINUOUS
70
0
71
3
72
8
73
4
74
2
42
0.0000001000
43
0.0000001000
44
0.0000000001
12
-0.0012512757
22
-0.0111793772
32
0.0000000000
13
-0.0000054201
23
-0.0111967750
33
0.0000000000
40
0.0000000000
40
0.0000000000
40
0.0000000000
40
0.0000000000
40
1.0000000000
40
1.0000000000
40
1.0000000000
40
1.0000000000
10
2.4852538233
20
294.8516184255
30
0.0000000000
10
2.4848367314
20
294.8478919664
30
0.0000000000
10
2.4846251738
20
294.8441488094
30
0.0000000000
10
2.4846233671
20
294.8404165511
30
0.0000000000
11
2.4852538233
21
294.8516184255
31
0.0000000000
11
2.4846233671
21
294.8404165511
31
0.0000000000
0
SPLINE
5
389
100
AcDbEntity
8
0
100
AcDbSpline
62
7
6
CONTINUOUS
70
0
71
3
72
10
73
6
74
4
42
0.0000001000
43
0.0000001000
44
0.0000000001
12
-1.0911208316
22
0.3562194201
32
0.0000000000
13
-1.1394011973
23
0.1385349433
33
0.0000000000
40
0.0000000000
40
0.0000000000
40
0.0000000000
40
0.0000000000
40
0.3242092501
40
0.6736871094
40
1.0000000000
40
1.0000000000
40
1.0000000000
40
1.0000000000
10
3.8156506407
20
294.6914805336
30
0.0000000000
10
3.6977334852
20
294.7299770773
30
0.0000000000
10
3.4501136369
20
294.8022627223
30
0.0000000000
10
3.0763685250
20
294.8852437149
30
0.0000000000
10
2.8206183103
20
294.9246112401
30
0.0000000000
10
2.6966845443
20
294.9396798193
30
0.0000000000
11
3.8156506407
21
294.6914805336
31
0.0000000000
11
3.4584361809
21
294.7957573058
31
0.0000000000
11
3.0668611703
21
294.8826970930
31
0.0000000000
11
2.6966845443
21
294.9396798193
31
0.0000000000
0
SPLINE
5
38A
100
AcDbEntity
8
0
100
AcDbSpline
62
7
6
CONTINUOUS
70
0
71
3
72
8
73
4
74
2
42
0.0000001000
43
0.0000001000
44
0.0000000001
12
0.0000338558
22
0.0001072465
32
0.0000000000
13
-0.0041573908
23
0.0006697597
33
0.0000000000
40
0.0000000000
40
0.0000000000
40
0.0000000000
40
0.0000000000
40
1.0000000000
40
1.0000000000
40
1.0000000000
40
1.0000000000
10
4.0866914586
20
294.6125445136
30
0.0000000000
10
4.0867027439
20
294.6125802624
30
0.0000000000
10
4.0854972554
20
294.6127739910
30
0.0000000000
10
4.0841114585
20
294.6129972442
30
0.0000000000
11
4.0866914586
21
294.6125445136
31
0.0000000000
11
4.0841114585
21
294.6129972442
31
0.0000000000
0
SPLINE
5
38B
100
AcDbEntity
8
0
100
AcDbSpline
62
7
6
CONTINUOUS
70
0
71
3
72
11
73
7
74
5
42
0.0000001000
43
0.0000001000
44
0.0000000001
12
-0.0393958244
22
0.0063467055
32
0.0000000000
13
-0.0252524804
23
0.0062307611
33
0.0000000000
40
0.0000000000
40
0.0000000000
40
0.0000000000
40
0.0000000000
40
0.0437461442
40
0.3811931806
40
0.8487327780
40
1.0000000000
40
1.0000000000
40
1.0000000000
40
1.0000000000
10
4.0841114585
20
294.6129972442
30
0.0000000000
10
4.0835369867
20
294.6130897922
30
0.0000000000
10
4.0782611827
20
294.6139404433
30
0.0000000000
10
4.0737586319
20
294.6151451622
30
0.0000000000
10
4.0648616451
20
294.6171318639
30
0.0000000000
10
4.0595741685
20
294.6184148901
30
0.0000000000
10
4.0583008777
20
294.6187290601
30
0.0000000000
11
4.0841114585
21
294.6129972442
31
0.0000000000
11
4.0823689224
21
294.6132809584
31
0.0000000000
11
4.0738830962
21
294.6150536049
31
0.0000000000
11
4.0621872934
21
294.6177874637
31
0.0000000000
11
4.0583008777
21
294.6187290601
31
0.0000000000
0
SPLINE
5
38C
100
AcDbEntity
8
0
100
AcDbSpline
62
7
6
CONTINUOUS
70
0
71
3
72
18
73
14
74
12
42
0.0000001000
43
0.0000001000
44
0.0000000001
12
-0.2491589938
22
0.0614771357
32
0.0000000000
13
-0.2409641088
23
0.0786527443
33
0.0000000000
40
0.0000000000
40
0.0000000000
40
0.0000000000
40
0.0000000000
40
0.0441584266
40
0.1147243445
40
0.1955767258
40
0.2863024203
40
0.3862697342
40
0.4948207329
40
0.6111644276
40
0.7344498212
40
0.8637745550
40
0.9980510664
40
1.0000000000
40
1.0000000000
40
1.0000000000
40
1.0000000000
10
4.0583008777
20
294.6187290601
30
0.0000000000
10
4.0546333880
20
294.6196339713
30
0.0000000000
10
4.0455197085
20
294.6219964650
30
0.0000000000
10
4.0293863394
20
294.6262646095
30
0.0000000000
10
4.0097284792
20
294.6317227109
30
0.0000000000
10
3.9876531646
20
294.6380420894
30
0.0000000000
10
3.9634006806
20
294.6451695759
30
0.0000000000
10
3.9371151328
20
294.6530801521
30
0.0000000000
10
3.9089950334
20
294.6617218000
30
0.0000000000
10
3.8792438579
20
294.6710318251
30
0.0000000000
10
3.8480953354
20
294.6809479333
30
0.0000000000
10
3.8267481258
20
294.6878552695
30
0.0000000000
10
3.8158061823
20
294.6914263751
30
0.0000000000
10
3.8156496413
20
294.6914774714
30
0.0000000000
11
4.0583008777
21
294.6187290601
31
0.0000000000
11
4.0475656491
21
294.6214735776
31
0.0000000000
11
4.0302779216
21
294.6260637149
31
0.0000000000
11
4.0105257298
21
294.6315280171
31
0.0000000000
11
3.9884152228
21
294.6378506045
31
0.0000000000
11
3.9641027212
21
294.6449906364
31
0.0000000000
11
3.9377535155
21
294.6529149637
31
0.0000000000
11
3.9095628124
21
294.6615729018
31
0.0000000000
11
3.8797384226
21
294.6709033149
31
0.0000000000
11
3.8485017544
21
294.6808451832
31
0.0000000000
11
3.8161192699
21
294.6913241994
31
0.0000000000
11
3.8156496413
21
294.6914774714
31
0.0000000000
0
SPLINE
5
38D
100
AcDbEntity
8
0
100
AcDbSpline
62
7
6
CONTINUOUS
70
0
71
3
72
8
73
4
74
2
42
0.0000001000
43
0.0000001000
44
0.0000000001
12
0.0000338947
22
0.0001160309
32
0.0000000000
13
-0.0042056179
23
0.0006729367
33
0.0000000000
40
0.0000000000
40
0.0000000000
40
0.0000000000
40
0.0000000000
40
1.0000000000
40
1.0000000000
40
1.0000000000
40
1.0000000000
10
4.0866859564
20
294.6125553163
30
0.0000000000
10
4.0866972546
20
294.6125939933
30
0.0000000000
10
4.0855151605
20
294.6127846367
30
0.0000000000
10
4.0841132878
20
294.6130089489
30
0.0000000000
11
4.0866859564
21
294.6125553163
31
0.0000000000
11
4.0841132878
21
294.6130089489
31
0.0000000000
0
SPLINE
5
38E
100
AcDbEntity
8
0
100
AcDbSpline
62
7
6
CONTINUOUS
70
0
71
3
72
17
73
13
74
11
42
0.0000001000
43
0.0000001000
44
0.0000000001
12
-0.2509708435
22
0.0616478837
32
0.0000000000
13
-0.2409606472
23
0.0786734263
33
0.0000000000
40
0.0000000000
40
0.0000000000
40
0.0000000000
40
0.0000000000
40
0.0479700867
40
0.1192779108
40
0.2010034140
40
0.2926090716
40
0.3934274926
40
0.5028415426
40
0.6200107320
40
0.7441297324
40
0.8743023083
40
1.0000000000
40
1.0000000000
40
1.0000000000
40
1.0000000000
10
4.0583086626
20
294.6187305072
30
0.0000000000
10
4.0542956316
20
294.6197162587
30
0.0000000000
10
4.0448491021
20
294.6221694412
30
0.0000000000
10
4.0282609580
20
294.6265684554
30
0.0000000000
10
4.0084083103
20
294.6320987141
30
0.0000000000
10
3.9861213274
20
294.6384837794
30
0.0000000000
10
3.9616625692
20
294.6456865656
30
0.0000000000
10
3.9351755207
20
294.6536737101
30
0.0000000000
10
3.9068538487
20
294.6623859973
30
0.0000000000
10
3.8769034710
20
294.6717700392
30
0.0000000000
10
3.8463129864
20
294.6815192292
30
0.0000000000
10
3.8257457123
20
294.6881811374
30
0.0000000000
10
3.8156496466
20
294.6914774935
30
0.0000000000
11
4.0583086626
21
294.6187305072
31
0.0000000000
11
4.0466331716
21
294.6217148885
31
0.0000000000
11
4.0291664107
21
294.6263644024
31
0.0000000000
11
4.0092045369
21
294.6319017473
31
0.0000000000
11
3.9868817165
21
294.6382941825
31
0.0000000000
11
3.9623654744
21
294.6455071917
31
0.0000000000
11
3.9358105121
21
294.6535081284
31
0.0000000000
11
3.9074223997
21
294.6622372516
31
0.0000000000
11
3.8773991411
21
294.6716409768
31
0.0000000000
11
3.8459608151
21
294.6816591901
31
0.0000000000
11
3.8156496466
21
294.6914774935
31
0.0000000000
0
SPLINE
5
38F
100
AcDbEntity
8
0
100
AcDbSpline
62
7
6
CONTINUOUS
70
0
71
3
72
16
73
12
74
10
42
0.0000001000
43
0.0000001000
44
0.0000000001
12
-0.2571082013
22
0.0312732353
32
0.0000000000
13
-0.0289956003
23
-0.2588563033
33
0.0000000000
40
0.0000000000
40
0.0000000000
40
0.0000000000
40
0.0000000000
40
0.0957177787
40
0.2385228785
40
0.3560819468
40
0.4550440047
40
0.5535147798
40
0.6628920152
40
0.7781856162
40
0.9049357695
40
1.0000000000
40
1.0000000000
40
1.0000000000
40
1.0000000000
10
2.6966847161
20
294.9396812293
30
0.0000000000
10
2.6884814408
20
294.9406790308
30
0.0000000000
10
2.6680052604
20
294.9428923139
30
0.0000000000
10
2.6373374346
20
294.9451496640
30
0.0000000000
10
2.6063051048
20
294.9457631301
30
0.0000000000
10
2.5791123478
20
294.9439948162
30
0.0000000000
10
2.5531317731
20
294.9380206028
30
0.0000000000
10
2.5279042955
20
294.9253461422
30
0.0000000000
10
2.5052997128
20
294.9044670280
30
0.0000000000
10
2.4906432105
20
294.8787712860
30
0.0000000000
10
2.4861753238
20
294.8598207825
30
0.0000000000
10
2.4852565090
20
294.8516181241
30
0.0000000000
11
2.6966847161
21
294.9396812293
31
0.0000000000
11
2.6720367534
21
294.9423424678
31
0.0000000000
11
2.6351445536
21
294.9449468914
31
0.0000000000
11
2.6047011973
21
294.9453275877
31
0.0000000000
11
2.5791517217
21
294.9433046346
31
0.0000000000
11
2.5543637089
21
294.9373115720
31
0.0000000000
11
2.5290981388
21
294.9245030695
31
0.0000000000
11
2.5071814732
21
294.9042244883
31
0.0000000000
11
2.4909556861
21
294.8756889935
31
0.0000000000
11
2.4852565090
21
294.8516181241
31
0.0000000000
0
SPLINE
5
390
100
AcDbEntity
8
0
100
AcDbSpline
62
7
6
CONTINUOUS
70
0
71
3
72
12
73
8
74
6
42
0.0000001000
43
0.0000001000
44
0.0000000001
12
-0.1619099871
22
-0.0512868116
32
0.0000000000
13
-0.1836198709
23
0.0070518447
33
0.0000000000
40
0.0000000000
40
0.0000000000
40
0.0000000000
40
0.0000000000
40
0.0435347811
40
0.2501577898
40
0.5368832645
40
0.8832351292
40
1.0000000000
40
1.0000000000
40
1.0000000000
40
1.0000000000
10
2.4847280661
20
294.6321393028
30
0.0000000000
10
2.4823784942
20
294.6313950494
30
0.0000000000
10
2.4692098354
20
294.6279353248
30
0.0000000000
10
2.4355362591
20
294.6192543001
30
0.0000000000
10
2.3851690372
20
294.6139178951
30
0.0000000000
10
2.3390200960
20
294.6124193598
30
0.0000000000
10
2.3106438929
20
294.6131142078
30
0.0000000000
10
2.3034971094
20
294.6133886770
30
0.0000000000
11
2.4847280661
21
294.6321393028
31
0.0000000000
11
2.4777186673
21
294.6301731406
31
0.0000000000
11
2.4407972726
21
294.6213987925
31
0.0000000000
11
2.3885426641
21
294.6148625853
31
0.0000000000
11
2.3249608109
21
294.6128668309
31
0.0000000000
11
2.3034971094
21
294.6133886770
31
0.0000000000
0
SPLINE
5
391
100
AcDbEntity
8
0
100
AcDbSpline
62
7
6
CONTINUOUS
70
0
71
3
72
10
73
6
74
4
42
0.0000001000
43
0.0000001000
44
0.0000000001
12
-0.6103824095
22
0.0337146639
32
0.0000000000
13
-0.6103837428
23
-0.0337146206
33
0.0000000000
40
0.0000000000
40
0.0000000000
40
0.0000000000
40
0.0000000000
40
0.3201470045
40
0.6837620612
40
1.0000000000
40
1.0000000000
40
1.0000000000
40
1.0000000000
10
2.2901302996
20
294.6140341393
30
0.0000000000
10
2.2249929329
20
294.6176320221
30
0.0000000000
10
2.0857259626
20
294.6228591656
30
0.0000000000
10
1.8819112021
20
294.6228152360
30
0.0000000000
10
1.7434421311
20
294.6175880646
30
0.0000000000
10
1.6790999655
20
294.6140341172
30
0.0000000000
11
2.2901302996
21
294.6140341393
31
0.0000000000
11
2.0945588584
21
294.6213743639
31
0.0000000000
11
1.8722822229
21
294.6213264253
31
0.0000000000
11
1.6790999655
21
294.6140341172
31
0.0000000000
0
SPLINE
5
392
100
AcDbEntity
8
0
100
AcDbSpline
62
7
6
CONTINUOUS
70
0
71
3
72
8
73
4
74
2
42
0.0000001000
43
0.0000001000
44
0.0000000001
12
-0.0133593634
22
-0.0007433272
32
0.0000000000
13
-0.0133758724
23
-0.0005149088
33
0.0000000000
40
0.0000000000
40
0.0000000000
40
0.0000000000
40
0.0000000000
40
1.0000000000
40
1.0000000000
40
1.0000000000
40
1.0000000000
10
1.6791010040
20
294.6140154243
30
0.0000000000
10
1.6746478829
20
294.6137676486
30
0.0000000000
10
1.6701920330
20
294.6135575079
30
0.0000000000
10
1.6657334089
20
294.6133858716
30
0.0000000000
11
1.6791010040
21
294.6140154243
31
0.0000000000
11
1.6657334089
21
294.6133858716
31
0.0000000000
0
SPLINE
5
393
100
AcDbEntity
8
0
100
AcDbSpline
62
9
6
CONTINUOUS
70
0
71
3
72
10
73
6
74
4
42
0.0000001000
43
0.0000001000
44
0.0000000001
12
-0.0000000037
22
0.0084211513
32
0.0000000000
13
0.0000000024
23
0.0084211513
33
0.0000000000
40
0.0000000000
40
0.0000000000
40
0.0000000000
40
0.0000000000
40
0.5552522622
40
0.8890061159
40
1.0000000000
40
1.0000000000
40
1.0000000000
40
1.0000000000
10
-0.1514006274
20
294.6073334853
30
0.0000000000
10
-0.1514006281
20
294.6088921064
30
0.0000000000
10
-0.1514006260
20
294.6113875914
30
0.0000000000
10
-0.1514006276
20
294.6141946419
30
0.0000000000
10
-0.1514006275
20
294.6154430712
30
0.0000000000
10
-0.1514006274
20
294.6157546367
30
0.0000000000
11
-0.1514006274
21
294.6073334853
31
0.0000000000
11
-0.1514006268
21
294.6120093487
31
0.0000000000
11
-0.1514006275
21
294.6148199404
31
0.0000000000
11
-0.1514006274
21
294.6157546367
31
0.0000000000
0
SPLINE
5
394
100
AcDbEntity
8
0
100
AcDbSpline
62
9
6
CONTINUOUS
70
0
71
3
72
11
73
7
74
5
42
0.0000001000
43
0.0000001000
44
0.0000000001
12
-0.2347482178
22
-0.0766424207
32
0.0000000000
13
-0.2489078788
23
-0.0675589159
33
0.0000000000
40
0.0000000000
40
0.0000000000
40
0.0000000000
40
0.0000000000
40
0.3504046771
40
0.6666687971
40
0.9304468631
40
1.0000000000
40
1.0000000000
40
1.0000000000
40
1.0000000000
10
0.1537444913
20
294.6909759797
30
0.0000000000
10
0.1263255335
20
294.6820240255
30
0.0000000000
10
0.0742241362
20
294.6653712760
30
0.0000000000
10
0.0003414977
20
294.6426582941
30
0.0000000000
10
-0.0495429490
20
294.6285282916
30
0.0000000000
10
-0.0776041288
20
294.6206609813
30
0.0000000000
10
-0.0833749034
20
294.6190946698
30
0.0000000000
11
0.1537444913
21
294.6909759797
31
0.0000000000
11
0.0713250896
21
294.6646231278
31
0.0000000000
11
-0.0033756961
21
294.6418355558
31
0.0000000000
11
-0.0660008606
21
294.6239173288
31
0.0000000000
11
-0.0833749034
21
294.6190946698
31
0.0000000000
0
SPLINE
5
395
100
AcDbEntity
8
0
100
AcDbSpline
62
9
6
CONTINUOUS
70
0
71
3
72
10
73
6
74
4
42
0.0000001000
43
0.0000001000
44
0.0000000001
12
-0.0708811429
22
-0.0192386565
32
0.0000000000
13
0.0003549073
23
0.0703206776
33
0.0000000000
40
0.0000000000
40
0.0000000000
40
0.0000000000
40
0.0000000000
40
0.4410278012
40
0.8596420268
40
1.0000000000
40
1.0000000000
40
1.0000000000
40
1.0000000000
10
-0.0833749034
20
294.6190946698
30
0.0000000000
10
-0.0937950883
20
294.6162664090
30
0.0000000000
10
-0.1135689210
20
294.6112320947
30
0.0000000000
10
-0.1303642312
20
294.6091183353
30
0.0000000000
10
-0.1514172321
20
294.6040434627
30
0.0000000000
10
-0.1514006274
20
294.6073334853
30
0.0000000000
11
-0.0833749034
21
294.6190946698
31
0.0000000000
11
-0.1126800492
21
294.6119476323
31
0.0000000000
11
-0.1415798970
21
294.6063465847
31
0.0000000000
11
-0.1514006274
21
294.6073334853
31
0.0000000000
0
SPLINE
5
396
100
AcDbEntity
8
0
100
AcDbSpline
62
9
6
CONTINUOUS
70
0
71
3
72
12
73
8
74
6
42
0.0000001000
43
0.0000001000
44
0.0000000001
12
-1.1394044272
22
-0.1385317330
32
0.0000000000
13
-1.0911181987
23
-0.3562226359
33
0.0000000000
40
0.0000000000
40
0.0000000000
40
0.0000000000
40
0.0000000000
40
0.1736997740
40
0.3668447149
40
0.5660151312
40
0.7736035241
40
1.0000000000
40
1.0000000000
40
1.0000000000
40
1.0000000000
10
1.2726099267
20
294.9391528989
30
0.0000000000
10
1.2066384962
20
294.9311319220
30
0.0000000000
10
1.0675858125
20
294.9118360324
30
0.0000000000
10
0.8542348404
20
294.8744268005
30
0.0000000000
10
0.6297813208
20
294.8261766855
30
0.0000000000
10
0.3950876324
20
294.7659204232
30
0.0000000000
10
0.2360862630
20
294.7178584962
30
0.0000000000
10
0.1537444913
20
294.6909759797
30
0.0000000000
11
1.2726099267
21
294.9391528989
31
0.0000000000
11
1.0751304993
21
294.9117491187
31
0.0000000000
11
0.8567709613
21
294.8734616980
31
0.0000000000
11
0.6332698974
21
294.8254163838
31
0.0000000000
11
0.4024860399
21
294.7661635815
31
0.0000000000
11
0.1537444913
21
294.6909759797
31
0.0000000000
0
SPLINE
5
397
100
AcDbEntity
8
0
100
AcDbSpline
62
9
6
CONTINUOUS
70
0
71
3
72
14
73
10
74
8
42
0.0000001000
43
0.0000001000
44
0.0000000001
12
-0.0001275271
22
0.1030417226
32
0.0000000000
13
-0.1022885817
23
-0.0124361939
33
0.0000000000
40
0.0000000000
40
0.0000000000
40
0.0000000000
40
0.0000000000
40
0.0475695937
40
0.1569696759
40
0.3115077117
40
0.4870765621
40
0.6663493256
40
0.8385288923
40
1.0000000000
40
1.0000000000
40
1.0000000000
40
1.0000000000
10
1.3743249662
20
294.9391528989
30
0.0000000000
10
1.3743229441
20
294.9407867832
30
0.0000000000
10
1.3675244057
20
294.9432357266
30
0.0000000000
10
1.3581458548
20
294.9439505394
30
0.0000000000
10
1.3424581885
20
294.9444695708
30
0.0000000000
10
1.3251623381
20
294.9438459676
30
0.0000000000
10
1.3070410044
20
294.9426899186
30
0.0000000000
10
1.2895084047
20
294.9410940890
30
0.0000000000
10
1.2781154769
20
294.9398222609
30
0.0000000000
10
1.2726099267
20
294.9391528989
30
0.0000000000
11
1.3743249662
21
294.9391528989
31
0.0000000000
11
1.3703927067
21
294.9420792572
31
0.0000000000
11
1.3592514849
21
294.9437964586
31
0.0000000000
11
1.3433346716
21
294.9442707288
31
0.0000000000
11
1.3252507748
21
294.9437662997
31
0.0000000000
11
1.3068156485
21
294.9425904407
31
0.0000000000
11
1.2891455197
21
294.9409985210
31
0.0000000000
11
1.2726099267
21
294.9391528989
31
0.0000000000
0
SPLINE
5
398
100
AcDbEntity
8
0
100
AcDbSpline
62
9
6
CONTINUOUS
70
0
71
3
72
12
73
8
74
6
42
0.0000001000
43
0.0000001000
44
0.0000000001
12
-0.0000000955
22
0.2481769191
32
0.0000000000
13
0.0000000361
23
0.2481769191
33
0.0000000000
40
0.0000000000
40
0.0000000000
40
0.0000000000
40
0.0000000000
40
0.3245288541
40
0.5733868835
40
0.7612770168
40
0.8998605882
40
1.0000000000
40
1.0000000000
40
1.0000000000
40
1.0000000000
10
1.3743249662
20
294.6909759797
30
0.0000000000
10
1.3743249559
20
294.7178228368
30
0.0000000000
10
1.3743249753
20
294.7652566335
30
0.0000000000
10
1.3743249646
20
294.8282337618
30
0.0000000000
10
1.3743249652
20
294.8758284475
30
0.0000000000
10
1.3743249675
20
294.9111202905
30
0.0000000000
10
1.3743249650
20
294.9308688020
30
0.0000000000
10
1.3743249662
20
294.9391528989
30
0.0000000000
11
1.3743249662
21
294.6909759797
31
0.0000000000
11
1.3743249691
21
294.7715165509
31
0.0000000000
11
1.3743249659
21
294.8332773700
31
0.0000000000
11
1.3743249658
21
294.8799073644
31
0.0000000000
11
1.3743249665
21
294.9143006082
31
0.0000000000
11
1.3743249662
21
294.9391528989
31
0.0000000000
0
SPLINE
5
399
100
AcDbEntity
8
0
100
AcDbSpline
62
9
6
CONTINUOUS
70
0
71
3
72
8
73
4
74
2
42
0.0000001000
43
0.0000001000
44
0.0000000001
12
-0.0259648526
22
-0.0014341561
32
0.0000000000
13
-0.0260031346
23
-0.0007031723
33
0.0000000000
40
0.0000000000
40
0.0000000000
40
0.0000000000
40
0.0000000000
40
1.0000000000
40
1.0000000000
40
1.0000000000
40
1.0000000000
10
1.6794700850
20
294.6073334853
30
0.0000000000
10
1.6708151341
20
294.6068554333
30
0.0000000000
10
1.6621515781
20
294.6064968029
30
0.0000000000
10
1.6534838666
20
294.6062624121
30
0.0000000000
11
1.6794700850
21
294.6073334853
31
0.0000000000
11
1.6534838666
21
294.6062624121
31
0.0000000000
0
SPLINE
5
39A
100
AcDbEntity
8
0
100
AcDbSpline
62
9
6
CONTINUOUS
70
0
71
3
72
10
73
6
74
4
42
0.0000001000
43
0.0000001000
44
0.0000000001
12
-0.1456857917
22
-0.0039396099
32
0.0000000000
13
-0.1438195669
23
0.0241745223
33
0.0000000000
40
0.0000000000
40
0.0000000000
40
0.0000000000
40
0.0000000000
40
0.3486430920
40
0.8460685313
40
1.0000000000
40
1.0000000000
40
1.0000000000
40
1.0000000000
10
1.6534838666
20
294.6062624121
30
0.0000000000
10
1.6365530850
20
294.6058045729
30
0.0000000000
10
1.5954278869
20
294.6058438622
30
0.0000000000
10
1.5469409415
20
294.6094397372
30
0.0000000000
10
1.5155976315
20
294.6140286286
30
0.0000000000
10
1.5082181791
20
294.6152690352
30
0.0000000000
11
1.6534838666
21
294.6062624121
31
0.0000000000
11
1.6026771176
21
294.6063468896
31
0.0000000000
11
1.5304253512
21
294.6119851714
31
0.0000000000
11
1.5082181791
21
294.6152690352
31
0.0000000000
0
SPLINE
5
39B
100
AcDbEntity
8
0
100
AcDbSpline
62
9
6
CONTINUOUS
70
0
71
3
72
8
73
4
74
2
42
0.0000001000
43
0.0000001000
44
0.0000000001
12
-0.0237336029
22
0.0039893634
32
0.0000000000
13
-0.0234891810
23
0.0051773087
33
0.0000000000
40
0.0000000000
40
0.0000000000
40
0.0000000000
40
0.0000000000
40
1.0000000000
40
1.0000000000
40
1.0000000000
40
1.0000000000
10
1.5082181791
20
294.6152690352
30
0.0000000000
10
1.5003069781
20
294.6165988230
30
0.0000000000
10
1.4924276516
20
294.6181078339
30
0.0000000000
10
1.4845979246
20
294.6198336035
30
0.0000000000
11
1.5082181791
21
294.6152690352
31
0.0000000000
11
1.4845979246
21
294.6198336035
31
0.0000000000
0
SPLINE
5
39C
100
AcDbEntity
8
0
100
AcDbSpline
62
9
6
CONTINUOUS
70
0
71
3
72
8
73
4
74
2
42
0.0000001000
43
0.0000001000
44
0.0000000001
12
-0.0172327122
22
0.0037983049
32
0.0000000000
13
-0.0170515376
23
0.0045427719
33
0.0000000000
40
0.0000000000
40
0.0000000000
40
0.0000000000
40
0.0000000000
40
1.0000000000
40
1.0000000000
40
1.0000000000
40
1.0000000000
10
1.4845979246
20
294.6198336035
30
0.0000000000
10
1.4788536872
20
294.6210997051
30
0.0000000000
10
1.4731361460
20
294.6224824737
30
0.0000000000
10
1.4674523002
20
294.6239967310
30
0.0000000000
11
1.4845979246
21
294.6198336035
31
0.0000000000
11
1.4674523002
21
294.6239967310
31
0.0000000000
0
SPLINE
5
39D
100
AcDbEntity
8
0
100
AcDbSpline
62
9
6
CONTINUOUS
70
0
71
3
72
10
73
6
74
4
42
0.0000001000
43
0.0000001000
44
0.0000000001
12
-0.1168063314
22
0.0311188667
32
0.0000000000
13
0.0000729979
23
0.1208295183
33
0.0000000000
40
0.0000000000
40
0.0000000000
40
0.0000000000
40
0.0000000000
40
0.4363905819
40
0.7617294484
40
1.0000000000
40
1.0000000000
40
1.0000000000
40
1.0000000000
10
1.4674523002
20
294.6239967310
30
0.0000000000
10
1.4504612392
20
294.6285233911
30
0.0000000000
10
1.4213285607
20
294.6384757987
30
0.0000000000
10
1.3861228883
20
294.6592726218
30
0.0000000000
10
1.3743191685
20
294.6813792744
30
0.0000000000
10
1.3743249662
20
294.6909759797
30
0.0000000000
11
1.4674523002
21
294.6239967310
31
0.0000000000
11
1.4178412984
21
294.6418596143
31
0.0000000000
11
1.3857360917
21
294.6645438535
31
0.0000000000
11
1.3743249662
21
294.6909759797
31
0.0000000000
0
SPLINE
5
39E
100
AcDbEntity
8
0
100
AcDbSpline
62
9
6
CONTINUOUS
70
0
71
3
72
10
73
6
74
4
42
0.0000001000
43
0.0000001000
44
0.0000000001
12
-0.6096363370
22
0.0336737673
32
0.0000000000
13
-0.6096363343
23
-0.0336738160
33
0.0000000000
40
0.0000000000
40
0.0000000000
40
0.0000000000
40
0.0000000000
40
0.3328661760
40
0.6669943864
40
1.0000000000
40
1.0000000000
40
1.0000000000
40
1.0000000000
10
2.2897603224
20
294.6073334853
30
0.0000000000
10
2.2221178837
20
294.6110697714
30
0.0000000000
10
2.0864253360
20
294.6160673597
30
0.0000000000
10
1.8828618451
20
294.6160689207
30
0.0000000000
10
1.7471408588
20
294.6110713419
30
0.0000000000
10
1.6794700850
20
294.6073334853
30
0.0000000000
11
2.2897603224
21
294.6073334853
31
0.0000000000
11
2.0866613719
21
294.6148134894
31
0.0000000000
11
1.8826541713
21
294.6148150582
31
0.0000000000
11
1.6794700850
21
294.6073334853
31
0.0000000000
0
SPLINE
5
39F
100
AcDbEntity
8
0
100
AcDbSpline
62
9
6
CONTINUOUS
70
0
71
3
72
11
73
7
74
5
42
0.0000001000
43
0.0000001000
44
0.0000000001
12
-0.0000256699
22
-0.1384612527
32
0.0000000000
13
-0.1352723955
23
-0.0298191917
33
0.0000000000
40
0.0000000000
40
0.0000000000
40
0.0000000000
40
0.0000000000
40
0.2091032557
40
0.4931166190
40
0.8736295673
40
1.0000000000
40
1.0000000000
40
1.0000000000
40
1.0000000000
10
2.5949054412
20
294.6909759797
30
0.0000000000
10
2.5949036520
20
294.6813250802
30
0.0000000000
10
2.5830144871
20
294.6591762587
30
0.0000000000
10
2.5477495784
20
294.6384160709
30
0.0000000000
10
2.5130817016
20
294.6265885129
30
0.0000000000
10
2.4903312104
20
294.6210894796
30
0.0000000000
10
2.4846330667
20
294.6198333915
30
0.0000000000
11
2.5949054412
21
294.6909759797
31
0.0000000000
11
2.5833792092
21
294.6644165225
31
0.0000000000
11
2.5512239562
21
294.6417784290
31
0.0000000000
11
2.5016419374
21
294.6239607506
31
0.0000000000
11
2.4846330667
21
294.6198333915
31
0.0000000000
0
SPLINE
5
3A0
100
AcDbEntity
8
0
100
AcDbSpline
62
9
6
CONTINUOUS
70
0
71
3
72
8
73
4
74
2
42
0.0000001000
43
0.0000001000
44
0.0000000001
12
-0.0042859530
22
-0.0009447874
32
0.0000000000
13
-0.0042955310
23
-0.0009021475
33
0.0000000000
40
0.0000000000
40
0.0000000000
40
0.0000000000
40
0.0000000000
40
1.0000000000
40
1.0000000000
40
1.0000000000
40
1.0000000000
10
2.4846330667
20
294.6198333915
30
0.0000000000
10
2.4832044157
20
294.6195184624
30
0.0000000000
10
2.4817741146
20
294.6192107541
30
0.0000000000
10
2.4803422710
20
294.6189100383
30
0.0000000000
11
2.4846330667
21
294.6198333915
31
0.0000000000
11
2.4803422710
21
294.6189100383
31
0.0000000000
0
SPLINE
5
3A1
100
AcDbEntity
8
0
100
AcDbSpline
62
9
6
CONTINUOUS
70
0
71
3
72
8
73
4
74
2
42
0.0000001000
43
0.0000001000
44
0.0000000001
12
-0.0193422573
22
-0.0040622611
32
0.0000000000
13
-0.0195005064
23
-0.0032741333
33
0.0000000000
40
0.0000000000
40
0.0000000000
40
0.0000000000
40
0.0000000000
40
1.0000000000
40
1.0000000000
40
1.0000000000
40
1.0000000000
10
2.4803422710
20
294.6189100383
30
0.0000000000
10
2.4738948519
20
294.6175559513
30
0.0000000000
10
2.4674161548
20
294.6163436432
30
0.0000000000
10
2.4609159860
20
294.6152522655
30
0.0000000000
11
2.4803422710
21
294.6189100383
31
0.0000000000
11
2.4609159860
21
294.6152522655
31
0.0000000000
0
SPLINE
5
3A2
100
AcDbEntity
8
0
100
AcDbSpline
62
9
6
CONTINUOUS
70
0
71
3
72
10
73
6
74
4
42
0.0000001000
43
0.0000001000
44
0.0000000001
12
-0.1436554342
22
-0.0241197344
32
0.0000000000
13
-0.1455167566
23
0.0039235326
33
0.0000000000
40
0.0000000000
40
0.0000000000
40
0.0000000000
40
0.0000000000
40
0.1538736103
40
0.6506453984
40
1.0000000000
40
1.0000000000
40
1.0000000000
40
1.0000000000
10
2.4609159860
20
294.6152522655
30
0.0000000000
10
2.4535477259
20
294.6140151353
30
0.0000000000
10
2.4222748153
20
294.6094410501
30
0.0000000000
10
2.3738447060
20
294.6058465339
30
0.0000000000
10
2.3327645285
20
294.6058039935
30
0.0000000000
10
2.3158188790
20
294.6062608949
30
0.0000000000
11
2.4609159860
21
294.6152522655
31
0.0000000000
11
2.4387427197
21
294.6119766701
31
0.0000000000
11
2.3666700525
21
294.6063503575
31
0.0000000000
11
2.3158188790
21
294.6062608949
31
0.0000000000
0
SPLINE
5
3A3
100
AcDbEntity
8
0
100
AcDbSpline
62
9
6
CONTINUOUS
70
0
71
3
72
8
73
4
74
2
42
0.0000001000
43
0.0000001000
44
0.0000000001
12
-0.0260755307
22
0.0007030681
32
0.0000000000
13
-0.0260370964
23
0.0014371509
33
0.0000000000
40
0.0000000000
40
0.0000000000
40
0.0000000000
40
0.0000000000
40
1.0000000000
40
1.0000000000
40
1.0000000000
40
1.0000000000
10
2.3158188790
20
294.6062608949
30
0.0000000000
10
2.3071270354
20
294.6064952509
30
0.0000000000
10
2.2984393546
20
294.6068544350
30
0.0000000000
10
2.2897603224
20
294.6073334853
30
0.0000000000
11
2.3158188790
21
294.6062608949
31
0.0000000000
11
2.2897603224
21
294.6073334853
31
0.0000000000
0
SPLINE
5
3A4
100
AcDbEntity
8
0
100
AcDbSpline
62
9
6
CONTINUOUS
70
0
71
3
72
12
73
8
74
6
42
0.0000001000
43
0.0000001000
44
0.0000000001
12
0.0000000402
22
-0.2481769191
32
0.0000000000
13
-0.0000000830
23
-0.2481769191
33
0.0000000000
40
0.0000000000
40
0.0000000000
40
0.0000000000
40
0.0000000000
40
0.1005484461
40
0.2392339420
40
0.4272491127
40
0.6764381929
40
1.0000000000
40
1.0000000000
40
1.0000000000
40
1.0000000000
10
2.5949054412
20
294.9391528989
30
0.0000000000
10
2.5949054425
20
294.9308349644
30
0.0000000000
10
2.5949054395
20
294.9110441835
30
0.0000000000
10
2.5949054443
20
294.8756997273
30
0.0000000000
10
2.5949054402
20
294.8280588796
30
0.0000000000
10
2.5949054360
20
294.7651240208
30
0.0000000000
10
2.5949054501
20
294.7177428372
30
0.0000000000
10
2.5949054412
20
294.6909759797
30
0.0000000000
11
2.5949054412
21
294.9391528989
31
0.0000000000
11
2.5949054410
21
294.9141990953
31
0.0000000000
11
2.5949054427
21
294.8797805562
31
0.0000000000
11
2.5949054408
21
294.8331195304
31
0.0000000000
11
2.5949054397
21
294.7712765522
31
0.0000000000
11
2.5949054412
21
294.6909759797
31
0.0000000000
0
SPLINE
5
3A5
100
AcDbEntity
8
0
100
AcDbSpline
62
9
6
CONTINUOUS
70
0
71
3
72
14
73
10
74
8
42
0.0000001000
43
0.0000001000
44
0.0000000001
12
-0.1022860762
22
0.0124369244
32
0.0000000000
13
0.0002474778
23
-0.1030391053
33
0.0000000000
40
0.0000000000
40
0.0000000000
40
0.0000000000
40
0.0000000000
40
0.1614060718
40
0.3347621391
40
0.5142394507
40
0.6893348921
40
0.8429827303
40
0.9520038950
40
1.0000000000
40
1.0000000000
40
1.0000000000
40
1.0000000000
10
2.6966204808
20
294.9391528989
30
0.0000000000
10
2.6911172828
20
294.9398220306
30
0.0000000000
10
2.6796866197
20
294.9410980816
30
0.0000000000
10
2.6621096296
20
294.9426967105
30
0.0000000000
10
2.6439563310
20
294.9438517995
30
0.0000000000
10
2.6267030361
20
294.9444673958
30
0.0000000000
10
2.6110700385
20
294.9439534936
30
0.0000000000
10
2.6017369947
20
294.9432282444
30
0.0000000000
10
2.5949014819
20
294.9408013908
30
0.0000000000
10
2.5949054412
20
294.9391528989
30
0.0000000000
11
2.6966204808
21
294.9391528989
31
0.0000000000
11
2.6800919416
21
294.9409978145
31
0.0000000000
11
2.6623013685
21
294.9425992561
31
0.0000000000
11
2.6438453974
21
294.9437726573
31
0.0000000000
11
2.6258105497
21
294.9442709322
31
0.0000000000
11
2.6099858696
21
294.9437967968
31
0.0000000000
11
2.5988824255
21
294.9420925360
31
0.0000000000
11
2.5949054412
21
294.9391528989
31
0.0000000000
0
SPLINE
5
3A6
100
AcDbEntity
8
0
100
AcDbSpline
62
9
6
CONTINUOUS
70
0
71
3
72
10
73
6
74
4
42
0.0000001000
43
0.0000001000
44
0.0000000001
12
-0.0000000011
22
-0.0084211513
32
0.0000000000
13
-0.0000000040
23
-0.0084211513
33
0.0000000000
40
0.0000000000
40
0.0000000000
40
0.0000000000
40
0.0000000000
40
0.1109954972
40
0.4447521893
40
1.0000000000
40
1.0000000000
40
1.0000000000
40
1.0000000000
10
4.1206310348
20
294.6157546367
30
0.0000000000
10
4.1206310348
20
294.6154430667
30
0.0000000000
10
4.1206310346
20
294.6141946249
30
0.0000000000
10
4.1206310341
20
294.6113875744
30
0.0000000000
10
4.1206310356
20
294.6088920939
30
0.0000000000
10
4.1206310348
20
294.6073334853
30
0.0000000000
11
4.1206310348
21
294.6157546367
31
0.0000000000
11
4.1206310347
21
294.6148199268
31
0.0000000000
11
4.1206310345
21
294.6120093112
31
0.0000000000
11
4.1206310348
21
294.6073334853
31
0.0000000000
0
SPLINE
5
3A7
100
AcDbEntity
8
0
100
AcDbSpline
62
9
6
CONTINUOUS
70
0
71
3
72
12
73
8
74
6
42
0.0000001000
43
0.0000001000
44
0.0000000001
12
-1.0911187217
22
0.3562227291
32
0.0000000000
13
-1.1394049461
23
0.1385318241
33
0.0000000000
40
0.0000000000
40
0.0000000000
40
0.0000000000
40
0.0000000000
40
0.2220767843
40
0.4263822369
40
0.6251590283
40
0.8222368415
40
1.0000000000
40
1.0000000000
40
1.0000000000
40
1.0000000000
10
3.8154859161
20
294.6909759797
30
0.0000000000
10
3.7347152038
20
294.7173455791
30
0.0000000000
10
3.5785213582
20
294.7646305241
30
0.0000000000
10
3.3468626098
20
294.8243941458
30
0.0000000000
10
3.1223869386
20
294.8730056068
30
0.0000000000
10
2.9062126162
20
294.9111714187
30
0.0000000000
10
2.7641352214
20
294.9309442807
30
0.0000000000
10
2.6966204808
20
294.9391528989
30
0.0000000000
11
3.8154859161
21
294.6909759797
31
0.0000000000
11
3.5715213174
21
294.7648315703
31
0.0000000000
11
3.3444549276
21
294.8234107882
31
0.0000000000
11
3.1214685072
21
294.8716996732
31
0.0000000000
11
2.8987085626
21
294.9110281450
31
0.0000000000
11
2.6966204808
21
294.9391528989
31
0.0000000000
0
SPLINE
5
3A8
100
AcDbEntity
8
0
100
AcDbSpline
62
9
6
CONTINUOUS
70
0
71
3
72
10
73
6
74
4
42
0.0000001000
43
0.0000001000
44
0.0000000001
12
0.0000305523
22
-0.0705416368
32
0.0000000000
13
-0.0710873922
23
0.0193144344
33
0.0000000000
40
0.0000000000
40
0.0000000000
40
0.0000000000
40
0.0000000000
40
0.1406318942
40
0.5591741542
40
1.0000000000
40
1.0000000000
40
1.0000000000
40
1.0000000000
10
4.1206310348
20
294.6073334853
30
0.0000000000
10
4.1206324671
20
294.6040266840
30
0.0000000000
10
4.0995375722
20
294.6091463170
30
0.0000000000
10
4.0826631663
20
294.6112582694
30
0.0000000000
10
4.0628349223
20
294.6163105618
30
0.0000000000
10
4.0523892024
20
294.6191486624
30
0.0000000000
11
4.1206310348
21
294.6073334853
31
0.0000000000
11
4.1107592296
21
294.6063527228
31
0.0000000000
11
4.0817756277
21
294.6119791162
31
0.0000000000
11
4.0523892024
21
294.6191486624
31
0.0000000000
0
SPLINE
5
3A9
100
AcDbEntity
8
0
100
AcDbSpline
62
9
6
CONTINUOUS
70
0
71
3
72
11
73
7
74
5
42
0.0000001000
43
0.0000001000
44
0.0000000001
12
-0.2486304027
22
0.0675528451
32
0.0000000000
13
-0.2345404016
23
0.0765660645
33
0.0000000000
40
0.0000000000
40
0.0000000000
40
0.0000000000
40
0.0000000000
40
0.0697732047
40
0.3340318270
40
0.6507837916
40
1.0000000000
40
1.0000000000
40
1.0000000000
40
1.0000000000
10
4.0523892024
20
294.6191486624
30
0.0000000000
10
4.0466066224
20
294.6207197886
30
0.0000000000
10
4.0185203752
20
294.6286029619
30
0.0000000000
10
3.9685828056
20
294.6427478651
30
0.0000000000
10
3.8947881712
20
294.6654404808
30
0.0000000000
10
3.8427876860
20
294.6820632761
30
0.0000000000
10
3.8154859161
20
294.6909759797
30
0.0000000000
11
4.0523892024
21
294.6191486624
31
0.0000000000
11
4.0349802978
21
294.6239859136
31
0.0000000000
11
3.9722989320
21
294.6419265664
31
0.0000000000
11
3.8975514461
21
294.6647337405
31
0.0000000000
11
3.8154859161
21
294.6909759797
31
0.0000000000
0
SPLINE
5
3AA
100
AcDbEntity
8
0
100
AcDbSpline
62
9
6
CONTINUOUS
70
0
71
3
72
9
73
5
74
3
42
0.0000001000
43
0.0000001000
44
0.0000000001
12
-0.0385583277
22
0.0148674323
32
0.0000000000
13
-0.0415816152
23
-0.0019562143
33
0.0000000000
40
0.0000000000
40
0.0000000000
40
0.0000000000
40
0.0000000000
40
0.9326375344
40
1.0000000000
40
1.0000000000
40
1.0000000000
40
1.0000000000
10
4.1206279637
20
294.6073255447
30
0.0000000000
10
4.1086409825
20
294.6119475198
30
0.0000000000
10
4.0946733325
20
294.6144187349
30
0.0000000000
10
4.0808012627
20
294.6139626377
30
0.0000000000
10
4.0798675827
20
294.6139187125
30
0.0000000000
11
4.1206279637
21
294.6073255447
31
0.0000000000
11
4.0826706101
21
294.6140108021
31
0.0000000000
11
4.0798675827
21
294.6139187125
31
0.0000000000
0
SPLINE
5
3AB
100
AcDbEntity
8
0
100
AcDbSpline
62
9
6
CONTINUOUS
70
0
71
3
72
11
73
7
74
5
42
0.0000001000
43
0.0000001000
44
0.0000000001
12
-0.1364282044
22
0.0140105337
32
0.0000000000
13
-0.0395342535
23
-0.1327328489
33
0.0000000000
40
0.0000000000
40
0.0000000000
40
0.0000000000
40
0.0000000000
40
0.3028818956
40
0.6052345461
40
0.9066924769
40
1.0000000000
40
1.0000000000
40
1.0000000000
40
1.0000000000
10
2.5949054397
20
294.9391528851
30
0.0000000000
10
2.5811315620
20
294.9405673974
30
0.0000000000
10
2.5526716424
20
294.9375947982
30
0.0000000000
10
2.5157199991
20
294.9163409410
30
0.0000000000
10
2.4963244441
20
294.8899059106
30
0.0000000000
10
2.4899897976
20
294.8727710554
30
0.0000000000
10
2.4887601832
20
294.8686427310
30
0.0000000000
11
2.5949054397
21
294.9391528851
31
0.0000000000
11
2.5535969133
21
294.9347836042
31
0.0000000000
11
2.5176414216
21
294.9141277878
31
0.0000000000
11
2.4932440453
21
294.8807501486
31
0.0000000000
11
2.4887601832
21
294.8686427310
31
0.0000000000
0
SPLINE
5
3AC
100
AcDbEntity
8
0
100
AcDbSpline
62
9
6
CONTINUOUS
70
0
71
3
72
8
73
4
74
2
42
0.0000001000
43
0.0000001000
44
0.0000000001
12
-0.0033860998
22
-0.0113685382
32
0.0000000000
13
-0.0020145149
23
-0.0116653788
33
0.0000000000
40
0.0000000000
40
0.0000000000
40
0.0000000000
40
0.0000000000
40
1.0000000000
40
1.0000000000
40
1.0000000000
40
1.0000000000
10
2.4887601832
20
294.8686427310
30
0.0000000000
10
2.4876314833
20
294.8648532182
30
0.0000000000
10
2.4867283081
20
294.8609977328
30
0.0000000000
10
2.4860568031
20
294.8571092732
30
0.0000000000
11
2.4887601832
21
294.8686427310
31
0.0000000000
11
2.4860568031
21
294.8571092732
31
0.0000000000
0
SPLINE
5
3AD
100
AcDbEntity
8
0
100
AcDbSpline
62
9
6
CONTINUOUS
70
0
71
3
72
8
73
4
74
2
42
0.0000001000
43
0.0000001000
44
0.0000000001
12
-0.0006855855
22
-0.0039699952
32
0.0000000000
13
-0.0005238670
23
-0.0039890075
33
0.0000000000
40
0.0000000000
40
0.0000000000
40
0.0000000000
40
0.0000000000
40
1.0000000000
40
1.0000000000
40
1.0000000000
40
1.0000000000
10
2.4860568031
20
294.8571092732
30
0.0000000000
10
2.4858282746
20
294.8557859414
30
0.0000000000
10
2.4856265781
20
294.8544587907
30
0.0000000000
10
2.4854519558
20
294.8531291215
30
0.0000000000
11
2.4860568031
21
294.8571092732
31
0.0000000000
11
2.4854519558
21
294.8531291215
31
0.0000000000
0
SPLINE
5
3AE
100
AcDbEntity
8
0
100
AcDbSpline
62
9
6
CONTINUOUS
70
0
71
3
72
8
73
4
74
2
42
0.0000001000
43
0.0000001000
44
0.0000000001
12
-0.0016657154
22
-0.0126836605
32
0.0000000000
13
-0.0000000018
23
-0.0127109900
33
0.0000000000
40
0.0000000000
40
0.0000000000
40
0.0000000000
40
0.0000000000
40
1.0000000000
40
1.0000000000
40
1.0000000000
40
1.0000000000
10
2.4854519558
20
294.8531291215
30
0.0000000000
10
2.4848967173
20
294.8489012347
30
0.0000000000
10
2.4846152043
20
294.8446478866
30
0.0000000000
10
2.4846152037
20
294.8404108899
30
0.0000000000
11
2.4854519558
21
294.8531291215
31
0.0000000000
11
2.4846152037
21
294.8404108899
31
0.0000000000
0
SPLINE
5
3AF
100
AcDbEntity
8
0
100
AcDbSpline
62
9
6
CONTINUOUS
70
0
71
3
72
10
73
6
74
4
42
0.0000001000
43
0.0000001000
44
0.0000000001
12
-0.1210365973
22
0.0119148569
32
0.0000000000
13
-0.0533106822
23
-0.1105467502
33
0.0000000000
40
0.0000000000
40
0.0000000000
40
0.0000000000
40
0.0000000000
40
0.3413955304
40
0.6788235121
40
1.0000000000
40
1.0000000000
40
1.0000000000
40
1.0000000000
10
2.5949049626
20
294.6909715863
30
0.0000000000
10
2.5811311781
20
294.6923274793
30
0.0000000000
10
2.5528900536
20
294.6895262273
30
0.0000000000
10
2.5163535613
20
294.6695633622
30
0.0000000000
10
2.4994424422
20
294.6479321280
30
0.0000000000
10
2.4937350629
20
294.6360971223
30
0.0000000000
11
2.5949049626
21
294.6909715863
31
0.0000000000
11
2.5535948954
21
294.6867908448
31
0.0000000000
11
2.5176371117
21
294.6670120747
31
0.0000000000
11
2.4937350629
21
294.6360971223
31
0.0000000000
0
SPLINE
5
3B0
100
AcDbEntity
8
0
100
AcDbSpline
62
9
6
CONTINUOUS
70
0
71
3
72
10
73
6
74
4
42
0.0000001000
43
0.0000001000
44
0.0000000001
12
0.1210105791
22
0.0119005592
32
0.0000000000
13
0.0533247757
23
-0.1105085263
33
0.0000000000
40
0.0000000000
40
0.0000000000
40
0.0000000000
40
0.0000000000
40
0.3414622253
40
0.6789559621
40
1.0000000000
40
1.0000000000
40
1.0000000000
40
1.0000000000
10
1.3743249735
20
294.6909759133
30
0.0000000000
10
1.3880984874
20
294.6923304438
30
0.0000000000
10
1.4163384514
20
294.6895269035
30
0.0000000000
10
1.4528653834
20
294.6695662735
30
0.0000000000
10
1.4697721941
20
294.6479440015
30
0.0000000000
10
1.4754787278
20
294.6361179670
30
0.0000000000
11
1.3743249735
21
294.6909759133
31
0.0000000000
11
1.4156334850
21
294.6867917995
31
0.0000000000
11
1.4515889672
21
294.6670113644
31
0.0000000000
11
1.4754787278
21
294.6361179670
31
0.0000000000
0
SPLINE
5
3B1
100
AcDbEntity
8
0
100
AcDbSpline
62
9
6
CONTINUOUS
70
0
71
3
72
11
73
7
74
5
42
0.0000001000
43
0.0000001000
44
0.0000000001
12
0.1647257712
22
0.0169074676
32
0.0000000000
13
0.0000024998
23
-0.1655911898
33
0.0000000000
40
0.0000000000
40
0.0000000000
40
0.0000000000
40
0.0000000000
40
0.2508328946
40
0.5012304873
40
0.7508912799
40
1.0000000000
40
1.0000000000
40
1.0000000000
40
1.0000000000
10
1.3743249764
20
294.9391528014
30
0.0000000000
10
1.3880978571
20
294.9405664511
30
0.0000000000
10
1.4165555613
20
294.9375924677
30
0.0000000000
10
1.4535036401
20
294.9163380409
30
0.0000000000
10
1.4786692177
20
294.8820362395
30
0.0000000000
10
1.4846054563
20
294.8541609594
30
0.0000000000
10
1.4846056638
20
294.8404108896
30
0.0000000000
11
1.3743249764
21
294.9391528014
31
0.0000000000
11
1.4156300420
21
294.9347816021
31
0.0000000000
11
1.4515821325
21
294.9141253624
31
0.0000000000
11
1.4759772393
21
294.8807485899
31
0.0000000000
11
1.4846056638
21
294.8404108896
31
0.0000000000
0
SPLINE
5
3B2
100
AcDbEntity
8
0
100
AcDbSpline
62
9
6
CONTINUOUS
70
0
71
3
72
9
73
5
74
3
42
0.0000001000
43
0.0000001000
44
0.0000000001
12
0.0385822683
22
0.0148726601
32
0.0000000000
13
0.0416051680
23
-0.0019714101
33
0.0000000000
40
0.0000000000
40
0.0000000000
40
0.0000000000
40
0.0000000000
40
0.9320597385
40
1.0000000000
40
1.0000000000
40
1.0000000000
40
1.0000000000
10
-0.1514006255
20
294.6073334803
30
0.0000000000
10
-0.1394136325
20
294.6119542162
30
0.0000000000
10
-0.1254376163
20
294.6144257225
30
0.0000000000
10
-0.1115575206
20
294.6139664622
30
0.0000000000
10
-0.1106152986
20
294.6139218162
30
0.0000000000
11
-0.1514006255
21
294.6073334803
31
0.0000000000
11
-0.1134439980
21
294.6140153387
31
0.0000000000
11
-0.1106152986
21
294.6139218162
31
0.0000000000
0
SPLINE
5
3B3
100
AcDbEntity
8
0
100
AcDbSpline
62
7
6
CONTINUOUS
70
0
71
3
72
16
73
12
74
10
42
0.0000001000
43
0.0000001000
44
0.0000000001
12
0.0289744044
22
-0.2588793067
32
0.0000000000
13
0.2571086795
23
0.0312684163
33
0.0000000000
40
0.0000000000
40
0.0000000000
40
0.0000000000
40
0.0000000000
40
0.0950980898
40
0.2223386279
40
0.3380988178
40
0.4476222810
40
0.5468622451
40
0.6466093114
40
0.7654231273
40
0.9093720201
40
1.0000000000
40
1.0000000000
40
1.0000000000
40
1.0000000000
10
2.4852537726
20
-472.8240950956
30
0.0000000000
10
2.4861722427
20
-472.8323014048
30
0.0000000000
10
2.4906500064
20
-472.8512983414
30
0.0000000000
10
2.5053698142
20
-472.8770627129
30
0.0000000000
10
2.5280917205
20
-472.8979623564
30
0.0000000000
10
2.5534604713
20
-472.9106238462
30
0.0000000000
10
2.5796053948
20
-472.9165459785
30
0.0000000000
10
2.6070439293
20
-472.9182549682
30
0.0000000000
10
2.6383495600
20
-472.9175785269
30
0.0000000000
10
2.6687819674
20
-472.9152933697
30
0.0000000000
10
2.6889176657
20
-472.9131031865
30
0.0000000000
10
2.6966847458
20
-472.9121585887
30
0.0000000000
11
2.4852537726
21
-472.8240950956
31
0.0000000000
11
2.4909543775
21
-472.8481762959
31
0.0000000000
11
2.5072633082
21
-472.8768103816
31
0.0000000000
11
2.5293096521
21
-472.8971263912
31
0.0000000000
11
2.5546420570
21
-472.9098862364
31
0.0000000000
11
2.5796412691
21
-472.9158523260
31
0.0000000000
11
2.6053986064
21
-472.9178226903
31
0.0000000000
11
2.6361659131
21
-472.9173782769
31
0.0000000000
11
2.6733492458
21
-472.9146950239
31
0.0000000000
11
2.6966847458
21
-472.9121585887
31
0.0000000000
0
SPLINE
5
3B4
100
AcDbEntity
8
0
100
AcDbSpline
62
7
6
CONTINUOUS
70
0
71
3
72
17
73
13
74
11
42
0.0000001000
43
0.0000001000
44
0.0000000001
12
0.2409615793
22
0.0786737289
32
0.0000000000
13
0.2508541122
23
0.0616341786
33
0.0000000000
40
0.0000000000
40
0.0000000000
40
0.0000000000
40
0.0000000000
40
0.1257174119
40
0.2559316030
40
0.3801033766
40
0.4973284206
40
0.6067933816
40
0.7076507114
40
0.7992778858
40
0.8810031933
40
0.9522887015
40
1.0000000000
40
1.0000000000
40
1.0000000000
40
1.0000000000
10
3.8156496466
20
-472.6639546061
30
0.0000000000
10
3.8257473353
20
-472.6606577203
30
0.0000000000
10
3.8463196218
20
-472.6539941973
30
0.0000000000
10
3.8769194253
20
-472.6442420874
30
0.0000000000
10
3.9068820667
20
-472.6348543211
30
0.0000000000
10
3.9352167874
20
-472.6261382180
30
0.0000000000
10
3.9617158104
20
-472.6181477688
30
0.0000000000
10
3.9861837995
20
-472.6109427084
30
0.0000000000
10
4.0084759221
20
-472.6045566910
30
0.0000000000
10
4.0283286858
20
-472.5990270652
30
0.0000000000
10
4.0448940024
20
-472.5946349011
30
0.0000000000
10
4.0543190044
20
-472.5921877163
30
0.0000000000
10
4.0583085295
20
-472.5912075008
30
0.0000000000
11
3.8156496466
21
-472.6639546061
31
0.0000000000
11
3.8459656914
21
-472.6541347359
31
0.0000000000
11
3.8774142051
21
-472.6441133299
31
0.0000000000
11
3.9074503797
21
-472.6347056800
31
0.0000000000
11
3.9358521925
21
-472.6259725505
31
0.0000000000
11
3.9624197019
21
-472.6179681528
31
0.0000000000
11
3.9869456210
21
-472.6107527419
31
0.0000000000
11
4.0092739162
21
-472.6043592875
31
0.0000000000
11
4.0292359996
21
-472.5988225846
31
0.0000000000
11
4.0466975679
21
-472.5941752821
31
0.0000000000
11
4.0583085295
21
-472.5912075008
31
0.0000000000
0
SPLINE
5
3B5
100
AcDbEntity
8
0
100
AcDbSpline
62
7
6
CONTINUOUS
70
0
71
3
72
11
73
7
74
5
42
0.0000001000
43
0.0000001000
44
0.0000000001
12
0.0254898087
22
0.0062627772
32
0.0000000000
13
0.0387715112
23
0.0062176843
33
0.0000000000
40
0.0000000000
40
0.0000000000
40
0.0000000000
40
0.0000000000
40
0.1248469644
40
0.5993276583
40
0.9394943737
40
1.0000000000
40
1.0000000000
40
1.0000000000
40
1.0000000000
10
4.0583085295
20
-472.5912075008
30
0.0000000000
10
4.0593693046
20
-472.5909468712
30
0.0000000000
10
4.0645330305
20
-472.5896960497
30
0.0000000000
10
4.0733516671
20
-472.5877213294
30
0.0000000000
10
4.0778448053
20
-472.5864804729
30
0.0000000000
10
4.0836904004
20
-472.5855536301
30
0.0000000000
10
4.0844723653
20
-472.5854282285
30
0.0000000000
11
4.0583085295
21
-472.5912075008
31
0.0000000000
11
4.0615406777
21
-472.5904253633
31
0.0000000000
11
4.0734372268
21
-472.5876280486
31
0.0000000000
11
4.0820113042
21
-472.5858253749
31
0.0000000000
11
4.0844723653
21
-472.5854282285
31
0.0000000000
0
SPLINE
5
3B6
100
AcDbEntity
8
0
100
AcDbSpline
62
7
6
CONTINUOUS
70
0
71
3
72
10
73
6
74
4
42
0.0000001000
43
0.0000001000
44
0.0000000001
12
1.1394054503
22
0.1385357645
32
0.0000000000
13
1.0911165306
23
0.3562186596
33
0.0000000000
40
0.0000000000
40
0.0000000000
40
0.0000000000
40
0.0000000000
40
0.3242326341
40
0.6737101514
40
1.0000000000
40
1.0000000000
40
1.0000000000
40
1.0000000000
10
2.6966845434
20
-472.9121569190
30
0.0000000000
10
2.8198286869
20
-472.8971843137
30
0.0000000000
10
3.0747976527
20
-472.8579899307
30
0.0000000000
10
3.4485763048
20
-472.7751601639
30
0.0000000000
10
3.6969772323
20
-472.7027011854
30
0.0000000000
10
3.8156506482
20
-472.6639576745
30
0.0000000000
11
2.6966845434
21
-472.9121569190
31
0.0000000000
11
3.0645138983
21
-472.8556117313
31
0.0000000000
11
3.4561236804
21
-472.7688305197
31
0.0000000000
11
3.8156506482
21
-472.6639576745
31
0.0000000000
0
SPLINE
5
3B7
100
AcDbEntity
8
0
100
AcDbSpline
62
7
6
CONTINUOUS
70
0
71
3
72
8
73
4
74
2
42
0.0000001000
43
0.0000001000
44
0.0000000001
12
0.0000045224
22
-0.0112105483
32
0.0000000000
13
0.0012537431
23
-0.0111931650
33
0.0000000000
40
0.0000000000
40
0.0000000000
40
0.0000000000
40
0.0000000000
40
1.0000000000
40
1.0000000000
40
1.0000000000
40
1.0000000000
10
2.4846251939
20
-472.8128790880
30
0.0000000000
10
2.4846267014
20
-472.8166159375
30
0.0000000000
10
2.4848385447
20
-472.8203637392
30
0.0000000000
10
2.4852564591
20
-472.8240947942
30
0.0000000000
11
2.4846251939
21
-472.8128790880
31
0.0000000000
11
2.4852564591
21
-472.8240947942
31
0.0000000000
0
SPLINE
5
3B8
100
AcDbEntity
8
0
100
AcDbSpline
62
7
6
CONTINUOUS
70
0
71
3
72
13
73
9
74
7
42
0.0000001000
43
0.0000001000
44
0.0000000001
12
0.0186732971
22
-0.1667114088
32
0.0000000000
13
0.1668252168
23
-0.0043654261
33
0.0000000000
40
0.0000000000
40
0.0000000000
40
0.0000000000
40
0.0000000000
40
0.1475633507
40
0.3441968187
40
0.5230475999
40
0.6926499719
40
0.8460445029
40
1.0000000000
40
1.0000000000
40
1.0000000000
40
1.0000000000
10
2.4852564591
20
-472.8240947947
30
0.0000000000
10
2.4861749572
20
-472.8322949594
30
0.0000000000
10
2.4906391996
20
-472.8512334523
30
0.0000000000
10
2.5052786118
20
-472.8769126733
30
0.0000000000
10
2.5278484890
20
-472.8977806545
30
0.0000000000
10
2.5530698297
20
-472.9104778556
30
0.0000000000
10
2.5790799581
20
-472.9164712404
30
0.0000000000
10
2.5961681957
20
-472.9175814191
30
0.0000000000
10
2.6047294154
20
-472.9178054462
30
0.0000000000
11
2.4852564591
21
-472.8240947947
31
0.0000000000
11
2.4909528846
21
-472.8481585491
31
0.0000000000
11
2.5071579505
21
-472.8766724196
31
0.0000000000
11
2.5290439339
21
-472.8969429048
31
0.0000000000
11
2.5542652855
21
-472.9097538030
31
0.0000000000
11
2.5791308698
21
-472.9157787048
31
0.0000000000
11
2.6047294154
21
-472.9178054462
31
0.0000000000
0
SPLINE
5
3B9
100
AcDbEntity
8
0
100
AcDbSpline
62
7
6
CONTINUOUS
70
0
71
3
72
8
73
4
74
2
42
0.0000001000
43
0.0000001000
44
0.0000000001
12
0.0304850193
22
-0.0007977217
32
0.0000000000
13
0.0304535634
23
0.0013443544
33
0.0000000000
40
0.0000000000
40
0.0000000000
40
0.0000000000
40
0.0000000000
40
1.0000000000
40
1.0000000000
40
1.0000000000
40
1.0000000000
10
2.6047294154
20
-472.9178054462
30
0.0000000000
10
2.6148910885
20
-472.9180713534
30
0.0000000000
10
2.6250548839
20
-472.9178694224
30
0.0000000000
10
2.6352060717
20
-472.9174213042
30
0.0000000000
11
2.6047294154
21
-472.9178054462
31
0.0000000000
11
2.6352060717
21
-472.9174213042
31
0.0000000000
0
SPLINE
5
3BA
100
AcDbEntity
8
0
100
AcDbSpline
62
7
6
CONTINUOUS
70
0
71
3
72
9
73
5
74
3
42
0.0000001000
43
0.0000001000
44
0.0000000001
12
0.0616600254
22
0.0027219451
32
0.0000000000
13
0.0612650701
23
0.0074519145
33
0.0000000000
40
0.0000000000
40
0.0000000000
40
0.0000000000
40
0.0000000000
40
0.5991729697
40
1.0000000000
40
1.0000000000
40
1.0000000000
40
1.0000000000
10
2.6352060717
20
-472.9174213042
30
0.0000000000
10
2.6475210786
20
-472.9168776655
30
0.0000000000
10
2.6680434522
20
-472.9153656384
30
0.0000000000
10
2.6884991499
20
-472.9131539780
30
0.0000000000
10
2.6966847153
20
-472.9121583351
30
0.0000000000
11
2.6352060717
21
-472.9174213042
31
0.0000000000
11
2.6720900444
21
-472.9148145599
31
0.0000000000
11
2.6966847153
21
-472.9121583351
31
0.0000000000
0
SPLINE
5
3BB
100
AcDbEntity
8
0
100
AcDbSpline
62
7
6
CONTINUOUS
70
0
71
3
72
8
73
4
74
2
42
0.0000001000
43
0.0000001000
44
0.0000000001
12
0.0133589662
22
0.0007428716
32
0.0000000000
13
0.0133765972
23
0.0005137226
33
0.0000000000
40
0.0000000000
40
0.0000000000
40
0.0000000000
40
0.0000000000
40
1.0000000000
40
1.0000000000
40
1.0000000000
40
1.0000000000
10
2.2901293719
20
-472.5864945393
30
0.0000000000
10
2.2945823606
20
-472.5862469155
30
0.0000000000
10
2.2990382437
20
-472.5860370306
30
0.0000000000
10
2.3034971094
20
-472.5858657897
30
0.0000000000
11
2.2901293719
21
-472.5864945393
31
0.0000000000
11
2.3034971094
21
-472.5858657897
31
0.0000000000
0
SPLINE
5
3BC
100
AcDbEntity
8
0
100
AcDbSpline
62
7
6
CONTINUOUS
70
0
71
3
72
8
73
4
74
2
42
0.0000001000
43
0.0000001000
44
0.0000000001
12
0.0214403505
22
0.0008234077
32
0.0000000000
13
0.0214874159
23
0.0002165578
33
0.0000000000
40
0.0000000000
40
0.0000000000
40
0.0000000000
40
0.0000000000
40
1.0000000000
40
1.0000000000
40
1.0000000000
40
1.0000000000
10
2.3034971094
20
-472.5858657897
30
0.0000000000
10
2.3106438929
20
-472.5855913204
30
0.0000000000
10
2.3177983389
20
-472.5854161296
30
0.0000000000
10
2.3249608109
20
-472.5853439436
30
0.0000000000
11
2.3034971094
21
-472.5858657897
31
0.0000000000
11
2.3249608109
21
-472.5853439436
31
0.0000000000
0
SPLINE
5
3BD
100
AcDbEntity
8
0
100
AcDbSpline
62
7
6
CONTINUOUS
70
0
71
3
72
11
73
7
74
5
42
0.0000001000
43
0.0000001000
44
0.0000000001
12
0.1625355335
22
0.0016380908
32
0.0000000000
13
0.1430045884
23
-0.0452983136
33
0.0000000000
40
0.0000000000
40
0.0000000000
40
0.0000000000
40
0.0000000000
40
0.3921400466
40
0.7167710143
40
0.9507098624
40
1.0000000000
40
1.0000000000
40
1.0000000000
40
1.0000000000
10
2.3249608109
20
-472.5853439436
30
0.0000000000
10
2.3462063748
20
-472.5851298233
30
0.0000000000
10
2.3851690372
20
-472.5863950078
30
0.0000000000
10
2.4355362591
20
-472.5917314128
30
0.0000000000
10
2.4692098354
20
-472.6004124375
30
0.0000000000
10
2.4823784942
20
-472.6038721621
30
0.0000000000
10
2.4847280661
20
-472.6046164154
30
0.0000000000
11
2.3249608109
21
-472.5853439436
31
0.0000000000
11
2.3885426641
21
-472.5873396980
31
0.0000000000
11
2.4407972726
21
-472.5938759052
31
0.0000000000
11
2.4777186673
21
-472.6026502533
31
0.0000000000
11
2.4847280661
21
-472.6046164154
31
0.0000000000
0
SPLINE
5
3BE
100
AcDbEntity
8
0
100
AcDbSpline
62
7
6
CONTINUOUS
70
0
71
3
72
9
73
5
74
3
42
0.0000001000
43
0.0000001000
44
0.0000000001
12
0.0148819146
22
-0.0047140140
32
0.0000000000
13
0.0133048910
23
-0.0072041476
33
0.0000000000
40
0.0000000000
40
0.0000000000
40
0.0000000000
40
0.0000000000
40
0.8019985287
40
1.0000000000
40
1.0000000000
40
1.0000000000
40
1.0000000000
10
2.4847280661
20
-472.6046164154
30
0.0000000000
10
2.4887064906
20
-472.6058766262
30
0.0000000000
10
2.4938739034
20
-472.6079561805
30
0.0000000000
10
2.5003120693
20
-472.6118761780
30
0.0000000000
10
2.5011901986
20
-472.6123516553
30
0.0000000000
11
2.4847280661
21
-472.6046164154
31
0.0000000000
11
2.4978123560
21
-472.6103960012
31
0.0000000000
11
2.5011901986
21
-472.6123516553
31
0.0000000000
0
SPLINE
5
3BF
100
AcDbEntity
8
0
100
AcDbSpline
62
7
6
CONTINUOUS
70
0
71
3
72
10
73
6
74
4
42
0.0000001000
43
0.0000001000
44
0.0000000001
12
0.6103837428
22
-0.0337146206
32
0.0000000000
13
0.6103824095
23
0.0337146639
33
0.0000000000
40
0.0000000000
40
0.0000000000
40
0.0000000000
40
0.0000000000
40
0.3162379388
40
0.6798529955
40
1.0000000000
40
1.0000000000
40
1.0000000000
40
1.0000000000
10
1.6790999655
20
-472.5865112299
30
0.0000000000
10
1.7434421311
20
-472.5900651773
30
0.0000000000
10
1.8819112021
20
-472.5952923487
30
0.0000000000
10
2.0857259626
20
-472.5953362783
30
0.0000000000
10
2.2249929329
20
-472.5901091348
30
0.0000000000
10
2.2901302996
20
-472.5865112519
30
0.0000000000
11
1.6790999655
21
-472.5865112299
31
0.0000000000
11
1.8722822229
21
-472.5938035379
31
0.0000000000
11
2.0945588584
21
-472.5938514765
31
0.0000000000
11
2.2901302996
21
-472.5865112519
31
0.0000000000
0
SPLINE
5
3C0
100
AcDbEntity
8
0
100
AcDbSpline
62
7
6
CONTINUOUS
70
0
71
3
72
8
73
4
74
2
42
0.0000001000
43
0.0000001000
44
0.0000000001
12
0.0008077267
22
0.0004121821
32
0.0000000000
13
0.0010839278
23
0.0006210744
33
0.0000000000
40
0.0000000000
40
0.0000000000
40
0.0000000000
40
0.0000000000
40
1.0000000000
40
1.0000000000
40
1.0000000000
40
1.0000000000
10
1.4677308412
20
-472.6124886632
30
0.0000000000
10
1.4680000835
20
-472.6123512691
30
0.0000000000
10
1.4683257240
20
-472.6121703793
30
0.0000000000
10
1.4686870332
20
-472.6119633545
30
0.0000000000
11
1.4677308412
21
-472.6124886632
31
0.0000000000
11
1.4686870332
21
-472.6119633545
31
0.0000000000
0
SPLINE
5
3C1
100
AcDbEntity
8
0
100
AcDbSpline
62
7
6
CONTINUOUS
70
0
71
3
72
9
73
5
74
3
42
0.0000001000
43
0.0000001000
44
0.0000000001
12
0.0121376826
22
0.0061938472
32
0.0000000000
13
0.0153882528
23
0.0048368008
33
0.0000000000
40
0.0000000000
40
0.0000000000
40
0.0000000000
40
0.0000000000
40
0.1995516334
40
1.0000000000
40
1.0000000000
40
1.0000000000
40
1.0000000000
10
1.4677308412
20
-472.6124886632
30
0.0000000000
10
1.4685382060
20
-472.6120766657
30
0.0000000000
10
1.4751254455
20
-472.6080521000
30
0.0000000000
10
1.4804114646
20
-472.6059612069
30
0.0000000000
10
1.4845172985
20
-472.6046706705
30
0.0000000000
11
1.4677308412
21
-472.6124886632
31
0.0000000000
11
1.4711153791
21
-472.6105474489
31
0.0000000000
11
1.4845172985
21
-472.6046706705
31
0.0000000000
0
SPLINE
5
3C2
100
AcDbEntity
8
0
100
AcDbSpline
62
7
6
CONTINUOUS
70
0
71
3
72
11
73
7
74
5
42
0.0000001000
43
0.0000001000
44
0.0000000001
12
0.1401325979
22
0.0440425303
32
0.0000000000
13
0.1595286702
23
-0.0010276725
33
0.0000000000
40
0.0000000000
40
0.0000000000
40
0.0000000000
40
0.0000000000
40
0.0438216188
40
0.2774879323
40
0.6034667719
40
1.0000000000
40
1.0000000000
40
1.0000000000
40
1.0000000000
10
1.4845192049
20
-472.6046700713
30
0.0000000000
10
1.4865661507
20
-472.6040267330
30
0.0000000000
10
1.4993307358
20
-472.6005557485
30
0.0000000000
10
1.5320302974
20
-472.5920603418
30
0.0000000000
10
1.5817704263
20
-472.5865566804
30
0.0000000000
10
1.6203067915
20
-472.5851780849
30
0.0000000000
10
1.6413929310
20
-472.5853139204
30
0.0000000000
11
1.4845192049
21
-472.6046700713
31
0.0000000000
11
1.4906544323
21
-472.6029195805
31
0.0000000000
11
1.5268168696
21
-472.5941717741
31
0.0000000000
11
1.5782938909
21
-472.5875286976
31
0.0000000000
11
1.6413929310
21
-472.5853139204
31
0.0000000000
0
SPLINE
5
3C3
100
AcDbEntity
8
0
100
AcDbSpline
62
7
6
CONTINUOUS
70
0
71
3
72
8
73
4
74
2
42
0.0000001000
43
0.0000001000
44
0.0000000001
12
0.0243685226
22
-0.0001569803
32
0.0000000000
13
0.0243127067
23
-0.0009359260
33
0.0000000000
40
0.0000000000
40
0.0000000000
40
0.0000000000
40
0.0000000000
40
1.0000000000
40
1.0000000000
40
1.0000000000
40
1.0000000000
10
1.6413929310
20
-472.5853139204
30
0.0000000000
10
1.6495157719
20
-472.5853662471
30
0.0000000000
10
1.6576291733
20
-472.5855510089
30
0.0000000000
10
1.6657334089
20
-472.5858629843
30
0.0000000000
11
1.6413929310
21
-472.5853139204
31
0.0000000000
11
1.6657334089
21
-472.5858629843
31
0.0000000000
0
SPLINE
5
3C4
100
AcDbEntity
8
0
100
AcDbSpline
62
7
6
CONTINUOUS
70
0
71
3
72
8
73
4
74
2
42
0.0000001000
43
0.0000001000
44
0.0000000001
12
0.0133758724
22
-0.0005149088
32
0.0000000000
13
0.0133593634
23
-0.0007433272
33
0.0000000000
40
0.0000000000
40
0.0000000000
40
0.0000000000
40
0.0000000000
40
1.0000000000
40
1.0000000000
40
1.0000000000
40
1.0000000000
10
1.6657334089
20
-472.5858629843
30
0.0000000000
10
1.6701920330
20
-472.5860346205
30
0.0000000000
10
1.6746478829
20
-472.5862447613
30
0.0000000000
10
1.6791010040
20
-472.5864925370
30
0.0000000000
11
1.6657334089
21
-472.5858629843
31
0.0000000000
11
1.6791010040
21
-472.5864925370
31
0.0000000000
0
SPLINE
5
3C5
100
AcDbEntity
8
0
100
AcDbSpline
62
7
6
CONTINUOUS
70
0
71
3
72
9
73
5
74
3
42
0.0000001000
43
0.0000001000
44
0.0000000001
12
0.0603938318
22
-0.0073448720
32
0.0000000000
13
0.0607785955
23
-0.0027725077
33
0.0000000000
40
0.0000000000
40
0.0000000000
40
0.0000000000
40
0.0000000000
40
0.3869911088
40
1.0000000000
40
1.0000000000
40
1.0000000000
40
1.0000000000
10
1.2725456604
20
-472.9121585991
30
0.0000000000
10
1.2803362857
20
-472.9131060659
30
0.0000000000
10
1.3004994875
20
-472.9152984614
30
0.0000000000
10
1.3207278330
20
-472.9168155118
30
0.0000000000
10
1.3331471062
20
-472.9173820358
30
0.0000000000
11
1.2725456604
21
-472.9121585991
31
0.0000000000
11
1.2959520014
21
-472.9147017999
31
0.0000000000
11
1.3331471062
21
-472.9173820358
31
0.0000000000
0
SPLINE
5
3C6
100
AcDbEntity
8
0
100
AcDbSpline
62
7
6
CONTINUOUS
70
0
71
3
72
9
73
5
74
3
42
0.0000001000
43
0.0000001000
44
0.0000000001
12
0.0564442669
22
-0.0025747907
32
0.0000000000
13
0.0559810452
23
0.0080425123
33
0.0000000000
40
0.0000000000
40
0.0000000000
40
0.0000000000
40
0.0000000000
40
0.5438656546
40
1.0000000000
40
1.0000000000
40
1.0000000000
40
1.0000000000
10
1.3331471062
20
-472.9173820358
30
0.0000000000
10
1.3433798056
20
-472.9178488159
30
0.0000000000
10
1.3622184243
20
-472.9182534190
30
0.0000000000
10
1.3810526007
20
-472.9170786983
30
0.0000000000
10
1.3895642265
20
-472.9158558763
30
0.0000000000
11
1.3331471062
21
-472.9173820358
31
0.0000000000
11
1.3638698470
21
-472.9178217674
31
0.0000000000
11
1.3895642265
21
-472.9158558763
31
0.0000000000
0
SPLINE
5
3C7
100
AcDbEntity
8
0
100
AcDbSpline
62
7
6
CONTINUOUS
70
0
71
3
72
8
73
4
74
2
42
0.0000001000
43
0.0000001000
44
0.0000000001
12
0.0253563285
22
0.0036428149
32
0.0000000000
13
0.0242042291
23
0.0084543714
33
0.0000000000
40
0.0000000000
40
0.0000000000
40
0.0000000000
40
0.0000000000
40
1.0000000000
40
1.0000000000
40
1.0000000000
40
1.0000000000
10
1.3895642265
20
-472.9158558763
30
0.0000000000
10
1.3980163360
20
-472.9146416047
30
0.0000000000
10
1.4063902615
20
-472.9127499153
30
0.0000000000
10
1.4144583379
20
-472.9099317915
30
0.0000000000
11
1.3895642265
21
-472.9158558763
31
0.0000000000
11
1.4144583379
21
-472.9099317915
31
0.0000000000
0
SPLINE
5
3C8
100
AcDbEntity
8
0
100
AcDbSpline
62
7
6
CONTINUOUS
70
0
71
3
72
11
73
7
74
5
42
0.0000001000
43
0.0000001000
44
0.0000000001
12
0.1097795045
22
0.0383452287
32
0.0000000000
13
0.0129853403
23
0.1160160106
33
0.0000000000
40
0.0000000000
40
0.0000000000
40
0.0000000000
40
0.0000000000
40
0.2448027718
40
0.5034455926
40
0.7877064745
40
1.0000000000
40
1.0000000000
40
1.0000000000
40
1.0000000000
10
1.4144583379
20
-472.9099317915
30
0.0000000000
10
1.4234164469
20
-472.9068027854
30
0.0000000000
10
1.4410636975
20
-472.8980190867
30
0.0000000000
10
1.4638318466
20
-472.8771054713
30
0.0000000000
10
1.4785749766
20
-472.8513185391
30
0.0000000000
10
1.4830576829
20
-472.8323053541
30
0.0000000000
10
1.4839765841
20
-472.8240955381
30
0.0000000000
11
1.4144583379
21
-472.9099317915
31
0.0000000000
11
1.4398466567
21
-472.8971769856
31
0.0000000000
11
1.4619353150
21
-472.8768496654
31
0.0000000000
11
1.4782721541
21
-472.8481867469
31
0.0000000000
11
1.4839765841
21
-472.8240955381
31
0.0000000000
0
SPLINE
5
3C9
100
AcDbEntity
8
0
100
AcDbSpline
62
7
6
CONTINUOUS
70
0
71
3
72
8
73
4
74
2
42
0.0000001000
43
0.0000001000
44
0.0000000001
12
0.0012512757
22
0.0111793772
32
0.0000000000
13
0.0000054201
23
0.0111967750
33
0.0000000000
40
0.0000000000
40
0.0000000000
40
0.0000000000
40
0.0000000000
40
1.0000000000
40
1.0000000000
40
1.0000000000
40
1.0000000000
10
1.4839765841
20
-472.8240955381
30
0.0000000000
10
1.4843936761
20
-472.8203690791
30
0.0000000000
10
1.4846052336
20
-472.8166259221
30
0.0000000000
10
1.4846070403
20
-472.8128936637
30
0.0000000000
11
1.4839765841
21
-472.8240955381
31
0.0000000000
11
1.4846070403
21
-472.8128936637
31
0.0000000000
0
SPLINE
5
3CA
100
AcDbEntity
8
0
100
AcDbSpline
62
7
6
CONTINUOUS
70
0
71
3
72
10
73
6
74
4
42
0.0000001000
43
0.0000001000
44
0.0000000001
12
1.0911208316
22
-0.3562194201
32
0.0000000000
13
1.1394011973
23
-0.1385349433
33
0.0000000000
40
0.0000000000
40
0.0000000000
40
0.0000000000
40
0.0000000000
40
0.3242092501
40
0.6736871094
40
1.0000000000
40
1.0000000000
40
1.0000000000
40
1.0000000000
10
0.1535797667
20
-472.6639576463
30
0.0000000000
10
0.2714969222
20
-472.7024541899
30
0.0000000000
10
0.5191167705
20
-472.7747398349
30
0.0000000000
10
0.8928618825
20
-472.8577208276
30
0.0000000000
10
1.1486120971
20
-472.8970883528
30
0.0000000000
10
1.2725458632
20
-472.9121569320
30
0.0000000000
11
0.1535797667
21
-472.6639576463
31
0.0000000000
11
0.5107942266
21
-472.7682344185
31
0.0000000000
11
0.9023692372
21
-472.8551742057
31
0.0000000000
11
1.2725458632
21
-472.9121569320
31
0.0000000000
0
SPLINE
5
3CB
100
AcDbEntity
8
0
100
AcDbSpline
62
7
6
CONTINUOUS
70
0
71
3
72
8
73
4
74
2
42
0.0000001000
43
0.0000001000
44
0.0000000001
12
-0.0000338558
22
-0.0001072465
32
0.0000000000
13
0.0041573908
23
-0.0006697597
33
0.0000000000
40
0.0000000000
40
0.0000000000
40
0.0000000000
40
0.0000000000
40
1.0000000000
40
1.0000000000
40
1.0000000000
40
1.0000000000
10
-0.1174610512
20
-472.5850216263
30
0.0000000000
10
-0.1174723365
20
-472.5850573751
30
0.0000000000
10
-0.1162668480
20
-472.5852511037
30
0.0000000000
10
-0.1148810510
20
-472.5854743569
30
0.0000000000
11
-0.1174610512
21
-472.5850216263
31
0.0000000000
11
-0.1148810510
21
-472.5854743569
31
0.0000000000
0
SPLINE
5
3CC
100
AcDbEntity
8
0
100
AcDbSpline
62
7
6
CONTINUOUS
70
0
71
3
72
11
73
7
74
5
42
0.0000001000
43
0.0000001000
44
0.0000000001
12
0.0393958244
22
-0.0063467055
32
0.0000000000
13
0.0252524804
23
-0.0062307611
33
0.0000000000
40
0.0000000000
40
0.0000000000
40
0.0000000000
40
0.0000000000
40
0.0437461442
40
0.3811931806
40
0.8487327780
40
1.0000000000
40
1.0000000000
40
1.0000000000
40
1.0000000000
10
-0.1148810510
20
-472.5854743569
30
0.0000000000
10
-0.1143065792
20
-472.5855669049
30
0.0000000000
10
-0.1090307753
20
-472.5864175560
30
0.0000000000
10
-0.1045282244
20
-472.5876222748
30
0.0000000000
10
-0.0956312377
20
-472.5896089766
30
0.0000000000
10
-0.0903437611
20
-472.5908920028
30
0.0000000000
10
-0.0890704703
20
-472.5912061728
30
0.0000000000
11
-0.1148810510
21
-472.5854743569
31
0.0000000000
11
-0.1131385150
21
-472.5857580710
31
0.0000000000
11
-0.1046526888
21
-472.5875307176
31
0.0000000000
11
-0.0929568860
21
-472.5902645764
31
0.0000000000
11
-0.0890704703
21
-472.5912061728
31
0.0000000000
0
SPLINE
5
3CD
100
AcDbEntity
8
0
100
AcDbSpline
62
7
6
CONTINUOUS
70
0
71
3
72
18
73
14
74
12
42
0.0000001000
43
0.0000001000
44
0.0000000001
12
0.2491589938
22
-0.0614771357
32
0.0000000000
13
0.2409641088
23
-0.0786527442
33
0.0000000000
40
0.0000000000
40
0.0000000000
40
0.0000000000
40
0.0000000000
40
0.0441584266
40
0.1147243445
40
0.1955767258
40
0.2863024203
40
0.3862697342
40
0.4948207329
40
0.6111644276
40
0.7344498212
40
0.8637745550
40
0.9980510664
40
1.0000000000
40
1.0000000000
40
1.0000000000
40
1.0000000000
10
-0.0890704703
20
-472.5912061728
30
0.0000000000
10
-0.0854029805
20
-472.5921110840
30
0.0000000000
10
-0.0762893011
20
-472.5944735777
30
0.0000000000
10
-0.0601559320
20
-472.5987417222
30
0.0000000000
10
-0.0404980717
20
-472.6041998235
30
0.0000000000
10
-0.0184227572
20
-472.6105192020
30
0.0000000000
10
0.0058297269
20
-472.6176466886
30
0.0000000000
10
0.0321152747
20
-472.6255572648
30
0.0000000000
10
0.0602353740
20
-472.6341989126
30
0.0000000000
10
0.0899865495
20
-472.6435089378
30
0.0000000000
10
0.1211350720
20
-472.6534250460
30
0.0000000000
10
0.1424822816
20
-472.6603323822
30
0.0000000000
10
0.1534242251
20
-472.6639034878
30
0.0000000000
10
0.1535807662
20
-472.6639545841
30
0.0000000000
11
-0.0890704703
21
-472.5912061728
31
0.0000000000
11
-0.0783352416
21
-472.5939506902
31
0.0000000000
11
-0.0610475142
21
-472.5985408276
31
0.0000000000
11
-0.0412953223
21
-472.6040051298
31
0.0000000000
11
-0.0191848154
21
-472.6103277172
31
0.0000000000
11
0.0051276863
21
-472.6174677490
31
0.0000000000
11
0.0314768919
21
-472.6253920763
31
0.0000000000
11
0.0596675951
21
-472.6340500145
31
0.0000000000
11
0.0894919848
21
-472.6433804276
31
0.0000000000
11
0.1207286531
21
-472.6533222959
31
0.0000000000
11
0.1531111376
21
-472.6638013121
31
0.0000000000
11
0.1535807662
21
-472.6639545841
31
0.0000000000
0
SPLINE
5
3CE
100
AcDbEntity
8
0
100
AcDbSpline
62
7
6
CONTINUOUS
70
0
71
3
72
8
73
4
74
2
42
0.0000001000
43
0.0000001000
44
0.0000000001
12
-0.0000338947
22
-0.0001160309
32
0.0000000000
13
0.0042056179
23
-0.0006729367
33
0.0000000000
40
0.0000000000
40
0.0000000000
40
0.0000000000
40
0.0000000000
40
1.0000000000
40
1.0000000000
40
1.0000000000
40
1.0000000000
10
-0.1174555490
20
-472.5850324290
30
0.0000000000
10
-0.1174668472
20
-472.5850711059
30
0.0000000000
10
-0.1162847530
20
-472.5852617494
30
0.0000000000
10
-0.1148828804
20
-472.5854860616
30
0.0000000000
11
-0.1174555490
21
-472.5850324290
31
0.0000000000
11
-0.1148828804
21
-472.5854860616
31
0.0000000000
0
SPLINE
5
3CF
100
AcDbEntity
8
0
100
AcDbSpline
62
7
6
CONTINUOUS
70
0
71
3
72
17
73
13
74
11
42
0.0000001000
43
0.0000001000
44
0.0000000001
12
0.2509708435
22
-0.0616478837
32
0.0000000000
13
0.2409606472
23
-0.0786734263
33
0.0000000000
40
0.0000000000
40
0.0000000000
40
0.0000000000
40
0.0000000000
40
0.0479700867
40
0.1192779108
40
0.2010034140
40
0.2926090716
40
0.3934274926
40
0.5028415426
40
0.6200107320
40
0.7441297324
40
0.8743023083
40
1.0000000000
40
1.0000000000
40
1.0000000000
40
1.0000000000
10
-0.0890782552
20
-472.5912076199
30
0.0000000000
10
-0.0850652241
20
-472.5921933713
30
0.0000000000
10
-0.0756186947
20
-472.5946465539
30
0.0000000000
10
-0.0590305505
20
-472.5990455681
30
0.0000000000
10
-0.0391779029
20
-472.6045758268
30
0.0000000000
10
-0.0168909200
20
-472.6109608921
30
0.0000000000
10
0.0075678383
20
-472.6181636783
30
0.0000000000
10
0.0340548867
20
-472.6261508227
30
0.0000000000
10
0.0623765588
20
-472.6348631099
30
0.0000000000
10
0.0923269364
20
-472.6442471518
30
0.0000000000
10
0.1229174210
20
-472.6539963419
30
0.0000000000
10
0.1434846951
20
-472.6606582501
30
0.0000000000
10
0.1535807609
20
-472.6639546061
30
0.0000000000
11
-0.0890782552
21
-472.5912076199
31
0.0000000000
11
-0.0774027642
21
-472.5941920012
31
0.0000000000
11
-0.0599360032
21
-472.5988415151
31
0.0000000000
11
-0.0399741295
21
-472.6043788600
31
0.0000000000
11
-0.0176513091
21
-472.6107712952
31
0.0000000000
11
0.0068649330
21
-472.6179843044
31
0.0000000000
11
0.0334198953
21
-472.6259852411
31
0.0000000000
11
0.0618080077
21
-472.6347143643
31
0.0000000000
11
0.0918312663
21
-472.6441180894
31
0.0000000000
11
0.1232695923
21
-472.6541363028
31
0.0000000000
11
0.1535807609
21
-472.6639546061
31
0.0000000000
0
SPLINE
5
3D0
100
AcDbEntity
8
0
100
AcDbSpline
62
7
6
CONTINUOUS
70
0
71
3
72
16
73
12
74
10
42
0.0000001000
43
0.0000001000
44
0.0000000001
12
0.2571082013
22
-0.0312732353
32
0.0000000000
13
0.0289956003
23
0.2588563033
33
0.0000000000
40
0.0000000000
40
0.0000000000
40
0.0000000000
40
0.0000000000
40
0.0957177787
40
0.2385228785
40
0.3560819468
40
0.4550440047
40
0.5535147798
40
0.6628920152
40
0.7781856162
40
0.9049357695
40
1.0000000000
40
1.0000000000
40
1.0000000000
40
1.0000000000
10
1.2725456913
20
-472.9121583420
30
0.0000000000
10
1.2807489666
20
-472.9131561435
30
0.0000000000
10
1.3012251470
20
-472.9153694266
30
0.0000000000
10
1.3318929728
20
-472.9176267766
30
0.0000000000
10
1.3629253026
20
-472.9182402428
30
0.0000000000
10
1.3901180596
20
-472.9164719289
30
0.0000000000
10
1.4160986343
20
-472.9104977155
30
0.0000000000
10
1.4413261119
20
-472.8978232549
30
0.0000000000
10
1.4639306946
20
-472.8769441407
30
0.0000000000
10
1.4785871969
20
-472.8512483987
30
0.0000000000
10
1.4830550836
20
-472.8322978952
30
0.0000000000
10
1.4839738984
20
-472.8240952368
30
0.0000000000
11
1.2725456913
21
-472.9121583420
31
0.0000000000
11
1.2971936540
21
-472.9148195804
31
0.0000000000
11
1.3340858538
21
-472.9174240041
31
0.0000000000
11
1.3645292101
21
-472.9178047004
31
0.0000000000
11
1.3900786857
21
-472.9157817473
31
0.0000000000
11
1.4148666985
21
-472.9097886846
31
0.0000000000
11
1.4401322687
21
-472.8969801822
31
0.0000000000
11
1.4620489343
21
-472.8767016010
31
0.0000000000
11
1.4782747214
21
-472.8481661062
31
0.0000000000
11
1.4839738984
21
-472.8240952368
31
0.0000000000
0
SPLINE
5
3D1
100
AcDbEntity
8
0
100
AcDbSpline
62
7
6
CONTINUOUS
70
0
71
3
72
12
73
8
74
6
42
0.0000001000
43
0.0000001000
44
0.0000000001
12
0.1619099871
22
0.0512868116
32
0.0000000000
13
0.1836198709
23
-0.0070518447
33
0.0000000000
40
0.0000000000
40
0.0000000000
40
0.0000000000
40
0.0000000000
40
0.0435347811
40
0.2501577898
40
0.5368832645
40
0.8832351292
40
1.0000000000
40
1.0000000000
40
1.0000000000
40
1.0000000000
10
1.4845023413
20
-472.6046164154
30
0.0000000000
10
1.4868519133
20
-472.6038721621
30
0.0000000000
10
1.5000205721
20
-472.6004124375
30
0.0000000000
10
1.5336941483
20
-472.5917314128
30
0.0000000000
10
1.5840613702
20
-472.5863950078
30
0.0000000000
10
1.6302103114
20
-472.5848964725
30
0.0000000000
10
1.6585865145
20
-472.5855913204
30
0.0000000000
10
1.6657332980
20
-472.5858657897
30
0.0000000000
11
1.4845023413
21
-472.6046164154
31
0.0000000000
11
1.4915117401
21
-472.6026502533
31
0.0000000000
11
1.5284331349
21
-472.5938759052
31
0.0000000000
11
1.5806877433
21
-472.5873396980
31
0.0000000000
11
1.6442695965
21
-472.5853439436
31
0.0000000000
11
1.6657332980
21
-472.5858657897
31
0.0000000000
0
SPLINE
5
3D2
100
AcDbEntity
8
0
100
AcDbSpline
62
7
6
CONTINUOUS
70
0
71
3
72
10
73
6
74
4
42
0.0000001000
43
0.0000001000
44
0.0000000001
12
0.6103822664
22
-0.0337146560
32
0.0000000000
13
0.6103836007
23
0.0337145969
33
0.0000000000
40
0.0000000000
40
0.0000000000
40
0.0000000000
40
0.0000000000
40
0.3201470795
40
0.6837622215
40
1.0000000000
40
1.0000000000
40
1.0000000000
40
1.0000000000
10
1.6791001079
20
-472.5865112519
30
0.0000000000
10
1.7442374745
20
-472.5901091348
30
0.0000000000
10
1.8835044448
20
-472.5953362783
30
0.0000000000
10
2.0873191575
20
-472.5952923487
30
0.0000000000
10
2.2257881808
20
-472.5900651809
30
0.0000000000
10
2.2901302988
20
-472.5865112378
30
0.0000000000
11
1.6791001079
21
-472.5865112519
31
0.0000000000
11
1.8746715490
21
-472.5938514765
31
0.0000000000
11
2.0969481845
21
-472.5938035379
31
0.0000000000
11
2.2901302988
21
-472.5865112378
31
0.0000000000
0
SPLINE
5
3D3
100
AcDbEntity
8
0
100
AcDbSpline
62
7
6
CONTINUOUS
70
0
71
3
72
8
73
4
74
2
42
0.0000001000
43
0.0000001000
44
0.0000000001
12
0.0133593634
22
0.0007433272
32
0.0000000000
13
0.0133758724
23
0.0005149088
33
0.0000000000
40
0.0000000000
40
0.0000000000
40
0.0000000000
40
0.0000000000
40
1.0000000000
40
1.0000000000
40
1.0000000000
40
1.0000000000
10
2.2901294034
20
-472.5864925370
30
0.0000000000
10
2.2945825246
20
-472.5862447613
30
0.0000000000
10
2.2990383744
20
-472.5860346205
30
0.0000000000
10
2.3034969985
20
-472.5858629843
30
0.0000000000
11
2.2901294034
21
-472.5864925370
31
0.0000000000
11
2.3034969985
21
-472.5858629843
31
0.0000000000
0
SPLINE
5
3D4
100
AcDbEntity
8
0
100
AcDbSpline
62
9
6
CONTINUOUS
70
0
71
3
72
10
73
6
74
4
42
0.0000001000
43
0.0000001000
44
0.0000000001
12
0.0000000037
22
-0.0084211513
32
0.0000000000
13
-0.0000000024
23
-0.0084211513
33
0.0000000000
40
0.0000000000
40
0.0000000000
40
0.0000000000
40
0.0000000000
40
0.5552522622
40
0.8890061159
40
1.0000000000
40
1.0000000000
40
1.0000000000
40
1.0000000000
10
4.1206310348
20
-472.5798105980
30
0.0000000000
10
4.1206310355
20
-472.5813692191
30
0.0000000000
10
4.1206310335
20
-472.5838647041
30
0.0000000000
10
4.1206310350
20
-472.5866717546
30
0.0000000000
10
4.1206310349
20
-472.5879201839
30
0.0000000000
10
4.1206310348
20
-472.5882317493
30
0.0000000000
11
4.1206310348
21
-472.5798105980
31
0.0000000000
11
4.1206310343
21
-472.5844864613
31
0.0000000000
11
4.1206310349
21
-472.5872970530
31
0.0000000000
11
4.1206310348
21
-472.5882317493
31
0.0000000000
0
SPLINE
5
3D5
100
AcDbEntity
8
0
100
AcDbSpline
62
9
6
CONTINUOUS
70
0
71
3
72
11
73
7
74
5
42
0.0000001000
43
0.0000001000
44
0.0000000001
12
0.2347482178
22
0.0766424207
32
0.0000000000
13
0.2489078788
23
0.0675589159
33
0.0000000000
40
0.0000000000
40
0.0000000000
40
0.0000000000
40
0.0000000000
40
0.3504046771
40
0.6666687971
40
0.9304468631
40
1.0000000000
40
1.0000000000
40
1.0000000000
40
1.0000000000
10
3.8154859161
20
-472.6634530924
30
0.0000000000
10
3.8429048739
20
-472.6545011382
30
0.0000000000
10
3.8950062712
20
-472.6378483887
30
0.0000000000
10
3.9688889098
20
-472.6151354067
30
0.0000000000
10
4.0187733564
20
-472.6010054043
30
0.0000000000
10
4.0468345362
20
-472.5931380940
30
0.0000000000
10
4.0526053108
20
-472.5915717825
30
0.0000000000
11
3.8154859161
21
-472.6634530924
31
0.0000000000
11
3.8979053179
21
-472.6371002405
31
0.0000000000
11
3.9726061035
21
-472.6143126685
31
0.0000000000
11
4.0352312680
21
-472.5963944415
31
0.0000000000
11
4.0526053108
21
-472.5915717825
31
0.0000000000
0
SPLINE
5
3D6
100
AcDbEntity
8
0
100
AcDbSpline
62
9
6
CONTINUOUS
70
0
71
3
72
10
73
6
74
4
42
0.0000001000
43
0.0000001000
44
0.0000000001
12
0.0708811429
22
0.0192386565
32
0.0000000000
13
-0.0003549073
23
-0.0703206776
33
0.0000000000
40
0.0000000000
40
0.0000000000
40
0.0000000000
40
0.0000000000
40
0.4410278012
40
0.8596420268
40
1.0000000000
40
1.0000000000
40
1.0000000000
40
1.0000000000
10
4.0526053108
20
-472.5915717825
30
0.0000000000
10
4.0630254957
20
-472.5887435217
30
0.0000000000
10
4.0827993284
20
-472.5837092074
30
0.0000000000
10
4.0995946387
20
-472.5815954480
30
0.0000000000
10
4.1206476395
20
-472.5765205754
30
0.0000000000
10
4.1206310348
20
-472.5798105980
30
0.0000000000
11
4.0526053108
21
-472.5915717825
31
0.0000000000
11
4.0819104566
21
-472.5844247450
31
0.0000000000
11
4.1108103044
21
-472.5788236974
31
0.0000000000
11
4.1206310348
21
-472.5798105980
31
0.0000000000
0
SPLINE
5
3D7
100
AcDbEntity
8
0
100
AcDbSpline
62
9
6
CONTINUOUS
70
0
71
3
72
12
73
8
74
6
42
0.0000001000
43
0.0000001000
44
0.0000000001
12
1.1394044272
22
0.1385317330
32
0.0000000000
13
1.0911181987
23
0.3562226359
33
0.0000000000
40
0.0000000000
40
0.0000000000
40
0.0000000000
40
0.0000000000
40
0.1736997740
40
0.3668447149
40
0.5660151312
40
0.7736035241
40
1.0000000000
40
1.0000000000
40
1.0000000000
40
1.0000000000
10
2.6966204808
20
-472.9116300116
30
0.0000000000
10
2.7625919112
20
-472.9036090347
30
0.0000000000
10
2.9016445949
20
-472.8843131450
30
0.0000000000
10
3.1149955670
20
-472.8469039131
30
0.0000000000
10
3.3394490867
20
-472.7986537982
30
0.0000000000
10
3.5741427750
20
-472.7383975359
30
0.0000000000
10
3.7331441444
20
-472.6903356089
30
0.0000000000
10
3.8154859161
20
-472.6634530924
30
0.0000000000
11
2.6966204808
21
-472.9116300116
31
0.0000000000
11
2.8940999081
21
-472.8842262314
31
0.0000000000
11
3.1124594462
21
-472.8459388107
31
0.0000000000
11
3.3359605100
21
-472.7978934964
31
0.0000000000
11
3.5667443675
21
-472.7386406942
31
0.0000000000
11
3.8154859161
21
-472.6634530924
31
0.0000000000
0
SPLINE
5
3D8
100
AcDbEntity
8
0
100
AcDbSpline
62
9
6
CONTINUOUS
70
0
71
3
72
14
73
10
74
8
42
0.0000001000
43
0.0000001000
44
0.0000000001
12
0.0001275271
22
-0.1030417226
32
0.0000000000
13
0.1022885817
23
0.0124361939
33
0.0000000000
40
0.0000000000
40
0.0000000000
40
0.0000000000
40
0.0000000000
40
0.0475695937
40
0.1569696759
40
0.3115077117
40
0.4870765621
40
0.6663493256
40
0.8385288923
40
1.0000000000
40
1.0000000000
40
1.0000000000
40
1.0000000000
10
2.5949054412
20
-472.9116300116
30
0.0000000000
10
2.5949074633
20
-472.9132638959
30
0.0000000000
10
2.6017060017
20
-472.9157128392
30
0.0000000000
10
2.6110845526
20
-472.9164276521
30
0.0000000000
10
2.6267722189
20
-472.9169466834
30
0.0000000000
10
2.6440680693
20
-472.9163230803
30
0.0000000000
10
2.6621894031
20
-472.9151670312
30
0.0000000000
10
2.6797220027
20
-472.9135712016
30
0.0000000000
10
2.6911149306
20
-472.9122993736
30
0.0000000000
10
2.6966204808
20
-472.9116300116
30
0.0000000000
11
2.5949054412
21
-472.9116300116
31
0.0000000000
11
2.5988377007
21
-472.9145563698
31
0.0000000000
11
2.6099789225
21
-472.9162735713
31
0.0000000000
11
2.6258957358
21
-472.9167478415
31
0.0000000000
11
2.6439796326
21
-472.9162434124
31
0.0000000000
11
2.6624147589
21
-472.9150675533
31
0.0000000000
11
2.6800848878
21
-472.9134756337
31
0.0000000000
11
2.6966204808
21
-472.9116300116
31
0.0000000000
0
SPLINE
5
3D9
100
AcDbEntity
8
0
100
AcDbSpline
62
9
6
CONTINUOUS
70
0
71
3
72
12
73
8
74
6
42
0.0000001000
43
0.0000001000
44
0.0000000001
12
0.0000000955
22
-0.2481769191
32
0.0000000000
13
-0.0000000361
23
-0.2481769191
33
0.0000000000
40
0.0000000000
40
0.0000000000
40
0.0000000000
40
0.0000000000
40
0.3245288541
40
0.5733868835
40
0.7612770168
40
0.8998605882
40
1.0000000000
40
1.0000000000
40
1.0000000000
40
1.0000000000
10
2.5949054412
20
-472.6634530924
30
0.0000000000
10
2.5949054515
20
-472.6902999495
30
0.0000000000
10
2.5949054321
20
-472.7377337462
30
0.0000000000
10
2.5949054429
20
-472.8007108744
30
0.0000000000
10
2.5949054422
20
-472.8483055602
30
0.0000000000
10
2.5949054399
20
-472.8835974032
30
0.0000000000
10
2.5949054424
20
-472.9033459147
30
0.0000000000
10
2.5949054412
20
-472.9116300116
30
0.0000000000
11
2.5949054412
21
-472.6634530924
31
0.0000000000
11
2.5949054384
21
-472.7439936636
31
0.0000000000
11
2.5949054416
21
-472.8057544826
31
0.0000000000
11
2.5949054417
21
-472.8523844771
31
0.0000000000
11
2.5949054410
21
-472.8867777209
31
0.0000000000
11
2.5949054412
21
-472.9116300116
31
0.0000000000
0
SPLINE
5
3DA
100
AcDbEntity
8
0
100
AcDbSpline
62
9
6
CONTINUOUS
70
0
71
3
72
8
73
4
74
2
42
0.0000001000
43
0.0000001000
44
0.0000000001
12
0.0259648526
22
0.0014341561
32
0.0000000000
13
0.0260031346
23
0.0007031723
33
0.0000000000
40
0.0000000000
40
0.0000000000
40
0.0000000000
40
0.0000000000
40
1.0000000000
40
1.0000000000
40
1.0000000000
40
1.0000000000
10
2.2897603224
20
-472.5798105980
30
0.0000000000
10
2.2984152733
20
-472.5793325460
30
0.0000000000
10
2.3070788293
20
-472.5789739156
30
0.0000000000
10
2.3157465408
20
-472.5787395248
30
0.0000000000
11
2.2897603224
21
-472.5798105980
31
0.0000000000
11
2.3157465408
21
-472.5787395248
31
0.0000000000
0
SPLINE
5
3DB
100
AcDbEntity
8
0
100
AcDbSpline
62
9
6
CONTINUOUS
70
0
71
3
72
10
73
6
74
4
42
0.0000001000
43
0.0000001000
44
0.0000000001
12
0.1456857917
22
0.0039396100
32
0.0000000000
13
0.1438195669
23
-0.0241745223
33
0.0000000000
40
0.0000000000
40
0.0000000000
40
0.0000000000
40
0.0000000000
40
0.3486430920
40
0.8460685313
40
1.0000000000
40
1.0000000000
40
1.0000000000
40
1.0000000000
10
2.3157465408
20
-472.5787395248
30
0.0000000000
10
2.3326773225
20
-472.5782816856
30
0.0000000000
10
2.3738025205
20
-472.5783209748
30
0.0000000000
10
2.4222894659
20
-472.5819168498
30
0.0000000000
10
2.4536327759
20
-472.5865057413
30
0.0000000000
10
2.4610122283
20
-472.5877461478
30
0.0000000000
11
2.3157465408
21
-472.5787395248
31
0.0000000000
11
2.3665532898
21
-472.5788240023
31
0.0000000000
11
2.4388050562
21
-472.5844622841
31
0.0000000000
11
2.4610122283
21
-472.5877461478
31
0.0000000000
0
SPLINE
5
3DC
100
AcDbEntity
8
0
100
AcDbSpline
62
9
6
CONTINUOUS
70
0
71
3
72
8
73
4
74
2
42
0.0000001000
43
0.0000001000
44
0.0000000001
12
0.0237336029
22
-0.0039893634
32
0.0000000000
13
0.0234891810
23
-0.0051773087
33
0.0000000000
40
0.0000000000
40
0.0000000000
40
0.0000000000
40
0.0000000000
40
1.0000000000
40
1.0000000000
40
1.0000000000
40
1.0000000000
10
2.4610122283
20
-472.5877461478
30
0.0000000000
10
2.4689234293
20
-472.5890759356
30
0.0000000000
10
2.4768027558
20
-472.5905849466
30
0.0000000000
10
2.4846324828
20
-472.5923107161
30
0.0000000000
11
2.4610122283
21
-472.5877461478
31
0.0000000000
11
2.4846324828
21
-472.5923107161
31
0.0000000000
0
SPLINE
5
3DD
100
AcDbEntity
8
0
100
AcDbSpline
62
9
6
CONTINUOUS
70
0
71
3
72
8
73
4
74
2
42
0.0000001000
43
0.0000001000
44
0.0000000001
12
0.0172327122
22
-0.0037983049
32
0.0000000000
13
0.0170515376
23
-0.0045427719
33
0.0000000000
40
0.0000000000
40
0.0000000000
40
0.0000000000
40
0.0000000000
40
1.0000000000
40
1.0000000000
40
1.0000000000
40
1.0000000000
10
2.4846324828
20
-472.5923107161
30
0.0000000000
10
2.4903767202
20
-472.5935768178
30
0.0000000000
10
2.4960942614
20
-472.5949595864
30
0.0000000000
10
2.5017781073
20
-472.5964738437
30
0.0000000000
11
2.4846324828
21
-472.5923107161
31
0.0000000000
11
2.5017781073
21
-472.5964738437
31
0.0000000000
0
SPLINE
5
3DE
100
AcDbEntity
8
0
100
AcDbSpline
62
9
6
CONTINUOUS
70
0
71
3
72
10
73
6
74
4
42
0.0000001000
43
0.0000001000
44
0.0000000001
12
0.1168063314
22
-0.0311188667
32
0.0000000000
13
-0.0000729979
23
-0.1208295183
33
0.0000000000
40
0.0000000000
40
0.0000000000
40
0.0000000000
40
0.0000000000
40
0.4363905819
40
0.7617294484
40
1.0000000000
40
1.0000000000
40
1.0000000000
40
1.0000000000
10
2.5017781073
20
-472.5964738437
30
0.0000000000
10
2.5187691683
20
-472.6010005038
30
0.0000000000
10
2.5479018468
20
-472.6109529113
30
0.0000000000
10
2.5831075192
20
-472.6317497345
30
0.0000000000
10
2.5949112389
20
-472.6538563871
30
0.0000000000
10
2.5949054412
20
-472.6634530924
30
0.0000000000
11
2.5017781073
21
-472.5964738437
31
0.0000000000
11
2.5513891090
21
-472.6143367270
31
0.0000000000
11
2.5834943157
21
-472.6370209662
31
0.0000000000
11
2.5949054412
21
-472.6634530924
31
0.0000000000
0
SPLINE
5
3DF
100
AcDbEntity
8
0
100
AcDbSpline
62
9
6
CONTINUOUS
70
0
71
3
72
10
73
6
74
4
42
0.0000001000
43
0.0000001000
44
0.0000000001
12
0.6096363370
22
-0.0336737673
32
0.0000000000
13
0.6096363343
23
0.0336738160
33
0.0000000000
40
0.0000000000
40
0.0000000000
40
0.0000000000
40
0.0000000000
40
0.3328661760
40
0.6669943864
40
1.0000000000
40
1.0000000000
40
1.0000000000
40
1.0000000000
10
1.6794700850
20
-472.5798105980
30
0.0000000000
10
1.7471125237
20
-472.5835468840
30
0.0000000000
10
1.8828050714
20
-472.5885444723
30
0.0000000000
10
2.0863685624
20
-472.5885460334
30
0.0000000000
10
2.2220895486
20
-472.5835484546
30
0.0000000000
10
2.2897603224
20
-472.5798105980
30
0.0000000000
11
1.6794700850
21
-472.5798105980
31
0.0000000000
11
1.8825690355
21
-472.5872906021
31
0.0000000000
11
2.0865762361
21
-472.5872921709
31
0.0000000000
11
2.2897603224
21
-472.5798105980
31
0.0000000000
0
SPLINE
5
3E0
100
AcDbEntity
8
0
100
AcDbSpline
62
9
6
CONTINUOUS
70
0
71
3
72
11
73
7
74
5
42
0.0000001000
43
0.0000001000
44
0.0000000001
12
0.0000256699
22
0.1384612527
32
0.0000000000
13
0.1352723955
23
0.0298191917
33
0.0000000000
40
0.0000000000
40
0.0000000000
40
0.0000000000
40
0.0000000000
40
0.2091032557
40
0.4931166190
40
0.8736295673
40
1.0000000000
40
1.0000000000
40
1.0000000000
40
1.0000000000
10
1.3743249662
20
-472.6634530924
30
0.0000000000
10
1.3743267555
20
-472.6538021928
30
0.0000000000
10
1.3862159203
20
-472.6316533714
30
0.0000000000
10
1.4214808290
20
-472.6108931836
30
0.0000000000
10
1.4561487059
20
-472.5990656256
30
0.0000000000
10
1.4788991970
20
-472.5935665923
30
0.0000000000
10
1.4845973407
20
-472.5923105042
30
0.0000000000
11
1.3743249662
21
-472.6634530924
31
0.0000000000
11
1.3858511982
21
-472.6368936352
31
0.0000000000
11
1.4180064512
21
-472.6142555417
31
0.0000000000
11
1.4675884700
21
-472.5964378633
31
0.0000000000
11
1.4845973407
21
-472.5923105042
31
0.0000000000
0
SPLINE
5
3E1
100
AcDbEntity
8
0
100
AcDbSpline
62
9
6
CONTINUOUS
70
0
71
3
72
8
73
4
74
2
42
0.0000001000
43
0.0000001000
44
0.0000000001
12
0.0042859530
22
0.0009447874
32
0.0000000000
13
0.0042955310
23
0.0009021475
33
0.0000000000
40
0.0000000000
40
0.0000000000
40
0.0000000000
40
0.0000000000
40
1.0000000000
40
1.0000000000
40
1.0000000000
40
1.0000000000
10
1.4845973407
20
-472.5923105042
30
0.0000000000
10
1.4860259917
20
-472.5919955751
30
0.0000000000
10
1.4874562928
20
-472.5916878668
30
0.0000000000
10
1.4888881364
20
-472.5913871510
30
0.0000000000
11
1.4845973407
21
-472.5923105042
31
0.0000000000
11
1.4888881364
21
-472.5913871510
31
0.0000000000
0
SPLINE
5
3E2
100
AcDbEntity
8
0
100
AcDbSpline
62
9
6
CONTINUOUS
70
0
71
3
72
8
73
4
74
2
42
0.0000001000
43
0.0000001000
44
0.0000000001
12
0.0193422573
22
0.0040622611
32
0.0000000000
13
0.0195005064
23
0.0032741333
33
0.0000000000
40
0.0000000000
40
0.0000000000
40
0.0000000000
40
0.0000000000
40
1.0000000000
40
1.0000000000
40
1.0000000000
40
1.0000000000
10
1.4888881364
20
-472.5913871510
30
0.0000000000
10
1.4953355555
20
-472.5900330639
30
0.0000000000
10
1.5018142526
20
-472.5888207559
30
0.0000000000
10
1.5083144214
20
-472.5877293781
30
0.0000000000
11
1.4888881364
21
-472.5913871510
31
0.0000000000
11
1.5083144214
21
-472.5877293781
31
0.0000000000
0
SPLINE
5
3E3
100
AcDbEntity
8
0
100
AcDbSpline
62
9
6
CONTINUOUS
70
0
71
3
72
10
73
6
74
4
42
0.0000001000
43
0.0000001000
44
0.0000000001
12
0.1436554342
22
0.0241197344
32
0.0000000000
13
0.1455167566
23
-0.0039235326
33
0.0000000000
40
0.0000000000
40
0.0000000000
40
0.0000000000
40
0.0000000000
40
0.1538736103
40
0.6506453984
40
1.0000000000
40
1.0000000000
40
1.0000000000
40
1.0000000000
10
1.5083144214
20
-472.5877293781
30
0.0000000000
10
1.5156826815
20
-472.5864922479
30
0.0000000000
10
1.5469555921
20
-472.5819181628
30
0.0000000000
10
1.5953857015
20
-472.5783236466
30
0.0000000000
10
1.6364658790
20
-472.5782811061
30
0.0000000000
10
1.6534115285
20
-472.5787380075
30
0.0000000000
11
1.5083144214
21
-472.5877293781
31
0.0000000000
11
1.5304876877
21
-472.5844537827
31
0.0000000000
11
1.6025603549
21
-472.5788274702
31
0.0000000000
11
1.6534115285
21
-472.5787380075
31
0.0000000000
0
SPLINE
5
3E4
100
AcDbEntity
8
0
100
AcDbSpline
62
9
6
CONTINUOUS
70
0
71
3
72
8
73
4
74
2
42
0.0000001000
43
0.0000001000
44
0.0000000001
12
0.0260755307
22
-0.0007030681
32
0.0000000000
13
0.0260370964
23
-0.0014371509
33
0.0000000000
40
0.0000000000
40
0.0000000000
40
0.0000000000
40
0.0000000000
40
1.0000000000
40
1.0000000000
40
1.0000000000
40
1.0000000000
10
1.6534115285
20
-472.5787380075
30
0.0000000000
10
1.6621033720
20
-472.5789723636
30
0.0000000000
10
1.6707910529
20
-472.5793315477
30
0.0000000000
10
1.6794700850
20
-472.5798105980
30
0.0000000000
11
1.6534115285
21
-472.5787380075
31
0.0000000000
11
1.6794700850
21
-472.5798105980
31
0.0000000000
0
SPLINE
5
3E5
100
AcDbEntity
8
0
100
AcDbSpline
62
9
6
CONTINUOUS
70
0
71
3
72
12
73
8
74
6
42
0.0000001000
43
0.0000001000
44
0.0000000001
12
-0.0000000402
22
0.2481769191
32
0.0000000000
13
0.0000000830
23
0.2481769191
33
0.0000000000
40
0.0000000000
40
0.0000000000
40
0.0000000000
40
0.0000000000
40
0.1005484461
40
0.2392339420
40
0.4272491127
40
0.6764381929
40
1.0000000000
40
1.0000000000
40
1.0000000000
40
1.0000000000
10
1.3743249662
20
-472.9116300116
30
0.0000000000
10
1.3743249649
20
-472.9033120770
30
0.0000000000
10
1.3743249680
20
-472.8835212961
30
0.0000000000
10
1.3743249631
20
-472.8481768400
30
0.0000000000
10
1.3743249672
20
-472.8005359923
30
0.0000000000
10
1.3743249714
20
-472.7376011334
30
0.0000000000
10
1.3743249573
20
-472.6902199499
30
0.0000000000
10
1.3743249662
20
-472.6634530924
30
0.0000000000
11
1.3743249662
21
-472.9116300116
31
0.0000000000
11
1.3743249664
21
-472.8866762080
31
0.0000000000
11
1.3743249648
21
-472.8522576689
31
0.0000000000
11
1.3743249666
21
-472.8055966431
31
0.0000000000
11
1.3743249677
21
-472.7437536648
31
0.0000000000
11
1.3743249662
21
-472.6634530924
31
0.0000000000
0
SPLINE
5
3E6
100
AcDbEntity
8
0
100
AcDbSpline
62
9
6
CONTINUOUS
70
0
71
3
72
14
73
10
74
8
42
0.0000001000
43
0.0000001000
44
0.0000000001
12
0.1022860762
22
-0.0124369244
32
0.0000000000
13
-0.0002474778
23
0.1030391053
33
0.0000000000
40
0.0000000000
40
0.0000000000
40
0.0000000000
40
0.0000000000
40
0.1614060718
40
0.3347621391
40
0.5142394507
40
0.6893348921
40
0.8429827303
40
0.9520038950
40
1.0000000000
40
1.0000000000
40
1.0000000000
40
1.0000000000
10
1.2726099267
20
-472.9116300116
30
0.0000000000
10
1.2781131246
20
-472.9122991433
30
0.0000000000
10
1.2895437877
20
-472.9135751943
30
0.0000000000
10
1.3071207779
20
-472.9151738232
30
0.0000000000
10
1.3252740765
20
-472.9163289122
30
0.0000000000
10
1.3425273713
20
-472.9169445085
30
0.0000000000
10
1.3581603689
20
-472.9164306063
30
0.0000000000
10
1.3674934127
20
-472.9157053571
30
0.0000000000
10
1.3743289256
20
-472.9132785035
30
0.0000000000
10
1.3743249662
20
-472.9116300116
30
0.0000000000
11
1.2726099267
21
-472.9116300116
31
0.0000000000
11
1.2891384659
21
-472.9134749272
31
0.0000000000
11
1.3069290389
21
-472.9150763688
31
0.0000000000
11
1.3253850100
21
-472.9162497700
31
0.0000000000
11
1.3434198577
21
-472.9167480449
31
0.0000000000
11
1.3592445378
21
-472.9162739095
31
0.0000000000
11
1.3703479819
21
-472.9145696487
31
0.0000000000
11
1.3743249662
21
-472.9116300116
31
0.0000000000
0
SPLINE
5
3E7
100
AcDbEntity
8
0
100
AcDbSpline
62
9
6
CONTINUOUS
70
0
71
3
72
10
73
6
74
4
42
0.0000001000
43
0.0000001000
44
0.0000000001
12
0.0000000011
22
0.0084211513
32
0.0000000000
13
0.0000000040
23
0.0084211513
33
0.0000000000
40
0.0000000000
40
0.0000000000
40
0.0000000000
40
0.0000000000
40
0.1109954972
40
0.4447521893
40
1.0000000000
40
1.0000000000
40
1.0000000000
40
1.0000000000
10
-0.1514006274
20
-472.5882317493
30
0.0000000000
10
-0.1514006274
20
-472.5879201794
30
0.0000000000
10
-0.1514006272
20
-472.5866717375
30
0.0000000000
10
-0.1514006266
20
-472.5838646871
30
0.0000000000
10
-0.1514006282
20
-472.5813692066
30
0.0000000000
10
-0.1514006274
20
-472.5798105980
30
0.0000000000
11
-0.1514006274
21
-472.5882317493
31
0.0000000000
11
-0.1514006273
21
-472.5872970394
31
0.0000000000
11
-0.1514006270
21
-472.5844864238
31
0.0000000000
11
-0.1514006274
21
-472.5798105980
31
0.0000000000
0
SPLINE
5
3E8
100
AcDbEntity
8
0
100
AcDbSpline
62
9
6
CONTINUOUS
70
0
71
3
72
12
73
8
74
6
42
0.0000001000
43
0.0000001000
44
0.0000000001
12
1.0911187217
22
-0.3562227291
32
0.0000000000
13
1.1394049461
23
-0.1385318241
33
0.0000000000
40
0.0000000000
40
0.0000000000
40
0.0000000000
40
0.0000000000
40
0.2220767843
40
0.4263822369
40
0.6251590283
40
0.8222368415
40
1.0000000000
40
1.0000000000
40
1.0000000000
40
1.0000000000
10
0.1537444913
20
-472.6634530924
30
0.0000000000
10
0.2345152037
20
-472.6898226918
30
0.0000000000
10
0.3907090492
20
-472.7371076368
30
0.0000000000
10
0.6223677976
20
-472.7968712585
30
0.0000000000
10
0.8468434689
20
-472.8454827195
30
0.0000000000
10
1.0630177913
20
-472.8836485314
30
0.0000000000
10
1.2050951860
20
-472.9034213934
30
0.0000000000
10
1.2726099267
20
-472.9116300116
30
0.0000000000
11
0.1537444913
21
-472.6634530924
31
0.0000000000
11
0.3977090901
21
-472.7373086830
31
0.0000000000
11
0.6247754798
21
-472.7958879008
31
0.0000000000
11
0.8477619002
21
-472.8441767859
31
0.0000000000
11
1.0705218448
21
-472.8835052577
31
0.0000000000
11
1.2726099267
21
-472.9116300116
31
0.0000000000
0
SPLINE
5
3E9
100
AcDbEntity
8
0
100
AcDbSpline
62
9
6
CONTINUOUS
70
0
71
3
72
10
73
6
74
4
42
0.0000001000
43
0.0000001000
44
0.0000000001
12
-0.0000305523
22
0.0705416368
32
0.0000000000
13
0.0710873922
23
-0.0193144344
33
0.0000000000
40
0.0000000000
40
0.0000000000
40
0.0000000000
40
0.0000000000
40
0.1406318942
40
0.5591741542
40
1.0000000000
40
1.0000000000
40
1.0000000000
40
1.0000000000
10
-0.1514006274
20
-472.5798105980
30
0.0000000000
10
-0.1514020596
20
-472.5765037967
30
0.0000000000
10
-0.1303071648
20
-472.5816234297
30
0.0000000000
10
-0.1134327589
20
-472.5837353821
30
0.0000000000
10
-0.0936045149
20
-472.5887876745
30
0.0000000000
10
-0.0831587950
20
-472.5916257751
30
0.0000000000
11
-0.1514006274
21
-472.5798105980
31
0.0000000000
11
-0.1415288222
21
-472.5788298355
31
0.0000000000
11
-0.1125452203
21
-472.5844562288
31
0.0000000000
11
-0.0831587950
21
-472.5916257751
31
0.0000000000
0
SPLINE
5
3EA
100
AcDbEntity
8
0
100
AcDbSpline
62
9
6
CONTINUOUS
70
0
71
3
72
11
73
7
74
5
42
0.0000001000
43
0.0000001000
44
0.0000000001
12
0.2486304027
22
-0.0675528451
32
0.0000000000
13
0.2345404016
23
-0.0765660645
33
0.0000000000
40
0.0000000000
40
0.0000000000
40
0.0000000000
40
0.0000000000
40
0.0697732047
40
0.3340318270
40
0.6507837916
40
1.0000000000
40
1.0000000000
40
1.0000000000
40
1.0000000000
10
-0.0831587950
20
-472.5916257751
30
0.0000000000
10
-0.0773762150
20
-472.5931969013
30
0.0000000000
10
-0.0492899678
20
-472.6010800746
30
0.0000000000
10
0.0006476018
20
-472.6152249778
30
0.0000000000
10
0.0744422362
20
-472.6379175935
30
0.0000000000
10
0.1264427214
20
-472.6545403888
30
0.0000000000
10
0.1537444913
20
-472.6634530924
30
0.0000000000
11
-0.0831587950
21
-472.5916257751
31
0.0000000000
11
-0.0657498904
21
-472.5964630263
31
0.0000000000
11
-0.0030685246
21
-472.6144036791
31
0.0000000000
11
0.0716789613
21
-472.6372108532
31
0.0000000000
11
0.1537444913
21
-472.6634530924
31
0.0000000000
0
SPLINE
5
3EB
100
AcDbEntity
8
0
100
AcDbSpline
62
9
6
CONTINUOUS
70
0
71
3
72
9
73
5
74
3
42
0.0000001000
43
0.0000001000
44
0.0000000001
12
0.0385583277
22
-0.0148674323
32
0.0000000000
13
0.0415816152
23
0.0019562143
33
0.0000000000
40
0.0000000000
40
0.0000000000
40
0.0000000000
40
0.0000000000
40
0.9326375344
40
1.0000000000
40
1.0000000000
40
1.0000000000
40
1.0000000000
10
-0.1513975563
20
-472.5798026573
30
0.0000000000
10
-0.1394105751
20
-472.5844246325
30
0.0000000000
10
-0.1254429251
20
-472.5868958475
30
0.0000000000
10
-0.1115708553
20
-472.5864397504
30
0.0000000000
10
-0.1106371753
20
-472.5863958252
30
0.0000000000
11
-0.1513975563
21
-472.5798026573
31
0.0000000000
11
-0.1134402027
21
-472.5864879147
31
0.0000000000
11
-0.1106371753
21
-472.5863958252
31
0.0000000000
0
SPLINE
5
3EC
100
AcDbEntity
8
0
100
AcDbSpline
62
9
6
CONTINUOUS
70
0
71
3
72
11
73
7
74
5
42
0.0000001000
43
0.0000001000
44
0.0000000001
12
0.1364282044
22
-0.0140105337
32
0.0000000000
13
0.0395342535
23
0.1327328489
33
0.0000000000
40
0.0000000000
40
0.0000000000
40
0.0000000000
40
0.0000000000
40
0.3028818956
40
0.6052345461
40
0.9066924769
40
1.0000000000
40
1.0000000000
40
1.0000000000
40
1.0000000000
10
1.3743249677
20
-472.9116299978
30
0.0000000000
10
1.3880988454
20
-472.9130445101
30
0.0000000000
10
1.4165587650
20
-472.9100719109
30
0.0000000000
10
1.4535104083
20
-472.8888180537
30
0.0000000000
10
1.4729059633
20
-472.8623830233
30
0.0000000000
10
1.4792406098
20
-472.8452481681
30
0.0000000000
10
1.4804702242
20
-472.8411198436
30
0.0000000000
11
1.3743249677
21
-472.9116299978
31
0.0000000000
11
1.4156334941
21
-472.9072607169
31
0.0000000000
11
1.4515889858
21
-472.8866049005
31
0.0000000000
11
1.4759863621
21
-472.8532272613
31
0.0000000000
11
1.4804702242
21
-472.8411198436
31
0.0000000000
0
SPLINE
5
3ED
100
AcDbEntity
8
0
100
AcDbSpline
62
9
6
CONTINUOUS
70
0
71
3
72
8
73
4
74
2
42
0.0000001000
43
0.0000001000
44
0.0000000001
12
0.0033860998
22
0.0113685382
32
0.0000000000
13
0.0020145149
23
0.0116653788
33
0.0000000000
40
0.0000000000
40
0.0000000000
40
0.0000000000
40
0.0000000000
40
1.0000000000
40
1.0000000000
40
1.0000000000
40
1.0000000000
10
1.4804702242
20
-472.8411198436
30
0.0000000000
10
1.4815989241
20
-472.8373303309
30
0.0000000000
10
1.4825020993
20
-472.8334748454
30
0.0000000000
10
1.4831736043
20
-472.8295863858
30
0.0000000000
11
1.4804702242
21
-472.8411198436
31
0.0000000000
11
1.4831736043
21
-472.8295863858
31
0.0000000000
0
SPLINE
5
3EE
100
AcDbEntity
8
0
100
AcDbSpline
62
9
6
CONTINUOUS
70
0
71
3
72
8
73
4
74
2
42
0.0000001000
43
0.0000001000
44
0.0000000001
12
0.0006855855
22
0.0039699952
32
0.0000000000
13
0.0005238670
23
0.0039890075
33
0.0000000000
40
0.0000000000
40
0.0000000000
40
0.0000000000
40
0.0000000000
40
1.0000000000
40
1.0000000000
40
1.0000000000
40
1.0000000000
10
1.4831736043
20
-472.8295863858
30
0.0000000000
10
1.4834021328
20
-472.8282630541
30
0.0000000000
10
1.4836038293
20
-472.8269359033
30
0.0000000000
10
1.4837784516
20
-472.8256062342
30
0.0000000000
11
1.4831736043
21
-472.8295863858
31
0.0000000000
11
1.4837784516
21
-472.8256062342
31
0.0000000000
0
SPLINE
5
3EF
100
AcDbEntity
8
0
100
AcDbSpline
62
9
6
CONTINUOUS
70
0
71
3
72
8
73
4
74
2
42
0.0000001000
43
0.0000001000
44
0.0000000001
12
0.0016657154
22
0.0126836605
32
0.0000000000
13
0.0000000018
23
0.0127109900
33
0.0000000000
40
0.0000000000
40
0.0000000000
40
0.0000000000
40
0.0000000000
40
1.0000000000
40
1.0000000000
40
1.0000000000
40
1.0000000000
10
1.4837784516
20
-472.8256062342
30
0.0000000000
10
1.4843336901
20
-472.8213783474
30
0.0000000000
10
1.4846152031
20
-472.8171249993
30
0.0000000000
10
1.4846152037
20
-472.8128880026
30
0.0000000000
11
1.4837784516
21
-472.8256062342
31
0.0000000000
11
1.4846152037
21
-472.8128880026
31
0.0000000000
0
SPLINE
5
3F0
100
AcDbEntity
8
0
100
AcDbSpline
62
9
6
CONTINUOUS
70
0
71
3
72
10
73
6
74
4
42
0.0000001000
43
0.0000001000
44
0.0000000001
12
0.1210365973
22
-0.0119148569
32
0.0000000000
13
0.0533106822
23
0.1105467502
33
0.0000000000
40
0.0000000000
40
0.0000000000
40
0.0000000000
40
0.0000000000
40
0.3413955304
40
0.6788235121
40
1.0000000000
40
1.0000000000
40
1.0000000000
40
1.0000000000
10
1.3743254448
20
-472.6634486990
30
0.0000000000
10
1.3880992293
20
-472.6648045920
30
0.0000000000
10
1.4163403538
20
-472.6620033400
30
0.0000000000
10
1.4528768462
20
-472.6420404748
30
0.0000000000
10
1.4697879653
20
-472.6204092407
30
0.0000000000
10
1.4754953445
20
-472.6085742350
30
0.0000000000
11
1.3743254448
21
-472.6634486990
31
0.0000000000
11
1.4156355120
21
-472.6592679575
31
0.0000000000
11
1.4515932957
21
-472.6394891874
31
0.0000000000
11
1.4754953445
21
-472.6085742350
31
0.0000000000
0
SPLINE
5
3F1
100
AcDbEntity
8
0
100
AcDbSpline
62
9
6
CONTINUOUS
70
0
71
3
72
10
73
6
74
4
42
0.0000001000
43
0.0000001000
44
0.0000000001
12
-0.1210105791
22
-0.0119005592
32
0.0000000000
13
-0.0533247757
23
0.1105085263
33
0.0000000000
40
0.0000000000
40
0.0000000000
40
0.0000000000
40
0.0000000000
40
0.3414622253
40
0.6789559621
40
1.0000000000
40
1.0000000000
40
1.0000000000
40
1.0000000000
10
2.5949054339
20
-472.6634530260
30
0.0000000000
10
2.5811319201
20
-472.6648075564
30
0.0000000000
10
2.5528919560
20
-472.6620040161
30
0.0000000000
10
2.5163650241
20
-472.6420433862
30
0.0000000000
10
2.4994582134
20
-472.6204211141
30
0.0000000000
10
2.4937516796
20
-472.6085950796
30
0.0000000000
11
2.5949054339
21
-472.6634530260
31
0.0000000000
11
2.5535969224
21
-472.6592689121
31
0.0000000000
11
2.5176414403
21
-472.6394884771
31
0.0000000000
11
2.4937516796
21
-472.6085950796
31
0.0000000000
0
SPLINE
5
3F2
100
AcDbEntity
8
0
100
AcDbSpline
62
9
6
CONTINUOUS
70
0
71
3
72
11
73
7
74
5
42
0.0000001000
43
0.0000001000
44
0.0000000001
12
-0.1647257712
22
-0.0169074676
32
0.0000000000
13
-0.0000024998
23
0.1655911898
33
0.0000000000
40
0.0000000000
40
0.0000000000
40
0.0000000000
40
0.0000000000
40
0.2508328946
40
0.5012304873
40
0.7508912799
40
1.0000000000
40
1.0000000000
40
1.0000000000
40
1.0000000000
10
2.5949054310
20
-472.9116299141
30
0.0000000000
10
2.5811325504
20
-472.9130435638
30
0.0000000000
10
2.5526748461
20
-472.9100695804
30
0.0000000000
10
2.5157267674
20
-472.8888151536
30
0.0000000000
10
2.4905611897
20
-472.8545133521
30
0.0000000000
10
2.4846249512
20
-472.8266380721
30
0.0000000000
10
2.4846247436
20
-472.8128880023
30
0.0000000000
11
2.5949054310
21
-472.9116299141
31
0.0000000000
11
2.5536003654
21
-472.9072587148
31
0.0000000000
11
2.5176482749
21
-472.8866024751
31
0.0000000000
11
2.4932531681
21
-472.8532257025
31
0.0000000000
11
2.4846247436
21
-472.8128880023
31
0.0000000000
0
SPLINE
5
3F3
100
AcDbEntity
8
0
100
AcDbSpline
62
9
6
CONTINUOUS
70
0
71
3
72
9
73
5
74
3
42
0.0000001000
43
0.0000001000
44
0.0000000001
12
-0.0385822683
22
-0.0148726601
32
0.0000000000
13
-0.0416051680
23
0.0019714101
33
0.0000000000
40
0.0000000000
40
0.0000000000
40
0.0000000000
40
0.0000000000
40
0.9320597385
40
1.0000000000
40
1.0000000000
40
1.0000000000
40
1.0000000000
10
4.1206310329
20
-472.5798105930
30
0.0000000000
10
4.1086440400
20
-472.5844313289
30
0.0000000000
10
4.0946680238
20
-472.5869028351
30
0.0000000000
10
4.0807879280
20
-472.5864435749
30
0.0000000000
10
4.0798457060
20
-472.5863989289
30
0.0000000000
11
4.1206310329
21
-472.5798105930
31
0.0000000000
11
4.0826744054
21
-472.5864924514
31
0.0000000000
11
4.0798457060
21
-472.5863989289
31
0.0000000000
0
SPLINE
5
3F4
100
AcDbEntity
8
0
100
AcDbSpline
62
7
6
CONTINUOUS
70
0
71
3
72
8
73
4
74
2
42
0.0000001000
43
0.0000001000
44
0.0000000001
12
0.0000000000
22
0.5419593887
32
0.0000000000
13
0.3916126434
23
0.4158158328
33
0.0000000000
40
0.0000000000
40
0.0000000000
40
0.0000000000
40
0.0000000000
40
1.0000000000
40
1.0000000000
40
1.0000000000
40
1.0000000000
10
-405.5153847963
20
248.9783632803
30
0.0000000000
10
-405.5153847963
20
249.1590164098
30
0.0000000000
10
-405.4037395933
20
249.3243432607
30
0.0000000000
10
-405.2732020455
20
249.4629485383
30
0.0000000000
11
-405.5153847963
21
248.9783632803
31
0.0000000000
11
-405.2732020455
21
249.4629485383
31
0.0000000000
0
SPLINE
5
3F5
100
AcDbEntity
8
0
100
AcDbSpline
62
7
6
CONTINUOUS
70
0
71
3
72
10
73
6
74
4
42
0.0000001000
43
0.0000001000
44
0.0000000001
12
1.2035530857
22
1.2779373625
32
0.0000000000
13
1.4925281122
23
0.7472755188
33
0.0000000000
40
0.0000000000
40
0.0000000000
40
0.0000000000
40
0.0000000000
40
0.0214289826
40
0.5574933070
40
1.0000000000
40
1.0000000000
40
1.0000000000
40
1.0000000000
10
-405.2732020455
20
249.4629485383
30
0.0000000000
10
-405.2646050728
20
249.4720768375
30
0.0000000000
10
-405.0388156874
20
249.7065421171
30
0.0000000000
10
-404.5664916619
20
249.9824529186
30
0.0000000000
10
-404.0826448322
20
250.2320431164
30
0.0000000000
10
-403.8624936059
20
250.3422679226
30
0.0000000000
11
-405.2732020455
21
249.4629485383
31
0.0000000000
11
-405.2471917963
21
249.4899824818
31
0.0000000000
11
-404.5158069646
21
250.0021422422
31
0.0000000000
11
-403.8624936059
21
250.3422679226
31
0.0000000000
0
SPLINE
5
3F6
100
AcDbEntity
8
0
100
AcDbSpline
62
7
6
CONTINUOUS
70
0
71
3
72
8
73
4
74
2
42
0.0000001000
43
0.0000001000
44
0.0000000001
12
0.3464313939
22
0.1734504680
32
0.0000000000
13
0.3473433639
23
0.1697579609
33
0.0000000000
40
0.0000000000
40
0.0000000000
40
0.0000000000
40
0.0000000000
40
1.0000000000
40
1.0000000000
40
1.0000000000
40
1.0000000000
10
-403.8624936059
20
250.3422679226
30
0.0000000000
10
-403.7470164746
20
250.4000847453
30
0.0000000000
10
-403.6311659176
20
250.4571754567
30
0.0000000000
10
-403.5153847963
20
250.5137614437
30
0.0000000000
11
-403.8624936059
21
250.3422679226
31
0.0000000000
11
-403.5153847963
21
250.5137614437
31
0.0000000000
0
SPLINE
5
3F7
100
AcDbEntity
8
0
100
AcDbSpline
62
7
6
CONTINUOUS
70
0
71
3
72
8
73
4
74
2
42
0.0000001000
43
0.0000001000
44
0.0000000001
12
0.0000000000
22
-0.5419593887
32
0.0000000000
13
-0.3916126434
23
-0.4158158328
33
0.0000000000
40
0.0000000000
40
0.0000000000
40
0.0000000000
40
0.0000000000
40
1.0000000000
40
1.0000000000
40
1.0000000000
40
1.0000000000
10
194.4846152037
20
-426.9508403929
30
0.0000000000
10
194.4846152037
20
-427.1314935225
30
0.0000000000
10
194.3729700007
20
-427.2968203734
30
0.0000000000
10
194.2424324529
20
-427.4354256510
30
0.0000000000
11
194.4846152037
21
-426.9508403929
31
0.0000000000
11
194.2424324529
21
-427.4354256510
31
0.0000000000
0
SPLINE
5
3F8
100
AcDbEntity
8
0
100
AcDbSpline
62
7
6
CONTINUOUS
70
0
71
3
72
10
73
6
74
4
42
0.0000001000
43
0.0000001000
44
0.0000000001
12
-1.2035530857
22
-1.2779373625
32
0.0000000000
13
-1.4925281121
23
-0.7472755188
33
0.0000000000
40
0.0000000000
40
0.0000000000
40
0.0000000000
40
0.0000000000
40
0.0214289826
40
0.5574933070
40
1.0000000000
40
1.0000000000
40
1.0000000000
40
1.0000000000
10
194.2424324529
20
-427.4354256510
30
0.0000000000
10
194.2338354802
20
-427.4445539502
30
0.0000000000
10
194.0080460948
20
-427.6790192298
30
0.0000000000
10
193.5357220693
20
-427.9549300313
30
0.0000000000
10
193.0518752397
20
-428.2045202291
30
0.0000000000
10
192.8317240133
20
-428.3147450353
30
0.0000000000
11
194.2424324529
21
-427.4354256510
31
0.0000000000
11
194.2164222037
21
-427.4624595944
31
0.0000000000
11
193.4850373720
21
-427.9746193548
31
0.0000000000
11
192.8317240133
21
-428.3147450353
31
0.0000000000
0
SPLINE
5
3F9
100
AcDbEntity
8
0
100
AcDbSpline
62
7
6
CONTINUOUS
70
0
71
3
72
8
73
4
74
2
42
0.0000001000
43
0.0000001000
44
0.0000000001
12
-0.3464313939
22
-0.1734504680
32
0.0000000000
13
-0.3473433639
23
-0.1697579609
33
0.0000000000
40
0.0000000000
40
0.0000000000
40
0.0000000000
40
0.0000000000
40
1.0000000000
40
1.0000000000
40
1.0000000000
40
1.0000000000
10
192.8317240133
20
-428.3147450353
30
0.0000000000
10
192.7162468820
20
-428.3725618579
30
0.0000000000
10
192.6003963250
20
-428.4296525694
30
0.0000000000
10
192.4846152037
20
-428.4862385563
30
0.0000000000
11
192.8317240133
21
-428.3147450353
31
0.0000000000
11
192.4846152037
21
-428.4862385563
31
0.0000000000
0
SPLINE
5
3FA
100
AcDbEntity
8
0
100
AcDbSpline
62
7
6
CONTINUOUS
70
0
71
3
72
9
73
5
74
3
42
0.0000001000
43
0.0000001000
44
0.0000000001
12
-1.3107482797
22
0.6406051717
32
0.0000000000
13
-1.2295645273
23
0.7648361892
33
0.0000000000
40
0.0000000000
40
0.0000000000
40
0.0000000000
40
0.0000000000
40
0.7701979721
40
1.0000000000
40
1.0000000000
40
1.0000000000
40
1.0000000000
10
-403.5153847963
20
-428.4862385563
30
0.0000000000
10
-403.8518966853
20
-428.3217742883
30
0.0000000000
10
-404.2895743415
20
-428.1027034706
30
0.0000000000
10
-404.7099112661
20
-427.8672822584
30
0.0000000000
10
-404.8040967401
20
-427.8086952894
30
0.0000000000
11
-403.5153847963
21
-428.4862385563
31
0.0000000000
11
-404.5158069646
21
-427.9746193548
31
0.0000000000
11
-404.8040967401
21
-427.8086952894
31
0.0000000000
0
SPLINE
5
3FB
100
AcDbEntity
8
0
100
AcDbSpline
62
7
6
CONTINUOUS
70
0
71
3
72
9
73
5
74
3
42
0.0000001000
43
0.0000001000
44
0.0000000001
12
-0.5000366008
22
0.3110419012
32
0.0000000000
13
-0.4287170259
23
0.4552134109
33
0.0000000000
40
0.0000000000
40
0.0000000000
40
0.0000000000
40
0.0000000000
40
0.9398416285
40
1.0000000000
40
1.0000000000
40
1.0000000000
40
1.0000000000
10
-404.8040967401
20
-427.8086952894
30
0.0000000000
10
-404.9607484778
20
-427.7112519137
30
0.0000000000
10
-405.1203372944
20
-427.5943651778
30
0.0000000000
10
-405.2646050728
20
-427.4445539502
30
0.0000000000
10
-405.2732020455
20
-427.4354256510
30
0.0000000000
11
-404.8040967401
21
-427.8086952894
31
0.0000000000
11
-405.2471917963
21
-427.4624595944
31
0.0000000000
11
-405.2732020455
21
-427.4354256510
31
0.0000000000
0
SPLINE
5
3FC
100
AcDbEntity
8
0
100
AcDbSpline
62
7
6
CONTINUOUS
70
0
71
3
72
8
73
4
74
2
42
0.0000001000
43
0.0000001000
44
0.0000000001
12
-0.1287754792
22
0.1367343063
32
0.0000000000
13
-0.1066241756
23
0.1528554380
33
0.0000000000
40
0.0000000000
40
0.0000000000
40
0.0000000000
40
0.0000000000
40
1.0000000000
40
1.0000000000
40
1.0000000000
40
1.0000000000
10
-405.2732020455
20
-427.4354256510
30
0.0000000000
10
-405.3161272052
20
-427.3898475489
30
0.0000000000
10
-405.3570095040
20
-427.3413799983
30
0.0000000000
10
-405.3925508959
20
-427.2904281856
30
0.0000000000
11
-405.2732020455
21
-427.4354256510
31
0.0000000000
11
-405.3925508959
21
-427.2904281856
31
0.0000000000
0
SPLINE
5
3FD
100
AcDbEntity
8
0
100
AcDbSpline
62
7
6
CONTINUOUS
70
0
71
3
72
8
73
4
74
2
42
0.0000001000
43
0.0000001000
44
0.0000000001
12
-0.0380519694
22
0.0545509536
32
0.0000000000
13
-0.0335208492
23
0.0563941193
33
0.0000000000
40
0.0000000000
40
0.0000000000
40
0.0000000000
40
0.0000000000
40
1.0000000000
40
1.0000000000
40
1.0000000000
40
1.0000000000
10
-405.3925508959
20
-427.2904281856
30
0.0000000000
10
-405.4052348857
20
-427.2722445344
30
0.0000000000
10
-405.4172386421
20
-427.2537444804
30
0.0000000000
10
-405.4284122585
20
-427.2349464406
30
0.0000000000
11
-405.3925508959
21
-427.2904281856
31
0.0000000000
11
-405.4284122585
21
-427.2349464406
31
0.0000000000
0
SPLINE
5
3FE
100
AcDbEntity
8
0
100
AcDbSpline
62
7
6
CONTINUOUS
70
0
71
3
72
8
73
4
74
2
42
0.0000001000
43
0.0000001000
44
0.0000000001
12
-0.1581902061
22
0.2661327968
32
0.0000000000
13
0.0000000000
23
0.3001437099
33
0.0000000000
40
0.0000000000
40
0.0000000000
40
0.0000000000
40
0.0000000000
40
1.0000000000
40
1.0000000000
40
1.0000000000
40
1.0000000000
10
-405.4284122585
20
-427.2349464406
30
0.0000000000
10
-405.4811423272
20
-427.1462355084
30
0.0000000000
10
-405.5153847963
20
-427.0508882963
30
0.0000000000
10
-405.5153847963
20
-426.9508403929
30
0.0000000000
11
-405.4284122585
21
-427.2349464406
31
0.0000000000
11
-405.5153847963
21
-426.9508403929
31
0.0000000000
0
SPLINE
5
3FF
100
AcDbEntity
8
0
100
AcDbSpline
62
7
6
CONTINUOUS
70
0
71
3
72
9
73
5
74
3
42
0.0000001000
43
0.0000001000
44
0.0000000001
12
1.3107482797
22
-0.6406051717
32
0.0000000000
13
1.2295645273
23
-0.7648361892
33
0.0000000000
40
0.0000000000
40
0.0000000000
40
0.0000000000
40
0.0000000000
40
0.7701979721
40
1.0000000000
40
1.0000000000
40
1.0000000000
40
1.0000000000
10
192.4846152037
20
250.5137614437
30
0.0000000000
10
192.8211270927
20
250.3492971756
30
0.0000000000
10
193.2588047489
20
250.1302263580
30
0.0000000000
10
193.6791416736
20
249.8948051458
30
0.0000000000
10
193.7733271475
20
249.8362181767
30
0.0000000000
11
192.4846152037
21
250.5137614437
31
0.0000000000
11
193.4850373720
21
250.0021422422
31
0.0000000000
11
193.7733271475
21
249.8362181767
31
0.0000000000
0
SPLINE
5
400
100
AcDbEntity
8
0
100
AcDbSpline
62
7
6
CONTINUOUS
70
0
71
3
72
9
73
5
74
3
42
0.0000001000
43
0.0000001000
44
0.0000000001
12
0.5000366008
22
-0.3110419012
32
0.0000000000
13
0.4287170259
23
-0.4552134109
33
0.0000000000
40
0.0000000000
40
0.0000000000
40
0.0000000000
40
0.0000000000
40
0.9398416285
40
1.0000000000
40
1.0000000000
40
1.0000000000
40
1.0000000000
10
193.7733271475
20
249.8362181767
30
0.0000000000
10
193.9299788852
20
249.7387748010
30
0.0000000000
10
194.0895677018
20
249.6218880651
30
0.0000000000
10
194.2338354802
20
249.4720768375
30
0.0000000000
10
194.2424324529
20
249.4629485383
30
0.0000000000
11
193.7733271475
21
249.8362181767
31
0.0000000000
11
194.2164222037
21
249.4899824818
31
0.0000000000
11
194.2424324529
21
249.4629485383
31
0.0000000000
0
SPLINE
5
401
100
AcDbEntity
8
0
100
AcDbSpline
62
7
6
CONTINUOUS
70
0
71
3
72
8
73
4
74
2
42
0.0000001000
43
0.0000001000
44
0.0000000001
12
0.1287754792
22
-0.1367343063
32
0.0000000000
13
0.1066241756
23
-0.1528554380
33
0.0000000000
40
0.0000000000
40
0.0000000000
40
0.0000000000
40
0.0000000000
40
1.0000000000
40
1.0000000000
40
1.0000000000
40
1.0000000000
10
194.2424324529
20
249.4629485383
30
0.0000000000
10
194.2853576127
20
249.4173704362
30
0.0000000000
10
194.3262399115
20
249.3689028856
30
0.0000000000
10
194.3617813033
20
249.3179510729
30
0.0000000000
11
194.2424324529
21
249.4629485383
31
0.0000000000
11
194.3617813033
21
249.3179510729
31
0.0000000000
0
SPLINE
5
402
100
AcDbEntity
8
0
100
AcDbSpline
62
7
6
CONTINUOUS
70
0
71
3
72
8
73
4
74
2
42
0.0000001000
43
0.0000001000
44
0.0000000001
12
0.0380519694
22
-0.0545509536
32
0.0000000000
13
0.0335208492
23
-0.0563941193
33
0.0000000000
40
0.0000000000
40
0.0000000000
40
0.0000000000
40
0.0000000000
40
1.0000000000
40
1.0000000000
40
1.0000000000
40
1.0000000000
10
194.3617813033
20
249.3179510729
30
0.0000000000
10
194.3744652931
20
249.2997674217
30
0.0000000000
10
194.3864690496
20
249.2812673677
30
0.0000000000
10
194.3976426660
20
249.2624693280
30
0.0000000000
11
194.3617813033
21
249.3179510729
31
0.0000000000
11
194.3976426660
21
249.2624693280
31
0.0000000000
0
SPLINE
5
403
100
AcDbEntity
8
0
100
AcDbSpline
62
7
6
CONTINUOUS
70
0
71
3
72
8
73
4
74
2
42
0.0000001000
43
0.0000001000
44
0.0000000001
12
0.1581902061
22
-0.2661327968
32
0.0000000000
13
0.0000000000
23
-0.3001437099
33
0.0000000000
40
0.0000000000
40
0.0000000000
40
0.0000000000
40
0.0000000000
40
1.0000000000
40
1.0000000000
40
1.0000000000
40
1.0000000000
10
194.3976426660
20
249.2624693280
30
0.0000000000
10
194.4503727347
20
249.1737583957
30
0.0000000000
10
194.4846152037
20
249.0784111836
30
0.0000000000
10
194.4846152037
20
248.9783632803
30
0.0000000000
11
194.3976426660
21
249.2624693280
31
0.0000000000
11
194.4846152037
21
248.9783632803
31
0.0000000000
0
ENDSEC
0
SECTION
2
OBJECTS
0
DICTIONARY
5
404
100
AcDbDictionary
3
ACAD_GROUP
350
405
3
ACAD_MLINESTYLE
350
406
0
DICTIONARY
5
405
102
{ACAD_REACTORS
330
404
102
}
100
AcDbDictionary
0
DICTIONARY
5
406
102
{ACAD_REACTORS
330
404
102
}
100
AcDbDictionary
3
STANDARD
350
407
0
MLINESTYLE
5
407
102
{ACAD_REACTORS
330
406
102
}
100
AcDbMlineStyle
2
STANDARD
70
0
3

62
256
51
90.0
52
90.0
71
2
49
0.5
62
256
6
BYLAYER
49
-0.5
62
256
6
BYLAYER
0
ENDSEC
0
EOF
