  0
SECTION
  2
HEADER
  9
$ACADVER
  1
AC1024
  9
$DWGCODEPAGE
  3
ANSI_1252
  9
$EXTMAX
 10
297.0
 20
210.0
 30
0.0
  9
$EXTMIN
 10
0.0
 20
0.0
 30
0.0
  9
$LIMMIN
 10
0.0
 20
0.0
  9
$LIMMAX
 10
297.0
 20
210.0
  9
$VIEWCTR
 10
148.5
 20
105.0
  9
$VIEWSIZE
 40
210.0
  9
$CLAYER
  8
0
  9
$LTSCALE
 40
16.335
  9
$CELTYPE
  6
BYLAYER
  9
$DIMSCALE
 40
1.0
  9
$DIMASZ
 40
3.0
  9
$DIMEXO
 40
0.5
  9
$DIMDLI
 40
11.286
  9
$DIMEXE
 40
1.5
  9
$DIMCEN
 40
2.673
  9
$DIMLFAC
 40
1.0
  9
$DIMBLK
  1
_FILLED
  9
$DIMALT
 70
0
  9
$DIMALTF
 40
0.0393700787
  9
$DIMTXT
 40
3.0
  9
$DIMTOL
 70
1
  9
$DIMLIM
 70
0
  9
$DIMTFAC
 40
1.0
  9
$DIMTP
 40
0.01
  9
$DIMTM
 40
0.01
  9
$DIMGAP
 40
0.625
  9
$DIMDSEP
 70
44
  9
$AUNITS
 70
0
  9
$PDMODE
 70
3
  9
$PDSIZE
 40
3.0
  9
$HANDSEED
  5
4C1
  9
$TILEMODE
 70
1
  9
$MEASUREMENT
 70
1
  9
$INSUNITS
 70
4
  0
ENDSEC
  0
SECTION
  2
CLASSES
  0
CLASS
  1
ACDBDICTIONARYWDFLT
  2
AcDbDictionaryWithDefault
  3
AutoCAD 2000
 90
0
 91
1
280
0
281
0
  0
CLASS
  1
ACDBPLACEHOLDER
  2
AcDbPlaceHolder
  3
AutoCAD 2000
 90
0
 91
1
280
0
281
0
  0
CLASS
  1
LAYOUT
  2
AcDbLayout
  3
AutoCAD 2000
 90
0
 91
0
280
0
281
0
  0
ENDSEC
  0
SECTION
  2
TABLES
  0
TABLE
  2
VPORT
  5
8
100
AcDbSymbolTable
 70
2
  0
VPORT
  5
1F4
100
AcDbSymbolTableRecord
100
AcDbViewportTableRecord
  2
*ACTIVE
 70
0
 10
0.0
 20
0.0
 11
1.0
 21
1.0
 12
148.5
 22
105.0
 13
0.0
 23
0.0
 14
1.0
 24
1.0
 15
0.0
 25
0.0
 16
0.0
 26
0.0
 36
1.0
 17
0.0
 27
0.0
 37
0.0
 40
210.0
 41
1.4142857143
 42
50.0
 43
0.0
 44
0.0
 50
0.0
 51
0.0
 71
0
 72
100
 73
1
 74
1
 75
0
 76
0
 77
0
 78
0
  0
ENDTAB
  0
TABLE
  2
LTYPE
  5
5
100
AcDbSymbolTable
 70
6
  0
LTYPE
  5
14
100
AcDbSymbolTableRecord
100
AcDbLinetypeTableRecord
  2
BYBLOCK
 70
0
  3

 72
65
 73
0
 40
0.0
  0
LTYPE
  5
15
100
AcDbSymbolTableRecord
100
AcDbLinetypeTableRecord
  2
BYLAYER
 70
0
  3

 72
65
 73
0
 40
0.0
  0
LTYPE
  5
16
100
AcDbSymbolTableRecord
100
AcDbLinetypeTableRecord
  2
CONTINUOUS
 70
64
  3
Solid line
 72
65
 73
0
 40
0.0
  0
LTYPE
  5
1F5
100
AcDbSymbolTableRecord
100
AcDbLinetypeTableRecord
  2
CENTER
 70
64
  3
____ _ ____ _ ____ _ ____ _ ____ _ ____ _ ____
 72
65
 73
4
 40
0.6
 49
0.375
 74
0
 49
-0.075
 74
0
 49
0.075
 74
0
 49
-0.075
 74
0
  0
LTYPE
  5
1F6
100
AcDbSymbolTableRecord
100
AcDbLinetypeTableRecord
  2
HIDDEN
 70
64
  3
- - - - - - - - - - - - - - - - - - - -
 72
65
 73
2
 40
0.2
 49
0.1
 74
0
 49
-0.1
 74
0
  0
LTYPE
  5
1F7
100
AcDbSymbolTableRecord
100
AcDbLinetypeTableRecord
  2
PHANTOM
 70
64
  3
_____ _ _ _____ _ _ _____ _ _ _____
 72
65
 73
6
 40
0.8
 49
0.45
 74
0
 49
-0.05
 74
0
 49
0.1
 74
0
 49
-0.05
 74
0
 49
0.1
 74
0
 49
-0.05
 74
0
  0
LTYPE
  5
1F8
100
AcDbSymbolTableRecord
100
AcDbLinetypeTableRecord
  2
DOT
 70
64
  3
. . . . . . . . . . . . . . . . . . . .
 72
65
 73
2
 40
0.2
 49
0.1
 74
0
 49
-0.1
 74
0
  0
LTYPE
  5
1F9
100
AcDbSymbolTableRecord
100
AcDbLinetypeTableRecord
  2
DASHED
 70
64
  3
- - - - - - - - - - - - - - - - - - - -
 72
65
 73
2
 40
0.2
 49
0.1
 74
0
 49
-0.1
 74
0
  0
ENDTAB
  0
TABLE
  2
LAYER
  5
2
100
AcDbSymbolTable
 70
36
  0
LAYER
  5
10
100
AcDbSymbolTableRecord
100
AcDbLayerTableRecord
  2
0
 70
0
 62
7
  6
CONTINUOUS
370
-3
390
F
  0
LAYER
  5
1FA
100
AcDbSymbolTableRecord
100
AcDbLayerTableRecord
  2
DEFAULT_1
 70
0
 62
7
  6
CENTER
370
-3
390
F
  0
LAYER
  5
1FB
100
AcDbSymbolTableRecord
100
AcDbLayerTableRecord
  2
DEFAULT_2
 70
0
 62
7
  6
HIDDEN
370
-3
390
F
  0
LAYER
  5
1FC
100
AcDbSymbolTableRecord
100
AcDbLayerTableRecord
  2
DEFAULT_3
 70
0
 62
7
  6
PHANTOM
370
-3
390
F
  0
LAYER
  5
1FD
100
AcDbSymbolTableRecord
100
AcDbLayerTableRecord
  2
ASSI
 70
0
 62
7
  6
CONTINUOUS
370
-3
390
F
  0
LAYER
  5
1FE
100
AcDbSymbolTableRecord
100
AcDbLayerTableRecord
  2
COLOR5
 70
0
 62
7
  6
CONTINUOUS
370
-3
390
F
  0
LAYER
  5
1FF
100
AcDbSymbolTableRecord
100
AcDbLayerTableRecord
  2
COORDINATE
 70
0
 62
7
  6
CONTINUOUS
370
-3
390
F
  0
LAYER
  5
200
100
AcDbSymbolTableRecord
100
AcDbLayerTableRecord
  2
COORD_ORIGINE
 70
0
 62
7
  6
CONTINUOUS
370
-3
390
F
  0
LAYER
  5
201
100
AcDbSymbolTableRecord
100
AcDbLayerTableRecord
  2
COPY_PUBLISH
 70
0
 62
7
  6
CONTINUOUS
370
-3
390
F
  0
LAYER
  5
202
100
AcDbSymbolTableRecord
100
AcDbLayerTableRecord
  2
COSMETICI
 70
0
 62
7
  6
CONTINUOUS
370
-3
390
F
  0
LAYER
  5
203
100
AcDbSymbolTableRecord
100
AcDbLayerTableRecord
  2
CURVE
 70
0
 62
7
  6
CONTINUOUS
370
-3
390
F
  0
LAYER
  5
204
100
AcDbSymbolTableRecord
100
AcDbLayerTableRecord
  2
DRAFT
 70
0
 62
7
  6
CONTINUOUS
370
-3
390
F
  0
LAYER
  5
205
100
AcDbSymbolTableRecord
100
AcDbLayerTableRecord
  2
IMPORT_IGES
 70
0
 62
7
  6
CONTINUOUS
370
-3
390
F
  0
LAYER
  5
206
100
AcDbSymbolTableRecord
100
AcDbLayerTableRecord
  2
INTFCLR_1
 70
0
 62
7
  6
CONTINUOUS
370
-3
390
F
  0
LAYER
  5
207
100
AcDbSymbolTableRecord
100
AcDbLayerTableRecord
  2
INTF_1
 70
0
 62
7
  6
CONTINUOUS
370
-3
390
F
  0
LAYER
  5
208
100
AcDbSymbolTableRecord
100
AcDbLayerTableRecord
  2
INTF_11
 70
0
 62
7
  6
CONTINUOUS
370
-3
390
F
  0
LAYER
  5
209
100
AcDbSymbolTableRecord
100
AcDbLayerTableRecord
  2
INTF_2
 70
0
 62
7
  6
CONTINUOUS
370
-3
390
F
  0
LAYER
  5
20A
100
AcDbSymbolTableRecord
100
AcDbLayerTableRecord
  2
INTF_7
 70
0
 62
7
  6
CONTINUOUS
370
-3
390
F
  0
LAYER
  5
20B
100
AcDbSymbolTableRecord
100
AcDbLayerTableRecord
  2
NONE
 70
0
 62
7
  6
CONTINUOUS
370
-3
390
F
  0
LAYER
  5
20C
100
AcDbSymbolTableRecord
100
AcDbLayerTableRecord
  2
NOTE
 70
0
 62
7
  6
CONTINUOUS
370
-3
390
F
  0
LAYER
  5
20D
100
AcDbSymbolTableRecord
100
AcDbLayerTableRecord
  2
PIANI
 70
0
 62
7
  6
CONTINUOUS
370
-3
390
F
  0
LAYER
  5
20E
100
AcDbSymbolTableRecord
100
AcDbLayerTableRecord
  2
PIANI_ORIGINE
 70
0
 62
7
  6
CONTINUOUS
370
-3
390
F
  0
LAYER
  5
20F
100
AcDbSymbolTableRecord
100
AcDbLayerTableRecord
  2
PUNTI
 70
0
 62
7
  6
CONTINUOUS
370
-3
390
F
  0
LAYER
  5
210
100
AcDbSymbolTableRecord
100
AcDbLayerTableRecord
  2
RACCORDO
 70
0
 62
7
  6
CONTINUOUS
370
-3
390
F
  0
LAYER
  5
211
100
AcDbSymbolTableRecord
100
AcDbLayerTableRecord
  2
RGB__255__255__255__
 70
0
 62
7
  6
CONTINUOUS
370
-3
390
F
  0
LAYER
  5
212
100
AcDbSymbolTableRecord
100
AcDbLayerTableRecord
  2
RGB____0____0____0__
 70
0
 62
7
  6
CONTINUOUS
370
-3
390
F
  0
LAYER
  5
213
100
AcDbSymbolTableRecord
100
AcDbLayerTableRecord
  2
SIMBOLI
 70
0
 62
7
  6
CONTINUOUS
370
-3
390
F
  0
LAYER
  5
214
100
AcDbSymbolTableRecord
100
AcDbLayerTableRecord
  2
SMUSSO
 70
0
 62
7
  6
CONTINUOUS
370
-3
390
F
  0
LAYER
  5
215
100
AcDbSymbolTableRecord
100
AcDbLayerTableRecord
  2
SNAPLINE
 70
0
 62
7
  6
CONTINUOUS
370
-3
390
F
  0
LAYER
  5
216
100
AcDbSymbolTableRecord
100
AcDbLayerTableRecord
  2
SUPERFICI
 70
0
 62
7
  6
CONTINUOUS
370
-3
390
F
  0
LAYER
  5
217
100
AcDbSymbolTableRecord
100
AcDbLayerTableRecord
  2
TESTO
 70
0
 62
7
  6
CONTINUOUS
370
-3
390
F
  0
LAYER
  5
218
100
AcDbSymbolTableRecord
100
AcDbLayerTableRecord
  2
TRASH
 70
0
 62
7
  6
CONTINUOUS
370
-3
390
F
  0
LAYER
  5
219
100
AcDbSymbolTableRecord
100
AcDbLayerTableRecord
  2
XSEC_DATUMS
 70
0
 62
7
  6
CONTINUOUS
370
-3
390
F
  0
ENDTAB
  0
TABLE
  2
STYLE
  5
3
100
AcDbSymbolTable
 70
1
  0
STYLE
  5
11
100
AcDbSymbolTableRecord
100
AcDbTextStyleTableRecord
  2
STANDARD
 70
0
 40
0.0
 41
0.8
 50
0.0
 71
0
 42
0.2
  3
txt
  4

  0
STYLE
  5
21A
100
AcDbSymbolTableRecord
100
AcDbTextStyleTableRecord
  2
TEXTSTYLE_1
 70
0
 40
0.0
 41
0.8
 50
0.0
 71
0
 42
0.2
  3
gdt
  4

  0
ENDTAB
  0
TABLE
  2
VIEW
  5
6
100
AcDbSymbolTable
 70
0
  0
ENDTAB
  0
TABLE
  2
UCS
  5
7
100
AcDbSymbolTable
 70
0
  0
ENDTAB
  0
TABLE
  2
APPID
  5
9
100
AcDbSymbolTable
 70
1
  0
APPID
  5
21B
100
AcDbSymbolTableRecord
100
AcDbRegAppTableRecord
  2
ACAD
 70
0
  0
ENDTAB
  0
TABLE
  2
BLOCK_RECORD
  5
1
100
AcDbSymbolTable
 70
0
  0
BLOCK_RECORD
  5
21C
100
AcDbSymbolTableRecord
100
AcDbBlockTableRecord
  2
*Model_Space
  0
BLOCK_RECORD
  5
21D
100
AcDbSymbolTableRecord
100
AcDbBlockTableRecord
  2
*Paper_Space
  0
BLOCK_RECORD
  5
21E
100
AcDbSymbolTableRecord
100
AcDbBlockTableRecord
  2
_FILLED
  0
BLOCK_RECORD
  5
21F
100
AcDbSymbolTableRecord
100
AcDbBlockTableRecord
  2
*D0
  0
BLOCK_RECORD
  5
220
100
AcDbSymbolTableRecord
100
AcDbBlockTableRecord
  2
*D1
  0
BLOCK_RECORD
  5
221
100
AcDbSymbolTableRecord
100
AcDbBlockTableRecord
  2
*D2
  0
BLOCK_RECORD
  5
222
100
AcDbSymbolTableRecord
100
AcDbBlockTableRecord
  2
*D3
  0
ENDTAB
  0
TABLE
  2
DIMSTYLE
  5
A
100
AcDbSymbolTable
 70
1
100
AcDbDimStyleTable
 71
0
  0
DIMSTYLE
105
223
100
AcDbSymbolTableRecord
100
AcDbDimStyleTableRecord
  2
STANDARD
 70
0
  3

  4

 40
1.0
 41
3.0
 42
0.5
 43
0.38
 44
1.5
 45
0.0
 46
0.0
 47
0.01
 48
0.01
140
3.0
141
0.09
142
0.0
143
25.4
144
1.0
145
0.0
146
1.0
147
0.625
 71
1.0
 72
0.0
 73
0
 74
0
 75
0
 76
0
 77
1
 78
8
 79
2
170
0
171
1
172
0
173
0
174
0
175
0
176
0
177
0
178
0
270
2
179
2
271
2
272
2
273
2
274
2
275
0
280
0
281
0
282
0
283
1
284
8
285
0
286
0
287
3
288
0
340
11
278
44
341
21E
342
21E
343
21E
344
21E
  0
DIMSTYLE
105
224
100
AcDbSymbolTableRecord
100
AcDbDimStyleTableRecord
  2
DIMSTYLE_1
 70
0
  3

  4

 40
1.0
 41
3.0
 42
0.5
 43
0.38
 44
1.5
 45
0.0
 46
0.0
 47
0.0
 48
0.0
140
3.0
141
0.09
142
0.0
143
25.4
144
1.0
145
0.0
146
1.0
147
0.75
 71
0.0
 72
0.0
 73
0
 74
0
 75
0
 76
0
 77
1
 78
8
 79
2
170
0
171
1
172
0
173
0
174
0
175
0
176
0
177
0
178
0
270
2
179
2
271
2
272
2
273
2
274
2
275
0
280
0
281
0
282
0
283
1
284
8
285
0
286
0
287
3
288
0
340
11
278
44
341
21E
342
21E
343
21E
344
21E
  0
ENDTAB
  0
ENDSEC
  0
SECTION
  2
BLOCKS
  0
BLOCK
  5
20
100
AcDbEntity
  8
0
100
AcDbBlockBegin
  2
*Model_Space
 70
0
 10
0.0
 20
0.0
 30
0.0
  3
*Model_Space
  1

  0
ENDBLK
  5
21
100
AcDbEntity
  8
0
100
AcDbBlockEnd
  0
BLOCK
  5
1C
100
AcDbEntity
  8
0
100
AcDbBlockBegin
  2
*Paper_Space
 70
0
 10
0.0
 20
0.0
 30
0.0
  3
*Paper_Space
  1

  0
ENDBLK
  5
1D
100
AcDbEntity
  8
0
100
AcDbBlockEnd
  0
BLOCK
  5
225
100
AcDbEntity
  8
0
100
AcDbBlockBegin
  2
_FILLED
 70
64
 10
0.0
 20
0.0
  3
_FILLED
  1

  0
SOLID
  5
226
100
AcDbEntity
  8
0
  6
BYBLOCK
 62
0
100
AcDbTrace
 10
0.0
 20
0.0
 11
-1.0
 21
0.3166666667
 12
-1.0
 22
-0.3166666667
 13
-1.0
 23
-0.3166666667
  0
ENDBLK
  5
227
100
AcDbEntity
  8
0
  6
BYBLOCK
 62
0
100
AcDbBlockEnd
  0
BLOCK
  5
228
100
AcDbEntity
  8
0
100
AcDbBlockBegin
 62
7
  6
CONTINUOUS
  2
*D0
 70
65
 10
0.0
 20
0.0
  3
*D0
  1

  0
LINE
  5
229
100
AcDbEntity
  8
0
100
AcDbLine
 62
7
  6
CONTINUOUS
 10
116.0886644779
 20
143.8574609171
 11
116.0886644779
 21
179.6574424487
  0
LINE
  5
22A
100
AcDbEntity
  8
0
100
AcDbLine
 62
7
  6
CONTINUOUS
 10
169.0886644779
 20
143.8574609171
 11
169.0886644779
 21
179.6574424487
  0
LINE
  5
22B
100
AcDbEntity
  8
0
100
AcDbLine
 62
7
  6
CONTINUOUS
 10
116.0886644779
 20
178.1574424487
 11
142.5886644779
 21
178.1574424487
  0
LINE
  5
22C
100
AcDbEntity
  8
0
100
AcDbLine
 62
7
  6
CONTINUOUS
 10
169.0886644779
 20
178.1574424487
 11
142.5886644779
 21
178.1574424487
  0
INSERT
  5
22D
100
AcDbEntity
  8
0
100
AcDbBlockReference
 62
7
  6
CONTINUOUS
  2
_FILLED
 10
116.0886644779
 20
178.1574424487
 41
3.0
 42
3.0
 43
3.0
 50
180.0
  0
INSERT
  5
22E
100
AcDbEntity
  8
0
100
AcDbBlockReference
 62
7
  6
CONTINUOUS
  2
_FILLED
 10
169.0886644779
 20
178.1574424487
 41
3.0
 42
3.0
 43
3.0
  0
ENDBLK
  5
22F
100
AcDbEntity
  8
0
  6
BYBLOCK
 62
0
100
AcDbBlockEnd
  0
BLOCK
  5
230
100
AcDbEntity
  8
0
100
AcDbBlockBegin
 62
7
  6
CONTINUOUS
  2
*D1
 70
65
 10
0.0
 20
0.0
  3
*D1
  1

  0
LINE
  5
231
100
AcDbEntity
  8
0
100
AcDbLine
 62
7
  6
CONTINUOUS
 10
169.5886644779
 20
143.3574609171
 11
196.4566082142
 21
143.3574609171
  0
LINE
  5
232
100
AcDbEntity
  8
0
100
AcDbLine
 62
7
  6
CONTINUOUS
 10
169.5886644779
 20
74.3574609171
 11
196.4566082142
 21
74.3574609171
  0
LINE
  5
233
100
AcDbEntity
  8
0
100
AcDbLine
 62
7
  6
CONTINUOUS
 10
194.9566082142
 20
143.3574609171
 11
194.9566082142
 21
108.8574609171
  0
LINE
  5
234
100
AcDbEntity
  8
0
100
AcDbLine
 62
7
  6
CONTINUOUS
 10
194.9566082142
 20
74.3574609171
 11
194.9566082142
 21
108.8574609171
  0
INSERT
  5
235
100
AcDbEntity
  8
0
100
AcDbBlockReference
 62
7
  6
CONTINUOUS
  2
_FILLED
 10
194.9566082142
 20
143.3574609171
 41
3.0
 42
3.0
 43
3.0
 50
90.0
  0
INSERT
  5
236
100
AcDbEntity
  8
0
100
AcDbBlockReference
 62
7
  6
CONTINUOUS
  2
_FILLED
 10
194.9566082142
 20
74.3574609171
 41
3.0
 42
3.0
 43
3.0
 50
270.0
  0
ENDBLK
  5
237
100
AcDbEntity
  8
0
  6
BYBLOCK
 62
0
100
AcDbBlockEnd
  0
BLOCK
  5
238
100
AcDbEntity
  8
0
100
AcDbBlockBegin
 62
7
  6
CONTINUOUS
  2
*D2
 70
65
 10
0.0
 20
0.0
  3
*D2
  1

  0
LINE
  5
239
100
AcDbEntity
  8
0
100
AcDbLine
 62
7
  6
CONTINUOUS
 10
101.0886644779
 20
154.3574609171
 11
101.0886644779
 21
187.6574424487
  0
LINE
  5
23A
100
AcDbEntity
  8
0
100
AcDbLine
 62
7
  6
CONTINUOUS
 10
184.0886644779
 20
154.3574609171
 11
184.0886644779
 21
187.6574424487
  0
LINE
  5
23B
100
AcDbEntity
  8
0
100
AcDbLine
 62
7
  6
CONTINUOUS
 10
101.0886644779
 20
186.1574424487
 11
142.5886644779
 21
186.1574424487
  0
LINE
  5
23C
100
AcDbEntity
  8
0
100
AcDbLine
 62
7
  6
CONTINUOUS
 10
184.0886644779
 20
186.1574424487
 11
142.5886644779
 21
186.1574424487
  0
INSERT
  5
23D
100
AcDbEntity
  8
0
100
AcDbBlockReference
 62
7
  6
CONTINUOUS
  2
_FILLED
 10
101.0886644779
 20
186.1574424487
 41
3.0
 42
3.0
 43
3.0
 50
180.0
  0
INSERT
  5
23E
100
AcDbEntity
  8
0
100
AcDbBlockReference
 62
7
  6
CONTINUOUS
  2
_FILLED
 10
184.0886644779
 20
186.1574424487
 41
3.0
 42
3.0
 43
3.0
  0
ENDBLK
  5
23F
100
AcDbEntity
  8
0
  6
BYBLOCK
 62
0
100
AcDbBlockEnd
  0
BLOCK
  5
240
100
AcDbEntity
  8
0
100
AcDbBlockBegin
 62
7
  6
CONTINUOUS
  2
*D3
 70
65
 10
0.0
 20
0.0
  3
*D3
  1

  0
LINE
  5
241
100
AcDbEntity
  8
0
100
AcDbLine
 62
7
  6
CONTINUOUS
 10
178.5886644779
 20
159.8574609171
 11
204.4566082142
 21
159.8574609171
  0
LINE
  5
242
100
AcDbEntity
  8
0
100
AcDbLine
 62
7
  6
CONTINUOUS
 10
178.5886644779
 20
57.8574609171
 11
204.4566082142
 21
57.8574609171
  0
LINE
  5
243
100
AcDbEntity
  8
0
100
AcDbLine
 62
7
  6
CONTINUOUS
 10
202.9566082142
 20
159.8574609171
 11
202.9566082142
 21
108.8574609171
  0
LINE
  5
244
100
AcDbEntity
  8
0
100
AcDbLine
 62
7
  6
CONTINUOUS
 10
202.9566082142
 20
57.8574609171
 11
202.9566082142
 21
108.8574609171
  0
INSERT
  5
245
100
AcDbEntity
  8
0
100
AcDbBlockReference
 62
7
  6
CONTINUOUS
  2
_FILLED
 10
202.9566082142
 20
159.8574609171
 41
3.0
 42
3.0
 43
3.0
 50
90.0
  0
INSERT
  5
246
100
AcDbEntity
  8
0
100
AcDbBlockReference
 62
7
  6
CONTINUOUS
  2
_FILLED
 10
202.9566082142
 20
57.8574609171
 41
3.0
 42
3.0
 43
3.0
 50
270.0
  0
ENDBLK
  5
247
100
AcDbEntity
  8
0
  6
BYBLOCK
 62
0
100
AcDbBlockEnd
  0
ENDSEC
  0
SECTION
  2
ENTITIES
  0
DIMENSION
  5
248
100
AcDbEntity
  8
0
100
AcDbDimension
 62
7
  6
CONTINUOUS
  2
*D0
 10
169.0886644779
 20
178.1574424487
 11
140.4458073351
 21
178.1574424487
 70
160
 71
2
 72
2
 41
0.9
 42
53.0
  3
DIMSTYLE_1
100
AcDbAlignedDimension
 13
116.0886644779
 23
143.3574609171
 14
169.0886644779
 24
143.3574609171
100
AcDbRotatedDimension
  0
DIMENSION
  5
249
100
AcDbEntity
  8
0
100
AcDbDimension
 62
7
  6
CONTINUOUS
  2
*D1
 10
194.9566082142
 20
74.3574609171
 11
194.9566082142
 21
106.50031806
 70
160
 71
2
 72
2
 41
0.9
 42
69.0
  3
DIMSTYLE_1
100
AcDbAlignedDimension
 13
169.0886644779
 23
143.3574609171
 14
169.0886644779
 24
74.3574609171
 50
270.0
100
AcDbRotatedDimension
  0
DIMENSION
  5
24A
100
AcDbEntity
  8
0
100
AcDbDimension
 62
7
  6
CONTINUOUS
  2
*D2
 10
184.0886644779
 20
186.1574424487
 11
140.3386644779
 21
186.1574424487
 70
160
 71
2
 72
2
 41
0.9
 42
83.0
  3
DIMSTYLE_1
100
AcDbAlignedDimension
 13
101.0886644779
 23
153.8574609171
 14
184.0886644779
 24
153.8574609171
100
AcDbRotatedDimension
  0
DIMENSION
  5
24B
100
AcDbEntity
  8
0
100
AcDbDimension
 62
7
  6
CONTINUOUS
  2
*D3
 10
202.9566082142
 20
57.8574609171
 11
202.9566082142
 21
105.6431752028
 70
160
 71
2
 72
2
 41
0.9
 42
102.0
  3
DIMSTYLE_1
100
AcDbAlignedDimension
 13
178.0886644779
 23
159.8574609171
 14
178.0886644779
 24
57.8574609171
 50
270.0
100
AcDbRotatedDimension
  0
LWPOLYLINE
  5
24C
100
AcDbEntity
  8
0
100
AcDbPolyline
 62
7
  6
CONTINUOUS
 90
5
 70
0
 43
0.3500000006
 10
143.5529487305
 20
188.6217240601
 10
143.9100955811
 20
188.8360085449
 10
143.9100955811
 20
189.4788619995
 10
143.5529487305
 20
189.9074490967
 10
142.695810791
 20
189.9074490967
  0
LINE
  5
24D
100
AcDbEntity
  8
DRAFT
100
AcDbLine
 62
7
  6
CONTINUOUS
 10
103.0886644779
 20
152.3574609171
 11
102.8128744521
 21
152.0816708912
  0
LINE
  5
24E
100
AcDbEntity
  8
DRAFT
100
AcDbLine
 62
7
  6
CONTINUOUS
 10
108.5886644779
 20
157.8574609171
 11
108.8644544504
 21
158.1332508896
  0
LWPOLYLINE
  5
24F
100
AcDbEntity
  8
0
100
AcDbPolyline
 62
250
  6
CONTINUOUS
 90
8
 70
0
 10
112.4692685419
 20
159.3073826655
 10
112.4712726816
 20
159.3086930872
 10
112.4788818834
 20
159.3099921948
 10
112.4920961472
 20
159.3112799885
 10
112.5109806297
 20
159.3125653013
 10
112.5354701743
 20
159.3138393
 10
112.5653693109
 20
159.3150754859
 10
112.6008480687
 20
159.3162732825
  0
LWPOLYLINE
  5
250
100
AcDbEntity
  8
0
100
AcDbPolyline
 62
7
  6
CONTINUOUS
 90
5
 70
0
 43
0.3500000006
 10
143.445806488
 20
180.6217216187
 10
143.8029533386
 20
180.8360061035
 10
143.8029533386
 20
181.4788776855
 10
143.445806488
 20
181.9074466553
 10
142.5886685486
 20
181.9074466553
  0
LINE
  5
251
100
AcDbEntity
  8
RACCORDO
100
AcDbLine
 62
7
  6
CONTINUOUS
 10
107.0886644779
 20
42.9937627516
 11
178.0886644779
 21
42.9937627516
  0
LINE
  5
252
100
AcDbEntity
  8
RACCORDO
100
AcDbLine
 62
250
  6
CONTINUOUS
 10
107.0886644779
 20
43.9937627516
 11
178.0886644779
 21
43.9937627516
  0
LWPOLYLINE
  5
253
100
AcDbEntity
  8
RACCORDO
100
AcDbPolyline
 62
250
  6
CONTINUOUS
 90
22
 70
0
 10
126.8800131095
 20
45.0488857011
 10
126.8426609826
 20
45.0502944247
 10
126.8055176629
 20
45.0544899665
 10
126.7687907906
 20
45.0614488725
 10
126.7326856774
 20
45.0711322406
 10
126.6974041596
 20
45.0834859387
 10
126.6631434694
 20
45.0984409065
 10
126.6300951321
 20
45.1159135422
 10
126.5984438958
 20
45.1358061696
 10
126.5683666984
 20
45.1580075842
 10
126.5400316786
 20
45.1823936749
 10
126.5135972359
 20
45.2088281175
 10
126.4892111453
 20
45.2371631373
 10
126.4670097306
 20
45.2672403347
 10
126.4471171031
 20
45.298891571
 10
126.4296444674
 20
45.3319399083
 10
126.4146894996
 20
45.3662005986
 10
126.4023358015
 20
45.4014821164
 10
126.3926524334
 20
45.4375872295
 10
126.3856935274
 20
45.474314102
 10
126.3814979855
 20
45.5114574217
 10
126.3800892619
 20
45.5488095487
  0
LWPOLYLINE
  5
254
100
AcDbEntity
  8
0
100
AcDbPolyline
 62
7
  6
CONTINUOUS
 90
5
 70
0
 10
119.1790380023
 20
159.1075874072
 10
119.1654616899
 20
159.0953434756
 10
119.0968026996
 20
159.0235950256
 10
119.0375659276
 20
158.9438913091
 10
118.9886644779
 20
158.8574609171
  0
LINE
  5
255
100
AcDbEntity
  8
RACCORDO
100
AcDbLine
 62
7
  6
CONTINUOUS
 10
158.376015955
 20
44.9701855925
 11
126.8013130009
 21
44.9701855925
  0
LINE
  5
256
100
AcDbEntity
  8
RACCORDO
100
AcDbLine
 62
250
  6
CONTINUOUS
 10
158.2973158464
 20
45.0488857011
 11
126.8800131095
 21
45.0488857011
  0
LINE
  5
257
100
AcDbEntity
  8
RACCORDO
100
AcDbLine
 62
250
  6
CONTINUOUS
 10
126.3800892619
 20
45.5488095487
 11
158.797239694
 21
45.5488095487
  0
LINE
  5
258
100
AcDbEntity
  8
RACCORDO
100
AcDbLine
 62
250
  6
CONTINUOUS
 10
102.2249663124
 20
48.8574609171
 11
101.2249663124
 21
48.8574609171
  0
LINE
  5
259
100
AcDbEntity
  8
RACCORDO
100
AcDbLine
 62
250
  6
CONTINUOUS
 10
182.9523626435
 20
48.8574609171
 11
183.9523626435
 21
48.8574609171
  0
LINE
  5
25A
100
AcDbEntity
  8
RACCORDO
100
AcDbLine
 62
7
  6
CONTINUOUS
 10
115.40312734
 20
56.2374995136
 11
115.5761573616
 21
56.1077500654
  0
LINE
  5
25B
100
AcDbEntity
  8
DRAFT
100
AcDbLine
 62
7
  6
CONTINUOUS
 10
103.0886644779
 20
65.3574609171
 11
102.8128744521
 21
65.633250943
  0
LINE
  5
25C
100
AcDbEntity
  8
DRAFT
100
AcDbLine
 62
7
  6
CONTINUOUS
 10
108.5886644779
 20
59.8574609171
 11
108.8644544504
 21
59.5816709446
  0
LINE
  5
25D
100
AcDbEntity
  8
DRAFT
100
AcDbLine
 62
7
  6
CONTINUOUS
 10
119.2795835347
 20
50.5372140293
 11
119.2292309302
 21
50.5367065916
  0
LINE
  5
25E
100
AcDbEntity
  8
DRAFT
100
AcDbLine
 62
7
  6
CONTINUOUS
 10
168.097082428
 20
50.099042967
 11
164.0802465278
 21
50.099042967
  0
LINE
  5
25F
100
AcDbEntity
  8
DRAFT
100
AcDbLine
 62
7
  6
CONTINUOUS
 10
117.0802465278
 20
50.099042967
 11
121.097082428
 21
50.099042967
  0
LINE
  5
260
100
AcDbEntity
  8
DRAFT
100
AcDbLine
 62
7
  6
CONTINUOUS
 10
168.0272408891
 20
50.168884506
 11
164.1500880668
 21
50.168884506
  0
LINE
  5
261
100
AcDbEntity
  8
DRAFT
100
AcDbLine
 62
7
  6
CONTINUOUS
 10
117.1500880668
 20
50.168884506
 11
121.0272408891
 21
50.168884506
  0
LINE
  5
262
100
AcDbEntity
  8
RACCORDO
100
AcDbLine
 62
250
  6
CONTINUOUS
 10
165.2604841189
 20
50.2504810178
 11
164.1500880668
 21
50.2504810178
  0
LINE
  5
263
100
AcDbEntity
  8
RACCORDO
100
AcDbLine
 62
250
  6
CONTINUOUS
 10
121.0272408891
 20
50.2504810178
 11
119.916844837
 21
50.2504810178
  0
LINE
  5
264
100
AcDbEntity
  8
DRAFT
100
AcDbLine
 62
7
  6
CONTINUOUS
 10
165.0717581373
 20
51.0574609171
 11
164.1500880668
 21
51.0574609171
  0
LINE
  5
265
100
AcDbEntity
  8
DRAFT
100
AcDbLine
 62
7
  6
CONTINUOUS
 10
121.0272408891
 20
51.0574609171
 11
120.1055708186
 21
51.0574609171
  0
LINE
  5
266
100
AcDbEntity
  8
DRAFT
100
AcDbLine
 62
7
  6
CONTINUOUS
 10
120.1055708858
 20
53.5574609171
 11
121.0272408891
 21
53.5574609171
  0
LINE
  5
267
100
AcDbEntity
  8
DRAFT
100
AcDbLine
 62
7
  6
CONTINUOUS
 10
164.1500880668
 20
53.5574609171
 11
165.0717580701
 21
53.5574609171
  0
LINE
  5
268
100
AcDbEntity
  8
DRAFT
100
AcDbLine
 62
7
  6
CONTINUOUS
 10
169.86104648
 20
53.6850789151
 11
168.097082428
 21
53.6850789151
  0
LINE
  5
269
100
AcDbEntity
  8
DRAFT
100
AcDbLine
 62
7
  6
CONTINUOUS
 10
164.0802465278
 20
53.6850789151
 11
162.3162824759
 21
53.6850789151
  0
LINE
  5
26A
100
AcDbEntity
  8
DRAFT
100
AcDbLine
 62
7
  6
CONTINUOUS
 10
122.86104648
 20
53.6850789151
 11
121.097082428
 21
53.6850789151
  0
LINE
  5
26B
100
AcDbEntity
  8
DRAFT
100
AcDbLine
 62
7
  6
CONTINUOUS
 10
117.0802465278
 20
53.6850789151
 11
115.3162824759
 21
53.6850789151
  0
LINE
  5
26C
100
AcDbEntity
  8
RACCORDO
100
AcDbLine
 62
7
  6
CONTINUOUS
 10
169.791204941
 20
53.754920454
 11
168.0272408891
 21
53.754920454
  0
LINE
  5
26D
100
AcDbEntity
  8
RACCORDO
100
AcDbLine
 62
7
  6
CONTINUOUS
 10
164.1500880668
 20
53.754920454
 11
162.3861240149
 21
53.754920454
  0
LINE
  5
26E
100
AcDbEntity
  8
RACCORDO
100
AcDbLine
 62
7
  6
CONTINUOUS
 10
122.791204941
 20
53.754920454
 11
121.0272408891
 21
53.754920454
  0
LINE
  5
26F
100
AcDbEntity
  8
RACCORDO
100
AcDbLine
 62
7
  6
CONTINUOUS
 10
117.1500880668
 20
53.754920454
 11
115.3861240149
 21
53.754920454
  0
LINE
  5
270
100
AcDbEntity
  8
RACCORDO
100
AcDbLine
 62
250
  6
CONTINUOUS
 10
126.3800892619
 20
53.8661122855
 11
158.797239694
 21
53.8661122855
  0
LINE
  5
271
100
AcDbEntity
  8
DRAFT
100
AcDbLine
 62
7
  6
CONTINUOUS
 10
122.6076039575
 20
54.0023483539
 11
120.8296673419
 21
54.0023483539
  0
LINE
  5
272
100
AcDbEntity
  8
DRAFT
100
AcDbLine
 62
7
  6
CONTINUOUS
 10
117.347661614
 20
54.0023483539
 11
115.5697249984
 21
54.0023483539
  0
LINE
  5
273
100
AcDbEntity
  8
DRAFT
100
AcDbLine
 62
7
  6
CONTINUOUS
 10
162.5697249984
 20
54.0023483539
 11
164.347661614
 21
54.0023483539
  0
LINE
  5
274
100
AcDbEntity
  8
DRAFT
100
AcDbLine
 62
7
  6
CONTINUOUS
 10
167.8296673419
 20
54.0023483539
 11
169.6076039575
 21
54.0023483539
  0
LINE
  5
275
100
AcDbEntity
  8
RACCORDO
100
AcDbLine
 62
250
  6
CONTINUOUS
 10
126.8800131095
 20
54.3660361331
 11
158.2973158464
 21
54.3660361331
  0
LINE
  5
276
100
AcDbEntity
  8
RACCORDO
100
AcDbLine
 62
7
  6
CONTINUOUS
 10
126.8013130009
 20
54.4447362417
 11
158.376015955
 21
54.4447362417
  0
LINE
  5
277
100
AcDbEntity
  8
DRAFT
100
AcDbLine
 62
7
  6
CONTINUOUS
 10
165.8977454211
 20
50.5372140293
 11
165.9480980257
 21
50.5367065916
  0
LWPOLYLINE
  5
278
100
AcDbEntity
  8
RACCORDO
100
AcDbPolyline
 62
7
  6
CONTINUOUS
 90
22
 70
0
 10
126.8800131095
 20
55.8488857011
 10
126.8350300243
 20
55.851792058
 10
126.7915627537
 20
55.8586299416
 10
126.7499211694
 20
55.8690367971
 10
126.7104508389
 20
55.8826057612
 10
126.6732480984
 20
55.8989763516
 10
126.6381945876
 20
55.9179156205
 10
126.6053910857
 20
55.9391350646
 10
126.5749672575
 20
55.9623148075
 10
126.5468462616
 20
55.9872811501
 10
126.5210674328
 20
56.0137946147
 10
126.4976869758
 20
56.0415849661
 10
126.4766566518
 20
56.0704911921
 10
126.4579613159
 20
56.1003249108
 10
126.4416139929
 20
56.1308410192
 10
126.4275936392
 20
56.1618191725
 10
126.4158697013
 20
56.1930088959
 10
126.4063537205
 20
56.2242821352
 10
126.3989428436
 20
56.2556277528
 10
126.3935750481
 20
56.2869488391
 10
126.390197825
 20
56.3180530298
 10
126.3887380069
 20
56.3488095487
  0
LINE
  5
279
100
AcDbEntity
  8
RACCORDO
100
AcDbLine
 62
7
  6
CONTINUOUS
 10
122.7742016158
 20
53.8774223206
 11
122.6076039575
 21
54.0023483539
  0
LINE
  5
27A
100
AcDbEntity
  8
DRAFT
100
AcDbLine
 62
7
  6
CONTINUOUS
 10
121.0272408891
 20
50.168884506
 11
121.097082428
 21
50.099042967
  0
LINE
  5
27B
100
AcDbEntity
  8
DRAFT
100
AcDbLine
 62
7
  6
CONTINUOUS
 10
121.097082428
 20
53.6850789151
 11
121.0272408891
 21
53.754920454
  0
LINE
  5
27C
100
AcDbEntity
  8
RACCORDO
100
AcDbLine
 62
7
  6
CONTINUOUS
 10
122.791204941
 20
53.754920454
 11
122.86104648
 21
53.6850789151
  0
LWPOLYLINE
  5
27D
100
AcDbEntity
  8
0
100
AcDbPolyline
 62
250
  6
CONTINUOUS
 90
8
 70
0
 10
101.6387427295
 20
70.7380649811
 10
101.6374321905
 20
70.7400686438
 10
101.6361329344
 20
70.7476796477
 10
101.6348449612
 20
70.7608979928
 10
101.6335594145
 20
70.7797891445
 10
101.6322851507
 20
70.8042876375
 10
101.6310487391
 20
70.8341970754
 10
101.6298507663
 20
70.8696884362
  0
LINE
  5
27E
100
AcDbEntity
  8
RACCORDO
100
AcDbLine
 62
250
  6
CONTINUOUS
 10
102.1258061313
 20
59.2674432208
 11
102.2249663124
 21
58.9675929744
  0
LWPOLYLINE
  5
27F
100
AcDbEntity
  8
0
100
AcDbPolyline
 62
250
  6
CONTINUOUS
 90
7
 70
0
 10
165.4692685421
 20
58.4075392015
 10
165.5683974478
 20
58.4136893611
 10
165.6659983342
 20
58.432074423
 10
165.7605667343
 20
58.4624109913
 10
165.8506449257
 20
58.5042314438
 10
165.9348444
 20
58.5568911401
 10
165.9975392849
 20
58.6066727838
  0
LWPOLYLINE
  5
280
100
AcDbEntity
  8
0
100
AcDbPolyline
 62
7
  6
CONTINUOUS
 90
16
 70
0
 10
165.5120560192
 20
58.4844328442
 10
165.5623232523
 20
58.486963943
 10
165.612224789
 20
58.4925562686
 10
165.6617606294
 20
58.5012264005
 10
165.7110715241
 20
58.5129671043
 10
165.7600167224
 20
58.5277852003
 10
165.8081739726
 20
58.5457353693
 10
165.8555304377
 20
58.5668011427
 10
165.9020989545
 20
58.5910013189
 10
165.947495782
 20
58.6185187164
 10
165.9918092768
 20
58.6493902601
 10
166.0349510821
 20
58.6836353571
 10
166.0762723861
 20
58.7215052322
 10
166.1155569181
 20
58.763129111
 10
166.1530209487
 20
58.8084495547
 10
166.1886644779
 20
58.8574609171
  0
LWPOLYLINE
  5
281
100
AcDbEntity
  8
RACCORDO
100
AcDbPolyline
 62
250
  6
CONTINUOUS
 90
19
 70
0
 10
158.493855299
 20
55.8523157875
 10
158.5200678747
 20
55.8534713061
 10
158.546083887
 20
55.8569137609
 10
158.5717040761
 20
55.8626178583
 10
158.5967374736
 20
55.8705429431
 10
158.620986281
 20
55.8806283036
 10
158.6442492827
 20
55.8927889517
 10
158.6663383095
 20
55.9069205109
 10
158.6870993622
 20
55.9229181391
 10
158.7063940554
 20
55.9406750384
 10
158.7240887924
 20
55.9600770413
 10
158.7400265683
 20
55.9809615913
 10
158.7540580778
 20
56.0031276782
 10
158.7660844985
 20
56.0264012089
 10
158.7760223483
 20
56.0505997094
 10
158.7837918616
 20
56.0754858846
 10
158.7893533627
 20
56.1008480664
 10
158.7926933527
 20
56.12650743
 10
158.7938096076
 20
56.152270096
  0
LINE
  5
282
100
AcDbEntity
  8
0
100
AcDbLine
 62
250
  6
CONTINUOUS
 10
172.5764369588
 20
58.3986472054
 11
172.4899307327
 21
58.3963896262
  0
LINE
  5
283
100
AcDbEntity
  8
0
100
AcDbLine
 62
250
  6
CONTINUOUS
 10
172.4899307327
 20
58.3963896262
 11
172.3843761845
 21
58.3943866606
  0
LINE
  5
284
100
AcDbEntity
  8
0
100
AcDbLine
 62
250
  6
CONTINUOUS
 10
172.3843761845
 20
58.3943866606
 11
172.1969838871
 21
58.3919695316
  0
LINE
  5
285
100
AcDbEntity
  8
0
100
AcDbLine
 62
7
  6
CONTINUOUS
 10
148.3394404725
 20
58.0676729075
 11
146.9895239501
 21
58.0560472529
  0
LINE
  5
286
100
AcDbEntity
  8
0
100
AcDbLine
 62
7
  6
CONTINUOUS
 10
136.8378884834
 20
58.4152717836
 11
138.1878050057
 21
58.4268974382
  0
LINE
  5
287
100
AcDbEntity
  8
0
100
AcDbLine
 62
250
  6
CONTINUOUS
 10
172.1969838871
 20
58.3919695316
 11
171.9852569317
 21
58.3903697425
  0
LINE
  5
288
100
AcDbEntity
  8
0
100
AcDbLine
 62
7
  6
CONTINUOUS
 10
146.9895239501
 20
58.0560472529
 11
145.5639604163
 21
58.0476088971
  0
LINE
  5
289
100
AcDbEntity
  8
0
100
AcDbLine
 62
7
  6
CONTINUOUS
 10
138.1878050057
 20
58.4268974382
 11
139.6133685395
 21
58.435335794
  0
LINE
  5
28A
100
AcDbEntity
  8
0
100
AcDbLine
 62
7
  6
CONTINUOUS
 10
145.5639604163
 20
58.0476088971
 11
144.0939367172
 21
58.0425001141
  0
LINE
  5
28B
100
AcDbEntity
  8
0
100
AcDbLine
 62
7
  6
CONTINUOUS
 10
139.6133685395
 20
58.435335794
 11
141.0833922387
 21
58.4404445769
  0
LINE
  5
28C
100
AcDbEntity
  8
0
100
AcDbLine
 62
7
  6
CONTINUOUS
 10
144.0939367172
 20
58.0425001141
 11
142.5886644779
 21
58.0407696715
  0
LINE
  5
28D
100
AcDbEntity
  8
0
100
AcDbLine
 62
250
  6
CONTINUOUS
 10
171.9852569317
 20
58.3903697425
 11
171.6886644779
 21
58.3895979769
  0
LINE
  5
28E
100
AcDbEntity
  8
0
100
AcDbLine
 62
7
  6
CONTINUOUS
 10
141.0833922387
 20
58.4404445769
 11
142.5886644779
 21
58.4421750195
  0
LINE
  5
28F
100
AcDbEntity
  8
RACCORDO
100
AcDbLine
 62
7
  6
CONTINUOUS
 10
158.6283506888
 20
55.7178203977
 11
155.9489782671
 21
55.7178203977
  0
LINE
  5
290
100
AcDbEntity
  8
RACCORDO
100
AcDbLine
 62
7
  6
CONTINUOUS
 10
129.0283811498
 20
55.7178203977
 11
126.7489478061
 21
55.7178203977
  0
LINE
  5
291
100
AcDbEntity
  8
RACCORDO
100
AcDbLine
 62
250
  6
CONTINUOUS
 10
128.8973158464
 20
55.8488857011
 11
126.8800131095
 21
55.8488857011
  0
LINE
  5
292
100
AcDbEntity
  8
RACCORDO
100
AcDbLine
 62
250
  6
CONTINUOUS
 10
158.493855299
 20
55.8523157875
 11
156.0834736569
 21
55.8523157875
  0
LINE
  5
293
100
AcDbEntity
  8
DRAFT
100
AcDbLine
 62
7
  6
CONTINUOUS
 10
169.6011715943
 20
56.1077500654
 11
162.5761573616
 21
56.1077500654
  0
LINE
  5
294
100
AcDbEntity
  8
DRAFT
100
AcDbLine
 62
7
  6
CONTINUOUS
 10
122.6011715943
 20
56.1077500654
 11
115.5761573616
 21
56.1077500654
  0
LINE
  5
295
100
AcDbEntity
  8
RACCORDO
100
AcDbLine
 62
250
  6
CONTINUOUS
 10
158.7938096076
 20
56.152270096
 11
155.7835193483
 21
56.152270096
  0
LINE
  5
296
100
AcDbEntity
  8
RACCORDO
100
AcDbLine
 62
250
  6
CONTINUOUS
 10
129.388590949
 20
56.3488095487
 11
126.3887380069
 21
56.3488095487
  0
LINE
  5
297
100
AcDbEntity
  8
RACCORDO
100
AcDbLine
 62
250
  6
CONTINUOUS
 10
107.0886644779
 20
56.9161497065
 11
115.3162824759
 21
56.9161497065
  0
LINE
  5
298
100
AcDbEntity
  8
RACCORDO
100
AcDbLine
 62
250
  6
CONTINUOUS
 10
122.86104648
 20
56.9161497065
 11
126.2490239585
 21
56.9161497065
  0
LINE
  5
299
100
AcDbEntity
  8
RACCORDO
100
AcDbLine
 62
250
  6
CONTINUOUS
 10
129.5283049974
 20
56.9161497065
 11
155.6490239585
 21
56.9161497065
  0
LINE
  5
29A
100
AcDbEntity
  8
RACCORDO
100
AcDbLine
 62
250
  6
CONTINUOUS
 10
158.9283049974
 20
56.9161497065
 11
162.3162824759
 21
56.9161497065
  0
LINE
  5
29B
100
AcDbEntity
  8
RACCORDO
100
AcDbLine
 62
250
  6
CONTINUOUS
 10
169.86104648
 20
56.9161497065
 11
178.0886644779
 21
56.9161497065
  0
LINE
  5
29C
100
AcDbEntity
  8
RACCORDO
100
AcDbLine
 62
7
  6
CONTINUOUS
 10
158.493855299
 20
57.7876459748
 11
156.0834736569
 21
57.7876459748
  0
LINE
  5
29D
100
AcDbEntity
  8
DRAFT
100
AcDbLine
 62
7
  6
CONTINUOUS
 10
129.3886644779
 20
57.7876459748
 11
126.3886644779
 21
57.7876459748
  0
LINE
  5
29E
100
AcDbEntity
  8
ASSI
100
AcDbLine
 62
7
  6
CONTINUOUS
 10
178.0886644779
 20
57.8574609171
 11
107.0886644779
 21
57.8574609171
  0
LINE
  5
29F
100
AcDbEntity
  8
DRAFT
100
AcDbLine
 62
7
  6
CONTINUOUS
 10
107.0886644779
 20
57.8574609171
 11
178.0886644779
 21
57.8574609171
  0
LINE
  5
2A0
100
AcDbEntity
  8
0
100
AcDbLine
 62
250
  6
CONTINUOUS
 10
107.0886644779
 20
58.4844328442
 11
165.5120623364
 21
58.4844328442
  0
LINE
  5
2A1
100
AcDbEntity
  8
0
100
AcDbLine
 62
250
  6
CONTINUOUS
 10
172.665266615
 20
58.4844328442
 11
178.0886644779
 21
58.4844328442
  0
LINE
  5
2A2
100
AcDbEntity
  8
0
100
AcDbLine
 62
7
  6
CONTINUOUS
 10
166.1886644779
 20
58.8574609171
 11
171.9886644779
 21
58.8574609171
  0
LINE
  5
2A3
100
AcDbEntity
  8
RACCORDO
100
AcDbLine
 62
250
  6
CONTINUOUS
 10
182.9523626435
 20
58.9675929744
 11
183.9523626435
 21
58.9675930177
  0
LINE
  5
2A4
100
AcDbEntity
  8
RACCORDO
100
AcDbLine
 62
250
  6
CONTINUOUS
 10
102.2249663124
 20
58.9675929744
 11
101.2249663124
 21
58.9675929744
  0
LINE
  5
2A5
100
AcDbEntity
  8
RACCORDO
100
AcDbLine
 62
7
  6
CONTINUOUS
 10
108.8644544504
 20
59.5816709446
 11
107.0886644779
 21
59.5816709446
  0
LINE
  5
2A6
100
AcDbEntity
  8
RACCORDO
100
AcDbLine
 62
7
  6
CONTINUOUS
 10
176.3128745055
 20
59.5816709446
 11
178.0886644779
 21
59.5816709446
  0
LINE
  5
2A7
100
AcDbEntity
  8
RACCORDO
100
AcDbLine
 62
250
  6
CONTINUOUS
 10
108.8644545038
 20
59.5842653089
 11
176.3128744521
 21
59.5842653089
  0
LINE
  5
2A8
100
AcDbEntity
  8
DRAFT
100
AcDbLine
 62
7
  6
CONTINUOUS
 10
108.5886644779
 20
59.8574609171
 11
107.0886644779
 21
59.8574609171
  0
LINE
  5
2A9
100
AcDbEntity
  8
DRAFT
100
AcDbLine
 62
7
  6
CONTINUOUS
 10
176.5886644779
 20
59.8574609171
 11
178.0886644779
 21
59.8574609171
  0
LINE
  5
2AA
100
AcDbEntity
  8
0
100
AcDbLine
 62
7
  6
CONTINUOUS
 10
142.5886644779
 20
58.0407696715
 11
141.0833922387
 21
58.0425001141
  0
LINE
  5
2AB
100
AcDbEntity
  8
0
100
AcDbLine
 62
7
  6
CONTINUOUS
 10
142.5886644779
 20
58.4421750195
 11
144.0939367172
 21
58.4404445769
  0
LINE
  5
2AC
100
AcDbEntity
  8
0
100
AcDbLine
 62
250
  6
CONTINUOUS
 10
171.6886644779
 20
58.3895979769
 11
166.2655638763
 21
58.3900293081
  0
LINE
  5
2AD
100
AcDbEntity
  8
0
100
AcDbLine
 62
7
  6
CONTINUOUS
 10
141.0833922387
 20
58.0425001141
 11
139.6133685395
 21
58.0476088971
  0
LINE
  5
2AE
100
AcDbEntity
  8
0
100
AcDbLine
 62
7
  6
CONTINUOUS
 10
144.0939367172
 20
58.4404445769
 11
145.5639604163
 21
58.435335794
  0
LINE
  5
2AF
100
AcDbEntity
  8
0
100
AcDbLine
 62
7
  6
CONTINUOUS
 10
139.6133685395
 20
58.0476088971
 11
138.1878050057
 21
58.0560472529
  0
LINE
  5
2B0
100
AcDbEntity
  8
0
100
AcDbLine
 62
7
  6
CONTINUOUS
 10
145.5639604163
 20
58.435335794
 11
146.9895239501
 21
58.4268974382
  0
LINE
  5
2B1
100
AcDbEntity
  8
0
100
AcDbLine
 62
250
  6
CONTINUOUS
 10
166.2655638763
 20
58.3900293081
 11
166.0486909108
 21
58.3913401318
  0
LWPOLYLINE
  5
2B2
100
AcDbEntity
  8
0
100
AcDbPolyline
 62
7
  6
CONTINUOUS
 90
18
 70
0
 10
138.1878050057
 20
58.0560472529
 10
136.8378884834
 20
58.0676729075
 10
136.1996067982
 20
58.074594171
 10
135.5889554542
 20
58.0822371216
 10
135.0055849884
 20
58.0905926317
 10
134.4569364943
 20
58.0995541237
 10
133.943454754
 20
58.1091293602
 10
133.4646949855
 20
58.1193105787
 10
133.0267639365
 20
58.1299679141
 10
132.6301846152
 20
58.1411074655
 10
132.2744340134
 20
58.1527231339
 10
131.9640498541
 20
58.1646667573
 10
131.6996132727
 20
58.1769425369
 10
131.4805431338
 20
58.1895462715
 10
131.3096337533
 20
58.2023171962
 10
131.1875020615
 20
58.2152574526
 10
131.113531128
 20
58.2283648991
 10
131.0886650272
 20
58.2414111956
  0
LWPOLYLINE
  5
2B3
100
AcDbEntity
  8
0
100
AcDbPolyline
 62
7
  6
CONTINUOUS
 90
18
 70
0
 10
146.9895239501
 20
58.4268974382
 10
148.3394404725
 20
58.4152717836
 10
148.9777221577
 20
58.4083505201
 10
149.5883735017
 20
58.4007075694
 10
150.1717439675
 20
58.3923520594
 10
150.7203924616
 20
58.3833905673
 10
151.2338742019
 20
58.3738153308
 10
151.7126339704
 20
58.3636341123
 10
152.1505650194
 20
58.3529767769
 10
152.5471443407
 20
58.3418372255
 10
152.9028949425
 20
58.3302215571
 10
153.2132791018
 20
58.3182779337
 10
153.4777156831
 20
58.3060021541
 10
153.696785822
 20
58.2933984195
 10
153.8676952026
 20
58.2806274948
 10
153.9898268944
 20
58.2676872384
 10
154.0637978279
 20
58.254579792
 10
154.0886639287
 20
58.2414111956
  0
LINE
  5
2B4
100
AcDbEntity
  8
0
100
AcDbLine
 62
250
  6
CONTINUOUS
 10
166.0486909108
 20
58.3913401318
 11
165.8517146783
 21
58.3934979728
  0
LINE
  5
2B5
100
AcDbEntity
  8
0
100
AcDbLine
 62
250
  6
CONTINUOUS
 10
165.8517146783
 20
58.3934979728
 11
165.7378285333
 21
58.3953567387
  0
LWPOLYLINE
  5
2B6
100
AcDbEntity
  8
0
100
AcDbPolyline
 62
250
  6
CONTINUOUS
 90
10
 70
0
 10
165.7378285333
 20
58.3953567387
 10
165.6417970267
 20
58.397487016
 10
165.600893974
 20
58.3986471472
 10
165.5654019755
 20
58.3998451294
 10
165.5354920932
 20
58.4010815457
 10
165.5109932649
 20
58.402355813
 10
165.4921018588
 20
58.4036413655
 10
165.478883331
 20
58.404929348
 10
165.4712722254
 20
58.4062286157
 10
165.4692685419
 20
58.4075391686
  0
LWPOLYLINE
  5
2B7
100
AcDbEntity
  8
RACCORDO
100
AcDbPolyline
 62
250
  6
CONTINUOUS
 90
22
 70
0
 10
158.2973158464
 20
54.3660361331
 10
158.3346679733
 20
54.3646274095
 10
158.3718112929
 20
54.3604318677
 10
158.4085381653
 20
54.3534729617
 10
158.4446432785
 20
54.3437895936
 10
158.4799247963
 20
54.3314358955
 10
158.5141854865
 20
54.3164809277
 10
158.5472338238
 20
54.299008292
 10
158.5788850601
 20
54.2791156646
 10
158.6089622575
 20
54.25691425
 10
158.6372972773
 20
54.2325281593
 10
158.6637317199
 20
54.2060937167
 10
158.6881178106
 20
54.1777586969
 10
158.7103192253
 20
54.1476814995
 10
158.7302118527
 20
54.1160302632
 10
158.7476844885
 20
54.0829819259
 10
158.7626394563
 20
54.0487212356
 10
158.7749931543
 20
54.0134397178
 10
158.7846765225
 20
53.9773346047
 10
158.7916354285
 20
53.9406077322
 10
158.7958309703
 20
53.9034644125
 10
158.797239694
 20
53.8661122855
  0
LINE
  5
2B8
100
AcDbEntity
  8
RACCORDO
100
AcDbLine
 62
7
  6
CONTINUOUS
 10
126.3886644779
 20
57.7876459748
 11
126.2490239585
 21
57.8574609171
  0
LINE
  5
2B9
100
AcDbEntity
  8
RACCORDO
100
AcDbLine
 62
250
  6
CONTINUOUS
 10
126.3800892619
 20
53.8661122855
 11
126.3013891533
 21
53.9448123942
  0
LINE
  5
2BA
100
AcDbEntity
  8
RACCORDO
100
AcDbLine
 62
250
  6
CONTINUOUS
 10
126.8800131095
 20
54.3660361331
 11
126.8013130009
 21
54.4447362417
  0
LWPOLYLINE
  5
2BB
100
AcDbEntity
  8
0
100
AcDbPolyline
 62
7
  6
CONTINUOUS
 90
5
 70
0
 10
101.8378763447
 20
77.4485861101
 10
101.8507819195
 20
77.4342581291
 10
101.9225303694
 20
77.3655991388
 10
102.002234086
 20
77.3063623667
 10
102.0886644779
 20
77.2574609171
  0
LWPOLYLINE
  5
2BC
100
AcDbEntity
  8
RACCORDO
100
AcDbPolyline
 62
250
  6
CONTINUOUS
 90
15
 70
0
 10
101.4105807482
 20
61.9205164858
 10
101.4204015823
 20
61.863601406
 10
101.4613652405
 20
61.6470643774
 10
101.5046271953
 20
61.4391055577
 10
101.5499319773
 20
61.2387362265
 10
101.5960530861
 20
61.0466976052
 10
101.6428915952
 20
60.8628292601
 10
101.6895758808
 20
60.6885483185
 10
101.735732436
 20
60.5223368878
 10
101.782444792
 20
60.3597031967
 10
101.829847723
 20
60.2000908029
 10
101.8773934494
 20
60.0439476211
 10
101.9256599875
 20
59.8882343491
 10
101.9752387225
 20
59.7313944168
 10
102.1258061313
 20
59.2674432208
  0
LWPOLYLINE
  5
2BD
100
AcDbEntity
  8
0
100
AcDbPolyline
 62
250
  6
CONTINUOUS
 90
7
 70
0
 10
101.6387427624
 20
77.976856853
 10
101.6448929219
 20
77.8777279472
 10
101.6632779838
 20
77.7801270609
 10
101.6936145522
 20
77.6855586607
 10
101.7354350047
 20
77.5954804693
 10
101.788094701
 20
77.5112809951
 10
101.8378763447
 20
77.4485861101
  0
LWPOLYLINE
  5
2BE
100
AcDbEntity
  8
0
100
AcDbPolyline
 62
7
  6
CONTINUOUS
 90
16
 70
0
 10
101.715636405
 20
77.9340693758
 10
101.7181675061
 20
77.8838021141
 10
101.7237598368
 20
77.8339005545
 10
101.7324299754
 20
77.7843646972
 10
101.7441706865
 20
77.735053792
 10
101.7589887894
 20
77.6861085889
 10
101.7769389646
 20
77.6379513381
 10
101.7980047423
 20
77.5905948768
 10
101.8222049207
 20
77.5440263676
 10
101.8497223188
 20
77.498629549
 10
101.8805938622
 20
77.454316063
 10
101.9148389569
 20
77.4111742675
 10
101.9527088272
 20
77.369852974
 10
101.994332698
 20
77.330568453
 10
102.0396531304
 20
77.293104434
 10
102.0886644779
 20
77.2574609171
  0
LINE
  5
2BF
100
AcDbEntity
  8
0
100
AcDbLine
 62
250
  6
CONTINUOUS
 10
101.6298507663
 20
70.8696884362
 11
101.6275931871
 21
70.9561946623
  0
LINE
  5
2C0
100
AcDbEntity
  8
0
100
AcDbLine
 62
250
  6
CONTINUOUS
 10
101.6275931871
 20
70.9561946623
 11
101.6255902215
 21
71.0617492106
  0
LINE
  5
2C1
100
AcDbEntity
  8
0
100
AcDbLine
 62
250
  6
CONTINUOUS
 10
101.6255902215
 20
71.0617492106
 11
101.6231730925
 21
71.249141508
  0
LINE
  5
2C2
100
AcDbEntity
  8
0
100
AcDbLine
 62
7
  6
CONTINUOUS
 10
101.2988764683
 20
103.1066849225
 11
101.2872508137
 21
104.4566014449
  0
LINE
  5
2C3
100
AcDbEntity
  8
0
100
AcDbLine
 62
7
  6
CONTINUOUS
 10
101.6464753444
 20
114.6082369117
 11
101.658100999
 21
113.2583203893
  0
LINE
  5
2C4
100
AcDbEntity
  8
RACCORDO
100
AcDbLine
 62
7
  6
CONTINUOUS
 10
101.2051686109
 20
62.6849918002
 11
101.2179486553
 21
60.9642047658
  0
LINE
  5
2C5
100
AcDbEntity
  8
0
100
AcDbLine
 62
250
  6
CONTINUOUS
 10
101.6231730925
 20
71.249141508
 11
101.6215733033
 21
71.4608684634
  0
LINE
  5
2C6
100
AcDbEntity
  8
0
100
AcDbLine
 62
7
  6
CONTINUOUS
 10
101.2872508137
 20
104.4566014449
 11
101.2788124579
 21
105.8821649787
  0
LINE
  5
2C7
100
AcDbEntity
  8
0
100
AcDbLine
 62
7
  6
CONTINUOUS
 10
101.658100999
 20
113.2583203893
 11
101.6665393548
 21
111.8327568555
  0
LINE
  5
2C8
100
AcDbEntity
  8
RACCORDO
100
AcDbLine
 62
7
  6
CONTINUOUS
 10
101.2179486553
 20
60.9642047658
 11
101.2220369742
 21
60.2138356323
  0
LINE
  5
2C9
100
AcDbEntity
  8
0
100
AcDbLine
 62
7
  6
CONTINUOUS
 10
101.2788124579
 20
105.8821649787
 11
101.2737036749
 21
107.3521886778
  0
LINE
  5
2CA
100
AcDbEntity
  8
0
100
AcDbLine
 62
7
  6
CONTINUOUS
 10
101.6665393548
 20
111.8327568555
 11
101.6716481378
 21
110.3627331564
  0
LINE
  5
2CB
100
AcDbEntity
  8
RACCORDO
100
AcDbLine
 62
7
  6
CONTINUOUS
 10
101.2220369742
 20
60.2138356323
 11
101.2243645026
 21
59.5138768186
  0
LINE
  5
2CC
100
AcDbEntity
  8
0
100
AcDbLine
 62
7
  6
CONTINUOUS
 10
101.2737036749
 20
107.3521886778
 11
101.2719732323
 21
108.8574609171
  0
LINE
  5
2CD
100
AcDbEntity
  8
0
100
AcDbLine
 62
250
  6
CONTINUOUS
 10
101.6215733033
 20
71.4608684634
 11
101.6208015377
 21
71.7574609171
  0
LINE
  5
2CE
100
AcDbEntity
  8
0
100
AcDbLine
 62
7
  6
CONTINUOUS
 10
101.6716481378
 20
110.3627331564
 11
101.6733785804
 21
108.8574609171
  0
LINE
  5
2CF
100
AcDbEntity
  8
DRAFT
100
AcDbLine
 62
7
  6
CONTINUOUS
 10
101.0886644779
 20
153.8574609171
 11
101.0886644779
 21
63.8574609171
  0
LINE
  5
2D0
100
AcDbEntity
  8
ASSI
100
AcDbLine
 62
7
  6
CONTINUOUS
 10
101.0886644779
 20
63.8574609171
 11
101.0886644779
 21
153.8574609171
  0
LINE
  5
2D1
100
AcDbEntity
  8
RACCORDO
100
AcDbLine
 62
7
  6
CONTINUOUS
 10
101.2243645026
 20
59.5138768186
 11
101.2249663124
 21
48.8574609171
  0
LINE
  5
2D2
100
AcDbEntity
  8
0
100
AcDbLine
 62
250
  6
CONTINUOUS
 10
101.715636405
 20
153.8574609171
 11
101.715636405
 21
77.9340630586
  0
LINE
  5
2D3
100
AcDbEntity
  8
0
100
AcDbLine
 62
250
  6
CONTINUOUS
 10
101.715636405
 20
70.78085878
 11
101.715636405
 21
63.8574609171
  0
LINE
  5
2D4
100
AcDbEntity
  8
0
100
AcDbLine
 62
7
  6
CONTINUOUS
 10
102.0886644779
 20
77.2574609171
 11
102.0886644779
 21
71.4574609171
  0
LINE
  5
2D5
100
AcDbEntity
  8
RACCORDO
100
AcDbLine
 62
250
  6
CONTINUOUS
 10
102.2249663124
 20
58.9675928639
 11
102.2249663124
 21
48.8574609171
  0
LINE
  5
2D6
100
AcDbEntity
  8
0
100
AcDbLine
 62
7
  6
CONTINUOUS
 10
101.2719732323
 20
108.8574609171
 11
101.2737036749
 21
110.3627331564
  0
LINE
  5
2D7
100
AcDbEntity
  8
0
100
AcDbLine
 62
7
  6
CONTINUOUS
 10
101.6733785804
 20
108.8574609171
 11
101.6716481378
 21
107.3521886778
  0
LINE
  5
2D8
100
AcDbEntity
  8
0
100
AcDbLine
 62
250
  6
CONTINUOUS
 10
101.6208015377
 20
71.7574609171
 11
101.621232869
 21
77.1805615187
  0
LINE
  5
2D9
100
AcDbEntity
  8
0
100
AcDbLine
 62
7
  6
CONTINUOUS
 10
101.2737036749
 20
110.3627331564
 11
101.2788124579
 21
111.8327568555
  0
LINE
  5
2DA
100
AcDbEntity
  8
0
100
AcDbLine
 62
7
  6
CONTINUOUS
 10
101.6716481378
 20
107.3521886778
 11
101.6665393548
 21
105.8821649787
  0
LINE
  5
2DB
100
AcDbEntity
  8
0
100
AcDbLine
 62
7
  6
CONTINUOUS
 10
101.2788124579
 20
111.8327568555
 11
101.2872508137
 21
113.2583203893
  0
LINE
  5
2DC
100
AcDbEntity
  8
0
100
AcDbLine
 62
7
  6
CONTINUOUS
 10
101.6665393548
 20
105.8821649787
 11
101.658100999
 21
104.4566014449
  0
LINE
  5
2DD
100
AcDbEntity
  8
0
100
AcDbLine
 62
250
  6
CONTINUOUS
 10
101.621232869
 20
77.1805615187
 11
101.6225436927
 21
77.3974344843
  0
LWPOLYLINE
  5
2DE
100
AcDbEntity
  8
0
100
AcDbPolyline
 62
7
  6
CONTINUOUS
 90
18
 70
0
 10
101.2872508137
 20
113.2583203893
 10
101.2988764683
 20
114.6082369117
 10
101.3057977318
 20
115.2465185968
 10
101.3134406825
 20
115.8571699408
 10
101.3217961925
 20
116.4405404067
 10
101.3307576846
 20
116.9891889007
 10
101.3403329211
 20
117.502670641
 10
101.3505141395
 20
117.9814304096
 10
101.361171475
 20
118.4193614586
 10
101.3723110264
 20
118.8159407798
 10
101.3839266947
 20
119.1716913816
 10
101.3958703182
 20
119.482075541
 10
101.4081460977
 20
119.7465121223
 10
101.4207498324
 20
119.9655822612
 10
101.4335207571
 20
120.1364916417
 10
101.4464610135
 20
120.2586233336
 10
101.4595684599
 20
120.332594267
 10
101.4726759064
 20
120.3574609171
  0
LWPOLYLINE
  5
2DF
100
AcDbEntity
  8
0
100
AcDbPolyline
 62
7
  6
CONTINUOUS
 90
18
 70
0
 10
101.658100999
 20
104.4566014449
 10
101.6464753444
 20
103.1066849225
 10
101.6395540809
 20
102.4684032374
 10
101.6319111303
 20
101.8577518934
 10
101.6235556202
 20
101.2743814275
 10
101.6145941282
 20
100.7257329335
 10
101.6050188917
 20
100.2122511932
 10
101.5948376732
 20
99.7334914246
 10
101.5841803377
 20
99.2955603756
 10
101.5730407864
 20
98.8989810544
 10
101.561425118
 20
98.5432304526
 10
101.5494814945
 20
98.2328462932
 10
101.537205715
 20
97.9684097119
 10
101.5246019804
 20
97.749339573
 10
101.5118310557
 20
97.5784301925
 10
101.4988907993
 20
97.4562985006
 10
101.4857833528
 20
97.3823275671
 10
101.4726759064
 20
97.3574609171
  0
LINE
  5
2E0
100
AcDbEntity
  8
0
100
AcDbLine
 62
250
  6
CONTINUOUS
 10
101.6225436927
 20
77.3974344843
 11
101.6247015336
 21
77.5944107167
  0
LINE
  5
2E1
100
AcDbEntity
  8
0
100
AcDbLine
 62
250
  6
CONTINUOUS
 10
101.6247015336
 20
77.5944107167
 11
101.6265602995
 21
77.7082968617
  0
LWPOLYLINE
  5
2E2
100
AcDbEntity
  8
0
100
AcDbPolyline
 62
250
  6
CONTINUOUS
 90
10
 70
0
 10
101.6265602995
 20
77.7082968617
 10
101.6286905769
 20
77.8043283684
 10
101.6298507081
 20
77.845231421
 10
101.6310486902
 20
77.8807234195
 10
101.6322851066
 20
77.9106333019
 10
101.6335593739
 20
77.9351321301
 10
101.6348449264
 20
77.9540235362
 10
101.6361329088
 20
77.967242064
 10
101.6374321766
 20
77.9748531697
 10
101.6387427295
 20
77.9768568531
  0
LWPOLYLINE
  5
2E3
100
AcDbEntity
  8
0
100
AcDbPolyline
 62
250
  6
CONTINUOUS
 90
10
 70
0
 10
119.7080604139
 20
159.3073826655
 10
119.7038019271
 20
159.2987560241
 10
119.6994209225
 20
159.2901500711
 10
119.6949174001
 20
159.2815648066
 10
119.6902934628
 20
159.2730001818
 10
119.6855470077
 20
159.2644562454
 10
119.6806717267
 20
159.2559331435
 10
119.6756655169
 20
159.2474309246
 10
119.6705304812
 20
159.2389495401
 10
119.6652666194
 20
159.23048899
  0
LINE
  5
2E4
100
AcDbEntity
  8
DRAFT
100
AcDbLine
 62
7
  6
CONTINUOUS
 10
144.627517031
 20
167.0050410026
 11
144.5886644779
 21
166.9661884496
  0
LINE
  5
2E5
100
AcDbEntity
  8
DRAFT
100
AcDbLine
 62
250
  6
CONTINUOUS
 10
176.5886644779
 20
63.8574609171
 11
176.3128744521
 21
63.8574609171
  0
LINE
  5
2E6
100
AcDbEntity
  8
RACCORDO
100
AcDbLine
 62
250
  6
CONTINUOUS
 10
103.0886644779
 20
63.8574609171
 11
101.0886644779
 21
63.8574609171
  0
LINE
  5
2E7
100
AcDbEntity
  8
DRAFT
100
AcDbLine
 62
250
  6
CONTINUOUS
 10
108.5886644779
 20
63.8574609171
 11
108.8644545038
 21
63.8574609171
  0
LINE
  5
2E8
100
AcDbEntity
  8
RACCORDO
100
AcDbLine
 62
250
  6
CONTINUOUS
 10
182.0886644779
 20
63.8574609171
 11
184.0886644779
 21
63.8574609171
  0
LWPOLYLINE
  5
2E9
100
AcDbEntity
  8
0
100
AcDbPolyline
 62
250
  6
CONTINUOUS
 90
7
 70
0
 10
172.7080604136
 20
58.4075277406
 10
172.6089313244
 20
58.4136800657
 10
172.5113305006
 20
58.4320671615
 10
172.4167623742
 20
58.462405607
 10
172.3266846306
 20
58.5042277612
 10
172.2424857402
 20
58.5568889722
 10
172.1931411793
 20
58.5951933002
  0
LWPOLYLINE
  5
2EA
100
AcDbEntity
  8
0
100
AcDbPolyline
 62
250
  6
CONTINUOUS
 90
10
 70
0
 10
101.6387427295
 20
77.9768568531
 10
101.6473693709
 20
77.9725983662
 10
101.6559753239
 20
77.9682173616
 10
101.6645605885
 20
77.9637138393
 10
101.6731252133
 20
77.9590899019
 10
101.6816691496
 20
77.9543434469
 10
101.6901922516
 20
77.9494681658
 10
101.6986944705
 20
77.9444619561
 10
101.707175855
 20
77.9393269203
 10
101.715636405
 20
77.9340630586
  0
LINE
  5
2EB
100
AcDbEntity
  8
RACCORDO
100
AcDbLine
 62
250
  6
CONTINUOUS
 10
128.8973158464
 20
55.8488857011
 11
129.0283811498
 21
55.7178203977
  0
LINE
  5
2EC
100
AcDbEntity
  8
RACCORDO
100
AcDbLine
 62
250
  6
CONTINUOUS
 10
129.3886644779
 20
56.3573847647
 11
129.5283049974
 21
56.2177442452
  0
LWPOLYLINE
  5
2ED
100
AcDbEntity
  8
0
100
AcDbPolyline
 62
7
  6
CONTINUOUS
 90
17
 70
0
 10
101.4726759064
 20
97.3574609171
 10
101.4595684599
 20
97.3823275671
 10
101.4464610135
 20
97.4562985006
 10
101.4335207571
 20
97.5784301925
 10
101.4207498324
 20
97.749339573
 10
101.4081460977
 20
97.9684097119
 10
101.3958703182
 20
98.2328462932
 10
101.3839266947
 20
98.5432304526
 10
101.3723110264
 20
98.8989810544
 10
101.361171475
 20
99.2955603756
 10
101.3505141395
 20
99.7334914246
 10
101.3403329211
 20
100.2122511932
 10
101.3307576846
 20
100.7257329335
 10
101.3217961925
 20
101.2743814275
 10
101.3134406825
 20
101.8577518934
 10
101.3057977318
 20
102.4684032374
 10
101.2988764683
 20
103.1066849225
  0
LINE
  5
2EE
100
AcDbEntity
  8
RACCORDO
100
AcDbLine
 62
7
  6
CONTINUOUS
 10
102.8128745055
 20
153.8574609171
 11
102.8128745055
 21
152.0816709446
  0
LINE
  5
2EF
100
AcDbEntity
  8
RACCORDO
100
AcDbLine
 62
7
  6
CONTINUOUS
 10
102.8128745055
 20
63.8574609171
 11
102.8128745055
 21
65.6332508896
  0
LINE
  5
2F0
100
AcDbEntity
  8
RACCORDO
100
AcDbLine
 62
250
  6
CONTINUOUS
 10
102.8154688697
 20
152.0816708912
 11
102.8154688697
 21
65.633250943
  0
LINE
  5
2F1
100
AcDbEntity
  8
DRAFT
100
AcDbLine
 62
7
  6
CONTINUOUS
 10
103.0886644779
 20
153.8574609171
 11
103.0886644779
 21
152.3574609171
  0
LINE
  5
2F2
100
AcDbEntity
  8
DRAFT
100
AcDbLine
 62
7
  6
CONTINUOUS
 10
103.0886644779
 20
63.8574609171
 11
103.0886644779
 21
65.3574609171
  0
LINE
  5
2F3
100
AcDbEntity
  8
DRAFT
100
AcDbLine
 62
250
  6
CONTINUOUS
 10
107.0886644779
 20
152.3574609171
 11
107.0886644779
 21
152.0816708912
  0
LINE
  5
2F4
100
AcDbEntity
  8
RACCORDO
100
AcDbLine
 62
250
  6
CONTINUOUS
 10
107.0886644779
 20
43.9937627516
 11
107.0886644779
 21
42.9937627516
  0
LINE
  5
2F5
100
AcDbEntity
  8
RACCORDO
100
AcDbLine
 62
250
  6
CONTINUOUS
 10
107.0886644779
 20
56.9161497065
 11
107.0886644779
 21
59.8574609171
  0
LINE
  5
2F6
100
AcDbEntity
  8
DRAFT
100
AcDbLine
 62
250
  6
CONTINUOUS
 10
107.0886644779
 20
65.3574609171
 11
107.0886644779
 21
65.633250943
  0
LINE
  5
2F7
100
AcDbEntity
  8
RACCORDO
100
AcDbLine
 62
250
  6
CONTINUOUS
 10
107.0886644779
 20
157.8574609171
 11
107.0886644779
 21
159.8574609171
  0
LWPOLYLINE
  5
2F8
100
AcDbEntity
  8
0
100
AcDbPolyline
 62
250
  6
CONTINUOUS
 90
7
 70
0
 10
101.6387313014
 20
70.7380649815
 10
101.6448836265
 20
70.8371940706
 10
101.6632707224
 20
70.9347948944
 10
101.6936091678
 20
71.0293630209
 10
101.7354313221
 20
71.1194407644
 10
101.7880925331
 20
71.2036396548
 10
101.8263968611
 20
71.2529842158
  0
LWPOLYLINE
  5
2F9
100
AcDbEntity
  8
0
100
AcDbPolyline
 62
7
  6
CONTINUOUS
 90
13
 70
0
 10
140.9848614819
 20
145.2850511356
 10
141.0958622662
 20
145.3397528242
 10
141.2047657275
 20
145.3834514069
 10
141.3115718657
 20
145.4161468836
 10
141.4171630876
 20
145.4374538739
 10
141.5206569864
 20
145.4477577582
 10
141.6194063421
 20
145.4482146784
 10
141.7131061079
 20
145.4388456112
 10
141.8020613305
 20
145.4196295798
 10
141.8845399306
 20
145.3916597955
 10
141.9599645481
 20
145.355300662
 10
142.0289125431
 20
145.3101877756
 10
142.0913839154
 20
145.2563211363
  0
LINE
  5
2FA
100
AcDbEntity
  8
0
100
AcDbLine
 62
7
  6
CONTINUOUS
 10
141.0737989462
 20
144.461179678
 11
140.7847342826
 21
144.3312078293
  0
LWPOLYLINE
  5
2FB
100
AcDbEntity
  8
0
100
AcDbPolyline
 62
7
  6
CONTINUOUS
 90
13
 70
0
 10
144.304278243
 20
145.4233290693
 10
144.3785653387
 20
145.45311087
 10
144.4477987297
 20
145.4889805456
 10
144.511978416
 20
145.530938096
 10
144.5717550036
 20
145.5800605705
 10
144.6264778866
 20
145.6352709199
 10
144.6741952464
 20
145.6933379969
 10
144.7142305774
 20
145.7528584568
 10
144.7472603852
 20
145.8152356444
 10
144.7733623689
 20
145.8814484473
 10
144.7925624279
 20
145.9518231615
 10
144.8048346628
 20
146.026033491
 10
144.8101790734
 20
146.1040794358
  0
LINE
  5
2FC
100
AcDbEntity
  8
0
100
AcDbLine
 62
7
  6
CONTINUOUS
 10
143.3595526374
 20
144.4984829659
 11
143.0475169545
 21
144.4029347568
  0
LINE
  5
2FD
100
AcDbEntity
  8
DRAFT
100
AcDbLine
 62
7
  6
CONTINUOUS
 10
182.0886644779
 20
65.3574609171
 11
178.0886644779
 21
65.3574609171
  0
LINE
  5
2FE
100
AcDbEntity
  8
DRAFT
100
AcDbLine
 62
7
  6
CONTINUOUS
 10
103.0886644779
 20
65.3574609171
 11
107.0886644779
 21
65.3574609171
  0
LINE
  5
2FF
100
AcDbEntity
  8
DRAFT
100
AcDbLine
 62
7
  6
CONTINUOUS
 10
182.3618600862
 20
65.633250943
 11
178.0886644779
 21
65.633250943
  0
LINE
  5
300
100
AcDbEntity
  8
DRAFT
100
AcDbLine
 62
7
  6
CONTINUOUS
 10
102.8154688697
 20
65.633250943
 11
107.0886644779
 21
65.633250943
  0
LINE
  5
301
100
AcDbEntity
  8
RACCORDO
100
AcDbLine
 62
250
  6
CONTINUOUS
 10
169.2033384755
 20
53.9184183829
 11
169.1862025239
 21
53.9264959093
  0
LINE
  5
302
100
AcDbEntity
  8
RACCORDO
100
AcDbLine
 62
7
  6
CONTINUOUS
 10
155.7835193483
 20
57.7902183437
 11
155.6490239585
 21
57.8574609171
  0
LINE
  5
303
100
AcDbEntity
  8
DRAFT
100
AcDbLine
 62
7
  6
CONTINUOUS
 10
108.5886644779
 20
63.8574609171
 11
108.5886644779
 21
59.8574609171
  0
LINE
  5
304
100
AcDbEntity
  8
DRAFT
100
AcDbLine
 62
7
  6
CONTINUOUS
 10
108.5886644779
 20
153.8574609171
 11
108.5886644779
 21
157.8574609171
  0
LINE
  5
305
100
AcDbEntity
  8
DRAFT
100
AcDbLine
 62
7
  6
CONTINUOUS
 10
108.8644545038
 20
63.8574609171
 11
108.8644545038
 21
59.5842653089
  0
LINE
  5
306
100
AcDbEntity
  8
DRAFT
100
AcDbLine
 62
7
  6
CONTINUOUS
 10
108.8644545038
 20
153.8574609171
 11
108.8644545038
 21
158.1306565253
  0
LINE
  5
307
100
AcDbEntity
  8
DRAFT
100
AcDbLine
 62
7
  6
CONTINUOUS
 10
160.5886644779
 20
166.9574609171
 11
160.6362445635
 21
167.0050410026
  0
LINE
  5
308
100
AcDbEntity
  8
0
100
AcDbLine
 62
250
  6
CONTINUOUS
 10
101.6208015377
 20
71.7574609171
 11
102.0886644779
 21
71.7574609171
  0
LINE
  5
309
100
AcDbEntity
  8
RACCORDO
100
AcDbLine
 62
250
  6
CONTINUOUS
 10
169.267961712
 20
53.8876485124
 11
169.2033384755
 21
53.9184183829
  0
LINE
  5
30A
100
AcDbEntity
  8
RACCORDO
100
AcDbLine
 62
250
  6
CONTINUOUS
 10
169.3269339961
 20
53.8591804087
 11
169.267961712
 21
53.8876485124
  0
LINE
  5
30B
100
AcDbEntity
  8
RACCORDO
100
AcDbLine
 62
250
  6
CONTINUOUS
 10
158.2973158464
 20
45.0488857011
 11
158.376015955
 21
44.9701855925
  0
LINE
  5
30C
100
AcDbEntity
  8
RACCORDO
100
AcDbLine
 62
250
  6
CONTINUOUS
 10
158.797239694
 20
45.5488095487
 11
158.8759398026
 21
45.47010944
  0
LINE
  5
30D
100
AcDbEntity
  8
0
100
AcDbLine
 62
250
  6
CONTINUOUS
 10
113.4886644779
 20
159.3253238573
 11
113.4886644779
 21
158.8574609171
  0
LINE
  5
30E
100
AcDbEntity
  8
RACCORDO
100
AcDbLine
 62
7
  6
CONTINUOUS
 10
115.3162824759
 20
53.6850789151
 11
115.3162824759
 21
56.9161497065
  0
LINE
  5
30F
100
AcDbEntity
  8
RACCORDO
100
AcDbLine
 62
7
  6
CONTINUOUS
 10
115.3861240149
 20
56.7373281761
 11
115.3861240149
 21
57.8500013801
  0
LINE
  5
310
100
AcDbEntity
  8
0
100
AcDbLine
 62
7
  6
CONTINUOUS
 10
115.5886644779
 20
159.8574609171
 11
115.5886644779
 21
167.9969825263
  0
LINE
  5
311
100
AcDbEntity
  8
ASSI
100
AcDbLine
 62
7
  6
CONTINUOUS
 10
115.5886644779
 20
167.9969825263
 11
115.5886644779
 21
168.1574509574
  0
LINE
  5
312
100
AcDbEntity
  8
DRAFT
100
AcDbLine
 62
7
  6
CONTINUOUS
 10
117.0802465278
 20
53.6850789151
 11
117.0802465278
 21
50.099042967
  0
LINE
  5
313
100
AcDbEntity
  8
DRAFT
100
AcDbLine
 62
7
  6
CONTINUOUS
 10
117.1500880668
 20
53.754920454
 11
117.1500880668
 21
50.168884506
  0
LINE
  5
314
100
AcDbEntity
  8
DRAFT
100
AcDbLine
 62
7
  6
CONTINUOUS
 10
115.5697249984
 20
54.0023483539
 11
115.5761573616
 21
56.1077500654
  0
LINE
  5
315
100
AcDbEntity
  8
DRAFT
100
AcDbLine
 62
7
  6
CONTINUOUS
 10
117.3421686262
 20
52.2044172601
 11
117.347661614
 21
54.0023483539
  0
LWPOLYLINE
  5
316
100
AcDbEntity
  8
0
100
AcDbPolyline
 62
7
  6
CONTINUOUS
 90
19
 70
0
 10
144.4243881601
 20
144.2456078413
 10
144.369524701
 20
144.1983622625
 10
144.3101769589
 20
144.1589669447
 10
144.2463449338
 20
144.127421888
 10
144.1772046231
 20
144.103887582
 10
144.1035800294
 20
144.0882035369
 10
144.0279431607
 20
144.0798882845
 10
143.9489523147
 20
144.0790930562
 10
143.8679491937
 20
144.0856666205
 10
143.7914309125
 20
144.0986738139
 10
143.7210540086
 20
144.117919024
 10
143.6551619445
 20
144.1435978632
 10
143.5952822234
 20
144.1753620054
 10
143.5421375489
 20
144.2128938087
 10
143.4950052175
 20
144.256510915
 10
143.4532446213
 20
144.3068179239
 10
143.4166422247
 20
144.3640163687
 10
143.3854115633
 20
144.427904716
 10
143.3595526374
 20
144.4984829659
  0
LINE
  5
317
100
AcDbEntity
  8
0
100
AcDbLine
 62
250
  6
CONTINUOUS
 10
101.6208015377
 20
76.9574609171
 11
102.0886644779
 21
76.9574609105
  0
LINE
  5
318
100
AcDbEntity
  8
RACCORDO
100
AcDbLine
 62
7
  6
CONTINUOUS
 10
162.40312734
 20
56.2374995136
 11
162.5761573616
 21
56.1077500654
  0
LWPOLYLINE
  5
319
100
AcDbEntity
  8
0
100
AcDbPolyline
 62
7
  6
CONTINUOUS
 90
17
 70
0
 10
101.4726759064
 20
120.3574609171
 10
101.4857833528
 20
120.332594267
 10
101.4988907993
 20
120.2586233336
 10
101.5118310557
 20
120.1364916417
 10
101.5246019804
 20
119.9655822612
 10
101.537205715
 20
119.7465121223
 10
101.5494814945
 20
119.482075541
 10
101.561425118
 20
119.1716913816
 10
101.5730407864
 20
118.8159407798
 10
101.5841803377
 20
118.4193614586
 10
101.5948376732
 20
117.9814304096
 10
101.6050188917
 20
117.502670641
 10
101.6145941282
 20
116.9891889007
 10
101.6235556202
 20
116.4405404067
 10
101.6319111303
 20
115.8571699408
 10
101.6395540809
 20
115.2465185968
 10
101.6464753444
 20
114.6082369117
  0
LINE
  5
31A
100
AcDbEntity
  8
RACCORDO
100
AcDbLine
 62
7
  6
CONTINUOUS
 10
119.889523946
 20
51.0328489707
 11
119.916844837
 21
50.2504810178
  0
LINE
  5
31B
100
AcDbEntity
  8
DRAFT
100
AcDbLine
 62
7
  6
CONTINUOUS
 10
120.8310265493
 20
53.5574609171
 11
120.8296673419
 21
54.0023483539
  0
LINE
  5
31C
100
AcDbEntity
  8
DRAFT
100
AcDbLine
 62
7
  6
CONTINUOUS
 10
122.6011715943
 20
56.1077500654
 11
122.6076039575
 21
54.0023483539
  0
LINE
  5
31D
100
AcDbEntity
  8
0
100
AcDbLine
 62
250
  6
CONTINUOUS
 10
118.6886644779
 20
159.3253238573
 11
118.6886644718
 21
158.8574609171
  0
LINE
  5
31E
100
AcDbEntity
  8
DRAFT
100
AcDbLine
 62
7
  6
CONTINUOUS
 10
121.0272408891
 20
50.168884506
 11
121.0272408891
 21
53.754920454
  0
LINE
  5
31F
100
AcDbEntity
  8
DRAFT
100
AcDbLine
 62
7
  6
CONTINUOUS
 10
121.097082428
 20
50.099042967
 11
121.097082428
 21
53.6850789151
  0
LINE
  5
320
100
AcDbEntity
  8
ASSI
100
AcDbLine
 62
7
  6
CONTINUOUS
 10
122.0886644779
 20
166.8434437146
 11
122.0886644779
 21
168.1574355003
  0
LINE
  5
321
100
AcDbEntity
  8
DRAFT
100
AcDbLine
 62
7
  6
CONTINUOUS
 10
122.791204941
 20
57.8500013801
 11
122.791204941
 21
56.2502497406
  0
LINE
  5
322
100
AcDbEntity
  8
RACCORDO
100
AcDbLine
 62
7
  6
CONTINUOUS
 10
122.86104648
 20
56.9161497065
 11
122.86104648
 21
53.6850789151
  0
LINE
  5
323
100
AcDbEntity
  8
DRAFT
100
AcDbLine
 62
7
  6
CONTINUOUS
 10
119.273154319
 20
50.168884506
 11
119.2810536189
 21
50.6214350958
  0
LWPOLYLINE
  5
324
100
AcDbEntity
  8
0
100
AcDbPolyline
 62
7
  6
CONTINUOUS
 90
10
 70
0
 10
143.4240806757
 20
146.2732518161
 10
143.46376271
 20
146.333050413
 10
143.5106402606
 20
146.3879605
 10
143.5647133275
 20
146.4379820771
 10
143.6281521488
 20
146.484381709
 10
143.6987864865
 20
146.5258928311
 10
143.7701056264
 20
146.5587157492
 10
143.8399393308
 20
146.5815838986
 10
143.9104578374
 20
146.5957638441
 10
143.9816611464
 20
146.6012555856
  0
LINE
  5
325
100
AcDbEntity
  8
0
100
AcDbLine
 62
7
  6
CONTINUOUS
 10
168.9886644779
 20
84.3574609171
 11
169.1886644779
 21
84.3574609171
  0
LINE
  5
326
100
AcDbEntity
  8
RACCORDO
100
AcDbLine
 62
7
  6
CONTINUOUS
 10
169.7742016158
 20
53.8774223206
 11
169.6076039575
 21
54.0023483539
  0
LINE
  5
327
100
AcDbEntity
  8
RACCORDO
100
AcDbLine
 62
250
  6
CONTINUOUS
 10
158.493855299
 20
55.8523157875
 11
158.6283506888
 21
55.7178203977
  0
LINE
  5
328
100
AcDbEntity
  8
RACCORDO
100
AcDbLine
 62
250
  6
CONTINUOUS
 10
158.7938096076
 20
56.152270096
 11
158.9283049974
 21
56.0177747062
  0
LINE
  5
329
100
AcDbEntity
  8
DRAFT
100
AcDbLine
 62
7
  6
CONTINUOUS
 10
168.0272408891
 20
50.168884506
 11
168.097082428
 21
50.099042967
  0
LINE
  5
32A
100
AcDbEntity
  8
0
100
AcDbLine
 62
7
  6
CONTINUOUS
 10
126.0886644779
 20
143.4574609171
 11
126.0886644779
 21
143.2574609171
  0
LINE
  5
32B
100
AcDbEntity
  8
RACCORDO
100
AcDbLine
 62
7
  6
CONTINUOUS
 10
126.2490239585
 20
56.2177442452
 11
126.2490239585
 21
56.9161497065
  0
LINE
  5
32C
100
AcDbEntity
  8
RACCORDO
100
AcDbLine
 62
7
  6
CONTINUOUS
 10
126.3013891533
 20
45.47010944
 11
126.3013891533
 21
53.9448123942
  0
LINE
  5
32D
100
AcDbEntity
  8
RACCORDO
100
AcDbLine
 62
250
  6
CONTINUOUS
 10
126.3800892619
 20
45.5488095487
 11
126.3800892619
 21
53.8661122855
  0
LINE
  5
32E
100
AcDbEntity
  8
RACCORDO
100
AcDbLine
 62
7
  6
CONTINUOUS
 10
126.3886644779
 20
56.3573847647
 11
126.3886644779
 21
57.7876459748
  0
LINE
  5
32F
100
AcDbEntity
  8
RACCORDO
100
AcDbLine
 62
250
  6
CONTINUOUS
 10
126.8800131095
 20
45.0488857011
 11
126.8800131095
 21
54.3660361331
  0
LWPOLYLINE
  5
330
100
AcDbEntity
  8
0
100
AcDbPolyline
 62
7
  6
CONTINUOUS
 90
5
 70
0
 10
172.1931411793
 20
58.5951933002
 10
172.1654635557
 20
58.6195775131
 10
172.0968053072
 20
58.6913270944
 10
172.0375693019
 20
58.7710317588
 10
171.9886686115
 20
58.857462928
  0
LINE
  5
331
100
AcDbEntity
  8
DRAFT
100
AcDbLine
 62
7
  6
CONTINUOUS
 10
168.097082428
 20
53.6850789151
 11
168.0272408891
 21
53.754920454
  0
LINE
  5
332
100
AcDbEntity
  8
RACCORDO
100
AcDbLine
 62
7
  6
CONTINUOUS
 10
169.791204941
 20
53.754920454
 11
169.86104648
 21
53.6850789151
  0
LINE
  5
333
100
AcDbEntity
  8
RACCORDO
100
AcDbLine
 62
7
  6
CONTINUOUS
 10
129.3886644779
 20
57.7876459748
 11
129.3886644779
 21
56.3573847647
  0
LINE
  5
334
100
AcDbEntity
  8
RACCORDO
100
AcDbLine
 62
7
  6
CONTINUOUS
 10
129.5283049974
 20
56.9161497065
 11
129.5283049974
 21
56.2177442452
  0
LWPOLYLINE
  5
335
100
AcDbEntity
  8
RACCORDO
100
AcDbPolyline
 62
250
  6
CONTINUOUS
 90
22
 70
0
 10
126.3800892619
 20
53.8661122855
 10
126.3814979855
 20
53.9034644125
 10
126.3856935274
 20
53.9406077321
 10
126.3926524333
 20
53.9773346045
 10
126.4023358015
 20
54.0134397177
 10
126.4146894995
 20
54.0487212354
 10
126.4296444673
 20
54.0829819257
 10
126.447117103
 20
54.116030263
 10
126.4670097304
 20
54.1476814993
 10
126.4892111451
 20
54.1777586966
 10
126.5135972357
 20
54.2060937164
 10
126.5400316784
 20
54.2325281591
 10
126.5683666982
 20
54.2569142498
 10
126.5984438955
 20
54.2791156644
 10
126.6300951319
 20
54.2990082919
 10
126.6631434692
 20
54.3164809276
 10
126.6974041594
 20
54.3314358954
 10
126.7326856772
 20
54.3437895935
 10
126.7687907904
 20
54.3534729617
 10
126.8055176628
 20
54.3604318677
 10
126.8426609825
 20
54.3646274095
 10
126.8800131095
 20
54.3660361331
  0
LWPOLYLINE
  5
336
100
AcDbEntity
  8
RACCORDO
100
AcDbPolyline
 62
7
  6
CONTINUOUS
 90
22
 70
0
 10
129.388590949
 20
56.3488095487
 10
129.3872388877
 20
56.3180511817
 10
129.3838372755
 20
56.2869474093
 10
129.3783861123
 20
56.2556277528
 10
129.3709582224
 20
56.224282427
 10
129.3614807816
 20
56.1930085267
 10
129.3497353167
 20
56.1618191725
 10
129.3356754618
 20
56.1308416966
 10
129.3193475828
 20
56.1003252548
 10
129.3006723041
 20
56.0704911921
 10
129.2796243568
 20
56.0415852683
 10
129.2562290098
 20
56.0137951724
 10
129.2304826943
 20
55.9872811501
 10
129.2023553148
 20
55.9623149169
 10
129.1718769669
 20
55.9391361091
 10
129.1391343683
 20
55.9179156205
 10
129.1040818732
 20
55.8989763342
 10
129.0667651275
 20
55.882607699
 10
129.0274077865
 20
55.8690367971
 10
128.9860844018
 20
55.8586244843
 10
128.9427204218
 20
55.8517848292
 10
128.8973158464
 20
55.8488857011
  0
LWPOLYLINE
  5
337
100
AcDbEntity
  8
0
100
AcDbPolyline
 62
7
  6
CONTINUOUS
 90
16
 70
0
 10
183.0886644779
 20
146.2574609171
 10
183.1376967921
 20
146.2931214508
 10
183.1830346315
 20
146.330603316
 10
183.224672414
 20
146.3699065127
 10
183.2625534711
 20
146.4112486314
 10
183.2968064115
 20
146.4544120817
 10
183.3276809573
 20
146.4987440919
 10
183.3551970972
 20
146.5441561774
 10
183.3793925958
 20
146.5907368228
 10
183.4004500585
 20
146.6380987104
 10
183.4183895161
 20
146.6862546641
 10
183.4331956161
 20
146.73519186
 10
183.4449236229
 20
146.7844845081
 10
183.4535819826
 20
146.8339906785
 10
183.459165511
 20
146.8838523011
 10
183.4616925508
 20
146.9340693758
  0
LWPOLYLINE
  5
338
100
AcDbEntity
  8
0
100
AcDbPolyline
 62
250
  6
CONTINUOUS
 90
10
 70
0
 10
183.4616925508
 20
146.9340630542
 10
183.4701530991
 20
146.9393269178
 10
183.478634482
 20
146.9444619546
 10
183.4871366997
 20
146.9494681645
 10
183.4956598006
 20
146.9543434441
 10
183.5042037362
 20
146.9590898968
 10
183.5127683612
 20
146.963713833
 10
183.5213536269
 20
146.9682173562
 10
183.529959582
 20
146.9725983629
 10
183.5385862264
 20
146.9768568531
  0
LWPOLYLINE
  5
339
100
AcDbEntity
  8
RACCORDO
100
AcDbPolyline
 62
7
  6
CONTINUOUS
 90
5
 70
0
 10
116.0326920479
 20
54.0023483539
 10
116.0313707321
 20
53.9984148781
 10
116.0202920504
 20
53.9734664058
 10
116.0068772837
 20
53.9494934161
 10
115.991126432
 20
53.9264959093
  0
LWPOLYLINE
  5
33A
100
AcDbEntity
  8
0
100
AcDbPolyline
 62
7
  6
CONTINUOUS
 90
5
 70
0
 10
101.8263968611
 20
71.2529842158
 10
101.8507810739
 20
71.2806618393
 10
101.9225306552
 20
71.3493200879
 10
102.0022353196
 20
71.4085560931
 10
102.0886664889
 20
71.4574567835
  0
LINE
  5
33B
100
AcDbEntity
  8
RACCORDO
100
AcDbLine
 62
7
  6
CONTINUOUS
 10
169.3995818714
 20
53.754920454
 11
169.3269339926
 21
53.8591804153
  0
LWPOLYLINE
  5
33C
100
AcDbEntity
  8
RACCORDO
100
AcDbPolyline
 62
7
  6
CONTINUOUS
 90
5
 70
0
 10
169.1862025235
 20
53.9264959099
 10
169.1704516728
 20
53.949493417
 10
169.1570369069
 20
53.9734664069
 10
169.1459582257
 20
53.9984148794
 10
169.1446369104
 20
54.0023483539
  0
LINE
  5
33D
100
AcDbEntity
  8
0
100
AcDbLine
 62
7
  6
CONTINUOUS
 10
138.5886644779
 20
166.8434437146
 11
138.5886644779
 21
167.0050410026
  0
LWPOLYLINE
  5
33E
100
AcDbEntity
  8
0
100
AcDbPolyline
 62
7
  6
CONTINUOUS
 90
4
 70
0
 43
0.3500000006
 10
140.3386633301
 20
187.3360171509
 10
140.3386633301
 20
188.1931550903
 10
140.7672322998
 20
188.6217240601
 10
141.4100948181
 20
188.6217240601
  0
LINE
  5
33F
100
AcDbEntity
  8
0
100
AcDbLine
 62
7
  6
CONTINUOUS
 10
141.4886644779
 20
97.6613678485
 11
141.4886644779
 21
98.7873928506
  0
LINE
  5
340
100
AcDbEntity
  8
0
100
AcDbLine
 62
7
  6
CONTINUOUS
 10
141.4886644779
 20
118.9275289836
 11
141.4886644779
 21
120.0535539857
  0
LINE
  5
341
100
AcDbEntity
  8
0
100
AcDbLine
 62
7
  6
CONTINUOUS
 10
142.4735754779
 20
146.5509949171
 11
142.4735754779
 21
146.8228479171
  0
LINE
  5
342
100
AcDbEntity
  8
0
100
AcDbLine
 62
7
  6
CONTINUOUS
 10
142.5886644779
 20
166.8434437146
 11
142.5886644779
 21
168.1244225575
  0
LINE
  5
343
100
AcDbEntity
  8
0
100
AcDbLine
 62
7
  6
CONTINUOUS
 10
141.27988148
 20
145.651405034
 11
141.2956534779
 21
146.5509949171
  0
LINE
  5
344
100
AcDbEntity
  8
0
100
AcDbLine
 62
7
  6
CONTINUOUS
 10
141.0125434779
 20
146.8228479171
 11
140.9848614819
 21
145.2850511356
  0
LWPOLYLINE
  5
345
100
AcDbEntity
  8
0
100
AcDbPolyline
 62
7
  6
CONTINUOUS
 90
19
 70
0
 10
144.5211794734
 20
146.0958335253
 10
144.5179670334
 20
146.0284512645
 10
144.5092936831
 20
145.9653148799
 10
144.4951594226
 20
145.9064243716
 10
144.4754490058
 20
145.8515008594
 10
144.4502776786
 20
145.8008232234
 10
144.4199911792
 20
145.7552281047
 10
144.3845165301
 20
145.7154403011
 10
144.3439267086
 20
145.6807350147
 10
144.2987863845
 20
145.6497744932
 10
144.2490230299
 20
145.6218895007
 10
144.1947091728
 20
145.597749273
 10
144.1366270661
 20
145.5780237647
 10
144.074643765
 20
145.5632594869
 10
144.0088922144
 20
145.5529099285
 10
143.9405535017
 20
145.54600551
 10
143.8700213226
 20
145.5422230382
 10
143.7969019813
 20
145.5418857063
 10
143.7211954779
 20
145.5449935144
  0
LWPOLYLINE
  5
346
100
AcDbEntity
  8
0
100
AcDbPolyline
 62
7
  6
CONTINUOUS
 90
10
 70
0
 10
144.6015443464
 20
144.6670655673
 10
144.5972291307
 20
144.6088115008
 10
144.5887360049
 20
144.5530091753
 10
144.5760649691
 20
144.4996585909
 10
144.5587684114
 20
144.4482202589
 10
144.5372939437
 20
144.399233668
 10
144.5129844012
 20
144.3543172842
 10
144.4862873956
 20
144.3140105961
 10
144.4567553153
 20
144.2777741152
 10
144.4243881601
 20
144.2456078413
  0
LWPOLYLINE
  5
347
100
AcDbEntity
  8
0
100
AcDbPolyline
 62
7
  6
CONTINUOUS
 90
13
 70
0
 10
142.2853591464
 20
144.7426531016
 10
142.2782591113
 20
144.648532239
 10
142.2611863552
 20
144.5605459869
 10
142.234140878
 20
144.478694345
 10
142.1960903685
 20
144.4024904795
 10
142.148067138
 20
144.3324212244
 10
142.0931681205
 20
144.2699470815
 10
142.032038594
 20
144.2147573691
 10
141.9640332806
 20
144.167162769
 10
141.8903132802
 20
144.1295558286
 10
141.8112656262
 20
144.1027340636
 10
141.7265032851
 20
144.0858999582
 10
141.6360262569
 20
144.0790535125
  0
LWPOLYLINE
  5
348
100
AcDbEntity
  8
0
100
AcDbPolyline
 62
7
  6
CONTINUOUS
 90
21
 70
0
 10
171.8345755012
 20
109.8883908497
 10
171.7196549913
 20
109.8626499565
 10
171.6132071008
 20
109.8262730301
 10
171.5166560986
 20
109.7787894936
 10
171.4285777158
 20
109.7206699239
 10
171.3494084881
 20
109.6541684449
 10
171.2783387552
 20
109.5787968138
 10
171.2161781774
 20
109.4950432734
 10
171.1657922708
 20
109.406626676
 10
171.1281593804
 20
109.3137467714
 10
171.1023011612
 20
109.2162038097
 10
171.0881480947
 20
109.1171173936
 10
171.0855596466
 20
109.015821996
 10
171.0946763512
 20
108.9129831439
 10
171.1158502938
 20
108.8137170209
 10
171.1501399703
 20
108.7183926901
 10
171.1964868848
 20
108.6266410885
 10
171.2520676347
 20
108.5424712109
 10
171.3159410856
 20
108.4672193889
 10
171.3890483719
 20
108.399549291
 10
171.4713894936
 20
108.3394609171
  0
LWPOLYLINE
  5
349
100
AcDbEntity
  8
0
100
AcDbPolyline
 62
7
  6
CONTINUOUS
 90
29
 70
0
 10
172.1283551662
 20
108.0148143836
 10
172.2519311667
 20
108.0406382177
 10
172.3690608704
 20
108.0740123494
 10
172.4788179191
 20
108.1177559226
 10
172.5819932566
 20
108.1734842331
 10
172.6777959392
 20
108.2395819851
 10
172.7629267776
 20
108.3140224354
 10
172.8366283137
 20
108.397013612
 10
172.8996580056
 20
108.4883474869
 10
172.9509890385
 20
108.5853732327
 10
172.990589922
 20
108.688523283
 10
173.0184921464
 20
108.7973652043
 10
173.033763369
 20
108.9079508682
 10
173.0357286982
 20
109.0217639844
 10
173.0250630256
 20
109.1373208432
 10
173.0028586823
 20
109.2462221877
 10
172.9693458429
 20
109.3454960738
 10
172.9242943329
 20
109.4381144455
 10
172.8681059604
 20
109.5245938776
 10
172.7998303744
 20
109.6065827883
 10
172.7204179258
 20
109.6824327594
 10
172.6331214754
 20
109.7477151112
 10
172.5389151311
 20
109.8011750445
 10
172.436824785
 20
109.8440673586
 10
172.3271809741
 20
109.875727771
 10
172.2063216297
 20
109.8960170294
 10
172.0779088204
 20
109.9050743861
 10
171.9532592887
 20
109.902653317
 10
171.8345755012
 20
109.8883908497
  0
LWPOLYLINE
  5
34A
100
AcDbEntity
  8
0
100
AcDbPolyline
 62
7
  6
CONTINUOUS
 90
34
 70
0
 10
172.3067644779
 20
110.3115609171
 10
172.4177022012
 20
110.3320209515
 10
172.5197286573
 20
110.3617264753
 10
172.6128438465
 20
110.4006774886
 10
172.6970679756
 20
110.4492491269
 10
172.7723808377
 20
110.5070662546
 10
172.8387218114
 20
110.573003465
 10
172.896505445
 20
110.6468130419
 10
172.9453171901
 20
110.7287427014
 10
172.9838527813
 20
110.8184101849
 10
173.0120320921
 20
110.9172744574
 10
173.029935249
 20
111.0238765539
 10
173.0364983646
 20
111.1334573198
 10
173.0313958694
 20
111.2478003036
 10
173.014953333
 20
111.3651219568
 10
172.9870835768
 20
111.47531248
 10
172.9479084942
 20
111.5747595483
 10
172.8973061917
 20
111.6670754864
 10
172.8348238103
 20
111.7529874697
 10
172.759885283
 20
111.8334272058
 10
172.6730666766
 20
111.9074629869
 10
172.5756433334
 20
111.9730268647
 10
172.4673712729
 20
112.02926895
 10
172.3484944755
 20
112.0770391319
 10
172.2210202245
 20
112.1168191293
 10
172.0831968573
 20
112.1483545378
 10
171.9367760365
 20
112.1718997617
 10
171.789020034
 20
112.188699733
 10
171.6401611003
 20
112.1987811503
 10
171.4899669848
 20
112.202117315
 10
171.345003207
 20
112.199873063
 10
171.2071007472
 20
112.1927867774
 10
171.074428625
 20
112.1801200751
 10
170.9480594188
 20
112.1608226426
  0
LWPOLYLINE
  5
34B
100
AcDbEntity
  8
0
100
AcDbPolyline
 62
7
  6
CONTINUOUS
 90
34
 70
0
 10
170.7692644779
 20
109.8523609171
 10
170.6602581881
 20
109.8330156373
 10
170.5598681208
 20
109.8049427304
 10
170.4680942761
 20
109.7681421966
 10
170.3849476597
 20
109.7223724649
 10
170.3104172658
 20
109.6678751061
 10
170.2444700771
 20
109.605374833
 10
170.1866831346
 20
109.5349765299
 10
170.1374793973
 20
109.4565753125
 10
170.0980947241
 20
109.37058124
 10
170.0685209934
 20
109.2758987285
 10
170.0487663269
 20
109.1736233619
 10
170.0400909488
 20
109.0674519523
 10
170.0426855438
 20
108.9554154019
 10
170.0563594272
 20
108.8394828085
 10
170.0818007693
 20
108.7292582772
 10
170.11939107
 20
108.6275363201
 10
170.1687488295
 20
108.5315224251
 10
170.2294177185
 20
108.4424371614
 10
170.3011937337
 20
108.3603359335
 10
170.3842808785
 20
108.2851633369
 10
170.4788348333
 20
108.2179737267
 10
170.5857237721
 20
108.158829028
 10
170.7040795208
 20
108.1076673157
 10
170.831453238
 20
108.0653571693
 10
170.9692619558
 20
108.0329025897
 10
171.1160886421
 20
108.009299576
 10
171.2652333577
 20
107.9924047048
 10
171.4169452055
 20
107.9819777698
 10
171.5709750827
 20
107.9782589774
 10
171.7198757421
 20
107.979825523
 10
171.8616037943
 20
107.9854481519
 10
171.9982026287
 20
107.9963561189
 10
172.1283551662
 20
108.0148143836
  0
LWPOLYLINE
  5
34C
100
AcDbEntity
  8
0
100
AcDbPolyline
 62
7
  6
CONTINUOUS
 90
16
 70
0
 10
171.9886644779
 20
58.8574609171
 10
172.0243250234
 20
58.8084285887
 10
172.0618068998
 20
58.7630907384
 10
172.1011101072
 20
58.7214529482
 10
172.1424522361
 20
58.6835718864
 10
172.1856156959
 20
58.6493189438
 10
172.2299477147
 20
58.6184443975
 10
172.2753598086
 20
58.5909282583
 10
172.3219404614
 20
58.5667327618
 10
172.3693023525
 20
58.5456753034
 10
172.4174583055
 20
58.5277358517
 10
172.4663954969
 20
58.5129297584
 10
172.5156881348
 20
58.5012017586
 10
172.5651942888
 20
58.4925434054
 10
172.6150558895
 20
58.4869598818
 10
172.6652729367
 20
58.4844328442
  0
LWPOLYLINE
  5
34D
100
AcDbEntity
  8
0
100
AcDbPolyline
 62
7
  6
CONTINUOUS
 90
31
 70
0
 10
144.8101790734
 20
146.1040794358
 10
144.8063869977
 20
146.1822282273
 10
144.7973904563
 20
146.2560565394
 10
144.7831894494
 20
146.3255643723
 10
144.7633002233
 20
146.3910281866
 10
144.7382065315
 20
146.4521715217
 10
144.7093596351
 20
146.5081649948
 10
144.6768171785
 20
146.5584164638
 10
144.6405215172
 20
146.6035180708
 10
144.6017509783
 20
146.6444168601
 10
144.5613579269
 20
146.6808251772
 10
144.5184899979
 20
146.7130306766
 10
144.4718684226
 20
146.7428433656
 10
144.4210885925
 20
146.7712450148
 10
144.3665551162
 20
146.7972538536
 10
144.3082030499
 20
146.8197345776
 10
144.2458473093
 20
146.8386199391
 10
144.1796729788
 20
146.8539771858
 10
144.1101703678
 20
146.8648727562
 10
144.0372730023
 20
146.871634722
 10
143.9610473562
 20
146.8739350116
 10
143.8821831616
 20
146.8698558484
 10
143.800110887
 20
146.860186939
 10
143.7154000637
 20
146.8441385768
 10
143.6304490179
 20
146.8174238654
 10
143.5444310776
 20
146.7793074587
 10
143.4581729147
 20
146.7305247029
 10
143.3765528713
 20
146.6689947402
 10
143.3011970613
 20
146.5940239513
 10
143.2304793708
 20
146.5063059555
 10
143.1643997997
 20
146.4058407528
  0
LINE
  5
34E
100
AcDbEntity
  8
0
100
AcDbLine
 62
7
  6
CONTINUOUS
 10
143.6886644779
 20
120.0535539857
 11
143.6886644779
 21
118.9275289836
  0
LINE
  5
34F
100
AcDbEntity
  8
0
100
AcDbLine
 62
7
  6
CONTINUOUS
 10
143.6886644779
 20
98.7873928506
 11
143.6886644779
 21
97.6613678485
  0
LINE
  5
350
100
AcDbEntity
  8
0
100
AcDbLine
 62
7
  6
CONTINUOUS
 10
143.7211954779
 20
145.5449935144
 11
143.7211954779
 21
145.2735327774
  0
LINE
  5
351
100
AcDbEntity
  8
DRAFT
100
AcDbLine
 62
7
  6
CONTINUOUS
 10
144.5886644779
 20
166.9661884496
 11
144.5886644779
 21
168.1244225575
  0
LWPOLYLINE
  5
352
100
AcDbEntity
  8
RACCORDO
100
AcDbPolyline
 62
7
  6
CONTINUOUS
 90
7
 70
0
 10
115.8503949605
 20
53.8591804101
 10
115.8652841628
 20
53.8822060352
 10
115.8778658986
 20
53.9061498893
 10
115.8881401679
 20
53.9310122135
 10
115.8961622026
 20
53.9570712725
 10
115.9018767709
 20
53.9840493627
 10
115.904068475
 20
54.0023483539
  0
LWPOLYLINE
  5
353
100
AcDbEntity
  8
0
100
AcDbPolyline
 62
7
  6
CONTINUOUS
 90
5
 70
0
 10
183.3509320948
 20
146.4619376184
 10
183.326547882
 20
146.4342599949
 10
183.2547983006
 20
146.3656017463
 10
183.1750936363
 20
146.3063657411
 10
183.088662467
 20
146.2574650507
  0
LWPOLYLINE
  5
354
100
AcDbEntity
  8
0
100
AcDbPolyline
 62
7
  6
CONTINUOUS
 90
16
 70
0
 10
102.0886644779
 20
71.4574609171
 10
102.0396321685
 20
71.4218003873
 10
101.9942943327
 20
71.3843185258
 10
101.9526565527
 20
71.3450153326
 10
101.9147754971
 20
71.3036732171
 10
101.8805225574
 20
71.26050977
 10
101.8496480117
 20
71.2161777626
 10
101.8221318716
 20
71.1707656799
 10
101.7979363723
 20
71.1241850369
 10
101.7768789082
 20
71.0768231505
 10
101.7589394487
 20
71.0286671966
 10
101.7441333465
 20
70.9797299992
 10
101.7324053374
 20
70.9304373477
 10
101.7237469756
 20
70.880931172
 10
101.7181634456
 20
70.8310695422
 10
101.715636405
 20
70.7808524583
  0
LWPOLYLINE
  5
355
100
AcDbEntity
  8
0
100
AcDbPolyline
 62
7
  6
CONTINUOUS
 90
20
 70
0
 10
171.3383051977
 20
110.2987224987
 10
171.4465494257
 20
110.3339440387
 10
171.5455983019
 20
110.3807015158
 10
171.6364405071
 20
110.4387022807
 10
171.7183674347
 20
110.5055019102
 10
171.7922495629
 20
110.5817545875
 10
171.8572164134
 20
110.6668061295
 10
171.9099479442
 20
110.7562495644
 10
171.9493085345
 20
110.8491473708
 10
171.9764338051
 20
110.9464370701
 10
171.9914105772
 20
111.0465242545
 10
171.9939698817
 20
111.1515288917
 10
171.9843806878
 20
111.2593310141
 10
171.9635367237
 20
111.3619763111
 10
171.9317041424
 20
111.4571350208
 10
171.8886167909
 20
111.5471369051
 10
171.8343699392
 20
111.6310169394
 10
171.7689953437
 20
111.7084534487
 10
171.6924612479
 20
111.7797681079
 10
171.6047676518
 20
111.8449609171
  0
LWPOLYLINE
  5
356
100
AcDbEntity
  8
0
100
AcDbPolyline
 62
7
  6
CONTINUOUS
 90
30
 70
0
 10
170.9480594188
 20
112.1608226426
 10
170.8275853331
 20
112.1348907124
 10
170.7134141633
 20
112.1023280521
 10
170.6078418749
 20
112.0620956508
 10
170.5121174222
 20
112.0144728326
 10
170.4249918509
 20
111.9591802734
 10
170.3450142628
 20
111.8943409902
 10
170.2703772439
 20
111.8185130332
 10
170.2028882082
 20
111.7331383522
 10
170.1465185002
 20
111.6406658133
 10
170.1021840615
 20
111.540709246
 10
170.0689689505
 20
111.4336548209
 10
170.0480966867
 20
111.3231099151
 10
170.0400745692
 20
111.2069515956
 10
170.0443952989
 20
111.0873027955
 10
170.0607604982
 20
110.9741396917
 10
170.08956937
 20
110.870449488
 10
170.1304227113
 20
110.7732449807
 10
170.1818245354
 20
110.6835407356
 10
170.2430671614
 20
110.6015399251
 10
170.3148582701
 20
110.5270393767
 10
170.3978249173
 20
110.4604441391
 10
170.4933129304
 20
110.4005602869
 10
170.599976482
 20
110.3485817454
 10
170.7144051453
 20
110.3084953391
 10
170.8395611557
 20
110.2813241339
 10
170.9724822779
 20
110.2660450639
 10
171.1008713792
 20
110.2635757567
 10
171.2218542989
 20
110.2747442463
 10
171.3383051977
 20
110.2987224987
  0
LWPOLYLINE
  5
357
100
AcDbEntity
  8
0
100
AcDbPolyline
 62
7
  6
CONTINUOUS
 90
31
 70
0
 10
171.4713894936
 20
108.3394609171
 10
171.3604077773
 20
108.339197491
 10
171.2536837923
 20
108.3441338165
 10
171.1512175385
 20
108.3542698937
 10
171.0528346974
 20
108.3699541662
 10
170.9587095875
 20
108.3908381903
 10
170.8693651644
 20
108.4158766354
 10
170.7841133772
 20
108.4443172427
 10
170.7036422767
 20
108.4769122711
 10
170.6305389705
 20
108.5148731657
 10
170.5653211719
 20
108.5592625786
 10
170.5074711675
 20
108.6090178579
 10
170.4580229253
 20
108.6621624932
 10
170.4174956113
 20
108.718098367
 10
170.3853700593
 20
108.7774235969
 10
170.3611227388
 20
108.8399560258
 10
170.3447963178
 20
108.9075896326
 10
170.3363481281
 20
108.9784304383
 10
170.335126635
 20
109.0466143493
 10
170.3412950137
 20
109.1110800576
 10
170.3546900888
 20
109.1728888711
 10
170.3741707999
 20
109.2293606198
 10
170.3995123858
 20
109.2794457229
 10
170.4309396076
 20
109.3241937612
 10
170.4679856881
 20
109.3640733063
 10
170.5108417079
 20
109.399021602
 10
170.5593165864
 20
109.4291014045
 10
170.6123703046
 20
109.4549695533
 10
170.6696561894
 20
109.4768449949
 10
170.7315209138
 20
109.4945087829
 10
170.7979644779
 20
109.5079609171
  0
LWPOLYLINE
  5
358
100
AcDbEntity
  8
0
100
AcDbPolyline
 62
7
  6
CONTINUOUS
 90
13
 70
0
 43
0.3500000006
 10
201.3494677734
 20
107.3574646912
 10
200.0637427368
 20
107.3574646912
 10
199.6351737671
 20
107.571749176
 10
199.2066047974
 20
108.0003181458
 10
199.2066047974
 20
108.2146026306
 10
199.6351737671
 20
108.6431716003
 10
200.0637427368
 20
108.8574651489
 10
201.3494677734
 20
108.8574651489
 10
201.7780367432
 20
108.6431716003
 10
202.2066057129
 20
108.2146026306
 10
202.2066057129
 20
108.0003181458
 10
201.7780367432
 20
107.571749176
 10
201.3494677734
 20
107.3574646912
  0
LINE
  5
359
100
AcDbEntity
  8
0
100
AcDbLine
 62
7
  6
CONTINUOUS
 10
153.7847575465
 20
107.7574609171
 11
152.6587325445
 21
107.7574609171
  0
LINE
  5
35A
100
AcDbEntity
  8
0
100
AcDbLine
 62
7
  6
CONTINUOUS
 10
132.5185964114
 20
107.7574609171
 11
131.3925714094
 21
107.7574609171
  0
LINE
  5
35B
100
AcDbEntity
  8
0
100
AcDbLine
 62
7
  6
CONTINUOUS
 10
131.3925714094
 20
109.9574609171
 11
132.5185964114
 21
109.9574609171
  0
LINE
  5
35C
100
AcDbEntity
  8
0
100
AcDbLine
 62
7
  6
CONTINUOUS
 10
152.6587325445
 20
109.9574609171
 11
153.7847575465
 21
109.9574609171
  0
LWPOLYLINE
  5
35D
100
AcDbEntity
  8
0
100
AcDbPolyline
 62
7
  6
CONTINUOUS
 90
28
 70
0
 10
172.0640317153
 20
108.3804609171
 10
171.9773004794
 20
108.383645073
 10
171.8959711064
 20
108.3937952262
 10
171.8200435965
 20
108.4109113768
 10
171.7492319033
 20
108.4352440388
 10
171.6838220731
 20
108.4665426981
 10
171.6246722447
 20
108.5040558129
 10
171.5716428468
 20
108.5482399302
 10
171.5248734508
 20
108.598638503
 10
171.4856409092
 20
108.6531303483
 10
171.4542847133
 20
108.7111304257
 10
171.4304653719
 20
108.7732237755
 10
171.4144412646
 20
108.839044336
 10
171.4062213409
 20
108.9106892505
 10
171.4057966514
 20
108.9860613756
 10
171.4133987263
 20
109.0585032199
 10
171.4290845183
 20
109.1260621119
 10
171.4527970747
 20
109.190690723
 10
171.4845970684
 20
109.2515895753
 10
171.5253400008
 20
109.3095460792
 10
171.5741703705
 20
109.3637728245
 10
171.6285823462
 20
109.4111081024
 10
171.6878122428
 20
109.4507894121
 10
171.7526237454
 20
109.4835792545
 10
171.8228020783
 20
109.508603424
 10
171.8982756496
 20
109.5255705186
 10
171.9791160512
 20
109.5347719402
 10
172.0653232832
 20
109.5362076888
  0
LWPOLYLINE
  5
35E
100
AcDbEntity
  8
0
100
AcDbPolyline
 62
250
  6
CONTINUOUS
 90
10
 70
0
 10
172.665266615
 20
58.4844328442
 10
172.6705304787
 20
58.475972296
 10
172.6756655155
 20
58.467490913
 10
172.6806717254
 20
58.4589886953
 10
172.6855470049
 20
58.4504655944
 10
172.6902934577
 20
58.4419216588
 10
172.6949173939
 20
58.4333570339
 10
172.6994209171
 20
58.4247717681
 10
172.7038019238
 20
58.416165813
 10
172.7080604139
 20
58.4075391686
  0
LWPOLYLINE
  5
35F
100
AcDbEntity
  8
0
100
AcDbPolyline
 62
250
  6
CONTINUOUS
 90
10
 70
0
 10
112.5120623408
 20
159.23048899
 10
112.5067984772
 20
159.2389495382
 10
112.5016634404
 20
159.2474309212
 10
112.4966572305
 20
159.2559331389
 10
112.4917819509
 20
159.2644562398
 10
112.4870354982
 20
159.2730001754
 10
112.482411562
 20
159.2815648003
 10
112.4779080388
 20
159.2901500661
 10
112.4735270321
 20
159.2987560212
 10
112.4692685419
 20
159.3073826655
  0
LINE
  5
360
100
AcDbEntity
  8
RACCORDO
100
AcDbLine
 62
7
  6
CONTINUOUS
 10
115.8503949605
 20
53.8591804101
 11
115.7777470849
 21
53.754920454
  0
LWPOLYLINE
  5
361
100
AcDbEntity
  8
0
100
AcDbPolyline
 62
250
  6
CONTINUOUS
 90
10
 70
0
 10
101.715636405
 20
70.78085878
 10
101.7071758568
 20
70.7755949164
 10
101.6986944738
 20
70.7704598796
 10
101.6901922562
 20
70.7654536697
 10
101.6816691553
 20
70.7605783901
 10
101.6731252196
 20
70.7558319374
 10
101.6645605947
 20
70.7512080012
 10
101.655975329
 20
70.746704478
 10
101.6473693739
 20
70.7423234713
 10
101.6387427295
 20
70.7380649811
  0
LWPOLYLINE
  5
362
100
AcDbEntity
  8
0
100
AcDbPolyline
 62
7
  6
CONTINUOUS
 90
31
 70
0
 10
171.6047676518
 20
111.8449609171
 10
171.7189698894
 20
111.8430900538
 10
171.8287653262
 20
111.8365907526
 10
171.9341539622
 20
111.8254630135
 10
172.0356866307
 20
111.8101496084
 10
172.1328124984
 20
111.7902077653
 10
172.2238790656
 20
111.7643091684
 10
172.3087087996
 20
111.7315068717
 10
172.3874792331
 20
111.6927478211
 10
172.4590704649
 20
111.6495445387
 10
172.5235808166
 20
111.6019485064
 10
172.5809119665
 20
111.5499082423
 10
172.6296490483
 20
111.4947818224
 10
172.6693478108
 20
111.4368691654
 10
172.7004525051
 20
111.3758703527
 10
172.722881018
 20
111.3122437041
 10
172.7362708746
 20
111.2441171845
 10
172.7409845497
 20
111.173362829
 10
172.7380273552
 20
111.1060550635
 10
172.7268369147
 20
111.0435813781
 10
172.7079756044
 20
110.9845542828
 10
172.684135865
 20
110.9308857328
 10
172.6559450398
 20
110.8833562411
 10
172.6227757853
 20
110.8411852948
 10
172.5854385118
 20
110.8039433104
 10
172.5441086452
 20
110.7720381868
 10
172.4986107594
 20
110.7450620251
 10
172.4492289866
 20
110.7213615453
 10
172.3960580375
 20
110.700385654
 10
172.3390032012
 20
110.6826854446
 10
172.2780644779
 20
110.6682609171
  0
LWPOLYLINE
  5
363
100
AcDbEntity
  8
0
100
AcDbPolyline
 62
7
  6
CONTINUOUS
 90
28
 70
0
 10
171.0400566684
 20
111.7875609171
 10
171.1247635421
 20
111.7832962024
 10
171.2040245428
 20
111.771389082
 10
171.2778396706
 20
111.751839556
 10
171.3462429332
 20
111.7243663576
 10
171.4092003228
 20
111.6892507536
 10
171.4666098164
 20
111.647336544
 10
171.5193397187
 20
111.5977567495
 10
171.5665217248
 20
111.5413783495
 10
171.6054488974
 20
111.4816460821
 10
171.6351772855
 20
111.419363858
 10
171.6566508399
 20
111.3537277665
 10
171.6699944763
 20
111.2857708138
 10
171.6751275271
 20
111.213758864
 10
171.6721306599
 20
111.1394260531
 10
171.6613707927
 20
111.0690077942
 10
171.6429208221
 20
111.004555279
 10
171.6167078516
 20
110.9440173159
 10
171.5828801099
 20
110.8874757437
 10
171.5410167196
 20
110.8341298273
 10
171.4915385582
 20
110.7847803017
 10
171.4358564867
 20
110.7419112107
 10
171.3741076364
 20
110.7061220035
 10
171.3061548759
 20
110.6768132309
 10
171.2329976731
 20
110.6546705891
 10
171.1549691838
 20
110.6399226433
 10
171.071736252
 20
110.6323408284
 10
170.9832988777
 20
110.6319251442
  0
LWPOLYLINE
  5
364
100
AcDbEntity
  8
0
100
AcDbPolyline
 62
7
  6
CONTINUOUS
 90
25
 70
0
 10
170.9832988777
 20
110.6319251442
 10
170.8841596263
 20
110.6398086211
 10
170.7925015311
 20
110.6565114281
 10
170.708324592
 20
110.6820335652
 10
170.6311542478
 20
110.7174336012
 10
170.5614650597
 20
110.7616529672
 10
170.5006807122
 20
110.8115159567
 10
170.4489413466
 20
110.8667006722
 10
170.4061068215
 20
110.9275290113
 10
170.3731803964
 20
110.9917909601
 10
170.3503846862
 20
111.0595069424
 10
170.337497076
 20
111.1306565344
 10
170.3348529808
 20
111.2029684515
 10
170.34279421
 20
111.2774279621
 10
170.3609789541
 20
111.3530497977
 10
170.3887172004
 20
111.4246068691
 10
170.4259262987
 20
111.4911664638
 10
170.4726888991
 20
111.5536612941
 10
170.5285629391
 20
111.6096624073
 10
170.5939272358
 20
111.6589854192
 10
170.6684029721
 20
111.701814714
 10
170.7504116348
 20
111.7362744912
 10
170.8394270529
 20
111.761739484
 10
170.9359753974
 20
111.7788349593
 10
171.0400566684
 20
111.7875609171
  0
LWPOLYLINE
  5
365
100
AcDbEntity
  8
0
100
AcDbPolyline
 62
7
  6
CONTINUOUS
 90
25
 70
0
 10
172.0653232832
 20
109.5362076888
 10
172.1670888525
 20
109.5272655848
 10
172.2613759457
 20
109.5087576571
 10
172.3481845626
 20
109.4806839058
 10
172.4280878707
 20
109.4416650272
 10
172.5005127026
 20
109.393080325
 10
172.563739556
 20
109.3390677095
 10
172.6175415054
 20
109.2802321684
 10
172.6621454763
 20
109.2159687139
 10
172.6965127437
 20
109.1486002933
 10
172.7201651114
 20
109.0775679021
 10
172.7335807755
 20
109.0034305447
 10
172.7371555991
 20
108.9301881816
 10
172.7310382361
 20
108.8582921037
 10
172.7150800325
 20
108.78729102
 10
172.6892308897
 20
108.7198310178
 10
172.6529636653
 20
108.6558261048
 10
172.6068055016
 20
108.5953622733
 10
172.5522877265
 20
108.5413435871
 10
172.4895007893
 20
108.4939205388
 10
172.4183542408
 20
108.4529426357
 10
172.3401080611
 20
108.4208624635
 10
172.2551822436
 20
108.3984975506
 10
172.163156795
 20
108.3850303684
 10
172.0640317153
 20
108.3804609171
  0
LWPOLYLINE
  5
366
100
AcDbEntity
  8
0
100
AcDbPolyline
 62
7
  6
CONTINUOUS
 90
16
 70
0
 10
113.1886644779
 20
158.8574609171
 10
113.1530039324
 20
158.9064932455
 10
113.115522056
 20
158.9518310958
 10
113.0762188487
 20
158.993468886
 10
113.0348767198
 20
159.0313499478
 10
112.99171326
 20
159.0656028904
 10
112.9473812412
 20
159.0964774366
 10
112.9019691473
 20
159.1239935759
 10
112.8553884945
 20
159.1481890724
 10
112.8080266034
 20
159.1692465308
 10
112.7598706504
 20
159.1871859825
 10
112.710933459
 20
159.2019920758
 10
112.6616408211
 20
159.2137200756
 10
112.6121346671
 20
159.2223784288
 10
112.5622730664
 20
159.2279619524
 10
112.5120560192
 20
159.23048899
  0
LWPOLYLINE
  5
367
100
AcDbEntity
  8
RACCORDO
100
AcDbPolyline
 62
250
  6
CONTINUOUS
 90
19
 70
0
 10
155.7835193483
 20
56.152270096
 10
155.7846682839
 20
56.1261324106
 10
155.7880904275
 20
56.1001935717
 10
155.7937597446
 20
56.074650913
 10
155.8016331051
 20
56.0496987542
 10
155.8116506112
 20
56.0255269227
 10
155.823736053
 20
56.0023193095
 10
155.8377974888
 20
55.9802524701
 10
155.853727944
 20
55.9594942814
 10
155.8714062252
 20
55.9402026644
 10
155.8906978422
 20
55.9225243832
 10
155.9114560309
 20
55.906593928
 10
155.9335228704
 20
55.8925324922
 10
155.9567304836
 20
55.8804470503
 10
155.980902315
 20
55.8704295443
 10
156.0058544738
 20
55.8625561838
 10
156.0313971325
 20
55.8568868666
 10
156.0573359715
 20
55.853464723
 10
156.0834736569
 20
55.8523157875
  0
LINE
  5
368
100
AcDbEntity
  8
RACCORDO
100
AcDbLine
 62
7
  6
CONTINUOUS
 10
155.6490239585
 20
56.0177747062
 11
155.6490239585
 21
56.9161497065
  0
LINE
  5
369
100
AcDbEntity
  8
RACCORDO
100
AcDbLine
 62
250
  6
CONTINUOUS
 10
155.7835193483
 20
56.152270096
 11
155.7835193483
 21
57.7902183437
  0
LINE
  5
36A
100
AcDbEntity
  8
RACCORDO
100
AcDbLine
 62
250
  6
CONTINUOUS
 10
156.0834736569
 20
55.8523157875
 11
156.0834736569
 21
57.7876459748
  0
LINE
  5
36B
100
AcDbEntity
  8
RACCORDO
100
AcDbLine
 62
250
  6
CONTINUOUS
 10
158.2973158464
 20
45.0488857011
 11
158.2973158464
 21
54.3660361331
  0
LINE
  5
36C
100
AcDbEntity
  8
RACCORDO
100
AcDbLine
 62
250
  6
CONTINUOUS
 10
158.493855299
 20
57.7876459748
 11
158.493855299
 21
55.8523157875
  0
LINE
  5
36D
100
AcDbEntity
  8
RACCORDO
100
AcDbLine
 62
250
  6
CONTINUOUS
 10
158.7938096076
 20
57.7902183437
 11
158.7938096076
 21
56.152270096
  0
LINE
  5
36E
100
AcDbEntity
  8
RACCORDO
100
AcDbLine
 62
250
  6
CONTINUOUS
 10
158.797239694
 20
53.8661122855
 11
158.797239694
 21
45.5488095487
  0
LINE
  5
36F
100
AcDbEntity
  8
RACCORDO
100
AcDbLine
 62
7
  6
CONTINUOUS
 10
158.8759398026
 20
45.47010944
 11
158.8759398026
 21
53.9448123942
  0
LINE
  5
370
100
AcDbEntity
  8
RACCORDO
100
AcDbLine
 62
7
  6
CONTINUOUS
 10
158.9283049974
 20
56.9161497065
 11
158.9283049974
 21
56.0177747062
  0
LINE
  5
371
100
AcDbEntity
  8
0
100
AcDbLine
 62
7
  6
CONTINUOUS
 10
159.0886644779
 20
143.2574609171
 11
159.0886644779
 21
143.4574609171
  0
LINE
  5
372
100
AcDbEntity
  8
RACCORDO
100
AcDbLine
 62
7
  6
CONTINUOUS
 10
162.3162824759
 20
53.6850789151
 11
162.3162824759
 21
56.9161497065
  0
LINE
  5
373
100
AcDbEntity
  8
RACCORDO
100
AcDbLine
 62
7
  6
CONTINUOUS
 10
162.3861240149
 20
56.7373281761
 11
162.3861240149
 21
57.8500013801
  0
LINE
  5
374
100
AcDbEntity
  8
ASSI
100
AcDbLine
 62
7
  6
CONTINUOUS
 10
163.0886644779
 20
166.8434437146
 11
163.0886644779
 21
168.1574355003
  0
LINE
  5
375
100
AcDbEntity
  8
DRAFT
100
AcDbLine
 62
7
  6
CONTINUOUS
 10
162.5697249984
 20
54.0023483539
 11
162.5761573616
 21
56.1077500654
  0
LWPOLYLINE
  5
376
100
AcDbEntity
  8
RACCORDO
100
AcDbPolyline
 62
250
  6
CONTINUOUS
 90
22
 70
0
 10
158.797239694
 20
45.5488095487
 10
158.7958309704
 20
45.5114574217
 10
158.7916354285
 20
45.4743141021
 10
158.7846765226
 20
45.4375872297
 10
158.7749931544
 20
45.4014821165
 10
158.7626394564
 20
45.3662005988
 10
158.7476844886
 20
45.3319399085
 10
158.7302118529
 20
45.2988915712
 10
158.7103192255
 20
45.2672403349
 10
158.6881178108
 20
45.2371631376
 10
158.6637317202
 20
45.2088281178
 10
158.6372972775
 20
45.1823936751
 10
158.6089622577
 20
45.1580075844
 10
158.5788850603
 20
45.1358061697
 10
158.547233824
 20
45.1159135423
 10
158.5141854867
 20
45.0984409066
 10
158.4799247964
 20
45.0834859388
 10
158.4446432787
 20
45.0711322407
 10
158.4085381655
 20
45.0614488725
 10
158.3718112931
 20
45.0544899665
 10
158.3346679734
 20
45.0502944247
 10
158.2973158464
 20
45.0488857011
  0
LINE
  5
377
100
AcDbEntity
  8
RACCORDO
100
AcDbLine
 62
7
  6
CONTINUOUS
 10
115.3861240149
 20
53.754920454
 11
115.3162824759
 21
53.6850789151
  0
LINE
  5
378
100
AcDbEntity
  8
DRAFT
100
AcDbLine
 62
7
  6
CONTINUOUS
 10
117.0802465278
 20
53.6850789151
 11
117.1500880668
 21
53.754920454
  0
LINE
  5
379
100
AcDbEntity
  8
DRAFT
100
AcDbLine
 62
7
  6
CONTINUOUS
 10
117.1500880668
 20
50.168884506
 11
117.0802465278
 21
50.099042967
  0
LWPOLYLINE
  5
37A
100
AcDbEntity
  8
0
100
AcDbPolyline
 62
7
  6
CONTINUOUS
 90
14
 70
0
 10
142.4565428238
 20
145.2715316615
 10
142.4073760707
 20
145.3536201208
 10
142.3528060534
 20
145.4266741827
 10
142.2914733903
 20
145.4913566049
 10
142.221834813
 20
145.5488170545
 10
142.1430831904
 20
145.6003184858
 10
142.0560256538
 20
145.6445979443
 10
141.9615403282
 20
145.6790162336
 10
141.8584576844
 20
145.703499473
 10
141.7479472516
 20
145.718121543
 10
141.6343957434
 20
145.7204648896
 10
141.5192653977
 20
145.7097236612
 10
141.4010939765
 20
145.6867037094
 10
141.27988148
 20
145.651405034
  0
LWPOLYLINE
  5
37B
100
AcDbEntity
  8
0
100
AcDbPolyline
 62
7
  6
CONTINUOUS
 90
30
 70
0
 10
140.7847342826
 20
144.3312078293
 10
140.8411715975
 20
144.2308114013
 10
140.9030963813
 20
144.1413846284
 10
140.9705086341
 20
144.0629275105
 10
141.0430069059
 20
143.9957891346
 10
141.1209926467
 20
143.9396204136
 10
141.2056702066
 20
143.8933740871
 10
141.2979227802
 20
143.8563330234
 10
141.396867173
 20
143.829214354
 10
141.501058151
 20
143.8131222128
 10
141.6134982637
 20
143.80841509
 10
141.7311849617
 20
143.8147344953
 10
141.8436653629
 20
143.8321090918
 10
141.948230314
 20
143.8612189618
 10
142.0475889683
 20
143.901384023
 10
142.1394159043
 20
143.9505926905
 10
142.2234063835
 20
144.0088858509
 10
142.2998651444
 20
144.0762226178
 10
142.3673809809
 20
144.1504687466
 10
142.4258093768
 20
144.2306177924
 10
142.4752948483
 20
144.3176762002
 10
142.5148597378
 20
144.4125290608
 10
142.544545123
 20
144.5178425707
 10
142.5643099263
 20
144.6309505335
 10
142.5730532563
 20
144.7447394508
 10
142.5698334991
 20
144.8595761521
 10
142.5555922686
 20
144.975093808
 10
142.5320535155
 20
145.0830784314
 10
142.498946931
 20
145.1810715626
 10
142.4565428238
 20
145.2715316615
  0
LWPOLYLINE
  5
37C
100
AcDbEntity
  8
0
100
AcDbPolyline
 62
7
  6
CONTINUOUS
 90
33
 70
0
 10
143.0475169545
 20
144.4029347568
 10
143.0995636907
 20
144.2966481527
 10
143.1576142591
 20
144.2011485486
 10
143.2216686599
 20
144.1164359445
 10
143.2914058551
 20
144.0428733713
 10
143.3671468826
 20
143.9800977981
 10
143.4498548561
 20
143.9270201321
 10
143.5414987321
 20
143.8832424163
 10
143.6401095541
 20
143.8491626077
 10
143.7407435657
 20
143.8248854843
 10
143.8439538588
 20
143.8112323422
 10
143.9491873414
 20
143.8073818855
 10
144.0498409816
 20
143.8109750046
 10
144.1440734284
 20
143.8217317862
 10
144.2337260327
 20
143.8399321437
 10
144.3177198154
 20
143.8640567077
 10
144.3956424848
 20
143.8942185317
 10
144.4679063325
 20
143.9303045621
 10
144.5346692536
 20
143.9704562685
 10
144.5956721744
 20
144.0130624796
 10
144.6511741687
 20
144.0597343667
 10
144.7021103523
 20
144.1134469126
 10
144.7497837482
 20
144.1751644978
 10
144.7928913334
 20
144.2439227419
 10
144.8284591557
 20
144.3198034861
 10
144.8560345644
 20
144.4041839162
 10
144.8760702102
 20
144.4956868465
 10
144.8869500924
 20
144.5902625607
 10
144.8883484228
 20
144.68944422
 10
144.8805909896
 20
144.7916986633
 10
144.8630391567
 20
144.8883766901
 10
144.8349194641
 20
144.9773108327
 10
144.7970053718
 20
145.060668559
  0
LWPOLYLINE
  5
37D
100
AcDbEntity
  8
RACCORDO
100
AcDbPolyline
 62
7
  6
CONTINUOUS
 90
7
 70
0
 10
169.2732951074
 20
54.0023483539
 10
169.2752281539
 20
53.9854794027
 10
169.2808855816
 20
53.9581786765
 10
169.2889013054
 20
53.9318110026
 10
169.2992205716
 20
53.9066684148
 10
169.311898134
 20
53.8824583016
 10
169.3269339926
 20
53.8591804153
  0
LINE
  5
37E
100
AcDbEntity
  8
DRAFT
100
AcDbLine
 62
7
  6
CONTINUOUS
 10
165.896275337
 20
50.6214350958
 11
165.9041746369
 21
50.168884506
  0
LINE
  5
37F
100
AcDbEntity
  8
DRAFT
100
AcDbLine
 62
7
  6
CONTINUOUS
 10
167.8351603297
 20
52.2044172601
 11
167.8296673419
 21
54.0023483539
  0
LINE
  5
380
100
AcDbEntity
  8
DRAFT
100
AcDbLine
 62
7
  6
CONTINUOUS
 10
164.0802465278
 20
50.099042967
 11
164.0802465278
 21
53.6850789151
  0
LINE
  5
381
100
AcDbEntity
  8
DRAFT
100
AcDbLine
 62
7
  6
CONTINUOUS
 10
164.1500880668
 20
50.168884506
 11
164.1500880668
 21
53.754920454
  0
LINE
  5
382
100
AcDbEntity
  8
0
100
AcDbLine
 62
250
  6
CONTINUOUS
 10
166.4886644779
 20
58.3895979769
 11
166.4886644846
 21
58.8574609171
  0
LINE
  5
383
100
AcDbEntity
  8
DRAFT
100
AcDbLine
 62
7
  6
CONTINUOUS
 10
168.0272408891
 20
53.754920454
 11
168.0272408891
 21
50.168884506
  0
LINE
  5
384
100
AcDbEntity
  8
DRAFT
100
AcDbLine
 62
7
  6
CONTINUOUS
 10
168.097082428
 20
53.6850789151
 11
168.097082428
 21
50.099042967
  0
LINE
  5
385
100
AcDbEntity
  8
DRAFT
100
AcDbLine
 62
7
  6
CONTINUOUS
 10
164.3463024066
 20
53.5574609171
 11
164.347661614
 21
54.0023483539
  0
LINE
  5
386
100
AcDbEntity
  8
RACCORDO
100
AcDbLine
 62
7
  6
CONTINUOUS
 10
165.2878050098
 20
51.0328489707
 11
165.2604841189
 21
50.2504810178
  0
LINE
  5
387
100
AcDbEntity
  8
RACCORDO
100
AcDbLine
 62
250
  6
CONTINUOUS
 10
126.3886644779
 20
56.3573847647
 11
126.2490239585
 21
56.2177442452
  0
LINE
  5
388
100
AcDbEntity
  8
RACCORDO
100
AcDbLine
 62
250
  6
CONTINUOUS
 10
126.8800131095
 20
55.8488857011
 11
126.7489478061
 21
55.7178203977
  0
LINE
  5
389
100
AcDbEntity
  8
RACCORDO
100
AcDbLine
 62
7
  6
CONTINUOUS
 10
115.40312734
 20
53.8774223206
 11
115.5697249984
 21
54.0023483539
  0
LWPOLYLINE
  5
38A
100
AcDbEntity
  8
0
100
AcDbPolyline
 62
7
  6
CONTINUOUS
 90
5
 70
0
 10
112.9849654731
 20
159.1190739659
 10
113.0118653854
 20
159.0953445257
 10
113.080523653
 20
159.0235948864
 10
113.1397596767
 20
158.9438901582
 10
113.1886603821
 20
158.8574589246
  0
LWPOLYLINE
  5
38B
100
AcDbEntity
  8
0
100
AcDbPolyline
 62
7
  6
CONTINUOUS
 90
8
 70
0
 10
144.7970053718
 20
145.060668559
 10
144.750978624
 20
145.1363030719
 10
144.697530825
 20
145.203509884
 10
144.6359703706
 20
145.2629934827
 10
144.565904192
 20
145.314720534
 10
144.4872012665
 20
145.3586799265
 10
144.3999926168
 20
145.3948827716
 10
144.304278243
 20
145.4233290693
  0
LINE
  5
38C
100
AcDbEntity
  8
0
100
AcDbLine
 62
7
  6
CONTINUOUS
 10
170.7979644779
 20
109.5079609171
 11
170.7692644779
 21
109.8523609171
  0
LINE
  5
38D
100
AcDbEntity
  8
0
100
AcDbLine
 62
7
  6
CONTINUOUS
 10
172.2780644779
 20
110.6682609171
 11
172.3067644779
 21
110.3115609171
  0
LINE
  5
38E
100
AcDbEntity
  8
DRAFT
100
AcDbLine
 62
7
  6
CONTINUOUS
 10
169.6011715943
 20
56.1077500654
 11
169.6076039575
 21
54.0023483539
  0
LINE
  5
38F
100
AcDbEntity
  8
0
100
AcDbLine
 62
7
  6
CONTINUOUS
 10
168.9886644779
 20
133.3574609171
 11
168.9886644779
 21
84.3574609171
  0
LINE
  5
390
100
AcDbEntity
  8
0
100
AcDbLine
 62
7
  6
CONTINUOUS
 10
169.1886644779
 20
84.3574609171
 11
169.1886644779
 21
133.3574609171
  0
LINE
  5
391
100
AcDbEntity
  8
0
100
AcDbLine
 62
7
  6
CONTINUOUS
 10
169.5886644779
 20
159.8574609171
 11
169.5886644779
 21
168.1574509574
  0
LINE
  5
392
100
AcDbEntity
  8
RACCORDO
100
AcDbLine
 62
7
  6
CONTINUOUS
 10
169.791204941
 20
57.8500013801
 11
169.791204941
 21
56.7373281761
  0
LINE
  5
393
100
AcDbEntity
  8
RACCORDO
100
AcDbLine
 62
7
  6
CONTINUOUS
 10
169.86104648
 20
56.9161497065
 11
169.86104648
 21
53.6850789151
  0
LINE
  5
394
100
AcDbEntity
  8
0
100
AcDbLine
 62
250
  6
CONTINUOUS
 10
171.6886644779
 20
58.3895979769
 11
171.6886644779
 21
58.8574609171
  0
LWPOLYLINE
  5
395
100
AcDbEntity
  8
ASSI
100
AcDbPolyline
 62
7
  6
CONTINUOUS
 90
18
 70
0
 10
183.7046530495
 20
120.3574609171
 10
183.6915456031
 20
120.332594267
 10
183.6784381566
 20
120.2586233336
 10
183.6654979002
 20
120.1364916417
 10
183.6527269755
 20
119.9655822612
 10
183.6401232409
 20
119.7465121223
 10
183.6278474613
 20
119.482075541
 10
183.6159038379
 20
119.1716913816
 10
183.6042881695
 20
118.8159407798
 10
183.5931486181
 20
118.4193614586
 10
183.5824912827
 20
117.9814304096
 10
183.5723100642
 20
117.502670641
 10
183.5627348277
 20
116.9891889007
 10
183.5537733357
 20
116.4405404067
 10
183.5454178256
 20
115.8571699408
 10
183.537774875
 20
115.2465185968
 10
183.5308536115
 20
114.6082369117
 10
183.5192279569
 20
113.2583203893
  0
LINE
  5
396
100
AcDbEntity
  8
RACCORDO
100
AcDbLine
 62
250
  6
CONTINUOUS
 10
126.3800892619
 20
45.5488095487
 11
126.3013891533
 21
45.47010944
  0
LINE
  5
397
100
AcDbEntity
  8
DRAFT
100
AcDbLine
 62
7
  6
CONTINUOUS
 10
122.791204941
 20
56.2502497406
 11
122.6011715943
 21
56.1077500654
  0
LINE
  5
398
100
AcDbEntity
  8
0
100
AcDbLine
 62
7
  6
CONTINUOUS
 10
169.1886644779
 20
133.3574609171
 11
168.9886644779
 21
133.3574609171
  0
LINE
  5
399
100
AcDbEntity
  8
DRAFT
100
AcDbLine
 62
7
  6
CONTINUOUS
 10
124.5886644779
 20
166.9574609171
 11
124.5410843924
 21
167.0050410026
  0
LWPOLYLINE
  5
39A
100
AcDbEntity
  8
0
100
AcDbPolyline
 62
7
  6
CONTINUOUS
 90
10
 70
0
 10
142.0913839154
 20
145.2563211363
 10
142.1276271448
 20
145.2158791183
 10
142.1604911829
 20
145.1709396647
 10
142.1899760298
 20
145.1215027754
 10
142.2164729057
 20
145.0671159389
 10
142.2395905905
 20
145.0082316666
 10
142.258155423
 20
144.9462074933
 10
142.271776183
 20
144.8814959305
 10
142.2808440908
 20
144.8136444666
 10
142.2853591464
 20
144.7426531016
  0
LINE
  5
39B
100
AcDbEntity
  8
DRAFT
100
AcDbLine
 62
7
  6
CONTINUOUS
 10
176.3128744521
 20
63.8574609171
 11
176.3128744521
 21
59.5842653089
  0
LINE
  5
39C
100
AcDbEntity
  8
DRAFT
100
AcDbLine
 62
7
  6
CONTINUOUS
 10
176.3128744521
 20
153.8574609171
 11
176.3128744521
 21
158.1306565253
  0
LINE
  5
39D
100
AcDbEntity
  8
DRAFT
100
AcDbLine
 62
7
  6
CONTINUOUS
 10
176.5886644779
 20
63.8574609171
 11
176.5886644779
 21
59.8574609171
  0
LINE
  5
39E
100
AcDbEntity
  8
DRAFT
100
AcDbLine
 62
7
  6
CONTINUOUS
 10
176.5886644779
 20
153.8574609171
 11
176.5886644779
 21
157.8574609171
  0
LINE
  5
39F
100
AcDbEntity
  8
DRAFT
100
AcDbLine
 62
250
  6
CONTINUOUS
 10
178.0886644779
 20
152.3574609171
 11
178.0886644779
 21
152.0816708912
  0
LINE
  5
3A0
100
AcDbEntity
  8
RACCORDO
100
AcDbLine
 62
250
  6
CONTINUOUS
 10
178.0886644779
 20
43.9937627516
 11
178.0886644779
 21
42.9937627516
  0
LINE
  5
3A1
100
AcDbEntity
  8
RACCORDO
100
AcDbLine
 62
250
  6
CONTINUOUS
 10
178.0886644779
 20
56.9161497065
 11
178.0886644779
 21
59.8574609171
  0
LINE
  5
3A2
100
AcDbEntity
  8
DRAFT
100
AcDbLine
 62
250
  6
CONTINUOUS
 10
178.0886644779
 20
65.3574609171
 11
178.0886644779
 21
65.633250943
  0
LINE
  5
3A3
100
AcDbEntity
  8
RACCORDO
100
AcDbLine
 62
250
  6
CONTINUOUS
 10
178.0886644779
 20
157.8574609171
 11
178.0886644779
 21
159.8574609171
  0
LINE
  5
3A4
100
AcDbEntity
  8
RACCORDO
100
AcDbLine
 62
250
  6
CONTINUOUS
 10
126.8800131095
 20
45.0488857011
 11
126.8013130009
 21
44.9701855925
  0
LWPOLYLINE
  5
3A5
100
AcDbEntity
  8
0
100
AcDbPolyline
 62
7
  6
CONTINUOUS
 90
17
 70
0
 10
131.0886650272
 20
58.2414111956
 10
131.113531128
 20
58.254579792
 10
131.1875020615
 20
58.2676872384
 10
131.3096337533
 20
58.2806274948
 10
131.4805431338
 20
58.2933984195
 10
131.6996132727
 20
58.3060021541
 10
131.9640498541
 20
58.3182779337
 10
132.2744340134
 20
58.3302215571
 10
132.6301846152
 20
58.3418372255
 10
133.0267639365
 20
58.3529767769
 10
133.4646949855
 20
58.3636341123
 10
133.943454754
 20
58.3738153308
 10
134.4569364943
 20
58.3833905673
 10
135.0055849884
 20
58.3923520594
 10
135.5889554542
 20
58.4007075694
 10
136.1996067982
 20
58.4083505201
 10
136.8378884834
 20
58.4152717836
  0
LINE
  5
3A6
100
AcDbEntity
  8
RACCORDO
100
AcDbLine
 62
250
  6
CONTINUOUS
 10
115.8999733521
 20
53.8831383909
 11
115.8503949598
 21
53.8591804087
  0
LINE
  5
3A7
100
AcDbEntity
  8
RACCORDO
100
AcDbLine
 62
250
  6
CONTINUOUS
 10
115.9615792419
 20
53.9125376514
 11
115.8999733521
 21
53.8831383909
  0
LINE
  5
3A8
100
AcDbEntity
  8
RACCORDO
100
AcDbLine
 62
250
  6
CONTINUOUS
 10
115.991126432
 20
53.9264959093
 11
115.9615792419
 21
53.9125376514
  0
LINE
  5
3A9
100
AcDbEntity
  8
0
100
AcDbLine
 62
250
  6
CONTINUOUS
 10
183.5565274182
 20
140.7574609171
 11
183.088664478
 21
140.7574609237
  0
LWPOLYLINE
  5
3AA
100
AcDbEntity
  8
0
100
AcDbPolyline
 62
7
  6
CONTINUOUS
 90
10
 70
0
 10
144.3753707464
 20
145.1440196093
 10
144.4179292266
 20
145.1133009019
 10
144.4567242318
 20
145.0764336947
 10
144.491755762
 20
145.0334179875
 10
144.5238152105
 20
144.9834811762
 10
144.5521111841
 20
144.9273958649
 10
144.5742695024
 20
144.8674798671
 10
144.5894987723
 20
144.8045057871
 10
144.5985903869
 20
144.7377010205
 10
144.6015443464
 20
144.6670655673
  0
LWPOLYLINE
  5
3AB
100
AcDbEntity
  8
ASSI
100
AcDbPolyline
 62
7
  6
CONTINUOUS
 90
17
 70
0
 10
183.5308536115
 20
103.1066849225
 10
183.537774875
 20
102.4684032374
 10
183.5454178256
 20
101.8577518934
 10
183.5537733357
 20
101.2743814275
 10
183.5627348277
 20
100.7257329335
 10
183.5723100642
 20
100.2122511932
 10
183.5824912827
 20
99.7334914246
 10
183.5931486181
 20
99.2955603756
 10
183.6042881695
 20
98.8989810544
 10
183.6159038379
 20
98.5432304526
 10
183.6278474613
 20
98.2328462932
 10
183.6401232409
 20
97.9684097119
 10
183.6527269755
 20
97.749339573
 10
183.6654979002
 20
97.5784301925
 10
183.6784381566
 20
97.4562985006
 10
183.6915456031
 20
97.3823275671
 10
183.7046530495
 20
97.3574609171
  0
LINE
  5
3AC
100
AcDbEntity
  8
ASSI
100
AcDbLine
 62
7
  6
CONTINUOUS
 10
183.5192279569
 20
104.4566014449
 11
183.5308536115
 21
103.1066849225
  0
LINE
  5
3AD
100
AcDbEntity
  8
ASSI
100
AcDbLine
 62
7
  6
CONTINUOUS
 10
183.5107896011
 20
105.8821649787
 11
183.5192279569
 21
104.4566014449
  0
LINE
  5
3AE
100
AcDbEntity
  8
ASSI
100
AcDbLine
 62
7
  6
CONTINUOUS
 10
183.5056808181
 20
107.3521886778
 11
183.5107896011
 21
105.8821649787
  0
LINE
  5
3AF
100
AcDbEntity
  8
0
100
AcDbLine
 62
250
  6
CONTINUOUS
 10
183.5553175023
 20
146.3268507945
 11
183.5564813616
 21
146.0325206815
  0
LINE
  5
3B0
100
AcDbEntity
  8
ASSI
100
AcDbLine
 62
7
  6
CONTINUOUS
 10
183.5039503755
 20
108.8574609171
 11
183.5056808181
 21
107.3521886778
  0
LINE
  5
3B1
100
AcDbEntity
  8
DRAFT
100
AcDbLine
 62
7
  6
CONTINUOUS
 10
182.0886644779
 20
153.8574609171
 11
182.0886644779
 21
152.3574609171
  0
LINE
  5
3B2
100
AcDbEntity
  8
DRAFT
100
AcDbLine
 62
7
  6
CONTINUOUS
 10
182.0886644779
 20
63.8574609171
 11
182.0886644779
 21
65.3574609171
  0
LINE
  5
3B3
100
AcDbEntity
  8
RACCORDO
100
AcDbLine
 62
250
  6
CONTINUOUS
 10
182.3618600862
 20
65.633250943
 11
182.3618600862
 21
152.0816708912
  0
LINE
  5
3B4
100
AcDbEntity
  8
RACCORDO
100
AcDbLine
 62
7
  6
CONTINUOUS
 10
182.3644544504
 20
153.8574609171
 11
182.3644544504
 21
152.0816709446
  0
LINE
  5
3B5
100
AcDbEntity
  8
RACCORDO
100
AcDbLine
 62
7
  6
CONTINUOUS
 10
182.3644544504
 20
63.8574609171
 11
182.3644544504
 21
65.6332508896
  0
LINE
  5
3B6
100
AcDbEntity
  8
RACCORDO
100
AcDbLine
 62
250
  6
CONTINUOUS
 10
182.9523626435
 20
48.8574609171
 11
182.9523626435
 21
58.9675928935
  0
LINE
  5
3B7
100
AcDbEntity
  8
0
100
AcDbLine
 62
7
  6
CONTINUOUS
 10
183.0886644779
 20
140.4574609171
 11
183.0886644779
 21
146.2574609171
  0
LINE
  5
3B8
100
AcDbEntity
  8
0
100
AcDbLine
 62
250
  6
CONTINUOUS
 10
183.4616925508
 20
63.8574609171
 11
183.4616925508
 21
139.7808587756
  0
LINE
  5
3B9
100
AcDbEntity
  8
0
100
AcDbLine
 62
250
  6
CONTINUOUS
 10
183.4616925508
 20
146.9340630542
 11
183.4616925508
 21
153.8574609171
  0
LINE
  5
3BA
100
AcDbEntity
  8
0
100
AcDbLine
 62
250
  6
CONTINUOUS
 10
183.5564813616
 20
146.0325206815
 11
183.5565274182
 21
140.7574609171
  0
LINE
  5
3BB
100
AcDbEntity
  8
ASSI
100
AcDbLine
 62
7
  6
CONTINUOUS
 10
183.5056808181
 20
110.3627331564
 11
183.5039503755
 21
108.8574609171
  0
LINE
  5
3BC
100
AcDbEntity
  8
ASSI
100
AcDbLine
 62
7
  6
CONTINUOUS
 10
183.5107896011
 20
111.8327568555
 11
183.5056808181
 21
110.3627331564
  0
LINE
  5
3BD
100
AcDbEntity
  8
0
100
AcDbLine
 62
250
  6
CONTINUOUS
 10
183.5565274182
 20
140.7574609171
 11
183.5557556643
 21
140.4608711045
  0
LINE
  5
3BE
100
AcDbEntity
  8
ASSI
100
AcDbLine
 62
7
  6
CONTINUOUS
 10
183.5192279569
 20
113.2583203893
 11
183.5107896011
 21
111.8327568555
  0
LINE
  5
3BF
100
AcDbEntity
  8
0
100
AcDbLine
 62
250
  6
CONTINUOUS
 10
183.5557556643
 20
140.4608711045
 11
183.5541559004
 21
140.249145028
  0
LINE
  5
3C0
100
AcDbEntity
  8
0
100
AcDbLine
 62
250
  6
CONTINUOUS
 10
183.5541559004
 20
140.249145028
 11
183.5517388025
 21
140.0617534265
  0
LINE
  5
3C1
100
AcDbEntity
  8
0
100
AcDbLine
 62
250
  6
CONTINUOUS
 10
183.5517388025
 20
140.0617534265
 11
183.5497358436
 21
139.956198018
  0
LWPOLYLINE
  5
3C2
100
AcDbEntity
  8
0
100
AcDbPolyline
 62
250
  6
CONTINUOUS
 90
9
 70
0
 10
183.5497358436
 20
139.956198018
 10
183.5474782478
 20
139.8696904132
 10
183.5462802657
 20
139.8341984147
 10
183.5450438493
 20
139.8042885323
 10
183.543769582
 20
139.7797897041
 10
183.5424840295
 20
139.760898298
 10
183.541196047
 20
139.7476797702
 10
183.5398967793
 20
139.7400686645
 10
183.5385862264
 20
139.7380649811
  0
LWPOLYLINE
  5
3C3
100
AcDbEntity
  8
0
100
AcDbPolyline
 62
250
  6
CONTINUOUS
 90
7
 70
0
 10
183.5385976545
 20
146.9768568527
 10
183.5324453294
 20
146.8777277636
 10
183.5140582335
 20
146.7801269398
 10
183.4837197881
 20
146.6855588133
 10
183.4418976338
 20
146.5954810698
 10
183.3892364228
 20
146.5112821794
 10
183.3509320948
 20
146.4619376184
  0
LWPOLYLINE
  5
3C4
100
AcDbEntity
  8
0
100
AcDbPolyline
 62
250
  6
CONTINUOUS
 90
10
 70
0
 10
165.4692685419
 20
58.4075391686
 10
165.4735270288
 20
58.4161658101
 10
165.4779080334
 20
58.4247717631
 10
165.4824115558
 20
58.4333570276
 10
165.4870354931
 20
58.4419216524
 10
165.4917819482
 20
58.4504655888
 10
165.4966572292
 20
58.4589886907
 10
165.501663439
 20
58.4674909096
 10
165.5067984747
 20
58.4759722941
 10
165.5120623364
 20
58.4844328442
  0
LWPOLYLINE
  5
3C5
100
AcDbEntity
  8
ASSI
100
AcDbPolyline
 62
7
  6
CONTINUOUS
 90
18
 70
0
 10
183.7046530495
 20
97.3574609171
 10
183.717760496
 20
97.3823275671
 10
183.7308679424
 20
97.4562985006
 10
183.7438081988
 20
97.5784301925
 10
183.7565791235
 20
97.749339573
 10
183.7691828581
 20
97.9684097119
 10
183.7814586377
 20
98.2328462932
 10
183.7934022611
 20
98.5432304526
 10
183.8050179295
 20
98.8989810544
 10
183.8161574809
 20
99.2955603756
 10
183.8268148163
 20
99.7334914246
 10
183.8369960348
 20
100.2122511932
 10
183.8465712713
 20
100.7257329335
 10
183.8555327634
 20
101.2743814275
 10
183.8638882734
 20
101.8577518934
 10
183.8715312241
 20
102.4684032374
 10
183.8784524876
 20
103.1066849225
 10
183.8900781422
 20
104.4566014449
  0
LINE
  5
3C6
100
AcDbEntity
  8
RACCORDO
100
AcDbLine
 62
7
  6
CONTINUOUS
 10
129.5283049974
 20
57.8574609171
 11
129.3886644779
 21
57.7876459748
  0
LWPOLYLINE
  5
3C7
100
AcDbEntity
  8
0
100
AcDbPolyline
 62
7
  6
CONTINUOUS
 90
10
 70
0
 10
143.7211954779
 20
145.2735327774
 10
143.8053298074
 20
145.2760094771
 10
143.8868538542
 20
145.274361816
 10
143.9657676182
 20
145.2685897942
 10
144.0424067854
 20
145.2588166146
 10
144.1164356698
 20
145.2449190743
 10
144.1868472139
 20
145.2265275645
 10
144.2533057318
 20
145.2035188823
 10
144.3161469093
 20
145.1760162305
 10
144.3753707464
 20
145.1440196093
  0
LINE
  5
3C8
100
AcDbEntity
  8
0
100
AcDbLine
 62
7
  6
CONTINUOUS
 10
126.0886644779
 20
143.2574609171
 11
159.0886644779
 21
143.2574609171
  0
LINE
  5
3C9
100
AcDbEntity
  8
0
100
AcDbLine
 62
7
  6
CONTINUOUS
 10
159.0886644779
 20
143.4574609171
 11
126.0886644779
 21
143.4574609171
  0
LINE
  5
3CA
100
AcDbEntity
  8
0
100
AcDbLine
 62
250
  6
CONTINUOUS
 10
183.5565274182
 20
145.9574609171
 11
183.0886644779
 21
145.9574609171
  0
LWPOLYLINE
  5
3CB
100
AcDbEntity
  8
0
100
AcDbPolyline
 62
7
  6
CONTINUOUS
 90
10
 70
0
 10
141.6360262569
 20
144.0790535125
 10
141.5534392371
 20
144.0875061967
 10
141.4747559276
 20
144.1052831136
 10
141.3999763285
 20
144.1323842632
 10
141.3275996141
 20
144.1699066964
 10
141.25912661
 20
144.2167533624
 10
141.1990597934
 20
144.2696331088
 10
141.1488999901
 20
144.3274488848
 10
141.1071463744
 20
144.3912977412
 10
141.0737989462
 20
144.461179678
  0
LINE
  5
3CC
100
AcDbEntity
  8
0
100
AcDbLine
 62
7
  6
CONTINUOUS
 10
143.1643997997
 20
146.4058407528
 11
143.4240806757
 21
146.2732518161
  0
LWPOLYLINE
  5
3CD
100
AcDbEntity
  8
0
100
AcDbPolyline
 62
7
  6
CONTINUOUS
 90
10
 70
0
 43
0.3500000006
 10
191.206602356
 20
107.571749176
 10
191.849473938
 20
106.9288866577
 10
192.7066118774
 20
106.500317688
 10
193.7780343018
 20
106.500317688
 10
194.2066032715
 20
106.9288866577
 10
194.2066032715
 20
107.571749176
 10
193.7780343018
 20
108.0003181458
 10
192.9208963623
 20
108.0003181458
 10
192.4923273926
 20
107.571749176
 10
192.4923273926
 20
106.64317099
  0
LWPOLYLINE
  5
3CE
100
AcDbEntity
  8
0
100
AcDbPolyline
 62
7
  6
CONTINUOUS
 90
10
 70
0
 43
0.3500000006
 10
194.2066032715
 20
109.2860341187
 10
193.349465332
 20
110.1431720581
 10
192.4923273926
 20
110.357456543
 10
191.6351713257
 20
110.357456543
 10
191.206602356
 20
109.9288875732
 10
191.206602356
 20
109.2860341187
 10
191.6351713257
 20
108.8574651489
 10
192.4923273926
 20
108.8574651489
 10
192.9208963623
 20
109.2860341187
 10
192.9208963623
 20
110.214603241
  0
LWPOLYLINE
  5
3CF
100
AcDbEntity
  8
0
100
AcDbPolyline
 62
7
  6
CONTINUOUS
 90
3
 70
0
 43
0.3500000006
 10
200.0637427368
 20
105.6431706848
 10
199.2066047974
 20
106.500317688
 10
202.2066057129
 20
106.500317688
  0
LWPOLYLINE
  5
3D0
100
AcDbEntity
  8
0
100
AcDbPolyline
 62
250
  6
CONTINUOUS
 90
7
 70
0
 10
183.5385861935
 20
139.7380649812
 10
183.532436034
 20
139.837193887
 10
183.514050972
 20
139.9347947733
 10
183.4837144037
 20
140.0293631735
 10
183.4418939512
 20
140.1194413649
 10
183.3892342549
 20
140.2036408391
 10
183.3394526112
 20
140.2663357241
  0
LWPOLYLINE
  5
3D1
100
AcDbEntity
  8
0
100
AcDbPolyline
 62
7
  6
CONTINUOUS
 90
16
 70
0
 10
183.4616925508
 20
139.7808524583
 10
183.4591614521
 20
139.8311196914
 10
183.4535691264
 20
139.8810212282
 10
183.4448989946
 20
139.9305570686
 10
183.4331582908
 20
139.9798679633
 10
183.4183401948
 20
140.0288131616
 10
183.4003900257
 20
140.0769704117
 10
183.3793242524
 20
140.1243268768
 10
183.3551240761
 20
140.1708953937
 10
183.3276066787
 20
140.2162922211
 10
183.2967351349
 20
140.2606057159
 10
183.2624900379
 20
140.3037475213
 10
183.2246201628
 20
140.3450688253
 10
183.182996284
 20
140.3843533572
 10
183.1376758403
 20
140.4218173879
 10
183.0886644779
 20
140.4574609171
  0
LINE
  5
3D2
100
AcDbEntity
  8
0
100
AcDbLine
 62
250
  6
CONTINUOUS
 10
183.5474781896
 20
146.845233398
 11
183.5497357688
 21
146.7587271719
  0
LINE
  5
3D3
100
AcDbEntity
  8
0
100
AcDbLine
 62
250
  6
CONTINUOUS
 10
183.5497357688
 20
146.7587271719
 11
183.5517387344
 21
146.6531726236
  0
LWPOLYLINE
  5
3D4
100
AcDbEntity
  8
ASSI
100
AcDbPolyline
 62
7
  6
CONTINUOUS
 90
17
 70
0
 10
183.8784524876
 20
114.6082369117
 10
183.8715312241
 20
115.2465185968
 10
183.8638882734
 20
115.8571699408
 10
183.8555327634
 20
116.4405404067
 10
183.8465712713
 20
116.9891889007
 10
183.8369960348
 20
117.502670641
 10
183.8268148163
 20
117.9814304096
 10
183.8161574809
 20
118.4193614586
 10
183.8050179295
 20
118.8159407798
 10
183.7934022611
 20
119.1716913816
 10
183.7814586377
 20
119.482075541
 10
183.7691828581
 20
119.7465121223
 10
183.7565791235
 20
119.9655822612
 10
183.7438081988
 20
120.1364916417
 10
183.7308679424
 20
120.2586233336
 10
183.717760496
 20
120.332594267
 10
183.7046530495
 20
120.3574609171
  0
LINE
  5
3D5
100
AcDbEntity
  8
0
100
AcDbLine
 62
250
  6
CONTINUOUS
 10
183.5517387344
 20
146.6531726236
 11
183.5541558634
 21
146.4657803262
  0
LINE
  5
3D6
100
AcDbEntity
  8
ASSI
100
AcDbLine
 62
7
  6
CONTINUOUS
 10
183.8900781422
 20
113.2583203893
 11
183.8784524876
 21
114.6082369117
  0
LINE
  5
3D7
100
AcDbEntity
  8
0
100
AcDbLine
 62
250
  6
CONTINUOUS
 10
183.5541558634
 20
146.4657803262
 11
183.5553175023
 21
146.3268507945
  0
LINE
  5
3D8
100
AcDbEntity
  8
ASSI
100
AcDbLine
 62
7
  6
CONTINUOUS
 10
183.898516498
 20
111.8327568555
 11
183.8900781422
 21
113.2583203893
  0
LINE
  5
3D9
100
AcDbEntity
  8
ASSI
100
AcDbLine
 62
7
  6
CONTINUOUS
 10
183.9036252809
 20
110.3627331564
 11
183.898516498
 21
111.8327568555
  0
LINE
  5
3DA
100
AcDbEntity
  8
ASSI
100
AcDbLine
 62
7
  6
CONTINUOUS
 10
183.9053557236
 20
108.8574609171
 11
183.9036252809
 21
110.3627331564
  0
LINE
  5
3DB
100
AcDbEntity
  8
ASSI
100
AcDbLine
 62
7
  6
CONTINUOUS
 10
184.0886644779
 20
153.8574609171
 11
184.0886644779
 21
63.8574609171
  0
LINE
  5
3DC
100
AcDbEntity
  8
DRAFT
100
AcDbLine
 62
7
  6
CONTINUOUS
 10
184.0886644779
 20
63.8574609171
 11
184.0886644779
 21
153.8574609171
  0
LINE
  5
3DD
100
AcDbEntity
  8
ASSI
100
AcDbLine
 62
7
  6
CONTINUOUS
 10
183.9036252809
 20
107.3521886778
 11
183.9053557236
 21
108.8574609171
  0
LINE
  5
3DE
100
AcDbEntity
  8
RACCORDO
100
AcDbLine
 62
7
  6
CONTINUOUS
 10
183.9523626435
 20
48.8574609171
 11
183.9529563404
 21
59.5099791431
  0
LINE
  5
3DF
100
AcDbEntity
  8
RACCORDO
100
AcDbLine
 62
7
  6
CONTINUOUS
 10
183.9529563404
 20
59.5099791431
 11
183.9552732879
 21
60.2098352311
  0
LINE
  5
3E0
100
AcDbEntity
  8
ASSI
100
AcDbLine
 62
7
  6
CONTINUOUS
 10
183.898516498
 20
105.8821649787
 11
183.9036252809
 21
107.3521886778
  0
LINE
  5
3E1
100
AcDbEntity
  8
ASSI
100
AcDbLine
 62
7
  6
CONTINUOUS
 10
183.8900781422
 20
104.4566014449
 11
183.898516498
 21
105.8821649787
  0
LINE
  5
3E2
100
AcDbEntity
  8
RACCORDO
100
AcDbLine
 62
7
  6
CONTINUOUS
 10
183.9552732879
 20
60.2098352311
 11
183.9610199932
 21
61.2112362081
  0
LWPOLYLINE
  5
3E3
100
AcDbEntity
  8
RACCORDO
100
AcDbPolyline
 62
7
  6
CONTINUOUS
 90
3
 70
0
 10
183.9610199932
 20
61.2112362081
 10
183.9664923714
 20
61.9476902444
 10
183.9721376772
 20
62.6848875827
  0
LINE
  5
3E4
100
AcDbEntity
  8
RACCORDO
100
AcDbLine
 62
250
  6
CONTINUOUS
 10
155.7835193483
 20
56.152270096
 11
155.6490239585
 21
56.0177747062
  0
LINE
  5
3E5
100
AcDbEntity
  8
RACCORDO
100
AcDbLine
 62
250
  6
CONTINUOUS
 10
156.0834736569
 20
55.8523157875
 11
155.9489782671
 21
55.7178203977
  0
LINE
  5
3E6
100
AcDbEntity
  8
0
100
AcDbLine
 62
7
  6
CONTINUOUS
 10
141.2956534779
 20
146.5509949171
 11
142.4735754779
 21
146.5509949171
  0
LINE
  5
3E7
100
AcDbEntity
  8
0
100
AcDbLine
 62
7
  6
CONTINUOUS
 10
142.4735754779
 20
146.8228479171
 11
141.0125434779
 21
146.8228479171
  0
LWPOLYLINE
  5
3E8
100
AcDbEntity
  8
0
100
AcDbPolyline
 62
7
  6
CONTINUOUS
 90
16
 70
0
 10
143.9816611464
 20
146.6012555856
 10
144.0460931693
 20
146.598436918
 10
144.1072329988
 20
146.5912776456
 10
144.1650806348
 20
146.5797777685
 10
144.2201979914
 20
146.5640327876
 10
144.2720231545
 20
146.543947202
 10
144.3188703823
 20
146.5192345088
 10
144.3600671163
 20
146.4898302773
 10
144.3962859149
 20
146.4557989382
 10
144.4278587121
 20
146.4170472811
 10
144.4548670362
 20
146.3731512993
 10
144.4772293588
 20
146.3245349993
 10
144.495033029
 20
146.272377191
 10
144.5083071629
 20
146.2170708108
 10
144.5170226444
 20
146.1582229223
 10
144.5211794734
 20
146.0958335253
  0
LWPOLYLINE
  5
3E9
100
AcDbEntity
  8
0
100
AcDbPolyline
 62
7
  6
CONTINUOUS
 90
18
 70
0
 10
131.0886644779
 20
159.4734494887
 10
131.113531128
 20
159.4603420422
 10
131.1875020615
 20
159.4472345958
 10
131.3096337533
 20
159.4342943394
 10
131.4805431338
 20
159.4215234147
 10
131.6996132727
 20
159.4089196801
 10
131.9640498541
 20
159.3966439005
 10
132.2744340134
 20
159.3847002771
 10
132.6301846152
 20
159.3730846087
 10
133.0267639365
 20
159.3619450573
 10
133.4646949855
 20
159.3512877219
 10
133.943454754
 20
159.3411065034
 10
134.4569364943
 20
159.3315312669
 10
135.0055849884
 20
159.3225697748
 10
135.5889554542
 20
159.3142142648
 10
136.1996067982
 20
159.3065713141
 10
136.8378884834
 20
159.2996500506
 10
138.1878050057
 20
159.288024396
  0
LWPOLYLINE
  5
3EA
100
AcDbEntity
  8
RACCORDO
100
AcDbPolyline
 62
250
  6
CONTINUOUS
 90
15
 70
0
 10
183.5417856701
 20
60.89108832
 10
183.5602381086
 20
60.9629458377
 10
183.5782870117
 20
61.0347300464
 10
183.5959214377
 20
61.1063291419
 10
183.6133359541
 20
61.1785958747
 10
183.630587551
 20
61.2519081695
 10
183.6475677114
 20
61.3259009738
 10
183.6642057981
 20
61.4003109663
 10
183.6804792534
 20
61.4751198969
 10
183.696376091
 20
61.5503627223
 10
183.7118520302
 20
61.6258584823
 10
183.7268589989
 20
61.7014629931
 10
183.7414180945
 20
61.7773384649
 10
183.7555828526
 20
61.8537651926
 10
183.7684311968
 20
61.925777778
  0
LWPOLYLINE
  5
3EB
100
AcDbEntity
  8
RACCORDO
100
AcDbPolyline
 62
250
  6
CONTINUOUS
 90
3
 70
0
 10
183.4829705694
 20
60.6705504462
 10
183.5033362578
 20
60.7455355282
 10
183.5417856701
 20
60.89108832
  0
LINE
  5
3EC
100
AcDbEntity
  8
RACCORDO
100
AcDbLine
 62
250
  6
CONTINUOUS
 10
158.2973158464
 20
54.3660361331
 11
158.376015955
 21
54.4447362417
  0
LINE
  5
3ED
100
AcDbEntity
  8
RACCORDO
100
AcDbLine
 62
250
  6
CONTINUOUS
 10
158.797239694
 20
53.8661122855
 11
158.8759398026
 21
53.9448123942
  0
LINE
  5
3EE
100
AcDbEntity
  8
RACCORDO
100
AcDbLine
 62
7
  6
CONTINUOUS
 10
162.3861240149
 20
53.754920454
 11
162.3162824759
 21
53.6850789151
  0
LWPOLYLINE
  5
3EF
100
AcDbEntity
  8
0
100
AcDbPolyline
 62
7
  6
CONTINUOUS
 90
5
 70
0
 10
165.9975392849
 20
58.6066727838
 10
166.011867266
 20
58.6195783586
 10
166.0805262563
 20
58.6913268086
 10
166.1397630283
 20
58.7710305251
 10
166.1886644779
 20
58.8574609171
  0
LWPOLYLINE
  5
3F0
100
AcDbEntity
  8
0
100
AcDbPolyline
 62
7
  6
CONTINUOUS
 90
17
 70
0
 10
154.0886639287
 20
58.2414111956
 10
154.0637978279
 20
58.2283648991
 10
153.9898268944
 20
58.2152574526
 10
153.8676952026
 20
58.2023171962
 10
153.696785822
 20
58.1895462715
 10
153.4777156831
 20
58.1769425369
 10
153.2132791018
 20
58.1646667573
 10
152.9028949425
 20
58.1527231339
 10
152.5471443407
 20
58.1411074655
 10
152.1505650194
 20
58.1299679141
 10
151.7126339704
 20
58.1193105787
 10
151.2338742019
 20
58.1091293602
 10
150.7203924616
 20
58.0995541237
 10
150.1717439675
 20
58.0905926317
 10
149.5883735017
 20
58.0822371216
 10
148.9777221577
 20
58.074594171
 10
148.3394404725
 20
58.0676729075
  0
LINE
  5
3F1
100
AcDbEntity
  8
RACCORDO
100
AcDbLine
 62
7
  6
CONTINUOUS
 10
158.9283049974
 20
57.8574609171
 11
158.7938096076
 21
57.7902183437
  0
LINE
  5
3F2
100
AcDbEntity
  8
DRAFT
100
AcDbLine
 62
7
  6
CONTINUOUS
 10
182.3618600862
 20
152.0816708912
 11
178.0886644779
 21
152.0816708912
  0
LINE
  5
3F3
100
AcDbEntity
  8
DRAFT
100
AcDbLine
 62
7
  6
CONTINUOUS
 10
102.8154688697
 20
152.0816708912
 11
107.0886644779
 21
152.0816708912
  0
LINE
  5
3F4
100
AcDbEntity
  8
DRAFT
100
AcDbLine
 62
7
  6
CONTINUOUS
 10
182.0886644779
 20
152.3574609171
 11
178.0886644779
 21
152.3574609171
  0
LINE
  5
3F5
100
AcDbEntity
  8
DRAFT
100
AcDbLine
 62
7
  6
CONTINUOUS
 10
103.0886644779
 20
152.3574609171
 11
107.0886644779
 21
152.3574609171
  0
LINE
  5
3F6
100
AcDbEntity
  8
DRAFT
100
AcDbLine
 62
250
  6
CONTINUOUS
 10
176.5886644779
 20
153.8574609171
 11
176.3128744521
 21
153.8574609171
  0
LINE
  5
3F7
100
AcDbEntity
  8
RACCORDO
100
AcDbLine
 62
250
  6
CONTINUOUS
 10
103.0886644779
 20
153.8574609171
 11
101.0886644779
 21
153.8574609171
  0
LINE
  5
3F8
100
AcDbEntity
  8
DRAFT
100
AcDbLine
 62
250
  6
CONTINUOUS
 10
108.5886644779
 20
153.8574609171
 11
108.8644545038
 21
153.8574609171
  0
LINE
  5
3F9
100
AcDbEntity
  8
RACCORDO
100
AcDbLine
 62
250
  6
CONTINUOUS
 10
182.0886644779
 20
153.8574609171
 11
184.0886644779
 21
153.8574609171
  0
LWPOLYLINE
  5
3FA
100
AcDbEntity
  8
0
100
AcDbPolyline
 62
250
  6
CONTINUOUS
 90
10
 70
0
 10
183.5385862264
 20
139.7380649811
 10
183.529959585
 20
139.742323468
 10
183.521353632
 20
139.7467044726
 10
183.5127683674
 20
139.7512079949
 10
183.5042037426
 20
139.7558319323
 10
183.4956598063
 20
139.7605783873
 10
183.4871367043
 20
139.7654536684
 10
183.4786344854
 20
139.7704598781
 10
183.4701531009
 20
139.7755949139
 10
183.4616925508
 20
139.7808587756
  0
LWPOLYLINE
  5
3FB
100
AcDbEntity
  8
RACCORDO
100
AcDbPolyline
 62
250
  6
CONTINUOUS
 90
3
 70
0
 10
183.4162370324
 20
60.4332373218
 10
183.4396315737
 20
60.5150897655
 10
183.4829705694
 20
60.6705504462
  0
LWPOLYLINE
  5
3FC
100
AcDbEntity
  8
RACCORDO
100
AcDbPolyline
 62
250
  6
CONTINUOUS
 90
3
 70
0
 10
183.3386917716
 20
60.1705768263
 10
183.3658609894
 20
60.2612924491
 10
183.4162370324
 20
60.4332373218
  0
LWPOLYLINE
  5
3FD
100
AcDbEntity
  8
RACCORDO
100
AcDbPolyline
 62
250
  6
CONTINUOUS
 90
3
 70
0
 10
183.2493024465
 20
59.8806324785
 10
183.2803493319
 20
59.9801196293
 10
183.3386917716
 20
60.1705768263
  0
LINE
  5
3FE
100
AcDbEntity
  8
RACCORDO
100
AcDbLine
 62
250
  6
CONTINUOUS
 10
183.1832184041
 20
59.6726692709
 11
183.2493024465
 21
59.8806324785
  0
LWPOLYLINE
  5
3FF
100
AcDbEntity
  8
RACCORDO
100
AcDbPolyline
 62
250
  6
CONTINUOUS
 90
3
 70
0
 10
182.9523626435
 20
58.9675929744
 10
182.9948910891
 20
59.0945257274
 10
183.1832184041
 20
59.6726692709
  0
LINE
  5
400
100
AcDbEntity
  8
DRAFT
100
AcDbLine
 62
7
  6
CONTINUOUS
 10
164.0802465278
 20
53.6850789151
 11
164.1500880668
 21
53.754920454
  0
LINE
  5
401
100
AcDbEntity
  8
DRAFT
100
AcDbLine
 62
7
  6
CONTINUOUS
 10
164.1500880668
 20
50.168884506
 11
164.0802465278
 21
50.099042967
  0
LINE
  5
402
100
AcDbEntity
  8
DRAFT
100
AcDbLine
 62
7
  6
CONTINUOUS
 10
176.5886644779
 20
59.8574609171
 11
176.3128745055
 21
59.5816709446
  0
LINE
  5
403
100
AcDbEntity
  8
DRAFT
100
AcDbLine
 62
7
  6
CONTINUOUS
 10
182.0886644779
 20
65.3574609171
 11
182.3644545038
 21
65.633250943
  0
LINE
  5
404
100
AcDbEntity
  8
RACCORDO
100
AcDbLine
 62
7
  6
CONTINUOUS
 10
162.40312734
 20
53.8774223206
 11
162.5697249984
 21
54.0023483539
  0
LINE
  5
405
100
AcDbEntity
  8
RACCORDO
100
AcDbLine
 62
7
  6
CONTINUOUS
 10
169.7742016158
 20
56.2374995136
 11
169.6011715943
 21
56.1077500654
  0
LWPOLYLINE
  5
406
100
AcDbEntity
  8
0
100
AcDbPolyline
 62
250
  6
CONTINUOUS
 90
8
 70
0
 10
172.7080604139
 20
58.4075391686
 10
172.7060567513
 20
58.4062286296
 10
172.6984457474
 20
58.4049293735
 10
172.6852274023
 20
58.4036414004
 10
172.6663362505
 20
58.4023558536
 10
172.6418377576
 20
58.4010815899
 10
172.6119283196
 20
58.3998451783
 10
172.5764369588
 20
58.3986472054
  0
LWPOLYLINE
  5
407
100
AcDbEntity
  8
0
100
AcDbPolyline
 62
250
  6
CONTINUOUS
 90
7
 70
0
 10
119.7080604138
 20
159.3073826327
 10
119.6089315081
 20
159.3012324731
 10
119.5113306217
 20
159.2828474112
 10
119.4167622216
 20
159.2525108429
 10
119.3266840301
 20
159.2106903904
 10
119.2424845559
 20
159.1580306941
 10
119.1790380023
 20
159.1075874072
  0
LWPOLYLINE
  5
408
100
AcDbEntity
  8
0
100
AcDbPolyline
 62
7
  6
CONTINUOUS
 90
16
 70
0
 10
119.6652729367
 20
159.23048899
 10
119.6150057036
 20
159.2279578912
 10
119.5651041668
 20
159.2223655656
 10
119.5155683264
 20
159.2136954337
 10
119.4662574318
 20
159.2019547299
 10
119.4173122334
 20
159.1871366339
 10
119.3691549833
 20
159.1691864649
 10
119.3217985182
 20
159.1481206915
 10
119.2752300013
 20
159.1239205153
 10
119.2298331739
 20
159.0964031178
 10
119.1855196791
 20
159.0655315741
 10
119.1423778738
 20
159.0312864771
 10
119.1010565698
 20
158.993416602
 10
119.0617720378
 20
158.9517927231
 10
119.0243080072
 20
158.9064722795
 10
118.9886644779
 20
158.8574609171
  0
LINE
  5
409
100
AcDbEntity
  8
0
100
AcDbLine
 62
250
  6
CONTINUOUS
 10
112.6008480687
 20
159.3162732825
 11
112.6873288029
 21
159.3185306671
  0
LINE
  5
40A
100
AcDbEntity
  8
0
100
AcDbLine
 62
250
  6
CONTINUOUS
 10
112.6873288029
 20
159.3185306671
 11
112.792868575
 21
159.3205338092
  0
LWPOLYLINE
  5
40B
100
AcDbEntity
  8
0
100
AcDbPolyline
 62
7
  6
CONTINUOUS
 90
17
 70
0
 10
148.3394404725
 20
159.2996500506
 10
148.9777221577
 20
159.3065713141
 10
149.5883735017
 20
159.3142142648
 10
150.1717439675
 20
159.3225697748
 10
150.7203924616
 20
159.3315312669
 10
151.2338742019
 20
159.3411065034
 10
151.7126339704
 20
159.3512877219
 10
152.1505650194
 20
159.3619450573
 10
152.5471443407
 20
159.3730846087
 10
152.9028949425
 20
159.3847002771
 10
153.2132791018
 20
159.3966439005
 10
153.4777156831
 20
159.4089196801
 10
153.696785822
 20
159.4215234147
 10
153.8676952026
 20
159.4342943394
 10
153.9898268944
 20
159.4472345958
 10
154.0637978279
 20
159.4603420422
 10
154.0886644779
 20
159.4734494887
  0
LINE
  5
40C
100
AcDbEntity
  8
0
100
AcDbLine
 62
250
  6
CONTINUOUS
 10
112.792868575
 20
159.3205338092
 11
112.9802734099
 21
159.3229515732
  0
LWPOLYLINE
  5
40D
100
AcDbEntity
  8
0
100
AcDbPolyline
 62
7
  6
CONTINUOUS
 90
17
 70
0
 10
136.8378884834
 20
159.6472489267
 10
136.1996067982
 20
159.6403276632
 10
135.5889554542
 20
159.6326847126
 10
135.0055849884
 20
159.6243292025
 10
134.4569364943
 20
159.6153677105
 10
133.943454754
 20
159.605792474
 10
133.4646949855
 20
159.5956112555
 10
133.0267639365
 20
159.5849539201
 10
132.6301846152
 20
159.5738143687
 10
132.2744340134
 20
159.5621987003
 10
131.9640498541
 20
159.5502550769
 10
131.6996132727
 20
159.5379792973
 10
131.4805431338
 20
159.5253755627
 10
131.3096337533
 20
159.512604638
 10
131.1875020615
 20
159.4996643816
 10
131.113531128
 20
159.4865569351
 10
131.0886644779
 20
159.4734494887
  0
LINE
  5
40E
100
AcDbEntity
  8
0
100
AcDbLine
 62
7
  6
CONTINUOUS
 10
146.9895239501
 20
159.288024396
 11
148.3394404725
 21
159.2996500506
  0
LINE
  5
40F
100
AcDbEntity
  8
0
100
AcDbLine
 62
7
  6
CONTINUOUS
 10
138.1878050057
 20
159.6588745813
 11
136.8378884834
 21
159.6472489267
  0
LINE
  5
410
100
AcDbEntity
  8
0
100
AcDbLine
 62
250
  6
CONTINUOUS
 10
112.9802734099
 20
159.3229515732
 11
113.1920419296
 21
159.324551915
  0
LINE
  5
411
100
AcDbEntity
  8
0
100
AcDbLine
 62
7
  6
CONTINUOUS
 10
145.5639604163
 20
159.2795860402
 11
146.9895239501
 21
159.288024396
  0
LINE
  5
412
100
AcDbEntity
  8
0
100
AcDbLine
 62
7
  6
CONTINUOUS
 10
139.6133685395
 20
159.6673129371
 11
138.1878050057
 21
159.6588745813
  0
LINE
  5
413
100
AcDbEntity
  8
0
100
AcDbLine
 62
7
  6
CONTINUOUS
 10
144.0939367172
 20
159.2744772573
 11
145.5639604163
 21
159.2795860402
  0
LINE
  5
414
100
AcDbEntity
  8
0
100
AcDbLine
 62
7
  6
CONTINUOUS
 10
141.0833922387
 20
159.6724217201
 11
139.6133685395
 21
159.6673129371
  0
LINE
  5
415
100
AcDbEntity
  8
0
100
AcDbLine
 62
7
  6
CONTINUOUS
 10
142.5886644779
 20
159.2727468146
 11
144.0939367172
 21
159.2744772573
  0
LINE
  5
416
100
AcDbEntity
  8
0
100
AcDbLine
 62
250
  6
CONTINUOUS
 10
113.1920419296
 20
159.324551915
 11
113.4886644779
 21
159.3253238573
  0
LINE
  5
417
100
AcDbEntity
  8
0
100
AcDbLine
 62
7
  6
CONTINUOUS
 10
142.5886644779
 20
159.6741521627
 11
141.0833922387
 21
159.6724217201
  0
LINE
  5
418
100
AcDbEntity
  8
DRAFT
100
AcDbLine
 62
7
  6
CONTINUOUS
 10
108.5886644779
 20
157.8574609171
 11
107.0886644779
 21
157.8574609171
  0
LINE
  5
419
100
AcDbEntity
  8
DRAFT
100
AcDbLine
 62
7
  6
CONTINUOUS
 10
176.5886644779
 20
157.8574609171
 11
178.0886644779
 21
157.8574609171
  0
LINE
  5
41A
100
AcDbEntity
  8
RACCORDO
100
AcDbLine
 62
250
  6
CONTINUOUS
 10
176.3128744521
 20
158.1306565253
 11
108.8644545038
 21
158.1306565253
  0
LINE
  5
41B
100
AcDbEntity
  8
RACCORDO
100
AcDbLine
 62
7
  6
CONTINUOUS
 10
108.8644544504
 20
158.1332508896
 11
107.0886644779
 21
158.1332508896
  0
LINE
  5
41C
100
AcDbEntity
  8
RACCORDO
100
AcDbLine
 62
7
  6
CONTINUOUS
 10
176.3128745055
 20
158.1332508896
 11
178.0886644779
 21
158.1332508896
  0
LINE
  5
41D
100
AcDbEntity
  8
0
100
AcDbLine
 62
7
  6
CONTINUOUS
 10
118.9886644779
 20
158.8574609171
 11
113.1886644779
 21
158.8574609171
  0
LINE
  5
41E
100
AcDbEntity
  8
0
100
AcDbLine
 62
250
  6
CONTINUOUS
 10
178.0886644779
 20
159.23048899
 11
119.6652666194
 21
159.23048899
  0
LINE
  5
41F
100
AcDbEntity
  8
0
100
AcDbLine
 62
250
  6
CONTINUOUS
 10
112.5120623408
 20
159.23048899
 11
107.0886644779
 21
159.23048899
  0
LINE
  5
420
100
AcDbEntity
  8
DRAFT
100
AcDbLine
 62
7
  6
CONTINUOUS
 10
178.0886644779
 20
159.8574609171
 11
107.0886644779
 21
159.8574609171
  0
LINE
  5
421
100
AcDbEntity
  8
ASSI
100
AcDbLine
 62
7
  6
CONTINUOUS
 10
107.0886644779
 20
159.8574609171
 11
178.0886644779
 21
159.8574609171
  0
LINE
  5
422
100
AcDbEntity
  8
0
100
AcDbLine
 62
7
  6
CONTINUOUS
 10
141.0833922387
 20
159.2744772573
 11
142.5886644779
 21
159.2727468146
  0
LINE
  5
423
100
AcDbEntity
  8
0
100
AcDbLine
 62
7
  6
CONTINUOUS
 10
144.0939367172
 20
159.6724217201
 11
142.5886644779
 21
159.6741521627
  0
LINE
  5
424
100
AcDbEntity
  8
0
100
AcDbLine
 62
250
  6
CONTINUOUS
 10
113.4886644779
 20
159.3253238573
 11
118.9117280233
 21
159.3248926695
  0
LINE
  5
425
100
AcDbEntity
  8
0
100
AcDbLine
 62
7
  6
CONTINUOUS
 10
139.6133685395
 20
159.2795860402
 11
141.0833922387
 21
159.2744772573
  0
LINE
  5
426
100
AcDbEntity
  8
0
100
AcDbLine
 62
7
  6
CONTINUOUS
 10
145.5639604163
 20
159.6673129371
 11
144.0939367172
 21
159.6724217201
  0
LINE
  5
427
100
AcDbEntity
  8
0
100
AcDbLine
 62
7
  6
CONTINUOUS
 10
138.1878050057
 20
159.288024396
 11
139.6133685395
 21
159.2795860402
  0
LINE
  5
428
100
AcDbEntity
  8
0
100
AcDbLine
 62
7
  6
CONTINUOUS
 10
146.9895239501
 20
159.6588745813
 11
145.5639604163
 21
159.6673129371
  0
LINE
  5
429
100
AcDbEntity
  8
0
100
AcDbLine
 62
250
  6
CONTINUOUS
 10
118.9117280233
 20
159.3248926695
 11
119.1285344058
 21
159.3235825668
  0
LINE
  5
42A
100
AcDbEntity
  8
0
100
AcDbLine
 62
250
  6
CONTINUOUS
 10
119.1285344058
 20
159.3235825668
 11
119.3254750617
 21
159.321425805
  0
LINE
  5
42B
100
AcDbEntity
  8
0
100
AcDbLine
 62
250
  6
CONTINUOUS
 10
119.3254750617
 20
159.321425805
 11
119.4393761971
 21
159.3195674702
  0
LWPOLYLINE
  5
42C
100
AcDbEntity
  8
0
100
AcDbPolyline
 62
250
  6
CONTINUOUS
 90
10
 70
0
 10
119.4393761971
 20
159.3195674702
 10
119.5354417542
 20
159.3174371232
 10
119.5763677319
 20
159.31627674
 10
119.611880152
 20
159.3150784479
 10
119.6418063016
 20
159.3138416435
 10
119.6663188936
 20
159.3125669303
 10
119.6852203578
 20
159.3112810062
 10
119.6984448376
 20
159.3099927703
 10
119.7060581896
 20
159.3086933234
 10
119.7080604139
 20
159.3073826655
  0
LWPOLYLINE
  5
42D
100
AcDbEntity
  8
0
100
AcDbPolyline
 62
250
  6
CONTINUOUS
 90
7
 70
0
 10
112.4692685423
 20
159.3073942712
 10
112.5683976036
 20
159.3012420119
 10
112.6659984118
 20
159.282854954
 10
112.7605665336
 20
159.2525165207
 10
112.8506442818
 20
159.2106943553
 10
112.9348431841
 20
159.1580331133
 10
112.9849654731
 20
159.1190739659
  0
LWPOLYLINE
  5
42E
100
AcDbEntity
  8
0
100
AcDbPolyline
 62
7
  6
CONTINUOUS
 90
18
 70
0
 10
154.0886644779
 20
159.4734494887
 10
154.0637978279
 20
159.4865569351
 10
153.9898268944
 20
159.4996643816
 10
153.8676952026
 20
159.512604638
 10
153.696785822
 20
159.5253755627
 10
153.4777156831
 20
159.5379792973
 10
153.2132791018
 20
159.5502550769
 10
152.9028949425
 20
159.5621987003
 10
152.5471443407
 20
159.5738143687
 10
152.1505650194
 20
159.5849539201
 10
151.7126339704
 20
159.5956112555
 10
151.2338742019
 20
159.605792474
 10
150.7203924616
 20
159.6153677105
 10
150.1717439675
 20
159.6243292025
 10
149.5883735017
 20
159.6326847126
 10
148.9777221577
 20
159.6403276632
 10
148.3394404725
 20
159.6472489267
 10
146.9895239501
 20
159.6588745813
  0
LWPOLYLINE
  5
42F
100
AcDbEntity
  8
0
100
AcDbPolyline
 62
7
  6
CONTINUOUS
 90
5
 70
0
 10
183.3394526112
 20
140.2663357241
 10
183.3265470364
 20
140.2806637051
 10
183.2547985865
 20
140.3493226954
 10
183.1750948699
 20
140.4085594675
 10
183.0886644779
 20
140.4574609171
  0
LWPOLYLINE
  5
430
100
AcDbEntity
  8
0
100
AcDbPolyline
 62
7
  6
CONTINUOUS
 90
7
 70
0
 43
0.3500000006
 10
202.2066057129
 20
111.2146035461
 10
202.2066057129
 20
109.7146030884
 10
200.0637427368
 20
111.2146035461
 10
199.6351737671
 20
111.2146035461
 10
199.2066047974
 20
110.7860345764
 10
199.2066047974
 20
110.1431720581
 10
199.849458252
 20
109.7146030884
  0
LWPOLYLINE
  5
431
100
AcDbEntity
  8
SUPERFICI
100
AcDbPolyline
 62
7
  6
CONTINUOUS
 90
3
 70
0
 10
143.1938858618
 20
166.8434437146
 10
143.1479749467
 20
166.8536897812
 10
143.0883835885
 20
166.8574569965
  0
LWPOLYLINE
  5
432
100
AcDbEntity
  8
SUPERFICI
100
AcDbPolyline
 62
7
  6
CONTINUOUS
 90
3
 70
0
 10
136.1940141497
 20
166.8434437146
 10
136.1505274688
 20
166.8533606208
 10
136.0884034037
 20
166.857457567
  0
LWPOLYLINE
  5
433
100
AcDbEntity
  8
SUPERFICI
100
AcDbPolyline
 62
7
  6
CONTINUOUS
 90
3
 70
0
 10
138.1940558838
 20
166.8434437146
 10
138.1550968286
 20
166.8527366553
 10
138.0884020202
 20
166.8574574716
  0
LWPOLYLINE
  5
434
100
AcDbEntity
  8
SUPERFICI
100
AcDbPolyline
 62
7
  6
CONTINUOUS
 90
3
 70
0
 10
137.1944176339
 20
166.8434437146
 10
137.1601892363
 20
166.8519895076
 10
137.0884119578
 20
166.8574577605
  0
LINE
  5
435
100
AcDbEntity
  8
DRAFT
100
AcDbLine
 62
7
  6
CONTINUOUS
 10
176.5886644779
 20
157.8574609171
 11
176.3128745055
 21
158.1332508896
  0
LINE
  5
436
100
AcDbEntity
  8
DRAFT
100
AcDbLine
 62
7
  6
CONTINUOUS
 10
182.0886644779
 20
152.3574609171
 11
182.3644545038
 21
152.0816708912
  0
LWPOLYLINE
  5
437
100
AcDbEntity
  8
0
100
AcDbPolyline
 62
250
  6
CONTINUOUS
 90
8
 70
0
 10
183.5385862264
 20
146.9768568531
 10
183.5398967654
 20
146.9748531904
 10
183.5411960215
 20
146.9672421865
 10
183.5424839947
 20
146.9540238414
 10
183.5437695414
 20
146.9351326897
 10
183.5450438052
 20
146.9106341967
 10
183.5462802168
 20
146.8807247588
 10
183.5474781896
 20
146.845233398
  0
LWPOLYLINE
  5
438
100
AcDbEntity
  8
SUPERFICI
100
AcDbPolyline
 62
7
  6
CONTINUOUS
 90
3
 70
0
 10
143.0889514121
 20
166.8574568528
 10
143.0053885109
 20
166.8500560667
 10
142.9813732161
 20
166.8434437146
  0
LWPOLYLINE
  5
439
100
AcDbEntity
  8
SUPERFICI
100
AcDbPolyline
 62
7
  6
CONTINUOUS
 90
3
 70
0
 10
138.0889382553
 20
166.8574571989
 10
138.0072855413
 20
166.8503880063
 10
137.9816039406
 20
166.8434437146
  0
LWPOLYLINE
  5
43A
100
AcDbEntity
  8
SUPERFICI
100
AcDbPolyline
 62
7
  6
CONTINUOUS
 90
3
 70
0
 10
136.0889406684
 20
166.8574571319
 10
136.0088783446
 20
166.850660782
 10
135.9818343771
 20
166.8434437146
  0
LWPOLYLINE
  5
43B
100
AcDbEntity
  8
SUPERFICI
100
AcDbPolyline
 62
7
  6
CONTINUOUS
 90
3
 70
0
 10
137.0889769938
 20
166.8574560639
 10
137.0118803193
 20
166.8511591847
 10
136.9823620806
 20
166.8434437146
  0
LINE
  5
43C
100
AcDbEntity
  8
DRAFT
100
AcDbLine
 62
7
  6
CONTINUOUS
 10
163.4886644779
 20
166.8434437146
 11
121.6886644779
 21
166.8434437146
  0
LINE
  5
43D
100
AcDbEntity
  8
DRAFT
100
AcDbLine
 62
7
  6
CONTINUOUS
 10
160.5886644779
 20
166.9574609171
 11
142.5886644779
 21
166.9574609171
  0
LINE
  5
43E
100
AcDbEntity
  8
DRAFT
100
AcDbLine
 62
7
  6
CONTINUOUS
 10
138.5886644779
 20
166.9574609171
 11
124.5886644779
 21
166.9574609171
  0
LINE
  5
43F
100
AcDbEntity
  8
DRAFT
100
AcDbLine
 62
7
  6
CONTINUOUS
 10
144.5886644779
 20
166.9661884496
 11
142.5886644779
 21
166.9661884496
  0
LINE
  5
440
100
AcDbEntity
  8
DRAFT
100
AcDbLine
 62
7
  6
CONTINUOUS
 10
160.6362445635
 20
167.0050410026
 11
144.627517031
 21
167.0050410026
  0
LINE
  5
441
100
AcDbEntity
  8
DRAFT
100
AcDbLine
 62
7
  6
CONTINUOUS
 10
138.5886644779
 20
167.0050410026
 11
124.5410843924
 21
167.0050410026
  0
LINE
  5
442
100
AcDbEntity
  8
DRAFT
100
AcDbLine
 62
250
  6
CONTINUOUS
 10
169.5886644779
 20
167.9969825263
 11
163.5490127592
 21
167.9969825263
  0
LINE
  5
443
100
AcDbEntity
  8
DRAFT
100
AcDbLine
 62
250
  6
CONTINUOUS
 10
121.6283161967
 20
167.9969825263
 11
115.5886644779
 21
167.9969825263
  0
LINE
  5
444
100
AcDbEntity
  8
DRAFT
100
AcDbLine
 62
7
  6
CONTINUOUS
 10
144.5886644779
 20
168.1244225575
 11
142.5886644779
 21
168.1244225575
  0
LINE
  5
445
100
AcDbEntity
  8
ASSI
100
AcDbLine
 62
7
  6
CONTINUOUS
 10
169.5886644779
 20
168.1574609171
 11
163.5680850234
 21
168.1574609171
  0
LINE
  5
446
100
AcDbEntity
  8
ASSI
100
AcDbLine
 62
7
  6
CONTINUOUS
 10
163.0886644779
 20
168.1574609171
 11
122.0886644779
 21
168.1574609171
  0
LINE
  5
447
100
AcDbEntity
  8
ASSI
100
AcDbLine
 62
7
  6
CONTINUOUS
 10
121.6092439325
 20
168.1574609171
 11
115.5886644779
 21
168.1574609171
  0
LWPOLYLINE
  5
448
100
AcDbEntity
  8
0
100
AcDbPolyline
 62
7
  6
CONTINUOUS
 90
13
 70
0
 43
0.3500000006
 10
140.7672322998
 20
188.6217240601
 10
140.4815256958
 20
188.8360085449
 10
140.4815256958
 20
189.4788619995
 10
140.7672322998
 20
189.9074490967
 10
141.4100948181
 20
189.9074490967
 10
141.6958104858
 20
189.4788619995
 10
141.6958104858
 20
188.8360085449
 10
141.4100948181
 20
188.6217240601
 10
141.8386637878
 20
188.1931550903
 10
141.8386637878
 20
187.3360171509
 10
141.4100948181
 20
186.9074481812
 10
140.7672322998
 20
186.9074481812
 10
140.3386633301
 20
187.3360171509
  0
LWPOLYLINE
  5
449
100
AcDbEntity
  8
0
100
AcDbPolyline
 62
7
  6
CONTINUOUS
 90
8
 70
0
 43
0.3500000006
 10
140.4458055725
 20
178.9074457397
 10
141.3029525757
 20
178.9074457397
 10
141.7315215454
 20
179.3360147095
 10
141.7315215454
 20
180.1931526489
 10
141.3029525757
 20
180.6217216187
 10
140.4458055725
 20
180.6217216187
 10
140.4458055725
 20
181.9074466553
 10
141.7315215454
 20
181.9074466553
  0
LWPOLYLINE
  5
44A
100
AcDbEntity
  8
0
100
AcDbPolyline
 62
7
  6
CONTINUOUS
 90
6
 70
0
 43
0.3500000006
 10
142.5886685486
 20
178.9074457397
 10
143.6600909729
 20
178.9074457397
 10
143.8743754578
 20
179.1217302246
 10
143.8743754578
 20
180.1931526489
 10
143.445806488
 20
180.6217216187
 10
143.0172375183
 20
180.6217216187
  0
LWPOLYLINE
  5
44B
100
AcDbEntity
  8
0
100
AcDbPolyline
 62
7
  6
CONTINUOUS
 90
6
 70
0
 43
0.3500000006
 10
142.695810791
 20
186.9074481812
 10
143.7672332153
 20
186.9074481812
 10
143.9815177002
 20
187.121732666
 10
143.9815177002
 20
188.1931550903
 10
143.5529487305
 20
188.6217240601
 10
143.1243797607
 20
188.6217240601
  0
ARC
  5
44C
100
AcDbEntity
  8
0
100
AcDbCircle
 62
7
  6
CONTINUOUS
 10
134.5886644779
 20
43.2574609171
 40
17.0
100
AcDbArc
 50
154.8495111379
 51
156.0109222393
  0
CIRCLE
  5
44D
100
AcDbEntity
  8
RACCORDO
100
AcDbCircle
 62
7
  6
CONTINUOUS
 10
116.0886644779
 20
74.3574609171
 40
9.5
  0
CIRCLE
  5
44E
100
AcDbEntity
  8
RACCORDO
100
AcDbCircle
 62
250
  6
CONTINUOUS
 10
116.0886644779
 20
74.3574609171
 40
8.9999983613
  0
ARC
  5
44F
100
AcDbEntity
  8
RACCORDO
100
AcDbCircle
 62
250
  6
CONTINUOUS
 10
107.0886644779
 20
63.7074609171
 40
6.7913112106
100
AcDbArc
 50
224.2612588401
 51
270.0
  0
ARC
  5
450
100
AcDbEntity
  8
ASSI
100
AcDbCircle
 62
7
  6
CONTINUOUS
 10
107.0886644779
 20
63.8574609171
 40
6.0
100
AcDbArc
 50
180.0
 51
264.9524228029
  0
ARC
  5
451
100
AcDbEntity
  8
DRAFT
100
AcDbCircle
 62
7
  6
CONTINUOUS
 10
107.0886644779
 20
63.8574609171
 40
6.0
100
AcDbArc
 50
180.0
 51
270.0
  0
ARC
  5
452
100
AcDbEntity
  8
RACCORDO
100
AcDbCircle
 62
7
  6
CONTINUOUS
 10
107.0886644779
 20
48.8574609171
 40
5.8636981655
100
AcDbArc
 50
180.0
 51
270.0
  0
ARC
  5
453
100
AcDbEntity
  8
RACCORDO
100
AcDbCircle
 62
7
  6
CONTINUOUS
 10
120.3767856437
 20
50.6074609171
 40
5.5
100
AcDbArc
 50
142.8818288936
 51
145.0881559686
  0
ARC
  5
454
100
AcDbEntity
  8
RACCORDO
100
AcDbCircle
 62
250
  6
CONTINUOUS
 10
107.0886644779
 20
63.8574609171
 40
5.3730280706
100
AcDbArc
 50
180.0
 51
270.0
  0
ARC
  5
455
100
AcDbEntity
  8
RACCORDO
100
AcDbCircle
 62
250
  6
CONTINUOUS
 10
107.0886644779
 20
48.8574609171
 40
4.8636981655
100
AcDbArc
 50
180.0
 51
270.0
  0
ARC
  5
456
100
AcDbEntity
  8
RACCORDO
100
AcDbCircle
 62
7
  6
CONTINUOUS
 10
107.0886644779
 20
63.8574609171
 40
4.2757899725
100
AcDbArc
 50
180.0
 51
270.0
  0
ARC
  5
457
100
AcDbEntity
  8
DRAFT
100
AcDbCircle
 62
7
  6
CONTINUOUS
 10
120.3767856437
 20
50.6074609171
 40
4.0
100
AcDbArc
 50
139.2918554974
 51
143.7911967526
  0
ARC
  5
458
100
AcDbEntity
  8
DRAFT
100
AcDbCircle
 62
7
  6
CONTINUOUS
 10
107.0886644779
 20
63.8574609171
 40
4.0
100
AcDbArc
 50
180.0
 51
270.0
  0
ARC
  5
459
100
AcDbEntity
  8
ASSI
100
AcDbCircle
 62
7
  6
CONTINUOUS
 10
120.1055708858
 20
50.0574609171
 40
3.5
100
AcDbArc
 50
90.0
 51
147.6691716732
  0
CIRCLE
  5
45A
100
AcDbEntity
  8
0
100
AcDbCircle
 62
7
  6
CONTINUOUS
 10
116.0886644779
 20
74.3574609171
 40
2.25
  0
CIRCLE
  5
45B
100
AcDbEntity
  8
0
100
AcDbCircle
 62
7
  6
CONTINUOUS
 10
116.0886644779
 20
74.3574609171
 40
1.8
  0
ARC
  5
45C
100
AcDbEntity
  8
DRAFT
100
AcDbCircle
 62
7
  6
CONTINUOUS
 10
107.0886644779
 20
63.8574609171
 40
1.7757900259
100
AcDbArc
 50
0.0
 51
90.0
  0
CIRCLE
  5
45D
100
AcDbEntity
  8
0
100
AcDbCircle
 62
7
  6
CONTINUOUS
 10
116.0886644779
 20
74.3574609171
 40
1.5
  0
ARC
  5
45E
100
AcDbEntity
  8
DRAFT
100
AcDbCircle
 62
7
  6
CONTINUOUS
 10
107.0886644779
 20
63.8574609171
 40
1.5
100
AcDbArc
 50
0.0
 51
90.0
  0
ARC
  5
45F
100
AcDbEntity
  8
ASSI
100
AcDbCircle
 62
7
  6
CONTINUOUS
 10
120.1055708858
 20
50.0574609171
 40
1.0
100
AcDbArc
 50
90.0000038476
 51
154.8523039447
  0
ARC
  5
460
100
AcDbEntity
  8
RACCORDO
100
AcDbCircle
 62
7
  6
CONTINUOUS
 10
120.1167230024
 20
50.2574609171
 40
0.2
100
AcDbArc
 50
182.000000018
 51
206.3399297544
  0
CIRCLE
  5
461
100
AcDbEntity
  8
RACCORDO
100
AcDbCircle
 62
7
  6
CONTINUOUS
 10
116.0886644779
 20
143.3574609171
 40
9.5
  0
CIRCLE
  5
462
100
AcDbEntity
  8
RACCORDO
100
AcDbCircle
 62
250
  6
CONTINUOUS
 10
116.0886644779
 20
143.3574609171
 40
8.9999983613
  0
ARC
  5
463
100
AcDbEntity
  8
ASSI
100
AcDbCircle
 62
7
  6
CONTINUOUS
 10
107.0886644779
 20
153.8574609171
 40
6.0
100
AcDbArc
 50
90.0
 51
174.952422803
  0
ARC
  5
464
100
AcDbEntity
  8
DRAFT
100
AcDbCircle
 62
7
  6
CONTINUOUS
 10
107.0886644779
 20
153.8574609171
 40
6.0
100
AcDbArc
 50
90.0
 51
180.0
  0
ARC
  5
465
100
AcDbEntity
  8
RACCORDO
100
AcDbCircle
 62
250
  6
CONTINUOUS
 10
107.0886644779
 20
153.8574609171
 40
5.3730280706
100
AcDbArc
 50
90.0
 51
180.0
  0
ARC
  5
466
100
AcDbEntity
  8
RACCORDO
100
AcDbCircle
 62
7
  6
CONTINUOUS
 10
107.0886644779
 20
153.8574609171
 40
4.2757899725
100
AcDbArc
 50
90.0
 51
180.0
  0
ARC
  5
467
100
AcDbEntity
  8
DRAFT
100
AcDbCircle
 62
7
  6
CONTINUOUS
 10
107.0886644779
 20
153.8574609171
 40
4.0
100
AcDbArc
 50
90.0
 51
180.0
  0
CIRCLE
  5
468
100
AcDbEntity
  8
0
100
AcDbCircle
 62
7
  6
CONTINUOUS
 10
116.0886644779
 20
143.3574609171
 40
2.25
  0
CIRCLE
  5
469
100
AcDbEntity
  8
0
100
AcDbCircle
 62
7
  6
CONTINUOUS
 10
116.0886644779
 20
143.3574609171
 40
1.8
  0
ARC
  5
46A
100
AcDbEntity
  8
DRAFT
100
AcDbCircle
 62
7
  6
CONTINUOUS
 10
107.0886644779
 20
153.8574609171
 40
1.7757900259
100
AcDbArc
 50
270.0
 51
360.0
  0
CIRCLE
  5
46B
100
AcDbEntity
  8
0
100
AcDbCircle
 62
7
  6
CONTINUOUS
 10
116.0886644779
 20
143.3574609171
 40
1.5
  0
ARC
  5
46C
100
AcDbEntity
  8
DRAFT
100
AcDbCircle
 62
7
  6
CONTINUOUS
 10
107.0886644779
 20
153.8574609171
 40
1.5
100
AcDbArc
 50
270.0
 51
360.0
  0
ARC
  5
46D
100
AcDbEntity
  8
0
100
AcDbCircle
 62
7
  6
CONTINUOUS
 10
150.5886644779
 20
43.2574609171
 40
17.0
100
AcDbArc
 50
23.9890777607
 51
25.1504888621
  0
CIRCLE
  5
46E
100
AcDbEntity
  8
RACCORDO
100
AcDbCircle
 62
7
  6
CONTINUOUS
 10
169.0886644779
 20
74.3574609171
 40
9.5
  0
CIRCLE
  5
46F
100
AcDbEntity
  8
RACCORDO
100
AcDbCircle
 62
250
  6
CONTINUOUS
 10
169.0886644779
 20
74.3574609171
 40
8.9999983613
  0
ARC
  5
470
100
AcDbEntity
  8
RACCORDO
100
AcDbCircle
 62
250
  6
CONTINUOUS
 10
178.0886644779
 20
63.7074609171
 40
6.7913112106
100
AcDbArc
 50
270.0
 51
315.7387413387
  0
ARC
  5
471
100
AcDbEntity
  8
ASSI
100
AcDbCircle
 62
7
  6
CONTINUOUS
 10
178.0886644779
 20
63.8574609171
 40
6.0
100
AcDbArc
 50
270.0
 51
354.9524228029
  0
ARC
  5
472
100
AcDbEntity
  8
DRAFT
100
AcDbCircle
 62
7
  6
CONTINUOUS
 10
178.0886644779
 20
63.8574609171
 40
6.0
100
AcDbArc
 50
270.0
 51
360.0
  0
ARC
  5
473
100
AcDbEntity
  8
RACCORDO
100
AcDbCircle
 62
7
  6
CONTINUOUS
 10
178.0886644779
 20
48.8574609171
 40
5.8636981655
100
AcDbArc
 50
270.0
 51
360.0
  0
ARC
  5
474
100
AcDbEntity
  8
RACCORDO
100
AcDbCircle
 62
7
  6
CONTINUOUS
 10
164.8005433122
 20
50.6074609171
 40
5.5
100
AcDbArc
 50
34.911844031
 51
37.1181711133
  0
ARC
  5
475
100
AcDbEntity
  8
RACCORDO
100
AcDbCircle
 62
250
  6
CONTINUOUS
 10
178.0886644779
 20
63.8574609171
 40
5.3730280706
100
AcDbArc
 50
270.0
 51
360.0
  0
ARC
  5
476
100
AcDbEntity
  8
RACCORDO
100
AcDbCircle
 62
250
  6
CONTINUOUS
 10
178.0886644779
 20
48.8574609171
 40
4.8636981655
100
AcDbArc
 50
270.0
 51
360.0
  0
CIRCLE
  5
477
100
AcDbEntity
  8
RACCORDO
100
AcDbCircle
 62
7
  6
CONTINUOUS
 10
142.5886644779
 20
80.5574609171
 40
4.8
  0
CIRCLE
  5
478
100
AcDbEntity
  8
RACCORDO
100
AcDbCircle
 62
250
  6
CONTINUOUS
 10
142.5886644779
 20
80.5574609171
 40
4.2999957281
  0
ARC
  5
479
100
AcDbEntity
  8
RACCORDO
100
AcDbCircle
 62
7
  6
CONTINUOUS
 10
178.0886644779
 20
63.8574609171
 40
4.2757899725
100
AcDbArc
 50
270.0
 51
360.0
  0
ARC
  5
47A
100
AcDbEntity
  8
DRAFT
100
AcDbCircle
 62
7
  6
CONTINUOUS
 10
164.8005433122
 20
50.6074609171
 40
4.0
100
AcDbArc
 50
36.2088032449
 51
40.7081445037
  0
ARC
  5
47B
100
AcDbEntity
  8
DRAFT
100
AcDbCircle
 62
7
  6
CONTINUOUS
 10
178.0886644779
 20
63.8574609171
 40
4.0
100
AcDbArc
 50
270.0
 51
360.0
  0
ARC
  5
47C
100
AcDbEntity
  8
ASSI
100
AcDbCircle
 62
7
  6
CONTINUOUS
 10
165.0717580701
 20
50.0574609171
 40
3.5
100
AcDbArc
 50
32.3308283268
 51
90.0
  0
CIRCLE
  5
47D
100
AcDbEntity
  8
0
100
AcDbCircle
 62
7
  6
CONTINUOUS
 10
169.0886644779
 20
74.3574609171
 40
2.25
  0
CIRCLE
  5
47E
100
AcDbEntity
  8
0
100
AcDbCircle
 62
7
  6
CONTINUOUS
 10
169.0886644779
 20
74.3574609171
 40
1.8
  0
ARC
  5
47F
100
AcDbEntity
  8
DRAFT
100
AcDbCircle
 62
7
  6
CONTINUOUS
 10
178.0886644779
 20
63.8574609171
 40
1.7757900259
100
AcDbArc
 50
90.0
 51
180.0
  0
CIRCLE
  5
480
100
AcDbEntity
  8
0
100
AcDbCircle
 62
7
  6
CONTINUOUS
 10
169.0886644779
 20
74.3574609171
 40
1.5
  0
ARC
  5
481
100
AcDbEntity
  8
DRAFT
100
AcDbCircle
 62
7
  6
CONTINUOUS
 10
178.0886644779
 20
63.8574609171
 40
1.5
100
AcDbArc
 50
90.0
 51
180.0
  0
ARC
  5
482
100
AcDbEntity
  8
ASSI
100
AcDbCircle
 62
7
  6
CONTINUOUS
 10
165.0717580701
 20
50.0574609171
 40
1.0
100
AcDbArc
 50
25.1476960553
 51
89.9999961522
  0
ARC
  5
483
100
AcDbEntity
  8
RACCORDO
100
AcDbCircle
 62
7
  6
CONTINUOUS
 10
165.0606059535
 20
50.2574609171
 40
0.2
100
AcDbArc
 50
333.6600702456
 51
357.999999982
  0
CIRCLE
  5
484
100
AcDbEntity
  8
0
100
AcDbCircle
 62
7
  6
CONTINUOUS
 10
142.5886644779
 20
108.8574609171
 40
11.25
  0
ARC
  5
485
100
AcDbEntity
  8
0
100
AcDbCircle
 62
7
  6
CONTINUOUS
 10
142.5886644779
 20
108.8574609171
 40
11.0
100
AcDbArc
 50
95.7391704773
 51
174.2608295227
  0
ARC
  5
486
100
AcDbEntity
  8
0
100
AcDbCircle
 62
7
  6
CONTINUOUS
 10
142.5886644779
 20
108.8574609171
 40
11.0
100
AcDbArc
 50
185.7391704773
 51
264.2608295227
  0
ARC
  5
487
100
AcDbEntity
  8
0
100
AcDbCircle
 62
7
  6
CONTINUOUS
 10
142.5886644779
 20
108.8574609171
 40
11.0
100
AcDbArc
 50
5.7391704773
 51
84.2608295227
  0
ARC
  5
488
100
AcDbEntity
  8
0
100
AcDbCircle
 62
7
  6
CONTINUOUS
 10
142.5886644779
 20
108.8574609171
 40
11.0
100
AcDbArc
 50
275.7391704773
 51
354.2608295227
  0
ARC
  5
489
100
AcDbEntity
  8
0
100
AcDbCircle
 62
7
  6
CONTINUOUS
 10
142.5886644779
 20
108.8574609171
 40
10.1299689469
100
AcDbArc
 50
276.233965798
 51
353.766034202
  0
ARC
  5
48A
100
AcDbEntity
  8
0
100
AcDbCircle
 62
7
  6
CONTINUOUS
 10
142.5886644779
 20
108.8574609171
 40
10.1299689469
100
AcDbArc
 50
6.233965798
 51
83.766034202
  0
ARC
  5
48B
100
AcDbEntity
  8
0
100
AcDbCircle
 62
7
  6
CONTINUOUS
 10
142.5886644779
 20
108.8574609171
 40
10.1299689469
100
AcDbArc
 50
96.233965798
 51
173.766034202
  0
ARC
  5
48C
100
AcDbEntity
  8
0
100
AcDbCircle
 62
7
  6
CONTINUOUS
 10
142.5886644779
 20
108.8574609171
 40
10.1299689469
100
AcDbArc
 50
186.233965798
 51
263.766034202
  0
CIRCLE
  5
48D
100
AcDbEntity
  8
RACCORDO
100
AcDbCircle
 62
7
  6
CONTINUOUS
 10
142.5886644779
 20
137.1574609171
 40
4.8
  0
CIRCLE
  5
48E
100
AcDbEntity
  8
RACCORDO
100
AcDbCircle
 62
250
  6
CONTINUOUS
 10
142.5886644779
 20
137.1574609171
 40
4.2999957281
  0
CIRCLE
  5
48F
100
AcDbEntity
  8
RACCORDO
100
AcDbCircle
 62
7
  6
CONTINUOUS
 10
169.0886644779
 20
143.3574609171
 40
9.5
  0
CIRCLE
  5
490
100
AcDbEntity
  8
RACCORDO
100
AcDbCircle
 62
250
  6
CONTINUOUS
 10
169.0886644779
 20
143.3574609171
 40
8.9999983613
  0
ARC
  5
491
100
AcDbEntity
  8
ASSI
100
AcDbCircle
 62
7
  6
CONTINUOUS
 10
178.0886644779
 20
153.8574609171
 40
6.0
100
AcDbArc
 50
0.0
 51
84.9524228029
  0
ARC
  5
492
100
AcDbEntity
  8
DRAFT
100
AcDbCircle
 62
7
  6
CONTINUOUS
 10
178.0886644779
 20
153.8574609171
 40
6.0
100
AcDbArc
 50
0.0
 51
90.0
  0
ARC
  5
493
100
AcDbEntity
  8
RACCORDO
100
AcDbCircle
 62
250
  6
CONTINUOUS
 10
178.0886644779
 20
153.8574609171
 40
5.3730280706
100
AcDbArc
 50
0.0
 51
90.0
  0
ARC
  5
494
100
AcDbEntity
  8
RACCORDO
100
AcDbCircle
 62
7
  6
CONTINUOUS
 10
178.0886644779
 20
153.8574609171
 40
4.2757899725
100
AcDbArc
 50
0.0
 51
90.0
  0
ARC
  5
495
100
AcDbEntity
  8
DRAFT
100
AcDbCircle
 62
7
  6
CONTINUOUS
 10
178.0886644779
 20
153.8574609171
 40
4.0
100
AcDbArc
 50
0.0
 51
90.0
  0
CIRCLE
  5
496
100
AcDbEntity
  8
0
100
AcDbCircle
 62
7
  6
CONTINUOUS
 10
169.0886644779
 20
143.3574609171
 40
2.25
  0
CIRCLE
  5
497
100
AcDbEntity
  8
0
100
AcDbCircle
 62
7
  6
CONTINUOUS
 10
169.0886644779
 20
143.3574609171
 40
1.8
  0
ARC
  5
498
100
AcDbEntity
  8
DRAFT
100
AcDbCircle
 62
7
  6
CONTINUOUS
 10
178.0886644779
 20
153.8574609171
 40
1.7757900259
100
AcDbArc
 50
180.0
 51
270.0
  0
CIRCLE
  5
499
100
AcDbEntity
  8
0
100
AcDbCircle
 62
7
  6
CONTINUOUS
 10
169.0886644779
 20
143.3574609171
 40
1.5
  0
ARC
  5
49A
100
AcDbEntity
  8
DRAFT
100
AcDbCircle
 62
7
  6
CONTINUOUS
 10
178.0886644779
 20
153.8574609171
 40
1.5
100
AcDbArc
 50
180.0
 51
270.0
  0
ELLIPSE
  5
49B
100
AcDbEntity
  8
DRAFT
100
AcDbEllipse
 62
7
  6
CONTINUOUS
 10
144.5799369455
 20
164.3574609171
 30
0.0
 11
-0.0
 21
3.8
 31
0.0
 40
0.0174550649
 41
-0.7999652996
 42
-0.1319616077
  0
ELLIPSE
  5
49C
100
AcDbEntity
  8
DRAFT
100
AcDbEllipse
 62
7
  6
CONTINUOUS
 10
124.5886644779
 20
164.3574609171
 30
0.0
 11
-0.0
 21
3.8
 31
0.0
 40
0.0174550649
 41
0.7999652996
 42
0.8575086426
  0
ELLIPSE
  5
49D
100
AcDbEntity
  8
DRAFT
100
AcDbEllipse
 62
7
  6
CONTINUOUS
 10
124.5886644779
 20
164.3574609171
 30
0.0
 11
0.0
 21
2.6
 31
0.0
 40
0.0174550649
 41
-0.2966505613
 42
0.0
  0
ELLIPSE
  5
49E
100
AcDbEntity
  8
DRAFT
100
AcDbEllipse
 62
7
  6
CONTINUOUS
 10
160.5886644779
 20
164.3574609171
 30
0.0
 11
-0.0
 21
2.6
 31
0.0
 40
0.0174550649
 41
0.0
 42
0.2966505613
  0
ELLIPSE
  5
49F
100
AcDbEntity
  8
DRAFT
100
AcDbEllipse
 62
7
  6
CONTINUOUS
 10
160.5886644779
 20
164.3574609171
 30
0.0
 11
0.0
 21
3.8
 31
0.0
 40
0.0174550649
 41
5.4256766645
 42
5.4832200076
  0
ELLIPSE
  5
4A0
100
AcDbEntity
  8
RACCORDO
100
AcDbEllipse
 62
7
  6
CONTINUOUS
 10
122.7737445562
 20
53.3775936581
 30
0.0
 11
0.0
 21
0.5
 31
0.0
 40
0.0349207695
 41
-0.7149348418
 42
-0.0261799388
  0
ELLIPSE
  5
4A1
100
AcDbEntity
  8
RACCORDO
100
AcDbEllipse
 62
7
  6
CONTINUOUS
 10
115.4035843996
 20
53.3775936581
 30
0.0
 11
0.0
 21
0.5
 31
0.0
 40
0.0349207695
 41
0.0261799388
 42
0.7149348418
  0
ELLIPSE
  5
4A2
100
AcDbEntity
  8
RACCORDO
100
AcDbEllipse
 62
7
  6
CONTINUOUS
 10
162.4035843996
 20
53.3775936581
 30
0.0
 11
0.0
 21
0.5
 31
0.0
 40
0.0349207695
 41
0.0261799388
 42
0.7149348429
  0
ELLIPSE
  5
4A3
100
AcDbEntity
  8
RACCORDO
100
AcDbEllipse
 62
7
  6
CONTINUOUS
 10
169.7737445562
 20
53.3775936581
 30
0.0
 11
-0.0
 21
0.5
 31
0.0
 40
0.0349207695
 41
-0.7149348429
 42
-0.0261799388
  0
ELLIPSE
  5
4A4
100
AcDbEntity
  8
RACCORDO
100
AcDbEllipse
 62
7
  6
CONTINUOUS
 10
115.4035843996
 20
56.7373281761
 30
0.0
 11
0.0
 21
0.5
 31
0.0
 40
0.0349207695
 41
1.5707963268
 42
3.1154127148
  0
ELLIPSE
  5
4A5
100
AcDbEntity
  8
RACCORDO
100
AcDbEllipse
 62
7
  6
CONTINUOUS
 10
169.7737445562
 20
56.7373281761
 30
0.0
 11
0.0
 21
0.5
 31
0.0
 40
0.0349207695
 41
-3.1154127148
 42
-1.5707963268
  0
ELLIPSE
  5
4A6
100
AcDbEntity
  8
RACCORDO
100
AcDbEllipse
 62
7
  6
CONTINUOUS
 10
162.4035843996
 20
56.7373281761
 30
0.0
 11
0.0
 21
0.5
 31
0.0
 40
0.0349207695
 41
-4.7123889804
 42
-3.1677725924
  0
ELLIPSE
  5
4A7
100
AcDbEntity
  8
DRAFT
100
AcDbEllipse
 62
7
  6
CONTINUOUS
 10
163.8501537726
 20
110.5308518549
 30
0.0
 11
0.0
 21
60.0
 31
0.0
 40
0.0174550649
 41
0.2916566274
 42
0.3524111713
  0
ELLIPSE
  5
4A8
100
AcDbEntity
  8
DRAFT
100
AcDbEllipse
 62
7
  6
CONTINUOUS
 10
163.5680850234
 20
164.3574609171
 30
0.0
 11
-0.0
 21
3.8
 31
0.0
 40
0.0174550649
 41
-0.0
 42
0.2916566274
  0
ELLIPSE
  5
4A9
100
AcDbEntity
  8
DRAFT
100
AcDbEllipse
 62
7
  6
CONTINUOUS
 10
121.6092439325
 20
164.3574609171
 30
0.0
 11
0.0
 21
3.8
 31
0.0
 40
0.0174550649
 41
-0.2916566274
 42
0.0
  0
ELLIPSE
  5
4AA
100
AcDbEntity
  8
DRAFT
100
AcDbEllipse
 62
7
  6
CONTINUOUS
 10
121.3271751833
 20
110.5308518549
 30
0.0
 11
-0.0
 21
60.0
 31
0.0
 40
0.0174550649
 41
-0.3524111713
 42
-0.2916566274
  0
ELLIPSE
  5
4AB
100
AcDbEntity
  8
RACCORDO
100
AcDbEllipse
 62
7
  6
CONTINUOUS
 10
115.2813617064
 20
56.9161497065
 30
0.0
 11
0.0
 21
1.0
 31
0.0
 40
0.0349207695
 41
-1.5707963268
 42
-0.3435226509
  0
ELLIPSE
  5
4AC
100
AcDbEntity
  8
RACCORDO
100
AcDbEllipse
 62
7
  6
CONTINUOUS
 10
122.8959672495
 20
56.9161497065
 30
0.0
 11
0.0
 21
1.0
 31
0.0
 40
0.0349207695
 41
0.3435226509
 42
1.5707963268
  0
ELLIPSE
  5
4AD
100
AcDbEntity
  8
RACCORDO
100
AcDbEllipse
 62
7
  6
CONTINUOUS
 10
126.2315688936
 20
56.9161497065
 30
0.0
 11
0.0
 21
1.0
 31
0.0
 40
0.0174550649
 41
-1.5707963268
 42
-0.3432664264
  0
ELLIPSE
  5
4AE
100
AcDbEntity
  8
RACCORDO
100
AcDbEllipse
 62
7
  6
CONTINUOUS
 10
129.5457600623
 20
56.9161497065
 30
0.0
 11
0.0
 21
1.0
 31
0.0
 40
0.0174550649
 41
0.3432664264
 42
1.5707963268
  0
ELLIPSE
  5
4AF
100
AcDbEntity
  8
RACCORDO
100
AcDbEllipse
 62
7
  6
CONTINUOUS
 10
155.6315688936
 20
56.9161497065
 30
0.0
 11
-0.0
 21
1.0
 31
0.0
 40
0.0174550649
 41
-1.5707963268
 42
-0.3432664264
  0
ELLIPSE
  5
4B0
100
AcDbEntity
  8
RACCORDO
100
AcDbEllipse
 62
7
  6
CONTINUOUS
 10
158.9457600623
 20
56.9161497065
 30
0.0
 11
-0.0
 21
1.0
 31
0.0
 40
0.0174550649
 41
0.3432664264
 42
1.5707963268
  0
ELLIPSE
  5
4B1
100
AcDbEntity
  8
RACCORDO
100
AcDbEllipse
 62
7
  6
CONTINUOUS
 10
162.2813617064
 20
56.9161497065
 30
0.0
 11
0.0
 21
1.0
 31
0.0
 40
0.0349207695
 41
-1.5707963268
 42
-0.3435226509
  0
ELLIPSE
  5
4B2
100
AcDbEntity
  8
RACCORDO
100
AcDbEllipse
 62
7
  6
CONTINUOUS
 10
169.8959672495
 20
56.9161497065
 30
0.0
 11
0.0
 21
1.0
 31
0.0
 40
0.0349207695
 41
0.3435226509
 42
1.5707963268
  0
ELLIPSE
  5
4B3
100
AcDbEntity
  8
RACCORDO
100
AcDbEllipse
 62
7
  6
CONTINUOUS
 10
156.0834736569
 20
57.7902640351
 30
0.0
 11
0.3
 21
-0.0
 31
0.0
 40
0.0087268678
 41
-3.1241393611
 42
-1.5707963268
  0
ELLIPSE
  5
4B4
100
AcDbEntity
  8
RACCORDO
100
AcDbEllipse
 62
7
  6
CONTINUOUS
 10
158.493855299
 20
57.7902640351
 30
0.0
 11
0.3
 21
0.0
 31
0.0
 40
0.0087268678
 41
-1.5707963268
 42
-0.0174532925
  0
ELLIPSE
  5
4B5
100
AcDbEntity
  8
RACCORDO
100
AcDbEllipse
 62
7
  6
CONTINUOUS
 10
126.8014653173
 20
45.4702617565
 30
0.0
 11
0.3536610946
 21
0.3536610946
 31
0.0
 40
0.9996954599
 41
2.3563467834
 42
3.9268385237
  0
ELLIPSE
  5
4B6
100
AcDbEntity
  8
RACCORDO
100
AcDbEllipse
 62
7
  6
CONTINUOUS
 10
126.8014653173
 20
53.9446600777
 30
0.0
 11
-0.3536610946
 21
0.3536610946
 31
0.0
 40
0.9996954599
 41
-0.7852458701
 42
0.7852458701
  0
ELLIPSE
  5
4B7
100
AcDbEntity
  8
RACCORDO
100
AcDbEllipse
 62
7
  6
CONTINUOUS
 10
158.3758636386
 20
45.4702617565
 30
0.0
 11
0.3536610946
 21
-0.3536610946
 31
0.0
 40
0.9996954599
 41
-0.7852458701
 42
0.7852458701
  0
ELLIPSE
  5
4B8
100
AcDbEntity
  8
RACCORDO
100
AcDbEllipse
 62
7
  6
CONTINUOUS
 10
158.3758636386
 20
53.9446600777
 30
0.0
 11
0.3536610946
 21
0.3536610946
 31
0.0
 40
0.9996954599
 41
-0.7852458701
 42
0.7852458701
  0
ELLIPSE
  5
4B9
100
AcDbEntity
  8
RACCORDO
100
AcDbEllipse
 62
7
  6
CONTINUOUS
 10
158.628259299
 20
56.0178660961
 30
0.0
 11
-0.2121966568
 21
0.2121966568
 31
0.0
 40
0.9996954599
 41
-3.9268385237
 42
-2.3563467834
  0
ELLIPSE
  5
4BA
100
AcDbEntity
  8
RACCORDO
100
AcDbEllipse
 62
7
  6
CONTINUOUS
 10
155.9490696569
 20
56.0178660961
 30
0.0
 11
0.2121966568
 21
0.2121966568
 31
0.0
 40
0.9996954599
 41
-3.9268385237
 42
-2.3563467834
  0
ELLIPSE
  5
4BB
100
AcDbEntity
  8
RACCORDO
100
AcDbEllipse
 62
7
  6
CONTINUOUS
 10
126.7491001225
 20
56.2178965617
 30
0.0
 11
0.3536610946
 21
0.3536610946
 31
0.0
 40
0.9996954599
 41
-3.9268385237
 42
-2.3563467834
  0
ELLIPSE
  5
4BC
100
AcDbEntity
  8
RACCORDO
100
AcDbEllipse
 62
7
  6
CONTINUOUS
 10
126.888740642
 20
56.3575370811
 30
0.0
 11
0.3536610946
 21
0.3536610946
 31
0.0
 40
0.9996954599
 41
2.3563467834
 42
2.3734954895
  0
ELLIPSE
  5
4BD
100
AcDbEntity
  8
RACCORDO
100
AcDbEllipse
 62
7
  6
CONTINUOUS
 10
128.8885883139
 20
56.3575370811
 30
0.0
 11
-0.3536610946
 21
0.3536610946
 31
0.0
 40
0.9996954599
 41
-2.3734954895
 42
-2.3563467834
  0
ELLIPSE
  5
4BE
100
AcDbEntity
  8
RACCORDO
100
AcDbEllipse
 62
7
  6
CONTINUOUS
 10
129.0282288333
 20
56.2178965617
 30
0.0
 11
0.3536610946
 21
-0.3536610946
 31
0.0
 40
0.9996954599
 41
-0.7852458701
 42
0.7852458701
  0
ENDSEC
  0
SECTION
  2
OBJECTS
  0
DICTIONARY
  5
C
100
AcDbDictionary
280
0
281
1
  3
ACAD_GROUP
350
D
  3
ACAD_MLINESTYLE
350
17
  3
ACAD_LAYOUT
350
1A
  3
ACAD_PLOTSETTINGS
350
19
  3
ACAD_PLOTSTYLENAME
350
E
  0
DICTIONARY
  5
D
102
{ACAD_REACTORS
330
C
102
}
100
AcDbDictionary
280
0
281
1
  0
ACDBDICTIONARYWDFLT
  5
E
102
{ACAD_REACTORS
330
C
102
}
100
AcDbDictionary
281
1
  3
Normal
350
F
100
AcDbDictionaryWithDefault
340
F
  0
DICTIONARY
  5
17
102
{ACAD_REACTORS
330
C
102
}
100
AcDbDictionary
280
0
281
1
  3
Standard
350
18
  0
DICTIONARY
  5
19
102
{ACAD_REACTORS
330
C
102
}
100
AcDbDictionary
281
1
  0
DICTIONARY
  5
1A
102
{ACAD_REACTORS
330
C
102
}
100
AcDbDictionary
281
1
  3
Model
350
4BF
  3
Layout1
350
4C0
  0
ACDBPLACEHOLDER
  5
F
102
{ACAD_REACTORS
330
E
102
}
  0
MLINESTYLE
  5
18
102
{ACAD_REACTORS
330
17
102
}
100
AcDbMlineStyle
  2
STANDARD
 70
0
  3

 62
256
 51
90.0
 52
90.0
 71
2
 49
0.5
 62
256
  6
BYLAYER
 49
-0.5
 62
256
  6
BYLAYER
  0
LAYOUT
  5
4BF
102
{ACAD_REACTORS
330
1A
102
}
100
AcDbPlotSettings
  1

  2
none_device
  4
ISO_A4_(297.00_x_210.00_MM)
  6

 40
0.0
 41
0.0
 42
0.0
 43
0.0
 44
297.0
 45
210.0
 46
0.0
 47
0.0
 48
0.0
 49
0.0
140
0.0
141
0.0
142
1.0
143
1.0
 70
1024
 72
1
 73
0
 74
0
  7

 75
0
147
1.0
148
0.0
149
0.0
100
AcDbLayout
  1
Model
 70
0
 71
0
 10
0.0
 20
0.0
 11
297.0
 21
210.0
 12
0.0
 22
0.0
 32
0.0
 14
0.0
 24
0.0
 34
0.0
 15
0.0
 25
0.0
 35
0.0
146
0.0
 13
0.0
 23
0.0
 33
0.0
 16
1.0
 26
0.0
 36
0.0
 17
0.0
 27
1.0
 37
0.0
 76
0
330
21C
345
0
346
0
  0
LAYOUT
  5
4C0
102
{ACAD_REACTORS
330
1A
102
}
100
AcDbPlotSettings
  1

  2
none_device
  4
ISO_A4_(297.00_x_210.00_MM)
  6

 40
0.0
 41
0.0
 42
0.0
 43
0.0
 44
297.0
 45
210.0
 46
0.0
 47
0.0
 48
0.0
 49
0.0
140
0.0
141
0.0
142
1.0
143
1.0
 70
0
 72
1
 73
0
 74
0
  7

 75
0
147
1.0
148
0.0
149
0.0
100
AcDbLayout
  1
Layout1
 70
0
 71
1
 10
0.0
 20
0.0
 11
297.0
 21
210.0
 12
0.0
 22
0.0
 32
0.0
 14
0.0
 24
0.0
 34
0.0
 15
0.0
 25
0.0
 35
0.0
146
0.0
 13
0.0
 23
0.0
 33
0.0
 16
1.0
 26
0.0
 36
0.0
 17
0.0
 27
1.0
 37
0.0
 76
0
330
21D
345
0
346
0
  0
ENDSEC
  0
EOF
