  0
SECTION
  2
HEADER
  9
$ACADVER
  1
AC1024
  9
$DWGCODEPAGE
  3
ANSI_1252
  9
$EXTMAX
 10
420.0
 20
297.0
 30
0.0
  9
$EXTMIN
 10
0.0
 20
0.0
 30
0.0
  9
$LIMMIN
 10
0.0
 20
0.0
  9
$LIMMAX
 10
420.0
 20
297.0
  9
$VIEWCTR
 10
210.0
 20
148.5
  9
$VIEWSIZE
 40
297.0
  9
$CLAYER
  8
0
  9
$LTSCALE
 40
23.1
  9
$CELTYPE
  6
BYLAYER
  9
$DIMSCALE
 40
1.0
  9
$DIMASZ
 40
3.0
  9
$DIMEXO
 40
0.5
  9
$DIMDLI
 40
15.96
  9
$DIMEXE
 40
1.5
  9
$DIMCEN
 40
3.78
  9
$DIMLFAC
 40
1.0
  9
$DIMBLK
  1
_FILLED
  9
$DIMALT
 70
0
  9
$DIMALTF
 40
0.0393700787
  9
$DIMTXT
 40
3.0
  9
$DIMTOL
 70
1
  9
$DIMLIM
 70
0
  9
$DIMTFAC
 40
1.0
  9
$DIMTP
 40
0.01
  9
$DIMTM
 40
0.01
  9
$DIMGAP
 40
0.625
  9
$DIMDSEP
 70
44
  9
$AUNITS
 70
0
  9
$PDMODE
 70
3
  9
$PDSIZE
 40
3.0
  9
$HANDSEED
  5
4C0
  9
$TILEMODE
 70
1
  9
$MEASUREMENT
 70
1
  9
$INSUNITS
 70
4
  0
ENDSEC
  0
SECTION
  2
CLASSES
  0
CLASS
  1
ACDBDICTIONARYWDFLT
  2
AcDbDictionaryWithDefault
  3
AutoCAD 2000
 90
0
 91
1
280
0
281
0
  0
CLASS
  1
ACDBPLACEHOLDER
  2
AcDbPlaceHolder
  3
AutoCAD 2000
 90
0
 91
1
280
0
281
0
  0
CLASS
  1
LAYOUT
  2
AcDbLayout
  3
AutoCAD 2000
 90
0
 91
0
280
0
281
0
  0
ENDSEC
  0
SECTION
  2
TABLES
  0
TABLE
  2
VPORT
  5
8
100
AcDbSymbolTable
 70
2
  0
VPORT
  5
1F4
100
AcDbSymbolTableRecord
100
AcDbViewportTableRecord
  2
*ACTIVE
 70
0
 10
0.0
 20
0.0
 11
1.0
 21
1.0
 12
210.0
 22
148.5
 13
0.0
 23
0.0
 14
1.0
 24
1.0
 15
0.0
 25
0.0
 16
0.0
 26
0.0
 36
1.0
 17
0.0
 27
0.0
 37
0.0
 40
297.0
 41
1.4141414141
 42
50.0
 43
0.0
 44
0.0
 50
0.0
 51
0.0
 71
0
 72
100
 73
1
 74
1
 75
0
 76
0
 77
0
 78
0
  0
ENDTAB
  0
TABLE
  2
LTYPE
  5
5
100
AcDbSymbolTable
 70
6
  0
LTYPE
  5
14
100
AcDbSymbolTableRecord
100
AcDbLinetypeTableRecord
  2
BYBLOCK
 70
0
  3

 72
65
 73
0
 40
0.0
  0
LTYPE
  5
15
100
AcDbSymbolTableRecord
100
AcDbLinetypeTableRecord
  2
BYLAYER
 70
0
  3

 72
65
 73
0
 40
0.0
  0
LTYPE
  5
16
100
AcDbSymbolTableRecord
100
AcDbLinetypeTableRecord
  2
CONTINUOUS
 70
64
  3
Solid line
 72
65
 73
0
 40
0.0
  0
LTYPE
  5
1F5
100
AcDbSymbolTableRecord
100
AcDbLinetypeTableRecord
  2
CENTER
 70
64
  3
____ _ ____ _ ____ _ ____ _ ____ _ ____ _ ____
 72
65
 73
4
 40
0.6
 49
0.375
 74
0
 49
-0.075
 74
0
 49
0.075
 74
0
 49
-0.075
 74
0
  0
LTYPE
  5
1F6
100
AcDbSymbolTableRecord
100
AcDbLinetypeTableRecord
  2
HIDDEN
 70
64
  3
- - - - - - - - - - - - - - - - - - - -
 72
65
 73
2
 40
0.2
 49
0.1
 74
0
 49
-0.1
 74
0
  0
LTYPE
  5
1F7
100
AcDbSymbolTableRecord
100
AcDbLinetypeTableRecord
  2
PHANTOM
 70
64
  3
_____ _ _ _____ _ _ _____ _ _ _____
 72
65
 73
6
 40
0.8
 49
0.45
 74
0
 49
-0.05
 74
0
 49
0.1
 74
0
 49
-0.05
 74
0
 49
0.1
 74
0
 49
-0.05
 74
0
  0
LTYPE
  5
1F8
100
AcDbSymbolTableRecord
100
AcDbLinetypeTableRecord
  2
DOT
 70
64
  3
. . . . . . . . . . . . . . . . . . . .
 72
65
 73
2
 40
0.2
 49
0.1
 74
0
 49
-0.1
 74
0
  0
LTYPE
  5
1F9
100
AcDbSymbolTableRecord
100
AcDbLinetypeTableRecord
  2
DASHED
 70
64
  3
- - - - - - - - - - - - - - - - - - - -
 72
65
 73
2
 40
0.2
 49
0.1
 74
0
 49
-0.1
 74
0
  0
ENDTAB
  0
TABLE
  2
LAYER
  5
2
100
AcDbSymbolTable
 70
36
  0
LAYER
  5
10
100
AcDbSymbolTableRecord
100
AcDbLayerTableRecord
  2
0
 70
0
 62
7
  6
CONTINUOUS
370
-3
390
F
  0
LAYER
  5
1FA
100
AcDbSymbolTableRecord
100
AcDbLayerTableRecord
  2
DEFAULT_1
 70
0
 62
7
  6
CENTER
370
-3
390
F
  0
LAYER
  5
1FB
100
AcDbSymbolTableRecord
100
AcDbLayerTableRecord
  2
DEFAULT_2
 70
0
 62
7
  6
HIDDEN
370
-3
390
F
  0
LAYER
  5
1FC
100
AcDbSymbolTableRecord
100
AcDbLayerTableRecord
  2
DEFAULT_3
 70
0
 62
7
  6
PHANTOM
370
-3
390
F
  0
LAYER
  5
1FD
100
AcDbSymbolTableRecord
100
AcDbLayerTableRecord
  2
ASSI
 70
0
 62
7
  6
CONTINUOUS
370
-3
390
F
  0
LAYER
  5
1FE
100
AcDbSymbolTableRecord
100
AcDbLayerTableRecord
  2
COLOR5
 70
0
 62
7
  6
CONTINUOUS
370
-3
390
F
  0
LAYER
  5
1FF
100
AcDbSymbolTableRecord
100
AcDbLayerTableRecord
  2
COORDINATE
 70
0
 62
7
  6
CONTINUOUS
370
-3
390
F
  0
LAYER
  5
200
100
AcDbSymbolTableRecord
100
AcDbLayerTableRecord
  2
COORD_ORIGINE
 70
0
 62
7
  6
CONTINUOUS
370
-3
390
F
  0
LAYER
  5
201
100
AcDbSymbolTableRecord
100
AcDbLayerTableRecord
  2
COSMETICHE
 70
0
 62
7
  6
CONTINUOUS
370
-3
390
F
  0
LAYER
  5
202
100
AcDbSymbolTableRecord
100
AcDbLayerTableRecord
  2
CURVE
 70
0
 62
7
  6
CONTINUOUS
370
-3
390
F
  0
LAYER
  5
203
100
AcDbSymbolTableRecord
100
AcDbLayerTableRecord
  2
DRAFT
 70
0
 62
7
  6
CONTINUOUS
370
-3
390
F
  0
LAYER
  5
204
100
AcDbSymbolTableRecord
100
AcDbLayerTableRecord
  2
IMPORT_FEATURES
 70
0
 62
7
  6
CONTINUOUS
370
-3
390
F
  0
LAYER
  5
205
100
AcDbSymbolTableRecord
100
AcDbLayerTableRecord
  2
INTF_1
 70
0
 62
7
  6
CONTINUOUS
370
-3
390
F
  0
LAYER
  5
206
100
AcDbSymbolTableRecord
100
AcDbLayerTableRecord
  2
INTF_2
 70
0
 62
7
  6
CONTINUOUS
370
-3
390
F
  0
LAYER
  5
207
100
AcDbSymbolTableRecord
100
AcDbLayerTableRecord
  2
INTF_3
 70
0
 62
7
  6
CONTINUOUS
370
-3
390
F
  0
LAYER
  5
208
100
AcDbSymbolTableRecord
100
AcDbLayerTableRecord
  2
NOTE
 70
0
 62
7
  6
CONTINUOUS
370
-3
390
F
  0
LAYER
  5
209
100
AcDbSymbolTableRecord
100
AcDbLayerTableRecord
  2
PIANI
 70
0
 62
7
  6
CONTINUOUS
370
-3
390
F
  0
LAYER
  5
20A
100
AcDbSymbolTableRecord
100
AcDbLayerTableRecord
  2
PIANI_ORIGINE
 70
0
 62
7
  6
CONTINUOUS
370
-3
390
F
  0
LAYER
  5
20B
100
AcDbSymbolTableRecord
100
AcDbLayerTableRecord
  2
PUNTI
 70
0
 62
7
  6
CONTINUOUS
370
-3
390
F
  0
LAYER
  5
20C
100
AcDbSymbolTableRecord
100
AcDbLayerTableRecord
  2
RACCORDO
 70
0
 62
7
  6
CONTINUOUS
370
-3
390
F
  0
LAYER
  5
20D
100
AcDbSymbolTableRecord
100
AcDbLayerTableRecord
  2
RGB____0____0____0__
 70
0
 62
7
  6
CONTINUOUS
370
-3
390
F
  0
LAYER
  5
20E
100
AcDbSymbolTableRecord
100
AcDbLayerTableRecord
  2
SMUSSO
 70
0
 62
7
  6
CONTINUOUS
370
-3
390
F
  0
LAYER
  5
20F
100
AcDbSymbolTableRecord
100
AcDbLayerTableRecord
  2
SUPERFICI
 70
0
 62
7
  6
CONTINUOUS
370
-3
390
F
  0
LAYER
  5
210
100
AcDbSymbolTableRecord
100
AcDbLayerTableRecord
  2
TRASH
 70
0
 62
7
  6
CONTINUOUS
370
-3
390
F
  0
LAYER
  5
211
100
AcDbSymbolTableRecord
100
AcDbLayerTableRecord
  2
XSEC_DATUMS
 70
0
 62
7
  6
CONTINUOUS
370
-3
390
F
  0
ENDTAB
  0
TABLE
  2
STYLE
  5
3
100
AcDbSymbolTable
 70
1
  0
STYLE
  5
11
100
AcDbSymbolTableRecord
100
AcDbTextStyleTableRecord
  2
STANDARD
 70
0
 40
0.0
 41
0.8
 50
0.0
 71
0
 42
0.2
  3
txt
  4

  0
STYLE
  5
212
100
AcDbSymbolTableRecord
100
AcDbTextStyleTableRecord
  2
TEXTSTYLE_1
 70
0
 40
0.0
 41
0.8
 50
0.0
 71
0
 42
0.2
  3
gdt
  4

  0
ENDTAB
  0
TABLE
  2
VIEW
  5
6
100
AcDbSymbolTable
 70
0
  0
ENDTAB
  0
TABLE
  2
UCS
  5
7
100
AcDbSymbolTable
 70
0
  0
ENDTAB
  0
TABLE
  2
APPID
  5
9
100
AcDbSymbolTable
 70
1
  0
APPID
  5
213
100
AcDbSymbolTableRecord
100
AcDbRegAppTableRecord
  2
ACAD
 70
0
  0
ENDTAB
  0
TABLE
  2
BLOCK_RECORD
  5
1
100
AcDbSymbolTable
 70
0
  0
BLOCK_RECORD
  5
214
100
AcDbSymbolTableRecord
100
AcDbBlockTableRecord
  2
*Model_Space
  0
BLOCK_RECORD
  5
215
100
AcDbSymbolTableRecord
100
AcDbBlockTableRecord
  2
*Paper_Space
  0
BLOCK_RECORD
  5
216
100
AcDbSymbolTableRecord
100
AcDbBlockTableRecord
  2
_FILLED
  0
BLOCK_RECORD
  5
217
100
AcDbSymbolTableRecord
100
AcDbBlockTableRecord
  2
*D0
  0
BLOCK_RECORD
  5
218
100
AcDbSymbolTableRecord
100
AcDbBlockTableRecord
  2
*D1
  0
BLOCK_RECORD
  5
219
100
AcDbSymbolTableRecord
100
AcDbBlockTableRecord
  2
*D2
  0
ENDTAB
  0
TABLE
  2
DIMSTYLE
  5
A
100
AcDbSymbolTable
 70
1
100
AcDbDimStyleTable
 71
0
  0
DIMSTYLE
105
21A
100
AcDbSymbolTableRecord
100
AcDbDimStyleTableRecord
  2
STANDARD
 70
0
  3

  4

 40
1.0
 41
3.0
 42
0.5
 43
0.38
 44
1.5
 45
0.0
 46
0.0
 47
0.01
 48
0.01
140
3.0
141
0.09
142
0.0
143
25.4
144
1.0
145
0.0
146
1.0
147
0.625
 71
1.0
 72
0.0
 73
0
 74
0
 75
0
 76
0
 77
1
 78
8
 79
2
170
0
171
1
172
0
173
0
174
0
175
0
176
0
177
0
178
0
270
2
179
2
271
2
272
2
273
2
274
2
275
0
280
0
281
0
282
0
283
1
284
8
285
0
286
0
287
3
288
0
340
11
278
44
341
216
342
216
343
216
344
216
  0
DIMSTYLE
105
21B
100
AcDbSymbolTableRecord
100
AcDbDimStyleTableRecord
  2
DIMSTYLE_1
 70
0
  3

  4

 40
1.0
 41
3.0
 42
0.5
 43
0.38
 44
1.5
 45
0.0
 46
0.0
 47
0.0
 48
0.0
140
3.0
141
0.09
142
0.0
143
25.4
144
1.0
145
0.0
146
1.0
147
0.75
 71
0.0
 72
0.0
 73
0
 74
0
 75
0
 76
0
 77
1
 78
8
 79
2
170
0
171
1
172
0
173
0
174
0
175
0
176
0
177
0
178
0
270
2
179
2
271
1
272
1
273
2
274
2
275
0
280
0
281
0
282
0
283
1
284
8
285
0
286
0
287
3
288
0
340
11
278
44
341
216
342
216
343
216
344
216
  0
DIMSTYLE
105
21C
100
AcDbSymbolTableRecord
100
AcDbDimStyleTableRecord
  2
DIMSTYLE_2
 70
0
  3

  4

 40
1.0
 41
3.0
 42
0.5
 43
0.38
 44
1.5
 45
0.0
 46
0.0
 47
0.0
 48
0.0
140
3.0
141
0.09
142
0.0
143
25.4
144
1.0
145
0.0
146
1.0
147
0.75
 71
0.0
 72
0.0
 73
0
 74
0
 75
0
 76
0
 77
1
 78
8
 79
2
170
0
171
1
172
0
173
0
174
0
175
0
176
0
177
0
178
0
270
2
179
2
271
2
272
2
273
2
274
2
275
0
280
0
281
0
282
0
283
1
284
8
285
0
286
0
287
3
288
0
340
11
278
44
341
216
342
216
343
216
344
216
  0
ENDTAB
  0
ENDSEC
  0
SECTION
  2
BLOCKS
  0
BLOCK
  5
20
100
AcDbEntity
  8
0
100
AcDbBlockBegin
  2
*Model_Space
 70
0
 10
0.0
 20
0.0
 30
0.0
  3
*Model_Space
  1

  0
ENDBLK
  5
21
100
AcDbEntity
  8
0
100
AcDbBlockEnd
  0
BLOCK
  5
1C
100
AcDbEntity
  8
0
100
AcDbBlockBegin
  2
*Paper_Space
 70
0
 10
0.0
 20
0.0
 30
0.0
  3
*Paper_Space
  1

  0
ENDBLK
  5
1D
100
AcDbEntity
  8
0
100
AcDbBlockEnd
  0
BLOCK
  5
21D
100
AcDbEntity
  8
0
100
AcDbBlockBegin
  2
_FILLED
 70
64
 10
0.0
 20
0.0
  3
_FILLED
  1

  0
SOLID
  5
21E
100
AcDbEntity
  8
0
  6
BYBLOCK
 62
0
100
AcDbTrace
 10
0.0
 20
0.0
 11
-1.0
 21
0.3166666667
 12
-1.0
 22
-0.3166666667
 13
-1.0
 23
-0.3166666667
  0
ENDBLK
  5
21F
100
AcDbEntity
  8
0
  6
BYBLOCK
 62
0
100
AcDbBlockEnd
  0
BLOCK
  5
220
100
AcDbEntity
  8
0
100
AcDbBlockBegin
 62
7
  6
CONTINUOUS
  2
*D0
 70
65
 10
0.0
 20
0.0
  3
*D0
  1

  0
LINE
  5
221
100
AcDbEntity
  8
0
100
AcDbLine
 62
7
  6
CONTINUOUS
 10
-23.1562844698
 20
30.0263836145
 11
1.0166440017
 21
30.0263836145
  0
LINE
  5
222
100
AcDbEntity
  8
0
100
AcDbLine
 62
7
  6
CONTINUOUS
 10
-25.4062844698
 20
-30.5086568998
 11
1.0166440017
 21
-30.5086568998
  0
LINE
  5
223
100
AcDbEntity
  8
0
100
AcDbLine
 62
7
  6
CONTINUOUS
 10
-0.4833559983
 20
30.0263836145
 11
-0.4833559983
 21
-0.2411366426
  0
LINE
  5
224
100
AcDbEntity
  8
0
100
AcDbLine
 62
7
  6
CONTINUOUS
 10
-0.4833559983
 20
-30.5086568998
 11
-0.4833559983
 21
-0.2411366426
  0
INSERT
  5
225
100
AcDbEntity
  8
0
100
AcDbBlockReference
 62
7
  6
CONTINUOUS
  2
_FILLED
 10
-0.4833559983
 20
30.0263836145
 41
3.0
 42
3.0
 43
3.0
 50
90.0
  0
INSERT
  5
226
100
AcDbEntity
  8
0
100
AcDbBlockReference
 62
7
  6
CONTINUOUS
  2
_FILLED
 10
-0.4833559983
 20
-30.5086568998
 41
3.0
 42
3.0
 43
3.0
 50
270.0
  0
ENDBLK
  5
227
100
AcDbEntity
  8
0
  6
BYBLOCK
 62
0
100
AcDbBlockEnd
  0
BLOCK
  5
228
100
AcDbEntity
  8
0
100
AcDbBlockBegin
 62
7
  6
CONTINUOUS
  2
*D1
 70
65
 10
0.0
 20
0.0
  3
*D1
  1

  0
LINE
  5
229
100
AcDbEntity
  8
0
100
AcDbLine
 62
7
  6
CONTINUOUS
 10
12.6845673436
 20
-0.6086568998
 11
12.6845673436
 21
-48.7041456474
  0
LINE
  5
22A
100
AcDbEntity
  8
0
100
AcDbLine
 62
7
  6
CONTINUOUS
 10
32.6874244938
 20
-0.6086568998
 11
32.6874244938
 21
-48.7041456474
  0
LINE
  5
22B
100
AcDbEntity
  8
0
100
AcDbLine
 62
7
  6
CONTINUOUS
 10
12.6845673436
 20
-47.2041456474
 11
22.6859959187
 21
-47.2041456474
  0
LINE
  5
22C
100
AcDbEntity
  8
0
100
AcDbLine
 62
7
  6
CONTINUOUS
 10
32.6874244938
 20
-47.2041456474
 11
22.6859959187
 21
-47.2041456474
  0
INSERT
  5
22D
100
AcDbEntity
  8
0
100
AcDbBlockReference
 62
7
  6
CONTINUOUS
  2
_FILLED
 10
12.6845673436
 20
-47.2041456474
 41
3.0
 42
3.0
 43
3.0
 50
180.0
  0
INSERT
  5
22E
100
AcDbEntity
  8
0
100
AcDbBlockReference
 62
7
  6
CONTINUOUS
  2
_FILLED
 10
32.6874244938
 20
-47.2041456474
 41
3.0
 42
3.0
 43
3.0
  0
ENDBLK
  5
22F
100
AcDbEntity
  8
0
  6
BYBLOCK
 62
0
100
AcDbBlockEnd
  0
BLOCK
  5
230
100
AcDbEntity
  8
0
100
AcDbBlockBegin
 62
7
  6
CONTINUOUS
  2
*D2
 70
65
 10
0.0
 20
0.0
  3
*D2
  1

  0
LINE
  5
231
100
AcDbEntity
  8
0
100
AcDbLine
 62
7
  6
CONTINUOUS
 10
-14.7265830174
 20
-0.6086568998
 11
-14.7265830174
 21
-48.8413691846
  0
LINE
  5
232
100
AcDbEntity
  8
0
100
AcDbLine
 62
7
  6
CONTINUOUS
 10
-42.0790758567
 20
-14.2038592847
 11
-42.0790758567
 21
-48.8413691846
  0
LINE
  5
233
100
AcDbEntity
  8
0
100
AcDbLine
 62
7
  6
CONTINUOUS
 10
-14.7265830174
 20
-47.3413691846
 11
-28.4028294371
 21
-47.3413691846
  0
LINE
  5
234
100
AcDbEntity
  8
0
100
AcDbLine
 62
7
  6
CONTINUOUS
 10
-42.0790758567
 20
-47.3413691846
 11
-28.4028294371
 21
-47.3413691846
  0
INSERT
  5
235
100
AcDbEntity
  8
0
100
AcDbBlockReference
 62
7
  6
CONTINUOUS
  2
_FILLED
 10
-14.7265830174
 20
-47.3413691846
 41
3.0
 42
3.0
 43
3.0
  0
INSERT
  5
236
100
AcDbEntity
  8
0
100
AcDbBlockReference
 62
7
  6
CONTINUOUS
  2
_FILLED
 10
-42.0790758567
 20
-47.3413691846
 41
3.0
 42
3.0
 43
3.0
 50
180.0
  0
ENDBLK
  5
237
100
AcDbEntity
  8
0
  6
BYBLOCK
 62
0
100
AcDbBlockEnd
  0
ENDSEC
  0
SECTION
  2
ENTITIES
  0
DIMENSION
  5
238
100
AcDbEntity
  8
0
100
AcDbDimension
 62
7
  6
CONTINUOUS
  2
*D0
 10
-0.4833559983
 20
-30.5086568998
 11
-0.4833559983
 21
-4.5268509283
 70
160
 71
2
 72
2
 41
0.9
 42
60.5350405143
  3
DIMSTYLE_1
100
AcDbAlignedDimension
 13
-23.6562844698
 23
30.0263836145
 14
-25.9062844698
 24
-30.5086568998
 50
270.0
100
AcDbRotatedDimension
  0
DIMENSION
  5
239
100
AcDbEntity
  8
0
100
AcDbDimension
 62
7
  6
CONTINUOUS
  2
*D1
 10
32.6874244938
 20
-47.2041456474
 11
20.3288530616
 21
-47.2041456474
 70
160
 71
2
 72
2
 41
0.9
 42
20.0028571501
  3
DIMSTYLE_2
100
AcDbAlignedDimension
 13
12.6845673436
 23
-0.1086568998
 14
32.6874244938
 24
-0.1086568998
100
AcDbRotatedDimension
  0
DIMENSION
  5
23A
100
AcDbEntity
  8
0
100
AcDbDimension
 62
7
  6
CONTINUOUS
  2
*D2
 10
-42.0790758567
 20
-47.3413691846
 11
-32.7956865799
 21
-47.3413691846
 70
160
 71
2
 72
2
 41
0.9
 42
27.3524928392
  3
DIMSTYLE_1
100
AcDbAlignedDimension
 13
-14.7265830174
 23
-0.1086568998
 14
-42.0790758567
 24
-13.7038592847
 50
180.0
100
AcDbRotatedDimension
  0
LWPOLYLINE
  5
23B
100
AcDbEntity
  8
0
100
AcDbPolyline
 62
7
  6
CONTINUOUS
 90
7
 70
0
 43
0.3499999917
 10
21.8288536835
 20
-46.4541453552
 10
20.3288529968
 20
-46.4541453552
 10
21.8288536835
 20
-44.3112888336
 10
21.8288536835
 20
-43.8827172089
 10
21.4002820587
 20
-43.4541455841
 10
20.7574246216
 20
-43.4541455841
 10
20.3288529968
 20
-44.0970030212
  0
LWPOLYLINE
  5
23C
100
AcDbEntity
  8
0
100
AcDbPolyline
 62
7
  6
CONTINUOUS
 90
8
 70
0
 10
24.9359959187
 20
30.011942104
 10
24.9313904615
 20
30.0095427818
 10
24.9173308192
 20
30.0074234899
 10
24.8934802334
 20
30.0055842284
 10
24.8592716873
 20
30.0039950526
 10
24.8145934915
 20
30.0026859071
 10
24.7604779293
 20
30.0017466257
 10
24.6978877353
 20
30.0012240387
  0
LWPOLYLINE
  5
23D
100
AcDbEntity
  8
DRAFT
100
AcDbPolyline
 62
7
  6
CONTINUOUS
 90
34
 70
0
 10
22.6859959187
 20
-16.7473523506
 10
22.4638752461
 20
-16.7430395078
 10
22.2410646238
 20
-16.7300694974
 10
22.0179061189
 20
-16.7083424122
 10
21.7943756843
 20
-16.677712962
 10
21.5712112318
 20
-16.6381374455
 10
21.3498861276
 20
-16.5898215856
 10
21.1307125605
 20
-16.5328455377
 10
20.9140553727
 20
-16.4673152178
 10
20.7013956001
 20
-16.3937657253
 10
20.493730043
 20
-16.3127560706
 10
20.2905705253
 20
-16.2243113305
 10
20.0911575567
 20
-16.1281962175
 10
19.896961642
 20
-16.0252327448
 10
19.7070223775
 20
-15.915027987
 10
19.5172746914
 20
-15.794903531
 10
19.3283032986
 20
-15.6645359217
 10
19.1407661416
 20
-15.5236528527
 10
18.9514437993
 20
-15.3686718992
 10
18.7611354006
 20
-15.1985360791
 10
18.5715039491
 20
-15.0128815544
 10
18.3815204993
 20
-14.8083765884
 10
18.1919217163
 20
-14.582661033
 10
18.0061488059
 20
-14.3363208216
 10
17.8275948256
 20
-14.0704509526
 10
17.6580622459
 20
-13.7841026966
 10
17.5003257617
 20
-13.4778336902
 10
17.3584713973
 20
-13.1558349782
 10
17.234068399
 20
-12.8181768567
 10
17.1291701866
 20
-12.4662708832
 10
17.0467625404
 20
-12.1072887894
 10
16.9876625526
 20
-11.7447272068
 10
16.9517871186
 20
-11.378020353
 10
16.9394946413
 20
-11.0086568998
  0
LINE
  5
23E
100
AcDbEntity
  8
RACCORDO
100
AcDbLine
 62
250
  6
CONTINUOUS
 10
25.9285463497
 20
-15.574384301
 11
25.4242094821
 21
-15.574384301
  0
LINE
  5
23F
100
AcDbEntity
  8
RACCORDO
100
AcDbLine
 62
250
  6
CONTINUOUS
 10
19.9477823553
 20
-15.574384301
 11
19.4434454877
 21
-15.574384301
  0
LINE
  5
240
100
AcDbEntity
  8
RACCORDO
100
AcDbLine
 62
7
  6
CONTINUOUS
 10
26.5243400116
 20
-15.0744033395
 11
26.1612609349
 21
-15.0744033395
  0
LINE
  5
241
100
AcDbEntity
  8
RACCORDO
100
AcDbLine
 62
7
  6
CONTINUOUS
 10
19.2107309025
 20
-15.0744033395
 11
18.8476518258
 21
-15.0744033395
  0
LINE
  5
242
100
AcDbEntity
  8
DRAFT
100
AcDbLine
 62
7
  6
CONTINUOUS
 10
18.8768661912
 20
-15.0586568998
 11
19.190186233
 21
-15.0586568998
  0
LINE
  5
243
100
AcDbEntity
  8
DRAFT
100
AcDbLine
 62
7
  6
CONTINUOUS
 10
26.1818056044
 20
-15.0586568998
 11
26.4951256462
 21
-15.0586568998
  0
LWPOLYLINE
  5
244
100
AcDbEntity
  8
0
100
AcDbPolyline
 62
7
  6
CONTINUOUS
 90
28
 70
0
 10
13.5122535501
 20
-22.0032437944
 10
13.5648119164
 20
-22.5092731683
 10
13.6454469574
 20
-23.0119918749
 10
13.7538009609
 20
-23.5098926899
 10
13.8896014727
 20
-24.0017463247
 10
14.0524308942
 20
-24.4857360113
 10
14.2415706087
 20
-24.9595100147
 10
14.4562961974
 20
-25.4211510111
 10
14.6961394612
 20
-25.8697173298
 10
14.9605178274
 20
-26.3044131525
 10
15.248686497
 20
-26.7240525556
 10
15.5596901107
 20
-27.1271693738
 10
15.8925964764
 20
-27.5125964618
 10
16.2464768109
 20
-27.8792240053
 10
16.620247205
 20
-28.2257818482
 10
17.0125776145
 20
-28.5510242622
 10
17.4220997213
 20
-28.8539284051
 10
17.847662271
 20
-29.1336496781
 10
18.2881093651
 20
-29.389383672
 10
18.7421310879
 20
-29.6204223271
 10
19.2082743014
 20
-29.8260162074
 10
19.6850799534
 20
-30.0054520944
 10
20.1710503486
 20
-30.1582054098
 10
20.6647063262
 20
-30.2838555382
 10
21.164563739
 20
-30.3819782523
 10
21.6691044519
 20
-30.4522573037
 10
22.1767673189
 20
-30.4945325062
 10
22.6859959187
 20
-30.5086568998
  0
LWPOLYLINE
  5
245
100
AcDbEntity
  8
0
100
AcDbPolyline
 62
7
  6
CONTINUOUS
 90
25
 70
0
 10
13.5122535501
 20
21.7859299948
 10
13.5607993966
 20
22.2611809225
 10
13.6341287785
 20
22.7336349205
 10
13.7319520581
 20
23.2020432257
 10
13.8540549362
 20
23.6654152879
 10
14.0000945654
 20
24.1222170557
 10
14.1694637121
 20
24.5704144478
 10
14.361565848
 20
25.0083991264
 10
14.5760953714
 20
25.4353723332
 10
14.8126103531
 20
25.8506167338
 10
15.0704572169
 20
26.2531224979
 10
15.3488747447
 20
26.6417031843
 10
15.6472013761
 20
27.0154084584
 10
15.9646955512
 20
27.3733291035
 10
16.3004545555
 20
27.7143874111
 10
16.6534817523
 20
28.0374689317
 10
17.0227488974
 20
28.3416665105
 10
17.4072795295
 20
28.6262527769
 10
17.8060711177
 20
28.8904669104
 10
18.2180744191
 20
29.1335626172
 10
18.6421465645
 20
29.35492235
 10
19.0771496552
 20
29.5539710797
 10
19.5219336599
 20
29.7301284969
 10
19.975296632
 20
29.8829078924
 10
20.4359959187
 20
30.011942104
  0
LWPOLYLINE
  5
246
100
AcDbEntity
  8
0
100
AcDbPolyline
 62
250
  6
CONTINUOUS
 90
25
 70
0
 10
14.5493862704
 20
18.320698277
 10
14.7104311059
 20
18.9622283265
 10
14.8996982376
 20
19.581663118
 10
15.1152743213
 20
20.1771415797
 10
15.3555596215
 20
20.7479062867
 10
15.6183332695
 20
21.2919825461
 10
15.9004198838
 20
21.806109854
 10
16.1993310135
 20
22.2889373649
 10
16.5130975018
 20
22.7403465394
 10
16.8389168622
 20
23.159053694
 10
17.1732927929
 20
23.5435479348
 10
17.5148780398
 20
23.8953099075
 10
17.8643110946
 20
24.2172139229
 10
18.2184814237
 20
24.5082920749
 10
18.5763195082
 20
24.7696795575
 10
18.9424521488
 20
25.0062225119
 10
19.3145521974
 20
25.2173195858
 10
19.6912709953
 20
25.4030440479
 10
20.0800234326
 20
25.5670911756
 10
20.4793278246
 20
25.708827666
 10
20.8875841774
 20
25.8277973019
 10
21.3128455385
 20
25.9254813759
 10
21.7570209645
 20
26.0006571934
 10
22.2153512253
 20
26.0515021497
 10
22.6859959187
 20
26.0771711016
  0
LINE
  5
247
100
AcDbEntity
  8
DRAFT
100
AcDbLine
 62
7
  6
CONTINUOUS
 10
17.1833120426
 20
-12.0850943567
 11
17.3252227092
 21
-12.0850943567
  0
LINE
  5
248
100
AcDbEntity
  8
DRAFT
100
AcDbLine
 62
7
  6
CONTINUOUS
 10
28.0467691282
 20
-12.0850943567
 11
28.1886797948
 21
-12.0850943567
  0
LWPOLYLINE
  5
249
100
AcDbEntity
  8
0
100
AcDbPolyline
 62
250
  6
CONTINUOUS
 90
25
 70
0
 10
14.5493862704
 20
-18.5380120765
 10
14.7104311059
 20
-19.179542126
 10
14.8996982376
 20
-19.7989769175
 10
15.1152743213
 20
-20.3944553792
 10
15.3555596215
 20
-20.9652200862
 10
15.6183332695
 20
-21.5092963457
 10
15.9004198838
 20
-22.0234236535
 10
16.1993310135
 20
-22.5062511644
 10
16.5130975018
 20
-22.9576603389
 10
16.8389168622
 20
-23.3763674936
 10
17.1732927929
 20
-23.7608617344
 10
17.5148780398
 20
-24.112623707
 10
17.8643110946
 20
-24.4345277224
 10
18.2184814237
 20
-24.7256058745
 10
18.5763195082
 20
-24.986993357
 10
18.9424521488
 20
-25.2235363115
 10
19.3145521974
 20
-25.4346333853
 10
19.6912709953
 20
-25.6203578474
 10
20.0800234326
 20
-25.7844049752
 10
20.4793278246
 20
-25.9261414655
 10
20.8875841774
 20
-26.0451111015
 10
21.3128455385
 20
-26.1427951755
 10
21.7570209645
 20
-26.2179709929
 10
22.2153512253
 20
-26.2688159492
 10
22.6859959187
 20
-26.2944849012
  0
LINE
  5
24A
100
AcDbEntity
  8
0
100
AcDbLine
 62
7
  6
CONTINUOUS
 10
13.3381399798
 20
-19.5674012518
 11
13.5122535501
 21
-22.0032437944
  0
LINE
  5
24B
100
AcDbEntity
  8
SUPERFICI
100
AcDbLine
 62
7
  6
CONTINUOUS
 10
13.2060587118
 20
-17.6508125475
 11
13.324597861
 21
-19.3674510825
  0
LINE
  5
24C
100
AcDbEntity
  8
SUPERFICI
100
AcDbLine
 62
7
  6
CONTINUOUS
 10
13.3086122112
 20
-19.1341998419
 11
13.3381185252
 21
-19.5670822112
  0
LINE
  5
24D
100
AcDbEntity
  8
SUPERFICI
100
AcDbLine
 62
7
  6
CONTINUOUS
 10
13.1785128555
 20
-17.242216611
 11
13.2183454914
 21
-17.8306441182
  0
LINE
  5
24E
100
AcDbEntity
  8
SUPERFICI
100
AcDbLine
 62
7
  6
CONTINUOUS
 10
13.150733333
 20
-16.8203356835
 11
13.1892686344
 21
-17.4027658047
  0
LINE
  5
24F
100
AcDbEntity
  8
SUPERFICI
100
AcDbLine
 62
7
  6
CONTINUOUS
 10
13.1230896318
 20
-16.3879650094
 11
13.1598352038
 21
-16.9598180899
  0
LINE
  5
250
100
AcDbEntity
  8
SUPERFICI
100
AcDbLine
 62
7
  6
CONTINUOUS
 10
13.0957836272
 20
-15.9456890164
 11
13.1303251635
 21
-16.5025049678
  0
LINE
  5
251
100
AcDbEntity
  8
SUPERFICI
100
AcDbLine
 62
7
  6
CONTINUOUS
 10
13.0689598508
 20
-15.4933519882
 11
13.1011475361
 21
-16.0339086764
  0
LINE
  5
252
100
AcDbEntity
  8
SUPERFICI
100
AcDbLine
 62
7
  6
CONTINUOUS
 10
13.0428455569
 20
-15.0325068213
 11
13.0725250455
 21
-15.5546183835
  0
LINE
  5
253
100
AcDbEntity
  8
SUPERFICI
100
AcDbLine
 62
7
  6
CONTINUOUS
 10
13.0175393158
 20
-14.562912674
 11
13.0446122749
 21
-15.0643986626
  0
LINE
  5
254
100
AcDbEntity
  8
SUPERFICI
100
AcDbLine
 62
7
  6
CONTINUOUS
 10
12.9917140398
 20
-14.055862034
 11
13.0176450379
 21
-14.5649273322
  0
LINE
  5
255
100
AcDbEntity
  8
SUPERFICI
100
AcDbLine
 62
7
  6
CONTINUOUS
 10
12.9669074567
 20
-13.5373058656
 11
12.9931439605
 21
-14.0847590773
  0
LINE
  5
256
100
AcDbEntity
  8
SUPERFICI
100
AcDbLine
 62
7
  6
CONTINUOUS
 10
12.9433737434
 20
-13.0114493655
 11
12.9698268411
 21
-13.6001197385
  0
LINE
  5
257
100
AcDbEntity
  8
SUPERFICI
100
AcDbLine
 62
7
  6
CONTINUOUS
 10
12.9210971215
 20
-12.4777794956
 11
12.9476017322
 21
-13.1086166225
  0
LINE
  5
258
100
AcDbEntity
  8
SUPERFICI
100
AcDbLine
 62
7
  6
CONTINUOUS
 10
12.900050903
 20
-11.9360631482
 11
12.9264761279
 21
-12.6101532227
  0
LWPOLYLINE
  5
259
100
AcDbEntity
  8
SUPERFICI
100
AcDbPolyline
 62
7
  6
CONTINUOUS
 90
4
 70
0
 10
12.8442369533
 20
-10.277664032
 10
12.8617225434
 20
-10.8364839129
 10
12.8802820778
 20
-11.3888326718
 10
12.9065328813
 20
-12.1071321187
  0
LWPOLYLINE
  5
25A
100
AcDbEntity
  8
SUPERFICI
100
AcDbPolyline
 62
7
  6
CONTINUOUS
 90
4
 70
0
 10
12.8374636936
 20
-10.0502812713
 10
12.8532244935
 20
-10.5698142465
 10
12.8699577445
 20
-11.0864842924
 10
12.8877212217
 20
-11.5994588791
  0
LINE
  5
25B
100
AcDbEntity
  8
SUPERFICI
100
AcDbLine
 62
7
  6
CONTINUOUS
 10
12.8225479378
 20
-9.5263650382
 11
12.8442369533
 21
-10.277664032
  0
LINE
  5
25C
100
AcDbEntity
  8
SUPERFICI
100
AcDbLine
 62
7
  6
CONTINUOUS
 10
12.8083609562
 20
-8.9963677161
 11
12.8277390248
 21
-9.7124340497
  0
LINE
  5
25D
100
AcDbEntity
  8
SUPERFICI
100
AcDbLine
 62
7
  6
CONTINUOUS
 10
12.7948527894
 20
-8.4604884239
 11
12.8121611545
 21
-9.1415142647
  0
LINE
  5
25E
100
AcDbEntity
  8
SUPERFICI
100
AcDbLine
 62
7
  6
CONTINUOUS
 10
12.7819684395
 20
-7.9181862364
 11
12.7973877812
 21
-8.5635040888
  0
LINE
  5
25F
100
AcDbEntity
  8
SUPERFICI
100
AcDbLine
 62
7
  6
CONTINUOUS
 10
12.7696317909
 20
-7.3670183112
 11
12.7832992513
 21
-7.9757071735
  0
LINE
  5
260
100
AcDbEntity
  8
SUPERFICI
100
AcDbLine
 62
7
  6
CONTINUOUS
 10
12.7571178468
 20
-6.7710045075
 11
12.7698764925
 21
-7.3782816601
  0
LINE
  5
261
100
AcDbEntity
  8
SUPERFICI
100
AcDbLine
 62
7
  6
CONTINUOUS
 10
12.7450046329
 20
-6.1511376963
 11
12.7578538642
 21
-6.8072125385
  0
LINE
  5
262
100
AcDbEntity
  8
SUPERFICI
100
AcDbLine
 62
7
  6
CONTINUOUS
 10
12.7336140822
 20
-5.5188379954
 11
12.7466589856
 21
-6.2386675044
  0
LINE
  5
263
100
AcDbEntity
  8
SUPERFICI
100
AcDbLine
 62
7
  6
CONTINUOUS
 10
12.7230525985
 20
-4.8744277444
 11
12.7360497865
 21
-5.6588160088
  0
LWPOLYLINE
  5
264
100
AcDbEntity
  8
SUPERFICI
100
AcDbPolyline
 62
7
  6
CONTINUOUS
 90
3
 70
0
 10
12.7048612456
 20
-3.5425319324
 10
12.7134167176
 20
-4.2158559072
 10
12.7261033101
 20
-5.0675420545
  0
LWPOLYLINE
  5
265
100
AcDbEntity
  8
SUPERFICI
100
AcDbPolyline
 62
7
  6
CONTINUOUS
 90
3
 70
0
 10
12.7013018333
 20
-3.2243745858
 10
12.7086136336
 20
-3.8511245891
 10
12.7169252672
 20
-4.465402899
  0
LINE
  5
266
100
AcDbEntity
  8
SUPERFICI
100
AcDbLine
 62
7
  6
CONTINUOUS
 10
12.6982343498
 20
-2.92358376
 11
12.7048612456
 21
-3.5425319324
  0
LINE
  5
267
100
AcDbEntity
  8
0
100
AcDbLine
 62
7
  6
CONTINUOUS
 10
12.6947921757
 20
-2.5434196631
 11
12.6983766343
 21
-2.9381990859
  0
LWPOLYLINE
  5
268
100
AcDbEntity
  8
0
100
AcDbPolyline
 62
250
  6
CONTINUOUS
 90
13
 70
0
 10
13.358069524
 20
-0.1086568998
 10
13.3667487125
 20
-1.9612158511
 10
13.36858336
 20
-3.7552208657
 10
13.3765069424
 20
-5.4910102728
 10
13.3994390125
 20
-7.1683426942
 10
13.4426765502
 20
-8.7877728281
 10
13.5101728671
 20
-10.3507230756
 10
13.6051508943
 20
-11.8569616599
 10
13.7299506759
 20
-13.3063195675
 10
13.8860445657
 20
-14.7001615264
 10
14.075091745
 20
-16.0381110201
 10
14.2968761355
 20
-17.3179112237
 10
14.5493862704
 20
-18.5380120765
  0
LINE
  5
269
100
AcDbEntity
  8
0
100
AcDbLine
 62
7
  6
CONTINUOUS
 10
12.6947921757
 20
-2.5434196631
 11
12.6845698393
 21
-0.0706201938
  0
LINE
  5
26A
100
AcDbEntity
  8
0
100
AcDbLine
 62
7
  6
CONTINUOUS
 10
12.6845673436
 20
-0.1086568998
 11
12.6947921757
 21
2.3261058636
  0
LWPOLYLINE
  5
26B
100
AcDbEntity
  8
0
100
AcDbPolyline
 62
250
  6
CONTINUOUS
 90
13
 70
0
 10
13.358069524
 20
-0.1086568998
 10
13.3667487125
 20
1.7439020515
 10
13.36858336
 20
3.5379070661
 10
13.3765069424
 20
5.2736964733
 10
13.3994390125
 20
6.9510288946
 10
13.4426765502
 20
8.5704590286
 10
13.5101728671
 20
10.1334092761
 10
13.6051508943
 20
11.6396478603
 10
13.7299506759
 20
13.0890057679
 10
13.8860445657
 20
14.4828477268
 10
14.075091745
 20
15.8207972205
 10
14.2968761355
 20
17.1005974241
 10
14.5493862704
 20
18.320698277
  0
LINE
  5
26C
100
AcDbEntity
  8
0
100
AcDbLine
 62
7
  6
CONTINUOUS
 10
12.6947921757
 20
2.3261058636
 11
12.6983766343
 21
2.7208852864
  0
LINE
  5
26D
100
AcDbEntity
  8
SUPERFICI
100
AcDbLine
 62
7
  6
CONTINUOUS
 10
12.7048612456
 20
3.3252181329
 11
12.698225101
 21
2.7053173053
  0
LINE
  5
26E
100
AcDbEntity
  8
SUPERFICI
100
AcDbLine
 62
7
  6
CONTINUOUS
 10
12.7081245331
 20
3.5948995214
 11
12.7009695159
 21
2.9758095195
  0
LINE
  5
26F
100
AcDbEntity
  8
SUPERFICI
100
AcDbLine
 62
7
  6
CONTINUOUS
 10
12.716255945
 20
4.2014395965
 11
12.7048612456
 21
3.3252181329
  0
LINE
  5
270
100
AcDbEntity
  8
SUPERFICI
100
AcDbLine
 62
7
  6
CONTINUOUS
 10
12.725232171
 20
4.7957213303
 11
12.7134167176
 21
3.9985421076
  0
LINE
  5
271
100
AcDbEntity
  8
SUPERFICI
100
AcDbLine
 62
7
  6
CONTINUOUS
 10
12.7349610249
 20
5.3792836294
 11
12.7230525985
 21
4.6571139449
  0
LINE
  5
272
100
AcDbEntity
  8
SUPERFICI
100
AcDbLine
 62
7
  6
CONTINUOUS
 10
12.7453380922
 20
5.9515460717
 11
12.7336140822
 21
5.3015241959
  0
LINE
  5
273
100
AcDbEntity
  8
SUPERFICI
100
AcDbLine
 62
7
  6
CONTINUOUS
 10
12.7571178468
 20
6.5536907079
 11
12.7450046329
 21
5.9338238967
  0
LINE
  5
274
100
AcDbEntity
  8
SUPERFICI
100
AcDbLine
 62
7
  6
CONTINUOUS
 10
12.7698764925
 20
7.1609678606
 11
12.7562876166
 21
6.5126620339
  0
LINE
  5
275
100
AcDbEntity
  8
SUPERFICI
100
AcDbLine
 62
7
  6
CONTINUOUS
 10
12.7832992513
 20
7.7583933739
 11
12.7678128708
 21
7.0655306397
  0
LINE
  5
276
100
AcDbEntity
  8
SUPERFICI
100
AcDbLine
 62
7
  6
CONTINUOUS
 10
12.7973877812
 20
8.3461902893
 11
12.7798884359
 21
7.6102425607
  0
LINE
  5
277
100
AcDbEntity
  8
SUPERFICI
100
AcDbLine
 62
7
  6
CONTINUOUS
 10
12.8121611545
 20
8.9242004652
 11
12.7925011883
 21
8.1465590846
  0
LINE
  5
278
100
AcDbEntity
  8
SUPERFICI
100
AcDbLine
 62
7
  6
CONTINUOUS
 10
12.8277390248
 20
9.4951202502
 11
12.8057317609
 21
8.6772252243
  0
LINE
  5
279
100
AcDbEntity
  8
SUPERFICI
100
AcDbLine
 62
7
  6
CONTINUOUS
 10
12.8342476315
 20
9.7227507944
 11
12.8196304637
 21
9.2026693759
  0
LINE
  5
27A
100
AcDbEntity
  8
SUPERFICI
100
AcDbLine
 62
7
  6
CONTINUOUS
 10
12.849715746
 20
10.2397126283
 11
12.8277390248
 21
9.4951202502
  0
LINE
  5
27B
100
AcDbEntity
  8
SUPERFICI
100
AcDbLine
 62
7
  6
CONTINUOUS
 10
12.8661700795
 20
10.7551883289
 11
12.8442369533
 21
10.0603502325
  0
LINE
  5
27C
100
AcDbEntity
  8
SUPERFICI
100
AcDbLine
 62
7
  6
CONTINUOUS
 10
12.8836705288
 20
11.2681857429
 11
12.8617225434
 21
10.6191701133
  0
LINE
  5
27D
100
AcDbEntity
  8
SUPERFICI
100
AcDbLine
 62
7
  6
CONTINUOUS
 10
12.9022509638
 20
11.7772526085
 11
12.8802820778
 21
11.1715188722
  0
LINE
  5
27E
100
AcDbEntity
  8
SUPERFICI
100
AcDbLine
 62
7
  6
CONTINUOUS
 10
12.9220177682
 20
12.2832888413
 11
12.900050903
 21
11.7187493486
  0
LWPOLYLINE
  5
27F
100
AcDbEntity
  8
SUPERFICI
100
AcDbPolyline
 62
7
  6
CONTINUOUS
 90
3
 70
0
 10
12.9669074567
 20
13.3199920661
 10
12.9433737434
 20
12.7941355659
 10
12.9210971215
 20
12.260465696
  0
LINE
  5
280
100
AcDbEntity
  8
SUPERFICI
100
AcDbLine
 62
7
  6
CONTINUOUS
 10
12.9651923028
 20
13.2828522179
 11
12.9430283863
 21
12.7861434606
  0
LINE
  5
281
100
AcDbEntity
  8
SUPERFICI
100
AcDbLine
 62
7
  6
CONTINUOUS
 10
12.9917140398
 20
13.8385482345
 11
12.9651923028
 21
13.2828522179
  0
LINE
  5
282
100
AcDbEntity
  8
SUPERFICI
100
AcDbLine
 62
7
  6
CONTINUOUS
 10
13.0176450379
 20
14.3476135327
 11
12.9885157518
 21
13.7735419025
  0
LINE
  5
283
100
AcDbEntity
  8
SUPERFICI
100
AcDbLine
 62
7
  6
CONTINUOUS
 10
13.0446122749
 20
14.8470848631
 11
13.0129974096
 21
14.2586001416
  0
LINE
  5
284
100
AcDbEntity
  8
SUPERFICI
100
AcDbLine
 62
7
  6
CONTINUOUS
 10
13.0725250455
 20
15.3373045839
 11
13.0384503156
 21
14.7353710663
  0
LINE
  5
285
100
AcDbEntity
  8
SUPERFICI
100
AcDbLine
 62
7
  6
CONTINUOUS
 10
13.1011475361
 20
15.8165948768
 11
13.064776841
 21
15.2036746611
  0
LINE
  5
286
100
AcDbEntity
  8
SUPERFICI
100
AcDbLine
 62
7
  6
CONTINUOUS
 10
13.1303251635
 20
16.2851911683
 11
13.0918826403
 21
15.6637732517
  0
LINE
  5
287
100
AcDbEntity
  8
SUPERFICI
100
AcDbLine
 62
7
  6
CONTINUOUS
 10
13.1598352038
 20
16.7425042903
 11
13.1195066363
 21
16.1135435533
  0
LINE
  5
288
100
AcDbEntity
  8
SUPERFICI
100
AcDbLine
 62
7
  6
CONTINUOUS
 10
13.1892686344
 20
17.1854520052
 11
13.147476804
 21
16.552792659
  0
LINE
  5
289
100
AcDbEntity
  8
SUPERFICI
100
AcDbLine
 62
7
  6
CONTINUOUS
 10
13.2311198772
 20
17.799080593
 11
13.1756076327
 21
16.9812905491
  0
LINE
  5
28A
100
AcDbEntity
  8
SUPERFICI
100
AcDbLine
 62
7
  6
CONTINUOUS
 10
13.3381247235
 20
19.3498605838
 11
13.3002075091
 21
18.795095394
  0
LINE
  5
28B
100
AcDbEntity
  8
SUPERFICI
100
AcDbLine
 62
7
  6
CONTINUOUS
 10
13.3079965129
 20
18.9079476404
 11
13.2183454914
 21
17.6133303186
  0
LINE
  5
28C
100
AcDbEntity
  8
0
100
AcDbLine
 62
7
  6
CONTINUOUS
 10
13.3381399798
 20
19.3500874523
 11
13.5122535501
 21
21.7859299948
  0
LWPOLYLINE
  5
28D
100
AcDbEntity
  8
0
100
AcDbPolyline
 62
7
  6
CONTINUOUS
 90
25
 70
0
 10
16.9123558912
 20
15.1451122311
 10
17.0364842406
 20
15.7133092669
 10
17.1728155299
 20
16.2588764944
 10
17.3208029343
 20
16.7780395098
 10
17.4805534973
 20
17.2704616718
 10
17.6520297918
 20
17.7366051987
 10
17.834662985
 20
18.1756260315
 10
18.0289645177
 20
18.5890311263
 10
18.2346414788
 20
18.9763075708
 10
18.4493881249
 20
19.3342122507
 10
18.6741077049
 20
19.6649516841
 10
18.9094860482
 20
19.9697560392
 10
19.1518924241
 20
20.2456427932
 10
19.398456767
 20
20.4918946235
 10
19.6505500799
 20
20.7117785034
 10
19.9102277851
 20
20.9085063648
 10
20.174596576
 20
21.0813783576
 10
20.4438312964
 20
21.2319405313
 10
20.7257852102
 20
21.3647362252
 10
21.020306757
 20
21.4787816391
 10
21.3236846877
 20
21.5724456028
 10
21.6408941506
 20
21.6466472709
 10
21.9743930186
 20
21.7009167098
 10
22.3224461762
 20
21.7339917003
 10
22.6859959187
 20
21.7451547594
  0
LWPOLYLINE
  5
28E
100
AcDbEntity
  8
RACCORDO
100
AcDbPolyline
 62
7
  6
CONTINUOUS
 90
19
 70
0
 10
18.8476518258
 20
14.8570895399
 10
18.8487872362
 20
14.8592992728
 10
18.8540107963
 20
14.8652199724
 10
18.8633225059
 20
14.8748858103
 10
18.8767331176
 20
14.8883280304
 10
18.8942318789
 20
14.9055058949
 10
18.9157865323
 20
14.9262431096
 10
18.9416329977
 20
14.9504581981
 10
18.9715353552
 20
14.9779305258
 10
19.0047535877
 20
15.0080608064
 10
19.0410817029
 20
15.040261645
 10
19.0807256931
 20
15.0744309453
 10
19.1235635191
 20
15.1106463615
 10
19.1697015921
 20
15.1487498986
 10
19.219033501
 20
15.1883617353
 10
19.2711179723
 20
15.2292888751
 10
19.3258079149
 20
15.2712704957
 10
19.3832504201
 20
15.3139690001
 10
19.4434454877
 20
15.3570705014
  0
LWPOLYLINE
  5
28F
100
AcDbEntity
  8
RACCORDO
100
AcDbPolyline
 62
250
  6
CONTINUOUS
 90
19
 70
0
 10
18.3170612337
 20
-9.4013006852
 10
18.2308716436
 20
-9.401946874
 10
18.1453234949
 20
-9.4038806294
 10
18.0610534802
 20
-9.4070875608
 10
17.97868878
 20
-9.4115438015
 10
17.8988423966
 20
-9.417216187
 10
17.8221085919
 20
-9.4240625013
 10
17.7490584604
 20
-9.4320317917
 10
17.6802356825
 20
-9.4410647472
 10
17.6161524795
 20
-9.4510941403
 10
17.5572857949
 20
-9.4620453276
 10
17.5040737496
 20
-9.4738368052
 10
17.4569123822
 20
-9.4863808144
 10
17.4161526954
 20
-9.4995839962
 10
17.3820980481
 20
-9.513348086
 10
17.355001898
 20
-9.527570643
 10
17.3350659115
 20
-9.5421458152
 10
17.3224384642
 20
-9.5569651267
 10
17.3172135385
 20
-9.5719182841
  0
LINE
  5
290
100
AcDbEntity
  8
DRAFT
100
AcDbLine
 62
250
  6
CONTINUOUS
 10
17.0790138927
 20
-11.0086568998
 11
16.9394946413
 21
-11.0086568998
  0
LINE
  5
291
100
AcDbEntity
  8
DRAFT
100
AcDbLine
 62
250
  6
CONTINUOUS
 10
28.2929779447
 20
-11.0086568998
 11
28.4324971961
 21
-11.0086568998
  0
LINE
  5
292
100
AcDbEntity
  8
DRAFT
100
AcDbLine
 62
7
  6
CONTINUOUS
 10
28.2929779447
 20
-10.6322194428
 11
28.1859959187
 21
-10.6322194428
  0
LINE
  5
293
100
AcDbEntity
  8
DRAFT
100
AcDbLine
 62
7
  6
CONTINUOUS
 10
17.1859959187
 20
-10.6322194428
 11
17.0790138927
 21
-10.6322194428
  0
LWPOLYLINE
  5
294
100
AcDbEntity
  8
RACCORDO
100
AcDbPolyline
 62
250
  6
CONTINUOUS
 90
19
 70
0
 10
27.0549306037
 20
-9.4013006852
 10
27.141120368
 20
-9.4019468755
 10
27.2266686629
 20
-9.4038806371
 10
27.3109387934
 20
-9.407087578
 10
27.393303577
 20
-9.4115438304
 10
27.4731500118
 20
-9.4172162285
 10
27.549883839
 20
-9.4240625555
 10
27.6229339652
 20
-9.4320318572
 10
27.6917567131
 20
-9.4410648222
 10
27.755839868
 20
-9.4510942222
 10
27.8147064893
 20
-9.4620454132
 10
27.867918461
 20
-9.4738368908
 10
27.9150797516
 20
-9.4863808967
 10
27.9558393622
 20
-9.4995840716
 10
27.9898939383
 20
-9.5133481508
 10
28.0169900282
 20
-9.5275706947
 10
28.0369259683
 20
-9.5421458517
 10
28.0495533852
 20
-9.5569651459
 10
28.0547782988
 20
-9.5719182843
  0
LWPOLYLINE
  5
295
100
AcDbEntity
  8
RACCORDO
100
AcDbPolyline
 62
7
  6
CONTINUOUS
 90
19
 70
0
 10
18.8476518258
 20
-15.0744033395
 10
18.84861664
 20
-15.0765622132
 10
18.85377378
 20
-15.0823904394
 10
18.863123246
 20
-15.0919951997
 10
18.8767305813
 20
-15.1055371889
 10
18.8945302425
 20
-15.1230161401
 10
18.9163255996
 20
-15.1440688497
 10
18.9423169797
 20
-15.1684427315
 10
18.9723040557
 20
-15.1959534413
 10
19.0054892164
 20
-15.2260315129
 10
19.0415834439
 20
-15.258045329
 10
19.0808757561
 20
-15.2919032634
 10
19.1234355957
 20
-15.3278532803
 10
19.1694381883
 20
-15.3658355057
 10
19.2187083082
 20
-15.4054126274
 10
19.2707897216
 20
-15.4463485944
 10
19.3255303502
 20
-15.4883675929
 10
19.3830822723
 20
-15.5311509289
 10
19.4434454877
 20
-15.574384301
  0
LWPOLYLINE
  5
296
100
AcDbEntity
  8
0
100
AcDbPolyline
 62
7
  6
CONTINUOUS
 90
25
 70
0
 10
16.9123558912
 20
-15.3624260306
 10
17.0364842406
 20
-15.9306230664
 10
17.1728155299
 20
-16.4761902939
 10
17.3208029343
 20
-16.9953533094
 10
17.4805534973
 20
-17.4877754713
 10
17.6520297918
 20
-17.9539189982
 10
17.834662985
 20
-18.392939831
 10
18.0289645177
 20
-18.8063449259
 10
18.2346414788
 20
-19.1936213704
 10
18.4493881249
 20
-19.5515260502
 10
18.6741077049
 20
-19.8822654837
 10
18.9094860482
 20
-20.1870698388
 10
19.1518924241
 20
-20.4629565928
 10
19.398456767
 20
-20.7092084231
 10
19.6505500799
 20
-20.929092303
 10
19.9102277851
 20
-21.1258201643
 10
20.174596576
 20
-21.2986921572
 10
20.4438312964
 20
-21.4492543308
 10
20.7257852102
 20
-21.5820500247
 10
21.020306757
 20
-21.6960954386
 10
21.3236846877
 20
-21.7897594024
 10
21.6408941506
 20
-21.8639610704
 10
21.9743930186
 20
-21.9182305094
 10
22.3224461762
 20
-21.9513054999
 10
22.6859959187
 20
-21.962468559
  0
LWPOLYLINE
  5
297
100
AcDbEntity
  8
RACCORDO
100
AcDbPolyline
 62
7
  6
CONTINUOUS
 90
55
 70
0
 10
17.3435840822
 20
11.2385168837
 10
17.3804810713
 20
11.5247163336
 10
17.4330929451
 20
11.8085517785
 10
17.5012694368
 20
12.0891761611
 10
17.5848076098
 20
12.3657357198
 10
17.6834676851
 20
12.6374238275
 10
17.7969835851
 20
12.9034809387
 10
17.9250469827
 20
13.1631431082
 10
18.0672752147
 20
13.4155986824
 10
18.2232266339
 20
13.6600470816
 10
18.3924259773
 20
13.8957403565
 10
18.5743867963
 20
14.1219981949
 10
18.7685882814
 20
14.3381640776
 10
18.9744697362
 20
14.5436008362
 10
19.1914188273
 20
14.7376846551
 10
19.4187887029
 20
14.919826849
 10
19.6559248872
 20
15.0894923985
 10
19.9021177863
 20
15.2461624194
 10
20.1565898219
 20
15.3893378421
 10
20.4185667312
 20
15.518585851
 10
20.6872966999
 20
15.6335370693
 10
20.9620007082
 20
15.7338551211
 10
21.2419019757
 20
15.8192479463
 10
21.5261470332
 20
15.889445527
 10
21.8138180047
 20
15.9442198523
 10
22.1040479715
 20
15.9834114093
 10
22.3960001942
 20
16.006911183
 10
22.6887886757
 20
16.014650882
 10
22.9815506358
 20
16.0066113557
 10
23.2734254842
 20
15.9828183221
 10
23.563530955
 20
15.9433460632
 10
23.851031393
 20
15.8883095383
 10
24.135062521
 20
15.8178739286
 10
24.4147132043
 20
15.7322714745
 10
24.6891316283
 20
15.6317773737
 10
24.9575460243
 20
15.5166875522
 10
25.2191891052
 20
15.3873382651
 10
25.473312671
 20
15.2441013113
 10
25.7191464966
 20
15.087411569
 10
25.9559243817
 20
14.9177644415
 10
26.1829393816
 20
14.7356797424
 10
26.3995414126
 20
14.5416918335
 10
26.6050955514
 20
14.3363802289
 10
26.7989914535
 20
14.1203668849
 10
26.9806703888
 20
13.8942868243
 10
27.1496202693
 20
13.6587840375
 10
27.3053543297
 20
13.4145356827
 10
27.4473970022
 20
13.162286225
 10
27.5753114286
 20
12.9028210345
 10
27.6887119533
 20
12.6369477802
 10
27.787286802
 20
12.3654270311
 10
27.8707695926
 20
12.089002832
 10
27.938915433
 20
11.8084744777
 10
27.9915137416
 20
11.5246973837
 10
28.0284077552
 20
11.2385168837
  0
LINE
  5
298
100
AcDbEntity
  8
SMUSSO
100
AcDbLine
 62
7
  6
CONTINUOUS
 10
26.5407263083
 20
14.7460734898
 11
26.3662026837
 21
14.5715498652
  0
LINE
  5
299
100
AcDbEntity
  8
DRAFT
100
AcDbLine
 62
7
  6
CONTINUOUS
 10
16.9751562564
 20
0.1511507214
 11
16.9568284382
 21
0.757368504
  0
LWPOLYLINE
  5
29A
100
AcDbEntity
  8
DRAFT
100
AcDbPolyline
 62
7
  6
CONTINUOUS
 90
58
 70
0
 10
17.1859959187
 20
-10.8773101954
 10
17.1945304857
 20
-11.1770697096
 10
17.2195276625
 20
-11.4742001888
 10
17.260987449
 20
-11.768701633
 10
17.3191598937
 20
-12.061521351
 10
17.3937949482
 20
-12.3517120339
 10
17.4841424667
 20
-12.6364317556
 10
17.5902679244
 20
-12.9154536775
 10
17.7121058461
 20
-13.189004638
 10
17.8487096612
 20
-13.4549232264
 10
18.0003571737
 20
-13.713374827
 10
18.1667705795
 20
-13.9641940555
 10
18.3461698961
 20
-14.2047233474
 10
18.5384500292
 20
-14.4346042781
 10
18.7437160731
 20
-14.6541952724
 10
18.9605033278
 20
-14.8619140401
 10
19.1892231731
 20
-15.0579187635
 10
19.4294642293
 20
-15.2420512605
 10
19.6785276575
 20
-15.4122546944
 10
19.9361078673
 20
-15.5681624091
 10
20.2025104491
 20
-15.7101410607
 10
20.4759533358
 20
-15.8372337817
 10
20.7569530092
 20
-15.9494954097
 10
21.0449929875
 20
-16.0468711071
 10
21.3367417581
 20
-16.1282394934
 10
21.6317322784
 20
-16.1933332239
 10
21.930431591
 20
-16.2424196433
 10
22.2309093107
 20
-16.2751794058
 10
22.5337075803
 20
-16.2915060628
 10
22.8382842571
 20
-16.2915060628
 10
23.1410825267
 20
-16.2751794058
 10
23.4415602464
 20
-16.2424196433
 10
23.740259559
 20
-16.1933332239
 10
24.0352500793
 20
-16.1282394934
 10
24.3269988499
 20
-16.0468711071
 10
24.6150388282
 20
-15.9494954097
 10
24.8960385016
 20
-15.8372337817
 10
25.1694813883
 20
-15.7101410607
 10
25.4358839701
 20
-15.5681624091
 10
25.6934641799
 20
-15.4122546944
 10
25.9425276081
 20
-15.2420512605
 10
26.1827686643
 20
-15.0579187635
 10
26.4114885096
 20
-14.8619140401
 10
26.6282757643
 20
-14.6541952724
 10
26.8335418082
 20
-14.4346042781
 10
27.0258219412
 20
-14.2047233474
 10
27.2052212579
 20
-13.9641940555
 10
27.3716346637
 20
-13.713374827
 10
27.5232821762
 20
-13.4549232264
 10
27.6598859913
 20
-13.189004638
 10
27.781723913
 20
-12.9154536775
 10
27.8878493707
 20
-12.6364317556
 10
27.9781968892
 20
-12.3517120339
 10
28.0528319437
 20
-12.061521351
 10
28.1110043884
 20
-11.768701633
 10
28.1524641749
 20
-11.4742001888
 10
28.1774613517
 20
-11.1770697096
 10
28.1859959187
 20
-10.8773101954
  0
LWPOLYLINE
  5
29B
100
AcDbEntity
  8
RACCORDO
100
AcDbPolyline
 62
250
  6
CONTINUOUS
 90
58
 70
0
 10
18.3170612337
 20
-9.4013006852
 10
18.323830327
 20
-9.6392537828
 10
18.3436596313
 20
-9.8751223772
 10
18.3765491466
 20
-10.1089064683
 10
18.4226755473
 20
-10.3413172525
 10
18.4818621591
 20
-10.5716435334
 10
18.5535789589
 20
-10.7977517223
 10
18.6379446504
 20
-11.0195959509
 10
18.7348405301
 20
-11.2372220875
 10
18.8433804645
 20
-11.4486341486
 10
18.9636654842
 20
-11.6537637815
 10
19.0955945587
 20
-11.8526793389
 10
19.2379784632
 20
-12.043589895
 10
19.3909149029
 20
-12.2264281111
 10
19.5543061727
 20
-12.4012613259
 10
19.7266699326
 20
-12.5665006294
 10
19.9080880266
 20
-12.7220580888
 10
20.0984786108
 20
-12.8680216369
 10
20.2961138137
 20
-13.0030661625
 10
20.5010600669
 20
-13.1270920124
 10
20.7132509389
 20
-13.2401988397
 10
20.9307592633
 20
-13.3413604921
 10
21.153629862
 20
-13.4304673388
 10
21.3818179131
 20
-13.5076290105
 10
21.6132617842
 20
-13.5721482483
 10
21.8479955309
 20
-13.6239113552
 10
22.0859850976
 20
-13.6630320281
 10
22.3250666852
 20
-13.6891540977
 10
22.5652467308
 20
-13.70215888
 10
22.8065187974
 20
-13.7021650591
 10
23.046699774
 20
-13.689172518
 10
23.2857832659
 20
-13.663062561
 10
23.523775668
 20
-13.6239538837
 10
23.7585130536
 20
-13.572202456
 10
23.9899613877
 20
-13.5076945528
 10
24.2181547054
 20
-13.4305438991
 10
24.441031185
 20
-13.34144764
 10
24.658546016
 20
-13.2402961072
 10
24.8707440088
 20
-13.127198969
 10
25.075697773
 20
-13.0031823749
 10
25.2733408188
 20
-12.8681466812
 10
25.4637396361
 20
-12.7221915317
 10
25.6451663036
 20
-12.5666420068
 10
25.8175389672
 20
-12.4014102271
 10
25.980939481
 20
-12.2265840721
 10
26.1338854861
 20
-12.0437522603
 10
26.2762793001
 20
-11.8528473588
 10
26.4082186055
 20
-11.6539368005
 10
26.52851409
 20
-11.4488116029
 10
26.6370648107
 20
-11.2374034509
 10
26.7339717106
 20
-11.0197806596
 10
26.8183483062
 20
-10.7979391916
 10
26.8900756927
 20
-10.5718402723
 10
26.949272775
 20
-10.3415226764
 10
26.9954097841
 20
-10.109098691
 10
27.0283101304
 20
-9.8752724119
 10
27.0481504036
 20
-9.6393397433
 10
27.0549306037
 20
-9.4013006852
  0
LWPOLYLINE
  5
29C
100
AcDbEntity
  8
RACCORDO
100
AcDbPolyline
 62
250
  6
CONTINUOUS
 90
58
 70
0
 10
17.3172135385
 20
-9.5719182843
 10
17.3253693146
 20
-9.8632394407
 10
17.3498090164
 20
-10.1536501548
 10
17.3904541417
 20
-10.4422685963
 10
17.4471737178
 20
-10.7282042977
 10
17.5197929855
 20
-11.0106046089
 10
17.6081020052
 20
-11.2886553205
 10
17.7118452119
 20
-11.5615343735
 10
17.8307036227
 20
-11.8283879284
 10
17.9643044838
 20
-12.0883775226
 10
18.1122317964
 20
-12.3407006834
 10
18.2740416568
 20
-12.58460662
 10
18.4492522606
 20
-12.8193698062
 10
18.637337366
 20
-13.0442822931
 10
18.8377223536
 20
-13.2586543008
 10
19.0497962232
 20
-13.4618311217
 10
19.2729147619
 20
-13.6531951239
 10
19.5064009278
 20
-13.8321652001
 10
19.7495433992
 20
-13.9981959548
 10
20.0016039757
 20
-14.1507834022
 10
20.2618167665
 20
-14.2894639961
 10
20.5293877772
 20
-14.4138150694
 10
20.8034998311
 20
-14.5234580913
 10
21.0833242426
 20
-14.6180628071
 10
21.3680202952
 20
-14.69734496
 10
21.6567293014
 20
-14.7610641036
 10
21.948569109
 20
-14.8090242426
 10
22.2426457817
 20
-14.841078297
 10
22.5380616838
 20
-14.8571292504
 10
22.8339240368
 20
-14.8571294165
 10
23.1293399343
 20
-14.8410787967
 10
23.4234165872
 20
-14.8090250815
 10
23.7152563717
 20
-14.7610652897
 10
24.0039653852
 20
-14.6973464959
 10
24.2886614596
 20
-14.6180646974
 10
24.5684859236
 20
-14.5234603346
 10
24.8425981363
 20
-14.413817629
 10
25.1101694885
 20
-14.2894667789
 10
25.3703827079
 20
-14.1507863334
 10
25.6224436259
 20
-13.998199052
 10
25.8655863017
 20
-13.8321685365
 10
26.0990726048
 20
-13.653198751
 10
26.3221912362
 20
-13.4618350918
 10
26.5342651189
 20
-13.2586587209
 10
26.7346501008
 20
-13.0442872369
 10
26.9227353235
 20
-12.8193751896
 10
27.0979462177
 20
-12.5846122499
 10
27.2597564488
 20
-12.3407064396
 10
27.4076841297
 20
-12.0883833902
 10
27.5412853488
 20
-11.8283939112
 10
27.6601441171
 20
-11.5615404591
 10
27.7638876562
 20
-11.288661567
 10
27.8521968988
 20
-11.0106114131
 10
27.9248164272
 20
-10.7282117343
 10
27.9815364774
 20
-10.4422757828
 10
28.0221821791
 20
-10.1536558624
 10
28.0466223372
 20
-9.8632427496
 10
28.0547782988
 20
-9.5719182843
  0
LINE
  5
29D
100
AcDbEntity
  8
DRAFT
100
AcDbLine
 62
7
  6
CONTINUOUS
 10
17.1859959187
 20
6.40606587
 11
17.2470886459
 21
3.5670073563
  0
LINE
  5
29E
100
AcDbEntity
  8
0
100
AcDbLine
 62
7
  6
CONTINUOUS
 10
16.9820585022
 20
1.5048191993
 11
16.9813107246
 21
1.5570430373
  0
LWPOLYLINE
  5
29F
100
AcDbEntity
  8
0
100
AcDbPolyline
 62
7
  6
CONTINUOUS
 90
13
 70
0
 10
16.3206527362
 20
-0.1086568998
 10
16.3081733255
 20
1.4022645979
 10
16.2845892176
 20
2.8781405256
 10
16.2627138022
 20
4.3156456509
 10
16.2493910775
 20
5.7227243061
 10
16.2505191743
 20
7.0887145758
 10
16.2704589425
 20
8.3961621912
 10
16.3113143366
 20
9.6466451272
 10
16.3744849108
 20
10.8425965086
 10
16.4641512894
 20
11.9923361581
 10
16.5837198326
 20
13.1011438165
 10
16.7337392889
 20
14.1602483562
 10
16.9123558912
 20
15.1451122311
  0
LINE
  5
2A0
100
AcDbEntity
  8
DRAFT
100
AcDbLine
 62
7
  6
CONTINUOUS
 10
16.9394946413
 20
-11.0086568998
 11
16.9373512946
 21
-8.8137145447
  0
LINE
  5
2A1
100
AcDbEntity
  8
DRAFT
100
AcDbLine
 62
7
  6
CONTINUOUS
 10
16.9373512946
 20
-8.8137145447
 11
16.9356372036
 21
-6.494392927
  0
LINE
  5
2A2
100
AcDbEntity
  8
DRAFT
100
AcDbLine
 62
7
  6
CONTINUOUS
 10
16.9356372036
 20
-6.494392927
 11
16.9343857827
 21
-4.0469696632
  0
LINE
  5
2A3
100
AcDbEntity
  8
DRAFT
100
AcDbLine
 62
7
  6
CONTINUOUS
 10
16.9343857827
 20
-4.0469696632
 11
16.93373069
 21
-1.4565552188
  0
LINE
  5
2A4
100
AcDbEntity
  8
DRAFT
100
AcDbLine
 62
7
  6
CONTINUOUS
 10
16.9568284382
 20
-1.8586568998
 11
16.9568284382
 21
-0.9746823036
  0
LINE
  5
2A5
100
AcDbEntity
  8
DRAFT
100
AcDbLine
 62
7
  6
CONTINUOUS
 10
16.9568284382
 20
0.757368504
 11
16.9568284382
 21
1.5566924827
  0
LINE
  5
2A6
100
AcDbEntity
  8
0
100
AcDbLine
 62
7
  6
CONTINUOUS
 10
16.9859959187
 20
1.5086671607
 11
16.9859959187
 21
-1.6352019358
  0
LINE
  5
2A7
100
AcDbEntity
  8
DRAFT
100
AcDbLine
 62
7
  6
CONTINUOUS
 10
17.009193633
 20
-2.8001868856
 11
17.009193633
 21
-1.8586568998
  0
LINE
  5
2A8
100
AcDbEntity
  8
DRAFT
100
AcDbLine
 62
7
  6
CONTINUOUS
 10
17.009193633
 20
1.582873086
 11
17.009193633
 21
2.582873086
  0
LINE
  5
2A9
100
AcDbEntity
  8
DRAFT
100
AcDbLine
 62
7
  6
CONTINUOUS
 10
17.0275259045
 20
1.582873086
 11
17.0275259045
 21
1.508707918
  0
LINE
  5
2AA
100
AcDbEntity
  8
DRAFT
100
AcDbLine
 62
7
  6
CONTINUOUS
 10
17.0275259045
 20
-1.7607513531
 11
17.0275259045
 21
-1.8586568998
  0
LINE
  5
2AB
100
AcDbEntity
  8
DRAFT
100
AcDbLine
 62
7
  6
CONTINUOUS
 10
17.0790138927
 20
-11.0086568998
 11
17.0790138927
 21
-10.6322194428
  0
LINE
  5
2AC
100
AcDbEntity
  8
DRAFT
100
AcDbLine
 62
7
  6
CONTINUOUS
 10
17.0790138927
 20
10.4149056433
 11
17.0790138927
 21
10.7913431002
  0
LINE
  5
2AD
100
AcDbEntity
  8
DRAFT
100
AcDbLine
 62
7
  6
CONTINUOUS
 10
17.0859959187
 20
-10.6287286957
 11
17.0859959187
 21
-5.8385851039
  0
LINE
  5
2AE
100
AcDbEntity
  8
DRAFT
100
AcDbLine
 62
7
  6
CONTINUOUS
 10
17.0859959187
 20
-4.8787286957
 11
17.0859959187
 21
-2.8385851039
  0
LINE
  5
2AF
100
AcDbEntity
  8
DRAFT
100
AcDbLine
 62
7
  6
CONTINUOUS
 10
17.0859959187
 20
2.6212713043
 11
17.0859959187
 21
4.6614148961
  0
LINE
  5
2B0
100
AcDbEntity
  8
DRAFT
100
AcDbLine
 62
7
  6
CONTINUOUS
 10
17.0859959187
 20
5.6212713043
 11
17.0859959187
 21
10.4114148961
  0
LINE
  5
2B1
100
AcDbEntity
  8
DRAFT
100
AcDbLine
 62
7
  6
CONTINUOUS
 10
17.1859959187
 20
9.4097295167
 11
17.1859959187
 21
6.40606587
  0
LINE
  5
2B2
100
AcDbEntity
  8
DRAFT
100
AcDbLine
 62
7
  6
CONTINUOUS
 10
17.1859959187
 20
-7.8736465487
 11
17.1859959187
 21
-10.8773101954
  0
LINE
  5
2B3
100
AcDbEntity
  8
DRAFT
100
AcDbLine
 62
7
  6
CONTINUOUS
 10
17.2470886459
 20
3.5670073563
 11
17.2470886459
 21
1.508707918
  0
LINE
  5
2B4
100
AcDbEntity
  8
DRAFT
100
AcDbLine
 62
7
  6
CONTINUOUS
 10
17.2470886459
 20
-1.7017141224
 11
17.2470886459
 21
-3.8190507913
  0
LINE
  5
2B5
100
AcDbEntity
  8
RACCORDO
100
AcDbLine
 62
250
  6
CONTINUOUS
 10
17.3172135385
 20
10.7151214277
 11
17.3172135385
 21
-9.5719182843
  0
LINE
  5
2B6
100
AcDbEntity
  8
DRAFT
100
AcDbLine
 62
7
  6
CONTINUOUS
 10
18.1659241228
 20
14.097239493
 11
18.1659241228
 21
13.5702273982
  0
LINE
  5
2B7
100
AcDbEntity
  8
DRAFT
100
AcDbLine
 62
7
  6
CONTINUOUS
 10
18.1659241228
 20
-13.9629182711
 11
18.1659241228
 21
-14.3145532925
  0
LINE
  5
2B8
100
AcDbEntity
  8
DRAFT
100
AcDbLine
 62
7
  6
CONTINUOUS
 10
18.1859959187
 20
14.0566102074
 11
18.1859959187
 21
13.6016892368
  0
LINE
  5
2B9
100
AcDbEntity
  8
DRAFT
100
AcDbLine
 62
7
  6
CONTINUOUS
 10
18.1859959187
 20
-13.9899703923
 11
18.1859959187
 21
-14.2739240069
  0
LINE
  5
2BA
100
AcDbEntity
  8
RACCORDO
100
AcDbLine
 62
250
  6
CONTINUOUS
 10
18.3170612337
 20
10.8857390268
 11
18.3170612337
 21
-9.4013006852
  0
LINE
  5
2BB
100
AcDbEntity
  8
DRAFT
100
AcDbLine
 62
7
  6
CONTINUOUS
 10
16.93373069
 20
-1.4565552188
 11
16.9337336175
 21
1.2485140844
  0
LINE
  5
2BC
100
AcDbEntity
  8
DRAFT
100
AcDbLine
 62
7
  6
CONTINUOUS
 10
16.9337336175
 20
1.2485140844
 11
16.9343936736
 21
3.8498456309
  0
LINE
  5
2BD
100
AcDbEntity
  8
DRAFT
100
AcDbLine
 62
7
  6
CONTINUOUS
 10
16.9343936736
 20
3.8498456309
 11
16.9356500279
 21
6.2974161552
  0
LINE
  5
2BE
100
AcDbEntity
  8
DRAFT
100
AcDbLine
 62
7
  6
CONTINUOUS
 10
16.9356500279
 20
6.2974161552
 11
16.9373620682
 21
8.6097084152
  0
LINE
  5
2BF
100
AcDbEntity
  8
DRAFT
100
AcDbLine
 62
7
  6
CONTINUOUS
 10
16.9373620682
 20
8.6097084152
 11
16.9394946413
 21
10.7913431002
  0
LWPOLYLINE
  5
2C0
100
AcDbEntity
  8
0
100
AcDbPolyline
 62
7
  6
CONTINUOUS
 90
13
 70
0
 10
16.3206527362
 20
-0.1086568998
 10
16.3081733255
 20
-1.6195783975
 10
16.2845892176
 20
-3.0954543252
 10
16.2627138022
 20
-4.5329594504
 10
16.2493910775
 20
-5.9400381056
 10
16.2505191743
 20
-7.3060283754
 10
16.2704589425
 20
-8.6134759908
 10
16.3113143366
 20
-9.8639589267
 10
16.3744849108
 20
-11.0599103082
 10
16.4641512894
 20
-12.2096499576
 10
16.5837198326
 20
-13.3184576161
 10
16.7337392889
 20
-14.3775621557
 10
16.9123558912
 20
-15.3624260306
  0
LINE
  5
2C1
100
AcDbEntity
  8
0
100
AcDbLine
 62
7
  6
CONTINUOUS
 10
16.9807292874
 20
-1.7607513531
 11
16.9798917838
 21
-1.8582477179
  0
LWPOLYLINE
  5
2C2
100
AcDbEntity
  8
DRAFT
100
AcDbPolyline
 62
7
  6
CONTINUOUS
 90
20
 70
0
 10
17.1859951861
 20
0.1861824518
 10
17.1851344438
 20
0.1067657599
 10
17.1831650177
 20
0.028339468
 10
17.1800869079
 20
-0.0488841161
 10
17.1758031863
 20
-0.1246043847
 10
17.1704107809
 20
-0.1987599588
 10
17.1642004758
 20
-0.2715258534
 10
17.1571816971
 20
-0.3427749617
 10
17.1493450187
 20
-0.4123740839
 10
17.1409529462
 20
-0.4805021555
 10
17.1320237704
 20
-0.5470200347
 10
17.1225392006
 20
-0.6118690053
 10
17.1127068699
 20
-0.6753417029
 10
17.102527031
 20
-0.7374055281
 10
17.0919994312
 20
-0.7979109491
 10
17.0813309466
 20
-0.8569580223
 10
17.0705317845
 20
-0.9144322069
 10
17.0595917376
 20
-0.9702797215
 10
17.0486870597
 20
-1.0246678359
 10
17.0378156993
 20
-1.0775168174
  0
LINE
  5
2C3
100
AcDbEntity
  8
DRAFT
100
AcDbLine
 62
7
  6
CONTINUOUS
 10
17.2470886459
 20
-3.8190507913
 11
17.1859959187
 21
-7.8736465487
  0
LWPOLYLINE
  5
2C4
100
AcDbEntity
  8
DRAFT
100
AcDbPolyline
 62
7
  6
CONTINUOUS
 90
25
 70
0
 10
16.9394946413
 20
10.7913431002
 10
16.9521784519
 20
11.1666295999
 10
16.9893611192
 20
11.5403303601
 10
17.0508941999
 20
11.9108462651
 10
17.1365281136
 20
12.2765924407
 10
17.2459035619
 20
12.6359989049
 10
17.3785517542
 20
12.9875194868
 10
17.5339078538
 20
13.3296349336
 10
17.7113188228
 20
13.6608901485
 10
17.9100428352
 20
13.9798943702
 10
18.1292795681
 20
14.2853224694
 10
18.368071894
 20
14.5758054736
 10
18.6252952276
 20
14.8499906909
 10
18.8997576193
 20
15.1066434969
 10
19.1903479778
 20
15.3447583442
 10
19.4959557697
 20
15.5634340337
 10
19.8153798766
 20
15.7617732082
 10
20.1471817662
 20
15.9388448801
 10
20.4898158279
 20
16.0938258936
 10
20.8418496854
 20
16.226072649
 10
21.2017443705
 20
16.3350085486
 10
21.5677104773
 20
16.420129924
 10
21.9380910944
 20
16.4811184651
 10
22.3113833976
 20
16.5177886067
 10
22.6859959187
 20
16.5300385511
  0
LWPOLYLINE
  5
2C5
100
AcDbEntity
  8
DRAFT
100
AcDbPolyline
 62
7
  6
CONTINUOUS
 90
3
 70
0
 10
17.2130607728
 20
9.9459123509
 10
17.1945304857
 20
9.7094890309
 10
17.1859959187
 20
9.4097295167
  0
LWPOLYLINE
  5
2C6
100
AcDbEntity
  8
RACCORDO
100
AcDbPolyline
 62
250
  6
CONTINUOUS
 90
3
 70
0
 10
17.3435840828
 20
11.2385168898
 10
17.3253695002
 20
11.0064458861
 10
17.3172135385
 20
10.7151214277
  0
LINE
  5
2C7
100
AcDbEntity
  8
RACCORDO
100
AcDbLine
 62
250
  6
CONTINUOUS
 10
17.3172135385
 20
10.7151214277
 11
17.1859959187
 21
9.4097295167
  0
LINE
  5
2C8
100
AcDbEntity
  8
DRAFT
100
AcDbLine
 62
7
  6
CONTINUOUS
 10
17.2505796589
 20
-1.6669844868
 11
17.2470886459
 21
-1.7017141224
  0
LINE
  5
2C9
100
AcDbEntity
  8
RACCORDO
100
AcDbLine
 62
250
  6
CONTINUOUS
 10
17.3172135385
 20
-9.5719182843
 11
17.1859959187
 21
-10.8773101954
  0
LINE
  5
2CA
100
AcDbEntity
  8
DRAFT
100
AcDbLine
 62
7
  6
CONTINUOUS
 10
17.3435840833
 20
11.2385168948
 11
17.2130109821
 21
9.9459172153
  0
LINE
  5
2CB
100
AcDbEntity
  8
DRAFT
100
AcDbLine
 62
7
  6
CONTINUOUS
 10
17.0378156993
 20
-1.0775168174
 11
17.0060218583
 21
-1.2263769921
  0
LINE
  5
2CC
100
AcDbEntity
  8
DRAFT
100
AcDbLine
 62
7
  6
CONTINUOUS
 10
17.0060218583
 20
-1.2263769921
 11
16.9859959187
 21
-1.316963191
  0
LWPOLYLINE
  5
2CD
100
AcDbEntity
  8
SUPERFICI
100
AcDbPolyline
 62
250
  6
CONTINUOUS
 90
10
 70
0
 10
29.3501945054
 20
16.2812980157
 10
29.7130128835
 20
16.6950313113
 10
29.8892313654
 20
16.8985522051
 10
30.0597646462
 20
17.101336237
 10
30.2211993383
 20
17.3025344715
 10
30.3709227821
 20
17.5023540464
 10
30.5082826015
 20
17.7042039982
 10
30.6311655703
 20
17.90883814
 10
30.7366469958
 20
18.1145093771
 10
30.822605567
 20
18.320698277
  0
LINE
  5
2CE
100
AcDbEntity
  8
DRAFT
100
AcDbLine
 62
7
  6
CONTINUOUS
 10
17.0859959187
 20
2.6212713043
 11
17.009193633
 21
2.582873086
  0
LINE
  5
2CF
100
AcDbEntity
  8
DRAFT
100
AcDbLine
 62
7
  6
CONTINUOUS
 10
28.2859959187
 20
-5.8385851039
 11
28.1553325773
 21
-5.8385851039
  0
LINE
  5
2D0
100
AcDbEntity
  8
DRAFT
100
AcDbLine
 62
7
  6
CONTINUOUS
 10
17.0859959187
 20
-5.8385851039
 11
17.2166592601
 21
-5.8385851039
  0
LINE
  5
2D1
100
AcDbEntity
  8
RACCORDO
100
AcDbLine
 62
7
  6
CONTINUOUS
 10
17.0556365259
 20
-5.8234065635
 11
17.2168879631
 21
-5.8234065635
  0
LINE
  5
2D2
100
AcDbEntity
  8
RACCORDO
100
AcDbLine
 62
7
  6
CONTINUOUS
 10
28.1551038743
 20
-5.8234065635
 11
28.3163553115
 21
-5.8234065635
  0
LINE
  5
2D3
100
AcDbEntity
  8
RACCORDO
100
AcDbLine
 62
7
  6
CONTINUOUS
 10
17.0556365259
 20
-4.893907236
 11
17.2308932185
 21
-4.893907236
  0
LINE
  5
2D4
100
AcDbEntity
  8
RACCORDO
100
AcDbLine
 62
7
  6
CONTINUOUS
 10
28.1410986189
 20
-4.893907236
 11
28.3163553115
 21
-4.893907236
  0
LINE
  5
2D5
100
AcDbEntity
  8
DRAFT
100
AcDbLine
 62
7
  6
CONTINUOUS
 10
28.2859959187
 20
-4.8787286957
 11
28.1408699159
 21
-4.8787286957
  0
LINE
  5
2D6
100
AcDbEntity
  8
DRAFT
100
AcDbLine
 62
7
  6
CONTINUOUS
 10
17.0859959187
 20
-4.8787286957
 11
17.2311219215
 21
-4.8787286957
  0
LINE
  5
2D7
100
AcDbEntity
  8
DRAFT
100
AcDbLine
 62
7
  6
CONTINUOUS
 10
17.0859959187
 20
-2.8385851039
 11
17.009193633
 21
-2.8001868856
  0
LWPOLYLINE
  5
2D8
100
AcDbEntity
  8
SUPERFICI
100
AcDbPolyline
 62
250
  6
CONTINUOUS
 90
9
 70
0
 10
29.7130128835
 20
-16.9123451108
 10
29.8892313654
 20
-17.1158660047
 10
30.0597646462
 20
-17.3186500365
 10
30.2211993383
 20
-17.5198482711
 10
30.3709227821
 20
-17.719667846
 10
30.5082826015
 20
-17.9215177978
 10
30.6311655703
 20
-18.1261519395
 10
30.7366469958
 20
-18.3318231767
 10
30.822605567
 20
-18.5380120765
  0
LWPOLYLINE
  5
2D9
100
AcDbEntity
  8
DRAFT
100
AcDbPolyline
 62
7
  6
CONTINUOUS
 90
25
 70
0
 10
16.9859959187
 20
1.4122161113
 10
16.9959038328
 20
1.3878562492
 10
17.0060295683
 20
1.360995284
 10
17.0163731253
 20
1.3317131407
 10
17.0269953576
 20
1.3001326623
 10
17.0378354114
 20
1.2663054991
 10
17.0487107248
 20
1.2301831603
 10
17.0596192599
 20
1.1918435569
 10
17.0705630546
 20
1.1513456494
 10
17.0813656612
 20
1.1085625872
 10
17.0920373441
 20
1.0635206986
 10
17.1025678388
 20
1.0162943652
 10
17.1127499045
 20
0.9667889873
 10
17.122583833
 20
0.915103171
 10
17.1320693324
 20
0.8612441217
 10
17.1409982855
 20
0.8049407758
 10
17.1493887691
 20
0.7462029593
 10
17.1572227064
 20
0.6851097189
 10
17.1642377507
 20
0.6214584541
 10
17.1704431708
 20
0.5553271531
 10
17.1758296979
 20
0.4867649681
 10
17.1801071783
 20
0.4155087497
 10
17.1831788942
 20
0.3415266474
 10
17.1851415635
 20
0.2650410713
 10
17.1859951861
 20
0.1861824518
  0
LINE
  5
2DA
100
AcDbEntity
  8
SMUSSO
100
AcDbLine
 62
7
  6
CONTINUOUS
 10
18.8312655291
 20
14.4007059448
 11
18.8312655291
 21
14.7460734898
  0
LWPOLYLINE
  5
2DB
100
AcDbEntity
  8
SUPERFICI
100
AcDbPolyline
 62
250
  6
CONTINUOUS
 90
4
 70
0
 10
13.6053883463
 20
-21.6075934047
 10
13.5502100649
 20
-21.8524249219
 10
13.529450127
 20
-21.9398566894
 10
13.5122535501
 20
-22.0032437944
  0
LINE
  5
2DC
100
AcDbEntity
  8
DRAFT
100
AcDbLine
 62
7
  6
CONTINUOUS
 10
27.1859959187
 20
14.0566102074
 11
27.2060677146
 21
14.097239493
  0
LWPOLYLINE
  5
2DD
100
AcDbEntity
  8
SUPERFICI
100
AcDbPolyline
 62
250
  6
CONTINUOUS
 90
6
 70
0
 10
28.4596358918
 20
15.1451136651
 10
28.6287586821
 20
15.3891412074
 10
28.805746683
 20
15.6254029433
 10
28.9874978616
 20
15.8536841332
 10
29.169451833
 20
16.0716653015
 10
29.3501945054
 20
16.2812980157
  0
LINE
  5
2DE
100
AcDbEntity
  8
DRAFT
100
AcDbLine
 62
7
  6
CONTINUOUS
 10
16.9568284382
 20
1.5566924827
 11
17.009193633
 21
1.582873086
  0
LINE
  5
2DF
100
AcDbEntity
  8
DRAFT
100
AcDbLine
 62
7
  6
CONTINUOUS
 10
28.2859959187
 20
-2.8385851039
 11
28.1249031914
 21
-2.8385851039
  0
LINE
  5
2E0
100
AcDbEntity
  8
DRAFT
100
AcDbLine
 62
7
  6
CONTINUOUS
 10
17.0859959187
 20
-2.8385851039
 11
17.2470886459
 21
-2.8385851039
  0
LINE
  5
2E1
100
AcDbEntity
  8
DRAFT
100
AcDbLine
 62
7
  6
CONTINUOUS
 10
17.009193633
 20
-2.8001868856
 11
17.2470886459
 21
-2.8001868856
  0
LINE
  5
2E2
100
AcDbEntity
  8
DRAFT
100
AcDbLine
 62
7
  6
CONTINUOUS
 10
28.1249031914
 20
-2.8001868856
 11
28.3627982044
 21
-2.8001868856
  0
LWPOLYLINE
  5
2E3
100
AcDbEntity
  8
SUPERFICI
100
AcDbPolyline
 62
250
  6
CONTINUOUS
 90
7
 70
0
 10
28.4596358918
 20
-15.3624274646
 10
28.6287586821
 20
-15.606455007
 10
28.805746683
 20
-15.8427167428
 10
28.9874978616
 20
-16.0709979327
 10
29.169451833
 20
-16.2889791011
 10
29.3501945054
 20
-16.4986118153
 10
29.7130128835
 20
-16.9123451108
  0
LINE
  5
2E4
100
AcDbEntity
  8
DRAFT
100
AcDbLine
 62
7
  6
CONTINUOUS
 10
27.1859959187
 20
-14.2739240069
 11
27.2060677146
 21
-14.3145532925
  0
LWPOLYLINE
  5
2E5
100
AcDbEntity
  8
SUPERFICI
100
AcDbPolyline
 62
250
  6
CONTINUOUS
 90
3
 70
0
 10
13.5502100649
 20
21.6351111224
 10
13.529450127
 20
21.7225428899
 10
13.5122535501
 20
21.7859299948
  0
LWPOLYLINE
  5
2E6
100
AcDbEntity
  8
0
100
AcDbPolyline
 62
7
  6
CONTINUOUS
 90
13
 70
0
 43
0.3499999917
 10
22.6859953308
 20
-45.5970021057
 10
22.6859953308
 20
-44.3112888336
 10
22.9002811432
 20
-43.8827172089
 10
23.3288527679
 20
-43.4541455841
 10
23.5431385803
 20
-43.4541455841
 10
23.9717102051
 20
-43.8827172089
 10
24.1859960175
 20
-44.3112888336
 10
24.1859960175
 20
-45.5970021057
 10
23.9717102051
 20
-46.0255737305
 10
23.5431385803
 20
-46.4541453552
 10
23.3288527679
 20
-46.4541453552
 10
22.9002811432
 20
-46.0255737305
 10
22.6859953308
 20
-45.5970021057
  0
LINE
  5
2E7
100
AcDbEntity
  8
DRAFT
100
AcDbLine
 62
250
  6
CONTINUOUS
 10
22.6859959187
 20
-16.7473523506
 11
22.6859959187
 21
-21.962468559
  0
LINE
  5
2E8
100
AcDbEntity
  8
0
100
AcDbLine
 62
7
  6
CONTINUOUS
 10
22.6859959187
 20
-21.962468559
 11
22.6859959187
 21
-30.5086568998
  0
LINE
  5
2E9
100
AcDbEntity
  8
DRAFT
100
AcDbLine
 62
250
  6
CONTINUOUS
 10
22.6859959187
 20
16.5300385511
 11
22.6859959187
 21
21.7451547594
  0
LINE
  5
2EA
100
AcDbEntity
  8
0
100
AcDbLine
 62
7
  6
CONTINUOUS
 10
22.6859959187
 20
21.7451547594
 11
22.6859959187
 21
30.0263836145
  0
LWPOLYLINE
  5
2EB
100
AcDbEntity
  8
SUPERFICI
100
AcDbPolyline
 62
250
  6
CONTINUOUS
 90
11
 70
0
 10
14.3994673887
 20
-18.9499387452
 10
14.2619958805
 20
-19.3349762319
 10
14.138734689
 20
-19.6922511413
 10
14.0315019362
 20
-20.0199458964
 10
13.9395828684
 20
-20.3193661279
 10
13.8602911918
 20
-20.5940842436
 10
13.7921319736
 20
-20.8442006339
 10
13.7338217377
 20
-21.0694072375
 10
13.6838089135
 20
-21.2717098997
 10
13.641244168
 20
-21.451215031
 10
13.6053883463
 20
-21.6075934047
  0
LINE
  5
2EC
100
AcDbEntity
  8
SUPERFICI
100
AcDbLine
 62
250
  6
CONTINUOUS
 10
14.5493862704
 20
-18.5380120765
 11
14.3994673887
 21
-18.9499387452
  0
LINE
  5
2ED
100
AcDbEntity
  8
DRAFT
100
AcDbLine
 62
7
  6
CONTINUOUS
 10
28.4151633992
 20
-1.8586568998
 11
28.3444659329
 21
-1.8586568998
  0
LINE
  5
2EE
100
AcDbEntity
  8
DRAFT
100
AcDbLine
 62
7
  6
CONTINUOUS
 10
16.9568284382
 20
-1.8586568998
 11
17.0275259045
 21
-1.8586568998
  0
LINE
  5
2EF
100
AcDbEntity
  8
ASSI
100
AcDbLine
 62
7
  6
CONTINUOUS
 10
16.9568284382
 20
-1.7607513531
 11
17.2470886459
 21
-1.7607513531
  0
LINE
  5
2F0
100
AcDbEntity
  8
ASSI
100
AcDbLine
 62
7
  6
CONTINUOUS
 10
28.1249031914
 20
-1.7607513531
 11
28.4151633992
 21
-1.7607513531
  0
LINE
  5
2F1
100
AcDbEntity
  8
DRAFT
100
AcDbLine
 62
250
  6
CONTINUOUS
 10
16.9568284382
 20
-1.7364437579
 11
17.2470886459
 21
-1.7364437579
  0
LINE
  5
2F2
100
AcDbEntity
  8
DRAFT
100
AcDbLine
 62
250
  6
CONTINUOUS
 10
28.1249031914
 20
-1.7364437579
 11
28.4151633992
 21
-1.7364437579
  0
LINE
  5
2F3
100
AcDbEntity
  8
DRAFT
100
AcDbLine
 62
250
  6
CONTINUOUS
 10
16.9568284382
 20
-1.6669844868
 11
17.2505796589
 21
-1.6669844868
  0
LINE
  5
2F4
100
AcDbEntity
  8
DRAFT
100
AcDbLine
 62
250
  6
CONTINUOUS
 10
28.1214121785
 20
-1.6669844868
 11
28.4151633992
 21
-1.6669844868
  0
LINE
  5
2F5
100
AcDbEntity
  8
DRAFT
100
AcDbLine
 62
250
  6
CONTINUOUS
 10
16.9568284382
 20
-1.6352019358
 11
16.9859959187
 21
-1.6352019358
  0
LINE
  5
2F6
100
AcDbEntity
  8
DRAFT
100
AcDbLine
 62
250
  6
CONTINUOUS
 10
28.3859959187
 20
-1.6352019358
 11
28.4151633992
 21
-1.6352019358
  0
LINE
  5
2F7
100
AcDbEntity
  8
DRAFT
100
AcDbLine
 62
250
  6
CONTINUOUS
 10
16.965284078
 20
-0.6950003923
 11
16.9859959187
 21
-0.6950003923
  0
LINE
  5
2F8
100
AcDbEntity
  8
DRAFT
100
AcDbLine
 62
250
  6
CONTINUOUS
 10
28.3859959187
 20
-0.6950003923
 11
28.4067077594
 21
-0.6950003923
  0
LINE
  5
2F9
100
AcDbEntity
  8
DRAFT
100
AcDbLine
 62
250
  6
CONTINUOUS
 10
16.9751562564
 20
-0.3832947283
 11
16.9859959187
 21
-0.3832947283
  0
LINE
  5
2FA
100
AcDbEntity
  8
DRAFT
100
AcDbLine
 62
250
  6
CONTINUOUS
 10
28.3859959187
 20
-0.3832947283
 11
28.396835581
 21
-0.3832947283
  0
LINE
  5
2FB
100
AcDbEntity
  8
DRAFT
100
AcDbLine
 62
250
  6
CONTINUOUS
 10
29.0513391012
 20
-0.1086568998
 11
28.4383734244
 21
-0.1086568998
  0
LINE
  5
2FC
100
AcDbEntity
  8
0
100
AcDbLine
 62
250
  6
CONTINUOUS
 10
16.3206527362
 20
-0.1086568998
 11
12.6845673436
 21
-0.1086568998
  0
LINE
  5
2FD
100
AcDbEntity
  8
DRAFT
100
AcDbLine
 62
250
  6
CONTINUOUS
 10
16.3206527362
 20
-0.1086568998
 11
16.933618413
 21
-0.1086568998
  0
LINE
  5
2FE
100
AcDbEntity
  8
0
100
AcDbLine
 62
250
  6
CONTINUOUS
 10
29.0513391012
 20
-0.1086568998
 11
32.6874244938
 21
-0.1086568998
  0
LINE
  5
2FF
100
AcDbEntity
  8
DRAFT
100
AcDbLine
 62
250
  6
CONTINUOUS
 10
16.9761347084
 20
0.1081285144
 11
16.9859959187
 21
0.1081285144
  0
LINE
  5
300
100
AcDbEntity
  8
DRAFT
100
AcDbLine
 62
250
  6
CONTINUOUS
 10
28.3859959187
 20
0.1081285144
 11
28.395857129
 21
0.1081285144
  0
LINE
  5
301
100
AcDbEntity
  8
SUPERFICI
100
AcDbLine
 62
250
  6
CONTINUOUS
 10
14.5493862704
 20
18.320698277
 11
14.3994673887
 21
18.7326249457
  0
LWPOLYLINE
  5
302
100
AcDbEntity
  8
SUPERFICI
100
AcDbPolyline
 62
250
  6
CONTINUOUS
 90
12
 70
0
 10
14.3994673887
 20
18.7326249457
 10
14.2619958805
 20
19.1176624324
 10
14.138734689
 20
19.4749373418
 10
14.0315019362
 20
19.8026320969
 10
13.9395828684
 20
20.1020523284
 10
13.8602911918
 20
20.3767704441
 10
13.7921319736
 20
20.6268868344
 10
13.7338217377
 20
20.8520934379
 10
13.6838089135
 20
21.0543961002
 10
13.641244168
 20
21.2339012315
 10
13.6053883463
 20
21.3902796052
 10
13.5502100649
 20
21.6351111224
  0
LWPOLYLINE
  5
303
100
AcDbEntity
  8
SUPERFICI
100
AcDbPolyline
 62
250
  6
CONTINUOUS
 90
11
 70
0
 10
30.9725244487
 20
18.7326249457
 10
31.1099959569
 20
19.1176624324
 10
31.2332571484
 20
19.4749373418
 10
31.3404899012
 20
19.8026320969
 10
31.432408969
 20
20.1020523284
 10
31.5117006456
 20
20.3767704441
 10
31.5798598638
 20
20.6268868344
 10
31.6381700997
 20
20.8520934379
 10
31.6881829239
 20
21.0543961002
 10
31.7307476694
 20
21.2339012315
 10
31.7666034911
 20
21.3902796052
  0
LINE
  5
304
100
AcDbEntity
  8
SUPERFICI
100
AcDbLine
 62
250
  6
CONTINUOUS
 10
30.822605567
 20
18.320698277
 11
30.9725244487
 21
18.7326249457
  0
LINE
  5
305
100
AcDbEntity
  8
DRAFT
100
AcDbLine
 62
7
  6
CONTINUOUS
 10
18.1859959187
 20
-14.2739240069
 11
18.1659241228
 21
-14.3145532925
  0
LINE
  5
306
100
AcDbEntity
  8
DRAFT
100
AcDbLine
 62
250
  6
CONTINUOUS
 10
16.9602690193
 20
0.6435665544
 11
16.9859959187
 21
0.6435665544
  0
LINE
  5
307
100
AcDbEntity
  8
DRAFT
100
AcDbLine
 62
250
  6
CONTINUOUS
 10
28.3859959187
 20
0.6435665544
 11
28.4117228181
 21
0.6435665544
  0
LINE
  5
308
100
AcDbEntity
  8
ASSI
100
AcDbLine
 62
7
  6
CONTINUOUS
 10
16.9568284382
 20
1.504875578
 11
16.9859959187
 21
1.504875578
  0
LINE
  5
309
100
AcDbEntity
  8
ASSI
100
AcDbLine
 62
7
  6
CONTINUOUS
 10
28.3859959187
 20
1.504875578
 11
28.4151633992
 21
1.504875578
  0
LINE
  5
30A
100
AcDbEntity
  8
ASSI
100
AcDbLine
 62
7
  6
CONTINUOUS
 10
16.9859959187
 20
1.508707918
 11
17.2554293233
 21
1.508707918
  0
LINE
  5
30B
100
AcDbEntity
  8
ASSI
100
AcDbLine
 62
7
  6
CONTINUOUS
 10
28.1165625141
 20
1.508707918
 11
28.3859959187
 21
1.508707918
  0
LINE
  5
30C
100
AcDbEntity
  8
DRAFT
100
AcDbLine
 62
7
  6
CONTINUOUS
 10
28.3627982044
 20
1.582873086
 11
28.3444659329
 21
1.582873086
  0
LINE
  5
30D
100
AcDbEntity
  8
DRAFT
100
AcDbLine
 62
7
  6
CONTINUOUS
 10
17.009193633
 20
1.582873086
 11
17.0275259045
 21
1.582873086
  0
LINE
  5
30E
100
AcDbEntity
  8
DRAFT
100
AcDbLine
 62
7
  6
CONTINUOUS
 10
18.1859959187
 20
14.0566102074
 11
18.1659241228
 21
14.097239493
  0
LINE
  5
30F
100
AcDbEntity
  8
SUPERFICI
100
AcDbLine
 62
250
  6
CONTINUOUS
 10
30.822605567
 20
-18.5380120765
 11
30.9725244487
 21
-18.9499387452
  0
LWPOLYLINE
  5
310
100
AcDbEntity
  8
SUPERFICI
100
AcDbPolyline
 62
250
  6
CONTINUOUS
 90
12
 70
0
 10
30.9725244487
 20
-18.9499387452
 10
31.1099959569
 20
-19.3349762319
 10
31.2332571484
 20
-19.6922511413
 10
31.3404899012
 20
-20.0199458964
 10
31.432408969
 20
-20.3193661279
 10
31.5117006456
 20
-20.5940842436
 10
31.5798598638
 20
-20.8442006339
 10
31.6381700997
 20
-21.0694072375
 10
31.6881829239
 20
-21.2717098997
 10
31.7307476694
 20
-21.451215031
 10
31.7666034911
 20
-21.6075934047
 10
31.8217817725
 20
-21.8524249219
  0
LINE
  5
311
100
AcDbEntity
  8
RACCORDO
100
AcDbLine
 62
250
  6
CONTINUOUS
 10
28.0547782988
 20
-9.5719182843
 11
28.1859959187
 21
-10.8773101954
  0
LWPOLYLINE
  5
312
100
AcDbEntity
  8
RACCORDO
100
AcDbPolyline
 62
250
  6
CONTINUOUS
 90
58
 70
0
 10
27.0549306037
 20
10.8857390268
 10
27.0481615104
 20
11.1236921244
 10
27.0283322061
 20
11.3595607188
 10
26.9954426908
 20
11.5933448099
 10
26.9493162901
 20
11.8257555941
 10
26.8901296783
 20
12.056081875
 10
26.8184128785
 20
12.2821900639
 10
26.734047187
 20
12.5040342925
 10
26.6371513073
 20
12.7216604291
 10
26.5286113729
 20
12.9330724902
 10
26.4083263532
 20
13.1382021231
 10
26.2763972787
 20
13.3371176805
 10
26.1340133742
 20
13.5280282365
 10
25.9810769345
 20
13.7108664527
 10
25.8176856647
 20
13.8856996675
 10
25.6453219048
 20
14.050938971
 10
25.4639038108
 20
14.2064964304
 10
25.2735132266
 20
14.3524599785
 10
25.0758780237
 20
14.4875045041
 10
24.8709317705
 20
14.611530354
 10
24.6587408985
 20
14.7246371813
 10
24.4412325741
 20
14.8257988337
 10
24.2183619754
 20
14.9149056803
 10
23.9901739243
 20
14.9920673521
 10
23.7587300532
 20
15.0565865898
 10
23.5239963065
 20
15.1083496968
 10
23.2860067398
 20
15.1474703697
 10
23.0469251522
 20
15.1735924393
 10
22.8067451066
 20
15.1865972216
 10
22.56547304
 20
15.1866034007
 10
22.3252920634
 20
15.1736108596
 10
22.0862085715
 20
15.1475009025
 10
21.8482161694
 20
15.1083922253
 10
21.6134787838
 20
15.0566407976
 10
21.3820304497
 20
14.9921328944
 10
21.153837132
 20
14.9149822407
 10
20.9309606524
 20
14.8258859816
 10
20.7134458214
 20
14.7247344488
 10
20.5012478286
 20
14.6116373106
 10
20.2962940644
 20
14.4876207165
 10
20.0986510186
 20
14.3525850228
 10
19.9082522013
 20
14.2066298733
 10
19.7268255338
 20
14.0510803484
 10
19.5544528702
 20
13.8858485687
 10
19.3910523564
 20
13.7110224137
 10
19.2381063513
 20
13.5281906019
 10
19.0957125373
 20
13.3372857004
 10
18.9637732319
 20
13.1383751421
 10
18.8434777474
 20
12.9332499445
 10
18.7349270267
 20
12.7218417925
 10
18.6380201268
 20
12.5042190012
 10
18.5536435312
 20
12.2823775332
 10
18.4819161447
 20
12.0562786139
 10
18.4227190624
 20
11.825961018
 10
18.3765820533
 20
11.5935370326
 10
18.343681707
 20
11.3597107535
 10
18.3238414338
 20
11.1237780849
 10
18.3170612337
 20
10.8857390268
  0
LINE
  5
313
100
AcDbEntity
  8
SMUSSO
100
AcDbLine
 62
7
  6
CONTINUOUS
 10
26.5407263083
 20
14.7460734898
 11
26.5407263083
 21
14.4006735224
  0
LINE
  5
314
100
AcDbEntity
  8
RACCORDO
100
AcDbLine
 62
250
  6
CONTINUOUS
 10
27.0549306037
 20
-9.4013006852
 11
27.0549306037
 21
10.8857390268
  0
LINE
  5
315
100
AcDbEntity
  8
DRAFT
100
AcDbLine
 62
7
  6
CONTINUOUS
 10
27.1859959187
 20
-14.2739240069
 11
27.1859959187
 21
-13.9899703923
  0
LINE
  5
316
100
AcDbEntity
  8
DRAFT
100
AcDbLine
 62
7
  6
CONTINUOUS
 10
27.1859959187
 20
13.6017336241
 11
27.1859959187
 21
14.0566102074
  0
LINE
  5
317
100
AcDbEntity
  8
DRAFT
100
AcDbLine
 62
7
  6
CONTINUOUS
 10
27.2060677146
 20
-14.3145532925
 11
27.2060677146
 21
-13.9629182711
  0
LINE
  5
318
100
AcDbEntity
  8
DRAFT
100
AcDbLine
 62
7
  6
CONTINUOUS
 10
27.2060677146
 20
13.5702536568
 11
27.2060677146
 21
14.097239493
  0
LWPOLYLINE
  5
319
100
AcDbEntity
  8
SUPERFICI
100
AcDbPolyline
 62
250
  6
CONTINUOUS
 90
4
 70
0
 10
31.7666034911
 20
21.3902796052
 10
31.8217817725
 20
21.6351111224
 10
31.8425417104
 20
21.7225428899
 10
31.8597382873
 20
21.7859299948
  0
LWPOLYLINE
  5
31A
100
AcDbEntity
  8
0
100
AcDbPolyline
 62
250
  6
CONTINUOUS
 90
6
 70
0
 10
16.9123559456
 20
-15.3624274646
 10
16.7432331553
 20
-15.606455007
 10
16.5662451544
 20
-15.8427167428
 10
16.3844939758
 20
-16.0709979327
 10
16.2025400044
 20
-16.2889791011
 10
16.021797332
 20
-16.4986118153
  0
LINE
  5
31B
100
AcDbEntity
  8
DRAFT
100
AcDbLine
 62
7
  6
CONTINUOUS
 10
28.3627982044
 20
2.582873086
 11
28.1249031914
 21
2.582873086
  0
LINE
  5
31C
100
AcDbEntity
  8
DRAFT
100
AcDbLine
 62
7
  6
CONTINUOUS
 10
17.2470886459
 20
2.582873086
 11
17.009193633
 21
2.582873086
  0
LINE
  5
31D
100
AcDbEntity
  8
DRAFT
100
AcDbLine
 62
7
  6
CONTINUOUS
 10
28.2859959187
 20
2.6212713043
 11
28.1249031914
 21
2.6212713043
  0
LINE
  5
31E
100
AcDbEntity
  8
DRAFT
100
AcDbLine
 62
7
  6
CONTINUOUS
 10
17.0859959187
 20
2.6212713043
 11
17.2470886459
 21
2.6212713043
  0
LINE
  5
31F
100
AcDbEntity
  8
DRAFT
100
AcDbLine
 62
7
  6
CONTINUOUS
 10
28.2859959187
 20
4.6614148961
 11
28.1484533723
 21
4.6614148961
  0
LINE
  5
320
100
AcDbEntity
  8
DRAFT
100
AcDbLine
 62
7
  6
CONTINUOUS
 10
17.0859959187
 20
4.6614148961
 11
17.2235384651
 21
4.6614148961
  0
LINE
  5
321
100
AcDbEntity
  8
RACCORDO
100
AcDbLine
 62
7
  6
CONTINUOUS
 10
17.2232118433
 20
4.6765934365
 11
17.0556365259
 21
4.6765934365
  0
LINE
  5
322
100
AcDbEntity
  8
RACCORDO
100
AcDbLine
 62
7
  6
CONTINUOUS
 10
28.1487799941
 20
4.6765934365
 11
28.3163553115
 21
4.6765934365
  0
LINE
  5
323
100
AcDbEntity
  8
DRAFT
100
AcDbLine
 62
7
  6
CONTINUOUS
 10
28.4151633992
 20
1.5566924827
 11
28.3627982044
 21
1.582873086
  0
LWPOLYLINE
  5
324
100
AcDbEntity
  8
SUPERFICI
100
AcDbPolyline
 62
250
  6
CONTINUOUS
 90
7
 70
0
 10
16.9123559456
 20
15.1451136651
 10
16.7432331553
 20
15.3891412074
 10
16.5662451544
 20
15.6254029433
 10
16.3844939758
 20
15.8536841332
 10
16.2025400044
 20
16.0716653015
 10
16.021797332
 20
16.2812980157
 10
15.6589789539
 20
16.6950313113
  0
LWPOLYLINE
  5
325
100
AcDbEntity
  8
SUPERFICI
100
AcDbPolyline
 62
250
  6
CONTINUOUS
 90
3
 70
0
 10
31.8217817725
 20
-21.8524249219
 10
31.8425417104
 20
-21.9398566894
 10
31.8597382873
 20
-22.0032437944
  0
LINE
  5
326
100
AcDbEntity
  8
DRAFT
100
AcDbLine
 62
7
  6
CONTINUOUS
 10
28.0284077541
 20
11.2385168948
 11
28.1589808553
 21
9.9459172153
  0
LINE
  5
327
100
AcDbEntity
  8
DRAFT
100
AcDbLine
 62
7
  6
CONTINUOUS
 10
28.1214121785
 20
-1.6669844868
 11
28.1249031914
 21
-1.7017141224
  0
LINE
  5
328
100
AcDbEntity
  8
RACCORDO
100
AcDbLine
 62
250
  6
CONTINUOUS
 10
28.0547782988
 20
10.7151214277
 11
28.1859959187
 21
9.4097295167
  0
LWPOLYLINE
  5
329
100
AcDbEntity
  8
DRAFT
100
AcDbPolyline
 62
7
  6
CONTINUOUS
 90
3
 70
0
 10
28.1859959187
 20
9.4097295167
 10
28.1774613517
 20
9.7094890309
 10
28.1589310646
 20
9.9459123509
  0
LWPOLYLINE
  5
32A
100
AcDbEntity
  8
RACCORDO
100
AcDbPolyline
 62
250
  6
CONTINUOUS
 90
3
 70
0
 10
28.0547782988
 20
10.7151214277
 10
28.0466225228
 20
11.006442575
 10
28.0284077558
 20
11.2385168772
  0
LINE
  5
32B
100
AcDbEntity
  8
DRAFT
100
AcDbLine
 62
7
  6
CONTINUOUS
 10
28.1249031914
 20
-3.8190507913
 11
28.1859959187
 21
-7.8736465487
  0
LINE
  5
32C
100
AcDbEntity
  8
0
100
AcDbLine
 62
7
  6
CONTINUOUS
 10
28.3912625501
 20
-1.7607513531
 11
28.3921000536
 21
-1.8582477179
  0
LWPOLYLINE
  5
32D
100
AcDbEntity
  8
0
100
AcDbPolyline
 62
7
  6
CONTINUOUS
 90
13
 70
0
 10
29.0513391012
 20
-0.1086568998
 10
29.0638185119
 20
-1.6195783975
 10
29.0874026198
 20
-3.0954543252
 10
29.1092780352
 20
-4.5329594504
 10
29.1226007599
 20
-5.9400381056
 10
29.1214726631
 20
-7.3060283754
 10
29.1015328949
 20
-8.6134759908
 10
29.0606775008
 20
-9.8639589267
 10
28.9975069266
 20
-11.0599103082
 10
28.907840548
 20
-12.2096499576
 10
28.7882720048
 20
-13.3184576161
 10
28.6382525485
 20
-14.3775621557
 10
28.4596359462
 20
-15.3624260306
  0
LINE
  5
32E
100
AcDbEntity
  8
DRAFT
100
AcDbLine
 62
7
  6
CONTINUOUS
 10
28.4324971961
 20
10.7913431002
 11
28.4346405428
 21
8.5964007452
  0
LINE
  5
32F
100
AcDbEntity
  8
DRAFT
100
AcDbLine
 62
7
  6
CONTINUOUS
 10
28.4346405428
 20
8.5964007452
 11
28.4376060547
 21
3.8296558637
  0
LINE
  5
330
100
AcDbEntity
  8
DRAFT
100
AcDbLine
 62
7
  6
CONTINUOUS
 10
28.4376060547
 20
3.8296558637
 11
28.4382611474
 21
1.2392414193
  0
LINE
  5
331
100
AcDbEntity
  8
RACCORDO
100
AcDbLine
 62
250
  6
CONTINUOUS
 10
28.0547782988
 20
-9.5719182843
 11
28.0547782988
 21
10.7151214277
  0
LINE
  5
332
100
AcDbEntity
  8
DRAFT
100
AcDbLine
 62
7
  6
CONTINUOUS
 10
28.1249031914
 20
3.5670073563
 11
28.1249031914
 21
1.508707918
  0
LINE
  5
333
100
AcDbEntity
  8
DRAFT
100
AcDbLine
 62
7
  6
CONTINUOUS
 10
28.1249031914
 20
-1.7017141224
 11
28.1249031914
 21
-3.8190507913
  0
LINE
  5
334
100
AcDbEntity
  8
DRAFT
100
AcDbLine
 62
7
  6
CONTINUOUS
 10
28.1859959187
 20
-10.8773101954
 11
28.1859959187
 21
-7.8736465487
  0
LINE
  5
335
100
AcDbEntity
  8
DRAFT
100
AcDbLine
 62
7
  6
CONTINUOUS
 10
28.1859959187
 20
6.40606587
 11
28.1859959187
 21
9.4097295167
  0
LINE
  5
336
100
AcDbEntity
  8
DRAFT
100
AcDbLine
 62
7
  6
CONTINUOUS
 10
28.2859959187
 20
10.4114148961
 11
28.2859959187
 21
5.6212713043
  0
LINE
  5
337
100
AcDbEntity
  8
DRAFT
100
AcDbLine
 62
7
  6
CONTINUOUS
 10
28.2859959187
 20
4.6614148961
 11
28.2859959187
 21
2.6212713043
  0
LINE
  5
338
100
AcDbEntity
  8
DRAFT
100
AcDbLine
 62
7
  6
CONTINUOUS
 10
28.2859959187
 20
-2.8385851039
 11
28.2859959187
 21
-4.8787286957
  0
LINE
  5
339
100
AcDbEntity
  8
DRAFT
100
AcDbLine
 62
7
  6
CONTINUOUS
 10
28.2859959187
 20
-5.8385851039
 11
28.2859959187
 21
-10.6287286957
  0
LINE
  5
33A
100
AcDbEntity
  8
DRAFT
100
AcDbLine
 62
7
  6
CONTINUOUS
 10
28.2929779447
 20
10.7913431002
 11
28.2929779447
 21
10.4149056433
  0
LINE
  5
33B
100
AcDbEntity
  8
DRAFT
100
AcDbLine
 62
7
  6
CONTINUOUS
 10
28.2929779447
 20
-10.6322194428
 11
28.2929779447
 21
-11.0086568998
  0
LINE
  5
33C
100
AcDbEntity
  8
DRAFT
100
AcDbLine
 62
7
  6
CONTINUOUS
 10
28.3444659329
 20
-1.8586568998
 11
28.3444659329
 21
-1.7607513531
  0
LINE
  5
33D
100
AcDbEntity
  8
DRAFT
100
AcDbLine
 62
7
  6
CONTINUOUS
 10
28.3444659329
 20
1.508707918
 11
28.3444659329
 21
1.582873086
  0
LINE
  5
33E
100
AcDbEntity
  8
DRAFT
100
AcDbLine
 62
7
  6
CONTINUOUS
 10
28.3627982044
 20
-2.8001868856
 11
28.3627982044
 21
-1.8586568998
  0
LINE
  5
33F
100
AcDbEntity
  8
DRAFT
100
AcDbLine
 62
7
  6
CONTINUOUS
 10
28.3627982044
 20
1.582873086
 11
28.3627982044
 21
2.582873086
  0
LINE
  5
340
100
AcDbEntity
  8
0
100
AcDbLine
 62
7
  6
CONTINUOUS
 10
28.3859959187
 20
1.5086671607
 11
28.3859959187
 21
-1.6352019358
  0
LINE
  5
341
100
AcDbEntity
  8
DRAFT
100
AcDbLine
 62
7
  6
CONTINUOUS
 10
28.4151633992
 20
1.5566924827
 11
28.4151633992
 21
0.757368504
  0
LINE
  5
342
100
AcDbEntity
  8
DRAFT
100
AcDbLine
 62
7
  6
CONTINUOUS
 10
28.4151633992
 20
-0.9746823036
 11
28.4151633992
 21
-1.8586568998
  0
LINE
  5
343
100
AcDbEntity
  8
DRAFT
100
AcDbLine
 62
7
  6
CONTINUOUS
 10
28.4382611474
 20
1.2392414193
 11
28.4382582199
 21
-1.465827884
  0
LINE
  5
344
100
AcDbEntity
  8
DRAFT
100
AcDbLine
 62
7
  6
CONTINUOUS
 10
28.4382582199
 20
-1.465827884
 11
28.4375981638
 21
-4.0671594305
  0
LINE
  5
345
100
AcDbEntity
  8
DRAFT
100
AcDbLine
 62
7
  6
CONTINUOUS
 10
28.4375981638
 20
-4.0671594305
 11
28.4363418095
 21
-6.5147299548
  0
LINE
  5
346
100
AcDbEntity
  8
DRAFT
100
AcDbLine
 62
7
  6
CONTINUOUS
 10
28.4363418095
 20
-6.5147299548
 11
28.4346297692
 21
-8.8270222147
  0
LINE
  5
347
100
AcDbEntity
  8
DRAFT
100
AcDbLine
 62
7
  6
CONTINUOUS
 10
28.4346297692
 20
-8.8270222147
 11
28.4324971961
 21
-11.0086568998
  0
LWPOLYLINE
  5
348
100
AcDbEntity
  8
0
100
AcDbPolyline
 62
7
  6
CONTINUOUS
 90
13
 70
0
 10
29.0513391012
 20
-0.1086568998
 10
29.0638185119
 20
1.4022645979
 10
29.0874026198
 20
2.8781405256
 10
29.1092780352
 20
4.3156456509
 10
29.1226007599
 20
5.7227243061
 10
29.1214726631
 20
7.0887145758
 10
29.1015328949
 20
8.3961621912
 10
29.0606775008
 20
9.6466451272
 10
28.9975069266
 20
10.8425965086
 10
28.907840548
 20
11.9923361581
 10
28.7882720048
 20
13.1011438165
 10
28.6382525485
 20
14.1602483562
 10
28.4596359462
 20
15.1451122311
  0
LWPOLYLINE
  5
349
100
AcDbEntity
  8
DRAFT
100
AcDbPolyline
 62
7
  6
CONTINUOUS
 90
25
 70
0
 10
28.1859966548
 20
0.186907456
 10
28.1868572992
 20
0.2656147646
 10
28.1888265911
 20
0.3419858604
 10
28.1919045304
 20
0.4158897944
 10
28.1961880274
 20
0.4871156661
 10
28.2015801719
 20
0.5556808492
 10
28.2077902327
 20
0.6218104643
 10
28.2148087928
 20
0.6854435391
 10
28.2226452693
 20
0.7465150748
 10
28.2310371823
 20
0.8052289614
 10
28.2399662468
 20
0.86150601
 10
28.2494507479
 20
0.9153372174
 10
28.2592830608
 20
0.9669961028
 10
28.2694629444
 20
1.0164761203
 10
28.2799906399
 20
1.0636781848
 10
28.2906592453
 20
1.1086973645
 10
28.3014585475
 20
1.1514595152
 10
28.3123987597
 20
1.1919381246
 10
28.3233036191
 20
1.2302598578
 10
28.3341751833
 20
1.2663658642
 10
28.3450113948
 20
1.3001782231
 10
28.3556298176
 20
1.3317451671
 10
28.3659696399
 20
1.3610150729
 10
28.3760916736
 20
1.3878653245
 10
28.3859959187
 20
1.4122161113
  0
LINE
  5
34A
100
AcDbEntity
  8
0
100
AcDbLine
 62
7
  6
CONTINUOUS
 10
28.3899333351
 20
1.5048191993
 11
28.3906811127
 21
1.5570430373
  0
LINE
  5
34B
100
AcDbEntity
  8
DRAFT
100
AcDbLine
 62
7
  6
CONTINUOUS
 10
28.1859959187
 20
6.40606587
 11
28.1249031914
 21
3.5670073563
  0
LINE
  5
34C
100
AcDbEntity
  8
DRAFT
100
AcDbLine
 62
7
  6
CONTINUOUS
 10
28.4151633992
 20
0.757368504
 11
28.396835581
 21
0.1511507214
  0
LWPOLYLINE
  5
34D
100
AcDbEntity
  8
DRAFT
100
AcDbPolyline
 62
7
  6
CONTINUOUS
 90
25
 70
0
 10
28.4324971961
 20
-11.0086568998
 10
28.4198133855
 20
-11.3839433994
 10
28.3826307182
 20
-11.7576441596
 10
28.3210976375
 20
-12.1281600646
 10
28.2354637238
 20
-12.4939062403
 10
28.1260882755
 20
-12.8533127045
 10
27.9934400832
 20
-13.2048332863
 10
27.8380839836
 20
-13.5469487331
 10
27.6606730146
 20
-13.878203948
 10
27.4619490022
 20
-14.1972081698
 10
27.2427122693
 20
-14.5026362689
 10
27.0039199434
 20
-14.7931192731
 10
26.7466966098
 20
-15.0673044904
 10
26.4722342181
 20
-15.3239572964
 10
26.1816438596
 20
-15.5620721437
 10
25.8760360677
 20
-15.7807478332
 10
25.5566119608
 20
-15.9790870078
 10
25.2248100712
 20
-16.1561586796
 10
24.8821760095
 20
-16.3111396931
 10
24.530142152
 20
-16.4433864486
 10
24.1702474669
 20
-16.5523223481
 10
23.8042813601
 20
-16.6374437236
 10
23.433900743
 20
-16.6984322647
 10
23.0606084398
 20
-16.7351024062
 10
22.6859959187
 20
-16.7473523506
  0
LWPOLYLINE
  5
34E
100
AcDbEntity
  8
0
100
AcDbPolyline
 62
250
  6
CONTINUOUS
 90
10
 70
0
 10
16.021797332
 20
-16.4986118153
 10
15.6589789539
 20
-16.9123451108
 10
15.482760472
 20
-17.1158660047
 10
15.3122271912
 20
-17.3186500365
 10
15.1507924991
 20
-17.5198482711
 10
15.0010690553
 20
-17.719667846
 10
14.8637092359
 20
-17.9215177978
 10
14.7408262671
 20
-18.1261519395
 10
14.6353448416
 20
-18.3318231767
 10
14.5493862704
 20
-18.5380120765
  0
LINE
  5
34F
100
AcDbEntity
  8
DRAFT
100
AcDbLine
 62
7
  6
CONTINUOUS
 10
28.2859959187
 20
-2.8385851039
 11
28.3627982044
 21
-2.8001868856
  0
LINE
  5
350
100
AcDbEntity
  8
RACCORDO
100
AcDbLine
 62
7
  6
CONTINUOUS
 10
17.2032102658
 20
5.606092764
 11
17.0556365259
 21
5.606092764
  0
LINE
  5
351
100
AcDbEntity
  8
RACCORDO
100
AcDbLine
 62
7
  6
CONTINUOUS
 10
28.1687815716
 20
5.606092764
 11
28.3163553115
 21
5.606092764
  0
LINE
  5
352
100
AcDbEntity
  8
DRAFT
100
AcDbLine
 62
7
  6
CONTINUOUS
 10
28.2859959187
 20
5.6212713043
 11
28.1691081934
 21
5.6212713043
  0
LINE
  5
353
100
AcDbEntity
  8
DRAFT
100
AcDbLine
 62
7
  6
CONTINUOUS
 10
17.0859959187
 20
5.6212713043
 11
17.202883644
 21
5.6212713043
  0
LINE
  5
354
100
AcDbEntity
  8
DRAFT
100
AcDbLine
 62
7
  6
CONTINUOUS
 10
28.2859959187
 20
2.6212713043
 11
28.3627982044
 21
2.582873086
  0
LWPOLYLINE
  5
355
100
AcDbEntity
  8
SUPERFICI
100
AcDbPolyline
 62
250
  6
CONTINUOUS
 90
9
 70
0
 10
15.6589789539
 20
16.6950313113
 10
15.482760472
 20
16.8985522051
 10
15.3122271912
 20
17.101336237
 10
15.1507924991
 20
17.3025344715
 10
15.0010690553
 20
17.5023540464
 10
14.8637092359
 20
17.7042039982
 10
14.7408262671
 20
17.90883814
 10
14.6353448416
 20
18.1145093771
 10
14.5493862704
 20
18.320698277
  0
LINE
  5
356
100
AcDbEntity
  8
DRAFT
100
AcDbLine
 62
7
  6
CONTINUOUS
 10
28.3859959187
 20
-1.316963191
 11
28.365961587
 21
-1.2263391448
  0
LWPOLYLINE
  5
357
100
AcDbEntity
  8
DRAFT
100
AcDbPolyline
 62
7
  6
CONTINUOUS
 90
21
 70
0
 10
28.365961587
 20
-1.2263391448
 10
28.3341545056
 20
-1.0774132247
 10
28.323278782
 20
-1.0245401995
 10
28.3123698821
 20
-0.9701270318
 10
28.3014257552
 20
-0.9142535622
 10
28.2906228669
 20
-0.8567523052
 10
28.2799509416
 20
-0.7976767196
 10
28.269420255
 20
-0.7371418579
 10
28.2592381001
 20
-0.6750487384
 10
28.2494042078
 20
-0.6115464561
 10
28.2399188471
 20
-0.5466683741
 10
28.2309901182
 20
-0.4801249062
 10
28.222599956
 20
-0.4119755634
 10
28.2147664255
 20
-0.3423592072
 10
28.2077518213
 20
-0.2710984555
 10
28.2015468929
 20
-0.1983404503
 10
28.1961608908
 20
-0.1241987346
 10
28.1918838613
 20
-0.0484583133
 10
28.1888124865
 20
0.0288325094
 10
28.1868500843
 20
0.1073589906
 10
28.1859966548
 20
0.186907456
  0
LWPOLYLINE
  5
358
100
AcDbEntity
  8
0
100
AcDbPolyline
 62
250
  6
CONTINUOUS
 90
13
 70
0
 10
32.0139223134
 20
-0.1086568998
 10
32.0052431249
 20
1.7439020515
 10
32.0034084774
 20
3.5379070661
 10
31.995484895
 20
5.2736964733
 10
31.9725528249
 20
6.9510288946
 10
31.9293152872
 20
8.5704590286
 10
31.8618189703
 20
10.1334092761
 10
31.7668409431
 20
11.6396478603
 10
31.6420411615
 20
13.0890057679
 10
31.4859472717
 20
14.4828477268
 10
31.2969000924
 20
15.8207972205
 10
31.0751157019
 20
17.1005974241
 10
30.822605567
 20
18.320698277
  0
LWPOLYLINE
  5
359
100
AcDbEntity
  8
0
100
AcDbPolyline
 62
250
  6
CONTINUOUS
 90
13
 70
0
 10
32.0139223134
 20
-0.1086568998
 10
32.0052431249
 20
-1.9612158511
 10
32.0034084774
 20
-3.7552208657
 10
31.995484895
 20
-5.4910102728
 10
31.9725528249
 20
-7.1683426942
 10
31.9293152872
 20
-8.7877728281
 10
31.8618189703
 20
-10.3507230756
 10
31.7668409431
 20
-11.8569616599
 10
31.6420411615
 20
-13.3063195675
 10
31.4859472717
 20
-14.7001615264
 10
31.2969000924
 20
-16.0381110201
 10
31.0751157019
 20
-17.3179112237
 10
30.822605567
 20
-18.5380120765
  0
LWPOLYLINE
  5
35A
100
AcDbEntity
  8
0
100
AcDbPolyline
 62
7
  6
CONTINUOUS
 90
25
 70
0
 10
28.4596359462
 20
-15.3624260306
 10
28.3355075968
 20
-15.9306230664
 10
28.1991763075
 20
-16.4761902939
 10
28.0511889031
 20
-16.9953533094
 10
27.8914383401
 20
-17.4877754713
 10
27.7199620456
 20
-17.9539189982
 10
27.5373288524
 20
-18.392939831
 10
27.3430273197
 20
-18.8063449259
 10
27.1373503586
 20
-19.1936213704
 10
26.9226037125
 20
-19.5515260502
 10
26.6978841325
 20
-19.8822654837
 10
26.4625057892
 20
-20.1870698388
 10
26.2200994133
 20
-20.4629565928
 10
25.9735350704
 20
-20.7092084231
 10
25.7214417575
 20
-20.929092303
 10
25.4617640523
 20
-21.1258201643
 10
25.1973952614
 20
-21.2986921572
 10
24.928160541
 20
-21.4492543308
 10
24.6462066272
 20
-21.5820500247
 10
24.3516850803
 20
-21.6960954386
 10
24.0483071497
 20
-21.7897594024
 10
23.7310976868
 20
-21.8639610704
 10
23.3975988188
 20
-21.9182305094
 10
23.0495456612
 20
-21.9513054999
 10
22.6859959187
 20
-21.962468559
  0
LINE
  5
35B
100
AcDbEntity
  8
SMUSSO
100
AcDbLine
 62
7
  6
CONTINUOUS
 10
18.8312655291
 20
14.7460734898
 11
19.0057524761
 21
14.5715865428
  0
LWPOLYLINE
  5
35C
100
AcDbEntity
  8
0
100
AcDbPolyline
 62
7
  6
CONTINUOUS
 90
25
 70
0
 10
28.4596359462
 20
15.1451122311
 10
28.3355075968
 20
15.7133092669
 10
28.1991763075
 20
16.2588764944
 10
28.0511889031
 20
16.7780395098
 10
27.8914383401
 20
17.2704616718
 10
27.7199620456
 20
17.7366051987
 10
27.5373288524
 20
18.1756260315
 10
27.3430273197
 20
18.5890311263
 10
27.1373503586
 20
18.9763075708
 10
26.9226037125
 20
19.3342122507
 10
26.6978841325
 20
19.6649516841
 10
26.4625057892
 20
19.9697560392
 10
26.2200994133
 20
20.2456427932
 10
25.9735350704
 20
20.4918946235
 10
25.7214417575
 20
20.7117785034
 10
25.4617640523
 20
20.9085063648
 10
25.1973952614
 20
21.0813783576
 10
24.928160541
 20
21.2319405313
 10
24.6462066272
 20
21.3647362252
 10
24.3516850803
 20
21.4787816391
 10
24.0483071497
 20
21.5724456028
 10
23.7310976868
 20
21.6466472709
 10
23.3975988188
 20
21.7009167098
 10
23.0495456612
 20
21.7339917003
 10
22.6859959187
 20
21.7451547594
  0
LWPOLYLINE
  5
35D
100
AcDbEntity
  8
0
100
AcDbPolyline
 62
7
  6
CONTINUOUS
 90
25
 70
0
 10
31.8597382873
 20
21.7859299948
 10
31.8111924408
 20
22.2611809225
 10
31.7378630589
 20
22.7336349205
 10
31.6400397793
 20
23.2020432257
 10
31.5179369012
 20
23.6654152879
 10
31.371897272
 20
24.1222170557
 10
31.2025281253
 20
24.5704144478
 10
31.0104259894
 20
25.0083991264
 10
30.795896466
 20
25.4353723332
 10
30.5593814843
 20
25.8506167338
 10
30.3015346204
 20
26.2531224979
 10
30.0231170927
 20
26.6417031843
 10
29.7247904613
 20
27.0154084584
 10
29.4072962862
 20
27.3733291035
 10
29.0715372818
 20
27.7143874111
 10
28.7185100851
 20
28.0374689317
 10
28.34924294
 20
28.3416665105
 10
27.9647123078
 20
28.6262527769
 10
27.5659207197
 20
28.8904669104
 10
27.1539174183
 20
29.1335626172
 10
26.7298452729
 20
29.35492235
 10
26.2948421822
 20
29.5539710797
 10
25.8500581775
 20
29.7301284969
 10
25.3966952054
 20
29.8829078924
 10
24.9359959187
 20
30.011942104
  0
LINE
  5
35E
100
AcDbEntity
  8
0
100
AcDbLine
 62
7
  6
CONTINUOUS
 10
32.0338733122
 20
19.3497684117
 11
31.8597382873
 21
21.7859299948
  0
LINE
  5
35F
100
AcDbEntity
  8
SUPERFICI
100
AcDbLine
 62
7
  6
CONTINUOUS
 10
32.1659331256
 20
17.4334987479
 11
32.0633796262
 21
18.9168860424
  0
LINE
  5
360
100
AcDbEntity
  8
SUPERFICI
100
AcDbLine
 62
7
  6
CONTINUOUS
 10
32.0717843283
 20
18.795095394
 11
32.0338733122
 21
19.3497684117
  0
LINE
  5
361
100
AcDbEntity
  8
SUPERFICI
100
AcDbLine
 62
7
  6
CONTINUOUS
 10
32.1934789819
 20
17.0249028114
 11
32.153646346
 21
17.6133303186
  0
LINE
  5
362
100
AcDbEntity
  8
SUPERFICI
100
AcDbLine
 62
7
  6
CONTINUOUS
 10
32.2212585044
 20
16.603021884
 11
32.182723203
 21
17.1854520052
  0
LINE
  5
363
100
AcDbEntity
  8
SUPERFICI
100
AcDbLine
 62
7
  6
CONTINUOUS
 10
32.2489022056
 20
16.1706512098
 11
32.2121566336
 21
16.7425042903
  0
LINE
  5
364
100
AcDbEntity
  8
SUPERFICI
100
AcDbLine
 62
7
  6
CONTINUOUS
 10
32.2762082102
 20
15.7283752169
 11
32.2416666739
 21
16.2851911683
  0
LINE
  5
365
100
AcDbEntity
  8
SUPERFICI
100
AcDbLine
 62
7
  6
CONTINUOUS
 10
32.3030319866
 20
15.2760381887
 11
32.2708443013
 21
15.8165948768
  0
LINE
  5
366
100
AcDbEntity
  8
SUPERFICI
100
AcDbLine
 62
7
  6
CONTINUOUS
 10
32.3291462805
 20
14.8151930217
 11
32.2994667919
 21
15.3373045839
  0
LINE
  5
367
100
AcDbEntity
  8
SUPERFICI
100
AcDbLine
 62
7
  6
CONTINUOUS
 10
32.3544525216
 20
14.3455988744
 11
32.3273795625
 21
14.8470848631
  0
LINE
  5
368
100
AcDbEntity
  8
SUPERFICI
100
AcDbLine
 62
7
  6
CONTINUOUS
 10
32.3802777976
 20
13.8385482345
 11
32.3543467995
 21
14.3476135327
  0
LINE
  5
369
100
AcDbEntity
  8
SUPERFICI
100
AcDbLine
 62
7
  6
CONTINUOUS
 10
32.4050843807
 20
13.3199920661
 11
32.3788478769
 21
13.8674452778
  0
LINE
  5
36A
100
AcDbEntity
  8
SUPERFICI
100
AcDbLine
 62
7
  6
CONTINUOUS
 10
32.428618094
 20
12.7941355659
 11
32.4021649963
 21
13.3828059389
  0
LINE
  5
36B
100
AcDbEntity
  8
SUPERFICI
100
AcDbLine
 62
7
  6
CONTINUOUS
 10
32.4508947159
 20
12.260465696
 11
32.4243901052
 21
12.891302823
  0
LINE
  5
36C
100
AcDbEntity
  8
SUPERFICI
100
AcDbLine
 62
7
  6
CONTINUOUS
 10
32.4719409344
 20
11.7187493486
 11
32.4455157094
 21
12.3928394231
  0
LWPOLYLINE
  5
36D
100
AcDbEntity
  8
SUPERFICI
100
AcDbPolyline
 62
7
  6
CONTINUOUS
 90
4
 70
0
 10
32.5277548841
 20
10.0603502325
 10
32.510269294
 20
10.6191701133
 10
32.4917097596
 20
11.1715188722
 10
32.4654589561
 20
11.8898183191
  0
LWPOLYLINE
  5
36E
100
AcDbEntity
  8
SUPERFICI
100
AcDbPolyline
 62
7
  6
CONTINUOUS
 90
4
 70
0
 10
32.5345281438
 20
9.8329674718
 10
32.5187673439
 20
10.3525004469
 10
32.5020340929
 20
10.8691704928
 10
32.4842706157
 20
11.3821450796
  0
LINE
  5
36F
100
AcDbEntity
  8
SUPERFICI
100
AcDbLine
 62
7
  6
CONTINUOUS
 10
32.5494438996
 20
9.3090512386
 11
32.5277548841
 21
10.0603502325
  0
LINE
  5
370
100
AcDbEntity
  8
SUPERFICI
100
AcDbLine
 62
7
  6
CONTINUOUS
 10
32.5636308812
 20
8.7790539165
 11
32.5442528126
 21
9.4951202502
  0
LINE
  5
371
100
AcDbEntity
  8
SUPERFICI
100
AcDbLine
 62
7
  6
CONTINUOUS
 10
32.577139048
 20
8.2431746243
 11
32.5598306829
 21
8.9242004652
  0
LINE
  5
372
100
AcDbEntity
  8
SUPERFICI
100
AcDbLine
 62
7
  6
CONTINUOUS
 10
32.5900233979
 20
7.7008724368
 11
32.5746040562
 21
8.3461902893
  0
LINE
  5
373
100
AcDbEntity
  8
SUPERFICI
100
AcDbLine
 62
7
  6
CONTINUOUS
 10
32.6023600465
 20
7.1497045117
 11
32.5886925861
 21
7.7583933739
  0
LINE
  5
374
100
AcDbEntity
  8
SUPERFICI
100
AcDbLine
 62
7
  6
CONTINUOUS
 10
32.6148739905
 20
6.5536907079
 11
32.6021153449
 21
7.1609678606
  0
LINE
  5
375
100
AcDbEntity
  8
SUPERFICI
100
AcDbLine
 62
7
  6
CONTINUOUS
 10
32.6269872045
 20
5.9338238967
 11
32.6141379732
 21
6.589898739
  0
LINE
  5
376
100
AcDbEntity
  8
SUPERFICI
100
AcDbLine
 62
7
  6
CONTINUOUS
 10
32.6383777552
 20
5.3015241959
 11
32.6253328518
 21
6.0213537049
  0
LINE
  5
377
100
AcDbEntity
  8
SUPERFICI
100
AcDbLine
 62
7
  6
CONTINUOUS
 10
32.6489392389
 20
4.6571139449
 11
32.6359420509
 21
5.4415022093
  0
LWPOLYLINE
  5
378
100
AcDbEntity
  8
SUPERFICI
100
AcDbPolyline
 62
7
  6
CONTINUOUS
 90
3
 70
0
 10
32.6671305918
 20
3.3252181329
 10
32.6585751198
 20
3.9985421076
 10
32.6458885273
 20
4.850228255
  0
LWPOLYLINE
  5
379
100
AcDbEntity
  8
SUPERFICI
100
AcDbPolyline
 62
7
  6
CONTINUOUS
 90
3
 70
0
 10
32.6706900041
 20
3.0070607862
 10
32.6633782038
 20
3.6338107896
 10
32.6550665702
 20
4.2480890995
  0
LINE
  5
37A
100
AcDbEntity
  8
SUPERFICI
100
AcDbLine
 62
7
  6
CONTINUOUS
 10
32.6737574876
 20
2.7062699604
 11
32.6671305918
 21
3.3252181329
  0
LINE
  5
37B
100
AcDbEntity
  8
0
100
AcDbLine
 62
7
  6
CONTINUOUS
 10
32.6771996617
 20
2.3261058636
 11
32.6736152031
 21
2.7208852864
  0
LINE
  5
37C
100
AcDbEntity
  8
0
100
AcDbLine
 62
7
  6
CONTINUOUS
 10
32.6771996617
 20
2.3261058636
 11
32.6874219981
 21
-0.1466936057
  0
LINE
  5
37D
100
AcDbEntity
  8
0
100
AcDbLine
 62
7
  6
CONTINUOUS
 10
32.6874213985
 20
-0.1466936057
 11
32.6771996617
 21
-2.5434196631
  0
LINE
  5
37E
100
AcDbEntity
  8
0
100
AcDbLine
 62
7
  6
CONTINUOUS
 10
32.6771996617
 20
-2.5434196631
 11
32.6736152031
 21
-2.9381990859
  0
LINE
  5
37F
100
AcDbEntity
  8
SUPERFICI
100
AcDbLine
 62
7
  6
CONTINUOUS
 10
32.6671305918
 20
-3.5425319324
 11
32.6737667364
 21
-2.9226311049
  0
LINE
  5
380
100
AcDbEntity
  8
SUPERFICI
100
AcDbLine
 62
7
  6
CONTINUOUS
 10
32.6638673043
 20
-3.8122133209
 11
32.6710223215
 21
-3.1931233191
  0
LINE
  5
381
100
AcDbEntity
  8
SUPERFICI
100
AcDbLine
 62
7
  6
CONTINUOUS
 10
32.6557358924
 20
-4.4187533961
 11
32.6671305918
 21
-3.5425319324
  0
LINE
  5
382
100
AcDbEntity
  8
SUPERFICI
100
AcDbLine
 62
7
  6
CONTINUOUS
 10
32.6467596664
 20
-5.0130351298
 11
32.6585751198
 21
-4.2158559072
  0
LINE
  5
383
100
AcDbEntity
  8
SUPERFICI
100
AcDbLine
 62
7
  6
CONTINUOUS
 10
32.6370308125
 20
-5.596597429
 11
32.6489392389
 21
-4.8744277444
  0
LINE
  5
384
100
AcDbEntity
  8
SUPERFICI
100
AcDbLine
 62
7
  6
CONTINUOUS
 10
32.6266537452
 20
-6.1688598712
 11
32.6383777552
 21
-5.5188379954
  0
LINE
  5
385
100
AcDbEntity
  8
SUPERFICI
100
AcDbLine
 62
7
  6
CONTINUOUS
 10
32.6148739905
 20
-6.7710045075
 11
32.6269872045
 21
-6.1511376963
  0
LINE
  5
386
100
AcDbEntity
  8
SUPERFICI
100
AcDbLine
 62
7
  6
CONTINUOUS
 10
32.6021153449
 20
-7.3782816601
 11
32.6157042208
 21
-6.7299758335
  0
LINE
  5
387
100
AcDbEntity
  8
SUPERFICI
100
AcDbLine
 62
7
  6
CONTINUOUS
 10
32.5886925861
 20
-7.9757071735
 11
32.6041789666
 21
-7.2828444392
  0
LINE
  5
388
100
AcDbEntity
  8
SUPERFICI
100
AcDbLine
 62
7
  6
CONTINUOUS
 10
32.5746040562
 20
-8.5635040888
 11
32.5921034015
 21
-7.8275563602
  0
LINE
  5
389
100
AcDbEntity
  8
SUPERFICI
100
AcDbLine
 62
7
  6
CONTINUOUS
 10
32.5598306829
 20
-9.1415142647
 11
32.5794906491
 21
-8.3638728841
  0
LINE
  5
38A
100
AcDbEntity
  8
SUPERFICI
100
AcDbLine
 62
7
  6
CONTINUOUS
 10
32.5442528126
 20
-9.7124340497
 11
32.5662600765
 21
-8.8945390238
  0
LINE
  5
38B
100
AcDbEntity
  8
SUPERFICI
100
AcDbLine
 62
7
  6
CONTINUOUS
 10
32.5377442059
 20
-9.940064594
 11
32.5523613737
 21
-9.4199831755
  0
LINE
  5
38C
100
AcDbEntity
  8
SUPERFICI
100
AcDbLine
 62
7
  6
CONTINUOUS
 10
32.5222760914
 20
-10.4570264278
 11
32.5442528126
 21
-9.7124340497
  0
LINE
  5
38D
100
AcDbEntity
  8
SUPERFICI
100
AcDbLine
 62
7
  6
CONTINUOUS
 10
32.5058217579
 20
-10.9725021284
 11
32.5277548841
 21
-10.277664032
  0
LINE
  5
38E
100
AcDbEntity
  8
SUPERFICI
100
AcDbLine
 62
7
  6
CONTINUOUS
 10
32.4883213086
 20
-11.4854995424
 11
32.510269294
 21
-10.8364839129
  0
LINE
  5
38F
100
AcDbEntity
  8
SUPERFICI
100
AcDbLine
 62
7
  6
CONTINUOUS
 10
32.4697408736
 20
-11.994566408
 11
32.4917097596
 21
-11.3888326718
  0
LINE
  5
390
100
AcDbEntity
  8
SUPERFICI
100
AcDbLine
 62
7
  6
CONTINUOUS
 10
32.4499740692
 20
-12.5006026408
 11
32.4719409344
 21
-11.9360631482
  0
LINE
  5
391
100
AcDbEntity
  8
SUPERFICI
100
AcDbLine
 62
7
  6
CONTINUOUS
 10
32.4067995346
 20
-13.5001660175
 11
32.4289634511
 21
-13.0034572602
  0
LWPOLYLINE
  5
392
100
AcDbEntity
  8
SUPERFICI
100
AcDbPolyline
 62
7
  6
CONTINUOUS
 90
3
 70
0
 10
32.4050843807
 20
-13.5373058656
 10
32.428618094
 20
-13.0114493655
 10
32.4508947159
 20
-12.4777794956
  0
LINE
  5
393
100
AcDbEntity
  8
SUPERFICI
100
AcDbLine
 62
7
  6
CONTINUOUS
 10
32.3802777976
 20
-14.055862034
 11
32.4067995346
 21
-13.5001660175
  0
LINE
  5
394
100
AcDbEntity
  8
SUPERFICI
100
AcDbLine
 62
7
  6
CONTINUOUS
 10
32.3543467995
 20
-14.5649273322
 11
32.3834760856
 21
-13.9908557021
  0
LINE
  5
395
100
AcDbEntity
  8
SUPERFICI
100
AcDbLine
 62
7
  6
CONTINUOUS
 10
32.3273795625
 20
-15.0643986626
 11
32.3589944278
 21
-14.4759139411
  0
LINE
  5
396
100
AcDbEntity
  8
SUPERFICI
100
AcDbLine
 62
7
  6
CONTINUOUS
 10
32.2994667919
 20
-15.5546183835
 11
32.3335415218
 21
-14.9526848659
  0
LINE
  5
397
100
AcDbEntity
  8
SUPERFICI
100
AcDbLine
 62
7
  6
CONTINUOUS
 10
32.2708443013
 20
-16.0339086764
 11
32.3072149964
 21
-15.4209884607
  0
LINE
  5
398
100
AcDbEntity
  8
SUPERFICI
100
AcDbLine
 62
7
  6
CONTINUOUS
 10
32.2416666739
 20
-16.5025049678
 11
32.2801091971
 21
-15.8810870513
  0
LINE
  5
399
100
AcDbEntity
  8
SUPERFICI
100
AcDbLine
 62
7
  6
CONTINUOUS
 10
32.2121566336
 20
-16.9598180899
 11
32.2524852011
 21
-16.3308573529
  0
LINE
  5
39A
100
AcDbEntity
  8
SUPERFICI
100
AcDbLine
 62
7
  6
CONTINUOUS
 10
32.182723203
 20
-17.4027658047
 11
32.2245150334
 21
-16.7701064585
  0
LINE
  5
39B
100
AcDbEntity
  8
SUPERFICI
100
AcDbLine
 62
7
  6
CONTINUOUS
 10
32.1408719602
 20
-18.0163943925
 11
32.1963842047
 21
-17.1986043487
  0
LINE
  5
39C
100
AcDbEntity
  8
SUPERFICI
100
AcDbLine
 62
7
  6
CONTINUOUS
 10
32.0338671139
 20
-19.5671743833
 11
32.0717843283
 21
-19.0124091935
  0
LINE
  5
39D
100
AcDbEntity
  8
SUPERFICI
100
AcDbLine
 62
7
  6
CONTINUOUS
 10
32.0639953244
 20
-19.12526144
 11
32.153646346
 21
-17.8306441182
  0
LINE
  5
39E
100
AcDbEntity
  8
0
100
AcDbLine
 62
7
  6
CONTINUOUS
 10
32.0338671139
 20
-19.5671743833
 11
31.8597382873
 21
-22.0032437944
  0
LWPOLYLINE
  5
39F
100
AcDbEntity
  8
0
100
AcDbPolyline
 62
7
  6
CONTINUOUS
 90
28
 70
0
 10
31.8597382873
 20
-22.0032437944
 10
31.8071799209
 20
-22.5092731683
 10
31.72654488
 20
-23.0119918749
 10
31.6181908765
 20
-23.5098926899
 10
31.4823903646
 20
-24.0017463247
 10
31.3195609432
 20
-24.4857360113
 10
31.1304212287
 20
-24.9595100147
 10
30.91569564
 20
-25.4211510111
 10
30.6758523762
 20
-25.8697173298
 10
30.41147401
 20
-26.3044131525
 10
30.1233053404
 20
-26.7240525556
 10
29.8123017267
 20
-27.1271693738
 10
29.479395361
 20
-27.5125964618
 10
29.1255150265
 20
-27.8792240053
 10
28.7517446324
 20
-28.2257818482
 10
28.3594142229
 20
-28.5510242622
 10
27.9498921161
 20
-28.8539284051
 10
27.5243295664
 20
-29.1336496781
 10
27.0838824723
 20
-29.389383672
 10
26.6298607495
 20
-29.6204223271
 10
26.163717536
 20
-29.8260162074
 10
25.686911884
 20
-30.0054520944
 10
25.2009414888
 20
-30.1582054098
 10
24.7072855112
 20
-30.2838555382
 10
24.2074280984
 20
-30.3819782523
 10
23.7028873855
 20
-30.4522573037
 10
23.1952245185
 20
-30.4945325062
 10
22.6859959187
 20
-30.5086568998
  0
LWPOLYLINE
  5
3A0
100
AcDbEntity
  8
RACCORDO
100
AcDbPolyline
 62
7
  6
CONTINUOUS
 90
19
 70
0
 10
26.5243400116
 20
-15.0744033395
 10
26.5232046012
 20
-15.0766130724
 10
26.5179810411
 20
-15.082533772
 10
26.5086693315
 20
-15.0921996099
 10
26.4952587198
 20
-15.1056418299
 10
26.4777599585
 20
-15.1228196944
 10
26.4562053051
 20
-15.1435569091
 10
26.4303588397
 20
-15.1677719977
 10
26.4004564822
 20
-15.1952443254
 10
26.3672382497
 20
-15.225374606
 10
26.3309101345
 20
-15.2575754445
 10
26.2912661443
 20
-15.2917447448
 10
26.2484283183
 20
-15.327960161
 10
26.2022902452
 20
-15.3660636981
 10
26.1529583364
 20
-15.4056755349
 10
26.1008738651
 20
-15.4466026746
 10
26.0461839225
 20
-15.4885842952
 10
25.9887414173
 20
-15.5312827996
 10
25.9285463497
 20
-15.574384301
  0
LWPOLYLINE
  5
3A1
100
AcDbEntity
  8
RACCORDO
100
AcDbPolyline
 62
250
  6
CONTINUOUS
 90
19
 70
0
 10
18.3170612337
 20
10.8857390268
 10
18.2308714694
 20
10.8850928365
 10
18.1453231744
 20
10.8831590749
 10
18.061053044
 20
10.879952134
 10
17.9786882604
 20
10.8754958817
 10
17.8988418256
 20
10.8698234835
 10
17.8221079984
 20
10.8629771566
 10
17.7490578722
 20
10.8550078548
 10
17.6802351242
 20
10.8459748899
 10
17.6161519694
 20
10.8359454899
 10
17.5572853481
 20
10.8249942988
 10
17.5040733764
 20
10.8132028212
 10
17.4569120858
 20
10.8006588154
 10
17.4161524752
 20
10.7874556404
 10
17.3820978991
 20
10.7736915613
 10
17.3550018092
 20
10.7594690174
 10
17.335065869
 20
10.7448938604
 10
17.3224384522
 20
10.7300745662
 10
17.3172135385
 20
10.7151214277
  0
LINE
  5
3A2
100
AcDbEntity
  8
DRAFT
100
AcDbLine
 62
7
  6
CONTINUOUS
 10
17.0790138927
 20
10.4149056433
 11
17.2603862635
 21
10.4149056433
  0
LINE
  5
3A3
100
AcDbEntity
  8
DRAFT
100
AcDbLine
 62
7
  6
CONTINUOUS
 10
28.1116055739
 20
10.4149056433
 11
28.2929779447
 21
10.4149056433
  0
LINE
  5
3A4
100
AcDbEntity
  8
DRAFT
100
AcDbLine
 62
250
  6
CONTINUOUS
 10
17.0790138927
 20
10.7913431002
 11
16.9394946413
 21
10.7913431002
  0
LINE
  5
3A5
100
AcDbEntity
  8
DRAFT
100
AcDbLine
 62
250
  6
CONTINUOUS
 10
28.2929779447
 20
10.7913431002
 11
28.4324971961
 21
10.7913431002
  0
LWPOLYLINE
  5
3A6
100
AcDbEntity
  8
RACCORDO
100
AcDbPolyline
 62
250
  6
CONTINUOUS
 90
19
 70
0
 10
27.0549306037
 20
10.8857390268
 10
27.1411201938
 20
10.8850928402
 10
27.2266683425
 20
10.8831590866
 10
27.3109383572
 20
10.8799521569
 10
27.3933030574
 20
10.8754959176
 10
27.4731494408
 20
10.8698235333
 10
27.5498832455
 20
10.8629772199
 10
27.622933377
 20
10.8550079302
 10
27.6917561548
 20
10.845974975
 10
27.7558393579
 20
10.8359455821
 10
27.8147060425
 20
10.8249943946
 10
27.8679180878
 20
10.8132029165
 10
27.9150794552
 20
10.8006589067
 10
27.955839142
 20
10.7874557238
 10
27.9898937893
 20
10.7736916329
 10
28.0169899394
 20
10.7594690744
 10
28.0369259259
 20
10.7448939005
 10
28.0495533732
 20
10.7300745871
 10
28.0547782988
 20
10.7151214275
  0
LWPOLYLINE
  5
3A7
100
AcDbEntity
  8
RACCORDO
100
AcDbPolyline
 62
7
  6
CONTINUOUS
 90
19
 70
0
 10
26.5243400116
 20
14.8570895399
 10
26.5233751974
 20
14.8592484137
 10
26.5182180574
 20
14.8650766399
 10
26.5088685914
 20
14.8746814002
 10
26.4952612561
 20
14.8882233894
 10
26.4774615949
 20
14.9057023406
 10
26.4556662378
 20
14.9267550502
 10
26.4296748577
 20
14.951128932
 10
26.3996877817
 20
14.9786396417
 10
26.366502621
 20
15.0087177133
 10
26.3304083935
 20
15.0407315295
 10
26.2911160813
 20
15.0745894639
 10
26.2485562417
 20
15.1105394808
 10
26.2025536491
 20
15.1485217061
 10
26.1532835292
 20
15.1880988279
 10
26.1012021158
 20
15.2290347949
 10
26.0464614872
 20
15.2710537934
 10
25.9889095651
 20
15.3138371293
 10
25.9285463497
 20
15.3570705014
  0
LWPOLYLINE
  5
3A8
100
AcDbEntity
  8
0
100
AcDbPolyline
 62
250
  6
CONTINUOUS
 90
25
 70
0
 10
30.822605567
 20
-18.5380120765
 10
30.6615607315
 20
-19.179542126
 10
30.4722935998
 20
-19.7989769175
 10
30.2567175161
 20
-20.3944553792
 10
30.0164322159
 20
-20.9652200862
 10
29.7536585679
 20
-21.5092963457
 10
29.4715719536
 20
-22.0234236535
 10
29.1726608239
 20
-22.5062511644
 10
28.8588943356
 20
-22.9576603389
 10
28.5330749752
 20
-23.3763674936
 10
28.1986990445
 20
-23.7608617344
 10
27.8571137976
 20
-24.112623707
 10
27.5076807428
 20
-24.4345277224
 10
27.1535104137
 20
-24.7256058745
 10
26.7956723292
 20
-24.986993357
 10
26.4295396886
 20
-25.2235363115
 10
26.05743964
 20
-25.4346333853
 10
25.6807208421
 20
-25.6203578474
 10
25.2919684048
 20
-25.7844049752
 10
24.8926640128
 20
-25.9261414655
 10
24.48440766
 20
-26.0451111015
 10
24.0591462989
 20
-26.1427951755
 10
23.6149708729
 20
-26.2179709929
 10
23.1566406121
 20
-26.2688159492
 10
22.6859959187
 20
-26.2944849012
  0
LINE
  5
3A9
100
AcDbEntity
  8
DRAFT
100
AcDbLine
 62
7
  6
CONTINUOUS
 10
28.1886797948
 20
11.8677805572
 11
27.9245088229
 21
11.8677805572
  0
LINE
  5
3AA
100
AcDbEntity
  8
DRAFT
100
AcDbLine
 62
7
  6
CONTINUOUS
 10
17.4474823232
 20
11.8677805572
 11
17.1833120426
 21
11.8677805572
  0
LWPOLYLINE
  5
3AB
100
AcDbEntity
  8
0
100
AcDbPolyline
 62
250
  6
CONTINUOUS
 90
25
 70
0
 10
30.822605567
 20
18.320698277
 10
30.6615607315
 20
18.9622283265
 10
30.4722935998
 20
19.581663118
 10
30.2567175161
 20
20.1771415797
 10
30.0164322159
 20
20.7479062867
 10
29.7536585679
 20
21.2919825461
 10
29.4715719536
 20
21.806109854
 10
29.1726608239
 20
22.2889373649
 10
28.8588943356
 20
22.7403465394
 10
28.5330749752
 20
23.159053694
 10
28.1986990445
 20
23.5435479348
 10
27.8571137976
 20
23.8953099075
 10
27.5076807428
 20
24.2172139229
 10
27.1535104137
 20
24.5082920749
 10
26.7956723292
 20
24.7696795575
 10
26.4295396886
 20
25.0062225119
 10
26.05743964
 20
25.2173195858
 10
25.6807208421
 20
25.4030440479
 10
25.2919684048
 20
25.5670911756
 10
24.8926640128
 20
25.708827666
 10
24.48440766
 20
25.8277973019
 10
24.0591462989
 20
25.9254813759
 10
23.6149708729
 20
26.0006571934
 10
23.1566406121
 20
26.0515021497
 10
22.6859959187
 20
26.0771711016
  0
LINE
  5
3AC
100
AcDbEntity
  8
SMUSSO
100
AcDbLine
 62
7
  6
CONTINUOUS
 10
18.8312655291
 20
14.7460734898
 11
19.2018906914
 21
14.7460734898
  0
LINE
  5
3AD
100
AcDbEntity
  8
SMUSSO
100
AcDbLine
 62
7
  6
CONTINUOUS
 10
26.1699809256
 20
14.7460734898
 11
26.5407263083
 21
14.7460734898
  0
LINE
  5
3AE
100
AcDbEntity
  8
DRAFT
100
AcDbLine
 62
7
  6
CONTINUOUS
 10
26.4951256462
 20
14.8413431002
 11
26.0512030672
 21
14.8413431002
  0
LINE
  5
3AF
100
AcDbEntity
  8
DRAFT
100
AcDbLine
 62
7
  6
CONTINUOUS
 10
19.3208166745
 20
14.8413431002
 11
18.8768661912
 21
14.8413431002
  0
LINE
  5
3B0
100
AcDbEntity
  8
RACCORDO
100
AcDbLine
 62
7
  6
CONTINUOUS
 10
18.8476518258
 20
14.8570895399
 11
19.3404731086
 21
14.8570895399
  0
LINE
  5
3B1
100
AcDbEntity
  8
RACCORDO
100
AcDbLine
 62
7
  6
CONTINUOUS
 10
26.0315711156
 20
14.8570895399
 11
26.5243400116
 21
14.8570895399
  0
LINE
  5
3B2
100
AcDbEntity
  8
RACCORDO
100
AcDbLine
 62
250
  6
CONTINUOUS
 10
19.4434454877
 20
15.3570705014
 11
20.0992396447
 21
15.3570705014
  0
LINE
  5
3B3
100
AcDbEntity
  8
RACCORDO
100
AcDbLine
 62
250
  6
CONTINUOUS
 10
25.2728885998
 20
15.3570705014
 11
25.9285463497
 21
15.3570705014
  0
LWPOLYLINE
  5
3B4
100
AcDbEntity
  8
DRAFT
100
AcDbPolyline
 62
7
  6
CONTINUOUS
 90
34
 70
0
 10
22.6859959187
 20
16.5300385511
 10
22.9081165913
 20
16.5257257083
 10
23.1309272136
 20
16.5127556979
 10
23.3540857185
 20
16.4910286126
 10
23.5776161531
 20
16.4603991624
 10
23.8007806056
 20
16.420823646
 10
24.0221057098
 20
16.3725077861
 10
24.2412792769
 20
16.3155317382
 10
24.4579364647
 20
16.2500014183
 10
24.6705962373
 20
16.1764519258
 10
24.8782617944
 20
16.095442271
 10
25.0814213121
 20
16.0069975309
 10
25.2808342807
 20
15.910882418
 10
25.4750301954
 20
15.8079189452
 10
25.6649694599
 20
15.6977141874
 10
25.854717146
 20
15.5775897315
 10
26.0436885388
 20
15.4472221222
 10
26.2312256958
 20
15.3063390532
 10
26.4205480381
 20
15.1513580996
 10
26.6108564368
 20
14.9812222796
 10
26.8004878883
 20
14.7955677549
 10
26.9904713381
 20
14.5910627888
 10
27.1800701211
 20
14.3653472334
 10
27.3658430315
 20
14.1190070221
 10
27.5443970118
 20
13.853137153
 10
27.7139295915
 20
13.5667888971
 10
27.8716660757
 20
13.2605198906
 10
28.0135204401
 20
12.9385211786
 10
28.1379234384
 20
12.6008630572
 10
28.2428216508
 20
12.2489570836
 10
28.325229297
 20
11.8899749898
 10
28.3843292848
 20
11.5274134073
 10
28.4202047188
 20
11.1607065535
 10
28.4324971961
 20
10.7913431002
  0
LINE
  5
3B5
100
AcDbEntity
  8
0
100
AcDbLine
 62
7
  6
CONTINUOUS
 10
20.4404551215
 20
30.0095788336
 11
20.4359959187
 21
30.011942104
  0
LINE
  5
3B6
100
AcDbEntity
  8
0
100
AcDbLine
 62
7
  6
CONTINUOUS
 10
22.6859959187
 20
30.0263836145
 11
21.435928662
 21
30.0079837389
  0
LINE
  5
3B7
100
AcDbEntity
  8
0
100
AcDbLine
 62
7
  6
CONTINUOUS
 10
21.435928662
 20
30.0079837389
 11
21.096338151
 21
30.0035157292
  0
LINE
  5
3B8
100
AcDbEntity
  8
0
100
AcDbLine
 62
7
  6
CONTINUOUS
 10
21.096338151
 20
30.0035157292
 11
20.9029266724
 21
30.0016836548
  0
LWPOLYLINE
  5
3B9
100
AcDbEntity
  8
0
100
AcDbPolyline
 62
7
  6
CONTINUOUS
 90
9
 70
0
 10
20.9029266724
 20
30.0016836548
 10
20.7388746699
 20
30.0010706755
 10
20.6688467285
 20
30.0012536314
 10
20.6072888679
 20
30.0017998736
 10
20.5542644701
 20
30.0027545955
 10
20.5106283315
 20
30.0040726037
 10
20.4772927712
 20
30.0056597713
 10
20.4540971264
 20
30.0074847227
 10
20.4407371004
 20
30.0095355486
  0
LINE
  5
3BA
100
AcDbEntity
  8
0
100
AcDbLine
 62
7
  6
CONTINUOUS
 10
24.6978877353
 20
30.0012240387
 11
24.5479976851
 21
30.0012377993
  0
LINE
  5
3BB
100
AcDbEntity
  8
0
100
AcDbLine
 62
7
  6
CONTINUOUS
 10
24.5479976851
 20
30.0012377993
 11
24.3683207565
 21
30.0025514308
  0
LINE
  5
3BC
100
AcDbEntity
  8
0
100
AcDbLine
 62
7
  6
CONTINUOUS
 10
24.3683207565
 20
30.0025514308
 11
24.1613683648
 21
30.0048853768
  0
LINE
  5
3BD
100
AcDbEntity
  8
0
100
AcDbLine
 62
7
  6
CONTINUOUS
 10
24.1613683648
 20
30.0048853768
 11
23.8054302151
 21
30.0098947221
  0
LWPOLYLINE
  5
3BE
100
AcDbEntity
  8
0
100
AcDbPolyline
 62
7
  6
CONTINUOUS
 90
3
 70
0
 10
23.8054302151
 20
30.0098947221
 10
23.4047132305
 20
30.015994981
 10
22.6859959187
 20
30.0263836145
  0
LWPOLYLINE
  5
3BF
100
AcDbEntity
  8
0
100
AcDbPolyline
 62
7
  6
CONTINUOUS
 90
7
 70
0
 43
0.3499999917
 10
-31.2956877136
 20
-46.5913698578
 10
-32.7956867981
 20
-46.5913698578
 10
-31.2956877136
 20
-44.448511734
 10
-31.2956877136
 20
-44.0199401093
 10
-31.7242593384
 20
-43.5913684845
 10
-32.3671151733
 20
-43.5913684845
 10
-32.7956867981
 20
-44.2342259216
  0
LWPOLYLINE
  5
3C0
100
AcDbEntity
  8
0
100
AcDbPolyline
 62
7
  6
CONTINUOUS
 90
3
 70
0
 43
0.3499999917
 10
-24.8671149445
 20
-45.9485124207
 10
-26.3671156311
 20
-45.9485124207
 10
-25.724258194
 20
-43.5913684845
  0
LINE
  5
3C1
100
AcDbEntity
  8
0
100
AcDbLine
 62
7
  6
CONTINUOUS
 10
-23.6562844698
 20
30.0263836145
 11
-23.6607081153
 21
30.0244505525
  0
LWPOLYLINE
  5
3C2
100
AcDbEntity
  8
0
100
AcDbPolyline
 62
7
  6
CONTINUOUS
 90
16
 70
0
 10
-33.9323114034
 20
26.0771711016
 10
-33.652270388
 20
26.4626021312
 10
-33.3534469107
 20
26.8342052834
 10
-33.036553706
 20
27.1911043998
 10
-32.7019884445
 20
27.5327290818
 10
-32.3507614308
 20
27.857851699
 10
-31.9846777598
 20
28.164774157
 10
-31.6053785244
 20
28.4524066924
 10
-31.2132702298
 20
28.7206796531
 10
-30.8084374294
 20
28.9695334667
 10
-30.3917670878
 20
29.1982630902
 10
-29.9642265365
 20
29.4062325236
 10
-29.5259645486
 20
29.5934500657
 10
-29.0777031421
 20
29.7595806024
 10
-28.6207883545
 20
29.9040420749
 10
-28.1562844698
 20
30.0263836145
  0
LWPOLYLINE
  5
3C3
100
AcDbEntity
  8
0
100
AcDbPolyline
 62
7
  6
CONTINUOUS
 90
19
 70
0
 10
-33.9323114034
 20
-26.2944849012
 10
-33.6236216749
 20
-26.7171948537
 10
-33.2924177469
 20
-27.123028097
 10
-32.9396584947
 20
-27.5108337288
 10
-32.5659437897
 20
-27.8797958782
 10
-32.1725746389
 20
-28.2283764812
 10
-31.7618341114
 20
-28.5545972766
 10
-31.3359346177
 20
-28.8570684197
 10
-30.8953919766
 20
-29.1356810488
 10
-30.4400432571
 20
-29.3904323629
 10
-29.9707926319
 20
-29.6205464165
 10
-29.4892947833
 20
-29.8252951341
 10
-28.9963418729
 20
-30.0044178301
 10
-28.4920425596
 20
-30.1576967142
 10
-27.9790609873
 20
-30.284063031
 10
-27.4621401338
 20
-30.3823947854
 10
-26.9439250034
 20
-30.4525156857
 10
-26.4248204853
 20
-30.4946160661
 10
-25.9062844698
 20
-30.5086568998
  0
LWPOLYLINE
  5
3C4
100
AcDbEntity
  8
0
100
AcDbPolyline
 62
7
  6
CONTINUOUS
 90
10
 70
0
 43
0.3499999917
 10
-27.4385430908
 20
-46.0913685608
 10
-27.3671150208
 20
-46.2342263031
 10
-27.3671150208
 20
-46.3056543732
 10
-27.5099711609
 20
-46.4485121155
 10
-27.5814024353
 20
-46.4485121155
 10
-27.6528305054
 20
-46.3770840454
 10
-27.6528305054
 20
-46.3056543732
 10
-27.5814024353
 20
-46.162798233
 10
-27.5099711609
 20
-46.0913685608
 10
-27.4385430908
 20
-46.0913685608
  0
LWPOLYLINE
  5
3C5
100
AcDbEntity
  8
SUPERFICI
100
AcDbPolyline
 62
250
  6
CONTINUOUS
 90
16
 70
0
 10
-34.2049456887
 20
18.320698277
 10
-33.6717172532
 20
18.7326249457
 10
-33.1375621898
 20
19.1176624324
 10
-32.6033054053
 20
19.4749373418
 10
-32.0717220611
 20
19.8026320969
 10
-31.5417001133
 20
20.1020523284
 10
-31.0078960883
 20
20.3767704441
 10
-30.4703010884
 20
20.6268868344
 10
-29.9298520087
 20
20.8520934379
 10
-29.3820130301
 20
21.0543961002
 10
-28.8262556321
 20
21.2339012315
 10
-28.2633197864
 20
21.3902796052
 10
-27.6901880844
 20
21.5241117512
 10
-27.1057940457
 20
21.6351111224
 10
-26.5111610045
 20
21.7225428899
 10
-25.9062844698
 20
21.7859299948
  0
LWPOLYLINE
  5
3C6
100
AcDbEntity
  8
SUPERFICI
100
AcDbPolyline
 62
250
  6
CONTINUOUS
 90
16
 70
0
 10
-34.2049456887
 20
-18.5380120765
 10
-33.6717172532
 20
-18.9499387452
 10
-33.1375621898
 20
-19.3349762319
 10
-32.6033054053
 20
-19.6922511413
 10
-32.0717220611
 20
-20.0199458964
 10
-31.5417001133
 20
-20.3193661279
 10
-31.0078960883
 20
-20.5940842436
 10
-30.4703010884
 20
-20.8442006339
 10
-29.9298520087
 20
-21.0694072375
 10
-29.3820130301
 20
-21.2717098997
 10
-28.8262556321
 20
-21.451215031
 10
-28.2633197864
 20
-21.6075934047
 10
-27.6901880844
 20
-21.7414255507
 10
-27.1057940457
 20
-21.8524249219
 10
-26.5111610045
 20
-21.9398566894
 10
-25.9062844698
 20
-22.0032437944
  0
LWPOLYLINE
  5
3C7
100
AcDbEntity
  8
SUPERFICI
100
AcDbPolyline
 62
7
  6
CONTINUOUS
 90
44
 70
0
 10
-34.6081305415
 20
24.9391099437
 10
-34.6229412318
 20
24.9096870916
 10
-34.6614432281
 20
24.8320875761
 10
-34.6988234662
 20
24.7551490231
 10
-34.7351831278
 20
24.6787170555
 10
-34.7705397631
 20
24.6028021806
 10
-34.8049035309
 20
24.5274293396
 10
-34.8383544936
 20
24.4524645548
 10
-34.8709022028
 20
24.3779226726
 10
-34.902554727
 20
24.3038210947
 10
-34.9333810482
 20
24.2300291509
 10
-34.9633856626
 20
24.1565617618
 10
-34.9925728122
 20
24.0834340461
 10
-35.0210026532
 20
24.0105156764
 10
-35.0486816793
 20
23.9378051319
 10
-35.0756058406
 20
23.8653330775
 10
-35.1018136019
 20
23.7930167648
 10
-35.127309049
 20
23.7208633592
 10
-35.152092503
 20
23.6488918111
 10
-35.17619353
 20
23.5770346707
 10
-35.1996139085
 20
23.5053032127
 10
-35.2223560212
 20
23.4337079801
 10
-35.2444475706
 20
23.3621774614
 10
-35.2658964364
 20
23.2906985921
 10
-35.2866973544
 20
23.219302436
 10
-35.3068569547
 20
23.1479811042
 10
-35.3264149866
 20
23.0766027669
 10
-35.3453339539
 20
23.0053139531
 10
-35.3635148527
 20
22.9345245634
 10
-35.3809809998
 20
22.8642000895
 10
-35.3977341905
 20
22.7943920668
 10
-35.4136677269
 20
22.7256410464
 10
-35.4288118978
 20
22.6579458506
 10
-35.4431923337
 20
22.5913242329
 10
-35.4567230621
 20
22.5263395216
 10
-35.469466508
 20
22.4628828548
 10
-35.4814391872
 20
22.4010638494
 10
-35.4925206344
 20
22.3417492002
 10
-35.502807793
 20
22.2846970088
 10
-35.5123158151
 20
22.2300946276
 10
-35.5208541681
 20
22.1793863104
 10
-35.5284801254
 20
22.1326443712
 10
-35.5353066931
 20
22.0895574953
 10
-35.5462902944
 20
22.0176127586
  0
LINE
  5
3C8
100
AcDbEntity
  8
0
100
AcDbLine
 62
7
  6
CONTINUOUS
 10
-34.6081604792
 20
24.9390507038
 11
-34.6081305415
 21
24.9391099437
  0
LWPOLYLINE
  5
3C9
100
AcDbEntity
  8
0
100
AcDbPolyline
 62
7
  6
CONTINUOUS
 90
7
 70
0
 10
-34.6081305415
 20
24.9391099437
 10
-34.5063344357
 20
25.1349947993
 10
-34.4001030576
 20
25.3285645783
 10
-34.2895253841
 20
25.5196633503
 10
-34.1746611113
 20
25.7081948384
 10
-34.0555699057
 20
25.8940628149
 10
-33.9323114034
 20
26.0771711016
  0
LINE
  5
3CA
100
AcDbEntity
  8
DRAFT
100
AcDbLine
 62
7
  6
CONTINUOUS
 10
-41.2850774783
 20
-14.8591367965
 11
-36.2452169601
 21
-15.8387864421
  0
LWPOLYLINE
  5
3CB
100
AcDbEntity
  8
0
100
AcDbPolyline
 62
7
  6
CONTINUOUS
 90
7
 70
0
 10
-34.6081604792
 20
-25.1563645033
 10
-34.5063344357
 20
-25.3523085988
 10
-34.4001030576
 20
-25.5458783778
 10
-34.2895253841
 20
-25.7369771499
 10
-34.1746611113
 20
-25.925508638
 10
-34.0555699057
 20
-26.1113766145
 10
-33.9323114034
 20
-26.2944849012
  0
LINE
  5
3CC
100
AcDbEntity
  8
RACCORDO
100
AcDbLine
 62
7
  6
CONTINUOUS
 10
-42.0790762359
 20
-13.7038614354
 11
-36.9846218427
 21
15.1882251454
  0
LINE
  5
3CD
100
AcDbEntity
  8
0
100
AcDbLine
 62
7
  6
CONTINUOUS
 10
-15.222957923
 20
-11.1337028998
 11
-15.0726612594
 21
-11.1337028998
  0
LINE
  5
3CE
100
AcDbEntity
  8
RACCORDO
100
AcDbLine
 62
250
  6
CONTINUOUS
 10
-41.3204186895
 20
-9.4013006852
 11
-36.6461259959
 21
-10.2255046028
  0
LINE
  5
3CF
100
AcDbEntity
  8
SUPERFICI
100
AcDbLine
 62
7
  6
CONTINUOUS
 10
-35.9681031421
 20
-18.6982013943
 11
-35.9020275753
 21
-19.3115710989
  0
LINE
  5
3D0
100
AcDbEntity
  8
SUPERFICI
100
AcDbLine
 62
7
  6
CONTINUOUS
 10
-36.026432396
 20
-18.1371391332
 11
-35.9681031421
 21
-18.6982013943
  0
LINE
  5
3D1
100
AcDbEntity
  8
SUPERFICI
100
AcDbLine
 62
7
  6
CONTINUOUS
 10
-36.0858567226
 20
-17.5449603752
 11
-36.026432396
 21
-18.1371391332
  0
LINE
  5
3D2
100
AcDbEntity
  8
SUPERFICI
100
AcDbLine
 62
7
  6
CONTINUOUS
 10
-36.1460216565
 20
-16.9223704181
 11
-36.0858567226
 21
-17.5449603752
  0
LINE
  5
3D3
100
AcDbEntity
  8
SUPERFICI
100
AcDbLine
 62
7
  6
CONTINUOUS
 10
-36.196516004
 20
-16.3803156736
 11
-36.1460216565
 21
-16.9223704181
  0
LINE
  5
3D4
100
AcDbEntity
  8
SUPERFICI
100
AcDbLine
 62
7
  6
CONTINUOUS
 10
-36.2471206168
 20
-15.8172886201
 11
-36.196516004
 21
-16.3803156736
  0
LINE
  5
3D5
100
AcDbEntity
  8
SUPERFICI
100
AcDbLine
 62
7
  6
CONTINUOUS
 10
-36.2642788661
 20
-15.621488372
 11
-36.2471206168
 21
-15.8172886201
  0
LINE
  5
3D6
100
AcDbEntity
  8
SUPERFICI
100
AcDbLine
 62
7
  6
CONTINUOUS
 10
-36.3472076842
 20
-14.6361246684
 11
-36.2642792709
 21
-15.6214837219
  0
LWPOLYLINE
  5
3D7
100
AcDbEntity
  8
0
100
AcDbPolyline
 62
7
  6
CONTINUOUS
 90
5
 70
0
 10
-36.5969406372
 20
-11.0599103082
 10
-36.5219211501
 20
-12.2096499576
 10
-36.4423687103
 20
-13.3184576161
 10
-36.3598603648
 20
-14.3775621557
 10
-36.277463173
 20
-15.3624260306
  0
LWPOLYLINE
  5
3D8
100
AcDbEntity
  8
SUPERFICI
100
AcDbPolyline
 62
7
  6
CONTINUOUS
 90
4
 70
0
 10
-36.6034529777
 20
-11.0178394664
 10
-36.5239988236
 20
-12.2594158924
 10
-36.4382927912
 20
-13.466563633
 10
-36.3472076842
 20
-14.6361246684
  0
LINE
  5
3D9
100
AcDbEntity
  8
0
100
AcDbLine
 62
7
  6
CONTINUOUS
 10
-36.6669487552
 20
-9.8639589267
 11
-36.5969406372
 21
-11.0599103082
  0
LINE
  5
3DA
100
AcDbEntity
  8
SUPERFICI
100
AcDbLine
 62
7
  6
CONTINUOUS
 10
-36.6759979164
 20
-9.7443691603
 11
-36.6034529777
 21
-11.0178394664
  0
LWPOLYLINE
  5
3DB
100
AcDbEntity
  8
0
100
AcDbPolyline
 62
7
  6
CONTINUOUS
 90
3
 70
0
 10
-36.7896258023
 20
-7.3060283754
 10
-36.7315441013
 20
-8.6134759908
 10
-36.6669487552
 20
-9.8639589267
  0
LWPOLYLINE
  5
3DC
100
AcDbEntity
  8
SUPERFICI
100
AcDbPolyline
 62
7
  6
CONTINUOUS
 90
3
 70
0
 10
-36.7983102166
 20
-7.1014713855
 10
-36.7411256641
 20
-8.4394647511
 10
-36.6759979164
 20
-9.7443691603
  0
LINE
  5
3DD
100
AcDbEntity
  8
0
100
AcDbLine
 62
7
  6
CONTINUOUS
 10
-36.8398723003
 20
-5.9400381056
 11
-36.7896258023
 21
-7.3060283754
  0
LINE
  5
3DE
100
AcDbEntity
  8
SUPERFICI
100
AcDbLine
 62
7
  6
CONTINUOUS
 10
-36.8467371558
 20
-5.7324066
 11
-36.7983102166
 21
-7.1014713855
  0
LINE
  5
3DF
100
AcDbEntity
  8
0
100
AcDbLine
 62
7
  6
CONTINUOUS
 10
-36.8806403978
 20
-4.5329594504
 11
-36.8398723003
 21
-5.9400381056
  0
LINE
  5
3E0
100
AcDbEntity
  8
SUPERFICI
100
AcDbLine
 62
7
  6
CONTINUOUS
 10
-36.8855189694
 20
-4.335174177
 11
-36.8467371558
 21
-5.7324066
  0
LWPOLYLINE
  5
3E1
100
AcDbEntity
  8
DRAFT
100
AcDbPolyline
 62
7
  6
CONTINUOUS
 90
3
 70
0
 10
-36.8910146476
 20
-4.0888516162
 10
-36.8596854393
 20
-5.3097797629
 10
-36.8523392511
 20
-5.5305741315
  0
LINE
  5
3E2
100
AcDbEntity
  8
0
100
AcDbLine
 62
7
  6
CONTINUOUS
 10
-36.894379664
 20
-3.9447997396
 11
-36.8806403978
 21
-4.5329594504
  0
LWPOLYLINE
  5
3E3
100
AcDbEntity
  8
0
100
AcDbPolyline
 62
7
  6
CONTINUOUS
 90
6
 70
0
 10
-36.894379664
 20
3.7274859401
 10
-36.8806403978
 20
4.3156456509
 10
-36.8398723003
 20
5.7227243061
 10
-36.7896258023
 20
7.0887145758
 10
-36.7315441013
 20
8.3961621912
 10
-36.6669487552
 20
9.6466451272
  0
LINE
  5
3E4
100
AcDbEntity
  8
DRAFT
100
AcDbLine
 62
7
  6
CONTINUOUS
 10
-36.8602873418
 20
5.0709311945
 11
-36.8916719123
 21
3.8434011863
  0
LINE
  5
3E5
100
AcDbEntity
  8
DRAFT
100
AcDbLine
 62
7
  6
CONTINUOUS
 10
-36.8527520873
 20
5.2983866531
 11
-36.8602873418
 21
5.0709311945
  0
LWPOLYLINE
  5
3E6
100
AcDbEntity
  8
SUPERFICI
100
AcDbPolyline
 62
7
  6
CONTINUOUS
 90
7
 70
0
 10
-36.6034529777
 20
10.8005256669
 10
-36.6759979164
 20
9.5270553608
 10
-36.7411256641
 20
8.2221509515
 10
-36.7983102166
 20
6.884157586
 10
-36.8467371558
 20
5.5150928005
 10
-36.8855189694
 20
4.1178603775
 10
-36.8944063583
 20
3.7276737179
  0
LINE
  5
3E7
100
AcDbEntity
  8
0
100
AcDbLine
 62
7
  6
CONTINUOUS
 10
-36.6669487552
 20
9.6466451272
 11
-36.5969406372
 21
10.8425965086
  0
LWPOLYLINE
  5
3E8
100
AcDbEntity
  8
0
100
AcDbPolyline
 62
7
  6
CONTINUOUS
 90
5
 70
0
 10
-36.5969406372
 20
10.8425965086
 10
-36.5219211501
 20
11.9923361581
 10
-36.4423687103
 20
13.1011438165
 10
-36.3598603648
 20
14.1602483562
 10
-36.277463173
 20
15.1451122311
  0
LWPOLYLINE
  5
3E9
100
AcDbEntity
  8
SUPERFICI
100
AcDbPolyline
 62
7
  6
CONTINUOUS
 90
5
 70
0
 10
-36.2642792709
 20
15.4041699224
 10
-36.3472076842
 20
14.4188108688
 10
-36.4382927912
 20
13.2492498335
 10
-36.5239988236
 20
12.0421020928
 10
-36.6034529777
 20
10.8005256669
  0
LINE
  5
3EA
100
AcDbEntity
  8
SUPERFICI
100
AcDbLine
 62
7
  6
CONTINUOUS
 10
-36.2204334689
 20
15.8994948888
 11
-36.2642788696
 21
15.4041745326
  0
LINE
  5
3EB
100
AcDbEntity
  8
SUPERFICI
100
AcDbLine
 62
7
  6
CONTINUOUS
 10
-36.1749147892
 20
16.3971881181
 11
-36.2204334689
 21
15.8994948888
  0
LINE
  5
3EC
100
AcDbEntity
  8
SUPERFICI
100
AcDbLine
 62
7
  6
CONTINUOUS
 10
-36.1296305086
 20
16.8770873614
 11
-36.1749147892
 21
16.3971881181
  0
LINE
  5
3ED
100
AcDbEntity
  8
SUPERFICI
100
AcDbLine
 62
7
  6
CONTINUOUS
 10
-36.073533329
 20
17.4522480305
 11
-36.1296305086
 21
16.8770873614
  0
LINE
  5
3EE
100
AcDbEntity
  8
SUPERFICI
100
AcDbLine
 62
7
  6
CONTINUOUS
 10
-36.018173938
 20
18.0004365441
 11
-36.073533329
 21
17.4522480305
  0
LINE
  5
3EF
100
AcDbEntity
  8
SUPERFICI
100
AcDbLine
 62
7
  6
CONTINUOUS
 10
-35.9530960654
 20
18.6222075618
 11
-36.018173938
 21
18.0004365441
  0
LINE
  5
3F0
100
AcDbEntity
  8
SUPERFICI
100
AcDbLine
 62
7
  6
CONTINUOUS
 10
-35.8900013724
 20
19.2034853548
 11
-35.9530960654
 21
18.6222075618
  0
LINE
  5
3F1
100
AcDbEntity
  8
SUPERFICI
100
AcDbLine
 62
7
  6
CONTINUOUS
 10
-35.8198106768
 20
19.8269945001
 11
-35.8900013724
 21
19.2034853548
  0
LINE
  5
3F2
100
AcDbEntity
  8
SUPERFICI
100
AcDbLine
 62
7
  6
CONTINUOUS
 10
-35.7456335181
 20
20.4607389049
 11
-35.8198106768
 21
19.8269945001
  0
LWPOLYLINE
  5
3F3
100
AcDbEntity
  8
SUPERFICI
100
AcDbPolyline
 62
250
  6
CONTINUOUS
 90
15
 70
0
 10
-36.2642788696
 20
15.4041745326
 10
-36.2373267544
 20
15.6254029433
 10
-36.1916313015
 20
15.8536841332
 10
-36.1285463848
 20
16.0716653015
 10
-36.0482597459
 20
16.2812980157
 10
-35.9488723523
 20
16.4887377304
 10
-35.8292794425
 20
16.6950313113
 10
-35.6898839403
 20
16.8985522051
 10
-35.529904398
 20
17.101336237
 10
-35.3514599754
 20
17.3025344715
 10
-35.1558634312
 20
17.5023540464
 10
-34.9408309162
 20
17.7042039982
 10
-34.7073659981
 20
17.90883814
 10
-34.4605832424
 20
18.1145093771
 10
-34.2049456887
 20
18.320698277
  0
LINE
  5
3F4
100
AcDbEntity
  8
SUPERFICI
100
AcDbLine
 62
7
  6
CONTINUOUS
 10
-35.6808988269
 20
20.9931187096
 11
-35.7456335181
 21
20.4607389049
  0
LINE
  5
3F5
100
AcDbEntity
  8
SUPERFICI
100
AcDbLine
 62
7
  6
CONTINUOUS
 10
-35.6230711209
 20
21.4511655399
 11
-35.6808988269
 21
20.9931187096
  0
LINE
  5
3F6
100
AcDbEntity
  8
SUPERFICI
100
AcDbLine
 62
7
  6
CONTINUOUS
 10
-35.5860773483
 20
21.7332770757
 11
-35.6230711209
 21
21.4511655399
  0
LINE
  5
3F7
100
AcDbEntity
  8
SUPERFICI
100
AcDbLine
 62
7
  6
CONTINUOUS
 10
-35.5684142265
 20
21.8631691764
 11
-35.5860773483
 21
21.7332770757
  0
LINE
  5
3F8
100
AcDbEntity
  8
SUPERFICI
100
AcDbLine
 62
7
  6
CONTINUOUS
 10
-35.5582742368
 20
21.9353936173
 11
-35.5684142265
 21
21.8631691764
  0
LINE
  5
3F9
100
AcDbEntity
  8
SUPERFICI
100
AcDbLine
 62
7
  6
CONTINUOUS
 10
-35.5462902944
 20
22.0176127586
 11
-35.5582742368
 21
21.9353936173
  0
LINE
  5
3FA
100
AcDbEntity
  8
RACCORDO
100
AcDbLine
 62
250
  6
CONTINUOUS
 10
-41.2850774789
 20
-14.8591367964
 11
-36.5120917116
 21
12.2098107469
  0
LINE
  5
3FB
100
AcDbEntity
  8
0
100
AcDbLine
 62
7
  6
CONTINUOUS
 10
-15.1510045872
 20
-9.9255980663
 11
-15.0007701662
 21
-9.9255980663
  0
LINE
  5
3FC
100
AcDbEntity
  8
0
100
AcDbLine
 62
7
  6
CONTINUOUS
 10
-15.1057372893
 20
-9.0836158998
 11
-14.9555416821
 21
-9.0836158998
  0
LWPOLYLINE
  5
3FD
100
AcDbEntity
  8
SUPERFICI
100
AcDbPolyline
 62
7
  6
CONTINUOUS
 90
41
 70
0
 10
-35.5269924538
 20
-22.3591891214
 10
-35.5190060746
 20
-22.4078171077
 10
-35.5099376027
 20
-22.4612438686
 10
-35.5000946483
 20
-22.5172544035
 10
-35.489488821
 20
-22.5755032032
 10
-35.4779876195
 20
-22.6364308448
 10
-35.4657516525
 20
-22.6989339585
 10
-35.4527998425
 20
-22.7627385984
 10
-35.4390388216
 20
-22.8281282684
 10
-35.424495625
 20
-22.8948005387
 10
-35.4091245413
 20
-22.9628058624
 10
-35.3929051197
 20
-23.0320779941
 10
-35.3759223729
 20
-23.1021286206
 10
-35.3581612729
 20
-23.1729283421
 10
-35.339597983
 20
-23.2444870471
 10
-35.3203276487
 20
-23.3163753713
 10
-35.3003699035
 20
-23.3884848673
 10
-35.279690405
 20
-23.4609060006
 10
-35.2583174229
 20
-23.5335087007
 10
-35.236265607
 20
-23.6062218826
 10
-35.2135133017
 20
-23.679096957
 10
-35.1900367791
 20
-23.7521858931
 10
-35.1658321247
 20
-23.825475703
 10
-35.1408951209
 20
-23.8989554857
 10
-35.1151996249
 20
-23.9726774206
 10
-35.0887429526
 20
-24.0466235167
 10
-35.0615202069
 20
-24.1207834071
 10
-35.0334995973
 20
-24.195218217
 10
-35.0046846469
 20
-24.2698933478
 10
-34.9750669994
 20
-24.344811298
 10
-34.9445918881
 20
-24.4200882031
 10
-34.91325567
 20
-24.4957059534
 10
-34.8810530721
 20
-24.5716500109
 10
-34.8479186246
 20
-24.6480424227
 10
-34.8138439017
 20
-24.7248652837
 10
-34.7788195012
 20
-24.8021020663
 10
-34.7427696271
 20
-24.8798769503
 10
-34.705684232
 20
-24.9581636518
 10
-34.6675454264
 20
-25.0369512713
 10
-34.6282555696
 20
-25.1163863686
 10
-34.608157035
 20
-25.1563713186
  0
LINE
  5
3FE
100
AcDbEntity
  8
SUPERFICI
100
AcDbLine
 62
7
  6
CONTINUOUS
 10
-35.5398466167
 20
-22.2775333545
 11
-35.5269924538
 21
-22.3591891214
  0
LINE
  5
3FF
100
AcDbEntity
  8
SUPERFICI
100
AcDbLine
 62
7
  6
CONTINUOUS
 10
-35.5495053527
 20
-22.2132415239
 11
-35.5398466167
 21
-22.2775333545
  0
LINE
  5
400
100
AcDbEntity
  8
SUPERFICI
100
AcDbLine
 62
7
  6
CONTINUOUS
 10
-35.5601482083
 20
-22.1395244619
 11
-35.5495053527
 21
-22.2132415239
  0
LINE
  5
401
100
AcDbEntity
  8
SUPERFICI
100
AcDbLine
 62
7
  6
CONTINUOUS
 10
-35.5757833614
 20
-22.0268158578
 11
-35.5601482083
 21
-22.1395244619
  0
LINE
  5
402
100
AcDbEntity
  8
SUPERFICI
100
AcDbLine
 62
7
  6
CONTINUOUS
 10
-35.6019727878
 20
-21.8307031836
 11
-35.5757833614
 21
-22.0268158578
  0
LINE
  5
403
100
AcDbEntity
  8
SUPERFICI
100
AcDbLine
 62
7
  6
CONTINUOUS
 10
-35.646280974
 20
-21.4867886749
 11
-35.6019727878
 21
-21.8307031836
  0
LINE
  5
404
100
AcDbEntity
  8
SUPERFICI
100
AcDbLine
 62
7
  6
CONTINUOUS
 10
-35.7104133033
 20
-20.970141032
 11
-35.646280974
 21
-21.4867886749
  0
LWPOLYLINE
  5
405
100
AcDbEntity
  8
SUPERFICI
100
AcDbPolyline
 62
250
  6
CONTINUOUS
 90
15
 70
0
 10
-36.2642788661
 20
-15.621488372
 10
-36.2373267544
 20
-15.8427167428
 10
-36.1916313015
 20
-16.0709979327
 10
-36.1285463848
 20
-16.2889791011
 10
-36.0482597459
 20
-16.4986118153
 10
-35.9488723523
 20
-16.7060515299
 10
-35.8292794425
 20
-16.9123451108
 10
-35.6898839403
 20
-17.1158660047
 10
-35.529904398
 20
-17.3186500365
 10
-35.3514599754
 20
-17.5198482711
 10
-35.1558634312
 20
-17.719667846
 10
-34.9408309162
 20
-17.9215177978
 10
-34.7073659981
 20
-18.1261519395
 10
-34.4605832424
 20
-18.3318231767
 10
-34.2049456887
 20
-18.5380120765
  0
LINE
  5
406
100
AcDbEntity
  8
SUPERFICI
100
AcDbLine
 62
7
  6
CONTINUOUS
 10
-35.7794566843
 20
-20.3922252878
 11
-35.7104133033
 21
-20.970141032
  0
LINE
  5
407
100
AcDbEntity
  8
SUPERFICI
100
AcDbLine
 62
7
  6
CONTINUOUS
 10
-35.847666415
 20
-19.7996807515
 11
-35.7794566843
 21
-20.3922252878
  0
LINE
  5
408
100
AcDbEntity
  8
SUPERFICI
100
AcDbLine
 62
7
  6
CONTINUOUS
 10
-35.9020275753
 20
-19.3115710989
 11
-35.847666415
 21
-19.7996807515
  0
LINE
  5
409
100
AcDbEntity
  8
0
100
AcDbLine
 62
250
  6
CONTINUOUS
 10
-34.0196378535
 20
-23.9773728199
 11
-33.9640089732
 21
-25.2235363115
  0
LWPOLYLINE
  5
40A
100
AcDbEntity
  8
0
100
AcDbPolyline
 62
250
  6
CONTINUOUS
 90
9
 70
0
 10
-33.9640089732
 20
-25.2235363115
 10
-33.9468172471
 20
-25.6203578474
 10
-33.9402822999
 20
-25.7844049752
 10
-33.9351664843
 20
-25.9261414655
 10
-33.9315167839
 20
-26.0451111015
 10
-33.9293484305
 20
-26.1427951755
 10
-33.9287550964
 20
-26.2179709929
 10
-33.9297527746
 20
-26.2688159492
 10
-33.9323114034
 20
-26.2944849012
  0
LINE
  5
40B
100
AcDbEntity
  8
0
100
AcDbLine
 62
250
  6
CONTINUOUS
 10
-34.0489418735
 20
-23.2839503648
 11
-34.0196378535
 21
-23.9773728199
  0
LINE
  5
40C
100
AcDbEntity
  8
SUPERFICI
100
AcDbLine
 62
7
  6
CONTINUOUS
 10
-36.8944063583
 20
-3.9449875175
 11
-36.8855189694
 21
-4.335174177
  0
LWPOLYLINE
  5
40D
100
AcDbEntity
  8
0
100
AcDbPolyline
 62
7
  6
CONTINUOUS
 90
4
 70
0
 10
-36.9359859221
 20
-0.1086568998
 10
-36.9295458937
 20
-1.6195783975
 10
-36.9107766592
 20
-3.0954543252
 10
-36.894379664
 20
-3.9447997396
  0
LWPOLYLINE
  5
40E
100
AcDbEntity
  8
0
100
AcDbPolyline
 62
7
  6
CONTINUOUS
 90
4
 70
0
 10
-36.9359859221
 20
-0.1086568998
 10
-36.9295458937
 20
1.4022645979
 10
-36.9107766592
 20
2.8781405256
 10
-36.894379664
 20
3.7274859401
  0
LWPOLYLINE
  5
40F
100
AcDbEntity
  8
0
100
AcDbPolyline
 62
250
  6
CONTINUOUS
 90
8
 70
0
 10
-33.9468172471
 20
25.4030440479
 10
-33.9402822999
 20
25.5670911756
 10
-33.9351664843
 20
25.708827666
 10
-33.9315167839
 20
25.8277973019
 10
-33.9293484305
 20
25.9254813759
 10
-33.9287550964
 20
26.0006571934
 10
-33.9297527746
 20
26.0515021497
 10
-33.9323114034
 20
26.0771711016
  0
LINE
  5
410
100
AcDbEntity
  8
0
100
AcDbLine
 62
250
  6
CONTINUOUS
 10
-33.9640089732
 20
25.0062225119
 11
-33.9468172471
 21
25.4030440479
  0
LINE
  5
411
100
AcDbEntity
  8
0
100
AcDbLine
 62
250
  6
CONTINUOUS
 10
-34.0290201389
 20
23.5435479348
 11
-33.999513775
 21
24.2172139229
  0
LINE
  5
412
100
AcDbEntity
  8
0
100
AcDbLine
 62
250
  6
CONTINUOUS
 10
-33.999513775
 20
24.2172139229
 11
-33.9640089732
 21
25.0062225119
  0
LINE
  5
413
100
AcDbEntity
  8
ASSI
100
AcDbLine
 62
7
  6
CONTINUOUS
 10
-14.8533760273
 20
-6.8078425754
 11
-15.0034836003
 21
-6.8078425754
  0
LWPOLYLINE
  5
414
100
AcDbEntity
  8
0
100
AcDbPolyline
 62
250
  6
CONTINUOUS
 90
10
 70
0
 10
-34.2049456887
 20
-18.5380120765
 10
-34.1878448706
 20
-19.179542126
 10
-34.1702997291
 20
-19.7989769175
 10
-34.152419039
 20
-20.3944553792
 10
-34.1342787798
 20
-20.9652200862
 10
-34.115995419
 20
-21.5092963457
 10
-34.0977705148
 20
-22.0234236535
 10
-34.0797894259
 20
-22.5062511644
 10
-34.0621902811
 20
-22.9576603389
 10
-34.0489418735
 20
-23.2839503648
  0
LWPOLYLINE
  5
415
100
AcDbEntity
  8
0
100
AcDbPolyline
 62
250
  6
CONTINUOUS
 90
13
 70
0
 10
-34.4083213017
 20
-0.1086568998
 10
-34.4029930972
 20
-1.9612158511
 10
-34.3964430569
 20
-3.7552208657
 10
-34.3881683852
 20
-5.4910102728
 10
-34.3777908231
 20
-7.1683426942
 10
-34.3650383629
 20
-8.7877728281
 10
-34.3497255121
 20
-10.3507230756
 10
-34.3317765783
 20
-11.8569616599
 10
-34.3111982627
 20
-13.3063195675
 10
-34.2880392508
 20
-14.7001615264
 10
-34.2624852898
 20
-16.0381110201
 10
-34.2347329306
 20
-17.3179112237
 10
-34.2049456887
 20
-18.5380120765
  0
LWPOLYLINE
  5
416
100
AcDbEntity
  8
0
100
AcDbPolyline
 62
250
  6
CONTINUOUS
 90
13
 70
0
 10
-34.4083213017
 20
-0.1086568998
 10
-34.4029930972
 20
1.7439020515
 10
-34.3964430569
 20
3.5379070661
 10
-34.3881683852
 20
5.2736964733
 10
-34.3777908231
 20
6.9510288946
 10
-34.3650383629
 20
8.5704590286
 10
-34.3497255121
 20
10.1334092761
 10
-34.3317765783
 20
11.6396478603
 10
-34.3111982627
 20
13.0890057679
 10
-34.2880392508
 20
14.4828477268
 10
-34.2624852898
 20
15.8207972205
 10
-34.2347329306
 20
17.1005974241
 10
-34.2049456887
 20
18.320698277
  0
LWPOLYLINE
  5
417
100
AcDbEntity
  8
0
100
AcDbPolyline
 62
250
  6
CONTINUOUS
 90
11
 70
0
 10
-34.2049456887
 20
18.320698277
 10
-34.1878448706
 20
18.9622283265
 10
-34.1702997291
 20
19.581663118
 10
-34.152419039
 20
20.1771415797
 10
-34.1342787798
 20
20.7479062867
 10
-34.115995419
 20
21.2919825461
 10
-34.0977705148
 20
21.806109854
 10
-34.0797894259
 20
22.2889373649
 10
-34.0621902811
 20
22.7403465394
 10
-34.0451894456
 20
23.159053694
 10
-34.0290201389
 20
23.5435479348
  0
LWPOLYLINE
  5
418
100
AcDbEntity
  8
0
100
AcDbPolyline
 62
7
  6
CONTINUOUS
 90
4
 70
0
 43
0.3499999917
 10
-30.4385444641
 20
-44.2342259216
 10
-30.4385444641
 20
-43.5913684845
 10
-28.9385421753
 20
-43.5913684845
 10
-29.7956854248
 20
-46.5913698578
  0
LINE
  5
419
100
AcDbEntity
  8
0
100
AcDbLine
 62
7
  6
CONTINUOUS
 10
-14.9098681153
 20
-3.5341849955
 11
-14.7598397967
 21
-3.5341849955
  0
LINE
  5
41A
100
AcDbEntity
  8
0
100
AcDbLine
 62
7
  6
CONTINUOUS
 10
-14.9040390183
 20
-3.2171038998
 11
-14.7540155984
 21
-3.2171038998
  0
LINE
  5
41B
100
AcDbEntity
  8
0
100
AcDbLine
 62
7
  6
CONTINUOUS
 10
-14.900614442
 20
-3.0174838998
 11
-14.7505939548
 21
-3.0174838998
  0
LWPOLYLINE
  5
41C
100
AcDbEntity
  8
0
100
AcDbPolyline
 62
7
  6
CONTINUOUS
 90
13
 70
0
 43
0.3499999917
 10
-2.0904989147
 20
-2.1697080231
 10
-3.3762131882
 20
-2.1697080231
 10
-3.8047844124
 20
-1.9554222107
 10
-4.2333560371
 20
-1.5268505859
 10
-4.2333560371
 20
-1.3125663757
 10
-3.8047844124
 20
-0.883994751
 10
-3.3762131882
 20
-0.6697073364
 10
-2.0904989147
 20
-0.6697073364
 10
-1.6619273901
 20
-0.883994751
 10
-1.2333559656
 20
-1.3125663757
 10
-1.2333559656
 20
-1.5268505859
 10
-1.6619273901
 20
-1.9554222107
 10
-2.0904989147
 20
-2.1697080231
  0
LINE
  5
41D
100
AcDbEntity
  8
0
100
AcDbLine
 62
7
  6
CONTINUOUS
 10
-14.7286869211
 20
-0.9689408998
 11
-14.8786887056
 21
-0.9689408998
  0
LINE
  5
41E
100
AcDbEntity
  8
0
100
AcDbLine
 62
250
  6
CONTINUOUS
 10
-14.8765830174
 20
-0.1086568998
 11
-36.9359859221
 21
-0.1086568998
  0
LINE
  5
41F
100
AcDbEntity
  8
0
100
AcDbLine
 62
7
  6
CONTINUOUS
 10
-25.9062844698
 20
-30.5085573663
 11
-25.9062844698
 21
30.011942104
  0
LINE
  5
420
100
AcDbEntity
  8
0
100
AcDbLine
 62
7
  6
CONTINUOUS
 10
-14.7279943788
 20
0.5961642351
 11
-14.8779955764
 21
0.5961642351
  0
LINE
  5
421
100
AcDbEntity
  8
SUPERFICI
100
AcDbLine
 62
7
  6
CONTINUOUS
 10
-14.8781602899
 20
0.635891332
 11
-14.7281589564
 21
0.635891332
  0
LINE
  5
422
100
AcDbEntity
  8
0
100
AcDbLine
 62
7
  6
CONTINUOUS
 10
-14.732732269
 20
1.3620611286
 11
-14.8827375051
 21
1.3620611286
  0
LINE
  5
423
100
AcDbEntity
  8
SUPERFICI
100
AcDbLine
 62
7
  6
CONTINUOUS
 10
-14.7419394098
 20
2.2145415124
 11
-14.8919525702
 21
2.2145415124
  0
LWPOLYLINE
  5
424
100
AcDbEntity
  8
0
100
AcDbPolyline
 62
7
  6
CONTINUOUS
 90
2
 70
0
 43
0.3499999917
 10
-25.3671146393
 20
-46.5913698578
 10
-25.3671146393
 20
-45.0913691711
  0
LINE
  5
425
100
AcDbEntity
  8
0
100
AcDbLine
 62
7
  6
CONTINUOUS
 10
-14.7696008985
 20
3.7792641002
 11
-14.9196377181
 21
3.7792641002
  0
LINE
  5
426
100
AcDbEntity
  8
0
100
AcDbLine
 62
7
  6
CONTINUOUS
 10
-14.8449939586
 20
6.3433059825
 11
-14.9950949255
 21
6.3433059825
  0
LINE
  5
427
100
AcDbEntity
  8
0
100
AcDbLine
 62
7
  6
CONTINUOUS
 10
-14.8741595564
 20
7.0941231002
 11
-15.0242857174
 21
7.0941231002
  0
LINE
  5
428
100
AcDbEntity
  8
0
100
AcDbLine
 62
7
  6
CONTINUOUS
 10
-14.9383523335
 20
8.5163431002
 11
-15.0885336899
 21
8.5163431002
  0
LWPOLYLINE
  5
429
100
AcDbEntity
  8
0
100
AcDbPolyline
 62
250
  6
CONTINUOUS
 90
13
 70
0
 10
-17.6076232508
 20
18.320698277
 10
-17.624724069
 20
18.9622283265
 10
-17.6422692104
 20
19.581663118
 10
-17.6601499006
 20
20.1771415797
 10
-17.6782901598
 20
20.7479062867
 10
-17.6965735206
 20
21.2919825461
 10
-17.7147984248
 20
21.806109854
 10
-17.7327795136
 20
22.2889373649
 10
-17.7503786584
 20
22.7403465394
 10
-17.7673794939
 20
23.159053694
 10
-17.7835488006
 20
23.5435479348
 10
-17.7987920442
 20
23.8953099075
 10
-17.8485599664
 20
25.0062225119
  0
LWPOLYLINE
  5
42A
100
AcDbEntity
  8
0
100
AcDbPolyline
 62
250
  6
CONTINUOUS
 90
13
 70
0
 10
-17.4042476379
 20
-0.1086568998
 10
-17.4095758424
 20
1.7439020515
 10
-17.4161258826
 20
3.5379070661
 10
-17.4244005544
 20
5.2736964733
 10
-17.4347781164
 20
6.9510288946
 10
-17.4475305767
 20
8.5704590286
 10
-17.4628434274
 20
10.1334092761
 10
-17.4807923613
 20
11.6396478603
 10
-17.5013706769
 20
13.0890057679
 10
-17.5245296888
 20
14.4828477268
 10
-17.5500836498
 20
15.8207972205
 10
-17.5778360089
 20
17.1005974241
 10
-17.6076232508
 20
18.320698277
  0
LWPOLYLINE
  5
42B
100
AcDbEntity
  8
0
100
AcDbPolyline
 62
250
  6
CONTINUOUS
 90
13
 70
0
 10
-17.4042476379
 20
-0.1086568998
 10
-17.4095758424
 20
-1.9612158511
 10
-17.4161258826
 20
-3.7552208657
 10
-17.4244005544
 20
-5.4910102728
 10
-17.4347781164
 20
-7.1683426942
 10
-17.4475305767
 20
-8.7877728281
 10
-17.4628434274
 20
-10.3507230756
 10
-17.4807923613
 20
-11.8569616599
 10
-17.5013706769
 20
-13.3063195675
 10
-17.5245296888
 20
-14.7001615264
 10
-17.5500836498
 20
-16.0381110201
 10
-17.5778360089
 20
-17.3179112237
 10
-17.6076232508
 20
-18.5380120765
  0
LWPOLYLINE
  5
42C
100
AcDbEntity
  8
0
100
AcDbPolyline
 62
250
  6
CONTINUOUS
 90
11
 70
0
 10
-17.6076232508
 20
-18.5380120765
 10
-17.624724069
 20
-19.179542126
 10
-17.6422692104
 20
-19.7989769175
 10
-17.6601499006
 20
-20.3944553792
 10
-17.6782901598
 20
-20.9652200862
 10
-17.6965735206
 20
-21.5092963457
 10
-17.7147984248
 20
-22.0234236535
 10
-17.7327795136
 20
-22.5062511644
 10
-17.7503786584
 20
-22.9576603389
 10
-17.7673794939
 20
-23.3763674936
 10
-17.7835488006
 20
-23.7608617344
  0
LWPOLYLINE
  5
42D
100
AcDbEntity
  8
0
100
AcDbPolyline
 62
7
  6
CONTINUOUS
 90
10
 70
0
 43
0.3499999917
 10
-1.7333559608
 20
0.830291748
 10
-1.5904988194
 20
0.9017198181
 10
-1.5190702486
 20
0.9017198181
 10
-1.3762131071
 20
0.758863678
 10
-1.3762131071
 20
0.6874356079
 10
-1.4476416779
 20
0.6160075378
 10
-1.5190702486
 20
0.6160075378
 10
-1.6619273901
 20
0.6874356079
 10
-1.7333559608
 20
0.758863678
 10
-1.7333559608
 20
0.830291748
  0
LINE
  5
42E
100
AcDbEntity
  8
0
100
AcDbLine
 62
7
  6
CONTINUOUS
 10
-14.9768304014
 20
9.2663431002
 11
-15.1270446668
 21
9.2663431002
  0
LINE
  5
42F
100
AcDbEntity
  8
0
100
AcDbLine
 62
7
  6
CONTINUOUS
 10
-15.0585541642
 20
10.6885600518
 11
-15.2088388892
 21
10.6885600518
  0
LINE
  5
430
100
AcDbEntity
  8
RACCORDO
100
AcDbLine
 62
250
  6
CONTINUOUS
 10
-37.7432662296
 20
10.8857390268
 11
-36.6099821854
 21
10.685910473
  0
LWPOLYLINE
  5
431
100
AcDbEntity
  8
0
100
AcDbPolyline
 62
7
  6
CONTINUOUS
 90
3
 70
0
 43
0.3499999917
 10
-1.5190702486
 20
0.9017198181
 10
-1.3047845364
 20
0.830291748
 10
-1.0190702534
 20
0.6874356079
  0
LWPOLYLINE
  5
432
100
AcDbEntity
  8
0
100
AcDbPolyline
 62
250
  6
CONTINUOUS
 90
9
 70
0
 10
-17.8485599664
 20
25.0062225119
 10
-17.8657516925
 20
25.4030440479
 10
-17.8722866396
 20
25.5670911756
 10
-17.8774024553
 20
25.708827666
 10
-17.8810521556
 20
25.8277973019
 10
-17.8832205091
 20
25.9254813759
 10
-17.8838138432
 20
26.0006571934
 10
-17.8828161649
 20
26.0515021497
 10
-17.8802575362
 20
26.0771711016
  0
LWPOLYLINE
  5
433
100
AcDbEntity
  8
0
100
AcDbPolyline
 62
7
  6
CONTINUOUS
 90
11
 70
0
 10
-14.9180903402
 20
3.7229245716
 10
-14.9319285601
 20
4.3156463813
 10
-14.9726966599
 20
5.7227249339
 10
-15.0229431529
 20
7.0887149604
 10
-15.081024847
 20
8.3961623727
 10
-15.1456201884
 20
9.6466452016
 10
-15.2156283025
 20
10.8425965108
 10
-15.2906477866
 20
11.9923361167
 10
-15.3702002249
 20
13.1011437581
 10
-15.4527085712
 20
14.1602483117
 10
-15.5351057665
 20
15.1451122311
  0
LWPOLYLINE
  5
434
100
AcDbEntity
  8
SUPERFICI
100
AcDbPolyline
 62
7
  6
CONTINUOUS
 90
11
 70
0
 10
-14.9180638005
 20
3.7231148692
 10
-14.9276311534
 20
4.1421391683
 10
-14.9663153703
 20
5.5303653996
 10
-15.0145091679
 20
6.890559012
 10
-15.0713378403
 20
8.2198767079
 10
-15.1359979912
 20
9.5163315002
 10
-15.2079690916
 20
10.7815509495
 10
-15.2867500992
 20
12.01511714
 10
-15.37169764
 20
13.2145861863
 10
-15.4619559859
 20
14.376852295
 10
-15.5482895218
 20
15.4041682358
  0
LWPOLYLINE
  5
435
100
AcDbEntity
  8
0
100
AcDbPolyline
 62
7
  6
CONTINUOUS
 90
3
 70
0
 10
-14.8830230491
 20
1.4022649843
 10
-14.901792291
 20
2.8781411559
 10
-14.9180903402
 20
3.7229245716
  0
LINE
  5
436
100
AcDbEntity
  8
0
100
AcDbLine
 62
7
  6
CONTINUOUS
 10
-14.8830230491
 20
1.4022649843
 11
-14.8765830174
 21
-0.1086568998
  0
LINE
  5
437
100
AcDbEntity
  8
0
100
AcDbLine
 62
7
  6
CONTINUOUS
 10
-14.8766607439
 20
0.0581461977
 11
-14.876585051
 21
-0.1355054035
  0
LWPOLYLINE
  5
438
100
AcDbEntity
  8
0
100
AcDbPolyline
 62
7
  6
CONTINUOUS
 90
4
 70
0
 10
-14.876585051
 20
-0.1355054035
 10
-14.8830230491
 20
-1.6195787838
 10
-14.901792291
 20
-3.0954549554
 10
-14.9180903402
 20
-3.9402383712
  0
LWPOLYLINE
  5
439
100
AcDbEntity
  8
0
100
AcDbPolyline
 62
7
  6
CONTINUOUS
 90
11
 70
0
 10
-14.9180903402
 20
-3.9402383712
 10
-14.9319285601
 20
-4.5329601809
 10
-14.9726966599
 20
-5.9400387334
 10
-15.0229431529
 20
-7.3060287599
 10
-15.081024847
 20
-8.6134761723
 10
-15.1456201884
 20
-9.8639590012
 10
-15.2156283025
 20
-11.0599103104
 10
-15.2906477866
 20
-12.2096499163
 10
-15.3702002249
 20
-13.3184575576
 10
-15.4527085712
 20
-14.3775621113
 10
-15.5351057665
 20
-15.3624260306
  0
LWPOLYLINE
  5
43A
100
AcDbEntity
  8
0
100
AcDbPolyline
 62
250
  6
CONTINUOUS
 90
8
 70
0
 10
-17.8657516925
 20
-25.6203578474
 10
-17.8722866396
 20
-25.7844049752
 10
-17.8774024553
 20
-25.9261414655
 10
-17.8810521556
 20
-26.0451111015
 10
-17.8832205091
 20
-26.1427951755
 10
-17.8838138432
 20
-26.2179709929
 10
-17.8828161649
 20
-26.2688159492
 10
-17.8802575362
 20
-26.2944849012
  0
LINE
  5
43B
100
AcDbEntity
  8
0
100
AcDbLine
 62
250
  6
CONTINUOUS
 10
-17.8485599664
 20
-25.2235363115
 11
-17.8657516925
 21
-25.6203578474
  0
LINE
  5
43C
100
AcDbEntity
  8
0
100
AcDbLine
 62
250
  6
CONTINUOUS
 10
-17.7835488006
 20
-23.7608617344
 11
-17.8130551646
 21
-24.4345277224
  0
LINE
  5
43D
100
AcDbEntity
  8
0
100
AcDbLine
 62
250
  6
CONTINUOUS
 10
-17.8130551646
 20
-24.4345277224
 11
-17.8485599664
 21
-25.2235363115
  0
LINE
  5
43E
100
AcDbEntity
  8
0
100
AcDbLine
 62
7
  6
CONTINUOUS
 10
-15.1064582653
 20
11.439380218
 11
-15.2567846755
 21
11.439380218
  0
LINE
  5
43F
100
AcDbEntity
  8
0
100
AcDbLine
 62
7
  6
CONTINUOUS
 10
-15.1208353847
 20
11.6519316041
 11
-15.2711751357
 21
11.6519316041
  0
LINE
  5
440
100
AcDbEntity
  8
0
100
AcDbLine
 62
7
  6
CONTINUOUS
 10
-15.1265854737
 20
11.7368332123
 11
-15.2769302291
 21
11.7368332123
  0
LINE
  5
441
100
AcDbEntity
  8
0
100
AcDbLine
 62
7
  6
CONTINUOUS
 10
-15.1318648722
 20
11.8306021116
 11
-15.2822117953
 21
11.8306021116
  0
LINE
  5
442
100
AcDbEntity
  8
SUPERFICI
100
AcDbLine
 62
7
  6
CONTINUOUS
 10
-15.8532670258
 20
18.5639139628
 11
-15.9124616019
 21
19.1117462462
  0
LINE
  5
443
100
AcDbEntity
  8
SUPERFICI
100
AcDbLine
 62
7
  6
CONTINUOUS
 10
-15.7922923052
 20
17.9799497728
 11
-15.8532670258
 21
18.5639139628
  0
LINE
  5
444
100
AcDbEntity
  8
SUPERFICI
100
AcDbLine
 62
7
  6
CONTINUOUS
 10
-15.750901058
 20
17.5713178022
 11
-15.7922923052
 21
17.9799497728
  0
LINE
  5
445
100
AcDbEntity
  8
SUPERFICI
100
AcDbLine
 62
7
  6
CONTINUOUS
 10
-15.6880429296
 20
16.9302840396
 11
-15.750901058
 21
17.5713178022
  0
LINE
  5
446
100
AcDbEntity
  8
0
100
AcDbLine
 62
7
  6
CONTINUOUS
 10
-15.4927883626
 20
16.2819680592
 11
-15.4994781494
 21
16.3536893588
  0
LINE
  5
447
100
AcDbEntity
  8
0
100
AcDbLine
 62
7
  6
CONTINUOUS
 10
-15.4623781137
 20
15.9520840888
 11
-15.491400998
 21
16.2669499595
  0
LINE
  5
448
100
AcDbEntity
  8
SUPERFICI
100
AcDbLine
 62
7
  6
CONTINUOUS
 10
-15.5608035087
 20
15.5472264225
 11
-15.6880429296
 21
16.9302840396
  0
LINE
  5
449
100
AcDbEntity
  8
SUPERFICI
100
AcDbLine
 62
7
  6
CONTINUOUS
 10
-15.5482900749
 20
15.40417459
 11
-15.5608035087
 21
15.5472264225
  0
LINE
  5
44A
100
AcDbEntity
  8
INTF_1
100
AcDbLine
 62
7
  6
CONTINUOUS
 10
-15.270426447
 20
11.8306021116
 11
-15.2998640117
 21
12.200287093
  0
LINE
  5
44B
100
AcDbEntity
  8
INTF_1
100
AcDbLine
 62
7
  6
CONTINUOUS
 10
-15.274293036
 20
11.8312476646
 11
-15.2599801794
 21
11.6519316041
  0
LWPOLYLINE
  5
44C
100
AcDbEntity
  8
0
100
AcDbPolyline
 62
7
  6
CONTINUOUS
 90
16
 70
0
 10
-15.1318648722
 20
11.8306021116
 10
-15.1498677015
 20
12.0926583662
 10
-15.1685204764
 20
12.3579936507
 10
-15.1878231971
 20
12.6266079652
 10
-15.207811308
 20
12.8990793141
 10
-15.2284493647
 20
13.1748296929
 10
-15.249631033
 20
13.452125088
 10
-15.2713615543
 20
13.7309393985
 10
-15.2936356874
 20
14.0112987252
 10
-15.3163313746
 20
14.2915473577
 10
-15.3394642903
 20
14.5717007651
 10
-15.3630187602
 20
14.8517434782
 10
-15.3868257041
 20
15.129973379
 10
-15.410828762
 20
15.4058230946
 10
-15.4350842938
 20
15.6798599979
 10
-15.4595922996
 20
15.9520840888
  0
LINE
  5
44D
100
AcDbEntity
  8
0
100
AcDbLine
 62
7
  6
CONTINUOUS
 10
-15.1067986239
 20
11.4413416401
 11
-15.1329580039
 21
11.8306021116
  0
LINE
  5
44E
100
AcDbEntity
  8
0
100
AcDbLine
 62
7
  6
CONTINUOUS
 10
-15.0585541642
 20
10.6885600518
 11
-15.1064582653
 21
11.439380218
  0
LINE
  5
44F
100
AcDbEntity
  8
0
100
AcDbLine
 62
7
  6
CONTINUOUS
 10
-14.9981567408
 20
9.6610317815
 11
-15.0586232709
 21
10.6885600518
  0
LINE
  5
450
100
AcDbEntity
  8
0
100
AcDbLine
 62
7
  6
CONTINUOUS
 10
-14.9592492797
 20
8.9313974818
 11
-14.9981567408
 21
9.6610317815
  0
LINE
  5
451
100
AcDbEntity
  8
0
100
AcDbLine
 62
7
  6
CONTINUOUS
 10
-14.931431012
 20
8.3797979143
 11
-14.9592492797
 21
8.9313974818
  0
LINE
  5
452
100
AcDbEntity
  8
0
100
AcDbLine
 62
7
  6
CONTINUOUS
 10
-14.9025547086
 20
7.7564897083
 11
-14.931431012
 21
8.3797979143
  0
LINE
  5
453
100
AcDbEntity
  8
0
100
AcDbLine
 62
7
  6
CONTINUOUS
 10
-14.8707820397
 20
7.0112897679
 11
-14.9025547086
 21
7.7564897083
  0
LINE
  5
454
100
AcDbEntity
  8
0
100
AcDbLine
 62
7
  6
CONTINUOUS
 10
-14.8449939586
 20
6.3433059825
 11
-14.8707820397
 21
7.0112897679
  0
LINE
  5
455
100
AcDbEntity
  8
0
100
AcDbLine
 62
7
  6
CONTINUOUS
 10
-14.7489520694
 20
2.6974556223
 11
-14.7528088955
 21
2.9274195787
  0
LINE
  5
456
100
AcDbEntity
  8
0
100
AcDbLine
 62
7
  6
CONTINUOUS
 10
-14.7528088955
 20
2.9274195787
 11
-14.7696008985
 21
3.7792641002
  0
LINE
  5
457
100
AcDbEntity
  8
0
100
AcDbLine
 62
7
  6
CONTINUOUS
 10
-14.7489520694
 20
2.6974556223
 11
-14.7419009112
 21
2.2116303044
  0
LINE
  5
458
100
AcDbEntity
  8
0
100
AcDbLine
 62
7
  6
CONTINUOUS
 10
-14.7347822319
 20
1.5895928135
 11
-14.7419404109
 21
2.2145415124
  0
LINE
  5
459
100
AcDbEntity
  8
0
100
AcDbLine
 62
7
  6
CONTINUOUS
 10
-14.7347822319
 20
1.5895928135
 11
-14.728158027
 21
0.635891332
  0
LINE
  5
45A
100
AcDbEntity
  8
0
100
AcDbLine
 62
7
  6
CONTINUOUS
 10
-14.7272969759
 20
0.3928963314
 11
-14.7283139893
 21
0.6719652859
  0
LINE
  5
45B
100
AcDbEntity
  8
0
100
AcDbLine
 62
7
  6
CONTINUOUS
 10
-14.7279945249
 20
0.5990318123
 11
-14.7279943788
 21
0.5961642351
  0
LINE
  5
45C
100
AcDbEntity
  8
0
100
AcDbLine
 62
7
  6
CONTINUOUS
 10
-14.7279415849
 20
-0.7988575927
 11
-14.7272969759
 21
0.3928963314
  0
LINE
  5
45D
100
AcDbEntity
  8
0
100
AcDbLine
 62
7
  6
CONTINUOUS
 10
-14.7286869211
 20
-0.9689408998
 11
-14.7279415849
 21
-0.7988575927
  0
LINE
  5
45E
100
AcDbEntity
  8
0
100
AcDbLine
 62
7
  6
CONTINUOUS
 10
-14.7609781765
 20
-3.5910420515
 11
-14.7505939548
 21
-3.0174838998
  0
LINE
  5
45F
100
AcDbEntity
  8
0
100
AcDbLine
 62
7
  6
CONTINUOUS
 10
-14.8533760862
 20
-6.8078425754
 11
-14.8532615358
 21
-6.8027928065
  0
LINE
  5
460
100
AcDbEntity
  8
0
100
AcDbLine
 62
7
  6
CONTINUOUS
 10
-14.7744600588
 20
-4.2131061567
 11
-14.7609781765
 21
-3.5910420515
  0
LINE
  5
461
100
AcDbEntity
  8
0
100
AcDbLine
 62
7
  6
CONTINUOUS
 10
-14.7865756084
 20
-4.7024604994
 11
-14.7744600588
 21
-4.2131061567
  0
LINE
  5
462
100
AcDbEntity
  8
0
100
AcDbLine
 62
7
  6
CONTINUOUS
 10
-14.8014656943
 20
-5.2411928367
 11
-14.7865756084
 21
-4.7024604994
  0
LINE
  5
463
100
AcDbEntity
  8
0
100
AcDbLine
 62
7
  6
CONTINUOUS
 10
-14.8272421215
 20
-6.0611274537
 11
-14.8014656943
 21
-5.2411928367
  0
LINE
  5
464
100
AcDbEntity
  8
0
100
AcDbLine
 62
7
  6
CONTINUOUS
 10
-14.8532615358
 20
-6.8027928065
 11
-14.8272421215
 21
-6.0611274537
  0
LINE
  5
465
100
AcDbEntity
  8
0
100
AcDbLine
 62
7
  6
CONTINUOUS
 10
-14.9904064089
 20
-9.7392108273
 11
-14.9555416821
 21
-9.0836158998
  0
LINE
  5
466
100
AcDbEntity
  8
0
100
AcDbLine
 62
7
  6
CONTINUOUS
 10
-15.0272777774
 20
-10.3924254393
 11
-14.9904064089
 21
-9.7392108273
  0
LWPOLYLINE
  5
467
100
AcDbEntity
  8
SUPERFICI
100
AcDbPolyline
 62
7
  6
CONTINUOUS
 90
10
 70
0
 10
-15.4619559859
 20
-14.5941660946
 10
-15.37169764
 20
-13.4318999859
 10
-15.2867500992
 20
-12.2324309396
 10
-15.2079690916
 20
-10.998864749
 10
-15.1359979912
 20
-9.7336452997
 10
-15.0713378403
 20
-8.4371905075
 10
-15.0145091679
 20
-7.1078728115
 10
-14.9663153703
 20
-5.7476791991
 10
-14.9276311534
 20
-4.3594529678
 10
-14.9180638005
 20
-3.9404286687
  0
LWPOLYLINE
  5
468
100
AcDbEntity
  8
0
100
AcDbPolyline
 62
7
  6
CONTINUOUS
 90
3
 70
0
 10
-15.0726611051
 20
-11.133705352
 10
-15.0724853669
 20
-11.1315182712
 10
-15.0272777774
 20
-10.3924254393
  0
LINE
  5
469
100
AcDbEntity
  8
SUPERFICI
100
AcDbLine
 62
7
  6
CONTINUOUS
 10
-15.5519673654
 20
-15.6636711571
 11
-15.4619559859
 21
-14.5941660946
  0
LINE
  5
46A
100
AcDbEntity
  8
SUPERFICI
100
AcDbLine
 62
7
  6
CONTINUOUS
 10
-15.5892770196
 20
-16.0850100442
 11
-15.5519673654
 21
-15.6636711571
  0
LINE
  5
46B
100
AcDbEntity
  8
SUPERFICI
100
AcDbLine
 62
7
  6
CONTINUOUS
 10
-15.6392018839
 20
-16.6311472305
 11
-15.5892770196
 21
-16.0850100442
  0
LINE
  5
46C
100
AcDbEntity
  8
SUPERFICI
100
AcDbLine
 62
7
  6
CONTINUOUS
 10
-15.689095848
 20
-17.1585488694
 11
-15.6392018839
 21
-16.6311472305
  0
LINE
  5
46D
100
AcDbEntity
  8
SUPERFICI
100
AcDbLine
 62
7
  6
CONTINUOUS
 10
-15.7387209382
 20
-17.66639212
 11
-15.689095848
 21
-17.1585488694
  0
LINE
  5
46E
100
AcDbEntity
  8
SUPERFICI
100
AcDbLine
 62
7
  6
CONTINUOUS
 10
-15.787856245
 20
-18.1539580988
 11
-15.7387209382
 21
-17.66639212
  0
LINE
  5
46F
100
AcDbEntity
  8
SUPERFICI
100
AcDbLine
 62
7
  6
CONTINUOUS
 10
-15.8481573908
 20
-18.7330767328
 11
-15.787856245
 21
-18.1539580988
  0
LINE
  5
470
100
AcDbEntity
  8
SUPERFICI
100
AcDbLine
 62
7
  6
CONTINUOUS
 10
-15.9066302344
 20
-19.2758924483
 11
-15.8481573908
 21
-18.7330767328
  0
LINE
  5
471
100
AcDbEntity
  8
SUPERFICI
100
AcDbLine
 62
7
  6
CONTINUOUS
 10
-15.9733988832
 20
-19.8746841291
 11
-15.9066302344
 21
-19.2758924483
  0
LINE
  5
472
100
AcDbEntity
  8
SUPERFICI
100
AcDbLine
 62
7
  6
CONTINUOUS
 10
-16.0450448486
 20
-20.4936583512
 11
-15.9733988832
 21
-19.8746841291
  0
LWPOLYLINE
  5
473
100
AcDbEntity
  8
SUPERFICI
100
AcDbPolyline
 62
250
  6
CONTINUOUS
 90
15
 70
0
 10
-15.5482900998
 20
-15.6214886755
 10
-15.5752421852
 20
-15.8427167428
 10
-15.6209376381
 20
-16.0709979327
 10
-15.6840225547
 20
-16.2889791011
 10
-15.7643091936
 20
-16.4986118153
 10
-15.8636965873
 20
-16.7060515299
 10
-15.9832894971
 20
-16.9123451108
 10
-16.1226849993
 20
-17.1158660047
 10
-16.2826645416
 20
-17.3186500365
 10
-16.4611089641
 20
-17.5198482711
 10
-16.6567055083
 20
-17.719667846
 10
-16.8717380233
 20
-17.9215177978
 10
-17.1052029415
 20
-18.1261519395
 10
-17.3519856972
 20
-18.3318231767
 10
-17.6076232508
 20
-18.5380120765
  0
LINE
  5
474
100
AcDbEntity
  8
SUPERFICI
100
AcDbLine
 62
7
  6
CONTINUOUS
 10
-16.1157548588
 20
-21.0813793151
 11
-16.0450448486
 21
-20.4936583512
  0
LINE
  5
475
100
AcDbEntity
  8
SUPERFICI
100
AcDbLine
 62
7
  6
CONTINUOUS
 10
-16.1777793957
 20
-21.5771322068
 11
-16.1157548588
 21
-21.0813793151
  0
LINE
  5
476
100
AcDbEntity
  8
SUPERFICI
100
AcDbLine
 62
7
  6
CONTINUOUS
 10
-16.2172555504
 20
-21.8812105517
 11
-16.1777793957
 21
-21.5771322068
  0
LINE
  5
477
100
AcDbEntity
  8
SUPERFICI
100
AcDbLine
 62
7
  6
CONTINUOUS
 10
-16.2388926192
 20
-22.0422468049
 11
-16.2172555504
 21
-21.8812105517
  0
LINE
  5
478
100
AcDbEntity
  8
SUPERFICI
100
AcDbLine
 62
7
  6
CONTINUOUS
 10
-16.2516238728
 20
-22.1338945502
 11
-16.2388926192
 21
-22.0422468049
  0
LINE
  5
479
100
AcDbEntity
  8
SUPERFICI
100
AcDbLine
 62
7
  6
CONTINUOUS
 10
-16.2623216952
 20
-22.208197723
 11
-16.2516238728
 21
-22.1338945502
  0
LINE
  5
47A
100
AcDbEntity
  8
SUPERFICI
100
AcDbLine
 62
7
  6
CONTINUOUS
 10
-16.2716882446
 20
-22.2707727318
 11
-16.2623216952
 21
-22.208197723
  0
LWPOLYLINE
  5
47B
100
AcDbEntity
  8
0
100
AcDbPolyline
 62
7
  6
CONTINUOUS
 90
3
 70
0
 43
0.3499999917
 10
-27.3671150208
 20
-46.3056543732
 10
-27.4385430908
 20
-46.5199401855
 10
-27.5814024353
 20
-46.8056556702
  0
LWPOLYLINE
  5
47C
100
AcDbEntity
  8
0
100
AcDbPolyline
 62
7
  6
CONTINUOUS
 90
10
 70
0
 43
0.3499999917
 10
-4.2333560371
 20
-3.4554228973
 10
-3.5904990005
 20
-4.0982787323
 10
-2.7333559513
 20
-4.5268503571
 10
-1.6619273901
 20
-4.5268503571
 10
-1.2333559656
 20
-4.0982787323
 10
-1.2333559656
 20
-3.4554228973
 10
-1.6619273901
 20
-3.0268512726
 10
-2.5190703392
 20
-3.0268512726
 10
-2.9476417637
 20
-3.4554228973
 10
-2.9476417637
 20
-4.3839942169
  0
LWPOLYLINE
  5
47D
100
AcDbEntity
  8
SUPERFICI
100
AcDbPolyline
 62
7
  6
CONTINUOUS
 90
39
 70
0
 10
-16.284662651
 20
22.1362115906
 10
-16.2931193647
 20
22.1878427037
 10
-16.3024961621
 20
22.243146951
 10
-16.3128629141
 20
22.3021122475
 10
-16.3243324985
 20
22.364932971
 10
-16.3366471423
 20
22.4298308326
 10
-16.3497851346
 20
22.496446073
 10
-16.3638711925
 20
22.5651651235
 10
-16.3788050172
 20
22.6352732652
 10
-16.3946111253
 20
22.7067066962
 10
-16.4113396376
 20
22.7795159837
 10
-16.4288950166
 20
22.8531406349
 10
-16.4472952257
 20
22.9275494023
 10
-16.4665665371
 20
23.0027521945
 10
-16.4865979813
 20
23.0782486178
 10
-16.5073653712
 20
23.1539138491
 10
-16.5289064373
 20
23.2298534289
 10
-16.5511857253
 20
23.3059135422
 10
-16.5741802085
 20
23.3819992513
 10
-16.5979167591
 20
23.4581845007
 10
-16.622432619
 20
23.5345664719
 10
-16.6477313009
 20
23.611130619
 10
-16.6738167024
 20
23.6878649592
 10
-16.700730873
 20
23.7648663535
 10
-16.7284763466
 20
23.8421127207
 10
-16.7570591856
 20
23.9195935652
 10
-16.7865315281
 20
23.9974194779
 10
-16.8168903077
 20
24.0755512547
 10
-16.8481455287
 20
24.1539904753
 10
-16.8803772856
 20
24.2329073273
 10
-16.9135924246
 20
24.3122807914
 10
-16.9477990101
 20
24.3920922532
 10
-16.983090677
 20
24.4725150609
 10
-17.0194790685
 20
24.5535236017
 10
-17.0569798117
 20
24.6351000702
 10
-17.0957052256
 20
24.7174282685
 10
-17.1356717511
 20
24.8004750631
 10
-17.1769049745
 20
24.8842246003
 10
-17.2043480725
 20
24.9389312069
  0
LINE
  5
47E
100
AcDbEntity
  8
SUPERFICI
100
AcDbLine
 62
7
  6
CONTINUOUS
 10
-16.2713479308
 20
22.0512275967
 11
-16.284662651
 21
22.1362115906
  0
LINE
  5
47F
100
AcDbEntity
  8
SUPERFICI
100
AcDbLine
 62
7
  6
CONTINUOUS
 10
-16.2617644866
 20
21.9870859559
 11
-16.2713479308
 21
22.0512275967
  0
LINE
  5
480
100
AcDbEntity
  8
SUPERFICI
100
AcDbLine
 62
7
  6
CONTINUOUS
 10
-16.2510125575
 20
21.9122521786
 11
-16.2617644866
 21
21.9870859559
  0
LINE
  5
481
100
AcDbEntity
  8
SUPERFICI
100
AcDbLine
 62
7
  6
CONTINUOUS
 10
-16.2345594596
 20
21.7931310963
 11
-16.2510125575
 21
21.9122521786
  0
LINE
  5
482
100
AcDbEntity
  8
SUPERFICI
100
AcDbLine
 62
7
  6
CONTINUOUS
 10
-16.2064641942
 20
21.5818700047
 11
-16.2345594596
 21
21.7931310963
  0
LINE
  5
483
100
AcDbEntity
  8
SUPERFICI
100
AcDbLine
 62
7
  6
CONTINUOUS
 10
-16.1583581073
 20
21.206713833
 11
-16.2064641942
 21
21.5818700047
  0
LWPOLYLINE
  5
484
100
AcDbEntity
  8
SUPERFICI
100
AcDbPolyline
 62
250
  6
CONTINUOUS
 90
15
 70
0
 10
-15.5482900749
 20
15.40417459
 10
-15.5752421852
 20
15.6254029433
 10
-15.6209376381
 20
15.8536841332
 10
-15.6840225547
 20
16.0716653015
 10
-15.7643091936
 20
16.2812980157
 10
-15.8636965873
 20
16.4887377304
 10
-15.9832894971
 20
16.6950313113
 10
-16.1226849993
 20
16.8985522051
 10
-16.2826645416
 20
17.101336237
 10
-16.4611089641
 20
17.3025344715
 10
-16.6567055083
 20
17.5023540464
 10
-16.8717380233
 20
17.7042039982
 10
-17.1052029415
 20
17.90883814
 10
-17.3519856972
 20
18.1145093771
 10
-17.6076232508
 20
18.320698277
  0
LINE
  5
485
100
AcDbEntity
  8
SUPERFICI
100
AcDbLine
 62
7
  6
CONTINUOUS
 10
-16.0964362508
 20
20.7057839952
 11
-16.1583581073
 21
21.206713833
  0
LINE
  5
486
100
AcDbEntity
  8
SUPERFICI
100
AcDbLine
 62
7
  6
CONTINUOUS
 10
-16.0230697114
 20
20.0890381409
 11
-16.0964362508
 21
20.7057839952
  0
LINE
  5
487
100
AcDbEntity
  8
SUPERFICI
100
AcDbLine
 62
7
  6
CONTINUOUS
 10
-15.9506420743
 20
19.4557071733
 11
-16.0230697114
 21
20.0890381409
  0
LINE
  5
488
100
AcDbEntity
  8
SUPERFICI
100
AcDbLine
 62
7
  6
CONTINUOUS
 10
-15.9124616019
 20
19.1117462462
 11
-15.9506420743
 21
19.4557071733
  0
LINE
  5
489
100
AcDbEntity
  8
0
100
AcDbLine
 62
7
  6
CONTINUOUS
 10
-15.4595922996
 20
15.9520840888
 11
-15.5968857445
 21
15.9520840888
  0
LINE
  5
48A
100
AcDbEntity
  8
0
100
AcDbLine
 62
7
  6
CONTINUOUS
 10
-15.4836774468
 20
16.1834708306
 11
-15.6179373386
 21
16.1834708306
  0
LINE
  5
48B
100
AcDbEntity
  8
0
100
AcDbLine
 62
7
  6
CONTINUOUS
 10
-15.491400998
 20
16.2669499595
 11
-15.6256044354
 21
16.2669499595
  0
LINE
  5
48C
100
AcDbEntity
  8
0
100
AcDbLine
 62
7
  6
CONTINUOUS
 10
-15.4994781494
 20
16.3536893588
 11
-15.6336221034
 21
16.3536893588
  0
LWPOLYLINE
  5
48D
100
AcDbEntity
  8
SUPERFICI
100
AcDbPolyline
 62
7
  6
CONTINUOUS
 90
40
 70
0
 10
-17.2044016323
 20
-25.1563509918
 10
-17.1768027329
 20
-25.1013330691
 10
-17.135557121
 20
-25.0175533551
 10
-17.0955812073
 20
-24.9344813922
 10
-17.056849242
 20
-24.8521330633
 10
-17.0193446929
 20
-24.7705416777
 10
-16.9829536628
 20
-24.6895202425
 10
-16.9476604722
 20
-24.6090865919
 10
-16.9134534354
 20
-24.5292663906
 10
-16.8802375156
 20
-24.4498830339
 10
-16.8480046763
 20
-24.3709551171
 10
-16.8167481074
 20
-24.2925036616
 10
-16.7863864879
 20
-24.2143551667
 10
-16.7569099205
 20
-24.1365080003
 10
-16.7283215773
 20
-24.0590013317
 10
-16.7005682619
 20
-23.9817212048
 10
-16.6736441258
 20
-23.9046780875
 10
-16.6475468159
 20
-23.8278939452
 10
-16.6222333502
 20
-23.7512683502
 10
-16.5977001746
 20
-23.6748133602
 10
-16.5739440143
 20
-23.5985432738
 10
-16.5509267316
 20
-23.5223567967
 10
-16.5286209835
 20
-23.4461768214
 10
-16.5070511237
 20
-23.3701012316
 10
-16.4862543739
 20
-23.2942888965
 10
-16.4661916949
 20
-23.218628124
 10
-16.4468892118
 20
-23.1432497661
 10
-16.4284637602
 20
-23.0686777287
 10
-16.4108887695
 20
-22.9949025939
 10
-16.3941457588
 20
-22.9219553261
 10
-16.3783346118
 20
-22.850418938
 10
-16.3633989646
 20
-22.780217436
 10
-16.3493190928
 20
-22.7114400562
 10
-16.3362134385
 20
-22.6449009464
 10
-16.3239604494
 20
-22.580246308
 10
-16.3125726177
 20
-22.5178041246
 10
-16.3023060719
 20
-22.4593588025
 10
-16.2930577184
 20
-22.4047863316
 10
-16.2847453286
 20
-22.3540386648
 10
-16.2716882446
 20
-22.2707727318
  0
LWPOLYLINE
  5
48E
100
AcDbEntity
  8
0
100
AcDbPolyline
 62
7
  6
CONTINUOUS
 90
7
 70
0
 10
-17.2044084604
 20
-25.1563645033
 10
-17.3062345039
 20
-25.3523085988
 10
-17.4124658819
 20
-25.5458783778
 10
-17.5230435555
 20
-25.7369771499
 10
-17.6379078282
 20
-25.925508638
 10
-17.7569990339
 20
-26.1113766145
 10
-17.8802575362
 20
-26.2944849012
  0
LWPOLYLINE
  5
48F
100
AcDbEntity
  8
SUPERFICI
100
AcDbPolyline
 62
250
  6
CONTINUOUS
 90
16
 70
0
 10
-17.6076232508
 20
-18.5380120765
 10
-18.1408516864
 20
-18.9499387452
 10
-18.6750067497
 20
-19.3349762319
 10
-19.2092635343
 20
-19.6922511413
 10
-19.7408468784
 20
-20.0199458964
 10
-20.2708688263
 20
-20.3193661279
 10
-20.8046728512
 20
-20.5940842436
 10
-21.3422678511
 20
-20.8442006339
 10
-21.8827169308
 20
-21.0694072375
 10
-22.4305559095
 20
-21.2717098997
 10
-22.9863133075
 20
-21.451215031
 10
-23.5492491531
 20
-21.6075934047
 10
-24.1223808552
 20
-21.7414255507
 10
-24.7067748939
 20
-21.8524249219
 10
-25.3014079351
 20
-21.9398566894
 10
-25.9062844698
 20
-22.0032437944
  0
LWPOLYLINE
  5
490
100
AcDbEntity
  8
SUPERFICI
100
AcDbPolyline
 62
250
  6
CONTINUOUS
 90
16
 70
0
 10
-17.6076232508
 20
18.320698277
 10
-18.1408516864
 20
18.7326249457
 10
-18.6750067497
 20
19.1176624324
 10
-19.2092635343
 20
19.4749373418
 10
-19.7408468784
 20
19.8026320969
 10
-20.2708688263
 20
20.1020523284
 10
-20.8046728512
 20
20.3767704441
 10
-21.3422678511
 20
20.6268868344
 10
-21.8827169308
 20
20.8520934379
 10
-22.4305559095
 20
21.0543961002
 10
-22.9863133075
 20
21.2339012315
 10
-23.5492491531
 20
21.3902796052
 10
-24.1223808552
 20
21.5241117512
 10
-24.7067748939
 20
21.6351111224
 10
-25.3014079351
 20
21.7225428899
 10
-25.9062844698
 20
21.7859299948
  0
LWPOLYLINE
  5
491
100
AcDbEntity
  8
0
100
AcDbPolyline
 62
7
  6
CONTINUOUS
 90
7
 70
0
 10
-17.2044084604
 20
24.9390507038
 10
-17.3062345039
 20
25.1349947993
 10
-17.4124658819
 20
25.3285645783
 10
-17.5230435555
 20
25.5196633503
 10
-17.6379078282
 20
25.7081948384
 10
-17.7569990339
 20
25.8940628149
 10
-17.8802575362
 20
26.0771711016
  0
LINE
  5
492
100
AcDbEntity
  8
0
100
AcDbLine
 62
7
  6
CONTINUOUS
 10
-17.2043480725
 20
24.9389312069
 11
-17.2044084604
 21
24.9390507038
  0
LWPOLYLINE
  5
493
100
AcDbEntity
  8
0
100
AcDbPolyline
 62
7
  6
CONTINUOUS
 90
19
 70
0
 10
-17.8802575362
 20
-26.2944849012
 10
-18.1889472647
 20
-26.7171948537
 10
-18.5201511927
 20
-27.123028097
 10
-18.8729104449
 20
-27.5108337288
 10
-19.2466251499
 20
-27.8797958782
 10
-19.6399943007
 20
-28.2283764812
 10
-20.0507348281
 20
-28.5545972766
 10
-20.4766343219
 20
-28.8570684197
 10
-20.917176963
 20
-29.1356810488
 10
-21.3725256825
 20
-29.3904323629
 10
-21.8417763076
 20
-29.6205464165
 10
-22.3232741563
 20
-29.8252951341
 10
-22.8162270667
 20
-30.0044178301
 10
-23.32052638
 20
-30.1576967142
 10
-23.8335079523
 20
-30.284063031
 10
-24.3504288057
 20
-30.3823947854
 10
-24.8686439361
 20
-30.4525156857
 10
-25.3877484542
 20
-30.4946160661
 10
-25.9062844698
 20
-30.5086568998
  0
LWPOLYLINE
  5
494
100
AcDbEntity
  8
0
100
AcDbPolyline
 62
7
  6
CONTINUOUS
 90
16
 70
0
 10
-17.8802575362
 20
26.0771711016
 10
-18.1602985515
 20
26.4626021312
 10
-18.4591220289
 20
26.8342052834
 10
-18.7760152336
 20
27.1911043998
 10
-19.1105804951
 20
27.5327290818
 10
-19.4618075088
 20
27.857851699
 10
-19.8278911797
 20
28.164774157
 10
-20.2071904152
 20
28.4524066924
 10
-20.5992987098
 20
28.7206796531
 10
-21.0041315101
 20
28.9695334667
 10
-21.4208018518
 20
29.1982630902
 10
-21.848342403
 20
29.4062325236
 10
-22.286604391
 20
29.5934500657
 10
-22.7348657974
 20
29.7595806024
 10
-23.1917805851
 20
29.9040420749
 10
-23.6562844698
 20
30.0263836145
  0
LWPOLYLINE
  5
495
100
AcDbEntity
  8
0
100
AcDbPolyline
 62
7
  6
CONTINUOUS
 90
8
 70
0
 43
0.3499999917
 10
-1.2333559656
 20
1.9017192078
 10
-1.2333559656
 20
2.7588624573
 10
-1.6619273901
 20
3.187434082
 10
-2.5190703392
 20
3.187434082
 10
-2.9476417637
 20
2.7588624573
 10
-2.9476417637
 20
1.9017192078
 10
-4.2333560371
 20
1.9017192078
 10
-4.2333560371
 20
3.187434082
  0
LWPOLYLINE
  5
496
100
AcDbEntity
  8
0
100
AcDbPolyline
 62
7
  6
CONTINUOUS
 90
8
 70
0
 10
-23.6607081153
 20
30.0244505525
 10
-23.6740681622
 20
30.022469121
 10
-23.6969919498
 20
30.0204137681
 10
-23.7301480732
 20
30.0182459599
 10
-23.7737601428
 20
30.0160127477
 10
-23.8267602604
 20
30.0138552853
 10
-23.8881457313
 20
30.0117933362
 10
-23.95789919
 20
30.0098071369
  0
LINE
  5
497
100
AcDbEntity
  8
0
100
AcDbLine
 62
7
  6
CONTINUOUS
 10
-28.1515047359
 20
30.0243682307
 11
-28.1562844698
 21
30.0263836145
  0
LINE
  5
498
100
AcDbEntity
  8
0
100
AcDbLine
 62
7
  6
CONTINUOUS
 10
-23.95789919
 20
30.0098071369
 11
-24.1211442323
 21
30.0063078346
  0
LINE
  5
499
100
AcDbEntity
  8
0
100
AcDbLine
 62
7
  6
CONTINUOUS
 10
-25.9062844698
 20
30.011942104
 11
-26.1954981657
 21
30.0074234899
  0
LINE
  5
49A
100
AcDbEntity
  8
0
100
AcDbLine
 62
7
  6
CONTINUOUS
 10
-24.1211442323
 20
30.0063078346
 11
-24.3135562972
 21
30.0035203376
  0
LINE
  5
49B
100
AcDbEntity
  8
0
100
AcDbLine
 62
7
  6
CONTINUOUS
 10
-26.1954981657
 20
30.0074234899
 11
-26.488841277
 21
30.0039950526
  0
LWPOLYLINE
  5
49C
100
AcDbEntity
  8
0
100
AcDbPolyline
 62
7
  6
CONTINUOUS
 90
3
 70
0
 10
-24.3135562972
 20
30.0035203376
 10
-24.5336712715
 20
30.0016867725
 10
-24.6530930138
 20
30.0012105057
  0
LWPOLYLINE
  5
49D
100
AcDbEntity
  8
0
100
AcDbPolyline
 62
7
  6
CONTINUOUS
 90
3
 70
0
 10
-26.488841277
 20
30.0039950526
 10
-26.7775045267
 20
30.0017466257
 10
-26.9136529814
 20
30.0012240387
  0
LWPOLYLINE
  5
49E
100
AcDbEntity
  8
0
100
AcDbPolyline
 62
7
  6
CONTINUOUS
 90
3
 70
0
 10
-26.9136529814
 20
30.0012240387
 10
-27.1693954791
 20
30.0012377993
 10
-27.2881535382
 20
30.0017350119
  0
LWPOLYLINE
  5
49F
100
AcDbEntity
  8
0
100
AcDbPolyline
 62
7
  6
CONTINUOUS
 90
3
 70
0
 10
-24.6530930138
 20
30.0012105057
 10
-24.9087980492
 20
30.001255749
 10
-25.0435536874
 20
30.0017911247
  0
LINE
  5
4A0
100
AcDbEntity
  8
0
100
AcDbLine
 62
7
  6
CONTINUOUS
 10
-25.0435536874
 20
30.0017911247
 11
-25.3235373242
 21
30.0039775116
  0
LINE
  5
4A1
100
AcDbEntity
  8
0
100
AcDbLine
 62
7
  6
CONTINUOUS
 10
-27.2881535382
 20
30.0017350119
 11
-27.5061315332
 21
30.0036018306
  0
LINE
  5
4A2
100
AcDbEntity
  8
0
100
AcDbLine
 62
7
  6
CONTINUOUS
 10
-25.3235373242
 20
30.0039775116
 11
-25.6128609373
 21
30.0073803914
  0
LINE
  5
4A3
100
AcDbEntity
  8
0
100
AcDbLine
 62
7
  6
CONTINUOUS
 10
-27.5061315332
 20
30.0036018306
 11
-27.6967079422
 21
30.0064029038
  0
LINE
  5
4A4
100
AcDbEntity
  8
0
100
AcDbLine
 62
7
  6
CONTINUOUS
 10
-25.6128609373
 20
30.0073803914
 11
-25.9062844698
 21
30.011942104
  0
LWPOLYLINE
  5
4A5
100
AcDbEntity
  8
0
100
AcDbPolyline
 62
7
  6
CONTINUOUS
 90
9
 70
0
 10
-27.6967079422
 20
30.0064029038
 10
-27.8580444079
 20
30.0098947221
 10
-27.9268735788
 20
30.0118690133
 10
-27.9870897205
 20
30.0139028696
 10
-28.0384067519
 20
30.015994981
 10
-28.0806658162
 20
30.0181466573
 10
-28.1136809957
 20
30.0202701352
 10
-28.1373311697
 20
30.0223361601
 10
-28.1515047359
 20
30.0243682307
  0
ARC
  5
4A6
100
AcDbEntity
  8
DRAFT
100
AcDbCircle
 62
7
  6
CONTINUOUS
 10
22.6859959187
 20
10.7913431002
 40
5.606982026
100
AcDbArc
 50
168.9315484571
 51
180.0
  0
ARC
  5
4A7
100
AcDbEntity
  8
DRAFT
100
AcDbCircle
 62
7
  6
CONTINUOUS
 10
22.6859959187
 20
-11.0086568998
 40
5.606982026
100
AcDbArc
 50
180.0
 51
191.0684515429
  0
ARC
  5
4A8
100
AcDbEntity
  8
DRAFT
100
AcDbCircle
 62
7
  6
CONTINUOUS
 10
22.6859959187
 20
-11.0086568998
 40
5.606982026
100
AcDbArc
 50
348.9315484571
 51
360.0
  0
ARC
  5
4A9
100
AcDbEntity
  8
DRAFT
100
AcDbCircle
 62
7
  6
CONTINUOUS
 10
22.6859959187
 20
10.7913431002
 40
5.606982026
100
AcDbArc
 50
0.0
 51
11.0684515429
  0
ARC
  5
4AA
100
AcDbEntity
  8
RACCORDO
100
AcDbCircle
 62
7
  6
CONTINUOUS
 10
22.6859959187
 20
10.7913431002
 40
5.6
100
AcDbArc
 50
54.6178735843
 51
125.3821264157
  0
ARC
  5
4AB
100
AcDbEntity
  8
RACCORDO
100
AcDbCircle
 62
7
  6
CONTINUOUS
 10
22.6859959187
 20
-11.0086568998
 40
5.6
100
AcDbArc
 50
234.6178735843
 51
305.3821264157
  0
ARC
  5
4AC
100
AcDbEntity
  8
DRAFT
100
AcDbCircle
 62
7
  6
CONTINUOUS
 10
22.6859959187
 20
-11.0086568998
 40
5.6
100
AcDbArc
 50
191.1188223284
 51
216.1810429166
  0
ARC
  5
4AD
100
AcDbEntity
  8
DRAFT
100
AcDbCircle
 62
7
  6
CONTINUOUS
 10
22.6859959187
 20
10.7913431002
 40
5.6
100
AcDbArc
 50
143.8189570834
 51
168.8811776716
  0
ARC
  5
4AE
100
AcDbEntity
  8
DRAFT
100
AcDbCircle
 62
7
  6
CONTINUOUS
 10
22.6859959187
 20
-11.0086568998
 40
5.6
100
AcDbArc
 50
323.8189570834
 51
348.8811776716
  0
ARC
  5
4AF
100
AcDbEntity
  8
DRAFT
100
AcDbCircle
 62
7
  6
CONTINUOUS
 10
22.6859959187
 20
10.7913431002
 40
5.6
100
AcDbArc
 50
11.1188223284
 51
36.1810429166
  0
ARC
  5
4B0
100
AcDbEntity
  8
DRAFT
100
AcDbCircle
 62
7
  6
CONTINUOUS
 10
22.6859959187
 20
10.7913431002
 40
5.5598533507
100
AcDbArc
 50
35.965198546
 51
46.7554782475
  0
ARC
  5
4B1
100
AcDbEntity
  8
DRAFT
100
AcDbCircle
 62
7
  6
CONTINUOUS
 10
22.6859959187
 20
10.7913431002
 40
5.5598533507
100
AcDbArc
 50
133.2445217525
 51
144.034801454
  0
ARC
  5
4B2
100
AcDbEntity
  8
DRAFT
100
AcDbCircle
 62
7
  6
CONTINUOUS
 10
22.6859959187
 20
-11.0086568998
 40
5.5598533507
100
AcDbArc
 50
215.965198546
 51
226.7554782475
  0
ARC
  5
4B3
100
AcDbEntity
  8
DRAFT
100
AcDbCircle
 62
7
  6
CONTINUOUS
 10
22.6859959187
 20
-11.0086568998
 40
5.5598533507
100
AcDbArc
 50
313.2445217525
 51
324.034801454
  0
ARC
  5
4B4
100
AcDbEntity
  8
RACCORDO
100
AcDbCircle
 62
7
  6
CONTINUOUS
 10
-35.9998009302
 20
15.0146515993
 40
1.0
100
AcDbArc
 50
102.2710159826
 51
170.0
  0
ARC
  5
4B5
100
AcDbEntity
  8
RACCORDO
100
AcDbCircle
 62
7
  6
CONTINUOUS
 10
-41.0942684829
 20
-13.8775096131
 40
1.0
100
AcDbArc
 50
170.0
 51
259.0
  0
ELLIPSE
  5
4B6
100
AcDbEntity
  8
DRAFT
100
AcDbEllipse
 62
7
  6
CONTINUOUS
 10
17.2505796589
 20
-0.091292082
 30
0.0
 11
0.0048510978
 21
1.5999999978
 31
0.0
 40
0.0171897253
 41
-2.9670076102
 42
0.0000521186
  0
ELLIPSE
  5
4B7
100
AcDbEntity
  8
DRAFT
100
AcDbEllipse
 62
7
  6
CONTINUOUS
 10
28.1214121785
 20
-0.091292082
 30
0.0
 11
-0.0048510978
 21
1.5999999978
 31
0.0
 40
0.0171897253
 41
6.2831331886
 42
9.2501929174
  0
ELLIPSE
  5
4B8
100
AcDbEntity
  8
DRAFT
100
AcDbEllipse
 62
7
  6
CONTINUOUS
 10
16.9725379967
 20
-0.1086568998
 30
0.0
 11
0.0
 21
0.3
 31
0.0
 40
0.0174550649
 41
-2.617993878
 42
-0.5235987756
  0
ELLIPSE
  5
4B9
100
AcDbEntity
  8
DRAFT
100
AcDbEllipse
 62
7
  6
CONTINUOUS
 10
28.3994538407
 20
-0.1086568998
 30
0.0
 11
-0.0
 21
0.3
 31
0.0
 40
0.0174550649
 41
0.5235987756
 42
2.617993878
  0
ELLIPSE
  5
4BA
100
AcDbEntity
  8
RACCORDO
100
AcDbEllipse
 62
7
  6
CONTINUOUS
 10
17.0557073203
 20
-5.3586568998
 30
0.0
 11
0.0
 21
0.4647673607
 31
0.0
 40
0.0174550649
 41
0.0087266463
 42
3.1328660073
  0
ELLIPSE
  5
4BB
100
AcDbEntity
  8
RACCORDO
100
AcDbEllipse
 62
7
  6
CONTINUOUS
 10
28.3162845171
 20
-5.3586568998
 30
0.0
 11
0.0
 21
0.4647673607
 31
0.0
 40
0.0174550649
 41
-3.1328660073
 42
-0.0087266463
  0
ELLIPSE
  5
4BC
100
AcDbEntity
  8
RACCORDO
100
AcDbEllipse
 62
7
  6
CONTINUOUS
 10
28.3162845171
 20
5.1413431002
 30
0.0
 11
-0.0
 21
0.4647673607
 31
0.0
 40
0.0174550649
 41
-3.1328660073
 42
-0.0087266463
  0
ELLIPSE
  5
4BD
100
AcDbEntity
  8
RACCORDO
100
AcDbEllipse
 62
7
  6
CONTINUOUS
 10
17.0557073203
 20
5.1413431002
 30
0.0
 11
-0.0
 21
0.4647673607
 31
0.0
 40
0.0174550649
 41
0.0087266463
 42
3.1328660073
  0
ENDSEC
  0
SECTION
  2
OBJECTS
  0
DICTIONARY
  5
C
100
AcDbDictionary
280
0
281
1
  3
ACAD_GROUP
350
D
  3
ACAD_MLINESTYLE
350
17
  3
ACAD_LAYOUT
350
1A
  3
ACAD_PLOTSETTINGS
350
19
  3
ACAD_PLOTSTYLENAME
350
E
  0
DICTIONARY
  5
D
102
{ACAD_REACTORS
330
C
102
}
100
AcDbDictionary
280
0
281
1
  0
ACDBDICTIONARYWDFLT
  5
E
102
{ACAD_REACTORS
330
C
102
}
100
AcDbDictionary
281
1
  3
Normal
350
F
100
AcDbDictionaryWithDefault
340
F
  0
DICTIONARY
  5
17
102
{ACAD_REACTORS
330
C
102
}
100
AcDbDictionary
280
0
281
1
  3
Standard
350
18
  0
DICTIONARY
  5
19
102
{ACAD_REACTORS
330
C
102
}
100
AcDbDictionary
281
1
  0
DICTIONARY
  5
1A
102
{ACAD_REACTORS
330
C
102
}
100
AcDbDictionary
281
1
  3
Model
350
4BE
  3
Layout1
350
4BF
  0
ACDBPLACEHOLDER
  5
F
102
{ACAD_REACTORS
330
E
102
}
  0
MLINESTYLE
  5
18
102
{ACAD_REACTORS
330
17
102
}
100
AcDbMlineStyle
  2
STANDARD
 70
0
  3

 62
256
 51
90.0
 52
90.0
 71
2
 49
0.5
 62
256
  6
BYLAYER
 49
-0.5
 62
256
  6
BYLAYER
  0
LAYOUT
  5
4BE
102
{ACAD_REACTORS
330
1A
102
}
100
AcDbPlotSettings
  1

  2
none_device
  4
ISO_A3_(420.00_x_297.00_MM)
  6

 40
0.0
 41
0.0
 42
0.0
 43
0.0
 44
420.0
 45
297.0
 46
0.0
 47
0.0
 48
0.0
 49
0.0
140
0.0
141
0.0
142
1.0
143
1.0
 70
1024
 72
1
 73
0
 74
0
  7

 75
0
147
1.0
148
0.0
149
0.0
100
AcDbLayout
  1
Model
 70
0
 71
0
 10
0.0
 20
0.0
 11
420.0
 21
297.0
 12
0.0
 22
0.0
 32
0.0
 14
0.0
 24
0.0
 34
0.0
 15
0.0
 25
0.0
 35
0.0
146
0.0
 13
0.0
 23
0.0
 33
0.0
 16
1.0
 26
0.0
 36
0.0
 17
0.0
 27
1.0
 37
0.0
 76
0
330
214
345
0
346
0
  0
LAYOUT
  5
4BF
102
{ACAD_REACTORS
330
1A
102
}
100
AcDbPlotSettings
  1

  2
none_device
  4
ISO_A3_(420.00_x_297.00_MM)
  6

 40
0.0
 41
0.0
 42
0.0
 43
0.0
 44
420.0
 45
297.0
 46
0.0
 47
0.0
 48
0.0
 49
0.0
140
0.0
141
0.0
142
1.0
143
1.0
 70
0
 72
1
 73
0
 74
0
  7

 75
0
147
1.0
148
0.0
149
0.0
100
AcDbLayout
  1
Layout1
 70
0
 71
1
 10
0.0
 20
0.0
 11
420.0
 21
297.0
 12
0.0
 22
0.0
 32
0.0
 14
0.0
 24
0.0
 34
0.0
 15
0.0
 25
0.0
 35
0.0
146
0.0
 13
0.0
 23
0.0
 33
0.0
 16
1.0
 26
0.0
 36
0.0
 17
0.0
 27
1.0
 37
0.0
 76
0
330
215
345
0
346
0
  0
ENDSEC
  0
EOF
