  0
SECTION
  2
HEADER
  9
$ACADVER
  1
AC1015
  9
$DWGCODEPAGE
  3
ANSI_1252
  9
$EXTMAX
 10
297.0
 20
210.0
 30
0.0
  9
$EXTMIN
 10
0.0
 20
0.0
 30
0.0
  9
$LIMMIN
 10
0.0
 20
0.0
  9
$LIMMAX
 10
297.0
 20
210.0
  9
$VIEWCTR
 10
148.5
 20
105.0
  9
$VIEWSIZE
 40
210.0
  9
$CLAYER
  8
0
  9
$LTSCALE
 40
16.335
  9
$CELTYPE
  6
BYLAYER
  9
$DIMSCALE
 40
1.0
  9
$DIMASZ
 40
3.0
  9
$DIMEXO
 40
0.5
  9
$DIMDLI
 40
11.286
  9
$DIMEXE
 40
1.5
  9
$DIMCEN
 40
2.673
  9
$DIMLFAC
 40
1.0
  9
$DIMBLK
  1
_FILLED
  9
$DIMTXT
 40
3.0
  9
$DIMTOL
 70
1
  9
$DIMLIM
 70
0
  9
$DIMTFAC
 40
1.0
  9
$DIMTP
 40
0.01
  9
$DIMTM
 40
0.01
  9
$DIMGAP
 40
0.625
  9
$DIMDSEP
 70
44
  9
$PDMODE
 70
3
  9
$PDSIZE
 40
3.0
  9
$HANDSEED
  5
786
  9
$TILEMODE
 70
1
  9
$MEASUREMENT
 70
1
  9
$INSUNITS
 70
4
  0
ENDSEC
  0
SECTION
  2
CLASSES
  0
CLASS
  1
ACDBDICTIONARYWDFLT
  2
AcDbDictionaryWithDefault
  3
AutoCAD 2000
 90
0
280
0
281
0
  0
CLASS
  1
ACDBPLACEHOLDER
  2
AcDbPlaceHolder
  3
AutoCAD 2000
 90
0
280
0
281
0
  0
CLASS
  1
LAYOUT
  2
AcDbLayout
  3
AutoCAD 2000
 90
0
280
0
281
0
  0
ENDSEC
  0
SECTION
  2
TABLES
  0
TABLE
  2
VPORT
  5
8
100
AcDbSymbolTable
 70
2
  0
VPORT
  5
1F4
100
AcDbSymbolTableRecord
100
AcDbViewportTableRecord
  2
*ACTIVE
 70
0
 10
0.0
 20
0.0
 11
1.0
 21
1.0
 12
148.5
 22
105.0
 13
0.0
 23
0.0
 14
1.0
 24
1.0
 15
0.0
 25
0.0
 16
0.0
 26
0.0
 36
1.0
 17
0.0
 27
0.0
 37
0.0
 40
210.0
 41
1.4142857143
 42
50.0
 43
0.0
 44
0.0
 50
0.0
 51
0.0
 71
0
 72
100
 73
1
 74
1
 75
0
 76
0
 77
0
 78
0
  0
ENDTAB
  0
TABLE
  2
LTYPE
  5
5
100
AcDbSymbolTable
 70
6
  0
LTYPE
  5
14
100
AcDbSymbolTableRecord
100
AcDbLinetypeTableRecord
  2
BYBLOCK
 70
0
  3

 72
65
 73
0
 40
0.0
  0
LTYPE
  5
15
100
AcDbSymbolTableRecord
100
AcDbLinetypeTableRecord
  2
BYLAYER
 70
0
  3

 72
65
 73
0
 40
0.0
  0
LTYPE
  5
16
100
AcDbSymbolTableRecord
100
AcDbLinetypeTableRecord
  2
CONTINUOUS
 70
64
  3
Solid line
 72
65
 73
0
 40
0.0
  0
LTYPE
  5
1F5
100
AcDbSymbolTableRecord
100
AcDbLinetypeTableRecord
  2
CENTER
 70
64
  3
____ _ ____ _ ____ _ ____ _ ____ _ ____ _ ____
 72
65
 73
4
 40
0.6
 49
0.375
 74
0
 49
-0.075
 74
0
 49
0.075
 74
0
 49
-0.075
 74
0
  0
LTYPE
  5
1F6
100
AcDbSymbolTableRecord
100
AcDbLinetypeTableRecord
  2
HIDDEN
 70
64
  3
- - - - - - - - - - - - - - - - - - - -
 72
65
 73
2
 40
0.2
 49
0.1
 74
0
 49
-0.1
 74
0
  0
LTYPE
  5
1F7
100
AcDbSymbolTableRecord
100
AcDbLinetypeTableRecord
  2
PHANTOM
 70
64
  3
_____ _ _ _____ _ _ _____ _ _ _____
 72
65
 73
6
 40
0.8
 49
0.45
 74
0
 49
-0.05
 74
0
 49
0.1
 74
0
 49
-0.05
 74
0
 49
0.1
 74
0
 49
-0.05
 74
0
  0
LTYPE
  5
1F8
100
AcDbSymbolTableRecord
100
AcDbLinetypeTableRecord
  2
DOT
 70
64
  3
. . . . . . . . . . . . . . . . . . . .
 72
65
 73
2
 40
0.2
 49
0.1
 74
0
 49
-0.1
 74
0
  0
LTYPE
  5
1F9
100
AcDbSymbolTableRecord
100
AcDbLinetypeTableRecord
  2
DASHED
 70
64
  3
- - - - - - - - - - - - - - - - - - - -
 72
65
 73
2
 40
0.2
 49
0.1
 74
0
 49
-0.1
 74
0
  0
ENDTAB
  0
TABLE
  2
LAYER
  5
2
100
AcDbSymbolTable
 70
36
  0
LAYER
  5
10
100
AcDbSymbolTableRecord
100
AcDbLayerTableRecord
  2
0
 70
0
 62
7
  6
CONTINUOUS
370
-3
390
F
  0
LAYER
  5
1FA
100
AcDbSymbolTableRecord
100
AcDbLayerTableRecord
  2
DEFAULT_1
 70
0
 62
7
  6
CENTER
370
-3
390
F
  0
LAYER
  5
1FB
100
AcDbSymbolTableRecord
100
AcDbLayerTableRecord
  2
DEFAULT_2
 70
0
 62
7
  6
HIDDEN
370
-3
390
F
  0
LAYER
  5
1FC
100
AcDbSymbolTableRecord
100
AcDbLayerTableRecord
  2
DEFAULT_3
 70
0
 62
7
  6
PHANTOM
370
-3
390
F
  0
LAYER
  5
1FD
100
AcDbSymbolTableRecord
100
AcDbLayerTableRecord
  2
ASSI
 70
0
 62
7
  6
CONTINUOUS
370
-3
390
F
  0
LAYER
  5
1FE
100
AcDbSymbolTableRecord
100
AcDbLayerTableRecord
  2
COLOR15
 70
0
 62
7
  6
CONTINUOUS
370
-3
390
F
  0
LAYER
  5
1FF
100
AcDbSymbolTableRecord
100
AcDbLayerTableRecord
  2
COLOR5
 70
0
 62
7
  6
CONTINUOUS
370
-3
390
F
  0
LAYER
  5
200
100
AcDbSymbolTableRecord
100
AcDbLayerTableRecord
  2
COORDINATE
 70
0
 62
7
  6
CONTINUOUS
370
-3
390
F
  0
LAYER
  5
201
100
AcDbSymbolTableRecord
100
AcDbLayerTableRecord
  2
COORD_ORIGINE
 70
0
 62
7
  6
CONTINUOUS
370
-3
390
F
  0
LAYER
  5
202
100
AcDbSymbolTableRecord
100
AcDbLayerTableRecord
  2
COSMETICHE
 70
0
 62
7
  6
CONTINUOUS
370
-3
390
F
  0
LAYER
  5
203
100
AcDbSymbolTableRecord
100
AcDbLayerTableRecord
  2
COSMETICI
 70
0
 62
7
  6
CONTINUOUS
370
-3
390
F
  0
LAYER
  5
204
100
AcDbSymbolTableRecord
100
AcDbLayerTableRecord
  2
CURVE
 70
0
 62
7
  6
CONTINUOUS
370
-3
390
F
  0
LAYER
  5
205
100
AcDbSymbolTableRecord
100
AcDbLayerTableRecord
  2
DRAFT
 70
0
 62
7
  6
CONTINUOUS
370
-3
390
F
  0
LAYER
  5
206
100
AcDbSymbolTableRecord
100
AcDbLayerTableRecord
  2
IMPORT_IGES
 70
0
 62
7
  6
CONTINUOUS
370
-3
390
F
  0
LAYER
  5
207
100
AcDbSymbolTableRecord
100
AcDbLayerTableRecord
  2
INTF_1
 70
0
 62
7
  6
CONTINUOUS
370
-3
390
F
  0
LAYER
  5
208
100
AcDbSymbolTableRecord
100
AcDbLayerTableRecord
  2
INTF_2
 70
0
 62
7
  6
CONTINUOUS
370
-3
390
F
  0
LAYER
  5
209
100
AcDbSymbolTableRecord
100
AcDbLayerTableRecord
  2
INTF_3
 70
0
 62
7
  6
CONTINUOUS
370
-3
390
F
  0
LAYER
  5
20A
100
AcDbSymbolTableRecord
100
AcDbLayerTableRecord
  2
INTF_5
 70
0
 62
7
  6
CONTINUOUS
370
-3
390
F
  0
LAYER
  5
20B
100
AcDbSymbolTableRecord
100
AcDbLayerTableRecord
  2
INTF_YELLOW
 70
0
 62
7
  6
CONTINUOUS
370
-3
390
F
  0
LAYER
  5
20C
100
AcDbSymbolTableRecord
100
AcDbLayerTableRecord
  2
NOTE
 70
0
 62
7
  6
CONTINUOUS
370
-3
390
F
  0
LAYER
  5
20D
100
AcDbSymbolTableRecord
100
AcDbLayerTableRecord
  2
PIANI
 70
0
 62
7
  6
CONTINUOUS
370
-3
390
F
  0
LAYER
  5
20E
100
AcDbSymbolTableRecord
100
AcDbLayerTableRecord
  2
PIANI_ORIGINE
 70
0
 62
7
  6
CONTINUOUS
370
-3
390
F
  0
LAYER
  5
20F
100
AcDbSymbolTableRecord
100
AcDbLayerTableRecord
  2
PUNTI
 70
0
 62
7
  6
CONTINUOUS
370
-3
390
F
  0
LAYER
  5
210
100
AcDbSymbolTableRecord
100
AcDbLayerTableRecord
  2
RACCORDO
 70
0
 62
7
  6
CONTINUOUS
370
-3
390
F
  0
LAYER
  5
211
100
AcDbSymbolTableRecord
100
AcDbLayerTableRecord
  2
RGB__255__255__255__
 70
0
 62
7
  6
CONTINUOUS
370
-3
390
F
  0
LAYER
  5
212
100
AcDbSymbolTableRecord
100
AcDbLayerTableRecord
  2
SIMBOLI
 70
0
 62
7
  6
CONTINUOUS
370
-3
390
F
  0
LAYER
  5
213
100
AcDbSymbolTableRecord
100
AcDbLayerTableRecord
  2
SMUSSO
 70
0
 62
7
  6
CONTINUOUS
370
-3
390
F
  0
LAYER
  5
214
100
AcDbSymbolTableRecord
100
AcDbLayerTableRecord
  2
SNAPLINE
 70
0
 62
7
  6
CONTINUOUS
370
-3
390
F
  0
LAYER
  5
215
100
AcDbSymbolTableRecord
100
AcDbLayerTableRecord
  2
SUPERFICI
 70
0
 62
7
  6
CONTINUOUS
370
-3
390
F
  0
LAYER
  5
216
100
AcDbSymbolTableRecord
100
AcDbLayerTableRecord
  2
TASSELLI
 70
0
 62
7
  6
CONTINUOUS
370
-3
390
F
  0
LAYER
  5
217
100
AcDbSymbolTableRecord
100
AcDbLayerTableRecord
  2
TRASH
 70
0
 62
7
  6
CONTINUOUS
370
-3
390
F
  0
LAYER
  5
218
100
AcDbSymbolTableRecord
100
AcDbLayerTableRecord
  2
VARIE
 70
0
 62
7
  6
CONTINUOUS
370
-3
390
F
  0
LAYER
  5
219
100
AcDbSymbolTableRecord
100
AcDbLayerTableRecord
  2
XSEC_DATUMS
 70
0
 62
7
  6
CONTINUOUS
370
-3
390
F
  0
ENDTAB
  0
TABLE
  2
STYLE
  5
3
100
AcDbSymbolTable
 70
1
  0
STYLE
  5
11
100
AcDbSymbolTableRecord
100
AcDbTextStyleTableRecord
  2
STANDARD
 70
0
 40
0.0
 41
0.8
 50
0.0
 71
0
 42
0.2
  3
txt
  4

  0
STYLE
  5
21A
100
AcDbSymbolTableRecord
100
AcDbTextStyleTableRecord
  2
TEXTSTYLE_1
 70
0
 40
0.0
 41
0.8
 50
0.0
 71
0
 42
0.2
  3
gdt
  4

  0
ENDTAB
  0
TABLE
  2
VIEW
  5
6
100
AcDbSymbolTable
 70
0
  0
ENDTAB
  0
TABLE
  2
UCS
  5
7
100
AcDbSymbolTable
 70
0
  0
ENDTAB
  0
TABLE
  2
APPID
  5
9
100
AcDbSymbolTable
 70
1
  0
APPID
  5
21B
100
AcDbSymbolTableRecord
100
AcDbRegAppTableRecord
  2
ACAD
 70
0
  0
ENDTAB
  0
TABLE
  2
BLOCK_RECORD
  5
1
100
AcDbSymbolTable
 70
0
  0
BLOCK_RECORD
  5
21C
100
AcDbSymbolTableRecord
100
AcDbBlockTableRecord
  2
*Model_Space
  0
BLOCK_RECORD
  5
21D
100
AcDbSymbolTableRecord
100
AcDbBlockTableRecord
  2
*Paper_Space
  0
BLOCK_RECORD
  5
21E
100
AcDbSymbolTableRecord
100
AcDbBlockTableRecord
  2
_FILLED
  0
BLOCK_RECORD
  5
21F
100
AcDbSymbolTableRecord
100
AcDbBlockTableRecord
  2
*D0
  0
BLOCK_RECORD
  5
220
100
AcDbSymbolTableRecord
100
AcDbBlockTableRecord
  2
*D1
  0
BLOCK_RECORD
  5
221
100
AcDbSymbolTableRecord
100
AcDbBlockTableRecord
  2
*D2
  0
ENDTAB
  0
TABLE
  2
DIMSTYLE
  5
A
100
AcDbSymbolTable
 70
1
100
AcDbDimStyleTable
 71
0
  0
DIMSTYLE
105
222
100
AcDbSymbolTableRecord
100
AcDbDimStyleTableRecord
  2
STANDARD
 70
0
  3

  4

 40
1.0
 41
3.0
 42
0.5
 43
0.38
 44
1.5
 45
0.0
 46
0.0
 47
0.01
 48
0.01
140
3.0
141
0.09
142
0.0
143
25.4
144
1.0
145
0.0
146
1.0
147
0.625
 71
1.0
 72
0.0
 73
0
 74
0
 75
0
 76
0
 77
1
 78
8
170
0
171
2
172
0
173
0
174
0
175
0
176
0
177
0
178
0
270
2
271
2
272
2
273
2
274
2
275
0
280
0
281
0
282
0
283
1
284
8
285
0
286
0
287
3
288
0
340
11
278
44
341
21E
342
21E
343
21E
344
21E
  0
DIMSTYLE
105
223
100
AcDbSymbolTableRecord
100
AcDbDimStyleTableRecord
  2
DIMSTYLE_1
 70
0
  3

  4

 40
1.0
 41
3.0
 42
0.5
 43
0.38
 44
1.5
 45
0.0
 46
0.0
 47
0.0
 48
0.0
140
3.0
141
0.09
142
0.0
143
25.4
144
1.0
145
0.0
146
1.0
147
0.75
 71
0.0
 72
0.0
 73
0
 74
0
 75
0
 76
0
 77
1
 78
8
170
0
171
2
172
0
173
0
174
0
175
0
176
0
177
0
178
0
270
2
271
2
272
2
273
2
274
2
275
0
280
0
281
0
282
0
283
1
284
8
285
0
286
0
287
3
288
0
340
11
278
44
341
21E
342
21E
343
21E
344
21E
  0
ENDTAB
  0
ENDSEC
  0
SECTION
  2
BLOCKS
  0
BLOCK
  5
20
100
AcDbEntity
  8
0
100
AcDbBlockBegin
  2
*Model_Space
 70
0
 10
0.0
 20
0.0
 30
0.0
  3
*Model_Space
  1

  0
ENDBLK
  5
21
100
AcDbEntity
  8
0
100
AcDbBlockEnd
  0
BLOCK
  5
1C
100
AcDbEntity
  8
0
100
AcDbBlockBegin
  2
*Paper_Space
 70
0
 10
0.0
 20
0.0
 30
0.0
  3
*Paper_Space
  1

  0
ENDBLK
  5
1D
100
AcDbEntity
  8
0
100
AcDbBlockEnd
  0
BLOCK
  5
224
100
AcDbEntity
  8
0
100
AcDbBlockBegin
  2
_FILLED
 70
64
 10
0.0
 20
0.0
  3
_FILLED
  1

  0
SOLID
  5
225
100
AcDbEntity
  8
0
  6
BYBLOCK
 62
0
100
AcDbTrace
 10
0.0
 20
0.0
 11
-1.0
 21
0.3166666667
 12
-1.0
 22
-0.3166666667
 13
-1.0
 23
-0.3166666667
  0
ENDBLK
  5
226
100
AcDbEntity
  8
0
  6
BYBLOCK
 62
0
100
AcDbBlockEnd
  0
BLOCK
  5
227
100
AcDbEntity
  8
0
100
AcDbBlockBegin
 62
7
  6
CONTINUOUS
  2
*D0
 70
65
 10
0.0
 20
0.0
  3
*D0
  1

  0
MTEXT
  5
228
100
AcDbEntity
  8
0
100
AcDbMText
 62
7
  6
CONTINUOUS
  7
STANDARD
 71
2
 72
1
 10
170.6586734694
 20
77.7277423469
 30
0.0
 11
0.0
 21
1.0
 31
0.0
 44
0.9
  1
53,35
 40
3.0
 41
10.2857142857
  0
LINE
  5
229
100
AcDbEntity
  8
0
100
AcDbLine
 62
7
  6
CONTINUOUS
 10
156.8778916186
 20
104.4027423469
 11
175.9086734694
 21
104.4027423469
  0
LINE
  5
22A
100
AcDbEntity
  8
0
100
AcDbLine
 62
7
  6
CONTINUOUS
 10
149.2086734694
 20
51.0527423469
 11
175.9086734694
 21
51.0527423469
  0
LINE
  5
22B
100
AcDbEntity
  8
0
100
AcDbLine
 62
7
  6
CONTINUOUS
 10
174.4086734694
 20
104.4027423469
 11
174.4086734694
 21
77.7277423469
  0
LINE
  5
22C
100
AcDbEntity
  8
0
100
AcDbLine
 62
7
  6
CONTINUOUS
 10
174.4086734694
 20
51.0527423469
 11
174.4086734694
 21
77.7277423469
  0
INSERT
  5
22D
100
AcDbEntity
  8
0
100
AcDbBlockReference
 62
7
  6
CONTINUOUS
  2
_FILLED
 10
174.4086734694
 20
104.4027423469
 41
3.0
 42
3.0
 43
3.0
 50
90.0
  0
INSERT
  5
22E
100
AcDbEntity
  8
0
100
AcDbBlockReference
 62
7
  6
CONTINUOUS
  2
_FILLED
 10
174.4086734694
 20
51.0527423469
 41
3.0
 42
3.0
 43
3.0
 50
270.0
  0
ENDBLK
  5
22F
100
AcDbEntity
  8
0
  6
BYBLOCK
 62
0
100
AcDbBlockEnd
  0
BLOCK
  5
230
100
AcDbEntity
  8
0
100
AcDbBlockBegin
 62
7
  6
CONTINUOUS
  2
*D1
 70
65
 10
0.0
 20
0.0
  3
*D1
  1

  0
MTEXT
  5
231
100
AcDbEntity
  8
0
100
AcDbMText
 62
7
  6
CONTINUOUS
  7
STANDARD
 71
2
 72
1
 10
144.4086734694
 20
117.7659031938
 30
0.0
 11
1.0
 21
0.0
 31
0.0
 44
0.9
  1
32,5
 40
3.0
 41
8.3571428571
  0
LINE
  5
232
100
AcDbEntity
  8
0
100
AcDbLine
 62
7
  6
CONTINUOUS
 10
128.1586734694
 20
104.3027423469
 11
128.1586734694
 21
115.5159031938
  0
LINE
  5
233
100
AcDbEntity
  8
0
100
AcDbLine
 62
7
  6
CONTINUOUS
 10
160.6586734694
 20
104.3027423469
 11
160.6586734694
 21
115.5159031938
  0
LINE
  5
234
100
AcDbEntity
  8
0
100
AcDbLine
 62
7
  6
CONTINUOUS
 10
128.1586734694
 20
114.0159031938
 11
144.4086734694
 21
114.0159031938
  0
LINE
  5
235
100
AcDbEntity
  8
0
100
AcDbLine
 62
7
  6
CONTINUOUS
 10
160.6586734694
 20
114.0159031938
 11
144.4086734694
 21
114.0159031938
  0
INSERT
  5
236
100
AcDbEntity
  8
0
100
AcDbBlockReference
 62
7
  6
CONTINUOUS
  2
_FILLED
 10
128.1586734694
 20
114.0159031938
 41
3.0
 42
3.0
 43
3.0
 50
180.0
  0
INSERT
  5
237
100
AcDbEntity
  8
0
100
AcDbBlockReference
 62
7
  6
CONTINUOUS
  2
_FILLED
 10
160.6586734694
 20
114.0159031938
 41
3.0
 42
3.0
 43
3.0
  0
ENDBLK
  5
238
100
AcDbEntity
  8
0
  6
BYBLOCK
 62
0
100
AcDbBlockEnd
  0
BLOCK
  5
239
100
AcDbEntity
  8
0
100
AcDbBlockBegin
 62
7
  6
CONTINUOUS
  2
*D2
 70
65
 10
0.0
 20
0.0
  3
*D2
  1

  0
MTEXT
  5
23A
100
AcDbEntity
  8
0
100
AcDbMText
 62
7
  6
CONTINUOUS
  7
STANDARD
 71
2
 72
1
 10
93.6419965293
 20
117.7344759145
 30
0.0
 11
1.0
 21
0.0
 31
0.0
 44
0.9
  1
35,6
 40
3.0
 41
8.3571428571
  0
LINE
  5
23B
100
AcDbEntity
  8
0
100
AcDbLine
 62
7
  6
CONTINUOUS
 10
75.8406084851
 20
63.6989536635
 11
75.8406084851
 21
115.4844759145
  0
LINE
  5
23C
100
AcDbEntity
  8
0
100
AcDbLine
 62
7
  6
CONTINUOUS
 10
111.4433845735
 20
97.8027423469
 11
111.4433845735
 21
115.4844759145
  0
LINE
  5
23D
100
AcDbEntity
  8
0
100
AcDbLine
 62
7
  6
CONTINUOUS
 10
75.8406084851
 20
113.9844759145
 11
93.6419965293
 21
113.9844759145
  0
LINE
  5
23E
100
AcDbEntity
  8
0
100
AcDbLine
 62
7
  6
CONTINUOUS
 10
111.4433845735
 20
113.9844759145
 11
93.6419965293
 21
113.9844759145
  0
INSERT
  5
23F
100
AcDbEntity
  8
0
100
AcDbBlockReference
 62
7
  6
CONTINUOUS
  2
_FILLED
 10
75.8406084851
 20
113.9844759145
 41
3.0
 42
3.0
 43
3.0
 50
180.0
  0
INSERT
  5
240
100
AcDbEntity
  8
0
100
AcDbBlockReference
 62
7
  6
CONTINUOUS
  2
_FILLED
 10
111.4433845735
 20
113.9844759145
 41
3.0
 42
3.0
 43
3.0
  0
ENDBLK
  5
241
100
AcDbEntity
  8
0
  6
BYBLOCK
 62
0
100
AcDbBlockEnd
  0
ENDSEC
  0
SECTION
  2
ENTITIES
  0
DIMENSION
  5
242
100
AcDbEntity
  8
0
100
AcDbDimension
 62
7
  6
CONTINUOUS
  2
*D0
 10
174.4086734694
 20
51.0527423469
 11
174.4086734694
 21
77.7277423469
 70
160
 71
2
 42
53.35
  3
DIMSTYLE_1
100
AcDbAlignedDimension
 13
156.3778916186
 23
104.4027423469
 14
148.7086734694
 24
51.0527423469
 50
270.0
100
AcDbRotatedDimension
  0
DIMENSION
  5
243
100
AcDbEntity
  8
0
100
AcDbDimension
 62
7
  6
CONTINUOUS
  2
*D1
 10
160.6586734694
 20
114.0159031938
 11
144.4086734694
 21
114.0159031938
 70
160
 71
2
 42
32.5
  3
DIMSTYLE_1
100
AcDbAlignedDimension
 13
128.1586734694
 23
103.8027423469
 14
160.6586734694
 24
103.8027423469
100
AcDbRotatedDimension
  0
DIMENSION
  5
244
100
AcDbEntity
  8
0
100
AcDbDimension
 62
7
  6
CONTINUOUS
  2
*D2
 10
111.4433845735
 20
113.9844759145
 11
93.6419965293
 21
113.9844759145
 70
160
 71
2
 42
35.6027760884
  3
DIMSTYLE_1
100
AcDbAlignedDimension
 13
75.8406084851
 23
63.1989536635
 14
111.4433845735
 24
97.3027423469
100
AcDbRotatedDimension
  0
LINE
  5
245
100
AcDbEntity
  8
0
100
AcDbLine
 62
7
  6
CONTINUOUS
 10
148.7086734694
 20
51.0527423469
 11
140.1086734694
 21
51.0527423469
  0
LWPOLYLINE
  5
246
100
AcDbEntity
  8
0
100
AcDbPolyline
 62
253
  6
CONTINUOUS
 90
13
 70
0
 10
150.5063687018
 20
54.2077670743
 10
150.4876387784
 20
54.2056103584
 10
150.4693312707
 20
54.2010868158
 10
150.4517396487
 20
54.194268959
 10
150.4351459065
 20
54.1852660784
 10
150.4198160426
 20
54.1742224906
 10
150.4059957952
 20
54.1613152246
 10
150.3939067033
 20
54.1467511844
 10
150.3837425554
 20
54.130763832
 10
150.3756662832
 20
54.1136094453
 10
150.3698073497
 20
54.0955630096
 10
150.3662596737
 20
54.07691381
 10
150.3650801246
 20
54.0579607937
  0
LINE
  5
247
100
AcDbEntity
  8
0
100
AcDbLine
 62
253
  6
CONTINUOUS
 10
152.3302561926
 20
55.2599099791
 11
152.2438787052
 21
55.2515192561
  0
LINE
  5
248
100
AcDbEntity
  8
0
100
AcDbLine
 62
253
  6
CONTINUOUS
 10
152.2438787052
 20
55.2515192561
 11
152.0794533041
 21
55.2364394192
  0
LINE
  5
249
100
AcDbEntity
  8
0
100
AcDbLine
 62
253
  6
CONTINUOUS
 10
152.0794533041
 20
55.2364394192
 11
151.9207702924
 21
55.2228325813
  0
LINE
  5
24A
100
AcDbEntity
  8
0
100
AcDbLine
 62
253
  6
CONTINUOUS
 10
151.9207702924
 20
55.2228325813
 11
151.6842884825
 21
55.2034440823
  0
LINE
  5
24B
100
AcDbEntity
  8
0
100
AcDbLine
 62
253
  6
CONTINUOUS
 10
151.6842884825
 20
55.2034440823
 11
151.4828580327
 21
55.1875209127
  0
LINE
  5
24C
100
AcDbEntity
  8
0
100
AcDbLine
 62
253
  6
CONTINUOUS
 10
151.4828580327
 20
55.1875209127
 11
151.2112214157
 21
55.1668496542
  0
LINE
  5
24D
100
AcDbEntity
  8
0
100
AcDbLine
 62
253
  6
CONTINUOUS
 10
151.2112214157
 20
55.1668496542
 11
150.9366557583
 21
55.1466467147
  0
LINE
  5
24E
100
AcDbEntity
  8
0
100
AcDbLine
 62
253
  6
CONTINUOUS
 10
150.9366557583
 20
55.1466467147
 11
150.6865577793
 21
55.1288569336
  0
LINE
  5
24F
100
AcDbEntity
  8
0
100
AcDbLine
 62
253
  6
CONTINUOUS
 10
150.6865577793
 20
55.1288569336
 11
150.4151508972
 21
55.1102599305
  0
LINE
  5
250
100
AcDbEntity
  8
0
100
AcDbLine
 62
253
  6
CONTINUOUS
 10
150.4151508972
 20
55.1102599305
 11
150.1983101412
 21
55.095937755
  0
LINE
  5
251
100
AcDbEntity
  8
0
100
AcDbLine
 62
253
  6
CONTINUOUS
 10
150.1983101412
 20
55.095937755
 11
149.9683204565
 21
55.0812711457
  0
LINE
  5
252
100
AcDbEntity
  8
0
100
AcDbLine
 62
253
  6
CONTINUOUS
 10
152.3499223793
 20
54.5799517184
 11
151.9883489482
 21
54.557162499
  0
LINE
  5
253
100
AcDbEntity
  8
0
100
AcDbLine
 62
253
  6
CONTINUOUS
 10
149.9683204565
 20
55.0812711457
 11
149.7214798319
 21
55.0661327571
  0
LINE
  5
254
100
AcDbEntity
  8
0
100
AcDbLine
 62
253
  6
CONTINUOUS
 10
151.9883489482
 20
54.557162499
 11
151.7120903822
 21
54.5403483722
  0
LINE
  5
255
100
AcDbEntity
  8
0
100
AcDbLine
 62
253
  6
CONTINUOUS
 10
149.7214798319
 20
55.0661327571
 11
149.4530514972
 21
55.0503793655
  0
LINE
  5
256
100
AcDbEntity
  8
0
100
AcDbLine
 62
253
  6
CONTINUOUS
 10
151.7120903822
 20
54.5403483722
 11
151.4241050574
 21
54.5234754147
  0
LINE
  5
257
100
AcDbEntity
  8
0
100
AcDbLine
 62
253
  6
CONTINUOUS
 10
151.4241050574
 20
54.5234754147
 11
151.1314492049
 21
54.5070426475
  0
LINE
  5
258
100
AcDbEntity
  8
0
100
AcDbLine
 62
253
  6
CONTINUOUS
 10
149.4530514972
 20
55.0503793655
 11
149.1583563086
 21
55.0339372661
  0
LINE
  5
259
100
AcDbEntity
  8
0
100
AcDbLine
 62
253
  6
CONTINUOUS
 10
151.1314492049
 20
54.5070426475
 11
150.837518564
 21
54.4912575558
  0
LINE
  5
25A
100
AcDbEntity
  8
0
100
AcDbLine
 62
253
  6
CONTINUOUS
 10
149.1583563086
 20
55.0339372661
 11
148.9452696863
 21
55.0226068838
  0
LINE
  5
25B
100
AcDbEntity
  8
0
100
AcDbLine
 62
253
  6
CONTINUOUS
 10
150.4086734694
 20
54.0602425813
 11
150.3650806446
 21
54.0579607937
  0
LINE
  5
25C
100
AcDbEntity
  8
0
100
AcDbLine
 62
253
  6
CONTINUOUS
 10
150.837518564
 20
54.4912575558
 11
150.5750554792
 21
54.4777651133
  0
LINE
  5
25D
100
AcDbEntity
  8
0
100
AcDbLine
 62
253
  6
CONTINUOUS
 10
148.9452696863
 20
55.0226068838
 11
148.7175041951
 21
55.0110158727
  0
LINE
  5
25E
100
AcDbEntity
  8
0
100
AcDbLine
 62
253
  6
CONTINUOUS
 10
150.5750554792
 20
54.4777651133
 11
150.2923133126
 21
54.4638655986
  0
LINE
  5
25F
100
AcDbEntity
  8
0
100
AcDbLine
 62
253
  6
CONTINUOUS
 10
148.7175041951
 20
55.0110158727
 11
148.4740331644
 21
54.9992230837
  0
LINE
  5
260
100
AcDbEntity
  8
0
100
AcDbLine
 62
253
  6
CONTINUOUS
 10
150.2923133126
 20
54.4638655986
 11
149.9873464178
 21
54.4496126589
  0
LINE
  5
261
100
AcDbEntity
  8
0
100
AcDbLine
 62
253
  6
CONTINUOUS
 10
148.4740331644
 20
54.9992230837
 11
148.2143012092
 21
54.987325488
  0
LINE
  5
262
100
AcDbEntity
  8
0
100
AcDbLine
 62
253
  6
CONTINUOUS
 10
149.9873464178
 20
54.4496126589
 11
149.7394063871
 21
54.4385905067
  0
LINE
  5
263
100
AcDbEntity
  8
0
100
AcDbLine
 62
253
  6
CONTINUOUS
 10
148.2143012092
 20
54.987325488
 11
147.9376286469
 21
54.9754295744
  0
LINE
  5
264
100
AcDbEntity
  8
0
100
AcDbLine
 62
253
  6
CONTINUOUS
 10
149.7394063871
 20
54.4385905067
 11
149.4698217675
 21
54.4271816912
  0
LWPOLYLINE
  5
265
100
AcDbEntity
  8
0
100
AcDbPolyline
 62
253
  6
CONTINUOUS
 90
6
 70
0
 10
150.3650806446
 20
54.0579607937
 10
150.3434763371
 20
54.057073952
 10
150.3177901864
 20
54.0564018058
 10
150.2881425236
 20
54.0559443551
 10
150.2547235929
 20
54.0557087497
 10
150.2176026214
 20
54.0556878398
  0
LWPOLYLINE
  5
266
100
AcDbEntity
  8
0
100
AcDbPolyline
 62
253
  6
CONTINUOUS
 90
3
 70
0
 10
150.5063699516
 20
54.2077670763
 10
150.4840627476
 20
54.2068580882
 10
150.4578165786
 20
54.2061908318
  0
LINE
  5
267
100
AcDbEntity
  8
0
100
AcDbLine
 62
253
  6
CONTINUOUS
 10
149.4698217675
 20
54.4271816912
 11
149.173910045
 21
54.4153483926
  0
LINE
  5
268
100
AcDbEntity
  8
0
100
AcDbLine
 62
253
  6
CONTINUOUS
 10
147.9376286469
 20
54.9754295744
 11
147.6439467894
 21
54.9636840242
  0
LINE
  5
269
100
AcDbEntity
  8
0
100
AcDbLine
 62
253
  6
CONTINUOUS
 10
149.173910045
 20
54.4153483926
 11
148.8474863333
 21
54.4031312669
  0
LINE
  5
26A
100
AcDbEntity
  8
0
100
AcDbLine
 62
253
  6
CONTINUOUS
 10
147.6439467894
 20
54.9636840242
 11
147.3332071636
 21
54.9522470192
  0
LINE
  5
26B
100
AcDbEntity
  8
0
100
AcDbLine
 62
253
  6
CONTINUOUS
 10
148.8474863333
 20
54.4031312669
 11
148.611167451
 21
54.3948335137
  0
LINE
  5
26C
100
AcDbEntity
  8
0
100
AcDbLine
 62
253
  6
CONTINUOUS
 10
148.611167451
 20
54.3948335137
 11
148.3587147353
 21
54.3864764157
  0
LINE
  5
26D
100
AcDbEntity
  8
0
100
AcDbLine
 62
253
  6
CONTINUOUS
 10
147.3332071636
 20
54.9522470192
 11
147.00551086
 21
54.9412931044
  0
LINE
  5
26E
100
AcDbEntity
  8
0
100
AcDbLine
 62
253
  6
CONTINUOUS
 10
148.3587147353
 20
54.3864764157
 11
148.0895434379
 21
54.3781423032
  0
LWPOLYLINE
  5
26F
100
AcDbEntity
  8
0
100
AcDbPolyline
 62
253
  6
CONTINUOUS
 90
13
 70
0
 10
147.00551086
 20
54.9412931044
 10
146.660629437
 20
54.9309979959
 10
146.4817226561
 20
54.9261550866
 10
146.2980964025
 20
54.9215407826
 10
146.1098774866
 20
54.9171846146
 10
145.9169382786
 20
54.9131111885
 10
145.7185208988
 20
54.9093395235
 10
145.5144761251
 20
54.9059007461
 10
145.3049530519
 20
54.9028329745
 10
145.0896415056
 20
54.9001736984
 10
144.8684386403
 20
54.8979625224
 10
144.6414488828
 20
54.8962389207
 10
144.4086734694
 20
54.8950437717
  0
LINE
  5
270
100
AcDbEntity
  8
0
100
AcDbLine
 62
253
  6
CONTINUOUS
 10
148.0895434379
 20
54.3781423032
 11
147.8033938596
 21
54.3699351972
  0
LINE
  5
271
100
AcDbEntity
  8
0
100
AcDbLine
 62
253
  6
CONTINUOUS
 10
147.8033938596
 20
54.3699351972
 11
147.5001273561
 21
54.3619707555
  0
LINE
  5
272
100
AcDbEntity
  8
0
100
AcDbLine
 62
253
  6
CONTINUOUS
 10
140.6039899232
 20
54.1002973401
 11
139.256792283
 21
54.0672737898
  0
LINE
  5
273
100
AcDbEntity
  8
0
100
AcDbLine
 62
253
  6
CONTINUOUS
 10
147.5001273561
 20
54.3619707555
 11
147.1798342593
 21
54.35437803
  0
LINE
  5
274
100
AcDbEntity
  8
0
100
AcDbLine
 62
253
  6
CONTINUOUS
 10
140.6916371132
 20
54.253819629
 11
139.0563463536
 21
54.2152224021
  0
LINE
  5
275
100
AcDbEntity
  8
0
100
AcDbLine
 62
253
  6
CONTINUOUS
 10
139.256792283
 20
54.0672737898
 11
139.0336789107
 21
54.0621857273
  0
LINE
  5
276
100
AcDbEntity
  8
0
100
AcDbLine
 62
253
  6
CONTINUOUS
 10
140.963636568
 20
54.1082629402
 11
140.6039899232
 21
54.1002973401
  0
LINE
  5
277
100
AcDbEntity
  8
0
100
AcDbLine
 62
253
  6
CONTINUOUS
 10
147.1798342593
 20
54.35437803
 11
146.8424346247
 21
54.3472899522
  0
LINE
  5
278
100
AcDbEntity
  8
0
100
AcDbLine
 62
253
  6
CONTINUOUS
 10
139.0563463536
 20
54.2152224021
 11
138.8362590937
 21
54.2105214835
  0
LINE
  5
279
100
AcDbEntity
  8
0
100
AcDbLine
 62
253
  6
CONTINUOUS
 10
141.3720188779
 20
54.1165649129
 11
140.963636568
 21
54.1082629402
  0
LWPOLYLINE
  5
27A
100
AcDbEntity
  8
0
100
AcDbPolyline
 62
253
  6
CONTINUOUS
 90
3
 70
0
 10
141.2999632927
 20
54.2660833575
 10
141.0846999853
 20
54.2618878833
 10
140.6916371132
 20
54.253819629
  0
LINE
  5
27B
100
AcDbEntity
  8
0
100
AcDbLine
 62
253
  6
CONTINUOUS
 10
139.0336789107
 20
54.0621857273
 11
138.8408918858
 21
54.0584023051
  0
LINE
  5
27C
100
AcDbEntity
  8
0
100
AcDbLine
 62
253
  6
CONTINUOUS
 10
146.8424346247
 20
54.3472899522
 11
146.4878311373
 21
54.340846235
  0
LINE
  5
27D
100
AcDbEntity
  8
0
100
AcDbLine
 62
253
  6
CONTINUOUS
 10
138.8362590937
 20
54.2105214835
 11
138.6510531439
 21
54.2072738553
  0
LWPOLYLINE
  5
27E
100
AcDbEntity
  8
0
100
AcDbPolyline
 62
253
  6
CONTINUOUS
 90
4
 70
0
 10
150.4578165786
 20
54.2061908318
 10
150.4276368492
 20
54.2057509713
 10
150.3935080337
 20
54.2055215081
 10
150.3554479797
 20
54.2054910955
  0
LINE
  5
27F
100
AcDbEntity
  8
0
100
AcDbLine
 62
253
  6
CONTINUOUS
 10
146.4878311373
 20
54.340846235
 11
146.1148286861
 21
54.3351795317
  0
LINE
  5
280
100
AcDbEntity
  8
0
100
AcDbLine
 62
253
  6
CONTINUOUS
 10
138.8408918858
 20
54.0584023051
 11
138.7322069668
 21
54.0567573851
  0
LWPOLYLINE
  5
281
100
AcDbEntity
  8
0
100
AcDbPolyline
 62
253
  6
CONTINUOUS
 90
7
 70
0
 10
146.1148286861
 20
54.3351795317
 10
145.7222921542
 20
54.3304470366
 10
145.5176499962
 20
54.3284799173
 10
145.3075234968
 20
54.3268173738
 10
145.0915939701
 20
54.3254846886
 10
144.8697555311
 20
54.3245122506
 10
144.6421151285
 20
54.323933688
  0
LINE
  5
282
100
AcDbEntity
  8
0
100
AcDbLine
 62
253
  6
CONTINUOUS
 10
138.6510531439
 20
54.2072738553
 11
138.5479880143
 21
54.2060074569
  0
LWPOLYLINE
  5
283
100
AcDbEntity
  8
0
100
AcDbPolyline
 62
253
  6
CONTINUOUS
 90
8
 70
0
 10
138.7322069668
 20
54.0567573851
 10
138.6392877316
 20
54.0558513854
 10
138.5985301231
 20
54.0556857027
 10
138.5616256315
 20
54.0557131007
 10
138.5284563484
 20
54.0559524244
 10
138.4990770706
 20
54.0564099553
 10
138.4736476431
 20
54.0570794117
 10
138.4522662942
 20
54.0579607937
  0
LWPOLYLINE
  5
284
100
AcDbEntity
  8
0
100
AcDbPolyline
 62
253
  6
CONTINUOUS
 90
5
 70
0
 10
138.5479880143
 20
54.2060074569
 10
138.4606574824
 20
54.2054888962
 10
138.4228303777
 20
54.2055246063
 10
138.3889445293
 20
54.2057590701
 10
138.3590103113
 20
54.2062020141
  0
LINE
  5
285
100
AcDbEntity
  8
0
100
AcDbLine
 62
253
  6
CONTINUOUS
 10
139.3086734694
 20
51.8527423469
 11
149.5086734694
 21
51.8527423469
  0
LINE
  5
286
100
AcDbEntity
  8
0
100
AcDbLine
 62
253
  6
CONTINUOUS
 10
149.5086734694
 20
52.4027423469
 11
139.3086734694
 21
52.4027423469
  0
LINE
  5
287
100
AcDbEntity
  8
0
100
AcDbLine
 62
253
  6
CONTINUOUS
 10
149.6507787325
 20
52.5525344466
 11
139.1665682062
 21
52.5525344466
  0
LINE
  5
288
100
AcDbEntity
  8
0
100
AcDbLine
 62
253
  6
CONTINUOUS
 10
138.4086734694
 20
53.351425645
 11
150.4086734694
 21
53.351425645
  0
LWPOLYLINE
  5
289
100
AcDbEntity
  8
0
100
AcDbPolyline
 62
253
  6
CONTINUOUS
 90
7
 70
0
 10
144.6421151285
 20
54.323933688
 10
144.1773762991
 20
54.3239303192
 10
143.9515915579
 20
54.3244984788
 10
143.7313199386
 20
54.3254553834
 10
143.5167612732
 20
54.3267686316
 10
143.3077167842
 20
54.3284098467
 10
143.1035891273
 20
54.3303581568
  0
LWPOLYLINE
  5
28A
100
AcDbEntity
  8
0
100
AcDbPolyline
 62
253
  6
CONTINUOUS
 90
13
 70
0
 10
144.4086734694
 20
54.8950437717
 10
144.1780243182
 20
54.8962252554
 10
143.9528781237
 20
54.8979274971
 10
143.7332361456
 20
54.9001119387
 10
143.5192979608
 20
54.9027399663
 10
143.3108656506
 20
54.9057750457
 10
143.1073438554
 20
54.9091870281
 10
142.9086675926
 20
54.9129458294
 10
142.7149021781
 20
54.9170203903
 10
142.525647466
 20
54.9213865072
 10
142.3408050254
 20
54.9260199747
 10
142.1604726676
 20
54.9308928856
 10
141.9845443583
 20
54.9359794966
  0
LINE
  5
28B
100
AcDbEntity
  8
0
100
AcDbLine
 62
253
  6
CONTINUOUS
 10
150.3554479797
 20
54.2054910955
 11
150.2677605985
 21
54.2060232015
  0
LINE
  5
28C
100
AcDbEntity
  8
0
100
AcDbLine
 62
253
  6
CONTINUOUS
 10
150.2176026214
 20
54.0556878398
 11
150.1319119765
 21
54.0562228046
  0
LINE
  5
28D
100
AcDbEntity
  8
0
100
AcDbLine
 62
253
  6
CONTINUOUS
 10
143.1035891273
 20
54.3303581568
 11
142.709954317
 21
54.3350781379
  0
LINE
  5
28E
100
AcDbEntity
  8
0
100
AcDbLine
 62
253
  6
CONTINUOUS
 10
150.2677605985
 20
54.2060232015
 11
150.1644644814
 21
54.2073008194
  0
LINE
  5
28F
100
AcDbEntity
  8
0
100
AcDbLine
 62
253
  6
CONTINUOUS
 10
150.1319119765
 20
54.0562228046
 11
150.0310532746
 21
54.0575152129
  0
LWPOLYLINE
  5
290
100
AcDbEntity
  8
0
100
AcDbPolyline
 62
253
  6
CONTINUOUS
 90
20
 70
0
 10
146.8124627072
 20
54.2778730549
 10
146.5515697924
 20
54.2815335231
 10
146.2802982788
 20
54.2848574715
 10
145.9996863561
 20
54.2879143143
 10
145.7158249131
 20
54.2905305009
 10
145.4296244617
 20
54.2926119397
 10
145.1401628312
 20
54.2942097708
 10
144.8507786167
 20
54.2953022966
 10
144.5626109619
 20
54.2958608567
 10
144.2745064523
 20
54.2958785898
 10
143.9863642542
 20
54.2953564446
 10
143.6971258603
 20
54.2943030986
 10
143.4078355246
 20
54.2927431886
 10
143.1215470884
 20
54.2906937751
 10
142.8372454479
 20
54.2881074985
 10
142.5559338605
 20
54.2850779261
 10
142.2836968331
 20
54.2817704423
 10
142.0214940026
 20
54.2781153468
 10
141.7683620295
 20
54.274161955
 10
141.2999632927
 20
54.2660833575
  0
LWPOLYLINE
  5
291
100
AcDbEntity
  8
0
100
AcDbPolyline
 62
253
  6
CONTINUOUS
 90
20
 70
0
 10
146.7569352601
 20
54.1284192028
 10
146.5018221029
 20
54.132082717
 10
146.2368956955
 20
54.1354448861
 10
145.9631022987
 20
54.1385164203
 10
145.6854727147
 20
54.1411165488
 10
145.405727159
 20
54.1432033162
 10
145.1234084224
 20
54.1448186779
 10
144.8405144197
 20
54.1459077291
 10
144.5588222712
 20
54.1464521375
 10
144.2778408775
 20
54.1464702354
 10
143.99617563
 20
54.1459621155
 10
143.7134293265
 20
54.1449108574
 10
143.4312801422
 20
54.1433333815
 10
143.1514409479
 20
54.1412805415
 10
142.8733841091
 20
54.138710531
 10
142.598916598
 20
54.1356651563
 10
142.3330347728
 20
54.132320691
 10
142.0766304472
 20
54.1286641372
 10
141.8294598477
 20
54.1247084927
 10
141.3720188779
 20
54.1165649129
  0
LINE
  5
292
100
AcDbEntity
  8
0
100
AcDbLine
 62
253
  6
CONTINUOUS
 10
142.709954317
 20
54.3350781379
 11
142.3346893687
 21
54.3407598279
  0
LINE
  5
293
100
AcDbEntity
  8
0
100
AcDbLine
 62
253
  6
CONTINUOUS
 10
147.2360881587
 20
54.1204331714
 11
146.7569352601
 21
54.1284192028
  0
LWPOLYLINE
  5
294
100
AcDbEntity
  8
0
100
AcDbPolyline
 62
253
  6
CONTINUOUS
 90
3
 70
0
 10
147.529207405
 20
54.2658628745
 10
147.3032611997
 20
54.2699322259
 10
146.8124627072
 20
54.2778730549
  0
LINE
  5
295
100
AcDbEntity
  8
0
100
AcDbLine
 62
253
  6
CONTINUOUS
 10
142.3346893687
 20
54.3407598279
 11
141.9772879559
 21
54.3472433534
  0
LINE
  5
296
100
AcDbEntity
  8
0
100
AcDbLine
 62
253
  6
CONTINUOUS
 10
150.1644644814
 20
54.2073008194
 11
149.9790207275
 21
54.2105623451
  0
LINE
  5
297
100
AcDbEntity
  8
0
100
AcDbLine
 62
253
  6
CONTINUOUS
 10
150.0310532746
 20
54.0575152129
 11
149.8498993793
 21
54.0607961784
  0
LINE
  5
298
100
AcDbEntity
  8
0
100
AcDbLine
 62
253
  6
CONTINUOUS
 10
147.6656694211
 20
54.1121748502
 11
147.2360881587
 21
54.1204331714
  0
LINE
  5
299
100
AcDbEntity
  8
0
100
AcDbLine
 62
253
  6
CONTINUOUS
 10
148.1327174676
 20
54.2536686623
 11
147.529207405
 21
54.2658628745
  0
LINE
  5
29A
100
AcDbEntity
  8
0
100
AcDbLine
 62
253
  6
CONTINUOUS
 10
148.0462944039
 20
54.104090948
 11
147.6656694211
 21
54.1121748502
  0
LINE
  5
29B
100
AcDbEntity
  8
0
100
AcDbLine
 62
253
  6
CONTINUOUS
 10
141.9772879559
 20
54.3472433534
 11
141.6374894821
 21
54.354378545
  0
LINE
  5
29C
100
AcDbEntity
  8
0
100
AcDbLine
 62
253
  6
CONTINUOUS
 10
149.9790207275
 20
54.2105623451
 11
149.758206189
 21
54.2152856206
  0
LINE
  5
29D
100
AcDbEntity
  8
0
100
AcDbLine
 62
253
  6
CONTINUOUS
 10
149.8498993793
 20
54.0607961784
 11
149.6341987314
 21
54.0655439771
  0
LINE
  5
29E
100
AcDbEntity
  8
0
100
AcDbLine
 62
253
  6
CONTINUOUS
 10
141.6374894821
 20
54.354378545
 11
141.3151878685
 21
54.3620216087
  0
LINE
  5
29F
100
AcDbEntity
  8
0
100
AcDbLine
 62
253
  6
CONTINUOUS
 10
149.758206189
 20
54.2152856206
 11
148.1327174676
 21
54.2536686623
  0
LWPOLYLINE
  5
2A0
100
AcDbEntity
  8
0
100
AcDbPolyline
 62
253
  6
CONTINUOUS
 90
3
 70
0
 10
149.6341987314
 20
54.0655439771
 10
149.1293870796
 20
54.0779579951
 10
148.0462944039
 20
54.104090948
  0
LWPOLYLINE
  5
2A1
100
AcDbEntity
  8
0
100
AcDbPolyline
 62
253
  6
CONTINUOUS
 90
3
 70
0
 10
138.3590103113
 20
54.2062020141
 10
138.3330194248
 20
54.2068673455
 10
138.3109728269
 20
54.207767288
  0
LINE
  5
2A2
100
AcDbEntity
  8
0
100
AcDbLine
 62
253
  6
CONTINUOUS
 10
141.3151878685
 20
54.3620216087
 11
141.0102953892
 21
54.3700358647
  0
LINE
  5
2A3
100
AcDbEntity
  8
0
100
AcDbLine
 62
253
  6
CONTINUOUS
 10
141.0102953892
 20
54.3700358647
 11
140.7226740585
 21
54.3782955517
  0
LINE
  5
2A4
100
AcDbEntity
  8
0
100
AcDbLine
 62
253
  6
CONTINUOUS
 10
140.7226740585
 20
54.3782955517
 11
140.4523185568
 21
54.3866790357
  0
LINE
  5
2A5
100
AcDbEntity
  8
0
100
AcDbLine
 62
253
  6
CONTINUOUS
 10
141.9845443583
 20
54.9359794966
 11
141.6458569024
 21
54.946699372
  0
LINE
  5
2A6
100
AcDbEntity
  8
0
100
AcDbLine
 62
253
  6
CONTINUOUS
 10
140.4523185568
 20
54.3866790357
 11
140.1992219215
 21
54.3950712581
  0
LINE
  5
2A7
100
AcDbEntity
  8
0
100
AcDbLine
 62
253
  6
CONTINUOUS
 10
140.1992219215
 20
54.3950712581
 11
139.9635393929
 21
54.4033595199
  0
LINE
  5
2A8
100
AcDbEntity
  8
0
100
AcDbLine
 62
253
  6
CONTINUOUS
 10
141.6458569024
 20
54.946699372
 11
141.3246363025
 21
54.957989726
  0
LINE
  5
2A9
100
AcDbEntity
  8
0
100
AcDbLine
 62
253
  6
CONTINUOUS
 10
139.9635393929
 20
54.4033595199
 11
139.6413363999
 21
54.4154298514
  0
LINE
  5
2AA
100
AcDbEntity
  8
0
100
AcDbLine
 62
253
  6
CONTINUOUS
 10
141.3246363025
 20
54.957989726
 11
141.0207912271
 21
54.9696741802
  0
LINE
  5
2AB
100
AcDbEntity
  8
0
100
AcDbLine
 62
253
  6
CONTINUOUS
 10
139.6413363999
 20
54.4154298514
 11
139.3526637944
 21
54.4269700566
  0
LINE
  5
2AC
100
AcDbEntity
  8
0
100
AcDbLine
 62
253
  6
CONTINUOUS
 10
141.0207912271
 20
54.9696741802
 11
140.7341820043
 21
54.9815870021
  0
LINE
  5
2AD
100
AcDbEntity
  8
0
100
AcDbLine
 62
253
  6
CONTINUOUS
 10
139.3526637944
 20
54.4269700566
 11
139.0901686708
 21
54.4380600447
  0
LINE
  5
2AE
100
AcDbEntity
  8
0
100
AcDbLine
 62
253
  6
CONTINUOUS
 10
139.0901686708
 20
54.4380600447
 11
138.8455207451
 21
54.4489078305
  0
LINE
  5
2AF
100
AcDbEntity
  8
0
100
AcDbLine
 62
253
  6
CONTINUOUS
 10
140.7341820043
 20
54.9815870021
 11
140.4648001831
 21
54.9935700863
  0
LINE
  5
2B0
100
AcDbEntity
  8
0
100
AcDbLine
 62
253
  6
CONTINUOUS
 10
138.8455207451
 20
54.4489078305
 11
138.5370481608
 21
54.4632895707
  0
LINE
  5
2B1
100
AcDbEntity
  8
0
100
AcDbLine
 62
253
  6
CONTINUOUS
 10
140.4648001831
 20
54.9935700863
 11
140.2126343323
 21
55.0054759621
  0
LINE
  5
2B2
100
AcDbEntity
  8
0
100
AcDbLine
 62
253
  6
CONTINUOUS
 10
138.5370481608
 20
54.4632895707
 11
138.2475109846
 21
54.4775025498
  0
LINE
  5
2B3
100
AcDbEntity
  8
0
100
AcDbLine
 62
253
  6
CONTINUOUS
 10
140.2126343323
 20
55.0054759621
 11
139.9778379751
 21
55.0171575176
  0
LINE
  5
2B4
100
AcDbEntity
  8
0
100
AcDbLine
 62
253
  6
CONTINUOUS
 10
138.2475109846
 20
54.4775025498
 11
137.9837372194
 21
54.4910524403
  0
LINE
  5
2B5
100
AcDbEntity
  8
0
100
AcDbLine
 62
253
  6
CONTINUOUS
 10
138.4522662942
 20
54.0579607937
 11
138.4086734694
 21
54.0602425813
  0
LINE
  5
2B6
100
AcDbEntity
  8
0
100
AcDbLine
 62
253
  6
CONTINUOUS
 10
139.9778379751
 20
55.0171575176
 11
139.7597429072
 21
55.0285216727
  0
LINE
  5
2B7
100
AcDbEntity
  8
0
100
AcDbLine
 62
253
  6
CONTINUOUS
 10
137.9837372194
 20
54.4910524403
 11
137.7008039104
 21
54.5062248852
  0
LINE
  5
2B8
100
AcDbEntity
  8
0
100
AcDbLine
 62
253
  6
CONTINUOUS
 10
139.7597429072
 20
55.0285216727
 11
139.4617200312
 21
55.0448449254
  0
LINE
  5
2B9
100
AcDbEntity
  8
0
100
AcDbLine
 62
253
  6
CONTINUOUS
 10
137.7008039104
 20
54.5062248852
 11
137.4239999073
 21
54.5217143793
  0
LINE
  5
2BA
100
AcDbEntity
  8
0
100
AcDbLine
 62
253
  6
CONTINUOUS
 10
139.4617200312
 20
55.0448449254
 11
139.1925558137
 21
55.060373341
  0
LINE
  5
2BB
100
AcDbEntity
  8
0
100
AcDbLine
 62
253
  6
CONTINUOUS
 10
137.4239999073
 20
54.5217143793
 11
137.1371162872
 21
54.5384481351
  0
LINE
  5
2BC
100
AcDbEntity
  8
0
100
AcDbLine
 62
253
  6
CONTINUOUS
 10
139.1925558137
 20
55.060373341
 11
138.9439945265
 21
55.0753729187
  0
LINE
  5
2BD
100
AcDbEntity
  8
0
100
AcDbLine
 62
253
  6
CONTINUOUS
 10
137.1371162872
 20
54.5384481351
 11
136.8532223866
 21
54.5556643518
  0
LWPOLYLINE
  5
2BE
100
AcDbEntity
  8
0
100
AcDbPolyline
 62
253
  6
CONTINUOUS
 90
3
 70
0
 10
136.8532223866
 20
54.5556643518
 10
136.5135148991
 20
54.577010287
 10
136.4674249399
 20
54.579951694
  0
LINE
  5
2BF
100
AcDbEntity
  8
0
100
AcDbLine
 62
253
  6
CONTINUOUS
 10
138.9439945265
 20
55.0753729187
 11
138.7087274101
 21
55.0901534069
  0
LINE
  5
2C0
100
AcDbEntity
  8
0
100
AcDbLine
 62
253
  6
CONTINUOUS
 10
138.7087274101
 20
55.0901534069
 11
138.4833813857
 21
55.1048415301
  0
LWPOLYLINE
  5
2C1
100
AcDbEntity
  8
0
100
AcDbPolyline
 62
253
  6
CONTINUOUS
 90
58
 70
0
 10
136.4674249399
 20
54.5799516939
 10
136.4280171208
 20
54.5826553868
 10
136.3876684219
 20
54.585767496
 10
136.3463836849
 20
54.5893125298
 10
136.3042385589
 20
54.5933087946
 10
136.2611684151
 20
54.5977872957
 10
136.2169690055
 20
54.6027981611
 10
136.171641574
 20
54.6083743955
 10
136.1252008174
 20
54.61454907
 10
136.0774651002
 20
54.6213850211
 10
136.0284339498
 20
54.6289246721
 10
135.9781306041
 20
54.6372084521
 10
135.9264121608
 20
54.6463084314
 10
135.8732929696
 20
54.6562737195
 10
135.8187903945
 20
54.6671545103
 10
135.7627701183
 20
54.6790367045
 10
135.7052494565
 20
54.6919792649
 10
135.6462547615
 20
54.7060409391
 10
135.585670499
 20
54.7213201001
 10
135.5235257029
 20
54.7378843984
 10
135.4598503961
 20
54.7558029011
 10
135.394537167
 20
54.7751895733
 10
135.32764115
 20
54.796116807
 10
135.2591859149
 20
54.818668875
 10
135.1890259217
 20
54.8429943664
 10
135.1172514266
 20
54.8691694253
 10
135.0438775875
 20
54.8972999132
 10
134.9686610254
 20
54.9276050952
 10
134.8916842881
 20
54.9601900157
 10
134.8130108209
 20
54.9951719236
 10
134.7323910203
 20
55.0328242099
 10
134.6498871525
 20
55.0732978079
 10
134.5656397809
 20
55.1167116354
 10
134.4795434546
 20
55.1633248145
 10
134.3916740746
 20
55.2133188194
 10
134.3022256716
 20
55.2668160004
 10
134.2112940036
 20
55.3240045685
 10
134.1190992213
 20
55.3849996038
 10
134.0257561299
 20
55.4499904269
 10
133.931233152
 20
55.5192944265
 10
133.8359222415
 20
55.5929319548
 10
133.7398587284
 20
55.6711991125
 10
133.6425566257
 20
55.754896699
 10
133.5443554498
 20
55.8442047081
 10
133.4455498375
 20
55.9393571768
 10
133.3457339658
 20
56.0413540713
 10
133.245155045
 20
56.1506768506
 10
133.1445118434
 20
56.2673566412
 10
133.0442063974
 20
56.3917795791
 10
132.9434658367
 20
56.5260176681
 10
132.8443699419
 20
56.6685106773
 10
132.7510715709
 20
56.8137570968
 10
132.6629933028
 20
56.9626087783
 10
132.5808620319
 20
57.1137587273
 10
132.5091838695
 20
57.257518993
 10
132.4484062943
 20
57.3900172365
 10
132.3960295278
 20
57.5137811985
 10
132.3512046078
 20
57.6283326714
  0
LINE
  5
2C2
100
AcDbEntity
  8
0
100
AcDbLine
 62
253
  6
CONTINUOUS
 10
138.4833813857
 20
55.1048415301
 11
138.2007692628
 21
55.1239906641
  0
LINE
  5
2C3
100
AcDbEntity
  8
0
100
AcDbLine
 62
253
  6
CONTINUOUS
 10
138.2007692628
 20
55.1239906641
 11
137.9459296368
 21
55.1419476645
  0
LINE
  5
2C4
100
AcDbEntity
  8
0
100
AcDbLine
 62
253
  6
CONTINUOUS
 10
137.9459296368
 20
55.1419476645
 11
137.6753239323
 21
55.1616941346
  0
LINE
  5
2C5
100
AcDbEntity
  8
0
100
AcDbLine
 62
253
  6
CONTINUOUS
 10
137.6753239323
 20
55.1616941346
 11
137.4084857933
 21
55.1818155338
  0
LINE
  5
2C6
100
AcDbEntity
  8
0
100
AcDbLine
 62
253
  6
CONTINUOUS
 10
137.4084857933
 20
55.1818155338
 11
137.2052233056
 21
55.1976717135
  0
LINE
  5
2C7
100
AcDbEntity
  8
0
100
AcDbLine
 62
253
  6
CONTINUOUS
 10
137.2052233056
 20
55.1976717135
 11
136.9625945432
 21
55.2173468818
  0
LINE
  5
2C8
100
AcDbEntity
  8
0
100
AcDbLine
 62
253
  6
CONTINUOUS
 10
136.9625945432
 20
55.2173468818
 11
136.799354711
 21
55.2310878868
  0
LINE
  5
2C9
100
AcDbEntity
  8
0
100
AcDbLine
 62
253
  6
CONTINUOUS
 10
136.799354711
 20
55.2310878868
 11
136.7151124412
 21
55.2384709259
  0
LWPOLYLINE
  5
2CA
100
AcDbEntity
  8
0
100
AcDbPolyline
 62
253
  6
CONTINUOUS
 90
3
 70
0
 10
136.7151124412
 20
55.2384709259
 10
136.535160606
 20
55.2551451476
 10
136.4870907462
 20
55.2599099791
  0
LWPOLYLINE
  5
2CB
100
AcDbEntity
  8
0
100
AcDbPolyline
 62
253
  6
CONTINUOUS
 90
58
 70
0
 10
136.4870907462
 20
55.2599099791
 10
136.4541678018
 20
55.2633187578
 10
136.420325169
 20
55.2671024767
 10
136.3855679442
 20
55.2712959501
 10
136.3499260195
 20
55.2759586166
 10
136.3133813142
 20
55.2811105411
 10
136.275867414
 20
55.2867303937
 10
136.237389824
 20
55.2928222026
 10
136.1979558056
 20
55.299433417
 10
136.1575019405
 20
55.3065988339
 10
136.1160566994
 20
55.3143300355
 10
136.0736081163
 20
55.3226649286
 10
136.0300343049
 20
55.3316837859
 10
135.9853421737
 20
55.3414120267
 10
135.93954774
 20
55.3518812812
 10
135.8925461912
 20
55.3631890083
 10
135.8443612656
 20
55.3753618805
 10
135.7950004626
 20
55.3884355947
 10
135.7443392439
 20
55.4025303014
 10
135.6923993677
 20
55.4176992328
 10
135.6392023048
 20
55.4339832578
 10
135.5846290311
 20
55.4515008476
 10
135.5287080828
 20
55.4703133463
 10
135.4714688667
 20
55.4904784981
 10
135.4128007172
 20
55.5121230361
 10
135.3527680725
 20
55.5353039557
 10
135.2913829127
 20
55.5601061145
 10
135.2284661445
 20
55.5867164453
 10
135.1640751897
 20
55.6152032365
 10
135.0982560376
 20
55.6456581298
 10
135.0308277942
 20
55.6783241649
 10
134.9618304882
 20
55.7133035086
 10
134.8913661196
 20
55.7506824835
 10
134.8193654538
 20
55.79070284
 10
134.7458658675
 20
55.8334939882
 10
134.6710163831
 20
55.8791387026
 10
134.5949303802
 20
55.9278188345
 10
134.5177599898
 20
55.9796025461
 10
134.439574846
 20
56.0346303719
 10
134.3603837753
 20
56.093201926
 10
134.280467366
 20
56.155304174
 10
134.1998249817
 20
56.2211683608
 10
134.1180957812
 20
56.2915056619
 10
134.0354849845
 20
56.3664285807
 10
133.9522014458
 20
56.4461162018
 10
133.8679834518
 20
56.5314557442
 10
133.782903911
 20
56.6228012619
 10
133.6974985475
 20
56.7201493394
 10
133.6122710558
 20
56.8238737222
 10
133.5264121908
 20
56.9356525013
 10
133.4415182775
 20
57.0541369994
 10
133.3613053095
 20
57.1748138947
 10
133.2854864713
 20
57.2984171049
 10
133.214237101
 20
57.4238034081
 10
133.1510949305
 20
57.5430403631
 10
133.0966946226
 20
57.6530870008
 10
133.0493104464
 20
57.7561287266
 10
133.0084396897
 20
57.851837378
  0
LWPOLYLINE
  5
2CC
100
AcDbEntity
  8
0
100
AcDbPolyline
 62
253
  6
CONTINUOUS
 90
13
 70
0
 10
138.3109782335
 20
54.2077670067
 10
138.3297081078
 20
54.2056102389
 10
138.3480155616
 20
54.2010866565
 10
138.3656071274
 20
54.1942687722
 10
138.3822008129
 20
54.1852658764
 10
138.3975306222
 20
54.1742222852
 10
138.4113508189
 20
54.1613150268
 10
138.4234398659
 20
54.1467510041
 10
138.4336039762
 20
54.1307636777
 10
138.4416802194
 20
54.1136093239
 10
138.4475391338
 20
54.0955629263
 10
138.4510868012
 20
54.0769137678
 10
138.4522663525
 20
54.0579607937
  0
LWPOLYLINE
  5
2CD
100
AcDbEntity
  8
0
100
AcDbPolyline
 62
253
  6
CONTINUOUS
 90
10
 70
0
 10
132.3512443829
 20
57.6282337622
 10
132.3650673695
 20
57.6307952728
 10
132.3876122917
 20
57.6366851653
 10
132.4186647714
 20
57.6458474547
 10
132.4579295358
 20
57.6581950398
 10
132.5050332247
 20
57.6736105315
 10
132.5595279411
 20
57.6919473688
 10
132.6208955094
 20
57.7130312129
 10
132.6885524031
 20
57.7366616043
 10
132.8401071646
 20
57.7906412567
  0
LWPOLYLINE
  5
2CE
100
AcDbEntity
  8
0
100
AcDbPolyline
 62
253
  6
CONTINUOUS
 90
76
 70
0
 10
144.4086734694
 20
62.215675669
 10
144.2580070526
 20
62.2159949026
 10
144.1060712724
 20
62.2182655595
 10
143.9528948732
 20
62.2225295933
 10
143.7980011934
 20
62.2288467754
 10
143.6419286886
 20
62.2372545614
 10
143.4862282858
 20
62.2477074688
 10
143.3314563639
 20
62.2601560485
 10
143.1771155948
 20
62.2746151771
 10
143.0231739242
 20
62.2910838566
 10
142.869621569
 20
62.3095589375
 10
142.7165276443
 20
62.3300283356
 10
142.5639783317
 20
62.3524781791
 10
142.4120160846
 20
62.3768987608
 10
142.2606562578
 20
62.4032806151
 10
142.1099436604
 20
62.4316079339
 10
141.9599159549
 20
62.4618698506
 10
141.8105916926
 20
62.4940581907
 10
141.6619864297
 20
62.5281612467
 10
141.5141379131
 20
62.5641659358
 10
141.3670623251
 20
62.6020634859
 10
141.2207429356
 20
62.6418507094
 10
141.0751985775
 20
62.6835186683
 10
140.9304631944
 20
62.7270529403
 10
140.7865430796
 20
62.772444981
 10
140.6433263864
 20
62.8197335373
 10
140.5009786471
 20
62.8688643831
 10
140.3599164426
 20
62.9196768621
 10
140.2206425994
 20
62.9719679559
 10
140.0826891654
 20
63.0258758313
 10
139.9450258322
 20
63.0817735968
 10
139.8076868198
 20
63.1398418433
 10
139.6707113456
 20
63.1999800055
 10
139.5331024576
 20
63.2622583946
 10
139.3938569639
 20
63.3274748725
 10
139.2541722796
 20
63.3955973782
 10
139.1163171798
 20
63.4652763577
 10
138.9810911717
 20
63.5357826917
 10
138.8477130996
 20
63.6075457481
 10
138.7160172713
 20
63.6807103791
 10
138.5862869339
 20
63.7550910661
 10
138.458272282
 20
63.8307413292
 10
138.3310436731
 20
63.9082307172
 10
138.2042051189
 20
63.9878415298
 10
138.0782521869
 20
64.0692741553
 10
137.9536094722
 20
64.1522566707
 10
137.8306798308
 20
64.2365138278
 10
137.7091264998
 20
64.3222501302
 10
137.5882798262
 20
64.4099302429
 10
137.4678321016
 20
64.4998724526
 10
137.348224663
 20
64.5917748239
 10
137.2299246348
 20
64.6851884471
 10
137.1123125208
 20
64.7805096642
 10
136.9962203315
 20
64.8773633621
 10
136.8840773385
 20
64.9739667205
 10
136.7766986736
 20
65.0690139631
 10
136.6727033763
 20
65.1633649438
 10
136.5710409585
 20
65.2583735524
 10
136.4716969733
 20
65.3540003942
 10
136.3744927243
 20
65.4501023643
 10
136.2782588159
 20
65.5479706715
 10
136.1824274277
 20
65.6482442006
 10
136.0876448916
 20
65.7502716024
 10
135.9945833191
 20
65.8534248022
 10
135.903581398
 20
65.9572680893
 10
135.8142779443
 20
66.0621389602
 10
135.7262884802
 20
66.1685562349
 10
135.639409356
 20
66.2767681702
 10
135.5538759637
 20
66.3864712133
 10
135.4699704324
 20
66.4973589912
 10
135.3876474733
 20
66.6094424927
 10
135.3069599004
 20
66.7226326285
 10
135.2283093773
 20
66.8364475069
 10
135.1518127235
 20
66.9506844639
 10
135.0773205041
 20
67.0654372062
 10
135.0048182351
 20
67.1806547359
  0
LWPOLYLINE
  5
2CF
100
AcDbEntity
  8
0
100
AcDbPolyline
 62
253
  6
CONTINUOUS
 90
76
 70
0
 10
144.4086844013
 20
63.1989527813
 10
144.2717623437
 20
63.2003257692
 10
144.1337166569
 20
63.2035171249
 10
143.9945729899
 20
63.2085639565
 10
143.8539006087
 20
63.2155296318
 10
143.7121858678
 20
63.2244365054
 10
143.5708281969
 20
63.2352074412
 10
143.4303236573
 20
63.2477849106
 10
143.2902257824
 20
63.2621830901
 10
143.1505160787
 20
63.2783814215
 10
143.0111839
 20
63.2963690097
 10
142.8722886979
 20
63.3161295986
 10
142.733916176
 20
63.3376339307
 10
142.5961031689
 20
63.3608633904
 10
142.458858965
 20
63.3858036879
 10
142.3222267044
 20
63.4124290561
 10
142.1862398472
 20
63.4407199427
 10
142.0509086377
 20
63.4706618085
 10
141.9162406149
 20
63.5022362639
 10
141.7822697804
 20
63.535424525
 10
141.6490039881
 20
63.5702126115
 10
141.516411465
 20
63.6065918809
 10
141.3844989109
 20
63.6445521163
 10
141.2533007662
 20
63.6840755663
 10
141.1228268141
 20
63.7251446914
 10
140.9929805691
 20
63.7677850608
 10
140.8638991055
 20
63.8119466393
 10
140.7359372979
 20
63.8574868961
 10
140.6095330376
 20
63.9042190412
 10
140.484271731
 20
63.9522692884
 10
140.3592381332
 20
64.0019859918
 10
140.2344246227
 20
64.0533831356
 10
140.109894207
 20
64.1064635333
 10
139.9848641622
 20
64.161616995
 10
139.8584598652
 20
64.2192968874
 10
139.7316457597
 20
64.2791302844
 10
139.60637499
 20
64.3402220758
 10
139.4833365128
 20
64.4021932446
 10
139.3618392392
 20
64.465323165
 10
139.2417315
 20
64.5296400826
 10
139.1232486677
 20
64.5949773719
 10
139.0061612458
 20
64.6614283952
 10
138.8896407477
 20
64.7294468995
 10
138.7733022778
 20
64.7992753811
 10
138.6575820642
 20
64.8706719957
 10
138.5428924234
 20
64.9433792365
 10
138.429573836
 20
65.0171602948
 10
138.3173066691
 20
65.0922080429
 10
138.2055183569
 20
65.1689161556
 10
138.0938710626
 20
65.2475423452
 10
137.9827612287
 20
65.3278399041
 10
137.8727181055
 20
65.4094476828
 10
137.7632917476
 20
65.4927218064
 10
137.6549658417
 20
65.5772825278
 10
137.5495999583
 20
65.6615836641
 10
137.4481807242
 20
65.744716739
 10
137.3496123491
 20
65.8274145608
 10
137.2526098098
 20
65.9105747419
 10
137.1571375584
 20
65.9941687515
 10
137.0632126426
 20
66.0781667195
 10
136.9696989094
 20
66.1635428023
 10
136.8760753212
 20
66.2508232879
 10
136.7829265422
 20
66.3395077256
 10
136.6907922836
 20
66.4290500724
 10
136.6000286803
 20
66.5191105852
 10
136.5102888503
 20
66.6100007227
 10
136.4210572592
 20
66.7021530449
 10
136.3321287879
 20
66.7958270956
 10
136.2437676518
 20
66.8907779984
 10
136.1561722713
 20
66.9866958008
 10
136.0692207242
 20
67.083673102
 10
135.9830788174
 20
67.1816222538
 10
135.8983456843
 20
67.2799389916
 10
135.8152029767
 20
67.3784077914
 10
135.7334400423
 20
67.4772251816
 10
135.6530415666
 20
67.5763887545
  0
LWPOLYLINE
  5
2D0
100
AcDbEntity
  8
0
100
AcDbPolyline
 62
253
  6
CONTINUOUS
 90
8
 70
0
 10
156.4661045218
 20
57.6282330179
 10
156.4522821734
 20
57.6307958873
 10
156.4297378324
 20
57.6366871064
 10
156.3986858525
 20
57.645850626
 10
156.3594214828
 20
57.6581992809
 10
156.3123180605
 20
57.6736156183
 10
156.2578234606
 20
57.6919530142
 10
156.1964558374
 20
57.7130370673
  0
LINE
  5
2D1
100
AcDbEntity
  8
0
100
AcDbLine
 62
253
  6
CONTINUOUS
 10
157.553584266
 20
62.4998605443
 11
157.3390384692
 21
62.5635418749
  0
LWPOLYLINE
  5
2D2
100
AcDbEntity
  8
0
100
AcDbPolyline
 62
253
  6
CONTINUOUS
 90
3
 70
0
 10
157.7948057358
 20
62.4265350359
 10
157.7405564793
 20
62.443247735
 10
157.553584266
 20
62.4998605443
  0
LINE
  5
2D3
100
AcDbEntity
  8
0
100
AcDbLine
 62
253
  6
CONTINUOUS
 10
156.1964558374
 20
57.7130370673
 11
156.05549535
 21
57.7626188506
  0
LWPOLYLINE
  5
2D4
100
AcDbEntity
  8
0
100
AcDbPolyline
 62
253
  6
CONTINUOUS
 90
3
 70
0
 10
156.05549535
 20
57.7626188506
 10
155.8947850802
 20
57.820479282
 10
155.8089062531
 20
57.8518378474
  0
LINE
  5
2D5
100
AcDbEntity
  8
0
100
AcDbLine
 62
253
  6
CONTINUOUS
 10
156.4661394518
 20
57.6283250278
 11
156.7117393056
 21
57.5352137017
  0
LWPOLYLINE
  5
2D6
100
AcDbEntity
  8
0
100
AcDbPolyline
 62
253
  6
CONTINUOUS
 90
8
 70
0
 10
158.0385468457
 20
62.3457072522
 10
158.0286152607
 20
62.3500027163
 10
158.0125094218
 20
62.3560640571
 10
157.9903343377
 20
62.3638517551
 10
157.9622345881
 20
62.3733150352
 10
157.928393381
 20
62.3843921976
 10
157.8890313582
 20
62.3970110201
 10
157.7948057358
 20
62.4265350359
  0
LINE
  5
2D7
100
AcDbEntity
  8
0
100
AcDbLine
 62
7
  6
CONTINUOUS
 10
146.2585083496
 20
74.3245688179
 11
146.0889201849
 21
74.2869217634
  0
LINE
  5
2D8
100
AcDbEntity
  8
0
100
AcDbLine
 62
7
  6
CONTINUOUS
 10
142.558838589
 20
74.7809158752
 11
142.7284267524
 21
74.8185629292
  0
LINE
  5
2D9
100
AcDbEntity
  8
0
100
AcDbLine
 62
7
  6
CONTINUOUS
 10
146.0889201849
 20
74.2869217634
 11
145.9164795768
 21
74.2491743687
  0
LINE
  5
2DA
100
AcDbEntity
  8
0
100
AcDbLine
 62
7
  6
CONTINUOUS
 10
142.7284267524
 20
74.8185629292
 11
142.9008673623
 21
74.8563103242
  0
LINE
  5
2DB
100
AcDbEntity
  8
0
100
AcDbLine
 62
7
  6
CONTINUOUS
 10
145.9164795768
 20
74.2491743687
 11
145.7424327632
 21
74.2116107608
  0
LINE
  5
2DC
100
AcDbEntity
  8
0
100
AcDbLine
 62
7
  6
CONTINUOUS
 10
142.9008673623
 20
74.8563103242
 11
143.0749141809
 21
74.8938739331
  0
LINE
  5
2DD
100
AcDbEntity
  8
0
100
AcDbLine
 62
7
  6
CONTINUOUS
 10
145.7424327632
 20
74.2116107608
 11
145.6143917046
 21
74.1843153746
  0
LINE
  5
2DE
100
AcDbEntity
  8
0
100
AcDbLine
 62
7
  6
CONTINUOUS
 10
143.0749141809
 20
74.8938739331
 11
143.202955232
 21
74.9211693178
  0
LWPOLYLINE
  5
2DF
100
AcDbEntity
  8
0
100
AcDbPolyline
 62
253
  6
CONTINUOUS
 90
3
 70
0
 10
128.6435017232
 20
73.9678753951
 10
128.6262165485
 20
73.9660121201
 10
128.6155841545
 20
73.9647015328
  0
LINE
  5
2E0
100
AcDbEntity
  8
0
100
AcDbLine
 62
253
  6
CONTINUOUS
 10
128.6975205992
 20
73.9732194446
 11
128.6435017232
 21
73.9678753951
  0
LINE
  5
2E1
100
AcDbEntity
  8
0
100
AcDbLine
 62
253
  6
CONTINUOUS
 10
128.8241157307
 20
73.984985793
 11
128.6975205992
 21
73.9732194446
  0
LINE
  5
2E2
100
AcDbEntity
  8
0
100
AcDbLine
 62
253
  6
CONTINUOUS
 10
129.1357378636
 20
74.0125912835
 11
128.8241157307
 21
73.984985793
  0
LINE
  5
2E3
100
AcDbEntity
  8
0
100
AcDbLine
 62
253
  6
CONTINUOUS
 10
129.6077103999
 20
74.0527423469
 11
129.1357378636
 21
74.0125912835
  0
LINE
  5
2E4
100
AcDbEntity
  8
0
100
AcDbLine
 62
253
  6
CONTINUOUS
 10
133.2087580632
 20
74.0527423469
 11
129.6077060993
 21
74.0528093019
  0
LINE
  5
2E5
100
AcDbEntity
  8
0
100
AcDbLine
 62
253
  6
CONTINUOUS
 10
159.2096396704
 20
74.0527909372
 11
155.6085888773
 21
74.0527423469
  0
LINE
  5
2E6
100
AcDbEntity
  8
0
100
AcDbLine
 62
7
  6
CONTINUOUS
 10
146.2585083496
 20
74.3245688179
 11
145.5536813925
 21
74.3245496069
  0
LINE
  5
2E7
100
AcDbEntity
  8
0
100
AcDbLine
 62
7
  6
CONTINUOUS
 10
143.2636655453
 20
74.7809350918
 11
142.558838589
 21
74.7809158752
  0
LINE
  5
2E8
100
AcDbEntity
  8
0
100
AcDbLine
 62
7
  6
CONTINUOUS
 10
143.2636338863
 20
74.3243890758
 11
142.5588152827
 21
74.3247578462
  0
LINE
  5
2E9
100
AcDbEntity
  8
0
100
AcDbLine
 62
7
  6
CONTINUOUS
 10
145.5537130525
 20
74.7810956181
 11
146.2585316561
 21
74.7807268477
  0
LINE
  5
2EA
100
AcDbEntity
  8
0
100
AcDbLine
 62
253
  6
CONTINUOUS
 10
159.2096365389
 20
74.0527423469
 11
160.149974124
 21
73.9697255321
  0
LWPOLYLINE
  5
2EB
100
AcDbEntity
  8
0
100
AcDbPolyline
 62
253
  6
CONTINUOUS
 90
3
 70
0
 10
160.149974124
 20
73.9697255321
 10
160.1911130002
 20
73.9658129177
 10
160.2017627843
 20
73.9647015328
  0
LINE
  5
2EC
100
AcDbEntity
  8
0
100
AcDbLine
 62
7
  6
CONTINUOUS
 10
143.2031605869
 20
74.1841731746
 11
143.0094618
 21
74.2257479188
  0
LINE
  5
2ED
100
AcDbEntity
  8
0
100
AcDbLine
 62
7
  6
CONTINUOUS
 10
145.9562162919
 20
74.8475062891
 11
145.6141863519
 21
74.9213115193
  0
LINE
  5
2EE
100
AcDbEntity
  8
0
100
AcDbLine
 62
7
  6
CONTINUOUS
 10
143.0094618
 20
74.2257479188
 11
142.7832633515
 21
74.2750391003
  0
LWPOLYLINE
  5
2EF
100
AcDbEntity
  8
0
100
AcDbPolyline
 62
7
  6
CONTINUOUS
 90
3
 70
0
 10
142.7832633515
 20
74.2750391003
 10
142.5925449976
 20
74.3172297455
 10
142.5588152827
 20
74.3247578462
  0
LINE
  5
2F0
100
AcDbEntity
  8
0
100
AcDbLine
 62
7
  6
CONTINUOUS
 10
146.2585316561
 20
74.7807268477
 11
145.9562162919
 21
74.8475062891
  0
LWPOLYLINE
  5
2F1
100
AcDbEntity
  8
0
100
AcDbPolyline
 62
7
  6
CONTINUOUS
 90
7
 70
0
 10
144.678145512
 20
73.3903467677
 10
144.6713411402
 20
73.3933719983
 10
144.6645035963
 20
73.3963470235
 10
144.65763288
 20
73.3992718433
 10
144.6507289914
 20
73.4021464576
 10
144.6437919306
 20
73.4049708666
 10
144.6368216975
 20
73.4077450701
  0
LWPOLYLINE
  5
2F2
100
AcDbEntity
  8
0
100
AcDbPolyline
 62
253
  6
CONTINUOUS
 90
55
 70
0
 10
135.6530415666
 20
67.5763887545
 10
135.5521466699
 20
67.7036815966
 10
135.4538126047
 20
67.8309202401
 10
135.3579877793
 20
67.9580849845
 10
135.2646532273
 20
68.0850540152
 10
135.1737352925
 20
68.2119072588
 10
135.0851214979
 20
68.338923874
 10
134.9989098099
 20
68.4659225257
 10
134.9149677668
 20
68.5930255611
 10
134.8328735352
 20
68.7209862682
 10
134.752440136
 20
68.8501459339
 10
134.6738879118
 20
68.9801525919
 10
134.5974213725
 20
69.1107207677
 10
134.523066369
 20
69.2417846183
 10
134.4507986001
 20
69.3733437023
 10
134.3807271401
 20
69.5051861831
 10
134.3128623034
 20
69.6372401799
 10
134.2471777513
 20
69.7695026189
 10
134.1837148448
 20
69.9018564724
 10
134.1220751771
 20
70.0351071657
 10
134.0626473552
 20
70.168380692
 10
134.0065400297
 20
70.298975392
 10
133.9537816387
 20
70.4264032822
 10
133.9040839587
 20
70.5509543415
 10
133.8579161098
 20
70.6710071502
 10
133.8154063449
 20
70.7856055317
 10
133.7760604272
 20
70.895482317
 10
133.7393943908
 20
71.0015440325
 10
133.7052402049
 20
71.1038373827
 10
133.673513216
 20
71.2021720643
 10
133.643909408
 20
71.2971280905
 10
133.6163215537
 20
71.3886763189
 10
133.5906574765
 20
71.4767415779
 10
133.5666723739
 20
71.561852785
 10
133.5442773495
 20
71.644011683
 10
133.5234064777
 20
71.7231413729
 10
133.50387757
 20
71.7996656096
 10
133.4856228394
 20
71.8735803627
 10
133.4685876253
 20
71.9448343514
 10
133.4526303221
 20
72.0137893012
 10
133.4376967389
 20
72.0804464809
 10
133.4237438007
 20
72.1447635283
 10
133.4106624753
 20
72.2070429843
 10
133.3984098119
 20
72.2672858305
 10
133.386950727
 20
72.3254601185
 10
133.3762000732
 20
72.3818234206
 10
133.3661235411
 20
72.4363772028
 10
133.3566923806
 20
72.4890963767
 10
133.3478391299
 20
72.5402018834
 10
133.3395370839
 20
72.5896947886
 10
133.3317616459
 20
72.6375557461
 10
133.3244559765
 20
72.6839773395
 10
133.3175977032
 20
72.7289615487
 10
133.3111675736
 20
72.7724918917
 10
133.3051197278
 20
72.8147354078
  0
LINE
  5
2F3
100
AcDbEntity
  8
0
100
AcDbLine
 62
253
  6
CONTINUOUS
 10
128.1586734694
 20
79.1027423469
 11
129.3936124212
 21
79.1027423469
  0
LINE
  5
2F4
100
AcDbEntity
  8
0
100
AcDbLine
 62
253
  6
CONTINUOUS
 10
159.4237345176
 20
79.1027423469
 11
160.6586734694
 21
79.1027423469
  0
LWPOLYLINE
  5
2F5
100
AcDbEntity
  8
0
100
AcDbPolyline
 62
7
  6
CONTINUOUS
 90
7
 70
0
 10
144.1392014268
 20
75.7151379262
 10
144.1460057985
 20
75.7121126956
 10
144.1528433425
 20
75.7091376704
 10
144.1597140588
 20
75.7062128506
 10
144.1666179474
 20
75.7033382362
 10
144.1735550082
 20
75.7005138273
 10
144.1805252413
 20
75.6977396238
  0
LINE
  5
2F6
100
AcDbEntity
  8
0
100
AcDbLine
 62
7
  6
CONTINUOUS
 10
144.6915328251
 20
73.4101478897
 11
144.6474958519
 21
73.4306360532
  0
LINE
  5
2F7
100
AcDbEntity
  8
0
100
AcDbLine
 62
7
  6
CONTINUOUS
 10
144.1258141137
 20
75.6953368041
 11
144.1698510869
 21
75.6748486407
  0
LWPOLYLINE
  5
2F8
100
AcDbEntity
  8
TRASH
100
AcDbPolyline
 62
7
  6
CONTINUOUS
 90
3
 70
0
 10
143.4344873036
 20
74.2449484115
 10
143.3377585639
 20
74.289906608
 10
143.2636761925
 20
74.3245941189
  0
LWPOLYLINE
  5
2F9
100
AcDbEntity
  8
TRASH
100
AcDbPolyline
 62
7
  6
CONTINUOUS
 90
3
 70
0
 10
145.3828596352
 20
74.8605362824
 10
145.4795883748
 20
74.8155780859
 10
145.5536707463
 20
74.780890575
  0
LINE
  5
2FA
100
AcDbEntity
  8
TRASH
100
AcDbLine
 62
7
  6
CONTINUOUS
 10
143.8889499855
 20
74.0330188631
 11
143.4344873036
 21
74.2449484115
  0
LINE
  5
2FB
100
AcDbEntity
  8
TRASH
100
AcDbLine
 62
7
  6
CONTINUOUS
 10
144.9283969532
 20
75.0724658308
 11
145.3828596352
 21
74.8605362824
  0
LINE
  5
2FC
100
AcDbEntity
  8
0
100
AcDbLine
 62
7
  6
CONTINUOUS
 10
143.8086734694
 20
73.9941275407
 11
143.8364198716
 21
73.9804887452
  0
LINE
  5
2FD
100
AcDbEntity
  8
0
100
AcDbLine
 62
7
  6
CONTINUOUS
 10
145.0086734694
 20
75.1113571532
 11
144.9809270671
 21
75.1249959487
  0
LINE
  5
2FE
100
AcDbEntity
  8
0
100
AcDbLine
 62
7
  6
CONTINUOUS
 10
143.7521772532
 20
73.8962461253
 11
143.6912229222
 21
73.9268165975
  0
LINE
  5
2FF
100
AcDbEntity
  8
0
100
AcDbLine
 62
7
  6
CONTINUOUS
 10
145.0651696856
 20
75.2092385685
 11
145.1261240166
 21
75.1786680964
  0
LINE
  5
300
100
AcDbEntity
  8
0
100
AcDbLine
 62
7
  6
CONTINUOUS
 10
143.6912229222
 20
73.9268165975
 11
143.61048331
 21
73.9678293405
  0
LINE
  5
301
100
AcDbEntity
  8
0
100
AcDbLine
 62
7
  6
CONTINUOUS
 10
145.1261240166
 20
75.1786680964
 11
145.2068636287
 21
75.1376553533
  0
LINE
  5
302
100
AcDbEntity
  8
0
100
AcDbLine
 62
7
  6
CONTINUOUS
 10
143.61048331
 20
73.9678293405
 11
143.510057214
 21
74.0195436446
  0
LINE
  5
303
100
AcDbEntity
  8
0
100
AcDbLine
 62
7
  6
CONTINUOUS
 10
145.2068636287
 20
75.1376553533
 11
145.3072897248
 21
75.0859410493
  0
LINE
  5
304
100
AcDbEntity
  8
0
100
AcDbLine
 62
7
  6
CONTINUOUS
 10
143.510057214
 20
74.0195436446
 11
143.3554639325
 21
74.1004565333
  0
LINE
  5
305
100
AcDbEntity
  8
0
100
AcDbLine
 62
7
  6
CONTINUOUS
 10
145.3072897248
 20
75.0859410493
 11
145.4618830063
 21
75.0050281606
  0
LWPOLYLINE
  5
306
100
AcDbEntity
  8
0
100
AcDbPolyline
 62
7
  6
CONTINUOUS
 90
3
 70
0
 10
143.3554639325
 20
74.1004565333
 10
143.2496287452
 20
74.1564876697
 10
143.2205115725
 20
74.1721633015
  0
LWPOLYLINE
  5
307
100
AcDbEntity
  8
0
100
AcDbPolyline
 62
7
  6
CONTINUOUS
 90
3
 70
0
 10
145.4618830063
 20
75.0050281606
 10
145.5677181935
 20
74.9489970242
 10
145.5968353663
 20
74.9333213923
  0
LINE
  5
308
100
AcDbEntity
  8
0
100
AcDbLine
 62
7
  6
CONTINUOUS
 10
143.2205115725
 20
74.1721633015
 11
143.2031605869
 21
74.1841731746
  0
LWPOLYLINE
  5
309
100
AcDbEntity
  8
0
100
AcDbPolyline
 62
253
  6
CONTINUOUS
 90
13
 70
0
 10
153.8125306593
 20
67.1806521237
 10
153.7580797157
 20
67.2192975145
 10
153.7027506882
 20
67.2575351098
 10
153.6468290862
 20
67.2951675955
 10
153.5906034769
 20
67.33200078
 10
153.5343639963
 20
67.3678445965
 10
153.478400852
 20
67.4025140832
 10
153.4230028254
 20
67.4358303384
 10
153.3684557822
 20
67.4676214432
 10
153.3150411964
 20
67.4977233487
 10
153.2630346985
 20
67.5259807229
 10
153.2127046531
 20
67.5522477517
 10
153.1643107739
 20
67.5763888917
  0
LWPOLYLINE
  5
30A
100
AcDbEntity
  8
0
100
AcDbPolyline
 62
253
  6
CONTINUOUS
 90
46
 70
0
 10
135.0048182351
 20
67.1806547359
 10
134.9183963153
 20
67.3255407474
 10
134.8347223702
 20
67.4702518142
 10
134.7537517644
 20
67.6147501874
 10
134.6754317596
 20
67.7589533398
 10
134.5997272873
 20
67.9028716832
 10
134.5266233132
 20
68.0466032033
 10
134.4562143549
 20
68.1898731357
 10
134.3883198561
 20
68.3328764015
 10
134.3225481413
 20
68.4764139702
 10
134.2587283356
 20
68.6208513262
 10
134.1970309816
 20
68.7657517111
 10
134.1375953978
 20
68.9107140427
 10
134.0804406413
 20
69.05565885
 10
134.0255082397
 20
69.2005917521
 10
133.9728001688
 20
69.3452428639
 10
133.9223094853
 20
69.4895482773
 10
133.8739919328
 20
69.6335085324
 10
133.8277839163
 20
69.7769603633
 10
133.7833867169
 20
69.9208130671
 10
133.7410677643
 20
70.0641056751
 10
133.7015041826
 20
70.2038891917
 10
133.6646625735
 20
70.3397742386
 10
133.6303126098
 20
70.4721352483
 10
133.598676864
 20
70.5991964551
 10
133.5697722441
 20
70.7200806155
 10
133.5432291263
 20
70.8356864577
 10
133.5186700157
 20
70.9469146171
 10
133.495938928
 20
71.0538915482
 10
133.4749553459
 20
71.1565160067
 10
133.4555034727
 20
71.255345015
 10
133.4374823001
 20
71.350404054
 10
133.4208075233
 20
71.4416907206
 10
133.4053200836
 20
71.5297166164
 10
133.3909401225
 20
71.6145243467
 10
133.3776044662
 20
71.6960904518
 10
133.365203401
 20
71.7748235518
 10
133.3536768385
 20
71.8507500568
 10
133.3429724134
 20
71.9238589362
 10
133.3330100708
 20
71.9944992081
 10
133.3237429016
 20
72.0626950742
 10
133.3151290896
 20
72.1284343769
 10
133.3071100684
 20
72.1920087346
 10
133.2996492553
 20
72.2534365345
 10
133.2927126209
 20
72.3127087423
 10
133.2862560492
 20
72.3700735796
  0
LWPOLYLINE
  5
30B
100
AcDbEntity
  8
0
100
AcDbPolyline
 62
253
  6
CONTINUOUS
 90
3
 70
0
 10
133.0084396897
 20
57.851837378
 10
132.9773613191
 20
57.9257871156
 10
132.947071681
 20
57.9994654089
  0
LWPOLYLINE
  5
30C
100
AcDbEntity
  8
0
100
AcDbPolyline
 62
253
  6
CONTINUOUS
 90
4
 70
0
 10
132.947071681
 20
57.9994654089
 10
132.8880619848
 20
58.1462187619
 10
132.859121591
 20
58.219192064
 10
132.8314485002
 20
58.2903693014
  0
LINE
  5
30D
100
AcDbEntity
  8
0
100
AcDbLine
 62
253
  6
CONTINUOUS
 10
132.8314485002
 20
58.2903693014
 11
132.7795775719
 21
58.4267183706
  0
LINE
  5
30E
100
AcDbEntity
  8
0
100
AcDbLine
 62
253
  6
CONTINUOUS
 10
132.3512045973
 20
57.6283326675
 11
132.2712024512
 21
57.84189459
  0
LINE
  5
30F
100
AcDbEntity
  8
0
100
AcDbLine
 62
253
  6
CONTINUOUS
 10
132.2712024512
 20
57.84189459
 11
132.1920053235
 21
58.0549975972
  0
LINE
  5
310
100
AcDbEntity
  8
0
100
AcDbLine
 62
253
  6
CONTINUOUS
 10
132.7795775719
 20
58.4267183706
 11
132.7329588925
 21
58.5521655542
  0
LINE
  5
311
100
AcDbEntity
  8
0
100
AcDbLine
 62
253
  6
CONTINUOUS
 10
132.1920053235
 20
58.0549975972
 11
132.1186701868
 21
58.2541091212
  0
LINE
  5
312
100
AcDbEntity
  8
0
100
AcDbLine
 62
253
  6
CONTINUOUS
 10
132.1186701868
 20
58.2541091212
 11
132.0546958967
 21
58.4293939017
  0
LINE
  5
313
100
AcDbEntity
  8
0
100
AcDbLine
 62
253
  6
CONTINUOUS
 10
132.0546958967
 20
58.4293939017
 11
131.9790733232
 21
58.6386932791
  0
LINE
  5
314
100
AcDbEntity
  8
0
100
AcDbLine
 62
253
  6
CONTINUOUS
 10
131.9790733232
 20
58.6386932791
 11
131.9045323808
 21
58.8474040113
  0
LINE
  5
315
100
AcDbEntity
  8
0
100
AcDbLine
 62
253
  6
CONTINUOUS
 10
131.9045323808
 20
58.8474040113
 11
131.848588815
 21
59.0056611513
  0
LINE
  5
316
100
AcDbEntity
  8
0
100
AcDbLine
 62
7
  6
CONTINUOUS
 10
145.6141863519
 20
74.9213115193
 11
145.5968353663
 21
74.9333213923
  0
LINE
  5
317
100
AcDbEntity
  8
0
100
AcDbLine
 62
7
  6
CONTINUOUS
 10
143.8889499852
 20
75.0724658311
 11
143.8364198887
 21
75.1249958433
  0
LINE
  5
318
100
AcDbEntity
  8
0
100
AcDbLine
 62
7
  6
CONTINUOUS
 10
144.9283969536
 20
74.0330188628
 11
144.9809270501
 21
73.9804888506
  0
LINE
  5
319
100
AcDbEntity
  8
0
100
AcDbLine
 62
7
  6
CONTINUOUS
 10
143.8086734694
 20
75.1527422051
 11
143.752177429
 21
75.209238225
  0
LINE
  5
31A
100
AcDbEntity
  8
0
100
AcDbLine
 62
7
  6
CONTINUOUS
 10
145.0086734694
 20
73.9527424888
 11
145.0651695098
 21
73.8962464689
  0
LINE
  5
31B
100
AcDbEntity
  8
0
100
AcDbLine
 62
253
  6
CONTINUOUS
 10
132.7329588925
 20
58.5521655542
 11
132.6912773578
 21
58.6664596714
  0
LINE
  5
31C
100
AcDbEntity
  8
0
100
AcDbLine
 62
253
  6
CONTINUOUS
 10
132.6912773578
 20
58.6664596714
 11
132.6536559928
 21
58.7717036544
  0
LINE
  5
31D
100
AcDbEntity
  8
0
100
AcDbLine
 62
253
  6
CONTINUOUS
 10
132.6536559928
 20
58.7717036544
 11
132.6176523901
 21
58.8743236837
  0
LINE
  5
31E
100
AcDbEntity
  8
0
100
AcDbLine
 62
253
  6
CONTINUOUS
 10
131.848588815
 20
59.0056611513
 11
131.775110099
 21
59.2156547154
  0
LINE
  5
31F
100
AcDbEntity
  8
0
100
AcDbLine
 62
253
  6
CONTINUOUS
 10
131.775110099
 20
59.2156547154
 11
131.7025580138
 21
59.4254166451
  0
LINE
  5
320
100
AcDbEntity
  8
0
100
AcDbLine
 62
253
  6
CONTINUOUS
 10
132.6176523901
 20
58.8743236837
 11
132.5462789145
 21
59.0809176023
  0
LINE
  5
321
100
AcDbEntity
  8
0
100
AcDbLine
 62
253
  6
CONTINUOUS
 10
131.7025580138
 20
59.4254166451
 11
131.6471166518
 21
59.5873731936
  0
LINE
  5
322
100
AcDbEntity
  8
0
100
AcDbLine
 62
253
  6
CONTINUOUS
 10
132.5462789145
 20
59.0809176023
 11
132.4567475856
 21
59.3423841101
  0
LINE
  5
323
100
AcDbEntity
  8
0
100
AcDbLine
 62
253
  6
CONTINUOUS
 10
131.6471166518
 20
59.5873731936
 11
131.5889304182
 21
59.7589442421
  0
LINE
  5
324
100
AcDbEntity
  8
0
100
AcDbLine
 62
253
  6
CONTINUOUS
 10
132.4567475856
 20
59.3423841101
 11
132.3862109247
 21
59.5505268101
  0
LINE
  5
325
100
AcDbEntity
  8
0
100
AcDbLine
 62
253
  6
CONTINUOUS
 10
131.5889304182
 20
59.7589442421
 11
131.5264668085
 21
59.9449977739
  0
LINE
  5
326
100
AcDbEntity
  8
0
100
AcDbLine
 62
253
  6
CONTINUOUS
 10
132.3862109247
 20
59.5505268101
 11
132.3334584348
 21
59.7081201365
  0
LINE
  5
327
100
AcDbEntity
  8
0
100
AcDbLine
 62
253
  6
CONTINUOUS
 10
131.5264668085
 20
59.9449977739
 11
131.4588820478
 21
60.1485523572
  0
LINE
  5
328
100
AcDbEntity
  8
0
100
AcDbLine
 62
253
  6
CONTINUOUS
 10
132.3334584348
 20
59.7081201365
 11
132.2792801785
 21
59.8718584149
  0
LINE
  5
329
100
AcDbEntity
  8
0
100
AcDbLine
 62
253
  6
CONTINUOUS
 10
131.4588820478
 20
60.1485523572
 11
131.3864408419
 21
60.369413089
  0
LINE
  5
32A
100
AcDbEntity
  8
0
100
AcDbLine
 62
253
  6
CONTINUOUS
 10
132.2792801785
 20
59.8718584149
 11
132.2220908115
 21
60.0468414151
  0
LINE
  5
32B
100
AcDbEntity
  8
0
100
AcDbLine
 62
253
  6
CONTINUOUS
 10
131.3864408419
 20
60.369413089
 11
131.3356479411
 21
60.5259762851
  0
LINE
  5
32C
100
AcDbEntity
  8
0
100
AcDbLine
 62
253
  6
CONTINUOUS
 10
132.2220908115
 20
60.0468414151
 11
132.1605457741
 21
60.2377166433
  0
LINE
  5
32D
100
AcDbEntity
  8
0
100
AcDbLine
 62
253
  6
CONTINUOUS
 10
131.3356479411
 20
60.5259762851
 11
131.2829722214
 21
60.6898687981
  0
LINE
  5
32E
100
AcDbEntity
  8
0
100
AcDbLine
 62
253
  6
CONTINUOUS
 10
132.1605457741
 20
60.2377166433
 11
132.1169359255
 21
60.3746576689
  0
LINE
  5
32F
100
AcDbEntity
  8
0
100
AcDbLine
 62
253
  6
CONTINUOUS
 10
131.2829722214
 20
60.6898687981
 11
131.2282415833
 21
60.8618417642
  0
LINE
  5
330
100
AcDbEntity
  8
0
100
AcDbLine
 62
253
  6
CONTINUOUS
 10
132.1169359255
 20
60.3746576689
 11
132.0713539057
 21
60.5192937674
  0
LINE
  5
331
100
AcDbEntity
  8
0
100
AcDbLine
 62
253
  6
CONTINUOUS
 10
131.2282415833
 20
60.8618417642
 11
131.1713859716
 21
61.0423632664
  0
LINE
  5
332
100
AcDbEntity
  8
0
100
AcDbLine
 62
253
  6
CONTINUOUS
 10
132.0713539057
 20
60.5192937674
 11
132.0239499831
 21
60.6713604601
  0
LINE
  5
333
100
AcDbEntity
  8
0
100
AcDbLine
 62
253
  6
CONTINUOUS
 10
131.1713859716
 20
61.0423632664
 11
131.1122506214
 21
61.2322044469
  0
LINE
  5
334
100
AcDbEntity
  8
0
100
AcDbLine
 62
253
  6
CONTINUOUS
 10
132.0239499831
 20
60.6713604601
 11
131.974805816
 21
60.8308310373
  0
LINE
  5
335
100
AcDbEntity
  8
0
100
AcDbLine
 62
253
  6
CONTINUOUS
 10
131.1122506214
 20
61.2322044469
 11
131.0506953064
 21
61.4321365428
  0
LINE
  5
336
100
AcDbEntity
  8
0
100
AcDbLine
 62
253
  6
CONTINUOUS
 10
131.974805816
 20
60.8308310373
 11
131.9239330555
 21
60.9979151072
  0
LINE
  5
337
100
AcDbEntity
  8
0
100
AcDbLine
 62
253
  6
CONTINUOUS
 10
131.0506953064
 20
61.4321365428
 11
130.9866713668
 21
61.6426850597
  0
LINE
  5
338
100
AcDbEntity
  8
0
100
AcDbLine
 62
253
  6
CONTINUOUS
 10
131.9239330555
 20
60.9979151072
 11
131.8712198629
 21
61.1732839452
  0
LINE
  5
339
100
AcDbEntity
  8
0
100
AcDbLine
 62
253
  6
CONTINUOUS
 10
130.9866713668
 20
61.6426850597
 11
130.9200709848
 21
61.864616796
  0
LINE
  5
33A
100
AcDbEntity
  8
0
100
AcDbLine
 62
253
  6
CONTINUOUS
 10
131.8712198629
 20
61.1732839452
 11
131.8165337999
 21
61.3577327987
  0
LINE
  5
33B
100
AcDbEntity
  8
0
100
AcDbLine
 62
253
  6
CONTINUOUS
 10
130.9200709848
 20
61.864616796
 11
130.8507575031
 21
62.0988562709
  0
LINE
  5
33C
100
AcDbEntity
  8
0
100
AcDbLine
 62
253
  6
CONTINUOUS
 10
131.8165337999
 20
61.3577327987
 11
131.7598393624
 21
61.5517726885
  0
LINE
  5
33D
100
AcDbEntity
  8
0
100
AcDbLine
 62
253
  6
CONTINUOUS
 10
130.8507575031
 20
62.0988562709
 11
130.7788000946
 21
62.3457072526
  0
LINE
  5
33E
100
AcDbEntity
  8
0
100
AcDbLine
 62
253
  6
CONTINUOUS
 10
131.7598393624
 20
61.5517726885
 11
131.7010515206
 21
61.7561730944
  0
LWPOLYLINE
  5
33F
100
AcDbEntity
  8
0
100
AcDbPolyline
 62
253
  6
CONTINUOUS
 90
37
 70
0
 10
130.7788000946
 20
62.3457072526
 10
130.6771418183
 20
62.7011662361
 10
130.5802070532
 20
63.047932514
 10
130.4878336585
 20
63.3859475589
 10
130.4001505797
 20
63.7140618515
 10
130.3167042433
 20
64.0333139633
 10
130.236518259
 20
64.3469460396
 10
130.1595979909
 20
64.6545216988
 10
130.0857458986
 20
64.9564102478
 10
130.013806719
 20
65.2570956967
 10
129.9436101664
 20
65.5572058676
 10
129.8752885819
 20
65.8560876888
 10
129.8082495678
 20
66.1563303319
 10
129.7423173838
 20
66.4588247019
 10
129.6777114415
 20
66.7626733805
 10
129.6144703368
 20
67.0677915194
 10
129.5525244306
 20
67.374603152
 10
129.4919801891
 20
67.6826749316
 10
129.4331179107
 20
67.9906310616
 10
129.3759579934
 20
68.2983233652
 10
129.3204684592
 20
68.6058806055
 10
129.2668149142
 20
68.9123353917
 10
129.2151087146
 20
69.2168907491
 10
129.1651906685
 20
69.5203185021
 10
129.1168270266
 20
69.8240054717
 10
129.070197082
 20
70.1267637716
 10
129.0251122088
 20
70.4297633879
 10
128.9808830086
 20
70.7379425884
 10
128.9376367959
 20
71.0509214631
 10
128.8953982455
 20
71.3690839265
 10
128.8534980925
 20
71.6985370622
 10
128.812047978
 20
72.0398735315
 10
128.7713152647
 20
72.3925260376
 10
128.7310477113
 20
72.7608812091
 10
128.6913900973
 20
73.1464154919
 10
128.6527988038
 20
73.547685151
 10
128.6155841545
 20
73.9647015327
  0
LINE
  5
340
100
AcDbEntity
  8
0
100
AcDbLine
 62
253
  6
CONTINUOUS
 10
131.7010515206
 20
61.7561730944
 11
131.6401118847
 21
61.971717158
  0
LINE
  5
341
100
AcDbEntity
  8
0
100
AcDbLine
 62
253
  6
CONTINUOUS
 10
131.6401118847
 20
61.971717158
 11
131.5770289355
 21
62.1989399399
  0
LWPOLYLINE
  5
342
100
AcDbEntity
  8
0
100
AcDbPolyline
 62
253
  6
CONTINUOUS
 90
3
 70
0
 10
131.5770289355
 20
62.1989399399
 10
131.5117280552
 20
62.438883277
 10
131.47830847
 20
62.563541875
  0
LINE
  5
343
100
AcDbEntity
  8
0
100
AcDbLine
 62
7
  6
CONTINUOUS
 10
144.1258140657
 20
73.4101479823
 11
144.1394093303
 21
73.3900392802
  0
LWPOLYLINE
  5
344
100
AcDbEntity
  8
0
100
AcDbPolyline
 62
7
  6
CONTINUOUS
 90
7
 70
0
 10
133.2088981858
 20
74.0424593566
 10
133.2963168618
 20
73.7384900591
 10
133.3909250503
 20
73.4385719603
 10
133.4927227512
 20
73.14270506
 10
133.6017099645
 20
72.8508893583
 10
133.7178866903
 20
72.5631248552
 10
133.8412529286
 20
72.2794115507
  0
LWPOLYLINE
  5
345
100
AcDbEntity
  8
0
100
AcDbPolyline
 62
253
  6
CONTINUOUS
 90
37
 70
0
 10
131.47830847
 20
62.563541875
 10
131.3858022779
 20
62.9175819805
 10
131.2979710808
 20
63.2628124466
 10
131.2146657917
 20
63.5992296049
 10
131.1360309166
 20
63.9257916136
 10
131.0616158412
 20
64.2435384751
 10
130.9904409624
 20
64.5555902841
 10
130.9225100045
 20
64.8615199081
 10
130.8576474492
 20
65.1617582385
 10
130.794743749
 20
65.4607022059
 10
130.7336747773
 20
65.758956383
 10
130.6745628448
 20
66.0558986755
 10
130.6167940406
 20
66.354074377
 10
130.5602570361
 20
66.6543611186
 10
130.5051589807
 20
66.9558564931
 10
130.4514113128
 20
67.2584464026
 10
130.3989877827
 20
67.5625775555
 10
130.3480057142
 20
67.8678029689
 10
130.2985658955
 20
68.1727024691
 10
130.2506965305
 20
68.4771872636
 10
130.2043993813
 20
68.7813899506
 10
130.1596891356
 20
69.0842638987
 10
130.1166615895
 20
69.3850937872
 10
130.0751992739
 20
69.6846800494
 10
130.0349997907
 20
69.9842769315
 10
129.996247725
 20
70.282775732
 10
129.9587740307
 20
70.5813848815
 10
129.9218634722
 20
70.884845905
 10
129.8857247532
 20
71.192842437
 10
129.8503637141
 20
71.5057961517
 10
129.8149793834
 20
71.8295809585
 10
129.7798139231
 20
72.1648953265
 10
129.7451216616
 20
72.5111994195
 10
129.7103407664
 20
72.8725858151
 10
129.6755632236
 20
73.2505422606
 10
129.6414357965
 20
73.6438954485
 10
129.6083337031
 20
74.0528092902
  0
LINE
  5
346
100
AcDbEntity
  8
0
100
AcDbLine
 62
7
  6
CONTINUOUS
 10
128.1586734694
 20
103.8027423469
 11
128.1586734694
 21
79.1027423469
  0
LWPOLYLINE
  5
347
100
AcDbEntity
  8
0
100
AcDbPolyline
 62
253
  6
CONTINUOUS
 90
6
 70
0
 10
155.6084516531
 20
74.042529457
 10
155.608510975
 20
74.0424795684
 10
155.6085557164
 20
74.0431304945
 10
155.6085858774
 20
74.0444822355
 10
155.6086014578
 20
74.0465347912
 10
155.6085888773
 20
74.0527423469
  0
LWPOLYLINE
  5
348
100
AcDbEntity
  8
0
100
AcDbPolyline
 62
253
  6
CONTINUOUS
 90
10
 70
0
 10
157.3390384688
 20
62.563541875
 10
156.9462713871
 20
63.0660598471
 10
156.5537099482
 20
63.5717901014
 10
156.161354152
 20
64.0804950223
 10
155.7691672287
 20
64.5919858154
 10
155.3771859481
 20
65.1059787381
 10
154.9855206199
 20
65.6220926093
 10
154.594208014
 20
66.1400420544
 10
154.2032113605
 20
66.6596399927
 10
153.8125306593
 20
67.1806521237
  0
LINE
  5
349
100
AcDbEntity
  8
0
100
AcDbLine
 62
7
  6
CONTINUOUS
 10
144.6915328731
 20
75.6953367116
 11
144.6779376018
 21
75.7154454236
  0
LINE
  5
34A
100
AcDbEntity
  8
0
100
AcDbLine
 62
7
  6
CONTINUOUS
 10
144.0273297236
 20
73.6010408783
 11
144.1258140657
 21
73.4101479823
  0
LINE
  5
34B
100
AcDbEntity
  8
0
100
AcDbLine
 62
7
  6
CONTINUOUS
 10
143.9547836622
 20
73.7433293596
 11
144.0273297236
 21
73.6010408783
  0
LINE
  5
34C
100
AcDbEntity
  8
0
100
AcDbLine
 62
7
  6
CONTINUOUS
 10
143.8086734694
 20
73.7841196997
 11
143.790097099
 21
73.8207901551
  0
LWPOLYLINE
  5
34D
100
AcDbEntity
  8
0
100
AcDbPolyline
 62
7
  6
CONTINUOUS
 90
3
 70
0
 10
143.790097099
 20
73.8207901551
 10
143.7617175813
 20
73.8770832533
 10
143.7521772532
 20
73.8962461253
  0
LINE
  5
34E
100
AcDbEntity
  8
0
100
AcDbLine
 62
7
  6
CONTINUOUS
 10
143.9070586546
 20
73.8380510728
 11
143.9547836622
 21
73.7433293596
  0
LINE
  5
34F
100
AcDbEntity
  8
0
100
AcDbLine
 62
7
  6
CONTINUOUS
 10
143.8598559243
 20
73.9328931101
 11
143.9070586546
 21
73.8380510728
  0
LINE
  5
350
100
AcDbEntity
  8
0
100
AcDbLine
 62
7
  6
CONTINUOUS
 10
143.8364198716
 20
73.9804887452
 11
143.8598559243
 21
73.9328931101
  0
LINE
  5
351
100
AcDbEntity
  8
0
100
AcDbLine
 62
253
  6
CONTINUOUS
 10
133.2680953222
 20
73.1097771923
 11
133.2613174014
 21
73.1731301568
  0
LINE
  5
352
100
AcDbEntity
  8
0
100
AcDbLine
 62
253
  6
CONTINUOUS
 10
133.2862560492
 20
72.3700735796
 11
133.2746689304
 21
72.4791183761
  0
LINE
  5
353
100
AcDbEntity
  8
0
100
AcDbLine
 62
253
  6
CONTINUOUS
 10
133.2613174014
 20
73.1731301568
 11
133.2553046881
 21
73.2328247153
  0
LINE
  5
354
100
AcDbEntity
  8
0
100
AcDbLine
 62
253
  6
CONTINUOUS
 10
133.2746689304
 20
72.4791183761
 11
133.2646515117
 21
72.581211505
  0
LINE
  5
355
100
AcDbEntity
  8
0
100
AcDbLine
 62
253
  6
CONTINUOUS
 10
133.2553046881
 20
73.2328247153
 11
133.2499625586
 21
73.2891399931
  0
LINE
  5
356
100
AcDbEntity
  8
0
100
AcDbLine
 62
253
  6
CONTINUOUS
 10
133.2646515117
 20
72.581211505
 11
133.2560036985
 21
72.6767665105
  0
LINE
  5
357
100
AcDbEntity
  8
0
100
AcDbLine
 62
253
  6
CONTINUOUS
 10
133.2499625586
 20
73.2891399931
 11
133.245210912
 21
73.3423140043
  0
LINE
  5
358
100
AcDbEntity
  8
0
100
AcDbLine
 62
253
  6
CONTINUOUS
 10
133.245210912
 20
73.3423140043
 11
133.2409860693
 21
73.392496245
  0
LINE
  5
359
100
AcDbEntity
  8
0
100
AcDbLine
 62
253
  6
CONTINUOUS
 10
133.2560036985
 20
72.6767665105
 11
133.2485402204
 21
72.7663536481
  0
LINE
  5
35A
100
AcDbEntity
  8
0
100
AcDbLine
 62
253
  6
CONTINUOUS
 10
133.2409860693
 20
73.392496245
 11
133.2372249707
 21
73.4399044326
  0
LINE
  5
35B
100
AcDbEntity
  8
0
100
AcDbLine
 62
253
  6
CONTINUOUS
 10
133.2485402204
 20
72.7663536481
 11
133.2420978857
 21
72.8504622977
  0
LINE
  5
35C
100
AcDbEntity
  8
0
100
AcDbLine
 62
253
  6
CONTINUOUS
 10
133.2372249707
 20
73.4399044326
 11
133.2323392662
 21
73.50619009
  0
LINE
  5
35D
100
AcDbEntity
  8
0
100
AcDbLine
 62
253
  6
CONTINUOUS
 10
133.2420978857
 20
72.8504622977
 11
133.2365438865
 21
72.9294051168
  0
LINE
  5
35E
100
AcDbEntity
  8
0
100
AcDbLine
 62
253
  6
CONTINUOUS
 10
133.2323392662
 20
73.50619009
 11
133.2282287734
 21
73.5671387025
  0
LINE
  5
35F
100
AcDbEntity
  8
0
100
AcDbLine
 62
253
  6
CONTINUOUS
 10
133.2365438865
 20
72.9294051168
 11
133.2317581258
 21
73.0036134946
  0
LINE
  5
360
100
AcDbEntity
  8
0
100
AcDbLine
 62
253
  6
CONTINUOUS
 10
133.2282287734
 20
73.5671387025
 11
133.22476829
 21
73.6232240713
  0
LINE
  5
361
100
AcDbEntity
  8
0
100
AcDbLine
 62
253
  6
CONTINUOUS
 10
133.2317581258
 20
73.0036134946
 11
133.2276393119
 21
73.0734504007
  0
LINE
  5
362
100
AcDbEntity
  8
0
100
AcDbLine
 62
253
  6
CONTINUOUS
 10
133.22476829
 20
73.6232240713
 11
133.2218545343
 21
73.6748710036
  0
LINE
  5
363
100
AcDbEntity
  8
0
100
AcDbLine
 62
253
  6
CONTINUOUS
 10
133.2276393119
 20
73.0734504007
 11
133.2241022181
 21
73.1391498969
  0
LINE
  5
364
100
AcDbEntity
  8
0
100
AcDbLine
 62
253
  6
CONTINUOUS
 10
133.2218545343
 20
73.6748710036
 11
133.2194014127
 21
73.7224612035
  0
LINE
  5
365
100
AcDbEntity
  8
0
100
AcDbLine
 62
253
  6
CONTINUOUS
 10
133.2241022181
 20
73.1391498969
 11
133.2210706488
 21
73.2010373437
  0
LINE
  5
366
100
AcDbEntity
  8
0
100
AcDbLine
 62
253
  6
CONTINUOUS
 10
133.2194014127
 20
73.7224612035
 11
133.2167238825
 21
73.7801987768
  0
LINE
  5
367
100
AcDbEntity
  8
0
100
AcDbLine
 62
253
  6
CONTINUOUS
 10
133.2210706488
 20
73.2010373437
 11
133.2173310444
 21
73.2872811756
  0
LINE
  5
368
100
AcDbEntity
  8
0
100
AcDbLine
 62
253
  6
CONTINUOUS
 10
133.2167238825
 20
73.7801987768
 11
133.2145983362
 21
73.8320606989
  0
LINE
  5
369
100
AcDbEntity
  8
0
100
AcDbLine
 62
253
  6
CONTINUOUS
 10
133.2173310444
 20
73.2872811756
 11
133.2143997552
 21
73.3662932182
  0
LINE
  5
36A
100
AcDbEntity
  8
0
100
AcDbLine
 62
253
  6
CONTINUOUS
 10
133.2145983362
 20
73.8320606989
 11
133.2129129558
 21
73.878704277
  0
LINE
  5
36B
100
AcDbEntity
  8
0
100
AcDbLine
 62
253
  6
CONTINUOUS
 10
133.2143997552
 20
73.3662932182
 11
133.212126754
 21
73.4387633632
  0
LINE
  5
36C
100
AcDbEntity
  8
0
100
AcDbLine
 62
253
  6
CONTINUOUS
 10
133.2129129558
 20
73.878704277
 11
133.2112992018
 21
73.9302639247
  0
LWPOLYLINE
  5
36D
100
AcDbEntity
  8
0
100
AcDbPolyline
 62
253
  6
CONTINUOUS
 90
8
 70
0
 10
133.2112992018
 20
73.9302639247
 10
133.2100533254
 20
73.9773329991
 10
133.2097102915
 20
73.986673287
 10
133.2094109412
 20
73.9960837665
 10
133.209402183
 20
74.0058294131
 10
133.2095997928
 20
74.015909765
 10
133.2097514103
 20
74.0261456362
 10
133.2096964839
 20
74.0364393343
  0
LINE
  5
36E
100
AcDbEntity
  8
0
100
AcDbLine
 62
253
  6
CONTINUOUS
 10
133.212126754
 20
73.4387633632
 11
133.2103898252
 21
73.5053018313
  0
LINE
  5
36F
100
AcDbEntity
  8
0
100
AcDbLine
 62
253
  6
CONTINUOUS
 10
133.2103898252
 20
73.5053018313
 11
133.2094796426
 21
73.5466474522
  0
LINE
  5
370
100
AcDbEntity
  8
0
100
AcDbLine
 62
253
  6
CONTINUOUS
 10
128.3975944373
 20
79.1027423469
 11
128.3975944373
 21
103.8027423469
  0
LINE
  5
371
100
AcDbEntity
  8
0
100
AcDbLine
 62
253
  6
CONTINUOUS
 10
129.3936124212
 20
79.1027423469
 11
129.3936124212
 21
104.3027423469
  0
LWPOLYLINE
  5
372
100
AcDbEntity
  8
0
100
AcDbPolyline
 62
253
  6
CONTINUOUS
 90
19
 70
0
 10
128.3975944373
 20
103.8027423469
 10
128.3994895119
 20
103.8463202183
 10
128.4051603129
 20
103.8895664358
 10
128.4145636822
 20
103.9321518695
 10
128.4276280544
 20
103.9737524186
 10
128.4442540018
 20
104.0140514778
 10
128.4643149909
 20
104.0527423469
 10
128.4876583454
 20
104.0895305651
 10
128.5141064083
 20
104.1241361518
 10
128.543457894
 20
104.1562957375
 10
128.5754894197
 20
104.1857645685
 10
128.6099572064
 20
104.2123183691
 10
128.6465989333
 20
104.2357550488
 10
128.6851357347
 20
104.2558962405
 10
128.7252743224
 20
104.2725886573
 10
128.7667092175
 20
104.2857052601
 10
128.8091250753
 20
104.2951462234
 10
128.8521990857
 20
104.300839696
 10
128.8956034292
 20
104.3027423469
  0
LWPOLYLINE
  5
373
100
AcDbEntity
  8
0
100
AcDbPolyline
 62
7
  6
CONTINUOUS
 90
10
 70
0
 10
151.2817697002
 20
97.3059097243
 10
151.2973015159
 20
97.3090403343
 10
151.3129577548
 20
97.3139529166
 10
151.3287384171
 20
97.3206474711
 10
151.344635685
 20
97.3293699118
 10
151.3606573761
 20
97.3398743247
 10
151.3768269442
 20
97.3514229682
 10
151.3931280353
 20
97.363959903
 10
151.4095770033
 20
97.3775410684
 10
151.4431666205
 20
97.4058865025
  0
LINE
  5
374
100
AcDbEntity
  8
0
100
AcDbLine
 62
7
  6
CONTINUOUS
 10
137.7982584694
 20
95.4153393469
 11
138.5339754694
 21
95.4153393469
  0
LINE
  5
375
100
AcDbEntity
  8
0
100
AcDbLine
 62
7
  6
CONTINUOUS
 10
140.1293954694
 20
95.4153393469
 11
140.9642504694
 21
95.4153393469
  0
LINE
  5
376
100
AcDbEntity
  8
0
100
AcDbLine
 62
7
  6
CONTINUOUS
 10
141.4136794694
 20
95.4153393469
 11
142.2123634694
 21
95.4153393469
  0
LINE
  5
377
100
AcDbEntity
  8
0
100
AcDbLine
 62
7
  6
CONTINUOUS
 10
143.3719114694
 20
95.4153393469
 11
143.4889994694
 21
95.4153393469
  0
LINE
  5
378
100
AcDbEntity
  8
0
100
AcDbLine
 62
7
  6
CONTINUOUS
 10
144.6531664694
 20
95.4153393469
 11
145.4698764694
 21
95.4153393469
  0
LINE
  5
379
100
AcDbEntity
  8
0
100
AcDbLine
 62
7
  6
CONTINUOUS
 10
145.6009704694
 20
95.4153393469
 11
146.4267684694
 21
95.4153393469
  0
LINE
  5
37A
100
AcDbEntity
  8
0
100
AcDbLine
 62
7
  6
CONTINUOUS
 10
148.0103414694
 20
95.4153393469
 11
148.8902444694
 21
95.4153393469
  0
LINE
  5
37B
100
AcDbEntity
  8
0
100
AcDbLine
 62
7
  6
CONTINUOUS
 10
149.1353981496
 20
95.415339235
 11
149.9668940606
 21
95.415339235
  0
LINE
  5
37C
100
AcDbEntity
  8
0
100
AcDbLine
 62
7
  6
CONTINUOUS
 10
151.2453595128
 20
95.415339235
 11
152.0483930945
 21
95.415339235
  0
LINE
  5
37D
100
AcDbEntity
  8
0
100
AcDbLine
 62
7
  6
CONTINUOUS
 10
146.6571364694
 20
96.2137843469
 11
147.7940694694
 21
96.2137843469
  0
LINE
  5
37E
100
AcDbEntity
  8
0
100
AcDbLine
 62
7
  6
CONTINUOUS
 10
147.6272244694
 20
96.8316173469
 11
146.8279104694
 21
96.8316173469
  0
LINE
  5
37F
100
AcDbEntity
  8
0
100
AcDbLine
 62
7
  6
CONTINUOUS
 10
149.9668940606
 20
96.9805274152
 11
150.414523424
 21
96.9805274152
  0
LINE
  5
380
100
AcDbEntity
  8
0
100
AcDbLine
 62
7
  6
CONTINUOUS
 10
150.416322939
 20
97.6355508857
 11
149.9392115211
 21
97.6355508857
  0
LWPOLYLINE
  5
381
100
AcDbEntity
  8
0
100
AcDbPolyline
 62
7
  6
CONTINUOUS
 90
16
 70
0
 10
150.414523424
 20
96.9805274152
 10
150.4559095819
 20
96.9785667757
 10
150.4955378704
 20
96.9737798843
 10
150.5334082897
 20
96.966166741
 10
150.5693286113
 20
96.9558068969
 10
150.6034910637
 20
96.942620801
 10
150.6364723316
 20
96.9263697998
 10
150.6683383135
 20
96.9072095188
 10
150.6990231109
 20
96.8849843325
 10
150.7289057129
 20
96.8589887117
 10
150.7585500529
 20
96.8287764581
 10
150.7873921975
 20
96.7947937699
 10
150.8141193353
 20
96.7576737123
 10
150.8382938627
 20
96.7176273071
 10
150.8603533833
 20
96.6744435326
 10
150.8802978973
 20
96.6281223887
  0
LINE
  5
382
100
AcDbEntity
  8
0
100
AcDbLine
 62
7
  6
CONTINUOUS
 10
144.7900172152
 20
75.5044438156
 11
144.6915328731
 21
75.6953367116
  0
LINE
  5
383
100
AcDbEntity
  8
0
100
AcDbLine
 62
7
  6
CONTINUOUS
 10
144.8625632766
 20
75.3621553343
 11
144.7900172152
 21
75.5044438156
  0
LINE
  5
384
100
AcDbEntity
  8
0
100
AcDbLine
 62
7
  6
CONTINUOUS
 10
145.0086734694
 20
75.3213649942
 11
145.0272498398
 21
75.2846945387
  0
LINE
  5
385
100
AcDbEntity
  8
0
100
AcDbLine
 62
7
  6
CONTINUOUS
 10
144.9102882842
 20
75.2674336211
 11
144.8625632766
 21
75.3621553343
  0
LWPOLYLINE
  5
386
100
AcDbEntity
  8
0
100
AcDbPolyline
 62
7
  6
CONTINUOUS
 90
3
 70
0
 10
145.0272498398
 20
75.2846945387
 10
145.0556293575
 20
75.2284014406
 10
145.0651696856
 20
75.2092385685
  0
LINE
  5
387
100
AcDbEntity
  8
0
100
AcDbLine
 62
7
  6
CONTINUOUS
 10
144.9574910145
 20
75.1725915837
 11
144.9102882842
 21
75.2674336211
  0
LINE
  5
388
100
AcDbEntity
  8
0
100
AcDbLine
 62
7
  6
CONTINUOUS
 10
144.9809270671
 20
75.1249959487
 11
144.9574910145
 21
75.1725915837
  0
LINE
  5
389
100
AcDbEntity
  8
0
100
AcDbLine
 62
7
  6
CONTINUOUS
 10
143.2865671824
 20
74.7915647195
 11
143.2205116645
 21
74.9333214415
  0
LINE
  5
38A
100
AcDbEntity
  8
0
100
AcDbLine
 62
7
  6
CONTINUOUS
 10
145.5307797564
 20
74.3139199744
 11
145.5968352742
 21
74.1721632524
  0
LWPOLYLINE
  5
38B
100
AcDbEntity
  8
TRASH
100
AcDbPolyline
 62
7
  6
CONTINUOUS
 90
3
 70
0
 10
144.1805252513
 20
73.4077450768
 10
144.12287466
 20
73.5311310683
 10
143.9355427055
 20
73.9330622676
  0
LWPOLYLINE
  5
38C
100
AcDbEntity
  8
TRASH
100
AcDbPolyline
 62
7
  6
CONTINUOUS
 90
3
 70
0
 10
144.6368216875
 20
75.6977396171
 10
144.6944722788
 20
75.5743536256
 10
144.8818042332
 20
75.1724224263
  0
LINE
  5
38D
100
AcDbEntity
  8
TRASH
100
AcDbLine
 62
7
  6
CONTINUOUS
 10
143.9355427055
 20
73.9330622676
 11
143.8889499855
 21
74.0330188631
  0
LINE
  5
38E
100
AcDbEntity
  8
TRASH
100
AcDbLine
 62
7
  6
CONTINUOUS
 10
144.8818042332
 20
75.1724224263
 11
144.9283969532
 21
75.0724658308
  0
LINE
  5
38F
100
AcDbEntity
  8
0
100
AcDbLine
 62
7
  6
CONTINUOUS
 10
143.2636761993
 20
74.7808905651
 11
143.202955232
 21
74.9211693178
  0
LINE
  5
390
100
AcDbEntity
  8
0
100
AcDbLine
 62
7
  6
CONTINUOUS
 10
145.5536707395
 20
74.3245941288
 11
145.6143917046
 21
74.1843153746
  0
LINE
  5
391
100
AcDbEntity
  8
0
100
AcDbLine
 62
253
  6
CONTINUOUS
 10
133.3051197278
 20
72.8147354078
 11
133.2941009499
 21
72.8953574896
  0
LWPOLYLINE
  5
392
100
AcDbEntity
  8
0
100
AcDbPolyline
 62
253
  6
CONTINUOUS
 90
9
 70
0
 10
136.4674245724
 20
54.5799517388
 10
136.4656564869
 20
54.5937132641
 10
136.4645167984
 20
54.6165546626
 10
136.4640160697
 20
54.6482642299
 10
136.4641589413
 20
54.6885480674
 10
136.4649440885
 20
54.7370328061
 10
136.4663642339
 20
54.7932690676
 10
136.4684062144
 20
54.8567356285
 10
136.4710511034
 20
54.9268442519
  0
LINE
  5
393
100
AcDbEntity
  8
0
100
AcDbLine
 62
253
  6
CONTINUOUS
 10
133.2941009499
 20
72.8953574896
 11
133.2843543806
 21
72.9712230745
  0
LINE
  5
394
100
AcDbEntity
  8
0
100
AcDbLine
 62
253
  6
CONTINUOUS
 10
133.2843543806
 20
72.9712230745
 11
133.275733972
 21
73.0425760415
  0
LINE
  5
395
100
AcDbEntity
  8
0
100
AcDbLine
 62
253
  6
CONTINUOUS
 10
133.275733972
 20
73.0425760415
 11
133.2680953222
 21
73.1097771923
  0
LINE
  5
396
100
AcDbEntity
  8
0
100
AcDbLine
 62
253
  6
CONTINUOUS
 10
133.2094796426
 20
73.5466474522
 11
133.2081430052
 21
73.6226968379
  0
LINE
  5
397
100
AcDbEntity
  8
0
100
AcDbLine
 62
253
  6
CONTINUOUS
 10
133.2081430052
 20
73.6226968379
 11
133.2073210874
 21
73.6908071684
  0
LINE
  5
398
100
AcDbEntity
  8
0
100
AcDbLine
 62
253
  6
CONTINUOUS
 10
133.2073210874
 20
73.6908071684
 11
133.2068885195
 21
73.7518688294
  0
LINE
  5
399
100
AcDbEntity
  8
0
100
AcDbLine
 62
253
  6
CONTINUOUS
 10
134.9086734694
 20
104.4027423469
 11
134.9086734694
 21
104.3027423469
  0
LINE
  5
39A
100
AcDbEntity
  8
0
100
AcDbLine
 62
7
  6
CONTINUOUS
 10
136.5303354694
 20
104.4027423469
 11
136.5303354694
 21
104.4527423469
  0
LINE
  5
39B
100
AcDbEntity
  8
0
100
AcDbLine
 62
253
  6
CONTINUOUS
 10
133.2068885195
 20
73.7518688294
 11
133.2067485828
 21
73.8194670391
  0
LWPOLYLINE
  5
39C
100
AcDbEntity
  8
0
100
AcDbPolyline
 62
253
  6
CONTINUOUS
 90
7
 70
0
 10
133.2087580632
 20
74.0527423469
 10
133.2087441787
 20
74.0492713062
 10
133.2087451895
 20
74.046503149
 10
133.2087610956
 20
74.0444378755
 10
133.208791897
 20
74.0430754856
 10
133.2088375937
 20
74.0424159793
 10
133.2088981858
 20
74.0424593566
  0
LINE
  5
39D
100
AcDbEntity
  8
0
100
AcDbLine
 62
253
  6
CONTINUOUS
 10
133.2067485828
 20
73.8194670391
 11
133.2069219501
 21
73.8786292479
  0
LINE
  5
39E
100
AcDbEntity
  8
0
100
AcDbLine
 62
253
  6
CONTINUOUS
 10
133.2069219501
 20
73.8786292479
 11
133.2073950888
 21
73.9397791529
  0
LINE
  5
39F
100
AcDbEntity
  8
0
100
AcDbLine
 62
253
  6
CONTINUOUS
 10
133.2073950888
 20
73.9397791529
 11
133.2081002053
 21
73.9961757251
  0
LINE
  5
3A0
100
AcDbEntity
  8
0
100
AcDbLine
 62
253
  6
CONTINUOUS
 10
133.2081002053
 20
73.9961757251
 11
133.2087704881
 21
74.0361196543
  0
LWPOLYLINE
  5
3A1
100
AcDbEntity
  8
0
100
AcDbPolyline
 62
7
  6
CONTINUOUS
 90
10
 70
0
 10
149.9392115211
 20
98.7334949886
 10
150.013359382
 20
98.7457960434
 10
150.0870628663
 20
98.7556786964
 10
150.160321974
 20
98.7631429476
 10
150.2330366849
 20
98.7681926259
 10
150.3053070192
 20
98.7708239024
 10
150.3774330376
 20
98.771025291
 10
150.4495147603
 20
98.7687929631
 10
150.5214521672
 20
98.7641307472
 10
150.5932452583
 20
98.7570386436
  0
LINE
  5
3A2
100
AcDbEntity
  8
0
100
AcDbLine
 62
7
  6
CONTINUOUS
 10
147.6630944694
 20
99.4148513469
 11
146.8554724694
 21
99.4148513469
  0
LINE
  5
3A3
100
AcDbEntity
  8
0
100
AcDbLine
 62
7
  6
CONTINUOUS
 10
145.0958764694
 20
99.4148513469
 11
144.2698694694
 21
99.4148513469
  0
LINE
  5
3A4
100
AcDbEntity
  8
0
100
AcDbLine
 62
7
  6
CONTINUOUS
 10
142.6089774694
 20
99.4148513469
 11
141.7748114694
 21
99.4148513469
  0
LINE
  5
3A5
100
AcDbEntity
  8
0
100
AcDbLine
 62
7
  6
CONTINUOUS
 10
139.8195784694
 20
99.4148513469
 11
138.9852934694
 21
99.4148513469
  0
LINE
  5
3A6
100
AcDbEntity
  8
0
100
AcDbLine
 62
7
  6
CONTINUOUS
 10
137.4372454694
 20
99.4148513469
 11
136.5303354694
 21
99.4148513469
  0
LINE
  5
3A7
100
AcDbEntity
  8
0
100
AcDbLine
 62
7
  6
CONTINUOUS
 10
140.9642504694
 20
99.4150913469
 11
140.1293954694
 21
99.4150913469
  0
LWPOLYLINE
  5
3A8
100
AcDbEntity
  8
0
100
AcDbPolyline
 62
7
  6
CONTINUOUS
 90
19
 70
0
 10
150.5932452583
 20
98.7570386436
 10
150.6393687651
 20
98.7495680288
 10
150.6836951242
 20
98.7390977429
 10
150.7262243353
 20
98.7256277858
 10
150.76733782
 20
98.7088381985
 10
150.8066541567
 20
98.68904894
 10
150.8430290819
 20
98.6672198875
 10
150.8759057339
 20
98.6437355499
 10
150.9058409743
 20
98.6182114183
 10
150.9333611241
 20
98.5904538425
 10
150.9586687131
 20
98.5603837142
 10
150.9815612114
 20
98.5280801417
 10
151.0019573507
 20
98.4935868
 10
151.0200859652
 20
98.456312898
 10
151.0357182207
 20
98.4168492267
 10
151.0480863454
 20
98.3770118349
 10
151.0569344155
 20
98.3374060721
 10
151.0625183549
 20
98.2974265887
 10
151.0648381635
 20
98.2570733847
  0
LINE
  5
3A9
100
AcDbEntity
  8
0
100
AcDbLine
 62
7
  6
CONTINUOUS
 10
136.5303354694
 20
99.4148513469
 11
137.7982584694
 21
95.4153393469
  0
LINE
  5
3AA
100
AcDbEntity
  8
0
100
AcDbLine
 62
7
  6
CONTINUOUS
 10
138.1996254694
 20
96.6618633469
 11
137.4372454694
 21
99.4148513469
  0
LINE
  5
3AB
100
AcDbEntity
  8
0
100
AcDbLine
 62
7
  6
CONTINUOUS
 10
137.7982584694
 20
104.4027423469
 11
137.7982584694
 21
104.4527423469
  0
LINE
  5
3AC
100
AcDbEntity
  8
0
100
AcDbLine
 62
7
  6
CONTINUOUS
 10
138.4086734694
 20
53.351425645
 11
138.4086734694
 21
54.0602425813
  0
LINE
  5
3AD
100
AcDbEntity
  8
0
100
AcDbLine
 62
7
  6
CONTINUOUS
 10
138.5339754694
 20
104.4027423469
 11
138.5339754694
 21
104.4527423469
  0
LINE
  5
3AE
100
AcDbEntity
  8
0
100
AcDbLine
 62
7
  6
CONTINUOUS
 10
139.3086734694
 20
51.8527423469
 11
139.3086734694
 21
52.4027423469
  0
LINE
  5
3AF
100
AcDbEntity
  8
0
100
AcDbLine
 62
7
  6
CONTINUOUS
 10
139.8195784694
 20
104.4027423469
 11
139.8195784694
 21
104.4527423469
  0
LINE
  5
3B0
100
AcDbEntity
  8
0
100
AcDbLine
 62
7
  6
CONTINUOUS
 10
140.1293954694
 20
99.4150913469
 11
140.1293954694
 21
95.4153393469
  0
LINE
  5
3B1
100
AcDbEntity
  8
0
100
AcDbLine
 62
7
  6
CONTINUOUS
 10
140.1293954694
 20
104.4027423469
 11
140.1293954694
 21
104.4527423469
  0
LINE
  5
3B2
100
AcDbEntity
  8
0
100
AcDbLine
 62
253
  6
CONTINUOUS
 10
136.4710511034
 20
54.9268442519
 11
136.4780461876
 21
55.0843329533
  0
LINE
  5
3B3
100
AcDbEntity
  8
0
100
AcDbLine
 62
253
  6
CONTINUOUS
 10
136.4780461876
 20
55.0843329533
 11
136.4870907483
 21
55.2599099934
  0
LINE
  5
3B4
100
AcDbEntity
  8
0
100
AcDbLine
 62
253
  6
CONTINUOUS
 10
136.4674249399
 20
54.579951694
 11
136.4499434588
 21
54.3169556471
  0
LINE
  5
3B5
100
AcDbEntity
  8
0
100
AcDbLine
 62
253
  6
CONTINUOUS
 10
160.6586734694
 20
103.8027423469
 11
128.1586734694
 21
103.8027423469
  0
LINE
  5
3B6
100
AcDbEntity
  8
0
100
AcDbLine
 62
7
  6
CONTINUOUS
 10
160.1586734694
 20
104.3027423469
 11
128.6586734694
 21
104.3027423469
  0
LINE
  5
3B7
100
AcDbEntity
  8
0
100
AcDbLine
 62
7
  6
CONTINUOUS
 10
141.2380391237
 20
104.3527423469
 11
141.7168931153
 21
104.3527423469
  0
LINE
  5
3B8
100
AcDbEntity
  8
0
100
AcDbLine
 62
7
  6
CONTINUOUS
 10
142.1256925609
 20
104.3527423469
 11
142.9734415796
 21
104.3527423469
  0
LINE
  5
3B9
100
AcDbEntity
  8
0
100
AcDbLine
 62
7
  6
CONTINUOUS
 10
143.060344651
 20
104.3527423469
 11
143.5649149802
 21
104.3527423469
  0
LINE
  5
3BA
100
AcDbEntity
  8
0
100
AcDbLine
 62
7
  6
CONTINUOUS
 10
143.6195962872
 20
104.3527423469
 11
144.4791713503
 21
104.3527423469
  0
LINE
  5
3BB
100
AcDbEntity
  8
0
100
AcDbLine
 62
7
  6
CONTINUOUS
 10
144.6503175524
 20
104.3527423469
 11
145.5122545746
 21
104.3527423469
  0
LINE
  5
3BC
100
AcDbEntity
  8
0
100
AcDbLine
 62
7
  6
CONTINUOUS
 10
145.660344651
 20
104.3527423469
 11
146.5080936697
 21
104.3527423469
  0
LINE
  5
3BD
100
AcDbEntity
  8
0
100
AcDbLine
 62
7
  6
CONTINUOUS
 10
146.6721452501
 20
104.3527423469
 11
147.5793077734
 21
104.3527423469
  0
LINE
  5
3BE
100
AcDbEntity
  8
0
100
AcDbLine
 62
7
  6
CONTINUOUS
 10
132.4394553202
 20
104.4027423469
 11
156.3778916186
 21
104.4027423469
  0
LINE
  5
3BF
100
AcDbEntity
  8
0
100
AcDbLine
 62
7
  6
CONTINUOUS
 10
136.5303354694
 20
104.4527423469
 11
139.8195784694
 21
104.4527423469
  0
LINE
  5
3C0
100
AcDbEntity
  8
0
100
AcDbLine
 62
7
  6
CONTINUOUS
 10
140.1293954694
 20
104.4527423469
 11
140.9642504694
 21
104.4527423469
  0
LINE
  5
3C1
100
AcDbEntity
  8
0
100
AcDbLine
 62
7
  6
CONTINUOUS
 10
141.4136794694
 20
104.4527423469
 11
145.4698764694
 21
104.4527423469
  0
LINE
  5
3C2
100
AcDbEntity
  8
0
100
AcDbLine
 62
7
  6
CONTINUOUS
 10
145.6009704694
 20
104.4527423469
 11
148.8902444694
 21
104.4527423469
  0
LINE
  5
3C3
100
AcDbEntity
  8
0
100
AcDbLine
 62
7
  6
CONTINUOUS
 10
149.1353981496
 20
104.4527423469
 11
152.0483930945
 21
104.4527423469
  0
LWPOLYLINE
  5
3C4
100
AcDbEntity
  8
0
100
AcDbPolyline
 62
7
  6
CONTINUOUS
 90
16
 70
0
 10
151.195692898
 20
99.3260153038
 10
151.0958776953
 20
99.3583531462
 10
150.9903621892
 20
99.3862013041
 10
150.8791463796
 20
99.4095597777
 10
150.761999519
 20
99.4282503923
 10
150.6391523549
 20
99.4424513225
 10
150.5112971302
 20
99.4526970917
 10
150.3786984643
 20
99.459202853
 10
150.2410917376
 20
99.4617534535
 10
150.0983753347
 20
99.4602379576
 10
149.9504847293
 20
99.4545235029
 10
149.7974844476
 20
99.444742952
 10
149.6394664525
 20
99.4311839565
 10
149.4764613983
 20
99.4139424006
 10
149.3084386306
 20
99.3929224003
 10
149.1353981496
 20
99.3681239554
  0
LINE
  5
3C5
100
AcDbEntity
  8
0
100
AcDbLine
 62
7
  6
CONTINUOUS
 10
142.3925254694
 20
98.0269453469
 11
143.3719114694
 21
95.4153393469
  0
LINE
  5
3C6
100
AcDbEntity
  8
0
100
AcDbLine
 62
7
  6
CONTINUOUS
 10
143.4350144694
 20
97.1943093469
 11
142.6089774694
 21
99.4148513469
  0
LINE
  5
3C7
100
AcDbEntity
  8
0
100
AcDbLine
 62
7
  6
CONTINUOUS
 10
145.4698764694
 20
95.4153393469
 11
145.0958764694
 21
99.4148513469
  0
LINE
  5
3C8
100
AcDbEntity
  8
0
100
AcDbLine
 62
7
  6
CONTINUOUS
 10
144.4816424694
 20
98.0160583469
 11
144.6531664694
 21
95.4153393469
  0
LINE
  5
3C9
100
AcDbEntity
  8
0
100
AcDbLine
 62
253
  6
CONTINUOUS
 10
144.4068578337
 20
62.584711926
 11
144.4072377785
 21
62.5113595647
  0
LWPOLYLINE
  5
3CA
100
AcDbEntity
  8
0
100
AcDbPolyline
 62
253
  6
CONTINUOUS
 90
3
 70
0
 10
144.404461578
 20
62.9894050837
 10
144.4058182698
 20
62.7969534871
 10
144.4068578337
 20
62.584711926
  0
LWPOLYLINE
  5
3CB
100
AcDbEntity
  8
0
100
AcDbPolyline
 62
253
  6
CONTINUOUS
 90
3
 70
0
 10
144.4072377785
 20
62.5113595647
 10
144.4083278677
 20
62.2891194723
 10
144.4086735574
 20
62.2156723667
  0
LINE
  5
3CC
100
AcDbEntity
  8
0
100
AcDbLine
 62
7
  6
CONTINUOUS
 10
144.1805645729
 20
73.1800178536
 11
144.1804807232
 21
73.4077344226
  0
LINE
  5
3CD
100
AcDbEntity
  8
0
100
AcDbLine
 62
7
  6
CONTINUOUS
 10
144.6368662086
 20
75.6977502699
 11
144.6367823611
 21
75.925466841
  0
LINE
  5
3CE
100
AcDbEntity
  8
0
100
AcDbLine
 62
7
  6
CONTINUOUS
 10
140.9642504694
 20
95.4153393469
 11
140.9642504694
 21
99.4150913469
  0
LINE
  5
3CF
100
AcDbEntity
  8
0
100
AcDbLine
 62
7
  6
CONTINUOUS
 10
140.9642504694
 20
104.4027423469
 11
140.9642504694
 21
104.4527423469
  0
LINE
  5
3D0
100
AcDbEntity
  8
0
100
AcDbLine
 62
7
  6
CONTINUOUS
 10
141.2380391237
 20
104.3027423469
 11
141.2380391237
 21
104.3527423469
  0
LINE
  5
3D1
100
AcDbEntity
  8
0
100
AcDbLine
 62
253
  6
CONTINUOUS
 10
141.4058316611
 20
104.3027423469
 11
141.4058316611
 21
104.3527423469
  0
LINE
  5
3D2
100
AcDbEntity
  8
0
100
AcDbLine
 62
7
  6
CONTINUOUS
 10
141.4136794694
 20
104.4027423469
 11
141.4136794694
 21
104.4527423469
  0
LINE
  5
3D3
100
AcDbEntity
  8
0
100
AcDbLine
 62
7
  6
CONTINUOUS
 10
141.557275131
 20
104.3027423469
 11
141.557275131
 21
104.3527423469
  0
LINE
  5
3D4
100
AcDbEntity
  8
0
100
AcDbLine
 62
7
  6
CONTINUOUS
 10
141.7168931153
 20
104.3027423469
 11
141.7168931153
 21
104.3527423469
  0
LINE
  5
3D5
100
AcDbEntity
  8
0
100
AcDbLine
 62
7
  6
CONTINUOUS
 10
142.1256925609
 20
104.3027423469
 11
142.1256925609
 21
104.3527423469
  0
LINE
  5
3D6
100
AcDbEntity
  8
0
100
AcDbLine
 62
7
  6
CONTINUOUS
 10
142.2123634694
 20
104.4027423469
 11
142.2123634694
 21
104.4527423469
  0
LINE
  5
3D7
100
AcDbEntity
  8
0
100
AcDbLine
 62
253
  6
CONTINUOUS
 10
142.253946721
 20
104.3027423469
 11
142.253946721
 21
104.3527423469
  0
LINE
  5
3D8
100
AcDbEntity
  8
0
100
AcDbLine
 62
7
  6
CONTINUOUS
 10
142.3925254694
 20
104.4027423469
 11
142.3925254694
 21
104.4527423469
  0
LINE
  5
3D9
100
AcDbEntity
  8
0
100
AcDbLine
 62
253
  6
CONTINUOUS
 10
142.5495670703
 20
104.3027423469
 11
142.5495670703
 21
104.3527423469
  0
LINE
  5
3DA
100
AcDbEntity
  8
0
100
AcDbLine
 62
253
  6
CONTINUOUS
 10
142.7854469997
 20
104.3027423469
 11
142.7854469997
 21
104.3527423469
  0
LINE
  5
3DB
100
AcDbEntity
  8
0
100
AcDbLine
 62
253
  6
CONTINUOUS
 10
142.9260440136
 20
104.3027423469
 11
142.9260440136
 21
104.3527423469
  0
LINE
  5
3DC
100
AcDbEntity
  8
0
100
AcDbLine
 62
7
  6
CONTINUOUS
 10
142.9734415796
 20
104.3027423469
 11
142.9734415796
 21
104.3527423469
  0
LINE
  5
3DD
100
AcDbEntity
  8
0
100
AcDbLine
 62
7
  6
CONTINUOUS
 10
143.060344651
 20
104.3027423469
 11
143.060344651
 21
104.3527423469
  0
LINE
  5
3DE
100
AcDbEntity
  8
0
100
AcDbLine
 62
7
  6
CONTINUOUS
 10
143.1889259126
 20
104.3027423469
 11
143.1889259126
 21
104.3527423469
  0
LINE
  5
3DF
100
AcDbEntity
  8
0
100
AcDbLine
 62
7
  6
CONTINUOUS
 10
143.3719114694
 20
104.4027423469
 11
143.3719114694
 21
104.4527423469
  0
LINE
  5
3E0
100
AcDbEntity
  8
0
100
AcDbLine
 62
7
  6
CONTINUOUS
 10
143.4889994694
 20
104.4027423469
 11
143.4889994694
 21
104.4527423469
  0
LINE
  5
3E1
100
AcDbEntity
  8
0
100
AcDbLine
 62
7
  6
CONTINUOUS
 10
143.5649149802
 20
104.3027423469
 11
143.5649149802
 21
104.3527423469
  0
LINE
  5
3E2
100
AcDbEntity
  8
0
100
AcDbLine
 62
7
  6
CONTINUOUS
 10
143.6198945787
 20
104.3027423469
 11
143.6198945787
 21
104.3527423469
  0
LINE
  5
3E3
100
AcDbEntity
  8
0
100
AcDbLine
 62
7
  6
CONTINUOUS
 10
143.8086734694
 20
71.9587171703
 11
143.8086734694
 21
73.9941275407
  0
LINE
  5
3E4
100
AcDbEntity
  8
0
100
AcDbLine
 62
7
  6
CONTINUOUS
 10
143.8086734694
 20
75.1113567834
 11
143.8086734694
 21
77.1467675235
  0
LINE
  5
3E5
100
AcDbEntity
  8
0
100
AcDbLine
 62
253
  6
CONTINUOUS
 10
144.4086734694
 20
54.8950437768
 11
144.4086734694
 21
54.3237820866
  0
LINE
  5
3E6
100
AcDbEntity
  8
0
100
AcDbLine
 62
7
  6
CONTINUOUS
 10
144.4086734694
 20
54.8950437717
 11
144.4086734694
 21
62.2156756669
  0
LINE
  5
3E7
100
AcDbEntity
  8
0
100
AcDbLine
 62
7
  6
CONTINUOUS
 10
144.4791713503
 20
104.3027423469
 11
144.4791713503
 21
104.3527423469
  0
LINE
  5
3E8
100
AcDbEntity
  8
0
100
AcDbLine
 62
7
  6
CONTINUOUS
 10
144.4816424694
 20
104.4027423469
 11
144.4816424694
 21
104.4527423469
  0
LINE
  5
3E9
100
AcDbEntity
  8
0
100
AcDbLine
 62
7
  6
CONTINUOUS
 10
144.6503175524
 20
104.3027423469
 11
144.6503175524
 21
104.3527423469
  0
LINE
  5
3EA
100
AcDbEntity
  8
0
100
AcDbLine
 62
7
  6
CONTINUOUS
 10
144.6531664694
 20
104.4027423469
 11
144.6531664694
 21
104.4527423469
  0
LINE
  5
3EB
100
AcDbEntity
  8
0
100
AcDbLine
 62
253
  6
CONTINUOUS
 10
144.7777913057
 20
104.3027423469
 11
144.7777913057
 21
104.3527423469
  0
LINE
  5
3EC
100
AcDbEntity
  8
0
100
AcDbLine
 62
7
  6
CONTINUOUS
 10
144.1803201983
 20
75.6977819301
 11
144.1806204801
 21
75.9254761293
  0
LINE
  5
3ED
100
AcDbEntity
  8
0
100
AcDbLine
 62
7
  6
CONTINUOUS
 10
144.6370267405
 20
73.4077027638
 11
144.6367264587
 21
73.1800085646
  0
LINE
  5
3EE
100
AcDbEntity
  8
0
100
AcDbLine
 62
7
  6
CONTINUOUS
 10
142.2123634694
 20
95.4153393469
 11
142.3925254694
 21
98.0269453469
  0
LINE
  5
3EF
100
AcDbEntity
  8
0
100
AcDbLine
 62
7
  6
CONTINUOUS
 10
141.7748114694
 20
99.4148513469
 11
141.4136794694
 21
95.4153393469
  0
LINE
  5
3F0
100
AcDbEntity
  8
0
100
AcDbLine
 62
7
  6
CONTINUOUS
 10
138.9852934694
 20
99.4148513469
 11
138.1996254694
 21
96.6618633469
  0
LINE
  5
3F1
100
AcDbEntity
  8
0
100
AcDbLine
 62
7
  6
CONTINUOUS
 10
138.5339754694
 20
95.4153393469
 11
139.8195784694
 21
99.4148513469
  0
LINE
  5
3F2
100
AcDbEntity
  8
0
100
AcDbLine
 62
7
  6
CONTINUOUS
 10
148.8902444694
 20
95.4153393469
 11
147.6630944694
 21
99.4148513469
  0
LINE
  5
3F3
100
AcDbEntity
  8
0
100
AcDbLine
 62
7
  6
CONTINUOUS
 10
147.7940694694
 20
96.2137843469
 11
148.0103414694
 21
95.4153393469
  0
LINE
  5
3F4
100
AcDbEntity
  8
0
100
AcDbLine
 62
7
  6
CONTINUOUS
 10
147.2435984694
 20
98.3158873469
 11
147.6272244694
 21
96.8316173469
  0
LINE
  5
3F5
100
AcDbEntity
  8
0
100
AcDbLine
 62
253
  6
CONTINUOUS
 10
152.3499223793
 20
54.5799517184
 11
152.36740348
 21
54.3169556471
  0
LINE
  5
3F6
100
AcDbEntity
  8
0
100
AcDbLine
 62
7
  6
CONTINUOUS
 10
145.0086734694
 20
77.1467675235
 11
145.0086734694
 21
75.1113571532
  0
LINE
  5
3F7
100
AcDbEntity
  8
0
100
AcDbLine
 62
7
  6
CONTINUOUS
 10
145.0086734694
 20
73.9941279105
 11
145.0086734694
 21
71.9587171703
  0
LINE
  5
3F8
100
AcDbEntity
  8
0
100
AcDbLine
 62
253
  6
CONTINUOUS
 10
145.0679846552
 20
104.3027423469
 11
145.0679846552
 21
104.3527423469
  0
LINE
  5
3F9
100
AcDbEntity
  8
0
100
AcDbLine
 62
253
  6
CONTINUOUS
 10
145.4097402674
 20
104.3027423469
 11
145.4097402674
 21
104.3527423469
  0
LINE
  5
3FA
100
AcDbEntity
  8
0
100
AcDbLine
 62
7
  6
CONTINUOUS
 10
145.4698764694
 20
104.4027423469
 11
145.4698764694
 21
104.4527423469
  0
LINE
  5
3FB
100
AcDbEntity
  8
0
100
AcDbLine
 62
7
  6
CONTINUOUS
 10
145.5122545746
 20
104.3027423469
 11
145.5122545746
 21
104.3527423469
  0
LINE
  5
3FC
100
AcDbEntity
  8
0
100
AcDbLine
 62
7
  6
CONTINUOUS
 10
145.6009704694
 20
104.4027423469
 11
145.6009704694
 21
104.4527423469
  0
LINE
  5
3FD
100
AcDbEntity
  8
0
100
AcDbLine
 62
7
  6
CONTINUOUS
 10
145.660344651
 20
104.3027423469
 11
145.660344651
 21
104.3527423469
  0
LINE
  5
3FE
100
AcDbEntity
  8
0
100
AcDbLine
 62
253
  6
CONTINUOUS
 10
145.7885988623
 20
104.3027423469
 11
145.7885988623
 21
104.3527423469
  0
LINE
  5
3FF
100
AcDbEntity
  8
0
100
AcDbLine
 62
253
  6
CONTINUOUS
 10
146.0842193153
 20
104.3027423469
 11
146.0842193153
 21
104.3527423469
  0
LINE
  5
400
100
AcDbEntity
  8
0
100
AcDbLine
 62
253
  6
CONTINUOUS
 10
146.3200990294
 20
104.3027423469
 11
146.3200990294
 21
104.3527423469
  0
LINE
  5
401
100
AcDbEntity
  8
0
100
AcDbLine
 62
7
  6
CONTINUOUS
 10
146.4267684694
 20
104.4027423469
 11
146.4267684694
 21
104.4527423469
  0
LINE
  5
402
100
AcDbEntity
  8
0
100
AcDbLine
 62
253
  6
CONTINUOUS
 10
146.460696174
 20
104.3027423469
 11
146.460696174
 21
104.3527423469
  0
LINE
  5
403
100
AcDbEntity
  8
0
100
AcDbLine
 62
7
  6
CONTINUOUS
 10
146.5080936697
 20
104.3027423469
 11
146.5080936697
 21
104.3527423469
  0
LINE
  5
404
100
AcDbEntity
  8
0
100
AcDbLine
 62
7
  6
CONTINUOUS
 10
146.6571364694
 20
104.4027423469
 11
146.6571364694
 21
104.4527423469
  0
LINE
  5
405
100
AcDbEntity
  8
0
100
AcDbLine
 62
7
  6
CONTINUOUS
 10
146.6721452501
 20
104.3027423469
 11
146.6721452501
 21
104.3527423469
  0
LINE
  5
406
100
AcDbEntity
  8
0
100
AcDbLine
 62
253
  6
CONTINUOUS
 10
146.7962927606
 20
104.3027423469
 11
146.7962927606
 21
104.3527423469
  0
LINE
  5
407
100
AcDbEntity
  8
0
100
AcDbLine
 62
253
  6
CONTINUOUS
 10
146.903591707
 20
104.3027423469
 11
146.903591707
 21
104.3527423469
  0
LINE
  5
408
100
AcDbEntity
  8
0
100
AcDbLine
 62
253
  6
CONTINUOUS
 10
147.0781181232
 20
104.3027423469
 11
147.0781181232
 21
104.3527423469
  0
LINE
  5
409
100
AcDbEntity
  8
0
100
AcDbLine
 62
253
  6
CONTINUOUS
 10
147.2315834216
 20
104.3027423469
 11
147.2315834216
 21
104.3527423469
  0
LINE
  5
40A
100
AcDbEntity
  8
0
100
AcDbLine
 62
253
  6
CONTINUOUS
 10
147.3336733129
 20
104.3027423469
 11
147.3336733129
 21
104.3527423469
  0
LINE
  5
40B
100
AcDbEntity
  8
0
100
AcDbLine
 62
253
  6
CONTINUOUS
 10
147.4640283782
 20
104.3027423469
 11
147.4640283782
 21
104.3527423469
  0
LINE
  5
40C
100
AcDbEntity
  8
0
100
AcDbLine
 62
7
  6
CONTINUOUS
 10
147.5793077734
 20
104.3027423469
 11
147.5793077734
 21
104.3527423469
  0
LINE
  5
40D
100
AcDbEntity
  8
0
100
AcDbLine
 62
7
  6
CONTINUOUS
 10
147.7940694694
 20
104.4027423469
 11
147.7940694694
 21
104.4527423469
  0
LINE
  5
40E
100
AcDbEntity
  8
0
100
AcDbLine
 62
7
  6
CONTINUOUS
 10
148.0103414694
 20
104.4027423469
 11
148.0103414694
 21
104.4527423469
  0
LINE
  5
40F
100
AcDbEntity
  8
0
100
AcDbLine
 62
7
  6
CONTINUOUS
 10
148.8902444694
 20
104.4027423469
 11
148.8902444694
 21
104.4527423469
  0
LINE
  5
410
100
AcDbEntity
  8
0
100
AcDbLine
 62
7
  6
CONTINUOUS
 10
149.1353981496
 20
99.3681239554
 11
149.1353981496
 21
95.415339235
  0
LINE
  5
411
100
AcDbEntity
  8
0
100
AcDbLine
 62
7
  6
CONTINUOUS
 10
149.1353981496
 20
104.4027423469
 11
149.1353981496
 21
104.4527423469
  0
LWPOLYLINE
  5
412
100
AcDbEntity
  8
0
100
AcDbPolyline
 62
253
  6
CONTINUOUS
 90
5
 70
0
 10
144.4086843957
 20
63.1989536635
 10
144.406746023
 20
63.1525344442
 10
144.4053587501
 20
63.1019483191
 10
144.4045305153
 20
63.0474726505
 10
144.404461578
 20
62.9894050837
  0
LINE
  5
413
100
AcDbEntity
  8
0
100
AcDbLine
 62
7
  6
CONTINUOUS
 10
144.2698694694
 20
99.4148513469
 11
143.4350144694
 21
97.1943093469
  0
LINE
  5
414
100
AcDbEntity
  8
0
100
AcDbLine
 62
7
  6
CONTINUOUS
 10
143.4889994694
 20
95.4153393469
 11
144.4816424694
 21
98.0160583469
  0
LINE
  5
415
100
AcDbEntity
  8
0
100
AcDbLine
 62
7
  6
CONTINUOUS
 10
150.8802033302
 20
96.6283740785
 11
150.8802978973
 21
96.6281223887
  0
LWPOLYLINE
  5
416
100
AcDbEntity
  8
0
100
AcDbPolyline
 62
7
  6
CONTINUOUS
 90
6
 70
0
 10
150.8802978973
 20
96.6281223887
 10
150.9221000829
 20
96.5060433341
 10
150.9631370539
 20
96.3806422006
 10
151.0034088104
 20
96.2519189883
 10
151.0423083273
 20
96.119669135
 10
151.119632792
 20
95.8458168782
  0
LWPOLYLINE
  5
417
100
AcDbEntity
  8
0
100
AcDbPolyline
 62
7
  6
CONTINUOUS
 90
3
 70
0
 10
151.119632792
 20
95.8458168782
 10
151.1604858391
 20
95.7050327231
 10
151.2453595128
 20
95.415339235
  0
LWPOLYLINE
  5
418
100
AcDbEntity
  8
0
100
AcDbPolyline
 62
7
  6
CONTINUOUS
 90
3
 70
0
 10
151.8614642781
 20
96.1287020063
 10
151.8291364724
 20
96.2507973574
 10
151.7629900109
 20
96.4978375006
  0
LINE
  5
419
100
AcDbEntity
  8
0
100
AcDbLine
 62
7
  6
CONTINUOUS
 10
152.0483930945
 20
95.415339235
 11
151.9865610963
 21
95.649655016
  0
LINE
  5
41A
100
AcDbEntity
  8
0
100
AcDbLine
 62
7
  6
CONTINUOUS
 10
151.9865610963
 20
95.649655016
 11
151.8614642781
 21
96.1287020063
  0
LWPOLYLINE
  5
41B
100
AcDbEntity
  8
0
100
AcDbPolyline
 62
7
  6
CONTINUOUS
 90
19
 70
0
 10
151.7629900109
 20
96.4978375006
 10
151.7464378085
 20
96.562774457
 10
151.7286279739
 20
96.6262757593
 10
151.7095605071
 20
96.6883414075
 10
151.6893353997
 20
96.7493682663
 10
151.6678526602
 20
96.808959471
 10
151.6448123132
 20
96.8659244278
 10
151.6199819895
 20
96.9202017123
 10
151.5935940585
 20
96.9718527488
 10
151.5660456523
 20
97.0198712161
 10
151.53732598
 20
97.0639945869
 10
151.5074458326
 20
97.1044853885
 10
151.4768347158
 20
97.1411248806
 10
151.4455212419
 20
97.1737427707
 10
151.4134767986
 20
97.2025093514
 10
151.3810450558
 20
97.2277167603
 10
151.3483405701
 20
97.2494623765
 10
151.3152487849
 20
97.267648821
 10
151.2817697002
 20
97.2822760936
  0
LINE
  5
41C
100
AcDbEntity
  8
0
100
AcDbLine
 62
253
  6
CONTINUOUS
 10
152.3393007893
 20
55.0843329562
 11
152.3302561901
 21
55.259909996
  0
LINE
  5
41D
100
AcDbEntity
  8
0
100
AcDbLine
 62
7
  6
CONTINUOUS
 10
149.5086734694
 20
52.4027423469
 11
149.5086734694
 21
51.8527423469
  0
LINE
  5
41E
100
AcDbEntity
  8
0
100
AcDbLine
 62
7
  6
CONTINUOUS
 10
149.9392115211
 20
97.6355508857
 11
149.9392115211
 21
98.7334949886
  0
LINE
  5
41F
100
AcDbEntity
  8
0
100
AcDbLine
 62
7
  6
CONTINUOUS
 10
149.9668940606
 20
95.415339235
 11
149.9668940606
 21
96.9805274152
  0
LINE
  5
420
100
AcDbEntity
  8
0
100
AcDbLine
 62
7
  6
CONTINUOUS
 10
149.9668940606
 20
104.4027423469
 11
149.9668940606
 21
104.4527423469
  0
LINE
  5
421
100
AcDbEntity
  8
0
100
AcDbLine
 62
7
  6
CONTINUOUS
 10
150.4086734694
 20
54.0602425813
 11
150.4086734694
 21
53.351425645
  0
LINE
  5
422
100
AcDbEntity
  8
0
100
AcDbLine
 62
253
  6
CONTINUOUS
 10
150.414523424
 20
104.4027423469
 11
150.414523424
 21
104.4527423469
  0
LINE
  5
423
100
AcDbEntity
  8
0
100
AcDbLine
 62
253
  6
CONTINUOUS
 10
150.8802978973
 20
104.4027423469
 11
150.8802978973
 21
104.4527423469
  0
LINE
  5
424
100
AcDbEntity
  8
0
100
AcDbLine
 62
7
  6
CONTINUOUS
 10
151.2453595128
 20
104.4027423469
 11
151.2453595128
 21
104.4527423469
  0
LINE
  5
425
100
AcDbEntity
  8
0
100
AcDbLine
 62
7
  6
CONTINUOUS
 10
151.2817697002
 20
97.2822760936
 11
151.2817697002
 21
97.3059097243
  0
LINE
  5
426
100
AcDbEntity
  8
0
100
AcDbLine
 62
7
  6
CONTINUOUS
 10
152.0483930945
 20
104.4027423469
 11
152.0483930945
 21
104.4527423469
  0
LWPOLYLINE
  5
427
100
AcDbEntity
  8
0
100
AcDbPolyline
 62
7
  6
CONTINUOUS
 90
22
 70
0
 10
151.0648381635
 20
98.2570733847
 10
151.0642872261
 20
98.2018002748
 10
151.0606125187
 20
98.1490808275
 10
151.0538140414
 20
98.0989150428
 10
151.0438545118
 20
98.0512796316
 10
151.0307712122
 20
98.0061978831
 10
151.0146759897
 20
97.9637396647
 10
150.9954452256
 20
97.9239293566
 10
150.9732025385
 20
97.8867425786
 10
150.9484306311
 20
97.8521760571
 10
150.9214885415
 20
97.8203070598
 10
150.8920172317
 20
97.7910583191
 10
150.8594222904
 20
97.7641947587
 10
150.8236901141
 20
97.7396098119
 10
150.7848343064
 20
97.7174100455
 10
150.7423012669
 20
97.6976800835
 10
150.6956268705
 20
97.6802920063
 10
150.6452752422
 20
97.6653737334
 10
150.5920851575
 20
97.6533936468
 10
150.5363362079
 20
97.6445078736
 10
150.4777488017
 20
97.6385602865
 10
150.416322939
 20
97.6355508857
  0
LINE
  5
428
100
AcDbEntity
  8
0
100
AcDbLine
 62
7
  6
CONTINUOUS
 10
144.1806204801
 20
75.9254761293
 11
144.1392014268
 21
75.7151379262
  0
LINE
  5
429
100
AcDbEntity
  8
0
100
AcDbLine
 62
7
  6
CONTINUOUS
 10
144.6367264587
 20
73.1800085646
 11
144.678145512
 21
73.3903467677
  0
LINE
  5
42A
100
AcDbEntity
  8
0
100
AcDbLine
 62
7
  6
CONTINUOUS
 10
146.8279104694
 20
96.8316173469
 11
147.2435984694
 21
98.3158873469
  0
LINE
  5
42B
100
AcDbEntity
  8
0
100
AcDbLine
 62
7
  6
CONTINUOUS
 10
146.4267684694
 20
95.4153393469
 11
146.6571364694
 21
96.2137843469
  0
LINE
  5
42C
100
AcDbEntity
  8
0
100
AcDbLine
 62
7
  6
CONTINUOUS
 10
146.8554724694
 20
99.4148513469
 11
145.6009704694
 21
95.4153393469
  0
LINE
  5
42D
100
AcDbEntity
  8
0
100
AcDbLine
 62
253
  6
CONTINUOUS
 10
155.608576603
 20
74.0362212901
 11
155.6093862701
 21
73.9867580788
  0
LINE
  5
42E
100
AcDbEntity
  8
0
100
AcDbLine
 62
253
  6
CONTINUOUS
 10
155.6093862701
 20
73.9867580788
 11
155.6100513601
 21
73.9302020499
  0
LINE
  5
42F
100
AcDbEntity
  8
0
100
AcDbLine
 62
253
  6
CONTINUOUS
 10
155.6100513601
 20
73.9302020499
 11
155.6104894899
 21
73.8667901437
  0
LINE
  5
430
100
AcDbEntity
  8
0
100
AcDbLine
 62
253
  6
CONTINUOUS
 10
153.9086734694
 20
104.4027423469
 11
153.9086734694
 21
104.3027423469
  0
LINE
  5
431
100
AcDbEntity
  8
0
100
AcDbLine
 62
253
  6
CONTINUOUS
 10
155.6104894899
 20
73.8667901437
 11
155.6106084785
 21
73.8054483667
  0
LINE
  5
432
100
AcDbEntity
  8
0
100
AcDbLine
 62
253
  6
CONTINUOUS
 10
155.6106084785
 20
73.8054483667
 11
155.610461519
 21
73.7501488694
  0
LWPOLYLINE
  5
433
100
AcDbEntity
  8
0
100
AcDbPolyline
 62
253
  6
CONTINUOUS
 90
7
 70
0
 10
155.6076562926
 20
74.0365394812
 10
155.6075962011
 20
74.0261821499
 10
155.607745336
 20
74.0159051841
 10
155.6079417678
 20
74.005807276
 10
155.6079327718
 20
73.9960774807
 10
155.6076341418
 20
73.9867067817
 10
155.6072920574
 20
73.9774019775
  0
LINE
  5
434
100
AcDbEntity
  8
0
100
AcDbLine
 62
253
  6
CONTINUOUS
 10
155.610461519
 20
73.7501488694
 11
155.6100175633
 21
73.688551664
  0
LINE
  5
435
100
AcDbEntity
  8
0
100
AcDbLine
 62
253
  6
CONTINUOUS
 10
155.6100175633
 20
73.688551664
 11
155.6091775577
 21
73.6198778917
  0
LINE
  5
436
100
AcDbEntity
  8
0
100
AcDbLine
 62
253
  6
CONTINUOUS
 10
155.6091775577
 20
73.6198778917
 11
155.6082126871
 21
73.5631907913
  0
LINE
  5
437
100
AcDbEntity
  8
0
100
AcDbLine
 62
253
  6
CONTINUOUS
 10
155.6082126871
 20
73.5631907913
 11
155.6068876879
 21
73.5015826133
  0
LINE
  5
438
100
AcDbEntity
  8
0
100
AcDbLine
 62
253
  6
CONTINUOUS
 10
155.6068876879
 20
73.5015826133
 11
155.6051202424
 21
73.4345687279
  0
LINE
  5
439
100
AcDbEntity
  8
0
100
AcDbLine
 62
253
  6
CONTINUOUS
 10
155.6072920574
 20
73.9774019775
 11
155.6057536266
 21
73.9203642938
  0
LINE
  5
43A
100
AcDbEntity
  8
0
100
AcDbLine
 62
253
  6
CONTINUOUS
 10
155.6051202424
 20
73.4345687279
 11
155.6028093885
 21
73.3616062339
  0
LINE
  5
43B
100
AcDbEntity
  8
0
100
AcDbLine
 62
253
  6
CONTINUOUS
 10
155.6057536266
 20
73.9203642938
 11
155.6040207115
 21
73.866876894
  0
LINE
  5
43C
100
AcDbEntity
  8
0
100
AcDbLine
 62
253
  6
CONTINUOUS
 10
155.6040207115
 20
73.866876894
 11
155.6022114952
 21
73.8185207664
  0
LINE
  5
43D
100
AcDbEntity
  8
0
100
AcDbLine
 62
253
  6
CONTINUOUS
 10
155.6028093885
 20
73.3616062339
 11
155.5998317072
 21
73.2820844283
  0
LINE
  5
43E
100
AcDbEntity
  8
0
100
AcDbLine
 62
253
  6
CONTINUOUS
 10
155.6022114952
 20
73.8185207664
 11
155.5999294926
 21
73.7647521178
  0
LINE
  5
43F
100
AcDbEntity
  8
0
100
AcDbLine
 62
253
  6
CONTINUOUS
 10
155.5998317072
 20
73.2820844283
 11
155.5960357431
 21
73.195312482
  0
LINE
  5
440
100
AcDbEntity
  8
0
100
AcDbLine
 62
253
  6
CONTINUOUS
 10
155.5999294926
 20
73.7647521178
 11
155.5978372567
 21
73.7204813779
  0
LINE
  5
441
100
AcDbEntity
  8
0
100
AcDbLine
 62
253
  6
CONTINUOUS
 10
155.5960357431
 20
73.195312482
 11
155.5929602822
 21
73.1330630286
  0
LINE
  5
442
100
AcDbEntity
  8
0
100
AcDbLine
 62
253
  6
CONTINUOUS
 10
155.5978372567
 20
73.7204813779
 11
155.5962281862
 21
73.6889211112
  0
LINE
  5
443
100
AcDbEntity
  8
0
100
AcDbLine
 62
7
  6
CONTINUOUS
 10
143.2437143731
 20
74.2776756559
 11
143.2636761925
 21
74.3245941189
  0
LWPOLYLINE
  5
444
100
AcDbEntity
  8
0
100
AcDbPolyline
 62
253
  6
CONTINUOUS
 90
19
 70
0
 10
160.4197525016
 20
103.8027423469
 10
160.4178574309
 20
103.8463201735
 10
160.4121866399
 20
103.8895663563
 10
160.4027832842
 20
103.9321517661
 10
160.389718927
 20
103.9737523009
 10
160.3730929934
 20
104.0140513563
 10
160.3530320125
 20
104.0527422345
 10
160.3296886547
 20
104.0895304771
 10
160.3032405764
 20
104.1241360967
 10
160.2738890694
 20
104.1562957129
 10
160.241857516
 20
104.185764571
 10
160.2073896963
 20
104.2123183945
 10
160.1707479422
 20
104.2357550855
 10
160.1322111258
 20
104.2558962771
 10
160.0920725332
 20
104.2725886877
 10
160.0506376433
 20
104.2857052811
 10
160.0082218008
 20
104.2951462345
 10
159.9651478165
 20
104.3008396992
 10
159.9217435095
 20
104.3027423469
  0
LINE
  5
445
100
AcDbEntity
  8
0
100
AcDbLine
 62
253
  6
CONTINUOUS
 10
159.4237345176
 20
79.1027423469
 11
159.4237345176
 21
104.3027423469
  0
LINE
  5
446
100
AcDbEntity
  8
0
100
AcDbLine
 62
253
  6
CONTINUOUS
 10
160.4197525015
 20
103.8027423469
 11
160.4197525015
 21
79.1027423469
  0
LINE
  5
447
100
AcDbEntity
  8
0
100
AcDbLine
 62
7
  6
CONTINUOUS
 10
160.6586734694
 20
103.8027423469
 11
160.6586734694
 21
79.1027423469
  0
LINE
  5
448
100
AcDbEntity
  8
0
100
AcDbLine
 62
253
  6
CONTINUOUS
 10
155.5929602822
 20
73.1330630286
 11
155.5893736719
 21
73.0669945905
  0
LINE
  5
449
100
AcDbEntity
  8
0
100
AcDbLine
 62
253
  6
CONTINUOUS
 10
155.5962281862
 20
73.6889211112
 11
155.5934401622
 21
73.6382494174
  0
LINE
  5
44A
100
AcDbEntity
  8
0
100
AcDbLine
 62
253
  6
CONTINUOUS
 10
155.5893736719
 20
73.0669945905
 11
155.5851991122
 21
72.9967820126
  0
LINE
  5
44B
100
AcDbEntity
  8
0
100
AcDbLine
 62
253
  6
CONTINUOUS
 10
155.5934401622
 20
73.6382494174
 11
155.5901292493
 21
73.5832552735
  0
LINE
  5
44C
100
AcDbEntity
  8
0
100
AcDbLine
 62
253
  6
CONTINUOUS
 10
155.5851991122
 20
72.9967820126
 11
155.5803507543
 21
72.922191376
  0
LINE
  5
44D
100
AcDbEntity
  8
0
100
AcDbLine
 62
253
  6
CONTINUOUS
 10
155.5901292493
 20
73.5832552735
 11
155.5861974039
 21
73.5235286496
  0
LINE
  5
44E
100
AcDbEntity
  8
0
100
AcDbLine
 62
253
  6
CONTINUOUS
 10
155.5803507543
 20
72.922191376
 11
155.5747265889
 21
72.8428600485
  0
LINE
  5
44F
100
AcDbEntity
  8
0
100
AcDbLine
 62
253
  6
CONTINUOUS
 10
155.5861974039
 20
73.5235286496
 11
155.5815260835
 21
73.4586128073
  0
LINE
  5
450
100
AcDbEntity
  8
0
100
AcDbLine
 62
253
  6
CONTINUOUS
 10
155.5815260835
 20
73.4586128073
 11
155.5779318698
 21
73.4122119642
  0
LINE
  5
451
100
AcDbEntity
  8
0
100
AcDbLine
 62
253
  6
CONTINUOUS
 10
155.5747265889
 20
72.8428600485
 11
155.5682055876
 21
72.7583560267
  0
LINE
  5
452
100
AcDbEntity
  8
0
100
AcDbLine
 62
253
  6
CONTINUOUS
 10
155.5779318698
 20
73.4122119642
 11
155.5738936742
 21
73.3630894334
  0
LINE
  5
453
100
AcDbEntity
  8
0
100
AcDbLine
 62
253
  6
CONTINUOUS
 10
155.5682055876
 20
72.7583560267
 11
155.5606540773
 21
72.6683665808
  0
LINE
  5
454
100
AcDbEntity
  8
0
100
AcDbLine
 62
253
  6
CONTINUOUS
 10
155.5738936742
 20
73.3630894334
 11
155.5693587109
 21
73.3111122022
  0
LINE
  5
455
100
AcDbEntity
  8
0
100
AcDbLine
 62
253
  6
CONTINUOUS
 10
155.5606540773
 20
72.6683665808
 11
155.5519076735
 21
72.5724022494
  0
LINE
  5
456
100
AcDbEntity
  8
0
100
AcDbLine
 62
253
  6
CONTINUOUS
 10
155.5693587109
 20
73.3111122022
 11
155.5642608783
 21
73.2560693952
  0
LINE
  5
457
100
AcDbEntity
  8
0
100
AcDbLine
 62
253
  6
CONTINUOUS
 10
155.5642608783
 20
73.2560693952
 11
155.5585224161
 21
73.1977144688
  0
LINE
  5
458
100
AcDbEntity
  8
0
100
AcDbLine
 62
253
  6
CONTINUOUS
 10
155.5519076735
 20
72.5724022494
 11
155.5417812306
 21
72.4698954849
  0
LINE
  5
459
100
AcDbEntity
  8
0
100
AcDbLine
 62
253
  6
CONTINUOUS
 10
155.5585224161
 20
73.1977144688
 11
155.5520648694
 21
73.1358793761
  0
LWPOLYLINE
  5
45A
100
AcDbEntity
  8
0
100
AcDbPolyline
 62
253
  6
CONTINUOUS
 90
47
 70
0
 10
155.5417812306
 20
72.4698954849
 10
155.5300741152
 20
72.3604340124
 10
155.5235532324
 20
72.3028603221
 10
155.5165492517
 20
72.2433789047
 10
155.5090178543
 20
72.1817422356
 10
155.5009249656
 20
72.1179594294
 10
155.4922338561
 20
72.0520119704
 10
155.4828855995
 20
71.983608623
 10
155.4728382608
 20
71.9127609787
 10
155.4620448471
 20
71.8394453567
 10
155.4504250169
 20
71.7633147627
 10
155.4379264156
 20
71.6843801951
 10
155.4244888182
 20
71.6026152573
 10
155.4100020611
 20
71.5176134541
 10
155.3944031567
 20
71.4293987843
 10
155.3776120445
 20
71.3379281404
 10
155.3594686657
 20
71.2426905387
 10
155.3398883839
 20
71.1436861673
 10
155.3187705068
 20
71.0408918803
 10
155.2958993884
 20
70.9337582107
 10
155.271195687
 20
70.8223889878
 10
155.244502783
 20
70.7066554938
 10
155.2154407539
 20
70.5856576
 10
155.183626859
 20
70.4584514081
 10
155.1490901875
 20
70.3259602332
 10
155.1120932272
 20
70.1900979778
 10
155.0724241824
 20
70.0505417007
 10
155.03004319
 20
69.9076308516
 10
154.985634207
 20
69.7643003963
 10
154.9394805668
 20
69.6215415777
 10
154.8912787932
 20
69.4784150104
 10
154.8409365997
 20
69.3349785693
 10
154.7884043166
 20
69.1912112761
 10
154.7336828763
 20
69.0471965599
 10
154.6767599088
 20
68.9031583581
 10
154.6175692407
 20
68.7590714839
 10
154.5561366992
 20
68.6150337765
 10
154.4926076331
 20
68.4714570671
 10
154.4271502928
 20
68.3287704044
 10
154.3595962224
 20
68.1866146492
 10
154.2895687047
 20
68.0442204793
 10
154.2169632602
 20
67.9015337505
 10
154.1418057098
 20
67.758686136
 10
154.0638638123
 20
67.6151881844
 10
153.9830125845
 20
67.4709019001
 10
153.8992550019
 20
67.3260429606
 10
153.8125306593
 20
67.1806521237
  0
LINE
  5
45B
100
AcDbEntity
  8
0
100
AcDbLine
 62
253
  6
CONTINUOUS
 10
155.5520648694
 20
73.1358793761
 11
155.5447892985
 21
73.0702963185
  0
LINE
  5
45C
100
AcDbEntity
  8
0
100
AcDbLine
 62
253
  6
CONTINUOUS
 10
155.5447892985
 20
73.0702963185
 11
155.5365783464
 21
73.0006495253
  0
LINE
  5
45D
100
AcDbEntity
  8
0
100
AcDbLine
 62
253
  6
CONTINUOUS
 10
155.5365783464
 20
73.0006495253
 11
155.5273134375
 21
72.9267248759
  0
LWPOLYLINE
  5
45E
100
AcDbEntity
  8
0
100
AcDbPolyline
 62
253
  6
CONTINUOUS
 90
10
 70
0
 10
152.3499223678
 20
54.5799517169
 10
152.3516904652
 20
54.5937132468
 10
152.3528301652
 20
54.6165546495
 10
152.3533309045
 20
54.6482642206
 10
152.353188042
 20
54.6885480612
 10
152.3524029018
 20
54.7370328025
 10
152.350982761
 20
54.7932690661
 10
152.348940782
 20
54.8567356287
 10
152.3462958908
 20
54.9268442535
 10
152.3393007893
 20
55.0843329562
  0
LINE
  5
45F
100
AcDbEntity
  8
0
100
AcDbLine
 62
253
  6
CONTINUOUS
 10
155.5273134375
 20
72.9267248759
 11
155.5168436576
 21
72.8481776674
  0
LWPOLYLINE
  5
460
100
AcDbEntity
  8
0
100
AcDbPolyline
 62
253
  6
CONTINUOUS
 90
55
 70
0
 10
155.5168436576
 20
72.8481776674
 10
155.5049876619
 20
72.7645927904
 10
155.4984906306
 20
72.7208698664
 10
155.4915619743
 20
72.675691933
 10
155.4841822303
 20
72.6290753291
 10
155.4763289933
 20
72.5810183924
 10
155.4679454307
 20
72.5313291793
 10
155.4590068969
 20
72.4800270615
 10
155.4494865535
 20
72.4271110521
 10
155.4393168402
 20
72.3723609198
 10
155.4284689685
 20
72.3158018356
 10
155.4169084917
 20
72.2574324016
 10
155.404550021
 20
72.1969957403
 10
155.3913584266
 20
72.134523996
 10
155.3772906368
 20
72.0700161723
 10
155.3622372559
 20
72.003170127
 10
155.3461550198
 20
71.9340277998
 10
155.3289897514
 20
71.86258857
 10
155.3105998044
 20
71.7884927324
 10
155.2909304851
 20
71.711791653
 10
155.2699139515
 20
71.6324895238
 10
155.2473680036
 20
71.5501647331
 10
155.2232269056
 20
71.4648947932
 10
155.1974016089
 20
71.3766776093
 10
155.1696468264
 20
71.2849849808
 10
155.1398697269
 20
71.189889969
 10
155.1079637897
 20
71.091424164
 10
155.0736267735
 20
70.989015061
 10
155.0367753358
 20
70.8828550355
 10
154.9972408183
 20
70.7728954393
 10
154.9545383574
 20
70.6582312195
 10
154.9081558005
 20
70.5380862568
 10
154.8582390219
 20
70.4134608769
 10
154.8053145686
 20
70.2861064777
 10
154.7491196323
 20
70.1557763053
 10
154.6896699374
 20
70.0229083793
 10
154.6280789019
 20
69.8901916796
 10
154.5647552019
 20
69.7585245575
 10
154.4992919677
 20
69.6270693619
 10
154.4316875967
 20
69.4958483114
 10
154.3619080307
 20
69.3648466906
 10
154.2899733704
 20
69.234151675
 10
154.2159703744
 20
69.1039335216
 10
154.1398637455
 20
68.9741754392
 10
154.0616888252
 20
68.8449602655
 10
153.9816571077
 20
68.7165841096
 10
153.8999854077
 20
68.5893923822
 10
153.81648967
 20
68.4630501539
 10
153.7307664364
 20
68.3368334489
 10
153.6427737013
 20
68.2107475239
 10
153.5525245835
 20
68.0848410694
 10
153.4596490633
 20
67.9584845064
 10
153.3639727705
 20
67.8314934069
 10
153.2655483199
 20
67.7041180219
 10
153.1643107739
 20
67.5763888917
  0
LINE
  5
461
100
AcDbEntity
  8
0
100
AcDbLine
 62
7
  6
CONTINUOUS
 10
145.5736325656
 20
74.827809038
 11
145.5536707463
 21
74.780890575
  0
LINE
  5
462
100
AcDbEntity
  8
0
100
AcDbLine
 62
7
  6
CONTINUOUS
 10
145.5938044342
 20
74.8746160194
 11
145.5736325656
 21
74.827809038
  0
LWPOLYLINE
  5
463
100
AcDbEntity
  8
0
100
AcDbPolyline
 62
7
  6
CONTINUOUS
 90
4
 70
0
 10
143.2031605869
 20
74.1841731746
 10
143.2133778019
 20
74.2075069893
 10
143.2235425046
 20
74.2308686745
 10
143.2437143731
 20
74.2776756559
  0
LINE
  5
464
100
AcDbEntity
  8
0
100
AcDbLine
 62
7
  6
CONTINUOUS
 10
145.6141863519
 20
74.9213115193
 11
145.5938044342
 21
74.8746160194
  0
LWPOLYLINE
  5
465
100
AcDbEntity
  8
TRASH
100
AcDbPolyline
 62
7
  6
CONTINUOUS
 90
3
 70
0
 10
144.1009578782
 20
75.5270947189
 10
144.1458772919
 20
75.6237286307
 10
144.1805252413
 20
75.6977396238
  0
LWPOLYLINE
  5
466
100
AcDbEntity
  8
TRASH
100
AcDbPolyline
 62
7
  6
CONTINUOUS
 90
3
 70
0
 10
144.7163890606
 20
73.5783899749
 10
144.6714696469
 20
73.4817560632
 10
144.6368216975
 20
73.4077450701
  0
LINE
  5
467
100
AcDbEntity
  8
0
100
AcDbLine
 62
7
  6
CONTINUOUS
 10
143.2205115725
 20
74.1721633015
 11
143.2865671757
 21
74.3139199645
  0
LINE
  5
468
100
AcDbEntity
  8
0
100
AcDbLine
 62
7
  6
CONTINUOUS
 10
145.5968353663
 20
74.9333213923
 11
145.5307797631
 21
74.7915647294
  0
LINE
  5
469
100
AcDbEntity
  8
TRASH
100
AcDbLine
 62
7
  6
CONTINUOUS
 10
144.0209753703
 20
75.3554685039
 11
144.1009578782
 21
75.5270947189
  0
LINE
  5
46A
100
AcDbEntity
  8
TRASH
100
AcDbLine
 62
7
  6
CONTINUOUS
 10
144.0027883523
 20
75.3166103603
 11
144.0209753703
 21
75.3554685039
  0
LINE
  5
46B
100
AcDbEntity
  8
TRASH
100
AcDbLine
 62
7
  6
CONTINUOUS
 10
144.7963715683
 20
73.7500161895
 11
144.7163890606
 21
73.5783899749
  0
LINE
  5
46C
100
AcDbEntity
  8
TRASH
100
AcDbLine
 62
7
  6
CONTINUOUS
 10
144.8145585863
 20
73.7888743332
 11
144.7963715683
 21
73.7500161895
  0
LINE
  5
46D
100
AcDbEntity
  8
TRASH
100
AcDbLine
 62
7
  6
CONTINUOUS
 10
143.8889560344
 20
75.0724691292
 11
144.0027883523
 21
75.3166103603
  0
LINE
  5
46E
100
AcDbEntity
  8
TRASH
100
AcDbLine
 62
7
  6
CONTINUOUS
 10
144.9283909043
 20
74.0330155647
 11
144.8145585863
 21
73.7888743332
  0
LINE
  5
46F
100
AcDbEntity
  8
0
100
AcDbLine
 62
7
  6
CONTINUOUS
 10
143.8831266461
 20
75.2195134019
 11
143.8364198887
 21
75.1249958433
  0
LINE
  5
470
100
AcDbEntity
  8
0
100
AcDbLine
 62
7
  6
CONTINUOUS
 10
144.9342202926
 20
73.8859712919
 11
144.9809270501
 21
73.9804888506
  0
LINE
  5
471
100
AcDbEntity
  8
0
100
AcDbLine
 62
7
  6
CONTINUOUS
 10
143.9302161476
 20
75.313523926
 11
143.8831266461
 21
75.2195134019
  0
LINE
  5
472
100
AcDbEntity
  8
0
100
AcDbLine
 62
7
  6
CONTINUOUS
 10
144.8871307911
 20
73.7919607679
 11
144.9342202926
 21
73.8859712919
  0
LINE
  5
473
100
AcDbEntity
  8
0
100
AcDbLine
 62
7
  6
CONTINUOUS
 10
143.752177429
 20
75.209238225
 11
143.7803347711
 21
75.2654064182
  0
LINE
  5
474
100
AcDbEntity
  8
0
100
AcDbLine
 62
7
  6
CONTINUOUS
 10
145.0651695098
 20
73.8962464689
 11
145.0370121677
 21
73.8400782757
  0
LINE
  5
475
100
AcDbEntity
  8
0
100
AcDbLine
 62
7
  6
CONTINUOUS
 10
143.7803347711
 20
75.2654064182
 11
143.8086734694
 21
75.3213668465
  0
LINE
  5
476
100
AcDbEntity
  8
0
100
AcDbLine
 62
7
  6
CONTINUOUS
 10
145.0370121677
 20
73.8400782757
 11
145.0086734694
 21
73.7841178474
  0
LINE
  5
477
100
AcDbEntity
  8
0
100
AcDbLine
 62
7
  6
CONTINUOUS
 10
143.9901275609
 20
75.4316974612
 11
143.9302161476
 21
75.313523926
  0
LINE
  5
478
100
AcDbEntity
  8
0
100
AcDbLine
 62
7
  6
CONTINUOUS
 10
144.8272193779
 20
73.6737872326
 11
144.8871307911
 21
73.7919607679
  0
LINE
  5
479
100
AcDbEntity
  8
0
100
AcDbLine
 62
7
  6
CONTINUOUS
 10
144.0760784916
 20
75.5991963592
 11
143.9901275609
 21
75.4316974612
  0
LINE
  5
47A
100
AcDbEntity
  8
0
100
AcDbLine
 62
7
  6
CONTINUOUS
 10
144.7412684472
 20
73.5062883346
 11
144.8272193779
 21
73.6737872326
  0
LINE
  5
47B
100
AcDbEntity
  8
0
100
AcDbLine
 62
7
  6
CONTINUOUS
 10
144.1258141137
 20
75.6953368041
 11
144.0760784916
 21
75.5991963592
  0
LINE
  5
47C
100
AcDbEntity
  8
0
100
AcDbLine
 62
7
  6
CONTINUOUS
 10
144.6915328251
 20
73.4101478897
 11
144.7412684472
 21
73.5062883346
  0
LWPOLYLINE
  5
47D
100
AcDbEntity
  8
0
100
AcDbPolyline
 62
7
  6
CONTINUOUS
 90
48
 70
0
 10
151.4431666205
 20
97.4058865025
 10
151.4603072697
 20
97.4206507712
 10
151.4776493028
 20
97.4360388775
 10
151.4952063098
 20
97.4520083214
 10
151.5129647008
 20
97.4686016028
 10
151.530864698
 20
97.4860957512
 10
151.5489222646
 20
97.5044527194
 10
151.5671214375
 20
97.5237105547
 10
151.5853545498
 20
97.5442604283
 10
151.6036410933
 20
97.5661504096
 10
151.6219615762
 20
97.5893324291
 10
151.6401498559
 20
97.6140534498
 10
151.6582225369
 20
97.6403762116
 10
151.6761630148
 20
97.6682379746
 10
151.6937553336
 20
97.6976974823
 10
151.7110297372
 20
97.7287092197
 10
151.7279559816
 20
97.7613187018
 10
151.7442273794
 20
97.795721217
 10
151.7598839606
 20
97.8318918268
 10
151.7748856951
 20
97.8698554698
 10
151.7888058051
 20
97.9098822497
 10
151.8016692343
 20
97.952018244
 10
151.8134510391
 20
97.9962173753
 10
151.8236496108
 20
98.0426115151
 10
151.8322801674
 20
98.0912231612
 10
151.839327491
 20
98.1420298159
 10
151.8442443186
 20
98.1950958575
 10
151.8471246915
 20
98.2504186244
 10
151.8478745684
 20
98.3080007783
 10
151.8456645623
 20
98.3679146826
 10
151.8407773817
 20
98.4302932912
 10
151.832930318
 20
98.4950036503
 10
151.8204458593
 20
98.5617192619
 10
151.8029553798
 20
98.631415011
 10
151.7808275052
 20
98.7031160126
 10
151.7534906005
 20
98.7735711139
 10
151.720151527
 20
98.8426974626
 10
151.6816034233
 20
98.9105779109
 10
151.6396540706
 20
98.9742098634
 10
151.5940130522
 20
99.0329205696
 10
151.5449707847
 20
99.08738278
 10
151.495206299
 20
99.1366121504
 10
151.445283641
 20
99.1800625937
 10
151.3946387647
 20
99.218280197
 10
151.344258563
 20
99.2519188779
 10
151.2944720001
 20
99.2811966089
 10
151.2449501118
 20
99.3058954176
 10
151.195692898
 20
99.3260153038
  0
LWPOLYLINE
  5
47E
100
AcDbEntity
  8
0
100
AcDbPolyline
 62
253
  6
CONTINUOUS
 90
37
 70
0
 10
159.2090119204
 20
74.0527909287
 10
159.1792908506
 20
73.6853006806
 10
159.1486963106
 20
73.3294500782
 10
159.1174781496
 20
72.9851136898
 10
159.0861410534
 20
72.6539110051
 10
159.0546891735
 20
72.3339812049
 10
159.0225028725
 20
72.0200149364
 10
158.9896340982
 20
71.7117805216
 10
158.9562712973
 20
71.4093589975
 10
158.9217908898
 20
71.1079506909
 10
158.8860708935
 20
70.8065227758
 10
158.8492700525
 20
70.5059796409
 10
158.8110539911
 20
70.2044434531
 10
158.7713034962
 20
69.9010197385
 10
158.7301100436
 20
69.5964854523
 10
158.6874343805
 20
69.2914916208
 10
158.6432598411
 20
68.9857389925
 10
158.5976181519
 20
68.6794400769
 10
158.5505869193
 20
68.3740514337
 10
158.5022603553
 20
68.0698705367
 10
158.4526267174
 20
67.7665611377
 10
158.401643104
 20
67.464669857
 10
158.3495022789
 20
67.1650699227
 10
158.2961187697
 20
66.8668875445
 10
158.2410016426
 20
66.5680694072
 10
158.1843256415
 20
66.269526449
 10
158.1259451499
 20
65.9703502295
 10
158.0647612815
 20
65.665749047
 10
158.0006067599
 20
65.3552757692
 10
157.933486763
 20
65.0393515429
 10
157.8624054159
 20
64.7144715945
 10
157.7870094761
 20
64.3796792717
 10
157.7073433342
 20
64.035899043
 10
157.6229202934
 20
63.6824573634
 10
157.5334557547
 20
63.3191368979
 10
157.4388867144
 20
62.9461630795
 10
157.3390384688
 20
62.563541875
  0
LWPOLYLINE
  5
47F
100
AcDbEntity
  8
0
100
AcDbPolyline
 62
253
  6
CONTINUOUS
 90
37
 70
0
 10
160.2017627843
 20
73.9647015327
 10
160.1684508012
 20
73.5898821297
 10
160.1339153843
 20
73.2268467228
 10
160.0983664368
 20
72.8755890748
 10
160.0622078871
 20
72.5379609483
 10
160.0254553198
 20
72.2120905902
 10
159.9876351986
 20
71.8923941976
 10
159.9488230174
 20
71.578691316
 10
159.9091317663
 20
71.2711580451
 10
159.8679733198
 20
70.9647643386
 10
159.825223182
 20
70.6585268888
 10
159.7810263055
 20
70.3534430943
 10
159.7350900164
 20
70.0474682482
 10
159.6872624936
 20
69.73975367
 10
159.637654689
 20
69.4311713781
 10
159.5863449674
 20
69.1222610883
 10
159.5332758686
 20
68.8127489085
 10
159.4784863545
 20
68.5029293129
 10
159.4222291493
 20
68.1941893598
 10
159.3645737563
 20
67.8868283213
 10
159.3054811849
 20
67.5805584621
 10
159.2450705374
 20
67.2758806194
 10
159.1835432652
 20
66.9736709052
 10
159.1207492831
 20
66.6730592803
 10
159.0562556992
 20
66.3719322058
 10
158.9902593069
 20
66.0712359086
 10
158.9225506809
 20
65.7700430757
 10
158.8519801063
 20
65.4634537923
 10
158.7783630316
 20
65.1510923729
 10
158.7017031542
 20
64.8333947028
 10
158.6209959937
 20
64.5067116699
 10
158.5358484661
 20
64.1701608748
 10
158.4463305174
 20
63.8247281695
 10
158.3520509749
 20
63.4695895388
 10
158.2527490618
 20
63.1045149448
 10
158.148311721
 20
62.7298641248
 10
158.0385468442
 20
62.3457072526
  0
LINE
  5
480
100
AcDbEntity
  8
0
100
AcDbLine
 62
7
  6
CONTINUOUS
 10
144.1392014268
 20
75.7151379262
 11
144.1258141137
 21
75.6953368041
  0
LINE
  5
481
100
AcDbEntity
  8
0
100
AcDbLine
 62
7
  6
CONTINUOUS
 10
144.678145512
 20
73.3903467677
 11
144.6915328251
 21
73.4101478897
  0
LWPOLYLINE
  5
482
100
AcDbEntity
  8
0
100
AcDbPolyline
 62
253
  6
CONTINUOUS
 90
10
 70
0
 10
131.47830847
 20
62.563541875
 10
131.8710754215
 20
63.06605968
 10
132.2636367584
 20
63.5717898013
 10
132.6559924807
 20
64.0804946243
 10
133.04817928
 20
64.591985253
 10
133.4401604648
 20
65.1059780469
 10
133.8318259601
 20
65.6220921356
 10
134.2231390745
 20
66.140042253
 10
134.6141364995
 20
66.6596412191
 10
135.0048182351
 20
67.1806547359
  0
LWPOLYLINE
  5
483
100
AcDbEntity
  8
0
100
AcDbPolyline
 62
253
  6
CONTINUOUS
 90
4
 70
0
 10
157.3390384688
 20
62.563541875
 10
157.3051170024
 20
62.4370228274
 10
157.2717167668
 20
62.3137180881
 10
157.2388581274
 20
62.1936322609
  0
LINE
  5
484
100
AcDbEntity
  8
0
100
AcDbLine
 62
253
  6
CONTINUOUS
 10
157.2388581274
 20
62.1936322609
 11
157.1748856644
 21
61.9633370198
  0
LINE
  5
485
100
AcDbEntity
  8
0
100
AcDbLine
 62
253
  6
CONTINUOUS
 10
157.1748856644
 20
61.9633370198
 11
157.1131209049
 21
61.7450483302
  0
LINE
  5
486
100
AcDbEntity
  8
0
100
AcDbLine
 62
253
  6
CONTINUOUS
 10
157.1131209049
 20
61.7450483302
 11
157.0535719037
 21
61.5382068895
  0
LWPOLYLINE
  5
487
100
AcDbEntity
  8
0
100
AcDbPolyline
 62
253
  6
CONTINUOUS
 90
175
 70
0
 10
154.9760938528
 20
72.2794111988
 10
154.9487374318
 20
72.1973893826
 10
154.9209492828
 20
72.1168733497
 10
154.8926605466
 20
72.037978266
 10
154.8637134807
 20
71.9610775309
 10
154.8341350665
 20
71.8860298878
 10
154.8041690228
 20
71.8121231245
 10
154.7738838115
 20
71.7393255616
 10
154.7431674249
 20
71.6677692094
 10
154.7120321753
 20
71.5969142097
 10
154.6805026119
 20
71.5267536049
 10
154.6485305279
 20
71.4573534403
 10
154.6160280308
 20
71.3882538091
 10
154.5829655153
 20
71.3193849367
 10
154.5493507314
 20
71.2508591029
 10
154.5151528652
 20
71.1824764301
 10
154.4803125744
 20
71.1141353141
 10
154.4448691141
 20
71.0459721146
 10
154.4089451654
 20
70.9781348698
 10
154.3726261905
 20
70.9107881854
 10
154.3358205829
 20
70.8437919062
 10
154.2983864383
 20
70.7768324191
 10
154.2604306401
 20
70.7101080958
 10
154.221833377
 20
70.643445285
 10
154.1820933892
 20
70.5759800118
 10
154.1411990156
 20
70.5077402027
 10
154.0991158351
 20
70.4387407325
 10
154.0552759958
 20
70.3681157402
 10
154.0096205515
 20
70.2958603848
 10
153.9621260983
 20
70.2220477076
 10
153.9122430941
 20
70.1459513078
 10
153.8597845539
 20
70.0674307144
 10
153.8048120542
 20
69.9867309966
 10
153.7471250026
 20
69.9037225391
 10
153.6866080287
 20
69.8184056969
 10
153.6232342428
 20
69.7309095803
 10
153.5569286975
 20
69.6413065693
 10
153.4876608122
 20
69.5497215771
 10
153.4153129928
 20
69.4561774996
 10
153.3396728579
 20
69.360603692
 10
153.2607495861
 20
69.2631996357
 10
153.1783706191
 20
69.163944223
 10
153.0920280394
 20
69.0624614059
 10
153.0015996638
 20
68.9588372872
 10
152.9070022161
 20
68.8532255164
 10
152.8077508624
 20
68.7453887394
 10
152.7036471151
 20
68.6353868987
 10
152.5946367012
 20
68.5234680604
 10
152.4804263908
 20
68.4097118052
 10
152.3611290707
 20
68.2945639103
 10
152.2363685027
 20
68.1779455908
 10
152.1050748896
 20
68.0592176855
 10
151.9672973726
 20
67.9388745414
 10
151.822657188
 20
67.8169601764
 10
151.6693359732
 20
67.6923060007
 10
151.5055850717
 20
67.5641439604
 10
151.3326371344
 20
67.4341191992
 10
151.1532040381
 20
67.3046203642
 10
150.9667269277
 20
67.175587806
 10
150.7735693298
 20
67.0476615991
 10
150.5781379556
 20
66.923848675
 10
150.3820376448
 20
66.8050480734
 10
150.183891412
 20
66.6903417216
 10
149.9838095025
 20
66.5797340437
 10
149.7822555486
 20
66.4734291963
 10
149.5789563306
 20
66.3712429159
 10
149.3728810738
 20
66.2726610014
 10
149.1634429186
 20
66.1774810539
 10
148.951334358
 20
66.0861016402
 10
148.737432866
 20
65.9989289598
 10
148.5219668812
 20
65.9160536032
 10
148.3048728024
 20
65.8374557291
 10
148.0866191981
 20
65.763302853
 10
147.8680848771
 20
65.6938344739
 10
147.6485926597
 20
65.6287661438
 10
147.4262515231
 20
65.5675677751
 10
147.2008578488
 20
65.510285753
 10
146.9727444386
 20
65.4571002734
 10
146.7407774084
 20
65.407877235
 10
146.5043585449
 20
65.362688008
 10
146.2642089615
 20
65.3218679132
 10
146.0211743519
 20
65.2857089774
 10
145.7752797256
 20
65.2543536812
 10
145.52668095
 20
65.2279639437
 10
145.2764420114
 20
65.2067533018
 10
145.0246620725
 20
65.190814104
 10
144.7714607275
 20
65.1802433311
 10
144.5179454797
 20
65.1751349921
 10
144.264227533
 20
65.1755127022
 10
144.0104291
 20
65.1813910021
 10
143.7576758032
 20
65.1927087279
 10
143.5060955734
 20
65.2093842457
 10
143.2557857936
 20
65.2313437227
 10
143.0078166445
 20
65.2584084286
 10
142.7623010627
 20
65.2904403583
 10
142.5193203202
 20
65.3273066396
 10
142.2798766147
 20
65.3687176264
 10
142.0445105031
 20
65.4143924314
 10
141.8128205554
 20
65.4642226073
 10
141.5843844128
 20
65.518153861
 10
141.3598206387
 20
65.5758951617
 10
141.1386260021
 20
65.6374244052
 10
140.9187309766
 20
65.7032542715
 10
140.699639812
 20
65.7735683337
 10
140.4820352901
 20
65.8481833105
 10
140.2656529595
 20
65.9271975814
 10
140.050135104
 20
66.0107685356
 10
139.8360225798
 20
66.0987200995
 10
139.6243784574
 20
66.1906002621
 10
139.4160230632
 20
66.2859743624
 10
139.210249712
 20
66.3850914816
 10
139.005842747
 20
66.4885448047
 10
138.8030298753
 20
66.5962665229
 10
138.6017860696
 20
66.7083233375
 10
138.4006126219
 20
66.8256870261
 10
138.1976516235
 20
66.9497087963
 10
137.9951563999
 20
67.0793196478
 10
137.797680883
 20
67.2116706738
 10
137.6049519172
 20
67.346742983
 10
137.4172429539
 20
67.4841953541
 10
137.2395105169
 20
67.6200923558
 10
137.073386695
 20
67.7524113781
 10
136.9166702556
 20
67.8821629395
 10
136.7683699321
 20
68.0097173865
 10
136.6284460818
 20
68.1345786539
 10
136.4964792378
 20
68.256516963
 10
136.3710001182
 20
68.3764346828
 10
136.2516065594
 20
68.4943517516
 10
136.1383589191
 20
68.6097823996
 10
136.0305582753
 20
68.7229815598
 10
135.9280541308
 20
68.8337582764
 10
135.8307050325
 20
68.9419499956
 10
135.7378732081
 20
69.0479145378
 10
135.6494420444
 20
69.151505488
 10
135.5652973555
 20
69.2526025355
 10
135.4848502013
 20
69.3516502114
 10
135.4079167424
 20
69.4486634247
 10
135.3344999851
 20
69.5434319704
 10
135.2643201051
 20
69.6360939743
 10
135.1972488816
 20
69.7266273795
 10
135.133255171
 20
69.8148966157
 10
135.0722160452
 20
69.900883344
 10
135.0140980566
 20
69.9844595385
 10
134.9587854792
 20
70.0656181473
 10
134.9060421253
 20
70.1445336287
 10
134.8559218261
 20
70.2209681856
 10
134.808241645
 20
70.2950522396
 10
134.7624360387
 20
70.3675324745
 10
134.7184797484
 20
70.4383360387
 10
134.6763134023
 20
70.5074660378
 10
134.6353563398
 20
70.5758064623
 10
134.5955733274
 20
70.6433421942
 10
134.5569522642
 20
70.7100447885
 10
134.5189804479
 20
70.7767964428
 10
134.4815361626
 20
70.8437735205
 10
134.4447277616
 20
70.9107747006
 10
134.4084075105
 20
70.9781236344
 10
134.3724823868
 20
71.0459629583
 10
134.337039204
 20
71.1141255543
 10
134.3021991973
 20
71.1824660487
 10
134.2680012682
 20
71.2508487555
 10
134.2343864361
 20
71.3193746087
 10
134.2013235712
 20
71.3882441577
 10
134.1688202389
 20
71.4573455347
 10
134.1368470433
 20
71.5267481076
 10
134.1053163687
 20
71.5969112269
 10
134.0741800151
 20
71.6677688594
 10
134.0434625256
 20
71.7393279455
 10
134.0131764532
 20
71.8121277401
 10
133.9832098163
 20
71.8860362579
 10
133.9536310357
 20
71.9610851488
 10
133.9246839646
 20
72.0379859539
 10
133.8963956278
 20
72.1168797235
 10
133.8686082352
 20
72.1973933032
 10
133.8412529286
 20
72.2794115507
  0
LWPOLYLINE
  5
488
100
AcDbEntity
  8
0
100
AcDbPolyline
 62
7
  6
CONTINUOUS
 90
7
 70
0
 10
154.9760938528
 20
72.2794111988
 10
155.099469257
 20
72.5631431867
 10
155.2156516861
 20
72.8509235967
 10
155.3246411404
 20
73.1427524287
 10
155.4264376196
 20
73.4386296828
 10
155.5210411238
 20
73.7385553589
 10
155.6084516531
 20
74.042529457
  0
LINE
  5
489
100
AcDbEntity
  8
0
100
AcDbLine
 62
7
  6
CONTINUOUS
 10
144.9809270671
 20
75.1249959487
 11
144.9283969536
 21
75.0724658311
  0
LINE
  5
48A
100
AcDbEntity
  8
0
100
AcDbLine
 62
7
  6
CONTINUOUS
 10
143.8889499852
 20
74.0330188628
 11
143.8364198716
 21
73.9804887452
  0
LINE
  5
48B
100
AcDbEntity
  8
0
100
AcDbLine
 62
7
  6
CONTINUOUS
 10
145.0651696856
 20
75.2092385685
 11
145.0086734694
 21
75.1527423533
  0
LINE
  5
48C
100
AcDbEntity
  8
0
100
AcDbLine
 62
7
  6
CONTINUOUS
 10
143.8086734694
 20
73.9527423406
 11
143.7521772532
 21
73.8962461253
  0
LINE
  5
48D
100
AcDbEntity
  8
0
100
AcDbLine
 62
253
  6
CONTINUOUS
 10
158.0385468442
 20
62.3457072526
 11
157.9655198775
 21
62.0952156582
  0
LINE
  5
48E
100
AcDbEntity
  8
0
100
AcDbLine
 62
253
  6
CONTINUOUS
 10
157.0535719037
 20
61.5382068895
 11
156.996176957
 21
61.3419941022
  0
LINE
  5
48F
100
AcDbEntity
  8
0
100
AcDbLine
 62
253
  6
CONTINUOUS
 10
157.9655198775
 20
62.0952156582
 11
157.8952157186
 21
61.8577060048
  0
LINE
  5
490
100
AcDbEntity
  8
0
100
AcDbLine
 62
253
  6
CONTINUOUS
 10
156.996176957
 20
61.3419941022
 11
156.9408449723
 21
61.1556052382
  0
LINE
  5
491
100
AcDbEntity
  8
0
100
AcDbLine
 62
253
  6
CONTINUOUS
 10
157.8952157186
 20
61.8577060048
 11
157.8277063934
 21
61.6328607937
  0
LINE
  5
492
100
AcDbEntity
  8
0
100
AcDbLine
 62
253
  6
CONTINUOUS
 10
156.9408449723
 20
61.1556052382
 11
156.8875370518
 21
60.9785062998
  0
LINE
  5
493
100
AcDbEntity
  8
0
100
AcDbLine
 62
253
  6
CONTINUOUS
 10
157.8277063934
 20
61.6328607937
 11
157.7628484957
 21
61.4197137807
  0
LINE
  5
494
100
AcDbEntity
  8
0
100
AcDbLine
 62
253
  6
CONTINUOUS
 10
156.8875370518
 20
60.9785062998
 11
156.836110481
 21
60.8098576464
  0
LINE
  5
495
100
AcDbEntity
  8
0
100
AcDbLine
 62
253
  6
CONTINUOUS
 10
157.7628484957
 20
61.4197137807
 11
157.7005283229
 21
61.2174628892
  0
LINE
  5
496
100
AcDbEntity
  8
0
100
AcDbLine
 62
253
  6
CONTINUOUS
 10
156.836110481
 20
60.8098576464
 11
156.7864621738
 21
60.6490076816
  0
LINE
  5
497
100
AcDbEntity
  8
0
100
AcDbLine
 62
253
  6
CONTINUOUS
 10
157.7005283229
 20
61.2174628892
 11
157.6406940437
 21
61.0255587941
  0
LINE
  5
498
100
AcDbEntity
  8
0
100
AcDbLine
 62
253
  6
CONTINUOUS
 10
156.7864621738
 20
60.6490076816
 11
156.7386120872
 21
60.4957665092
  0
LINE
  5
499
100
AcDbEntity
  8
0
100
AcDbLine
 62
253
  6
CONTINUOUS
 10
157.6406940437
 20
61.0255587941
 11
157.5831979367
 21
60.8431954257
  0
LINE
  5
49A
100
AcDbEntity
  8
0
100
AcDbLine
 62
253
  6
CONTINUOUS
 10
156.7386120872
 20
60.4957665092
 11
156.6926604886
 21
60.3502193582
  0
LINE
  5
49B
100
AcDbEntity
  8
0
100
AcDbLine
 62
253
  6
CONTINUOUS
 10
157.5831979367
 20
60.8431954257
 11
157.5278756866
 21
60.6695627882
  0
LINE
  5
49C
100
AcDbEntity
  8
0
100
AcDbLine
 62
253
  6
CONTINUOUS
 10
156.6926604886
 20
60.3502193582
 11
156.6487688963
 21
60.2126499086
  0
LINE
  5
49D
100
AcDbEntity
  8
0
100
AcDbLine
 62
253
  6
CONTINUOUS
 10
157.5278756866
 20
60.6695627882
 11
157.4746573371
 21
60.5041857845
  0
LINE
  5
49E
100
AcDbEntity
  8
0
100
AcDbLine
 62
253
  6
CONTINUOUS
 10
156.6487688963
 20
60.2126499086
 11
156.5869212098
 21
60.0211981921
  0
LINE
  5
49F
100
AcDbEntity
  8
0
100
AcDbLine
 62
253
  6
CONTINUOUS
 10
157.4746573371
 20
60.5041857845
 11
157.4233762208
 21
60.3463239294
  0
LINE
  5
4A0
100
AcDbEntity
  8
0
100
AcDbLine
 62
253
  6
CONTINUOUS
 10
156.5869212098
 20
60.0211981921
 11
156.5294146293
 21
59.8455790646
  0
LINE
  5
4A1
100
AcDbEntity
  8
0
100
AcDbLine
 62
253
  6
CONTINUOUS
 10
157.4233762208
 20
60.3463239294
 11
157.3503497373
 21
60.123984971
  0
LINE
  5
4A2
100
AcDbEntity
  8
0
100
AcDbLine
 62
253
  6
CONTINUOUS
 10
156.5294146293
 20
59.8455790646
 11
156.4747627427
 21
59.6807291515
  0
LINE
  5
4A3
100
AcDbEntity
  8
0
100
AcDbLine
 62
253
  6
CONTINUOUS
 10
157.3503497373
 20
60.123984971
 11
157.2823894111
 21
59.9195916527
  0
LINE
  5
4A4
100
AcDbEntity
  8
0
100
AcDbLine
 62
253
  6
CONTINUOUS
 10
156.4747627427
 20
59.6807291515
 11
156.4212996918
 21
59.5213383
  0
LINE
  5
4A5
100
AcDbEntity
  8
0
100
AcDbLine
 62
253
  6
CONTINUOUS
 10
157.2823894111
 20
59.9195916527
 11
157.2196527416
 21
59.7329966227
  0
LINE
  5
4A6
100
AcDbEntity
  8
0
100
AcDbLine
 62
253
  6
CONTINUOUS
 10
156.4212996918
 20
59.5213383
 11
156.3495477712
 21
59.3099718223
  0
LINE
  5
4A7
100
AcDbEntity
  8
0
100
AcDbLine
 62
253
  6
CONTINUOUS
 10
157.2196527416
 20
59.7329966227
 11
157.1611166758
 21
59.5606494369
  0
LINE
  5
4A8
100
AcDbEntity
  8
0
100
AcDbLine
 62
253
  6
CONTINUOUS
 10
157.1611166758
 20
59.5606494369
 11
157.1051370023
 21
59.3973700733
  0
LINE
  5
4A9
100
AcDbEntity
  8
0
100
AcDbLine
 62
253
  6
CONTINUOUS
 10
156.3495477712
 20
59.3099718223
 11
156.2585224456
 21
59.0444630285
  0
LINE
  5
4AA
100
AcDbEntity
  8
0
100
AcDbLine
 62
253
  6
CONTINUOUS
 10
156.2585224456
 20
59.0444630285
 11
156.2040980043
 21
58.8871030681
  0
LINE
  5
4AB
100
AcDbEntity
  8
0
100
AcDbLine
 62
253
  6
CONTINUOUS
 10
157.1051370023
 20
59.3973700733
 11
157.0314645347
 21
59.1847161097
  0
LINE
  5
4AC
100
AcDbEntity
  8
0
100
AcDbLine
 62
253
  6
CONTINUOUS
 10
156.2040980043
 20
58.8871030681
 11
156.167948764
 21
58.7837192059
  0
LINE
  5
4AD
100
AcDbEntity
  8
0
100
AcDbLine
 62
253
  6
CONTINUOUS
 10
157.0314645347
 20
59.1847161097
 11
156.9566571638
 21
58.9713107925
  0
LINE
  5
4AE
100
AcDbEntity
  8
0
100
AcDbLine
 62
253
  6
CONTINUOUS
 10
156.9566571638
 20
58.9713107925
 11
156.8997328182
 21
58.8105983262
  0
LINE
  5
4AF
100
AcDbEntity
  8
0
100
AcDbLine
 62
253
  6
CONTINUOUS
 10
156.8997328182
 20
58.8105983262
 11
156.8429198108
 21
58.6516301333
  0
LINE
  5
4B0
100
AcDbEntity
  8
0
100
AcDbLine
 62
253
  6
CONTINUOUS
 10
156.167948764
 20
58.7837192059
 11
156.1307901512
 21
58.6795946995
  0
LINE
  5
4B1
100
AcDbEntity
  8
0
100
AcDbLine
 62
253
  6
CONTINUOUS
 10
156.8429198108
 20
58.6516301333
 11
156.767435875
 21
58.4425692512
  0
LINE
  5
4B2
100
AcDbEntity
  8
0
100
AcDbLine
 62
253
  6
CONTINUOUS
 10
156.1307901512
 20
58.6795946995
 11
156.0910796803
 21
58.5702850398
  0
LINE
  5
4B3
100
AcDbEntity
  8
0
100
AcDbLine
 62
253
  6
CONTINUOUS
 10
156.767435875
 20
58.4425692512
 11
156.7067220335
 21
58.2760713228
  0
LINE
  5
4B4
100
AcDbEntity
  8
0
100
AcDbLine
 62
253
  6
CONTINUOUS
 10
156.7067220335
 20
58.2760713228
 11
156.6397750365
 21
58.0940461529
  0
LINE
  5
4B5
100
AcDbEntity
  8
0
100
AcDbLine
 62
253
  6
CONTINUOUS
 10
156.0910796803
 20
58.5702850398
 11
156.0480644567
 21
58.4541895217
  0
LINE
  5
4B6
100
AcDbEntity
  8
0
100
AcDbLine
 62
253
  6
CONTINUOUS
 10
156.6397750365
 20
58.0940461529
 11
156.5674462967
 21
57.8990383817
  0
LWPOLYLINE
  5
4B7
100
AcDbEntity
  8
0
100
AcDbPolyline
 62
253
  6
CONTINUOUS
 90
3
 70
0
 10
156.5674462967
 20
57.8990383817
 10
156.4918974385
 20
57.6968981815
 10
156.466139459
 20
57.6283250251
  0
LWPOLYLINE
  5
4B8
100
AcDbEntity
  8
0
100
AcDbPolyline
 62
253
  6
CONTINUOUS
 90
5
 70
0
 10
156.0480644567
 20
58.4541895217
 10
156.0010427926
 20
58.3299567985
 10
155.9761990788
 20
58.265322951
 10
155.9503295992
 20
58.199123409
 10
155.9233987989
 20
58.1314649289
  0
LWPOLYLINE
  5
4B9
100
AcDbEntity
  8
0
100
AcDbPolyline
 62
253
  6
CONTINUOUS
 90
175
 70
0
 10
154.9760938528
 20
72.2794111988
 10
154.9354924569
 20
72.2045043792
 10
154.8951679545
 20
72.1310303652
 10
154.8551203455
 20
72.0589891568
 10
154.8154137935
 20
71.9885090455
 10
154.775984135
 20
71.9194617398
 10
154.7366388792
 20
71.8514623652
 10
154.6973801418
 20
71.7845074452
 10
154.6582058072
 20
71.7186004563
 10
154.6189170378
 20
71.6533669531
 10
154.5795185889
 20
71.58880048
 10
154.5400057052
 20
71.5249074925
 10
154.5001652831
 20
71.4613329126
 10
154.459958544
 20
71.3980042199
 10
154.4194242666
 20
71.3349939348
 10
154.3784656836
 20
71.2721645395
 10
154.3370147941
 20
71.209413941
 10
154.295139599
 20
71.1468442325
 10
154.2529473332
 20
71.0846241755
 10
154.2105373348
 20
71.022896893
 10
154.1678102658
 20
70.9615192621
 10
154.124575347
 20
70.9002306752
 10
154.0809691251
 20
70.8391954411
 10
154.0368550535
 20
70.7782492511
 10
153.9916327134
 20
70.7166385705
 10
153.9453291529
 20
70.654356288
 10
153.8979173239
 20
70.591409515
 10
153.8487156633
 20
70.5270660517
 10
153.7977192087
 20
70.461272236
 10
153.7449329226
 20
70.39408173
 10
153.6896901292
 20
70.3249233196
 10
153.6318656966
 20
70.2536059579
 10
153.5715847567
 20
70.1803206918
 10
153.5085560301
 20
70.1050694475
 10
153.4427375337
 20
70.0277878904
 10
153.3741712508
 20
69.9485403552
 10
153.3026918509
 20
69.8675217716
 10
153.2283451161
 20
69.7847725205
 10
153.1510852643
 20
69.700252221
 10
153.0706096198
 20
69.6140346605
 10
152.9870274604
 20
69.526202871
 10
152.9002295081
 20
69.4366738205
 10
152.8095852535
 20
69.3452722003
 10
152.7150923894
 20
69.251966168
 10
152.616753223
 20
69.156787566
 10
152.513944166
 20
69.0596566135
 10
152.406575015
 20
68.9604663682
 10
152.2947359733
 20
68.8593237724
 10
152.178074063
 20
68.7564698724
 10
152.0568576233
 20
68.6520342301
 10
151.9308183151
 20
68.5458872835
 10
151.7987981427
 20
68.4378813934
 10
151.6611380604
 20
68.3280963207
 10
151.517497114
 20
68.2164523044
 10
151.365694445
 20
68.1025624221
 10
151.2042394185
 20
67.9853528734
 10
151.0346226694
 20
67.8658974586
 10
150.8591352431
 20
67.747030657
 10
150.6771374274
 20
67.628671053
 10
150.4892689346
 20
67.5109000623
 10
150.2997399467
 20
67.3967964108
 10
150.1098879963
 20
67.2873606007
 10
149.9183755508
 20
67.1815921298
 10
149.7254001941
 20
67.0795682181
 10
149.5313276487
 20
66.9814320671
 10
149.3357921922
 20
66.8870404754
 10
149.1378942407
 20
66.7960410591
 10
148.9370212324
 20
66.7081466562
 10
148.7337857291
 20
66.6236444287
 10
148.5291258325
 20
66.5430434787
 10
148.3231741195
 20
66.4664516888
 10
148.1157980133
 20
66.3937611763
 10
147.9075378849
 20
66.3251573959
 10
147.6991374076
 20
66.2608333644
 10
147.4898529082
 20
66.2005960649
 10
147.2779937379
 20
66.1440519016
 10
147.0633171686
 20
66.0910167317
 10
146.8460659285
 20
66.041674698
 10
146.6252775534
 20
65.9961846324
 10
146.4003158101
 20
65.9544020673
 10
146.1718169318
 20
65.9164714702
 10
145.9407271535
 20
65.8829850755
 10
145.7069636695
 20
65.8539967117
 10
145.4706092855
 20
65.8294525503
 10
145.2328586535
 20
65.8097833394
 10
144.9937022838
 20
65.7950676896
 10
144.753149666
 20
65.7852269904
 10
144.5124239213
 20
65.7804561588
 10
144.2715266938
 20
65.7808575696
 10
144.0304563393
 20
65.7863288479
 10
143.790431046
 20
65.796757787
 10
143.5514541322
 20
65.8122295877
 10
143.3135222796
 20
65.8326590491
 10
143.077843721
 20
65.8576783618
 10
142.8444520204
 20
65.8873552067
 10
142.6133136139
 20
65.9216219029
 10
142.3855360421
 20
65.9599075989
 10
142.161582623
 20
66.002143006
 10
141.9409900387
 20
66.0483974129
 10
141.7234758753
 20
66.0983078341
 10
141.5095636943
 20
66.1516459181
 10
141.2987299342
 20
66.2086400164
 10
141.0891214966
 20
66.2696121982
 10
140.8801751826
 20
66.3346480618
 10
140.6724541911
 20
66.4036620089
 10
140.46579502
 20
66.4767193137
 10
140.259769353
 20
66.5540156022
 10
140.0548055064
 20
66.6353552482
 10
139.8520249265
 20
66.7202166475
 10
139.6521541967
 20
66.8082752816
 10
139.4544667337
 20
66.8998556689
 10
139.2579042341
 20
66.9954097603
 10
139.0625409119
 20
67.0947720398
 10
138.8683025531
 20
67.1981080235
 10
138.6739082119
 20
67.3063662097
 10
138.4774436856
 20
67.4207795213
 10
138.280823177
 20
67.5401150355
 10
138.0885083479
 20
67.6616224822
 10
137.9004780641
 20
67.7857942897
 10
137.7167534599
 20
67.9121380298
 10
137.5418595998
 20
68.0364261476
 10
137.3777871906
 20
68.1574053543
 10
137.2225455256
 20
68.2763289387
 10
137.0746875494
 20
68.3927292119
 10
136.9342732941
 20
68.5063668393
 10
136.8012427277
 20
68.6174811556
 10
136.6739686984
 20
68.7263224764
 10
136.5521701002
 20
68.8329730996
 10
136.4361280391
 20
68.9373507273
 10
136.3250586827
 20
69.0394587808
 10
136.2189655576
 20
69.1392426492
 10
136.117845137
 20
69.2367569433
 10
136.0209030088
 20
69.3321689169
 10
135.9281171638
 20
69.425460881
 10
135.8395096111
 20
69.5166505245
 10
135.7543519657
 20
69.6059581678
 10
135.6725286104
 20
69.693465665
 10
135.5941551625
 20
69.779091162
 10
135.5188500888
 20
69.8628094171
 10
135.4465602615
 20
69.94466319
 10
135.3773388084
 20
70.0246097209
 10
135.3109635801
 20
70.1024954887
 10
135.2474715783
 20
70.1782579239
 10
135.1868258013
 20
70.251959596
 10
135.1286930943
 20
70.323634692
 10
135.0731910612
 20
70.3930988755
 10
135.0202020981
 20
70.4605364829
 10
134.9690402382
 20
70.5265347098
 10
134.9197090964
 20
70.5910401569
 10
134.8722050578
 20
70.6541062235
 10
134.8258313106
 20
70.7164803044
 10
134.7805602012
 20
70.7781550033
 10
134.7364193832
 20
70.8391377163
 10
134.6927950058
 20
70.9001980265
 10
134.6495483322
 20
70.9615025888
 10
134.6068180992
 20
71.0228847483
 10
134.5644066664
 20
71.0846141232
 10
134.5222129806
 20
71.1468360335
 10
134.4803380949
 20
71.2094051592
 10
134.4388875282
 20
71.2721551582
 10
134.3979288348
 20
71.3349845357
 10
134.3573944605
 20
71.3979947864
 10
134.3171872607
 20
71.461324052
 10
134.2773457746
 20
71.5249001894
 10
134.2378314631
 20
71.5887953416
 10
134.1984315647
 20
71.6533640789
 10
134.1591413315
 20
71.7185999605
 10
134.1199655115
 20
71.7845094272
 10
134.0807055859
 20
71.8514663714
 10
134.0413594507
 20
71.919467324
 10
134.00192921
 20
71.9885157542
 10
133.9622226581
 20
72.0589959619
 10
133.9221757262
 20
72.1310360473
 10
133.881852483
 20
72.2045079102
 10
133.8412529286
 20
72.2794115507
  0
LWPOLYLINE
  5
4BA
100
AcDbEntity
  8
0
100
AcDbPolyline
 62
253
  6
CONTINUOUS
 90
13
 70
0
 10
135.0048182351
 20
67.1806547359
 10
135.0592713781
 20
67.2192971305
 10
135.1146023031
 20
67.2575322266
 10
135.1705254833
 20
67.2951627176
 10
135.2267523357
 20
67.3319944173
 10
135.2829927098
 20
67.3678372608
 10
135.3389563847
 20
67.4025062861
 10
135.3943545682
 20
67.4358225887
 10
135.4489013862
 20
67.4676142449
 10
135.5023153573
 20
67.4977171981
 10
135.5543208464
 20
67.5259761064
 10
135.6046494873
 20
67.5522451444
 10
135.6530415666
 20
67.5763887545
  0
LINE
  5
4BB
100
AcDbEntity
  8
0
100
AcDbLine
 62
7
  6
CONTINUOUS
 10
143.2205116645
 20
74.9333214415
 11
143.202955232
 21
74.9211693178
  0
LWPOLYLINE
  5
4BC
100
AcDbEntity
  8
0
100
AcDbPolyline
 62
253
  6
CONTINUOUS
 90
58
 70
0
 10
156.4661394518
 20
57.6283250278
 10
156.4228218966
 20
57.5174859804
 10
156.371787668
 20
57.396499237
 10
156.3121339357
 20
57.2658565941
 10
156.241260442
 20
57.1229673891
 10
156.1595663851
 20
56.9718218709
 10
156.0715914005
 20
56.8223966486
 10
155.9779876866
 20
56.6760221901
 10
155.8781308459
 20
56.5319048907
 10
155.7763139803
 20
56.3958598395
 10
155.6745956698
 20
56.2694677723
 10
155.5721955412
 20
56.1506810457
 10
155.4697431809
 20
56.0393859309
 10
155.3679653391
 20
55.935562629
 10
155.267109771
 20
55.8387121883
 10
155.1669982162
 20
55.7480230276
 10
155.0679690547
 20
55.6632545776
 10
154.970368357
 20
55.5841894071
 10
154.8739049104
 20
55.5101387952
 10
154.778759928
 20
55.440857614
 10
154.6852357712
 20
55.3762020289
 10
154.5931391888
 20
55.3157062391
 10
154.5026271492
 20
55.2591816386
 10
154.4138982956
 20
55.206474491
 10
154.3267692234
 20
55.1572213812
 10
154.2413585757
 20
55.1112631289
 10
154.1578103078
 20
55.0684609052
 10
154.0759422053
 20
55.0285223621
 10
153.9958531806
 20
54.9913171178
 10
153.9176386404
 20
54.9567181721
 10
153.8410839149
 20
54.9244738593
 10
153.7662502308
 20
54.8944699382
 10
153.6932184301
 20
54.8666043433
 10
153.6217829422
 20
54.8406751871
 10
153.5519687441
 20
54.8165811064
 10
153.4838548167
 20
54.7942428296
 10
153.4173028203
 20
54.7735152848
 10
153.3523393961
 20
54.7543157293
 10
153.2890156119
 20
54.7365710835
 10
153.2272207279
 20
54.7201672689
 10
153.1669846627
 20
54.7050358742
 10
153.1083356909
 20
54.6911097362
 10
153.051153978
 20
54.6782903168
 10
152.9954654193
 20
54.6665195245
 10
152.941287071
 20
54.6557390941
 10
152.8884806238
 20
54.6458632181
 10
152.8370630526
 20
54.6368424223
 10
152.7870485334
 20
54.6286283309
 10
152.7382905139
 20
54.6211491355
 10
152.6908119914
 20
54.6143651542
 10
152.6446123122
 20
54.6082346964
 10
152.5995062983
 20
54.6026952786
 10
152.5555084446
 20
54.5977145721
 10
152.5126198974
 20
54.5932602914
 10
152.4706330408
 20
54.5892827199
 10
152.4294820548
 20
54.5857514936
 10
152.389243579
 20
54.5826491052
 10
152.3499223793
 20
54.5799517184
  0
LWPOLYLINE
  5
4BD
100
AcDbEntity
  8
0
100
AcDbPolyline
 62
253
  6
CONTINUOUS
 90
4
 70
0
 10
155.9233987989
 20
58.1314649289
 10
155.8677624923
 20
57.9933562849
 10
155.8388245627
 20
57.9230108916
 10
155.8089072491
 20
57.851837378
  0
LWPOLYLINE
  5
4BE
100
AcDbEntity
  8
0
100
AcDbPolyline
 62
253
  6
CONTINUOUS
 90
58
 70
0
 10
155.8089072491
 20
57.851837378
 10
155.7694049252
 20
57.7592147278
 10
155.7232062424
 20
57.6584799837
 10
155.6697675219
 20
57.5499747743
 10
155.6072930284
 20
57.4314553255
 10
155.5363858464
 20
57.3060638901
 10
155.460617484
 20
57.1819844459
 10
155.3801125334
 20
57.0603807199
 10
155.294560287
 20
56.9405542303
 10
155.2077825473
 20
56.8272773618
 10
155.1213463466
 20
56.7219155011
 10
155.0344468111
 20
56.6228084639
 10
154.9477848942
 20
56.5298116137
 10
154.8619154591
 20
56.4429412716
 10
154.7769101299
 20
56.3618266404
 10
154.6927021198
 20
56.2857353901
 10
154.6095312108
 20
56.2144872485
 10
154.527605097
 20
56.1479400219
 10
154.4467312014
 20
56.0854728896
 10
154.3670273832
 20
56.0269021252
 10
154.2886943323
 20
55.9721421075
 10
154.2116095761
 20
55.9207646708
 10
154.1358788359
 20
55.8726304784
 10
154.0616329763
 20
55.8276431101
 10
153.9887528078
 20
55.785470654
 10
153.9173263219
 20
55.7459970504
 10
153.8474473171
 20
55.709130018
 10
153.7789813744
 20
55.67459947
 10
153.711995767
 20
55.6423078847
 10
153.6465592171
 20
55.6121731786
 10
153.5825204157
 20
55.5839722488
 10
153.5199241941
 20
55.5576159747
 10
153.4588264236
 20
55.5330370463
 10
153.3990785052
 20
55.5100638661
 10
153.3407004506
 20
55.488615877
 10
153.2837476502
 20
55.4686330453
 10
153.2281150442
 20
55.4499914261
 10
153.1738347993
 20
55.4326348495
 10
153.1209319878
 20
55.4165012192
 10
153.0692839657
 20
55.4014711756
 10
153.018911523
 20
55.3875040936
 10
152.9698364486
 20
55.3745481272
 10
152.9219316671
 20
55.3624832338
 10
152.8752045189
 20
55.3512737853
 10
152.8296783936
 20
55.3408935842
 10
152.7852456873
 20
55.3312457847
 10
152.7419223838
 20
55.3222992393
 10
152.6997150303
 20
55.3140287713
 10
152.6584984766
 20
55.3063544864
 10
152.6182605801
 20
55.2992389599
 10
152.5790296794
 20
55.2926710209
 10
152.5407391669
 20
55.2866162859
 10
152.5033963684
 20
55.281028138
 10
152.4670064923
 20
55.2759025888
 10
152.4314993765
 20
55.2712606842
 10
152.3968556133
 20
55.267082872
 10
152.363106213
 20
55.2633107108
 10
152.3302561926
 20
55.2599099791
  0
LWPOLYLINE
  5
4BF
100
AcDbEntity
  8
0
100
AcDbPolyline
 62
253
  6
CONTINUOUS
 90
76
 70
0
 10
153.8125306593
 20
67.1806521237
 10
153.7397907224
 20
67.0650761868
 10
153.6650810421
 20
66.9500116768
 10
153.588388461
 20
66.8355089518
 10
153.5095682433
 20
66.7214786968
 10
153.4287352432
 20
66.6081176846
 10
153.3462820088
 20
66.4958919593
 10
153.2622751789
 20
66.3849062516
 10
153.1766577089
 20
66.27513253
 10
153.0896617389
 20
66.1668142463
 10
153.0014862467
 20
66.0602137329
 10
152.9119606928
 20
65.9551271078
 10
152.8207549507
 20
65.8511009158
 10
152.7275320119
 20
65.7478237553
 10
152.6326087629
 20
65.6457033628
 10
152.5366443048
 20
65.5453505752
 10
152.4402606437
 20
65.4473908462
 10
152.3429154562
 20
65.3512108124
 10
152.2435020296
 20
65.255577522
 10
152.1417789455
 20
65.1605741013
 10
152.0377943649
 20
65.0662972617
 10
151.9307556839
 20
64.9716167684
 10
151.8195835085
 20
64.875899674
 10
151.7048359851
 20
64.7801816448
 10
151.5883407878
 20
64.6857428501
 10
151.4706866402
 20
64.5928040607
 10
151.3514628394
 20
64.501156397
 10
151.2311800332
 20
64.4112897987
 10
151.1101856051
 20
64.3234533268
 10
150.9882454613
 20
64.237406558
 10
150.8649986597
 20
64.1529048251
 10
150.7402830398
 20
64.0698506196
 10
150.6143367518
 20
63.9883991752
 10
150.4873887602
 20
63.9086963069
 10
150.3597074284
 20
63.8309115654
 10
150.2311128376
 20
63.7549119095
 10
150.1011523444
 20
63.6804070134
 10
149.9697614056
 20
63.6074163262
 10
149.8370607192
 20
63.5360098991
 10
149.7028520117
 20
63.4660167415
 10
149.5667211342
 20
63.397177016
 10
149.429120608
 20
63.3299955983
 10
149.2911869098
 20
63.2652842858
 10
149.1534445735
 20
63.2028345888
 10
149.0155214586
 20
63.1421890792
 10
148.8772344217
 20
63.0836443536
 10
148.7388244762
 20
63.0273803476
 10
148.6001276535
 20
62.9731286004
 10
148.4603442995
 20
62.9206024733
 10
148.3191979378
 20
62.8697230053
 10
148.1770093595
 20
62.8206126589
 10
148.0338640775
 20
62.7733129181
 10
147.8897795299
 20
62.7278348186
 10
147.7447884655
 20
62.6841926201
 10
147.5990018809
 20
62.6424281941
 10
147.4524980268
 20
62.6025675264
 10
147.305252397
 20
62.5646058569
 10
147.1572224713
 20
62.5285389993
 10
147.0084080218
 20
62.4943722393
 10
146.8588631012
 20
62.4621233667
 10
146.7086264726
 20
62.4318091478
 10
146.5577308837
 20
62.4034402452
 10
146.406200313
 20
62.3770237962
 10
146.2540609757
 20
62.3525711921
 10
146.101331633
 20
62.3300918614
 10
145.948051397
 20
62.3095959182
 10
145.7942774602
 20
62.2910951835
 10
145.6399723772
 20
62.2745930854
 10
145.4852326337
 20
62.2601064794
 10
145.3303173977
 20
62.2476585037
 10
145.174987047
 20
62.2372416149
 10
145.0195420907
 20
62.2288734142
 10
144.8650538601
 20
62.2225696804
 10
144.7119001571
 20
62.2182960739
 10
144.5597638197
 20
62.2160094551
 10
144.4086734694
 20
62.2156756669
  0
LWPOLYLINE
  5
4C0
100
AcDbEntity
  8
0
100
AcDbPolyline
 62
253
  6
CONTINUOUS
 90
76
 70
0
 10
153.1643107739
 20
67.5763888917
 10
153.083655379
 20
67.4769089399
 10
153.0016599327
 20
67.3778188905
 10
152.918310443
 20
67.2791200552
 10
152.8334023175
 20
67.1806200345
 10
152.7471140875
 20
67.08252816
 10
152.6600317917
 20
66.9854324477
 10
152.5723332272
 20
66.8894325575
 10
152.4838863515
 20
66.7944225534
 10
152.3948408826
 20
66.7006600751
 10
152.3054252199
 20
66.6083553532
 10
152.2154671321
 20
66.5172862375
 10
152.124505533
 20
66.4270757919
 10
152.0322187036
 20
66.3374355917
 10
151.9389399672
 20
66.2486803366
 10
151.8451928507
 20
66.1613382796
 10
151.751534971
 20
66.0758836434
 10
151.6574723612
 20
65.9918163904
 10
151.5619353073
 20
65.9082218172
 10
151.4648928768
 20
65.8250858382
 10
151.366361093
 20
65.7424773245
 10
151.2652792214
 20
65.6596754406
 10
151.1608121911
 20
65.5761366593
 10
151.0537089235
 20
65.4925536521
 10
150.9452960435
 20
65.4100525183
 10
150.8358610979
 20
65.3288810363
 10
150.7251327854
 20
65.248834529
 10
150.6136540619
 20
65.1702975676
 10
150.5017234668
 20
65.093462327
 10
150.3890877276
 20
65.0181427371
 10
150.2754701367
 20
64.9441472434
 10
150.1607158558
 20
64.8713825661
 10
150.0450071233
 20
64.7999771389
 10
149.9285706691
 20
64.7300748214
 10
149.8116302776
 20
64.6618006435
 10
149.6940055634
 20
64.5950414491
 10
149.5753132564
 20
64.5295903151
 10
149.4554999972
 20
64.4654318079
 10
149.3346415708
 20
64.4026271724
 10
149.2125360833
 20
64.3411062308
 10
149.0888056797
 20
64.2807254017
 10
148.9638406963
 20
64.2216986305
 10
148.838605641
 20
64.1644657661
 10
148.7134841251
 20
64.109179665
 10
148.5881494089
 20
64.0556713893
 10
148.4625170925
 20
64.0038642568
 10
148.3368141021
 20
63.9538196705
 10
148.2108713242
 20
63.90545597
 10
148.0839993162
 20
63.8585069171
 10
147.9559625112
 20
63.8128999833
 10
147.8270281394
 20
63.7687485331
 10
147.6972512585
 20
63.7260893603
 10
147.5666359967
 20
63.6849343982
 10
147.4352156608
 20
63.6453049804
 10
147.3030914111
 20
63.6072479454
 10
147.1703356756
 20
63.5707909199
 10
147.0369179366
 20
63.5359325026
 10
146.9027858827
 20
63.502675836
 10
146.7679343407
 20
63.4710320468
 10
146.6324102703
 20
63.4410237416
 10
146.4962396224
 20
63.4126739133
 10
146.3594439427
 20
63.3859993153
 10
146.2220458382
 20
63.3610163316
 10
146.0840736616
 20
63.3377471317
 10
145.9455409249
 20
63.3162057394
 10
145.8064803306
 20
63.2964113283
 10
145.6669500461
 20
63.2783923791
 10
145.5269128881
 20
63.2621585348
 10
145.3864546501
 20
63.2477322492
 10
145.2458198224
 20
63.2351516674
 10
145.1047941122
 20
63.2244055072
 10
144.9636431327
 20
63.2155249038
 10
144.8233350456
 20
63.2085672536
 10
144.6842118611
 20
63.2035161123
 10
144.5459864214
 20
63.2003211488
 10
144.4086844013
 20
63.1989527813
  0
LINE
  5
4C1
100
AcDbEntity
  8
0
100
AcDbLine
 62
7
  6
CONTINUOUS
 10
145.6143917046
 20
74.1843153746
 11
145.5968352742
 21
74.1721632524
  0
LINE
  5
4C2
100
AcDbEntity
  8
0
100
AcDbLine
 62
7
  6
CONTINUOUS
 10
143.2205116645
 20
74.9333214415
 11
143.2714701424
 21
74.9605583137
  0
LINE
  5
4C3
100
AcDbEntity
  8
0
100
AcDbLine
 62
7
  6
CONTINUOUS
 10
145.5968352742
 20
74.1721632524
 11
145.5458767964
 21
74.1449263802
  0
LINE
  5
4C4
100
AcDbEntity
  8
0
100
AcDbLine
 62
7
  6
CONTINUOUS
 10
143.2714701424
 20
74.9605583137
 11
143.4661260721
 21
75.0630931706
  0
LINE
  5
4C5
100
AcDbEntity
  8
0
100
AcDbLine
 62
7
  6
CONTINUOUS
 10
145.5458767964
 20
74.1449263802
 11
145.3512208666
 21
74.0423915232
  0
LINE
  5
4C6
100
AcDbEntity
  8
0
100
AcDbLine
 62
7
  6
CONTINUOUS
 10
143.4661260721
 20
75.0630931706
 11
143.5565250458
 21
75.1099549953
  0
LINE
  5
4C7
100
AcDbEntity
  8
0
100
AcDbLine
 62
7
  6
CONTINUOUS
 10
145.3512208666
 20
74.0423915232
 11
145.260821893
 21
73.9955296985
  0
LINE
  5
4C8
100
AcDbEntity
  8
0
100
AcDbLine
 62
7
  6
CONTINUOUS
 10
143.5565250458
 20
75.1099549953
 11
143.644727978
 21
75.1551222763
  0
LINE
  5
4C9
100
AcDbEntity
  8
0
100
AcDbLine
 62
7
  6
CONTINUOUS
 10
145.260821893
 20
73.9955296985
 11
145.1726189608
 21
73.9503624175
  0
LINE
  5
4CA
100
AcDbEntity
  8
0
100
AcDbLine
 62
7
  6
CONTINUOUS
 10
143.644727978
 20
75.1551222763
 11
143.7162516079
 21
75.1912705336
  0
LINE
  5
4CB
100
AcDbEntity
  8
0
100
AcDbLine
 62
7
  6
CONTINUOUS
 10
145.1726189608
 20
73.9503624175
 11
145.1010953309
 21
73.9142141602
  0
LINE
  5
4CC
100
AcDbEntity
  8
0
100
AcDbLine
 62
7
  6
CONTINUOUS
 10
143.7162516079
 20
75.1912705336
 11
143.752177429
 21
75.209238225
  0
LINE
  5
4CD
100
AcDbEntity
  8
0
100
AcDbLine
 62
7
  6
CONTINUOUS
 10
145.1010953309
 20
73.9142141602
 11
145.0651695098
 21
73.8962464689
  0
LINE
  5
4CE
100
AcDbEntity
  8
0
100
AcDbLine
 62
7
  6
CONTINUOUS
 10
143.8364198887
 20
75.1249958433
 11
143.8086734694
 21
75.1113567834
  0
LINE
  5
4CF
100
AcDbEntity
  8
0
100
AcDbLine
 62
7
  6
CONTINUOUS
 10
144.9809270501
 20
73.9804888506
 11
145.0086734694
 21
73.9941279105
  0
LWPOLYLINE
  5
4D0
100
AcDbEntity
  8
TRASH
100
AcDbPolyline
 62
7
  6
CONTINUOUS
 90
3
 70
0
 10
143.2636761993
 20
74.7808905651
 10
143.3869322303
 20
74.8384749643
 10
143.5655480905
 20
74.9216545862
  0
LWPOLYLINE
  5
4D1
100
AcDbEntity
  8
TRASH
100
AcDbPolyline
 62
7
  6
CONTINUOUS
 90
3
 70
0
 10
145.5536707395
 20
74.3245941288
 10
145.4304147098
 20
74.2670097303
 10
145.2517988481
 20
74.1838301076
  0
LINE
  5
4D2
100
AcDbEntity
  8
0
100
AcDbLine
 62
7
  6
CONTINUOUS
 10
144.647495842
 20
75.6748486339
 11
144.6915328731
 21
75.6953367116
  0
LINE
  5
4D3
100
AcDbEntity
  8
0
100
AcDbLine
 62
7
  6
CONTINUOUS
 10
144.1698510968
 20
73.4306360599
 11
144.1258140657
 21
73.4101479823
  0
LINE
  5
4D4
100
AcDbEntity
  8
TRASH
100
AcDbLine
 62
7
  6
CONTINUOUS
 10
143.5655480905
 20
74.9216545862
 11
143.7889718408
 21
75.0258453686
  0
LINE
  5
4D5
100
AcDbEntity
  8
TRASH
100
AcDbLine
 62
7
  6
CONTINUOUS
 10
145.2517988481
 20
74.1838301076
 11
145.0283750978
 21
74.0796393252
  0
LINE
  5
4D6
100
AcDbEntity
  8
TRASH
100
AcDbLine
 62
7
  6
CONTINUOUS
 10
143.7889718408
 20
75.0258453686
 11
143.8889466871
 21
75.0724597819
  0
LINE
  5
4D7
100
AcDbEntity
  8
TRASH
100
AcDbLine
 62
7
  6
CONTINUOUS
 10
145.0283750978
 20
74.0796393252
 11
144.9284002516
 21
74.033024912
  0
LINE
  5
4D8
100
AcDbEntity
  8
0
100
AcDbLine
 62
7
  6
CONTINUOUS
 10
144.6574106251
 20
75.7065424109
 11
144.6779376018
 21
75.7154454236
  0
LINE
  5
4D9
100
AcDbEntity
  8
0
100
AcDbLine
 62
7
  6
CONTINUOUS
 10
144.1599363051
 20
73.3989422956
 11
144.1394093303
 21
73.3900392802
  0
LINE
  5
4DA
100
AcDbEntity
  8
0
100
AcDbLine
 62
7
  6
CONTINUOUS
 10
144.6368216875
 20
75.6977396171
 11
144.6574106251
 21
75.7065424109
  0
LINE
  5
4DB
100
AcDbEntity
  8
0
100
AcDbLine
 62
7
  6
CONTINUOUS
 10
144.1805252513
 20
73.4077450768
 11
144.1599363051
 21
73.3989422956
  0
LWPOLYLINE
  5
4DC
100
AcDbEntity
  8
0
100
AcDbPolyline
 62
253
  6
CONTINUOUS
 90
7
 70
0
 10
130.7788001001
 20
62.3457072542
 10
130.7887316858
 20
62.3500027182
 10
130.8048375253
 20
62.3560640588
 10
130.8270126098
 20
62.3638517566
 10
130.8551123596
 20
62.3733150365
 10
130.8889535669
 20
62.3843921987
 10
130.9283155897
 20
62.3970110211
  0
LINE
  5
4DD
100
AcDbEntity
  8
0
100
AcDbLine
 62
253
  6
CONTINUOUS
 10
130.9283155897
 20
62.3970110211
 11
131.0225412117
 21
62.4265350365
  0
LINE
  5
4DE
100
AcDbEntity
  8
0
100
AcDbLine
 62
253
  6
CONTINUOUS
 10
131.0225412117
 20
62.4265350365
 11
131.1353358587
 21
62.4611183615
  0
LINE
  5
4DF
100
AcDbEntity
  8
0
100
AcDbLine
 62
253
  6
CONTINUOUS
 10
131.1353358587
 20
62.4611183615
 11
131.2637626793
 21
62.4998605447
  0
LWPOLYLINE
  5
4E0
100
AcDbEntity
  8
0
100
AcDbPolyline
 62
253
  6
CONTINUOUS
 90
3
 70
0
 10
131.2637626793
 20
62.4998605447
 10
131.4044778046
 20
62.5417528499
 10
131.4783084733
 20
62.5635418757
  0
LWPOLYLINE
  5
4E1
100
AcDbEntity
  8
0
100
AcDbPolyline
 62
253
  6
CONTINUOUS
 90
3
 70
0
 10
132.3512046078
 20
57.6283326714
 10
132.1541599242
 20
57.5535955361
 10
132.1056076332
 20
57.5352137017
  0
LINE
  5
4E2
100
AcDbEntity
  8
0
100
AcDbLine
 62
253
  6
CONTINUOUS
 10
132.8401071646
 20
57.7906412567
 11
133.0084415798
 21
57.8518382673
  0
LWPOLYLINE
  5
4E3
100
AcDbEntity
  8
0
100
AcDbPolyline
 62
253
  6
CONTINUOUS
 90
13
 70
0
 10
91.4011863082
 20
54.5799517169
 10
91.4964540824
 20
54.5937132468
 10
91.5899710652
 20
54.6165546495
 10
91.680870499
 20
54.6482642206
 10
91.7683098863
 20
54.6885480612
 10
91.8514787993
 20
54.7370328025
 10
91.9296063908
 20
54.7932690661
 10
92.0019685386
 20
54.8567356287
 10
92.0678945576
 20
54.9268442535
 10
92.1267734152
 20
55.0029451418
 10
92.1780593955
 20
55.0843329562
 10
92.2212771566
 20
55.1702533574
 10
92.2560261366
 20
55.259909996
  0
LWPOLYLINE
  5
4E4
100
AcDbEntity
  8
0
100
AcDbPolyline
 62
253
  6
CONTINUOUS
 90
10
 70
0
 10
91.4011863079
 20
54.5799517184
 10
90.778598209
 20
54.5247932471
 10
90.155442136
 20
54.4761071949
 10
89.531785656
 20
54.4338996526
 10
88.9076869767
 20
54.3981755187
 10
88.2832232132
 20
54.3689401658
 10
87.6584904267
 20
54.3461984596
 10
87.0335658784
 20
54.3299529915
 10
86.4085079762
 20
54.3202050592
 10
85.7833845735
 20
54.3169556471
  0
LINE
  5
4E5
100
AcDbEntity
  8
0
100
AcDbLine
 62
253
  6
CONTINUOUS
 10
90.8874746139
 20
54.2848574715
 11
91.1800789342
 21
54.2959377974
  0
LINE
  5
4E6
100
AcDbEntity
  8
0
100
AcDbLine
 62
253
  6
CONTINUOUS
 10
90.6664379076
 20
54.132082717
 11
91.0433845735
 21
54.1465272805
  0
LINE
  5
4E7
100
AcDbEntity
  8
0
100
AcDbLine
 62
253
  6
CONTINUOUS
 10
90.5764066411
 20
54.2739201215
 11
90.8874746139
 21
54.2848574715
  0
LINE
  5
4E8
100
AcDbEntity
  8
0
100
AcDbLine
 62
253
  6
CONTINUOUS
 10
90.3354282406
 20
54.1204331714
 11
90.6664379076
 21
54.132082717
  0
LINE
  5
4E9
100
AcDbEntity
  8
0
100
AcDbLine
 62
253
  6
CONTINUOUS
 10
90.1969962003
 20
54.2616867701
 11
90.5764066411
 21
54.2739201215
  0
LINE
  5
4EA
100
AcDbEntity
  8
0
100
AcDbLine
 62
253
  6
CONTINUOUS
 10
89.9498957563
 20
54.1080840256
 11
90.3354282406
 21
54.1204331714
  0
LINE
  5
4EB
100
AcDbEntity
  8
0
100
AcDbLine
 62
253
  6
CONTINUOUS
 10
89.7840323253
 20
54.2497392612
 11
90.1969962003
 21
54.2616867701
  0
LINE
  5
4EC
100
AcDbEntity
  8
0
100
AcDbLine
 62
253
  6
CONTINUOUS
 10
89.5414469507
 20
54.0964297042
 11
89.9498957563
 21
54.1080840256
  0
LINE
  5
4ED
100
AcDbEntity
  8
0
100
AcDbLine
 62
253
  6
CONTINUOUS
 10
89.3663826846
 20
54.2391137635
 11
89.7840323253
 21
54.2497392612
  0
LINE
  5
4EE
100
AcDbEntity
  8
0
100
AcDbLine
 62
253
  6
CONTINUOUS
 10
89.1358878065
 20
54.0863099376
 11
89.5414469507
 21
54.0964297042
  0
LINE
  5
4EF
100
AcDbEntity
  8
0
100
AcDbLine
 62
253
  6
CONTINUOUS
 10
88.9620633013
 20
54.2302164017
 11
89.3663826846
 21
54.2391137635
  0
LINE
  5
4F0
100
AcDbEntity
  8
0
100
AcDbLine
 62
253
  6
CONTINUOUS
 10
88.7467429156
 20
54.0779579951
 11
89.1358878065
 21
54.0863099376
  0
LINE
  5
4F1
100
AcDbEntity
  8
0
100
AcDbLine
 62
253
  6
CONTINUOUS
 10
88.5811710553
 20
54.223100159
 11
88.9620633013
 21
54.2302164017
  0
LINE
  5
4F2
100
AcDbEntity
  8
0
100
AcDbLine
 62
253
  6
CONTINUOUS
 10
88.378433717
 20
54.0712769199
 11
88.7467429156
 21
54.0779579951
  0
LINE
  5
4F3
100
AcDbEntity
  8
0
100
AcDbLine
 62
253
  6
CONTINUOUS
 10
88.1948177656
 20
54.217094886
 11
88.5811710553
 21
54.223100159
  0
LINE
  5
4F4
100
AcDbEntity
  8
0
100
AcDbLine
 62
253
  6
CONTINUOUS
 10
87.9919241673
 20
54.0655439771
 11
88.378433717
 21
54.0712769199
  0
LINE
  5
4F5
100
AcDbEntity
  8
0
100
AcDbLine
 62
253
  6
CONTINUOUS
 10
87.919723736
 20
54.2135674559
 11
88.1948177656
 21
54.217094886
  0
LINE
  5
4F6
100
AcDbEntity
  8
0
100
AcDbLine
 62
253
  6
CONTINUOUS
 10
87.7141873122
 20
54.0622336368
 11
87.9919241673
 21
54.0655439771
  0
LINE
  5
4F7
100
AcDbEntity
  8
0
100
AcDbLine
 62
253
  6
CONTINUOUS
 10
87.6303165429
 20
54.2105623451
 11
87.919723736
 21
54.2135674559
  0
LINE
  5
4F8
100
AcDbEntity
  8
0
100
AcDbLine
 62
253
  6
CONTINUOUS
 10
87.4286325607
 20
54.0595336494
 11
87.7141873122
 21
54.0622336368
  0
LINE
  5
4F9
100
AcDbEntity
  8
0
100
AcDbLine
 62
253
  6
CONTINUOUS
 10
87.3360222993
 20
54.208212965
 11
87.6303165429
 21
54.2105623451
  0
LINE
  5
4FA
100
AcDbEntity
  8
0
100
AcDbLine
 62
253
  6
CONTINUOUS
 10
87.1383416914
 20
54.0575152129
 11
87.4286325607
 21
54.0595336494
  0
LINE
  5
4FB
100
AcDbEntity
  8
0
100
AcDbLine
 62
253
  6
CONTINUOUS
 10
87.0374399015
 20
54.2065714758
 11
87.3360222993
 21
54.208212965
  0
LINE
  5
4FC
100
AcDbEntity
  8
0
100
AcDbLine
 62
253
  6
CONTINUOUS
 10
86.8446455181
 20
54.0562228046
 11
87.1383416914
 21
54.0575152129
  0
LINE
  5
4FD
100
AcDbEntity
  8
0
100
AcDbLine
 62
253
  6
CONTINUOUS
 10
84.1395686579
 20
54.2068580882
 11
83.8182381015
 21
54.2057509713
  0
LINE
  5
4FE
100
AcDbEntity
  8
0
100
AcDbLine
 62
253
  6
CONTINUOUS
 10
86.7345866525
 20
54.2056593381
 11
87.0374399015
 21
54.2065714758
  0
LINE
  5
4FF
100
AcDbEntity
  8
0
100
AcDbLine
 62
253
  6
CONTINUOUS
 10
84.8649528293
 20
54.2099134504
 11
84.1395686579
 21
54.2068580882
  0
LINE
  5
500
100
AcDbEntity
  8
0
100
AcDbLine
 62
253
  6
CONTINUOUS
 10
86.5454971214
 20
54.0556878398
 11
86.8446455181
 21
54.0562228046
  0
LINE
  5
501
100
AcDbEntity
  8
0
100
AcDbLine
 62
253
  6
CONTINUOUS
 10
83.8467878826
 20
54.0559443551
 11
83.5412720257
 21
54.0556878398
  0
LINE
  5
502
100
AcDbEntity
  8
0
100
AcDbLine
 62
253
  6
CONTINUOUS
 10
85.0433845735
 20
54.0602425813
 11
83.8467878826
 21
54.0559443551
  0
LINE
  5
503
100
AcDbEntity
  8
0
100
AcDbLine
 62
253
  6
CONTINUOUS
 10
83.8182381015
 20
54.2057509713
 11
83.5058219415
 21
54.2054910955
  0
LINE
  5
504
100
AcDbEntity
  8
0
100
AcDbLine
 62
7
  6
CONTINUOUS
 10
80.7433845859
 20
51.0527423469
 11
89.3433845612
 21
51.0527423469
  0
LINE
  5
505
100
AcDbEntity
  8
0
100
AcDbLine
 62
253
  6
CONTINUOUS
 10
79.9433845735
 20
51.8527423469
 11
90.1433845735
 21
51.8527423469
  0
LINE
  5
506
100
AcDbEntity
  8
0
100
AcDbLine
 62
253
  6
CONTINUOUS
 10
79.9433845735
 20
52.4027423469
 11
90.1433845735
 21
52.4027423469
  0
LINE
  5
507
100
AcDbEntity
  8
0
100
AcDbLine
 62
253
  6
CONTINUOUS
 10
79.8012793104
 20
52.5525344466
 11
90.2854898367
 21
52.5525344466
  0
LINE
  5
508
100
AcDbEntity
  8
0
100
AcDbLine
 62
253
  6
CONTINUOUS
 10
79.0433845735
 20
53.351425645
 11
91.0433845735
 21
53.351425645
  0
LINE
  5
509
100
AcDbEntity
  8
0
100
AcDbLine
 62
253
  6
CONTINUOUS
 10
84.3033845735
 20
54.3169556471
 11
85.7833845735
 21
54.3169556471
  0
LINE
  5
50A
100
AcDbEntity
  8
0
100
AcDbLine
 62
253
  6
CONTINUOUS
 10
86.4258021247
 20
54.2055215081
 11
86.7345866525
 21
54.2056593381
  0
LINE
  5
50B
100
AcDbEntity
  8
0
100
AcDbLine
 62
253
  6
CONTINUOUS
 10
84.8649528293
 20
54.2099134504
 11
85.1622906112
 21
54.2099872364
  0
LINE
  5
50C
100
AcDbEntity
  8
0
100
AcDbLine
 62
253
  6
CONTINUOUS
 10
86.2399812645
 20
54.0559443551
 11
86.5454971214
 21
54.0556878398
  0
LINE
  5
50D
100
AcDbEntity
  8
0
100
AcDbLine
 62
253
  6
CONTINUOUS
 10
85.0433845735
 20
54.0602425813
 11
85.3333270782
 21
54.0598754239
  0
LINE
  5
50E
100
AcDbEntity
  8
0
100
AcDbLine
 62
253
  6
CONTINUOUS
 10
83.5412720257
 20
54.0556878398
 11
83.242123629
 21
54.0562228046
  0
LINE
  5
50F
100
AcDbEntity
  8
0
100
AcDbLine
 62
253
  6
CONTINUOUS
 10
83.5058219415
 20
54.2054910955
 11
83.2000022394
 21
54.2060232015
  0
LINE
  5
510
100
AcDbEntity
  8
0
100
AcDbLine
 62
253
  6
CONTINUOUS
 10
86.1089278012
 20
54.2061908318
 11
86.4258021247
 21
54.2055215081
  0
LINE
  5
511
100
AcDbEntity
  8
0
100
AcDbLine
 62
253
  6
CONTINUOUS
 10
85.1622906112
 20
54.2099872364
 11
85.4614444919
 21
54.209318893
  0
LINE
  5
512
100
AcDbEntity
  8
0
100
AcDbLine
 62
253
  6
CONTINUOUS
 10
85.9254927991
 20
54.057073952
 11
86.2399812645
 21
54.0559443551
  0
LINE
  5
513
100
AcDbEntity
  8
0
100
AcDbLine
 62
253
  6
CONTINUOUS
 10
85.3333270782
 20
54.0598754239
 11
85.5724994463
 21
54.0590169458
  0
LINE
  5
514
100
AcDbEntity
  8
0
100
AcDbLine
 62
253
  6
CONTINUOUS
 10
83.2000022394
 20
54.2060232015
 11
82.8996849599
 21
54.2073008194
  0
LINE
  5
515
100
AcDbEntity
  8
0
100
AcDbLine
 62
253
  6
CONTINUOUS
 10
83.242123629
 20
54.0562228046
 11
82.9484274557
 21
54.0575152129
  0
LWPOLYLINE
  5
516
100
AcDbEntity
  8
0
100
AcDbPolyline
 62
253
  6
CONTINUOUS
 90
3
 70
0
 10
85.4614444919
 20
54.209318893
 10
85.7160825041
 20
54.2081587297
 10
86.1089278012
 20
54.2061908318
  0
LINE
  5
517
100
AcDbEntity
  8
0
100
AcDbLine
 62
253
  6
CONTINUOUS
 10
85.5724994463
 20
54.0590169458
 11
85.9254927991
 21
54.057073952
  0
LINE
  5
518
100
AcDbEntity
  8
0
100
AcDbLine
 62
253
  6
CONTINUOUS
 10
82.8996849599
 20
54.2073008194
 11
82.6028389746
 21
54.2093038932
  0
LINE
  5
519
100
AcDbEntity
  8
0
100
AcDbLine
 62
253
  6
CONTINUOUS
 10
82.9484274557
 20
54.0575152129
 11
82.6581365864
 21
54.0595336494
  0
LINE
  5
51A
100
AcDbEntity
  8
0
100
AcDbLine
 62
253
  6
CONTINUOUS
 10
82.6028389746
 20
54.2093038932
 11
82.3109876867
 21
54.2119837897
  0
LINE
  5
51B
100
AcDbEntity
  8
0
100
AcDbLine
 62
253
  6
CONTINUOUS
 10
82.6581365864
 20
54.0595336494
 11
82.3725818349
 21
54.0622336368
  0
LINE
  5
51C
100
AcDbEntity
  8
0
100
AcDbLine
 62
253
  6
CONTINUOUS
 10
82.3109876867
 20
54.2119837897
 11
82.0269181587
 21
54.2152856206
  0
LINE
  5
51D
100
AcDbEntity
  8
0
100
AcDbLine
 62
253
  6
CONTINUOUS
 10
82.3725818349
 20
54.0622336368
 11
82.0948449797
 21
54.0655439771
  0
LINE
  5
51E
100
AcDbEntity
  8
0
100
AcDbLine
 62
253
  6
CONTINUOUS
 10
82.0269181587
 20
54.2152856206
 11
81.7607988591
 21
54.2189889345
  0
LINE
  5
51F
100
AcDbEntity
  8
0
100
AcDbLine
 62
253
  6
CONTINUOUS
 10
82.0948449797
 20
54.0655439771
 11
81.8346518607
 21
54.0692592201
  0
LINE
  5
520
100
AcDbEntity
  8
0
100
AcDbLine
 62
253
  6
CONTINUOUS
 10
81.7607988591
 20
54.2189889345
 11
81.5055980918
 21
54.223100159
  0
LINE
  5
521
100
AcDbEntity
  8
0
100
AcDbLine
 62
253
  6
CONTINUOUS
 10
81.8346518607
 20
54.0692592201
 11
81.5851315921
 21
54.0733718289
  0
LINE
  5
522
100
AcDbEntity
  8
0
100
AcDbLine
 62
253
  6
CONTINUOUS
 10
81.5055980918
 20
54.223100159
 11
81.2551332886
 21
54.2276412327
  0
LINE
  5
523
100
AcDbEntity
  8
0
100
AcDbLine
 62
253
  6
CONTINUOUS
 10
81.5851315921
 20
54.0733718289
 11
81.3400262314
 21
54.0779579951
  0
LINE
  5
524
100
AcDbEntity
  8
0
100
AcDbLine
 62
253
  6
CONTINUOUS
 10
81.2551332886
 20
54.2276412327
 11
80.991913554
 21
54.2330102647
  0
LINE
  5
525
100
AcDbEntity
  8
0
100
AcDbLine
 62
253
  6
CONTINUOUS
 10
81.3400262314
 20
54.0779579951
 11
81.0828733516
 21
54.0833331229
  0
LINE
  5
526
100
AcDbEntity
  8
0
100
AcDbLine
 62
253
  6
CONTINUOUS
 10
80.991913554
 20
54.2330102647
 11
80.7203864625
 21
54.2391137635
  0
LINE
  5
527
100
AcDbEntity
  8
0
100
AcDbLine
 62
253
  6
CONTINUOUS
 10
81.0828733516
 20
54.0833331229
 11
80.8169162708
 21
54.0894954079
  0
LINE
  5
528
100
AcDbEntity
  8
0
100
AcDbLine
 62
253
  6
CONTINUOUS
 10
80.7203864625
 20
54.2391137635
 11
80.4425932341
 21
54.2460309142
  0
LINE
  5
529
100
AcDbEntity
  8
0
100
AcDbLine
 62
253
  6
CONTINUOUS
 10
80.8169162708
 20
54.0894954079
 11
80.5453221964
 21
54.0964297042
  0
LINE
  5
52A
100
AcDbEntity
  8
0
100
AcDbLine
 62
253
  6
CONTINUOUS
 10
80.4425932341
 20
54.2460309142
 11
80.1625528311
 21
54.2536686623
  0
LINE
  5
52B
100
AcDbEntity
  8
0
100
AcDbLine
 62
253
  6
CONTINUOUS
 10
80.5453221964
 20
54.0964297042
 11
80.2718320026
 21
54.104090948
  0
LINE
  5
52C
100
AcDbEntity
  8
0
100
AcDbLine
 62
253
  6
CONTINUOUS
 10
80.1625528311
 20
54.2536686623
 11
79.8897729468
 21
54.2616867701
  0
LINE
  5
52D
100
AcDbEntity
  8
0
100
AcDbLine
 62
253
  6
CONTINUOUS
 10
80.2718320026
 20
54.104090948
 11
80.0043392899
 21
54.1121748502
  0
LINE
  5
52E
100
AcDbEntity
  8
0
100
AcDbLine
 62
253
  6
CONTINUOUS
 10
79.8897729468
 20
54.2616867701
 11
79.5103625059
 21
54.2739201215
  0
LINE
  5
52F
100
AcDbEntity
  8
0
100
AcDbLine
 62
253
  6
CONTINUOUS
 10
80.0043392899
 20
54.1121748502
 11
79.6330550328
 21
54.1244650538
  0
LINE
  5
530
100
AcDbEntity
  8
0
100
AcDbLine
 62
253
  6
CONTINUOUS
 10
79.5103625059
 20
54.2739201215
 11
79.1992945331
 21
54.2848574715
  0
LINE
  5
531
100
AcDbEntity
  8
0
100
AcDbLine
 62
253
  6
CONTINUOUS
 10
79.6330550328
 20
54.1244650538
 11
79.3287014247
 21
54.1354448861
  0
LINE
  5
532
100
AcDbEntity
  8
0
100
AcDbLine
 62
253
  6
CONTINUOUS
 10
79.1992945331
 20
54.2848574715
 11
78.9066902129
 21
54.2959377974
  0
LINE
  5
533
100
AcDbEntity
  8
0
100
AcDbLine
 62
253
  6
CONTINUOUS
 10
79.3287014247
 20
54.1354448861
 11
79.0433845735
 21
54.1465272805
  0
LWPOLYLINE
  5
534
100
AcDbEntity
  8
0
100
AcDbPolyline
 62
253
  6
CONTINUOUS
 90
10
 70
0
 10
78.6855828392
 20
54.5799517184
 10
79.308170938
 20
54.5247932471
 10
79.931327011
 20
54.4761071949
 10
80.5549834911
 20
54.4338996526
 10
81.1790821704
 20
54.3981755187
 10
81.8035459339
 20
54.3689401658
 10
82.4282787204
 20
54.3461984596
 10
83.0532032687
 20
54.3299529915
 10
83.6782611708
 20
54.3202050592
 10
84.3033845735
 20
54.3169556471
  0
LWPOLYLINE
  5
535
100
AcDbEntity
  8
0
100
AcDbPolyline
 62
253
  6
CONTINUOUS
 90
13
 70
0
 10
78.6855828388
 20
54.5799517169
 10
78.5903150647
 20
54.5937132468
 10
78.4967980818
 20
54.6165546495
 10
78.4058986481
 20
54.6482642206
 10
78.3184592607
 20
54.6885480612
 10
78.2352903477
 20
54.7370328025
 10
78.1571627563
 20
54.7932690661
 10
78.0848006084
 20
54.8567356287
 10
78.0188745895
 20
54.9268442535
 10
77.9599957319
 20
55.0029451418
 10
77.9087097516
 20
55.0843329562
 10
77.8654919905
 20
55.1702533574
 10
77.8307430104
 20
55.259909996
  0
LWPOLYLINE
  5
536
100
AcDbEntity
  8
0
100
AcDbPolyline
 62
253
  6
CONTINUOUS
 90
10
 70
0
 10
91.3914073017
 20
57.6283250278
 10
90.7698607357
 20
57.608774545
 10
90.1477616737
 20
57.591523403
 10
89.5251773691
 20
57.5765740505
 10
88.9021703138
 20
57.5639320553
 10
88.2788126893
 20
57.5535958299
 10
87.6551863835
 20
57.5455562433
 10
87.0313636844
 20
57.5398105848
 10
86.4074072495
 20
57.5363629513
 10
85.7833845735
 20
57.5352137017
  0
LWPOLYLINE
  5
537
100
AcDbEntity
  8
0
100
AcDbPolyline
 62
253
  6
CONTINUOUS
 90
13
 70
0
 10
91.3914054016
 20
57.6282330179
 10
91.4878988271
 20
57.6307958873
 10
91.582585961
 20
57.6366871064
 10
91.6745664584
 20
57.645850626
 10
91.7629657107
 20
57.6581992809
 10
91.846943162
 20
57.6736156183
 10
91.9257003017
 20
57.6919530142
 10
91.9984882571
 20
57.7130370673
 10
92.0646149139
 20
57.7366672571
 10
92.1234514977
 20
57.7626188506
 10
92.1744385525
 20
57.7906450384
 10
92.2170912606
 20
57.820479282
 10
92.2510040519
 20
57.8518378474
  0
LINE
  5
538
100
AcDbEntity
  8
0
100
AcDbLine
 62
253
  6
CONTINUOUS
 10
84.3033845735
 20
57.5352137017
 11
85.7833845735
 21
57.5352137017
  0
LWPOLYLINE
  5
539
100
AcDbEntity
  8
0
100
AcDbPolyline
 62
253
  6
CONTINUOUS
 90
13
 70
0
 10
78.6953637455
 20
57.6282330179
 10
78.5988703199
 20
57.6307958873
 10
78.504183186
 20
57.6366871064
 10
78.4122026887
 20
57.645850626
 10
78.3238034364
 20
57.6581992809
 10
78.239825985
 20
57.6736156183
 10
78.1610688453
 20
57.6919530142
 10
78.08828089
 20
57.7130370673
 10
78.0221542332
 20
57.7366672571
 10
77.9633176494
 20
57.7626188506
 10
77.9123305945
 20
57.7906450384
 10
77.8696778865
 20
57.820479282
 10
77.8357650951
 20
57.8518378474
  0
LWPOLYLINE
  5
53A
100
AcDbEntity
  8
0
100
AcDbPolyline
 62
253
  6
CONTINUOUS
 90
10
 70
0
 10
78.6953618453
 20
57.6283250278
 10
79.3169084113
 20
57.608774545
 10
79.9390074733
 20
57.591523403
 10
80.5615917779
 20
57.5765740505
 10
81.1845988333
 20
57.5639320553
 10
81.8079564577
 20
57.5535958299
 10
82.4315827635
 20
57.5455562433
 10
83.0554054626
 20
57.5398105848
 10
83.6793618976
 20
57.5363629513
 10
84.3033845735
 20
57.5352137017
  0
LWPOLYLINE
  5
53B
100
AcDbEntity
  8
0
100
AcDbPolyline
 62
253
  6
CONTINUOUS
 90
16
 70
0
 10
91.351337276
 20
62.3457072522
 10
91.431354951
 20
62.3500027163
 10
91.5102458744
 20
62.3560640571
 10
91.5874956841
 20
62.3638517551
 10
91.6626007178
 20
62.3733150352
 10
91.7350712972
 20
62.3843921976
 10
91.80443492
 20
62.3970110201
 10
91.8702393414
 20
62.4110892291
 10
91.932055522
 20
62.4265350359
 10
91.9894804256
 20
62.443247735
 10
92.0421396467
 20
62.461118361
 10
92.0896898515
 20
62.4800303991
 10
92.1318210167
 20
62.4998605443
 10
92.1682584508
 20
62.5204795056
 10
92.1987645846
 20
62.5417528493
 10
92.2231405208
 20
62.5635418749
  0
LWPOLYLINE
  5
53C
100
AcDbEntity
  8
0
100
AcDbPolyline
 62
253
  6
CONTINUOUS
 90
16
 70
0
 10
78.735431871
 20
62.3457072522
 10
78.6554141961
 20
62.3500027163
 10
78.5765232727
 20
62.3560640571
 10
78.499273463
 20
62.3638517551
 10
78.4241684292
 20
62.3733150352
 10
78.3516978499
 20
62.3843921976
 10
78.2823342271
 20
62.3970110201
 10
78.2165298057
 20
62.4110892291
 10
78.154713625
 20
62.4265350359
 10
78.0972887214
 20
62.443247735
 10
78.0446295004
 20
62.461118361
 10
77.9970792956
 20
62.4800303991
 10
77.9549481303
 20
62.4998605443
 10
77.9185106963
 20
62.5204795056
 10
77.8880045624
 20
62.5417528493
 10
77.8636286262
 20
62.5635418749
  0
LWPOLYLINE
  5
53D
100
AcDbEntity
  8
0
100
AcDbPolyline
 62
253
  6
CONTINUOUS
 90
13
 70
0
 10
84.3033845735
 20
54.2077670743
 10
84.3056680495
 20
54.2056103584
 10
84.3079149224
 20
54.2010868158
 10
84.3100891746
 20
54.194268959
 10
84.3121559529
 20
54.1852660784
 10
84.3140821268
 20
54.1742224906
 10
84.3158368195
 20
54.1613152246
 10
84.3173919033
 20
54.1467511844
 10
84.3187224501
 20
54.130763832
 10
84.3198071313
 20
54.1136094453
 10
84.3206285594
 20
54.0955630096
 10
84.3211735668
 20
54.07691381
 10
84.321433417
 20
54.0579607937
  0
LINE
  5
53E
100
AcDbEntity
  8
0
100
AcDbLine
 62
7
  6
CONTINUOUS
 10
92.0433845735
 20
77.1764847795
 11
92.0733845735
 21
77.1764847795
  0
LWPOLYLINE
  5
53F
100
AcDbEntity
  8
0
100
AcDbPolyline
 62
7
  6
CONTINUOUS
 90
13
 70
0
 10
77.7961604905
 20
54.8950437768
 10
77.8361794322
 20
54.8184249985
 10
77.8826656507
 20
54.745548458
 10
77.9352718088
 20
54.6769586839
 10
77.9936048451
 20
54.6131681761
 10
78.0572289008
 20
54.5546535712
 10
78.1256685785
 20
54.5018520827
 10
78.1984125065
 20
54.4551582433
 10
78.2749171561
 20
54.414920947
 10
78.3546108969
 20
54.3814408422
 10
78.436898271
 20
54.3549680959
 10
78.5211644397
 20
54.3357005196
 10
78.6067797779
 20
54.3237820866
  0
LINE
  5
540
100
AcDbEntity
  8
0
100
AcDbLine
 62
253
  6
CONTINUOUS
 10
78.0433845735
 20
79.1027423469
 11
92.0433845735
 21
79.1027423469
  0
LWPOLYLINE
  5
541
100
AcDbEntity
  8
0
100
AcDbPolyline
 62
7
  6
CONTINUOUS
 90
10
 70
0
 10
77.7961604796
 20
54.8950437717
 10
77.4452283925
 20
55.6728613196
 10
77.1160334466
 20
56.4617594913
 10
76.8089049682
 20
57.2611280432
 10
76.5238570982
 20
58.0712954104
 10
76.2615959449
 20
58.8907092635
 10
76.0232482874
 20
59.7158496332
 10
75.8091409571
 20
60.5450426698
 10
75.6190721588
 20
61.3785474426
 10
75.4531285656
 20
62.2156756669
  0
LWPOLYLINE
  5
542
100
AcDbEntity
  8
0
100
AcDbPolyline
 62
253
  6
CONTINUOUS
 90
19
 70
0
 10
78.0433845735
 20
74.0527423469
 10
78.0467551128
 20
74.0456447176
 10
78.0568515177
 20
74.0385695545
 10
78.0736168553
 20
74.0315634704
 10
78.0969530599
 20
74.0246613758
 10
78.1267109827
 20
74.0179199088
 10
78.1626813644
 20
74.0114169334
 10
78.2046158149
 20
74.0052099576
 10
78.2522365014
 20
73.9993247958
 10
78.3052198811
 20
73.9937888091
 10
78.3632076926
 20
73.9886340929
 10
78.4258076514
 20
73.9838984025
 10
78.4925931246
 20
73.9796135596
 10
78.5631115454
 20
73.9758070712
 10
78.6368850314
 20
73.9725035536
 10
78.713410217
 20
73.9697255321
 10
78.7921670488
 20
73.9674909088
 10
78.8726227478
 20
73.9658129177
 10
78.9542320312
 20
73.9647015328
  0
LINE
  5
543
100
AcDbEntity
  8
RACCORDO
100
AcDbLine
 62
7
  6
CONTINUOUS
 10
92.0663255716
 20
94.0527423469
 11
92.0433845735
 21
94.0527423469
  0
LWPOLYLINE
  5
544
100
AcDbEntity
  8
0
100
AcDbPolyline
 62
253
  6
CONTINUOUS
 90
9
 70
0
 10
91.4011863079
 20
54.5799517184
 10
91.4022849771
 20
54.5772895932
 10
91.4033039172
 20
54.5746654189
 10
91.4042431285
 20
54.5720787054
 10
91.4050896265
 20
54.5695349239
 10
91.4058563965
 20
54.5670275668
 10
91.4065823933
 20
54.5645385163
 10
91.4072727692
 20
54.5620636627
 10
91.4079223722
 20
54.5596068842
  0
LWPOLYLINE
  5
545
100
AcDbEntity
  8
0
100
AcDbPolyline
 62
253
  6
CONTINUOUS
 90
10
 70
0
 10
77.8636286278
 20
62.563541875
 10
77.7332161127
 20
63.0660598471
 10
77.611202281
 20
63.5717901014
 10
77.497648027
 20
64.0804950223
 10
77.3926045699
 20
64.5919858154
 10
77.2961434085
 20
65.1059787381
 10
77.2083482911
 20
65.6220926093
 10
77.1292789092
 20
66.1400420544
 10
77.0589789287
 20
66.6596399927
 10
76.9975003242
 20
67.1806521237
  0
LWPOLYLINE
  5
546
100
AcDbEntity
  8
0
100
AcDbPolyline
 62
253
  6
CONTINUOUS
 90
6
 70
0
 10
76.9975003242
 20
67.1806521237
 10
76.9882732393
 20
67.2192975145
 10
76.9837904291
 20
67.2575351098
 10
76.984075026
 20
67.2951675955
 10
76.9891255613
 20
67.33200078
 10
76.9961505329
 20
67.3593882385
  0
LINE
  5
547
100
AcDbEntity
  8
0
100
AcDbLine
 62
253
  6
CONTINUOUS
 10
77.8357616291
 20
57.851837378
 11
77.8373035924
 21
57.7592147278
  0
LINE
  5
548
100
AcDbEntity
  8
0
100
AcDbLine
 62
7
  6
CONTINUOUS
 10
92.2259308379
 20
95.3027423469
 11
110.1598997125
 21
95.3027423469
  0
LINE
  5
549
100
AcDbEntity
  8
0
100
AcDbLine
 62
7
  6
CONTINUOUS
 10
102.0866858437
 20
95.3277423469
 11
102.5433845735
 21
95.3277423469
  0
LINE
  5
54A
100
AcDbEntity
  8
0
100
AcDbLine
 62
7
  6
CONTINUOUS
 10
102.0433845735
 20
95.3527423469
 11
92.2263671813
 21
95.3527423469
  0
LINE
  5
54B
100
AcDbEntity
  8
ASSI
100
AcDbLine
 62
7
  6
CONTINUOUS
 10
92.2263671813
 20
95.3527423469
 11
102.0433845735
 21
95.3527423469
  0
LINE
  5
54C
100
AcDbEntity
  8
0
100
AcDbLine
 62
7
  6
CONTINUOUS
 10
78.0433845735
 20
95.415339235
 11
78.0133845735
 21
95.415339235
  0
LINE
  5
54D
100
AcDbEntity
  8
0
100
AcDbLine
 62
7
  6
CONTINUOUS
 10
78.0433845735
 20
97.2822760936
 11
78.0133845735
 21
97.2822760936
  0
LINE
  5
54E
100
AcDbEntity
  8
0
100
AcDbLine
 62
7
  6
CONTINUOUS
 10
78.0433845735
 20
97.3059097243
 11
78.0133845735
 21
97.3059097243
  0
LINE
  5
54F
100
AcDbEntity
  8
0
100
AcDbLine
 62
7
  6
CONTINUOUS
 10
102.0433845735
 20
99.2527423469
 11
92.2263671813
 21
99.2527423469
  0
LINE
  5
550
100
AcDbEntity
  8
ASSI
100
AcDbLine
 62
7
  6
CONTINUOUS
 10
92.2263671813
 20
99.2527423469
 11
102.0433845735
 21
99.2527423469
  0
LINE
  5
551
100
AcDbEntity
  8
0
100
AcDbLine
 62
7
  6
CONTINUOUS
 10
102.0866858437
 20
99.2777423469
 11
102.5433845735
 21
99.2777423469
  0
LINE
  5
552
100
AcDbEntity
  8
0
100
AcDbLine
 62
7
  6
CONTINUOUS
 10
92.2259325858
 20
99.3027423469
 11
110.1598997125
 21
99.3027423469
  0
LINE
  5
553
100
AcDbEntity
  8
0
100
AcDbLine
 62
253
  6
CONTINUOUS
 10
78.0433845735
 20
99.3260153038
 11
78.0133845735
 21
99.3260153038
  0
LINE
  5
554
100
AcDbEntity
  8
0
100
AcDbLine
 62
7
  6
CONTINUOUS
 10
78.0433845735
 20
99.4617779567
 11
78.0133845735
 21
99.4617779567
  0
LINE
  5
555
100
AcDbEntity
  8
0
100
AcDbLine
 62
253
  6
CONTINUOUS
 10
78.0433845735
 20
96.4977519256
 11
78.0133845735
 21
96.4978375006
  0
LINE
  5
556
100
AcDbEntity
  8
RACCORDO
100
AcDbLine
 62
253
  6
CONTINUOUS
 10
92.2433845735
 20
97.3027423469
 11
92.0933902851
 21
97.3041146641
  0
LINE
  5
557
100
AcDbEntity
  8
0
100
AcDbLine
 62
7
  6
CONTINUOUS
 10
94.5737665674
 20
62.7777137466
 11
94.5933957364
 21
62.7279033142
  0
LWPOLYLINE
  5
558
100
AcDbEntity
  8
0
100
AcDbPolyline
 62
253
  6
CONTINUOUS
 90
19
 70
0
 10
91.4591732403
 20
54.3699351972
 10
91.4605022731
 20
54.3659145719
 10
91.4618341995
 20
54.3619707555
 10
91.4631584993
 20
54.3581193725
 10
91.4644753133
 20
54.35437803
 10
91.4657845009
 20
54.35076323
 10
91.4670751199
 20
54.3472899522
 10
91.4683471523
 20
54.3439786301
 10
91.4696006164
 20
54.340846235
 10
91.4708246245
 20
54.3379053166
 10
91.4720195849
 20
54.3351795317
 10
91.4731850896
 20
54.3326889677
 10
91.4743090267
 20
54.3304470366
 10
91.4753935128
 20
54.3284799173
 10
91.4764364317
 20
54.3268173738
 10
91.4774193226
 20
54.3254846886
 10
91.4783360321
 20
54.3245122506
 10
91.4791927142
 20
54.323933688
 10
91.4799893691
 20
54.3237820864
  0
LINE
  5
559
100
AcDbEntity
  8
0
100
AcDbLine
 62
253
  6
CONTINUOUS
 10
91.4565249617
 20
54.3781423032
 11
91.4591732403
 21
54.3699351972
  0
LINE
  5
55A
100
AcDbEntity
  8
0
100
AcDbLine
 62
253
  6
CONTINUOUS
 10
91.4539157781
 20
54.3864764157
 11
91.4565249617
 21
54.3781423032
  0
LINE
  5
55B
100
AcDbEntity
  8
0
100
AcDbLine
 62
253
  6
CONTINUOUS
 10
91.4513605965
 20
54.3948335137
 11
91.4539157781
 21
54.3864764157
  0
LINE
  5
55C
100
AcDbEntity
  8
0
100
AcDbLine
 62
253
  6
CONTINUOUS
 10
91.448878439
 20
54.4031312669
 11
91.4513605965
 21
54.3948335137
  0
LINE
  5
55D
100
AcDbEntity
  8
0
100
AcDbLine
 62
253
  6
CONTINUOUS
 10
91.4464781994
 20
54.4113178785
 11
91.448878439
 21
54.4031312669
  0
LINE
  5
55E
100
AcDbEntity
  8
0
100
AcDbLine
 62
253
  6
CONTINUOUS
 10
91.4441641744
 20
54.4193416052
 11
91.4464781994
 21
54.4113178785
  0
LINE
  5
55F
100
AcDbEntity
  8
0
100
AcDbLine
 62
253
  6
CONTINUOUS
 10
91.4408598455
 20
54.4310342215
 11
91.4441641744
 21
54.4193416052
  0
LINE
  5
560
100
AcDbEntity
  8
0
100
AcDbLine
 62
253
  6
CONTINUOUS
 10
91.437742533
 20
54.4423062729
 11
91.4408598455
 21
54.4310342215
  0
LINE
  5
561
100
AcDbEntity
  8
0
100
AcDbLine
 62
253
  6
CONTINUOUS
 10
91.4338226572
 20
54.4567948785
 11
91.437742533
 21
54.4423062729
  0
LINE
  5
562
100
AcDbEntity
  8
0
100
AcDbLine
 62
253
  6
CONTINUOUS
 10
78.6978693138
 20
57.5174859804
 11
78.7028701044
 21
57.2658565941
  0
LWPOLYLINE
  5
563
100
AcDbEntity
  8
0
100
AcDbPolyline
 62
253
  6
CONTINUOUS
 90
3
 70
0
 10
78.7028701044
 20
57.2658565941
 10
78.708033512
 20
56.9718218709
 10
78.7103359236
 20
56.8223966486
  0
LWPOLYLINE
  5
564
100
AcDbEntity
  8
0
100
AcDbPolyline
 62
253
  6
CONTINUOUS
 90
3
 70
0
 10
78.691372293
 20
57.8321552994
 10
78.6924133157
 20
57.7648419026
 10
78.6978693138
 20
57.5174859804
  0
LINE
  5
565
100
AcDbEntity
  8
0
100
AcDbLine
 62
253
  6
CONTINUOUS
 10
77.8373035924
 20
57.7592147278
 11
77.844044853
 21
57.3060638901
  0
LINE
  5
566
100
AcDbEntity
  8
0
100
AcDbLine
 62
253
  6
CONTINUOUS
 10
78.7103359236
 20
56.8223966486
 11
78.7139176483
 21
56.5319048907
  0
LINE
  5
567
100
AcDbEntity
  8
0
100
AcDbLine
 62
253
  6
CONTINUOUS
 10
77.844044853
 20
57.3060638901
 11
77.84699623
 21
57.0603807199
  0
LINE
  5
568
100
AcDbEntity
  8
0
100
AcDbLine
 62
253
  6
CONTINUOUS
 10
78.7139176483
 20
56.5319048907
 11
78.7164212118
 21
56.2694677723
  0
LINE
  5
569
100
AcDbEntity
  8
0
100
AcDbLine
 62
253
  6
CONTINUOUS
 10
77.834335873
 20
57.9933562849
 11
77.8357616291
 21
57.851837378
  0
LINE
  5
56A
100
AcDbEntity
  8
0
100
AcDbLine
 62
253
  6
CONTINUOUS
 10
77.84699623
 20
57.0603807199
 11
77.8490754027
 21
56.8272773618
  0
LINE
  5
56B
100
AcDbEntity
  8
0
100
AcDbLine
 62
253
  6
CONTINUOUS
 10
78.690234381
 20
57.9652895862
 11
78.691372293
 21
57.8321552994
  0
LINE
  5
56C
100
AcDbEntity
  8
0
100
AcDbLine
 62
253
  6
CONTINUOUS
 10
78.7164212118
 20
56.2694677723
 11
78.7179360008
 21
56.0393859309
  0
LINE
  5
56D
100
AcDbEntity
  8
0
100
AcDbLine
 62
253
  6
CONTINUOUS
 10
77.8490754027
 20
56.8272773618
 11
77.850419628
 21
56.6228084639
  0
LINE
  5
56E
100
AcDbEntity
  8
0
100
AcDbLine
 62
253
  6
CONTINUOUS
 10
78.7179360008
 20
56.0393859309
 11
78.718713291
 21
55.8387121883
  0
LINE
  5
56F
100
AcDbEntity
  8
0
100
AcDbLine
 62
253
  6
CONTINUOUS
 10
77.850419628
 20
56.6228084639
 11
77.851434472
 21
56.3618266404
  0
LINE
  5
570
100
AcDbEntity
  8
0
100
AcDbLine
 62
253
  6
CONTINUOUS
 10
77.8338202057
 20
58.1314649289
 11
77.834335873
 21
57.9933562849
  0
LINE
  5
571
100
AcDbEntity
  8
0
100
AcDbLine
 62
253
  6
CONTINUOUS
 10
78.6898953783
 20
58.0940461529
 11
78.690234381
 21
57.9652895862
  0
LINE
  5
572
100
AcDbEntity
  8
0
100
AcDbLine
 62
253
  6
CONTINUOUS
 10
78.718713291
 20
55.8387121883
 11
78.7189085349
 21
55.6632545776
  0
LINE
  5
573
100
AcDbEntity
  8
0
100
AcDbLine
 62
7
  6
CONTINUOUS
 10
78.0133845735
 20
95.415339235
 11
78.0133845735
 21
99.4617887447
  0
LINE
  5
574
100
AcDbEntity
  8
0
100
AcDbLine
 62
7
  6
CONTINUOUS
 10
78.0433845735
 20
103.8027423469
 11
78.0433845735
 21
74.0527909372
  0
LINE
  5
575
100
AcDbEntity
  8
0
100
AcDbLine
 62
7
  6
CONTINUOUS
 10
79.0433845735
 20
54.1459355463
 11
79.0433845735
 21
53.351425645
  0
LINE
  5
576
100
AcDbEntity
  8
0
100
AcDbLine
 62
7
  6
CONTINUOUS
 10
79.9433845735
 20
52.4027423469
 11
79.9433845735
 21
51.8527423469
  0
LINE
  5
577
100
AcDbEntity
  8
0
100
AcDbLine
 62
7
  6
CONTINUOUS
 10
80.0712154064
 20
104.3027423469
 11
80.0712154064
 21
104.3527423469
  0
LINE
  5
578
100
AcDbEntity
  8
0
100
AcDbLine
 62
253
  6
CONTINUOUS
 10
80.1474771923
 20
104.3027423469
 11
80.1474771923
 21
104.3527423469
  0
LINE
  5
579
100
AcDbEntity
  8
0
100
AcDbLine
 62
253
  6
CONTINUOUS
 10
80.3648677995
 20
104.3027423469
 11
80.3648677995
 21
104.3527423469
  0
LINE
  5
57A
100
AcDbEntity
  8
0
100
AcDbLine
 62
7
  6
CONTINUOUS
 10
80.5873136289
 20
104.3027423469
 11
80.5873136289
 21
104.3527423469
  0
LINE
  5
57B
100
AcDbEntity
  8
0
100
AcDbLine
 62
7
  6
CONTINUOUS
 10
80.589087168
 20
104.3027423469
 11
80.589087168
 21
104.3527423469
  0
LINE
  5
57C
100
AcDbEntity
  8
0
100
AcDbLine
 62
253
  6
CONTINUOUS
 10
80.6130298668
 20
104.3027423469
 11
80.6130298668
 21
104.3527423469
  0
LINE
  5
57D
100
AcDbEntity
  8
0
100
AcDbLine
 62
7
  6
CONTINUOUS
 10
80.6901785529
 20
104.3027423469
 11
80.6901785529
 21
104.3527423469
  0
LINE
  5
57E
100
AcDbEntity
  8
0
100
AcDbLine
 62
7
  6
CONTINUOUS
 10
80.8781730867
 20
104.3027423469
 11
80.8781730867
 21
104.3527423469
  0
LINE
  5
57F
100
AcDbEntity
  8
0
100
AcDbLine
 62
253
  6
CONTINUOUS
 10
81.0413381501
 20
104.3027423469
 11
81.0413381501
 21
104.3527423469
  0
LINE
  5
580
100
AcDbEntity
  8
0
100
AcDbLine
 62
253
  6
CONTINUOUS
 10
81.2344508204
 20
104.3027423469
 11
81.2344508204
 21
104.3527423469
  0
LINE
  5
581
100
AcDbEntity
  8
0
100
AcDbLine
 62
253
  6
CONTINUOUS
 10
81.3559552373
 20
104.3027423469
 11
81.3559552373
 21
104.3527423469
  0
LINE
  5
582
100
AcDbEntity
  8
0
100
AcDbLine
 62
7
  6
CONTINUOUS
 10
81.3987052298
 20
104.3027423469
 11
81.3987052298
 21
104.3527423469
  0
LINE
  5
583
100
AcDbEntity
  8
0
100
AcDbLine
 62
7
  6
CONTINUOUS
 10
81.415553794
 20
104.3027423469
 11
81.415553794
 21
104.3527423469
  0
LINE
  5
584
100
AcDbEntity
  8
0
100
AcDbLine
 62
253
  6
CONTINUOUS
 10
77.851434472
 20
56.3618266404
 11
77.8515459378
 21
56.1479400219
  0
LINE
  5
585
100
AcDbEntity
  8
0
100
AcDbLine
 62
253
  6
CONTINUOUS
 10
77.8381335761
 20
59.1505838025
 11
77.8377929025
 21
59.0444630285
  0
LWPOLYLINE
  5
586
100
AcDbEntity
  8
0
100
AcDbPolyline
 62
253
  6
CONTINUOUS
 90
19
 70
0
 10
78.9542320312
 20
73.9647015327
 10
78.954401658
 20
103.8463201735
 10
78.9549092441
 20
103.8895663563
 10
78.9557509283
 20
103.9321517661
 10
78.9569203053
 20
103.9737523009
 10
78.9584084755
 20
104.0140513563
 10
78.9602041133
 20
104.0527422345
 10
78.9622935532
 20
104.0895304771
 10
78.9646608934
 20
104.1241360967
 10
78.9672881165
 20
104.1562957129
 10
78.9701552278
 20
104.185764571
 10
78.9732404068
 20
104.2123183945
 10
78.9765201724
 20
104.2357550855
 10
78.9799695631
 20
104.2558962771
 10
78.9835623271
 20
104.2725886877
 10
78.9872711214
 20
104.2857052811
 10
78.9910677197
 20
104.2951462345
 10
78.9949232276
 20
104.3008396992
 10
78.9988083023
 20
104.3027423469
  0
LINE
  5
587
100
AcDbEntity
  8
0
100
AcDbLine
 62
253
  6
CONTINUOUS
 10
78.7189085349
 20
55.6632545776
 11
78.7183237819
 21
55.440857614
  0
LINE
  5
588
100
AcDbEntity
  8
0
100
AcDbLine
 62
253
  6
CONTINUOUS
 10
77.8515459378
 20
56.1479400219
 11
77.8509989844
 21
55.9721421075
  0
LINE
  5
589
100
AcDbEntity
  8
0
100
AcDbLine
 62
253
  6
CONTINUOUS
 10
77.8398650411
 20
59.5742978782
 11
77.8381335761
 21
59.1505838025
  0
LINE
  5
58A
100
AcDbEntity
  8
0
100
AcDbLine
 62
253
  6
CONTINUOUS
 10
77.8406719754
 20
59.7348710322
 11
77.8398650411
 21
59.5742978782
  0
LINE
  5
58B
100
AcDbEntity
  8
0
100
AcDbLine
 62
253
  6
CONTINUOUS
 10
77.8377929025
 20
59.0444630285
 11
77.8365694327
 21
58.7317959106
  0
LINE
  5
58C
100
AcDbEntity
  8
0
100
AcDbLine
 62
253
  6
CONTINUOUS
 10
77.8349094886
 20
58.4541895217
 11
77.8338202057
 21
58.1314649289
  0
LINE
  5
58D
100
AcDbEntity
  8
0
100
AcDbLine
 62
253
  6
CONTINUOUS
 10
78.6906773083
 20
58.3330879257
 11
78.6898953783
 21
58.0940461529
  0
LINE
  5
58E
100
AcDbEntity
  8
0
100
AcDbLine
 62
253
  6
CONTINUOUS
 10
77.8415774458
 20
59.9027213244
 11
77.8406719754
 21
59.7348710322
  0
LINE
  5
58F
100
AcDbEntity
  8
0
100
AcDbLine
 62
253
  6
CONTINUOUS
 10
77.8426128515
 20
60.0830263567
 11
77.8415774458
 21
59.9027213244
  0
LINE
  5
590
100
AcDbEntity
  8
0
100
AcDbLine
 62
253
  6
CONTINUOUS
 10
77.8365694327
 20
58.7317959106
 11
77.8359416456
 21
58.6258471111
  0
LINE
  5
591
100
AcDbEntity
  8
0
100
AcDbLine
 62
253
  6
CONTINUOUS
 10
77.8438115109
 20
60.2804085214
 11
77.8426128515
 21
60.0830263567
  0
LINE
  5
592
100
AcDbEntity
  8
0
100
AcDbLine
 62
253
  6
CONTINUOUS
 10
77.8359416456
 20
58.6258471111
 11
77.8349094886
 21
58.4541895217
  0
LINE
  5
593
100
AcDbEntity
  8
0
100
AcDbLine
 62
253
  6
CONTINUOUS
 10
77.8447075591
 20
60.4220266386
 11
77.8438115109
 21
60.2804085214
  0
LINE
  5
594
100
AcDbEntity
  8
0
100
AcDbLine
 62
253
  6
CONTINUOUS
 10
78.6950612543
 20
58.9713107925
 11
78.6947100196
 21
58.9176795986
  0
LINE
  5
595
100
AcDbEntity
  8
0
100
AcDbLine
 62
253
  6
CONTINUOUS
 10
78.6947100196
 20
58.9176795986
 11
78.6939983785
 21
58.8105983262
  0
LINE
  5
596
100
AcDbEntity
  8
0
100
AcDbLine
 62
253
  6
CONTINUOUS
 10
78.6957749838
 20
59.0782221413
 11
78.6950612543
 21
58.9713107925
  0
LINE
  5
597
100
AcDbEntity
  8
0
100
AcDbLine
 62
253
  6
CONTINUOUS
 10
78.6917413411
 20
58.4950306604
 11
78.6906773083
 21
58.3330879257
  0
LINE
  5
598
100
AcDbEntity
  8
0
100
AcDbLine
 62
253
  6
CONTINUOUS
 10
78.6939983785
 20
58.8105983262
 11
78.6917413411
 21
58.4950306604
  0
LWPOLYLINE
  5
599
100
AcDbEntity
  8
0
100
AcDbPolyline
 62
253
  6
CONTINUOUS
 90
3
 70
0
 10
78.0433849312
 20
74.0527909287
 10
78.0404315951
 20
73.6853006806
 10
78.0371041817
 20
73.3294500782
  0
LWPOLYLINE
  5
59A
100
AcDbEntity
  8
0
100
AcDbPolyline
 62
253
  6
CONTINUOUS
 90
6
 70
0
 10
78.9542320312
 20
73.9647015327
 10
78.9511310818
 20
73.5898821297
 10
78.9477417315
 20
73.2268467228
 10
78.9440639847
 20
72.8755890748
 10
78.9400795347
 20
72.5379609483
 10
78.9358066984
 20
72.2120905902
  0
LINE
  5
59B
100
AcDbEntity
  8
0
100
AcDbLine
 62
253
  6
CONTINUOUS
 10
77.8509989844
 20
55.9721421075
 11
77.8499836974
 21
55.8276431101
  0
LINE
  5
59C
100
AcDbEntity
  8
0
100
AcDbLine
 62
253
  6
CONTINUOUS
 10
77.8550129966
 20
61.7450483302
 11
77.8447075591
 21
60.4220266386
  0
LINE
  5
59D
100
AcDbEntity
  8
0
100
AcDbLine
 62
253
  6
CONTINUOUS
 10
78.7183237819
 20
55.440857614
 11
78.7169643918
 21
55.2591816386
  0
LINE
  5
59E
100
AcDbEntity
  8
0
100
AcDbLine
 62
253
  6
CONTINUOUS
 10
78.7071333139
 20
60.3463239294
 11
78.6957749838
 21
59.0782221413
  0
LINE
  5
59F
100
AcDbEntity
  8
0
100
AcDbLine
 62
253
  6
CONTINUOUS
 10
77.8636286278
 20
62.563541875
 11
77.8550129966
 21
61.7450483302
  0
LINE
  5
5A0
100
AcDbEntity
  8
0
100
AcDbLine
 62
253
  6
CONTINUOUS
 10
78.0371041817
 20
73.3294500782
 11
78.0325667487
 21
72.9092457319
  0
LINE
  5
5A1
100
AcDbEntity
  8
0
100
AcDbLine
 62
253
  6
CONTINUOUS
 10
77.8726836195
 20
63.3191368979
 11
77.8636286278
 21
62.563541875
  0
LINE
  5
5A2
100
AcDbEntity
  8
0
100
AcDbLine
 62
253
  6
CONTINUOUS
 10
78.0325667487
 20
72.9092457319
 11
78.0254782113
 21
72.3339812049
  0
LINE
  5
5A3
100
AcDbEntity
  8
0
100
AcDbLine
 62
253
  6
CONTINUOUS
 10
77.8499836974
 20
55.8276431101
 11
77.8486506754
 21
55.709130018
  0
LINE
  5
5A4
100
AcDbEntity
  8
0
100
AcDbLine
 62
253
  6
CONTINUOUS
 10
77.8822453231
 20
64.035899043
 11
77.8726836195
 21
63.3191368979
  0
LINE
  5
5A5
100
AcDbEntity
  8
0
100
AcDbLine
 62
253
  6
CONTINUOUS
 10
78.7191349619
 20
61.3172607415
 11
78.7071333139
 21
60.3463239294
  0
LINE
  5
5A6
100
AcDbEntity
  8
0
100
AcDbLine
 62
253
  6
CONTINUOUS
 10
78.0254782113
 20
72.3339812049
 11
78.0166419703
 21
71.7117805216
  0
LINE
  5
5A7
100
AcDbEntity
  8
0
100
AcDbLine
 62
253
  6
CONTINUOUS
 10
77.892099906
 20
64.7144715945
 11
77.8822453231
 21
64.035899043
  0
LINE
  5
5A8
100
AcDbEntity
  8
0
100
AcDbLine
 62
253
  6
CONTINUOUS
 10
78.7169643918
 20
55.2591816386
 11
78.7150579509
 21
55.1112631289
  0
LINE
  5
5A9
100
AcDbEntity
  8
0
100
AcDbLine
 62
253
  6
CONTINUOUS
 10
78.9358066984
 20
72.2120905902
 11
78.9265798617
 21
71.578691316
  0
LWPOLYLINE
  5
5AA
100
AcDbEntity
  8
0
100
AcDbPolyline
 62
7
  6
CONTINUOUS
 90
4
 70
0
 10
78.0433845735
 20
74.0527423469
 10
78.0409785377
 20
73.8945144473
 10
78.0383324253
 20
73.7475340102
 10
78.035478823
 20
73.6117351327
  0
LINE
  5
5AB
100
AcDbEntity
  8
0
100
AcDbLine
 62
253
  6
CONTINUOUS
 10
77.9021329338
 20
65.3552757692
 11
77.892099906
 21
64.7144715945
  0
LINE
  5
5AC
100
AcDbEntity
  8
0
100
AcDbLine
 62
253
  6
CONTINUOUS
 10
78.0166419703
 20
71.7117805216
 11
78.0070936613
 21
71.1079506909
  0
LINE
  5
5AD
100
AcDbEntity
  8
0
100
AcDbLine
 62
253
  6
CONTINUOUS
 10
78.7311046143
 20
62.0952156582
 11
78.7191349619
 21
61.3172607415
  0
LINE
  5
5AE
100
AcDbEntity
  8
0
100
AcDbLine
 62
253
  6
CONTINUOUS
 10
78.9265798617
 20
71.578691316
 11
78.9164358618
 21
70.9647643386
  0
LINE
  5
5AF
100
AcDbEntity
  8
0
100
AcDbLine
 62
253
  6
CONTINUOUS
 10
77.9175768663
 20
66.269526449
 11
77.9021329338
 21
65.3552757692
  0
LINE
  5
5B0
100
AcDbEntity
  8
0
100
AcDbLine
 62
253
  6
CONTINUOUS
 10
78.0070936613
 20
71.1079506909
 11
77.9967902266
 21
70.5059796409
  0
LINE
  5
5B1
100
AcDbEntity
  8
0
100
AcDbLine
 62
253
  6
CONTINUOUS
 10
77.8486506754
 20
55.709130018
 11
77.8471084947
 21
55.6121731786
  0
LINE
  5
5B2
100
AcDbEntity
  8
0
100
AcDbLine
 62
253
  6
CONTINUOUS
 10
77.9967902266
 20
70.5059796409
 11
77.9858324095
 21
69.9010197385
  0
LINE
  5
5B3
100
AcDbEntity
  8
0
100
AcDbLine
 62
253
  6
CONTINUOUS
 10
78.7424367219
 20
62.7298641248
 11
78.7311046143
 21
62.0952156582
  0
LINE
  5
5B4
100
AcDbEntity
  8
0
100
AcDbLine
 62
253
  6
CONTINUOUS
 10
78.9164358618
 20
70.9647643386
 11
78.9053339716
 21
70.3534430943
  0
LINE
  5
5B5
100
AcDbEntity
  8
0
100
AcDbLine
 62
253
  6
CONTINUOUS
 10
77.9394026285
 20
67.464669857
 11
77.9175768663
 21
66.269526449
  0
LINE
  5
5B6
100
AcDbEntity
  8
0
100
AcDbLine
 62
253
  6
CONTINUOUS
 10
77.9509190472
 20
68.0698705367
 11
77.9394026285
 21
67.464669857
  0
LINE
  5
5B7
100
AcDbEntity
  8
0
100
AcDbLine
 62
253
  6
CONTINUOUS
 10
77.9858324095
 20
69.9010197385
 11
77.9685340181
 21
68.9857389925
  0
LINE
  5
5B8
100
AcDbEntity
  8
0
100
AcDbLine
 62
253
  6
CONTINUOUS
 10
77.9685340181
 20
68.9857389925
 11
77.9509190472
 21
68.0698705367
  0
LINE
  5
5B9
100
AcDbEntity
  8
0
100
AcDbLine
 62
253
  6
CONTINUOUS
 10
78.7564815263
 20
63.4695895388
 11
78.7424367219
 21
62.7298641248
  0
LINE
  5
5BA
100
AcDbEntity
  8
0
100
AcDbLine
 62
253
  6
CONTINUOUS
 10
78.9053339716
 20
70.3534430943
 11
78.8933260159
 21
69.73975367
  0
LINE
  5
5BB
100
AcDbEntity
  8
0
100
AcDbLine
 62
253
  6
CONTINUOUS
 10
78.770613445
 20
64.1701608748
 11
78.7564815263
 21
63.4695895388
  0
LINE
  5
5BC
100
AcDbEntity
  8
0
100
AcDbLine
 62
253
  6
CONTINUOUS
 10
78.8933260159
 20
69.73975367
 11
78.8804981679
 21
69.1222610883
  0
LINE
  5
5BD
100
AcDbEntity
  8
0
100
AcDbLine
 62
253
  6
CONTINUOUS
 10
78.7150579509
 20
55.1112631289
 11
78.7127722387
 21
54.9913171178
  0
LINE
  5
5BE
100
AcDbEntity
  8
0
100
AcDbLine
 62
253
  6
CONTINUOUS
 10
78.7914859852
 20
65.1510923729
 11
78.770613445
 21
64.1701608748
  0
LINE
  5
5BF
100
AcDbEntity
  8
0
100
AcDbLine
 62
253
  6
CONTINUOUS
 10
78.8804981679
 20
69.1222610883
 11
78.8602004538
 21
68.1941893598
  0
LWPOLYLINE
  5
5C0
100
AcDbEntity
  8
0
100
AcDbPolyline
 62
253
  6
CONTINUOUS
 90
5
 70
0
 10
78.8602004538
 20
68.1941893598
 10
78.8393982986
 20
67.2758806194
 10
78.8324998232
 20
66.9736709052
 10
78.8256201025
 20
66.6730592803
 10
78.7914859852
 20
65.1510923729
  0
LINE
  5
5C1
100
AcDbEntity
  8
0
100
AcDbLine
 62
253
  6
CONTINUOUS
 10
77.8471084947
 20
55.6121731786
 11
77.8454360651
 21
55.5330370463
  0
LWPOLYLINE
  5
5C2
100
AcDbEntity
  8
0
100
AcDbPolyline
 62
7
  6
CONTINUOUS
 90
5
 70
0
 10
78.035478823
 20
73.6117351327
 10
78.0324487043
 20
73.4867552813
 10
78.0292926101
 20
73.3728286718
 10
78.0260846892
 20
73.2705844281
 10
78.0228832978
 20
73.1797584211
  0
LINE
  5
5C3
100
AcDbEntity
  8
0
100
AcDbLine
 62
253
  6
CONTINUOUS
 10
78.7127722387
 20
54.9913171178
 11
78.7110973425
 21
54.9244738593
  0
LINE
  5
5C4
100
AcDbEntity
  8
0
100
AcDbLine
 62
253
  6
CONTINUOUS
 10
77.8454360651
 20
55.5330370463
 11
77.8442632864
 21
55.488615877
  0
LINE
  5
5C5
100
AcDbEntity
  8
0
100
AcDbLine
 62
253
  6
CONTINUOUS
 10
78.7110973425
 20
54.9244738593
 11
78.7093382988
 21
54.8666043433
  0
LINE
  5
5C6
100
AcDbEntity
  8
0
100
AcDbLine
 62
253
  6
CONTINUOUS
 10
77.8442632864
 20
55.488615877
 11
77.8430442417
 21
55.4499914261
  0
LINE
  5
5C7
100
AcDbEntity
  8
0
100
AcDbLine
 62
253
  6
CONTINUOUS
 10
78.7093382988
 20
54.8666043433
 11
78.7075039069
 21
54.8165811064
  0
LINE
  5
5C8
100
AcDbEntity
  8
0
100
AcDbLine
 62
253
  6
CONTINUOUS
 10
77.8430442417
 20
55.4499914261
 11
77.8417783895
 21
55.4165012192
  0
LINE
  5
5C9
100
AcDbEntity
  8
0
100
AcDbLine
 62
7
  6
CONTINUOUS
 10
78.0228832978
 20
73.1797584211
 11
78.0167642336
 21
73.0315314836
  0
LWPOLYLINE
  5
5CA
100
AcDbEntity
  8
0
100
AcDbPolyline
 62
253
  6
CONTINUOUS
 90
23
 70
0
 10
78.7075039069
 20
54.8165811064
 10
78.7056012895
 20
54.7735152848
 10
78.7046267848
 20
54.7543157293
 10
78.7036372973
 20
54.7365710835
 10
78.7026379009
 20
54.7201672689
 10
78.7016267492
 20
54.7050358742
 10
78.7006056888
 20
54.6911097362
 10
78.6995853335
 20
54.6782903168
 10
78.6985659006
 20
54.6665195245
 10
78.6975471727
 20
54.6557390941
 10
78.6965391115
 20
54.6458632181
 10
78.6955427587
 20
54.6368424223
 10
78.6945570724
 20
54.6286283309
 10
78.6935888888
 20
54.6211491355
 10
78.6926403364
 20
54.6143651542
 10
78.6917092864
 20
54.6082346964
 10
78.6907961892
 20
54.6026952786
 10
78.689905368
 20
54.5977145721
 10
78.6890324994
 20
54.5932602914
 10
78.6881650641
 20
54.5892827199
 10
78.6872988892
 20
54.5857514936
 10
78.6864381475
 20
54.5826491052
 10
78.6855828392
 20
54.5799517184
  0
LINE
  5
5CB
100
AcDbEntity
  8
0
100
AcDbLine
 62
253
  6
CONTINUOUS
 10
77.8417783895
 20
55.4165012192
 11
77.8404747069
 21
55.3875040936
  0
LINE
  5
5CC
100
AcDbEntity
  8
0
100
AcDbLine
 62
7
  6
CONTINUOUS
 10
78.0167642336
 20
73.0315314836
 11
78.0140016126
 21
72.9739363272
  0
LINE
  5
5CD
100
AcDbEntity
  8
0
100
AcDbLine
 62
253
  6
CONTINUOUS
 10
77.8404747069
 20
55.3875040936
 11
77.8391477566
 21
55.3624832338
  0
LINE
  5
5CE
100
AcDbEntity
  8
0
100
AcDbLine
 62
7
  6
CONTINUOUS
 10
78.0140016126
 20
72.9739363272
 11
78.0105621678
 21
72.9095040405
  0
LINE
  5
5CF
100
AcDbEntity
  8
0
100
AcDbLine
 62
7
  6
CONTINUOUS
 10
78.010427493
 20
72.9095117161
 11
78.004130126
 21
72.8012701035
  0
LINE
  5
5D0
100
AcDbEntity
  8
0
100
AcDbLine
 62
253
  6
CONTINUOUS
 10
77.8391477566
 20
55.3624832338
 11
77.8378379248
 21
55.3408935842
  0
LINE
  5
5D1
100
AcDbEntity
  8
0
100
AcDbLine
 62
7
  6
CONTINUOUS
 10
78.0059578182
 20
72.8310875098
 11
77.9897096396
 21
72.5865384076
  0
LINE
  5
5D2
100
AcDbEntity
  8
0
100
AcDbLine
 62
7
  6
CONTINUOUS
 10
78.004130126
 20
72.8012701035
 11
77.9954689053
 21
72.6683665808
  0
LINE
  5
5D3
100
AcDbEntity
  8
0
100
AcDbLine
 62
253
  6
CONTINUOUS
 10
77.8378379248
 20
55.3408935842
 11
77.8365752385
 21
55.3222992393
  0
LINE
  5
5D4
100
AcDbEntity
  8
0
100
AcDbLine
 62
7
  6
CONTINUOUS
 10
77.9954689053
 20
72.6683665808
 11
77.9886962913
 21
72.5724022494
  0
LINE
  5
5D5
100
AcDbEntity
  8
0
100
AcDbLine
 62
7
  6
CONTINUOUS
 10
77.9886962913
 20
72.5724022494
 11
77.9809855378
 21
72.4698954849
  0
LINE
  5
5D6
100
AcDbEntity
  8
0
100
AcDbLine
 62
253
  6
CONTINUOUS
 10
77.8365752385
 20
55.3222992393
 11
77.8353761357
 21
55.3063544864
  0
LWPOLYLINE
  5
5D7
100
AcDbEntity
  8
0
100
AcDbPolyline
 62
7
  6
CONTINUOUS
 90
4
 70
0
 10
77.9897496505
 20
72.5870199006
 10
77.9704710144
 20
72.3398478894
 10
77.9480693633
 20
72.0897320917
 10
77.9221593244
 20
71.8336467653
  0
LINE
  5
5D8
100
AcDbEntity
  8
0
100
AcDbLine
 62
7
  6
CONTINUOUS
 10
77.9809855378
 20
72.4698954849
 11
77.9722126787
 21
72.3604340124
  0
LINE
  5
5D9
100
AcDbEntity
  8
0
100
AcDbLine
 62
253
  6
CONTINUOUS
 10
77.8353761357
 20
55.3063544864
 11
77.8342640646
 21
55.2926710209
  0
LINE
  5
5DA
100
AcDbEntity
  8
0
100
AcDbLine
 62
253
  6
CONTINUOUS
 10
77.824736909
 20
55.2034440823
 11
77.8242018472
 21
55.1970912426
  0
LINE
  5
5DB
100
AcDbEntity
  8
0
100
AcDbLine
 62
7
  6
CONTINUOUS
 10
77.9722126787
 20
72.3604340124
 11
77.9622210154
 21
72.2433789047
  0
LWPOLYLINE
  5
5DC
100
AcDbEntity
  8
0
100
AcDbPolyline
 62
7
  6
CONTINUOUS
 90
3
 70
0
 10
77.9656858847
 20
72.2863765329
 10
77.9479082363
 20
72.0880558557
 10
77.9219590921
 20
71.8317948011
  0
LINE
  5
5DD
100
AcDbEntity
  8
0
100
AcDbLine
 62
7
  6
CONTINUOUS
 10
77.9622210154
 20
72.2433789047
 11
77.9508229406
 21
72.1179594294
  0
LINE
  5
5DE
100
AcDbEntity
  8
0
100
AcDbLine
 62
7
  6
CONTINUOUS
 10
77.9508229406
 20
72.1179594294
 11
77.9378275358
 21
71.983608623
  0
LINE
  5
5DF
100
AcDbEntity
  8
0
100
AcDbLine
 62
7
  6
CONTINUOUS
 10
77.9378275358
 20
71.983608623
 11
77.9229909699
 21
71.8394453567
  0
LINE
  5
5E0
100
AcDbEntity
  8
0
100
AcDbLine
 62
7
  6
CONTINUOUS
 10
77.9229909699
 20
71.8394453567
 11
77.9060167403
 21
71.6843801951
  0
LINE
  5
5E1
100
AcDbEntity
  8
0
100
AcDbLine
 62
7
  6
CONTINUOUS
 10
77.9221593244
 20
71.8336467653
 11
77.892358198
 21
71.5698170814
  0
LWPOLYLINE
  5
5E2
100
AcDbEntity
  8
0
100
AcDbPolyline
 62
7
  6
CONTINUOUS
 90
33
 70
0
 10
77.9060167403
 20
71.6843801951
 10
77.8866046337
 20
71.5176134541
 10
77.8758583958
 20
71.4293987843
 10
77.8643699899
 20
71.3379281404
 10
77.8520385345
 20
71.2426905387
 10
77.8388229705
 20
71.1436861673
 10
77.8246774398
 20
71.0408918803
 10
77.8094790901
 20
70.9337582107
 10
77.7931922547
 20
70.8223889878
 10
77.7757444823
 20
70.7066554938
 10
77.7569351644
 20
70.5856576
 10
77.7365442373
 20
70.4584514081
 10
77.7146432576
 20
70.3259602332
 10
77.6914830956
 20
70.1900979778
 10
77.6669643665
 20
70.0505417007
 10
77.6411012748
 20
69.9076308516
 10
77.6143888962
 20
69.7643003963
 10
77.5870174729
 20
69.6215415777
 10
77.5588158037
 20
69.4784150104
 10
77.5297802626
 20
69.3349785693
 10
77.4999016286
 20
69.1912112761
 10
77.4691943887
 20
69.0471965599
 10
77.4376904381
 20
68.9031583581
 10
77.4053753122
 20
68.7590714839
 10
77.3722703476
 20
68.6150337765
 10
77.3384676551
 20
68.4714570671
 10
77.3040694333
 20
68.3287704044
 10
77.2689939978
 20
68.1866146492
 10
77.2330517983
 20
68.0442204793
 10
77.196210881
 20
67.9015337505
 10
77.1584962474
 20
67.758686136
 10
77.119787876
 20
67.6151881844
 10
77.0800382953
 20
67.4709019001
  0
LINE
  5
5E3
100
AcDbEntity
  8
RACCORDO
100
AcDbLine
 62
7
  6
CONTINUOUS
 10
92.0663255716
 20
100.5527423469
 11
92.0433845735
 21
100.5527423469
  0
LINE
  5
5E4
100
AcDbEntity
  8
0
100
AcDbLine
 62
253
  6
CONTINUOUS
 10
78.0433845735
 20
103.8027423469
 11
92.0433845735
 21
103.8027423469
  0
LINE
  5
5E5
100
AcDbEntity
  8
0
100
AcDbLine
 62
7
  6
CONTINUOUS
 10
78.5433845735
 20
104.3027423469
 11
91.5433845735
 21
104.3027423469
  0
LINE
  5
5E6
100
AcDbEntity
  8
0
100
AcDbLine
 62
7
  6
CONTINUOUS
 10
80.0712154064
 20
104.3527423469
 11
81.415553794
 21
104.3527423469
  0
LINE
  5
5E7
100
AcDbEntity
  8
0
100
AcDbLine
 62
7
  6
CONTINUOUS
 10
82.5741664243
 20
104.4027423469
 11
87.5126027227
 21
104.4027423469
  0
LINE
  5
5E8
100
AcDbEntity
  8
0
100
AcDbLine
 62
7
  6
CONTINUOUS
 10
83.1559814616
 20
104.4527423469
 11
87.2005785234
 21
104.4527423469
  0
LINE
  5
5E9
100
AcDbEntity
  8
0
100
AcDbLine
 62
7
  6
CONTINUOUS
 10
102.0433845735
 20
95.3527423469
 11
102.0866858437
 21
95.3277423469
  0
LINE
  5
5EA
100
AcDbEntity
  8
0
100
AcDbLine
 62
7
  6
CONTINUOUS
 10
94.5757622182
 20
62.7722667175
 11
94.5758162416
 21
62.7721242415
  0
LINE
  5
5EB
100
AcDbEntity
  8
0
100
AcDbLine
 62
7
  6
CONTINUOUS
 10
94.5758402332
 20
62.7720607416
 11
94.5752497659
 21
62.7736523168
  0
LINE
  5
5EC
100
AcDbEntity
  8
0
100
AcDbLine
 62
7
  6
CONTINUOUS
 10
94.5752497659
 20
62.7736523168
 11
94.5738151431
 21
62.7775795717
  0
LINE
  5
5ED
100
AcDbEntity
  8
0
100
AcDbLine
 62
7
  6
CONTINUOUS
 10
94.5738151431
 20
62.7775795717
 11
94.5706566596
 21
62.7863606779
  0
LINE
  5
5EE
100
AcDbEntity
  8
0
100
AcDbLine
 62
7
  6
CONTINUOUS
 10
94.5706566596
 20
62.7863606779
 11
94.5651016198
 21
62.8020456425
  0
LINE
  5
5EF
100
AcDbEntity
  8
0
100
AcDbLine
 62
7
  6
CONTINUOUS
 10
94.5653907709
 20
62.8012341255
 11
94.556156456
 21
62.8277115457
  0
LINE
  5
5F0
100
AcDbEntity
  8
0
100
AcDbLine
 62
7
  6
CONTINUOUS
 10
94.5569218448
 20
62.825499329
 11
94.5426224473
 21
62.8670930956
  0
LWPOLYLINE
  5
5F1
100
AcDbEntity
  8
0
100
AcDbPolyline
 62
253
  6
CONTINUOUS
 90
12
 70
0
 10
94.5889749534
 20
62.3300918614
 10
94.5959367094
 20
62.3095959182
 10
94.602331511
 20
62.2910951835
 10
94.6081584517
 20
62.2745930854
 10
94.613410848
 20
62.2601064794
 10
94.6180779065
 20
62.2476585037
 10
94.62216652
 20
62.2372416149
 10
94.6256654904
 20
62.2288734142
 10
94.6285520863
 20
62.2225696804
 10
94.6308317801
 20
62.2182960739
 10
94.6325242738
 20
62.2160094551
 10
94.6336405814
 20
62.2156756669
  0
LINE
  5
5F2
100
AcDbEntity
  8
0
100
AcDbLine
 62
7
  6
CONTINUOUS
 10
94.5442966307
 20
62.8621784869
 11
94.517291936
 21
62.9418220244
  0
LINE
  5
5F3
100
AcDbEntity
  8
0
100
AcDbLine
 62
7
  6
CONTINUOUS
 10
94.5179990229
 20
62.9396906674
 11
94.4676047728
 21
63.0904464531
  0
LINE
  5
5F4
100
AcDbEntity
  8
0
100
AcDbLine
 62
253
  6
CONTINUOUS
 10
94.5733701606
 20
62.3770237962
 11
94.5889749534
 21
62.3300918614
  0
LINE
  5
5F5
100
AcDbEntity
  8
0
100
AcDbLine
 62
7
  6
CONTINUOUS
 10
94.4681457195
 20
63.0888866581
 11
94.4060864741
 21
63.2769188254
  0
LINE
  5
5F6
100
AcDbEntity
  8
0
100
AcDbLine
 62
7
  6
CONTINUOUS
 10
93.8060945932
 20
65.1190442303
 11
93.7760201078
 21
65.2109043251
  0
LINE
  5
5F7
100
AcDbEntity
  8
0
100
AcDbLine
 62
7
  6
CONTINUOUS
 10
93.8353660515
 20
65.0295878121
 11
93.7941647904
 21
65.1554073152
  0
LINE
  5
5F8
100
AcDbEntity
  8
0
100
AcDbLine
 62
7
  6
CONTINUOUS
 10
93.8501028974
 20
64.9844065585
 11
93.8225018115
 21
65.0688079205
  0
LINE
  5
5F9
100
AcDbEntity
  8
0
100
AcDbLine
 62
7
  6
CONTINUOUS
 10
93.8778032051
 20
64.8997830271
 11
93.8497063122
 21
64.9857412671
  0
LINE
  5
5FA
100
AcDbEntity
  8
0
100
AcDbLine
 62
7
  6
CONTINUOUS
 10
93.9160316616
 20
64.7826054213
 11
93.9031872841
 21
64.8219422339
  0
LWPOLYLINE
  5
5FB
100
AcDbEntity
  8
0
100
AcDbPolyline
 62
7
  6
CONTINUOUS
 90
3
 70
0
 10
93.9185238249
 20
64.7750980223
 10
93.9051371269
 20
64.81609964
 10
93.8769925341
 20
64.9021339711
  0
LINE
  5
5FC
100
AcDbEntity
  8
0
100
AcDbLine
 62
7
  6
CONTINUOUS
 10
93.944753404
 20
64.694736289
 11
93.9160316616
 21
64.7826054213
  0
LINE
  5
5FD
100
AcDbEntity
  8
0
100
AcDbLine
 62
7
  6
CONTINUOUS
 10
93.9575996393
 20
64.6553695335
 11
93.9412211949
 21
64.7054350391
  0
LINE
  5
5FE
100
AcDbEntity
  8
0
100
AcDbLine
 62
7
  6
CONTINUOUS
 10
93.970271178
 20
64.6165328872
 11
93.9535700497
 21
64.667592989
  0
LINE
  5
5FF
100
AcDbEntity
  8
0
100
AcDbLine
 62
7
  6
CONTINUOUS
 10
93.995095034
 20
64.5404355229
 11
93.9657567141
 21
64.6302422649
  0
LINE
  5
600
100
AcDbEntity
  8
0
100
AcDbLine
 62
7
  6
CONTINUOUS
 10
94.0072493435
 20
64.5031686016
 11
93.9896520226
 21
64.5569900613
  0
LINE
  5
601
100
AcDbEntity
  8
0
100
AcDbLine
 62
7
  6
CONTINUOUS
 10
94.0192336054
 20
64.466417359
 11
94.0013623642
 21
64.5210839178
  0
LINE
  5
602
100
AcDbEntity
  8
0
100
AcDbLine
 62
7
  6
CONTINUOUS
 10
94.0426948105
 20
64.3944521056
 11
94.0129163264
 21
64.485652371
  0
LINE
  5
603
100
AcDbEntity
  8
0
100
AcDbLine
 62
7
  6
CONTINUOUS
 10
94.0466489445
 20
64.382177821
 11
94.0355585018
 21
64.4162028786
  0
LINE
  5
604
100
AcDbEntity
  8
0
100
AcDbLine
 62
7
  6
CONTINUOUS
 10
94.0575871173
 20
64.3486143477
 11
94.0426948105
 21
64.3944521056
  0
LINE
  5
605
100
AcDbEntity
  8
0
100
AcDbLine
 62
7
  6
CONTINUOUS
 10
94.0790094574
 20
64.2828629483
 11
94.0541739045
 21
64.3592311418
  0
LINE
  5
606
100
AcDbEntity
  8
0
100
AcDbLine
 62
7
  6
CONTINUOUS
 10
94.0894954657
 20
64.2506691938
 11
94.0766338312
 21
64.290297752
  0
LINE
  5
607
100
AcDbEntity
  8
0
100
AcDbLine
 62
7
  6
CONTINUOUS
 10
93.7797190523
 20
65.1995305128
 11
93.6419615904
 21
65.6208078514
  0
LINE
  5
608
100
AcDbEntity
  8
0
100
AcDbLine
 62
7
  6
CONTINUOUS
 10
94.1100215706
 20
64.1876319623
 11
94.0876165458
 21
64.2565797282
  0
LINE
  5
609
100
AcDbEntity
  8
0
100
AcDbLine
 62
7
  6
CONTINUOUS
 10
94.1200634347
 20
64.1567832774
 11
94.1090935274
 21
64.19062367
  0
LINE
  5
60A
100
AcDbEntity
  8
0
100
AcDbLine
 62
7
  6
CONTINUOUS
 10
94.1401062675
 20
64.0953377996
 11
94.1195899174
 21
64.1583798173
  0
LINE
  5
60B
100
AcDbEntity
  8
0
100
AcDbLine
 62
7
  6
CONTINUOUS
 10
94.1599963309
 20
64.0341964889
 11
94.1397104728
 21
64.0964090387
  0
LINE
  5
60C
100
AcDbEntity
  8
0
100
AcDbLine
 62
7
  6
CONTINUOUS
 10
94.1697140381
 20
64.0043145763
 11
94.1587815184
 21
64.0377803797
  0
LINE
  5
60D
100
AcDbEntity
  8
0
100
AcDbLine
 62
7
  6
CONTINUOUS
 10
94.186342151
 20
63.9530041984
 11
94.1681066232
 21
64.0091036154
  0
LINE
  5
60E
100
AcDbEntity
  8
0
100
AcDbLine
 62
7
  6
CONTINUOUS
 10
94.4082968418
 20
63.2700813336
 11
94.2987119536
 21
63.6062352061
  0
LINE
  5
60F
100
AcDbEntity
  8
0
100
AcDbLine
 62
253
  6
CONTINUOUS
 10
94.5555465776
 20
62.4318091478
 11
94.5733701606
 21
62.3770237962
  0
LINE
  5
610
100
AcDbEntity
  8
0
100
AcDbLine
 62
7
  6
CONTINUOUS
 10
94.3048911546
 20
63.5873230766
 11
94.2900430052
 21
63.6331561394
  0
LINE
  5
611
100
AcDbEntity
  8
0
100
AcDbLine
 62
7
  6
CONTINUOUS
 10
94.2421027199
 20
63.7812573746
 11
94.1792833379
 21
63.9748798198
  0
LINE
  5
612
100
AcDbEntity
  8
0
100
AcDbLine
 62
7
  6
CONTINUOUS
 10
94.2915687483
 20
63.6282885958
 11
94.2746456367
 21
63.6807158389
  0
LINE
  5
613
100
AcDbEntity
  8
0
100
AcDbLine
 62
7
  6
CONTINUOUS
 10
94.2746456367
 20
63.6807158389
 11
94.2378280206
 21
63.7943389803
  0
LINE
  5
614
100
AcDbEntity
  8
0
100
AcDbLine
 62
7
  6
CONTINUOUS
 10
94.2842993619
 20
63.6507430861
 11
94.2769018914
 21
63.6736016503
  0
LWPOLYLINE
  5
615
100
AcDbEntity
  8
0
100
AcDbPolyline
 62
7
  6
CONTINUOUS
 90
3
 70
0
 10
94.2769018914
 20
63.6736016503
 10
94.2616961474
 20
63.7205993204
 10
94.2538833295
 20
63.7447449364
  0
LINE
  5
616
100
AcDbEntity
  8
0
100
AcDbLine
 62
7
  6
CONTINUOUS
 10
93.6481542577
 20
65.6018391669
 11
93.5594822
 21
65.8754375077
  0
LINE
  5
617
100
AcDbEntity
  8
0
100
AcDbLine
 62
7
  6
CONTINUOUS
 10
93.5622338135
 20
65.8669653395
 11
93.4723159057
 21
66.1469098194
  0
LINE
  5
618
100
AcDbEntity
  8
0
100
AcDbLine
 62
7
  6
CONTINUOUS
 10
93.4898153417
 20
66.0922503782
 11
93.399014977
 21
66.377005266
  0
LINE
  5
619
100
AcDbEntity
  8
0
100
AcDbLine
 62
253
  6
CONTINUOUS
 10
94.5247037789
 20
62.5285389993
 11
94.5555465776
 21
62.4318091478
  0
LINE
  5
61A
100
AcDbEntity
  8
0
100
AcDbLine
 62
253
  6
CONTINUOUS
 10
93.6446523183
 20
65.3512108124
 11
93.8567946754
 21
64.6857428501
  0
LINE
  5
61B
100
AcDbEntity
  8
0
100
AcDbLine
 62
253
  6
CONTINUOUS
 10
93.8567946754
 20
64.6857428501
 11
93.9436279368
 21
64.4112897987
  0
LINE
  5
61C
100
AcDbEntity
  8
0
100
AcDbLine
 62
7
  6
CONTINUOUS
 10
93.4139586869
 20
66.3299871854
 11
93.3140064614
 21
66.6457279011
  0
LINE
  5
61D
100
AcDbEntity
  8
0
100
AcDbLine
 62
253
  6
CONTINUOUS
 10
93.9436279368
 20
64.4112897987
 11
94.024844244
 21
64.1529048251
  0
LINE
  5
61E
100
AcDbEntity
  8
0
100
AcDbLine
 62
7
  6
CONTINUOUS
 10
93.3223670994
 20
66.619216073
 11
93.2079801816
 21
66.9831736345
  0
LINE
  5
61F
100
AcDbEntity
  8
0
100
AcDbLine
 62
253
  6
CONTINUOUS
 10
93.5523407381
 20
65.6457033628
 11
93.6446523183
 21
65.3512108124
  0
LINE
  5
620
100
AcDbEntity
  8
0
100
AcDbLine
 62
7
  6
CONTINUOUS
 10
93.2215666584
 20
66.9398193526
 11
93.1185762731
 21
67.2694341245
  0
LINE
  5
621
100
AcDbEntity
  8
0
100
AcDbLine
 62
253
  6
CONTINUOUS
 10
94.024844244
 20
64.1529048251
 11
94.1253217567
 21
63.8309115654
  0
LINE
  5
622
100
AcDbEntity
  8
0
100
AcDbLine
 62
7
  6
CONTINUOUS
 10
93.1367497152
 20
67.2110922305
 11
93.0905958918
 21
67.3594615042
  0
LINE
  5
623
100
AcDbEntity
  8
0
100
AcDbLine
 62
253
  6
CONTINUOUS
 10
94.4760452988
 20
62.6841926201
 11
94.5247037789
 21
62.5285389993
  0
LWPOLYLINE
  5
624
100
AcDbEntity
  8
0
100
AcDbPolyline
 62
7
  6
CONTINUOUS
 90
8
 70
0
 10
94.5933957364
 20
62.7279033142
 10
94.6154102133
 20
62.6570258989
 10
94.6321068682
 20
62.584711926
 10
94.6433939998
 20
62.5113595647
 10
94.6492097307
 20
62.4373716058
 10
94.6495219353
 20
62.3631551624
 10
94.644328717
 20
62.2891194723
 10
94.6336585781
 20
62.2156723667
  0
LINE
  5
625
100
AcDbEntity
  8
0
100
AcDbLine
 62
253
  6
CONTINUOUS
 10
94.1253217567
 20
63.8309115654
 11
94.1945084288
 21
63.6074163262
  0
LINE
  5
626
100
AcDbEntity
  8
0
100
AcDbLine
 62
253
  6
CONTINUOUS
 10
93.4567423181
 20
65.9551271078
 11
93.5523407381
 21
65.6457033628
  0
LINE
  5
627
100
AcDbEntity
  8
0
100
AcDbLine
 62
7
  6
CONTINUOUS
 10
93.0906230307
 20
67.3593772735
 11
93.0262589881
 21
67.5699927488
  0
LINE
  5
628
100
AcDbEntity
  8
0
100
AcDbLine
 62
253
  6
CONTINUOUS
 10
94.4034418176
 20
62.9206024733
 11
94.4760452988
 21
62.6841926201
  0
LINE
  5
629
100
AcDbEntity
  8
0
100
AcDbLine
 62
253
  6
CONTINUOUS
 10
94.1945084288
 20
63.6074163262
 11
94.2589253322
 21
63.397177016
  0
LWPOLYLINE
  5
62A
100
AcDbEntity
  8
0
100
AcDbPolyline
 62
253
  6
CONTINUOUS
 90
3
 70
0
 10
94.2589253322
 20
63.397177016
 10
94.3179926195
 20
63.2028345888
 10
94.4034418176
 20
62.9206024733
  0
LINE
  5
62B
100
AcDbEntity
  8
0
100
AcDbLine
 62
253
  6
CONTINUOUS
 10
93.3592627928
 20
66.27513253
 11
93.4567423181
 21
65.9551271078
  0
LINE
  5
62C
100
AcDbEntity
  8
0
100
AcDbLine
 62
253
  6
CONTINUOUS
 10
93.2590909252
 20
66.6081176846
 11
93.3592627928
 21
66.27513253
  0
LINE
  5
62D
100
AcDbEntity
  8
0
100
AcDbLine
 62
253
  6
CONTINUOUS
 10
93.1573507494
 20
66.9500116768
 11
93.2590909252
 21
66.6081176846
  0
LINE
  5
62E
100
AcDbEntity
  8
0
100
AcDbLine
 62
253
  6
CONTINUOUS
 10
93.0892688228
 20
67.1806521237
 11
93.1573507494
 21
66.9500116768
  0
LINE
  5
62F
100
AcDbEntity
  8
0
100
AcDbLine
 62
7
  6
CONTINUOUS
 10
93.0276810858
 20
67.5652785436
 11
92.9461455779
 21
67.8422432728
  0
LWPOLYLINE
  5
630
100
AcDbEntity
  8
0
100
AcDbPolyline
 62
7
  6
CONTINUOUS
 90
3
 70
0
 10
93.0067308518
 20
67.4709019001
 10
93.0474908638
 20
67.3260429606
 10
93.0892688228
 20
67.1806521237
  0
LINE
  5
631
100
AcDbEntity
  8
0
100
AcDbLine
 62
7
  6
CONTINUOUS
 10
92.9473726608
 20
67.8379997522
 11
92.868540052
 21
68.1184763434
  0
LINE
  5
632
100
AcDbEntity
  8
0
100
AcDbLine
 62
7
  6
CONTINUOUS
 10
92.8695893527
 20
68.1146751868
 11
92.7935673877
 21
68.3988025463
  0
LINE
  5
633
100
AcDbEntity
  8
0
100
AcDbLine
 62
253
  6
CONTINUOUS
 10
91.4291827483
 20
54.4743209214
 11
91.4338226572
 21
54.4567948785
  0
LINE
  5
634
100
AcDbEntity
  8
0
100
AcDbLine
 62
253
  6
CONTINUOUS
 10
91.4231063039
 20
54.4977568543
 11
91.4291827483
 21
54.4743209214
  0
LINE
  5
635
100
AcDbEntity
  8
0
100
AcDbLine
 62
253
  6
CONTINUOUS
 10
91.4079223722
 20
54.5596068842
 11
91.4091748507
 21
54.5547295101
  0
LINE
  5
636
100
AcDbEntity
  8
0
100
AcDbLine
 62
253
  6
CONTINUOUS
 10
91.4199967564
 20
54.509983191
 11
91.4231063039
 21
54.4977568543
  0
LINE
  5
637
100
AcDbEntity
  8
0
100
AcDbLine
 62
253
  6
CONTINUOUS
 10
91.4179299052
 20
54.5182990176
 11
91.4199967564
 21
54.509983191
  0
LINE
  5
638
100
AcDbEntity
  8
0
100
AcDbLine
 62
253
  6
CONTINUOUS
 10
91.4091748507
 20
54.5547295101
 11
91.410371532
 21
54.549898118
  0
LINE
  5
639
100
AcDbEntity
  8
0
100
AcDbLine
 62
253
  6
CONTINUOUS
 10
91.4160737543
 20
54.5259632578
 11
91.4179299052
 21
54.5182990176
  0
LINE
  5
63A
100
AcDbEntity
  8
0
100
AcDbLine
 62
253
  6
CONTINUOUS
 10
91.410371532
 20
54.549898118
 11
91.4121067333
 21
54.5427226708
  0
LWPOLYLINE
  5
63B
100
AcDbEntity
  8
0
100
AcDbPolyline
 62
253
  6
CONTINUOUS
 90
3
 70
0
 10
91.4121067333
 20
54.5427226708
 10
91.4143523067
 20
54.5332255804
 10
91.4160737543
 20
54.5259632578
  0
LWPOLYLINE
  5
63C
100
AcDbEntity
  8
0
100
AcDbPolyline
 62
253
  6
CONTINUOUS
 90
8
 70
0
 10
92.2881429645
 20
54.9131111885
 10
92.2885524144
 20
54.9093395235
 10
92.2889457393
 20
54.9059007461
 10
92.2893202644
 20
54.9028329745
 10
92.2896763463
 20
54.9001736984
 10
92.2900121738
 20
54.8979625224
 10
92.2903239161
 20
54.8962389207
 10
92.2906086674
 20
54.8950437717
  0
LWPOLYLINE
  5
63D
100
AcDbEntity
  8
0
100
AcDbPolyline
 62
253
  6
CONTINUOUS
 90
3
 70
0
 10
92.2582519613
 20
55.2437775136
 10
92.2590098391
 20
55.2364394192
 10
92.2593595594
 20
55.2329430887
  0
LINE
  5
63E
100
AcDbEntity
  8
0
100
AcDbLine
 62
253
  6
CONTINUOUS
 10
92.2872812926
 20
54.9215407826
 11
92.2881429645
 21
54.9131111885
  0
LINE
  5
63F
100
AcDbEntity
  8
0
100
AcDbLine
 62
253
  6
CONTINUOUS
 10
92.2858906441
 20
54.9360508786
 11
92.2872812926
 21
54.9215407826
  0
LWPOLYLINE
  5
640
100
AcDbEntity
  8
0
100
AcDbPolyline
 62
253
  6
CONTINUOUS
 90
6
 70
0
 10
92.2535324388
 20
55.281028138
 10
92.2540139589
 20
55.2759025888
 10
92.25450149
 20
55.2712606842
 10
92.2550034413
 20
55.267082872
 10
92.2555116409
 20
55.2633107108
 10
92.2566787762
 20
55.2556091931
  0
LINE
  5
641
100
AcDbEntity
  8
0
100
AcDbLine
 62
253
  6
CONTINUOUS
 10
92.2656091064
 20
55.1630343277
 11
92.2667368576
 21
55.1509073249
  0
LINE
  5
642
100
AcDbEntity
  8
0
100
AcDbLine
 62
253
  6
CONTINUOUS
 10
92.2593595594
 20
55.2329430887
 11
92.2609168832
 21
55.2163043945
  0
LINE
  5
643
100
AcDbEntity
  8
0
100
AcDbLine
 62
253
  6
CONTINUOUS
 10
92.2636698646
 20
55.1842696094
 11
92.2656091064
 21
55.1630343277
  0
LINE
  5
644
100
AcDbEntity
  8
0
100
AcDbLine
 62
253
  6
CONTINUOUS
 10
92.2667368576
 20
55.1509073249
 11
92.2721393329
 21
55.0910974638
  0
LINE
  5
645
100
AcDbEntity
  8
0
100
AcDbLine
 62
253
  6
CONTINUOUS
 10
92.2721393329
 20
55.0910974638
 11
92.2730088427
 21
55.0812711457
  0
LINE
  5
646
100
AcDbEntity
  8
0
100
AcDbLine
 62
253
  6
CONTINUOUS
 10
92.2730088427
 20
55.0812711457
 11
92.2748026439
 21
55.0609627536
  0
LINE
  5
647
100
AcDbEntity
  8
0
100
AcDbLine
 62
253
  6
CONTINUOUS
 10
92.281815468
 20
54.9813677128
 11
92.2858906441
 21
54.9360508786
  0
LWPOLYLINE
  5
648
100
AcDbEntity
  8
0
100
AcDbPolyline
 62
253
  6
CONTINUOUS
 90
3
 70
0
 10
92.2748026439
 20
55.0609627536
 10
92.2762133296
 20
55.0449819738
 10
92.2766970423
 20
55.0394982143
  0
LWPOLYLINE
  5
649
100
AcDbEntity
  8
0
100
AcDbPolyline
 62
253
  6
CONTINUOUS
 90
3
 70
0
 10
92.2766970423
 20
55.0394982143
 10
92.2781859704
 20
55.0226068838
 10
92.278693875
 20
55.016836963
  0
LWPOLYLINE
  5
64A
100
AcDbEntity
  8
0
100
AcDbPolyline
 62
253
  6
CONTINUOUS
 90
4
 70
0
 10
92.278693875
 20
55.016836963
 10
92.2797230032
 20
55.005140349
 10
92.2802433323
 20
54.9992230837
 10
92.281815468
 20
54.9813677128
  0
LWPOLYLINE
  5
64B
100
AcDbEntity
  8
0
100
AcDbPolyline
 62
253
  6
CONTINUOUS
 90
3
 70
0
 10
92.2609168832
 20
55.2163043945
 10
92.2620322381
 20
55.2034440823
 10
92.2636698646
 20
55.1842696094
  0
LWPOLYLINE
  5
64C
100
AcDbEntity
  8
0
100
AcDbPolyline
 62
253
  6
CONTINUOUS
 90
3
 70
0
 10
92.251959253
 20
55.2992389599
 10
92.2525050825
 20
55.2926710209
 10
92.2535324388
 20
55.281028138
  0
LINE
  5
64D
100
AcDbEntity
  8
0
100
AcDbLine
 62
7
  6
CONTINUOUS
 10
83.1559814616
 20
104.4027423469
 11
83.1559814616
 21
104.4527423469
  0
LINE
  5
64E
100
AcDbEntity
  8
0
100
AcDbLine
 62
253
  6
CONTINUOUS
 10
84.2384797272
 20
104.4027423469
 11
84.2384797272
 21
104.4527423469
  0
LINE
  5
64F
100
AcDbEntity
  8
0
100
AcDbLine
 62
253
  6
CONTINUOUS
 10
84.3034189322
 20
54.207767196
 11
84.3033845735
 21
104.3027423469
  0
LINE
  5
650
100
AcDbEntity
  8
0
100
AcDbLine
 62
7
  6
CONTINUOUS
 10
85.0229183202
 20
104.4027423469
 11
85.0229183202
 21
104.4527423469
  0
LINE
  5
651
100
AcDbEntity
  8
0
100
AcDbLine
 62
7
  6
CONTINUOUS
 10
85.0433845735
 20
51.0527423469
 11
85.0433845735
 21
104.3027423469
  0
LINE
  5
652
100
AcDbEntity
  8
0
100
AcDbLine
 62
7
  6
CONTINUOUS
 10
85.0465519509
 20
104.4027423469
 11
85.0465519509
 21
104.4527423469
  0
LINE
  5
653
100
AcDbEntity
  8
0
100
AcDbLine
 62
253
  6
CONTINUOUS
 10
87.0666575304
 20
104.4027423469
 11
87.0666575304
 21
104.4527423469
  0
LINE
  5
654
100
AcDbEntity
  8
0
100
AcDbLine
 62
7
  6
CONTINUOUS
 10
87.2006532464
 20
104.4027423469
 11
87.2006532464
 21
104.4527423469
  0
LINE
  5
655
100
AcDbEntity
  8
0
100
AcDbLine
 62
253
  6
CONTINUOUS
 10
85.7833502149
 20
54.207767196
 11
85.7833845735
 21
104.3027423469
  0
LWPOLYLINE
  5
656
100
AcDbEntity
  8
0
100
AcDbPolyline
 62
253
  6
CONTINUOUS
 90
5
 70
0
 10
77.808075272
 20
55.016836963
 10
77.8075630017
 20
55.0110158727
 10
77.8070461439
 20
55.005140349
 10
77.8065258147
 20
54.9992230837
 10
77.8060032991
 20
54.9932822757
  0
LINE
  5
657
100
AcDbEntity
  8
0
100
AcDbLine
 62
253
  6
CONTINUOUS
 10
77.8090856423
 20
55.0283107628
 11
77.808075272
 21
55.016836963
  0
LINE
  5
658
100
AcDbEntity
  8
0
100
AcDbLine
 62
253
  6
CONTINUOUS
 10
77.8242018472
 20
55.1970912426
 11
77.8230992825
 21
55.1842696094
  0
LINE
  5
659
100
AcDbEntity
  8
0
100
AcDbLine
 62
253
  6
CONTINUOUS
 10
77.8100721047
 20
55.0394982143
 11
77.8090856423
 21
55.0283107628
  0
LINE
  5
65A
100
AcDbEntity
  8
0
100
AcDbLine
 62
253
  6
CONTINUOUS
 10
77.8119665032
 20
55.0609627536
 11
77.8100721047
 21
55.0394982143
  0
LWPOLYLINE
  5
65B
100
AcDbEntity
  8
0
100
AcDbPolyline
 62
253
  6
CONTINUOUS
 90
3
 70
0
 10
77.8133205134
 20
55.0762925407
 10
77.8128746904
 20
55.0712443412
 10
77.8119665032
 20
55.0609627536
  0
LINE
  5
65C
100
AcDbEntity
  8
0
100
AcDbLine
 62
253
  6
CONTINUOUS
 10
77.8141967634
 20
55.0862062298
 11
77.8133205134
 21
55.0762925407
  0
LINE
  5
65D
100
AcDbEntity
  8
0
100
AcDbLine
 62
253
  6
CONTINUOUS
 10
77.8258522639
 20
55.2163043945
 11
77.824736909
 21
55.2034440823
  0
LWPOLYLINE
  5
65E
100
AcDbEntity
  8
0
100
AcDbPolyline
 62
253
  6
CONTINUOUS
 90
6
 70
0
 10
77.8342640646
 20
55.2926710209
 10
77.8332367082
 20
55.281028138
 10
77.8327551882
 20
55.2759025888
 10
77.832267657
 20
55.2712606842
 10
77.8317657058
 20
55.267082872
 10
77.8312575061
 20
55.2633107108
  0
LINE
  5
65F
100
AcDbEntity
  8
0
100
AcDbLine
 62
253
  6
CONTINUOUS
 10
77.8060032991
 20
54.9932822757
 11
77.8013643971
 21
54.9412931044
  0
LINE
  5
660
100
AcDbEntity
  8
0
100
AcDbLine
 62
253
  6
CONTINUOUS
 10
77.8204181734
 20
55.1550648156
 11
77.8141967634
 21
55.0862062298
  0
LINE
  5
661
100
AcDbEntity
  8
0
100
AcDbLine
 62
253
  6
CONTINUOUS
 10
77.8230992825
 20
55.1842696094
 11
77.8204181734
 21
55.1550648156
  0
LINE
  5
662
100
AcDbEntity
  8
0
100
AcDbLine
 62
253
  6
CONTINUOUS
 10
77.8274095876
 20
55.2329430887
 11
77.8258522639
 21
55.2163043945
  0
LINE
  5
663
100
AcDbEntity
  8
0
100
AcDbLine
 62
253
  6
CONTINUOUS
 10
77.8013643971
 20
54.9412931044
 11
77.7999399176
 21
54.9261550866
  0
LWPOLYLINE
  5
664
100
AcDbEntity
  8
0
100
AcDbPolyline
 62
253
  6
CONTINUOUS
 90
10
 70
0
 10
77.7999399176
 20
54.9261550866
 10
77.7990494188
 20
54.9171846146
 10
77.7986261825
 20
54.9131111885
 10
77.7982167327
 20
54.9093395235
 10
77.7978234078
 20
54.9059007461
 10
77.7974488826
 20
54.9028329745
 10
77.7970928007
 20
54.9001736984
 10
77.7967569733
 20
54.8979625224
 10
77.796445231
 20
54.8962389207
 10
77.7961604796
 20
54.8950437717
  0
LINE
  5
665
100
AcDbEntity
  8
0
100
AcDbLine
 62
7
  6
CONTINUOUS
 10
77.8926029447
 20
71.5718526058
 11
77.8589798612
 21
71.3024230566
  0
LINE
  5
666
100
AcDbEntity
  8
0
100
AcDbLine
 62
7
  6
CONTINUOUS
 10
77.8592747424
 20
71.3046493431
 11
77.8212584666
 21
71.0267912582
  0
LWPOLYLINE
  5
667
100
AcDbEntity
  8
0
100
AcDbPolyline
 62
7
  6
CONTINUOUS
 90
4
 70
0
 10
77.8216114766
 20
71.02922709
 10
77.7788792273
 20
70.7427026099
 10
77.7317307991
 20
70.4513225727
 10
77.6794546728
 20
70.1521276344
  0
LWPOLYLINE
  5
668
100
AcDbEntity
  8
0
100
AcDbPolyline
 62
253
  6
CONTINUOUS
 90
7
 70
0
 10
77.8312575061
 20
55.2633107108
 10
77.8300903709
 20
55.2556091931
 10
77.8294995923
 20
55.2515192561
 10
77.8289708666
 20
55.2475964706
 10
77.8285171858
 20
55.2437775136
 10
77.82812605
 20
55.2400465587
 10
77.8274095876
 20
55.2329430887
  0
LWPOLYLINE
  5
669
100
AcDbEntity
  8
0
100
AcDbPolyline
 62
7
  6
CONTINUOUS
 90
3
 70
0
 10
77.7792994334
 20
70.7453692812
 10
77.7322277846
 20
70.4542366403
 10
77.6800375926
 20
70.1553028352
  0
LINE
  5
66A
100
AcDbEntity
  8
0
100
AcDbLine
 62
7
  6
CONTINUOUS
 10
77.6800375926
 20
70.1553028352
 11
77.6216924306
 21
69.8447995599
  0
LINE
  5
66B
100
AcDbEntity
  8
0
100
AcDbLine
 62
7
  6
CONTINUOUS
 10
77.6223729049
 20
69.8482545841
 11
77.5584672529
 21
69.5311461314
  0
LINE
  5
66C
100
AcDbEntity
  8
0
100
AcDbLine
 62
7
  6
CONTINUOUS
 10
77.5592556883
 20
69.534890274
 11
77.4900745165
 21
69.2139036607
  0
LINE
  5
66D
100
AcDbEntity
  8
0
100
AcDbLine
 62
7
  6
CONTINUOUS
 10
77.4909772823
 20
69.2179250208
 11
77.4164426789
 21
68.8937834582
  0
LINE
  5
66E
100
AcDbEntity
  8
0
100
AcDbLine
 62
7
  6
CONTINUOUS
 10
77.4174660858
 20
68.8980668059
 11
77.3375484652
 21
68.5716517447
  0
LINE
  5
66F
100
AcDbEntity
  8
0
100
AcDbLine
 62
7
  6
CONTINUOUS
 10
92.7944579986
 20
68.3954129937
 11
92.7213988255
 21
68.6829722344
  0
LWPOLYLINE
  5
670
100
AcDbEntity
  8
0
100
AcDbPolyline
 62
7
  6
CONTINUOUS
 90
3
 70
0
 10
92.7221489521
 20
68.6799663464
 10
92.652306927
 20
68.9702336437
 10
92.5864069073
 20
69.2602814932
  0
LINE
  5
671
100
AcDbEntity
  8
0
100
AcDbLine
 62
7
  6
CONTINUOUS
 10
92.6529321525
 20
68.9675912893
 11
92.5869227174
 21
69.2579784367
  0
LWPOLYLINE
  5
672
100
AcDbEntity
  8
0
100
AcDbPolyline
 62
7
  6
CONTINUOUS
 90
3
 70
0
 10
92.5869227174
 20
69.2579784367
 10
92.5238049053
 20
69.5527243611
 10
92.4647343995
 20
69.8465165264
  0
LINE
  5
673
100
AcDbEntity
  8
0
100
AcDbLine
 62
7
  6
CONTINUOUS
 10
92.5242261592
 20
69.5507340655
 11
92.4650736934
 21
69.8448150943
  0
LWPOLYLINE
  5
674
100
AcDbEntity
  8
0
100
AcDbPolyline
 62
7
  6
CONTINUOUS
 90
5
 70
0
 10
92.4650736934
 20
69.8448150943
 10
92.4092841493
 20
70.1412317023
 10
92.3575380868
 20
70.4364469976
 10
92.3096884779
 20
70.731110748
 10
92.2657803012
 20
71.0248704636
  0
LWPOLYLINE
  5
675
100
AcDbEntity
  8
0
100
AcDbPolyline
 62
7
  6
CONTINUOUS
 90
4
 70
0
 10
92.4095533067
 20
70.139793048
 10
92.3577486499
 20
70.435242164
 10
92.3098496459
 20
70.7301155163
 10
92.2659015894
 20
71.0240574623
  0
LWPOLYLINE
  5
676
100
AcDbEntity
  8
0
100
AcDbPolyline
 62
253
  6
CONTINUOUS
 90
4
 70
0
 10
92.2566787762
 20
55.2556091931
 10
92.2572695547
 20
55.2515192561
 10
92.2577982805
 20
55.2475964706
 10
92.2582519613
 20
55.2437775136
  0
LWPOLYLINE
  5
677
100
AcDbEntity
  8
0
100
AcDbPolyline
 62
7
  6
CONTINUOUS
 90
3
 70
0
 10
92.2659015894
 20
71.0240574623
 10
92.2258384887
 20
71.3173497444
 10
92.1899638886
 20
71.6074717121
  0
LWPOLYLINE
  5
678
100
AcDbEntity
  8
0
100
AcDbPolyline
 62
7
  6
CONTINUOUS
 90
31
 70
0
 10
92.2109107513
 20
71.4293987843
 10
92.2223991572
 20
71.3379281404
 10
92.2347306126
 20
71.2426905387
 10
92.2479461766
 20
71.1436861673
 10
92.2620917072
 20
71.0408918803
 10
92.277290057
 20
70.9337582107
 10
92.2935768923
 20
70.8223889878
 10
92.3110246648
 20
70.7066554938
 10
92.3298339826
 20
70.5856576
 10
92.3502249097
 20
70.4584514081
 10
92.3721258895
 20
70.3259602332
 10
92.3952860514
 20
70.1900979778
 10
92.4198047806
 20
70.0505417007
 10
92.4456678723
 20
69.9076308516
 10
92.4723802508
 20
69.7643003963
 10
92.4997516741
 20
69.6215415777
 10
92.5279533434
 20
69.4784150104
 10
92.5569888845
 20
69.3349785693
 10
92.5868675184
 20
69.1912112761
 10
92.6175747584
 20
69.0471965599
 10
92.649078709
 20
68.9031583581
 10
92.6813938349
 20
68.7590714839
 10
92.7144987995
 20
68.6150337765
 10
92.748301492
 20
68.4714570671
 10
92.7826997137
 20
68.3287704044
 10
92.8177751493
 20
68.1866146492
 10
92.8537173487
 20
68.0442204793
 10
92.8905582661
 20
67.9015337505
 10
92.9282728996
 20
67.758686136
 10
92.966981271
 20
67.6151881844
 10
93.0067308518
 20
67.4709019001
  0
LINE
  5
679
100
AcDbEntity
  8
0
100
AcDbLine
 62
7
  6
CONTINUOUS
 10
92.2259280023
 20
71.3166911594
 11
92.1900282617
 21
71.6069458918
  0
LINE
  5
67A
100
AcDbEntity
  8
0
100
AcDbLine
 62
7
  6
CONTINUOUS
 10
92.1561181879
 20
71.9127609787
 11
92.1719812315
 21
71.7633147627
  0
LINE
  5
67B
100
AcDbEntity
  8
0
100
AcDbLine
 62
7
  6
CONTINUOUS
 10
92.1422242989
 20
72.0520119704
 11
92.1561181879
 21
71.9127609787
  0
LINE
  5
67C
100
AcDbEntity
  8
0
100
AcDbLine
 62
7
  6
CONTINUOUS
 10
92.1581857181
 20
71.8944863
 11
92.1303442712
 21
72.1793152748
  0
LINE
  5
67D
100
AcDbEntity
  8
0
100
AcDbLine
 62
7
  6
CONTINUOUS
 10
92.1300606028
 20
72.1817422356
 11
92.1422242989
 21
72.0520119704
  0
LINE
  5
67E
100
AcDbEntity
  8
0
100
AcDbLine
 62
7
  6
CONTINUOUS
 10
92.1193924151
 20
72.3028603221
 11
92.1300606028
 21
72.1817422356
  0
LWPOLYLINE
  5
67F
100
AcDbEntity
  8
0
100
AcDbPolyline
 62
7
  6
CONTINUOUS
 90
3
 70
0
 10
92.1303752759
 20
72.1789868381
 10
92.1065949222
 20
72.4596700165
 10
92.08692189
 20
72.7341209717
  0
LINE
  5
680
100
AcDbEntity
  8
0
100
AcDbLine
 62
7
  6
CONTINUOUS
 10
92.1100246577
 20
72.4161149666
 11
92.1193924151
 21
72.3028603221
  0
LINE
  5
681
100
AcDbEntity
  8
0
100
AcDbLine
 62
253
  6
CONTINUOUS
 10
92.2508036652
 20
55.3140287713
 11
92.251959253
 21
55.2992389599
  0
LINE
  5
682
100
AcDbEntity
  8
0
100
AcDbLine
 62
7
  6
CONTINUOUS
 10
92.1018038906
 20
72.5219873054
 11
92.1100246577
 21
72.4161149666
  0
LINE
  5
683
100
AcDbEntity
  8
0
100
AcDbLine
 62
7
  6
CONTINUOUS
 10
92.0945795157
 20
72.6211341677
 11
92.1018038906
 21
72.5219873054
  0
LINE
  5
684
100
AcDbEntity
  8
0
100
AcDbLine
 62
253
  6
CONTINUOUS
 10
92.2495702154
 20
55.3312457847
 11
92.2508036652
 21
55.3140287713
  0
LINE
  5
685
100
AcDbEntity
  8
0
100
AcDbLine
 62
253
  6
CONTINUOUS
 10
92.2482781881
 20
55.3512737853
 11
92.2495702154
 21
55.3312457847
  0
LINE
  5
686
100
AcDbEntity
  8
0
100
AcDbLine
 62
7
  6
CONTINUOUS
 10
92.0801011666
 20
72.8428600485
 11
92.0945795157
 21
72.6211341677
  0
LINE
  5
687
100
AcDbEntity
  8
0
100
AcDbLine
 62
7
  6
CONTINUOUS
 10
92.08692189
 20
72.7341209717
 11
92.0765303579
 21
72.9095231293
  0
LWPOLYLINE
  5
688
100
AcDbEntity
  8
0
100
AcDbPolyline
 62
7
  6
CONTINUOUS
 90
4
 70
0
 10
92.0801011666
 20
72.8428600485
 10
92.0752536366
 20
72.9265742286
 10
92.0727675344
 20
72.9739363272
 10
92.0700049135
 20
73.0315314836
  0
LINE
  5
689
100
AcDbEntity
  8
0
100
AcDbLine
 62
253
  6
CONTINUOUS
 10
92.2469599385
 20
55.3745481272
 11
92.2482781881
 21
55.3512737853
  0
LWPOLYLINE
  5
68A
100
AcDbEntity
  8
0
100
AcDbPolyline
 62
253
  6
CONTINUOUS
 90
22
 70
0
 10
91.3811678575
 20
54.7735152848
 10
91.3821423622
 20
54.7543157293
 10
91.3831318498
 20
54.7365710835
 10
91.3841312461
 20
54.7201672689
 10
91.3851423978
 20
54.7050358742
 10
91.3861634582
 20
54.6911097362
 10
91.3871838135
 20
54.6782903168
 10
91.3882032465
 20
54.6665195245
 10
91.3892219743
 20
54.6557390941
 10
91.3902300356
 20
54.6458632181
 10
91.3912263884
 20
54.6368424223
 10
91.3922120746
 20
54.6286283309
 10
91.3931802582
 20
54.6211491355
 10
91.3941288107
 20
54.6143651542
 10
91.3950598606
 20
54.6082346964
 10
91.3959729578
 20
54.6026952786
 10
91.3968637791
 20
54.5977145721
 10
91.3977366477
 20
54.5932602914
 10
91.3986040829
 20
54.5892827199
 10
91.3994702579
 20
54.5857514936
 10
91.4003309995
 20
54.5826491052
 10
91.4011863079
 20
54.5799517184
  0
LINE
  5
68B
100
AcDbEntity
  8
0
100
AcDbLine
 62
253
  6
CONTINUOUS
 10
92.2456372294
 20
55.4014711756
 11
92.2469599385
 21
55.3745481272
  0
LINE
  5
68C
100
AcDbEntity
  8
0
100
AcDbLine
 62
253
  6
CONTINUOUS
 10
91.3792652402
 20
54.8165811064
 11
91.3811678575
 21
54.7735152848
  0
LINE
  5
68D
100
AcDbEntity
  8
0
100
AcDbLine
 62
253
  6
CONTINUOUS
 10
92.2443520025
 20
55.4326348495
 11
92.2456372294
 21
55.4014711756
  0
LWPOLYLINE
  5
68E
100
AcDbEntity
  8
0
100
AcDbPolyline
 62
7
  6
CONTINUOUS
 90
6
 70
0
 10
92.0700049135
 20
73.0315314836
 10
92.0638858493
 20
73.1797584213
 10
92.0606844578
 20
73.2705844283
 10
92.0574765369
 20
73.3728286722
 10
92.0543204428
 20
73.4867552819
 10
92.051290324
 20
73.6117351334
  0
LINE
  5
68F
100
AcDbEntity
  8
0
100
AcDbLine
 62
253
  6
CONTINUOUS
 10
91.3774308482
 20
54.8666043433
 11
91.3792652402
 21
54.8165811064
  0
LINE
  5
690
100
AcDbEntity
  8
0
100
AcDbLine
 62
253
  6
CONTINUOUS
 10
92.2431099445
 20
55.4686330453
 11
92.2443520025
 21
55.4326348495
  0
LINE
  5
691
100
AcDbEntity
  8
0
100
AcDbLine
 62
253
  6
CONTINUOUS
 10
91.3756718046
 20
54.9244738593
 11
91.3774308482
 21
54.8666043433
  0
LINE
  5
692
100
AcDbEntity
  8
0
100
AcDbLine
 62
253
  6
CONTINUOUS
 10
92.2419138588
 20
55.5100638661
 11
92.2431099445
 21
55.4686330453
  0
LINE
  5
693
100
AcDbEntity
  8
0
100
AcDbLine
 62
253
  6
CONTINUOUS
 10
91.3739969083
 20
54.9913171178
 11
91.3756718046
 21
54.9244738593
  0
LINE
  5
694
100
AcDbEntity
  8
0
100
AcDbLine
 62
253
  6
CONTINUOUS
 10
91.2062709791
 20
69.1222610883
 11
91.2952831618
 21
65.1510923729
  0
LINE
  5
695
100
AcDbEntity
  8
0
100
AcDbLine
 62
253
  6
CONTINUOUS
 10
91.2952831618
 20
65.1510923729
 11
91.3091326523
 21
64.5067116699
  0
LINE
  5
696
100
AcDbEntity
  8
0
100
AcDbLine
 62
253
  6
CONTINUOUS
 10
92.2402069473
 20
55.5839722488
 11
92.2419138588
 21
55.5100638661
  0
LWPOLYLINE
  5
697
100
AcDbEntity
  8
0
100
AcDbPolyline
 62
7
  6
CONTINUOUS
 90
3
 70
0
 10
92.051290324
 20
73.6117351334
 10
92.0484367217
 20
73.7475340108
 10
92.0457906094
 20
73.8945144477
  0
LINE
  5
698
100
AcDbEntity
  8
0
100
AcDbLine
 62
253
  6
CONTINUOUS
 10
91.1934431311
 20
69.73975367
 11
91.2062709791
 21
69.1222610883
  0
LINE
  5
699
100
AcDbEntity
  8
0
100
AcDbLine
 62
253
  6
CONTINUOUS
 10
91.3091326523
 20
64.5067116699
 11
91.3232275125
 21
63.8247281695
  0
LINE
  5
69A
100
AcDbEntity
  8
0
100
AcDbLine
 62
253
  6
CONTINUOUS
 10
91.1814351754
 20
70.3534430943
 11
91.1934431311
 21
69.73975367
  0
LINE
  5
69B
100
AcDbEntity
  8
0
100
AcDbLine
 62
253
  6
CONTINUOUS
 10
91.3232275125
 20
63.8247281695
 11
91.3373158736
 21
63.1045149448
  0
LINE
  5
69C
100
AcDbEntity
  8
0
100
AcDbLine
 62
253
  6
CONTINUOUS
 10
92.1241179863
 20
68.6794400769
 11
92.1300006753
 21
68.3740514337
  0
LINE
  5
69D
100
AcDbEntity
  8
0
100
AcDbLine
 62
253
  6
CONTINUOUS
 10
92.1300006753
 20
68.3740514337
 11
92.1529791856
 21
67.1650699227
  0
LINE
  5
69E
100
AcDbEntity
  8
0
100
AcDbLine
 62
253
  6
CONTINUOUS
 10
92.0953772812
 20
70.2044434531
 11
92.1241179863
 21
68.6794400769
  0
LINE
  5
69F
100
AcDbEntity
  8
0
100
AcDbLine
 62
253
  6
CONTINUOUS
 10
91.3373158736
 20
63.1045149448
 11
91.3513372759
 21
62.3457072526
  0
LINE
  5
6A0
100
AcDbEntity
  8
0
100
AcDbLine
 62
253
  6
CONTINUOUS
 10
92.1529791856
 20
67.1650699227
 11
92.1691922807
 21
66.269526449
  0
LINE
  5
6A1
100
AcDbEntity
  8
0
100
AcDbLine
 62
253
  6
CONTINUOUS
 10
91.1703332852
 20
70.9647643386
 11
91.1814351754
 21
70.3534430943
  0
LINE
  5
6A2
100
AcDbEntity
  8
0
100
AcDbLine
 62
253
  6
CONTINUOUS
 10
92.0847494057
 20
70.8065227758
 11
92.0953772812
 21
70.2044434531
  0
LINE
  5
6A3
100
AcDbEntity
  8
0
100
AcDbLine
 62
253
  6
CONTINUOUS
 10
91.3717111962
 20
55.1112631289
 11
91.3739969083
 21
54.9913171178
  0
LINE
  5
6A4
100
AcDbEntity
  8
0
100
AcDbLine
 62
253
  6
CONTINUOUS
 10
92.1691922807
 20
66.269526449
 11
92.1795308055
 21
65.665749047
  0
LINE
  5
6A5
100
AcDbEntity
  8
0
100
AcDbLine
 62
253
  6
CONTINUOUS
 10
91.1601892854
 20
71.578691316
 11
91.1703332852
 21
70.9647643386
  0
LINE
  5
6A6
100
AcDbEntity
  8
0
100
AcDbLine
 62
253
  6
CONTINUOUS
 10
91.3513372759
 20
62.3457072526
 11
91.3595623862
 21
61.8577060048
  0
LINE
  5
6A7
100
AcDbEntity
  8
0
100
AcDbLine
 62
253
  6
CONTINUOUS
 10
92.0747992902
 20
71.4093589975
 11
92.0847494057
 21
70.8065227758
  0
LINE
  5
6A8
100
AcDbEntity
  8
0
100
AcDbLine
 62
253
  6
CONTINUOUS
 10
92.2386130308
 20
55.67459947
 11
92.2402069473
 21
55.5839722488
  0
LINE
  5
6A9
100
AcDbEntity
  8
0
100
AcDbLine
 62
253
  6
CONTINUOUS
 10
92.1795308055
 20
65.665749047
 11
92.189663048
 21
65.0393515429
  0
LINE
  5
6AA
100
AcDbEntity
  8
0
100
AcDbLine
 62
7
  6
CONTINUOUS
 10
92.0457906094
 20
73.8945144477
 11
92.0433845735
 21
74.0527423469
  0
LINE
  5
6AB
100
AcDbEntity
  8
0
100
AcDbLine
 62
253
  6
CONTINUOUS
 10
92.189663048
 20
65.0393515429
 11
92.1996376631
 21
64.3796792717
  0
LINE
  5
6AC
100
AcDbEntity
  8
0
100
AcDbLine
 62
253
  6
CONTINUOUS
 10
92.0656109606
 20
72.0200149364
 11
92.0747992902
 21
71.4093589975
  0
LINE
  5
6AD
100
AcDbEntity
  8
0
100
AcDbLine
 62
253
  6
CONTINUOUS
 10
91.3595623862
 20
61.8577060048
 11
91.3661839792
 21
61.4197137807
  0
LINE
  5
6AE
100
AcDbEntity
  8
0
100
AcDbLine
 62
253
  6
CONTINUOUS
 10
92.1996376631
 20
64.3796792717
 11
92.2093445075
 21
63.6824573634
  0
LINE
  5
6AF
100
AcDbEntity
  8
0
100
AcDbLine
 62
253
  6
CONTINUOUS
 10
91.3661839792
 20
61.4197137807
 11
91.3715589979
 21
61.0255587941
  0
LWPOLYLINE
  5
6B0
100
AcDbEntity
  8
0
100
AcDbPolyline
 62
253
  6
CONTINUOUS
 90
3
 70
0
 10
92.2093445075
 20
63.6824573634
 10
92.2186963849
 20
62.9461630795
 10
92.2231405193
 20
62.563541875
  0
LINE
  5
6B1
100
AcDbEntity
  8
0
100
AcDbLine
 62
253
  6
CONTINUOUS
 10
91.3715589979
 20
61.0255587941
 11
91.3769451536
 21
60.5859150817
  0
LWPOLYLINE
  5
6B2
100
AcDbEntity
  8
0
100
AcDbPolyline
 62
253
  6
CONTINUOUS
 90
18
 70
0
 10
91.132367489
 20
103.8463201735
 10
91.131859903
 20
103.8895663563
 10
91.1310182188
 20
103.9321517661
 10
91.1298488418
 20
103.9737523009
 10
91.1283606715
 20
104.0140513563
 10
91.1265650338
 20
104.0527422345
 10
91.1244755939
 20
104.0895304771
 10
91.1221082537
 20
104.1241360967
 10
91.1194810305
 20
104.1562957129
 10
91.1166139192
 20
104.185764571
 10
91.1135287403
 20
104.2123183945
 10
91.1102489746
 20
104.2357550855
 10
91.106799584
 20
104.2558962771
 10
91.1032068199
 20
104.2725886877
 10
91.0994980257
 20
104.2857052811
 10
91.0957014274
 20
104.2951462345
 10
91.0918459195
 20
104.3008396992
 10
91.0879608447
 20
104.3027423469
  0
LWPOLYLINE
  5
6B3
100
AcDbEntity
  8
0
100
AcDbPolyline
 62
253
  6
CONTINUOUS
 90
3
 70
0
 10
92.0533117952
 20
72.9851136898
 10
92.0571997362
 20
72.6539110051
 10
92.0656109606
 20
72.0200149364
  0
LINE
  5
6B4
100
AcDbEntity
  8
0
100
AcDbLine
 62
253
  6
CONTINUOUS
 10
91.3698047553
 20
55.2591816386
 11
91.3717111962
 21
55.1112631289
  0
LINE
  5
6B5
100
AcDbEntity
  8
0
100
AcDbLine
 62
253
  6
CONTINUOUS
 10
92.2371999522
 20
55.785470654
 11
92.2386130308
 21
55.67459947
  0
LINE
  5
6B6
100
AcDbEntity
  8
0
100
AcDbLine
 62
253
  6
CONTINUOUS
 10
92.2231405193
 20
62.563541875
 11
92.228491187
 21
62.0768708101
  0
LINE
  5
6B7
100
AcDbEntity
  8
0
100
AcDbLine
 62
253
  6
CONTINUOUS
 10
91.3769451536
 20
60.5859150817
 11
91.3819914757
 21
60.123984971
  0
LINE
  5
6B8
100
AcDbEntity
  8
0
100
AcDbLine
 62
253
  6
CONTINUOUS
 10
92.228491187
 20
62.0768708101
 11
92.2327265487
 21
61.6402994089
  0
LINE
  5
6B9
100
AcDbEntity
  8
0
100
AcDbLine
 62
253
  6
CONTINUOUS
 10
91.3819914757
 20
60.123984971
 11
91.3863235026
 21
59.6741426552
  0
LINE
  5
6BA
100
AcDbEntity
  8
RACCORDO
100
AcDbLine
 62
7
  6
CONTINUOUS
 10
92.2163198601
 20
100.4040513273
 11
92.2433845735
 21
97.3027423469
  0
LWPOLYLINE
  5
6BB
100
AcDbEntity
  8
0
100
AcDbPolyline
 62
253
  6
CONTINUOUS
 90
7
 70
0
 10
91.1325371159
 20
73.9647015327
 10
91.1356380653
 20
73.5898821297
 10
91.1390274156
 20
73.2268467228
 10
91.1427051624
 20
72.8755890748
 10
91.1466896123
 20
72.5379609483
 10
91.1509624486
 20
72.2120905902
 10
91.1601892854
 20
71.578691316
  0
LINE
  5
6BC
100
AcDbEntity
  8
RACCORDO
100
AcDbLine
 62
253
  6
CONTINUOUS
 10
92.0663255716
 20
100.5527423469
 11
92.0933788994
 21
97.3027420361
  0
LWPOLYLINE
  5
6BD
100
AcDbEntity
  8
0
100
AcDbPolyline
 62
253
  6
CONTINUOUS
 90
4
 70
0
 10
92.0433842159
 20
74.0527909287
 10
92.046337552
 20
73.6853006806
 10
92.0496649653
 20
73.3294500782
 10
92.0533117952
 20
72.9851136898
  0
LINE
  5
6BE
100
AcDbEntity
  8
0
100
AcDbLine
 62
253
  6
CONTINUOUS
 10
92.2327265487
 20
61.6402994089
 11
92.2368419062
 21
61.1556052382
  0
LINE
  5
6BF
100
AcDbEntity
  8
0
100
AcDbLine
 62
253
  6
CONTINUOUS
 10
91.3863235026
 20
59.6741426552
 11
91.3898761643
 21
59.2377733111
  0
LINE
  5
6C0
100
AcDbEntity
  8
0
100
AcDbLine
 62
253
  6
CONTINUOUS
 10
91.3898761643
 20
59.2377733111
 11
91.3913529469
 21
59.0248471044
  0
LINE
  5
6C1
100
AcDbEntity
  8
0
100
AcDbLine
 62
253
  6
CONTINUOUS
 10
92.2368419062
 20
61.1556052382
 11
92.2410827227
 21
60.5714215223
  0
LINE
  5
6C2
100
AcDbEntity
  8
0
100
AcDbLine
 62
253
  6
CONTINUOUS
 10
91.3913529469
 20
59.0248471044
 11
91.3924131449
 21
58.8641224224
  0
LINE
  5
6C3
100
AcDbEntity
  8
0
100
AcDbLine
 62
253
  6
CONTINUOUS
 10
92.2410827227
 20
60.5714215223
 11
92.2425202392
 21
60.3502193582
  0
LINE
  5
6C4
100
AcDbEntity
  8
0
100
AcDbLine
 62
253
  6
CONTINUOUS
 10
92.2425202392
 20
60.3502193582
 11
92.2433755696
 21
60.2126499086
  0
LINE
  5
6C5
100
AcDbEntity
  8
0
100
AcDbLine
 62
253
  6
CONTINUOUS
 10
91.3684453652
 20
55.440857614
 11
91.3698047553
 21
55.2591816386
  0
LINE
  5
6C6
100
AcDbEntity
  8
0
100
AcDbLine
 62
253
  6
CONTINUOUS
 10
92.2433755696
 20
60.2126499086
 11
92.2445176231
 21
60.0211981921
  0
LINE
  5
6C7
100
AcDbEntity
  8
0
100
AcDbLine
 62
253
  6
CONTINUOUS
 10
92.2357701627
 20
55.9721421075
 11
92.2371999522
 21
55.785470654
  0
LINE
  5
6C8
100
AcDbEntity
  8
0
100
AcDbLine
 62
253
  6
CONTINUOUS
 10
92.2445176231
 20
60.0211981921
 11
92.2455062746
 21
59.8455790646
  0
LINE
  5
6C9
100
AcDbEntity
  8
0
100
AcDbLine
 62
253
  6
CONTINUOUS
 10
92.2455062746
 20
59.8455790646
 11
92.2463758252
 21
59.6807291515
  0
LINE
  5
6CA
100
AcDbEntity
  8
0
100
AcDbLine
 62
253
  6
CONTINUOUS
 10
91.3924131449
 20
58.8641224224
 11
91.3966245503
 21
58.2173149969
  0
LINE
  5
6CB
100
AcDbEntity
  8
0
100
AcDbLine
 62
253
  6
CONTINUOUS
 10
92.2463758252
 20
59.6807291515
 11
92.2482706509
 21
59.2569498458
  0
LWPOLYLINE
  5
6CC
100
AcDbEntity
  8
0
100
AcDbPolyline
 62
253
  6
CONTINUOUS
 90
4
 70
0
 10
92.2482706509
 20
59.2569498458
 10
92.2488089358
 20
59.0974796101
 10
92.2489762445
 20
59.0444630285
 10
92.2524850022
 20
58.3299567985
  0
LINE
  5
6CD
100
AcDbEntity
  8
0
100
AcDbLine
 62
253
  6
CONTINUOUS
 10
91.3966245503
 20
58.2173149969
 11
91.3968737688
 21
58.0940461529
  0
LINE
  5
6CE
100
AcDbEntity
  8
0
100
AcDbLine
 62
253
  6
CONTINUOUS
 10
91.3678606121
 20
55.6632545776
 11
91.3684453652
 21
55.440857614
  0
LINE
  5
6CF
100
AcDbEntity
  8
0
100
AcDbLine
 62
253
  6
CONTINUOUS
 10
92.2524850022
 20
58.3299567985
 11
92.2529489413
 21
58.1314649289
  0
LINE
  5
6D0
100
AcDbEntity
  8
0
100
AcDbLine
 62
253
  6
CONTINUOUS
 10
92.2351686478
 20
56.2144872485
 11
92.2357701627
 21
55.9721421075
  0
LINE
  5
6D1
100
AcDbEntity
  8
0
100
AcDbLine
 62
7
  6
CONTINUOUS
 10
90.1433845735
 20
51.8527423469
 11
90.1433845735
 21
52.4027423469
  0
LINE
  5
6D2
100
AcDbEntity
  8
0
100
AcDbLine
 62
7
  6
CONTINUOUS
 10
91.0433845735
 20
53.351425645
 11
91.0433845735
 21
54.1459355463
  0
LINE
  5
6D3
100
AcDbEntity
  8
0
100
AcDbLine
 62
253
  6
CONTINUOUS
 10
91.132367489
 20
103.8463201735
 11
91.1325371159
 21
73.9647015327
  0
LINE
  5
6D4
100
AcDbEntity
  8
0
100
AcDbLine
 62
7
  6
CONTINUOUS
 10
92.0433845735
 20
103.8027423469
 11
92.0433845735
 21
74.0527909372
  0
LINE
  5
6D5
100
AcDbEntity
  8
0
100
AcDbLine
 62
7
  6
CONTINUOUS
 10
92.0733845735
 20
77.1764449708
 11
92.0733845735
 21
72.9602553425
  0
LINE
  5
6D6
100
AcDbEntity
  8
0
100
AcDbLine
 62
253
  6
CONTINUOUS
 10
91.3683507267
 20
55.935562629
 11
91.3678606121
 21
55.6632545776
  0
LINE
  5
6D7
100
AcDbEntity
  8
0
100
AcDbLine
 62
253
  6
CONTINUOUS
 10
91.3968737688
 20
58.0940461529
 11
91.3965347661
 21
57.9652895862
  0
LINE
  5
6D8
100
AcDbEntity
  8
0
100
AcDbLine
 62
253
  6
CONTINUOUS
 10
92.2358897816
 20
56.5298116137
 11
92.2351686478
 21
56.2144872485
  0
LINE
  5
6D9
100
AcDbEntity
  8
0
100
AcDbLine
 62
253
  6
CONTINUOUS
 10
92.2529489413
 20
58.1314649289
 11
92.2524332741
 21
57.9933562849
  0
LINE
  5
6DA
100
AcDbEntity
  8
0
100
AcDbLine
 62
253
  6
CONTINUOUS
 10
91.3703479352
 20
56.2694677723
 11
91.3683507267
 21
55.935562629
  0
LINE
  5
6DB
100
AcDbEntity
  8
0
100
AcDbLine
 62
253
  6
CONTINUOUS
 10
92.2376937443
 20
56.8272773618
 11
92.2358897816
 21
56.5298116137
  0
LINE
  5
6DC
100
AcDbEntity
  8
RACCORDO
100
AcDbLine
 62
253
  6
CONTINUOUS
 10
92.0933788994
 20
97.3027420361
 11
92.0663255716
 21
94.0527423469
  0
LINE
  5
6DD
100
AcDbEntity
  8
RACCORDO
100
AcDbLine
 62
7
  6
CONTINUOUS
 10
92.2433845735
 20
97.3027423469
 11
92.2163198601
 21
94.2014333666
  0
LINE
  5
6DE
100
AcDbEntity
  8
0
100
AcDbLine
 62
253
  6
CONTINUOUS
 10
91.3728514987
 20
56.5319048907
 11
91.3703479352
 21
56.2694677723
  0
LINE
  5
6DF
100
AcDbEntity
  8
0
100
AcDbLine
 62
253
  6
CONTINUOUS
 10
91.3965347661
 20
57.9652895862
 11
91.3953968541
 21
57.8321552994
  0
LINE
  5
6E0
100
AcDbEntity
  8
0
100
AcDbLine
 62
253
  6
CONTINUOUS
 10
92.2410981196
 20
57.1819844459
 11
92.2376937443
 21
56.8272773618
  0
LINE
  5
6E1
100
AcDbEntity
  8
0
100
AcDbLine
 62
253
  6
CONTINUOUS
 10
92.2524332741
 20
57.9933562849
 11
92.251007518
 21
57.851837378
  0
LINE
  5
6E2
100
AcDbEntity
  8
0
100
AcDbLine
 62
253
  6
CONTINUOUS
 10
91.3764332234
 20
56.8223966486
 11
91.3728514987
 21
56.5319048907
  0
LINE
  5
6E3
100
AcDbEntity
  8
0
100
AcDbLine
 62
253
  6
CONTINUOUS
 10
92.2462852135
 20
57.5499747743
 11
92.2410981196
 21
57.1819844459
  0
LINE
  5
6E4
100
AcDbEntity
  8
0
100
AcDbLine
 62
253
  6
CONTINUOUS
 10
92.251007518
 20
57.851837378
 11
92.2462852135
 21
57.5499747743
  0
LINE
  5
6E5
100
AcDbEntity
  8
0
100
AcDbLine
 62
253
  6
CONTINUOUS
 10
91.3813149814
 20
57.1229673891
 11
91.3764332234
 21
56.8223966486
  0
LINE
  5
6E6
100
AcDbEntity
  8
0
100
AcDbLine
 62
253
  6
CONTINUOUS
 10
91.3863970802
 20
57.396499237
 11
91.3813149814
 21
57.1229673891
  0
LWPOLYLINE
  5
6E7
100
AcDbEntity
  8
0
100
AcDbPolyline
 62
253
  6
CONTINUOUS
 90
3
 70
0
 10
91.3953968541
 20
57.8321552994
 10
91.3930259572
 20
57.6968981815
 10
91.3863970802
 20
57.396499237
  0
LINE
  5
6E8
100
AcDbEntity
  8
0
100
AcDbLine
 62
253
  6
CONTINUOUS
 10
78.675234046
 20
54.5451070178
 11
78.670098547
 21
54.5234754147
  0
LINE
  5
6E9
100
AcDbEntity
  8
0
100
AcDbLine
 62
253
  6
CONTINUOUS
 10
78.6763976151
 20
54.549898118
 11
78.675234046
 21
54.5451070178
  0
LINE
  5
6EA
100
AcDbEntity
  8
0
100
AcDbLine
 62
253
  6
CONTINUOUS
 10
78.670098547
 20
54.5234754147
 11
78.6688392419
 21
54.5182990176
  0
LINE
  5
6EB
100
AcDbEntity
  8
0
100
AcDbLine
 62
253
  6
CONTINUOUS
 10
78.6775942963
 20
54.5547295101
 11
78.6763976151
 21
54.549898118
  0
LINE
  5
6EC
100
AcDbEntity
  8
0
100
AcDbLine
 62
253
  6
CONTINUOUS
 10
78.6688392419
 20
54.5182990176
 11
78.6667723907
 21
54.509983191
  0
LINE
  5
6ED
100
AcDbEntity
  8
0
100
AcDbLine
 62
253
  6
CONTINUOUS
 10
78.6667723907
 20
54.509983191
 11
78.6636628432
 21
54.4977568543
  0
LINE
  5
6EE
100
AcDbEntity
  8
0
100
AcDbLine
 62
7
  6
CONTINUOUS
 10
77.338698306
 20
68.5761812206
 11
77.253940245
 21
68.2502647457
  0
LINE
  5
6EF
100
AcDbEntity
  8
0
100
AcDbLine
 62
253
  6
CONTINUOUS
 10
78.6636628432
 20
54.4977568543
 11
78.6575863987
 21
54.4743209214
  0
LWPOLYLINE
  5
6F0
100
AcDbEntity
  8
0
100
AcDbPolyline
 62
253
  6
CONTINUOUS
 90
3
 70
0
 10
78.6575863987
 20
54.4743209214
 10
78.6529464898
 20
54.4567948785
 10
78.6519867654
 20
54.4532172684
  0
LINE
  5
6F1
100
AcDbEntity
  8
0
100
AcDbLine
 62
7
  6
CONTINUOUS
 10
77.2552163912
 20
68.2550064747
 11
77.1658801882
 21
67.9307227859
  0
LWPOLYLINE
  5
6F2
100
AcDbEntity
  8
0
100
AcDbPolyline
 62
7
  6
CONTINUOUS
 90
3
 70
0
 10
77.0800382953
 20
67.4709019001
 10
77.0392782832
 20
67.3260429606
 10
76.9975003242
 20
67.1806521237
  0
LINE
  5
6F3
100
AcDbEntity
  8
0
100
AcDbLine
 62
7
  6
CONTINUOUS
 10
77.1672803571
 20
67.9356440501
 11
77.0733110158
 21
67.6127118641
  0
LINE
  5
6F4
100
AcDbEntity
  8
0
100
AcDbLine
 62
253
  6
CONTINUOUS
 10
76.9975003242
 20
67.1806521237
 11
76.8954714286
 21
66.8355089518
  0
LINE
  5
6F5
100
AcDbEntity
  8
0
100
AcDbLine
 62
253
  6
CONTINUOUS
 10
76.8954714286
 20
66.8355089518
 11
76.8276782219
 21
66.6081176846
  0
LINE
  5
6F6
100
AcDbEntity
  8
0
100
AcDbLine
 62
253
  6
CONTINUOUS
 10
76.8276782219
 20
66.6081176846
 11
76.7606613354
 21
66.3849062516
  0
LINE
  5
6F7
100
AcDbEntity
  8
0
100
AcDbLine
 62
253
  6
CONTINUOUS
 10
76.7606613354
 20
66.3849062516
 11
76.6946602598
 21
66.1668142463
  0
LINE
  5
6F8
100
AcDbEntity
  8
0
100
AcDbLine
 62
7
  6
CONTINUOUS
 10
77.0748316991
 20
67.6177899772
 11
76.9961505328
 21
67.3593882381
  0
LINE
  5
6F9
100
AcDbEntity
  8
0
100
AcDbLine
 62
7
  6
CONTINUOUS
 10
77.0733110158
 20
67.6127118641
 11
76.9961435527
 21
67.3593690025
  0
LINE
  5
6FA
100
AcDbEntity
  8
0
100
AcDbLine
 62
253
  6
CONTINUOUS
 10
76.6946602598
 20
66.1668142463
 11
76.630026829
 21
65.9551271078
  0
LINE
  5
6FB
100
AcDbEntity
  8
0
100
AcDbLine
 62
253
  6
CONTINUOUS
 10
76.630026829
 20
65.9551271078
 11
76.5661399789
 21
65.7478237553
  0
LWPOLYLINE
  5
6FC
100
AcDbEntity
  8
0
100
AcDbPolyline
 62
7
  6
CONTINUOUS
 90
8
 70
0
 10
75.4933734107
 20
62.7279033142
 10
75.4713589337
 20
62.6570258989
 10
75.4546622788
 20
62.584711926
 10
75.4433751472
 20
62.5113595647
 10
75.4375594164
 20
62.4373716058
 10
75.4372472118
 20
62.3631551624
 10
75.4424404301
 20
62.2891194723
 10
75.453110569
 20
62.2156723667
  0
LINE
  5
6FD
100
AcDbEntity
  8
0
100
AcDbLine
 62
253
  6
CONTINUOUS
 10
76.0104846629
 20
63.9883991752
 11
75.6107238483
 21
62.6841926201
  0
LINE
  5
6FE
100
AcDbEntity
  8
0
100
AcDbLine
 62
253
  6
CONTINUOUS
 10
76.5661399789
 20
65.7478237553
 11
76.5031258006
 21
65.5453505752
  0
LINE
  5
6FF
100
AcDbEntity
  8
0
100
AcDbLine
 62
7
  6
CONTINUOUS
 10
76.9961723503
 20
67.3594585876
 11
76.8985668825
 21
67.0463594752
  0
LINE
  5
700
100
AcDbEntity
  8
0
100
AcDbLine
 62
7
  6
CONTINUOUS
 10
76.913966862
 20
67.0955989599
 11
76.7952023261
 21
66.7169552945
  0
LINE
  5
701
100
AcDbEntity
  8
0
100
AcDbLine
 62
253
  6
CONTINUOUS
 10
76.5031258006
 20
65.5453505752
 11
76.4421168288
 21
65.3512108124
  0
LINE
  5
702
100
AcDbEntity
  8
0
100
AcDbLine
 62
253
  6
CONTINUOUS
 10
75.6107238483
 20
62.6841926201
 11
75.5620653682
 21
62.5285389993
  0
LINE
  5
703
100
AcDbEntity
  8
0
100
AcDbLine
 62
253
  6
CONTINUOUS
 10
76.171503612
 20
64.501156397
 11
76.0104846629
 21
63.9883991752
  0
LINE
  5
704
100
AcDbEntity
  8
0
100
AcDbLine
 62
7
  6
CONTINUOUS
 10
76.8093584029
 20
66.7619489778
 11
76.7055449353
 21
66.433098835
  0
LWPOLYLINE
  5
705
100
AcDbEntity
  8
0
100
AcDbPolyline
 62
253
  6
CONTINUOUS
 90
3
 70
0
 10
76.4421168288
 20
65.3512108124
 10
76.3816275725
 20
65.1605741013
 10
76.171503612
 20
64.501156397
  0
LINE
  5
706
100
AcDbEntity
  8
0
100
AcDbLine
 62
7
  6
CONTINUOUS
 10
76.7243629379
 20
66.4924979599
 11
76.6433531388
 21
66.2374384783
  0
LINE
  5
707
100
AcDbEntity
  8
0
100
AcDbLine
 62
7
  6
CONTINUOUS
 10
76.6624113186
 20
66.297294361
 11
76.5793752002
 21
66.0374118351
  0
LINE
  5
708
100
AcDbEntity
  8
0
100
AcDbLine
 62
253
  6
CONTINUOUS
 10
75.5620653682
 20
62.5285389993
 11
75.5312225694
 21
62.4318091478
  0
LINE
  5
709
100
AcDbEntity
  8
0
100
AcDbLine
 62
7
  6
CONTINUOUS
 10
76.5850919473
 20
66.0551975837
 11
76.5005062958
 21
65.7925829218
  0
LINE
  5
70A
100
AcDbEntity
  8
0
100
AcDbLine
 62
7
  6
CONTINUOUS
 10
75.8346362306
 20
63.7501538338
 11
75.8020823802
 21
63.6495461868
  0
LWPOLYLINE
  5
70B
100
AcDbEntity
  8
0
100
AcDbPolyline
 62
7
  6
CONTINUOUS
 90
3
 70
0
 10
75.8200741058
 20
63.7052808871
 10
75.8114690448
 20
63.6786938666
 10
75.8030309573
 20
63.6526275172
  0
LINE
  5
70C
100
AcDbEntity
  8
0
100
AcDbLine
 62
7
  6
CONTINUOUS
 10
75.9073090441
 20
63.9741798651
 11
75.8288526059
 21
63.7324050061
  0
LWPOLYLINE
  5
70D
100
AcDbEntity
  8
0
100
AcDbPolyline
 62
7
  6
CONTINUOUS
 90
3
 70
0
 10
75.9370858686
 20
64.0657535098
 10
75.9270013066
 20
64.0347475187
 10
75.9055218234
 20
63.9688373305
  0
LWPOLYLINE
  5
70E
100
AcDbEntity
  8
0
100
AcDbPolyline
 62
7
  6
CONTINUOUS
 90
3
 70
0
 10
75.9371580027
 20
64.0661232096
 10
75.9264378909
 20
64.0331667243
 10
75.915893223
 20
64.0007412009
  0
LINE
  5
70F
100
AcDbEntity
  8
0
100
AcDbLine
 62
7
  6
CONTINUOUS
 10
75.9591501819
 20
64.1337112489
 11
75.9480612421
 21
64.0996354125
  0
LWPOLYLINE
  5
710
100
AcDbEntity
  8
0
100
AcDbPolyline
 62
7
  6
CONTINUOUS
 90
3
 70
0
 10
75.9683136281
 20
64.1617232275
 10
75.9577390315
 20
64.1292322396
 10
75.9370858686
 20
64.0657535098
  0
LINE
  5
711
100
AcDbEntity
  8
0
100
AcDbLine
 62
7
  6
CONTINUOUS
 10
75.9818905071
 20
64.2035696623
 11
75.9591501819
 21
64.1337112489
  0
LINE
  5
712
100
AcDbEntity
  8
0
100
AcDbLine
 62
7
  6
CONTINUOUS
 10
75.9935485599
 20
64.2393721382
 11
75.9790548575
 21
64.1947190701
  0
LINE
  5
713
100
AcDbEntity
  8
0
100
AcDbLine
 62
7
  6
CONTINUOUS
 10
76.5106209867
 20
65.8238108261
 11
76.4224705914
 21
65.5522182528
  0
LWPOLYLINE
  5
714
100
AcDbEntity
  8
0
100
AcDbPolyline
 62
7
  6
CONTINUOUS
 90
3
 70
0
 10
76.0296959432
 20
64.3503342243
 10
76.0174488403
 20
64.3127472487
 10
75.9899655367
 20
64.2282282281
  0
LWPOLYLINE
  5
715
100
AcDbEntity
  8
0
100
AcDbPolyline
 62
7
  6
CONTINUOUS
 90
3
 70
0
 10
76.035331098
 20
64.3674832948
 10
76.0237280639
 20
64.3318768132
 10
76.0123003695
 20
64.2968016599
  0
LINE
  5
716
100
AcDbEntity
  8
0
100
AcDbLine
 62
7
  6
CONTINUOUS
 10
76.0590698794
 20
64.4403115054
 11
76.0296959432
 21
64.3503342243
  0
LINE
  5
717
100
AcDbEntity
  8
0
100
AcDbLine
 62
7
  6
CONTINUOUS
 10
76.071209393
 20
64.477545304
 11
76.054792825
 21
64.4273333697
  0
LINE
  5
718
100
AcDbEntity
  8
0
100
AcDbLine
 62
7
  6
CONTINUOUS
 10
76.096037171
 20
64.5536789252
 11
76.0676467617
 21
64.4667584571
  0
LINE
  5
719
100
AcDbEntity
  8
0
100
AcDbLine
 62
7
  6
CONTINUOUS
 10
76.1087301083
 20
64.5925928014
 11
76.0939752081
 21
64.547490408
  0
LINE
  5
71A
100
AcDbEntity
  8
0
100
AcDbLine
 62
7
  6
CONTINUOUS
 10
76.121610785
 20
64.632076274
 11
76.1074540155
 21
64.5888111209
  0
LINE
  5
71B
100
AcDbEntity
  8
0
100
AcDbLine
 62
7
  6
CONTINUOUS
 10
76.1491779058
 20
64.7166820882
 11
76.1211446218
 21
64.6307748881
  0
LINE
  5
71C
100
AcDbEntity
  8
0
100
AcDbLine
 62
7
  6
CONTINUOUS
 10
76.1635235285
 20
64.7606335239
 11
76.1479492008
 21
64.7127927661
  0
LINE
  5
71D
100
AcDbEntity
  8
0
100
AcDbLine
 62
7
  6
CONTINUOUS
 10
76.1929034553
 20
64.8506138619
 11
76.1614098377
 21
64.7540330247
  0
LINE
  5
71E
100
AcDbEntity
  8
0
100
AcDbLine
 62
7
  6
CONTINUOUS
 10
76.2172763811
 20
64.9250853283
 11
76.1889330232
 21
64.8383276279
  0
LINE
  5
71F
100
AcDbEntity
  8
0
100
AcDbLine
 62
7
  6
CONTINUOUS
 10
75.8030309573
 20
63.6526275172
 11
75.7115084717
 21
63.3709086949
  0
LINE
  5
720
100
AcDbEntity
  8
0
100
AcDbLine
 62
7
  6
CONTINUOUS
 10
76.2464646651
 20
65.0143746017
 11
76.2079439582
 21
64.8966552021
  0
LINE
  5
721
100
AcDbEntity
  8
0
100
AcDbLine
 62
253
  6
CONTINUOUS
 10
75.5312225694
 20
62.4318091478
 11
75.5133989865
 21
62.3770237962
  0
LINE
  5
722
100
AcDbEntity
  8
0
100
AcDbLine
 62
7
  6
CONTINUOUS
 10
76.2918939389
 20
65.1532369625
 11
76.2387488339
 21
64.9908972131
  0
LINE
  5
723
100
AcDbEntity
  8
0
100
AcDbLine
 62
7
  6
CONTINUOUS
 10
76.3200855077
 20
65.2394114727
 11
76.286804924
 21
65.1377729403
  0
LINE
  5
724
100
AcDbEntity
  8
0
100
AcDbLine
 62
7
  6
CONTINUOUS
 10
76.4256191253
 20
65.5619452198
 11
76.3074814839
 21
65.2008478729
  0
LINE
  5
725
100
AcDbEntity
  8
0
100
AcDbLine
 62
7
  6
CONTINUOUS
 10
75.7137659139
 20
63.3779340599
 11
75.6408069492
 21
63.1557649368
  0
LINE
  5
726
100
AcDbEntity
  8
0
100
AcDbLine
 62
7
  6
CONTINUOUS
 10
75.6437181273
 20
63.1646577338
 11
75.5869529928
 21
62.9938751403
  0
LWPOLYLINE
  5
727
100
AcDbEntity
  8
0
100
AcDbPolyline
 62
253
  6
CONTINUOUS
 90
13
 70
0
 10
75.5133989865
 20
62.3770237962
 10
75.4977941937
 20
62.3300918614
 10
75.4908324376
 20
62.3095959182
 10
75.484437636
 20
62.2910951835
 10
75.4786106953
 20
62.2745930854
 10
75.4733582991
 20
62.2601064794
 10
75.4686912405
 20
62.2476585037
 10
75.4646026271
 20
62.2372416149
 10
75.4611036566
 20
62.2288734142
 10
75.4582170608
 20
62.2225696804
 10
75.4559373669
 20
62.2182960739
 10
75.4542448733
 20
62.2160094551
 10
75.4531285656
 20
62.2156756669
  0
LINE
  5
728
100
AcDbEntity
  8
0
100
AcDbLine
 62
7
  6
CONTINUOUS
 10
75.5876614945
 20
62.9959423954
 11
75.5522566473
 21
62.8908797109
  0
LINE
  5
729
100
AcDbEntity
  8
0
100
AcDbLine
 62
7
  6
CONTINUOUS
 10
75.5525078128
 20
62.8916400607
 11
75.5348722315
 21
62.8400391118
  0
LINE
  5
72A
100
AcDbEntity
  8
0
100
AcDbLine
 62
7
  6
CONTINUOUS
 10
75.5360902092
 20
62.8435876758
 11
75.5247828967
 21
62.810946505
  0
LINE
  5
72B
100
AcDbEntity
  8
0
100
AcDbLine
 62
7
  6
CONTINUOUS
 10
75.5251354123
 20
62.8119488815
 11
75.5182440489
 21
62.7923563635
  0
LINE
  5
72C
100
AcDbEntity
  8
0
100
AcDbLine
 62
7
  6
CONTINUOUS
 10
75.5182440489
 20
62.7923563635
 11
75.5143395069
 21
62.7814153122
  0
LINE
  5
72D
100
AcDbEntity
  8
0
100
AcDbLine
 62
7
  6
CONTINUOUS
 10
75.5143395069
 20
62.7814153122
 11
75.5123018119
 21
62.7757870167
  0
LINE
  5
72E
100
AcDbEntity
  8
0
100
AcDbLine
 62
7
  6
CONTINUOUS
 10
75.5123018119
 20
62.7757870167
 11
75.511260238
 21
62.7729507116
  0
LWPOLYLINE
  5
72F
100
AcDbEntity
  8
0
100
AcDbPolyline
 62
7
  6
CONTINUOUS
 90
4
 70
0
 10
92.1719812315
 20
71.7633147627
 10
92.1807524067
 20
71.6843801951
 10
92.1901216244
 20
71.6026152573
 10
92.2109107513
 20
71.4293987843
  0
LINE
  5
730
100
AcDbEntity
  8
0
100
AcDbLine
 62
7
  6
CONTINUOUS
 10
92.1900282617
 20
71.6069458918
 11
92.1581405966
 21
71.89490189
  0
LINE
  5
731
100
AcDbEntity
  8
0
100
AcDbLine
 62
253
  6
CONTINUOUS
 10
78.6519867654
 20
54.4532172684
 11
78.6490266141
 21
54.4423062729
  0
LINE
  5
732
100
AcDbEntity
  8
0
100
AcDbLine
 62
253
  6
CONTINUOUS
 10
78.6490266141
 20
54.4423062729
 11
78.6459093016
 21
54.4310342215
  0
LINE
  5
733
100
AcDbEntity
  8
0
100
AcDbLine
 62
253
  6
CONTINUOUS
 10
78.6459093016
 20
54.4310342215
 11
78.6426049727
 21
54.4193416052
  0
LINE
  5
734
100
AcDbEntity
  8
0
100
AcDbLine
 62
253
  6
CONTINUOUS
 10
78.6426049727
 20
54.4193416052
 11
78.6402909476
 21
54.4113178785
  0
LINE
  5
735
100
AcDbEntity
  8
0
100
AcDbLine
 62
253
  6
CONTINUOUS
 10
78.6402909476
 20
54.4113178785
 11
78.6378907081
 21
54.4031312669
  0
LINE
  5
736
100
AcDbEntity
  8
0
100
AcDbLine
 62
253
  6
CONTINUOUS
 10
78.6378907081
 20
54.4031312669
 11
78.6354085505
 21
54.3948335137
  0
LINE
  5
737
100
AcDbEntity
  8
0
100
AcDbLine
 62
253
  6
CONTINUOUS
 10
78.6354085505
 20
54.3948335137
 11
78.632853369
 21
54.3864764157
  0
LINE
  5
738
100
AcDbEntity
  8
0
100
AcDbLine
 62
253
  6
CONTINUOUS
 10
78.632853369
 20
54.3864764157
 11
78.6302441854
 21
54.3781423032
  0
LWPOLYLINE
  5
739
100
AcDbEntity
  8
0
100
AcDbPolyline
 62
253
  6
CONTINUOUS
 90
20
 70
0
 10
78.6302441854
 20
54.3781423032
 10
78.6275959068
 20
54.3699351972
 10
78.626266874
 20
54.3659145719
 10
78.6249349476
 20
54.3619707555
 10
78.6236106478
 20
54.3581193725
 10
78.6222938337
 20
54.35437803
 10
78.6209846461
 20
54.35076323
 10
78.6196940271
 20
54.3472899522
 10
78.6184219947
 20
54.3439786301
 10
78.6171685306
 20
54.340846235
 10
78.6159445226
 20
54.3379053166
 10
78.6147495622
 20
54.3351795317
 10
78.6135840575
 20
54.3326889677
 10
78.6124601204
 20
54.3304470366
 10
78.6113756343
 20
54.3284799173
 10
78.6103327154
 20
54.3268173738
 10
78.6093498245
 20
54.3254846886
 10
78.6084331149
 20
54.3245122506
 10
78.6075764328
 20
54.323933688
 10
78.6067797779
 20
54.3237820864
  0
LINE
  5
73A
100
AcDbEntity
  8
0
100
AcDbLine
 62
7
  6
CONTINUOUS
 10
75.5130009959
 20
62.7777097277
 11
75.4933734107
 21
62.7279033142
  0
LINE
  5
73B
100
AcDbEntity
  8
0
100
AcDbLine
 62
7
  6
CONTINUOUS
 10
102.0433845735
 20
99.2527423469
 11
102.0433845735
 21
95.3527423469
  0
LINE
  5
73C
100
AcDbEntity
  8
0
100
AcDbLine
 62
7
  6
CONTINUOUS
 10
102.0866858437
 20
95.3277423469
 11
102.0866858437
 21
99.2777423469
  0
LINE
  5
73D
100
AcDbEntity
  8
0
100
AcDbLine
 62
7
  6
CONTINUOUS
 10
102.5433845735
 20
99.3027423469
 11
102.5433845735
 21
95.3027423469
  0
LWPOLYLINE
  5
73E
100
AcDbEntity
  8
0
100
AcDbPolyline
 62
253
  6
CONTINUOUS
 90
6
 70
0
 10
93.0892688228
 20
67.1806521237
 10
93.0984959078
 20
67.2192975145
 10
93.102978718
 20
67.2575351098
 10
93.1026941211
 20
67.2951675955
 10
93.0976435858
 20
67.33200078
 10
93.090616353
 20
67.3593955322
  0
LWPOLYLINE
  5
73F
100
AcDbEntity
  8
0
100
AcDbPolyline
 62
253
  6
CONTINUOUS
 90
10
 70
0
 10
92.2231405193
 20
62.563541875
 10
92.3535530344
 20
63.0660598471
 10
92.4755668661
 20
63.5717901014
 10
92.58912112
 20
64.0804950223
 10
92.6941645772
 20
64.5919858154
 10
92.7906257386
 20
65.1059787381
 10
92.8784208559
 20
65.6220926093
 10
92.9574902379
 20
66.1400420544
 10
93.0277902184
 20
66.6596399927
 10
93.0892688228
 20
67.1806521237
  0
LWPOLYLINE
  5
740
100
AcDbEntity
  8
0
100
AcDbPolyline
 62
253
  6
CONTINUOUS
 90
10
 70
0
 10
78.6855828392
 20
54.5799517184
 10
78.68448417
 20
54.5772895932
 10
78.6834652299
 20
54.5746654189
 10
78.6825260185
 20
54.5720787054
 10
78.6816795205
 20
54.5695349239
 10
78.6809127506
 20
54.5670275668
 10
78.6801867538
 20
54.5645385163
 10
78.6794963779
 20
54.5620636627
 10
78.6788467749
 20
54.5596068842
 10
78.6775942963
 20
54.5547295101
  0
LINE
  5
741
100
AcDbEntity
  8
0
100
AcDbLine
 62
7
  6
CONTINUOUS
 10
102.0433845735
 20
99.2527423469
 11
102.0866858437
 21
99.2777423469
  0
LWPOLYLINE
  5
742
100
AcDbEntity
  8
0
100
AcDbPolyline
 62
253
  6
CONTINUOUS
 90
19
 70
0
 10
92.0433845735
 20
74.0527423469
 10
92.0400140343
 20
74.0456447176
 10
92.0299176294
 20
74.0385695545
 10
92.0131522918
 20
74.0315634704
 10
91.9898160872
 20
74.0246613758
 10
91.9600581644
 20
74.0179199088
 10
91.9240877827
 20
74.0114169334
 10
91.8821533322
 20
74.0052099576
 10
91.8345326457
 20
73.9993247958
 10
91.7815492659
 20
73.9937888091
 10
91.7235614545
 20
73.9886340929
 10
91.6609614956
 20
73.9838984025
 10
91.5941760224
 20
73.9796135596
 10
91.5236576017
 20
73.9758070712
 10
91.4498841157
 20
73.9725035536
 10
91.3733589301
 20
73.9697255321
 10
91.2946020983
 20
73.9674909088
 10
91.2141463993
 20
73.9658129177
 10
91.1325371159
 20
73.9647015328
  0
LINE
  5
743
100
AcDbEntity
  8
0
100
AcDbLine
 62
7
  6
CONTINUOUS
 10
109.7598997125
 20
95.3027423469
 11
109.7598997125
 21
99.3027423469
  0
LINE
  5
744
100
AcDbEntity
  8
0
100
AcDbLine
 62
7
  6
CONTINUOUS
 10
110.1598997125
 20
95.5413839838
 11
110.1598997125
 21
95.3027423469
  0
LINE
  5
745
100
AcDbEntity
  8
0
100
AcDbLine
 62
7
  6
CONTINUOUS
 10
110.1598997125
 20
99.0641007101
 11
110.1598997125
 21
99.3027423469
  0
LWPOLYLINE
  5
746
100
AcDbEntity
  8
0
100
AcDbPolyline
 62
7
  6
CONTINUOUS
 90
10
 70
0
 10
92.2906086674
 20
54.8950437717
 10
92.6415407545
 20
55.6728613196
 10
92.9707357005
 20
56.4617594913
 10
93.2778641788
 20
57.2611280432
 10
93.5629120489
 20
58.0712954104
 10
93.8251732022
 20
58.8907092635
 10
94.0635208597
 20
59.7158496332
 10
94.27762819
 20
60.5450426698
 10
94.4676969883
 20
61.3785474426
 10
94.6336405814
 20
62.2156756669
  0
LWPOLYLINE
  5
747
100
AcDbEntity
  8
0
100
AcDbPolyline
 62
7
  6
CONTINUOUS
 90
13
 70
0
 10
92.2906086566
 20
54.8950437768
 10
92.2505897149
 20
54.8184249985
 10
92.2041034964
 20
54.745548458
 10
92.1514973382
 20
54.6769586839
 10
92.093164302
 20
54.6131681761
 10
92.0295402463
 20
54.5546535712
 10
91.9611005685
 20
54.5018520827
 10
91.8883566405
 20
54.4551582433
 10
91.811851991
 20
54.414920947
 10
91.7321582501
 20
54.3814408422
 10
91.649870876
 20
54.3549680959
 10
91.5656047073
 20
54.3357005196
 10
91.4799893691
 20
54.3237820866
  0
LWPOLYLINE
  5
748
100
AcDbEntity
  8
0
100
AcDbPolyline
 62
253
  6
CONTINUOUS
 90
13
 70
0
 10
85.7833845735
 20
54.2077670743
 10
85.7811010975
 20
54.2056103584
 10
85.7788542247
 20
54.2010868158
 10
85.7766799724
 20
54.194268959
 10
85.7746131941
 20
54.1852660784
 10
85.7726870203
 20
54.1742224906
 10
85.7709323276
 20
54.1613152246
 10
85.7693772438
 20
54.1467511844
 10
85.7680466969
 20
54.130763832
 10
85.7669620157
 20
54.1136094453
 10
85.7661405877
 20
54.0955630096
 10
85.7655955803
 20
54.07691381
 10
85.76533573
 20
54.0579607937
  0
ARC
  5
749
100
AcDbEntity
  8
0
100
AcDbCircle
 62
7
  6
CONTINUOUS
 10
99.7586734694
 20
79.1027423469
 40
60.9
100
AcDbArc
 50
339.2588487548
 51
360.0
  0
ARC
  5
74A
100
AcDbEntity
  8
0
100
AcDbCircle
 62
253
  6
CONTINUOUS
 10
99.7586734694
 20
79.1027423469
 40
60.6610790321
100
AcDbArc
 50
355.1411811248
 51
360.0
  0
ARC
  5
74B
100
AcDbEntity
  8
0
100
AcDbCircle
 62
253
  6
CONTINUOUS
 10
99.7586734694
 20
79.1027423469
 40
59.6650610482
100
AcDbArc
 50
355.1447718864
 51
360.0
  0
ARC
  5
74C
100
AcDbEntity
  8
0
100
AcDbCircle
 62
7
  6
CONTINUOUS
 10
136.7815572093
 20
59.3059467596
 40
5.0
100
AcDbArc
 50
200.7411512452
 51
266.1971949475
  0
ARC
  5
74D
100
AcDbEntity
  8
0
100
AcDbCircle
 62
7
  6
CONTINUOUS
 10
139.2086734694
 20
53.351425645
 40
0.8
100
AcDbArc
 50
180.0
 51
266.9830386902
  0
ARC
  5
74E
100
AcDbEntity
  8
0
100
AcDbCircle
 62
7
  6
CONTINUOUS
 10
140.1086734694
 20
51.8527423469
 40
0.8
100
AcDbArc
 50
180.0
 51
270.0
  0
ARC
  5
74F
100
AcDbEntity
  8
0
100
AcDbCircle
 62
7
  6
CONTINUOUS
 10
132.4394553202
 20
103.9027423469
 40
0.5
100
AcDbArc
 50
90.0
 51
126.791529994
  0
ARC
  5
750
100
AcDbEntity
  8
0
100
AcDbCircle
 62
7
  6
CONTINUOUS
 10
128.6586734694
 20
103.8027423469
 40
0.5
100
AcDbArc
 50
90.0
 51
180.0
  0
ARC
  5
751
100
AcDbEntity
  8
0
100
AcDbCircle
 62
7
  6
CONTINUOUS
 10
139.1586734694
 20
52.4027423469
 40
0.15
100
AcDbArc
 50
0.0
 51
86.9830386902
  0
ARC
  5
752
100
AcDbEntity
  8
0
100
AcDbCircle
 62
7
  6
CONTINUOUS
 10
138.2586734862
 20
54.0602425773
 40
0.1499999996
100
AcDbArc
 50
0.0000015311
 51
87.065981746
  0
CIRCLE
  5
753
100
AcDbEntity
  8
0
100
AcDbCircle
 62
253
  6
CONTINUOUS
 10
144.4086734694
 20
74.5527423469
 40
3.5
  0
CIRCLE
  5
754
100
AcDbEntity
  8
0
100
AcDbCircle
 62
7
  6
CONTINUOUS
 10
144.4086734694
 20
74.5527423469
 40
3.0
  0
CIRCLE
  5
755
100
AcDbEntity
  8
0
100
AcDbCircle
 62
7
  6
CONTINUOUS
 10
144.4086734694
 20
74.5527423469
 40
2.75
  0
ARC
  5
756
100
AcDbEntity
  8
0
100
AcDbCircle
 62
7
  6
CONTINUOUS
 10
144.4086734694
 20
74.5527423469
 40
2.6625113365
100
AcDbArc
 50
76.9764719153
 51
103.0235280847
  0
ARC
  5
757
100
AcDbEntity
  8
0
100
AcDbCircle
 62
7
  6
CONTINUOUS
 10
144.4086734694
 20
74.5527423469
 40
2.6625113365
100
AcDbArc
 50
256.9764719153
 51
283.0235280847
  0
ARC
  5
758
100
AcDbEntity
  8
0
100
AcDbCircle
 62
253
  6
CONTINUOUS
 10
144.4086734694
 20
74.5527423469
 40
2.6122131027
100
AcDbArc
 50
283.2788388525
 51
76.7211611475
  0
ARC
  5
759
100
AcDbEntity
  8
0
100
AcDbCircle
 62
253
  6
CONTINUOUS
 10
144.4086734694
 20
74.5527423469
 40
2.6122131027
100
AcDbArc
 50
103.2788388525
 51
256.7211611475
  0
ARC
  5
75A
100
AcDbEntity
  8
0
100
AcDbCircle
 62
253
  6
CONTINUOUS
 10
144.4086734694
 20
74.5527423469
 40
2.4839439914
100
AcDbArc
 50
283.978119812
 51
76.021880188
  0
ARC
  5
75B
100
AcDbEntity
  8
0
100
AcDbCircle
 62
253
  6
CONTINUOUS
 10
144.4086734694
 20
74.5527423469
 40
2.4839439914
100
AcDbArc
 50
103.978119812
 51
256.021880188
  0
ARC
  5
75C
100
AcDbEntity
  8
0
100
AcDbCircle
 62
7
  6
CONTINUOUS
 10
144.4086734694
 20
74.5527423469
 40
1.8638541369
100
AcDbArc
 50
352.968196018
 51
7.0259491591
  0
ARC
  5
75D
100
AcDbEntity
  8
0
100
AcDbCircle
 62
7
  6
CONTINUOUS
 10
144.4086734694
 20
74.5527423469
 40
1.8638541369
100
AcDbArc
 50
172.9681960448
 51
187.0259491591
  0
ARC
  5
75E
100
AcDbEntity
  8
0
100
AcDbCircle
 62
7
  6
CONTINUOUS
 10
144.4086734694
 20
74.5527423469
 40
1.3915481318
100
AcDbArc
 50
80.5652353034
 51
99.4324314084
  0
ARC
  5
75F
100
AcDbEntity
  8
0
100
AcDbCircle
 62
7
  6
CONTINUOUS
 10
144.4086734694
 20
74.5527423469
 40
1.3915481318
100
AcDbArc
 50
260.5652351046
 51
279.4324314084
  0
ARC
  5
760
100
AcDbEntity
  8
TRASH
100
AcDbCircle
 62
7
  6
CONTINUOUS
 10
144.4086734694
 20
74.5527423469
 40
1.1472328625
100
AcDbArc
 50
347.9845776281
 51
12.0153200785
  0
ARC
  5
761
100
AcDbEntity
  8
TRASH
100
AcDbCircle
 62
7
  6
CONTINUOUS
 10
144.4086734694
 20
74.5527423469
 40
1.1472328625
100
AcDbArc
 50
167.9845776281
 51
192.0153200785
  0
ARC
  5
762
100
AcDbEntity
  8
TRASH
100
AcDbCircle
 62
7
  6
CONTINUOUS
 10
144.4086734694
 20
74.5527423469
 40
1.1472328182
100
AcDbArc
 50
77.9846799215
 51
102.0154223719
  0
ARC
  5
763
100
AcDbEntity
  8
TRASH
100
AcDbCircle
 62
7
  6
CONTINUOUS
 10
144.4086734694
 20
74.5527423469
 40
1.1472328182
100
AcDbArc
 50
257.9846799215
 51
282.0154223719
  0
ARC
  5
764
100
AcDbEntity
  8
0
100
AcDbCircle
 62
7
  6
CONTINUOUS
 10
148.7086734694
 20
51.8527423469
 40
0.8
100
AcDbArc
 50
270.0
 51
360.0
  0
ARC
  5
765
100
AcDbEntity
  8
0
100
AcDbCircle
 62
7
  6
CONTINUOUS
 10
149.6586734694
 20
52.4027423469
 40
0.15
100
AcDbArc
 50
93.0169613098
 51
180.0
  0
ARC
  5
766
100
AcDbEntity
  8
0
100
AcDbCircle
 62
7
  6
CONTINUOUS
 10
149.6086734694
 20
53.351425645
 40
0.8
100
AcDbArc
 50
273.0169613098
 51
360.0
  0
ARC
  5
767
100
AcDbEntity
  8
0
100
AcDbCircle
 62
7
  6
CONTINUOUS
 10
150.5586734524
 20
54.0602425771
 40
0.1499999996
100
AcDbArc
 50
92.9340182044
 51
179.9999983803
  0
ARC
  5
768
100
AcDbEntity
  8
0
100
AcDbCircle
 62
7
  6
CONTINUOUS
 10
152.0357897295
 20
59.3059467596
 40
5.0
100
AcDbArc
 50
273.8028050525
 51
339.2588487548
  0
ARC
  5
769
100
AcDbEntity
  8
0
100
AcDbCircle
 62
7
  6
CONTINUOUS
 10
156.3778916186
 20
103.9027423469
 40
0.5
100
AcDbArc
 50
53.208470006
 51
90.0
  0
ARC
  5
76A
100
AcDbEntity
  8
0
100
AcDbCircle
 62
7
  6
CONTINUOUS
 10
160.1586734694
 20
103.8027423469
 40
0.5
100
AcDbArc
 50
0.0
 51
90.0
  0
ARC
  5
76B
100
AcDbEntity
  8
0
100
AcDbCircle
 62
7
  6
CONTINUOUS
 10
189.0586734694
 20
79.1027423469
 40
60.9
100
AcDbArc
 50
180.0
 51
200.7411512452
  0
ARC
  5
76C
100
AcDbEntity
  8
0
100
AcDbCircle
 62
253
  6
CONTINUOUS
 10
189.0586734694
 20
79.1027423469
 40
60.6610790321
100
AcDbArc
 50
180.0
 51
184.8588188753
  0
ARC
  5
76D
100
AcDbEntity
  8
0
100
AcDbCircle
 62
253
  6
CONTINUOUS
 10
189.0586734694
 20
79.1027423469
 40
59.6650610482
100
AcDbArc
 50
180.0
 51
184.8552104464
  0
ARC
  5
76E
100
AcDbEntity
  8
0
100
AcDbCircle
 62
7
  6
CONTINUOUS
 10
144.4086734694
 20
174.0527423469
 40
120.0
100
AcDbArc
 50
266.1971949475
 51
267.0873089162
  0
ARC
  5
76F
100
AcDbEntity
  8
0
100
AcDbCircle
 62
7
  6
CONTINUOUS
 10
144.4086734694
 20
174.0527423469
 40
120.0
100
AcDbArc
 50
272.9126893968
 51
273.8028050525
  0
ARC
  5
770
100
AcDbEntity
  8
0
100
AcDbCircle
 62
7
  6
CONTINUOUS
 10
84.3033845735
 20
114.0527423469
 40
60.0
100
AcDbArc
 50
264.5519370902
 51
264.8397464943
  0
ARC
  5
771
100
AcDbEntity
  8
0
100
AcDbCircle
 62
7
  6
CONTINUOUS
 10
85.7833845735
 20
114.0527423469
 40
60.0
100
AcDbArc
 50
275.1602535057
 51
275.4480629098
  0
ARC
  5
772
100
AcDbEntity
  8
0
100
AcDbCircle
 62
7
  6
CONTINUOUS
 10
109.2433845735
 20
97.3027423469
 40
2.2
100
AcDbArc
 50
294.6199773287
 51
65.3800226713
  0
ARC
  5
773
100
AcDbEntity
  8
0
100
AcDbCircle
 62
7
  6
CONTINUOUS
 10
108.8433845735
 20
97.3027423469
 40
2.2
100
AcDbArc
 50
294.6199773287
 51
65.3800226713
  0
ARC
  5
774
100
AcDbEntity
  8
0
100
AcDbCircle
 62
7
  6
CONTINUOUS
 10
79.8433845735
 20
53.351425645
 40
0.8
100
AcDbArc
 50
180.0
 51
266.9830386902
  0
ARC
  5
775
100
AcDbEntity
  8
0
100
AcDbCircle
 62
7
  6
CONTINUOUS
 10
80.7433845735
 20
51.8527423469
 40
0.8
100
AcDbArc
 50
180.0
 51
270.0
  0
ARC
  5
776
100
AcDbEntity
  8
0
100
AcDbCircle
 62
7
  6
CONTINUOUS
 10
90.2433845735
 20
53.351425645
 40
0.8
100
AcDbArc
 50
273.0169613098
 51
360.0
  0
ARC
  5
777
100
AcDbEntity
  8
0
100
AcDbCircle
 62
7
  6
CONTINUOUS
 10
89.3433845735
 20
51.8527423469
 40
0.8
100
AcDbArc
 50
270.0
 51
360.0
  0
ARC
  5
778
100
AcDbEntity
  8
0
100
AcDbCircle
 62
7
  6
CONTINUOUS
 10
87.5126027227
 20
103.9027423469
 40
0.5
100
AcDbArc
 50
53.208470006
 51
90.0
  0
ARC
  5
779
100
AcDbEntity
  8
0
100
AcDbCircle
 62
7
  6
CONTINUOUS
 10
82.5741664243
 20
103.9027423469
 40
0.5
100
AcDbArc
 50
90.0
 51
126.7915299478
  0
ARC
  5
77A
100
AcDbEntity
  8
0
100
AcDbCircle
 62
7
  6
CONTINUOUS
 10
78.5433845735
 20
103.8027423469
 40
0.5
100
AcDbArc
 50
90.0
 51
180.0
  0
ARC
  5
77B
100
AcDbEntity
  8
0
100
AcDbCircle
 62
7
  6
CONTINUOUS
 10
91.5433845735
 20
103.8027423469
 40
0.5
100
AcDbArc
 50
0.0
 51
90.0
  0
ARC
  5
77C
100
AcDbEntity
  8
RACCORDO
100
AcDbCircle
 62
7
  6
CONTINUOUS
 10
92.0663256278
 20
94.2027487855
 40
0.15
100
AcDbArc
 50
269.9999785396
 51
359.4975405634
  0
ARC
  5
77D
100
AcDbEntity
  8
RACCORDO
100
AcDbCircle
 62
7
  6
CONTINUOUS
 10
92.0663256248
 20
100.4027362524
 40
0.15
100
AcDbArc
 50
0.5023280241
 51
90.0000203138
  0
ARC
  5
77E
100
AcDbEntity
  8
0
100
AcDbCircle
 62
7
  6
CONTINUOUS
 10
79.7933845735
 20
52.4027423469
 40
0.15
100
AcDbArc
 50
0.0
 51
86.9830386902
  0
ARC
  5
77F
100
AcDbEntity
  8
0
100
AcDbCircle
 62
7
  6
CONTINUOUS
 10
90.2933845735
 20
52.4027423469
 40
0.15
100
AcDbArc
 50
93.0169613098
 51
180.0
  0
ARC
  5
780
100
AcDbEntity
  8
0
100
AcDbCircle
 62
7
  6
CONTINUOUS
 10
78.8933908171
 20
54.1465277159
 40
0.1499998477
100
AcDbArc
 50
0.0000000007
 51
84.8397355626
  0
ARC
  5
781
100
AcDbEntity
  8
0
100
AcDbCircle
 62
7
  6
CONTINUOUS
 10
91.19337833
 20
54.1465277159
 40
0.1499998477
100
AcDbArc
 50
95.1602644374
 51
179.9999999993
  0
ELLIPSE
  5
782
100
AcDbEntity
  8
0
100
AcDbEllipse
 62
7
  6
CONTINUOUS
 10
-380.5638929263
 20
-26.0994080872
 30
0.0
 11
535.1140690522
 21
0.0000119097
 31
0.0
 40
0.9951246675
 41
0.1923842608
 42
0.1927860921
  0
ELLIPSE
  5
783
100
AcDbEntity
  8
0
100
AcDbEllipse
 62
7
  6
CONTINUOUS
 10
669.381239543
 20
175.2048928212
 30
0.0
 11
-535.1140688131
 21
0.0000279813
 31
0.0
 40
0.9951246679
 41
0.1923843358
 42
0.1927861671
  0
ENDSEC
  0
SECTION
  2
OBJECTS
  0
DICTIONARY
  5
C
100
AcDbDictionary
280
0
281
1
  3
ACAD_GROUP
350
D
  3
ACAD_MLINESTYLE
350
17
  3
ACAD_LAYOUT
350
1A
  3
ACAD_PLOTSETTINGS
350
19
  3
ACAD_PLOTSTYLENAME
350
E
  0
DICTIONARY
  5
D
102
{ACAD_REACTORS
330
C
102
}
100
AcDbDictionary
280
0
281
1
  0
ACDBDICTIONARYWDFLT
  5
E
102
{ACAD_REACTORS
330
C
102
}
100
AcDbDictionary
281
1
  3
Normal
350
F
100
AcDbDictionaryWithDefault
340
F
  0
DICTIONARY
  5
17
102
{ACAD_REACTORS
330
C
102
}
100
AcDbDictionary
280
0
281
1
  3
Standard
350
18
  0
DICTIONARY
  5
19
102
{ACAD_REACTORS
330
C
102
}
100
AcDbDictionary
281
1
  0
DICTIONARY
  5
1A
102
{ACAD_REACTORS
330
C
102
}
100
AcDbDictionary
281
1
  3
Model
350
784
  3
Layout1
350
785
  0
ACDBPLACEHOLDER
  5
F
102
{ACAD_REACTORS
330
E
102
}
  0
MLINESTYLE
  5
18
102
{ACAD_REACTORS
330
17
102
}
100
AcDbMlineStyle
  2
STANDARD
 70
0
  3

 62
256
 51
90.0
 52
90.0
 71
2
 49
0.5
 62
256
  6
BYLAYER
 49
-0.5
 62
256
  6
BYLAYER
  0
LAYOUT
  5
784
102
{ACAD_REACTORS
330
1A
102
}
100
AcDbPlotSettings
  1

  2
none_device
  4
ISO_A4_(297.00_x_210.00_MM)
  6

 40
0.0
 41
0.0
 42
0.0
 43
0.0
 44
297.0
 45
210.0
 46
0.0
 47
0.0
 48
0.0
 49
0.0
140
0.0
141
0.0
142
1.0
143
1.0
 70
1024
 72
1
 73
0
 74
0
  7

 75
0
147
1.0
148
0.0
149
0.0
100
AcDbLayout
  1
Model
 70
0
 71
0
 10
0.0
 20
0.0
 11
297.0
 21
210.0
 12
0.0
 22
0.0
 32
0.0
 14
0.0
 24
0.0
 34
0.0
 15
0.0
 25
0.0
 35
0.0
146
0.0
 13
0.0
 23
0.0
 33
0.0
 16
1.0
 26
0.0
 36
0.0
 17
0.0
 27
1.0
 37
0.0
 76
0
330
21C
345
0
346
0
  0
LAYOUT
  5
785
102
{ACAD_REACTORS
330
1A
102
}
100
AcDbPlotSettings
  1

  2
none_device
  4
ISO_A4_(297.00_x_210.00_MM)
  6

 40
0.0
 41
0.0
 42
0.0
 43
0.0
 44
297.0
 45
210.0
 46
0.0
 47
0.0
 48
0.0
 49
0.0
140
0.0
141
0.0
142
1.0
143
1.0
 70
0
 72
1
 73
0
 74
0
  7

 75
0
147
1.0
148
0.0
149
0.0
100
AcDbLayout
  1
Layout1
 70
0
 71
1
 10
0.0
 20
0.0
 11
297.0
 21
210.0
 12
0.0
 22
0.0
 32
0.0
 14
0.0
 24
0.0
 34
0.0
 15
0.0
 25
0.0
 35
0.0
146
0.0
 13
0.0
 23
0.0
 33
0.0
 16
1.0
 26
0.0
 36
0.0
 17
0.0
 27
1.0
 37
0.0
 76
0
330
21D
345
0
346
0
  0
ENDSEC
  0
EOF
