  0
SECTION
  2
HEADER
  9
$ACADVER
  1
AC1024
  9
$DWGCODEPAGE
  3
ANSI_1252
  9
$EXTMAX
 10
297.0
 20
210.0
 30
0.0
  9
$EXTMIN
 10
0.0
 20
0.0
 30
0.0
  9
$LIMMIN
 10
0.0
 20
0.0
  9
$LIMMAX
 10
297.0
 20
210.0
  9
$VIEWCTR
 10
148.5
 20
105.0
  9
$VIEWSIZE
 40
210.0
  9
$CLAYER
  8
0
  9
$LTSCALE
 40
16.335
  9
$CELTYPE
  6
BYLAYER
  9
$DIMSCALE
 40
1.0
  9
$DIMASZ
 40
3.0
  9
$DIMEXO
 40
0.5
  9
$DIMDLI
 40
11.286
  9
$DIMEXE
 40
1.5
  9
$DIMCEN
 40
2.673
  9
$DIMLFAC
 40
1.0
  9
$DIMBLK
  1
_FILLED
  9
$DIMALT
 70
0
  9
$DIMALTF
 40
0.0393700787
  9
$DIMTXT
 40
3.0
  9
$DIMTOL
 70
1
  9
$DIMLIM
 70
0
  9
$DIMTFAC
 40
1.0
  9
$DIMTP
 40
0.01
  9
$DIMTM
 40
0.01
  9
$DIMGAP
 40
0.625
  9
$DIMDSEP
 70
44
  9
$AUNITS
 70
0
  9
$PDMODE
 70
3
  9
$PDSIZE
 40
3.0
  9
$HANDSEED
  5
493
  9
$TILEMODE
 70
1
  9
$MEASUREMENT
 70
1
  9
$INSUNITS
 70
4
  0
ENDSEC
  0
SECTION
  2
CLASSES
  0
CLASS
  1
ACDBDICTIONARYWDFLT
  2
AcDbDictionaryWithDefault
  3
AutoCAD 2000
 90
0
 91
1
280
0
281
0
  0
CLASS
  1
ACDBPLACEHOLDER
  2
AcDbPlaceHolder
  3
AutoCAD 2000
 90
0
 91
1
280
0
281
0
  0
CLASS
  1
LAYOUT
  2
AcDbLayout
  3
AutoCAD 2000
 90
0
 91
0
280
0
281
0
  0
ENDSEC
  0
SECTION
  2
TABLES
  0
TABLE
  2
VPORT
  5
8
100
AcDbSymbolTable
 70
2
  0
VPORT
  5
1F4
100
AcDbSymbolTableRecord
100
AcDbViewportTableRecord
  2
*ACTIVE
 70
0
 10
0.0
 20
0.0
 11
1.0
 21
1.0
 12
148.5
 22
105.0
 13
0.0
 23
0.0
 14
1.0
 24
1.0
 15
0.0
 25
0.0
 16
0.0
 26
0.0
 36
1.0
 17
0.0
 27
0.0
 37
0.0
 40
210.0
 41
1.4142857143
 42
50.0
 43
0.0
 44
0.0
 50
0.0
 51
0.0
 71
0
 72
100
 73
1
 74
1
 75
0
 76
0
 77
0
 78
0
  0
ENDTAB
  0
TABLE
  2
LTYPE
  5
5
100
AcDbSymbolTable
 70
6
  0
LTYPE
  5
14
100
AcDbSymbolTableRecord
100
AcDbLinetypeTableRecord
  2
BYBLOCK
 70
0
  3

 72
65
 73
0
 40
0.0
  0
LTYPE
  5
15
100
AcDbSymbolTableRecord
100
AcDbLinetypeTableRecord
  2
BYLAYER
 70
0
  3

 72
65
 73
0
 40
0.0
  0
LTYPE
  5
16
100
AcDbSymbolTableRecord
100
AcDbLinetypeTableRecord
  2
CONTINUOUS
 70
64
  3
Solid line
 72
65
 73
0
 40
0.0
  0
LTYPE
  5
1F5
100
AcDbSymbolTableRecord
100
AcDbLinetypeTableRecord
  2
CENTER
 70
64
  3
____ _ ____ _ ____ _ ____ _ ____ _ ____ _ ____
 72
65
 73
4
 40
0.6
 49
0.375
 74
0
 49
-0.075
 74
0
 49
0.075
 74
0
 49
-0.075
 74
0
  0
LTYPE
  5
1F6
100
AcDbSymbolTableRecord
100
AcDbLinetypeTableRecord
  2
HIDDEN
 70
64
  3
- - - - - - - - - - - - - - - - - - - -
 72
65
 73
2
 40
0.2
 49
0.1
 74
0
 49
-0.1
 74
0
  0
LTYPE
  5
1F7
100
AcDbSymbolTableRecord
100
AcDbLinetypeTableRecord
  2
PHANTOM
 70
64
  3
_____ _ _ _____ _ _ _____ _ _ _____
 72
65
 73
6
 40
0.8
 49
0.45
 74
0
 49
-0.05
 74
0
 49
0.1
 74
0
 49
-0.05
 74
0
 49
0.1
 74
0
 49
-0.05
 74
0
  0
LTYPE
  5
1F8
100
AcDbSymbolTableRecord
100
AcDbLinetypeTableRecord
  2
DOT
 70
64
  3
. . . . . . . . . . . . . . . . . . . .
 72
65
 73
2
 40
0.2
 49
0.1
 74
0
 49
-0.1
 74
0
  0
LTYPE
  5
1F9
100
AcDbSymbolTableRecord
100
AcDbLinetypeTableRecord
  2
DASHED
 70
64
  3
- - - - - - - - - - - - - - - - - - - -
 72
65
 73
2
 40
0.2
 49
0.1
 74
0
 49
-0.1
 74
0
  0
ENDTAB
  0
TABLE
  2
LAYER
  5
2
100
AcDbSymbolTable
 70
36
  0
LAYER
  5
10
100
AcDbSymbolTableRecord
100
AcDbLayerTableRecord
  2
0
 70
0
 62
7
  6
CONTINUOUS
370
-3
390
F
  0
LAYER
  5
1FA
100
AcDbSymbolTableRecord
100
AcDbLayerTableRecord
  2
DEFAULT_1
 70
0
 62
7
  6
CENTER
370
-3
390
F
  0
LAYER
  5
1FB
100
AcDbSymbolTableRecord
100
AcDbLayerTableRecord
  2
DEFAULT_2
 70
0
 62
7
  6
HIDDEN
370
-3
390
F
  0
LAYER
  5
1FC
100
AcDbSymbolTableRecord
100
AcDbLayerTableRecord
  2
DEFAULT_3
 70
0
 62
7
  6
PHANTOM
370
-3
390
F
  0
LAYER
  5
1FD
100
AcDbSymbolTableRecord
100
AcDbLayerTableRecord
  2
ASSI
 70
0
 62
7
  6
CONTINUOUS
370
-3
390
F
  0
LAYER
  5
1FE
100
AcDbSymbolTableRecord
100
AcDbLayerTableRecord
  2
COLOR15
 70
0
 62
7
  6
CONTINUOUS
370
-3
390
F
  0
LAYER
  5
1FF
100
AcDbSymbolTableRecord
100
AcDbLayerTableRecord
  2
COLOR5
 70
0
 62
7
  6
CONTINUOUS
370
-3
390
F
  0
LAYER
  5
200
100
AcDbSymbolTableRecord
100
AcDbLayerTableRecord
  2
COORDINATE
 70
0
 62
7
  6
CONTINUOUS
370
-3
390
F
  0
LAYER
  5
201
100
AcDbSymbolTableRecord
100
AcDbLayerTableRecord
  2
COORD_ORIGINE
 70
0
 62
7
  6
CONTINUOUS
370
-3
390
F
  0
LAYER
  5
202
100
AcDbSymbolTableRecord
100
AcDbLayerTableRecord
  2
COSMETICHE
 70
0
 62
7
  6
CONTINUOUS
370
-3
390
F
  0
LAYER
  5
203
100
AcDbSymbolTableRecord
100
AcDbLayerTableRecord
  2
COSMETICI
 70
0
 62
7
  6
CONTINUOUS
370
-3
390
F
  0
LAYER
  5
204
100
AcDbSymbolTableRecord
100
AcDbLayerTableRecord
  2
CURVE
 70
0
 62
7
  6
CONTINUOUS
370
-3
390
F
  0
LAYER
  5
205
100
AcDbSymbolTableRecord
100
AcDbLayerTableRecord
  2
DRAFT
 70
0
 62
7
  6
CONTINUOUS
370
-3
390
F
  0
LAYER
  5
206
100
AcDbSymbolTableRecord
100
AcDbLayerTableRecord
  2
IMPORT_IGES
 70
0
 62
7
  6
CONTINUOUS
370
-3
390
F
  0
LAYER
  5
207
100
AcDbSymbolTableRecord
100
AcDbLayerTableRecord
  2
INTF_1
 70
0
 62
7
  6
CONTINUOUS
370
-3
390
F
  0
LAYER
  5
208
100
AcDbSymbolTableRecord
100
AcDbLayerTableRecord
  2
INTF_11
 70
0
 62
7
  6
CONTINUOUS
370
-3
390
F
  0
LAYER
  5
209
100
AcDbSymbolTableRecord
100
AcDbLayerTableRecord
  2
INTF_2
 70
0
 62
7
  6
CONTINUOUS
370
-3
390
F
  0
LAYER
  5
20A
100
AcDbSymbolTableRecord
100
AcDbLayerTableRecord
  2
INTF_3
 70
0
 62
7
  6
CONTINUOUS
370
-3
390
F
  0
LAYER
  5
20B
100
AcDbSymbolTableRecord
100
AcDbLayerTableRecord
  2
INTF_5
 70
0
 62
7
  6
CONTINUOUS
370
-3
390
F
  0
LAYER
  5
20C
100
AcDbSymbolTableRecord
100
AcDbLayerTableRecord
  2
INTF_YELLOW
 70
0
 62
7
  6
CONTINUOUS
370
-3
390
F
  0
LAYER
  5
20D
100
AcDbSymbolTableRecord
100
AcDbLayerTableRecord
  2
NOTE
 70
0
 62
7
  6
CONTINUOUS
370
-3
390
F
  0
LAYER
  5
20E
100
AcDbSymbolTableRecord
100
AcDbLayerTableRecord
  2
PIANI
 70
0
 62
7
  6
CONTINUOUS
370
-3
390
F
  0
LAYER
  5
20F
100
AcDbSymbolTableRecord
100
AcDbLayerTableRecord
  2
PIANI_ORIGINE
 70
0
 62
7
  6
CONTINUOUS
370
-3
390
F
  0
LAYER
  5
210
100
AcDbSymbolTableRecord
100
AcDbLayerTableRecord
  2
PUNTI
 70
0
 62
7
  6
CONTINUOUS
370
-3
390
F
  0
LAYER
  5
211
100
AcDbSymbolTableRecord
100
AcDbLayerTableRecord
  2
RACCORDO
 70
0
 62
7
  6
CONTINUOUS
370
-3
390
F
  0
LAYER
  5
212
100
AcDbSymbolTableRecord
100
AcDbLayerTableRecord
  2
RGB__255__255__255__
 70
0
 62
7
  6
CONTINUOUS
370
-3
390
F
  0
LAYER
  5
213
100
AcDbSymbolTableRecord
100
AcDbLayerTableRecord
  2
SIMBOLI
 70
0
 62
7
  6
CONTINUOUS
370
-3
390
F
  0
LAYER
  5
214
100
AcDbSymbolTableRecord
100
AcDbLayerTableRecord
  2
SMUSSO
 70
0
 62
7
  6
CONTINUOUS
370
-3
390
F
  0
LAYER
  5
215
100
AcDbSymbolTableRecord
100
AcDbLayerTableRecord
  2
SNAPLINE
 70
0
 62
7
  6
CONTINUOUS
370
-3
390
F
  0
LAYER
  5
216
100
AcDbSymbolTableRecord
100
AcDbLayerTableRecord
  2
SUPERFICI
 70
0
 62
7
  6
CONTINUOUS
370
-3
390
F
  0
LAYER
  5
217
100
AcDbSymbolTableRecord
100
AcDbLayerTableRecord
  2
TASSELLI
 70
0
 62
7
  6
CONTINUOUS
370
-3
390
F
  0
LAYER
  5
218
100
AcDbSymbolTableRecord
100
AcDbLayerTableRecord
  2
TRASH
 70
0
 62
7
  6
CONTINUOUS
370
-3
390
F
  0
LAYER
  5
219
100
AcDbSymbolTableRecord
100
AcDbLayerTableRecord
  2
VARIE
 70
0
 62
7
  6
CONTINUOUS
370
-3
390
F
  0
LAYER
  5
21A
100
AcDbSymbolTableRecord
100
AcDbLayerTableRecord
  2
XSEC_DATUMS
 70
0
 62
7
  6
CONTINUOUS
370
-3
390
F
  0
ENDTAB
  0
TABLE
  2
STYLE
  5
3
100
AcDbSymbolTable
 70
1
  0
STYLE
  5
11
100
AcDbSymbolTableRecord
100
AcDbTextStyleTableRecord
  2
STANDARD
 70
0
 40
0.0
 41
0.8
 50
0.0
 71
0
 42
0.2
  3
txt
  4

  0
STYLE
  5
21B
100
AcDbSymbolTableRecord
100
AcDbTextStyleTableRecord
  2
TEXTSTYLE_1
 70
0
 40
0.0
 41
0.8
 50
0.0
 71
0
 42
0.2
  3
gdt
  4

  0
ENDTAB
  0
TABLE
  2
VIEW
  5
6
100
AcDbSymbolTable
 70
0
  0
ENDTAB
  0
TABLE
  2
UCS
  5
7
100
AcDbSymbolTable
 70
0
  0
ENDTAB
  0
TABLE
  2
APPID
  5
9
100
AcDbSymbolTable
 70
1
  0
APPID
  5
21C
100
AcDbSymbolTableRecord
100
AcDbRegAppTableRecord
  2
ACAD
 70
0
  0
ENDTAB
  0
TABLE
  2
BLOCK_RECORD
  5
1
100
AcDbSymbolTable
 70
0
  0
BLOCK_RECORD
  5
21D
100
AcDbSymbolTableRecord
100
AcDbBlockTableRecord
  2
*Model_Space
  0
BLOCK_RECORD
  5
21E
100
AcDbSymbolTableRecord
100
AcDbBlockTableRecord
  2
*Paper_Space
  0
BLOCK_RECORD
  5
21F
100
AcDbSymbolTableRecord
100
AcDbBlockTableRecord
  2
_FILLED
  0
BLOCK_RECORD
  5
220
100
AcDbSymbolTableRecord
100
AcDbBlockTableRecord
  2
*D0
  0
BLOCK_RECORD
  5
221
100
AcDbSymbolTableRecord
100
AcDbBlockTableRecord
  2
*D1
  0
BLOCK_RECORD
  5
222
100
AcDbSymbolTableRecord
100
AcDbBlockTableRecord
  2
*D2
  0
ENDTAB
  0
TABLE
  2
DIMSTYLE
  5
A
100
AcDbSymbolTable
 70
1
100
AcDbDimStyleTable
 71
0
  0
DIMSTYLE
105
223
100
AcDbSymbolTableRecord
100
AcDbDimStyleTableRecord
  2
STANDARD
 70
0
  3

  4

 40
1.0
 41
3.0
 42
0.5
 43
0.38
 44
1.5
 45
0.0
 46
0.0
 47
0.01
 48
0.01
140
3.0
141
0.09
142
0.0
143
25.4
144
1.0
145
0.0
146
1.0
147
0.625
 71
1
 72
0
 73
0
 74
0
 75
0
 76
0
 77
1
 78
8
 79
2
170
0
171
1
172
0
173
0
174
0
175
0
176
0
177
0
178
0
270
2
179
2
271
2
272
2
273
2
274
2
275
0
280
0
281
0
282
0
283
1
284
8
285
0
286
0
287
3
288
0
340
11
278
44
341
21F
342
21F
343
21F
344
21F
  0
DIMSTYLE
105
224
100
AcDbSymbolTableRecord
100
AcDbDimStyleTableRecord
  2
DIMSTYLE_1
 70
0
  3

  4

 40
1.0
 41
3.0
 42
0.5
 43
0.38
 44
1.5
 45
0.0
 46
0.0
 47
0.0
 48
0.0
140
3.0
141
0.09
142
0.0
143
25.4
144
1.0
145
0.0
146
1.0
147
0.75
 71
0
 72
0
 73
0
 74
0
 75
0
 76
0
 77
1
 78
8
 79
2
170
0
171
1
172
0
173
0
174
0
175
0
176
0
177
0
178
0
270
2
179
2
271
2
272
2
273
2
274
2
275
0
280
0
281
0
282
0
283
1
284
8
285
0
286
0
287
3
288
0
340
11
278
44
341
21F
342
21F
343
21F
344
21F
  0
ENDTAB
  0
ENDSEC
  0
SECTION
  2
BLOCKS
  0
BLOCK
  5
20
100
AcDbEntity
  8
0
100
AcDbBlockBegin
  2
*Model_Space
 70
0
 10
0.0
 20
0.0
 30
0.0
  3
*Model_Space
  1

  0
ENDBLK
  5
21
100
AcDbEntity
  8
0
100
AcDbBlockEnd
  0
BLOCK
  5
1C
100
AcDbEntity
  8
0
100
AcDbBlockBegin
  2
*Paper_Space
 70
0
 10
0.0
 20
0.0
 30
0.0
  3
*Paper_Space
  1

  0
ENDBLK
  5
1D
100
AcDbEntity
  8
0
100
AcDbBlockEnd
  0
BLOCK
  5
225
100
AcDbEntity
  8
0
100
AcDbBlockBegin
  2
_FILLED
 70
64
 10
0.0
 20
0.0
  3
_FILLED
  1

  0
SOLID
  5
226
100
AcDbEntity
  8
0
  6
BYBLOCK
 62
0
100
AcDbTrace
 10
0.0
 20
0.0
 11
-1.0
 21
0.3166666667
 12
-1.0
 22
-0.3166666667
 13
-1.0
 23
-0.3166666667
  0
ENDBLK
  5
227
100
AcDbEntity
  8
0
  6
BYBLOCK
 62
0
100
AcDbBlockEnd
  0
BLOCK
  5
228
100
AcDbEntity
  8
0
100
AcDbBlockBegin
 62
7
  6
CONTINUOUS
  2
*D0
 70
65
 10
0.0
 20
0.0
  3
*D0
  1

  0
LINE
  5
229
100
AcDbEntity
  8
0
100
AcDbLine
 62
7
  6
CONTINUOUS
 10
12.4692181492
 20
-5.2
 11
31.5
 21
-5.2
  0
LINE
  5
22A
100
AcDbEntity
  8
0
100
AcDbLine
 62
7
  6
CONTINUOUS
 10
4.8
 20
-58.55
 11
31.5
 21
-58.55
  0
LINE
  5
22B
100
AcDbEntity
  8
0
100
AcDbLine
 62
7
  6
CONTINUOUS
 10
30.0
 20
-5.2
 11
30.0
 21
-31.875
  0
LINE
  5
22C
100
AcDbEntity
  8
0
100
AcDbLine
 62
7
  6
CONTINUOUS
 10
30.0
 20
-58.55
 11
30.0
 21
-31.875
  0
INSERT
  5
22D
100
AcDbEntity
  8
0
100
AcDbBlockReference
 62
7
  6
CONTINUOUS
  2
_FILLED
 10
30.0
 20
-5.2
 41
3.0
 42
3.0
 43
3.0
 50
90.0
  0
INSERT
  5
22E
100
AcDbEntity
  8
0
100
AcDbBlockReference
 62
7
  6
CONTINUOUS
  2
_FILLED
 10
30.0
 20
-58.55
 41
3.0
 42
3.0
 43
3.0
 50
270.0
  0
ENDBLK
  5
22F
100
AcDbEntity
  8
0
  6
BYBLOCK
 62
0
100
AcDbBlockEnd
  0
BLOCK
  5
230
100
AcDbEntity
  8
0
100
AcDbBlockBegin
 62
7
  6
CONTINUOUS
  2
*D1
 70
65
 10
0.0
 20
0.0
  3
*D1
  1

  0
LINE
  5
231
100
AcDbEntity
  8
0
100
AcDbLine
 62
7
  6
CONTINUOUS
 10
-16.25
 20
-5.3
 11
-16.25
 21
5.9131608468
  0
LINE
  5
232
100
AcDbEntity
  8
0
100
AcDbLine
 62
7
  6
CONTINUOUS
 10
16.25
 20
-5.3
 11
16.25
 21
5.9131608468
  0
LINE
  5
233
100
AcDbEntity
  8
0
100
AcDbLine
 62
7
  6
CONTINUOUS
 10
-16.25
 20
4.4131608468
 11
0.0
 21
4.4131608468
  0
LINE
  5
234
100
AcDbEntity
  8
0
100
AcDbLine
 62
7
  6
CONTINUOUS
 10
16.25
 20
4.4131608468
 11
0.0
 21
4.4131608468
  0
INSERT
  5
235
100
AcDbEntity
  8
0
100
AcDbBlockReference
 62
7
  6
CONTINUOUS
  2
_FILLED
 10
-16.25
 20
4.4131608468
 41
3.0
 42
3.0
 43
3.0
 50
180.0
  0
INSERT
  5
236
100
AcDbEntity
  8
0
100
AcDbBlockReference
 62
7
  6
CONTINUOUS
  2
_FILLED
 10
16.25
 20
4.4131608468
 41
3.0
 42
3.0
 43
3.0
  0
ENDBLK
  5
237
100
AcDbEntity
  8
0
  6
BYBLOCK
 62
0
100
AcDbBlockEnd
  0
BLOCK
  5
238
100
AcDbEntity
  8
0
100
AcDbBlockBegin
 62
7
  6
CONTINUOUS
  2
*D2
 70
65
 10
0.0
 20
0.0
  3
*D2
  1

  0
LINE
  5
239
100
AcDbEntity
  8
0
100
AcDbLine
 62
7
  6
CONTINUOUS
 10
-68.6702125675
 20
-45.9037886834
 11
-68.6702125675
 21
5.8817335676
  0
LINE
  5
23A
100
AcDbEntity
  8
0
100
AcDbLine
 62
7
  6
CONTINUOUS
 10
-33.0674364791
 20
-11.8
 11
-33.0674364791
 21
5.8817335676
  0
LINE
  5
23B
100
AcDbEntity
  8
0
100
AcDbLine
 62
7
  6
CONTINUOUS
 10
-68.6702125675
 20
4.3817335676
 11
-50.8688245233
 21
4.3817335676
  0
LINE
  5
23C
100
AcDbEntity
  8
0
100
AcDbLine
 62
7
  6
CONTINUOUS
 10
-33.0674364791
 20
4.3817335676
 11
-50.8688245233
 21
4.3817335676
  0
INSERT
  5
23D
100
AcDbEntity
  8
0
100
AcDbBlockReference
 62
7
  6
CONTINUOUS
  2
_FILLED
 10
-68.6702125675
 20
4.3817335676
 41
3.0
 42
3.0
 43
3.0
 50
180.0
  0
INSERT
  5
23E
100
AcDbEntity
  8
0
100
AcDbBlockReference
 62
7
  6
CONTINUOUS
  2
_FILLED
 10
-33.0674364791
 20
4.3817335676
 41
3.0
 42
3.0
 43
3.0
  0
ENDBLK
  5
23F
100
AcDbEntity
  8
0
  6
BYBLOCK
 62
0
100
AcDbBlockEnd
  0
ENDSEC
  0
SECTION
  2
ENTITIES
  0
DIMENSION
  5
240
100
AcDbEntity
  8
0
100
AcDbDimension
 62
7
  6
CONTINUOUS
  2
*D0
 10
30.0
 20
-58.55
 11
30.0
 21
-37.0178571429
 70
160
 71
2
 72
2
 41
0.9
 42
53.35
  3
DIMSTYLE_1
100
AcDbAlignedDimension
 13
11.9692181492
 23
-5.2
 14
4.3
 24
-58.55
 50
270.0
100
AcDbRotatedDimension
  0
DIMENSION
  5
241
100
AcDbEntity
  8
0
100
AcDbDimension
 62
7
  6
CONTINUOUS
  2
*D1
 10
16.25
 20
4.4131608468
 11
-4.1785714286
 21
4.4131608468
 70
160
 71
2
 72
2
 41
0.9
 42
32.5
  3
DIMSTYLE_1
100
AcDbAlignedDimension
 13
-16.25
 23
-5.8
 14
16.25
 24
-5.8
100
AcDbRotatedDimension
  0
DIMENSION
  5
242
100
AcDbEntity
  8
0
100
AcDbDimension
 62
7
  6
CONTINUOUS
  2
*D2
 10
-33.0674364791
 20
4.3817335676
 11
-55.0473959519
 21
4.3817335676
 70
160
 71
2
 72
2
 41
0.9
 42
35.6027760884
  3
DIMSTYLE_1
100
AcDbAlignedDimension
 13
-68.6702125675
 23
-46.4037886834
 14
-33.0674364791
 24
-12.3
100
AcDbRotatedDimension
  0
LINE
  5
243
100
AcDbEntity
  8
0
100
AcDbLine
 62
7
  6
CONTINUOUS
 10
4.3
 20
-58.55
 11
-4.3
 21
-58.55
  0
LINE
  5
244
100
AcDbEntity
  8
0
100
AcDbLine
 62
250
  6
CONTINUOUS
 10
-5.1
 20
-57.75
 11
5.1
 21
-57.75
  0
LINE
  5
245
100
AcDbEntity
  8
0
100
AcDbLine
 62
250
  6
CONTINUOUS
 10
5.1
 20
-57.2
 11
-5.1
 21
-57.2
  0
LINE
  5
246
100
AcDbEntity
  8
0
100
AcDbLine
 62
250
  6
CONTINUOUS
 10
5.2421052632
 20
-57.0502079003
 11
-5.2421052632
 21
-57.0502079003
  0
LINE
  5
247
100
AcDbEntity
  8
0
100
AcDbLine
 62
250
  6
CONTINUOUS
 10
-6.0
 20
-56.2513167019
 11
6.0
 21
-56.2513167019
  0
LINE
  5
248
100
AcDbEntity
  8
0
100
AcDbLine
 62
250
  6
CONTINUOUS
 10
12.0574659825
 20
-51.9744173191
 11
12.3030658362
 21
-52.0675286452
  0
LINE
  5
249
100
AcDbEntity
  8
0
100
AcDbLine
 62
250
  6
CONTINUOUS
 10
-11.1999154062
 20
-35.55
 11
-14.8009673701
 21
-35.549933045
  0
LINE
  5
24A
100
AcDbEntity
  8
0
100
AcDbLine
 62
250
  6
CONTINUOUS
 10
14.800966201
 20
-35.5499514097
 11
11.1999154079
 21
-35.55
  0
LINE
  5
24B
100
AcDbEntity
  8
0
100
AcDbLine
 62
250
  6
CONTINUOUS
 10
15.0150610482
 20
-30.5
 11
16.25
 21
-30.5
  0
LINE
  5
24C
100
AcDbEntity
  8
0
100
AcDbLine
 62
250
  6
CONTINUOUS
 10
-15.0150610482
 20
-30.5
 11
-16.25
 21
-30.5
  0
LINE
  5
24D
100
AcDbEntity
  8
0
100
AcDbLine
 62
7
  6
CONTINUOUS
 10
0.2828593557
 20
-36.1925944572
 11
0.2388223825
 21
-36.1721062937
  0
LINE
  5
24E
100
AcDbEntity
  8
0
100
AcDbLine
 62
7
  6
CONTINUOUS
 10
-0.2828593557
 20
-33.9074055428
 11
-0.2388223825
 21
-33.9278937063
  0
LWPOLYLINE
  5
24F
100
AcDbEntity
  8
0
100
AcDbPolyline
 62
7
  6
CONTINUOUS
 90
3
 70
0
 43
0.3500000006
 10
28.9642864609
 20
-32.0178576851
 10
29.1785709457
 20
-32.0892854691
 10
29.4642866135
 20
-32.2321433029
  0
LINE
  5
250
100
AcDbEntity
  8
0
100
AcDbLine
 62
7
  6
CONTINUOUS
 10
-0.2828594037
 20
-36.1925943646
 11
-0.2692641391
 21
-36.2127030667
  0
LINE
  5
251
100
AcDbEntity
  8
0
100
AcDbLine
 62
7
  6
CONTINUOUS
 10
-16.25
 20
-5.8
 11
-16.25
 21
-30.5
  0
LINE
  5
252
100
AcDbEntity
  8
0
100
AcDbLine
 62
7
  6
CONTINUOUS
 10
0.2828594037
 20
-33.9074056354
 11
0.2692641324
 21
-33.8872969234
  0
LINE
  5
253
100
AcDbEntity
  8
0
100
AcDbLine
 62
250
  6
CONTINUOUS
 10
-16.0110790321
 20
-30.5
 11
-16.0110790321
 21
-5.8
  0
LINE
  5
254
100
AcDbEntity
  8
0
100
AcDbLine
 62
250
  6
CONTINUOUS
 10
-15.0150610482
 20
-30.5
 11
-15.0150610482
 21
-5.3
  0
LINE
  5
255
100
AcDbEntity
  8
0
100
AcDbLine
 62
7
  6
CONTINUOUS
 10
-14.1581745744
 20
-5.0
 11
-14.1581745744
 21
-5.3
  0
LINE
  5
256
100
AcDbEntity
  8
0
100
AcDbLine
 62
7
  6
CONTINUOUS
 10
-6.610415
 20
-14.187403
 11
-5.874698
 21
-14.187403
  0
LINE
  5
257
100
AcDbEntity
  8
0
100
AcDbLine
 62
7
  6
CONTINUOUS
 10
-4.279278
 20
-14.187403
 11
-3.444423
 21
-14.187403
  0
LINE
  5
258
100
AcDbEntity
  8
0
100
AcDbLine
 62
7
  6
CONTINUOUS
 10
-2.994994
 20
-14.187403
 11
-2.19631
 21
-14.187403
  0
LINE
  5
259
100
AcDbEntity
  8
0
100
AcDbLine
 62
7
  6
CONTINUOUS
 10
-1.036762
 20
-14.187403
 11
-0.919674
 21
-14.187403
  0
LINE
  5
25A
100
AcDbEntity
  8
0
100
AcDbLine
 62
7
  6
CONTINUOUS
 10
0.244493
 20
-14.187403
 11
1.061203
 21
-14.187403
  0
LINE
  5
25B
100
AcDbEntity
  8
0
100
AcDbLine
 62
7
  6
CONTINUOUS
 10
1.192297
 20
-14.187403
 11
2.018095
 21
-14.187403
  0
LINE
  5
25C
100
AcDbEntity
  8
0
100
AcDbLine
 62
7
  6
CONTINUOUS
 10
3.601668
 20
-14.187403
 11
4.481571
 21
-14.187403
  0
LINE
  5
25D
100
AcDbEntity
  8
0
100
AcDbLine
 62
7
  6
CONTINUOUS
 10
4.7267246802
 20
-14.1874031119
 11
5.5582205912
 21
-14.1874031119
  0
LINE
  5
25E
100
AcDbEntity
  8
0
100
AcDbLine
 62
7
  6
CONTINUOUS
 10
6.8366860434
 20
-14.1874031119
 11
7.6397196251
 21
-14.1874031119
  0
LINE
  5
25F
100
AcDbEntity
  8
0
100
AcDbLine
 62
7
  6
CONTINUOUS
 10
2.248463
 20
-13.388958
 11
3.385396
 21
-13.388958
  0
LINE
  5
260
100
AcDbEntity
  8
0
100
AcDbLine
 62
7
  6
CONTINUOUS
 10
3.218551
 20
-12.771125
 11
2.419237
 21
-12.771125
  0
LINE
  5
261
100
AcDbEntity
  8
0
100
AcDbLine
 62
7
  6
CONTINUOUS
 10
5.5582205912
 20
-12.6222149318
 11
6.0058499546
 21
-12.6222149318
  0
LINE
  5
262
100
AcDbEntity
  8
0
100
AcDbLine
 62
7
  6
CONTINUOUS
 10
6.0076494697
 20
-11.9671914613
 11
5.5305380517
 21
-11.9671914613
  0
LINE
  5
263
100
AcDbEntity
  8
0
100
AcDbLine
 62
7
  6
CONTINUOUS
 10
-1.122106287
 20
-34.8111776274
 11
-1.1881618048
 21
-34.6694209054
  0
LINE
  5
264
100
AcDbEntity
  8
0
100
AcDbLine
 62
7
  6
CONTINUOUS
 10
1.122106287
 20
-35.2888223726
 11
1.1881618048
 21
-35.4305790946
  0
LINE
  5
265
100
AcDbEntity
  8
0
100
AcDbLine
 62
7
  6
CONTINUOUS
 10
3.254421
 20
-10.187891
 11
2.446799
 21
-10.187891
  0
LINE
  5
266
100
AcDbEntity
  8
0
100
AcDbLine
 62
7
  6
CONTINUOUS
 10
0.687203
 20
-10.187891
 11
-0.138804
 21
-10.187891
  0
LINE
  5
267
100
AcDbEntity
  8
0
100
AcDbLine
 62
7
  6
CONTINUOUS
 10
-1.799696
 20
-10.187891
 11
-2.633862
 21
-10.187891
  0
LINE
  5
268
100
AcDbEntity
  8
0
100
AcDbLine
 62
7
  6
CONTINUOUS
 10
-4.589095
 20
-10.187891
 11
-5.42338
 21
-10.187891
  0
LINE
  5
269
100
AcDbEntity
  8
0
100
AcDbLine
 62
7
  6
CONTINUOUS
 10
-6.971428
 20
-10.187891
 11
-7.878338
 21
-10.187891
  0
LINE
  5
26A
100
AcDbEntity
  8
0
100
AcDbLine
 62
7
  6
CONTINUOUS
 10
-3.444423
 20
-10.187651
 11
-4.279278
 21
-10.187651
  0
LINE
  5
26B
100
AcDbEntity
  8
0
100
AcDbLine
 62
7
  6
CONTINUOUS
 10
-7.878338
 20
-10.187891
 11
-6.610415
 21
-14.187403
  0
LINE
  5
26C
100
AcDbEntity
  8
0
100
AcDbLine
 62
7
  6
CONTINUOUS
 10
-6.209048
 20
-12.940879
 11
-6.971428
 21
-10.187891
  0
LINE
  5
26D
100
AcDbEntity
  8
0
100
AcDbLine
 62
7
  6
CONTINUOUS
 10
-6.0
 20
-56.2513167019
 11
-6.0
 21
-55.5424997656
  0
LINE
  5
26E
100
AcDbEntity
  8
0
100
AcDbLine
 62
7
  6
CONTINUOUS
 10
-5.1
 20
-57.75
 11
-5.1
 21
-57.2
  0
LINE
  5
26F
100
AcDbEntity
  8
0
100
AcDbLine
 62
7
  6
CONTINUOUS
 10
-4.279278
 20
-10.187651
 11
-4.279278
 21
-14.187403
  0
LINE
  5
270
100
AcDbEntity
  8
0
100
AcDbLine
 62
250
  6
CONTINUOUS
 10
-7.9412485294
 20
-55.022790653
 11
-7.9587300106
 21
-55.2857866998
  0
LWPOLYLINE
  5
271
100
AcDbEntity
  8
0
100
AcDbPolyline
 62
7
  6
CONTINUOUS
 90
5
 70
0
 43
0.3500000006
 10
-3.3214284925
 20
6.8774467163
 10
-2.9642856073
 20
7.0917312012
 10
-2.9642856073
 20
7.7345891876
 10
-3.3214284925
 20
8.1631604233
 10
-4.1785715303
 20
8.1631604233
  0
LINE
  5
272
100
AcDbEntity
  8
0
100
AcDbLine
 62
250
  6
CONTINUOUS
 10
16.25
 20
-5.8
 11
-16.25
 21
-5.8
  0
LINE
  5
273
100
AcDbEntity
  8
0
100
AcDbLine
 62
7
  6
CONTINUOUS
 10
15.75
 20
-5.3
 11
-15.75
 21
-5.3
  0
LINE
  5
274
100
AcDbEntity
  8
0
100
AcDbLine
 62
7
  6
CONTINUOUS
 10
-14.1581745744
 20
-5.0
 11
14.1581745744
 21
-5.0
  0
LINE
  5
275
100
AcDbEntity
  8
0
100
AcDbLine
 62
7
  6
CONTINUOUS
 10
-2.016148
 20
-11.575797
 11
-1.036762
 21
-14.187403
  0
LINE
  5
276
100
AcDbEntity
  8
0
100
AcDbLine
 62
7
  6
CONTINUOUS
 10
-0.973659
 20
-12.408433
 11
-1.799696
 21
-10.187891
  0
LINE
  5
277
100
AcDbEntity
  8
0
100
AcDbLine
 62
7
  6
CONTINUOUS
 10
1.061203
 20
-14.187403
 11
0.687203
 21
-10.187891
  0
LINE
  5
278
100
AcDbEntity
  8
0
100
AcDbLine
 62
7
  6
CONTINUOUS
 10
0.072969
 20
-11.586684
 11
0.244493
 21
-14.187403
  0
LINE
  5
279
100
AcDbEntity
  8
0
100
AcDbLine
 62
7
  6
CONTINUOUS
 10
-3.444423
 20
-14.187403
 11
-3.444423
 21
-10.187651
  0
LINE
  5
27A
100
AcDbEntity
  8
0
100
AcDbLine
 62
7
  6
CONTINUOUS
 10
-0.6
 20
-37.6440251766
 11
-0.6
 21
-35.6086148063
  0
LINE
  5
27B
100
AcDbEntity
  8
0
100
AcDbLine
 62
7
  6
CONTINUOUS
 10
-0.6
 20
-34.4913855636
 11
-0.6
 21
-32.4559748234
  0
LINE
  5
27C
100
AcDbEntity
  8
0
100
AcDbLine
 62
7
  6
CONTINUOUS
 10
0.0
 20
-54.7076985752
 11
-0.0
 21
-47.38706668
  0
LINE
  5
27D
100
AcDbEntity
  8
0
100
AcDbLine
 62
7
  6
CONTINUOUS
 10
-2.19631
 20
-14.187403
 11
-2.016148
 21
-11.575797
  0
LINE
  5
27E
100
AcDbEntity
  8
0
100
AcDbLine
 62
7
  6
CONTINUOUS
 10
-2.633862
 20
-10.187891
 11
-2.994994
 21
-14.187403
  0
LINE
  5
27F
100
AcDbEntity
  8
0
100
AcDbLine
 62
7
  6
CONTINUOUS
 10
-5.42338
 20
-10.187891
 11
-6.209048
 21
-12.940879
  0
LINE
  5
280
100
AcDbEntity
  8
0
100
AcDbLine
 62
7
  6
CONTINUOUS
 10
-5.874698
 20
-14.187403
 11
-4.589095
 21
-10.187891
  0
LWPOLYLINE
  5
281
100
AcDbEntity
  8
0
100
AcDbPolyline
 62
7
  6
CONTINUOUS
 90
3
 70
0
 43
0.3500000006
 10
1.035714268
 20
5.4488751755
 10
0.9642857051
 20
5.2345884247
 10
0.8214285793
 20
4.9488750229
  0
LINE
  5
282
100
AcDbEntity
  8
0
100
AcDbLine
 62
7
  6
CONTINUOUS
 10
4.481571
 20
-14.187403
 11
3.254421
 21
-10.187891
  0
LINE
  5
283
100
AcDbEntity
  8
0
100
AcDbLine
 62
7
  6
CONTINUOUS
 10
3.385396
 20
-13.388958
 11
3.601668
 21
-14.187403
  0
LINE
  5
284
100
AcDbEntity
  8
0
100
AcDbLine
 62
7
  6
CONTINUOUS
 10
2.834925
 20
-11.286855
 11
3.218551
 21
-12.771125
  0
LINE
  5
285
100
AcDbEntity
  8
0
100
AcDbLine
 62
250
  6
CONTINUOUS
 10
7.9412489099
 20
-55.0227906286
 11
7.9587300106
 21
-55.2857866998
  0
LINE
  5
286
100
AcDbEntity
  8
0
100
AcDbLine
 62
7
  6
CONTINUOUS
 10
0.6
 20
-32.4559748234
 11
0.6
 21
-34.4913851937
  0
LINE
  5
287
100
AcDbEntity
  8
0
100
AcDbLine
 62
7
  6
CONTINUOUS
 10
0.6
 20
-35.6086144364
 11
0.6
 21
-37.6440251766
  0
LINE
  5
288
100
AcDbEntity
  8
0
100
AcDbLine
 62
7
  6
CONTINUOUS
 10
4.7267246802
 20
-10.2346183915
 11
4.7267246802
 21
-14.1874031119
  0
LINE
  5
289
100
AcDbEntity
  8
0
100
AcDbLine
 62
7
  6
CONTINUOUS
 10
-0.138804
 20
-10.187891
 11
-0.973659
 21
-12.408433
  0
LINE
  5
28A
100
AcDbEntity
  8
0
100
AcDbLine
 62
7
  6
CONTINUOUS
 10
-0.919674
 20
-14.187403
 11
0.072969
 21
-11.586684
  0
LWPOLYLINE
  5
28B
100
AcDbEntity
  8
0
100
AcDbPolyline
 62
7
  6
CONTINUOUS
 90
10
 70
0
 43
0.3500000006
 10
0.9642857051
 20
5.6631619263
 10
1.035714268
 20
5.5203040924
 10
1.035714268
 20
5.4488751755
 10
0.8928571422
 20
5.3060173416
 10
0.8214285793
 20
5.3060173416
 10
0.7500000165
 20
5.3774462585
 10
0.7500000165
 20
5.4488751755
 10
0.8214285793
 20
5.5917330093
 10
0.8928571422
 20
5.6631619263
 10
0.9642857051
 20
5.6631619263
  0
LINE
  5
28C
100
AcDbEntity
  8
0
100
AcDbLine
 62
7
  6
CONTINUOUS
 10
6.4715298608
 20
-12.9743682685
 11
6.4716244279
 21
-12.9746199582
  0
LINE
  5
28D
100
AcDbEntity
  8
0
100
AcDbLine
 62
7
  6
CONTINUOUS
 10
7.3543398552
 20
-13.1049904214
 11
7.3543165415
 21
-13.1049048463
  0
LINE
  5
28E
100
AcDbEntity
  8
0
100
AcDbLine
 62
7
  6
CONTINUOUS
 10
5.1
 20
-57.75
 11
5.1
 21
-57.2
  0
LINE
  5
28F
100
AcDbEntity
  8
0
100
AcDbLine
 62
7
  6
CONTINUOUS
 10
5.5305380517
 20
-11.9671914613
 11
5.5305380517
 21
-10.8692473583
  0
LINE
  5
290
100
AcDbEntity
  8
0
100
AcDbLine
 62
7
  6
CONTINUOUS
 10
5.5582205912
 20
-14.1874031119
 11
5.5582205912
 21
-12.6222149318
  0
LINE
  5
291
100
AcDbEntity
  8
0
100
AcDbLine
 62
7
  6
CONTINUOUS
 10
6.0
 20
-56.2513167019
 11
6.0
 21
-55.5424997656
  0
LINE
  5
292
100
AcDbEntity
  8
0
100
AcDbLine
 62
7
  6
CONTINUOUS
 10
6.8730962309
 20
-12.3204662533
 11
6.8730962309
 21
-12.2968326226
  0
LINE
  5
293
100
AcDbEntity
  8
0
100
AcDbLine
 62
7
  6
CONTINUOUS
 10
-0.2280529893
 20
-33.6772662176
 11
-0.2694720426
 21
-33.8876044208
  0
LINE
  5
294
100
AcDbEntity
  8
0
100
AcDbLine
 62
7
  6
CONTINUOUS
 10
0.2280529893
 20
-36.4227337824
 11
0.2694720426
 21
-36.2123955792
  0
LINE
  5
295
100
AcDbEntity
  8
0
100
AcDbLine
 62
7
  6
CONTINUOUS
 10
2.419237
 20
-12.771125
 11
2.834925
 21
-11.286855
  0
LINE
  5
296
100
AcDbEntity
  8
0
100
AcDbLine
 62
7
  6
CONTINUOUS
 10
2.018095
 20
-14.187403
 11
2.248463
 21
-13.388958
  0
LINE
  5
297
100
AcDbEntity
  8
0
100
AcDbLine
 62
7
  6
CONTINUOUS
 10
2.446799
 20
-10.187891
 11
1.192297
 21
-14.187403
  0
LWPOLYLINE
  5
298
100
AcDbEntity
  8
0
100
AcDbPolyline
 62
7
  6
CONTINUOUS
 90
6
 70
0
 43
0.3500000006
 10
-4.1785715303
 20
5.1631617737
 10
-3.1071428747
 20
5.1631617737
 10
-2.8928572569
 20
5.3774462585
 10
-2.8928572569
 20
6.4488754807
 10
-3.3214284925
 20
6.8774467163
 10
-3.7500000114
 20
6.8774467163
  0
LWPOLYLINE
  5
299
100
AcDbEntity
  8
0
100
AcDbPolyline
 62
7
  6
CONTINUOUS
 90
7
 70
0
 43
0.3500000006
 10
-0.5357142924
 20
5.1631617737
 10
-2.0357142191
 20
5.1631617737
 10
-0.5357142924
 20
7.306017952
 10
-0.5357142924
 20
7.7345891876
 10
-0.9642857051
 20
8.1631604233
 10
-1.6071428418
 20
8.1631604233
 10
-2.0357142191
 20
7.5203047028
  0
LWPOLYLINE
  5
29A
100
AcDbEntity
  8
0
100
AcDbPolyline
 62
7
  6
CONTINUOUS
 90
8
 70
0
 43
0.3500000006
 10
2.0357142191
 20
5.1631617737
 10
2.8928572569
 20
5.1631617737
 10
3.3214284925
 20
5.5917330093
 10
3.3214284925
 20
6.4488754807
 10
2.8928572569
 20
6.8774467163
 10
2.0357142191
 20
6.8774467163
 10
2.0357142191
 20
8.1631604233
 10
3.3214284925
 20
8.1631604233
  0
LWPOLYLINE
  5
29B
100
AcDbEntity
  8
0
100
AcDbPolyline
 62
7
  6
CONTINUOUS
 90
5
 70
0
 43
0.3500000006
 10
27.53571492
 20
-34.0178571625
 10
27.3214281693
 20
-33.6607148437
 10
26.6785724487
 20
-33.6607148437
 10
26.2499989471
 20
-34.0178571625
 10
26.2499989471
 20
-34.8749996338
  0
LWPOLYLINE
  5
29C
100
AcDbEntity
  8
0
100
AcDbPolyline
 62
7
  6
CONTINUOUS
 90
5
 70
0
 43
0.3500000006
 10
27.53571492
 20
-30.1607137756
 10
27.3214281693
 20
-29.8035714569
 10
26.6785724487
 20
-29.8035714569
 10
26.2499989471
 20
-30.1607137756
 10
26.2499989471
 20
-31.0178573799
  0
LINE
  5
29D
100
AcDbEntity
  8
0
100
AcDbLine
 62
7
  6
CONTINUOUS
 10
14.1581745744
 20
-5.0
 11
14.1581745744
 21
-5.3
  0
LINE
  5
29E
100
AcDbEntity
  8
0
100
AcDbLine
 62
250
  6
CONTINUOUS
 10
15.0150610482
 20
-30.5
 11
15.0150610482
 21
-5.3
  0
LINE
  5
29F
100
AcDbEntity
  8
0
100
AcDbLine
 62
250
  6
CONTINUOUS
 10
16.0110790321
 20
-5.8
 11
16.0110790321
 21
-30.5
  0
LINE
  5
2A0
100
AcDbEntity
  8
0
100
AcDbLine
 62
7
  6
CONTINUOUS
 10
16.25
 20
-5.8
 11
16.25
 21
-30.5
  0
LINE
  5
2A1
100
AcDbEntity
  8
0
100
AcDbLine
 62
7
  6
CONTINUOUS
 10
-1.1881618969
 20
-35.4305790454
 11
-1.1221062937
 21
-35.2888223825
  0
LINE
  5
2A2
100
AcDbEntity
  8
0
100
AcDbLine
 62
7
  6
CONTINUOUS
 10
1.1881618969
 20
-34.6694209546
 11
1.1221062937
 21
-34.8111776175
  0
LINE
  5
2A3
100
AcDbEntity
  8
0
100
AcDbLine
 62
7
  6
CONTINUOUS
 10
-0.2694720426
 20
-33.8876044208
 11
-0.2828593557
 21
-33.9074055428
  0
LINE
  5
2A4
100
AcDbEntity
  8
0
100
AcDbLine
 62
7
  6
CONTINUOUS
 10
0.2694720426
 20
-36.2123955792
 11
0.2828593557
 21
-36.1925944572
  0
LWPOLYLINE
  5
2A5
100
AcDbEntity
  8
0
100
AcDbPolyline
 62
7
  6
CONTINUOUS
 90
8
 70
0
 43
0.3500000006
 10
29.2499998627
 20
-37.017856945
 10
29.2499998627
 20
-36.1607144737
 10
28.821428627
 20
-35.7321432381
 10
27.9642861557
 20
-35.7321432381
 10
27.53571492
 20
-36.1607144737
 10
27.53571492
 20
-37.017856945
 10
26.2499989471
 20
-37.017856945
 10
26.2499989471
 20
-35.7321432381
  0
LWPOLYLINE
  5
2A6
100
AcDbEntity
  8
0
100
AcDbPolyline
 62
7
  6
CONTINUOUS
 90
6
 70
0
 43
0.3500000006
 10
29.2499998627
 20
-34.8749996338
 10
29.2499998627
 20
-33.8035715446
 10
29.0357153778
 20
-33.5892859268
 10
27.9642861557
 20
-33.5892859268
 10
27.53571492
 20
-34.0178571625
 10
27.53571492
 20
-34.4464283981
  0
LWPOLYLINE
  5
2A7
100
AcDbEntity
  8
0
100
AcDbPolyline
 62
7
  6
CONTINUOUS
 90
6
 70
0
 43
0.3500000006
 10
29.2499998627
 20
-31.0178573799
 10
29.2499998627
 20
-29.9464281578
 10
29.0357153778
 20
-29.7321431065
 10
27.9642861557
 20
-29.7321431065
 10
27.53571492
 20
-30.1607137756
 10
27.53571492
 20
-30.5892861443
  0
LWPOLYLINE
  5
2A8
100
AcDbEntity
  8
0
100
AcDbPolyline
 62
7
  6
CONTINUOUS
 90
8
 70
0
 43
0.3500000006
 10
29.2499998627
 20
-28.8750000687
 10
29.2499998627
 20
-28.0178570309
 10
28.821428627
 20
-27.5892857952
 10
27.9642861557
 20
-27.5892857952
 10
27.53571492
 20
-28.0178570309
 10
27.53571492
 20
-28.8750000687
 10
26.2499989471
 20
-28.8750000687
 10
26.2499989471
 20
-27.5892857952
  0
LINE
  5
2A9
100
AcDbEntity
  8
0
100
AcDbLine
 62
7
  6
CONTINUOUS
 10
0.2388223726
 20
-33.927893713
 11
0.2828594037
 21
-33.9074056354
  0
LINE
  5
2AA
100
AcDbEntity
  8
0
100
AcDbLine
 62
7
  6
CONTINUOUS
 10
-0.2388223726
 20
-36.172106287
 11
-0.2828594037
 21
-36.1925943646
  0
LWPOLYLINE
  5
2AB
100
AcDbEntity
  8
0
100
AcDbPolyline
 62
7
  6
CONTINUOUS
 90
10
 70
0
 43
0.3500000006
 10
28.7499997101
 20
-32.0892854691
 10
28.8928575439
 20
-32.0178576851
 10
28.9642864609
 20
-32.0178576851
 10
29.1071420288
 20
-32.160714386
 10
29.1071420288
 20
-32.2321433029
 10
29.0357153778
 20
-32.3035710869
 10
28.9642864609
 20
-32.3035710869
 10
28.821428627
 20
-32.2321433029
 10
28.7499997101
 20
-32.160714386
 10
28.7499997101
 20
-32.0892854691
  0
LINE
  5
2AC
100
AcDbEntity
  8
0
100
AcDbLine
 62
250
  6
CONTINUOUS
 10
-12.0574688616
 20
-51.9744096755
 11
-12.3030658362
 21
-52.0675286452
  0
LINE
  5
2AD
100
AcDbEntity
  8
0
100
AcDbLine
 62
7
  6
CONTINUOUS
 10
-55.1674364914
 20
-58.55
 11
-63.7674364668
 21
-58.55
  0
LINE
  5
2AE
100
AcDbEntity
  8
0
100
AcDbLine
 62
250
  6
CONTINUOUS
 10
-54.3674364791
 20
-57.75
 11
-64.5674364791
 21
-57.75
  0
LINE
  5
2AF
100
AcDbEntity
  8
0
100
AcDbLine
 62
250
  6
CONTINUOUS
 10
-54.3674364791
 20
-57.2
 11
-64.5674364791
 21
-57.2
  0
LINE
  5
2B0
100
AcDbEntity
  8
0
100
AcDbLine
 62
250
  6
CONTINUOUS
 10
-54.2253312159
 20
-57.0502079003
 11
-64.7095417423
 21
-57.0502079003
  0
LINE
  5
2B1
100
AcDbEntity
  8
0
100
AcDbLine
 62
250
  6
CONTINUOUS
 10
-53.4674364791
 20
-56.2513167019
 11
-65.4674364791
 21
-56.2513167019
  0
LINE
  5
2B2
100
AcDbEntity
  8
0
100
AcDbLine
 62
250
  6
CONTINUOUS
 10
-58.7274364791
 20
-55.2857866998
 11
-60.2074364791
 21
-55.2857866998
  0
LINE
  5
2B3
100
AcDbEntity
  8
0
100
AcDbLine
 62
250
  6
CONTINUOUS
 10
-58.7274364791
 20
-52.0675286452
 11
-60.2074364791
 21
-52.0675286452
  0
LINE
  5
2B4
100
AcDbEntity
  8
0
100
AcDbLine
 62
7
  6
CONTINUOUS
 10
-52.4674364791
 20
-32.4262575674
 11
-52.4374364791
 21
-32.4262575674
  0
LINE
  5
2B5
100
AcDbEntity
  8
0
100
AcDbLine
 62
250
  6
CONTINUOUS
 10
-52.4674364791
 20
-30.5
 11
-66.4674364791
 21
-30.5
  0
LINE
  5
2B6
100
AcDbEntity
  8
0
100
AcDbLine
 62
7
  6
CONTINUOUS
 10
-52.4174364791
 20
-27.5
 11
-52.4674364791
 21
-27.5
  0
LINE
  5
2B7
100
AcDbEntity
  8
0
100
AcDbLine
 62
7
  6
CONTINUOUS
 10
-52.4674364791
 20
-26.5500120352
 11
-52.4174364791
 21
-26.5500120352
  0
LINE
  5
2B8
100
AcDbEntity
  8
0
100
AcDbLine
 62
7
  6
CONTINUOUS
 10
-52.4674364791
 20
-21.4500119648
 11
-52.4174364791
 21
-21.4500119648
  0
LINE
  5
2B9
100
AcDbEntity
  8
0
100
AcDbLine
 62
7
  6
CONTINUOUS
 10
-52.4174364791
 20
-20.616719
 11
-52.4674364791
 21
-20.616719
  0
LINE
  5
2BA
100
AcDbEntity
  8
0
100
AcDbLine
 62
7
  6
CONTINUOUS
 10
-52.4174364791
 20
-20.542285
 11
-52.4674364791
 21
-20.542285
  0
LINE
  5
2BB
100
AcDbEntity
  8
0
100
AcDbLine
 62
7
  6
CONTINUOUS
 10
-52.4174364791
 20
-20.499453
 11
-52.4674364791
 21
-20.499453
  0
LINE
  5
2BC
100
AcDbEntity
  8
RACCORDO
100
AcDbLine
 62
7
  6
CONTINUOUS
 10
-52.444495481
 20
-15.55
 11
-52.4674364791
 21
-15.55
  0
LINE
  5
2BD
100
AcDbEntity
  8
0
100
AcDbLine
 62
7
  6
CONTINUOUS
 10
-52.2848902147
 20
-14.3
 11
-34.3509213401
 21
-14.3
  0
LINE
  5
2BE
100
AcDbEntity
  8
0
100
AcDbLine
 62
7
  6
CONTINUOUS
 10
-42.4241352089
 20
-14.275
 11
-41.9674364791
 21
-14.275
  0
LINE
  5
2BF
100
AcDbEntity
  8
ASSI
100
AcDbLine
 62
7
  6
CONTINUOUS
 10
-52.2844538713
 20
-14.25
 11
-42.4674364791
 21
-14.25
  0
LINE
  5
2C0
100
AcDbEntity
  8
0
100
AcDbLine
 62
7
  6
CONTINUOUS
 10
-42.4674364791
 20
-14.25
 11
-52.2844538713
 21
-14.25
  0
LINE
  5
2C1
100
AcDbEntity
  8
0
100
AcDbLine
 62
7
  6
CONTINUOUS
 10
-66.4674364791
 20
-14.1874031119
 11
-66.4974364791
 21
-14.1874031119
  0
LINE
  5
2C2
100
AcDbEntity
  8
0
100
AcDbLine
 62
7
  6
CONTINUOUS
 10
-66.4674364791
 20
-12.3204662533
 11
-66.4974364791
 21
-12.3204662533
  0
LINE
  5
2C3
100
AcDbEntity
  8
0
100
AcDbLine
 62
7
  6
CONTINUOUS
 10
-66.4674364791
 20
-12.2968326226
 11
-66.4974364791
 21
-12.2968326226
  0
LINE
  5
2C4
100
AcDbEntity
  8
ASSI
100
AcDbLine
 62
7
  6
CONTINUOUS
 10
-52.2844538713
 20
-10.35
 11
-42.4674364791
 21
-10.35
  0
LINE
  5
2C5
100
AcDbEntity
  8
0
100
AcDbLine
 62
7
  6
CONTINUOUS
 10
-42.4674364791
 20
-10.35
 11
-52.2844538713
 21
-10.35
  0
LINE
  5
2C6
100
AcDbEntity
  8
0
100
AcDbLine
 62
7
  6
CONTINUOUS
 10
-42.4241352089
 20
-10.325
 11
-41.9674364791
 21
-10.325
  0
LINE
  5
2C7
100
AcDbEntity
  8
0
100
AcDbLine
 62
7
  6
CONTINUOUS
 10
-52.2848884669
 20
-10.3
 11
-34.3509213401
 21
-10.3
  0
LINE
  5
2C8
100
AcDbEntity
  8
0
100
AcDbLine
 62
250
  6
CONTINUOUS
 10
-66.4674364791
 20
-10.2767270432
 11
-66.4974364791
 21
-10.2767270432
  0
LINE
  5
2C9
100
AcDbEntity
  8
0
100
AcDbLine
 62
7
  6
CONTINUOUS
 10
-66.4674364791
 20
-10.1409643902
 11
-66.4974364791
 21
-10.1409643902
  0
LINE
  5
2CA
100
AcDbEntity
  8
0
100
AcDbLine
 62
250
  6
CONTINUOUS
 10
-66.4674364791
 20
-13.1049904214
 11
-66.4974364791
 21
-13.1049048463
  0
LINE
  5
2CB
100
AcDbEntity
  8
RACCORDO
100
AcDbLine
 62
250
  6
CONTINUOUS
 10
-52.2674364791
 20
-12.3
 11
-52.4174307676
 21
-12.298627683
  0
LINE
  5
2CC
100
AcDbEntity
  8
0
100
AcDbLine
 62
7
  6
CONTINUOUS
 10
-66.4974364791
 20
-14.1874031119
 11
-66.4974364791
 21
-10.1409536022
  0
LINE
  5
2CD
100
AcDbEntity
  8
0
100
AcDbLine
 62
7
  6
CONTINUOUS
 10
-66.4674364791
 20
-5.8
 11
-66.4674364791
 21
-35.5499514097
  0
LINE
  5
2CE
100
AcDbEntity
  8
0
100
AcDbLine
 62
250
  6
CONTINUOUS
 10
-65.5565890215
 20
-5.8
 11
-65.5565890215
 21
-35.6380408142
  0
LINE
  5
2CF
100
AcDbEntity
  8
0
100
AcDbLine
 62
7
  6
CONTINUOUS
 10
-65.4674364791
 20
-55.4568068006
 11
-65.4674364791
 21
-56.2513167019
  0
LINE
  5
2D0
100
AcDbEntity
  8
0
100
AcDbLine
 62
7
  6
CONTINUOUS
 10
-64.7674364791
 20
-5.0
 11
-64.7674364791
 21
-5.3
  0
LINE
  5
2D1
100
AcDbEntity
  8
0
100
AcDbLine
 62
7
  6
CONTINUOUS
 10
-64.5674364791
 20
-57.2
 11
-64.5674364791
 21
-57.75
  0
LINE
  5
2D2
100
AcDbEntity
  8
0
100
AcDbLine
 62
7
  6
CONTINUOUS
 10
-64.4396056463
 20
-5.3
 11
-64.4396056463
 21
-5.25
  0
LINE
  5
2D3
100
AcDbEntity
  8
0
100
AcDbLine
 62
250
  6
CONTINUOUS
 10
-64.3633438603
 20
-5.3
 11
-64.3633438603
 21
-5.25
  0
LINE
  5
2D4
100
AcDbEntity
  8
0
100
AcDbLine
 62
250
  6
CONTINUOUS
 10
-64.1459532531
 20
-5.3
 11
-64.1459532531
 21
-5.25
  0
LINE
  5
2D5
100
AcDbEntity
  8
0
100
AcDbLine
 62
7
  6
CONTINUOUS
 10
-63.9235074238
 20
-5.3
 11
-63.9235074238
 21
-5.25
  0
LINE
  5
2D6
100
AcDbEntity
  8
0
100
AcDbLine
 62
7
  6
CONTINUOUS
 10
-63.9217338846
 20
-5.3
 11
-63.9217338846
 21
-5.25
  0
LINE
  5
2D7
100
AcDbEntity
  8
0
100
AcDbLine
 62
250
  6
CONTINUOUS
 10
-63.8977911858
 20
-5.3
 11
-63.8977911858
 21
-5.25
  0
LINE
  5
2D8
100
AcDbEntity
  8
0
100
AcDbLine
 62
7
  6
CONTINUOUS
 10
-63.8206424997
 20
-5.3
 11
-63.8206424997
 21
-5.25
  0
LINE
  5
2D9
100
AcDbEntity
  8
0
100
AcDbLine
 62
7
  6
CONTINUOUS
 10
-63.6326479659
 20
-5.3
 11
-63.6326479659
 21
-5.25
  0
LINE
  5
2DA
100
AcDbEntity
  8
0
100
AcDbLine
 62
250
  6
CONTINUOUS
 10
-63.4694829026
 20
-5.3
 11
-63.4694829026
 21
-5.25
  0
LINE
  5
2DB
100
AcDbEntity
  8
0
100
AcDbLine
 62
250
  6
CONTINUOUS
 10
-63.2763702322
 20
-5.3
 11
-63.2763702322
 21
-5.25
  0
LINE
  5
2DC
100
AcDbEntity
  8
0
100
AcDbLine
 62
250
  6
CONTINUOUS
 10
-63.1548658153
 20
-5.3
 11
-63.1548658153
 21
-5.25
  0
LINE
  5
2DD
100
AcDbEntity
  8
0
100
AcDbLine
 62
7
  6
CONTINUOUS
 10
-63.1121158228
 20
-5.3
 11
-63.1121158228
 21
-5.25
  0
LINE
  5
2DE
100
AcDbEntity
  8
0
100
AcDbLine
 62
7
  6
CONTINUOUS
 10
-63.0952672587
 20
-5.3
 11
-63.0952672587
 21
-5.25
  0
LWPOLYLINE
  5
2DF
100
AcDbEntity
  8
0
100
AcDbPolyline
 62
7
  6
CONTINUOUS
 90
4
 70
0
 10
-66.4674364791
 20
-35.55
 10
-66.4698425149
 20
-35.7082278996
 10
-66.4724886273
 20
-35.8552083368
 10
-66.4753422296
 20
-35.9910072143
  0
LWPOLYLINE
  5
2E0
100
AcDbEntity
  8
0
100
AcDbPolyline
 62
7
  6
CONTINUOUS
 90
5
 70
0
 10
-66.4753422296
 20
-35.9910072143
 10
-66.4783723484
 20
-36.1159870657
 10
-66.4815284425
 20
-36.2299136751
 10
-66.4847363634
 20
-36.3321579189
 10
-66.4879377548
 20
-36.4229839259
  0
LINE
  5
2E1
100
AcDbEntity
  8
0
100
AcDbLine
 62
7
  6
CONTINUOUS
 10
-66.4879377548
 20
-36.4229839259
 11
-66.4940568191
 21
-36.5712108634
  0
LINE
  5
2E2
100
AcDbEntity
  8
0
100
AcDbLine
 62
7
  6
CONTINUOUS
 10
-66.4940568191
 20
-36.5712108634
 11
-66.49681944
 21
-36.6288060198
  0
LINE
  5
2E3
100
AcDbEntity
  8
0
100
AcDbLine
 62
7
  6
CONTINUOUS
 10
-66.49681944
 20
-36.6288060198
 11
-66.5002588848
 21
-36.6932383064
  0
LINE
  5
2E4
100
AcDbEntity
  8
0
100
AcDbLine
 62
7
  6
CONTINUOUS
 10
-66.5003935596
 20
-36.6932306308
 11
-66.5048632344
 21
-36.7716548371
  0
LINE
  5
2E5
100
AcDbEntity
  8
0
100
AcDbLine
 62
7
  6
CONTINUOUS
 10
-66.5048632344
 20
-36.7716548371
 11
-66.521111413
 21
-37.0162039393
  0
LWPOLYLINE
  5
2E6
100
AcDbEntity
  8
0
100
AcDbPolyline
 62
7
  6
CONTINUOUS
 90
4
 70
0
 10
-66.5210714021
 20
-37.0157224463
 10
-66.5403500383
 20
-37.2628944575
 10
-66.5627516893
 20
-37.5130102552
 10
-66.5886617282
 20
-37.7690955817
  0
LWPOLYLINE
  5
2E7
100
AcDbEntity
  8
0
100
AcDbPolyline
 62
7
  6
CONTINUOUS
 90
3
 70
0
 10
-66.5451351679
 20
-37.3163658141
 10
-66.5629128164
 20
-37.5146864912
 10
-66.5888619605
 20
-37.7709475458
  0
LINE
  5
2E8
100
AcDbEntity
  8
0
100
AcDbLine
 62
7
  6
CONTINUOUS
 10
-66.5886617282
 20
-37.7690955817
 11
-66.6184628546
 21
-38.0329252656
  0
LINE
  5
2E9
100
AcDbEntity
  8
0
100
AcDbLine
 62
7
  6
CONTINUOUS
 10
-52.444495481
 20
-9.05
 11
-52.4674364791
 21
-9.05
  0
LINE
  5
2EA
100
AcDbEntity
  8
0
100
AcDbLine
 62
250
  6
CONTINUOUS
 10
-52.4674364791
 20
-5.8
 11
-66.4674364791
 21
-5.8
  0
LINE
  5
2EB
100
AcDbEntity
  8
0
100
AcDbLine
 62
7
  6
CONTINUOUS
 10
-52.9674364791
 20
-5.3
 11
-65.9674364791
 21
-5.3
  0
LINE
  5
2EC
100
AcDbEntity
  8
0
100
AcDbLine
 62
7
  6
CONTINUOUS
 10
-64.4396056463
 20
-5.25
 11
-63.0952672587
 21
-5.25
  0
LINE
  5
2ED
100
AcDbEntity
  8
0
100
AcDbLine
 62
7
  6
CONTINUOUS
 10
-61.9366546283
 20
-5.2
 11
-56.9982183299
 21
-5.2
  0
LINE
  5
2EE
100
AcDbEntity
  8
0
100
AcDbLine
 62
7
  6
CONTINUOUS
 10
-61.354839591
 20
-5.15
 11
-57.3102425292
 21
-5.15
  0
LINE
  5
2EF
100
AcDbEntity
  8
0
100
AcDbLine
 62
7
  6
CONTINUOUS
 10
-42.4674364791
 20
-14.25
 11
-42.4241352089
 21
-14.275
  0
LINE
  5
2F0
100
AcDbEntity
  8
0
100
AcDbLine
 62
7
  6
CONTINUOUS
 10
-49.9350588344
 20
-46.8304756294
 11
-49.9350048111
 21
-46.8306181054
  0
LINE
  5
2F1
100
AcDbEntity
  8
0
100
AcDbLine
 62
7
  6
CONTINUOUS
 10
-49.9349808194
 20
-46.8306816053
 11
-49.9355712867
 21
-46.8290900301
  0
LINE
  5
2F2
100
AcDbEntity
  8
0
100
AcDbLine
 62
7
  6
CONTINUOUS
 10
-49.9355712867
 20
-46.8290900301
 11
-49.9370059096
 21
-46.8251627752
  0
LINE
  5
2F3
100
AcDbEntity
  8
0
100
AcDbLine
 62
7
  6
CONTINUOUS
 10
-49.9370059096
 20
-46.8251627752
 11
-49.9401643931
 21
-46.8163816691
  0
LINE
  5
2F4
100
AcDbEntity
  8
0
100
AcDbLine
 62
7
  6
CONTINUOUS
 10
-49.9401643931
 20
-46.8163816691
 11
-49.9457194329
 21
-46.8006967044
  0
LINE
  5
2F5
100
AcDbEntity
  8
0
100
AcDbLine
 62
7
  6
CONTINUOUS
 10
-49.9454302817
 20
-46.8015082214
 11
-49.9546645966
 21
-46.7750308013
  0
LINE
  5
2F6
100
AcDbEntity
  8
0
100
AcDbLine
 62
7
  6
CONTINUOUS
 10
-49.9538992079
 20
-46.7772430179
 11
-49.9681986054
 21
-46.7356492514
  0
LINE
  5
2F7
100
AcDbEntity
  8
0
100
AcDbLine
 62
7
  6
CONTINUOUS
 10
-49.9665244219
 20
-46.74056386
 11
-49.9935291167
 21
-46.6609203225
  0
LINE
  5
2F8
100
AcDbEntity
  8
0
100
AcDbLine
 62
7
  6
CONTINUOUS
 10
-49.9928220298
 20
-46.6630516796
 11
-50.0432162798
 21
-46.5122958939
  0
LINE
  5
2F9
100
AcDbEntity
  8
0
100
AcDbLine
 62
7
  6
CONTINUOUS
 10
-50.0426753332
 20
-46.5138556888
 11
-50.1047345785
 21
-46.3258235216
  0
LINE
  5
2FA
100
AcDbEntity
  8
0
100
AcDbLine
 62
7
  6
CONTINUOUS
 10
-50.7047264595
 20
-44.4836981166
 11
-50.7348009448
 21
-44.3918380218
  0
LINE
  5
2FB
100
AcDbEntity
  8
0
100
AcDbLine
 62
7
  6
CONTINUOUS
 10
-50.6754550011
 20
-44.5731545349
 11
-50.7166562622
 21
-44.4473350317
  0
LINE
  5
2FC
100
AcDbEntity
  8
0
100
AcDbLine
 62
7
  6
CONTINUOUS
 10
-50.6607181552
 20
-44.6183357884
 11
-50.6883192412
 21
-44.5339344264
  0
LINE
  5
2FD
100
AcDbEntity
  8
0
100
AcDbLine
 62
7
  6
CONTINUOUS
 10
-50.6330178475
 20
-44.7029593198
 11
-50.6611147405
 21
-44.6170010798
  0
LINE
  5
2FE
100
AcDbEntity
  8
0
100
AcDbLine
 62
7
  6
CONTINUOUS
 10
-50.5947893911
 20
-44.8201369256
 11
-50.6076337685
 21
-44.780800113
  0
LWPOLYLINE
  5
2FF
100
AcDbEntity
  8
0
100
AcDbPolyline
 62
7
  6
CONTINUOUS
 90
3
 70
0
 10
-50.5922972277
 20
-44.8276443246
 10
-50.6056839257
 20
-44.7866427069
 10
-50.6338285186
 20
-44.7006083758
  0
LINE
  5
300
100
AcDbEntity
  8
0
100
AcDbLine
 62
7
  6
CONTINUOUS
 10
-50.5660676486
 20
-44.908006058
 11
-50.5947893911
 21
-44.8201369256
  0
LINE
  5
301
100
AcDbEntity
  8
0
100
AcDbLine
 62
7
  6
CONTINUOUS
 10
-50.5532214134
 20
-44.9473728134
 11
-50.5695998578
 21
-44.8973073078
  0
LINE
  5
302
100
AcDbEntity
  8
0
100
AcDbLine
 62
7
  6
CONTINUOUS
 10
-50.5405498746
 20
-44.9862094597
 11
-50.5572510029
 21
-44.9351493579
  0
LINE
  5
303
100
AcDbEntity
  8
0
100
AcDbLine
 62
7
  6
CONTINUOUS
 10
-50.5157260187
 20
-45.062306824
 11
-50.5450643386
 21
-44.9725000821
  0
LINE
  5
304
100
AcDbEntity
  8
0
100
AcDbLine
 62
7
  6
CONTINUOUS
 10
-50.5035717091
 20
-45.0995737454
 11
-50.52116903
 21
-45.0457522856
  0
LINE
  5
305
100
AcDbEntity
  8
0
100
AcDbLine
 62
7
  6
CONTINUOUS
 10
-50.4915874472
 20
-45.136324988
 11
-50.5094586884
 21
-45.0816584291
  0
LINE
  5
306
100
AcDbEntity
  8
0
100
AcDbLine
 62
7
  6
CONTINUOUS
 10
-50.4681262421
 20
-45.2082902413
 11
-50.4979047262
 21
-45.1170899759
  0
LINE
  5
307
100
AcDbEntity
  8
0
100
AcDbLine
 62
7
  6
CONTINUOUS
 10
-50.4641721082
 20
-45.220564526
 11
-50.4752625508
 21
-45.1865394683
  0
LINE
  5
308
100
AcDbEntity
  8
0
100
AcDbLine
 62
7
  6
CONTINUOUS
 10
-50.4532339354
 20
-45.2541279992
 11
-50.4681262421
 21
-45.2082902413
  0
LINE
  5
309
100
AcDbEntity
  8
0
100
AcDbLine
 62
7
  6
CONTINUOUS
 10
-50.4318115953
 20
-45.3198793986
 11
-50.4566471481
 21
-45.2435112051
  0
LINE
  5
30A
100
AcDbEntity
  8
0
100
AcDbLine
 62
7
  6
CONTINUOUS
 10
-50.4213255869
 20
-45.3520731532
 11
-50.4341872215
 21
-45.3124445949
  0
LINE
  5
30B
100
AcDbEntity
  8
0
100
AcDbLine
 62
7
  6
CONTINUOUS
 10
-50.7311020003
 20
-44.4032118341
 11
-50.8688594623
 21
-43.9819344956
  0
LINE
  5
30C
100
AcDbEntity
  8
0
100
AcDbLine
 62
7
  6
CONTINUOUS
 10
-50.4007994821
 20
-45.4151103847
 11
-50.4232045068
 21
-45.3461626187
  0
LINE
  5
30D
100
AcDbEntity
  8
0
100
AcDbLine
 62
7
  6
CONTINUOUS
 10
-50.3907576179
 20
-45.4459590695
 11
-50.4017275253
 21
-45.4121186769
  0
LINE
  5
30E
100
AcDbEntity
  8
0
100
AcDbLine
 62
7
  6
CONTINUOUS
 10
-50.3707147852
 20
-45.5074045473
 11
-50.3912311353
 21
-45.4443625297
  0
LINE
  5
30F
100
AcDbEntity
  8
0
100
AcDbLine
 62
7
  6
CONTINUOUS
 10
-50.3508247217
 20
-45.568545858
 11
-50.3711105798
 21
-45.5063333082
  0
LINE
  5
310
100
AcDbEntity
  8
0
100
AcDbLine
 62
7
  6
CONTINUOUS
 10
-50.3411070145
 20
-45.5984277707
 11
-50.3520395342
 21
-45.5649619672
  0
LINE
  5
311
100
AcDbEntity
  8
0
100
AcDbLine
 62
7
  6
CONTINUOUS
 10
-50.3244789016
 20
-45.6497381485
 11
-50.3427144295
 21
-45.5936387315
  0
LINE
  5
312
100
AcDbEntity
  8
0
100
AcDbLine
 62
7
  6
CONTINUOUS
 10
-50.1025242108
 20
-46.3326610134
 11
-50.212109099
 21
-45.9965071409
  0
LINE
  5
313
100
AcDbEntity
  8
0
100
AcDbLine
 62
7
  6
CONTINUOUS
 10
-50.205929898
 20
-46.0154192704
 11
-50.2207780474
 21
-45.9695862075
  0
LINE
  5
314
100
AcDbEntity
  8
0
100
AcDbLine
 62
7
  6
CONTINUOUS
 10
-50.2687183327
 20
-45.8214849723
 11
-50.3315377148
 21
-45.6278625271
  0
LINE
  5
315
100
AcDbEntity
  8
0
100
AcDbLine
 62
7
  6
CONTINUOUS
 10
-50.2192523043
 20
-45.9744537511
 11
-50.2361754159
 21
-45.9220265081
  0
LINE
  5
316
100
AcDbEntity
  8
0
100
AcDbLine
 62
7
  6
CONTINUOUS
 10
-50.2361754159
 20
-45.9220265081
 11
-50.272993032
 21
-45.8084033666
  0
LINE
  5
317
100
AcDbEntity
  8
0
100
AcDbLine
 62
7
  6
CONTINUOUS
 10
-50.2265216908
 20
-45.9519992609
 11
-50.2339191612
 21
-45.9291406967
  0
LWPOLYLINE
  5
318
100
AcDbEntity
  8
0
100
AcDbPolyline
 62
7
  6
CONTINUOUS
 90
3
 70
0
 10
-50.2339191612
 20
-45.9291406967
 10
-50.2491249053
 20
-45.8821430266
 10
-50.2569377232
 20
-45.8579974106
  0
LINE
  5
319
100
AcDbEntity
  8
0
100
AcDbLine
 62
7
  6
CONTINUOUS
 10
-50.8626667949
 20
-44.00090318
 11
-50.9513388527
 21
-43.7273048393
  0
LINE
  5
31A
100
AcDbEntity
  8
0
100
AcDbLine
 62
7
  6
CONTINUOUS
 10
-50.9485872391
 20
-43.7357770074
 11
-51.038505147
 21
-43.4558325275
  0
LINE
  5
31B
100
AcDbEntity
  8
0
100
AcDbLine
 62
7
  6
CONTINUOUS
 10
-51.0210057109
 20
-43.5104919687
 11
-51.1118060756
 21
-43.2257370809
  0
LINE
  5
31C
100
AcDbEntity
  8
0
100
AcDbLine
 62
7
  6
CONTINUOUS
 10
-51.0968623658
 20
-43.2727551616
 11
-51.1968145912
 21
-42.9570144458
  0
LINE
  5
31D
100
AcDbEntity
  8
0
100
AcDbLine
 62
7
  6
CONTINUOUS
 10
-51.1884539532
 20
-42.983526274
 11
-51.302840871
 21
-42.6195687124
  0
LINE
  5
31E
100
AcDbEntity
  8
0
100
AcDbLine
 62
7
  6
CONTINUOUS
 10
-51.2892543942
 20
-42.6629229943
 11
-51.3922447795
 21
-42.3333082224
  0
LINE
  5
31F
100
AcDbEntity
  8
0
100
AcDbLine
 62
7
  6
CONTINUOUS
 10
-51.3740713374
 20
-42.3916501164
 11
-51.4202251609
 21
-42.2432808427
  0
LINE
  5
320
100
AcDbEntity
  8
0
100
AcDbLine
 62
7
  6
CONTINUOUS
 10
-51.4201980219
 20
-42.2433650734
 11
-51.4845620645
 21
-42.0327495982
  0
LINE
  5
321
100
AcDbEntity
  8
0
100
AcDbLine
 62
7
  6
CONTINUOUS
 10
-51.4831399668
 20
-42.0374638033
 11
-51.5646754747
 21
-41.7604990741
  0
LINE
  5
322
100
AcDbEntity
  8
0
100
AcDbLine
 62
7
  6
CONTINUOUS
 10
-51.5634483918
 20
-41.7647425947
 11
-51.6422810006
 21
-41.4842660035
  0
LINE
  5
323
100
AcDbEntity
  8
0
100
AcDbLine
 62
7
  6
CONTINUOUS
 10
-51.6412316999
 20
-41.4880671602
 11
-51.717253665
 21
-41.2039398007
  0
LINE
  5
324
100
AcDbEntity
  8
0
100
AcDbLine
 62
7
  6
CONTINUOUS
 10
-61.354839591
 20
-5.2
 11
-61.354839591
 21
-5.15
  0
LINE
  5
325
100
AcDbEntity
  8
0
100
AcDbLine
 62
250
  6
CONTINUOUS
 10
-60.2723413254
 20
-5.2
 11
-60.2723413254
 21
-5.15
  0
LINE
  5
326
100
AcDbEntity
  8
0
100
AcDbLine
 62
250
  6
CONTINUOUS
 10
-60.2074364791
 20
-5.3
 11
-60.2074021204
 21
-55.394975151
  0
LINE
  5
327
100
AcDbEntity
  8
0
100
AcDbLine
 62
7
  6
CONTINUOUS
 10
-59.5674364791
 20
-5.4778273034
 11
-59.5674364791
 21
-5.3
  0
LINE
  5
328
100
AcDbEntity
  8
0
100
AcDbLine
 62
7
  6
CONTINUOUS
 10
-59.4879027324
 20
-5.2
 11
-59.4879027324
 21
-5.15
  0
LINE
  5
329
100
AcDbEntity
  8
0
100
AcDbLine
 62
7
  6
CONTINUOUS
 10
-59.4674364791
 20
-5.5
 11
-59.4674364791
 21
-58.55
  0
LINE
  5
32A
100
AcDbEntity
  8
0
100
AcDbLine
 62
7
  6
CONTINUOUS
 10
-59.4642691017
 20
-5.2
 11
-59.4642691017
 21
-5.15
  0
LINE
  5
32B
100
AcDbEntity
  8
0
100
AcDbLine
 62
7
  6
CONTINUOUS
 10
-59.3674364791
 20
-5.3
 11
-59.3674364791
 21
-5.4778273034
  0
LINE
  5
32C
100
AcDbEntity
  8
0
100
AcDbLine
 62
250
  6
CONTINUOUS
 10
-57.4441635223
 20
-5.2
 11
-57.4441635223
 21
-5.15
  0
LINE
  5
32D
100
AcDbEntity
  8
0
100
AcDbLine
 62
7
  6
CONTINUOUS
 10
-57.3101678062
 20
-5.2
 11
-57.3101678062
 21
-5.15
  0
LINE
  5
32E
100
AcDbEntity
  8
0
100
AcDbLine
 62
250
  6
CONTINUOUS
 10
-58.7274708378
 20
-55.394975151
 11
-58.7274364791
 21
-5.3
  0
LINE
  5
32F
100
AcDbEntity
  8
0
100
AcDbLine
 62
7
  6
CONTINUOUS
 10
-66.6182181079
 20
-38.0308897412
 11
-66.6518411914
 21
-38.3003192904
  0
LINE
  5
330
100
AcDbEntity
  8
0
100
AcDbLine
 62
7
  6
CONTINUOUS
 10
-66.6515463102
 20
-38.2980930038
 11
-66.6895625861
 21
-38.5759510887
  0
LWPOLYLINE
  5
331
100
AcDbEntity
  8
0
100
AcDbPolyline
 62
7
  6
CONTINUOUS
 90
4
 70
0
 10
-66.689209576
 20
-38.573515257
 10
-66.7319418253
 20
-38.860039737
 10
-66.7790902536
 20
-39.1514197743
 10
-66.8313663798
 20
-39.4506147125
  0
LWPOLYLINE
  5
332
100
AcDbEntity
  8
0
100
AcDbPolyline
 62
7
  6
CONTINUOUS
 90
3
 70
0
 10
-66.7315216193
 20
-38.8573730657
 10
-66.778593268
 20
-39.1485057066
 10
-66.83078346
 20
-39.4474395117
  0
LINE
  5
333
100
AcDbEntity
  8
0
100
AcDbLine
 62
7
  6
CONTINUOUS
 10
-66.83078346
 20
-39.4474395117
 11
-66.8891286221
 21
-39.7579427871
  0
LINE
  5
334
100
AcDbEntity
  8
0
100
AcDbLine
 62
7
  6
CONTINUOUS
 10
-66.8884481477
 20
-39.7544877629
 11
-66.9523537997
 21
-40.0715962155
  0
LINE
  5
335
100
AcDbEntity
  8
0
100
AcDbLine
 62
7
  6
CONTINUOUS
 10
-66.9515653644
 20
-40.0678520729
 11
-67.0207465361
 21
-40.3888386863
  0
LINE
  5
336
100
AcDbEntity
  8
0
100
AcDbLine
 62
7
  6
CONTINUOUS
 10
-67.0198437704
 20
-40.3848173261
 11
-67.0943783738
 21
-40.7089588887
  0
LINE
  5
337
100
AcDbEntity
  8
0
100
AcDbLine
 62
7
  6
CONTINUOUS
 10
-67.0933549668
 20
-40.704675541
 11
-67.1732725874
 21
-41.0310906022
  0
LWPOLYLINE
  5
338
100
AcDbEntity
  8
0
100
AcDbPolyline
 62
7
  6
CONTINUOUS
 90
5
 70
0
 43
0.3500000006
 10
-54.1902549133
 20
6.8460182648
 10
-53.8331080627
 20
7.0603050156
 10
-53.8331080627
 20
7.703163002
 10
-54.1902549133
 20
8.1317342377
 10
-55.0473973846
 20
8.1317342377
  0
LINE
  5
339
100
AcDbEntity
  8
0
100
AcDbLine
 62
7
  6
CONTINUOUS
 10
-51.716363054
 20
-41.2073293532
 11
-51.7894222271
 21
-40.9197701126
  0
LWPOLYLINE
  5
33A
100
AcDbEntity
  8
0
100
AcDbPolyline
 62
7
  6
CONTINUOUS
 90
3
 70
0
 10
-51.7886721005
 20
-40.9227760005
 10
-51.8585141257
 20
-40.6325087032
 10
-51.9244141454
 20
-40.3424608537
  0
LINE
  5
33B
100
AcDbEntity
  8
0
100
AcDbLine
 62
7
  6
CONTINUOUS
 10
-51.8578889001
 20
-40.6351510576
 11
-51.9238983353
 21
-40.3447639102
  0
LWPOLYLINE
  5
33C
100
AcDbEntity
  8
0
100
AcDbPolyline
 62
7
  6
CONTINUOUS
 90
3
 70
0
 10
-51.9238983353
 20
-40.3447639102
 10
-51.9870161473
 20
-40.0500179859
 10
-52.0460866531
 20
-39.7562258206
  0
LINE
  5
33D
100
AcDbEntity
  8
0
100
AcDbLine
 62
7
  6
CONTINUOUS
 10
-51.9865948935
 20
-40.0520082815
 11
-52.0457473592
 21
-39.7579272526
  0
LWPOLYLINE
  5
33E
100
AcDbEntity
  8
0
100
AcDbPolyline
 62
7
  6
CONTINUOUS
 90
5
 70
0
 10
-52.0457473592
 20
-39.7579272526
 10
-52.1015369033
 20
-39.4615106447
 10
-52.1532829658
 20
-39.1662953493
 10
-52.2011325747
 20
-38.8716315989
 10
-52.2450407515
 20
-38.5778718833
  0
LWPOLYLINE
  5
33F
100
AcDbEntity
  8
0
100
AcDbPolyline
 62
7
  6
CONTINUOUS
 90
4
 70
0
 10
-52.1012677459
 20
-39.462949299
 10
-52.1530724027
 20
-39.1675001829
 10
-52.2009714067
 20
-38.8726268306
 10
-52.2449194632
 20
-38.5786848847
  0
LWPOLYLINE
  5
340
100
AcDbEntity
  8
0
100
AcDbPolyline
 62
7
  6
CONTINUOUS
 90
3
 70
0
 10
-52.2449194632
 20
-38.5786848847
 10
-52.284982564
 20
-38.2853926025
 10
-52.320857164
 20
-37.9952706348
  0
LINE
  5
341
100
AcDbEntity
  8
0
100
AcDbLine
 62
7
  6
CONTINUOUS
 10
-52.2848930503
 20
-38.2860511875
 11
-52.320792791
 21
-37.9957964551
  0
LINE
  5
342
100
AcDbEntity
  8
0
100
AcDbLine
 62
7
  6
CONTINUOUS
 10
-52.3526353345
 20
-37.7082560469
 11
-52.3804767814
 21
-37.4234270722
  0
LWPOLYLINE
  5
343
100
AcDbEntity
  8
0
100
AcDbPolyline
 62
7
  6
CONTINUOUS
 90
3
 70
0
 10
-52.3804457768
 20
-37.4237555088
 10
-52.4042261304
 20
-37.1430723305
 10
-52.4238991626
 20
-36.8686213753
  0
LINE
  5
344
100
AcDbEntity
  8
0
100
AcDbLine
 62
7
  6
CONTINUOUS
 10
-52.4238991626
 20
-36.8686213753
 11
-52.4342906947
 21
-36.6932192176
  0
LWPOLYLINE
  5
345
100
AcDbEntity
  8
0
100
AcDbPolyline
 62
7
  6
CONTINUOUS
 90
3
 70
0
 10
-52.4346140734
 20
-36.6932383064
 10
-52.4380535182
 20
-36.6288060197
 10
-52.4408161391
 20
-36.5712108633
  0
LWPOLYLINE
  5
346
100
AcDbEntity
  8
0
100
AcDbPolyline
 62
7
  6
CONTINUOUS
 90
6
 70
0
 10
-52.4408161391
 20
-36.5712108633
 10
-52.4469352034
 20
-36.4229839257
 10
-52.4501365948
 20
-36.3321579186
 10
-52.4533445157
 20
-36.2299136747
 10
-52.4565006098
 20
-36.115987065
 10
-52.4595307286
 20
-35.9910072135
  0
LWPOLYLINE
  5
347
100
AcDbEntity
  8
0
100
AcDbPolyline
 62
7
  6
CONTINUOUS
 90
3
 70
0
 10
-52.4595307286
 20
-35.9910072135
 10
-52.4623843309
 20
-35.8552083361
 10
-52.4650304433
 20
-35.7082278992
  0
LINE
  5
348
100
AcDbEntity
  8
0
100
AcDbLine
 62
7
  6
CONTINUOUS
 10
-52.4650304433
 20
-35.7082278992
 11
-52.4674364791
 21
-35.55
  0
LINE
  5
349
100
AcDbEntity
  8
RACCORDO
100
AcDbLine
 62
7
  6
CONTINUOUS
 10
-52.2945011926
 20
-9.1986910197
 11
-52.2674364791
 21
-12.3
  0
LINE
  5
34A
100
AcDbEntity
  8
0
100
AcDbLine
 62
7
  6
CONTINUOUS
 10
-54.3674364791
 20
-57.75
 11
-54.3674364791
 21
-57.2
  0
LINE
  5
34B
100
AcDbEntity
  8
0
100
AcDbLine
 62
7
  6
CONTINUOUS
 10
-54.1674364791
 20
-5.0
 11
-54.1674364791
 21
-5.3
  0
LINE
  5
34C
100
AcDbEntity
  8
0
100
AcDbLine
 62
7
  6
CONTINUOUS
 10
-53.4674364791
 20
-56.2513167019
 11
-53.4674364791
 21
-55.4568068006
  0
LINE
  5
34D
100
AcDbEntity
  8
0
100
AcDbLine
 62
250
  6
CONTINUOUS
 10
-53.3782839367
 20
-5.8
 11
-53.3782839367
 21
-35.6380408142
  0
LINE
  5
34E
100
AcDbEntity
  8
0
100
AcDbLine
 62
7
  6
CONTINUOUS
 10
-52.4674364791
 20
-5.8
 11
-52.4674364791
 21
-35.5499514097
  0
LINE
  5
34F
100
AcDbEntity
  8
0
100
AcDbLine
 62
7
  6
CONTINUOUS
 10
-52.4374364791
 20
-32.4262973762
 11
-52.4374364791
 21
-36.6424870045
  0
LINE
  5
350
100
AcDbEntity
  8
0
100
AcDbLine
 62
7
  6
CONTINUOUS
 10
-52.4174364791
 20
-27.5
 11
-52.4174364791
 21
-20.499453
  0
LINE
  5
351
100
AcDbEntity
  8
RACCORDO
100
AcDbLine
 62
7
  6
CONTINUOUS
 10
-52.2674364791
 20
-12.3
 11
-52.2945011926
 21
-15.4013089803
  0
LINE
  5
352
100
AcDbEntity
  8
0
100
AcDbLine
 62
7
  6
CONTINUOUS
 10
-67.1721227466
 20
-41.0265611263
 11
-67.2568808076
 21
-41.3524776013
  0
LINE
  5
353
100
AcDbEntity
  8
0
100
AcDbLine
 62
7
  6
CONTINUOUS
 10
-67.2556046614
 20
-41.3477358722
 11
-67.3449408644
 21
-41.6720195611
  0
LINE
  5
354
100
AcDbEntity
  8
0
100
AcDbLine
 62
7
  6
CONTINUOUS
 10
-67.3435406955
 20
-41.6670982968
 11
-67.4375100368
 21
-41.9900304829
  0
LINE
  5
355
100
AcDbEntity
  8
0
100
AcDbLine
 62
7
  6
CONTINUOUS
 10
-67.4359893536
 20
-41.9849523697
 11
-67.5146705198
 21
-42.2433541088
  0
LINE
  5
356
100
AcDbEntity
  8
0
100
AcDbLine
 62
7
  6
CONTINUOUS
 10
-67.4375100368
 20
-41.9900304829
 11
-67.5146774999
 21
-42.2433733444
  0
LINE
  5
357
100
AcDbEntity
  8
0
100
AcDbLine
 62
7
  6
CONTINUOUS
 10
-67.5146487023
 20
-42.2432837594
 11
-67.6122541702
 21
-42.5563828717
  0
LINE
  5
358
100
AcDbEntity
  8
0
100
AcDbLine
 62
7
  6
CONTINUOUS
 10
-67.5968541907
 20
-42.5071433871
 11
-67.7156187265
 21
-42.8857870524
  0
LINE
  5
359
100
AcDbEntity
  8
0
100
AcDbLine
 62
7
  6
CONTINUOUS
 10
-67.7014626497
 20
-42.8407933691
 11
-67.8052761173
 21
-43.1696435119
  0
LINE
  5
35A
100
AcDbEntity
  8
0
100
AcDbLine
 62
7
  6
CONTINUOUS
 10
-67.7864581148
 20
-43.110244387
 11
-67.8674679138
 21
-43.3653038686
  0
LINE
  5
35B
100
AcDbEntity
  8
0
100
AcDbLine
 62
7
  6
CONTINUOUS
 10
-67.848409734
 20
-43.305447986
 11
-67.9314458525
 21
-43.5653305119
  0
LINE
  5
35C
100
AcDbEntity
  8
0
100
AcDbLine
 62
7
  6
CONTINUOUS
 10
-67.9257291053
 20
-43.5475447632
 11
-68.0103147568
 21
-43.8101594251
  0
LINE
  5
35D
100
AcDbEntity
  8
0
100
AcDbLine
 62
7
  6
CONTINUOUS
 10
-68.676184822
 20
-45.8525885131
 11
-68.7087386724
 21
-45.9531961601
  0
LWPOLYLINE
  5
35E
100
AcDbEntity
  8
0
100
AcDbPolyline
 62
7
  6
CONTINUOUS
 90
3
 70
0
 10
-68.6907469468
 20
-45.8974614598
 10
-68.6993520078
 20
-45.9240484803
 10
-68.7077900953
 20
-45.9501148298
  0
LINE
  5
35F
100
AcDbEntity
  8
0
100
AcDbLine
 62
7
  6
CONTINUOUS
 10
-68.6035120086
 20
-45.6285624819
 11
-68.6819684467
 21
-45.8703373409
  0
LWPOLYLINE
  5
360
100
AcDbEntity
  8
0
100
AcDbPolyline
 62
7
  6
CONTINUOUS
 90
3
 70
0
 10
-68.573735184
 20
-45.5369888371
 10
-68.583819746
 20
-45.5679948283
 10
-68.6052992293
 20
-45.6339050164
  0
LWPOLYLINE
  5
361
100
AcDbEntity
  8
0
100
AcDbPolyline
 62
7
  6
CONTINUOUS
 90
3
 70
0
 10
-68.57366305
 20
-45.5366191374
 10
-68.5843831617
 20
-45.5695756227
 10
-68.5949278296
 20
-45.602001146
  0
LINE
  5
362
100
AcDbEntity
  8
0
100
AcDbLine
 62
7
  6
CONTINUOUS
 10
-68.5516708708
 20
-45.4690310981
 11
-68.5627598105
 21
-45.5031069345
  0
LWPOLYLINE
  5
363
100
AcDbEntity
  8
0
100
AcDbPolyline
 62
7
  6
CONTINUOUS
 90
3
 70
0
 10
-68.5425074245
 20
-45.4410191194
 10
-68.5530820211
 20
-45.4735101073
 10
-68.573735184
 20
-45.5369888371
  0
LINE
  5
364
100
AcDbEntity
  8
0
100
AcDbLine
 62
7
  6
CONTINUOUS
 10
-68.5289305455
 20
-45.3991726846
 11
-68.5516708708
 21
-45.4690310981
  0
LINE
  5
365
100
AcDbEntity
  8
0
100
AcDbLine
 62
7
  6
CONTINUOUS
 10
-68.5172724928
 20
-45.3633702087
 11
-68.5317661952
 21
-45.4080232768
  0
LINE
  5
366
100
AcDbEntity
  8
0
100
AcDbLine
 62
7
  6
CONTINUOUS
 10
-68.0002000659
 20
-43.7789315209
 11
-68.0883504613
 21
-44.0505240941
  0
LWPOLYLINE
  5
367
100
AcDbEntity
  8
0
100
AcDbPolyline
 62
7
  6
CONTINUOUS
 90
3
 70
0
 10
-68.4811251094
 20
-45.2524081226
 10
-68.4933722123
 20
-45.2899950982
 10
-68.5208555159
 20
-45.3745141188
  0
LWPOLYLINE
  5
368
100
AcDbEntity
  8
0
100
AcDbPolyline
 62
7
  6
CONTINUOUS
 90
3
 70
0
 10
-68.4754899547
 20
-45.2352590521
 10
-68.4870929887
 20
-45.2708655337
 10
-68.4985206831
 20
-45.3059406871
  0
LINE
  5
369
100
AcDbEntity
  8
0
100
AcDbLine
 62
7
  6
CONTINUOUS
 10
-68.4517511732
 20
-45.1624308415
 11
-68.4811251094
 21
-45.2524081226
  0
LINE
  5
36A
100
AcDbEntity
  8
0
100
AcDbLine
 62
7
  6
CONTINUOUS
 10
-68.4396116596
 20
-45.1251970429
 11
-68.4560282276
 21
-45.1754089772
  0
LINE
  5
36B
100
AcDbEntity
  8
0
100
AcDbLine
 62
7
  6
CONTINUOUS
 10
-68.4147838816
 20
-45.0490634218
 11
-68.4431742909
 21
-45.1359838898
  0
LINE
  5
36C
100
AcDbEntity
  8
0
100
AcDbLine
 62
7
  6
CONTINUOUS
 10
-68.4020909444
 20
-45.0101495455
 11
-68.4168458446
 21
-45.0552519389
  0
LINE
  5
36D
100
AcDbEntity
  8
0
100
AcDbLine
 62
7
  6
CONTINUOUS
 10
-68.3892102677
 20
-44.9706660729
 11
-68.4033670372
 21
-45.013931226
  0
LINE
  5
36E
100
AcDbEntity
  8
0
100
AcDbLine
 62
7
  6
CONTINUOUS
 10
-68.3616431468
 20
-44.8860602588
 11
-68.3896764309
 21
-44.9719674588
  0
LINE
  5
36F
100
AcDbEntity
  8
0
100
AcDbLine
 62
7
  6
CONTINUOUS
 10
-68.3472975241
 20
-44.842108823
 11
-68.3628718518
 21
-44.8899495808
  0
LINE
  5
370
100
AcDbEntity
  8
0
100
AcDbLine
 62
7
  6
CONTINUOUS
 10
-68.3179175973
 20
-44.752128485
 11
-68.349411215
 21
-44.8487093222
  0
LINE
  5
371
100
AcDbEntity
  8
0
100
AcDbLine
 62
7
  6
CONTINUOUS
 10
-68.2935446715
 20
-44.6776570187
 11
-68.3218880294
 21
-44.7644147191
  0
LINE
  5
372
100
AcDbEntity
  8
0
100
AcDbLine
 62
7
  6
CONTINUOUS
 10
-68.7077900953
 20
-45.9501148298
 11
-68.7993125809
 21
-46.231833652
  0
LINE
  5
373
100
AcDbEntity
  8
0
100
AcDbLine
 62
7
  6
CONTINUOUS
 10
-68.2643563875
 20
-44.5883677453
 11
-68.3028770944
 21
-44.7060871449
  0
LINE
  5
374
100
AcDbEntity
  8
0
100
AcDbLine
 62
7
  6
CONTINUOUS
 10
-68.2189271138
 20
-44.4495053845
 11
-68.2720722187
 21
-44.6118451338
  0
LINE
  5
375
100
AcDbEntity
  8
0
100
AcDbLine
 62
7
  6
CONTINUOUS
 10
-68.1907355449
 20
-44.3633308742
 11
-68.2240161286
 21
-44.4649694066
  0
LINE
  5
376
100
AcDbEntity
  8
0
100
AcDbLine
 62
7
  6
CONTINUOUS
 10
-68.0852019273
 20
-44.0407971272
 11
-68.2033395688
 21
-44.401894474
  0
LINE
  5
377
100
AcDbEntity
  8
0
100
AcDbLine
 62
7
  6
CONTINUOUS
 10
-68.7970551387
 20
-46.2248082871
 11
-68.8700141034
 21
-46.4469774101
  0
LWPOLYLINE
  5
378
100
AcDbEntity
  8
0
100
AcDbPolyline
 62
7
  6
CONTINUOUS
 90
3
 70
0
 43
0.3500000006
 10
-50.0473958588
 20
5.4174467239
 10
-50.1188225098
 20
5.2031622391
 10
-50.2616803436
 20
4.9174488373
  0
LINE
  5
379
100
AcDbEntity
  8
0
100
AcDbLine
 62
7
  6
CONTINUOUS
 10
-68.8671029253
 20
-46.4380846131
 11
-68.9238680598
 21
-46.6088672066
  0
LINE
  5
37A
100
AcDbEntity
  8
0
100
AcDbLine
 62
7
  6
CONTINUOUS
 10
-68.9231595582
 20
-46.6067999515
 11
-68.9585644053
 21
-46.711862636
  0
LINE
  5
37B
100
AcDbEntity
  8
0
100
AcDbLine
 62
7
  6
CONTINUOUS
 10
-68.9583132398
 20
-46.7111022862
 11
-68.9759488211
 21
-46.7627032351
  0
LINE
  5
37C
100
AcDbEntity
  8
0
100
AcDbLine
 62
7
  6
CONTINUOUS
 10
-68.9747308434
 20
-46.7591546711
 11
-68.9860381559
 21
-46.791795842
  0
LINE
  5
37D
100
AcDbEntity
  8
0
100
AcDbLine
 62
7
  6
CONTINUOUS
 10
-68.9856856403
 20
-46.7907934654
 11
-68.9925770037
 21
-46.8103859834
  0
LINE
  5
37E
100
AcDbEntity
  8
0
100
AcDbLine
 62
7
  6
CONTINUOUS
 10
-68.9925770037
 20
-46.8103859834
 11
-68.9964815457
 21
-46.8213270347
  0
LINE
  5
37F
100
AcDbEntity
  8
0
100
AcDbLine
 62
7
  6
CONTINUOUS
 10
-68.9964815457
 20
-46.8213270347
 11
-68.9985192407
 21
-46.8269553303
  0
LINE
  5
380
100
AcDbEntity
  8
0
100
AcDbLine
 62
7
  6
CONTINUOUS
 10
-68.9985192407
 20
-46.8269553303
 11
-68.9995608146
 21
-46.8297916353
  0
LWPOLYLINE
  5
381
100
AcDbEntity
  8
0
100
AcDbPolyline
 62
7
  6
CONTINUOUS
 90
10
 70
0
 43
0.3500000006
 10
-47.9759685974
 20
8.1317342377
 10
-48.6188265839
 20
7.4888762512
 10
-49.0473955536
 20
6.6317337799
 10
-49.0473955536
 20
5.5603045578
 10
-48.6188265839
 20
5.1317333221
 10
-47.9759685974
 20
5.1317333221
 10
-47.5473950958
 20
5.5603045578
 10
-47.5473950958
 20
6.4174470291
 10
-47.9759685974
 20
6.8460182648
 10
-48.9045377197
 20
6.8460182648
  0
LWPOLYLINE
  5
382
100
AcDbEntity
  8
0
100
AcDbPolyline
 62
7
  6
CONTINUOUS
 90
6
 70
0
 43
0.3500000006
 10
-55.0473973846
 20
5.1317333221
 10
-53.9759658966
 20
5.1317333221
 10
-53.7616814117
 20
5.3460200729
 10
-53.7616814117
 20
6.4174470291
 10
-54.1902549133
 20
6.8460182648
 10
-54.6188238831
 20
6.8460182648
  0
LWPOLYLINE
  5
383
100
AcDbEntity
  8
0
100
AcDbPolyline
 62
7
  6
CONTINUOUS
 90
8
 70
0
 43
0.3500000006
 10
-52.9045389404
 20
5.1317333221
 10
-52.0473964691
 20
5.1317333221
 10
-51.6188229675
 20
5.5603045578
 10
-51.6188229675
 20
6.4174470291
 10
-52.0473964691
 20
6.8460182648
 10
-52.9045389404
 20
6.8460182648
 10
-52.9045389404
 20
8.1317342377
 10
-51.6188229675
 20
8.1317342377
  0
LINE
  5
384
100
AcDbEntity
  8
0
100
AcDbLine
 62
7
  6
CONTINUOUS
 10
-52.320792791
 20
-37.9957964551
 11
-52.3526804561
 21
-37.7078404569
  0
LWPOLYLINE
  5
385
100
AcDbEntity
  8
0
100
AcDbPolyline
 62
7
  6
CONTINUOUS
 90
10
 70
0
 43
0.3500000006
 10
-50.1188225098
 20
5.6317334747
 10
-50.0473958588
 20
5.4888756409
 10
-50.0473958588
 20
5.4174467239
 10
-50.1902536926
 20
5.274591156
 10
-50.2616803436
 20
5.274591156
 10
-50.3331115265
 20
5.3460200729
 10
-50.3331115265
 20
5.4174467239
 10
-50.2616803436
 20
5.5603045578
 10
-50.1902536926
 20
5.6317334747
 10
-50.1188225098
 20
5.6317334747
  0
LINE
  5
386
100
AcDbEntity
  8
0
100
AcDbLine
 62
7
  6
CONTINUOUS
 10
-42.4674364791
 20
-10.35
 11
-42.4674364791
 21
-14.25
  0
LINE
  5
387
100
AcDbEntity
  8
0
100
AcDbLine
 62
7
  6
CONTINUOUS
 10
-42.4241352089
 20
-14.275
 11
-42.4241352089
 21
-10.325
  0
LINE
  5
388
100
AcDbEntity
  8
0
100
AcDbLine
 62
7
  6
CONTINUOUS
 10
-41.9674364791
 20
-10.3
 11
-41.9674364791
 21
-14.3
  0
LINE
  5
389
100
AcDbEntity
  8
0
100
AcDbLine
 62
7
  6
CONTINUOUS
 10
-42.4674364791
 20
-10.35
 11
-42.4241352089
 21
-10.325
  0
LINE
  5
38A
100
AcDbEntity
  8
0
100
AcDbLine
 62
7
  6
CONTINUOUS
 10
-34.7509213401
 20
-14.3
 11
-34.7509213401
 21
-10.3
  0
LINE
  5
38B
100
AcDbEntity
  8
0
100
AcDbLine
 62
7
  6
CONTINUOUS
 10
-34.3509213401
 20
-14.0613583632
 11
-34.3509213401
 21
-14.3
  0
LINE
  5
38C
100
AcDbEntity
  8
0
100
AcDbLine
 62
7
  6
CONTINUOUS
 10
-34.3509213401
 20
-10.5386416368
 11
-34.3509213401
 21
-10.3
  0
ARC
  5
38D
100
AcDbEntity
  8
0
100
AcDbCircle
 62
7
  6
CONTINUOUS
 10
-1.6405781101
 20
-308.8363389637
 40
273.5584345156
100
AcDbArc
 50
89.8962112729
 51
90.0438329248
  0
ARC
  5
38E
100
AcDbEntity
  8
0
100
AcDbCircle
 62
7
  6
CONTINUOUS
 10
-12.8423317793
 20
-100.6141893354
 40
67.4126885986
100
AcDbArc
 50
77.4116980395
 51
77.9722293128
  0
ARC
  5
38F
100
AcDbEntity
  8
0
100
AcDbCircle
 62
7
  6
CONTINUOUS
 10
-13.1400071225
 20
-41.2747376401
 40
15.4173565774
100
AcDbArc
 50
26.5084844057
 51
26.9750893129
  0
ARC
  5
390
100
AcDbEntity
  8
0
100
AcDbCircle
 62
7
  6
CONTINUOUS
 10
-7.6271162601
 20
-50.2967955873
 40
5.0
100
AcDbArc
 50
200.7411512452
 51
266.1971949475
  0
ARC
  5
391
100
AcDbEntity
  8
0
100
AcDbCircle
 62
250
  6
CONTINUOUS
 10
-7.637695311
 20
-50.3095720457
 40
4.7229824282
100
AcDbArc
 50
200.6403578678
 51
266.3149745753
  0
ARC
  5
392
100
AcDbEntity
  8
0
100
AcDbCircle
 62
7
  6
CONTINUOUS
 10
-5.2
 20
-56.2513167019
 40
0.8
100
AcDbArc
 50
180.0
 51
266.9830386902
  0
ARC
  5
393
100
AcDbEntity
  8
0
100
AcDbCircle
 62
7
  6
CONTINUOUS
 10
-4.3
 20
-57.75
 40
0.8
100
AcDbArc
 50
180.0
 51
270.0
  0
ARC
  5
394
100
AcDbEntity
  8
0
100
AcDbCircle
 62
7
  6
CONTINUOUS
 10
-5.25
 20
-57.2
 40
0.15
100
AcDbArc
 50
0.0
 51
86.9830386902
  0
ARC
  5
395
100
AcDbEntity
  8
0
100
AcDbCircle
 62
7
  6
CONTINUOUS
 10
-6.1499999832
 20
-55.5424997696
 40
0.1499999996
100
AcDbArc
 50
0.0000015311
 51
87.065981746
  0
ARC
  5
396
100
AcDbEntity
  8
0
100
AcDbCircle
 62
250
  6
CONTINUOUS
 10
-0.0367292117
 20
66.7853215879
 40
122.0643003932
100
AcDbArc
 50
266.2870989848
 51
270.017240332
  0
ARC
  5
397
100
AcDbEntity
  8
0
100
AcDbCircle
 62
7
  6
CONTINUOUS
 10
-44.65
 20
-30.5
 40
60.9
100
AcDbArc
 50
339.2588487548
 51
360.0
  0
ARC
  5
398
100
AcDbEntity
  8
0
100
AcDbCircle
 62
250
  6
CONTINUOUS
 10
-44.65
 20
-30.5
 40
60.6610790321
100
AcDbArc
 50
355.1411811248
 51
360.0
  0
ARC
  5
399
100
AcDbEntity
  8
0
100
AcDbCircle
 62
250
  6
CONTINUOUS
 10
-44.3608953283
 20
-30.449485648
 40
60.3773382419
100
AcDbArc
 50
343.8367486337
 51
355.0701795888
  0
ARC
  5
39A
100
AcDbEntity
  8
0
100
AcDbCircle
 62
7
  6
CONTINUOUS
 10
-11.2206782991
 20
23.1992247192
 40
59.920317261
100
AcDbArc
 50
281.9689759906
 51
282.599315071
  0
ARC
  5
39B
100
AcDbEntity
  8
0
100
AcDbCircle
 62
250
  6
CONTINUOUS
 10
-44.65
 20
-30.5
 40
59.6650610482
100
AcDbArc
 50
355.1447718864
 51
360.0
  0
ARC
  5
39C
100
AcDbEntity
  8
0
100
AcDbCircle
 62
7
  6
CONTINUOUS
 10
-13.1448965078
 20
-28.822957084
 40
15.4227605376
100
AcDbArc
 50
333.0255114743
 51
333.4919598786
  0
ARC
  5
39D
100
AcDbEntity
  8
0
100
AcDbCircle
 62
7
  6
CONTINUOUS
 10
-15.75
 20
-5.8
 40
0.5
100
AcDbArc
 50
90.0
 51
180.0
  0
ARC
  5
39E
100
AcDbEntity
  8
0
100
AcDbCircle
 62
7
  6
CONTINUOUS
 10
4.3
 20
-57.75
 40
0.8
100
AcDbArc
 50
270.0
 51
360.0
  0
ARC
  5
39F
100
AcDbEntity
  8
0
100
AcDbCircle
 62
7
  6
CONTINUOUS
 10
5.25
 20
-57.2
 40
0.15
100
AcDbArc
 50
93.0169613098
 51
180.0
  0
ARC
  5
3A0
100
AcDbEntity
  8
0
100
AcDbCircle
 62
7
  6
CONTINUOUS
 10
5.2
 20
-56.2513167019
 40
0.8
100
AcDbArc
 50
273.0169613098
 51
360.0
  0
ARC
  5
3A1
100
AcDbEntity
  8
0
100
AcDbCircle
 62
7
  6
CONTINUOUS
 10
6.1499999831
 20
-55.5424997699
 40
0.1499999996
100
AcDbArc
 50
92.9340182044
 51
179.9999983803
  0
ARC
  5
3A2
100
AcDbEntity
  8
0
100
AcDbCircle
 62
7
  6
CONTINUOUS
 10
7.6271162601
 20
-50.2967955873
 40
5.0
100
AcDbArc
 50
273.8028050525
 51
339.2588487548
  0
ARC
  5
3A3
100
AcDbEntity
  8
0
100
AcDbCircle
 62
250
  6
CONTINUOUS
 10
7.6376954227
 20
-50.3095721788
 40
4.7229822741
100
AcDbArc
 50
273.6850288018
 51
339.3595440782
  0
ARC
  5
3A4
100
AcDbEntity
  8
0
100
AcDbCircle
 62
7
  6
CONTINUOUS
 10
11.2206785847
 20
-93.2992261223
 40
59.9203186918
100
AcDbArc
 50
101.9689759818
 51
102.5993150451
  0
ARC
  5
3A5
100
AcDbEntity
  8
0
100
AcDbCircle
 62
7
  6
CONTINUOUS
 10
13.1448965078
 20
-41.277042916
 40
15.4227605376
100
AcDbArc
 50
153.0255114743
 51
153.4919598786
  0
CIRCLE
  5
3A6
100
AcDbEntity
  8
0
100
AcDbCircle
 62
250
  6
CONTINUOUS
 10
0.0
 20
-35.05
 40
3.5
  0
CIRCLE
  5
3A7
100
AcDbEntity
  8
0
100
AcDbCircle
 62
7
  6
CONTINUOUS
 10
0.0
 20
-35.05
 40
3.0
  0
CIRCLE
  5
3A8
100
AcDbEntity
  8
0
100
AcDbCircle
 62
7
  6
CONTINUOUS
 10
0.0
 20
-35.05
 40
2.75
  0
ARC
  5
3A9
100
AcDbEntity
  8
0
100
AcDbCircle
 62
7
  6
CONTINUOUS
 10
0.0
 20
-35.05
 40
2.6625113365
100
AcDbArc
 50
76.9764719153
 51
103.0235280847
  0
ARC
  5
3AA
100
AcDbEntity
  8
0
100
AcDbCircle
 62
7
  6
CONTINUOUS
 10
0.0
 20
-35.05
 40
2.6625113365
100
AcDbArc
 50
256.9764719153
 51
283.0235280847
  0
ARC
  5
3AB
100
AcDbEntity
  8
0
100
AcDbCircle
 62
250
  6
CONTINUOUS
 10
0.0
 20
-35.05
 40
2.6122131027
100
AcDbArc
 50
283.2788388525
 51
76.7211611475
  0
ARC
  5
3AC
100
AcDbEntity
  8
0
100
AcDbCircle
 62
250
  6
CONTINUOUS
 10
0.0
 20
-35.05
 40
2.6122131027
100
AcDbArc
 50
103.2788388525
 51
256.7211611475
  0
ARC
  5
3AD
100
AcDbEntity
  8
0
100
AcDbCircle
 62
250
  6
CONTINUOUS
 10
0.0
 20
-35.05
 40
2.4839439914
100
AcDbArc
 50
283.978119812
 51
76.021880188
  0
ARC
  5
3AE
100
AcDbEntity
  8
0
100
AcDbCircle
 62
250
  6
CONTINUOUS
 10
0.0
 20
-35.05
 40
2.4839439914
100
AcDbArc
 50
103.978119812
 51
256.021880188
  0
ARC
  5
3AF
100
AcDbEntity
  8
0
100
AcDbCircle
 62
7
  6
CONTINUOUS
 10
0.0
 20
-35.05
 40
1.8638541369
100
AcDbArc
 50
172.9681960448
 51
187.0259491591
  0
ARC
  5
3B0
100
AcDbEntity
  8
0
100
AcDbCircle
 62
7
  6
CONTINUOUS
 10
0.0
 20
-35.05
 40
1.8638541369
100
AcDbArc
 50
352.968196018
 51
7.0259491591
  0
ARC
  5
3B1
100
AcDbEntity
  8
0
100
AcDbCircle
 62
7
  6
CONTINUOUS
 10
-0.0
 20
-35.05
 40
1.3915481318
100
AcDbArc
 50
80.5652353034
 51
99.4324314084
  0
ARC
  5
3B2
100
AcDbEntity
  8
0
100
AcDbCircle
 62
7
  6
CONTINUOUS
 10
0.0
 20
-35.05
 40
1.3915481318
100
AcDbArc
 50
260.5652351046
 51
279.4324314084
  0
ARC
  5
3B3
100
AcDbEntity
  8
TRASH
100
AcDbCircle
 62
7
  6
CONTINUOUS
 10
0.0
 20
-35.05
 40
1.1472328625
100
AcDbArc
 50
347.9845776281
 51
12.0153200785
  0
ARC
  5
3B4
100
AcDbEntity
  8
TRASH
100
AcDbCircle
 62
7
  6
CONTINUOUS
 10
-0.0
 20
-35.05
 40
1.1472328625
100
AcDbArc
 50
167.9845776281
 51
192.0153200785
  0
ARC
  5
3B5
100
AcDbEntity
  8
TRASH
100
AcDbCircle
 62
7
  6
CONTINUOUS
 10
0.0
 20
-35.05
 40
1.1472328182
100
AcDbArc
 50
77.9846799215
 51
102.0154223719
  0
ARC
  5
3B6
100
AcDbEntity
  8
TRASH
100
AcDbCircle
 62
7
  6
CONTINUOUS
 10
-0.0
 20
-35.05
 40
1.1472328182
100
AcDbArc
 50
257.9846799215
 51
282.0154223719
  0
ARC
  5
3B7
100
AcDbEntity
  8
0
100
AcDbCircle
 62
250
  6
CONTINUOUS
 10
0.0367292393
 20
66.7853243703
 40
122.0643031832
100
AcDbArc
 50
269.9827596554
 51
273.7129010966
  0
ARC
  5
3B8
100
AcDbEntity
  8
0
100
AcDbCircle
 62
7
  6
CONTINUOUS
 10
0.0
 20
64.45
 40
120.0
100
AcDbArc
 50
266.1971949475
 51
267.0873089162
  0
ARC
  5
3B9
100
AcDbEntity
  8
0
100
AcDbCircle
 62
7
  6
CONTINUOUS
 10
0.0
 20
64.45
 40
120.0
100
AcDbArc
 50
272.9126893968
 51
273.8028050525
  0
ARC
  5
3BA
100
AcDbEntity
  8
0
100
AcDbCircle
 62
7
  6
CONTINUOUS
 10
13.1400071225
 20
-28.8252623599
 40
15.4173565774
100
AcDbArc
 50
206.5084844057
 51
206.9750893129
  0
ARC
  5
3BB
100
AcDbEntity
  8
0
100
AcDbCircle
 62
7
  6
CONTINUOUS
 10
15.75
 20
-5.8
 40
0.5
100
AcDbArc
 50
0.0
 51
90.0
  0
ARC
  5
3BC
100
AcDbEntity
  8
0
100
AcDbCircle
 62
7
  6
CONTINUOUS
 10
12.9875031245
 20
31.1795568575
 40
68.0937008399
100
AcDbArc
 50
257.4145010275
 51
257.9694263248
  0
ARC
  5
3BD
100
AcDbEntity
  8
0
100
AcDbCircle
 62
7
  6
CONTINUOUS
 10
1.6405781101
 20
238.7363389637
 40
273.5584345156
100
AcDbArc
 50
269.8962112729
 51
270.0438329248
  0
ARC
  5
3BE
100
AcDbEntity
  8
0
100
AcDbCircle
 62
7
  6
CONTINUOUS
 10
44.65
 20
-30.5
 40
60.9
100
AcDbArc
 50
180.0
 51
200.7411512452
  0
ARC
  5
3BF
100
AcDbEntity
  8
0
100
AcDbCircle
 62
250
  6
CONTINUOUS
 10
44.65
 20
-30.5
 40
60.6610790321
100
AcDbArc
 50
180.0
 51
184.8588188753
  0
ARC
  5
3C0
100
AcDbEntity
  8
0
100
AcDbCircle
 62
250
  6
CONTINUOUS
 10
44.360892858
 20
-30.4494861079
 40
60.3773357412
100
AcDbArc
 50
184.9298201778
 51
196.1632515997
  0
ARC
  5
3C1
100
AcDbEntity
  8
0
100
AcDbCircle
 62
250
  6
CONTINUOUS
 10
44.65
 20
-30.5
 40
59.6650610482
100
AcDbArc
 50
180.0
 51
184.8552104464
  0
ARC
  5
3C2
100
AcDbEntity
  8
0
100
AcDbCircle
 62
250
  6
CONTINUOUS
 10
-345.8935547701
 20
-33.4856493432
 40
279.4337437141
100
AcDbArc
 50
359.3577978404
 51
359.5767265943
  0
ARC
  5
3C3
100
AcDbEntity
  8
0
100
AcDbCircle
 62
250
  6
CONTINUOUS
 10
-59.4674379181
 20
-175.5364295547
 40
120.1437331596
100
AcDbArc
 50
89.6471121912
 51
89.9999993137
  0
ARC
  5
3C4
100
AcDbEntity
  8
0
100
AcDbCircle
 62
250
  6
CONTINUOUS
 10
-59.4674408568
 20
-169.7567003748
 40
114.2142006092
100
AcDbArc
 50
89.6378271357
 51
89.9999978039
  0
ARC
  5
3C5
100
AcDbEntity
  8
0
100
AcDbCircle
 62
250
  6
CONTINUOUS
 10
-81.8342924001
 20
-39.1067281067
 40
30.5929140591
100
AcDbArc
 50
344.9719933758
 51
353.7786231611
  0
ARC
  5
3C6
100
AcDbEntity
  8
0
100
AcDbCircle
 62
7
  6
CONTINUOUS
 10
-79.4516990133
 20
-41.9567545968
 40
30.0689280872
100
AcDbArc
 50
334.9090012713
 51
349.5955540659
  0
ARC
  5
3C7
100
AcDbEntity
  8
0
100
AcDbCircle
 62
7
  6
CONTINUOUS
 10
-95.6436011189
 20
-34.2673191274
 40
29.2884442481
100
AcDbArc
 50
343.8334967254
 51
344.1693482456
  0
ARC
  5
3C8
100
AcDbEntity
  8
0
100
AcDbCircle
 62
7
  6
CONTINUOUS
 10
-87.7313997058
 20
-35.4851307117
 40
21.2654884832
100
AcDbArc
 50
355.8753509395
 51
356.5370873793
  0
ARC
  5
3C9
100
AcDbEntity
  8
0
100
AcDbCircle
 62
7
  6
CONTINUOUS
 10
-87.4535359339
 20
-35.5023215322
 40
20.9870936971
100
AcDbArc
 50
356.5381132845
 51
356.7469922968
  0
ARC
  5
3CA
100
AcDbEntity
  8
0
100
AcDbCircle
 62
7
  6
CONTINUOUS
 10
-68.0712864631
 20
-47.2078122085
 40
1.0030314462
100
AcDbArc
 50
157.5529500541
 51
160.6119899484
  0
ARC
  5
3CB
100
AcDbEntity
  8
0
100
AcDbCircle
 62
250
  6
CONTINUOUS
 10
-65.7300319852
 20
-54.0257185921
 40
1.0015941524
100
AcDbArc
 50
198.4583794186
 51
264.5456030125
  0
ARC
  5
3CC
100
AcDbEntity
  8
0
100
AcDbCircle
 62
7
  6
CONTINUOUS
 10
-65.8090981664
 20
-54.2834716805
 40
1.0000058532
100
AcDbArc
 50
205.1015807479
 51
264.5519866268
  0
ARC
  5
3CD
100
AcDbEntity
  8
0
100
AcDbCircle
 62
7
  6
CONTINUOUS
 10
-68.0743654905
 20
-47.2066853817
 40
0.999752959
100
AcDbArc
 50
160.6143282758
 51
190.3947588444
  0
ARC
  5
3CE
100
AcDbEntity
  8
0
100
AcDbCircle
 62
7
  6
CONTINUOUS
 10
-64.6674364791
 20
-56.2513167019
 40
0.8
100
AcDbArc
 50
180.0
 51
266.9830386902
  0
ARC
  5
3CF
100
AcDbEntity
  8
0
100
AcDbCircle
 62
7
  6
CONTINUOUS
 10
-63.7674364791
 20
-57.75
 40
0.8
100
AcDbArc
 50
180.0
 51
270.0
  0
ARC
  5
3D0
100
AcDbEntity
  8
0
100
AcDbCircle
 62
7
  6
CONTINUOUS
 10
-64.7174364791
 20
-57.2
 40
0.15
100
AcDbArc
 50
0.0
 51
86.9830386902
  0
ARC
  5
3D1
100
AcDbEntity
  8
0
100
AcDbCircle
 62
7
  6
CONTINUOUS
 10
-65.6174302355
 20
-55.4562146311
 40
0.1499998477
100
AcDbArc
 50
0.0000000007
 51
84.8397355625
  0
ARC
  5
3D2
100
AcDbEntity
  8
0
100
AcDbCircle
 62
250
  6
CONTINUOUS
 10
-60.2187669818
 20
116.1800225478
 40
168.2475515745
100
AcDbArc
 50
268.0937255346
 51
270.0038585405
  0
ARC
  5
3D3
100
AcDbEntity
  8
0
100
AcDbCircle
 62
250
  6
CONTINUOUS
 10
-60.949891669
 20
64.3782256814
 40
119.7755021043
100
AcDbArc
 50
267.7740521075
 51
270.3551793913
  0
ARC
  5
3D4
100
AcDbEntity
  8
0
100
AcDbCircle
 62
250
  6
CONTINUOUS
 10
-60.2074559244
 20
4.8456149427
 40
60.1314016425
100
AcDbArc
 50
264.6393183958
 51
270.0000185284
  0
ARC
  5
3D5
100
AcDbEntity
  8
0
100
AcDbCircle
 62
7
  6
CONTINUOUS
 10
-60.2074364791
 20
4.45
 40
60.0
100
AcDbArc
 50
264.5519370902
 51
264.8397464943
  0
ARC
  5
3D6
100
AcDbEntity
  8
0
100
AcDbCircle
 62
7
  6
CONTINUOUS
 10
-61.9366546283
 20
-5.7
 40
0.5
100
AcDbArc
 50
90.0
 51
126.7915299478
  0
ARC
  5
3D7
100
AcDbEntity
  8
0
100
AcDbCircle
 62
7
  6
CONTINUOUS
 10
-65.9674364791
 20
-5.8
 40
0.5
100
AcDbArc
 50
90.0
 51
180.0
  0
ARC
  5
3D8
100
AcDbEntity
  8
0
100
AcDbCircle
 62
7
  6
CONTINUOUS
 10
-64.4674364791
 20
-5.0
 40
0.3
100
AcDbArc
 50
180.0
 51
270.0
  0
ARC
  5
3D9
100
AcDbEntity
  8
0
100
AcDbCircle
 62
250
  6
CONTINUOUS
 10
226.9586818142
 20
-33.4856493432
 40
279.4337437164
100
AcDbArc
 50
180.4232734057
 51
180.6422021596
  0
ARC
  5
3DA
100
AcDbEntity
  8
0
100
AcDbCircle
 62
250
  6
CONTINUOUS
 10
-59.4674350401
 20
-175.5364295547
 40
120.1437331596
100
AcDbArc
 50
90.0000006863
 51
90.3528878088
  0
ARC
  5
3DB
100
AcDbEntity
  8
0
100
AcDbCircle
 62
250
  6
CONTINUOUS
 10
-59.4674321014
 20
-169.7567003748
 40
114.2142006092
100
AcDbArc
 50
90.0000021961
 51
90.3621728643
  0
ARC
  5
3DC
100
AcDbEntity
  8
0
100
AcDbCircle
 62
250
  6
CONTINUOUS
 10
-37.1005805582
 20
-39.1067281067
 40
30.5929140591
100
AcDbArc
 50
186.2213768389
 51
195.0280066242
  0
ARC
  5
3DD
100
AcDbEntity
  8
0
100
AcDbCircle
 62
7
  6
CONTINUOUS
 10
-39.4831739449
 20
-41.9567545968
 40
30.0689280872
100
AcDbArc
 50
190.4044459341
 51
205.0909987287
  0
ARC
  5
3DE
100
AcDbEntity
  8
0
100
AcDbCircle
 62
7
  6
CONTINUOUS
 10
-23.2912956255
 20
-34.2673259728
 40
29.2884194966
100
AcDbArc
 50
195.8306366697
 51
196.1665033687
  0
ARC
  5
3DF
100
AcDbEntity
  8
0
100
AcDbCircle
 62
7
  6
CONTINUOUS
 10
-31.3972948355
 20
-35.4973751194
 40
21.071281154
100
AcDbArc
 50
183.2534684669
 51
183.731254617
  0
ARC
  5
3E0
100
AcDbEntity
  8
0
100
AcDbCircle
 62
7
  6
CONTINUOUS
 10
-50.8635865261
 20
-47.2078122205
 40
1.0030314793
100
AcDbArc
 50
19.388010111
 51
22.4472967597
  0
ARC
  5
3E1
100
AcDbEntity
  8
0
100
AcDbCircle
 62
250
  6
CONTINUOUS
 10
-53.2048409684
 20
-54.0257185885
 40
1.0015941524
100
AcDbArc
 50
275.4543967052
 51
341.541620299
  0
ARC
  5
3E2
100
AcDbEntity
  8
0
100
AcDbCircle
 62
7
  6
CONTINUOUS
 10
-53.1257747918
 20
-54.2834716805
 40
1.0000058532
100
AcDbArc
 50
275.4480133732
 51
334.8984192521
  0
ARC
  5
3E3
100
AcDbEntity
  8
0
100
AcDbCircle
 62
7
  6
CONTINUOUS
 10
-50.8605074677
 20
-47.2066853817
 40
0.999752959
100
AcDbArc
 50
349.6052411556
 51
19.3856717242
  0
ARC
  5
3E4
100
AcDbEntity
  8
0
100
AcDbCircle
 62
7
  6
CONTINUOUS
 10
-54.2674364791
 20
-56.2513167019
 40
0.8
100
AcDbArc
 50
273.0169613098
 51
360.0
  0
ARC
  5
3E5
100
AcDbEntity
  8
0
100
AcDbCircle
 62
7
  6
CONTINUOUS
 10
-55.1674364791
 20
-57.75
 40
0.8
100
AcDbArc
 50
270.0
 51
360.0
  0
ARC
  5
3E6
100
AcDbEntity
  8
0
100
AcDbCircle
 62
7
  6
CONTINUOUS
 10
-54.2174364791
 20
-57.2
 40
0.15
100
AcDbArc
 50
93.0169613098
 51
180.0
  0
ARC
  5
3E7
100
AcDbEntity
  8
0
100
AcDbCircle
 62
7
  6
CONTINUOUS
 10
-53.3174427227
 20
-55.4562146311
 40
0.1499998477
100
AcDbArc
 50
95.1602644376
 51
179.9999999993
  0
ARC
  5
3E8
100
AcDbEntity
  8
0
100
AcDbCircle
 62
250
  6
CONTINUOUS
 10
-58.7161059764
 20
116.1800225478
 40
168.2475515745
100
AcDbArc
 50
269.9961414595
 51
271.9062744654
  0
ARC
  5
3E9
100
AcDbEntity
  8
0
100
AcDbCircle
 62
250
  6
CONTINUOUS
 10
-57.9849812893
 20
64.3782256814
 40
119.7755021043
100
AcDbArc
 50
269.6448206087
 51
272.2259478925
  0
ARC
  5
3EA
100
AcDbEntity
  8
0
100
AcDbCircle
 62
250
  6
CONTINUOUS
 10
-58.7274170338
 20
4.8456149427
 40
60.1314016425
100
AcDbArc
 50
269.9999814716
 51
275.3606816042
  0
ARC
  5
3EB
100
AcDbEntity
  8
0
100
AcDbCircle
 62
7
  6
CONTINUOUS
 10
-58.7274364791
 20
4.45
 40
60.0
100
AcDbArc
 50
275.1602535057
 51
275.4480629098
  0
ARC
  5
3EC
100
AcDbEntity
  8
0
100
AcDbCircle
 62
7
  6
CONTINUOUS
 10
-35.2674364791
 20
-12.3
 40
2.2
100
AcDbArc
 50
294.6199773287
 51
65.3800226713
  0
ARC
  5
3ED
100
AcDbEntity
  8
0
100
AcDbCircle
 62
7
  6
CONTINUOUS
 10
-35.6674364791
 20
-12.3
 40
2.2
100
AcDbArc
 50
294.6199773287
 51
65.3800226713
  0
ARC
  5
3EE
100
AcDbEntity
  8
0
100
AcDbCircle
 62
7
  6
CONTINUOUS
 10
-56.9982183299
 20
-5.7
 40
0.5
100
AcDbArc
 50
53.208470006
 51
90.0
  0
ARC
  5
3EF
100
AcDbEntity
  8
0
100
AcDbCircle
 62
7
  6
CONTINUOUS
 10
-52.9674364791
 20
-5.8
 40
0.5
100
AcDbArc
 50
0.0
 51
90.0
  0
ARC
  5
3F0
100
AcDbEntity
  8
0
100
AcDbCircle
 62
7
  6
CONTINUOUS
 10
-54.4674364791
 20
-5.0
 40
0.3
100
AcDbArc
 50
270.0
 51
360.0
  0
ARC
  5
3F1
100
AcDbEntity
  8
RACCORDO
100
AcDbCircle
 62
7
  6
CONTINUOUS
 10
-52.444495481
 20
-9.2
 40
0.15
100
AcDbArc
 50
0.5
 51
90.0
  0
ARC
  5
3F2
100
AcDbEntity
  8
RACCORDO
100
AcDbCircle
 62
7
  6
CONTINUOUS
 10
-52.444495481
 20
-15.4
 40
0.15
100
AcDbArc
 50
270.0
 51
359.5
  0
SPLINE
  5
3F3
100
AcDbEntity
  8
0
100
AcDbSpline
 62
7
  6
CONTINUOUS
 70
0
 71
3
 72
9
 73
5
 74
0
 42
0.0000001
 43
0.0000001
 44
0.0000000001
 40
0.0
 40
0.0
 40
0.0
 40
0.0
 40
0.2492947069
 40
1.0
 40
1.0
 40
1.0
 40
1.0
 10
-1.1881618048
 20
-34.6694209054
 30
0.0
 10
-1.1442627801
 20
-34.6459566524
 30
0.0
 10
-0.9679517853
 20
-34.5522469179
 30
0.0
 10
-0.790637658
 20
-34.4603908798
 30
0.0
 10
-0.6564960404
 20
-34.3935041219
 30
0.0
  0
LINE
  5
3F4
100
AcDbEntity
  8
0
100
AcDbLine
 62
7
  6
CONTINUOUS
 10
-1.1881618048
 20
-34.6694209054
 11
-1.2057182374
 21
-34.6815730292
  0
LINE
  5
3F5
100
AcDbEntity
  8
0
100
AcDbLine
 62
7
  6
CONTINUOUS
 10
-1.1881618969
 20
-35.4305790454
 11
-1.2055128825
 21
-35.4185691724
  0
SPLINE
  5
3F6
100
AcDbEntity
  8
0
100
AcDbSpline
 62
7
  6
CONTINUOUS
 70
0
 71
3
 72
9
 73
5
 74
0
 42
0.0000001
 43
0.0000001
 44
0.0000000001
 40
0.0
 40
0.0
 40
0.0
 40
0.0
 40
0.250599774
 40
1.0
 40
1.0
 40
1.0
 40
1.0
 10
-0.6564962162
 20
-35.7064962216
 30
0.0
 10
-0.7012756112
 20
-35.6841682498
 30
0.0
 10
-0.8794877526
 20
-35.5941134292
 30
0.0
 10
-1.0561971247
 20
-35.5011148913
 30
0.0
 10
-1.1881618969
 20
-35.4305790454
 30
0.0
  0
SPLINE
  5
3F7
100
AcDbEntity
  8
0
100
AcDbSpline
 62
7
  6
CONTINUOUS
 70
0
 71
3
 72
9
 73
5
 74
0
 42
0.0000001
 43
0.0000001
 44
0.0000000001
 40
0.0
 40
0.0
 40
0.0
 40
0.0
 40
0.4999984134
 40
1.0
 40
1.0
 40
1.0
 40
1.0
 10
0.5722535977
 20
-34.4777463982
 30
0.0
 10
0.5253191573
 20
-34.3820407078
 30
0.0
 10
0.4295986937
 20
-34.1915369671
 30
0.0
 10
0.3319300332
 20
-34.0020345866
 30
0.0
 10
0.2828594037
 20
-33.9074056354
 30
0.0
  0
LINE
  5
3F8
100
AcDbEntity
  8
0
100
AcDbLine
 62
7
  6
CONTINUOUS
 10
0.5722535977
 20
-34.4777463982
 11
0.5197234842
 21
-34.5302765158
  0
LINE
  5
3F9
100
AcDbEntity
  8
0
100
AcDbLine
 62
7
  6
CONTINUOUS
 10
0.6564962162
 20
-34.3935037784
 11
0.6
 21
-34.4499999936
  0
LINE
  5
3FA
100
AcDbEntity
  8
TRASH
100
AcDbLine
 62
7
  6
CONTINUOUS
 10
0.2388223726
 20
-33.927893713
 11
0.2281482181
 21
-33.9050027299
  0
LINE
  5
3FB
100
AcDbEntity
  8
0
100
AcDbLine
 62
7
  6
CONTINUOUS
 10
0.2281482181
 20
-33.9050027299
 11
0.2692641324
 21
-33.8872969234
  0
LINE
  5
3FC
100
AcDbEntity
  8
0
100
AcDbLine
 62
7
  6
CONTINUOUS
 10
0.2281927392
 20
-33.904992077
 11
0.2281088917
 21
-33.6772755059
  0
LINE
  5
3FD
100
AcDbEntity
  8
TRASH
100
AcDbLine
 62
7
  6
CONTINUOUS
 10
-0.2388223825
 20
-33.9278937063
 11
-0.2281482281
 21
-33.9050027231
  0
LINE
  5
3FE
100
AcDbEntity
  8
0
100
AcDbLine
 62
7
  6
CONTINUOUS
 10
-0.2283532711
 20
-33.9049604169
 11
-0.2280529893
 21
-33.6772662176
  0
SPLINE
  5
3FF
100
AcDbEntity
  8
0
100
AcDbSpline
 62
7
  6
CONTINUOUS
 70
0
 71
3
 72
9
 73
5
 74
0
 42
0.0000001
 43
0.0000001
 44
0.0000000001
 40
0.0
 40
0.0
 40
0.0
 40
0.0
 40
0.4988331664
 40
1.0
 40
1.0
 40
1.0
 40
1.0
 10
-0.2694720426
 20
-33.8876044208
 30
0.0
 10
-0.2626352358
 20
-33.8905791252
 30
0.0
 10
-0.2490327008
 20
-33.8967872213
 30
0.0
 10
-0.2350170191
 20
-33.9020141023
 30
0.0
 10
-0.2281482281
 20
-33.9050027231
 30
0.0
  0
SPLINE
  5
400
100
AcDbEntity
  8
0
100
AcDbSpline
 62
7
  6
CONTINUOUS
 70
0
 71
3
 72
9
 73
5
 74
0
 42
0.0000001
 43
0.0000001
 44
0.0000000001
 40
0.0
 40
0.0
 40
0.0
 40
0.0
 40
0.5000015898
 40
1.0
 40
1.0
 40
1.0
 40
1.0
 10
-0.2828593557
 20
-33.9074055428
 30
0.0
 10
-0.3319299999
 20
-34.002034523
 30
0.0
 10
-0.4295988742
 20
-34.1915368703
 30
0.0
 10
-0.5253186896
 20
-34.3820409997
 30
0.0
 10
-0.5722535807
 20
-34.4777465037
 30
0.0
  0
LINE
  5
401
100
AcDbEntity
  8
0
100
AcDbLine
 62
7
  6
CONTINUOUS
 10
-0.5197234842
 20
-34.5302765158
 11
-0.5722535807
 21
-34.4777465037
  0
LINE
  5
402
100
AcDbEntity
  8
0
100
AcDbLine
 62
7
  6
CONTINUOUS
 10
-0.6
 20
-34.4500001418
 11
-0.6564960404
 21
-34.3935041219
  0
LINE
  5
403
100
AcDbEntity
  8
0
100
AcDbLine
 62
7
  6
CONTINUOUS
 10
-0.5722535807
 20
-34.4777465037
 11
-0.6
 21
-34.4913855636
  0
LINE
  5
404
100
AcDbEntity
  8
TRASH
100
AcDbLine
 62
7
  6
CONTINUOUS
 10
-1.122106287
 20
-34.8111776274
 11
-1.1449972701
 21
-34.8218517819
  0
LINE
  5
405
100
AcDbEntity
  8
0
100
AcDbLine
 62
7
  6
CONTINUOUS
 10
-1.1449972701
 20
-34.8218517819
 11
-1.2057182374
 21
-34.6815730292
  0
LINE
  5
406
100
AcDbEntity
  8
0
100
AcDbLine
 62
7
  6
CONTINUOUS
 10
-1.1450079241
 20
-34.8218072551
 11
-1.8498348804
 21
-34.8218264718
  0
LINE
  5
407
100
AcDbEntity
  8
TRASH
100
AcDbLine
 62
7
  6
CONTINUOUS
 10
-1.1221062937
 20
-35.2888223825
 11
-1.1449972769
 21
-35.2781482281
  0
SPLINE
  5
408
100
AcDbEntity
  8
0
100
AcDbSpline
 62
7
  6
CONTINUOUS
 70
0
 71
3
 72
9
 73
5
 74
0
 42
0.0000001
 43
0.0000001
 44
0.0000000001
 40
0.0
 40
0.0
 40
0.0
 40
0.0
 40
0.4996721713
 40
1.0
 40
1.0
 40
1.0
 40
1.0
 10
-1.2055128825
 20
-35.4185691724
 30
0.0
 10
-1.1953519665
 20
-35.3952161903
 30
0.0
 10
-1.1747719049
 20
-35.3485851244
 30
0.0
 10
-1.1551715258
 20
-35.3015318534
 30
0.0
 10
-1.1449972769
 20
-35.2781482281
 30
0.0
  0
LINE
  5
409
100
AcDbEntity
  8
0
100
AcDbLine
 62
7
  6
CONTINUOUS
 10
-0.6
 20
-35.6086148063
 11
-0.5722535977
 21
-35.6222536018
  0
LINE
  5
40A
100
AcDbEntity
  8
0
100
AcDbLine
 62
7
  6
CONTINUOUS
 10
-0.6
 20
-35.6500000064
 11
-0.6564962162
 21
-35.7064962216
  0
LINE
  5
40B
100
AcDbEntity
  8
0
100
AcDbLine
 62
7
  6
CONTINUOUS
 10
-0.5197234842
 20
-35.5697234842
 11
-0.5722535977
 21
-35.6222536018
  0
SPLINE
  5
40C
100
AcDbEntity
  8
0
100
AcDbSpline
 62
7
  6
CONTINUOUS
 70
0
 71
3
 72
9
 73
5
 74
0
 42
0.0000001
 43
0.0000001
 44
0.0000000001
 40
0.0
 40
0.0
 40
0.0
 40
0.0
 40
0.4999984134
 40
1.0
 40
1.0
 40
1.0
 40
1.0
 10
-0.5722535977
 20
-35.6222536018
 30
0.0
 10
-0.5253191573
 20
-35.7179592922
 30
0.0
 10
-0.4295986937
 20
-35.9084630329
 30
0.0
 10
-0.3319300332
 20
-36.0979654134
 30
0.0
 10
-0.2828594037
 20
-36.1925943646
 30
0.0
  0
LINE
  5
40D
100
AcDbEntity
  8
0
100
AcDbLine
 62
7
  6
CONTINUOUS
 10
1.2055128825
 20
-34.6814308276
 11
1.1881618969
 21
-34.6694209546
  0
LINE
  5
40E
100
AcDbEntity
  8
0
100
AcDbLine
 62
7
  6
CONTINUOUS
 10
-0.2281482181
 20
-36.1949972701
 11
-0.2692641391
 21
-36.2127030667
  0
LINE
  5
40F
100
AcDbEntity
  8
0
100
AcDbLine
 62
7
  6
CONTINUOUS
 10
-0.2281088965
 20
-36.4227244933
 11
-0.2281927462
 21
-36.1950079244
  0
LINE
  5
410
100
AcDbEntity
  8
TRASH
100
AcDbLine
 62
7
  6
CONTINUOUS
 10
-0.2281482181
 20
-36.1949972701
 11
-0.2388223726
 21
-36.172106287
  0
LINE
  5
411
100
AcDbEntity
  8
TRASH
100
AcDbLine
 62
7
  6
CONTINUOUS
 10
0.2388223825
 20
-36.1721062937
 11
0.2281482281
 21
-36.1949972769
  0
LINE
  5
412
100
AcDbEntity
  8
0
100
AcDbLine
 62
7
  6
CONTINUOUS
 10
0.2283532711
 20
-36.1950395831
 11
0.2280529893
 21
-36.4227337824
  0
SPLINE
  5
413
100
AcDbEntity
  8
0
100
AcDbSpline
 62
7
  6
CONTINUOUS
 70
0
 71
3
 72
9
 73
5
 74
0
 42
0.0000001
 43
0.0000001
 44
0.0000000001
 40
0.0
 40
0.0
 40
0.0
 40
0.0
 40
0.4988331664
 40
1.0
 40
1.0
 40
1.0
 40
1.0
 10
0.2694720426
 20
-36.2123955792
 30
0.0
 10
0.2626352358
 20
-36.2094208748
 30
0.0
 10
0.2490327008
 20
-36.2032127787
 30
0.0
 10
0.2350170191
 20
-36.1979858977
 30
0.0
 10
0.2281482281
 20
-36.1949972769
 30
0.0
  0
SPLINE
  5
414
100
AcDbEntity
  8
0
100
AcDbSpline
 62
7
  6
CONTINUOUS
 70
0
 71
3
 72
9
 73
5
 74
0
 42
0.0000001
 43
0.0000001
 44
0.0000000001
 40
0.0
 40
0.0
 40
0.0
 40
0.0
 40
0.5000015898
 40
1.0
 40
1.0
 40
1.0
 40
1.0
 10
0.2828593557
 20
-36.1925944572
 30
0.0
 10
0.3319299999
 20
-36.097965477
 30
0.0
 10
0.4295988742
 20
-35.9084631297
 30
0.0
 10
0.5253186896
 20
-35.7179590003
 30
0.0
 10
0.5722535807
 20
-35.6222534963
 30
0.0
  0
LINE
  5
415
100
AcDbEntity
  8
0
100
AcDbLine
 62
7
  6
CONTINUOUS
 10
0.5197234842
 20
-35.5697234842
 11
0.5722535807
 21
-35.6222534963
  0
SPLINE
  5
416
100
AcDbEntity
  8
0
100
AcDbSpline
 62
7
  6
CONTINUOUS
 70
0
 71
3
 72
9
 73
5
 74
0
 42
0.0000001
 43
0.0000001
 44
0.0000000001
 40
0.0
 40
0.0
 40
0.0
 40
0.0
 40
0.250599774
 40
1.0
 40
1.0
 40
1.0
 40
1.0
 10
0.6564962162
 20
-34.3935037784
 30
0.0
 10
0.7012756112
 20
-34.4158317502
 30
0.0
 10
0.8794877526
 20
-34.5058865708
 30
0.0
 10
1.0561971247
 20
-34.5988851087
 30
0.0
 10
1.1881618969
 20
-34.6694209546
 30
0.0
  0
LINE
  5
417
100
AcDbEntity
  8
0
100
AcDbLine
 62
7
  6
CONTINUOUS
 10
0.6
 20
-35.6499998582
 11
0.6564960404
 21
-35.7064958781
  0
LINE
  5
418
100
AcDbEntity
  8
0
100
AcDbLine
 62
7
  6
CONTINUOUS
 10
0.5722535807
 20
-35.6222534963
 11
0.6
 21
-35.6086144364
  0
LINE
  5
419
100
AcDbEntity
  8
0
100
AcDbLine
 62
7
  6
CONTINUOUS
 10
1.1449972701
 20
-35.2781482181
 11
1.2057182352
 21
-35.4184269724
  0
LINE
  5
41A
100
AcDbEntity
  8
0
100
AcDbLine
 62
7
  6
CONTINUOUS
 10
1.8498348803
 20
-35.2781735291
 11
1.1450079232
 21
-35.27819274
  0
LINE
  5
41B
100
AcDbEntity
  8
TRASH
100
AcDbLine
 62
7
  6
CONTINUOUS
 10
1.1449972701
 20
-35.2781482181
 11
1.122106287
 21
-35.2888223726
  0
LINE
  5
41C
100
AcDbEntity
  8
TRASH
100
AcDbLine
 62
7
  6
CONTINUOUS
 10
1.1221062937
 20
-34.8111776175
 11
1.1449972769
 21
-34.8218517719
  0
SPLINE
  5
41D
100
AcDbEntity
  8
0
100
AcDbSpline
 62
7
  6
CONTINUOUS
 70
0
 71
3
 72
9
 73
5
 74
0
 42
0.0000001
 43
0.0000001
 44
0.0000000001
 40
0.0
 40
0.0
 40
0.0
 40
0.0
 40
0.4996721713
 40
1.0
 40
1.0
 40
1.0
 40
1.0
 10
1.2055128825
 20
-34.6814308276
 30
0.0
 10
1.1953519665
 20
-34.7047838097
 30
0.0
 10
1.1747719049
 20
-34.7514148756
 30
0.0
 10
1.1551715258
 20
-34.7984681466
 30
0.0
 10
1.1449972769
 20
-34.8218517719
 30
0.0
  0
LINE
  5
41E
100
AcDbEntity
  8
0
100
AcDbLine
 62
7
  6
CONTINUOUS
 10
0.6
 20
-34.4913851937
 11
0.5722535977
 21
-34.4777463982
  0
LINE
  5
41F
100
AcDbEntity
  8
TRASH
100
AcDbLine
 62
7
  6
CONTINUOUS
 10
0.238824741
 20
-33.9278933466
 11
0.5197234839
 21
-34.5302765161
  0
LINE
  5
420
100
AcDbEntity
  8
TRASH
100
AcDbLine
 62
7
  6
CONTINUOUS
 10
0.5197234839
 20
-34.5302765161
 11
1.1221066534
 21
-34.811175259
  0
LINE
  5
421
100
AcDbEntity
  8
TRASH
100
AcDbLine
 62
7
  6
CONTINUOUS
 10
1.1221028135
 20
-35.2888260178
 11
0.5197267822
 21
-35.569717435
  0
LINE
  5
422
100
AcDbEntity
  8
TRASH
100
AcDbLine
 62
7
  6
CONTINUOUS
 10
-0.519717435
 20
-34.5302732178
 11
-0.2388260178
 21
-33.9278971865
  0
LINE
  5
423
100
AcDbEntity
  8
TRASH
100
AcDbLine
 62
7
  6
CONTINUOUS
 10
0.519717435
 20
-35.5697267822
 11
0.2388260178
 21
-36.1721028135
  0
LINE
  5
424
100
AcDbEntity
  8
TRASH
100
AcDbLine
 62
7
  6
CONTINUOUS
 10
-0.238824741
 20
-36.1721066534
 11
-0.5197234839
 21
-35.5697234839
  0
LINE
  5
425
100
AcDbEntity
  8
TRASH
100
AcDbLine
 62
7
  6
CONTINUOUS
 10
-0.5197234839
 20
-35.5697234839
 11
-1.1221066534
 21
-35.288824741
  0
LINE
  5
426
100
AcDbEntity
  8
TRASH
100
AcDbLine
 62
7
  6
CONTINUOUS
 10
-1.1221028135
 20
-34.8111739822
 11
-0.5197267822
 21
-34.530282565
  0
SPLINE
  5
427
100
AcDbEntity
  8
0
100
AcDbSpline
 62
7
  6
CONTINUOUS
 70
0
 71
3
 72
9
 73
5
 74
0
 42
0.0000001
 43
0.0000001
 44
0.0000000001
 40
0.0
 40
0.0
 40
0.0
 40
0.0
 40
0.2492947069
 40
1.0
 40
1.0
 40
1.0
 40
1.0
 10
1.1881618048
 20
-35.4305790946
 30
0.0
 10
1.1442627801
 20
-35.4540433476
 30
0.0
 10
0.9679517853
 20
-35.5477530821
 30
0.0
 10
0.790637658
 20
-35.6396091202
 30
0.0
 10
0.6564960404
 20
-35.7064958781
 30
0.0
  0
LINE
  5
428
100
AcDbEntity
  8
0
100
AcDbLine
 62
7
  6
CONTINUOUS
 10
1.2057182352
 20
-35.4184269724
 11
1.1881618048
 21
-35.4305790946
  0
SPLINE
  5
429
100
AcDbEntity
  8
0
100
AcDbSpline
 62
7
  6
CONTINUOUS
 70
0
 71
3
 72
15
 73
11
 74
0
 42
0.0000001
 43
0.0000001
 44
0.0000000001
 40
0.0
 40
0.0
 40
0.0
 40
0.0
 40
0.0096054945
 40
0.02604552
 40
0.0843995112
 40
0.1767066019
 40
0.3000998194
 40
0.4501537446
 40
0.6212235628
 40
1.0
 40
1.0
 40
1.0
 40
1.0
 10
14.1848256012
 20
-5.3
 30
0.0
 10
14.1838533005
 20
-5.3
 30
0.0
 10
14.18150613
 20
-5.298135947
 30
0.0
 10
14.17790818
 20
-5.2904885497
 30
0.0
 10
14.1737748559
 20
-5.2738617147
 30
0.0
 10
14.1695656763
 20
-5.2465228171
 30
0.0
 10
14.1656934201
 20
-5.2096539916
 30
0.0
 10
14.1624641064
 20
-5.1647827829
 30
0.0
 10
14.1591025337
 20
-5.0940059255
 30
0.0
 10
14.1581745744
 20
-5.0383410319
 30
0.0
 10
14.1581745744
 20
-5.0
 30
0.0
  0
SPLINE
  5
42A
100
AcDbEntity
  8
0
100
AcDbSpline
 62
7
  6
CONTINUOUS
 70
0
 71
3
 72
9
 73
5
 74
0
 42
0.0000001
 43
0.0000001
 44
0.0000000001
 40
0.0
 40
0.0
 40
0.0
 40
0.0
 40
0.2703953699
 40
1.0
 40
1.0
 40
1.0
 40
1.0
 10
5.5305380517
 20
-10.8692473583
 30
0.0
 10
5.5888073379
 20
-10.8593046113
 30
0.0
 10
5.8049781767
 20
-10.8266037085
 30
0.0
 10
6.026135684
 20
-10.8273136081
 30
0.0
 10
6.1845717889
 20
-10.8457037034
 30
0.0
  0
SPLINE
  5
42B
100
AcDbEntity
  8
0
100
AcDbSpline
 62
7
  6
CONTINUOUS
 70
0
 71
3
 72
9
 73
5
 74
0
 42
0.0000001
 43
0.0000001
 44
0.0000000001
 40
0.0
 40
0.0
 40
0.0
 40
0.0
 40
0.5013510385
 40
1.0
 40
1.0
 40
1.0
 40
1.0
 10
6.1845717889
 20
-10.8457037034
 30
0.0
 10
6.3069293736
 20
-10.8599093912
 30
0.0
 10
6.5544118819
 20
-10.9676630231
 30
0.0
 10
6.6542487249
 20
-11.2231683686
 30
0.0
 10
6.6561646941
 20
-11.3456689622
 30
0.0
  0
SPLINE
  5
42C
100
AcDbEntity
  8
0
100
AcDbSpline
 62
7
  6
CONTINUOUS
 70
0
 71
3
 72
10
 73
6
 74
0
 42
0.0000001
 43
0.0000001
 44
0.0000000001
 40
0.0
 40
0.0
 40
0.0
 40
0.0
 40
0.2929210355
 40
0.5275938042
 40
1.0
 40
1.0
 40
1.0
 40
1.0
 10
6.6561646941
 20
-11.3456689622
 30
0.0
 10
6.6576879227
 20
-11.4443856429
 30
0.0
 10
6.6363953426
 20
-11.6278258543
 30
0.0
 10
6.4271347461
 20
-11.9115399223
 30
0.0
 10
6.1668333031
 20
-11.9636359744
 30
0.0
 10
6.0076494697
 20
-11.9671914613
 30
0.0
  0
SPLINE
  5
42D
100
AcDbEntity
  8
0
100
AcDbSpline
 62
7
  6
CONTINUOUS
 70
0
 71
3
 72
9
 73
5
 74
0
 42
0.0000001
 43
0.0000001
 44
0.0000000001
 40
0.0
 40
0.0
 40
0.0
 40
0.0
 40
0.3559141631
 40
1.0
 40
1.0
 40
1.0
 40
1.0
 10
6.0058499546
 20
-12.6222149318
 30
0.0
 10
6.078601554
 20
-12.6222149318
 30
0.0
 10
6.2878883957
 20
-12.6662683332
 30
0.0
 10
6.4253657742
 20
-12.8513581691
 30
0.0
 10
6.4716244279
 20
-12.9746199582
 30
0.0
  0
SPLINE
  5
42E
100
AcDbEntity
  8
0
100
AcDbSpline
 62
7
  6
CONTINUOUS
 70
0
 71
3
 72
9
 73
5
 74
0
 42
0.0000001
 43
0.0000001
 44
0.0000000001
 40
0.0
 40
0.0
 40
0.0
 40
0.0
 40
0.5586214172
 40
1.0
 40
1.0
 40
1.0
 40
1.0
 10
6.4716244279
 20
-12.9746199582
 30
0.0
 10
6.5545680748
 20
-13.195399051
 30
0.0
 10
6.6636463445
 20
-13.6042196107
 30
0.0
 10
6.7851964745
 20
-14.0083114605
 30
0.0
 10
6.8366860434
 20
-14.1874031119
 30
0.0
  0
SPLINE
  5
42F
100
AcDbEntity
  8
0
100
AcDbSpline
 62
7
  6
CONTINUOUS
 70
0
 71
3
 72
9
 73
5
 74
0
 42
0.0000001
 43
0.0000001
 44
0.0000000001
 40
0.0
 40
0.0
 40
0.0
 40
0.0
 40
0.1980141723
 40
1.0
 40
1.0
 40
1.0
 40
1.0
 10
7.6397196251
 20
-14.1874031119
 30
0.0
 10
7.6203524677
 20
-14.1160947196
 30
0.0
 10
7.5255589103
 20
-13.7551676506
 30
0.0
 10
7.4329841986
 20
-13.3936520829
 30
0.0
 10
7.3543165415
 20
-13.1049048463
 30
0.0
  0
SPLINE
  5
430
100
AcDbEntity
  8
0
100
AcDbSpline
 62
7
  6
CONTINUOUS
 70
0
 71
3
 72
9
 73
5
 74
0
 42
0.0000001
 43
0.0000001
 44
0.0000000001
 40
0.0
 40
0.0
 40
0.0
 40
0.0
 40
0.2426586216
 40
1.0
 40
1.0
 40
1.0
 40
1.0
 10
7.3543165415
 20
-13.1049048463
 30
0.0
 10
7.3345169024
 20
-13.0322269819
 30
0.0
 10
7.2588853367
 20
-12.738736054
 30
0.0
 10
7.0914709468
 20
-12.4075431713
 30
0.0
 10
6.8730962309
 20
-12.3204662533
 30
0.0
  0
SPLINE
  5
431
100
AcDbEntity
  8
0
100
AcDbSpline
 62
7
  6
CONTINUOUS
 70
0
 71
3
 72
19
 73
15
 74
0
 42
0.0000001
 43
0.0000001
 44
0.0000000001
 40
0.0
 40
0.0
 40
0.0
 40
0.0
 40
0.0559393466
 40
0.1686372252
 40
0.2404177
 40
0.3213529219
 40
0.4125585942
 40
0.4628837461
 40
0.5169478289
 40
0.6016690262
 40
0.6778254114
 40
0.8104735527
 40
0.9200958321
 40
1.0
 40
1.0
 40
1.0
 40
1.0
 10
6.8730962309
 20
-12.2968326226
 30
0.0
 10
6.9192082887
 20
-12.2908826797
 30
0.0
 10
7.0363880427
 20
-12.1984900925
 30
0.0
 10
7.1822935266
 20
-12.0671734454
 30
0.0
 10
7.3047723307
 20
-11.8807004976
 30
0.0
 10
7.3868883297
 20
-11.694611449
 30
0.0
 10
7.4278832128
 20
-11.512843801
 30
0.0
 10
7.4405570492
 20
-11.3505794968
 30
0.0
 10
7.437768018
 20
-11.1932123502
 30
0.0
 10
7.4120878392
 20
-11.0154690059
 30
0.0
 10
7.3356054507
 20
-10.7827444143
 30
0.0
 10
7.19189087
 20
-10.5546002787
 30
0.0
 10
6.9889964501
 20
-10.3762066124
 30
0.0
 10
6.8494914294
 20
-10.2992640381
 30
0.0
 10
6.7870194286
 20
-10.2767270432
 30
0.0
  0
SPLINE
  5
432
100
AcDbEntity
  8
0
100
AcDbSpline
 62
7
  6
CONTINUOUS
 70
0
 71
3
 72
9
 73
5
 74
0
 42
0.0000001
 43
0.0000001
 44
0.0000000001
 40
0.0
 40
0.0
 40
0.0
 40
0.0
 40
0.2957417834
 40
1.0
 40
1.0
 40
1.0
 40
1.0
 10
6.7870194286
 20
-10.2767270432
 30
0.0
 10
6.5946958973
 20
-10.2072449495
 30
0.0
 10
5.903409228
 20
-10.0939849955
 30
0.0
 10
5.2084964381
 20
-10.1637415623
 30
0.0
 10
4.7267246802
 20
-10.2346183915
 30
0.0
  0
SPLINE
  5
433
100
AcDbEntity
  8
0
100
AcDbSpline
 62
250
  6
CONTINUOUS
 70
0
 71
3
 72
16
 73
12
 74
0
 42
0.0000001
 43
0.0000001
 44
0.0000000001
 40
0.0
 40
0.0
 40
0.0
 40
0.0
 40
0.0625007266
 40
0.1250021454
 40
0.187503236
 40
0.2500048627
 40
0.3125068955
 40
0.3750086679
 40
0.5000109356
 40
0.7500084807
 40
1.0
 40
1.0
 40
1.0
 40
1.0
 10
-11.4002337797
 20
-51.750904969
 30
0.0
 10
-11.4400681555
 20
-51.6556290848
 30
0.0
 10
-11.5186895143
 20
-51.4646263906
 30
0.0
 10
-11.6301927466
 20
-51.1755603354
 30
0.0
 10
-11.7369157678
 20
-50.8846986489
 30
0.0
 10
-11.8383941334
 20
-50.591973353
 30
0.0
 10
-11.9389469848
 20
-50.2989376618
 30
0.0
 10
-12.0716879169
 20
-49.9077670041
 30
0.0
 10
-12.2971902341
 20
-49.2209500784
 30
0.0
 10
-12.6007725521
 20
-48.2338155419
 30
0.0
 10
-12.8239860134
 20
-47.4383198951
 30
0.0
 10
-12.9303649994
 20
-47.039200472
 30
0.0
  0
SPLINE
  5
434
100
AcDbEntity
  8
0
100
AcDbSpline
 62
250
  6
CONTINUOUS
 70
0
 71
3
 72
9
 73
5
 74
0
 42
0.0000001
 43
0.0000001
 44
0.0000000001
 40
0.0
 40
0.0
 40
0.0
 40
0.0
 40
0.2470706228
 40
1.0
 40
1.0
 40
1.0
 40
1.0
 10
-12.9303649994
 20
-47.039200472
 30
0.0
 10
-12.6350447822
 20
-46.6627248383
 30
0.0
 10
-11.445948206
 20
-45.1341079155
 30
0.0
 10
-10.2777290529
 20
-43.5893660957
 30
0.0
 10
-9.4038552343
 20
-42.422087611
 30
0.0
  0
SPLINE
  5
435
100
AcDbEntity
  8
0
100
AcDbSpline
 62
250
  6
CONTINUOUS
 70
0
 71
3
 72
19
 73
15
 74
0
 42
0.0000001
 43
0.0000001
 44
0.0000000001
 40
0.0
 40
0.0
 40
0.0
 40
0.0
 40
0.1264858645
 40
0.2527993831
 40
0.3787993598
 40
0.5043467663
 40
0.5669168196
 40
0.6293082909
 40
0.691507058
 40
0.7534953897
 40
0.8153072854
 40
0.8769886835
 40
0.9385511706
 40
1.0
 40
1.0
 40
1.0
 40
1.0
 10
-0.0
 20
-47.3870666779
 30
0.0
 10
-0.4678238446
 20
-47.3890606653
 30
0.0
 10
-1.4040249592
 20
-47.3376810073
 30
0.0
 10
-2.7870645548
 20
-47.0942916171
 30
0.0
 10
-4.1271961828
 20
-46.6852419656
 30
0.0
 10
-5.189973516
 20
-46.2078374376
 30
0.0
 10
-5.9972366712
 20
-45.7521270987
 30
0.0
 10
-6.5782346847
 20
-45.3748903887
 30
0.0
 10
-7.1326244
 20
-44.9632342569
 30
0.0
 10
-7.659276433
 20
-44.5198807157
 30
0.0
 10
-8.1531264858
 20
-44.0428872016
 30
0.0
 10
-8.6110718491
 20
-43.5333948311
 30
0.0
 10
-9.0305476425
 20
-42.9935777102
 30
0.0
 10
-9.2844431954
 20
-42.6154685254
 30
0.0
 10
-9.4038552343
 20
-42.422087611
 30
0.0
  0
SPLINE
  5
436
100
AcDbEntity
  8
0
100
AcDbSpline
 62
250
  6
CONTINUOUS
 70
0
 71
3
 72
11
 73
7
 74
0
 42
0.0000001
 43
0.0000001
 44
0.0000000001
 40
0.0
 40
0.0
 40
0.0
 40
0.0
 40
0.250000876
 40
0.4999887587
 40
0.7499810523
 40
1.0
 40
1.0
 40
1.0
 40
1.0
 10
-12.9303649994
 20
-47.039200472
 30
0.0
 10
-13.1793311505
 20
-46.1003690537
 30
0.0
 10
-13.6259995488
 20
-44.2087572032
 30
0.0
 10
-14.1466392212
 20
-41.3407431839
 30
0.0
 10
-14.5364385504
 20
-38.4522923178
 30
0.0
 10
-14.7237377985
 20
-36.5182600199
 30
0.0
 10
-14.8003397663
 20
-35.5499330567
 30
0.0
  0
SPLINE
  5
437
100
AcDbEntity
  8
0
100
AcDbSpline
 62
250
  6
CONTINUOUS
 70
0
 71
3
 72
9
 73
5
 74
0
 42
0.0000001
 43
0.0000001
 44
0.0000000001
 40
0.0
 40
0.0
 40
0.0
 40
0.0
 40
0.2073926656
 40
1.0
 40
1.0
 40
1.0
 40
1.0
 10
-11.1999154062
 20
-35.55
 30
0.0
 10
-11.1999193739
 20
-35.5507109666
 30
0.0
 10
-11.1999109004
 20
-35.5534333993
 30
0.0
 10
-11.2002367392
 20
-35.5629607135
 30
0.0
 10
-11.1997752836
 20
-35.5602829903
 30
0.0
  0
SPLINE
  5
438
100
AcDbEntity
  8
0
100
AcDbSpline
 62
250
  6
CONTINUOUS
 70
0
 71
3
 72
17
 73
13
 74
0
 42
0.0000001
 43
0.0000001
 44
0.0000000001
 40
0.0
 40
0.0
 40
0.0
 40
0.0
 40
0.123137006
 40
0.2467952552
 40
0.3710133757
 40
0.49580352
 40
0.621166305
 40
0.7470624117
 40
0.8101898631
 40
0.8734062698
 40
0.9366863322
 40
1.0
 40
1.0
 40
1.0
 40
1.0
 10
-9.4038552343
 20
-42.422087611
 30
0.0
 10
-9.5562031154
 20
-42.1698824794
 30
0.0
 10
-9.8450644348
 20
-41.6541382009
 30
0.0
 10
-10.2193213754
 20
-40.8481590274
 30
0.0
 10
-10.5321001593
 20
-40.0121583014
 30
0.0
 10
-10.7834169411
 20
-39.1515392456
 30
0.0
 10
-10.977156208
 20
-38.2722001309
 30
0.0
 10
-11.0923618596
 20
-37.5282267927
 30
0.0
 10
-11.1551574607
 20
-36.9278318709
 30
0.0
 10
-11.1865837875
 20
-36.475082411
 30
0.0
 10
-11.202432852
 20
-36.021094558
 30
0.0
 10
-11.2027302273
 20
-35.718096101
 30
0.0
 10
-11.1999029813
 20
-35.5666226927
 30
0.0
  0
SPLINE
  5
439
100
AcDbEntity
  8
0
100
AcDbSpline
 62
250
  6
CONTINUOUS
 70
0
 71
3
 72
33
 73
29
 74
0
 42
0.0000001
 43
0.0000001
 44
0.0000000001
 40
0.0
 40
0.0
 40
0.0
 40
0.0
 40
0.0156334833
 40
0.0312669286
 40
0.0468995458
 40
0.0625311006
 40
0.0937846587
 40
0.1250351752
 40
0.1562842789
 40
0.1875363455
 40
0.2500130007
 40
0.3125047276
 40
0.3750003812
 40
0.437499032
 40
0.499999299
 40
0.562499592
 40
0.6249982288
 40
0.6874938972
 40
0.749985889
 40
0.8124633565
 40
0.8437156209
 40
0.8749647959
 40
0.9062153368
 40
0.9374688992
 40
0.953100454
 40
0.9687330712
 40
0.9843665166
 40
1.0
 40
1.0
 40
1.0
 40
1.0
 10
10.5674203834
 20
-37.3233311481
 30
0.0
 10
10.5247817107
 20
-37.4579722134
 30
0.0
 10
10.4269861098
 20
-37.7232923838
 30
0.0
 10
10.2587840855
 20
-38.1122895391
 30
0.0
 10
10.0727120719
 20
-38.4930830931
 30
0.0
 10
9.8032810023
 20
-38.9896032074
 30
0.0
 10
9.4284280681
 20
-39.5887145768
 30
0.0
 10
8.9232014421
 20
-40.2695186379
 30
0.0
 10
8.3662438976
 20
-40.9087804765
 30
0.0
 10
7.5584840545
 20
-41.6991318388
 30
0.0
 10
6.4329035074
 20
-42.5606671894
 30
0.0
 10
4.9462784911
 20
-43.3837523536
 30
0.0
 10
3.3556589944
 20
-43.9830666198
 30
0.0
 10
1.6952754268
 20
-44.346174663
 30
0.0
 10
0.0000191169
 20
-44.4690847855
 30
0.0
 10
-1.6952372845
 20
-44.3461797862
 30
0.0
 10
-3.3556227258
 20
-43.9830777097
 30
0.0
 10
-4.946244662
 20
-43.3837652005
 30
0.0
 10
-6.4328864227
 20
-42.560686664
 30
0.0
 10
-7.5584624242
 20
-41.6991282276
 30
0.0
 10
-8.3662462423
 20
-40.9087875751
 30
0.0
 10
-8.9232001483
 20
-40.269518457
 30
0.0
 10
-9.4284279378
 20
-39.5887145057
 30
0.0
 10
-9.8032815313
 20
-38.9896031305
 30
0.0
 10
-10.0727124013
 20
-38.4930828673
 30
0.0
 10
-10.258784081
 20
-38.1122891489
 30
0.0
 10
-10.4269857949
 20
-37.7232918515
 30
0.0
 10
-10.5247814167
 20
-37.4579717198
 30
0.0
 10
-10.5674205408
 20
-37.3233307962
 30
0.0
  0
SPLINE
  5
43A
100
AcDbEntity
  8
0
100
AcDbSpline
 62
250
  6
CONTINUOUS
 70
0
 71
3
 72
23
 73
19
 74
0
 42
0.0000001
 43
0.0000001
 44
0.0000000001
 40
0.0
 40
0.0
 40
0.0
 40
0.0
 40
0.0039425547
 40
0.0078848743
 40
0.0118275233
 40
0.0157700345
 40
0.0315399839
 40
0.0630773171
 40
0.0946094015
 40
0.1261334342
 40
0.1891433352
 40
0.2520933946
 40
0.3777336879
 40
0.5030140533
 40
0.6278915566
 40
0.7523472747
 40
0.876377352
 40
1.0
 40
1.0
 40
1.0
 40
1.0
 10
11.1989828232
 20
-35.5662028658
 30
0.0
 10
11.1987862132
 20
-35.5754473145
 30
0.0
 10
11.1996081461
 20
-35.593942104
 30
0.0
 10
11.1986951054
 20
-35.6216760031
 30
0.0
 10
11.1980137476
 20
-35.6494044615
 30
0.0
 10
11.196489626
 20
-35.7048634025
 30
0.0
 10
11.1922921542
 20
-35.824988375
 30
0.0
 10
11.1828732976
 20
-36.0096672875
 30
0.0
 10
11.1667639107
 20
-36.2309514938
 30
0.0
 10
11.138855971
 20
-36.5253143989
 30
0.0
 10
11.0917604376
 20
-36.891794523
 30
0.0
 10
10.9896145366
 20
-37.4731429713
 30
0.0
 10
10.8129748236
 20
-38.1888515761
 30
0.0
 10
10.5284789615
 20
-39.0241152725
 30
0.0
 10
10.1763680686
 20
-39.8301697528
 30
0.0
 10
9.7604608302
 20
-40.6018496415
 30
0.0
 10
9.286525038
 20
-41.3356505047
 30
0.0
 10
8.9367110937
 20
-41.799915485
 30
0.0
 10
8.7556373045
 20
-42.0263534553
 30
0.0
  0
SPLINE
  5
43B
100
AcDbEntity
  8
0
100
AcDbSpline
 62
250
  6
CONTINUOUS
 70
0
 71
3
 72
16
 73
12
 74
0
 42
0.0000001
 43
0.0000001
 44
0.0000000001
 40
0.0
 40
0.0
 40
0.0
 40
0.0
 40
0.0618944827
 40
0.1238190019
 40
0.2477367006
 40
0.3098327986
 40
0.3720586078
 40
0.4968585032
 40
0.6221890861
 40
0.7479683111
 40
1.0
 40
1.0
 40
1.0
 40
1.0
 10
8.7556373045
 20
-42.0263534553
 30
0.0
 10
8.6252475334
 20
-42.1894124554
 30
0.0
 10
8.3551277534
 20
-42.5082542331
 30
0.0
 10
7.7874056545
 20
-43.1216802101
 30
0.0
 10
7.1745660623
 20
-43.6933825329
 30
0.0
 10
6.5182216504
 20
-44.2139560711
 30
0.0
 10
5.8308070704
 20
-44.6979783613
 30
0.0
 10
4.9192519346
 20
-45.2312350485
 30
0.0
 10
3.7548396355
 20
-45.740941708
 30
0.0
 10
2.130208115
 20
-46.2399329412
 30
0.0
 10
0.8501558867
 20
-46.4010112138
 30
0.0
 10
0.0000109319
 20
-46.4037895656
 30
0.0
  0
SPLINE
  5
43C
100
AcDbEntity
  8
0
100
AcDbSpline
 62
250
  6
CONTINUOUS
 70
0
 71
3
 72
16
 73
12
 74
0
 42
0.0000001
 43
0.0000001
 44
0.0000000001
 40
0.0
 40
0.0
 40
0.0
 40
0.0
 40
0.252032501
 40
0.3778123188
 40
0.5031432997
 40
0.627943128
 40
0.6901687142
 40
0.7522644675
 40
0.8761812224
 40
0.9381054219
 40
1.0
 40
1.0
 40
1.0
 40
1.0
 10
0.0000109319
 20
-46.4037895656
 30
0.0
 10
-0.8501416575
 20
-46.400882209
 30
0.0
 10
-2.1302045119
 20
-46.2399772902
 30
0.0
 10
-3.7548727955
 20
-45.7410129589
 30
0.0
 10
-4.9193037689
 20
-45.2313250004
 30
0.0
 10
-5.8308643813
 20
-44.6980608282
 30
0.0
 10
-6.5182728169
 20
-44.2140242228
 30
0.0
 10
-7.1746000304
 20
-43.693428407
 30
0.0
 10
-7.7874163006
 20
-43.1217013755
 30
0.0
 10
-8.3551181995
 20
-42.5082551209
 30
0.0
 10
-8.6252372384
 20
-42.1894107662
 30
0.0
 10
-8.7556319027
 20
-42.0263535924
 30
0.0
  0
SPLINE
  5
43D
100
AcDbEntity
  8
0
100
AcDbSpline
 62
250
  6
CONTINUOUS
 70
0
 71
3
 72
23
 73
19
 74
0
 42
0.0000001
 43
0.0000001
 44
0.0000000001
 40
0.0
 40
0.0
 40
0.0
 40
0.0
 40
0.1236230354
 40
0.2476532771
 40
0.3721091186
 40
0.4969866113
 40
0.6222668299
 40
0.7479069113
 40
0.8108568723
 40
0.8738666868
 40
0.9053906824
 40
0.9369227337
 40
0.9684600378
 40
0.9842299735
 40
0.9881724813
 40
0.9921151286
 40
0.9960574472
 40
1.0
 40
1.0
 40
1.0
 40
1.0
 10
-8.7556319027
 20
-42.0263535924
 30
0.0
 10
-8.9367101899
 20
-41.7999218869
 30
0.0
 10
-9.2865301709
 20
-41.335667368
 30
0.0
 10
-9.7604800324
 20
-40.6018843108
 30
0.0
 10
-10.1763926845
 20
-39.8302167636
 30
0.0
 10
-10.5285144182
 20
-39.0241770764
 30
0.0
 10
-10.8130155438
 20
-38.1889253984
 30
0.0
 10
-10.989651895
 20
-37.4732245787
 30
0.0
 10
-11.0917888684
 20
-36.8918816259
 30
0.0
 10
-11.1388765093
 20
-36.5254048328
 30
0.0
 10
-11.1667777278
 20
-36.2310447174
 30
0.0
 10
-11.1828817259
 20
-36.0097626649
 30
0.0
 10
-11.1922973766
 20
-35.825085646
 30
0.0
 10
-11.1964911153
 20
-35.704961929
 30
0.0
 10
-11.198015354
 20
-35.649503581
 30
0.0
 10
-11.1986940736
 20
-35.6217754124
 30
0.0
 10
-11.1996148041
 20
-35.5940417921
 30
0.0
 10
-11.1987853791
 20
-35.5755474665
 30
0.0
 10
-11.1989769854
 20
-35.5663030127
 30
0.0
  0
SPLINE
  5
43E
100
AcDbEntity
  8
0
100
AcDbSpline
 62
250
  6
CONTINUOUS
 70
0
 71
3
 72
9
 73
5
 74
0
 42
0.0000001
 43
0.0000001
 44
0.0000000001
 40
0.0
 40
0.0
 40
0.0
 40
0.0
 40
0.5276787672
 40
1.0
 40
1.0
 40
1.0
 40
1.0
 10
-9.4038552343
 20
-42.422087611
 30
0.0
 10
-9.2953172453
 20
-42.3440264118
 30
0.0
 10
-9.0840921246
 20
-42.2037624852
 30
0.0
 10
-8.8632344421
 20
-42.0787196719
 30
0.0
 10
-8.7556319027
 20
-42.0263535924
 30
0.0
  0
SPLINE
  5
43F
100
AcDbEntity
  8
0
100
AcDbSpline
 62
250
  6
CONTINUOUS
 70
0
 71
3
 72
9
 73
5
 74
0
 42
0.0000001
 43
0.0000001
 44
0.0000000001
 40
0.0
 40
0.0
 40
0.0
 40
0.0
 40
0.5276776291
 40
1.0
 40
1.0
 40
1.0
 40
1.0
 10
9.4038571899
 20
-42.4220902232
 30
0.0
 10
9.2953242252
 20
-42.3440227187
 30
0.0
 10
9.0841037257
 20
-42.2037516861
 30
0.0
 10
8.8632432952
 20
-42.0787128787
 30
0.0
 10
8.7556373045
 20
-42.0263534553
 30
0.0
  0
SPLINE
  5
440
100
AcDbEntity
  8
0
100
AcDbSpline
 62
250
  6
CONTINUOUS
 70
0
 71
3
 72
13
 73
9
 74
0
 42
0.0000001
 43
0.0000001
 44
0.0000000001
 40
0.0
 40
0.0
 40
0.0
 40
0.0
 40
0.1980519508
 40
0.3160276352
 40
0.4436963926
 40
0.5785657709
 40
0.7180354088
 40
1.0
 40
1.0
 40
1.0
 40
1.0
 10
0.0000109263
 20
-46.4037886834
 30
0.0
 10
-0.003229559
 20
-46.4686251556
 30
0.0
 10
-0.0049373399
 20
-46.5722585881
 30
0.0
 10
-0.0032286842
 20
-46.7176765921
 30
0.0
 10
-0.0025541167
 20
-46.8424017245
 30
0.0
 10
-0.0021055845
 20
-46.9741703612
 30
0.0
 10
-0.0010772949
 20
-47.1565127605
 30
0.0
 10
-0.000431845
 20
-47.2946487327
 30
0.0
 10
0.0000000881
 20
-47.3870699802
 30
0.0
  0
SPLINE
  5
441
100
AcDbEntity
  8
0
100
AcDbSpline
 62
250
  6
CONTINUOUS
 70
0
 71
3
 72
13
 73
9
 74
0
 42
0.0000001
 43
0.0000001
 44
0.0000000001
 40
0.0
 40
0.0
 40
0.0
 40
0.0
 40
0.3634365644
 40
0.6775438812
 40
0.8023820308
 40
0.8997737643
 40
0.9664158057
 40
1.0
 40
1.0
 40
1.0
 40
1.0
 10
14.8009630695
 20
-35.55
 30
0.0
 10
14.921176187
 20
-35.560424596
 30
0.0
 10
15.145268025
 20
-35.5800629883
 30
0.0
 10
15.4106415634
 20
-35.6034103705
 30
0.0
 10
15.5880128019
 20
-35.6191502399
 30
0.0
 10
15.6835419907
 20
-35.6276812939
 30
0.0
 10
15.7488696099
 20
-35.6337479578
 30
0.0
 10
15.7820097794
 20
-35.6367869424
 30
0.0
 10
15.7930893149
 20
-35.6380408142
 30
0.0
  0
SPLINE
  5
442
100
AcDbEntity
  8
0
100
AcDbSpline
 62
250
  6
CONTINUOUS
 70
0
 71
3
 72
14
 73
10
 74
0
 42
0.0000001
 43
0.0000001
 44
0.0000000001
 40
0.0
 40
0.0
 40
0.0
 40
0.0
 40
0.0348348458
 40
0.0998959504
 40
0.1937333281
 40
0.3142494914
 40
0.4586313178
 40
0.6236219283
 40
1.0
 40
1.0
 40
1.0
 40
1.0
 10
13.6298733764
 20
-47.2570350948
 30
0.0
 10
13.6222595696
 20
-47.2532365942
 30
0.0
 10
13.5992002304
 20
-47.2450199277
 30
0.0
 10
13.5545521182
 20
-47.2295004236
 30
0.0
 10
13.4895567333
 20
-47.2085798136
 30
0.0
 10
13.405991266
 20
-47.1822552823
 30
0.0
 10
13.3056249692
 20
-47.1513767449
 30
0.0
 10
13.1453230513
 20
-47.1028029195
 30
0.0
 10
13.0185586933
 20
-47.0651564802
 30
0.0
 10
12.9303649999
 20
-47.0392004721
 30
0.0
  0
SPLINE
  5
443
100
AcDbEntity
  8
0
100
AcDbSpline
 62
250
  6
CONTINUOUS
 70
0
 71
3
 72
14
 73
10
 74
0
 42
0.0000001
 43
0.0000001
 44
0.0000000001
 40
0.0
 40
0.0
 40
0.0
 40
0.0
 40
0.0353512876
 40
0.1003948972
 40
0.1939165475
 40
0.3138159583
 40
0.4576413925
 40
0.6224091362
 40
1.0
 40
1.0
 40
1.0
 40
1.0
 10
12.0574310524
 20
-51.9745093291
 30
0.0
 10
12.0492835319
 20
-51.9737405923
 30
0.0
 10
12.0266994755
 20
-51.9676446536
 30
0.0
 10
11.983647697
 20
-51.9552785983
 30
0.0
 10
11.9222658126
 20
-51.9354030251
 30
0.0
 10
11.8438620304
 20
-51.909152719
 30
0.0
 10
11.7501127212
 20
-51.8767124831
 30
0.0
 10
11.6003358883
 20
-51.8238050837
 30
0.0
 10
11.4822993478
 20
-51.7810004849
 30
0.0
 10
11.4002327837
 20
-51.7509044996
 30
0.0
  0
SPLINE
  5
444
100
AcDbEntity
  8
0
100
AcDbSpline
 62
250
  6
CONTINUOUS
 70
0
 71
3
 72
14
 73
10
 74
0
 42
0.0000001
 43
0.0000001
 44
0.0000000001
 40
0.0
 40
0.0
 40
0.0
 40
0.0
 40
0.0355284405
 40
0.1005671578
 40
0.1939569138
 40
0.3136613321
 40
0.4572981909
 40
0.6219653498
 40
1.0
 40
1.0
 40
1.0
 40
1.0
 10
7.9412488984
 20
-55.0227906301
 30
0.0
 10
7.9430292767
 20
-55.0149296953
 30
0.0
 10
7.9440027322
 20
-54.9919666753
 30
0.0
 10
7.94502352
 20
-54.9480861187
 30
0.0
 10
7.9442281468
 20
-54.8849315477
 30
0.0
 10
7.942315754
 20
-54.8040475704
 30
0.0
 10
7.9389612258
 20
-54.7069972897
 30
0.0
 10
7.9324900771
 20
-54.5514309631
 30
0.0
 10
7.9262578842
 20
-54.4284662502
 30
0.0
 10
7.9215827207
 20
-54.3428323509
 30
0.0
  0
LINE
  5
445
100
AcDbEntity
  8
0
100
AcDbLine
 62
250
  6
CONTINUOUS
 10
-0.0
 20
-54.7076985701
 11
0.0
 21
-55.2789602604
  0
SPLINE
  5
446
100
AcDbEntity
  8
0
100
AcDbSpline
 62
250
  6
CONTINUOUS
 70
0
 71
3
 72
13
 73
9
 74
0
 42
0.0000001
 43
0.0000001
 44
0.0000000001
 40
0.0
 40
0.0
 40
0.0
 40
0.0
 40
0.36343246
 40
0.6775355041
 40
0.8023722365
 40
0.8997637255
 40
0.9664078588
 40
1.0
 40
1.0
 40
1.0
 40
1.0
 10
-14.8009630695
 20
-35.55
 30
0.0
 10
-14.9212007731
 20
-35.5601394295
 30
0.0
 10
-15.1453522773
 20
-35.5790798003
 30
0.0
 10
-15.4107588153
 20
-35.6020754002
 30
0.0
 10
-15.5881062969
 20
-35.6180612399
 30
0.0
 10
-15.6836238151
 20
-35.6267841057
 30
0.0
 10
-15.7489073511
 20
-35.6332725986
 30
0.0
 10
-15.7820466902
 20
-35.6364753097
 30
0.0
 10
-15.7930893149
 20
-35.6380408142
 30
0.0
  0
SPLINE
  5
447
100
AcDbEntity
  8
0
100
AcDbSpline
 62
250
  6
CONTINUOUS
 70
0
 71
3
 72
14
 73
10
 74
0
 42
0.0000001
 43
0.0000001
 44
0.0000000001
 40
0.0
 40
0.0
 40
0.0
 40
0.0
 40
0.0348348473
 40
0.0998959529
 40
0.1937333313
 40
0.3142494947
 40
0.4586313207
 40
0.6236219305
 40
1.0
 40
1.0
 40
1.0
 40
1.0
 10
-13.6298733693
 20
-47.2570350927
 30
0.0
 10
-13.622259562
 20
-47.2532365925
 30
0.0
 10
-13.5992002223
 20
-47.2450199261
 30
0.0
 10
-13.5545521094
 20
-47.2295004224
 30
0.0
 10
-13.4895567242
 20
-47.2085798126
 30
0.0
 10
-13.4059912572
 20
-47.1822552817
 30
0.0
 10
-13.3056249611
 20
-47.1513767445
 30
0.0
 10
-13.1453230449
 20
-47.1028029192
 30
0.0
 10
-13.0185586883
 20
-47.0651564796
 30
0.0
 10
-12.9303649961
 20
-47.0392004712
 30
0.0
  0
SPLINE
  5
448
100
AcDbEntity
  8
0
100
AcDbSpline
 62
250
  6
CONTINUOUS
 70
0
 71
3
 72
14
 73
10
 74
0
 42
0.0000001
 43
0.0000001
 44
0.0000000001
 40
0.0
 40
0.0
 40
0.0
 40
0.0
 40
0.0353520032
 40
0.1003959526
 40
0.1939177184
 40
0.3138170829
 40
0.4576423498
 40
0.6224098348
 40
1.0
 40
1.0
 40
1.0
 40
1.0
 10
-12.0574290865
 20
-51.9745085847
 30
0.0
 10
-12.0492812935
 20
-51.9737410481
 30
0.0
 10
-12.0266964856
 20
-51.9676464187
 30
0.0
 10
-11.9836440362
 20
-51.9552822175
 30
0.0
 10
-11.9222616132
 20
-51.9354079863
 30
0.0
 10
-11.8438576431
 20
-51.9091585975
 30
0.0
 10
-11.7501084887
 20
-51.8767184766
 30
0.0
 10
-11.6003324969
 20
-51.8238098923
 30
0.0
 10
-11.4822972465
 20
-51.7810026683
 30
0.0
 10
-11.4002318895
 20
-51.7509040796
 30
0.0
  0
SPLINE
  5
449
100
AcDbEntity
  8
0
100
AcDbSpline
 62
250
  6
CONTINUOUS
 70
0
 71
3
 72
14
 73
10
 74
0
 42
0.0000001
 43
0.0000001
 44
0.0000000001
 40
0.0
 40
0.0
 40
0.0
 40
0.0
 40
0.0355284289
 40
0.1005671392
 40
0.1939568918
 40
0.3136613099
 40
0.4572981714
 40
0.6219653353
 40
1.0
 40
1.0
 40
1.0
 40
1.0
 10
-7.941248897
 20
-55.0227906081
 30
0.0
 10
-7.9430292658
 20
-55.0149296742
 30
0.0
 10
-7.944002709
 20
-54.9919666601
 30
0.0
 10
-7.9450234814
 20
-54.9480861094
 30
0.0
 10
-7.9442280964
 20
-54.884931544
 30
0.0
 10
-7.9423156964
 20
-54.8040475704
 30
0.0
 10
-7.9389611677
 20
-54.7069972923
 30
0.0
 10
-7.9324900302
 20
-54.5514309668
 30
0.0
 10
-7.9262578607
 20
-54.4284662538
 30
0.0
 10
-7.9215827211
 20
-54.3428323535
 30
0.0
  0
SPLINE
  5
44A
100
AcDbEntity
  8
0
100
AcDbSpline
 62
250
  6
CONTINUOUS
 70
0
 71
3
 72
10
 73
6
 74
0
 42
0.0000001
 43
0.0000001
 44
0.0000000001
 40
0.0
 40
0.0
 40
0.0
 40
0.0
 40
0.49997438
 40
0.74998845
 40
1.0
 40
1.0
 40
1.0
 40
1.0
 10
13.6298733748
 20
-47.2570350943
 30
0.0
 10
13.399553878
 20
-48.0532949654
 30
0.0
 10
13.0298853858
 20
-49.2409263898
 30
0.0
 10
12.4899078595
 20
-50.8085012838
 30
0.0
 10
12.2033208077
 20
-51.5864365711
 30
0.0
 10
12.0574659897
 20
-51.9744173218
 30
0.0
  0
SPLINE
  5
44B
100
AcDbEntity
  8
0
100
AcDbSpline
 62
250
  6
CONTINUOUS
 70
0
 71
3
 72
11
 73
7
 74
0
 42
0.0000001
 43
0.0000001
 44
0.0000000001
 40
0.0
 40
0.0
 40
0.0
 40
0.0
 40
0.2504790222
 40
0.5006516428
 40
0.750442592
 40
1.0
 40
1.0
 40
1.0
 40
1.0
 10
-16.0110790321
 20
-5.8
 30
0.0
 10
-16.0110790321
 20
-5.7349749794
 30
0.0
 10
-15.9851961886
 20
-5.6035895365
 30
0.0
 10
-15.8744429419
 20
-5.437407063
 30
0.0
 10
-15.7089144912
 20
-5.3260586537
 30
0.0
 10
-15.5778558073
 20
-5.3
 30
0.0
 10
-15.5130700401
 20
-5.3
 30
0.0
  0
SPLINE
  5
44C
100
AcDbEntity
  8
0
100
AcDbSpline
 62
250
  6
CONTINUOUS
 70
0
 71
3
 72
11
 73
7
 74
0
 42
0.0000001
 43
0.0000001
 44
0.0000000001
 40
0.0
 40
0.0
 40
0.0
 40
0.0
 40
0.2504790213
 40
0.5006516425
 40
0.7504425927
 40
1.0
 40
1.0
 40
1.0
 40
1.0
 10
16.0110790323
 20
-5.8
 30
0.0
 10
16.0110790323
 20
-5.7349749796
 30
0.0
 10
15.9851961886
 20
-5.6035895369
 30
0.0
 10
15.8744429421
 20
-5.437407063
 30
0.0
 10
15.7089144911
 20
-5.3260586537
 30
0.0
 10
15.5778558071
 20
-5.3
 30
0.0
 10
15.5130700401
 20
-5.3
 30
0.0
  0
SPLINE
  5
44D
100
AcDbEntity
  8
0
100
AcDbSpline
 62
250
  6
CONTINUOUS
 70
0
 71
3
 72
9
 73
5
 74
0
 42
0.0000001
 43
0.0000001
 44
0.0000000001
 40
0.0
 40
0.0
 40
0.0
 40
0.0
 40
0.2161931598
 40
1.0
 40
1.0
 40
1.0
 40
1.0
 10
6.0976965511
 20
-55.3949752671
 30
0.0
 10
6.094209938
 20
-55.3951526403
 30
0.0
 10
6.0780777247
 20
-55.3958766684
 30
0.0
 10
6.0619332213
 20
-55.3962954787
 30
0.0
 10
6.0492786278
 20
-55.3965442799
 30
0.0
  0
SPLINE
  5
44E
100
AcDbEntity
  8
0
100
AcDbSpline
 62
250
  6
CONTINUOUS
 70
0
 71
3
 72
23
 73
19
 74
0
 42
0.0000001
 43
0.0000001
 44
0.0000000001
 40
0.0
 40
0.0
 40
0.0
 40
0.0
 40
0.0095829477
 40
0.0229028283
 40
0.0603203579
 40
0.1111037335
 40
0.1737040203
 40
0.2462170789
 40
0.3264398779
 40
0.5000960733
 40
0.6737383045
 40
0.7539443082
 40
0.8264344755
 40
0.8890062801
 40
0.9397562781
 40
0.9771367155
 40
0.9904370601
 40
1.0
 40
1.0
 40
1.0
 40
1.0
 10
6.0492786278
 20
-55.3965442799
 30
0.0
 10
6.0106325473
 20
-55.3973040985
 30
0.0
 10
5.9182423014
 20
-55.3974436991
 30
0.0
 10
5.674951631
 20
-55.3947602328
 30
0.0
 10
5.2655487756
 20
-55.3857611666
 30
0.0
 10
4.6574702545
 20
-55.3707425366
 30
0.0
 10
3.9078570174
 20
-55.3526960106
 30
0.0
 10
3.0394672869
 20
-55.3346576698
 30
0.0
 10
1.7231017068
 20
-55.3137075582
 30
0.0
 10
-0.0013519696
 20
-55.3021029625
 30
0.0
 10
-1.7257376792
 20
-55.3137368608
 30
0.0
 10
-3.0418865704
 20
-55.3347027694
 30
0.0
 10
-3.9100011905
 20
-55.3527448009
 30
0.0
 10
-4.6592725765
 20
-55.3707876271
 30
0.0
 10
-5.2669521024
 20
-55.3857945581
 30
0.0
 10
-5.6759922044
 20
-55.3947798339
 30
0.0
 10
-5.9189738804
 20
-55.3974475913
 30
0.0
 10
-6.0112046875
 20
-55.39729996
 30
0.0
 10
-6.0497699396
 20
-55.3965345855
 30
0.0
  0
SPLINE
  5
44F
100
AcDbEntity
  8
0
100
AcDbSpline
 62
250
  6
CONTINUOUS
 70
0
 71
3
 72
9
 73
5
 74
0
 42
0.0000001
 43
0.0000001
 44
0.0000000001
 40
0.0
 40
0.0
 40
0.0
 40
0.0
 40
0.2835413777
 40
1.0
 40
1.0
 40
1.0
 40
1.0
 10
-6.0497699396
 20
-55.3965345855
 30
0.0
 10
-6.0543016449
 20
-55.3964446482
 30
0.0
 10
-6.0702830387
 20
-55.3960844308
 30
0.0
 10
-6.086262369
 20
-55.3955570106
 30
0.0
 10
-6.0977006425
 20
-55.3949750589
 30
0.0
  0
SPLINE
  5
450
100
AcDbEntity
  8
0
100
AcDbSpline
 62
250
  6
CONTINUOUS
 70
0
 71
3
 72
10
 73
6
 74
0
 42
0.0000001
 43
0.0000001
 44
0.0000000001
 40
0.0
 40
0.0
 40
0.0
 40
0.0
 40
0.2500116101
 40
0.5000256642
 40
1.0
 40
1.0
 40
1.0
 40
1.0
 10
-12.0574688721
 20
-51.9744096795
 30
0.0
 10
-12.2033229985
 20
-51.5864292892
 30
0.0
 10
-12.4899102645
 20
-50.8084954577
 30
0.0
 10
-13.0298862813
 20
-49.2409229119
 30
0.0
 10
-13.3995542758
 20
-48.0532935877
 30
0.0
 10
-13.6298733748
 20
-47.2570350943
 30
0.0
  0
SPLINE
  5
451
100
AcDbEntity
  8
0
100
AcDbSpline
 62
7
  6
CONTINUOUS
 70
0
 71
3
 72
9
 73
5
 74
0
 42
0.0000001
 43
0.0000001
 44
0.0000000001
 40
0.0
 40
0.0
 40
0.0
 40
0.0
 40
0.2500694842
 40
1.0
 40
1.0
 40
1.0
 40
1.0
 10
10.5674203834
 20
-37.3233311481
 30
0.0
 10
10.6316524353
 20
-37.1809216181
 30
0.0
 10
10.876855398
 20
-36.606235933
 30
0.0
 10
11.0760127051
 20
-36.0120706738
 30
0.0
 10
11.1997781837
 20
-35.5602128899
 30
0.0
  0
SPLINE
  5
452
100
AcDbEntity
  8
0
100
AcDbSpline
 62
250
  6
CONTINUOUS
 70
0
 71
3
 72
27
 73
23
 74
0
 42
0.0000001
 43
0.0000001
 44
0.0000000001
 40
0.0
 40
0.0
 40
0.0
 40
0.0
 40
0.031262659
 40
0.0625242418
 40
0.1250114939
 40
0.1875055877
 40
0.2187694764
 40
0.2500340291
 40
0.312526884
 40
0.3750173783
 40
0.4375081873
 40
0.4999994697
 40
0.5624907819
 40
0.6249815783
 40
0.6874720812
 40
0.7499651846
 40
0.7812300781
 40
0.8124942133
 40
0.8749884886
 40
0.9374757583
 40
0.9687373412
 40
1.0
 40
1.0
 40
1.0
 40
1.0
 10
10.5674203834
 20
-37.3233311481
 30
0.0
 10
10.4387384132
 20
-37.56224327
 30
0.0
 10
10.169021842
 20
-38.0336412022
 30
0.0
 10
9.5700601425
 20
-38.9392376488
 30
0.0
 10
8.7086560282
 20
-39.9926356336
 30
0.0
 10
7.7136627412
 20
-40.9199288193
 30
0.0
 10
6.8557516872
 20
-41.5854821975
 30
0.0
 10
5.9554265074
 20
-42.1926144801
 30
0.0
 10
4.7562712699
 20
-42.8358877173
 30
0.0
 10
3.224730808
 20
-43.4013213705
 30
0.0
 10
1.6285952852
 20
-43.7449208657
 30
0.0
 10
0.0000133061
 20
-43.8616741525
 30
0.0
 10
-1.628568794
 20
-43.7449242388
 30
0.0
 10
-3.2247053589
 20
-43.4013289337
 30
0.0
 10
-4.7562493364
 20
-42.8358976746
 30
0.0
 10
-5.9554081113
 20
-42.1926208065
 30
0.0
 10
-6.8557444613
 20
-41.5854921978
 30
0.0
 10
-7.7136620974
 20
-40.9199360323
 30
0.0
 10
-8.7086536231
 20
-39.9926353337
 30
0.0
 10
-9.5700601907
 20
-38.9392374542
 30
0.0
 10
-10.1690220403
 20
-38.0336408651
 30
0.0
 10
-10.4387387847
 20
-37.5622430319
 30
0.0
 10
-10.5674205408
 20
-37.3233307962
 30
0.0
  0
SPLINE
  5
453
100
AcDbEntity
  8
0
100
AcDbSpline
 62
7
  6
CONTINUOUS
 70
0
 71
3
 72
9
 73
5
 74
0
 42
0.0000001
 43
0.0000001
 44
0.0000000001
 40
0.0
 40
0.0
 40
0.0
 40
0.0
 40
0.749930573
 40
1.0
 40
1.0
 40
1.0
 40
1.0
 10
-11.1997752836
 20
-35.5602829903
 30
0.0
 10
-11.0759994226
 20
-36.0121203883
 30
0.0
 10
-10.8768427502
 20
-36.6062608089
 30
0.0
 10
-10.6316502487
 20
-37.1809264502
 30
0.0
 10
-10.5674205408
 20
-37.3233307962
 30
0.0
  0
LINE
  5
454
100
AcDbEntity
  8
0
100
AcDbLine
 62
250
  6
CONTINUOUS
 10
6.0
 20
-55.5424997656
 11
5.9564071752
 21
-55.5447815532
  0
SPLINE
  5
455
100
AcDbEntity
  8
0
100
AcDbSpline
 62
250
  6
CONTINUOUS
 70
0
 71
3
 72
16
 73
12
 74
0
 42
0.0000001
 43
0.0000001
 44
0.0000000001
 40
0.0
 40
0.0
 40
0.0
 40
0.0
 40
0.0312482527
 40
0.0624978047
 40
0.1249974233
 40
0.2499966957
 40
0.3749967305
 40
0.499997351
 40
0.6249984485
 40
0.7499999016
 40
1.0
 40
1.0
 40
1.0
 40
1.0
 10
7.9215827232
 20
-54.3428323679
 30
0.0
 10
7.8393530167
 20
-54.3508871342
 30
0.0
 10
7.6748274355
 20
-54.3663783678
 30
0.0
 10
7.3454687532
 20
-54.3939107901
 30
0.0
 10
6.7688702779
 20
-54.4394315113
 30
0.0
 10
5.9446738859
 20
-54.4982278914
 30
0.0
 10
4.9549960931
 20
-54.559137623
 30
0.0
 10
3.9647407811
 20
-54.609920284
 30
0.0
 10
2.9740080168
 20
-54.6504757708
 30
0.0
 10
1.6525509114
 20
-54.6907027243
 30
0.0
 10
0.6610183984
 20
-54.7051425984
 30
0.0
 10
0.0
 20
-54.7076985752
 30
0.0
  0
SPLINE
  5
456
100
AcDbEntity
  8
0
100
AcDbSpline
 62
250
  6
CONTINUOUS
 70
0
 71
3
 72
19
 73
15
 74
0
 42
0.0000001
 43
0.0000001
 44
0.0000000001
 40
0.0
 40
0.0
 40
0.0
 40
0.0
 40
0.0614488054
 40
0.1230113914
 40
0.1846929281
 40
0.2465049504
 40
0.3084932789
 40
0.3706920864
 40
0.4330835816
 40
0.4956536175
 40
0.6212008569
 40
0.7472006573
 40
0.8735141091
 40
1.0
 40
1.0
 40
1.0
 40
1.0
 10
9.4038571899
 20
-42.4220902232
 30
0.0
 10
9.2844329662
 20
-42.6154655396
 30
0.0
 10
9.0305355144
 20
-42.9935766012
 30
0.0
 10
8.6110826575
 20
-43.5334188141
 30
0.0
 10
8.1531641479
 20
-44.042943743
 30
0.0
 10
7.6593444415
 20
-44.5199779232
 30
0.0
 10
7.1327046852
 20
-44.9633557328
 30
0.0
 10
6.5783239188
 20
-45.3750331647
 30
0.0
 10
5.9973261531
 20
-45.7522811825
 30
0.0
 10
5.1900552452
 20
-46.2079897586
 30
0.0
 10
4.1272599522
 20
-46.6853876197
 30
0.0
 10
2.7870925864
 20
-47.0943137981
 30
0.0
 10
1.4040329547
 20
-47.337791198
 30
0.0
 10
0.4678285834
 20
-47.3887876708
 30
0.0
 10
-0.0
 20
-47.38706668
 30
0.0
  0
SPLINE
  5
457
100
AcDbEntity
  8
0
100
AcDbSpline
 62
250
  6
CONTINUOUS
 70
0
 71
3
 72
9
 73
5
 74
0
 42
0.0000001
 43
0.0000001
 44
0.0000000001
 40
0.0
 40
0.0
 40
0.0
 40
0.0
 40
0.2470706239
 40
1.0
 40
1.0
 40
1.0
 40
1.0
 10
12.9303649994
 20
-47.039200472
 30
0.0
 10
12.6350449468
 20
-46.6627250481
 30
0.0
 10
11.4459490349
 20
-45.1341089865
 30
0.0
 10
10.277730525
 20
-43.5893680441
 30
0.0
 10
9.4038571899
 20
-42.4220902232
 30
0.0
  0
SPLINE
  5
458
100
AcDbEntity
  8
0
100
AcDbSpline
 62
250
  6
CONTINUOUS
 70
0
 71
3
 72
16
 73
12
 74
0
 42
0.0000001
 43
0.0000001
 44
0.0000000001
 40
0.0
 40
0.0
 40
0.0
 40
0.0
 40
0.2499915629
 40
0.4999891435
 40
0.6249914297
 40
0.6874932122
 40
0.7499952535
 40
0.8124969092
 40
0.8749979559
 40
0.9374993303
 40
1.0
 40
1.0
 40
1.0
 40
1.0
 10
12.9303649994
 20
-47.039200472
 30
0.0
 10
12.8239859934
 20
-47.4383199692
 30
0.0
 10
12.6007727453
 20
-48.2338158263
 30
0.0
 10
12.2971897282
 20
-49.2209503264
 30
0.0
 10
12.0716884709
 20
-49.9077677022
 30
0.0
 10
11.9389490365
 20
-50.2989389497
 30
0.0
 10
11.8384040818
 20
-50.5919773692
 30
0.0
 10
11.7369291183
 20
-50.8847040917
 30
0.0
 10
11.6301683723
 20
-51.1755516323
 30
0.0
 10
11.5187030414
 20
-51.4646319962
 30
0.0
 10
11.4400679586
 20
-51.655629103
 30
0.0
 10
11.4002337797
 20
-51.750904969
 30
0.0
  0
SPLINE
  5
459
100
AcDbEntity
  8
0
100
AcDbSpline
 62
250
  6
CONTINUOUS
 70
0
 71
3
 72
11
 73
7
 74
0
 42
0.0000001
 43
0.0000001
 44
0.0000000001
 40
0.0
 40
0.0
 40
0.0
 40
0.0
 40
0.2491816701
 40
0.4988317586
 40
0.7491592411
 40
1.0
 40
1.0
 40
1.0
 40
1.0
 10
6.0976952324
 20
-55.3949752727
 30
0.0
 10
6.0789621441
 20
-55.3959283422
 30
0.0
 10
6.0414442271
 20
-55.4051707449
 30
0.0
 10
5.9946486507
 20
-55.438980785
 30
0.0
 10
5.963598474
 20
-55.487784426
 30
0.0
 10
5.956392739
 20
-55.5258993524
 30
0.0
 10
5.9564066552
 20
-55.5447815532
 30
0.0
  0
SPLINE
  5
45A
100
AcDbEntity
  8
0
100
AcDbSpline
 62
250
  6
CONTINUOUS
 70
0
 71
3
 72
17
 73
13
 74
0
 42
0.0000001
 43
0.0000001
 44
0.0000000001
 40
0.0
 40
0.0
 40
0.0
 40
0.0
 40
0.1249972481
 40
0.2500034025
 40
0.3750067109
 40
0.4999971965
 40
0.6249765508
 40
0.7499464282
 40
0.8124634042
 40
0.8749774804
 40
0.93749013
 40
1.0
 40
1.0
 40
1.0
 40
1.0
 10
11.4002337797
 20
-51.750904969
 30
0.0
 10
11.3270322535
 20
-51.9259902493
 30
0.0
 10
11.1594590243
 20
-52.2679041872
 30
0.0
 10
10.8416010538
 20
-52.7423269468
 30
0.0
 10
10.4621176485
 20
-53.1691073161
 30
0.0
 10
10.0284675107
 20
-53.5406504162
 30
0.0
 10
9.5484137469
 20
-53.8497550303
 30
0.0
 10
9.1170105107
 20
-54.0508525699
 30
0.0
 10
8.7583029195
 20
-54.1756308709
 30
0.0
 10
8.4834059049
 20
-54.250713678
 30
0.0
 10
8.2042202145
 20
-54.3074075121
 30
0.0
 10
8.0160336437
 20
-54.3335806812
 30
0.0
 10
7.9215827232
 20
-54.3428323679
 30
0.0
  0
SPLINE
  5
45B
100
AcDbEntity
  8
0
100
AcDbSpline
 62
250
  6
CONTINUOUS
 70
0
 71
3
 72
11
 73
7
 74
0
 42
0.0000001
 43
0.0000001
 44
0.0000000001
 40
0.0
 40
0.0
 40
0.0
 40
0.0
 40
0.2491816702
 40
0.49883176
 40
0.7491592427
 40
1.0
 40
1.0
 40
1.0
 40
1.0
 10
-6.0976952358
 20
-55.3949753403
 30
0.0
 10
-6.078962192
 20
-55.3959284672
 30
0.0
 10
-6.0414443881
 20
-55.4051709515
 30
0.0
 10
-5.9946489827
 20
-55.4389809996
 30
0.0
 10
-5.9635989248
 20
-55.487784557
 30
0.0
 10
-5.9563932083
 20
-55.5258993943
 30
0.0
 10
-5.9564071169
 20
-55.5447815532
 30
0.0
  0
SPLINE
  5
45C
100
AcDbEntity
  8
0
100
AcDbSpline
 62
250
  6
CONTINUOUS
 70
0
 71
3
 72
29
 73
25
 74
0
 42
0.0000001
 43
0.0000001
 44
0.0000000001
 40
0.0
 40
0.0
 40
0.0
 40
0.0
 40
0.0075369758
 40
0.0191124786
 40
0.0346350843
 40
0.0539779586
 40
0.0769814202
 40
0.1034559474
 40
0.1659275849
 40
0.2393531681
 40
0.3213317387
 40
0.4091766313
 40
0.4999992847
 40
0.5908219074
 40
0.6786669797
 40
0.7606460545
 40
0.8340721606
 40
0.8965441599
 40
0.9230187405
 40
0.946022149
 40
0.9653649995
 40
0.98088759
 40
0.9924630609
 40
1.0
 40
1.0
 40
1.0
 40
1.0
 10
5.9564071752
 20
-55.5447815532
 30
0.0
 10
5.9265143831
 20
-55.5463401854
 30
0.0
 10
5.8505825919
 20
-55.5473308315
 30
0.0
 10
5.7130407369
 20
-55.5467214925
 30
0.0
 10
5.5286127889
 20
-55.5438241528
 30
0.0
 10
5.2988366027
 20
-55.5390053154
 30
0.0
 10
5.0255891544
 20
-55.5324578131
 30
0.0
 10
4.581118003
 20
-55.5212686117
 30
0.0
 10
3.93645512
 20
-55.5050718193
 30
0.0
 10
3.0713584157
 20
-55.4860954682
 30
0.0
 10
2.105417824
 20
-55.4697662462
 30
0.0
 10
1.0703018558
 20
-55.4587803206
 30
0.0
 10
0.0000086445
 20
-55.4549103982
 30
0.0
 10
-1.0702852825
 20
-55.4587800442
 30
0.0
 10
-2.1054038433
 20
-55.4697660997
 30
0.0
 10
-3.0713492287
 20
-55.486095299
 30
0.0
 10
-3.9364514493
 20
-55.5050717209
 30
0.0
 10
-4.5811180568
 20
-55.5212686131
 30
0.0
 10
-5.0255906455
 20
-55.5324578514
 30
0.0
 10
-5.2988380001
 20
-55.5390053506
 30
0.0
 10
-5.5286138209
 20
-55.5438241685
 30
0.0
 10
-5.7130414878
 20
-55.5467215009
 30
0.0
 10
-5.8505830098
 20
-55.5473308181
 30
0.0
 10
-5.926514529
 20
-55.5463401866
 30
0.0
 10
-5.9564071752
 20
-55.5447815532
 30
0.0
  0
LINE
  5
45D
100
AcDbEntity
  8
0
100
AcDbLine
 62
250
  6
CONTINUOUS
 10
-5.9564071752
 20
-55.5447815532
 11
-6.0
 21
-55.5424997656
  0
SPLINE
  5
45E
100
AcDbEntity
  8
0
100
AcDbSpline
 62
250
  6
CONTINUOUS
 70
0
 71
3
 72
11
 73
7
 74
0
 42
0.0000001
 43
0.0000001
 44
0.0000000001
 40
0.0
 40
0.0
 40
0.0
 40
0.0
 40
0.250018545
 40
0.5000107857
 40
0.7499986095
 40
1.0
 40
1.0
 40
1.0
 40
1.0
 10
14.800338451
 20
-35.5499514182
 30
0.0
 10
14.7237366662
 20
-36.518275282
 30
0.0
 10
14.5364371714
 20
-38.4523027046
 30
0.0
 10
14.1466367737
 20
-41.3407467098
 30
0.0
 10
13.6259994687
 20
-44.2087580321
 30
0.0
 10
13.1793312386
 20
-46.1003686026
 30
0.0
 10
12.9303649994
 20
-47.039200472
 30
0.0
  0
SPLINE
  5
45F
100
AcDbEntity
  8
0
100
AcDbSpline
 62
250
  6
CONTINUOUS
 70
0
 71
3
 72
17
 73
13
 74
0
 42
0.0000001
 43
0.0000001
 44
0.0000000001
 40
0.0
 40
0.0
 40
0.0
 40
0.0
 40
0.0633136823
 40
0.1265937657
 40
0.1898101989
 40
0.2529376826
 40
0.3788338687
 40
0.5041967408
 40
0.6289869246
 40
0.75320499
 40
0.8768631722
 40
1.0
 40
1.0
 40
1.0
 40
1.0
 10
11.1999031336
 20
-35.5665210568
 30
0.0
 10
11.2027366627
 20
-35.7179970995
 30
0.0
 10
11.2024513858
 20
-36.021001105
 30
0.0
 10
11.1866178728
 20
-36.4749978138
 30
0.0
 10
11.1552064278
 20
-36.927756659
 30
0.0
 10
11.092429445
 20
-37.5281647455
 30
0.0
 10
10.9772418452
 20
-38.2721552614
 30
0.0
 10
10.7835058562
 20
-39.1515125433
 30
0.0
 10
10.5321732836
 20
-40.0121444136
 30
0.0
 10
10.2193677185
 20
-40.848151764
 30
0.0
 10
9.8451012383
 20
-41.6541430252
 30
0.0
 10
9.5562214609
 20
-42.1698893182
 30
0.0
 10
9.4038571899
 20
-42.4220902232
 30
0.0
  0
SPLINE
  5
460
100
AcDbEntity
  8
0
100
AcDbSpline
 62
250
  6
CONTINUOUS
 70
0
 71
3
 72
9
 73
5
 74
0
 42
0.0000001
 43
0.0000001
 44
0.0000000001
 40
0.0
 40
0.0
 40
0.0
 40
0.0
 40
0.2901558977
 40
1.0
 40
1.0
 40
1.0
 40
1.0
 10
11.1997781837
 20
-35.5602128899
 30
0.0
 10
11.1999403824
 20
-35.5611875994
 30
0.0
 10
11.1998972522
 20
-35.5534261024
 30
0.0
 10
11.1999286685
 20
-35.5524173058
 30
0.0
 10
11.1999154079
 20
-35.55
 30
0.0
  0
SPLINE
  5
461
100
AcDbEntity
  8
0
100
AcDbSpline
 62
250
  6
CONTINUOUS
 70
0
 71
3
 72
16
 73
12
 74
0
 42
0.0000001
 43
0.0000001
 44
0.0000000001
 40
0.0
 40
0.0
 40
0.0
 40
0.0
 40
0.2500000913
 40
0.375001545
 40
0.5000026423
 40
0.6250032606
 40
0.7500032929
 40
0.8750025639
 40
0.9375021812
 40
0.9687517328
 40
1.0
 40
1.0
 40
1.0
 40
1.0
 10
0.0
 20
-54.7076985752
 30
0.0
 10
-0.6610183831
 20
-54.7051426142
 30
0.0
 10
-1.652550883
 20
-54.6907027095
 30
0.0
 10
-2.9740079794
 20
-54.6504757906
 30
0.0
 10
-3.9647407377
 20
-54.6099202198
 30
0.0
 10
-4.9549960618
 20
-54.5591378165
 30
0.0
 10
-5.9446737736
 20
-54.498227224
 30
0.0
 10
-6.7688703735
 20
-54.4394335183
 30
0.0
 10
-7.3454686203
 20
-54.3939103355
 30
0.0
 10
-7.6748277901
 20
-54.3663830268
 30
0.0
 10
-7.8393529759
 20
-54.3508871158
 30
0.0
 10
-7.9215827232
 20
-54.3428323679
 30
0.0
  0
SPLINE
  5
462
100
AcDbEntity
  8
0
100
AcDbSpline
 62
250
  6
CONTINUOUS
 70
0
 71
3
 72
17
 73
13
 74
0
 42
0.0000001
 43
0.0000001
 44
0.0000000001
 40
0.0
 40
0.0
 40
0.0
 40
0.0
 40
0.0625100394
 40
0.1250228633
 40
0.1875371217
 40
0.250054285
 40
0.3750245859
 40
0.5000042756
 40
0.62499395
 40
0.7499961284
 40
0.8750017264
 40
1.0
 40
1.0
 40
1.0
 40
1.0
 10
-7.9215827232
 20
-54.3428323679
 30
0.0
 10
-8.0160338917
 20
-54.3335806576
 30
0.0
 10
-8.2042209416
 20
-54.3074072528
 30
0.0
 10
-8.4834073986
 20
-54.2507133353
 30
0.0
 10
-8.7583052035
 20
-54.1756303529
 30
0.0
 10
-9.1170137706
 20
-54.0508512658
 30
0.0
 10
-9.5484180517
 20
-53.8497527161
 30
0.0
 10
-10.0284714555
 20
-53.5406475896
 30
0.0
 10
-10.462118613
 20
-53.1691052327
 30
0.0
 10
-10.84160221
 20
-52.7423297174
 30
0.0
 10
-11.1594520211
 20
-52.2679029273
 30
0.0
 10
-11.3270305508
 20
-51.9259912073
 30
0.0
 10
-11.4002337797
 20
-51.750904969
 30
0.0
  0
LINE
  5
463
100
AcDbEntity
  8
RACCORDO
100
AcDbLine
 62
250
  6
CONTINUOUS
 10
-52.4174421651
 20
-12.3000002972
 11
-52.444495481
 21
-15.5500000006
  0
LINE
  5
464
100
AcDbEntity
  8
RACCORDO
100
AcDbLine
 62
250
  6
CONTINUOUS
 10
-52.444495481
 20
-9.05
 11
-52.4174421651
 21
-12.3000002972
  0
SPLINE
  5
465
100
AcDbEntity
  8
0
100
AcDbSpline
 62
7
  6
CONTINUOUS
 70
0
 71
3
 72
10
 73
6
 74
0
 42
0.0000001
 43
0.0000001
 44
0.0000000001
 40
0.0
 40
0.0
 40
0.0
 40
0.0
 40
0.2607182287
 40
0.5164685806
 40
1.0
 40
1.0
 40
1.0
 40
1.0
 10
-66.5209902857
 20
-37.0146838042
 30
0.0
 10
-66.5543262865
 20
-37.4770830515
 30
0.0
 10
-66.6501527846
 20
-38.3911499917
 30
0.0
 10
-66.9325168224
 20
-40.147209577
 30
0.0
 10
-67.2314705118
 20
-41.4298678222
 30
0.0
 10
-67.4660033321
 20
-42.2570593885
 30
0.0
  0
SPLINE
  5
466
100
AcDbEntity
  8
0
100
AcDbSpline
 62
250
  6
CONTINUOUS
 70
0
 71
3
 72
16
 73
12
 74
0
 42
0.0000001
 43
0.0000001
 44
0.0000000001
 40
0.0
 40
0.0
 40
0.0
 40
0.0
 40
0.1925995345
 40
0.3780064231
 40
0.54888913
 40
0.6989461183
 40
0.822474721
 40
0.9149829878
 40
0.9735619647
 40
0.9901519332
 40
1.0
 40
1.0
 40
1.0
 40
1.0
 10
-65.5565890196
 20
-5.8
 30
0.0
 10
-65.5565890196
 20
-5.767494184
 30
0.0
 10
-65.5560376867
 20
-5.703694507
 30
0.0
 10
-65.5535870506
 20
-5.6110856851
 30
0.0
 10
-65.5496108252
 20
-5.525706047
 30
0.0
 10
-65.5443086507
 20
-5.4508915682
 30
0.0
 10
-65.5378986279
 20
-5.3893600637
 30
0.0
 10
-65.5308428609
 20
-5.3436739309
 30
0.0
 10
-65.5238746293
 20
-5.3158879073
 30
0.0
 10
-65.5176908041
 20
-5.3030678208
 30
0.0
 10
-65.513674849
 20
-5.3
 30
0.0
 10
-65.5120127503
 20
-5.3
 30
0.0
  0
SPLINE
  5
467
100
AcDbEntity
  8
0
100
AcDbSpline
 62
250
  6
CONTINUOUS
 70
0
 71
3
 72
33
 73
29
 74
0
 42
0.0000001
 43
0.0000001
 44
0.0000000001
 40
0.0
 40
0.0
 40
0.0
 40
0.0
 40
0.2011302523
 40
0.3911928001
 40
0.4801091759
 40
0.5639657185
 40
0.6420812492
 40
0.7138158489
 40
0.7785799135
 40
0.8358390957
 40
0.8851204296
 40
0.9066387257
 40
0.9260152
 40
0.9432069414
 40
0.9581800666
 40
0.9709040974
 40
0.9813495447
 40
0.9857111494
 40
0.9894961186
 40
0.9927025477
 40
0.995328532
 40
0.9973721682
 40
0.9981751051
 40
0.9988320595
 40
0.9993430287
 40
0.9997080103
 40
0.9999270016
 40
1.0
 40
1.0
 40
1.0
 40
1.0
 10
-60.1893876986
 20
-55.5447815532
 30
0.0
 10
-60.5433194991
 20
-55.5470184044
 30
0.0
 10
-61.2317314052
 20
-55.5481785708
 30
0.0
 10
-62.0765916943
 20
-55.5419792089
 30
0.0
 10
-62.7150321406
 20
-55.5331808336
 30
0.0
 10
-63.156464391
 20
-55.5253338069
 30
0.0
 10
-63.5676352354
 20
-55.5164829065
 30
0.0
 10
-63.9451852033
 20
-55.5070443085
 30
0.0
 10
-64.286015809
 20
-55.4974436687
 30
0.0
 10
-64.5873245424
 20
-55.4881021147
 30
0.0
 10
-64.8125499691
 20
-55.4805607603
 30
0.0
 10
-64.9711395171
 20
-55.4749894166
 30
0.0
 10
-65.0732907174
 20
-55.4713021763
 30
0.0
 10
-65.1639287987
 20
-55.4679550092
 30
0.0
 10
-65.2428659826
 20
-55.4649803612
 30
0.0
 10
-65.3099381278
 20
-55.4624076917
 30
0.0
 10
-65.3583493005
 20
-55.460525996
 30
0.0
 10
-65.3910416334
 20
-55.4592445663
 30
0.0
 10
-65.4110042427
 20
-55.4584573895
 30
0.0
 10
-65.427916162
 20
-55.4577891161
 30
0.0
 10
-65.4417623693
 20
-55.4572349437
 30
0.0
 10
-65.4513913138
 20
-55.4568597918
 30
0.0
 10
-65.4575422078
 20
-55.4566014864
 30
0.0
 10
-65.4610276881
 20
-55.456490127
 30
0.0
 10
-65.4636714238
 20
-55.4563135816
 30
0.0
 10
-65.4657135617
 20
-55.4563931455
 30
0.0
 10
-65.4666638391
 20
-55.4560729554
 30
0.0
 10
-65.4673893605
 20
-55.4563362335
 30
0.0
 10
-65.467430614
 20
-55.456214579
 30
0.0
  0
LINE
  5
468
100
AcDbEntity
  8
0
100
AcDbLine
 62
250
  6
CONTINUOUS
 10
-65.602013791
 20
-55.3068973043
 11
-65.6036675459
 21
-55.3068330806
  0
SPLINE
  5
469
100
AcDbEntity
  8
0
100
AcDbSpline
 62
250
  6
CONTINUOUS
 70
0
 71
3
 72
13
 73
9
 74
0
 42
0.0000001
 43
0.0000001
 44
0.0000000001
 40
0.0
 40
0.0
 40
0.0
 40
0.0
 40
0.0351602788
 40
0.1003646872
 40
0.1963161618
 40
0.3201283486
 40
0.6344509028
 40
1.0
 40
1.0
 40
1.0
 40
1.0
 10
-60.2074364791
 20
-55.3949752727
 30
0.0
 10
-60.2057900074
 20
-55.3956645964
 30
0.0
 10
-60.2030588213
 20
-55.400621062
 30
0.0
 10
-60.2001539029
 20
-55.4098217562
 30
0.0
 10
-60.1972658573
 20
-55.4241779935
 30
0.0
 10
-60.1935492249
 20
-55.4509598166
 30
0.0
 10
-60.1904665306
 20
-55.4917308912
 30
0.0
 10
-60.1895004185
 20
-55.5262244256
 30
0.0
 10
-60.1893876356
 20
-55.5447815532
 30
0.0
  0
SPLINE
  5
46A
100
AcDbEntity
  8
0
100
AcDbSpline
 62
250
  6
CONTINUOUS
 70
0
 71
3
 72
18
 73
14
 74
0
 42
0.0000001
 43
0.0000001
 44
0.0000000001
 40
0.0
 40
0.0
 40
0.0
 40
0.0
 40
0.1204279833
 40
0.2319309654
 40
0.3359518524
 40
0.4323889036
 40
0.6024538781
 40
0.7421385818
 40
0.8514026985
 40
0.9303063898
 40
0.9791182633
 40
0.9926356262
 40
1.0
 40
1.0
 40
1.0
 40
1.0
 10
-65.8252382134
 20
-55.0227906286
 30
0.0
 10
-65.8295821883
 20
-55.0326869172
 30
0.0
 10
-65.834531615
 20
-55.0530718953
 30
0.0
 10
-65.8413722706
 20
-55.0823740597
 30
0.0
 10
-65.8483021047
 20
-55.1095159816
 30
0.0
 10
-65.8566741925
 20
-55.1416915354
 30
0.0
 10
-65.8662160564
 20
-55.1768835804
 30
0.0
 10
-65.8768000443
 20
-55.2129505106
 30
0.0
 10
-65.8857989301
 20
-55.2410186918
 30
0.0
 10
-65.893023496
 20
-55.2609118131
 30
0.0
 10
-65.8982918259
 20
-55.272678288
 30
0.0
 10
-65.9016565082
 20
-55.2777608583
 30
0.0
 10
-65.9033833505
 20
-55.2790230096
 30
0.0
 10
-65.9040412747
 20
-55.2789602605
 30
0.0
  0
SPLINE
  5
46B
100
AcDbEntity
  8
0
100
AcDbSpline
 62
250
  6
CONTINUOUS
 70
0
 71
3
 72
14
 73
10
 74
0
 42
0.0000001
 43
0.0000001
 44
0.0000000001
 40
0.0
 40
0.0
 40
0.0
 40
0.0
 40
0.2524614304
 40
0.3781069708
 40
0.5033441648
 40
0.6281603244
 40
0.7525433746
 40
0.8764751095
 40
1.0
 40
1.0
 40
1.0
 40
1.0
 10
-65.7753891815
 20
-47.2570350943
 30
0.0
 10
-65.782448834
 20
-47.6539829877
 30
0.0
 10
-65.791642733
 20
-48.2485102374
 30
0.0
 10
-65.8014379579
 20
-49.0399885236
 30
0.0
 10
-65.8077119865
 20
-49.6307647206
 30
0.0
 10
-65.8131476297
 20
-50.2195622659
 30
0.0
 10
-65.8166226548
 20
-50.8063294795
 30
0.0
 10
-65.8218350523
 20
-51.3910239938
 30
0.0
 10
-65.8207467404
 20
-51.7802390389
 30
0.0
 10
-65.8154591353
 20
-51.9744173218
 30
0.0
  0
SPLINE
  5
46C
100
AcDbEntity
  8
0
100
AcDbSpline
 62
250
  6
CONTINUOUS
 70
0
 71
3
 72
11
 73
7
 74
0
 42
0.0000001
 43
0.0000001
 44
0.0000000001
 40
0.0
 40
0.0
 40
0.0
 40
0.0
 40
0.2531275596
 40
0.5045598283
 40
0.7537074331
 40
1.0
 40
1.0
 40
1.0
 40
1.0
 10
-65.5565890215
 20
-35.6380408142
 30
0.0
 10
-65.5637928753
 20
-36.6185578513
 30
0.0
 10
-65.5891924552
 20
-38.5729535551
 30
0.0
 10
-65.6514436064
 20
-41.4919459583
 30
0.0
 10
-65.7193654117
 20
-44.3843162567
 30
0.0
 10
-65.7584235133
 20
-46.3031192516
 30
0.0
 10
-65.7753891815
 20
-47.2570350943
 30
0.0
  0
SPLINE
  5
46D
100
AcDbEntity
  8
0
100
AcDbSpline
 62
250
  6
CONTINUOUS
 70
0
 71
3
 72
17
 73
13
 74
0
 42
0.0000001
 43
0.0000001
 44
0.0000000001
 40
0.0
 40
0.0
 40
0.0
 40
0.0
 40
0.1209812577
 40
0.2280815579
 40
0.3280152869
 40
0.4215286927
 40
0.5881364194
 40
0.7271758284
 40
0.8381841304
 40
0.9208059526
 40
0.974789249
 40
1.0
 40
1.0
 40
1.0
 40
1.0
 10
-66.6800780934
 20
-54.3428323679
 30
0.0
 10
-66.6825349358
 20
-54.3574079528
 30
0.0
 10
-66.6848566692
 20
-54.3852257466
 30
0.0
 10
-66.6882596485
 20
-54.4251401633
 30
0.0
 10
-66.6917314483
 20
-54.4617001368
 30
0.0
 10
-66.6956584723
 20
-54.5055142815
 30
0.0
 10
-66.6999496845
 20
-54.5540924025
 30
0.0
 10
-66.7043909051
 20
-54.6048095671
 30
0.0
 10
-66.7080172678
 20
-54.6452778977
 30
0.0
 10
-66.7106186556
 20
-54.6754532231
 30
0.0
 10
-66.7129234859
 20
-54.6950273454
 30
0.0
 10
-66.7137766889
 20
-54.7047479298
 30
0.0
 10
-66.714660573
 20
-54.7076985752
 30
0.0
  0
SPLINE
  5
46E
100
AcDbEntity
  8
0
100
AcDbSpline
 62
250
  6
CONTINUOUS
 70
0
 71
3
 72
13
 73
9
 74
0
 42
0.0000001
 43
0.0000001
 44
0.0000000001
 40
0.0
 40
0.0
 40
0.0
 40
0.0
 40
0.1723111735
 40
0.3330747587
 40
0.6148237533
 40
0.7346032677
 40
0.8392577659
 40
1.0
 40
1.0
 40
1.0
 40
1.0
 10
-67.5133207284
 20
-42.4220902232
 30
0.0
 10
-67.5887747204
 20
-42.6788833492
 30
0.0
 10
-67.7363482449
 20
-43.1747528694
 30
0.0
 10
-68.0144311423
 20
-44.0883896285
 30
0.0
 10
-68.2830153264
 20
-44.9195020552
 30
0.0
 10
-68.5178927257
 20
-45.6698483936
 30
0.0
 10
-68.6950511223
 20
-46.2413116297
 30
0.0
 10
-68.8129540842
 20
-46.6363392806
 30
0.0
 10
-68.8865993636
 20
-46.8749101255
 30
0.0
  0
SPLINE
  5
46F
100
AcDbEntity
  8
0
100
AcDbSpline
 62
250
  6
CONTINUOUS
 70
0
 71
3
 72
18
 73
14
 74
0
 42
0.0000001
 43
0.0000001
 44
0.0000000001
 40
0.0
 40
0.0
 40
0.0
 40
0.0
 40
0.2354292636
 40
0.4393981454
 40
0.6117661898
 40
0.7524851749
 40
0.8615487334
 40
0.9042148957
 40
0.9389747948
 40
0.9658342337
 40
0.9848057311
 40
0.9959830128
 40
1.0
 40
1.0
 40
1.0
 40
1.0
 10
-68.8865993636
 20
-46.8749101255
 30
0.0
 10
-68.8991158214
 20
-46.9154566745
 30
0.0
 10
-68.9225838113
 20
-46.991098971
 30
0.0
 10
-68.9556551566
 20
-47.0962874785
 30
0.0
 10
-68.9840542757
 20
-47.1850574508
 30
0.0
 10
-69.0077612705
 20
-47.2573439609
 30
0.0
 10
-69.0247518614
 20
-47.307282475
 30
0.0
 10
-69.0360260232
 20
-47.3388920859
 30
0.0
 10
-69.0426740532
 20
-47.3565958906
 30
0.0
 10
-69.0478574283
 20
-47.3698552444
 30
0.0
 10
-69.0524186332
 20
-47.3797947944
 30
0.0
 10
-69.0545789063
 20
-47.3843196483
 30
0.0
 10
-69.0570906874
 20
-47.3874692493
 30
0.0
 10
-69.057692487
 20
-47.38706668
 30
0.0
  0
SPLINE
  5
470
100
AcDbEntity
  8
0
100
AcDbSpline
 62
250
  6
CONTINUOUS
 70
0
 71
3
 72
15
 73
11
 74
0
 42
0.0000001
 43
0.0000001
 44
0.0000000001
 40
0.0
 40
0.0
 40
0.0
 40
0.0
 40
0.2532392767
 40
0.3791677642
 40
0.5046177942
 40
0.6295552667
 40
0.7540253996
 40
0.8160966239
 40
0.8778286521
 40
1.0
 40
1.0
 40
1.0
 40
1.0
 10
-66.6471924248
 20
-47.039200472
 30
0.0
 10
-66.6518529152
 20
-47.4369121739
 30
0.0
 10
-66.6577567002
 20
-48.0324073021
 30
0.0
 10
-66.6638370053
 20
-48.8249396442
 30
0.0
 10
-66.6676505837
 20
-49.4159712631
 30
0.0
 10
-66.6710619645
 20
-50.0047154812
 30
0.0
 10
-66.6727900583
 20
-50.4939220122
 30
0.0
 10
-66.6741612358
 20
-50.8838611924
 30
0.0
 10
-66.6767933983
 20
-51.2701747214
 30
0.0
 10
-66.6779632462
 20
-51.5590439482
 30
0.0
 10
-66.6750594236
 20
-51.750904969
 30
0.0
  0
SPLINE
  5
471
100
AcDbEntity
  8
0
100
AcDbSpline
 62
250
  6
CONTINUOUS
 70
0
 71
3
 72
18
 73
14
 74
0
 42
0.0000001
 43
0.0000001
 44
0.0000000001
 40
0.0
 40
0.0
 40
0.0
 40
0.0
 40
0.1969645168
 40
0.3793858383
 40
0.5435240249
 40
0.68637209
 40
0.8052553629
 40
0.8550247269
 40
0.8980546638
 40
0.9341495513
 40
0.9631524515
 40
0.9851358947
 40
1.0
 40
1.0
 40
1.0
 40
1.0
 10
-66.6750594236
 20
-51.750904969
 30
0.0
 10
-66.6724657618
 20
-51.9210982431
 30
0.0
 10
-66.6669018327
 20
-52.2489100576
 30
0.0
 10
-66.661825642
 20
-52.7185887605
 30
0.0
 10
-66.6593417961
 20
-53.1415198779
 30
0.0
 10
-66.6589882246
 20
-53.5095494373
 30
0.0
 10
-66.6605630728
 20
-53.7787424501
 30
0.0
 10
-66.6630769197
 20
-53.9616569386
 30
0.0
 10
-66.6653011525
 20
-54.0730265038
 30
0.0
 10
-66.6680607279
 20
-54.1664217173
 30
0.0
 10
-66.6713895646
 20
-54.2416278171
 30
0.0
 10
-66.6756847797
 20
-54.2983375901
 30
0.0
 10
-66.6779426197
 20
-54.3301658377
 30
0.0
 10
-66.6800780934
 20
-54.3428323679
 30
0.0
  0
LINE
  5
472
100
AcDbEntity
  8
0
100
AcDbLine
 62
250
  6
CONTINUOUS
 10
-66.4773637008
 20
-36.6176286571
 11
-66.4782219442
 21
-36.6935095034
  0
SPLINE
  5
473
100
AcDbEntity
  8
0
100
AcDbSpline
 62
250
  6
CONTINUOUS
 70
0
 71
3
 72
11
 73
7
 74
0
 42
0.0000001
 43
0.0000001
 44
0.0000000001
 40
0.0
 40
0.0
 40
0.0
 40
0.0
 40
0.2523967151
 40
0.5036198793
 40
0.7530607887
 40
1.0
 40
1.0
 40
1.0
 40
1.0
 10
-66.4782219442
 20
-36.6935095034
 30
0.0
 10
-66.4881793634
 20
-37.5639766696
 30
0.0
 10
-66.5159783843
 20
-39.3007706513
 30
0.0
 10
-66.5676514507
 20
-41.8975836802
 30
0.0
 10
-66.6142603221
 20
-44.4756745069
 30
0.0
 10
-66.6375185118
 20
-46.1875543974
 30
0.0
 10
-66.6471924248
 20
-47.039200472
 30
0.0
  0
SPLINE
  5
474
100
AcDbEntity
  8
0
100
AcDbSpline
 62
250
  6
CONTINUOUS
 70
0
 71
3
 72
9
 73
5
 74
0
 42
0.0000001
 43
0.0000001
 44
0.0000000001
 40
0.0
 40
0.0
 40
0.0
 40
0.0
 40
0.5109552048
 40
1.0
 40
1.0
 40
1.0
 40
1.0
 10
-67.5133207284
 20
-42.4220902232
 30
0.0
 10
-67.5221326985
 20
-42.3925914865
 30
0.0
 10
-67.5321710064
 20
-42.3322503027
 30
0.0
 10
-67.5233927354
 20
-42.27150006
 30
0.0
 10
-67.5146680882
 20
-42.2433546929
 30
0.0
  0
SPLINE
  5
475
100
AcDbEntity
  8
0
100
AcDbSpline
 62
250
  6
CONTINUOUS
 70
0
 71
3
 72
18
 73
14
 74
0
 42
0.0000001
 43
0.0000001
 44
0.0000000001
 40
0.0
 40
0.0
 40
0.0
 40
0.0
 40
0.0098245534
 40
0.0261653303
 40
0.0506935784
 40
0.0837011249
 40
0.1250657345
 40
0.1745517206
 40
0.29629654
 40
0.445062788
 40
0.6158307828
 40
0.8030068401
 40
1.0
 40
1.0
 40
1.0
 40
1.0
 10
-66.4674364791
 20
-35.55
 30
0.0
 10
-66.4674364791
 20
-35.553023162
 30
0.0
 10
-66.4620498673
 20
-35.5603358971
 30
0.0
 10
-66.4482180131
 20
-35.5672862728
 30
0.0
 10
-66.4267103065
 20
-35.5750309189
 30
0.0
 10
-66.3971723484
 20
-35.5823546898
 30
0.0
 10
-66.3597459626
 20
-35.5896577549
 30
0.0
 10
-66.2950791863
 20
-35.5996080397
 30
0.0
 10
-66.1971695305
 20
-35.6104251778
 30
0.0
 10
-66.0617835025
 20
-35.6210088148
 30
0.0
 10
-65.9060739511
 20
-35.6294129481
 30
0.0
 10
-65.735405677
 20
-35.6353205363
 30
0.0
 10
-65.6172036897
 20
-35.6374304609
 30
0.0
 10
-65.5565890215
 20
-35.6380408142
 30
0.0
  0
SPLINE
  5
476
100
AcDbEntity
  8
0
100
AcDbSpline
 62
250
  6
CONTINUOUS
 70
0
 71
3
 72
13
 73
9
 74
0
 42
0.0000001
 43
0.0000001
 44
0.0000000001
 40
0.0
 40
0.0
 40
0.0
 40
0.0
 40
0.3221931342
 40
0.6094976424
 40
0.7329137594
 40
0.839791948
 40
0.9288748813
 40
1.0
 40
1.0
 40
1.0
 40
1.0
 10
-65.7753891816
 20
-47.2570350948
 30
0.0
 10
-65.8732382024
 20
-47.2528948892
 30
0.0
 10
-66.0580965618
 20
-47.2375475318
 30
0.0
 10
-66.2780090393
 20
-47.198764339
 30
0.0
 10
-66.4295267934
 20
-47.1559214275
 30
0.0
 10
-66.5205416629
 20
-47.121622653
 30
0.0
 10
-66.5928595793
 20
-47.0843697246
 30
0.0
 10
-66.6321705551
 20
-47.0547490741
 30
0.0
 10
-66.6471924264
 20
-47.0392004721
 30
0.0
  0
SPLINE
  5
477
100
AcDbEntity
  8
0
100
AcDbSpline
 62
250
  6
CONTINUOUS
 70
0
 71
3
 72
13
 73
9
 74
0
 42
0.0000001
 43
0.0000001
 44
0.0000000001
 40
0.0
 40
0.0
 40
0.0
 40
0.0
 40
0.3132853129
 40
0.5952340325
 40
0.7184143301
 40
0.8274114789
 40
0.9212475243
 40
1.0
 40
1.0
 40
1.0
 40
1.0
 10
-65.8154573072
 20
-51.9745093291
 30
0.0
 10
-65.9100228902
 20
-51.9736445235
 30
0.0
 10
-66.0897306739
 20
-51.9630380743
 30
0.0
 10
-66.304130753
 20
-51.9258901675
 30
0.0
 10
-66.4529510694
 20
-51.8812497612
 30
0.0
 10
-66.5442343156
 20
-51.8438942053
 30
0.0
 10
-66.6183857942
 20
-51.8018532068
 30
0.0
 10
-66.658970186
 20
-51.768408249
 30
0.0
 10
-66.6750559575
 20
-51.7509044996
 30
0.0
  0
SPLINE
  5
478
100
AcDbEntity
  8
0
100
AcDbSpline
 62
250
  6
CONTINUOUS
 70
0
 71
3
 72
20
 73
16
 74
0
 42
0.0000001
 43
0.0000001
 44
0.0000000001
 40
0.0
 40
0.0
 40
0.0
 40
0.0
 40
0.2013827451
 40
0.3874554577
 40
0.5543655603
 40
0.6987045078
 40
0.7614716947
 40
0.8175341041
 40
0.8666074493
 40
0.9084441688
 40
0.9428346403
 40
0.9696132142
 40
0.9886737373
 40
0.9952976669
 40
1.0
 40
1.0
 40
1.0
 40
1.0
 10
-65.8154592073
 20
-51.9744173191
 30
0.0
 10
-65.810954276
 20
-52.1791086937
 30
0.0
 10
-65.8029837618
 20
-52.572947416
 30
0.0
 10
-65.7956811937
 20
-53.1365144892
 30
0.0
 10
-65.7920167719
 20
-53.6421183619
 30
0.0
 10
-65.7916382835
 20
-54.0223754687
 30
0.0
 10
-65.7931980934
 20
-54.2899291244
 30
0.0
 10
-65.7951140251
 20
-54.4606219041
 30
0.0
 10
-65.7978072702
 20
-54.6100234645
 30
0.0
 10
-65.8012723492
 20
-54.7373658357
 30
0.0
 10
-65.8054797825
 20
-54.8420170377
 30
0.0
 10
-65.8107183607
 20
-54.9234102688
 30
0.0
 10
-65.8161200742
 20
-54.9765287846
 30
0.0
 10
-65.8211202232
 20
-55.0070011729
 30
0.0
 10
-65.8236720215
 20
-55.0182737058
 30
0.0
 10
-65.8252382135
 20
-55.0227906286
 30
0.0
  0
SPLINE
  5
479
100
AcDbEntity
  8
0
100
AcDbSpline
 62
7
  6
CONTINUOUS
 70
0
 71
3
 72
10
 73
6
 74
0
 42
0.0000001
 43
0.0000001
 44
0.0000000001
 40
0.0
 40
0.0
 40
0.0
 40
0.0
 40
0.2607137606
 40
0.5165442624
 40
1.0
 40
1.0
 40
1.0
 40
1.0
 10
-52.423910514
 20
-36.8686236678
 30
0.0
 10
-52.3929189474
 20
-37.34391815
 30
0.0
 10
-52.2996166925
 20
-38.2837773668
 30
0.0
 10
-52.015355121
 20
-40.0889586245
 30
0.0
 10
-51.7097978452
 20
-41.4073105481
 30
0.0
 10
-51.468871703
 20
-42.2570520633
 30
0.0
  0
SPLINE
  5
47A
100
AcDbEntity
  8
0
100
AcDbSpline
 62
250
  6
CONTINUOUS
 70
0
 71
3
 72
18
 73
14
 74
0
 42
0.0000001
 43
0.0000001
 44
0.0000000001
 40
0.0
 40
0.0
 40
0.0
 40
0.0
 40
0.0098245534
 40
0.0261653303
 40
0.0506935784
 40
0.0837011249
 40
0.1250657345
 40
0.1745517206
 40
0.29629654
 40
0.445062788
 40
0.6158307828
 40
0.8030068401
 40
1.0
 40
1.0
 40
1.0
 40
1.0
 10
-52.4674364791
 20
-35.55
 30
0.0
 10
-52.4674364791
 20
-35.553023162
 30
0.0
 10
-52.4728230909
 20
-35.5603358971
 30
0.0
 10
-52.4866549451
 20
-35.5672862728
 30
0.0
 10
-52.5081626517
 20
-35.5750309189
 30
0.0
 10
-52.5377006098
 20
-35.5823546898
 30
0.0
 10
-52.5751269956
 20
-35.5896577549
 30
0.0
 10
-52.6397937719
 20
-35.5996080397
 30
0.0
 10
-52.7377034277
 20
-35.6104251778
 30
0.0
 10
-52.8730894557
 20
-35.6210088148
 30
0.0
 10
-53.0287990071
 20
-35.6294129481
 30
0.0
 10
-53.1994672812
 20
-35.6353205363
 30
0.0
 10
-53.3176692685
 20
-35.6374304609
 30
0.0
 10
-53.3782839367
 20
-35.6380408142
 30
0.0
  0
SPLINE
  5
47B
100
AcDbEntity
  8
0
100
AcDbSpline
 62
250
  6
CONTINUOUS
 70
0
 71
3
 72
16
 73
12
 74
0
 42
0.0000001
 43
0.0000001
 44
0.0000000001
 40
0.0
 40
0.0
 40
0.0
 40
0.0
 40
0.1925995345
 40
0.3780064231
 40
0.54888913
 40
0.6989461183
 40
0.822474721
 40
0.9149829878
 40
0.9735619647
 40
0.9901519332
 40
1.0
 40
1.0
 40
1.0
 40
1.0
 10
-53.3782839386
 20
-5.8
 30
0.0
 10
-53.3782839386
 20
-5.767494184
 30
0.0
 10
-53.3788352715
 20
-5.703694507
 30
0.0
 10
-53.3812859076
 20
-5.6110856851
 30
0.0
 10
-53.385262133
 20
-5.525706047
 30
0.0
 10
-53.3905643075
 20
-5.4508915682
 30
0.0
 10
-53.3969743303
 20
-5.3893600637
 30
0.0
 10
-53.4040300973
 20
-5.3436739309
 30
0.0
 10
-53.410998329
 20
-5.3158879073
 30
0.0
 10
-53.4171821541
 20
-5.3030678208
 30
0.0
 10
-53.4211981092
 20
-5.3
 30
0.0
 10
-53.4228602079
 20
-5.3
 30
0.0
  0
SPLINE
  5
47C
100
AcDbEntity
  8
0
100
AcDbSpline
 62
250
  6
CONTINUOUS
 70
0
 71
3
 72
33
 73
29
 74
0
 42
0.0000001
 43
0.0000001
 44
0.0000000001
 40
0.0
 40
0.0
 40
0.0
 40
0.0
 40
0.2011302523
 40
0.3911928001
 40
0.4801091759
 40
0.5639657186
 40
0.6420812492
 40
0.7138158489
 40
0.7785799135
 40
0.8358390957
 40
0.8851204297
 40
0.9066387257
 40
0.9260152
 40
0.9432069414
 40
0.9581800666
 40
0.9709040975
 40
0.9813495447
 40
0.9857111494
 40
0.9894961186
 40
0.9927025477
 40
0.995328532
 40
0.9973721682
 40
0.9981751051
 40
0.9988320595
 40
0.9993430288
 40
0.9997080103
 40
0.9999270016
 40
1.0
 40
1.0
 40
1.0
 40
1.0
 10
-58.7454852596
 20
-55.5447815532
 30
0.0
 10
-58.3915534591
 20
-55.5470184044
 30
0.0
 10
-57.703141553
 20
-55.5481785708
 30
0.0
 10
-56.8582812637
 20
-55.5419792089
 30
0.0
 10
-56.2198408174
 20
-55.5331808336
 30
0.0
 10
-55.778408567
 20
-55.5253338069
 30
0.0
 10
-55.3672377226
 20
-55.5164829065
 30
0.0
 10
-54.9896877547
 20
-55.5070443085
 30
0.0
 10
-54.648857149
 20
-55.4974436687
 30
0.0
 10
-54.3475484155
 20
-55.4881021147
 30
0.0
 10
-54.1223229889
 20
-55.4805607603
 30
0.0
 10
-53.9637334409
 20
-55.4749894166
 30
0.0
 10
-53.8615822406
 20
-55.4713021763
 30
0.0
 10
-53.7709441593
 20
-55.4679550092
 30
0.0
 10
-53.6920069754
 20
-55.4649803612
 30
0.0
 10
-53.6249348303
 20
-55.4624076917
 30
0.0
 10
-53.5765236577
 20
-55.460525996
 30
0.0
 10
-53.5438313246
 20
-55.4592445663
 30
0.0
 10
-53.5238687156
 20
-55.4584573894
 30
0.0
 10
-53.5069567957
 20
-55.4577891163
 30
0.0
 10
-53.4931105903
 20
-55.4572349433
 30
0.0
 10
-53.4834816413
 20
-55.4568597928
 30
0.0
 10
-53.4773307541
 20
-55.4566014851
 30
0.0
 10
-53.4738452596
 20
-55.4564901305
 30
0.0
 10
-53.4712015606
 20
-55.4563135728
 30
0.0
 10
-53.4691593399
 20
-55.4563931647
 30
0.0
 10
-53.4682092076
 20
-55.4560729254
 30
0.0
 10
-53.467483536
 20
-55.4563362544
 30
0.0
 10
-53.4674423442
 20
-55.456214579
 30
0.0
  0
SPLINE
  5
47D
100
AcDbEntity
  8
0
100
AcDbSpline
 62
250
  6
CONTINUOUS
 70
0
 71
3
 72
13
 73
9
 74
0
 42
0.0000001
 43
0.0000001
 44
0.0000000001
 40
0.0
 40
0.0
 40
0.0
 40
0.0
 40
0.0351602788
 40
0.1003646872
 40
0.1963161618
 40
0.3201283486
 40
0.6344509028
 40
1.0
 40
1.0
 40
1.0
 40
1.0
 10
-58.7274364791
 20
-55.3949752727
 30
0.0
 10
-58.7290829508
 20
-55.3956645964
 30
0.0
 10
-58.7318141369
 20
-55.400621062
 30
0.0
 10
-58.7347190553
 20
-55.4098217562
 30
0.0
 10
-58.7376071009
 20
-55.4241779935
 30
0.0
 10
-58.7413237333
 20
-55.4509598166
 30
0.0
 10
-58.7444064276
 20
-55.4917308912
 30
0.0
 10
-58.7453725397
 20
-55.5262244256
 30
0.0
 10
-58.7454853226
 20
-55.5447815532
 30
0.0
  0
SPLINE
  5
47E
100
AcDbEntity
  8
0
100
AcDbSpline
 62
250
  6
CONTINUOUS
 70
0
 71
3
 72
11
 73
7
 74
0
 42
0.0000001
 43
0.0000001
 44
0.0000000001
 40
0.0
 40
0.0
 40
0.0
 40
0.0
 40
0.2531275596
 40
0.5045598283
 40
0.7537074331
 40
1.0
 40
1.0
 40
1.0
 40
1.0
 10
-53.3782839367
 20
-35.6380408142
 30
0.0
 10
-53.3710800829
 20
-36.6185578513
 30
0.0
 10
-53.345680503
 20
-38.5729535551
 30
0.0
 10
-53.2834293518
 20
-41.4919459583
 30
0.0
 10
-53.2155075465
 20
-44.3843162567
 30
0.0
 10
-53.176449445
 20
-46.3031192516
 30
0.0
 10
-53.1594837767
 20
-47.2570350943
 30
0.0
  0
SPLINE
  5
47F
100
AcDbEntity
  8
0
100
AcDbSpline
 62
250
  6
CONTINUOUS
 70
0
 71
3
 72
14
 73
10
 74
0
 42
0.0000001
 43
0.0000001
 44
0.0000000001
 40
0.0
 40
0.0
 40
0.0
 40
0.0
 40
0.2524614304
 40
0.3781069708
 40
0.5033441648
 40
0.6281603244
 40
0.7525433746
 40
0.8764751095
 40
1.0
 40
1.0
 40
1.0
 40
1.0
 10
-53.1594837767
 20
-47.2570350943
 30
0.0
 10
-53.1524241242
 20
-47.6539829877
 30
0.0
 10
-53.1432302252
 20
-48.2485102374
 30
0.0
 10
-53.1334350003
 20
-49.0399885236
 30
0.0
 10
-53.1271609717
 20
-49.6307647206
 30
0.0
 10
-53.1217253285
 20
-50.2195622659
 30
0.0
 10
-53.1182503034
 20
-50.8063294795
 30
0.0
 10
-53.1130379059
 20
-51.3910239938
 30
0.0
 10
-53.1141262178
 20
-51.7802390389
 30
0.0
 10
-53.1194138229
 20
-51.9744173218
 30
0.0
  0
SPLINE
  5
480
100
AcDbEntity
  8
0
100
AcDbSpline
 62
250
  6
CONTINUOUS
 70
0
 71
3
 72
17
 73
13
 74
0
 42
0.0000001
 43
0.0000001
 44
0.0000000001
 40
0.0
 40
0.0
 40
0.0
 40
0.0
 40
0.1209812577
 40
0.2280815579
 40
0.3280152869
 40
0.4215286927
 40
0.5881364194
 40
0.7271758284
 40
0.8381841304
 40
0.9208059526
 40
0.974789249
 40
1.0
 40
1.0
 40
1.0
 40
1.0
 10
-52.2547948648
 20
-54.3428323679
 30
0.0
 10
-52.2523380224
 20
-54.3574079528
 30
0.0
 10
-52.250016289
 20
-54.3852257466
 30
0.0
 10
-52.2466133097
 20
-54.4251401633
 30
0.0
 10
-52.2431415099
 20
-54.4617001368
 30
0.0
 10
-52.2392144859
 20
-54.5055142815
 30
0.0
 10
-52.2349232737
 20
-54.5540924025
 30
0.0
 10
-52.2304820531
 20
-54.6048095671
 30
0.0
 10
-52.2268556904
 20
-54.6452778977
 30
0.0
 10
-52.2242543026
 20
-54.6754532231
 30
0.0
 10
-52.2219494723
 20
-54.6950273454
 30
0.0
 10
-52.2210962693
 20
-54.7047479298
 30
0.0
 10
-52.2202123852
 20
-54.7076985752
 30
0.0
  0
SPLINE
  5
481
100
AcDbEntity
  8
0
100
AcDbSpline
 62
250
  6
CONTINUOUS
 70
0
 71
3
 72
18
 73
14
 74
0
 42
0.0000001
 43
0.0000001
 44
0.0000000001
 40
0.0
 40
0.0
 40
0.0
 40
0.0
 40
0.1969645168
 40
0.3793858383
 40
0.5435240249
 40
0.68637209
 40
0.8052553629
 40
0.8550247269
 40
0.8980546638
 40
0.9341495513
 40
0.9631524515
 40
0.9851358947
 40
1.0
 40
1.0
 40
1.0
 40
1.0
 10
-52.2598135346
 20
-51.750904969
 30
0.0
 10
-52.2624071964
 20
-51.9210982431
 30
0.0
 10
-52.2679711255
 20
-52.2489100576
 30
0.0
 10
-52.2730473163
 20
-52.7185887605
 30
0.0
 10
-52.2755311621
 20
-53.1415198779
 30
0.0
 10
-52.2758847336
 20
-53.5095494373
 30
0.0
 10
-52.2743098854
 20
-53.7787424501
 30
0.0
 10
-52.2717960385
 20
-53.9616569386
 30
0.0
 10
-52.2695718057
 20
-54.0730265038
 30
0.0
 10
-52.2668122303
 20
-54.1664217173
 30
0.0
 10
-52.2634833936
 20
-54.2416278171
 30
0.0
 10
-52.2591881785
 20
-54.2983375901
 30
0.0
 10
-52.2569303385
 20
-54.3301658377
 30
0.0
 10
-52.2547948648
 20
-54.3428323679
 30
0.0
  0
SPLINE
  5
482
100
AcDbEntity
  8
0
100
AcDbSpline
 62
250
  6
CONTINUOUS
 70
0
 71
3
 72
15
 73
11
 74
0
 42
0.0000001
 43
0.0000001
 44
0.0000000001
 40
0.0
 40
0.0
 40
0.0
 40
0.0
 40
0.2532392767
 40
0.3791677642
 40
0.5046177942
 40
0.6295552667
 40
0.7540253996
 40
0.8160966239
 40
0.8778286521
 40
1.0
 40
1.0
 40
1.0
 40
1.0
 10
-52.2876805334
 20
-47.039200472
 30
0.0
 10
-52.2830200431
 20
-47.4369121739
 30
0.0
 10
-52.277116258
 20
-48.0324073021
 30
0.0
 10
-52.2710359529
 20
-48.8249396442
 30
0.0
 10
-52.2672223746
 20
-49.4159712631
 30
0.0
 10
-52.2638109937
 20
-50.0047154812
 30
0.0
 10
-52.2620828999
 20
-50.4939220122
 30
0.0
 10
-52.2607117224
 20
-50.8838611924
 30
0.0
 10
-52.2580795599
 20
-51.2701747214
 30
0.0
 10
-52.256909712
 20
-51.5590439482
 30
0.0
 10
-52.2598135346
 20
-51.750904969
 30
0.0
  0
SPLINE
  5
483
100
AcDbEntity
  8
0
100
AcDbSpline
 62
250
  6
CONTINUOUS
 70
0
 71
3
 72
13
 73
9
 74
0
 42
0.0000001
 43
0.0000001
 44
0.0000000001
 40
0.0
 40
0.0
 40
0.0
 40
0.0
 40
0.1723111735
 40
0.3330747587
 40
0.6148237533
 40
0.7346032677
 40
0.8392577659
 40
1.0
 40
1.0
 40
1.0
 40
1.0
 10
-51.4215522298
 20
-42.4220902232
 30
0.0
 10
-51.3460982379
 20
-42.6788833492
 30
0.0
 10
-51.1985247134
 20
-43.1747528694
 30
0.0
 10
-50.9204418159
 20
-44.0883896285
 30
0.0
 10
-50.6518576318
 20
-44.9195020552
 30
0.0
 10
-50.4169802325
 20
-45.6698483936
 30
0.0
 10
-50.239821836
 20
-46.2413116297
 30
0.0
 10
-50.121918874
 20
-46.6363392806
 30
0.0
 10
-50.0482735946
 20
-46.8749101255
 30
0.0
  0
SPLINE
  5
484
100
AcDbEntity
  8
0
100
AcDbSpline
 62
250
  6
CONTINUOUS
 70
0
 71
3
 72
18
 73
14
 74
0
 42
0.0000001
 43
0.0000001
 44
0.0000000001
 40
0.0
 40
0.0
 40
0.0
 40
0.0
 40
0.2354292636
 40
0.4393981454
 40
0.6117661898
 40
0.7524851749
 40
0.8615487334
 40
0.9042148957
 40
0.9389747948
 40
0.9658342337
 40
0.9848057311
 40
0.9959830128
 40
1.0
 40
1.0
 40
1.0
 40
1.0
 10
-50.0482735946
 20
-46.8749101255
 30
0.0
 10
-50.0357571368
 20
-46.9154566745
 30
0.0
 10
-50.0122891469
 20
-46.991098971
 30
0.0
 10
-49.9792178016
 20
-47.0962874785
 30
0.0
 10
-49.9508186825
 20
-47.1850574508
 30
0.0
 10
-49.9271116877
 20
-47.2573439609
 30
0.0
 10
-49.9101210968
 20
-47.307282475
 30
0.0
 10
-49.898846935
 20
-47.3388920859
 30
0.0
 10
-49.892198905
 20
-47.3565958906
 30
0.0
 10
-49.8870155299
 20
-47.3698552444
 30
0.0
 10
-49.882454325
 20
-47.3797947944
 30
0.0
 10
-49.8802940519
 20
-47.3843196483
 30
0.0
 10
-49.8777822709
 20
-47.3874692493
 30
0.0
 10
-49.8771804712
 20
-47.38706668
 30
0.0
  0
SPLINE
  5
485
100
AcDbEntity
  8
0
100
AcDbSpline
 62
250
  6
CONTINUOUS
 70
0
 71
3
 72
13
 73
9
 74
0
 42
0.0000001
 43
0.0000001
 44
0.0000000001
 40
0.0
 40
0.0
 40
0.0
 40
0.0
 40
0.3132853129
 40
0.5952340325
 40
0.7184143301
 40
0.8274114789
 40
0.9212475243
 40
1.0
 40
1.0
 40
1.0
 40
1.0
 10
-53.119415651
 20
-51.9745093291
 30
0.0
 10
-53.024850068
 20
-51.9736445235
 30
0.0
 10
-52.8451422843
 20
-51.9630380743
 30
0.0
 10
-52.6307422052
 20
-51.9258901675
 30
0.0
 10
-52.4819218888
 20
-51.8812497612
 30
0.0
 10
-52.3906386426
 20
-51.8438942053
 30
0.0
 10
-52.316487164
 20
-51.8018532068
 30
0.0
 10
-52.2759027722
 20
-51.768408249
 30
0.0
 10
-52.2598170007
 20
-51.7509044996
 30
0.0
  0
SPLINE
  5
486
100
AcDbEntity
  8
0
100
AcDbSpline
 62
250
  6
CONTINUOUS
 70
0
 71
3
 72
13
 73
9
 74
0
 42
0.0000001
 43
0.0000001
 44
0.0000000001
 40
0.0
 40
0.0
 40
0.0
 40
0.0
 40
0.3221931342
 40
0.6094976424
 40
0.7329137594
 40
0.839791948
 40
0.9288748813
 40
1.0
 40
1.0
 40
1.0
 40
1.0
 10
-53.1594837766
 20
-47.2570350948
 30
0.0
 10
-53.0616347558
 20
-47.2528948892
 30
0.0
 10
-52.8767763964
 20
-47.2375475318
 30
0.0
 10
-52.6568639189
 20
-47.198764339
 30
0.0
 10
-52.5053461648
 20
-47.1559214275
 30
0.0
 10
-52.4143312953
 20
-47.121622653
 30
0.0
 10
-52.3420133789
 20
-47.0843697246
 30
0.0
 10
-52.3027024031
 20
-47.0547490741
 30
0.0
 10
-52.2876805318
 20
-47.0392004721
 30
0.0
  0
SPLINE
  5
487
100
AcDbEntity
  8
0
100
AcDbSpline
 62
250
  6
CONTINUOUS
 70
0
 71
3
 72
20
 73
16
 74
0
 42
0.0000001
 43
0.0000001
 44
0.0000000001
 40
0.0
 40
0.0
 40
0.0
 40
0.0
 40
0.2013827451
 40
0.3874554577
 40
0.5543655603
 40
0.6987045078
 40
0.7614716947
 40
0.8175341041
 40
0.8666074493
 40
0.9084441688
 40
0.9428346403
 40
0.9696132142
 40
0.9886737373
 40
0.9952976669
 40
1.0
 40
1.0
 40
1.0
 40
1.0
 10
-53.1194137509
 20
-51.9744173191
 30
0.0
 10
-53.1239186822
 20
-52.1791086937
 30
0.0
 10
-53.1318891964
 20
-52.572947416
 30
0.0
 10
-53.1391917645
 20
-53.1365144892
 30
0.0
 10
-53.1428561863
 20
-53.6421183619
 30
0.0
 10
-53.1432346747
 20
-54.0223754687
 30
0.0
 10
-53.1416748648
 20
-54.2899291244
 30
0.0
 10
-53.1397589331
 20
-54.4606219041
 30
0.0
 10
-53.137065688
 20
-54.6100234645
 30
0.0
 10
-53.133600609
 20
-54.7373658357
 30
0.0
 10
-53.1293931757
 20
-54.8420170377
 30
0.0
 10
-53.1241545975
 20
-54.9234102688
 30
0.0
 10
-53.1187528841
 20
-54.9765287846
 30
0.0
 10
-53.113752735
 20
-55.0070011729
 30
0.0
 10
-53.1112009367
 20
-55.0182737058
 30
0.0
 10
-53.1096347447
 20
-55.0227906286
 30
0.0
  0
LINE
  5
488
100
AcDbEntity
  8
0
100
AcDbLine
 62
250
  6
CONTINUOUS
 10
-52.4575092574
 20
-36.6176286571
 11
-52.456651014
 21
-36.6935095034
  0
SPLINE
  5
489
100
AcDbEntity
  8
0
100
AcDbSpline
 62
250
  6
CONTINUOUS
 70
0
 71
3
 72
11
 73
7
 74
0
 42
0.0000001
 43
0.0000001
 44
0.0000000001
 40
0.0
 40
0.0
 40
0.0
 40
0.0
 40
0.2523967151
 40
0.5036198793
 40
0.7530607887
 40
1.0
 40
1.0
 40
1.0
 40
1.0
 10
-52.456651014
 20
-36.6935095034
 30
0.0
 10
-52.4466935948
 20
-37.5639766696
 30
0.0
 10
-52.4188945739
 20
-39.3007706513
 30
0.0
 10
-52.3672215075
 20
-41.8975836802
 30
0.0
 10
-52.3206126361
 20
-44.4756745069
 30
0.0
 10
-52.2973544464
 20
-46.1875543974
 30
0.0
 10
-52.2876805334
 20
-47.039200472
 30
0.0
  0
SPLINE
  5
48A
100
AcDbEntity
  8
0
100
AcDbSpline
 62
250
  6
CONTINUOUS
 70
0
 71
3
 72
18
 73
14
 74
0
 42
0.0000001
 43
0.0000001
 44
0.0000000001
 40
0.0
 40
0.0
 40
0.0
 40
0.0
 40
0.1204279833
 40
0.2319309654
 40
0.3359518524
 40
0.4323889036
 40
0.6024538781
 40
0.7421385818
 40
0.8514026985
 40
0.9303063898
 40
0.9791182633
 40
0.9926356262
 40
1.0
 40
1.0
 40
1.0
 40
1.0
 10
-53.1096347448
 20
-55.0227906286
 30
0.0
 10
-53.1052907699
 20
-55.0326869172
 30
0.0
 10
-53.1003413432
 20
-55.0530718953
 30
0.0
 10
-53.0935006877
 20
-55.0823740597
 30
0.0
 10
-53.0865708535
 20
-55.1095159816
 30
0.0
 10
-53.0781987657
 20
-55.1416915354
 30
0.0
 10
-53.0686569018
 20
-55.1768835804
 30
0.0
 10
-53.0580729139
 20
-55.2129505106
 30
0.0
 10
-53.0490740281
 20
-55.2410186918
 30
0.0
 10
-53.0418494622
 20
-55.2609118131
 30
0.0
 10
-53.0365811323
 20
-55.272678288
 30
0.0
 10
-53.03321645
 20
-55.2777608583
 30
0.0
 10
-53.0314896077
 20
-55.2790230096
 30
0.0
 10
-53.0308316835
 20
-55.2789602605
 30
0.0
  0
SPLINE
  5
48B
100
AcDbEntity
  8
0
100
AcDbSpline
 62
250
  6
CONTINUOUS
 70
0
 71
3
 72
9
 73
5
 74
0
 42
0.0000001
 43
0.0000001
 44
0.0000000001
 40
0.0
 40
0.0
 40
0.0
 40
0.0
 40
0.5109550595
 40
1.0
 40
1.0
 40
1.0
 40
1.0
 10
-51.4215522298
 20
-42.4220902232
 30
0.0
 10
-51.4127398942
 20
-42.392590263
 30
0.0
 10
-51.4027014665
 20
-42.3322464186
 30
0.0
 10
-51.4114813691
 20
-42.2714937182
 30
0.0
 10
-51.4202071311
 20
-42.2433473992
 30
0.0
  0
LINE
  5
48C
100
AcDbEntity
  8
0
100
AcDbLine
 62
250
  6
CONTINUOUS
 10
-53.3328591672
 20
-55.3068973043
 11
-53.3312054121
 21
-55.3068330806
  0
ELLIPSE
  5
48D
100
AcDbEntity
  8
0
100
AcDbEllipse
 62
7
  6
CONTINUOUS
 10
-524.9725663957
 20
-135.7021504342
 30
0.0
 11
535.1140690522
 21
0.0000119097
 31
0.0
 40
0.9951246675
 41
0.1923842608
 42
0.1927860921
  0
ELLIPSE
  5
48E
100
AcDbEntity
  8
0
100
AcDbEllipse
 62
7
  6
CONTINUOUS
 10
524.9725660736
 20
65.6021504742
 30
0.0
 11
-535.1140688131
 21
0.0000279813
 31
0.0
 40
0.9951246679
 41
0.1923843358
 42
0.1927861671
  0
ELLIPSE
  5
48F
100
AcDbEntity
  8
0
100
AcDbEllipse
 62
7
  6
CONTINUOUS
 10
-57.1989237513
 20
-5.8
 30
0.0
 11
2.8356409098
 21
-0.0
 31
0.0
 40
0.1763269807
 41
2.4414256716
 42
2.4980915448
  0
ELLIPSE
  5
490
100
AcDbEntity
  8
0
100
AcDbEllipse
 62
7
  6
CONTINUOUS
 10
-61.735949207
 20
-5.8
 30
0.0
 11
2.8356409098
 21
0.0
 31
0.0
 40
0.1763269807
 41
0.6435011088
 42
0.700166982
  0
ENDSEC
  0
SECTION
  2
OBJECTS
  0
DICTIONARY
  5
C
100
AcDbDictionary
280
0
281
1
  3
ACAD_GROUP
350
D
  3
ACAD_MLINESTYLE
350
17
  3
ACAD_LAYOUT
350
1A
  3
ACAD_PLOTSETTINGS
350
19
  3
ACAD_PLOTSTYLENAME
350
E
  0
DICTIONARY
  5
D
102
{ACAD_REACTORS
330
C
102
}
100
AcDbDictionary
280
0
281
1
  0
ACDBDICTIONARYWDFLT
  5
E
102
{ACAD_REACTORS
330
C
102
}
100
AcDbDictionary
281
1
  3
Normal
350
F
100
AcDbDictionaryWithDefault
340
F
  0
DICTIONARY
  5
17
102
{ACAD_REACTORS
330
C
102
}
100
AcDbDictionary
280
0
281
1
  3
Standard
350
18
  0
DICTIONARY
  5
19
102
{ACAD_REACTORS
330
C
102
}
100
AcDbDictionary
281
1
  0
DICTIONARY
  5
1A
102
{ACAD_REACTORS
330
C
102
}
100
AcDbDictionary
281
1
  3
Model
350
491
  3
Layout1
350
492
  0
ACDBPLACEHOLDER
  5
F
102
{ACAD_REACTORS
330
E
102
}
  0
MLINESTYLE
  5
18
102
{ACAD_REACTORS
330
17
102
}
100
AcDbMlineStyle
  2
STANDARD
 70
0
  3

 62
256
 51
90.0
 52
90.0
 71
2
 49
0.5
 62
256
  6
BYLAYER
 49
-0.5
 62
256
  6
BYLAYER
  0
LAYOUT
  5
491
102
{ACAD_REACTORS
330
1A
102
}
100
AcDbPlotSettings
  1

  2
none_device
  4
ISO_A4_(297.00_x_210.00_MM)
  6

 40
0.0
 41
0.0
 42
0.0
 43
0.0
 44
297.0
 45
210.0
 46
0.0
 47
0.0
 48
0.0
 49
0.0
140
0.0
141
0.0
142
1.0
143
1.0
 70
1024
 72
1
 73
0
 74
0
  7

 75
0
147
1.0
148
0.0
149
0.0
100
AcDbLayout
  1
Model
 70
0
 71
0
 10
0.0
 20
0.0
 11
297.0
 21
210.0
 12
0.0
 22
0.0
 32
0.0
 14
0.0
 24
0.0
 34
0.0
 15
0.0
 25
0.0
 35
0.0
146
0.0
 13
0.0
 23
0.0
 33
0.0
 16
1.0
 26
0.0
 36
0.0
 17
0.0
 27
1.0
 37
0.0
 76
0
330
21D
345
0
346
0
  0
LAYOUT
  5
492
102
{ACAD_REACTORS
330
1A
102
}
100
AcDbPlotSettings
  1

  2
none_device
  4
ISO_A4_(297.00_x_210.00_MM)
  6

 40
0.0
 41
0.0
 42
0.0
 43
0.0
 44
297.0
 45
210.0
 46
0.0
 47
0.0
 48
0.0
 49
0.0
140
0.0
141
0.0
142
1.0
143
1.0
 70
0
 72
1
 73
0
 74
0
  7

 75
0
147
1.0
148
0.0
149
0.0
100
AcDbLayout
  1
Layout1
 70
0
 71
1
 10
0.0
 20
0.0
 11
297.0
 21
210.0
 12
0.0
 22
0.0
 32
0.0
 14
0.0
 24
0.0
 34
0.0
 15
0.0
 25
0.0
 35
0.0
146
0.0
 13
0.0
 23
0.0
 33
0.0
 16
1.0
 26
0.0
 36
0.0
 17
0.0
 27
1.0
 37
0.0
 76
0
330
21E
345
0
346
0
  0
ENDSEC
  0
EOF
