  0
SECTION
  2
HEADER
  9
$ACADVER
  1
AC1015
  9
$DWGCODEPAGE
  3
ANSI_1252
  9
$EXTMAX
 10
297.0
 20
210.0
 30
0.0
  9
$EXTMIN
 10
0.0
 20
0.0
 30
0.0
  9
$LIMMIN
 10
0.0
 20
0.0
  9
$LIMMAX
 10
297.0
 20
210.0
  9
$VIEWCTR
 10
148.5
 20
105.0
  9
$VIEWSIZE
 40
210.0
  9
$CLAYER
  8
0
  9
$LTSCALE
 40
16.335
  9
$CELTYPE
  6
BYLAYER
  9
$DIMSCALE
 40
1.0
  9
$DIMASZ
 40
3.0
  9
$DIMEXO
 40
0.5
  9
$DIMDLI
 40
11.286
  9
$DIMEXE
 40
1.5
  9
$DIMCEN
 40
2.673
  9
$DIMLFAC
 40
1.0
  9
$DIMBLK
  1
_FILLED
  9
$DIMTXT
 40
3.0
  9
$DIMTOL
 70
1
  9
$DIMLIM
 70
0
  9
$DIMTFAC
 40
1.0
  9
$DIMTP
 40
0.01
  9
$DIMTM
 40
0.01
  9
$DIMGAP
 40
0.625
  9
$DIMDSEP
 70
44
  9
$PDMODE
 70
3
  9
$PDSIZE
 40
3.0
  9
$HANDSEED
  5
711
  9
$TILEMODE
 70
1
  9
$MEASUREMENT
 70
1
  9
$INSUNITS
 70
4
  0
ENDSEC
  0
SECTION
  2
CLASSES
  0
CLASS
  1
ACDBDICTIONARYWDFLT
  2
AcDbDictionaryWithDefault
  3
AutoCAD 2000
 90
0
280
0
281
0
  0
CLASS
  1
ACDBPLACEHOLDER
  2
AcDbPlaceHolder
  3
AutoCAD 2000
 90
0
280
0
281
0
  0
CLASS
  1
LAYOUT
  2
AcDbLayout
  3
AutoCAD 2000
 90
0
280
0
281
0
  0
ENDSEC
  0
SECTION
  2
TABLES
  0
TABLE
  2
VPORT
  5
8
100
AcDbSymbolTable
 70
2
  0
VPORT
  5
1F4
100
AcDbSymbolTableRecord
100
AcDbViewportTableRecord
  2
*ACTIVE
 70
0
 10
0.0
 20
0.0
 11
1.0
 21
1.0
 12
148.5
 22
105.0
 13
0.0
 23
0.0
 14
1.0
 24
1.0
 15
0.0
 25
0.0
 16
0.0
 26
0.0
 36
1.0
 17
0.0
 27
0.0
 37
0.0
 40
210.0
 41
1.4142857143
 42
50.0
 43
0.0
 44
0.0
 50
0.0
 51
0.0
 71
0
 72
100
 73
1
 74
1
 75
0
 76
0
 77
0
 78
0
  0
ENDTAB
  0
TABLE
  2
LTYPE
  5
5
100
AcDbSymbolTable
 70
6
  0
LTYPE
  5
14
100
AcDbSymbolTableRecord
100
AcDbLinetypeTableRecord
  2
BYBLOCK
 70
0
  3

 72
65
 73
0
 40
0.0
  0
LTYPE
  5
15
100
AcDbSymbolTableRecord
100
AcDbLinetypeTableRecord
  2
BYLAYER
 70
0
  3

 72
65
 73
0
 40
0.0
  0
LTYPE
  5
16
100
AcDbSymbolTableRecord
100
AcDbLinetypeTableRecord
  2
CONTINUOUS
 70
64
  3
Solid line
 72
65
 73
0
 40
0.0
  0
LTYPE
  5
1F5
100
AcDbSymbolTableRecord
100
AcDbLinetypeTableRecord
  2
CENTER
 70
64
  3
____ _ ____ _ ____ _ ____ _ ____ _ ____ _ ____
 72
65
 73
4
 40
0.6
 49
0.375
 74
0
 49
-0.075
 74
0
 49
0.075
 74
0
 49
-0.075
 74
0
  0
LTYPE
  5
1F6
100
AcDbSymbolTableRecord
100
AcDbLinetypeTableRecord
  2
HIDDEN
 70
64
  3
- - - - - - - - - - - - - - - - - - - -
 72
65
 73
2
 40
0.2
 49
0.1
 74
0
 49
-0.1
 74
0
  0
LTYPE
  5
1F7
100
AcDbSymbolTableRecord
100
AcDbLinetypeTableRecord
  2
PHANTOM
 70
64
  3
_____ _ _ _____ _ _ _____ _ _ _____
 72
65
 73
6
 40
0.8
 49
0.45
 74
0
 49
-0.05
 74
0
 49
0.1
 74
0
 49
-0.05
 74
0
 49
0.1
 74
0
 49
-0.05
 74
0
  0
LTYPE
  5
1F8
100
AcDbSymbolTableRecord
100
AcDbLinetypeTableRecord
  2
DOT
 70
64
  3
. . . . . . . . . . . . . . . . . . . .
 72
65
 73
2
 40
0.2
 49
0.1
 74
0
 49
-0.1
 74
0
  0
LTYPE
  5
1F9
100
AcDbSymbolTableRecord
100
AcDbLinetypeTableRecord
  2
DASHED
 70
64
  3
- - - - - - - - - - - - - - - - - - - -
 72
65
 73
2
 40
0.2
 49
0.1
 74
0
 49
-0.1
 74
0
  0
ENDTAB
  0
TABLE
  2
LAYER
  5
2
100
AcDbSymbolTable
 70
36
  0
LAYER
  5
10
100
AcDbSymbolTableRecord
100
AcDbLayerTableRecord
  2
0
 70
0
 62
7
  6
CONTINUOUS
370
-3
390
F
  0
LAYER
  5
1FA
100
AcDbSymbolTableRecord
100
AcDbLayerTableRecord
  2
DEFAULT_1
 70
0
 62
7
  6
CENTER
370
-3
390
F
  0
LAYER
  5
1FB
100
AcDbSymbolTableRecord
100
AcDbLayerTableRecord
  2
DEFAULT_2
 70
0
 62
7
  6
HIDDEN
370
-3
390
F
  0
LAYER
  5
1FC
100
AcDbSymbolTableRecord
100
AcDbLayerTableRecord
  2
DEFAULT_3
 70
0
 62
7
  6
PHANTOM
370
-3
390
F
  0
LAYER
  5
1FD
100
AcDbSymbolTableRecord
100
AcDbLayerTableRecord
  2
ASSI
 70
0
 62
7
  6
CONTINUOUS
370
-3
390
F
  0
LAYER
  5
1FE
100
AcDbSymbolTableRecord
100
AcDbLayerTableRecord
  2
COLOR15
 70
0
 62
7
  6
CONTINUOUS
370
-3
390
F
  0
LAYER
  5
1FF
100
AcDbSymbolTableRecord
100
AcDbLayerTableRecord
  2
COLOR5
 70
0
 62
7
  6
CONTINUOUS
370
-3
390
F
  0
LAYER
  5
200
100
AcDbSymbolTableRecord
100
AcDbLayerTableRecord
  2
COORDINATE
 70
0
 62
7
  6
CONTINUOUS
370
-3
390
F
  0
LAYER
  5
201
100
AcDbSymbolTableRecord
100
AcDbLayerTableRecord
  2
COORD_ORIGINE
 70
0
 62
7
  6
CONTINUOUS
370
-3
390
F
  0
LAYER
  5
202
100
AcDbSymbolTableRecord
100
AcDbLayerTableRecord
  2
COSMETICHE
 70
0
 62
7
  6
CONTINUOUS
370
-3
390
F
  0
LAYER
  5
203
100
AcDbSymbolTableRecord
100
AcDbLayerTableRecord
  2
CURVE
 70
0
 62
7
  6
CONTINUOUS
370
-3
390
F
  0
LAYER
  5
204
100
AcDbSymbolTableRecord
100
AcDbLayerTableRecord
  2
DRAFT
 70
0
 62
7
  6
CONTINUOUS
370
-3
390
F
  0
LAYER
  5
205
100
AcDbSymbolTableRecord
100
AcDbLayerTableRecord
  2
IMPORT_IGES
 70
0
 62
7
  6
CONTINUOUS
370
-3
390
F
  0
LAYER
  5
206
100
AcDbSymbolTableRecord
100
AcDbLayerTableRecord
  2
INTF_1
 70
0
 62
7
  6
CONTINUOUS
370
-3
390
F
  0
LAYER
  5
207
100
AcDbSymbolTableRecord
100
AcDbLayerTableRecord
  2
INTF_2
 70
0
 62
7
  6
CONTINUOUS
370
-3
390
F
  0
LAYER
  5
208
100
AcDbSymbolTableRecord
100
AcDbLayerTableRecord
  2
INTF_3
 70
0
 62
7
  6
CONTINUOUS
370
-3
390
F
  0
LAYER
  5
209
100
AcDbSymbolTableRecord
100
AcDbLayerTableRecord
  2
INTF_5
 70
0
 62
7
  6
CONTINUOUS
370
-3
390
F
  0
LAYER
  5
20A
100
AcDbSymbolTableRecord
100
AcDbLayerTableRecord
  2
INTF_YELLOW
 70
0
 62
7
  6
CONTINUOUS
370
-3
390
F
  0
LAYER
  5
20B
100
AcDbSymbolTableRecord
100
AcDbLayerTableRecord
  2
NOTE
 70
0
 62
7
  6
CONTINUOUS
370
-3
390
F
  0
LAYER
  5
20C
100
AcDbSymbolTableRecord
100
AcDbLayerTableRecord
  2
PIANI
 70
0
 62
7
  6
CONTINUOUS
370
-3
390
F
  0
LAYER
  5
20D
100
AcDbSymbolTableRecord
100
AcDbLayerTableRecord
  2
PIANI_ORIGINE
 70
0
 62
7
  6
CONTINUOUS
370
-3
390
F
  0
LAYER
  5
20E
100
AcDbSymbolTableRecord
100
AcDbLayerTableRecord
  2
PUNTI
 70
0
 62
7
  6
CONTINUOUS
370
-3
390
F
  0
LAYER
  5
20F
100
AcDbSymbolTableRecord
100
AcDbLayerTableRecord
  2
RACCORDO
 70
0
 62
7
  6
CONTINUOUS
370
-3
390
F
  0
LAYER
  5
210
100
AcDbSymbolTableRecord
100
AcDbLayerTableRecord
  2
RGB__255__255__255__
 70
0
 62
7
  6
CONTINUOUS
370
-3
390
F
  0
LAYER
  5
211
100
AcDbSymbolTableRecord
100
AcDbLayerTableRecord
  2
SMUSSO
 70
0
 62
7
  6
CONTINUOUS
370
-3
390
F
  0
LAYER
  5
212
100
AcDbSymbolTableRecord
100
AcDbLayerTableRecord
  2
SNAPLINE
 70
0
 62
7
  6
CONTINUOUS
370
-3
390
F
  0
LAYER
  5
213
100
AcDbSymbolTableRecord
100
AcDbLayerTableRecord
  2
SUPERFICI
 70
0
 62
7
  6
CONTINUOUS
370
-3
390
F
  0
LAYER
  5
214
100
AcDbSymbolTableRecord
100
AcDbLayerTableRecord
  2
TASSELLI
 70
0
 62
7
  6
CONTINUOUS
370
-3
390
F
  0
LAYER
  5
215
100
AcDbSymbolTableRecord
100
AcDbLayerTableRecord
  2
TRASH
 70
0
 62
7
  6
CONTINUOUS
370
-3
390
F
  0
LAYER
  5
216
100
AcDbSymbolTableRecord
100
AcDbLayerTableRecord
  2
VARIE
 70
0
 62
7
  6
CONTINUOUS
370
-3
390
F
  0
LAYER
  5
217
100
AcDbSymbolTableRecord
100
AcDbLayerTableRecord
  2
XSEC_DATUMS
 70
0
 62
7
  6
CONTINUOUS
370
-3
390
F
  0
ENDTAB
  0
TABLE
  2
STYLE
  5
3
100
AcDbSymbolTable
 70
1
  0
STYLE
  5
11
100
AcDbSymbolTableRecord
100
AcDbTextStyleTableRecord
  2
STANDARD
 70
0
 40
0.0
 41
0.8
 50
0.0
 71
0
 42
0.2
  3
txt
  4

  0
STYLE
  5
218
100
AcDbSymbolTableRecord
100
AcDbTextStyleTableRecord
  2
TEXTSTYLE_1
 70
0
 40
0.0
 41
0.8
 50
0.0
 71
0
 42
0.2
  3
gdt
  4

  0
ENDTAB
  0
TABLE
  2
VIEW
  5
6
100
AcDbSymbolTable
 70
0
  0
ENDTAB
  0
TABLE
  2
UCS
  5
7
100
AcDbSymbolTable
 70
0
  0
ENDTAB
  0
TABLE
  2
APPID
  5
9
100
AcDbSymbolTable
 70
1
  0
APPID
  5
219
100
AcDbSymbolTableRecord
100
AcDbRegAppTableRecord
  2
ACAD
 70
0
  0
ENDTAB
  0
TABLE
  2
BLOCK_RECORD
  5
1
100
AcDbSymbolTable
 70
0
  0
BLOCK_RECORD
  5
21A
100
AcDbSymbolTableRecord
100
AcDbBlockTableRecord
  2
*Model_Space
  0
BLOCK_RECORD
  5
21B
100
AcDbSymbolTableRecord
100
AcDbBlockTableRecord
  2
*Paper_Space
  0
BLOCK_RECORD
  5
21C
100
AcDbSymbolTableRecord
100
AcDbBlockTableRecord
  2
_FILLED
  0
BLOCK_RECORD
  5
21D
100
AcDbSymbolTableRecord
100
AcDbBlockTableRecord
  2
*D0
  0
BLOCK_RECORD
  5
21E
100
AcDbSymbolTableRecord
100
AcDbBlockTableRecord
  2
*D1
  0
BLOCK_RECORD
  5
21F
100
AcDbSymbolTableRecord
100
AcDbBlockTableRecord
  2
*D2
  0
ENDTAB
  0
TABLE
  2
DIMSTYLE
  5
A
100
AcDbSymbolTable
 70
1
100
AcDbDimStyleTable
 71
0
  0
DIMSTYLE
105
220
100
AcDbSymbolTableRecord
100
AcDbDimStyleTableRecord
  2
STANDARD
 70
0
  3

  4

 40
1.0
 41
3.0
 42
0.5
 43
0.38
 44
1.5
 45
0.0
 46
0.0
 47
0.01
 48
0.01
140
3.0
141
0.09
142
0.0
143
25.4
144
1.0
145
0.0
146
1.0
147
0.625
 71
1.0
 72
0.0
 73
0
 74
0
 75
0
 76
0
 77
1
 78
8
170
0
171
2
172
0
173
0
174
0
175
0
176
0
177
0
178
0
270
2
271
2
272
2
273
2
274
2
275
0
280
0
281
0
282
0
283
1
284
8
285
0
286
0
287
3
288
0
340
11
278
44
341
21C
342
21C
343
21C
344
21C
  0
DIMSTYLE
105
221
100
AcDbSymbolTableRecord
100
AcDbDimStyleTableRecord
  2
DIMSTYLE_1
 70
0
  3

  4

 40
1.0
 41
3.0
 42
0.5
 43
0.38
 44
1.5
 45
0.0
 46
0.0
 47
0.0
 48
0.0
140
3.0
141
0.09
142
0.0
143
25.4
144
1.0
145
0.0
146
1.0
147
0.75
 71
0.0
 72
0.0
 73
0
 74
0
 75
0
 76
0
 77
1
 78
8
170
0
171
2
172
0
173
0
174
0
175
0
176
0
177
0
178
0
270
2
271
2
272
2
273
2
274
2
275
0
280
0
281
0
282
0
283
1
284
8
285
0
286
0
287
3
288
0
340
11
278
44
341
21C
342
21C
343
21C
344
21C
  0
DIMSTYLE
105
222
100
AcDbSymbolTableRecord
100
AcDbDimStyleTableRecord
  2
DIMSTYLE_2
 70
0
  3

  4

 40
1.0
 41
3.0
 42
0.5
 43
0.38
 44
1.5
 45
0.0
 46
0.0
 47
0.0
 48
0.0
140
3.0
141
0.09
142
0.0
143
25.4
144
1.0
145
0.0
146
1.0
147
0.75
 71
0.0
 72
0.0
 73
0
 74
0
 75
0
 76
0
 77
1
 78
8
170
0
171
2
172
0
173
0
174
0
175
0
176
0
177
0
178
0
270
2
271
1
272
1
273
2
274
2
275
0
280
0
281
0
282
0
283
1
284
8
285
0
286
0
287
3
288
0
340
11
278
44
341
21C
342
21C
343
21C
344
21C
  0
ENDTAB
  0
ENDSEC
  0
SECTION
  2
BLOCKS
  0
BLOCK
  5
20
100
AcDbEntity
  8
0
100
AcDbBlockBegin
  2
*Model_Space
 70
0
 10
0.0
 20
0.0
 30
0.0
  3
*Model_Space
  1

  0
ENDBLK
  5
21
100
AcDbEntity
  8
0
100
AcDbBlockEnd
  0
BLOCK
  5
1C
100
AcDbEntity
  8
0
100
AcDbBlockBegin
  2
*Paper_Space
 70
0
 10
0.0
 20
0.0
 30
0.0
  3
*Paper_Space
  1

  0
ENDBLK
  5
1D
100
AcDbEntity
  8
0
100
AcDbBlockEnd
  0
BLOCK
  5
223
100
AcDbEntity
  8
0
100
AcDbBlockBegin
  2
_FILLED
 70
64
 10
0.0
 20
0.0
  3
_FILLED
  1

  0
SOLID
  5
224
100
AcDbEntity
  8
0
  6
BYBLOCK
 62
0
100
AcDbTrace
 10
0.0
 20
0.0
 11
-1.0
 21
0.3166666667
 12
-1.0
 22
-0.3166666667
 13
-1.0
 23
-0.3166666667
  0
ENDBLK
  5
225
100
AcDbEntity
  8
0
  6
BYBLOCK
 62
0
100
AcDbBlockEnd
  0
BLOCK
  5
226
100
AcDbEntity
  8
0
100
AcDbBlockBegin
 62
7
  6
CONTINUOUS
  2
*D0
 70
65
 10
0.0
 20
0.0
  3
*D0
  1

  0
MTEXT
  5
227
100
AcDbEntity
  8
0
100
AcDbMText
 62
7
  6
CONTINUOUS
  7
STANDARD
 71
2
 72
1
 10
184.1916129502
 20
56.5337350079
 30
0.0
 11
0.0
 21
1.0
 31
0.0
 44
0.9
  1
58,1
 40
3.0
 41
7.9285714286
  0
LINE
  5
228
100
AcDbEntity
  8
0
100
AcDbLine
 62
7
  6
CONTINUOUS
 10
174.5088782927
 20
85.5837350079
 11
189.4416129502
 21
85.5837350079
  0
LINE
  5
229
100
AcDbEntity
  8
0
100
AcDbLine
 62
7
  6
CONTINUOUS
 10
162.9414181689
 20
27.4837350079
 11
189.4416129502
 21
27.4837350079
  0
LINE
  5
22A
100
AcDbEntity
  8
0
100
AcDbLine
 62
7
  6
CONTINUOUS
 10
187.9416129502
 20
85.5837350079
 11
187.9416129502
 21
56.5337350079
  0
LINE
  5
22B
100
AcDbEntity
  8
0
100
AcDbLine
 62
7
  6
CONTINUOUS
 10
187.9416129502
 20
27.4837350079
 11
187.9416129502
 21
56.5337350079
  0
INSERT
  5
22C
100
AcDbEntity
  8
0
100
AcDbBlockReference
 62
7
  6
CONTINUOUS
  2
_FILLED
 10
187.9416129502
 20
85.5837350079
 41
3.0
 42
3.0
 43
3.0
 50
90.0
  0
INSERT
  5
22D
100
AcDbEntity
  8
0
100
AcDbBlockReference
 62
7
  6
CONTINUOUS
  2
_FILLED
 10
187.9416129502
 20
27.4837350079
 41
3.0
 42
3.0
 43
3.0
 50
270.0
  0
ENDBLK
  5
22E
100
AcDbEntity
  8
0
  6
BYBLOCK
 62
0
100
AcDbBlockEnd
  0
BLOCK
  5
22F
100
AcDbEntity
  8
0
100
AcDbBlockBegin
 62
7
  6
CONTINUOUS
  2
*D1
 70
65
 10
0.0
 20
0.0
  3
*D1
  1

  0
MTEXT
  5
230
100
AcDbEntity
  8
0
100
AcDbMText
 62
7
  6
CONTINUOUS
  7
STANDARD
 71
2
 72
1
 10
157.9416129502
 20
99.0256372657
 30
0.0
 11
1.0
 21
0.0
 31
0.0
 44
0.9
  1
40,8
 40
3.0
 41
8.7857142857
  0
LINE
  5
231
100
AcDbEntity
  8
0
100
AcDbLine
 62
7
  6
CONTINUOUS
 10
178.3416129502
 20
85.4837350079
 11
178.3416129502
 21
96.7756372657
  0
LINE
  5
232
100
AcDbEntity
  8
0
100
AcDbLine
 62
7
  6
CONTINUOUS
 10
137.5416129502
 20
85.4837350079
 11
137.5416129502
 21
96.7756372657
  0
LINE
  5
233
100
AcDbEntity
  8
0
100
AcDbLine
 62
7
  6
CONTINUOUS
 10
178.3416129502
 20
95.2756372657
 11
157.9416129502
 21
95.2756372657
  0
LINE
  5
234
100
AcDbEntity
  8
0
100
AcDbLine
 62
7
  6
CONTINUOUS
 10
137.5416129502
 20
95.2756372657
 11
157.9416129502
 21
95.2756372657
  0
INSERT
  5
235
100
AcDbEntity
  8
0
100
AcDbBlockReference
 62
7
  6
CONTINUOUS
  2
_FILLED
 10
178.3416129502
 20
95.2756372657
 41
3.0
 42
3.0
 43
3.0
  0
INSERT
  5
236
100
AcDbEntity
  8
0
100
AcDbBlockReference
 62
7
  6
CONTINUOUS
  2
_FILLED
 10
137.5416129502
 20
95.2756372657
 41
3.0
 42
3.0
 43
3.0
 50
180.0
  0
ENDBLK
  5
237
100
AcDbEntity
  8
0
  6
BYBLOCK
 62
0
100
AcDbBlockEnd
  0
BLOCK
  5
238
100
AcDbEntity
  8
0
100
AcDbBlockBegin
 62
7
  6
CONTINUOUS
  2
*D2
 70
65
 10
0.0
 20
0.0
  3
*D2
  1

  0
MTEXT
  5
239
100
AcDbEntity
  8
0
100
AcDbMText
 62
7
  6
CONTINUOUS
  7
STANDARD
 71
2
 72
1
 10
100.054229136
 20
99.2128027221
 30
0.0
 11
1.0
 21
0.0
 31
0.0
 44
0.9
  1
38,1
 40
3.0
 41
7.9285714286
  0
LINE
  5
23A
100
AcDbEntity
  8
0
100
AcDbLine
 62
7
  6
CONTINUOUS
 10
119.087316962
 20
77.9837350079
 11
119.087316962
 21
96.9628027221
  0
LINE
  5
23B
100
AcDbEntity
  8
0
100
AcDbLine
 62
7
  6
CONTINUOUS
 10
81.02114131
 20
39.3452973946
 11
81.02114131
 21
96.9628027221
  0
LINE
  5
23C
100
AcDbEntity
  8
0
100
AcDbLine
 62
7
  6
CONTINUOUS
 10
119.087316962
 20
95.4628027221
 11
100.054229136
 21
95.4628027221
  0
LINE
  5
23D
100
AcDbEntity
  8
0
100
AcDbLine
 62
7
  6
CONTINUOUS
 10
81.02114131
 20
95.4628027221
 11
100.054229136
 21
95.4628027221
  0
INSERT
  5
23E
100
AcDbEntity
  8
0
100
AcDbBlockReference
 62
7
  6
CONTINUOUS
  2
_FILLED
 10
119.087316962
 20
95.4628027221
 41
3.0
 42
3.0
 43
3.0
  0
INSERT
  5
23F
100
AcDbEntity
  8
0
100
AcDbBlockReference
 62
7
  6
CONTINUOUS
  2
_FILLED
 10
81.02114131
 20
95.4628027221
 41
3.0
 42
3.0
 43
3.0
 50
180.0
  0
ENDBLK
  5
240
100
AcDbEntity
  8
0
  6
BYBLOCK
 62
0
100
AcDbBlockEnd
  0
ENDSEC
  0
SECTION
  2
ENTITIES
  0
DIMENSION
  5
241
100
AcDbEntity
  8
0
100
AcDbDimension
 62
7
  6
CONTINUOUS
  2
*D0
 10
187.9416129502
 20
27.4837350079
 11
187.9416129502
 21
56.5337350079
 70
160
 71
2
 42
58.1
  3
DIMSTYLE_1
100
AcDbAlignedDimension
 13
174.0088782927
 23
85.5837350079
 14
162.4414181689
 24
27.4837350079
 50
270.0
100
AcDbRotatedDimension
  0
DIMENSION
  5
242
100
AcDbEntity
  8
0
100
AcDbDimension
 62
7
  6
CONTINUOUS
  2
*D1
 10
137.5416129502
 20
95.2756372657
 11
157.9416129502
 21
95.2756372657
 70
160
 71
2
 42
40.8
  3
DIMSTYLE_1
100
AcDbAlignedDimension
 13
178.3416129502
 23
84.9837350079
 14
137.5416129502
 24
84.9837350079
 50
180.0
100
AcDbRotatedDimension
  0
DIMENSION
  5
243
100
AcDbEntity
  8
0
100
AcDbDimension
 62
7
  6
CONTINUOUS
  2
*D2
 10
81.02114131
 20
95.4628027221
 11
100.054229136
 21
95.4628027221
 70
160
 71
2
 42
38.066175652
  3
DIMSTYLE_2
100
AcDbAlignedDimension
 13
119.087316962
 23
77.4837350079
 14
81.02114131
 24
38.8452973946
 50
180.0
100
AcDbRotatedDimension
  0
LINE
  5
244
100
AcDbEntity
  8
0
100
AcDbLine
 62
7
  6
CONTINUOUS
 10
153.4418077315
 20
27.4837350079
 11
153.9416129502
 21
27.4837350079
  0
LINE
  5
245
100
AcDbEntity
  8
0
100
AcDbLine
 62
7
  6
CONTINUOUS
 10
161.9416129502
 20
27.4837350079
 11
162.4414181689
 21
27.4837350079
  0
LINE
  5
246
100
AcDbEntity
  8
0
100
AcDbLine
 62
253
  6
CONTINUOUS
 10
163.2416129502
 20
28.8337350079
 11
152.6416129502
 21
28.8337350079
  0
LWPOLYLINE
  5
247
100
AcDbEntity
  8
0
100
AcDbPolyline
 62
253
  6
CONTINUOUS
 90
34
 70
0
 10
157.9416137566
 20
28.5206678914
 10
158.1938157017
 20
28.5203957819
 10
158.4454537997
 20
28.5195954658
 10
158.6959578174
 20
28.5182669431
 10
158.944759167
 20
28.5164048798
 10
159.1912947265
 20
28.5140146099
 10
159.4350080319
 20
28.5111121354
 10
159.6753461628
 20
28.5076940003
 10
159.9117641547
 20
28.5037636607
 10
160.1437285314
 20
28.4993474863
 10
160.370713034
 20
28.4944421827
 10
160.5922018494
 20
28.4890510443
 10
160.8076935739
 20
28.4832103246
 10
161.0166996933
 20
28.4769169173
 10
161.218743555
 20
28.4701739287
 10
161.4133634583
 20
28.4630269306
 10
161.6001167091
 20
28.4554731498
 10
161.7785784414
 20
28.4475153596
 10
161.9483407613
 20
28.4392074512
 10
162.1090161369
 20
28.4305471012
 10
162.2602402321
 20
28.4215366332
 10
162.401670577
 20
28.4122369088
 10
162.5329871907
 20
28.4026457346
 10
162.6538872675
 20
28.392765304
 10
162.764089516
 20
28.3826630592
 10
162.8633373136
 20
28.3723381925
 10
162.9514129321
 20
28.3617915117
 10
163.0281270461
 20
28.3510928826
 10
163.0933639995
 20
28.340229188
 10
163.1468809756
 20
28.3292135451
 10
163.1884406724
 20
28.3181551715
 10
163.2180284757
 20
28.3070904732
 10
163.2357309555
 20
28.2959830443
 10
163.2416129502
 20
28.2848328847
  0
LWPOLYLINE
  5
248
100
AcDbEntity
  8
0
100
AcDbPolyline
 62
253
  6
CONTINUOUS
 90
24
 70
0
 10
157.9416136414
 20
27.7217642636
 10
158.1578475414
 20
27.7214888209
 10
158.372612574
 20
27.7206788944
 10
158.5859087393
 20
27.7193344841
 10
158.7982172718
 20
27.7174501274
 10
159.009056937
 20
27.7150312869
 10
159.216984031
 20
27.7120943505
 10
159.4219787957
 20
27.7086357802
 10
159.6240609891
 20
27.7046591139
 10
159.8218461821
 20
27.700191353
 10
160.0153056849
 20
27.6952291263
 10
160.2044681872
 20
27.689775805
 10
160.3880353288
 20
27.6838685033
 10
160.5659700919
 20
27.6775040467
 10
160.7383094942
 20
27.6706856096
 10
160.9038662288
 20
27.66345983
 10
161.0625935742
 20
27.65582388
 10
161.2145382517
 20
27.6477805874
 10
161.358653119
 20
27.6393850739
 10
161.4948835267
 20
27.6306349698
 10
161.6232841241
 20
27.6215326448
 10
161.7429717169
 20
27.612140329
 10
161.8538882146
 20
27.6024558029
 10
161.9560917078
 20
27.5924812861
  0
LWPOLYLINE
  5
249
100
AcDbEntity
  8
0
100
AcDbPolyline
 62
7
  6
CONTINUOUS
 90
25
 70
0
 10
153.4418077315
 20
27.4837350079
 10
153.3896515016
 20
27.4854218753
 10
153.3379939898
 20
27.4904791953
 10
153.2868351959
 20
27.4989069678
 10
153.2358750359
 20
27.5107902095
 10
153.1854135939
 20
27.5260439037
 10
153.1363511224
 20
27.5444130011
 10
153.0888776577
 20
27.5658599715
 10
153.0428031636
 20
27.590422345
 10
152.9984577834
 20
27.6179576633
 10
152.9557105536
 20
27.6485892307
 10
152.9146924378
 20
27.6821937427
 10
152.87612647
 20
27.7182588278
 10
152.8400821506
 20
27.7568533415
 10
152.8064899793
 20
27.7979084283
 10
152.775864489
 20
27.8407051497
 10
152.748326475
 20
27.8851209144
 10
152.7237551421
 20
27.9312783138
 10
152.702302638
 20
27.9788261827
 10
152.6839372476
 20
28.0279355418
 10
152.668690686
 20
28.0784353704
 10
152.6568102462
 20
28.1294614417
 10
152.6483783591
 20
28.1807256801
 10
152.6433125938
 20
28.2325161611
 10
152.6416129502
 20
28.2848328847
  0
LWPOLYLINE
  5
24A
100
AcDbEntity
  8
0
100
AcDbPolyline
 62
253
  6
CONTINUOUS
 90
11
 70
0
 10
161.9560917078
 20
27.5924812861
 10
162.0488732734
 20
27.5822856678
 10
162.1321651258
 20
27.5718678383
 10
162.2060350505
 20
27.5612289073
 10
162.2699774818
 20
27.5504410934
 10
162.3239248388
 20
27.5394913246
 10
162.3679447023
 20
27.5283926729
 10
162.4017342494
 20
27.517256572
 10
162.4251925391
 20
27.5061201665
 10
162.4384205122
 20
27.4949463118
 10
162.4414181689
 20
27.4837350079
  0
LWPOLYLINE
  5
24B
100
AcDbEntity
  8
0
100
AcDbPolyline
 62
253
  6
CONTINUOUS
 90
13
 70
0
 10
164.0896082475
 20
30.6413297544
 10
164.0708820148
 20
30.639166175
 10
164.0525788923
 20
30.6346372073
 10
164.0349921213
 20
30.6278154117
 10
164.0184034661
 20
30.6188100827
 10
164.0030786999
 20
30.6077654983
 10
163.9892633467
 20
30.5948586078
 10
163.9771787474
 20
30.5802961975
 10
163.9670185141
 20
30.5643115774
 10
163.9589454277
 20
30.5471608431
 10
163.9530888303
 20
30.5291187731
 10
163.9495425526
 20
30.5104744263
 10
163.9483634109
 20
30.4915265109
  0
LINE
  5
24C
100
AcDbEntity
  8
0
100
AcDbLine
 62
253
  6
CONTINUOUS
 10
167.9363459125
 20
31.9682551999
 11
167.8459633445
 21
31.9580392014
  0
LINE
  5
24D
100
AcDbEntity
  8
0
100
AcDbLine
 62
253
  6
CONTINUOUS
 10
167.8459633445
 20
31.9580392014
 11
167.7115586727
 21
31.943668596
  0
LINE
  5
24E
100
AcDbEntity
  8
0
100
AcDbLine
 62
253
  6
CONTINUOUS
 10
167.7115586727
 20
31.943668596
 11
167.578812694
 21
31.930304352
  0
LINE
  5
24F
100
AcDbEntity
  8
0
100
AcDbLine
 62
253
  6
CONTINUOUS
 10
167.578812694
 20
31.930304352
 11
167.360519179
 21
31.9092268435
  0
LINE
  5
250
100
AcDbEntity
  8
0
100
AcDbLine
 62
253
  6
CONTINUOUS
 10
167.360519179
 20
31.9092268435
 11
167.1007121705
 21
31.8850324809
  0
LINE
  5
251
100
AcDbEntity
  8
0
100
AcDbLine
 62
253
  6
CONTINUOUS
 10
167.1007121705
 20
31.8850324809
 11
166.7911391704
 21
31.8569786962
  0
LINE
  5
252
100
AcDbEntity
  8
0
100
AcDbLine
 62
253
  6
CONTINUOUS
 10
166.7911391704
 20
31.8569786962
 11
166.5504111206
 21
31.8356933316
  0
LINE
  5
253
100
AcDbEntity
  8
0
100
AcDbLine
 62
253
  6
CONTINUOUS
 10
166.5504111206
 20
31.8356933316
 11
166.2778497217
 21
31.8122525702
  0
LINE
  5
254
100
AcDbEntity
  8
0
100
AcDbLine
 62
253
  6
CONTINUOUS
 10
166.2778497217
 20
31.8122525702
 11
166.0302243934
 21
31.7915752924
  0
LINE
  5
255
100
AcDbEntity
  8
0
100
AcDbLine
 62
253
  6
CONTINUOUS
 10
166.0302243934
 20
31.7915752924
 11
165.7524158282
 21
31.7690726279
  0
LINE
  5
256
100
AcDbEntity
  8
0
100
AcDbLine
 62
253
  6
CONTINUOUS
 10
167.9721668241
 20
31.2707868999
 11
167.5793615535
 21
31.2391050696
  0
LINE
  5
257
100
AcDbEntity
  8
0
100
AcDbLine
 62
253
  6
CONTINUOUS
 10
165.7524158282
 20
31.7690726279
 11
165.5219445539
 21
31.7509515054
  0
LINE
  5
258
100
AcDbEntity
  8
0
100
AcDbLine
 62
253
  6
CONTINUOUS
 10
167.5793615535
 20
31.2391050696
 11
167.316904643
 21
31.2185290738
  0
LINE
  5
259
100
AcDbEntity
  8
0
100
AcDbLine
 62
253
  6
CONTINUOUS
 10
165.5219445539
 20
31.7509515054
 11
165.2707230804
 21
31.7317623928
  0
LINE
  5
25A
100
AcDbEntity
  8
0
100
AcDbLine
 62
253
  6
CONTINUOUS
 10
167.316904643
 20
31.2185290738
 11
167.0546276068
 21
31.1985491435
  0
LINE
  5
25B
100
AcDbEntity
  8
0
100
AcDbLine
 62
253
  6
CONTINUOUS
 10
165.2707230804
 20
31.7317623928
 11
164.9965348402
 21
31.7114947033
  0
LINE
  5
25C
100
AcDbEntity
  8
0
100
AcDbLine
 62
253
  6
CONTINUOUS
 10
167.0546276068
 20
31.1985491435
 11
166.7840926158
 21
31.1785530425
  0
LINE
  5
25D
100
AcDbEntity
  8
0
100
AcDbLine
 62
253
  6
CONTINUOUS
 10
166.7840926158
 20
31.1785530425
 11
166.4834644275
 21
31.1570450468
  0
LINE
  5
25E
100
AcDbEntity
  8
0
100
AcDbLine
 62
253
  6
CONTINUOUS
 10
164.9965348402
 20
31.7114947033
 11
164.6966802946
 21
31.6901462073
  0
LINE
  5
25F
100
AcDbEntity
  8
0
100
AcDbLine
 62
253
  6
CONTINUOUS
 10
166.4834644275
 20
31.1570450468
 11
166.1934646383
 21
31.1370085666
  0
LINE
  5
260
100
AcDbEntity
  8
0
100
AcDbLine
 62
253
  6
CONTINUOUS
 10
164.6966802946
 20
31.6901462073
 11
164.4810746413
 21
31.6753260653
  0
LINE
  5
261
100
AcDbEntity
  8
0
100
AcDbLine
 62
253
  6
CONTINUOUS
 10
164.4810746413
 20
31.6753260653
 11
164.2521457123
 21
31.6600770734
  0
LINE
  5
262
100
AcDbEntity
  8
0
100
AcDbLine
 62
253
  6
CONTINUOUS
 10
166.1934646383
 20
31.1370085666
 11
165.9295948301
 21
31.1193870476
  0
LINE
  5
263
100
AcDbEntity
  8
0
100
AcDbLine
 62
253
  6
CONTINUOUS
 10
164.2521457123
 20
31.6600770734
 11
164.0090423226
 21
31.6444346774
  0
LINE
  5
264
100
AcDbEntity
  8
0
100
AcDbLine
 62
253
  6
CONTINUOUS
 10
165.9295948301
 20
31.1193870476
 11
165.6334545082
 21
31.1003034971
  0
LINE
  5
265
100
AcDbEntity
  8
0
100
AcDbLine
 62
253
  6
CONTINUOUS
 10
165.6334545082
 20
31.1003034971
 11
165.3879402808
 21
31.0850368369
  0
LINE
  5
266
100
AcDbEntity
  8
0
100
AcDbLine
 62
253
  6
CONTINUOUS
 10
164.0090423226
 20
31.6444346774
 11
163.7512318994
 21
31.6284663475
  0
LINE
  5
267
100
AcDbEntity
  8
0
100
AcDbLine
 62
253
  6
CONTINUOUS
 10
165.3879402808
 20
31.0850368369
 11
165.120208998
 21
31.0689602
  0
LINE
  5
268
100
AcDbEntity
  8
0
100
AcDbLine
 62
253
  6
CONTINUOUS
 10
163.7512318994
 20
31.6284663475
 11
163.4783330419
 21
31.6122629736
  0
LINE
  5
269
100
AcDbEntity
  8
0
100
AcDbLine
 62
253
  6
CONTINUOUS
 10
165.120208998
 20
31.0689602
 11
164.8276485118
 21
31.0520732993
  0
LINE
  5
26A
100
AcDbEntity
  8
0
100
AcDbLine
 62
253
  6
CONTINUOUS
 10
163.4783330419
 20
31.6122629736
 11
163.1897959753
 21
31.595915325
  0
LINE
  5
26B
100
AcDbEntity
  8
0
100
AcDbLine
 62
253
  6
CONTINUOUS
 10
164.8276485118
 20
31.0520732993
 11
164.507436039
 21
31.0344046564
  0
LINE
  5
26C
100
AcDbEntity
  8
0
100
AcDbLine
 62
253
  6
CONTINUOUS
 10
163.1897959753
 20
31.595915325
 11
162.8850662438
 21
31.5795275859
  0
LINE
  5
26D
100
AcDbEntity
  8
0
100
AcDbLine
 62
253
  6
CONTINUOUS
 10
163.9916129502
 20
30.4938083474
 11
163.9483655045
 21
30.4915265109
  0
LINE
  5
26E
100
AcDbEntity
  8
0
100
AcDbLine
 62
253
  6
CONTINUOUS
 10
164.507436039
 20
31.0344046564
 11
164.2773044977
 21
31.0222319777
  0
LINE
  5
26F
100
AcDbEntity
  8
0
100
AcDbLine
 62
253
  6
CONTINUOUS
 10
164.2773044977
 20
31.0222319777
 11
164.0329443252
 21
31.0097875615
  0
LINE
  5
270
100
AcDbEntity
  8
0
100
AcDbLine
 62
253
  6
CONTINUOUS
 10
162.8850662438
 20
31.5795275859
 11
162.5637678194
 21
31.5632301971
  0
LINE
  5
271
100
AcDbEntity
  8
0
100
AcDbLine
 62
253
  6
CONTINUOUS
 10
164.0329443252
 20
31.0097875615
 11
163.7738240898
 21
30.9971319216
  0
LINE
  5
272
100
AcDbEntity
  8
0
100
AcDbLine
 62
253
  6
CONTINUOUS
 10
162.5637678194
 20
31.5632301971
 11
162.225396997
 21
31.5471586798
  0
LINE
  5
273
100
AcDbEntity
  8
0
100
AcDbLine
 62
253
  6
CONTINUOUS
 10
163.7738240898
 20
30.9971319216
 11
163.4995651776
 21
30.9843428641
  0
LINE
  5
274
100
AcDbEntity
  8
0
100
AcDbLine
 62
253
  6
CONTINUOUS
 10
163.4995651776
 20
30.9843428641
 11
163.2096183795
 21
30.9714993
  0
LWPOLYLINE
  5
275
100
AcDbEntity
  8
0
100
AcDbPolyline
 62
253
  6
CONTINUOUS
 90
19
 70
0
 10
162.225396997
 20
31.5471586798
 10
161.869128039
 20
31.5314520349
 10
161.6841840134
 20
31.523791795
 10
161.4942231373
 20
31.5162751578
 10
161.2992503565
 20
31.5089313615
 10
161.0992582747
 20
31.5017900835
 10
160.8937716881
 20
31.4948660052
 10
160.6827963531
 20
31.4881936526
 10
160.4663244558
 20
31.4818081693
 10
160.2438602766
 20
31.4757326912
 10
160.0154897739
 20
31.4700097146
 10
159.7811256649
 20
31.4646784965
 10
159.540012245
 20
31.4597676014
 10
159.2922112633
 20
31.4553273516
 10
159.0376606772
 20
31.4514072562
 10
158.7754190471
 20
31.4480494026
 10
158.5051729064
 20
31.4453124416
 10
158.2272370757
 20
31.4432634575
 10
157.9416129502
 20
31.4419671162
  0
LINE
  5
276
100
AcDbEntity
  8
0
100
AcDbLine
 62
253
  6
CONTINUOUS
 10
163.2096183795
 20
30.9714993
 11
162.9034297596
 21
30.9586908144
  0
LINE
  5
277
100
AcDbEntity
  8
0
100
AcDbLine
 62
253
  6
CONTINUOUS
 10
162.9034297596
 20
30.9586908144
 11
162.5806259765
 21
30.9460265432
  0
LINE
  5
278
100
AcDbEntity
  8
0
100
AcDbLine
 62
253
  6
CONTINUOUS
 10
162.5806259765
 20
30.9460265432
 11
162.2407031088
 21
30.933620957
  0
LWPOLYLINE
  5
279
100
AcDbEntity
  8
0
100
AcDbPolyline
 62
253
  6
CONTINUOUS
 90
7
 70
0
 10
163.9483655045
 20
30.4915265109
 10
163.9094824687
 20
30.4901539548
 10
163.8581141801
 20
30.4894024644
 10
163.7942198601
 20
30.4892720398
 10
163.7177210199
 20
30.4897888145
 10
163.6286796294
 20
30.490926655
 10
163.5273950125
 20
30.4926071604
  0
LINE
  5
27A
100
AcDbEntity
  8
0
100
AcDbLine
 62
253
  6
CONTINUOUS
 10
164.0896176311
 20
30.6413299985
 11
164.0499097766
 21
30.6399449716
  0
LINE
  5
27B
100
AcDbEntity
  8
0
100
AcDbLine
 62
253
  6
CONTINUOUS
 10
162.2407031088
 20
30.933620957
 11
161.8828343273
 21
30.9215905333
  0
LWPOLYLINE
  5
27C
100
AcDbEntity
  8
0
100
AcDbPolyline
 62
253
  6
CONTINUOUS
 90
17
 70
0
 10
161.8828343273
 20
30.9215905333
 10
161.5062829288
 20
30.9100728092
 10
161.3104675951
 20
30.9045451295
 10
161.1096213555
 20
30.8992040755
 10
160.9032659132
 20
30.8940620685
 10
160.6914080671
 20
30.8891478578
 10
160.4740408919
 20
30.8844904064
 10
160.2506654929
 20
30.8801087264
 10
160.0213690902
 20
30.8760380509
 10
159.7860647841
 20
30.8723109718
 10
159.5439925204
 20
30.8689511057
 10
159.2951334877
 20
30.8659994776
 10
159.0395074371
 20
30.8634984119
 10
158.776412251
 20
30.8614841893
 10
158.5056144984
 20
30.8600042401
 10
158.2273495144
 20
30.8591121359
 10
157.9416185898
 20
30.8588599703
  0
LINE
  5
27D
100
AcDbEntity
  8
0
100
AcDbLine
 62
253
  6
CONTINUOUS
 10
153.9798056897
 20
30.5319615064
 11
152.7313859509
 21
30.500833725
  0
LINE
  5
27E
100
AcDbEntity
  8
0
100
AcDbLine
 62
253
  6
CONTINUOUS
 10
153.8862778313
 20
30.6815603235
 11
152.7596380628
 21
30.6541655072
  0
LINE
  5
27F
100
AcDbEntity
  8
0
100
AcDbLine
 62
253
  6
CONTINUOUS
 10
152.7596380628
 20
30.6541655072
 11
152.4689457944
 21
30.6473556414
  0
LWPOLYLINE
  5
280
100
AcDbEntity
  8
0
100
AcDbPolyline
 62
253
  6
CONTINUOUS
 90
9
 70
0
 10
152.7313859509
 20
30.500833725
 10
152.4694670831
 20
30.494853898
 10
152.3560902246
 20
30.4926119427
 10
152.2547695705
 20
30.4909299503
 10
152.165686286
 20
30.4897904317
 10
152.0891387208
 20
30.4892724247
 10
152.0251932981
 20
30.4894022752
 10
151.973778888
 20
30.4901536373
 10
151.9348603959
 20
30.4915265109
  0
LINE
  5
281
100
AcDbEntity
  8
0
100
AcDbLine
 62
253
  6
CONTINUOUS
 10
154.418284364
 20
30.541975681
 11
153.9798056897
 21
30.5319615064
  0
LINE
  5
282
100
AcDbEntity
  8
0
100
AcDbLine
 62
253
  6
CONTINUOUS
 10
154.335203118
 20
30.6915193177
 11
153.8862778313
 21
30.6815603235
  0
LWPOLYLINE
  5
283
100
AcDbEntity
  8
0
100
AcDbPolyline
 62
253
  6
CONTINUOUS
 90
7
 70
0
 10
152.4689457944
 20
30.6473556414
 10
152.2245559855
 20
30.642382056
 10
152.1210054164
 20
30.6406887572
 10
152.0297846921
 20
30.6395701514
 10
151.9513812415
 20
30.6390707676
 10
151.8859593749
 20
30.6391946863
 10
151.8333619288
 20
30.6399436426
  0
LWPOLYLINE
  5
284
100
AcDbEntity
  8
0
100
AcDbPolyline
 62
253
  6
CONTINUOUS
 90
5
 70
0
 10
164.0499097766
 20
30.6399449716
 10
163.9973576373
 20
30.6391956873
 10
163.9319804329
 20
30.6390703938
 10
163.8536236281
 20
30.6395682065
 10
163.7624488361
 20
30.640685453
  0
LINE
  5
285
100
AcDbEntity
  8
0
100
AcDbLine
 62
253
  6
CONTINUOUS
 10
163.3600340028
 20
28.9803732365
 11
152.5231918976
 21
28.9803732365
  0
LINE
  5
286
100
AcDbEntity
  8
0
100
AcDbLine
 62
253
  6
CONTINUOUS
 10
151.8916129502
 20
29.762443789
 11
163.9916129502
 21
29.762443789
  0
LWPOLYLINE
  5
287
100
AcDbEntity
  8
0
100
AcDbPolyline
 62
253
  6
CONTINUOUS
 90
16
 70
0
 10
157.9416185898
 20
30.8588599703
 10
157.6473115531
 20
30.8591299923
 10
157.3607131936
 20
30.8600788058
 10
157.0818249201
 20
30.861651013
 10
156.8108953052
 20
30.8637895958
 10
156.5476778523
 20
30.8664441512
 10
156.2914310842
 20
30.869576337
 10
156.0421634198
 20
30.8731414464
 10
155.7998674649
 20
30.8770958313
 10
155.5637779212
 20
30.8814141187
 10
155.3338123595
 20
30.8860614889
 10
155.1100535524
 20
30.8910005985
 10
154.8919839809
 20
30.8962112955
 10
154.6795994542
 20
30.9016627182
 10
154.4729040188
 20
30.9073243792
 10
154.2713925264
 20
30.9131834285
  0
LWPOLYLINE
  5
288
100
AcDbEntity
  8
0
100
AcDbPolyline
 62
253
  6
CONTINUOUS
 90
19
 70
0
 10
157.9416129502
 20
31.4419671162
 10
157.647450219
 20
31.4433149266
 10
157.3612168009
 20
31.4454616034
 10
157.0829142555
 20
31.4483384739
 10
156.8128701561
 20
31.4518743155
 10
156.5507584768
 20
31.4560068126
 10
156.2955999322
 20
31.4606912653
 10
156.0473215826
 20
31.4658753435
 10
155.8059961003
 20
31.4715055256
 10
155.570862652
 20
31.4775509064
 10
155.3418383409
 20
31.4839695026
 10
155.1190046395
 20
31.4907163081
 10
154.901847389
 20
31.497766699
 10
154.6903614303
 20
31.5050832074
 10
154.4845496893
 20
31.5126292257
 10
154.2839103101
 20
31.5203895118
 10
154.0884258018
 20
31.5283329789
 10
153.8981110022
 20
31.5364282669
 10
153.7125128145
 20
31.5446667236
  0
LWPOLYLINE
  5
289
100
AcDbEntity
  8
0
100
AcDbPolyline
 62
253
  6
CONTINUOUS
 90
24
 70
0
 10
160.821285646
 20
30.7056270754
 10
160.56647847
 20
30.7099103564
 10
160.3056867065
 20
30.713917368
 10
160.0403695886
 20
30.7175906421
 10
159.7704733582
 20
30.7208932858
 10
159.4960454841
 20
30.7238048637
 10
159.2186951155
 20
30.7262782182
 10
158.9383264122
 20
30.7282854994
 10
158.6550243389
 20
30.7298206156
 10
158.3706678043
 20
30.7308544785
 10
158.0851687493
 20
30.7313667877
 10
157.7986016707
 20
30.7313673378
 10
157.5130887503
 20
30.7308559224
 10
157.2286980261
 20
30.7298226709
 10
156.9453478915
 20
30.7282881662
 10
156.6649366197
 20
30.7262814857
 10
156.3875560106
 20
30.7238085622
 10
156.1131033857
 20
30.7208972838
 10
155.8431867512
 20
30.7175949561
 10
155.5778524045
 20
30.7139219396
 10
155.317047758
 20
30.7099151319
 10
155.062234418
 20
30.705632229
 10
154.8134416715
 20
30.7011050847
 10
154.335203118
 20
30.6915193177
  0
LWPOLYLINE
  5
28A
100
AcDbEntity
  8
0
100
AcDbPolyline
 62
253
  6
CONTINUOUS
 90
25
 70
0
 10
160.9981793374
 20
30.5516077391
 10
160.7549328807
 20
30.5561418814
 10
160.5058247177
 20
30.5604278776
 10
160.2513993212
 20
30.5644738018
 10
159.9920025768
 20
30.5681542021
 10
159.7281497102
 20
30.5714583092
 10
159.4604212211
 20
30.5743968925
 10
159.1892601677
 20
30.5768768079
 10
158.9151688476
 20
30.5788842349
 10
158.6387879788
 20
30.580432994
 10
158.360777657
 20
30.5814714035
 10
158.08166016
 20
30.5819822754
 10
157.8020974146
 20
30.5819827977
 10
157.5229660956
 20
30.5814728516
 10
157.2449221577
 20
30.5804351595
 10
156.9684944268
 20
30.578886999
 10
156.6943616727
 20
30.576880084
 10
156.4231710177
 20
30.5744005835
 10
156.1554183226
 20
30.5714623285
 10
155.8915456313
 20
30.5681585266
 10
155.6321319053
 20
30.5644783939
 10
155.3776936944
 20
30.5604327143
 10
155.1285799095
 20
30.5561470472
 10
154.8853344396
 20
30.5516133304
 10
154.418284364
 20
30.541975681
  0
LINE
  5
28B
100
AcDbEntity
  8
0
100
AcDbLine
 62
253
  6
CONTINUOUS
 10
163.7624488361
 20
30.640685453
 11
163.5429220803
 21
30.6446030052
  0
LINE
  5
28C
100
AcDbEntity
  8
0
100
AcDbLine
 62
253
  6
CONTINUOUS
 10
161.3128893824
 20
30.6963737279
 11
160.821285646
 21
30.7056270754
  0
LINE
  5
28D
100
AcDbEntity
  8
0
100
AcDbLine
 62
253
  6
CONTINUOUS
 10
161.4652520849
 20
30.5419689129
 11
160.9981793374
 21
30.5516077391
  0
LINE
  5
28E
100
AcDbEntity
  8
0
100
AcDbLine
 62
253
  6
CONTINUOUS
 10
161.776519725
 20
30.6865514128
 11
161.3128893824
 21
30.6963737279
  0
LINE
  5
28F
100
AcDbEntity
  8
0
100
AcDbLine
 62
253
  6
CONTINUOUS
 10
163.5273950125
 20
30.4926071604
 11
163.2887986282
 21
30.497631617
  0
LINE
  5
290
100
AcDbEntity
  8
0
100
AcDbLine
 62
253
  6
CONTINUOUS
 10
163.5429220803
 20
30.6446030052
 11
163.2749041885
 21
30.6505521005
  0
LINE
  5
291
100
AcDbEntity
  8
0
100
AcDbLine
 62
253
  6
CONTINUOUS
 10
161.9037996361
 20
30.5319525089
 11
161.4652520849
 21
30.5419689129
  0
LINE
  5
292
100
AcDbEntity
  8
0
100
AcDbLine
 62
253
  6
CONTINUOUS
 10
162.4118708558
 20
30.6717021484
 11
161.776519725
 21
30.6865514128
  0
LWPOLYLINE
  5
293
100
AcDbEntity
  8
0
100
AcDbPolyline
 62
253
  6
CONTINUOUS
 90
3
 70
0
 10
163.2887986282
 20
30.497631617
 10
163.0045371399
 20
30.5044393031
 10
162.4981032133
 20
30.5172914052
  0
LINE
  5
294
100
AcDbEntity
  8
0
100
AcDbLine
 62
253
  6
CONTINUOUS
 10
163.2749041885
 20
30.6505521005
 11
162.4118708558
 21
30.6717021484
  0
LINE
  5
295
100
AcDbEntity
  8
0
100
AcDbLine
 62
253
  6
CONTINUOUS
 10
162.4981032133
 20
30.5172914052
 11
161.9037996361
 21
30.5319525089
  0
LINE
  5
296
100
AcDbEntity
  8
0
100
AcDbLine
 62
253
  6
CONTINUOUS
 10
154.2713925264
 20
30.9131834285
 11
153.88388775
 21
30.9253909515
  0
LINE
  5
297
100
AcDbEntity
  8
0
100
AcDbLine
 62
253
  6
CONTINUOUS
 10
151.8333619288
 20
30.6399436426
 11
151.793591849
 21
30.641330841
  0
LINE
  5
298
100
AcDbEntity
  8
0
100
AcDbLine
 62
253
  6
CONTINUOUS
 10
153.88388775
 20
30.9253909515
 11
153.5156803851
 21
30.9381386024
  0
LINE
  5
299
100
AcDbEntity
  8
0
100
AcDbLine
 62
253
  6
CONTINUOUS
 10
153.5156803851
 20
30.9381386024
 11
153.1660612836
 21
30.951278218
  0
LINE
  5
29A
100
AcDbEntity
  8
0
100
AcDbLine
 62
253
  6
CONTINUOUS
 10
153.1660612836
 20
30.951278218
 11
152.8343085477
 21
30.9646801221
  0
LINE
  5
29B
100
AcDbEntity
  8
0
100
AcDbLine
 62
253
  6
CONTINUOUS
 10
152.8343085477
 20
30.9646801221
 11
152.5198555137
 21
30.9782233768
  0
LINE
  5
29C
100
AcDbEntity
  8
0
100
AcDbLine
 62
253
  6
CONTINUOUS
 10
152.5198555137
 20
30.9782233768
 11
152.222302095
 21
30.991791839
  0
LINE
  5
29D
100
AcDbEntity
  8
0
100
AcDbLine
 62
253
  6
CONTINUOUS
 10
153.7125128145
 20
31.5446667236
 11
153.3553248759
 21
31.5614732333
  0
LINE
  5
29E
100
AcDbEntity
  8
0
100
AcDbLine
 62
253
  6
CONTINUOUS
 10
152.222302095
 20
30.991791839
 11
151.941053138
 21
31.0052908177
  0
LINE
  5
29F
100
AcDbEntity
  8
0
100
AcDbLine
 62
253
  6
CONTINUOUS
 10
151.941053138
 20
31.0052908177
 11
151.6755095644
 21
31.0186377352
  0
LINE
  5
2A0
100
AcDbEntity
  8
0
100
AcDbLine
 62
253
  6
CONTINUOUS
 10
153.3553248759
 20
31.5614732333
 11
153.0162261353
 21
31.5785848663
  0
LINE
  5
2A1
100
AcDbEntity
  8
0
100
AcDbLine
 62
253
  6
CONTINUOUS
 10
151.9348603959
 20
30.4915265109
 11
151.8916129502
 21
30.4938083474
  0
LINE
  5
2A2
100
AcDbEntity
  8
0
100
AcDbLine
 62
253
  6
CONTINUOUS
 10
151.6755095644
 20
31.0186377352
 11
151.4252769226
 21
31.0317499986
  0
LINE
  5
2A3
100
AcDbEntity
  8
0
100
AcDbLine
 62
253
  6
CONTINUOUS
 10
153.0162261353
 20
31.5785848663
 11
152.6947608259
 21
31.5958415514
  0
LINE
  5
2A4
100
AcDbEntity
  8
0
100
AcDbLine
 62
253
  6
CONTINUOUS
 10
151.4252769226
 20
31.0317499986
 11
151.1897701413
 21
31.0445652326
  0
LINE
  5
2A5
100
AcDbEntity
  8
0
100
AcDbLine
 62
253
  6
CONTINUOUS
 10
152.6947608259
 20
31.5958415514
 11
152.3903446726
 21
31.6131083709
  0
LINE
  5
2A6
100
AcDbEntity
  8
0
100
AcDbLine
 62
253
  6
CONTINUOUS
 10
151.1897701413
 20
31.0445652326
 11
150.8630020747
 21
31.0631090182
  0
LINE
  5
2A7
100
AcDbEntity
  8
0
100
AcDbLine
 62
253
  6
CONTINUOUS
 10
150.8630020747
 20
31.0631090182
 11
150.5665879192
 21
31.0806970849
  0
LINE
  5
2A8
100
AcDbEntity
  8
0
100
AcDbLine
 62
253
  6
CONTINUOUS
 10
152.3903446726
 20
31.6131083709
 11
152.1023818082
 21
31.6302683384
  0
LINE
  5
2A9
100
AcDbEntity
  8
0
100
AcDbLine
 62
253
  6
CONTINUOUS
 10
150.5665879192
 20
31.0806970849
 11
150.2988063177
 21
31.0972142601
  0
LINE
  5
2AA
100
AcDbEntity
  8
0
100
AcDbLine
 62
253
  6
CONTINUOUS
 10
152.1023818082
 20
31.6302683384
 11
151.8304701897
 21
31.6472053179
  0
LINE
  5
2AB
100
AcDbEntity
  8
0
100
AcDbLine
 62
253
  6
CONTINUOUS
 10
150.2988063177
 20
31.0972142601
 11
149.982347232
 21
31.1175044773
  0
LINE
  5
2AC
100
AcDbEntity
  8
0
100
AcDbLine
 62
253
  6
CONTINUOUS
 10
151.8304701897
 20
31.6472053179
 11
151.574009614
 21
31.6638315078
  0
LINE
  5
2AD
100
AcDbEntity
  8
0
100
AcDbLine
 62
253
  6
CONTINUOUS
 10
149.982347232
 20
31.1175044773
 11
149.7065573441
 21
31.1358695725
  0
LINE
  5
2AE
100
AcDbEntity
  8
0
100
AcDbLine
 62
253
  6
CONTINUOUS
 10
151.574009614
 20
31.6638315078
 11
151.3324142101
 21
31.6800710149
  0
LINE
  5
2AF
100
AcDbEntity
  8
0
100
AcDbLine
 62
253
  6
CONTINUOUS
 10
149.7065573441
 20
31.1358695725
 11
149.4093736859
 21
31.1563697184
  0
LINE
  5
2B0
100
AcDbEntity
  8
0
100
AcDbLine
 62
253
  6
CONTINUOUS
 10
151.3324142101
 20
31.6800710149
 11
151.1052975796
 21
31.6958461493
  0
LINE
  5
2B1
100
AcDbEntity
  8
0
100
AcDbLine
 62
253
  6
CONTINUOUS
 10
149.4093736859
 20
31.1563697184
 11
149.1529703052
 21
31.1746463349
  0
LINE
  5
2B2
100
AcDbEntity
  8
0
100
AcDbLine
 62
253
  6
CONTINUOUS
 10
151.1052975796
 20
31.6958461493
 11
150.7905311081
 21
31.7185218381
  0
LINE
  5
2B3
100
AcDbEntity
  8
0
100
AcDbLine
 62
253
  6
CONTINUOUS
 10
149.1529703052
 20
31.1746463349
 11
148.8774761598
 21
31.194890928
  0
LINE
  5
2B4
100
AcDbEntity
  8
0
100
AcDbLine
 62
253
  6
CONTINUOUS
 10
150.7905311081
 20
31.7185218381
 11
150.5054298359
 21
31.7398687437
  0
LINE
  5
2B5
100
AcDbEntity
  8
0
100
AcDbLine
 62
253
  6
CONTINUOUS
 10
148.8774761598
 20
31.194890928
 11
148.613310601
 21
31.2149059791
  0
LINE
  5
2B6
100
AcDbEntity
  8
0
100
AcDbLine
 62
253
  6
CONTINUOUS
 10
150.5054298359
 20
31.7398687437
 11
150.2482056531
 21
31.7597798919
  0
LINE
  5
2B7
100
AcDbEntity
  8
0
100
AcDbLine
 62
253
  6
CONTINUOUS
 10
148.613310601
 20
31.2149059791
 11
148.3497700049
 21
31.2354660255
  0
LINE
  5
2B8
100
AcDbEntity
  8
0
100
AcDbLine
 62
253
  6
CONTINUOUS
 10
150.2482056531
 20
31.7597798919
 11
150.0164326527
 21
31.7782493426
  0
LINE
  5
2B9
100
AcDbEntity
  8
0
100
AcDbLine
 62
253
  6
CONTINUOUS
 10
148.3497700049
 20
31.2354660255
 11
147.9971840512
 21
31.2637838412
  0
LINE
  5
2BA
100
AcDbEntity
  8
0
100
AcDbLine
 62
253
  6
CONTINUOUS
 10
147.9971840512
 20
31.2637838412
 11
147.9110591808
 21
31.2707868913
  0
LINE
  5
2BB
100
AcDbEntity
  8
0
100
AcDbLine
 62
253
  6
CONTINUOUS
 10
150.0164326527
 20
31.7782493426
 11
149.74230782
 21
31.8007443201
  0
LINE
  5
2BC
100
AcDbEntity
  8
0
100
AcDbLine
 62
253
  6
CONTINUOUS
 10
149.74230782
 20
31.8007443201
 11
149.5023306056
 21
31.8210313873
  0
LINE
  5
2BD
100
AcDbEntity
  8
0
100
AcDbLine
 62
253
  6
CONTINUOUS
 10
149.5023306056
 20
31.8210313873
 11
149.2402532933
 21
31.8438142633
  0
LWPOLYLINE
  5
2BE
100
AcDbEntity
  8
0
100
AcDbPolyline
 62
253
  6
CONTINUOUS
 90
37
 70
0
 10
147.9110591815
 20
31.2707868991
 10
147.8434687951
 20
31.2768250077
 10
147.7732969491
 20
31.2841555714
 10
147.7005726417
 20
31.2928992416
 10
147.6253430555
 20
31.3031773861
 10
147.5476323367
 20
31.3151212305
 10
147.4674425216
 20
31.3288740276
 10
147.3848036148
 20
31.3445776348
 10
147.2997901162
 20
31.3623698083
 10
147.2124802063
 20
31.3823938438
 10
147.1229699697
 20
31.4047890585
 10
147.0313064551
 20
31.4297098102
 10
146.937506106
 20
31.4573288643
 10
146.8417442694
 20
31.4877756438
 10
146.7440369316
 20
31.5212325279
 10
146.6441828154
 20
31.5579792608
 10
146.5423893035
 20
31.5981651013
 10
146.4387134633
 20
31.6420023425
 10
146.3327697278
 20
31.6899274265
 10
146.224736361
 20
31.7421660523
 10
146.1148164535
 20
31.7989412727
 10
146.0027243449
 20
31.8607664231
 10
145.8887559667
 20
31.9278817156
 10
145.7731526839
 20
32.0005697837
 10
145.6556356611
 20
32.0794980951
 10
145.5366450773
 20
32.164916703
 10
145.4165009986
 20
32.2571756304
 10
145.2948839461
 20
32.3572110951
 10
145.1722994273
 20
32.4653981093
 10
145.0493478682
 20
32.5820560574
 10
144.9260454132
 20
32.7081602444
 10
144.8030849317
 20
32.8441285965
 10
144.6813216698
 20
32.9902408502
 10
144.56123351
 20
33.1473373365
 10
144.443691746
 20
33.3159002192
 10
144.3298889325
 20
33.4959875238
 10
144.2209482639
 20
33.6877665645
  0
LINE
  5
2BF
100
AcDbEntity
  8
0
100
AcDbLine
 62
253
  6
CONTINUOUS
 10
149.2402532933
 20
31.8438142633
 11
148.9622360931
 21
31.868667775
  0
LINE
  5
2C0
100
AcDbEntity
  8
0
100
AcDbLine
 62
253
  6
CONTINUOUS
 10
148.9622360931
 20
31.868667775
 11
148.656011895
 21
31.8967075667
  0
LINE
  5
2C1
100
AcDbEntity
  8
0
100
AcDbLine
 62
253
  6
CONTINUOUS
 10
148.656011895
 20
31.8967075667
 11
148.4379981003
 21
31.917313296
  0
LINE
  5
2C2
100
AcDbEntity
  8
0
100
AcDbLine
 62
253
  6
CONTINUOUS
 10
148.4379981003
 20
31.917313296
 11
148.2613552292
 21
31.9345697906
  0
LINE
  5
2C3
100
AcDbEntity
  8
0
100
AcDbLine
 62
253
  6
CONTINUOUS
 10
148.2613552292
 20
31.9345697906
 11
148.171969263
 21
31.9436361352
  0
LINE
  5
2C4
100
AcDbEntity
  8
0
100
AcDbLine
 62
253
  6
CONTINUOUS
 10
148.171969263
 20
31.9436361352
 11
148.0370151736
 21
31.9580683276
  0
LINE
  5
2C5
100
AcDbEntity
  8
0
100
AcDbLine
 62
253
  6
CONTINUOUS
 10
148.0370151736
 20
31.9580683276
 11
147.9468799879
 21
31.9682551999
  0
LWPOLYLINE
  5
2C6
100
AcDbEntity
  8
0
100
AcDbPolyline
 62
253
  6
CONTINUOUS
 90
13
 70
0
 10
151.7936176404
 20
30.6413295114
 10
151.8123436623
 20
30.6391657023
 10
151.8306465527
 20
30.6346365568
 10
151.8482330801
 20
30.6278146367
 10
151.8648214896
 20
30.6188092362
 10
151.8801460173
 20
30.6077646314
 10
151.893961148
 20
30.5948577686
 10
151.9060455486
 20
30.5802954293
 10
151.9162056143
 20
30.5643109176
 10
151.9242785698
 20
30.5471603224
 10
151.930135078
 20
30.5291184144
 10
151.9336813113
 20
30.5104742441
 10
151.9348604552
 20
30.4915265109
  0
LWPOLYLINE
  5
2C7
100
AcDbEntity
  8
0
100
AcDbPolyline
 62
253
  6
CONTINUOUS
 90
37
 70
0
 10
147.9468799879
 20
31.9682551999
 10
147.8901022613
 20
31.9752208346
 10
147.8312423831
 20
31.9832765871
 10
147.7703232689
 20
31.992518708
 10
147.707358423
 20
32.0029911972
 10
147.6423856682
 20
32.0147966019
 10
147.5754682322
 20
32.0280960374
 10
147.5066665595
 20
32.0429523877
 10
147.4359920274
 20
32.0594401449
 10
147.3634425534
 20
32.0777581868
 10
147.2890691104
 20
32.0980281213
 10
147.2129221263
 20
32.1203364276
 10
147.1350089633
 20
32.1448495851
 10
147.0554548399
 20
32.1716620808
 10
146.9742685008
 20
32.2009076196
 10
146.8912977295
 20
32.2328324066
 10
146.8066834626
 20
32.2675408756
 10
146.7204683255
 20
32.3052006088
 10
146.6323799329
 20
32.3461923213
 10
146.5425326164
 20
32.3906553534
 10
146.4510667596
 20
32.4387591071
 10
146.3577886941
 20
32.4909730864
 10
146.2628890302
 20
32.5474498751
 10
146.1665328526
 20
32.6083963454
 10
146.0685460865
 20
32.6744217371
 10
145.9691983613
 20
32.7456776086
 10
145.868713529
 20
32.8224261455
 10
145.7669321358
 20
32.9055123964
 10
145.6641282669
 20
32.9951699824
 10
145.5607112338
 20
33.0916296982
 10
145.456833233
 20
33.1957975161
 10
145.3528506063
 20
33.3079482635
 10
145.2493432564
 20
33.428277091
 10
145.146905376
 20
33.5575883747
 10
145.0461428935
 20
33.6962735017
 10
144.9476524795
 20
33.8442997931
 10
144.8520782594
 20
34.0017973931
  0
LWPOLYLINE
  5
2C8
100
AcDbEntity
  8
0
100
AcDbPolyline
 62
253
  6
CONTINUOUS
 90
97
 70
0
 10
157.9416129502
 20
38.6753825461
 10
157.7526320622
 20
38.6760500442
 10
157.5635579245
 20
38.6790686758
 10
157.3744237191
 20
38.6844402597
 10
157.1852577685
 20
38.6921694705
 10
156.9960984952
 20
38.7022562409
 10
156.8069941453
 20
38.7146951903
 10
156.617971606
 20
38.7294911005
 10
156.4290709306
 20
38.7466444924
 10
156.2403595231
 20
38.7661422933
 10
156.051879604
 20
38.7879868445
 10
155.8636555138
 20
38.8121799837
 10
155.6757269119
 20
38.8387067173
 10
155.4881421468
 20
38.8675659034
 10
155.3009183819
 20
38.8987598004
 10
155.1140478528
 20
38.9322796842
 10
154.9275893923
 20
38.9681236278
 10
154.7415495622
 20
39.0062948497
 10
154.5558423554
 20
39.0467975462
 10
154.3704469692
 20
39.0896522628
 10
154.1854517423
 20
39.1348500861
 10
154.0009334934
 20
39.1823530127
 10
153.8169849338
 20
39.2321481848
 10
153.6335787608
 20
39.284254451
 10
153.4506110541
 20
39.3386837354
 10
153.2680281789
 20
39.3954689298
 10
153.0859516488
 20
39.4545919301
 10
152.9045386364
 20
39.515987397
 10
152.7236035316
 20
39.5797337216
 10
152.5433970622
 20
39.6457557563
 10
152.3647167235
 20
39.713725246
 10
152.1879934074
 20
39.7834502252
 10
152.0128309655
 20
39.8550644663
 10
151.838780067
 20
39.9287172065
 10
151.6661325839
 20
40.0044303913
 10
151.4946455612
 20
40.0821253244
 10
151.3230791453
 20
40.161914514
 10
151.1510321321
 20
40.2443528435
 10
150.9790936679
 20
40.3297782557
 10
150.8074813033
 20
40.4176428829
 10
150.6361223444
 20
40.507748234
 10
150.4652134262
 20
40.6002093504
 10
150.2953349076
 20
40.6947582354
 10
150.1266963078
 20
40.7912863514
 10
149.9591962669
 20
40.8898314089
 10
149.7929375479
 20
40.9903206172
 10
149.6279159912
 20
41.0927872337
 10
149.4642537231
 20
41.1971470426
 10
149.3022359957
 20
41.3031440173
 10
149.1417824028
 20
41.4107624329
 10
148.9831032473
 20
41.5199671716
 10
148.8268899277
 20
41.6304287744
 10
148.6734969231
 20
41.7415517929
 10
148.5223238983
 20
41.8536402257
 10
148.3724918208
 20
41.9676284526
 10
148.2239488697
 20
42.0837111876
 10
148.076741721
 20
42.2016354751
 10
147.930453143
 20
42.3218470348
 10
147.7846451003
 20
42.4447550721
 10
147.639828615
 20
42.5699635777
 10
147.4969716708
 20
42.6966749534
 10
147.3564427461
 20
42.8245203464
 10
147.2178799362
 20
42.9537867995
 10
147.081136451
 20
43.0846304594
 10
146.9461547794
 20
43.2170809545
 10
146.8130115412
 20
43.3510473084
 10
146.681762996
 20
43.4865062584
 10
146.5524340211
 20
43.6234073577
 10
146.4250148363
 20
43.76173443
 10
146.2995096388
 20
43.9015128311
 10
146.1758832908
 20
44.0427541909
 10
146.0541879624
 20
44.1853824391
 10
145.9345540935
 20
44.3292844028
 10
145.8169606752
 20
44.4744387581
 10
145.7014299525
 20
44.6207878801
 10
145.5881441826
 20
44.7681490788
 10
145.4770870496
 20
44.9164794388
 10
145.3682607581
 20
45.065729382
 10
145.2618604578
 20
45.2156894301
 10
145.1579603263
 20
45.3661708204
 10
145.056452249
 20
45.5172541578
 10
144.9572553811
 20
45.669126605
 10
144.8604177712
 20
45.8216521887
 10
144.7658684838
 20
45.974866414
 10
144.6733673793
 20
46.129221717
 10
144.5829550011
 20
46.284615142
 10
144.4945922254
 20
46.4410640051
 10
144.4079530028
 20
46.5992175375
 10
144.3225548939
 20
46.7600130294
 10
144.2389461951
 20
46.9224602431
 10
144.1582961322
 20
47.0842874411
 10
144.0803423126
 20
47.2458203425
 10
144.0052586227
 20
47.4066006052
 10
143.9346874603
 20
47.5630880069
 10
143.8690269333
 20
47.7140048894
 10
143.8075526219
 20
47.8603983676
 10
143.7501199115
 20
48.0021706217
  0
LWPOLYLINE
  5
2C9
100
AcDbEntity
  8
0
100
AcDbPolyline
 62
253
  6
CONTINUOUS
 90
97
 70
0
 10
157.9416129502
 20
39.6290953507
 10
157.7646570943
 20
39.6305387077
 10
157.58762331
 20
39.6340598159
 10
157.4105367055
 20
39.6396595265
 10
157.2334137259
 20
39.6473387919
 10
157.0562884081
 20
39.657098531
 10
156.8792123491
 20
39.6689386047
 10
156.7022051179
 20
39.6828589712
 10
156.525298027
 20
39.6988595628
 10
156.3485602679
 20
39.7169377263
 10
156.1720269862
 20
39.7370905012
 10
155.9957139766
 20
39.7593172374
 10
155.8196613535
 20
39.7836166762
 10
155.6439109802
 20
39.8099841942
 10
155.468472002
 20
39.8384195452
 10
155.2933357291
 20
39.868928701
 10
155.1185536297
 20
39.9015052959
 10
154.9441258164
 20
39.9361528814
 10
154.7699671796
 20
39.9728953458
 10
154.5960493248
 20
40.0117417825
 10
154.4224519306
 20
40.0526795481
 10
154.2492519688
 20
40.0956990976
 10
154.0765329595
 20
40.1407802965
 10
153.9042620094
 20
40.1879328785
 10
153.732342692
 20
40.2371944621
 10
153.5607174146
 20
40.2885909183
 10
153.3894989573
 20
40.3420974838
 10
153.2188467331
 20
40.3976752741
 10
153.0485887582
 20
40.4553876114
 10
152.8789513013
 20
40.5151650994
 10
152.7106806096
 20
40.5767394052
 10
152.5441688841
 20
40.6399348205
 10
152.3790531428
 20
40.704856923
 10
152.214942756
 20
40.7716483034
 10
152.052079775
 20
40.8401858903
 10
151.8902596538
 20
40.9105519237
 10
151.7284450848
 20
40.98324764
 10
151.566250941
 20
41.0584834247
 10
151.4041407997
 20
41.1360900166
 10
151.2423665022
 20
41.2160271821
 10
151.0808509609
 20
41.2983750551
 10
150.9197453099
 20
41.3830692011
 10
150.7596313691
 20
41.4698245222
 10
150.6006588555
 20
41.5585550188
 10
150.4427289982
 20
41.649316447
 10
150.2860370698
 20
41.7420104866
 10
150.1305432718
 20
41.8366521688
 10
149.9763335186
 20
41.9331877263
 10
149.8237805131
 20
42.0313967329
 10
149.6728671924
 20
42.1312809898
 10
149.5236390134
 20
42.2327740776
 10
149.3765410644
 20
42.3355241097
 10
149.2320700469
 20
42.4391418312
 10
149.0897151172
 20
42.5439058526
 10
148.9484222932
 20
42.6504871686
 10
148.807988334
 20
42.7590233731
 10
148.6686643962
 20
42.8693579724
 10
148.5301142755
 20
42.9817693481
 10
148.3919693468
 20
43.096592183
 10
148.2546717166
 20
43.2134993586
 10
148.1190863866
 20
43.3317597016
 10
147.9855509531
 20
43.4510467404
 10
147.8537356952
 20
43.571620614
 10
147.7234840294
 20
43.6936074618
 10
147.5947526147
 20
43.8170390088
 10
147.4676097932
 20
43.9418381211
 10
147.3420712935
 20
44.0679732377
 10
147.2181643219
 20
44.1954040194
 10
147.0958812094
 20
44.3241195885
 10
146.9751863313
 20
44.4541341917
 10
146.8560489469
 20
44.5854688424
 10
146.7385209773
 20
44.7180527678
 10
146.6226888862
 20
44.8517619122
 10
146.5085350744
 20
44.9865950424
 10
146.3960903867
 20
45.1224995517
 10
146.2855039636
 20
45.2592682228
 10
146.1767631113
 20
45.3968813933
 10
146.0698722581
 20
45.5353062406
 10
145.964990459
 20
45.6743090267
 10
145.8622001676
 20
45.813732353
 10
145.7613912666
 20
45.9536715281
 10
145.6624321185
 20
46.0942708259
 10
145.5654015653
 20
46.235411008
 10
145.470203518
 20
46.377158623
 10
145.3764673653
 20
46.5199486475
 10
145.2842505899
 20
46.6637207679
 10
145.1935188873
 20
46.8084873945
 10
145.1038054823
 20
46.9548173814
 10
145.01459273
 20
47.1036347341
 10
144.9264912281
 20
47.2540137348
 10
144.8406831067
 20
47.4037340382
 10
144.7567989595
 20
47.5531671967
 10
144.6751592389
 20
47.7018798634
 10
144.5977866234
 20
47.8463579231
 10
144.5251995032
 20
47.9853491453
 10
144.4565487598
 20
48.1199350966
 10
144.3916906236
 20
48.2500428997
  0
LWPOLYLINE
  5
2CA
100
AcDbEntity
  8
0
100
AcDbPolyline
 62
253
  6
CONTINUOUS
 90
9
 70
0
 10
171.6622342236
 20
33.6876901846
 10
171.65112115
 20
33.6914520512
 10
171.6347849716
 20
33.6980459849
 10
171.6133244943
 20
33.7074321035
 10
171.5868695172
 20
33.7195536373
 10
171.5555800474
 20
33.7343372718
 10
171.5196453325
 20
33.7516935914
 10
171.4792827159
 20
33.7715176203
 10
171.4347363221
 20
33.7936894569
  0
LINE
  5
2CB
100
AcDbEntity
  8
0
100
AcDbLine
 62
253
  6
CONTINUOUS
 10
171.4347363221
 20
33.7936894569
 11
171.3341935948
 21
33.8445267588
  0
LINE
  5
2CC
100
AcDbEntity
  8
0
100
AcDbLine
 62
253
  6
CONTINUOUS
 10
171.3341935948
 20
33.8445267588
 11
171.220445916
 21
33.9029774433
  0
LWPOLYLINE
  5
2CD
100
AcDbEntity
  8
0
100
AcDbPolyline
 62
253
  6
CONTINUOUS
 90
3
 70
0
 10
171.220445916
 20
33.9029774433
 10
171.0962410372
 20
33.9676295436
 10
171.0311468408
 20
34.0017979122
  0
LINE
  5
2CE
100
AcDbEntity
  8
0
100
AcDbLine
 62
253
  6
CONTINUOUS
 10
140.3357400509
 20
45.1473094
 11
140.4935194724
 21
45.191254706
  0
LINE
  5
2CF
100
AcDbEntity
  8
0
100
AcDbLine
 62
253
  6
CONTINUOUS
 10
175.5474858479
 20
45.1473094101
 11
175.3897064192
 21
45.1912547074
  0
LINE
  5
2D0
100
AcDbEntity
  8
0
100
AcDbLine
 62
253
  6
CONTINUOUS
 10
171.8844784593
 20
33.5677523541
 11
171.9837920949
 21
33.5141675775
  0
LWPOLYLINE
  5
2D1
100
AcDbEntity
  8
0
100
AcDbPolyline
 62
253
  6
CONTINUOUS
 90
4
 70
0
 10
171.6622784225
 20
33.6877680276
 10
171.7296973591
 20
33.6513424138
 10
171.7892086633
 20
33.6191941383
 10
171.8844784593
 20
33.5677523541
  0
LINE
  5
2D2
100
AcDbEntity
  8
0
100
AcDbLine
 62
253
  6
CONTINUOUS
 10
140.1878140622
 20
45.1054729214
 11
140.3357400509
 21
45.1473094
  0
LINE
  5
2D3
100
AcDbEntity
  8
0
100
AcDbLine
 62
7
  6
CONTINUOUS
 10
159.7914478305
 20
51.7555614788
 11
159.621820596
 21
51.7179058149
  0
LINE
  5
2D4
100
AcDbEntity
  8
0
100
AcDbLine
 62
7
  6
CONTINUOUS
 10
156.0917780698
 20
52.2119085361
 11
156.261405303
 21
52.2495641997
  0
LINE
  5
2D5
100
AcDbEntity
  8
0
100
AcDbLine
 62
7
  6
CONTINUOUS
 10
159.621820596
 20
51.7179058149
 11
159.4493922242
 21
51.6801611956
  0
LINE
  5
2D6
100
AcDbEntity
  8
0
100
AcDbLine
 62
7
  6
CONTINUOUS
 10
156.261405303
 20
52.2495641997
 11
156.4338336766
 21
52.2873088194
  0
LINE
  5
2D7
100
AcDbEntity
  8
0
100
AcDbLine
 62
7
  6
CONTINUOUS
 10
159.4493922242
 20
51.6801611956
 11
159.2754209833
 21
51.6426138664
  0
LINE
  5
2D8
100
AcDbEntity
  8
0
100
AcDbLine
 62
7
  6
CONTINUOUS
 10
156.4338336766
 20
52.2873088194
 11
156.6078049222
 21
52.3248561495
  0
LINE
  5
2D9
100
AcDbEntity
  8
0
100
AcDbLine
 62
7
  6
CONTINUOUS
 10
159.2754209833
 20
51.6426138664
 11
159.1473311854
 21
51.6153080356
  0
LINE
  5
2DA
100
AcDbEntity
  8
0
100
AcDbLine
 62
7
  6
CONTINUOUS
 10
156.6078049222
 20
52.3248561495
 11
156.7358947128
 21
52.3521619788
  0
LWPOLYLINE
  5
2DB
100
AcDbEntity
  8
0
100
AcDbPolyline
 62
253
  6
CONTINUOUS
 90
6
 70
0
 10
177.8286475092
 20
54.4029040078
 10
177.81659818
 20
54.4017814251
 10
177.7981175648
 20
54.4018189825
 10
177.7733277019
 20
54.4030065956
 10
177.7424105016
 20
54.4055455056
 10
177.6629467124
 20
54.4133110264
  0
LINE
  5
2DC
100
AcDbEntity
  8
0
100
AcDbLine
 62
253
  6
CONTINUOUS
 10
138.0545783912
 20
54.4029040078
 11
139.0456428592
 21
54.4837350079
  0
LINE
  5
2DD
100
AcDbEntity
  8
0
100
AcDbLine
 62
253
  6
CONTINUOUS
 10
142.7416485508
 20
54.483724606
 11
139.0456411891
 21
54.4837595969
  0
LINE
  5
2DE
100
AcDbEntity
  8
0
100
AcDbLine
 62
253
  6
CONTINUOUS
 10
176.8375846985
 20
54.4837594079
 11
173.1415797415
 21
54.4837350079
  0
LINE
  5
2DF
100
AcDbEntity
  8
0
100
AcDbLine
 62
7
  6
CONTINUOUS
 10
159.7914478305
 20
51.7555614788
 11
159.0866208734
 21
51.7555422679
  0
LINE
  5
2E0
100
AcDbEntity
  8
0
100
AcDbLine
 62
7
  6
CONTINUOUS
 10
156.7966050261
 20
52.2119277528
 11
156.0917780698
 21
52.2119085361
  0
LINE
  5
2E1
100
AcDbEntity
  8
0
100
AcDbLine
 62
7
  6
CONTINUOUS
 10
156.7965733671
 20
51.7553817368
 11
156.0917547635
 21
51.7557505072
  0
LINE
  5
2E2
100
AcDbEntity
  8
0
100
AcDbLine
 62
7
  6
CONTINUOUS
 10
159.0866525333
 20
52.2120882791
 11
159.7914711369
 21
52.2117195087
  0
LINE
  5
2E3
100
AcDbEntity
  8
0
100
AcDbLine
 62
7
  6
CONTINUOUS
 10
156.7361000677
 20
51.6151658355
 11
156.542482109
 21
51.6567231145
  0
LINE
  5
2E4
100
AcDbEntity
  8
0
100
AcDbLine
 62
7
  6
CONTINUOUS
 10
159.4892209749
 20
52.2784846978
 11
159.1471258327
 21
52.3523041803
  0
LINE
  5
2E5
100
AcDbEntity
  8
0
100
AcDbLine
 62
7
  6
CONTINUOUS
 10
156.542482109
 20
51.6567231145
 11
156.3162762503
 21
51.7060156309
  0
LWPOLYLINE
  5
2E6
100
AcDbEntity
  8
0
100
AcDbPolyline
 62
7
  6
CONTINUOUS
 90
3
 70
0
 10
156.3162762503
 20
51.7060156309
 10
156.1254937304
 20
51.7482203405
 10
156.0917547635
 20
51.7557505072
  0
LINE
  5
2E7
100
AcDbEntity
  8
0
100
AcDbLine
 62
7
  6
CONTINUOUS
 10
159.7914711369
 20
52.2117195087
 11
159.4892209749
 21
52.2784846978
  0
LINE
  5
2E8
100
AcDbEntity
  8
0
100
AcDbLine
 62
253
  6
CONTINUOUS
 10
175.6954118446
 20
45.1054729358
 11
175.5474858479
 21
45.1473094101
  0
LINE
  5
2E9
100
AcDbEntity
  8
0
100
AcDbLine
 62
253
  6
CONTINUOUS
 10
175.8292109048
 20
45.0669539185
 11
175.6954118446
 21
45.1054729358
  0
LWPOLYLINE
  5
2EA
100
AcDbEntity
  8
0
100
AcDbPolyline
 62
253
  6
CONTINUOUS
 90
9
 70
0
 10
176.166121008
 20
44.9611856174
 10
176.1541890233
 20
44.9662223045
 10
176.135399442
 20
44.9730974007
 10
176.1098882153
 20
44.9817611615
 10
176.0778399284
 20
44.9921509008
 10
176.0394864655
 20
45.0041914438
 10
175.9951053314
 20
45.0177956719
 10
175.9450176438
 20
45.0328651523
 10
175.8292109048
 20
45.0669539185
  0
LWPOLYLINE
  5
2EB
100
AcDbEntity
  8
0
100
AcDbPolyline
 62
7
  6
CONTINUOUS
 90
7
 70
0
 10
158.2110849928
 20
50.8213394287
 10
158.2042806211
 20
50.8243646593
 10
158.1974430771
 20
50.8273396845
 10
158.1905723608
 20
50.8302645043
 10
158.1836684722
 20
50.8331391186
 10
158.1767314114
 20
50.8359635276
 10
158.1697611783
 20
50.8387377311
  0
LINE
  5
2EC
100
AcDbEntity
  8
0
100
AcDbLine
 62
7
  6
CONTINUOUS
 10
158.2244723059
 20
50.8411405507
 11
158.1804353327
 21
50.8616287142
  0
LWPOLYLINE
  5
2ED
100
AcDbEntity
  8
TRASH
100
AcDbPolyline
 62
7
  6
CONTINUOUS
 90
3
 70
0
 10
156.9674267844
 20
51.6759410725
 10
156.8706980448
 20
51.720899269
 10
156.7966156733
 20
51.7555867798
  0
LINE
  5
2EE
100
AcDbEntity
  8
TRASH
100
AcDbLine
 62
7
  6
CONTINUOUS
 10
157.4218894663
 20
51.4640115241
 11
156.9674267844
 21
51.6759410725
  0
LINE
  5
2EF
100
AcDbEntity
  8
0
100
AcDbLine
 62
7
  6
CONTINUOUS
 10
157.3416129502
 20
51.4251202017
 11
157.3693593525
 21
51.4114814062
  0
LINE
  5
2F0
100
AcDbEntity
  8
0
100
AcDbLine
 62
7
  6
CONTINUOUS
 10
157.285116734
 20
51.3272387863
 11
157.2239326679
 21
51.3579251332
  0
LINE
  5
2F1
100
AcDbEntity
  8
0
100
AcDbLine
 62
7
  6
CONTINUOUS
 10
157.2239326679
 20
51.3579251332
 11
157.142881894
 21
51.3990982635
  0
LINE
  5
2F2
100
AcDbEntity
  8
0
100
AcDbLine
 62
7
  6
CONTINUOUS
 10
157.142881894
 20
51.3990982635
 11
157.0420832909
 21
51.4510100257
  0
LINE
  5
2F3
100
AcDbEntity
  8
0
100
AcDbLine
 62
7
  6
CONTINUOUS
 10
157.0420832909
 20
51.4510100257
 11
156.8101948815
 21
51.572800788
  0
LWPOLYLINE
  5
2F4
100
AcDbEntity
  8
0
100
AcDbPolyline
 62
7
  6
CONTINUOUS
 90
3
 70
0
 10
156.8101948815
 20
51.572800788
 10
156.782323496
 20
51.5876172031
 10
156.7534510533
 20
51.6031559625
  0
LINE
  5
2F5
100
AcDbEntity
  8
0
100
AcDbLine
 62
253
  6
CONTINUOUS
 10
144.8520782594
 20
34.0017973931
 11
144.6833594868
 21
34.2972098734
  0
LINE
  5
2F6
100
AcDbEntity
  8
0
100
AcDbLine
 62
253
  6
CONTINUOUS
 10
144.6833594868
 20
34.2972098734
 11
144.646061533
 21
34.3637465708
  0
LWPOLYLINE
  5
2F7
100
AcDbEntity
  8
0
100
AcDbPolyline
 62
253
  6
CONTINUOUS
 90
3
 70
0
 10
144.646061533
 20
34.3637465708
 10
144.6093887131
 20
34.4302953262
 10
144.5912779869
 20
34.4635337886
  0
LINE
  5
2F8
100
AcDbEntity
  8
0
100
AcDbLine
 62
253
  6
CONTINUOUS
 10
144.5912779869
 20
34.4635337886
 11
144.5557045383
 21
34.5298668937
  0
LINE
  5
2F9
100
AcDbEntity
  8
0
100
AcDbLine
 62
253
  6
CONTINUOUS
 10
144.2209483097
 20
33.6877665893
 11
144.1187625874
 21
33.8790247216
  0
LINE
  5
2FA
100
AcDbEntity
  8
0
100
AcDbLine
 62
253
  6
CONTINUOUS
 10
144.1187625874
 20
33.8790247216
 11
144.0148540361
 21
34.0748340284
  0
LINE
  5
2FB
100
AcDbEntity
  8
0
100
AcDbLine
 62
253
  6
CONTINUOUS
 10
144.5557045383
 20
34.5298668937
 11
144.5208378169
 21
34.5959714967
  0
LINE
  5
2FC
100
AcDbEntity
  8
0
100
AcDbLine
 62
253
  6
CONTINUOUS
 10
144.0148540361
 20
34.0748340284
 11
143.9272616082
 21
34.2411456463
  0
LINE
  5
2FD
100
AcDbEntity
  8
0
100
AcDbLine
 62
253
  6
CONTINUOUS
 10
143.9272616082
 20
34.2411456463
 11
143.839865253
 21
34.4084931941
  0
LINE
  5
2FE
100
AcDbEntity
  8
0
100
AcDbLine
 62
253
  6
CONTINUOUS
 10
144.5208378169
 20
34.5959714967
 11
144.4355010771
 21
34.7606734083
  0
LINE
  5
2FF
100
AcDbEntity
  8
0
100
AcDbLine
 62
253
  6
CONTINUOUS
 10
143.839865253
 20
34.4084931941
 11
143.7533290615
 21
34.575684305
  0
LINE
  5
300
100
AcDbEntity
  8
0
100
AcDbLine
 62
253
  6
CONTINUOUS
 10
144.4355010771
 20
34.7606734083
 11
144.3507531576
 21
34.9254844126
  0
LINE
  5
301
100
AcDbEntity
  8
0
100
AcDbLine
 62
253
  6
CONTINUOUS
 10
143.7533290615
 20
34.575684305
 11
143.6673743021
 21
34.7432365797
  0
LINE
  5
302
100
AcDbEntity
  8
0
100
AcDbLine
 62
253
  6
CONTINUOUS
 10
144.3507531576
 20
34.9254844126
 11
144.2663820477
 21
35.0907544742
  0
LINE
  5
303
100
AcDbEntity
  8
0
100
AcDbLine
 62
253
  6
CONTINUOUS
 10
143.6673743021
 20
34.7432365797
 11
143.5821094544
 21
34.9109213093
  0
LINE
  5
304
100
AcDbEntity
  8
0
100
AcDbLine
 62
253
  6
CONTINUOUS
 10
144.2663820477
 20
35.0907544742
 11
144.1821285114
 21
35.2569632979
  0
LINE
  5
305
100
AcDbEntity
  8
0
100
AcDbLine
 62
253
  6
CONTINUOUS
 10
143.5821094544
 20
34.9109213093
 11
143.4931960041
 21
35.0873657873
  0
LINE
  5
306
100
AcDbEntity
  8
0
100
AcDbLine
 62
253
  6
CONTINUOUS
 10
144.1821285114
 20
35.2569632979
 11
144.0925083671
 21
35.4351184879
  0
LINE
  5
307
100
AcDbEntity
  8
0
100
AcDbLine
 62
253
  6
CONTINUOUS
 10
143.4931960041
 20
35.0873657873
 11
143.4143884509
 21
35.2451284142
  0
LINE
  5
308
100
AcDbEntity
  8
0
100
AcDbLine
 62
253
  6
CONTINUOUS
 10
144.0925083671
 20
35.4351184879
 11
144.0123614278
 21
35.5960167857
  0
LINE
  5
309
100
AcDbEntity
  8
0
100
AcDbLine
 62
253
  6
CONTINUOUS
 10
143.4143884509
 20
35.2451284142
 11
143.3251598738
 21
35.4253474616
  0
LINE
  5
30A
100
AcDbEntity
  8
0
100
AcDbLine
 62
253
  6
CONTINUOUS
 10
144.0123614278
 20
35.5960167857
 11
143.945218956
 21
35.7320339071
  0
LINE
  5
30B
100
AcDbEntity
  8
0
100
AcDbLine
 62
253
  6
CONTINUOUS
 10
143.3251598738
 20
35.4253474616
 11
143.2501680712
 21
35.5781528968
  0
LINE
  5
30C
100
AcDbEntity
  8
0
100
AcDbLine
 62
253
  6
CONTINUOUS
 10
143.945218956
 20
35.7320339071
 11
143.8713045645
 21
35.8830981828
  0
LINE
  5
30D
100
AcDbEntity
  8
0
100
AcDbLine
 62
253
  6
CONTINUOUS
 10
143.2501680712
 20
35.5781528968
 11
143.1677744508
 21
35.7474874921
  0
LINE
  5
30E
100
AcDbEntity
  8
0
100
AcDbLine
 62
253
  6
CONTINUOUS
 10
143.8713045645
 20
35.8830981828
 11
143.790220196
 21
36.0504774748
  0
LINE
  5
30F
100
AcDbEntity
  8
0
100
AcDbLine
 62
253
  6
CONTINUOUS
 10
143.1677744508
 20
35.7474874921
 11
143.077732883
 21
35.9343146196
  0
LINE
  5
310
100
AcDbEntity
  8
0
100
AcDbLine
 62
253
  6
CONTINUOUS
 10
143.790220196
 20
36.0504774748
 11
143.7016969988
 21
36.2351492795
  0
LINE
  5
311
100
AcDbEntity
  8
0
100
AcDbLine
 62
253
  6
CONTINUOUS
 10
143.077732883
 20
35.9343146196
 11
143.0135764956
 21
36.0685873833
  0
LINE
  5
312
100
AcDbEntity
  8
0
100
AcDbLine
 62
253
  6
CONTINUOUS
 10
143.7016969988
 20
36.2351492795
 11
143.6386456162
 21
36.3679017218
  0
LINE
  5
313
100
AcDbEntity
  8
0
100
AcDbLine
 62
253
  6
CONTINUOUS
 10
143.0135764956
 20
36.0685873833
 11
142.9462749385
 21
36.2104958742
  0
LINE
  5
314
100
AcDbEntity
  8
0
100
AcDbLine
 62
253
  6
CONTINUOUS
 10
143.6386456162
 20
36.3679017218
 11
143.572517401
 21
36.5082342148
  0
LINE
  5
315
100
AcDbEntity
  8
0
100
AcDbLine
 62
253
  6
CONTINUOUS
 10
142.9462749385
 20
36.2104958742
 11
142.876009861
 21
36.3598242494
  0
LINE
  5
316
100
AcDbEntity
  8
0
100
AcDbLine
 62
253
  6
CONTINUOUS
 10
143.572517401
 20
36.5082342148
 11
143.5034957607
 21
36.6559363982
  0
LINE
  5
317
100
AcDbEntity
  8
0
100
AcDbLine
 62
253
  6
CONTINUOUS
 10
142.876009861
 20
36.3598242494
 11
142.8029624951
 21
36.5163577965
  0
LINE
  5
318
100
AcDbEntity
  8
0
100
AcDbLine
 62
253
  6
CONTINUOUS
 10
143.5034957607
 20
36.6559363982
 11
143.4317652272
 21
36.8107973411
  0
LINE
  5
319
100
AcDbEntity
  8
0
100
AcDbLine
 62
253
  6
CONTINUOUS
 10
142.8029624951
 20
36.5163577965
 11
142.727253201
 21
36.6800149645
  0
LINE
  5
31A
100
AcDbEntity
  8
0
100
AcDbLine
 62
253
  6
CONTINUOUS
 10
143.4317652272
 20
36.8107973411
 11
143.3574601065
 21
36.9727345979
  0
LINE
  5
31B
100
AcDbEntity
  8
0
100
AcDbLine
 62
253
  6
CONTINUOUS
 10
142.727253201
 20
36.6800149645
 11
142.649060272
 21
36.8505905424
  0
LINE
  5
31C
100
AcDbEntity
  8
0
100
AcDbLine
 62
253
  6
CONTINUOUS
 10
142.649060272
 20
36.8505905424
 11
142.568171244
 21
37.0287436848
  0
LINE
  5
31D
100
AcDbEntity
  8
0
100
AcDbLine
 62
253
  6
CONTINUOUS
 10
143.3574601065
 20
36.9727345979
 11
143.2807785235
 21
37.1415334493
  0
LINE
  5
31E
100
AcDbEntity
  8
0
100
AcDbLine
 62
253
  6
CONTINUOUS
 10
142.568171244
 20
37.0287436848
 11
142.4844025545
 21
37.2151026048
  0
LWPOLYLINE
  5
31F
100
AcDbEntity
  8
0
100
AcDbPolyline
 62
253
  6
CONTINUOUS
 90
3
 70
0
 10
143.2807785235
 20
37.1415334493
 10
143.2015236315
 20
37.3178535092
 10
143.160930604
 20
37.4089012723
  0
LINE
  5
320
100
AcDbEntity
  8
0
100
AcDbLine
 62
253
  6
CONTINUOUS
 10
142.4844025545
 20
37.2151026048
 11
142.3972703866
 21
37.4110086988
  0
LINE
  5
321
100
AcDbEntity
  8
0
100
AcDbLine
 62
253
  6
CONTINUOUS
 10
142.3972703866
 20
37.4110086988
 11
142.306355272
 21
37.6177256454
  0
LINE
  5
322
100
AcDbEntity
  8
0
100
AcDbLine
 62
253
  6
CONTINUOUS
 10
142.306355272
 20
37.6177256454
 11
142.2114410965
 21
37.8361218391
  0
LWPOLYLINE
  5
323
100
AcDbEntity
  8
0
100
AcDbPolyline
 62
253
  6
CONTINUOUS
 90
36
 70
0
 10
142.2114410965
 20
37.8361218391
 10
142.1121610588
 20
38.0674791348
 10
142.0607667419
 20
38.1884482881
 10
142.0081774496
 20
38.3130992951
 10
141.9544230737
 20
38.4414375173
 10
141.8993683742
 20
38.573866594
 10
141.8430218985
 20
38.7104579511
 10
141.7854418075
 20
38.8511654847
 10
141.7265738213
 20
38.996218962
 10
141.6664284609
 20
39.145700589
 10
141.6050723755
 20
39.2995563688
 10
141.5425392145
 20
39.4578129178
 10
141.4789021632
 20
39.6204035709
 10
141.4141715409
 20
39.7874240475
 10
141.3482912098
 20
39.9591458757
 10
141.281326785
 20
40.1355382449
 10
141.2133091513
 20
40.3166640458
 10
141.1441391027
 20
40.5029382738
 10
141.0738879475
 20
40.6943389067
 10
141.0025985161
 20
40.8909241589
 10
140.9301418889
 20
41.0932335218
 10
140.8566069188
 20
41.3012287029
 10
140.7820418326
 20
41.5149893065
 10
140.7062749733
 20
41.7352372996
 10
140.6293911537
 20
41.9619935377
 10
140.5514746517
 20
42.1952854723
 10
140.472375834
 20
42.4358516688
 10
140.3921964704
 20
42.6837205059
 10
140.3110409821
 20
42.9389188089
 10
140.228789366
 20
43.202189755
 10
140.1455667762
 20
43.4735578501
 10
140.0614970897
 20
43.7530602443
 10
139.9764873833
 20
44.041466209
 10
139.8906119895
 20
44.339056424
 10
139.8040988788
 20
44.6456185761
 10
139.7171048878
 20
44.9611856162
  0
LINE
  5
324
100
AcDbEntity
  8
0
100
AcDbLine
 62
253
  6
CONTINUOUS
 10
137.5416129502
 20
58.6837350079
 11
138.8746512085
 21
58.6837350079
  0
LINE
  5
325
100
AcDbEntity
  8
0
100
AcDbLine
 62
253
  6
CONTINUOUS
 10
177.0085746919
 20
58.6837350079
 11
178.3416129502
 21
58.6837350079
  0
LINE
  5
326
100
AcDbEntity
  8
0
100
AcDbLine
 62
253
  6
CONTINUOUS
 10
177.4411328357
 20
54.4328876602
 11
176.8371210858
 21
54.483735011
  0
LINE
  5
327
100
AcDbEntity
  8
0
100
AcDbLine
 62
253
  6
CONTINUOUS
 10
177.6629467124
 20
54.4133110264
 11
177.4411328357
 21
54.4328876602
  0
LWPOLYLINE
  5
328
100
AcDbEntity
  8
0
100
AcDbPolyline
 62
7
  6
CONTINUOUS
 90
7
 70
0
 10
157.6721409076
 20
53.1461305872
 10
157.6789452793
 20
53.1431053565
 10
157.6857828233
 20
53.1401303313
 10
157.6926535396
 20
53.1372055116
 10
157.6995574282
 20
53.1343308972
 10
157.706494489
 20
53.1315064883
 10
157.7134647221
 20
53.1287322848
  0
LWPOLYLINE
  5
329
100
AcDbEntity
  8
0
100
AcDbPolyline
 62
253
  6
CONTINUOUS
 90
10
 70
0
 10
172.133106419
 20
48.0021702969
 10
172.060186611
 20
48.035197088
 10
171.9865732677
 20
48.0673059786
 10
171.9127411901
 20
48.0982898714
 10
171.8391665871
 20
48.1279489269
 10
171.7663240097
 20
48.1560918495
 10
171.6946832903
 20
48.1825371214
 10
171.624706504
 20
48.2071141772
 10
171.5568449879
 20
48.229664503
 10
171.4915364369
 20
48.250042657
  0
LINE
  5
32A
100
AcDbEntity
  8
0
100
AcDbLine
 62
7
  6
CONTINUOUS
 10
157.6587535945
 20
53.1263294651
 11
157.7027905677
 21
53.1058413016
  0
LWPOLYLINE
  5
32B
100
AcDbEntity
  8
TRASH
100
AcDbPolyline
 62
7
  6
CONTINUOUS
 90
3
 70
0
 10
158.915799116
 20
52.2915289434
 10
159.0125278556
 20
52.2465707469
 10
159.0866102271
 20
52.211883236
  0
LINE
  5
32C
100
AcDbEntity
  8
TRASH
100
AcDbLine
 62
7
  6
CONTINUOUS
 10
158.4613364341
 20
52.5034584918
 11
158.915799116
 21
52.2915289434
  0
LINE
  5
32D
100
AcDbEntity
  8
0
100
AcDbLine
 62
7
  6
CONTINUOUS
 10
158.5416129502
 20
52.5423498142
 11
158.5138665479
 21
52.5559886097
  0
LINE
  5
32E
100
AcDbEntity
  8
0
100
AcDbLine
 62
7
  6
CONTINUOUS
 10
158.5981091664
 20
52.6402312295
 11
158.6592932325
 21
52.6095448826
  0
LINE
  5
32F
100
AcDbEntity
  8
0
100
AcDbLine
 62
7
  6
CONTINUOUS
 10
158.6592932325
 20
52.6095448826
 11
158.7403440064
 21
52.5683717524
  0
LINE
  5
330
100
AcDbEntity
  8
0
100
AcDbLine
 62
7
  6
CONTINUOUS
 10
158.7403440064
 20
52.5683717524
 11
158.8411426095
 21
52.5164599902
  0
LINE
  5
331
100
AcDbEntity
  8
0
100
AcDbLine
 62
7
  6
CONTINUOUS
 10
158.8411426095
 20
52.5164599902
 11
159.0730310189
 21
52.3946692279
  0
LWPOLYLINE
  5
332
100
AcDbEntity
  8
0
100
AcDbPolyline
 62
7
  6
CONTINUOUS
 90
3
 70
0
 10
159.0730310189
 20
52.3946692279
 10
159.1009024044
 20
52.3798528127
 10
159.1297748471
 20
52.3643140533
  0
LINE
  5
333
100
AcDbEntity
  8
0
100
AcDbLine
 62
7
  6
CONTINUOUS
 10
156.7534510533
 20
51.6031559625
 11
156.7361000677
 21
51.6151658355
  0
LINE
  5
334
100
AcDbEntity
  8
0
100
AcDbLine
 62
7
  6
CONTINUOUS
 10
159.1471258327
 20
52.3523041803
 11
159.1297748471
 21
52.3643140533
  0
LWPOLYLINE
  5
335
100
AcDbEntity
  8
0
100
AcDbPolyline
 62
253
  6
CONTINUOUS
 90
38
 70
0
 10
144.3916906236
 20
48.2500428997
 10
144.3027319242
 20
48.4332069226
 10
144.2176654256
 20
48.6135399043
 10
144.1363635438
 20
48.7909860334
 10
144.0590434093
 20
48.9646352704
 10
143.9852279455
 20
49.1352753388
 10
143.9138357941
 20
49.3054323478
 10
143.8444771793
 20
49.4759895075
 10
143.7775038939
 20
49.6460195169
 10
143.7130186279
 20
49.8153579647
 10
143.6507312959
 20
49.9846679408
 10
143.5908673272
 20
50.1532247246
 10
143.5342104797
 20
50.3187343799
 10
143.4806957859
 20
50.4810065381
 10
143.430153686
 20
50.640077211
 10
143.3830715685
 20
50.7939295331
 10
143.3394782325
 20
50.9417910367
 10
143.2989954725
 20
51.0842608048
 10
143.2614466807
 20
51.2213653797
 10
143.226760426
 20
51.3527280354
 10
143.1947012805
 20
51.478594905
 10
143.1648810063
 20
51.5999422217
 10
143.1371722019
 20
51.7167853939
 10
143.1114763547
 20
51.8290221545
 10
143.0874979951
 20
51.9374693857
 10
143.0651395835
 20
52.0421539213
 10
143.0443290573
 20
52.1429898423
 10
143.0248459077
 20
52.2406365646
 10
143.0066006339
 20
52.3351798091
 10
142.9895572152
 20
52.4264945207
 10
142.9735974906
 20
52.5149299541
 10
142.9586705101
 20
52.6005111506
 10
142.9447224747
 20
52.6831822501
 10
142.9316450245
 20
52.7631758969
 10
142.9193750825
 20
52.8405072863
 10
142.9078950917
 20
52.9151438325
 10
142.8971714728
 20
52.9872472443
 10
142.8872178722
 20
53.0568148753
  0
LINE
  5
336
100
AcDbEntity
  8
0
100
AcDbLine
 62
253
  6
CONTINUOUS
 10
143.160930604
 20
37.4089012723
 11
143.0773120443
 21
37.5980972866
  0
LINE
  5
337
100
AcDbEntity
  8
0
100
AcDbLine
 62
253
  6
CONTINUOUS
 10
143.0773120443
 20
37.5980972866
 11
142.9903688778
 21
37.7971937652
  0
LINE
  5
338
100
AcDbEntity
  8
0
100
AcDbLine
 62
253
  6
CONTINUOUS
 10
142.9903688778
 20
37.7971937652
 11
142.8997127473
 21
38.007459177
  0
LWPOLYLINE
  5
339
100
AcDbEntity
  8
0
100
AcDbPolyline
 62
253
  6
CONTINUOUS
 90
37
 70
0
 10
142.8997127473
 20
38.007459177
 10
142.8049956863
 20
38.2301701753
 10
142.7561062015
 20
38.346359457
 10
142.7060652209
 20
38.4661986067
 10
142.6548971631
 20
38.5896964434
 10
142.6026329764
 20
38.7168546228
 10
142.5491513687
 20
38.8480886089
 10
142.4944612232
 20
38.9834606409
 10
142.4386218474
 20
39.1229201288
 10
142.3815941141
 20
39.2667134887
 10
142.3233894332
 20
39.4149117222
 10
142.2640749609
 20
39.567454827
 10
142.2036989459
 20
39.7243917487
 10
142.1423338261
 20
39.8856442289
 10
142.07999285
 20
40.0512995281
 10
142.016640315
 20
40.2216536477
 10
141.9523419251
 20
40.3966606197
 10
141.8871318846
 20
40.5763738707
 10
141.8209368749
 20
40.761237526
 10
141.7538292423
 20
40.9512103966
 10
141.6858564799
 20
41.1463392886
 10
141.6169220968
 20
41.347199173
 10
141.5471168723
 20
41.5537272545
 10
141.4764960129
 20
41.7659889931
 10
141.4049295706
 20
41.9847500424
 10
141.3325076084
 20
42.2099990138
 10
141.2593227749
 20
42.4417454673
 10
141.1852743405
 20
42.6807835174
 10
141.1104735956
 20
42.9271003642
 10
141.035035301
 20
43.1806988351
 10
140.9588936423
 20
43.4423917541
 10
140.8821905706
 20
43.7121528434
 10
140.8050638537
 20
43.9899867603
 10
140.7274767791
 20
44.2767462928
 10
140.6495393355
 20
44.572702267
 10
140.5714920677
 20
44.877545846
 10
140.4935194798
 20
45.1912547072
  0
LINE
  5
33A
100
AcDbEntity
  8
0
100
AcDbLine
 62
7
  6
CONTINUOUS
 10
158.4613364344
 20
51.4640115238
 11
158.5138665309
 21
51.4114815116
  0
LINE
  5
33B
100
AcDbEntity
  8
0
100
AcDbLine
 62
7
  6
CONTINUOUS
 10
157.421889466
 20
52.5034584921
 11
157.3693593695
 21
52.5559885043
  0
LINE
  5
33C
100
AcDbEntity
  8
0
100
AcDbLine
 62
7
  6
CONTINUOUS
 10
157.3416129502
 20
52.5837348661
 11
157.2851169098
 21
52.640230886
  0
LINE
  5
33D
100
AcDbEntity
  8
0
100
AcDbLine
 62
7
  6
CONTINUOUS
 10
158.5416129502
 20
51.3837351498
 11
158.5981089906
 21
51.3272391298
  0
LWPOLYLINE
  5
33E
100
AcDbEntity
  8
0
100
AcDbPolyline
 62
253
  6
CONTINUOUS
 90
53
 70
0
 10
143.7501199115
 20
48.0021706217
 10
143.6752342043
 20
48.1981139594
 10
143.6042890216
 20
48.3909088862
 10
143.5371447196
 20
48.5805197941
 10
143.4739221931
 20
48.7660712467
 10
143.4142110864
 20
48.9483739646
 10
143.3571686802
 20
49.1299245182
 10
143.3025097404
 20
49.3115999611
 10
143.2504605885
 20
49.4924657914
 10
143.2010290234
 20
49.672302087
 10
143.1539802314
 20
49.8518499442
 10
143.109476269
 20
50.0303142886
 10
143.0680299227
 20
50.2051752777
 10
143.029557611
 20
50.3763194288
 10
142.9938921415
 20
50.5438196505
 10
142.9612717984
 20
50.7054499676
 10
142.9316480335
 20
50.8604783739
 10
142.9046997143
 20
51.0096271531
 10
142.8801974131
 20
51.1528669323
 10
142.858025553
 20
51.2898714637
 10
142.837982588
 20
51.4209750519
 10
142.8197451553
 20
51.54714497
 10
142.8031845979
 20
51.6684404857
 10
142.7882048194
 20
51.7848161083
 10
142.7745798515
 20
51.8970814878
 10
142.7622186138
 20
52.0052915468
 10
142.751044938
 20
52.1094049479
 10
142.7408906459
 20
52.2100855646
 10
142.7316684394
 20
52.3074460453
 10
142.7233405002
 20
52.4013869444
 10
142.7158352218
 20
52.4922520079
 10
142.7091182799
 20
52.5800820972
 10
142.7031215538
 20
52.6648465355
 10
142.697735122
 20
52.7467814069
 10
142.6928715604
 20
52.8259205279
 10
142.6885325688
 20
52.9022433756
 10
142.6847501417
 20
52.9759026971
 10
142.6814787147
 20
53.0468997452
 10
142.6786908194
 20
53.1152404835
 10
142.6764521396
 20
53.1810790881
 10
142.6747363924
 20
53.2444044468
 10
142.6735086696
 20
53.3052293507
 10
142.6728281141
 20
53.3637385588
 10
142.6727333282
 20
53.4198828317
 10
142.6731355771
 20
53.4737090291
 10
142.6739101313
 20
53.5255452855
 10
142.6750467792
 20
53.5753768864
 10
142.6765173468
 20
53.6232209917
 10
142.6781777949
 20
53.6694564088
 10
142.6799828164
 20
53.7142107711
 10
142.6819502478
 20
53.7573623614
 10
142.684034732
 20
53.798917851
 10
142.6862271474
 20
53.8388850746
  0
LWPOLYLINE
  5
33F
100
AcDbEntity
  8
0
100
AcDbPolyline
 62
253
  6
CONTINUOUS
 90
13
 70
0
 10
139.7171048878
 20
44.9611856162
 10
139.4770985105
 20
45.8741907537
 10
139.2600358687
 20
46.7637335742
 10
139.0645440165
 20
47.6291871766
 10
138.8895507953
 20
48.4685046959
 10
138.7334239513
 20
49.2826427283
 10
138.5942058566
 20
50.0755994276
 10
138.4707547906
 20
50.8477298899
 10
138.3621639283
 20
51.5979526259
 10
138.2671703617
 20
52.3282182732
 10
138.1848153241
 20
53.0390141321
 10
138.1143368504
 20
53.7293472865
 10
138.0548966481
 20
54.399003666
  0
LWPOLYLINE
  5
340
100
AcDbEntity
  8
0
100
AcDbPolyline
 62
253
  6
CONTINUOUS
 90
13
 70
0
 10
140.4935194798
 20
45.1912547072
 10
140.2823887475
 20
46.0982797033
 10
140.0923045176
 20
46.979061963
 10
139.9220499863
 20
47.8339011182
 10
139.7708490116
 20
48.6624415214
 10
139.6369359179
 20
49.4656386095
 10
139.5177025675
 20
50.245979868
 10
139.4114690255
 20
51.0047343665
 10
139.3176218743
 20
51.7417955317
 10
139.2352748437
 20
52.4577370486
 10
139.1633729107
 20
53.1530579341
 10
139.1006895412
 20
53.8282375695
 10
139.0461031142
 20
54.4837595922
  0
LWPOLYLINE
  5
341
100
AcDbEntity
  8
0
100
AcDbPolyline
 62
253
  6
CONTINUOUS
 90
10
 70
0
 10
175.3897064206
 20
45.1912547072
 10
175.0272904105
 20
45.497559289
 10
174.6649668914
 20
45.8057131855
 10
174.3027358632
 20
46.1155874623
 10
173.9405301267
 20
46.4271113239
 10
173.5784168812
 20
46.7400988323
 10
173.2165977243
 20
47.0542461622
 10
172.8551398553
 20
47.3693643503
 10
172.4939760749
 20
47.6853820397
 10
172.1331063831
 20
48.0021702751
  0
LINE
  5
342
100
AcDbEntity
  8
0
100
AcDbLine
 62
7
  6
CONTINUOUS
 10
157.6587535465
 20
50.8411406433
 11
157.6723488111
 21
50.8210319412
  0
LWPOLYLINE
  5
343
100
AcDbEntity
  8
0
100
AcDbPolyline
 62
7
  6
CONTINUOUS
 90
7
 70
0
 10
142.7416485508
 20
54.483724606
 10
142.8121631781
 20
54.1325757148
 10
142.8906781112
 20
53.7835555751
 10
142.97719335
 20
53.4366641869
 10
143.0717088946
 20
53.0919015503
 10
143.174224745
 20
52.7492676652
 10
143.2847409012
 20
52.4087625316
  0
LINE
  5
344
100
AcDbEntity
  8
0
100
AcDbLine
 62
253
  6
CONTINUOUS
 10
142.8042656562
 20
53.7144409791
 11
142.7952939313
 21
53.7985866813
  0
LINE
  5
345
100
AcDbEntity
  8
0
100
AcDbLine
 62
253
  6
CONTINUOUS
 10
142.7952939313
 20
53.7985866813
 11
142.7873793593
 21
53.8765528178
  0
LINE
  5
346
100
AcDbEntity
  8
0
100
AcDbLine
 62
253
  6
CONTINUOUS
 10
142.7873793593
 20
53.8765528178
 11
142.7804870112
 21
53.9482123529
  0
LINE
  5
347
100
AcDbEntity
  8
0
100
AcDbLine
 62
253
  6
CONTINUOUS
 10
142.7804870112
 20
53.9482123529
 11
142.7745128844
 21
54.0137833331
  0
LINE
  5
348
100
AcDbEntity
  8
0
100
AcDbLine
 62
253
  6
CONTINUOUS
 10
142.7745128844
 20
54.0137833331
 11
142.7693061885
 21
54.0740575719
  0
LINE
  5
349
100
AcDbEntity
  8
0
100
AcDbLine
 62
253
  6
CONTINUOUS
 10
142.7693061885
 20
54.0740575719
 11
142.762676643
 21
54.1560467795
  0
LWPOLYLINE
  5
34A
100
AcDbEntity
  8
0
100
AcDbPolyline
 62
253
  6
CONTINUOUS
 90
5
 70
0
 10
142.7456871048
 20
54.4152266349
 10
142.7443309193
 20
54.4326683789
 10
142.7428407711
 20
54.4497193995
 10
142.7418159791
 20
54.4666864405
 10
142.7416462108
 20
54.4837350079
  0
LINE
  5
34B
100
AcDbEntity
  8
0
100
AcDbLine
 62
253
  6
CONTINUOUS
 10
142.762676643
 20
54.1560467795
 11
142.7571752046
 21
54.2297263156
  0
LINE
  5
34C
100
AcDbEntity
  8
0
100
AcDbLine
 62
253
  6
CONTINUOUS
 10
142.7571752046
 20
54.2297263156
 11
142.7525374411
 21
54.2970017556
  0
LINE
  5
34D
100
AcDbEntity
  8
0
100
AcDbLine
 62
253
  6
CONTINUOUS
 10
142.7525374411
 20
54.2970017556
 11
142.7498441371
 21
54.3388040643
  0
LINE
  5
34E
100
AcDbEntity
  8
0
100
AcDbLine
 62
7
  6
CONTINUOUS
 10
137.5416129502
 20
84.9837350079
 11
137.5416129502
 21
58.6837350079
  0
LINE
  5
34F
100
AcDbEntity
  8
0
100
AcDbLine
 62
253
  6
CONTINUOUS
 10
137.8802959248
 20
58.6837350079
 11
137.8802959248
 21
84.9837350079
  0
LINE
  5
350
100
AcDbEntity
  8
0
100
AcDbLine
 62
253
  6
CONTINUOUS
 10
138.8746512085
 20
58.6837350079
 11
138.8746512085
 21
85.4837350079
  0
LWPOLYLINE
  5
351
100
AcDbEntity
  8
0
100
AcDbPolyline
 62
253
  6
CONTINUOUS
 90
13
 70
0
 10
137.8802959248
 20
84.9837350079
 10
137.8821878358
 20
85.0273128793
 10
137.8878491703
 20
85.0705590967
 10
137.8972368421
 20
85.1131445305
 10
137.9102794053
 20
85.1547450796
 10
137.9268775983
 20
85.1950441388
 10
137.9469050986
 20
85.2337350079
 10
137.9702094849
 20
85.2705232261
 10
137.9966133968
 20
85.3051288128
 10
138.0259158846
 20
85.3372883985
 10
138.0578939386
 20
85.3667572295
 10
138.0923041866
 20
85.3933110301
 10
138.1288847457
 20
85.4167477098
  0
LINE
  5
352
100
AcDbEntity
  8
0
100
AcDbLine
 62
7
  6
CONTINUOUS
 10
158.2244723539
 20
53.1263293726
 11
158.2108770826
 21
53.1464380846
  0
LINE
  5
353
100
AcDbEntity
  8
0
100
AcDbLine
 62
7
  6
CONTINUOUS
 10
158.2492739226
 20
53.0784490724
 11
158.2244723539
 21
53.1263293726
  0
LINE
  5
354
100
AcDbEntity
  8
0
100
AcDbLine
 62
7
  6
CONTINUOUS
 10
157.5602797236
 20
51.0320130256
 11
157.6587535465
 21
50.8411406433
  0
LINE
  5
355
100
AcDbEntity
  8
0
100
AcDbLine
 62
7
  6
CONTINUOUS
 10
157.4877345151
 20
51.174299569
 11
157.5602797236
 21
51.0320130256
  0
LINE
  5
356
100
AcDbEntity
  8
0
100
AcDbLine
 62
7
  6
CONTINUOUS
 10
157.3416129502
 20
51.2151123607
 11
157.3230253453
 21
51.2518038816
  0
LWPOLYLINE
  5
357
100
AcDbEntity
  8
0
100
AcDbPolyline
 62
7
  6
CONTINUOUS
 90
3
 70
0
 10
157.3230253453
 20
51.2518038816
 10
157.2946511112
 20
51.3080892633
 10
157.285116734
 20
51.3272387863
  0
LINE
  5
358
100
AcDbEntity
  8
0
100
AcDbLine
 62
7
  6
CONTINUOUS
 10
157.440004223
 20
51.269031583
 11
157.4877345151
 21
51.174299569
  0
LINE
  5
359
100
AcDbEntity
  8
0
100
AcDbLine
 62
7
  6
CONTINUOUS
 10
157.3927958853
 20
51.3638847896
 11
157.440004223
 21
51.269031583
  0
LINE
  5
35A
100
AcDbEntity
  8
0
100
AcDbLine
 62
7
  6
CONTINUOUS
 10
157.3693593525
 20
51.4114814062
 11
157.3927958853
 21
51.3638847896
  0
LINE
  5
35B
100
AcDbEntity
  8
TRASH
100
AcDbLine
 62
7
  6
CONTINUOUS
 10
157.7027882092
 20
50.8616283546
 11
157.678777539
 21
50.912819907
  0
LINE
  5
35C
100
AcDbEntity
  8
TRASH
100
AcDbLine
 62
7
  6
CONTINUOUS
 10
157.4372253776
 20
51.4312782384
 11
157.4218894663
 21
51.4640115241
  0
LINE
  5
35D
100
AcDbEntity
  8
TRASH
100
AcDbLine
 62
7
  6
CONTINUOUS
 10
157.6126172229
 20
51.0550535337
 11
157.592179803
 21
51.0987246216
  0
LWPOLYLINE
  5
35E
100
AcDbEntity
  8
TRASH
100
AcDbPolyline
 62
7
  6
CONTINUOUS
 90
3
 70
0
 10
157.501192779
 20
51.2940776915
 10
157.4684821864
 20
51.3640549286
 10
157.4372253776
 20
51.4312782384
  0
LINE
  5
35F
100
AcDbEntity
  8
0
100
AcDbLine
 62
7
  6
CONTINUOUS
 10
156.8195066632
 20
52.2225573805
 11
156.7534511454
 21
52.3643141025
  0
LINE
  5
360
100
AcDbEntity
  8
0
100
AcDbLine
 62
253
  6
CONTINUOUS
 10
142.8872178722
 20
53.0568148753
 11
142.8691589637
 21
53.1884287514
  0
LINE
  5
361
100
AcDbEntity
  8
0
100
AcDbLine
 62
253
  6
CONTINUOUS
 10
142.8691589637
 20
53.1884287514
 11
142.8529293037
 21
53.3104182414
  0
LINE
  5
362
100
AcDbEntity
  8
0
100
AcDbLine
 62
253
  6
CONTINUOUS
 10
142.8529293037
 20
53.3104182414
 11
142.8385688616
 21
53.4233157578
  0
LINE
  5
363
100
AcDbEntity
  8
0
100
AcDbLine
 62
253
  6
CONTINUOUS
 10
142.8385688616
 20
53.4233157578
 11
142.8199849861
 21
53.5768669329
  0
LWPOLYLINE
  5
364
100
AcDbEntity
  8
0
100
AcDbPolyline
 62
253
  6
CONTINUOUS
 90
3
 70
0
 10
142.8199849861
 20
53.5768669329
 10
142.8091868827
 20
53.6700481994
 10
142.8042656562
 20
53.7144409791
  0
LWPOLYLINE
  5
365
100
AcDbEntity
  8
0
100
AcDbPolyline
 62
253
  6
CONTINUOUS
 90
8
 70
0
 10
147.9110939236
 20
31.2707832277
 10
147.909980845
 20
31.2862090067
 10
147.9096561669
 20
31.3107377148
 10
147.9101229421
 20
31.3441403367
 10
147.9113768348
 20
31.3861050052
 10
147.9134061614
 20
31.4362399129
 10
147.9161919996
 20
31.4940769708
 10
147.9197083654
 20
31.5590761778
  0
LWPOLYLINE
  5
366
100
AcDbEntity
  8
0
100
AcDbPolyline
 62
253
  6
CONTINUOUS
 90
3
 70
0
 10
142.7498441371
 20
54.3388040643
 10
142.7474382126
 20
54.378222739
 10
142.7456871048
 20
54.4152266349
  0
LINE
  5
367
100
AcDbEntity
  8
0
100
AcDbLine
 62
253
  6
CONTINUOUS
 10
144.9416129502
 20
85.5837350079
 11
144.9416129502
 21
85.4837350079
  0
LWPOLYLINE
  5
368
100
AcDbEntity
  8
0
100
AcDbPolyline
 62
7
  6
CONTINUOUS
 90
10
 70
0
 10
164.8147091811
 20
77.4869023853
 10
164.8301002636
 20
77.4899845269
 10
164.8456266997
 20
77.4948335306
 10
164.8612884892
 20
77.5014493966
 10
164.8770794009
 20
77.5100701669
 10
164.8930056661
 20
77.5204577995
 10
164.9090859789
 20
77.5318981676
 10
164.9253023424
 20
77.5443446167
 10
164.9416727536
 20
77.5578438014
 10
164.9751239567
 20
77.5860382507
  0
LWPOLYLINE
  5
369
100
AcDbEntity
  8
0
100
AcDbPolyline
 62
7
  6
CONTINUOUS
 90
10
 70
0
 10
163.4721510019
 20
78.9144876496
 10
163.5463432968
 20
78.9267930591
 10
163.6200763093
 20
78.9366782841
 10
163.6933500392
 20
78.9441433247
 10
163.766059403
 20
78.9491910843
 10
163.8383094843
 20
78.9518186594
 10
163.9104155335
 20
78.95201734
 10
163.9824826342
 20
78.9497842227
 10
164.0544057027
 20
78.9451222109
 10
164.1261847391
 20
78.9380313046
  0
LINE
  5
36A
100
AcDbEntity
  8
0
100
AcDbLine
 62
7
  6
CONTINUOUS
 10
151.3311979502
 20
75.5963320079
 11
152.0669149502
 21
75.5963320079
  0
LINE
  5
36B
100
AcDbEntity
  8
0
100
AcDbLine
 62
7
  6
CONTINUOUS
 10
153.6623349502
 20
75.5963320079
 11
154.4971899502
 21
75.5963320079
  0
LINE
  5
36C
100
AcDbEntity
  8
0
100
AcDbLine
 62
7
  6
CONTINUOUS
 10
154.9466189502
 20
75.5963320079
 11
155.7453029502
 21
75.5963320079
  0
LINE
  5
36D
100
AcDbEntity
  8
0
100
AcDbLine
 62
7
  6
CONTINUOUS
 10
156.9048509502
 20
75.5963320079
 11
157.0219389502
 21
75.5963320079
  0
LINE
  5
36E
100
AcDbEntity
  8
0
100
AcDbLine
 62
7
  6
CONTINUOUS
 10
158.1861059502
 20
75.5963320079
 11
159.0028159502
 21
75.5963320079
  0
LINE
  5
36F
100
AcDbEntity
  8
0
100
AcDbLine
 62
7
  6
CONTINUOUS
 10
159.1339099502
 20
75.5963320079
 11
159.9597079502
 21
75.5963320079
  0
LINE
  5
370
100
AcDbEntity
  8
0
100
AcDbLine
 62
7
  6
CONTINUOUS
 10
161.5432809502
 20
75.5963320079
 11
162.4231839502
 21
75.5963320079
  0
LINE
  5
371
100
AcDbEntity
  8
0
100
AcDbLine
 62
7
  6
CONTINUOUS
 10
162.6683376304
 20
75.596331896
 11
163.4998335414
 21
75.596331896
  0
LINE
  5
372
100
AcDbEntity
  8
0
100
AcDbLine
 62
7
  6
CONTINUOUS
 10
164.7782989936
 20
75.596331896
 11
165.5813325753
 21
75.596331896
  0
LINE
  5
373
100
AcDbEntity
  8
0
100
AcDbLine
 62
7
  6
CONTINUOUS
 10
160.1900759502
 20
76.3947770079
 11
161.3270089502
 21
76.3947770079
  0
LINE
  5
374
100
AcDbEntity
  8
0
100
AcDbLine
 62
7
  6
CONTINUOUS
 10
161.1601639502
 20
77.0126100079
 11
160.3608499502
 21
77.0126100079
  0
LINE
  5
375
100
AcDbEntity
  8
0
100
AcDbLine
 62
7
  6
CONTINUOUS
 10
163.4998335414
 20
77.1615200762
 11
163.9474629048
 21
77.1615200762
  0
LINE
  5
376
100
AcDbEntity
  8
0
100
AcDbLine
 62
7
  6
CONTINUOUS
 10
163.9492624199
 20
77.8165435467
 11
163.4721510019
 21
77.8165435467
  0
LWPOLYLINE
  5
377
100
AcDbEntity
  8
0
100
AcDbPolyline
 62
7
  6
CONTINUOUS
 90
16
 70
0
 10
163.9474629048
 20
77.1615200762
 10
163.9888128811
 20
77.1595625907
 10
164.0284076708
 20
77.1547840264
 10
164.0662472737
 20
77.1471843834
 10
164.1021397244
 20
77.136843005
 10
164.1362769883
 20
77.1236805478
 10
164.1692349625
 20
77.1074589816
 10
164.2010732167
 20
77.0883424225
 10
164.2317321813
 20
77.0661667544
 10
164.2616090442
 20
77.040201599
 10
164.2912807603
 20
77.0099907423
 10
164.3201703748
 20
76.9759903983
 10
164.3469442115
 20
76.9388388307
 10
164.3711577116
 20
76.898748794
 10
164.3932554338
 20
76.8555075336
 10
164.4132373781
 20
76.8091150497
  0
LINE
  5
378
100
AcDbEntity
  8
0
100
AcDbLine
 62
7
  6
CONTINUOUS
 10
158.3351163896
 20
52.9117038998
 11
158.2492739226
 21
53.0784490724
  0
LINE
  5
379
100
AcDbEntity
  8
0
100
AcDbLine
 62
7
  6
CONTINUOUS
 10
158.3954913853
 20
52.7931704469
 11
158.3351163896
 21
52.9117038998
  0
LINE
  5
37A
100
AcDbEntity
  8
0
100
AcDbLine
 62
7
  6
CONTINUOUS
 10
158.5416129502
 20
52.7523576552
 11
158.5602005551
 21
52.7156661342
  0
LINE
  5
37B
100
AcDbEntity
  8
0
100
AcDbLine
 62
7
  6
CONTINUOUS
 10
158.4432216774
 20
52.6984384329
 11
158.3954913853
 21
52.7931704469
  0
LWPOLYLINE
  5
37C
100
AcDbEntity
  8
0
100
AcDbPolyline
 62
7
  6
CONTINUOUS
 90
3
 70
0
 10
158.5602005551
 20
52.7156661342
 10
158.5885747892
 20
52.6593807526
 10
158.5981091664
 20
52.6402312295
  0
LINE
  5
37D
100
AcDbEntity
  8
0
100
AcDbLine
 62
7
  6
CONTINUOUS
 10
158.4904300151
 20
52.6035852263
 11
158.4432216774
 21
52.6984384329
  0
LINE
  5
37E
100
AcDbEntity
  8
0
100
AcDbLine
 62
7
  6
CONTINUOUS
 10
158.5138665479
 20
52.5559886097
 11
158.4904300151
 21
52.6035852263
  0
LINE
  5
37F
100
AcDbEntity
  8
TRASH
100
AcDbLine
 62
7
  6
CONTINUOUS
 10
157.7134647321
 20
50.8387377378
 11
157.7027905776
 21
50.8616287209
  0
LINE
  5
380
100
AcDbEntity
  8
0
100
AcDbLine
 62
7
  6
CONTINUOUS
 10
159.0637192372
 20
51.7449126354
 11
159.129774755
 21
51.6031559133
  0
LWPOLYLINE
  5
381
100
AcDbEntity
  8
TRASH
100
AcDbPolyline
 62
7
  6
CONTINUOUS
 90
3
 70
0
 10
158.1697611683
 20
53.128732278
 10
158.2274117596
 20
53.0053462866
 10
158.414743714
 20
52.6034150873
  0
LINE
  5
382
100
AcDbEntity
  8
TRASH
100
AcDbLine
 62
7
  6
CONTINUOUS
 10
157.535693902
 20
51.2199740077
 11
157.501192779
 21
51.2940776915
  0
LWPOLYLINE
  5
383
100
AcDbEntity
  8
TRASH
100
AcDbPolyline
 62
7
  6
CONTINUOUS
 90
3
 70
0
 10
157.592179803
 20
51.0987246216
 10
157.5538550017
 20
51.1811529545
 10
157.535693902
 20
51.2199740077
  0
LINE
  5
384
100
AcDbEntity
  8
TRASH
100
AcDbLine
 62
7
  6
CONTINUOUS
 10
158.414743714
 20
52.6034150873
 11
158.4613364341
 21
52.5034584918
  0
LINE
  5
385
100
AcDbEntity
  8
TRASH
100
AcDbLine
 62
7
  6
CONTINUOUS
 10
157.678777539
 20
50.912819907
 11
157.6126172229
 21
51.0550535337
  0
LINE
  5
386
100
AcDbEntity
  8
0
100
AcDbLine
 62
7
  6
CONTINUOUS
 10
156.7966156801
 20
52.2118832261
 11
156.7358947128
 21
52.3521619788
  0
LINE
  5
387
100
AcDbEntity
  8
0
100
AcDbLine
 62
7
  6
CONTINUOUS
 10
159.0866102203
 20
51.7555867898
 11
159.1473311854
 21
51.6153080356
  0
LINE
  5
388
100
AcDbEntity
  8
0
100
AcDbLine
 62
253
  6
CONTINUOUS
 10
142.6862271474
 20
53.8388850746
 11
142.6908311442
 21
53.9140448596
  0
LINE
  5
389
100
AcDbEntity
  8
0
100
AcDbLine
 62
253
  6
CONTINUOUS
 10
142.6908311442
 20
53.9140448596
 11
142.6955047362
 21
53.9826725644
  0
LINE
  5
38A
100
AcDbEntity
  8
0
100
AcDbLine
 62
253
  6
CONTINUOUS
 10
142.6955047362
 20
53.9826725644
 11
142.7001808476
 21
54.0456744433
  0
LINE
  5
38B
100
AcDbEntity
  8
0
100
AcDbLine
 62
253
  6
CONTINUOUS
 10
142.7001808476
 20
54.0456744433
 11
142.7047957046
 21
54.103559695
  0
LINE
  5
38C
100
AcDbEntity
  8
0
100
AcDbLine
 62
253
  6
CONTINUOUS
 10
142.7047957046
 20
54.103559695
 11
142.7115387854
 21
54.1824765049
  0
LINE
  5
38D
100
AcDbEntity
  8
0
100
AcDbLine
 62
253
  6
CONTINUOUS
 10
142.7115387854
 20
54.1824765049
 11
142.7180496276
 21
54.2536559675
  0
LINE
  5
38E
100
AcDbEntity
  8
0
100
AcDbLine
 62
253
  6
CONTINUOUS
 10
142.7180496276
 20
54.2536559675
 11
142.7243537975
 21
54.3188691532
  0
LINE
  5
38F
100
AcDbEntity
  8
0
100
AcDbLine
 62
253
  6
CONTINUOUS
 10
142.7243537975
 20
54.3188691532
 11
142.7323448198
 21
54.3972977266
  0
LWPOLYLINE
  5
390
100
AcDbEntity
  8
0
100
AcDbPolyline
 62
253
  6
CONTINUOUS
 90
3
 70
0
 10
142.7323448198
 20
54.3972977266
 10
142.7398237386
 20
54.4671604328
 10
142.7416455397
 20
54.483724606
  0
LINE
  5
391
100
AcDbEntity
  8
0
100
AcDbLine
 62
7
  6
CONTINUOUS
 10
161.1960339502
 20
79.5958440079
 11
160.3884119502
 21
79.5958440079
  0
LINE
  5
392
100
AcDbEntity
  8
0
100
AcDbLine
 62
7
  6
CONTINUOUS
 10
158.6288159502
 20
79.5958440079
 11
157.8028089502
 21
79.5958440079
  0
LINE
  5
393
100
AcDbEntity
  8
0
100
AcDbLine
 62
7
  6
CONTINUOUS
 10
156.1419169502
 20
79.5958440079
 11
155.3077509502
 21
79.5958440079
  0
LINE
  5
394
100
AcDbEntity
  8
0
100
AcDbLine
 62
7
  6
CONTINUOUS
 10
153.3525179502
 20
79.5958440079
 11
152.5182329502
 21
79.5958440079
  0
LINE
  5
395
100
AcDbEntity
  8
0
100
AcDbLine
 62
7
  6
CONTINUOUS
 10
150.9701849502
 20
79.5958440079
 11
150.0632749502
 21
79.5958440079
  0
LINE
  5
396
100
AcDbEntity
  8
0
100
AcDbLine
 62
7
  6
CONTINUOUS
 10
154.4971899502
 20
79.5960840079
 11
153.6623349502
 21
79.5960840079
  0
LWPOLYLINE
  5
397
100
AcDbEntity
  8
0
100
AcDbPolyline
 62
7
  6
CONTINUOUS
 90
19
 70
0
 10
164.1261847391
 20
78.9380313046
 10
164.172308246
 20
78.9305606898
 10
164.216634605
 20
78.9200904039
 10
164.2591638162
 20
78.9066204468
 10
164.3002773008
 20
78.8898308595
 10
164.3395936375
 20
78.870041601
 10
164.3759685627
 20
78.8482125485
 10
164.4088452147
 20
78.8247282109
 10
164.4387804551
 20
78.7992040793
 10
164.4663006049
 20
78.7714465035
 10
164.4916081939
 20
78.7413763752
 10
164.5145006922
 20
78.7090728027
 10
164.5348968315
 20
78.674579461
 10
164.553025446
 20
78.637305559
 10
164.5686577015
 20
78.5978418877
 10
164.5810258262
 20
78.5580044959
 10
164.5898738963
 20
78.5183987331
 10
164.5954578357
 20
78.4784192497
 10
164.5977776443
 20
78.4380660457
  0
LWPOLYLINE
  5
398
100
AcDbEntity
  8
0
100
AcDbPolyline
 62
7
  6
CONTINUOUS
 90
16
 70
0
 10
164.7286323788
 20
79.5070079648
 10
164.6293356416
 20
79.5392217952
 10
164.5242819167
 20
79.5669857462
 10
164.4134712043
 20
79.5902998178
 10
164.296680293
 20
79.6089953971
 10
164.1741323941
 20
79.6232410969
 10
164.0464971414
 20
79.6335427559
 10
163.9140376578
 20
79.6401132975
 10
163.7764908203
 20
79.6427397982
 10
163.6337368936
 20
79.6412893258
 10
163.4857095716
 20
79.6356282205
 10
163.3324751603
 20
79.6258901422
 10
163.1741128423
 20
79.6123431379
 10
163.0106490117
 20
79.5950765567
 10
162.8420572744
 20
79.5740010495
 10
162.6683376304
 20
79.5491166164
  0
LINE
  5
399
100
AcDbEntity
  8
0
100
AcDbLine
 62
7
  6
CONTINUOUS
 10
150.0632749502
 20
79.5958440079
 11
151.3311979502
 21
75.5963320079
  0
LINE
  5
39A
100
AcDbEntity
  8
0
100
AcDbLine
 62
7
  6
CONTINUOUS
 10
151.7325649502
 20
76.8428560079
 11
150.9701849502
 21
79.5958440079
  0
LINE
  5
39B
100
AcDbEntity
  8
0
100
AcDbLine
 62
7
  6
CONTINUOUS
 10
150.0632749502
 20
85.5837350079
 11
150.0632749502
 21
85.6337350079
  0
LINE
  5
39C
100
AcDbEntity
  8
0
100
AcDbLine
 62
7
  6
CONTINUOUS
 10
151.3311979502
 20
85.5837350079
 11
151.3311979502
 21
85.6337350079
  0
LINE
  5
39D
100
AcDbEntity
  8
0
100
AcDbLine
 62
7
  6
CONTINUOUS
 10
151.8916129502
 20
29.762443789
 11
151.8916129502
 21
30.4938083474
  0
LINE
  5
39E
100
AcDbEntity
  8
0
100
AcDbLine
 62
7
  6
CONTINUOUS
 10
152.0669149502
 20
85.5837350079
 11
152.0669149502
 21
85.6337350079
  0
LINE
  5
39F
100
AcDbEntity
  8
0
100
AcDbLine
 62
7
  6
CONTINUOUS
 10
152.6416129502
 20
28.2848328847
 11
152.6416129502
 21
28.8337350079
  0
LINE
  5
3A0
100
AcDbEntity
  8
0
100
AcDbLine
 62
7
  6
CONTINUOUS
 10
153.3525179502
 20
85.5837350079
 11
153.3525179502
 21
85.6337350079
  0
LINE
  5
3A1
100
AcDbEntity
  8
0
100
AcDbLine
 62
7
  6
CONTINUOUS
 10
153.6623349502
 20
79.5960840079
 11
153.6623349502
 21
75.5963320079
  0
LINE
  5
3A2
100
AcDbEntity
  8
0
100
AcDbLine
 62
7
  6
CONTINUOUS
 10
153.6623349502
 20
85.5837350079
 11
153.6623349502
 21
85.6337350079
  0
LINE
  5
3A3
100
AcDbEntity
  8
0
100
AcDbLine
 62
253
  6
CONTINUOUS
 10
147.9197083654
 20
31.5590761778
 11
147.9287949556
 21
31.7080723523
  0
LWPOLYLINE
  5
3A4
100
AcDbEntity
  8
0
100
AcDbPolyline
 62
253
  6
CONTINUOUS
 90
3
 70
0
 10
147.9287949556
 20
31.7080723523
 10
147.9403276185
 20
31.877676962
 10
147.9468801758
 20
31.9682563544
  0
LINE
  5
3A5
100
AcDbEntity
  8
0
100
AcDbLine
 62
253
  6
CONTINUOUS
 10
147.9110591808
 20
31.2707868913
 11
147.8804231433
 21
30.906260291
  0
LINE
  5
3A6
100
AcDbEntity
  8
0
100
AcDbLine
 62
253
  6
CONTINUOUS
 10
178.3416129502
 20
84.9837350079
 11
137.5416129502
 21
84.9837350079
  0
LINE
  5
3A7
100
AcDbEntity
  8
0
100
AcDbLine
 62
7
  6
CONTINUOUS
 10
177.8416129502
 20
85.4837350079
 11
138.0416129502
 21
85.4837350079
  0
LINE
  5
3A8
100
AcDbEntity
  8
0
100
AcDbLine
 62
7
  6
CONTINUOUS
 10
141.8743476077
 20
85.5837350079
 11
174.0088782927
 21
85.5837350079
  0
LINE
  5
3A9
100
AcDbEntity
  8
0
100
AcDbLine
 62
7
  6
CONTINUOUS
 10
150.0632749502
 20
85.6337350079
 11
153.3525179502
 21
85.6337350079
  0
LINE
  5
3AA
100
AcDbEntity
  8
0
100
AcDbLine
 62
7
  6
CONTINUOUS
 10
153.6623349502
 20
85.6337350079
 11
154.4971899502
 21
85.6337350079
  0
LINE
  5
3AB
100
AcDbEntity
  8
0
100
AcDbLine
 62
7
  6
CONTINUOUS
 10
154.9466189502
 20
85.6337350079
 11
159.0028159502
 21
85.6337350079
  0
LINE
  5
3AC
100
AcDbEntity
  8
0
100
AcDbLine
 62
7
  6
CONTINUOUS
 10
159.1339099502
 20
85.6337350079
 11
162.4231839502
 21
85.6337350079
  0
LINE
  5
3AD
100
AcDbEntity
  8
0
100
AcDbLine
 62
7
  6
CONTINUOUS
 10
162.6683376304
 20
85.6337350079
 11
165.5813325753
 21
85.6337350079
  0
LINE
  5
3AE
100
AcDbEntity
  8
0
100
AcDbLine
 62
7
  6
CONTINUOUS
 10
155.9254649502
 20
78.2079380079
 11
156.9048509502
 21
75.5963320079
  0
LINE
  5
3AF
100
AcDbEntity
  8
0
100
AcDbLine
 62
7
  6
CONTINUOUS
 10
156.9679539502
 20
77.3753020079
 11
156.1419169502
 21
79.5958440079
  0
LINE
  5
3B0
100
AcDbEntity
  8
0
100
AcDbLine
 62
7
  6
CONTINUOUS
 10
159.0028159502
 20
75.5963320079
 11
158.6288159502
 21
79.5958440079
  0
LINE
  5
3B1
100
AcDbEntity
  8
0
100
AcDbLine
 62
7
  6
CONTINUOUS
 10
158.0145819502
 20
78.1970510079
 11
158.1861059502
 21
75.5963320079
  0
LINE
  5
3B2
100
AcDbEntity
  8
0
100
AcDbLine
 62
253
  6
CONTINUOUS
 10
157.9438077589
 20
30.8588607517
 11
157.9435886435
 21
30.8721847872
  0
LINE
  5
3B3
100
AcDbEntity
  8
0
100
AcDbLine
 62
253
  6
CONTINUOUS
 10
157.9435886435
 20
30.8721847872
 11
157.9431565198
 21
30.9205780999
  0
LINE
  5
3B4
100
AcDbEntity
  8
0
100
AcDbLine
 62
253
  6
CONTINUOUS
 10
157.9431565198
 20
30.9205780999
 11
157.942185166
 21
31.157615474
  0
LINE
  5
3B5
100
AcDbEntity
  8
0
100
AcDbLine
 62
253
  6
CONTINUOUS
 10
157.942185166
 20
31.157615474
 11
157.9416129502
 21
31.441967117
  0
LINE
  5
3B6
100
AcDbEntity
  8
0
100
AcDbLine
 62
7
  6
CONTINUOUS
 10
157.7135040537
 20
50.6110105146
 11
157.713420204
 21
50.8387270836
  0
LINE
  5
3B7
100
AcDbEntity
  8
0
100
AcDbLine
 62
7
  6
CONTINUOUS
 10
158.1698056894
 20
53.1287429309
 11
158.1697218419
 21
53.356459502
  0
LINE
  5
3B8
100
AcDbEntity
  8
0
100
AcDbLine
 62
253
  6
CONTINUOUS
 10
157.9416129502
 20
39.6290961758
 11
157.941950574
 21
39.168702272
  0
LINE
  5
3B9
100
AcDbEntity
  8
0
100
AcDbLine
 62
7
  6
CONTINUOUS
 10
154.4971899502
 20
75.5963320079
 11
154.4971899502
 21
79.5960840079
  0
LINE
  5
3BA
100
AcDbEntity
  8
0
100
AcDbLine
 62
7
  6
CONTINUOUS
 10
154.4971899502
 20
85.5837350079
 11
154.4971899502
 21
85.6337350079
  0
LINE
  5
3BB
100
AcDbEntity
  8
0
100
AcDbLine
 62
7
  6
CONTINUOUS
 10
154.9466189502
 20
85.5837350079
 11
154.9466189502
 21
85.6337350079
  0
LINE
  5
3BC
100
AcDbEntity
  8
0
100
AcDbLine
 62
7
  6
CONTINUOUS
 10
155.7453029502
 20
85.5837350079
 11
155.7453029502
 21
85.6337350079
  0
LINE
  5
3BD
100
AcDbEntity
  8
0
100
AcDbLine
 62
7
  6
CONTINUOUS
 10
155.9254649502
 20
85.5837350079
 11
155.9254649502
 21
85.6337350079
  0
LINE
  5
3BE
100
AcDbEntity
  8
0
100
AcDbLine
 62
7
  6
CONTINUOUS
 10
156.9048509502
 20
85.5837350079
 11
156.9048509502
 21
85.6337350079
  0
LINE
  5
3BF
100
AcDbEntity
  8
0
100
AcDbLine
 62
7
  6
CONTINUOUS
 10
157.0219389502
 20
85.5837350079
 11
157.0219389502
 21
85.6337350079
  0
LINE
  5
3C0
100
AcDbEntity
  8
0
100
AcDbLine
 62
7
  6
CONTINUOUS
 10
157.3416129502
 20
49.3897098313
 11
157.3416129502
 21
51.4251202017
  0
LINE
  5
3C1
100
AcDbEntity
  8
0
100
AcDbLine
 62
7
  6
CONTINUOUS
 10
157.3416129502
 20
52.5423494443
 11
157.3416129502
 21
54.5777601845
  0
LINE
  5
3C2
100
AcDbEntity
  8
0
100
AcDbLine
 62
7
  6
CONTINUOUS
 10
158.0145819502
 20
85.5837350079
 11
158.0145819502
 21
85.6337350079
  0
LINE
  5
3C3
100
AcDbEntity
  8
0
100
AcDbLine
 62
7
  6
CONTINUOUS
 10
158.1861059502
 20
85.5837350079
 11
158.1861059502
 21
85.6337350079
  0
LINE
  5
3C4
100
AcDbEntity
  8
0
100
AcDbLine
 62
7
  6
CONTINUOUS
 10
158.5416129502
 20
54.5777601845
 11
158.5416129502
 21
52.5423498142
  0
LINE
  5
3C5
100
AcDbEntity
  8
0
100
AcDbLine
 62
7
  6
CONTINUOUS
 10
158.5416129502
 20
51.4251205715
 11
158.5416129502
 21
49.3897098313
  0
LINE
  5
3C6
100
AcDbEntity
  8
0
100
AcDbLine
 62
7
  6
CONTINUOUS
 10
157.7132596791
 20
53.128774591
 11
157.7135599609
 21
53.3564687903
  0
LINE
  5
3C7
100
AcDbEntity
  8
0
100
AcDbLine
 62
253
  6
CONTINUOUS
 10
157.941950574
 20
39.168702272
 11
157.9416129502
 21
31.4419671162
  0
LINE
  5
3C8
100
AcDbEntity
  8
0
100
AcDbLine
 62
7
  6
CONTINUOUS
 10
158.1699662213
 20
50.8386954248
 11
158.1696659395
 21
50.6110012256
  0
LINE
  5
3C9
100
AcDbEntity
  8
0
100
AcDbLine
 62
7
  6
CONTINUOUS
 10
155.7453029502
 20
75.5963320079
 11
155.9254649502
 21
78.2079380079
  0
LINE
  5
3CA
100
AcDbEntity
  8
0
100
AcDbLine
 62
7
  6
CONTINUOUS
 10
155.3077509502
 20
79.5958440079
 11
154.9466189502
 21
75.5963320079
  0
LINE
  5
3CB
100
AcDbEntity
  8
0
100
AcDbLine
 62
7
  6
CONTINUOUS
 10
152.5182329502
 20
79.5958440079
 11
151.7325649502
 21
76.8428560079
  0
LINE
  5
3CC
100
AcDbEntity
  8
0
100
AcDbLine
 62
7
  6
CONTINUOUS
 10
152.0669149502
 20
75.5963320079
 11
153.3525179502
 21
79.5958440079
  0
LWPOLYLINE
  5
3CD
100
AcDbEntity
  8
0
100
AcDbPolyline
 62
253
  6
CONTINUOUS
 90
7
 70
0
 10
138.1288847457
 20
85.4167477098
 10
138.1673572159
 20
85.4368889014
 10
138.2074287983
 20
85.4535813183
 10
138.2487945241
 20
85.4666979211
 10
138.2911395751
 20
85.4761388844
 10
138.33414168
 20
85.481832357
 10
138.3774735666
 20
85.4837350079
  0
LINE
  5
3CE
100
AcDbEntity
  8
0
100
AcDbLine
 62
7
  6
CONTINUOUS
 10
162.4231839502
 20
75.5963320079
 11
161.1960339502
 21
79.5958440079
  0
LINE
  5
3CF
100
AcDbEntity
  8
0
100
AcDbLine
 62
7
  6
CONTINUOUS
 10
161.3270089502
 20
76.3947770079
 11
161.5432809502
 21
75.5963320079
  0
LINE
  5
3D0
100
AcDbEntity
  8
0
100
AcDbLine
 62
7
  6
CONTINUOUS
 10
160.7765379502
 20
78.4968800079
 11
161.1601639502
 21
77.0126100079
  0
LINE
  5
3D1
100
AcDbEntity
  8
0
100
AcDbLine
 62
253
  6
CONTINUOUS
 10
167.9721668241
 20
31.2707868999
 11
168.0028027571
 21
30.906260291
  0
LINE
  5
3D2
100
AcDbEntity
  8
0
100
AcDbLine
 62
7
  6
CONTINUOUS
 10
159.0028159502
 20
85.5837350079
 11
159.0028159502
 21
85.6337350079
  0
LINE
  5
3D3
100
AcDbEntity
  8
0
100
AcDbLine
 62
7
  6
CONTINUOUS
 10
159.1339099502
 20
85.5837350079
 11
159.1339099502
 21
85.6337350079
  0
LINE
  5
3D4
100
AcDbEntity
  8
0
100
AcDbLine
 62
7
  6
CONTINUOUS
 10
159.9597079502
 20
85.5837350079
 11
159.9597079502
 21
85.6337350079
  0
LINE
  5
3D5
100
AcDbEntity
  8
0
100
AcDbLine
 62
7
  6
CONTINUOUS
 10
160.1900759502
 20
85.5837350079
 11
160.1900759502
 21
85.6337350079
  0
LINE
  5
3D6
100
AcDbEntity
  8
0
100
AcDbLine
 62
7
  6
CONTINUOUS
 10
161.3270089502
 20
85.5837350079
 11
161.3270089502
 21
85.6337350079
  0
LINE
  5
3D7
100
AcDbEntity
  8
0
100
AcDbLine
 62
7
  6
CONTINUOUS
 10
161.5432809502
 20
85.5837350079
 11
161.5432809502
 21
85.6337350079
  0
LINE
  5
3D8
100
AcDbEntity
  8
0
100
AcDbLine
 62
7
  6
CONTINUOUS
 10
162.4231839502
 20
85.5837350079
 11
162.4231839502
 21
85.6337350079
  0
LINE
  5
3D9
100
AcDbEntity
  8
0
100
AcDbLine
 62
7
  6
CONTINUOUS
 10
162.6683376304
 20
79.5491166164
 11
162.6683376304
 21
75.596331896
  0
LINE
  5
3DA
100
AcDbEntity
  8
0
100
AcDbLine
 62
7
  6
CONTINUOUS
 10
162.6683376304
 20
85.5837350079
 11
162.6683376304
 21
85.6337350079
  0
LINE
  5
3DB
100
AcDbEntity
  8
0
100
AcDbLine
 62
7
  6
CONTINUOUS
 10
157.8028089502
 20
79.5958440079
 11
156.9679539502
 21
77.3753020079
  0
LINE
  5
3DC
100
AcDbEntity
  8
0
100
AcDbLine
 62
7
  6
CONTINUOUS
 10
157.0219389502
 20
75.5963320079
 11
158.0145819502
 21
78.1970510079
  0
LWPOLYLINE
  5
3DD
100
AcDbEntity
  8
0
100
AcDbPolyline
 62
253
  6
CONTINUOUS
 90
7
 70
0
 10
177.7543410934
 20
85.4167477454
 10
177.7158686088
 20
85.436888937
 10
177.6757970216
 20
85.4535813478
 10
177.6344313008
 20
85.4666979414
 10
177.5920862646
 20
85.4761388952
 10
177.549084185
 20
85.4818323601
 10
177.5057523338
 20
85.4837350079
  0
LINE
  5
3DE
100
AcDbEntity
  8
0
100
AcDbLine
 62
7
  6
CONTINUOUS
 10
164.413142811
 20
76.8093667395
 11
164.4132373781
 21
76.8091150497
  0
LWPOLYLINE
  5
3DF
100
AcDbEntity
  8
0
100
AcDbPolyline
 62
7
  6
CONTINUOUS
 90
6
 70
0
 10
164.4132373781
 20
76.8091150497
 10
164.4549768737
 20
76.6872491686
 10
164.4959666252
 20
76.5620090005
 10
164.5362066327
 20
76.4333945454
 10
164.575089602
 20
76.3012026882
 10
164.6524281909
 20
76.0273054582
  0
LWPOLYLINE
  5
3E0
100
AcDbEntity
  8
0
100
AcDbPolyline
 62
7
  6
CONTINUOUS
 90
3
 70
0
 10
164.6524281909
 20
76.0273054582
 10
164.6933129868
 20
75.8864125458
 10
164.7782989936
 20
75.596331896
  0
LWPOLYLINE
  5
3E1
100
AcDbEntity
  8
0
100
AcDbPolyline
 62
7
  6
CONTINUOUS
 90
3
 70
0
 10
165.3944468655
 20
76.3095303985
 10
165.3621099548
 20
76.4316605863
 10
165.2959294917
 20
76.6788301616
  0
LINE
  5
3E2
100
AcDbEntity
  8
0
100
AcDbLine
 62
7
  6
CONTINUOUS
 10
165.5813325753
 20
75.596331896
 11
165.519530311
 21
75.8305332518
  0
LINE
  5
3E3
100
AcDbEntity
  8
0
100
AcDbLine
 62
7
  6
CONTINUOUS
 10
165.519530311
 20
75.8305332518
 11
165.3944468655
 21
76.3095303985
  0
LWPOLYLINE
  5
3E4
100
AcDbEntity
  8
0
100
AcDbPolyline
 62
7
  6
CONTINUOUS
 90
19
 70
0
 10
165.2959294917
 20
76.6788301616
 10
165.2793001599
 20
76.7440696265
 10
165.2614092179
 20
76.8078332803
 10
165.2422566657
 20
76.870121123
 10
165.2219377454
 20
76.931334421
 10
165.2003572149
 20
76.9910719078
 10
165.177229348
 20
77.0481297849
 10
165.1523225996
 20
77.1024365652
 10
165.1258685147
 20
77.1540637356
 10
165.0982760025
 20
77.2020219584
 10
165.0695357291
 20
77.2460457309
 10
165.0396570283
 20
77.2864005556
 10
165.0090768106
 20
77.3228936024
 10
164.9778306496
 20
77.3553531917
 10
164.9458829717
 20
77.383951003
 10
164.9135639669
 20
77.4090092441
 10
164.8809836985
 20
77.4306353177
 10
164.8480321033
 20
77.4487218212
 10
164.8147091811
 20
77.4632687546
  0
LINE
  5
3E5
100
AcDbEntity
  8
0
100
AcDbLine
 62
253
  6
CONTINUOUS
 10
167.9489476783
 20
31.7906773627
 11
167.9363458803
 21
31.9682553984
  0
LINE
  5
3E6
100
AcDbEntity
  8
0
100
AcDbLine
 62
7
  6
CONTINUOUS
 10
163.2416129502
 20
28.2848328847
 11
163.2416129502
 21
28.8337350079
  0
LINE
  5
3E7
100
AcDbEntity
  8
0
100
AcDbLine
 62
7
  6
CONTINUOUS
 10
163.4721510019
 20
77.8165435467
 11
163.4721510019
 21
78.9144876496
  0
LINE
  5
3E8
100
AcDbEntity
  8
0
100
AcDbLine
 62
7
  6
CONTINUOUS
 10
163.4998335414
 20
75.596331896
 11
163.4998335414
 21
77.1615200762
  0
LINE
  5
3E9
100
AcDbEntity
  8
0
100
AcDbLine
 62
7
  6
CONTINUOUS
 10
163.4998335414
 20
85.5837350079
 11
163.4998335414
 21
85.6337350079
  0
LINE
  5
3EA
100
AcDbEntity
  8
0
100
AcDbLine
 62
253
  6
CONTINUOUS
 10
163.9474629048
 20
85.5837350079
 11
163.9474629048
 21
85.6337350079
  0
LINE
  5
3EB
100
AcDbEntity
  8
0
100
AcDbLine
 62
7
  6
CONTINUOUS
 10
163.9916129502
 20
30.4938083474
 11
163.9916129502
 21
29.762443789
  0
LINE
  5
3EC
100
AcDbEntity
  8
0
100
AcDbLine
 62
253
  6
CONTINUOUS
 10
164.4132373781
 20
85.5837350079
 11
164.4132373781
 21
85.6337350079
  0
LINE
  5
3ED
100
AcDbEntity
  8
0
100
AcDbLine
 62
7
  6
CONTINUOUS
 10
164.7782989936
 20
85.5837350079
 11
164.7782989936
 21
85.6337350079
  0
LINE
  5
3EE
100
AcDbEntity
  8
0
100
AcDbLine
 62
7
  6
CONTINUOUS
 10
164.8147091811
 20
77.4632687546
 11
164.8147091811
 21
77.4869023853
  0
LINE
  5
3EF
100
AcDbEntity
  8
0
100
AcDbLine
 62
7
  6
CONTINUOUS
 10
165.5813325753
 20
85.5837350079
 11
165.5813325753
 21
85.6337350079
  0
LWPOLYLINE
  5
3F0
100
AcDbEntity
  8
0
100
AcDbPolyline
 62
7
  6
CONTINUOUS
 90
22
 70
0
 10
164.5977776443
 20
78.4380660457
 10
164.5972111555
 20
78.3826909529
 10
164.5935253659
 20
78.3299062726
 10
164.5867202757
 20
78.2797120048
 10
164.5767564538
 20
78.2320961221
 10
164.5636733312
 20
78.1870706519
 10
164.5475892006
 20
78.1446716763
 10
164.5283836736
 20
78.1049159395
 10
164.5061771385
 20
78.0677866973
 10
164.4814490528
 20
78.033269799
 10
164.4545573647
 20
78.0014389679
 10
164.425144126
 20
77.9722204806
 10
164.3926149498
 20
77.9453790163
 10
164.3569675624
 20
77.9208100031
 10
164.3182042375
 20
77.8986180129
 10
164.2757374086
 20
77.8788814407
 10
164.2291017868
 20
77.8614649009
 10
164.1787626611
 20
77.8465037791
 10
164.1255283315
 20
77.8344826276
 10
164.0696682314
 20
77.8255629637
 10
164.0109129276
 20
77.81958327
 10
163.9492624199
 20
77.8165435467
  0
LWPOLYLINE
  5
3F1
100
AcDbEntity
  8
0
100
AcDbPolyline
 62
7
  6
CONTINUOUS
 90
25
 70
0
 10
163.2416129502
 20
28.2848328847
 10
163.2399133793
 20
28.2325161568
 10
163.234847666
 20
28.1807256717
 10
163.2264158104
 20
28.1294614295
 10
163.2145353745
 20
28.078435354
 10
163.1992887962
 20
28.0279355213
 10
163.1809233894
 20
27.9788261597
 10
163.1594708763
 20
27.9312782906
 10
163.1348995347
 20
27.8851208926
 10
163.1073615119
 20
27.840705129
 10
163.0767360128
 20
27.7979084084
 10
163.0431438326
 20
27.7568533223
 10
163.0070995045
 20
27.7182588093
 10
162.968533528
 20
27.6821937249
 10
162.9275154035
 20
27.6485892136
 10
162.8847681654
 20
27.6179576471
 10
162.8404227772
 20
27.5904223298
 10
162.7943482754
 20
27.5658599575
 10
162.7468748036
 20
27.5444129885
 10
162.6978123254
 20
27.5260438927
 10
162.6473508773
 20
27.5107902004
 10
162.5963907123
 20
27.4989069608
 10
162.5452319147
 20
27.4904791905
 10
162.4935744003
 20
27.4854218728
 10
162.4414181689
 20
27.4837350079
  0
LINE
  5
3F2
100
AcDbEntity
  8
0
100
AcDbLine
 62
7
  6
CONTINUOUS
 10
157.7135599609
 20
53.3564687903
 11
157.6721409076
 21
53.1461305872
  0
LINE
  5
3F3
100
AcDbEntity
  8
0
100
AcDbLine
 62
7
  6
CONTINUOUS
 10
158.1696659395
 20
50.6110012256
 11
158.2110849928
 21
50.8213394287
  0
LINE
  5
3F4
100
AcDbEntity
  8
0
100
AcDbLine
 62
7
  6
CONTINUOUS
 10
160.3608499502
 20
77.0126100079
 11
160.7765379502
 21
78.4968800079
  0
LINE
  5
3F5
100
AcDbEntity
  8
0
100
AcDbLine
 62
7
  6
CONTINUOUS
 10
159.9597079502
 20
75.5963320079
 11
160.1900759502
 21
76.3947770079
  0
LINE
  5
3F6
100
AcDbEntity
  8
0
100
AcDbLine
 62
7
  6
CONTINUOUS
 10
160.3884119502
 20
79.5958440079
 11
159.1339099502
 21
75.5963320079
  0
LINE
  5
3F7
100
AcDbEntity
  8
0
100
AcDbLine
 62
253
  6
CONTINUOUS
 10
173.1415791897
 20
54.4837350079
 11
173.1492597613
 21
54.4127104056
  0
LINE
  5
3F8
100
AcDbEntity
  8
0
100
AcDbLine
 62
253
  6
CONTINUOUS
 10
173.1492597613
 20
54.4127104056
 11
173.1571706104
 21
54.3359354447
  0
LINE
  5
3F9
100
AcDbEntity
  8
0
100
AcDbLine
 62
253
  6
CONTINUOUS
 10
173.1571706104
 20
54.3359354447
 11
173.1654210999
 21
54.2510549911
  0
LINE
  5
3FA
100
AcDbEntity
  8
0
100
AcDbLine
 62
253
  6
CONTINUOUS
 10
173.1654210999
 20
54.2510549911
 11
173.1710373231
 21
54.189800959
  0
LINE
  5
3FB
100
AcDbEntity
  8
0
100
AcDbLine
 62
253
  6
CONTINUOUS
 10
173.1710373231
 20
54.189800959
 11
173.176721195
 21
54.1241441498
  0
LINE
  5
3FC
100
AcDbEntity
  8
0
100
AcDbLine
 62
253
  6
CONTINUOUS
 10
173.176721195
 20
54.1241441498
 11
173.1824269051
 21
54.0536091826
  0
LINE
  5
3FD
100
AcDbEntity
  8
0
100
AcDbLine
 62
253
  6
CONTINUOUS
 10
173.1824269051
 20
54.0536091826
 11
173.1881045693
 21
53.9773835623
  0
LWPOLYLINE
  5
3FE
100
AcDbEntity
  8
0
100
AcDbPolyline
 62
253
  6
CONTINUOUS
 90
52
 70
0
 10
173.1881045693
 20
53.9773835623
 10
173.1936457313
 20
53.8945091212
 10
173.1963289615
 20
53.8504548823
 10
173.1988965308
 20
53.8043110517
 10
173.2013369069
 20
53.7560555747
 10
173.2036226987
 20
53.7057002045
 10
173.2056735078
 20
53.6529557753
 10
173.2075268837
 20
53.597787852
 10
173.209095087
 20
53.5402201105
 10
173.2101039466
 20
53.4800557365
 10
173.2104235032
 20
53.4172711964
 10
173.2101239916
 20
53.3518927652
 10
173.2092265046
 20
53.2838021793
 10
173.2076950284
 20
53.2129704263
 10
173.2054946237
 20
53.1394270354
 10
173.2026436876
 20
53.0631387739
 10
173.1990499436
 20
52.9841070092
 10
173.1947256623
 20
52.9023308857
 10
173.1898422482
 20
52.8177658347
 10
173.1844390058
 20
52.7304446235
 10
173.1783862352
 20
52.6403193891
 10
173.1715957467
 20
52.5472182341
 10
173.16403082
 20
52.4512878341
 10
173.1556246536
 20
52.3523692151
 10
173.1462268606
 20
52.2498322745
 10
173.1357589737
 20
52.1437509683
 10
173.1241597417
 20
52.0340394122
 10
173.1112710743
 20
51.9198246833
 10
173.0970142389
 20
51.8010399574
 10
173.081272062
 20
51.6777338511
 10
173.0637888035
 20
51.5492045464
 10
173.0444357504
 20
51.4154575945
 10
173.0230882908
 20
51.2764738922
 10
172.9994533639
 20
51.1315162684
 10
172.9732353461
 20
50.9797574698
 10
172.9443806424
 20
50.8220176278
 10
172.9129789816
 20
50.6600418407
 10
172.8788264803
 20
50.4935371875
 10
172.8418539434
 20
50.3228184154
 10
172.8024836627
 20
50.1505606986
 10
172.7607845487
 20
49.9773671156
 10
172.7165900754
 20
49.8026806617
 10
172.6700840448
 20
49.6274462418
 10
172.6213679204
 20
49.4521493462
 10
172.5702986261
 20
49.2763546731
 10
172.5167076607
 20
49.0996277106
 10
172.4606980965
 20
48.922512654
 10
172.4020929067
 20
48.7445187983
 10
172.3402178543
 20
48.5636597097
 10
172.2747396549
 20
48.3792924947
 10
172.2057427043
 20
48.1921186589
 10
172.1331063831
 20
48.0021702751
  0
LINE
  5
3FF
100
AcDbEntity
  8
0
100
AcDbLine
 62
253
  6
CONTINUOUS
 10
170.9416129502
 20
85.5837350079
 11
170.9416129502
 21
85.4837350079
  0
LWPOLYLINE
  5
400
100
AcDbEntity
  8
0
100
AcDbPolyline
 62
253
  6
CONTINUOUS
 90
37
 70
0
 10
153.4418077315
 20
27.4837350079
 10
153.444337957
 20
27.4941069868
 10
153.4554778969
 20
27.5044289887
 10
153.4752275511
 20
27.5147010135
 10
153.503664406
 20
27.5249453454
 10
153.5407109753
 20
27.5351397002
 10
153.5861348004
 20
27.5452172256
 10
153.6399764463
 20
27.5551736964
 10
153.702195348
 20
27.5650133379
 10
153.7724373519
 20
27.5746819733
 10
153.8507516827
 20
27.5841795159
 10
153.9370891157
 20
27.5935060525
 10
154.0309478229
 20
27.6026076671
 10
154.1323701366
 20
27.611482938
 10
154.2413137246
 20
27.6201332869
 10
154.3571497616
 20
27.6285090638
 10
154.4799184546
 20
27.6366087248
 10
154.6095795968
 20
27.6444338138
 10
154.7453837415
 20
27.6519393128
 10
154.8873659502
 20
27.6591233533
 10
155.0354911615
 20
27.6659878038
 10
155.1889047448
 20
27.6724932517
 10
155.3476361667
 20
27.678637603
 10
155.5116559606
 20
27.6844229518
 10
155.6800210961
 20
27.6898161666
 10
155.8527562514
 20
27.6948150067
 10
156.0298367484
 20
27.699421713
 10
156.2102455222
 20
27.7036098765
 10
156.3940021415
 20
27.7073771136
 10
156.5810870375
 20
27.710725808
 10
156.7704244393
 20
27.7136367018
 10
156.9620256189
 20
27.716107282
 10
157.1558793042
 20
27.7181400617
 10
157.3508759079
 20
27.7197233217
 10
157.5466455674
 20
27.7208531554
 10
157.7435581452
 20
27.7215334694
 10
157.9416136414
 20
27.7217642636
  0
LWPOLYLINE
  5
401
100
AcDbEntity
  8
0
100
AcDbPolyline
 62
253
  6
CONTINUOUS
 90
6
 70
0
 10
173.1415797415
 20
54.4837350079
 10
173.1413713709
 20
54.4600125092
 10
173.1399155386
 20
54.4363065171
 10
173.1377670145
 20
54.4123880538
 10
173.135787736
 20
54.3877824215
 10
173.1331624293
 20
54.3353121983
  0
LINE
  5
402
100
AcDbEntity
  8
0
100
AcDbLine
 62
253
  6
CONTINUOUS
 10
173.1331624293
 20
54.3353121983
 11
173.129516738
 21
54.2794849032
  0
LINE
  5
403
100
AcDbEntity
  8
0
100
AcDbLine
 62
253
  6
CONTINUOUS
 10
173.129516738
 20
54.2794849032
 11
173.1253463819
 21
54.2199551359
  0
LWPOLYLINE
  5
404
100
AcDbEntity
  8
0
100
AcDbPolyline
 62
253
  6
CONTINUOUS
 90
10
 70
0
 10
167.9721319092
 20
31.2707840312
 10
167.9732460002
 20
31.2862095552
 10
167.973571563
 20
31.3107380287
 10
167.9731055216
 20
31.3441404366
 10
167.9718521912
 20
31.3861049118
 10
167.9698232379
 20
31.436239647
 10
167.9670375702
 20
31.4940765525
 10
167.9635211619
 20
31.5590756267
 10
167.9593068097
 20
31.6306299979
 10
167.9489476783
 20
31.7906773627
  0
LINE
  5
405
100
AcDbEntity
  8
0
100
AcDbLine
 62
253
  6
CONTINUOUS
 10
173.1253463819
 20
54.2199551359
 11
173.1205827438
 21
54.1564793732
  0
LINE
  5
406
100
AcDbEntity
  8
0
100
AcDbLine
 62
253
  6
CONTINUOUS
 10
173.1205827438
 20
54.1564793732
 11
173.1151245717
 21
54.0884853001
  0
LINE
  5
407
100
AcDbEntity
  8
0
100
AcDbLine
 62
253
  6
CONTINUOUS
 10
173.1151245717
 20
54.0884853001
 11
173.1088342928
 21
54.015147346
  0
LWPOLYLINE
  5
408
100
AcDbEntity
  8
0
100
AcDbPolyline
 62
253
  6
CONTINUOUS
 90
3
 70
0
 10
173.1088342928
 20
54.015147346
 10
173.101579582
 20
53.9359057493
 10
173.0975332003
 20
53.8937344268
  0
LINE
  5
409
100
AcDbEntity
  8
0
100
AcDbLine
 62
7
  6
CONTINUOUS
 10
156.7766538539
 20
51.7086683169
 11
156.7966156733
 21
51.7555867798
  0
LINE
  5
40A
100
AcDbEntity
  8
0
100
AcDbLine
 62
7
  6
CONTINUOUS
 10
159.1065720465
 20
52.258801699
 11
159.0866102271
 21
52.211883236
  0
LINE
  5
40B
100
AcDbEntity
  8
0
100
AcDbLine
 62
7
  6
CONTINUOUS
 10
156.7564819854
 20
51.6618613355
 11
156.7766538539
 21
51.7086683169
  0
LINE
  5
40C
100
AcDbEntity
  8
0
100
AcDbLine
 62
7
  6
CONTINUOUS
 10
159.126743915
 20
52.3056086804
 11
159.1065720465
 21
52.258801699
  0
LINE
  5
40D
100
AcDbEntity
  8
0
100
AcDbLine
 62
7
  6
CONTINUOUS
 10
156.7361000677
 20
51.6151658355
 11
156.7564819854
 21
51.6618613355
  0
LINE
  5
40E
100
AcDbEntity
  8
0
100
AcDbLine
 62
7
  6
CONTINUOUS
 10
159.1471258327
 20
52.3523041803
 11
159.126743915
 21
52.3056086804
  0
LWPOLYLINE
  5
40F
100
AcDbEntity
  8
TRASH
100
AcDbPolyline
 62
7
  6
CONTINUOUS
 90
3
 70
0
 10
157.633897359
 20
52.9580873799
 10
157.6788167727
 20
53.0547212917
 10
157.7134647221
 20
53.1287322848
  0
LWPOLYLINE
  5
410
100
AcDbEntity
  8
TRASH
100
AcDbPolyline
 62
7
  6
CONTINUOUS
 90
3
 70
0
 10
158.2493285414
 20
51.0093826359
 10
158.2044091277
 20
50.9127487242
 10
158.1697611783
 20
50.8387377311
  0
LINE
  5
411
100
AcDbEntity
  8
0
100
AcDbLine
 62
7
  6
CONTINUOUS
 10
156.7534510533
 20
51.6031559625
 11
156.8195066565
 21
51.7449126255
  0
LINE
  5
412
100
AcDbEntity
  8
0
100
AcDbLine
 62
7
  6
CONTINUOUS
 10
159.1297748471
 20
52.3643140533
 11
159.0637192439
 21
52.2225573904
  0
LINE
  5
413
100
AcDbEntity
  8
TRASH
100
AcDbLine
 62
7
  6
CONTINUOUS
 10
157.5539148511
 20
52.7864611649
 11
157.633897359
 21
52.9580873799
  0
LINE
  5
414
100
AcDbEntity
  8
TRASH
100
AcDbLine
 62
7
  6
CONTINUOUS
 10
157.5357278331
 20
52.7476030213
 11
157.5539148511
 21
52.7864611649
  0
LINE
  5
415
100
AcDbEntity
  8
TRASH
100
AcDbLine
 62
7
  6
CONTINUOUS
 10
158.3293110491
 20
51.1810088505
 11
158.2493285414
 21
51.0093826359
  0
LINE
  5
416
100
AcDbEntity
  8
TRASH
100
AcDbLine
 62
7
  6
CONTINUOUS
 10
158.3474980671
 20
51.2198669942
 11
158.3293110491
 21
51.1810088505
  0
LINE
  5
417
100
AcDbEntity
  8
TRASH
100
AcDbLine
 62
7
  6
CONTINUOUS
 10
157.4218955152
 20
52.5034617902
 11
157.5357278331
 21
52.7476030213
  0
LINE
  5
418
100
AcDbEntity
  8
TRASH
100
AcDbLine
 62
7
  6
CONTINUOUS
 10
158.4613303852
 20
51.4640082257
 11
158.3474980671
 21
51.2198669942
  0
LINE
  5
419
100
AcDbEntity
  8
0
100
AcDbLine
 62
7
  6
CONTINUOUS
 10
157.4160686482
 20
52.6505111158
 11
157.3693593695
 21
52.5559885043
  0
LINE
  5
41A
100
AcDbEntity
  8
0
100
AcDbLine
 62
7
  6
CONTINUOUS
 10
158.4671572522
 20
51.3169589001
 11
158.5138665309
 21
51.4114815116
  0
LINE
  5
41B
100
AcDbEntity
  8
0
100
AcDbLine
 62
7
  6
CONTINUOUS
 10
158.5981089906
 20
51.3272391298
 11
158.5793570795
 21
51.2897499079
  0
LINE
  5
41C
100
AcDbEntity
  8
0
100
AcDbLine
 62
7
  6
CONTINUOUS
 10
157.4631674912
 20
52.7445401267
 11
157.4160686482
 21
52.6505111158
  0
LINE
  5
41D
100
AcDbEntity
  8
0
100
AcDbLine
 62
7
  6
CONTINUOUS
 10
157.2851169098
 20
52.640230886
 11
157.3132771717
 21
52.6964048732
  0
LWPOLYLINE
  5
41E
100
AcDbEntity
  8
0
100
AcDbPolyline
 62
7
  6
CONTINUOUS
 90
3
 70
0
 10
158.40818031
 20
51.1993856963
 10
158.4200584092
 20
51.2229298892
 10
158.4671572522
 20
51.3169589001
  0
LINE
  5
41F
100
AcDbEntity
  8
0
100
AcDbLine
 62
7
  6
CONTINUOUS
 10
157.3132771717
 20
52.6964048732
 11
157.3416129502
 21
52.7523595075
  0
LINE
  5
420
100
AcDbEntity
  8
0
100
AcDbLine
 62
7
  6
CONTINUOUS
 10
157.5230823915
 20
52.8627202337
 11
157.4631674912
 21
52.7445401267
  0
LINE
  5
421
100
AcDbEntity
  8
0
100
AcDbLine
 62
7
  6
CONTINUOUS
 10
157.6090186829
 20
53.0301904007
 11
157.5230823915
 21
52.8627202337
  0
LINE
  5
422
100
AcDbEntity
  8
0
100
AcDbLine
 62
7
  6
CONTINUOUS
 10
157.6587535945
 20
53.1263294651
 11
157.6090186829
 21
53.0301904007
  0
LWPOLYLINE
  5
423
100
AcDbEntity
  8
0
100
AcDbPolyline
 62
7
  6
CONTINUOUS
 90
48
 70
0
 10
164.9751239567
 20
77.5860382507
 10
164.9922047488
 20
77.6007335153
 10
165.0094944021
 20
77.616052109
 10
165.0270062164
 20
77.6319500162
 10
165.0447268919
 20
77.6484712525
 10
165.0625986584
 20
77.6658926212
 10
165.0806375259
 20
77.684174959
 10
165.0988274844
 20
77.7033574291
 10
165.1170627335
 20
77.7238343241
 10
165.1353634052
 20
77.7456505889
 10
165.1537093675
 20
77.7687612786
 10
165.1719344247
 20
77.7934258514
 10
165.1900558087
 20
77.8197091984
 10
165.2080562876
 20
77.8475464285
 10
165.2257179695
 20
77.8770023266
 10
165.2430715644
 20
77.9080316196
 10
165.2600863624
 20
77.9406795806
 10
165.2764523417
 20
77.9751468129
 10
165.2922112365
 20
78.0114063413
 10
165.3073213126
 20
78.0494851411
 10
165.3213473451
 20
78.0896647421
 10
165.3343160813
 20
78.1319912195
 10
165.3462007739
 20
78.1764184982
 10
165.3564859561
 20
78.223089882
 10
165.3651886946
 20
78.2720289077
 10
165.3722919227
 20
78.3232120387
 10
165.3772289737
 20
78.3767119689
 10
165.3801000982
 20
78.4325258587
 10
165.3808050456
 20
78.4906565477
 10
165.3784763977
 20
78.5511852496
 10
165.3733865264
 20
78.614306263
 10
165.3652630598
 20
78.6798252892
 10
165.3524214637
 20
78.7472406462
 10
165.3344024541
 20
78.8175697735
 10
165.3116653151
 20
78.8897952315
 10
165.2839033645
 20
78.9603630201
 10
165.2504630882
 20
79.0289167441
 10
165.2119980004
 20
79.0958127986
 10
165.1701619617
 20
79.1585663686
 10
165.1246062563
 20
79.2166986847
 10
165.0756796
 20
79.2706885163
 10
165.026082001
 20
79.3194873559
 10
164.9763865819
 20
79.3625295745
 10
164.9260202201
 20
79.400380801
 10
164.8759635549
 20
79.4336894153
 10
164.8265434662
 20
79.462671544
 10
164.7774330742
 20
79.4871110605
 10
164.7286323788
 20
79.5070079648
  0
LWPOLYLINE
  5
424
100
AcDbEntity
  8
0
100
AcDbPolyline
 62
253
  6
CONTINUOUS
 90
13
 70
0
 10
178.0029299758
 20
84.9837350079
 10
178.0010380685
 20
85.0273128358
 10
177.9953767437
 20
85.0705590197
 10
177.985989085
 20
85.1131444302
 10
177.9729465364
 20
85.1547449654
 10
177.9563483568
 20
85.1950440209
 10
177.9363208644
 20
85.2337348988
 10
177.9130164749
 20
85.2705231408
 10
177.8866125481
 20
85.3051287594
 10
177.8573100396
 20
85.3372883746
 10
177.8253319588
 20
85.366757232
 10
177.7909216789
 20
85.3933110547
 10
177.7543410934
 20
85.4167477454
  0
LINE
  5
425
100
AcDbEntity
  8
0
100
AcDbLine
 62
253
  6
CONTINUOUS
 10
177.0085746919
 20
58.6837350079
 11
177.0085746919
 21
85.4837350079
  0
LINE
  5
426
100
AcDbEntity
  8
0
100
AcDbLine
 62
253
  6
CONTINUOUS
 10
178.0029299756
 20
84.9837350079
 11
178.0029299756
 21
58.6837350079
  0
LINE
  5
427
100
AcDbEntity
  8
0
100
AcDbLine
 62
7
  6
CONTINUOUS
 10
178.3416129502
 20
84.9837350079
 11
178.3416129502
 21
58.6837350079
  0
LWPOLYLINE
  5
428
100
AcDbEntity
  8
0
100
AcDbPolyline
 62
253
  6
CONTINUOUS
 90
13
 70
0
 10
176.8371227732
 20
54.4837594048
 10
176.7825363424
 20
53.8282373655
 10
176.7198529698
 20
53.1530577289
 10
176.6479510352
 20
52.4577368576
 10
176.5656040066
 20
51.7417953781
 10
176.4717568606
 20
51.0047342656
 10
176.3655233244
 20
50.2459798109
 10
176.2462899781
 20
49.4656385783
 10
176.1123768879
 20
48.662441507
 10
175.9611759156
 20
47.833901115
 10
175.7909213855
 20
46.9790619664
 10
175.6008371552
 20
46.0982797077
 10
175.3897064206
 20
45.1912547072
  0
LWPOLYLINE
  5
429
100
AcDbEntity
  8
0
100
AcDbPolyline
 62
253
  6
CONTINUOUS
 90
13
 70
0
 10
177.8283292523
 20
54.3990036661
 10
177.7688890501
 20
53.7293472867
 10
177.6984105764
 20
53.0390141326
 10
177.6160555388
 20
52.3282182738
 10
177.5210619722
 20
51.5979526266
 10
177.4124711098
 20
50.8477298908
 10
177.2890200438
 20
50.0755994285
 10
177.1498019492
 20
49.2826427292
 10
176.9936751053
 20
48.4685046967
 10
176.8186818841
 20
47.6291871773
 10
176.6231900319
 20
46.7637335747
 10
176.4061273901
 20
45.8741907539
 10
176.1661210126
 20
44.9611856162
  0
LINE
  5
42A
100
AcDbEntity
  8
0
100
AcDbLine
 62
253
  6
CONTINUOUS
 10
173.0975332003
 20
53.8937344268
 11
173.0884998589
 21
53.803949486
  0
LINE
  5
42B
100
AcDbEntity
  8
0
100
AcDbLine
 62
253
  6
CONTINUOUS
 10
173.0884998589
 20
53.803949486
 11
173.0780134393
 21
53.7059965833
  0
LINE
  5
42C
100
AcDbEntity
  8
0
100
AcDbLine
 62
253
  6
CONTINUOUS
 10
173.0780134393
 20
53.7059965833
 11
173.0658700175
 21
53.5990466544
  0
LINE
  5
42D
100
AcDbEntity
  8
0
100
AcDbLine
 62
253
  6
CONTINUOUS
 10
173.0658700175
 20
53.5990466544
 11
173.0519265441
 21
53.4826674874
  0
LINE
  5
42E
100
AcDbEntity
  8
0
100
AcDbLine
 62
253
  6
CONTINUOUS
 10
173.0519265441
 20
53.4826674874
 11
173.0362579467
 21
53.3563487334
  0
LINE
  5
42F
100
AcDbEntity
  8
0
100
AcDbLine
 62
253
  6
CONTINUOUS
 10
173.0362579467
 20
53.3563487334
 11
173.0183752964
 21
53.2197397699
  0
LINE
  5
430
100
AcDbEntity
  8
0
100
AcDbLine
 62
253
  6
CONTINUOUS
 10
173.0183752964
 20
53.2197397699
 11
172.9980191142
 21
53.0727213864
  0
LWPOLYLINE
  5
431
100
AcDbEntity
  8
0
100
AcDbPolyline
 62
253
  6
CONTINUOUS
 90
36
 70
0
 10
172.9980191142
 20
53.0727213864
 10
172.9753307882
 20
52.9152500325
 10
172.9627737773
 20
52.8325253963
 10
172.9491611017
 20
52.7472010099
 10
172.9345347111
 20
52.6592509461
 10
172.9189366211
 20
52.5684879413
 10
172.9024158029
 20
52.4750630335
 10
172.8848340376
 20
52.378842573
 10
172.8659441277
 20
52.2792092544
 10
172.8456547059
 20
52.1762788096
 10
172.8239073414
 20
52.0699880561
 10
172.8004665651
 20
51.9594638513
 10
172.7752449874
 20
51.8446891805
 10
172.7481352456
 20
51.7257462718
 10
172.7188329007
 20
51.6019216915
 10
172.6872053253
 20
51.4732889183
 10
172.6531279399
 20
51.3398760692
 10
172.6162623169
 20
51.2009193002
 10
172.576230835
 20
51.0556987502
 10
172.5330739137
 20
50.9050810918
 10
172.4870992781
 20
50.7506802354
 10
172.438087277
 20
50.5922767398
 10
172.385999697
 20
50.4302383786
 10
172.3315388259
 20
50.2670196852
 10
172.2748242093
 20
50.1031935043
 10
172.2156447634
 20
49.9382799775
 10
172.1543169566
 20
49.7731054163
 10
172.0909827613
 20
49.6081125598
 10
172.0254656802
 20
49.4429039636
 10
171.957626384
 20
49.2770289198
 10
171.8876569254
 20
49.1110471974
 10
171.8153121489
 20
48.9444478931
 10
171.7397222146
 20
48.7752015605
 10
171.6604991369
 20
48.6026761797
 10
171.5778072075
 20
48.4276073709
 10
171.4915362012
 20
48.2500428396
  0
LWPOLYLINE
  5
432
100
AcDbEntity
  8
0
100
AcDbPolyline
 62
253
  6
CONTINUOUS
 90
136
 70
0
 10
172.5984850227
 20
52.4087624767
 10
172.5763171838
 20
52.2888842471
 10
172.5503552157
 20
52.1651512902
 10
172.5202305121
 20
52.0378541827
 10
172.4848585449
 20
51.9077068003
 10
172.4444508907
 20
51.7747891284
 10
172.4007857683
 20
51.6382254101
 10
172.3539638235
 20
51.4970757421
 10
172.303480329
 20
51.352589631
 10
172.2505534095
 20
51.20680925
 10
172.1956476252
 20
51.060924783
 10
172.1381109592
 20
50.9139538086
 10
172.0775948975
 20
50.7645665665
 10
172.0137926144
 20
50.6122374022
 10
171.9467657691
 20
50.4576939598
 10
171.8767309151
 20
50.3014471184
 10
171.8033425152
 20
50.143011992
 10
171.7267390642
 20
49.983059104
 10
171.6479637144
 20
49.8237723531
 10
171.5671150322
 20
49.6654419539
 10
171.4840595673
 20
49.5078820725
 10
171.3996239937
 20
49.3524848553
 10
171.3140835478
 20
49.1996473605
 10
171.2272437765
 20
49.0489971216
 10
171.1392886779
 20
48.9007287727
 10
171.0512059191
 20
48.7563493332
 10
170.9621309307
 20
48.6143373319
 10
170.8693334186
 20
48.470429733
 10
170.7724005028
 20
48.3242531112
 10
170.6715332291
 20
48.1763907351
 10
170.5646775186
 20
48.0241849786
 10
170.4509036816
 20
47.8669011341
 10
170.3307067554
 20
47.705700506
 10
170.2040749594
 20
47.5408478486
 10
170.0710152309
 20
47.3728222959
 10
169.931122266
 20
47.2015967482
 10
169.7837471748
 20
47.026695078
 10
169.6287505613
 20
46.8484623288
 10
169.4658129385
 20
46.6671054161
 10
169.2939471515
 20
46.4820095415
 10
169.1126235203
 20
46.2932508077
 10
168.9218153061
 20
46.1014832958
 10
168.7212475141
 20
45.9070215545
 10
168.5109500501
 20
45.7105560775
 10
168.2903687955
 20
45.5122393717
 10
168.0583079017
 20
45.3116661305
 10
167.8146601262
 20
45.1095437328
 10
167.5589369227
 20
44.9062699553
 10
167.2892522783
 20
44.7011680609
 10
167.005264466
 20
44.4949731729
 10
166.7066278283
 20
44.288451841
 10
166.3913028355
 20
44.081258773
 10
166.0590513089
 20
43.8744855544
 10
165.7093617915
 20
43.669085535
 10
165.3396311098
 20
43.4648876332
 10
164.9496540526
 20
43.2633296526
 10
164.5389153781
 20
43.0657214588
 10
164.1041943753
 20
42.8722319895
 10
163.6446772937
 20
42.6845573936
 10
163.1605458933
 20
42.504893156
 10
162.6500066774
 20
42.3347241284
 10
162.1116187784
 20
42.1759998883
 10
161.546726208
 20
42.0316324711
 10
160.9579259617
 20
41.9045794694
 10
160.3434526755
 20
41.7969201388
 10
159.7059984279
 20
41.7116364887
 10
159.0553043775
 20
41.651756028
 10
158.3891195477
 20
41.61854325
 10
157.7118309833
 20
41.6138405123
 10
157.0434599083
 20
41.6379167979
 10
156.3879854177
 20
41.6892507664
 10
155.7436619099
 20
41.766742881
 10
155.1216541953
 20
41.8674393192
 10
154.5250625938
 20
41.9883695852
 10
153.9518444924
 20
42.1274998598
 10
153.4049853687
 20
42.2818113763
 10
152.8858489662
 20
42.4483860788
 10
152.3930695765
 20
42.6252260612
 10
151.9252996603
 20
42.8106498071
 10
151.4828739076
 20
43.0023335825
 10
151.0648478441
 20
43.198562979
 10
150.6679887915
 20
43.3990865241
 10
150.2918101456
 20
43.6025253136
 10
149.9360836028
 20
43.8074116546
 10
149.5981150486
 20
44.0139119924
 10
149.2773681951
 20
44.2210504188
 10
148.9736258701
 20
44.4276888454
 10
148.6848227975
 20
44.6341392269
 10
148.4106067149
 20
44.839610663
 10
148.1506333314
 20
45.0433404459
 10
147.9029972974
 20
45.245975244
 10
147.6672477131
 20
45.4470634938
 10
147.4432295523
 20
45.6459156345
 10
147.229609674
 20
45.8430314925
 10
147.0257918236
 20
46.0382871067
 10
146.831848683
 20
46.2309467434
 10
146.6475021962
 20
46.4206891017
 10
146.4726993407
 20
46.6068851412
 10
146.3069350054
 20
46.7894194596
 10
146.1492903065
 20
46.9688021671
 10
145.9994978521
 20
47.1447473816
 10
145.8573531901
 20
47.3169717854
 10
145.7221009431
 20
47.4860579915
 10
145.5932919866
 20
47.6520783571
 10
145.4709779751
 20
47.8145035928
 10
145.3551771638
 20
47.9730353483
 10
145.2462821109
 20
48.12665826
 10
145.1434648805
 20
48.2759533888
 10
145.044989054
 20
48.4230821758
 10
144.9512226268
 20
48.5671680575
 10
144.8615417396
 20
48.7088449067
 10
144.7729618595
 20
48.8527099125
 10
144.6845704169
 20
49.0003423237
 10
144.5973918041
 20
49.1501706829
 10
144.5115007034
 20
49.3021641742
 10
144.4266876595
 20
49.4567162189
 10
144.3432435975
 20
49.6134121788
 10
144.2619423194
 20
49.77097242
 10
144.1827573588
 20
49.9293670727
 10
144.1056836787
 20
50.088525267
 10
144.0314250524
 20
50.2470417042
 10
143.9600611425
 20
50.4044470759
 10
143.8913657354
 20
50.5610516561
 10
143.8255117357
 20
50.716569809
 10
143.7624915123
 20
50.8705050975
 10
143.7021311061
 20
51.0231696323
 10
143.6443275962
 20
51.1754381774
 10
143.588228883
 20
51.3288979697
 10
143.5345280987
 20
51.4817412745
 10
143.4852474714
 20
51.6296071437
 10
143.4402002829
 20
51.7701509876
 10
143.3990513606
 20
51.9053705107
 10
143.36321244
 20
52.0370421207
 10
143.3327701749
 20
52.1653853495
 10
143.3067379845
 20
52.2893860074
 10
143.2847409012
 20
52.4087625316
  0
LWPOLYLINE
  5
433
100
AcDbEntity
  8
0
100
AcDbPolyline
 62
7
  6
CONTINUOUS
 90
7
 70
0
 10
173.1415797415
 20
54.4837350079
 10
173.0710640715
 20
54.132581488
 10
172.9925483549
 20
53.783557874
 10
172.9060325917
 20
53.4366641658
 10
172.8115167819
 20
53.0919003635
 10
172.7090009256
 20
52.7492664672
 10
172.5984850227
 20
52.4087624767
  0
LWPOLYLINE
  5
434
100
AcDbEntity
  8
0
100
AcDbPolyline
 62
253
  6
CONTINUOUS
 90
37
 70
0
 10
152.6416129502
 20
28.2848328847
 10
152.6466526911
 20
28.295147639
 10
152.6617703746
 20
28.3054078592
 10
152.6869492793
 20
28.3156135453
 10
152.722162044
 20
28.3257860789
 10
152.7673491527
 20
28.3359040784
 10
152.8223977984
 20
28.345903399
 10
152.8871759601
 20
28.355780448
 10
152.9615674519
 20
28.365538818
 10
153.0454427009
 20
28.3751251432
 10
153.1386489899
 20
28.3845392309
 10
153.2410017117
 20
28.3937812737
 10
153.3523024089
 20
28.402798483
 10
153.472336395
 20
28.4115894624
 10
153.600874928
 20
28.4201556082
 10
153.7376732023
 20
28.4284483209
 10
153.8824704961
 20
28.436466073
 10
154.0349894493
 20
28.444210392
 10
154.1949376348
 20
28.4516372604
 10
154.3620091341
 20
28.4587448382
 10
154.5358852782
 20
28.4655349655
 10
154.7162341566
 20
28.4719691455
 10
154.9027107872
 20
28.4780453228
 10
155.0949602681
 20
28.4837655528
 10
155.2926186894
 20
28.4890975047
 10
155.4953094416
 20
28.4940389814
 10
155.7026464361
 20
28.4985921799
 10
155.9142377102
 20
28.5027313608
 10
156.1296807554
 20
28.5064541867
 10
156.3485653307
 20
28.5097629951
 10
156.5704772503
 20
28.5126390584
 10
156.7949942109
 20
28.5150799285
 10
157.0216892769
 20
28.5170880536
 10
157.2501341021
 20
28.5186520508
 10
157.4798951859
 20
28.5197681256
 10
157.710534617
 20
28.5204400725
 10
157.9416137566
 20
28.5206678914
  0
LINE
  5
435
100
AcDbEntity
  8
0
100
AcDbLine
 62
7
  6
CONTINUOUS
 10
158.5793570795
 20
51.2897499079
 11
158.5416129502
 21
51.2151105084
  0
LINE
  5
436
100
AcDbEntity
  8
0
100
AcDbLine
 62
7
  6
CONTINUOUS
 10
158.3479981705
 20
51.0809550701
 11
158.40818031
 21
51.1993856963
  0
LINE
  5
437
100
AcDbEntity
  8
0
100
AcDbLine
 62
7
  6
CONTINUOUS
 10
158.2617987469
 20
50.9132480529
 11
158.3479981705
 21
51.0809550701
  0
LINE
  5
438
100
AcDbEntity
  8
0
100
AcDbLine
 62
7
  6
CONTINUOUS
 10
158.2244723059
 20
50.8411405507
 11
158.2617987469
 21
50.9132480529
  0
LINE
  5
439
100
AcDbEntity
  8
0
100
AcDbLine
 62
7
  6
CONTINUOUS
 10
157.6721409076
 20
53.1461305872
 11
157.6587535945
 21
53.1263294651
  0
LINE
  5
43A
100
AcDbEntity
  8
0
100
AcDbLine
 62
7
  6
CONTINUOUS
 10
158.2110849928
 20
50.8213394287
 11
158.2244723059
 21
50.8411405507
  0
LWPOLYLINE
  5
43B
100
AcDbEntity
  8
0
100
AcDbPolyline
 62
253
  6
CONTINUOUS
 90
10
 70
0
 10
140.4935194798
 20
45.1912547072
 10
140.8559418152
 20
45.4975646522
 10
141.2182695124
 20
45.8057221453
 10
141.5805025714
 20
46.1155982145
 10
141.9427074223
 20
46.4271213681
 10
142.3048176351
 20
46.7401062967
 10
142.6666339194
 20
47.0542511593
 10
143.0280898452
 20
47.3693676695
 10
143.3892518426
 20
47.6853838076
 10
143.7501199115
 20
48.0021706217
  0
LWPOLYLINE
  5
43C
100
AcDbEntity
  8
0
100
AcDbPolyline
 62
253
  6
CONTINUOUS
 90
36
 70
0
 10
175.3897064206
 20
45.1912547072
 10
175.3086567871
 20
44.8653669077
 10
175.2274966576
 20
44.5489083476
 10
175.1464297753
 20
44.241903919
 10
175.0657212864
 20
43.9446932892
 10
174.9854925755
 20
43.6569789974
 10
174.9057029322
 20
43.3778238209
 10
174.8265033731
 20
43.1072224528
 10
174.7480492137
 20
42.8452037301
 10
174.6702661395
 20
42.5908743329
 10
174.593279237
 20
42.3442306734
 10
174.5172093557
 20
42.1052867645
 10
174.441942394
 20
41.8731703734
 10
174.3675763946
 20
41.6478634355
 10
174.2942108358
 20
41.4293853937
 10
174.2217057702
 20
41.2169169395
 10
174.1501164705
 20
41.010376063
 10
174.079544578
 20
40.8098413802
 10
174.009898307
 20
40.6147326074
 10
173.9412329008
 20
40.4250103979
 10
173.8736223079
 20
40.2407074063
 10
173.8069878918
 20
40.061349983
 10
173.741352643
 20
39.88684435
 10
173.6768007131
 20
39.7172756143
 10
173.6133359014
 20
39.5524371519
 10
173.5509931349
 20
39.3922859745
 10
173.4898318157
 20
39.2368541808
 10
173.4298878385
 20
39.0860463101
 10
173.3712468184
 20
38.9399569478
 10
173.3139086786
 20
38.798478523
 10
173.2577747993
 20
38.6612118424
 10
173.2028940056
 20
38.5281770974
 10
173.1492884273
 20
38.3993414967
 10
173.0968106345
 20
38.2742271745
 10
173.0454907878
 20
38.1528281165
 10
172.9953556402
 20
38.0351392131
  0
LWPOLYLINE
  5
43D
100
AcDbEntity
  8
0
100
AcDbPolyline
 62
253
  6
CONTINUOUS
 90
35
 70
0
 10
176.1661210126
 20
44.9611856162
 10
176.0757064915
 20
44.633361834
 10
175.9857762254
 20
44.3151195485
 10
175.8965033583
 20
44.006422498
 10
175.808139279
 20
43.7075037729
 10
175.7207660379
 20
43.4180548956
 10
175.6342808541
 20
43.1372308499
 10
175.5488196747
 20
42.8649911116
 10
175.4645196244
 20
42.6013084208
 10
175.3812467908
 20
42.3453657867
 10
175.2991150431
 20
42.097133944
 10
175.2182352411
 20
41.8565817132
 10
175.1384399219
 20
41.6228971522
 10
175.0598178053
 20
41.3960431784
 10
174.982463156
 20
41.1760042969
 10
174.9061913479
 20
40.9620084894
 10
174.8310501454
 20
40.7539586085
 10
174.7571394847
 20
40.5519069771
 10
174.6843334024
 20
40.3553118659
 10
174.6126825
 20
40.1641218718
 10
174.5422596656
 20
39.9783488661
 10
174.4729585052
 20
39.7975504591
 10
174.4047980306
 20
39.6216224777
 10
174.3378629644
 20
39.4506342614
 10
174.2721367439
 20
39.28440646
 10
174.2076520189
 20
39.1228874565
 10
174.1444683199
 20
38.9660963047
 10
174.0826051037
 20
38.8139608795
 10
174.0221474887
 20
38.6665698369
 10
173.9630942364
 20
38.523803416
 10
173.9053295018
 20
38.3852788315
 10
173.8489006544
 20
38.2510115713
 10
173.7938299438
 20
38.1209594244
 10
173.7399552946
 20
37.9946563287
 10
173.6873058374
 20
37.8720926474
  0
LWPOLYLINE
  5
43E
100
AcDbEntity
  8
0
100
AcDbPolyline
 62
253
  6
CONTINUOUS
 90
97
 70
0
 10
172.1331063831
 20
48.0021702751
 10
172.0756352302
 20
47.8603063157
 10
172.0141330998
 20
47.7138508259
 10
171.9484561227
 20
47.5629013747
 10
171.8778857807
 20
47.4064222116
 10
171.8028161654
 20
47.2456788834
 10
171.7248745365
 20
47.0841765311
 10
171.64422752
 20
46.9223585236
 10
171.5606193119
 20
46.7599143744
 10
171.4752240126
 20
46.5991263702
 10
171.388592084
 20
46.4409890008
 10
171.3002392778
 20
46.2845605359
 10
171.209838711
 20
46.1291891234
 10
171.1173514825
 20
45.9748570954
 10
171.022818041
 20
45.8216676151
 10
170.9259968073
 20
45.669166539
 10
170.8268166875
 20
45.517318483
 10
170.7253258867
 20
45.3662592831
 10
170.6214424721
 20
45.2157997721
 10
170.5150573413
 20
45.0658578113
 10
170.4062455118
 20
44.9166237611
 10
170.2952038119
 20
44.7683097709
 10
170.181935659
 20
44.620967071
 10
170.0664236097
 20
44.4746368317
 10
169.9488480912
 20
44.329499329
 10
169.8292289754
 20
44.1856094127
 10
169.7075474465
 20
44.0429913117
 10
169.5839390908
 20
43.9017641813
 10
169.4584619197
 20
43.7620101946
 10
169.3310754
 20
43.6237111516
 10
169.2017717728
 20
43.4868289253
 10
169.070528241
 20
43.3513670336
 10
168.9373817827
 20
43.2173895115
 10
168.8024148703
 20
43.084945684
 10
168.6657274836
 20
42.9541474319
 10
168.5272405226
 20
42.8249421993
 10
168.3867654935
 20
42.6971347323
 10
168.2439343293
 20
42.5704336704
 10
168.0991200003
 20
42.445214101
 10
167.9532625386
 20
42.3222530711
 10
167.8068322075
 20
42.2019182636
 10
167.6594278296
 20
42.0838339928
 10
167.5107226096
 20
41.9676242436
 10
167.3608086009
 20
41.8535713692
 10
167.2095914613
 20
41.7414472087
 10
167.0561522906
 20
41.630290828
 10
166.8998619482
 20
41.5197801565
 10
166.7411032866
 20
41.4105297981
 10
166.5806146779
 20
41.3028977184
 10
166.418645553
 20
41.1969392239
 10
166.2550804391
 20
41.0926441514
 10
166.0901396445
 20
40.9902287929
 10
165.9239137997
 20
40.8897613958
 10
165.7564283827
 20
40.791227409
 10
165.5878115878
 20
40.6947138643
 10
165.4179983707
 20
40.6002024174
 10
165.247162858
 20
40.5077803042
 10
165.0758018413
 20
40.4176716586
 10
164.9040372283
 20
40.3297290494
 10
164.7318665267
 20
40.2441938322
 10
164.5596422463
 20
40.1616789578
 10
164.3880248938
 20
40.0818726022
 10
164.2165450363
 20
40.0041861544
 10
164.043890178
 20
39.9284759756
 10
163.8697828252
 20
39.8548082469
 10
163.6945486569
 20
39.783175321
 10
163.5177674793
 20
39.7134385408
 10
163.3390452953
 20
39.645463862
 10
163.1588112984
 20
39.5794425354
 10
162.9778870879
 20
39.5157108861
 10
162.7965576912
 20
39.4543540483
 10
162.6146044916
 20
39.3952801491
 10
162.4321071211
 20
39.338529247
 10
162.2491407656
 20
39.2841073963
 10
162.0656967986
 20
39.2319974942
 10
161.881730486
 20
39.1822047626
 10
161.6972441397
 20
39.1347170208
 10
161.5123014506
 20
39.0895384127
 10
161.32695083
 20
39.046699943
 10
161.1412680585
 20
39.0062082768
 10
160.955244655
 20
38.968045948
 10
160.7688033331
 20
38.9322104268
 10
160.5819536297
 20
38.8986988539
 10
160.3947513912
 20
38.8675126987
 10
160.2071886969
 20
38.8386608382
 10
160.0192827719
 20
38.8121411005
 10
159.8310818912
 20
38.7879545057
 10
159.6426253549
 20
38.7661159032
 10
159.4539368293
 20
38.7466233656
 10
159.2650591814
 20
38.7294746546
 10
159.0760614374
 20
38.7146829466
 10
158.8869848617
 20
38.7022477246
 10
158.6978551123
 20
38.6921640657
 10
158.5087183957
 20
38.6844372488
 10
158.3196124434
 20
38.6790673447
 10
158.1305662388
 20
38.676049713
 10
157.9416129502
 20
38.6753825461
  0
LWPOLYLINE
  5
43F
100
AcDbEntity
  8
0
100
AcDbPolyline
 62
253
  6
CONTINUOUS
 90
136
 70
0
 10
172.5984850227
 20
52.4087624767
 10
172.5523827971
 20
52.298672619
 10
172.5038282162
 20
52.1847942345
 10
172.4528212801
 20
52.0671273231
 10
172.3994881973
 20
51.9455533126
 10
172.3437027593
 20
51.8201907754
 10
172.2850863401
 20
51.6913954276
 10
172.2232552322
 20
51.5584974083
 10
172.1585931432
 20
51.4221665785
 10
172.0918725704
 20
51.2847682386
 10
172.0236130721
 20
51.1474211025
 10
171.95329509
 20
51.0090064563
 10
171.8801324456
 20
50.8685334582
 10
171.8038430492
 20
50.7254524339
 10
171.7247089906
 20
50.5803130576
 10
171.642790361
 20
50.4337735101
 10
171.5577340107
 20
50.2853365848
 10
171.4698930894
 20
50.1354994882
 10
171.380387138
 20
49.9864120207
 10
171.289291428
 20
49.8383612125
 10
171.1965306879
 20
49.6910600333
 10
171.1029986436
 20
49.5457971925
 10
171.0088938318
 20
49.4029800586
 10
170.9140177159
 20
49.2622012632
 10
170.8186684119
 20
49.1235274104
 10
170.7239008913
 20
48.9883101732
 10
170.6286601826
 20
48.8551978786
 10
170.5300794879
 20
48.7202021124
 10
170.4279532338
 20
48.5827289614
 10
170.3224869936
 20
48.4433723387
 10
170.2114306896
 20
48.2999255698
 10
170.094173136
 20
48.1514099903
 10
169.9713255185
 20
47.9988042645
 10
169.842471316
 20
47.8428377109
 10
169.7078556494
 20
47.6837328161
 10
169.5672333979
 20
47.5212670934
 10
169.4194526779
 20
47.3555024014
 10
169.2646220281
 20
47.186452969
 10
169.1026329097
 20
47.0141045673
 10
168.9320078234
 20
46.8384763681
 10
168.7525109062
 20
46.659221551
 10
168.564378021
 20
46.4766869364
 10
168.3668392572
 20
46.2919321573
 10
168.1602133809
 20
46.1051211664
 10
167.9441816259
 20
45.916090011
 10
167.7170177832
 20
45.7254064656
 10
167.4789709704
 20
45.533056324
 10
167.2297920699
 20
45.3390537924
 10
166.9670075193
 20
45.1440092644
 10
166.6906769825
 20
44.9476638174
 10
166.4007407955
 20
44.7502763739
 10
166.0945464054
 20
44.5532340955
 10
165.7722898251
 20
44.3562862797
 10
165.4337750415
 20
44.159683629
 10
165.0757614618
 20
43.9655654122
 10
164.698413384
 20
43.7735294759
 10
164.3015665102
 20
43.5839779735
 10
163.8814873539
 20
43.4002566335
 10
163.4376245993
 20
43.221633997
 10
162.9705295623
 20
43.0488415228
 10
162.478122704
 20
42.8874193162
 10
161.9587410784
 20
42.7367373368
 10
161.4140476314
 20
42.5974256249
 10
160.8469516622
 20
42.476914406
 10
160.2548333326
 20
42.375499471
 10
159.6403124809
 20
42.2928850289
 10
159.0141579203
 20
42.2356139325
 10
158.3728852227
 20
42.2057121188
 10
157.7199788163
 20
42.2011536507
 10
157.0766607996
 20
42.2224035705
 10
156.4459234983
 20
42.2716865922
 10
155.8247745866
 20
42.3467780017
 10
155.2254591855
 20
42.4414686986
 10
154.6509317587
 20
42.5561806441
 10
154.0982378425
 20
42.690491877
 10
153.5707591662
 20
42.8369274132
 10
153.0701545804
 20
42.9949358971
 10
152.5947652344
 20
43.1650686843
 10
152.1429963062
 20
43.3415048577
 10
151.7155584842
 20
43.5234825303
 10
151.31174108
 20
43.711763589
 10
150.9278172055
 20
43.9028127774
 10
150.5636541039
 20
44.0961931564
 10
150.219384532
 20
44.2923416652
 10
149.8916798728
 20
44.489033864
 10
149.5803250133
 20
44.6860203731
 10
149.2855350665
 20
44.8835505723
 10
149.0046267536
 20
45.0801481611
 10
148.7375374323
 20
45.2755480712
 10
148.4843297449
 20
45.470015371
 10
148.2425083399
 20
45.6628689643
 10
148.0118644271
 20
45.8540490801
 10
147.7926067967
 20
46.0436154896
 10
147.5828664678
 20
46.23106641
 10
147.3822791246
 20
46.4165959709
 10
147.1912090829
 20
46.6000100427
 10
147.0088803086
 20
46.7802244543
 10
146.8355028995
 20
46.9569224076
 10
146.6708667579
 20
47.1304207007
 10
146.5135655564
 20
47.3005855568
 10
146.3635509542
 20
47.4673605213
 10
146.2208712921
 20
47.6308020489
 10
146.0842652657
 20
47.7909457261
 10
145.9534477299
 20
47.9480592081
 10
145.8287038298
 20
48.1018748399
 10
145.7096276958
 20
48.251625243
 10
145.5967320018
 20
48.396485457
 10
145.489504074
 20
48.5372804423
 10
145.3860000208
 20
48.6757177016
 10
145.2866203832
 20
48.8109389797
 10
145.1909646203
 20
48.9438025316
 10
145.0958872171
 20
49.0785906257
 10
145.0002765544
 20
49.2167041328
 10
144.9052442514
 20
49.356742182
 10
144.8109796518
 20
49.4987844282
 10
144.7172676703
 20
49.6432467911
 10
144.6243233921
 20
49.789713351
 10
144.5329814162
 20
49.9370160037
 10
144.4432722177
 20
50.0852332971
 10
144.3551653215
 20
50.2342866833
 10
144.2694039013
 20
50.3827724152
 10
144.1862233651
 20
50.5303612917
 10
144.1053883049
 20
50.6773825139
 10
144.0269356709
 20
50.8234199373
 10
143.951042603
 20
50.9681451779
 10
143.8775319612
 20
51.1118866199
 10
143.8059092764
 20
51.2552132709
 10
143.7354207107
 20
51.3998419576
 10
143.666820102
 20
51.5440558534
 10
143.6018744944
 20
51.6832734861
 10
143.5414599047
 20
51.8158096346
 10
143.4847003162
 20
51.9433495201
 10
143.4307347222
 20
52.0663673334
 10
143.3792761206
 20
52.1850211383
 10
143.3306115136
 20
52.299152871
 10
143.2847409012
 20
52.4087625316
  0
LWPOLYLINE
  5
440
100
AcDbEntity
  8
0
100
AcDbPolyline
 62
253
  6
CONTINUOUS
 90
97
 70
0
 10
171.4915362012
 20
48.2500428396
 10
171.4266349509
 20
48.119849931
 10
171.3579533658
 20
47.9852065687
 10
171.2853483851
 20
47.8461852891
 10
171.2079774439
 20
47.7017149478
 10
171.1263542069
 20
47.5530364586
 10
171.0424841738
 20
47.4036314639
 10
170.956679649
 20
47.2539194797
 10
170.8685787149
 20
47.1035431041
 10
170.7793690217
 20
46.9547325544
 10
170.6896636498
 20
46.8084175241
 10
170.5989428005
 20
46.6636698523
 10
170.5067385053
 20
46.5199182304
 10
170.4130165295
 20
46.3771500376
 10
170.3178343884
 20
46.2354257015
 10
170.2208200944
 20
46.0943083505
 10
170.121877364
 20
45.9537312911
 10
170.0210852171
 20
45.8138139042
 10
169.9183110994
 20
45.6744105217
 10
169.8134440448
 20
45.5354247169
 10
169.7065672369
 20
45.3970150674
 10
169.5978412061
 20
45.2594173446
 10
169.4872714047
 20
45.1226656329
 10
169.3748441734
 20
44.9867782668
 10
169.2607071468
 20
44.8519606161
 10
169.1448890762
 20
44.7182629586
 10
169.0273743071
 20
44.5856889511
 10
168.9082539739
 20
44.4543678331
 10
168.7875854167
 20
44.3243758833
 10
168.6653328627
 20
44.1956862153
 10
168.5414494519
 20
44.0682729068
 10
168.4159150664
 20
43.9421349964
 10
168.2887685291
 20
43.8173254245
 10
168.160050895
 20
43.6939002776
 10
168.0298534889
 20
43.571956905
 10
167.8981116254
 20
43.4514416793
 10
167.7646270666
 20
43.3321903325
 10
167.6290611788
 20
43.2139359982
 10
167.491758782
 20
43.0970136185
 10
167.3535655878
 20
42.9821410733
 10
167.2148920928
 20
42.8696237422
 10
167.0753983204
 20
42.7591523302
 10
166.9348206719
 20
42.6505040609
 10
166.7934451866
 20
42.5438579145
 10
166.6510359324
 20
42.4390511137
 10
166.5065114497
 20
42.3353952785
 10
166.3593376717
 20
42.2325980749
 10
166.2100343669
 20
42.1310630243
 10
166.0590888883
 20
42.0311661097
 10
165.9065822504
 20
41.932992544
 10
165.7524644008
 20
41.836517831
 10
165.5970470154
 20
41.7419248898
 10
165.4403878263
 20
41.6492523989
 10
165.2824740367
 20
41.5585022208
 10
165.1235217423
 20
41.4697845816
 10
164.9634619618
 20
41.3830590849
 10
164.8024151336
 20
41.2983953771
 10
164.6408944236
 20
41.216044562
 10
164.4789901232
 20
41.1360449886
 10
164.3166829758
 20
41.0583485803
 10
164.1543348697
 20
40.9830473467
 10
163.9924658
 20
40.910332577
 10
163.8306363764
 20
40.8399674105
 10
163.6677543184
 20
40.7714276719
 10
163.5035884685
 20
40.7046218002
 10
163.3384070227
 20
40.6396834952
 10
163.1718430088
 20
40.5764782559
 10
163.003534487
 20
40.5148998422
 10
162.8338730122
 20
40.4551236493
 10
162.6636265343
 20
40.3974250315
 10
162.4930528768
 20
40.3418822194
 10
162.3219495843
 20
40.2884198114
 10
162.1504041462
 20
40.2370541067
 10
161.9784863858
 20
40.1877991725
 10
161.8061805453
 20
40.1406433699
 10
161.6334452347
 20
40.0955644939
 10
161.4602750218
 20
40.0525587505
 10
161.2867264748
 20
40.0116383776
 10
161.1128502838
 20
39.9728065623
 10
160.9387144611
 20
39.9360738715
 10
160.7643020713
 20
39.9014340803
 10
160.5895362557
 20
39.8688649938
 10
160.4144201316
 20
39.8383634999
 10
160.2390021662
 20
39.8099354005
 10
160.0632729643
 20
39.7835746516
 10
159.8872413485
 20
39.7592814819
 10
159.7109494865
 20
39.7370605356
 10
159.5344377258
 20
39.7169130719
 10
159.3577215642
 20
39.698839694
 10
159.1808364263
 20
39.682843395
 10
159.0038526046
 20
39.6689269007
 10
158.8268022155
 20
39.657090277
 10
158.6497040114
 20
39.64733345
 10
158.47260826
 20
39.6396564685
 10
158.2955485462
 20
39.6340584023
 10
158.1185417439
 20
39.6305383144
 10
157.9416129502
 20
39.6290953507
  0
LINE
  5
441
100
AcDbEntity
  8
0
100
AcDbLine
 62
7
  6
CONTINUOUS
 10
158.5138665479
 20
52.5559886097
 11
158.4613364344
 21
52.5034584921
  0
LINE
  5
442
100
AcDbEntity
  8
0
100
AcDbLine
 62
7
  6
CONTINUOUS
 10
157.421889466
 20
51.4640115238
 11
157.3693593525
 21
51.4114814062
  0
LINE
  5
443
100
AcDbEntity
  8
0
100
AcDbLine
 62
7
  6
CONTINUOUS
 10
158.5981091664
 20
52.6402312295
 11
158.5416129502
 21
52.5837350143
  0
LINE
  5
444
100
AcDbEntity
  8
0
100
AcDbLine
 62
7
  6
CONTINUOUS
 10
157.3416129502
 20
51.3837350016
 11
157.285116734
 21
51.3272387863
  0
LINE
  5
445
100
AcDbEntity
  8
0
100
AcDbLine
 62
7
  6
CONTINUOUS
 10
156.7534511454
 20
52.3643141025
 11
156.7358947128
 21
52.3521619788
  0
LINE
  5
446
100
AcDbEntity
  8
0
100
AcDbLine
 62
253
  6
CONTINUOUS
 10
172.9953556402
 20
38.0351392131
 11
172.8981802808
 21
37.8094599832
  0
LINE
  5
447
100
AcDbEntity
  8
0
100
AcDbLine
 62
253
  6
CONTINUOUS
 10
173.6873058374
 20
37.8720926474
 11
173.585590496
 21
37.637678651
  0
LINE
  5
448
100
AcDbEntity
  8
0
100
AcDbLine
 62
253
  6
CONTINUOUS
 10
172.8981802808
 20
37.8094599832
 11
172.8050873011
 21
37.5962152778
  0
LINE
  5
449
100
AcDbEntity
  8
0
100
AcDbLine
 62
253
  6
CONTINUOUS
 10
173.585590496
 20
37.637678651
 11
173.4882812201
 21
37.416266846
  0
LINE
  5
44A
100
AcDbEntity
  8
0
100
AcDbLine
 62
253
  6
CONTINUOUS
 10
172.8050873011
 20
37.5962152778
 11
172.7156563879
 21
37.3939803218
  0
LINE
  5
44B
100
AcDbEntity
  8
0
100
AcDbLine
 62
253
  6
CONTINUOUS
 10
173.4882812201
 20
37.416266846
 11
173.3949424024
 21
37.2064263467
  0
LINE
  5
44C
100
AcDbEntity
  8
0
100
AcDbLine
 62
253
  6
CONTINUOUS
 10
172.7156563879
 20
37.3939803218
 11
172.6293828633
 21
37.2012414184
  0
LINE
  5
44D
100
AcDbEntity
  8
0
100
AcDbLine
 62
253
  6
CONTINUOUS
 10
173.3949424024
 20
37.2064263467
 11
173.3053049218
 21
37.0071776911
  0
LINE
  5
44E
100
AcDbEntity
  8
0
100
AcDbLine
 62
253
  6
CONTINUOUS
 10
172.6293828633
 20
37.2012414184
 11
172.5460501597
 21
37.0172187805
  0
LWPOLYLINE
  5
44F
100
AcDbEntity
  8
0
100
AcDbPolyline
 62
253
  6
CONTINUOUS
 90
3
 70
0
 10
173.3053049218
 20
37.0071776911
 10
173.2188013115
 20
36.816947618
 10
173.1766506414
 20
36.7249686553
  0
LINE
  5
450
100
AcDbEntity
  8
0
100
AcDbLine
 62
253
  6
CONTINUOUS
 10
172.5460501597
 20
37.0172187805
 11
172.4653285612
 21
36.8409020136
  0
LINE
  5
451
100
AcDbEntity
  8
0
100
AcDbLine
 62
253
  6
CONTINUOUS
 10
172.4653285612
 20
36.8409020136
 11
172.3874257486
 21
36.6724822867
  0
LINE
  5
452
100
AcDbEntity
  8
0
100
AcDbLine
 62
253
  6
CONTINUOUS
 10
172.3874257486
 20
36.6724822867
 11
172.3124881313
 21
36.5120267003
  0
LINE
  5
453
100
AcDbEntity
  8
0
100
AcDbLine
 62
253
  6
CONTINUOUS
 10
172.3124881313
 20
36.5120267003
 11
172.240735358
 21
36.3597773879
  0
LWPOLYLINE
  5
454
100
AcDbEntity
  8
0
100
AcDbPolyline
 62
253
  6
CONTINUOUS
 90
3
 70
0
 10
172.240735358
 20
36.3597773879
 10
172.1723784442
 20
36.215967362
 10
172.139514757
 20
36.1472515249
  0
LINE
  5
455
100
AcDbEntity
  8
0
100
AcDbLine
 62
7
  6
CONTINUOUS
 10
159.1473311854
 20
51.6153080356
 11
159.129774755
 21
51.6031559133
  0
LINE
  5
456
100
AcDbEntity
  8
0
100
AcDbLine
 62
7
  6
CONTINUOUS
 10
156.7534511454
 20
52.3643141025
 11
156.8042113671
 21
52.3914442187
  0
LINE
  5
457
100
AcDbEntity
  8
0
100
AcDbLine
 62
7
  6
CONTINUOUS
 10
159.129774755
 20
51.6031559133
 11
159.0790145333
 21
51.5760257971
  0
LINE
  5
458
100
AcDbEntity
  8
0
100
AcDbLine
 62
7
  6
CONTINUOUS
 10
156.8042113671
 20
52.3914442187
 11
156.9984803173
 21
52.4937805181
  0
LINE
  5
459
100
AcDbEntity
  8
0
100
AcDbLine
 62
7
  6
CONTINUOUS
 10
159.0790145333
 20
51.5760257971
 11
158.8847455831
 21
51.4736894978
  0
LINE
  5
45A
100
AcDbEntity
  8
0
100
AcDbLine
 62
7
  6
CONTINUOUS
 10
156.9984803173
 20
52.4937805181
 11
157.0889757587
 21
52.5406959945
  0
LINE
  5
45B
100
AcDbEntity
  8
0
100
AcDbLine
 62
7
  6
CONTINUOUS
 10
158.8847455831
 20
51.4736894978
 11
158.7942501417
 21
51.4267740213
  0
LINE
  5
45C
100
AcDbEntity
  8
0
100
AcDbLine
 62
7
  6
CONTINUOUS
 10
157.0889757587
 20
52.5406959945
 11
157.1773900521
 21
52.5859738882
  0
LINE
  5
45D
100
AcDbEntity
  8
0
100
AcDbLine
 62
7
  6
CONTINUOUS
 10
158.7942501417
 20
51.4267740213
 11
158.7058358483
 21
51.3814961276
  0
LINE
  5
45E
100
AcDbEntity
  8
0
100
AcDbLine
 62
7
  6
CONTINUOUS
 10
157.1773900521
 20
52.5859738882
 11
157.2490972398
 21
52.6222161631
  0
LINE
  5
45F
100
AcDbEntity
  8
0
100
AcDbLine
 62
7
  6
CONTINUOUS
 10
158.7058358483
 20
51.3814961276
 11
158.6341286606
 21
51.3452538528
  0
LINE
  5
460
100
AcDbEntity
  8
0
100
AcDbLine
 62
7
  6
CONTINUOUS
 10
157.2490972398
 20
52.6222161631
 11
157.2851169098
 21
52.640230886
  0
LINE
  5
461
100
AcDbEntity
  8
0
100
AcDbLine
 62
7
  6
CONTINUOUS
 10
158.6341286606
 20
51.3452538528
 11
158.5981089906
 21
51.3272391298
  0
LINE
  5
462
100
AcDbEntity
  8
0
100
AcDbLine
 62
7
  6
CONTINUOUS
 10
157.3693593695
 20
52.5559885043
 11
157.3416129502
 21
52.5423494443
  0
LINE
  5
463
100
AcDbEntity
  8
0
100
AcDbLine
 62
7
  6
CONTINUOUS
 10
158.5138665309
 20
51.4114815116
 11
158.5416129502
 21
51.4251205715
  0
LWPOLYLINE
  5
464
100
AcDbEntity
  8
TRASH
100
AcDbPolyline
 62
7
  6
CONTINUOUS
 90
3
 70
0
 10
156.7966156801
 20
52.2118832261
 10
156.9198717111
 20
52.2694676253
 10
157.0984875713
 20
52.3526472472
  0
LWPOLYLINE
  5
465
100
AcDbEntity
  8
TRASH
100
AcDbPolyline
 62
7
  6
CONTINUOUS
 90
3
 70
0
 10
159.0866102203
 20
51.7555867898
 10
158.9633541906
 20
51.6980023913
 10
158.784738329
 20
51.6148227686
  0
LINE
  5
466
100
AcDbEntity
  8
0
100
AcDbLine
 62
7
  6
CONTINUOUS
 10
158.1804353228
 20
53.1058412949
 11
158.2244723539
 21
53.1263293726
  0
LINE
  5
467
100
AcDbEntity
  8
TRASH
100
AcDbLine
 62
7
  6
CONTINUOUS
 10
157.0984875713
 20
52.3526472472
 11
157.3219113216
 21
52.4568380296
  0
LINE
  5
468
100
AcDbEntity
  8
TRASH
100
AcDbLine
 62
7
  6
CONTINUOUS
 10
158.784738329
 20
51.6148227686
 11
158.5613145786
 21
51.5106319862
  0
LINE
  5
469
100
AcDbEntity
  8
TRASH
100
AcDbLine
 62
7
  6
CONTINUOUS
 10
157.3219113216
 20
52.4568380296
 11
157.421886168
 21
52.5034524429
  0
LINE
  5
46A
100
AcDbEntity
  8
TRASH
100
AcDbLine
 62
7
  6
CONTINUOUS
 10
158.5613145786
 20
51.5106319862
 11
158.4613397324
 21
51.464017573
  0
LWPOLYLINE
  5
46B
100
AcDbEntity
  8
0
100
AcDbPolyline
 62
253
  6
CONTINUOUS
 90
10
 70
0
 10
143.7501196349
 20
48.0021707892
 10
143.8230398773
 20
48.0351966997
 10
143.8966535525
 20
48.0673050651
 10
143.970485879
 20
48.0982887387
 10
144.0440606662
 20
48.127947828
 10
144.1169033835
 20
48.1560909829
 10
144.1885442217
 20
48.1825366307
 10
144.2585211245
 20
48.2071141474
 10
144.3263827695
 20
48.2296649584
 10
144.391691477
 20
48.2500435608
  0
LINE
  5
46C
100
AcDbEntity
  8
0
100
AcDbLine
 62
7
  6
CONTINUOUS
 10
158.1903501059
 20
53.1375350719
 11
158.2108770826
 21
53.1464380846
  0
LINE
  5
46D
100
AcDbEntity
  8
0
100
AcDbLine
 62
7
  6
CONTINUOUS
 10
158.1697611683
 20
53.128732278
 11
158.1903501059
 21
53.1375350719
  0
LWPOLYLINE
  5
46E
100
AcDbEntity
  8
0
100
AcDbPolyline
 62
253
  6
CONTINUOUS
 90
7
 70
0
 10
139.717104956
 20
44.9611856346
 10
139.7290369349
 20
44.9662223165
 10
139.7478265105
 20
44.9730974076
 10
139.7733377316
 20
44.9817611637
 10
139.8053860129
 20
44.9921508986
 10
139.8437394704
 20
45.0041914378
 10
139.8881205992
 20
45.0177956626
  0
LINE
  5
46F
100
AcDbEntity
  8
0
100
AcDbLine
 62
253
  6
CONTINUOUS
 10
173.1766506414
 20
36.7249686553
 11
173.0943904509
 21
36.5467849766
  0
LINE
  5
470
100
AcDbEntity
  8
0
100
AcDbLine
 62
253
  6
CONTINUOUS
 10
173.0943904509
 20
36.5467849766
 11
173.0150511023
 21
36.3765505457
  0
LINE
  5
471
100
AcDbEntity
  8
0
100
AcDbLine
 62
253
  6
CONTINUOUS
 10
173.0150511023
 20
36.3765505457
 11
172.9387623929
 21
36.2143304444
  0
LINE
  5
472
100
AcDbEntity
  8
0
100
AcDbLine
 62
253
  6
CONTINUOUS
 10
172.9387623929
 20
36.2143304444
 11
172.8657368384
 21
36.0603708718
  0
LINE
  5
473
100
AcDbEntity
  8
0
100
AcDbLine
 62
253
  6
CONTINUOUS
 10
172.8657368384
 20
36.0603708718
 11
172.7961832361
 21
35.9149106282
  0
LINE
  5
474
100
AcDbEntity
  8
0
100
AcDbLine
 62
253
  6
CONTINUOUS
 10
172.139514757
 20
36.1472515249
 11
172.0765369986
 21
36.0163421043
  0
LINE
  5
475
100
AcDbEntity
  8
0
100
AcDbLine
 62
253
  6
CONTINUOUS
 10
172.7961832361
 20
35.9149106282
 11
172.6987079488
 21
35.7129520638
  0
LINE
  5
476
100
AcDbEntity
  8
0
100
AcDbLine
 62
253
  6
CONTINUOUS
 10
172.0765369986
 20
36.0163421043
 11
171.9890422568
 21
35.8361858613
  0
LINE
  5
477
100
AcDbEntity
  8
0
100
AcDbLine
 62
253
  6
CONTINUOUS
 10
172.6987079488
 20
35.7129520638
 11
172.6098334508
 21
35.530697467
  0
LINE
  5
478
100
AcDbEntity
  8
0
100
AcDbLine
 62
253
  6
CONTINUOUS
 10
171.9890422568
 20
35.8361858613
 11
171.9100559741
 21
35.675272213
  0
LINE
  5
479
100
AcDbEntity
  8
0
100
AcDbLine
 62
253
  6
CONTINUOUS
 10
172.6098334508
 20
35.530697467
 11
172.5297347624
 21
35.3679395247
  0
LINE
  5
47A
100
AcDbEntity
  8
0
100
AcDbLine
 62
253
  6
CONTINUOUS
 10
171.9100559741
 20
35.675272213
 11
171.8395761028
 21
35.5330159212
  0
LINE
  5
47B
100
AcDbEntity
  8
0
100
AcDbLine
 62
253
  6
CONTINUOUS
 10
172.5297347624
 20
35.3679395247
 11
172.4364394701
 21
35.1801137492
  0
LINE
  5
47C
100
AcDbEntity
  8
0
100
AcDbLine
 62
253
  6
CONTINUOUS
 10
171.8395761028
 20
35.5330159212
 11
171.7572399708
 21
35.368374425
  0
LINE
  5
47D
100
AcDbEntity
  8
0
100
AcDbLine
 62
253
  6
CONTINUOUS
 10
172.4364394701
 20
35.1801137492
 11
172.3558784375
 21
35.0194013192
  0
LINE
  5
47E
100
AcDbEntity
  8
0
100
AcDbLine
 62
253
  6
CONTINUOUS
 10
171.7572399708
 20
35.368374425
 11
171.6663725654
 21
35.1883226915
  0
LINE
  5
47F
100
AcDbEntity
  8
0
100
AcDbLine
 62
253
  6
CONTINUOUS
 10
172.3558784375
 20
35.0194013192
 11
172.2656495625
 21
34.8409911796
  0
LINE
  5
480
100
AcDbEntity
  8
0
100
AcDbLine
 62
253
  6
CONTINUOUS
 10
171.6663725654
 20
35.1883226915
 11
171.5802132637
 21
35.0188563115
  0
LINE
  5
481
100
AcDbEntity
  8
0
100
AcDbLine
 62
253
  6
CONTINUOUS
 10
172.2656495625
 20
34.8409911796
 11
172.1781720673
 21
34.6696044491
  0
LINE
  5
482
100
AcDbEntity
  8
0
100
AcDbLine
 62
253
  6
CONTINUOUS
 10
171.5802132637
 20
35.0188563115
 11
171.493782098
 21
34.8500923004
  0
LINE
  5
483
100
AcDbEntity
  8
0
100
AcDbLine
 62
253
  6
CONTINUOUS
 10
172.1781720673
 20
34.6696044491
 11
172.0900552268
 21
34.4985236849
  0
LINE
  5
484
100
AcDbEntity
  8
0
100
AcDbLine
 62
253
  6
CONTINUOUS
 10
171.493782098
 20
34.8500923004
 11
171.3895160938
 21
34.6481041524
  0
LINE
  5
485
100
AcDbEntity
  8
0
100
AcDbLine
 62
253
  6
CONTINUOUS
 10
172.0900552268
 20
34.4985236849
 11
172.0011586909
 21
34.3274981404
  0
LINE
  5
486
100
AcDbEntity
  8
0
100
AcDbLine
 62
253
  6
CONTINUOUS
 10
171.3895160938
 20
34.6481041524
 11
171.3543471249
 21
34.5807025971
  0
LINE
  5
487
100
AcDbEntity
  8
0
100
AcDbLine
 62
253
  6
CONTINUOUS
 10
172.0011586909
 20
34.3274981404
 11
171.9117203134
 21
34.1569772612
  0
LINE
  5
488
100
AcDbEntity
  8
0
100
AcDbLine
 62
253
  6
CONTINUOUS
 10
171.9117203134
 20
34.1569772612
 11
171.8224357479
 21
33.9880944246
  0
LWPOLYLINE
  5
489
100
AcDbEntity
  8
0
100
AcDbPolyline
 62
253
  6
CONTINUOUS
 90
3
 70
0
 10
171.3543471249
 20
34.5807025971
 10
171.3186682027
 20
34.5132046148
 10
171.3005210139
 20
34.4793907767
  0
LINE
  5
48A
100
AcDbEntity
  8
0
100
AcDbLine
 62
253
  6
CONTINUOUS
 10
171.8224357479
 20
33.9880944246
 11
171.7151584277
 21
33.7865848705
  0
LINE
  5
48B
100
AcDbEntity
  8
0
100
AcDbLine
 62
253
  6
CONTINUOUS
 10
171.7151584277
 20
33.7865848705
 11
171.6622783769
 21
33.6877680522
  0
LWPOLYLINE
  5
48C
100
AcDbEntity
  8
0
100
AcDbPolyline
 62
253
  6
CONTINUOUS
 90
3
 70
0
 10
171.3005210139
 20
34.4793907767
 10
171.2636023919
 20
34.4115957628
 10
171.2448184911
 20
34.377534955
  0
LINE
  5
48D
100
AcDbEntity
  8
0
100
AcDbLine
 62
253
  6
CONTINUOUS
 10
171.2448184911
 20
34.377534955
 11
171.2066104651
 21
34.3091651005
  0
LWPOLYLINE
  5
48E
100
AcDbEntity
  8
0
100
AcDbPolyline
 62
253
  6
CONTINUOUS
 90
37
 70
0
 10
171.6622784225
 20
33.6877680276
 10
171.5533374435
 20
33.4959883148
 10
171.4395343599
 20
33.3159005263
 10
171.3219923917
 20
33.147337336
 10
171.2019041549
 20
32.9902407537
 10
171.0801409289
 20
32.8441285501
 10
170.9571804875
 20
32.7081602447
 10
170.8338780324
 20
32.5820560579
 10
170.7109264734
 20
32.4653981097
 10
170.5883419547
 20
32.3572110954
 10
170.4667249022
 20
32.2571756307
 10
170.3465808236
 20
32.1649167033
 10
170.2275902398
 20
32.0794980954
 10
170.110073217
 20
32.000569784
 10
169.9944699342
 20
31.9278817159
 10
169.880501556
 20
31.8607664234
 10
169.7684094474
 20
31.798941273
 10
169.6584895399
 20
31.7421660525
 10
169.5504561731
 20
31.6899274267
 10
169.4445124376
 20
31.6420023427
 10
169.3408365974
 20
31.5981651015
 10
169.2390430854
 20
31.5579792609
 10
169.1391889692
 20
31.5212325281
 10
169.0414816314
 20
31.4877756441
 10
168.9457197947
 20
31.4573288645
 10
168.8519194456
 20
31.4297098101
 10
168.760255931
 20
31.4047890581
 10
168.6707456943
 20
31.3823938434
 10
168.5834357843
 20
31.3623698086
 10
168.4984222856
 20
31.3445776361
 10
168.4157833788
 20
31.328874029
 10
168.3355935598
 20
31.3151212294
 10
168.2578828371
 20
31.3031773817
 10
168.1826532585
 20
31.2928992368
 10
168.1099289741
 20
31.2841555696
 10
168.039757163
 20
31.2768250105
 10
167.9721668234
 20
31.2707869077
  0
LINE
  5
48F
100
AcDbEntity
  8
0
100
AcDbLine
 62
253
  6
CONTINUOUS
 10
171.2066104651
 20
34.3091651005
 11
171.1675921238
 21
34.2403865562
  0
LWPOLYLINE
  5
490
100
AcDbEntity
  8
0
100
AcDbPolyline
 62
253
  6
CONTINUOUS
 90
3
 70
0
 10
171.1675921238
 20
34.2403865562
 10
171.0503907105
 20
34.0353864443
 10
171.031147641
 20
34.0017973931
  0
LWPOLYLINE
  5
491
100
AcDbEntity
  8
0
100
AcDbPolyline
 62
253
  6
CONTINUOUS
 90
37
 70
0
 10
171.031147641
 20
34.0017973931
 10
170.9355738278
 20
33.8443004287
 10
170.8370837311
 20
33.6962745448
 10
170.7363214526
 20
33.5575896114
 10
170.6338835854
 20
33.4282782485
 10
170.5303760917
 20
33.3079491621
 10
170.4263933318
 20
33.1957982003
 10
170.3225152833
 20
33.091630288
 10
170.2190982246
 20
32.9951705128
 10
170.116294328
 20
32.9055128715
 10
170.0145128954
 20
32.8224265598
 10
169.9140280218
 20
32.7456779666
 10
169.8146802549
 20
32.6744220439
 10
169.7166934474
 20
32.6083966064
 10
169.6203372287
 20
32.5474500949
 10
169.5254375248
 20
32.4909732698
 10
169.4321594211
 20
32.4387592589
 10
169.3406935278
 20
32.3906554778
 10
169.2508461757
 20
32.3461924213
 10
169.162757748
 20
32.3052006869
 10
169.076542577
 20
32.2675409345
 10
168.9919282776
 20
32.2328324488
 10
168.908957476
 20
32.200907648
 10
168.8277711082
 20
32.1716620976
 10
168.7482169564
 20
32.1448495916
 10
168.6703037628
 20
32.120336424
 10
168.5941567484
 20
32.0980281088
 10
168.51978328
 20
32.0777581684
 10
168.4472337926
 20
32.0594401264
 10
168.3765592522
 20
32.0429523712
 10
168.3077575602
 20
32.0280960184
 10
168.2408400701
 20
32.0147965693
 10
168.1758672499
 20
32.0029911482
 10
168.1129023816
 20
31.9925186549
 10
168.0519833068
 20
31.9832765445
 10
167.9931235118
 20
31.9752208104
 10
167.9363459125
 20
31.9682551999
  0
LINE
  5
492
100
AcDbEntity
  8
0
100
AcDbLine
 62
7
  6
CONTINUOUS
 10
157.7027905776
 20
50.8616287209
 11
157.6587535465
 21
50.8411406433
  0
LINE
  5
493
100
AcDbEntity
  8
0
100
AcDbLine
 62
7
  6
CONTINUOUS
 10
157.6928757859
 20
50.8299349566
 11
157.6723488111
 21
50.8210319412
  0
LINE
  5
494
100
AcDbEntity
  8
0
100
AcDbLine
 62
7
  6
CONTINUOUS
 10
157.7134647321
 20
50.8387377378
 11
157.6928757859
 21
50.8299349566
  0
LINE
  5
495
100
AcDbEntity
  8
0
100
AcDbLine
 62
253
  6
CONTINUOUS
 10
139.8881205992
 20
45.0177956626
 11
139.9936401105
 21
45.0492908364
  0
LWPOLYLINE
  5
496
100
AcDbEntity
  8
0
100
AcDbPolyline
 62
253
  6
CONTINUOUS
 90
3
 70
0
 10
139.9936401105
 20
45.0492908364
 10
140.1188961431
 20
45.0857265414
 10
140.1878140622
 20
45.1054729214
  0
LINE
  5
497
100
AcDbEntity
  8
0
100
AcDbLine
 62
253
  6
CONTINUOUS
 10
144.2209482639
 20
33.6877665645
 11
144.1535289828
 21
33.6513415862
  0
LINE
  5
498
100
AcDbEntity
  8
0
100
AcDbLine
 62
253
  6
CONTINUOUS
 10
144.1535289828
 20
33.6513415862
 11
143.8994338055
 21
33.5141675775
  0
LINE
  5
499
100
AcDbEntity
  8
0
100
AcDbLine
 62
253
  6
CONTINUOUS
 10
144.7237564958
 20
33.9346221112
 11
144.8520782574
 21
34.0017973918
  0
LINE
  5
49A
100
AcDbEntity
  8
0
100
AcDbLine
 62
253
  6
CONTINUOUS
 10
144.6044189699
 20
33.8728838293
 11
144.7237564958
 21
33.9346221112
  0
LWPOLYLINE
  5
49B
100
AcDbEntity
  8
0
100
AcDbPolyline
 62
253
  6
CONTINUOUS
 90
11
 70
0
 10
144.2209898333
 20
33.6876891897
 10
144.2321027883
 20
33.6914509821
 10
144.2484388785
 20
33.6980448586
 10
144.2698992984
 20
33.7074309375
 10
144.2963542487
 20
33.7195524488
 10
144.3276437214
 20
33.7343360775
 10
144.3635784683
 20
33.7516924077
 10
144.4039411446
 20
33.7715164627
 10
144.4484876243
 20
33.7936883403
 10
144.4969484764
 20
33.818073938
 10
144.6044189699
 20
33.8728838293
  0
LWPOLYLINE
  5
49C
100
AcDbEntity
  8
0
100
AcDbPolyline
 62
253
  6
CONTINUOUS
 90
13
 70
0
 10
98.842722986
 20
31.2707840312
 10
98.938103197
 20
31.2862095552
 10
99.0315634598
 20
31.3107380287
 10
99.1222311764
 20
31.3441404366
 10
99.2092598215
 20
31.3861049118
 10
99.2918368465
 20
31.436239647
 10
99.3691912653
 20
31.4940765525
 10
99.4406008536
 20
31.5590756267
 10
99.5053988909
 20
31.6306299979
 10
99.5629803864
 20
31.7080715906
 10
99.6128077267
 20
31.7906773627
 10
99.6544156959
 20
31.8776760562
 10
99.6874158189
 20
31.9682553984
  0
LWPOLYLINE
  5
49D
100
AcDbEntity
  8
0
100
AcDbPolyline
 62
7
  6
CONTINUOUS
 90
13
 70
0
 10
98.9334045033
 20
30.8597025979
 10
99.0114014754
 20
30.8721847872
 10
99.095186718
 20
30.8928084199
 10
99.1768821727
 20
30.9205780999
 10
99.2558795884
 20
30.9552870721
 10
99.3315908019
 20
30.9966769162
 10
99.4034521168
 20
31.0444394704
 10
99.4709285004
 20
31.0982191257
 10
99.5335175678
 20
31.157615474
 10
99.5907533213
 20
31.2221862887
 10
99.642209621
 20
31.2914508176
 10
99.6875033566
 20
31.3648933622
 10
99.7262973007
 20
31.441967117
  0
LWPOLYLINE
  5
49E
100
AcDbEntity
  8
0
100
AcDbPolyline
 62
253
  6
CONTINUOUS
 90
10
 70
0
 10
98.8427222465
 20
31.2707868999
 10
98.1102091748
 20
31.1943439867
 10
97.3768031645
 20
31.1268666005
 10
96.6426147076
 20
31.0683651475
 10
95.9077520733
 20
31.0188486474
 10
95.172328325
 20
30.9783248925
 10
94.4364613194
 20
30.9468001599
 10
93.7002642979
 20
30.9242791287
 10
92.9638458542
 20
30.9107651668
 10
92.227316962
 20
30.906260291
  0
LINE
  5
49F
100
AcDbEntity
  8
0
100
AcDbLine
 62
7
  6
CONTINUOUS
 10
96.0291857254
 20
27.7217642636
 11
91.487316962
 21
27.4837350079
  0
LINE
  5
4A0
100
AcDbEntity
  8
0
100
AcDbLine
 62
253
  6
CONTINUOUS
 10
96.787316962
 20
28.5206678914
 11
91.487316962
 21
28.2848328847
  0
LINE
  5
4A1
100
AcDbEntity
  8
0
100
AcDbLine
 62
253
  6
CONTINUOUS
 10
97.1792764118
 20
30.5681542021
 11
97.537316962
 21
30.582046338
  0
LINE
  5
4A2
100
AcDbEntity
  8
0
100
AcDbLine
 62
253
  6
CONTINUOUS
 10
97.3076446029
 20
30.7175906421
 11
97.6736128139
 21
30.7314307721
  0
LINE
  5
4A3
100
AcDbEntity
  8
0
100
AcDbLine
 62
253
  6
CONTINUOUS
 10
96.8434098447
 20
30.5561418814
 11
97.1792764118
 21
30.5681542021
  0
LINE
  5
4A4
100
AcDbEntity
  8
0
100
AcDbLine
 62
253
  6
CONTINUOUS
 10
96.9642606565
 20
30.7056270754
 11
97.3076446029
 21
30.7175906421
  0
LINE
  5
4A5
100
AcDbEntity
  8
0
100
AcDbLine
 62
253
  6
CONTINUOUS
 10
96.562328565
 20
30.5468335247
 11
96.8434098447
 21
30.5561418814
  0
LINE
  5
4A6
100
AcDbEntity
  8
0
100
AcDbLine
 62
253
  6
CONTINUOUS
 10
96.6767708143
 20
30.6963737279
 11
96.9642606565
 21
30.7056270754
  0
LINE
  5
4A7
100
AcDbEntity
  8
0
100
AcDbLine
 62
253
  6
CONTINUOUS
 10
96.344857748
 20
30.6865514128
 11
96.6767708143
 21
30.6963737279
  0
LWPOLYLINE
  5
4A8
100
AcDbEntity
  8
0
100
AcDbPolyline
 62
253
  6
CONTINUOUS
 90
4
 70
0
 10
95.8713656196
 20
30.5269823666
 10
96.0593599043
 20
30.5319525089
 10
96.2375001848
 20
30.5370059097
 10
96.562328565
 20
30.5468335247
  0
LWPOLYLINE
  5
4A9
100
AcDbEntity
  8
0
100
AcDbPolyline
 62
253
  6
CONTINUOUS
 90
13
 70
0
 10
90.4938214106
 20
30.4901539548
 10
90.2233892757
 20
30.4894024644
 10
89.9545115737
 20
30.4892720398
 10
89.6875737672
 20
30.4897888145
 10
89.4233953097
 20
30.490926655
 10
89.163195891
 20
30.4926071604
 10
88.9075878091
 20
30.4948480563
 10
88.6571040151
 20
30.497631617
 10
88.412774365
 20
30.5008262643
 10
88.1753238084
 20
30.5044393031
 10
87.945031238
 20
30.5084634284
 10
87.7222173791
 20
30.5127451468
 10
87.5072545903
 20
30.5172914052
  0
LWPOLYLINE
  5
4AA
100
AcDbEntity
  8
0
100
AcDbPolyline
 62
253
  6
CONTINUOUS
 90
14
 70
0
 10
90.4691990053
 20
30.6399449716
 10
90.1930856176
 20
30.6391956873
 10
89.9191176258
 20
30.6390703938
 10
89.6464737834
 20
30.6395682065
 10
89.3759859814
 20
30.640685453
 10
89.110138487
 20
30.6423772999
 10
88.849044763
 20
30.6446030052
 10
88.5925981821
 20
30.6473487345
 10
88.3429505012
 20
30.6505521005
 10
88.1003738886
 20
30.6541574519
 10
87.8645977291
 20
30.6581339959
 10
87.6369570613
 20
30.6624148359
 10
87.4173847045
 20
30.666950069
 10
87.2059447194
 20
30.6717021484
  0
LINE
  5
4AB
100
AcDbEntity
  8
0
100
AcDbLine
 62
253
  6
CONTINUOUS
 10
91.3132507844
 20
30.4936757488
 11
90.4938214106
 21
30.4901539548
  0
LINE
  5
4AC
100
AcDbEntity
  8
0
100
AcDbLine
 62
253
  6
CONTINUOUS
 10
91.3089304483
 20
30.6434760681
 11
90.4691990053
 21
30.6399449716
  0
LINE
  5
4AD
100
AcDbEntity
  8
0
100
AcDbLine
 62
253
  6
CONTINUOUS
 10
86.187316962
 20
28.8337350079
 11
96.787316962
 21
28.8337350079
  0
LINE
  5
4AE
100
AcDbEntity
  8
0
100
AcDbLine
 62
253
  6
CONTINUOUS
 10
86.0688959093
 20
28.9803732365
 11
96.9057380146
 21
28.9803732365
  0
LINE
  5
4AF
100
AcDbEntity
  8
0
100
AcDbLine
 62
253
  6
CONTINUOUS
 10
85.437316962
 20
29.762443789
 11
97.537316962
 21
29.762443789
  0
LINE
  5
4B0
100
AcDbEntity
  8
0
100
AcDbLine
 62
253
  6
CONTINUOUS
 10
90.747316962
 20
30.906260291
 11
92.227316962
 21
30.906260291
  0
LINE
  5
4B1
100
AcDbEntity
  8
0
100
AcDbLine
 62
253
  6
CONTINUOUS
 10
91.3089304483
 20
30.6434760681
 11
91.6061931073
 21
30.643549817
  0
LINE
  5
4B2
100
AcDbEntity
  8
0
100
AcDbLine
 62
253
  6
CONTINUOUS
 10
91.3132507844
 20
30.4936757488
 11
91.6033070232
 21
30.4937495557
  0
LWPOLYLINE
  5
4B3
100
AcDbEntity
  8
0
100
AcDbPolyline
 62
253
  6
CONTINUOUS
 90
14
 70
0
 10
92.4808125133
 20
30.4901539548
 10
92.7512446482
 20
30.4894024644
 10
93.0201223502
 20
30.4892720398
 10
93.2870601567
 20
30.4897888145
 10
93.5512386142
 20
30.490926655
 10
93.8114380329
 20
30.4926071604
 10
94.0670461148
 20
30.4948480563
 10
94.3175299089
 20
30.497631617
 10
94.561859559
 20
30.5008262643
 10
94.7993101155
 20
30.5044393031
 10
95.0296026859
 20
30.5084634284
 10
95.2524165449
 20
30.5127451468
 10
95.4673793336
 20
30.5172914052
 10
95.8713656196
 20
30.5269823666
  0
LWPOLYLINE
  5
4B4
100
AcDbEntity
  8
0
100
AcDbPolyline
 62
253
  6
CONTINUOUS
 90
16
 70
0
 10
92.5054349186
 20
30.6399449716
 10
92.7815483063
 20
30.6391956873
 10
93.0555162981
 20
30.6390703938
 10
93.3281601405
 20
30.6395682065
 10
93.5986479425
 20
30.640685453
 10
93.8644954369
 20
30.6423772999
 10
94.125589161
 20
30.6446030052
 10
94.3820357418
 20
30.6473487345
 10
94.6316834228
 20
30.6505521005
 10
94.8742600353
 20
30.6541574519
 10
95.1100361949
 20
30.6581339959
 10
95.3376768626
 20
30.6624148359
 10
95.5572492195
 20
30.666950069
 10
95.7686892045
 20
30.6717021484
 10
95.9704673308
 20
30.6765894059
 10
96.344857748
 20
30.6865514128
  0
LINE
  5
4B5
100
AcDbEntity
  8
0
100
AcDbLine
 62
253
  6
CONTINUOUS
 10
91.6033070232
 20
30.4937495557
 11
91.8951809974
 21
30.4930806268
  0
LINE
  5
4B6
100
AcDbEntity
  8
0
100
AcDbLine
 62
253
  6
CONTINUOUS
 10
91.6061931073
 20
30.643549817
 11
91.9053080371
 21
30.6428816375
  0
LINE
  5
4B7
100
AcDbEntity
  8
0
100
AcDbLine
 62
253
  6
CONTINUOUS
 10
91.8951809974
 20
30.4930806268
 11
92.4808125133
 21
30.4901539548
  0
LINE
  5
4B8
100
AcDbEntity
  8
0
100
AcDbLine
 62
253
  6
CONTINUOUS
 10
91.9053080371
 20
30.6428816375
 11
92.5054349186
 21
30.6399449716
  0
LWPOLYLINE
  5
4B9
100
AcDbEntity
  8
0
100
AcDbPolyline
 62
253
  6
CONTINUOUS
 90
3
 70
0
 10
87.5072545903
 20
30.5172914052
 10
87.1032683043
 20
30.5269823666
 10
86.9152740197
 20
30.5319525089
  0
LINE
  5
4BA
100
AcDbEntity
  8
0
100
AcDbLine
 62
253
  6
CONTINUOUS
 10
87.2059447194
 20
30.6717021484
 11
86.8121442573
 21
30.6815511285
  0
LINE
  5
4BB
100
AcDbEntity
  8
0
100
AcDbLine
 62
253
  6
CONTINUOUS
 10
86.8121442573
 20
30.6815511285
 11
86.4582964414
 21
30.6915125673
  0
LINE
  5
4BC
100
AcDbEntity
  8
0
100
AcDbLine
 62
253
  6
CONTINUOUS
 10
86.9152740197
 20
30.5319525089
 11
86.5693430653
 21
30.5419689129
  0
LINE
  5
4BD
100
AcDbEntity
  8
0
100
AcDbLine
 62
253
  6
CONTINUOUS
 10
86.4582964414
 20
30.6915125673
 11
86.148307716
 21
30.7010995105
  0
LINE
  5
4BE
100
AcDbEntity
  8
0
100
AcDbLine
 62
253
  6
CONTINUOUS
 10
86.5693430653
 20
30.5419689129
 11
86.2662153617
 21
30.5516077391
  0
LINE
  5
4BF
100
AcDbEntity
  8
0
100
AcDbLine
 62
253
  6
CONTINUOUS
 10
86.148307716
 20
30.7010995105
 11
85.8840857294
 21
30.7099103564
  0
LINE
  5
4C0
100
AcDbEntity
  8
0
100
AcDbLine
 62
253
  6
CONTINUOUS
 10
86.2662153617
 20
30.5516077391
 11
86.0075981725
 21
30.5604278776
  0
LINE
  5
4C1
100
AcDbEntity
  8
0
100
AcDbLine
 62
253
  6
CONTINUOUS
 10
85.8840857294
 20
30.7099103564
 11
85.5768626213
 21
30.7208932858
  0
LINE
  5
4C2
100
AcDbEntity
  8
0
100
AcDbLine
 62
253
  6
CONTINUOUS
 10
86.0075981725
 20
30.5604278776
 11
85.7071105292
 21
30.5714583092
  0
LINE
  5
4C3
100
AcDbEntity
  8
0
100
AcDbLine
 62
253
  6
CONTINUOUS
 10
85.5768626213
 20
30.7208932858
 11
85.30102111
 21
30.7314307721
  0
LINE
  5
4C4
100
AcDbEntity
  8
0
100
AcDbLine
 62
253
  6
CONTINUOUS
 10
85.7071105292
 20
30.5714583092
 11
85.437316962
 21
30.582046338
  0
LINE
  5
4C5
100
AcDbEntity
  8
0
100
AcDbLine
 62
253
  6
CONTINUOUS
 10
90.242543438
 20
28.340229188
 11
91.487316962
 21
28.2848328847
  0
LINE
  5
4C6
100
AcDbEntity
  8
0
100
AcDbLine
 62
253
  6
CONTINUOUS
 10
86.187316962
 20
28.5206678914
 11
90.242543438
 21
28.340229188
  0
LINE
  5
4C7
100
AcDbEntity
  8
0
100
AcDbLine
 62
7
  6
CONTINUOUS
 10
86.9454481985
 20
27.7217642636
 11
91.487316962
 21
27.4837350079
  0
LWPOLYLINE
  5
4C8
100
AcDbEntity
  8
0
100
AcDbPolyline
 62
253
  6
CONTINUOUS
 90
10
 70
0
 10
84.1319116774
 20
31.2707868999
 10
84.8644247491
 20
31.1943439867
 10
85.5978307594
 20
31.1268666005
 10
86.3320192163
 20
31.0683651475
 10
87.0668818506
 20
31.0188486474
 10
87.8023055989
 20
30.9783248925
 10
88.5381726045
 20
30.9468001599
 10
89.274369626
 20
30.9242791287
 10
90.0107880697
 20
30.9107651668
 10
90.747316962
 20
30.906260291
  0
LWPOLYLINE
  5
4C9
100
AcDbEntity
  8
0
100
AcDbPolyline
 62
7
  6
CONTINUOUS
 90
13
 70
0
 10
84.041239602
 20
30.8597013788
 10
83.9632324485
 20
30.8721847872
 10
83.8794472059
 20
30.8928084199
 10
83.7977517512
 20
30.9205780999
 10
83.7187543355
 20
30.9552870721
 10
83.643043122
 20
30.9966769162
 10
83.5711818072
 20
31.0444394704
 10
83.5037054235
 20
31.0982191257
 10
83.4411163562
 20
31.157615474
 10
83.3838806026
 20
31.2221862887
 10
83.332424303
 20
31.2914508176
 10
83.2871305673
 20
31.3648933622
 10
83.2483366232
 20
31.441967117
  0
LWPOLYLINE
  5
4CA
100
AcDbEntity
  8
0
100
AcDbPolyline
 62
253
  6
CONTINUOUS
 90
13
 70
0
 10
84.131910938
 20
31.2707840312
 10
84.0365307269
 20
31.2862095552
 10
83.9430704641
 20
31.3107380287
 10
83.8524027475
 20
31.3441404366
 10
83.7653741024
 20
31.3861049118
 10
83.6827970775
 20
31.436239647
 10
83.6054426586
 20
31.4940765525
 10
83.5340330703
 20
31.5590756267
 10
83.469235033
 20
31.6306299979
 10
83.4116535375
 20
31.7080715906
 10
83.3618261972
 20
31.7906773627
 10
83.320218228
 20
31.8776760562
 10
83.287218105
 20
31.9682553984
  0
LWPOLYLINE
  5
4CB
100
AcDbEntity
  8
0
100
AcDbPolyline
 62
253
  6
CONTINUOUS
 90
16
 70
0
 10
98.1067348816
 20
33.6513424138
 10
98.9157775077
 20
33.6914520512
 10
98.9915266079
 20
33.6980459849
 10
99.0656860684
 20
33.7074321035
 10
99.1378073518
 20
33.7195536373
 10
99.2074542482
 20
33.7343372718
 10
99.2742055136
 20
33.7516935914
 10
99.3376574172
 20
33.7715176203
 10
99.3974261842
 20
33.7936894569
 10
99.453150316
 20
33.818075
 10
99.5044927774
 20
33.8445267588
 10
99.5511430346
 20
33.8728847456
 10
99.5928189337
 20
33.9029774433
 10
99.629268407
 20
33.9346228427
 10
99.6602709979
 20
33.9676295436
 10
99.6856391938
 20
34.0017979122
  0
LWPOLYLINE
  5
4CC
100
AcDbEntity
  8
0
100
AcDbPolyline
 62
253
  6
CONTINUOUS
 90
9
 70
0
 10
98.1067348816
 20
33.6513424138
 10
97.373703973
 20
33.6191941383
 10
96.6399163128
 20
33.5913282595
 10
95.9054888676
 20
33.5677523541
 10
95.1705257726
 20
33.5484666998
 10
94.4351182716
 20
33.5334643951
 10
93.6993705737
 20
33.5227444955
 10
92.9633998804
 20
33.5163118918
 10
92.227316962
 20
33.5141675775
  0
LINE
  5
4CD
100
AcDbEntity
  8
0
100
AcDbLine
 62
253
  6
CONTINUOUS
 10
90.747316962
 20
33.5141675775
 11
92.227316962
 21
33.5141675775
  0
LWPOLYLINE
  5
4CE
100
AcDbEntity
  8
0
100
AcDbPolyline
 62
253
  6
CONTINUOUS
 90
10
 70
0
 10
84.0588564162
 20
33.6914520512
 10
84.8678990423
 20
33.6513424138
 10
85.6009299509
 20
33.6191941383
 10
86.3347176111
 20
33.5913282595
 10
87.0691450564
 20
33.5677523541
 10
87.8041081513
 20
33.5484666998
 10
88.5395156523
 20
33.5334643951
 10
89.2752633503
 20
33.5227444955
 10
90.0112340435
 20
33.5163118918
 10
90.747316962
 20
33.5141675775
  0
LWPOLYLINE
  5
4CF
100
AcDbEntity
  8
0
100
AcDbPolyline
 62
253
  6
CONTINUOUS
 90
15
 70
0
 10
84.0588564162
 20
33.6914520512
 10
83.983107316
 20
33.6980459849
 10
83.9089478555
 20
33.7074321035
 10
83.8368265721
 20
33.7195536373
 10
83.7671796757
 20
33.7343372718
 10
83.7004284104
 20
33.7516935914
 10
83.6369765067
 20
33.7715176203
 10
83.5772077397
 20
33.7936894569
 10
83.5214836079
 20
33.818075
 10
83.4701411465
 20
33.8445267588
 10
83.4234908893
 20
33.8728847456
 10
83.3818149903
 20
33.9029774433
 10
83.3453655169
 20
33.9346228427
 10
83.3143629261
 20
33.9676295436
 10
83.2889947301
 20
34.0017979122
  0
LWPOLYLINE
  5
4D0
100
AcDbEntity
  8
0
100
AcDbPolyline
 62
253
  6
CONTINUOUS
 90
16
 70
0
 10
98.7494794311
 20
44.9611856174
 10
98.8335491433
 20
44.9662223045
 10
98.9162240588
 20
44.9730974007
 10
98.9969059869
 20
44.9817611615
 10
99.075011157
 20
44.9921509008
 10
99.1499744425
 20
45.0041914438
 10
99.2212534498
 20
45.0177956719
 10
99.2883324426
 20
45.0328651523
 10
99.3507260739
 20
45.0492908503
 10
99.4079828971
 20
45.0669539185
 10
99.4596886331
 20
45.0857265565
 10
99.5054691671
 20
45.1054729358
 10
99.5449932561
 20
45.1260501823
 10
99.5779749252
 20
45.1473094101
 10
99.604175537
 20
45.169096799
 10
99.6234055181
 20
45.1912547074
  0
LWPOLYLINE
  5
4D1
100
AcDbEntity
  8
0
100
AcDbPolyline
 62
253
  6
CONTINUOUS
 90
16
 70
0
 10
84.2251544928
 20
44.9611856174
 10
84.1410847807
 20
44.9662223045
 10
84.0584098652
 20
44.9730974007
 10
83.977727937
 20
44.9817611615
 10
83.8996227669
 20
44.9921509008
 10
83.8246594814
 20
45.0041914438
 10
83.7533804741
 20
45.0177956719
 10
83.6863014813
 20
45.0328651523
 10
83.62390785
 20
45.0492908503
 10
83.5666510268
 20
45.0669539185
 10
83.5149452908
 20
45.0857265565
 10
83.4691647568
 20
45.1054729358
 10
83.4296406679
 20
45.1260501823
 10
83.3966589987
 20
45.1473094101
 10
83.3704583869
 20
45.169096799
 10
83.3512284058
 20
45.1912547074
  0
LWPOLYLINE
  5
4D2
100
AcDbEntity
  8
0
100
AcDbPolyline
 62
253
  6
CONTINUOUS
 90
13
 70
0
 10
90.747316962
 20
30.6413297544
 10
90.7495814633
 20
30.639166175
 10
90.7518096883
 20
30.6346372073
 10
90.7539659378
 20
30.6278154117
 10
90.7560156656
 20
30.6188100827
 10
90.7579260323
 20
30.6077654983
 10
90.7596664312
 20
30.5948586078
 10
90.7612089787
 20
30.5802961975
 10
90.762528961
 20
30.5643115774
 10
90.7636052302
 20
30.5471608431
 10
90.7644205429
 20
30.5291187731
 10
90.7649618368
 20
30.5104744263
 10
90.7652204395
 20
30.4915265109
  0
LWPOLYLINE
  5
4D3
100
AcDbEntity
  8
0
100
AcDbPolyline
 62
253
  6
CONTINUOUS
 90
19
 70
0
 10
84.381215267
 20
54.4029040078
 10
84.3007230466
 20
54.4017814251
 10
84.221468024
 20
54.4018189825
 10
84.1439748265
 20
54.4030065956
 10
84.0687569308
 20
54.4055455056
 10
83.9963115073
 20
54.4092023854
 10
83.9271163599
 20
54.4133110264
 10
83.8616290754
 20
54.4176359713
 10
83.8002837163
 20
54.422363768
 10
83.7434863597
 20
54.4274582533
 10
83.6916130121
 20
54.4328876602
 10
83.6450071047
 20
54.438618638
 10
83.6039771869
 20
54.4446091715
 10
83.568794898
 20
54.450820995
 10
83.5396931809
 20
54.4572152216
 10
83.5168647274
 20
54.4637464832
 10
83.5004606877
 20
54.4703713614
 10
83.4905896776
 20
54.4770486405
 10
83.487316962
 20
54.4836972401
  0
LINE
  5
4D4
100
AcDbEntity
  8
0
100
AcDbLine
 62
7
  6
CONTINUOUS
 10
99.487316962
 20
54.6074774405
 11
99.517316962
 21
54.6074774405
  0
LWPOLYLINE
  5
4D5
100
AcDbEntity
  8
0
100
AcDbPolyline
 62
253
  6
CONTINUOUS
 90
19
 70
0
 10
98.5934186569
 20
54.4029040078
 10
98.6739108774
 20
54.4017814251
 10
98.7531658999
 20
54.4018189825
 10
98.8306590975
 20
54.4030065956
 10
98.9058769931
 20
54.4055455056
 10
98.9783224166
 20
54.4092023854
 10
99.047517564
 20
54.4133110264
 10
99.1130048485
 20
54.4176359713
 10
99.1743502077
 20
54.422363768
 10
99.2311475643
 20
54.4274582533
 10
99.2830209119
 20
54.4328876602
 10
99.3296268192
 20
54.438618638
 10
99.370656737
 20
54.4446091715
 10
99.4058390259
 20
54.450820995
 10
99.434940743
 20
54.4572152216
 10
99.4577691965
 20
54.4637464832
 10
99.4741732362
 20
54.4703713614
 10
99.4840442463
 20
54.4770486405
 10
99.487316962
 20
54.4836972401
  0
LINE
  5
4D6
100
AcDbEntity
  8
0
100
AcDbLine
 62
253
  6
CONTINUOUS
 10
83.487316962
 20
58.6837350079
 11
99.487316962
 21
58.6837350079
  0
LWPOLYLINE
  5
4D7
100
AcDbEntity
  8
0
100
AcDbPolyline
 62
7
  6
CONTINUOUS
 90
10
 70
0
 10
83.2483366214
 20
31.4419671162
 10
82.914261842
 20
32.2124743523
 10
82.6014040625
 20
32.9933767621
 10
82.3100674826
 20
33.7840876167
 10
82.040267751
 20
34.5849184394
 10
81.7926551624
 20
35.3943807292
 10
81.5682593325
 20
36.20910782
 10
81.3673735697
 20
37.0275019743
 10
81.1898102198
 20
37.8498124572
 10
81.0356449995
 20
38.6753825461
  0
LINE
  5
4D8
100
AcDbEntity
  8
RACCORDO
100
AcDbLine
 62
7
  6
CONTINUOUS
 10
99.5058945262
 20
73.7337350079
 11
99.487316962
 21
73.7337350079
  0
LINE
  5
4D9
100
AcDbEntity
  8
ASSI
100
AcDbLine
 62
7
  6
CONTINUOUS
 10
99.5058945262
 20
73.7337350079
 11
99.487316962
 21
73.7337350079
  0
LINE
  5
4DA
100
AcDbEntity
  8
0
100
AcDbLine
 62
7
  6
CONTINUOUS
 10
99.6654997925
 20
74.9837350079
 11
117.4071208647
 21
74.9837350079
  0
LINE
  5
4DB
100
AcDbEntity
  8
0
100
AcDbLine
 62
7
  6
CONTINUOUS
 10
109.7306182322
 20
75.0087350079
 11
110.187316962
 21
75.0087350079
  0
LINE
  5
4DC
100
AcDbEntity
  8
0
100
AcDbLine
 62
7
  6
CONTINUOUS
 10
109.687316962
 20
75.0337350079
 11
99.6659361359
 21
75.0337350079
  0
LINE
  5
4DD
100
AcDbEntity
  8
ASSI
100
AcDbLine
 62
7
  6
CONTINUOUS
 10
99.6659361359
 20
75.0337350079
 11
109.687316962
 21
75.0337350079
  0
LINE
  5
4DE
100
AcDbEntity
  8
0
100
AcDbLine
 62
7
  6
CONTINUOUS
 10
83.487316962
 20
75.596331896
 11
83.457316962
 21
75.596331896
  0
LINE
  5
4DF
100
AcDbEntity
  8
0
100
AcDbLine
 62
7
  6
CONTINUOUS
 10
83.487316962
 20
77.4632687546
 11
83.457316962
 21
77.4632687546
  0
LINE
  5
4E0
100
AcDbEntity
  8
0
100
AcDbLine
 62
7
  6
CONTINUOUS
 10
83.487316962
 20
77.4869023853
 11
83.457316962
 21
77.4869023853
  0
LINE
  5
4E1
100
AcDbEntity
  8
0
100
AcDbLine
 62
253
  6
CONTINUOUS
 10
83.487316962
 20
79.5070079648
 11
83.457316962
 21
79.5070079648
  0
LINE
  5
4E2
100
AcDbEntity
  8
0
100
AcDbLine
 62
7
  6
CONTINUOUS
 10
83.487316962
 20
79.6427706177
 11
83.457316962
 21
79.6427706177
  0
LINE
  5
4E3
100
AcDbEntity
  8
0
100
AcDbLine
 62
7
  6
CONTINUOUS
 10
109.687316962
 20
79.9337350079
 11
99.6659361359
 21
79.9337350079
  0
LINE
  5
4E4
100
AcDbEntity
  8
ASSI
100
AcDbLine
 62
7
  6
CONTINUOUS
 10
99.6659361359
 20
79.9337350079
 11
109.687316962
 21
79.9337350079
  0
LINE
  5
4E5
100
AcDbEntity
  8
0
100
AcDbLine
 62
7
  6
CONTINUOUS
 10
109.7306182322
 20
79.9587350079
 11
110.187316962
 21
79.9587350079
  0
LINE
  5
4E6
100
AcDbEntity
  8
0
100
AcDbLine
 62
7
  6
CONTINUOUS
 10
99.6654997925
 20
79.9837350079
 11
117.4071208647
 21
79.9837350079
  0
LINE
  5
4E7
100
AcDbEntity
  8
0
100
AcDbLine
 62
253
  6
CONTINUOUS
 10
83.487316962
 20
76.6787445866
 11
83.457316962
 21
76.6788301616
  0
LINE
  5
4E8
100
AcDbEntity
  8
RACCORDO
100
AcDbLine
 62
253
  6
CONTINUOUS
 10
99.6873169619
 20
77.4837350079
 11
99.5373226735
 21
77.4850985278
  0
LWPOLYLINE
  5
4E9
100
AcDbEntity
  8
0
100
AcDbPolyline
 62
253
  6
CONTINUOUS
 90
10
 70
0
 10
83.3512283982
 20
45.1912547072
 10
83.2770416141
 20
45.497559289
 10
83.2077822642
 20
45.8057131855
 10
83.1434854717
 20
46.1155874623
 10
83.0841757624
 20
46.4271113239
 10
83.0299005512
 20
46.7400988323
 10
82.980720794
 20
47.0542461622
 10
82.9366705806
 20
47.3693643503
 10
82.8977664843
 20
47.6853820397
 10
82.8640345039
 20
48.0021702751
  0
LWPOLYLINE
  5
4EA
100
AcDbEntity
  8
0
100
AcDbPolyline
 62
253
  6
CONTINUOUS
 90
4
 70
0
 10
82.8640343096
 20
48.0021702969
 10
82.857564438
 20
48.035197088
 10
82.8574410582
 20
48.0673059786
 10
82.859503998
 20
48.0816418772
  0
LINE
  5
4EB
100
AcDbEntity
  8
0
100
AcDbLine
 62
253
  6
CONTINUOUS
 10
84.1340232798
 20
33.753462342
 11
84.1357348151
 21
33.6877680522
  0
LINE
  5
4EC
100
AcDbEntity
  8
0
100
AcDbLine
 62
253
  6
CONTINUOUS
 10
84.1326220349
 20
33.8199316773
 11
84.1340232798
 21
33.753462342
  0
LWPOLYLINE
  5
4ED
100
AcDbEntity
  8
0
100
AcDbPolyline
 62
253
  6
CONTINUOUS
 90
4
 70
0
 10
84.1357352895
 20
33.6877680276
 10
84.1432981571
 20
33.3159005263
 10
84.1463199033
 20
33.147337336
 10
84.1487823272
 20
32.9902407537
  0
LINE
  5
4EE
100
AcDbEntity
  8
0
100
AcDbLine
 62
253
  6
CONTINUOUS
 10
83.2878812644
 20
34.0691506062
 11
83.2941024883
 21
33.6962745448
  0
LINE
  5
4EF
100
AcDbEntity
  8
0
100
AcDbLine
 62
253
  6
CONTINUOUS
 10
84.1315350343
 20
33.8870563778
 11
84.1326220349
 21
33.8199316773
  0
LINE
  5
4F0
100
AcDbEntity
  8
0
100
AcDbLine
 62
253
  6
CONTINUOUS
 10
83.2941024883
 20
33.6962745448
 11
83.2978829913
 21
33.4282782485
  0
LINE
  5
4F1
100
AcDbEntity
  8
0
100
AcDbLine
 62
253
  6
CONTINUOUS
 10
84.1487823272
 20
32.9902407537
 11
84.1523462936
 21
32.7081602447
  0
LINE
  5
4F2
100
AcDbEntity
  8
0
100
AcDbLine
 62
253
  6
CONTINUOUS
 10
83.2978829913
 20
33.4282782485
 11
83.3003553708
 21
33.1957982003
  0
LINE
  5
4F3
100
AcDbEntity
  8
0
100
AcDbLine
 62
253
  6
CONTINUOUS
 10
83.2871178835
 20
34.1372614697
 11
83.2878812644
 21
34.0691506062
  0
LINE
  5
4F4
100
AcDbEntity
  8
0
100
AcDbLine
 62
253
  6
CONTINUOUS
 10
84.1307865257
 20
33.9543815649
 11
84.1315350343
 21
33.8870563778
  0
LINE
  5
4F5
100
AcDbEntity
  8
0
100
AcDbLine
 62
253
  6
CONTINUOUS
 10
84.1523462936
 20
32.7081602447
 11
84.1545503199
 21
32.4653981097
  0
LINE
  5
4F6
100
AcDbEntity
  8
0
100
AcDbLine
 62
253
  6
CONTINUOUS
 10
83.3003553708
 20
33.1957982003
 11
83.3018970427
 21
32.9951705128
  0
LINE
  5
4F7
100
AcDbEntity
  8
0
100
AcDbLine
 62
253
  6
CONTINUOUS
 10
83.2866975347
 20
34.2059942192
 11
83.2871178835
 21
34.1372614697
  0
LINE
  5
4F8
100
AcDbEntity
  8
0
100
AcDbLine
 62
253
  6
CONTINUOUS
 10
84.1545503199
 20
32.4653981097
 11
84.1557077317
 21
32.2571756307
  0
LINE
  5
4F9
100
AcDbEntity
  8
0
100
AcDbLine
 62
253
  6
CONTINUOUS
 10
83.3018970427
 20
32.9951705128
 11
83.3027172251
 21
32.8224265598
  0
LINE
  5
4FA
100
AcDbEntity
  8
0
100
AcDbLine
 62
253
  6
CONTINUOUS
 10
84.1302102725
 20
34.0555288026
 11
84.1307865257
 21
33.9543815649
  0
LINE
  5
4FB
100
AcDbEntity
  8
0
100
AcDbLine
 62
253
  6
CONTINUOUS
 10
84.1557077317
 20
32.2571756307
 11
84.156003029
 21
32.0794980954
  0
LINE
  5
4FC
100
AcDbEntity
  8
0
100
AcDbLine
 62
253
  6
CONTINUOUS
 10
83.2876307321
 20
35.0863761754
 11
83.287706392
 21
34.9175027948
  0
LINE
  5
4FD
100
AcDbEntity
  8
0
100
AcDbLine
 62
253
  6
CONTINUOUS
 10
83.287706392
 20
34.9175027948
 11
83.2877199565
 21
34.8837831867
  0
LINE
  5
4FE
100
AcDbEntity
  8
0
100
AcDbLine
 62
253
  6
CONTINUOUS
 10
83.2876081816
 20
35.1542306338
 11
83.2876307321
 21
35.0863761754
  0
LINE
  5
4FF
100
AcDbEntity
  8
0
100
AcDbLine
 62
253
  6
CONTINUOUS
 10
83.2877199565
 20
34.8837831867
 11
83.2877418284
 21
34.8164145117
  0
LINE
  5
500
100
AcDbEntity
  8
0
100
AcDbLine
 62
253
  6
CONTINUOUS
 10
83.2875961447
 20
35.2229614783
 11
83.2876081816
 21
35.1542306338
  0
LINE
  5
501
100
AcDbEntity
  8
0
100
AcDbLine
 62
253
  6
CONTINUOUS
 10
83.2877418284
 20
34.8164145117
 11
83.2877524162
 21
34.7490963184
  0
LINE
  5
502
100
AcDbEntity
  8
0
100
AcDbLine
 62
7
  6
CONTINUOUS
 10
83.457316962
 20
75.596331896
 11
83.457316962
 21
79.6427853839
  0
LINE
  5
503
100
AcDbEntity
  8
0
100
AcDbLine
 62
7
  6
CONTINUOUS
 10
83.487316962
 20
84.9837350079
 11
83.487316962
 21
54.4837594079
  0
LWPOLYLINE
  5
504
100
AcDbEntity
  8
0
100
AcDbPolyline
 62
253
  6
CONTINUOUS
 90
3
 70
0
 10
84.1305289247
 20
34.8755008703
 10
84.1305381806
 20
34.7038642758
 10
84.1305382294
 20
34.6696044491
  0
LINE
  5
505
100
AcDbEntity
  8
0
100
AcDbLine
 62
253
  6
CONTINUOUS
 10
84.1305327226
 20
34.9461235482
 11
84.1305289247
 21
34.8755008703
  0
LINE
  5
506
100
AcDbEntity
  8
0
100
AcDbLine
 62
253
  6
CONTINUOUS
 10
84.1305382294
 20
34.6696044491
 11
84.1305328911
 21
34.6011024945
  0
LINE
  5
507
100
AcDbEntity
  8
0
100
AcDbLine
 62
253
  6
CONTINUOUS
 10
84.1305478023
 20
35.0194013192
 11
84.1305327226
 21
34.9461235482
  0
LINE
  5
508
100
AcDbEntity
  8
0
100
AcDbLine
 62
253
  6
CONTINUOUS
 10
83.2876270731
 20
35.368374425
 11
83.2875961447
 21
35.2229614783
  0
LINE
  5
509
100
AcDbEntity
  8
0
100
AcDbLine
 62
253
  6
CONTINUOUS
 10
84.1305328911
 20
34.6011024945
 11
84.130501038
 21
34.4985236849
  0
LINE
  5
50A
100
AcDbEntity
  8
0
100
AcDbLine
 62
253
  6
CONTINUOUS
 10
83.2876728063
 20
35.4475940105
 11
83.2876270731
 21
35.368374425
  0
LINE
  5
50B
100
AcDbEntity
  8
0
100
AcDbLine
 62
253
  6
CONTINUOUS
 10
84.130606271
 20
35.1377055017
 11
84.1305478023
 21
35.0194013192
  0
LWPOLYLINE
  5
50C
100
AcDbEntity
  8
0
100
AcDbPolyline
 62
253
  6
CONTINUOUS
 90
3
 70
0
 10
83.2877718621
 20
35.5784370625
 10
83.2877346293
 20
35.5330159212
 10
83.2876728063
 20
35.4475940105
  0
LINE
  5
50D
100
AcDbEntity
  8
0
100
AcDbLine
 62
253
  6
CONTINUOUS
 10
83.3027172251
 20
32.8224265598
 11
83.302884962
 21
32.6083966064
  0
LWPOLYLINE
  5
50E
100
AcDbEntity
  8
0
100
AcDbPolyline
 62
253
  6
CONTINUOUS
 90
4
 70
0
 10
83.287967613
 20
35.7804222285
 10
83.2879120231
 20
35.7267703047
 10
83.287861193
 20
35.675272213
 10
83.2877718621
 20
35.5784370625
  0
LINE
  5
50F
100
AcDbEntity
  8
0
100
AcDbLine
 62
253
  6
CONTINUOUS
 10
84.1307197972
 20
35.270009842
 11
84.130606271
 21
35.1377055017
  0
LWPOLYLINE
  5
510
100
AcDbEntity
  8
0
100
AcDbPolyline
 62
253
  6
CONTINUOUS
 90
4
 70
0
 10
83.2886099643
 20
36.3597773879
 10
83.2885236341
 20
36.2868045231
 10
83.2884428464
 20
36.215967362
 10
83.287967613
 20
35.7804222285
  0
LINE
  5
511
100
AcDbEntity
  8
0
100
AcDbLine
 62
253
  6
CONTINUOUS
 10
83.2888026689
 20
36.5120267003
 11
83.2886099643
 21
36.3597773879
  0
LINE
  5
512
100
AcDbEntity
  8
0
100
AcDbLine
 62
253
  6
CONTINUOUS
 10
84.1308987659
 20
35.4200233619
 11
84.1307197972
 21
35.270009842
  0
LWPOLYLINE
  5
513
100
AcDbEntity
  8
0
100
AcDbPolyline
 62
253
  6
CONTINUOUS
 90
6
 70
0
 10
84.130501038
 20
34.4985236849
 10
84.1303453106
 20
34.3274981404
 10
84.1302969103
 20
34.293286934
 10
84.1302404774
 20
34.2591133161
 10
84.1301812368
 20
34.2249757
 10
84.1302102725
 20
34.0555288026
  0
LINE
  5
514
100
AcDbEntity
  8
0
100
AcDbLine
 62
253
  6
CONTINUOUS
 10
83.2890281445
 20
36.6724822867
 11
83.2888026689
 21
36.5120267003
  0
LINE
  5
515
100
AcDbEntity
  8
0
100
AcDbLine
 62
253
  6
CONTINUOUS
 10
83.2866968788
 20
34.3091651005
 11
83.2866975347
 21
34.2059942192
  0
LINE
  5
516
100
AcDbEntity
  8
0
100
AcDbLine
 62
253
  6
CONTINUOUS
 10
83.2892939899
 20
36.8409020136
 11
83.2890281445
 21
36.6724822867
  0
LINE
  5
517
100
AcDbEntity
  8
0
100
AcDbLine
 62
253
  6
CONTINUOUS
 10
83.289605584
 20
37.0172187805
 11
83.2892939899
 21
36.8409020136
  0
LINE
  5
518
100
AcDbEntity
  8
0
100
AcDbLine
 62
253
  6
CONTINUOUS
 10
83.2899634573
 20
37.2012414184
 11
83.289605584
 21
37.0172187805
  0
LINE
  5
519
100
AcDbEntity
  8
0
100
AcDbLine
 62
253
  6
CONTINUOUS
 10
83.2903709029
 20
37.3939803218
 11
83.2899634573
 21
37.2012414184
  0
LINE
  5
51A
100
AcDbEntity
  8
0
100
AcDbLine
 62
253
  6
CONTINUOUS
 10
83.2908354758
 20
37.5962152778
 11
83.2903709029
 21
37.3939803218
  0
LINE
  5
51B
100
AcDbEntity
  8
0
100
AcDbLine
 62
253
  6
CONTINUOUS
 10
83.2913661701
 20
37.8094599832
 11
83.2908354758
 21
37.5962152778
  0
LINE
  5
51C
100
AcDbEntity
  8
0
100
AcDbLine
 62
253
  6
CONTINUOUS
 10
83.2923130342
 20
38.1528281165
 11
83.2913661701
 21
37.8094599832
  0
LINE
  5
51D
100
AcDbEntity
  8
0
100
AcDbLine
 62
253
  6
CONTINUOUS
 10
83.2877524162
 20
34.7490963184
 11
83.287493477
 21
34.5132046148
  0
LINE
  5
51E
100
AcDbEntity
  8
0
100
AcDbLine
 62
253
  6
CONTINUOUS
 10
83.2949558252
 20
38.9399569478
 11
83.2923130342
 21
38.1528281165
  0
LINE
  5
51F
100
AcDbEntity
  8
0
100
AcDbLine
 62
253
  6
CONTINUOUS
 10
83.287493477
 20
34.5132046148
 11
83.2866968788
 21
34.3091651005
  0
LINE
  5
520
100
AcDbEntity
  8
0
100
AcDbLine
 62
253
  6
CONTINUOUS
 10
83.3009729103
 20
40.2407074063
 11
83.2949558252
 21
38.9399569478
  0
LINE
  5
521
100
AcDbEntity
  8
0
100
AcDbLine
 62
253
  6
CONTINUOUS
 10
83.302884962
 20
32.6083966064
 11
83.3021605447
 21
32.4387592589
  0
LWPOLYLINE
  5
522
100
AcDbEntity
  8
0
100
AcDbPolyline
 62
253
  6
CONTINUOUS
 90
8
 70
0
 10
83.4873170995
 20
54.4837594048
 10
83.482953292
 20
53.8282373655
 10
83.4770931715
 20
53.1530577289
 10
83.4696854769
 20
52.4577368576
 10
83.4607192112
 20
51.7417953781
 10
83.4502356111
 20
51.0047342656
 10
83.4383457201
 20
50.2459798109
 10
83.425267316
 20
49.4656385783
  0
LINE
  5
523
100
AcDbEntity
  8
0
100
AcDbLine
 62
253
  6
CONTINUOUS
 10
83.3070621277
 20
41.2169169395
 11
83.3009729103
 21
40.2407074063
  0
LINE
  5
524
100
AcDbEntity
  8
0
100
AcDbLine
 62
253
  6
CONTINUOUS
 10
83.3139803974
 20
42.1052867645
 11
83.3070621277
 21
41.2169169395
  0
LINE
  5
525
100
AcDbEntity
  8
0
100
AcDbLine
 62
253
  6
CONTINUOUS
 10
83.3208919068
 20
42.8452037301
 11
83.3139803974
 21
42.1052867645
  0
LINE
  5
526
100
AcDbEntity
  8
0
100
AcDbLine
 62
253
  6
CONTINUOUS
 10
83.3265884497
 20
43.3778238209
 11
83.3208919068
 21
42.8452037301
  0
LINE
  5
527
100
AcDbEntity
  8
0
100
AcDbLine
 62
7
  6
CONTINUOUS
 10
83.487316962
 20
54.4837350079
 11
83.4850969916
 21
54.2928865433
  0
LINE
  5
528
100
AcDbEntity
  8
0
100
AcDbLine
 62
253
  6
CONTINUOUS
 10
83.3333750308
 20
43.9446932892
 11
83.3265884497
 21
43.3778238209
  0
LWPOLYLINE
  5
529
100
AcDbEntity
  8
0
100
AcDbPolyline
 62
253
  6
CONTINUOUS
 90
3
 70
0
 10
83.3021605447
 20
32.4387592589
 10
83.3008002023
 20
32.3052006869
 10
83.3002375342
 20
32.2675409345
  0
LINE
  5
52A
100
AcDbEntity
  8
0
100
AcDbLine
 62
253
  6
CONTINUOUS
 10
83.3414936792
 20
44.5489083476
 11
83.3333750308
 21
43.9446932892
  0
LINE
  5
52B
100
AcDbEntity
  8
0
100
AcDbLine
 62
7
  6
CONTINUOUS
 10
83.4850969951
 20
54.2928868147
 11
83.4823873009
 21
54.102783961
  0
LINE
  5
52C
100
AcDbEntity
  8
0
100
AcDbLine
 62
253
  6
CONTINUOUS
 10
83.3512283982
 20
45.1912547072
 11
83.3414936792
 21
44.5489083476
  0
LWPOLYLINE
  5
52D
100
AcDbEntity
  8
0
100
AcDbPolyline
 62
253
  6
CONTINUOUS
 90
3
 70
0
 10
83.3811635888
 20
46.9790619664
 10
83.3659191242
 20
46.0982797077
 10
83.3512283982
 20
45.1912547072
  0
LINE
  5
52E
100
AcDbEntity
  8
0
100
AcDbLine
 62
253
  6
CONTINUOUS
 10
83.425267316
 20
49.4656385783
 11
83.3811635888
 21
46.9790619664
  0
LINE
  5
52F
100
AcDbEntity
  8
0
100
AcDbLine
 62
7
  6
CONTINUOUS
 10
83.4823873009
 20
54.102783961
 11
83.479139965
 21
53.9149645367
  0
LINE
  5
530
100
AcDbEntity
  8
RACCORDO
100
AcDbLine
 62
7
  6
CONTINUOUS
 10
99.5058945262
 20
81.2337350079
 11
99.487316962
 21
81.2337350079
  0
LINE
  5
531
100
AcDbEntity
  8
0
100
AcDbLine
 62
253
  6
CONTINUOUS
 10
83.487316962
 20
84.9837350079
 11
99.487316962
 21
84.9837350079
  0
LINE
  5
532
100
AcDbEntity
  8
0
100
AcDbLine
 62
7
  6
CONTINUOUS
 10
83.987316962
 20
85.4837350079
 11
98.987316962
 21
85.4837350079
  0
LINE
  5
533
100
AcDbEntity
  8
0
100
AcDbLine
 62
7
  6
CONTINUOUS
 10
95.7151477415
 20
85.5337350079
 11
97.0594861291
 21
85.5337350079
  0
LINE
  5
534
100
AcDbEntity
  8
0
100
AcDbLine
 62
7
  6
CONTINUOUS
 10
88.4200516194
 20
85.5837350079
 11
94.5545823045
 21
85.5837350079
  0
LINE
  5
535
100
AcDbEntity
  8
0
100
AcDbLine
 62
7
  6
CONTINUOUS
 10
89.59991385
 20
85.6337350079
 11
93.6445158922
 21
85.6337350079
  0
LWPOLYLINE
  5
536
100
AcDbEntity
  8
0
100
AcDbPolyline
 62
253
  6
CONTINUOUS
 90
8
 70
0
 10
98.8427222465
 20
31.2707868999
 10
98.8437172284
 20
31.2672786967
 10
98.8446315589
 20
31.2637642229
 10
98.8454652382
 20
31.2602436436
 10
98.8462038453
 20
31.2567132312
 10
98.846861802
 20
31.2531770661
 10
98.8474823735
 20
31.249646936
 10
98.8480714186
 20
31.2461228565
  0
LINE
  5
537
100
AcDbEntity
  8
0
100
AcDbLine
 62
253
  6
CONTINUOUS
 10
84.381215267
 20
84.9837350079
 11
84.381215267
 21
54.3990036661
  0
LINE
  5
538
100
AcDbEntity
  8
0
100
AcDbLine
 62
7
  6
CONTINUOUS
 10
85.437316962
 20
30.581472128
 11
85.437316962
 21
29.762443789
  0
LINE
  5
539
100
AcDbEntity
  8
0
100
AcDbLine
 62
7
  6
CONTINUOUS
 10
86.187316962
 20
28.8337350079
 11
86.187316962
 21
28.5206678891
  0
LINE
  5
53A
100
AcDbEntity
  8
0
100
AcDbLine
 62
7
  6
CONTINUOUS
 10
89.59991385
 20
85.5837350079
 11
89.59991385
 21
85.6337350079
  0
LWPOLYLINE
  5
53B
100
AcDbEntity
  8
0
100
AcDbPolyline
 62
253
  6
CONTINUOUS
 90
5
 70
0
 10
84.1313584173
 20
35.7129520638
 10
84.1312506539
 20
35.6500246107
 10
84.1311507746
 20
35.5892724895
 10
84.1310588104
 20
35.530697467
 10
84.1308987659
 20
35.4200233619
  0
LWPOLYLINE
  5
53C
100
AcDbEntity
  8
0
100
AcDbPolyline
 62
253
  6
CONTINUOUS
 90
3
 70
0
 10
84.1317256666
 20
35.9149106282
 10
84.1315959237
 20
35.8453908347
 10
84.1313584173
 20
35.7129520638
  0
LINE
  5
53D
100
AcDbEntity
  8
0
100
AcDbLine
 62
253
  6
CONTINUOUS
 10
84.132012666
 20
36.0603708718
 11
84.1317256666
 21
35.9149106282
  0
LINE
  5
53E
100
AcDbEntity
  8
0
100
AcDbLine
 62
253
  6
CONTINUOUS
 10
84.1323398252
 20
36.2143304444
 11
84.132012666
 21
36.0603708718
  0
LINE
  5
53F
100
AcDbEntity
  8
0
100
AcDbLine
 62
253
  6
CONTINUOUS
 10
84.1329287165
 20
36.4606835347
 11
84.1323398252
 21
36.2143304444
  0
LINE
  5
540
100
AcDbEntity
  8
0
100
AcDbLine
 62
253
  6
CONTINUOUS
 10
84.1345760645
 20
37.0071776911
 11
84.1329287165
 21
36.4606835347
  0
LINE
  5
541
100
AcDbEntity
  8
0
100
AcDbLine
 62
253
  6
CONTINUOUS
 10
84.156003029
 20
32.0794980954
 11
84.1556633874
 21
31.9278817159
  0
LWPOLYLINE
  5
542
100
AcDbEntity
  8
0
100
AcDbPolyline
 62
253
  6
CONTINUOUS
 90
19
 70
0
 10
84.3812152688
 20
84.9837350079
 10
84.3814171421
 20
85.0273128358
 10
84.3820212276
 20
85.0705590197
 10
84.383022928
 20
85.1131444302
 10
84.3844146201
 20
85.1547449654
 10
84.3861857125
 20
85.1950440209
 10
84.3883227262
 20
85.2337348988
 10
84.390809398
 20
85.2705231408
 10
84.3936268029
 20
85.3051287594
 10
84.396753498
 20
85.3372883746
 10
84.4001656874
 20
85.366757232
 10
84.4038374022
 20
85.3933110547
 10
84.4077406973
 20
85.4167477454
 10
84.4118458657
 20
85.436888937
 10
84.4161216646
 20
85.4535813478
 10
84.4205355529
 20
85.4666979414
 10
84.425053938
 20
85.4761388952
 10
84.4296424323
 20
85.4818323601
 10
84.4342661145
 20
85.4837350079
  0
LINE
  5
543
100
AcDbEntity
  8
0
100
AcDbLine
 62
253
  6
CONTINUOUS
 10
84.1408330657
 20
38.3852788315
 11
84.1345760645
 21
37.0071776911
  0
LWPOLYLINE
  5
544
100
AcDbEntity
  8
0
100
AcDbPolyline
 62
253
  6
CONTINUOUS
 90
9
 70
0
 10
84.381215267
 20
54.3990036661
 10
84.3768501132
 20
53.7293472867
 10
84.3707970305
 20
53.0390141326
 10
84.3630560739
 20
52.3282182738
 10
84.3535932143
 20
51.5979526266
 10
84.3424426386
 20
50.8477298908
 10
84.3297067429
 20
50.0755994285
 10
84.3152366233
 20
49.2826427292
 10
84.2991814258
 20
48.4685046967
  0
LINE
  5
545
100
AcDbEntity
  8
0
100
AcDbLine
 62
253
  6
CONTINUOUS
 10
84.1479361022
 20
39.4506342614
 11
84.1408330657
 21
38.3852788315
  0
LINE
  5
546
100
AcDbEntity
  8
0
100
AcDbLine
 62
253
  6
CONTINUOUS
 10
84.1556633874
 20
31.9278817159
 11
84.1548105335
 21
31.798941273
  0
LINE
  5
547
100
AcDbEntity
  8
0
100
AcDbLine
 62
253
  6
CONTINUOUS
 10
84.1557072408
 20
40.3553118659
 11
84.1479361022
 21
39.4506342614
  0
LINE
  5
548
100
AcDbEntity
  8
0
100
AcDbLine
 62
253
  6
CONTINUOUS
 10
84.1642628811
 20
41.1760042969
 11
84.1557072408
 21
40.3553118659
  0
LINE
  5
549
100
AcDbEntity
  8
0
100
AcDbLine
 62
253
  6
CONTINUOUS
 10
84.1725201426
 20
41.8565817132
 11
84.1642628811
 21
41.1760042969
  0
LINE
  5
54A
100
AcDbEntity
  8
0
100
AcDbLine
 62
253
  6
CONTINUOUS
 10
84.1548105335
 20
31.798941273
 11
84.1535228871
 21
31.6899274267
  0
LINE
  5
54B
100
AcDbEntity
  8
0
100
AcDbLine
 62
253
  6
CONTINUOUS
 10
84.179134128
 20
42.3453657867
 11
84.1725201426
 21
41.8565817132
  0
LINE
  5
54C
100
AcDbEntity
  8
0
100
AcDbLine
 62
253
  6
CONTINUOUS
 10
84.1868148068
 20
42.8649911116
 11
84.179134128
 21
42.3453657867
  0
LINE
  5
54D
100
AcDbEntity
  8
0
100
AcDbLine
 62
253
  6
CONTINUOUS
 10
84.1957829952
 20
43.4180548956
 11
84.1868148068
 21
42.8649911116
  0
LINE
  5
54E
100
AcDbEntity
  8
0
100
AcDbLine
 62
253
  6
CONTINUOUS
 10
84.2062010945
 20
44.006422498
 11
84.1957829952
 21
43.4180548956
  0
LINE
  5
54F
100
AcDbEntity
  8
0
100
AcDbLine
 62
253
  6
CONTINUOUS
 10
84.1535228871
 20
31.6899274267
 11
84.1519059163
 21
31.5981651015
  0
LINE
  5
550
100
AcDbEntity
  8
0
100
AcDbLine
 62
253
  6
CONTINUOUS
 10
83.3002375342
 20
32.2675409345
 11
83.2989806633
 21
32.200907648
  0
LWPOLYLINE
  5
551
100
AcDbEntity
  8
0
100
AcDbPolyline
 62
253
  6
CONTINUOUS
 90
3
 70
0
 10
84.2251544923
 20
44.9611856162
 10
84.2184051769
 20
44.633361834
 10
84.2062010945
 20
44.006422498
  0
LWPOLYLINE
  5
552
100
AcDbEntity
  8
0
100
AcDbPolyline
 62
253
  6
CONTINUOUS
 90
4
 70
0
 10
84.2991814258
 20
48.4685046967
 10
84.2641473037
 20
46.7637335747
 10
84.2451685684
 20
45.8741907539
 10
84.2251544923
 20
44.9611856162
  0
LINE
  5
553
100
AcDbEntity
  8
0
100
AcDbLine
 62
7
  6
CONTINUOUS
 10
83.4791399569
 20
53.9149641117
 11
83.4753266778
 21
53.7316029611
  0
LINE
  5
554
100
AcDbEntity
  8
0
100
AcDbLine
 62
7
  6
CONTINUOUS
 10
83.4753266673
 20
53.7316025013
 11
83.4709496711
 21
53.5553272103
  0
LWPOLYLINE
  5
555
100
AcDbEntity
  8
0
100
AcDbPolyline
 62
253
  6
CONTINUOUS
 90
16
 70
0
 10
84.1519059163
 20
31.5981651015
 10
84.1500013832
 20
31.5212325281
 10
84.1489478407
 20
31.4877756441
 10
84.1478377997
 20
31.4573288645
 10
84.1466705449
 20
31.4297098101
 10
84.1454467924
 20
31.4047890581
 10
84.1441802962
 20
31.3823938434
 10
84.1428667778
 20
31.3623698086
 10
84.1415105163
 20
31.3445776361
 10
84.1401381022
 20
31.328874029
 10
84.1387475097
 20
31.3151212294
 10
84.1373407648
 20
31.3031773817
 10
84.1359505356
 20
31.2928992368
 10
84.1345877111
 20
31.2841555696
 10
84.1332414019
 20
31.2768250105
 10
84.1319116079
 20
31.2707869077
  0
LWPOLYLINE
  5
556
100
AcDbEntity
  8
0
100
AcDbPolyline
 62
253
  6
CONTINUOUS
 90
14
 70
0
 10
83.2989806633
 20
32.200907648
 10
83.2975504739
 20
32.1448495916
 10
83.296775941
 20
32.120336424
 10
83.2959616793
 20
32.0980281088
 10
83.2951182976
 20
32.0777581684
 10
83.2942398075
 20
32.0594401264
 10
83.2933313689
 20
32.0429523712
 10
83.2924206377
 20
32.0280960184
 10
83.2915072504
 20
32.0147965693
 10
83.2905912704
 20
32.0029911482
 10
83.2897013732
 20
31.9925186549
 10
83.2888472126
 20
31.9832765445
 10
83.288019232
 20
31.9752208104
 10
83.2866278695
 20
31.9630425344
  0
LINE
  5
557
100
AcDbEntity
  8
0
100
AcDbLine
 62
7
  6
CONTINUOUS
 10
83.4709496711
 20
53.5553272103
 11
83.4660331003
 21
53.388404598
  0
LINE
  5
558
100
AcDbEntity
  8
0
100
AcDbLine
 62
7
  6
CONTINUOUS
 10
83.4660331003
 20
53.388404598
 11
83.460656644
 21
53.2336286091
  0
LINE
  5
559
100
AcDbEntity
  8
0
100
AcDbLine
 62
7
  6
CONTINUOUS
 10
83.460656644
 20
53.2336286091
 11
83.4549763743
 21
53.0941944643
  0
LINE
  5
55A
100
AcDbEntity
  8
0
100
AcDbLine
 62
7
  6
CONTINUOUS
 10
83.457007516
 20
53.1394270354
 11
83.4498514983
 21
52.9841070092
  0
LINE
  5
55B
100
AcDbEntity
  8
0
100
AcDbLine
 62
7
  6
CONTINUOUS
 10
83.4498514983
 20
52.9841070092
 11
83.4413810778
 21
52.8177658347
  0
LWPOLYLINE
  5
55C
100
AcDbEntity
  8
0
100
AcDbPolyline
 62
7
  6
CONTINUOUS
 90
3
 70
0
 10
83.4529168355
 20
53.0519588344
 10
83.4289399459
 20
52.5985577212
 10
83.4020551909
 20
52.1914202404
  0
LINE
  5
55D
100
AcDbEntity
  8
0
100
AcDbLine
 62
7
  6
CONTINUOUS
 10
83.4413810778
 20
52.8177658347
 11
83.4314368521
 21
52.6403193891
  0
LINE
  5
55E
100
AcDbEntity
  8
0
100
AcDbLine
 62
7
  6
CONTINUOUS
 10
83.4314368521
 20
52.6403193891
 11
83.4198245493
 21
52.4512878341
  0
LINE
  5
55F
100
AcDbEntity
  8
0
100
AcDbLine
 62
253
  6
CONTINUOUS
 10
83.2829356951
 20
31.9133631031
 11
83.282667842
 21
31.9092268435
  0
LINE
  5
560
100
AcDbEntity
  8
0
100
AcDbLine
 62
253
  6
CONTINUOUS
 10
83.2852516708
 20
31.9484027502
 11
83.2829356951
 21
31.9133631031
  0
LWPOLYLINE
  5
561
100
AcDbEntity
  8
0
100
AcDbPolyline
 62
7
  6
CONTINUOUS
 90
28
 70
0
 10
83.4198245493
 20
52.4512878341
 10
83.4063063909
 20
52.2498322745
 10
83.398718376
 20
52.1437509683
 10
83.3905327498
 20
52.0340394122
 10
83.3816487652
 20
51.9198246833
 10
83.3720204669
 20
51.8010399574
 10
83.3616087509
 20
51.6777338511
 10
83.3503053845
 20
51.5492045464
 10
83.3380576988
 20
51.4154575945
 10
83.3248094992
 20
51.2764738922
 10
83.3104284177
 20
51.1315162684
 10
83.2947619562
 20
50.9797574698
 10
83.2778213835
 20
50.8220176278
 10
83.2597306339
 20
50.6600418407
 10
83.24040434
 20
50.4935371875
 10
83.219826662
 20
50.3228184154
 10
83.1982812342
 20
50.1505606986
 10
83.1758277641
 20
49.9773671156
 10
83.1523812489
 20
49.8026806617
 10
83.1280553485
 20
49.6274462418
 10
83.1029136376
 20
49.4521493462
 10
83.0768901759
 20
49.2763546731
 10
83.0499102495
 20
49.0996277106
 10
83.0220438117
 20
48.922512654
 10
82.9932056434
 20
48.7445187983
 10
82.9630566292
 20
48.5636597097
 10
82.9314487605
 20
48.3792924947
 10
82.8984533056
 20
48.1921186589
  0
LINE
  5
562
100
AcDbEntity
  8
0
100
AcDbLine
 62
253
  6
CONTINUOUS
 10
83.282667842
 20
31.9092268435
 11
83.2818559771
 21
31.8970190492
  0
LINE
  5
563
100
AcDbEntity
  8
0
100
AcDbLine
 62
253
  6
CONTINUOUS
 10
83.2761587432
 20
31.8171488163
 11
83.2754744178
 21
31.8072478605
  0
LINE
  5
564
100
AcDbEntity
  8
0
100
AcDbLine
 62
253
  6
CONTINUOUS
 10
83.2754744178
 20
31.8072478605
 11
83.2740097107
 21
31.7861278145
  0
LWPOLYLINE
  5
565
100
AcDbEntity
  8
0
100
AcDbPolyline
 62
253
  6
CONTINUOUS
 90
3
 70
0
 10
83.2672777498
 20
31.6901462073
 10
83.2657171315
 20
31.667756718
 10
83.2651819222
 20
31.6600770734
  0
LINE
  5
566
100
AcDbEntity
  8
0
100
AcDbLine
 62
253
  6
CONTINUOUS
 10
83.2651819222
 20
31.6600770734
 11
83.2635357965
 21
31.6364859151
  0
LINE
  5
567
100
AcDbEntity
  8
0
100
AcDbLine
 62
253
  6
CONTINUOUS
 10
83.2682790802
 20
31.7044954004
 11
83.2672777498
 21
31.6901462073
  0
LWPOLYLINE
  5
568
100
AcDbEntity
  8
0
100
AcDbPolyline
 62
253
  6
CONTINUOUS
 90
3
 70
0
 10
83.2635357965
 20
31.6364859151
 10
83.2629756443
 20
31.6284663475
 10
83.2624108374
 20
31.6203910848
  0
LINE
  5
569
100
AcDbEntity
  8
0
100
AcDbLine
 62
253
  6
CONTINUOUS
 10
83.2692493577
 20
31.7183657442
 11
83.2682790802
 21
31.7044954004
  0
LINE
  5
56A
100
AcDbEntity
  8
0
100
AcDbLine
 62
253
  6
CONTINUOUS
 10
83.2624108374
 20
31.6203910848
 11
83.2606958167
 21
31.595915325
  0
LINE
  5
56B
100
AcDbEntity
  8
0
100
AcDbLine
 62
253
  6
CONTINUOUS
 10
83.2740097107
 20
31.7861278145
 11
83.2728157611
 21
31.7690726279
  0
LWPOLYLINE
  5
56C
100
AcDbEntity
  8
0
100
AcDbPolyline
 62
253
  6
CONTINUOUS
 90
4
 70
0
 10
83.2728157611
 20
31.7690726279
 10
83.2719743243
 20
31.7571069279
 10
83.271540446
 20
31.7509515054
 10
83.2710981269
 20
31.7446705656
  0
LINE
  5
56D
100
AcDbEntity
  8
0
100
AcDbLine
 62
253
  6
CONTINUOUS
 10
83.2710981269
 20
31.7446705656
 11
83.2692493577
 21
31.7183657442
  0
LWPOLYLINE
  5
56E
100
AcDbEntity
  8
0
100
AcDbPolyline
 62
253
  6
CONTINUOUS
 90
3
 70
0
 10
83.2818559771
 20
31.8970190492
 10
83.2798370729
 20
31.8691171863
 10
83.2761587432
 20
31.8171488163
  0
LINE
  5
56F
100
AcDbEntity
  8
0
100
AcDbLine
 62
253
  6
CONTINUOUS
 10
83.2606958167
 20
31.595915325
 11
83.2544736902
 21
31.5089313615
  0
LINE
  5
570
100
AcDbEntity
  8
0
100
AcDbLine
 62
7
  6
CONTINUOUS
 10
83.4046010276
 20
52.2270279478
 11
83.3707938158
 21
51.7901639407
  0
LINE
  5
571
100
AcDbEntity
  8
0
100
AcDbLine
 62
253
  6
CONTINUOUS
 10
83.2544736902
 20
31.5089313615
 11
83.2523999324
 21
31.4818081693
  0
LINE
  5
572
100
AcDbEntity
  8
0
100
AcDbLine
 62
253
  6
CONTINUOUS
 10
83.2523999324
 20
31.4818081693
 11
83.251435986
 21
31.4700097146
  0
LINE
  5
573
100
AcDbEntity
  8
0
100
AcDbLine
 62
7
  6
CONTINUOUS
 10
83.3742411217
 20
51.8316176584
 11
83.3348094791
 21
51.3885660029
  0
LWPOLYLINE
  5
574
100
AcDbEntity
  8
0
100
AcDbPolyline
 62
253
  6
CONTINUOUS
 90
8
 70
0
 10
83.251435986
 20
31.4700097146
 10
83.2505353749
 20
31.4597676014
 10
83.250112053
 20
31.4553273516
 10
83.2497094712
 20
31.4514072562
 10
83.2493281525
 20
31.4480494026
 10
83.2489701588
 20
31.4453124416
 10
83.2486387435
 20
31.4432634575
 10
83.2483366214
 20
31.4419671162
  0
LINE
  5
575
100
AcDbEntity
  8
0
100
AcDbLine
 62
7
  6
CONTINUOUS
 10
83.3389561385
 20
51.4323054234
 11
83.2948648476
 21
50.9937426075
  0
LWPOLYLINE
  5
576
100
AcDbEntity
  8
0
100
AcDbPolyline
 62
253
  6
CONTINUOUS
 90
4
 70
0
 10
83.2866278695
 20
31.9630425344
 10
83.286100905
 20
31.9580392014
 10
83.2856368114
 20
31.9531932644
 10
83.2852516708
 20
31.9484027502
  0
LINE
  5
577
100
AcDbEntity
  8
0
100
AcDbLine
 62
7
  6
CONTINUOUS
 10
83.299479526
 20
51.0371665572
 11
83.249783365
 21
50.593684619
  0
LINE
  5
578
100
AcDbEntity
  8
0
100
AcDbLine
 62
7
  6
CONTINUOUS
 10
83.2545443351
 20
50.634069956
 11
83.1993366895
 21
50.1880950974
  0
LINE
  5
579
100
AcDbEntity
  8
0
100
AcDbLine
 62
7
  6
CONTINUOUS
 10
83.2037093046
 20
50.2217810072
 11
83.1435314534
 21
49.7785800788
  0
LINE
  5
57A
100
AcDbEntity
  8
0
100
AcDbLine
 62
7
  6
CONTINUOUS
 10
83.1469995232
 20
49.8030194902
 11
83.0808392773
 21
49.3563824774
  0
LINE
  5
57B
100
AcDbEntity
  8
0
100
AcDbLine
 62
7
  6
CONTINUOUS
 10
83.083240507
 20
49.3719222755
 11
83.0103849314
 21
48.9193076021
  0
LINE
  5
57C
100
AcDbEntity
  8
0
100
AcDbLine
 62
7
  6
CONTINUOUS
 10
109.687316962
 20
75.0337350079
 11
109.7306182322
 21
75.0087350079
  0
LWPOLYLINE
  5
57D
100
AcDbEntity
  8
0
100
AcDbPolyline
 62
7
  6
CONTINUOUS
 90
8
 70
0
 10
101.9186521511
 20
39.1060656116
 10
101.9203851228
 20
39.1003375101
 10
101.9361355298
 20
39.0306710207
 10
101.9468730661
 20
38.9600582058
 10
101.9525430038
 20
38.8888593565
 10
101.9531164822
 20
38.8174377076
 10
101.9485906401
 20
38.7461575829
 10
101.9389886277
 20
38.6753825972
  0
LWPOLYLINE
  5
57E
100
AcDbEntity
  8
0
100
AcDbPolyline
 62
253
  6
CONTINUOUS
 90
16
 70
0
 10
98.9091260922
 20
30.9100728092
 10
98.9104586286
 20
30.9045451295
 10
98.9117829921
 20
30.8992040755
 10
98.9130897781
 20
30.8940620685
 10
98.9143798975
 20
30.8891478578
 10
98.9156524397
 20
30.8844904064
 10
98.9168952684
 20
30.8801087264
 10
98.9181091527
 20
30.8760380509
 10
98.9192933239
 20
30.8723109718
 10
98.9204333394
 20
30.8689511057
 10
98.9215308224
 20
30.8659994776
 10
98.9225841501
 20
30.8634984119
 10
98.9235740109
 20
30.8614841893
 10
98.9244939676
 20
30.8600042401
 10
98.9253504581
 20
30.8591121359
 10
98.9261434825
 20
30.8588599703
  0
LINE
  5
57F
100
AcDbEntity
  8
0
100
AcDbLine
 62
253
  6
CONTINUOUS
 10
98.9064380702
 20
30.9215905333
 11
98.9091260922
 21
30.9100728092
  0
LINE
  5
580
100
AcDbEntity
  8
0
100
AcDbLine
 62
7
  6
CONTINUOUS
 10
101.9213696107
 20
39.0937655845
 11
101.9212488623
 21
39.0942918447
  0
LINE
  5
581
100
AcDbEntity
  8
0
100
AcDbLine
 62
7
  6
CONTINUOUS
 10
101.9212488623
 20
39.0942918447
 11
101.9206039694
 21
39.0971580056
  0
LINE
  5
582
100
AcDbEntity
  8
0
100
AcDbLine
 62
253
  6
CONTINUOUS
 10
98.9037387005
 20
30.933620957
 11
98.9064380702
 21
30.9215905333
  0
LINE
  5
583
100
AcDbEntity
  8
0
100
AcDbLine
 62
253
  6
CONTINUOUS
 10
98.9010414966
 20
30.9460265432
 11
98.9037387005
 21
30.933620957
  0
LINE
  5
584
100
AcDbEntity
  8
0
100
AcDbLine
 62
253
  6
CONTINUOUS
 10
98.8983660735
 20
30.9586908144
 11
98.9010414966
 21
30.9460265432
  0
LINE
  5
585
100
AcDbEntity
  8
0
100
AcDbLine
 62
253
  6
CONTINUOUS
 10
98.894428766
 20
30.9779209242
 11
98.8983660735
 21
30.9586908144
  0
LINE
  5
586
100
AcDbEntity
  8
0
100
AcDbLine
 62
253
  6
CONTINUOUS
 10
98.8906212353
 20
30.9971319216
 11
98.894428766
 21
30.9779209242
  0
LINE
  5
587
100
AcDbEntity
  8
0
100
AcDbLine
 62
253
  6
CONTINUOUS
 10
98.8869788503
 20
31.0160380883
 11
98.8906212353
 21
30.9971319216
  0
LINE
  5
588
100
AcDbEntity
  8
0
100
AcDbLine
 62
253
  6
CONTINUOUS
 10
98.8824220326
 20
31.0403793456
 11
98.8869788503
 21
31.0160380883
  0
LINE
  5
589
100
AcDbEntity
  8
0
100
AcDbLine
 62
253
  6
CONTINUOUS
 10
98.8772295688
 20
31.0689602
 11
98.8824220326
 21
31.0403793456
  0
LINE
  5
58A
100
AcDbEntity
  8
0
100
AcDbLine
 62
253
  6
CONTINUOUS
 10
98.8717006216
 20
31.1003034971
 11
98.8772295688
 21
31.0689602
  0
LINE
  5
58B
100
AcDbEntity
  8
0
100
AcDbLine
 62
253
  6
CONTINUOUS
 10
98.8676584721
 20
31.1239297546
 11
98.8717006216
 21
31.1003034971
  0
LINE
  5
58C
100
AcDbEntity
  8
0
100
AcDbLine
 62
253
  6
CONTINUOUS
 10
98.8603562208
 20
31.1680899294
 11
98.8676584721
 21
31.1239297546
  0
LINE
  5
58D
100
AcDbEntity
  8
0
100
AcDbLine
 62
253
  6
CONTINUOUS
 10
98.8548548138
 20
31.2018557629
 11
98.8603562208
 21
31.1680899294
  0
LINE
  5
58E
100
AcDbEntity
  8
0
100
AcDbLine
 62
253
  6
CONTINUOUS
 10
98.8532915955
 20
31.2118192098
 11
98.8548548138
 21
31.2018557629
  0
LINE
  5
58F
100
AcDbEntity
  8
0
100
AcDbLine
 62
253
  6
CONTINUOUS
 10
98.8480714186
 20
31.2461228565
 11
98.8496976519
 21
31.2356260284
  0
LINE
  5
590
100
AcDbEntity
  8
0
100
AcDbLine
 62
253
  6
CONTINUOUS
 10
98.8496976519
 20
31.2356260284
 11
98.8532915955
 21
31.2118192098
  0
LINE
  5
591
100
AcDbEntity
  8
0
100
AcDbLine
 62
7
  6
CONTINUOUS
 10
99.6797690763
 20
50.9937426075
 11
99.6356777854
 21
51.4323054234
  0
LWPOLYLINE
  5
592
100
AcDbEntity
  8
0
100
AcDbPolyline
 62
253
  6
CONTINUOUS
 90
7
 70
0
 10
99.724098549
 20
31.4597676014
 10
99.7245218709
 20
31.4553273516
 10
99.7249244527
 20
31.4514072562
 10
99.7253057714
 20
31.4480494026
 10
99.7256637651
 20
31.4453124416
 10
99.7259951805
 20
31.4432634575
 10
99.7262973025
 20
31.4419671162
  0
LINE
  5
593
100
AcDbEntity
  8
0
100
AcDbLine
 62
7
  6
CONTINUOUS
 10
99.6398244448
 20
51.3885660029
 11
99.6003928022
 21
51.8316176584
  0
LINE
  5
594
100
AcDbEntity
  8
0
100
AcDbLine
 62
253
  6
CONTINUOUS
 10
99.723197938
 20
31.4700097146
 11
99.724098549
 21
31.4597676014
  0
LINE
  5
595
100
AcDbEntity
  8
0
100
AcDbLine
 62
253
  6
CONTINUOUS
 10
99.7217321201
 20
31.4881936526
 11
99.723197938
 21
31.4700097146
  0
LINE
  5
596
100
AcDbEntity
  8
0
100
AcDbLine
 62
253
  6
CONTINUOUS
 10
99.7190685758
 20
31.523791795
 11
99.7217321201
 21
31.4881936526
  0
LINE
  5
597
100
AcDbEntity
  8
0
100
AcDbLine
 62
253
  6
CONTINUOUS
 10
99.7156669261
 20
31.5713616926
 11
99.7190685758
 21
31.523791795
  0
LINE
  5
598
100
AcDbEntity
  8
0
100
AcDbLine
 62
253
  6
CONTINUOUS
 10
99.7030934779
 20
31.7509515054
 11
99.7044445419
 21
31.7317623928
  0
LINE
  5
599
100
AcDbEntity
  8
0
100
AcDbLine
 62
253
  6
CONTINUOUS
 10
99.7145140027
 20
31.5877186524
 11
99.7156669261
 21
31.5713616926
  0
LINE
  5
59A
100
AcDbEntity
  8
0
100
AcDbLine
 62
253
  6
CONTINUOUS
 10
99.7022344013
 20
31.763148862
 11
99.7030934779
 21
31.7509515054
  0
LINE
  5
59B
100
AcDbEntity
  8
0
100
AcDbLine
 62
253
  6
CONTINUOUS
 10
99.7044445419
 20
31.7317623928
 11
99.7058656255
 21
31.7114947033
  0
LWPOLYLINE
  5
59C
100
AcDbEntity
  8
0
100
AcDbPolyline
 62
253
  6
CONTINUOUS
 90
3
 70
0
 10
99.7122230865
 20
31.6203910848
 10
99.7127918124
 20
31.6122629736
 10
99.7145140027
 20
31.5877186524
  0
LINE
  5
59D
100
AcDbEntity
  8
0
100
AcDbLine
 62
253
  6
CONTINUOUS
 10
99.6927779468
 20
31.8970190492
 11
99.6971865755
 21
31.8356933316
  0
LINE
  5
59E
100
AcDbEntity
  8
0
100
AcDbLine
 62
253
  6
CONTINUOUS
 10
99.7058656255
 20
31.7114947033
 11
99.706851811
 21
31.6973762305
  0
LWPOLYLINE
  5
59F
100
AcDbEntity
  8
0
100
AcDbPolyline
 62
253
  6
CONTINUOUS
 90
3
 70
0
 10
99.7099944361
 20
31.6522982621
 10
99.7110981275
 20
31.6364859151
 10
99.7122230865
 20
31.6203910848
  0
LINE
  5
5A0
100
AcDbEntity
  8
0
100
AcDbLine
 62
253
  6
CONTINUOUS
 10
99.706851811
 20
31.6973762305
 11
99.7099944361
 21
31.6522982621
  0
LWPOLYLINE
  5
5A1
100
AcDbEntity
  8
0
100
AcDbPolyline
 62
253
  6
CONTINUOUS
 90
4
 70
0
 10
99.6971865755
 20
31.8356933316
 10
99.6988137491
 20
31.8122525702
 10
99.6991595062
 20
31.8072478605
 10
99.7022344013
 20
31.763148862
  0
LWPOLYLINE
  5
5A2
100
AcDbEntity
  8
0
100
AcDbPolyline
 62
253
  6
CONTINUOUS
 90
3
 70
0
 10
99.6914278637
 20
31.9175326673
 10
99.691966082
 20
31.9092268435
 10
99.6927779468
 20
31.8970190492
  0
LINE
  5
5A3
100
AcDbEntity
  8
0
100
AcDbLine
 62
253
  6
CONTINUOUS
 10
99.6893822531
 20
31.9484027502
 11
99.6914278637
 21
31.9175326673
  0
LINE
  5
5A4
100
AcDbEntity
  8
0
100
AcDbLine
 62
253
  6
CONTINUOUS
 10
90.6824121156
 20
85.5837350079
 11
90.6824121156
 21
85.6337350079
  0
LINE
  5
5A5
100
AcDbEntity
  8
0
100
AcDbLine
 62
7
  6
CONTINUOUS
 10
91.4668507086
 20
85.5837350079
 11
91.4668507086
 21
85.6337350079
  0
LINE
  5
5A6
100
AcDbEntity
  8
0
100
AcDbLine
 62
7
  6
CONTINUOUS
 10
91.487316962
 20
27.4837350079
 11
91.487316962
 21
85.4837350079
  0
LINE
  5
5A7
100
AcDbEntity
  8
0
100
AcDbLine
 62
7
  6
CONTINUOUS
 10
91.4904843393
 20
85.5837350079
 11
91.4904843393
 21
85.6337350079
  0
LINE
  5
5A8
100
AcDbEntity
  8
0
100
AcDbLine
 62
253
  6
CONTINUOUS
 10
93.5105899188
 20
85.5837350079
 11
93.5105899188
 21
85.6337350079
  0
LINE
  5
5A9
100
AcDbEntity
  8
0
100
AcDbLine
 62
7
  6
CONTINUOUS
 10
93.6445856349
 20
85.5837350079
 11
93.6445856349
 21
85.6337350079
  0
LINE
  5
5AA
100
AcDbEntity
  8
0
100
AcDbLine
 62
7
  6
CONTINUOUS
 10
95.7151477415
 20
85.4837350079
 11
95.7151477415
 21
85.5337350079
  0
LINE
  5
5AB
100
AcDbEntity
  8
0
100
AcDbLine
 62
7
  6
CONTINUOUS
 10
95.7319963057
 20
85.4837350079
 11
95.7319963057
 21
85.5337350079
  0
LINE
  5
5AC
100
AcDbEntity
  8
0
100
AcDbLine
 62
253
  6
CONTINUOUS
 10
95.9058287305
 20
85.4837350079
 11
95.9058287305
 21
85.5337350079
  0
LINE
  5
5AD
100
AcDbEntity
  8
0
100
AcDbLine
 62
7
  6
CONTINUOUS
 10
96.0583265085
 20
85.4837350079
 11
96.0583265085
 21
85.5337350079
  0
LINE
  5
5AE
100
AcDbEntity
  8
0
100
AcDbLine
 62
253
  6
CONTINUOUS
 10
90.7474521459
 20
30.641330238
 11
90.747316962
 21
85.4837350079
  0
LINE
  5
5AF
100
AcDbEntity
  8
0
100
AcDbLine
 62
253
  6
CONTINUOUS
 10
92.227181778
 20
30.641330238
 11
92.227316962
 21
85.4837350079
  0
LINE
  5
5B0
100
AcDbEntity
  8
0
100
AcDbLine
 62
253
  6
CONTINUOUS
 10
84.1254708823
 20
31.2391050696
 11
84.1213423284
 21
31.2118192098
  0
LINE
  5
5B1
100
AcDbEntity
  8
0
100
AcDbLine
 62
253
  6
CONTINUOUS
 10
84.1213423284
 20
31.2118192098
 11
84.1197791101
 21
31.2018557629
  0
LINE
  5
5B2
100
AcDbEntity
  8
0
100
AcDbLine
 62
253
  6
CONTINUOUS
 10
84.1165460651
 20
31.1819476451
 11
84.1130843688
 21
31.1608024926
  0
LINE
  5
5B3
100
AcDbEntity
  8
0
100
AcDbLine
 62
253
  6
CONTINUOUS
 10
84.1197791101
 20
31.2018557629
 11
84.1165460651
 21
31.1819476451
  0
LINE
  5
5B4
100
AcDbEntity
  8
0
100
AcDbLine
 62
253
  6
CONTINUOUS
 10
84.1130843688
 20
31.1608024926
 11
84.1069754518
 21
31.1239297546
  0
LINE
  5
5B5
100
AcDbEntity
  8
0
100
AcDbLine
 62
253
  6
CONTINUOUS
 10
84.1069754518
 20
31.1239297546
 11
84.1029333023
 21
31.1003034971
  0
LINE
  5
5B6
100
AcDbEntity
  8
0
100
AcDbLine
 62
7
  6
CONTINUOUS
 10
83.011714516
 20
48.9272502331
 11
82.9322993271
 21
48.4715607341
  0
LINE
  5
5B7
100
AcDbEntity
  8
0
100
AcDbLine
 62
253
  6
CONTINUOUS
 10
84.1029333023
 20
31.1003034971
 11
84.0974043551
 21
31.0689602
  0
LINE
  5
5B8
100
AcDbEntity
  8
0
100
AcDbLine
 62
7
  6
CONTINUOUS
 10
82.8984533056
 20
48.1921186589
 11
82.8640345039
 21
48.0021702751
  0
LWPOLYLINE
  5
5B9
100
AcDbEntity
  8
0
100
AcDbPolyline
 62
253
  6
CONTINUOUS
 90
3
 70
0
 10
81.186493515
 20
39.4543540483
 10
81.1652299493
 20
39.338529247
 10
81.1552347342
 20
39.2841073963
  0
LINE
  5
5BA
100
AcDbEntity
  8
0
100
AcDbLine
 62
253
  6
CONTINUOUS
 10
81.1977616729
 20
39.5157108861
 11
81.186493515
 21
39.4543540483
  0
LINE
  5
5BB
100
AcDbEntity
  8
0
100
AcDbLine
 62
253
  6
CONTINUOUS
 10
84.0974043551
 20
31.0689602
 11
84.0922118913
 21
31.0403793456
  0
LINE
  5
5BC
100
AcDbEntity
  8
0
100
AcDbLine
 62
253
  6
CONTINUOUS
 10
81.1552347342
 20
39.2841073963
 11
81.1039173721
 21
39.0062082768
  0
LINE
  5
5BD
100
AcDbEntity
  8
0
100
AcDbLine
 62
253
  6
CONTINUOUS
 10
82.8640345039
 20
48.0021702751
 11
82.7823776552
 21
47.5629013747
  0
LINE
  5
5BE
100
AcDbEntity
  8
0
100
AcDbLine
 62
253
  6
CONTINUOUS
 10
81.3169952758
 20
40.1616789578
 11
81.1977616729
 21
39.5157108861
  0
LINE
  5
5BF
100
AcDbEntity
  8
0
100
AcDbLine
 62
7
  6
CONTINUOUS
 10
82.9324291247
 20
48.4722760687
 11
82.8595018103
 21
48.0816422613
  0
LINE
  5
5C0
100
AcDbEntity
  8
0
100
AcDbLine
 62
253
  6
CONTINUOUS
 10
82.7823776552
 20
47.5629013747
 11
82.6927081468
 21
47.0841765311
  0
LINE
  5
5C1
100
AcDbEntity
  8
0
100
AcDbLine
 62
253
  6
CONTINUOUS
 10
82.6927081468
 20
47.0841765311
 11
82.6012657507
 21
46.5991263702
  0
LINE
  5
5C2
100
AcDbEntity
  8
0
100
AcDbLine
 62
253
  6
CONTINUOUS
 10
84.0922118913
 20
31.0403793456
 11
84.0876550736
 21
31.0160380883
  0
LINE
  5
5C3
100
AcDbEntity
  8
0
100
AcDbLine
 62
253
  6
CONTINUOUS
 10
81.365292899
 20
40.4176716586
 11
81.3169952758
 21
40.1616789578
  0
LINE
  5
5C4
100
AcDbEntity
  8
0
100
AcDbLine
 62
253
  6
CONTINUOUS
 10
82.6012657507
 20
46.5991263702
 11
82.5119357875
 21
46.1291891234
  0
LINE
  5
5C5
100
AcDbEntity
  8
0
100
AcDbLine
 62
253
  6
CONTINUOUS
 10
81.1039173721
 20
39.0062082768
 11
81.0777361114
 21
38.8675126987
  0
LINE
  5
5C6
100
AcDbEntity
  8
0
100
AcDbLine
 62
253
  6
CONTINUOUS
 10
82.5119357875
 20
46.1291891234
 11
82.4236118906
 21
45.669166539
  0
LINE
  5
5C7
100
AcDbEntity
  8
0
100
AcDbLine
 62
7
  6
CONTINUOUS
 10
82.8595141509
 20
48.081694728
 11
82.7736642491
 21
47.6372268157
  0
LINE
  5
5C8
100
AcDbEntity
  8
0
100
AcDbLine
 62
253
  6
CONTINUOUS
 10
84.0876550736
 20
31.0160380883
 11
84.0840126887
 21
30.9971319216
  0
LINE
  5
5C9
100
AcDbEntity
  8
0
100
AcDbLine
 62
253
  6
CONTINUOUS
 10
82.4236118906
 20
45.669166539
 11
82.3356225593
 21
45.2157997721
  0
LINE
  5
5CA
100
AcDbEntity
  8
0
100
AcDbLine
 62
7
  6
CONTINUOUS
 10
82.7736642491
 20
47.6372268157
 11
82.6622183315
 21
47.0644082499
  0
LINE
  5
5CB
100
AcDbEntity
  8
0
100
AcDbLine
 62
253
  6
CONTINUOUS
 10
81.0777361114
 20
38.8675126987
 11
81.0669962823
 21
38.8121411005
  0
LINE
  5
5CC
100
AcDbEntity
  8
0
100
AcDbLine
 62
253
  6
CONTINUOUS
 10
81.4189589479
 20
40.6947138643
 11
81.365292899
 21
40.4176716586
  0
LINE
  5
5CD
100
AcDbEntity
  8
0
100
AcDbLine
 62
7
  6
CONTINUOUS
 10
82.6622183315
 20
47.0644082499
 11
82.6313797687
 21
46.906469866
  0
LWPOLYLINE
  5
5CE
100
AcDbEntity
  8
0
100
AcDbPolyline
 62
7
  6
CONTINUOUS
 90
3
 70
0
 10
81.2693273402
 20
40.1871117463
 10
81.2643455033
 20
40.1616473393
 10
81.1605772853
 20
39.6308802187
  0
LINE
  5
5CF
100
AcDbEntity
  8
0
100
AcDbLine
 62
7
  6
CONTINUOUS
 10
81.1605772853
 20
39.6308802187
 11
81.157225736
 21
39.6137491809
  0
LWPOLYLINE
  5
5D0
100
AcDbEntity
  8
0
100
AcDbPolyline
 62
7
  6
CONTINUOUS
 90
3
 70
0
 10
81.157225736
 20
39.6137491809
 10
81.1506984872
 20
39.5803974833
 10
81.1475223692
 20
39.564175456
  0
LWPOLYLINE
  5
5D1
100
AcDbEntity
  8
0
100
AcDbPolyline
 62
7
  6
CONTINUOUS
 90
4
 70
0
 10
81.289932333
 20
40.292382484
 10
81.2846785696
 20
40.2655510033
 10
81.2794934498
 20
40.239062757
 10
81.2693273402
 20
40.1871117463
  0
LINE
  5
5D2
100
AcDbEntity
  8
0
100
AcDbLine
 62
7
  6
CONTINUOUS
 10
81.1475223692
 20
39.564175456
 11
81.1413433422
 21
39.5326317738
  0
LINE
  5
5D3
100
AcDbEntity
  8
0
100
AcDbLine
 62
7
  6
CONTINUOUS
 10
81.3006490841
 20
40.347087478
 11
81.289932333
 21
40.292382484
  0
LINE
  5
5D4
100
AcDbEntity
  8
0
100
AcDbLine
 62
7
  6
CONTINUOUS
 10
81.3116469535
 20
40.4031859923
 11
81.3006490841
 21
40.347087478
  0
LINE
  5
5D5
100
AcDbEntity
  8
0
100
AcDbLine
 62
7
  6
CONTINUOUS
 10
81.1413433422
 20
39.5326317738
 11
81.1353932076
 21
39.5022806588
  0
LINE
  5
5D6
100
AcDbEntity
  8
0
100
AcDbLine
 62
7
  6
CONTINUOUS
 10
81.1353932076
 20
39.5022806588
 11
81.1296688795
 21
39.473109369
  0
LINE
  5
5D7
100
AcDbEntity
  8
0
100
AcDbLine
 62
7
  6
CONTINUOUS
 10
82.6313797687
 20
46.906469866
 11
82.5267358795
 21
46.3727989876
  0
LINE
  5
5D8
100
AcDbEntity
  8
0
100
AcDbLine
 62
7
  6
CONTINUOUS
 10
81.1296688795
 20
39.473109369
 11
81.118886376
 21
39.4182598661
  0
LINE
  5
5D9
100
AcDbEntity
  8
0
100
AcDbLine
 62
253
  6
CONTINUOUS
 10
82.3356225593
 20
45.2157997721
 11
82.2478503683
 21
44.7683097709
  0
LINE
  5
5DA
100
AcDbEntity
  8
0
100
AcDbLine
 62
7
  6
CONTINUOUS
 10
82.5267358795
 20
46.3727989876
 11
82.4408564745
 21
45.9379808951
  0
LINE
  5
5DB
100
AcDbEntity
  8
0
100
AcDbLine
 62
253
  6
CONTINUOUS
 10
82.2478503683
 20
44.7683097709
 11
82.1609121985
 21
44.329499329
  0
LINE
  5
5DC
100
AcDbEntity
  8
0
100
AcDbLine
 62
253
  6
CONTINUOUS
 10
81.4774848668
 20
40.9902287929
 11
81.4189589479
 21
40.6947138643
  0
LINE
  5
5DD
100
AcDbEntity
  8
0
100
AcDbLine
 62
7
  6
CONTINUOUS
 10
82.4408564745
 20
45.9379808951
 11
82.3582249807
 21
45.5226408468
  0
LINE
  5
5DE
100
AcDbEntity
  8
0
100
AcDbLine
 62
253
  6
CONTINUOUS
 10
84.0840126887
 20
30.9971319216
 11
84.0802051579
 21
30.9779209242
  0
LINE
  5
5DF
100
AcDbEntity
  8
0
100
AcDbLine
 62
7
  6
CONTINUOUS
 10
81.3977620904
 20
40.8376914409
 11
81.3116469535
 21
40.4031859923
  0
LINE
  5
5E0
100
AcDbEntity
  8
0
100
AcDbLine
 62
253
  6
CONTINUOUS
 10
82.1609121985
 20
44.329499329
 11
82.0753573803
 21
43.9017641813
  0
LINE
  5
5E1
100
AcDbEntity
  8
0
100
AcDbLine
 62
7
  6
CONTINUOUS
 10
81.118886376
 20
39.4182598661
 11
81.0824519556
 21
39.234717834
  0
LINE
  5
5E2
100
AcDbEntity
  8
0
100
AcDbLine
 62
7
  6
CONTINUOUS
 10
82.3582249807
 20
45.5226408468
 11
82.2656595015
 21
45.0607869318
  0
LWPOLYLINE
  5
5E3
100
AcDbEntity
  8
0
100
AcDbPolyline
 62
253
  6
CONTINUOUS
 90
11
 70
0
 10
81.0669962823
 20
38.8121411005
 10
81.0578157939
 20
38.7661159032
 10
81.0538068061
 20
38.7466233656
 10
81.0501856537
 20
38.7294746546
 10
81.0469508586
 20
38.7146829466
 10
81.0441021784
 20
38.7022477246
 10
81.0416398327
 20
38.6921640657
 10
81.0395628605
 20
38.6844372488
 10
81.0378710402
 20
38.6790673447
 10
81.0365649746
 20
38.676049713
 10
81.0356449995
 20
38.6753825461
  0
LINE
  5
5E4
100
AcDbEntity
  8
0
100
AcDbLine
 62
7
  6
CONTINUOUS
 10
82.2656595015
 20
45.0607869318
 11
82.1769541696
 21
44.6213135997
  0
LINE
  5
5E5
100
AcDbEntity
  8
0
100
AcDbLine
 62
253
  6
CONTINUOUS
 10
82.0753573803
 20
43.9017641813
 11
81.9916012455
 21
43.4868289253
  0
LINE
  5
5E6
100
AcDbEntity
  8
0
100
AcDbLine
 62
7
  6
CONTINUOUS
 10
82.1769541696
 20
44.6213135997
 11
82.1522823523
 21
44.4995886233
  0
LINE
  5
5E7
100
AcDbEntity
  8
0
100
AcDbLine
 62
253
  6
CONTINUOUS
 10
81.540666306
 20
41.3028977184
 11
81.4774848668
 21
40.9902287929
  0
LINE
  5
5E8
100
AcDbEntity
  8
0
100
AcDbLine
 62
7
  6
CONTINUOUS
 10
82.1522823523
 20
44.4995886233
 11
82.0564034849
 21
44.0285592309
  0
LINE
  5
5E9
100
AcDbEntity
  8
0
100
AcDbLine
 62
253
  6
CONTINUOUS
 10
81.9916012455
 20
43.4868289253
 11
81.9097630786
 21
43.084945684
  0
LINE
  5
5EA
100
AcDbEntity
  8
0
100
AcDbLine
 62
7
  6
CONTINUOUS
 10
81.5158493279
 20
41.4191593847
 11
81.3977620904
 21
40.8376914409
  0
LINE
  5
5EB
100
AcDbEntity
  8
0
100
AcDbLine
 62
7
  6
CONTINUOUS
 10
82.0564034849
 20
44.0285592309
 11
81.987274277
 21
43.6909050678
  0
LINE
  5
5EC
100
AcDbEntity
  8
0
100
AcDbLine
 62
7
  6
CONTINUOUS
 10
81.0824519556
 20
39.234717834
 11
81.0664929491
 21
39.1561316631
  0
LINE
  5
5ED
100
AcDbEntity
  8
0
100
AcDbLine
 62
253
  6
CONTINUOUS
 10
81.9097630786
 20
43.084945684
 11
81.8301476604
 21
42.6971347323
  0
LINE
  5
5EE
100
AcDbEntity
  8
0
100
AcDbLine
 62
7
  6
CONTINUOUS
 10
81.987274277
 20
43.6909050678
 11
81.9093987936
 21
43.3124709239
  0
LINE
  5
5EF
100
AcDbEntity
  8
0
100
AcDbLine
 62
7
  6
CONTINUOUS
 10
81.9093987936
 20
43.3124709239
 11
81.8555329226
 21
43.0518465549
  0
LINE
  5
5F0
100
AcDbEntity
  8
0
100
AcDbLine
 62
253
  6
CONTINUOUS
 10
81.608175614
 20
41.630290828
 11
81.540666306
 21
41.3028977184
  0
LINE
  5
5F1
100
AcDbEntity
  8
0
100
AcDbLine
 62
253
  6
CONTINUOUS
 10
81.8301476604
 20
42.6971347323
 11
81.75260961
 21
42.3222530711
  0
LINE
  5
5F2
100
AcDbEntity
  8
0
100
AcDbLine
 62
7
  6
CONTINUOUS
 10
81.8555329226
 20
43.0518465549
 11
81.8239346014
 21
42.8993681715
  0
LINE
  5
5F3
100
AcDbEntity
  8
0
100
AcDbLine
 62
7
  6
CONTINUOUS
 10
81.8239346014
 20
42.8993681715
 11
81.7826663439
 21
42.7006650982
  0
LINE
  5
5F4
100
AcDbEntity
  8
0
100
AcDbLine
 62
7
  6
CONTINUOUS
 10
81.7826663439
 20
42.7006650982
 11
81.7523777255
 21
42.555132814
  0
LINE
  5
5F5
100
AcDbEntity
  8
0
100
AcDbLine
 62
7
  6
CONTINUOUS
 10
81.7523777255
 20
42.555132814
 11
81.7325086726
 21
42.4597977171
  0
LINE
  5
5F6
100
AcDbEntity
  8
0
100
AcDbLine
 62
253
  6
CONTINUOUS
 10
81.75260961
 20
42.3222530711
 11
81.6787790584
 21
41.9676242436
  0
LINE
  5
5F7
100
AcDbEntity
  8
0
100
AcDbLine
 62
7
  6
CONTINUOUS
 10
81.7325086726
 20
42.4597977171
 11
81.7031965525
 21
42.3193401239
  0
LINE
  5
5F8
100
AcDbEntity
  8
0
100
AcDbLine
 62
7
  6
CONTINUOUS
 10
81.7031965525
 20
42.3193401239
 11
81.6744727402
 21
42.1819313508
  0
LINE
  5
5F9
100
AcDbEntity
  8
0
100
AcDbLine
 62
7
  6
CONTINUOUS
 10
81.6370516802
 20
42.0032243346
 11
81.5158493279
 21
41.4191593847
  0
LWPOLYLINE
  5
5FA
100
AcDbEntity
  8
0
100
AcDbPolyline
 62
7
  6
CONTINUOUS
 90
3
 70
0
 10
81.6744727402
 20
42.1819313508
 10
81.6556403931
 20
42.0919745513
 10
81.6370516802
 20
42.0032243346
  0
LINE
  5
5FB
100
AcDbEntity
  8
0
100
AcDbLine
 62
253
  6
CONTINUOUS
 10
81.6787790584
 20
41.9676242436
 11
81.608175614
 21
41.630290828
  0
LINE
  5
5FC
100
AcDbEntity
  8
0
100
AcDbLine
 62
7
  6
CONTINUOUS
 10
81.0664929491
 20
39.1561316631
 11
81.059375193
 21
39.121955068
  0
LINE
  5
5FD
100
AcDbEntity
  8
0
100
AcDbLine
 62
7
  6
CONTINUOUS
 10
81.059375193
 20
39.121955068
 11
81.0558069298
 21
39.1052573258
  0
LINE
  5
5FE
100
AcDbEntity
  8
0
100
AcDbLine
 62
7
  6
CONTINUOUS
 10
81.0558069298
 20
39.1052573258
 11
81.0543418945
 21
39.0985629464
  0
LINE
  5
5FF
100
AcDbEntity
  8
0
100
AcDbLine
 62
7
  6
CONTINUOUS
 10
81.0543418945
 20
39.0985629464
 11
81.0538499214
 21
39.0963517737
  0
LINE
  5
600
100
AcDbEntity
  8
0
100
AcDbLine
 62
7
  6
CONTINUOUS
 10
101.9206039694
 20
39.0971580056
 11
101.9190235376
 21
39.1043518837
  0
LINE
  5
601
100
AcDbEntity
  8
0
100
AcDbLine
 62
7
  6
CONTINUOUS
 10
101.9190235376
 20
39.1043518837
 11
101.9160453029
 21
39.1182396485
  0
LWPOLYLINE
  5
602
100
AcDbEntity
  8
0
100
AcDbPolyline
 62
253
  6
CONTINUOUS
 90
9
 70
0
 10
101.9208271178
 20
38.7466233656
 10
101.9244482702
 20
38.7294746546
 10
101.9276830653
 20
38.7146829466
 10
101.9305317456
 20
38.7022477246
 10
101.9329940912
 20
38.6921640657
 10
101.9350710634
 20
38.6844372488
 10
101.9367628837
 20
38.6790673447
 10
101.9380689493
 20
38.676049713
 10
101.9389889245
 20
38.6753825461
  0
LINE
  5
603
100
AcDbEntity
  8
0
100
AcDbLine
 62
7
  6
CONTINUOUS
 10
101.3419127205
 20
41.9825164297
 11
101.3086625935
 21
42.1413104424
  0
LINE
  5
604
100
AcDbEntity
  8
0
100
AcDbLine
 62
7
  6
CONTINUOUS
 10
101.3200572938
 20
42.086888459
 11
101.3089641429
 21
42.1398764534
  0
LINE
  5
605
100
AcDbEntity
  8
0
100
AcDbLine
 62
7
  6
CONTINUOUS
 10
101.3089641429
 20
42.1398764534
 11
101.263510358
 21
42.3573163148
  0
LINE
  5
606
100
AcDbEntity
  8
0
100
AcDbLine
 62
7
  6
CONTINUOUS
 10
101.2747234923
 20
42.3036080204
 11
101.2631894547
 21
42.3588394735
  0
LINE
  5
607
100
AcDbEntity
  8
0
100
AcDbLine
 62
253
  6
CONTINUOUS
 10
101.2958548656
 20
41.9676242436
 11
101.3664583099
 21
41.630290828
  0
LINE
  5
608
100
AcDbEntity
  8
0
100
AcDbLine
 62
7
  6
CONTINUOUS
 10
101.263510358
 20
42.3573163148
 11
101.2159473732
 21
42.5854252281
  0
LINE
  5
609
100
AcDbEntity
  8
0
100
AcDbLine
 62
7
  6
CONTINUOUS
 10
101.916047352
 20
39.1182300894
 11
101.9101109992
 21
39.146591901
  0
LINE
  5
60A
100
AcDbEntity
  8
0
100
AcDbLine
 62
7
  6
CONTINUOUS
 10
101.2162928955
 20
42.5837592928
 11
101.1418711838
 21
42.9419389337
  0
LINE
  5
60B
100
AcDbEntity
  8
0
100
AcDbLine
 62
253
  6
CONTINUOUS
 10
101.1444862635
 20
42.6971347323
 11
101.2958548656
 21
41.9676242436
  0
LINE
  5
60C
100
AcDbEntity
  8
0
100
AcDbLine
 62
253
  6
CONTINUOUS
 10
101.3664583099
 20
41.630290828
 11
101.4118991378
 21
41.4105297981
  0
LINE
  5
60D
100
AcDbEntity
  8
0
100
AcDbLine
 62
7
  6
CONTINUOUS
 10
101.1422640826
 20
42.9400457238
 11
101.0374965399
 21
43.4470362503
  0
LINE
  5
60E
100
AcDbEntity
  8
0
100
AcDbLine
 62
7
  6
CONTINUOUS
 10
101.4798436759
 20
41.3164170418
 11
101.3416381736
 21
41.9838544921
  0
LINE
  5
60F
100
AcDbEntity
  8
0
100
AcDbLine
 62
7
  6
CONTINUOUS
 10
101.0379580151
 20
43.4447948902
 11
100.9411381314
 21
43.9164876868
  0
LINE
  5
610
100
AcDbEntity
  8
0
100
AcDbLine
 62
253
  6
CONTINUOUS
 10
101.010538357
 20
43.3513670336
 11
101.1444862635
 21
42.6971347323
  0
LINE
  5
611
100
AcDbEntity
  8
0
100
AcDbLine
 62
253
  6
CONTINUOUS
 10
101.4118991378
 20
41.4105297981
 11
101.455525311
 21
41.1969392239
  0
LINE
  5
612
100
AcDbEntity
  8
0
100
AcDbLine
 62
7
  6
CONTINUOUS
 10
100.9416664866
 20
43.913905102
 11
100.8397632712
 21
44.4138122081
  0
LINE
  5
613
100
AcDbEntity
  8
0
100
AcDbLine
 62
7
  6
CONTINUOUS
 10
101.9101109992
 20
39.146591901
 11
101.897924717
 21
39.2062309411
  0
LINE
  5
614
100
AcDbEntity
  8
0
100
AcDbLine
 62
7
  6
CONTINUOUS
 10
100.8403637462
 20
44.4108560246
 11
100.7485596868
 21
44.8643093247
  0
LINE
  5
615
100
AcDbEntity
  8
0
100
AcDbLine
 62
7
  6
CONTINUOUS
 10
101.5625303184
 20
40.9090483561
 11
101.4433932697
 21
41.4940232227
  0
LINE
  5
616
100
AcDbEntity
  8
0
100
AcDbLine
 62
253
  6
CONTINUOUS
 10
101.9124218002
 20
38.7879545057
 11
101.9208271178
 21
38.7466233656
  0
LINE
  5
617
100
AcDbEntity
  8
0
100
AcDbLine
 62
253
  6
CONTINUOUS
 10
100.8992765436
 20
43.9017641813
 11
101.010538357
 21
43.3513670336
  0
LINE
  5
618
100
AcDbEntity
  8
0
100
AcDbLine
 62
253
  6
CONTINUOUS
 10
101.455525311
 20
41.1969392239
 11
101.4971490571
 21
40.9902287929
  0
LINE
  5
619
100
AcDbEntity
  8
0
100
AcDbLine
 62
7
  6
CONTINUOUS
 10
100.7492262738
 20
44.8610059144
 11
100.6531008587
 21
45.3391487732
  0
LINE
  5
61A
100
AcDbEntity
  8
0
100
AcDbLine
 62
7
  6
CONTINUOUS
 10
100.6538377914
 20
45.3354691814
 11
100.57011182
 21
45.7549811551
  0
LINE
  5
61B
100
AcDbEntity
  8
0
100
AcDbLine
 62
253
  6
CONTINUOUS
 10
100.7848739187
 20
44.4746368317
 11
100.8992765436
 21
43.9017641813
  0
LINE
  5
61C
100
AcDbEntity
  8
0
100
AcDbLine
 62
253
  6
CONTINUOUS
 10
101.4971490571
 20
40.9902287929
 11
101.5366977623
 21
40.791227409
  0
LINE
  5
61D
100
AcDbEntity
  8
0
100
AcDbLine
 62
7
  6
CONTINUOUS
 10
101.897924717
 20
39.2062309411
 11
101.8665143529
 21
39.3636659579
  0
LINE
  5
61E
100
AcDbEntity
  8
0
100
AcDbLine
 62
7
  6
CONTINUOUS
 10
100.5709107134
 20
45.7509641821
 11
100.4838133302
 21
46.1905754696
  0
LINE
  5
61F
100
AcDbEntity
  8
0
100
AcDbLine
 62
7
  6
CONTINUOUS
 10
101.6399487014
 20
40.5204770868
 11
101.5549909603
 21
40.9464729862
  0
LINE
  5
620
100
AcDbEntity
  8
0
100
AcDbLine
 62
7
  6
CONTINUOUS
 10
101.8665143529
 20
39.3636659579
 11
101.8544493093
 21
39.4248559963
  0
LINE
  5
621
100
AcDbEntity
  8
0
100
AcDbLine
 62
7
  6
CONTINUOUS
 10
101.8544493093
 20
39.4248559963
 11
101.8465266022
 21
39.4651575508
  0
LINE
  5
622
100
AcDbEntity
  8
0
100
AcDbLine
 62
253
  6
CONTINUOUS
 10
100.6683174158
 20
45.0658578113
 11
100.7848739187
 21
44.4746368317
  0
LINE
  5
623
100
AcDbEntity
  8
0
100
AcDbLine
 62
7
  6
CONTINUOUS
 10
100.4846775964
 20
46.1861968127
 11
100.3940001069
 21
46.6471965384
  0
LINE
  5
624
100
AcDbEntity
  8
0
100
AcDbLine
 62
7
  6
CONTINUOUS
 10
101.6584942221
 20
40.4260874728
 11
101.639809678
 21
40.521154576
  0
LWPOLYLINE
  5
625
100
AcDbEntity
  8
0
100
AcDbPolyline
 62
7
  6
CONTINUOUS
 90
3
 70
0
 10
101.8465266022
 20
39.4651575508
 10
101.8380673376
 20
39.5082640291
 10
101.8351249592
 20
39.5232721046
  0
LINE
  5
626
100
AcDbEntity
  8
0
100
AcDbLine
 62
7
  6
CONTINUOUS
 10
101.6646408741
 20
40.3947531884
 11
101.6525104885
 21
40.4565865798
  0
LINE
  5
627
100
AcDbEntity
  8
0
100
AcDbLine
 62
7
  6
CONTINUOUS
 10
101.6704316883
 20
40.3652164223
 11
101.664512584
 21
40.3954068552
  0
LINE
  5
628
100
AcDbEntity
  8
0
100
AcDbLine
 62
7
  6
CONTINUOUS
 10
101.6763672583
 20
40.334914705
 11
101.6646408741
 21
40.3947531884
  0
LINE
  5
629
100
AcDbEntity
  8
0
100
AcDbLine
 62
7
  6
CONTINUOUS
 10
101.8351249592
 20
39.5232721046
 11
101.829051876
 21
39.5542676566
  0
LINE
  5
62A
100
AcDbEntity
  8
0
100
AcDbLine
 62
7
  6
CONTINUOUS
 10
101.682091217
 20
40.305694431
 11
101.6762535042
 21
40.3355099644
  0
LINE
  5
62B
100
AcDbEntity
  8
0
100
AcDbLine
 62
7
  6
CONTINUOUS
 10
101.693275936
 20
40.248576802
 11
101.6819836027
 21
40.3062602993
  0
LWPOLYLINE
  5
62C
100
AcDbEntity
  8
0
100
AcDbPolyline
 62
7
  6
CONTINUOUS
 90
4
 70
0
 10
101.829051876
 20
39.5542676566
 10
101.8227228062
 20
39.5865918272
 10
101.8194603726
 20
39.6032610212
 10
101.8161318458
 20
39.6202720757
  0
LWPOLYLINE
  5
62D
100
AcDbEntity
  8
0
100
AcDbPolyline
 62
7
  6
CONTINUOUS
 90
4
 70
0
 10
101.7094017416
 20
40.166181251
 10
101.7041119953
 20
40.1932148506
 10
101.6987369881
 20
40.2206789304
 10
101.693275936
 20
40.248576802
  0
LWPOLYLINE
  5
62E
100
AcDbEntity
  8
0
100
AcDbPolyline
 62
7
  6
CONTINUOUS
 90
4
 70
0
 10
101.7093045971
 20
40.1666763319
 10
101.7040149354
 20
40.1937133967
 10
101.6986392374
 20
40.2211856428
 10
101.6931760389
 20
40.2490988975
  0
LWPOLYLINE
  5
62F
100
AcDbEntity
  8
0
100
AcDbPolyline
 62
7
  6
CONTINUOUS
 90
3
 70
0
 10
101.8160754595
 20
39.6205608322
 10
101.8092137195
 20
39.6556400174
 10
101.8056808787
 20
39.6737056519
  0
LINE
  5
630
100
AcDbEntity
  8
0
100
AcDbLine
 62
7
  6
CONTINUOUS
 10
101.7247691872
 20
40.0876205608
 11
101.7093045971
 21
40.1666763319
  0
LINE
  5
631
100
AcDbEntity
  8
0
100
AcDbLine
 62
7
  6
CONTINUOUS
 10
101.8057422657
 20
39.6733916841
 11
101.8020791692
 21
39.6921261782
  0
LINE
  5
632
100
AcDbEntity
  8
0
100
AcDbLine
 62
7
  6
CONTINUOUS
 10
101.8021421153
 20
39.6918044495
 11
101.7984077988
 21
39.7109053717
  0
LINE
  5
633
100
AcDbEntity
  8
0
100
AcDbLine
 62
7
  6
CONTINUOUS
 10
101.7984722383
 20
39.7105761948
 11
101.7246738549
 21
40.0881026091
  0
LINE
  5
634
100
AcDbEntity
  8
0
100
AcDbLine
 62
253
  6
CONTINUOUS
 10
101.9024628529
 20
38.8386608382
 11
101.9124218002
 21
38.7879545057
  0
LINE
  5
635
100
AcDbEntity
  8
0
100
AcDbLine
 62
253
  6
CONTINUOUS
 10
101.5366977623
 20
40.791227409
 11
101.5741259721
 21
40.6002024174
  0
LINE
  5
636
100
AcDbEntity
  8
0
100
AcDbLine
 62
7
  6
CONTINUOUS
 10
100.3949339387
 20
46.6424333432
 11
100.2812127031
 21
47.2244620859
  0
LINE
  5
637
100
AcDbEntity
  8
0
100
AcDbLine
 62
7
  6
CONTINUOUS
 10
100.2822361591
 20
47.2192081239
 11
100.182754736
 21
47.7312254111
  0
LINE
  5
638
100
AcDbEntity
  8
0
100
AcDbLine
 62
253
  6
CONTINUOUS
 10
100.5510220333
 20
45.669166539
 11
100.6683174158
 21
45.0658578113
  0
LINE
  5
639
100
AcDbEntity
  8
0
100
AcDbLine
 62
7
  6
CONTINUOUS
 10
100.1838573283
 20
47.7255317281
 11
100.1151198461
 21
48.081694833
  0
LINE
  5
63A
100
AcDbEntity
  8
0
100
AcDbLine
 62
253
  6
CONTINUOUS
 10
101.5741259721
 20
40.6002024174
 11
101.6093410249
 21
40.4176716586
  0
LINE
  5
63B
100
AcDbEntity
  8
0
100
AcDbLine
 62
253
  6
CONTINUOUS
 10
100.4330723364
 20
46.2845605359
 11
100.5510220333
 21
45.669166539
  0
LINE
  5
63C
100
AcDbEntity
  8
0
100
AcDbLine
 62
253
  6
CONTINUOUS
 10
101.884593464
 20
38.9322104268
 11
101.9024628529
 21
38.8386608382
  0
LINE
  5
63D
100
AcDbEntity
  8
0
100
AcDbLine
 62
253
  6
CONTINUOUS
 10
100.3123590128
 20
46.9223585236
 11
100.4330723364
 21
46.2845605359
  0
LINE
  5
63E
100
AcDbEntity
  8
0
100
AcDbLine
 62
253
  6
CONTINUOUS
 10
101.6093410249
 20
40.4176716586
 11
101.642119659
 21
40.2441938322
  0
LINE
  5
63F
100
AcDbEntity
  8
0
100
AcDbLine
 62
253
  6
CONTINUOUS
 10
101.642119659
 20
40.2441938322
 11
101.67254411
 21
40.0818726022
  0
LINE
  5
640
100
AcDbEntity
  8
0
100
AcDbLine
 62
7
  6
CONTINUOUS
 10
100.1151321136
 20
48.0816422613
 11
100.0422047993
 21
48.4722760687
  0
LINE
  5
641
100
AcDbEntity
  8
0
100
AcDbLine
 62
253
  6
CONTINUOUS
 10
100.1641299519
 20
47.7138508259
 11
100.3123590128
 21
46.9223585236
  0
LINE
  5
642
100
AcDbEntity
  8
0
100
AcDbLine
 62
253
  6
CONTINUOUS
 10
100.11059942
 20
48.0021702751
 11
100.1641299519
 21
47.7138508259
  0
LINE
  5
643
100
AcDbEntity
  8
0
100
AcDbLine
 62
253
  6
CONTINUOUS
 10
101.67254411
 20
40.0818726022
 11
101.727665149
 21
39.783175321
  0
LINE
  5
644
100
AcDbEntity
  8
0
100
AcDbLine
 62
253
  6
CONTINUOUS
 10
101.727665149
 20
39.783175321
 11
101.7651625283
 21
39.5794425354
  0
LWPOLYLINE
  5
645
100
AcDbEntity
  8
0
100
AcDbPolyline
 62
253
  6
CONTINUOUS
 90
5
 70
0
 10
101.7651625283
 20
39.5794425354
 10
101.7881404089
 20
39.4543540483
 10
101.7989837911
 20
39.3952801491
 10
101.8094039746
 20
39.338529247
 10
101.884593464
 20
38.9322104268
  0
LINE
  5
646
100
AcDbEntity
  8
0
100
AcDbLine
 62
7
  6
CONTINUOUS
 10
100.0761806183
 20
48.1921186589
 11
100.11059942
 21
48.0021702751
  0
LINE
  5
647
100
AcDbEntity
  8
0
100
AcDbLine
 62
7
  6
CONTINUOUS
 10
100.0423345969
 20
48.4715607341
 11
99.962919408
 21
48.9272502331
  0
LINE
  5
648
100
AcDbEntity
  8
0
100
AcDbLine
 62
7
  6
CONTINUOUS
 10
99.9642489925
 20
48.9193076021
 11
99.8913934169
 21
49.3719222755
  0
LINE
  5
649
100
AcDbEntity
  8
0
100
AcDbLine
 62
7
  6
CONTINUOUS
 10
99.8937946466
 20
49.3563824774
 11
99.8276344007
 21
49.8030194902
  0
LINE
  5
64A
100
AcDbEntity
  8
0
100
AcDbLine
 62
7
  6
CONTINUOUS
 10
99.8311024705
 20
49.7785800788
 11
99.7709246194
 21
50.2217810072
  0
LINE
  5
64B
100
AcDbEntity
  8
0
100
AcDbLine
 62
7
  6
CONTINUOUS
 10
99.7752972345
 20
50.1880950974
 11
99.7200895888
 21
50.634069956
  0
LWPOLYLINE
  5
64C
100
AcDbEntity
  8
0
100
AcDbPolyline
 62
253
  6
CONTINUOUS
 90
5
 70
0
 10
99.6866146919
 20
31.9752208104
 10
99.6880060544
 20
31.9630425344
 10
99.6885330189
 20
31.9580392014
 10
99.6889971126
 20
31.9531932644
 10
99.6893822531
 20
31.9484027502
  0
LINE
  5
64D
100
AcDbEntity
  8
0
100
AcDbLine
 62
7
  6
CONTINUOUS
 10
99.7248505589
 20
50.593684619
 11
99.6751543979
 21
51.0371665572
  0
LINE
  5
64E
100
AcDbEntity
  8
0
100
AcDbLine
 62
7
  6
CONTINUOUS
 10
99.6038401081
 20
51.7901639407
 11
99.5700328963
 21
52.2270279478
  0
LWPOLYLINE
  5
64F
100
AcDbEntity
  8
0
100
AcDbPolyline
 62
7
  6
CONTINUOUS
 90
26
 70
0
 10
99.5759155479
 20
52.1437509683
 10
99.5841011741
 20
52.0340394122
 10
99.5929851587
 20
51.9198246833
 10
99.6026134571
 20
51.8010399574
 10
99.6130251731
 20
51.6777338511
 10
99.6243285394
 20
51.5492045464
 10
99.6365762252
 20
51.4154575945
 10
99.6498244248
 20
51.2764738922
 10
99.6642055062
 20
51.1315162684
 10
99.6798719678
 20
50.9797574698
 10
99.6968125404
 20
50.8220176278
 10
99.71490329
 20
50.6600418407
 10
99.7342295839
 20
50.4935371875
 10
99.7548072619
 20
50.3228184154
 10
99.7763526897
 20
50.1505606986
 10
99.7988061598
 20
49.9773671156
 10
99.822252675
 20
49.8026806617
 10
99.8465785755
 20
49.6274462418
 10
99.8717202863
 20
49.4521493462
 10
99.8977437481
 20
49.2763546731
 10
99.9247236744
 20
49.0996277106
 10
99.9525901122
 20
48.922512654
 10
99.9814282805
 20
48.7445187983
 10
100.0115772947
 20
48.5636597097
 10
100.0431851634
 20
48.3792924947
 10
100.0761806183
 20
48.1921186589
  0
LINE
  5
650
100
AcDbEntity
  8
0
100
AcDbLine
 62
7
  6
CONTINUOUS
 10
99.5613005008
 20
52.3523692151
 11
99.5759155479
 21
52.1437509683
  0
LINE
  5
651
100
AcDbEntity
  8
0
100
AcDbLine
 62
7
  6
CONTINUOUS
 10
99.5725787331
 20
52.1914202404
 11
99.5458036974
 21
52.5968961522
  0
LINE
  5
652
100
AcDbEntity
  8
0
100
AcDbLine
 62
7
  6
CONTINUOUS
 10
99.5487857812
 20
52.5472182341
 11
99.5613005008
 21
52.3523692151
  0
LINE
  5
653
100
AcDbEntity
  8
0
100
AcDbLine
 62
7
  6
CONTINUOUS
 10
99.5380299332
 20
52.7304446235
 11
99.5487857812
 21
52.5472182341
  0
LINE
  5
654
100
AcDbEntity
  8
0
100
AcDbLine
 62
7
  6
CONTINUOUS
 10
99.5458036974
 20
52.5968961522
 11
99.5217520589
 21
53.0512975448
  0
LINE
  5
655
100
AcDbEntity
  8
0
100
AcDbLine
 62
7
  6
CONTINUOUS
 10
99.5288428903
 20
52.9023308857
 11
99.5380299332
 21
52.7304446235
  0
LINE
  5
656
100
AcDbEntity
  8
0
100
AcDbLine
 62
7
  6
CONTINUOUS
 10
99.5205547077
 20
53.073936715
 11
99.5288428903
 21
52.9023308857
  0
LWPOLYLINE
  5
657
100
AcDbEntity
  8
0
100
AcDbPolyline
 62
7
  6
CONTINUOUS
 90
11
 70
0
 10
99.5215974281
 20
53.0512925236
 10
99.5150439732
 20
53.2057358423
 10
99.5114140039
 20
53.3042910523
 10
99.507801413
 20
53.4137001869
 10
99.5042702206
 20
53.5339018858
 10
99.5008640826
 20
53.6653340156
 10
99.4976325768
 20
53.8080759387
 10
99.4946351228
 20
53.9612982369
 10
99.4919057967
 20
54.1247358663
 10
99.4894605622
 20
54.2988350023
 10
99.4873174239
 20
54.4836907819
  0
LWPOLYLINE
  5
658
100
AcDbEntity
  8
0
100
AcDbPolyline
 62
253
  6
CONTINUOUS
 90
11
 70
0
 10
99.677857983
 20
32.120336424
 10
99.6786722446
 20
32.0980281088
 10
99.6795156263
 20
32.0777581684
 10
99.6803941164
 20
32.0594401264
 10
99.681302555
 20
32.0429523712
 10
99.6822132862
 20
32.0280960184
 10
99.6831266735
 20
32.0147965693
 10
99.6840426535
 20
32.0029911482
 10
99.6849325507
 20
31.9925186549
 10
99.6857867113
 20
31.9832765445
 10
99.6866146919
 20
31.9752208104
  0
LWPOLYLINE
  5
659
100
AcDbEntity
  8
0
100
AcDbPolyline
 62
253
  6
CONTINUOUS
 90
15
 70
0
 10
98.8246325407
 20
31.5212325281
 10
98.8256860833
 20
31.4877756441
 10
98.8267961243
 20
31.4573288645
 10
98.827963379
 20
31.4297098101
 10
98.8291871315
 20
31.4047890581
 10
98.8304536277
 20
31.3823938434
 10
98.8317671461
 20
31.3623698086
 10
98.8331234076
 20
31.3445776361
 10
98.8344958217
 20
31.328874029
 10
98.8358864142
 20
31.3151212294
 10
98.8372931591
 20
31.3031773817
 10
98.8386833884
 20
31.2928992368
 10
98.8400462128
 20
31.2841555696
 10
98.841392522
 20
31.2768250105
 10
98.842722316
 20
31.2707869077
  0
LINE
  5
65A
100
AcDbEntity
  8
0
100
AcDbLine
 62
253
  6
CONTINUOUS
 10
99.6763490789
 20
32.1716620976
 11
99.677857983
 21
32.120336424
  0
LINE
  5
65B
100
AcDbEntity
  8
0
100
AcDbLine
 62
253
  6
CONTINUOUS
 10
98.8227280076
 20
31.5981651015
 11
98.8246325407
 21
31.5212325281
  0
LWPOLYLINE
  5
65C
100
AcDbEntity
  8
0
100
AcDbPolyline
 62
253
  6
CONTINUOUS
 90
3
 70
0
 10
98.7104866202
 20
46.7637335747
 10
98.7294653556
 20
45.8741907539
 10
98.7494794317
 20
44.9611856162
  0
LINE
  5
65D
100
AcDbEntity
  8
0
100
AcDbLine
 62
253
  6
CONTINUOUS
 10
99.6750032912
 20
32.2328324488
 11
99.6763490789
 21
32.1716620976
  0
LINE
  5
65E
100
AcDbEntity
  8
0
100
AcDbLine
 62
253
  6
CONTINUOUS
 10
98.7494794317
 20
44.9611856162
 11
98.7625465413
 21
44.3151195485
  0
LINE
  5
65F
100
AcDbEntity
  8
0
100
AcDbLine
 62
253
  6
CONTINUOUS
 10
98.7625465413
 20
44.3151195485
 11
98.7738576184
 21
43.7075037729
  0
LINE
  5
660
100
AcDbEntity
  8
0
100
AcDbLine
 62
253
  6
CONTINUOUS
 10
99.5934703351
 20
46.9790619664
 11
99.6087147997
 21
46.0982797077
  0
LINE
  5
661
100
AcDbEntity
  8
0
100
AcDbLine
 62
253
  6
CONTINUOUS
 10
98.7738576184
 20
43.7075037729
 11
98.7835027914
 21
43.1372308499
  0
LINE
  5
662
100
AcDbEntity
  8
0
100
AcDbLine
 62
253
  6
CONTINUOUS
 10
98.8211110368
 20
31.6899274267
 11
98.8227280076
 21
31.5981651015
  0
LINE
  5
663
100
AcDbEntity
  8
0
100
AcDbLine
 62
253
  6
CONTINUOUS
 10
99.6087147997
 20
46.0982797077
 11
99.6284934489
 21
44.8653669077
  0
LINE
  5
664
100
AcDbEntity
  8
0
100
AcDbLine
 62
253
  6
CONTINUOUS
 10
98.7835027914
 20
43.1372308499
 11
98.7917940121
 21
42.6013084208
  0
LINE
  5
665
100
AcDbEntity
  8
0
100
AcDbLine
 62
253
  6
CONTINUOUS
 10
99.6738337216
 20
32.3052006869
 11
99.6750032912
 21
32.2328324488
  0
LINE
  5
666
100
AcDbEntity
  8
0
100
AcDbLine
 62
253
  6
CONTINUOUS
 10
98.7917940121
 20
42.6013084208
 11
98.7989413389
 21
42.097133944
  0
LINE
  5
667
100
AcDbEntity
  8
0
100
AcDbLine
 62
253
  6
CONTINUOUS
 10
99.6284934489
 20
44.8653669077
 11
99.6373834208
 21
44.241903919
  0
LINE
  5
668
100
AcDbEntity
  8
0
100
AcDbLine
 62
253
  6
CONTINUOUS
 10
98.7989413389
 20
42.097133944
 11
98.8050748447
 21
41.6228971522
  0
LINE
  5
669
100
AcDbEntity
  8
0
100
AcDbLine
 62
253
  6
CONTINUOUS
 10
99.6373834208
 20
44.241903919
 11
99.6448024668
 21
43.6569789974
  0
LINE
  5
66A
100
AcDbEntity
  8
0
100
AcDbLine
 62
253
  6
CONTINUOUS
 10
98.8050748447
 20
41.6228971522
 11
98.8103710428
 21
41.1760042969
  0
LINE
  5
66B
100
AcDbEntity
  8
0
100
AcDbLine
 62
253
  6
CONTINUOUS
 10
99.6448024668
 20
43.6569789974
 11
99.6510163534
 21
43.1072224528
  0
LINE
  5
66C
100
AcDbEntity
  8
0
100
AcDbLine
 62
253
  6
CONTINUOUS
 10
98.8198233905
 20
31.798941273
 11
98.8211110368
 21
31.6899274267
  0
LINE
  5
66D
100
AcDbEntity
  8
0
100
AcDbLine
 62
253
  6
CONTINUOUS
 10
98.8103710428
 20
41.1760042969
 11
98.8170104303
 21
40.5519069771
  0
LINE
  5
66E
100
AcDbEntity
  8
0
100
AcDbLine
 62
253
  6
CONTINUOUS
 10
99.6510163534
 20
43.1072224528
 11
99.6562425706
 21
42.5908743329
  0
LINE
  5
66F
100
AcDbEntity
  8
0
100
AcDbLine
 62
253
  6
CONTINUOUS
 10
98.8170104303
 20
40.5519069771
 11
98.8223676238
 21
39.9783488661
  0
LINE
  5
670
100
AcDbEntity
  8
0
100
AcDbLine
 62
253
  6
CONTINUOUS
 10
99.6562425706
 20
42.5908743329
 11
99.6606535265
 21
42.1052867645
  0
LINE
  5
671
100
AcDbEntity
  8
RACCORDO
100
AcDbLine
 62
7
  6
CONTINUOUS
 10
99.6558888146
 20
81.0850439883
 11
99.687316962
 21
77.4837350079
  0
LINE
  5
672
100
AcDbEntity
  8
RACCORDO
100
AcDbLine
 62
253
  6
CONTINUOUS
 10
99.5058945262
 20
81.2337350079
 11
99.5373113073
 21
77.4837350073
  0
LINE
  5
673
100
AcDbEntity
  8
0
100
AcDbLine
 62
253
  6
CONTINUOUS
 10
99.6724733792
 20
32.4387592589
 11
99.6738337216
 21
32.3052006869
  0
LINE
  5
674
100
AcDbEntity
  8
0
100
AcDbLine
 62
253
  6
CONTINUOUS
 10
98.8223676238
 20
39.9783488661
 11
98.8266978218
 21
39.4506342614
  0
LINE
  5
675
100
AcDbEntity
  8
0
100
AcDbLine
 62
253
  6
CONTINUOUS
 10
99.6606535265
 20
42.1052867645
 11
99.6660449174
 21
41.4293853937
  0
LINE
  5
676
100
AcDbEntity
  8
0
100
AcDbLine
 62
253
  6
CONTINUOUS
 10
98.8266978218
 20
39.4506342614
 11
98.8311977474
 21
38.8139608795
  0
LWPOLYLINE
  5
677
100
AcDbEntity
  8
0
100
AcDbPolyline
 62
253
  6
CONTINUOUS
 90
9
 70
0
 10
99.4873168244
 20
54.4837594048
 10
99.4916806319
 20
53.8282373655
 10
99.4975407524
 20
53.1530577289
 10
99.504948447
 20
52.4577368576
 10
99.5139147127
 20
51.7417953781
 10
99.5243983128
 20
51.0047342656
 10
99.5362882038
 20
50.2459798109
 10
99.549366608
 20
49.4656385783
 10
99.5934703351
 20
46.9790619664
  0
LWPOLYLINE
  5
678
100
AcDbEntity
  8
0
100
AcDbPolyline
 62
253
  6
CONTINUOUS
 90
10
 70
0
 10
98.5934186569
 20
54.3990036661
 10
98.5977838108
 20
53.7293472867
 10
98.6038368935
 20
53.0390141326
 10
98.61157785
 20
52.3282182738
 10
98.6210407096
 20
51.5979526266
 10
98.6321912853
 20
50.8477298908
 10
98.644927181
 20
50.0755994285
 10
98.6593973006
 20
49.2826427292
 10
98.6754524981
 20
48.4685046967
 10
98.7104866202
 20
46.7637335747
  0
LINE
  5
679
100
AcDbEntity
  8
0
100
AcDbLine
 62
253
  6
CONTINUOUS
 10
99.6660449174
 20
41.4293853937
 11
99.6702912127
 21
40.8098413802
  0
LINE
  5
67A
100
AcDbEntity
  8
0
100
AcDbLine
 62
253
  6
CONTINUOUS
 10
98.8311977474
 20
38.8139608795
 11
98.8345503427
 21
38.2510115713
  0
LINE
  5
67B
100
AcDbEntity
  8
0
100
AcDbLine
 62
253
  6
CONTINUOUS
 10
98.8189705365
 20
31.9278817159
 11
98.8198233905
 21
31.798941273
  0
LINE
  5
67C
100
AcDbEntity
  8
0
100
AcDbLine
 62
253
  6
CONTINUOUS
 10
99.6702912127
 20
40.8098413802
 11
99.6746242659
 21
40.061349983
  0
LWPOLYLINE
  5
67D
100
AcDbEntity
  8
0
100
AcDbPolyline
 62
253
  6
CONTINUOUS
 90
19
 70
0
 10
98.5934186551
 20
84.9837350079
 10
98.5932167818
 20
85.0273128358
 10
98.5926126964
 20
85.0705590197
 10
98.5916109959
 20
85.1131444302
 10
98.5902193038
 20
85.1547449654
 10
98.5884482115
 20
85.1950440209
 10
98.5863111977
 20
85.2337348988
 10
98.5838245259
 20
85.2705231408
 10
98.5810071211
 20
85.3051287594
 10
98.5778804259
 20
85.3372883746
 10
98.5744682365
 20
85.366757232
 10
98.5707965217
 20
85.3933110547
 10
98.5668932266
 20
85.4167477454
 10
98.5627880583
 20
85.436888937
 10
98.5585122593
 20
85.4535813478
 10
98.554098371
 20
85.4666979414
 10
98.5495799859
 20
85.4761388952
 10
98.5449914917
 20
85.4818323601
 10
98.5403678094
 20
85.4837350079
  0
LINE
  5
67E
100
AcDbEntity
  8
0
100
AcDbLine
 62
253
  6
CONTINUOUS
 10
98.8345503427
 20
38.2510115713
 11
98.8375753559
 21
37.637678651
  0
LINE
  5
67F
100
AcDbEntity
  8
0
100
AcDbLine
 62
253
  6
CONTINUOUS
 10
99.6746242659
 20
40.061349983
 11
99.6778327887
 21
39.3922859745
  0
LINE
  5
680
100
AcDbEntity
  8
0
100
AcDbLine
 62
253
  6
CONTINUOUS
 10
98.8375753559
 20
37.637678651
 11
98.8400578594
 21
37.0071776911
  0
LINE
  5
681
100
AcDbEntity
  8
0
100
AcDbLine
 62
253
  6
CONTINUOUS
 10
99.6778327887
 20
39.3922859745
 11
99.6806940878
 21
38.6612118424
  0
LINE
  5
682
100
AcDbEntity
  8
0
100
AcDbLine
 62
253
  6
CONTINUOUS
 10
99.6806940878
 20
38.6612118424
 11
99.6815675867
 21
38.3993414967
  0
LINE
  5
683
100
AcDbEntity
  8
0
100
AcDbLine
 62
253
  6
CONTINUOUS
 10
98.8400578594
 20
37.0071776911
 11
98.8409687846
 21
36.7249686553
  0
LINE
  5
684
100
AcDbEntity
  8
0
100
AcDbLine
 62
253
  6
CONTINUOUS
 10
99.6815675867
 20
38.3993414967
 11
99.6826595776
 21
38.0351392131
  0
LINE
  5
685
100
AcDbEntity
  8
0
100
AcDbLine
 62
253
  6
CONTINUOUS
 10
99.6717489619
 20
32.6083966064
 11
99.6724733792
 21
32.4387592589
  0
LINE
  5
686
100
AcDbEntity
  8
0
100
AcDbLine
 62
253
  6
CONTINUOUS
 10
99.6826595776
 20
38.0351392131
 11
99.6835423081
 21
37.7014601248
  0
LINE
  5
687
100
AcDbEntity
  8
0
100
AcDbLine
 62
253
  6
CONTINUOUS
 10
98.8409687846
 20
36.7249686553
 11
98.8421116966
 21
36.2944055068
  0
LINE
  5
688
100
AcDbEntity
  8
0
100
AcDbLine
 62
253
  6
CONTINUOUS
 10
99.6835423081
 20
37.7014601248
 11
99.6840380046
 21
37.4937240862
  0
LINE
  5
689
100
AcDbEntity
  8
0
100
AcDbLine
 62
253
  6
CONTINUOUS
 10
98.8421116966
 20
36.2944055068
 11
98.8424640014
 21
36.136320173
  0
LINE
  5
68A
100
AcDbEntity
  8
0
100
AcDbLine
 62
253
  6
CONTINUOUS
 10
99.6840380046
 20
37.4937240862
 11
99.6844733462
 21
37.2965078484
  0
LINE
  5
68B
100
AcDbEntity
  8
0
100
AcDbLine
 62
253
  6
CONTINUOUS
 10
98.8424640014
 20
36.136320173
 11
98.8427691737
 21
35.9865663366
  0
LINE
  5
68C
100
AcDbEntity
  8
0
100
AcDbLine
 62
253
  6
CONTINUOUS
 10
99.6844733462
 20
37.2965078484
 11
99.684855765
 21
37.1082408942
  0
LWPOLYLINE
  5
68D
100
AcDbEntity
  8
0
100
AcDbPolyline
 62
253
  6
CONTINUOUS
 90
4
 70
0
 10
98.8427691737
 20
35.9865663366
 10
98.8430380002
 20
35.8453908347
 10
98.8431601829
 20
35.7780651167
 10
98.8432755066
 20
35.7129520638
  0
LINE
  5
68E
100
AcDbEntity
  8
0
100
AcDbLine
 62
253
  6
CONTINUOUS
 10
99.684855765
 20
37.1082408942
 11
99.6851893779
 21
36.9280735929
  0
LINE
  5
68F
100
AcDbEntity
  8
0
100
AcDbLine
 62
253
  6
CONTINUOUS
 10
98.8432755066
 20
35.7129520638
 11
98.8434831493
 21
35.5892724895
  0
LINE
  5
690
100
AcDbEntity
  8
0
100
AcDbLine
 62
253
  6
CONTINUOUS
 10
99.6851893779
 20
36.9280735929
 11
99.6854786326
 21
36.7557138887
  0
LINE
  5
691
100
AcDbEntity
  8
0
100
AcDbLine
 62
253
  6
CONTINUOUS
 10
98.8434831493
 20
35.5892724895
 11
98.8436591936
 21
35.4742900607
  0
LINE
  5
692
100
AcDbEntity
  8
0
100
AcDbLine
 62
253
  6
CONTINUOUS
 10
99.6854786326
 20
36.7557138887
 11
99.6857230884
 21
36.591226862
  0
LINE
  5
693
100
AcDbEntity
  8
0
100
AcDbLine
 62
253
  6
CONTINUOUS
 10
98.8436591936
 20
35.4742900607
 11
98.8438026484
 21
35.3679395247
  0
LWPOLYLINE
  5
694
100
AcDbEntity
  8
0
100
AcDbPolyline
 62
253
  6
CONTINUOUS
 90
3
 70
0
 10
99.6857230884
 20
36.591226862
 10
99.6859312152
 20
36.4348780062
 10
99.6860239597
 20
36.3597773879
  0
LINE
  5
695
100
AcDbEntity
  8
0
100
AcDbLine
 62
253
  6
CONTINUOUS
 10
98.8186308949
 20
32.0794980954
 11
98.8189705365
 21
31.9278817159
  0
LWPOLYLINE
  5
696
100
AcDbEntity
  8
0
100
AcDbPolyline
 62
253
  6
CONTINUOUS
 90
3
 70
0
 10
99.6860239597
 20
36.3597773879
 10
99.6861910775
 20
36.215967362
 10
99.6862672618
 20
36.1472515249
  0
LINE
  5
697
100
AcDbEntity
  8
0
100
AcDbLine
 62
253
  6
CONTINUOUS
 10
99.6862672618
 20
36.1472515249
 11
99.686666311
 21
35.7804222285
  0
LINE
  5
698
100
AcDbEntity
  8
0
100
AcDbLine
 62
253
  6
CONTINUOUS
 10
98.8438026484
 20
35.3679395247
 11
98.8439588555
 21
35.2240794481
  0
LWPOLYLINE
  5
699
100
AcDbEntity
  8
0
100
AcDbPolyline
 62
253
  6
CONTINUOUS
 90
3
 70
0
 10
99.686666311
 20
35.7804222285
 10
99.686772731
 20
35.675272213
 10
99.6868199022
 20
35.6258819922
  0
LWPOLYLINE
  5
69A
100
AcDbEntity
  8
0
100
AcDbPolyline
 62
253
  6
CONTINUOUS
 90
3
 70
0
 10
99.6868199022
 20
35.6258819922
 10
99.6868992946
 20
35.5330159212
 10
99.6869324448
 20
35.4895360705
  0
LINE
  5
69B
100
AcDbEntity
  8
0
100
AcDbLine
 62
253
  6
CONTINUOUS
 10
98.8439588555
 20
35.2240794481
 11
98.8440527167
 21
35.0968845187
  0
LINE
  5
69C
100
AcDbEntity
  8
0
100
AcDbLine
 62
253
  6
CONTINUOUS
 10
99.6869324448
 20
35.4895360705
 11
99.6869859056
 21
35.4072168879
  0
LINE
  5
69D
100
AcDbEntity
  8
0
100
AcDbLine
 62
253
  6
CONTINUOUS
 10
98.8440527167
 20
35.0968845187
 11
98.8440959052
 21
34.9822376877
  0
LINE
  5
69E
100
AcDbEntity
  8
0
100
AcDbLine
 62
253
  6
CONTINUOUS
 10
99.6869859056
 20
35.4072168879
 11
99.6870322953
 21
35.2938276692
  0
LINE
  5
69F
100
AcDbEntity
  8
0
100
AcDbLine
 62
253
  6
CONTINUOUS
 10
99.6868826265
 20
34.6817743165
 11
99.6879370451
 21
34.3091651005
  0
LINE
  5
6A0
100
AcDbEntity
  8
0
100
AcDbLine
 62
7
  6
CONTINUOUS
 10
96.212623914
 20
85.4837350079
 11
96.212623914
 21
85.5337350079
  0
LINE
  5
6A1
100
AcDbEntity
  8
0
100
AcDbLine
 62
7
  6
CONTINUOUS
 10
96.787316962
 20
28.5206678891
 11
96.787316962
 21
28.8337350079
  0
LINE
  5
6A2
100
AcDbEntity
  8
0
100
AcDbLine
 62
7
  6
CONTINUOUS
 10
97.037316962
 20
85.4837350079
 11
97.037316962
 21
85.5337350079
  0
LINE
  5
6A3
100
AcDbEntity
  8
0
100
AcDbLine
 62
7
  6
CONTINUOUS
 10
97.0594861291
 20
85.4837350079
 11
97.0594861291
 21
85.5337350079
  0
LINE
  5
6A4
100
AcDbEntity
  8
0
100
AcDbLine
 62
7
  6
CONTINUOUS
 10
97.537316962
 20
29.762443789
 11
97.537316962
 21
30.581472128
  0
LINE
  5
6A5
100
AcDbEntity
  8
0
100
AcDbLine
 62
253
  6
CONTINUOUS
 10
98.5934186569
 20
84.9837350079
 11
98.5934186569
 21
54.3990036661
  0
LWPOLYLINE
  5
6A6
100
AcDbEntity
  8
0
100
AcDbPolyline
 62
253
  6
CONTINUOUS
 90
3
 70
0
 10
98.8440959052
 20
34.9822376877
 10
98.844104203
 20
34.9105549095
 10
98.8441049992
 20
34.8755008703
  0
LINE
  5
6A7
100
AcDbEntity
  8
0
100
AcDbLine
 62
7
  6
CONTINUOUS
 10
99.487316962
 20
84.9837350079
 11
99.487316962
 21
54.4837594079
  0
LINE
  5
6A8
100
AcDbEntity
  8
0
100
AcDbLine
 62
7
  6
CONTINUOUS
 10
99.517316962
 20
54.6074576647
 11
99.517316962
 21
53.148980443
  0
LINE
  5
6A9
100
AcDbEntity
  8
0
100
AcDbLine
 62
253
  6
CONTINUOUS
 10
99.6868853667
 20
34.7827495669
 11
99.6868826265
 21
34.6817743165
  0
LWPOLYLINE
  5
6AA
100
AcDbEntity
  8
0
100
AcDbPolyline
 62
253
  6
CONTINUOUS
 90
3
 70
0
 10
99.6870322953
 20
35.2938276692
 10
99.6870257424
 20
35.1542306338
 10
99.6870155139
 20
35.12027931
  0
LINE
  5
6AB
100
AcDbEntity
  8
0
100
AcDbLine
 62
253
  6
CONTINUOUS
 10
99.686901624
 20
34.8500923004
 11
99.6868853667
 21
34.7827495669
  0
LWPOLYLINE
  5
6AC
100
AcDbEntity
  8
0
100
AcDbPolyline
 62
253
  6
CONTINUOUS
 90
4
 70
0
 10
99.6870155139
 20
35.12027931
 10
99.6869423243
 20
34.9512648503
 10
99.6869275319
 20
34.9175027948
 10
99.686901624
 20
34.8500923004
  0
LINE
  5
6AD
100
AcDbEntity
  8
0
100
AcDbLine
 62
253
  6
CONTINUOUS
 10
98.8441049992
 20
34.8755008703
 11
98.8445011443
 21
34.0893012232
  0
LINE
  5
6AE
100
AcDbEntity
  8
0
100
AcDbLine
 62
253
  6
CONTINUOUS
 10
99.6719166988
 20
32.8224265598
 11
99.6717489619
 21
32.6083966064
  0
LINE
  5
6AF
100
AcDbEntity
  8
0
100
AcDbLine
 62
253
  6
CONTINUOUS
 10
99.6879370451
 20
34.3091651005
 11
99.6879363892
 21
34.2059942192
  0
LINE
  5
6B0
100
AcDbEntity
  8
0
100
AcDbLine
 62
253
  6
CONTINUOUS
 10
98.8189261922
 20
32.2571756307
 11
98.8186308949
 21
32.0794980954
  0
LINE
  5
6B1
100
AcDbEntity
  8
0
100
AcDbLine
 62
253
  6
CONTINUOUS
 10
98.8445011443
 20
34.0893012232
 11
98.8441115044
 21
33.9880944246
  0
LINE
  5
6B2
100
AcDbEntity
  8
0
100
AcDbLine
 62
253
  6
CONTINUOUS
 10
98.8200836041
 20
32.4653981097
 11
98.8189261922
 21
32.2571756307
  0
LINE
  5
6B3
100
AcDbEntity
  8
0
100
AcDbLine
 62
253
  6
CONTINUOUS
 10
99.6733841978
 20
33.091630288
 11
99.6719166988
 21
32.8224265598
  0
LINE
  5
6B4
100
AcDbEntity
  8
0
100
AcDbLine
 62
253
  6
CONTINUOUS
 10
99.6879363892
 20
34.2059942192
 11
99.6875160404
 21
34.1372614697
  0
LINE
  5
6B5
100
AcDbEntity
  8
RACCORDO
100
AcDbLine
 62
253
  6
CONTINUOUS
 10
99.5373113073
 20
77.4837350073
 11
99.5058945262
 21
73.7337350079
  0
LINE
  5
6B6
100
AcDbEntity
  8
RACCORDO
100
AcDbLine
 62
7
  6
CONTINUOUS
 10
99.687316962
 20
77.4837350079
 11
99.6558888146
 21
73.8824260276
  0
LINE
  5
6B7
100
AcDbEntity
  8
0
100
AcDbLine
 62
253
  6
CONTINUOUS
 10
98.8441115044
 20
33.9880944246
 11
98.8435140725
 21
33.92068746
  0
LINE
  5
6B8
100
AcDbEntity
  8
0
100
AcDbLine
 62
253
  6
CONTINUOUS
 10
99.6753994169
 20
33.3079491621
 11
99.6733841978
 21
33.091630288
  0
LINE
  5
6B9
100
AcDbEntity
  8
0
100
AcDbLine
 62
253
  6
CONTINUOUS
 10
98.8222876304
 20
32.7081602447
 11
98.8200836041
 21
32.4653981097
  0
LINE
  5
6BA
100
AcDbEntity
  8
0
100
AcDbLine
 62
253
  6
CONTINUOUS
 10
99.6875160404
 20
34.1372614697
 11
99.6867526595
 21
34.0691506062
  0
LINE
  5
6BB
100
AcDbEntity
  8
0
100
AcDbLine
 62
253
  6
CONTINUOUS
 10
99.6784517876
 20
33.5575896114
 11
99.6753994169
 21
33.3079491621
  0
LINE
  5
6BC
100
AcDbEntity
  8
0
100
AcDbLine
 62
253
  6
CONTINUOUS
 10
98.8435140725
 20
33.92068746
 11
98.8425963181
 21
33.8534625685
  0
LWPOLYLINE
  5
6BD
100
AcDbEntity
  8
0
100
AcDbPolyline
 62
253
  6
CONTINUOUS
 90
3
 70
0
 10
98.8283140206
 20
33.147337336
 10
98.8258515968
 20
32.9902407537
 10
98.8222876304
 20
32.7081602447
  0
LINE
  5
6BE
100
AcDbEntity
  8
0
100
AcDbLine
 62
253
  6
CONTINUOUS
 10
99.6829331824
 20
33.8443004287
 11
99.6784517876
 21
33.5575896114
  0
LINE
  5
6BF
100
AcDbEntity
  8
0
100
AcDbLine
 62
253
  6
CONTINUOUS
 10
99.6867526595
 20
34.0691506062
 11
99.6829331824
 21
33.8443004287
  0
LINE
  5
6C0
100
AcDbEntity
  8
0
100
AcDbLine
 62
253
  6
CONTINUOUS
 10
98.8425963181
 20
33.8534625685
 11
98.8413495582
 21
33.7865848705
  0
LWPOLYLINE
  5
6C1
100
AcDbEntity
  8
0
100
AcDbPolyline
 62
253
  6
CONTINUOUS
 90
3
 70
0
 10
98.8388986344
 20
33.6877680276
 10
98.8348639747
 20
33.4959883148
 10
98.8283140206
 20
33.147337336
  0
LWPOLYLINE
  5
6C2
100
AcDbEntity
  8
0
100
AcDbPolyline
 62
253
  6
CONTINUOUS
 90
3
 70
0
 10
98.8413495582
 20
33.7865848705
 10
98.8397938278
 20
33.7205234686
 10
98.8388991089
 20
33.6877680522
  0
LINE
  5
6C3
100
AcDbEntity
  8
0
100
AcDbLine
 62
253
  6
CONTINUOUS
 10
84.0802051579
 20
30.9779209242
 11
84.0762678504
 21
30.9586908144
  0
LINE
  5
6C4
100
AcDbEntity
  8
0
100
AcDbLine
 62
253
  6
CONTINUOUS
 10
84.0762678504
 20
30.9586908144
 11
84.0735924274
 21
30.9460265432
  0
LINE
  5
6C5
100
AcDbEntity
  8
0
100
AcDbLine
 62
253
  6
CONTINUOUS
 10
84.0735924274
 20
30.9460265432
 11
84.0708952234
 21
30.933620957
  0
LINE
  5
6C6
100
AcDbEntity
  8
0
100
AcDbLine
 62
253
  6
CONTINUOUS
 10
84.0708952234
 20
30.933620957
 11
84.0681958538
 21
30.9215905333
  0
LWPOLYLINE
  5
6C7
100
AcDbEntity
  8
0
100
AcDbPolyline
 62
253
  6
CONTINUOUS
 90
17
 70
0
 10
84.0681958538
 20
30.9215905333
 10
84.0655078317
 20
30.9100728092
 10
84.0641752953
 20
30.9045451295
 10
84.0628509318
 20
30.8992040755
 10
84.0615441458
 20
30.8940620685
 10
84.0602540264
 20
30.8891478578
 10
84.0589814842
 20
30.8844904064
 10
84.0577386555
 20
30.8801087264
 10
84.0565247712
 20
30.8760380509
 10
84.0553406
 20
30.8723109718
 10
84.0542005846
 20
30.8689511057
 10
84.0531031015
 20
30.8659994776
 10
84.0520497738
 20
30.8634984119
 10
84.051059913
 20
30.8614841893
 10
84.0501399563
 20
30.8600042401
 10
84.0492834659
 20
30.8591121359
 10
84.0484904414
 20
30.8588599703
  0
LWPOLYLINE
  5
6C8
100
AcDbEntity
  8
0
100
AcDbPolyline
 62
253
  6
CONTINUOUS
 90
9
 70
0
 10
84.1319116774
 20
31.2707868999
 10
84.1309166955
 20
31.2672786967
 10
84.1300023651
 20
31.2637642229
 10
84.1291686857
 20
31.2602436436
 10
84.1284300786
 20
31.2567132312
 10
84.1277721219
 20
31.2531770661
 10
84.1271515505
 20
31.249646936
 10
84.1265625053
 20
31.2461228565
 10
84.1254708823
 20
31.2391050696
  0
LWPOLYLINE
  5
6C9
100
AcDbEntity
  8
0
100
AcDbPolyline
 62
7
  6
CONTINUOUS
 90
8
 70
0
 10
81.0559813907
 20
39.1060643485
 10
81.0542488011
 20
39.1003375101
 10
81.0384983942
 20
39.0306710207
 10
81.0277608578
 20
38.9600582058
 10
81.0220909201
 20
38.8888593565
 10
81.0215174417
 20
38.8174377076
 10
81.0260432838
 20
38.7461575829
 10
81.0356452963
 20
38.6753825972
  0
LINE
  5
6CA
100
AcDbEntity
  8
0
100
AcDbLine
 62
7
  6
CONTINUOUS
 10
109.687316962
 20
79.9337350079
 11
109.687316962
 21
75.0337350079
  0
LINE
  5
6CB
100
AcDbEntity
  8
0
100
AcDbLine
 62
7
  6
CONTINUOUS
 10
109.7306182322
 20
75.0087350079
 11
109.7306182322
 21
79.9587350079
  0
LINE
  5
6CC
100
AcDbEntity
  8
0
100
AcDbLine
 62
7
  6
CONTINUOUS
 10
110.187316962
 20
79.9837350079
 11
110.187316962
 21
74.9837350079
  0
LWPOLYLINE
  5
6CD
100
AcDbEntity
  8
0
100
AcDbPolyline
 62
253
  6
CONTINUOUS
 90
4
 70
0
 10
100.1105996143
 20
48.0021702969
 10
100.1170694859
 20
48.035197088
 10
100.1171928658
 20
48.0673059786
 10
100.1151299259
 20
48.0816418772
  0
LWPOLYLINE
  5
6CE
100
AcDbEntity
  8
0
100
AcDbPolyline
 62
253
  6
CONTINUOUS
 90
10
 70
0
 10
99.6234055257
 20
45.1912547072
 10
99.6975923098
 20
45.497559289
 10
99.7668516597
 20
45.8057131855
 10
99.8311484522
 20
46.1155874623
 10
99.8904581616
 20
46.4271113239
 10
99.9447333727
 20
46.7400988323
 10
99.9939131299
 20
47.0542461622
 10
100.0379633433
 20
47.3693643503
 10
100.0768674396
 20
47.6853820397
 10
100.11059942
 20
48.0021702751
  0
LINE
  5
6CF
100
AcDbEntity
  8
0
100
AcDbLine
 62
7
  6
CONTINUOUS
 10
109.687316962
 20
79.9337350079
 11
109.7306182322
 21
79.9587350079
  0
LINE
  5
6D0
100
AcDbEntity
  8
0
100
AcDbLine
 62
7
  6
CONTINUOUS
 10
117.0071208647
 20
74.9837350079
 11
117.0071208647
 21
79.9837350079
  0
LINE
  5
6D1
100
AcDbEntity
  8
0
100
AcDbLine
 62
7
  6
CONTINUOUS
 10
117.4071208647
 20
75.1874055385
 11
117.4071208647
 21
74.9837350079
  0
LINE
  5
6D2
100
AcDbEntity
  8
0
100
AcDbLine
 62
7
  6
CONTINUOUS
 10
117.4071208647
 20
79.7800644774
 11
117.4071208647
 21
79.9837350079
  0
LWPOLYLINE
  5
6D3
100
AcDbEntity
  8
0
100
AcDbPolyline
 62
7
  6
CONTINUOUS
 90
10
 70
0
 10
99.7262973025
 20
31.4419671162
 10
100.0603720819
 20
32.2124743523
 10
100.3732298614
 20
32.9933767621
 10
100.6645664413
 20
33.7840876167
 10
100.9343661729
 20
34.5849184394
 10
101.1819787616
 20
35.3943807292
 10
101.4063745914
 20
36.20910782
 10
101.6072603542
 20
37.0275019743
 10
101.7848237041
 20
37.8498124572
 10
101.9389889245
 20
38.6753825461
  0
LWPOLYLINE
  5
6D4
100
AcDbEntity
  8
0
100
AcDbPolyline
 62
253
  6
CONTINUOUS
 90
13
 70
0
 10
92.227316962
 20
30.6413297544
 10
92.2250524607
 20
30.639166175
 10
92.2228242356
 20
30.6346372073
 10
92.2206679862
 20
30.6278154117
 10
92.2186182583
 20
30.6188100827
 10
92.2167078916
 20
30.6077654983
 10
92.2149674927
 20
30.5948586078
 10
92.2134249452
 20
30.5802961975
 10
92.2121049629
 20
30.5643115774
 10
92.2110286937
 20
30.5471608431
 10
92.210213381
 20
30.5291187731
 10
92.2096720871
 20
30.5104744263
 10
92.2094134844
 20
30.4915265109
  0
ARC
  5
6D5
100
AcDbEntity
  8
0
100
AcDbCircle
 62
7
  6
CONTINUOUS
 10
125.3416129502
 20
58.6837350079
 40
53.0
100
AcDbArc
 50
331.6473236114
 51
360.0
  0
ARC
  5
6D6
100
AcDbEntity
  8
0
100
AcDbCircle
 62
253
  6
CONTINUOUS
 10
125.3416129502
 20
58.6837350079
 40
52.6613170254
100
AcDbArc
 50
355.3330316276
 51
360.0
  0
ARC
  5
6D7
100
AcDbEntity
  8
0
100
AcDbCircle
 62
253
  6
CONTINUOUS
 10
125.3416129502
 20
58.6837350079
 40
51.6669617417
100
AcDbArc
 50
355.3373164409
 51
360.0
  0
ARC
  5
6D8
100
AcDbEntity
  8
0
100
AcDbCircle
 62
7
  6
CONTINUOUS
 10
148.2996393852
 20
35.8886550709
 40
5.0
100
AcDbArc
 50
208.3526763886
 51
265.1904895677
  0
ARC
  5
6D9
100
AcDbEntity
  8
0
100
AcDbCircle
 62
7
  6
CONTINUOUS
 10
152.6916129502
 20
29.762443789
 40
0.8
100
AcDbArc
 50
180.0
 51
257.846802531
  0
ARC
  5
6DA
100
AcDbEntity
  8
0
100
AcDbCircle
 62
7
  6
CONTINUOUS
 10
141.8743476077
 20
85.0837350079
 40
0.5
100
AcDbArc
 50
90.0
 51
126.8045619517
  0
ARC
  5
6DB
100
AcDbEntity
  8
0
100
AcDbCircle
 62
7
  6
CONTINUOUS
 10
138.0416129502
 20
84.9837350079
 40
0.5
100
AcDbArc
 50
90.0
 51
180.0
  0
ARC
  5
6DC
100
AcDbEntity
  8
0
100
AcDbCircle
 62
7
  6
CONTINUOUS
 10
152.4916129502
 20
28.8337350079
 40
0.15
100
AcDbArc
 50
0.0
 51
77.846802531
  0
ARC
  5
6DD
100
AcDbEntity
  8
0
100
AcDbCircle
 62
7
  6
CONTINUOUS
 10
151.7416129711
 20
30.4938083424
 40
0.1499999995
100
AcDbArc
 50
0.0000019051
 51
87.0421086264
  0
CIRCLE
  5
6DE
100
AcDbEntity
  8
0
100
AcDbCircle
 62
253
  6
CONTINUOUS
 10
157.9416129502
 20
51.9837350079
 40
3.5
  0
CIRCLE
  5
6DF
100
AcDbEntity
  8
0
100
AcDbCircle
 62
7
  6
CONTINUOUS
 10
157.9416129502
 20
51.9837350079
 40
3.0
  0
CIRCLE
  5
6E0
100
AcDbEntity
  8
0
100
AcDbCircle
 62
7
  6
CONTINUOUS
 10
157.9416129502
 20
51.9837350079
 40
2.75
  0
ARC
  5
6E1
100
AcDbEntity
  8
0
100
AcDbCircle
 62
7
  6
CONTINUOUS
 10
157.9416129502
 20
51.9837350079
 40
2.6625113365
100
AcDbArc
 50
256.9764719153
 51
283.0235280847
  0
ARC
  5
6E2
100
AcDbEntity
  8
0
100
AcDbCircle
 62
7
  6
CONTINUOUS
 10
157.9416129502
 20
51.9837350079
 40
2.6625113365
100
AcDbArc
 50
76.9764719153
 51
103.0235280847
  0
ARC
  5
6E3
100
AcDbEntity
  8
0
100
AcDbCircle
 62
253
  6
CONTINUOUS
 10
157.9416129502
 20
51.9837350079
 40
2.6122131027
100
AcDbArc
 50
283.2788388525
 51
76.7211611475
  0
ARC
  5
6E4
100
AcDbEntity
  8
0
100
AcDbCircle
 62
253
  6
CONTINUOUS
 10
157.9416129502
 20
51.9837350079
 40
2.6122131027
100
AcDbArc
 50
103.2788388525
 51
256.7211611475
  0
ARC
  5
6E5
100
AcDbEntity
  8
0
100
AcDbCircle
 62
253
  6
CONTINUOUS
 10
157.9416129502
 20
51.9837350079
 40
2.4839439914
100
AcDbArc
 50
283.978119812
 51
76.021880188
  0
ARC
  5
6E6
100
AcDbEntity
  8
0
100
AcDbCircle
 62
253
  6
CONTINUOUS
 10
157.9416129502
 20
51.9837350079
 40
2.4839439914
100
AcDbArc
 50
103.978119812
 51
256.021880188
  0
ARC
  5
6E7
100
AcDbEntity
  8
0
100
AcDbCircle
 62
7
  6
CONTINUOUS
 10
157.9416129502
 20
51.9837350079
 40
1.8638541369
100
AcDbArc
 50
352.968196018
 51
7.0259491591
  0
ARC
  5
6E8
100
AcDbEntity
  8
0
100
AcDbCircle
 62
7
  6
CONTINUOUS
 10
157.9416129502
 20
51.9837350079
 40
1.8638541369
100
AcDbArc
 50
172.9681960448
 51
187.0259491591
  0
ARC
  5
6E9
100
AcDbEntity
  8
0
100
AcDbCircle
 62
7
  6
CONTINUOUS
 10
157.9416129502
 20
51.9837350079
 40
1.3915481318
100
AcDbArc
 50
80.5652353034
 51
99.4324314084
  0
ARC
  5
6EA
100
AcDbEntity
  8
0
100
AcDbCircle
 62
7
  6
CONTINUOUS
 10
157.9416129502
 20
51.9837350079
 40
1.3915481318
100
AcDbArc
 50
260.5652351046
 51
279.4324314084
  0
ARC
  5
6EB
100
AcDbEntity
  8
TRASH
100
AcDbCircle
 62
7
  6
CONTINUOUS
 10
157.9416129502
 20
51.9837350079
 40
1.1472328625
100
AcDbArc
 50
167.9845776281
 51
192.0153200785
  0
ARC
  5
6EC
100
AcDbEntity
  8
TRASH
100
AcDbCircle
 62
7
  6
CONTINUOUS
 10
157.9416129502
 20
51.9837350079
 40
1.1472328625
100
AcDbArc
 50
347.9845776281
 51
12.0153200785
  0
ARC
  5
6ED
100
AcDbEntity
  8
TRASH
100
AcDbCircle
 62
7
  6
CONTINUOUS
 10
157.9416129502
 20
51.9837350079
 40
1.1472328182
100
AcDbArc
 50
257.9846799215
 51
282.0154223719
  0
ARC
  5
6EE
100
AcDbEntity
  8
TRASH
100
AcDbCircle
 62
7
  6
CONTINUOUS
 10
157.9416129502
 20
51.9837350079
 40
1.1472328182
100
AcDbArc
 50
77.9846799215
 51
102.0154223719
  0
ARC
  5
6EF
100
AcDbEntity
  8
0
100
AcDbCircle
 62
7
  6
CONTINUOUS
 10
163.3916129502
 20
28.8337350079
 40
0.15
100
AcDbArc
 50
102.153197469
 51
180.0
  0
ARC
  5
6F0
100
AcDbEntity
  8
0
100
AcDbCircle
 62
7
  6
CONTINUOUS
 10
163.1916129502
 20
29.762443789
 40
0.8
100
AcDbArc
 50
282.153197469
 51
360.0
  0
ARC
  5
6F1
100
AcDbEntity
  8
0
100
AcDbCircle
 62
7
  6
CONTINUOUS
 10
164.1416129304
 20
30.4938083424
 40
0.1499999995
100
AcDbArc
 50
92.9578918211
 51
179.9999980806
  0
ARC
  5
6F2
100
AcDbEntity
  8
0
100
AcDbCircle
 62
7
  6
CONTINUOUS
 10
167.5835865152
 20
35.8886550709
 40
5.0
100
AcDbArc
 50
274.8095104323
 51
331.6473236114
  0
ARC
  5
6F3
100
AcDbEntity
  8
0
100
AcDbCircle
 62
7
  6
CONTINUOUS
 10
174.0088782927
 20
85.0837350079
 40
0.5
100
AcDbArc
 50
53.1954380483
 51
90.0
  0
ARC
  5
6F4
100
AcDbEntity
  8
0
100
AcDbCircle
 62
7
  6
CONTINUOUS
 10
190.5416129502
 20
58.6837350079
 40
53.0
100
AcDbArc
 50
180.0
 51
208.3526763886
  0
ARC
  5
6F5
100
AcDbEntity
  8
0
100
AcDbCircle
 62
253
  6
CONTINUOUS
 10
190.5416129502
 20
58.6837350079
 40
52.6613170254
100
AcDbArc
 50
180.0
 51
184.6669683724
  0
ARC
  5
6F6
100
AcDbEntity
  8
0
100
AcDbCircle
 62
253
  6
CONTINUOUS
 10
190.5416129502
 20
58.6837350079
 40
51.6669617417
100
AcDbArc
 50
180.0
 51
184.6626833491
  0
ARC
  5
6F7
100
AcDbEntity
  8
0
100
AcDbCircle
 62
7
  6
CONTINUOUS
 10
177.8416129502
 20
84.9837350079
 40
0.5
100
AcDbArc
 50
0.0
 51
90.0
  0
ARC
  5
6F8
100
AcDbEntity
  8
0
100
AcDbCircle
 62
7
  6
CONTINUOUS
 10
157.9416129502
 20
150.4837350079
 40
120.0
100
AcDbArc
 50
265.1904895677
 51
267.0632559683
  0
ARC
  5
6F9
100
AcDbEntity
  8
0
100
AcDbCircle
 62
7
  6
CONTINUOUS
 10
157.9416129502
 20
150.4837350079
 40
120.0
100
AcDbArc
 50
272.9367372369
 51
274.8095104323
  0
ARC
  5
6FA
100
AcDbEntity
  8
0
100
AcDbCircle
 62
7
  6
CONTINUOUS
 10
90.747316962
 20
90.4837350079
 40
60.0
100
AcDbArc
 50
263.5897271329
 51
264.7919234368
  0
ARC
  5
6FB
100
AcDbEntity
  8
0
100
AcDbCircle
 62
7
  6
CONTINUOUS
 10
92.227316962
 20
90.4837350079
 40
60.0
100
AcDbArc
 50
275.2080765632
 51
276.4102728671
  0
ARC
  5
6FC
100
AcDbEntity
  8
0
100
AcDbCircle
 62
7
  6
CONTINUOUS
 10
116.387316962
 20
77.4837350079
 40
2.7
100
AcDbArc
 50
292.1916065663
 51
67.8083934337
  0
ARC
  5
6FD
100
AcDbEntity
  8
0
100
AcDbCircle
 62
7
  6
CONTINUOUS
 10
115.987316962
 20
77.4837350079
 40
2.7
100
AcDbArc
 50
292.1916065663
 51
67.8083934337
  0
ARC
  5
6FE
100
AcDbEntity
  8
0
100
AcDbCircle
 62
7
  6
CONTINUOUS
 10
86.237316962
 20
29.762443789
 40
0.8
100
AcDbArc
 50
180.0
 51
257.846802531
  0
ARC
  5
6FF
100
AcDbEntity
  8
0
100
AcDbCircle
 62
7
  6
CONTINUOUS
 10
86.9873169623
 20
28.5206678915
 40
0.8
100
AcDbArc
 50
180.0000000043
 51
267.0000000818
  0
ARC
  5
700
100
AcDbEntity
  8
0
100
AcDbCircle
 62
7
  6
CONTINUOUS
 10
96.737316962
 20
29.762443789
 40
0.8
100
AcDbArc
 50
282.153197469
 51
360.0
  0
ARC
  5
701
100
AcDbEntity
  8
0
100
AcDbCircle
 62
7
  6
CONTINUOUS
 10
95.9873169616
 20
28.5206678915
 40
0.8
100
AcDbArc
 50
272.9999999182
 51
359.9999999957
  0
ARC
  5
702
100
AcDbEntity
  8
0
100
AcDbCircle
 62
7
  6
CONTINUOUS
 10
94.5545823045
 20
85.0837350079
 40
0.5
100
AcDbArc
 50
53.1954380483
 51
90.0
  0
ARC
  5
703
100
AcDbEntity
  8
0
100
AcDbCircle
 62
7
  6
CONTINUOUS
 10
88.4200516194
 20
85.0837350079
 40
0.5
100
AcDbArc
 50
90.0
 51
126.8045619037
  0
ARC
  5
704
100
AcDbEntity
  8
0
100
AcDbCircle
 62
7
  6
CONTINUOUS
 10
83.987316962
 20
84.9837350079
 40
0.5
100
AcDbArc
 50
90.0
 51
180.0
  0
ARC
  5
705
100
AcDbEntity
  8
0
100
AcDbCircle
 62
7
  6
CONTINUOUS
 10
98.987316962
 20
84.9837350079
 40
0.5
100
AcDbArc
 50
0.0
 51
90.0
  0
ARC
  5
706
100
AcDbEntity
  8
RACCORDO
100
AcDbCircle
 62
7
  6
CONTINUOUS
 10
99.5058945901
 20
73.8837423307
 40
0.15
100
AcDbArc
 50
269.9999755924
 51
359.4972027825
  0
ARC
  5
707
100
AcDbEntity
  8
RACCORDO
100
AcDbCircle
 62
7
  6
CONTINUOUS
 10
99.5058945901
 20
81.0837276762
 40
0.15
100
AcDbArc
 50
0.5028006208
 51
90.0000244373
  0
ARC
  5
708
100
AcDbEntity
  8
0
100
AcDbCircle
 62
7
  6
CONTINUOUS
 10
86.037316962
 20
28.8337350079
 40
0.15
100
AcDbArc
 50
0.0
 51
77.846802531
  0
ARC
  5
709
100
AcDbEntity
  8
0
100
AcDbCircle
 62
7
  6
CONTINUOUS
 10
96.937316962
 20
28.8337350079
 40
0.15
100
AcDbArc
 50
102.153197469
 51
180.0
  0
ARC
  5
70A
100
AcDbEntity
  8
0
100
AcDbCircle
 62
7
  6
CONTINUOUS
 10
85.2873232152
 20
30.5820568283
 40
0.1499998487
100
AcDbArc
 50
0.0
 51
84.7919125086
  0
ARC
  5
70B
100
AcDbEntity
  8
0
100
AcDbCircle
 62
7
  6
CONTINUOUS
 10
97.6873107087
 20
30.5820568283
 40
0.1499998487
100
AcDbArc
 50
95.2080874915
 51
180.0
  0
ELLIPSE
  5
70C
100
AcDbEntity
  8
0
100
AcDbEllipse
 62
7
  6
CONTINUOUS
 10
-367.0309534455
 20
-48.6684154262
 30
0.0
 11
535.1140690522
 21
0.0000119097
 31
0.0
 40
0.9951246675
 41
0.1923842608
 42
0.1927860921
  0
ELLIPSE
  5
70D
100
AcDbEntity
  8
0
100
AcDbEllipse
 62
7
  6
CONTINUOUS
 10
682.9141790238
 20
152.6358854822
 30
0.0
 11
-535.1140688131
 21
0.0000279813
 31
0.0
 40
0.9951246679
 41
0.1923843358
 42
0.1927861671
  0
ELLIPSE
  5
70E
100
AcDbEntity
  8
0
100
AcDbEllipse
 62
7
  6
CONTINUOUS
 10
157.9416129502
 20
27.4837350079
 30
0.0
 11
4.0
 21
0.0
 31
0.0
 40
0.0524077793
 41
0.0
 42
3.1415926536
  0
ENDSEC
  0
SECTION
  2
OBJECTS
  0
DICTIONARY
  5
C
100
AcDbDictionary
280
0
281
1
  3
ACAD_GROUP
350
D
  3
ACAD_MLINESTYLE
350
17
  3
ACAD_LAYOUT
350
1A
  3
ACAD_PLOTSETTINGS
350
19
  3
ACAD_PLOTSTYLENAME
350
E
  0
DICTIONARY
  5
D
102
{ACAD_REACTORS
330
C
102
}
100
AcDbDictionary
280
0
281
1
  0
ACDBDICTIONARYWDFLT
  5
E
102
{ACAD_REACTORS
330
C
102
}
100
AcDbDictionary
281
1
  3
Normal
350
F
100
AcDbDictionaryWithDefault
340
F
  0
DICTIONARY
  5
17
102
{ACAD_REACTORS
330
C
102
}
100
AcDbDictionary
280
0
281
1
  3
Standard
350
18
  0
DICTIONARY
  5
19
102
{ACAD_REACTORS
330
C
102
}
100
AcDbDictionary
281
1
  0
DICTIONARY
  5
1A
102
{ACAD_REACTORS
330
C
102
}
100
AcDbDictionary
281
1
  3
Model
350
70F
  3
Layout1
350
710
  0
ACDBPLACEHOLDER
  5
F
102
{ACAD_REACTORS
330
E
102
}
  0
MLINESTYLE
  5
18
102
{ACAD_REACTORS
330
17
102
}
100
AcDbMlineStyle
  2
STANDARD
 70
0
  3

 62
256
 51
90.0
 52
90.0
 71
2
 49
0.5
 62
256
  6
BYLAYER
 49
-0.5
 62
256
  6
BYLAYER
  0
LAYOUT
  5
70F
102
{ACAD_REACTORS
330
1A
102
}
100
AcDbPlotSettings
  1

  2
none_device
  4
ISO_A4_(297.00_x_210.00_MM)
  6

 40
0.0
 41
0.0
 42
0.0
 43
0.0
 44
297.0
 45
210.0
 46
0.0
 47
0.0
 48
0.0
 49
0.0
140
0.0
141
0.0
142
1.0
143
1.0
 70
1024
 72
1
 73
0
 74
0
  7

 75
0
147
1.0
148
0.0
149
0.0
100
AcDbLayout
  1
Model
 70
0
 71
0
 10
0.0
 20
0.0
 11
297.0
 21
210.0
 12
0.0
 22
0.0
 32
0.0
 14
0.0
 24
0.0
 34
0.0
 15
0.0
 25
0.0
 35
0.0
146
0.0
 13
0.0
 23
0.0
 33
0.0
 16
1.0
 26
0.0
 36
0.0
 17
0.0
 27
1.0
 37
0.0
 76
0
330
21A
345
0
346
0
  0
LAYOUT
  5
710
102
{ACAD_REACTORS
330
1A
102
}
100
AcDbPlotSettings
  1

  2
none_device
  4
ISO_A4_(297.00_x_210.00_MM)
  6

 40
0.0
 41
0.0
 42
0.0
 43
0.0
 44
297.0
 45
210.0
 46
0.0
 47
0.0
 48
0.0
 49
0.0
140
0.0
141
0.0
142
1.0
143
1.0
 70
0
 72
1
 73
0
 74
0
  7

 75
0
147
1.0
148
0.0
149
0.0
100
AcDbLayout
  1
Layout1
 70
0
 71
1
 10
0.0
 20
0.0
 11
297.0
 21
210.0
 12
0.0
 22
0.0
 32
0.0
 14
0.0
 24
0.0
 34
0.0
 15
0.0
 25
0.0
 35
0.0
146
0.0
 13
0.0
 23
0.0
 33
0.0
 16
1.0
 26
0.0
 36
0.0
 17
0.0
 27
1.0
 37
0.0
 76
0
330
21B
345
0
346
0
  0
ENDSEC
  0
EOF
