  0
SECTION
  2
HEADER
  9
$ACADVER
  1
AC1024
  9
$DWGCODEPAGE
  3
ANSI_1252
  9
$EXTMAX
 10
297.0
 20
210.0
 30
0.0
  9
$EXTMIN
 10
0.0
 20
0.0
 30
0.0
  9
$LIMMIN
 10
0.0
 20
0.0
  9
$LIMMAX
 10
297.0
 20
210.0
  9
$VIEWCTR
 10
148.5
 20
105.0
  9
$VIEWSIZE
 40
210.0
  9
$CLAYER
  8
0
  9
$LTSCALE
 40
16.335
  9
$CELTYPE
  6
BYLAYER
  9
$DIMSCALE
 40
1.0
  9
$DIMASZ
 40
3.0
  9
$DIMEXO
 40
0.5
  9
$DIMDLI
 40
11.286
  9
$DIMEXE
 40
1.5
  9
$DIMCEN
 40
2.673
  9
$DIMLFAC
 40
1.0
  9
$DIMBLK
  1
_FILLED
  9
$DIMALT
 70
0
  9
$DIMALTF
 40
0.0393700787
  9
$DIMTXT
 40
3.0
  9
$DIMTOL
 70
1
  9
$DIMLIM
 70
0
  9
$DIMTFAC
 40
1.0
  9
$DIMTP
 40
0.01
  9
$DIMTM
 40
0.01
  9
$DIMGAP
 40
0.625
  9
$DIMDSEP
 70
44
  9
$AUNITS
 70
0
  9
$PDMODE
 70
3
  9
$PDSIZE
 40
3.0
  9
$HANDSEED
  5
6EA
  9
$TILEMODE
 70
1
  9
$MEASUREMENT
 70
1
  9
$INSUNITS
 70
4
  0
ENDSEC
  0
SECTION
  2
CLASSES
  0
CLASS
  1
ACDBDICTIONARYWDFLT
  2
AcDbDictionaryWithDefault
  3
AutoCAD 2000
 90
0
 91
1
280
0
281
0
  0
CLASS
  1
ACDBPLACEHOLDER
  2
AcDbPlaceHolder
  3
AutoCAD 2000
 90
0
 91
1
280
0
281
0
  0
CLASS
  1
LAYOUT
  2
AcDbLayout
  3
AutoCAD 2000
 90
0
 91
0
280
0
281
0
  0
ENDSEC
  0
SECTION
  2
TABLES
  0
TABLE
  2
VPORT
  5
8
100
AcDbSymbolTable
 70
2
  0
VPORT
  5
1F4
100
AcDbSymbolTableRecord
100
AcDbViewportTableRecord
  2
*ACTIVE
 70
0
 10
0.0
 20
0.0
 11
1.0
 21
1.0
 12
148.5
 22
105.0
 13
0.0
 23
0.0
 14
1.0
 24
1.0
 15
0.0
 25
0.0
 16
0.0
 26
0.0
 36
1.0
 17
0.0
 27
0.0
 37
0.0
 40
210.0
 41
1.4142857143
 42
50.0
 43
0.0
 44
0.0
 50
0.0
 51
0.0
 71
0
 72
100
 73
1
 74
1
 75
0
 76
0
 77
0
 78
0
  0
ENDTAB
  0
TABLE
  2
LTYPE
  5
5
100
AcDbSymbolTable
 70
6
  0
LTYPE
  5
14
100
AcDbSymbolTableRecord
100
AcDbLinetypeTableRecord
  2
BYBLOCK
 70
0
  3

 72
65
 73
0
 40
0.0
  0
LTYPE
  5
15
100
AcDbSymbolTableRecord
100
AcDbLinetypeTableRecord
  2
BYLAYER
 70
0
  3

 72
65
 73
0
 40
0.0
  0
LTYPE
  5
16
100
AcDbSymbolTableRecord
100
AcDbLinetypeTableRecord
  2
CONTINUOUS
 70
64
  3
Solid line
 72
65
 73
0
 40
0.0
  0
LTYPE
  5
1F5
100
AcDbSymbolTableRecord
100
AcDbLinetypeTableRecord
  2
CENTER
 70
64
  3
____ _ ____ _ ____ _ ____ _ ____ _ ____ _ ____
 72
65
 73
4
 40
0.6
 49
0.375
 74
0
 49
-0.075
 74
0
 49
0.075
 74
0
 49
-0.075
 74
0
  0
LTYPE
  5
1F6
100
AcDbSymbolTableRecord
100
AcDbLinetypeTableRecord
  2
HIDDEN
 70
64
  3
- - - - - - - - - - - - - - - - - - - -
 72
65
 73
2
 40
0.2
 49
0.1
 74
0
 49
-0.1
 74
0
  0
LTYPE
  5
1F7
100
AcDbSymbolTableRecord
100
AcDbLinetypeTableRecord
  2
PHANTOM
 70
64
  3
_____ _ _ _____ _ _ _____ _ _ _____
 72
65
 73
6
 40
0.8
 49
0.45
 74
0
 49
-0.05
 74
0
 49
0.1
 74
0
 49
-0.05
 74
0
 49
0.1
 74
0
 49
-0.05
 74
0
  0
LTYPE
  5
1F8
100
AcDbSymbolTableRecord
100
AcDbLinetypeTableRecord
  2
DOT
 70
64
  3
. . . . . . . . . . . . . . . . . . . .
 72
65
 73
2
 40
0.2
 49
0.1
 74
0
 49
-0.1
 74
0
  0
LTYPE
  5
1F9
100
AcDbSymbolTableRecord
100
AcDbLinetypeTableRecord
  2
DASHED
 70
64
  3
- - - - - - - - - - - - - - - - - - - -
 72
65
 73
2
 40
0.2
 49
0.1
 74
0
 49
-0.1
 74
0
  0
ENDTAB
  0
TABLE
  2
LAYER
  5
2
100
AcDbSymbolTable
 70
36
  0
LAYER
  5
10
100
AcDbSymbolTableRecord
100
AcDbLayerTableRecord
  2
0
 70
0
 62
7
  6
CONTINUOUS
370
-3
390
F
  0
LAYER
  5
1FA
100
AcDbSymbolTableRecord
100
AcDbLayerTableRecord
  2
DEFAULT_1
 70
0
 62
7
  6
CENTER
370
-3
390
F
  0
LAYER
  5
1FB
100
AcDbSymbolTableRecord
100
AcDbLayerTableRecord
  2
DEFAULT_2
 70
0
 62
7
  6
HIDDEN
370
-3
390
F
  0
LAYER
  5
1FC
100
AcDbSymbolTableRecord
100
AcDbLayerTableRecord
  2
DEFAULT_3
 70
0
 62
7
  6
PHANTOM
370
-3
390
F
  0
LAYER
  5
1FD
100
AcDbSymbolTableRecord
100
AcDbLayerTableRecord
  2
ASSI
 70
0
 62
7
  6
CONTINUOUS
370
-3
390
F
  0
LAYER
  5
1FE
100
AcDbSymbolTableRecord
100
AcDbLayerTableRecord
  2
COLOR5
 70
0
 62
7
  6
CONTINUOUS
370
-3
390
F
  0
LAYER
  5
1FF
100
AcDbSymbolTableRecord
100
AcDbLayerTableRecord
  2
COORDINATE
 70
0
 62
7
  6
CONTINUOUS
370
-3
390
F
  0
LAYER
  5
200
100
AcDbSymbolTableRecord
100
AcDbLayerTableRecord
  2
COORD_ORIGINE
 70
0
 62
7
  6
CONTINUOUS
370
-3
390
F
  0
LAYER
  5
201
100
AcDbSymbolTableRecord
100
AcDbLayerTableRecord
  2
COPY_PUBLISH
 70
0
 62
7
  6
CONTINUOUS
370
-3
390
F
  0
LAYER
  5
202
100
AcDbSymbolTableRecord
100
AcDbLayerTableRecord
  2
COSMETIC
 70
0
 62
7
  6
CONTINUOUS
370
-3
390
F
  0
LAYER
  5
203
100
AcDbSymbolTableRecord
100
AcDbLayerTableRecord
  2
COSMETICHE
 70
0
 62
7
  6
CONTINUOUS
370
-3
390
F
  0
LAYER
  5
204
100
AcDbSymbolTableRecord
100
AcDbLayerTableRecord
  2
COSMETICI
 70
0
 62
7
  6
CONTINUOUS
370
-3
390
F
  0
LAYER
  5
205
100
AcDbSymbolTableRecord
100
AcDbLayerTableRecord
  2
CURVE
 70
0
 62
7
  6
CONTINUOUS
370
-3
390
F
  0
LAYER
  5
206
100
AcDbSymbolTableRecord
100
AcDbLayerTableRecord
  2
DRAFT
 70
0
 62
7
  6
CONTINUOUS
370
-3
390
F
  0
LAYER
  5
207
100
AcDbSymbolTableRecord
100
AcDbLayerTableRecord
  2
IMPORT_IGES
 70
0
 62
7
  6
CONTINUOUS
370
-3
390
F
  0
LAYER
  5
208
100
AcDbSymbolTableRecord
100
AcDbLayerTableRecord
  2
INTF_1
 70
0
 62
7
  6
CONTINUOUS
370
-3
390
F
  0
LAYER
  5
209
100
AcDbSymbolTableRecord
100
AcDbLayerTableRecord
  2
INTF_11
 70
0
 62
7
  6
CONTINUOUS
370
-3
390
F
  0
LAYER
  5
20A
100
AcDbSymbolTableRecord
100
AcDbLayerTableRecord
  2
INTF_52
 70
0
 62
7
  6
CONTINUOUS
370
-3
390
F
  0
LAYER
  5
20B
100
AcDbSymbolTableRecord
100
AcDbLayerTableRecord
  2
INTF_GREEN
 70
0
 62
7
  6
CONTINUOUS
370
-3
390
F
  0
LAYER
  5
20C
100
AcDbSymbolTableRecord
100
AcDbLayerTableRecord
  2
INTF_MAGENTA
 70
0
 62
7
  6
CONTINUOUS
370
-3
390
F
  0
LAYER
  5
20D
100
AcDbSymbolTableRecord
100
AcDbLayerTableRecord
  2
INTF_YELLOW
 70
0
 62
7
  6
CONTINUOUS
370
-3
390
F
  0
LAYER
  5
20E
100
AcDbSymbolTableRecord
100
AcDbLayerTableRecord
  2
NOTE
 70
0
 62
7
  6
CONTINUOUS
370
-3
390
F
  0
LAYER
  5
20F
100
AcDbSymbolTableRecord
100
AcDbLayerTableRecord
  2
PIANI
 70
0
 62
7
  6
CONTINUOUS
370
-3
390
F
  0
LAYER
  5
210
100
AcDbSymbolTableRecord
100
AcDbLayerTableRecord
  2
PIANI_ORIGINE
 70
0
 62
7
  6
CONTINUOUS
370
-3
390
F
  0
LAYER
  5
211
100
AcDbSymbolTableRecord
100
AcDbLayerTableRecord
  2
PUNTI
 70
0
 62
7
  6
CONTINUOUS
370
-3
390
F
  0
LAYER
  5
212
100
AcDbSymbolTableRecord
100
AcDbLayerTableRecord
  2
RACCORDO
 70
0
 62
7
  6
CONTINUOUS
370
-3
390
F
  0
LAYER
  5
213
100
AcDbSymbolTableRecord
100
AcDbLayerTableRecord
  2
SIMBOLI
 70
0
 62
7
  6
CONTINUOUS
370
-3
390
F
  0
LAYER
  5
214
100
AcDbSymbolTableRecord
100
AcDbLayerTableRecord
  2
SMUSSO
 70
0
 62
7
  6
CONTINUOUS
370
-3
390
F
  0
LAYER
  5
215
100
AcDbSymbolTableRecord
100
AcDbLayerTableRecord
  2
SNAPLINE
 70
0
 62
7
  6
CONTINUOUS
370
-3
390
F
  0
LAYER
  5
216
100
AcDbSymbolTableRecord
100
AcDbLayerTableRecord
  2
SUPERFICI
 70
0
 62
7
  6
CONTINUOUS
370
-3
390
F
  0
LAYER
  5
217
100
AcDbSymbolTableRecord
100
AcDbLayerTableRecord
  2
TRASH
 70
0
 62
7
  6
CONTINUOUS
370
-3
390
F
  0
LAYER
  5
218
100
AcDbSymbolTableRecord
100
AcDbLayerTableRecord
  2
XSEC_DATUMS
 70
0
 62
7
  6
CONTINUOUS
370
-3
390
F
  0
ENDTAB
  0
TABLE
  2
STYLE
  5
3
100
AcDbSymbolTable
 70
1
  0
STYLE
  5
11
100
AcDbSymbolTableRecord
100
AcDbTextStyleTableRecord
  2
STANDARD
 70
0
 40
0.0
 41
0.8
 50
0.0
 71
0
 42
0.2
  3
txt
  4

  0
STYLE
  5
219
100
AcDbSymbolTableRecord
100
AcDbTextStyleTableRecord
  2
TEXTSTYLE_1
 70
0
 40
0.0
 41
0.8
 50
0.0
 71
0
 42
0.2
  3
gdt
  4

  0
ENDTAB
  0
TABLE
  2
VIEW
  5
6
100
AcDbSymbolTable
 70
0
  0
ENDTAB
  0
TABLE
  2
UCS
  5
7
100
AcDbSymbolTable
 70
0
  0
ENDTAB
  0
TABLE
  2
APPID
  5
9
100
AcDbSymbolTable
 70
1
  0
APPID
  5
21A
100
AcDbSymbolTableRecord
100
AcDbRegAppTableRecord
  2
ACAD
 70
0
  0
ENDTAB
  0
TABLE
  2
BLOCK_RECORD
  5
1
100
AcDbSymbolTable
 70
0
  0
BLOCK_RECORD
  5
21B
100
AcDbSymbolTableRecord
100
AcDbBlockTableRecord
  2
*Model_Space
  0
BLOCK_RECORD
  5
21C
100
AcDbSymbolTableRecord
100
AcDbBlockTableRecord
  2
*Paper_Space
  0
BLOCK_RECORD
  5
21D
100
AcDbSymbolTableRecord
100
AcDbBlockTableRecord
  2
_FILLED
  0
BLOCK_RECORD
  5
21E
100
AcDbSymbolTableRecord
100
AcDbBlockTableRecord
  2
*D0
  0
BLOCK_RECORD
  5
21F
100
AcDbSymbolTableRecord
100
AcDbBlockTableRecord
  2
*D1
  0
BLOCK_RECORD
  5
220
100
AcDbSymbolTableRecord
100
AcDbBlockTableRecord
  2
*D2
  0
ENDTAB
  0
TABLE
  2
DIMSTYLE
  5
A
100
AcDbSymbolTable
 70
1
100
AcDbDimStyleTable
 71
0
  0
DIMSTYLE
105
221
100
AcDbSymbolTableRecord
100
AcDbDimStyleTableRecord
  2
STANDARD
 70
0
  3

  4

 40
1.0
 41
3.0
 42
0.5
 43
0.38
 44
1.5
 45
0.0
 46
0.0
 47
0.01
 48
0.01
140
3.0
141
0.09
142
0.0
143
25.4
144
1.0
145
0.0
146
1.0
147
0.625
 71
1
 72
0
 73
0
 74
0
 75
0
 76
0
 77
1
 78
8
 79
2
170
0
171
1
172
0
173
0
174
0
175
0
176
0
177
0
178
0
270
2
179
2
271
2
272
2
273
2
274
2
275
0
280
0
281
0
282
0
283
1
284
8
285
0
286
0
287
3
288
0
340
11
278
44
341
21D
342
21D
343
21D
344
21D
  0
DIMSTYLE
105
222
100
AcDbSymbolTableRecord
100
AcDbDimStyleTableRecord
  2
DIMSTYLE_1
 70
0
  3

  4

 40
1.0
 41
3.0
 42
0.5
 43
0.38
 44
1.5
 45
0.0
 46
0.0
 47
0.0
 48
0.0
140
3.0
141
0.09
142
0.0
143
25.4
144
1.0
145
0.0
146
1.0
147
0.75
 71
0
 72
0
 73
0
 74
0
 75
0
 76
0
 77
1
 78
8
 79
2
170
0
171
1
172
0
173
0
174
0
175
0
176
0
177
0
178
0
270
2
179
2
271
1
272
1
273
2
274
2
275
0
280
0
281
0
282
0
283
1
284
8
285
0
286
0
287
3
288
0
340
11
278
44
341
21D
342
21D
343
21D
344
21D
  0
ENDTAB
  0
ENDSEC
  0
SECTION
  2
BLOCKS
  0
BLOCK
  5
20
100
AcDbEntity
  8
0
100
AcDbBlockBegin
  2
*Model_Space
 70
0
 10
0.0
 20
0.0
 30
0.0
  3
*Model_Space
  1

  0
ENDBLK
  5
21
100
AcDbEntity
  8
0
100
AcDbBlockEnd
  0
BLOCK
  5
1C
100
AcDbEntity
  8
0
100
AcDbBlockBegin
  2
*Paper_Space
 70
0
 10
0.0
 20
0.0
 30
0.0
  3
*Paper_Space
  1

  0
ENDBLK
  5
1D
100
AcDbEntity
  8
0
100
AcDbBlockEnd
  0
BLOCK
  5
223
100
AcDbEntity
  8
0
100
AcDbBlockBegin
  2
_FILLED
 70
64
 10
0.0
 20
0.0
  3
_FILLED
  1

  0
SOLID
  5
224
100
AcDbEntity
  8
0
  6
BYBLOCK
 62
0
100
AcDbTrace
 10
0.0
 20
0.0
 11
-1.0
 21
0.3166666667
 12
-1.0
 22
-0.3166666667
 13
-1.0
 23
-0.3166666667
  0
ENDBLK
  5
225
100
AcDbEntity
  8
0
  6
BYBLOCK
 62
0
100
AcDbBlockEnd
  0
BLOCK
  5
226
100
AcDbEntity
  8
0
100
AcDbBlockBegin
 62
7
  6
CONTINUOUS
  2
*D0
 70
65
 10
0.0
 20
0.0
  3
*D0
  1

  0
LINE
  5
227
100
AcDbEntity
  8
0
100
AcDbLine
 62
7
  6
CONTINUOUS
 10
-64.1662116898
 20
27.4123971046
 11
-73.6774061976
 21
27.4123971046
  0
LINE
  5
228
100
AcDbEntity
  8
0
100
AcDbLine
 62
7
  6
CONTINUOUS
 10
-52.5803976865
 20
-34.25
 11
-73.6774061976
 21
-34.25
  0
LINE
  5
229
100
AcDbEntity
  8
0
100
AcDbLine
 62
7
  6
CONTINUOUS
 10
-72.1774061976
 20
27.4123971046
 11
-72.1774061976
 21
-3.4188014477
  0
LINE
  5
22A
100
AcDbEntity
  8
0
100
AcDbLine
 62
7
  6
CONTINUOUS
 10
-72.1774061976
 20
-34.25
 11
-72.1774061976
 21
-3.4188014477
  0
INSERT
  5
22B
100
AcDbEntity
  8
0
100
AcDbBlockReference
 62
7
  6
CONTINUOUS
  2
_FILLED
 10
-72.1774061976
 20
27.4123971046
 41
3.0
 42
3.0
 43
3.0
 50
90.0
  0
INSERT
  5
22C
100
AcDbEntity
  8
0
100
AcDbBlockReference
 62
7
  6
CONTINUOUS
  2
_FILLED
 10
-72.1774061976
 20
-34.25
 41
3.0
 42
3.0
 43
3.0
 50
270.0
  0
ENDBLK
  5
22D
100
AcDbEntity
  8
0
  6
BYBLOCK
 62
0
100
AcDbBlockEnd
  0
BLOCK
  5
22E
100
AcDbEntity
  8
0
100
AcDbBlockBegin
 62
7
  6
CONTINUOUS
  2
*D1
 70
65
 10
0.0
 20
0.0
  3
*D1
  1

  0
LINE
  5
22F
100
AcDbEntity
  8
0
100
AcDbLine
 62
7
  6
CONTINUOUS
 10
-64.1773937417
 20
27.4123780654
 11
-64.1773937417
 21
43.75
  0
LINE
  5
230
100
AcDbEntity
  8
0
100
AcDbLine
 62
7
  6
CONTINUOUS
 10
-31.3834016314
 20
27.4123780654
 11
-31.3834016314
 21
43.75
  0
LINE
  5
231
100
AcDbEntity
  8
0
100
AcDbLine
 62
7
  6
CONTINUOUS
 10
-64.1773937417
 20
42.25
 11
-47.7803976865
 21
42.25
  0
LINE
  5
232
100
AcDbEntity
  8
0
100
AcDbLine
 62
7
  6
CONTINUOUS
 10
-31.3834016314
 20
42.25
 11
-47.7803976865
 21
42.25
  0
INSERT
  5
233
100
AcDbEntity
  8
0
100
AcDbBlockReference
 62
7
  6
CONTINUOUS
  2
_FILLED
 10
-64.1773937417
 20
42.25
 41
3.0
 42
3.0
 43
3.0
 50
180.0
  0
INSERT
  5
234
100
AcDbEntity
  8
0
100
AcDbBlockReference
 62
7
  6
CONTINUOUS
  2
_FILLED
 10
-31.3834016314
 20
42.25
 41
3.0
 42
3.0
 43
3.0
  0
ENDBLK
  5
235
100
AcDbEntity
  8
0
  6
BYBLOCK
 62
0
100
AcDbBlockEnd
  0
BLOCK
  5
236
100
AcDbEntity
  8
0
100
AcDbBlockBegin
 62
7
  6
CONTINUOUS
  2
*D2
 70
65
 10
0.0
 20
0.0
  3
*D2
  1

  0
LINE
  5
237
100
AcDbEntity
  8
0
100
AcDbLine
 62
7
  6
CONTINUOUS
 10
-10.2248231517
 20
-21.6814859917
 11
-10.2248231517
 21
43.75
  0
LINE
  5
238
100
AcDbEntity
  8
0
100
AcDbLine
 62
7
  6
CONTINUOUS
 10
10.2248231517
 20
-21.6814859917
 11
10.2248231517
 21
43.75
  0
LINE
  5
239
100
AcDbEntity
  8
0
100
AcDbLine
 62
7
  6
CONTINUOUS
 10
-10.2248231517
 20
42.25
 11
-0.0
 21
42.25
  0
LINE
  5
23A
100
AcDbEntity
  8
0
100
AcDbLine
 62
7
  6
CONTINUOUS
 10
10.2248231517
 20
42.25
 11
-0.0
 21
42.25
  0
INSERT
  5
23B
100
AcDbEntity
  8
0
100
AcDbBlockReference
 62
7
  6
CONTINUOUS
  2
_FILLED
 10
-10.2248231517
 20
42.25
 41
3.0
 42
3.0
 43
3.0
 50
180.0
  0
INSERT
  5
23C
100
AcDbEntity
  8
0
100
AcDbBlockReference
 62
7
  6
CONTINUOUS
  2
_FILLED
 10
10.2248231517
 20
42.25
 41
3.0
 42
3.0
 43
3.0
  0
ENDBLK
  5
23D
100
AcDbEntity
  8
0
  6
BYBLOCK
 62
0
100
AcDbBlockEnd
  0
ENDSEC
  0
SECTION
  2
ENTITIES
  0
DIMENSION
  5
23E
100
AcDbEntity
  8
0
100
AcDbDimension
 62
7
  6
CONTINUOUS
  2
*D0
 10
-72.1774061976
 20
-34.25
 11
-72.1774061976
 21
-7.4902300191
 70
160
 71
2
 72
2
 41
0.9
 42
61.6623971046
  3
DIMSTYLE_1
100
AcDbAlignedDimension
 13
-63.6662116898
 23
27.4123971046
 14
-52.0803976865
 24
-34.25
 50
270.0
100
AcDbRotatedDimension
  0
DIMENSION
  5
23F
100
AcDbEntity
  8
0
100
AcDbDimension
 62
7
  6
CONTINUOUS
  2
*D1
 10
-31.3834016314
 20
42.25
 11
-52.0661119722
 21
42.25
 70
160
 71
2
 72
2
 41
0.9
 42
32.7939921103
  3
DIMSTYLE_1
100
AcDbAlignedDimension
 13
-64.1773937417
 23
26.9123780654
 14
-31.3834016314
 24
26.9123780654
100
AcDbRotatedDimension
  0
DIMENSION
  5
240
100
AcDbEntity
  8
0
100
AcDbDimension
 62
7
  6
CONTINUOUS
  2
*D2
 10
10.2248231517
 20
42.25
 11
-4.3928571429
 21
42.25
 70
160
 71
2
 72
2
 41
0.9
 42
20.4496463035
  3
DIMSTYLE_1
100
AcDbAlignedDimension
 13
-10.2248231517
 23
-22.1814859917
 14
10.2248231517
 24
-22.1814859917
100
AcDbRotatedDimension
  0
LWPOLYLINE
  5
241
100
AcDbEntity
  8
0
100
AcDbPolyline
 62
250
  6
CONTINUOUS
 90
10
 70
0
 10
6.2571567535
 20
-30.5911406409
 10
6.4014528691
 20
-30.5629475876
 10
6.5413157683
 20
-30.5184695913
 10
6.6755337234
 20
-30.4581279071
 10
6.802529554
 20
-30.3826394188
 10
6.9203589763
 20
-30.2929872904
 10
7.0272256021
 20
-30.1905305572
 10
7.1217634886
 20
-30.0767868622
 10
7.2028946356
 20
-29.9530914982
 10
7.2697793509
 20
-29.8207126134
  0
LINE
  5
242
100
AcDbEntity
  8
0
100
AcDbLine
 62
7
  6
CONTINUOUS
 10
6.7791498937
 20
-30.7882687957
 11
6.1750929302
 21
-30.8671637221
  0
LWPOLYLINE
  5
243
100
AcDbEntity
  8
0
100
AcDbPolyline
 62
250
  6
CONTINUOUS
 90
10
 70
0
 10
6.2569483885
 20
-30.5911629451
 10
5.5644902738
 20
-30.6700678467
 10
4.8710246693
 20
-30.7396993411
 10
4.1766865814
 20
-30.8000542747
 10
3.4816076046
 20
-30.8511309555
 10
2.7859264176
 20
-30.8929272123
 10
2.0897887879
 20
-30.9254408629
 10
1.3933334884
 20
-30.9486720727
 10
0.6966922409
 20
-30.9626228744
 10
0.0000002336
 20
-30.9672955624
  0
LWPOLYLINE
  5
244
100
AcDbEntity
  8
0
100
AcDbPolyline
 62
7
  6
CONTINUOUS
 90
3
 70
0
 10
5.9650967944
 20
-30.8823251379
 10
5.7671769169
 20
-30.8958184032
 10
5.5174579931
 20
-30.9122281307
  0
LWPOLYLINE
  5
245
100
AcDbEntity
  8
0
100
AcDbPolyline
 62
7
  6
CONTINUOUS
 90
3
 70
0
 10
6.0550222101
 20
-30.8757478693
 10
6.1479694458
 20
-30.8694079642
 10
6.1715873655
 20
-30.8675997642
  0
LINE
  5
246
100
AcDbEntity
  8
0
100
AcDbLine
 62
250
  6
CONTINUOUS
 10
5.5967694148
 20
-31.0949490682
 11
5.0594975325
 21
-31.130869114
  0
LWPOLYLINE
  5
247
100
AcDbEntity
  8
0
100
AcDbPolyline
 62
7
  6
CONTINUOUS
 90
9
 70
0
 10
5.5174579931
 20
-30.9122281307
 10
5.2140813383
 20
-30.9315584763
 10
4.8809396912
 20
-30.9511695584
 10
4.5200995705
 20
-30.970930014
 10
4.129410645
 20
-30.9908789397
 10
3.7265277346
 20
-31.0093082891
 10
3.3133552863
 20
-31.0262200943
 10
2.8880021155
 20
-31.0417613638
 10
2.5018839133
 20
-31.0538761429
  0
LWPOLYLINE
  5
248
100
AcDbEntity
  8
0
100
AcDbPolyline
 62
250
  6
CONTINUOUS
 90
6
 70
0
 10
5.0594975325
 20
-31.130869114
 10
4.7341828177
 20
-31.1506050659
 10
4.3804163583
 20
-31.1703020957
 10
4.0054581222
 20
-31.1902910627
 10
3.6136447325
 20
-31.208888499
 10
3.2104092919
 20
-31.2257615595
  0
LWPOLYLINE
  5
249
100
AcDbEntity
  8
0
100
AcDbPolyline
 62
250
  6
CONTINUOUS
 90
4
 70
0
 10
3.2104092919
 20
-31.2257615595
 10
2.8009803863
 20
-31.2412430893
 10
2.3879060117
 20
-31.254648155
 10
1.9749699672
 20
-31.2657467567
  0
LWPOLYLINE
  5
24A
100
AcDbEntity
  8
0
100
AcDbPolyline
 62
250
  6
CONTINUOUS
 90
6
 70
0
 10
2.5018839133
 20
-31.0538761429
 10
2.0383350078
 20
-31.0660683637
 10
1.6140838533
 20
-31.0752188163
 10
1.1973350782
 20
-31.0820146542
 10
0.7906459039
 20
-31.0865553101
 10
0.3915250182
 20
-31.0892845354
  0
LWPOLYLINE
  5
24B
100
AcDbEntity
  8
0
100
AcDbPolyline
 62
250
  6
CONTINUOUS
 90
6
 70
0
 10
1.9749699672
 20
-31.2657467567
 10
1.5657452441
 20
-31.2747688943
 10
1.1614377986
 20
-31.2817196338
 10
0.7639889515
 20
-31.2866006638
 10
0.3762162724
 20
-31.2894102957
 10
-0.0000000011
 20
-31.2901485295
  0
LINE
  5
24C
100
AcDbEntity
  8
0
100
AcDbLine
 62
250
  6
CONTINUOUS
 10
0.3915250182
 20
-31.0892845354
 11
0.0000000001
 21
-31.090414505
  0
LWPOLYLINE
  5
24D
100
AcDbEntity
  8
0
100
AcDbPolyline
 62
7
  6
CONTINUOUS
 90
4
 70
0
 10
2.27469327
 20
-32.7502073256
 10
1.5426807895
 20
-32.7509465022
 10
0.7780830035
 20
-32.7530535373
 10
-0.0
 20
-32.7576975053
  0
LWPOLYLINE
  5
24E
100
AcDbEntity
  8
0
100
AcDbPolyline
 62
250
  6
CONTINUOUS
 90
5
 70
0
 10
5.9999991468
 20
-31.0660014222
 10
5.9952097821
 20
-31.0660049206
 10
5.929015762
 20
-31.0707944129
 10
5.7931663019
 20
-31.0813877488
 10
5.5967694148
 20
-31.0949490682
  0
LINE
  5
24F
100
AcDbEntity
  8
0
100
AcDbLine
 62
7
  6
CONTINUOUS
 10
4.3
 20
-34.25
 11
-4.2999999034
 21
-34.25
  0
LINE
  5
250
100
AcDbEntity
  8
0
100
AcDbLine
 62
250
  6
CONTINUOUS
 10
5.1
 20
-33.45
 11
-5.1
 21
-33.45
  0
LINE
  5
251
100
AcDbEntity
  8
0
100
AcDbLine
 62
250
  6
CONTINUOUS
 10
-5.1
 20
-32.9
 11
5.1
 21
-32.9
  0
LINE
  5
252
100
AcDbEntity
  8
0
100
AcDbLine
 62
7
  6
CONTINUOUS
 10
-0.0
 20
-32.75
 11
5.242116175
 21
-32.7502073256
  0
LINE
  5
253
100
AcDbEntity
  8
0
100
AcDbLine
 62
250
  6
CONTINUOUS
 10
6.0
 20
-31.95
 11
-6.0
 21
-31.95
  0
LWPOLYLINE
  5
254
100
AcDbEntity
  8
0
100
AcDbPolyline
 62
250
  6
CONTINUOUS
 90
5
 70
0
 10
-0.0000000103
 20
-31.0904682965
 10
-0.8301478264
 20
-31.0874557684
 10
-1.6013604882
 20
-31.0761971305
 10
-2.3135192099
 20
-31.0591342712
 10
-2.5193710237
 20
-31.0531599044
  0
LWPOLYLINE
  5
255
100
AcDbEntity
  8
0
100
AcDbPolyline
 62
7
  6
CONTINUOUS
 90
5
 70
0
 10
-0.0
 20
-32.7576975053
 10
-0.7779752947
 20
-32.7530535373
 10
-1.542488468
 20
-32.7509465022
 10
-2.2744440147
 20
-32.7502073256
 10
-5.242116175
 20
-32.7502073256
  0
LWPOLYLINE
  5
256
100
AcDbEntity
  8
0
100
AcDbPolyline
 62
250
  6
CONTINUOUS
 90
4
 70
0
 10
-0.0000002454
 20
-31.2901485261
 10
-0.8049462514
 20
-31.2833666013
 10
-1.5647296591
 20
-31.272684487
 10
-2.2690587095
 20
-31.2581021832
  0
LWPOLYLINE
  5
257
100
AcDbEntity
  8
0
100
AcDbPolyline
 62
250
  6
CONTINUOUS
 90
8
 70
0
 10
-2.2690587095
 20
-31.2581021832
 10
-2.9092339299
 20
-31.2382552281
 10
-3.4828919644
 20
-31.2145080835
 10
-3.992525538
 20
-31.1909541346
 10
-4.437697307
 20
-31.1682077701
 10
-4.8189440692
 20
-31.1456546012
 10
-5.1406812202
 20
-31.1255448473
 10
-5.4053292579
 20
-31.1084367578
  0
LWPOLYLINE
  5
258
100
AcDbEntity
  8
0
100
AcDbPolyline
 62
7
  6
CONTINUOUS
 90
7
 70
0
 10
-2.5193710237
 20
-31.0531599044
 10
-2.9689321432
 20
-31.0387862121
 10
-3.5652485281
 20
-31.0163653463
 10
-4.0954635185
 20
-30.9924425945
 10
-4.5550449396
 20
-30.9690305901
 10
-4.9487491623
 20
-30.9473702799
 10
-5.283533616
 20
-30.9271791815
  0
LINE
  5
259
100
AcDbEntity
  8
0
100
AcDbLine
 62
7
  6
CONTINUOUS
 10
-5.283533616
 20
-30.9271791815
 11
-5.7740588385
 21
-30.8954260578
  0
LINE
  5
25A
100
AcDbEntity
  8
0
100
AcDbLine
 62
7
  6
CONTINUOUS
 10
-5.7740588385
 20
-30.8954260578
 11
-6.1350037811
 21
-30.8701302936
  0
LINE
  5
25B
100
AcDbEntity
  8
0
100
AcDbLine
 62
250
  6
CONTINUOUS
 10
-5.4053292579
 20
-31.1084367578
 11
-5.7765034724
 21
-31.0821262948
  0
LWPOLYLINE
  5
25C
100
AcDbEntity
  8
0
100
AcDbPolyline
 62
250
  6
CONTINUOUS
 90
4
 70
0
 10
-5.7765034724
 20
-31.0821262948
 10
-5.9630232662
 20
-31.0685626972
 10
-5.9965339188
 20
-31.0658777181
 10
-5.9999999869
 20
-31.0655194555
  0
LWPOLYLINE
  5
25D
100
AcDbEntity
  8
0
100
AcDbPolyline
 62
7
  6
CONTINUOUS
 90
3
 70
0
 10
-6.1350037811
 20
-30.8701302936
 10
-6.171412451
 20
-30.86742595
 10
-6.1768640106
 20
-30.8669433294
  0
LWPOLYLINE
  5
25E
100
AcDbEntity
  8
0
100
AcDbPolyline
 62
250
  6
CONTINUOUS
 90
10
 70
0
 10
-6.2569483885
 20
-30.5911629451
 10
-5.5644902738
 20
-30.6700678467
 10
-4.8710246693
 20
-30.7396993411
 10
-4.1766865814
 20
-30.8000542747
 10
-3.4816076046
 20
-30.8511309555
 10
-2.7859264176
 20
-30.8929272123
 10
-2.0897887879
 20
-30.9254408629
 10
-1.3933334884
 20
-30.9486720727
 10
-0.6966922409
 20
-30.9626228744
 10
-0.0000002336
 20
-30.9672955624
  0
LINE
  5
25F
100
AcDbEntity
  8
0
100
AcDbLine
 62
7
  6
CONTINUOUS
 10
-6.1752699667
 20
-30.8671416946
 11
-6.7791498937
 21
-30.7882687957
  0
LWPOLYLINE
  5
260
100
AcDbEntity
  8
0
100
AcDbPolyline
 62
250
  6
CONTINUOUS
 90
10
 70
0
 10
-6.2571567535
 20
-30.5911406409
 10
-6.4014528691
 20
-30.5629475876
 10
-6.5413157683
 20
-30.5184695913
 10
-6.6755337234
 20
-30.4581279071
 10
-6.802529554
 20
-30.3826394188
 10
-6.9203589763
 20
-30.2929872904
 10
-7.0272256021
 20
-30.1905305572
 10
-7.1217634886
 20
-30.0767868622
 10
-7.2028946356
 20
-29.9530914982
 10
-7.2697793509
 20
-29.8207126134
  0
LWPOLYLINE
  5
261
100
AcDbEntity
  8
0
100
AcDbPolyline
 62
250
  6
CONTINUOUS
 90
7
 70
0
 10
-8.5679768087
 20
27.2727304419
 10
-8.6365986172
 20
27.2251086888
 10
-8.6976555695
 20
27.1648064842
 10
-8.7477579348
 20
27.093940535
 10
-8.7852076471
 20
27.0149853158
 10
-8.8088409054
 20
26.9296129605
 10
-8.8170768806
 20
26.8400270955
  0
LWPOLYLINE
  5
262
100
AcDbEntity
  8
0
100
AcDbPolyline
 62
7
  6
CONTINUOUS
 90
4
 70
0
 10
-7.5984736313
 20
27.2772432881
 10
-7.558261716
 20
27.2977232766
 10
-7.5153759851
 20
27.3153303389
 10
-7.5019488534
 20
27.3200132564
  0
LINE
  5
263
100
AcDbEntity
  8
0
100
AcDbLine
 62
250
  6
CONTINUOUS
 10
-8.4949773542
 20
27.3074013802
 11
-8.5679768087
 21
27.2727304419
  0
LINE
  5
264
100
AcDbEntity
  8
0
100
AcDbLine
 62
7
  6
CONTINUOUS
 10
-7.5019557418
 20
27.3200298017
 11
-7.5102082529
 21
27.3174465241
  0
LWPOLYLINE
  5
265
100
AcDbEntity
  8
0
100
AcDbPolyline
 62
7
  6
CONTINUOUS
 90
3
 70
0
 10
-7.5019488534
 20
27.3200132564
 10
-7.4699973847
 20
27.3296509291
 10
-7.4223409265
 20
27.3402448094
  0
LWPOLYLINE
  5
266
100
AcDbEntity
  8
0
100
AcDbPolyline
 62
250
  6
CONTINUOUS
 90
5
 70
0
 10
-7.3229491812
 20
27.3409422503
 10
-7.4023450741
 20
27.3180287443
 10
-7.4768175558
 20
27.2811180243
 10
-7.5446824926
 20
27.2307551884
 10
-7.6036576222
 20
27.1680530643
  0
LINE
  5
267
100
AcDbEntity
  8
0
100
AcDbLine
 62
7
  6
CONTINUOUS
 10
-7.5136916467
 20
27.3180987962
 11
-7.543880209
 21
27.3094100367
  0
LWPOLYLINE
  5
268
100
AcDbEntity
  8
0
100
AcDbPolyline
 62
250
  6
CONTINUOUS
 90
7
 70
0
 10
-6.7791498937
 20
-30.7882687957
 10
-6.7701599133
 20
-30.7857173161
 10
-6.748420172
 20
-30.7776023727
 10
-6.7139283885
 20
-30.7642940153
 10
-6.6660131322
 20
-30.7462446226
 10
-6.605337149
 20
-30.7236941096
 10
-6.5338984957
 20
-30.6966557532
  0
LWPOLYLINE
  5
269
100
AcDbEntity
  8
0
100
AcDbPolyline
 62
250
  6
CONTINUOUS
 90
8
 70
0
 10
1.345477009
 20
-27.8750760059
 10
2.0181066019
 20
-27.8536296244
 10
2.690490083
 20
-27.823643046
 10
3.362517771
 20
-27.7851231787
 10
4.0341033144
 20
-27.738065237
 10
4.7051367737
 20
-27.682484979
 10
5.3754847391
 20
-27.6184192312
 10
6.0450254954
 20
-27.5459015524
  0
LINE
  5
26A
100
AcDbEntity
  8
0
100
AcDbLine
 62
250
  6
CONTINUOUS
 10
0.6727343894
 20
-27.8879641021
 11
1.345477009
 21
-27.8750760059
  0
LINE
  5
26B
100
AcDbEntity
  8
0
100
AcDbLine
 62
250
  6
CONTINUOUS
 10
-0.0
 20
-27.8922886171
 11
0.6727343894
 21
-27.8879641021
  0
LWPOLYLINE
  5
26C
100
AcDbEntity
  8
0
100
AcDbPolyline
 62
250
  6
CONTINUOUS
 90
10
 70
0
 10
-0.0
 20
-27.8922886171
 10
-0.6727343894
 20
-27.8879641021
 10
-1.345477009
 20
-27.8750760059
 10
-2.0181066019
 20
-27.8536296244
 10
-2.690490083
 20
-27.823643046
 10
-3.362517771
 20
-27.7851231787
 10
-4.0341033144
 20
-27.738065237
 10
-4.7051367737
 20
-27.682484979
 10
-5.3754847391
 20
-27.6184192312
 10
-6.0450254954
 20
-27.5459015524
  0
LWPOLYLINE
  5
26D
100
AcDbEntity
  8
0
100
AcDbPolyline
 62
250
  6
CONTINUOUS
 90
9
 70
0
 10
6.7791498937
 20
-30.7882687957
 10
6.7701599133
 20
-30.7857173161
 10
6.748420172
 20
-30.7776023727
 10
6.7139283885
 20
-30.7642940153
 10
6.6660131322
 20
-30.7462446226
 10
6.605337149
 20
-30.7236941096
 10
6.5338984957
 20
-30.6966557532
 10
6.4523593876
 20
-30.6653195128
 10
6.2569483885
 20
-30.5911629451
  0
LWPOLYLINE
  5
26E
100
AcDbEntity
  8
0
100
AcDbPolyline
 62
250
  6
CONTINUOUS
 90
10
 70
0
 10
-7.0351310469
 20
-26.8208886224
 10
-6.9615615125
 20
-26.8530913547
 10
-6.8781665827
 20
-26.8811255931
 10
-6.7852571667
 20
-26.9057465845
 10
-6.6841457102
 20
-26.9272445507
 10
-6.5760054039
 20
-26.945598772
 10
-6.4615358503
 20
-26.9604324808
 10
-6.3416054307
 20
-26.971199771
 10
-6.2171591203
 20
-26.9776517323
 10
-6.0890929251
 20
-26.9797021693
  0
LWPOLYLINE
  5
26F
100
AcDbEntity
  8
0
100
AcDbPolyline
 62
250
  6
CONTINUOUS
 90
10
 70
0
 10
-7.0131904819
 20
-27.4106274591
 10
-6.9409150475
 20
-27.4430672201
 10
-6.8574398573
 20
-27.4716805327
 10
-6.7636781173
 20
-27.4962103531
 10
-6.6604488839
 20
-27.5164153706
 10
-6.5487733916
 20
-27.5320119811
 10
-6.4300816773
 20
-27.5428011743
 10
-6.3057717221
 20
-27.5487322448
 10
-6.1770031737
 20
-27.5497760532
 10
-6.0450333095
 20
-27.5458909447
  0
LWPOLYLINE
  5
270
100
AcDbEntity
  8
0
100
AcDbPolyline
 62
7
  6
CONTINUOUS
 90
3
 70
0
 10
6.1715931994
 20
-30.8675990376
 10
6.1712482301
 20
-30.8674420187
 10
5.9650967944
 20
-30.8823251379
  0
LINE
  5
271
100
AcDbEntity
  8
0
100
AcDbLine
 62
250
  6
CONTINUOUS
 10
-7.6036576222
 20
27.1680530643
 11
-7.6507479982
 21
27.096332061
  0
LWPOLYLINE
  5
272
100
AcDbEntity
  8
0
100
AcDbPolyline
 62
7
  6
CONTINUOUS
 90
5
 70
0
 10
7.6179882225
 20
27.3048063138
 10
7.6106515435
 20
27.3007698371
 10
7.5955157714
 20
27.2999765532
 10
7.5728696786
 20
27.3024264622
 10
7.54327127
 20
27.309480016
  0
LWPOLYLINE
  5
273
100
AcDbEntity
  8
0
100
AcDbPolyline
 62
250
  6
CONTINUOUS
 90
4
 70
0
 10
7.5602917567
 20
-29.9823732767
 10
7.5742455058
 20
-29.9884587188
 10
7.577654982
 20
-29.9899724703
 10
7.5810253031
 20
-29.9914972179
  0
LWPOLYLINE
  5
274
100
AcDbEntity
  8
0
100
AcDbPolyline
 62
250
  6
CONTINUOUS
 90
4
 70
0
 10
7.5496001049
 20
-29.977582179
 10
7.5531780712
 20
-29.9792146857
 10
7.5567431954
 20
-29.9808094189
 10
7.5602917567
 20
-29.9823732767
  0
LINE
  5
275
100
AcDbEntity
  8
0
100
AcDbLine
 62
250
  6
CONTINUOUS
 10
7.7517610219
 20
-30.0822219946
 11
7.7563708034
 21
-30.0843645803
  0
LINE
  5
276
100
AcDbEntity
  8
0
100
AcDbLine
 62
250
  6
CONTINUOUS
 10
7.5810253031
 20
-29.9914972179
 11
7.5893199679
 21
-29.9954059651
  0
LINE
  5
277
100
AcDbEntity
  8
0
100
AcDbLine
 62
250
  6
CONTINUOUS
 10
7.7563708034
 20
-30.0843645803
 11
7.7576250135
 21
-30.0849653113
  0
LWPOLYLINE
  5
278
100
AcDbEntity
  8
0
100
AcDbPolyline
 62
7
  6
CONTINUOUS
 90
4
 70
0
 10
7.5893199679
 20
-29.9954059651
 10
7.5945115338
 20
-29.9979635615
 10
7.6073322537
 20
-30.0046101891
 10
7.6161868425
 20
-30.0094333639
  0
LWPOLYLINE
  5
279
100
AcDbEntity
  8
0
100
AcDbPolyline
 62
250
  6
CONTINUOUS
 90
5
 70
0
 10
7.3491871649
 20
-29.8703818395
 10
7.3743549979
 20
-29.8828686574
 10
7.3988506764
 20
-29.8951620294
 10
7.4226694724
 20
-29.9078760113
 10
7.445663547
 20
-29.9206983058
  0
LINE
  5
27A
100
AcDbEntity
  8
0
100
AcDbLine
 62
250
  6
CONTINUOUS
 10
7.7576250135
 20
-30.0849653113
 11
7.7592423517
 21
-30.0857811071
  0
LINE
  5
27B
100
AcDbEntity
  8
0
100
AcDbLine
 62
250
  6
CONTINUOUS
 10
7.7010517083
 20
-30.0549985763
 11
7.7069999548
 21
-30.0580500691
  0
LINE
  5
27C
100
AcDbEntity
  8
0
100
AcDbLine
 62
250
  6
CONTINUOUS
 10
7.7069999548
 20
-30.0580500691
 11
7.7099847233
 21
-30.0596081082
  0
LWPOLYLINE
  5
27D
100
AcDbEntity
  8
0
100
AcDbPolyline
 62
250
  6
CONTINUOUS
 90
6
 70
0
 10
7.7414964961
 20
-30.0771232406
 10
7.7437888423
 20
-30.0783258145
 10
7.7459654015
 20
-30.0794305991
 10
7.7480222449
 20
-30.0804439423
 10
7.7499554643
 20
-30.0813722661
 10
7.7517610219
 20
-30.0822219946
  0
LINE
  5
27E
100
AcDbEntity
  8
0
100
AcDbLine
 62
250
  6
CONTINUOUS
 10
7.7592423517
 20
-30.0857811071
 11
7.7598242286
 21
-30.0860876134
  0
LWPOLYLINE
  5
27F
100
AcDbEntity
  8
0
100
AcDbPolyline
 62
250
  6
CONTINUOUS
 90
3
 70
0
 10
7.7099847233
 20
-30.0596081082
 10
7.7119720004
 20
-30.0606591677
 10
7.7138299509
 20
-30.061653445
  0
LINE
  5
280
100
AcDbEntity
  8
0
100
AcDbLine
 62
250
  6
CONTINUOUS
 10
7.7619715777
 20
-30.0872653117
 11
7.7621309391
 21
-30.0873505424
  0
LINE
  5
281
100
AcDbEntity
  8
0
100
AcDbLine
 62
250
  6
CONTINUOUS
 10
7.7398376674
 20
-30.0762277715
 11
7.7414964961
 21
-30.0771232406
  0
LINE
  5
282
100
AcDbEntity
  8
0
100
AcDbLine
 62
250
  6
CONTINUOUS
 10
7.7138299509
 20
-30.061653445
 11
7.7171530608
 21
-30.063459198
  0
LINE
  5
283
100
AcDbEntity
  8
0
100
AcDbLine
 62
250
  6
CONTINUOUS
 10
7.7598242286
 20
-30.0860876134
 11
7.7619715777
 21
-30.0872653117
  0
LWPOLYLINE
  5
284
100
AcDbEntity
  8
0
100
AcDbPolyline
 62
250
  6
CONTINUOUS
 90
10
 70
0
 10
7.3201644054
 20
-29.8527179837
 10
7.3180187575
 20
-29.8515375184
 10
7.3158873841
 20
-29.8503310907
 10
7.3137706179
 20
-29.8490858398
 10
7.3117093125
 20
-29.8478173357
 10
7.3096633623
 20
-29.8464860965
 10
7.3075112692
 20
-29.844989723
 10
7.3052124206
 20
-29.8432725893
 10
7.3028074864
 20
-29.8413365736
 10
7.3002964613
 20
-29.8391637682
  0
LINE
  5
285
100
AcDbEntity
  8
0
100
AcDbLine
 62
250
  6
CONTINUOUS
 10
7.7171530608
 20
-30.063459198
 11
7.7200811714
 21
-30.0650769039
  0
LINE
  5
286
100
AcDbEntity
  8
0
100
AcDbLine
 62
250
  6
CONTINUOUS
 10
7.6161868425
 20
-30.0094333639
 11
7.6195474928
 21
-30.0113030052
  0
LWPOLYLINE
  5
287
100
AcDbEntity
  8
0
100
AcDbPolyline
 62
250
  6
CONTINUOUS
 90
3
 70
0
 10
7.7363440998
 20
-30.0742907779
 10
7.7381206576
 20
-30.0752828607
 10
7.7398376674
 20
-30.0762277715
  0
LINE
  5
288
100
AcDbEntity
  8
0
100
AcDbLine
 62
250
  6
CONTINUOUS
 10
7.7200811714
 20
-30.0650769039
 11
7.7229580357
 21
-30.0666871876
  0
LINE
  5
289
100
AcDbEntity
  8
0
100
AcDbLine
 62
250
  6
CONTINUOUS
 10
7.7326068302
 20
-30.0721742367
 11
7.7363440998
 21
-30.0742907779
  0
LWPOLYLINE
  5
28A
100
AcDbEntity
  8
0
100
AcDbPolyline
 62
250
  6
CONTINUOUS
 90
6
 70
0
 10
7.6195474928
 20
-30.0113030052
 10
7.6424091645
 20
-30.0242800915
 10
7.6531765259
 20
-30.0302845217
 10
7.6635441933
 20
-30.0358584007
 10
7.6734869901
 20
-30.0410410089
 10
7.7010517083
 20
-30.0549985763
  0
LWPOLYLINE
  5
28B
100
AcDbEntity
  8
0
100
AcDbPolyline
 62
250
  6
CONTINUOUS
 90
3
 70
0
 10
7.7229580357
 20
-30.0666871876
 10
7.7286148355
 20
-30.0698965933
 10
7.7326068302
 20
-30.0721742367
  0
LWPOLYLINE
  5
28C
100
AcDbEntity
  8
0
100
AcDbPolyline
 62
250
  6
CONTINUOUS
 90
5
 70
0
 10
7.445663547
 20
-29.9206983058
 10
7.489050349
 20
-29.9455494332
 10
7.5097118441
 20
-29.9571574396
 10
7.5298492886
 20
-29.9679125991
 10
7.5496001049
 20
-29.977582179
  0
LWPOLYLINE
  5
28D
100
AcDbEntity
  8
0
100
AcDbPolyline
 62
250
  6
CONTINUOUS
 90
4
 70
0
 10
7.2814717709
 20
-29.8270132327
 10
7.2759354992
 20
-29.8237477782
 10
7.2729874093
 20
-29.8220497139
 10
7.2699847774
 20
-29.8203617701
  0
LWPOLYLINE
  5
28E
100
AcDbEntity
  8
0
100
AcDbPolyline
 62
250
  6
CONTINUOUS
 90
10
 70
0
 10
7.3199288966
 20
-29.8538653814
 10
7.3231937132
 20
-29.8558817444
 10
7.3264551853
 20
-29.8578460023
 10
7.3297134549
 20
-29.8597610565
 10
7.3329693337
 20
-29.8616302653
 10
7.3362223086
 20
-29.8634562967
 10
7.3394705734
 20
-29.8652412276
 10
7.3427136716
 20
-29.8669880163
 10
7.3459524657
 20
-29.8687004047
 10
7.3491871649
 20
-29.8703818395
  0
LWPOLYLINE
  5
28F
100
AcDbEntity
  8
0
100
AcDbPolyline
 62
250
  6
CONTINUOUS
 90
6
 70
0
 10
7.3002964613
 20
-29.8391637682
 10
7.2953953847
 20
-29.8361107035
 10
7.2910219468
 20
-29.8332363819
 10
7.2871778575
 20
-29.8306481027
 10
7.284059461
 20
-29.8285950803
 10
7.2814717709
 20
-29.8270132327
  0
LWPOLYLINE
  5
290
100
AcDbEntity
  8
0
100
AcDbPolyline
 62
7
  6
CONTINUOUS
 90
10
 70
0
 10
-7.7623854768
 20
-30.087957893
 10
-7.6924769646
 20
-30.2092885617
 10
-7.6099786504
 20
-30.3222534465
 10
-7.5159302704
 20
-30.4255550422
 10
-7.4114564252
 20
-30.5181338878
 10
-7.2978101973
 20
-30.59886292
 10
-7.1763146111
 20
-30.6668756472
 10
-7.0484877462
 20
-30.7214618042
 10
-6.9157344131
 20
-30.7620193765
 10
-6.779071758
 20
-30.7882181227
  0
LWPOLYLINE
  5
291
100
AcDbEntity
  8
0
100
AcDbPolyline
 62
250
  6
CONTINUOUS
 90
4
 70
0
 10
-7.6507479982
 20
27.096332061
 10
-7.6849032499
 20
27.0181610617
 10
-7.70576535
 20
26.9351768982
 10
-7.712801757
 20
26.8492267652
  0
LWPOLYLINE
  5
292
100
AcDbEntity
  8
0
100
AcDbPolyline
 62
7
  6
CONTINUOUS
 90
16
 70
0
 10
-8.9838571941
 20
17.186637
 10
-8.9761094869
 20
17.1972946658
 10
-8.96919793
 20
17.2287870896
 10
-8.9631225232
 20
17.2797160139
 10
-8.9576727366
 20
17.3478311173
 10
-8.9530591002
 20
17.4301425968
 10
-8.9499132042
 20
17.5230613088
 10
-8.948445562
 20
17.6225225345
 10
-8.9484456603
 20
17.7241870159
 10
-8.9499135486
 20
17.8236487112
 10
-8.9530598871
 20
17.9165695426
 10
-8.9576740157
 20
17.9988824573
 10
-8.9631240038
 20
18.0669945592
 10
-8.9691992078
 20
18.1179172093
 10
-8.9761102712
 20
18.1494038582
 10
-8.9838571941
 20
18.160059
  0
LINE
  5
293
100
AcDbEntity
  8
0
100
AcDbLine
 62
7
  6
CONTINUOUS
 10
9.0088465101
 20
-15.2990562526
 11
9.0789324431
 21
-15.2990562526
  0
LWPOLYLINE
  5
294
100
AcDbEntity
  8
0
100
AcDbPolyline
 62
250
  6
CONTINUOUS
 90
10
 70
0
 10
7.2699847774
 20
-29.8203617701
 10
7.1981069309
 20
-29.7496024482
 10
7.1342107566
 20
-29.6187707648
 10
7.079881956
 20
-29.4330049117
 10
7.0359106453
 20
-29.1993976239
 10
7.0036005424
 20
-28.9219367419
 10
6.9850546862
 20
-28.6001269928
 10
6.9809675792
 20
-28.2371328245
 10
6.9906210448
 20
-27.8404220022
 10
7.0135460615
 20
-27.415323699
  0
LWPOLYLINE
  5
295
100
AcDbEntity
  8
0
100
AcDbPolyline
 62
7
  6
CONTINUOUS
 90
5
 70
0
 10
-10.2248220817
 20
-22.1814856934
 10
-10.2329009039
 20
-22.0935061474
 10
-10.2331274721
 20
-22.0055306107
 10
-10.2255760329
 20
-21.9176247017
 10
-10.2165830454
 20
-21.8612390118
  0
LWPOLYLINE
  5
296
100
AcDbEntity
  8
0
100
AcDbPolyline
 62
7
  6
CONTINUOUS
 90
3
 70
0
 10
-8.8992084293
 20
16.9551577804
 10
-8.9104844625
 20
16.786573952
 10
-8.9242242006
 20
16.6476415855
  0
LWPOLYLINE
  5
297
100
AcDbEntity
  8
0
100
AcDbPolyline
 62
7
  6
CONTINUOUS
 90
3
 70
0
 10
-8.8640905123
 20
16.955157714
 10
-8.875370517
 20
16.7865739197
 10
-8.8891150931
 20
16.6476415748
  0
LWPOLYLINE
  5
298
100
AcDbEntity
  8
0
100
AcDbPolyline
 62
7
  6
CONTINUOUS
 90
10
 70
0
 10
-9.1999555172
 20
26.8362207233
 10
-9.1923562483
 20
26.9220854378
 10
-9.1700532652
 20
27.0054673834
 10
-9.1338238773
 20
27.0841234002
 10
-9.084193559
 20
27.1560735808
 10
-9.0222378377
 20
27.2184178106
 10
-8.9507038252
 20
27.2684443101
 10
-8.8725123276
 20
27.3051102262
 10
-8.7896470126
 20
27.327935482
 10
-8.7043354458
 20
27.3361949629
  0
LINE
  5
299
100
AcDbEntity
  8
0
100
AcDbLine
 62
7
  6
CONTINUOUS
 10
-8.9242242006
 20
16.6476415855
 11
-8.9404276435
 21
16.5428126788
  0
LINE
  5
29A
100
AcDbEntity
  8
0
100
AcDbLine
 62
7
  6
CONTINUOUS
 10
-8.8891150931
 20
16.6476415748
 11
-8.9053242407
 21
16.5428126788
  0
LWPOLYLINE
  5
29B
100
AcDbEntity
  8
0
100
AcDbPolyline
 62
7
  6
CONTINUOUS
 90
3
 70
0
 43
0.3500000006
 10
1.035714268
 20
43.2857148743
 10
0.9642857051
 20
43.0714303894
 10
0.8214285793
 20
42.7857147217
  0
LWPOLYLINE
  5
29C
100
AcDbEntity
  8
0
100
AcDbPolyline
 62
250
  6
CONTINUOUS
 90
10
 70
0
 10
7.7346461984
 20
-8.7457069399
 10
7.6739646556
 20
-8.752641582
 10
7.5954083513
 20
-8.7592726328
 10
7.5003353984
 20
-8.7655090351
 10
7.3899314577
 20
-8.7712675547
 10
7.2657404148
 20
-8.7764454245
 10
7.1301303414
 20
-8.7809461331
 10
6.9854502678
 20
-8.7847138523
 10
6.833568084
 20
-8.7877078403
 10
6.6765203767
 20
-8.7898806915
  0
LINE
  5
29D
100
AcDbEntity
  8
0
100
AcDbLine
 62
7
  6
CONTINUOUS
 10
9.1487670579
 20
-13.1323686288
 11
9.0939792028
 21
-13.1323686288
  0
LINE
  5
29E
100
AcDbEntity
  8
0
100
AcDbLine
 62
7
  6
CONTINUOUS
 10
9.0080565456
 20
-10.2009677383
 11
8.9378773196
 21
-10.2009677383
  0
LINE
  5
29F
100
AcDbEntity
  8
0
100
AcDbLine
 62
7
  6
CONTINUOUS
 10
9.2183389131
 20
-10.2009677383
 11
9.1483074422
 21
-10.2009677383
  0
LWPOLYLINE
  5
2A0
100
AcDbEntity
  8
0
100
AcDbPolyline
 62
250
  6
CONTINUOUS
 90
10
 70
0
 10
-7.7346461984
 20
-8.7457069399
 10
-7.6739646556
 20
-8.752641582
 10
-7.5954083513
 20
-8.7592726328
 10
-7.5003353984
 20
-8.7655090351
 10
-7.3899314577
 20
-8.7712675547
 10
-7.2657404148
 20
-8.7764454245
 10
-7.1301303414
 20
-8.7809461331
 10
-6.9854502678
 20
-8.7847138523
 10
-6.833568084
 20
-8.7877078403
 10
-6.6765203767
 20
-8.7898806915
  0
LWPOLYLINE
  5
2A1
100
AcDbEntity
  8
0
100
AcDbPolyline
 62
250
  6
CONTINUOUS
 90
8
 70
0
 10
-8.3981092624
 20
-9.8228909658
 10
-8.3971007333
 20
-9.8241721677
 10
-8.3952698726
 20
-9.8254964994
 10
-8.3926176139
 20
-9.8268628029
 10
-8.3891479399
 20
-9.8282690668
 10
-8.3848649516
 20
-9.8297139654
 10
-8.3797705768
 20
-9.8311969743
 10
-8.3738675928
 20
-9.8327171865
  0
LINE
  5
2A2
100
AcDbEntity
  8
0
100
AcDbLine
 62
250
  6
CONTINUOUS
 10
-8.3983222871
 20
-9.8218717745
 11
-8.3981092624
 21
-9.8228909658
  0
LWPOLYLINE
  5
2A3
100
AcDbEntity
  8
0
100
AcDbPolyline
 62
250
  6
CONTINUOUS
 90
10
 70
0
 10
-9.6610335195
 20
-19.2630186564
 10
-9.5044760888
 20
-20.0252029853
 10
-9.3054444696
 20
-20.8090654155
 10
-9.0722298324
 20
-21.6037391372
 10
-8.8116840002
 20
-22.401154792
 10
-8.524890281
 20
-23.2060432764
 10
-8.2053827843
 20
-24.0374827561
 10
-7.8497942098
 20
-24.899215024
 10
-7.460195471
 20
-25.7785135016
 10
-7.0356481324
 20
-26.66592522
  0
LWPOLYLINE
  5
2A4
100
AcDbEntity
  8
0
100
AcDbPolyline
 62
250
  6
CONTINUOUS
 90
10
 70
0
 10
-8.3561254324
 20
-8.9580191227
 10
-8.3568274864
 20
-8.9545549597
 10
-8.3575883904
 20
-8.951099056
 10
-8.3584049615
 20
-8.9476504929
 10
-8.3592741365
 20
-8.9442080505
 10
-8.360192946
 20
-8.9407711916
 10
-8.3611625547
 20
-8.937340917
 10
-8.3621882551
 20
-8.9339184392
 10
-8.3632755898
 20
-8.9305043606
 10
-8.3644299258
 20
-8.9270995842
  0
LWPOLYLINE
  5
2A5
100
AcDbEntity
  8
0
100
AcDbPolyline
 62
250
  6
CONTINUOUS
 90
10
 70
0
 10
-10.027188537
 20
-21.1621198776
 10
-9.8686059898
 20
-22.0833698618
 10
-9.6684508945
 20
-23.0273971451
 10
-9.4321142696
 20
-23.987195652
 10
-9.1606114105
 20
-24.965419853
 10
-8.8554333037
 20
-25.9568856437
 10
-8.520453831
 20
-26.9458566464
 10
-8.1561327558
 20
-27.925558787
 10
-7.7570055669
 20
-28.8983897049
 10
-7.3201644054
 20
-29.8527179837
  0
LWPOLYLINE
  5
2A6
100
AcDbEntity
  8
0
100
AcDbPolyline
 62
7
  6
CONTINUOUS
 90
10
 70
0
 10
-10.2248231282
 20
-22.1814858659
 10
-10.0898097798
 20
-23.0569596622
 10
-9.9256855738
 20
-23.9170745923
 10
-9.7282101495
 20
-24.7848083986
 10
-9.4868688989
 20
-25.6906921301
 10
-9.2004536927
 20
-26.6212973303
 10
-8.8856816994
 20
-27.519462759
 10
-8.5492169063
 20
-28.3754904658
 10
-8.1787750988
 20
-29.22462203
 10
-7.7623590873
 20
-30.0879445366
  0
LWPOLYLINE
  5
2A7
100
AcDbEntity
  8
0
100
AcDbPolyline
 62
7
  6
CONTINUOUS
 90
5
 70
0
 10
-8.8926918605
 20
18.7207181195
 10
-8.8787494775
 20
18.588053442
 10
-8.8660798778
 20
18.4251816848
 10
-8.8562202083
 20
18.236664653
 10
-8.8494996846
 20
18.0277285879
  0
LWPOLYLINE
  5
2A8
100
AcDbEntity
  8
0
100
AcDbPolyline
 62
250
  6
CONTINUOUS
 90
9
 70
0
 10
-6.0450254954
 20
-27.5459015524
 10
-6.0514213878
 20
-27.4824528383
 10
-6.0574591239
 20
-27.4191348113
 10
-6.0631387195
 20
-27.3559476335
 10
-6.0684825308
 20
-27.2928869715
 10
-6.0734682298
 20
-27.2299574717
 10
-6.0780288074
 20
-27.1671727548
 10
-6.0821419372
 20
-27.1045374495
 10
-6.0858299732
 20
-27.0420471984
  0
LINE
  5
2A9
100
AcDbEntity
  8
0
100
AcDbLine
 62
250
  6
CONTINUOUS
 10
-7.0135460615
 20
-27.415323699
 11
-7.0189403131
 21
-27.3380948196
  0
LINE
  5
2AA
100
AcDbEntity
  8
0
100
AcDbLine
 62
250
  6
CONTINUOUS
 10
-7.0189403131
 20
-27.3380948196
 11
-7.0219484365
 21
-27.2908933082
  0
LINE
  5
2AB
100
AcDbEntity
  8
0
100
AcDbLine
 62
250
  6
CONTINUOUS
 10
-7.0219484365
 20
-27.2908933082
 11
-7.0241774908
 21
-27.2532242452
  0
LINE
  5
2AC
100
AcDbEntity
  8
0
100
AcDbLine
 62
250
  6
CONTINUOUS
 10
-7.0241774908
 20
-27.2532242452
 11
-7.0268922175
 21
-27.2026382676
  0
LINE
  5
2AD
100
AcDbEntity
  8
0
100
AcDbLine
 62
250
  6
CONTINUOUS
 10
-7.2342532532
 20
-22.308816509
 11
-7.4255152035
 21
-18.68395991
  0
LWPOLYLINE
  5
2AE
100
AcDbEntity
  8
0
100
AcDbPolyline
 62
250
  6
CONTINUOUS
 90
9
 70
0
 10
-7.4255152035
 20
-18.68395991
 10
-7.4876588239
 20
-17.4678940076
 10
-7.5461309316
 20
-16.2492602497
 10
-7.6004237216
 20
-15.036733337
 10
-7.6479697149
 20
-13.8253721282
 10
-7.6851670156
 20
-12.5938759352
 10
-7.7112650677
 20
-11.3333567512
 10
-7.7275159454
 20
-10.050864253
 10
-7.7346461982
 20
-8.7457068965
  0
LINE
  5
2AF
100
AcDbEntity
  8
0
100
AcDbLine
 62
250
  6
CONTINUOUS
 10
-7.1753217263
 20
-23.4701756036
 11
-7.2342532532
 21
-22.308816509
  0
LWPOLYLINE
  5
2B0
100
AcDbEntity
  8
0
100
AcDbPolyline
 62
250
  6
CONTINUOUS
 90
9
 70
0
 10
-6.0858299732
 20
-27.0420471984
 10
-6.1831087887
 20
-25.0510872238
 10
-6.2743771593
 20
-23.0901415424
 10
-6.3628996126
 20
-21.0987502381
 10
-6.4546061495
 20
-19.0729286247
 10
-6.5435672205
 20
-17.0206935217
 10
-6.6120071372
 20
-14.9622131964
 10
-6.65401178
 20
-12.905766185
 10
-6.6755150049
 20
-10.8475939812
  0
LINE
  5
2B1
100
AcDbEntity
  8
0
100
AcDbLine
 62
250
  6
CONTINUOUS
 10
-7.1272323227
 20
-24.481395771
 11
-7.1753217263
 21
-23.4701756036
  0
LINE
  5
2B2
100
AcDbEntity
  8
0
100
AcDbLine
 62
250
  6
CONTINUOUS
 10
-7.0268922175
 20
-27.2026382676
 11
-7.0292551052
 21
-27.1524396992
  0
LINE
  5
2B3
100
AcDbEntity
  8
0
100
AcDbLine
 62
250
  6
CONTINUOUS
 10
-7.0766937317
 20
-25.6242805862
 11
-7.1272323227
 21
-24.481395771
  0
LINE
  5
2B4
100
AcDbEntity
  8
0
100
AcDbLine
 62
250
  6
CONTINUOUS
 10
-7.0621247475
 20
-25.974764808
 11
-7.0766937317
 21
-25.6242805862
  0
LWPOLYLINE
  5
2B5
100
AcDbEntity
  8
0
100
AcDbPolyline
 62
250
  6
CONTINUOUS
 90
10
 70
0
 10
-6.0452169471
 20
-27.5458807762
 10
-6.0233490451
 20
-28.0962906294
 10
-6.0132791046
 20
-28.6075485194
 10
-6.0154303308
 20
-29.0739257795
 10
-6.0313262867
 20
-29.488582141
 10
-6.0599176694
 20
-29.8463052502
 10
-6.0983679038
 20
-30.1397771632
 10
-6.1444203461
 20
-30.3647346041
 10
-6.1979111999
 20
-30.5164884327
 10
-6.2571567535
 20
-30.5911406409
  0
LINE
  5
2B6
100
AcDbEntity
  8
0
100
AcDbLine
 62
250
  6
CONTINUOUS
 10
-7.0558222006
 20
-26.1305320166
 11
-7.0621247475
 21
-25.974764808
  0
LINE
  5
2B7
100
AcDbEntity
  8
0
100
AcDbLine
 62
250
  6
CONTINUOUS
 10
-7.0292551052
 20
-27.1524396992
 11
-7.0312519637
 21
-27.1026390894
  0
LWPOLYLINE
  5
2B8
100
AcDbEntity
  8
0
100
AcDbPolyline
 62
250
  6
CONTINUOUS
 90
3
 70
0
 10
-7.0356481324
 20
-26.66592522
 10
-7.0379239335
 20
-26.5999105297
 10
-7.0558222006
 20
-26.1305320166
  0
LINE
  5
2B9
100
AcDbEntity
  8
0
100
AcDbLine
 62
7
  6
CONTINUOUS
 10
-9.1999043393
 20
5.3204287817
 11
-9.1999937802
 21
5.3231719809
  0
LINE
  5
2BA
100
AcDbEntity
  8
0
100
AcDbLine
 62
7
  6
CONTINUOUS
 10
-9.269904402
 20
5.3204287876
 11
-9.2699937802
 21
5.3231719827
  0
LINE
  5
2BB
100
AcDbEntity
  8
0
100
AcDbLine
 62
250
  6
CONTINUOUS
 10
-7.0312519637
 20
-27.1026390894
 11
-7.0328821109
 21
-27.0532346109
  0
LINE
  5
2BC
100
AcDbEntity
  8
0
100
AcDbLine
 62
7
  6
CONTINUOUS
 10
-9.2563855011
 20
4.8216085051
 11
-9.269904402
 21
5.3204287876
  0
LINE
  5
2BD
100
AcDbEntity
  8
0
100
AcDbLine
 62
7
  6
CONTINUOUS
 10
-9.1863759718
 20
4.8216084172
 11
-9.1999043393
 21
5.3204287817
  0
LINE
  5
2BE
100
AcDbEntity
  8
0
100
AcDbLine
 62
250
  6
CONTINUOUS
 10
-7.0328821109
 20
-27.0532346109
 11
-7.0342448805
 21
-27.0006390712
  0
LINE
  5
2BF
100
AcDbEntity
  8
0
100
AcDbLine
 62
7
  6
CONTINUOUS
 10
-9.2555131587
 20
-0.7420549264
 11
-9.263779847
 21
-0.4053259507
  0
LINE
  5
2C0
100
AcDbEntity
  8
0
100
AcDbLine
 62
7
  6
CONTINUOUS
 10
-9.1855030209
 20
-0.7420549236
 11
-9.1937754969
 21
-0.4053259507
  0
LINE
  5
2C1
100
AcDbEntity
  8
0
100
AcDbLine
 62
7
  6
CONTINUOUS
 10
-9.2487415804
 20
4.4815455501
 11
-9.2563855011
 21
4.8216085051
  0
LINE
  5
2C2
100
AcDbEntity
  8
0
100
AcDbLine
 62
7
  6
CONTINUOUS
 10
-9.1787266985
 20
4.4815454717
 11
-9.1863759718
 21
4.8216084172
  0
LINE
  5
2C3
100
AcDbEntity
  8
0
100
AcDbLine
 62
7
  6
CONTINUOUS
 10
-9.2509237746
 20
-0.960217
 11
-9.2555131587
 21
-0.7420549264
  0
LINE
  5
2C4
100
AcDbEntity
  8
0
100
AcDbLine
 62
7
  6
CONTINUOUS
 10
-9.180910423
 20
-0.960217
 11
-9.1855030209
 21
-0.7420549236
  0
LWPOLYLINE
  5
2C5
100
AcDbEntity
  8
0
100
AcDbPolyline
 62
7
  6
CONTINUOUS
 90
4
 70
0
 10
-8.8846227499
 20
18.0277287946
 10
-8.880713531
 20
17.8058573245
 10
-8.8801625589
 20
17.5800126475
 10
-8.8834511162
 20
17.3584052829
  0
LWPOLYLINE
  5
2C6
100
AcDbEntity
  8
0
100
AcDbPolyline
 62
7
  6
CONTINUOUS
 90
4
 70
0
 10
-8.8494996846
 20
18.0277285879
 10
-8.8455890911
 20
17.8058570907
 10
-8.8450379271
 20
17.5800124142
 10
-8.8483276453
 20
17.358405095
  0
LWPOLYLINE
  5
2C7
100
AcDbEntity
  8
0
100
AcDbPolyline
 62
250
  6
CONTINUOUS
 90
6
 70
0
 10
-7.0342448805
 20
-27.0006390712
 10
-7.0351586303
 20
-26.9485587033
 10
-7.0354500188
 20
-26.9227078624
 10
-7.0355952309
 20
-26.8970149479
 10
-7.0355842209
 20
-26.8714877241
 10
-7.0354291159
 20
-26.8461132836
  0
LINE
  5
2C8
100
AcDbEntity
  8
0
100
AcDbLine
 62
7
  6
CONTINUOUS
 10
-9.2337228298
 20
3.6021985648
 11
-9.2400000849
 21
4.0162069366
  0
LINE
  5
2C9
100
AcDbEntity
  8
0
100
AcDbLine
 62
7
  6
CONTINUOUS
 10
-9.2400000849
 20
4.0162069366
 11
-9.2487415804
 21
4.4815455501
  0
LINE
  5
2CA
100
AcDbEntity
  8
0
100
AcDbLine
 62
7
  6
CONTINUOUS
 10
-9.1636974303
 20
3.6021985188
 11
-9.1699951915
 21
4.0172686568
  0
LINE
  5
2CB
100
AcDbEntity
  8
0
100
AcDbLine
 62
7
  6
CONTINUOUS
 10
-9.1699951915
 20
4.0172686568
 11
-9.1787266985
 21
4.4815454717
  0
LINE
  5
2CC
100
AcDbEntity
  8
0
100
AcDbLine
 62
250
  6
CONTINUOUS
 10
-7.0353163347
 20
-26.6625115989
 11
-7.034917486
 21
-26.6941684946
  0
LINE
  5
2CD
100
AcDbEntity
  8
0
100
AcDbLine
 62
7
  6
CONTINUOUS
 10
-9.2288315624
 20
3.1010288061
 11
-9.2337228298
 21
3.6021985648
  0
LINE
  5
2CE
100
AcDbEntity
  8
0
100
AcDbLine
 62
7
  6
CONTINUOUS
 10
-9.1588027373
 20
3.1010287364
 11
-9.1636974303
 21
3.6021985188
  0
LINE
  5
2CF
100
AcDbEntity
  8
0
100
AcDbLine
 62
250
  6
CONTINUOUS
 10
-7.034917486
 20
-26.6941684946
 11
-7.034694793
 21
-26.7255843925
  0
LINE
  5
2D0
100
AcDbEntity
  8
0
100
AcDbLine
 62
7
  6
CONTINUOUS
 10
-9.2262464997
 20
2.5607690072
 11
-9.2288315624
 21
3.1010288061
  0
LINE
  5
2D1
100
AcDbEntity
  8
0
100
AcDbLine
 62
7
  6
CONTINUOUS
 10
-9.1562158637
 20
2.5607688997
 11
-9.1588027373
 21
3.1010287364
  0
LWPOLYLINE
  5
2D2
100
AcDbEntity
  8
0
100
AcDbPolyline
 62
250
  6
CONTINUOUS
 90
8
 70
0
 10
-8.7995741254
 20
-7.7546194556
 10
-8.7979437149
 20
-8.618317418
 10
-8.7921741394
 20
-9.4809579843
 10
-8.7822804936
 20
-10.3425212402
 10
-8.768284558
 20
-11.2026333238
 10
-8.7501983541
 20
-12.0616287761
 10
-8.7280072205
 20
-12.9205501819
 10
-8.7205929943
 20
-13.1626921686
  0
LINE
  5
2D3
100
AcDbEntity
  8
0
100
AcDbLine
 62
250
  6
CONTINUOUS
 10
-6.6755150049
 20
-10.8475939812
 11
-6.6765203765
 21
-8.789880648
  0
LINE
  5
2D4
100
AcDbEntity
  8
0
100
AcDbLine
 62
7
  6
CONTINUOUS
 10
-9.2310688027
 20
18.90008
 11
-9.2310688026
 21
14.8999
  0
LINE
  5
2D5
100
AcDbEntity
  8
0
100
AcDbLine
 62
7
  6
CONTINUOUS
 10
-9.1999937804
 20
26.8362204556
 11
-9.1999937803
 21
18.90008
  0
LINE
  5
2D6
100
AcDbEntity
  8
0
100
AcDbLine
 62
7
  6
CONTINUOUS
 10
-9.1999937803
 20
14.89991
 11
-9.1999937802
 21
5.3235734151
  0
LINE
  5
2D7
100
AcDbEntity
  8
0
100
AcDbLine
 62
7
  6
CONTINUOUS
 10
-9.1999937801
 20
-1.309553
 11
-9.1999937801
 21
-7.7546194464
  0
LINE
  5
2D8
100
AcDbEntity
  8
0
100
AcDbLine
 62
7
  6
CONTINUOUS
 10
-9.0933482362
 20
18.90009
 11
-9.0933482361
 21
14.89991
  0
LINE
  5
2D9
100
AcDbEntity
  8
0
100
AcDbLine
 62
7
  6
CONTINUOUS
 10
-9.0481901958
 20
18.16006
 11
-9.0481895839
 21
17.18664
  0
LINE
  5
2DA
100
AcDbEntity
  8
0
100
AcDbLine
 62
7
  6
CONTINUOUS
 10
-9.0475084343
 20
16.44661
 11
-9.0475139521
 21
14.89991
  0
LINE
  5
2DB
100
AcDbEntity
  8
0
100
AcDbLine
 62
7
  6
CONTINUOUS
 10
-9.0131246922
 20
18.16006
 11
-9.01312408
 21
17.18664
  0
LINE
  5
2DC
100
AcDbEntity
  8
0
100
AcDbLine
 62
7
  6
CONTINUOUS
 10
-9.0124426911
 20
16.44661
 11
-9.0124482109
 21
14.89991
  0
LINE
  5
2DD
100
AcDbEntity
  8
0
100
AcDbLine
 62
250
  6
CONTINUOUS
 10
-8.79984156
 20
-7.7546194556
 11
-8.7998415603
 21
26.8450474525
  0
LINE
  5
2DE
100
AcDbEntity
  8
0
100
AcDbLine
 62
7
  6
CONTINUOUS
 10
-7.8476028954
 20
27.4
 11
-7.8476028954
 21
27.3439121117
  0
LINE
  5
2DF
100
AcDbEntity
  8
0
100
AcDbLine
 62
250
  6
CONTINUOUS
 10
-7.7128009198
 20
-6.1500000004
 11
-7.7128009203
 21
26.8492267697
  0
LINE
  5
2E0
100
AcDbEntity
  8
0
100
AcDbLine
 62
7
  6
CONTINUOUS
 10
-7.6189318375
 20
27.4
 11
-7.6189318375
 21
27.3047935427
  0
LINE
  5
2E1
100
AcDbEntity
  8
0
100
AcDbLine
 62
7
  6
CONTINUOUS
 10
-6.0
 20
-31.0656174905
 11
-6.0
 21
-31.95
  0
LINE
  5
2E2
100
AcDbEntity
  8
0
100
AcDbLine
 62
7
  6
CONTINUOUS
 10
-5.1
 20
-32.9
 11
-5.1
 21
-33.45
  0
LINE
  5
2E3
100
AcDbEntity
  8
0
100
AcDbLine
 62
7
  6
CONTINUOUS
 10
-9.2264016895
 20
2.0309782629
 11
-9.2262464997
 21
2.5607690072
  0
LINE
  5
2E4
100
AcDbEntity
  8
0
100
AcDbLine
 62
7
  6
CONTINUOUS
 10
-9.1563711622
 20
2.0309781318
 11
-9.1562158637
 21
2.5607688997
  0
LINE
  5
2E5
100
AcDbEntity
  8
0
100
AcDbLine
 62
250
  6
CONTINUOUS
 10
-7.034694793
 20
-26.7255843925
 11
-7.0346504392
 21
-26.7567668632
  0
LINE
  5
2E6
100
AcDbEntity
  8
0
100
AcDbLine
 62
250
  6
CONTINUOUS
 10
-8.3320967442
 20
-6.1500039367
 11
-8.3337284002
 21
-7.7562873466
  0
LWPOLYLINE
  5
2E7
100
AcDbEntity
  8
0
100
AcDbPolyline
 62
250
  6
CONTINUOUS
 90
10
 70
0
 10
-6.6470380433
 20
-6.1500000004
 10
-6.6467817704
 20
26.9420427313
 10
-6.6445218622
 20
27.0265327389
 10
-6.6403269016
 20
27.1058416037
 10
-6.6343426584
 20
27.1775491989
 10
-6.6267400936
 20
27.2394722519
 10
-6.6177095318
 20
27.2897287633
 10
-6.60751405
 20
27.3267895893
 10
-6.5964810531
 20
27.3495268746
 10
-6.5849473211
 20
27.357251245
  0
LINE
  5
2E8
100
AcDbEntity
  8
0
100
AcDbLine
 62
250
  6
CONTINUOUS
 10
-8.3394216995
 20
-8.7456152296
 11
-8.3369416903
 21
-7.7562916861
  0
LWPOLYLINE
  5
2E9
100
AcDbEntity
  8
0
100
AcDbPolyline
 62
250
  6
CONTINUOUS
 90
3
 70
0
 10
-7.7326115424
 20
-8.2125549903
 10
-7.7335572183
 20
-8.5065504248
 10
-7.7346461984
 20
-8.7457069399
  0
LWPOLYLINE
  5
2EA
100
AcDbEntity
  8
0
100
AcDbPolyline
 62
250
  6
CONTINUOUS
 90
3
 70
0
 10
-7.7128064309
 20
-6.1500000004
 10
-7.7287123283
 20
-7.7530643015
 10
-7.7326115424
 20
-8.2125549903
  0
LWPOLYLINE
  5
2EB
100
AcDbEntity
  8
0
100
AcDbPolyline
 62
7
  6
CONTINUOUS
 90
3
 70
0
 10
-9.2350848297
 20
1.0044750448
 10
-9.2295381287
 20
1.5124921266
 10
-9.2264016895
 20
2.0309782629
  0
LWPOLYLINE
  5
2EC
100
AcDbEntity
  8
0
100
AcDbPolyline
 62
7
  6
CONTINUOUS
 90
3
 70
0
 10
-9.1650603867
 20
1.004474934
 10
-9.1595097993
 20
1.5124919985
 10
-9.1563711622
 20
2.0309781318
  0
LINE
  5
2ED
100
AcDbEntity
  8
0
100
AcDbLine
 62
250
  6
CONTINUOUS
 10
-6.6765203765
 20
-8.789880648
 11
-6.647023746
 21
-6.1500000004
  0
LINE
  5
2EE
100
AcDbEntity
  8
0
100
AcDbLine
 62
250
  6
CONTINUOUS
 10
-7.0354291159
 20
-26.8461132836
 11
-7.0349396151
 21
-26.8054048647
  0
LINE
  5
2EF
100
AcDbEntity
  8
0
100
AcDbLine
 62
7
  6
CONTINUOUS
 10
-9.2419983118
 20
0.5539794527
 11
-9.2350848297
 21
1.0044750448
  0
LINE
  5
2F0
100
AcDbEntity
  8
0
100
AcDbLine
 62
7
  6
CONTINUOUS
 10
-9.1719787111
 20
0.5539793643
 11
-9.1650603867
 21
1.004474934
  0
LWPOLYLINE
  5
2F1
100
AcDbEntity
  8
0
100
AcDbPolyline
 62
250
  6
CONTINUOUS
 90
3
 70
0
 10
-7.0349396151
 20
-26.8054048647
 10
-7.0345359809
 20
-26.78232428
 10
-7.0343561455
 20
-26.7746826502
  0
LINE
  5
2F2
100
AcDbEntity
  8
0
100
AcDbLine
 62
7
  6
CONTINUOUS
 10
-9.2495314302
 20
0.1766894953
 11
-9.2419983118
 21
0.5539794527
  0
LINE
  5
2F3
100
AcDbEntity
  8
0
100
AcDbLine
 62
7
  6
CONTINUOUS
 10
-9.1795171043
 20
0.1766894312
 11
-9.1719787111
 21
0.5539793643
  0
LINE
  5
2F4
100
AcDbEntity
  8
0
100
AcDbLine
 62
250
  6
CONTINUOUS
 10
-8.3380246476
 20
-8.7456481242
 11
-8.3406732784
 21
-8.8776899699
  0
LINE
  5
2F5
100
AcDbEntity
  8
0
100
AcDbLine
 62
7
  6
CONTINUOUS
 10
-9.1870911348
 20
-0.1430790071
 11
-9.1795171043
 21
0.1766894312
  0
LINE
  5
2F6
100
AcDbEntity
  8
0
100
AcDbLine
 62
7
  6
CONTINUOUS
 10
-9.263779847
 20
-0.4053259507
 11
-9.2495314302
 21
0.1766894953
  0
LINE
  5
2F7
100
AcDbEntity
  8
0
100
AcDbLine
 62
7
  6
CONTINUOUS
 10
-9.1937754969
 20
-0.4053259507
 11
-9.1870911348
 21
-0.1430790071
  0
LINE
  5
2F8
100
AcDbEntity
  8
0
100
AcDbLine
 62
250
  6
CONTINUOUS
 10
-8.3406732784
 20
-8.8776899699
 11
-8.3471627239
 21
-9.1302976962
  0
LWPOLYLINE
  5
2F9
100
AcDbEntity
  8
0
100
AcDbPolyline
 62
7
  6
CONTINUOUS
 90
3
 70
0
 10
-8.8834511162
 20
17.3584052829
 10
-8.8900979203
 20
17.147860625
 10
-8.8992084293
 20
16.9551577804
  0
LWPOLYLINE
  5
2FA
100
AcDbEntity
  8
0
100
AcDbPolyline
 62
7
  6
CONTINUOUS
 90
3
 70
0
 10
-8.8483276453
 20
17.358405095
 10
-8.8549767931
 20
17.1478605037
 10
-8.8640905123
 20
16.955157714
  0
LWPOLYLINE
  5
2FB
100
AcDbEntity
  8
0
100
AcDbPolyline
 62
250
  6
CONTINUOUS
 90
3
 70
0
 10
-7.0343561455
 20
-26.7746826502
 10
-7.0338966776
 20
-26.7595082883
 10
-7.0336211769
 20
-26.7519722852
  0
LINE
  5
2FC
100
AcDbEntity
  8
0
100
AcDbLine
 62
250
  6
CONTINUOUS
 10
-8.3471627239
 20
-9.1302976962
 11
-8.3547425843
 21
-9.3648972895
  0
LINE
  5
2FD
100
AcDbEntity
  8
0
100
AcDbLine
 62
250
  6
CONTINUOUS
 10
-8.4305018414
 20
-10.3162106664
 11
-8.4174503091
 21
-9.985755678
  0
LINE
  5
2FE
100
AcDbEntity
  8
0
100
AcDbLine
 62
250
  6
CONTINUOUS
 10
-8.3547425843
 20
-9.3648972895
 11
-8.3636226868
 21
-9.5976708128
  0
LINE
  5
2FF
100
AcDbEntity
  8
0
100
AcDbLine
 62
250
  6
CONTINUOUS
 10
-8.4174503091
 20
-9.985755678
 11
-8.4055002546
 21
-9.7092593149
  0
LINE
  5
300
100
AcDbEntity
  8
0
100
AcDbLine
 62
250
  6
CONTINUOUS
 10
-8.3636226868
 20
-9.5976708128
 11
-8.3738675967
 21
-9.832717271
  0
LINE
  5
301
100
AcDbEntity
  8
0
100
AcDbLine
 62
250
  6
CONTINUOUS
 10
-8.4055002546
 20
-9.7092593149
 11
-8.3925487136
 21
-9.4408800237
  0
LINE
  5
302
100
AcDbEntity
  8
0
100
AcDbLine
 62
250
  6
CONTINUOUS
 10
-8.3857759697
 20
-9.5760575709
 11
-8.3607747594
 21
-9.0507693062
  0
LINE
  5
303
100
AcDbEntity
  8
0
100
AcDbLine
 62
7
  6
CONTINUOUS
 10
-8.3857759697
 20
-9.5760575709
 11
-8.3947474504
 21
-9.7551322035
  0
LWPOLYLINE
  5
304
100
AcDbEntity
  8
0
100
AcDbPolyline
 62
250
  6
CONTINUOUS
 90
3
 70
0
 10
-8.3925487136
 20
-9.4408800237
 10
-8.3788631784
 20
-9.1801598292
 10
-8.3644299251
 20
-8.9270995747
  0
LINE
  5
305
100
AcDbEntity
  8
0
100
AcDbLine
 62
250
  6
CONTINUOUS
 10
-8.3607747594
 20
-9.0507693062
 11
-8.3542610618
 21
-8.9226408111
  0
LWPOLYLINE
  5
306
100
AcDbEntity
  8
0
100
AcDbPolyline
 62
7
  6
CONTINUOUS
 90
6
 70
0
 10
-8.3947474504
 20
-9.7551322035
 10
-8.4097451417
 20
-10.021248216
 10
-8.4540786667
 20
-10.6512484253
 10
-8.5123754898
 20
-11.3254907244
 10
-8.5857157707
 20
-12.0453117053
 10
-8.6736868632
 20
-12.8011554183
  0
LINE
  5
307
100
AcDbEntity
  8
0
100
AcDbLine
 62
250
  6
CONTINUOUS
 10
-8.3542610618
 20
-8.9226408111
 11
-8.3514089312
 21
-8.8729160899
  0
LWPOLYLINE
  5
308
100
AcDbEntity
  8
0
100
AcDbPolyline
 62
250
  6
CONTINUOUS
 90
4
 70
0
 10
-8.3738675967
 20
-9.832717271
 10
-8.4453709147
 20
-10.9439595685
 10
-8.5461167908
 20
-12.075433215
 10
-8.6720158465
 20
-13.2137335752
  0
LWPOLYLINE
  5
309
100
AcDbEntity
  8
0
100
AcDbPolyline
 62
250
  6
CONTINUOUS
 90
6
 70
0
 10
-8.3514089312
 20
-8.8729160899
 10
-8.3485512695
 20
-8.8278487725
 10
-8.3472943098
 20
-8.8132753192
 10
-8.3455988178
 20
-8.7983996606
 10
-8.3435010238
 20
-8.7834179814
 10
-8.3409370242
 20
-8.7683299304
  0
LWPOLYLINE
  5
30A
100
AcDbEntity
  8
0
100
AcDbPolyline
 62
250
  6
CONTINUOUS
 90
4
 70
0
 10
-8.3644299251
 20
-8.9270995747
 10
-8.3626864102
 20
-8.9034691658
 10
-8.3608609125
 20
-8.8807207207
 10
-8.3571897717
 20
-8.8378905289
  0
LWPOLYLINE
  5
30B
100
AcDbEntity
  8
0
100
AcDbPolyline
 62
250
  6
CONTINUOUS
 90
6
 70
0
 10
-8.3571897717
 20
-8.8378905289
 10
-8.3553447491
 20
-8.8178087866
 10
-8.3527290612
 20
-8.7985466232
 10
-8.349100414
 20
-8.7800832427
 10
-8.3446712987
 20
-8.7624394443
 10
-8.3394216995
 20
-8.7456152296
  0
LINE
  5
30C
100
AcDbEntity
  8
0
100
AcDbLine
 62
7
  6
CONTINUOUS
 10
-8.6736868632
 20
-12.8011554183
 11
-8.7738555987
 21
-13.5732224865
  0
LWPOLYLINE
  5
30D
100
AcDbEntity
  8
0
100
AcDbPolyline
 62
250
  6
CONTINUOUS
 90
7
 70
0
 10
-8.6720158465
 20
-13.2137335752
 10
-8.8211238706
 20
-14.3477101026
 10
-8.9876300058
 20
-15.4543737258
 10
-9.160635408
 20
-16.509141429
 10
-9.3327598639
 20
-17.5011889723
 10
-9.5010360287
 20
-18.4229016503
 10
-9.7092008073
 20
-19.5173057577
  0
LWPOLYLINE
  5
30E
100
AcDbEntity
  8
0
100
AcDbPolyline
 62
7
  6
CONTINUOUS
 90
10
 70
0
 10
-8.7738555987
 20
-13.5732224865
 10
-8.8858754219
 20
-14.3632518293
 10
-9.0070774484
 20
-15.1585326717
 10
-9.1303283466
 20
-15.9222115351
 10
-9.251800998
 20
-16.642323672
 10
-9.3710942754
 20
-17.3260539447
 10
-9.4862267205
 20
-17.9690517811
 10
-9.5956820811
 20
-18.5684040034
 10
-9.6984183143
 20
-19.1227550326
 10
-9.793455826
 20
-19.630300764
  0
LINE
  5
30F
100
AcDbEntity
  8
0
100
AcDbLine
 62
7
  6
CONTINUOUS
 10
-9.793455826
 20
-19.630300764
 11
-9.9573394609
 21
-20.4971285954
  0
LINE
  5
310
100
AcDbEntity
  8
0
100
AcDbLine
 62
7
  6
CONTINUOUS
 10
-9.9573394609
 20
-20.4971285954
 11
-10.2165824968
 21
-21.8612361081
  0
LINE
  5
311
100
AcDbEntity
  8
0
100
AcDbLine
 62
250
  6
CONTINUOUS
 10
-9.7092008073
 20
-19.5173057577
 11
-9.8002638046
 21
-19.99221799
  0
LINE
  5
312
100
AcDbEntity
  8
0
100
AcDbLine
 62
250
  6
CONTINUOUS
 10
-10.0994555019
 20
-21.5335067955
 11
-10.2248231282
 21
-22.1814858659
  0
LINE
  5
313
100
AcDbEntity
  8
0
100
AcDbLine
 62
250
  6
CONTINUOUS
 10
-9.8002638046
 20
-19.99221799
 11
-9.9227282105
 21
-20.6245100132
  0
LINE
  5
314
100
AcDbEntity
  8
0
100
AcDbLine
 62
250
  6
CONTINUOUS
 10
-9.9227282105
 20
-20.6245100132
 11
-10.0994555019
 21
-21.5335067955
  0
LWPOLYLINE
  5
315
100
AcDbEntity
  8
0
100
AcDbPolyline
 62
7
  6
CONTINUOUS
 90
3
 70
0
 10
7.598473586
 20
27.2772433135
 10
7.6007098464
 20
27.2806116758
 10
7.6029192043
 20
27.2839042209
  0
LWPOLYLINE
  5
316
100
AcDbEntity
  8
0
100
AcDbPolyline
 62
7
  6
CONTINUOUS
 90
7
 70
0
 10
7.6029192043
 20
27.2839042209
 10
7.6072340227
 20
27.2902608813
 10
7.6093368199
 20
27.2933239292
 10
7.6114552611
 20
27.2963065029
 10
7.6136036466
 20
27.2992073569
 10
7.6157646187
 20
27.3020269221
 10
7.6179373216
 20
27.3047647212
  0
LINE
  5
317
100
AcDbEntity
  8
0
100
AcDbLine
 62
7
  6
CONTINUOUS
 10
9.1650811008
 20
-8.8440017717
 11
9.2351046906
 21
-8.8440017717
  0
LINE
  5
318
100
AcDbEntity
  8
0
100
AcDbLine
 62
7
  6
CONTINUOUS
 10
9.165912094
 20
-8.6815369027
 11
9.2359353587
 21
-8.6815369027
  0
LINE
  5
319
100
AcDbEntity
  8
0
100
AcDbLine
 62
250
  6
CONTINUOUS
 10
8.3369416903
 20
-7.7562916861
 11
8.7995803205
 21
-7.7562916861
  0
LINE
  5
31A
100
AcDbEntity
  8
0
100
AcDbLine
 62
250
  6
CONTINUOUS
 10
-8.3369416903
 20
-7.7562916861
 11
-8.7995803205
 21
-7.7562916861
  0
LINE
  5
31B
100
AcDbEntity
  8
0
100
AcDbLine
 62
250
  6
CONTINUOUS
 10
-9.1999937799
 20
-7.7546194465
 11
-8.79984156
 21
-7.7546194556
  0
LINE
  5
31C
100
AcDbEntity
  8
0
100
AcDbLine
 62
250
  6
CONTINUOUS
 10
9.2300561067
 20
-7.7546194469
 11
8.835399941
 21
-7.7546194555
  0
LINE
  5
31D
100
AcDbEntity
  8
0
100
AcDbLine
 62
7
  6
CONTINUOUS
 10
6.6470380433
 20
-6.1500000004
 11
-6.6470380433
 21
-6.1500000004
  0
LINE
  5
31E
100
AcDbEntity
  8
0
100
AcDbLine
 62
250
  6
CONTINUOUS
 10
6.6470380428
 20
-6.1500000004
 11
8.3320967442
 21
-6.1500039367
  0
LINE
  5
31F
100
AcDbEntity
  8
0
100
AcDbLine
 62
250
  6
CONTINUOUS
 10
-6.6470380428
 20
-6.1500000004
 11
-8.3320967442
 21
-6.1500039367
  0
LINE
  5
320
100
AcDbEntity
  8
0
100
AcDbLine
 62
7
  6
CONTINUOUS
 10
9.0254635064
 20
-10.2137449826
 11
9.0079951873
 21
-10.2058824996
  0
LWPOLYLINE
  5
321
100
AcDbEntity
  8
0
100
AcDbPolyline
 62
7
  6
CONTINUOUS
 90
3
 70
0
 10
9.1092296529
 20
-14.5310915945
 10
9.1077951433
 20
-14.5303096179
 10
9.1044665229
 20
-14.5160413633
  0
LWPOLYLINE
  5
322
100
AcDbEntity
  8
0
100
AcDbPolyline
 62
7
  6
CONTINUOUS
 90
13
 70
0
 43
0.3500000006
 10
-2.0357142191
 20
43.8571416779
 10
-2.0357142191
 20
45.1428576508
 10
-1.8214286013
 20
45.5714266205
 10
-1.3928570824
 20
46.0000001221
 10
-1.1785713937
 20
46.0000001221
 10
-0.7500000165
 20
45.5714266205
 10
-0.5357142924
 20
45.1428576508
 10
-0.5357142924
 20
43.8571416779
 10
-0.7500000165
 20
43.4285727081
 10
-1.1785713937
 20
42.9999992065
 10
-1.3928570824
 20
42.9999992065
 10
-1.8214286013
 20
43.4285727081
 10
-2.0357142191
 20
43.8571416779
  0
LINE
  5
323
100
AcDbEntity
  8
0
100
AcDbLine
 62
7
  6
CONTINUOUS
 10
-0.0
 20
-34.25
 11
0.0
 21
27.4123971046
  0
LWPOLYLINE
  5
324
100
AcDbEntity
  8
0
100
AcDbPolyline
 62
250
  6
CONTINUOUS
 90
9
 70
0
 10
-7.7621309391
 20
-30.0873505424
 10
-7.76216496
 20
-30.087511038
 10
-7.7621977798
 20
-30.0876479625
 10
-7.7622292824
 20
-30.0877614832
 10
-7.762259347
 20
-30.0878517777
 10
-7.7622878878
 20
-30.0879189542
 10
-7.7623148528
 20
-30.0879630542
 10
-7.7623401686
 20
-30.0879841619
 10
-7.7623854768
 20
-30.087957893
  0
LINE
  5
325
100
AcDbEntity
  8
0
100
AcDbLine
 62
7
  6
CONTINUOUS
 10
6.0511264681
 20
27.359589724
 11
6.065863116
 21
27.4
  0
LINE
  5
326
100
AcDbEntity
  8
0
100
AcDbLine
 62
7
  6
CONTINUOUS
 10
-9.1854214402
 20
-1.309553
 11
-9.2554316352
 21
-1.309553
  0
LINE
  5
327
100
AcDbEntity
  8
0
100
AcDbLine
 62
7
  6
CONTINUOUS
 10
-9.180910423
 20
-0.960217
 11
-9.2509237746
 21
-0.960217
  0
LINE
  5
328
100
AcDbEntity
  8
0
100
AcDbLine
 62
7
  6
CONTINUOUS
 10
-9.1937754969
 20
-0.4053259507
 11
-9.263779847
 21
-0.4053259507
  0
LINE
  5
329
100
AcDbEntity
  8
0
100
AcDbLine
 62
7
  6
CONTINUOUS
 10
8.9963409889
 20
-10.9712451742
 11
9.0136903148
 21
-10.983982178
  0
LWPOLYLINE
  5
32A
100
AcDbEntity
  8
0
100
AcDbPolyline
 62
7
  6
CONTINUOUS
 90
6
 70
0
 10
7.762242974
 20
-30.0878049117
 10
7.762259347
 20
-30.0878517777
 10
7.7622878878
 20
-30.0879189542
 10
7.7623148528
 20
-30.0879630542
 10
7.7623401686
 20
-30.0879841619
 10
7.7623854768
 20
-30.087957893
  0
LINE
  5
32B
100
AcDbEntity
  8
0
100
AcDbLine
 62
250
  6
CONTINUOUS
 10
7.7621309391
 20
-30.0873505424
 11
7.762242974
 21
-30.0878049117
  0
LWPOLYLINE
  5
32C
100
AcDbEntity
  8
0
100
AcDbPolyline
 62
7
  6
CONTINUOUS
 90
2
 70
0
 43
0.3500000006
 10
3.035714241
 20
42.9999992065
 10
3.035714241
 20
44.4999996643
  0
LINE
  5
32D
100
AcDbEntity
  8
0
100
AcDbLine
 62
7
  6
CONTINUOUS
 10
4.050244
 20
27.4
 11
4.050244
 21
27.48
  0
LINE
  5
32E
100
AcDbEntity
  8
0
100
AcDbLine
 62
7
  6
CONTINUOUS
 10
4.067768
 20
27.4
 11
4.067768
 21
27.48
  0
LINE
  5
32F
100
AcDbEntity
  8
0
100
AcDbLine
 62
7
  6
CONTINUOUS
 10
4.4177592666
 20
27.4
 11
4.4177592666
 21
27.48
  0
LINE
  5
330
100
AcDbEntity
  8
0
100
AcDbLine
 62
7
  6
CONTINUOUS
 10
4.583232353
 20
27.4
 11
4.583232353
 21
27.48
  0
LINE
  5
331
100
AcDbEntity
  8
0
100
AcDbLine
 62
7
  6
CONTINUOUS
 10
5.1
 20
-33.45
 11
5.1
 21
-32.9
  0
LINE
  5
332
100
AcDbEntity
  8
0
100
AcDbLine
 62
7
  6
CONTINUOUS
 10
5.467733
 20
27.4
 11
5.467733
 21
27.48
  0
LINE
  5
333
100
AcDbEntity
  8
0
100
AcDbLine
 62
7
  6
CONTINUOUS
 10
5.4911654032
 20
27.4
 11
5.4911654032
 21
27.48
  0
LINE
  5
334
100
AcDbEntity
  8
0
100
AcDbLine
 62
7
  6
CONTINUOUS
 10
-9.1999937351
 20
5.3235749324
 11
-9.2699673053
 21
5.3235749324
  0
LWPOLYLINE
  5
335
100
AcDbEntity
  8
0
100
AcDbPolyline
 62
7
  6
CONTINUOUS
 90
8
 70
0
 10
-8.9758099958
 20
18.9000924052
 10
-8.9585230768
 20
18.8795352699
 10
-8.942519653
 20
18.8190690144
 10
-8.9277997243
 20
18.7207182321
 10
-8.913854809
 20
18.5879843621
 10
-8.9011933889
 20
18.4251408051
 10
-8.8913409093
 20
18.2366648323
 10
-8.8846227499
 20
18.0277287946
  0
LWPOLYLINE
  5
336
100
AcDbEntity
  8
0
100
AcDbPolyline
 62
7
  6
CONTINUOUS
 90
4
 70
0
 10
-8.940618563
 20
18.90009
 10
-8.9233702121
 20
18.8793929599
 10
-8.9073946446
 20
18.8189575257
 10
-8.8926918605
 20
18.7207181195
  0
LINE
  5
337
100
AcDbEntity
  8
0
100
AcDbLine
 62
7
  6
CONTINUOUS
 10
9.2246972594
 20
-10.2137449826
 11
9.2182884067
 21
-10.2048601272
  0
LINE
  5
338
100
AcDbEntity
  8
0
100
AcDbLine
 62
7
  6
CONTINUOUS
 10
9.2066257354
 20
-10.9692588032
 11
9.2128927506
 21
-10.983982178
  0
LINE
  5
339
100
AcDbEntity
  8
0
100
AcDbLine
 62
7
  6
CONTINUOUS
 10
-6.0511264681
 20
27.359589724
 11
-6.065863116
 21
27.4
  0
LWPOLYLINE
  5
33A
100
AcDbEntity
  8
0
100
AcDbPolyline
 62
7
  6
CONTINUOUS
 90
4
 70
0
 10
10.2165446764
 20
-21.8610360183
 10
10.210240083
 20
-21.8303397508
 10
10.1871938135
 20
-21.7446172045
 10
10.1567276317
 20
-21.6614870771
  0
LINE
  5
33B
100
AcDbEntity
  8
0
100
AcDbLine
 62
7
  6
CONTINUOUS
 10
8.5993597822
 20
-12.1688958014
 11
8.5343708322
 21
-11.5529186924
  0
LINE
  5
33C
100
AcDbEntity
  8
0
100
AcDbLine
 62
7
  6
CONTINUOUS
 10
8.5343708322
 20
-11.5529186924
 11
8.4803535136
 21
-10.9705676275
  0
LWPOLYLINE
  5
33D
100
AcDbEntity
  8
0
100
AcDbPolyline
 62
250
  6
CONTINUOUS
 90
3
 70
0
 10
8.4453709147
 20
-10.9439595685
 10
8.5461167908
 20
-12.075433215
 10
8.6720158465
 20
-13.2137335752
  0
LWPOLYLINE
  5
33E
100
AcDbEntity
  8
0
100
AcDbPolyline
 62
250
  6
CONTINUOUS
 90
5
 70
0
 10
8.3485512695
 20
-8.8278487725
 10
8.3472943098
 20
-8.8132753192
 10
8.3455988178
 20
-8.7983996606
 10
8.3435010238
 20
-8.7834179814
 10
8.3409370242
 20
-8.7683299304
  0
LWPOLYLINE
  5
33F
100
AcDbEntity
  8
0
100
AcDbPolyline
 62
250
  6
CONTINUOUS
 90
7
 70
0
 10
8.3608609125
 20
-8.8807207207
 10
8.3571897717
 20
-8.8378905289
 10
8.3553447491
 20
-8.8178087866
 10
8.3527290612
 20
-8.7985466232
 10
8.349100414
 20
-8.7800832427
 10
8.3446712987
 20
-8.7624394443
 10
8.3394216995
 20
-8.7456152296
  0
LINE
  5
340
100
AcDbEntity
  8
0
100
AcDbLine
 62
250
  6
CONTINUOUS
 10
7.70576535
 20
26.9351768982
 11
7.712801757
 21
26.8492267652
  0
LINE
  5
341
100
AcDbEntity
  8
0
100
AcDbLine
 62
7
  6
CONTINUOUS
 10
8.4803535136
 20
-10.9705676275
 11
8.4358485727
 21
-10.4106626659
  0
LWPOLYLINE
  5
342
100
AcDbEntity
  8
0
100
AcDbPolyline
 62
250
  6
CONTINUOUS
 90
3
 70
0
 10
8.3644299251
 20
-8.9270995747
 10
8.3626864102
 20
-8.9034691658
 10
8.3608609125
 20
-8.8807207207
  0
LINE
  5
343
100
AcDbEntity
  8
0
100
AcDbLine
 62
250
  6
CONTINUOUS
 10
8.3738675967
 20
-9.832717271
 11
8.4453709147
 21
-10.9439595685
  0
LINE
  5
344
100
AcDbEntity
  8
0
100
AcDbLine
 62
7
  6
CONTINUOUS
 10
8.4358485727
 20
-10.4106626659
 11
8.3982345162
 21
-9.8225722029
  0
LINE
  5
345
100
AcDbEntity
  8
0
100
AcDbLine
 62
250
  6
CONTINUOUS
 10
8.3523641114
 20
-8.8890463716
 11
8.3485512695
 21
-8.8278487725
  0
LINE
  5
346
100
AcDbEntity
  8
0
100
AcDbLine
 62
7
  6
CONTINUOUS
 10
9.234776736
 20
-1.1809796507
 11
9.2349937346
 21
-1.1847243585
  0
LINE
  5
347
100
AcDbEntity
  8
0
100
AcDbLine
 62
250
  6
CONTINUOUS
 10
8.3788631784
 20
-9.1801598292
 11
8.3644299251
 21
-8.9270995747
  0
LINE
  5
348
100
AcDbEntity
  8
0
100
AcDbLine
 62
250
  6
CONTINUOUS
 10
8.3552058779
 20
-8.9401046685
 11
8.3523641114
 21
-8.8890463716
  0
LINE
  5
349
100
AcDbEntity
  8
0
100
AcDbLine
 62
250
  6
CONTINUOUS
 10
8.3653249484
 20
-9.1443144084
 11
8.3552058779
 21
-8.9401046685
  0
LINE
  5
34A
100
AcDbEntity
  8
0
100
AcDbLine
 62
250
  6
CONTINUOUS
 10
8.3864630016
 20
-9.5904210925
 11
8.3653249484
 21
-9.1443144084
  0
LINE
  5
34B
100
AcDbEntity
  8
0
100
AcDbLine
 62
7
  6
CONTINUOUS
 10
8.3976264259
 20
-9.8204520655
 11
8.3864630016
 21
-9.5904210925
  0
LWPOLYLINE
  5
34C
100
AcDbEntity
  8
0
100
AcDbPolyline
 62
250
  6
CONTINUOUS
 90
4
 70
0
 10
8.4174503091
 20
-9.985755678
 10
8.4055002546
 20
-9.7092593149
 10
8.3925487136
 20
-9.4408800237
 10
8.3788631784
 20
-9.1801598292
  0
LINE
  5
34D
100
AcDbEntity
  8
0
100
AcDbLine
 62
7
  6
CONTINUOUS
 10
9.2349937346
 20
-1.1847243585
 11
9.2348750997
 21
-1.181979655
  0
LINE
  5
34E
100
AcDbEntity
  8
0
100
AcDbLine
 62
250
  6
CONTINUOUS
 10
8.3636226868
 20
-9.5976708128
 11
8.3738675967
 21
-9.832717271
  0
LINE
  5
34F
100
AcDbEntity
  8
0
100
AcDbLine
 62
250
  6
CONTINUOUS
 10
8.4315885048
 20
-10.3440571061
 11
8.4174503091
 21
-9.985755678
  0
LINE
  5
350
100
AcDbEntity
  8
0
100
AcDbLine
 62
7
  6
CONTINUOUS
 10
8.980349109
 20
-14.9485621562
 11
8.9821594506
 21
-14.9975917378
  0
LWPOLYLINE
  5
351
100
AcDbEntity
  8
0
100
AcDbPolyline
 62
7
  6
CONTINUOUS
 90
3
 70
0
 10
9.0504594793
 20
-14.9485620462
 10
9.0569644598
 20
-15.1249201552
 10
9.0650930442
 20
-15.2372397843
  0
LINE
  5
352
100
AcDbEntity
  8
0
100
AcDbLine
 62
250
  6
CONTINUOUS
 10
8.3547425843
 20
-9.3648972895
 11
8.3636226868
 21
-9.5976708128
  0
LWPOLYLINE
  5
353
100
AcDbEntity
  8
0
100
AcDbPolyline
 62
7
  6
CONTINUOUS
 90
4
 70
0
 10
8.816279452
 20
-13.8733836389
 10
8.8108444419
 20
-13.7133177205
 10
8.8073969707
 20
-13.4160987733
 10
8.8088653408
 20
-13.0855339279
  0
LINE
  5
354
100
AcDbEntity
  8
0
100
AcDbLine
 62
7
  6
CONTINUOUS
 10
9.2348750997
 20
-1.181979655
 11
9.2240049717
 21
-0.8605329051
  0
LINE
  5
355
100
AcDbEntity
  8
0
100
AcDbLine
 62
250
  6
CONTINUOUS
 10
8.3471627239
 20
-9.1302976962
 11
8.3547425843
 21
-9.3648972895
  0
LINE
  5
356
100
AcDbEntity
  8
0
100
AcDbLine
 62
7
  6
CONTINUOUS
 10
9.2240049717
 20
-0.8605329051
 11
9.2150772059
 21
-0.5715133584
  0
LWPOLYLINE
  5
357
100
AcDbEntity
  8
0
100
AcDbPolyline
 62
250
  6
CONTINUOUS
 90
3
 70
0
 10
7.0343561455
 20
-26.7746826502
 10
7.0341416126
 20
-26.7670785616
 10
7.0336211769
 20
-26.7519722852
  0
LINE
  5
358
100
AcDbEntity
  8
0
100
AcDbLine
 62
7
  6
CONTINUOUS
 10
9.2150772059
 20
-0.5715133584
 11
9.207760169
 21
-0.3121501981
  0
LWPOLYLINE
  5
359
100
AcDbEntity
  8
0
100
AcDbPolyline
 62
250
  6
CONTINUOUS
 90
9
 70
0
 10
6.6467817704
 20
26.9420427313
 10
6.6445218622
 20
27.0265327389
 10
6.6403269016
 20
27.1058416037
 10
6.6343426584
 20
27.1775491989
 10
6.6267400936
 20
27.2394722519
 10
6.6177095318
 20
27.2897287633
 10
6.60751405
 20
27.3267895893
 10
6.5964810531
 20
27.3495268746
 10
6.5849473211
 20
27.357251245
  0
LINE
  5
35A
100
AcDbEntity
  8
0
100
AcDbLine
 62
7
  6
CONTINUOUS
 10
9.207760169
 20
-0.3121501981
 11
9.1997308793
 21
0.0075049067
  0
LINE
  5
35B
100
AcDbEntity
  8
0
100
AcDbLine
 62
7
  6
CONTINUOUS
 10
9.1997308793
 20
0.0075049067
 11
9.1914122985
 21
0.3902531586
  0
LINE
  5
35C
100
AcDbEntity
  8
0
100
AcDbLine
 62
7
  6
CONTINUOUS
 10
8.9755677433
 20
-14.7136585457
 11
8.980349109
 21
-14.9485621562
  0
LINE
  5
35D
100
AcDbEntity
  8
0
100
AcDbLine
 62
7
  6
CONTINUOUS
 10
9.0456843118
 20
-14.7136583091
 11
9.0504594793
 21
-14.9485620462
  0
LWPOLYLINE
  5
35E
100
AcDbEntity
  8
0
100
AcDbPolyline
 62
250
  6
CONTINUOUS
 90
3
 70
0
 10
8.3380246476
 20
-8.7456481242
 10
8.3406732784
 20
-8.8776899699
 10
8.3471627239
 20
-9.1302976962
  0
LINE
  5
35F
100
AcDbEntity
  8
0
100
AcDbLine
 62
250
  6
CONTINUOUS
 10
7.0346857193
 20
-26.7899988796
 11
7.0343561455
 21
-26.7746826502
  0
LWPOLYLINE
  5
360
100
AcDbEntity
  8
0
100
AcDbPolyline
 62
7
  6
CONTINUOUS
 90
16
 70
0
 10
9.1914122985
 20
0.3902531586
 10
9.1835259639
 20
0.839133952
 10
9.1800731343
 20
1.088210951
 10
9.1770650829
 20
1.3546427162
 10
9.1745674485
 20
1.6375170743
 10
9.1729153272
 20
1.9341520781
 10
9.1721653413
 20
2.2478495552
 10
9.1723133909
 20
2.5753076782
 10
9.1735914481
 20
2.9039390169
 10
9.1761041406
 20
3.2359883326
 10
9.1796377294
 20
3.5692108641
 10
9.1839162612
 20
3.8842848981
 10
9.1889248621
 20
4.1777246352
 10
9.1944367167
 20
4.4530158749
 10
9.199922826
 20
4.7012943014
 10
9.2052647204
 20
4.9184344555
  0
LINE
  5
361
100
AcDbEntity
  8
0
100
AcDbLine
 62
250
  6
CONTINUOUS
 10
6.6765203765
 20
-8.789880648
 11
6.647023746
 21
-6.1500000004
  0
LWPOLYLINE
  5
362
100
AcDbEntity
  8
0
100
AcDbPolyline
 62
250
  6
CONTINUOUS
 90
3
 70
0
 10
7.0354291159
 20
-26.8461132836
 10
7.0350437134
 20
-26.8131364237
 10
7.0346857193
 20
-26.7899988796
  0
LINE
  5
363
100
AcDbEntity
  8
0
100
AcDbLine
 62
250
  6
CONTINUOUS
 10
7.7128064309
 20
-6.1500000004
 11
7.7298966005
 21
-7.8688885888
  0
LINE
  5
364
100
AcDbEntity
  8
0
100
AcDbLine
 62
250
  6
CONTINUOUS
 10
7.7298966005
 20
-7.8688885888
 11
7.7319012056
 21
-8.0986514341
  0
LWPOLYLINE
  5
365
100
AcDbEntity
  8
0
100
AcDbPolyline
 62
250
  6
CONTINUOUS
 90
3
 70
0
 10
7.7319012056
 20
-8.0986514341
 10
7.7330595095
 20
-8.3259177113
 10
7.7346461984
 20
-8.7457069399
  0
LINE
  5
366
100
AcDbEntity
  8
0
100
AcDbLine
 62
250
  6
CONTINUOUS
 10
8.3320967442
 20
-6.1500039367
 11
8.3337284002
 21
-7.7562873466
  0
LINE
  5
367
100
AcDbEntity
  8
0
100
AcDbLine
 62
250
  6
CONTINUOUS
 10
8.3394216995
 20
-8.7456152296
 11
8.3369416903
 21
-7.7562916861
  0
LINE
  5
368
100
AcDbEntity
  8
0
100
AcDbLine
 62
7
  6
CONTINUOUS
 10
6.0
 20
-31.95
 11
6.0
 21
-31.0659006469
  0
LINE
  5
369
100
AcDbEntity
  8
0
100
AcDbLine
 62
250
  6
CONTINUOUS
 10
6.6470380433
 20
-6.1500000004
 11
6.6467817704
 21
26.9420427313
  0
LINE
  5
36A
100
AcDbEntity
  8
0
100
AcDbLine
 62
7
  6
CONTINUOUS
 10
7.6189318375
 20
27.4
 11
7.6189318375
 21
27.3048063138
  0
LINE
  5
36B
100
AcDbEntity
  8
0
100
AcDbLine
 62
250
  6
CONTINUOUS
 10
7.7128009198
 20
-6.1500000004
 11
7.7128009203
 21
26.8492267697
  0
LINE
  5
36C
100
AcDbEntity
  8
0
100
AcDbLine
 62
7
  6
CONTINUOUS
 10
7.8476028954
 20
27.4
 11
7.8476028954
 21
27.3439121117
  0
LINE
  5
36D
100
AcDbEntity
  8
0
100
AcDbLine
 62
250
  6
CONTINUOUS
 10
8.835399941
 20
-7.7546194555
 11
8.8353999413
 21
26.8448551583
  0
LINE
  5
36E
100
AcDbEntity
  8
0
100
AcDbLine
 62
7
  6
CONTINUOUS
 10
9.1282185941
 20
14.89989
 11
9.1282187381
 21
16.1457399928
  0
LINE
  5
36F
100
AcDbEntity
  8
0
100
AcDbLine
 62
7
  6
CONTINUOUS
 10
9.1932880027
 20
14.89989
 11
9.1932884648
 21
18.90008
  0
LINE
  5
370
100
AcDbEntity
  8
0
100
AcDbLine
 62
7
  6
CONTINUOUS
 10
9.2349937801
 20
-7.7546194465
 11
9.2349937801
 21
-1.1847236
  0
LINE
  5
371
100
AcDbEntity
  8
0
100
AcDbLine
 62
7
  6
CONTINUOUS
 10
9.2349937802
 20
5.8847235965
 11
9.2349937803
 21
14.8999
  0
LINE
  5
372
100
AcDbEntity
  8
0
100
AcDbLine
 62
7
  6
CONTINUOUS
 10
9.2349937803
 20
18.90008
 11
9.2349937804
 21
26.8362204556
  0
LINE
  5
373
100
AcDbEntity
  8
0
100
AcDbLine
 62
7
  6
CONTINUOUS
 10
9.2544062528
 20
14.8999
 11
9.2544062528
 21
18.90008
  0
LINE
  5
374
100
AcDbEntity
  8
0
100
AcDbLine
 62
250
  6
CONTINUOUS
 10
6.6755150049
 20
-10.8475939812
 11
6.6765203765
 21
-8.789880648
  0
LWPOLYLINE
  5
375
100
AcDbEntity
  8
0
100
AcDbPolyline
 62
7
  6
CONTINUOUS
 90
3
 70
0
 10
8.9733556524
 20
-14.1145043133
 10
8.9730692111
 20
-14.4367025237
 10
8.9755677433
 20
-14.7136585457
  0
LWPOLYLINE
  5
376
100
AcDbEntity
  8
0
100
AcDbPolyline
 62
7
  6
CONTINUOUS
 90
3
 70
0
 10
9.0434805946
 20
-14.114503664
 10
9.0431907629
 20
-14.4367021161
 10
9.0456843118
 20
-14.7136583091
  0
LWPOLYLINE
  5
377
100
AcDbEntity
  8
0
100
AcDbPolyline
 62
250
  6
CONTINUOUS
 90
4
 70
0
 10
8.7995741254
 20
-7.7546194556
 10
8.7990060815
 20
-8.3095436621
 10
8.7967252327
 20
-8.8639699372
 10
8.792736166
 20
-9.4178929862
  0
LINE
  5
378
100
AcDbEntity
  8
0
100
AcDbLine
 62
7
  6
CONTINUOUS
 10
9.1428340773
 20
-13.1575215192
 11
9.1425753093
 21
-13.4074019337
  0
LINE
  5
379
100
AcDbEntity
  8
0
100
AcDbLine
 62
250
  6
CONTINUOUS
 10
7.034694793
 20
-26.7255843925
 11
7.0346504392
 21
-26.7567668632
  0
LINE
  5
37A
100
AcDbEntity
  8
0
100
AcDbLine
 62
7
  6
CONTINUOUS
 10
9.1425753093
 20
-13.4074019337
 11
9.1413676428
 21
-13.6572903877
  0
LINE
  5
37B
100
AcDbEntity
  8
0
100
AcDbLine
 62
7
  6
CONTINUOUS
 10
9.2359353587
 20
-8.6815369027
 11
9.2351046906
 21
-8.8440017717
  0
LWPOLYLINE
  5
37C
100
AcDbEntity
  8
0
100
AcDbPolyline
 62
250
  6
CONTINUOUS
 90
4
 70
0
 10
7.0354500188
 20
-26.9227078624
 10
7.0355952309
 20
-26.8970149479
 10
7.0355842209
 20
-26.8714877241
 10
7.0354291159
 20
-26.8461132836
  0
LINE
  5
37D
100
AcDbEntity
  8
0
100
AcDbLine
 62
7
  6
CONTINUOUS
 10
8.9762588442
 20
-13.7502395644
 11
8.9733556524
 21
-14.1145043133
  0
LINE
  5
37E
100
AcDbEntity
  8
0
100
AcDbLine
 62
7
  6
CONTINUOUS
 10
9.0463855923
 20
-13.75023864
 11
9.0434805946
 21
-14.114503664
  0
LINE
  5
37F
100
AcDbEntity
  8
0
100
AcDbLine
 62
250
  6
CONTINUOUS
 10
7.034917486
 20
-26.6941684946
 11
7.034694793
 21
-26.7255843925
  0
LINE
  5
380
100
AcDbEntity
  8
0
100
AcDbLine
 62
250
  6
CONTINUOUS
 10
8.792736166
 20
-9.4178929862
 11
8.7870434808
 21
-9.9713075429
  0
LINE
  5
381
100
AcDbEntity
  8
0
100
AcDbLine
 62
250
  6
CONTINUOUS
 10
6.65401178
 20
-12.905766185
 11
6.6755150049
 21
-10.8475939812
  0
LINE
  5
382
100
AcDbEntity
  8
0
100
AcDbLine
 62
250
  6
CONTINUOUS
 10
8.7870434808
 20
-9.9713075429
 11
8.7796517887
 21
-10.5242083695
  0
LINE
  5
383
100
AcDbEntity
  8
0
100
AcDbLine
 62
7
  6
CONTINUOUS
 10
9.2229598844
 20
-10.3421218511
 11
9.2246972594
 21
-10.2137449826
  0
LINE
  5
384
100
AcDbEntity
  8
0
100
AcDbLine
 62
7
  6
CONTINUOUS
 10
8.7375970006
 20
-12.9579605942
 11
8.7333502068
 21
-13.2637456299
  0
LINE
  5
385
100
AcDbEntity
  8
0
100
AcDbLine
 62
250
  6
CONTINUOUS
 10
7.0353163347
 20
-26.6625115989
 11
7.034917486
 21
-26.6941684946
  0
LINE
  5
386
100
AcDbEntity
  8
0
100
AcDbLine
 62
250
  6
CONTINUOUS
 10
7.0347534279
 20
-26.9745388065
 11
7.0354500188
 21
-26.9227078624
  0
LINE
  5
387
100
AcDbEntity
  8
0
100
AcDbLine
 62
250
  6
CONTINUOUS
 10
8.7796517887
 20
-10.5242083695
 11
8.7705657135
 21
-11.0765902565
  0
LINE
  5
388
100
AcDbEntity
  8
0
100
AcDbLine
 62
7
  6
CONTINUOUS
 10
9.0136903148
 20
-10.983982178
 11
9.0254635064
 21
-10.2137449826
  0
LINE
  5
389
100
AcDbEntity
  8
0
100
AcDbLine
 62
7
  6
CONTINUOUS
 10
9.2128927506
 20
-10.983982178
 11
9.2211304922
 21
-10.4704971185
  0
LWPOLYLINE
  5
38A
100
AcDbEntity
  8
0
100
AcDbPolyline
 62
7
  6
CONTINUOUS
 90
6
 70
0
 10
8.8088653408
 20
-13.0855339279
 10
8.8151601578
 20
-12.7544992668
 10
8.8268926299
 20
-12.4226980172
 10
8.8434498684
 20
-12.0904290539
 10
8.8631460576
 20
-11.7914718963
 10
8.8863442186
 20
-11.5289828185
  0
LINE
  5
38B
100
AcDbEntity
  8
0
100
AcDbLine
 62
250
  6
CONTINUOUS
 10
6.6120071372
 20
-14.9622131964
 11
6.65401178
 21
-12.905766185
  0
LWPOLYLINE
  5
38C
100
AcDbEntity
  8
0
100
AcDbPolyline
 62
7
  6
CONTINUOUS
 90
3
 70
0
 10
8.9902243232
 20
-12.972067634
 10
8.9817393342
 20
-13.3699568695
 10
8.9762588442
 20
-13.7502395644
  0
LWPOLYLINE
  5
38D
100
AcDbEntity
  8
0
100
AcDbPolyline
 62
7
  6
CONTINUOUS
 90
3
 70
0
 10
9.0603487102
 20
-12.9720663121
 10
9.0518660027
 20
-13.3699557185
 10
9.0463855923
 20
-13.75023864
  0
LWPOLYLINE
  5
38E
100
AcDbEntity
  8
0
100
AcDbPolyline
 62
250
  6
CONTINUOUS
 90
5
 70
0
 10
8.8293539906
 20
-11.6385892247
 10
8.8167867333
 20
-12.1939838437
 10
8.8024921859
 20
-12.7497805963
 10
8.7864663697
 20
-13.3059740235
 10
8.7772580956
 20
-13.5945371325
  0
LINE
  5
38F
100
AcDbEntity
  8
0
100
AcDbLine
 62
250
  6
CONTINUOUS
 10
7.0336213165
 20
-27.0268706492
 11
7.0347534279
 21
-26.9745388065
  0
LINE
  5
390
100
AcDbEntity
  8
0
100
AcDbLine
 62
7
  6
CONTINUOUS
 10
9.0014416746
 20
-12.5581575062
 11
8.9902243232
 21
-12.972067634
  0
LINE
  5
391
100
AcDbEntity
  8
0
100
AcDbLine
 62
7
  6
CONTINUOUS
 10
9.0715617183
 20
-12.5581560644
 11
9.0603487102
 21
-12.9720663121
  0
LINE
  5
392
100
AcDbEntity
  8
0
100
AcDbLine
 62
7
  6
CONTINUOUS
 10
9.2052647204
 20
4.9184344555
 11
9.2151854016
 21
5.2751883875
  0
LINE
  5
393
100
AcDbEntity
  8
0
100
AcDbLine
 62
7
  6
CONTINUOUS
 10
9.1487670579
 20
-13.1323686288
 11
9.1696742967
 21
-12.3676553622
  0
LINE
  5
394
100
AcDbEntity
  8
0
100
AcDbLine
 62
250
  6
CONTINUOUS
 10
7.0321124561
 20
-27.0778878612
 11
7.0336213165
 21
-27.0268706492
  0
LINE
  5
395
100
AcDbEntity
  8
0
100
AcDbLine
 62
7
  6
CONTINUOUS
 10
9.2351046906
 20
-8.8440017717
 11
9.2273897787
 21
-9.08942303
  0
LINE
  5
396
100
AcDbEntity
  8
0
100
AcDbLine
 62
7
  6
CONTINUOUS
 10
9.2151854016
 20
5.2751883875
 11
9.226525543
 21
5.6375757238
  0
LINE
  5
397
100
AcDbEntity
  8
0
100
AcDbLine
 62
250
  6
CONTINUOUS
 10
6.5435672205
 20
-17.0206935217
 11
6.6120071372
 21
-14.9622131964
  0
LWPOLYLINE
  5
398
100
AcDbEntity
  8
0
100
AcDbPolyline
 62
7
  6
CONTINUOUS
 90
3
 70
0
 10
9.2273897787
 20
-9.08942303
 10
9.2187957703
 20
-9.3348191226
 10
9.2093226653
 20
-9.5801900496
  0
LINE
  5
399
100
AcDbEntity
  8
0
100
AcDbLine
 62
7
  6
CONTINUOUS
 10
8.9156093372
 20
-14.5573556939
 11
8.9171620406
 21
-14.516041813
  0
LWPOLYLINE
  5
39A
100
AcDbEntity
  8
0
100
AcDbPolyline
 62
250
  6
CONTINUOUS
 90
3
 70
0
 10
7.0356481324
 20
-26.66592522
 10
7.0452627541
 20
-26.4002295117
 10
7.0478921125
 20
-26.3331331344
  0
LINE
  5
39B
100
AcDbEntity
  8
0
100
AcDbLine
 62
250
  6
CONTINUOUS
 10
7.0303001635
 20
-27.1274890282
 11
7.0321124561
 21
-27.0778878612
  0
LINE
  5
39C
100
AcDbEntity
  8
0
100
AcDbLine
 62
7
  6
CONTINUOUS
 10
9.1065644032
 20
-14.7728025175
 11
9.1163055392
 21
-14.5160413633
  0
LWPOLYLINE
  5
39D
100
AcDbEntity
  8
0
100
AcDbPolyline
 62
250
  6
CONTINUOUS
 90
10
 70
0
 10
6.0452169471
 20
-27.5458807762
 10
6.0233490451
 20
-28.0962906294
 10
6.0132791046
 20
-28.6075485194
 10
6.0154303308
 20
-29.0739257795
 10
6.0313262867
 20
-29.488582141
 10
6.0599176694
 20
-29.8463052502
 10
6.0983679038
 20
-30.1397771632
 10
6.1444203461
 20
-30.3647346041
 10
6.1979111999
 20
-30.5164884327
 10
6.2571567535
 20
-30.5911406409
  0
LWPOLYLINE
  5
39E
100
AcDbEntity
  8
0
100
AcDbPolyline
 62
7
  6
CONTINUOUS
 90
3
 70
0
 10
9.0298412754
 20
-11.7759516979
 10
9.0145765804
 20
-12.1590480406
 10
9.0014416746
 20
-12.5581575062
  0
LWPOLYLINE
  5
39F
100
AcDbEntity
  8
0
100
AcDbPolyline
 62
7
  6
CONTINUOUS
 90
3
 70
0
 10
9.0999472382
 20
-11.7759503795
 10
9.0846905252
 20
-12.1590465853
 10
9.0715617183
 20
-12.5581560644
  0
LWPOLYLINE
  5
3A0
100
AcDbEntity
  8
0
100
AcDbPolyline
 62
250
  6
CONTINUOUS
 90
3
 70
0
 10
7.0478921125
 20
-26.3331331344
 10
7.0621247475
 20
-25.974764808
 10
7.0657657199
 20
-25.8870440846
  0
LINE
  5
3A1
100
AcDbEntity
  8
0
100
AcDbLine
 62
7
  6
CONTINUOUS
 10
9.2093226653
 20
-9.5801900496
 11
9.1989704636
 21
-9.8255358109
  0
LINE
  5
3A2
100
AcDbEntity
  8
0
100
AcDbLine
 62
250
  6
CONTINUOUS
 10
7.0657657199
 20
-25.8870440846
 11
7.0914134307
 21
-25.2748398548
  0
LINE
  5
3A3
100
AcDbEntity
  8
0
100
AcDbLine
 62
7
  6
CONTINUOUS
 10
9.0717406993
 20
-15.2990562526
 11
9.063003115
 21
-15.505888831
  0
LINE
  5
3A4
100
AcDbEntity
  8
0
100
AcDbLine
 62
250
  6
CONTINUOUS
 10
6.3628996126
 20
-21.0987502381
 11
6.4465723578
 21
-19.2503972055
  0
LINE
  5
3A5
100
AcDbEntity
  8
0
100
AcDbLine
 62
250
  6
CONTINUOUS
 10
6.4465723578
 20
-19.2503972055
 11
6.5435672205
 21
-17.0206935217
  0
LINE
  5
3A6
100
AcDbEntity
  8
0
100
AcDbLine
 62
250
  6
CONTINUOUS
 10
7.0281177931
 20
-27.1774905293
 11
7.0303001635
 21
-27.1274890282
  0
LINE
  5
3A7
100
AcDbEntity
  8
0
100
AcDbLine
 62
250
  6
CONTINUOUS
 10
7.0914134307
 20
-25.2748398548
 11
7.1180425717
 21
-24.6810400873
  0
LINE
  5
3A8
100
AcDbEntity
  8
0
100
AcDbLine
 62
7
  6
CONTINUOUS
 10
9.0468685642
 20
-11.4076645787
 11
9.0298412754
 21
-11.7759516979
  0
LINE
  5
3A9
100
AcDbEntity
  8
0
100
AcDbLine
 62
7
  6
CONTINUOUS
 10
9.1169649609
 20
-11.4076634969
 11
9.0999472382
 21
-11.7759503795
  0
LWPOLYLINE
  5
3AA
100
AcDbEntity
  8
0
100
AcDbPolyline
 62
250
  6
CONTINUOUS
 90
3
 70
0
 10
6.1831087887
 20
-25.0510872238
 10
6.2743771593
 20
-23.0901415424
 10
6.3628996126
 20
-21.0987502381
  0
LWPOLYLINE
  5
3AB
100
AcDbEntity
  8
0
100
AcDbPolyline
 62
7
  6
CONTINUOUS
 90
3
 70
0
 10
9.2349937346
 20
5.8847243585
 10
9.2348656141
 20
5.8819794511
 10
9.226525543
 20
5.6375757238
  0
LINE
  5
3AC
100
AcDbEntity
  8
0
100
AcDbLine
 62
250
  6
CONTINUOUS
 10
7.1180425717
 20
-24.6810400873
 11
7.1460534051
 21
-24.0795265658
  0
LINE
  5
3AD
100
AcDbEntity
  8
0
100
AcDbLine
 62
250
  6
CONTINUOUS
 10
7.1460534051
 20
-24.0795265658
 11
7.1753217263
 21
-23.4701756036
  0
LINE
  5
3AE
100
AcDbEntity
  8
0
100
AcDbLine
 62
250
  6
CONTINUOUS
 10
7.1753217263
 20
-23.4701756036
 11
7.2224087082
 21
-22.5400652793
  0
LWPOLYLINE
  5
3AF
100
AcDbEntity
  8
0
100
AcDbPolyline
 62
250
  6
CONTINUOUS
 90
9
 70
0
 10
7.4255152035
 20
-18.68395991
 10
7.4876588239
 20
-17.4678940076
 10
7.5461309316
 20
-16.2492602497
 10
7.6004237216
 20
-15.036733337
 10
7.6479697149
 20
-13.8253721282
 10
7.6851670156
 20
-12.5938759352
 10
7.7112650677
 20
-11.3333567512
 10
7.7275159454
 20
-10.050864253
 10
7.7346461982
 20
-8.7457068965
  0
LINE
  5
3B0
100
AcDbEntity
  8
0
100
AcDbLine
 62
250
  6
CONTINUOUS
 10
7.0255794259
 20
-27.2278822028
 11
7.0281177931
 21
-27.1774905293
  0
LINE
  5
3B1
100
AcDbEntity
  8
0
100
AcDbLine
 62
250
  6
CONTINUOUS
 10
7.2224087082
 20
-22.5400652793
 11
7.2701278084
 21
-21.6181191178
  0
LWPOLYLINE
  5
3B2
100
AcDbEntity
  8
0
100
AcDbPolyline
 62
250
  6
CONTINUOUS
 90
3
 70
0
 10
7.2701278084
 20
-21.6181191178
 10
7.3349928058
 20
-20.3908167666
 10
7.3438110316
 20
-20.2254716782
  0
LINE
  5
3B3
100
AcDbEntity
  8
0
100
AcDbLine
 62
250
  6
CONTINUOUS
 10
7.3438110316
 20
-20.2254716782
 11
7.4255152035
 21
-18.68395991
  0
LINE
  5
3B4
100
AcDbEntity
  8
0
100
AcDbLine
 62
7
  6
CONTINUOUS
 10
9.2347891216
 20
5.8809796719
 11
9.2349937802
 21
5.8847783788
  0
LWPOLYLINE
  5
3B5
100
AcDbEntity
  8
0
100
AcDbPolyline
 62
7
  6
CONTINUOUS
 90
8
 70
0
 10
5.9998019465
 20
-31.0656841063
 10
6.0010524992
 20
-31.0433553169
 10
6.0114585
 20
-30.9984075495
 10
6.0318863095
 20
-30.9570434588
 10
6.0612401726
 20
-30.9214694051
 10
6.0979496681
 20
-30.8935734473
 10
6.1400601149
 20
-30.8748288417
 10
6.1751017174
 20
-30.8672300242
  0
LINE
  5
3B6
100
AcDbEntity
  8
0
100
AcDbLine
 62
250
  6
CONTINUOUS
 10
7.0226859677
 20
-27.2786649859
 11
7.0255794259
 21
-27.2278822028
  0
LINE
  5
3B7
100
AcDbEntity
  8
0
100
AcDbLine
 62
7
  6
CONTINUOUS
 10
9.1413676428
 20
-13.6572903877
 11
9.1364562764
 21
-13.7393172037
  0
LWPOLYLINE
  5
3B8
100
AcDbEntity
  8
0
100
AcDbPolyline
 62
7
  6
CONTINUOUS
 90
3
 70
0
 10
9.0819633065
 20
-10.8005398864
 10
9.0642510248
 20
-11.0813922202
 10
9.0468685642
 20
-11.4076645787
  0
LWPOLYLINE
  5
3B9
100
AcDbEntity
  8
0
100
AcDbPolyline
 62
7
  6
CONTINUOUS
 90
3
 70
0
 10
9.1520384941
 20
-10.8005392799
 10
9.1343371392
 20
-11.0813913822
 10
9.1169649609
 20
-11.4076634969
  0
LINE
  5
3BA
100
AcDbEntity
  8
0
100
AcDbLine
 62
250
  6
CONTINUOUS
 10
7.0196878039
 20
-27.3267425305
 11
7.0226859677
 21
-27.2786649859
  0
LINE
  5
3BB
100
AcDbEntity
  8
0
100
AcDbLine
 62
250
  6
CONTINUOUS
 10
7.0167060937
 20
-27.3704729957
 11
7.0196878039
 21
-27.3267425305
  0
LINE
  5
3BC
100
AcDbEntity
  8
0
100
AcDbLine
 62
250
  6
CONTINUOUS
 10
7.0135460615
 20
-27.415323699
 11
7.0167060937
 21
-27.3704729957
  0
LWPOLYLINE
  5
3BD
100
AcDbEntity
  8
0
100
AcDbPolyline
 62
7
  6
CONTINUOUS
 90
5
 70
0
 10
8.8107233946
 20
-11.4234378345
 10
8.7856135141
 20
-11.7787646916
 10
8.764957812
 20
-12.1495257579
 10
8.7488367617
 20
-12.546030897
 10
8.7375970006
 20
-12.9579605942
  0
LWPOLYLINE
  5
3BE
100
AcDbEntity
  8
0
100
AcDbPolyline
 62
7
  6
CONTINUOUS
 90
5
 70
0
 10
8.7406279853
 20
-11.4226653391
 10
8.7151507871
 20
-11.7825747879
 10
8.6942587453
 20
-12.1561550669
 10
8.6781091809
 20
-12.5528206855
 10
8.6718365793
 20
-12.7848552939
  0
LINE
  5
3BF
100
AcDbEntity
  8
0
100
AcDbLine
 62
7
  6
CONTINUOUS
 10
9.0996999351
 20
-10.5617121237
 11
9.0819633065
 21
-10.8005398864
  0
LINE
  5
3C0
100
AcDbEntity
  8
0
100
AcDbLine
 62
7
  6
CONTINUOUS
 10
9.1697638482
 20
-10.5617117481
 11
9.1520384941
 21
-10.8005392799
  0
LINE
  5
3C1
100
AcDbEntity
  8
0
100
AcDbLine
 62
7
  6
CONTINUOUS
 10
8.7700541466
 20
-11.0764299642
 11
8.7406279853
 21
-11.4226653391
  0
LINE
  5
3C2
100
AcDbEntity
  8
0
100
AcDbLine
 62
7
  6
CONTINUOUS
 10
8.8396845261
 20
-11.0835486015
 11
8.8107233946
 21
-11.4234378345
  0
LWPOLYLINE
  5
3C3
100
AcDbEntity
  8
0
100
AcDbPolyline
 62
250
  6
CONTINUOUS
 90
10
 70
0
 10
6.0450254954
 20
-27.5459015524
 10
6.0514213878
 20
-27.4824528383
 10
6.0574591239
 20
-27.4191348113
 10
6.0631387195
 20
-27.3559476335
 10
6.0684825308
 20
-27.2928869715
 10
6.0734682298
 20
-27.2299574717
 10
6.0780288074
 20
-27.1671727548
 10
6.0821419372
 20
-27.1045374495
 10
6.0858299732
 20
-27.0420471984
 10
6.1831087887
 20
-25.0510872238
  0
LINE
  5
3C4
100
AcDbEntity
  8
0
100
AcDbLine
 62
7
  6
CONTINUOUS
 10
8.8716511396
 20
-10.7923371444
 11
8.8401979505
 21
-11.0836021732
  0
LINE
  5
3C5
100
AcDbEntity
  8
0
100
AcDbLine
 62
7
  6
CONTINUOUS
 10
8.8018814683
 20
-10.7877865876
 11
8.7705657135
 21
-11.0765902565
  0
LWPOLYLINE
  5
3C6
100
AcDbEntity
  8
0
100
AcDbPolyline
 62
7
  6
CONTINUOUS
 90
4
 70
0
 10
8.8863442186
 20
-11.5289828185
 10
8.9124071414
 20
-11.2998141236
 10
8.9385012747
 20
-11.1282944221
 10
8.9637464196
 20
-11.0225356489
  0
LWPOLYLINE
  5
3C7
100
AcDbEntity
  8
0
100
AcDbPolyline
 62
7
  6
CONTINUOUS
 90
3
 70
0
 10
9.1305569852
 20
-10.2668224986
 10
9.1160367395
 20
-10.3819160393
 10
9.0996999351
 20
-10.5617121237
  0
LWPOLYLINE
  5
3C8
100
AcDbEntity
  8
0
100
AcDbPolyline
 62
7
  6
CONTINUOUS
 90
3
 70
0
 10
9.2006005671
 20
-10.2668224221
 10
9.1860900094
 20
-10.3819158462
 10
9.1697638482
 20
-10.5617117481
  0
LINE
  5
3C9
100
AcDbEntity
  8
0
100
AcDbLine
 62
7
  6
CONTINUOUS
 10
8.9029801413
 20
-10.5595835031
 11
8.8716511396
 21
-10.7923371444
  0
LINE
  5
3CA
100
AcDbEntity
  8
0
100
AcDbLine
 62
7
  6
CONTINUOUS
 10
8.8330958248
 20
-10.5569772975
 11
8.8018814683
 21
-10.7877865876
  0
LINE
  5
3CB
100
AcDbEntity
  8
0
100
AcDbLine
 62
7
  6
CONTINUOUS
 10
8.9341628221
 20
-10.3853452817
 11
8.9029801413
 21
-10.5595835031
  0
LINE
  5
3CC
100
AcDbEntity
  8
0
100
AcDbLine
 62
7
  6
CONTINUOUS
 10
8.8641833492
 20
-10.3841663447
 11
8.8330958248
 21
-10.5569772975
  0
LWPOLYLINE
  5
3CD
100
AcDbEntity
  8
0
100
AcDbPolyline
 62
250
  6
CONTINUOUS
 90
10
 70
0
 10
8.3561254324
 20
-8.9580191227
 10
8.3568274864
 20
-8.9545549597
 10
8.3575883904
 20
-8.951099056
 10
8.3584049615
 20
-8.9476504929
 10
8.3592741365
 20
-8.9442080505
 10
8.360192946
 20
-8.9407711916
 10
8.3611625547
 20
-8.937340917
 10
8.3621882551
 20
-8.9339184392
 10
8.3632755898
 20
-8.9305043606
 10
8.3644299258
 20
-8.9270995842
  0
LWPOLYLINE
  5
3CE
100
AcDbEntity
  8
0
100
AcDbPolyline
 62
7
  6
CONTINUOUS
 90
6
 70
0
 10
-7.617697632
 20
27.3045686254
 10
-7.6154767216
 20
27.3016975958
 10
-7.6132828531
 20
27.298788246
 10
-7.6111232094
 20
27.2958454972
 10
-7.6090332397
 20
27.292890589
 10
-7.6069946167
 20
27.2899124865
  0
LWPOLYLINE
  5
3CF
100
AcDbEntity
  8
0
100
AcDbPolyline
 62
7
  6
CONTINUOUS
 90
4
 70
0
 10
-7.6069946167
 20
27.2899124865
 10
-7.6028026636
 20
27.2837270362
 10
-7.6006508096
 20
27.2805200553
 10
-7.5984736313
 20
27.2772432881
  0
LINE
  5
3D0
100
AcDbEntity
  8
0
100
AcDbLine
 62
250
  6
CONTINUOUS
 10
10.221865575
 20
-22.1661275201
 11
10.2248231282
 21
-22.1814858659
  0
LINE
  5
3D1
100
AcDbEntity
  8
0
100
AcDbLine
 62
250
  6
CONTINUOUS
 10
9.7556363602
 20
-19.7601818347
 11
10.221865575
 21
-22.1661275201
  0
LINE
  5
3D2
100
AcDbEntity
  8
0
100
AcDbLine
 62
250
  6
CONTINUOUS
 10
9.5010360287
 20
-18.4229016503
 11
9.7556363602
 21
-19.7601818347
  0
LINE
  5
3D3
100
AcDbEntity
  8
0
100
AcDbLine
 62
7
  6
CONTINUOUS
 10
9.9807112039
 20
-20.6201850763
 11
9.8500832469
 21
-19.9308785192
  0
LINE
  5
3D4
100
AcDbEntity
  8
0
100
AcDbLine
 62
7
  6
CONTINUOUS
 10
10.2165446935
 20
-21.8610361105
 11
9.9807112039
 21
-20.6201850763
  0
LINE
  5
3D5
100
AcDbEntity
  8
0
100
AcDbLine
 62
7
  6
CONTINUOUS
 10
9.8500832469
 20
-19.9308785192
 11
9.6821791152
 21
-19.0346463051
  0
LWPOLYLINE
  5
3D6
100
AcDbEntity
  8
0
100
AcDbPolyline
 62
7
  6
CONTINUOUS
 90
5
 70
0
 10
9.6821791152
 20
-19.0346463051
 10
9.5467908331
 20
-18.3019497862
 10
9.3865254882
 20
-17.4130978673
 10
9.2332451518
 20
-16.5340470049
 10
9.0955610483
 20
-15.7105938375
  0
LWPOLYLINE
  5
3D7
100
AcDbEntity
  8
0
100
AcDbPolyline
 62
7
  6
CONTINUOUS
 90
3
 70
0
 10
9.0650930442
 20
-15.2372397843
 10
9.0748315131
 20
-15.2910253445
 10
9.0790540317
 20
-15.2961409286
  0
LWPOLYLINE
  5
3D8
100
AcDbEntity
  8
0
100
AcDbPolyline
 62
250
  6
CONTINUOUS
 90
4
 70
0
 10
8.9876300058
 20
-15.4543737258
 10
9.160635408
 20
-16.509141429
 10
9.3327598639
 20
-17.5011889723
 10
9.5010360287
 20
-18.4229016503
  0
LINE
  5
3D9
100
AcDbEntity
  8
0
100
AcDbLine
 62
7
  6
CONTINUOUS
 10
9.0955610483
 20
-15.7105938375
 11
8.9729714869
 21
-14.9398232628
  0
LINE
  5
3DA
100
AcDbEntity
  8
0
100
AcDbLine
 62
250
  6
CONTINUOUS
 10
8.8211238706
 20
-14.3477101026
 11
8.9876300058
 21
-15.4543737258
  0
LINE
  5
3DB
100
AcDbEntity
  8
0
100
AcDbLine
 62
7
  6
CONTINUOUS
 10
8.9729714869
 20
-14.9398232628
 11
8.8615982616
 21
-14.1972317287
  0
LINE
  5
3DC
100
AcDbEntity
  8
0
100
AcDbLine
 62
7
  6
CONTINUOUS
 10
8.8615982616
 20
-14.1972317287
 11
8.7617919245
 21
-13.4840159166
  0
LINE
  5
3DD
100
AcDbEntity
  8
0
100
AcDbLine
 62
250
  6
CONTINUOUS
 10
8.6720158465
 20
-13.2137335752
 11
8.8211238706
 21
-14.3477101026
  0
LINE
  5
3DE
100
AcDbEntity
  8
0
100
AcDbLine
 62
7
  6
CONTINUOUS
 10
8.7617919245
 20
-13.4840159166
 11
8.6751394693
 21
-12.8129256079
  0
LINE
  5
3DF
100
AcDbEntity
  8
0
100
AcDbLine
 62
7
  6
CONTINUOUS
 10
8.6751394693
 20
-12.8129256079
 11
8.5993597822
 21
-12.1688958014
  0
LWPOLYLINE
  5
3E0
100
AcDbEntity
  8
0
100
AcDbPolyline
 62
7
  6
CONTINUOUS
 90
10
 70
0
 10
9.1999555172
 20
26.8362205865
 10
9.1923562615
 20
26.9220853636
 10
9.1700532754
 20
27.0054673552
 10
9.1338238773
 20
27.0841234002
 10
9.0841935527
 20
27.1560735885
 10
9.0222378339
 20
27.2184178138
 10
8.9507038252
 20
27.2684443101
 10
8.8725123276
 20
27.3051102262
 10
8.7896470126
 20
27.327935482
 10
8.7043354458
 20
27.3361949629
  0
LWPOLYLINE
  5
3E1
100
AcDbEntity
  8
0
100
AcDbPolyline
 62
7
  6
CONTINUOUS
 90
5
 70
0
 10
10.2248220817
 20
-22.1814856934
 10
10.2329009039
 20
-22.0935061474
 10
10.2331274721
 20
-22.0055306107
 10
10.2255760329
 20
-21.9176247017
 10
10.2165447114
 20
-21.8610362034
  0
LWPOLYLINE
  5
3E2
100
AcDbEntity
  8
0
100
AcDbPolyline
 62
7
  6
CONTINUOUS
 90
10
 70
0
 10
10.2248231282
 20
-22.1814858659
 10
10.0898097798
 20
-23.0569596622
 10
9.9256855738
 20
-23.9170745923
 10
9.7282101495
 20
-24.7848083986
 10
9.4868688989
 20
-25.6906921301
 10
9.2004536927
 20
-26.6212973303
 10
8.8856816994
 20
-27.519462759
 10
8.5492169063
 20
-28.3754904658
 10
8.1787750988
 20
-29.22462203
 10
7.7623590873
 20
-30.0879445366
  0
LINE
  5
3E3
100
AcDbEntity
  8
0
100
AcDbLine
 62
250
  6
CONTINUOUS
 10
10.027188537
 20
-21.1621198776
 11
9.8686059898
 21
-22.0833698618
  0
LWPOLYLINE
  5
3E4
100
AcDbEntity
  8
0
100
AcDbPolyline
 62
250
  6
CONTINUOUS
 90
10
 70
0
 10
9.6610335195
 20
-19.2630186564
 10
9.5044760888
 20
-20.0252029853
 10
9.3054444696
 20
-20.8090654155
 10
9.0722298324
 20
-21.6037391372
 10
8.8116840002
 20
-22.401154792
 10
8.524890281
 20
-23.2060432764
 10
8.2053827843
 20
-24.0374827561
 10
7.8497942098
 20
-24.899215024
 10
7.460195471
 20
-25.7785135016
 10
7.0356481324
 20
-26.66592522
  0
LWPOLYLINE
  5
3E5
100
AcDbEntity
  8
0
100
AcDbPolyline
 62
250
  6
CONTINUOUS
 90
9
 70
0
 10
9.8686059898
 20
-22.0833698618
 10
9.6684508945
 20
-23.0273971451
 10
9.4321142696
 20
-23.987195652
 10
9.1606114105
 20
-24.965419853
 10
8.8554333037
 20
-25.9568856437
 10
8.520453831
 20
-26.9458566464
 10
8.1561327558
 20
-27.925558787
 10
7.7570055669
 20
-28.8983897049
 10
7.3201644054
 20
-29.8527179837
  0
LINE
  5
3E6
100
AcDbEntity
  8
0
100
AcDbLine
 62
7
  6
CONTINUOUS
 10
8.9651005343
 20
-10.2696251753
 11
8.9341628221
 21
-10.3853452817
  0
LINE
  5
3E7
100
AcDbEntity
  8
0
100
AcDbLine
 62
7
  6
CONTINUOUS
 10
8.895043043
 20
-10.2693563774
 11
8.8641833492
 21
-10.3841663447
  0
LINE
  5
3E8
100
AcDbEntity
  8
0
100
AcDbLine
 62
7
  6
CONTINUOUS
 10
9.2011363196
 20
-10.983982178
 11
9.2051090318
 21
-10.9701094143
  0
LWPOLYLINE
  5
3E9
100
AcDbEntity
  8
0
100
AcDbPolyline
 62
250
  6
CONTINUOUS
 90
9
 70
0
 10
8.3982345162
 20
-9.8225722029
 10
8.3981092624
 20
-9.8228909658
 10
8.3971007333
 20
-9.8241721677
 10
8.3952698726
 20
-9.8254964994
 10
8.3926176139
 20
-9.8268628029
 10
8.3891479399
 20
-9.8282690668
 10
8.3848649516
 20
-9.8297139654
 10
8.3797705768
 20
-9.8311969743
 10
8.3738675928
 20
-9.8327171865
  0
LINE
  5
3EA
100
AcDbEntity
  8
0
100
AcDbLine
 62
7
  6
CONTINUOUS
 10
9.1163055392
 20
-14.5160413633
 11
9.1092296529
 21
-14.5310915945
  0
LWPOLYLINE
  5
3EB
100
AcDbEntity
  8
0
100
AcDbPolyline
 62
7
  6
CONTINUOUS
 90
3
 70
0
 10
8.9637464196
 20
-11.0225356489
 10
8.988882235
 20
-10.9744312915
 10
8.9963409889
 20
-10.9712451742
  0
LINE
  5
3EC
100
AcDbEntity
  8
0
100
AcDbLine
 62
7
  6
CONTINUOUS
 10
8.9254982813
 20
-10.2125490059
 11
8.895043043
 21
-10.2693563774
  0
LWPOLYLINE
  5
3ED
100
AcDbEntity
  8
0
100
AcDbPolyline
 62
7
  6
CONTINUOUS
 90
3
 70
0
 10
9.2182884067
 20
-10.2048601272
 10
9.2135462332
 20
-10.2107652161
 10
9.2006005671
 20
-10.2668224221
  0
LWPOLYLINE
  5
3EE
100
AcDbEntity
  8
0
100
AcDbPolyline
 62
7
  6
CONTINUOUS
 90
3
 70
0
 10
9.1482569162
 20
-10.2048601415
 10
9.1435114995
 20
-10.210765228
 10
9.1305569852
 20
-10.2668224986
  0
LINE
  5
3EF
100
AcDbEntity
  8
0
100
AcDbLine
 62
7
  6
CONTINUOUS
 10
9.2051090318
 20
-10.9701094143
 11
9.2066257354
 21
-10.9692588032
  0
LINE
  5
3F0
100
AcDbEntity
  8
0
100
AcDbLine
 62
7
  6
CONTINUOUS
 10
8.9378143129
 20
-10.2060235275
 11
8.9254982813
 21
-10.2125490059
  0
LWPOLYLINE
  5
3F1
100
AcDbEntity
  8
0
100
AcDbPolyline
 62
7
  6
CONTINUOUS
 90
3
 70
0
 10
9.0079951873
 20
-10.2058824996
 10
8.9956180533
 20
-10.2124248209
 10
8.9651005343
 20
-10.2696251753
  0
LINE
  5
3F2
100
AcDbEntity
  8
0
100
AcDbLine
 62
7
  6
CONTINUOUS
 10
9.1282185941
 20
14.89989
 11
9.1932880027
 21
14.89989
  0
LINE
  5
3F3
100
AcDbEntity
  8
0
100
AcDbLine
 62
7
  6
CONTINUOUS
 10
8.9727654956
 20
14.89989
 11
9.0379362208
 21
14.89989
  0
LINE
  5
3F4
100
AcDbEntity
  8
0
100
AcDbLine
 62
7
  6
CONTINUOUS
 10
-9.0852934064
 20
14.8999
 11
-9.1203335835
 21
14.8999
  0
LINE
  5
3F5
100
AcDbEntity
  8
0
100
AcDbLine
 62
7
  6
CONTINUOUS
 10
-9.0124482109
 20
14.89991
 11
-9.0475139521
 21
14.89991
  0
LINE
  5
3F6
100
AcDbEntity
  8
0
100
AcDbLine
 62
7
  6
CONTINUOUS
 10
-9.175359265
 20
14.89991
 11
-9.2103678862
 21
14.89991
  0
LINE
  5
3F7
100
AcDbEntity
  8
0
100
AcDbLine
 62
7
  6
CONTINUOUS
 10
-8.8361432637
 20
14.89992
 11
-8.944223829
 21
14.89991
  0
LINE
  5
3F8
100
AcDbEntity
  8
0
100
AcDbLine
 62
7
  6
CONTINUOUS
 10
-9.1652200921
 20
15.68657
 11
-9.20444351
 21
15.68657
  0
LINE
  5
3F9
100
AcDbEntity
  8
0
100
AcDbLine
 62
7
  6
CONTINUOUS
 10
-9.1500525646
 20
14.8999083331
 11
-9.155462643
 21
14.89991
  0
LWPOLYLINE
  5
3FA
100
AcDbEntity
  8
0
100
AcDbPolyline
 62
7
  6
CONTINUOUS
 90
9
 70
0
 10
-7.6179882225
 20
27.3048062439
 10
-7.6274815548
 20
27.314284345
 10
-7.637058246
 20
27.3224599511
 10
-7.6467182962
 20
27.3293330624
 10
-7.6564626485
 20
27.3348378978
 10
-7.6662903597
 20
27.3390402382
 10
-7.676198601
 20
27.3421374266
 10
-7.6861864292
 20
27.3441952439
 10
-7.6962547874
 20
27.3451479091
  0
LINE
  5
3FB
100
AcDbEntity
  8
0
100
AcDbLine
 62
7
  6
CONTINUOUS
 10
9.0790540317
 20
-15.2961409286
 11
9.0859772541
 21
-15.2862790084
  0
LWPOLYLINE
  5
3FC
100
AcDbEntity
  8
0
100
AcDbPolyline
 62
250
  6
CONTINUOUS
 90
10
 70
0
 10
-7.2699847774
 20
-29.8203617701
 10
-7.1981069309
 20
-29.7496024482
 10
-7.1342107566
 20
-29.6187707648
 10
-7.079881956
 20
-29.4330049117
 10
-7.0359106453
 20
-29.1993976239
 10
-7.0036005424
 20
-28.9219367419
 10
-6.9850546862
 20
-28.6001269928
 10
-6.9809675792
 20
-28.2371328245
 10
-6.9906210448
 20
-27.8404220022
 10
-7.0135460615
 20
-27.415323699
  0
LWPOLYLINE
  5
3FD
100
AcDbEntity
  8
0
100
AcDbPolyline
 62
250
  6
CONTINUOUS
 90
10
 70
0
 10
-7.2949957264
 20
-29.8360105514
 10
-7.292449182
 20
-29.8342035827
 10
-7.2898431466
 20
-29.8324162033
 10
-7.2871778575
 20
-29.8306481027
 10
-7.2844524438
 20
-29.8289013564
 10
-7.2816682473
 20
-29.8271732582
 10
-7.27882882
 20
-29.8254563091
 10
-7.2759354992
 20
-29.8237477782
 10
-7.2729874093
 20
-29.8220497139
 10
-7.2699847774
 20
-29.8203617701
  0
LINE
  5
3FE
100
AcDbEntity
  8
0
100
AcDbLine
 62
7
  6
CONTINUOUS
 10
8.9171620406
 20
-14.516041813
 11
8.9101397715
 21
-14.5208868457
  0
LWPOLYLINE
  5
3FF
100
AcDbEntity
  8
0
100
AcDbPolyline
 62
250
  6
CONTINUOUS
 90
10
 70
0
 10
-7.301394871
 20
-29.840108329
 10
-7.3007076492
 20
-29.8396342784
 10
-7.3000098383
 20
-29.8391742755
 10
-7.2993014448
 20
-29.838728317
 10
-7.298576306
 20
-29.8383088771
 10
-7.2978405985
 20
-29.8379034723
 10
-7.2971128339
 20
-29.8374746722
 10
-7.296399183
 20
-29.8370100092
 10
-7.2956934796
 20
-29.8365219667
 10
-7.2949957264
 20
-29.8360105514
  0
LINE
  5
400
100
AcDbEntity
  8
0
100
AcDbLine
 62
7
  6
CONTINUOUS
 10
-9.1740413665
 20
16.4466
 11
-9.1981131817
 21
16.4466
  0
LINE
  5
401
100
AcDbEntity
  8
0
100
AcDbLine
 62
7
  6
CONTINUOUS
 10
-8.9053242407
 20
16.5428126788
 11
-8.9404276435
 21
16.5428126788
  0
LINE
  5
402
100
AcDbEntity
  8
0
100
AcDbLine
 62
7
  6
CONTINUOUS
 10
8.8712710315
 20
18.90008
 11
8.9365080761
 21
18.90008
  0
LINE
  5
403
100
AcDbEntity
  8
0
100
AcDbLine
 62
7
  6
CONTINUOUS
 10
9.0576416794
 20
18.90008
 11
9.1227570475
 21
18.90008
  0
LINE
  5
404
100
AcDbEntity
  8
0
100
AcDbLine
 62
7
  6
CONTINUOUS
 10
-9.1960674289
 20
18.90008
 11
-9.2310688027
 21
18.90008
  0
LINE
  5
405
100
AcDbEntity
  8
0
100
AcDbLine
 62
7
  6
CONTINUOUS
 10
-8.940618563
 20
18.90009
 11
-9.0933482362
 21
18.90009
  0
LINE
  5
406
100
AcDbEntity
  8
0
100
AcDbLine
 62
7
  6
CONTINUOUS
 10
-9.138589187
 20
18.90009
 11
-9.1736106843
 21
18.90009
  0
LINE
  5
407
100
AcDbEntity
  8
0
100
AcDbLine
 62
7
  6
CONTINUOUS
 10
-9.0022467327
 20
16.4466
 11
-9.0475084343
 21
16.44661
  0
LINE
  5
408
100
AcDbEntity
  8
0
100
AcDbLine
 62
7
  6
CONTINUOUS
 10
-7.6108187756
 20
27.3006968547
 11
-7.6179882225
 21
27.3047935427
  0
LWPOLYLINE
  5
409
100
AcDbEntity
  8
0
100
AcDbPolyline
 62
7
  6
CONTINUOUS
 90
10
 70
0
 43
0.3500000006
 10
0.9642857051
 20
43.4999993591
 10
1.035714268
 20
43.3571415253
 10
1.035714268
 20
43.2857148743
 10
0.8928571422
 20
43.1428570404
 10
0.8214285793
 20
43.1428570404
 10
0.7500000165
 20
43.2142836914
 10
0.7500000165
 20
43.2857148743
 10
0.8214285793
 20
43.4285727081
 10
0.8928571422
 20
43.4999993591
 10
0.9642857051
 20
43.4999993591
  0
LWPOLYLINE
  5
40A
100
AcDbEntity
  8
0
100
AcDbPolyline
 62
7
  6
CONTINUOUS
 90
6
 70
0
 10
7.7623854768
 20
-30.087957893
 10
7.6924769646
 20
-30.2092885617
 10
7.6099786504
 20
-30.3222534465
 10
7.5159302704
 20
-30.4255550422
 10
7.4114564252
 20
-30.5181338878
 10
7.2978101973
 20
-30.59886292
  0
LWPOLYLINE
  5
40B
100
AcDbEntity
  8
0
100
AcDbPolyline
 62
250
  6
CONTINUOUS
 90
10
 70
0
 10
-7.3199288966
 20
-29.8538653814
 10
-7.3231937132
 20
-29.8558817444
 10
-7.3264551853
 20
-29.8578460023
 10
-7.3297134549
 20
-29.8597610565
 10
-7.3329693337
 20
-29.8616302653
 10
-7.3362223086
 20
-29.8634562967
 10
-7.3394705734
 20
-29.8652412276
 10
-7.3427136716
 20
-29.8669880163
 10
-7.3459524657
 20
-29.8687004047
 10
-7.3491871649
 20
-29.8703818395
  0
LINE
  5
40C
100
AcDbEntity
  8
0
100
AcDbLine
 62
250
  6
CONTINUOUS
 10
-7.7243569574
 20
-30.0674764857
 11
-7.7345066163
 21
-30.073253804
  0
LWPOLYLINE
  5
40D
100
AcDbEntity
  8
0
100
AcDbPolyline
 62
250
  6
CONTINUOUS
 90
5
 70
0
 10
-7.7345066163
 20
-30.073253804
 10
-7.7363440998
 20
-30.0742907779
 10
-7.7381206576
 20
-30.0752828607
 10
-7.7398376674
 20
-30.0762277715
 10
-7.7414964961
 20
-30.0771232406
  0
LWPOLYLINE
  5
40E
100
AcDbEntity
  8
0
100
AcDbPolyline
 62
250
  6
CONTINUOUS
 90
4
 70
0
 10
-7.489050349
 20
-29.9455494332
 10
-7.5097118441
 20
-29.9571574396
 10
-7.5298492886
 20
-29.9679125991
 10
-7.5496001049
 20
-29.977582179
  0
LINE
  5
40F
100
AcDbEntity
  8
0
100
AcDbLine
 62
250
  6
CONTINUOUS
 10
-7.7215328612
 20
-30.0658871166
 11
-7.7243569574
 21
-30.0674764857
  0
LWPOLYLINE
  5
410
100
AcDbEntity
  8
0
100
AcDbPolyline
 62
250
  6
CONTINUOUS
 90
4
 70
0
 10
-7.6424091645
 20
-30.0242800915
 10
-7.6531765259
 20
-30.0302845217
 10
-7.6635441933
 20
-30.0358584007
 10
-7.6734869901
 20
-30.0410410089
  0
LINE
  5
411
100
AcDbEntity
  8
0
100
AcDbLine
 62
250
  6
CONTINUOUS
 10
-7.718602713
 20
-30.0642571834
 11
-7.7215328612
 21
-30.0658871166
  0
LWPOLYLINE
  5
412
100
AcDbEntity
  8
0
100
AcDbPolyline
 62
250
  6
CONTINUOUS
 90
10
 70
0
 10
-7.3201644054
 20
-29.8527179837
 10
-7.3180187575
 20
-29.8515375184
 10
-7.3158873841
 20
-29.8503310907
 10
-7.3137706179
 20
-29.8490858398
 10
-7.3116687963
 20
-29.8477888032
 10
-7.3095822431
 20
-29.8464274562
 10
-7.3075112692
 20
-29.844989723
 10
-7.3054561983
 20
-29.8434632586
 10
-7.3034173416
 20
-29.8418369743
 10
-7.301394871
 20
-29.840108329
  0
LINE
  5
413
100
AcDbEntity
  8
0
100
AcDbLine
 62
250
  6
CONTINUOUS
 10
-7.7598242286
 20
-30.0860876134
 11
-7.7621309391
 21
-30.0873505424
  0
LINE
  5
414
100
AcDbEntity
  8
0
100
AcDbLine
 62
250
  6
CONTINUOUS
 10
-7.7155644003
 20
-30.0625916979
 11
-7.718602713
 21
-30.0642571834
  0
LINE
  5
415
100
AcDbEntity
  8
0
100
AcDbLine
 62
250
  6
CONTINUOUS
 10
-7.7124157438
 20
-30.060895595
 11
-7.7155644003
 21
-30.0625916979
  0
LINE
  5
416
100
AcDbEntity
  8
0
100
AcDbLine
 62
250
  6
CONTINUOUS
 10
-7.7592423517
 20
-30.0857811071
 11
-7.7598242286
 21
-30.0860876134
  0
LINE
  5
417
100
AcDbEntity
  8
0
100
AcDbLine
 62
250
  6
CONTINUOUS
 10
-7.709162907
 20
-30.0591768525
 11
-7.7124157438
 21
-30.060895595
  0
LWPOLYLINE
  5
418
100
AcDbEntity
  8
0
100
AcDbPolyline
 62
250
  6
CONTINUOUS
 90
6
 70
0
 10
-7.7414964961
 20
-30.0771232406
 10
-7.7437888423
 20
-30.0783258145
 10
-7.7459654015
 20
-30.0794305991
 10
-7.7480222449
 20
-30.0804439423
 10
-7.7499554643
 20
-30.0813722661
 10
-7.7517610219
 20
-30.0822219946
  0
LINE
  5
419
100
AcDbEntity
  8
0
100
AcDbLine
 62
250
  6
CONTINUOUS
 10
-7.7065302353
 20
-30.0578067956
 11
-7.709162907
 21
-30.0591768525
  0
LINE
  5
41A
100
AcDbEntity
  8
0
100
AcDbLine
 62
250
  6
CONTINUOUS
 10
-7.7010517083
 20
-30.0549985763
 11
-7.7065302353
 21
-30.0578067956
  0
LINE
  5
41B
100
AcDbEntity
  8
0
100
AcDbLine
 62
250
  6
CONTINUOUS
 10
-7.6734869901
 20
-30.0410410089
 11
-7.6861537117
 21
-30.0474830054
  0
LINE
  5
41C
100
AcDbEntity
  8
0
100
AcDbLine
 62
250
  6
CONTINUOUS
 10
-7.7576250135
 20
-30.0849653113
 11
-7.7592423517
 21
-30.0857811071
  0
LINE
  5
41D
100
AcDbEntity
  8
0
100
AcDbLine
 62
250
  6
CONTINUOUS
 10
-7.6861537117
 20
-30.0474830054
 11
-7.7010517083
 21
-30.0549985763
  0
LWPOLYLINE
  5
41E
100
AcDbEntity
  8
0
100
AcDbPolyline
 62
250
  6
CONTINUOUS
 90
6
 70
0
 10
-7.3491871649
 20
-29.8703818395
 10
-7.3743549979
 20
-29.8828686574
 10
-7.3988506764
 20
-29.8951620294
 10
-7.4226694724
 20
-29.9078760113
 10
-7.445663547
 20
-29.9206983058
 10
-7.489050349
 20
-29.9455494332
  0
LWPOLYLINE
  5
41F
100
AcDbEntity
  8
0
100
AcDbPolyline
 62
250
  6
CONTINUOUS
 90
5
 70
0
 10
-7.5810253031
 20
-29.9914972179
 10
-7.5945115338
 20
-29.9979635615
 10
-7.6073322537
 20
-30.0046101891
 10
-7.6195474928
 20
-30.0113030052
 10
-7.6424091645
 20
-30.0242800915
  0
LINE
  5
420
100
AcDbEntity
  8
0
100
AcDbLine
 62
250
  6
CONTINUOUS
 10
-7.7563708034
 20
-30.0843645803
 11
-7.7576250135
 21
-30.0849653113
  0
LINE
  5
421
100
AcDbEntity
  8
0
100
AcDbLine
 62
250
  6
CONTINUOUS
 10
-7.7517610219
 20
-30.0822219946
 11
-7.7563708034
 21
-30.0843645803
  0
LWPOLYLINE
  5
422
100
AcDbEntity
  8
0
100
AcDbPolyline
 62
250
  6
CONTINUOUS
 90
3
 70
0
 10
-7.5496001049
 20
-29.977582179
 10
-7.5531780712
 20
-29.9792146857
 10
-7.5567431954
 20
-29.9808094189
  0
LWPOLYLINE
  5
423
100
AcDbEntity
  8
0
100
AcDbPolyline
 62
250
  6
CONTINUOUS
 90
3
 70
0
 10
-7.5742455058
 20
-29.9884587188
 10
-7.577654982
 20
-29.9899724703
 10
-7.5810253031
 20
-29.9914972179
  0
LWPOLYLINE
  5
424
100
AcDbEntity
  8
0
100
AcDbPolyline
 62
250
  6
CONTINUOUS
 90
3
 70
0
 10
-7.5567431954
 20
-29.9808094189
 10
-7.5638200247
 20
-29.9839131816
 10
-7.5742455058
 20
-29.9884587188
  0
LINE
  5
425
100
AcDbEntity
  8
0
100
AcDbLine
 62
7
  6
CONTINUOUS
 10
8.737738544
 20
26.8408688143
 11
8.8000113065
 21
26.8449844356
  0
LWPOLYLINE
  5
426
100
AcDbEntity
  8
0
100
AcDbPolyline
 62
250
  6
CONTINUOUS
 90
5
 70
0
 10
7.5446824926
 20
27.2307551884
 10
7.6036576222
 20
27.1680530643
 10
7.6507479982
 20
27.096332061
 10
7.6849032499
 20
27.0181610617
 10
7.70576535
 20
26.9351768982
  0
LWPOLYLINE
  5
427
100
AcDbEntity
  8
0
100
AcDbPolyline
 62
7
  6
CONTINUOUS
 90
5
 70
0
 10
7.2978101973
 20
-30.59886292
 10
7.1763146111
 20
-30.6668756472
 10
7.0484877462
 20
-30.7214618042
 10
6.9157344131
 20
-30.7620193765
 10
6.779071758
 20
-30.7882181227
  0
LWPOLYLINE
  5
428
100
AcDbEntity
  8
0
100
AcDbPolyline
 62
250
  6
CONTINUOUS
 90
10
 70
0
 10
7.0131904819
 20
-27.4106274591
 10
6.9409150475
 20
-27.4430672201
 10
6.8574398573
 20
-27.4716805327
 10
6.7636781173
 20
-27.4962103531
 10
6.6604488839
 20
-27.5164153706
 10
6.5487733916
 20
-27.5320119811
 10
6.4300816773
 20
-27.5428011743
 10
6.3057717221
 20
-27.5487322448
 10
6.1770031737
 20
-27.5497760532
 10
6.0450333095
 20
-27.5458909447
  0
LWPOLYLINE
  5
429
100
AcDbEntity
  8
0
100
AcDbPolyline
 62
250
  6
CONTINUOUS
 90
10
 70
0
 10
7.0351310469
 20
-26.8208886224
 10
6.9615615125
 20
-26.8530913547
 10
6.8781665827
 20
-26.8811255931
 10
6.7852571667
 20
-26.9057465845
 10
6.6841457102
 20
-26.9272445507
 10
6.5760054039
 20
-26.945598772
 10
6.4615358503
 20
-26.9604324808
 10
6.3416054307
 20
-26.971199771
 10
6.2171591203
 20
-26.9776517323
 10
6.0890929251
 20
-26.9797021693
  0
LINE
  5
42A
100
AcDbEntity
  8
0
100
AcDbLine
 62
250
  6
CONTINUOUS
 10
-6.5338984957
 20
-30.6966557532
 11
-6.360045161
 21
-30.6300662258
  0
LINE
  5
42B
100
AcDbEntity
  8
0
100
AcDbLine
 62
250
  6
CONTINUOUS
 10
-6.360045161
 20
-30.6300662258
 11
-6.2569483885
 21
-30.5911629451
  0
LINE
  5
42C
100
AcDbEntity
  8
0
100
AcDbLine
 62
250
  6
CONTINUOUS
 10
-8.8199016061
 20
26.840010428
 11
-8.7998415603
 21
26.8450474525
  0
LWPOLYLINE
  5
42D
100
AcDbEntity
  8
0
100
AcDbPolyline
 62
7
  6
CONTINUOUS
 90
4
 70
0
 10
-7.543880209
 20
27.3094100367
 10
-7.5735431913
 20
27.3023169924
 10
-7.5959586266
 20
27.2998713379
 10
-7.6108187756
 20
27.3006968547
  0
LWPOLYLINE
  5
42E
100
AcDbEntity
  8
0
100
AcDbPolyline
 62
250
  6
CONTINUOUS
 90
3
 70
0
 10
-8.3434887558
 20
27.3394088183
 10
-8.4194872497
 20
27.3295537124
 10
-8.4949773542
 20
27.3074013802
  0
LINE
  5
42F
100
AcDbEntity
  8
0
100
AcDbLine
 62
7
  6
CONTINUOUS
 10
-7.4223409265
 20
27.3402448094
 11
-7.3726572533
 21
27.3466445594
  0
LINE
  5
430
100
AcDbEntity
  8
0
100
AcDbLine
 62
250
  6
CONTINUOUS
 10
-7.2404015341
 20
27.3492110764
 11
-7.3229491812
 21
27.3409422503
  0
LINE
  5
431
100
AcDbEntity
  8
0
100
AcDbLine
 62
7
  6
CONTINUOUS
 10
8.3877123838
 20
26.8279584112
 11
8.737738544
 21
26.8408688143
  0
LINE
  5
432
100
AcDbEntity
  8
0
100
AcDbLine
 62
7
  6
CONTINUOUS
 10
-7.3726572533
 20
27.3466445594
 11
-7.3212343582
 21
27.3483551756
  0
LINE
  5
433
100
AcDbEntity
  8
0
100
AcDbLine
 62
250
  6
CONTINUOUS
 10
-9.1952717781
 20
26.8363440467
 11
-9.1999937696
 21
26.8362207203
  0
LWPOLYLINE
  5
434
100
AcDbEntity
  8
0
100
AcDbPolyline
 62
7
  6
CONTINUOUS
 90
10
 70
0
 10
7.7005885459
 20
27.3453518876
 10
7.6966718193
 20
27.3452735256
 10
7.6866469544
 20
27.3443135631
 10
7.676674823
 20
27.3422614337
 10
7.6667539884
 20
27.3391988723
 10
7.6568858872
 20
27.3350441441
 10
7.6470748291
 20
27.3295520446
 10
7.6373222505
 20
27.322640839
 10
7.627626715
 20
27.3143922621
 10
7.6179882225
 20
27.3048063138
  0
LINE
  5
435
100
AcDbEntity
  8
0
100
AcDbLine
 62
250
  6
CONTINUOUS
 10
-9.0816223809
 20
26.8375898616
 11
-9.1952717781
 21
26.8363440467
  0
LINE
  5
436
100
AcDbEntity
  8
0
100
AcDbLine
 62
250
  6
CONTINUOUS
 10
-8.8199016061
 20
26.840010428
 11
-9.0816223809
 21
26.8375898616
  0
LINE
  5
437
100
AcDbEntity
  8
0
100
AcDbLine
 62
7
  6
CONTINUOUS
 10
0.0
 20
27.4123971046
 11
-7.3210538936
 21
27.3485072352
  0
LINE
  5
438
100
AcDbEntity
  8
0
100
AcDbLine
 62
7
  6
CONTINUOUS
 10
-6.6470380433
 20
26.8549503215
 11
0.0
 21
26.9123780654
  0
LINE
  5
439
100
AcDbEntity
  8
0
100
AcDbLine
 62
7
  6
CONTINUOUS
 10
-7.7005886041
 20
27.3452302148
 11
-8.7043375444
 21
27.3364355017
  0
LINE
  5
43A
100
AcDbEntity
  8
0
100
AcDbLine
 62
250
  6
CONTINUOUS
 10
-7.7128009203
 20
26.8492267697
 11
-6.6470380445
 21
26.8549503215
  0
LINE
  5
43B
100
AcDbEntity
  8
0
100
AcDbLine
 62
7
  6
CONTINUOUS
 10
-7.7128009189
 20
26.8462300829
 11
-8.7993127461
 21
26.8449415578
  0
LINE
  5
43C
100
AcDbEntity
  8
0
100
AcDbLine
 62
7
  6
CONTINUOUS
 10
8.2598818479
 20
26.8278555628
 11
8.3877123838
 21
26.8279584112
  0
LINE
  5
43D
100
AcDbEntity
  8
0
100
AcDbLine
 62
7
  6
CONTINUOUS
 10
-6.1922237328
 20
27.4
 11
-1.4205674843
 21
27.4
  0
LINE
  5
43E
100
AcDbEntity
  8
0
100
AcDbLine
 62
7
  6
CONTINUOUS
 10
1.4205674843
 20
27.4
 11
6.1960968478
 21
27.4000402266
  0
LINE
  5
43F
100
AcDbEntity
  8
0
100
AcDbLine
 62
7
  6
CONTINUOUS
 10
6.2000991795
 20
27.4
 11
7.8476028954
 21
27.4
  0
LINE
  5
440
100
AcDbEntity
  8
0
100
AcDbLine
 62
7
  6
CONTINUOUS
 10
-6.2000991795
 20
27.4
 11
-7.8476028954
 21
27.4
  0
LINE
  5
441
100
AcDbEntity
  8
0
100
AcDbLine
 62
7
  6
CONTINUOUS
 10
4.050244
 20
27.48
 11
5.4911649985
 21
27.48
  0
LINE
  5
442
100
AcDbEntity
  8
0
100
AcDbLine
 62
250
  6
CONTINUOUS
 10
7.7128009203
 20
26.8492267697
 11
6.6470380445
 21
26.8549503215
  0
LINE
  5
443
100
AcDbEntity
  8
0
100
AcDbLine
 62
7
  6
CONTINUOUS
 10
6.6470380433
 20
26.8549503215
 11
-0.0
 21
26.9123780654
  0
LINE
  5
444
100
AcDbEntity
  8
0
100
AcDbLine
 62
7
  6
CONTINUOUS
 10
8.7043375444
 20
27.3364355017
 11
7.7005885453
 21
27.3452302153
  0
LINE
  5
445
100
AcDbEntity
  8
0
100
AcDbLine
 62
7
  6
CONTINUOUS
 10
0.0
 20
27.4123971046
 11
7.3210538936
 21
27.3485072352
  0
LWPOLYLINE
  5
446
100
AcDbEntity
  8
0
100
AcDbPolyline
 62
250
  6
CONTINUOUS
 90
3
 70
0
 10
8.8547685739
 20
26.840010428
 10
9.2162280982
 20
26.8365404848
 10
9.2303093746
 20
26.8363433322
  0
LINE
  5
447
100
AcDbEntity
  8
0
100
AcDbLine
 62
7
  6
CONTINUOUS
 10
-7.6962547874
 20
27.3451479091
 11
-7.7005886037
 21
27.3452179245
  0
LINE
  5
448
100
AcDbEntity
  8
0
100
AcDbLine
 62
7
  6
CONTINUOUS
 10
-8.3387295606
 20
27.3397771795
 11
-8.3374597987
 21
27.3397524413
  0
LINE
  5
449
100
AcDbEntity
  8
0
100
AcDbLine
 62
7
  6
CONTINUOUS
 10
8.1070504706
 20
26.8312393473
 11
8.2598818479
 21
26.8278555628
  0
LINE
  5
44A
100
AcDbEntity
  8
0
100
AcDbLine
 62
250
  6
CONTINUOUS
 10
9.2303093746
 20
26.8363433322
 11
9.2349937696
 21
26.8362207203
  0
LWPOLYLINE
  5
44B
100
AcDbEntity
  8
0
100
AcDbPolyline
 62
7
  6
CONTINUOUS
 90
5
 70
0
 10
7.3212343582
 20
27.3483551756
 10
7.3726572571
 20
27.3466445591
 10
7.422340929
 20
27.340244809
 10
7.4699973812
 20
27.32965093
 10
7.502368739
 20
27.3198725873
  0
LINE
  5
44C
100
AcDbEntity
  8
0
100
AcDbLine
 62
7
  6
CONTINUOUS
 10
7.9251357254
 20
26.8373641873
 11
8.1070504706
 21
26.8312393473
  0
LINE
  5
44D
100
AcDbEntity
  8
0
100
AcDbLine
 62
7
  6
CONTINUOUS
 10
7.7128009189
 20
26.8462300829
 11
7.9251357254
 21
26.8373641873
  0
LWPOLYLINE
  5
44E
100
AcDbEntity
  8
0
100
AcDbPolyline
 62
250
  6
CONTINUOUS
 90
5
 70
0
 10
7.2404015341
 20
27.3492110764
 10
7.3229491812
 20
27.3409422503
 10
7.4023450741
 20
27.3180287443
 10
7.4768175558
 20
27.2811180243
 10
7.5446824926
 20
27.2307551884
  0
LWPOLYLINE
  5
44F
100
AcDbEntity
  8
0
100
AcDbPolyline
 62
250
  6
CONTINUOUS
 90
10
 70
0
 10
8.3434887558
 20
27.3394088183
 10
8.4194867882
 20
27.3295538149
 10
8.4949766395
 20
27.3074016713
 10
8.5679760461
 20
27.2727309221
 10
8.6365981469
 20
27.2251091505
 10
8.6976554678
 20
27.1648067245
 10
8.7477578644
 20
27.0939408284
 10
8.785207377
 20
27.0149862594
 10
8.8088405691
 20
26.9296150468
 10
8.8170768808
 20
26.8400307975
  0
LINE
  5
450
100
AcDbEntity
  8
0
100
AcDbLine
 62
250
  6
CONTINUOUS
 10
8.8547685739
 20
26.840010428
 11
8.8353999413
 21
26.8448551583
  0
LINE
  5
451
100
AcDbEntity
  8
0
100
AcDbLine
 62
7
  6
CONTINUOUS
 10
7.54327127
 20
27.309480016
 11
7.5132194474
 21
27.318166323
  0
LWPOLYLINE
  5
452
100
AcDbEntity
  8
0
100
AcDbPolyline
 62
7
  6
CONTINUOUS
 90
3
 70
0
 10
7.5129743873
 20
27.3166592818
 10
7.5037756833
 20
27.3194285641
 10
7.5023757332
 20
27.3198893674
  0
LWPOLYLINE
  5
453
100
AcDbEntity
  8
0
100
AcDbPolyline
 62
7
  6
CONTINUOUS
 90
3
 70
0
 10
7.502368739
 20
27.3198725873
 10
7.5153759712
 20
27.315330344
 10
7.5582616879
 20
27.2977232895
  0
LINE
  5
454
100
AcDbEntity
  8
0
100
AcDbLine
 62
7
  6
CONTINUOUS
 10
7.5582616879
 20
27.2977232895
 11
7.598473586
 21
27.2772433135
  0
LWPOLYLINE
  5
455
100
AcDbEntity
  8
0
100
AcDbPolyline
 62
7
  6
CONTINUOUS
 90
7
 70
0
 43
0.3500000006
 10
-2.8928572569
 20
42.9999992065
 10
-4.3928571482
 20
42.9999992065
 10
-2.8928572569
 20
45.1428576508
 10
-2.8928572569
 20
45.5714266205
 10
-3.3214284925
 20
46.0000001221
 10
-3.9642856293
 20
46.0000001221
 10
-4.3928571482
 20
45.3571421356
  0
LWPOLYLINE
  5
456
100
AcDbEntity
  8
0
100
AcDbPolyline
 62
7
  6
CONTINUOUS
 90
3
 70
0
 43
0.3500000006
 10
3.5357143936
 20
43.642857193
 10
2.0357142191
 20
43.642857193
 10
2.6785713558
 20
46.0000001221
  0
LWPOLYLINE
  5
457
100
AcDbEntity
  8
0
100
AcDbPolyline
 62
7
  6
CONTINUOUS
 90
5
 70
0
 43
0.3500000006
 10
-51.2089705811
 20
44.7142841492
 10
-50.8518282623
 20
44.9285731659
 10
-50.8518282623
 20
45.5714266205
 10
-51.2089705811
 20
46.0000001221
 10
-52.0661130524
 20
46.0000001221
  0
LWPOLYLINE
  5
458
100
AcDbEntity
  8
0
100
AcDbPolyline
 62
7
  6
CONTINUOUS
 90
4
 70
0
 10
-42.5593482376
 20
-32.74993953
 10
-42.5758284438
 20
-32.7539138845
 10
-42.5925235031
 20
-32.7614378275
 10
-42.6093850692
 20
-32.7724796994
  0
LWPOLYLINE
  5
459
100
AcDbEntity
  8
0
100
AcDbPolyline
 62
7
  6
CONTINUOUS
 90
4
 70
0
 10
-42.559339599
 20
-32.7501036628
 10
-42.4234635638
 20
-32.7349613164
 10
-42.2971540511
 20
-32.699202777
 10
-42.1804110609
 20
-32.6428280446
  0
LINE
  5
45A
100
AcDbEntity
  8
0
100
AcDbLine
 62
7
  6
CONTINUOUS
 10
-52.7810241069
 20
-32.7509465022
 11
-52.9419688411
 21
-32.7530535373
  0
LINE
  5
45B
100
AcDbEntity
  8
0
100
AcDbLine
 62
7
  6
CONTINUOUS
 10
-52.5032731369
 20
-32.7502073256
 11
-52.7810241069
 21
-32.7509465022
  0
LINE
  5
45C
100
AcDbEntity
  8
0
100
AcDbLine
 62
7
  6
CONTINUOUS
 10
-43.4803976865
 20
-34.25
 11
-52.0803976865
 21
-34.25
  0
LINE
  5
45D
100
AcDbEntity
  8
0
100
AcDbLine
 62
250
  6
CONTINUOUS
 10
-42.6803976865
 20
-33.45
 11
-52.8803976865
 21
-33.45
  0
LINE
  5
45E
100
AcDbEntity
  8
0
100
AcDbLine
 62
250
  6
CONTINUOUS
 10
-52.8803976865
 20
-32.9
 11
-42.6803976865
 21
-32.9
  0
LINE
  5
45F
100
AcDbEntity
  8
0
100
AcDbLine
 62
7
  6
CONTINUOUS
 10
-51.0485384684
 20
-32.7502073256
 11
-52.5032731369
 21
-32.7502073256
  0
LINE
  5
460
100
AcDbEntity
  8
0
100
AcDbLine
 62
7
  6
CONTINUOUS
 10
-43.0573893439
 20
-32.7502073256
 11
-51.0485384684
 21
-32.7502073256
  0
LINE
  5
461
100
AcDbEntity
  8
0
100
AcDbLine
 62
7
  6
CONTINUOUS
 10
-42.7797060883
 20
-32.7509465022
 11
-43.0573893439
 21
-32.7502073256
  0
LWPOLYLINE
  5
462
100
AcDbEntity
  8
0
100
AcDbPolyline
 62
250
  6
CONTINUOUS
 90
9
 70
0
 10
-62.6894330623
 20
27.3492110764
 10
-62.7151809087
 20
27.3409422503
 10
-62.7400300257
 20
27.3180287443
 10
-62.763476453
 20
27.2811180243
 10
-62.7851301971
 20
27.2307551884
 10
-62.8042327663
 20
27.1680530643
 10
-62.8195633152
 20
27.096332061
 10
-62.8306736778
 20
27.0181610617
 10
-62.8375369045
 20
26.9351768982
  0
LWPOLYLINE
  5
463
100
AcDbEntity
  8
0
100
AcDbPolyline
 62
250
  6
CONTINUOUS
 90
10
 70
0
 10
-39.6967089541
 20
-29.8203617701
 10
-39.1779693289
 20
-29.7496024482
 10
-38.686647304
 20
-29.6187707648
 10
-38.2273352443
 20
-29.4330049117
 10
-37.8045090875
 20
-29.1993976239
 10
-37.4204188171
 20
-28.9219367419
 10
-37.0760377
 20
-28.6001269928
 10
-36.7734195526
 20
-28.2371328245
 10
-36.5149039338
 20
-27.8404220022
 10
-36.3014794268
 20
-27.415323699
  0
LINE
  5
464
100
AcDbEntity
  8
0
100
AcDbLine
 62
7
  6
CONTINUOUS
 10
-52.9419688411
 20
-32.7530535373
 11
-52.9829635216
 21
-32.7576975053
  0
LWPOLYLINE
  5
465
100
AcDbEntity
  8
0
100
AcDbPolyline
 62
7
  6
CONTINUOUS
 90
22
 70
0
 10
-39.5511989125
 20
-30.9672955746
 10
-39.2917930224
 20
-30.9423010091
 10
-39.0354760703
 20
-30.903630105
 10
-38.782248056
 20
-30.8512828624
 10
-38.5313492513
 20
-30.785024642
 10
-38.2835393845
 20
-30.7050900831
 10
-38.0410976406
 20
-30.6121831029
 10
-37.804112683
 20
-30.5061989466
 10
-37.5724958482
 20
-30.387242369
 10
-37.3482603304
 20
-30.256331553
 10
-37.1314508653
 20
-30.1133443615
 10
-36.9220227171
 20
-29.9584029316
 10
-36.7218548723
 20
-29.7928918566
 10
-36.5310518767
 20
-29.6167346213
 10
-36.3495091845
 20
-29.4300077411
 10
-36.1787921448
 20
-29.2343253556
 10
-36.0189836054
 20
-29.0296003781
 10
-35.8700007186
 20
-28.8159198954
 10
-35.7331602905
 20
-28.5951593073
 10
-35.6089012566
 20
-28.3679437471
 10
-35.4967846815
 20
-28.1336480816
 10
-35.396810565
 20
-27.8922723107
  0
LINE
  5
466
100
AcDbEntity
  8
0
100
AcDbLine
 62
250
  6
CONTINUOUS
 10
-39.8926586611
 20
-29.8361107035
 11
-39.7813160681
 21
-29.8270132327
  0
LINE
  5
467
100
AcDbEntity
  8
0
100
AcDbLine
 62
250
  6
CONTINUOUS
 10
-39.7813160681
 20
-29.8270132327
 11
-39.6967089541
 21
-29.8203617701
  0
LWPOLYLINE
  5
468
100
AcDbEntity
  8
0
100
AcDbPolyline
 62
250
  6
CONTINUOUS
 90
5
 70
0
 10
-40.0187433713
 20
-29.8464860965
 10
-39.9992782731
 20
-29.844989723
 10
-39.9783623954
 20
-29.8432725893
 10
-39.9563707727
 20
-29.8413365736
 10
-39.9333058943
 20
-29.8391637682
  0
LINE
  5
469
100
AcDbEntity
  8
0
100
AcDbLine
 62
250
  6
CONTINUOUS
 10
-39.9333058943
 20
-29.8391637682
 11
-39.8926586611
 21
-29.8361107035
  0
LINE
  5
46A
100
AcDbEntity
  8
0
100
AcDbLine
 62
250
  6
CONTINUOUS
 10
-53.572499363
 20
-31.2747688943
 11
-53.7685911801
 21
-31.2894102957
  0
LWPOLYLINE
  5
46B
100
AcDbEntity
  8
0
100
AcDbPolyline
 62
250
  6
CONTINUOUS
 90
4
 70
0
 10
-53.62447031
 20
-31.0660683637
 10
-53.8526111979
 20
-31.0820146542
 10
-53.9227202813
 20
-31.0865553101
 10
-53.9618773976
 20
-31.0892845354
  0
LINE
  5
46C
100
AcDbEntity
  8
0
100
AcDbLine
 62
250
  6
CONTINUOUS
 10
-40.0555386095
 20
-29.8490858398
 11
-40.0187433713
 21
-29.8464860965
  0
LINE
  5
46D
100
AcDbEntity
  8
0
100
AcDbLine
 62
250
  6
CONTINUOUS
 10
-53.2847509528
 20
-31.254648155
 11
-53.572499363
 21
-31.2747688943
  0
LINE
  5
46E
100
AcDbEntity
  8
0
100
AcDbLine
 62
250
  6
CONTINUOUS
 10
-40.1129940396
 20
-29.8538653814
 11
-40.1999597938
 21
-29.8597610565
  0
LINE
  5
46F
100
AcDbEntity
  8
0
100
AcDbLine
 62
250
  6
CONTINUOUS
 10
-53.2501761511
 20
-31.0417613638
 11
-53.62447031
 21
-31.0660683637
  0
LINE
  5
470
100
AcDbEntity
  8
0
100
AcDbLine
 62
250
  6
CONTINUOUS
 10
-53.7685911801
 20
-31.2894102957
 11
-53.7803976865
 21
-31.2901485295
  0
LINE
  5
471
100
AcDbEntity
  8
0
100
AcDbLine
 62
250
  6
CONTINUOUS
 10
-40.1120550727
 20
-29.8527179837
 11
-40.0555386095
 21
-29.8490858398
  0
LINE
  5
472
100
AcDbEntity
  8
0
100
AcDbLine
 62
250
  6
CONTINUOUS
 10
-40.1999597938
 20
-29.8597610565
 11
-40.3162379853
 21
-29.8669880163
  0
LINE
  5
473
100
AcDbEntity
  8
0
100
AcDbLine
 62
250
  6
CONTINUOUS
 10
-40.3162379853
 20
-29.8669880163
 11
-40.3745406517
 21
-29.8703818395
  0
LINE
  5
474
100
AcDbEntity
  8
0
100
AcDbLine
 62
250
  6
CONTINUOUS
 10
-40.3745406517
 20
-29.8703818395
 11
-41.538350085
 21
-29.9333260748
  0
LWPOLYLINE
  5
475
100
AcDbEntity
  8
0
100
AcDbPolyline
 62
250
  6
CONTINUOUS
 90
4
 70
0
 10
-41.538350085
 20
-29.9333260748
 10
-41.7738759872
 20
-29.9455494332
 10
-42.010590917
 20
-29.9571574396
 10
-42.2484554944
 20
-29.9679125991
  0
LINE
  5
476
100
AcDbEntity
  8
0
100
AcDbLine
 62
250
  6
CONTINUOUS
 10
-42.2484554944
 20
-29.9679125991
 11
-42.5754034317
 21
-29.9808094189
  0
LINE
  5
477
100
AcDbEntity
  8
0
100
AcDbLine
 62
7
  6
CONTINUOUS
 10
-42.9929389755
 20
-29.995345949
 11
-43.3811683576
 21
-30.0094359912
  0
LINE
  5
478
100
AcDbEntity
  8
0
100
AcDbLine
 62
250
  6
CONTINUOUS
 10
-43.3811683576
 20
-30.0094359912
 11
-43.801144676
 21
-30.0242800915
  0
LINE
  5
479
100
AcDbEntity
  8
0
100
AcDbLine
 62
250
  6
CONTINUOUS
 10
-42.5754034317
 20
-29.9808094189
 11
-42.9929389755
 21
-29.995345949
  0
LINE
  5
47A
100
AcDbEntity
  8
0
100
AcDbLine
 62
250
  6
CONTINUOUS
 10
-43.801144676
 20
-30.0242800915
 11
-44.17202553
 21
-30.0358584007
  0
LINE
  5
47B
100
AcDbEntity
  8
0
100
AcDbLine
 62
250
  6
CONTINUOUS
 10
-44.17202553
 20
-30.0358584007
 11
-44.5451166322
 21
-30.0458780384
  0
LINE
  5
47C
100
AcDbEntity
  8
0
100
AcDbLine
 62
250
  6
CONTINUOUS
 10
-44.5451166322
 20
-30.0458780384
 11
-44.9337419057
 21
-30.0549985763
  0
LINE
  5
47D
100
AcDbEntity
  8
0
100
AcDbLine
 62
250
  6
CONTINUOUS
 10
-44.9337419057
 20
-30.0549985763
 11
-45.3752226028
 21
-30.0642723286
  0
LINE
  5
47E
100
AcDbEntity
  8
0
100
AcDbLine
 62
250
  6
CONTINUOUS
 10
-45.3752226028
 20
-30.0642723286
 11
-45.7364435428
 21
-30.0710543915
  0
LINE
  5
47F
100
AcDbEntity
  8
0
100
AcDbLine
 62
250
  6
CONTINUOUS
 10
-45.7364435428
 20
-30.0710543915
 11
-46.0630148709
 21
-30.0762277715
  0
LINE
  5
480
100
AcDbEntity
  8
0
100
AcDbLine
 62
250
  6
CONTINUOUS
 10
-46.0630148709
 20
-30.0762277715
 11
-46.3160713248
 21
-30.0794305991
  0
LINE
  5
481
100
AcDbEntity
  8
0
100
AcDbLine
 62
250
  6
CONTINUOUS
 10
-46.3160713248
 20
-30.0794305991
 11
-46.6934002011
 21
-30.0829995743
  0
LINE
  5
482
100
AcDbEntity
  8
0
100
AcDbLine
 62
250
  6
CONTINUOUS
 10
-46.6934002011
 20
-30.0829995743
 11
-47.1212127922
 21
-30.0857811071
  0
LWPOLYLINE
  5
483
100
AcDbEntity
  8
0
100
AcDbPolyline
 62
250
  6
CONTINUOUS
 90
10
 70
0
 10
-47.7834015619
 20
-30.7882687957
 10
-46.8327013883
 20
-30.7857173161
 10
-45.8985269872
 20
-30.7776023727
 10
-44.9808917717
 20
-30.7642940153
 10
-44.0801072978
 20
-30.7462446226
 10
-43.1958773257
 20
-30.7236941096
 10
-42.3273053074
 20
-30.6966557532
 10
-41.4741000632
 20
-30.6653195128
 10
-40.6365692948
 20
-30.6300662258
 10
-39.8147182688
 20
-30.5911629451
  0
LWPOLYLINE
  5
484
100
AcDbEntity
  8
0
100
AcDbPolyline
 62
250
  6
CONTINUOUS
 90
3
 70
0
 10
-47.1212127922
 20
-30.0857811071
 10
-47.503988536
 20
-30.0872653117
 10
-47.6752840202
 20
-30.0879189539
  0
LINE
  5
485
100
AcDbEntity
  8
0
100
AcDbLine
 62
250
  6
CONTINUOUS
 10
-41.7803976865
 20
-31.95
 11
-53.7803976865
 21
-31.95
  0
LINE
  5
486
100
AcDbEntity
  8
0
100
AcDbLine
 62
250
  6
CONTINUOUS
 10
-47.9117562594
 20
-30.0878517777
 11
-47.6752840202
 21
-30.0879189539
  0
LWPOLYLINE
  5
487
100
AcDbEntity
  8
0
100
AcDbPolyline
 62
250
  6
CONTINUOUS
 90
10
 70
0
 10
-47.7834015619
 20
-30.7882687957
 10
-48.7341017359
 20
-30.7857173161
 10
-49.6682761382
 20
-30.7776023727
 10
-50.5859113556
 20
-30.7642940153
 10
-51.4866958322
 20
-30.7462446226
 10
-52.3709258076
 20
-30.7236941096
 10
-53.2394978299
 20
-30.6966557532
 10
-54.0927030787
 20
-30.6653195128
 10
-54.9302338521
 20
-30.6300662258
 10
-55.7520848839
 20
-30.5911629451
  0
LINE
  5
488
100
AcDbEntity
  8
0
100
AcDbLine
 62
250
  6
CONTINUOUS
 10
-48.4395825808
 20
-30.0857811071
 11
-48.0166009133
 21
-30.0873505424
  0
LINE
  5
489
100
AcDbEntity
  8
0
100
AcDbLine
 62
250
  6
CONTINUOUS
 10
-48.0166009133
 20
-30.0873505424
 11
-47.9117562594
 21
-30.0878517777
  0
LINE
  5
48A
100
AcDbEntity
  8
0
100
AcDbLine
 62
250
  6
CONTINUOUS
 10
-49.1505794831
 20
-30.0804439423
 11
-48.4395825808
 21
-30.0857811071
  0
LINE
  5
48B
100
AcDbEntity
  8
0
100
AcDbLine
 62
250
  6
CONTINUOUS
 10
-49.5629824778
 20
-30.0752828607
 11
-49.1505794831
 21
-30.0804439423
  0
LINE
  5
48C
100
AcDbEntity
  8
0
100
AcDbLine
 62
250
  6
CONTINUOUS
 10
-50.1036988713
 20
-30.0658871166
 11
-49.5629824778
 21
-30.0752828607
  0
LINE
  5
48D
100
AcDbEntity
  8
0
100
AcDbLine
 62
250
  6
CONTINUOUS
 10
-50.8859244599
 20
-30.0490511761
 11
-50.1036988713
 21
-30.0658871166
  0
LINE
  5
48E
100
AcDbEntity
  8
0
100
AcDbLine
 62
250
  6
CONTINUOUS
 10
-51.2024975284
 20
-30.0410410089
 11
-50.8859244599
 21
-30.0490511761
  0
LINE
  5
48F
100
AcDbEntity
  8
0
100
AcDbLine
 62
250
  6
CONTINUOUS
 10
-51.574485337
 20
-30.0302845217
 11
-51.2024975284
 21
-30.0410410089
  0
LINE
  5
490
100
AcDbEntity
  8
0
100
AcDbLine
 62
250
  6
CONTINUOUS
 10
-51.9442624627
 20
-30.0179061123
 11
-51.574485337
 21
-30.0302845217
  0
LINE
  5
491
100
AcDbEntity
  8
0
100
AcDbLine
 62
7
  6
CONTINUOUS
 10
-52.5678563975
 20
-29.995345949
 11
-52.1796270155
 21
-30.0094359912
  0
LINE
  5
492
100
AcDbEntity
  8
0
100
AcDbLine
 62
250
  6
CONTINUOUS
 10
-52.1796270155
 20
-30.0094359912
 11
-51.9442624627
 21
-30.0179061123
  0
LINE
  5
493
100
AcDbEntity
  8
0
100
AcDbLine
 62
250
  6
CONTINUOUS
 10
-53.0731591772
 20
-29.977582179
 11
-52.5678563975
 21
-29.995345949
  0
LWPOLYLINE
  5
494
100
AcDbEntity
  8
0
100
AcDbPolyline
 62
250
  6
CONTINUOUS
 90
4
 70
0
 10
-53.7869193858
 20
-29.9455494332
 10
-53.550204456
 20
-29.9571574396
 10
-53.3123398786
 20
-29.9679125991
 10
-53.0731591772
 20
-29.977582179
  0
LWPOLYLINE
  5
495
100
AcDbEntity
  8
0
100
AcDbPolyline
 62
250
  6
CONTINUOUS
 90
4
 70
0
 10
-55.1862547214
 20
-29.8703818395
 10
-54.4914897736
 20
-29.9078760113
 10
-54.2571403264
 20
-29.9206983058
 10
-53.7869193858
 20
-29.9455494332
  0
LINE
  5
496
100
AcDbEntity
  8
0
100
AcDbLine
 62
250
  6
CONTINUOUS
 10
-55.3027390823
 20
-29.8634562967
 11
-55.1862547214
 21
-29.8703818395
  0
LWPOLYLINE
  5
497
100
AcDbEntity
  8
0
100
AcDbPolyline
 62
250
  6
CONTINUOUS
 90
21
 70
0
 10
-42.1046109982
 20
-31.0546604426
 10
-42.5033697435
 20
-31.0300746034
 10
-43.0101200891
 20
-31.0005211666
 10
-43.5909871975
 20
-30.9694793481
 10
-44.2552712536
 20
-30.9404179073
 10
-44.9933568178
 20
-30.9137355024
 10
-45.7431514178
 20
-30.8913454419
 10
-46.4981154464
 20
-30.8766339432
 10
-47.2650758321
 20
-30.8694079642
 10
-48.0020955642
 20
-30.8674420187
 10
-48.7006886174
 20
-30.8717622797
 10
-49.369653767
 20
-30.8823251379
 10
-49.9928630349
 20
-30.8958184032
 10
-50.5658002167
 20
-30.9122281307
 10
-51.0930419183
 20
-30.9315584763
 10
-51.5719806291
 20
-30.9511695584
 10
-52.0004780026
 20
-30.970930014
 10
-52.380582015
 20
-30.9908789397
 10
-52.7159284329
 20
-31.0093082891
 10
-53.0054840272
 20
-31.0262200943
 10
-53.2501761511
 20
-31.0417613638
  0
LWPOLYLINE
  5
498
100
AcDbEntity
  8
0
100
AcDbPolyline
 62
250
  6
CONTINUOUS
 90
22
 70
0
 10
-42.0091029034
 20
-31.2709784237
 10
-42.2913576841
 20
-31.2533146009
 10
-42.6806717529
 20
-31.2280415369
 10
-43.169165305
 20
-31.1972791851
 10
-43.7424633409
 20
-31.1673874062
 10
-44.3909164765
 20
-31.138746656
 10
-45.0981907585
 20
-31.1109764786
 10
-45.8323331534
 20
-31.089295367
 10
-46.5716934762
 20
-31.0755378931
 10
-47.3062251919
 20
-31.067869485
 10
-48.020105152
 20
-31.0660049206
 10
-48.7005998895
 20
-31.0707944129
 10
-49.3421992739
 20
-31.0813877488
 10
-49.9428435511
 20
-31.0949490682
 10
-50.4982171517
 20
-31.1114250994
 10
-51.0055309734
 20
-31.130869114
 10
-51.4665220806
 20
-31.1506050659
 10
-51.8806357927
 20
-31.1703020957
 10
-52.2476457467
 20
-31.1902910627
 10
-52.5701337698
 20
-31.208888499
 10
-52.8492508289
 20
-31.2257615595
 10
-53.2847509528
 20
-31.254648155
  0
LINE
  5
499
100
AcDbEntity
  8
0
100
AcDbLine
 62
250
  6
CONTINUOUS
 10
-55.3898396571
 20
-29.8578460023
 11
-55.3027390823
 21
-29.8634562967
  0
LINE
  5
49A
100
AcDbEntity
  8
0
100
AcDbLine
 62
250
  6
CONTINUOUS
 10
-55.4487403004
 20
-29.8527179837
 11
-55.5052567635
 21
-29.8490858398
  0
LINE
  5
49B
100
AcDbEntity
  8
0
100
AcDbLine
 62
250
  6
CONTINUOUS
 10
-41.8252830376
 20
-31.0734973497
 11
-42.1046109982
 21
-31.0546604426
  0
LINE
  5
49C
100
AcDbEntity
  8
0
100
AcDbLine
 62
250
  6
CONTINUOUS
 10
-55.4478013335
 20
-29.8538653814
 11
-55.3898396571
 21
-29.8578460023
  0
LINE
  5
49D
100
AcDbEntity
  8
0
100
AcDbLine
 62
250
  6
CONTINUOUS
 10
-41.5921424883
 20
-31.0901782637
 11
-41.8252830376
 21
-31.0734973497
  0
LWPOLYLINE
  5
49E
100
AcDbEntity
  8
0
100
AcDbPolyline
 62
250
  6
CONTINUOUS
 90
6
 70
0
 10
-55.5052567635
 20
-29.8490858398
 10
-55.5420520018
 20
-29.8464860965
 10
-55.5615170999
 20
-29.844989723
 10
-55.5824329777
 20
-29.8432725893
 10
-55.6044246003
 20
-29.8413365736
 10
-55.6274894788
 20
-29.8391637682
  0
LINE
  5
49F
100
AcDbEntity
  8
0
100
AcDbLine
 62
250
  6
CONTINUOUS
 10
-55.6274894788
 20
-29.8391637682
 11
-55.668136712
 21
-29.8361107035
  0
LWPOLYLINE
  5
4A0
100
AcDbEntity
  8
0
100
AcDbPolyline
 62
250
  6
CONTINUOUS
 90
3
 70
0
 10
-55.668136712
 20
-29.8361107035
 10
-55.759628765
 20
-29.8285950803
 10
-55.8640864189
 20
-29.8203617701
  0
LWPOLYLINE
  5
4A1
100
AcDbEntity
  8
0
100
AcDbPolyline
 62
7
  6
CONTINUOUS
 90
3
 70
0
 10
-42.5778318514
 20
-32.7576975053
 10
-42.6188088106
 20
-32.7530535373
 10
-42.7797060883
 20
-32.7509465022
  0
LWPOLYLINE
  5
4A2
100
AcDbEntity
  8
0
100
AcDbPolyline
 62
250
  6
CONTINUOUS
 90
3
 70
0
 10
-41.7803976865
 20
-31.2898382061
 10
-41.8377945949
 20
-31.2831529587
 10
-42.0091029034
 20
-31.2709784237
  0
LWPOLYLINE
  5
4A3
100
AcDbEntity
  8
0
100
AcDbPolyline
 62
250
  6
CONTINUOUS
 90
10
 70
0
 10
-55.8640864189
 20
-29.8203617701
 10
-56.3828260441
 20
-29.7496024482
 10
-56.874148069
 20
-29.6187707648
 10
-57.3334601288
 20
-29.4330049117
 10
-57.7562862855
 20
-29.1993976239
 10
-58.1403765559
 20
-28.9219367419
 10
-58.4847576731
 20
-28.6001269928
 10
-58.7873758205
 20
-28.2371328245
 10
-59.0458914393
 20
-27.8404220022
 10
-59.2593159462
 20
-27.415323699
  0
LWPOLYLINE
  5
4A4
100
AcDbEntity
  8
0
100
AcDbPolyline
 62
7
  6
CONTINUOUS
 90
4
 70
0
 10
-53.3803832258
 20
-32.6428285688
 10
-53.2636394023
 20
-32.6991663031
 10
-53.1373270101
 20
-32.7348701316
 10
-53.0014471355
 20
-32.74993953
  0
LWPOLYLINE
  5
4A5
100
AcDbEntity
  8
0
100
AcDbPolyline
 62
7
  6
CONTINUOUS
 90
4
 70
0
 10
-52.9513587782
 20
-32.7725133302
 10
-52.9682710629
 20
-32.7614758749
 10
-52.9849700616
 20
-32.7540059857
 10
-53.001455774
 20
-32.7501036628
  0
LINE
  5
4A6
100
AcDbEntity
  8
0
100
AcDbLine
 62
250
  6
CONTINUOUS
 10
-53.9618773976
 20
-31.0892845354
 11
-53.9700865477
 21
-31.090414505
  0
LWPOLYLINE
  5
4A7
100
AcDbEntity
  8
0
100
AcDbPolyline
 62
7
  6
CONTINUOUS
 90
3
 70
0
 10
-53.3803825077
 20
-32.6428290863
 10
-53.4912461505
 20
-32.5629359931
 10
-53.5925436139
 20
-32.4624265756
  0
LINE
  5
4A8
100
AcDbEntity
  8
0
100
AcDbLine
 62
7
  6
CONTINUOUS
 10
-52.9329372211
 20
-32.7876241649
 11
-52.9513587782
 21
-32.7725133302
  0
LINE
  5
4A9
100
AcDbEntity
  8
0
100
AcDbLine
 62
7
  6
CONTINUOUS
 10
-52.9329405345
 20
-32.7876343265
 11
-52.9143043926
 21
-32.8063068032
  0
LWPOLYLINE
  5
4AA
100
AcDbEntity
  8
0
100
AcDbPolyline
 62
250
  6
CONTINUOUS
 90
5
 70
0
 10
-56.4765584225
 20
27.3394088183
 10
-56.4838403869
 20
27.3295538149
 10
-56.4909356001
 20
27.3074016713
 10
-56.497669918
 20
27.2727309221
 10
-56.5038260868
 20
27.2251091505
  0
LWPOLYLINE
  5
4AB
100
AcDbEntity
  8
0
100
AcDbPolyline
 62
250
  6
CONTINUOUS
 90
6
 70
0
 10
-59.8032782336
 20
-26.9057465845
 10
-59.9481126574
 20
-26.945598772
 10
-60.0046895432
 20
-26.9604324808
 10
-60.0504388981
 20
-26.971199771
 10
-60.0850197203
 20
-26.9776517323
 10
-60.1079772358
 20
-26.9797021693
  0
LWPOLYLINE
  5
4AC
100
AcDbEntity
  8
0
100
AcDbPolyline
 62
250
  6
CONTINUOUS
 90
5
 70
0
 10
-35.6126827156
 20
-26.945598772
 10
-35.5561058299
 20
-26.9604324808
 10
-35.510356475
 20
-26.971199771
 10
-35.4757756528
 20
-26.9776517323
 10
-35.4528181372
 20
-26.9797021693
  0
LWPOLYLINE
  5
4AD
100
AcDbEntity
  8
0
100
AcDbPolyline
 62
250
  6
CONTINUOUS
 90
10
 70
0
 10
-36.2984041922
 20
-27.4106274591
 10
-36.1894154015
 20
-27.4430672201
 10
-36.0877790679
 20
-27.4716805327
 10
-35.9944511772
 20
-27.4962103531
 10
-35.9103205837
 20
-27.5164153706
 10
-35.8364445466
 20
-27.5320119811
 10
-35.7737617586
 20
-27.5428011743
 10
-35.7228029881
 20
-27.5487322448
 10
-35.6839777109
 20
-27.5497760532
 10
-35.657754971
 20
-27.5458909447
  0
LWPOLYLINE
  5
4AE
100
AcDbEntity
  8
0
100
AcDbPolyline
 62
7
  6
CONTINUOUS
 90
10
 70
0
 43
0.3500000006
 10
-75.9274046631
 20
-6.4188015633
 10
-75.2845512085
 20
-7.0616584167
 10
-74.4274042053
 20
-7.4902296524
 10
-73.3559772491
 20
-7.4902296524
 10
-72.9274082794
 20
-7.0616584167
 10
-72.9274082794
 20
-6.4188015633
 10
-73.3559772491
 20
-5.9902303276
 10
-74.2131197205
 20
-5.9902303276
 10
-74.641693222
 20
-6.4188015633
 10
-74.641693222
 20
-7.3473729515
  0
LWPOLYLINE
  5
4AF
100
AcDbEntity
  8
0
100
AcDbPolyline
 62
7
  6
CONTINUOUS
 90
3
 70
0
 43
0.3500000006
 10
-75.0702621918
 20
-5.1330867233
 10
-75.9274046631
 20
-4.275944252
 10
-72.9274082794
 20
-4.275944252
  0
LWPOLYLINE
  5
4B0
100
AcDbEntity
  8
0
100
AcDbPolyline
 62
250
  6
CONTINUOUS
 90
10
 70
0
 10
-55.7460596835
 20
-30.5911406409
 10
-55.7668209337
 20
-30.5629475876
 10
-55.7861186684
 20
-30.5184695913
 10
-55.8037860885
 20
-30.4581279071
 10
-55.819619149
 20
-30.3826394188
 10
-55.8333721686
 20
-30.2929872904
 10
-55.8448276831
 20
-30.1905305572
 10
-55.8538296269
 20
-30.0767868622
 10
-55.8602764821
 20
-29.9530914982
 10
-55.8641375464
 20
-29.8207126134
  0
LINE
  5
4B1
100
AcDbEntity
  8
0
100
AcDbLine
 62
7
  6
CONTINUOUS
 10
-52.9143043926
 20
-32.8063068032
 11
-52.8993430717
 21
-32.8270295407
  0
LINE
  5
4B2
100
AcDbEntity
  8
0
100
AcDbLine
 62
7
  6
CONTINUOUS
 10
-53.5925436139
 20
-32.4624265756
 11
-53.6732136264
 21
-32.3500075918
  0
LWPOLYLINE
  5
4B3
100
AcDbEntity
  8
0
100
AcDbPolyline
 62
250
  6
CONTINUOUS
 90
5
 70
0
 10
-36.0399720527
 20
-26.8208886224
 10
-35.938498533
 20
-26.8530913547
 10
-35.844353302
 20
-26.8811255931
 10
-35.7575171394
 20
-26.9057465845
 10
-35.6126827156
 20
-26.945598772
  0
LWPOLYLINE
  5
4B4
100
AcDbEntity
  8
0
100
AcDbPolyline
 62
250
  6
CONTINUOUS
 90
10
 70
0
 10
-52.7522270859
 20
-21.1619887995
 10
-52.2715913545
 20
-21.3556438904
 10
-51.772150618
 20
-21.5335067955
 10
-51.2545300388
 20
-21.693471189
 10
-50.7187820395
 20
-21.8340812745
 10
-50.1651757267
 20
-21.9537339557
 10
-49.5939730925
 20
-22.0503153415
 10
-49.005458869
 20
-22.1217401287
 10
-48.4004474556
 20
-22.1661275201
 10
-47.7803976777
 20
-22.1814858659
  0
LWPOLYLINE
  5
4B5
100
AcDbEntity
  8
0
100
AcDbPolyline
 62
250
  6
CONTINUOUS
 90
10
 70
0
 10
-55.8596566312
 20
-19.263367996
 10
-55.5448478253
 20
-19.5173057577
 10
-55.2225241281
 20
-19.7601818347
 10
-54.8927088119
 20
-19.99221799
 10
-54.5555502556
 20
-20.2135122097
 10
-54.210899638
 20
-20.4242373925
 10
-53.8584169472
 20
-20.6245100132
 10
-53.4978917102
 20
-20.814307065
 10
-53.1290916791
 20
-20.9936060195
 10
-52.7522486145
 20
-21.1621198776
  0
LWPOLYLINE
  5
4B6
100
AcDbEntity
  8
0
100
AcDbPolyline
 62
250
  6
CONTINUOUS
 90
4
 70
0
 10
-59.5425495419
 20
-26.7746826502
 10
-59.5462238273
 20
-26.7670785616
 10
-59.5499229841
 20
-26.7595082883
 10
-59.5536481905
 20
-26.7519722852
  0
LINE
  5
4B7
100
AcDbEntity
  8
0
100
AcDbLine
 62
250
  6
CONTINUOUS
 10
-59.5352829395
 20
-26.7899988796
 11
-59.5425495419
 21
-26.7746826502
  0
LINE
  5
4B8
100
AcDbEntity
  8
0
100
AcDbLine
 62
250
  6
CONTINUOUS
 10
-59.4971101071
 20
-26.8714877241
 11
-59.5352829395
 21
-26.7899988796
  0
LINE
  5
4B9
100
AcDbEntity
  8
0
100
AcDbLine
 62
250
  6
CONTINUOUS
 10
-59.4853074219
 20
-26.8970149479
 11
-59.4971101071
 21
-26.8714877241
  0
LINE
  5
4BA
100
AcDbEntity
  8
0
100
AcDbLine
 62
250
  6
CONTINUOUS
 10
-59.461873088
 20
-26.9485587033
 11
-59.4853074219
 21
-26.8970149479
  0
LWPOLYLINE
  5
4BB
100
AcDbEntity
  8
0
100
AcDbPolyline
 62
250
  6
CONTINUOUS
 90
10
 70
0
 10
-59.9030486023
 20
-27.5458807762
 10
-59.6571675198
 20
-28.0962906294
 10
-59.3452943571
 20
-28.6075485194
 10
-58.9714766489
 20
-29.0739257795
 10
-58.5407639552
 20
-29.488582141
 10
-58.0574625081
 20
-29.8463052502
 10
-57.5296846203
 20
-30.1397771632
 10
-56.9636072069
 20
-30.3647346041
 10
-56.3667974136
 20
-30.5164884327
 10
-55.7460596835
 20
-30.5911406409
  0
LINE
  5
4BC
100
AcDbEntity
  8
0
100
AcDbLine
 62
250
  6
CONTINUOUS
 10
-59.4268119062
 20
-27.0268706492
 11
-59.461873088
 21
-26.9485587033
  0
LINE
  5
4BD
100
AcDbEntity
  8
0
100
AcDbLine
 62
250
  6
CONTINUOUS
 10
-59.3824865404
 20
-27.1274890282
 11
-59.4268119062
 21
-27.0268706492
  0
LINE
  5
4BE
100
AcDbEntity
  8
0
100
AcDbLine
 62
250
  6
CONTINUOUS
 10
-59.5591181757
 20
-26.7360041326
 11
-59.5500310207
 21
-26.7567668632
  0
LINE
  5
4BF
100
AcDbEntity
  8
0
100
AcDbLine
 62
250
  6
CONTINUOUS
 10
-59.3498876196
 20
-27.2026382676
 11
-59.3824865404
 21
-27.1274890282
  0
LINE
  5
4C0
100
AcDbEntity
  8
0
100
AcDbLine
 62
250
  6
CONTINUOUS
 10
-59.5680723586
 20
-26.7151386746
 11
-59.5591181757
 21
-26.7360041326
  0
LINE
  5
4C1
100
AcDbEntity
  8
0
100
AcDbLine
 62
250
  6
CONTINUOUS
 10
-59.2593159462
 20
-27.415323699
 11
-59.2783932063
 21
-27.3704729957
  0
LINE
  5
4C2
100
AcDbEntity
  8
0
100
AcDbLine
 62
250
  6
CONTINUOUS
 10
-59.2783932063
 20
-27.3704729957
 11
-59.3498876196
 21
-27.2026382676
  0
LINE
  5
4C3
100
AcDbEntity
  8
0
100
AcDbLine
 62
250
  6
CONTINUOUS
 10
-59.5768953986
 20
-26.6941684946
 11
-59.5680723586
 21
-26.7151386746
  0
LWPOLYLINE
  5
4C4
100
AcDbEntity
  8
0
100
AcDbPolyline
 62
7
  6
CONTINUOUS
 90
22
 70
0
 10
-60.1639848077
 20
-27.8922723118
 10
-60.0639930696
 20
-28.1336888031
 10
-59.9518534669
 20
-28.3680239869
 10
-59.8275659998
 20
-28.5952778633
 10
-59.6906895223
 20
-28.8160780371
 10
-59.5416651803
 20
-29.0297969033
 10
-59.3818164114
 20
-29.2345516479
 10
-59.2110599339
 20
-29.4302531487
 10
-59.0294790294
 20
-29.6169905279
 10
-58.8386469804
 20
-29.7931483369
 10
-58.6384611242
 20
-29.958647761
 10
-58.4290241235
 20
-30.113567615
 10
-58.2122172485
 20
-30.256528895
 10
-57.9879983114
 20
-30.3874090009
 10
-57.7564094999
 20
-30.5063305329
 10
-57.5194586476
 20
-30.6122822881
 10
-57.2771553756
 20
-30.7051462495
 10
-57.0294900628
 20
-30.785040434
 10
-56.7784416784
 20
-30.8513076901
 10
-56.5246698789
 20
-30.9037289673
 10
-56.2675150079
 20
-30.942523316
 10
-56.0069770653
 20
-30.9676907363
  0
LWPOLYLINE
  5
4C5
100
AcDbEntity
  8
0
100
AcDbPolyline
 62
250
  6
CONTINUOUS
 90
3
 70
0
 10
-59.5898900833
 20
-26.6625115989
 10
-59.5855898533
 20
-26.6730914405
 10
-59.5768953986
 20
-26.6941684946
  0
LINE
  5
4C6
100
AcDbEntity
  8
0
100
AcDbLine
 62
250
  6
CONTINUOUS
 10
-59.5867909098
 20
-26.66592522
 11
-59.6349166356
 21
-26.5336222834
  0
LINE
  5
4C7
100
AcDbEntity
  8
0
100
AcDbLine
 62
250
  6
CONTINUOUS
 10
-59.9029937494
 20
-27.5459015524
 11
-60.0403585616
 21
-27.1671727548
  0
LINE
  5
4C8
100
AcDbEntity
  8
0
100
AcDbLine
 62
250
  6
CONTINUOUS
 10
-60.0403585616
 20
-27.1671727548
 11
-60.1079772498
 21
-26.9797021304
  0
LINE
  5
4C9
100
AcDbEntity
  8
0
100
AcDbLine
 62
250
  6
CONTINUOUS
 10
-59.6349166356
 20
-26.5336222834
 11
-59.6826320742
 21
-26.4002295117
  0
LWPOLYLINE
  5
4CA
100
AcDbEntity
  8
0
100
AcDbPolyline
 62
250
  6
CONTINUOUS
 90
3
 70
0
 10
-59.6826320742
 20
-26.4002295117
 10
-59.7775683344
 20
-26.1305320166
 10
-59.8013404351
 20
-26.0625531512
  0
LWPOLYLINE
  5
4CB
100
AcDbEntity
  8
0
100
AcDbPolyline
 62
250
  6
CONTINUOUS
 90
10
 70
0
 10
-60.1079772498
 20
-26.9797021304
 10
-60.7659567559
 20
-25.0510872238
 10
-61.3620931836
 20
-23.0901415424
 10
-61.8945633644
 20
-21.0987502381
 10
-62.3621079602
 20
-19.0729286247
 10
-62.7620528468
 20
-17.0206935217
 10
-63.0924796919
 20
-14.9622131964
 10
-63.3538472641
 20
-12.905766185
 10
-63.5468222331
 20
-10.8475939812
 10
-63.6718146314
 20
-8.789880648
  0
LWPOLYLINE
  5
4CC
100
AcDbEntity
  8
0
100
AcDbPolyline
 62
250
  6
CONTINUOUS
 90
10
 70
0
 10
-63.7335734531
 20
26.8549504131
 10
-63.7263088201
 20
26.9420427313
 10
-63.704128258
 20
27.0265327389
 10
-63.6677155167
 20
27.1058416037
 10
-63.6181872697
 20
27.1775491989
 10
-63.5570618924
 20
27.2394722519
 10
-63.4862107484
 20
27.2897287633
 10
-63.4077979896
 20
27.3267895893
 10
-63.324216386
 20
27.3495268746
 10
-63.2380161138
 20
27.357251245
  0
LWPOLYLINE
  5
4CD
100
AcDbEntity
  8
0
100
AcDbPolyline
 62
250
  6
CONTINUOUS
 90
13
 70
0
 10
-47.780397687
 20
-19.6957318672
 10
-46.9797210975
 20
-19.6640879811
 10
-46.1685213457
 20
-19.5859922173
 10
-45.3485386885
 20
-19.4592743095
 10
-44.5163020205
 20
-19.2808531554
 10
-43.6789578588
 20
-19.045538729
 10
-42.8551009701
 20
-18.7512219847
 10
-42.0467048389
 20
-18.3990232871
 10
-41.255667655
 20
-17.9905591468
 10
-40.50013098
 20
-17.5334140125
 10
-39.7866570258
 20
-17.0351014114
 10
-39.1113290202
 20
-16.4984091547
 10
-38.4754241246
 20
-15.9275491583
  0
LWPOLYLINE
  5
4CE
100
AcDbEntity
  8
0
100
AcDbPolyline
 62
250
  6
CONTINUOUS
 90
10
 70
0
 10
-47.780397687
 20
-19.6957318665
 10
-48.8535601617
 20
-19.6441751397
 10
-49.9393889065
 20
-19.5073163747
 10
-51.0331254139
 20
-19.2803670529
 10
-52.1463210148
 20
-18.954896958
 10
-53.2581402947
 20
-18.5203956179
 10
-54.3163196698
 20
-17.9869539324
 10
-55.3013715009
 20
-17.3724073689
 10
-56.2256543506
 20
-16.6830648507
 10
-57.0853712484
 20
-15.9275491583
  0
LWPOLYLINE
  5
4CF
100
AcDbEntity
  8
0
100
AcDbPolyline
 62
250
  6
CONTINUOUS
 90
10
 70
0
 10
-56.7087615261
 20
-15.5044208751
 10
-55.9264738969
 20
-16.2256533772
 10
-55.0829303288
 20
-16.8736852375
 10
-54.1781602052
 20
-17.4485464249
 10
-53.2003171042
 20
-17.9566605912
 10
-52.1612555382
 20
-18.3916627079
 10
-51.0965371947
 20
-18.7344067225
 10
-50.0179868893
 20
-18.9785321643
 10
-48.9136998863
 20
-19.1304538801
 10
-47.783621702
 20
-19.1901864387
  0
LWPOLYLINE
  5
4D0
100
AcDbEntity
  8
0
100
AcDbPolyline
 62
250
  6
CONTINUOUS
 90
10
 70
0
 10
-57.0853712484
 20
-15.9275491583
 10
-57.3060850734
 20
-15.7059270665
 10
-57.5199725811
 20
-15.4789766199
 10
-57.7268428899
 20
-15.2469065537
 10
-57.9262741652
 20
-15.0102128215
 10
-58.1183441515
 20
-14.7688399758
 10
-58.3035745933
 20
-14.5221204626
 10
-58.4820432541
 20
-14.2699634471
 10
-58.6534368606
 20
-14.0129040753
 10
-58.8176849093
 20
-13.7511769376
  0
LINE
  5
4D1
100
AcDbEntity
  8
0
100
AcDbLine
 62
7
  6
CONTINUOUS
 10
-53.6732136264
 20
-32.3500075918
 11
-53.7295691737
 21
-32.2285810093
  0
LINE
  5
4D2
100
AcDbEntity
  8
0
100
AcDbLine
 62
7
  6
CONTINUOUS
 10
-52.8993430717
 20
-32.8270295407
 11
-52.8893531224
 21
-32.8493027663
  0
LINE
  5
4D3
100
AcDbEntity
  8
0
100
AcDbLine
 62
250
  6
CONTINUOUS
 10
-59.8013404351
 20
-26.0625531512
 11
-59.8917297298
 21
-25.7993895779
  0
LINE
  5
4D4
100
AcDbEntity
  8
0
100
AcDbLine
 62
250
  6
CONTINUOUS
 10
-59.8917297298
 20
-25.7993895779
 11
-59.9808598767
 21
-25.5368233493
  0
LINE
  5
4D5
100
AcDbEntity
  8
0
100
AcDbLine
 62
250
  6
CONTINUOUS
 10
-59.9808598767
 20
-25.5368233493
 11
-60.0685527022
 21
-25.2748398548
  0
LWPOLYLINE
  5
4D6
100
AcDbEntity
  8
0
100
AcDbPolyline
 62
250
  6
CONTINUOUS
 90
10
 70
0
 10
-60.0685527022
 20
-25.2748398548
 10
-60.1331871107
 20
-25.0777723197
 10
-60.1973111661
 20
-24.8798364052
 10
-60.260915754
 20
-24.6810400873
 10
-60.3239918966
 20
-24.481395771
 10
-60.386532698
 20
-24.2808983636
 10
-60.4485328247
 20
-24.0795265658
 10
-60.5099850097
 20
-23.877275708
 10
-60.5708802712
 20
-23.6741575235
 10
-60.6312104548
 20
-23.4701756036
  0
LWPOLYLINE
  5
4D7
100
AcDbEntity
  8
0
100
AcDbPolyline
 62
250
  6
CONTINUOUS
 90
10
 70
0
 10
-60.6312104548
 20
-23.4701756036
 10
-60.6986879422
 20
-23.2368908535
 10
-60.7649716942
 20
-23.0041064457
 10
-60.8300699715
 20
-22.7718277676
 10
-60.8940162717
 20
-22.5400652793
 10
-60.9567933885
 20
-22.308816509
 10
-61.0183346807
 20
-22.0780716903
 10
-61.078624778
 20
-21.8478348778
 10
-61.1376981786
 20
-21.6181191178
 10
-61.1955641952
 20
-21.3889324145
  0
LWPOLYLINE
  5
4D8
100
AcDbEntity
  8
0
100
AcDbPolyline
 62
250
  6
CONTINUOUS
 90
10
 70
0
 10
-61.1955641952
 20
-21.3889324145
 10
-61.2369967993
 20
-21.221860481
 10
-61.2778100469
 20
-21.0550730212
 10
-61.3180072221
 20
-20.8885724989
 10
-61.3576151854
 20
-20.7223651274
 10
-61.3966133507
 20
-20.5564488367
 10
-61.4349346582
 20
-20.3908167666
 10
-61.4725598213
 20
-20.2254716782
 10
-61.5095163503
 20
-20.0604224584
 10
-61.5458082066
 20
-19.8956745247
  0
LWPOLYLINE
  5
4D9
100
AcDbEntity
  8
0
100
AcDbPolyline
 62
250
  6
CONTINUOUS
 90
10
 70
0
 10
-61.5458082066
 20
-19.8956745247
 10
-61.796403131
 20
-18.68395991
 10
-62.0181337728
 20
-17.4678940076
 10
-62.2106422222
 20
-16.2492602497
 10
-62.3697880308
 20
-15.036733337
 10
-62.4988452871
 20
-13.8253721282
 10
-62.6063434223
 20
-12.5938759352
 10
-62.6924773513
 20
-11.3333567512
 10
-62.7558649648
 20
-10.050864253
 10
-62.7972630951
 20
-8.7457068965
  0
LWPOLYLINE
  5
4DA
100
AcDbEntity
  8
0
100
AcDbPolyline
 62
250
  6
CONTINUOUS
 90
10
 70
0
 10
-63.6718146314
 20
-8.789880648
 10
-63.6847637285
 20
-8.4920983857
 10
-63.6960294423
 20
-8.1956642558
 10
-63.7056325281
 20
-7.9005886569
 10
-63.7134386869
 20
-7.6072195072
 10
-63.7196265938
 20
-7.3152304705
 10
-63.7246716705
 20
-7.0236135171
 10
-63.728729407
 20
-6.732031608
 10
-63.7316515859
 20
-6.4408261454
 10
-63.7334430717
 20
-6.1500000004
  0
LWPOLYLINE
  5
4DB
100
AcDbEntity
  8
0
100
AcDbPolyline
 62
250
  6
CONTINUOUS
 90
4
 70
0
 10
-62.8086868319
 20
-8.4386385046
 10
-62.8077230127
 20
-8.4726457194
 10
-62.8065727664
 20
-8.5065504248
 10
-62.7972630933
 20
-8.7457069399
  0
LINE
  5
4DC
100
AcDbEntity
  8
0
100
AcDbLine
 62
250
  6
CONTINUOUS
 10
-62.8282138474
 20
-7.63660133
 11
-62.8134747096
 21
-8.2125549903
  0
LINE
  5
4DD
100
AcDbEntity
  8
0
100
AcDbLine
 62
250
  6
CONTINUOUS
 10
-62.8134747096
 20
-8.2125549903
 11
-62.8086868319
 21
-8.4386385046
  0
LINE
  5
4DE
100
AcDbEntity
  8
0
100
AcDbLine
 62
250
  6
CONTINUOUS
 10
-62.8326967596
 20
-7.4014392042
 11
-62.8282138474
 21
-7.63660133
  0
LINE
  5
4DF
100
AcDbEntity
  8
0
100
AcDbLine
 62
250
  6
CONTINUOUS
 10
-62.8362974531
 20
-7.1253188463
 11
-62.8326967596
 21
-7.4014392042
  0
LINE
  5
4E0
100
AcDbEntity
  8
0
100
AcDbLine
 62
250
  6
CONTINUOUS
 10
-62.8385970735
 20
-6.8480463843
 11
-62.8362974531
 21
-7.1253188463
  0
LINE
  5
4E1
100
AcDbEntity
  8
0
100
AcDbLine
 62
250
  6
CONTINUOUS
 10
-62.8399357768
 20
-6.5696769622
 11
-62.8385970735
 21
-6.8480463843
  0
LINE
  5
4E2
100
AcDbEntity
  8
0
100
AcDbLine
 62
7
  6
CONTINUOUS
 10
-64.1773937417
 20
-6.1500397827
 11
-64.1773937417
 21
26.9123727349
  0
LINE
  5
4E3
100
AcDbEntity
  8
0
100
AcDbLine
 62
250
  6
CONTINUOUS
 10
-63.7335930066
 20
-6.1500000004
 11
-63.7335930066
 21
26.8549503215
  0
LWPOLYLINE
  5
4E4
100
AcDbEntity
  8
0
100
AcDbPolyline
 62
250
  6
CONTINUOUS
 90
3
 70
0
 10
-62.8399799376
 20
26.8492267697
 10
-62.8402420832
 20
-6.2901851843
 10
-62.8399357768
 20
-6.5696769622
  0
LINE
  5
4E5
100
AcDbEntity
  8
0
100
AcDbLine
 62
250
  6
CONTINUOUS
 10
-62.8375369045
 20
26.9351768982
 11
-62.8399773081
 21
26.8492267652
  0
LINE
  5
4E6
100
AcDbEntity
  8
0
100
AcDbLine
 62
7
  6
CONTINUOUS
 10
-44.8450688805
 20
-15.7545732072
 11
-40.7157264926
 21
-15.7454267928
  0
LWPOLYLINE
  5
4E7
100
AcDbEntity
  8
0
100
AcDbPolyline
 62
7
  6
CONTINUOUS
 90
7
 70
0
 10
-56.718879919
 20
-14.4195289387
 10
-56.4054899042
 20
-14.7151101898
 10
-56.0721804172
 20
-14.9502325322
 10
-55.7189434144
 20
-15.1249048124
 10
-55.3457607613
 20
-15.2391339405
 10
-54.9526051689
 20
-15.2929245912
 10
-54.5394413278
 20
-15.2862790084
  0
LWPOLYLINE
  5
4E8
100
AcDbEntity
  8
0
100
AcDbPolyline
 62
250
  6
CONTINUOUS
 90
3
 70
0
 10
-56.7027814258
 20
-15.4977386998
 10
-56.9020809692
 20
-15.2891712558
 10
-57.0944182296
 20
-15.0761395316
  0
LWPOLYLINE
  5
4E9
100
AcDbEntity
  8
0
100
AcDbPolyline
 62
250
  6
CONTINUOUS
 90
3
 70
0
 10
-57.0944182296
 20
-15.0761395316
 10
-57.2798076284
 20
-14.8586432095
 10
-57.4575519956
 20
-14.6375539423
  0
LINE
  5
4EA
100
AcDbEntity
  8
0
100
AcDbLine
 62
7
  6
CONTINUOUS
 10
-56.0875700411
 20
-13.9741948755
 11
-56.2963807997
 21
-13.7133177205
  0
LWPOLYLINE
  5
4EB
100
AcDbEntity
  8
0
100
AcDbPolyline
 62
250
  6
CONTINUOUS
 90
6
 70
0
 10
-57.4575519956
 20
-14.6375539423
 10
-57.6283606806
 20
-14.4119996329
 10
-57.7943499489
 20
-14.179364005
 10
-57.956221932
 20
-13.9387744522
 10
-58.1132659587
 20
-13.6911024752
 10
-58.2654749875
 20
-13.4363476592
  0
LWPOLYLINE
  5
4EC
100
AcDbEntity
  8
0
100
AcDbPolyline
 62
250
  6
CONTINUOUS
 90
16
 70
0
 10
-58.2654749875
 20
-13.4363476592
 10
-58.4536741857
 20
-13.0950555669
 10
-58.6304750769
 20
-12.7590494734
 10
-58.7958715008
 20
-12.4283314448
 10
-58.9489971003
 20
-12.1027120277
 10
-59.0907360814
 20
-11.7823844202
 10
-59.2237169172
 20
-11.4679245566
 10
-59.3479107765
 20
-11.1593907681
 10
-59.4633716357
 20
-10.85672791
 10
-59.5728479668
 20
-10.5603416306
 10
-59.6754813844
 20
-10.2699090929
 10
-59.7721445839
 20
-9.985755678
 10
-59.868175995
 20
-9.7092593149
 10
-59.9653436021
 20
-9.4408800237
 10
-60.0618535823
 20
-9.1801598292
 10
-60.1576900509
 20
-8.9270995747
  0
LWPOLYLINE
  5
4ED
100
AcDbEntity
  8
0
100
AcDbPolyline
 62
250
  6
CONTINUOUS
 90
10
 70
0
 10
-60.1576900509
 20
-8.9270995747
 10
-60.1686992566
 20
-8.9034691658
 10
-60.1800986034
 20
-8.8807207207
 10
-60.1918879844
 20
-8.8588542417
 10
-60.2027544088
 20
-8.8378905289
 10
-60.2140109216
 20
-8.8178087866
 10
-60.2295950644
 20
-8.7985466232
 10
-60.2508169564
 20
-8.7800832427
 10
-60.2763607342
 20
-8.7624394443
 10
-60.3062223595
 20
-8.7456152296
  0
LWPOLYLINE
  5
4EE
100
AcDbEntity
  8
0
100
AcDbPolyline
 62
250
  6
CONTINUOUS
 90
10
 70
0
 10
-58.8176514357
 20
-13.7508976382
 10
-58.998344556
 20
-13.3492492404
 10
-59.1689871072
 20
-12.9389826513
 10
-59.3287822249
 20
-12.520100093
 10
-59.4759431155
 20
-12.0929251233
 10
-59.610774055
 20
-11.6573539919
 10
-59.7355579388
 20
-11.2124753308
 10
-59.8504652271
 20
-10.7577615865
 10
-59.9531922315
 20
-10.2933229387
 10
-60.0420955341
 20
-9.8204596524
  0
LWPOLYLINE
  5
4EF
100
AcDbEntity
  8
0
100
AcDbPolyline
 62
250
  6
CONTINUOUS
 90
13
 70
0
 10
-58.8176849093
 20
-13.7511769376
 10
-58.3280092775
 20
-14.877299713
 10
-57.730027983
 20
-15.9386124165
 10
-57.0323491232
 20
-16.92613208
 10
-56.2448626998
 20
-17.8315466419
 10
-55.3760270881
 20
-18.6482140453
 10
-54.4323769015
 20
-19.3699640519
 10
-53.4245227869
 20
-19.9899860987
 10
-52.36396172
 20
-20.5036772122
 10
-51.2582609795
 20
-20.9079220662
 10
-50.1172079862
 20
-21.1994823373
 10
-48.9536254609
 20
-21.3751493489
 10
-47.7803976879
 20
-21.4334215466
  0
LWPOLYLINE
  5
4F0
100
AcDbEntity
  8
0
100
AcDbPolyline
 62
250
  6
CONTINUOUS
 90
10
 70
0
 10
-60.2983674687
 20
-9.832717271
 10
-60.2429541569
 20
-10.9439595685
 10
-60.0902156563
 20
-12.075433215
 10
-59.8282673351
 20
-13.2137335752
 10
-59.4443425965
 20
-14.3477101026
 10
-58.9362014854
 20
-15.4543737258
 10
-58.3192634892
 20
-16.509141429
 10
-57.6023575115
 20
-17.5011889723
 10
-56.7811852913
 20
-18.4229016503
 10
-55.8595500254
 20
-19.2630186564
  0
LWPOLYLINE
  5
4F1
100
AcDbEntity
  8
0
100
AcDbPolyline
 62
250
  6
CONTINUOUS
 90
6
 70
0
 10
-60.3062223595
 20
-8.7456152296
 10
-60.3104396754
 20
-8.6475746889
 10
-60.3141244929
 20
-8.549076203
 10
-60.3172766775
 20
-8.4501197992
 10
-60.3196954602
 20
-8.3503970446
 10
-60.3235364946
 20
-8.1505033626
  0
LINE
  5
4F2
100
AcDbEntity
  8
0
100
AcDbLine
 62
250
  6
CONTINUOUS
 10
-60.3235364946
 20
-8.1505033626
 11
-60.3325819983
 21
-7.7562916861
  0
LINE
  5
4F3
100
AcDbEntity
  8
0
100
AcDbLine
 62
250
  6
CONTINUOUS
 10
-60.3590367063
 20
-6.1500039367
 11
-60.3316917914
 21
-7.7562873466
  0
LINE
  5
4F4
100
AcDbEntity
  8
0
100
AcDbLine
 62
250
  6
CONTINUOUS
 10
-60.3115986646
 20
-8.7456481242
 11
-60.3059100257
 21
-9.1302976962
  0
LINE
  5
4F5
100
AcDbEntity
  8
0
100
AcDbLine
 62
250
  6
CONTINUOUS
 10
-60.3059100257
 20
-9.1302976962
 11
-60.3016602096
 21
-9.4804977431
  0
LINE
  5
4F6
100
AcDbEntity
  8
0
100
AcDbLine
 62
250
  6
CONTINUOUS
 10
-60.3016602096
 20
-9.4804977431
 11
-60.2983674687
 21
-9.832717271
  0
LINE
  5
4F7
100
AcDbEntity
  8
0
100
AcDbLine
 62
7
  6
CONTINUOUS
 10
-62.3774723649
 20
27.2977232895
 11
-62.3773937412
 21
27.2772433135
  0
LINE
  5
4F8
100
AcDbEntity
  8
0
100
AcDbLine
 62
7
  6
CONTINUOUS
 10
-62.0277851183
 20
27.4
 11
-62.0277851183
 21
27.3097117525
  0
LWPOLYLINE
  5
4F9
100
AcDbEntity
  8
0
100
AcDbPolyline
 62
7
  6
CONTINUOUS
 90
3
 70
0
 43
0.3500000006
 10
-46.8518270416
 20
43.2857148743
 10
-46.9232536926
 20
43.0714303894
 10
-47.0661115265
 20
42.7857147217
  0
LWPOLYLINE
  5
4FA
100
AcDbEntity
  8
0
100
AcDbPolyline
 62
7
  6
CONTINUOUS
 90
3
 70
0
 10
-41.9752792858
 20
-12.428004788
 10
-42.0446554546
 20
-12.4415542698
 10
-42.1083575196
 20
-12.4665349026
  0
LWPOLYLINE
  5
4FB
100
AcDbEntity
  8
0
100
AcDbPolyline
 62
7
  6
CONTINUOUS
 90
10
 70
0
 10
-50.2135199186
 20
-14.5160413633
 10
-50.5219605641
 20
-14.5303096179
 10
-50.8136930299
 20
-14.4991767361
 10
-51.0887324923
 20
-14.4226418397
 10
-51.3536895155
 20
-14.2961640974
 10
-51.6019755989
 20
-14.1242785982
 10
-51.8138024021
 20
-13.9205979986
 10
-51.982573446
 20
-13.689658064
 10
-52.1148842639
 20
-13.4269162358
 10
-52.2107281531
 20
-13.1323686288
  0
LWPOLYLINE
  5
4FC
100
AcDbEntity
  8
0
100
AcDbPolyline
 62
7
  6
CONTINUOUS
 90
6
 70
0
 10
-54.540707216
 20
-14.516041813
 10
-54.8996670202
 20
-14.5252443302
 10
-55.2320538363
 20
-14.4772550477
 10
-55.5378996103
 20
-14.372072267
 10
-55.8259875319
 20
-14.2017352134
 10
-56.0875700411
 20
-13.9741948755
  0
LINE
  5
4FD
100
AcDbEntity
  8
0
100
AcDbLine
 62
7
  6
CONTINUOUS
 10
-40.7157264926
 20
-14.7396209858
 11
-44.8450688805
 21
-14.7487674003
  0
LINE
  5
4FE
100
AcDbEntity
  8
0
100
AcDbLine
 62
7
  6
CONTINUOUS
 10
-43.5581262921
 20
-13.2456972203
 11
-43.2940155621
 21
-13.2451122201
  0
LINE
  5
4FF
100
AcDbEntity
  8
0
100
AcDbLine
 62
7
  6
CONTINUOUS
 10
-43.2940155621
 20
-13.0306119242
 11
-42.2901648435
 21
-13.028388414
  0
LINE
  5
500
100
AcDbEntity
  8
0
100
AcDbLine
 62
7
  6
CONTINUOUS
 10
-42.3343673743
 20
-12.8859332826
 11
-43.4849992894
 21
-12.8884819103
  0
LINE
  5
501
100
AcDbEntity
  8
0
100
AcDbLine
 62
7
  6
CONTINUOUS
 10
-50.7248748493
 20
-13.1323686288
 11
-52.2107281531
 21
-13.1323686288
  0
LINE
  5
502
100
AcDbEntity
  8
0
100
AcDbLine
 62
7
  6
CONTINUOUS
 10
-50.7261316589
 20
-12.3676553622
 11
-52.2119854177
 21
-12.3676553622
  0
LWPOLYLINE
  5
503
100
AcDbEntity
  8
0
100
AcDbPolyline
 62
7
  6
CONTINUOUS
 90
7
 70
0
 10
-56.2963807997
 20
-13.7133177205
 10
-56.446843917
 20
-13.4160987733
 10
-56.544534477
 20
-13.0855339279
 10
-56.5799202931
 20
-12.7544992668
 10
-56.5468553408
 20
-12.4226980172
 10
-56.4514501797
 20
-12.0904290539
 10
-56.3025808754
 20
-11.7914718963
  0
LWPOLYLINE
  5
504
100
AcDbEntity
  8
0
100
AcDbPolyline
 62
7
  6
CONTINUOUS
 90
3
 70
0
 10
-53.7295691737
 20
-32.2285810093
 10
-53.7652971174
 20
-32.0952454303
 10
-53.7803976865
 20
-31.95
  0
LWPOLYLINE
  5
505
100
AcDbEntity
  8
0
100
AcDbPolyline
 62
7
  6
CONTINUOUS
 90
3
 70
0
 10
-52.8893531224
 20
-32.8493027663
 10
-52.883037994
 20
-32.8736262527
 10
-52.8803976865
 20
-32.9
  0
LWPOLYLINE
  5
506
100
AcDbEntity
  8
0
100
AcDbPolyline
 62
250
  6
CONTINUOUS
 90
13
 70
0
 10
-60.2196824485
 20
-8.9580166993
 10
-60.2242440161
 20
-8.9401046685
 10
-60.2288683008
 20
-8.9226408111
 10
-60.2335551336
 20
-8.9056252905
 10
-60.2382625274
 20
-8.8890463716
 10
-60.2430322246
 20
-8.8729160899
 10
-60.2479892835
 20
-8.8572702081
 10
-60.2525742228
 20
-8.8423171458
 10
-60.2573466209
 20
-8.8278487725
 10
-60.2641040251
 20
-8.8132753192
 10
-60.2734369343
 20
-8.7983996606
 10
-60.2847347725
 20
-8.7834179814
 10
-60.2979844163
 20
-8.7683299304
  0
LWPOLYLINE
  5
507
100
AcDbEntity
  8
0
100
AcDbPolyline
 62
250
  6
CONTINUOUS
 90
5
 70
0
 10
-60.1366812973
 20
-9.3338656524
 10
-60.1564611077
 20
-9.2386486304
 10
-60.1769637476
 20
-9.1443144084
 10
-60.1980414718
 20
-9.0507693062
 10
-60.2196824485
 20
-8.9580166993
  0
LINE
  5
508
100
AcDbEntity
  8
0
100
AcDbLine
 62
250
  6
CONTINUOUS
 10
-60.0794534524
 20
-9.6239135937
 11
-60.1366812973
 21
-9.3338656524
  0
LINE
  5
509
100
AcDbEntity
  8
0
100
AcDbLine
 62
250
  6
CONTINUOUS
 10
-60.0418797796
 20
-9.8204520655
 11
-60.0794534524
 21
-9.6239135937
  0
LWPOLYLINE
  5
50A
100
AcDbEntity
  8
0
100
AcDbPolyline
 62
7
  6
CONTINUOUS
 90
6
 70
0
 10
-62.3766781481
 20
27.3483551756
 10
-62.3765178892
 20
27.3466445591
 10
-62.3766774997
 20
27.340244809
 10
-62.3769882249
 20
27.32965093
 10
-62.3772980855
 20
27.315330344
 10
-62.3774723649
 20
27.2977232895
  0
LINE
  5
50B
100
AcDbEntity
  8
0
100
AcDbLine
 62
7
  6
CONTINUOUS
 10
-58.7536590965
 20
27.4
 11
-58.7536590965
 21
27.3419508109
  0
LWPOLYLINE
  5
50C
100
AcDbEntity
  8
0
100
AcDbPolyline
 62
250
  6
CONTINUOUS
 90
6
 70
0
 10
-56.5038260868
 20
27.2251091505
 10
-56.5091753948
 20
27.1648067245
 10
-56.5135734845
 20
27.0939408284
 10
-56.516921132
 20
27.0149862594
 10
-56.5190632464
 20
26.9296150468
 10
-56.5198593813
 20
26.8400307975
  0
LINE
  5
50D
100
AcDbEntity
  8
0
100
AcDbLine
 62
7
  6
CONTINUOUS
 10
-54.6218176865
 20
16.14574
 11
-53.7375076865
 21
18.90008
  0
LINE
  5
50E
100
AcDbEntity
  8
0
100
AcDbLine
 62
7
  6
CONTINUOUS
 10
-54.2217976865
 20
14.8999
 11
-52.9374676865
 21
18.90008
  0
LINE
  5
50F
100
AcDbEntity
  8
0
100
AcDbLine
 62
7
  6
CONTINUOUS
 10
-43.384127434
 20
-9.3508617222
 11
-43.3194513734
 21
-9.3370026316
  0
LWPOLYLINE
  5
510
100
AcDbEntity
  8
0
100
AcDbPolyline
 62
7
  6
CONTINUOUS
 90
3
 70
0
 10
-43.3194513734
 20
-9.3370026316
 10
-43.2549127862
 20
-9.3249005388
 10
-43.1905117018
 20
-9.3145554467
  0
LINE
  5
511
100
AcDbEntity
  8
0
100
AcDbLine
 62
7
  6
CONTINUOUS
 10
-43.2627372153
 20
-9.178074686
 11
-43.3147602715
 21
-9.1872932974
  0
LINE
  5
512
100
AcDbEntity
  8
0
100
AcDbLine
 62
7
  6
CONTINUOUS
 10
-55.2380259795
 20
-11.0225356489
 11
-54.9055385617
 21
-10.9744312915
  0
LINE
  5
513
100
AcDbEntity
  8
0
100
AcDbLine
 62
7
  6
CONTINUOUS
 10
-43.1905117018
 20
-9.3145554467
 11
-43.1262481506
 21
-9.3059673579
  0
LINE
  5
514
100
AcDbEntity
  8
0
100
AcDbLine
 62
7
  6
CONTINUOUS
 10
-43.0219123933
 20
-10.70732278
 11
-42.2670992847
 21
-10.7056508834
  0
LINE
  5
515
100
AcDbEntity
  8
0
100
AcDbLine
 62
7
  6
CONTINUOUS
 10
-41.6455712944
 20
-10.4250370319
 11
-41.3209587638
 21
-10.4243180213
  0
LINE
  5
516
100
AcDbEntity
  8
0
100
AcDbLine
 62
7
  6
CONTINUOUS
 10
-42.1489336766
 20
-10.4202598678
 11
-43.0219123933
 21
-10.422193499
  0
LINE
  5
517
100
AcDbEntity
  8
0
100
AcDbLine
 62
7
  6
CONTINUOUS
 10
-41.4456908062
 20
-10.2964047462
 11
-41.6336457731
 21
-10.2968210629
  0
LINE
  5
518
100
AcDbEntity
  8
0
100
AcDbLine
 62
7
  6
CONTINUOUS
 10
-41.504412025
 20
-9.9276370639
 11
-41.5992626972
 21
-9.9278471563
  0
LWPOLYLINE
  5
519
100
AcDbEntity
  8
0
100
AcDbPolyline
 62
7
  6
CONTINUOUS
 90
3
 70
0
 10
-54.5477780594
 20
-10.2137449826
 10
-54.974928532
 20
-10.2124248209
 10
-55.3765035668
 20
-10.2696251753
  0
LWPOLYLINE
  5
51A
100
AcDbEntity
  8
0
100
AcDbPolyline
 62
7
  6
CONTINUOUS
 90
9
 70
0
 10
-50.2205907613
 20
-10.2137449826
 10
-50.6431909632
 20
-10.2107652161
 10
-51.0419208993
 20
-10.2668224221
 10
-51.4167720071
 20
-10.3819158462
 10
-51.7757386222
 20
-10.5617117481
 10
-52.1108029609
 20
-10.8005392799
 10
-52.3979542789
 20
-11.0813913822
 10
-52.6339503682
 20
-11.4076634969
 10
-52.8220406933
 20
-11.7759503795
  0
LINE
  5
51B
100
AcDbEntity
  8
0
100
AcDbLine
 62
7
  6
CONTINUOUS
 10
-54.9055385617
 20
-10.9744312915
 11
-54.5465121713
 21
-10.983982178
  0
LWPOLYLINE
  5
51C
100
AcDbEntity
  8
0
100
AcDbPolyline
 62
7
  6
CONTINUOUS
 90
3
 70
0
 43
0.3500000006
 10
-73.2131194153
 20
-2.7045160103
 10
-72.9988349304
 20
-2.7759437943
 10
-72.7131192627
 20
-2.9188016281
  0
LINE
  5
51D
100
AcDbEntity
  8
0
100
AcDbLine
 62
250
  6
CONTINUOUS
 10
-39.8147182688
 20
-30.5911629451
 11
-39.5511986485
 21
-30.9672955624
  0
LWPOLYLINE
  5
51E
100
AcDbEntity
  8
0
100
AcDbPolyline
 62
7
  6
CONTINUOUS
 90
9
 70
0
 10
-52.8081227283
 20
-13.75023864
 10
-52.6158777692
 20
-14.114503664
 10
-52.3766662319
 20
-14.4367021161
 10
-52.0868560527
 20
-14.7136583091
 10
-51.7500825683
 20
-14.9485620462
 10
-51.3917167978
 20
-15.1249201552
 10
-51.0202024847
 20
-15.2372397843
 10
-50.6270572119
 20
-15.2910253445
 10
-50.2122540297
 20
-15.2862790084
  0
LINE
  5
51F
100
AcDbEntity
  8
0
100
AcDbLine
 62
250
  6
CONTINUOUS
 10
-56.7126027361
 20
-14.4240954094
 11
-56.7087615261
 21
-15.5044208751
  0
LINE
  5
520
100
AcDbEntity
  8
0
100
AcDbLine
 62
250
  6
CONTINUOUS
 10
-56.7249459978
 20
-12.1939838437
 11
-56.718879919
 21
-14.4195289387
  0
LINE
  5
521
100
AcDbEntity
  8
0
100
AcDbLine
 62
250
  6
CONTINUOUS
 10
-56.7270473411
 20
-11.0836021732
 11
-56.7249459978
 21
-12.1939838437
  0
LINE
  5
522
100
AcDbEntity
  8
0
100
AcDbLine
 62
250
  6
CONTINUOUS
 10
-56.7231113287
 20
-8.8639699372
 11
-56.7211031509
 21
-11.0765902565
  0
LINE
  5
523
100
AcDbEntity
  8
0
100
AcDbLine
 62
250
  6
CONTINUOUS
 10
-56.7234010805
 20
-7.7546194556
 11
-56.7231113287
 21
-8.8639699372
  0
LINE
  5
524
100
AcDbEntity
  8
0
100
AcDbLine
 62
250
  6
CONTINUOUS
 10
-56.7157618606
 20
-7.7546194555
 11
-56.7157618607
 21
26.8448551583
  0
LWPOLYLINE
  5
525
100
AcDbEntity
  8
0
100
AcDbPolyline
 62
7
  6
CONTINUOUS
 90
10
 70
0
 43
0.3500000006
 10
-73.427408432
 20
-2.7759437943
 10
-73.2845505981
 20
-2.7045160103
 10
-73.2131194153
 20
-2.7045160103
 10
-73.0702615814
 20
-2.8473727112
 10
-73.0702615814
 20
-2.9188016281
 10
-73.1416927643
 20
-2.990230545
 10
-73.2131194153
 20
-2.990230545
 10
-73.3559772491
 20
-2.9188016281
 10
-73.427408432
 20
-2.8473727112
 10
-73.427408432
 20
-2.7759437943
  0
LINE
  5
526
100
AcDbEntity
  8
0
100
AcDbLine
 62
7
  6
CONTINUOUS
 10
-43.2104148915
 20
-9.1699297855
 11
-43.2627372153
 21
-9.178074686
  0
LINE
  5
527
100
AcDbEntity
  8
0
100
AcDbLine
 62
7
  6
CONTINUOUS
 10
-43.1262481506
 20
-9.3059673579
 11
-43.062122164
 21
-9.2991362744
  0
LWPOLYLINE
  5
528
100
AcDbEntity
  8
0
100
AcDbPolyline
 62
7
  6
CONTINUOUS
 90
4
 70
0
 10
-43.0516527384
 20
-9.1519373593
 10
-43.1048726093
 20
-9.1568611213
 10
-43.1577933418
 20
-9.162858597
 10
-43.2104148915
 20
-9.1699297855
  0
LINE
  5
529
100
AcDbEntity
  8
0
100
AcDbLine
 62
7
  6
CONTINUOUS
 10
-43.062122164
 20
-9.2991362744
 11
-42.9981337751
 21
-9.294062198
  0
LINE
  5
52A
100
AcDbEntity
  8
0
100
AcDbLine
 62
7
  6
CONTINUOUS
 10
-42.9981337751
 20
-9.1480873116
 11
-43.0516527384
 21
-9.1519373593
  0
LWPOLYLINE
  5
52B
100
AcDbEntity
  8
0
100
AcDbPolyline
 62
250
  6
CONTINUOUS
 90
3
 70
0
 10
-63.5904481714
 20
-8.7847138523
 10
-63.640662888
 20
-8.7877078403
 10
-63.6718146295
 20
-8.7898806915
  0
LINE
  5
52C
100
AcDbEntity
  8
0
100
AcDbLine
 62
250
  6
CONTINUOUS
 10
-63.4360434906
 20
-8.7764454245
 11
-63.5904481714
 21
-8.7847138523
  0
LINE
  5
52D
100
AcDbEntity
  8
0
100
AcDbLine
 62
250
  6
CONTINUOUS
 10
-60.2137723417
 20
-9.8282690668
 11
-60.2983674693
 21
-9.8327171865
  0
LWPOLYLINE
  5
52E
100
AcDbEntity
  8
0
100
AcDbPolyline
 62
250
  6
CONTINUOUS
 90
3
 70
0
 10
-62.7972630933
 20
-8.7457069399
 10
-62.9464665946
 20
-8.752641582
 10
-63.4360434906
 20
-8.7764454245
  0
LINE
  5
52F
100
AcDbEntity
  8
0
100
AcDbLine
 62
250
  6
CONTINUOUS
 10
-60.1281186731
 20
-9.8241721677
 11
-60.2137723417
 21
-9.8282690668
  0
LINE
  5
530
100
AcDbEntity
  8
0
100
AcDbLine
 62
250
  6
CONTINUOUS
 10
-60.0420955341
 20
-9.8204596524
 11
-60.1281186731
 21
-9.8241721677
  0
LINE
  5
531
100
AcDbEntity
  8
0
100
AcDbLine
 62
7
  6
CONTINUOUS
 10
-43.757781292
 20
-9.7169993676
 11
-41.7223443857
 21
-9.7124909138
  0
LINE
  5
532
100
AcDbEntity
  8
0
100
AcDbLine
 62
7
  6
CONTINUOUS
 10
-44.0730338763
 20
-9.7117932652
 11
-43.9013388131
 21
-9.7114129639
  0
LINE
  5
533
100
AcDbEntity
  8
0
100
AcDbLine
 62
7
  6
CONTINUOUS
 10
-41.7279388488
 20
-9.5640342834
 11
-43.384127434
 21
-9.5677027095
  0
LINE
  5
534
100
AcDbEntity
  8
0
100
AcDbLine
 62
7
  6
CONTINUOUS
 10
-43.9219693037
 20
-9.5688940189
 11
-44.0730338763
 21
-9.5692286241
  0
LINE
  5
535
100
AcDbEntity
  8
0
100
AcDbLine
 62
7
  6
CONTINUOUS
 10
-43.6276787155
 20
-9.5682298439
 11
-43.7695861021
 21
-9.568544166
  0
LINE
  5
536
100
AcDbEntity
  8
0
100
AcDbLine
 62
7
  6
CONTINUOUS
 10
-42.9981337751
 20
-9.4421152819
 11
-42.2973980926
 21
-9.4405631658
  0
LINE
  5
537
100
AcDbEntity
  8
0
100
AcDbLine
 62
7
  6
CONTINUOUS
 10
-42.4399462241
 20
-9.2983138074
 11
-42.8556332061
 21
-9.2992345461
  0
LINE
  5
538
100
AcDbEntity
  8
0
100
AcDbLine
 62
7
  6
CONTINUOUS
 10
-42.8556332061
 20
-9.2338684426
 11
-42.4399462241
 21
-9.2329477039
  0
LINE
  5
539
100
AcDbEntity
  8
0
100
AcDbLine
 62
7
  6
CONTINUOUS
 10
-43.3147602715
 20
-9.1872932974
 11
-43.6276671168
 21
-9.18798638
  0
LINE
  5
53A
100
AcDbEntity
  8
0
100
AcDbLine
 62
7
  6
CONTINUOUS
 10
-42.9981337751
 20
-9.0300641533
 11
-42.2973876355
 21
-9.0300641533
  0
LINE
  5
53B
100
AcDbEntity
  8
0
100
AcDbLine
 62
250
  6
CONTINUOUS
 10
-60.3325819983
 20
-7.7562916861
 11
-56.7173937366
 21
-7.7562916861
  0
LINE
  5
53C
100
AcDbEntity
  8
0
100
AcDbLine
 62
250
  6
CONTINUOUS
 10
-35.2282133747
 20
-7.7562916861
 11
-38.8434016364
 21
-7.7562916861
  0
LINE
  5
53D
100
AcDbEntity
  8
0
100
AcDbLine
 62
250
  6
CONTINUOUS
 10
-38.8402731925
 20
-7.7546194487
 11
-56.7157618606
 21
-7.7546194555
  0
LINE
  5
53E
100
AcDbEntity
  8
0
100
AcDbLine
 62
250
  6
CONTINUOUS
 10
-35.518699839
 20
-9.8204596524
 11
-35.4326767
 21
-9.8241721677
  0
LINE
  5
53F
100
AcDbEntity
  8
0
100
AcDbLine
 62
250
  6
CONTINUOUS
 10
-32.7635322797
 20
-8.7457069399
 11
-32.3443669872
 21
-8.7655090351
  0
LINE
  5
540
100
AcDbEntity
  8
0
100
AcDbLine
 62
250
  6
CONTINUOUS
 10
-35.4326767
 20
-9.8241721677
 11
-35.3470230314
 21
-9.8282690668
  0
LWPOLYLINE
  5
541
100
AcDbEntity
  8
0
100
AcDbPolyline
 62
250
  6
CONTINUOUS
 90
5
 70
0
 10
-32.3443669872
 20
-8.7655090351
 10
-32.0387887462
 20
-8.7809461331
 10
-31.9703472017
 20
-8.7847138523
 10
-31.9201324851
 20
-8.7877078403
 10
-31.8889807436
 20
-8.7898806915
  0
LINE
  5
542
100
AcDbEntity
  8
0
100
AcDbLine
 62
250
  6
CONTINUOUS
 10
-35.3470230314
 20
-9.8282690668
 11
-35.2624279038
 21
-9.8327171865
  0
LINE
  5
543
100
AcDbEntity
  8
0
100
AcDbLine
 62
7
  6
CONTINUOUS
 10
-42.2341413347
 20
-9.1699414158
 11
-42.2974096913
 21
-9.1623363386
  0
LINE
  5
544
100
AcDbEntity
  8
0
100
AcDbLine
 62
7
  6
CONTINUOUS
 10
-42.2974096913
 20
-9.3075027147
 11
-42.2203848873
 21
-9.317058251
  0
LWPOLYLINE
  5
545
100
AcDbEntity
  8
0
100
AcDbPolyline
 62
7
  6
CONTINUOUS
 90
6
 70
0
 10
-41.4498498407
 20
-9.3524525414
 10
-41.4998055117
 20
-9.3456515735
 10
-41.5462090632
 20
-9.3487189412
 10
-41.5858955219
 20
-9.3611457039
 10
-41.6220290621
 20
-9.383440781
 10
-41.6546095936
 20
-9.4156041407
  0
LINE
  5
546
100
AcDbEntity
  8
0
100
AcDbLine
 62
7
  6
CONTINUOUS
 10
-42.1720104153
 20
-9.1795310557
 11
-42.2341413347
 21
-9.1699414158
  0
LINE
  5
547
100
AcDbEntity
  8
0
100
AcDbLine
 62
7
  6
CONTINUOUS
 10
-42.2203848873
 20
-9.317058251
 11
-42.1457416876
 21
-9.3304814518
  0
LINE
  5
548
100
AcDbEntity
  8
0
100
AcDbLine
 62
7
  6
CONTINUOUS
 10
-42.1110168826
 20
-9.1911052558
 11
-42.1720104153
 21
-9.1795310557
  0
LINE
  5
549
100
AcDbEntity
  8
0
100
AcDbLine
 62
7
  6
CONTINUOUS
 10
-42.050753005
 20
-9.2043815366
 11
-42.1110168826
 21
-9.1911052558
  0
LWPOLYLINE
  5
54A
100
AcDbEntity
  8
0
100
AcDbPolyline
 62
7
  6
CONTINUOUS
 90
5
 70
0
 10
-42.1457416876
 20
-9.3304814518
 10
-42.0734799497
 20
-9.3477723099
 10
-42.0021910549
 20
-9.3677716674
 10
-41.9332834666
 20
-9.3916386635
 10
-41.870982302
 20
-9.4228507214
  0
LWPOLYLINE
  5
54B
100
AcDbEntity
  8
0
100
AcDbPolyline
 62
7
  6
CONTINUOUS
 90
4
 70
0
 10
-41.5787742908
 20
-9.7080146199
 10
-41.5381768394
 20
-9.7197662228
 10
-41.4984504668
 20
-9.7222199502
 10
-41.4595949738
 20
-9.7153758061
  0
LWPOLYLINE
  5
54C
100
AcDbEntity
  8
0
100
AcDbPolyline
 62
7
  6
CONTINUOUS
 90
5
 70
0
 10
-42.1725680281
 20
-13.1680720796
 10
-42.09670417
 20
-13.2101662633
 10
-42.0032790668
 20
-13.2352110501
 10
-41.898477906
 20
-13.2417581884
 10
-41.8008510487
 20
-13.225462332
  0
LINE
  5
54D
100
AcDbEntity
  8
0
100
AcDbLine
 62
7
  6
CONTINUOUS
 10
-45.1605352573
 20
-13.6572903877
 11
-45.0768969185
 21
-13.7393172037
  0
LINE
  5
54E
100
AcDbEntity
  8
0
100
AcDbLine
 62
7
  6
CONTINUOUS
 10
-54.5394413278
 20
-15.2862790084
 11
-54.540707216
 21
-14.516041813
  0
LINE
  5
54F
100
AcDbEntity
  8
0
100
AcDbLine
 62
7
  6
CONTINUOUS
 10
-54.5465121713
 20
-10.983982178
 11
-54.5477780594
 21
-10.2137449826
  0
LINE
  5
550
100
AcDbEntity
  8
0
100
AcDbLine
 62
7
  6
CONTINUOUS
 10
-53.7803976865
 20
-31.2901485295
 11
-53.7803976865
 21
-31.95
  0
LINE
  5
551
100
AcDbEntity
  8
0
100
AcDbLine
 62
7
  6
CONTINUOUS
 10
-52.8803976865
 20
-32.9
 11
-52.8803976865
 21
-33.45
  0
LINE
  5
552
100
AcDbEntity
  8
0
100
AcDbLine
 62
7
  6
CONTINUOUS
 10
-48.8476676865
 20
16.29502
 11
-48.1006776865
 21
18.90008
  0
LINE
  5
553
100
AcDbEntity
  8
0
100
AcDbLine
 62
7
  6
CONTINUOUS
 10
-48.4476676865
 20
14.89991
 11
-47.6912876865
 21
17.53775
  0
LWPOLYLINE
  5
554
100
AcDbEntity
  8
0
100
AcDbPolyline
 62
7
  6
CONTINUOUS
 90
9
 70
0
 10
-33.1834016314
 20
27.3485276115
 10
-33.1878552595
 20
27.3429422293
 10
-33.2009118709
 20
27.3365193035
 10
-33.2219414498
 20
27.329258834
 10
-33.2500450125
 20
27.31980213
 10
-33.2842658391
 20
27.3095078822
 10
-33.3237553937
 20
27.3024521635
 10
-33.3674840936
 20
27.2999936647
 10
-33.4141499618
 20
27.3007736949
  0
LWPOLYLINE
  5
555
100
AcDbEntity
  8
0
100
AcDbPolyline
 62
250
  6
CONTINUOUS
 90
3
 70
0
 10
-31.8833195871
 20
27.4123971046
 10
-31.8887282389
 20
27.405991111
 10
-31.9050054922
 20
27.3995887723
  0
LINE
  5
556
100
AcDbEntity
  8
0
100
AcDbLine
 62
250
  6
CONTINUOUS
 10
-63.7335930025
 20
-6.1500000004
 11
-60.3590367063
 21
-6.1500039367
  0
LINE
  5
557
100
AcDbEntity
  8
0
100
AcDbLine
 62
7
  6
CONTINUOUS
 10
-31.8272023665
 20
-6.1500000004
 11
-31.3834016314
 21
-6.1500000004
  0
LINE
  5
558
100
AcDbEntity
  8
0
100
AcDbLine
 62
250
  6
CONTINUOUS
 10
-31.8272023705
 20
-6.1500000004
 11
-35.2017586667
 21
-6.1500039367
  0
LINE
  5
559
100
AcDbEntity
  8
0
100
AcDbLine
 62
7
  6
CONTINUOUS
 10
-63.7335930066
 20
-6.1500000004
 11
-64.1773937417
 21
-6.1500000004
  0
LWPOLYLINE
  5
55A
100
AcDbEntity
  8
0
100
AcDbPolyline
 62
7
  6
CONTINUOUS
 90
4
 70
0
 10
-41.8805526099
 20
-9.2586407356
 10
-41.9348601488
 20
-9.2377351853
 10
-41.9916264462
 20
-9.2196423716
 10
-42.050753005
 20
-9.2043815366
  0
LINE
  5
55B
100
AcDbEntity
  8
0
100
AcDbLine
 62
7
  6
CONTINUOUS
 10
-41.4058352223
 20
-9.3706486449
 11
-41.4498498407
 21
-9.3524525414
  0
LINE
  5
55C
100
AcDbEntity
  8
0
100
AcDbLine
 62
250
  6
CONTINUOUS
 10
-36.7430794099
 20
-13.751068309
 11
-36.8575195407
 21
-13.6872933878
  0
LINE
  5
55D
100
AcDbEntity
  8
0
100
AcDbLine
 62
250
  6
CONTINUOUS
 10
-36.8575195407
 20
-13.6872933878
 11
-36.9790908588
 21
-13.618623803
  0
LINE
  5
55E
100
AcDbEntity
  8
0
100
AcDbLine
 62
250
  6
CONTINUOUS
 10
-36.9790908588
 20
-13.618623803
 11
-37.1051221984
 21
-13.5465990586
  0
LWPOLYLINE
  5
55F
100
AcDbEntity
  8
0
100
AcDbPolyline
 62
250
  6
CONTINUOUS
 90
3
 70
0
 10
-37.1051221984
 20
-13.5465990586
 10
-37.2321649603
 20
-13.4731718191
 10
-37.2953203856
 20
-13.4363476592
  0
LINE
  5
560
100
AcDbEntity
  8
0
100
AcDbLine
 62
250
  6
CONTINUOUS
 10
-38.5611688854
 20
-15.8444025814
 11
-38.4754241621
 21
-15.927549195
  0
LINE
  5
561
100
AcDbEntity
  8
0
100
AcDbLine
 62
250
  6
CONTINUOUS
 10
-38.6510840314
 20
-15.7563380401
 11
-38.5611688854
 21
-15.8444025814
  0
LWPOLYLINE
  5
562
100
AcDbEntity
  8
0
100
AcDbPolyline
 62
250
  6
CONTINUOUS
 90
3
 70
0
 10
-38.7906092097
 20
-15.6181105199
 10
-38.7438062996
 20
-15.6646821322
 10
-38.6510840314
 20
-15.7563380401
  0
LINE
  5
563
100
AcDbEntity
  8
0
100
AcDbLine
 62
250
  6
CONTINUOUS
 10
-35.3968156835
 20
-27.8922886135
 11
-35.6578016237
 21
-27.5459015524
  0
LINE
  5
564
100
AcDbEntity
  8
0
100
AcDbLine
 62
7
  6
CONTINUOUS
 10
-50.7248748493
 20
-13.1323686288
 11
-50.7261316589
 21
-12.3676553622
  0
LINE
  5
565
100
AcDbEntity
  8
0
100
AcDbLine
 62
7
  6
CONTINUOUS
 10
-50.2122540297
 20
-15.2862790084
 11
-50.2135199186
 21
-14.5160413633
  0
LINE
  5
566
100
AcDbEntity
  8
0
100
AcDbLine
 62
7
  6
CONTINUOUS
 10
-50.2193248732
 20
-10.983982178
 11
-50.2205907613
 21
-10.2137449826
  0
LINE
  5
567
100
AcDbEntity
  8
0
100
AcDbLine
 62
7
  6
CONTINUOUS
 10
-52.4041276865
 20
14.89989
 11
-52.4041176865
 21
18.90008
  0
LINE
  5
568
100
AcDbEntity
  8
0
100
AcDbLine
 62
7
  6
CONTINUOUS
 10
-51.6040976865
 20
14.8999
 11
-51.6040876865
 21
18.90008
  0
LINE
  5
569
100
AcDbEntity
  8
0
100
AcDbLine
 62
7
  6
CONTINUOUS
 10
-50.8040876865
 20
14.8999
 11
-50.8040876865
 21
18.90008
  0
LINE
  5
56A
100
AcDbEntity
  8
0
100
AcDbLine
 62
7
  6
CONTINUOUS
 10
-50.4305536865
 20
27.4
 11
-50.4305536865
 21
27.48
  0
LINE
  5
56B
100
AcDbEntity
  8
0
100
AcDbLine
 62
7
  6
CONTINUOUS
 10
-50.0878646865
 20
27.4
 11
-50.0878646865
 21
27.48
  0
LINE
  5
56C
100
AcDbEntity
  8
0
100
AcDbLine
 62
7
  6
CONTINUOUS
 10
-50.0040576865
 20
14.8999
 11
-50.0040576865
 21
17.53775
  0
LINE
  5
56D
100
AcDbEntity
  8
0
100
AcDbLine
 62
7
  6
CONTINUOUS
 10
-46.3578976865
 20
14.8999
 11
-45.0735876865
 21
18.90009
  0
LINE
  5
56E
100
AcDbEntity
  8
0
100
AcDbLine
 62
7
  6
CONTINUOUS
 10
-45.5578676865
 20
14.89991
 11
-45.3052976865
 21
15.68657
  0
LINE
  5
56F
100
AcDbEntity
  8
0
100
AcDbLine
 62
7
  6
CONTINUOUS
 10
-45.0612676865
 20
16.4466
 11
-44.6735576865
 21
17.65424
  0
LINE
  5
570
100
AcDbEntity
  8
0
100
AcDbLine
 62
250
  6
CONTINUOUS
 10
-35.3409885438
 20
-8.9580191227
 11
-35.4031053266
 21
-8.9270995842
  0
LWPOLYLINE
  5
571
100
AcDbEntity
  8
0
100
AcDbPolyline
 62
7
  6
CONTINUOUS
 90
4
 70
0
 10
-41.7348795474
 20
-9.3413662334
 10
-41.7799444268
 20
-9.3098528505
 10
-41.8286050665
 20
-9.2823782498
 10
-41.8805526099
 20
-9.2586407356
  0
LWPOLYLINE
  5
572
100
AcDbEntity
  8
0
100
AcDbPolyline
 62
7
  6
CONTINUOUS
 90
3
 70
0
 10
-41.870982302
 20
-9.4228507214
 10
-41.8166955385
 20
-9.4625669498
 10
-41.7690144478
 20
-9.5096281559
  0
LINE
  5
573
100
AcDbEntity
  8
0
100
AcDbLine
 62
250
  6
CONTINUOUS
 10
-38.8841111156
 20
-15.5244627409
 11
-38.7906092097
 21
-15.6181105199
  0
LWPOLYLINE
  5
574
100
AcDbEntity
  8
0
100
AcDbPolyline
 62
7
  6
CONTINUOUS
 90
3
 70
0
 10
-41.6546095936
 20
-9.4156041407
 10
-41.6931012998
 20
-9.3766166701
 10
-41.7348795474
 20
-9.3413662334
  0
LINE
  5
575
100
AcDbEntity
  8
0
100
AcDbLine
 62
7
  6
CONTINUOUS
 10
-43.8649115967
 20
-10.1349154891
 11
-45.2474400843
 21
-8.6815369027
  0
LINE
  5
576
100
AcDbEntity
  8
0
100
AcDbLine
 62
7
  6
CONTINUOUS
 10
-42.8024829519
 20
-11.2517900465
 11
-43.7076112953
 21
-10.3002749711
  0
LINE
  5
577
100
AcDbEntity
  8
0
100
AcDbLine
 62
7
  6
CONTINUOUS
 10
-41.9492684154
 20
-12.1487225777
 11
-42.7228110037
 21
-11.3355355394
  0
LINE
  5
578
100
AcDbEntity
  8
0
100
AcDbLine
 62
7
  6
CONTINUOUS
 10
-40.5367152281
 20
-13.6336477487
 11
-41.8189054011
 21
-12.285747116
  0
LINE
  5
579
100
AcDbEntity
  8
0
100
AcDbLine
 62
7
  6
CONTINUOUS
 10
-42.803218808
 20
-11.4176411634
 11
-41.9635210878
 21
-12.3017967674
  0
LINE
  5
57A
100
AcDbEntity
  8
0
100
AcDbLine
 62
7
  6
CONTINUOUS
 10
-45.2474400843
 20
-8.8440017717
 11
-43.8493171235
 21
-10.3161518366
  0
LINE
  5
57B
100
AcDbEntity
  8
0
100
AcDbLine
 62
7
  6
CONTINUOUS
 10
-43.6919929088
 20
-10.4818078912
 11
-42.882855021
 21
-11.3337880886
  0
LINE
  5
57C
100
AcDbEntity
  8
0
100
AcDbLine
 62
7
  6
CONTINUOUS
 10
-41.522311018
 20
-12.7663647487
 11
-40.621778759
 21
-13.7145871168
  0
LWPOLYLINE
  5
57D
100
AcDbEntity
  8
0
100
AcDbPolyline
 62
7
  6
CONTINUOUS
 90
3
 70
0
 10
-42.2901648435
 20
-13.028388414
 10
-42.2370548533
 20
-13.1074796454
 10
-42.1725680281
 20
-13.1680720796
  0
LINE
  5
57E
100
AcDbEntity
  8
0
100
AcDbLine
 62
7
  6
CONTINUOUS
 10
-56.3061776865
 20
18.90008
 11
-55.0218576865
 21
14.89989
  0
LINE
  5
57F
100
AcDbEntity
  8
0
100
AcDbLine
 62
7
  6
CONTINUOUS
 10
-49.9165196865
 20
27.4
 11
-49.9165196865
 21
27.48
  0
LINE
  5
580
100
AcDbEntity
  8
0
100
AcDbLine
 62
7
  6
CONTINUOUS
 10
-49.4765002745
 20
27.48
 11
-49.4765002745
 21
27.4
  0
LINE
  5
581
100
AcDbEntity
  8
0
100
AcDbLine
 62
7
  6
CONTINUOUS
 10
-48.5691067071
 20
27.4
 11
-48.5691067071
 21
27.48
  0
LINE
  5
582
100
AcDbEntity
  8
0
100
AcDbLine
 62
7
  6
CONTINUOUS
 10
-48.4756656865
 20
27.4
 11
-48.4756656865
 21
27.48
  0
LINE
  5
583
100
AcDbEntity
  8
0
100
AcDbLine
 62
7
  6
CONTINUOUS
 10
-48.3377866865
 20
27.4
 11
-48.3377866865
 21
27.48
  0
LINE
  5
584
100
AcDbEntity
  8
0
100
AcDbLine
 62
7
  6
CONTINUOUS
 10
-47.9328506865
 20
27.4
 11
-47.9328506865
 21
27.48
  0
LINE
  5
585
100
AcDbEntity
  8
0
100
AcDbLine
 62
7
  6
CONTINUOUS
 10
-47.8779056877
 20
27.4
 11
-47.8779056877
 21
27.48
  0
LINE
  5
586
100
AcDbEntity
  8
0
100
AcDbLine
 62
7
  6
CONTINUOUS
 10
-47.6912776865
 20
14.8999
 11
-47.6912876865
 21
17.53775
  0
LINE
  5
587
100
AcDbEntity
  8
0
100
AcDbLine
 62
250
  6
CONTINUOUS
 10
-47.7804053163
 20
-19.1899011518
 11
-47.7803976873
 21
-30.7882181227
  0
LWPOLYLINE
  5
588
100
AcDbEntity
  8
0
100
AcDbPolyline
 62
250
  6
CONTINUOUS
 90
10
 70
0
 10
-52.7522486145
 20
-21.1621198776
 10
-52.9728434526
 20
-22.0833698618
 10
-53.241654784
 20
-23.0273971451
 10
-53.5439640808
 20
-23.987195652
 10
-53.870661545
 20
-24.965419853
 10
-54.2111434884
 20
-25.9568856437
 10
-54.5514288093
 20
-26.9458566464
 10
-54.8798598333
 20
-27.925558787
 10
-55.1854310511
 20
-28.8983897049
 10
-55.4487403004
 20
-29.8527179837
  0
LWPOLYLINE
  5
589
100
AcDbEntity
  8
0
100
AcDbPolyline
 62
7
  6
CONTINUOUS
 90
10
 70
0
 10
-52.2119854177
 20
-12.3676553622
 10
-52.1174900858
 20
-12.0738030355
 10
-51.986459273
 20
-11.8115362956
 10
-51.8188907724
 20
-11.5808588907
 10
-51.6083689592
 20
-11.3771932521
 10
-51.3613016242
 20
-11.2051221909
 10
-51.0969318302
 20
-11.0783898265
 10
-50.8216824486
 20
-11.0015787713
 10
-50.5291449253
 20
-10.9701094143
 10
-50.2193248732
 20
-10.983982178
  0
LWPOLYLINE
  5
58A
100
AcDbEntity
  8
0
100
AcDbPolyline
 62
7
  6
CONTINUOUS
 90
6
 70
0
 10
-52.8220406933
 20
-11.7759503795
 10
-52.947987343
 20
-12.1590465853
 10
-53.0068650301
 20
-12.5581560644
 10
-53.0036361588
 20
-12.9720663121
 10
-52.9389214264
 20
-13.3699557185
 10
-52.8081227283
 20
-13.75023864
  0
LWPOLYLINE
  5
58B
100
AcDbEntity
  8
0
100
AcDbPolyline
 62
250
  6
CONTINUOUS
 90
10
 70
0
 10
-55.8595500254
 20
-19.2630186564
 10
-56.167796436
 20
-20.0252029853
 10
-56.5320373248
 20
-20.8090654155
 10
-56.9338803258
 20
-21.6037391372
 10
-57.3577714281
 20
-22.401154792
 10
-57.7969612478
 20
-23.2060432764
 10
-58.2534307705
 20
-24.0374827561
 10
-58.7191214496
 20
-24.899215024
 10
-59.1726824185
 20
-25.7785135016
 10
-59.5867909098
 20
-26.66592522
  0
LWPOLYLINE
  5
58C
100
AcDbEntity
  8
0
100
AcDbPolyline
 62
7
  6
CONTINUOUS
 90
10
 70
0
 10
-56.7270012237
 20
-11.0835486015
 10
-56.9700540915
 20
-11.4234378345
 10
-57.1519965606
 20
-11.7787646916
 10
-57.2729051088
 20
-12.1495257579
 10
-57.3328615348
 20
-12.546030897
 10
-57.3318904127
 20
-12.9579605942
 10
-57.2699839912
 20
-13.354372423
 10
-57.1471643683
 20
-13.7249557259
 10
-56.9634560917
 20
-14.0800249464
 10
-56.7188342752
 20
-14.4195815892
  0
LWPOLYLINE
  5
58D
100
AcDbEntity
  8
0
100
AcDbPolyline
 62
7
  6
CONTINUOUS
 90
4
 70
0
 43
0.3500000006
 10
-75.2845512085
 20
-1.7045157051
 10
-75.9274046631
 20
-1.7045157051
 10
-75.9274046631
 20
-0.2045163803
 10
-72.9274082794
 20
-1.0616588516
  0
LWPOLYLINE
  5
58E
100
AcDbEntity
  8
0
100
AcDbPolyline
 62
250
  6
CONTINUOUS
 90
46
 70
0
 10
-47.7803825966
 20
-1.1847243585
 10
-47.9374937529
 20
-1.181979655
 10
-48.0968397379
 20
-1.1712554439
 10
-48.2584201223
 20
-1.1525517252
 10
-48.4225563579
 20
-1.1263213451
 10
-48.5889260203
 20
-1.0921114574
 10
-48.7565628461
 20
-1.0485635234
 10
-48.9254243017
 20
-0.9958523455
 10
-49.0955518453
 20
-0.9338031213
 10
-49.2661052552
 20
-0.8605329051
 10
-49.4373958047
 20
-0.7762026564
 10
-49.6091111412
 20
-0.6806514157
 10
-49.7794758033
 20
-0.5715133584
 10
-49.9491498421
 20
-0.4486251866
 10
-50.1174724529
 20
-0.3121501981
 10
-50.2806875072
 20
-0.1602124625
 10
-50.4393016074
 20
0.0075049067
 10
-50.5928085042
 20
0.1906850231
 10
-50.7359339639
 20
0.3902531586
 10
-50.8691109771
 20
0.6064995457
 10
-50.9919085193
 20
0.839133952
 10
-51.0977577826
 20
1.088210951
 10
-51.1872873568
 20
1.3546427162
 10
-51.2598716974
 20
1.6375170743
 10
-51.3070618896
 20
1.9341520781
 10
-51.3282764683
 20
2.2478495552
 10
-51.3240987248
 20
2.5753076782
 10
-51.2878264931
 20
2.9039390169
 10
-51.2153954392
 20
3.2359883326
 10
-51.1108661516
 20
3.5692108641
 10
-50.9797229096
 20
3.8842848981
 10
-50.8190046278
 20
4.1777246352
 10
-50.6316653735
 20
4.4530158749
 10
-50.4320645827
 20
4.7012943014
 10
-50.2220506089
 20
4.9184344555
 10
-49.9997730496
 20
5.1085617965
 10
-49.7740471791
 20
5.2751883875
 10
-49.546108271
 20
5.4179998094
 10
-49.3147225671
 20
5.5373104813
 10
-49.0850038797
 20
5.6375757238
 10
-48.8576067753
 20
5.7189250677
 10
-48.6318794123
 20
5.7812289822
 10
-48.4109766984
 20
5.8285541957
 10
-48.1959511755
 20
5.8622562843
 10
-47.9857528008
 20
5.8809796719
 10
-47.7803825966
 20
5.8847243585
  0
LWPOLYLINE
  5
58F
100
AcDbEntity
  8
0
100
AcDbPolyline
 62
250
  6
CONTINUOUS
 90
46
 70
0
 10
-47.7803976865
 20
-0.684800511
 10
-47.9140105675
 20
-0.6818560531
 10
-48.0502047305
 20
-0.6727748934
 10
-48.1886782535
 20
-0.6571917507
 10
-48.328954186
 20
-0.6347753708
 10
-48.4708032341
 20
-0.6051670696
 10
-48.6142290745
 20
-0.5679171343
 10
-48.7585432225
 20
-0.5227265537
 10
-48.9034713055
 20
-0.4691864996
 10
-49.0494993007
 20
-0.4064899777
 10
-49.1959082735
 20
-0.3341948503
 10
-49.3420033976
 20
-0.2518541146
 10
-49.4880431548
 20
-0.1583584052
 10
-49.6331856845
 20
-0.0530644311
 10
-49.7761525965
 20
0.0643700761
 10
-49.9162255863
 20
0.1947813658
 10
-50.0520443239
 20
0.3385530877
 10
-50.1821045133
 20
0.4959080448
 10
-50.3051520232
 20
0.6674316544
 10
-50.4192916159
 20
0.8529240006
 10
-50.5228118689
 20
1.0524054204
 10
-50.6142514239
 20
1.2667185341
 10
-50.691324327
 20
1.4953555235
 10
-50.751672652
 20
1.7374883791
 10
-50.7930704521
 20
1.9932447019
 10
-50.8128580153
 20
2.2629309204
 10
-50.8079749688
 20
2.542845563
 10
-50.7764695053
 20
2.8265472299
 10
-50.7165949655
 20
3.1132527996
 10
-50.6274752609
 20
3.3980159034
 10
-50.512754195
 20
3.6686588238
 10
-50.3753181628
 20
3.9221138447
 10
-50.2170973734
 20
4.157826398
 10
-50.0447073078
 20
4.3697084404
 10
-49.8637209696
 20
4.5560465495
 10
-49.6758671334
 20
4.7195191612
 10
-49.4827955101
 20
4.8619254431
 10
-49.2870013154
 20
4.9841072329
 10
-49.0907194622
 20
5.0871214764
 10
-48.8944012265
 20
5.1727855616
 10
-48.6994630614
 20
5.24218338
 10
-48.5075150688
 20
5.2963423399
 10
-48.3187866264
 20
5.3366275614
 10
-48.1339634168
 20
5.3641201458
 10
-47.9542544521
 20
5.3798138399
 10
-47.7803976865
 20
5.384800511
  0
LINE
  5
590
100
AcDbEntity
  8
0
100
AcDbLine
 62
7
  6
CONTINUOUS
 10
-41.7690144478
 20
-9.5096281559
 11
-41.7279388488
 21
-9.5640342834
  0
LWPOLYLINE
  5
591
100
AcDbEntity
  8
0
100
AcDbPolyline
 62
7
  6
CONTINUOUS
 90
3
 70
0
 10
-41.3373073891
 20
-9.4484009218
 10
-41.3686008165
 20
-9.4038272627
 10
-41.4058352223
 20
-9.3706486449
  0
LWPOLYLINE
  5
592
100
AcDbEntity
  8
0
100
AcDbPolyline
 62
250
  6
CONTINUOUS
 90
10
 70
0
 10
-39.7012453477
 20
-19.2630186564
 10
-39.392998937
 20
-20.0252029853
 10
-39.0287580483
 20
-20.8090654155
 10
-38.6269150472
 20
-21.6037391372
 10
-38.203023945
 20
-22.401154792
 10
-37.7638341253
 20
-23.2060432764
 10
-37.3073646025
 20
-24.0374827561
 10
-36.8416739235
 20
-24.899215024
 10
-36.3881129546
 20
-25.7785135016
 10
-35.9740044633
 20
-26.66592522
  0
LWPOLYLINE
  5
593
100
AcDbEntity
  8
0
100
AcDbPolyline
 62
7
  6
CONTINUOUS
 90
7
 70
0
 10
-43.6213711715
 20
-12.9661818944
 10
-43.616021572
 20
-12.9827961779
 10
-43.6085954772
 20
-12.9970626151
 10
-43.5990928938
 20
-13.0089812221
 10
-43.5875138293
 20
-13.0185520123
 10
-43.5738582923
 20
-13.0257749965
 10
-43.5581262921
 20
-13.030650183
  0
LINE
  5
594
100
AcDbEntity
  8
0
100
AcDbLine
 62
7
  6
CONTINUOUS
 10
-55.5061376865
 20
18.90008
 11
-54.6218176865
 21
16.14574
  0
LWPOLYLINE
  5
595
100
AcDbEntity
  8
0
100
AcDbPolyline
 62
250
  6
CONTINUOUS
 90
10
 70
0
 10
-42.8085467586
 20
-21.1621198776
 10
-42.5879519204
 20
-22.0833698618
 10
-42.319140589
 20
-23.0273971451
 10
-42.0168312923
 20
-23.987195652
 10
-41.690133828
 20
-24.965419853
 10
-41.3496518847
 20
-25.9568856437
 10
-41.0093665638
 20
-26.9458566464
 10
-40.6809355398
 20
-27.925558787
 10
-40.3753643219
 20
-28.8983897049
 10
-40.1120550727
 20
-29.8527179837
  0
LINE
  5
596
100
AcDbEntity
  8
0
100
AcDbLine
 62
7
  6
CONTINUOUS
 10
-46.9549806865
 20
27.4
 11
-46.9549806865
 21
27.48
  0
LINE
  5
597
100
AcDbEntity
  8
0
100
AcDbLine
 62
7
  6
CONTINUOUS
 10
-46.8912476865
 20
14.8999
 11
-46.8912476865
 21
18.90008
  0
LINE
  5
598
100
AcDbEntity
  8
0
100
AcDbLine
 62
7
  6
CONTINUOUS
 10
-46.770005806
 20
27.4
 11
-46.770005806
 21
27.48
  0
LWPOLYLINE
  5
599
100
AcDbEntity
  8
0
100
AcDbPolyline
 62
7
  6
CONTINUOUS
 90
4
 70
0
 43
0.3500000006
 10
-45.8518267365
 20
43.4285727081
 10
-45.8518267365
 20
44.2857151794
 10
-45.4232532349
 20
44.7142841492
 10
-44.7803997803
 20
44.7142841492
  0
LINE
  5
59A
100
AcDbEntity
  8
0
100
AcDbLine
 62
7
  6
CONTINUOUS
 10
-45.8470240289
 20
27.4
 11
-45.8470240289
 21
27.48
  0
LINE
  5
59B
100
AcDbEntity
  8
0
100
AcDbLine
 62
7
  6
CONTINUOUS
 10
-45.6874436745
 20
27.48
 11
-45.6874436745
 21
27.4
  0
LINE
  5
59C
100
AcDbEntity
  8
0
100
AcDbLine
 62
7
  6
CONTINUOUS
 10
-45.2474400843
 20
-8.6815369027
 11
-45.2474400843
 21
-8.8440017717
  0
LINE
  5
59D
100
AcDbEntity
  8
0
100
AcDbLine
 62
7
  6
CONTINUOUS
 10
-56.3025808754
 20
-11.7914718963
 11
-56.094225424
 21
-11.5289828185
  0
LINE
  5
59E
100
AcDbEntity
  8
0
100
AcDbLine
 62
250
  6
CONTINUOUS
 10
-60.2198068293
 20
-8.9580191227
 11
-60.1576900465
 21
-8.9270995842
  0
LINE
  5
59F
100
AcDbEntity
  8
0
100
AcDbLine
 62
7
  6
CONTINUOUS
 10
-41.3189289308
 20
-9.4951341707
 11
-41.3373073891
 21
-9.4484009218
  0
LINE
  5
5A0
100
AcDbEntity
  8
0
100
AcDbLine
 62
7
  6
CONTINUOUS
 10
-50.0040576865
 20
17.53775
 11
-49.2476776865
 21
14.8999
  0
LINE
  5
5A1
100
AcDbEntity
  8
0
100
AcDbLine
 62
7
  6
CONTINUOUS
 10
-43.6777641446
 20
-12.3106551294
 11
-43.6213711717
 21
-12.9661818925
  0
LINE
  5
5A2
100
AcDbEntity
  8
0
100
AcDbLine
 62
7
  6
CONTINUOUS
 10
-43.9013388131
 20
-9.7114129639
 11
-43.8649115967
 21
-10.1349154891
  0
LINE
  5
5A3
100
AcDbEntity
  8
0
100
AcDbLine
 62
7
  6
CONTINUOUS
 10
-43.8493171235
 20
-10.3161518366
 11
-43.6908888163
 21
-12.1580802554
  0
LINE
  5
5A4
100
AcDbEntity
  8
0
100
AcDbLine
 62
7
  6
CONTINUOUS
 10
-43.5593504806
 20
-12.0238973837
 11
-43.6919929088
 21
-10.4818078912
  0
LINE
  5
5A5
100
AcDbEntity
  8
0
100
AcDbLine
 62
7
  6
CONTINUOUS
 10
-43.7076112953
 20
-10.3002749711
 11
-43.757781292
 21
-9.7169993676
  0
LINE
  5
5A6
100
AcDbEntity
  8
0
100
AcDbLine
 62
7
  6
CONTINUOUS
 10
-43.4849992894
 20
-12.8884819103
 11
-43.5462492072
 21
-12.1763527157
  0
LINE
  5
5A7
100
AcDbEntity
  8
0
100
AcDbLine
 62
7
  6
CONTINUOUS
 10
-42.3375009364
 20
-12.8145054694
 11
-42.3343673743
 21
-12.8859332826
  0
LINE
  5
5A8
100
AcDbEntity
  8
0
100
AcDbLine
 62
7
  6
CONTINUOUS
 10
-44.8450688805
 20
-14.7487674003
 11
-44.8450688805
 21
-15.7545732072
  0
LINE
  5
5A9
100
AcDbEntity
  8
0
100
AcDbLine
 62
7
  6
CONTINUOUS
 10
-44.7800501071
 20
27.4
 11
-44.7800501071
 21
27.48
  0
LINE
  5
5AA
100
AcDbEntity
  8
0
100
AcDbLine
 62
7
  6
CONTINUOUS
 10
-44.6048306865
 20
27.4
 11
-44.6048306865
 21
27.48
  0
LINE
  5
5AB
100
AcDbEntity
  8
0
100
AcDbLine
 62
7
  6
CONTINUOUS
 10
-44.0730338763
 20
-9.5692286241
 11
-44.0730338763
 21
-9.7117932652
  0
LINE
  5
5AC
100
AcDbEntity
  8
0
100
AcDbLine
 62
7
  6
CONTINUOUS
 10
-43.6312806865
 20
27.4
 11
-43.6312806865
 21
27.48
  0
LINE
  5
5AD
100
AcDbEntity
  8
0
100
AcDbLine
 62
7
  6
CONTINUOUS
 10
-43.6276787155
 20
-9.4385078254
 11
-43.6276787155
 21
-9.5682298439
  0
LINE
  5
5AE
100
AcDbEntity
  8
0
100
AcDbLine
 62
7
  6
CONTINUOUS
 10
-43.6276671168
 20
-9.18798638
 11
-43.6276671168
 21
-9.282209362
  0
LINE
  5
5AF
100
AcDbEntity
  8
0
100
AcDbLine
 62
7
  6
CONTINUOUS
 10
-43.5581262921
 20
-13.030650183
 11
-43.5581262921
 21
-13.2456972203
  0
LINE
  5
5B0
100
AcDbEntity
  8
0
100
AcDbLine
 62
7
  6
CONTINUOUS
 10
-43.384127434
 20
-9.5677027095
 11
-43.384127434
 21
-9.3508617222
  0
LINE
  5
5B1
100
AcDbEntity
  8
0
100
AcDbLine
 62
7
  6
CONTINUOUS
 10
-43.2940155621
 20
-13.2451122201
 11
-43.2940155621
 21
-13.0306119242
  0
LINE
  5
5B2
100
AcDbEntity
  8
0
100
AcDbLine
 62
7
  6
CONTINUOUS
 10
-43.0219123933
 20
-10.422193499
 11
-43.0219123933
 21
-10.70732278
  0
LINE
  5
5B3
100
AcDbEntity
  8
0
100
AcDbLine
 62
7
  6
CONTINUOUS
 10
-42.9981337751
 20
-9.294062198
 11
-42.9981337751
 21
-9.4421152819
  0
LINE
  5
5B4
100
AcDbEntity
  8
0
100
AcDbLine
 62
7
  6
CONTINUOUS
 10
-42.9981337751
 20
-9.0300641533
 11
-42.9981337751
 21
-9.1480873116
  0
LINE
  5
5B5
100
AcDbEntity
  8
0
100
AcDbLine
 62
7
  6
CONTINUOUS
 10
-42.8556332061
 20
-9.2992345461
 11
-42.8556332061
 21
-9.2338684426
  0
LINE
  5
5B6
100
AcDbEntity
  8
0
100
AcDbLine
 62
7
  6
CONTINUOUS
 10
-42.6803976865
 20
-32.9
 11
-42.6803976865
 21
-33.45
  0
LINE
  5
5B7
100
AcDbEntity
  8
0
100
AcDbLine
 62
7
  6
CONTINUOUS
 10
-42.4558376865
 20
14.89991
 11
-42.4558376865
 21
18.90009
  0
LINE
  5
5B8
100
AcDbEntity
  8
0
100
AcDbLine
 62
7
  6
CONTINUOUS
 10
-42.4399462241
 20
-9.2329477039
 11
-42.4399462241
 21
-9.2983138074
  0
LINE
  5
5B9
100
AcDbEntity
  8
0
100
AcDbLine
 62
250
  6
CONTINUOUS
 10
-56.6766842575
 20
-15.5244627409
 11
-56.8169890735
 21
-15.6646821322
  0
LINE
  5
5BA
100
AcDbEntity
  8
0
100
AcDbLine
 62
250
  6
CONTINUOUS
 10
-56.8169890735
 20
-15.6646821322
 11
-56.9097113417
 21
-15.7563380401
  0
LINE
  5
5BB
100
AcDbEntity
  8
0
100
AcDbLine
 62
250
  6
CONTINUOUS
 10
-56.9097113417
 20
-15.7563380401
 11
-56.9996264877
 21
-15.8444025814
  0
LINE
  5
5BC
100
AcDbEntity
  8
0
100
AcDbLine
 62
250
  6
CONTINUOUS
 10
-56.9996264877
 20
-15.8444025814
 11
-57.085371211
 21
-15.927549195
  0
LWPOLYLINE
  5
5BD
100
AcDbEntity
  8
0
100
AcDbPolyline
 62
7
  6
CONTINUOUS
 90
4
 70
0
 10
-56.094225424
 20
-11.5289828185
 10
-55.8323759059
 20
-11.2998141236
 10
-55.5439769237
 20
-11.1282944221
 10
-55.2380259795
 20
-11.0225356489
  0
LWPOLYLINE
  5
5BE
100
AcDbEntity
  8
0
100
AcDbPolyline
 62
250
  6
CONTINUOUS
 90
46
 70
0
 10
-47.7803976865
 20
5.384800511
 10
-47.6467835351
 20
5.3818558323
 10
-47.5105880368
 20
5.3727743276
 10
-47.3721131238
 20
5.3571907021
 10
-47.2318357567
 20
5.3347736877
 10
-47.0899852454
 20
5.3051645876
 10
-46.9465579336
 20
5.267913678
 10
-46.8022423356
 20
5.2227219413
 10
-46.6573128311
 20
5.169180536
 10
-46.5112834368
 20
5.1064824413
 10
-46.3648731149
 20
5.0341855061
 10
-46.2187767221
 20
4.9518427169
 10
-46.0727357879
 20
4.8583446759
 10
-45.9275922096
 20
4.7530480734
 10
-45.7846244321
 20
4.6356106407
 10
-45.6445508097
 20
4.5051961227
 10
-45.5087317348
 20
4.3614208771
 10
-45.3786715589
 20
4.2040621083
 10
-45.2556244663
 20
4.0325343994
 10
-45.1414857795
 20
3.8470377211
 10
-45.0379669771
 20
3.6475517478
 10
-44.9465294631
 20
3.433233796
 10
-44.8694592746
 20
3.2045916655
 10
-44.8091144769
 20
2.9624535179
 10
-44.7677211513
 20
2.7066919744
 10
-44.7479391051
 20
2.4370002762
 10
-44.7528288316
 20
2.1570805268
 10
-44.7843418257
 20
1.8733757992
 10
-44.8442243036
 20
1.5866695341
 10
-44.9333518672
 20
1.3019078821
 10
-45.0480796462
 20
1.0312691316
 10
-45.1855201514
 20
0.7778213773
 10
-45.3437429846
 20
0.5421179438
 10
-45.5161333051
 20
0.3302449814
 10
-45.6971183271
 20
0.1439154614
 10
-45.884969259
 20
-0.0195490183
 10
-46.0780373154
 20
-0.1619483194
 10
-46.2738278532
 20
-0.2841244446
 10
-46.470105839
 20
-0.3871340311
 10
-46.666419956
 20
-0.4727942847
 10
-46.8613538326
 20
-0.5421890393
 10
-47.0532975067
 20
-0.5963456693
 10
-47.2420215836
 20
-0.6366292058
 10
-47.4268404147
 20
-0.6641207004
 10
-47.6065450836
 20
-0.6798138634
 10
-47.7803976865
 20
-0.684800511
  0
LINE
  5
5BF
100
AcDbEntity
  8
0
100
AcDbLine
 62
7
  6
CONTINUOUS
 10
-49.5946576865
 20
18.90008
 11
-48.8476676865
 21
16.29502
  0
LINE
  5
5C0
100
AcDbEntity
  8
0
100
AcDbLine
 62
7
  6
CONTINUOUS
 10
-41.5176008249
 20
-12.8646896366
 11
-41.522311018
 21
-12.7663647487
  0
LINE
  5
5C1
100
AcDbEntity
  8
0
100
AcDbLine
 62
7
  6
CONTINUOUS
 10
-41.3170564944
 20
-9.5441721961
 11
-41.3189289308
 21
-9.4951341707
  0
LINE
  5
5C2
100
AcDbEntity
  8
0
100
AcDbLine
 62
7
  6
CONTINUOUS
 10
-42.2973980926
 20
-9.4405631658
 11
-42.2974096913
 21
-9.3075027147
  0
LINE
  5
5C3
100
AcDbEntity
  8
0
100
AcDbLine
 62
7
  6
CONTINUOUS
 10
-42.1489336766
 20
-10.5850997339
 11
-42.1489336766
 21
-10.4202598678
  0
LINE
  5
5C4
100
AcDbEntity
  8
0
100
AcDbLine
 62
7
  6
CONTINUOUS
 10
-41.8045691282
 20
-9.9283142469
 11
-41.8045691282
 21
-10.2338176119
  0
LINE
  5
5C5
100
AcDbEntity
  8
0
100
AcDbLine
 62
7
  6
CONTINUOUS
 10
-41.7803976865
 20
-31.289838213
 11
-41.7803976865
 21
-31.95
  0
LINE
  5
5C6
100
AcDbEntity
  8
0
100
AcDbLine
 62
7
  6
CONTINUOUS
 10
-41.6668276865
 20
17.18664
 11
-41.6668376865
 21
18.16006
  0
LINE
  5
5C7
100
AcDbEntity
  8
0
100
AcDbLine
 62
7
  6
CONTINUOUS
 10
-41.4456908062
 20
-10.0314690391
 11
-41.4456908062
 21
-10.2964047462
  0
LINE
  5
5C8
100
AcDbEntity
  8
0
100
AcDbLine
 62
7
  6
CONTINUOUS
 10
-41.3209587638
 20
-10.4243180213
 11
-41.3209587638
 21
-9.9040931762
  0
LINE
  5
5C9
100
AcDbEntity
  8
0
100
AcDbLine
 62
7
  6
CONTINUOUS
 10
-40.7157264926
 20
-15.7454267928
 11
-40.7157264926
 21
-14.7396209858
  0
LINE
  5
5CA
100
AcDbEntity
  8
0
100
AcDbLine
 62
7
  6
CONTINUOUS
 10
-40.2532803129
 20
-8.8138836165
 11
-40.2532803129
 21
-8.6513360836
  0
LINE
  5
5CB
100
AcDbEntity
  8
0
100
AcDbLine
 62
7
  6
CONTINUOUS
 10
-42.2974096913
 20
-9.1623363386
 11
-42.2973876355
 21
-9.0300641533
  0
LINE
  5
5CC
100
AcDbEntity
  8
0
100
AcDbLine
 62
7
  6
CONTINUOUS
 10
-41.6557976865
 20
14.89991
 11
-41.6557076865
 21
16.44661
  0
LINE
  5
5CD
100
AcDbEntity
  8
0
100
AcDbLine
 62
7
  6
CONTINUOUS
 10
-41.7223443857
 20
-9.7124909138
 11
-41.742976081
 21
-9.9340498274
  0
LINE
  5
5CE
100
AcDbEntity
  8
0
100
AcDbLine
 62
7
  6
CONTINUOUS
 10
-41.7842464442
 20
-10.3771462729
 11
-41.9492684154
 21
-12.1487225777
  0
LINE
  5
5CF
100
AcDbEntity
  8
0
100
AcDbLine
 62
7
  6
CONTINUOUS
 10
-41.9635210878
 20
-12.3017967674
 11
-41.9752792858
 21
-12.428004788
  0
LINE
  5
5D0
100
AcDbEntity
  8
0
100
AcDbLine
 62
7
  6
CONTINUOUS
 10
-41.8189054011
 20
-12.285747116
 11
-41.6455712944
 21
-10.4250370319
  0
LINE
  5
5D1
100
AcDbEntity
  8
0
100
AcDbLine
 62
7
  6
CONTINUOUS
 10
-41.5992626972
 20
-9.9278471563
 11
-41.5787742908
 21
-9.7080146199
  0
LINE
  5
5D2
100
AcDbEntity
  8
0
100
AcDbLine
 62
7
  6
CONTINUOUS
 10
-41.6336457731
 20
-10.2968210629
 11
-41.6260802738
 21
-10.2156616239
  0
LWPOLYLINE
  5
5D3
100
AcDbEntity
  8
0
100
AcDbPolyline
 62
7
  6
CONTINUOUS
 90
3
 70
0
 10
-43.8941361739
 20
-9.5076547644
 10
-43.9088757043
 20
-9.5372229593
 10
-43.9219693037
 20
-9.5688940189
  0
LINE
  5
5D4
100
AcDbEntity
  8
0
100
AcDbLine
 62
250
  6
CONTINUOUS
 10
-60.1639796883
 20
-27.8922886171
 11
-59.9029937494
 21
-27.5459015524
  0
LINE
  5
5D5
100
AcDbEntity
  8
0
100
AcDbLine
 62
250
  6
CONTINUOUS
 10
-58.3921355982
 20
-13.5099813252
 11
-58.2654749875
 21
-13.4363476592
  0
LINE
  5
5D6
100
AcDbEntity
  8
0
100
AcDbLine
 62
250
  6
CONTINUOUS
 10
-58.5189963749
 20
-13.5828883069
 11
-58.3921355982
 21
-13.5099813252
  0
LINE
  5
5D7
100
AcDbEntity
  8
0
100
AcDbLine
 62
250
  6
CONTINUOUS
 10
-58.6432572176
 20
-13.6534981153
 11
-58.5189963749
 21
-13.5828883069
  0
LWPOLYLINE
  5
5D8
100
AcDbEntity
  8
0
100
AcDbPolyline
 62
250
  6
CONTINUOUS
 90
3
 70
0
 10
-58.8177159632
 20
-13.751068309
 10
-58.7615291584
 20
-13.7198749329
 10
-58.6432572176
 20
-13.6534981153
  0
LWPOLYLINE
  5
5D9
100
AcDbEntity
  8
0
100
AcDbPolyline
 62
7
  6
CONTINUOUS
 90
5
 70
0
 10
-55.3765035668
 20
-10.2696251753
 10
-55.752506035
 20
-10.3853452817
 10
-56.1029352936
 20
-10.5595835031
 10
-56.4277860285
 20
-10.7923371444
 10
-56.7270473411
 20
-11.0836021732
  0
LWPOLYLINE
  5
5DA
100
AcDbEntity
  8
0
100
AcDbPolyline
 62
250
  6
CONTINUOUS
 90
46
 70
0
 10
-47.7803825966
 20
5.8847243585
 10
-47.6232699309
 20
5.8819794511
 10
-47.463922384
 20
5.8712548602
 10
-47.3023403858
 20
5.8525505858
 10
-47.1382024656
 20
5.8263194879
 10
-46.9718310682
 20
5.7921087066
 10
-46.8041925169
 20
5.7485596617
 10
-46.6353293493
 20
5.695847161
 10
-46.465200104
 20
5.6337963968
 10
-46.2946450519
 20
5.5605243657
 10
-46.123352902
 20
5.4761920288
 10
-45.9516360249
 20
5.3806384249
 10
-45.7812699827
 20
5.2714976669
 10
-45.6115946958
 20
5.1486064391
 10
-45.4432709969
 20
5.0121280572
 10
-45.2800551979
 20
4.8601865809
 10
-45.1214406813
 20
4.6924651053
 10
-44.9679337087
 20
4.5092805354
 10
-44.8248087358
 20
4.3097076449
 10
-44.6916327521
 20
4.0934561982
 10
-44.5688367966
 20
3.860816431
 10
-44.4629899487
 20
3.6117338242
 10
-44.3734635887
 20
3.3452960565
 10
-44.3008832849
 20
3.0624154492
 10
-44.2536983025
 20
2.765774447
 10
-44.2324904852
 20
2.4520706826
 10
-44.2366761599
 20
2.1246065233
 10
-44.272956703
 20
1.7959715161
 10
-44.345396994
 20
1.4639215026
 10
-44.449935906
 20
1.1307006412
 10
-44.581086745
 20
0.8156309537
 10
-44.7418097637
 20
0.5221992982
 10
-44.9291517418
 20
0.2469188165
 10
-45.1287533435
 20
-0.0013490439
 10
-45.3387657868
 20
-0.2184794341
 10
-45.5610399105
 20
-0.4085972031
 10
-45.7867618316
 20
-0.5752154503
 10
-46.0146966283
 20
-0.7180202062
 10
-46.2460777095
 20
-0.8373254402
 10
-46.4757915969
 20
-0.9375861603
 10
-46.7031837732
 20
-1.0189318633
 10
-46.9289060292
 20
-1.0812330524
 10
-47.1498036379
 20
-1.1285562448
 10
-47.3648241158
 20
-1.1622569461
 10
-47.5750174434
 20
-1.1809796507
 10
-47.7803825966
 20
-1.1847243585
  0
LWPOLYLINE
  5
5DB
100
AcDbEntity
  8
0
100
AcDbPolyline
 62
250
  6
CONTINUOUS
 90
3
 70
0
 10
-63.6774149611
 20
27.4123971046
 10
-63.6720374523
 20
27.405992729
 10
-63.6557862954
 20
27.3995915909
  0
LINE
  5
5DC
100
AcDbEntity
  8
0
100
AcDbLine
 62
250
  6
CONTINUOUS
 10
-38.8402731925
 20
-7.7546194487
 11
-38.8402731925
 21
26.8450017796
  0
LINE
  5
5DD
100
AcDbEntity
  8
0
100
AcDbLine
 62
250
  6
CONTINUOUS
 10
-38.8434021925
 20
-7.7546194487
 11
-38.8440664111
 21
-9.4809579803
  0
LINE
  5
5DE
100
AcDbEntity
  8
0
100
AcDbLine
 62
250
  6
CONTINUOUS
 10
-38.8440664111
 20
-9.4809579803
 11
-38.846210401
 21
-11.2024392817
  0
LINE
  5
5DF
100
AcDbEntity
  8
0
100
AcDbLine
 62
250
  6
CONTINUOUS
 10
-38.846210401
 20
-11.2024392817
 11
-38.8498259963
 21
-12.9205501813
  0
LWPOLYLINE
  5
5E0
100
AcDbEntity
  8
0
100
AcDbPolyline
 62
250
  6
CONTINUOUS
 90
3
 70
0
 10
-38.8498259963
 20
-12.9205501813
 10
-38.8549272901
 20
-14.6417085611
 10
-38.8580361929
 20
-15.5029690512
  0
LINE
  5
5E1
100
AcDbEntity
  8
0
100
AcDbLine
 62
7
  6
CONTINUOUS
 10
-42.6803976865
 20
-32.9
 11
-42.6777575235
 21
-32.8736269276
  0
LINE
  5
5E2
100
AcDbEntity
  8
0
100
AcDbLine
 62
7
  6
CONTINUOUS
 10
-41.7803976865
 20
-31.95
 11
-41.7954982466
 21
-32.0952453431
  0
LWPOLYLINE
  5
5E3
100
AcDbEntity
  8
0
100
AcDbPolyline
 62
7
  6
CONTINUOUS
 90
3
 70
0
 10
-42.3064122317
 20
-12.6807655771
 10
-42.3281827806
 20
-12.7461161989
 10
-42.3375009364
 20
-12.8145054694
  0
LWPOLYLINE
  5
5E4
100
AcDbEntity
  8
0
100
AcDbPolyline
 62
7
  6
CONTINUOUS
 90
3
 70
0
 10
-41.3482532515
 20
-9.6390559599
 10
-41.3280983465
 20
-9.5953697717
 10
-41.3170564944
 20
-9.5441721961
  0
LWPOLYLINE
  5
5E5
100
AcDbEntity
  8
0
100
AcDbPolyline
 62
7
  6
CONTINUOUS
 90
7
 70
0
 10
-43.7695861021
 20
-9.568544166
 10
-43.7511713348
 20
-9.5412480615
 10
-43.7306619499
 20
-9.516201298
 10
-43.7080579629
 20
-9.4934038848
 10
-43.6833594005
 20
-9.4728558302
 10
-43.6565663013
 20
-9.4545571416
 10
-43.6276787155
 20
-9.4385078254
  0
LWPOLYLINE
  5
5E6
100
AcDbEntity
  8
0
100
AcDbPolyline
 62
7
  6
CONTINUOUS
 90
7
 70
0
 10
-43.7768484196
 20
-9.3733560809
 10
-43.7980111004
 20
-9.3909726445
 10
-43.818718571
 20
-9.4104108282
 10
-43.8392480614
 20
-9.4317549969
 10
-43.8593223531
 20
-9.454920774
 10
-43.877750698
 20
-9.4801894447
 10
-43.8941361739
 20
-9.5076547644
  0
LWPOLYLINE
  5
5E7
100
AcDbEntity
  8
0
100
AcDbPolyline
 62
7
  6
CONTINUOUS
 90
8
 70
0
 10
-43.6276671168
 20
-9.282209362
 10
-43.6489691076
 20
-9.2922398049
 10
-43.6702784647
 20
-9.3032458978
 10
-43.6915951892
 20
-9.3152276391
 10
-43.7129537937
 20
-9.3280811665
 10
-43.7343197695
 20
-9.3419103389
 10
-43.7555895857
 20
-9.3570267362
 10
-43.7768484196
 20
-9.3733560809
  0
LINE
  5
5E8
100
AcDbEntity
  8
0
100
AcDbLine
 62
7
  6
CONTINUOUS
 10
-44.0417876865
 20
15.68657
 11
-43.7892276865
 21
14.89991
  0
LINE
  5
5E9
100
AcDbEntity
  8
0
100
AcDbLine
 62
7
  6
CONTINUOUS
 10
-44.6735576865
 20
17.65424
 11
-44.2858276865
 21
16.4466
  0
LINE
  5
5EA
100
AcDbEntity
  8
0
100
AcDbLine
 62
7
  6
CONTINUOUS
 10
-44.2735176865
 20
18.90009
 11
-42.9891876865
 21
14.8999
  0
LWPOLYLINE
  5
5EB
100
AcDbEntity
  8
0
100
AcDbPolyline
 62
250
  6
CONTINUOUS
 90
6
 70
0
 10
-39.057464902
 20
27.2296658378
 10
-39.0519676954
 20
27.1693963868
 10
-39.047430572
 20
27.0979518396
 10
-39.0439761649
 20
27.0180897197
 10
-39.041758822
 20
26.9313128872
 10
-39.0409359516
 20
26.8399115637
  0
LINE
  5
5EC
100
AcDbEntity
  8
0
100
AcDbLine
 62
7
  6
CONTINUOUS
 10
-36.6836590965
 20
27.4
 11
-36.6836590965
 21
27.3439502266
  0
LINE
  5
5ED
100
AcDbEntity
  8
0
100
AcDbLine
 62
250
  6
CONTINUOUS
 10
-35.2564462931
 20
-9.2495127784
 11
-35.2624279044
 21
-9.832717271
  0
LINE
  5
5EE
100
AcDbEntity
  8
0
100
AcDbLine
 62
250
  6
CONTINUOUS
 10
-35.2491967085
 20
-8.7456481242
 11
-35.2564462931
 21
-9.2495127784
  0
LINE
  5
5EF
100
AcDbEntity
  8
0
100
AcDbLine
 62
250
  6
CONTINUOUS
 10
-35.2017586667
 20
-6.1500039367
 11
-35.2291035817
 21
-7.7562873466
  0
LINE
  5
5F0
100
AcDbEntity
  8
0
100
AcDbLine
 62
250
  6
CONTINUOUS
 10
-35.2410999128
 20
-8.3503970446
 11
-35.2350336717
 21
-8.0515663446
  0
LINE
  5
5F1
100
AcDbEntity
  8
0
100
AcDbLine
 62
250
  6
CONTINUOUS
 10
-35.2350336717
 20
-8.0515663446
 11
-35.2282133747
 21
-7.7562916861
  0
LWPOLYLINE
  5
5F2
100
AcDbEntity
  8
0
100
AcDbPolyline
 62
250
  6
CONTINUOUS
 90
5
 70
0
 10
-35.2545730136
 20
-8.7456152296
 10
-35.2503556977
 20
-8.6475746889
 10
-35.2466708802
 20
-8.549076203
 10
-35.2435186956
 20
-8.4501197992
 10
-35.2410999128
 20
-8.3503970446
  0
LWPOLYLINE
  5
5F3
100
AcDbEntity
  8
0
100
AcDbPolyline
 62
250
  6
CONTINUOUS
 90
10
 70
0
 10
-35.2624279044
 20
-9.832717271
 10
-35.3178412161
 20
-10.9439595685
 10
-35.4705797167
 20
-12.075433215
 10
-35.732528038
 20
-13.2137335752
 10
-36.1164527765
 20
-14.3477101026
 10
-36.6245938877
 20
-15.4543737258
 10
-37.2415318839
 20
-16.509141429
 10
-37.9584378616
 20
-17.5011889723
 10
-38.7796100817
 20
-18.4229016503
 10
-39.7012453477
 20
-19.2630186564
  0
LWPOLYLINE
  5
5F4
100
AcDbEntity
  8
0
100
AcDbPolyline
 62
7
  6
CONTINUOUS
 90
3
 70
0
 10
-41.5695423374
 20
-13.0351680983
 10
-41.5333451572
 20
-12.9542906373
 10
-41.5176008249
 20
-12.8646896366
  0
LINE
  5
5F5
100
AcDbEntity
  8
0
100
AcDbLine
 62
7
  6
CONTINUOUS
 10
-42.2699300186
 20
-12.6156565282
 11
-42.3064122317
 21
-12.6807655771
  0
LINE
  5
5F6
100
AcDbEntity
  8
0
100
AcDbLine
 62
250
  6
CONTINUOUS
 10
-55.7520848839
 20
-30.5911629451
 11
-56.0156048521
 21
-30.9672955624
  0
LINE
  5
5F7
100
AcDbEntity
  8
0
100
AcDbLine
 62
7
  6
CONTINUOUS
 10
-41.3790013975
 20
-9.6726027342
 11
-41.3482532515
 21
-9.6390559599
  0
LINE
  5
5F8
100
AcDbEntity
  8
0
100
AcDbLine
 62
7
  6
CONTINUOUS
 10
-42.7228110037
 20
-11.3355355394
 11
-41.7842464442
 21
-10.3771462729
  0
LINE
  5
5F9
100
AcDbEntity
  8
0
100
AcDbLine
 62
7
  6
CONTINUOUS
 10
-41.3209587638
 20
-9.9040931762
 11
-40.2532803129
 21
-8.8138836165
  0
LINE
  5
5FA
100
AcDbEntity
  8
0
100
AcDbLine
 62
7
  6
CONTINUOUS
 10
-43.5462492072
 20
-12.1763527157
 11
-42.803218808
 21
-11.4176411634
  0
LINE
  5
5FB
100
AcDbEntity
  8
0
100
AcDbLine
 62
7
  6
CONTINUOUS
 10
-45.0768969185
 20
-13.7393172037
 11
-43.6777641446
 21
-12.3106551294
  0
LINE
  5
5FC
100
AcDbEntity
  8
0
100
AcDbLine
 62
7
  6
CONTINUOUS
 10
-41.6260802738
 20
-10.2156616239
 11
-41.4456908062
 21
-10.0314690391
  0
LINE
  5
5FD
100
AcDbEntity
  8
0
100
AcDbLine
 62
7
  6
CONTINUOUS
 10
-42.882855021
 20
-11.3337880886
 11
-43.5593504806
 21
-12.0238973837
  0
LINE
  5
5FE
100
AcDbEntity
  8
0
100
AcDbLine
 62
7
  6
CONTINUOUS
 10
-43.6908888163
 20
-12.1580802554
 11
-45.1605352573
 21
-13.6572903877
  0
LINE
  5
5FF
100
AcDbEntity
  8
0
100
AcDbLine
 62
7
  6
CONTINUOUS
 10
-40.2532803129
 20
-8.6513360836
 11
-41.504412025
 21
-9.9276370639
  0
LINE
  5
600
100
AcDbEntity
  8
0
100
AcDbLine
 62
7
  6
CONTINUOUS
 10
-41.8045691282
 20
-10.2338176119
 11
-42.1489336766
 21
-10.5850997339
  0
LINE
  5
601
100
AcDbEntity
  8
0
100
AcDbLine
 62
7
  6
CONTINUOUS
 10
-42.2670992847
 20
-10.7056508834
 11
-42.8024829519
 21
-11.2517900465
  0
LWPOLYLINE
  5
602
100
AcDbEntity
  8
0
100
AcDbPolyline
 62
7
  6
CONTINUOUS
 90
3
 70
0
 10
-41.4595949738
 20
-9.7153758061
 10
-41.4188627347
 20
-9.6986382253
 10
-41.3790013975
 20
-9.6726027342
  0
LWPOLYLINE
  5
603
100
AcDbEntity
  8
0
100
AcDbPolyline
 62
7
  6
CONTINUOUS
 90
5
 70
0
 10
-33.1832895526
 20
27.299445584
 10
-33.1834855463
 20
27.3173323054
 10
-33.1838104716
 20
27.3310210732
 10
-33.1841119956
 20
27.3406528555
 10
-33.1842629592
 20
27.346389362
  0
LINE
  5
604
100
AcDbEntity
  8
0
100
AcDbLine
 62
7
  6
CONTINUOUS
 10
-33.5336858061
 20
27.4
 11
-33.5336858061
 21
27.3098104143
  0
LINE
  5
605
100
AcDbEntity
  8
0
100
AcDbLine
 62
250
  6
CONTINUOUS
 10
-32.7208154355
 20
26.8492267697
 11
-32.7205687715
 21
-6.4300751532
  0
LINE
  5
606
100
AcDbEntity
  8
0
100
AcDbLine
 62
250
  6
CONTINUOUS
 10
-32.7205687715
 20
-6.4300751532
 11
-32.7214084728
 21
-6.7089988287
  0
LINE
  5
607
100
AcDbEntity
  8
0
100
AcDbLine
 62
7
  6
CONTINUOUS
 10
-33.1834016322
 20
27.2772433011
 11
-33.1832895526
 21
27.299445584
  0
LINE
  5
608
100
AcDbEntity
  8
0
100
AcDbLine
 62
250
  6
CONTINUOUS
 10
-32.7214084728
 20
-6.7089988287
 11
-32.7232165849
 21
-6.9868216905
  0
LINE
  5
609
100
AcDbEntity
  8
0
100
AcDbLine
 62
250
  6
CONTINUOUS
 10
-32.7232165849
 20
-6.9868216905
 11
-32.7261046314
 21
-7.2635282758
  0
LINE
  5
60A
100
AcDbEntity
  8
0
100
AcDbLine
 62
250
  6
CONTINUOUS
 10
-32.7261046314
 20
-7.2635282758
 11
-32.7301621685
 21
-7.5193959761
  0
LINE
  5
60B
100
AcDbEntity
  8
0
100
AcDbLine
 62
250
  6
CONTINUOUS
 10
-32.7473206635
 20
-8.2125549903
 11
-32.7521085411
 21
-8.4386385046
  0
LINE
  5
60C
100
AcDbEntity
  8
0
100
AcDbLine
 62
250
  6
CONTINUOUS
 10
-32.7301621685
 20
-7.5193959761
 11
-32.7353541472
 21
-7.7530643015
  0
LINE
  5
60D
100
AcDbEntity
  8
0
100
AcDbLine
 62
250
  6
CONTINUOUS
 10
-32.7353541472
 20
-7.7530643015
 11
-32.7473206635
 21
-8.2125549903
  0
LINE
  5
60E
100
AcDbEntity
  8
0
100
AcDbLine
 62
250
  6
CONTINUOUS
 10
-32.7521085411
 20
-8.4386385046
 11
-32.7530723604
 21
-8.4726457194
  0
LINE
  5
60F
100
AcDbEntity
  8
0
100
AcDbLine
 62
250
  6
CONTINUOUS
 10
-32.7530723604
 20
-8.4726457194
 11
-32.7554867134
 21
-8.5404540883
  0
LINE
  5
610
100
AcDbEntity
  8
0
100
AcDbLine
 62
250
  6
CONTINUOUS
 10
-32.7554867134
 20
-8.5404540883
 11
-32.7635322797
 21
-8.7457069399
  0
LINE
  5
611
100
AcDbEntity
  8
0
100
AcDbLine
 62
7
  6
CONTINUOUS
 10
-33.1842629592
 20
27.346389362
 11
-33.1841596805
 21
27.3484105493
  0
LINE
  5
612
100
AcDbEntity
  8
0
100
AcDbLine
 62
250
  6
CONTINUOUS
 10
-35.6076031415
 20
-10.2933229387
 11
-35.5002001071
 21
-9.7218583552
  0
LINE
  5
613
100
AcDbEntity
  8
0
100
AcDbLine
 62
250
  6
CONTINUOUS
 10
-35.5002001071
 20
-9.7218583552
 11
-35.4623328196
 21
-9.5266255762
  0
LWPOLYLINE
  5
614
100
AcDbEntity
  8
0
100
AcDbPolyline
 62
250
  6
CONTINUOUS
 90
6
 70
0
 10
-35.4623328196
 20
-9.5266255762
 10
-35.4241140757
 20
-9.3338656524
 10
-35.4043342654
 20
-9.2386486304
 10
-35.3838316255
 20
-9.1443144084
 10
-35.3627539012
 20
-9.0507693062
 10
-35.3411129246
 20
-8.9580166993
  0
LWPOLYLINE
  5
615
100
AcDbEntity
  8
0
100
AcDbPolyline
 62
250
  6
CONTINUOUS
 90
13
 70
0
 10
-35.3411129246
 20
-8.9580166993
 10
-35.3365513569
 20
-8.9401046685
 10
-35.3319270723
 20
-8.9226408111
 10
-35.3272402395
 20
-8.9056252905
 10
-35.3225328456
 20
-8.8890463716
 10
-35.3177631484
 20
-8.8729160899
 10
-35.3128060896
 20
-8.8572702081
 10
-35.3082211503
 20
-8.8423171458
 10
-35.3034487522
 20
-8.8278487725
 10
-35.2966913479
 20
-8.8132753192
 10
-35.2873584387
 20
-8.7983996606
 10
-35.2760606005
 20
-8.7834179814
 10
-35.2628109568
 20
-8.7683299304
  0
LINE
  5
616
100
AcDbEntity
  8
0
100
AcDbLine
 62
7
  6
CONTINUOUS
 10
-42.6777575235
 20
-32.8736269276
 11
-42.6714426937
 21
-32.8493039775
  0
LINE
  5
617
100
AcDbEntity
  8
0
100
AcDbLine
 62
7
  6
CONTINUOUS
 10
-41.7954982466
 20
-32.0952453431
 11
-41.8312261993
 21
-32.2285810093
  0
LWPOLYLINE
  5
618
100
AcDbEntity
  8
0
100
AcDbPolyline
 62
250
  6
CONTINUOUS
 90
10
 70
0
 10
-35.4031053222
 20
-8.9270995747
 10
-35.3920961164
 20
-8.9034691658
 10
-35.3806967697
 20
-8.8807207207
 10
-35.3689073887
 20
-8.8588542417
 10
-35.3580409643
 20
-8.8378905289
 10
-35.3467844514
 20
-8.8178087866
 10
-35.3312003087
 20
-8.7985466232
 10
-35.3099784166
 20
-8.7800832427
 10
-35.2844346389
 20
-8.7624394443
 10
-35.2545730136
 20
-8.7456152296
  0
LINE
  5
619
100
AcDbEntity
  8
0
100
AcDbLine
 62
7
  6
CONTINUOUS
 10
-40.621778759
 20
-13.7145871168
 11
-40.5367152281
 21
-13.6336477487
  0
LWPOLYLINE
  5
61A
100
AcDbEntity
  8
0
100
AcDbPolyline
 62
7
  6
CONTINUOUS
 90
3
 70
0
 10
-41.7121506415
 20
-13.1801677683
 10
-41.6306199309
 20
-13.1120294451
 10
-41.5695423374
 20
-13.0351680983
  0
LWPOLYLINE
  5
61B
100
AcDbEntity
  8
0
100
AcDbPolyline
 62
7
  6
CONTINUOUS
 90
4
 70
0
 10
-42.1083575196
 20
-12.4665349026
 10
-42.1663846462
 20
-12.5029465627
 10
-42.2209951769
 20
-12.5535862695
 10
-42.2699300186
 20
-12.6156565282
  0
LINE
  5
61C
100
AcDbEntity
  8
0
100
AcDbLine
 62
7
  6
CONTINUOUS
 10
-41.8008510487
 20
-13.225462332
 11
-41.7121506415
 21
-13.1801677683
  0
LINE
  5
61D
100
AcDbEntity
  8
0
100
AcDbLine
 62
7
  6
CONTINUOUS
 10
-40.1557276865
 20
14.89991
 11
-39.2546176865
 21
14.89992
  0
LINE
  5
61E
100
AcDbEntity
  8
0
100
AcDbLine
 62
7
  6
CONTINUOUS
 10
-46.3578976865
 20
14.8999
 11
-45.5578676865
 21
14.89991
  0
LINE
  5
61F
100
AcDbEntity
  8
0
100
AcDbLine
 62
7
  6
CONTINUOUS
 10
-50.8040876865
 20
14.8999
 11
-50.0040576865
 21
14.8999
  0
LINE
  5
620
100
AcDbEntity
  8
0
100
AcDbLine
 62
7
  6
CONTINUOUS
 10
-47.6912776865
 20
14.8999
 11
-46.8912476865
 21
14.8999
  0
LINE
  5
621
100
AcDbEntity
  8
0
100
AcDbLine
 62
7
  6
CONTINUOUS
 10
-42.4558376865
 20
14.89991
 11
-41.6557976865
 21
14.89991
  0
LINE
  5
622
100
AcDbEntity
  8
0
100
AcDbLine
 62
7
  6
CONTINUOUS
 10
-49.2476776865
 20
14.8999
 11
-48.4476676865
 21
14.89991
  0
LINE
  5
623
100
AcDbEntity
  8
0
100
AcDbLine
 62
7
  6
CONTINUOUS
 10
-52.4041276865
 20
14.89989
 11
-51.6040976865
 21
14.8999
  0
LINE
  5
624
100
AcDbEntity
  8
0
100
AcDbLine
 62
7
  6
CONTINUOUS
 10
-43.7892276865
 20
14.89991
 11
-42.9891876865
 21
14.8999
  0
LINE
  5
625
100
AcDbEntity
  8
0
100
AcDbLine
 62
7
  6
CONTINUOUS
 10
-55.0218576865
 20
14.89989
 11
-54.2217976865
 21
14.8999
  0
LINE
  5
626
100
AcDbEntity
  8
0
100
AcDbLine
 62
7
  6
CONTINUOUS
 10
-40.9574576865
 20
16.4466
 11
-40.1557276865
 21
14.89991
  0
LINE
  5
627
100
AcDbEntity
  8
0
100
AcDbLine
 62
7
  6
CONTINUOUS
 10
-40.1062090751
 20
16.5428126788
 11
-39.2546176865
 21
14.89992
  0
LINE
  5
628
100
AcDbEntity
  8
0
100
AcDbLine
 62
250
  6
CONTINUOUS
 10
-32.7232591327
 20
26.9351839296
 11
-32.7208180734
 21
26.8492267652
  0
LINE
  5
629
100
AcDbEntity
  8
0
100
AcDbLine
 62
250
  6
CONTINUOUS
 10
-31.8272023665
 20
-6.1500000004
 11
-31.8272023665
 21
26.8549503215
  0
LINE
  5
62A
100
AcDbEntity
  8
0
100
AcDbLine
 62
7
  6
CONTINUOUS
 10
-31.3834016314
 20
26.9124666814
 11
-31.3834016314
 21
-6.1500397827
  0
LWPOLYLINE
  5
62B
100
AcDbEntity
  8
0
100
AcDbPolyline
 62
250
  6
CONTINUOUS
 90
10
 70
0
 10
-31.8889807417
 20
-8.789880648
 10
-31.8760316446
 20
-8.4920983857
 10
-31.8647659307
 20
-8.1956642558
 10
-31.855162845
 20
-7.9005886569
 10
-31.8473566861
 20
-7.6072195072
 10
-31.8411687793
 20
-7.3152304705
 10
-31.8361237026
 20
-7.0236135171
 10
-31.8320659661
 20
-6.732031608
 10
-31.8291437871
 20
-6.4408261454
 10
-31.8273523013
 20
-6.1500000004
  0
LWPOLYLINE
  5
62C
100
AcDbEntity
  8
0
100
AcDbPolyline
 62
250
  6
CONTINUOUS
 90
10
 70
0
 10
-34.0149871665
 20
-19.8956745247
 10
-33.7643922421
 20
-18.68395991
 10
-33.5426616002
 20
-17.4678940076
 10
-33.3501531509
 20
-16.2492602497
 10
-33.1910073423
 20
-15.036733337
 10
-33.0619500859
 20
-13.8253721282
 10
-32.9544519508
 20
-12.5938759352
 10
-32.8683180218
 20
-11.3333567512
 10
-32.8049304082
 20
-10.050864253
 10
-32.763532278
 20
-8.7457068965
  0
LWPOLYLINE
  5
62D
100
AcDbEntity
  8
0
100
AcDbPolyline
 62
250
  6
CONTINUOUS
 90
13
 70
0
 10
-36.7431104637
 20
-13.7511769376
 10
-37.2327860956
 20
-14.8772997131
 10
-37.8307673901
 20
-15.9386124167
 10
-38.52844625
 20
-16.9261320802
 10
-39.3159326735
 20
-17.8315466422
 10
-40.1847682853
 20
-18.6482140456
 10
-41.128418472
 20
-19.3699640522
 10
-42.1362725867
 20
-19.9899860989
 10
-43.1968336537
 20
-20.5036772124
 10
-44.3025343943
 20
-20.9079220664
 10
-45.4435873881
 20
-21.1994823377
 10
-46.607169914
 20
-21.3751493494
 10
-47.7803976879
 20
-21.4334215472
  0
LWPOLYLINE
  5
62E
100
AcDbEntity
  8
0
100
AcDbPolyline
 62
250
  6
CONTINUOUS
 90
9
 70
0
 10
-36.7431439374
 20
-13.7508976382
 10
-36.5624508171
 20
-13.3492492404
 10
-36.3918082658
 20
-12.9389826513
 10
-36.2320131481
 20
-12.520100093
 10
-36.0848522576
 20
-12.0929251233
 10
-35.9500213181
 20
-11.6573539919
 10
-35.8252374342
 20
-11.2124753308
 10
-35.7103301459
 20
-10.7577615865
 10
-35.6076031415
 20
-10.2933229387
  0
LWPOLYLINE
  5
62F
100
AcDbEntity
  8
0
100
AcDbPolyline
 62
250
  6
CONTINUOUS
 90
16
 70
0
 10
-37.2953203856
 20
-13.4363476592
 10
-37.1071211874
 20
-13.0950555669
 10
-36.9303202961
 20
-12.7590494734
 10
-36.7649238723
 20
-12.4283314448
 10
-36.6117982727
 20
-12.1027120277
 10
-36.4700592917
 20
-11.7823844202
 10
-36.3370784558
 20
-11.4679245566
 10
-36.2128845965
 20
-11.1593907681
 10
-36.0974237373
 20
-10.85672791
 10
-35.9879474063
 20
-10.5603416306
 10
-35.8853139887
 20
-10.2699090929
 10
-35.7886507892
 20
-9.985755678
 10
-35.692619378
 20
-9.7092593149
 10
-35.595451771
 20
-9.4408800237
 10
-35.4989417907
 20
-9.1801598292
 10
-35.4031053222
 20
-8.9270995747
  0
LWPOLYLINE
  5
630
100
AcDbEntity
  8
0
100
AcDbPolyline
 62
250
  6
CONTINUOUS
 90
10
 70
0
 10
-38.8580139473
 20
-15.4977386998
 10
-38.6587144038
 20
-15.2891712558
 10
-38.4663771435
 20
-15.0761395316
 10
-38.2809877447
 20
-14.8586432095
 10
-38.1032433774
 20
-14.6375539423
 10
-37.9324346924
 20
-14.4119996329
 10
-37.7664454242
 20
-14.179364005
 10
-37.6045734411
 20
-13.9387744522
 10
-37.4475294143
 20
-13.6911024752
 10
-37.2953203856
 20
-13.4363476592
  0
LWPOLYLINE
  5
631
100
AcDbEntity
  8
0
100
AcDbPolyline
 62
250
  6
CONTINUOUS
 90
10
 70
0
 10
-38.4754241246
 20
-15.9275491583
 10
-38.2547102997
 20
-15.7059270665
 10
-38.040822792
 20
-15.4789766199
 10
-37.8339524831
 20
-15.2469065537
 10
-37.6345212078
 20
-15.0102128215
 10
-37.4424512215
 20
-14.7688399758
 10
-37.2572207798
 20
-14.5221204626
 10
-37.0787521189
 20
-14.2699634471
 10
-36.9073585124
 20
-14.0129040753
 10
-36.7431104637
 20
-13.7511769376
  0
LWPOLYLINE
  5
632
100
AcDbEntity
  8
0
100
AcDbPolyline
 62
250
  6
CONTINUOUS
 90
13
 70
0
 10
-38.8580361929
 20
-15.5029690512
 10
-39.4392138426
 20
-16.0520792215
 10
-40.0560078276
 20
-16.5602153531
 10
-40.7084029879
 20
-17.0273897868
 10
-41.3998672008
 20
-17.4552776234
 10
-42.126920996
 20
-17.8422290729
 10
-42.879132862
 20
-18.1832710864
 10
-43.6573526699
 20
-18.4791983478
 10
-44.4607402578
 20
-18.7292421738
 10
-45.2763361216
 20
-18.9260863664
 10
-46.0998371477
 20
-19.06729915
 10
-46.9355906436
 20
-19.155330868
 10
-47.783621702
 20
-19.1901864387
  0
LINE
  5
633
100
AcDbEntity
  8
0
100
AcDbLine
 62
7
  6
CONTINUOUS
 10
-45.3052976865
 20
15.68657
 11
-44.0417876865
 21
15.68657
  0
LINE
  5
634
100
AcDbEntity
  8
0
100
AcDbLine
 62
7
  6
CONTINUOUS
 10
-45.0612676865
 20
16.4466
 11
-44.2858276865
 21
16.4466
  0
LINE
  5
635
100
AcDbEntity
  8
0
100
AcDbLine
 62
7
  6
CONTINUOUS
 10
-41.6557076865
 20
16.44661
 11
-40.9574576865
 21
16.4466
  0
LINE
  5
636
100
AcDbEntity
  8
0
100
AcDbLine
 62
7
  6
CONTINUOUS
 10
-40.6926262486
 20
17.18664
 11
-41.6668276865
 21
17.18664
  0
LWPOLYLINE
  5
637
100
AcDbEntity
  8
0
100
AcDbPolyline
 62
7
  6
CONTINUOUS
 90
10
 70
0
 10
-31.3834016314
 20
26.9124666814
 10
-31.3912072013
 20
26.9975702684
 10
-31.4118204759
 20
27.0768610704
 10
-31.4452414553
 20
27.1503390873
 10
-31.4922430522
 20
27.2201058599
 10
-31.552052354
 20
27.2840598474
 10
-31.6223506221
 20
27.3358964279
 10
-31.7023649438
 20
27.3735140606
 10
-31.7928682319
 20
27.3990142861
 10
-31.8938604864
 20
27.4123971046
  0
LWPOLYLINE
  5
638
100
AcDbEntity
  8
0
100
AcDbPolyline
 62
250
  6
CONTINUOUS
 90
10
 70
0
 10
-31.82722192
 20
26.8549504131
 10
-31.8344865529
 20
26.9420427313
 10
-31.856667115
 20
27.0265327389
 10
-31.8930798564
 20
27.1058416037
 10
-31.9426075259
 20
27.1775485015
 10
-32.003732103
 20
27.2394710807
 10
-32.0745846247
 20
27.2897287633
 10
-32.1530024579
 20
27.3267914625
 10
-32.236592285
 20
27.3495292601
 10
-32.3228035665
 20
27.3572512729
  0
LWPOLYLINE
  5
639
100
AcDbEntity
  8
0
100
AcDbPolyline
 62
250
  6
CONTINUOUS
 90
10
 70
0
 10
-34.3652311779
 20
-21.3889324145
 10
-34.3237985737
 20
-21.221860481
 10
-34.2829853262
 20
-21.0550730212
 10
-34.2427881509
 20
-20.8885724989
 10
-34.2031801876
 20
-20.7223651274
 10
-34.1641820224
 20
-20.5564488367
 10
-34.1258607148
 20
-20.3908167666
 10
-34.0882355518
 20
-20.2254716782
 10
-34.0512790228
 20
-20.0604224584
 10
-34.0149871665
 20
-19.8956745247
  0
LWPOLYLINE
  5
63A
100
AcDbEntity
  8
0
100
AcDbPolyline
 62
250
  6
CONTINUOUS
 90
10
 70
0
 10
-34.9295849182
 20
-23.4701756036
 10
-34.8621074308
 20
-23.2368908535
 10
-34.7958236789
 20
-23.0041064457
 10
-34.7307254016
 20
-22.7718277676
 10
-34.6667791013
 20
-22.5400652793
 10
-34.6040019845
 20
-22.308816509
 10
-34.5424606924
 20
-22.0780716903
 10
-34.4821705951
 20
-21.8478348778
 10
-34.4230971944
 20
-21.6181191178
 10
-34.3652311779
 20
-21.3889324145
  0
LWPOLYLINE
  5
63B
100
AcDbEntity
  8
0
100
AcDbPolyline
 62
250
  6
CONTINUOUS
 90
10
 70
0
 10
-35.4922426709
 20
-25.2748398548
 10
-35.4276082624
 20
-25.0777723197
 10
-35.363484207
 20
-24.8798364052
 10
-35.2998796191
 20
-24.6810400873
 10
-35.2368034765
 20
-24.481395771
 10
-35.174262675
 20
-24.2808983636
 10
-35.1122625484
 20
-24.0795265658
 10
-35.0508103634
 20
-23.877275708
 10
-34.9899151019
 20
-23.6741575235
 10
-34.9295849182
 20
-23.4701756036
  0
LINE
  5
63C
100
AcDbEntity
  8
0
100
AcDbLine
 62
250
  6
CONTINUOUS
 10
-35.6094922963
 20
-25.6242805862
 11
-35.4922426709
 21
-25.2748398548
  0
LWPOLYLINE
  5
63D
100
AcDbEntity
  8
0
100
AcDbPolyline
 62
250
  6
CONTINUOUS
 90
10
 70
0
 10
-35.4528181232
 20
-26.9797021304
 10
-34.7948386172
 20
-25.0510872238
 10
-34.1987021895
 20
-23.0901415424
 10
-33.6662320087
 20
-21.0987502381
 10
-33.1986874128
 20
-19.0729286247
 10
-32.7987425262
 20
-17.0206935217
 10
-32.4683156811
 20
-14.9622131964
 10
-32.2069481089
 20
-12.905766185
 10
-32.0139731399
 20
-10.8475939812
 10
-31.8889807417
 20
-8.789880648
  0
LWPOLYLINE
  5
63E
100
AcDbEntity
  8
0
100
AcDbPolyline
 62
250
  6
CONTINUOUS
 90
3
 70
0
 10
-35.7594549379
 20
-26.0625531512
 10
-35.7291849619
 20
-25.974764808
 10
-35.6094922963
 20
-25.6242805862
  0
LINE
  5
63F
100
AcDbEntity
  8
0
100
AcDbLine
 62
250
  6
CONTINUOUS
 10
-35.8781632989
 20
-26.4002295117
 11
-35.7594549379
 21
-26.0625531512
  0
LINE
  5
640
100
AcDbEntity
  8
0
100
AcDbLine
 62
250
  6
CONTINUOUS
 10
-35.9258787374
 20
-26.5336222834
 11
-35.8781632989
 21
-26.4002295117
  0
LINE
  5
641
100
AcDbEntity
  8
0
100
AcDbLine
 62
250
  6
CONTINUOUS
 10
-35.9740044633
 20
-26.66592522
 11
-35.9258787374
 21
-26.5336222834
  0
LINE
  5
642
100
AcDbEntity
  8
0
100
AcDbLine
 62
7
  6
CONTINUOUS
 10
-42.6714426937
 20
-32.8493039775
 11
-42.6614531973
 21
-32.8270311498
  0
LINE
  5
643
100
AcDbEntity
  8
0
100
AcDbLine
 62
7
  6
CONTINUOUS
 10
-41.8875815149
 20
-32.3500070924
 11
-41.8312261993
 21
-32.2285810093
  0
LWPOLYLINE
  5
644
100
AcDbEntity
  8
0
100
AcDbPolyline
 62
250
  6
CONTINUOUS
 90
10
 70
0
 10
-39.7011387418
 20
-19.263367996
 10
-40.0159475477
 20
-19.5173057577
 10
-40.338271245
 20
-19.7601818347
 10
-40.6680865611
 20
-19.99221799
 10
-41.0052451175
 20
-20.2135122097
 10
-41.3498957351
 20
-20.4242373925
 10
-41.7023784258
 20
-20.6245100132
 10
-42.0629036628
 20
-20.814307065
 10
-42.431703694
 20
-20.9936060195
 10
-42.8085467586
 20
-21.1621198776
  0
LINE
  5
645
100
AcDbEntity
  8
0
100
AcDbLine
 62
7
  6
CONTINUOUS
 10
-41.6668376865
 20
18.16006
 11
-40.6934806865
 21
18.16006
  0
LINE
  5
646
100
AcDbEntity
  8
0
100
AcDbLine
 62
7
  6
CONTINUOUS
 10
-56.3061776865
 20
18.90008
 11
-55.5061376865
 21
18.90008
  0
LINE
  5
647
100
AcDbEntity
  8
0
100
AcDbLine
 62
7
  6
CONTINUOUS
 10
-53.7375076865
 20
18.90008
 11
-52.9374676865
 21
18.90008
  0
LINE
  5
648
100
AcDbEntity
  8
0
100
AcDbLine
 62
7
  6
CONTINUOUS
 10
-52.4041176865
 20
18.90008
 11
-51.6040876865
 21
18.90008
  0
LINE
  5
649
100
AcDbEntity
  8
0
100
AcDbLine
 62
7
  6
CONTINUOUS
 10
-50.8040876865
 20
18.90008
 11
-49.5946576865
 21
18.90008
  0
LINE
  5
64A
100
AcDbEntity
  8
0
100
AcDbLine
 62
7
  6
CONTINUOUS
 10
-48.1006776865
 20
18.90008
 11
-46.8912476865
 21
18.90008
  0
LINE
  5
64B
100
AcDbEntity
  8
0
100
AcDbLine
 62
7
  6
CONTINUOUS
 10
-45.0735876865
 20
18.90009
 11
-44.2735176865
 21
18.90009
  0
LINE
  5
64C
100
AcDbEntity
  8
0
100
AcDbLine
 62
7
  6
CONTINUOUS
 10
-40.5810351658
 20
18.90009
 11
-42.4558376865
 21
18.90009
  0
LWPOLYLINE
  5
64D
100
AcDbEntity
  8
0
100
AcDbPolyline
 62
7
  6
CONTINUOUS
 90
10
 70
0
 43
0.3500000006
 10
-46.9232536926
 20
43.4999993591
 10
-46.8518270416
 20
43.3571415253
 10
-46.8518270416
 20
43.2857148743
 10
-46.9946848755
 20
43.1428570404
 10
-47.0661115265
 20
43.1428570404
 10
-47.1375427094
 20
43.2142836914
 10
-47.1375427094
 20
43.2857148743
 10
-47.0661115265
 20
43.4285727081
 10
-46.9946848755
 20
43.4999993591
 10
-46.9232536926
 20
43.4999993591
  0
LINE
  5
64E
100
AcDbEntity
  8
0
100
AcDbLine
 62
250
  6
CONTINUOUS
 10
-35.6578016237
 20
-27.5459015524
 11
-35.4528181232
 21
-26.9797021304
  0
LINE
  5
64F
100
AcDbEntity
  8
0
100
AcDbLine
 62
250
  6
CONTINUOUS
 10
-35.9709052897
 20
-26.6625115989
 11
-35.9795369053
 21
-26.6836435683
  0
LINE
  5
650
100
AcDbEntity
  8
0
100
AcDbLine
 62
250
  6
CONTINUOUS
 10
-35.9795369053
 20
-26.6836435683
 11
-35.9882952213
 21
-26.7046667524
  0
LINE
  5
651
100
AcDbEntity
  8
0
100
AcDbLine
 62
250
  6
CONTINUOUS
 10
-35.9882952213
 20
-26.7046667524
 11
-35.9971835938
 21
-26.7255843925
  0
LINE
  5
652
100
AcDbEntity
  8
0
100
AcDbLine
 62
250
  6
CONTINUOUS
 10
-36.3014794268
 20
-27.415323699
 11
-36.2109077534
 21
-27.2026382676
  0
LWPOLYLINE
  5
653
100
AcDbEntity
  8
0
100
AcDbPolyline
 62
250
  6
CONTINUOUS
 90
3
 70
0
 10
-35.9971835938
 20
-26.7255843925
 10
-36.0062040666
 20
-26.7463982216
 10
-36.0107643524
 20
-26.7567668632
  0
LINE
  5
654
100
AcDbEntity
  8
0
100
AcDbLine
 62
250
  6
CONTINUOUS
 10
-36.2109077534
 20
-27.2026382676
 11
-36.1783088327
 21
-27.1274890282
  0
LINE
  5
655
100
AcDbEntity
  8
0
100
AcDbLine
 62
250
  6
CONTINUOUS
 10
-36.1783088327
 20
-27.1274890282
 11
-36.1339834668
 21
-27.0268706492
  0
LWPOLYLINE
  5
656
100
AcDbEntity
  8
0
100
AcDbPolyline
 62
250
  6
CONTINUOUS
 90
10
 70
0
 10
-35.6577467708
 20
-27.5458807762
 10
-35.9036278533
 20
-28.0962906294
 10
-36.215501016
 20
-28.6075485194
 10
-36.5893187242
 20
-29.0739257795
 10
-37.0200314178
 20
-29.488582141
 10
-37.503332865
 20
-29.8463052502
 10
-38.0311107528
 20
-30.1397771632
 10
-38.5971881661
 20
-30.3647346041
 10
-39.1939979594
 20
-30.5164884327
 10
-39.8147356896
 20
-30.5911406409
  0
LINE
  5
657
100
AcDbEntity
  8
0
100
AcDbLine
 62
250
  6
CONTINUOUS
 10
-36.1339834668
 20
-27.0268706492
 11
-36.098922285
 21
-26.9485587033
  0
LINE
  5
658
100
AcDbEntity
  8
0
100
AcDbLine
 62
250
  6
CONTINUOUS
 10
-36.098922285
 20
-26.9485587033
 11
-36.0754879512
 21
-26.8970149479
  0
LWPOLYLINE
  5
659
100
AcDbEntity
  8
0
100
AcDbPolyline
 62
250
  6
CONTINUOUS
 90
3
 70
0
 10
-36.0754879512
 20
-26.8970149479
 10
-36.0518441123
 20
-26.8461132836
 10
-36.0255124336
 20
-26.7899988796
  0
LWPOLYLINE
  5
65A
100
AcDbEntity
  8
0
100
AcDbPolyline
 62
250
  6
CONTINUOUS
 90
5
 70
0
 10
-36.0255124336
 20
-26.7899988796
 10
-36.0182458312
 20
-26.7746826502
 10
-36.0145715458
 20
-26.7670785616
 10
-36.010872389
 20
-26.7595082883
 10
-36.0071471826
 20
-26.7519722852
  0
LWPOLYLINE
  5
65B
100
AcDbEntity
  8
0
100
AcDbPolyline
 62
250
  6
CONTINUOUS
 90
10
 70
0
 10
-42.8085682872
 20
-21.1619887995
 10
-43.2892040176
 20
-21.35564389
 10
-43.7886447531
 20
-21.5335067948
 10
-44.3062653312
 20
-21.6934711881
 10
-44.8420133296
 20
-21.8340812741
 10
-45.3956196413
 20
-21.9537339558
 10
-45.9668222739
 20
-22.0503153405
 10
-46.5553364947
 20
-22.1217401245
 10
-47.1603479044
 20
-22.1661275114
 10
-47.7803976777
 20
-22.1814858514
  0
LWPOLYLINE
  5
65C
100
AcDbEntity
  8
0
100
AcDbPolyline
 62
250
  6
CONTINUOUS
 90
4
 70
0
 10
-59.5208233204
 20
-26.8208886224
 10
-59.6222968401
 20
-26.8530913547
 10
-59.7164420711
 20
-26.8811255931
 10
-59.8032782336
 20
-26.9057465845
  0
LWPOLYLINE
  5
65D
100
AcDbEntity
  8
0
100
AcDbPolyline
 62
250
  6
CONTINUOUS
 90
10
 70
0
 10
-59.2623911808
 20
-27.4106274591
 10
-59.3713799716
 20
-27.4430672201
 10
-59.4730163052
 20
-27.4716805327
 10
-59.5663441959
 20
-27.4962103531
 10
-59.6504747893
 20
-27.5164153706
 10
-59.7243508264
 20
-27.5320119811
 10
-59.7870336145
 20
-27.5428011743
 10
-59.8379923849
 20
-27.5487322448
 10
-59.8768176622
 20
-27.5497760532
 10
-59.9030404021
 20
-27.5458909447
  0
LWPOLYLINE
  5
65E
100
AcDbEntity
  8
0
100
AcDbPolyline
 62
250
  6
CONTINUOUS
 90
3
 70
0
 10
-31.9050054922
 20
27.3995887723
 10
-31.9321513469
 20
27.3931900885
 10
-31.9701812048
 20
27.3867930782
  0
LWPOLYLINE
  5
65F
100
AcDbEntity
  8
0
100
AcDbPolyline
 62
250
  6
CONTINUOUS
 90
3
 70
0
 10
-63.6557862954
 20
27.3995915909
 10
-63.6286614904
 20
27.3931936904
 10
-63.5906484791
 20
27.3867970521
  0
LWPOLYLINE
  5
660
100
AcDbEntity
  8
0
100
AcDbPolyline
 62
7
  6
CONTINUOUS
 90
4
 70
0
 10
-41.8875817467
 20
-32.3500075918
 10
-41.9682514392
 20
-32.4624326546
 10
-42.0695485827
 20
-32.5629481511
 10
-42.1804121484
 20
-32.6428285697
  0
LWPOLYLINE
  5
661
100
AcDbEntity
  8
0
100
AcDbPolyline
 62
7
  6
CONTINUOUS
 90
3
 70
0
 10
-42.6614531973
 20
-32.8270311498
 10
-42.6464930571
 20
-32.8063026328
 10
-42.6278582502
 20
-32.7876242381
  0
LWPOLYLINE
  5
662
100
AcDbEntity
  8
0
100
AcDbPolyline
 62
250
  6
CONTINUOUS
 90
10
 70
0
 10
-39.8147356895
 20
-30.5911406409
 10
-39.7939744393
 20
-30.5629475876
 10
-39.7746767047
 20
-30.5184695913
 10
-39.7570092846
 20
-30.4581279071
 10
-39.7411762241
 20
-30.3826394188
 10
-39.7274232044
 20
-30.2929872904
 10
-39.7159676899
 20
-30.1905305572
 10
-39.7069657461
 20
-30.0767868622
 10
-39.7005188909
 20
-29.9530914982
 10
-39.6966578267
 20
-29.8207126134
  0
LINE
  5
663
100
AcDbEntity
  8
0
100
AcDbLine
 62
7
  6
CONTINUOUS
 10
-31.652028174
 20
26.8676617689
 11
-31.3834016314
 21
26.9123780654
  0
LWPOLYLINE
  5
664
100
AcDbEntity
  8
0
100
AcDbPolyline
 62
250
  6
CONTINUOUS
 90
6
 70
0
 10
-31.9701812048
 20
27.3867930782
 10
-32.0190796641
 20
27.3803997227
 10
-32.0788005198
 20
27.3740159663
 10
-32.1493283701
 20
27.3676437903
 10
-32.2306786167
 20
27.3612812133
 10
-32.3228512596
 20
27.3549282354
  0
LINE
  5
665
100
AcDbEntity
  8
0
100
AcDbLine
 62
7
  6
CONTINUOUS
 10
-31.8272023665
 20
26.8549503215
 11
-31.652028174
 21
26.8676617689
  0
LINE
  5
666
100
AcDbEntity
  8
0
100
AcDbLine
 62
7
  6
CONTINUOUS
 10
-63.7335930066
 20
26.8549503215
 11
-63.9087671991
 21
26.8676617689
  0
LWPOLYLINE
  5
667
100
AcDbEntity
  8
0
100
AcDbPolyline
 62
250
  6
CONTINUOUS
 90
6
 70
0
 10
-63.5906484791
 20
27.3867970521
 10
-63.5417618196
 20
27.3804036513
 10
-63.4820451866
 20
27.374019414
 10
-63.4115131384
 20
27.3676463156
 10
-63.3301511166
 20
27.3612823807
 10
-63.2379591214
 20
27.3549276093
  0
LINE
  5
668
100
AcDbEntity
  8
0
100
AcDbLine
 62
7
  6
CONTINUOUS
 10
-63.9087671991
 20
26.8676617689
 11
-64.1773937417
 21
26.9123780654
  0
LWPOLYLINE
  5
669
100
AcDbEntity
  8
0
100
AcDbPolyline
 62
250
  6
CONTINUOUS
 90
5
 70
0
 10
-39.0843187955
 20
27.3394087819
 10
-39.0773132048
 20
27.33027275
 10
-39.0703813376
 20
27.3094981659
 10
-39.0636956533
 20
27.2763327379
 10
-39.057464902
 20
27.2296658378
  0
LWPOLYLINE
  5
66A
100
AcDbEntity
  8
0
100
AcDbPolyline
 62
250
  6
CONTINUOUS
 90
10
 70
0
 10
-39.0697850802
 20
26.8398878083
 10
-39.0405314813
 20
26.8426041441
 10
-39.0129736935
 20
26.8439573284
 10
-38.9871115952
 20
26.8439473612
 10
-38.9639551477
 20
26.8414727462
 10
-38.9424941281
 20
26.8376349797
 10
-38.9196983273
 20
26.8357385509
 10
-38.8945578138
 20
26.8368849562
 10
-38.8680827365
 20
26.839972699
 10
-38.8402731925
 20
26.8450017796
  0
LWPOLYLINE
  5
66B
100
AcDbEntity
  8
0
100
AcDbPolyline
 62
7
  6
CONTINUOUS
 90
4
 70
0
 10
-61.6823628309
 20
27.3295520446
 10
-61.821831202
 20
27.322640839
 10
-61.9604838196
 20
27.3143922621
 10
-62.0983206838
 20
27.3048063138
  0
LWPOLYLINE
  5
66C
100
AcDbEntity
  8
0
100
AcDbPolyline
 62
250
  6
CONTINUOUS
 90
4
 70
0
 10
-32.3228512596
 20
27.3549282354
 10
-32.341978046
 20
27.3540723433
 10
-32.3727142091
 20
27.3532593589
 10
-32.4150597489
 20
27.3524892822
  0
LWPOLYLINE
  5
66D
100
AcDbEntity
  8
0
100
AcDbPolyline
 62
7
  6
CONTINUOUS
 90
3
 70
0
 10
-61.4009377415
 20
27.3391988723
 10
-61.5420581629
 20
27.3350441441
 10
-61.6823628309
 20
27.3295520446
  0
LWPOLYLINE
  5
66E
100
AcDbEntity
  8
0
100
AcDbPolyline
 62
250
  6
CONTINUOUS
 90
3
 70
0
 10
-31.910395309
 20
26.853246259
 10
-31.858930796
 20
26.8540718459
 10
-31.82720237
 20
26.8549503215
  0
LINE
  5
66F
100
AcDbEntity
  8
0
100
AcDbLine
 62
7
  6
CONTINUOUS
 10
-32.720815436
 20
26.8462300825
 11
-33.4336236574
 21
26.8373613605
  0
LINE
  5
670
100
AcDbEntity
  8
0
100
AcDbLine
 62
250
  6
CONTINUOUS
 10
-32.4150597489
 20
27.3524892822
 11
-32.5377539857
 21
27.351044885
  0
LINE
  5
671
100
AcDbEntity
  8
0
100
AcDbLine
 62
7
  6
CONTINUOUS
 10
-33.4336236574
 20
26.8373613605
 11
-34.1413510528
 21
26.8312301081
  0
LINE
  5
672
100
AcDbEntity
  8
0
100
AcDbLine
 62
250
  6
CONTINUOUS
 10
-32.0690130542
 20
26.8517434277
 11
-31.910395309
 21
26.853246259
  0
LWPOLYLINE
  5
673
100
AcDbEntity
  8
0
100
AcDbPolyline
 62
7
  6
CONTINUOUS
 90
4
 70
0
 10
-60.9730928262
 20
27.3452735256
 10
-61.1164550731
 20
27.3443135631
 10
-61.2590631971
 20
27.3422614337
 10
-61.4009377415
 20
27.3391988723
  0
LINE
  5
674
100
AcDbEntity
  8
0
100
AcDbLine
 62
7
  6
CONTINUOUS
 10
-58.0112928244
 20
26.8372575167
 11
-56.712589253
 21
26.8449844356
  0
LINE
  5
675
100
AcDbEntity
  8
0
100
AcDbLine
 62
7
  6
CONTINUOUS
 10
-34.1413510528
 20
26.8312301081
 11
-34.8425750914
 21
26.8278363253
  0
LINE
  5
676
100
AcDbEntity
  8
0
100
AcDbLine
 62
7
  6
CONTINUOUS
 10
-59.3487934648
 20
26.8308023151
 11
-58.0112928244
 21
26.8372575167
  0
LWPOLYLINE
  5
677
100
AcDbEntity
  8
0
100
AcDbPolyline
 62
250
  6
CONTINUOUS
 90
3
 70
0
 10
-32.5377539857
 20
27.351044885
 10
-32.7771153986
 20
27.3495297636
 10
-32.8700670381
 20
27.349214933
  0
LINE
  5
678
100
AcDbEntity
  8
0
100
AcDbLine
 62
250
  6
CONTINUOUS
 10
-32.4255944512
 20
26.849973596
 11
-32.0690130542
 21
26.8517434277
  0
LINE
  5
679
100
AcDbEntity
  8
0
100
AcDbLine
 62
7
  6
CONTINUOUS
 10
-33.1834016314
 20
27.3484122731
 11
-32.8700670381
 21
27.349214933
  0
LINE
  5
67A
100
AcDbEntity
  8
0
100
AcDbLine
 62
250
  6
CONTINUOUS
 10
-32.7208154355
 20
26.8492267697
 11
-32.4255944512
 21
26.849973596
  0
LINE
  5
67B
100
AcDbEntity
  8
0
100
AcDbLine
 62
7
  6
CONTINUOUS
 10
-60.7230502096
 20
26.8278555628
 11
-59.3487934648
 21
26.8308023151
  0
LINE
  5
67C
100
AcDbEntity
  8
0
100
AcDbLine
 62
7
  6
CONTINUOUS
 10
-39.0851292624
 20
27.3395618274
 11
-37.1191059754
 21
27.3416283897
  0
LINE
  5
67D
100
AcDbEntity
  8
0
100
AcDbLine
 62
7
  6
CONTINUOUS
 10
-37.1191059754
 20
27.3416283897
 11
-34.6824463951
 21
27.3451714531
  0
LINE
  5
67E
100
AcDbEntity
  8
0
100
AcDbLine
 62
250
  6
CONTINUOUS
 10
-39.0697850802
 20
26.8398878083
 11
-42.93724981
 21
26.8375856375
  0
LINE
  5
67F
100
AcDbEntity
  8
0
100
AcDbLine
 62
7
  6
CONTINUOUS
 10
-34.6824463951
 20
27.3451714531
 11
-36.7803976865
 21
27.3438911925
  0
LINE
  5
680
100
AcDbEntity
  8
0
100
AcDbLine
 62
250
  6
CONTINUOUS
 10
-39.0851292624
 20
27.3395618274
 11
-43.0310309795
 21
27.33744096
  0
LINE
  5
681
100
AcDbEntity
  8
0
100
AcDbLine
 62
250
  6
CONTINUOUS
 10
-42.93724981
 20
26.8375856375
 11
-46.8124513872
 21
26.8363429924
  0
LINE
  5
682
100
AcDbEntity
  8
0
100
AcDbLine
 62
250
  6
CONTINUOUS
 10
-43.0310309795
 20
27.33744096
 11
-45.9058045449
 21
27.3365865129
  0
LINE
  5
683
100
AcDbEntity
  8
0
100
AcDbLine
 62
7
  6
CONTINUOUS
 10
-36.7803976865
 20
27.3438911925
 11
-58.7803976865
 21
27.3438911925
  0
LINE
  5
684
100
AcDbEntity
  8
0
100
AcDbLine
 62
7
  6
CONTINUOUS
 10
-33.4120126173
 20
27.4
 11
-62.1487827558
 21
27.4
  0
LINE
  5
685
100
AcDbEntity
  8
0
100
AcDbLine
 62
7
  6
CONTINUOUS
 10
-63.6662116898
 20
27.4123971046
 11
-62.6905406471
 21
27.4123971046
  0
LINE
  5
686
100
AcDbEntity
  8
0
100
AcDbLine
 62
7
  6
CONTINUOUS
 10
-32.8700670381
 20
27.4123971046
 11
-31.8938604864
 21
27.4123971046
  0
LINE
  5
687
100
AcDbEntity
  8
0
100
AcDbLine
 62
7
  6
CONTINUOUS
 10
-48.4756656865
 20
27.48
 11
-47.9328506865
 21
27.48
  0
LINE
  5
688
100
AcDbEntity
  8
0
100
AcDbLine
 62
7
  6
CONTINUOUS
 10
-47.8779056877
 20
27.48
 11
-46.9549806865
 21
27.48
  0
LINE
  5
689
100
AcDbEntity
  8
0
100
AcDbLine
 62
7
  6
CONTINUOUS
 10
-43.6312806865
 20
27.48
 11
-44.6048306865
 21
27.48
  0
LINE
  5
68A
100
AcDbEntity
  8
0
100
AcDbLine
 62
7
  6
CONTINUOUS
 10
-44.7800503977
 20
27.48
 11
-45.6874181878
 21
27.48
  0
LINE
  5
68B
100
AcDbEntity
  8
0
100
AcDbLine
 62
7
  6
CONTINUOUS
 10
-45.8470331596
 20
27.48
 11
-46.770005806
 21
27.48
  0
LINE
  5
68C
100
AcDbEntity
  8
0
100
AcDbLine
 62
7
  6
CONTINUOUS
 10
-48.5691069977
 20
27.48
 11
-49.4764747878
 21
27.48
  0
LINE
  5
68D
100
AcDbEntity
  8
0
100
AcDbLine
 62
7
  6
CONTINUOUS
 10
-49.9165196865
 20
27.48
 11
-50.4305536865
 21
27.48
  0
LINE
  5
68E
100
AcDbEntity
  8
0
100
AcDbLine
 62
250
  6
CONTINUOUS
 10
-45.9058045449
 20
27.3365865129
 11
-49.6549470749
 21
27.3365864481
  0
LINE
  5
68F
100
AcDbEntity
  8
0
100
AcDbLine
 62
250
  6
CONTINUOUS
 10
-49.6549470749
 20
27.3365864481
 11
-54.4868531616
 21
27.338374473
  0
LINE
  5
690
100
AcDbEntity
  8
0
100
AcDbLine
 62
250
  6
CONTINUOUS
 10
-54.4868531616
 20
27.338374473
 11
-56.4757796146
 21
27.3395733423
  0
LINE
  5
691
100
AcDbEntity
  8
0
100
AcDbLine
 62
7
  6
CONTINUOUS
 10
-58.7803976865
 20
27.3438911925
 11
-60.8289764564
 21
27.3451413214
  0
LINE
  5
692
100
AcDbEntity
  8
0
100
AcDbLine
 62
250
  6
CONTINUOUS
 10
-56.497016336
 20
26.840010428
 11
-46.8124513872
 21
26.8363429924
  0
LINE
  5
693
100
AcDbEntity
  8
0
100
AcDbLine
 62
7
  6
CONTINUOUS
 10
-60.2915903918
 20
27.3440970845
 11
-60.8289764564
 21
27.3451413214
  0
LINE
  5
694
100
AcDbEntity
  8
0
100
AcDbLine
 62
7
  6
CONTINUOUS
 10
-56.4757796146
 20
27.3395733423
 11
-60.2915903918
 21
27.3440970845
  0
LINE
  5
695
100
AcDbEntity
  8
0
100
AcDbLine
 62
7
  6
CONTINUOUS
 10
-60.8321399623
 20
27.3450797945
 11
-60.9730928262
 21
27.3452735256
  0
LINE
  5
696
100
AcDbEntity
  8
0
100
AcDbLine
 62
7
  6
CONTINUOUS
 10
-62.3773937417
 20
27.3485072352
 11
-62.6905406471
 21
27.3492141642
  0
LINE
  5
697
100
AcDbEntity
  8
0
100
AcDbLine
 62
7
  6
CONTINUOUS
 10
-34.8425750914
 20
26.8278363253
 11
-36.2168224773
 21
26.8312001239
  0
LINE
  5
698
100
AcDbEntity
  8
0
100
AcDbLine
 62
7
  6
CONTINUOUS
 10
-36.8889441839
 20
26.8340797946
 11
-38.8434016364
 21
26.838784594
  0
LINE
  5
699
100
AcDbEntity
  8
0
100
AcDbLine
 62
250
  6
CONTINUOUS
 10
-62.8399799376
 20
26.8492267697
 11
-63.2676323295
 21
26.8504728039
  0
LINE
  5
69A
100
AcDbEntity
  8
0
100
AcDbLine
 62
7
  6
CONTINUOUS
 10
-36.2168224773
 20
26.8312001239
 11
-36.8889441839
 21
26.8340797946
  0
LINE
  5
69B
100
AcDbEntity
  8
0
100
AcDbLine
 62
7
  6
CONTINUOUS
 10
-61.4233049902
 20
26.8312393473
 11
-60.7230502096
 21
26.8278555628
  0
LINE
  5
69C
100
AcDbEntity
  8
0
100
AcDbLine
 62
250
  6
CONTINUOUS
 10
-62.9492300243
 20
27.3504378235
 11
-62.6905406471
 21
27.3492141642
  0
LWPOLYLINE
  5
69D
100
AcDbEntity
  8
0
100
AcDbPolyline
 62
250
  6
CONTINUOUS
 90
5
 70
0
 10
-63.2676323295
 20
26.8504728039
 10
-63.5800042151
 20
26.852473575
 10
-63.650400064
 20
26.853246271
 10
-63.701864577
 20
26.8540718531
 10
-63.7335930031
 20
26.8549503215
  0
LINE
  5
69E
100
AcDbEntity
  8
0
100
AcDbLine
 62
7
  6
CONTINUOUS
 10
-62.1294119843
 20
26.8373641873
 11
-61.4233049902
 21
26.8312393473
  0
LINE
  5
69F
100
AcDbEntity
  8
0
100
AcDbLine
 62
7
  6
CONTINUOUS
 10
-62.8399799371
 20
26.8462300829
 11
-62.1294119843
 21
26.8373641873
  0
LINE
  5
6A0
100
AcDbEntity
  8
0
100
AcDbLine
 62
250
  6
CONTINUOUS
 10
-56.497016336
 20
26.840010428
 11
-56.7157618607
 21
26.8448551583
  0
LWPOLYLINE
  5
6A1
100
AcDbEntity
  8
0
100
AcDbPolyline
 62
7
  6
CONTINUOUS
 90
7
 70
0
 10
-33.8480288261
 20
27.3282202038
 10
-33.9779823159
 20
27.3335987921
 10
-34.1086442221
 20
27.3378006073
 10
-34.2399587108
 20
27.3410431699
 10
-34.3719071706
 20
27.3433989868
 10
-34.5045082129
 20
27.3447955511
 10
-34.6377618375
 20
27.3452328629
  0
LWPOLYLINE
  5
6A2
100
AcDbEntity
  8
0
100
AcDbPolyline
 62
250
  6
CONTINUOUS
 90
6
 70
0
 10
-63.2379591214
 20
27.3549276093
 10
-63.2188679262
 20
27.3540728463
 10
-63.1881646027
 20
27.3532606694
 10
-63.1458491507
 20
27.3524910786
 10
-63.090349759
 20
27.3517475437
 10
-62.9492300243
 20
27.3504378235
  0
LINE
  5
6A3
100
AcDbEntity
  8
0
100
AcDbLine
 62
7
  6
CONTINUOUS
 10
-33.7188023641
 20
27.3215923356
 11
-33.8480288261
 21
27.3282202038
  0
LINE
  5
6A4
100
AcDbEntity
  8
0
100
AcDbLine
 62
7
  6
CONTINUOUS
 10
-42.6094334154
 20
-32.7725113591
 11
-42.6278547405
 21
-32.7876342534
  0
LINE
  5
6A5
100
AcDbEntity
  8
0
100
AcDbLine
 62
7
  6
CONTINUOUS
 10
-62.3773937412
 20
27.2772433135
 11
-62.3183059655
 21
27.2839042209
  0
LWPOLYLINE
  5
6A6
100
AcDbEntity
  8
0
100
AcDbPolyline
 62
7
  6
CONTINUOUS
 90
10
 70
0
 10
-63.6662116898
 20
27.4123971046
 10
-63.7603375351
 20
27.4021864643
 10
-63.8462200192
 20
27.3795502522
 10
-63.9238591422
 20
27.3444884681
 10
-63.9947063692
 20
27.2955495575
 10
-64.057310235
 20
27.234185075
 10
-64.1073163447
 20
27.164749685
 10
-64.1432732332
 20
27.0886949424
 10
-64.1666323655
 20
27.0045692924
 10
-64.1773937417
 20
26.9123727349
  0
LINE
  5
6A7
100
AcDbEntity
  8
0
100
AcDbLine
 62
7
  6
CONTINUOUS
 10
-62.3183059655
 20
27.2839042209
 11
-62.257849616
 21
27.2902608813
  0
LINE
  5
6A8
100
AcDbEntity
  8
0
100
AcDbLine
 62
7
  6
CONTINUOUS
 10
-62.257849616
 20
27.2902608813
 11
-62.1958680506
 21
27.2963065029
  0
LINE
  5
6A9
100
AcDbEntity
  8
0
100
AcDbLine
 62
7
  6
CONTINUOUS
 10
-62.1958680506
 20
27.2963065029
 11
-62.131732516
 21
27.3020269221
  0
LWPOLYLINE
  5
6AA
100
AcDbEntity
  8
0
100
AcDbPolyline
 62
7
  6
CONTINUOUS
 90
10
 70
0
 10
-62.0983206838
 20
27.3048063138
 10
-62.1464979702
 20
27.3007698371
 10
-62.1930810419
 20
27.2999765532
 10
-62.2367908444
 20
27.3024264622
 10
-62.2763316249
 20
27.309480016
 10
-62.3106363318
 20
27.3197767626
 10
-62.3388013779
 20
27.3292353462
 10
-62.3598624425
 20
27.3364953147
 10
-62.3729355065
 20
27.3429171201
 10
-62.3773937417
 20
27.3485007625
  0
LWPOLYLINE
  5
6AB
100
AcDbEntity
  8
0
100
AcDbPolyline
 62
7
  6
CONTINUOUS
 90
3
 70
0
 10
-33.4624746893
 20
27.30480628
 10
-33.5902843185
 20
27.3137876944
 10
-33.7188023641
 20
27.3215923356
  0
LINE
  5
6AC
100
AcDbEntity
  8
0
100
AcDbLine
 62
7
  6
CONTINUOUS
 10
-33.4141499618
 20
27.3007736949
 11
-33.4624746893
 21
27.3047922542
  0
LINE
  5
6AD
100
AcDbEntity
  8
0
100
AcDbLine
 62
7
  6
CONTINUOUS
 10
-33.4251308446
 20
27.3017010714
 11
-33.3602011438
 21
27.2958636088
  0
LINE
  5
6AE
100
AcDbEntity
  8
0
100
AcDbLine
 62
7
  6
CONTINUOUS
 10
-33.3602011438
 20
27.2958636088
 11
-33.2996455243
 21
27.2899256693
  0
LINE
  5
6AF
100
AcDbEntity
  8
0
100
AcDbLine
 62
7
  6
CONTINUOUS
 10
-33.2996455243
 20
27.2899256693
 11
-33.2409236257
 21
27.2837325401
  0
LINE
  5
6B0
100
AcDbEntity
  8
0
100
AcDbLine
 62
7
  6
CONTINUOUS
 10
-33.2409236257
 20
27.2837325401
 11
-33.1834016322
 21
27.2772433011
  0
LWPOLYLINE
  5
6B1
100
AcDbEntity
  8
0
100
AcDbPolyline
 62
250
  6
CONTINUOUS
 90
9
 70
0
 10
-32.8713617104
 20
27.3492110512
 10
-32.8456095521
 20
27.3409389025
 10
-32.8207585263
 20
27.3180193533
 10
-32.7973123969
 20
27.2811034981
 10
-32.7756615721
 20
27.2307422072
 10
-32.7565627301
 20
27.1680499268
 10
-32.7412338419
 20
27.096338175
 10
-32.7301231959
 20
27.0181699438
 10
-32.7232591327
 20
26.9351839296
  0
LWPOLYLINE
  5
6B2
100
AcDbEntity
  8
0
100
AcDbPolyline
 62
7
  6
CONTINUOUS
 90
6
 70
0
 43
0.3500000006
 10
-52.0661130524
 20
42.9999992065
 10
-50.9946815643
 20
42.9999992065
 10
-50.7803970795
 20
43.2142836914
 10
-50.7803970795
 20
44.2857151794
 10
-51.2089705811
 20
44.7142841492
 10
-51.6375395508
 20
44.7142841492
  0
LWPOLYLINE
  5
6B3
100
AcDbEntity
  8
0
100
AcDbPolyline
 62
7
  6
CONTINUOUS
 90
7
 70
0
 43
0.3500000006
 10
-48.4232541504
 20
42.9999992065
 10
-49.9232546082
 20
42.9999992065
 10
-48.4232541504
 20
45.1428576508
 10
-48.4232541504
 20
45.5714266205
 10
-48.851827652
 20
46.0000001221
 10
-49.4946856384
 20
46.0000001221
 10
-49.9232546082
 20
45.3571421356
  0
LWPOLYLINE
  5
6B4
100
AcDbEntity
  8
0
100
AcDbPolyline
 62
7
  6
CONTINUOUS
 90
13
 70
0
 43
0.3500000006
 10
-45.4232532349
 20
44.7142841492
 10
-45.7089689026
 20
44.9285731659
 10
-45.7089689026
 20
45.5714266205
 10
-45.4232532349
 20
46.0000001221
 10
-44.7803997803
 20
46.0000001221
 10
-44.4946841125
 20
45.5714266205
 10
-44.4946841125
 20
44.9285731659
 10
-44.7803997803
 20
44.7142841492
 10
-44.3518262787
 20
44.2857151794
 10
-44.3518262787
 20
43.4285727081
 10
-44.7803997803
 20
42.9999992065
 10
-45.4232532349
 20
42.9999992065
 10
-45.8518267365
 20
43.4285727081
  0
ARC
  5
6B5
100
AcDbEntity
  8
0
100
AcDbCircle
 62
7
  6
CONTINUOUS
 10
-169.8918487778
 20
-7.8470372627
 40
179.0918664033
100
AcDbArc
 50
359.2452446426
 51
0.0295666753
  0
ARC
  5
6B6
100
AcDbEntity
  8
0
100
AcDbCircle
 62
7
  6
CONTINUOUS
 10
169.8918487778
 20
-7.8470372627
 40
179.0918664033
100
AcDbArc
 50
179.9704333247
 51
182.2712546219
  0
ARC
  5
6B7
100
AcDbEntity
  8
0
100
AcDbCircle
 62
7
  6
CONTINUOUS
 10
4.3
 20
-33.45
 40
0.8
100
AcDbArc
 50
270.0
 51
360.0
  0
ARC
  5
6B8
100
AcDbEntity
  8
0
100
AcDbCircle
 62
7
  6
CONTINUOUS
 10
5.2
 20
-31.95
 40
0.8
100
AcDbArc
 50
273.0127875042
 51
360.0
  0
ARC
  5
6B9
100
AcDbEntity
  8
0
100
AcDbCircle
 62
7
  6
CONTINUOUS
 10
-4.3
 20
-33.45
 40
0.8
100
AcDbArc
 50
180.0
 51
270.0
  0
ARC
  5
6BA
100
AcDbEntity
  8
0
100
AcDbCircle
 62
7
  6
CONTINUOUS
 10
-5.2
 20
-31.95
 40
0.8
100
AcDbArc
 50
180.0
 51
266.9872124958
  0
ARC
  5
6BB
100
AcDbEntity
  8
0
100
AcDbCircle
 62
7
  6
CONTINUOUS
 10
-6.1999662138
 20
-31.0656174944
 40
0.1999989106
100
AcDbArc
 50
359.9999986363
 51
82.9073239385
  0
ARC
  5
6BC
100
AcDbEntity
  8
0
100
AcDbCircle
 62
7
  6
CONTINUOUS
 10
5.25
 20
-32.9
 40
0.15
100
AcDbArc
 50
93.0127875042
 51
180.0
  0
ARC
  5
6BD
100
AcDbEntity
  8
0
100
AcDbCircle
 62
7
  6
CONTINUOUS
 10
-5.25
 20
-32.9
 40
0.15
100
AcDbArc
 50
0.0
 51
86.9872124958
  0
ARC
  5
6BE
100
AcDbEntity
  8
0
100
AcDbCircle
 62
7
  6
CONTINUOUS
 10
-92.2834913135
 20
-6.1499944788
 40
60.9000921057
100
AcDbArc
 50
339.0829782354
 51
359.9999573774
  0
ARC
  5
6BF
100
AcDbEntity
  8
0
100
AcDbCircle
 62
7
  6
CONTINUOUS
 10
-52.0803976865
 20
-33.45
 40
0.8
100
AcDbArc
 50
180.0
 51
270.0
  0
ARC
  5
6C0
100
AcDbEntity
  8
0
100
AcDbCircle
 62
7
  6
CONTINUOUS
 10
-53.9803632263
 20
-31.2901435378
 40
0.1999988884
100
AcDbArc
 50
359.9985698501
 51
87.05465652
  0
ARC
  5
6C1
100
AcDbEntity
  8
0
100
AcDbCircle
 62
7
  6
CONTINUOUS
 10
-53.979345265
 20
-31.2899806328
 40
0.1999660509
100
AcDbArc
 50
359.9516468157
 51
87.0444545768
  0
ARC
  5
6C2
100
AcDbEntity
  8
0
100
AcDbCircle
 62
7
  6
CONTINUOUS
 10
-47.7834017503
 20
88.7500291225
 40
120.0000291568
100
AcDbArc
 50
272.9574208916
 51
273.9336759293
  0
ARC
  5
6C3
100
AcDbEntity
  8
0
100
AcDbCircle
 62
7
  6
CONTINUOUS
 10
-47.7834017503
 20
88.7500291225
 40
120.0000291568
100
AcDbArc
 50
266.070446654
 51
267.0452643781
  0
ARC
  5
6C4
100
AcDbEntity
  8
0
100
AcDbCircle
 62
7
  6
CONTINUOUS
 10
-43.4803976865
 20
-33.45
 40
0.8
100
AcDbArc
 50
270.0
 51
360.0
  0
CIRCLE
  5
6C5
100
AcDbEntity
  8
0
100
AcDbCircle
 62
7
  6
CONTINUOUS
 10
-41.9301928394
 20
-12.8431986405
 40
0.2210419988
  0
ARC
  5
6C6
100
AcDbEntity
  8
0
100
AcDbCircle
 62
7
  6
CONTINUOUS
 10
-41.5803978445
 20
-31.2898381817
 40
0.1999999949
100
AcDbArc
 50
92.9580563258
 51
180.0000088765
  0
ARC
  5
6C7
100
AcDbEntity
  8
0
100
AcDbCircle
 62
7
  6
CONTINUOUS
 10
-41.5818361521
 20
-31.2895990952
 40
0.1999535979
100
AcDbArc
 50
92.9584895067
 51
180.0689983228
  0
CIRCLE
  5
6C8
100
AcDbEntity
  8
0
100
AcDbCircle
 62
7
  6
CONTINUOUS
 10
-41.9301928394
 20
-12.8431986405
 40
0.1397954186
  0
CIRCLE
  5
6C9
100
AcDbEntity
  8
0
100
AcDbCircle
 62
7
  6
CONTINUOUS
 10
-47.7803976865
 20
2.35
 40
3.0
  0
CIRCLE
  5
6CA
100
AcDbEntity
  8
0
100
AcDbCircle
 62
7
  6
CONTINUOUS
 10
-47.7803976865
 20
2.35
 40
1.35
  0
ARC
  5
6CB
100
AcDbEntity
  8
0
100
AcDbCircle
 62
7
  6
CONTINUOUS
 10
-40.5824376865
 20
17.673348
 40
1.226745207
100
AcDbArc
 50
292.8428546881
 51
90.0
  0
CIRCLE
  5
6CC
100
AcDbEntity
  8
0
100
AcDbCircle
 62
7
  6
CONTINUOUS
 10
-47.7803976865
 20
2.35
 40
1.1687670047
  0
CIRCLE
  5
6CD
100
AcDbEntity
  8
0
100
AcDbCircle
 62
7
  6
CONTINUOUS
 10
-47.7803976865
 20
2.35
 40
1.1
  0
ARC
  5
6CE
100
AcDbEntity
  8
0
100
AcDbCircle
 62
7
  6
CONTINUOUS
 10
-40.6934806865
 20
17.673348
 40
0.486711
100
AcDbArc
 50
270.0
 51
90.0
  0
ARC
  5
6CF
100
AcDbEntity
  8
0
100
AcDbCircle
 62
7
  6
CONTINUOUS
 10
-3.2773040596
 20
-6.1499944788
 40
60.9000921057
100
AcDbArc
 50
180.0000426226
 51
200.9170217657
  0
ELLIPSE
  5
6D0
100
AcDbEntity
  8
0
100
AcDbEllipse
 62
7
  6
CONTINUOUS
 10
-90.8000000004
 20
34.9529573228
 30
0.0
 11
0.0000000033
 21
311.7718912763
 31
0.0
 40
0.3210680519
 41
-1.635160403
 42
-1.6330186662
  0
ELLIPSE
  5
6D1
100
AcDbEntity
  8
0
100
AcDbEllipse
 62
7
  6
CONTINUOUS
 10
-90.8000000008
 20
-5.1534761923
 30
0.0
 11
0.0000000033
 21
311.775620669
 31
0.0
 40
0.3210642114
 41
-1.502427227
 42
-1.493569371
  0
ELLIPSE
  5
6D2
100
AcDbEntity
  8
0
100
AcDbEllipse
 62
7
  6
CONTINUOUS
 10
-90.8000000008
 20
-7.6452697006
 30
0.0
 11
0.0000000033
 21
311.7750982012
 31
0.0
 40
0.3210647494
 41
-1.4984209044
 42
-1.4855504963
  0
ELLIPSE
  5
6D3
100
AcDbEntity
  8
0
100
AcDbEllipse
 62
7
  6
CONTINUOUS
 10
-90.8000000004
 20
37.4451970493
 30
0.0
 11
0.0000000033
 21
311.779146307
 31
0.0
 40
0.3210605808
 41
4.6440198806
 42
4.6528722669
  0
ELLIPSE
  5
6D4
100
AcDbEntity
  8
0
100
AcDbEllipse
 62
7
  6
CONTINUOUS
 10
-90.8000000008
 20
-7.6452697006
 30
0.0
 11
0.0000000033
 21
311.5726468261
 31
0.0
 40
0.3210647494
 41
-1.4983737945
 42
-1.4854949712
  0
ELLIPSE
  5
6D5
100
AcDbEntity
  8
0
100
AcDbEllipse
 62
7
  6
CONTINUOUS
 10
-90.8000000004
 20
37.4451970493
 30
0.0
 11
0.0000000033
 21
311.5766923033
 31
0.0
 40
0.3210605808
 41
4.6487398572
 42
4.6528335488
  0
ELLIPSE
  5
6D6
100
AcDbEntity
  8
0
100
AcDbEllipse
 62
7
  6
CONTINUOUS
 10
90.8000000004
 20
29.6035566927
 30
0.0
 11
-0.0000000025
 21
192.9865722014
 31
0.0
 40
0.5183520938
 41
-4.6441605542
 42
-4.6361250757
  0
ELLIPSE
  5
6D7
100
AcDbEntity
  8
0
100
AcDbEllipse
 62
7
  6
CONTINUOUS
 10
90.8000000005
 20
27.3215769805
 30
0.0
 11
-0.0000000033
 21
311.5731562935
 31
0.0
 40
0.3210642244
 41
-4.681356497
 42
-4.6774784432
  0
ELLIPSE
  5
6D8
100
AcDbEntity
  8
0
100
AcDbEllipse
 62
7
  6
CONTINUOUS
 10
90.8000000006
 20
10.4786513106
 30
0.0
 11
-0.0000000033
 21
311.5750728186
 31
0.0
 40
0.3210622495
 41
7.8269497398
 42
7.8309490192
  0
ELLIPSE
  5
6D9
100
AcDbEntity
  8
0
100
AcDbEllipse
 62
7
  6
CONTINUOUS
 10
90.8000000006
 20
10.4786513106
 30
0.0
 11
-0.0000000033
 21
311.5750728186
 31
0.0
 40
0.3210622495
 41
7.8348220169
 42
7.8372650432
  0
ELLIPSE
  5
6DA
100
AcDbEntity
  8
0
100
AcDbEllipse
 62
7
  6
CONTINUOUS
 10
90.8000000005
 20
27.3220303077
 30
0.0
 11
-0.0000000033
 21
311.5834978134
 31
0.0
 40
0.3210535683
 41
-4.675037303
 42
-4.6725107024
  0
ELLIPSE
  5
6DB
100
AcDbEntity
  8
0
100
AcDbEllipse
 62
7
  6
CONTINUOUS
 10
90.8000000008
 20
-3.7296608674
 30
0.0
 11
-0.0000000024
 21
141.7656089547
 31
0.0
 40
0.7053896535
 41
7.8344450195
 42
7.8369096131
  0
ELLIPSE
  5
6DC
100
AcDbEntity
  8
0
100
AcDbEllipse
 62
7
  6
CONTINUOUS
 10
90.8000000004
 20
31.3420852965
 30
0.0
 11
-0.0000000025
 21
192.9878121312
 31
0.0
 40
0.5183487635
 41
-4.6356286103
 42
-4.6270876248
  0
ELLIPSE
  5
6DD
100
AcDbEntity
  8
0
100
AcDbEllipse
 62
7
  6
CONTINUOUS
 10
90.8000000004
 20
31.3420852965
 30
0.0
 11
-0.0000000025
 21
192.9202900254
 31
0.0
 40
0.5183487635
 41
-4.6356016913
 42
-4.6270576967
  0
ELLIPSE
  5
6DE
100
AcDbEntity
  8
0
100
AcDbEllipse
 62
7
  6
CONTINUOUS
 10
90.8000000006
 20
7.9864043304
 30
0.0
 11
-0.0000000033
 21
311.5892287776
 31
0.0
 40
0.3210476632
 41
7.8229491506
 42
7.8268265377
  0
ELLIPSE
  5
6DF
100
AcDbEntity
  8
0
100
AcDbEllipse
 62
7
  6
CONTINUOUS
 10
90.8000000006
 20
7.9869260252
 30
0.0
 11
-0.0000000033
 21
311.5711612921
 31
0.0
 40
0.3210662802
 41
7.8292668053
 42
7.8317923169
  0
ELLIPSE
  5
6E0
100
AcDbEntity
  8
0
100
AcDbEllipse
 62
7
  6
CONTINUOUS
 10
90.8000000006
 20
7.9869260252
 30
0.0
 11
-0.0000000033
 21
311.462149533
 31
0.0
 40
0.3210662802
 41
7.8292581533
 42
7.8317845493
  0
ELLIPSE
  5
6E1
100
AcDbEntity
  8
0
100
AcDbEllipse
 62
7
  6
CONTINUOUS
 10
90.8000000004
 20
29.8133054015
 30
0.0
 11
-0.0000000033
 21
311.5702208722
 31
0.0
 40
0.3210672493
 41
-4.6773553109
 42
-4.6645053736
  0
ELLIPSE
  5
6E2
100
AcDbEntity
  8
0
100
AcDbEllipse
 62
7
  6
CONTINUOUS
 10
90.8000000004
 20
29.8133054015
 30
0.0
 11
-0.0000000033
 21
311.4612094421
 31
0.0
 40
0.3210672493
 41
-4.6773430441
 42
-4.6666308095
  0
ELLIPSE
  5
6E3
100
AcDbEntity
  8
0
100
AcDbEllipse
 62
7
  6
CONTINUOUS
 10
90.8000000007
 20
2.0208396846
 30
0.0
 11
100.0699937809
 21
-0.0000000231
 31
0.0
 40
0.8427061535
 41
9.4180542303
 42
9.4222631081
  0
ELLIPSE
  5
6E4
100
AcDbEntity
  8
0
100
AcDbEllipse
 62
7
  6
CONTINUOUS
 10
90.8000000008
 20
-3.7296608674
 30
0.0
 11
-0.0000000024
 21
141.8648448872
 31
0.0
 40
0.7053896535
 41
1.5512733801
 42
1.5537362492
  0
ELLIPSE
  5
6E5
100
AcDbEntity
  8
0
100
AcDbEllipse
 62
7
  6
CONTINUOUS
 10
-14.4503919577
 20
27.4123971046
 30
0.0
 11
48.4
 21
-0.0
 31
0.0
 40
0.0087268678
 41
-3.0110569682
 42
-3.0100143866
  0
ELLIPSE
  5
6E6
100
AcDbEntity
  8
0
100
AcDbEllipse
 62
7
  6
CONTINUOUS
 10
-81.3363952726
 20
27.3943903438
 30
0.0
 11
48.4
 21
-0.0
 31
0.0
 40
0.0087268678
 41
6.1955394682
 42
6.3258298513
  0
ELLIPSE
  5
6E7
100
AcDbEntity
  8
0
100
AcDbEllipse
 62
7
  6
CONTINUOUS
 10
-14.2244001005
 20
27.3943903438
 30
0.0
 11
48.4
 21
-0.0
 31
0.0
 40
0.0087268678
 41
9.3821334166
 42
9.5124237997
  0
ENDSEC
  0
SECTION
  2
OBJECTS
  0
DICTIONARY
  5
C
100
AcDbDictionary
280
0
281
1
  3
ACAD_GROUP
350
D
  3
ACAD_MLINESTYLE
350
17
  3
ACAD_LAYOUT
350
1A
  3
ACAD_PLOTSETTINGS
350
19
  3
ACAD_PLOTSTYLENAME
350
E
  0
DICTIONARY
  5
D
102
{ACAD_REACTORS
330
C
102
}
100
AcDbDictionary
280
0
281
1
  0
ACDBDICTIONARYWDFLT
  5
E
102
{ACAD_REACTORS
330
C
102
}
100
AcDbDictionary
281
1
  3
Normal
350
F
100
AcDbDictionaryWithDefault
340
F
  0
DICTIONARY
  5
17
102
{ACAD_REACTORS
330
C
102
}
100
AcDbDictionary
280
0
281
1
  3
Standard
350
18
  0
DICTIONARY
  5
19
102
{ACAD_REACTORS
330
C
102
}
100
AcDbDictionary
281
1
  0
DICTIONARY
  5
1A
102
{ACAD_REACTORS
330
C
102
}
100
AcDbDictionary
281
1
  3
Model
350
6E8
  3
Layout1
350
6E9
  0
ACDBPLACEHOLDER
  5
F
102
{ACAD_REACTORS
330
E
102
}
  0
MLINESTYLE
  5
18
102
{ACAD_REACTORS
330
17
102
}
100
AcDbMlineStyle
  2
STANDARD
 70
0
  3

 62
256
 51
90.0
 52
90.0
 71
2
 49
0.5
 62
256
  6
BYLAYER
 49
-0.5
 62
256
  6
BYLAYER
  0
LAYOUT
  5
6E8
102
{ACAD_REACTORS
330
1A
102
}
100
AcDbPlotSettings
  1

  2
none_device
  4
ISO_A4_(297.00_x_210.00_MM)
  6

 40
0.0
 41
0.0
 42
0.0
 43
0.0
 44
297.0
 45
210.0
 46
0.0
 47
0.0
 48
0.0
 49
0.0
140
0.0
141
0.0
142
1.0
143
1.0
 70
1024
 72
1
 73
0
 74
0
  7

 75
0
147
1.0
148
0.0
149
0.0
100
AcDbLayout
  1
Model
 70
0
 71
0
 10
0.0
 20
0.0
 11
297.0
 21
210.0
 12
0.0
 22
0.0
 32
0.0
 14
0.0
 24
0.0
 34
0.0
 15
0.0
 25
0.0
 35
0.0
146
0.0
 13
0.0
 23
0.0
 33
0.0
 16
1.0
 26
0.0
 36
0.0
 17
0.0
 27
1.0
 37
0.0
 76
0
330
21B
345
0
346
0
  0
LAYOUT
  5
6E9
102
{ACAD_REACTORS
330
1A
102
}
100
AcDbPlotSettings
  1

  2
none_device
  4
ISO_A4_(297.00_x_210.00_MM)
  6

 40
0.0
 41
0.0
 42
0.0
 43
0.0
 44
297.0
 45
210.0
 46
0.0
 47
0.0
 48
0.0
 49
0.0
140
0.0
141
0.0
142
1.0
143
1.0
 70
0
 72
1
 73
0
 74
0
  7

 75
0
147
1.0
148
0.0
149
0.0
100
AcDbLayout
  1
Layout1
 70
0
 71
1
 10
0.0
 20
0.0
 11
297.0
 21
210.0
 12
0.0
 22
0.0
 32
0.0
 14
0.0
 24
0.0
 34
0.0
 15
0.0
 25
0.0
 35
0.0
146
0.0
 13
0.0
 23
0.0
 33
0.0
 16
1.0
 26
0.0
 36
0.0
 17
0.0
 27
1.0
 37
0.0
 76
0
330
21C
345
0
346
0
  0
ENDSEC
  0
EOF
