  0
SECTION
  2
HEADER
  9
$ACADVER
  1
AC1024
  9
$DWGCODEPAGE
  3
ANSI_1252
  9
$EXTMAX
 10
297.0
 20
210.0
 30
0.0
  9
$EXTMIN
 10
0.0
 20
0.0
 30
0.0
  9
$LIMMIN
 10
0.0
 20
0.0
  9
$LIMMAX
 10
297.0
 20
210.0
  9
$VIEWCTR
 10
148.5
 20
105.0
  9
$VIEWSIZE
 40
210.0
  9
$CLAYER
  8
0
  9
$LTSCALE
 40
16.335
  9
$CELTYPE
  6
BYLAYER
  9
$DIMSCALE
 40
1.0
  9
$DIMASZ
 40
3.0
  9
$DIMEXO
 40
0.5
  9
$DIMDLI
 40
11.286
  9
$DIMEXE
 40
1.5
  9
$DIMCEN
 40
2.673
  9
$DIMLFAC
 40
1.0
  9
$DIMBLK
  1
_FILLED
  9
$DIMALT
 70
0
  9
$DIMALTF
 40
0.0393700787
  9
$DIMTXT
 40
3.0
  9
$DIMTOL
 70
1
  9
$DIMLIM
 70
0
  9
$DIMTFAC
 40
1.0
  9
$DIMTP
 40
0.01
  9
$DIMTM
 40
0.01
  9
$DIMGAP
 40
0.625
  9
$DIMDSEP
 70
44
  9
$AUNITS
 70
0
  9
$PDMODE
 70
3
  9
$PDSIZE
 40
3.0
  9
$HANDSEED
  5
75B
  9
$TILEMODE
 70
1
  9
$MEASUREMENT
 70
1
  9
$INSUNITS
 70
4
  0
ENDSEC
  0
SECTION
  2
CLASSES
  0
CLASS
  1
ACDBDICTIONARYWDFLT
  2
AcDbDictionaryWithDefault
  3
AutoCAD 2000
 90
0
 91
1
280
0
281
0
  0
CLASS
  1
ACDBPLACEHOLDER
  2
AcDbPlaceHolder
  3
AutoCAD 2000
 90
0
 91
1
280
0
281
0
  0
CLASS
  1
LAYOUT
  2
AcDbLayout
  3
AutoCAD 2000
 90
0
 91
0
280
0
281
0
  0
ENDSEC
  0
SECTION
  2
TABLES
  0
TABLE
  2
VPORT
  5
8
100
AcDbSymbolTable
 70
2
  0
VPORT
  5
1F4
100
AcDbSymbolTableRecord
100
AcDbViewportTableRecord
  2
*ACTIVE
 70
0
 10
0.0
 20
0.0
 11
1.0
 21
1.0
 12
148.5
 22
105.0
 13
0.0
 23
0.0
 14
1.0
 24
1.0
 15
0.0
 25
0.0
 16
0.0
 26
0.0
 36
1.0
 17
0.0
 27
0.0
 37
0.0
 40
210.0
 41
1.4142857143
 42
50.0
 43
0.0
 44
0.0
 50
0.0
 51
0.0
 71
0
 72
100
 73
1
 74
1
 75
0
 76
0
 77
0
 78
0
  0
ENDTAB
  0
TABLE
  2
LTYPE
  5
5
100
AcDbSymbolTable
 70
6
  0
LTYPE
  5
14
100
AcDbSymbolTableRecord
100
AcDbLinetypeTableRecord
  2
BYBLOCK
 70
0
  3

 72
65
 73
0
 40
0.0
  0
LTYPE
  5
15
100
AcDbSymbolTableRecord
100
AcDbLinetypeTableRecord
  2
BYLAYER
 70
0
  3

 72
65
 73
0
 40
0.0
  0
LTYPE
  5
16
100
AcDbSymbolTableRecord
100
AcDbLinetypeTableRecord
  2
CONTINUOUS
 70
64
  3
Solid line
 72
65
 73
0
 40
0.0
  0
LTYPE
  5
1F5
100
AcDbSymbolTableRecord
100
AcDbLinetypeTableRecord
  2
CENTER
 70
64
  3
____ _ ____ _ ____ _ ____ _ ____ _ ____ _ ____
 72
65
 73
4
 40
0.6
 49
0.375
 74
0
 49
-0.075
 74
0
 49
0.075
 74
0
 49
-0.075
 74
0
  0
LTYPE
  5
1F6
100
AcDbSymbolTableRecord
100
AcDbLinetypeTableRecord
  2
HIDDEN
 70
64
  3
- - - - - - - - - - - - - - - - - - - -
 72
65
 73
2
 40
0.2
 49
0.1
 74
0
 49
-0.1
 74
0
  0
LTYPE
  5
1F7
100
AcDbSymbolTableRecord
100
AcDbLinetypeTableRecord
  2
PHANTOM
 70
64
  3
_____ _ _ _____ _ _ _____ _ _ _____
 72
65
 73
6
 40
0.8
 49
0.45
 74
0
 49
-0.05
 74
0
 49
0.1
 74
0
 49
-0.05
 74
0
 49
0.1
 74
0
 49
-0.05
 74
0
  0
LTYPE
  5
1F8
100
AcDbSymbolTableRecord
100
AcDbLinetypeTableRecord
  2
DOT
 70
64
  3
. . . . . . . . . . . . . . . . . . . .
 72
65
 73
2
 40
0.2
 49
0.1
 74
0
 49
-0.1
 74
0
  0
LTYPE
  5
1F9
100
AcDbSymbolTableRecord
100
AcDbLinetypeTableRecord
  2
DASHED
 70
64
  3
- - - - - - - - - - - - - - - - - - - -
 72
65
 73
2
 40
0.2
 49
0.1
 74
0
 49
-0.1
 74
0
  0
ENDTAB
  0
TABLE
  2
LAYER
  5
2
100
AcDbSymbolTable
 70
36
  0
LAYER
  5
10
100
AcDbSymbolTableRecord
100
AcDbLayerTableRecord
  2
0
 70
0
 62
7
  6
CONTINUOUS
370
-3
390
F
  0
LAYER
  5
1FA
100
AcDbSymbolTableRecord
100
AcDbLayerTableRecord
  2
DEFAULT_1
 70
0
 62
7
  6
CENTER
370
-3
390
F
  0
LAYER
  5
1FB
100
AcDbSymbolTableRecord
100
AcDbLayerTableRecord
  2
DEFAULT_2
 70
0
 62
7
  6
HIDDEN
370
-3
390
F
  0
LAYER
  5
1FC
100
AcDbSymbolTableRecord
100
AcDbLayerTableRecord
  2
DEFAULT_3
 70
0
 62
7
  6
PHANTOM
370
-3
390
F
  0
LAYER
  5
1FD
100
AcDbSymbolTableRecord
100
AcDbLayerTableRecord
  2
ASSI
 70
0
 62
7
  6
CONTINUOUS
370
-3
390
F
  0
LAYER
  5
1FE
100
AcDbSymbolTableRecord
100
AcDbLayerTableRecord
  2
COLOR5
 70
0
 62
7
  6
CONTINUOUS
370
-3
390
F
  0
LAYER
  5
1FF
100
AcDbSymbolTableRecord
100
AcDbLayerTableRecord
  2
COORDINATE
 70
0
 62
7
  6
CONTINUOUS
370
-3
390
F
  0
LAYER
  5
200
100
AcDbSymbolTableRecord
100
AcDbLayerTableRecord
  2
COORD_ORIGINE
 70
0
 62
7
  6
CONTINUOUS
370
-3
390
F
  0
LAYER
  5
201
100
AcDbSymbolTableRecord
100
AcDbLayerTableRecord
  2
COPY-PUBBLISH
 70
0
 62
7
  6
CONTINUOUS
370
-3
390
F
  0
LAYER
  5
202
100
AcDbSymbolTableRecord
100
AcDbLayerTableRecord
  2
COPY_PUBLISH
 70
0
 62
7
  6
CONTINUOUS
370
-3
390
F
  0
LAYER
  5
203
100
AcDbSymbolTableRecord
100
AcDbLayerTableRecord
  2
COSMETICHE
 70
0
 62
7
  6
CONTINUOUS
370
-3
390
F
  0
LAYER
  5
204
100
AcDbSymbolTableRecord
100
AcDbLayerTableRecord
  2
COSMETICI
 70
0
 62
7
  6
CONTINUOUS
370
-3
390
F
  0
LAYER
  5
205
100
AcDbSymbolTableRecord
100
AcDbLayerTableRecord
  2
CURVE
 70
0
 62
7
  6
CONTINUOUS
370
-3
390
F
  0
LAYER
  5
206
100
AcDbSymbolTableRecord
100
AcDbLayerTableRecord
  2
DRAFT
 70
0
 62
7
  6
CONTINUOUS
370
-3
390
F
  0
LAYER
  5
207
100
AcDbSymbolTableRecord
100
AcDbLayerTableRecord
  2
IGES
 70
0
 62
7
  6
CONTINUOUS
370
-3
390
F
  0
LAYER
  5
208
100
AcDbSymbolTableRecord
100
AcDbLayerTableRecord
  2
IMPORT_IGES
 70
0
 62
7
  6
CONTINUOUS
370
-3
390
F
  0
LAYER
  5
209
100
AcDbSymbolTableRecord
100
AcDbLayerTableRecord
  2
INTF_1
 70
0
 62
7
  6
CONTINUOUS
370
-3
390
F
  0
LAYER
  5
20A
100
AcDbSymbolTableRecord
100
AcDbLayerTableRecord
  2
INTF_11
 70
0
 62
7
  6
CONTINUOUS
370
-3
390
F
  0
LAYER
  5
20B
100
AcDbSymbolTableRecord
100
AcDbLayerTableRecord
  2
INTF_52
 70
0
 62
7
  6
CONTINUOUS
370
-3
390
F
  0
LAYER
  5
20C
100
AcDbSymbolTableRecord
100
AcDbLayerTableRecord
  2
INTF_GREEN
 70
0
 62
7
  6
CONTINUOUS
370
-3
390
F
  0
LAYER
  5
20D
100
AcDbSymbolTableRecord
100
AcDbLayerTableRecord
  2
INTF_RED
 70
0
 62
7
  6
CONTINUOUS
370
-3
390
F
  0
LAYER
  5
20E
100
AcDbSymbolTableRecord
100
AcDbLayerTableRecord
  2
INTF_YELLOW
 70
0
 62
7
  6
CONTINUOUS
370
-3
390
F
  0
LAYER
  5
20F
100
AcDbSymbolTableRecord
100
AcDbLayerTableRecord
  2
NOTE
 70
0
 62
7
  6
CONTINUOUS
370
-3
390
F
  0
LAYER
  5
210
100
AcDbSymbolTableRecord
100
AcDbLayerTableRecord
  2
PIANI
 70
0
 62
7
  6
CONTINUOUS
370
-3
390
F
  0
LAYER
  5
211
100
AcDbSymbolTableRecord
100
AcDbLayerTableRecord
  2
PIANI-RIFERIMENTO
 70
0
 62
7
  6
CONTINUOUS
370
-3
390
F
  0
LAYER
  5
212
100
AcDbSymbolTableRecord
100
AcDbLayerTableRecord
  2
PIANI_ORIGINE
 70
0
 62
7
  6
CONTINUOUS
370
-3
390
F
  0
LAYER
  5
213
100
AcDbSymbolTableRecord
100
AcDbLayerTableRecord
  2
PUNTI
 70
0
 62
7
  6
CONTINUOUS
370
-3
390
F
  0
LAYER
  5
214
100
AcDbSymbolTableRecord
100
AcDbLayerTableRecord
  2
RACCORDO
 70
0
 62
7
  6
CONTINUOUS
370
-3
390
F
  0
LAYER
  5
215
100
AcDbSymbolTableRecord
100
AcDbLayerTableRecord
  2
SIMBOLI
 70
0
 62
7
  6
CONTINUOUS
370
-3
390
F
  0
LAYER
  5
216
100
AcDbSymbolTableRecord
100
AcDbLayerTableRecord
  2
SMUSSO
 70
0
 62
7
  6
CONTINUOUS
370
-3
390
F
  0
LAYER
  5
217
100
AcDbSymbolTableRecord
100
AcDbLayerTableRecord
  2
SNAPLINE
 70
0
 62
7
  6
CONTINUOUS
370
-3
390
F
  0
LAYER
  5
218
100
AcDbSymbolTableRecord
100
AcDbLayerTableRecord
  2
SOLIDO
 70
0
 62
7
  6
CONTINUOUS
370
-3
390
F
  0
LAYER
  5
219
100
AcDbSymbolTableRecord
100
AcDbLayerTableRecord
  2
SUPERFICI
 70
0
 62
7
  6
CONTINUOUS
370
-3
390
F
  0
LAYER
  5
21A
100
AcDbSymbolTableRecord
100
AcDbLayerTableRecord
  2
TRASH
 70
0
 62
7
  6
CONTINUOUS
370
-3
390
F
  0
LAYER
  5
21B
100
AcDbSymbolTableRecord
100
AcDbLayerTableRecord
  2
XSEC_DATUMS
 70
0
 62
7
  6
CONTINUOUS
370
-3
390
F
  0
ENDTAB
  0
TABLE
  2
STYLE
  5
3
100
AcDbSymbolTable
 70
1
  0
STYLE
  5
11
100
AcDbSymbolTableRecord
100
AcDbTextStyleTableRecord
  2
STANDARD
 70
0
 40
0.0
 41
0.8
 50
0.0
 71
0
 42
0.2
  3
txt
  4

  0
STYLE
  5
21C
100
AcDbSymbolTableRecord
100
AcDbTextStyleTableRecord
  2
TEXTSTYLE_1
 70
0
 40
0.0
 41
0.8
 50
0.0
 71
0
 42
0.2
  3
gdt
  4

  0
ENDTAB
  0
TABLE
  2
VIEW
  5
6
100
AcDbSymbolTable
 70
0
  0
ENDTAB
  0
TABLE
  2
UCS
  5
7
100
AcDbSymbolTable
 70
0
  0
ENDTAB
  0
TABLE
  2
APPID
  5
9
100
AcDbSymbolTable
 70
1
  0
APPID
  5
21D
100
AcDbSymbolTableRecord
100
AcDbRegAppTableRecord
  2
ACAD
 70
0
  0
ENDTAB
  0
TABLE
  2
BLOCK_RECORD
  5
1
100
AcDbSymbolTable
 70
0
  0
BLOCK_RECORD
  5
21E
100
AcDbSymbolTableRecord
100
AcDbBlockTableRecord
  2
*Model_Space
  0
BLOCK_RECORD
  5
21F
100
AcDbSymbolTableRecord
100
AcDbBlockTableRecord
  2
*Paper_Space
  0
BLOCK_RECORD
  5
220
100
AcDbSymbolTableRecord
100
AcDbBlockTableRecord
  2
_FILLED
  0
BLOCK_RECORD
  5
221
100
AcDbSymbolTableRecord
100
AcDbBlockTableRecord
  2
*D0
  0
BLOCK_RECORD
  5
222
100
AcDbSymbolTableRecord
100
AcDbBlockTableRecord
  2
*D1
  0
BLOCK_RECORD
  5
223
100
AcDbSymbolTableRecord
100
AcDbBlockTableRecord
  2
*D2
  0
ENDTAB
  0
TABLE
  2
DIMSTYLE
  5
A
100
AcDbSymbolTable
 70
1
100
AcDbDimStyleTable
 71
0
  0
DIMSTYLE
105
224
100
AcDbSymbolTableRecord
100
AcDbDimStyleTableRecord
  2
STANDARD
 70
0
  3

  4

 40
1.0
 41
3.0
 42
0.5
 43
0.38
 44
1.5
 45
0.0
 46
0.0
 47
0.01
 48
0.01
140
3.0
141
0.09
142
0.0
143
25.4
144
1.0
145
0.0
146
1.0
147
0.625
 71
1
 72
0
 73
0
 74
0
 75
0
 76
0
 77
1
 78
8
 79
2
170
0
171
1
172
0
173
0
174
0
175
0
176
0
177
0
178
0
270
2
179
2
271
2
272
2
273
2
274
2
275
0
280
0
281
0
282
0
283
1
284
8
285
0
286
0
287
3
288
0
340
11
278
44
341
220
342
220
343
220
344
220
  0
DIMSTYLE
105
225
100
AcDbSymbolTableRecord
100
AcDbDimStyleTableRecord
  2
DIMSTYLE_1
 70
0
  3

  4

 40
1.0
 41
3.0
 42
0.5
 43
0.38
 44
1.5
 45
0.0
 46
0.0
 47
0.0
 48
0.0
140
3.0
141
0.09
142
0.0
143
25.4
144
1.0
145
0.0
146
1.0
147
0.75
 71
0
 72
0
 73
0
 74
0
 75
0
 76
0
 77
1
 78
8
 79
2
170
0
171
1
172
0
173
0
174
0
175
0
176
0
177
0
178
0
270
2
179
2
271
1
272
1
273
2
274
2
275
0
280
0
281
0
282
0
283
1
284
8
285
0
286
0
287
3
288
0
340
11
278
44
341
220
342
220
343
220
344
220
  0
ENDTAB
  0
ENDSEC
  0
SECTION
  2
BLOCKS
  0
BLOCK
  5
20
100
AcDbEntity
  8
0
100
AcDbBlockBegin
  2
*Model_Space
 70
0
 10
0.0
 20
0.0
 30
0.0
  3
*Model_Space
  1

  0
ENDBLK
  5
21
100
AcDbEntity
  8
0
100
AcDbBlockEnd
  0
BLOCK
  5
1C
100
AcDbEntity
  8
0
100
AcDbBlockBegin
  2
*Paper_Space
 70
0
 10
0.0
 20
0.0
 30
0.0
  3
*Paper_Space
  1

  0
ENDBLK
  5
1D
100
AcDbEntity
  8
0
100
AcDbBlockEnd
  0
BLOCK
  5
226
100
AcDbEntity
  8
0
100
AcDbBlockBegin
  2
_FILLED
 70
64
 10
0.0
 20
0.0
  3
_FILLED
  1

  0
SOLID
  5
227
100
AcDbEntity
  8
0
  6
BYBLOCK
 62
0
100
AcDbTrace
 10
0.0
 20
0.0
 11
-1.0
 21
0.3166666667
 12
-1.0
 22
-0.3166666667
 13
-1.0
 23
-0.3166666667
  0
ENDBLK
  5
228
100
AcDbEntity
  8
0
  6
BYBLOCK
 62
0
100
AcDbBlockEnd
  0
BLOCK
  5
229
100
AcDbEntity
  8
0
100
AcDbBlockBegin
 62
7
  6
CONTINUOUS
  2
*D0
 70
65
 10
0.0
 20
0.0
  3
*D0
  1

  0
LINE
  5
22A
100
AcDbEntity
  8
0
100
AcDbLine
 62
7
  6
CONTINUOUS
 10
-76.2746217394
 20
26.946541328
 11
-76.2746217394
 21
44.3250000257
  0
LINE
  5
22B
100
AcDbEntity
  8
0
100
AcDbLine
 62
7
  6
CONTINUOUS
 10
-35.4754754864
 20
26.946541328
 11
-35.4754754864
 21
44.3250000257
  0
LINE
  5
22C
100
AcDbEntity
  8
0
100
AcDbLine
 62
7
  6
CONTINUOUS
 10
-76.2746217394
 20
42.8250000257
 11
-55.8750486129
 21
42.8250000257
  0
LINE
  5
22D
100
AcDbEntity
  8
0
100
AcDbLine
 62
7
  6
CONTINUOUS
 10
-35.4754754864
 20
42.8250000257
 11
-55.8750486129
 21
42.8250000257
  0
INSERT
  5
22E
100
AcDbEntity
  8
0
100
AcDbBlockReference
 62
7
  6
CONTINUOUS
  2
_FILLED
 10
-76.2746217394
 20
42.8250000257
 41
3.0
 42
3.0
 43
3.0
 50
180.0
  0
INSERT
  5
22F
100
AcDbEntity
  8
0
100
AcDbBlockReference
 62
7
  6
CONTINUOUS
  2
_FILLED
 10
-35.4754754864
 20
42.8250000257
 41
3.0
 42
3.0
 43
3.0
 50
360.0
  0
ENDBLK
  5
230
100
AcDbEntity
  8
0
  6
BYBLOCK
 62
0
100
AcDbBlockEnd
  0
BLOCK
  5
231
100
AcDbEntity
  8
0
100
AcDbBlockBegin
 62
7
  6
CONTINUOUS
  2
*D1
 70
65
 10
0.0
 20
0.0
  3
*D1
  1

  0
LINE
  5
232
100
AcDbEntity
  8
0
100
AcDbLine
 62
7
  6
CONTINUOUS
 10
-74.4250486129
 20
26.9465603415
 11
-85.7746302757
 21
26.9465603415
  0
LINE
  5
233
100
AcDbEntity
  8
0
100
AcDbLine
 62
7
  6
CONTINUOUS
 10
-60.8750486129
 20
-34.8250000257
 11
-85.7746302757
 21
-34.8250000257
  0
LINE
  5
234
100
AcDbEntity
  8
0
100
AcDbLine
 62
7
  6
CONTINUOUS
 10
-84.2746302757
 20
26.9465603415
 11
-84.2746302757
 21
-3.9392198421
  0
LINE
  5
235
100
AcDbEntity
  8
0
100
AcDbLine
 62
7
  6
CONTINUOUS
 10
-84.2746302757
 20
-34.8250000257
 11
-84.2746302757
 21
-3.9392198421
  0
INSERT
  5
236
100
AcDbEntity
  8
0
100
AcDbBlockReference
 62
7
  6
CONTINUOUS
  2
_FILLED
 10
-84.2746302757
 20
26.9465603415
 41
3.0
 42
3.0
 43
3.0
 50
90.0
  0
INSERT
  5
237
100
AcDbEntity
  8
0
100
AcDbBlockReference
 62
7
  6
CONTINUOUS
  2
_FILLED
 10
-84.2746302757
 20
-34.8250000257
 41
3.0
 42
3.0
 43
3.0
 50
270.0
  0
ENDBLK
  5
238
100
AcDbEntity
  8
0
  6
BYBLOCK
 62
0
100
AcDbBlockEnd
  0
BLOCK
  5
239
100
AcDbEntity
  8
0
100
AcDbBlockBegin
 62
7
  6
CONTINUOUS
  2
*D2
 70
65
 10
0.0
 20
0.0
  3
*D2
  1

  0
LINE
  5
23A
100
AcDbEntity
  8
0
100
AcDbLine
 62
7
  6
CONTINUOUS
 10
-11.5161002886
 20
-20.9457950159
 11
-11.5161002886
 21
44.3250000257
  0
LINE
  5
23B
100
AcDbEntity
  8
0
100
AcDbLine
 62
7
  6
CONTINUOUS
 10
11.5161002886
 20
-20.9457950159
 11
11.5161002886
 21
44.3250000257
  0
LINE
  5
23C
100
AcDbEntity
  8
0
100
AcDbLine
 62
7
  6
CONTINUOUS
 10
-11.5161002886
 20
42.8250000257
 11
-0.0
 21
42.8250000257
  0
LINE
  5
23D
100
AcDbEntity
  8
0
100
AcDbLine
 62
7
  6
CONTINUOUS
 10
11.5161002886
 20
42.8250000257
 11
-0.0
 21
42.8250000257
  0
INSERT
  5
23E
100
AcDbEntity
  8
0
100
AcDbBlockReference
 62
7
  6
CONTINUOUS
  2
_FILLED
 10
-11.5161002886
 20
42.8250000257
 41
3.0
 42
3.0
 43
3.0
 50
180.0
  0
INSERT
  5
23F
100
AcDbEntity
  8
0
100
AcDbBlockReference
 62
7
  6
CONTINUOUS
  2
_FILLED
 10
11.5161002886
 20
42.8250000257
 41
3.0
 42
3.0
 43
3.0
  0
ENDBLK
  5
240
100
AcDbEntity
  8
0
  6
BYBLOCK
 62
0
100
AcDbBlockEnd
  0
ENDSEC
  0
SECTION
  2
ENTITIES
  0
DIMENSION
  5
241
100
AcDbEntity
  8
0
100
AcDbDimension
 62
7
  6
CONTINUOUS
  2
*D0
 10
-35.4754754864
 20
42.8250000257
 11
-60.2679057558
 21
42.8250000257
 70
160
 71
2
 72
2
 41
0.9
 42
40.799146253
  3
DIMSTYLE_1
100
AcDbAlignedDimension
 13
-76.2746217394
 23
26.446541328
 14
-35.4754754864
 24
26.446541328
 50
360.0
100
AcDbRotatedDimension
  0
DIMENSION
  5
242
100
AcDbEntity
  8
0
100
AcDbDimension
 62
7
  6
CONTINUOUS
  2
*D1
 10
-84.2746302757
 20
-34.8250000257
 11
-84.2746302757
 21
-8.0106484135
 70
160
 71
2
 72
2
 41
0.9
 42
61.7715603672
  3
DIMSTYLE_1
100
AcDbAlignedDimension
 13
-73.9250486129
 23
26.9465603415
 14
-60.3750486129
 24
-34.8250000257
 50
270.0
100
AcDbRotatedDimension
  0
DIMENSION
  5
243
100
AcDbEntity
  8
0
100
AcDbDimension
 62
7
  6
CONTINUOUS
  2
*D2
 10
11.5161002886
 20
42.8250000257
 11
-2.25
 21
42.8250000257
 70
160
 71
2
 72
2
 41
0.9
 42
23.0322005771
  3
DIMSTYLE_1
100
AcDbAlignedDimension
 13
-11.5161002886
 23
-21.4457950159
 14
11.5161002886
 24
-21.4457950159
100
AcDbRotatedDimension
  0
LWPOLYLINE
  5
244
100
AcDbEntity
  8
0
100
AcDbPolyline
 62
7
  6
CONTINUOUS
 90
5
 70
0
 43
0.3500000006
 10
0.9642857051
 20
45.2892865906
 10
1.3214285903
 20
45.5035710754
 10
1.3214285903
 20
46.1464290619
 10
0.9642857051
 20
46.5749980316
 10
0.1071428532
 20
46.5749980316
  0
LINE
  5
245
100
AcDbEntity
  8
ASSI
100
AcDbLine
 62
250
  6
CONTINUOUS
 10
5.4242599199
 20
-31.6860039418
 11
6.0317312935
 21
-31.6554638023
  0
LINE
  5
246
100
AcDbEntity
  8
ASSI
100
AcDbLine
 62
7
  6
CONTINUOUS
 10
5.5453689432
 20
-31.5366195116
 11
6.1658600793
 21
-31.5062591515
  0
LINE
  5
247
100
AcDbEntity
  8
ASSI
100
AcDbLine
 62
250
  6
CONTINUOUS
 10
4.9934084992
 20
-31.7057146376
 11
5.4242599199
 21
-31.6860039418
  0
LINE
  5
248
100
AcDbEntity
  8
ASSI
100
AcDbLine
 62
7
  6
CONTINUOUS
 10
5.2663943386
 20
-31.5492585137
 11
5.5453689432
 21
-31.5366195116
  0
LINE
  5
249
100
AcDbEntity
  8
ASSI
100
AcDbLine
 62
7
  6
CONTINUOUS
 10
6.1812842668
 20
-31.505632036
 11
6.1590752167
 21
-31.5066130527
  0
LWPOLYLINE
  5
24A
100
AcDbEntity
  8
ASSI
100
AcDbPolyline
 62
250
  6
CONTINUOUS
 90
3
 70
0
 10
6.0317312935
 20
-31.6554638023
 10
6.0485219658
 20
-31.6547300191
 10
6.0499999996
 20
-31.654678199
  0
LWPOLYLINE
  5
24B
100
AcDbEntity
  8
ASSI
100
AcDbPolyline
 62
7
  6
CONTINUOUS
 90
3
 70
0
 10
4.7142385353
 20
-31.5723573162
 10
4.9216080211
 20
-31.5639575722
 10
5.2663943386
 20
-31.5492585137
  0
LWPOLYLINE
  5
24C
100
AcDbEntity
  8
ASSI
100
AcDbPolyline
 62
250
  6
CONTINUOUS
 90
6
 70
0
 10
3.5783409658
 20
-31.7588721571
 10
3.8714034014
 20
-31.74922183
 10
4.1416024873
 20
-31.7397818312
 10
4.3881794436
 20
-31.730644653
 10
4.6129556321
 20
-31.7217178032
 10
4.9934084992
 20
-31.7057146376
  0
LINE
  5
24D
100
AcDbEntity
  8
ASSI
100
AcDbLine
 62
250
  6
CONTINUOUS
 10
3.2687210673
 20
-31.7680956323
 11
3.5783409658
 21
-31.7588721571
  0
LWPOLYLINE
  5
24E
100
AcDbEntity
  8
ASSI
100
AcDbPolyline
 62
7
  6
CONTINUOUS
 90
5
 70
0
 10
3.3711990754
 20
-31.6176319643
 10
3.6559554147
 20
-31.6093208583
 10
3.9557884239
 20
-31.5998422272
 10
4.2329394994
 20
-31.5902887559
 10
4.7142385353
 20
-31.5723573162
  0
LINE
  5
24F
100
AcDbEntity
  8
ASSI
100
AcDbLine
 62
7
  6
CONTINUOUS
 10
6.1802455738
 20
-31.5056604595
 11
6.1812850603
 21
-31.5056319526
  0
LWPOLYLINE
  5
250
100
AcDbEntity
  8
ASSI
100
AcDbPolyline
 62
250
  6
CONTINUOUS
 90
10
 70
0
 10
-0.0
 20
-31.4067431666
 10
0.8750922905
 20
-31.4006088444
 10
1.7498862912
 20
-31.3823211031
 10
2.6241963584
 20
-31.3518867106
 10
3.4978318941
 20
-31.3093121053
 10
4.3706129211
 20
-31.2546083066
 10
5.2423700719
 20
-31.1877901004
 10
6.1129239183
 20
-31.1088698511
 10
6.9820850599
 20
-31.0178583229
 10
7.8496696628
 20
-30.9147690237
  0
LWPOLYLINE
  5
251
100
AcDbEntity
  8
ASSI
100
AcDbPolyline
 62
250
  6
CONTINUOUS
 90
10
 70
0
 10
-0.0
 20
-31.8148701276
 10
0.3847694267
 20
-31.8141342305
 10
0.7681196514
 20
-31.812205868
 10
1.1484948833
 20
-31.8090850403
 10
1.5249617136
 20
-31.8046688832
 10
1.895353179
 20
-31.7990602609
 10
2.2563892729
 20
-31.7925677654
 10
2.6067085674
 20
-31.7851419205
 10
2.9450640361
 20
-31.7768322024
 10
3.2687210673
 20
-31.7680956323
  0
LWPOLYLINE
  5
252
100
AcDbEntity
  8
ASSI
100
AcDbPolyline
 62
250
  6
CONTINUOUS
 90
10
 70
0
 10
0.0
 20
-31.6651112996
 10
0.3951344287
 20
-31.664442132
 10
0.7859101011
 20
-31.6624922114
 10
1.1723113017
 20
-31.6593232801
 10
1.5564674063
 20
-31.6549635665
 10
1.9362200304
 20
-31.6494317102
 10
2.3051269394
 20
-31.6428790018
 10
2.662699888
 20
-31.635480505
 10
3.0094156797
 20
-31.6272941136
 10
3.3711990754
 20
-31.6176319643
  0
LINE
  5
253
100
AcDbEntity
  8
ASSI
100
AcDbLine
 62
7
  6
CONTINUOUS
 10
4.5
 20
-34.8250000257
 11
-4.5
 21
-34.8250000257
  0
LINE
  5
254
100
AcDbEntity
  8
ASSI
100
AcDbLine
 62
250
  6
CONTINUOUS
 10
5.3
 20
-34.0250000257
 11
-5.3
 21
-34.0250000257
  0
LINE
  5
255
100
AcDbEntity
  8
ASSI
100
AcDbLine
 62
250
  6
CONTINUOUS
 10
5.3
 20
-33.4552728394
 11
-5.3
 21
-33.4552728394
  0
LINE
  5
256
100
AcDbEntity
  8
ASSI
100
AcDbLine
 62
250
  6
CONTINUOUS
 10
5.4184210526
 20
-33.3086346109
 11
-5.4184210526
 21
-33.3086346109
  0
LINE
  5
257
100
AcDbEntity
  8
ASSI
100
AcDbLine
 62
250
  6
CONTINUOUS
 10
-6.05
 20
-32.5265640584
 11
6.05
 21
-32.5265640584
  0
LWPOLYLINE
  5
258
100
AcDbEntity
  8
ASSI
100
AcDbPolyline
 62
250
  6
CONTINUOUS
 90
9
 70
0
 10
-0.0
 20
-31.6651112996
 10
-0.3951344287
 20
-31.664442132
 10
-0.7859101011
 20
-31.6624922114
 10
-1.1723113017
 20
-31.6593232801
 10
-1.5564674063
 20
-31.6549635665
 10
-1.9362200304
 20
-31.6494317102
 10
-2.3051269394
 20
-31.6428790018
 10
-2.662699888
 20
-31.635480505
 10
-2.9903868212
 20
-31.6277704473
  0
LWPOLYLINE
  5
259
100
AcDbEntity
  8
ASSI
100
AcDbPolyline
 62
250
  6
CONTINUOUS
 90
9
 70
0
 10
-0.0
 20
-31.8148701276
 10
-0.3847694267
 20
-31.8141342305
 10
-0.7681196514
 20
-31.812205868
 10
-1.1484948833
 20
-31.8090850403
 10
-1.5249617136
 20
-31.8046688832
 10
-1.895353179
 20
-31.7990602609
 10
-2.2563892729
 20
-31.7925677654
 10
-2.6067085674
 20
-31.7851419205
 10
-2.9450640361
 20
-31.7768322024
  0
LWPOLYLINE
  5
25A
100
AcDbEntity
  8
ASSI
100
AcDbPolyline
 62
250
  6
CONTINUOUS
 90
10
 70
0
 10
-0.0
 20
-31.4067431666
 10
-0.8750922905
 20
-31.4006088444
 10
-1.7498862912
 20
-31.3823211031
 10
-2.6241963584
 20
-31.3518867106
 10
-3.4978318941
 20
-31.3093121053
 10
-4.3706129211
 20
-31.2546083066
 10
-5.2423700719
 20
-31.1877901004
 10
-6.1129239183
 20
-31.1088698511
 10
-6.9820850599
 20
-31.0178583229
 10
-7.8496696628
 20
-30.9147690237
  0
LWPOLYLINE
  5
25B
100
AcDbEntity
  8
ASSI
100
AcDbPolyline
 62
7
  6
CONTINUOUS
 90
5
 70
0
 10
-2.9903868212
 20
-31.6277704473
 10
-3.3402904752
 20
-31.6185011254
 10
-3.6559554147
 20
-31.6093208583
 10
-3.9557884239
 20
-31.5998422272
 10
-4.2329394994
 20
-31.5902887559
  0
LINE
  5
25C
100
AcDbEntity
  8
ASSI
100
AcDbLine
 62
250
  6
CONTINUOUS
 10
-2.9450640361
 20
-31.7768322024
 11
-3.2687210673
 21
-31.7680956323
  0
LINE
  5
25D
100
AcDbEntity
  8
ASSI
100
AcDbLine
 62
7
  6
CONTINUOUS
 10
-6.1802455738
 20
-31.5056604595
 11
-6.1812850326
 21
-31.5056319556
  0
LWPOLYLINE
  5
25E
100
AcDbEntity
  8
ASSI
100
AcDbPolyline
 62
250
  6
CONTINUOUS
 90
5
 70
0
 10
-3.2687210673
 20
-31.7680956323
 10
-3.5783409658
 20
-31.7588721571
 10
-3.8714034014
 20
-31.74922183
 10
-4.1416024873
 20
-31.7397818312
 10
-4.3881794436
 20
-31.730644653
  0
LINE
  5
25F
100
AcDbEntity
  8
ASSI
100
AcDbLine
 62
7
  6
CONTINUOUS
 10
-4.2329394994
 20
-31.5902887559
 11
-4.7142385353
 21
-31.5723573162
  0
LINE
  5
260
100
AcDbEntity
  8
ASSI
100
AcDbLine
 62
250
  6
CONTINUOUS
 10
-4.3881794436
 20
-31.730644653
 11
-4.8149682565
 21
-31.7133609851
  0
LINE
  5
261
100
AcDbEntity
  8
ASSI
100
AcDbLine
 62
7
  6
CONTINUOUS
 10
-4.7142385353
 20
-31.5723573162
 11
-5.1049630197
 21
-31.5562027677
  0
LWPOLYLINE
  5
262
100
AcDbEntity
  8
ASSI
100
AcDbPolyline
 62
250
  6
CONTINUOUS
 90
3
 70
0
 10
-6.0317312935
 20
-31.6554638023
 10
-6.0485219658
 20
-31.6547300191
 10
-6.0499999996
 20
-31.654678199
  0
LINE
  5
263
100
AcDbEntity
  8
ASSI
100
AcDbLine
 62
7
  6
CONTINUOUS
 10
-5.1049630197
 20
-31.5562027677
 11
-5.4128130856
 21
-31.542739076
  0
LINE
  5
264
100
AcDbEntity
  8
ASSI
100
AcDbLine
 62
250
  6
CONTINUOUS
 10
-4.8149682565
 20
-31.7133609851
 11
-5.1518145014
 21
-31.6986383218
  0
LINE
  5
265
100
AcDbEntity
  8
ASSI
100
AcDbLine
 62
7
  6
CONTINUOUS
 10
-6.1812842668
 20
-31.505632036
 11
-6.1590752167
 21
-31.5066130527
  0
LINE
  5
266
100
AcDbEntity
  8
ASSI
100
AcDbLine
 62
7
  6
CONTINUOUS
 10
-5.4128130856
 20
-31.542739076
 11
-5.7689735717
 21
-31.5260817654
  0
LINE
  5
267
100
AcDbEntity
  8
ASSI
100
AcDbLine
 62
250
  6
CONTINUOUS
 10
-5.1518145014
 20
-31.6986383218
 11
-5.5392384391
 21
-31.6804458777
  0
LINE
  5
268
100
AcDbEntity
  8
ASSI
100
AcDbLine
 62
7
  6
CONTINUOUS
 10
-5.7689735717
 20
-31.5260817654
 11
-6.1658600793
 21
-31.5062591515
  0
LINE
  5
269
100
AcDbEntity
  8
ASSI
100
AcDbLine
 62
250
  6
CONTINUOUS
 10
-5.5392384391
 20
-31.6804458777
 11
-6.0317312935
 21
-31.6554638023
  0
LWPOLYLINE
  5
26A
100
AcDbEntity
  8
ASSI
100
AcDbPolyline
 62
7
  6
CONTINUOUS
 90
7
 70
0
 10
-8.8533385364
 20
-31.0022501466
 10
-8.7646908881
 20
-31.0641397752
 10
-8.6679308188
 20
-31.1201800326
 10
-8.5669710292
 20
-31.1675814733
 10
-8.4623031239
 20
-31.2061622103
 10
-8.3544957368
 20
-31.2356804706
 10
-8.2441359819
 20
-31.2558791794
  0
LWPOLYLINE
  5
26B
100
AcDbEntity
  8
ASSI
100
AcDbPolyline
 62
250
  6
CONTINUOUS
 90
15
 70
0
 10
-8.0341674081
 20
26.8793193252
 10
-8.0412482857
 20
26.8764948242
 10
-8.0481944773
 20
26.868181965
 10
-8.0549295148
 20
26.8544771039
 10
-8.0613786165
 20
26.8355377064
 10
-8.0674714548
 20
26.8115760087
 10
-8.0731426224
 20
26.7828525149
 10
-8.0783249993
 20
26.7496789301
 10
-8.0829651063
 20
26.7124252321
 10
-8.0870258867
 20
26.6715109297
 10
-8.0904666833
 20
26.6273987666
 10
-8.0932456517
 20
26.5805680773
 10
-8.0953338246
 20
26.5315141845
 10
-8.0967078529
 20
26.4807683672
 10
-8.0973512585
 20
26.4288955205
  0
LINE
  5
26C
100
AcDbEntity
  8
0
100
AcDbLine
 62
7
  6
CONTINUOUS
 10
-8.9840245556
 20
26.8511390577
 11
-9.0
 21
26.8465198932
  0
LWPOLYLINE
  5
26D
100
AcDbEntity
  8
ASSI
100
AcDbPolyline
 62
250
  6
CONTINUOUS
 90
13
 70
0
 10
7.7207586007
 20
-28.3304385773
 10
7.0808059846
 20
-28.4065310346
 10
6.4400004154
 20
-28.4760874617
 10
5.7984157917
 20
-28.5390796126
 10
5.1561385346
 20
-28.5954756381
 10
4.5132303639
 20
-28.6452589565
 10
3.8697281818
 20
-28.6884276639
 10
3.225705916
 20
-28.7249544509
 10
2.581238166
 20
-28.754832845
 10
1.9363628399
 20
-28.7780951117
 10
1.291142229
 20
-28.7947454276
 10
0.645663062
 20
-28.8047604419
 10
-0.0000000007
 20
-28.8081345387
  0
LWPOLYLINE
  5
26E
100
AcDbEntity
  8
ASSI
100
AcDbPolyline
 62
250
  6
CONTINUOUS
 90
13
 70
0
 10
-7.7207586007
 20
-28.3304385773
 10
-7.0808059846
 20
-28.4065310346
 10
-6.4400004154
 20
-28.4760874617
 10
-5.7984157917
 20
-28.5390796126
 10
-5.1561385346
 20
-28.5954756381
 10
-4.5132303639
 20
-28.6452589565
 10
-3.8697281818
 20
-28.6884276639
 10
-3.225705916
 20
-28.7249544509
 10
-2.581238166
 20
-28.754832845
 10
-1.9363628399
 20
-28.7780951117
 10
-1.291142229
 20
-28.7947454276
 10
-0.645663062
 20
-28.8047604419
 10
0.0000000007
 20
-28.8081345387
  0
LWPOLYLINE
  5
26F
100
AcDbEntity
  8
ASSI
100
AcDbPolyline
 62
250
  6
CONTINUOUS
 90
13
 70
0
 10
-8.7446858281
 20
-27.4964048703
 10
-8.6943435952
 20
-27.5396840636
 10
-8.6363325918
 20
-27.5807455297
 10
-8.5710390333
 20
-27.6193611236
 10
-8.4989222786
 20
-27.6552690995
 10
-8.4203114913
 20
-27.6882783107
 10
-8.3353461529
 20
-27.7182393548
 10
-8.2442415421
 20
-27.7449568016
 10
-8.1478720881
 20
-27.7681753062
 10
-8.0473771518
 20
-27.7876604746
 10
-7.9437185791
 20
-27.8032575459
 10
-7.8376305085
 20
-27.8148508708
 10
-7.7299565042
 20
-27.8223010949
  0
LWPOLYLINE
  5
270
100
AcDbEntity
  8
ASSI
100
AcDbPolyline
 62
250
  6
CONTINUOUS
 90
13
 70
0
 10
-8.7384138677
 20
-28.0225370094
 10
-8.6891913228
 20
-28.0663399058
 10
-8.6317484926
 20
-28.1076515624
 10
-8.5665065256
 20
-28.1462199218
 10
-8.4938183102
 20
-28.1818229482
 10
-8.4141844746
 20
-28.2141597575
 10
-8.3283184194
 20
-28.2428854358
 10
-8.2367667358
 20
-28.2677833601
 10
-8.1401858706
 20
-28.2887167463
 10
-8.0395493971
 20
-28.305524713
 10
-7.9356745316
 20
-28.3181112127
 10
-7.8291799076
 20
-28.3264088404
 10
-7.7207611545
 20
-28.3303352952
  0
LWPOLYLINE
  5
271
100
AcDbEntity
  8
ASSI
100
AcDbPolyline
 62
250
  6
CONTINUOUS
 90
13
 70
0
 10
-8.9256075101
 20
-19.4082103942
 10
-8.8763889346
 20
-19.4368075461
 10
-8.8189197025
 20
-19.4638800051
 10
-8.753641983
 20
-19.4892468877
 10
-8.6809165629
 20
-19.5127509433
 10
-8.6012773147
 20
-19.5341737418
 10
-8.5155072117
 20
-19.5532619486
 10
-8.4242102099
 20
-19.5698589149
 10
-8.3280071955
 20
-19.5838878883
 10
-8.2278012435
 20
-19.5952567866
 10
-8.1243676695
 20
-19.6039082962
 10
-8.0183204878
 20
-19.6098010523
 10
-7.910333598
 20
-19.6128856866
  0
LWPOLYLINE
  5
272
100
AcDbEntity
  8
ASSI
100
AcDbPolyline
 62
250
  6
CONTINUOUS
 90
13
 70
0
 10
-8.7253833852
 20
-28.7279366497
 10
-8.6773035085
 20
-28.7930519424
 10
-8.6210244855
 20
-28.854975436
 10
-8.556788246
 20
-28.9134800706
 10
-8.4848764445
 20
-28.9683134556
 10
-8.4058370236
 20
-29.0190429797
 10
-8.3203293171
 20
-29.0651786051
 10
-8.2289835394
 20
-29.1063079551
 10
-8.1325557437
 20
-29.1421436739
 10
-8.0319227211
 20
-29.1724084712
 10
-7.9278590289
 20
-29.1968837427
 10
-7.8208851309
 20
-29.2154572903
 10
-7.7115048374
 20
-29.2280285953
  0
LWPOLYLINE
  5
273
100
AcDbEntity
  8
ASSI
100
AcDbPolyline
 62
7
  6
CONTINUOUS
 90
7
 70
0
 10
-9.262995438
 20
-30.4743094309
 10
-9.2148077455
 20
-30.5757397638
 10
-9.1582694874
 20
-30.6723102514
 10
-9.0937886622
 20
-30.7635025595
 10
-9.0217582333
 20
-30.8488079103
 10
-8.9424943662
 20
-30.9277794637
 10
-8.8533496591
 20
-31.0022416712
  0
LWPOLYLINE
  5
274
100
AcDbEntity
  8
ASSI
100
AcDbPolyline
 62
250
  6
CONTINUOUS
 90
13
 70
0
 10
-9.1505220911
 20
-30.3575367591
 10
-9.1031585915
 20
-30.4602368059
 10
-9.0469853876
 20
-30.5584970241
 10
-8.9824479238
 20
-30.6516570185
 10
-8.909911173
 20
-30.7391442187
 10
-8.8299115331
 20
-30.8201609358
 10
-8.743238654
 20
-30.8937666717
 10
-8.6505089393
 20
-30.9593658279
 10
-8.5524086047
 20
-31.0165985123
 10
-8.4499386115
 20
-31.065016124
 10
-8.3439573701
 20
-31.1043159535
 10
-8.2351402505
 20
-31.1342728711
 10
-8.1242301177
 20
-31.1546253541
  0
LWPOLYLINE
  5
275
100
AcDbEntity
  8
ASSI
100
AcDbPolyline
 62
250
  6
CONTINUOUS
 90
13
 70
0
 10
-8.9253786755
 20
-30.116824399
 10
-8.8792365276
 20
-30.2231638815
 10
-8.8237663529
 20
-30.3250174148
 10
-8.7594309715
 20
-30.4216744776
 10
-8.6866220482
 20
-30.5125061212
 10
-8.6058815038
 20
-30.5966797279
 10
-8.5179785851
 20
-30.6732315025
 10
-8.423531145
 20
-30.741524477
 10
-8.3233033234
 20
-30.801134014
 10
-8.2183925302
 20
-30.8515511645
 10
-8.1097429831
 20
-30.8924287054
 10
-7.9980996021
 20
-30.9235051523
 10
-7.8842818001
 20
-30.9444781333
  0
LWPOLYLINE
  5
276
100
AcDbEntity
  8
ASSI
100
AcDbPolyline
 62
7
  6
CONTINUOUS
 90
25
 70
0
 10
-10.3382180918
 20
16.5295520257
 10
-10.3356049767
 20
16.5339181894
 10
-10.3330952342
 20
16.5469995039
 10
-10.330688864
 20
16.5686574592
 10
-10.32834029
 20
16.5986807012
 10
-10.3260950885
 20
16.6365870602
 10
-10.3240899884
 20
16.6814568408
 10
-10.322344977
 20
16.7322131929
 10
-10.3208400669
 20
16.7881040423
 10
-10.3196520255
 20
16.8484956077
 10
-10.3187945626
 20
16.9125641873
 10
-10.3182539683
 20
16.9790734107
 10
-10.31806588
 20
17.0467387497
 10
-10.3182540471
 20
17.1143895792
 10
-10.3187947202
 20
17.1808702546
 10
-10.3196522879
 20
17.2449181201
 10
-10.3208403852
 20
17.3053029634
 10
-10.3223453771
 20
17.3611931121
 10
-10.3240907475
 20
17.4119527993
 10
-10.3260969639
 20
17.4568340913
 10
-10.3283435589
 20
17.4947485833
 10
-10.3306926142
 20
17.5247610917
 10
-10.333098157
 20
17.5463954106
 10
-10.3356061603
 20
17.5594552246
 10
-10.3382166238
 20
17.5638120257
  0
LWPOLYLINE
  5
277
100
AcDbEntity
  8
ASSI
100
AcDbPolyline
 62
250
  6
CONTINUOUS
 90
13
 70
0
 10
-9.0554305762
 20
-15.1988950602
 10
-9.0084148614
 20
-15.2209462533
 10
-8.9523900184
 20
-15.2417928293
 10
-8.8878071713
 20
-15.261295208
 10
-8.8150388982
 20
-15.2793312268
 10
-8.7346256869
 20
-15.2957330245
 10
-8.6473577996
 20
-15.3103070285
 10
-8.5538581679
 20
-15.3229320316
 10
-8.4548381041
 20
-15.3335404809
 10
-8.3513285924
 20
-15.3420525918
 10
-8.2442164545
 20
-15.3484183287
 10
-8.1342025982
 20
-15.3526009166
 10
-8.0220564829
 20
-15.3545569185
  0
LWPOLYLINE
  5
278
100
AcDbEntity
  8
ASSI
100
AcDbPolyline
 62
250
  6
CONTINUOUS
 90
9
 70
0
 10
8.1242301168
 20
-31.1546253516
 10
8.1717629095
 20
-31.1945867614
 10
8.1908901418
 20
-31.2108502807
 10
8.2067987602
 20
-31.2246535024
 10
8.2196155192
 20
-31.2359778371
 10
8.2297198846
 20
-31.2447689349
 10
8.2372384416
 20
-31.251008144
 10
8.2420449329
 20
-31.2547119622
 10
8.2441394495
 20
-31.2558787247
  0
LINE
  5
279
100
AcDbEntity
  8
ASSI
100
AcDbLine
 62
250
  6
CONTINUOUS
 10
7.8496696628
 20
-30.9147690237
 11
7.884281699
 21
-30.9444783638
  0
LINE
  5
27A
100
AcDbEntity
  8
ASSI
100
AcDbLine
 62
250
  6
CONTINUOUS
 10
8.0817163445
 20
-31.1178758849
 11
8.1242301168
 21
-31.1546253516
  0
LINE
  5
27B
100
AcDbEntity
  8
ASSI
100
AcDbLine
 62
250
  6
CONTINUOUS
 10
8.0063534221
 20
-31.0520812729
 11
8.0817163445
 21
-31.1178758849
  0
LINE
  5
27C
100
AcDbEntity
  8
ASSI
100
AcDbLine
 62
250
  6
CONTINUOUS
 10
7.884281699
 20
-30.9444783638
 11
8.0063534221
 21
-31.0520812729
  0
LWPOLYLINE
  5
27D
100
AcDbEntity
  8
ASSI
100
AcDbPolyline
 62
250
  6
CONTINUOUS
 90
13
 70
0
 10
-8.8917939928
 20
-30.0773213505
 10
-8.8456872815
 20
-30.184504457
 10
-8.7907337828
 20
-30.2876517644
 10
-8.7266889281
 20
-30.3852562988
 10
-8.6540157053
 20
-30.4769875938
 10
-8.5733375777
 20
-30.5620984734
 10
-8.4853596008
 20
-30.639686875
 10
-8.3907635835
 20
-30.7089964137
 10
-8.2904215228
 20
-30.769489935
 10
-8.1853614276
 20
-30.8206427461
 10
-8.0764885323
 20
-30.8620434775
 10
-7.9643998914
 20
-30.8934852291
 10
-7.8496715187
 20
-30.9147832886
  0
LWPOLYLINE
  5
27E
100
AcDbEntity
  8
ASSI
100
AcDbPolyline
 62
250
  6
CONTINUOUS
 90
16
 70
0
 10
-8.7448983173
 20
-27.4485403327
 10
-8.9772136407
 20
-26.8529664537
 10
-9.2004361683
 20
-26.2405788714
 10
-9.4154340606
 20
-25.6129771312
 10
-9.624312669
 20
-24.9658587108
 10
-9.8248496189
 20
-24.3070540764
 10
-10.0113000549
 20
-23.6576405713
 10
-10.1829459196
 20
-23.0235357582
 10
-10.3413979876
 20
-22.4014242809
 10
-10.485344967
 20
-21.7985903952
 10
-10.6139858342
 20
-21.2210903565
 10
-10.7288078883
 20
-20.6645174209
 10
-10.8315812135
 20
-20.1203275534
 10
-10.9222142325
 20
-19.5866453586
 10
-10.9993813922
 20
-19.0665693913
 10
-11.0617430689
 20
-18.5642045736
  0
LWPOLYLINE
  5
27F
100
AcDbEntity
  8
ASSI
100
AcDbPolyline
 62
250
  6
CONTINUOUS
 90
14
 70
0
 10
-8.9160257971
 20
-30.1066405717
 10
-9.1473842229
 20
-29.5089789307
 10
-9.3705727351
 20
-28.8858983695
 10
-9.5863225555
 20
-28.2384198081
 10
-9.7961092052
 20
-27.563586801
 10
-9.9985696503
 20
-26.8664198725
 10
-10.1901648763
 20
-26.1605080728
 10
-10.3718328802
 20
-25.4438158673
 10
-10.5427454215
 20
-24.7199618419
 10
-10.6980568876
 20
-24.0113313012
 10
-10.836912434
 20
-23.3258870696
 10
-10.9612484656
 20
-22.6572259346
 10
-11.0711399035
 20
-22.0061917512
 10
-11.1664483631
 20
-21.3738230279
  0
LWPOLYLINE
  5
280
100
AcDbEntity
  8
ASSI
100
AcDbPolyline
 62
250
  6
CONTINUOUS
 90
8
 70
0
 10
-9.8380649302
 20
-6.6061955189
 10
-9.8380333755
 20
-6.6065030977
 10
-9.8376496416
 20
-6.607261714
 10
-9.8368311694
 20
-6.6080340408
 10
-9.8355797645
 20
-6.6088190193
 10
-9.8338976647
 20
-6.6096160367
 10
-9.8317862072
 20
-6.610424969
 10
-9.8292470473
 20
-6.6112454566
  0
LWPOLYLINE
  5
281
100
AcDbEntity
  8
ASSI
100
AcDbPolyline
 62
7
  6
CONTINUOUS
 90
16
 70
0
 10
-11.5161002885
 20
-21.4457950162
 10
-11.463399499
 20
-21.9832659411
 10
-11.3990546837
 20
-22.5346592599
 10
-11.3215813687
 20
-23.1053672653
 10
-11.2294708963
 20
-23.6966761778
 10
-11.1215991128
 20
-24.3073766623
 10
-10.9977728081
 20
-24.9317529739
 10
-10.8542728665
 20
-25.581168043
 10
-10.6907600495
 20
-26.2492754139
 10
-10.5141145856
 20
-26.9058480935
 10
-10.3242847993
 20
-27.5528531558
 10
-10.1197320578
 20
-28.1961210392
 10
-9.9091697289
 20
-28.8109451459
 10
-9.6970592319
 20
-29.3900856678
 10
-9.4812890429
 20
-29.9443203791
 10
-9.262995438
 20
-30.4743094309
  0
LINE
  5
282
100
AcDbEntity
  8
ASSI
100
AcDbLine
 62
7
  6
CONTINUOUS
 10
-11.5200187435
 20
-21.3597598698
 11
-11.5161028706
 21
-21.4457952456
  0
LWPOLYLINE
  5
283
100
AcDbEntity
  8
ASSI
100
AcDbPolyline
 62
7
  6
CONTINUOUS
 90
11
 70
0
 10
-10.2582757556
 20
17.7337481491
 10
-10.2615400739
 20
17.8424917444
 10
-10.2652422219
 20
17.9429854588
 10
-10.2693697066
 20
18.0342392967
 10
-10.2737662302
 20
18.1154270276
 10
-10.2784452005
 20
18.1857748779
 10
-10.2833932097
 20
18.2443720516
 10
-10.2884137364
 20
18.2904299671
 10
-10.2934412735
 20
18.3235226401
 10
-10.298541328
 20
18.3434519558
 10
-10.3037139001
 20
18.3500986627
  0
LINE
  5
284
100
AcDbEntity
  8
ASSI
100
AcDbLine
 62
250
  6
CONTINUOUS
 10
-10.0241142895
 20
-9.7604594608
 11
-10.0864519578
 21
-7.0384696835
  0
LINE
  5
285
100
AcDbEntity
  8
ASSI
100
AcDbLine
 62
7
  6
CONTINUOUS
 10
-10.244740301
 20
14.0999150257
 11
-10.2625663869
 21
14.8756594268
  0
LINE
  5
286
100
AcDbEntity
  8
ASSI
100
AcDbLine
 62
7
  6
CONTINUOUS
 10
-10.3054315204
 20
15.4575371226
 11
-10.2747711222
 21
14.0999150257
  0
LINE
  5
287
100
AcDbEntity
  8
ASSI
100
AcDbLine
 62
7
  6
CONTINUOUS
 10
-10.2888611194
 20
17.7546615973
 11
-10.2843669392
 21
17.5637170168
  0
LINE
  5
288
100
AcDbEntity
  8
ASSI
100
AcDbLine
 62
7
  6
CONTINUOUS
 10
-10.3137368477
 20
15.8454887045
 11
-10.3054315204
 21
15.4575371226
  0
LINE
  5
289
100
AcDbEntity
  8
ASSI
100
AcDbLine
 62
7
  6
CONTINUOUS
 10
-10.2625663869
 20
14.8756594268
 11
-10.2837118829
 21
15.8454887045
  0
LINE
  5
28A
100
AcDbEntity
  8
ASSI
100
AcDbLine
 62
7
  6
CONTINUOUS
 10
-10.3158783093
 20
14.0999040257
 11
-10.3344983593
 21
15.0128276696
  0
LINE
  5
28B
100
AcDbEntity
  8
ASSI
100
AcDbLine
 62
7
  6
CONTINUOUS
 10
-10.3344983593
 20
15.0128276696
 11
-10.3485882331
 21
15.7432620257
  0
LINE
  5
28C
100
AcDbEntity
  8
ASSI
100
AcDbLine
 62
7
  6
CONTINUOUS
 10
-10.2843669392
 20
17.5637170168
 11
-10.2813081103
 21
17.3584834838
  0
LINE
  5
28D
100
AcDbEntity
  8
ASSI
100
AcDbLine
 62
7
  6
CONTINUOUS
 10
-10.4799982913
 20
4.3485749581
 11
-10.4733207563
 21
3.8587229322
  0
LINE
  5
28E
100
AcDbEntity
  8
ASSI
100
AcDbLine
 62
7
  6
CONTINUOUS
 10
-10.4415385864
 20
3.7137936579
 11
-10.4499982912
 21
4.3485749581
  0
LINE
  5
28F
100
AcDbEntity
  8
ASSI
100
AcDbLine
 62
7
  6
CONTINUOUS
 10
-10.4768691455
 20
-1.380325925
 11
-10.4719983349
 21
-1.7844684619
  0
LINE
  5
290
100
AcDbEntity
  8
ASSI
100
AcDbLine
 62
7
  6
CONTINUOUS
 10
-10.4404293367
 20
-1.9352169743
 11
-10.4468686765
 21
-1.380325925
  0
LINE
  5
291
100
AcDbEntity
  8
ASSI
100
AcDbLine
 62
7
  6
CONTINUOUS
 10
-10.4719983349
 20
-1.7844684619
 11
-10.4704307741
 21
-1.9352169743
  0
LINE
  5
292
100
AcDbEntity
  8
ASSI
100
AcDbLine
 62
7
  6
CONTINUOUS
 10
-10.4733207563
 20
3.8587229322
 11
-10.4679128928
 21
3.3758792617
  0
LINE
  5
293
100
AcDbEntity
  8
ASSI
100
AcDbLine
 62
7
  6
CONTINUOUS
 10
-10.4359977467
 20
3.1780300636
 11
-10.4415385864
 21
3.7137936579
  0
LWPOLYLINE
  5
294
100
AcDbEntity
  8
ASSI
100
AcDbPolyline
 62
7
  6
CONTINUOUS
 90
5
 70
0
 10
-10.2502299574
 20
17.2395256885
 10
-10.2514138749
 20
17.3695213481
 10
-10.253141948
 20
17.4961083218
 10
-10.255436774
 20
17.6179050386
 10
-10.2582757556
 20
17.7337481491
  0
LINE
  5
295
100
AcDbEntity
  8
ASSI
100
AcDbLine
 62
7
  6
CONTINUOUS
 10
-10.4679128928
 20
3.3758792617
 11
-10.4643285491
 21
2.9807220316
  0
LINE
  5
296
100
AcDbEntity
  8
ASSI
100
AcDbLine
 62
7
  6
CONTINUOUS
 10
-10.3999800274
 20
16.0249017412
 11
-10.4094064576
 21
17.4054439071
  0
LINE
  5
297
100
AcDbEntity
  8
ASSI
100
AcDbLine
 62
7
  6
CONTINUOUS
 10
-10.4643285491
 20
2.9807220316
 11
-10.4612945659
 21
2.5447824713
  0
LINE
  5
298
100
AcDbEntity
  8
ASSI
100
AcDbLine
 62
7
  6
CONTINUOUS
 10
-10.4312443644
 20
2.5365670293
 11
-10.4359977467
 21
3.1780300636
  0
LINE
  5
299
100
AcDbEntity
  8
ASSI
100
AcDbLine
 62
7
  6
CONTINUOUS
 10
-10.4452924955
 20
18.3500960257
 11
-10.4152136975
 21
14.0998940257
  0
LINE
  5
29A
100
AcDbEntity
  8
ASSI
100
AcDbLine
 62
7
  6
CONTINUOUS
 10
-10.4094064576
 20
17.4054439071
 11
-10.4152872853
 21
18.3500960257
  0
LINE
  5
29B
100
AcDbEntity
  8
ASSI
100
AcDbLine
 62
7
  6
CONTINUOUS
 10
-10.2813081103
 20
17.3584834838
 11
-10.279772333
 21
17.144624498
  0
LINE
  5
29C
100
AcDbEntity
  8
ASSI
100
AcDbLine
 62
250
  6
CONTINUOUS
 10
-10.0864519578
 20
-7.0384696835
 11
-10.1015566489
 21
-3.9948339863
  0
LINE
  5
29D
100
AcDbEntity
  8
ASSI
100
AcDbLine
 62
7
  6
CONTINUOUS
 10
-10.4612945659
 20
2.5447824713
 11
-10.459122534
 21
2.073808769
  0
LINE
  5
29E
100
AcDbEntity
  8
ASSI
100
AcDbLine
 62
7
  6
CONTINUOUS
 10
-10.4290956196
 20
2.0676090466
 11
-10.4312443644
 21
2.5365670293
  0
LINE
  5
29F
100
AcDbEntity
  8
ASSI
100
AcDbLine
 62
7
  6
CONTINUOUS
 10
-10.459122534
 20
2.073808769
 11
-10.4579825946
 21
1.5806659967
  0
LINE
  5
2A0
100
AcDbEntity
  8
ASSI
100
AcDbLine
 62
7
  6
CONTINUOUS
 10
-10.4279760963
 20
1.5775381052
 11
-10.4290956196
 21
2.0676090466
  0
LINE
  5
2A1
100
AcDbEntity
  8
ASSI
100
AcDbLine
 62
7
  6
CONTINUOUS
 10
-10.4777741176
 20
18.3500850257
 11
-10.4777757836
 21
17.0263800572
  0
LINE
  5
2A2
100
AcDbEntity
  8
ASSI
100
AcDbLine
 62
7
  6
CONTINUOUS
 10
-10.4777773986
 20
15.7432620491
 11
-10.477778415
 21
14.9357310725
  0
LINE
  5
2A3
100
AcDbEntity
  8
ASSI
100
AcDbLine
 62
7
  6
CONTINUOUS
 10
-10.4499977353
 20
26.3597181001
 11
-10.4500070585
 21
18.3500850257
  0
LINE
  5
2A4
100
AcDbEntity
  8
ASSI
100
AcDbLine
 62
7
  6
CONTINUOUS
 10
-10.4500123093
 20
14.0998940257
 11
-10.4499982912
 21
4.3485749581
  0
LWPOLYLINE
  5
2A5
100
AcDbEntity
  8
ASSI
100
AcDbPolyline
 62
7
  6
CONTINUOUS
 90
7
 70
0
 10
-10.4500042946
 20
-2.2845531325
 10
-10.450012848
 20
-3.5116905043
 10
-10.4489665869
 20
-5.4046122307
 10
-10.4314375867
 20
-7.2772455021
 10
-10.3929002843
 20
-9.1260645273
 10
-10.3340228403
 20
-10.9540506026
 10
-10.2723245447
 20
-12.3729629602
  0
LINE
  5
2A6
100
AcDbEntity
  8
ASSI
100
AcDbLine
 62
7
  6
CONTINUOUS
 10
-10.3999824513
 20
14.0999040257
 11
-10.3999770997
 21
18.3500960257
  0
LINE
  5
2A7
100
AcDbEntity
  8
ASSI
100
AcDbLine
 62
7
  6
CONTINUOUS
 10
-10.3744984515
 20
17.5638140257
 11
-10.3744995943
 21
16.5295550257
  0
LINE
  5
2A8
100
AcDbEntity
  8
ASSI
100
AcDbLine
 62
7
  6
CONTINUOUS
 10
-10.3741163526
 20
15.7432730257
 11
-10.374121132
 21
14.0999040257
  0
LINE
  5
2A9
100
AcDbEntity
  8
ASSI
100
AcDbLine
 62
7
  6
CONTINUOUS
 10
-10.3444837567
 20
16.5295550257
 11
-10.3444826143
 21
17.5638140257
  0
LINE
  5
2AA
100
AcDbEntity
  8
ASSI
100
AcDbLine
 62
7
  6
CONTINUOUS
 10
-10.3441052364
 20
14.0999040257
 11
-10.3441011447
 21
15.5068126731
  0
LINE
  5
2AB
100
AcDbEntity
  8
ASSI
100
AcDbLine
 62
250
  6
CONTINUOUS
 10
-10.1015566489
 20
-3.9948339863
 11
-10.1015488443
 21
26.3627232938
  0
LINE
  5
2AC
100
AcDbEntity
  8
ASSI
100
AcDbLine
 62
7
  6
CONTINUOUS
 10
-10.4579825946
 20
1.5806659967
 11
-10.4580926269
 21
1.0878411418
  0
LINE
  5
2AD
100
AcDbEntity
  8
ASSI
100
AcDbLine
 62
7
  6
CONTINUOUS
 10
-10.4280939054
 20
1.0852830482
 11
-10.4279760963
 21
1.5775381052
  0
LINE
  5
2AE
100
AcDbEntity
  8
ASSI
100
AcDbLine
 62
250
  6
CONTINUOUS
 10
-9.8040713561
 20
-3.5389999747
 11
-9.8042516808
 21
-3.9294817817
  0
LINE
  5
2AF
100
AcDbEntity
  8
ASSI
100
AcDbLine
 62
7
  6
CONTINUOUS
 10
-10.279772333
 20
17.144624498
 11
-10.2798573039
 21
16.9280495603
  0
LINE
  5
2B0
100
AcDbEntity
  8
ASSI
100
AcDbLine
 62
250
  6
CONTINUOUS
 10
-9.8060492003
 20
-5.0444858563
 11
-9.8060254201
 21
-5.5933906053
  0
LINE
  5
2B1
100
AcDbEntity
  8
ASSI
100
AcDbLine
 62
250
  6
CONTINUOUS
 10
-9.8042516808
 20
-3.9294817817
 11
-9.8061684465
 21
-4.8918037649
  0
LINE
  5
2B2
100
AcDbEntity
  8
ASSI
100
AcDbLine
 62
7
  6
CONTINUOUS
 10
-10.4720795606
 20
14.9358190575
 11
-10.4687938745
 21
15.9888113021
  0
LINE
  5
2B3
100
AcDbEntity
  8
ASSI
100
AcDbLine
 62
7
  6
CONTINUOUS
 10
-10.4580926269
 20
1.0878411418
 11
-10.459388546
 21
0.5990532057
  0
LINE
  5
2B4
100
AcDbEntity
  8
ASSI
100
AcDbLine
 62
7
  6
CONTINUOUS
 10
-10.4293942294
 20
0.5967973602
 11
-10.4280939054
 21
1.0852830482
  0
LINE
  5
2B5
100
AcDbEntity
  8
ASSI
100
AcDbLine
 62
250
  6
CONTINUOUS
 10
-9.8055446863
 20
-4.8918133861
 11
-9.8060492003
 21
-5.0444858563
  0
LINE
  5
2B6
100
AcDbEntity
  8
ASSI
100
AcDbLine
 62
7
  6
CONTINUOUS
 10
-10.4649778037
 20
17.0264290115
 11
-10.4634574072
 21
17.4055638814
  0
LINE
  5
2B7
100
AcDbEntity
  8
ASSI
100
AcDbLine
 62
7
  6
CONTINUOUS
 10
-10.4627183268
 20
14.9357310257
 11
-10.4660680025
 21
14.0999040257
  0
LINE
  5
2B8
100
AcDbEntity
  8
ASSI
100
AcDbLine
 62
7
  6
CONTINUOUS
 10
-10.4564101732
 20
16.3135332237
 11
-10.4591396999
 21
15.7432620257
  0
LWPOLYLINE
  5
2B9
100
AcDbEntity
  8
ASSI
100
AcDbPolyline
 62
7
  6
CONTINUOUS
 90
4
 70
0
 10
-10.2503005003
 20
16.8442197332
 10
-10.2496732701
 20
16.9755115164
 10
-10.2496412233
 20
17.1076780028
 10
-10.2502299574
 20
17.2395256885
  0
LINE
  5
2BA
100
AcDbEntity
  8
ASSI
100
AcDbLine
 62
7
  6
CONTINUOUS
 10
-10.459388546
 20
0.5990532057
 11
-10.4617625333
 21
0.1283742045
  0
LINE
  5
2BB
100
AcDbEntity
  8
ASSI
100
AcDbLine
 62
7
  6
CONTINUOUS
 10
-10.4317707939
 20
0.1266132638
 11
-10.4293942294
 21
0.5967973602
  0
LINE
  5
2BC
100
AcDbEntity
  8
ASSI
100
AcDbLine
 62
7
  6
CONTINUOUS
 10
-10.4704307741
 20
-1.9352169743
 11
-10.4726942763
 21
-2.2845529743
  0
LINE
  5
2BD
100
AcDbEntity
  8
ASSI
100
AcDbLine
 62
7
  6
CONTINUOUS
 10
-10.4426931767
 20
-2.2845529743
 11
-10.4404293367
 21
-1.9352169743
  0
LINE
  5
2BE
100
AcDbEntity
  8
ASSI
100
AcDbLine
 62
7
  6
CONTINUOUS
 10
-10.4617625333
 20
0.1283742045
 11
-10.4649263988
 21
-0.3016430074
  0
LINE
  5
2BF
100
AcDbEntity
  8
ASSI
100
AcDbLine
 62
7
  6
CONTINUOUS
 10
-10.4366762047
 20
-0.5009078806
 11
-10.4317707939
 21
0.1266132638
  0
LINE
  5
2C0
100
AcDbEntity
  8
ASSI
100
AcDbLine
 62
7
  6
CONTINUOUS
 10
-10.2514971488
 20
16.7148684055
 11
-10.2503005003
 21
16.8442197332
  0
LINE
  5
2C1
100
AcDbEntity
  8
ASSI
100
AcDbLine
 62
7
  6
CONTINUOUS
 10
-10.4649263988
 20
-0.3016430074
 11
-10.4684916671
 21
-0.6866739047
  0
LINE
  5
2C2
100
AcDbEntity
  8
ASSI
100
AcDbLine
 62
7
  6
CONTINUOUS
 10
-10.2798573039
 20
16.9280495603
 11
-10.2815296501
 21
16.7147605394
  0
LINE
  5
2C3
100
AcDbEntity
  8
ASSI
100
AcDbLine
 62
7
  6
CONTINUOUS
 10
-10.4684916671
 20
-0.6866739047
 11
-10.4753949598
 21
-1.2772276528
  0
LINE
  5
2C4
100
AcDbEntity
  8
ASSI
100
AcDbLine
 62
7
  6
CONTINUOUS
 10
-10.4453960282
 20
-1.2773405962
 11
-10.4366762047
 21
-0.5009078806
  0
LINE
  5
2C5
100
AcDbEntity
  8
ASSI
100
AcDbLine
 62
7
  6
CONTINUOUS
 10
-10.4753949598
 20
-1.2772276528
 11
-10.4768691455
 21
-1.380325925
  0
LINE
  5
2C6
100
AcDbEntity
  8
ASSI
100
AcDbLine
 62
7
  6
CONTINUOUS
 10
-10.4468686765
 20
-1.380325925
 11
-10.4453960282
 21
-1.2773405962
  0
LINE
  5
2C7
100
AcDbEntity
  8
ASSI
100
AcDbLine
 62
250
  6
CONTINUOUS
 10
-9.807751051
 20
-5.5778347503
 11
-9.8110205259
 21
-5.8304820097
  0
LWPOLYLINE
  5
2C8
100
AcDbEntity
  8
ASSI
100
AcDbPolyline
 62
7
  6
CONTINUOUS
 90
4
 70
0
 10
-10.2815296501
 20
16.7147605394
 10
-10.2847408708
 20
16.5106532997
 10
-10.2868822139
 20
16.4138201896
 10
-10.289374361
 20
16.3213665121
  0
LINE
  5
2C9
100
AcDbEntity
  8
ASSI
100
AcDbLine
 62
250
  6
CONTINUOUS
 10
-9.8110205259
 20
-5.8304820097
 11
-9.8152281505
 21
-6.064489598
  0
LINE
  5
2CA
100
AcDbEntity
  8
ASSI
100
AcDbLine
 62
250
  6
CONTINUOUS
 10
-9.835465138
 20
-6.3876398114
 11
-9.8417489836
 21
-6.6993906773
  0
LINE
  5
2CB
100
AcDbEntity
  8
ASSI
100
AcDbLine
 62
250
  6
CONTINUOUS
 10
-9.8326365025
 20
-6.2619835568
 11
-9.835465138
 21
-6.3876398114
  0
LWPOLYLINE
  5
2CC
100
AcDbEntity
  8
ASSI
100
AcDbPolyline
 62
7
  6
CONTINUOUS
 90
8
 70
0
 10
-10.289374361
 20
16.3213665121
 10
-10.2921473246
 20
16.2339293667
 10
-10.2952076063
 20
16.1521127845
 10
-10.2985487045
 20
16.0764803376
 10
-10.302081127
 20
16.0075511053
 10
-10.3057750429
 20
15.9458002362
 10
-10.3096602832
 20
15.8916548734
 10
-10.3137368477
 20
15.8454887045
  0
LWPOLYLINE
  5
2CD
100
AcDbEntity
  8
ASSI
100
AcDbPolyline
 62
250
  6
CONTINUOUS
 90
16
 70
0
 10
-9.1861370032
 20
26.3706187733
 10
-9.1834797191
 20
26.423225077
 10
-9.1755530792
 20
26.4748172745
 10
-9.1624755794
 20
26.5250483858
 10
-9.1443470875
 20
26.5736124452
 10
-9.1213558675
 20
26.6200596102
 10
-9.0938700239
 20
26.6637635978
 10
-9.0623181165
 20
26.7041091785
 10
-9.0269548809
 20
26.7407423801
 10
-8.98796144
 20
26.7734828976
 10
-8.9456695134
 20
26.8020747859
 10
-8.9006858513
 20
26.8260639492
 10
-8.8536605638
 20
26.8450591838
 10
-8.8050454498
 20
26.8588759636
 10
-8.7551220976
 20
26.867426555
 10
-8.7042240014
 20
26.8705997294
  0
LWPOLYLINE
  5
2CE
100
AcDbEntity
  8
ASSI
100
AcDbPolyline
 62
7
  6
CONTINUOUS
 90
8
 70
0
 10
-10.2740455991
 20
15.9721014933
 10
-10.2696830582
 20
16.0524226761
 10
-10.2655823652
 20
16.1430646605
 10
-10.2617954062
 20
16.2430988018
 10
-10.2584778392
 20
16.3514551151
 10
-10.2556482082
 20
16.4670472138
 10
-10.2532879694
 20
16.5886561413
 10
-10.2514971488
 20
16.7148684055
  0
LWPOLYLINE
  5
2CF
100
AcDbEntity
  8
ASSI
100
AcDbPolyline
 62
7
  6
CONTINUOUS
 90
3
 70
0
 10
-10.2837118829
 20
15.8454887045
 10
-10.278721874
 20
15.9028933557
 10
-10.2740455991
 20
15.9721014933
  0
LINE
  5
2D0
100
AcDbEntity
  8
ASSI
100
AcDbLine
 62
7
  6
CONTINUOUS
 10
10.285003531
 20
-11.7240926292
 11
10.335053253
 21
-11.7240926292
  0
LINE
  5
2D1
100
AcDbEntity
  8
ASSI
100
AcDbLine
 62
7
  6
CONTINUOUS
 10
10.2036589527
 20
-11.7240926292
 11
10.2298675995
 21
-11.7240926292
  0
LINE
  5
2D2
100
AcDbEntity
  8
ASSI
100
AcDbLine
 62
7
  6
CONTINUOUS
 10
10.3337647659
 20
-11.6718991925
 11
10.2837148914
 21
-11.6718991925
  0
LWPOLYLINE
  5
2D3
100
AcDbEntity
  8
ASSI
100
AcDbPolyline
 62
250
  6
CONTINUOUS
 90
16
 70
0
 10
-9.1794890821
 20
-9.7194478112
 10
-9.1478575076
 20
-9.7299301795
 10
-9.1084999394
 20
-9.7403367801
 10
-9.0623522381
 20
-9.750336472
 10
-9.0096315483
 20
-9.7598542046
 10
-8.950506652
 20
-9.768871026
 10
-8.8856040214
 20
-9.7772830393
 10
-8.8154522957
 20
-9.7850180365
 10
-8.7402706521
 20
-9.7920420227
 10
-8.6603862729
 20
-9.7983237754
 10
-8.5761117761
 20
-9.8038469605
 10
-8.488074264
 20
-9.8085735024
 10
-8.3971672711
 20
-9.8124623644
 10
-8.304047405
 20
-9.8154954999
 10
-8.2090825305
 20
-9.8176658531
 10
-8.1127612101
 20
-9.8189605551
  0
LWPOLYLINE
  5
2D4
100
AcDbEntity
  8
ASSI
100
AcDbPolyline
 62
250
  6
CONTINUOUS
 90
13
 70
0
 10
-9.1395077937
 20
-11.9862046322
 10
-9.0952969767
 20
-12.0033667262
 10
-9.0410994752
 20
-12.0196580943
 10
-8.9773974978
 20
-12.0349598043
 10
-8.9045858586
 20
-12.0491681011
 10
-8.8232462455
 20
-12.0621390261
 10
-8.7342490613
 20
-12.0737054244
 10
-8.6382866191
 20
-12.0837629083
 10
-8.5361533294
 20
-12.0922533698
 10
-8.4290054652
 20
-12.0991073085
 10
-8.3178403346
 20
-12.1042806812
 10
-8.2034460277
 20
-12.1077410948
 10
-8.0866852851
 20
-12.1094505064
  0
LWPOLYLINE
  5
2D5
100
AcDbEntity
  8
ASSI
100
AcDbPolyline
 62
7
  6
CONTINUOUS
 90
10
 70
0
 10
-9.8079022127
 20
-5.5933863354
 10
-9.808517389
 20
-5.592877076
 10
-9.8090993646
 20
-5.5931470383
 10
-9.8096502352
 20
-5.594196284
 10
-9.8102057072
 20
-5.5958369229
 10
-9.8107307087
 20
-5.5982570324
 10
-9.8111369094
 20
-5.602020523
 10
-9.811409139
 20
-5.6073153075
 10
-9.8115878718
 20
-5.6139534332
 10
-9.8116776663
 20
-5.6219349073
  0
LWPOLYLINE
  5
2D6
100
AcDbEntity
  8
ASSI
100
AcDbPolyline
 62
250
  6
CONTINUOUS
 90
3
 70
0
 10
9.0982968031
 20
-30.3020898979
 10
9.1413387203
 20
-30.3477090222
 10
9.1505220912
 20
-30.3575367589
  0
LINE
  5
2D7
100
AcDbEntity
  8
ASSI
100
AcDbLine
 62
250
  6
CONTINUOUS
 10
9.020715337
 20
-30.2197616875
 11
9.0852559116
 21
-30.2881191439
  0
LINE
  5
2D8
100
AcDbEntity
  8
ASSI
100
AcDbLine
 62
250
  6
CONTINUOUS
 10
9.0852559116
 20
-30.2881191439
 11
9.0982968031
 21
-30.3020898979
  0
LINE
  5
2D9
100
AcDbEntity
  8
ASSI
100
AcDbLine
 62
250
  6
CONTINUOUS
 10
8.9793524437
 20
-30.1754286293
 11
9.020715337
 21
-30.2197616875
  0
LINE
  5
2DA
100
AcDbEntity
  8
ASSI
100
AcDbLine
 62
250
  6
CONTINUOUS
 10
8.9160257971
 20
-30.1066405717
 11
8.9793524437
 21
-30.1754286293
  0
LWPOLYLINE
  5
2DB
100
AcDbEntity
  8
ASSI
100
AcDbPolyline
 62
250
  6
CONTINUOUS
 90
10
 70
0
 10
9.1505220912
 20
-30.3575367589
 10
9.1771982666
 20
-30.3884484598
 10
9.1991474149
 20
-30.413007596
 10
9.217028626
 20
-30.4317940734
 10
9.2313825664
 20
-30.4441627418
 10
9.2430532118
 20
-30.4519298065
 10
9.2523564987
 20
-30.4587163192
 10
9.2589269136
 20
-30.465368694
 10
9.2625458207
 20
-30.4706167471
 10
9.262995438
 20
-30.4743094309
  0
LWPOLYLINE
  5
2DC
100
AcDbEntity
  8
ASSI
100
AcDbPolyline
 62
250
  6
CONTINUOUS
 90
10
 70
0
 10
-9.8061684465
 20
-4.8918037649
 10
-9.7534210107
 20
-4.9587308189
 10
-9.6985846962
 20
-5.0214723051
 10
-9.640838101
 20
-5.0813396825
 10
-9.5787713495
 20
-5.1398808897
 10
-9.5119464679
 20
-5.197429299
 10
-9.4412440985
 20
-5.253284949
 10
-9.3665914724
 20
-5.3076827152
 10
-9.286708604
 20
-5.3616432591
 10
-9.1995377996
 20
-5.4164041006
  0
LWPOLYLINE
  5
2DD
100
AcDbEntity
  8
ASSI
100
AcDbPolyline
 62
250
  6
CONTINUOUS
 90
6
 70
0
 10
-9.1958887936
 20
-7.8152763194
 10
-9.2905029758
 20
-7.6922929892
 10
-9.3766389495
 20
-7.5699566479
 10
-9.4556984744
 20
-7.4468241006
 10
-9.5293928579
 20
-7.3204357935
 10
-9.5980686184
 20
-7.1901861748
  0
LWPOLYLINE
  5
2DE
100
AcDbEntity
  8
ASSI
100
AcDbPolyline
 62
250
  6
CONTINUOUS
 90
9
 70
0
 10
8.8954255376
 20
-30.0813634108
 10
8.8980079974
 20
-30.0847416264
 10
8.900625796
 20
-30.0880481208
 10
8.9032879222
 20
-30.0913108182
 10
8.9059851197
 20
-30.0944675911
 10
8.9086900427
 20
-30.0973782985
 10
8.9113938813
 20
-30.0999933586
 10
8.9141039387
 20
-30.1023859218
 10
8.9168133068
 20
-30.10468745
  0
LWPOLYLINE
  5
2DF
100
AcDbEntity
  8
ASSI
100
AcDbPolyline
 62
250
  6
CONTINUOUS
 90
13
 70
0
 10
8.8954255376
 20
-30.0813634108
 10
8.8690350046
 20
-30.0456809735
 10
8.8466259821
 20
-29.997087172
 10
8.8257704778
 20
-29.932696357
 10
8.8065848789
 20
-29.8531943677
 10
8.7891758446
 20
-29.7591249927
 10
8.7736385162
 20
-29.6507191325
 10
8.7600028222
 20
-29.5285263929
 10
8.7484026826
 20
-29.393124331
 10
8.7390670881
 20
-29.2447564787
 10
8.732099258
 20
-29.0839696596
 10
8.7274812132
 20
-28.9115493556
 10
8.7252222639
 20
-28.7281505158
  0
LWPOLYLINE
  5
2E0
100
AcDbEntity
  8
ASSI
100
AcDbPolyline
 62
250
  6
CONTINUOUS
 90
3
 70
0
 10
-9.5980686184
 20
-7.1901861748
 10
-9.6612832593
 20
-7.0572857644
 10
-9.719860745
 20
-6.9207792908
  0
LWPOLYLINE
  5
2E1
100
AcDbEntity
  8
ASSI
100
AcDbPolyline
 62
250
  6
CONTINUOUS
 90
3
 70
0
 10
-9.719860745
 20
-6.9207792908
 10
-9.7755405208
 20
-6.7771581476
 10
-9.8296268064
 20
-6.6232529852
  0
LWPOLYLINE
  5
2E2
100
AcDbEntity
  8
ASSI
100
AcDbPolyline
 62
250
  6
CONTINUOUS
 90
5
 70
0
 10
-9.8165951192
 20
-5.8048550787
 10
-9.8172523362
 20
-5.8000400973
 10
-9.8175390022
 20
-5.7976738461
 10
-9.8177740173
 20
-5.7953381916
 10
-9.8181908661
 20
-5.7907429223
  0
LWPOLYLINE
  5
2E3
100
AcDbEntity
  8
ASSI
100
AcDbPolyline
 62
250
  6
CONTINUOUS
 90
3
 70
0
 10
-11.1664483631
 20
-21.3738230279
 10
-11.2468689553
 20
-20.7603543806
 10
-11.3115854893
 20
-20.1688984643
  0
LWPOLYLINE
  5
2E4
100
AcDbEntity
  8
ASSI
100
AcDbPolyline
 62
250
  6
CONTINUOUS
 90
4
 70
0
 10
-9.8181908661
 20
-5.7907429223
 10
-9.8184410353
 20
-5.7884726521
 10
-9.8188013286
 20
-5.786221703
 10
-9.8193441252
 20
-5.7839894738
  0
LINE
  5
2E5
100
AcDbEntity
  8
ASSI
100
AcDbLine
 62
250
  6
CONTINUOUS
 10
-9.003893584
 20
-16.9227670572
 11
-8.9828277208
 21
-17.5575122775
  0
LINE
  5
2E6
100
AcDbEntity
  8
ASSI
100
AcDbLine
 62
250
  6
CONTINUOUS
 10
-8.9657937293
 20
-18.1482301651
 11
-8.9459088917
 21
-18.7593113976
  0
LWPOLYLINE
  5
2E7
100
AcDbEntity
  8
ASSI
100
AcDbPolyline
 62
250
  6
CONTINUOUS
 90
4
 70
0
 10
-8.9459088917
 20
-18.7593113976
 10
-8.8931451875
 20
-20.4583122305
 10
-8.8784331514
 20
-20.9500510501
 10
-8.8647296952
 20
-21.4239699223
  0
LINE
  5
2E8
100
AcDbEntity
  8
ASSI
100
AcDbLine
 62
250
  6
CONTINUOUS
 10
-9.0292877539
 20
-16.0880268453
 11
-9.003893584
 21
-16.9227670572
  0
LINE
  5
2E9
100
AcDbEntity
  8
ASSI
100
AcDbLine
 62
250
  6
CONTINUOUS
 10
-8.9828277208
 20
-17.5575122775
 11
-8.9657937293
 21
-18.1482301651
  0
LINE
  5
2EA
100
AcDbEntity
  8
ASSI
100
AcDbLine
 62
250
  6
CONTINUOUS
 10
-9.082246006
 20
-14.287688043
 11
-9.0292877539
 21
-16.0880268453
  0
LINE
  5
2EB
100
AcDbEntity
  8
ASSI
100
AcDbLine
 62
250
  6
CONTINUOUS
 10
-7.9364532145
 20
-18.6751373292
 11
-7.8837059093
 21
-20.5550363018
  0
LINE
  5
2EC
100
AcDbEntity
  8
ASSI
100
AcDbLine
 62
250
  6
CONTINUOUS
 10
-8.8647296952
 20
-21.4239699223
 11
-8.8408765735
 21
-22.2920937102
  0
LWPOLYLINE
  5
2ED
100
AcDbEntity
  8
ASSI
100
AcDbPolyline
 62
250
  6
CONTINUOUS
 90
9
 70
0
 10
-7.8837059093
 20
-20.5550363018
 10
-7.8588504308
 20
-21.48922441
 10
-7.8357671895
 20
-22.4151430436
 10
-7.8146246722
 20
-23.330882643
 10
-7.7952549358
 20
-24.2377826035
 10
-7.7771535362
 20
-25.1403108609
 10
-7.7601523955
 20
-26.0396410807
 10
-7.7444198753
 20
-26.9337732486
 10
-7.7299561079
 20
-27.8223011144
  0
LINE
  5
2EE
100
AcDbEntity
  8
ASSI
100
AcDbLine
 62
250
  6
CONTINUOUS
 10
-7.9742424342
 20
-17.2589814828
 11
-7.9364532145
 21
-18.6751373292
  0
LINE
  5
2EF
100
AcDbEntity
  8
ASSI
100
AcDbLine
 62
250
  6
CONTINUOUS
 10
-8.8408765735
 20
-22.2920937102
 11
-8.8227236214
 21
-22.9965251817
  0
LINE
  5
2F0
100
AcDbEntity
  8
ASSI
100
AcDbLine
 62
250
  6
CONTINUOUS
 10
-8.0103774358
 20
-15.8322829142
 11
-7.9742424342
 21
-17.2589814828
  0
LINE
  5
2F1
100
AcDbEntity
  8
ASSI
100
AcDbLine
 62
250
  6
CONTINUOUS
 10
-9.1257794658
 20
-12.5871177181
 11
-9.082246006
 21
-14.287688043
  0
LINE
  5
2F2
100
AcDbEntity
  8
ASSI
100
AcDbLine
 62
250
  6
CONTINUOUS
 10
-8.8227236214
 20
-22.9965251817
 11
-8.8076152797
 21
-23.6249018188
  0
LINE
  5
2F3
100
AcDbEntity
  8
ASSI
100
AcDbLine
 62
250
  6
CONTINUOUS
 10
-8.0392052597
 20
-14.6369355598
 11
-8.0103774358
 21
-15.8322829142
  0
LINE
  5
2F4
100
AcDbEntity
  8
ASSI
100
AcDbLine
 62
250
  6
CONTINUOUS
 10
-9.1395077937
 20
-11.9862046322
 11
-9.1257794658
 21
-12.5871177181
  0
LINE
  5
2F5
100
AcDbEntity
  8
ASSI
100
AcDbLine
 62
250
  6
CONTINUOUS
 10
-8.8076152797
 20
-23.6249018188
 11
-8.7942855281
 21
-24.2230635097
  0
LINE
  5
2F6
100
AcDbEntity
  8
ASSI
100
AcDbLine
 62
250
  6
CONTINUOUS
 10
-8.0547606222
 20
-13.9171988689
 11
-8.0392052597
 21
-14.6369355598
  0
LINE
  5
2F7
100
AcDbEntity
  8
ASSI
100
AcDbLine
 62
250
  6
CONTINUOUS
 10
-8.7942855281
 20
-24.2230635097
 11
-8.780837044
 21
-24.8798131798
  0
LINE
  5
2F8
100
AcDbEntity
  8
ASSI
100
AcDbLine
 62
250
  6
CONTINUOUS
 10
-9.1712627294
 20
-10.3821742083
 11
-9.1658606055
 21
-10.6244656292
  0
LINE
  5
2F9
100
AcDbEntity
  8
ASSI
100
AcDbLine
 62
250
  6
CONTINUOUS
 10
-7.7207629436
 20
-28.3302319797
 11
-7.7163912454
 21
-28.5417090507
  0
LINE
  5
2FA
100
AcDbEntity
  8
ASSI
100
AcDbLine
 62
250
  6
CONTINUOUS
 10
-8.0687231615
 20
-13.1954774776
 11
-8.0547606222
 21
-13.9171988689
  0
LINE
  5
2FB
100
AcDbEntity
  8
ASSI
100
AcDbLine
 62
250
  6
CONTINUOUS
 10
-7.7299561079
 20
-27.8223011144
 11
-7.7207586007
 21
-28.3304385773
  0
LINE
  5
2FC
100
AcDbEntity
  8
ASSI
100
AcDbLine
 62
250
  6
CONTINUOUS
 10
-9.1658606055
 20
-10.6244656292
 11
-9.1626523417
 21
-10.8029237291
  0
LINE
  5
2FD
100
AcDbEntity
  8
ASSI
100
AcDbLine
 62
250
  6
CONTINUOUS
 10
-9.1626523417
 20
-10.8029237291
 11
-9.1395077937
 21
-11.9862046322
  0
LINE
  5
2FE
100
AcDbEntity
  8
ASSI
100
AcDbLine
 62
250
  6
CONTINUOUS
 10
-9.1734017053
 20
-10.260634252
 11
-9.1712627294
 21
-10.3821742083
  0
LWPOLYLINE
  5
2FF
100
AcDbEntity
  8
ASSI
100
AcDbPolyline
 62
250
  6
CONTINUOUS
 90
7
 70
0
 10
-8.780837044
 20
-24.8798131798
 10
-8.7681253565
 20
-25.5790503581
 10
-8.7621889825
 20
-25.9444906157
 10
-8.7567098167
 20
-26.3150597483
 10
-8.7517626831
 20
-26.6890766254
 10
-8.7473640353
 20
-27.0680441778
 10
-8.7435709951
 20
-27.4518213075
  0
LINE
  5
300
100
AcDbEntity
  8
ASSI
100
AcDbLine
 62
250
  6
CONTINUOUS
 10
-9.1893143359
 20
-9.1461363245
 11
-9.178849723
 21
-9.7196946386
  0
LWPOLYLINE
  5
301
100
AcDbEntity
  8
ASSI
100
AcDbPolyline
 62
250
  6
CONTINUOUS
 90
3
 70
0
 10
-8.0866851709
 20
-12.1094505073
 10
-8.0810954662
 20
-12.4718963726
 10
-8.0687231615
 20
-13.1954774776
  0
LINE
  5
302
100
AcDbEntity
  8
ASSI
100
AcDbLine
 62
250
  6
CONTINUOUS
 10
-7.7163912454
 20
-28.5417090507
 11
-7.7133442266
 21
-28.7467335097
  0
LINE
  5
303
100
AcDbEntity
  8
ASSI
100
AcDbLine
 62
250
  6
CONTINUOUS
 10
-8.1127616888
 20
-9.8189603452
 11
-8.0866851709
 21
-12.1094505073
  0
LINE
  5
304
100
AcDbEntity
  8
ASSI
100
AcDbLine
 62
250
  6
CONTINUOUS
 10
-9.1927979648
 20
-8.8659411633
 11
-9.1893143359
 21
-9.1461363245
  0
LWPOLYLINE
  5
305
100
AcDbEntity
  8
ASSI
100
AcDbPolyline
 62
250
  6
CONTINUOUS
 90
3
 70
0
 10
-9.178849723
 20
-9.7196946386
 10
-9.1771618793
 20
-9.9271465517
 10
-9.1734017053
 20
-10.260634252
  0
LINE
  5
306
100
AcDbEntity
  8
ASSI
100
AcDbLine
 62
250
  6
CONTINUOUS
 10
-9.2022987774
 20
-7.3346791543
 11
-9.1983190241
 21
-7.812246786
  0
LINE
  5
307
100
AcDbEntity
  8
ASSI
100
AcDbLine
 62
250
  6
CONTINUOUS
 10
-7.7133442266
 20
-28.7467335097
 11
-7.7116221704
 21
-28.9448869522
  0
LINE
  5
308
100
AcDbEntity
  8
ASSI
100
AcDbLine
 62
250
  6
CONTINUOUS
 10
-8.1207358833
 20
-7.4068752891
 11
-8.1127616888
 21
-9.8189603452
  0
LINE
  5
309
100
AcDbEntity
  8
ASSI
100
AcDbLine
 62
250
  6
CONTINUOUS
 10
-9.1945719052
 20
-8.481397349
 11
-9.1927979648
 21
-8.8659411633
  0
LWPOLYLINE
  5
30A
100
AcDbEntity
  8
ASSI
100
AcDbPolyline
 62
250
  6
CONTINUOUS
 90
5
 70
0
 10
-8.745714138
 20
-27.7397119128
 10
-8.745612467
 20
-27.772610044
 10
-8.7448321545
 20
-27.8156768917
 10
-8.7432695515
 20
-27.8750347575
 10
-8.7411148834
 20
-27.9440782475
  0
LINE
  5
30B
100
AcDbEntity
  8
ASSI
100
AcDbLine
 62
250
  6
CONTINUOUS
 10
-9.1958887936
 20
-7.8152763194
 11
-9.1945719052
 21
-8.481397349
  0
LWPOLYLINE
  5
30C
100
AcDbEntity
  8
ASSI
100
AcDbPolyline
 62
250
  6
CONTINUOUS
 90
7
 70
0
 10
-8.7252222639
 20
-28.7281505158
 10
-8.7252771418
 20
-28.6189985242
 10
-8.7261967964
 20
-28.5062886004
 10
-8.7279763593
 20
-28.3901533046
 10
-8.7306100014
 20
-28.2707275417
 10
-8.7340914724
 20
-28.1481448493
 10
-8.7411148834
 20
-27.9440782475
  0
LWPOLYLINE
  5
30D
100
AcDbEntity
  8
ASSI
100
AcDbPolyline
 62
250
  6
CONTINUOUS
 90
3
 70
0
 10
-7.7116221704
 20
-28.9448869522
 10
-7.7112139221
 20
-29.1355723212
 10
-7.7115046607
 20
-29.2280288222
  0
LINE
  5
30E
100
AcDbEntity
  8
ASSI
100
AcDbLine
 62
250
  6
CONTINUOUS
 10
-9.1861373203
 20
26.3706187585
 11
-9.1861373224
 21
-3.5389999722
  0
LINE
  5
30F
100
AcDbEntity
  8
0
100
AcDbLine
 62
7
  6
CONTINUOUS
 10
-9.0
 20
26.8512456276
 11
-9.0
 21
26.8465198932
  0
LINE
  5
310
100
AcDbEntity
  8
0
100
AcDbLine
 62
7
  6
CONTINUOUS
 10
-8.9784396842
 20
26.9465603415
 11
-8.9784396842
 21
26.8465198932
  0
LINE
  5
311
100
AcDbEntity
  8
ASSI
100
AcDbLine
 62
250
  6
CONTINUOUS
 10
-8.0972593558
 20
-3.5389999747
 11
-8.0973512585
 21
26.4288955205
  0
LINE
  5
312
100
AcDbEntity
  8
0
100
AcDbLine
 62
7
  6
CONTINUOUS
 10
-7.6124897373
 20
26.9465603415
 11
-7.6124897373
 21
26.88012715
  0
LINE
  5
313
100
AcDbEntity
  8
ASSI
100
AcDbLine
 62
7
  6
CONTINUOUS
 10
-6.05
 20
-31.654499775
 11
-6.05
 21
-32.5265640584
  0
LINE
  5
314
100
AcDbEntity
  8
ASSI
100
AcDbLine
 62
7
  6
CONTINUOUS
 10
-5.3
 20
-33.4552728394
 11
-5.3
 21
-34.0250000257
  0
LINE
  5
315
100
AcDbEntity
  8
ASSI
100
AcDbLine
 62
250
  6
CONTINUOUS
 10
-9.2024336171
 20
-6.7022650234
 11
-9.2022987774
 21
-7.3346791543
  0
LWPOLYLINE
  5
316
100
AcDbEntity
  8
ASSI
100
AcDbPolyline
 62
250
  6
CONTINUOUS
 90
3
 70
0
 10
-9.1989581859
 20
-5.2426382341
 10
-9.1990443959
 20
-5.3297169417
 10
-9.1995377996
 20
-5.4164041006
  0
LINE
  5
317
100
AcDbEntity
  8
ASSI
100
AcDbLine
 62
250
  6
CONTINUOUS
 10
-9.1988780732
 20
-5.4168042057
 11
-9.2024336171
 21
-6.7022650234
  0
LINE
  5
318
100
AcDbEntity
  8
ASSI
100
AcDbLine
 62
250
  6
CONTINUOUS
 10
-8.744969286
 20
-27.4960725522
 11
-8.745714138
 21
-27.7397119128
  0
LINE
  5
319
100
AcDbEntity
  8
ASSI
100
AcDbLine
 62
250
  6
CONTINUOUS
 10
-8.1137404728
 20
-5.4806567451
 11
-8.1207358833
 21
-7.4068752891
  0
LINE
  5
31A
100
AcDbEntity
  8
ASSI
100
AcDbLine
 62
250
  6
CONTINUOUS
 10
-8.1099639688
 20
-4.9310686407
 11
-8.1137404728
 21
-5.4806567451
  0
LINE
  5
31B
100
AcDbEntity
  8
ASSI
100
AcDbLine
 62
250
  6
CONTINUOUS
 10
-9.195587506
 20
-4.7448722972
 11
-9.1989581859
 21
-5.2426382341
  0
LINE
  5
31C
100
AcDbEntity
  8
ASSI
100
AcDbLine
 62
250
  6
CONTINUOUS
 10
-9.1894462139
 20
-3.8421429932
 11
-9.195587506
 21
-4.7448722972
  0
LINE
  5
31D
100
AcDbEntity
  8
ASSI
100
AcDbLine
 62
250
  6
CONTINUOUS
 10
-8.0971949077
 20
-3.5389999747
 11
-8.1099639688
 21
-4.9310686407
  0
LWPOLYLINE
  5
31E
100
AcDbEntity
  8
ASSI
100
AcDbPolyline
 62
250
  6
CONTINUOUS
 90
13
 70
0
 10
-7.7115046607
 20
-29.2280288222
 10
-7.7141456208
 20
-29.462805024
 10
-7.7186496411
 20
-29.6829621748
 10
-7.7250022882
 20
-29.8878817989
 10
-7.7332868148
 20
-30.0764420456
 10
-7.7433683027
 20
-30.2477200902
 10
-7.7549023976
 20
-30.4012661917
 10
-7.7678742335
 20
-30.5363665495
 10
-7.7822580283
 20
-30.6522318894
 10
-7.7976923705
 20
-30.748400722
 10
-7.8140427278
 20
-30.824475966
 10
-7.8313852521
 20
-30.8800804668
 10
-7.8496736153
 20
-30.9147979809
  0
LINE
  5
31F
100
AcDbEntity
  8
ASSI
100
AcDbLine
 62
250
  6
CONTINUOUS
 10
-9.1858931756
 20
-3.5389999692
 11
-9.1894462139
 21
-3.8421429932
  0
LINE
  5
320
100
AcDbEntity
  8
ASSI
100
AcDbLine
 62
250
  6
CONTINUOUS
 10
-8.7439750117
 20
-27.4495850255
 11
-8.7442537886
 21
-27.4730454486
  0
LWPOLYLINE
  5
321
100
AcDbEntity
  8
ASSI
100
AcDbPolyline
 62
250
  6
CONTINUOUS
 90
3
 70
0
 10
-8.7442537886
 20
-27.4730454486
 10
-8.7445237907
 20
-27.4886294219
 10
-8.7446858281
 20
-27.4964048703
  0
LINE
  5
322
100
AcDbEntity
  8
ASSI
100
AcDbLine
 62
250
  6
CONTINUOUS
 10
-9.8152281505
 20
-6.064489598
 11
-9.8201497238
 21
-6.2846262472
  0
LINE
  5
323
100
AcDbEntity
  8
ASSI
100
AcDbLine
 62
250
  6
CONTINUOUS
 10
-9.8166576826
 20
-5.8074198529
 11
-9.8208456113
 21
-5.9741396593
  0
LWPOLYLINE
  5
324
100
AcDbEntity
  8
ASSI
100
AcDbPolyline
 62
7
  6
CONTINUOUS
 90
4
 70
0
 10
-9.8208456113
 20
-5.9741396593
 10
-9.8283001029
 20
-6.2768990219
 10
-9.8336512064
 20
-6.4675762088
 10
-9.8380649302
 20
-6.6061955189
  0
LINE
  5
325
100
AcDbEntity
  8
ASSI
100
AcDbLine
 62
250
  6
CONTINUOUS
 10
-9.8263752201
 20
-6.0180673558
 11
-9.8326365025
 21
-6.2619835568
  0
LWPOLYLINE
  5
326
100
AcDbEntity
  8
ASSI
100
AcDbPolyline
 62
250
  6
CONTINUOUS
 90
3
 70
0
 10
-9.8126398476
 20
-5.6636656099
 10
-9.8136765038
 20
-5.7046007145
 10
-9.8149242161
 20
-5.7434808597
  0
LINE
  5
327
100
AcDbEntity
  8
ASSI
100
AcDbLine
 62
250
  6
CONTINUOUS
 10
-9.8201497238
 20
-6.2846262472
 11
-9.8262055932
 21
-6.5099025078
  0
LINE
  5
328
100
AcDbEntity
  8
ASSI
100
AcDbLine
 62
250
  6
CONTINUOUS
 10
-9.8149242161
 20
-5.7434808597
 11
-9.8165951192
 21
-5.8048550787
  0
LINE
  5
329
100
AcDbEntity
  8
ASSI
100
AcDbLine
 62
250
  6
CONTINUOUS
 10
-9.8262055932
 20
-6.5099025078
 11
-9.8296203544
 21
-6.623272232
  0
LINE
  5
32A
100
AcDbEntity
  8
ASSI
100
AcDbLine
 62
250
  6
CONTINUOUS
 10
-9.8186324698
 20
-5.7620639088
 11
-9.8263752201
 21
-6.0180673558
  0
LINE
  5
32B
100
AcDbEntity
  8
ASSI
100
AcDbLine
 62
250
  6
CONTINUOUS
 10
-9.8296268064
 20
-6.6232529852
 11
-9.8555064302
 21
-7.311469062
  0
LINE
  5
32C
100
AcDbEntity
  8
ASSI
100
AcDbLine
 62
7
  6
CONTINUOUS
 10
-9.838102613
 20
-6.606182489
 11
-9.8630041685
 21
-7.2427137382
  0
LWPOLYLINE
  5
32D
100
AcDbEntity
  8
ASSI
100
AcDbPolyline
 62
250
  6
CONTINUOUS
 90
3
 70
0
 10
-9.8111740324
 20
-5.6220900245
 10
-9.8120265074
 20
-5.6424697449
 10
-9.8126398476
 20
-5.6636656099
  0
LWPOLYLINE
  5
32E
100
AcDbEntity
  8
ASSI
100
AcDbPolyline
 62
250
  6
CONTINUOUS
 90
6
 70
0
 10
-9.8555064302
 20
-7.311469062
 10
-9.8886807004
 20
-7.9896899801
 10
-9.9278811304
 20
-8.6563375832
 10
-9.9718271179
 20
-9.3067325513
 10
-10.0198563741
 20
-9.9427258529
 10
-10.0720382513
 20
-10.5718284322
  0
LWPOLYLINE
  5
32F
100
AcDbEntity
  8
ASSI
100
AcDbPolyline
 62
7
  6
CONTINUOUS
 90
4
 70
0
 10
-9.8630041685
 20
-7.2427137382
 10
-9.9148052148
 20
-8.2286623298
 10
-9.9794376065
 20
-9.1963696713
 10
-10.0538755764
 20
-10.1362267947
  0
LWPOLYLINE
  5
330
100
AcDbEntity
  8
ASSI
100
AcDbPolyline
 62
7
  6
CONTINUOUS
 90
10
 70
0
 10
-10.0538755764
 20
-10.1362267947
 10
-10.1362363079
 20
-11.0498514553
 10
-10.2261727425
 20
-11.9492359603
 10
-10.3228188475
 20
-12.8365591451
 10
-10.4239715826
 20
-13.7012329587
 10
-10.5275737144
 20
-14.5357955658
 10
-10.6320617725
 20
-15.3367894649
 10
-10.7359430256
 20
-16.1009412404
 10
-10.8373939996
 20
-16.8220015058
 10
-10.9351256567
 20
-17.4971016177
  0
LWPOLYLINE
  5
331
100
AcDbEntity
  8
ASSI
100
AcDbPolyline
 62
250
  6
CONTINUOUS
 90
14
 70
0
 10
-10.0720382513
 20
-10.5718284322
 10
-10.1281237888
 20
-11.1939294471
 10
-10.1874553146
 20
-11.8056656516
 10
-10.249719254
 20
-12.4093244787
 10
-10.3146339872
 20
-13.0041403796
 10
-10.3817289415
 20
-13.5876656829
 10
-10.4504375516
 20
-14.1599783836
 10
-10.5204155214
 20
-14.7203561178
 10
-10.5912198136
 20
-15.2666363941
 10
-10.6621257599
 20
-15.797229366
 10
-10.7328086945
 20
-16.3120308886
 10
-10.8027664815
 20
-16.808656184
 10
-10.871040484
 20
-17.2830415231
 10
-10.9370933414
 20
-17.7337253082
  0
LWPOLYLINE
  5
332
100
AcDbEntity
  8
ASSI
100
AcDbPolyline
 62
250
  6
CONTINUOUS
 90
6
 70
0
 10
-9.8111740324
 20
-5.6220900245
 10
-9.8123078113
 20
-5.6336706348
 10
-9.8134624366
 20
-5.647515699
 10
-9.8146469176
 20
-5.6632516481
 10
-9.8156612215
 20
-5.6810427581
 10
-9.8186324698
 20
-5.7620639088
  0
LWPOLYLINE
  5
333
100
AcDbEntity
  8
ASSI
100
AcDbPolyline
 62
7
  6
CONTINUOUS
 90
3
 70
0
 10
-11.5127765615
 20
-21.2375484055
 10
-11.5165133128
 20
-21.2739393721
 10
-11.5200187435
 20
-21.3597598698
  0
LINE
  5
334
100
AcDbEntity
  8
ASSI
100
AcDbLine
 62
7
  6
CONTINUOUS
 10
-11.5076946831
 20
-21.2012486085
 11
-11.512776561
 21
-21.237548401
  0
LINE
  5
335
100
AcDbEntity
  8
ASSI
100
AcDbLine
 62
250
  6
CONTINUOUS
 10
-11.0896111193
 20
-18.7456814262
 11
-11.0934690772
 21
-18.7721921066
  0
LINE
  5
336
100
AcDbEntity
  8
ASSI
100
AcDbLine
 62
250
  6
CONTINUOUS
 10
-10.9370933414
 20
-17.7337253082
 11
-11.0203491444
 21
-18.2906193148
  0
LINE
  5
337
100
AcDbEntity
  8
ASSI
100
AcDbLine
 62
7
  6
CONTINUOUS
 10
-10.9351256567
 20
-17.4971016177
 11
-11.0525169521
 21
-18.2857565213
  0
LINE
  5
338
100
AcDbEntity
  8
ASSI
100
AcDbLine
 62
7
  6
CONTINUOUS
 10
-11.0525169521
 20
-18.2857565213
 11
-11.1214087245
 21
-18.7407999467
  0
LINE
  5
339
100
AcDbEntity
  8
ASSI
100
AcDbLine
 62
7
  6
CONTINUOUS
 10
-11.0203491444
 20
-18.2906193148
 11
-11.0896111193
 21
-18.7456814262
  0
LWPOLYLINE
  5
33A
100
AcDbEntity
  8
ASSI
100
AcDbPolyline
 62
250
  6
CONTINUOUS
 90
3
 70
0
 10
-11.0934690772
 20
-18.7721921066
 10
-11.1538364035
 20
-19.163897257
 10
-11.1723717484
 20
-19.2822289144
  0
LINE
  5
33B
100
AcDbEntity
  8
ASSI
100
AcDbLine
 62
7
  6
CONTINUOUS
 10
-11.1214087245
 20
-18.7407999467
 11
-11.2038986179
 21
-19.2773275088
  0
LINE
  5
33C
100
AcDbEntity
  8
ASSI
100
AcDbLine
 62
7
  6
CONTINUOUS
 10
-11.2038986179
 20
-19.2773275088
 11
-11.2655733612
 21
-19.6740323968
  0
LWPOLYLINE
  5
33D
100
AcDbEntity
  8
ASSI
100
AcDbPolyline
 62
7
  6
CONTINUOUS
 90
3
 70
0
 10
-11.1723717484
 20
-19.2822289144
 10
-11.236543649
 20
-19.69344623
 10
-11.2556844133
 20
-19.8149028794
  0
LINE
  5
33E
100
AcDbEntity
  8
ASSI
100
AcDbLine
 62
7
  6
CONTINUOUS
 10
-11.2655733612
 20
-19.6740323968
 11
-11.3830220088
 21
-20.4192055495
  0
LINE
  5
33F
100
AcDbEntity
  8
ASSI
100
AcDbLine
 62
250
  6
CONTINUOUS
 10
-11.2556844133
 20
-19.8149028794
 11
-11.3535548017
 21
-20.4329810129
  0
LINE
  5
340
100
AcDbEntity
  8
ASSI
100
AcDbLine
 62
7
  6
CONTINUOUS
 10
-11.4628239517
 20
-20.9199443879
 11
-11.5076943648
 21
-21.2012466042
  0
LINE
  5
341
100
AcDbEntity
  8
ASSI
100
AcDbLine
 62
7
  6
CONTINUOUS
 10
-11.3830220088
 20
-20.4192055495
 11
-11.4628239517
 21
-20.9199443879
  0
LINE
  5
342
100
AcDbEntity
  8
ASSI
100
AcDbLine
 62
250
  6
CONTINUOUS
 10
-11.3535548017
 20
-20.4329810129
 11
-11.4750047567
 21
-21.1902785731
  0
LINE
  5
343
100
AcDbEntity
  8
ASSI
100
AcDbLine
 62
250
  6
CONTINUOUS
 10
-11.4750047567
 20
-21.1902785731
 11
-11.5161002886
 21
-21.4457950159
  0
LWPOLYLINE
  5
344
100
AcDbEntity
  8
ASSI
100
AcDbPolyline
 62
250
  6
CONTINUOUS
 90
16
 70
0
 10
9.2016926595
 20
-7.3347956342
 10
9.1711572023
 20
-7.3423184293
 10
9.1328486435
 20
-7.34982424
 10
9.0878806217
 20
-7.356661707
 10
9.036000573
 20
-7.3630577411
 10
8.9771234819
 20
-7.3692397107
 10
8.9119209519
 20
-7.375128424
 10
8.8409956224
 20
-7.3806367762
 10
8.7646181238
 20
-7.3857074538
 10
8.6831675616
 20
-7.3903019707
 10
8.5969880464
 20
-7.3944100252
 10
8.5067494648
 20
-7.3980057036
 10
8.4134086988
 20
-7.4010595034
 10
8.3176724468
 20
-7.403558942
 10
8.2199391958
 20
-7.4055005781
 10
8.1207344794
 20
-7.4068762729
  0
LWPOLYLINE
  5
345
100
AcDbEntity
  8
ASSI
100
AcDbPolyline
 62
250
  6
CONTINUOUS
 90
10
 70
0
 10
9.1996369995
 20
-5.4374908841
 10
9.170854057
 20
-5.4413781588
 10
9.1342585795
 20
-5.4452219331
 10
9.0900726709
 20
-5.4490005352
 10
9.0384147202
 20
-5.4526991457
 10
8.9796124901
 20
-5.4562867436
 10
8.9143408783
 20
-5.4597189778
 10
8.8431597751
 20
-5.4629669906
 10
8.76628983
 20
-5.466018942
 10
8.684090065
 20
-5.4688613138
  0
LWPOLYLINE
  5
346
100
AcDbEntity
  8
ASSI
100
AcDbPolyline
 62
250
  6
CONTINUOUS
 90
8
 70
0
 10
9.1966738892
 20
-4.8943851692
 10
9.1681075179
 20
-4.8973741765
 10
9.1316741342
 20
-4.90036793
 10
9.0875967899
 20
-4.9033492531
 10
9.0359927241
 20
-4.9063065993
 10
8.9771928845
 20
-4.9092152582
 10
8.9118836093
 20
-4.9120388719
 10
8.840631451
 20
-4.9147533765
  0
LINE
  5
347
100
AcDbEntity
  8
ASSI
100
AcDbLine
 62
250
  6
CONTINUOUS
 10
8.840631451
 20
-4.9147533765
 11
8.6813429527
 21
-4.9198134696
  0
LINE
  5
348
100
AcDbEntity
  8
ASSI
100
AcDbLine
 62
250
  6
CONTINUOUS
 10
8.684090065
 20
-5.4688613138
 11
8.5054940821
 21
-5.4738684288
  0
LINE
  5
349
100
AcDbEntity
  8
ASSI
100
AcDbLine
 62
250
  6
CONTINUOUS
 10
8.6813429527
 20
-4.9198134696
 11
8.5024721161
 21
-4.924305936
  0
LINE
  5
34A
100
AcDbEntity
  8
ASSI
100
AcDbLine
 62
250
  6
CONTINUOUS
 10
8.5054940821
 20
-5.4738684288
 11
8.3136754088
 21
-5.4778313844
  0
LINE
  5
34B
100
AcDbEntity
  8
ASSI
100
AcDbLine
 62
250
  6
CONTINUOUS
 10
8.5024721161
 20
-4.924305936
 11
8.3103103411
 21
-4.9280880532
  0
LINE
  5
34C
100
AcDbEntity
  8
ASSI
100
AcDbLine
 62
250
  6
CONTINUOUS
 10
8.3103103411
 20
-4.9280880532
 11
8.1099639752
 21
-4.9310686407
  0
LINE
  5
34D
100
AcDbEntity
  8
ASSI
100
AcDbLine
 62
250
  6
CONTINUOUS
 10
8.3136754088
 20
-5.4778313844
 11
8.1137404841
 21
-5.480656745
  0
LINE
  5
34E
100
AcDbEntity
  8
ASSI
100
AcDbLine
 62
7
  6
CONTINUOUS
 10
10.3818418789
 20
-9.5573740636
 11
10.4092634144
 21
-9.5573740636
  0
LINE
  5
34F
100
AcDbEntity
  8
ASSI
100
AcDbLine
 62
7
  6
CONTINUOUS
 10
10.471918069
 20
-6.6259313107
 11
10.4219103819
 21
-6.6259313107
  0
LINE
  5
350
100
AcDbEntity
  8
ASSI
100
AcDbLine
 62
7
  6
CONTINUOUS
 10
10.481240658
 20
-5.7679062565
 11
10.4312357904
 21
-5.7679062565
  0
LINE
  5
351
100
AcDbEntity
  8
ASSI
100
AcDbLine
 62
7
  6
CONTINUOUS
 10
10.4821076297
 20
-5.6054737338
 11
10.432103056
 21
-5.6054737338
  0
LINE
  5
352
100
AcDbEntity
  8
ASSI
100
AcDbLine
 62
7
  6
CONTINUOUS
 10
10.3564744265
 20
-5.5802799888
 11
10.3064384298
 21
-5.5802799888
  0
LINE
  5
353
100
AcDbEntity
  8
ASSI
100
AcDbLine
 62
250
  6
CONTINUOUS
 10
-8.3136754088
 20
-5.4778313844
 11
-8.1137404841
 21
-5.480656745
  0
LINE
  5
354
100
AcDbEntity
  8
ASSI
100
AcDbLine
 62
250
  6
CONTINUOUS
 10
-8.3103103411
 20
-4.9280880532
 11
-8.1099639752
 21
-4.9310686407
  0
LINE
  5
355
100
AcDbEntity
  8
ASSI
100
AcDbLine
 62
250
  6
CONTINUOUS
 10
-8.5024721161
 20
-4.924305936
 11
-8.3103103411
 21
-4.9280880532
  0
LINE
  5
356
100
AcDbEntity
  8
ASSI
100
AcDbLine
 62
250
  6
CONTINUOUS
 10
-8.5054940821
 20
-5.4738684288
 11
-8.3136754088
 21
-5.4778313844
  0
LINE
  5
357
100
AcDbEntity
  8
ASSI
100
AcDbLine
 62
250
  6
CONTINUOUS
 10
-8.6813429527
 20
-4.9198134696
 11
-8.5024721161
 21
-4.924305936
  0
LWPOLYLINE
  5
358
100
AcDbEntity
  8
ASSI
100
AcDbPolyline
 62
250
  6
CONTINUOUS
 90
9
 70
0
 10
-9.1966738892
 20
-4.8943851692
 10
-9.1681075179
 20
-4.8973741765
 10
-9.1316741342
 20
-4.90036793
 10
-9.0875967899
 20
-4.9033492531
 10
-9.0359927241
 20
-4.9063065993
 10
-8.9771928845
 20
-4.9092152582
 10
-8.9118836093
 20
-4.9120388719
 10
-8.840631451
 20
-4.9147533765
 10
-8.6813429527
 20
-4.9198134696
  0
LWPOLYLINE
  5
359
100
AcDbEntity
  8
ASSI
100
AcDbPolyline
 62
250
  6
CONTINUOUS
 90
11
 70
0
 10
-9.1996369995
 20
-5.4374908841
 10
-9.170854057
 20
-5.4413781588
 10
-9.1342585795
 20
-5.4452219331
 10
-9.0900726709
 20
-5.4490005352
 10
-9.0384147202
 20
-5.4526991457
 10
-8.9796124901
 20
-5.4562867436
 10
-8.9143408783
 20
-5.4597189778
 10
-8.8431597751
 20
-5.4629669906
 10
-8.76628983
 20
-5.466018942
 10
-8.684090065
 20
-5.4688613138
 10
-8.5054940821
 20
-5.4738684288
  0
LWPOLYLINE
  5
35A
100
AcDbEntity
  8
ASSI
100
AcDbPolyline
 62
250
  6
CONTINUOUS
 90
16
 70
0
 10
-9.2016926595
 20
-7.3347956342
 10
-9.1711572023
 20
-7.3423184293
 10
-9.1328486435
 20
-7.34982424
 10
-9.0878806217
 20
-7.356661707
 10
-9.036000573
 20
-7.3630577411
 10
-8.9771234819
 20
-7.3692397107
 10
-8.9119209519
 20
-7.375128424
 10
-8.8409956224
 20
-7.3806367762
 10
-8.7646181238
 20
-7.3857074538
 10
-8.6831675616
 20
-7.3903019707
 10
-8.5969880464
 20
-7.3944100252
 10
-8.5067494648
 20
-7.3980057036
 10
-8.4134086988
 20
-7.4010595034
 10
-8.3176724468
 20
-7.403558942
 10
-8.2199391958
 20
-7.4055005781
 10
-8.1207344794
 20
-7.4068762729
  0
LINE
  5
35B
100
AcDbEntity
  8
ASSI
100
AcDbLine
 62
7
  6
CONTINUOUS
 10
0.0
 20
26.9465603415
 11
-0.0
 21
-34.8250000257
  0
LINE
  5
35C
100
AcDbEntity
  8
ASSI
100
AcDbLine
 62
250
  6
CONTINUOUS
 10
9.8040713561
 20
-3.5389999747
 11
-9.8040713561
 21
-3.5389999747
  0
LINE
  5
35D
100
AcDbEntity
  8
ASSI
100
AcDbLine
 62
7
  6
CONTINUOUS
 10
-10.4426931767
 20
-2.2845529743
 11
-10.4726942763
 21
-2.2845529743
  0
LINE
  5
35E
100
AcDbEntity
  8
ASSI
100
AcDbLine
 62
7
  6
CONTINUOUS
 10
-10.4404293367
 20
-1.9352169743
 11
-10.4704307741
 21
-1.9352169743
  0
LINE
  5
35F
100
AcDbEntity
  8
ASSI
100
AcDbLine
 62
7
  6
CONTINUOUS
 10
-10.4468686765
 20
-1.380325925
 11
-10.4768691455
 21
-1.380325925
  0
LWPOLYLINE
  5
360
100
AcDbEntity
  8
ASSI
100
AcDbPolyline
 62
7
  6
CONTINUOUS
 90
3
 70
0
 10
10.3564278888
 20
-7.3909355604
 10
10.358795928
 20
-7.3923313801
 10
10.3649312033
 20
-7.4089569324
  0
LINE
  5
361
100
AcDbEntity
  8
ASSI
100
AcDbLine
 62
7
  6
CONTINUOUS
 10
10.2606540137
 20
-10.9590862959
 11
10.2566831895
 21
-10.9555068894
  0
LINE
  5
362
100
AcDbEntity
  8
ASSI
100
AcDbLine
 62
7
  6
CONTINUOUS
 10
4.5
 20
26.9465603415
 11
4.5
 21
26.9965603415
  0
LINE
  5
363
100
AcDbEntity
  8
ASSI
100
AcDbLine
 62
7
  6
CONTINUOUS
 10
4.5244399309
 20
26.9465603415
 11
4.5244399309
 21
26.9965603415
  0
LINE
  5
364
100
AcDbEntity
  8
ASSI
100
AcDbLine
 62
7
  6
CONTINUOUS
 10
4.5678886175
 20
26.9465603415
 11
4.5678886175
 21
26.9965603415
  0
LINE
  5
365
100
AcDbEntity
  8
ASSI
100
AcDbLine
 62
250
  6
CONTINUOUS
 10
4.835369997
 20
26.9465603415
 11
4.835369997
 21
26.9965603415
  0
LINE
  5
366
100
AcDbEntity
  8
ASSI
100
AcDbLine
 62
7
  6
CONTINUOUS
 10
4.922267437
 20
26.9465603415
 11
4.922267437
 21
26.9965603415
  0
LINE
  5
367
100
AcDbEntity
  8
ASSI
100
AcDbLine
 62
7
  6
CONTINUOUS
 10
5.1272912025
 20
26.9465603415
 11
5.1272912025
 21
26.9965603415
  0
LINE
  5
368
100
AcDbEntity
  8
ASSI
100
AcDbLine
 62
7
  6
CONTINUOUS
 10
5.3
 20
-34.0250000257
 11
5.3
 21
-33.4552728394
  0
LWPOLYLINE
  5
369
100
AcDbEntity
  8
ASSI
100
AcDbPolyline
 62
250
  6
CONTINUOUS
 90
12
 70
0
 10
-8.8690350046
 20
-30.0456809735
 10
-8.8466259821
 20
-29.997087172
 10
-8.8257704778
 20
-29.932696357
 10
-8.8065848789
 20
-29.8531943677
 10
-8.7891758446
 20
-29.7591249927
 10
-8.7736385162
 20
-29.6507191325
 10
-8.7600028222
 20
-29.5285263929
 10
-8.7484026826
 20
-29.393124331
 10
-8.7390670881
 20
-29.2447564787
 10
-8.732099258
 20
-29.0839696596
 10
-8.7274812132
 20
-28.9115493556
 10
-8.7252222639
 20
-28.7281505158
  0
LINE
  5
36A
100
AcDbEntity
  8
ASSI
100
AcDbLine
 62
7
  6
CONTINUOUS
 10
-10.4499982912
 20
4.3485749581
 11
-10.4799982913
 21
4.3485749581
  0
LWPOLYLINE
  5
36B
100
AcDbEntity
  8
ASSI
100
AcDbPolyline
 62
7
  6
CONTINUOUS
 90
13
 70
0
 10
-10.3337358589
 20
18.3500986627
 10
-10.3295227342
 20
18.345619148
 10
-10.3253431223
 20
18.3322107994
 10
-10.3211970232
 20
18.309964899
 10
-10.3170527434
 20
18.2790438955
 10
-10.3129419764
 20
18.2396541152
 10
-10.3089598028
 20
18.192019678
 10
-10.3051044446
 20
18.1364091301
 10
-10.3013776798
 20
18.0732125908
 10
-10.2978799234
 20
18.002920358
 10
-10.294617115
 20
17.9260497959
 10
-10.2915833149
 20
17.8431088985
 10
-10.2888611194
 20
17.7546615973
  0
LINE
  5
36C
100
AcDbEntity
  8
ASSI
100
AcDbLine
 62
7
  6
CONTINUOUS
 10
10.3753626892
 20
-6.6387087375
 11
10.3667112382
 21
-6.6262947207
  0
LINE
  5
36D
100
AcDbEntity
  8
ASSI
100
AcDbLine
 62
7
  6
CONTINUOUS
 10
10.2827531241
 20
-11.7173399153
 11
10.2850204328
 21
-11.7236960002
  0
LINE
  5
36E
100
AcDbEntity
  8
ASSI
100
AcDbLine
 62
7
  6
CONTINUOUS
 10
10.4632292458
 20
-7.3953166644
 11
10.4645995881
 21
-7.4089569324
  0
LINE
  5
36F
100
AcDbEntity
  8
ASSI
100
AcDbLine
 62
7
  6
CONTINUOUS
 10
10.2261743553
 20
-11.949251379
 11
10.1362374776
 21
-11.0498637354
  0
LWPOLYLINE
  5
370
100
AcDbEntity
  8
ASSI
100
AcDbPolyline
 62
250
  6
CONTINUOUS
 90
5
 70
0
 10
9.8111740324
 20
-5.6220900245
 10
9.8123078113
 20
-5.6336706348
 10
9.8134624366
 20
-5.647515699
 10
9.8146469176
 20
-5.6632516481
 10
9.8156612215
 20
-5.6810427581
  0
LWPOLYLINE
  5
371
100
AcDbEntity
  8
ASSI
100
AcDbPolyline
 62
250
  6
CONTINUOUS
 90
15
 70
0
 10
10.0720382513
 20
-10.5718284322
 10
10.1281237888
 20
-11.1939294471
 10
10.1874553146
 20
-11.8056656516
 10
10.249719254
 20
-12.4093244787
 10
10.3146339872
 20
-13.0041403796
 10
10.3817289415
 20
-13.5876656829
 10
10.4504375516
 20
-14.1599783836
 10
10.5204155214
 20
-14.7203561178
 10
10.5912198136
 20
-15.2666363941
 10
10.6621257599
 20
-15.797229366
 10
10.7328086945
 20
-16.3120308886
 10
10.8027664815
 20
-16.808656184
 10
10.871040484
 20
-17.2830415231
 10
10.9370933414
 20
-17.7337253082
 10
11.020356745
 20
-18.2906697974
  0
LWPOLYLINE
  5
372
100
AcDbEntity
  8
ASSI
100
AcDbPolyline
 62
7
  6
CONTINUOUS
 90
4
 70
0
 10
10.1362374776
 20
-11.0498637354
 10
10.0538762697
 20
-10.1362349604
 10
9.9794379468
 20
-9.1963743148
 10
9.9148053545
 20
-8.228664657
  0
LINE
  5
373
100
AcDbEntity
  8
ASSI
100
AcDbLine
 62
7
  6
CONTINUOUS
 10
9.9148053545
 20
-8.228664657
 11
9.8630042027
 21
-7.242714504
  0
LWPOLYLINE
  5
374
100
AcDbEntity
  8
ASSI
100
AcDbPolyline
 62
7
  6
CONTINUOUS
 90
6
 70
0
 10
10.1982466115
 20
-11.4653598023
 10
10.2030583393
 20
-11.5585095882
 10
10.2087637897
 20
-11.6318581659
 10
10.2152390377
 20
-11.6839572443
 10
10.2224522827
 20
-11.714324574
 10
10.2298929611
 20
-11.7234968628
  0
LWPOLYLINE
  5
375
100
AcDbEntity
  8
ASSI
100
AcDbPolyline
 62
250
  6
CONTINUOUS
 90
16
 70
0
 10
9.1861370032
 20
26.3706187733
 10
9.1834797191
 20
26.423225077
 10
9.1755530792
 20
26.4748172745
 10
9.1624755794
 20
26.5250483858
 10
9.1443470875
 20
26.5736124452
 10
9.1213558675
 20
26.6200596102
 10
9.0938700239
 20
26.6637635978
 10
9.0623181165
 20
26.7041091785
 10
9.0269548809
 20
26.7407423801
 10
8.98796144
 20
26.7734828976
 10
8.9456695134
 20
26.8020747859
 10
8.9006858513
 20
26.8260639492
 10
8.8536605638
 20
26.8450591838
 10
8.8050454498
 20
26.8588759636
 10
8.7551220976
 20
26.867426555
 10
8.7042240014
 20
26.8705997294
  0
LWPOLYLINE
  5
376
100
AcDbEntity
  8
ASSI
100
AcDbPolyline
 62
250
  6
CONTINUOUS
 90
6
 70
0
 10
9.8555064302
 20
-7.311469062
 10
9.8886807004
 20
-7.9896899801
 10
9.9278811304
 20
-8.6563375832
 10
9.9718271179
 20
-9.3067325513
 10
10.0198563741
 20
-9.9427258529
 10
10.0720382513
 20
-10.5718284322
  0
LWPOLYLINE
  5
377
100
AcDbEntity
  8
ASSI
100
AcDbPolyline
 62
7
  6
CONTINUOUS
 90
6
 70
0
 10
10.3629517408
 20
-10.9412540745
 10
10.3619169864
 20
-10.9185875168
 10
10.3611664748
 20
-10.8872274417
 10
10.3607055886
 20
-10.8470406961
 10
10.3605268132
 20
-10.7981599752
 10
10.3606308745
 20
-10.7413402812
  0
LWPOLYLINE
  5
378
100
AcDbEntity
  8
ASSI
100
AcDbPolyline
 62
250
  6
CONTINUOUS
 90
4
 70
0
 10
9.8111740324
 20
-5.6220900245
 10
9.8120265074
 20
-5.6424697449
 10
9.8126398476
 20
-5.6636656099
 10
9.8136765038
 20
-5.7046007145
  0
LINE
  5
379
100
AcDbEntity
  8
ASSI
100
AcDbLine
 62
7
  6
CONTINUOUS
 10
9.8630042027
 20
-7.242714504
 11
9.838102613
 21
-6.6061824889
  0
LINE
  5
37A
100
AcDbEntity
  8
ASSI
100
AcDbLine
 62
250
  6
CONTINUOUS
 10
9.8296268064
 20
-6.6232529852
 11
9.8555064302
 21
-7.311469062
  0
LINE
  5
37B
100
AcDbEntity
  8
ASSI
100
AcDbLine
 62
250
  6
CONTINUOUS
 10
9.8156612215
 20
-5.6810427581
 11
9.8186324698
 21
-5.7620639088
  0
LINE
  5
37C
100
AcDbEntity
  8
ASSI
100
AcDbLine
 62
7
  6
CONTINUOUS
 10
9.8380649302
 20
-6.6061955189
 11
9.8336512064
 21
-6.4675762088
  0
LINE
  5
37D
100
AcDbEntity
  8
ASSI
100
AcDbLine
 62
250
  6
CONTINUOUS
 10
9.8136765038
 20
-5.7046007145
 11
9.8149242161
 21
-5.7434808597
  0
LWPOLYLINE
  5
37E
100
AcDbEntity
  8
ASSI
100
AcDbPolyline
 62
7
  6
CONTINUOUS
 90
25
 70
0
 10
10.2375402445
 20
-10.7583534661
 10
10.2346409622
 20
-10.6644983871
 10
10.2325222681
 20
-10.5536560642
 10
10.231245642
 20
-10.4293579289
 10
10.2308411298
 20
-10.2911711835
 10
10.2312662228
 20
-10.1395263105
 10
10.2325014894
 20
-9.9792503091
 10
10.234577379
 20
-9.810064423
 10
10.2374534469
 20
-9.6322458497
 10
10.2410345268
 20
-9.4514566274
 10
10.2453510131
 20
-9.2676013052
 10
10.2503687599
 20
-9.0807750886
 10
10.2559280501
 20
-8.8969272705
 10
10.2620580349
 20
-8.7161529699
 10
10.2687334581
 20
-8.5383580648
 10
10.2757452507
 20
-8.3692090888
 10
10.283118808
 20
-8.2089880849
 10
10.2908388583
 20
-8.0574147112
 10
10.2986658897
 20
-7.9193126504
 10
10.306621731
 20
-7.7951022243
 10
10.3146968915
 20
-7.6843648428
 10
10.322633164
 20
-7.5906661334
 10
10.3304396295
 20
-7.5146206092
 10
10.3381183397
 20
-7.4556149992
 10
10.345426285
 20
-7.4153732441
  0
LINE
  5
37F
100
AcDbEntity
  8
ASSI
100
AcDbLine
 62
7
  6
CONTINUOUS
 10
10.3564744265
 20
-5.5802799888
 11
10.3651811
 21
-5.8632919693
  0
LINE
  5
380
100
AcDbEntity
  8
ASSI
100
AcDbLine
 62
250
  6
CONTINUOUS
 10
9.8186324698
 20
-5.7620639088
 11
9.8263752201
 21
-6.0180673558
  0
LINE
  5
381
100
AcDbEntity
  8
ASSI
100
AcDbLine
 62
250
  6
CONTINUOUS
 10
9.8230476267
 20
-6.3970183475
 11
9.8296203544
 21
-6.623272232
  0
LINE
  5
382
100
AcDbEntity
  8
ASSI
100
AcDbLine
 62
7
  6
CONTINUOUS
 10
10.3651811
 20
-5.8632919693
 11
10.3730124724
 21
-6.1464623697
  0
LINE
  5
383
100
AcDbEntity
  8
ASSI
100
AcDbLine
 62
250
  6
CONTINUOUS
 10
9.8149242161
 20
-5.7434808597
 11
9.8165951192
 21
-5.8048550787
  0
LINE
  5
384
100
AcDbEntity
  8
ASSI
100
AcDbLine
 62
7
  6
CONTINUOUS
 10
9.8336512064
 20
-6.4675762088
 11
9.8261547641
 21
-6.1917967921
  0
LINE
  5
385
100
AcDbEntity
  8
ASSI
100
AcDbLine
 62
250
  6
CONTINUOUS
 10
9.8166576826
 20
-5.8074198529
 11
9.8208540163
 21
-5.974480769
  0
LINE
  5
386
100
AcDbEntity
  8
ASSI
100
AcDbLine
 62
250
  6
CONTINUOUS
 10
9.8263752201
 20
-6.0180673558
 11
9.8326365025
 21
-6.2619835568
  0
LINE
  5
387
100
AcDbEntity
  8
ASSI
100
AcDbLine
 62
7
  6
CONTINUOUS
 10
9.8208540163
 20
-5.974480769
 11
9.8261547641
 21
-6.1917967921
  0
LINE
  5
388
100
AcDbEntity
  8
ASSI
100
AcDbLine
 62
250
  6
CONTINUOUS
 10
9.8175597305
 20
-6.1743110008
 11
9.8230476267
 21
-6.3970183475
  0
LWPOLYLINE
  5
389
100
AcDbEntity
  8
ASSI
100
AcDbPolyline
 62
7
  6
CONTINUOUS
 90
3
 70
0
 10
10.1913068075
 20
-11.2182573423
 10
10.1943400601
 20
-11.3517107844
 10
10.1982466115
 20
-11.4653598023
  0
LINE
  5
38A
100
AcDbEntity
  8
ASSI
100
AcDbLine
 62
250
  6
CONTINUOUS
 10
9.8326365025
 20
-6.2619835568
 11
9.8381729515
 21
-6.5155141736
  0
LINE
  5
38B
100
AcDbEntity
  8
ASSI
100
AcDbLine
 62
250
  6
CONTINUOUS
 10
9.8130458066
 20
-5.950408825
 11
9.8175597305
 21
-6.1743110008
  0
LINE
  5
38C
100
AcDbEntity
  8
ASSI
100
AcDbLine
 62
250
  6
CONTINUOUS
 10
8.7443799742
 20
-27.4808429869
 11
8.7446858281
 21
-27.4964048703
  0
LINE
  5
38D
100
AcDbEntity
  8
ASSI
100
AcDbLine
 62
250
  6
CONTINUOUS
 10
9.8381729515
 20
-6.5155141736
 11
9.8417489831
 21
-6.699390647
  0
LINE
  5
38E
100
AcDbEntity
  8
ASSI
100
AcDbLine
 62
7
  6
CONTINUOUS
 10
10.4500063166
 20
-2.1249937445
 11
10.4426137025
 21
-1.676892845
  0
LINE
  5
38F
100
AcDbEntity
  8
ASSI
100
AcDbLine
 62
7
  6
CONTINUOUS
 10
10.2447349474
 20
18.3500850257
 11
10.2648413566
 21
16.9334415552
  0
LINE
  5
390
100
AcDbEntity
  8
ASSI
100
AcDbLine
 62
7
  6
CONTINUOUS
 10
10.4426137025
 20
-1.676892845
 11
10.4365556077
 21
-1.2525929526
  0
LINE
  5
391
100
AcDbEntity
  8
ASSI
100
AcDbLine
 62
7
  6
CONTINUOUS
 10
10.2648413566
 20
16.9334415552
 11
10.2851298307
 21
15.4227852398
  0
LINE
  5
392
100
AcDbEntity
  8
ASSI
100
AcDbLine
 62
7
  6
CONTINUOUS
 10
10.2851298307
 20
15.4227852398
 11
10.3019451318
 21
14.0998830257
  0
LINE
  5
393
100
AcDbEntity
  8
ASSI
100
AcDbLine
 62
7
  6
CONTINUOUS
 10
10.4365556077
 20
-1.2525929526
 11
10.4321818515
 21
-0.8974439661
  0
LWPOLYLINE
  5
394
100
AcDbEntity
  8
ASSI
100
AcDbPolyline
 62
250
  6
CONTINUOUS
 90
3
 70
0
 10
9.807751051
 20
-5.5778347503
 10
9.8092391924
 20
-5.7062914236
 10
9.8130458066
 20
-5.950408825
  0
LWPOLYLINE
  5
395
100
AcDbEntity
  8
ASSI
100
AcDbPolyline
 62
250
  6
CONTINUOUS
 90
13
 70
0
 10
7.7115046607
 20
-29.2280288222
 10
7.7141456208
 20
-29.462805024
 10
7.7186496411
 20
-29.6829621748
 10
7.7250022882
 20
-29.8878817989
 10
7.7332868148
 20
-30.0764420456
 10
7.7433683027
 20
-30.2477200902
 10
7.7549023976
 20
-30.4012661917
 10
7.7678742335
 20
-30.5363665495
 10
7.7822580283
 20
-30.6522318894
 10
7.7976923705
 20
-30.748400722
 10
7.8140427278
 20
-30.824475966
 10
7.8313852521
 20
-30.8800804668
 10
7.8496736153
 20
-30.9147979809
  0
LINE
  5
396
100
AcDbEntity
  8
ASSI
100
AcDbLine
 62
250
  6
CONTINUOUS
 10
9.1858931756
 20
-3.5389999692
 11
9.1894462139
 21
-3.8421429932
  0
LINE
  5
397
100
AcDbEntity
  8
ASSI
100
AcDbLine
 62
7
  6
CONTINUOUS
 10
10.4321818515
 20
-0.8974439661
 11
10.4278440739
 21
-0.4804726305
  0
LWPOLYLINE
  5
398
100
AcDbEntity
  8
ASSI
100
AcDbPolyline
 62
250
  6
CONTINUOUS
 90
3
 70
0
 10
8.7439750117
 20
-27.4495850255
 10
8.7440519152
 20
-27.457416588
 10
8.7443799742
 20
-27.4808429869
  0
LINE
  5
399
100
AcDbEntity
  8
ASSI
100
AcDbLine
 62
250
  6
CONTINUOUS
 10
8.0971949077
 20
-3.5389999747
 11
8.1099639688
 21
-4.9310686407
  0
LINE
  5
39A
100
AcDbEntity
  8
ASSI
100
AcDbLine
 62
7
  6
CONTINUOUS
 10
10.4278440739
 20
-0.4804726305
 11
10.4239797222
 21
-0.0010370361
  0
LINE
  5
39B
100
AcDbEntity
  8
ASSI
100
AcDbLine
 62
250
  6
CONTINUOUS
 10
8.1099639688
 20
-4.9310686407
 11
8.1137404728
 21
-5.4806567451
  0
LWPOLYLINE
  5
39C
100
AcDbEntity
  8
ASSI
100
AcDbPolyline
 62
250
  6
CONTINUOUS
 90
3
 70
0
 10
9.1894462139
 20
-3.8421429932
 10
9.1927303497
 20
-4.2947313541
 10
9.198471789
 20
-5.1556810659
  0
LWPOLYLINE
  5
39D
100
AcDbEntity
  8
ASSI
100
AcDbPolyline
 62
250
  6
CONTINUOUS
 90
4
 70
0
 10
9.198471789
 20
-5.1556810659
 10
9.1989581859
 20
-5.2426382341
 10
9.1990443959
 20
-5.3297169417
 10
9.1995377996
 20
-5.4164041006
  0
LINE
  5
39E
100
AcDbEntity
  8
ASSI
100
AcDbLine
 62
7
  6
CONTINUOUS
 10
10.4239797222
 20
-0.0010370361
 11
10.4209817489
 21
0.5323640925
  0
LINE
  5
39F
100
AcDbEntity
  8
ASSI
100
AcDbLine
 62
250
  6
CONTINUOUS
 10
8.1137404728
 20
-5.4806567451
 11
8.1207358833
 21
-7.4068752891
  0
LINE
  5
3A0
100
AcDbEntity
  8
ASSI
100
AcDbLine
 62
250
  6
CONTINUOUS
 10
8.744969286
 20
-27.4960725522
 11
8.745714138
 21
-27.7397119128
  0
LINE
  5
3A1
100
AcDbEntity
  8
ASSI
100
AcDbLine
 62
7
  6
CONTINUOUS
 10
10.4209817489
 20
0.5323640925
 11
10.4194213065
 21
1.0873667045
  0
LINE
  5
3A2
100
AcDbEntity
  8
ASSI
100
AcDbLine
 62
250
  6
CONTINUOUS
 10
9.1988780732
 20
-5.4168042057
 11
9.2024336171
 21
-6.7022650234
  0
LINE
  5
3A3
100
AcDbEntity
  8
ASSI
100
AcDbLine
 62
250
  6
CONTINUOUS
 10
9.8055446863
 20
-4.8918133861
 11
9.8063232143
 21
-5.199023092
  0
LWPOLYLINE
  5
3A4
100
AcDbEntity
  8
ASSI
100
AcDbPolyline
 62
7
  6
CONTINUOUS
 90
5
 70
0
 10
10.3277105175
 20
-11.4654089179
 10
10.3278478683
 20
-11.5585582597
 10
10.3286843704
 20
-11.6318972565
 10
10.3302011868
 20
-11.6839858539
 10
10.3324016225
 20
-11.7143445476
  0
LWPOLYLINE
  5
3A5
100
AcDbEntity
  8
ASSI
100
AcDbPolyline
 62
7
  6
CONTINUOUS
 90
4
 70
0
 10
10.1880416232
 20
-10.7195534388
 10
10.1881663342
 20
-10.9021804922
 10
10.1892369625
 20
-11.068537066
 10
10.1913068075
 20
-11.2182573423
  0
LWPOLYLINE
  5
3A6
100
AcDbEntity
  8
ASSI
100
AcDbPolyline
 62
7
  6
CONTINUOUS
 90
4
 70
0
 10
10.1379750241
 20
-10.7038523375
 10
10.1380042879
 20
-10.8728503926
 10
10.1388413744
 20
-11.0312368691
 10
10.1394154701
 20
-11.0816443268
  0
LINE
  5
3A7
100
AcDbEntity
  8
ASSI
100
AcDbLine
 62
7
  6
CONTINUOUS
 10
6.05
 20
-32.5265640584
 11
6.05
 21
-31.654499775
  0
LINE
  5
3A8
100
AcDbEntity
  8
ASSI
100
AcDbLine
 62
7
  6
CONTINUOUS
 10
6.5
 20
26.9465603415
 11
6.5
 21
26.9965603415
  0
LINE
  5
3A9
100
AcDbEntity
  8
ASSI
100
AcDbLine
 62
7
  6
CONTINUOUS
 10
6.542090971
 20
26.9465603415
 11
6.542090971
 21
26.9965603415
  0
LINE
  5
3AA
100
AcDbEntity
  8
0
100
AcDbLine
 62
7
  6
CONTINUOUS
 10
7.6124897373
 20
26.88012715
 11
7.6124897373
 21
26.9465603415
  0
LINE
  5
3AB
100
AcDbEntity
  8
0
100
AcDbLine
 62
7
  6
CONTINUOUS
 10
8.9784396842
 20
26.9465603415
 11
8.9784396842
 21
26.8465198932
  0
LINE
  5
3AC
100
AcDbEntity
  8
ASSI
100
AcDbLine
 62
250
  6
CONTINUOUS
 10
9.1861373203
 20
26.3706187585
 11
9.1861373224
 21
-3.5389999722
  0
LINE
  5
3AD
100
AcDbEntity
  8
ASSI
100
AcDbLine
 62
250
  6
CONTINUOUS
 10
10.1015566489
 20
-3.9948339863
 11
10.1015488443
 21
26.3627232938
  0
LINE
  5
3AE
100
AcDbEntity
  8
ASSI
100
AcDbLine
 62
7
  6
CONTINUOUS
 10
10.389652825
 20
16.6978248684
 11
10.3896559448
 21
14.0998830257
  0
LINE
  5
3AF
100
AcDbEntity
  8
ASSI
100
AcDbLine
 62
7
  6
CONTINUOUS
 10
10.4196503238
 20
14.0998830257
 11
10.4196505695
 21
18.3500850257
  0
LINE
  5
3B0
100
AcDbEntity
  8
ASSI
100
AcDbLine
 62
7
  6
CONTINUOUS
 10
10.4500122994
 20
14.0998940257
 11
10.4500005891
 21
4.8749980091
  0
LWPOLYLINE
  5
3B1
100
AcDbEntity
  8
ASSI
100
AcDbPolyline
 62
7
  6
CONTINUOUS
 90
4
 70
0
 10
10.4500063166
 20
-2.1249937416
 10
10.4500061815
 20
-3.9664150941
 10
10.4471082053
 20
-5.7922788013
 10
10.4374791622
 20
-6.6255333367
  0
LINE
  5
3B2
100
AcDbEntity
  8
ASSI
100
AcDbLine
 62
7
  6
CONTINUOUS
 10
10.4499977353
 20
26.3597181001
 11
10.4500070585
 21
18.3500850257
  0
LINE
  5
3B3
100
AcDbEntity
  8
ASSI
100
AcDbLine
 62
7
  6
CONTINUOUS
 10
10.4541899464
 20
14.0998940257
 11
10.4541899464
 21
18.3500850257
  0
LWPOLYLINE
  5
3B4
100
AcDbEntity
  8
ASSI
100
AcDbPolyline
 62
250
  6
CONTINUOUS
 90
3
 70
0
 10
9.2024336171
 20
-6.7022650234
 10
9.2025356459
 20
-7.1239196713
 10
9.2022987774
 20
-7.3346791543
  0
LINE
  5
3B5
100
AcDbEntity
  8
ASSI
100
AcDbLine
 62
250
  6
CONTINUOUS
 10
7.71125318
 20
-29.0411780552
 11
7.7115046607
 21
-29.2280288222
  0
LWPOLYLINE
  5
3B6
100
AcDbEntity
  8
ASSI
100
AcDbPolyline
 62
250
  6
CONTINUOUS
 90
6
 70
0
 10
8.7252222639
 20
-28.7281505158
 10
8.7252771418
 20
-28.6189985242
 10
8.7261967964
 20
-28.5062886004
 10
8.7279763593
 20
-28.3901533046
 10
8.7306100014
 20
-28.2707275417
 10
8.7340914724
 20
-28.1481448493
  0
LINE
  5
3B7
100
AcDbEntity
  8
ASSI
100
AcDbLine
 62
250
  6
CONTINUOUS
 10
9.8040713561
 20
-3.5389999747
 11
9.8061684465
 21
-4.8918037649
  0
LINE
  5
3B8
100
AcDbEntity
  8
ASSI
100
AcDbLine
 62
7
  6
CONTINUOUS
 10
10.4194213065
 20
1.0873667045
 11
10.4194091036
 21
1.658039096
  0
LWPOLYLINE
  5
3B9
100
AcDbEntity
  8
ASSI
100
AcDbPolyline
 62
250
  6
CONTINUOUS
 90
3
 70
0
 10
9.8063232143
 20
-5.199023092
 10
9.8061938513
 20
-5.513611214
 10
9.8060254201
 20
-5.5933906053
  0
LWPOLYLINE
  5
3BA
100
AcDbEntity
  8
ASSI
100
AcDbPolyline
 62
7
  6
CONTINUOUS
 90
6
 70
0
 10
10.2778422453
 20
-11.4149082761
 10
10.277634855
 20
-11.5104998391
 10
10.2780329861
 20
-11.5887710091
 10
10.2790267312
 20
-11.650002069
 10
10.2805994564
 20
-11.6929917277
 10
10.2827531241
 20
-11.7173399153
  0
LINE
  5
3BB
100
AcDbEntity
  8
ASSI
100
AcDbLine
 62
250
  6
CONTINUOUS
 10
9.1958887936
 20
-7.8152763194
 11
9.1945719052
 21
-8.481397349
  0
LWPOLYLINE
  5
3BC
100
AcDbEntity
  8
ASSI
100
AcDbPolyline
 62
250
  6
CONTINUOUS
 90
4
 70
0
 10
8.745714138
 20
-27.7397119128
 10
8.745612467
 20
-27.772610044
 10
8.7448321545
 20
-27.8156768917
 10
8.7432695515
 20
-27.8750347575
  0
LINE
  5
3BD
100
AcDbEntity
  8
ASSI
100
AcDbLine
 62
250
  6
CONTINUOUS
 10
8.1207358833
 20
-7.4068752891
 11
8.1127616888
 21
-9.8189603452
  0
LINE
  5
3BE
100
AcDbEntity
  8
ASSI
100
AcDbLine
 62
7
  6
CONTINUOUS
 10
10.4194091036
 20
1.658039096
 11
10.4209388714
 21
2.2068602296
  0
LINE
  5
3BF
100
AcDbEntity
  8
ASSI
100
AcDbLine
 62
250
  6
CONTINUOUS
 10
9.1945719052
 20
-8.481397349
 11
9.1934428267
 21
-8.7759141545
  0
LINE
  5
3C0
100
AcDbEntity
  8
ASSI
100
AcDbLine
 62
250
  6
CONTINUOUS
 10
10.0864519578
 20
-7.0384696835
 11
10.1015566489
 21
-3.9948339863
  0
LINE
  5
3C1
100
AcDbEntity
  8
ASSI
100
AcDbLine
 62
7
  6
CONTINUOUS
 10
10.3282898088
 20
-11.3517497924
 11
10.3277105175
 21
-11.4654089179
  0
LINE
  5
3C2
100
AcDbEntity
  8
ASSI
100
AcDbLine
 62
7
  6
CONTINUOUS
 10
10.4821076297
 20
-5.6054737338
 11
10.481240658
 21
-5.7679062565
  0
LINE
  5
3C3
100
AcDbEntity
  8
ASSI
100
AcDbLine
 62
7
  6
CONTINUOUS
 10
10.4209388714
 20
2.2068602296
 11
10.4238923407
 21
2.7381188507
  0
LINE
  5
3C4
100
AcDbEntity
  8
ASSI
100
AcDbLine
 62
250
  6
CONTINUOUS
 10
7.712319052
 20
-28.8467181453
 11
7.71125318
 21
-29.0411780552
  0
LINE
  5
3C5
100
AcDbEntity
  8
ASSI
100
AcDbLine
 62
7
  6
CONTINUOUS
 10
10.4238923407
 20
2.7381188507
 11
10.4277492834
 21
3.2195603825
  0
LINE
  5
3C6
100
AcDbEntity
  8
ASSI
100
AcDbLine
 62
250
  6
CONTINUOUS
 10
9.2022987774
 20
-7.3346791543
 11
9.1983190241
 21
-7.812246786
  0
LWPOLYLINE
  5
3C7
100
AcDbEntity
  8
ASSI
100
AcDbPolyline
 62
250
  6
CONTINUOUS
 90
5
 70
0
 10
9.178849723
 20
-9.7196946386
 10
9.1753364671
 20
-10.1074392353
 10
9.1734017053
 20
-10.260634252
 10
9.1712627294
 20
-10.3821742083
 10
9.1671688026
 20
-10.558016017
  0
LINE
  5
3C8
100
AcDbEntity
  8
ASSI
100
AcDbLine
 62
250
  6
CONTINUOUS
 10
9.1934428267
 20
-8.7759141545
 11
9.1918370939
 21
-8.9592587028
  0
LINE
  5
3C9
100
AcDbEntity
  8
ASSI
100
AcDbLine
 62
7
  6
CONTINUOUS
 10
10.2799970424
 20
-11.1746363554
 11
10.2778422453
 21
-11.4149082761
  0
LINE
  5
3CA
100
AcDbEntity
  8
ASSI
100
AcDbLine
 62
7
  6
CONTINUOUS
 10
10.3498142773
 20
18.3500850257
 11
10.3361549744
 21
17.049284733
  0
LINE
  5
3CB
100
AcDbEntity
  8
ASSI
100
AcDbLine
 62
7
  6
CONTINUOUS
 10
10.4277492834
 20
3.2195603825
 11
10.4321188624
 21
3.6416904042
  0
LINE
  5
3CC
100
AcDbEntity
  8
ASSI
100
AcDbLine
 62
7
  6
CONTINUOUS
 10
10.3361549744
 20
17.049284733
 11
10.3324254304
 21
16.7080143684
  0
LINE
  5
3CD
100
AcDbEntity
  8
ASSI
100
AcDbLine
 62
250
  6
CONTINUOUS
 10
8.1127616888
 20
-9.8189603452
 11
8.0866851709
 21
-12.1094505073
  0
LINE
  5
3CE
100
AcDbEntity
  8
ASSI
100
AcDbLine
 62
7
  6
CONTINUOUS
 10
10.3314509398
 20
-11.0685244468
 11
10.3282898088
 21
-11.3517497924
  0
LINE
  5
3CF
100
AcDbEntity
  8
ASSI
100
AcDbLine
 62
250
  6
CONTINUOUS
 10
7.714701237
 20
-28.6450414784
 11
7.712319052
 21
-28.8467181453
  0
LINE
  5
3D0
100
AcDbEntity
  8
ASSI
100
AcDbLine
 62
7
  6
CONTINUOUS
 10
10.4321188624
 20
3.6416904042
 11
10.4386906868
 21
4.1592097188
  0
LINE
  5
3D1
100
AcDbEntity
  8
ASSI
100
AcDbLine
 62
7
  6
CONTINUOUS
 10
10.3977862547
 20
-9.5820418075
 11
10.3932864372
 21
-9.9148100935
  0
LWPOLYLINE
  5
3D2
100
AcDbEntity
  8
ASSI
100
AcDbPolyline
 62
250
  6
CONTINUOUS
 90
5
 70
0
 10
8.7621889825
 20
-25.9444906157
 10
8.7567098167
 20
-26.3150597483
 10
8.7517626831
 20
-26.6890766254
 10
8.7473640353
 20
-27.0680441778
 10
8.7435709951
 20
-27.4518213075
  0
LWPOLYLINE
  5
3D3
100
AcDbEntity
  8
ASSI
100
AcDbPolyline
 62
7
  6
CONTINUOUS
 90
3
 70
0
 10
10.3649312033
 20
-7.4089569324
 10
10.3669233169
 20
-7.2806523316
 10
10.3753626892
 20
-6.6387087375
  0
LINE
  5
3D4
100
AcDbEntity
  8
ASSI
100
AcDbLine
 62
7
  6
CONTINUOUS
 10
10.4645995881
 20
-7.4089569324
 11
10.4719648617
 21
-6.8955702942
  0
LINE
  5
3D5
100
AcDbEntity
  8
ASSI
100
AcDbLine
 62
250
  6
CONTINUOUS
 10
9.1918370939
 20
-8.9592587028
 11
9.1878655141
 21
-9.2376549832
  0
LINE
  5
3D6
100
AcDbEntity
  8
ASSI
100
AcDbLine
 62
7
  6
CONTINUOUS
 10
10.2844693149
 20
-10.8727790279
 11
10.2799970424
 21
-11.1746363554
  0
LINE
  5
3D7
100
AcDbEntity
  8
ASSI
100
AcDbLine
 62
7
  6
CONTINUOUS
 10
10.4386906868
 20
4.1592097188
 11
10.4460030702
 21
4.6401161437
  0
LINE
  5
3D8
100
AcDbEntity
  8
ASSI
100
AcDbLine
 62
7
  6
CONTINUOUS
 10
10.3932864372
 20
-9.9148100935
 11
10.3905795896
 21
-10.0811917643
  0
LINE
  5
3D9
100
AcDbEntity
  8
ASSI
100
AcDbLine
 62
250
  6
CONTINUOUS
 10
8.0866851709
 20
-12.1094505073
 11
8.0751081352
 21
-12.8339109122
  0
LINE
  5
3DA
100
AcDbEntity
  8
ASSI
100
AcDbLine
 62
250
  6
CONTINUOUS
 10
8.7743683141
 20
-25.2236206365
 11
8.7621889825
 21
-25.9444906157
  0
LINE
  5
3DB
100
AcDbEntity
  8
ASSI
100
AcDbLine
 62
7
  6
CONTINUOUS
 10
10.3372212957
 20
-10.7194318981
 11
10.3314509398
 21
-11.0685244468
  0
LINE
  5
3DC
100
AcDbEntity
  8
ASSI
100
AcDbLine
 62
7
  6
CONTINUOUS
 10
10.4460030702
 20
4.6401161437
 11
10.4500005891
 21
4.8749980086
  0
LINE
  5
3DD
100
AcDbEntity
  8
ASSI
100
AcDbLine
 62
250
  6
CONTINUOUS
 10
8.0751081352
 20
-12.8339109122
 11
8.061940731
 21
-13.556578782
  0
LWPOLYLINE
  5
3DE
100
AcDbEntity
  8
ASSI
100
AcDbPolyline
 62
250
  6
CONTINUOUS
 90
3
 70
0
 10
9.1878655141
 20
-9.2376549832
 10
9.1808763735
 20
-9.6181225408
 10
9.178849723
 20
-9.7196946386
  0
LINE
  5
3DF
100
AcDbEntity
  8
ASSI
100
AcDbLine
 62
7
  6
CONTINUOUS
 10
10.2909205922
 20
-10.5245844974
 11
10.2844693149
 21
-10.8727790279
  0
LINE
  5
3E0
100
AcDbEntity
  8
ASSI
100
AcDbLine
 62
250
  6
CONTINUOUS
 10
9.1671688026
 20
-10.558016017
 11
9.1526634152
 21
-11.3411731642
  0
LINE
  5
3E1
100
AcDbEntity
  8
ASSI
100
AcDbLine
 62
250
  6
CONTINUOUS
 10
8.7875033083
 20
-24.546185407
 11
8.7743683141
 21
-25.2236206365
  0
LINE
  5
3E2
100
AcDbEntity
  8
ASSI
100
AcDbLine
 62
7
  6
CONTINUOUS
 10
10.481240658
 20
-5.7679062565
 11
10.4748233565
 21
-6.0953592998
  0
LINE
  5
3E3
100
AcDbEntity
  8
ASSI
100
AcDbLine
 62
7
  6
CONTINUOUS
 10
10.3452502452
 20
-10.3188169268
 11
10.3372212957
 21
-10.7194318981
  0
LINE
  5
3E4
100
AcDbEntity
  8
ASSI
100
AcDbLine
 62
250
  6
CONTINUOUS
 10
9.1526634152
 20
-11.3411731642
 11
9.1395077937
 21
-11.9862046322
  0
LINE
  5
3E5
100
AcDbEntity
  8
ASSI
100
AcDbLine
 62
250
  6
CONTINUOUS
 10
8.061940731
 20
-13.556578782
 11
8.0471822063
 21
-14.2773231049
  0
LINE
  5
3E6
100
AcDbEntity
  8
ASSI
100
AcDbLine
 62
250
  6
CONTINUOUS
 10
8.8009396434
 20
-23.9186310293
 11
8.7875033083
 21
-24.546185407
  0
LINE
  5
3E7
100
AcDbEntity
  8
ASSI
100
AcDbLine
 62
7
  6
CONTINUOUS
 10
10.299192402
 20
-10.1372042329
 11
10.2909205922
 21
-10.5245844974
  0
LINE
  5
3E8
100
AcDbEntity
  8
ASSI
100
AcDbLine
 62
250
  6
CONTINUOUS
 10
7.7299561079
 20
-27.8223011144
 11
7.714701237
 21
-28.6450414784
  0
LINE
  5
3E9
100
AcDbEntity
  8
ASSI
100
AcDbLine
 62
250
  6
CONTINUOUS
 10
10.0241142933
 20
-9.7604592942
 11
10.0864519578
 21
-7.0384696835
  0
LINE
  5
3EA
100
AcDbEntity
  8
ASSI
100
AcDbLine
 62
7
  6
CONTINUOUS
 10
10.3552671477
 20
-9.8769212443
 11
10.3452502452
 21
-10.3188169268
  0
LINE
  5
3EB
100
AcDbEntity
  8
ASSI
100
AcDbLine
 62
250
  6
CONTINUOUS
 10
8.0471822063
 20
-14.2773231049
 11
8.030829964
 21
-14.9960190136
  0
LINE
  5
3EC
100
AcDbEntity
  8
ASSI
100
AcDbLine
 62
250
  6
CONTINUOUS
 10
9.1395077937
 20
-11.9862046322
 11
9.1257794658
 21
-12.5871177181
  0
LINE
  5
3ED
100
AcDbEntity
  8
ASSI
100
AcDbLine
 62
250
  6
CONTINUOUS
 10
8.8148741708
 20
-23.3178355583
 11
8.8009396434
 21
-23.9186310293
  0
LINE
  5
3EE
100
AcDbEntity
  8
ASSI
100
AcDbLine
 62
7
  6
CONTINUOUS
 10
10.4748233565
 20
-6.0953592998
 11
10.4672640212
 21
-6.422778076
  0
LINE
  5
3EF
100
AcDbEntity
  8
ASSI
100
AcDbLine
 62
250
  6
CONTINUOUS
 10
8.030829964
 20
-14.9960190136
 11
7.9985154045
 21
-16.3089570081
  0
LINE
  5
3F0
100
AcDbEntity
  8
ASSI
100
AcDbLine
 62
7
  6
CONTINUOUS
 10
10.3145299151
 20
-9.5000196818
 11
10.299192402
 21
-10.1372042329
  0
LINE
  5
3F1
100
AcDbEntity
  8
ASSI
100
AcDbLine
 62
250
  6
CONTINUOUS
 10
8.8311753705
 20
-22.661813269
 11
8.8148741708
 21
-23.3178355583
  0
LINE
  5
3F2
100
AcDbEntity
  8
ASSI
100
AcDbLine
 62
250
  6
CONTINUOUS
 10
9.1257794658
 20
-12.5871177181
 11
9.1106326923
 21
-13.2032238635
  0
LINE
  5
3F3
100
AcDbEntity
  8
ASSI
100
AcDbLine
 62
250
  6
CONTINUOUS
 10
7.9985154045
 20
-16.3089570081
 11
7.9742424342
 21
-17.2589814828
  0
LINE
  5
3F4
100
AcDbEntity
  8
ASSI
100
AcDbLine
 62
250
  6
CONTINUOUS
 10
9.1106326923
 20
-13.2032238635
 11
9.0948050199
 21
-13.811281619
  0
LINE
  5
3F5
100
AcDbEntity
  8
ASSI
100
AcDbLine
 62
7
  6
CONTINUOUS
 10
10.3730896696
 20
-9.174407693
 11
10.3552671477
 21
-9.8769212443
  0
LINE
  5
3F6
100
AcDbEntity
  8
ASSI
100
AcDbLine
 62
250
  6
CONTINUOUS
 10
7.9742424342
 20
-17.2589814828
 11
7.9492352853
 21
-18.2043142905
  0
LINE
  5
3F7
100
AcDbEntity
  8
ASSI
100
AcDbLine
 62
7
  6
CONTINUOUS
 10
10.4672640212
 20
-6.422778076
 11
10.4585623228
 21
-6.7501615683
  0
LINE
  5
3F8
100
AcDbEntity
  8
ASSI
100
AcDbLine
 62
250
  6
CONTINUOUS
 10
7.9492352853
 20
-18.2043142905
 11
7.9234859001
 21
-19.1446746516
  0
LINE
  5
3F9
100
AcDbEntity
  8
ASSI
100
AcDbLine
 62
250
  6
CONTINUOUS
 10
9.0948050199
 20
-13.811281619
 11
9.0770510571
 21
-14.4759349665
  0
LINE
  5
3FA
100
AcDbEntity
  8
ASSI
100
AcDbLine
 62
7
  6
CONTINUOUS
 10
10.3319981887
 20
-8.8494225737
 11
10.3145299151
 21
-9.5000196818
  0
LINE
  5
3FB
100
AcDbEntity
  8
ASSI
100
AcDbLine
 62
7
  6
CONTINUOUS
 10
10.4129355897
 20
-9.429923177
 11
10.4297910237
 21
-8.7926498764
  0
LWPOLYLINE
  5
3FC
100
AcDbEntity
  8
ASSI
100
AcDbPolyline
 62
250
  6
CONTINUOUS
 90
10
 70
0
 10
7.9234859001
 20
-19.1446746516
 10
7.8837059093
 20
-20.5550363018
 10
7.8588504308
 20
-21.48922441
 10
7.8357671895
 20
-22.4151430436
 10
7.8146246722
 20
-23.330882643
 10
7.7952549358
 20
-24.2377826035
 10
7.7771535362
 20
-25.1403108609
 10
7.7601523955
 20
-26.0396410807
 10
7.7444198753
 20
-26.9337732486
 10
7.7299561079
 20
-27.8223011144
  0
LINE
  5
3FD
100
AcDbEntity
  8
ASSI
100
AcDbLine
 62
7
  6
CONTINUOUS
 10
10.4092634144
 20
-9.5573740636
 11
10.4129355897
 21
-9.429923177
  0
LWPOLYLINE
  5
3FE
100
AcDbEntity
  8
ASSI
100
AcDbPolyline
 62
250
  6
CONTINUOUS
 90
4
 70
0
 10
8.8784331514
 20
-20.9500510501
 10
8.8647296952
 20
-21.4239699223
 10
8.852142767
 20
-21.8756741757
 10
8.8311753705
 20
-22.661813269
  0
LINE
  5
3FF
100
AcDbEntity
  8
ASSI
100
AcDbLine
 62
7
  6
CONTINUOUS
 10
10.3929739393
 20
-8.4721724248
 11
10.3730896696
 21
-9.174407693
  0
LINE
  5
400
100
AcDbEntity
  8
ASSI
100
AcDbLine
 62
250
  6
CONTINUOUS
 10
8.9828277208
 20
-17.5575122775
 11
8.9657937293
 21
-18.1482301651
  0
LINE
  5
401
100
AcDbEntity
  8
ASSI
100
AcDbLine
 62
250
  6
CONTINUOUS
 10
9.0554305762
 20
-15.1988950602
 11
9.0292877539
 21
-16.0880268453
  0
LWPOLYLINE
  5
402
100
AcDbEntity
  8
ASSI
100
AcDbPolyline
 62
250
  6
CONTINUOUS
 90
3
 70
0
 10
9.0770510571
 20
-14.4759349665
 10
9.0635767994
 20
-14.9343124404
 10
9.0554305762
 20
-15.1988950602
  0
LINE
  5
403
100
AcDbEntity
  8
ASSI
100
AcDbLine
 62
7
  6
CONTINUOUS
 10
10.3508529534
 20
-8.2130381547
 11
10.3319981887
 21
-8.8494225737
  0
LINE
  5
404
100
AcDbEntity
  8
ASSI
100
AcDbLine
 62
250
  6
CONTINUOUS
 10
9.0292877539
 20
-16.0880268453
 11
9.003893584
 21
-16.9227670572
  0
LWPOLYLINE
  5
405
100
AcDbEntity
  8
ASSI
100
AcDbPolyline
 62
250
  6
CONTINUOUS
 90
3
 70
0
 10
8.932409008
 20
-19.1877412792
 10
8.9088899781
 20
-19.944362395
 10
8.8784331514
 20
-20.9500510501
  0
LINE
  5
406
100
AcDbEntity
  8
ASSI
100
AcDbLine
 62
7
  6
CONTINUOUS
 10
10.4066688234
 20
-8.0306611622
 11
10.3929739393
 21
-8.4721724248
  0
LINE
  5
407
100
AcDbEntity
  8
ASSI
100
AcDbLine
 62
250
  6
CONTINUOUS
 10
8.9657937293
 20
-18.1482301651
 11
8.932409008
 21
-19.1877412792
  0
LINE
  5
408
100
AcDbEntity
  8
ASSI
100
AcDbLine
 62
250
  6
CONTINUOUS
 10
9.003893584
 20
-16.9227670572
 11
8.9828277208
 21
-17.5575122775
  0
LINE
  5
409
100
AcDbEntity
  8
ASSI
100
AcDbLine
 62
250
  6
CONTINUOUS
 10
8.7432695515
 20
-27.8750347575
 11
8.7340914724
 21
-28.1481448493
  0
LINE
  5
40A
100
AcDbEntity
  8
ASSI
100
AcDbLine
 62
7
  6
CONTINUOUS
 10
10.3695506268
 20
-7.6462112184
 11
10.3508529534
 21
-8.2130381547
  0
LINE
  5
40B
100
AcDbEntity
  8
ASSI
100
AcDbLine
 62
7
  6
CONTINUOUS
 10
10.4201368612
 20
-7.6303897783
 11
10.4066688234
 21
-8.0306611622
  0
LINE
  5
40C
100
AcDbEntity
  8
ASSI
100
AcDbLine
 62
7
  6
CONTINUOUS
 10
10.3816097535
 20
-7.3193895747
 11
10.3695506268
 21
-7.6462112184
  0
LINE
  5
40D
100
AcDbEntity
  8
ASSI
100
AcDbLine
 62
7
  6
CONTINUOUS
 10
10.433100338
 20
-7.2815492243
 11
10.4201368612
 21
-7.6303897783
  0
LINE
  5
40E
100
AcDbEntity
  8
ASSI
100
AcDbLine
 62
7
  6
CONTINUOUS
 10
10.3495721582
 20
-11.4545775255
 11
10.369779156
 21
-10.9410665579
  0
LINE
  5
40F
100
AcDbEntity
  8
ASSI
100
AcDbLine
 62
7
  6
CONTINUOUS
 10
10.2446103839
 20
-11.582947927
 11
10.2701252001
 21
-10.9410670076
  0
LINE
  5
410
100
AcDbEntity
  8
ASSI
100
AcDbLine
 62
7
  6
CONTINUOUS
 10
10.2392017743
 20
-11.7113152025
 11
10.2446103839
 21
-11.582947927
  0
LINE
  5
411
100
AcDbEntity
  8
ASSI
100
AcDbLine
 62
7
  6
CONTINUOUS
 10
10.3388576706
 20
-11.7113152025
 11
10.3442658301
 21
-11.5829478479
  0
LINE
  5
412
100
AcDbEntity
  8
ASSI
100
AcDbLine
 62
7
  6
CONTINUOUS
 10
10.3010551673
 20
-11.7219882088
 11
10.2720777558
 21
-12.3706971641
  0
LINE
  5
413
100
AcDbEntity
  8
ASSI
100
AcDbLine
 62
7
  6
CONTINUOUS
 10
10.3315301852
 20
-11.7240926292
 11
10.3117151693
 21
-12.1747322985
  0
LWPOLYLINE
  5
414
100
AcDbEntity
  8
ASSI
100
AcDbPolyline
 62
7
  6
CONTINUOUS
 90
3
 70
0
 10
10.3981068182
 20
-6.9356114047
 10
10.3928396115
 20
-7.0484837845
 10
10.3816097535
 20
-7.3193895747
  0
LINE
  5
415
100
AcDbEntity
  8
ASSI
100
AcDbLine
 62
7
  6
CONTINUOUS
 10
10.3117151693
 20
-12.1747322985
 11
10.2934233668
 21
-12.5666743172
  0
LWPOLYLINE
  5
416
100
AcDbEntity
  8
ASSI
100
AcDbPolyline
 62
7
  6
CONTINUOUS
 90
3
 70
0
 10
10.4506619982
 20
-6.8848523898
 10
10.4451354866
 20
-6.998513113
 10
10.433100338
 20
-7.2815492243
  0
LWPOLYLINE
  5
417
100
AcDbEntity
  8
ASSI
100
AcDbPolyline
 62
7
  6
CONTINUOUS
 90
16
 70
0
 10
10.2200483155
 20
-7.6467913912
 10
10.2112263003
 20
-7.8260504378
 10
10.2026276341
 20
-8.0160589414
 10
10.1943873051
 20
-8.2137798567
 10
10.1864807474
 20
-8.4202495063
 10
10.1789141344
 20
-8.6344294457
 10
10.1718995011
 20
-8.8501712982
 10
10.1654927014
 20
-9.0664457638
 10
10.1596439013
 20
-9.2842812217
 10
10.1544366179
 20
-9.5006168624
 10
10.1498651731
 20
-9.7165499417
 10
10.1459282116
 20
-9.9309828721
 10
10.1427466489
 20
-10.1375638554
 10
10.1403719253
 20
-10.3350981259
 10
10.138772414
 20
-10.5247821712
 10
10.1379750241
 20
-10.7038523375
  0
LWPOLYLINE
  5
418
100
AcDbEntity
  8
ASSI
100
AcDbPolyline
 62
7
  6
CONTINUOUS
 90
15
 70
0
 10
10.2709392685
 20
-7.6309583563
 10
10.2613289982
 20
-7.8251972251
 10
10.252046295
 20
-8.0313553356
 10
10.2430632028
 20
-8.2491236707
 10
10.234603144
 20
-8.4729380638
 10
10.2266871146
 20
-8.7029520216
 10
10.2192842599
 20
-8.9390098811
 10
10.2125817696
 20
-9.1750849131
 10
10.2066099673
 20
-9.411188245
 10
10.2013381867
 20
-9.6473078643
 10
10.1969047246
 20
-9.8773839414
 10
10.1933490767
 20
-10.101260717
 10
10.1906412638
 20
-10.3190949289
 10
10.1888572013
 20
-10.5252972226
 10
10.1880416232
 20
-10.7195534388
  0
LINE
  5
419
100
AcDbEntity
  8
ASSI
100
AcDbLine
 62
7
  6
CONTINUOUS
 10
10.4030439952
 20
-6.8397957733
 11
10.3981068182
 21
-6.9356114047
  0
LWPOLYLINE
  5
41A
100
AcDbEntity
  8
ASSI
100
AcDbPolyline
 62
7
  6
CONTINUOUS
 90
6
 70
0
 10
10.4417077317
 20
-7.6718339093
 10
10.4477344664
 20
-7.5506187466
 10
10.4505289304
 20
-7.5020302007
 10
10.4531391767
 20
-7.4621078121
 10
10.4555664636
 20
-7.4309726742
 10
10.4577663101
 20
-7.4089569324
  0
LINE
  5
41B
100
AcDbEntity
  8
ASSI
100
AcDbLine
 62
7
  6
CONTINUOUS
 10
10.4558180744
 20
-6.7915378725
 11
10.4506619982
 21
-6.8848523898
  0
LWPOLYLINE
  5
41C
100
AcDbEntity
  8
ASSI
100
AcDbPolyline
 62
7
  6
CONTINUOUS
 90
4
 70
0
 10
10.2477809626
 20
-7.1765572244
 10
10.2384584739
 20
-7.3198212328
 10
10.2291377687
 20
-7.4779306038
 10
10.2200483155
 20
-7.6467913912
  0
LWPOLYLINE
  5
41D
100
AcDbEntity
  8
ASSI
100
AcDbPolyline
 62
7
  6
CONTINUOUS
 90
4
 70
0
 10
10.3009660062
 20
-7.1322311049
 10
10.2908650328
 20
-7.2819606352
 10
10.280865765
 20
-7.4483322796
 10
10.2709392685
 20
-7.6309583563
  0
LWPOLYLINE
  5
41E
100
AcDbEntity
  8
ASSI
100
AcDbPolyline
 62
7
  6
CONTINUOUS
 90
3
 70
0
 10
10.2664580087
 20
-6.935818571
 10
10.2571099989
 20
-7.0487643095
 10
10.2477809626
 20
-7.1765572244
  0
LWPOLYLINE
  5
41F
100
AcDbEntity
  8
ASSI
100
AcDbPolyline
 62
7
  6
CONTINUOUS
 90
3
 70
0
 10
10.3211727451
 20
-6.8850241617
 10
10.3111575132
 20
-6.9987582311
 10
10.3009660062
 20
-7.1322311049
  0
LWPOLYLINE
  5
420
100
AcDbEntity
  8
ASSI
100
AcDbPolyline
 62
250
  6
CONTINUOUS
 90
5
 70
0
 10
9.8177740173
 20
-5.7953381916
 10
9.8181908661
 20
-5.7907429223
 10
9.8184410353
 20
-5.7884726521
 10
9.8188013286
 20
-5.786221703
 10
9.8193441252
 20
-5.7839894738
  0
LINE
  5
421
100
AcDbEntity
  8
ASSI
100
AcDbLine
 62
7
  6
CONTINUOUS
 10
10.2756347161
 20
-6.8399396209
 11
10.2664580087
 21
-6.935818571
  0
LWPOLYLINE
  5
422
100
AcDbEntity
  8
ASSI
100
AcDbPolyline
 62
250
  6
CONTINUOUS
 90
8
 70
0
 10
9.8380649302
 20
-6.6061955189
 10
9.8380333755
 20
-6.6065030977
 10
9.8376496416
 20
-6.607261714
 10
9.8368311694
 20
-6.6080340408
 10
9.8355797645
 20
-6.6088190193
 10
9.8338976647
 20
-6.6096160367
 10
9.8317862072
 20
-6.610424969
 10
9.8292470473
 20
-6.6112454566
  0
LWPOLYLINE
  5
423
100
AcDbEntity
  8
ASSI
100
AcDbPolyline
 62
250
  6
CONTINUOUS
 90
3
 70
0
 10
9.8172523362
 20
-5.8000400973
 10
9.8175390022
 20
-5.7976738461
 10
9.8177740173
 20
-5.7953381916
  0
LINE
  5
424
100
AcDbEntity
  8
ASSI
100
AcDbLine
 62
250
  6
CONTINUOUS
 10
9.8165951192
 20
-5.8048550787
 11
9.8172523362
 21
-5.8000400973
  0
LWPOLYLINE
  5
425
100
AcDbEntity
  8
ASSI
100
AcDbPolyline
 62
250
  6
CONTINUOUS
 90
10
 70
0
 10
-8.8690350046
 20
-30.0456809735
 10
-8.8954255376
 20
-30.0813634108
 10
-8.8980079974
 20
-30.0847416264
 10
-8.900625796
 20
-30.0880481208
 10
-8.9032879222
 20
-30.0913108182
 10
-8.9059851197
 20
-30.0944675911
 10
-8.9086900427
 20
-30.0973782985
 10
-8.9113938813
 20
-30.0999933586
 10
-8.9141039387
 20
-30.1023859218
 10
-8.9168133068
 20
-30.10468745
  0
LWPOLYLINE
  5
426
100
AcDbEntity
  8
ASSI
100
AcDbPolyline
 62
250
  6
CONTINUOUS
 90
10
 70
0
 10
9.8061684465
 20
-4.8918037649
 10
9.7534210107
 20
-4.9587308189
 10
9.6985846962
 20
-5.0214723051
 10
9.640838101
 20
-5.0813396825
 10
9.5787713495
 20
-5.1398808897
 10
9.5119464679
 20
-5.197429299
 10
9.4412440985
 20
-5.253284949
 10
9.3665914724
 20
-5.3076827152
 10
9.286708604
 20
-5.3616432591
 10
9.1995377996
 20
-5.4164041006
  0
LWPOLYLINE
  5
427
100
AcDbEntity
  8
ASSI
100
AcDbPolyline
 62
7
  6
CONTINUOUS
 90
10
 70
0
 10
9.8079022127
 20
-5.5933863354
 10
9.808517389
 20
-5.592877076
 10
9.8090993646
 20
-5.5931470383
 10
9.8096502352
 20
-5.594196284
 10
9.8102057072
 20
-5.5958369229
 10
9.8107307087
 20
-5.5982570324
 10
9.8111369094
 20
-5.602020523
 10
9.811409139
 20
-5.6073153075
 10
9.8115878718
 20
-5.6139534332
 10
9.8116776663
 20
-5.6219349073
  0
LWPOLYLINE
  5
428
100
AcDbEntity
  8
ASSI
100
AcDbPolyline
 62
7
  6
CONTINUOUS
 90
3
 70
0
 10
10.3658280141
 20
-10.9593190371
 10
10.3642560276
 20
-10.9548708387
 10
10.3629517408
 20
-10.9412540745
  0
LINE
  5
429
100
AcDbEntity
  8
ASSI
100
AcDbLine
 62
7
  6
CONTINUOUS
 10
10.4616268675
 20
-7.3906750023
 11
10.4632292458
 21
-7.3953166644
  0
LINE
  5
42A
100
AcDbEntity
  8
ASSI
100
AcDbLine
 62
7
  6
CONTINUOUS
 10
10.3324016225
 20
-11.7143445476
 11
10.3350781593
 21
-11.723507994
  0
LWPOLYLINE
  5
42B
100
AcDbEntity
  8
ASSI
100
AcDbPolyline
 62
7
  6
CONTINUOUS
 90
5
 70
0
 10
10.2566831895
 20
-10.9555068894
 10
10.2509315397
 20
-10.9344732189
 10
10.2457781634
 20
-10.8939861031
 10
10.2412638556
 20
-10.8346623701
 10
10.2375402445
 20
-10.7583534661
  0
LINE
  5
42C
100
AcDbEntity
  8
ASSI
100
AcDbLine
 62
7
  6
CONTINUOUS
 10
10.4750393263
 20
-6.6387087375
 11
10.4719139925
 21
-6.6262980006
  0
LINE
  5
42D
100
AcDbEntity
  8
ASSI
100
AcDbLine
 62
250
  6
CONTINUOUS
 10
11.3535548017
 20
-20.4329810129
 11
11.5135552842
 21
-21.4295894183
  0
LINE
  5
42E
100
AcDbEntity
  8
ASSI
100
AcDbLine
 62
7
  6
CONTINUOUS
 10
11.5076943643
 20
-21.201246601
 11
11.3830240638
 21
-20.419218491
  0
LINE
  5
42F
100
AcDbEntity
  8
ASSI
100
AcDbLine
 62
250
  6
CONTINUOUS
 10
11.2556306032
 20
-19.8145611195
 11
11.3535548017
 21
-20.4329810129
  0
LINE
  5
430
100
AcDbEntity
  8
ASSI
100
AcDbLine
 62
250
  6
CONTINUOUS
 10
11.5135552842
 20
-21.4295894183
 11
11.5161002886
 21
-21.4457950159
  0
LINE
  5
431
100
AcDbEntity
  8
ASSI
100
AcDbLine
 62
7
  6
CONTINUOUS
 10
11.3830240638
 20
-20.419218491
 11
11.2655758071
 21
-19.6740480412
  0
LINE
  5
432
100
AcDbEntity
  8
ASSI
100
AcDbLine
 62
7
  6
CONTINUOUS
 10
11.2655758071
 20
-19.6740480412
 11
11.1940423645
 21
-19.2139301166
  0
LWPOLYLINE
  5
433
100
AcDbEntity
  8
ASSI
100
AcDbPolyline
 62
250
  6
CONTINUOUS
 90
3
 70
0
 10
11.0934690772
 20
-18.7721921066
 10
11.1241672669
 20
-18.9720071002
 10
11.1723997749
 20
-19.282409495
  0
LINE
  5
434
100
AcDbEntity
  8
ASSI
100
AcDbLine
 62
7
  6
CONTINUOUS
 10
11.1723997749
 20
-19.282409495
 11
11.2556306032
 21
-19.8145611195
  0
LINE
  5
435
100
AcDbEntity
  8
ASSI
100
AcDbLine
 62
7
  6
CONTINUOUS
 10
11.020356745
 20
-18.2906697974
 11
11.0896044254
 21
-18.7456379038
  0
LINE
  5
436
100
AcDbEntity
  8
ASSI
100
AcDbLine
 62
7
  6
CONTINUOUS
 10
11.1940423645
 20
-19.2139301166
 11
11.0938755349
 21
-18.5593471201
  0
LINE
  5
437
100
AcDbEntity
  8
ASSI
100
AcDbLine
 62
7
  6
CONTINUOUS
 10
11.0938755349
 20
-18.5593471201
 11
11.0280174653
 21
-18.1236904182
  0
LWPOLYLINE
  5
438
100
AcDbEntity
  8
ASSI
100
AcDbPolyline
 62
7
  6
CONTINUOUS
 90
9
 70
0
 10
11.0280174653
 20
-18.1236904182
 10
10.9351284269
 20
-17.4971205123
 10
10.8373967192
 20
-16.8220205408
 10
10.7359456422
 20
-16.1009601399
 10
10.6320642419
 20
-15.3368079827
 10
10.5275760026
 20
-14.5358135189
 10
10.423973693
 20
-13.7012504383
 10
10.3228207573
 20
-12.8365760277
 10
10.2261743553
 20
-11.949251379
  0
LINE
  5
439
100
AcDbEntity
  8
ASSI
100
AcDbLine
 62
250
  6
CONTINUOUS
 10
11.0896044254
 20
-18.7456379038
 11
11.0934690772
 21
-18.7721921066
  0
LWPOLYLINE
  5
43A
100
AcDbEntity
  8
ASSI
100
AcDbPolyline
 62
7
  6
CONTINUOUS
 90
4
 70
0
 10
11.5077235646
 20
-21.2014305841
 10
11.5165133128
 20
-21.2739393721
 10
11.5200187435
 20
-21.3597598698
 10
11.5161028706
 20
-21.4457952456
  0
LWPOLYLINE
  5
43B
100
AcDbEntity
  8
ASSI
100
AcDbPolyline
 62
7
  6
CONTINUOUS
 90
16
 70
0
 10
11.5161002885
 20
-21.4457950162
 10
11.463399499
 20
-21.9832659411
 10
11.3990546837
 20
-22.5346592599
 10
11.3215813687
 20
-23.1053672653
 10
11.2294708963
 20
-23.6966761778
 10
11.1215991128
 20
-24.3073766623
 10
10.9977728081
 20
-24.9317529739
 10
10.8542728665
 20
-25.581168043
 10
10.6907600495
 20
-26.2492754139
 10
10.5141145856
 20
-26.9058480935
 10
10.3242847993
 20
-27.5528531558
 10
10.1197320578
 20
-28.1961210392
 10
9.9091697289
 20
-28.8109451459
 10
9.6970592319
 20
-29.3900856678
 10
9.4812890429
 20
-29.9443203791
 10
9.262995438
 20
-30.4743094309
  0
LWPOLYLINE
  5
43C
100
AcDbEntity
  8
ASSI
100
AcDbPolyline
 62
250
  6
CONTINUOUS
 90
3
 70
0
 10
11.1664483631
 20
-21.3738230279
 10
11.2468689553
 20
-20.7603543806
 10
11.3115854893
 20
-20.1688984643
  0
LINE
  5
43D
100
AcDbEntity
  8
ASSI
100
AcDbLine
 62
7
  6
CONTINUOUS
 10
10.4577663101
 20
-7.4089569324
 11
10.4598399491
 21
-7.395034672
  0
LWPOLYLINE
  5
43E
100
AcDbEntity
  8
ASSI
100
AcDbPolyline
 62
7
  6
CONTINUOUS
 90
3
 70
0
 10
10.369779156
 20
-10.9410665579
 10
10.3676685167
 20
-10.954717677
 10
10.3658280141
 20
-10.9593190371
  0
LINE
  5
43F
100
AcDbEntity
  8
ASSI
100
AcDbLine
 62
7
  6
CONTINUOUS
 10
10.3350781593
 20
-11.723507994
 11
10.3388576706
 21
-11.7113152025
  0
LINE
  5
440
100
AcDbEntity
  8
ASSI
100
AcDbLine
 62
7
  6
CONTINUOUS
 10
10.345426285
 20
-7.4153732441
 11
10.3522918727
 21
-7.3944701558
  0
LWPOLYLINE
  5
441
100
AcDbEntity
  8
ASSI
100
AcDbPolyline
 62
7
  6
CONTINUOUS
 90
5
 70
0
 10
10.4719139925
 20
-6.6262980006
 10
10.4687681939
 20
-6.6353651986
 10
10.4649393715
 20
-6.6657156054
 10
10.4606142558
 20
-6.7179529961
 10
10.4558180744
 20
-6.7915378725
  0
LWPOLYLINE
  5
442
100
AcDbEntity
  8
ASSI
100
AcDbPolyline
 62
250
  6
CONTINUOUS
 90
3
 70
0
 10
9.719860745
 20
-6.9207792908
 10
9.7755405208
 20
-6.7771581476
 10
9.8296268064
 20
-6.6232529852
  0
LINE
  5
443
100
AcDbEntity
  8
ASSI
100
AcDbLine
 62
7
  6
CONTINUOUS
 10
10.4598399491
 20
-7.395034672
 11
10.4616268675
 21
-7.3906750023
  0
LWPOLYLINE
  5
444
100
AcDbEntity
  8
ASSI
100
AcDbPolyline
 62
7
  6
CONTINUOUS
 90
6
 70
0
 10
10.421907224
 20
-6.6262152963
 10
10.4193081721
 20
-6.6325401665
 10
10.4158452659
 20
-6.6569052092
 10
10.4119553421
 20
-6.6999833323
 10
10.40765907
 20
-6.7613606326
 10
10.4030439952
 20
-6.8397957733
  0
LWPOLYLINE
  5
445
100
AcDbEntity
  8
ASSI
100
AcDbPolyline
 62
7
  6
CONTINUOUS
 90
3
 70
0
 10
10.2701252001
 20
-10.9410670076
 10
10.2630834842
 20
-10.9577048087
 10
10.2606540137
 20
-10.9590862959
  0
LWPOLYLINE
  5
446
100
AcDbEntity
  8
ASSI
100
AcDbPolyline
 62
250
  6
CONTINUOUS
 90
3
 70
0
 10
9.5980686184
 20
-7.1901861748
 10
9.6612832593
 20
-7.0572857644
 10
9.719860745
 20
-6.9207792908
  0
LINE
  5
447
100
AcDbEntity
  8
ASSI
100
AcDbLine
 62
7
  6
CONTINUOUS
 10
10.2298929611
 20
-11.7234968628
 11
10.2392017743
 21
-11.7113152025
  0
LWPOLYLINE
  5
448
100
AcDbEntity
  8
ASSI
100
AcDbPolyline
 62
250
  6
CONTINUOUS
 90
6
 70
0
 10
9.1958887936
 20
-7.8152763194
 10
9.2905029758
 20
-7.6922929892
 10
9.3766389495
 20
-7.5699566479
 10
9.4556984744
 20
-7.4468241006
 10
9.5293928579
 20
-7.3204357935
 10
9.5980686184
 20
-7.1901861748
  0
LWPOLYLINE
  5
449
100
AcDbEntity
  8
ASSI
100
AcDbPolyline
 62
250
  6
CONTINUOUS
 90
10
 70
0
 10
-9.1505220912
 20
-30.3575367589
 10
-9.1771982666
 20
-30.3884484598
 10
-9.1991474149
 20
-30.413007596
 10
-9.217028626
 20
-30.4317940734
 10
-9.2313825664
 20
-30.4441627418
 10
-9.2430532118
 20
-30.4519298065
 10
-9.2523564987
 20
-30.4587163192
 10
-9.2589269136
 20
-30.465368694
 10
-9.2625458207
 20
-30.4706167471
 10
-9.262995438
 20
-30.4743094309
  0
LWPOLYLINE
  5
44A
100
AcDbEntity
  8
ASSI
100
AcDbPolyline
 62
7
  6
CONTINUOUS
 90
6
 70
0
 10
10.3667112382
 20
-6.6262947207
 10
10.3588412651
 20
-6.635370969
 10
10.3500046216
 20
-6.6657435691
 10
10.3407089491
 20
-6.7180167655
 10
10.331020346
 20
-6.7916503188
 10
10.3211727451
 20
-6.8850241617
  0
LINE
  5
44B
100
AcDbEntity
  8
ASSI
100
AcDbLine
 62
250
  6
CONTINUOUS
 10
-8.9160257971
 20
-30.1066405717
 11
-8.9793524437
 21
-30.1754286293
  0
LINE
  5
44C
100
AcDbEntity
  8
ASSI
100
AcDbLine
 62
250
  6
CONTINUOUS
 10
-9.1325590457
 20
-30.3383646086
 11
-9.1505220912
 21
-30.3575367589
  0
LINE
  5
44D
100
AcDbEntity
  8
ASSI
100
AcDbLine
 62
250
  6
CONTINUOUS
 10
-8.9793524437
 20
-30.1754286293
 11
-9.0295984126
 21
-30.2292148553
  0
LINE
  5
44E
100
AcDbEntity
  8
ASSI
100
AcDbLine
 62
250
  6
CONTINUOUS
 10
-9.0750687679
 20
-30.2772824151
 11
-9.1030615684
 21
-30.3071540559
  0
LINE
  5
44F
100
AcDbEntity
  8
ASSI
100
AcDbLine
 62
250
  6
CONTINUOUS
 10
-9.1030615684
 20
-30.3071540559
 11
-9.1325590457
 21
-30.3383646086
  0
LINE
  5
450
100
AcDbEntity
  8
ASSI
100
AcDbLine
 62
250
  6
CONTINUOUS
 10
-9.0295984126
 20
-30.2292148553
 11
-9.0750687679
 21
-30.2772824151
  0
LWPOLYLINE
  5
451
100
AcDbEntity
  8
ASSI
100
AcDbPolyline
 62
7
  6
CONTINUOUS
 90
6
 70
0
 10
10.3166781331
 20
-6.6262124357
 10
10.3101302563
 20
-6.6325443609
 10
10.3020193822
 20
-6.6569279092
 10
10.2935087181
 20
-6.7000357755
 10
10.2846517707
 20
-6.7614537572
 10
10.2756347161
 20
-6.8399396209
  0
LINE
  5
452
100
AcDbEntity
  8
ASSI
100
AcDbLine
 62
7
  6
CONTINUOUS
 10
10.3522918727
 20
-7.3944701558
 11
10.3564278888
 21
-7.3909355604
  0
LWPOLYLINE
  5
453
100
AcDbEntity
  8
ASSI
100
AcDbPolyline
 62
250
  6
CONTINUOUS
 90
13
 70
0
 10
9.1395077937
 20
-11.9862046322
 10
9.0952969767
 20
-12.0033667262
 10
9.0410994752
 20
-12.0196580943
 10
8.9773974978
 20
-12.0349598043
 10
8.9045858586
 20
-12.0491681011
 10
8.8232462455
 20
-12.0621390261
 10
8.7342490613
 20
-12.0737054244
 10
8.6382866191
 20
-12.0837629083
 10
8.5361533294
 20
-12.0922533698
 10
8.4290054652
 20
-12.0991073085
 10
8.3178403346
 20
-12.1042806812
 10
8.2034460277
 20
-12.1077410948
 10
8.0866852851
 20
-12.1094505064
  0
LWPOLYLINE
  5
454
100
AcDbEntity
  8
ASSI
100
AcDbPolyline
 62
250
  6
CONTINUOUS
 90
16
 70
0
 10
9.1794890821
 20
-9.7194478112
 10
9.1478575076
 20
-9.7299301795
 10
9.1084999394
 20
-9.7403367801
 10
9.0623522381
 20
-9.750336472
 10
9.0096315483
 20
-9.7598542046
 10
8.950506652
 20
-9.768871026
 10
8.8856040214
 20
-9.7772830393
 10
8.8154522957
 20
-9.7850180365
 10
8.7402706521
 20
-9.7920420227
 10
8.6603862729
 20
-9.7983237754
 10
8.5761117761
 20
-9.8038469605
 10
8.488074264
 20
-9.8085735024
 10
8.3971672711
 20
-9.8124623644
 10
8.304047405
 20
-9.8154954999
 10
8.2090825305
 20
-9.8176658531
 10
8.1127612101
 20
-9.8189605551
  0
LINE
  5
455
100
AcDbEntity
  8
ASSI
100
AcDbLine
 62
7
  6
CONTINUOUS
 10
10.4196503238
 20
14.0998830257
 11
10.3896559448
 21
14.0998830257
  0
LINE
  5
456
100
AcDbEntity
  8
ASSI
100
AcDbLine
 62
7
  6
CONTINUOUS
 10
10.3319526727
 20
14.0998830257
 11
10.3019451318
 21
14.0998830257
  0
LINE
  5
457
100
AcDbEntity
  8
ASSI
100
AcDbLine
 62
7
  6
CONTINUOUS
 10
-10.3852039712
 20
14.0998940257
 11
-10.4152136975
 21
14.0998940257
  0
LINE
  5
458
100
AcDbEntity
  8
ASSI
100
AcDbLine
 62
7
  6
CONTINUOUS
 10
-10.3441052364
 20
14.0999040257
 11
-10.374121132
 21
14.0999040257
  0
LINE
  5
459
100
AcDbEntity
  8
ASSI
100
AcDbLine
 62
7
  6
CONTINUOUS
 10
-10.4360659073
 20
14.0999040257
 11
-10.4660680025
 21
14.0999040257
  0
LINE
  5
45A
100
AcDbEntity
  8
ASSI
100
AcDbLine
 62
7
  6
CONTINUOUS
 10
-10.244740301
 20
14.0999150257
 11
-10.2747711222
 21
14.0999150257
  0
LINE
  5
45B
100
AcDbEntity
  8
ASSI
100
AcDbLine
 62
7
  6
CONTINUOUS
 10
-10.4405578022
 20
14.9357310257
 11
-10.4627183268
 21
14.9357310257
  0
LINE
  5
45C
100
AcDbEntity
  8
ASSI
100
AcDbLine
 62
7
  6
CONTINUOUS
 10
-10.4591396999
 20
15.7432620257
 11
-10.445539431
 21
15.7432620257
  0
LINE
  5
45D
100
AcDbEntity
  8
ASSI
100
AcDbLine
 62
7
  6
CONTINUOUS
 10
-10.2837118829
 20
15.8454887045
 11
-10.3137368477
 21
15.8454887045
  0
LINE
  5
45E
100
AcDbEntity
  8
ASSI
100
AcDbLine
 62
7
  6
CONTINUOUS
 10
-10.3485882331
 20
15.7432620257
 11
-10.3741163526
 21
15.7432730257
  0
LWPOLYLINE
  5
45F
100
AcDbEntity
  8
ASSI
100
AcDbPolyline
 62
250
  6
CONTINUOUS
 90
14
 70
0
 10
8.9160257971
 20
-30.1066405717
 10
9.1473842229
 20
-29.5089789307
 10
9.3705727351
 20
-28.8858983695
 10
9.5863225555
 20
-28.2384198081
 10
9.7961092052
 20
-27.563586801
 10
9.9985696503
 20
-26.8664198725
 10
10.1901648763
 20
-26.1605080728
 10
10.3718328802
 20
-25.4438158673
 10
10.5427454215
 20
-24.7199618419
 10
10.6980568876
 20
-24.0113313012
 10
10.836912434
 20
-23.3258870696
 10
10.9612484656
 20
-22.6572259346
 10
11.0711399035
 20
-22.0061917512
 10
11.1664483631
 20
-21.3738230279
  0
LWPOLYLINE
  5
460
100
AcDbEntity
  8
ASSI
100
AcDbPolyline
 62
250
  6
CONTINUOUS
 90
16
 70
0
 10
8.7448983173
 20
-27.4485403327
 10
8.9772136407
 20
-26.8529664537
 10
9.2004361683
 20
-26.2405788714
 10
9.4154340606
 20
-25.6129771312
 10
9.624312669
 20
-24.9658587108
 10
9.8248496189
 20
-24.3070540764
 10
10.0113000549
 20
-23.6576405713
 10
10.1829459196
 20
-23.0235357582
 10
10.3413979876
 20
-22.4014242809
 10
10.485344967
 20
-21.7985903952
 10
10.6139858342
 20
-21.2210903565
 10
10.7288078883
 20
-20.6645174209
 10
10.8315812135
 20
-20.1203275534
 10
10.9222142325
 20
-19.5866453586
 10
10.9993813922
 20
-19.0665693913
 10
11.0617430689
 20
-18.5642045736
  0
LWPOLYLINE
  5
461
100
AcDbEntity
  8
ASSI
100
AcDbPolyline
 62
250
  6
CONTINUOUS
 90
13
 70
0
 10
8.8917939928
 20
-30.0773213505
 10
8.8456872815
 20
-30.184504457
 10
8.7907337828
 20
-30.2876517644
 10
8.7266889281
 20
-30.3852562988
 10
8.6540157053
 20
-30.4769875938
 10
8.5733375777
 20
-30.5620984734
 10
8.4853596008
 20
-30.639686875
 10
8.3907635835
 20
-30.7089964137
 10
8.2904215228
 20
-30.769489935
 10
8.1853614276
 20
-30.8206427461
 10
8.0764885323
 20
-30.8620434775
 10
7.9643998914
 20
-30.8934852291
 10
7.8496715187
 20
-30.9147832886
  0
LWPOLYLINE
  5
462
100
AcDbEntity
  8
ASSI
100
AcDbPolyline
 62
250
  6
CONTINUOUS
 90
13
 70
0
 10
8.9253786755
 20
-30.116824399
 10
8.8792365276
 20
-30.2231638815
 10
8.8237663529
 20
-30.3250174148
 10
8.7594309715
 20
-30.4216744776
 10
8.6866220482
 20
-30.5125061212
 10
8.6058815038
 20
-30.5966797279
 10
8.5179785851
 20
-30.6732315025
 10
8.423531145
 20
-30.741524477
 10
8.3233033234
 20
-30.801134014
 10
8.2183925302
 20
-30.8515511645
 10
8.1097429831
 20
-30.8924287054
 10
7.9980996021
 20
-30.9235051523
 10
7.8842818001
 20
-30.9444781333
  0
LWPOLYLINE
  5
463
100
AcDbEntity
  8
ASSI
100
AcDbPolyline
 62
250
  6
CONTINUOUS
 90
13
 70
0
 10
9.1505220911
 20
-30.3575367591
 10
9.1031585915
 20
-30.4602368059
 10
9.0469853876
 20
-30.5584970241
 10
8.9824479238
 20
-30.6516570185
 10
8.909911173
 20
-30.7391442187
 10
8.8299115331
 20
-30.8201609358
 10
8.743238654
 20
-30.8937666717
 10
8.6505089393
 20
-30.9593658279
 10
8.5524086047
 20
-31.0165985123
 10
8.4499386115
 20
-31.065016124
 10
8.3439573701
 20
-31.1043159535
 10
8.2351402505
 20
-31.1342728711
 10
8.1242301177
 20
-31.1546253541
  0
LWPOLYLINE
  5
464
100
AcDbEntity
  8
ASSI
100
AcDbPolyline
 62
7
  6
CONTINUOUS
 90
7
 70
0
 10
9.262995438
 20
-30.4743094309
 10
9.2148077455
 20
-30.5757397638
 10
9.1582694874
 20
-30.6723102514
 10
9.0937886622
 20
-30.7635025595
 10
9.0217582333
 20
-30.8488079103
 10
8.9424943662
 20
-30.9277794637
 10
8.8523870102
 20
-31.0029744958
  0
LINE
  5
465
100
AcDbEntity
  8
ASSI
100
AcDbLine
 62
250
  6
CONTINUOUS
 10
-7.884281699
 20
-30.9444783638
 11
-8.0063534221
 21
-31.0520812729
  0
LINE
  5
466
100
AcDbEntity
  8
ASSI
100
AcDbLine
 62
250
  6
CONTINUOUS
 10
-8.0063534221
 20
-31.0520812729
 11
-8.0817163445
 21
-31.1178758849
  0
LWPOLYLINE
  5
467
100
AcDbEntity
  8
ASSI
100
AcDbPolyline
 62
250
  6
CONTINUOUS
 90
7
 70
0
 10
-8.1908901418
 20
-31.2108502807
 10
-8.2067987602
 20
-31.2246535024
 10
-8.2196155192
 20
-31.2359778371
 10
-8.2297198846
 20
-31.2447689349
 10
-8.2372384416
 20
-31.251008144
 10
-8.2420449329
 20
-31.2547119622
 10
-8.2441394495
 20
-31.2558787247
  0
LINE
  5
468
100
AcDbEntity
  8
ASSI
100
AcDbLine
 62
250
  6
CONTINUOUS
 10
-8.0817163445
 20
-31.1178758849
 11
-8.1242301168
 21
-31.1546253516
  0
LINE
  5
469
100
AcDbEntity
  8
ASSI
100
AcDbLine
 62
250
  6
CONTINUOUS
 10
-7.8496696628
 20
-30.9147690237
 11
-7.884281699
 21
-30.9444783638
  0
LWPOLYLINE
  5
46A
100
AcDbEntity
  8
ASSI
100
AcDbPolyline
 62
250
  6
CONTINUOUS
 90
3
 70
0
 10
-8.1242301168
 20
-31.1546253516
 10
-8.1495430586
 20
-31.1758452273
 10
-8.1908901418
 20
-31.2108502807
  0
LWPOLYLINE
  5
46B
100
AcDbEntity
  8
ASSI
100
AcDbPolyline
 62
250
  6
CONTINUOUS
 90
13
 70
0
 10
8.9256075101
 20
-19.4082103942
 10
8.8763889346
 20
-19.4368075461
 10
8.8189197025
 20
-19.4638800051
 10
8.753641983
 20
-19.4892468877
 10
8.6809165629
 20
-19.5127509433
 10
8.6012773147
 20
-19.5341737418
 10
8.5155072117
 20
-19.5532619486
 10
8.4242102099
 20
-19.5698589149
 10
8.3280071955
 20
-19.5838878883
 10
8.2278012435
 20
-19.5952567866
 10
8.1243676695
 20
-19.6039082962
 10
8.0183204878
 20
-19.6098010523
 10
7.910333598
 20
-19.6128856866
  0
LWPOLYLINE
  5
46C
100
AcDbEntity
  8
ASSI
100
AcDbPolyline
 62
250
  6
CONTINUOUS
 90
13
 70
0
 10
9.0554305762
 20
-15.1988950602
 10
9.0084148614
 20
-15.2209462533
 10
8.9523900184
 20
-15.2417928293
 10
8.8878071713
 20
-15.261295208
 10
8.8150388982
 20
-15.2793312268
 10
8.7346256869
 20
-15.2957330245
 10
8.6473577996
 20
-15.3103070285
 10
8.5538581679
 20
-15.3229320316
 10
8.4548381041
 20
-15.3335404809
 10
8.3513285924
 20
-15.3420525918
 10
8.2442164545
 20
-15.3484183287
 10
8.1342025982
 20
-15.3526009166
 10
8.0220564829
 20
-15.3545569185
  0
LINE
  5
46D
100
AcDbEntity
  8
ASSI
100
AcDbLine
 62
7
  6
CONTINUOUS
 10
-10.3744995943
 20
16.5295550257
 11
-10.3382180918
 21
16.5295550257
  0
LINE
  5
46E
100
AcDbEntity
  8
ASSI
100
AcDbLine
 62
7
  6
CONTINUOUS
 10
10.4196505695
 20
18.3500850257
 11
10.3896508408
 21
18.3500850257
  0
LINE
  5
46F
100
AcDbEntity
  8
ASSI
100
AcDbLine
 62
7
  6
CONTINUOUS
 10
10.3798199835
 20
18.3500850257
 11
10.3498142773
 21
18.3500850257
  0
LINE
  5
470
100
AcDbEntity
  8
ASSI
100
AcDbLine
 62
7
  6
CONTINUOUS
 10
10.2747564323
 20
18.3500850257
 11
10.2447349474
 21
18.3500850257
  0
LINE
  5
471
100
AcDbEntity
  8
ASSI
100
AcDbLine
 62
7
  6
CONTINUOUS
 10
-10.3037139001
 20
18.3500960257
 11
-10.3999770997
 21
18.3500960257
  0
LINE
  5
472
100
AcDbEntity
  8
ASSI
100
AcDbLine
 62
7
  6
CONTINUOUS
 10
-10.4152872853
 20
18.3500960257
 11
-10.4452924955
 21
18.3500960257
  0
LWPOLYLINE
  5
473
100
AcDbEntity
  8
ASSI
100
AcDbPolyline
 62
250
  6
CONTINUOUS
 90
13
 70
0
 10
8.7253833852
 20
-28.7279366497
 10
8.6773035085
 20
-28.7930519424
 10
8.6210244855
 20
-28.854975436
 10
8.556788246
 20
-28.9134800706
 10
8.4848764445
 20
-28.9683134556
 10
8.4058370236
 20
-29.0190429797
 10
8.3203293171
 20
-29.0651786051
 10
8.2289835394
 20
-29.1063079551
 10
8.1325557437
 20
-29.1421436739
 10
8.0319227211
 20
-29.1724084712
 10
7.9278590289
 20
-29.1968837427
 10
7.8208851309
 20
-29.2154572903
 10
7.7115048374
 20
-29.2280285953
  0
LWPOLYLINE
  5
474
100
AcDbEntity
  8
ASSI
100
AcDbPolyline
 62
250
  6
CONTINUOUS
 90
13
 70
0
 10
8.7446858281
 20
-27.4964048703
 10
8.6943435952
 20
-27.5396840636
 10
8.6363325918
 20
-27.5807455297
 10
8.5710390333
 20
-27.6193611236
 10
8.4989222786
 20
-27.6552690995
 10
8.4203114913
 20
-27.6882783107
 10
8.3353461529
 20
-27.7182393548
 10
8.2442415421
 20
-27.7449568016
 10
8.1478720881
 20
-27.7681753062
 10
8.0473771518
 20
-27.7876604746
 10
7.9437185791
 20
-27.8032575459
 10
7.8376305085
 20
-27.8148508708
 10
7.7299565042
 20
-27.8223010949
  0
LINE
  5
475
100
AcDbEntity
  8
ASSI
100
AcDbLine
 62
7
  6
CONTINUOUS
 10
-0.0
 20
26.446541328
 11
-8.0972593109
 21
26.3764664449
  0
LINE
  5
476
100
AcDbEntity
  8
ASSI
100
AcDbLine
 62
250
  6
CONTINUOUS
 10
-10.4500000058
 20
26.3597181001
 11
-9.1861370032
 21
26.3706187733
  0
LINE
  5
477
100
AcDbEntity
  8
ASSI
100
AcDbLine
 62
250
  6
CONTINUOUS
 10
-8.0972593525
 20
26.3764664456
 11
-9.1861373203
 21
26.3706187585
  0
LINE
  5
478
100
AcDbEntity
  8
ASSI
100
AcDbLine
 62
250
  6
CONTINUOUS
 10
8.0972593525
 20
26.3764664456
 11
9.1861373203
 21
26.3706187585
  0
LINE
  5
479
100
AcDbEntity
  8
ASSI
100
AcDbLine
 62
7
  6
CONTINUOUS
 10
0.0
 20
26.446541328
 11
8.0972593109
 21
26.3764664449
  0
LINE
  5
47A
100
AcDbEntity
  8
ASSI
100
AcDbLine
 62
250
  6
CONTINUOUS
 10
10.4500000058
 20
26.3597181001
 11
9.1861370032
 21
26.3706187733
  0
LWPOLYLINE
  5
47B
100
AcDbEntity
  8
ASSI
100
AcDbPolyline
 62
250
  6
CONTINUOUS
 90
13
 70
0
 10
8.7384138677
 20
-28.0225370094
 10
8.6891913228
 20
-28.0663399058
 10
8.6317484926
 20
-28.1076515624
 10
8.5665065256
 20
-28.1462199218
 10
8.4938183102
 20
-28.1818229482
 10
8.4141844746
 20
-28.2141597575
 10
8.3283184194
 20
-28.2428854358
 10
8.2367667358
 20
-28.2677833601
 10
8.1401858706
 20
-28.2887167463
 10
8.0395493971
 20
-28.305524713
 10
7.9356745316
 20
-28.3181112127
 10
7.8291799076
 20
-28.3264088404
 10
7.7207611545
 20
-28.3303352952
  0
LWPOLYLINE
  5
47C
100
AcDbEntity
  8
ASSI
100
AcDbPolyline
 62
7
  6
CONTINUOUS
 90
7
 70
0
 10
8.8523778624
 20
-31.0029814528
 10
8.7646908881
 20
-31.0641397752
 10
8.6679308188
 20
-31.1201800326
 10
8.5669710292
 20
-31.1675814733
 10
8.4623031239
 20
-31.2061622103
 10
8.3544957368
 20
-31.2356804706
 10
8.2441359819
 20
-31.2558791794
  0
LWPOLYLINE
  5
47D
100
AcDbEntity
  8
0
100
AcDbPolyline
 62
7
  6
CONTINUOUS
 90
4
 70
0
 10
-8.9352767604
 20
26.8618876249
 10
-8.9516691469
 20
26.8588210128
 10
-8.9679142713
 20
26.8552394309
 10
-8.9840245556
 20
26.8511390577
  0
LWPOLYLINE
  5
47E
100
AcDbEntity
  8
ASSI
100
AcDbPolyline
 62
7
  6
CONTINUOUS
 90
16
 70
0
 10
-9.9543632692
 20
26.8596899291
 10
-10.0064611079
 20
26.8565311242
 10
-10.0576308695
 20
26.848031043
 10
-10.1075257626
 20
26.8342818951
 10
-10.1558121995
 20
26.8153697451
 10
-10.2020610458
 20
26.7914509048
 10
-10.245698744
 20
26.762826988
 10
-10.2861885554
 20
26.729797302
 10
-10.3229987151
 20
26.6926655566
 10
-10.3556751938
 20
26.6518896197
 10
-10.3839189409
 20
26.6080035917
 10
-10.4074350477
 20
26.5615469556
 10
-10.4259265321
 20
26.5130965949
 10
-10.4392408424
 20
26.4630833277
 10
-10.4472950264
 20
26.4118412927
 10
-10.4500000058
 20
26.3597181001
  0
LWPOLYLINE
  5
47F
100
AcDbEntity
  8
0
100
AcDbPolyline
 62
7
  6
CONTINUOUS
 90
6
 70
0
 10
-8.851702155
 20
26.8693127071
 10
-8.8686072551
 20
26.8688897307
 10
-8.8854147813
 20
26.8679364986
 10
-8.9021247336
 20
26.8664530108
 10
-8.918749534
 20
26.8644354457
 10
-8.9352767604
 20
26.8618876249
  0
LINE
  5
480
100
AcDbEntity
  8
ASSI
100
AcDbLine
 62
7
  6
CONTINUOUS
 10
-8.7033887851
 20
26.8706070182
 11
0.0
 21
26.9465603415
  0
LINE
  5
481
100
AcDbEntity
  8
0
100
AcDbLine
 62
7
  6
CONTINUOUS
 10
-8.7033887851
 20
26.8706070182
 11
-8.851702155
 21
26.8693127071
  0
LINE
  5
482
100
AcDbEntity
  8
0
100
AcDbLine
 62
7
  6
CONTINUOUS
 10
-9.0000000056
 20
26.8680185313
 11
-9.950718135
 21
26.8597217399
  0
LINE
  5
483
100
AcDbEntity
  8
0
100
AcDbLine
 62
7
  6
CONTINUOUS
 10
8.9784396842
 20
26.9465603415
 11
0.0
 21
26.9465603415
  0
LINE
  5
484
100
AcDbEntity
  8
0
100
AcDbLine
 62
7
  6
CONTINUOUS
 10
-7.6124897373
 20
26.9465603415
 11
-8.9784396842
 21
26.9465603415
  0
LINE
  5
485
100
AcDbEntity
  8
ASSI
100
AcDbLine
 62
7
  6
CONTINUOUS
 10
4.5
 20
26.9965603415
 11
6.542090971
 21
26.9965603415
  0
LINE
  5
486
100
AcDbEntity
  8
ASSI
100
AcDbLine
 62
7
  6
CONTINUOUS
 10
8.7033887851
 20
26.8706070182
 11
0.0
 21
26.9465603415
  0
LINE
  5
487
100
AcDbEntity
  8
0
100
AcDbLine
 62
7
  6
CONTINUOUS
 10
8.7033887851
 20
26.8706070182
 11
8.851702155
 21
26.8693127071
  0
LINE
  5
488
100
AcDbEntity
  8
0
100
AcDbLine
 62
7
  6
CONTINUOUS
 10
9.0
 20
26.8680185314
 11
9.950718135
 21
26.8597217399
  0
LINE
  5
489
100
AcDbEntity
  8
0
100
AcDbLine
 62
7
  6
CONTINUOUS
 10
8.8686072234
 20
26.8688897333
 11
8.851702155
 21
26.8693127071
  0
LWPOLYLINE
  5
48A
100
AcDbEntity
  8
ASSI
100
AcDbPolyline
 62
7
  6
CONTINUOUS
 90
16
 70
0
 10
9.9543632692
 20
26.8596899291
 10
10.0064611079
 20
26.8565311242
 10
10.0576308695
 20
26.848031043
 10
10.1075257626
 20
26.8342818951
 10
10.1558121995
 20
26.8153697451
 10
10.2020610458
 20
26.7914509048
 10
10.245698744
 20
26.762826988
 10
10.2861885554
 20
26.729797302
 10
10.3229987151
 20
26.6926655566
 10
10.3556751938
 20
26.6518896197
 10
10.3839189409
 20
26.6080035917
 10
10.4074350477
 20
26.5615469556
 10
10.4259265321
 20
26.5130965949
 10
10.4392408424
 20
26.4630833277
 10
10.4472950264
 20
26.4118412927
 10
10.4500000058
 20
26.3597181001
  0
LWPOLYLINE
  5
48B
100
AcDbEntity
  8
0
100
AcDbPolyline
 62
7
  6
CONTINUOUS
 90
8
 70
0
 10
8.9840245267
 20
26.8511390643
 10
8.9679142202
 20
26.8552394421
 10
8.9516690806
 20
26.8588210263
 10
8.9352766854
 20
26.8618876379
 10
8.9187494571
 20
26.864435456
 10
8.9021246632
 20
26.8664530182
 10
8.8854147261
 20
26.8679365037
 10
8.8686072234
 20
26.8688897333
  0
LINE
  5
48C
100
AcDbEntity
  8
0
100
AcDbLine
 62
7
  6
CONTINUOUS
 10
9.0
 20
26.8465198932
 11
8.9840245267
 21
26.8511390643
  0
LWPOLYLINE
  5
48D
100
AcDbEntity
  8
ASSI
100
AcDbPolyline
 62
250
  6
CONTINUOUS
 90
16
 70
0
 10
8.0341674081
 20
26.8793193252
 10
8.0412482857
 20
26.8764948242
 10
8.0481944773
 20
26.868181965
 10
8.0549295148
 20
26.8544771039
 10
8.0613786165
 20
26.8355377064
 10
8.0674714548
 20
26.8115760087
 10
8.0731426224
 20
26.7828525149
 10
8.0783249993
 20
26.7496789301
 10
8.0829651063
 20
26.7124252321
 10
8.0870258867
 20
26.6715109297
 10
8.0904666833
 20
26.6273987666
 10
8.0932456517
 20
26.5805680773
 10
8.0953338246
 20
26.5315141845
 10
8.0967078529
 20
26.4807683672
 10
8.0973512585
 20
26.4288955205
 10
8.0972593558
 20
-3.5389999747
  0
LWPOLYLINE
  5
48E
100
AcDbEntity
  8
0
100
AcDbPolyline
 62
7
  6
CONTINUOUS
 90
6
 70
0
 43
0.3500000006
 10
0.1071428532
 20
43.5750016479
 10
1.1785713937
 20
43.5750016479
 10
1.3928570824
 20
43.7892861328
 10
1.3928570824
 20
44.860713089
 10
0.9642857051
 20
45.2892865906
 10
0.5357142924
 20
45.2892865906
  0
LWPOLYLINE
  5
48F
100
AcDbEntity
  8
0
100
AcDbPolyline
 62
7
  6
CONTINUOUS
 90
7
 70
0
 43
0.3500000006
 10
-0.7500000165
 20
43.5750016479
 10
-2.2499999785
 20
43.5750016479
 10
-0.7500000165
 20
45.7178555603
 10
-0.7500000165
 20
46.1464290619
 10
-1.1785713937
 20
46.5749980316
 10
-1.8214286013
 20
46.5749980316
 10
-2.2499999785
 20
45.932144577
  0
LINE
  5
490
100
AcDbEntity
  8
ASSI
100
AcDbLine
 62
7
  6
CONTINUOUS
 10
-51.3735215002
 20
-34.8250000257
 11
-60.3765985132
 21
-34.8250000257
  0
LWPOLYLINE
  5
491
100
AcDbEntity
  8
ASSI
100
AcDbPolyline
 62
7
  6
CONTINUOUS
 90
25
 70
0
 10
-45.8655067389
 20
-31.4068228296
 10
-45.6597329338
 20
-31.3852529467
 10
-45.4557071905
 20
-31.3553686135
 10
-45.2534295089
 20
-31.31716983
 10
-45.052557469
 20
-31.2705644156
 10
-44.8534334908
 20
-31.2156445509
 10
-44.6570848348
 20
-31.1526867777
 10
-44.4635451068
 20
-31.08165681
 10
-44.2727807009
 20
-31.0025889338
 10
-44.0857180598
 20
-30.9158625495
 10
-43.9023490463
 20
-30.8214267666
 10
-43.7226817976
 20
-30.7193324756
 10
-43.5476671675
 20
-30.6101117478
 10
-43.3773308506
 20
-30.4937222077
 10
-43.2116471522
 20
-30.3702062308
 10
-43.051489842
 20
-30.2402230159
 10
-42.896910823
 20
-30.1037610558
 10
-42.7478581922
 20
-29.9608318577
 10
-42.6050500103
 20
-29.8121291409
 10
-42.4684888415
 20
-29.6575848954
 10
-42.3381721217
 20
-29.4972671311
 10
-42.214810218
 20
-29.3320735983
 10
-42.0986399199
 20
-29.1623035469
 10
-41.9894244379
 20
-28.9876577269
 10
-41.8871637723
 20
-28.8081361383
  0
LINE
  5
492
100
AcDbEntity
  8
ASSI
100
AcDbLine
 62
250
  6
CONTINUOUS
 10
-50.5750486129
 20
-34.0250000257
 11
-61.1750486129
 21
-34.0250000257
  0
LINE
  5
493
100
AcDbEntity
  8
ASSI
100
AcDbLine
 62
250
  6
CONTINUOUS
 10
-50.5750486129
 20
-33.4552728394
 11
-61.1750486129
 21
-33.4552728394
  0
LINE
  5
494
100
AcDbEntity
  8
ASSI
100
AcDbLine
 62
250
  6
CONTINUOUS
 10
-50.4566275603
 20
-33.3086346109
 11
-61.2934696656
 21
-33.3086346109
  0
LINE
  5
495
100
AcDbEntity
  8
ASSI
100
AcDbLine
 62
250
  6
CONTINUOUS
 10
-49.8250486129
 20
-32.5265640584
 11
-61.9250486129
 21
-32.5265640585
  0
LWPOLYLINE
  5
496
100
AcDbEntity
  8
ASSI
100
AcDbPolyline
 62
250
  6
CONTINUOUS
 90
13
 70
0
 10
-46.1457953042
 20
-30.0779283772
 10
-45.874005108
 20
-30.0456809735
 10
-45.6084045693
 20
-29.997087172
 10
-45.3495534498
 20
-29.932696357
 10
-45.0982328674
 20
-29.8531943677
 10
-44.8548612266
 20
-29.7591249927
 10
-44.6194318657
 20
-29.6507191325
 10
-44.3922523408
 20
-29.5285263929
 10
-44.1741097929
 20
-29.393124331
 10
-43.9656807045
 20
-29.2447564787
 10
-43.7674962242
 20
-29.0839696596
 10
-43.579917398
 20
-28.9115493556
 10
-43.4032658849
 20
-28.7281505158
  0
LINE
  5
497
100
AcDbEntity
  8
ASSI
100
AcDbLine
 62
250
  6
CONTINUOUS
 10
-46.1457953042
 20
-30.0779283772
 11
-46.2100471461
 21
-30.0847416264
  0
LWPOLYLINE
  5
498
100
AcDbEntity
  8
ASSI
100
AcDbPolyline
 62
250
  6
CONTINUOUS
 90
5
 70
0
 10
-46.2100471461
 20
-30.0847416264
 10
-46.2776235823
 20
-30.0913108182
 10
-46.3126896636
 20
-30.0944675911
 10
-46.3478569324
 20
-30.0973782985
 10
-46.3828996058
 20
-30.0999933586
  0
LINE
  5
499
100
AcDbEntity
  8
ASSI
100
AcDbLine
 62
250
  6
CONTINUOUS
 10
-46.4527305632
 20
-30.1066405717
 11
-46.7683097429
 21
-30.130909183
  0
LINE
  5
49A
100
AcDbEntity
  8
ASSI
100
AcDbLine
 62
250
  6
CONTINUOUS
 10
-46.7683097429
 20
-30.130909183
 11
-47.1856792459
 21
-30.1618264484
  0
LINE
  5
49B
100
AcDbEntity
  8
ASSI
100
AcDbLine
 62
250
  6
CONTINUOUS
 10
-47.1856792459
 20
-30.1618264484
 11
-47.4964400591
 21
-30.1838956323
  0
LINE
  5
49C
100
AcDbEntity
  8
ASSI
100
AcDbLine
 62
250
  6
CONTINUOUS
 10
-46.1734807341
 20
-30.9147690237
 11
-46.556281591
 21
-30.9412404112
  0
LINE
  5
49D
100
AcDbEntity
  8
ASSI
100
AcDbLine
 62
250
  6
CONTINUOUS
 10
-47.4964400591
 20
-30.1838956323
 11
-47.8940188912
 21
-30.2108057787
  0
LWPOLYLINE
  5
49E
100
AcDbEntity
  8
ASSI
100
AcDbPolyline
 62
250
  6
CONTINUOUS
 90
10
 70
0
 10
-46.556281591
 20
-30.9412404112
 10
-47.0437987916
 20
-30.9735063196
 10
-47.4837675651
 20
-31.0011163633
 10
-47.9240568846
 20
-31.0273080404
 10
-48.3646743938
 20
-31.0520812729
 10
-48.805604696
 20
-31.0754348042
 10
-49.2468093376
 20
-31.0973666335
 10
-49.6882729449
 20
-31.1178758849
 10
-50.1300032364
 20
-31.136962373
 10
-50.5719964132
 20
-31.1546253516
  0
LINE
  5
49F
100
AcDbEntity
  8
ASSI
100
AcDbLine
 62
250
  6
CONTINUOUS
 10
-46.3828996058
 20
-30.0999933586
 11
-46.4532526386
 21
-30.10468745
  0
LINE
  5
4A0
100
AcDbEntity
  8
ASSI
100
AcDbLine
 62
250
  6
CONTINUOUS
 10
-47.8940188912
 20
-30.2108057787
 11
-48.1781608453
 21
-30.2292148553
  0
LINE
  5
4A1
100
AcDbEntity
  8
ASSI
100
AcDbLine
 62
250
  6
CONTINUOUS
 10
-48.1781608453
 20
-30.2292148553
 11
-48.5249227783
 21
-30.2506661628
  0
LINE
  5
4A2
100
AcDbEntity
  8
ASSI
100
AcDbLine
 62
250
  6
CONTINUOUS
 10
-61.9250486129
 20
-31.8148701276
 11
-61.9128008841
 21
-31.8141342305
  0
LINE
  5
4A3
100
AcDbEntity
  8
ASSI
100
AcDbLine
 62
250
  6
CONTINUOUS
 10
-48.5249227783
 20
-30.2506661628
 11
-48.8408494894
 21
-30.2693914564
  0
LINE
  5
4A4
100
AcDbEntity
  8
ASSI
100
AcDbLine
 62
250
  6
CONTINUOUS
 10
-48.8408494894
 20
-30.2693914564
 11
-49.2848230231
 21
-30.2944667769
  0
LINE
  5
4A5
100
AcDbEntity
  8
ASSI
100
AcDbLine
 62
250
  6
CONTINUOUS
 10
-49.2848230231
 20
-30.2944667769
 11
-49.6461722853
 21
-30.3137190936
  0
LINE
  5
4A6
100
AcDbEntity
  8
ASSI
100
AcDbLine
 62
250
  6
CONTINUOUS
 10
-49.6461722853
 20
-30.3137190936
 11
-49.9613740303
 21
-30.3295747139
  0
LINE
  5
4A7
100
AcDbEntity
  8
ASSI
100
AcDbLine
 62
250
  6
CONTINUOUS
 10
-62.0671770775
 20
-31.6651112996
 11
-61.7555107704
 21
-31.6494317102
  0
LINE
  5
4A8
100
AcDbEntity
  8
ASSI
100
AcDbLine
 62
250
  6
CONTINUOUS
 10
-61.9128008841
 20
-31.8141342305
 11
-61.4885330432
 21
-31.7925677654
  0
LINE
  5
4A9
100
AcDbEntity
  8
ASSI
100
AcDbLine
 62
250
  6
CONTINUOUS
 10
-61.4885330432
 20
-31.7925677654
 11
-61.1598473625
 21
-31.7768322024
  0
LINE
  5
4AA
100
AcDbEntity
  8
ASSI
100
AcDbLine
 62
250
  6
CONTINUOUS
 10
-61.7555107704
 20
-31.6494317102
 11
-61.4637512309
 21
-31.635480505
  0
LINE
  5
4AB
100
AcDbEntity
  8
ASSI
100
AcDbLine
 62
250
  6
CONTINUOUS
 10
-49.9613740303
 20
-30.3295747139
 11
-50.3419202494
 21
-30.3477090222
  0
LINE
  5
4AC
100
AcDbEntity
  8
ASSI
100
AcDbLine
 62
250
  6
CONTINUOUS
 10
-61.4637512309
 20
-31.635480505
 11
-61.0864480341
 21
-31.6185011254
  0
LWPOLYLINE
  5
4AD
100
AcDbEntity
  8
ASSI
100
AcDbPolyline
 62
250
  6
CONTINUOUS
 90
10
 70
0
 10
-50.3419202494
 20
-30.3477090222
 10
-51.2602515034
 20
-30.3884484598
 10
-51.9208877699
 20
-30.413007596
 10
-52.5399317363
 20
-30.4317940734
 10
-53.0989370628
 20
-30.4441627418
 10
-53.6162033342
 20
-30.4519298065
 10
-54.1468664591
 20
-30.4587163192
 10
-54.7093790985
 20
-30.465368694
 10
-55.2854177076
 20
-30.4706167471
 10
-55.875048613
 20
-30.4743094309
  0
LWPOLYLINE
  5
4AE
100
AcDbEntity
  8
ASSI
100
AcDbPolyline
 62
250
  6
CONTINUOUS
 90
4
 70
0
 10
-61.1598473625
 20
-31.7768322024
 10
-60.7533655289
 20
-31.7588721571
 10
-60.5242136674
 20
-31.74922183
 10
-60.2852219471
 20
-31.7397818312
  0
LWPOLYLINE
  5
4AF
100
AcDbEntity
  8
ASSI
100
AcDbPolyline
 62
250
  6
CONTINUOUS
 90
4
 70
0
 10
-61.0864480341
 20
-31.6185011254
 10
-60.632951334
 20
-31.5998422272
 10
-60.3896453541
 20
-31.5902887559
 10
-60.1393742902
 20
-31.5810955909
  0
LWPOLYLINE
  5
4B0
100
AcDbEntity
  8
ASSI
100
AcDbPolyline
 62
250
  6
CONTINUOUS
 90
10
 70
0
 10
-50.5719964132
 20
-31.1546253516
 10
-51.1602131685
 20
-31.1758452273
 10
-51.7487025985
 20
-31.1945867614
 10
-52.3374565135
 20
-31.2108502807
 10
-52.9264833335
 20
-31.2246535013
 10
-53.5157585877
 20
-31.2359778353
 10
-54.1052240317
 20
-31.2447689349
 10
-54.6948540257
 20
-31.2510081466
 10
-55.2846563964
 20
-31.2547119655
 10
-55.8746223301
 20
-31.2558787247
  0
LWPOLYLINE
  5
4B1
100
AcDbEntity
  8
ASSI
100
AcDbPolyline
 62
250
  6
CONTINUOUS
 90
3
 70
0
 10
-60.2852219471
 20
-31.7397818312
 10
-59.7895269098
 20
-31.7217178032
 10
-59.538186706
 20
-31.7133609851
  0
LWPOLYLINE
  5
4B2
100
AcDbEntity
  8
ASSI
100
AcDbPolyline
 62
250
  6
CONTINUOUS
 90
3
 70
0
 10
-60.1393742902
 20
-31.5810955909
 10
-59.6249022621
 20
-31.5639575722
 10
-59.373000232
 20
-31.5562027677
  0
LWPOLYLINE
  5
4B3
100
AcDbEntity
  8
ASSI
100
AcDbPolyline
 62
250
  6
CONTINUOUS
 90
25
 70
0
 10
-59.538186706
 20
-31.7133609851
 10
-59.0470050034
 20
-31.6986383218
 10
-58.8012144891
 20
-31.6920704242
 10
-58.5545829608
 20
-31.6860039418
 10
-58.3080174814
 20
-31.6804458777
 10
-58.0550635686
 20
-31.6753556275
 10
-57.7961111777
 20
-31.6706860718
 10
-57.5316680474
 20
-31.6664843302
 10
-57.2547348599
 20
-31.662851157
 10
-56.9636035884
 20
-31.6597228962
 10
-56.6606540445
 20
-31.6571632039
 10
-56.3448545335
 20
-31.6554638023
 10
-56.0087723162
 20
-31.6547300191
 10
-55.6614176171
 20
-31.6548565266
 10
-55.3266404184
 20
-31.6558190641
 10
-55.0137440745
 20
-31.6577076777
 10
-54.7148831437
 20
-31.6604323214
 10
-54.4279231956
 20
-31.663698596
 10
-54.1548401397
 20
-31.6674402268
 10
-53.8942662541
 20
-31.6717234885
 10
-53.6392551991
 20
-31.6764528075
 10
-53.3902580105
 20
-31.6815829666
 10
-53.1476752996
 20
-31.687159183
 10
-52.9052053081
 20
-31.6932215337
 10
-52.6637180695
 20
-31.6997636389
  0
LWPOLYLINE
  5
4B4
100
AcDbEntity
  8
ASSI
100
AcDbPolyline
 62
250
  6
CONTINUOUS
 90
4
 70
0
 10
-59.373000232
 20
-31.5562027677
 10
-58.8704441501
 20
-31.542739076
 10
-58.6185849809
 20
-31.5366195116
 10
-58.3656827493
 20
-31.5311198393
  0
LWPOLYLINE
  5
4B5
100
AcDbEntity
  8
ASSI
100
AcDbPolyline
 62
250
  6
CONTINUOUS
 90
15
 70
0
 10
-58.3656827493
 20
-31.5311198393
 10
-57.8417976123
 20
-31.5213889929
 10
-57.5708090483
 20
-31.5171904935
 10
-57.2873676011
 20
-31.5136207478
 10
-56.9893208349
 20
-31.5105107476
 10
-56.6788119127
 20
-31.5079150781
 10
-56.3559893095
 20
-31.5062591515
 10
-56.0122416039
 20
-31.5056604595
 10
-55.6561567217
 20
-31.5057888482
 10
-55.3136777586
 20
-31.5066130527
 10
-54.9937983197
 20
-31.5084505558
 10
-54.6875026626
 20
-31.5112126497
 10
-54.393725155
 20
-31.5144648883
 10
-54.1142068935
 20
-31.5181436088
 10
-53.847198488
 20
-31.5224232687
  0
LWPOLYLINE
  5
4B6
100
AcDbEntity
  8
ASSI
100
AcDbPolyline
 62
250
  6
CONTINUOUS
 90
3
 70
0
 10
-53.847198488
 20
-31.5224232687
 10
-53.3313919602
 20
-31.532253474
 10
-53.0825888249
 20
-31.5377726187
  0
LWPOLYLINE
  5
4B7
100
AcDbEntity
  8
ASSI
100
AcDbPolyline
 62
250
  6
CONTINUOUS
 90
3
 70
0
 10
-53.0825888249
 20
-31.5377726187
 10
-52.5875868162
 20
-31.5503801909
 10
-52.3413836545
 20
-31.557280503
  0
LWPOLYLINE
  5
4B8
100
AcDbEntity
  8
ASSI
100
AcDbPolyline
 62
250
  6
CONTINUOUS
 90
3
 70
0
 10
-52.6637180695
 20
-31.6997636389
 10
-52.1815909543
 20
-31.7143654695
 10
-51.9352444044
 20
-31.7226167986
  0
LWPOLYLINE
  5
4B9
100
AcDbEntity
  8
ASSI
100
AcDbPolyline
 62
250
  6
CONTINUOUS
 90
4
 70
0
 10
-52.3413836545
 20
-31.557280503
 10
-51.8425887553
 20
-31.5732462451
 10
-51.5899974432
 20
-31.5818589139
 10
-51.3445217403
 20
-31.5909210218
  0
LWPOLYLINE
  5
4BA
100
AcDbEntity
  8
ASSI
100
AcDbPolyline
 62
250
  6
CONTINUOUS
 90
10
 70
0
 10
-61.1772470527
 20
-31.1546253516
 10
-60.5890302974
 20
-31.1758452273
 10
-60.0005408675
 20
-31.1945867614
 10
-59.4117869524
 20
-31.2108502807
 10
-58.8227600882
 20
-31.2246535024
 10
-58.2334847898
 20
-31.2359778371
 10
-57.6440194342
 20
-31.2447689349
 10
-57.0543897056
 20
-31.251008144
 10
-56.4645877331
 20
-31.2547119622
 10
-55.8746223301
 20
-31.2558787247
  0
LWPOLYLINE
  5
4BB
100
AcDbEntity
  8
ASSI
100
AcDbPolyline
 62
250
  6
CONTINUOUS
 90
9
 70
0
 10
-60.4898457224
 20
-30.3884484598
 10
-59.8292094559
 20
-30.413007596
 10
-59.2101654895
 20
-30.4317940734
 10
-58.6511601629
 20
-30.4441627418
 10
-58.1338938915
 20
-30.4519298065
 10
-57.6032307666
 20
-30.4587163192
 10
-57.0407181273
 20
-30.465368694
 10
-56.4646795182
 20
-30.4706167471
 10
-55.875048613
 20
-30.4743094309
  0
LWPOLYLINE
  5
4BC
100
AcDbEntity
  8
ASSI
100
AcDbPolyline
 62
250
  6
CONTINUOUS
 90
3
 70
0
 10
-51.9352444044
 20
-31.7226167986
 10
-51.4492788154
 20
-31.740417568
 10
-51.2145670006
 20
-31.7497200297
  0
LINE
  5
4BD
100
AcDbEntity
  8
ASSI
100
AcDbLine
 62
250
  6
CONTINUOUS
 10
-51.3445217403
 20
-31.5909210218
 11
-50.8736445825
 21
-31.6096657515
  0
LINE
  5
4BE
100
AcDbEntity
  8
ASSI
100
AcDbLine
 62
250
  6
CONTINUOUS
 10
-51.2145670006
 20
-31.7497200297
 11
-50.7795135999
 21
-31.768336341
  0
LINE
  5
4BF
100
AcDbEntity
  8
ASSI
100
AcDbLine
 62
250
  6
CONTINUOUS
 10
-50.8736445825
 20
-31.6096657515
 11
-50.4634380555
 21
-31.6274510656
  0
LINE
  5
4C0
100
AcDbEntity
  8
ASSI
100
AcDbLine
 62
250
  6
CONTINUOUS
 10
-61.4081769765
 20
-30.3477090222
 11
-60.4898457224
 21
-30.3884484598
  0
LINE
  5
4C1
100
AcDbEntity
  8
ASSI
100
AcDbLine
 62
250
  6
CONTINUOUS
 10
-50.4634380555
 20
-31.6274510656
 11
-50.1286822027
 21
-31.6429347747
  0
LINE
  5
4C2
100
AcDbEntity
  8
ASSI
100
AcDbLine
 62
250
  6
CONTINUOUS
 10
-50.7795135999
 20
-31.768336341
 11
-50.4142778757
 21
-31.7852394617
  0
LINE
  5
4C3
100
AcDbEntity
  8
ASSI
100
AcDbLine
 62
250
  6
CONTINUOUS
 10
-61.9549602155
 20
-30.321309388
 11
-61.4081769765
 21
-30.3477090222
  0
LINE
  5
4C4
100
AcDbEntity
  8
ASSI
100
AcDbLine
 62
250
  6
CONTINUOUS
 10
-50.4142778757
 20
-31.7852394617
 11
-50.0204333003
 21
-31.8047079398
  0
LINE
  5
4C5
100
AcDbEntity
  8
ASSI
100
AcDbLine
 62
250
  6
CONTINUOUS
 10
-50.1286822027
 20
-31.6429347747
 11
-49.682929508
 21
-31.6651558969
  0
LWPOLYLINE
  5
4C6
100
AcDbEntity
  8
ASSI
100
AcDbPolyline
 62
250
  6
CONTINUOUS
 90
3
 70
0
 10
-50.0204333003
 20
-31.8047079398
 10
-49.8373081939
 20
-31.8141756353
 10
-49.8250486129
 20
-31.8149142819
  0
LINE
  5
4C7
100
AcDbEntity
  8
ASSI
100
AcDbLine
 62
250
  6
CONTINUOUS
 10
-62.5249370385
 20
-30.2911764524
 11
-61.9549602155
 21
-30.321309388
  0
LINE
  5
4C8
100
AcDbEntity
  8
ASSI
100
AcDbLine
 62
250
  6
CONTINUOUS
 10
-63.0589219733
 20
-30.2606154546
 11
-62.5249370385
 21
-30.2911764524
  0
LWPOLYLINE
  5
4C9
100
AcDbEntity
  8
ASSI
100
AcDbPolyline
 62
250
  6
CONTINUOUS
 90
9
 70
0
 10
-64.7054446743
 20
-30.9735063196
 10
-64.2654759008
 20
-31.0011163633
 10
-63.8251865814
 20
-31.0273080404
 10
-63.3845690722
 20
-31.0520812729
 10
-62.9436387699
 20
-31.0754348042
 10
-62.5024341284
 20
-31.0973666335
 10
-62.0609705211
 20
-31.1178758849
 10
-61.6192402295
 20
-31.136962373
 10
-61.1772470527
 20
-31.1546253516
  0
LINE
  5
4CA
100
AcDbEntity
  8
ASSI
100
AcDbLine
 62
250
  6
CONTINUOUS
 10
-63.5719363805
 20
-30.2292148553
 11
-63.0589219733
 21
-30.2606154546
  0
LINE
  5
4CB
100
AcDbEntity
  8
ASSI
100
AcDbLine
 62
250
  6
CONTINUOUS
 10
-64.1232459736
 20
-30.1928669601
 11
-63.5719363805
 21
-30.2292148553
  0
LINE
  5
4CC
100
AcDbEntity
  8
ASSI
100
AcDbLine
 62
250
  6
CONTINUOUS
 10
-65.5757627318
 20
-30.9147690237
 11
-64.7054446743
 21
-30.9735063196
  0
LINE
  5
4CD
100
AcDbEntity
  8
ASSI
100
AcDbLine
 62
250
  6
CONTINUOUS
 10
-64.6756831332
 20
-30.1537019798
 11
-64.1232459736
 21
-30.1928669601
  0
LINE
  5
4CE
100
AcDbEntity
  8
ASSI
100
AcDbLine
 62
250
  6
CONTINUOUS
 10
-65.1664763499
 20
-30.116824399
 11
-64.6756831332
 21
-30.1537019798
  0
LINE
  5
4CF
100
AcDbEntity
  8
ASSI
100
AcDbLine
 62
250
  6
CONTINUOUS
 10
-65.1664763499
 20
-30.116824399
 11
-65.2973666626
 21
-30.1066405717
  0
LWPOLYLINE
  5
4D0
100
AcDbEntity
  8
ASSI
100
AcDbPolyline
 62
250
  6
CONTINUOUS
 90
5
 70
0
 10
-65.4724736436
 20
-30.0913108182
 10
-65.4374075622
 20
-30.0944675911
 10
-65.4022402935
 20
-30.0973782985
 10
-65.36719762
 20
-30.0999933586
 10
-65.2968445873
 20
-30.10468745
  0
LINE
  5
4D1
100
AcDbEntity
  8
ASSI
100
AcDbLine
 62
250
  6
CONTINUOUS
 10
-65.5400500798
 20
-30.0847416264
 11
-65.4724736436
 21
-30.0913108182
  0
LINE
  5
4D2
100
AcDbEntity
  8
ASSI
100
AcDbLine
 62
250
  6
CONTINUOUS
 10
-65.6043019216
 20
-30.0779283772
 11
-65.5400500798
 21
-30.0847416264
  0
LWPOLYLINE
  5
4D3
100
AcDbEntity
  8
ASSI
100
AcDbPolyline
 62
250
  6
CONTINUOUS
 90
13
 70
0
 10
-65.6043019216
 20
-30.0779283772
 10
-65.8760921179
 20
-30.0456809735
 10
-66.1416926566
 20
-29.997087172
 10
-66.4005437761
 20
-29.932696357
 10
-66.6518643584
 20
-29.8531943677
 10
-66.8952359992
 20
-29.7591249927
 10
-67.1306653602
 20
-29.6507191325
 10
-67.3578448851
 20
-29.5285263929
 10
-67.575987433
 20
-29.393124331
 10
-67.7844165214
 20
-29.2447564787
 10
-67.9826010016
 20
-29.0839696596
 10
-68.1701798279
 20
-28.9115493556
 10
-68.3468313409
 20
-28.7281505158
  0
LWPOLYLINE
  5
4D4
100
AcDbEntity
  8
ASSI
100
AcDbPolyline
 62
250
  6
CONTINUOUS
 90
13
 70
0
 10
-68.9393714894
 20
-29.2280288222
 10
-68.7230822715
 20
-29.462805024
 10
-68.4919074067
 20
-29.6829621748
 10
-68.2463839063
 20
-29.8878817989
 10
-67.9877779182
 20
-30.0764420456
 10
-67.7172531089
 20
-30.2477200902
 10
-67.4355426966
 20
-30.4012661917
 10
-67.143726802
 20
-30.5363665495
 10
-66.8431996732
 20
-30.6522318894
 10
-66.5351662595
 20
-30.748400722
 10
-66.2206853696
 20
-30.824475966
 10
-65.900562546
 20
-30.8800804668
 10
-65.5757650865
 20
-30.9147979809
  0
LWPOLYLINE
  5
4D5
100
AcDbEntity
  8
0
100
AcDbPolyline
 62
7
  6
CONTINUOUS
 90
10
 70
0
 43
0.3500000006
 10
-88.0246257935
 20
-6.9392200127
 10
-87.3817723389
 20
-7.5820768661
 10
-86.5246343994
 20
-8.0106481018
 10
-85.4532029114
 20
-8.0106481018
 10
-85.0246339417
 20
-7.5820768661
 10
-85.0246339417
 20
-6.9392200127
 10
-85.4532029114
 20
-6.510648777
 10
-86.3103408508
 20
-6.510648777
 10
-86.7389188843
 20
-6.9392200127
 10
-86.7389188843
 20
-7.8677914009
  0
LWPOLYLINE
  5
4D6
100
AcDbEntity
  8
ASSI
100
AcDbPolyline
 62
250
  6
CONTINUOUS
 90
7
 70
0
 10
-68.3468313409
 20
-28.7281505158
 10
-68.441609522
 20
-28.6189985242
 10
-68.5327136543
 20
-28.5062886004
 10
-68.620084945
 20
-28.3901533046
 10
-68.7036665246
 20
-28.2707275417
 10
-68.7834044267
 20
-28.1481448493
 10
-68.8592486495
 20
-28.0225370094
  0
LWPOLYLINE
  5
4D7
100
AcDbEntity
  8
0
100
AcDbPolyline
 62
7
  6
CONTINUOUS
 90
3
 70
0
 43
0.3500000006
 10
-87.167487854
 20
-5.6535051727
 10
-88.0246257935
 20
-4.7963627014
 10
-85.0246339417
 20
-4.7963627014
  0
LWPOLYLINE
  5
4D8
100
AcDbEntity
  8
ASSI
100
AcDbPolyline
 62
250
  6
CONTINUOUS
 90
4
 70
0
 10
-69.0488092193
 20
-27.6978013202
 10
-69.003045992
 20
-27.772610044
 10
-68.9780914945
 20
-27.8156768917
 10
-68.9047666085
 20
-27.9440782475
  0
LINE
  5
4D9
100
AcDbEntity
  8
ASSI
100
AcDbLine
 62
250
  6
CONTINUOUS
 10
-68.9047666085
 20
-27.9440782475
 11
-68.8592486495
 21
-28.0225370094
  0
LWPOLYLINE
  5
4DA
100
AcDbEntity
  8
ASSI
100
AcDbPolyline
 62
250
  6
CONTINUOUS
 90
4
 70
0
 10
-69.1667429648
 20
-27.4960725522
 10
-69.1228347403
 20
-27.5730467296
 10
-69.0833705385
 20
-27.6401953263
 10
-69.0488092193
 20
-27.6978013202
  0
LWPOLYLINE
  5
4DB
100
AcDbEntity
  8
ASSI
100
AcDbPolyline
 62
7
  6
CONTINUOUS
 90
25
 70
0
 10
-69.8629334536
 20
-28.8081361382
 10
-69.7606645579
 20
-28.9876711156
 10
-69.6514405417
 20
-29.1623288725
 10
-69.5352614049
 20
-29.332109409
 10
-69.4118904716
 20
-29.4973117408
 10
-69.2815644177
 20
-29.6576368521
 10
-69.1449932711
 20
-29.8121876957
 10
-69.002174596
 20
-29.9608963452
 10
-68.8531108282
 20
-30.103830727
 10
-68.6985193031
 20
-30.2402975737
 10
-68.5383480485
 20
-30.3702855926
 10
-68.3726490367
 20
-30.4938060764
 10
-68.2022955197
 20
-30.6101996356
 10
-68.0272614766
 20
-30.7194240957
 10
-67.8475729284
 20
-30.8215216312
 10
-67.6641811901
 20
-30.9159593768
 10
-67.4770941906
 20
-31.0026863907
 10
-67.2863040009
 20
-31.0817536147
 10
-67.0927381494
 20
-31.152781008
 10
-66.8963338358
 20
-31.2157383954
 10
-66.6971538603
 20
-31.2706559521
 10
-66.496314152
 20
-31.3172441632
 10
-66.2941866873
 20
-31.3554065239
 10
-66.0903994897
 20
-31.3852395391
 10
-65.8849525593
 20
-31.4067432087
  0
LWPOLYLINE
  5
4DC
100
AcDbEntity
  8
ASSI
100
AcDbPolyline
 62
250
  6
CONTINUOUS
 90
7
 70
0
 10
-69.1947261845
 20
-27.4495850255
 10
-69.1902671808
 20
-27.457416588
 10
-69.1857683178
 20
-27.4652366888
 10
-69.1812277519
 20
-27.4730454486
 10
-69.1766436612
 20
-27.4808429869
 10
-69.1720142453
 20
-27.4886294219
 10
-69.1673377254
 20
-27.4964048703
  0
LWPOLYLINE
  5
4DD
100
AcDbEntity
  8
ASSI
100
AcDbPolyline
 62
250
  6
CONTINUOUS
 90
10
 70
0
 10
-69.5538576529
 20
-28.3302319797
 10
-69.4954619676
 20
-28.4367579795
 10
-69.4345106736
 20
-28.5417090507
 10
-69.3710344664
 20
-28.6450414784
 10
-69.3050492019
 20
-28.7467335097
 10
-69.236599977
 20
-28.8467181453
 10
-69.1657662927
 20
-28.9448869522
 10
-69.092600725
 20
-29.0411780552
 10
-69.01712376
 20
-29.1355723212
 10
-68.9393714894
 20
-29.2280288222
  0
LINE
  5
4DE
100
AcDbEntity
  8
ASSI
100
AcDbLine
 62
250
  6
CONTINUOUS
 10
-69.6732319892
 20
-28.104959698
 11
-69.5537493284
 21
-28.3304385773
  0
LWPOLYLINE
  5
4DF
100
AcDbEntity
  8
ASSI
100
AcDbPolyline
 62
250
  6
CONTINUOUS
 90
3
 70
0
 10
-69.8210391827
 20
-27.8223011144
 10
-69.7916153936
 20
-27.8789044165
 10
-69.6732319892
 20
-28.104959698
  0
LWPOLYLINE
  5
4E0
100
AcDbEntity
  8
0
100
AcDbPolyline
 62
7
  6
CONTINUOUS
 90
13
 70
0
 43
0.3500000006
 10
-86.7389188843
 20
-1.7963629189
 10
-86.9532033691
 20
-2.0820774536
 10
-87.5960568237
 20
-2.0820774536
 10
-88.0246257935
 20
-1.7963629189
 10
-88.0246257935
 20
-1.1535060654
 10
-87.5960568237
 20
-0.8677903976
 10
-86.9532033691
 20
-0.8677903976
 10
-86.7389188843
 20
-1.1535060654
 10
-86.3103408508
 20
-0.7249348297
 10
-85.4532029114
 20
-0.7249348297
 10
-85.0246339417
 20
-1.1535060654
 10
-85.0246339417
 20
-1.7963629189
 10
-85.4532029114
 20
-2.2249341545
  0
LWPOLYLINE
  5
4E1
100
AcDbEntity
  8
ASSI
100
AcDbPolyline
 62
250
  6
CONTINUOUS
 90
10
 70
0
 10
-73.2284879578
 20
-19.6128856841
 10
-72.9191996093
 20
-20.5550363018
 10
-72.5926131912
 20
-21.48922441
 10
-72.248958949
 20
-22.4151430436
 10
-71.8891032209
 20
-23.330882643
 10
-71.5127146092
 20
-24.2377826035
 10
-71.117962813
 20
-25.1403108609
 10
-70.7041076652
 20
-26.0396410807
 10
-70.2718002961
 20
-26.9337732486
 10
-69.8210391827
 20
-27.8223011144
  0
LWPOLYLINE
  5
4E2
100
AcDbEntity
  8
ASSI
100
AcDbPolyline
 62
250
  6
CONTINUOUS
 90
22
 70
0
 10
-72.496875632
 20
-19.4082103942
 10
-72.3279631391
 20
-19.944362395
 10
-72.159571406
 20
-20.4583122305
 10
-71.9923945989
 20
-20.9500510501
 10
-71.8253919745
 20
-21.4239699223
 10
-71.6608150308
 20
-21.8756741757
 10
-71.5046446732
 20
-22.2920937102
 10
-71.3623775445
 20
-22.661813269
 10
-71.2304762515
 20
-22.9965251817
 10
-71.1011736467
 20
-23.3178355583
 10
-70.9751609036
 20
-23.6249018188
 10
-70.8522935825
 20
-23.9186310293
 10
-70.7225875417
 20
-24.2230635097
 10
-70.5823372446
 20
-24.546185407
 10
-70.4346754489
 20
-24.8798131798
 10
-70.2793910831
 20
-25.2236206365
 10
-70.1155049013
 20
-25.5790503581
 10
-69.943436387
 20
-25.9444906157
 10
-69.7651818889
 20
-26.3150597483
 10
-69.5813716921
 20
-26.6890766254
 10
-69.3911237091
 20
-27.0680441778
 10
-69.1942597673
 20
-27.4518213075
  0
LWPOLYLINE
  5
4E3
100
AcDbEntity
  8
ASSI
100
AcDbPolyline
 62
250
  6
CONTINUOUS
 90
5
 70
0
 10
-72.7525659903
 20
-18.5520352297
 10
-72.6926964547
 20
-18.7593113976
 10
-72.629938122
 20
-18.9714347726
 10
-72.564684869
 20
-19.1877412792
 10
-72.496875632
 20
-19.4082103942
  0
LINE
  5
4E4
100
AcDbEntity
  8
ASSI
100
AcDbLine
 62
250
  6
CONTINUOUS
 10
-72.9773104167
 20
-17.7569658581
 11
-72.7525659903
 21
-18.5520352297
  0
LWPOLYLINE
  5
4E5
100
AcDbEntity
  8
ASSI
100
AcDbPolyline
 62
250
  6
CONTINUOUS
 90
10
 70
0
 10
-74.3880319705
 20
-15.35455692
 10
-74.2768616998
 20
-15.8322829142
 10
-74.1612508669
 20
-16.3089570081
 10
-74.0412093703
 20
-16.7845381277
 10
-73.9167484249
 20
-17.2589814828
 10
-73.7878778136
 20
-17.7322500105
 10
-73.6546055292
 20
-18.2043142905
 10
-73.516941605
 20
-18.6751373292
 10
-73.3748984715
 20
-19.1446746516
 10
-73.2284879578
 20
-19.6128856841
  0
LWPOLYLINE
  5
4E6
100
AcDbEntity
  8
ASSI
100
AcDbPolyline
 62
250
  6
CONTINUOUS
 90
4
 70
0
 10
-74.3554061701
 20
-10.558016017
 10
-74.3482341344
 20
-10.6244656292
 10
-74.3421437877
 20
-10.6776676532
 10
-74.327320696
 20
-10.8029237291
  0
LINE
  5
4E7
100
AcDbEntity
  8
ASSI
100
AcDbLine
 62
250
  6
CONTINUOUS
 10
-74.5623363248
 20
-8.3662699022
 11
-74.5226079033
 21
-8.7759141545
  0
LWPOLYLINE
  5
4E8
100
AcDbEntity
  8
ASSI
100
AcDbPolyline
 62
250
  6
CONTINUOUS
 90
3
 70
0
 10
-74.5226079033
 20
-8.7759141545
 10
-74.5143467035
 20
-8.8659411633
 10
-74.5065163938
 20
-8.9592587028
  0
LWPOLYLINE
  5
4E9
100
AcDbEntity
  8
ASSI
100
AcDbPolyline
 62
250
  6
CONTINUOUS
 90
4
 70
0
 10
-74.6104839503
 20
-7.8152763194
 10
-74.5980143399
 20
-7.9665271116
 10
-74.5857857257
 20
-8.1088391059
 10
-74.5623363248
 20
-8.3662699022
  0
LWPOLYLINE
  5
4EA
100
AcDbEntity
  8
ASSI
100
AcDbPolyline
 62
250
  6
CONTINUOUS
 90
10
 70
0
 10
-75.5797098838
 20
-7.4068752891
 10
-75.5591312992
 20
-7.6753732641
 10
-75.5372122159
 20
-7.9437642517
 10
-75.5139531757
 20
-8.2120417586
 10
-75.4893547446
 20
-8.4801992948
 10
-75.4634175195
 20
-8.7482303706
 10
-75.436142128
 20
-9.0161284964
 10
-75.4075292199
 20
-9.2838871875
 10
-75.3775794672
 20
-9.5514999634
 10
-75.3462935707
 20
-9.8189603452
  0
LINE
  5
4EB
100
AcDbEntity
  8
ASSI
100
AcDbLine
 62
250
  6
CONTINUOUS
 10
-74.5065163938
 20
-8.9592587028
 11
-74.4920152947
 21
-9.1461363245
  0
LINE
  5
4EC
100
AcDbEntity
  8
ASSI
100
AcDbLine
 62
250
  6
CONTINUOUS
 10
-74.4920152947
 20
-9.1461363245
 11
-74.4492247926
 21
-9.7196946386
  0
LWPOLYLINE
  5
4ED
100
AcDbEntity
  8
ASSI
100
AcDbPolyline
 62
250
  6
CONTINUOUS
 90
3
 70
0
 10
-74.6503048921
 20
-6.9131189227
 10
-74.6375827
 20
-7.1239196713
 10
-74.6242825519
 20
-7.3346791543
  0
LINE
  5
4EE
100
AcDbEntity
  8
ASSI
100
AcDbLine
 62
250
  6
CONTINUOUS
 10
-74.6104325597
 20
-7.6519940986
 11
-74.6018938104
 21
-7.812246786
  0
LINE
  5
4EF
100
AcDbEntity
  8
ASSI
100
AcDbLine
 62
250
  6
CONTINUOUS
 10
-74.6178880867
 20
-7.4927977259
 11
-74.6104325597
 21
-7.6519940986
  0
LWPOLYLINE
  5
4F0
100
AcDbEntity
  8
ASSI
100
AcDbPolyline
 62
250
  6
CONTINUOUS
 90
9
 70
0
 10
-75.6789813476
 20
-5.6948545164
 10
-75.6695751131
 20
-5.9090166388
 10
-75.6593106278
 20
-6.1231397433
 10
-75.6481880624
 20
-6.3372202806
 10
-75.6362075802
 20
-6.551255064
 10
-75.6233693295
 20
-6.7652412688
 10
-75.6096734875
 20
-6.979175709
 10
-75.5951202675
 20
-7.1930548376
 10
-75.5797098838
 20
-7.4068752891
  0
LINE
  5
4F1
100
AcDbEntity
  8
ASSI
100
AcDbLine
 62
250
  6
CONTINUOUS
 10
-74.6242825519
 20
-7.3346791543
 11
-74.6178880867
 21
-7.4927977259
  0
LINE
  5
4F2
100
AcDbEntity
  8
ASSI
100
AcDbLine
 62
250
  6
CONTINUOUS
 10
-75.6920163094
 20
-5.3585420734
 11
-75.6789813476
 21
-5.6948545164
  0
LINE
  5
4F3
100
AcDbEntity
  8
ASSI
100
AcDbLine
 62
250
  6
CONTINUOUS
 10
-75.7001520312
 20
-5.1142843804
 11
-75.6920163094
 21
-5.3585420734
  0
LWPOLYLINE
  5
4F4
100
AcDbEntity
  8
ASSI
100
AcDbPolyline
 62
250
  6
CONTINUOUS
 90
7
 70
0
 10
-74.7186626728
 20
-5.4168042057
 10
-74.7120486745
 20
-5.6364225091
 10
-74.7042971141
 20
-5.8539150618
 10
-74.6954346903
 20
-6.0692623942
 10
-74.6853304528
 20
-6.2817477918
 10
-74.6741750559
 20
-6.4920482874
 10
-74.6503048921
 20
-6.9131189227
  0
LINE
  5
4F5
100
AcDbEntity
  8
ASSI
100
AcDbLine
 62
250
  6
CONTINUOUS
 10
-75.705520035
 20
-4.9310686407
 11
-75.7001520312
 21
-5.1142843804
  0
LWPOLYLINE
  5
4F6
100
AcDbEntity
  8
ASSI
100
AcDbPolyline
 62
250
  6
CONTINUOUS
 90
6
 70
0
 10
-74.7270729497
 20
-4.9816332767
 10
-74.7248045105
 20
-5.0687223209
 10
-74.7220707403
 20
-5.1556810659
 10
-74.7198044439
 20
-5.2426382341
 10
-74.7189021919
 20
-5.3297169417
 10
-74.7160269889
 20
-5.4164041006
  0
LINE
  5
4F7
100
AcDbEntity
  8
ASSI
100
AcDbLine
 62
250
  6
CONTINUOUS
 10
-75.7131006171
 20
-4.6242105602
 11
-75.705520035
 21
-4.9310686407
  0
LWPOLYLINE
  5
4F8
100
AcDbEntity
  8
ASSI
100
AcDbPolyline
 62
250
  6
CONTINUOUS
 90
4
 70
0
 10
-74.7411308156
 20
-3.5389999692
 10
-74.7380864807
 20
-3.6907161993
 10
-74.7362801867
 20
-3.8421429932
 10
-74.7353486778
 20
-3.9932848276
  0
LINE
  5
4F9
100
AcDbEntity
  8
ASSI
100
AcDbLine
 62
250
  6
CONTINUOUS
 10
-75.7189081273
 20
-4.317723913
 11
-75.7131006171
 21
-4.6242105602
  0
LINE
  5
4FA
100
AcDbEntity
  8
ASSI
100
AcDbLine
 62
250
  6
CONTINUOUS
 10
-75.7229622428
 20
-4.0103975079
 11
-75.7189081273
 21
-4.317723913
  0
LWPOLYLINE
  5
4FB
100
AcDbEntity
  8
ASSI
100
AcDbPolyline
 62
250
  6
CONTINUOUS
 90
4
 70
0
 10
-74.7342291725
 20
-4.4450446109
 10
-74.7332426141
 20
-4.5950901842
 10
-74.7313747583
 20
-4.7448722972
 10
-74.7270729497
 20
-4.9816332767
  0
LINE
  5
4FC
100
AcDbEntity
  8
ASSI
100
AcDbLine
 62
250
  6
CONTINUOUS
 10
-75.7252703395
 20
-3.6973557625
 11
-75.7229622428
 21
-4.0103975079
  0
LINE
  5
4FD
100
AcDbEntity
  8
ASSI
100
AcDbLine
 62
250
  6
CONTINUOUS
 10
-74.7353486778
 20
-3.9932848276
 11
-74.7342291725
 21
-4.4450446109
  0
LINE
  5
4FE
100
AcDbEntity
  8
ASSI
100
AcDbLine
 62
7
  6
CONTINUOUS
 10
-76.2746217394
 20
26.4465946041
 11
-76.2746217394
 21
-3.539004033
  0
LINE
  5
4FF
100
AcDbEntity
  8
ASSI
100
AcDbLine
 62
250
  6
CONTINUOUS
 10
-75.7252703395
 20
-3.6973557625
 11
-75.7257313168
 21
26.3764664456
  0
LINE
  5
500
100
AcDbEntity
  8
ASSI
100
AcDbLine
 62
250
  6
CONTINUOUS
 10
-74.7401120125
 20
26.3706187585
 11
-74.740112013
 21
-3.5389999722
  0
LWPOLYLINE
  5
501
100
AcDbEntity
  8
ASSI
100
AcDbPolyline
 62
250
  6
CONTINUOUS
 90
16
 70
0
 10
-74.7401119102
 20
26.3706187733
 10
-74.7393635628
 20
26.423225077
 10
-74.7373294146
 20
26.4748172745
 10
-74.7340593254
 20
26.5250483858
 10
-74.7296043498
 20
26.5736124452
 10
-74.7240181656
 20
26.6200596102
 10
-74.717373041
 20
26.6637635978
 10
-74.7097717395
 20
26.7041091785
 10
-74.701275347
 20
26.7407423801
 10
-74.6919096909
 20
26.7734828976
 10
-74.6817537111
 20
26.8020747859
 10
-74.6709523987
 20
26.8260639492
 10
-74.6596454956
 20
26.8450591838
 10
-74.6479493732
 20
26.8588759636
 10
-74.6359575369
 20
26.867426555
 10
-74.6237702851
 20
26.8705997294
  0
LWPOLYLINE
  5
502
100
AcDbEntity
  8
ASSI
100
AcDbPolyline
 62
250
  6
CONTINUOUS
 90
25
 70
0
 10
-55.8750486129
 20
-20.7234671572
 10
-55.1444843589
 20
-20.7057371944
 10
-54.415658582
 20
-20.6515104711
 10
-53.6905904463
 20
-20.5609817738
 10
-52.9709656689
 20
-20.4344201681
 10
-52.258364899
 20
-20.2721318442
 10
-51.5538362185
 20
-20.0742466189
 10
-50.8591325073
 20
-19.8409663951
 10
-50.1759329137
 20
-19.5727817825
 10
-49.5051410162
 20
-19.270153881
 10
-48.8482375504
 20
-18.9334695492
 10
-48.2074018006
 20
-18.5634237159
 10
-47.5847144586
 20
-18.1611105542
 10
-46.9817091187
 20
-17.7273403599
 10
-46.400211111
 20
-17.2630832339
 10
-45.8425633376
 20
-16.7701410346
 10
-45.3099858901
 20
-16.2496115119
 10
-44.8039662406
 20
-15.7027967527
 10
-44.3269200864
 20
-15.1321501237
 10
-43.8798833318
 20
-14.5392948485
 10
-43.4637071647
 20
-13.9255612464
 10
-43.0801280421
 20
-13.2933694525
 10
-42.730111972
 20
-12.6447813327
 10
-42.4139300808
 20
-11.981192276
 10
-42.1320890413
 20
-11.3044166509
  0
LWPOLYLINE
  5
503
100
AcDbEntity
  8
ASSI
100
AcDbPolyline
 62
250
  6
CONTINUOUS
 90
25
 70
0
 10
-55.8750486129
 20
-20.7234671573
 10
-56.6056128669
 20
-20.7057371945
 10
-57.3344386439
 20
-20.6515104711
 10
-58.0595067795
 20
-20.5609817738
 10
-58.779131557
 20
-20.4344201681
 10
-59.4917323269
 20
-20.2721318442
 10
-60.1962610074
 20
-20.0742466189
 10
-60.8909647185
 20
-19.8409663951
 10
-61.5741643122
 20
-19.5727817825
 10
-62.2449562096
 20
-19.270153881
 10
-62.9018596754
 20
-18.9334695492
 10
-63.5426954253
 20
-18.5634237159
 10
-64.1653827673
 20
-18.1611105542
 10
-64.7683881071
 20
-17.7273403599
 10
-65.3498861149
 20
-17.2630832339
 10
-65.9075338883
 20
-16.7701410346
 10
-66.4401113358
 20
-16.2496115119
 10
-66.9461309853
 20
-15.7027967527
 10
-67.4231771394
 20
-15.1321501237
 10
-67.870213894
 20
-14.5392948485
 10
-68.2863900611
 20
-13.9255612464
 10
-68.6699691837
 20
-13.2933694525
 10
-69.0199852538
 20
-12.6447813327
 10
-69.3361671451
 20
-11.981192276
 10
-69.6180081846
 20
-11.3044166509
  0
LWPOLYLINE
  5
504
100
AcDbEntity
  8
ASSI
100
AcDbPolyline
 62
250
  6
CONTINUOUS
 90
10
 70
0
 10
-62.0049113801
 20
-20.1688984643
 10
-61.3563285448
 20
-20.4329810129
 10
-60.6960701853
 20
-20.6676079508
 10
-60.0255619338
 20
-20.8722241458
 10
-59.3451843729
 20
-21.0466902891
 10
-58.6567450807
 20
-21.1902785731
 10
-57.9638050968
 20
-21.3020203915
 10
-57.2685937351
 20
-21.3817048734
 10
-56.5718404281
 20
-21.4295894183
 10
-55.8750486123
 20
-21.4457950159
  0
LWPOLYLINE
  5
505
100
AcDbEntity
  8
ASSI
100
AcDbPolyline
 62
250
  6
CONTINUOUS
 90
5
 70
0
 10
-42.0441732516
 20
-27.7681753062
 10
-42.0040384644
 20
-27.7876604746
 10
-41.9713039547
 20
-27.8032575459
 10
-41.9462131808
 20
-27.8148508708
 10
-41.9290580911
 20
-27.8223010949
  0
LWPOLYLINE
  5
506
100
AcDbEntity
  8
ASSI
100
AcDbPolyline
 62
250
  6
CONTINUOUS
 90
13
 70
0
 10
-42.8908485764
 20
-28.0225370094
 10
-42.802403745
 20
-28.0663399058
 10
-42.717782755
 20
-28.1076515624
 10
-42.6375132788
 20
-28.1462199218
 10
-42.5620584356
 20
-28.1818229482
 10
-42.4920475539
 20
-28.2141597575
 10
-42.4282171248
 20
-28.2428854358
 10
-42.3710397223
 20
-28.2677833601
 10
-42.3208419756
 20
-28.2887167463
 10
-42.2780298105
 20
-28.305524713
 10
-42.2428687458
 20
-28.3181112127
 10
-42.2155479968
 20
-28.3264088404
 10
-42.1962937505
 20
-28.3303352952
  0
LWPOLYLINE
  5
507
100
AcDbEntity
  8
ASSI
100
AcDbPolyline
 62
250
  6
CONTINUOUS
 90
4
 70
0
 10
-62.7446058279
 20
-19.8247359692
 10
-62.6774061833
 20
-19.8580958642
 10
-62.344571598
 20
-20.0167242795
 10
-62.0049113801
 20
-20.1688984643
  0
LINE
  5
508
100
AcDbEntity
  8
ASSI
100
AcDbLine
 62
250
  6
CONTINUOUS
 10
-42.1451869557
 20
-27.7182393548
 11
-42.0441732516
 21
-27.7681753062
  0
LINE
  5
509
100
AcDbEntity
  8
ASSI
100
AcDbLine
 62
250
  6
CONTINUOUS
 10
-42.2706447208
 20
-27.6552690995
 11
-42.1451869557
 21
-27.7182393548
  0
LINE
  5
50A
100
AcDbEntity
  8
ASSI
100
AcDbLine
 62
250
  6
CONTINUOUS
 10
-42.4176395079
 20
-27.5807455297
 11
-42.2706447208
 21
-27.6552690995
  0
LWPOLYLINE
  5
50B
100
AcDbEntity
  8
ASSI
100
AcDbPolyline
 62
7
  6
CONTINUOUS
 90
5
 70
0
 10
-63.7527940276
 20
-19.276248183
 10
-63.6325521606
 20
-19.3474580364
 10
-63.3210503522
 20
-19.523373338
 10
-63.003093797
 20
-19.69344623
 10
-62.7446058279
 20
-19.8247359692
  0
LINE
  5
50C
100
AcDbEntity
  8
ASSI
100
AcDbLine
 62
7
  6
CONTINUOUS
 10
-64.8482356724
 20
-18.5642045736
 11
-64.5832882619
 21
-18.7479648439
  0
LWPOLYLINE
  5
50D
100
AcDbEntity
  8
ASSI
100
AcDbPolyline
 62
250
  6
CONTINUOUS
 90
5
 70
0
 10
-64.5832882619
 20
-18.7479648439
 10
-64.5491053597
 20
-18.7721921066
 10
-64.2466561535
 20
-18.9720071002
 10
-63.9408101462
 20
-19.163897257
 10
-63.7527940276
 20
-19.276248183
  0
LINE
  5
50E
100
AcDbEntity
  8
ASSI
100
AcDbLine
 62
7
  6
CONTINUOUS
 10
-65.2224560925
 20
-18.2888107018
 11
-64.8482356724
 21
-18.5642045736
  0
LWPOLYLINE
  5
50F
100
AcDbEntity
  8
ASSI
100
AcDbPolyline
 62
250
  6
CONTINUOUS
 90
4
 70
0
 10
-73.1364200181
 20
-17.1507516269
 10
-73.0843510128
 20
-17.3565540826
 10
-73.0318784409
 20
-17.5575122775
 10
-72.9773104167
 20
-17.7569658581
  0
LWPOLYLINE
  5
510
100
AcDbEntity
  8
ASSI
100
AcDbPolyline
 62
250
  6
CONTINUOUS
 90
7
 70
0
 10
-73.5968171658
 20
-15.1988950602
 10
-73.530790448
 20
-15.5013001132
 10
-73.4641398417
 20
-15.7976808651
 10
-73.3969792599
 20
-16.0880268453
 10
-73.3279908099
 20
-16.3777324746
 10
-73.2586472298
 20
-16.6613775494
 10
-73.1364200181
 20
-17.1507516269
  0
LWPOLYLINE
  5
511
100
AcDbEntity
  8
ASSI
100
AcDbPolyline
 62
250
  6
CONTINUOUS
 90
3
 70
0
 10
-73.7000679094
 20
-14.6933327271
 10
-73.6513900986
 20
-14.9343124404
 10
-73.5968171658
 20
-15.1988950602
  0
LWPOLYLINE
  5
512
100
AcDbEntity
  8
ASSI
100
AcDbPolyline
 62
250
  6
CONTINUOUS
 90
9
 70
0
 10
-73.9784523869
 20
-13.2032238635
 10
-73.9516028817
 20
-13.3602583537
 10
-73.9245089978
 20
-13.5152584363
 10
-73.8978643136
 20
-13.6642922074
 10
-73.8710397665
 20
-13.811281619
 10
-73.8424041287
 20
-13.9650601178
 10
-73.8122555404
 20
-14.1229846425
 10
-73.7801778296
 20
-14.287688043
 10
-73.7000679094
 20
-14.6933327271
  0
LWPOLYLINE
  5
513
100
AcDbEntity
  8
ASSI
100
AcDbPolyline
 62
250
  6
CONTINUOUS
 90
10
 70
0
 10
-75.0222493845
 20
-12.1094505073
 10
-74.9616866802
 20
-12.4718963726
 10
-74.8986403028
 20
-12.8339109122
 10
-74.8331132252
 20
-13.1954774776
 10
-74.7651086209
 20
-13.556578782
 10
-74.6946295748
 20
-13.9171988689
 10
-74.6216790372
 20
-14.2773231049
 10
-74.5462602304
 20
-14.6369355598
 10
-74.4683766955
 20
-14.9960190136
 10
-74.3880319705
 20
-15.35455692
  0
LWPOLYLINE
  5
514
100
AcDbEntity
  8
ASSI
100
AcDbPolyline
 62
250
  6
CONTINUOUS
 90
7
 70
0
 10
-74.1694870341
 20
-11.9862046322
 10
-74.1378707756
 20
-12.2021545694
 10
-74.107658622
 20
-12.4024620431
 10
-74.0790525758
 20
-12.5871177181
 10
-74.0531180761
 20
-12.7505878962
 10
-74.029180763
 20
-12.8983900145
 10
-73.9784523869
 20
-13.2032238635
  0
LWPOLYLINE
  5
515
100
AcDbEntity
  8
ASSI
100
AcDbPolyline
 62
250
  6
CONTINUOUS
 90
4
 70
0
 10
-74.2591970267
 20
-11.3411731642
 10
-74.2343394763
 20
-11.5264410468
 10
-74.2045728348
 20
-11.7414487672
 10
-74.1694870341
 20
-11.9862046322
  0
LINE
  5
516
100
AcDbEntity
  8
ASSI
100
AcDbLine
 62
250
  6
CONTINUOUS
 10
-74.2944496474
 20
-11.0685010691
 11
-74.2591970267
 21
-11.3411731642
  0
LWPOLYLINE
  5
517
100
AcDbEntity
  8
ASSI
100
AcDbPolyline
 62
250
  6
CONTINUOUS
 90
10
 70
0
 10
-75.3462935707
 20
-9.8189603452
 10
-75.3151872016
 20
-10.0741294178
 10
-75.2828544051
 20
-10.3291441899
 10
-75.2492959261
 20
-10.5839988837
 10
-75.2145125719
 20
-10.8386874187
 10
-75.1785051033
 20
-11.0932043301
 10
-75.1412742194
 20
-11.3475447677
 10
-75.1028207102
 20
-11.6017032708
 10
-75.0631454713
 20
-11.8556737704
 10
-75.0222493845
 20
-12.1094505073
  0
LINE
  5
518
100
AcDbEntity
  8
ASSI
100
AcDbLine
 62
250
  6
CONTINUOUS
 10
-74.327320696
 20
-10.8029237291
 11
-74.2944496474
 21
-11.0685010691
  0
LWPOLYLINE
  5
519
100
AcDbEntity
  8
ASSI
100
AcDbPolyline
 62
250
  6
CONTINUOUS
 90
5
 70
0
 10
-74.4492247926
 20
-9.7196946386
 10
-74.4024887274
 20
-10.1074392353
 10
-74.3845270097
 20
-10.260634252
 10
-74.3716827388
 20
-10.3821742083
 10
-74.3554061701
 20
-10.558016017
  0
LINE
  5
51A
100
AcDbEntity
  8
0
100
AcDbLine
 62
7
  6
CONTINUOUS
 10
-73.9750486129
 20
26.8465198932
 11
-73.9750486129
 21
26.8801553923
  0
LINE
  5
51B
100
AcDbEntity
  8
0
100
AcDbLine
 62
7
  6
CONTINUOUS
 10
-73.9250486129
 20
26.9465603415
 11
-73.9250486129
 21
26.8465198932
  0
LWPOLYLINE
  5
51C
100
AcDbEntity
  8
ASSI
100
AcDbPolyline
 62
250
  6
CONTINUOUS
 90
37
 70
0
 10
-55.8750486129
 20
-18.1597867952
 10
-55.5220000167
 20
-18.1490716504
 10
-55.1689507562
 20
-18.1306456819
 10
-54.8158985799
 20
-18.1045086946
 10
-54.4668416923
 20
-18.0717736173
 10
-54.1177778146
 20
-18.0313269306
 10
-53.7567024978
 20
-17.9798284607
 10
-53.374992827
 20
-17.914991863
 10
-52.9812637279
 20
-17.8391016255
 10
-52.5893678636
 20
-17.7556737539
 10
-52.2038529148
 20
-17.6662496679
 10
-51.8201685516
 20
-17.5692863572
 10
-51.4385218765
 20
-17.4636732974
 10
-51.0586343633
 20
-17.348988429
 10
-50.6807811203
 20
-17.2256513401
 10
-50.3059995324
 20
-17.0938137386
 10
-49.9328346332
 20
-16.9526847533
 10
-49.5627390821
 20
-16.8030523279
 10
-49.2011128539
 20
-16.6474367949
 10
-48.8511971886
 20
-16.4872131448
 10
-48.5097514376
 20
-16.3210044354
 10
-48.1724533087
 20
-16.1472032198
 10
-47.8351941449
 20
-15.9635154299
 10
-47.5020827171
 20
-15.7722318605
 10
-47.1811237273
 20
-15.5786231738
 10
-46.8773433233
 20
-15.3859321309
 10
-46.5857183685
 20
-15.1909158226
 10
-46.2991800613
 20
-14.9891166153
 10
-46.0125357884
 20
-14.7763852143
 10
-45.7309801655
 20
-14.556867673
 10
-45.4630253681
 20
-14.3385502699
 10
-45.2141433841
 20
-14.1263644859
 10
-44.9788650673
 20
-13.9153806915
 10
-44.7492911304
 20
-13.6987938852
 10
-44.5227895609
 20
-13.4743344524
 10
-44.3019954468
 20
-13.2442698128
 10
-44.0869104879
 20
-13.0085990584
  0
LWPOLYLINE
  5
51D
100
AcDbEntity
  8
ASSI
100
AcDbPolyline
 62
250
  6
CONTINUOUS
 90
37
 70
0
 10
-55.8750486129
 20
-18.159775211
 10
-56.2280995581
 20
-18.149065055
 10
-56.58115056
 20
-18.1306427999
 10
-56.9342038708
 20
-18.1045082508
 10
-57.2832610877
 20
-18.0717739081
 10
-57.632324689
 20
-18.0313266806
 10
-57.9933997205
 20
-17.9798276785
 10
-58.3751093025
 20
-17.9149909843
 10
-58.7688383037
 20
-17.839100659
 10
-59.1607340404
 20
-17.7556727123
 10
-59.5462488151
 20
-17.6662485674
 10
-59.9299329743
 20
-17.5692852105
 10
-60.3115794453
 20
-17.4636721102
 10
-60.691466766
 20
-17.3489872029
 10
-61.0693198164
 20
-17.2256500808
 10
-61.4441012052
 20
-17.0938124574
 10
-61.8172658936
 20
-16.9526834646
 10
-62.1873612274
 20
-16.803051043
 10
-62.5489872424
 20
-16.6474355214
 10
-62.8989027023
 20
-16.4872118882
 10
-63.240348252
 20
-16.3210032033
 10
-63.5776461819
 20
-16.1472020216
 10
-63.914905147
 20
-15.9635142769
 10
-64.2480163786
 20
-15.7722307622
 10
-64.5689751787
 20
-15.5786221351
 10
-64.8727554011
 20
-15.3859311552
 10
-65.1643801809
 20
-15.1909149149
 10
-65.4509183203
 20
-14.9891157812
 10
-65.7375624322
 20
-14.7763844606
 10
-66.0191179011
 20
-14.5568670055
 10
-66.2870725528
 20
-14.3385496913
 10
-66.5359543996
 20
-14.1263639982
 10
-66.7712325874
 20
-13.9153802975
 10
-67.000806404
 20
-13.698793587
 10
-67.227307862
 20
-13.4743342516
 10
-67.4481018732
 20
-13.2442697114
 10
-67.6631867379
 20
-13.0085990584
  0
LINE
  5
51E
100
AcDbEntity
  8
ASSI
100
AcDbLine
 62
250
  6
CONTINUOUS
 10
-42.5827595004
 20
-27.4964048703
 11
-42.4176395079
 21
-27.5807455297
  0
LWPOLYLINE
  5
51F
100
AcDbEntity
  8
ASSI
100
AcDbPolyline
 62
250
  6
CONTINUOUS
 90
40
 70
0
 10
-68.0704754266
 20
-13.3851209442
 10
-67.8346817818
 20
-13.6338632673
 10
-67.5937129909
 20
-13.8763993069
 10
-67.3477675794
 20
-14.1126387599
 10
-67.0999632545
 20
-14.339766086
 10
-66.8477094636
 20
-14.560598292
 10
-66.5821590788
 20
-14.7827813544
 10
-66.2973293581
 20
-15.0097033187
 10
-65.998548582
 20
-15.235917095
 10
-65.6938157467
 20
-15.4557363198
 10
-65.3872508659
 20
-15.6662581414
 10
-65.0751243015
 20
-15.870133014
 10
-64.7537643524
 20
-16.0703657846
 10
-64.4209946044
 20
-16.2675498917
 10
-64.0788202186
 20
-16.4597151415
 10
-63.7296536062
 20
-16.6458691725
 10
-63.3715425741
 20
-16.8267052005
 10
-63.0063547387
 20
-17.0004951372
 10
-62.6424629985
 20
-17.1636353346
 10
-62.2830669943
 20
-17.3153869912
 10
-61.9253578906
 20
-17.4573332161
 10
-61.5688411396
 20
-17.5900879074
 10
-61.2130367938
 20
-17.7141746999
 10
-60.858593885
 20
-17.8295067871
 10
-60.5066853936
 20
-17.9358421234
 10
-60.1554026168
 20
-18.0339892013
 10
-59.806895515
 20
-18.1238693274
 10
-59.4685394973
 20
-18.2046674082
 10
-59.1464849758
 20
-18.2765829118
 10
-58.834893847
 20
-18.3417799347
 10
-58.5230967817
 20
-18.4021374195
 10
-58.2036746483
 20
-18.4590760929
 10
-57.8839354917
 20
-18.510799434
 10
-57.5754880242
 20
-18.5543834442
 10
-57.2870662641
 20
-18.5896837722
 10
-57.0105189237
 20
-18.6188540614
 10
-56.7323166188
 20
-18.6423137392
 10
-56.4479996533
 20
-18.6596338922
 10
-56.1622111463
 20
-18.6706155708
 10
-55.8750486129
 20
-18.675044712
  0
LWPOLYLINE
  5
520
100
AcDbEntity
  8
ASSI
100
AcDbPolyline
 62
250
  6
CONTINUOUS
 90
10
 70
0
 10
-69.6180081846
 20
-11.3044166509
 10
-69.4681132336
 20
-11.5513248869
 10
-69.3125297812
 20
-11.7945592404
 10
-69.1513551605
 20
-12.0339475015
 10
-68.984783416
 20
-12.2692159853
 10
-68.8128384054
 20
-12.5003656505
 10
-68.6353591578
 20
-12.7276282028
 10
-68.4523541763
 20
-12.9509877041
 10
-68.264024391
 20
-13.1701984491
 10
-68.0704754266
 20
-13.3851209442
  0
LWPOLYLINE
  5
521
100
AcDbEntity
  8
ASSI
100
AcDbPolyline
 62
250
  6
CONTINUOUS
 90
10
 70
0
 10
-69.0845182842
 20
-11.0071210259
 10
-68.9491273406
 20
-11.2433255712
 10
-68.8079929881
 20
-11.4762244718
 10
-68.6611206319
 20
-11.7058179515
 10
-68.5083882059
 20
-11.932306683
 10
-68.3499299628
 20
-12.1554904831
 10
-68.186136222
 20
-12.3747684372
 10
-68.0171412615
 20
-12.5899405787
 10
-67.842823136
 20
-12.8012077627
 10
-67.663187153
 20
-13.0085704486
  0
LWPOLYLINE
  5
522
100
AcDbEntity
  8
ASSI
100
AcDbPolyline
 62
250
  6
CONTINUOUS
 90
5
 70
0
 10
-71.0913958945
 20
-5.783989481
 10
-71.053217154
 20
-5.8998078044
 10
-71.0154020161
 20
-6.0180673558
 10
-70.9779503553
 20
-6.1387679654
 10
-70.941093845
 20
-6.2619835568
  0
LWPOLYLINE
  5
523
100
AcDbEntity
  8
ASSI
100
AcDbPolyline
 62
250
  6
CONTINUOUS
 90
10
 70
0
 10
-70.6321743015
 20
-7.326880549
 10
-70.485295393
 20
-7.7866040069
 10
-70.3322215027
 20
-8.2329219418
 10
-70.1729619812
 20
-8.665834602
 10
-70.0076522218
 20
-9.0844064631
 10
-69.8361721194
 20
-9.489574767
 10
-69.6581457172
 20
-9.8841487367
 10
-69.4734539677
 20
-10.2690650923
 10
-69.2822382151
 20
-10.643388785
 10
-69.0845182842
 20
-11.0071210259
  0
LWPOLYLINE
  5
524
100
AcDbEntity
  8
ASSI
100
AcDbPolyline
 62
250
  6
CONTINUOUS
 90
3
 70
0
 10
-70.754604686
 20
-6.9122210982
 10
-70.7148238209
 20
-7.0484465744
 10
-70.6321743015
 20
-7.326880549
  0
LINE
  5
525
100
AcDbEntity
  8
ASSI
100
AcDbLine
 62
250
  6
CONTINUOUS
 10
-70.941093845
 20
-6.2619835568
 11
-70.867774727
 21
-6.5155141736
  0
LINE
  5
526
100
AcDbEntity
  8
ASSI
100
AcDbLine
 62
250
  6
CONTINUOUS
 10
-70.867774727
 20
-6.5155141736
 11
-70.754604686
 21
-6.9122210982
  0
LWPOLYLINE
  5
527
100
AcDbEntity
  8
ASSI
100
AcDbPolyline
 62
250
  6
CONTINUOUS
 90
5
 70
0
 10
-71.1692106391
 20
-5.7046007145
 10
-71.1586065332
 20
-5.7434808597
 10
-71.1541867656
 20
-5.7636636931
 10
-71.1499007955
 20
-5.7841212131
 10
-71.145758207
 20
-5.8048550787
  0
LWPOLYLINE
  5
528
100
AcDbEntity
  8
ASSI
100
AcDbPolyline
 62
250
  6
CONTINUOUS
 90
5
 70
0
 10
-71.1826873944
 20
-5.6220900245
 10
-71.1780367426
 20
-5.6424697449
 10
-71.175096118
 20
-5.6636656099
 10
-71.1727724935
 20
-5.6846970444
 10
-71.1692106391
 20
-5.7046007145
  0
LWPOLYLINE
  5
529
100
AcDbEntity
  8
ASSI
100
AcDbPolyline
 62
250
  6
CONTINUOUS
 90
10
 70
0
 10
-70.8723107477
 20
-7.401775122
 10
-70.7755335582
 20
-7.8714914081
 10
-70.6671904407
 20
-8.3311748641
 10
-70.5480086773
 20
-8.7806693941
 10
-70.4196165091
 20
-9.2182288166
 10
-70.2820057995
 20
-9.6456052988
 10
-70.1330409587
 20
-10.0677305404
 10
-69.9720098326
 20
-10.4860020843
 10
-69.8001400965
 20
-10.8985710207
 10
-69.6177342857
 20
-11.3052604865
  0
LWPOLYLINE
  5
52A
100
AcDbEntity
  8
ASSI
100
AcDbPolyline
 62
250
  6
CONTINUOUS
 90
5
 70
0
 10
-71.145220367
 20
-5.8074198529
 10
-71.1294939501
 20
-5.8915896812
 10
-71.1141166149
 20
-5.9769483564
 10
-71.0990913024
 20
-6.0634942582
 10
-71.0844944805
 20
-6.1514163809
  0
LWPOLYLINE
  5
52B
100
AcDbEntity
  8
ASSI
100
AcDbPolyline
 62
250
  6
CONTINUOUS
 90
3
 70
0
 10
-70.9217416549
 20
-7.1400876416
 10
-70.9055530811
 20
-7.2277835323
 10
-70.8723107477
 20
-7.401775122
  0
LINE
  5
52C
100
AcDbEntity
  8
ASSI
100
AcDbLine
 62
250
  6
CONTINUOUS
 10
-70.9531784606
 20
-6.963287285
 11
-70.9217416549
 21
-7.1400876416
  0
LINE
  5
52D
100
AcDbEntity
  8
ASSI
100
AcDbLine
 62
250
  6
CONTINUOUS
 10
-70.9836148158
 20
-6.7846798444
 11
-70.9531784606
 21
-6.963287285
  0
LINE
  5
52E
100
AcDbEntity
  8
ASSI
100
AcDbLine
 62
250
  6
CONTINUOUS
 10
-71.0131192214
 20
-6.6043144378
 11
-70.9836148158
 21
-6.7846798444
  0
LINE
  5
52F
100
AcDbEntity
  8
ASSI
100
AcDbLine
 62
250
  6
CONTINUOUS
 10
-71.0844944805
 20
-6.1514163809
 11
-71.013103541
 21
-6.6043134797
  0
LWPOLYLINE
  5
530
100
AcDbEntity
  8
ASSI
100
AcDbPolyline
 62
250
  6
CONTINUOUS
 90
22
 70
0
 10
-71.2002267885
 20
-6.6232529852
 10
-71.170868162
 20
-7.311469062
 10
-71.1113543526
 20
-7.9896899801
 10
-71.0229041184
 20
-8.6563375832
 10
-70.907448037
 20
-9.3067325513
 10
-70.7657322902
 20
-9.9427258529
 10
-70.5962026144
 20
-10.5718284322
 10
-70.398021301
 20
-11.1939294471
 10
-70.1722440619
 20
-11.8056656516
 10
-69.9187448251
 20
-12.4093244787
 10
-69.6369665211
 20
-13.0041403796
 10
-69.3272060048
 20
-13.5876656829
 10
-68.9902647501
 20
-14.1599783836
 10
-68.6258752143
 20
-14.7203561178
 10
-68.2342584423
 20
-15.2666363941
 10
-67.817223756
 20
-15.797229366
 10
-67.374476897
 20
-16.3120308886
 10
-66.9069858004
 20
-16.808656184
 10
-66.419133632
 20
-17.2830415231
 10
-65.9132218096
 20
-17.7337253082
 10
-65.3892589534
 20
-18.1609392906
 10
-65.2224560925
 20
-18.2888107018
  0
LINE
  5
531
100
AcDbEntity
  8
ASSI
100
AcDbLine
 62
250
  6
CONTINUOUS
 10
-71.2345988289
 20
-4.8918133861
 11
-71.2292311175
 21
-5.0444858563
  0
LINE
  5
532
100
AcDbEntity
  8
ASSI
100
AcDbLine
 62
250
  6
CONTINUOUS
 10
-71.2292311175
 20
-5.0444858563
 11
-71.2245267861
 21
-5.199023092
  0
LINE
  5
533
100
AcDbEntity
  8
ASSI
100
AcDbLine
 62
250
  6
CONTINUOUS
 10
-71.2570925936
 20
-4.0525487514
 11
-71.2398587351
 21
-4.605619371
  0
LINE
  5
534
100
AcDbEntity
  8
ASSI
100
AcDbLine
 62
250
  6
CONTINUOUS
 10
-71.2245267861
 20
-5.199023092
 11
-71.2185551417
 21
-5.4342855271
  0
LWPOLYLINE
  5
535
100
AcDbEntity
  8
ASSI
100
AcDbPolyline
 62
250
  6
CONTINUOUS
 90
3
 70
0
 10
-71.2398587351
 20
-4.605619371
 10
-71.2357528861
 20
-4.8000002432
 10
-71.2344034732
 20
-4.8918037649
  0
LINE
  5
536
100
AcDbEntity
  8
ASSI
100
AcDbLine
 62
250
  6
CONTINUOUS
 10
-71.2185551417
 20
-5.4342855271
 11
-71.2134013137
 21
-5.7062914236
  0
LINE
  5
537
100
AcDbEntity
  8
ASSI
100
AcDbLine
 62
250
  6
CONTINUOUS
 10
-71.2134013137
 20
-5.7062914236
 11
-71.2093473943
 21
-5.950408825
  0
LINE
  5
538
100
AcDbEntity
  8
ASSI
100
AcDbLine
 62
250
  6
CONTINUOUS
 10
-71.2093473943
 20
-5.950408825
 11
-71.200278627
 21
-6.623272232
  0
LWPOLYLINE
  5
539
100
AcDbEntity
  8
ASSI
100
AcDbPolyline
 62
250
  6
CONTINUOUS
 90
5
 70
0
 10
-71.2649238447
 20
-3.5389999747
 10
-71.2640463527
 20
-3.6727735032
 10
-71.262488774
 20
-3.802945683
 10
-71.2602557857
 20
-3.9294817817
 10
-71.2570925936
 20
-4.0525487514
  0
LWPOLYLINE
  5
53A
100
AcDbEntity
  8
ASSI
100
AcDbPolyline
 62
250
  6
CONTINUOUS
 90
8
 70
0
 10
-38.8289984231
 20
-19.5341737418
 10
-38.7615463158
 20
-19.5532619486
 10
-38.7014465512
 20
-19.5698589149
 10
-38.6489946271
 20
-19.5838878883
 10
-38.6045592593
 20
-19.5952567866
 10
-38.5683887523
 20
-19.6039082962
 10
-38.5406672615
 20
-19.6098010523
 10
-38.5216092853
 20
-19.6128856866
  0
LINE
  5
53B
100
AcDbEntity
  8
ASSI
100
AcDbLine
 62
250
  6
CONTINUOUS
 10
-38.9834687962
 20
-19.4892468877
 11
-38.8289984231
 21
-19.5341737418
  0
LWPOLYLINE
  5
53C
100
AcDbEntity
  8
ASSI
100
AcDbPolyline
 62
250
  6
CONTINUOUS
 90
3
 70
0
 10
-39.2532215939
 20
-19.4082103942
 10
-39.1590136611
 20
-19.4368075461
 10
-38.9834687962
 20
-19.4892468877
  0
LWPOLYLINE
  5
53D
100
AcDbEntity
  8
ASSI
100
AcDbPolyline
 62
250
  6
CONTINUOUS
 90
3
 70
0
 10
-42.849311597
 20
-29.1968837427
 10
-42.8265410292
 20
-29.2154572903
 10
-42.8107260022
 20
-29.2280285953
  0
LINE
  5
53E
100
AcDbEntity
  8
ASSI
100
AcDbLine
 62
250
  6
CONTINUOUS
 10
-42.9152167069
 20
-29.1421436739
 11
-42.849311597
 21
-29.1968837427
  0
LWPOLYLINE
  5
53F
100
AcDbEntity
  8
ASSI
100
AcDbPolyline
 62
250
  6
CONTINUOUS
 90
10
 70
0
 10
-71.1826873944
 20
-5.6220900245
 10
-71.168908794
 20
-5.6336706348
 10
-71.1553913384
 20
-5.647515699
 10
-71.1427678554
 20
-5.6632516481
 10
-71.1323832901
 20
-5.6810427581
 10
-71.1242403196
 20
-5.7003642033
 10
-71.1164115329
 20
-5.7203767083
 10
-71.1079358044
 20
-5.7408526643
 10
-71.099580856
 20
-5.7620639088
 10
-71.091395897
 20
-5.7839894738
  0
LINE
  5
540
100
AcDbEntity
  8
ASSI
100
AcDbLine
 62
250
  6
CONTINUOUS
 10
-43.0613853818
 20
-29.0190429797
 11
-42.9152167069
 21
-29.1421436739
  0
LINE
  5
541
100
AcDbEntity
  8
ASSI
100
AcDbLine
 62
250
  6
CONTINUOUS
 10
-43.4035023901
 20
-28.7279366497
 11
-43.0613853818
 21
-29.0190429797
  0
LWPOLYLINE
  5
542
100
AcDbEntity
  8
ASSI
100
AcDbPolyline
 62
250
  6
CONTINUOUS
 90
4
 70
0
 10
-67.6631867379
 20
-13.0085990584
 10
-67.6704303899
 20
-10.0433812193
 10
-67.6744979442
 20
-7.0384696835
 10
-67.6753907345
 20
-3.9948339863
  0
LINE
  5
543
100
AcDbEntity
  8
ASSI
100
AcDbLine
 62
250
  6
CONTINUOUS
 10
-67.6753907345
 20
-3.9948339863
 11
-67.6753902731
 21
26.3627232938
  0
LINE
  5
544
100
AcDbEntity
  8
ASSI
100
AcDbLine
 62
7
  6
CONTINUOUS
 10
-63.1440576129
 20
15.4235990257
 11
-62.2044776129
 21
18.3500850257
  0
LINE
  5
545
100
AcDbEntity
  8
ASSI
100
AcDbLine
 62
7
  6
CONTINUOUS
 10
-62.7190366129
 20
14.0998940257
 11
-61.3544356129
 21
18.3500850257
  0
LWPOLYLINE
  5
546
100
AcDbEntity
  8
0
100
AcDbPolyline
 62
7
  6
CONTINUOUS
 90
3
 70
0
 43
0.3500000006
 10
-54.839335144
 20
43.8607127838
 10
-54.910761795
 20
43.646428299
 10
-55.0536196289
 20
43.3607126312
  0
LINE
  5
547
100
AcDbEntity
  8
ASSI
100
AcDbLine
 62
250
  6
CONTINUOUS
 10
-73.5968171658
 20
-15.1988950602
 11
-73.7958556218
 21
-15.2417928293
  0
LWPOLYLINE
  5
548
100
AcDbEntity
  8
ASSI
100
AcDbPolyline
 62
250
  6
CONTINUOUS
 90
10
 70
0
 10
-73.7958556218
 20
-15.2417928293
 10
-73.9749610939
 20
-15.2793312268
 10
-74.0553517118
 20
-15.2957330245
 10
-74.1284378706
 20
-15.3103070285
 10
-74.1936225978
 20
-15.3229320316
 10
-74.2505350227
 20
-15.3335404809
 10
-74.2987171331
 20
-15.3420525918
 10
-74.3378565503
 20
-15.3484183287
 10
-74.3677185352
 20
-15.3526009166
 10
-74.3880319441
 20
-15.3545569185
  0
LWPOLYLINE
  5
549
100
AcDbEntity
  8
ASSI
100
AcDbPolyline
 62
7
  6
CONTINUOUS
 90
22
 70
0
 10
-58.3048232042
 20
-10.9410665579
 10
-58.4326269558
 20
-10.954717677
 10
-58.5597832924
 20
-10.9593190936
 10
-58.6862928435
 20
-10.9548708387
 10
-58.8127965362
 20
-10.9412540745
 10
-58.9386546202
 20
-10.9185875168
 10
-59.0619466706
 20
-10.8872274417
 10
-59.1826284542
 20
-10.8470406961
 10
-59.3007451422
 20
-10.7981599752
 10
-59.4145103051
 20
-10.7413402812
 10
-59.5238563975
 20
-10.6764605139
 10
-59.6288514421
 20
-10.6036410867
 10
-59.7279121696
 20
-10.5239992973
 10
-59.820943307
 20
-10.4374379199
 10
-59.9080400555
 20
-10.3440534199
 10
-59.9879046524
 20
-10.2452537454
 10
-60.0604387079
 20
-10.1409214758
 10
-60.1257400399
 20
-10.0311733558
 10
-60.1828050481
 20
-9.9177687854
 10
-60.2312988934
 20
-9.801294142
 10
-60.271555513
 20
-9.68116264
 10
-60.3035743987
 20
-9.5573740636
  0
LINE
  5
54A
100
AcDbEntity
  8
ASSI
100
AcDbLine
 62
7
  6
CONTINUOUS
 10
-52.9416666704
 20
-12.6775047467
 11
-48.8084305554
 21
-12.672495202
  0
LINE
  5
54B
100
AcDbEntity
  8
ASSI
100
AcDbLine
 62
7
  6
CONTINUOUS
 10
-48.8084305554
 20
-11.6668896477
 11
-52.9416666704
 21
-11.6718991925
  0
LWPOLYLINE
  5
54C
100
AcDbEntity
  8
ASSI
100
AcDbPolyline
 62
7
  6
CONTINUOUS
 90
3
 70
0
 10
-63.1116380137
 20
-11.714324574
 10
-62.8764963067
 20
-11.7234438404
 10
-62.6372497008
 20
-11.7113152025
  0
LWPOLYLINE
  5
54D
100
AcDbEntity
  8
ASSI
100
AcDbPolyline
 62
7
  6
CONTINUOUS
 90
3
 70
0
 10
-58.7784601439
 20
-11.7143445476
 10
-58.5433714735
 20
-11.7234542775
 10
-58.3042023081
 20
-11.7113152025
  0
LWPOLYLINE
  5
54E
100
AcDbEntity
  8
ASSI
100
AcDbPolyline
 62
250
  6
CONTINUOUS
 90
8
 70
0
 10
-37.694745514
 20
-15.2957330245
 10
-37.6216593553
 20
-15.3103070285
 10
-37.556474628
 20
-15.3229320316
 10
-37.4995622031
 20
-15.3335404809
 10
-37.4513800927
 20
-15.3420525918
 10
-37.4122406756
 20
-15.3484183287
 10
-37.3823786907
 20
-15.3526009166
 10
-37.3620652817
 20
-15.3545569185
  0
LINE
  5
54F
100
AcDbEntity
  8
ASSI
100
AcDbLine
 62
250
  6
CONTINUOUS
 10
-37.8618991845
 20
-15.261295208
 11
-37.694745514
 21
-15.2957330245
  0
LWPOLYLINE
  5
550
100
AcDbEntity
  8
ASSI
100
AcDbPolyline
 62
250
  6
CONTINUOUS
 90
3
 70
0
 10
-38.15328006
 20
-15.1988950602
 10
-38.0515884333
 20
-15.2209462533
 10
-37.8618991845
 20
-15.261295208
  0
LWPOLYLINE
  5
551
100
AcDbEntity
  8
0
100
AcDbPolyline
 62
7
  6
CONTINUOUS
 90
3
 70
0
 43
0.3500000006
 10
-85.3103405457
 20
-3.2249344597
 10
-85.0960560608
 20
-3.2963622437
 10
-84.8103403931
 20
-3.4392200775
  0
LWPOLYLINE
  5
552
100
AcDbEntity
  8
ASSI
100
AcDbPolyline
 62
250
  6
CONTINUOUS
 90
11
 70
0
 10
-65.6231218049
 20
-30.184504457
 10
-65.6246800002
 20
-30.3852562988
 10
-65.6242161889
 20
-30.4769875938
 10
-65.6221138318
 20
-30.5620984734
 10
-65.6186770519
 20
-30.639686875
 10
-65.6141551324
 20
-30.7089964137
 10
-65.6085788145
 20
-30.769489935
 10
-65.6019318688
 20
-30.8206427461
 10
-65.5942115311
 20
-30.8620434775
 10
-65.5854674985
 20
-30.8934852291
 10
-65.5757655713
 20
-30.9147832886
  0
LWPOLYLINE
  5
553
100
AcDbEntity
  8
ASSI
100
AcDbPolyline
 62
250
  6
CONTINUOUS
 90
13
 70
0
 10
-65.1664763499
 20
-30.116824399
 10
-65.1702583823
 20
-30.2231638815
 10
-65.1730405666
 20
-30.3250174148
 10
-65.1748091235
 20
-30.4216744776
 10
-65.1755505462
 20
-30.5125061212
 10
-65.1752487214
 20
-30.5966797279
 10
-65.1738955774
 20
-30.6732315025
 10
-65.1714939534
 20
-30.741524477
 10
-65.1680720152
 20
-30.801134014
 10
-65.1636770415
 20
-30.8515511645
 10
-65.1583558743
 20
-30.8924287054
 10
-65.1521463242
 20
-30.9235051523
 10
-65.145088976
 20
-30.9444781333
  0
LWPOLYLINE
  5
554
100
AcDbEntity
  8
0
100
AcDbPolyline
 62
7
  6
CONTINUOUS
 90
10
 70
0
 43
0.3500000006
 10
-85.5246340942
 20
-3.2963622437
 10
-85.3817717285
 20
-3.2249344597
 10
-85.3103405457
 20
-3.2249344597
 10
-85.1674872437
 20
-3.3677911606
 10
-85.1674872437
 20
-3.4392200775
 10
-85.2389184265
 20
-3.5106478615
 10
-85.3103405457
 20
-3.5106478615
 10
-85.4532029114
 20
-3.4392200775
 10
-85.5246340942
 20
-3.3677911606
 10
-85.5246340942
 20
-3.2963622437
  0
LINE
  5
555
100
AcDbEntity
  8
ASSI
100
AcDbLine
 62
7
  6
CONTINUOUS
 10
-50.0691710329
 20
-9.3544723919
 11
-50.1180804424
 21
-9.3634786275
  0
LINE
  5
556
100
AcDbEntity
  8
ASSI
100
AcDbLine
 62
250
  6
CONTINUOUS
 10
-74.1694870341
 20
-11.9862046322
 11
-74.3833455467
 21
-12.0196580943
  0
LINE
  5
557
100
AcDbEntity
  8
ASSI
100
AcDbLine
 62
250
  6
CONTINUOUS
 10
-74.3833455467
 20
-12.0196580943
 11
-74.5766657715
 21
-12.0491681011
  0
LWPOLYLINE
  5
558
100
AcDbEntity
  8
ASSI
100
AcDbPolyline
 62
250
  6
CONTINUOUS
 90
8
 70
0
 10
-74.5766657715
 20
-12.0491681011
 10
-74.7427514907
 20
-12.0737054244
 10
-74.8132853744
 20
-12.0837629083
 10
-74.874815397
 20
-12.0922533698
 10
-74.9268077548
 20
-12.0991073085
 10
-74.9688992891
 20
-12.1042806812
 10
-75.0008177635
 20
-12.1077410948
 10
-75.0222493684
 20
-12.1094505064
  0
LWPOLYLINE
  5
559
100
AcDbEntity
  8
ASSI
100
AcDbPolyline
 62
250
  6
CONTINUOUS
 90
5
 70
0
 10
-75.1908578692
 20
-9.8038469605
 10
-75.2741248004
 20
-9.8124623644
 10
-75.3053277589
 20
-9.8154954999
 10
-75.3294307335
 20
-9.8176658531
 10
-75.3462953192
 20
-9.8189605551
  0
LWPOLYLINE
  5
55A
100
AcDbEntity
  8
ASSI
100
AcDbPolyline
 62
7
  6
CONTINUOUS
 90
32
 70
0
 10
-62.6378705964
 20
-10.9410670076
 10
-62.8247309729
 20
-10.9577048087
 10
-63.0086936381
 20
-10.9555068894
 10
-63.189760655
 20
-10.9344732189
 10
-63.3699080504
 20
-10.8939861031
 10
-63.5471629242
 20
-10.8346623701
 10
-63.7156037469
 20
-10.7583534661
 10
-63.8748538116
 20
-10.6644983871
 10
-64.0252912368
 20
-10.5536560642
 10
-64.1621264984
 20
-10.4293579289
 10
-64.2849206461
 20
-10.2911711835
 10
-64.3941115448
 20
-10.1395263105
 10
-64.4862246694
 20
-9.9792503091
 10
-64.5607100383
 20
-9.810064423
 10
-64.618114732
 20
-9.6322458497
 10
-64.6566101993
 20
-9.4514566274
 10
-64.6755870407
 20
-9.2676013052
 10
-64.6756513988
 20
-9.0807750886
 10
-64.656799254
 20
-8.8969272705
 10
-64.6184208022
 20
-8.7161529699
 10
-64.561123629
 20
-8.5383580648
 10
-64.486731675
 20
-8.3692090888
 10
-64.394698448
 20
-8.2089880849
 10
-64.2855699308
 20
-8.0574147112
 10
-64.1628108775
 20
-7.9193126504
 10
-64.0259267268
 20
-7.7951022243
 10
-63.8754130538
 20
-7.6843648428
 10
-63.7162217528
 20
-7.5906661334
 10
-63.5480819207
 20
-7.5146206092
 10
-63.3712664107
 20
-7.4556149992
 10
-63.1915442688
 20
-7.4153732441
 10
-63.0108395612
 20
-7.3944701558
  0
LINE
  5
55B
100
AcDbEntity
  8
ASSI
100
AcDbLine
 62
7
  6
CONTINUOUS
 10
-51.6535105708
 20
-10.1704169899
 11
-51.3891507999
 21
-10.1700965819
  0
LINE
  5
55C
100
AcDbEntity
  8
ASSI
100
AcDbLine
 62
7
  6
CONTINUOUS
 10
-51.3891507999
 20
-9.9556389923
 11
-50.3843535092
 21
-9.9544211628
  0
LINE
  5
55D
100
AcDbEntity
  8
ASSI
100
AcDbLine
 62
7
  6
CONTINUOUS
 10
-50.4289577944
 20
-9.8119505666
 11
-51.5803146137
 21
-9.8133460285
  0
LINE
  5
55E
100
AcDbEntity
  8
ASSI
100
AcDbLine
 62
7
  6
CONTINUOUS
 10
-60.3035743987
 20
-9.5573740636
 11
-58.8157088776
 21
-9.5573740636
  0
LINE
  5
55F
100
AcDbEntity
  8
ASSI
100
AcDbLine
 62
7
  6
CONTINUOUS
 10
-58.8163253204
 20
-8.7926498764
 11
-60.3041912971
 21
-8.7926498764
  0
LWPOLYLINE
  5
560
100
AcDbEntity
  8
ASSI
100
AcDbPolyline
 62
250
  6
CONTINUOUS
 90
4
 70
0
 10
-36.4759724254
 20
-9.8124623644
 10
-36.444769467
 20
-9.8154954999
 10
-36.4206664924
 20
-9.8176658531
 10
-36.4038019066
 20
-9.8189605551
  0
LINE
  5
561
100
AcDbEntity
  8
ASSI
100
AcDbLine
 62
250
  6
CONTINUOUS
 10
-36.5592393566
 20
-9.8038469605
 11
-36.4759724254
 21
-9.8124623644
  0
LWPOLYLINE
  5
562
100
AcDbEntity
  8
ASSI
100
AcDbPolyline
 62
250
  6
CONTINUOUS
 90
6
 70
0
 10
-36.9368118515
 20
-12.0837629083
 10
-36.8752818288
 20
-12.0922533698
 10
-36.8232894711
 20
-12.0991073085
 10
-36.7811979368
 20
-12.1042806812
 10
-36.7492794623
 20
-12.1077410948
 10
-36.7278478575
 20
-12.1094505064
  0
LINE
  5
563
100
AcDbEntity
  8
ASSI
100
AcDbLine
 62
250
  6
CONTINUOUS
 10
-37.0864534047
 20
-12.0621390261
 11
-36.9368118515
 21
-12.0837629083
  0
LINE
  5
564
100
AcDbEntity
  8
ASSI
100
AcDbLine
 62
250
  6
CONTINUOUS
 10
-37.2671758784
 20
-12.0349598043
 11
-37.0864534047
 21
-12.0621390261
  0
LINE
  5
565
100
AcDbEntity
  8
ASSI
100
AcDbLine
 62
250
  6
CONTINUOUS
 10
-37.5806101917
 20
-11.9862046322
 11
-37.2671758784
 21
-12.0349598043
  0
LWPOLYLINE
  5
566
100
AcDbEntity
  8
ASSI
100
AcDbPolyline
 62
250
  6
CONTINUOUS
 90
3
 70
0
 10
-45.86471406
 20
-31.4067786518
 10
-45.8670722253
 20
-31.4033369973
 10
-45.8736729673
 20
-31.3930529032
  0
LINE
  5
567
100
AcDbEntity
  8
ASSI
100
AcDbLine
 62
250
  6
CONTINUOUS
 10
-45.8736729673
 20
-31.3930529032
 11
-45.8995649385
 21
-31.3519663548
  0
LINE
  5
568
100
AcDbEntity
  8
ASSI
100
AcDbLine
 62
250
  6
CONTINUOUS
 10
-45.8995649385
 20
-31.3519663548
 11
-46.1734807341
 21
-30.9147690237
  0
LINE
  5
569
100
AcDbEntity
  8
ASSI
100
AcDbLine
 62
7
  6
CONTINUOUS
 10
-62.6372497008
 20
-11.7113152025
 11
-62.6378705964
 21
-10.9410670076
  0
LINE
  5
56A
100
AcDbEntity
  8
ASSI
100
AcDbLine
 62
7
  6
CONTINUOUS
 10
-62.6407178239
 20
-7.4089569324
 11
-62.6413387195
 21
-6.6387087375
  0
LINE
  5
56B
100
AcDbEntity
  8
ASSI
100
AcDbLine
 62
7
  6
CONTINUOUS
 10
-61.9250486129
 20
-32.5265640545
 11
-61.9250486129
 21
-31.8149046779
  0
LINE
  5
56C
100
AcDbEntity
  8
ASSI
100
AcDbLine
 62
7
  6
CONTINUOUS
 10
-61.1750486129
 20
-34.0250000257
 11
-61.1750486129
 21
-33.4552728394
  0
LINE
  5
56D
100
AcDbEntity
  8
ASSI
100
AcDbLine
 62
7
  6
CONTINUOUS
 10
-61.165159122
 20
26.9465603415
 11
-61.165159122
 21
26.9965603415
  0
LINE
  5
56E
100
AcDbEntity
  8
ASSI
100
AcDbLine
 62
250
  6
CONTINUOUS
 10
-65.6151274714
 20
-30.0773213505
 11
-65.6231218049
 21
-30.184504457
  0
LINE
  5
56F
100
AcDbEntity
  8
ASSI
100
AcDbLine
 62
7
  6
CONTINUOUS
 10
-57.0090226129
 20
15.5822090257
 11
-56.2153466129
 21
18.3500850257
  0
LINE
  5
570
100
AcDbEntity
  8
ASSI
100
AcDbLine
 62
7
  6
CONTINUOUS
 10
-51.479347642
 20
-6.2765311804
 11
-51.4179336721
 21
-6.2632090386
  0
LINE
  5
571
100
AcDbEntity
  8
ASSI
100
AcDbLine
 62
7
  6
CONTINUOUS
 10
-51.4179336721
 20
-6.2632090386
 11
-51.3553280651
 21
-6.2514556338
  0
LINE
  5
572
100
AcDbEntity
  8
ASSI
100
AcDbLine
 62
7
  6
CONTINUOUS
 10
-51.3587456326
 20
-6.1040086737
 11
-51.4099155797
 21
-6.1130647852
  0
LWPOLYLINE
  5
573
100
AcDbEntity
  8
ASSI
100
AcDbPolyline
 62
7
  6
CONTINUOUS
 90
4
 70
0
 10
-49.585760134
 20
-6.6496881548
 10
-49.5552929859
 20
-6.6446242414
 10
-49.524517071
 20
-6.6347139165
 10
-49.4964492603
 20
-6.6203378156
  0
LWPOLYLINE
  5
574
100
AcDbEntity
  8
ASSI
100
AcDbPolyline
 62
7
  6
CONTINUOUS
 90
3
 70
0
 10
-51.3553280651
 20
-6.2514556338
 10
-51.2915308566
 20
-6.2412709719
 10
-51.2265420846
 20
-6.2326550582
  0
LINE
  5
575
100
AcDbEntity
  8
ASSI
100
AcDbLine
 62
7
  6
CONTINUOUS
 10
-51.3069152688
 20
-6.0959829293
 11
-51.3587456326
 21
-6.1040086737
  0
LINE
  5
576
100
AcDbEntity
  8
ASSI
100
AcDbLine
 62
250
  6
CONTINUOUS
 10
-74.4471637018
 20
-9.7194478112
 11
-74.7957754882
 21
-9.7598542046
  0
LWPOLYLINE
  5
577
100
AcDbEntity
  8
ASSI
100
AcDbPolyline
 62
7
  6
CONTINUOUS
 90
3
 70
0
 10
-51.2012733627
 20
-6.0830225515
 10
-51.254424506
 20
-6.0889875544
 10
-51.3069152688
 20
-6.0959829293
  0
LINE
  5
578
100
AcDbEntity
  8
ASSI
100
AcDbLine
 62
250
  6
CONTINUOUS
 10
-74.7957754882
 20
-9.7598542046
 11
-75.0818449176
 21
-9.7920420227
  0
LINE
  5
579
100
AcDbEntity
  8
ASSI
100
AcDbLine
 62
250
  6
CONTINUOUS
 10
-75.0818449176
 20
-9.7920420227
 11
-75.1908578692
 21
-9.8038469605
  0
LINE
  5
57A
100
AcDbEntity
  8
ASSI
100
AcDbLine
 62
7
  6
CONTINUOUS
 10
-51.2265420846
 20
-6.2326550582
 11
-51.1603617893
 21
-6.225607897
  0
LINE
  5
57B
100
AcDbEntity
  8
ASSI
100
AcDbLine
 62
7
  6
CONTINUOUS
 10
-51.1474618585
 20
-6.0780879223
 11
-51.2012733627
 21
-6.0830225515
  0
LINE
  5
57C
100
AcDbEntity
  8
ASSI
100
AcDbLine
 62
7
  6
CONTINUOUS
 10
-51.1603617893
 20
-6.225607897
 11
-51.0929900138
 21
-6.2201294919
  0
LWPOLYLINE
  5
57D
100
AcDbEntity
  8
ASSI
100
AcDbPolyline
 62
250
  6
CONTINUOUS
 90
3
 70
0
 10
-74.6265400938
 20
-7.3347956342
 10
-74.9124839226
 20
-7.356661707
 10
-75.5797151759
 20
-7.4068762729
  0
LINE
  5
57E
100
AcDbEntity
  8
ASSI
100
AcDbLine
 62
7
  6
CONTINUOUS
 10
-51.0929900138
 20
-6.0741836686
 11
-51.1474618585
 21
-6.0780879223
  0
LINE
  5
57F
100
AcDbEntity
  8
ASSI
100
AcDbLine
 62
250
  6
CONTINUOUS
 10
-71.0549274167
 20
-6.6057587486
 11
-71.2004920069
 21
-6.6112454566
  0
LINE
  5
580
100
AcDbEntity
  8
ASSI
100
AcDbLine
 62
250
  6
CONTINUOUS
 10
-71.013103541
 20
-6.6043134797
 11
-71.0549274167
 21
-6.6057587486
  0
LWPOLYLINE
  5
581
100
AcDbEntity
  8
ASSI
100
AcDbPolyline
 62
7
  6
CONTINUOUS
 90
3
 70
0
 10
-63.0108395612
 20
-7.3944701558
 10
-62.8272305059
 20
-7.3923313801
 10
-62.6407178239
 20
-7.4089569324
  0
LINE
  5
582
100
AcDbEntity
  8
ASSI
100
AcDbLine
 62
7
  6
CONTINUOUS
 10
-49.6149128824
 20
-6.6497787814
 11
-49.585760134
 21
-6.6496881548
  0
LINE
  5
583
100
AcDbEntity
  8
ASSI
100
AcDbLine
 62
7
  6
CONTINUOUS
 10
-51.1167910539
 20
-7.6330848868
 11
-50.3612662008
 21
-7.6321691792
  0
LINE
  5
584
100
AcDbEntity
  8
ASSI
100
AcDbLine
 62
7
  6
CONTINUOUS
 10
-49.7391521462
 20
-7.3522335839
 11
-49.4142335251
 21
-7.3518397776
  0
LINE
  5
585
100
AcDbEntity
  8
ASSI
100
AcDbLine
 62
7
  6
CONTINUOUS
 10
-50.2429891695
 20
-7.346953313
 11
-51.1167910539
 21
-7.3480123741
  0
LINE
  5
586
100
AcDbEntity
  8
ASSI
100
AcDbLine
 62
7
  6
CONTINUOUS
 10
-49.5390831825
 20
-7.2238270652
 11
-49.7272153799
 21
-7.2240550843
  0
LINE
  5
587
100
AcDbEntity
  8
ASSI
100
AcDbLine
 62
7
  6
CONTINUOUS
 10
-49.8361013465
 20
-6.8553750917
 11
-49.8982999057
 21
-6.8554504773
  0
LINE
  5
588
100
AcDbEntity
  8
ASSI
100
AcDbLine
 62
7
  6
CONTINUOUS
 10
-49.5978597719
 20
-6.855074001
 11
-49.6927998827
 21
-6.8551890698
  0
LINE
  5
589
100
AcDbEntity
  8
ASSI
100
AcDbLine
 62
7
  6
CONTINUOUS
 10
-51.8533538337
 20
-6.6422217588
 11
-49.8159976301
 21
-6.6397524523
  0
LINE
  5
58A
100
AcDbEntity
  8
ASSI
100
AcDbLine
 62
7
  6
CONTINUOUS
 10
-52.1689036827
 20
-6.6367010046
 11
-51.9970467211
 21
-6.6364927114
  0
LINE
  5
58B
100
AcDbEntity
  8
ASSI
100
AcDbLine
 62
7
  6
CONTINUOUS
 10
-49.8215973684
 20
-6.4913197769
 11
-51.479347642
 21
-6.4933289954
  0
LINE
  5
58C
100
AcDbEntity
  8
ASSI
100
AcDbLine
 62
7
  6
CONTINUOUS
 10
-52.017696665
 20
-6.4939814825
 11
-52.1689036827
 21
-6.4941647477
  0
LINE
  5
58D
100
AcDbEntity
  8
ASSI
100
AcDbLine
 62
7
  6
CONTINUOUS
 10
-51.7231285781
 20
-6.4936121369
 11
-51.865169775
 21
-6.493784293
  0
LINE
  5
58E
100
AcDbEntity
  8
ASSI
100
AcDbLine
 62
7
  6
CONTINUOUS
 10
-51.0929900138
 20
-6.3681530989
 11
-50.3915935788
 21
-6.3673029958
  0
LINE
  5
58F
100
AcDbEntity
  8
ASSI
100
AcDbLine
 62
7
  6
CONTINUOUS
 10
-50.5342761248
 20
-6.2249392137
 11
-50.9503550751
 21
-6.2254435077
  0
LINE
  5
590
100
AcDbEntity
  8
ASSI
100
AcDbLine
 62
7
  6
CONTINUOUS
 10
-50.9503550751
 20
-6.1600904184
 11
-50.5342761248
 21
-6.1595861244
  0
LINE
  5
591
100
AcDbEntity
  8
ASSI
100
AcDbLine
 62
7
  6
CONTINUOUS
 10
-51.4099155797
 20
-6.1130647852
 11
-51.7231169685
 21
-6.11344439
  0
LINE
  5
592
100
AcDbEntity
  8
ASSI
100
AcDbLine
 62
7
  6
CONTINUOUS
 10
-50.3915935788
 20
-6.0168897646
 11
-51.0929900138
 21
-6.0177398677
  0
LINE
  5
593
100
AcDbEntity
  8
ASSI
100
AcDbLine
 62
250
  6
CONTINUOUS
 10
-40.7369936849
 20
-6.6043134797
 11
-40.5909027695
 21
-6.6096160367
  0
LINE
  5
594
100
AcDbEntity
  8
ASSI
100
AcDbLine
 62
250
  6
CONTINUOUS
 10
-40.5909027695
 20
-6.6096160367
 11
-40.5496052189
 21
-6.6112454566
  0
LWPOLYLINE
  5
595
100
AcDbEntity
  8
ASSI
100
AcDbPolyline
 62
7
  6
CONTINUOUS
 90
35
 70
0
 10
-62.6413387195
 20
-6.6387087375
 10
-62.8795150731
 20
-6.6263593367
 10
-63.1140425559
 20
-6.635370969
 10
-63.3449203354
 20
-6.6657435691
 10
-63.5740296784
 20
-6.7180167655
 10
-63.7994865135
 20
-6.7916503188
 10
-64.0156424613
 20
-6.8850241617
 10
-64.222409154
 20
-6.9987582311
 10
-64.419872104
 20
-7.1322311049
 10
-64.6026455175
 20
-7.2819606352
 10
-64.7702296483
 20
-7.4483322796
 10
-64.9231221428
 20
-7.6309583563
 10
-65.0574356721
 20
-7.8251972251
 10
-65.1727033041
 20
-8.0313553356
 10
-65.2693914567
 20
-8.2491236707
 10
-65.3450155925
 20
-8.4729380638
 10
-65.3990349814
 20
-8.7029520216
 10
-65.4319922482
 20
-8.9390098811
 10
-65.4430307337
 20
-9.1750849131
 10
-65.431586047
 20
-9.411188245
 10
-65.3982267725
 20
-9.6473078643
 10
-65.3437980626
 20
-9.8773839414
 10
-65.267751604
 20
-10.101260717
 10
-65.1706409416
 20
-10.3190949289
 10
-65.054965376
 20
-10.5252972226
 10
-64.9202607464
 20
-10.7195534388
 10
-64.7669954126
 20
-10.9021804922
 10
-64.5990676968
 20
-11.068537066
 10
-64.4158782681
 20
-11.2182573423
 10
-64.2180277028
 20
-11.3517107844
 10
-64.0112137249
 20
-11.4653598023
 10
-63.7957112032
 20
-11.5585095882
 10
-63.5712429296
 20
-11.6318581659
 10
-63.342678049
 20
-11.6839572443
 10
-63.1116380137
 20
-11.714324574
  0
LWPOLYLINE
  5
596
100
AcDbEntity
  8
ASSI
100
AcDbPolyline
 62
7
  6
CONTINUOUS
 90
35
 70
0
 10
-58.3082913269
 20
-6.6387087375
 10
-58.546419822
 20
-6.6263628875
 10
-58.7808952531
 20
-6.6353651986
 10
-59.0117165899
 20
-6.6657156054
 10
-59.2407604336
 20
-6.7179529961
 10
-59.466147647
 20
-6.7915378725
 10
-59.6822438714
 20
-6.8848523898
 10
-59.8889627401
 20
-6.998513113
 10
-60.0863881442
 20
-7.1319019939
 10
-60.2691421602
 20
-7.2815492243
 10
-60.4367294194
 20
-7.4478414379
 10
-60.5896435749
 20
-7.6303897783
 10
-60.7239918072
 20
-7.8245614183
 10
-60.8393081707
 20
-8.0306611622
 10
-60.9360584521
 20
-8.2483816379
 10
-61.0117493492
 20
-8.4721724248
 10
-61.0658418067
 20
-8.7021950195
 10
-61.0988769776
 20
-8.9382857633
 10
-61.1099838164
 20
-9.174407693
 10
-61.0985949515
 20
-9.4105711341
 10
-61.0652819511
 20
-9.6467648716
 10
-61.010883609
 20
-9.8769212443
 10
-60.9348471012
 20
-10.1008872799
 10
-60.8377302765
 20
-10.3188169268
 10
-60.7220383921
 20
-10.5251046371
 10
-60.5873055149
 20
-10.7194318981
 10
-60.4340014191
 20
-10.9021199817
 10
-60.2660343146
 20
-11.0685244468
 10
-60.0828052
 20
-11.2182771041
 10
-59.8849139411
 20
-11.3517497924
 10
-59.6780657658
 20
-11.4654089179
 10
-59.4625315029
 20
-11.5585582597
 10
-59.2380375405
 20
-11.6318972565
 10
-59.0094713066
 20
-11.6839858539
 10
-58.7784601439
 20
-11.7143445476
  0
LINE
  5
597
100
AcDbEntity
  8
ASSI
100
AcDbLine
 62
250
  6
CONTINUOUS
 10
-37.1235571321
 20
-7.3347956342
 11
-36.1703820499
 21
-7.4068762729
  0
LINE
  5
598
100
AcDbEntity
  8
ASSI
100
AcDbLine
 62
250
  6
CONTINUOUS
 10
-36.7317048061
 20
-9.7850180365
 11
-36.5592393566
 21
-9.8038469605
  0
LWPOLYLINE
  5
599
100
AcDbEntity
  8
ASSI
100
AcDbPolyline
 62
250
  6
CONTINUOUS
 90
3
 70
0
 10
-37.302933524
 20
-9.7194478112
 10
-37.2132411426
 20
-9.7299301795
 10
-36.7317048061
 20
-9.7850180365
  0
LINE
  5
59A
100
AcDbEntity
  8
ASSI
100
AcDbLine
 62
7
  6
CONTINUOUS
 10
-50.3463301696
 20
-6.0948404921
 11
-50.3916051884
 21
-6.0891315511
  0
LWPOLYLINE
  5
59B
100
AcDbEntity
  8
ASSI
100
AcDbPolyline
 62
7
  6
CONTINUOUS
 90
4
 70
0
 10
-50.3916051884
 20
-6.2342690251
 10
-50.3605128756
 20
-6.2382561616
 10
-50.3295180143
 20
-6.2427329479
 10
-50.298620607
 20
-6.2476993831
  0
LWPOLYLINE
  5
59C
100
AcDbEntity
  8
ASSI
100
AcDbPolyline
 62
7
  6
CONTINUOUS
 90
3
 70
0
 10
-50.298620607
 20
-6.2476993831
 10
-50.2678122189
 20
-6.2530858836
 10
-50.2371012902
 20
-6.2589620315
  0
LINE
  5
59D
100
AcDbEntity
  8
ASSI
100
AcDbLine
 62
7
  6
CONTINUOUS
 10
-53.2574305134
 20
-10.5803235871
 11
-53.1737133087
 21
-10.6624178258
  0
LINE
  5
59E
100
AcDbEntity
  8
ASSI
100
AcDbLine
 62
7
  6
CONTINUOUS
 10
-58.8157088776
 20
-9.5573740636
 11
-58.8163253204
 21
-8.7926498764
  0
LINE
  5
59F
100
AcDbEntity
  8
ASSI
100
AcDbLine
 62
7
  6
CONTINUOUS
 10
-58.3042023081
 20
-11.7113152025
 11
-58.3048232042
 21
-10.9410665579
  0
LINE
  5
5A0
100
AcDbEntity
  8
ASSI
100
AcDbLine
 62
7
  6
CONTINUOUS
 10
-58.3076704313
 20
-7.4089569324
 11
-58.3082913269
 21
-6.6387087375
  0
LINE
  5
5A1
100
AcDbEntity
  8
ASSI
100
AcDbLine
 62
7
  6
CONTINUOUS
 10
-60.7877616129
 20
14.0998830257
 11
-60.7877516129
 21
18.3500850257
  0
LINE
  5
5A2
100
AcDbEntity
  8
ASSI
100
AcDbLine
 62
7
  6
CONTINUOUS
 10
-60.6734095927
 20
26.9465603415
 11
-60.6734095927
 21
26.9965603415
  0
LINE
  5
5A3
100
AcDbEntity
  8
ASSI
100
AcDbLine
 62
7
  6
CONTINUOUS
 10
-60.3897079915
 20
26.9465603415
 11
-60.3897079915
 21
26.9965603415
  0
LINE
  5
5A4
100
AcDbEntity
  8
ASSI
100
AcDbLine
 62
7
  6
CONTINUOUS
 10
-59.9377296129
 20
14.0998940257
 11
-59.9377196129
 21
18.3500850257
  0
LINE
  5
5A5
100
AcDbEntity
  8
ASSI
100
AcDbLine
 62
7
  6
CONTINUOUS
 10
-59.6753617029
 20
26.9465603415
 11
-59.6753617029
 21
26.9965603415
  0
LINE
  5
5A6
100
AcDbEntity
  8
ASSI
100
AcDbLine
 62
250
  6
CONTINUOUS
 10
-59.4920468656
 20
26.9465603415
 11
-59.4920468656
 21
26.9965603415
  0
LWPOLYLINE
  5
5A7
100
AcDbEntity
  8
0
100
AcDbPolyline
 62
7
  6
CONTINUOUS
 90
2
 70
0
 43
0.3500000006
 10
-59.2679053345
 20
43.5750016479
 10
-59.2679053345
 20
45.0750021057
  0
LINE
  5
5A8
100
AcDbEntity
  8
ASSI
100
AcDbLine
 62
7
  6
CONTINUOUS
 10
-59.0877196129
 20
14.0998940257
 11
-59.0877196129
 21
18.3500850257
  0
LINE
  5
5A9
100
AcDbEntity
  8
ASSI
100
AcDbLine
 62
250
  6
CONTINUOUS
 10
-58.9668351511
 20
26.9465603415
 11
-58.9668351511
 21
26.9965603415
  0
LINE
  5
5AA
100
AcDbEntity
  8
ASSI
100
AcDbLine
 62
250
  6
CONTINUOUS
 10
-58.4692659827
 20
26.9465603415
 11
-58.4692659827
 21
26.9965603415
  0
LINE
  5
5AB
100
AcDbEntity
  8
ASSI
100
AcDbLine
 62
7
  6
CONTINUOUS
 10
-58.2874060061
 20
26.9465603415
 11
-58.2874060061
 21
26.9965603415
  0
LINE
  5
5AC
100
AcDbEntity
  8
ASSI
100
AcDbLine
 62
7
  6
CONTINUOUS
 10
-58.2376876129
 20
14.0998940257
 11
-58.2376876129
 21
16.9026090257
  0
LWPOLYLINE
  5
5AD
100
AcDbEntity
  8
ASSI
100
AcDbPolyline
 62
250
  6
CONTINUOUS
 90
13
 70
0
 10
-61.191994729
 20
-30.3575367591
 10
-61.1938439487
 20
-30.4602368059
 10
-61.19513365
 20
-30.5584970241
 10
-61.1958581333
 20
-30.6516570185
 10
-61.196011514
 20
-30.7391442187
 10
-61.19558684
 20
-30.8201609358
 10
-61.1945828656
 20
-30.8937666717
 10
-61.1930039369
 20
-30.9593658279
 10
-61.1908665611
 20
-31.0165985123
 10
-61.1881977532
 20
-31.065016124
 10
-61.1850238301
 20
-31.1043159535
 10
-61.1813659991
 20
-31.1342728711
 10
-61.1772470528
 20
-31.1546253541
  0
LWPOLYLINE
  5
5AE
100
AcDbEntity
  8
ASSI
100
AcDbPolyline
 62
250
  6
CONTINUOUS
 90
22
 70
0
 10
-59.3838216132
 20
1.3749991606
 10
-59.3717752532
 20
1.658039096
 10
-59.3382615899
 20
1.9353261189
 10
-59.283280436
 20
2.2068602296
 10
-59.205126607
 20
2.4753659961
 10
-59.1055045561
 20
2.7381188507
 10
-58.9895285254
 20
2.9869450891
 10
-58.8573917027
 20
3.2195603825
 10
-58.7089000562
 20
3.4382490601
 10
-58.5485872333
 20
3.6416904042
 10
-58.3772177815
 20
3.8293328732
 10
-58.1940266159
 20
4.001728009
 10
-58.0012531861
 20
4.1592097188
 10
-57.7993232417
 20
4.3020555252
 10
-57.5878108267
 20
4.4299879057
 10
-57.3676779969
 20
4.5425081998
 10
-57.1389763833
 20
4.6401161437
 10
-56.9016544913
 20
4.7223120012
 10
-56.6565198169
 20
4.7870979034
 10
-56.4038417126
 20
4.8338078938
 10
-56.1433513748
 20
4.8631079289
 10
-55.8750491853
 20
4.8749980086
  0
LINE
  5
5AF
100
AcDbEntity
  8
ASSI
100
AcDbLine
 62
7
  6
CONTINUOUS
 10
-56.5840226129
 20
14.0999040257
 11
-55.7803696129
 21
16.9026090257
  0
LINE
  5
5B0
100
AcDbEntity
  8
ASSI
100
AcDbLine
 62
7
  6
CONTINUOUS
 10
-54.3636426129
 20
14.0998940257
 11
-52.9990626129
 21
18.3500960257
  0
LINE
  5
5B1
100
AcDbEntity
  8
ASSI
100
AcDbLine
 62
250
  6
CONTINUOUS
 10
-35.983426865
 20
26.9385206352
 11
-35.975425133
 21
26.9465603415
  0
LWPOLYLINE
  5
5B2
100
AcDbEntity
  8
ASSI
100
AcDbPolyline
 62
250
  6
CONTINUOUS
 90
4
 70
0
 10
-71.2344034732
 20
-4.8918037649
 10
-71.6612095229
 20
-4.9587308189
 10
-72.0701248881
 20
-5.0214723051
 10
-72.4666794763
 20
-5.0813396825
  0
LINE
  5
5B3
100
AcDbEntity
  8
ASSI
100
AcDbLine
 62
250
  6
CONTINUOUS
 10
-74.3528719152
 20
-5.3616432591
 11
-74.7160269889
 21
-5.4164041006
  0
LWPOLYLINE
  5
5B4
100
AcDbEntity
  8
ASSI
100
AcDbPolyline
 62
250
  6
CONTINUOUS
 90
3
 70
0
 10
-72.4666794763
 20
-5.0813396825
 10
-73.2469526829
 20
-5.197429299
 10
-74.3528719152
 20
-5.3616432591
  0
LWPOLYLINE
  5
5B5
100
AcDbEntity
  8
ASSI
100
AcDbPolyline
 62
7
  6
CONTINUOUS
 90
10
 70
0
 10
-71.2155686757
 20
-5.5933863354
 10
-71.2103684353
 20
-5.592877076
 10
-71.2052755715
 20
-5.5931470383
 10
-71.2002901595
 20
-5.594196284
 10
-71.1950631604
 20
-5.5958369229
 10
-71.1899435004
 20
-5.5982570324
 10
-71.1859796797
 20
-5.602020523
 10
-71.1835226878
 20
-5.6073153075
 10
-71.1822244771
 20
-5.6139534332
 10
-71.1820862458
 20
-5.6219349073
  0
LWPOLYLINE
  5
5B6
100
AcDbEntity
  8
ASSI
100
AcDbPolyline
 62
250
  6
CONTINUOUS
 90
3
 70
0
 10
-75.6438667011
 20
-5.4778313844
 10
-75.6696895522
 20
-5.4793907322
 10
-75.6875291814
 20
-5.480656745
  0
LWPOLYLINE
  5
5B7
100
AcDbEntity
  8
ASSI
100
AcDbPolyline
 62
250
  6
CONTINUOUS
 90
4
 70
0
 10
-75.6279635794
 20
-4.9262934812
 10
-75.6617262762
 20
-4.9280880532
 10
-75.6876348375
 20
-4.9296829828
 10
-75.7055200378
 20
-4.9310686407
  0
LINE
  5
5B8
100
AcDbEntity
  8
ASSI
100
AcDbLine
 62
250
  6
CONTINUOUS
 10
-75.5688899882
 20
-5.4738684288
 11
-75.6438667011
 21
-5.4778313844
  0
LINE
  5
5B9
100
AcDbEntity
  8
ASSI
100
AcDbLine
 62
250
  6
CONTINUOUS
 10
-75.4019168677
 20
-5.466018942
 11
-75.5688899882
 21
-5.4738684288
  0
LINE
  5
5BA
100
AcDbEntity
  8
ASSI
100
AcDbLine
 62
250
  6
CONTINUOUS
 10
-75.5374240736
 20
-4.9221385377
 11
-75.6279635794
 21
-4.9262934812
  0
LWPOLYLINE
  5
5BB
100
AcDbEntity
  8
ASSI
100
AcDbPolyline
 62
250
  6
CONTINUOUS
 90
3
 70
0
 10
-74.7153298832
 20
-5.4374908841
 10
-74.8135761198
 20
-5.4413781588
 10
-75.4019168677
 20
-5.466018942
  0
LINE
  5
5BC
100
AcDbEntity
  8
ASSI
100
AcDbLine
 62
250
  6
CONTINUOUS
 10
-75.3495908143
 20
-4.9147533765
 11
-75.5374240736
 21
-4.9221385377
  0
LINE
  5
5BD
100
AcDbEntity
  8
ASSI
100
AcDbLine
 62
250
  6
CONTINUOUS
 10
-74.9236166181
 20
-4.90036793
 11
-75.3495908143
 21
-4.9147533765
  0
LINE
  5
5BE
100
AcDbEntity
  8
ASSI
100
AcDbLine
 62
250
  6
CONTINUOUS
 10
-74.7286806696
 20
-4.8943851692
 11
-74.9236166181
 21
-4.90036793
  0
LINE
  5
5BF
100
AcDbEntity
  8
ASSI
100
AcDbLine
 62
250
  6
CONTINUOUS
 10
-76.2746217394
 20
-3.5389999747
 11
-71.2649238447
 21
-3.5389999747
  0
LINE
  5
5C0
100
AcDbEntity
  8
ASSI
100
AcDbLine
 62
250
  6
CONTINUOUS
 10
-35.4754754864
 20
-3.5389999747
 11
-40.4851733811
 21
-3.5389999747
  0
LINE
  5
5C1
100
AcDbEntity
  8
ASSI
100
AcDbLine
 62
250
  6
CONTINUOUS
 10
-37.0214165562
 20
-4.8943851692
 11
-36.6428631469
 21
-4.9063065993
  0
LINE
  5
5C2
100
AcDbEntity
  8
ASSI
100
AcDbLine
 62
250
  6
CONTINUOUS
 10
-36.6428631469
 20
-4.9063065993
 11
-36.4005064115
 21
-4.9147533765
  0
LINE
  5
5C3
100
AcDbEntity
  8
ASSI
100
AcDbLine
 62
250
  6
CONTINUOUS
 10
-37.0347673426
 20
-5.4374908841
 11
-36.6579312884
 21
-5.4526991457
  0
LINE
  5
5C4
100
AcDbEntity
  8
ASSI
100
AcDbLine
 62
250
  6
CONTINUOUS
 10
-36.4005064115
 20
-4.9147533765
 11
-36.2126731522
 21
-4.9221385377
  0
LINE
  5
5C5
100
AcDbEntity
  8
ASSI
100
AcDbLine
 62
250
  6
CONTINUOUS
 10
-36.6579312884
 20
-5.4526991457
 11
-36.3481803581
 21
-5.466018942
  0
LWPOLYLINE
  5
5C6
100
AcDbEntity
  8
ASSI
100
AcDbPolyline
 62
250
  6
CONTINUOUS
 90
5
 70
0
 10
-36.2126731522
 20
-4.9221385377
 10
-36.1221336465
 20
-4.9262934812
 10
-36.0883709496
 20
-4.9280880532
 10
-36.0624623884
 20
-4.9296829828
 10
-36.044577188
 20
-4.9310686407
  0
LINE
  5
5C7
100
AcDbEntity
  8
ASSI
100
AcDbLine
 62
250
  6
CONTINUOUS
 10
-36.3481803581
 20
-5.466018942
 11
-36.1812072377
 21
-5.4738684288
  0
LWPOLYLINE
  5
5C8
100
AcDbEntity
  8
ASSI
100
AcDbPolyline
 62
250
  6
CONTINUOUS
 90
4
 70
0
 10
-36.1812072377
 20
-5.4738684288
 10
-36.1062305247
 20
-5.4778313844
 10
-36.0804076737
 20
-5.4793907322
 10
-36.0625680445
 20
-5.480656745
  0
LWPOLYLINE
  5
5C9
100
AcDbEntity
  8
ASSI
100
AcDbPolyline
 62
7
  6
CONTINUOUS
 90
10
 70
0
 10
-40.5345285501
 20
-5.5933863354
 10
-40.5397287905
 20
-5.592877076
 10
-40.5448216543
 20
-5.5931470383
 10
-40.5498070664
 20
-5.594196284
 10
-40.5550340654
 20
-5.5958369229
 10
-40.5601537254
 20
-5.5982570324
 10
-40.5641175461
 20
-5.602020523
 10
-40.5665745381
 20
-5.6073153075
 10
-40.5678727487
 20
-5.6139534332
 10
-40.56801098
 20
-5.6219349073
  0
LWPOLYLINE
  5
5CA
100
AcDbEntity
  8
ASSI
100
AcDbPolyline
 62
250
  6
CONTINUOUS
 90
4
 70
0
 10
-38.8912486127
 20
-5.1398808897
 10
-37.7588280547
 20
-5.3076827152
 10
-37.3972253107
 20
-5.3616432591
 10
-37.0340702369
 20
-5.4164041006
  0
LWPOLYLINE
  5
5CB
100
AcDbEntity
  8
ASSI
100
AcDbPolyline
 62
250
  6
CONTINUOUS
 90
5
 70
0
 10
-40.5156937527
 20
-4.8918037649
 10
-40.088887703
 20
-4.9587308189
 10
-39.6799723378
 20
-5.0214723051
 10
-39.2834177495
 20
-5.0813396825
 10
-38.8912486127
 20
-5.1398808897
  0
LWPOLYLINE
  5
5CC
100
AcDbEntity
  8
ASSI
100
AcDbPolyline
 62
7
  6
CONTINUOUS
 90
4
 70
0
 10
-50.211796092
 20
-6.1182503851
 10
-50.2564398112
 20
-6.1094591574
 10
-50.3012750413
 20
-6.1016163616
 10
-50.3463301696
 20
-6.0948404921
  0
LWPOLYLINE
  5
5CD
100
AcDbEntity
  8
ASSI
100
AcDbPolyline
 62
7
  6
CONTINUOUS
 90
3
 70
0
 10
-50.2371012902
 20
-6.2589620315
 10
-50.206513137
 20
-6.2655365746
 10
-50.1760990232
 20
-6.2728039119
  0
LWPOLYLINE
  5
5CE
100
AcDbEntity
  8
ASSI
100
AcDbPolyline
 62
7
  6
CONTINUOUS
 90
4
 70
0
 10
-50.1760990232
 20
-6.2728039119
 10
-50.1458076934
 20
-6.2807696412
 10
-50.1155106901
 20
-6.2896593086
 10
-50.0850570961
 20
-6.2994017137
  0
LWPOLYLINE
  5
5CF
100
AcDbEntity
  8
ASSI
100
AcDbPolyline
 62
7
  6
CONTINUOUS
 90
4
 70
0
 10
-50.0794501841
 20
-6.1519543379
 10
-50.1232535944
 20
-6.1393890741
 10
-50.1673722874
 20
-6.1281085337
 10
-50.211796092
 20
-6.1182503851
  0
LINE
  5
5D0
100
AcDbEntity
  8
ASSI
100
AcDbLine
 62
250
  6
CONTINUOUS
 10
-41.1179229278
 20
-7.3268805602
 11
-40.8777881771
 21
-7.4017731764
  0
LWPOLYLINE
  5
5D1
100
AcDbEntity
  8
ASSI
100
AcDbPolyline
 62
7
  6
CONTINUOUS
 90
9
 70
0
 10
-49.5253884584
 20
-6.2849344354
 10
-49.5564850053
 20
-6.2750429455
 10
-49.5876774806
 20
-6.2703345122
 10
-49.6189109235
 20
-6.2714125816
 10
-49.6502402391
 20
-6.2776737139
 10
-49.6790911466
 20
-6.2880673541
 10
-49.704605528
 20
-6.3022433074
 10
-49.7276414655
 20
-6.3205517365
 10
-49.748198968
 20
-6.3429926168
  0
LINE
  5
5D2
100
AcDbEntity
  8
ASSI
100
AcDbLine
 62
7
  6
CONTINUOUS
 10
-50.0359519103
 20
-6.1659419831
 11
-50.0794501841
 21
-6.1519543379
  0
LWPOLYLINE
  5
5D3
100
AcDbEntity
  8
ASSI
100
AcDbPolyline
 62
7
  6
CONTINUOUS
 90
3
 70
0
 10
-49.672292157
 20
-6.6354208181
 10
-49.6437568795
 20
-6.6450230051
 10
-49.6149128824
 20
-6.6497787814
  0
LINE
  5
5D4
100
AcDbEntity
  8
ASSI
100
AcDbLine
 62
7
  6
CONTINUOUS
 10
-50.0850570961
 20
-6.2994017137
 11
-50.0545978484
 21
-6.3100680513
  0
LWPOLYLINE
  5
5D5
100
AcDbEntity
  8
ASSI
100
AcDbPolyline
 62
7
  6
CONTINUOUS
 90
10
 70
0
 10
-50.0545978484
 20
-6.3100680513
 10
-50.0244572752
 20
-6.3220974568
 10
-49.9941959232
 20
-6.3356258557
 10
-49.964253274
 20
-6.3505173108
 10
-49.9362720341
 20
-6.3668031615
 10
-49.9104761069
 20
-6.384588036
 10
-49.8866415704
 20
-6.4037672899
 10
-49.8657393539
 20
-6.4240583546
 10
-49.8480930814
 20
-6.445367036
 10
-49.8333790903
 20
-6.4677875129
  0
LINE
  5
5D6
100
AcDbEntity
  8
ASSI
100
AcDbLine
 62
250
  6
CONTINUOUS
 10
-42.6655789417
 20
-11.0071210259
 11
-42.132358972
 21
-11.3052585311
  0
LWPOLYLINE
  5
5D7
100
AcDbEntity
  8
ASSI
100
AcDbPolyline
 62
7
  6
CONTINUOUS
 90
11
 70
0
 10
-50.2849465841
 20
-10.0763948685
 10
-50.2411556796
 20
-10.1081713162
 10
-50.1924523394
 20
-10.1351330048
 10
-50.1413274816
 20
-10.1550348595
 10
-50.0876313741
 20
-10.1672965386
 10
-50.0315134104
 20
-10.1724985385
 10
-49.9759129506
 20
-10.1701370342
 10
-49.9207154557
 20
-10.1597781833
 10
-49.8660350845
 20
-10.1418557629
 10
-49.8151541662
 20
-10.1171673315
 10
-49.7682525373
 20
-10.0850854629
  0
LINE
  5
5D8
100
AcDbEntity
  8
ASSI
100
AcDbLine
 62
7
  6
CONTINUOUS
 10
-50.3229946782
 20
-10.0405519677
 11
-50.2849465841
 21
-10.0763948685
  0
LINE
  5
5D9
100
AcDbEntity
  8
ASSI
100
AcDbLine
 62
250
  6
CONTINUOUS
 10
-42.1963478974
 20
-28.3304385773
 11
-41.9923006529
 21
-28.6452589565
  0
LWPOLYLINE
  5
5DA
100
AcDbEntity
  8
ASSI
100
AcDbPolyline
 62
250
  6
CONTINUOUS
 90
3
 70
0
 10
-41.9923006529
 20
-28.6452589565
 10
-41.8892874029
 20
-28.8047604419
 10
-41.8871630049
 20
-28.8081345386
  0
LINE
  5
5DB
100
AcDbEntity
  8
ASSI
100
AcDbLine
 62
7
  6
CONTINUOUS
 10
-64.9336896129
 20
18.3500850257
 11
-63.5690996129
 21
14.0998830257
  0
LINE
  5
5DC
100
AcDbEntity
  8
ASSI
100
AcDbLine
 62
250
  6
CONTINUOUS
 10
-55.8750595505
 20
-18.1597388435
 11
-55.8747930841
 21
-18.2186829859
  0
LINE
  5
5DD
100
AcDbEntity
  8
ASSI
100
AcDbLine
 62
7
  6
CONTINUOUS
 10
-58.1651960031
 20
26.9465603415
 11
-58.1651960031
 21
26.9965603415
  0
LWPOLYLINE
  5
5DE
100
AcDbEntity
  8
0
100
AcDbPolyline
 62
7
  6
CONTINUOUS
 90
13
 70
0
 43
0.3500000006
 10
-57.9107627106
 20
44.4321441193
 10
-57.9107627106
 20
45.7178555603
 10
-57.6964782257
 20
46.1464290619
 10
-57.2679047241
 20
46.5749980316
 10
-57.0536202393
 20
46.5749980316
 10
-56.6250467377
 20
46.1464290619
 10
-56.4107622528
 20
45.7178555603
 10
-56.4107622528
 20
44.4321441193
 10
-56.6250467377
 20
44.0035706177
 10
-57.0536202393
 20
43.5750016479
 10
-57.2679047241
 20
43.5750016479
 10
-57.6964782257
 20
44.0035706177
 10
-57.9107627106
 20
44.4321441193
  0
LINE
  5
5DF
100
AcDbEntity
  8
ASSI
100
AcDbLine
 62
7
  6
CONTINUOUS
 10
-57.9062272297
 20
26.9465603415
 11
-57.9062272297
 21
26.9965603415
  0
LINE
  5
5E0
100
AcDbEntity
  8
ASSI
100
AcDbLine
 62
7
  6
CONTINUOUS
 10
-57.2951777254
 20
26.9465603415
 11
-57.2951777254
 21
26.9965603415
  0
LINE
  5
5E1
100
AcDbEntity
  8
ASSI
100
AcDbLine
 62
7
  6
CONTINUOUS
 10
-57.188971392
 20
26.9465603415
 11
-57.188971392
 21
26.9965603415
  0
LINE
  5
5E2
100
AcDbEntity
  8
ASSI
100
AcDbLine
 62
250
  6
CONTINUOUS
 10
-55.8750488713
 20
16.5724192162
 11
-55.8750491146
 21
4.3749560051
  0
LINE
  5
5E3
100
AcDbEntity
  8
ASSI
100
AcDbLine
 62
250
  6
CONTINUOUS
 10
-55.8750486129
 20
26.8596899291
 11
-55.8750488246
 21
18.3500850257
  0
LINE
  5
5E4
100
AcDbEntity
  8
ASSI
100
AcDbLine
 62
250
  6
CONTINUOUS
 10
-55.8750486129
 20
-18.1597867952
 11
-55.875049258
 21
-1.6249506676
  0
LINE
  5
5E5
100
AcDbEntity
  8
ASSI
100
AcDbLine
 62
7
  6
CONTINUOUS
 10
-55.7803586129
 20
14.0998940257
 11
-55.7803696129
 21
16.9026090257
  0
LINE
  5
5E6
100
AcDbEntity
  8
ASSI
100
AcDbLine
 62
7
  6
CONTINUOUS
 10
-55.764643777
 20
26.9465603415
 11
-55.764643777
 21
26.9965603415
  0
LINE
  5
5E7
100
AcDbEntity
  8
ASSI
100
AcDbLine
 62
7
  6
CONTINUOUS
 10
-55.546411501
 20
26.9465603415
 11
-55.546411501
 21
26.9965603415
  0
LINE
  5
5E8
100
AcDbEntity
  8
ASSI
100
AcDbLine
 62
250
  6
CONTINUOUS
 10
-55.8747930841
 20
-18.2186829859
 11
-55.8750486129
 21
-31.2558791794
  0
LWPOLYLINE
  5
5E9
100
AcDbEntity
  8
ASSI
100
AcDbPolyline
 62
7
  6
CONTINUOUS
 90
22
 70
0
 10
-60.3041912971
 20
-8.7926498764
 10
-60.2721733452
 20
-8.6682893875
 10
-60.2318929343
 20
-8.547681857
 10
-60.1833498987
 20
-8.4308275744
 10
-60.1262052231
 20
-8.3171549105
 10
-60.0607975828
 20
-8.2072360016
 10
-59.9881435264
 20
-8.1027868497
 10
-59.9081305274
 20
-8.003906622
 10
-59.8208711695
 20
-7.9104967364
 10
-59.7277199907
 20
-7.8239766821
 10
-59.6285897898
 20
-7.7444601122
 10
-59.5235681143
 20
-7.6718339093
 10
-59.4142719031
 20
-7.6071774537
 10
-59.3006657887
 20
-7.5506187466
 10
-59.182785676
 20
-7.5020302007
 10
-59.0623556261
 20
-7.4621078121
 10
-58.9392847255
 20
-7.4309726742
 10
-58.8136645136
 20
-7.4085039418
 10
-58.6874928828
 20
-7.395034672
 10
-58.5614360484
 20
-7.3906759055
 10
-58.4348284649
 20
-7.3953166644
 10
-58.3076704313
 20
-7.4089569324
  0
LWPOLYLINE
  5
5EA
100
AcDbEntity
  8
ASSI
100
AcDbPolyline
 62
250
  6
CONTINUOUS
 90
16
 70
0
 10
-65.2973666626
 20
-30.1066405717
 10
-65.1277494331
 20
-29.5089789307
 10
-64.9338216513
 20
-28.8858983695
 10
-64.7190319162
 20
-28.2384198081
 10
-64.4849968325
 20
-27.563586801
 10
-64.2359216069
 20
-26.8664198725
 10
-63.979278105
 20
-26.1605080728
 10
-63.7169518913
 20
-25.4438158673
 10
-63.4527882586
 20
-24.7199618419
 10
-63.1974061951
 20
-24.0113313012
 10
-62.9558862167
 20
-23.3258870696
 10
-62.7280344117
 20
-22.6572259346
 10
-62.5162952762
 20
-22.0061917512
 10
-62.3232514499
 20
-21.3738230279
 10
-62.1515691158
 20
-20.7603543806
 10
-62.0049113801
 20
-20.1688984643
  0
LINE
  5
5EB
100
AcDbEntity
  8
ASSI
100
AcDbLine
 62
7
  6
CONTINUOUS
 10
-53.5136106129
 20
14.0999040257
 11
-53.2452546129
 21
14.9357310257
  0
LINE
  5
5EC
100
AcDbEntity
  8
ASSI
100
AcDbLine
 62
7
  6
CONTINUOUS
 10
-52.9859726129
 20
15.7432620257
 11
-52.5740306129
 21
17.0263800257
  0
LWPOLYLINE
  5
5ED
100
AcDbEntity
  8
ASSI
100
AcDbPolyline
 62
250
  6
CONTINUOUS
 90
6
 70
0
 10
-69.1928963932
 20
-27.4485403327
 10
-68.9323397163
 20
-26.8529664537
 10
-68.6429623676
 20
-26.2405788714
 10
-68.3308185836
 20
-25.6129771312
 10
-67.9977573157
 20
-24.9658587108
 10
-67.6513652335
 20
-24.3070540764
  0
LWPOLYLINE
  5
5EE
100
AcDbEntity
  8
ASSI
100
AcDbPolyline
 62
7
  6
CONTINUOUS
 90
10
 70
0
 10
-35.4754754864
 20
26.446541328
 10
-35.4822624275
 20
26.4387285878
 10
-35.5026215984
 20
26.4309211785
 10
-35.5365482251
 20
26.4231191001
 10
-35.5840345402
 20
26.4153205798
 10
-35.6450695955
 20
26.4075273904
 10
-35.7196390764
 20
26.3997448503
 10
-35.8077256453
 20
26.3919747325
 10
-35.9093091335
 20
26.384215264
 10
-36.0243662261
 20
26.3764664449
  0
LINE
  5
5EF
100
AcDbEntity
  8
ASSI
100
AcDbLine
 62
250
  6
CONTINUOUS
 10
-71.145758207
 20
-5.8048550787
 11
-71.091395897
 21
-5.7839894738
  0
LWPOLYLINE
  5
5F0
100
AcDbEntity
  8
0
100
AcDbPolyline
 62
7
  6
CONTINUOUS
 90
4
 70
0
 43
0.3500000006
 10
-85.4532029114
 20
-2.2249341545
 10
-86.3103408508
 20
-2.2249341545
 10
-86.7389188843
 20
-1.7963629189
 10
-86.7389188843
 20
-1.1535060654
  0
LWPOLYLINE
  5
5F1
100
AcDbEntity
  8
ASSI
100
AcDbPolyline
 62
250
  6
CONTINUOUS
 90
22
 70
0
 10
-55.8750493732
 20
-2.1249937445
 10
-56.1467839281
 20
-2.1125121247
 10
-56.4098167981
 20
-2.0826302074
 10
-56.664147596
 20
-2.0353479925
 10
-56.909950395
 20
-1.9698551103
 10
-57.147050591
 20
-1.8869619305
 10
-57.3749249069
 20
-1.7890995625
 10
-57.5935363111
 20
-1.676892845
 10
-57.8029217391
 20
-1.5497169396
 10
-58.0026689771
 20
-1.4081284394
 10
-58.1931952796
 20
-1.2525929526
 10
-58.3740836104
 20
-1.0826448715
 10
-58.5436704466
 20
-0.8974439661
 10
-58.7028807084
 20
-0.6965847103
 10
-58.8507899755
 20
-0.4804726305
 10
-58.9829609413
 20
-0.2494840754
 10
-59.0998707149
 20
-0.0010370361
 10
-59.2010429924
 20
0.2622864782
 10
-59.2806106017
 20
0.5323640925
 10
-59.3366181267
 20
0.8064883485
 10
-59.3710217331
 20
1.0873667045
 10
-59.3838216132
 20
1.3749991606
  0
LWPOLYLINE
  5
5F2
100
AcDbEntity
  8
ASSI
100
AcDbPolyline
 62
250
  6
CONTINUOUS
 90
5
 70
0
 10
-38.9520862314
 20
-7.1901861748
 10
-39.336537775
 20
-7.0572857644
 10
-39.7264146547
 20
-6.9207792908
 10
-40.1290791716
 20
-6.7771581476
 10
-40.5498704373
 20
-6.6232529852
  0
LWPOLYLINE
  5
5F3
100
AcDbEntity
  8
ASSI
100
AcDbPolyline
 62
250
  6
CONTINUOUS
 90
4
 70
0
 10
-37.1396132755
 20
-7.8152763194
 10
-37.4909391551
 20
-7.6922929892
 10
-37.8446724875
 20
-7.5699566479
 10
-38.9520862314
 20
-7.1901861748
  0
LINE
  5
5F4
100
AcDbEntity
  8
ASSI
100
AcDbLine
 62
250
  6
CONTINUOUS
 10
-40.6043390188
 20
-5.8048550787
 11
-40.6587013289
 21
-5.7839894738
  0
LWPOLYLINE
  5
5F5
100
AcDbEntity
  8
ASSI
100
AcDbPolyline
 62
7
  6
CONTINUOUS
 90
6
 70
0
 10
-49.8253871027
 20
-6.273379919
 10
-49.8656125327
 20
-6.2445692583
 10
-49.9071679331
 20
-6.2203579145
 10
-49.9498107572
 20
-6.2001437828
 10
-49.9928135072
 20
-6.1821204643
 10
-50.0359519103
 20
-6.1659419831
  0
LWPOLYLINE
  5
5F6
100
AcDbEntity
  8
ASSI
100
AcDbPolyline
 62
250
  6
CONTINUOUS
 90
6
 70
0
 10
-43.6796217253
 20
-13.385120864
 10
-43.7664318433
 20
-13.3074328395
 10
-43.811265399
 20
-13.2667584779
 10
-43.8567435545
 20
-13.2248398112
 10
-43.9025274453
 20
-13.1817782338
 10
-43.9942308331
 20
-13.0943139038
  0
LWPOLYLINE
  5
5F7
100
AcDbEntity
  8
ASSI
100
AcDbPolyline
 62
250
  6
CONTINUOUS
 90
3
 70
0
 10
-43.9942308331
 20
-13.0943139038
 10
-44.0403822063
 20
-13.0509808852
 10
-44.0869101993
 20
-13.0085848259
  0
LWPOLYLINE
  5
5F8
100
AcDbEntity
  8
ASSI
100
AcDbPolyline
 62
7
  6
CONTINUOUS
 90
3
 70
0
 10
-49.748198968
 20
-6.3429926168
 10
-49.7862492225
 20
-6.3061877195
 10
-49.8253871027
 20
-6.273379919
  0
LINE
  5
5F9
100
AcDbEntity
  8
ASSI
100
AcDbLine
 62
7
  6
CONTINUOUS
 10
-51.960585156
 20
-7.0599473962
 11
-53.3444172866
 21
-5.6054737338
  0
LINE
  5
5FA
100
AcDbEntity
  8
ASSI
100
AcDbLine
 62
7
  6
CONTINUOUS
 10
-50.8971547034
 20
-8.1776634842
 11
-51.8031365296
 21
-7.2254314733
  0
LINE
  5
5FB
100
AcDbEntity
  8
ASSI
100
AcDbLine
 62
7
  6
CONTINUOUS
 10
-50.0431356358
 20
-9.0752718327
 11
-50.8174076292
 21
-8.2614720858
  0
LINE
  5
5FC
100
AcDbEntity
  8
ASSI
100
AcDbLine
 62
7
  6
CONTINUOUS
 10
-48.6292504939
 20
-10.561315865
 11
-49.9126496968
 21
-9.212399633
  0
LINE
  5
5FD
100
AcDbEntity
  8
ASSI
100
AcDbLine
 62
7
  6
CONTINUOUS
 10
-50.8978912534
 20
-8.3434808439
 11
-50.0574017476
 21
-9.2283012734
  0
LINE
  5
5FE
100
AcDbEntity
  8
ASSI
100
AcDbLine
 62
7
  6
CONTINUOUS
 10
-53.3444172866
 20
-5.7679062565
 11
-51.9449759781
 21
-7.2411632761
  0
LINE
  5
5FF
100
AcDbEntity
  8
ASSI
100
AcDbLine
 62
7
  6
CONTINUOUS
 10
-51.7875034159
 20
-7.4069438908
 11
-50.9776025586
 21
-8.2595647176
  0
LINE
  5
600
100
AcDbEntity
  8
ASSI
100
AcDbLine
 62
7
  6
CONTINUOUS
 10
-49.6157756427
 20
-9.6932185804
 11
-48.7143942347
 21
-10.6421539372
  0
LINE
  5
601
100
AcDbEntity
  8
ASSI
100
AcDbLine
 62
7
  6
CONTINUOUS
 10
-50.3561303174
 20
-9.9998941075
 11
-50.3229946782
 21
-10.0405519677
  0
LINE
  5
602
100
AcDbEntity
  8
ASSI
100
AcDbLine
 62
7
  6
CONTINUOUS
 10
-50.3843535092
 20
-9.9544211628
 11
-50.3561303174
 21
-9.9998941075
  0
LWPOLYLINE
  5
603
100
AcDbEntity
  8
ASSI
100
AcDbPolyline
 62
250
  6
CONTINUOUS
 90
9
 70
0
 10
-44.7813161796
 20
-23.0235357582
 10
-45.1103454222
 20
-22.4014242809
 10
-45.4247647998
 20
-21.7985903952
 10
-45.7194717328
 20
-21.2210903565
 10
-45.99503343
 20
-20.6645174209
 10
-46.2537414458
 20
-20.1203275534
 10
-46.4940863965
 20
-19.5866453586
 10
-46.71168327
 20
-19.0665693913
 10
-46.9018615535
 20
-18.5642045736
  0
LINE
  5
604
100
AcDbEntity
  8
ASSI
100
AcDbLine
 62
7
  6
CONTINUOUS
 10
-64.0836476129
 20
18.3500850257
 11
-63.1440576129
 21
15.4235990257
  0
LINE
  5
605
100
AcDbEntity
  8
ASSI
100
AcDbLine
 62
250
  6
CONTINUOUS
 10
-55.3302883162
 20
26.9465603415
 11
-55.3302883162
 21
26.9965603415
  0
LINE
  5
606
100
AcDbEntity
  8
ASSI
100
AcDbLine
 62
7
  6
CONTINUOUS
 10
-54.9303266129
 20
14.0998940257
 11
-54.9303266129
 21
18.3500850257
  0
LINE
  5
607
100
AcDbEntity
  8
ASSI
100
AcDbLine
 62
250
  6
CONTINUOUS
 10
-54.8509789419
 20
26.9465603415
 11
-54.8509789419
 21
26.9965603415
  0
LINE
  5
608
100
AcDbEntity
  8
ASSI
100
AcDbLine
 62
250
  6
CONTINUOUS
 10
-54.3174118168
 20
26.9465603415
 11
-54.3174118168
 21
26.9965603415
  0
LINE
  5
609
100
AcDbEntity
  8
ASSI
100
AcDbLine
 62
7
  6
CONTINUOUS
 10
-54.1177194346
 20
26.9465603415
 11
-54.1177194346
 21
26.9965603415
  0
LINE
  5
60A
100
AcDbEntity
  8
ASSI
100
AcDbLine
 62
7
  6
CONTINUOUS
 10
-53.8791190376
 20
26.9465603415
 11
-53.8791190376
 21
26.9965603415
  0
LWPOLYLINE
  5
60B
100
AcDbEntity
  8
0
100
AcDbPolyline
 62
7
  6
CONTINUOUS
 90
4
 70
0
 43
0.3500000006
 10
-53.8393348389
 20
44.0035706177
 10
-53.8393348389
 20
44.860713089
 10
-53.4107613373
 20
45.2892865906
 10
-52.7679078827
 20
45.2892865906
  0
LINE
  5
60C
100
AcDbEntity
  8
ASSI
100
AcDbLine
 62
250
  6
CONTINUOUS
 10
-53.6914392761
 20
26.9465603415
 11
-53.6914392761
 21
26.9965603415
  0
LINE
  5
60D
100
AcDbEntity
  8
ASSI
100
AcDbLine
 62
7
  6
CONTINUOUS
 10
-53.3444172866
 20
-5.6054737338
 11
-53.3444172866
 21
-5.7679062565
  0
LINE
  5
60E
100
AcDbEntity
  8
ASSI
100
AcDbLine
 62
250
  6
CONTINUOUS
 10
-53.1735019072
 20
26.9465603415
 11
-53.1735019072
 21
26.9965603415
  0
LINE
  5
60F
100
AcDbEntity
  8
ASSI
100
AcDbLine
 62
7
  6
CONTINUOUS
 10
-52.9416666704
 20
-11.6718991925
 11
-52.9416666704
 21
-12.6775047467
  0
LWPOLYLINE
  5
610
100
AcDbEntity
  8
ASSI
100
AcDbPolyline
 62
250
  6
CONTINUOUS
 90
10
 70
0
 10
-67.6513652335
 20
-24.3070540764
 10
-66.9687810462
 20
-23.0235357582
 10
-66.6397518036
 20
-22.4014242809
 10
-66.325332426
 20
-21.7985903952
 10
-66.030625493
 20
-21.2210903565
 10
-65.7550637959
 20
-20.6645174209
 10
-65.49635578
 20
-20.1203275534
 10
-65.2560108294
 20
-19.5866453586
 10
-65.0384139558
 20
-19.0665693913
 10
-64.8482356724
 20
-18.5642045736
  0
LWPOLYLINE
  5
611
100
AcDbEntity
  8
ASSI
100
AcDbPolyline
 62
250
  6
CONTINUOUS
 90
4
 70
0
 10
-67.8475697805
 20
-13.1817782338
 10
-67.7558663927
 20
-13.0943139038
 10
-67.7097150196
 20
-13.0509808852
 10
-67.6631870265
 20
-13.0085848259
  0
LWPOLYLINE
  5
612
100
AcDbEntity
  8
ASSI
100
AcDbPolyline
 62
250
  6
CONTINUOUS
 90
4
 70
0
 10
-67.9836653825
 20
-13.3074328395
 10
-67.9388318268
 20
-13.2667584779
 10
-67.8933536713
 20
-13.2248398112
 10
-67.8475697805
 20
-13.1817782338
  0
LINE
  5
613
100
AcDbEntity
  8
ASSI
100
AcDbLine
 62
250
  6
CONTINUOUS
 10
-68.0704755006
 20
-13.385120864
 11
-67.9836653825
 21
-13.3074328395
  0
LWPOLYLINE
  5
614
100
AcDbEntity
  8
ASSI
100
AcDbPolyline
 62
250
  6
CONTINUOUS
 90
3
 70
0
 10
-74.6104839503
 20
-7.8152763194
 10
-74.2591580708
 20
-7.6922929892
 10
-73.9054247384
 20
-7.5699566479
  0
LWPOLYLINE
  5
615
100
AcDbEntity
  8
ASSI
100
AcDbPolyline
 62
250
  6
CONTINUOUS
 90
5
 70
0
 10
-72.7980109944
 20
-7.1901861748
 10
-72.4135594508
 20
-7.0572857644
 10
-72.0236825712
 20
-6.9207792908
 10
-71.6210180542
 20
-6.7771581476
 10
-71.2002267885
 20
-6.6232529852
  0
LINE
  5
616
100
AcDbEntity
  8
ASSI
100
AcDbLine
 62
250
  6
CONTINUOUS
 10
-73.9054247384
 20
-7.5699566479
 11
-72.7980109944
 21
-7.1901861748
  0
LINE
  5
617
100
AcDbEntity
  8
ASSI
100
AcDbLine
 62
250
  6
CONTINUOUS
 10
-70.6321742981
 20
-7.3268805602
 11
-70.8723090488
 21
-7.4017731764
  0
LWPOLYLINE
  5
618
100
AcDbEntity
  8
ASSI
100
AcDbPolyline
 62
7
  6
CONTINUOUS
 90
10
 70
0
 10
-76.2746217394
 20
26.446541328
 10
-76.2678347983
 20
26.4387285878
 10
-76.2474756275
 20
26.4309211785
 10
-76.2135490007
 20
26.4231191001
 10
-76.1660626856
 20
26.4153205798
 10
-76.1050276304
 20
26.4075273904
 10
-76.0304581495
 20
26.3997448503
 10
-75.9423715806
 20
26.3919747325
 10
-75.8407880923
 20
26.384215264
 10
-75.7257309998
 20
26.3764664449
  0
LWPOLYLINE
  5
619
100
AcDbEntity
  8
ASSI
100
AcDbPolyline
 62
7
  6
CONTINUOUS
 90
5
 70
0
 10
-49.432090821
 20
-6.3679731322
 10
-49.4497671008
 20
-6.3419220384
 10
-49.4720294879
 20
-6.3183740066
 10
-49.4971268573
 20
-6.2992491989
 10
-49.5253884584
 20
-6.2849344354
  0
LINE
  5
61A
100
AcDbEntity
  8
ASSI
100
AcDbLine
 62
7
  6
CONTINUOUS
 10
-49.8333790903
 20
-6.4677875129
 11
-49.8215973684
 21
-6.4913197769
  0
LWPOLYLINE
  5
61B
100
AcDbEntity
  8
ASSI
100
AcDbPolyline
 62
250
  6
CONTINUOUS
 90
7
 70
0
 10
-42.5572008327
 20
-27.4485403327
 10
-42.8177575095
 20
-26.8529664537
 10
-43.1071348582
 20
-26.2405788714
 10
-43.4192786423
 20
-25.6129771312
 10
-43.7523399101
 20
-24.9658587108
 10
-44.0987319923
 20
-24.3070540764
 10
-44.7813161796
 20
-23.0235357582
  0
LINE
  5
61C
100
AcDbEntity
  8
ASSI
100
AcDbLine
 62
7
  6
CONTINUOUS
 10
-58.2376876129
 20
16.9026090257
 11
-57.4340336129
 21
14.0998940257
  0
LWPOLYLINE
  5
61D
100
AcDbEntity
  8
ASSI
100
AcDbPolyline
 62
250
  6
CONTINUOUS
 90
16
 70
0
 10
-46.4527305632
 20
-30.1066405717
 10
-46.6223477927
 20
-29.5089789307
 10
-46.8162755746
 20
-28.8858983695
 10
-47.0310653097
 20
-28.2384198081
 10
-47.2651003933
 20
-27.563586801
 10
-47.5141756189
 20
-26.8664198725
 10
-47.7708191208
 20
-26.1605080728
 10
-48.0331453346
 20
-25.4438158673
 10
-48.2973089672
 20
-24.7199618419
 10
-48.5526910308
 20
-24.0113313012
 10
-48.7942110092
 20
-23.3258870696
 10
-49.0220628142
 20
-22.6572259346
 10
-49.2338019496
 20
-22.0061917512
 10
-49.4268457759
 20
-21.3738230279
 10
-49.5985281101
 20
-20.7603543806
 10
-49.7451858458
 20
-20.1688984643
  0
LWPOLYLINE
  5
61E
100
AcDbEntity
  8
ASSI
100
AcDbPolyline
 62
7
  6
CONTINUOUS
 90
10
 70
0
 10
-51.7168150851
 20
-9.8908939981
 10
-51.7141905817
 20
-9.9018623765
 10
-51.7102572196
 20
-9.9120038444
 10
-51.705015002
 20
-9.9213184073
 10
-51.6981885685
 20
-9.9299700802
 10
-51.6900532869
 20
-9.937794857
 10
-51.6814352443
 20
-9.944300712
 10
-51.6726097957
 20
-9.9493236411
 10
-51.663301573
 20
-9.9530276586
 10
-51.6535105708
 20
-9.9554127678
  0
LINE
  5
61F
100
AcDbEntity
  8
ASSI
100
AcDbLine
 62
7
  6
CONTINUOUS
 10
-51.7732612348
 20
-9.2354412598
 11
-51.7168150854
 21
-9.8908939954
  0
LINE
  5
620
100
AcDbEntity
  8
ASSI
100
AcDbLine
 62
7
  6
CONTINUOUS
 10
-51.9970467211
 20
-6.6364927114
 11
-51.960585156
 21
-7.0599473962
  0
LINE
  5
621
100
AcDbEntity
  8
ASSI
100
AcDbLine
 62
7
  6
CONTINUOUS
 10
-51.9449759781
 20
-7.2411632761
 11
-51.7863982823
 21
-9.0828836201
  0
LINE
  5
622
100
AcDbEntity
  8
ASSI
100
AcDbLine
 62
7
  6
CONTINUOUS
 10
-51.6547359137
 20
-8.9488591839
 11
-51.7875034159
 21
-7.4069438908
  0
LINE
  5
623
100
AcDbEntity
  8
ASSI
100
AcDbLine
 62
7
  6
CONTINUOUS
 10
-51.8031365296
 20
-7.2254314733
 11
-51.8533538337
 21
-6.6422217588
  0
LINE
  5
624
100
AcDbEntity
  8
ASSI
100
AcDbLine
 62
7
  6
CONTINUOUS
 10
-51.5803146137
 20
-9.8133460285
 11
-51.6416222866
 21
-9.1012972819
  0
LWPOLYLINE
  5
625
100
AcDbEntity
  8
ASSI
100
AcDbPolyline
 62
250
  6
CONTINUOUS
 90
13
 70
0
 10
-50.5581024968
 20
-30.3575367591
 10
-50.5562532771
 20
-30.4602368059
 10
-50.5549635758
 20
-30.5584970241
 10
-50.5542390926
 20
-30.6516570185
 10
-50.5540857118
 20
-30.7391442187
 10
-50.5545103858
 20
-30.8201609358
 10
-50.5555143603
 20
-30.8937666717
 10
-50.557093289
 20
-30.9593658279
 10
-50.5592306648
 20
-31.0165985123
 10
-50.5618994727
 20
-31.065016124
 10
-50.5650733958
 20
-31.1043159535
 10
-50.5687312267
 20
-31.1342728711
 10
-50.572850173
 20
-31.1546253541
  0
LWPOLYLINE
  5
626
100
AcDbEntity
  8
ASSI
100
AcDbPolyline
 62
7
  6
CONTINUOUS
 90
7
 70
0
 10
-50.4318827012
 20
-9.7626607577
 10
-50.4317968846
 20
-9.7709696229
 10
-50.4315504002
 20
-9.7792409291
 10
-50.4311432485
 20
-9.7874746763
 10
-50.43057543
 20
-9.7956708649
 10
-50.4298469451
 20
-9.8038294949
 10
-50.4289577944
 20
-9.8119505666
  0
LINE
  5
627
100
AcDbEntity
  8
ASSI
100
AcDbLine
 62
250
  6
CONTINUOUS
 10
-52.6613839667
 20
26.9465603415
 11
-52.6613839667
 21
26.9965603415
  0
LINE
  5
628
100
AcDbEntity
  8
ASSI
100
AcDbLine
 62
7
  6
CONTINUOUS
 10
-52.4678847767
 20
26.9465603415
 11
-52.4678847767
 21
26.9965603415
  0
LINE
  5
629
100
AcDbEntity
  8
ASSI
100
AcDbLine
 62
7
  6
CONTINUOUS
 10
-52.1689036827
 20
-6.4941647477
 11
-52.1689036827
 21
-6.6367010046
  0
LINE
  5
62A
100
AcDbEntity
  8
ASSI
100
AcDbLine
 62
7
  6
CONTINUOUS
 10
-51.7753615113
 20
26.9465603415
 11
-51.7753615113
 21
26.9965603415
  0
LINE
  5
62B
100
AcDbEntity
  8
ASSI
100
AcDbLine
 62
7
  6
CONTINUOUS
 10
-51.7231285781
 20
-6.3639159458
 11
-51.7231285781
 21
-6.4936121369
  0
LINE
  5
62C
100
AcDbEntity
  8
ASSI
100
AcDbLine
 62
7
  6
CONTINUOUS
 10
-51.7231169685
 20
-6.11344439
 11
-51.7231169685
 21
-6.2076486124
  0
LINE
  5
62D
100
AcDbEntity
  8
ASSI
100
AcDbLine
 62
7
  6
CONTINUOUS
 10
-51.6535105708
 20
-9.9554127678
 11
-51.6535105708
 21
-10.1704169899
  0
LINE
  5
62E
100
AcDbEntity
  8
ASSI
100
AcDbLine
 62
7
  6
CONTINUOUS
 10
-51.59786701
 20
26.9465603415
 11
-51.59786701
 21
26.9965603415
  0
LINE
  5
62F
100
AcDbEntity
  8
ASSI
100
AcDbLine
 62
7
  6
CONTINUOUS
 10
-51.479347642
 20
-6.4933289954
 11
-51.479347642
 21
-6.2765311804
  0
LINE
  5
630
100
AcDbEntity
  8
ASSI
100
AcDbLine
 62
7
  6
CONTINUOUS
 10
-51.3891507999
 20
-10.1700965819
 11
-51.3891507999
 21
-9.9556389923
  0
LINE
  5
631
100
AcDbEntity
  8
ASSI
100
AcDbLine
 62
250
  6
CONTINUOUS
 10
-51.2385115122
 20
26.9465603415
 11
-51.2385115122
 21
26.9965603415
  0
LINE
  5
632
100
AcDbEntity
  8
ASSI
100
AcDbLine
 62
7
  6
CONTINUOUS
 10
-51.1167910539
 20
-7.3480123741
 11
-51.1167910539
 21
-7.6330848868
  0
LINE
  5
633
100
AcDbEntity
  8
ASSI
100
AcDbLine
 62
7
  6
CONTINUOUS
 10
-51.0929900138
 20
-6.0177398677
 11
-51.0929900138
 21
-6.0741836686
  0
LINE
  5
634
100
AcDbEntity
  8
ASSI
100
AcDbLine
 62
7
  6
CONTINUOUS
 10
-51.0929900138
 20
-6.2201294919
 11
-51.0929900138
 21
-6.3681530989
  0
LINE
  5
635
100
AcDbEntity
  8
ASSI
100
AcDbLine
 62
7
  6
CONTINUOUS
 10
-50.9503550751
 20
-6.2254435077
 11
-50.9503550751
 21
-6.1600904184
  0
LINE
  5
636
100
AcDbEntity
  8
ASSI
100
AcDbLine
 62
250
  6
CONTINUOUS
 10
-50.8849756236
 20
26.9465603415
 11
-50.8849756236
 21
26.9965603415
  0
LINE
  5
637
100
AcDbEntity
  8
ASSI
100
AcDbLine
 62
250
  6
CONTINUOUS
 10
-50.6929305667
 20
26.9465603415
 11
-50.6929305667
 21
26.9965603415
  0
LINE
  5
638
100
AcDbEntity
  8
ASSI
100
AcDbLine
 62
7
  6
CONTINUOUS
 10
-50.5750486129
 20
-34.0250000257
 11
-50.5750486129
 21
-33.4552728394
  0
LINE
  5
639
100
AcDbEntity
  8
ASSI
100
AcDbLine
 62
7
  6
CONTINUOUS
 10
-50.5342761248
 20
-6.1595861244
 11
-50.5342761248
 21
-6.2249392137
  0
LINE
  5
63A
100
AcDbEntity
  8
ASSI
100
AcDbLine
 62
250
  6
CONTINUOUS
 10
-50.4514213871
 20
26.9465603415
 11
-50.4514213871
 21
26.9965603415
  0
LINE
  5
63B
100
AcDbEntity
  8
ASSI
100
AcDbLine
 62
7
  6
CONTINUOUS
 10
-50.3915935788
 20
-6.3673029958
 11
-50.3916051884
 21
-6.2342690251
  0
LINE
  5
63C
100
AcDbEntity
  8
ASSI
100
AcDbLine
 62
7
  6
CONTINUOUS
 10
-50.2429891695
 20
-7.51176036
 11
-50.2429891695
 21
-7.346953313
  0
LINE
  5
63D
100
AcDbEntity
  8
ASSI
100
AcDbLine
 62
7
  6
CONTINUOUS
 10
-50.2177036129
 20
14.0999040257
 11
-50.2177036129
 21
18.3500960257
  0
LINE
  5
63E
100
AcDbEntity
  8
ASSI
100
AcDbLine
 62
7
  6
CONTINUOUS
 10
-50.3916051884
 20
-6.0891315511
 11
-50.3915935788
 21
-6.0168897646
  0
LWPOLYLINE
  5
63F
100
AcDbEntity
  8
ASSI
100
AcDbPolyline
 62
250
  6
CONTINUOUS
 90
22
 70
0
 10
-52.3662756126
 20
1.3749991606
 10
-52.3782656558
 20
1.0925445622
 10
-52.4116467099
 20
0.8157991747
 10
-52.4664189599
 20
0.5447629982
 10
-52.5442401525
 20
0.27676235
 10
-52.6434532647
 20
0.0144709127
 10
-52.7590863577
 20
-0.234090266
 10
-52.8909780868
 20
-0.4667280426
 10
-53.0392906449
 20
-0.6856355604
 10
-53.1995371722
 20
-0.8893712021
 10
-53.3709901318
 20
-1.0773809023
 10
-53.5543776087
 20
-1.2502187261
 10
-53.7473959239
 20
-1.4081052515
 10
-53.9496236694
 20
-1.5512897615
 10
-54.1614824638
 20
-1.6795229727
 10
-54.3819329987
 20
-1.7922776139
 10
-54.6109224041
 20
-1.8900337501
 10
-54.8485034104
 20
-1.9723113161
 10
-55.093794976
 20
-2.0371428449
 10
-55.3465032308
 20
-2.0838725143
 10
-55.6069214908
 20
-2.1131561465
 10
-55.8750493732
 20
-2.1249937416
  0
LINE
  5
640
100
AcDbEntity
  8
ASSI
100
AcDbLine
 62
250
  6
CONTINUOUS
 10
-69.8608098229
 20
-28.8047604419
 11
-69.8629342209
 21
-28.8081345387
  0
LINE
  5
641
100
AcDbEntity
  8
ASSI
100
AcDbLine
 62
250
  6
CONTINUOUS
 10
-69.5537493284
 20
-28.3304385773
 11
-69.8608098229
 21
-28.8047604419
  0
LINE
  5
642
100
AcDbEntity
  8
ASSI
100
AcDbLine
 62
250
  6
CONTINUOUS
 10
-69.0845182842
 20
-11.0071210259
 11
-69.5080625448
 21
-11.2441081762
  0
LINE
  5
643
100
AcDbEntity
  8
ASSI
100
AcDbLine
 62
250
  6
CONTINUOUS
 10
-69.5080625448
 20
-11.2441081762
 11
-69.6177382539
 21
-11.3052585311
  0
LWPOLYLINE
  5
644
100
AcDbEntity
  8
ASSI
100
AcDbPolyline
 62
250
  6
CONTINUOUS
 90
22
 70
0
 10
-55.8750491853
 20
4.8749980091
 10
-55.603495802
 20
4.8625639773
 10
-55.3405562217
 20
4.832703501
 10
-55.0862308314
 20
4.7854165803
 10
-54.8403283083
 20
4.7199039508
 10
-54.6030405084
 20
4.6369648768
 10
-54.3749424602
 20
4.5389971518
 10
-54.1560672248
 20
4.4266101995
 10
-53.9463818406
 20
4.299194596
 10
-53.7463621874
 20
4.1573198637
 10
-53.5555879366
 20
4.0014216912
 10
-53.3744791992
 20
3.8310643898
 10
-53.2047723835
 20
3.6455104153
 10
-53.0455764742
 20
3.4443462797
 10
-52.8977819809
 20
3.2279854708
 10
-52.7657973712
 20
2.9969309077
 10
-52.6491812842
 20
2.7486850952
 10
-52.548374273
 20
2.4857455283
 10
-52.469107426
 20
2.2161076111
 10
-52.4132908006
 20
1.9424364782
 10
-52.3790135936
 20
1.6620669948
 10
-52.3662756126
 20
1.3749991606
  0
LINE
  5
645
100
AcDbEntity
  8
ASSI
100
AcDbLine
 62
250
  6
CONTINUOUS
 10
-75.7666703608
 20
26.9385206352
 11
-75.7746720929
 21
26.9465603415
  0
LINE
  5
646
100
AcDbEntity
  8
ASSI
100
AcDbLine
 62
7
  6
CONTINUOUS
 10
-57.8026996129
 20
18.3500850257
 11
-57.0090226129
 21
15.5822090257
  0
LWPOLYLINE
  5
647
100
AcDbEntity
  8
ASSI
100
AcDbPolyline
 62
250
  6
CONTINUOUS
 90
3
 70
0
 10
-46.1349697545
 20
-30.0773213505
 10
-46.1269754209
 20
-30.184504457
 10
-46.1254172256
 20
-30.3852562988
  0
LWPOLYLINE
  5
648
100
AcDbEntity
  8
ASSI
100
AcDbPolyline
 62
250
  6
CONTINUOUS
 90
13
 70
0
 10
-46.583620876
 20
-30.116824399
 10
-46.5798388435
 20
-30.2231638815
 10
-46.5770566592
 20
-30.3250174148
 10
-46.5752881023
 20
-30.4216744776
 10
-46.5745466796
 20
-30.5125061212
 10
-46.5748485045
 20
-30.5966797279
 10
-46.5762016485
 20
-30.6732315025
 10
-46.5786032724
 20
-30.741524477
 10
-46.5820252107
 20
-30.801134014
 10
-46.5864201844
 20
-30.8515511645
 10
-46.5917413516
 20
-30.8924287054
 10
-46.5979509017
 20
-30.9235051523
 10
-46.6050082499
 20
-30.9444781333
  0
LINE
  5
649
100
AcDbEntity
  8
ASSI
100
AcDbLine
 62
7
  6
CONTINUOUS
 10
-49.9654906685
 20
26.9465603415
 11
-49.9654906685
 21
26.9965603415
  0
LINE
  5
64A
100
AcDbEntity
  8
ASSI
100
AcDbLine
 62
7
  6
CONTINUOUS
 10
-49.8982999057
 20
-6.8554504773
 11
-49.8982999057
 21
-7.1608930176
  0
LINE
  5
64B
100
AcDbEntity
  8
ASSI
100
AcDbLine
 62
7
  6
CONTINUOUS
 10
-49.8982999057
 20
-7.3249409579
 11
-49.8982999057
 21
-7.3524074046
  0
LINE
  5
64C
100
AcDbEntity
  8
ASSI
100
AcDbLine
 62
7
  6
CONTINUOUS
 10
-49.8250486129
 20
-32.5265640545
 11
-49.8250486129
 21
-31.8149487925
  0
LINE
  5
64D
100
AcDbEntity
  8
ASSI
100
AcDbLine
 62
7
  6
CONTINUOUS
 10
-49.5390831825
 20
-6.9589441059
 11
-49.5390831825
 21
-7.2238270652
  0
LINE
  5
64E
100
AcDbEntity
  8
ASSI
100
AcDbLine
 62
7
  6
CONTINUOUS
 10
-49.4142335251
 20
-7.3518397776
 11
-49.4142335251
 21
-6.8548673789
  0
LINE
  5
64F
100
AcDbEntity
  8
ASSI
100
AcDbLine
 62
7
  6
CONTINUOUS
 10
-49.3793906129
 20
17.5638140257
 11
-49.3793806129
 21
16.5295550257
  0
LINE
  5
650
100
AcDbEntity
  8
ASSI
100
AcDbLine
 62
7
  6
CONTINUOUS
 10
-48.8084305554
 20
-12.672495202
 11
-48.8084305554
 21
-11.6668896477
  0
LINE
  5
651
100
AcDbEntity
  8
ASSI
100
AcDbLine
 62
7
  6
CONTINUOUS
 10
-48.3455483162
 20
-5.7427951589
 11
-48.3455483162
 21
-5.5802799888
  0
LINE
  5
652
100
AcDbEntity
  8
ASSI
100
AcDbLine
 62
7
  6
CONTINUOUS
 10
-49.3676606129
 20
14.0999040257
 11
-49.3675656129
 21
15.7432730257
  0
LINE
  5
653
100
AcDbEntity
  8
ASSI
100
AcDbLine
 62
7
  6
CONTINUOUS
 10
-49.8159976301
 20
-6.6397524523
 11
-49.8361013465
 21
-6.8553750917
  0
LINE
  5
654
100
AcDbEntity
  8
ASSI
100
AcDbLine
 62
7
  6
CONTINUOUS
 10
-49.8824528588
 20
-7.3524074046
 11
-50.0431356358
 21
-9.0752718327
  0
LINE
  5
655
100
AcDbEntity
  8
ASSI
100
AcDbLine
 62
7
  6
CONTINUOUS
 10
-50.0574017476
 20
-9.2283012734
 11
-50.0691710329
 21
-9.3544723919
  0
LINE
  5
656
100
AcDbEntity
  8
ASSI
100
AcDbLine
 62
7
  6
CONTINUOUS
 10
-49.9126496968
 20
-9.212399633
 11
-49.7391521462
 21
-7.3522335839
  0
LINE
  5
657
100
AcDbEntity
  8
ASSI
100
AcDbLine
 62
7
  6
CONTINUOUS
 10
-49.6927998827
 20
-6.8551890698
 11
-49.672292157
 21
-6.6354208181
  0
LINE
  5
658
100
AcDbEntity
  8
ASSI
100
AcDbLine
 62
7
  6
CONTINUOUS
 10
-49.7272153799
 20
-7.2240550843
 11
-49.7196427468
 21
-7.1429193798
  0
LWPOLYLINE
  5
659
100
AcDbEntity
  8
ASSI
100
AcDbPolyline
 62
7
  6
CONTINUOUS
 90
3
 70
0
 10
-50.4196383614
 20
-9.6648237513
 10
-50.4285317224
 20
-9.7128572749
 10
-50.4318827012
 20
-9.7626607577
  0
LWPOLYLINE
  5
65A
100
AcDbEntity
  8
ASSI
100
AcDbPolyline
 62
7
  6
CONTINUOUS
 90
6
 70
0
 10
-49.4189523527
 20
-6.5218915673
 10
-49.4110330541
 20
-6.4905402629
 10
-49.4083296133
 20
-6.459224451
 10
-49.4112440449
 20
-6.4279493434
 10
-49.4193743839
 20
-6.3967097301
 10
-49.432090821
 20
-6.3679731322
  0
LINE
  5
65B
100
AcDbEntity
  8
ASSI
100
AcDbLine
 62
7
  6
CONTINUOUS
 10
-50.4052024845
 20
-9.6185602433
 11
-50.4196383614
 21
-9.6648237513
  0
LINE
  5
65C
100
AcDbEntity
  8
ASSI
100
AcDbLine
 62
7
  6
CONTINUOUS
 10
-52.0042825392
 20
-6.4608327359
 11
-52.017696665
 21
-6.4939814825
  0
LINE
  5
65D
100
AcDbEntity
  8
ASSI
100
AcDbLine
 62
250
  6
CONTINUOUS
 10
-65.8849533155
 20
-31.4067431666
 11
-65.8811614671
 21
-31.4006088444
  0
LINE
  5
65E
100
AcDbEntity
  8
ASSI
100
AcDbLine
 62
250
  6
CONTINUOUS
 10
-65.8811614671
 20
-31.4006088444
 11
-65.8239107611
 21
-31.3093121053
  0
LWPOLYLINE
  5
65F
100
AcDbEntity
  8
ASSI
100
AcDbPolyline
 62
250
  6
CONTINUOUS
 90
3
 70
0
 10
-65.8239107611
 20
-31.3093121053
 10
-65.6979136354
 20
-31.1088698511
 10
-65.5757627318
 20
-30.9147690237
  0
LWPOLYLINE
  5
660
100
AcDbEntity
  8
ASSI
100
AcDbPolyline
 62
7
  6
CONTINUOUS
 90
5
 70
0
 10
-51.865169775
 20
-6.493784293
 10
-51.8481654487
 20
-6.4677650945
 10
-51.8284934392
 20
-6.4434956675
 10
-51.8061537435
 20
-6.4209760266
 10
-51.781146363
 20
-6.4002061847
  0
LWPOLYLINE
  5
661
100
AcDbEntity
  8
ASSI
100
AcDbPolyline
 62
7
  6
CONTINUOUS
 90
4
 70
0
 10
-51.9494013479
 20
-6.3718261644
 10
-51.9702564895
 20
-6.3997463597
 10
-51.9884691521
 20
-6.4294210221
 10
-52.0042825392
 20
-6.4608327359
  0
LINE
  5
662
100
AcDbEntity
  8
ASSI
100
AcDbLine
 62
7
  6
CONTINUOUS
 10
-51.9261469154
 20
-6.3456430542
 11
-51.9494013479
 21
-6.3718261644
  0
LINE
  5
663
100
AcDbEntity
  8
ASSI
100
AcDbLine
 62
7
  6
CONTINUOUS
 10
-51.781146363
 20
-6.4002061847
 11
-51.7534713041
 21
-6.3811861541
  0
LINE
  5
664
100
AcDbEntity
  8
ASSI
100
AcDbLine
 62
7
  6
CONTINUOUS
 10
-51.7534713041
 20
-6.3811861541
 11
-51.7231285781
 21
-6.3639159458
  0
LWPOLYLINE
  5
665
100
AcDbEntity
  8
ASSI
100
AcDbPolyline
 62
7
  6
CONTINUOUS
 90
8
 70
0
 10
-51.7231169685
 20
-6.2076486124
 10
-51.755574464
 20
-6.2228484506
 10
-51.7869226885
 20
-6.2395347807
 10
-51.8171616356
 20
-6.2577075948
 10
-51.8464781081
 20
-6.2773007251
 10
-51.8746852952
 20
-6.2983803212
 10
-51.9012227699
 20
-6.3211448486
 10
-51.9261469154
 20
-6.3456430542
  0
LINE
  5
666
100
AcDbEntity
  8
ASSI
100
AcDbLine
 62
7
  6
CONTINUOUS
 10
-51.9027756129
 20
14.9357310257
 11
-51.6344306129
 21
14.0999040257
  0
LINE
  5
667
100
AcDbEntity
  8
ASSI
100
AcDbLine
 62
7
  6
CONTINUOUS
 10
-52.5740306129
 20
17.0263800257
 11
-52.1620676129
 21
15.7432620257
  0
LWPOLYLINE
  5
668
100
AcDbEntity
  8
ASSI
100
AcDbPolyline
 62
250
  6
CONTINUOUS
 90
10
 70
0
 10
-46.1254172256
 20
-30.3852562988
 10
-46.125881037
 20
-30.4769875938
 10
-46.1279833941
 20
-30.5620984734
 10
-46.1314201739
 20
-30.639686875
 10
-46.1359420934
 20
-30.7089964137
 10
-46.1415184113
 20
-30.769489935
 10
-46.148165357
 20
-30.8206427461
 10
-46.1558856948
 20
-30.8620434775
 10
-46.1646297274
 20
-30.8934852291
 10
-46.1743316546
 20
-30.9147832886
  0
LINE
  5
669
100
AcDbEntity
  8
ASSI
100
AcDbLine
 62
7
  6
CONTINUOUS
 10
-49.4315112714
 20
-6.5507952607
 11
-49.4189523527
 21
-6.5218915673
  0
LINE
  5
66A
100
AcDbEntity
  8
ASSI
100
AcDbLine
 62
7
  6
CONTINUOUS
 10
-50.8174076292
 20
-8.2614720858
 11
-49.8982999057
 21
-7.3249409579
  0
LINE
  5
66B
100
AcDbEntity
  8
ASSI
100
AcDbLine
 62
7
  6
CONTINUOUS
 10
-49.436952164
 20
-6.8548673789
 11
-48.3455483162
 21
-5.7427951589
  0
LINE
  5
66C
100
AcDbEntity
  8
ASSI
100
AcDbLine
 62
7
  6
CONTINUOUS
 10
-51.6416222866
 20
-9.1012972819
 11
-50.8978912534
 21
-8.3434808439
  0
LINE
  5
66D
100
AcDbEntity
  8
ASSI
100
AcDbLine
 62
7
  6
CONTINUOUS
 10
-53.1737133087
 20
-10.6624178258
 11
-51.7732612348
 21
-9.2354412598
  0
LINE
  5
66E
100
AcDbEntity
  8
ASSI
100
AcDbLine
 62
7
  6
CONTINUOUS
 10
-49.7196427468
 20
-7.1429193798
 11
-49.5390831825
 21
-6.9589441059
  0
LINE
  5
66F
100
AcDbEntity
  8
ASSI
100
AcDbLine
 62
7
  6
CONTINUOUS
 10
-50.9776025586
 20
-8.2595647176
 11
-51.6547359137
 21
-8.9488591839
  0
LINE
  5
670
100
AcDbEntity
  8
ASSI
100
AcDbLine
 62
7
  6
CONTINUOUS
 10
-51.7863982823
 20
-9.0828836201
 11
-53.2574305134
 21
-10.5803235871
  0
LINE
  5
671
100
AcDbEntity
  8
ASSI
100
AcDbLine
 62
7
  6
CONTINUOUS
 10
-48.3455483162
 20
-5.5802799888
 11
-49.5978597719
 21
-6.855074001
  0
LINE
  5
672
100
AcDbEntity
  8
ASSI
100
AcDbLine
 62
7
  6
CONTINUOUS
 10
-49.8982999057
 20
-7.1608930176
 11
-50.2429891695
 21
-7.51176036
  0
LINE
  5
673
100
AcDbEntity
  8
ASSI
100
AcDbLine
 62
7
  6
CONTINUOUS
 10
-50.3612662008
 20
-7.6321691792
 11
-50.8971547034
 21
-8.1776634842
  0
LWPOLYLINE
  5
674
100
AcDbEntity
  8
ASSI
100
AcDbPolyline
 62
7
  6
CONTINUOUS
 90
5
 70
0
 10
-50.2927316816
 20
-9.4550892558
 10
-50.3286387931
 20
-9.4903903351
 10
-50.3591907884
 20
-9.5298831522
 10
-50.384967989
 20
-9.5733366441
 10
-50.4052024845
 20
-9.6185602433
  0
LWPOLYLINE
  5
675
100
AcDbEntity
  8
ASSI
100
AcDbPolyline
 62
7
  6
CONTINUOUS
 90
4
 70
0
 10
-49.4964492603
 20
-6.6203378156
 10
-49.4714513374
 20
-6.6009500384
 10
-49.4491615166
 20
-6.5770964323
 10
-49.4315112714
 20
-6.5507952607
  0
LWPOLYLINE
  5
676
100
AcDbEntity
  8
ASSI
100
AcDbPolyline
 62
7
  6
CONTINUOUS
 90
5
 70
0
 10
-50.1180804424
 20
-9.3634786275
 10
-50.1647240453
 20
-9.377943645
 10
-50.209101741
 20
-9.3978673978
 10
-50.2520497232
 20
-9.4237490355
 10
-50.2927316816
 20
-9.4550892558
  0
LINE
  5
677
100
AcDbEntity
  8
ASSI
100
AcDbLine
 62
7
  6
CONTINUOUS
 10
-52.1489886129
 20
18.3500960257
 11
-50.7843876129
 21
14.0998940257
  0
LINE
  5
678
100
AcDbEntity
  8
ASSI
100
AcDbLine
 62
250
  6
CONTINUOUS
 10
-44.0747064913
 20
-3.9948339863
 11
-44.0747069527
 21
26.3627232938
  0
LWPOLYLINE
  5
679
100
AcDbEntity
  8
ASSI
100
AcDbPolyline
 62
250
  6
CONTINUOUS
 90
4
 70
0
 10
-44.0869104879
 20
-13.0085990584
 10
-44.0796668359
 20
-10.0433812193
 10
-44.0755992816
 20
-7.0384696835
 10
-44.0747064913
 20
-3.9948339863
  0
LINE
  5
67A
100
AcDbEntity
  8
ASSI
100
AcDbLine
 62
7
  6
CONTINUOUS
 10
-48.7143942347
 20
-10.6421539372
 11
-48.6292504939
 21
-10.561315865
  0
LWPOLYLINE
  5
67B
100
AcDbEntity
  8
ASSI
100
AcDbPolyline
 62
7
  6
CONTINUOUS
 90
9
 70
0
 10
-49.7682525373
 20
-10.0850854629
 10
-49.7251501986
 20
-10.0462373233
 10
-49.6885897715
 20
-10.0033023931
 10
-49.6593493261
 20
-9.9561369739
 10
-49.6366509758
 20
-9.9048845283
 10
-49.6209034289
 20
-9.8526554329
 10
-49.6122430013
 20
-9.8004865067
 10
-49.6105336747
 20
-9.7473408984
 10
-49.6157756427
 20
-9.6932185804
  0
LINE
  5
67C
100
AcDbEntity
  8
ASSI
100
AcDbLine
 62
250
  6
CONTINUOUS
 10
-68.3465948358
 20
-28.7279366497
 11
-68.5642730543
 21
-28.9134800706
  0
LINE
  5
67D
100
AcDbEntity
  8
ASSI
100
AcDbLine
 62
250
  6
CONTINUOUS
 10
-72.496875632
 20
-19.4082103942
 11
-72.6812027363
 21
-19.4638800051
  0
LINE
  5
67E
100
AcDbEntity
  8
ASSI
100
AcDbLine
 62
7
  6
CONTINUOUS
 10
-48.6256746129
 20
15.7432620257
 11
-47.7738366129
 21
14.0999040257
  0
LWPOLYLINE
  5
67F
100
AcDbEntity
  8
ASSI
100
AcDbPolyline
 62
250
  6
CONTINUOUS
 90
5
 70
0
 10
-40.4851733811
 20
-3.5389999747
 10
-40.4860508732
 20
-3.6727735032
 10
-40.4876084519
 20
-3.802945683
 10
-40.4898414401
 20
-3.9294817817
 10
-40.4930046323
 20
-4.0525487514
  0
LINE
  5
680
100
AcDbEntity
  8
ASSI
100
AcDbLine
 62
250
  6
CONTINUOUS
 10
-40.548071334
 20
-6.5099025078
 11
-40.5498185989
 21
-6.623272232
  0
LINE
  5
681
100
AcDbEntity
  8
ASSI
100
AcDbLine
 62
250
  6
CONTINUOUS
 10
-40.5388437221
 20
-5.8304820097
 11
-40.548071334
 21
-6.5099025078
  0
LINE
  5
682
100
AcDbEntity
  8
ASSI
100
AcDbLine
 62
250
  6
CONTINUOUS
 10
-40.5333103413
 20
-5.513611214
 11
-40.5388437221
 21
-5.8304820097
  0
LWPOLYLINE
  5
683
100
AcDbEntity
  8
ASSI
100
AcDbPolyline
 62
250
  6
CONTINUOUS
 90
3
 70
0
 10
-40.5102384908
 20
-4.605619371
 10
-40.5125261699
 20
-4.7046089222
 10
-40.5156937527
 20
-4.8918037649
  0
LINE
  5
684
100
AcDbEntity
  8
ASSI
100
AcDbLine
 62
250
  6
CONTINUOUS
 10
-40.5276721783
 20
-5.2769914602
 11
-40.5333103413
 21
-5.513611214
  0
LINE
  5
685
100
AcDbEntity
  8
ASSI
100
AcDbLine
 62
250
  6
CONTINUOUS
 10
-40.5233068274
 20
-5.1215199451
 11
-40.5276721783
 21
-5.2769914602
  0
LINE
  5
686
100
AcDbEntity
  8
ASSI
100
AcDbLine
 62
250
  6
CONTINUOUS
 10
-40.4930046323
 20
-4.0525487514
 11
-40.5102384908
 21
-4.605619371
  0
LWPOLYLINE
  5
687
100
AcDbEntity
  8
ASSI
100
AcDbPolyline
 62
250
  6
CONTINUOUS
 90
3
 70
0
 10
-40.515498397
 20
-4.8918133861
 10
-40.5182634221
 20
-4.9679169999
 10
-40.5233068274
 20
-5.1215199451
  0
LWPOLYLINE
  5
688
100
AcDbEntity
  8
ASSI
100
AcDbPolyline
 62
250
  6
CONTINUOUS
 90
22
 70
0
 10
-40.5498704373
 20
-6.6232529852
 10
-40.5792290638
 20
-7.311469062
 10
-40.6387428732
 20
-7.9896899801
 10
-40.7271931075
 20
-8.6563375832
 10
-40.8426491888
 20
-9.3067325513
 10
-40.9843649356
 20
-9.9427258529
 10
-41.1538946114
 20
-10.5718284322
 10
-41.3520759249
 20
-11.1939294471
 10
-41.577853164
 20
-11.8056656516
 10
-41.8313524007
 20
-12.4093244787
 10
-42.1131307047
 20
-13.0041403796
 10
-42.4228912211
 20
-13.5876656829
 10
-42.7598324757
 20
-14.1599783836
 10
-43.1242220116
 20
-14.7203561178
 10
-43.5158387836
 20
-15.2666363941
 10
-43.9328734698
 20
-15.797229366
 10
-44.3756203289
 20
-16.3120308886
 10
-44.8431114254
 20
-16.808656184
 10
-45.3309635938
 20
-17.2830415231
 10
-45.8368754162
 20
-17.7337253082
 10
-46.3608382725
 20
-18.1609392906
 10
-46.5276411333
 20
-18.2888107018
  0
LINE
  5
689
100
AcDbEntity
  8
ASSI
100
AcDbLine
 62
250
  6
CONTINUOUS
 10
-40.7223609208
 20
-6.512247924
 11
-40.751611975
 21
-6.6947141335
  0
LINE
  5
68A
100
AcDbEntity
  8
ASSI
100
AcDbLine
 62
250
  6
CONTINUOUS
 10
-40.751611975
 20
-6.6947141335
 11
-40.7815914359
 21
-6.87420462
  0
LWPOLYLINE
  5
68B
100
AcDbEntity
  8
ASSI
100
AcDbPolyline
 62
250
  6
CONTINUOUS
 90
3
 70
0
 10
-40.7815914359
 20
-6.87420462
 10
-40.8124859756
 20
-7.0519201088
 10
-40.8283555709
 20
-7.1400876416
  0
LWPOLYLINE
  5
68C
100
AcDbEntity
  8
ASSI
100
AcDbPolyline
 62
250
  6
CONTINUOUS
 90
6
 70
0
 10
-40.6048768589
 20
-5.8074198529
 10
-40.6206032758
 20
-5.8915896812
 10
-40.6359806109
 20
-5.9769483564
 10
-40.6510059235
 20
-6.0634942582
 10
-40.6656027453
 20
-6.1514163809
 10
-40.7223609208
 20
-6.512247924
  0
LWPOLYLINE
  5
68D
100
AcDbEntity
  8
ASSI
100
AcDbPolyline
 62
250
  6
CONTINUOUS
 90
3
 70
0
 10
-40.8283555709
 20
-7.1400876416
 10
-40.86102346
 20
-7.3150120417
 10
-40.8777864782
 20
-7.401775122
  0
LWPOLYLINE
  5
68E
100
AcDbEntity
  8
ASSI
100
AcDbPolyline
 62
250
  6
CONTINUOUS
 90
10
 70
0
 10
-40.8777864782
 20
-7.401775122
 10
-40.9745636676
 20
-7.8714914081
 10
-41.0829067852
 20
-8.3311748641
 10
-41.2020885485
 20
-8.7806693941
 10
-41.3304807167
 20
-9.2182288166
 10
-41.4680914263
 20
-9.6456052988
 10
-41.6170562671
 20
-10.0677305404
 10
-41.7780873932
 20
-10.4860020843
 10
-41.9499571293
 20
-10.8985710207
 10
-42.1323629402
 20
-11.3052604865
  0
LWPOLYLINE
  5
68F
100
AcDbEntity
  8
ASSI
100
AcDbPolyline
 62
250
  6
CONTINUOUS
 90
4
 70
0
 10
-40.5914906926
 20
-5.7434808597
 10
-40.5959104603
 20
-5.7636636931
 10
-40.6001964304
 20
-5.7841212131
 10
-40.6043390188
 20
-5.8048550787
  0
LWPOLYLINE
  5
690
100
AcDbEntity
  8
ASSI
100
AcDbPolyline
 62
250
  6
CONTINUOUS
 90
6
 70
0
 10
-40.5674098315
 20
-5.6220900245
 10
-40.5720604833
 20
-5.6424697449
 10
-40.5750011078
 20
-5.6636656099
 10
-40.5773247324
 20
-5.6846970444
 10
-40.5808865867
 20
-5.7046007145
 10
-40.5914906926
 20
-5.7434808597
  0
LINE
  5
691
100
AcDbEntity
  8
ASSI
100
AcDbLine
 62
250
  6
CONTINUOUS
 10
-40.8823224988
 20
-6.5155141736
 11
-40.9569724354
 21
-6.7779162437
  0
LINE
  5
692
100
AcDbEntity
  8
ASSI
100
AcDbLine
 62
250
  6
CONTINUOUS
 10
-40.9569724354
 20
-6.7779162437
 11
-40.9954925399
 21
-6.9122210982
  0
LWPOLYLINE
  5
693
100
AcDbEntity
  8
ASSI
100
AcDbPolyline
 62
250
  6
CONTINUOUS
 90
3
 70
0
 10
-40.9954925399
 20
-6.9122210982
 10
-41.0760834511
 20
-7.1866664753
 10
-41.1179229243
 20
-7.326880549
  0
LWPOLYLINE
  5
694
100
AcDbEntity
  8
ASSI
100
AcDbPolyline
 62
250
  6
CONTINUOUS
 90
10
 70
0
 10
-41.1179229243
 20
-7.326880549
 10
-41.2648018328
 20
-7.7866040069
 10
-41.4178757231
 20
-8.2329219418
 10
-41.5771352447
 20
-8.665834602
 10
-41.7424450041
 20
-9.0844064631
 10
-41.9139251065
 20
-9.489574767
 10
-42.0919515086
 20
-9.8841487367
 10
-42.2766432581
 20
-10.2690650923
 10
-42.4678590108
 20
-10.643388785
 10
-42.6655789417
 20
-11.0071210259
  0
LWPOLYLINE
  5
695
100
AcDbEntity
  8
ASSI
100
AcDbPolyline
 62
250
  6
CONTINUOUS
 90
6
 70
0
 10
-40.6587013314
 20
-5.783989481
 10
-40.6968800719
 20
-5.8998078044
 10
-40.7346952097
 20
-6.0180673558
 10
-40.7721468705
 20
-6.1387679654
 10
-40.8090033808
 20
-6.2619835568
 10
-40.8823224988
 20
-6.5155141736
  0
LINE
  5
696
100
AcDbEntity
  8
ASSI
100
AcDbLine
 62
250
  6
CONTINUOUS
 10
-68.5642730543
 20
-28.9134800706
 11
-68.7433080221
 21
-29.0651786051
  0
LWPOLYLINE
  5
697
100
AcDbEntity
  8
ASSI
100
AcDbPolyline
 62
250
  6
CONTINUOUS
 90
10
 70
0
 10
-40.5674098315
 20
-5.6220900245
 10
-40.5811884318
 20
-5.6336706348
 10
-40.5947058875
 20
-5.647515699
 10
-40.6073293705
 20
-5.6632516481
 10
-40.6177139358
 20
-5.6810427581
 10
-40.6258569063
 20
-5.7003642033
 10
-40.6336856929
 20
-5.7203767083
 10
-40.6421614214
 20
-5.7408526643
 10
-40.6505163698
 20
-5.7620639088
 10
-40.6587013289
 20
-5.7839894738
  0
LINE
  5
698
100
AcDbEntity
  8
ASSI
100
AcDbLine
 62
250
  6
CONTINUOUS
 10
-68.7433080221
 20
-29.0651786051
 11
-68.834880519
 21
-29.1421436739
  0
LWPOLYLINE
  5
699
100
AcDbEntity
  8
ASSI
100
AcDbPolyline
 62
250
  6
CONTINUOUS
 90
4
 70
0
 10
-68.834880519
 20
-29.1421436739
 10
-68.9007856289
 20
-29.1968837427
 10
-68.9235561966
 20
-29.2154572903
 10
-68.9393712236
 20
-29.2280285953
  0
LWPOLYLINE
  5
69A
100
AcDbEntity
  8
ASSI
100
AcDbPolyline
 62
250
  6
CONTINUOUS
 90
10
 70
0
 10
-72.6812027363
 20
-19.4638800051
 10
-72.8468373328
 20
-19.5127509433
 10
-72.9210988028
 20
-19.5341737418
 10
-72.98855091
 20
-19.5532619486
 10
-73.0486506747
 20
-19.5698589149
 10
-73.1011025987
 20
-19.5838878883
 10
-73.1455379665
 20
-19.5952567866
 10
-73.1817084736
 20
-19.6039082962
 10
-73.2094299644
 20
-19.6098010523
 10
-73.2284879406
 20
-19.6128856866
  0
LINE
  5
69B
100
AcDbEntity
  8
ASSI
100
AcDbLine
 62
7
  6
CONTINUOUS
 10
-47.7738366129
 20
14.0999040257
 11
-46.8164076129
 21
14.0999150257
  0
LINE
  5
69C
100
AcDbEntity
  8
ASSI
100
AcDbLine
 62
7
  6
CONTINUOUS
 10
-54.3636426129
 20
14.0998940257
 11
-53.5136106129
 21
14.0999040257
  0
LINE
  5
69D
100
AcDbEntity
  8
ASSI
100
AcDbLine
 62
7
  6
CONTINUOUS
 10
-59.0877196129
 20
14.0998940257
 11
-58.2376876129
 21
14.0998940257
  0
LINE
  5
69E
100
AcDbEntity
  8
ASSI
100
AcDbLine
 62
7
  6
CONTINUOUS
 10
-55.7803586129
 20
14.0998940257
 11
-54.9303266129
 21
14.0998940257
  0
LINE
  5
69F
100
AcDbEntity
  8
ASSI
100
AcDbLine
 62
7
  6
CONTINUOUS
 10
-50.2177036129
 20
14.0999040257
 11
-49.3676606129
 21
14.0999040257
  0
LINE
  5
6A0
100
AcDbEntity
  8
ASSI
100
AcDbLine
 62
7
  6
CONTINUOUS
 10
-57.4340336129
 20
14.0998940257
 11
-56.5840226129
 21
14.0999040257
  0
LINE
  5
6A1
100
AcDbEntity
  8
ASSI
100
AcDbLine
 62
7
  6
CONTINUOUS
 10
-60.7877616129
 20
14.0998830257
 11
-59.9377296129
 21
14.0998940257
  0
LINE
  5
6A2
100
AcDbEntity
  8
ASSI
100
AcDbLine
 62
7
  6
CONTINUOUS
 10
-51.6344306129
 20
14.0999040257
 11
-50.7843876129
 21
14.0998940257
  0
LINE
  5
6A3
100
AcDbEntity
  8
ASSI
100
AcDbLine
 62
7
  6
CONTINUOUS
 10
-63.5690996129
 20
14.0998830257
 11
-62.7190366129
 21
14.0998940257
  0
LINE
  5
6A4
100
AcDbEntity
  8
ASSI
100
AcDbLine
 62
7
  6
CONTINUOUS
 10
-53.2452546129
 20
14.9357310257
 11
-51.9027756129
 21
14.9357310257
  0
LINE
  5
6A5
100
AcDbEntity
  8
ASSI
100
AcDbLine
 62
7
  6
CONTINUOUS
 10
-52.9859726129
 20
15.7432620257
 11
-52.1620676129
 21
15.7432620257
  0
LINE
  5
6A6
100
AcDbEntity
  8
ASSI
100
AcDbLine
 62
7
  6
CONTINUOUS
 10
-49.3675656129
 20
15.7432730257
 11
-48.6256746129
 21
15.7432620257
  0
LINE
  5
6A7
100
AcDbEntity
  8
ASSI
100
AcDbLine
 62
7
  6
CONTINUOUS
 10
-47.7212230015
 20
15.8454887045
 11
-46.8164076129
 21
14.0999150257
  0
LINE
  5
6A8
100
AcDbEntity
  8
0
100
AcDbLine
 62
7
  6
CONTINUOUS
 10
-37.8250486129
 20
26.8465198932
 11
-37.8250486129
 21
26.9465603415
  0
LINE
  5
6A9
100
AcDbEntity
  8
0
100
AcDbLine
 62
7
  6
CONTINUOUS
 10
-37.7750486129
 20
26.8801553923
 11
-37.7750486129
 21
26.8465198932
  0
LINE
  5
6AA
100
AcDbEntity
  8
ASSI
100
AcDbLine
 62
250
  6
CONTINUOUS
 10
-37.0099852134
 20
26.3706187585
 11
-37.0099852129
 21
-3.5389999722
  0
LWPOLYLINE
  5
6AB
100
AcDbEntity
  8
ASSI
100
AcDbPolyline
 62
250
  6
CONTINUOUS
 90
4
 70
0
 10
-37.0147485481
 20
-3.9932848276
 10
-37.0158680533
 20
-4.4450446109
 10
-37.0168546118
 20
-4.5950901842
 10
-37.0187224675
 20
-4.7448722972
  0
LWPOLYLINE
  5
6AC
100
AcDbEntity
  8
ASSI
100
AcDbPolyline
 62
250
  6
CONTINUOUS
 90
7
 70
0
 10
-37.0187224675
 20
-4.7448722972
 10
-37.0230242761
 20
-4.9816332767
 10
-37.0252927153
 20
-5.0687223209
 10
-37.0280264855
 20
-5.1556810659
 10
-37.0302927819
 20
-5.2426382341
 10
-37.0311950339
 20
-5.3297169417
 10
-37.0340702369
 20
-5.4164041006
  0
LWPOLYLINE
  5
6AD
100
AcDbEntity
  8
ASSI
100
AcDbPolyline
 62
250
  6
CONTINUOUS
 90
4
 70
0
 10
-37.0089664102
 20
-3.5389999692
 10
-37.0120107451
 20
-3.6907161993
 10
-37.0138170391
 20
-3.8421429932
 10
-37.0147485481
 20
-3.9932848276
  0
LWPOLYLINE
  5
6AE
100
AcDbEntity
  8
ASSI
100
AcDbPolyline
 62
250
  6
CONTINUOUS
 90
6
 70
0
 10
-37.0314345531
 20
-5.4168042057
 10
-37.0380485513
 20
-5.6364225091
 10
-37.0458001117
 20
-5.8539150618
 10
-37.0546625355
 20
-6.0692623942
 10
-37.064766773
 20
-6.2817477918
 10
-37.07592217
 20
-6.4920482874
  0
LINE
  5
6AF
100
AcDbEntity
  8
ASSI
100
AcDbLine
 62
250
  6
CONTINUOUS
 10
-37.1258146739
 20
-7.3346791543
 11
-37.1322091392
 21
-7.4927977259
  0
LINE
  5
6B0
100
AcDbEntity
  8
ASSI
100
AcDbLine
 62
250
  6
CONTINUOUS
 10
-37.1322091392
 20
-7.4927977259
 11
-37.1396646661
 21
-7.6519940986
  0
LINE
  5
6B1
100
AcDbEntity
  8
ASSI
100
AcDbLine
 62
250
  6
CONTINUOUS
 10
-37.1396646661
 20
-7.6519940986
 11
-37.1482034155
 21
-7.812246786
  0
LWPOLYLINE
  5
6B2
100
AcDbEntity
  8
ASSI
100
AcDbPolyline
 62
250
  6
CONTINUOUS
 90
4
 70
0
 10
-37.07592217
 20
-6.4920482874
 10
-37.0997923338
 20
-6.9131189227
 10
-37.1125145259
 20
-7.1239196713
 10
-37.1258146739
 20
-7.3346791543
  0
LWPOLYLINE
  5
6B3
100
AcDbEntity
  8
ASSI
100
AcDbPolyline
 62
250
  6
CONTINUOUS
 90
10
 70
0
 10
-42.6655789417
 20
-11.0071210259
 10
-42.8009698853
 20
-11.2433255712
 10
-42.9421042378
 20
-11.4762244718
 10
-43.088976594
 20
-11.7058179515
 10
-43.24170902
 20
-11.932306683
 10
-43.400167263
 20
-12.1554904831
 10
-43.5639610038
 20
-12.3747684372
 10
-43.7329559643
 20
-12.5899405787
 10
-43.9072740898
 20
-12.8012077627
 10
-44.0869100728
 20
-13.0085704486
  0
LWPOLYLINE
  5
6B4
100
AcDbEntity
  8
ASSI
100
AcDbPolyline
 62
250
  6
CONTINUOUS
 90
10
 70
0
 10
-42.1320890413
 20
-11.3044166509
 10
-42.2819839923
 20
-11.5513248869
 10
-42.4375674447
 20
-11.7945592404
 10
-42.5987420653
 20
-12.0339475015
 10
-42.7653138098
 20
-12.2692159853
 10
-42.9372588204
 20
-12.5003656505
 10
-43.1147380681
 20
-12.7276282028
 10
-43.2977430495
 20
-12.9509877041
 10
-43.4860728349
 20
-13.1701984491
 10
-43.6796217992
 20
-13.3851209442
  0
LWPOLYLINE
  5
6B5
100
AcDbEntity
  8
ASSI
100
AcDbPolyline
 62
250
  6
CONTINUOUS
 90
37
 70
0
 10
-43.6796217992
 20
-13.3851209442
 10
-43.9347899713
 20
-13.653750353
 10
-44.196579389
 20
-13.9157365193
 10
-44.4647790818
 20
-14.1709129829
 10
-44.7359689265
 20
-14.4161233025
 10
-45.01298232
 20
-14.6544026901
 10
-45.3055562418
 20
-14.8940157651
 10
-45.6208782547
 20
-15.138783431
 10
-45.9525541544
 20
-15.3822318124
 10
-46.2900348478
 20
-15.6172438443
 10
-46.6272025505
 20
-15.839902809
 10
-46.9695856655
 20
-16.0540930879
 10
-47.3240565389
 20
-16.2647302451
 10
-47.6958064579
 20
-16.473555671
 10
-48.0800579829
 20
-16.6765655131
 10
-48.4688820976
 20
-16.8701519523
 10
-48.8625587509
 20
-17.0547026892
 10
-49.260710316
 20
-17.2294023756
 10
-49.6539746596
 20
-17.3906255205
 10
-50.0361706525
 20
-17.5370657076
 10
-50.4128378766
 20
-17.6718410965
 10
-50.7921731957
 20
-17.7980885055
 10
-51.182660234
 20
-17.9180800767
 10
-51.5759723703
 20
-18.0288396383
 10
-51.9549016818
 20
-18.1265830336
 10
-52.3079783726
 20
-18.2107549514
 10
-52.6459976396
 20
-18.2857735165
 10
-52.985137389
 20
-18.3555340428
 10
-53.3356462982
 20
-18.4222762895
 10
-53.687491497
 20
-18.4831857249
 10
-54.0262992754
 20
-18.5343550298
 10
-54.3419049521
 20
-18.5756179755
 10
-54.6437488259
 20
-18.609694699
 10
-54.9466072915
 20
-18.6370298685
 10
-55.2553490481
 20
-18.6571349513
 10
-55.5648692928
 20
-18.6698705951
 10
-55.8750486129
 20
-18.6750447157
  0
LINE
  5
6B6
100
AcDbEntity
  8
ASSI
100
AcDbLine
 62
250
  6
CONTINUOUS
 10
-69.1673377254
 20
-27.4964048703
 11
-69.4084699861
 21
-27.6193611236
  0
LINE
  5
6B7
100
AcDbEntity
  8
ASSI
100
AcDbLine
 62
250
  6
CONTINUOUS
 10
-69.4084699861
 20
-27.6193611236
 11
-69.5450294401
 21
-27.6882783107
  0
LWPOLYLINE
  5
6B8
100
AcDbEntity
  8
ASSI
100
AcDbPolyline
 62
250
  6
CONTINUOUS
 90
7
 70
0
 10
-69.5450294401
 20
-27.6882783107
 10
-69.6587136121
 20
-27.7449568016
 10
-69.7059239742
 20
-27.7681753062
 10
-69.7460587614
 20
-27.7876604746
 10
-69.7787932711
 20
-27.8032575459
 10
-69.803884045
 20
-27.8148508708
 10
-69.8210391348
 20
-27.8223010949
  0
LINE
  5
6B9
100
AcDbEntity
  8
ASSI
100
AcDbLine
 62
7
  6
CONTINUOUS
 10
-48.3451996129
 20
16.5295550257
 11
-49.3793806129
 21
16.5295550257
  0
LINE
  5
6BA
100
AcDbEntity
  8
ASSI
100
AcDbLine
 62
7
  6
CONTINUOUS
 10
-48.3451996129
 20
17.5638140257
 11
-49.3793906129
 21
17.5638140257
  0
LINE
  5
6BB
100
AcDbEntity
  8
ASSI
100
AcDbLine
 62
7
  6
CONTINUOUS
 10
-64.9336896129
 20
18.3500850257
 11
-64.0836476129
 21
18.3500850257
  0
LINE
  5
6BC
100
AcDbEntity
  8
ASSI
100
AcDbLine
 62
7
  6
CONTINUOUS
 10
-62.2044776129
 20
18.3500850257
 11
-61.3544356129
 21
18.3500850257
  0
LINE
  5
6BD
100
AcDbEntity
  8
ASSI
100
AcDbLine
 62
7
  6
CONTINUOUS
 10
-60.7877516129
 20
18.3500850257
 11
-59.9377196129
 21
18.3500850257
  0
LINE
  5
6BE
100
AcDbEntity
  8
ASSI
100
AcDbLine
 62
7
  6
CONTINUOUS
 10
-59.0877196129
 20
18.3500850257
 11
-57.8026996129
 21
18.3500850257
  0
LINE
  5
6BF
100
AcDbEntity
  8
ASSI
100
AcDbLine
 62
7
  6
CONTINUOUS
 10
-56.2153466129
 20
18.3500850257
 11
-54.9303266129
 21
18.3500850257
  0
LINE
  5
6C0
100
AcDbEntity
  8
ASSI
100
AcDbLine
 62
7
  6
CONTINUOUS
 10
-52.9990626129
 20
18.3500960257
 11
-52.1489886129
 21
18.3500960257
  0
LINE
  5
6C1
100
AcDbEntity
  8
ASSI
100
AcDbLine
 62
7
  6
CONTINUOUS
 10
-50.2177036129
 20
18.3500960257
 11
-48.2272166129
 21
18.3500960257
  0
LWPOLYLINE
  5
6C2
100
AcDbEntity
  8
ASSI
100
AcDbPolyline
 62
250
  6
CONTINUOUS
 90
16
 70
0
 10
-37.0099853157
 20
26.3706187733
 10
-37.010733663
 20
26.423225077
 10
-37.0127678113
 20
26.4748172745
 10
-37.0160379004
 20
26.5250483858
 10
-37.0204928761
 20
26.5736124452
 10
-37.0260790603
 20
26.6200596102
 10
-37.0327241848
 20
26.6637635978
 10
-37.0403254864
 20
26.7041091785
 10
-37.0488218789
 20
26.7407423801
 10
-37.0581875349
 20
26.7734828976
 10
-37.0683435148
 20
26.8020747859
 10
-37.0791448272
 20
26.8260639492
 10
-37.0904517303
 20
26.8450591838
 10
-37.1021478527
 20
26.8588759636
 10
-37.114139689
 20
26.867426555
 10
-37.1263269408
 20
26.8705997294
  0
LINE
  5
6C3
100
AcDbEntity
  8
ASSI
100
AcDbLine
 62
7
  6
CONTINUOUS
 10
-35.4754754864
 20
-3.539004033
 11
-35.4754754864
 21
26.4465929469
  0
LINE
  5
6C4
100
AcDbEntity
  8
ASSI
100
AcDbLine
 62
250
  6
CONTINUOUS
 10
-36.0243659091
 20
26.3764664456
 11
-36.0248268864
 21
-3.6973557625
  0
LINE
  5
6C5
100
AcDbEntity
  8
ASSI
100
AcDbLine
 62
250
  6
CONTINUOUS
 10
-36.0248268864
 20
-3.6973557625
 11
-36.027134983
 21
-4.0103975079
  0
LINE
  5
6C6
100
AcDbEntity
  8
ASSI
100
AcDbLine
 62
250
  6
CONTINUOUS
 10
-36.027134983
 20
-4.0103975079
 11
-36.0311890985
 21
-4.317723913
  0
LINE
  5
6C7
100
AcDbEntity
  8
ASSI
100
AcDbLine
 62
250
  6
CONTINUOUS
 10
-36.0311890985
 20
-4.317723913
 11
-36.0369966087
 21
-4.6242105602
  0
LINE
  5
6C8
100
AcDbEntity
  8
ASSI
100
AcDbLine
 62
250
  6
CONTINUOUS
 10
-36.0369966087
 20
-4.6242105602
 11
-36.0445771909
 21
-4.9310686407
  0
LINE
  5
6C9
100
AcDbEntity
  8
ASSI
100
AcDbLine
 62
250
  6
CONTINUOUS
 10
-36.0445771909
 20
-4.9310686407
 11
-36.0518743027
 21
-5.1753521612
  0
LINE
  5
6CA
100
AcDbEntity
  8
ASSI
100
AcDbLine
 62
250
  6
CONTINUOUS
 10
-36.0518743027
 20
-5.1753521612
 11
-36.0602895431
 21
-5.4196006559
  0
LWPOLYLINE
  5
6CB
100
AcDbEntity
  8
ASSI
100
AcDbPolyline
 62
250
  6
CONTINUOUS
 90
10
 70
0
 10
-36.0602895431
 20
-5.4196006559
 10
-36.0711158783
 20
-5.6948545164
 10
-36.0805221127
 20
-5.9090166388
 10
-36.090786598
 20
-6.1231397433
 10
-36.1019091634
 20
-6.3372202806
 10
-36.1138896456
 20
-6.551255064
 10
-36.1267278963
 20
-6.7652412688
 10
-36.1404237384
 20
-6.979175709
 10
-36.1549769584
 20
-7.1930548376
 10
-36.1703873421
 20
-7.4068752891
  0
LINE
  5
6CC
100
AcDbEntity
  8
ASSI
100
AcDbLine
 62
250
  6
CONTINUOUS
 10
-37.2580819311
 20
-9.1461363245
 11
-37.2782648637
 21
-9.4221684838
  0
LWPOLYLINE
  5
6CD
100
AcDbEntity
  8
ASSI
100
AcDbPolyline
 62
250
  6
CONTINUOUS
 90
10
 70
0
 10
-36.1703873421
 20
-7.4068752891
 10
-36.1909659267
 20
-7.6753732641
 10
-36.21288501
 20
-7.9437642517
 10
-36.2361440502
 20
-8.2120417586
 10
-36.2607424812
 20
-8.4801992948
 10
-36.2866797063
 20
-8.7482303706
 10
-36.3139550978
 20
-9.0161284964
 10
-36.342568006
 20
-9.2838871875
 10
-36.3725177587
 20
-9.5514999634
 10
-36.4038036551
 20
-9.8189603452
  0
LINE
  5
6CE
100
AcDbEntity
  8
ASSI
100
AcDbLine
 62
250
  6
CONTINUOUS
 10
-37.2782648637
 20
-9.4221684838
 11
-37.3008724333
 21
-9.7196946386
  0
LINE
  5
6CF
100
AcDbEntity
  8
ASSI
100
AcDbLine
 62
250
  6
CONTINUOUS
 10
-37.1396132755
 20
-7.8152763194
 11
-37.152082886
 21
-7.9665271116
  0
LINE
  5
6D0
100
AcDbEntity
  8
ASSI
100
AcDbLine
 62
250
  6
CONTINUOUS
 10
-37.152082886
 20
-7.9665271116
 11
-37.1762158019
 21
-8.2422173001
  0
LWPOLYLINE
  5
6D1
100
AcDbEntity
  8
ASSI
100
AcDbPolyline
 62
250
  6
CONTINUOUS
 90
4
 70
0
 10
-37.2274893226
 20
-8.7759141545
 10
-37.2357505223
 20
-8.8659411633
 10
-37.243580832
 20
-8.9592587028
 10
-37.2580819311
 20
-9.1461363245
  0
LWPOLYLINE
  5
6D2
100
AcDbEntity
  8
ASSI
100
AcDbPolyline
 62
250
  6
CONTINUOUS
 90
3
 70
0
 10
-37.3784144871
 20
-10.3821742083
 10
-37.3946910557
 20
-10.558016017
 10
-37.4018630914
 20
-10.6244656292
  0
LINE
  5
6D3
100
AcDbEntity
  8
ASSI
100
AcDbLine
 62
250
  6
CONTINUOUS
 10
-37.1762158019
 20
-8.2422173001
 11
-37.1988279686
 21
-8.481397349
  0
LINE
  5
6D4
100
AcDbEntity
  8
ASSI
100
AcDbLine
 62
250
  6
CONTINUOUS
 10
-37.1988279686
 20
-8.481397349
 11
-37.2274893226
 21
-8.7759141545
  0
LINE
  5
6D5
100
AcDbEntity
  8
ASSI
100
AcDbLine
 62
250
  6
CONTINUOUS
 10
-37.3655702161
 20
-10.260634252
 11
-37.3784144871
 21
-10.3821742083
  0
LINE
  5
6D6
100
AcDbEntity
  8
ASSI
100
AcDbLine
 62
250
  6
CONTINUOUS
 10
-37.4018630914
 20
-10.6244656292
 11
-37.4148409728
 21
-10.736320838
  0
LWPOLYLINE
  5
6D7
100
AcDbEntity
  8
ASSI
100
AcDbPolyline
 62
250
  6
CONTINUOUS
 90
3
 70
0
 10
-37.3008724333
 20
-9.7196946386
 10
-37.3259352916
 20
-9.9271465517
 10
-37.3655702161
 20
-10.260634252
  0
LWPOLYLINE
  5
6D8
100
AcDbEntity
  8
ASSI
100
AcDbPolyline
 62
250
  6
CONTINUOUS
 90
10
 70
0
 10
-36.4038036551
 20
-9.8189603452
 10
-36.4349100243
 20
-10.0741294178
 10
-36.4672428208
 20
-10.3291441899
 10
-36.5008012998
 20
-10.5839988837
 10
-36.535584654
 20
-10.8386874187
 10
-36.5715921226
 20
-11.0932043301
 10
-36.6088230064
 20
-11.3475447677
 10
-36.6472765156
 20
-11.6017032708
 10
-36.6869517545
 20
-11.8556737704
 10
-36.7278478413
 20
-12.1094505073
  0
LINE
  5
6D9
100
AcDbEntity
  8
ASSI
100
AcDbLine
 62
250
  6
CONTINUOUS
 10
-37.4148409728
 20
-10.736320838
 11
-37.4425206429
 21
-10.9637039327
  0
LWPOLYLINE
  5
6DA
100
AcDbEntity
  8
ASSI
100
AcDbPolyline
 62
250
  6
CONTINUOUS
 90
6
 70
0
 10
-37.4425206429
 20
-10.9637039327
 10
-37.4711571139
 20
-11.1899783439
 10
-37.4909001991
 20
-11.3411731642
 10
-37.5157577496
 20
-11.5264410468
 10
-37.545524391
 20
-11.7414487672
 10
-37.5806101917
 20
-11.9862046322
  0
LWPOLYLINE
  5
6DB
100
AcDbEntity
  8
ASSI
100
AcDbPolyline
 62
250
  6
CONTINUOUS
 90
5
 70
0
 10
-37.5806101917
 20
-11.9862046322
 10
-37.6122264502
 20
-12.2021545694
 10
-37.6424386038
 20
-12.4024620431
 10
-37.67104465
 20
-12.5871177181
 10
-37.6969791498
 20
-12.7505878962
  0
LWPOLYLINE
  5
6DC
100
AcDbEntity
  8
ASSI
100
AcDbPolyline
 62
250
  6
CONTINUOUS
 90
9
 70
0
 10
-37.6969791498
 20
-12.7505878962
 10
-37.7454475746
 20
-13.0470992315
 10
-37.7716448389
 20
-13.2032238635
 10
-37.7984943442
 20
-13.3602583537
 10
-37.825588228
 20
-13.5152584363
 10
-37.8522329123
 20
-13.6642922074
 10
-37.8790574593
 20
-13.811281619
 10
-37.9076930971
 20
-13.9650601178
 10
-37.9378416855
 20
-14.1229846425
  0
LWPOLYLINE
  5
6DD
100
AcDbEntity
  8
ASSI
100
AcDbPolyline
 62
250
  6
CONTINUOUS
 90
10
 70
0
 10
-36.7278478413
 20
-12.1094505073
 10
-36.7884105457
 20
-12.4718963726
 10
-36.8514569231
 20
-12.8339109122
 10
-36.9169840006
 20
-13.1954774776
 10
-36.9849886049
 20
-13.556578782
 10
-37.055467651
 20
-13.9171988689
 10
-37.1284181887
 20
-14.2773231049
 10
-37.2038369954
 20
-14.6369355598
 10
-37.2817205303
 20
-14.9960190136
 10
-37.3620652554
 20
-15.35455692
  0
LWPOLYLINE
  5
6DE
100
AcDbEntity
  8
ASSI
100
AcDbPolyline
 62
250
  6
CONTINUOUS
 90
5
 70
0
 10
-37.9378416855
 20
-14.1229846425
 10
-38.0068922897
 20
-14.4759349665
 10
-38.0500293164
 20
-14.6933327271
 10
-38.0987071273
 20
-14.9343124404
 10
-38.15328006
 20
-15.1988950602
  0
LWPOLYLINE
  5
6DF
100
AcDbEntity
  8
ASSI
100
AcDbPolyline
 62
250
  6
CONTINUOUS
 90
6
 70
0
 10
-38.15328006
 20
-15.1988950602
 10
-38.2193067778
 20
-15.5013001132
 10
-38.2859573841
 20
-15.7976808651
 10
-38.353117966
 20
-16.0880268453
 10
-38.422106416
 20
-16.3777324746
 10
-38.4914499961
 20
-16.6613775494
  0
LWPOLYLINE
  5
6E0
100
AcDbEntity
  8
ASSI
100
AcDbPolyline
 62
250
  6
CONTINUOUS
 90
10
 70
0
 10
-37.3620652554
 20
-15.35455692
 10
-37.473235526
 20
-15.8322829142
 10
-37.5888463589
 20
-16.3089570081
 10
-37.7088878555
 20
-16.7845381277
 10
-37.8333488009
 20
-17.2589814828
 10
-37.9622194122
 20
-17.7322500105
 10
-38.0954916967
 20
-18.2043142905
 10
-38.2331556209
 20
-18.6751373292
 10
-38.3751987544
 20
-19.1446746516
 10
-38.5216092681
 20
-19.6128856841
  0
LWPOLYLINE
  5
6E1
100
AcDbEntity
  8
ASSI
100
AcDbPolyline
 62
250
  6
CONTINUOUS
 90
5
 70
0
 10
-38.4914499961
 20
-16.6613775494
 10
-38.6136772077
 20
-17.1507516269
 10
-38.6657462131
 20
-17.3565540826
 10
-38.718218785
 20
-17.5575122775
 10
-38.7727868092
 20
-17.7569658581
  0
LINE
  5
6E2
100
AcDbEntity
  8
ASSI
100
AcDbLine
 62
250
  6
CONTINUOUS
 10
-38.7727868092
 20
-17.7569658581
 11
-38.9975312355
 21
-18.5520352297
  0
LWPOLYLINE
  5
6E3
100
AcDbEntity
  8
ASSI
100
AcDbPolyline
 62
250
  6
CONTINUOUS
 90
5
 70
0
 10
-38.9975312355
 20
-18.5520352297
 10
-39.0574007711
 20
-18.7593113976
 10
-39.1201591038
 20
-18.9714347726
 10
-39.1854123569
 20
-19.1877412792
 10
-39.2532215939
 20
-19.4082103942
  0
LWPOLYLINE
  5
6E4
100
AcDbEntity
  8
ASSI
100
AcDbPolyline
 62
250
  6
CONTINUOUS
 90
22
 70
0
 10
-39.2532215939
 20
-19.4082103942
 10
-39.4221340868
 20
-19.944362395
 10
-39.5905258198
 20
-20.4583122305
 10
-39.757702627
 20
-20.9500510501
 10
-39.9247052514
 20
-21.4239699223
 10
-40.0892821951
 20
-21.8756741757
 10
-40.2454525526
 20
-22.2920937102
 10
-40.3877196813
 20
-22.661813269
 10
-40.5196209743
 20
-22.9965251817
 10
-40.6489235792
 20
-23.3178355583
 10
-40.7749363223
 20
-23.6249018188
 10
-40.8978036434
 20
-23.9186310293
 10
-41.0275096841
 20
-24.2230635097
 10
-41.1677599812
 20
-24.546185407
 10
-41.3154217769
 20
-24.8798131798
 10
-41.4707061427
 20
-25.2236206365
 10
-41.6345923246
 20
-25.5790503581
 10
-41.8066608388
 20
-25.9444906157
 10
-41.9849153369
 20
-26.3150597483
 10
-42.1687255337
 20
-26.6890766254
 10
-42.3589735168
 20
-27.0680441778
 10
-42.5558374586
 20
-27.4518213075
  0
LINE
  5
6E5
100
AcDbEntity
  8
ASSI
100
AcDbLine
 62
7
  6
CONTINUOUS
 10
-46.5276411333
 20
-18.2888107018
 11
-46.9018615535
 21
-18.5642045736
  0
LWPOLYLINE
  5
6E6
100
AcDbEntity
  8
ASSI
100
AcDbPolyline
 62
250
  6
CONTINUOUS
 90
5
 70
0
 10
-47.166808964
 20
-18.7479648439
 10
-47.2009918661
 20
-18.7721921066
 10
-47.5034410724
 20
-18.9720071002
 10
-47.8092870797
 20
-19.163897257
 10
-47.9973031982
 20
-19.276248183
  0
LINE
  5
6E7
100
AcDbEntity
  8
ASSI
100
AcDbLine
 62
7
  6
CONTINUOUS
 10
-46.9018615535
 20
-18.5642045736
 11
-47.166808964
 21
-18.7479648439
  0
LWPOLYLINE
  5
6E8
100
AcDbEntity
  8
ASSI
100
AcDbPolyline
 62
7
  6
CONTINUOUS
 90
5
 70
0
 10
-47.9973031982
 20
-19.276248183
 10
-48.1175450652
 20
-19.3474580364
 10
-48.4290468736
 20
-19.523373338
 10
-48.7470034288
 20
-19.69344623
 10
-49.0054913979
 20
-19.8247359692
  0
LWPOLYLINE
  5
6E9
100
AcDbEntity
  8
ASSI
100
AcDbPolyline
 62
250
  6
CONTINUOUS
 90
4
 70
0
 10
-49.0054913979
 20
-19.8247359692
 10
-49.0726910426
 20
-19.8580958642
 10
-49.4055256278
 20
-20.0167242795
 10
-49.7451858458
 20
-20.1688984643
  0
LWPOLYLINE
  5
6EA
100
AcDbEntity
  8
ASSI
100
AcDbPolyline
 62
250
  6
CONTINUOUS
 90
13
 70
0
 10
-68.8592486495
 20
-28.0225370094
 10
-68.9476934808
 20
-28.0663399058
 10
-69.0323144708
 20
-28.1076515624
 10
-69.1125839471
 20
-28.1462199218
 10
-69.1880387902
 20
-28.1818229482
 10
-69.258049672
 20
-28.2141597575
 10
-69.3218801011
 20
-28.2428854358
 10
-69.3790575036
 20
-28.2677833601
 10
-69.4292552502
 20
-28.2887167463
 10
-69.4720674154
 20
-28.305524713
 10
-69.5072284801
 20
-28.3181112127
 10
-69.534549229
 20
-28.3264088404
 10
-69.5538034754
 20
-28.3303352952
  0
LWPOLYLINE
  5
6EB
100
AcDbEntity
  8
ASSI
100
AcDbPolyline
 62
250
  6
CONTINUOUS
 90
10
 70
0
 10
-49.7451858458
 20
-20.1688984643
 10
-50.3937686811
 20
-20.4329810129
 10
-51.0540270406
 20
-20.6676079508
 10
-51.7245352922
 20
-20.8722241458
 10
-52.4049128531
 20
-21.0466902891
 10
-53.0933521454
 20
-21.1902785732
 10
-53.7862921293
 20
-21.3020203915
 10
-54.4815034907
 20
-21.3817048735
 10
-55.1782567972
 20
-21.4295894184
 10
-55.8750486123
 20
-21.4457950162
  0
LWPOLYLINE
  5
6EC
100
AcDbEntity
  8
0
100
AcDbPolyline
 62
7
  6
CONTINUOUS
 90
10
 70
0
 43
0.3500000006
 10
-54.910761795
 20
44.0750018005
 10
-54.839335144
 20
43.9321439667
 10
-54.839335144
 20
43.8607127838
 10
-54.9821929779
 20
43.71785495
 10
-55.0536196289
 20
43.71785495
 10
-55.1250508118
 20
43.7892861328
 10
-55.1250508118
 20
43.8607127838
 10
-55.0536196289
 20
44.0035706177
 10
-54.9821929779
 20
44.0750018005
 10
-54.910761795
 20
44.0750018005
  0
LWPOLYLINE
  5
6ED
100
AcDbEntity
  8
ASSI
100
AcDbPolyline
 62
7
  6
CONTINUOUS
 90
16
 70
0
 10
-35.4754754864
 20
26.4465929469
 10
-35.4787828803
 20
26.4995613608
 10
-35.4872671684
 20
26.5508799652
 10
-35.5009283509
 20
26.6005487602
 10
-35.520036131
 20
26.6491016286
 10
-35.5443208054
 20
26.6960046876
 10
-35.5729732636
 20
26.7396562884
 10
-35.6061692034
 20
26.7799263582
 10
-35.643732927
 20
26.8169449698
 10
-35.6843282307
 20
26.8495006924
 10
-35.7276921526
 20
26.8773099924
 10
-35.7740876547
 20
26.9006564033
 10
-35.8229674183
 20
26.9191790949
 10
-35.8741490042
 20
26.9327577905
 10
-35.9278148517
 20
26.9415127668
 10
-35.9839649609
 20
26.9454440238
  0
LWPOLYLINE
  5
6EE
100
AcDbEntity
  8
ASSI
100
AcDbPolyline
 62
250
  6
CONTINUOUS
 90
10
 70
0
 10
-38.5216092681
 20
-19.6128856841
 10
-38.8308976165
 20
-20.5550363018
 10
-39.1574840346
 20
-21.48922441
 10
-39.5011382769
 20
-22.4151430436
 10
-39.8609940049
 20
-23.330882643
 10
-40.2373826166
 20
-24.2377826035
 10
-40.6321344129
 20
-25.1403108609
 10
-41.0459895606
 20
-26.0396410807
 10
-41.4782969298
 20
-26.9337732486
 10
-41.9290580431
 20
-27.8223011144
  0
LINE
  5
6EF
100
AcDbEntity
  8
ASSI
100
AcDbLine
 62
250
  6
CONTINUOUS
 10
-41.9290580431
 20
-27.8223011144
 11
-42.0471662364
 21
-28.048499736
  0
LWPOLYLINE
  5
6F0
100
AcDbEntity
  8
ASSI
100
AcDbPolyline
 62
250
  6
CONTINUOUS
 90
3
 70
0
 10
-42.0471662364
 20
-28.048499736
 10
-42.1663743219
 20
-28.2741231718
 10
-42.1963478974
 20
-28.3304385773
  0
LWPOLYLINE
  5
6F1
100
AcDbEntity
  8
ASSI
100
AcDbPolyline
 62
250
  6
CONTINUOUS
 90
10
 70
0
 10
-42.1962395729
 20
-28.3302319797
 10
-42.2546352582
 20
-28.4367579795
 10
-42.3155865522
 20
-28.5417090507
 10
-42.3790627595
 20
-28.6450414784
 10
-42.4450480239
 20
-28.7467335097
 10
-42.5134972488
 20
-28.8467181453
 10
-42.5843309332
 20
-28.9448869522
 10
-42.6574965009
 20
-29.0411780552
 10
-42.7329734658
 20
-29.1355723212
 10
-42.8107257364
 20
-29.2280288222
  0
LWPOLYLINE
  5
6F2
100
AcDbEntity
  8
ASSI
100
AcDbPolyline
 62
250
  6
CONTINUOUS
 90
7
 70
0
 10
-42.5553710414
 20
-27.4495850255
 10
-42.559830045
 20
-27.457416588
 10
-42.564328908
 20
-27.4652366888
 10
-42.5688694739
 20
-27.4730454486
 10
-42.5734535646
 20
-27.4808429869
 10
-42.5780829805
 20
-27.4886294219
 10
-42.5827595004
 20
-27.4964048703
  0
LWPOLYLINE
  5
6F3
100
AcDbEntity
  8
ASSI
100
AcDbPolyline
 62
250
  6
CONTINUOUS
 90
5
 70
0
 10
-42.5833542611
 20
-27.4960725522
 10
-42.6272624855
 20
-27.5730467296
 10
-42.6667266874
 20
-27.6401953263
 10
-42.7012880066
 20
-27.6978013202
 10
-42.7470512338
 20
-27.772610044
  0
LWPOLYLINE
  5
6F4
100
AcDbEntity
  8
ASSI
100
AcDbPolyline
 62
250
  6
CONTINUOUS
 90
3
 70
0
 10
-42.7720057314
 20
-27.8156768917
 10
-42.8453306173
 20
-27.9440782475
 10
-42.8908485764
 20
-28.0225370094
  0
LINE
  5
6F5
100
AcDbEntity
  8
ASSI
100
AcDbLine
 62
250
  6
CONTINUOUS
 10
-42.7470512338
 20
-27.772610044
 11
-42.7720057314
 21
-27.8156768917
  0
LINE
  5
6F6
100
AcDbEntity
  8
0
100
AcDbLine
 62
7
  6
CONTINUOUS
 10
-37.6284377628
 20
26.8907082348
 11
-37.6505547562
 21
26.8889904292
  0
LWPOLYLINE
  5
6F7
100
AcDbEntity
  8
ASSI
100
AcDbPolyline
 62
250
  6
CONTINUOUS
 90
9
 70
0
 10
-36.520558693
 20
26.8763989167
 10
-36.4080018009
 20
26.8839480835
 10
-36.3083687621
 20
26.8915592063
 10
-36.2216595765
 20
26.8992322853
 10
-36.1477772164
 20
26.9069677462
 10
-36.0868187096
 20
26.9147651631
 10
-36.0390751394
 20
26.9226232589
 10
-36.0046435339
 20
26.9305416077
 10
-35.983426865
 20
26.9385206352
  0
LWPOLYLINE
  5
6F8
100
AcDbEntity
  8
ASSI
100
AcDbPolyline
 62
250
  6
CONTINUOUS
 90
3
 70
0
 10
-36.0243659091
 20
26.3764664456
 10
-36.042531597
 20
26.3759105722
 10
-36.0688353926
 20
26.3753710566
  0
LWPOLYLINE
  5
6F9
100
AcDbEntity
  8
ASSI
100
AcDbPolyline
 62
250
  6
CONTINUOUS
 90
4
 70
0
 10
-36.5874507269
 20
26.8744385895
 10
-36.5578653437
 20
26.8750675125
 10
-36.5355679991
 20
26.8757209549
 10
-36.520558693
 20
26.8763989167
  0
LINE
  5
6FA
100
AcDbEntity
  8
ASSI
100
AcDbLine
 62
250
  6
CONTINUOUS
 10
-36.6694008302
 20
26.8732396203
 11
-36.5874507269
 21
26.8744385895
  0
LINE
  5
6FB
100
AcDbEntity
  8
ASSI
100
AcDbLine
 62
250
  6
CONTINUOUS
 10
-36.0688353926
 20
26.3753710566
 11
-36.1451185561
 21
26.3743379583
  0
LINE
  5
6FC
100
AcDbEntity
  8
ASSI
100
AcDbLine
 62
250
  6
CONTINUOUS
 10
-36.8394460931
 20
26.8717621916
 11
-36.6694008302
 21
26.8732396203
  0
LINE
  5
6FD
100
AcDbEntity
  8
ASSI
100
AcDbLine
 62
250
  6
CONTINUOUS
 10
-36.1451185561
 20
26.3743379583
 11
-36.3844892805
 21
26.3725193117
  0
LINE
  5
6FE
100
AcDbEntity
  8
ASSI
100
AcDbLine
 62
250
  6
CONTINUOUS
 10
-36.3844892805
 20
26.3725193117
 11
-36.7180607444
 21
26.3712012415
  0
LINE
  5
6FF
100
AcDbEntity
  8
ASSI
100
AcDbLine
 62
250
  6
CONTINUOUS
 10
-37.1228520322
 20
26.8706070182
 11
-36.8394460931
 21
26.8717621916
  0
LINE
  5
700
100
AcDbEntity
  8
0
100
AcDbLine
 62
250
  6
CONTINUOUS
 10
-37.1228520322
 20
26.8706070182
 11
-37.6744669537
 21
26.8695028891
  0
LINE
  5
701
100
AcDbEntity
  8
0
100
AcDbLine
 62
250
  6
CONTINUOUS
 10
-37.6744669537
 20
26.8695028891
 11
-37.7750486129
 21
26.8693127071
  0
LINE
  5
702
100
AcDbEntity
  8
ASSI
100
AcDbLine
 62
250
  6
CONTINUOUS
 10
-36.7180607444
 20
26.3712012415
 11
-38.4991855119
 21
26.3679021086
  0
LINE
  5
703
100
AcDbEntity
  8
ASSI
100
AcDbLine
 62
250
  6
CONTINUOUS
 10
-40.7892828645
 20
26.3650225682
 11
-38.4991855119
 21
26.3679021086
  0
LINE
  5
704
100
AcDbEntity
  8
0
100
AcDbLine
 62
250
  6
CONTINUOUS
 10
-38.6771826773
 20
26.8677393218
 11
-40.4530812534
 21
26.8653904007
  0
LINE
  5
705
100
AcDbEntity
  8
ASSI
100
AcDbLine
 62
7
  6
CONTINUOUS
 10
-74.4746217394
 20
26.9465603415
 11
-75.766132364
 21
26.9454518594
  0
LINE
  5
706
100
AcDbEntity
  8
ASSI
100
AcDbLine
 62
250
  6
CONTINUOUS
 10
-45.2805385254
 20
26.362154653
 11
-40.7892828645
 21
26.3650225682
  0
LINE
  5
707
100
AcDbEntity
  8
0
100
AcDbLine
 62
250
  6
CONTINUOUS
 10
-40.4530812534
 20
26.8653904007
 11
-43.2695892911
 21
26.8631929589
  0
LINE
  5
708
100
AcDbEntity
  8
0
100
AcDbLine
 62
250
  6
CONTINUOUS
 10
-43.2695892911
 20
26.8631929589
 11
-47.7404631685
 21
26.8611375418
  0
LINE
  5
709
100
AcDbEntity
  8
ASSI
100
AcDbLine
 62
250
  6
CONTINUOUS
 10
-53.0614861835
 20
26.3598879987
 11
-45.2805385254
 21
26.362154653
  0
LINE
  5
70A
100
AcDbEntity
  8
0
100
AcDbLine
 62
250
  6
CONTINUOUS
 10
-47.7404631685
 20
26.8611375418
 11
-52.3535336382
 21
26.8599609307
  0
LINE
  5
70B
100
AcDbEntity
  8
ASSI
100
AcDbLine
 62
250
  6
CONTINUOUS
 10
-53.0614861835
 20
26.3598879987
 11
-57.2957823913
 21
26.3597608272
  0
LINE
  5
70C
100
AcDbEntity
  8
0
100
AcDbLine
 62
7
  6
CONTINUOUS
 10
-37.3250486129
 20
26.9465603415
 11
-74.4250486129
 21
26.9465603415
  0
LINE
  5
70D
100
AcDbEntity
  8
ASSI
100
AcDbLine
 62
7
  6
CONTINUOUS
 10
-61.165159122
 20
26.9965603415
 11
-60.3897079915
 21
26.9965603415
  0
LINE
  5
70E
100
AcDbEntity
  8
ASSI
100
AcDbLine
 62
7
  6
CONTINUOUS
 10
-59.6753617029
 20
26.9965603415
 11
-58.2874060061
 21
26.9965603415
  0
LINE
  5
70F
100
AcDbEntity
  8
ASSI
100
AcDbLine
 62
7
  6
CONTINUOUS
 10
-58.1651960031
 20
26.9965603415
 11
-57.2951777254
 21
26.9965603415
  0
LINE
  5
710
100
AcDbEntity
  8
ASSI
100
AcDbLine
 62
7
  6
CONTINUOUS
 10
-57.188971392
 20
26.9965603415
 11
-55.764643777
 21
26.9965603415
  0
LINE
  5
711
100
AcDbEntity
  8
ASSI
100
AcDbLine
 62
7
  6
CONTINUOUS
 10
-55.546411501
 20
26.9965603415
 11
-54.1177194346
 21
26.9965603415
  0
LINE
  5
712
100
AcDbEntity
  8
ASSI
100
AcDbLine
 62
7
  6
CONTINUOUS
 10
-53.8791190376
 20
26.9965603415
 11
-52.4678847767
 21
26.9965603415
  0
LINE
  5
713
100
AcDbEntity
  8
ASSI
100
AcDbLine
 62
7
  6
CONTINUOUS
 10
-51.7753615113
 20
26.9965603415
 11
-49.9654906685
 21
26.9965603415
  0
LINE
  5
714
100
AcDbEntity
  8
0
100
AcDbLine
 62
250
  6
CONTINUOUS
 10
-52.3535336382
 20
26.8599609307
 11
-55.8750486129
 21
26.8597217399
  0
LINE
  5
715
100
AcDbEntity
  8
ASSI
100
AcDbLine
 62
250
  6
CONTINUOUS
 10
-57.2957823913
 20
26.3597608272
 11
-65.2377275309
 21
26.3616196582
  0
LINE
  5
716
100
AcDbEntity
  8
ASSI
100
AcDbLine
 62
250
  6
CONTINUOUS
 10
-65.2377275309
 20
26.3616196582
 11
-70.1717960676
 21
26.3643621265
  0
LINE
  5
717
100
AcDbEntity
  8
ASSI
100
AcDbLine
 62
7
  6
CONTINUOUS
 10
-35.9839649609
 20
26.9454440238
 11
-37.2754754864
 21
26.9465603415
  0
LINE
  5
718
100
AcDbEntity
  8
ASSI
100
AcDbLine
 62
250
  6
CONTINUOUS
 10
-70.1717960676
 20
26.3643621265
 11
-72.4927689761
 21
26.366777059
  0
LINE
  5
719
100
AcDbEntity
  8
0
100
AcDbLine
 62
250
  6
CONTINUOUS
 10
-73.0809853503
 20
26.8677523498
 11
-55.8750486129
 21
26.8597217399
  0
LINE
  5
71A
100
AcDbEntity
  8
ASSI
100
AcDbLine
 62
250
  6
CONTINUOUS
 10
-72.4927689761
 20
26.366777059
 11
-74.8402063522
 21
26.3707736368
  0
LINE
  5
71B
100
AcDbEntity
  8
0
100
AcDbLine
 62
250
  6
CONTINUOUS
 10
-74.6272451936
 20
26.8706070182
 11
-73.9750486129
 21
26.8693127071
  0
LWPOLYLINE
  5
71C
100
AcDbEntity
  8
0
100
AcDbPolyline
 62
7
  6
CONTINUOUS
 90
7
 70
0
 10
-73.3211078914
 20
26.8678336493
 10
-38.4288898854
 20
26.8678327077
 10
-38.3456739938
 20
26.867113344
 10
-38.2628741791
 20
26.8658597933
 10
-38.1804817117
 20
26.8640943029
 10
-38.0985053213
 20
26.8617946256
 10
-38.0169711973
 20
26.8588940201
  0
LINE
  5
71D
100
AcDbEntity
  8
ASSI
100
AcDbLine
 62
250
  6
CONTINUOUS
 10
-74.6272451936
 20
26.8706070182
 11
-74.9106511328
 21
26.8717621916
  0
LINE
  5
71E
100
AcDbEntity
  8
ASSI
100
AcDbLine
 62
250
  6
CONTINUOUS
 10
-75.4354232855
 20
26.3729350523
 11
-74.8402063522
 21
26.3707736368
  0
LINE
  5
71F
100
AcDbEntity
  8
ASSI
100
AcDbLine
 62
250
  6
CONTINUOUS
 10
-75.6049786697
 20
26.3743379583
 11
-75.4354232855
 21
26.3729350523
  0
LINE
  5
720
100
AcDbEntity
  8
ASSI
100
AcDbLine
 62
250
  6
CONTINUOUS
 10
-74.9106511328
 20
26.8717621916
 11
-75.0806963956
 21
26.8732396203
  0
LWPOLYLINE
  5
721
100
AcDbEntity
  8
ASSI
100
AcDbPolyline
 62
250
  6
CONTINUOUS
 90
5
 70
0
 10
-75.0806963956
 20
26.8732396203
 10
-75.1626464989
 20
26.8744385895
 10
-75.1922318821
 20
26.8750675125
 10
-75.2145292267
 20
26.8757209549
 10
-75.2295385328
 20
26.8763989167
  0
LWPOLYLINE
  5
722
100
AcDbEntity
  8
ASSI
100
AcDbPolyline
 62
250
  6
CONTINUOUS
 90
4
 70
0
 10
-75.7257313168
 20
26.3764664456
 10
-75.7075656288
 20
26.3759105722
 10
-75.6812618332
 20
26.3753710566
 10
-75.6049786697
 20
26.3743379583
  0
LWPOLYLINE
  5
723
100
AcDbEntity
  8
ASSI
100
AcDbPolyline
 62
250
  6
CONTINUOUS
 90
9
 70
0
 10
-75.2295385328
 20
26.8763989167
 10
-75.3420954249
 20
26.8839480835
 10
-75.4417284638
 20
26.8915592063
 10
-75.5284376493
 20
26.8992322853
 10
-75.6023200094
 20
26.9069677462
 10
-75.6632785163
 20
26.9147651631
 10
-75.7110220864
 20
26.9226232589
 10
-75.745453692
 20
26.9305416077
 10
-75.7666703608
 20
26.9385206352
  0
LINE
  5
724
100
AcDbEntity
  8
0
100
AcDbLine
 62
7
  6
CONTINUOUS
 10
-74.0995424696
 20
26.8889904292
 11
-74.121659463
 21
26.8907082348
  0
LWPOLYLINE
  5
725
100
AcDbEntity
  8
ASSI
100
AcDbPolyline
 62
250
  6
CONTINUOUS
 90
7
 70
0
 10
-43.4032658849
 20
-28.7281505158
 10
-43.3084877039
 20
-28.6189985242
 10
-43.2173835716
 20
-28.5062886004
 10
-43.1300122809
 20
-28.3901533046
 10
-43.0464307013
 20
-28.2707275417
 10
-42.9666927991
 20
-28.1481448493
 10
-42.8908485764
 20
-28.0225370094
  0
LWPOLYLINE
  5
726
100
AcDbEntity
  8
ASSI
100
AcDbPolyline
 62
250
  6
CONTINUOUS
 90
13
 70
0
 10
-42.8107257364
 20
-29.2280288222
 10
-43.0270149544
 20
-29.462805024
 10
-43.2581898191
 20
-29.6829621748
 10
-43.5037133196
 20
-29.8878817989
 10
-43.7623193077
 20
-30.0764420456
 10
-44.032844117
 20
-30.2477200902
 10
-44.3145545292
 20
-30.4012661917
 10
-44.6063704239
 20
-30.5363665495
 10
-44.9068975527
 20
-30.6522318894
 10
-45.2149309663
 20
-30.748400722
 10
-45.5294118562
 20
-30.824475966
 10
-45.8495346799
 20
-30.8800804668
 10
-46.1743321393
 20
-30.9147979809
  0
LWPOLYLINE
  5
727
100
AcDbEntity
  8
ASSI
100
AcDbPolyline
 62
7
  6
CONTINUOUS
 90
16
 70
0
 10
-75.766132364
 20
26.9454518594
 10
-75.8229404705
 20
26.9414198178
 10
-75.8771737093
 20
26.9324793986
 10
-75.9288320804
 20
26.9186306018
 10
-75.9781279193
 20
26.8997006978
 10
-76.0248488904
 20
26.8758624161
 10
-76.0683579873
 20
26.8476339454
 10
-76.1088499867
 20
26.8147493822
 10
-76.1461301119
 20
26.77747463
 10
-76.1789770266
 20
26.7371255882
 10
-76.2072020139
 20
26.6936412027
 10
-76.2309937907
 20
26.6470825276
 10
-76.2496971703
 20
26.598948624
 10
-76.2630937572
 20
26.5497391791
 10
-76.2714019469
 20
26.4989545058
 10
-76.2746217394
 20
26.4465946041
  0
LWPOLYLINE
  5
728
100
AcDbEntity
  8
0
100
AcDbPolyline
 62
7
  6
CONTINUOUS
 90
4
 70
0
 10
-73.9750486129
 20
26.8465198932
 10
-73.8948380213
 20
26.8512461738
 10
-73.8141850369
 20
26.8553713577
 10
-73.7330896596
 20
26.858895445
  0
LWPOLYLINE
  5
729
100
AcDbEntity
  8
ASSI
100
AcDbPolyline
 62
250
  6
CONTINUOUS
 90
16
 70
0
 10
-75.2302990995
 20
26.8793193252
 10
-75.2822927821
 20
26.8764948242
 10
-75.3336985609
 20
26.868181965
 10
-75.3839496471
 20
26.8544771039
 10
-75.4324889021
 20
26.8355377064
 10
-75.4787870137
 20
26.8115760087
 10
-75.5223462864
 20
26.7828525149
 10
-75.5626936094
 20
26.7496789301
 10
-75.5993772962
 20
26.7124252321
 10
-75.6319852642
 20
26.6715109297
 10
-75.660155305
 20
26.6273987666
 10
-75.6835887488
 20
26.5805680773
 10
-75.7020381039
 20
26.5315141845
 10
-75.7152989484
 20
26.4807683672
 10
-75.7232192748
 20
26.4288955205
 10
-75.7257087552
 20
26.3764665842
  0
LWPOLYLINE
  5
72A
100
AcDbEntity
  8
0
100
AcDbPolyline
 62
7
  6
CONTINUOUS
 90
6
 70
0
 10
-73.7330896596
 20
26.858895445
 10
-73.6515431553
 20
26.8617961542
 10
-73.5695542583
 20
26.8640957668
 10
-73.4871491706
 20
26.8658611264
 10
-73.4043366263
 20
26.8671145143
 10
-73.3211078914
 20
26.8678336493
  0
LWPOLYLINE
  5
72B
100
AcDbEntity
  8
0
100
AcDbPolyline
 62
7
  6
CONTINUOUS
 90
3
 70
0
 10
-38.0169711973
 20
26.8588940201
 10
-37.9358880695
 20
26.8553702393
 10
-37.855247208
 20
26.8512455303
  0
LWPOLYLINE
  5
72C
100
AcDbEntity
  8
ASSI
100
AcDbPolyline
 62
250
  6
CONTINUOUS
 90
16
 70
0
 10
-36.5197981263
 20
26.8793193252
 10
-36.4678044437
 20
26.8764948242
 10
-36.416398665
 20
26.868181965
 10
-36.3661475788
 20
26.8544771039
 10
-36.3176083237
 20
26.8355377064
 10
-36.2713102121
 20
26.8115760087
 10
-36.2277509394
 20
26.7828525149
 10
-36.1874036165
 20
26.7496789301
 10
-36.1507199296
 20
26.7124252321
 10
-36.1181119617
 20
26.6715109297
 10
-36.0899419208
 20
26.6273987666
 10
-36.0665084771
 20
26.5805680773
 10
-36.0480591219
 20
26.5315141845
 10
-36.0347982775
 20
26.4807683672
 10
-36.0268779511
 20
26.4288955205
 10
-36.0243884707
 20
26.3764665842
  0
LINE
  5
72D
100
AcDbEntity
  8
0
100
AcDbLine
 62
7
  6
CONTINUOUS
 10
-37.855247208
 20
26.8512455303
 11
-37.7750486129
 21
26.8465198932
  0
LWPOLYLINE
  5
72E
100
AcDbEntity
  8
0
100
AcDbPolyline
 62
7
  6
CONTINUOUS
 90
3
 70
0
 43
0.3500000006
 10
-58.7679051819
 20
44.2178551025
 10
-60.2679056396
 20
44.2178551025
 10
-59.6250476532
 20
46.5749980316
  0
LWPOLYLINE
  5
72F
100
AcDbEntity
  8
0
100
AcDbPolyline
 62
7
  6
CONTINUOUS
 90
13
 70
0
 43
0.3500000006
 10
-53.4107613373
 20
45.2892865906
 10
-53.696477005
 20
45.5035710754
 10
-53.696477005
 20
46.1464290619
 10
-53.4107613373
 20
46.5749980316
 10
-52.7679078827
 20
46.5749980316
 10
-52.482192215
 20
46.1464290619
 10
-52.482192215
 20
45.5035710754
 10
-52.7679078827
 20
45.2892865906
 10
-52.3393343811
 20
44.860713089
 10
-52.3393343811
 20
44.0035706177
 10
-52.7679078827
 20
43.5750016479
 10
-53.4107613373
 20
43.5750016479
 10
-53.8393348389
 20
44.0035706177
  0
ARC
  5
730
100
AcDbEntity
  8
ASSI
100
AcDbCircle
 62
7
  6
CONTINUOUS
 10
-0.0035954416
 20
28.2228464051
 40
60.0478465384
100
AcDbArc
 50
275.9150078878
 51
277.8946830695
  0
ARC
  5
731
100
AcDbEntity
  8
ASSI
100
AcDbCircle
 62
7
  6
CONTINUOUS
 10
0.0035954416
 20
28.2228464051
 40
60.0478465384
100
AcDbArc
 50
262.1053169305
 51
264.0849921122
  0
ARC
  5
732
100
AcDbEntity
  8
ASSI
100
AcDbCircle
 62
7
  6
CONTINUOUS
 10
4.5
 20
-34.0250000257
 40
0.8
100
AcDbArc
 50
270.0
 51
360.0
  0
ARC
  5
733
100
AcDbEntity
  8
ASSI
100
AcDbCircle
 62
7
  6
CONTINUOUS
 10
5.25
 20
-32.5265640584
 40
0.8
100
AcDbArc
 50
282.153197469
 51
360.0
  0
ARC
  5
734
100
AcDbEntity
  8
ASSI
100
AcDbCircle
 62
7
  6
CONTINUOUS
 10
-4.5
 20
-34.0250000257
 40
0.8
100
AcDbArc
 50
180.0
 51
270.0
  0
ARC
  5
735
100
AcDbEntity
  8
ASSI
100
AcDbCircle
 62
7
  6
CONTINUOUS
 10
-5.25
 20
-32.5265640584
 40
0.8
100
AcDbArc
 50
180.0
 51
257.846802531
  0
ARC
  5
736
100
AcDbEntity
  8
ASSI
100
AcDbCircle
 62
7
  6
CONTINUOUS
 10
9.9500040844
 20
-2.1249424498
 40
0.4999917822
100
AcDbArc
 50
359.9941291687
 51
89.999744174
  0
ARC
  5
737
100
AcDbEntity
  8
ASSI
100
AcDbCircle
 62
7
  6
CONTINUOUS
 10
5.45
 20
-33.4552728394
 40
0.15
100
AcDbArc
 50
102.153197469
 51
180.0
  0
ARC
  5
738
100
AcDbEntity
  8
ASSI
100
AcDbCircle
 62
7
  6
CONTINUOUS
 10
-5.45
 20
-33.4552728394
 40
0.15
100
AcDbArc
 50
0.0
 51
77.846802531
  0
ARC
  5
739
100
AcDbEntity
  8
ASSI
100
AcDbCircle
 62
7
  6
CONTINUOUS
 10
6.1999785131
 20
-31.6544997747
 40
0.1499994802
100
AcDbArc
 50
95.9150505483
 51
179.9999998604
  0
ARC
  5
73A
100
AcDbEntity
  8
ASSI
100
AcDbCircle
 62
7
  6
CONTINUOUS
 10
-6.1999785131
 20
-31.6544997747
 40
0.1499994802
100
AcDbArc
 50
0.0000001478
 51
84.0849494603
  0
ARC
  5
73B
100
AcDbEntity
  8
ASSI
100
AcDbCircle
 62
7
  6
CONTINUOUS
 10
-88.4754754934
 20
-3.5389999747
 40
53.0000002088
100
AcDbArc
 50
331.5249418055
 51
359.9999956127
  0
ARC
  5
73C
100
AcDbEntity
  8
ASSI
100
AcDbCircle
 62
7
  6
CONTINUOUS
 10
-61.1250486129
 20
-32.5265640584
 40
0.8
100
AcDbArc
 50
179.9999997244
 51
257.846802531
  0
ARC
  5
73D
100
AcDbEntity
  8
ASSI
100
AcDbCircle
 62
7
  6
CONTINUOUS
 10
-60.3750486129
 20
-34.0250000257
 40
0.8
100
AcDbArc
 50
180.0
 51
270.0
  0
ARC
  5
73E
100
AcDbEntity
  8
ASSI
100
AcDbCircle
 62
7
  6
CONTINUOUS
 10
-61.3250486129
 20
-33.4552728394
 40
0.15
100
AcDbArc
 50
0.0
 51
77.846802531
  0
ARC
  5
73F
100
AcDbEntity
  8
ASSI
100
AcDbCircle
 62
7
  6
CONTINUOUS
 10
-62.0750368036
 20
-31.8149035136
 40
0.1499997143
100
AcDbArc
 50
359.9995553765
 51
87.0465748219
  0
ARC
  5
740
100
AcDbEntity
  8
ASSI
100
AcDbCircle
 62
7
  6
CONTINUOUS
 10
-51.3750486129
 20
-34.0250000257
 40
0.8
100
AcDbArc
 50
270.0
 51
360.0
  0
ARC
  5
741
100
AcDbEntity
  8
ASSI
100
AcDbCircle
 62
7
  6
CONTINUOUS
 10
-50.6250486129
 20
-32.5265640584
 40
0.8
100
AcDbArc
 50
282.153197469
 51
0.0000002756
  0
CIRCLE
  5
742
100
AcDbEntity
  8
ASSI
100
AcDbCircle
 62
7
  6
CONTINUOUS
 10
-50.0209875584
 20
-9.7621565977
 40
0.2134463406
  0
ARC
  5
743
100
AcDbEntity
  8
ASSI
100
AcDbCircle
 62
7
  6
CONTINUOUS
 10
-50.4250486129
 20
-33.4552728394
 40
0.15
100
AcDbArc
 50
102.153197469
 51
180.0
  0
ARC
  5
744
100
AcDbEntity
  8
ASSI
100
AcDbCircle
 62
7
  6
CONTINUOUS
 10
-49.6750605061
 20
-31.8149476234
 40
0.1499997123
100
AcDbArc
 50
92.9529842482
 51
180.000446441
  0
CIRCLE
  5
745
100
AcDbEntity
  8
ASSI
100
AcDbCircle
 62
7
  6
CONTINUOUS
 10
-50.0209875584
 20
-9.7621565977
 40
0.1386608172
  0
CIRCLE
  5
746
100
AcDbEntity
  8
ASSI
100
AcDbCircle
 62
7
  6
CONTINUOUS
 10
-55.8750486129
 20
1.3750000257
 40
3.0
  0
CIRCLE
  5
747
100
AcDbEntity
  8
ASSI
100
AcDbCircle
 62
7
  6
CONTINUOUS
 10
-55.8750486129
 20
1.3750000257
 40
1.35
  0
ARC
  5
748
100
AcDbEntity
  8
ASSI
100
AcDbCircle
 62
7
  6
CONTINUOUS
 10
-48.2272166129
 20
17.0466820257
 40
1.303416637
100
AcDbArc
 50
292.8428913314
 51
90.0
  0
CIRCLE
  5
749
100
AcDbEntity
  8
ASSI
100
AcDbCircle
 62
7
  6
CONTINUOUS
 10
-55.8750486129
 20
1.3750000257
 40
1.3
  0
CIRCLE
  5
74A
100
AcDbEntity
  8
ASSI
100
AcDbCircle
 62
7
  6
CONTINUOUS
 10
-55.8750486129
 20
1.3750000257
 40
1.15
  0
CIRCLE
  5
74B
100
AcDbEntity
  8
ASSI
100
AcDbCircle
 62
7
  6
CONTINUOUS
 10
-55.8750486129
 20
1.3750000257
 40
1.059240575
  0
ARC
  5
74C
100
AcDbEntity
  8
ASSI
100
AcDbCircle
 62
7
  6
CONTINUOUS
 10
-48.3451996129
 20
17.0466820257
 40
0.51713
100
AcDbArc
 50
270.0
 51
90.0
  0
ARC
  5
74D
100
AcDbEntity
  8
ASSI
100
AcDbCircle
 62
7
  6
CONTINUOUS
 10
-23.2746217325
 20
-3.5389999747
 40
53.0000002088
100
AcDbArc
 50
180.0000043873
 51
208.4750581944
  0
ARC
  5
74E
100
AcDbEntity
  8
ASSI
100
AcDbCircle
 62
7
  6
CONTINUOUS
 10
-55.8746217329
 20
88.1750370392
 40
120.0000370649
100
AcDbArc
 50
265.2148597924
 51
267.0418969231
  0
ARC
  5
74F
100
AcDbEntity
  8
ASSI
100
AcDbCircle
 62
7
  6
CONTINUOUS
 10
-55.8746217329
 20
88.1750370392
 40
120.0000370649
100
AcDbArc
 50
272.9576954041
 51
274.7845585425
  0
ELLIPSE
  5
750
100
AcDbEntity
  8
ASSI
100
AcDbEllipse
 62
7
  6
CONTINUOUS
 10
-189.5499999788
 20
35.4175323126
 30
0.0
 11
0.0
 21
623.014123554
 31
0.0
 40
0.3210681591
 41
4.6781653578
 42
4.6849905922
  0
ELLIPSE
  5
751
100
AcDbEntity
  8
ASSI
100
AcDbEllipse
 62
7
  6
CONTINUOUS
 10
-189.5499999788
 20
-7.2180875943
 30
0.0
 11
0.0
 21
623.0217306393
 31
0.0
 40
0.3210642388
 41
-1.5344465939
 42
-1.5297458244
  0
ELLIPSE
  5
752
100
AcDbEntity
  8
ASSI
100
AcDbEllipse
 62
7
  6
CONTINUOUS
 10
-189.5499999788
 20
19.5383334021
 30
0.0
 11
0.0
 21
697.587214372
 31
0.0
 40
0.2867455045
 41
4.7086105803
 42
4.7106856106
  0
ELLIPSE
  5
753
100
AcDbEntity
  8
ASSI
100
AcDbEllipse
 62
7
  6
CONTINUOUS
 10
-189.5499999788
 20
38.0655266223
 30
0.0
 11
0.0
 21
623.0283614928
 31
0.0
 40
0.3210608218
 41
-1.6071460597
 42
-1.6024461436
  0
ELLIPSE
  5
754
100
AcDbEntity
  8
ASSI
100
AcDbEllipse
 62
7
  6
CONTINUOUS
 10
-189.5499999788
 20
-9.8656196347
 30
0.0
 11
0.0
 21
623.0207581368
 31
0.0
 40
0.32106474
 41
-1.5323202142
 42
-1.5254922843
  0
ELLIPSE
  5
755
100
AcDbEntity
  8
0
100
AcDbEllipse
 62
7
  6
CONTINUOUS
 10
-16.2746217394
 20
26.9465603415
 30
0.0
 11
58.2
 21
-0.0
 31
0.0
 40
0.0087268678
 41
-3.0280004427
 42
-3.0104740893
  0
ELLIPSE
  5
756
100
AcDbEntity
  8
0
100
AcDbEllipse
 62
7
  6
CONTINUOUS
 10
-95.4754754864
 20
26.9465603415
 30
0.0
 11
58.2
 21
-0.0
 31
0.0
 40
0.0087268678
 41
-0.1311185643
 42
-0.1135922109
  0
ELLIPSE
  5
757
100
AcDbEntity
  8
0
100
AcDbEllipse
 62
7
  6
CONTINUOUS
 10
-95.4754754864
 20
26.9465603415
 30
0.0
 11
58.2
 21
-0.0
 31
0.0
 40
0.0087268678
 41
6.1729965285
 42
6.2831853072
  0
ELLIPSE
  5
758
100
AcDbEntity
  8
0
100
AcDbEllipse
 62
7
  6
CONTINUOUS
 10
-16.2746217394
 20
26.9465603415
 30
0.0
 11
58.2
 21
-0.0
 31
0.0
 40
0.0087268678
 41
3.1415926536
 42
3.2517814323
  0
ENDSEC
  0
SECTION
  2
OBJECTS
  0
DICTIONARY
  5
C
100
AcDbDictionary
280
0
281
1
  3
ACAD_GROUP
350
D
  3
ACAD_MLINESTYLE
350
17
  3
ACAD_LAYOUT
350
1A
  3
ACAD_PLOTSETTINGS
350
19
  3
ACAD_PLOTSTYLENAME
350
E
  0
DICTIONARY
  5
D
102
{ACAD_REACTORS
330
C
102
}
100
AcDbDictionary
280
0
281
1
  0
ACDBDICTIONARYWDFLT
  5
E
102
{ACAD_REACTORS
330
C
102
}
100
AcDbDictionary
281
1
  3
Normal
350
F
100
AcDbDictionaryWithDefault
340
F
  0
DICTIONARY
  5
17
102
{ACAD_REACTORS
330
C
102
}
100
AcDbDictionary
280
0
281
1
  3
Standard
350
18
  0
DICTIONARY
  5
19
102
{ACAD_REACTORS
330
C
102
}
100
AcDbDictionary
281
1
  0
DICTIONARY
  5
1A
102
{ACAD_REACTORS
330
C
102
}
100
AcDbDictionary
281
1
  3
Model
350
759
  3
Layout1
350
75A
  0
ACDBPLACEHOLDER
  5
F
102
{ACAD_REACTORS
330
E
102
}
  0
MLINESTYLE
  5
18
102
{ACAD_REACTORS
330
17
102
}
100
AcDbMlineStyle
  2
STANDARD
 70
0
  3

 62
256
 51
90.0
 52
90.0
 71
2
 49
0.5
 62
256
  6
BYLAYER
 49
-0.5
 62
256
  6
BYLAYER
  0
LAYOUT
  5
759
102
{ACAD_REACTORS
330
1A
102
}
100
AcDbPlotSettings
  1

  2
none_device
  4
ISO_A4_(297.00_x_210.00_MM)
  6

 40
0.0
 41
0.0
 42
0.0
 43
0.0
 44
297.0
 45
210.0
 46
0.0
 47
0.0
 48
0.0
 49
0.0
140
0.0
141
0.0
142
1.0
143
1.0
 70
1024
 72
1
 73
0
 74
0
  7

 75
0
147
1.0
148
0.0
149
0.0
100
AcDbLayout
  1
Model
 70
0
 71
0
 10
0.0
 20
0.0
 11
297.0
 21
210.0
 12
0.0
 22
0.0
 32
0.0
 14
0.0
 24
0.0
 34
0.0
 15
0.0
 25
0.0
 35
0.0
146
0.0
 13
0.0
 23
0.0
 33
0.0
 16
1.0
 26
0.0
 36
0.0
 17
0.0
 27
1.0
 37
0.0
 76
0
330
21E
345
0
346
0
  0
LAYOUT
  5
75A
102
{ACAD_REACTORS
330
1A
102
}
100
AcDbPlotSettings
  1

  2
none_device
  4
ISO_A4_(297.00_x_210.00_MM)
  6

 40
0.0
 41
0.0
 42
0.0
 43
0.0
 44
297.0
 45
210.0
 46
0.0
 47
0.0
 48
0.0
 49
0.0
140
0.0
141
0.0
142
1.0
143
1.0
 70
0
 72
1
 73
0
 74
0
  7

 75
0
147
1.0
148
0.0
149
0.0
100
AcDbLayout
  1
Layout1
 70
0
 71
1
 10
0.0
 20
0.0
 11
297.0
 21
210.0
 12
0.0
 22
0.0
 32
0.0
 14
0.0
 24
0.0
 34
0.0
 15
0.0
 25
0.0
 35
0.0
146
0.0
 13
0.0
 23
0.0
 33
0.0
 16
1.0
 26
0.0
 36
0.0
 17
0.0
 27
1.0
 37
0.0
 76
0
330
21F
345
0
346
0
  0
ENDSEC
  0
EOF
